  0
SECTION
  2
HEADER
  9
$ACADVER
  1
AC1006
  9
$INSBASE
 10
-531.767332
 20
3336.680672
 30
0.0
  9
$EXTMIN
 10
-531.767332
 20
3336.680672
  9
$EXTMAX
 10
4928.232668
 20
7191.680672
  9
$LIMMIN
 10
-531.767332
 20
3336.680672
  9
$LIMMAX
 10
4928.232668
 20
7191.680672
  9
$VIEWCTR
 10
2198.232668
 20
5264.180672
  9
$VIEWSIZE
 40
3855.000000
  9
$SNAPMODE
 70
     0
  9
$SNAPUNIT
 10
1.0
 20
1.0
  9
$SNAPBASE
 10
0.0
 20
0.0
  9
$SNAPANG
 50
0.0
  9
$SNAPSTYLE
 70
     0
  9
$SNAPISOPAIR
 70
     0
  9
$GRIDMODE
 70
     0
  9
$GRIDUNIT
 10
0.0
 20
0.0
  9
$ORTHOMODE
 70
     0
  9
$REGENMODE
 70
     1
  9
$FILLMODE
 70
     1
  9
$QTEXTMODE
 70
     0
  9
$DRAGMODE
 70
     2
  9
$LTSCALE
 40
15.000000
  9
$OSMODE
 70
     0
  9
$ATTMODE
 70
     1
  9
$TEXTSIZE
 40
0.2
  9
$TRACEWID
 40
0.05
  9
$TEXTSTYLE
  7
STANDARD
  9
$CLAYER
  8
CSLAYER1
  9
$CELTYPE
  6
BYLAYER
  9
$CECOLOR
 62
   256
  9
$DIMSCALE
 40
1.0
  9
$DIMASZ
 40
0.18
  9
$DIMEXO
 40
0.0625
  9
$DIMDLI
 40
0.38
  9
$DIMRND
 40
0.0
  9
$DIMDLE
 40
0.0
  9
$DIMEXE
 40
0.18
  9
$DIMTP
 40
0.0
  9
$DIMTM
 40
0.0
  9
$DIMTXT
 40
0.18
  9
$DIMCEN
 40
0.09
  9
$DIMTSZ
 40
0.0
  9
$DIMTOL
 70
     0
  9
$DIMLIM
 70
     0
  9
$DIMTIH
 70
     1
  9
$DIMTOH
 70
     1
  9
$DIMSE1
 70
     0
  9
$DIMSE2
 70
     0
  9
$DIMTAD
 70
     0
  9
$DIMZIN
 70
     0
  9
$DIMBLK
  1

  9
$LUNITS
 70
     2
  9
$LUPREC
 70
     4
  9
$AXISMODE
 70
     0
  9
$AXISUNIT
 10
0.0
 20
0.0
  9
$SKETCHINC
 40
0.1
  9
$FILLETRAD
 40
0.0
  9
$AUNITS
 70
     0
  9
$AUPREC
 70
     0
  9
$MENU
  1
ACAD
  9
$ELEVATION
 40
0.0
  9
$THICKNESS
 40
0.0
  9
$VIEWDIR
 10
0.0
 20
0.0
 30
1.0
  9
$LIMCHECK
 70
     0
  9
$BLIPMODE
 70
     1
  9
$CHAMFERA
 40
0.0
  9
$CHAMFERB
 40
0.0
  9
$FASTZOOM
 70
     1
  9
$SKPOLY
 70
     0
  9
$TDCREATE
 40
2457800.000000
  9
$TDUPDATE
 40
2457800.000000
  9
$TDINDWG
 40
0.0
  9
$TDUSRTIMER
 40
0.0
  9
$USRTIMER
 70
     1
  9
$ANGBASE
 50
0.0
  9
$ANGDIR
 70
     0
  9
$PDMODE
 70
     0
  9
$PDSIZE
 40
0.0
  9
$PLINEWID
 40
0.0
  9
$COORDS
 70
     0
  9
$USERI1
 70
     0
  9
$USERI2
 70
     0
  9
$USERI3
 70
     0
  9
$USERI4
 70
     0
  9
$USERI5
 70
     0
  9
$USERR1
 40
0.0
  9
$USERR2
 40
0.0
  9
$USERR3
 40
0.0
  9
$USERR4
 40
0.0
  9
$USERR5
 40
0.0
  0
ENDSEC
  0
SECTION
  2
TABLES
  0
TABLE
  2
LTYPE
 70
     9
  0
LTYPE
  2
CONTINUOUS
 70
    64
  3
Solid line
 72
    65
 73
     0
 40
0.0
  0
LTYPE
  2
DASHED
 70
    64
  3
__ __ __ __ __ __ __ __ __ __ __ __ __ __ __
 72
    65
 73
     2
 40
0.75
 49
0.5
 49
-0.25
  0
LTYPE
  2
HIDDEN
 70
    64
  3
_ _ _ _ _ _ _ _ _ _ _ _ _ _ _ _ _ _ _ _ _ _ _
 72
    65
 73
     2
 40
0.375
 49
0.25
 49
-0.125
  0
LTYPE
  2
DOT
 70
    64
  3
...............................................
 72
    65
 73
     2
 40
0.25
 49
0.0
 49
-0.25
  0
LTYPE
  2
DASHDOT
 70
    64
  3
__ . __ . __ . __ . __ . __ . __ . __ . __ . __
 72
    65
 73
     4
 40
1.0
 49
0.5
 49
-0.25
 49
0.0
 49
-0.25
  0
LTYPE
  2
DIVIDE
 70
    64
  3
__ . . __ . . __ . . __ . . __ . . __ . . __
 72
    65
 73
     6
 40
1.25
 49
0.5
 49
-0.25
 49
0.0
 49
-0.25
 49
0.0
 49
-0.25
  0
LTYPE
  2
CENTER
 70
    64
  3
____ _ ____ _ ____ _ ____ _ ____ _ ____ _ ____ 
 72
    65
 73
     4
 40
2.0
 49
1.25
 49
-0.25
 49
0.25
 49
-0.25
  0
LTYPE
  2
PHANTOM
 70
    64
  3
______  __  __  ______  __  __  ______  __  __ 
 72
    65
 73
     6
 40
2.5
 49
1.25
 49
-0.25
 49
0.25
 49
-0.25
 49
0.25
 49
-0.25
  0
LTYPE
  2
BORDER
 70
    64
  3
__ __ . __ __ . __ __ . __ __ . __ __ . __ __ .
 72
    65
 73
     6
 40
1.75
 49
0.5
 49
-0.25
 49
0.5
 49
-0.25
 49
0.0
 49
-0.25
  0
ENDTAB
  0
TABLE
  2
LAYER
 70
    16
  0
LAYER
  2
CSLAYER1
 70
    64
 62
     7
  6
CONTINUOUS
  0
LAYER
  2
CSLAYER2
 70
    64
 62
     7
  6
CONTINUOUS
  0
LAYER
  2
CSLAYER3
 70
    64
 62
     7
  6
CONTINUOUS
  0
LAYER
  2
CSLAYER4
 70
    64
 62
     7
  6
CONTINUOUS
  0
LAYER
  2
CSLAYER5
 70
    64
 62
     7
  6
CONTINUOUS
  0
LAYER
  2
CSLAYER6
 70
    64
 62
     7
  6
CONTINUOUS
  0
LAYER
  2
CSLAYER7
 70
    64
 62
     7
  6
CONTINUOUS
  0
LAYER
  2
CSLAYER8
 70
    64
 62
     7
  6
CONTINUOUS
  0
LAYER
  2
CSLAYER9
 70
    64
 62
     7
  6
CONTINUOUS
  0
LAYER
  2
CSLAYER10
 70
    64
 62
     7
  6
CONTINUOUS
  0
LAYER
  2
CSLAYER11
 70
    64
 62
     7
  6
CONTINUOUS
  0
LAYER
  2
CSLAYER12
 70
    64
 62
     7
  6
CONTINUOUS
  0
LAYER
  2
CSLAYER13
 70
    64
 62
     7
  6
CONTINUOUS
  0
LAYER
  2
CSLAYER14
 70
    64
 62
     7
  6
CONTINUOUS
  0
LAYER
  2
CSLAYER15
 70
    64
 62
     7
  6
CONTINUOUS
  0
LAYER
  2
CSLAYER16
 70
    64
 62
     7
  6
CONTINUOUS
  0
ENDTAB
  0
TABLE
  2
STYLE
 70
     1
  0
STYLE
  2
EASYDRAW_FONT
 70
     0
 40
1.0
 41
1.0
 50
0.0
 71
     0
 42
1.0
  3
monotxt
  4
bigfont
  0
ENDTAB
  0
TABLE
  2
VIEW
 70
     0
  0
ENDTAB
  0
ENDSEC
  0
SECTION
  2
BLOCKS
  0
BLOCK
  8
CSLAYER1
  2
*D0000
 70
    65
 10
0.0
 20
0.0
 30
0.0
  0
TEXT
  8
CSLAYER1
 62
     3
 10
2331.647949
 20
2294.121094
 40
60.000000
 41
0.818182
  1
1050
 50
0.000000
 51
0.000000
  7
EASYDRAW_FONT
 72
     5
 11
2511.647949
 21
2294.121094
  0
LINE
  8
CSLAYER1
  6
CONTINUOUS
 62
     5
 10
1896.648101
 20
2172.607557
 11
1896.648101
 21
2294.120926
  0
LINE
  8
CSLAYER1
  6
CONTINUOUS
 62
     5
 10
2946.648101
 20
2172.607557
 11
2946.648101
 21
2294.120926
  0
LINE
  8
CSLAYER1
  6
CONTINUOUS
 62
     5
 10
1896.648101
 20
2279.120926
 11
2946.648101
 21
2279.120926
  0
LINE
  8
CSLAYER1
  6
CONTINUOUS
 62
     5
 10
1896.648101
 20
2279.120926
 11
1940.114763
 21
2290.767783
  0
LINE
  8
CSLAYER1
  6
CONTINUOUS
 62
     5
 10
1896.648101
 20
2279.120926
 11
1940.114763
 21
2267.474069
  0
LINE
  8
CSLAYER1
  6
CONTINUOUS
 62
     5
 10
2946.648101
 20
2279.120926
 11
2903.181439
 21
2290.767783
  0
LINE
  8
CSLAYER1
  6
CONTINUOUS
 62
     5
 10
2946.648101
 20
2279.120926
 11
2903.181439
 21
2267.474069
  0
ENDBLK
  8
0
  0
BLOCK
  8
CSLAYER1
  2
*D0001
 70
    65
 10
0.0
 20
0.0
 30
0.0
  0
TEXT
  8
CSLAYER1
 62
     3
 10
3085.659180
 20
657.851074
 40
60.000000
 41
0.843750
  1
400
 50
90.000000
 51
0.000000
  7
EASYDRAW_FONT
 72
     5
 11
3085.659180
 21
792.851074
  0
LINE
  8
CSLAYER1
  6
CONTINUOUS
 62
     5
 10
2961.648101
 20
924.451074
 11
3115.659276
 21
924.451074
  0
LINE
  8
CSLAYER1
  6
CONTINUOUS
 62
     5
 10
3100.659276
 20
526.251074
 11
3100.659276
 21
924.451074
  0
LINE
  8
CSLAYER1
  6
CONTINUOUS
 62
     5
 10
3100.659276
 20
526.251074
 11
3089.012418
 21
569.717736
  0
LINE
  8
CSLAYER1
  6
CONTINUOUS
 62
     5
 10
3100.659276
 20
526.251074
 11
3112.306133
 21
569.717736
  0
LINE
  8
CSLAYER1
  6
CONTINUOUS
 62
     5
 10
3100.659276
 20
924.451074
 11
3089.012418
 21
880.984411
  0
LINE
  8
CSLAYER1
  6
CONTINUOUS
 62
     5
 10
3100.659276
 20
924.451074
 11
3112.306133
 21
880.984411
  0
ENDBLK
  8
0
  0
BLOCK
  8
CSLAYER1
  2
*D0002
 70
    65
 10
0.0
 20
0.0
 30
0.0
  0
TEXT
  8
CSLAYER1
 62
     3
 10
3085.659180
 20
1451.029297
 40
60.000000
 41
0.818182
  1
1200
 50
90.000000
 51
0.000000
  7
EASYDRAW_FONT
 72
     5
 11
3085.659180
 21
1631.029297
  0
LINE
  8
CSLAYER1
  6
CONTINUOUS
 62
     5
 10
2961.648101
 20
2157.607557
 11
3255.195148
 21
2157.607557
  0
LINE
  8
CSLAYER1
  6
CONTINUOUS
 62
     5
 10
3100.659276
 20
924.451074
 11
3100.659276
 21
2157.607557
  0
LINE
  8
CSLAYER1
  6
CONTINUOUS
 62
     5
 10
3100.659276
 20
924.451074
 11
3089.012418
 21
967.917736
  0
LINE
  8
CSLAYER1
  6
CONTINUOUS
 62
     5
 10
3100.659276
 20
924.451074
 11
3112.306133
 21
967.917736
  0
LINE
  8
CSLAYER1
  6
CONTINUOUS
 62
     5
 10
3100.659276
 20
2157.607557
 11
3089.012418
 21
2114.140895
  0
LINE
  8
CSLAYER1
  6
CONTINUOUS
 62
     5
 10
3100.659276
 20
2157.607557
 11
3112.306133
 21
2114.140895
  0
ENDBLK
  8
0
  0
BLOCK
  8
CSLAYER1
  2
*D0003
 70
    65
 10
0.0
 20
0.0
 30
0.0
  0
TEXT
  8
CSLAYER1
 62
     3
 10
3225.195068
 20
1251.929688
 40
60.000000
 41
0.818182
  1
1600
 50
90.000000
 51
0.000000
  7
EASYDRAW_FONT
 72
     5
 11
3225.195068
 21
1431.929688
  0
LINE
  8
CSLAYER1
  6
CONTINUOUS
 62
     5
 10
3240.195148
 20
526.251074
 11
3240.195148
 21
2157.607557
  0
LINE
  8
CSLAYER1
  6
CONTINUOUS
 62
     5
 10
3240.195148
 20
526.251074
 11
3228.548291
 21
569.717736
  0
LINE
  8
CSLAYER1
  6
CONTINUOUS
 62
     5
 10
3240.195148
 20
526.251074
 11
3251.842005
 21
569.717736
  0
LINE
  8
CSLAYER1
  6
CONTINUOUS
 62
     5
 10
3240.195148
 20
2157.607557
 11
3228.548291
 21
2114.140895
  0
LINE
  8
CSLAYER1
  6
CONTINUOUS
 62
     5
 10
3240.195148
 20
2157.607557
 11
3251.842005
 21
2114.140895
  0
ENDBLK
  8
0
  0
BLOCK
  8
CSLAYER1
  2
*D0004
 70
    65
 10
0.0
 20
0.0
 30
0.0
  0
TEXT
  8
CSLAYER1
 62
     3
 10
3090.819824
 20
2840.305664
 40
60.000000
 41
0.843750
  1
600
 50
90.000000
 51
0.000000
  7
EASYDRAW_FONT
 72
     5
 11
3090.819824
 21
2975.305664
  0
LINE
  8
CSLAYER1
  6
CONTINUOUS
 62
     5
 10
2961.648101
 20
2607.805461
 11
3120.819812
 21
2607.805461
  0
LINE
  8
CSLAYER1
  6
CONTINUOUS
 62
     5
 10
2961.648101
 20
3207.805461
 11
3120.819812
 21
3207.805461
  0
LINE
  8
CSLAYER1
  6
CONTINUOUS
 62
     5
 10
3105.819812
 20
2607.805461
 11
3105.819812
 21
3207.805461
  0
LINE
  8
CSLAYER1
  6
CONTINUOUS
 62
     5
 10
3105.819812
 20
2607.805461
 11
3094.172955
 21
2651.272124
  0
LINE
  8
CSLAYER1
  6
CONTINUOUS
 62
     5
 10
3105.819812
 20
2607.805461
 11
3117.466669
 21
2651.272124
  0
LINE
  8
CSLAYER1
  6
CONTINUOUS
 62
     5
 10
3105.819812
 20
3207.805461
 11
3094.172955
 21
3164.338799
  0
LINE
  8
CSLAYER1
  6
CONTINUOUS
 62
     5
 10
3105.819812
 20
3207.805461
 11
3117.466669
 21
3164.338799
  0
ENDBLK
  8
0
  0
BLOCK
  8
CSLAYER1
  2
EASYDRAWDIM0000
 70
   64
 10
0.0
 20
0.0
 30
0.0
  0
TEXT
  8
CSLAYER1
 62
     3
 10
1281.799637
 20
307.548859
 40
50.470764
 41
0.839416
  1
アンカーボルト取付穴
 50
0.000000
 51
0.000000
  7
EASYDRAW_FONT
 72
     5
 11
1691.337524
 21
307.548859
  0
ENDBLK
  8
0
  0
BLOCK
  8
CSLAYER1
  2
*D0005
 70
    65
 10
0.0
 20
0.0
 30
0.0
  0
TEXT
  8
CSLAYER1
 62
     3
 10
699.566711
 20
244.409698
 40
60.000000
 41
0.843750
  1
500
 50
0.000000
 51
0.000000
  7
EASYDRAW_FONT
 72
     5
 11
834.566711
 21
244.409698
  0
LINE
  8
CSLAYER1
  6
CONTINUOUS
 62
     5
 10
517.066683
 20
511.251074
 11
517.066683
 21
214.409869
  0
LINE
  8
CSLAYER1
  6
CONTINUOUS
 62
     5
 10
1017.066683
 20
511.251074
 11
1017.066683
 21
214.409869
  0
LINE
  8
CSLAYER1
  6
CONTINUOUS
 62
     5
 10
517.066683
 20
229.409869
 11
1017.066683
 21
229.409869
  0
LINE
  8
CSLAYER1
  6
CONTINUOUS
 62
     5
 10
517.066683
 20
229.409869
 11
560.533345
 21
241.056726
  0
LINE
  8
CSLAYER1
  6
CONTINUOUS
 62
     5
 10
517.066683
 20
229.409869
 11
560.533345
 21
217.763012
  0
LINE
  8
CSLAYER1
  6
CONTINUOUS
 62
     5
 10
1017.066683
 20
229.409869
 11
973.600021
 21
241.056726
  0
LINE
  8
CSLAYER1
  6
CONTINUOUS
 62
     5
 10
1017.066683
 20
229.409869
 11
973.600021
 21
217.763012
  0
ENDBLK
  8
0
  0
BLOCK
  8
CSLAYER1
  2
*D0006
 70
    65
 10
0.0
 20
0.0
 30
0.0
  0
TEXT
  8
CSLAYER1
 62
     3
 10
699.854614
 20
390.965820
 40
60.000000
 41
0.843750
  1
440
 50
0.000000
 51
0.000000
  7
EASYDRAW_FONT
 72
     5
 11
834.854614
 21
390.965820
  0
LINE
  8
CSLAYER1
  6
CONTINUOUS
 62
     5
 10
547.066683
 20
379.923276
 11
987.066683
 21
379.923276
  0
LINE
  8
CSLAYER1
  6
CONTINUOUS
 62
     5
 10
547.066683
 20
379.923276
 11
590.533345
 21
391.570133
  0
LINE
  8
CSLAYER1
  6
CONTINUOUS
 62
     5
 10
547.066683
 20
379.923276
 11
590.533345
 21
368.276419
  0
LINE
  8
CSLAYER1
  6
CONTINUOUS
 62
     5
 10
987.066683
 20
379.923276
 11
943.600021
 21
391.570133
  0
LINE
  8
CSLAYER1
  6
CONTINUOUS
 62
     5
 10
987.066683
 20
379.923276
 11
943.600021
 21
368.276419
  0
ENDBLK
  8
0
  0
BLOCK
  8
CSLAYER1
  2
EASYDRAWDIM0001
 70
   64
 10
0.0
 20
0.0
 30
0.0
  0
TEXT
  8
CSLAYER1
 62
     3
 10
1286.162476
 20
378.793945
 40
60.000000
 41
0.803571
  1
4-%%c13
 50
0.000000
 51
0.000000
  7
EASYDRAW_FONT
 72
     5
 11
1511.162476
 21
378.793945
  0
LINE
  8
CSLAYER1
  6
CONTINUOUS
 62
     5
 10
1946.848101
 20
526.251074
 11
1735.030996
 21
369.145316
  0
LINE
  8
CSLAYER1
  6
CONTINUOUS
 62
     5
 10
1946.848101
 20
526.251074
 11
1918.874608
 21
491.002191
  0
LINE
  8
CSLAYER1
  6
CONTINUOUS
 62
     5
 10
1946.848101
 20
526.251074
 11
1904.997904
 21
509.711392
  0
LINE
  8
CSLAYER1
  6
CONTINUOUS
 62
     5
 10
1735.030996
 20
369.145316
 11
1265.855861
 21
369.145316
  0
ENDBLK
  8
0
  0
BLOCK
  8
CSLAYER1
  2
*D0007
 70
    65
 10
0.0
 20
0.0
 30
0.0
  0
TEXT
  8
CSLAYER1
 62
     3
 10
1790.651611
 20
312.253937
 40
60.000000
 41
0.900000
  1
50
 50
0.000000
 51
0.000000
  7
EASYDRAW_FONT
 72
     5
 11
1880.651611
 21
312.253937
  0
LINE
  8
CSLAYER1
  6
CONTINUOUS
 62
     5
 10
1896.848101
 20
511.251074
 11
1896.848101
 21
251.261596
  0
LINE
  8
CSLAYER1
  6
CONTINUOUS
 62
     5
 10
1946.848101
 20
511.251074
 11
1946.848101
 21
380.925113
  0
LINE
  8
CSLAYER1
  6
CONTINUOUS
 62
     5
 10
1896.848101
 20
395.925113
 11
1946.848101
 21
395.925113
  0
ENDBLK
  8
0
  0
BLOCK
  8
CSLAYER1
  2
*D0008
 70
    65
 10
0.0
 20
0.0
 30
0.0
  0
TEXT
  8
CSLAYER1
 62
     3
 10
2129.348145
 20
410.925293
 40
60.000000
 41
0.843750
  1
500
 50
0.000000
 51
0.000000
  7
EASYDRAW_FONT
 72
     5
 11
2264.348145
 21
410.925293
  0
LINE
  8
CSLAYER1
  6
CONTINUOUS
 62
     5
 10
2446.848101
 20
511.251074
 11
2446.848101
 21
380.925113
  0
LINE
  8
CSLAYER1
  6
CONTINUOUS
 62
     5
 10
1946.848101
 20
395.925113
 11
2446.848101
 21
395.925113
  0
LINE
  8
CSLAYER1
  6
CONTINUOUS
 62
     5
 10
1946.848101
 20
395.925113
 11
1990.314763
 21
407.571970
  0
LINE
  8
CSLAYER1
  6
CONTINUOUS
 62
     5
 10
1946.848101
 20
395.925113
 11
1990.314763
 21
384.278256
  0
LINE
  8
CSLAYER1
  6
CONTINUOUS
 62
     5
 10
2446.848101
 20
395.925113
 11
2403.381439
 21
407.571970
  0
LINE
  8
CSLAYER1
  6
CONTINUOUS
 62
     5
 10
2446.848101
 20
395.925113
 11
2403.381439
 21
384.278256
  0
ENDBLK
  8
0
  0
BLOCK
  8
CSLAYER1
  2
*D0009
 70
    65
 10
0.0
 20
0.0
 30
0.0
  0
TEXT
  8
CSLAYER1
 62
     3
 10
2331.748047
 20
281.261749
 40
60.000000
 41
0.818182
  1
1050
 50
0.000000
 51
0.000000
  7
EASYDRAW_FONT
 72
     5
 11
2511.748047
 21
281.261749
  0
LINE
  8
CSLAYER1
  6
CONTINUOUS
 62
     5
 10
2946.648101
 20
511.251074
 11
2946.648101
 21
251.261596
  0
LINE
  8
CSLAYER1
  6
CONTINUOUS
 62
     5
 10
1896.848101
 20
266.261596
 11
2946.648101
 21
266.261596
  0
LINE
  8
CSLAYER1
  6
CONTINUOUS
 62
     5
 10
1896.848101
 20
266.261596
 11
1940.314763
 21
277.908453
  0
LINE
  8
CSLAYER1
  6
CONTINUOUS
 62
     5
 10
1896.848101
 20
266.261596
 11
1940.314763
 21
254.614739
  0
LINE
  8
CSLAYER1
  6
CONTINUOUS
 62
     5
 10
2946.648101
 20
266.261596
 11
2903.181439
 21
277.908453
  0
LINE
  8
CSLAYER1
  6
CONTINUOUS
 62
     5
 10
2946.648101
 20
266.261596
 11
2903.181439
 21
254.614739
  0
ENDBLK
  8
0
  0
BLOCK
  8
CSLAYER1
  2
*D0010
 70
    65
 10
0.0
 20
0.0
 30
0.0
  0
TEXT
  8
CSLAYER1
 62
     3
 10
1129.196899
 20
589.884766
 40
60.000000
 41
1.125000
  1
6
 50
90.000000
 51
0.000000
  7
EASYDRAW_FONT
 72
     5
 11
1129.196899
 21
634.884766
  0
LINE
  8
CSLAYER1
  6
CONTINUOUS
 62
     5
 10
1032.066683
 20
526.251074
 11
1113.827502
 21
526.251074
  0
LINE
  8
CSLAYER1
  6
CONTINUOUS
 62
     5
 10
1027.386294
 20
532.251074
 11
1113.827502
 21
532.251074
  0
LINE
  8
CSLAYER1
  6
CONTINUOUS
 62
     5
 10
1098.827502
 20
526.251074
 11
1098.827502
 21
451.251074
  0
LINE
  8
CSLAYER1
  6
CONTINUOUS
 62
     5
 10
1098.827502
 20
526.251074
 11
1087.180645
 21
482.784411
  0
LINE
  8
CSLAYER1
  6
CONTINUOUS
 62
     5
 10
1098.827502
 20
526.251074
 11
1110.474359
 21
482.784411
  0
LINE
  8
CSLAYER1
  6
CONTINUOUS
 62
     5
 10
1098.827502
 20
532.251074
 11
1098.827502
 21
583.087203
  0
LINE
  8
CSLAYER1
  6
CONTINUOUS
 62
     5
 10
1098.827502
 20
532.251074
 11
1087.180645
 21
575.717736
  0
LINE
  8
CSLAYER1
  6
CONTINUOUS
 62
     5
 10
1098.827502
 20
532.251074
 11
1110.474359
 21
575.717736
  0
LINE
  8
CSLAYER1
  6
CONTINUOUS
 62
     5
 10
1098.827502
 20
526.251074
 11
1098.827502
 21
532.251074
  0
ENDBLK
  8
0
  0
BLOCK
  8
CSLAYER1
  2
BLKF0000
 70
   64
 10
0.0
 20
0.0
 30
0.0
  0
ARC
  8
CSLAYER1
  6
CONTINUOUS
 62
     5
 10
4169.771750
 20
120.742239
 40
5.323837
 50
6.429109
 51
73.182034
  0
ARC
  8
CSLAYER1
  6
CONTINUOUS
 62
     5
 10
4164.580294
 20
119.004650
 40
10.361631
 50
310.517970
 51
330.092764
  0
ARC
  8
CSLAYER1
  6
CONTINUOUS
 62
     5
 10
4164.489320
 20
119.552927
 40
10.722482
 50
-32.205059
 51
9.585194
  0
ARC
  8
CSLAYER1
  6
CONTINUOUS
 62
     5
 10
4169.428412
 20
115.411429
 40
7.151272
 50
180.000000
 51
218.514150
  0
ARC
  8
CSLAYER1
  6
CONTINUOUS
 62
     5
 10
4167.498330
 20
114.395718
 40
5.022423
 50
222.781148
 51
319.406906
  0
ARC
  8
CSLAYER1
  6
CONTINUOUS
 62
     5
 10
4172.096793
 20
116.030557
 40
9.839152
 50
94.574282
 51
183.607718
  0
LINE
  8
CSLAYER1
  6
CONTINUOUS
 62
     5
 10
4192.262653
 20
108.355309
 11
4190.977098
 21
103.797435
  0
LINE
  8
CSLAYER1
  6
CONTINUOUS
 62
     5
 10
4194.950630
 20
138.156795
 11
4191.795178
 21
142.247195
  0
LINE
  8
CSLAYER1
  6
CONTINUOUS
 62
     5
 10
4191.795178
 20
142.247195
 11
4181.665147
 21
147.884063
  0
LINE
  8
CSLAYER1
  6
CONTINUOUS
 62
     5
 10
4181.665147
 20
147.884063
 11
4171.312106
 21
149.088369
  0
LINE
  8
CSLAYER1
  6
CONTINUOUS
 62
     5
 10
4143.878268
 20
129.020359
 11
4147.098310
 21
136.466705
  0
LINE
  8
CSLAYER1
  6
CONTINUOUS
 62
     5
 10
4147.042813
 20
136.338369
 11
4150.318351
 21
140.290504
  0
LINE
  8
CSLAYER1
  6
CONTINUOUS
 62
     5
 10
4150.318351
 20
140.290504
 11
4155.274984
 21
143.838369
  0
LINE
  8
CSLAYER1
  6
CONTINUOUS
 62
     5
 10
4171.312106
 20
149.088369
 11
4169.034843
 21
147.938103
  0
LINE
  8
CSLAYER1
  6
CONTINUOUS
 62
     5
 10
4169.034843
 20
147.938103
 11
4163.802275
 21
147.938103
  0
LINE
  8
CSLAYER1
  6
CONTINUOUS
 62
     5
 10
4163.802275
 20
147.938103
 11
4158.469081
 21
145.019940
  0
LINE
  8
CSLAYER1
  6
CONTINUOUS
 62
     5
 10
4158.469081
 20
145.019940
 11
4155.274984
 21
143.838369
  0
LINE
  8
CSLAYER1
  6
CONTINUOUS
 62
     5
 10
4143.878268
 20
129.020359
 11
4141.601947
 21
117.697454
  0
LINE
  8
CSLAYER1
  6
CONTINUOUS
 62
     5
 10
4141.601947
 20
117.697454
 11
4141.312106
 21
113.838369
  0
LINE
  8
CSLAYER1
  6
CONTINUOUS
 62
     5
 10
4145.376180
 20
102.078696
 11
4141.312106
 21
111.222862
  0
LINE
  8
CSLAYER1
  6
CONTINUOUS
 62
     5
 10
4141.312106
 20
111.222862
 11
4141.312106
 21
113.838369
  0
LINE
  8
CSLAYER1
  6
CONTINUOUS
 62
     5
 10
4190.977098
 20
103.797435
 11
4188.448418
 21
99.292925
  0
LINE
  8
CSLAYER1
  6
CONTINUOUS
 62
     5
 10
4188.448418
 20
99.292925
 11
4186.312106
 21
97.314859
  0
ARC
  8
CSLAYER1
  6
CONTINUOUS
 62
     5
 10
4168.024189
 20
114.643510
 40
25.899940
 50
208.054813
 51
260.640470
  0
ARC
  8
CSLAYER1
  6
CONTINUOUS
 62
     5
 10
4160.234096
 20
133.757214
 40
44.811916
 50
274.579659
 51
305.587364
  0
ARC
  8
CSLAYER1
  6
CONTINUOUS
 62
     5
 10
4176.692620
 20
124.781631
 40
22.632940
 50
313.467013
 51
331.085078
  0
LINE
  8
CSLAYER1
  6
CONTINUOUS
 62
     5
 10
4198.879618
 20
119.108501
 11
4199.325560
 21
124.781631
  0
LINE
  8
CSLAYER1
  6
CONTINUOUS
 62
     5
 10
4199.325560
 20
124.781631
 11
4197.387563
 21
133.945105
  0
LINE
  8
CSLAYER1
  6
CONTINUOUS
 62
     5
 10
4198.879618
 20
119.108501
 11
4196.504106
 21
113.838369
  0
ARC
  8
CSLAYER1
  6
CONTINUOUS
 62
     5
 10
4176.692620
 20
124.781631
 40
22.632940
 50
23.883193
 51
36.225170
  0
LINE
  8
CSLAYER1
  6
CONTINUOUS
 62
     5
 10
4117.312106
 20
166.338369
 11
4118.812106
 21
167.977336
  0
LINE
  8
CSLAYER1
  6
CONTINUOUS
 62
     5
 10
4117.312106
 20
166.338369
 11
4119.677543
 21
164.170820
  0
LINE
  8
CSLAYER1
  6
CONTINUOUS
 62
     5
 10
4121.986362
 20
161.006882
 11
4122.025764
 21
157.754704
  0
LINE
  8
CSLAYER1
  6
CONTINUOUS
 62
     5
 10
4122.025764
 20
157.754704
 11
4122.336861
 21
156.614015
  0
LINE
  8
CSLAYER1
  6
CONTINUOUS
 62
     5
 10
4122.336861
 20
156.614015
 11
4123.218303
 21
155.525175
  0
LINE
  8
CSLAYER1
  6
CONTINUOUS
 62
     5
 10
4123.218303
 20
155.525175
 11
4124.099744
 21
155.628874
  0
LINE
  8
CSLAYER1
  6
CONTINUOUS
 62
     5
 10
4124.099744
 20
155.628874
 11
4125.033035
 21
155.888122
  0
LINE
  8
CSLAYER1
  6
CONTINUOUS
 62
     5
 10
4125.033035
 20
155.888122
 11
4125.655229
 21
155.628874
  0
LINE
  8
CSLAYER1
  6
CONTINUOUS
 62
     5
 10
4125.655229
 20
155.628874
 11
4127.003316
 21
154.954831
  0
LINE
  8
CSLAYER1
  6
CONTINUOUS
 62
     5
 10
4127.003316
 20
154.954831
 11
4128.167393
 21
154.338369
  0
LINE
  8
CSLAYER1
  6
CONTINUOUS
 62
     5
 10
4128.167393
 20
154.338369
 11
4128.921747
 21
154.384486
  0
LINE
  8
CSLAYER1
  6
CONTINUOUS
 62
     5
 10
4128.921747
 20
154.384486
 11
4133.133555
 21
156.554206
  0
LINE
  8
CSLAYER1
  6
CONTINUOUS
 62
     5
 10
4118.812106
 20
167.977336
 11
4119.311384
 21
170.187897
  0
LINE
  8
CSLAYER1
  6
CONTINUOUS
 62
     5
 10
4119.311384
 20
170.187897
 11
4121.491492
 21
170.413425
  0
LINE
  8
CSLAYER1
  6
CONTINUOUS
 62
     5
 10
4123.732129
 20
174.566113
 11
4126.363389
 21
174.801748
  0
LINE
  8
CSLAYER1
  6
CONTINUOUS
 62
     5
 10
4126.363389
 20
174.801748
 11
4131.665180
 21
176.058469
  0
LINE
  8
CSLAYER1
  6
CONTINUOUS
 62
     5
 10
4131.665180
 20
176.058469
 11
4133.812106
 21
176.555928
  0
LINE
  8
CSLAYER1
  6
CONTINUOUS
 62
     5
 10
4123.732129
 20
174.566113
 11
4120.832793
 21
174.804415
  0
LINE
  8
CSLAYER1
  6
CONTINUOUS
 62
     5
 10
4119.728608
 20
173.501384
 11
4119.868896
 21
172.944642
  0
LINE
  8
CSLAYER1
  6
CONTINUOUS
 62
     5
 10
4119.868896
 20
172.944642
 11
4120.606287
 21
172.138120
  0
LINE
  8
CSLAYER1
  6
CONTINUOUS
 62
     5
 10
4120.606287
 20
172.138120
 11
4121.620200
 21
171.377686
  0
LINE
  8
CSLAYER1
  6
CONTINUOUS
 62
     5
 10
4121.620200
 20
171.377686
 11
4121.805187
 21
171.131036
  0
LINE
  8
CSLAYER1
  6
CONTINUOUS
 62
     5
 10
4119.677543
 20
164.170820
 11
4121.986362
 21
161.006882
  0
ARC
  8
CSLAYER1
  6
CONTINUOUS
 62
     5
 10
4186.292157
 20
-91.149610
 40
271.091195
 50
80.438896
 51
96.353582
  0
ARC
  8
CSLAYER1
  6
CONTINUOUS
 62
     5
 10
4148.943787
 20
126.722240
 40
52.080363
 50
81.866516
 51
106.890578
  0
LINE
  8
CSLAYER1
  6
CONTINUOUS
 62
     5
 10
4237.603498
 20
174.988375
 11
4240.974122
 21
173.456273
  0
LINE
  8
CSLAYER1
  6
CONTINUOUS
 62
     5
 10
4246.336478
 20
171.081515
 11
4240.974122
 21
173.456273
  0
LINE
  8
CSLAYER1
  6
CONTINUOUS
 62
     5
 10
4237.603498
 20
174.988375
 11
4231.312106
 21
176.177232
  0
LINE
  8
CSLAYER1
  6
CONTINUOUS
 62
     5
 10
4246.312106
 20
171.092308
 11
4249.119469
 21
168.739593
  0
LINE
  8
CSLAYER1
  6
CONTINUOUS
 62
     5
 10
4221.176990
 20
172.647585
 11
4222.525902
 21
174.826597
  0
LINE
  8
CSLAYER1
  6
CONTINUOUS
 62
     5
 10
4222.525902
 20
174.826597
 11
4229.539300
 21
173.147333
  0
LINE
  8
CSLAYER1
  6
CONTINUOUS
 62
     5
 10
4229.539300
 20
173.147333
 11
4254.652879
 21
166.338369
  0
LINE
  8
CSLAYER1
  6
CONTINUOUS
 62
     5
 10
4259.062106
 20
166.338369
 11
4249.119469
 21
168.739593
  0
LINE
  8
CSLAYER1
  6
CONTINUOUS
 62
     5
 10
4254.652879
 20
166.338369
 11
4259.062106
 21
166.338369
  0
LINE
  8
CSLAYER1
  6
CONTINUOUS
 62
     5
 10
4171.312106
 20
173.035781
 11
4201.312106
 21
173.838369
  0
LINE
  8
CSLAYER1
  6
CONTINUOUS
 62
     5
 10
4201.312106
 20
173.838369
 11
4221.176990
 21
172.647585
  0
LINE
  8
CSLAYER1
  6
CONTINUOUS
 62
     5
 10
4223.581462
 20
169.556865
 11
4201.312106
 21
171.588369
  0
LINE
  8
CSLAYER1
  6
CONTINUOUS
 62
     5
 10
4201.312106
 20
171.588369
 11
4178.738292
 21
172.201347
  0
LINE
  8
CSLAYER1
  6
CONTINUOUS
 62
     5
 10
4178.812106
 20
172.199343
 11
4171.312106
 21
172.342284
  0
LINE
  8
CSLAYER1
  6
CONTINUOUS
 62
     5
 10
4171.312106
 20
173.035781
 11
4171.312106
 21
172.342284
  0
LINE
  8
CSLAYER1
  6
CONTINUOUS
 62
     5
 10
4257.562106
 20
161.088369
 11
4244.298268
 21
164.554363
  0
LINE
  8
CSLAYER1
  6
CONTINUOUS
 62
     5
 10
4223.581462
 20
169.556865
 11
4238.812106
 21
166.598290
  0
LINE
  8
CSLAYER1
  6
CONTINUOUS
 62
     5
 10
4238.812106
 20
166.598290
 11
4244.298268
 21
164.554363
  0
LINE
  8
CSLAYER1
  6
CONTINUOUS
 62
     5
 10
4257.562106
 20
161.088369
 11
4257.123180
 21
159.829711
  0
LINE
  8
CSLAYER1
  6
CONTINUOUS
 62
     5
 10
4271.812106
 20
152.838369
 11
4271.353065
 21
154.681841
  0
LINE
  8
CSLAYER1
  6
CONTINUOUS
 62
     5
 10
4257.123180
 20
159.829711
 11
4271.353065
 21
154.681841
  0
LINE
  8
CSLAYER1
  6
CONTINUOUS
 62
     5
 10
4176.562106
 20
161.088369
 11
4180.196663
 21
161.088369
  0
LINE
  8
CSLAYER1
  6
CONTINUOUS
 62
     5
 10
4210.312106
 20
161.737113
 11
4210.312106
 21
161.088369
  0
LINE
  8
CSLAYER1
  6
CONTINUOUS
 62
     5
 10
4208.812106
 20
162.538774
 11
4206.245187
 21
163.494542
  0
LINE
  8
CSLAYER1
  6
CONTINUOUS
 62
     5
 10
4206.245187
 20
163.494542
 11
4204.580103
 21
163.570227
  0
LINE
  8
CSLAYER1
  6
CONTINUOUS
 62
     5
 10
4204.580103
 20
163.570227
 11
4203.861090
 21
163.191799
  0
LINE
  8
CSLAYER1
  6
CONTINUOUS
 62
     5
 10
4203.861090
 20
163.191799
 11
4203.709718
 21
162.586314
  0
LINE
  8
CSLAYER1
  6
CONTINUOUS
 62
     5
 10
4203.709718
 20
162.586314
 11
4204.390889
 21
162.132200
  0
LINE
  8
CSLAYER1
  6
CONTINUOUS
 62
     5
 10
4204.390889
 20
162.132200
 11
4206.850672
 21
161.905143
  0
LINE
  8
CSLAYER1
  6
CONTINUOUS
 62
     5
 10
4206.850672
 20
161.905143
 11
4210.312106
 21
161.737113
  0
LINE
  8
CSLAYER1
  6
CONTINUOUS
 62
     5
 10
4271.812106
 20
152.838369
 11
4267.348792
 21
154.618242
  0
LINE
  8
CSLAYER1
  6
CONTINUOUS
 62
     5
 10
4267.348792
 20
154.618242
 11
4252.265258
 21
157.382555
  0
LINE
  8
CSLAYER1
  6
CONTINUOUS
 62
     5
 10
4252.265258
 20
157.382555
 11
4244.726588
 21
159.122248
  0
LINE
  8
CSLAYER1
  6
CONTINUOUS
 62
     5
 10
4211.113437
 20
162.588369
 11
4228.761936
 21
162.588369
  0
LINE
  8
CSLAYER1
  6
CONTINUOUS
 62
     5
 10
4208.812106
 20
162.538774
 11
4209.599096
 21
162.076073
  0
LINE
  8
CSLAYER1
  6
CONTINUOUS
 62
     5
 10
4209.599096
 20
162.076073
 11
4210.044314
 21
161.942508
  0
LINE
  8
CSLAYER1
  6
CONTINUOUS
 62
     5
 10
4210.044314
 20
161.942508
 11
4210.312106
 21
161.980263
  0
LINE
  8
CSLAYER1
  6
CONTINUOUS
 62
     5
 10
4210.312106
 20
161.980263
 11
4211.113437
 21
162.588369
  0
LINE
  8
CSLAYER1
  6
CONTINUOUS
 62
     5
 10
4228.761936
 20
162.588369
 11
4235.437340
 21
161.045131
  0
LINE
  8
CSLAYER1
  6
CONTINUOUS
 62
     5
 10
4235.437340
 20
161.045131
 11
4241.667127
 21
159.297408
  0
LINE
  8
CSLAYER1
  6
CONTINUOUS
 62
     5
 10
4241.667127
 20
159.297408
 11
4244.726588
 21
159.122248
  0
LINE
  8
CSLAYER1
  6
CONTINUOUS
 62
     5
 10
4175.062106
 20
159.588369
 11
4175.062106
 21
158.838369
  0
LINE
  8
CSLAYER1
  6
CONTINUOUS
 62
     5
 10
4171.312106
 20
158.838369
 11
4175.062106
 21
158.838369
  0
ARC
  8
CSLAYER1
  6
CONTINUOUS
 62
     5
 10
4176.562106
 20
159.588369
 40
1.500000
 50
90.000000
 51
180.000000
  0
LINE
  8
CSLAYER1
  6
CONTINUOUS
 62
     5
 10
4180.196663
 20
161.088369
 11
4181.242998
 21
160.230375
  0
LINE
  8
CSLAYER1
  6
CONTINUOUS
 62
     5
 10
4182.146550
 20
160.194434
 11
4183.432945
 21
161.088369
  0
LINE
  8
CSLAYER1
  6
CONTINUOUS
 62
     5
 10
4185.800540
 20
161.088369
 11
4188.301228
 21
160.101256
  0
LINE
  8
CSLAYER1
  6
CONTINUOUS
 62
     5
 10
4188.936791
 20
160.141024
 11
4190.667022
 21
161.088369
  0
LINE
  8
CSLAYER1
  6
CONTINUOUS
 62
     5
 10
4183.432945
 20
161.088369
 11
4185.800540
 21
161.088369
  0
LINE
  8
CSLAYER1
  6
CONTINUOUS
 62
     5
 10
4190.667022
 20
161.088369
 11
4210.312106
 21
161.088369
  0
LINE
  8
CSLAYER1
  6
CONTINUOUS
 62
     5
 10
4139.135581
 20
156.425130
 11
4171.312106
 21
158.838369
  0
LINE
  8
CSLAYER1
  6
CONTINUOUS
 62
     5
 10
4133.133555
 20
156.554206
 11
4139.135581
 21
156.425130
  0
ARC
  8
CSLAYER1
  6
CONTINUOUS
 62
     5
 10
4181.718558
 20
160.810325
 40
0.750000
 50
230.648247
 51
304.796026
  0
ARC
  8
CSLAYER1
  6
CONTINUOUS
 62
     5
 10
4188.576603
 20
160.798872
 40
0.750000
 50
248.459024
 51
298.701829
  0
ARC
  8
CSLAYER1
  6
CONTINUOUS
 62
     5
 10
4121.445187
 20
170.861036
 40
0.450000
 50
-84.093859
 51
36.869898
  0
ARC
  8
CSLAYER1
  6
CONTINUOUS
 62
     5
 10
4120.746781
 20
173.757944
 40
1.050000
 50
85.301319
 51
194.142980
  0
LINE
  8
CSLAYER1
  6
CONTINUOUS
 62
     3
 10
4169.034843
 20
147.938103
 11
4181.200586
 21
147.938103
  0
LINE
  8
CSLAYER1
  6
CONTINUOUS
 62
     3
 10
4159.416068
 20
145.538103
 11
4185.881079
 21
145.538103
  0
LINE
  8
CSLAYER1
  6
CONTINUOUS
 62
     3
 10
4154.296660
 20
143.138103
 11
4190.194126
 21
143.138103
  0
LINE
  8
CSLAYER1
  6
CONTINUOUS
 62
     3
 10
4150.943680
 20
140.738103
 11
4192.959335
 21
140.738103
  0
LINE
  8
CSLAYER1
  6
CONTINUOUS
 62
     3
 10
4148.700197
 20
138.338103
 11
4194.810764
 21
138.338103
  0
LINE
  8
CSLAYER1
  6
CONTINUOUS
 62
     3
 10
4146.869725
 20
135.938103
 11
4196.384829
 21
135.938103
  0
LINE
  8
CSLAYER1
  6
CONTINUOUS
 62
     3
 10
4145.831887
 20
133.538103
 11
4197.473641
 21
133.538103
  0
LINE
  8
CSLAYER1
  6
CONTINUOUS
 62
     3
 10
4144.794049
 20
131.138103
 11
4197.981220
 21
131.138103
  0
LINE
  8
CSLAYER1
  6
CONTINUOUS
 62
     3
 10
4143.821524
 20
128.738103
 11
4198.488800
 21
128.738103
  0
LINE
  8
CSLAYER1
  6
CONTINUOUS
 62
     3
 10
4143.339036
 20
126.338103
 11
4198.996379
 21
126.338103
  0
LINE
  8
CSLAYER1
  6
CONTINUOUS
 62
     3
 10
4142.856547
 20
123.938103
 11
4166.241912
 21
123.938103
  0
LINE
  8
CSLAYER1
  6
CONTINUOUS
 62
     3
 10
4142.374059
 20
121.538103
 11
4163.943521
 21
121.538103
  0
LINE
  8
CSLAYER1
  6
CONTINUOUS
 62
     3
 10
4141.891571
 20
119.138103
 11
4162.761266
 21
119.138103
  0
LINE
  8
CSLAYER1
  6
CONTINUOUS
 62
     3
 10
4141.529894
 20
116.738103
 11
4162.283115
 21
116.738103
  0
LINE
  8
CSLAYER1
  6
CONTINUOUS
 62
     3
 10
4141.349639
 20
114.338103
 11
4162.358146
 21
114.338103
  0
LINE
  8
CSLAYER1
  6
CONTINUOUS
 62
     3
 10
4141.312106
 20
111.938103
 11
4163.177277
 21
111.938103
  0
LINE
  8
CSLAYER1
  6
CONTINUOUS
 62
     3
 10
4142.060888
 20
109.538103
 11
4166.222280
 21
109.538103
  0
LINE
  8
CSLAYER1
  6
CONTINUOUS
 62
     3
 10
4143.127555
 20
107.138103
 11
4191.919338
 21
107.138103
  0
LINE
  8
CSLAYER1
  6
CONTINUOUS
 62
     3
 10
4144.194221
 20
104.738103
 11
4191.242415
 21
104.738103
  0
LINE
  8
CSLAYER1
  6
CONTINUOUS
 62
     3
 10
4145.260888
 20
102.338103
 11
4190.157878
 21
102.338103
  0
LINE
  8
CSLAYER1
  6
CONTINUOUS
 62
     3
 10
4146.703826
 20
99.938103
 11
4188.810599
 21
99.938103
  0
LINE
  8
CSLAYER1
  6
CONTINUOUS
 62
     3
 10
4148.576518
 20
97.538103
 11
4186.553209
 21
97.538103
  0
LINE
  8
CSLAYER1
  6
CONTINUOUS
 62
     3
 10
4150.984648
 20
95.138103
 11
4182.964518
 21
95.138103
  0
LINE
  8
CSLAYER1
  6
CONTINUOUS
 62
     3
 10
4154.205361
 20
92.738103
 11
4178.276833
 21
92.738103
  0
LINE
  8
CSLAYER1
  6
CONTINUOUS
 62
     3
 10
4159.076897
 20
90.338103
 11
4171.319610
 21
90.338103
  0
LINE
  8
CSLAYER1
  6
CONTINUOUS
 62
     3
 10
4174.029648
 20
123.938103
 11
4199.259253
 21
123.938103
  0
LINE
  8
CSLAYER1
  6
CONTINUOUS
 62
     3
 10
4175.035764
 20
121.538103
 11
4199.070599
 21
121.538103
  0
LINE
  8
CSLAYER1
  6
CONTINUOUS
 62
     3
 10
4175.203774
 20
119.138103
 11
4198.881945
 21
119.138103
  0
LINE
  8
CSLAYER1
  6
CONTINUOUS
 62
     3
 10
4174.835739
 20
116.738103
 11
4197.811161
 21
116.738103
  0
LINE
  8
CSLAYER1
  6
CONTINUOUS
 62
     3
 10
4173.858270
 20
114.338103
 11
4196.729361
 21
114.338103
  0
LINE
  8
CSLAYER1
  6
CONTINUOUS
 62
     3
 10
4172.158375
 20
111.938103
 11
4195.328439
 21
111.938103
  0
LINE
  8
CSLAYER1
  6
CONTINUOUS
 62
     3
 10
4168.774380
 20
109.538103
 11
4193.422378
 21
109.538103
  0
TEXT
  8
CSLAYER1
 62
     5
 10
4200.069867
 20
120.954866
 40
7.070172
 41
1.951056
  1
M
 50
0.000000
 51
0.000000
  7
EASYDRAW_FONT
 72
     5
 11
4209.266070
 21
120.954866
  0
TEXT
  8
CSLAYER1
 62
     5
 10
4214.546948
 20
120.867460
 40
6.939931
 41
0.778201
  1
T
 50
0.000000
 51
0.000000
  7
EASYDRAW_FONT
 72
     5
 11
4218.147388
 21
120.867460
  0
TEXT
  8
CSLAYER1
 62
     5
 10
4218.695292
 20
120.919658
 40
7.044274
 41
1.055553
  1
E
 50
0.000000
 51
0.000000
  7
EASYDRAW_FONT
 72
     5
 11
4223.652364
 21
120.919658
  0
TEXT
  8
CSLAYER1
 62
     5
 10
4223.369808
 20
123.343425
 40
0.522425
 41
9.375319
  1
-
 50
0.000000
 51
0.000000
  7
EASYDRAW_FONT
 72
     5
 11
4226.635075
 21
123.343425
  0
TEXT
  8
CSLAYER1
 62
     5
 10
4226.090633
 20
120.872638
 40
7.292489
 41
1.298502
  1
H
 50
0.000000
 51
0.000000
  7
EASYDRAW_FONT
 72
     5
 11
4232.403507
 21
120.872638
  0
TEXT
  8
CSLAYER1
 62
     5
 10
4232.204778
 20
120.918206
 40
7.264708
 41
1.269236
  1
A
 50
0.000000
 51
0.000000
  7
EASYDRAW_FONT
 72
     5
 11
4238.351862
 21
120.918206
  0
TEXT
  8
CSLAYER1
 62
     5
 10
4237.764134
 20
120.855916
 40
7.238043
 41
1.490144
  1
N
 50
0.000000
 51
0.000000
  7
EASYDRAW_FONT
 72
     5
 11
4244.954616
 21
120.855916
  0
TEXT
  8
CSLAYER1
 62
     5
 10
4208.951077
 20
120.822056
 40
7.473487
 41
1.177443
  1
A
 50
0.000000
 51
0.000000
  7
EASYDRAW_FONT
 72
     5
 11
4214.817478
 21
120.822056
  0
TEXT
  8
CSLAYER1
 62
     5
 10
4200.620022
 20
110.329197
 40
7.473487
 41
1.177443
  1
A
 50
0.000000
 51
0.000000
  7
EASYDRAW_FONT
 72
     5
 11
4206.486423
 21
110.329197
  0
TEXT
  8
CSLAYER1
 62
     5
 10
4219.797268
 20
110.371678
 40
7.473487
 41
1.177443
  1
A
 50
0.000000
 51
0.000000
  7
EASYDRAW_FONT
 72
     5
 11
4225.663670
 21
110.371678
  0
TEXT
  8
CSLAYER1
 62
     5
 10
4225.437962
 20
110.457173
 40
7.238043
 41
1.490144
  1
N
 50
0.000000
 51
0.000000
  7
EASYDRAW_FONT
 72
     5
 11
4232.628444
 21
110.457173
  0
TEXT
  8
CSLAYER1
 62
     5
 10
4238.791344
 20
110.469766
 40
7.262663
 41
1.184218
  1
E
 50
0.000000
 51
0.000000
  7
EASYDRAW_FONT
 72
     5
 11
4244.525062
 21
110.469766
  0
TEXT
  8
CSLAYER1
 62
     5
 10
4207.041096
 20
110.327210
 40
7.421797
 41
1.093992
  1
D
 50
0.000000
 51
0.000000
  7
EASYDRAW_FONT
 72
     5
 11
4212.454021
 21
110.327210
  0
TEXT
  8
CSLAYER1
 62
     5
 10
4213.645000
 20
110.319133
 40
7.386315
 41
1.228195
  1
V
 50
0.000000
 51
0.000000
  7
EASYDRAW_FONT
 72
     5
 11
4219.692891
 21
110.319133
  0
TEXT
  8
CSLAYER1
 62
     5
 10
4231.982558
 20
110.350231
 40
7.549340
 41
1.481023
  1
C
 50
0.000000
 51
0.000000
  7
EASYDRAW_FONT
 72
     5
 11
4239.436388
 21
110.350231
  0
LINE
  8
CSLAYER1
  6
CONTINUOUS
 62
     5
 10
4217.928111
 20
126.940827
 11
4216.410018
 21
126.940827
  0
LINE
  8
CSLAYER1
  6
CONTINUOUS
 62
     3
 10
4141.575468
 20
178.278734
 11
4216.272208
 21
178.278734
  0
LINE
  8
CSLAYER1
  6
CONTINUOUS
 62
     3
 10
4130.906922
 20
175.878734
 11
4232.891745
 21
175.878734
  0
LINE
  8
CSLAYER1
  6
CONTINUOUS
 62
     3
 10
4119.734315
 20
173.478734
 11
4187.869281
 21
173.478734
  0
LINE
  8
CSLAYER1
  6
CONTINUOUS
 62
     3
 10
4207.311605
 20
173.478734
 11
4221.691511
 21
173.478734
  0
LINE
  8
CSLAYER1
  6
CONTINUOUS
 62
     3
 10
4228.155211
 20
173.478734
 11
4240.924707
 21
173.478734
  0
LINE
  8
CSLAYER1
  6
CONTINUOUS
 62
     3
 10
4121.839024
 20
171.078734
 11
4206.898728
 21
171.078734
  0
LINE
  8
CSLAYER1
  6
CONTINUOUS
 62
     3
 10
4237.168936
 20
171.078734
 11
4246.328303
 21
171.078734
  0
LINE
  8
CSLAYER1
  6
CONTINUOUS
 62
     3
 10
4118.970524
 20
168.678734
 11
4228.102050
 21
168.678734
  0
LINE
  8
CSLAYER1
  6
CONTINUOUS
 62
     3
 10
4246.020884
 20
168.678734
 11
4249.371466
 21
168.678734
  0
LINE
  8
CSLAYER1
  6
CONTINUOUS
 62
     3
 10
4117.377186
 20
166.278734
 11
4239.669834
 21
166.278734
  0
LINE
  8
CSLAYER1
  6
CONTINUOUS
 62
     3
 10
4119.890686
 20
163.878734
 11
4246.883797
 21
163.878734
  0
LINE
  8
CSLAYER1
  6
CONTINUOUS
 62
     3
 10
4121.642038
 20
161.478734
 11
4210.312106
 21
161.478734
  0
LINE
  8
CSLAYER1
  6
CONTINUOUS
 62
     3
 10
4233.561753
 20
161.478734
 11
4256.068238
 21
161.478734
  0
LINE
  8
CSLAYER1
  6
CONTINUOUS
 62
     3
 10
4122.009723
 20
159.078734
 11
4175.062106
 21
159.078734
  0
LINE
  8
CSLAYER1
  6
CONTINUOUS
 62
     3
 10
4244.915147
 20
159.078734
 11
4259.199051
 21
159.078734
  0
LINE
  8
CSLAYER1
  6
CONTINUOUS
 62
     3
 10
4122.319210
 20
156.678734
 11
4142.516971
 21
156.678734
  0
LINE
  8
CSLAYER1
  6
CONTINUOUS
 62
     3
 10
4256.105670
 20
156.678734
 11
4265.833197
 21
156.678734
  0
LINE
  8
CSLAYER1
  6
CONTINUOUS
 62
     3
 10
4268.200161
 20
154.278734
 11
4271.453442
 21
154.278734
  0
ENDBLK
  8
0
  0
BLOCK
  8
CSLAYER1
  2
BLKF0001
 70
   64
 10
0.0
 20
0.0
 30
0.0
  0
LINE
  8
CSLAYER1
  6
CONTINUOUS
 62
     2
 10
2441.394917
 20
894.466442
 11
2434.949035
 21
890.254482
  0
LINE
  8
CSLAYER1
  6
CONTINUOUS
 62
     2
 10
2442.488933
 20
892.792187
 11
2436.043051
 21
888.580227
  0
LINE
  8
CSLAYER1
  6
CONTINUOUS
 62
     2
 10
2442.488933
 20
892.792187
 11
2441.394917
 21
894.466442
  0
LINE
  8
CSLAYER1
  6
CONTINUOUS
 62
     2
 10
2445.039930
 20
886.694448
 11
2439.598602
 21
883.138898
  0
LINE
  8
CSLAYER1
  6
CONTINUOUS
 62
     2
 10
2445.039930
 20
886.694448
 11
2445.564138
 21
887.730494
  0
LINE
  8
CSLAYER1
  6
CONTINUOUS
 62
     2
 10
2442.326156
 20
892.685823
 11
2445.564138
 21
887.730494
  0
ARC
  8
CSLAYER1
  6
CONTINUOUS
 62
     2
 10
2442.517845
 20
888.962190
 40
3.285875
 50
268.197593
 51
327.848471
  0
ARC
  8
CSLAYER1
  6
CONTINUOUS
 62
     2
 10
2432.805069
 20
893.535556
 40
12.419443
 50
303.161976
 51
320.749930
  0
LINE
  8
CSLAYER1
  6
CONTINUOUS
 62
     2
 10
2439.184604
 20
890.633025
 11
2442.422585
 21
885.677696
  0
LINE
  8
CSLAYER1
  6
CONTINUOUS
 62
     2
 10
2444.275650
 20
882.014077
 11
2441.513129
 21
880.208952
  0
LINE
  8
CSLAYER1
  6
CONTINUOUS
 62
     2
 10
2444.478733
 20
882.982972
 11
2442.947112
 21
885.326929
  0
LINE
  8
CSLAYER1
  6
CONTINUOUS
 62
     2
 10
2444.275650
 20
882.014077
 11
2442.361122
 21
884.944024
  0
LINE
  8
CSLAYER1
  6
CONTINUOUS
 62
     2
 10
2444.478733
 20
882.982972
 11
2444.275650
 21
882.014077
  0
LINE
  8
CSLAYER1
  6
CONTINUOUS
 62
     2
 10
2444.478733
 20
882.982972
 11
2441.130223
 21
880.794941
  0
LINE
  8
CSLAYER1
  6
CONTINUOUS
 62
     2
 10
2428.503154
 20
886.042522
 11
2434.949035
 21
890.254482
  0
LINE
  8
CSLAYER1
  6
CONTINUOUS
 62
     2
 10
2429.597169
 20
884.368267
 11
2436.043051
 21
888.580227
  0
LINE
  8
CSLAYER1
  6
CONTINUOUS
 62
     2
 10
2429.597169
 20
884.368267
 11
2428.503154
 21
886.042522
  0
LINE
  8
CSLAYER1
  6
CONTINUOUS
 62
     2
 10
2434.157273
 20
879.583347
 11
2439.598602
 21
883.138898
  0
LINE
  8
CSLAYER1
  6
CONTINUOUS
 62
     2
 10
2434.157273
 20
879.583347
 11
2432.997927
 21
879.519301
  0
LINE
  8
CSLAYER1
  6
CONTINUOUS
 62
     2
 10
2429.759946
 20
884.474630
 11
2432.997927
 21
879.519301
  0
ARC
  8
CSLAYER1
  6
CONTINUOUS
 62
     2
 10
2433.093187
 20
882.803796
 40
3.285875
 50
278.475481
 51
338.126359
  0
ARC
  8
CSLAYER1
  6
CONTINUOUS
 62
     2
 10
2432.805069
 20
893.535556
 40
12.419443
 50
285.574022
 51
303.161976
  0
LINE
  8
CSLAYER1
  6
CONTINUOUS
 62
     2
 10
2432.901498
 20
886.527429
 11
2436.139480
 21
881.572100
  0
LINE
  8
CSLAYER1
  6
CONTINUOUS
 62
     2
 10
2438.750608
 20
878.403826
 11
2441.513129
 21
880.208952
  0
LINE
  8
CSLAYER1
  6
CONTINUOUS
 62
     2
 10
2437.781713
 20
878.606910
 11
2436.250092
 21
880.950867
  0
LINE
  8
CSLAYER1
  6
CONTINUOUS
 62
     2
 10
2438.750608
 20
878.403826
 11
2436.836081
 21
881.333772
  0
LINE
  8
CSLAYER1
  6
CONTINUOUS
 62
     2
 10
2437.781713
 20
878.606910
 11
2438.750608
 21
878.403826
  0
LINE
  8
CSLAYER1
  6
CONTINUOUS
 62
     2
 10
2437.781713
 20
878.606910
 11
2441.130223
 21
880.794941
  0
LINE
  8
CSLAYER1
  6
CONTINUOUS
 62
     2
 10
2436.281706
 20
891.125294
 11
2434.251130
 21
887.409324
  0
ENDBLK
  8
0
  0
BLOCK
  8
CSLAYER1
  2
BLKF0002
 70
   64
 10
0.0
 20
0.0
 30
0.0
  0
LINE
  8
CSLAYER1
  6
CONTINUOUS
 62
     3
 10
788.066683
 20
1511.664343
 11
803.066683
 21
1511.664343
  0
LINE
  8
CSLAYER1
  6
CONTINUOUS
 62
     3
 10
746.066683
 20
1511.664343
 11
731.066683
 21
1511.664343
  0
LINE
  8
CSLAYER1
  6
CONTINUOUS
 62
     3
 10
767.066683
 20
1483.389549
 11
769.703145
 21
1483.452243
  0
LINE
  8
CSLAYER1
  6
CONTINUOUS
 62
     3
 10
769.703145
 20
1483.452243
 11
772.319541
 21
1483.639847
  0
LINE
  8
CSLAYER1
  6
CONTINUOUS
 62
     3
 10
772.319541
 20
1483.639847
 11
774.895959
 21
1483.950933
  0
LINE
  8
CSLAYER1
  6
CONTINUOUS
 62
     3
 10
774.895959
 20
1483.950933
 11
777.412793
 21
1484.383133
  0
LINE
  8
CSLAYER1
  6
CONTINUOUS
 62
     3
 10
777.412793
 20
1484.383133
 11
779.850886
 21
1484.933159
  0
LINE
  8
CSLAYER1
  6
CONTINUOUS
 62
     3
 10
779.850886
 20
1484.933159
 11
782.191683
 21
1485.596825
  0
LINE
  8
CSLAYER1
  6
CONTINUOUS
 62
     3
 10
782.191683
 20
1485.596825
 11
784.417371
 21
1486.369079
  0
LINE
  8
CSLAYER1
  6
CONTINUOUS
 62
     3
 10
784.417371
 20
1486.369079
 11
786.511008
 21
1487.244044
  0
LINE
  8
CSLAYER1
  6
CONTINUOUS
 62
     3
 10
786.511008
 20
1487.244044
 11
788.456663
 21
1488.215062
  0
LINE
  8
CSLAYER1
  6
CONTINUOUS
 62
     3
 10
788.456663
 20
1488.215062
 11
790.239528
 21
1489.274742
  0
LINE
  8
CSLAYER1
  6
CONTINUOUS
 62
     3
 10
790.239528
 20
1489.274742
 11
791.846033
 21
1490.415019
  0
LINE
  8
CSLAYER1
  6
CONTINUOUS
 62
     3
 10
791.846033
 20
1490.415019
 11
793.263952
 21
1491.627215
  0
LINE
  8
CSLAYER1
  6
CONTINUOUS
 62
     3
 10
793.263952
 20
1491.627215
 11
794.482494
 21
1492.902104
  0
LINE
  8
CSLAYER1
  6
CONTINUOUS
 62
     3
 10
794.482494
 20
1492.902104
 11
795.492385
 21
1494.229985
  0
LINE
  8
CSLAYER1
  6
CONTINUOUS
 62
     3
 10
795.492385
 20
1494.229985
 11
796.285940
 21
1495.600751
  0
LINE
  8
CSLAYER1
  6
CONTINUOUS
 62
     3
 10
796.285940
 20
1495.600751
 11
796.857118
 21
1497.003969
  0
LINE
  8
CSLAYER1
  6
CONTINUOUS
 62
     3
 10
796.857118
 20
1497.003969
 11
797.201573
 21
1498.428960
  0
LINE
  8
CSLAYER1
  6
CONTINUOUS
 62
     3
 10
797.316683
 20
1508.236155
 11
797.201573
 21
1509.672075
  0
LINE
  8
CSLAYER1
  6
CONTINUOUS
 62
     3
 10
797.201573
 20
1509.672075
 11
796.857118
 21
1511.097066
  0
LINE
  8
CSLAYER1
  6
CONTINUOUS
 62
     3
 10
796.857118
 20
1511.097066
 11
796.626209
 21
1511.664343
  0
LINE
  8
CSLAYER1
  6
CONTINUOUS
 62
     3
 10
787.066683
 20
1495.892640
 11
788.456663
 21
1496.586337
  0
LINE
  8
CSLAYER1
  6
CONTINUOUS
 62
     3
 10
788.456663
 20
1496.586337
 11
790.239528
 21
1497.646017
  0
LINE
  8
CSLAYER1
  6
CONTINUOUS
 62
     3
 10
790.239528
 20
1497.646017
 11
791.846033
 21
1498.786294
  0
LINE
  8
CSLAYER1
  6
CONTINUOUS
 62
     3
 10
791.846033
 20
1498.786294
 11
793.263952
 21
1499.998490
  0
LINE
  8
CSLAYER1
  6
CONTINUOUS
 62
     3
 10
793.263952
 20
1499.998490
 11
794.482494
 21
1501.273380
  0
LINE
  8
CSLAYER1
  6
CONTINUOUS
 62
     3
 10
794.482494
 20
1501.273380
 11
795.492385
 21
1502.601260
  0
LINE
  8
CSLAYER1
  6
CONTINUOUS
 62
     3
 10
795.492385
 20
1502.601260
 11
796.285940
 21
1503.972026
  0
LINE
  8
CSLAYER1
  6
CONTINUOUS
 62
     3
 10
796.285940
 20
1503.972026
 11
796.857118
 21
1505.375244
  0
LINE
  8
CSLAYER1
  6
CONTINUOUS
 62
     3
 10
796.857118
 20
1505.375244
 11
797.201573
 21
1506.800236
  0
LINE
  8
CSLAYER1
  6
CONTINUOUS
 62
     3
 10
797.201573
 20
1506.800236
 11
797.316683
 21
1508.236155
  0
LINE
  8
CSLAYER1
  6
CONTINUOUS
 62
     3
 10
767.066683
 20
1483.389549
 11
764.430222
 21
1483.452243
  0
LINE
  8
CSLAYER1
  6
CONTINUOUS
 62
     3
 10
764.430222
 20
1483.452243
 11
761.813826
 21
1483.639847
  0
LINE
  8
CSLAYER1
  6
CONTINUOUS
 62
     3
 10
761.813826
 20
1483.639847
 11
759.237407
 21
1483.950933
  0
LINE
  8
CSLAYER1
  6
CONTINUOUS
 62
     3
 10
759.237407
 20
1483.950933
 11
756.720574
 21
1484.383133
  0
LINE
  8
CSLAYER1
  6
CONTINUOUS
 62
     3
 10
756.720574
 20
1484.383133
 11
754.282481
 21
1484.933159
  0
LINE
  8
CSLAYER1
  6
CONTINUOUS
 62
     3
 10
754.282481
 20
1484.933159
 11
751.941683
 21
1485.596825
  0
LINE
  8
CSLAYER1
  6
CONTINUOUS
 62
     3
 10
751.941683
 20
1485.596825
 11
749.715996
 21
1486.369079
  0
LINE
  8
CSLAYER1
  6
CONTINUOUS
 62
     3
 10
749.715996
 20
1486.369079
 11
747.622358
 21
1487.244044
  0
LINE
  8
CSLAYER1
  6
CONTINUOUS
 62
     3
 10
747.622358
 20
1487.244044
 11
745.676703
 21
1488.215062
  0
LINE
  8
CSLAYER1
  6
CONTINUOUS
 62
     3
 10
745.676703
 20
1488.215062
 11
743.893839
 21
1489.274742
  0
LINE
  8
CSLAYER1
  6
CONTINUOUS
 62
     3
 10
743.893839
 20
1489.274742
 11
742.287334
 21
1490.415019
  0
LINE
  8
CSLAYER1
  6
CONTINUOUS
 62
     3
 10
742.287334
 20
1490.415019
 11
740.869415
 21
1491.627215
  0
LINE
  8
CSLAYER1
  6
CONTINUOUS
 62
     3
 10
740.869415
 20
1491.627215
 11
739.650873
 21
1492.902104
  0
LINE
  8
CSLAYER1
  6
CONTINUOUS
 62
     3
 10
739.650873
 20
1492.902104
 11
738.640982
 21
1494.229985
  0
LINE
  8
CSLAYER1
  6
CONTINUOUS
 62
     3
 10
738.640982
 20
1494.229985
 11
737.847427
 21
1495.600751
  0
LINE
  8
CSLAYER1
  6
CONTINUOUS
 62
     3
 10
737.847427
 20
1495.600751
 11
737.276249
 21
1497.003969
  0
LINE
  8
CSLAYER1
  6
CONTINUOUS
 62
     3
 10
737.276249
 20
1497.003969
 11
736.931794
 21
1498.428960
  0
LINE
  8
CSLAYER1
  6
CONTINUOUS
 62
     3
 10
736.816683
 20
1508.236155
 11
736.931794
 21
1509.672075
  0
LINE
  8
CSLAYER1
  6
CONTINUOUS
 62
     3
 10
736.931794
 20
1509.672075
 11
737.276249
 21
1511.097066
  0
LINE
  8
CSLAYER1
  6
CONTINUOUS
 62
     3
 10
737.276249
 20
1511.097066
 11
737.507158
 21
1511.664343
  0
LINE
  8
CSLAYER1
  6
CONTINUOUS
 62
     3
 10
747.066683
 20
1495.892640
 11
745.676703
 21
1496.586337
  0
LINE
  8
CSLAYER1
  6
CONTINUOUS
 62
     3
 10
745.676703
 20
1496.586337
 11
743.893839
 21
1497.646017
  0
LINE
  8
CSLAYER1
  6
CONTINUOUS
 62
     3
 10
743.893839
 20
1497.646017
 11
742.287334
 21
1498.786294
  0
LINE
  8
CSLAYER1
  6
CONTINUOUS
 62
     3
 10
742.287334
 20
1498.786294
 11
740.869415
 21
1499.998490
  0
LINE
  8
CSLAYER1
  6
CONTINUOUS
 62
     3
 10
740.869415
 20
1499.998490
 11
739.650873
 21
1501.273380
  0
LINE
  8
CSLAYER1
  6
CONTINUOUS
 62
     3
 10
739.650873
 20
1501.273380
 11
738.640982
 21
1502.601260
  0
LINE
  8
CSLAYER1
  6
CONTINUOUS
 62
     3
 10
738.640982
 20
1502.601260
 11
737.847427
 21
1503.972026
  0
LINE
  8
CSLAYER1
  6
CONTINUOUS
 62
     3
 10
737.847427
 20
1503.972026
 11
737.276249
 21
1505.375244
  0
LINE
  8
CSLAYER1
  6
CONTINUOUS
 62
     3
 10
737.276249
 20
1505.375244
 11
736.931794
 21
1506.800236
  0
LINE
  8
CSLAYER1
  6
CONTINUOUS
 62
     3
 10
736.931794
 20
1506.800236
 11
736.816683
 21
1508.236155
  0
ENDBLK
  8
0
  0
BLOCK
  8
CSLAYER1
  2
BLKF0003
 70
   64
 10
0.0
 20
0.0
 30
0.0
  0
LINE
  8
CSLAYER1
  6
CONTINUOUS
 62
     3
 10
1366.171402
 20
3052.917701
 11
1361.100774
 21
3054.827418
  0
LINE
  8
CSLAYER1
  6
CONTINUOUS
 62
     3
 10
1361.100774
 20
3054.827418
 11
1354.676143
 21
3055.005880
  0
LINE
  8
CSLAYER1
  6
CONTINUOUS
 62
     3
 10
1367.225732
 20
3054.306803
 11
1361.576673
 21
3056.671525
  0
LINE
  8
CSLAYER1
  6
CONTINUOUS
 62
     3
 10
1361.576673
 20
3056.671525
 11
1356.222813
 21
3057.980246
  0
LINE
  8
CSLAYER1
  6
CONTINUOUS
 62
     3
 10
1368.067927
 20
3055.416412
 11
1363.182831
 21
3058.277683
  0
LINE
  8
CSLAYER1
  6
CONTINUOUS
 62
     3
 10
1363.182831
 20
3058.277683
 11
1360.862825
 21
3061.608974
  0
LINE
  8
CSLAYER1
  6
CONTINUOUS
 62
     3
 10
1364.987649
 20
3051.358080
 11
1369.219700
 21
3056.933898
  0
LINE
  8
CSLAYER1
  6
CONTINUOUS
 62
     3
 10
1364.987649
 20
3051.358080
 11
1552.721577
 21
2908.867830
  0
LINE
  8
CSLAYER1
  6
CONTINUOUS
 62
     3
 10
1369.219700
 20
3056.933898
 11
1556.953628
 21
2914.443647
  0
ARC
  8
CSLAYER1
  6
CONTINUOUS
 62
     3
 10
1581.136779
 20
2946.305461
 40
47.000000
 50
0.000000
 51
190.756396
  0
ARC
  8
CSLAYER1
  6
CONTINUOUS
 62
     3
 10
1581.136779
 20
2946.305461
 40
40.000000
 50
0.000000
 51
203.471057
  0
ARC
  8
CSLAYER1
  6
CONTINUOUS
 62
     3
 10
1581.136779
 20
2946.305461
 40
40.000000
 50
232.801463
 51
360.000000
  0
ARC
  8
CSLAYER1
  6
CONTINUOUS
 62
     3
 10
1581.136779
 20
2946.305461
 40
47.000000
 50
232.801463
 51
360.000000
  0
LINE
  8
CSLAYER1
  6
CONTINUOUS
 62
     3
 10
1896.648101
 20
2906.305461
 11
1612.671720
 21
2906.305461
  0
LINE
  8
CSLAYER1
  6
CONTINUOUS
 62
     3
 10
1896.648101
 20
2899.305461
 11
1602.789929
 21
2899.305461
  0
ENDBLK
  8
0
  0
BLOCK
  8
CSLAYER1
  2
BLKF0004
 70
   64
 10
0.0
 20
0.0
 30
0.0
  0
LINE
  8
CSLAYER1
  6
CONTINUOUS
 62
     4
 10
1939.306461
 20
681.055601
 11
1946.611707
 21
685.401102
  0
LINE
  8
CSLAYER1
  6
CONTINUOUS
 62
     4
 10
1942.885109
 20
675.039516
 11
1951.320480
 21
680.057269
  0
LINE
  8
CSLAYER1
  6
CONTINUOUS
 62
     4
 10
1948.129957
 20
685.420875
 11
1951.320480
 21
680.057269
  0
LINE
  8
CSLAYER1
  6
CONTINUOUS
 62
     4
 10
1943.912271
 20
682.911999
 11
1947.102795
 21
677.548392
  0
LINE
  8
CSLAYER1
  6
CONTINUOUS
 62
     4
 10
1946.611707
 20
685.401102
 11
1948.129957
 21
685.420875
  0
ARC
  8
CSLAYER1
  6
CONTINUOUS
 62
     4
 10
1947.609339
 20
667.097587
 40
16.240811
 50
103.158205
 51
120.746159
  0
ARC
  8
CSLAYER1
  6
CONTINUOUS
 62
     4
 10
1947.781549
 20
681.206960
 40
4.228294
 50
96.218799
 51
156.218799
  0
LINE
  8
CSLAYER1
  6
CONTINUOUS
 62
     4
 10
1939.306461
 20
681.055601
 11
1932.001215
 21
676.710099
  0
LINE
  8
CSLAYER1
  6
CONTINUOUS
 62
     4
 10
1942.885109
 20
675.039516
 11
1934.449738
 21
670.021763
  0
LINE
  8
CSLAYER1
  6
CONTINUOUS
 62
     4
 10
1931.259214
 20
675.385369
 11
1934.449738
 21
670.021763
  0
LINE
  8
CSLAYER1
  6
CONTINUOUS
 62
     4
 10
1935.476900
 20
677.894246
 11
1938.667423
 21
672.530639
  0
LINE
  8
CSLAYER1
  6
CONTINUOUS
 62
     4
 10
1932.001215
 20
676.710099
 11
1931.259214
 21
675.385369
  0
ARC
  8
CSLAYER1
  6
CONTINUOUS
 62
     4
 10
1947.609339
 20
667.097587
 40
16.240811
 50
120.746159
 51
138.334113
  0
ARC
  8
CSLAYER1
  6
CONTINUOUS
 62
     4
 10
1935.128492
 20
673.680331
 40
4.228294
 50
85.273519
 51
145.273519
  0
ENDBLK
  8
0
  0
BLOCK
  8
CSLAYER1
  2
BLKF0005
 70
   64
 10
0.0
 20
0.0
 30
0.0
  0
LINE
  8
CSLAYER1
  6
CONTINUOUS
 62
     4
 10
1948.321527
 20
665.900325
 11
1955.626773
 21
670.245826
  0
LINE
  8
CSLAYER1
  6
CONTINUOUS
 62
     4
 10
1957.145023
 20
670.265599
 11
1960.458657
 21
664.695030
  0
LINE
  8
CSLAYER1
  6
CONTINUOUS
 62
     4
 10
1952.927337
 20
667.756723
 11
1956.240972
 21
662.186154
  0
LINE
  8
CSLAYER1
  6
CONTINUOUS
 62
     4
 10
1955.626773
 20
670.245826
 11
1957.145023
 21
670.265599
  0
ARC
  8
CSLAYER1
  6
CONTINUOUS
 62
     4
 10
1956.624405
 20
651.942311
 40
16.240811
 50
103.158205
 51
120.746159
  0
ARC
  8
CSLAYER1
  6
CONTINUOUS
 62
     4
 10
1956.796615
 20
666.051684
 40
4.228294
 50
96.218799
 51
156.218799
  0
LINE
  8
CSLAYER1
  6
CONTINUOUS
 62
     4
 10
1948.321527
 20
665.900325
 11
1941.016281
 21
661.554823
  0
LINE
  8
CSLAYER1
  6
CONTINUOUS
 62
     4
 10
1940.274280
 20
660.230093
 11
1943.587915
 21
654.659524
  0
LINE
  8
CSLAYER1
  6
CONTINUOUS
 62
     4
 10
1944.491966
 20
662.738970
 11
1947.805601
 21
657.168401
  0
LINE
  8
CSLAYER1
  6
CONTINUOUS
 62
     4
 10
1941.016281
 20
661.554823
 11
1940.274280
 21
660.230093
  0
ARC
  8
CSLAYER1
  6
CONTINUOUS
 62
     4
 10
1956.624405
 20
651.942311
 40
16.240811
 50
120.746159
 51
138.334113
  0
ARC
  8
CSLAYER1
  6
CONTINUOUS
 62
     4
 10
1944.143558
 20
658.525055
 40
4.228294
 50
85.273519
 51
145.273519
  0
LINE
  8
CSLAYER1
  6
CONTINUOUS
 62
     4
 10
1952.411411
 20
659.024799
 11
1959.716657
 21
663.370301
  0
LINE
  8
CSLAYER1
  6
CONTINUOUS
 62
     4
 10
1959.716657
 20
663.370301
 11
1960.458657
 21
664.695030
  0
ARC
  8
CSLAYER1
  6
CONTINUOUS
 62
     4
 10
1944.108532
 20
672.982813
 40
16.240811
 50
300.746159
 51
318.334113
  0
ARC
  8
CSLAYER1
  6
CONTINUOUS
 62
     4
 10
1956.589379
 20
666.400069
 40
4.228294
 50
265.273519
 51
325.273519
  0
LINE
  8
CSLAYER1
  6
CONTINUOUS
 62
     4
 10
1952.411411
 20
659.024799
 11
1945.106165
 21
654.679298
  0
LINE
  8
CSLAYER1
  6
CONTINUOUS
 62
     4
 10
1945.106165
 20
654.679298
 11
1943.587915
 21
654.659524
  0
ARC
  8
CSLAYER1
  6
CONTINUOUS
 62
     4
 10
1944.108532
 20
672.982813
 40
16.240811
 50
283.158205
 51
300.746159
  0
ARC
  8
CSLAYER1
  6
CONTINUOUS
 62
     4
 10
1943.936323
 20
658.873440
 40
4.228294
 50
276.218799
 51
336.218799
  0
ENDBLK
  8
0
  0
BLOCK
  8
CSLAYER1
  2
BLKF0006
 70
   64
 10
0.0
 20
0.0
 30
0.0
  0
LINE
  8
CSLAYER1
  6
CONTINUOUS
 62
     3
 10
1429.986440
 20
2942.805461
 11
1429.986440
 21
2880.805461
  0
LINE
  8
CSLAYER1
  6
CONTINUOUS
 62
     3
 10
1427.486440
 20
2945.305461
 11
1342.486440
 21
2945.305461
  0
LINE
  8
CSLAYER1
  6
CENTER
 62
     5
 10
1488.336079
 20
2872.805461
 11
1429.986440
 21
2872.805461
  0
LINE
  8
CSLAYER1
  6
CONTINUOUS
 62
     2
 10
1427.486440
 20
2888.805461
 11
1342.486440
 21
2888.805461
  0
LINE
  8
CSLAYER1
  6
CONTINUOUS
 62
     3
 10
1427.486440
 20
2940.305461
 11
1427.486440
 21
2895.305461
  0
LINE
  8
CSLAYER1
  6
CONTINUOUS
 62
     3
 10
1339.986440
 20
2942.805461
 11
1339.986440
 21
2872.805461
  0
LINE
  8
CSLAYER1
  6
CONTINUOUS
 62
     3
 10
1424.986440
 20
2942.805461
 11
1347.986440
 21
2942.805461
  0
LINE
  8
CSLAYER1
  6
CONTINUOUS
 62
     3
 10
1424.986440
 20
2892.805461
 11
1347.986440
 21
2892.805461
  0
ARC
  8
CSLAYER1
  6
CONTINUOUS
 62
     3
 10
1402.054622
 20
2917.805461
 40
59.568182
 50
155.185163
 51
204.814837
  0
ARC
  8
CSLAYER1
  6
CONTINUOUS
 62
     3
 10
1424.986440
 20
2940.305461
 40
2.500000
 50
0.000000
 51
90.000000
  0
ARC
  8
CSLAYER1
  6
CONTINUOUS
 62
     3
 10
1424.986440
 20
2895.305461
 40
2.500000
 50
270.000000
 51
360.000000
  0
ARC
  8
CSLAYER1
  6
CONTINUOUS
 62
     3
 10
1427.486440
 20
2942.805461
 40
2.500000
 50
0.000000
 51
90.000000
  0
ARC
  8
CSLAYER1
  6
CONTINUOUS
 62
     3
 10
1342.486440
 20
2942.805461
 40
2.500000
 50
90.000000
 51
180.000000
  0
ARC
  8
CSLAYER1
  6
CONTINUOUS
 62
     2
 10
1342.486440
 20
2886.305461
 40
2.500000
 50
90.000000
 51
180.000000
  0
ARC
  8
CSLAYER1
  6
CONTINUOUS
 62
     2
 10
1427.486440
 20
2886.305461
 40
2.500000
 50
0.000000
 51
90.000000
  0
LINE
  8
CSLAYER1
  6
CONTINUOUS
 62
     3
 10
1429.986440
 20
2802.805461
 11
1429.986440
 21
2864.805461
  0
LINE
  8
CSLAYER1
  6
CONTINUOUS
 62
     3
 10
1427.486440
 20
2800.305461
 11
1342.486440
 21
2800.305461
  0
LINE
  8
CSLAYER1
  6
CONTINUOUS
 62
     2
 10
1427.486440
 20
2856.805461
 11
1342.486440
 21
2856.805461
  0
LINE
  8
CSLAYER1
  6
CONTINUOUS
 62
     3
 10
1339.986440
 20
2802.805461
 11
1339.986440
 21
2872.805461
  0
ARC
  8
CSLAYER1
  6
CONTINUOUS
 62
     3
 10
1427.486440
 20
2802.805461
 40
2.500000
 50
270.000000
 51
360.000000
  0
ARC
  8
CSLAYER1
  6
CONTINUOUS
 62
     3
 10
1342.486440
 20
2802.805461
 40
2.500000
 50
180.000000
 51
270.000000
  0
ARC
  8
CSLAYER1
  6
CONTINUOUS
 62
     2
 10
1342.486440
 20
2859.305461
 40
2.500000
 50
180.000000
 51
270.000000
  0
ARC
  8
CSLAYER1
  6
CONTINUOUS
 62
     2
 10
1427.486440
 20
2859.305461
 40
2.500000
 50
270.000000
 51
360.000000
  0
LINE
  8
CSLAYER1
  6
CONTINUOUS
 62
     3
 10
1427.486440
 20
2805.305461
 11
1427.486440
 21
2850.305461
  0
LINE
  8
CSLAYER1
  6
CONTINUOUS
 62
     3
 10
1424.986440
 20
2802.805461
 11
1347.986440
 21
2802.805461
  0
LINE
  8
CSLAYER1
  6
CONTINUOUS
 62
     3
 10
1424.986440
 20
2852.805461
 11
1347.986440
 21
2852.805461
  0
ARC
  8
CSLAYER1
  6
CONTINUOUS
 62
     3
 10
1402.054622
 20
2827.805461
 40
59.568182
 50
155.185163
 51
204.814837
  0
ARC
  8
CSLAYER1
  6
CONTINUOUS
 62
     3
 10
1424.986440
 20
2805.305461
 40
2.500000
 50
270.000000
 51
360.000000
  0
ARC
  8
CSLAYER1
  6
CONTINUOUS
 62
     3
 10
1424.986440
 20
2850.305461
 40
2.500000
 50
0.000000
 51
90.000000
  0
LINE
  8
CSLAYER1
  6
CONTINUOUS
 62
     3
 10
1436.986440
 20
2865.805461
 11
1436.986440
 21
2869.305461
  0
LINE
  8
CSLAYER1
  6
CONTINUOUS
 62
     3
 10
1488.336079
 20
2869.305461
 11
1436.986440
 21
2869.305461
  0
LINE
  8
CSLAYER1
  6
CONTINUOUS
 62
     3
 10
1435.986440
 20
2864.805461
 11
1429.986440
 21
2864.805461
  0
LINE
  8
CSLAYER1
  6
CONTINUOUS
 62
     3
 10
1435.986440
 20
2880.805461
 11
1429.986440
 21
2880.805461
  0
LINE
  8
CSLAYER1
  6
CONTINUOUS
 62
     3
 10
1488.336079
 20
2876.305461
 11
1436.986440
 21
2876.305461
  0
ARC
  8
CSLAYER1
  6
CONTINUOUS
 62
     3
 10
1435.986440
 20
2879.805461
 40
1.000000
 50
0.000000
 51
90.000000
  0
ARC
  8
CSLAYER1
  6
CONTINUOUS
 62
     3
 10
1435.986440
 20
2865.805461
 40
1.000000
 50
270.000000
 51
360.000000
  0
LINE
  8
CSLAYER1
  6
CONTINUOUS
 62
     3
 10
1436.986440
 20
2876.305461
 11
1436.986440
 21
2879.805461
  0
LINE
  8
CSLAYER1
  6
CONTINUOUS
 62
     2
 10
1436.986440
 20
2869.305461
 11
1436.986440
 21
2876.305461
  0
LINE
  8
CSLAYER1
  6
CONTINUOUS
 62
     2
 10
1429.986440
 20
2880.805461
 11
1429.986440
 21
2872.805461
  0
LINE
  8
CSLAYER1
  6
CONTINUOUS
 62
     2
 10
1429.986440
 20
2864.805461
 11
1429.986440
 21
2872.805461
  0
LINE
  8
CSLAYER1
  6
CONTINUOUS
 62
     2
 10
1410.493429
 20
2884.968121
 11
1419.628429
 21
2884.968121
  0
LINE
  8
CSLAYER1
  6
CONTINUOUS
 62
     2
 10
1410.493429
 20
2861.343121
 11
1419.628429
 21
2861.343121
  0
LINE
  8
CSLAYER1
  6
CONTINUOUS
 62
     2
 10
1420.888429
 20
2883.708121
 11
1420.888429
 21
2862.603121
  0
LINE
  8
CSLAYER1
  6
CONTINUOUS
 62
     2
 10
1409.233429
 20
2883.708121
 11
1409.233429
 21
2862.603121
  0
LINE
  8
CSLAYER1
  6
CONTINUOUS
 62
     2
 10
1411.123429
 20
2863.233121
 11
1419.155929
 21
2863.233121
  0
LINE
  8
CSLAYER1
  6
CONTINUOUS
 62
     2
 10
1411.123429
 20
2866.383121
 11
1412.068429
 21
2866.383121
  0
LINE
  8
CSLAYER1
  6
CONTINUOUS
 62
     2
 10
1411.123429
 20
2875.045621
 11
1412.068429
 21
2875.045621
  0
LINE
  8
CSLAYER1
  6
CONTINUOUS
 62
     2
 10
1411.123429
 20
2879.613121
 11
1416.163429
 21
2879.613121
  0
LINE
  8
CSLAYER1
  6
CONTINUOUS
 62
     2
 10
1410.020929
 20
2878.510621
 11
1410.020929
 21
2876.148121
  0
LINE
  8
CSLAYER1
  6
CONTINUOUS
 62
     2
 10
1417.265929
 20
2878.510621
 11
1417.265929
 21
2876.148121
  0
LINE
  8
CSLAYER1
  6
CONTINUOUS
 62
     2
 10
1420.258429
 20
2865.280621
 11
1420.258429
 21
2864.335621
  0
LINE
  8
CSLAYER1
  6
CONTINUOUS
 62
     2
 10
1413.013429
 20
2874.100621
 11
1413.013429
 21
2867.328121
  0
LINE
  8
CSLAYER1
  6
CONTINUOUS
 62
     2
 10
1413.800929
 20
2874.100621
 11
1413.800929
 21
2867.328121
  0
ARC
  8
CSLAYER1
  6
CONTINUOUS
 62
     2
 10
1411.123429
 20
2878.510621
 40
1.102500
 50
90.000000
 51
180.000000
  0
ARC
  8
CSLAYER1
  6
CONTINUOUS
 62
     2
 10
1416.163429
 20
2878.510621
 40
1.102500
 50
0.000000
 51
90.000000
  0
ARC
  8
CSLAYER1
  6
CONTINUOUS
 62
     2
 10
1416.163429
 20
2876.148121
 40
1.102500
 50
270.000000
 51
360.000000
  0
ARC
  8
CSLAYER1
  6
CONTINUOUS
 62
     2
 10
1411.123429
 20
2876.148121
 40
1.102500
 50
180.000000
 51
270.000000
  0
ARC
  8
CSLAYER1
  6
CONTINUOUS
 62
     2
 10
1419.155929
 20
2865.280621
 40
1.102500
 50
0.000000
 51
90.000000
  0
ARC
  8
CSLAYER1
  6
CONTINUOUS
 62
     2
 10
1419.155929
 20
2864.335621
 40
1.102500
 50
270.000000
 51
360.000000
  0
ARC
  8
CSLAYER1
  6
CONTINUOUS
 62
     2
 10
1411.123429
 20
2864.335621
 40
1.102500
 50
180.000000
 51
270.000000
  0
ARC
  8
CSLAYER1
  6
CONTINUOUS
 62
     2
 10
1411.123429
 20
2865.280621
 40
1.102500
 50
90.000000
 51
180.000000
  0
LINE
  8
CSLAYER1
  6
CONTINUOUS
 62
     2
 10
1414.745929
 20
2875.045621
 11
1416.163429
 21
2875.045621
  0
LINE
  8
CSLAYER1
  6
CONTINUOUS
 62
     2
 10
1414.745929
 20
2866.383121
 11
1419.155929
 21
2866.383121
  0
ARC
  8
CSLAYER1
  6
CONTINUOUS
 62
     2
 10
1412.068429
 20
2874.100621
 40
0.945000
 50
0.000000
 51
90.000000
  0
ARC
  8
CSLAYER1
  6
CONTINUOUS
 62
     2
 10
1414.745929
 20
2874.100621
 40
0.945000
 50
90.000000
 51
180.000000
  0
ARC
  8
CSLAYER1
  6
CONTINUOUS
 62
     2
 10
1414.745929
 20
2867.328121
 40
0.945000
 50
180.000000
 51
270.000000
  0
ARC
  8
CSLAYER1
  6
CONTINUOUS
 62
     2
 10
1410.493429
 20
2883.708121
 40
1.260000
 50
90.000000
 51
180.000000
  0
ARC
  8
CSLAYER1
  6
CONTINUOUS
 62
     2
 10
1419.628429
 20
2883.708121
 40
1.260000
 50
0.000000
 51
90.000000
  0
ARC
  8
CSLAYER1
  6
CONTINUOUS
 62
     2
 10
1419.628429
 20
2862.603121
 40
1.260000
 50
270.000000
 51
360.000000
  0
ARC
  8
CSLAYER1
  6
CONTINUOUS
 62
     2
 10
1410.493429
 20
2862.603121
 40
1.260000
 50
180.000000
 51
270.000000
  0
ARC
  8
CSLAYER1
  6
CONTINUOUS
 62
     2
 10
1412.068429
 20
2867.328121
 40
0.945000
 50
270.000000
 51
360.000000
  0
LINE
  8
CSLAYER1
  6
CONTINUOUS
 62
     2
 10
1410.020929
 20
2865.280621
 11
1410.020929
 21
2864.335621
  0
CIRCLE
  8
CSLAYER1
  6
CONTINUOUS
 62
     2
 10
1395.486440
 20
2922.805461
 40
2.500000
  0
CIRCLE
  8
CSLAYER1
  6
CONTINUOUS
 62
     2
 10
1395.486440
 20
2932.805461
 40
2.500000
  0
CIRCLE
  8
CSLAYER1
  6
CONTINUOUS
 62
     2
 10
1385.486440
 20
2932.805461
 40
2.500000
  0
CIRCLE
  8
CSLAYER1
  6
CONTINUOUS
 62
     2
 10
1385.486440
 20
2922.805461
 40
2.500000
  0
CIRCLE
  8
CSLAYER1
  6
CONTINUOUS
 62
     2
 10
1375.486440
 20
2922.805461
 40
2.500000
  0
CIRCLE
  8
CSLAYER1
  6
CONTINUOUS
 62
     2
 10
1375.486440
 20
2932.805461
 40
2.500000
  0
CIRCLE
  8
CSLAYER1
  6
CONTINUOUS
 62
     2
 10
1365.486440
 20
2932.805461
 40
2.500000
  0
CIRCLE
  8
CSLAYER1
  6
CONTINUOUS
 62
     2
 10
1365.486440
 20
2922.805461
 40
2.500000
  0
CIRCLE
  8
CSLAYER1
  6
CONTINUOUS
 62
     2
 10
1355.486440
 20
2922.805461
 40
2.500000
  0
CIRCLE
  8
CSLAYER1
  6
CONTINUOUS
 62
     2
 10
1355.486440
 20
2932.805461
 40
2.500000
  0
CIRCLE
  8
CSLAYER1
  6
CONTINUOUS
 62
     2
 10
1395.486440
 20
2912.805461
 40
2.500000
  0
CIRCLE
  8
CSLAYER1
  6
CONTINUOUS
 62
     2
 10
1395.486440
 20
2902.805461
 40
2.500000
  0
CIRCLE
  8
CSLAYER1
  6
CONTINUOUS
 62
     2
 10
1385.486440
 20
2902.805461
 40
2.500000
  0
CIRCLE
  8
CSLAYER1
  6
CONTINUOUS
 62
     2
 10
1385.486440
 20
2912.805461
 40
2.500000
  0
CIRCLE
  8
CSLAYER1
  6
CONTINUOUS
 62
     2
 10
1375.486440
 20
2912.805461
 40
2.500000
  0
CIRCLE
  8
CSLAYER1
  6
CONTINUOUS
 62
     2
 10
1375.486440
 20
2902.805461
 40
2.500000
  0
CIRCLE
  8
CSLAYER1
  6
CONTINUOUS
 62
     2
 10
1365.486440
 20
2902.805461
 40
2.500000
  0
CIRCLE
  8
CSLAYER1
  6
CONTINUOUS
 62
     2
 10
1365.486440
 20
2912.805461
 40
2.500000
  0
CIRCLE
  8
CSLAYER1
  6
CONTINUOUS
 62
     2
 10
1355.486440
 20
2912.805461
 40
2.500000
  0
CIRCLE
  8
CSLAYER1
  6
CONTINUOUS
 62
     2
 10
1355.486440
 20
2902.805461
 40
2.500000
  0
CIRCLE
  8
CSLAYER1
  6
CONTINUOUS
 62
     2
 10
1395.486440
 20
2822.805461
 40
2.500000
  0
CIRCLE
  8
CSLAYER1
  6
CONTINUOUS
 62
     2
 10
1395.486440
 20
2812.805461
 40
2.500000
  0
CIRCLE
  8
CSLAYER1
  6
CONTINUOUS
 62
     2
 10
1385.486440
 20
2812.805461
 40
2.500000
  0
CIRCLE
  8
CSLAYER1
  6
CONTINUOUS
 62
     2
 10
1385.486440
 20
2822.805461
 40
2.500000
  0
CIRCLE
  8
CSLAYER1
  6
CONTINUOUS
 62
     2
 10
1375.486440
 20
2822.805461
 40
2.500000
  0
CIRCLE
  8
CSLAYER1
  6
CONTINUOUS
 62
     2
 10
1375.486440
 20
2812.805461
 40
2.500000
  0
CIRCLE
  8
CSLAYER1
  6
CONTINUOUS
 62
     2
 10
1365.486440
 20
2812.805461
 40
2.500000
  0
CIRCLE
  8
CSLAYER1
  6
CONTINUOUS
 62
     2
 10
1365.486440
 20
2822.805461
 40
2.500000
  0
CIRCLE
  8
CSLAYER1
  6
CONTINUOUS
 62
     2
 10
1355.486440
 20
2822.805461
 40
2.500000
  0
CIRCLE
  8
CSLAYER1
  6
CONTINUOUS
 62
     2
 10
1355.486440
 20
2812.805461
 40
2.500000
  0
CIRCLE
  8
CSLAYER1
  6
CONTINUOUS
 62
     2
 10
1395.486440
 20
2832.805461
 40
2.500000
  0
CIRCLE
  8
CSLAYER1
  6
CONTINUOUS
 62
     2
 10
1395.486440
 20
2842.805461
 40
2.500000
  0
CIRCLE
  8
CSLAYER1
  6
CONTINUOUS
 62
     2
 10
1385.486440
 20
2842.805461
 40
2.500000
  0
CIRCLE
  8
CSLAYER1
  6
CONTINUOUS
 62
     2
 10
1385.486440
 20
2832.805461
 40
2.500000
  0
CIRCLE
  8
CSLAYER1
  6
CONTINUOUS
 62
     2
 10
1375.486440
 20
2832.805461
 40
2.500000
  0
CIRCLE
  8
CSLAYER1
  6
CONTINUOUS
 62
     2
 10
1375.486440
 20
2842.805461
 40
2.500000
  0
CIRCLE
  8
CSLAYER1
  6
CONTINUOUS
 62
     2
 10
1365.486440
 20
2842.805461
 40
2.500000
  0
CIRCLE
  8
CSLAYER1
  6
CONTINUOUS
 62
     2
 10
1365.486440
 20
2832.805461
 40
2.500000
  0
CIRCLE
  8
CSLAYER1
  6
CONTINUOUS
 62
     2
 10
1355.486440
 20
2832.805461
 40
2.500000
  0
CIRCLE
  8
CSLAYER1
  6
CONTINUOUS
 62
     2
 10
1355.486440
 20
2842.805461
 40
2.500000
  0
LINE
  8
CSLAYER1
  6
CONTINUOUS
 62
     2
 10
1421.486440
 20
2845.305461
 11
1421.486440
 21
2810.305461
  0
LINE
  8
CSLAYER1
  6
CONTINUOUS
 62
     2
 10
1405.486440
 20
2845.305461
 11
1405.486440
 21
2810.305461
  0
LINE
  8
CSLAYER1
  6
CONTINUOUS
 62
     2
 10
1419.986440
 20
2846.805461
 11
1406.986440
 21
2846.805461
  0
LINE
  8
CSLAYER1
  6
CONTINUOUS
 62
     2
 10
1420.486440
 20
2845.305461
 11
1420.486440
 21
2810.305461
  0
LINE
  8
CSLAYER1
  6
CONTINUOUS
 62
     2
 10
1406.486440
 20
2845.305461
 11
1406.486440
 21
2810.305461
  0
LINE
  8
CSLAYER1
  6
CONTINUOUS
 62
     2
 10
1419.986440
 20
2845.805461
 11
1406.986440
 21
2845.805461
  0
LINE
  8
CSLAYER1
  6
CONTINUOUS
 62
     2
 10
1419.986440
 20
2808.805461
 11
1406.986440
 21
2808.805461
  0
LINE
  8
CSLAYER1
  6
CONTINUOUS
 62
     2
 10
1419.986440
 20
2809.805461
 11
1406.986440
 21
2809.805461
  0
ARC
  8
CSLAYER1
  6
CONTINUOUS
 62
     2
 10
1419.986440
 20
2845.305461
 40
0.500000
 50
0.000000
 51
90.000000
  0
ARC
  8
CSLAYER1
  6
CONTINUOUS
 62
     2
 10
1406.986440
 20
2845.305461
 40
0.500000
 50
90.000000
 51
180.000000
  0
ARC
  8
CSLAYER1
  6
CONTINUOUS
 62
     2
 10
1419.986440
 20
2810.305461
 40
0.500000
 50
270.000000
 51
360.000000
  0
ARC
  8
CSLAYER1
  6
CONTINUOUS
 62
     2
 10
1406.986440
 20
2810.305461
 40
0.500000
 50
180.000000
 51
270.000000
  0
ARC
  8
CSLAYER1
  6
CONTINUOUS
 62
     2
 10
1419.986440
 20
2845.305461
 40
1.500000
 50
0.000000
 51
90.000000
  0
ARC
  8
CSLAYER1
  6
CONTINUOUS
 62
     2
 10
1406.986440
 20
2845.305461
 40
1.500000
 50
90.000000
 51
180.000000
  0
ARC
  8
CSLAYER1
  6
CONTINUOUS
 62
     2
 10
1419.986440
 20
2810.305461
 40
1.500000
 50
270.000000
 51
360.000000
  0
ARC
  8
CSLAYER1
  6
CONTINUOUS
 62
     2
 10
1406.986440
 20
2810.305461
 40
1.500000
 50
180.000000
 51
270.000000
  0
LINE
  8
CSLAYER1
  6
CONTINUOUS
 62
     2
 10
1416.486440
 20
2836.805461
 11
1416.486440
 21
2818.805461
  0
LINE
  8
CSLAYER1
  6
CONTINUOUS
 62
     2
 10
1419.564512
 20
2827.805461
 11
1416.486440
 21
2818.805461
  0
LINE
  8
CSLAYER1
  6
CONTINUOUS
 62
     2
 10
1419.564512
 20
2827.805461
 11
1416.486440
 21
2836.805461
  0
TEXT
  8
CSLAYER1
 62
     2
 10
1408.192435
 20
2836.785576
 40
7.066058
 41
1.574983
  1
UP
 50
270.000000
 51
0.000000
  7
EASYDRAW_FONT
 72
     5
 11
1408.192435
 21
2818.237373
  0
LINE
  8
CSLAYER1
  6
CONTINUOUS
 62
     2
 10
1421.486440
 20
2900.305461
 11
1421.486440
 21
2935.305461
  0
LINE
  8
CSLAYER1
  6
CONTINUOUS
 62
     2
 10
1405.486440
 20
2900.305461
 11
1405.486440
 21
2935.305461
  0
LINE
  8
CSLAYER1
  6
CONTINUOUS
 62
     2
 10
1419.986440
 20
2898.805461
 11
1406.986440
 21
2898.805461
  0
LINE
  8
CSLAYER1
  6
CONTINUOUS
 62
     2
 10
1420.486440
 20
2900.305461
 11
1420.486440
 21
2935.305461
  0
LINE
  8
CSLAYER1
  6
CONTINUOUS
 62
     2
 10
1406.486440
 20
2900.305461
 11
1406.486440
 21
2935.305461
  0
LINE
  8
CSLAYER1
  6
CONTINUOUS
 62
     2
 10
1419.986440
 20
2899.805461
 11
1406.986440
 21
2899.805461
  0
LINE
  8
CSLAYER1
  6
CONTINUOUS
 62
     2
 10
1419.986440
 20
2936.805461
 11
1406.986440
 21
2936.805461
  0
LINE
  8
CSLAYER1
  6
CONTINUOUS
 62
     2
 10
1419.986440
 20
2935.805461
 11
1406.986440
 21
2935.805461
  0
ARC
  8
CSLAYER1
  6
CONTINUOUS
 62
     2
 10
1419.986440
 20
2900.305461
 40
0.500000
 50
270.000000
 51
360.000000
  0
ARC
  8
CSLAYER1
  6
CONTINUOUS
 62
     2
 10
1406.986440
 20
2900.305461
 40
0.500000
 50
180.000000
 51
270.000000
  0
ARC
  8
CSLAYER1
  6
CONTINUOUS
 62
     2
 10
1419.986440
 20
2935.305461
 40
0.500000
 50
0.000000
 51
90.000000
  0
ARC
  8
CSLAYER1
  6
CONTINUOUS
 62
     2
 10
1406.986440
 20
2935.305461
 40
0.500000
 50
90.000000
 51
180.000000
  0
ARC
  8
CSLAYER1
  6
CONTINUOUS
 62
     2
 10
1419.986440
 20
2900.305461
 40
1.500000
 50
270.000000
 51
360.000000
  0
ARC
  8
CSLAYER1
  6
CONTINUOUS
 62
     2
 10
1406.986440
 20
2900.305461
 40
1.500000
 50
180.000000
 51
270.000000
  0
ARC
  8
CSLAYER1
  6
CONTINUOUS
 62
     2
 10
1419.986440
 20
2935.305461
 40
1.500000
 50
0.000000
 51
90.000000
  0
ARC
  8
CSLAYER1
  6
CONTINUOUS
 62
     2
 10
1406.986440
 20
2935.305461
 40
1.500000
 50
90.000000
 51
180.000000
  0
LINE
  8
CSLAYER1
  6
CONTINUOUS
 62
     2
 10
1411.013510
 20
2908.805461
 11
1411.013510
 21
2926.805461
  0
LINE
  8
CSLAYER1
  6
CONTINUOUS
 62
     2
 10
1407.935438
 20
2917.805461
 11
1411.013510
 21
2926.805461
  0
LINE
  8
CSLAYER1
  6
CONTINUOUS
 62
     2
 10
1407.935438
 20
2917.805461
 11
1411.013510
 21
2908.805461
  0
TEXT
  8
CSLAYER1
 62
     2
 10
1412.623520
 20
2932.503389
 40
6.383575
 41
1.255870
  1
DOWN
 50
270.000000
 51
0.000000
  7
EASYDRAW_FONT
 72
     5
 11
1412.623520
 21
2903.107939
  0
ENDBLK
  8
0
  0
ENDSEC
  0
SECTION
  2
ENTITIES
  0
LINE
  8
CSLAYER1
  6
CONTINUOUS
 62
     3
 10
180.707488
 20
3599.850540
 11
180.707488
 21
75.393795
  0
LINE
  8
CSLAYER1
  6
CONTINUOUS
 62
     3
 10
5161.512127
 20
3599.850540
 11
180.707488
 21
3599.850540
  0
LINE
  8
CSLAYER1
  6
CONTINUOUS
 62
     3
 10
5161.512127
 20
75.393795
 11
180.707488
 21
75.393795
  0
LINE
  8
CSLAYER1
  6
CONTINUOUS
 62
     3
 10
5161.512127
 20
75.393795
 11
5161.512127
 21
3599.850540
  0
LINE
  8
CSLAYER1
  6
CONTINUOUS
 62
     5
 10
105.707488
 20
1815.393795
 11
30.707488
 21
1815.393795
  0
LINE
  8
CSLAYER1
  6
CONTINUOUS
 62
     5
 10
3961.512127
 20
735.393795
 11
5161.512127
 21
735.393795
  0
LINE
  8
CSLAYER1
  6
CONTINUOUS
 62
     5
 10
3961.512127
 20
195.393795
 11
5161.512127
 21
195.393795
  0
LINE
  8
CSLAYER1
  6
CONTINUOUS
 62
     5
 10
3961.512127
 20
435.393795
 11
5161.512127
 21
435.393795
  0
LINE
  8
CSLAYER1
  6
CONTINUOUS
 62
     5
 10
3961.512127
 20
525.393795
 11
5161.512127
 21
525.393795
  0
LINE
  8
CSLAYER1
  6
CONTINUOUS
 62
     5
 10
3961.512127
 20
615.393795
 11
5161.512127
 21
615.393795
  0
LINE
  8
CSLAYER1
  6
CONTINUOUS
 62
     5
 10
3961.512127
 20
855.393795
 11
5161.512127
 21
855.393795
  0
LINE
  8
CSLAYER1
  6
CONTINUOUS
 62
     5
 10
3961.512127
 20
975.393795
 11
3961.512127
 21
75.393795
  0
LINE
  8
CSLAYER1
  6
CONTINUOUS
 62
     5
 10
4261.512127
 20
975.393795
 11
4261.512127
 21
615.393795
  0
LINE
  8
CSLAYER1
  6
CONTINUOUS
 62
     5
 10
3961.512127
 20
975.393795
 11
5161.512127
 21
975.393795
  0
LINE
  8
CSLAYER1
  6
CONTINUOUS
 62
     5
 10
4711.512127
 20
615.393795
 11
4711.512127
 21
195.393795
  0
TEXT
  8
CSLAYER1
 62
     3
 10
4291.048678
 20
88.237877
 40
89.070541
 41
1.003345
  1
東正車輌株式会社
 50
0.000000
 51
0.000000
  7
EASYDRAW_FONT
 72
     5
 11
4976.207181
 21
88.237877
  0
LINE
  8
CSLAYER1
  6
CONTINUOUS
 62
     5
 10
4336.512127
 20
525.393795
 11
4336.512127
 21
195.393795
  0
TEXT
  8
CSLAYER1
 62
     5
 10
4006.511719
 20
877.893738
 40
75.000000
 41
1.050000
  1
品　名
 50
0.000000
 51
0.000000
  7
EASYDRAW_FONT
 72
     5
 11
4216.511719
 21
877.893738
  0
TEXT
  8
CSLAYER1
 62
     5
 10
4006.511719
 20
757.893738
 40
75.000000
 41
1.050000
  1
型　式
 50
0.000000
 51
0.000000
  7
EASYDRAW_FONT
 72
     5
 11
4216.511719
 21
757.893738
  0
TEXT
  8
CSLAYER1
 62
     5
 10
3969.011719
 20
637.893799
 40
75.000000
 41
1.036364
  1
図面番号
 50
0.000000
 51
0.000000
  7
EASYDRAW_FONT
 72
     5
 11
4254.011719
 21
637.893799
  0
TEXT
  8
CSLAYER1
 62
     5
 10
4036.511719
 20
532.893799
 40
75.000000
 41
0.827586
  1
平成２８年４月１６日
 50
0.000000
 51
0.000000
  7
EASYDRAW_FONT
 72
     5
 11
4636.511719
 21
532.893799
  0
TEXT
  8
CSLAYER1
 62
     5
 10
4831.511719
 20
532.893799
 40
75.000000
 41
1.050000
  1
Ｂ－４
 50
0.000000
 51
0.000000
  7
EASYDRAW_FONT
 72
     5
 11
5041.511719
 21
532.893799
  0
TEXT
  8
CSLAYER1
 62
     5
 10
4044.011719
 20
442.893799
 40
75.000000
 41
1.050000
  1
検　図
 50
0.000000
 51
0.000000
  7
EASYDRAW_FONT
 72
     5
 11
4254.011719
 21
442.893799
  0
TEXT
  8
CSLAYER1
 62
     5
 10
4419.011719
 20
442.893799
 40
75.000000
 41
1.050000
  1
作　図
 50
0.000000
 51
0.000000
  7
EASYDRAW_FONT
 72
     5
 11
4629.011719
 21
442.893799
  0
TEXT
  8
CSLAYER1
 62
     5
 10
4831.511719
 20
442.893799
 40
75.000000
 41
1.050000
  1
尺　度
 50
0.000000
 51
0.000000
  7
EASYDRAW_FONT
 72
     5
 11
5041.511719
 21
442.893799
  0
TEXT
  8
CSLAYER1
 62
     5
 10
4982.620117
 20
217.121689
 40
75.000000
 41
1.080000
  1
１５
 50
0.000000
 51
0.000000
  7
EASYDRAW_FONT
 72
     5
 11
5117.620117
 21
217.121689
  0
TEXT
  8
CSLAYER1
 62
     5
 10
4952.140625
 20
288.678741
 40
75.000000
 41
1.200000
  1
／
 50
0.000000
 51
0.000000
  7
EASYDRAW_FONT
 72
     5
 11
5012.140625
 21
288.678741
  0
TEXT
  8
CSLAYER1
 62
     5
 10
4906.821289
 20
341.153900
 40
75.000000
 41
1.200000
  1
１
 50
0.000000
 51
0.000000
  7
EASYDRAW_FONT
 72
     5
 11
4966.821289
 21
341.153900
  0
TEXT
  8
CSLAYER1
 62
     3
 10
4471.511719
 20
877.893738
 40
75.000000
 41
0.834783
  1
ゴールドリフター
 50
0.000000
 51
0.000000
  7
EASYDRAW_FONT
 72
     5
 11
4951.511719
 21
877.893738
  0
TEXT
  8
CSLAYER1
 62
     3
 10
4321.511719
 20
757.893738
 40
75.000000
 41
0.821053
  1
ＧＬＩ－５００－０６１０Ｗ
 50
0.000000
 51
0.000000
  7
EASYDRAW_FONT
 72
     5
 11
5101.511719
 21
757.893738
  0
TEXT
  8
CSLAYER1
 62
     3
 10
4561.511719
 20
637.893799
 40
75.000000
 41
0.857143
  1
ＧＩ－４１
 50
0.000000
 51
0.000000
  7
EASYDRAW_FONT
 72
     5
 11
4861.511719
 21
637.893799
  0
INSERT
  8
CSLAYER1
  2
BLKF0000
 10
0.0
 20
0.0
 30
0.0
  0
TEXT
  8
CSLAYER1
 62
     5
 10
3356.122314
 20
534.421875
 40
60.000000
 41
1.050000
  1
Ｆ.Ｌ
 50
360.000000
 51
0.000000
  7
EASYDRAW_FONT
 72
     5
 11
3524.122314
 21
534.421875
  0
TEXT
  8
CSLAYER1
 62
     5
 10
2559.583984
 20
1046.461426
 40
60.000000
 41
1.017391
  1
ギヤードモーター
 50
360.000000
 51
0.000000
  7
EASYDRAW_FONT
 72
     5
 11
3027.583984
 21
1046.461426
  0
LINE
  8
CSLAYER1
  6
CONTINUOUS
 62
     3
 10
1017.066683
 20
591.251074
 11
517.066683
 21
591.251074
  0
LINE
  8
CSLAYER1
  6
CENTER
 62
     5
 10
767.066683
 20
2209.286577
 11
767.066683
 21
490.544578
  0
LINE
  8
CSLAYER1
  6
CONTINUOUS
 62
     3
 10
947.066683
 20
2104.607557
 11
947.066683
 21
591.251074
  0
LINE
  8
CSLAYER1
  6
CONTINUOUS
 62
     3
 10
959.066683
 20
2104.607557
 11
959.066683
 21
591.251074
  0
LINE
  8
CSLAYER1
  6
CONTINUOUS
 62
     3
 10
937.066683
 20
2104.607557
 11
937.066683
 21
591.251074
  0
LINE
  8
CSLAYER1
  6
CONTINUOUS
 62
     3
 10
925.066683
 20
2104.607557
 11
925.066683
 21
591.251074
  0
LINE
  8
CSLAYER1
  6
CONTINUOUS
 62
     3
 10
1017.066683
 20
591.251074
 11
1017.066683
 21
526.251074
  0
LINE
  8
CSLAYER1
  6
CENTER
 62
     5
 10
982.635649
 20
1736.118436
 11
537.535887
 21
1736.118436
  0
LINE
  8
CSLAYER1
  6
CENTER
 62
     5
 10
925.066683
 20
1412.544452
 11
609.066683
 21
1412.544452
  0
LINE
  8
CSLAYER1
  6
CENTER
 62
     5
 10
987.416210
 20
1341.829315
 11
543.041564
 21
1341.829315
  0
LINE
  8
CSLAYER1
  6
CONTINUOUS
 62
     3
 10
925.066683
 20
1354.329315
 11
609.066683
 21
1354.329315
  0
LINE
  8
CSLAYER1
  6
CONTINUOUS
 62
     3
 10
925.066683
 20
1329.329315
 11
609.066683
 21
1329.329315
  0
LINE
  8
CSLAYER1
  6
CONTINUOUS
 62
     3
 10
937.066683
 20
1358.829315
 11
947.066683
 21
1358.829315
  0
LINE
  8
CSLAYER1
  6
CONTINUOUS
 62
     3
 10
937.066683
 20
1324.829315
 11
947.066683
 21
1324.829315
  0
LINE
  8
CSLAYER1
  6
CONTINUOUS
 62
     3
 10
959.066683
 20
1361.829315
 11
969.066683
 21
1361.829315
  0
LINE
  8
CSLAYER1
  6
CONTINUOUS
 62
     3
 10
959.066683
 20
1321.829315
 11
969.066683
 21
1321.829315
  0
LINE
  8
CSLAYER1
  6
CONTINUOUS
 62
     3
 10
969.066683
 20
1361.829315
 11
969.066683
 21
1321.829315
  0
LINE
  8
CSLAYER1
  6
CONTINUOUS
 62
     3
 10
925.066683
 20
1374.394452
 11
609.066683
 21
1374.394452
  0
LINE
  8
CSLAYER1
  6
CONTINUOUS
 62
     3
 10
925.066683
 20
1748.618436
 11
609.066683
 21
1748.618436
  0
LINE
  8
CSLAYER1
  6
CONTINUOUS
 62
     3
 10
925.066683
 20
1723.618436
 11
609.066683
 21
1723.618436
  0
LINE
  8
CSLAYER1
  6
CONTINUOUS
 62
     3
 10
925.066683
 20
1810.178339
 11
609.066683
 21
1810.178339
  0
LINE
  8
CSLAYER1
  6
CONTINUOUS
 62
     3
 10
937.066683
 20
1753.118436
 11
947.066683
 21
1753.118436
  0
LINE
  8
CSLAYER1
  6
CONTINUOUS
 62
     3
 10
959.066683
 20
1756.118436
 11
969.066683
 21
1756.118436
  0
LINE
  8
CSLAYER1
  6
CONTINUOUS
 62
     3
 10
959.066683
 20
1716.118436
 11
969.066683
 21
1716.118436
  0
LINE
  8
CSLAYER1
  6
CONTINUOUS
 62
     3
 10
969.066683
 20
1756.118436
 11
969.066683
 21
1716.118436
  0
LINE
  8
CSLAYER1
  6
CONTINUOUS
 62
     3
 10
937.066683
 20
1719.118436
 11
947.066683
 21
1719.118436
  0
LINE
  8
CSLAYER1
  6
CONTINUOUS
 62
     3
 10
803.066683
 20
1450.694452
 11
731.066683
 21
1450.694452
  0
LINE
  8
CSLAYER1
  6
CENTER
 62
     5
 10
987.204681
 20
947.540195
 11
532.947823
 21
947.540195
  0
LINE
  8
CSLAYER1
  6
CONTINUOUS
 62
     3
 10
925.066683
 20
960.040195
 11
609.066683
 21
960.040195
  0
LINE
  8
CSLAYER1
  6
CONTINUOUS
 62
     3
 10
937.066683
 20
964.540195
 11
947.066683
 21
964.540195
  0
LINE
  8
CSLAYER1
  6
CONTINUOUS
 62
     3
 10
959.066683
 20
967.540195
 11
969.066683
 21
967.540195
  0
LINE
  8
CSLAYER1
  6
CONTINUOUS
 62
     3
 10
959.066683
 20
927.540195
 11
969.066683
 21
927.540195
  0
LINE
  8
CSLAYER1
  6
CONTINUOUS
 62
     3
 10
969.066683
 20
967.540195
 11
969.066683
 21
927.540195
  0
LINE
  8
CSLAYER1
  6
CONTINUOUS
 62
     3
 10
937.066683
 20
930.540195
 11
947.066683
 21
930.540195
  0
LINE
  8
CSLAYER1
  6
CONTINUOUS
 62
     3
 10
587.066683
 20
2104.607557
 11
587.066683
 21
591.251074
  0
LINE
  8
CSLAYER1
  6
CONTINUOUS
 62
     3
 10
575.066683
 20
2104.607557
 11
575.066683
 21
591.251074
  0
LINE
  8
CSLAYER1
  6
CONTINUOUS
 62
     3
 10
597.066683
 20
2104.607557
 11
597.066683
 21
591.251074
  0
LINE
  8
CSLAYER1
  6
CONTINUOUS
 62
     3
 10
467.066683
 20
2104.607557
 11
1067.066683
 21
2104.607557
  0
LINE
  8
CSLAYER1
  6
CONTINUOUS
 62
     3
 10
467.066683
 20
2157.607557
 11
1067.066683
 21
2157.607557
  0
LINE
  8
CSLAYER1
  6
CONTINUOUS
 62
     3
 10
597.066683
 20
1358.829315
 11
587.066683
 21
1358.829315
  0
LINE
  8
CSLAYER1
  6
CONTINUOUS
 62
     3
 10
597.066683
 20
1324.829315
 11
587.066683
 21
1324.829315
  0
LINE
  8
CSLAYER1
  6
CONTINUOUS
 62
     3
 10
575.066683
 20
1361.829315
 11
565.066683
 21
1361.829315
  0
LINE
  8
CSLAYER1
  6
CONTINUOUS
 62
     3
 10
575.066683
 20
1321.829315
 11
565.066683
 21
1321.829315
  0
LINE
  8
CSLAYER1
  6
CONTINUOUS
 62
     3
 10
565.066683
 20
1361.829315
 11
565.066683
 21
1321.829315
  0
LINE
  8
CSLAYER1
  6
CONTINUOUS
 62
     3
 10
597.066683
 20
1753.118436
 11
587.066683
 21
1753.118436
  0
LINE
  8
CSLAYER1
  6
CONTINUOUS
 62
     3
 10
575.066683
 20
1756.118436
 11
565.066683
 21
1756.118436
  0
LINE
  8
CSLAYER1
  6
CONTINUOUS
 62
     3
 10
575.066683
 20
1716.118436
 11
565.066683
 21
1716.118436
  0
LINE
  8
CSLAYER1
  6
CONTINUOUS
 62
     3
 10
565.066683
 20
1756.118436
 11
565.066683
 21
1716.118436
  0
LINE
  8
CSLAYER1
  6
CONTINUOUS
 62
     3
 10
597.066683
 20
1719.118436
 11
587.066683
 21
1719.118436
  0
LINE
  8
CSLAYER1
  6
CONTINUOUS
 62
     3
 10
597.066683
 20
964.540195
 11
587.066683
 21
964.540195
  0
LINE
  8
CSLAYER1
  6
CONTINUOUS
 62
     3
 10
575.066683
 20
967.540195
 11
565.066683
 21
967.540195
  0
LINE
  8
CSLAYER1
  6
CONTINUOUS
 62
     3
 10
575.066683
 20
927.540195
 11
565.066683
 21
927.540195
  0
LINE
  8
CSLAYER1
  6
CONTINUOUS
 62
     4
 10
565.066683
 20
967.540195
 11
565.066683
 21
927.540195
  0
LINE
  8
CSLAYER1
  6
CONTINUOUS
 62
     3
 10
597.066683
 20
930.540195
 11
587.066683
 21
930.540195
  0
LINE
  8
CSLAYER1
  6
CONTINUOUS
 62
     3
 10
517.066683
 20
591.251074
 11
517.066683
 21
526.251074
  0
LINE
  8
CSLAYER1
  6
CONTINUOUS
 62
     3
 10
2309.896345
 20
788.572136
 11
2301.467113
 21
781.504743
  0
LINE
  8
CSLAYER1
  6
CONTINUOUS
 62
     3
 10
2232.797515
 20
880.527399
 11
2225.134577
 21
874.102497
  0
LINE
  8
CSLAYER1
  6
CONTINUOUS
 62
     3
 10
2225.134577
 20
874.102497
 11
2259.172503
 21
791.868565
  0
ARC
  8
CSLAYER1
  6
CONTINUOUS
 62
     3
 10
2284.119876
 20
802.194677
 40
27.000000
 50
202.485438
 51
309.977763
  0
LINE
  8
CSLAYER1
  6
CONTINUOUS
 62
     2
 10
2232.797515
 20
880.527399
 11
2309.896345
 21
788.572136
  0
CIRCLE
  8
CSLAYER1
  6
CONTINUOUS
 62
     4
 10
2230.115689
 20
947.540195
 40
12.500000
  0
LINE
  8
CSLAYER1
  6
CENTER
 62
     5
 10
609.066683
 20
1779.928339
 11
925.066683
 21
1779.928339
  0
LINE
  8
CSLAYER1
  6
CONTINUOUS
 62
     3
 10
925.066683
 20
1749.678339
 11
609.066683
 21
1749.678339
  0
LINE
  8
CSLAYER1
  6
CONTINUOUS
 62
     3
 10
609.066683
 20
941.945729
 11
925.066683
 21
941.945729
  0
LINE
  8
CSLAYER1
  6
CONTINUOUS
 62
     3
 10
609.066683
 20
881.445729
 11
925.066683
 21
881.445729
  0
LINE
  8
CSLAYER1
  6
CENTER
 62
     5
 10
602.710303
 20
911.695729
 11
931.579852
 21
911.695729
  0
LINE
  8
CSLAYER1
  6
CENTER
 62
     5
 10
602.710303
 20
818.636725
 11
931.344313
 21
818.636725
  0
LINE
  8
CSLAYER1
  6
CONTINUOUS
 62
     4
 10
587.066683
 20
848.886725
 11
597.066683
 21
848.886725
  0
LINE
  8
CSLAYER1
  6
CONTINUOUS
 62
     4
 10
587.066683
 20
788.386725
 11
597.066683
 21
788.386725
  0
LINE
  8
CSLAYER1
  6
CONTINUOUS
 62
     3
 10
609.066683
 20
856.786725
 11
925.066683
 21
856.786725
  0
LINE
  8
CSLAYER1
  6
CONTINUOUS
 62
     3
 10
609.066683
 20
780.486725
 11
925.066683
 21
780.486725
  0
LINE
  8
CSLAYER1
  6
CONTINUOUS
 62
     4
 10
937.066683
 20
848.886725
 11
947.066683
 21
848.886725
  0
LINE
  8
CSLAYER1
  6
CONTINUOUS
 62
     4
 10
937.066683
 20
788.386725
 11
947.066683
 21
788.386725
  0
ARC
  8
CSLAYER1
  6
CONTINUOUS
 62
     3
 10
1962.559100
 20
1529.164343
 40
30.000000
 50
-2.174713
 51
172.935262
  0
LINE
  8
CSLAYER1
  6
CONTINUOUS
 62
     3
 10
1920.510016
 20
1433.792619
 11
1932.786865
 21
1532.854065
  0
LINE
  8
CSLAYER1
  6
CONTINUOUS
 62
     3
 10
1992.082012
 20
1516.031446
 11
1992.537492
 21
1528.025940
  0
LINE
  8
CSLAYER1
  6
CONTINUOUS
 62
     3
 10
2335.505893
 20
898.107746
 11
2360.456640
 21
916.764261
  0
LINE
  8
CSLAYER1
  6
CONTINUOUS
 62
     3
 10
2375.709099
 20
850.157648
 11
2398.369585
 21
870.330901
  0
ARC
  8
CSLAYER1
  6
CONTINUOUS
 62
     3
 10
2378.421773
 20
892.738150
 40
30.000000
 50
-48.323270
 51
126.786704
  0
LINE
  8
CSLAYER1
  6
CONTINUOUS
 62
     3
 10
803.066683
 20
1549.164343
 11
803.066683
 21
1428.025984
  0
LINE
  8
CSLAYER1
  6
CONTINUOUS
 62
     3
 10
803.066683
 20
1549.164343
 11
819.066683
 21
1549.164343
  0
LINE
  8
CSLAYER1
  6
CONTINUOUS
 62
     3
 10
788.066683
 20
1546.664343
 11
788.066683
 21
1511.664343
  0
LINE
  8
CSLAYER1
  6
CONTINUOUS
 62
     4
 10
803.066683
 20
1428.025984
 11
819.066683
 21
1428.025984
  0
LINE
  8
CSLAYER1
  6
CONTINUOUS
 62
     3
 10
788.066683
 20
1546.664343
 11
803.066683
 21
1546.664343
  0
LINE
  8
CSLAYER1
  6
CONTINUOUS
 62
     3
 10
746.066683
 20
1546.664343
 11
746.066683
 21
1511.664343
  0
LINE
  8
CSLAYER1
  6
CONTINUOUS
 62
     3
 10
746.066683
 20
1546.664343
 11
731.066683
 21
1546.664343
  0
LINE
  8
CSLAYER1
  6
CONTINUOUS
 62
     3
 10
819.066683
 20
1549.164343
 11
819.066683
 21
1428.025984
  0
LINE
  8
CSLAYER1
  6
CONTINUOUS
 62
     3
 10
731.066683
 20
1549.164343
 11
731.066683
 21
1428.025984
  0
LINE
  8
CSLAYER1
  6
CONTINUOUS
 62
     3
 10
731.066683
 20
1549.164343
 11
715.066683
 21
1549.164343
  0
LINE
  8
CSLAYER1
  6
CONTINUOUS
 62
     3
 10
731.066683
 20
1428.025984
 11
715.066683
 21
1428.025984
  0
LINE
  8
CSLAYER1
  6
CONTINUOUS
 62
     3
 10
715.066683
 20
1549.164343
 11
715.066683
 21
1428.025984
  0
LINE
  8
CSLAYER1
  6
CONTINUOUS
 62
     3
 10
787.066683
 20
1559.938671
 11
787.066683
 21
1495.892640
  0
LINE
  8
CSLAYER1
  6
CONTINUOUS
 62
     3
 10
787.066683
 20
1559.938671
 11
747.066683
 21
1559.938671
  0
LINE
  8
CSLAYER1
  6
CONTINUOUS
 62
     3
 10
797.316683
 20
1506.333581
 11
797.316683
 21
1450.694452
  0
LINE
  8
CSLAYER1
  6
CONTINUOUS
 62
     3
 10
747.066683
 20
1559.938671
 11
747.066683
 21
1495.892640
  0
LINE
  8
CSLAYER1
  6
CONTINUOUS
 62
     3
 10
736.816683
 20
1508.236155
 11
736.816683
 21
1450.694452
  0
LINE
  8
CSLAYER1
  6
CONTINUOUS
 62
     5
 10
698.827604
 20
1529.164343
 11
842.185201
 21
1529.164343
  0
LINE
  8
CSLAYER1
  6
CONTINUOUS
 62
     3
 10
715.066683
 20
1450.694452
 11
609.066683
 21
1450.694452
  0
LINE
  8
CSLAYER1
  6
CONTINUOUS
 62
     3
 10
819.066683
 20
1450.694452
 11
925.066683
 21
1450.694452
  0
LINE
  8
CSLAYER1
  6
CENTER
 62
     5
 10
2905.792202
 20
553.251074
 11
1930.848101
 21
725.251074
  0
LINE
  8
CSLAYER1
  6
CENTER
 62
     5
 10
1930.848101
 20
897.251074
 11
2905.792202
 21
725.251074
  0
LINE
  8
CSLAYER1
  6
CENTER
 62
     5
 10
2905.792202
 20
725.251074
 11
1930.848101
 21
553.251074
  0
LINE
  8
CSLAYER1
  6
CENTER
 62
     5
 10
1930.848101
 20
725.251074
 11
2905.792202
 21
897.251074
  0
POINT
  8
CSLAYER1
 62
     5
 10
2905.792202
 20
725.251074
  0
LINE
  8
CSLAYER1
  6
CONTINUOUS
 62
     2
 10
2128.414977
 20
872.781838
 11
2129.655628
 21
873.460651
  0
LINE
  8
CSLAYER1
  6
CONTINUOUS
 62
     2
 10
2124.608531
 20
859.777474
 11
2077.341749
 21
873.612714
  0
LINE
  8
CSLAYER1
  6
CONTINUOUS
 62
     2
 10
2077.341749
 20
873.612714
 11
2062.453947
 21
865.466958
  0
LINE
  8
CSLAYER1
  6
CONTINUOUS
 62
     3
 10
1896.648101
 20
2157.607557
 11
2946.648101
 21
2157.607557
  0
LINE
  8
CSLAYER1
  6
CONTINUOUS
 62
     3
 10
1896.648101
 20
2157.607557
 11
1896.648101
 21
2104.607557
  0
LINE
  8
CSLAYER1
  6
CONTINUOUS
 62
     3
 10
1896.648101
 20
2104.607557
 11
2946.648101
 21
2104.607557
  0
LINE
  8
CSLAYER1
  6
CONTINUOUS
 62
     3
 10
2946.648101
 20
2157.607557
 11
2946.648101
 21
2104.607557
  0
ARC
  8
CSLAYER1
  6
CONTINUOUS
 62
     3
 10
2529.383276
 20
1341.829315
 40
25.000000
 50
-142.801304
 51
9.977763
  0
LINE
  8
CSLAYER1
  6
CONTINUOUS
 62
     3
 10
1934.300261
 20
2012.669788
 11
2510.225930
 21
1325.767059
  0
LINE
  8
CSLAYER1
  6
CONTINUOUS
 62
     3
 10
2538.983216
 20
1431.548382
 11
1974.664514
 21
2104.607557
  0
LINE
  8
CSLAYER1
  6
CONTINUOUS
 62
     3
 10
1918.125940
 20
2104.607557
 11
1934.300261
 21
2012.669788
  0
LINE
  8
CSLAYER1
  6
CONTINUOUS
 62
     3
 10
2554.005153
 20
1346.160964
 11
2539.269671
 21
1429.920120
  0
ARC
  8
CSLAYER1
  6
CONTINUOUS
 62
     4
 10
1930.848101
 20
1341.829315
 40
25.000000
 50
170.022237
 51
189.977763
  0
LINE
  8
CSLAYER1
  6
CONTINUOUS
 62
     3
 10
2525.931117
 20
2012.669788
 11
2288.839896
 21
1729.892661
  0
LINE
  8
CSLAYER1
  6
CONTINUOUS
 62
     3
 10
1921.248161
 20
1431.548382
 11
2171.391481
 21
1729.892661
  0
LINE
  8
CSLAYER1
  6
CONTINUOUS
 62
     3
 10
2542.105437
 20
2104.607557
 11
2525.931117
 21
2012.669788
  0
LINE
  8
CSLAYER1
  6
CONTINUOUS
 62
     3
 10
1906.226224
 20
1346.160964
 11
1921.248161
 21
1431.548382
  0
LINE
  8
CSLAYER1
  6
CONTINUOUS
 62
     2
 10
2286.101546
 20
887.982952
 11
2285.322081
 21
886.679914
  0
LINE
  8
CSLAYER1
  6
CENTER
 62
     5
 10
2529.383276
 20
553.251074
 11
1930.848101
 21
1341.829315
  0
LINE
  8
CSLAYER1
  6
CENTER
 62
     5
 10
1930.848101
 20
1341.829315
 11
2529.383276
 21
2130.407557
  0
LINE
  8
CSLAYER1
  6
CENTER
 62
     5
 10
2529.383276
 20
1341.829315
 11
1930.848101
 21
2130.407557
  0
LINE
  8
CSLAYER1
  6
CENTER
 62
     5
 10
1930.848101
 20
553.251074
 11
2529.383276
 21
1341.829315
  0
LINE
  8
CSLAYER1
  6
CONTINUOUS
 62
     4
 10
2148.082960
 20
1300.086933
 11
2051.895224
 21
1447.290321
  0
LINE
  8
CSLAYER1
  6
CONTINUOUS
 62
     4
 10
2097.855309
 20
1267.266466
 11
2011.614334
 21
1399.247571
  0
LINE
  8
CSLAYER1
  6
CONTINUOUS
 62
     4
 10
2000.453290
 20
1526.015814
 11
1980.561824
 21
1556.457235
  0
LINE
  8
CSLAYER1
  6
CONTINUOUS
 62
     3
 10
1931.435643
 20
1521.951104
 11
1930.334173
 21
1523.636767
  0
LINE
  8
CSLAYER1
  6
CONTINUOUS
 62
     3
 10
1963.952200
 20
1559.938671
 11
1962.766094
 21
1559.163629
  0
LINE
  8
CSLAYER1
  6
CONTINUOUS
 62
     4
 10
1980.561824
 20
1556.457235
 11
1963.952200
 21
1559.938671
  0
LINE
  8
CSLAYER1
  6
CONTINUOUS
 62
     4
 10
1930.334173
 20
1523.636767
 11
1933.815609
 21
1540.246391
  0
LINE
  8
CSLAYER1
  6
CENTER
 62
     5
 10
2500.631779
 20
722.931075
 11
2492.746401
 21
717.778499
  0
LINE
  8
CSLAYER1
  6
CONTINUOUS
 62
     2
 10
2499.424706
 20
771.119339
 11
2493.120140
 21
766.999720
  0
LINE
  8
CSLAYER1
  6
CONTINUOUS
 62
     2
 10
2484.861024
 20
712.625923
 11
2492.746401
 21
717.778499
  0
LINE
  8
CSLAYER1
  6
CONTINUOUS
 62
     2
 10
2273.679081
 20
1143.243512
 11
2263.804831
 21
1136.791339
  0
LINE
  8
CSLAYER1
  6
CONTINUOUS
 62
     2
 10
2443.770434
 20
876.754426
 11
2401.965171
 21
940.732191
  0
LINE
  8
CSLAYER1
  6
CONTINUOUS
 62
     4
 10
2159.426038
 20
1307.498889
 11
2086.512231
 21
1259.854510
  0
LINE
  8
CSLAYER1
  6
CONTINUOUS
 62
     4
 10
2268.347051
 20
1148.121309
 11
2276.005161
 21
1136.401524
  0
LINE
  8
CSLAYER1
  6
CONTINUOUS
 62
     4
 10
2268.347051
 20
1148.121309
 11
2265.562165
 21
1146.898850
  0
LINE
  8
CSLAYER1
  6
CONTINUOUS
 62
     4
 10
2276.005161
 20
1136.401524
 11
2273.767282
 21
1134.341937
  0
LINE
  8
CSLAYER1
  6
CONTINUOUS
 62
     2
 10
2273.767282
 20
1134.341937
 11
2265.562165
 21
1146.898850
  0
LINE
  8
CSLAYER1
  6
CONTINUOUS
 62
     4
 10
2442.515043
 20
895.198371
 11
2435.403942
 21
906.081028
  0
LINE
  8
CSLAYER1
  6
CONTINUOUS
 62
     2
 10
2588.408931
 20
684.722781
 11
2536.507025
 21
650.808298
  0
LINE
  8
CSLAYER1
  6
CONTINUOUS
 62
     2
 10
2557.229487
 20
732.439050
 11
2532.115661
 21
716.028816
  0
LINE
  8
CSLAYER1
  6
CONTINUOUS
 62
     2
 10
2480.615164
 20
846.031504
 11
2415.075478
 21
803.205628
  0
LINE
  8
CSLAYER1
  6
CONTINUOUS
 62
     4
 10
2441.682399
 20
910.183587
 11
2408.080669
 21
888.227066
  0
LINE
  8
CSLAYER1
  6
CONTINUOUS
 62
     4
 10
2588.408931
 20
684.722781
 11
2557.229487
 21
732.439050
  0
LINE
  8
CSLAYER1
  6
CONTINUOUS
 62
     4
 10
2555.555232
 20
731.345034
 11
2476.239102
 21
852.728524
  0
LINE
  8
CSLAYER1
  6
CONTINUOUS
 62
     4
 10
2468.481298
 20
853.632114
 11
2441.677916
 21
894.651363
  0
LINE
  8
CSLAYER1
  6
CONTINUOUS
 62
     4
 10
2588.408931
 20
684.722781
 11
2577.716698
 21
668.179621
  0
LINE
  8
CSLAYER1
  6
CONTINUOUS
 62
     2
 10
2488.305190
 20
777.590920
 11
2454.869862
 21
755.743131
  0
LINE
  8
CSLAYER1
  6
CONTINUOUS
 62
     2
 10
2532.886325
 20
709.365027
 11
2508.609627
 21
693.501801
  0
LINE
  8
CSLAYER1
  6
CONTINUOUS
 62
     2
 10
2533.756684
 20
713.517433
 11
2457.175594
 21
830.715285
  0
LINE
  8
CSLAYER1
  6
CONTINUOUS
 62
     4
 10
2531.713685
 20
638.119677
 11
2577.716698
 21
668.179621
  0
LINE
  8
CSLAYER1
  6
CONTINUOUS
 62
     4
 10
2530.205785
 20
646.690852
 11
2536.507025
 21
650.808298
  0
ARC
  8
CSLAYER1
  6
CONTINUOUS
 62
     2
 10
2531.245302
 20
711.876410
 40
3.000000
 50
-56.838024
 51
33.161976
  0
ARC
  8
CSLAYER1
  6
CONTINUOUS
 62
     2
 10
2489.946214
 20
775.079537
 40
3.000000
 50
33.161976
 51
123.161976
  0
LINE
  8
CSLAYER1
  6
CONTINUOUS
 62
     4
 10
2401.767105
 20
938.454099
 11
2346.682422
 21
1022.754367
  0
LINE
  8
CSLAYER1
  6
CONTINUOUS
 62
     2
 10
2442.515043
 20
895.198371
 11
2396.473030
 21
865.112942
  0
LINE
  8
CSLAYER1
  6
CONTINUOUS
 62
     2
 10
2460.276181
 20
866.189027
 11
2396.957710
 21
824.814570
  0
LINE
  8
CSLAYER1
  6
CONTINUOUS
 62
     4
 10
2235.423367
 20
1030.136376
 11
2086.222111
 21
1258.470375
  0
LINE
  8
CSLAYER1
  6
CONTINUOUS
 62
     4
 10
2381.568058
 20
855.373522
 11
2396.473030
 21
865.112942
  0
LINE
  8
CSLAYER1
  6
CONTINUOUS
 62
     2
 10
2473.470831
 20
853.308763
 11
2408.604847
 21
810.923107
  0
ARC
  8
CSLAYER1
  6
CONTINUOUS
 62
     4
 10
2470.992680
 20
855.273138
 40
3.000000
 50
213.161976
 51
303.161976
  0
LINE
  8
CSLAYER1
  6
CONTINUOUS
 62
     2
 10
2478.259660
 20
771.026826
 11
2444.618681
 21
822.510169
  0
LINE
  8
CSLAYER1
  6
CONTINUOUS
 62
     2
 10
2484.956680
 20
775.402889
 11
2451.315701
 21
826.886231
  0
LINE
  8
CSLAYER1
  6
CONTINUOUS
 62
     2
 10
2548.858211
 20
726.968972
 11
2473.918144
 21
841.655441
  0
LINE
  8
CSLAYER1
  6
CONTINUOUS
 62
     2
 10
2550.532466
 20
728.062987
 11
2475.592399
 21
842.749457
  0
LINE
  8
CSLAYER1
  6
CONTINUOUS
 62
     2
 10
2422.065502
 20
794.868674
 11
2416.156345
 21
803.911904
  0
ARC
  8
CSLAYER1
  6
CONTINUOUS
 62
     4
 10
2474.564847
 20
851.634508
 40
2.000000
 50
33.161976
 51
123.161976
  0
LINE
  8
CSLAYER1
  6
CONTINUOUS
 62
     4
 10
2419.802087
 20
943.668687
 11
2386.200357
 21
921.712166
  0
LINE
  8
CSLAYER1
  6
CONTINUOUS
 62
     2
 10
2412.240728
 20
938.727836
 11
2399.674517
 21
930.516644
  0
LINE
  8
CSLAYER1
  6
CONTINUOUS
 62
     2
 10
2408.390408
 20
942.781992
 11
2397.507751
 21
935.670891
  0
LINE
  8
CSLAYER1
  6
CONTINUOUS
 62
     2
 10
2409.549754
 20
942.846038
 11
2412.240728
 21
938.727836
  0
LINE
  8
CSLAYER1
  6
CONTINUOUS
 62
     2
 10
2406.408201
 20
940.793240
 11
2409.099175
 21
936.675038
  0
LINE
  8
CSLAYER1
  6
CONTINUOUS
 62
     2
 10
2408.390408
 20
942.781992
 11
2409.549754
 21
942.846038
  0
ARC
  8
CSLAYER1
  6
CONTINUOUS
 62
     2
 10
2409.436712
 20
939.588758
 40
3.259241
 50
97.596078
 51
158.533594
  0
ARC
  8
CSLAYER1
  6
CONTINUOUS
 62
     2
 10
2409.742612
 20
928.829783
 40
12.419443
 50
105.574022
 51
140.749930
  0
LINE
  8
CSLAYER1
  6
CONTINUOUS
 62
     4
 10
2441.682399
 20
910.183587
 11
2419.802087
 21
943.668687
  0
LINE
  8
CSLAYER1
  6
CONTINUOUS
 62
     3
 10
2159.426038
 20
1307.498889
 11
2160.810173
 21
1307.208769
  0
LINE
  8
CSLAYER1
  6
CONTINUOUS
 62
     3
 10
2086.512231
 20
1259.854510
 11
2086.222111
 21
1258.470375
  0
LINE
  8
CSLAYER1
  6
CONTINUOUS
 62
     4
 10
2396.983543
 20
934.634845
 11
2399.674517
 21
930.516644
  0
LINE
  8
CSLAYER1
  6
CONTINUOUS
 62
     2
 10
2400.125096
 20
936.687643
 11
2402.816070
 21
932.569442
  0
LINE
  8
CSLAYER1
  6
CONTINUOUS
 62
     2
 10
2397.507751
 20
935.670891
 11
2396.983543
 21
934.634845
  0
ARC
  8
CSLAYER1
  6
CONTINUOUS
 62
     2
 10
2400.012054
 20
933.430363
 40
3.259241
 50
87.790358
 51
148.727875
  0
LINE
  8
CSLAYER1
  6
CONTINUOUS
 62
     2
 10
2160.810173
 20
1307.208769
 11
2086.222111
 21
1258.470375
  0
LINE
  8
CSLAYER1
  6
CENTER
 62
     5
 10
2546.265553
 20
635.874082
 11
1962.559100
 21
1529.164343
  0
ARC
  8
CSLAYER1
  6
CONTINUOUS
 62
     3
 10
1930.848101
 20
1341.829315
 40
25.000000
 50
37.198696
 51
189.977763
  0
LINE
  8
CSLAYER1
  6
CONTINUOUS
 62
     3
 10
2525.931117
 20
670.988843
 11
1950.005447
 21
1357.891572
  0
LINE
  8
CSLAYER1
  6
CONTINUOUS
 62
     3
 10
1921.248161
 20
1252.110249
 11
2475.337914
 21
591.251074
  0
LINE
  8
CSLAYER1
  6
CONTINUOUS
 62
     3
 10
2539.959129
 20
591.251074
 11
2525.931117
 21
670.988843
  0
LINE
  8
CSLAYER1
  6
CONTINUOUS
 62
     3
 10
1906.226224
 20
1337.497667
 11
1920.961706
 21
1253.738511
  0
LINE
  8
CSLAYER1
  6
CONTINUOUS
 62
     3
 10
1934.300261
 20
670.988843
 11
2171.391481
 21
953.765970
  0
LINE
  8
CSLAYER1
  6
CONTINUOUS
 62
     3
 10
2538.983216
 20
1252.110249
 11
2288.839896
 21
953.765970
  0
LINE
  8
CSLAYER1
  6
CONTINUOUS
 62
     3
 10
1920.272248
 20
591.251074
 11
1934.300261
 21
670.988843
  0
LINE
  8
CSLAYER1
  6
CONTINUOUS
 62
     3
 10
2554.005153
 20
1337.497667
 11
2539.269671
 21
1253.738511
  0
LINE
  8
CSLAYER1
  6
CONTINUOUS
 62
     3
 10
1896.848101
 20
591.251074
 11
1896.848101
 21
526.251074
  0
LINE
  8
CSLAYER1
  6
CONTINUOUS
 62
     3
 10
2946.848101
 20
591.251074
 11
2946.848101
 21
526.251074
  0
LINE
  8
CSLAYER1
  6
CONTINUOUS
 62
     5
 10
1930.848101
 20
573.251074
 11
1930.848101
 21
533.251074
  0
LINE
  8
CSLAYER1
  6
CONTINUOUS
 62
     3
 10
1896.848101
 20
591.251074
 11
2946.848101
 21
591.251074
  0
LINE
  8
CSLAYER1
  6
CONTINUOUS
 62
     5
 10
1910.848101
 20
553.251074
 11
1950.848101
 21
553.251074
  0
LINE
  8
CSLAYER1
  6
CONTINUOUS
 62
     5
 10
2235.195358
 20
1779.928339
 11
2291.965955
 21
1779.928339
  0
LINE
  8
CSLAYER1
  6
CONTINUOUS
 62
     5
 10
2263.367643
 20
1749.678339
 11
2263.367643
 21
1809.941029
  0
CIRCLE
  8
CSLAYER1
  6
CONTINUOUS
 62
     3
 10
1962.559100
 20
1529.164343
 40
12.500000
  0
LINE
  8
CSLAYER1
  6
PHANTOM
 62
     5
 10
1962.559100
 20
1529.164343
 11
1953.135675
 21
1412.544452
  0
LINE
  8
CSLAYER1
  6
CONTINUOUS
 62
     1
 10
1955.049044
 20
1505.692965
 11
1966.444535
 21
1504.772157
  0
CIRCLE
  8
CSLAYER1
  6
CONTINUOUS
 62
     1
 10
1960.626089
 20
1505.242314
 40
4.000000
  0
ARC
  8
CSLAYER1
  6
CONTINUOUS
 62
     3
 10
1925.472055
 20
1433.177666
 40
5.000000
 50
167.256444
 51
209.168069
  0
LINE
  8
CSLAYER1
  6
CONTINUOUS
 62
     3
 10
1935.001715
 20
1541.021433
 11
1933.815609
 21
1540.246391
  0
POINT
  8
CSLAYER1
 62
     5
 10
2287.879083
 20
818.636725
  0
LINE
  8
CSLAYER1
  6
PHANTOM
 62
     5
 10
2393.899156
 20
905.405060
 11
2264.731183
 21
799.692154
  0
CIRCLE
  8
CSLAYER1
  6
CONTINUOUS
 62
     4
 10
2378.421773
 20
892.738150
 40
16.000000
  0
INSERT
  8
CSLAYER1
  2
BLKF0001
 10
0.0
 20
0.0
 30
0.0
  0
LINE
  8
CSLAYER1
  6
CONTINUOUS
 62
     5
 10
2509.383276
 20
553.251074
 11
2549.383276
 21
553.251074
  0
LINE
  8
CSLAYER1
  6
CONTINUOUS
 62
     5
 10
2529.383276
 20
573.251074
 11
2529.383276
 21
533.251074
  0
LINE
  8
CSLAYER1
  6
CONTINUOUS
 62
     5
 10
2529.383276
 20
2153.173412
 11
2529.383276
 21
2110.527234
  0
LINE
  8
CSLAYER1
  6
CONTINUOUS
 62
     5
 10
2506.962120
 20
2130.407557
 11
2551.903933
 21
2130.407557
  0
LINE
  8
CSLAYER1
  6
CONTINUOUS
 62
     5
 10
1910.640603
 20
2130.407557
 11
1955.980414
 21
2130.407557
  0
LINE
  8
CSLAYER1
  6
CONTINUOUS
 62
     5
 10
1930.848101
 20
2150.497857
 11
1930.848101
 21
2109.632369
  0
LINE
  8
CSLAYER1
  6
CONTINUOUS
 62
     3
 10
2230.115689
 20
1799.932635
 11
2485.566863
 21
2104.607557
  0
LINE
  8
CSLAYER1
  6
CONTINUOUS
 62
     3
 10
2230.115689
 20
1659.852687
 11
1963.472661
 21
1341.829315
  0
LINE
  8
CSLAYER1
  6
CONTINUOUS
 62
     3
 10
2230.115689
 20
1023.805944
 11
2496.758716
 21
1341.829315
  0
LINE
  8
CSLAYER1
  6
CONTINUOUS
 62
     3
 10
2230.115689
 20
883.725996
 11
1984.893463
 21
591.251074
  0
LINE
  8
CSLAYER1
  6
CONTINUOUS
 62
     4
 10
2295.240488
 20
1101.479861
 11
2160.810173
 21
1307.208769
  0
LINE
  8
CSLAYER1
  6
CENTER
 62
     5
 10
2159.723574
 20
911.695729
 11
2245.823231
 21
911.695729
  0
LINE
  8
CSLAYER1
  6
CENTER
 62
     5
 10
2202.909544
 20
953.615341
 11
2202.909544
 21
872.925087
  0
LINE
  8
CSLAYER1
  6
CONTINUOUS
 62
     5
 10
2230.115689
 20
967.589631
 11
2230.115689
 21
924.451074
  0
LINE
  8
CSLAYER1
  6
CONTINUOUS
 62
     5
 10
2211.563682
 20
947.540195
 11
2251.683417
 21
947.540195
  0
LINE
  8
CSLAYER1
  6
CONTINUOUS
 62
     5
 10
2505.417610
 20
1341.829315
 11
2565.710550
 21
1341.829315
  0
LINE
  8
CSLAYER1
  6
CONTINUOUS
 62
     5
 10
2529.383276
 20
1370.186582
 11
2529.383276
 21
1307.687803
  0
LINE
  8
CSLAYER1
  6
CONTINUOUS
 62
     5
 10
1930.848101
 20
1373.188441
 11
1930.848101
 21
1318.106888
  0
LINE
  8
CSLAYER1
  6
CONTINUOUS
 62
     5
 10
1898.880246
 20
1341.829315
 11
1953.712184
 21
1341.829315
  0
LINE
  8
CSLAYER1
  6
CONTINUOUS
 62
     5
 10
2199.708074
 20
1736.118436
 11
2263.457574
 21
1736.118436
  0
LINE
  8
CSLAYER1
  6
CONTINUOUS
 62
     5
 10
2230.115689
 20
1762.913721
 11
2230.115689
 21
1703.358268
  0
CIRCLE
  8
CSLAYER1
  6
CONTINUOUS
 62
     3
 10
2230.115689
 20
1736.118436
 40
12.500000
  0
CIRCLE
  8
CSLAYER1
  6
CONTINUOUS
 62
     3
 10
1930.848101
 20
1341.829315
 40
12.500000
  0
CIRCLE
  8
CSLAYER1
  6
CONTINUOUS
 62
     3
 10
2529.383276
 20
1341.829315
 40
12.500000
  0
CIRCLE
  8
CSLAYER1
  6
CONTINUOUS
 62
     3
 10
2230.115689
 20
947.540195
 40
12.500000
  0
LINE
  8
CSLAYER1
  6
CONTINUOUS
 62
     5
 10
1929.882780
 20
1412.544452
 11
1975.743149
 21
1412.544452
  0
LINE
  8
CSLAYER1
  6
CONTINUOUS
 62
     5
 10
1953.135675
 20
1412.544452
 11
1953.135675
 21
1385.080271
  0
LINE
  8
CSLAYER1
  6
CONTINUOUS
 62
     5
 10
2905.792202
 20
573.251074
 11
2905.792202
 21
533.251074
  0
LINE
  8
CSLAYER1
  6
CONTINUOUS
 62
     5
 10
2885.792202
 20
553.251074
 11
2925.792202
 21
553.251074
  0
LINE
  8
CSLAYER1
  6
CONTINUOUS
 62
     5
 10
2888.792202
 20
897.251074
 11
2922.792202
 21
897.251074
  0
LINE
  8
CSLAYER1
  6
CONTINUOUS
 62
     5
 10
2905.792202
 20
914.251074
 11
2905.792202
 21
880.251074
  0
POINT
  8
CSLAYER1
 62
     5
 10
1930.848101
 20
725.251074
  0
INSERT
  8
CSLAYER1
  2
BLKF0002
 10
0.0
 20
0.0
 30
0.0
  0
LINE
  8
CSLAYER1
  6
CONTINUOUS
 62
     3
 10
2946.648101
 20
3207.805461
 11
2946.648101
 21
2607.805461
  0
LINE
  8
CSLAYER1
  6
CONTINUOUS
 62
     3
 10
1896.648101
 20
3207.805461
 11
1896.648101
 21
2607.805461
  0
DIMENSION
  8
CSLAYER1
 62
     3
  2
*D0000
 10
2946.648101
 20
2279.120926
 11
2421.647949
 21
2294.121094
 13
1896.648101
 23
2157.607557
 14
2946.648101
 24
2157.607557
 70
1
  0
DIMENSION
  8
CSLAYER1
 62
     3
  2
*D0001
 10
3100.659276
 20
924.451074
 11
3085.659180
 21
725.351074
 13
2946.648101
 23
526.251074
 14
2946.648101
 24
924.451074
 50
90.000000
 70
1
  0
DIMENSION
  8
CSLAYER1
 62
     3
  2
*D0002
 10
3100.659276
 20
2157.607557
 11
3085.659180
 21
1541.029297
 13
2931.123403
 23
924.451074
 14
2931.123403
 24
2157.607557
 50
90.000000
 70
1
  0
DIMENSION
  8
CSLAYER1
 62
     3
  2
*D0003
 10
3240.195148
 20
526.251074
 11
3225.195068
 21
1341.929688
 13
3240.195148
 23
2157.607557
 14
3240.195148
 24
526.251074
 50
90.000000
 70
1
  0
LINE
  8
CSLAYER1
  6
CONTINUOUS
 62
     3
 10
3514.151278
 20
526.251074
 11
517.066683
 21
526.251074
  0
LINE
  8
CSLAYER1
  6
CENTER
 62
     5
 10
1896.648101
 20
2907.805461
 11
2980.234297
 21
2907.805461
  0
TEXT
  8
CSLAYER1
 62
     5
 10
854.028198
 20
2500.806152
 40
60.000000
 41
1.020000
  1
ＵＰ・ＤＯＷＮ
 50
0.000000
 51
0.000000
  7
EASYDRAW_FONT
 72
     5
 11
1262.028198
 21
2500.806152
  0
TEXT
  8
CSLAYER1
 62
     5
 10
847.458984
 20
2582.099609
 40
60.000000
 41
1.020000
  1
フットスイッチ
 50
0.000000
 51
0.000000
  7
EASYDRAW_FONT
 72
     5
 11
1255.458984
 21
2582.099609
  0
TEXT
  8
CSLAYER1
 62
     5
 10
997.019531
 20
3276.791016
 40
60.000000
 41
1.028571
  1
電源コード
 50
0.000000
 51
0.000000
  7
EASYDRAW_FONT
 72
     5
 11
1285.019531
 21
3276.791016
  0
TEXT
  8
CSLAYER1
 62
     5
 10
1030.671875
 20
3198.630859
 40
60.000000
 41
1.036364
  1
長サ４ｍ
 50
0.000000
 51
0.000000
  7
EASYDRAW_FONT
 72
     5
 11
1258.671875
 21
3198.630859
  0
INSERT
  8
CSLAYER1
  2
BLKF0003
 10
0.0
 20
0.0
 30
0.0
  0
LINE
  8
CSLAYER1
  6
CONTINUOUS
 62
     5
 10
1353.565334
 20
3069.970734
 11
1302.087239
 21
3268.658116
  0
LINE
  8
CSLAYER1
  6
CONTINUOUS
 62
     5
 10
1353.565334
 20
3069.970734
 11
1331.388902
 21
3109.126907
  0
LINE
  8
CSLAYER1
  6
CONTINUOUS
 62
     5
 10
1353.565334
 20
3069.970734
 11
1353.938067
 21
3114.969190
  0
LINE
  8
CSLAYER1
  6
CONTINUOUS
 62
     5
 10
1367.950907
 20
2800.305461
 11
1274.470373
 21
2572.596467
  0
LINE
  8
CSLAYER1
  6
CONTINUOUS
 62
     5
 10
1367.950907
 20
2800.305461
 11
1362.217855
 21
2755.672154
  0
LINE
  8
CSLAYER1
  6
CONTINUOUS
 62
     5
 10
1367.950907
 20
2800.305461
 11
1340.669285
 21
2764.518409
  0
LINE
  8
CSLAYER1
  6
CONTINUOUS
 62
     5
 10
974.472642
 20
3268.658116
 11
1302.087239
 21
3268.658116
  0
LINE
  8
CSLAYER1
  6
CONTINUOUS
 62
     5
 10
838.781678
 20
2572.596467
 11
1274.470373
 21
2572.596467
  0
TEXT
  8
CSLAYER1
 62
     5
 10
1221.508057
 20
830.030762
 40
60.000000
 41
1.028571
  1
上限・下限
 50
360.000000
 51
0.000000
  7
EASYDRAW_FONT
 72
     5
 11
1509.508057
 21
830.030762
  0
LINE
  8
CSLAYER1
  6
CONTINUOUS
 62
     4
 10
891.066683
 20
591.251074
 11
891.066683
 21
616.912819
  0
LINE
  8
CSLAYER1
  6
CONTINUOUS
 62
     4
 10
896.527501
 20
634.941142
 11
898.566683
 21
634.941142
  0
LINE
  8
CSLAYER1
  6
CONTINUOUS
 62
     4
 10
898.566683
 20
634.941142
 11
898.566683
 21
647.252878
  0
LINE
  8
CSLAYER1
  6
CONTINUOUS
 62
     2
 10
891.066683
 20
603.861849
 11
894.066683
 21
603.861849
  0
LINE
  8
CSLAYER1
  6
CONTINUOUS
 62
     2
 10
891.066683
 20
608.209068
 11
894.066683
 21
608.209068
  0
LINE
  8
CSLAYER1
  6
CONTINUOUS
 62
     4
 10
891.066683
 20
616.912819
 11
895.066683
 21
616.912819
  0
LINE
  8
CSLAYER1
  6
CONTINUOUS
 62
     2
 10
894.066683
 20
591.251074
 11
894.066683
 21
616.912819
  0
LINE
  8
CSLAYER1
  6
CONTINUOUS
 62
     4
 10
910.066683
 20
591.251074
 11
910.066683
 21
616.912819
  0
LINE
  8
CSLAYER1
  6
CONTINUOUS
 62
     2
 10
894.066683
 20
607.626644
 11
910.066683
 21
607.626644
  0
LINE
  8
CSLAYER1
  6
CONTINUOUS
 62
     2
 10
911.066683
 20
601.375681
 11
911.066683
 21
608.975681
  0
LINE
  8
CSLAYER1
  6
CONTINUOUS
 62
     4
 10
911.066683
 20
601.375681
 11
910.066683
 21
601.375681
  0
LINE
  8
CSLAYER1
  6
CONTINUOUS
 62
     4
 10
911.066683
 20
608.975681
 11
910.066683
 21
608.975681
  0
LINE
  8
CSLAYER1
  6
CONTINUOUS
 62
     4
 10
913.666683
 20
603.675681
 11
913.666683
 21
606.675681
  0
LINE
  8
CSLAYER1
  6
CONTINUOUS
 62
     4
 10
911.666683
 20
601.675681
 11
911.066683
 21
601.675681
  0
LINE
  8
CSLAYER1
  6
CONTINUOUS
 62
     4
 10
911.666683
 20
608.675681
 11
911.066683
 21
608.675681
  0
ARC
  8
CSLAYER1
  6
CONTINUOUS
 62
     4
 10
911.666683
 20
603.675681
 40
2.000000
 50
270.000000
 51
360.000000
  0
ARC
  8
CSLAYER1
  6
CONTINUOUS
 62
     4
 10
911.666683
 20
606.675681
 40
2.000000
 50
0.000000
 51
90.000000
  0
LINE
  8
CSLAYER1
  6
CONTINUOUS
 62
     4
 10
909.066683
 20
616.912819
 11
910.066683
 21
616.912819
  0
LINE
  8
CSLAYER1
  6
CONTINUOUS
 62
     2
 10
900.066683
 20
634.941142
 11
900.066683
 21
647.252878
  0
LINE
  8
CSLAYER1
  6
CONTINUOUS
 62
     4
 10
909.066683
 20
622.957003
 11
907.605865
 21
634.941142
  0
LINE
  8
CSLAYER1
  6
CONTINUOUS
 62
     4
 10
895.066683
 20
622.957003
 11
896.527501
 21
634.941142
  0
LINE
  8
CSLAYER1
  6
CONTINUOUS
 62
     4
 10
895.066683
 20
607.626644
 11
895.066683
 21
622.957003
  0
LINE
  8
CSLAYER1
  6
CONTINUOUS
 62
     2
 10
909.066683
 20
607.626644
 11
909.066683
 21
616.912819
  0
LINE
  8
CSLAYER1
  6
CONTINUOUS
 62
     4
 10
905.566683
 20
634.941142
 11
905.566683
 21
647.252878
  0
LINE
  8
CSLAYER1
  6
CONTINUOUS
 62
     4
 10
905.566683
 20
634.941142
 11
907.605865
 21
634.941142
  0
LINE
  8
CSLAYER1
  6
CONTINUOUS
 62
     2
 10
904.066683
 20
634.941142
 11
904.066683
 21
647.252878
  0
LINE
  8
CSLAYER1
  6
CONTINUOUS
 62
     4
 10
898.566683
 20
647.252878
 11
900.066683
 21
647.252878
  0
LINE
  8
CSLAYER1
  6
CONTINUOUS
 62
     2
 10
898.566683
 20
646.744671
 11
900.066683
 21
646.744671
  0
LINE
  8
CSLAYER1
  6
CONTINUOUS
 62
     4
 10
899.320622
 20
663.678448
 11
908.294783
 21
655.900842
  0
LINE
  8
CSLAYER1
  6
CONTINUOUS
 62
     1
 10
1965.997246
 20
630.437388
 11
1979.820328
 21
630.437388
  0
LINE
  8
CSLAYER1
  6
CONTINUOUS
 62
     1
 10
1973.112422
 20
638.136846
 11
1973.112422
 21
623.658359
  0
LINE
  8
CSLAYER1
  6
CENTER
 62
     5
 10
888.685424
 20
630.437388
 11
925.066683
 21
630.437388
  0
LINE
  8
CSLAYER1
  6
CONTINUOUS
 62
     7
 10
898.566683
 20
635.437388
 11
895.066683
 21
635.437388
  0
LINE
  8
CSLAYER1
  6
CONTINUOUS
 62
     7
 10
908.764335
 20
625.437388
 11
925.066683
 21
625.437388
  0
LINE
  8
CSLAYER1
  6
CONTINUOUS
 62
     7
 10
895.066683
 20
635.437388
 11
895.066683
 21
625.437388
  0
LINE
  8
CSLAYER1
  6
CONTINUOUS
 62
     7
 10
905.566683
 20
635.437388
 11
925.066683
 21
635.437388
  0
LINE
  8
CSLAYER1
  6
CONTINUOUS
 62
     4
 10
644.566683
 20
621.551074
 11
644.566683
 21
591.251074
  0
LINE
  8
CSLAYER1
  6
CONTINUOUS
 62
     4
 10
824.566683
 20
621.551074
 11
824.566683
 21
591.251074
  0
LINE
  8
CSLAYER1
  6
CONTINUOUS
 62
     4
 10
643.066683
 20
627.551074
 11
826.066683
 21
627.551074
  0
LINE
  8
CSLAYER1
  6
CONTINUOUS
 62
     4
 10
643.066683
 20
621.551074
 11
643.066683
 21
627.551074
  0
LINE
  8
CSLAYER1
  6
CONTINUOUS
 62
     2
 10
643.066683
 20
621.551074
 11
826.066683
 21
621.551074
  0
LINE
  8
CSLAYER1
  6
CONTINUOUS
 62
     4
 10
826.066683
 20
621.551074
 11
826.066683
 21
627.551074
  0
LINE
  8
CSLAYER1
  6
CONTINUOUS
 62
     2
 10
826.066683
 20
621.551074
 11
826.066683
 21
627.551074
  0
LINE
  8
CSLAYER1
  6
CONTINUOUS
 62
     2
 10
645.566683
 20
627.551074
 11
655.566683
 21
627.551074
  0
LINE
  8
CSLAYER1
  6
CONTINUOUS
 62
     2
 10
815.066683
 20
630.551074
 11
815.066683
 21
628.351074
  0
LINE
  8
CSLAYER1
  6
CONTINUOUS
 62
     2
 10
822.066683
 20
630.551074
 11
822.066683
 21
628.351074
  0
LINE
  8
CSLAYER1
  6
CONTINUOUS
 62
     2
 10
822.066683
 20
629.351074
 11
815.066683
 21
629.351074
  0
LINE
  8
CSLAYER1
  6
CONTINUOUS
 62
     2
 10
820.666683
 20
631.951074
 11
816.466683
 21
631.951074
  0
LINE
  8
CSLAYER1
  6
CONTINUOUS
 62
     2
 10
823.066683
 20
628.351074
 11
823.066683
 21
627.551074
  0
LINE
  8
CSLAYER1
  6
CONTINUOUS
 62
     2
 10
814.066683
 20
628.351074
 11
814.066683
 21
627.551074
  0
LINE
  8
CSLAYER1
  6
CONTINUOUS
 62
     2
 10
823.066683
 20
628.351074
 11
814.066683
 21
628.351074
  0
ARC
  8
CSLAYER1
  6
CONTINUOUS
 62
     2
 10
820.666683
 20
630.551074
 40
1.400000
 50
-0.000000
 51
90.000000
  0
ARC
  8
CSLAYER1
  6
CONTINUOUS
 62
     2
 10
816.466683
 20
630.551074
 40
1.400000
 50
90.000000
 51
180.000000
  0
LINE
  8
CSLAYER1
  6
CONTINUOUS
 62
     2
 10
819.606635
 20
628.351074
 11
817.221433
 21
629.351074
  0
LINE
  8
CSLAYER1
  6
CONTINUOUS
 62
     5
 10
818.566683
 20
633.779423
 11
818.566683
 21
618.581245
  0
LINE
  8
CSLAYER1
  6
CONTINUOUS
 62
     2
 10
647.066683
 20
630.551074
 11
647.066683
 21
628.351074
  0
LINE
  8
CSLAYER1
  6
CONTINUOUS
 62
     2
 10
654.066683
 20
630.551074
 11
654.066683
 21
628.351074
  0
LINE
  8
CSLAYER1
  6
CONTINUOUS
 62
     2
 10
654.066683
 20
629.351074
 11
647.066683
 21
629.351074
  0
LINE
  8
CSLAYER1
  6
CONTINUOUS
 62
     2
 10
652.666683
 20
631.951074
 11
648.466683
 21
631.951074
  0
LINE
  8
CSLAYER1
  6
CONTINUOUS
 62
     2
 10
655.066683
 20
628.351074
 11
655.066683
 21
627.551074
  0
LINE
  8
CSLAYER1
  6
CONTINUOUS
 62
     2
 10
646.066683
 20
628.351074
 11
646.066683
 21
627.551074
  0
LINE
  8
CSLAYER1
  6
CONTINUOUS
 62
     2
 10
655.066683
 20
628.351074
 11
646.066683
 21
628.351074
  0
ARC
  8
CSLAYER1
  6
CONTINUOUS
 62
     2
 10
652.666683
 20
630.551074
 40
1.400000
 50
-0.000000
 51
90.000000
  0
ARC
  8
CSLAYER1
  6
CONTINUOUS
 62
     2
 10
648.466683
 20
630.551074
 40
1.400000
 50
90.000000
 51
180.000000
  0
LINE
  8
CSLAYER1
  6
CONTINUOUS
 62
     2
 10
651.606635
 20
628.351074
 11
649.221433
 21
629.351074
  0
LINE
  8
CSLAYER1
  6
CONTINUOUS
 62
     5
 10
650.566683
 20
633.779423
 11
650.566683
 21
618.581245
  0
LINE
  8
CSLAYER1
  6
CONTINUOUS
 62
     5
 10
723.711841
 20
606.551074
 11
754.589972
 21
606.551074
  0
LINE
  8
CSLAYER1
  6
CONTINUOUS
 62
     5
 10
769.566683
 20
617.350183
 11
769.566683
 21
591.251074
  0
LINE
  8
CSLAYER1
  6
CONTINUOUS
 62
     5
 10
739.566683
 20
621.551074
 11
739.566683
 21
591.160793
  0
ARC
  8
CSLAYER1
  6
CONTINUOUS
 62
     2
 10
769.566683
 20
606.551074
 40
6.500000
 50
-59.489763
 51
239.489763
  0
ARC
  8
CSLAYER1
  6
CONTINUOUS
 62
     2
 10
739.566683
 20
606.551074
 40
10.500000
 50
-55.150095
 51
231.502580
  0
ARC
  8
CSLAYER1
  6
CONTINUOUS
 62
     2
 10
739.566683
 20
606.551074
 40
6.000000
 50
0.000000
 51
180.000000
  0
ARC
  8
CSLAYER1
  6
CONTINUOUS
 62
     2
 10
769.566683
 20
606.551074
 40
3.300000
 50
0.000000
 51
180.000000
  0
LINE
  8
CSLAYER1
  6
CONTINUOUS
 62
     2
 10
733.566683
 20
606.551074
 11
733.566683
 21
591.251074
  0
LINE
  8
CSLAYER1
  6
CONTINUOUS
 62
     2
 10
745.566683
 20
606.551074
 11
745.566683
 21
591.251074
  0
LINE
  8
CSLAYER1
  6
CONTINUOUS
 62
     2
 10
766.266683
 20
606.551074
 11
766.266683
 21
591.251074
  0
LINE
  8
CSLAYER1
  6
CONTINUOUS
 62
     2
 10
772.866683
 20
606.551074
 11
772.866683
 21
591.251074
  0
LINE
  8
CSLAYER1
  6
CONTINUOUS
 62
     5
 10
760.667540
 20
606.551074
 11
779.731182
 21
606.551074
  0
POINT
  8
CSLAYER1
 62
     2
 10
664.566683
 20
606.551074
  0
POINT
  8
CSLAYER1
 62
     2
 10
704.566683
 20
606.551074
  0
LINE
  8
CSLAYER1
  6
CONTINUOUS
 62
     3
 10
874.066683
 20
881.445729
 11
874.066683
 21
856.786725
  0
LINE
  8
CSLAYER1
  6
CONTINUOUS
 62
     3
 10
890.066683
 20
881.445729
 11
890.066683
 21
856.786725
  0
LINE
  8
CSLAYER1
  6
CONTINUOUS
 62
     3
 10
892.066683
 20
876.393156
 11
892.066683
 21
881.445729
  0
LINE
  8
CSLAYER1
  6
CONTINUOUS
 62
     3
 10
902.066683
 20
878.393156
 11
902.066683
 21
881.445729
  0
LINE
  8
CSLAYER1
  6
CONTINUOUS
 62
     3
 10
900.066683
 20
876.393156
 11
900.066683
 21
881.445729
  0
LINE
  8
CSLAYER1
  6
CONTINUOUS
 62
     3
 10
892.066683
 20
876.393156
 11
900.066683
 21
876.393156
  0
LINE
  8
CSLAYER1
  6
CONTINUOUS
 62
     3
 10
900.066683
 20
876.393156
 11
902.066683
 21
878.393156
  0
LINE
  8
CSLAYER1
  6
CONTINUOUS
 62
     3
 10
890.066683
 20
878.393156
 11
892.066683
 21
878.393156
  0
LINE
  8
CSLAYER1
  6
CONTINUOUS
 62
     3
 10
873.066683
 20
878.393156
 11
874.066683
 21
878.393156
  0
LINE
  8
CSLAYER1
  6
CONTINUOUS
 62
     3
 10
660.066683
 20
881.445729
 11
660.066683
 21
856.786725
  0
LINE
  8
CSLAYER1
  6
CONTINUOUS
 62
     3
 10
644.066683
 20
881.445729
 11
644.066683
 21
856.786725
  0
LINE
  8
CSLAYER1
  6
CONTINUOUS
 62
     3
 10
642.066683
 20
876.393156
 11
642.066683
 21
881.445729
  0
LINE
  8
CSLAYER1
  6
CONTINUOUS
 62
     3
 10
632.066683
 20
878.393156
 11
632.066683
 21
881.445729
  0
LINE
  8
CSLAYER1
  6
CONTINUOUS
 62
     3
 10
634.066683
 20
876.393156
 11
634.066683
 21
881.445729
  0
LINE
  8
CSLAYER1
  6
CONTINUOUS
 62
     3
 10
642.066683
 20
876.393156
 11
634.066683
 21
876.393156
  0
LINE
  8
CSLAYER1
  6
CONTINUOUS
 62
     3
 10
634.066683
 20
876.393156
 11
632.066683
 21
878.393156
  0
LINE
  8
CSLAYER1
  6
CONTINUOUS
 62
     3
 10
644.066683
 20
878.393156
 11
642.066683
 21
878.393156
  0
LINE
  8
CSLAYER1
  6
CONTINUOUS
 62
     3
 10
661.066683
 20
878.393156
 11
660.066683
 21
878.393156
  0
LINE
  8
CSLAYER1
  6
CONTINUOUS
 62
     3
 10
830.510372
 20
875.292713
 11
703.622995
 21
875.292713
  0
LINE
  8
CSLAYER1
  6
CONTINUOUS
 62
     3
 10
873.066683
 20
881.445729
 11
873.066683
 21
869.616169
  0
LINE
  8
CSLAYER1
  6
CONTINUOUS
 62
     3
 10
860.450410
 20
856.786725
 11
867.865704
 21
860.842948
  0
LINE
  8
CSLAYER1
  6
CONTINUOUS
 62
     3
 10
835.309392
 20
876.519492
 11
844.315181
 21
881.445729
  0
LINE
  8
CSLAYER1
  6
CONTINUOUS
 62
     3
 10
811.566683
 20
1283.676699
 11
811.566683
 21
960.040195
  0
LINE
  8
CSLAYER1
  6
CONTINUOUS
 62
     3
 10
852.066683
 20
777.590920
 11
829.066683
 21
777.590920
  0
LINE
  8
CSLAYER1
  6
CONTINUOUS
 62
     3
 10
829.066683
 20
677.638575
 11
852.066683
 21
677.638575
  0
LINE
  8
CSLAYER1
  6
CONTINUOUS
 62
     3
 10
811.566683
 20
1283.676699
 11
811.397347
 21
1285.789044
  0
LINE
  8
CSLAYER1
  6
CONTINUOUS
 62
     3
 10
811.397347
 20
1285.789044
 11
810.890628
 21
1287.885312
  0
LINE
  8
CSLAYER1
  6
CONTINUOUS
 62
     3
 10
810.890628
 20
1287.885312
 11
810.050383
 21
1289.949551
  0
LINE
  8
CSLAYER1
  6
CONTINUOUS
 62
     3
 10
810.050383
 20
1289.949551
 11
808.883005
 21
1291.966049
  0
LINE
  8
CSLAYER1
  6
CONTINUOUS
 62
     3
 10
808.883005
 20
1291.966049
 11
807.397380
 21
1293.919460
  0
LINE
  8
CSLAYER1
  6
CONTINUOUS
 62
     3
 10
807.397380
 20
1293.919460
 11
805.604814
 21
1295.794918
  0
LINE
  8
CSLAYER1
  6
CONTINUOUS
 62
     3
 10
805.604814
 20
1295.794918
 11
803.518949
 21
1297.578149
  0
LINE
  8
CSLAYER1
  6
CONTINUOUS
 62
     3
 10
803.518949
 20
1297.578149
 11
801.155661
 21
1299.255581
  0
LINE
  8
CSLAYER1
  6
CONTINUOUS
 62
     3
 10
801.155661
 20
1299.255581
 11
798.532935
 21
1300.814448
  0
LINE
  8
CSLAYER1
  6
CONTINUOUS
 62
     3
 10
798.532935
 20
1300.814448
 11
797.316683
 21
1301.421443
  0
LINE
  8
CSLAYER1
  6
CONTINUOUS
 62
     3
 10
767.066683
 20
1259.440262
 11
770.945114
 21
1259.532489
  0
LINE
  8
CSLAYER1
  6
CONTINUOUS
 62
     3
 10
770.945114
 20
1259.532489
 11
774.794027
 21
1259.808468
  0
LINE
  8
CSLAYER1
  6
CONTINUOUS
 62
     3
 10
774.794027
 20
1259.808468
 11
778.584131
 21
1260.266099
  0
LINE
  8
CSLAYER1
  6
CONTINUOUS
 62
     3
 10
778.584131
 20
1260.266099
 11
782.286580
 21
1260.901898
  0
LINE
  8
CSLAYER1
  6
CONTINUOUS
 62
     3
 10
782.286580
 20
1260.901898
 11
785.873196
 21
1261.711028
  0
LINE
  8
CSLAYER1
  6
CONTINUOUS
 62
     3
 10
785.873196
 20
1261.711028
 11
789.316683
 21
1262.687329
  0
LINE
  8
CSLAYER1
  6
CONTINUOUS
 62
     3
 10
789.316683
 20
1262.687329
 11
792.590835
 21
1263.823372
  0
LINE
  8
CSLAYER1
  6
CONTINUOUS
 62
     3
 10
792.590835
 20
1263.823372
 11
795.670732
 21
1265.110511
  0
LINE
  8
CSLAYER1
  6
CONTINUOUS
 62
     3
 10
795.670732
 20
1265.110511
 11
798.532935
 21
1266.538950
  0
LINE
  8
CSLAYER1
  6
CONTINUOUS
 62
     3
 10
798.532935
 20
1266.538950
 11
801.155661
 21
1268.097818
  0
LINE
  8
CSLAYER1
  6
CONTINUOUS
 62
     3
 10
801.155661
 20
1268.097818
 11
803.518949
 21
1269.775250
  0
LINE
  8
CSLAYER1
  6
CONTINUOUS
 62
     3
 10
803.518949
 20
1269.775250
 11
805.604814
 21
1271.558481
  0
LINE
  8
CSLAYER1
  6
CONTINUOUS
 62
     3
 10
805.604814
 20
1271.558481
 11
807.397380
 21
1273.433938
  0
LINE
  8
CSLAYER1
  6
CONTINUOUS
 62
     3
 10
807.397380
 20
1273.433938
 11
808.883005
 21
1275.387350
  0
LINE
  8
CSLAYER1
  6
CONTINUOUS
 62
     3
 10
808.883005
 20
1275.387350
 11
810.050383
 21
1277.403848
  0
LINE
  8
CSLAYER1
  6
CONTINUOUS
 62
     3
 10
810.050383
 20
1277.403848
 11
810.890628
 21
1279.468086
  0
LINE
  8
CSLAYER1
  6
CONTINUOUS
 62
     3
 10
810.890628
 20
1279.468086
 11
811.397347
 21
1281.564355
  0
LINE
  8
CSLAYER1
  6
CONTINUOUS
 62
     3
 10
811.397347
 20
1281.564355
 11
811.566683
 21
1283.676699
  0
LINE
  8
CSLAYER1
  6
CONTINUOUS
 62
     3
 10
797.316683
 20
1283.676699
 11
797.201573
 21
1285.112619
  0
LINE
  8
CSLAYER1
  6
CONTINUOUS
 62
     3
 10
767.066683
 20
1267.201369
 11
769.703145
 21
1267.264062
  0
LINE
  8
CSLAYER1
  6
CONTINUOUS
 62
     3
 10
769.703145
 20
1267.264062
 11
772.319541
 21
1267.451666
  0
LINE
  8
CSLAYER1
  6
CONTINUOUS
 62
     3
 10
772.319541
 20
1267.451666
 11
774.895959
 21
1267.762752
  0
LINE
  8
CSLAYER1
  6
CONTINUOUS
 62
     3
 10
774.895959
 20
1267.762752
 11
777.412793
 21
1268.194953
  0
LINE
  8
CSLAYER1
  6
CONTINUOUS
 62
     3
 10
777.412793
 20
1268.194953
 11
779.850886
 21
1268.744979
  0
LINE
  8
CSLAYER1
  6
CONTINUOUS
 62
     3
 10
779.850886
 20
1268.744979
 11
782.191683
 21
1269.408644
  0
LINE
  8
CSLAYER1
  6
CONTINUOUS
 62
     3
 10
782.191683
 20
1269.408644
 11
784.417371
 21
1270.180898
  0
LINE
  8
CSLAYER1
  6
CONTINUOUS
 62
     3
 10
784.417371
 20
1270.180898
 11
786.511008
 21
1271.055864
  0
LINE
  8
CSLAYER1
  6
CONTINUOUS
 62
     3
 10
786.511008
 20
1271.055864
 11
788.456663
 21
1272.026881
  0
LINE
  8
CSLAYER1
  6
CONTINUOUS
 62
     3
 10
788.456663
 20
1272.026881
 11
790.239528
 21
1273.086561
  0
LINE
  8
CSLAYER1
  6
CONTINUOUS
 62
     3
 10
790.239528
 20
1273.086561
 11
791.846033
 21
1274.226838
  0
LINE
  8
CSLAYER1
  6
CONTINUOUS
 62
     3
 10
791.846033
 20
1274.226838
 11
793.263952
 21
1275.439034
  0
LINE
  8
CSLAYER1
  6
CONTINUOUS
 62
     3
 10
793.263952
 20
1275.439034
 11
794.482494
 21
1276.713924
  0
LINE
  8
CSLAYER1
  6
CONTINUOUS
 62
     3
 10
794.482494
 20
1276.713924
 11
795.492385
 21
1278.041804
  0
LINE
  8
CSLAYER1
  6
CONTINUOUS
 62
     3
 10
795.492385
 20
1278.041804
 11
796.285940
 21
1279.412570
  0
LINE
  8
CSLAYER1
  6
CONTINUOUS
 62
     3
 10
796.285940
 20
1279.412570
 11
796.857118
 21
1280.815788
  0
LINE
  8
CSLAYER1
  6
CONTINUOUS
 62
     3
 10
796.857118
 20
1280.815788
 11
797.201573
 21
1282.240780
  0
LINE
  8
CSLAYER1
  6
CONTINUOUS
 62
     3
 10
797.201573
 20
1282.240780
 11
797.316683
 21
1283.676699
  0
LINE
  8
CSLAYER1
  6
CONTINUOUS
 62
     3
 10
767.066683
 20
659.078055
 11
772.470339
 21
659.206551
  0
LINE
  8
CSLAYER1
  6
CONTINUOUS
 62
     3
 10
772.470339
 20
659.206551
 11
777.832870
 21
659.591061
  0
LINE
  8
CSLAYER1
  6
CONTINUOUS
 62
     3
 10
777.832870
 20
659.591061
 11
783.113464
 21
660.228659
  0
LINE
  8
CSLAYER1
  6
CONTINUOUS
 62
     3
 10
783.113464
 20
660.228659
 11
788.271932
 21
661.114492
  0
LINE
  8
CSLAYER1
  6
CONTINUOUS
 62
     3
 10
788.271932
 20
661.114492
 11
793.269016
 21
662.241818
  0
LINE
  8
CSLAYER1
  6
CONTINUOUS
 62
     3
 10
793.269016
 20
662.241818
 11
798.066683
 21
663.602058
  0
LINE
  8
CSLAYER1
  6
CONTINUOUS
 62
     3
 10
798.066683
 20
663.602058
 11
802.628422
 21
665.184860
  0
LINE
  8
CSLAYER1
  6
CONTINUOUS
 62
     3
 10
802.628422
 20
665.184860
 11
806.919515
 21
666.978177
  0
LINE
  8
CSLAYER1
  6
CONTINUOUS
 62
     3
 10
806.919515
 20
666.978177
 11
810.907304
 21
668.968362
  0
LINE
  8
CSLAYER1
  6
CONTINUOUS
 62
     3
 10
810.907304
 20
668.968362
 11
814.561439
 21
671.140267
  0
LINE
  8
CSLAYER1
  6
CONTINUOUS
 62
     3
 10
814.561439
 20
671.140267
 11
817.854110
 21
673.477364
  0
LINE
  8
CSLAYER1
  6
CONTINUOUS
 62
     3
 10
817.854110
 20
673.477364
 11
820.760258
 21
675.961865
  0
LINE
  8
CSLAYER1
  6
CONTINUOUS
 62
     3
 10
820.760258
 20
675.961865
 11
823.257766
 21
678.574862
  0
LINE
  8
CSLAYER1
  6
CONTINUOUS
 62
     3
 10
823.257766
 20
678.574862
 11
825.327626
 21
681.296469
  0
LINE
  8
CSLAYER1
  6
CONTINUOUS
 62
     3
 10
825.327626
 20
681.296469
 11
826.954085
 21
684.105972
  0
LINE
  8
CSLAYER1
  6
CONTINUOUS
 62
     3
 10
826.954085
 20
684.105972
 11
828.124764
 21
686.981990
  0
LINE
  8
CSLAYER1
  6
CONTINUOUS
 62
     3
 10
828.124764
 20
686.981990
 11
828.830755
 21
689.902633
  0
LINE
  8
CSLAYER1
  6
CONTINUOUS
 62
     3
 10
828.830755
 20
689.902633
 11
829.066683
 21
692.845675
  0
LINE
  8
CSLAYER1
  6
CONTINUOUS
 62
     3
 10
829.066683
 20
644.111278
 11
828.830755
 21
647.054320
  0
LINE
  8
CSLAYER1
  6
CONTINUOUS
 62
     3
 10
821.069561
 20
627.551074
 11
823.257766
 21
629.840465
  0
LINE
  8
CSLAYER1
  6
CONTINUOUS
 62
     3
 10
823.257766
 20
629.840465
 11
825.327626
 21
632.562072
  0
LINE
  8
CSLAYER1
  6
CONTINUOUS
 62
     3
 10
825.327626
 20
632.562072
 11
826.954085
 21
635.371575
  0
LINE
  8
CSLAYER1
  6
CONTINUOUS
 62
     3
 10
826.954085
 20
635.371575
 11
828.124764
 21
638.247592
  0
LINE
  8
CSLAYER1
  6
CONTINUOUS
 62
     3
 10
828.124764
 20
638.247592
 11
828.830755
 21
641.168236
  0
LINE
  8
CSLAYER1
  6
CONTINUOUS
 62
     3
 10
828.830755
 20
641.168236
 11
829.066683
 21
644.111278
  0
LINE
  8
CSLAYER1
  6
CONTINUOUS
 62
     3
 10
829.066683
 20
777.590920
 11
829.066683
 21
644.111278
  0
LINE
  8
CSLAYER1
  6
CONTINUOUS
 62
     3
 10
767.066683
 20
660.167333
 11
772.296028
 21
660.291684
  0
LINE
  8
CSLAYER1
  6
CONTINUOUS
 62
     3
 10
772.296028
 20
660.291684
 11
777.485574
 21
660.663791
  0
LINE
  8
CSLAYER1
  6
CONTINUOUS
 62
     3
 10
777.485574
 20
660.663791
 11
782.595826
 21
661.280821
  0
LINE
  8
CSLAYER1
  6
CONTINUOUS
 62
     3
 10
782.595826
 20
661.280821
 11
787.587892
 21
662.138078
  0
LINE
  8
CSLAYER1
  6
CONTINUOUS
 62
     3
 10
787.587892
 20
662.138078
 11
792.423779
 21
663.229039
  0
LINE
  8
CSLAYER1
  6
CONTINUOUS
 62
     3
 10
792.423779
 20
663.229039
 11
797.066683
 21
664.545401
  0
LINE
  8
CSLAYER1
  6
CONTINUOUS
 62
     3
 10
797.066683
 20
664.545401
 11
801.481269
 21
666.077145
  0
LINE
  8
CSLAYER1
  6
CONTINUOUS
 62
     3
 10
801.481269
 20
666.077145
 11
805.633940
 21
667.812613
  0
LINE
  8
CSLAYER1
  6
CONTINUOUS
 62
     3
 10
805.633940
 20
667.812613
 11
809.493090
 21
669.738598
  0
LINE
  8
CSLAYER1
  6
CONTINUOUS
 62
     3
 10
809.493090
 20
669.738598
 11
813.029350
 21
671.840442
  0
LINE
  8
CSLAYER1
  6
CONTINUOUS
 62
     3
 10
813.029350
 20
671.840442
 11
816.215806
 21
674.102148
  0
LINE
  8
CSLAYER1
  6
CONTINUOUS
 62
     3
 10
816.215806
 20
674.102148
 11
819.028208
 21
676.506504
  0
LINE
  8
CSLAYER1
  6
CONTINUOUS
 62
     3
 10
819.028208
 20
676.506504
 11
821.445151
 21
679.035211
  0
LINE
  8
CSLAYER1
  6
CONTINUOUS
 62
     3
 10
821.445151
 20
679.035211
 11
823.448241
 21
681.669024
  0
LINE
  8
CSLAYER1
  6
CONTINUOUS
 62
     3
 10
823.448241
 20
681.669024
 11
825.022233
 21
684.387898
  0
LINE
  8
CSLAYER1
  6
CONTINUOUS
 62
     3
 10
825.022233
 20
684.387898
 11
826.155148
 21
687.171141
  0
LINE
  8
CSLAYER1
  6
CONTINUOUS
 62
     3
 10
826.155148
 20
687.171141
 11
826.838365
 21
689.997570
  0
LINE
  8
CSLAYER1
  6
CONTINUOUS
 62
     3
 10
826.838365
 20
689.997570
 11
827.066683
 21
692.845675
  0
LINE
  8
CSLAYER1
  6
CONTINUOUS
 62
     3
 10
827.066683
 20
780.486725
 11
827.066683
 21
692.845675
  0
LINE
  8
CSLAYER1
  6
CONTINUOUS
 62
     3
 10
827.066683
 20
701.308756
 11
828.124764
 21
698.709361
  0
LINE
  8
CSLAYER1
  6
CONTINUOUS
 62
     3
 10
828.124764
 20
698.709361
 11
828.830755
 21
695.788717
  0
LINE
  8
CSLAYER1
  6
CONTINUOUS
 62
     3
 10
828.830755
 20
695.788717
 11
829.066683
 21
692.845675
  0
LINE
  8
CSLAYER1
  6
CONTINUOUS
 62
     4
 10
820.836588
 20
780.486725
 11
820.836588
 21
678.398507
  0
LINE
  8
CSLAYER1
  6
CONTINUOUS
 62
     4
 10
813.729824
 20
780.486725
 11
813.729824
 21
672.275969
  0
LINE
  8
CSLAYER1
  6
CONTINUOUS
 62
     4
 10
801.447897
 20
780.486725
 11
801.447897
 21
666.114243
  0
LINE
  8
CSLAYER1
  6
CONTINUOUS
 62
     4
 10
796.513680
 20
780.486725
 11
796.513680
 21
664.388613
  0
LINE
  8
CSLAYER1
  6
CONTINUOUS
 62
     4
 10
778.672374
 20
780.486725
 11
778.672374
 21
660.807089
  0
ARC
  8
CSLAYER1
  6
CONTINUOUS
 62
     3
 10
830.510372
 20
885.292713
 40
10.000000
 50
270.000000
 51
298.679003
  0
ARC
  8
CSLAYER1
  6
CONTINUOUS
 62
     3
 10
863.066683
 20
869.616169
 40
10.000000
 50
298.679003
 51
360.000000
  0
LINE
  8
CSLAYER1
  6
CONTINUOUS
 62
     3
 10
661.066683
 20
881.445729
 11
661.066683
 21
869.616169
  0
LINE
  8
CSLAYER1
  6
CONTINUOUS
 62
     3
 10
673.682956
 20
856.786725
 11
666.267663
 21
860.842948
  0
LINE
  8
CSLAYER1
  6
CONTINUOUS
 62
     3
 10
698.823975
 20
876.519492
 11
689.818186
 21
881.445729
  0
LINE
  8
CSLAYER1
  6
CONTINUOUS
 62
     3
 10
722.566683
 20
1283.676699
 11
722.566683
 21
960.040195
  0
LINE
  8
CSLAYER1
  6
CONTINUOUS
 62
     3
 10
722.566683
 20
1283.676699
 11
722.736019
 21
1285.789044
  0
LINE
  8
CSLAYER1
  6
CONTINUOUS
 62
     3
 10
722.736019
 20
1285.789044
 11
723.242738
 21
1287.885312
  0
LINE
  8
CSLAYER1
  6
CONTINUOUS
 62
     3
 10
723.242738
 20
1287.885312
 11
724.082984
 21
1289.949551
  0
LINE
  8
CSLAYER1
  6
CONTINUOUS
 62
     3
 10
724.082984
 20
1289.949551
 11
725.250362
 21
1291.966049
  0
LINE
  8
CSLAYER1
  6
CONTINUOUS
 62
     3
 10
725.250362
 20
1291.966049
 11
726.735987
 21
1293.919460
  0
LINE
  8
CSLAYER1
  6
CONTINUOUS
 62
     3
 10
726.735987
 20
1293.919460
 11
728.528553
 21
1295.794918
  0
LINE
  8
CSLAYER1
  6
CONTINUOUS
 62
     3
 10
728.528553
 20
1295.794918
 11
730.614417
 21
1297.578149
  0
LINE
  8
CSLAYER1
  6
CONTINUOUS
 62
     3
 10
730.614417
 20
1297.578149
 11
732.977706
 21
1299.255581
  0
LINE
  8
CSLAYER1
  6
CONTINUOUS
 62
     3
 10
732.977706
 20
1299.255581
 11
735.600432
 21
1300.814448
  0
LINE
  8
CSLAYER1
  6
CONTINUOUS
 62
     3
 10
735.600432
 20
1300.814448
 11
736.816683
 21
1301.421443
  0
LINE
  8
CSLAYER1
  6
CONTINUOUS
 62
     3
 10
767.066683
 20
1259.440262
 11
763.188253
 21
1259.532489
  0
LINE
  8
CSLAYER1
  6
CONTINUOUS
 62
     3
 10
763.188253
 20
1259.532489
 11
759.339339
 21
1259.808468
  0
LINE
  8
CSLAYER1
  6
CONTINUOUS
 62
     3
 10
759.339339
 20
1259.808468
 11
755.549236
 21
1260.266099
  0
LINE
  8
CSLAYER1
  6
CONTINUOUS
 62
     3
 10
755.549236
 20
1260.266099
 11
751.846787
 21
1260.901898
  0
LINE
  8
CSLAYER1
  6
CONTINUOUS
 62
     3
 10
751.846787
 20
1260.901898
 11
748.260171
 21
1261.711028
  0
LINE
  8
CSLAYER1
  6
CONTINUOUS
 62
     3
 10
748.260171
 20
1261.711028
 11
744.816683
 21
1262.687329
  0
LINE
  8
CSLAYER1
  6
CONTINUOUS
 62
     3
 10
744.816683
 20
1262.687329
 11
741.542532
 21
1263.823372
  0
LINE
  8
CSLAYER1
  6
CONTINUOUS
 62
     3
 10
741.542532
 20
1263.823372
 11
738.462635
 21
1265.110511
  0
LINE
  8
CSLAYER1
  6
CONTINUOUS
 62
     3
 10
738.462635
 20
1265.110511
 11
735.600432
 21
1266.538950
  0
LINE
  8
CSLAYER1
  6
CONTINUOUS
 62
     3
 10
735.600432
 20
1266.538950
 11
732.977706
 21
1268.097818
  0
LINE
  8
CSLAYER1
  6
CONTINUOUS
 62
     3
 10
732.977706
 20
1268.097818
 11
730.614417
 21
1269.775250
  0
LINE
  8
CSLAYER1
  6
CONTINUOUS
 62
     3
 10
730.614417
 20
1269.775250
 11
728.528553
 21
1271.558481
  0
LINE
  8
CSLAYER1
  6
CONTINUOUS
 62
     3
 10
728.528553
 20
1271.558481
 11
726.735987
 21
1273.433938
  0
LINE
  8
CSLAYER1
  6
CONTINUOUS
 62
     3
 10
726.735987
 20
1273.433938
 11
725.250362
 21
1275.387350
  0
LINE
  8
CSLAYER1
  6
CONTINUOUS
 62
     3
 10
725.250362
 20
1275.387350
 11
724.082984
 21
1277.403848
  0
LINE
  8
CSLAYER1
  6
CONTINUOUS
 62
     3
 10
724.082984
 20
1277.403848
 11
723.242738
 21
1279.468086
  0
LINE
  8
CSLAYER1
  6
CONTINUOUS
 62
     3
 10
723.242738
 20
1279.468086
 11
722.736019
 21
1281.564355
  0
LINE
  8
CSLAYER1
  6
CONTINUOUS
 62
     3
 10
722.736019
 20
1281.564355
 11
722.566683
 21
1283.676699
  0
LINE
  8
CSLAYER1
  6
CONTINUOUS
 62
     3
 10
736.816683
 20
1283.676699
 11
736.931794
 21
1285.112619
  0
LINE
  8
CSLAYER1
  6
CONTINUOUS
 62
     3
 10
767.066683
 20
1267.201369
 11
764.430222
 21
1267.264062
  0
LINE
  8
CSLAYER1
  6
CONTINUOUS
 62
     3
 10
764.430222
 20
1267.264062
 11
761.813826
 21
1267.451666
  0
LINE
  8
CSLAYER1
  6
CONTINUOUS
 62
     3
 10
761.813826
 20
1267.451666
 11
759.237407
 21
1267.762752
  0
LINE
  8
CSLAYER1
  6
CONTINUOUS
 62
     3
 10
759.237407
 20
1267.762752
 11
756.720574
 21
1268.194953
  0
LINE
  8
CSLAYER1
  6
CONTINUOUS
 62
     3
 10
756.720574
 20
1268.194953
 11
754.282481
 21
1268.744979
  0
LINE
  8
CSLAYER1
  6
CONTINUOUS
 62
     3
 10
754.282481
 20
1268.744979
 11
751.941683
 21
1269.408644
  0
LINE
  8
CSLAYER1
  6
CONTINUOUS
 62
     3
 10
751.941683
 20
1269.408644
 11
749.715996
 21
1270.180898
  0
LINE
  8
CSLAYER1
  6
CONTINUOUS
 62
     3
 10
749.715996
 20
1270.180898
 11
747.622358
 21
1271.055864
  0
LINE
  8
CSLAYER1
  6
CONTINUOUS
 62
     3
 10
747.622358
 20
1271.055864
 11
745.676703
 21
1272.026881
  0
LINE
  8
CSLAYER1
  6
CONTINUOUS
 62
     3
 10
745.676703
 20
1272.026881
 11
743.893839
 21
1273.086561
  0
LINE
  8
CSLAYER1
  6
CONTINUOUS
 62
     3
 10
743.893839
 20
1273.086561
 11
742.287334
 21
1274.226838
  0
LINE
  8
CSLAYER1
  6
CONTINUOUS
 62
     3
 10
742.287334
 20
1274.226838
 11
740.869415
 21
1275.439034
  0
LINE
  8
CSLAYER1
  6
CONTINUOUS
 62
     3
 10
740.869415
 20
1275.439034
 11
739.650873
 21
1276.713924
  0
LINE
  8
CSLAYER1
  6
CONTINUOUS
 62
     3
 10
739.650873
 20
1276.713924
 11
738.640982
 21
1278.041804
  0
LINE
  8
CSLAYER1
  6
CONTINUOUS
 62
     3
 10
738.640982
 20
1278.041804
 11
737.847427
 21
1279.412570
  0
LINE
  8
CSLAYER1
  6
CONTINUOUS
 62
     3
 10
737.847427
 20
1279.412570
 11
737.276249
 21
1280.815788
  0
LINE
  8
CSLAYER1
  6
CONTINUOUS
 62
     3
 10
737.276249
 20
1280.815788
 11
736.931794
 21
1282.240780
  0
LINE
  8
CSLAYER1
  6
CONTINUOUS
 62
     3
 10
736.931794
 20
1282.240780
 11
736.816683
 21
1283.676699
  0
LINE
  8
CSLAYER1
  6
CONTINUOUS
 62
     3
 10
767.066683
 20
659.078055
 11
761.663027
 21
659.206551
  0
LINE
  8
CSLAYER1
  6
CONTINUOUS
 62
     3
 10
761.663027
 20
659.206551
 11
756.300496
 21
659.591061
  0
LINE
  8
CSLAYER1
  6
CONTINUOUS
 62
     3
 10
756.300496
 20
659.591061
 11
751.019903
 21
660.228659
  0
LINE
  8
CSLAYER1
  6
CONTINUOUS
 62
     3
 10
751.019903
 20
660.228659
 11
745.861434
 21
661.114492
  0
LINE
  8
CSLAYER1
  6
CONTINUOUS
 62
     3
 10
745.861434
 20
661.114492
 11
740.864351
 21
662.241818
  0
LINE
  8
CSLAYER1
  6
CONTINUOUS
 62
     3
 10
740.864351
 20
662.241818
 11
736.066683
 21
663.602058
  0
LINE
  8
CSLAYER1
  6
CONTINUOUS
 62
     3
 10
736.066683
 20
663.602058
 11
731.504944
 21
665.184860
  0
LINE
  8
CSLAYER1
  6
CONTINUOUS
 62
     3
 10
731.504944
 20
665.184860
 11
727.213852
 21
666.978177
  0
LINE
  8
CSLAYER1
  6
CONTINUOUS
 62
     3
 10
727.213852
 20
666.978177
 11
723.226063
 21
668.968362
  0
LINE
  8
CSLAYER1
  6
CONTINUOUS
 62
     3
 10
723.226063
 20
668.968362
 11
719.571928
 21
671.140267
  0
LINE
  8
CSLAYER1
  6
CONTINUOUS
 62
     3
 10
719.571928
 20
671.140267
 11
716.279257
 21
673.477364
  0
LINE
  8
CSLAYER1
  6
CONTINUOUS
 62
     3
 10
716.279257
 20
673.477364
 11
713.373108
 21
675.961865
  0
LINE
  8
CSLAYER1
  6
CONTINUOUS
 62
     3
 10
713.373108
 20
675.961865
 11
710.875601
 21
678.574862
  0
LINE
  8
CSLAYER1
  6
CONTINUOUS
 62
     3
 10
710.875601
 20
678.574862
 11
708.805741
 21
681.296469
  0
LINE
  8
CSLAYER1
  6
CONTINUOUS
 62
     3
 10
708.805741
 20
681.296469
 11
707.179282
 21
684.105972
  0
LINE
  8
CSLAYER1
  6
CONTINUOUS
 62
     3
 10
707.179282
 20
684.105972
 11
706.008603
 21
686.981990
  0
LINE
  8
CSLAYER1
  6
CONTINUOUS
 62
     3
 10
706.008603
 20
686.981990
 11
705.302612
 21
689.902633
  0
LINE
  8
CSLAYER1
  6
CONTINUOUS
 62
     3
 10
705.302612
 20
689.902633
 11
705.066683
 21
692.845675
  0
LINE
  8
CSLAYER1
  6
CONTINUOUS
 62
     3
 10
713.063805
 20
627.551074
 11
710.875601
 21
629.840465
  0
LINE
  8
CSLAYER1
  6
CONTINUOUS
 62
     3
 10
710.875601
 20
629.840465
 11
708.805741
 21
632.562072
  0
LINE
  8
CSLAYER1
  6
CONTINUOUS
 62
     3
 10
708.805741
 20
632.562072
 11
707.179282
 21
635.371575
  0
LINE
  8
CSLAYER1
  6
CONTINUOUS
 62
     3
 10
707.179282
 20
635.371575
 11
706.008603
 21
638.247592
  0
LINE
  8
CSLAYER1
  6
CONTINUOUS
 62
     3
 10
706.008603
 20
638.247592
 11
705.302612
 21
641.168236
  0
LINE
  8
CSLAYER1
  6
CONTINUOUS
 62
     3
 10
705.302612
 20
641.168236
 11
705.066683
 21
644.111278
  0
LINE
  8
CSLAYER1
  6
CONTINUOUS
 62
     3
 10
767.066683
 20
660.167333
 11
761.837339
 21
660.291684
  0
LINE
  8
CSLAYER1
  6
CONTINUOUS
 62
     3
 10
761.837339
 20
660.291684
 11
756.647793
 21
660.663791
  0
LINE
  8
CSLAYER1
  6
CONTINUOUS
 62
     3
 10
756.647793
 20
660.663791
 11
751.537541
 21
661.280821
  0
LINE
  8
CSLAYER1
  6
CONTINUOUS
 62
     3
 10
751.537541
 20
661.280821
 11
746.545475
 21
662.138078
  0
LINE
  8
CSLAYER1
  6
CONTINUOUS
 62
     3
 10
746.545475
 20
662.138078
 11
741.709588
 21
663.229039
  0
LINE
  8
CSLAYER1
  6
CONTINUOUS
 62
     3
 10
741.709588
 20
663.229039
 11
737.066683
 21
664.545401
  0
LINE
  8
CSLAYER1
  6
CONTINUOUS
 62
     3
 10
737.066683
 20
664.545401
 11
732.652097
 21
666.077145
  0
LINE
  8
CSLAYER1
  6
CONTINUOUS
 62
     3
 10
732.652097
 20
666.077145
 11
728.499427
 21
667.812613
  0
LINE
  8
CSLAYER1
  6
CONTINUOUS
 62
     3
 10
728.499427
 20
667.812613
 11
724.640276
 21
669.738598
  0
LINE
  8
CSLAYER1
  6
CONTINUOUS
 62
     3
 10
724.640276
 20
669.738598
 11
721.104017
 21
671.840442
  0
LINE
  8
CSLAYER1
  6
CONTINUOUS
 62
     3
 10
721.104017
 20
671.840442
 11
717.917561
 21
674.102148
  0
LINE
  8
CSLAYER1
  6
CONTINUOUS
 62
     3
 10
717.917561
 20
674.102148
 11
715.105159
 21
676.506504
  0
LINE
  8
CSLAYER1
  6
CONTINUOUS
 62
     3
 10
715.105159
 20
676.506504
 11
712.688216
 21
679.035211
  0
LINE
  8
CSLAYER1
  6
CONTINUOUS
 62
     3
 10
712.688216
 20
679.035211
 11
710.685126
 21
681.669024
  0
LINE
  8
CSLAYER1
  6
CONTINUOUS
 62
     3
 10
710.685126
 20
681.669024
 11
709.111134
 21
684.387898
  0
LINE
  8
CSLAYER1
  6
CONTINUOUS
 62
     3
 10
709.111134
 20
684.387898
 11
707.978218
 21
687.171141
  0
LINE
  8
CSLAYER1
  6
CONTINUOUS
 62
     3
 10
707.978218
 20
687.171141
 11
707.295001
 21
689.997570
  0
LINE
  8
CSLAYER1
  6
CONTINUOUS
 62
     3
 10
707.295001
 20
689.997570
 11
707.066683
 21
692.845675
  0
LINE
  8
CSLAYER1
  6
CONTINUOUS
 62
     3
 10
707.066683
 20
780.486725
 11
707.066683
 21
692.845675
  0
LINE
  8
CSLAYER1
  6
CONTINUOUS
 62
     3
 10
707.066683
 20
701.308756
 11
706.008603
 21
698.709361
  0
LINE
  8
CSLAYER1
  6
CONTINUOUS
 62
     3
 10
706.008603
 20
698.709361
 11
705.302612
 21
695.788717
  0
LINE
  8
CSLAYER1
  6
CONTINUOUS
 62
     3
 10
705.302612
 20
695.788717
 11
705.066683
 21
692.845675
  0
LINE
  8
CSLAYER1
  6
CONTINUOUS
 62
     4
 10
713.296779
 20
780.486725
 11
713.296779
 21
678.398507
  0
LINE
  8
CSLAYER1
  6
CONTINUOUS
 62
     4
 10
720.403543
 20
780.486725
 11
720.403543
 21
672.275969
  0
LINE
  8
CSLAYER1
  6
CONTINUOUS
 62
     4
 10
732.685470
 20
780.486725
 11
732.685470
 21
666.114243
  0
LINE
  8
CSLAYER1
  6
CONTINUOUS
 62
     4
 10
737.619687
 20
780.486725
 11
737.619687
 21
664.388613
  0
LINE
  8
CSLAYER1
  6
CONTINUOUS
 62
     4
 10
755.460993
 20
780.486725
 11
755.460993
 21
660.807089
  0
ARC
  8
CSLAYER1
  6
CONTINUOUS
 62
     3
 10
703.622995
 20
885.292713
 40
10.000000
 50
241.320997
 51
270.000000
  0
ARC
  8
CSLAYER1
  6
CONTINUOUS
 62
     3
 10
671.066683
 20
869.616169
 40
10.000000
 50
180.000000
 51
241.320997
  0
LINE
  8
CSLAYER1
  6
CONTINUOUS
 62
     3
 10
852.066683
 20
777.590920
 11
852.066683
 21
677.638575
  0
LINE
  8
CSLAYER1
  6
CONTINUOUS
 62
     3
 10
705.066683
 20
692.845675
 11
705.066683
 21
644.111278
  0
LINE
  8
CSLAYER1
  6
CONTINUOUS
 62
     3
 10
797.316683
 20
1374.394452
 11
797.316683
 21
1354.329315
  0
LINE
  8
CSLAYER1
  6
CONTINUOUS
 62
     3
 10
736.816683
 20
1374.394452
 11
736.816683
 21
1354.329315
  0
LINE
  8
CSLAYER1
  6
CONTINUOUS
 62
     3
 10
797.316683
 20
1329.329315
 11
797.316683
 21
1283.676699
  0
LINE
  8
CSLAYER1
  6
CONTINUOUS
 62
     3
 10
736.816683
 20
1329.329315
 11
736.816683
 21
1283.676699
  0
TEXT
  8
CSLAYER1
 62
     5
 10
1139.690552
 20
743.091797
 40
60.000000
 41
1.017391
  1
リミットスイッチ
 50
360.000000
 51
0.000000
  7
EASYDRAW_FONT
 72
     5
 11
1607.690552
 21
743.091797
  0
LINE
  8
CSLAYER1
  6
CONTINUOUS
 62
     5
 10
2426.030633
 20
935.845311
 11
2553.990319
 21
1037.719842
  0
LINE
  8
CSLAYER1
  6
CONTINUOUS
 62
     5
 10
2426.030633
 20
935.845311
 11
2452.781939
 21
972.030496
  0
LINE
  8
CSLAYER1
  6
CONTINUOUS
 62
     5
 10
2426.030633
 20
935.845311
 11
2467.290536
 21
953.806947
  0
LINE
  8
CSLAYER1
  6
CONTINUOUS
 62
     5
 10
2553.990319
 20
1037.719842
 11
3025.791086
 21
1037.719842
  0
LINE
  8
CSLAYER1
  6
CONTINUOUS
 62
     5
 10
905.566683
 20
643.472919
 11
1128.778875
 21
814.571387
  0
LINE
  8
CSLAYER1
  6
CONTINUOUS
 62
     5
 10
905.566683
 20
643.472919
 11
932.978897
 21
679.160039
  0
LINE
  8
CSLAYER1
  6
CONTINUOUS
 62
     5
 10
905.566683
 20
643.472919
 11
947.149917
 21
660.672764
  0
LINE
  8
CSLAYER1
  6
CONTINUOUS
 62
     5
 10
1128.778875
 20
814.571387
 11
1608.567754
 21
814.571387
  0
LINE
  8
CSLAYER1
  6
CONTINUOUS
 62
     4
 10
904.066683
 20
647.252878
 11
905.566683
 21
647.252878
  0
LINE
  8
CSLAYER1
  6
CONTINUOUS
 62
     2
 10
904.066683
 20
646.744671
 11
905.566683
 21
646.744671
  0
LINE
  8
CSLAYER1
  6
CONTINUOUS
 62
     4
 10
909.066683
 20
616.912819
 11
909.066683
 21
622.957003
  0
LINE
  8
CSLAYER1
  6
CONTINUOUS
 62
     4
 10
900.066683
 20
647.252878
 11
900.066683
 21
663.230811
  0
LINE
  8
CSLAYER1
  6
CONTINUOUS
 62
     4
 10
904.066683
 20
647.252878
 11
904.066683
 21
659.191368
  0
LINE
  8
CSLAYER1
  6
CONTINUOUS
 62
     2
 10
898.566683
 20
634.941142
 11
905.566683
 21
634.941142
  0
LINE
  8
CSLAYER1
  6
CENTER
 62
     5
 10
2059.672924
 20
606.551074
 11
2048.820088
 21
606.551074
  0
LINE
  8
CSLAYER1
  6
CENTER
 62
     5
 10
1894.130593
 20
606.551074
 11
1922.963928
 21
606.551074
  0
LINE
  8
CSLAYER1
  6
CONTINUOUS
 62
     2
 10
1894.130593
 20
610.351074
 11
1896.648101
 21
610.351074
  0
LINE
  8
CSLAYER1
  6
CONTINUOUS
 62
     2
 10
1924.648101
 20
621.551074
 11
1924.648101
 21
616.124216
  0
LINE
  8
CSLAYER1
  6
CONTINUOUS
 62
     2
 10
1896.648101
 20
615.051074
 11
1896.648101
 21
598.051074
  0
LINE
  8
CSLAYER1
  6
CONTINUOUS
 62
     2
 10
1900.617667
 20
619.541455
 11
1915.245538
 21
619.541455
  0
LINE
  8
CSLAYER1
  6
CONTINUOUS
 62
     2
 10
1899.757195
 20
618.051074
 11
1899.757195
 21
595.051074
  0
LINE
  8
CSLAYER1
  6
CONTINUOUS
 62
     2
 10
1916.106010
 20
618.051074
 11
1916.106010
 21
595.051074
  0
LINE
  8
CSLAYER1
  6
CONTINUOUS
 62
     2
 10
1899.757195
 20
618.051074
 11
1900.617667
 21
619.541455
  0
LINE
  8
CSLAYER1
  6
CONTINUOUS
 62
     2
 10
1916.106010
 20
618.051074
 11
1915.245538
 21
619.541455
  0
LINE
  8
CSLAYER1
  6
CONTINUOUS
 62
     2
 10
1900.617667
 20
613.190602
 11
1915.245538
 21
613.190602
  0
ARC
  8
CSLAYER1
  6
CONTINUOUS
 62
     2
 10
1925.803220
 20
606.551074
 40
26.046025
 50
165.231439
 51
194.768561
  0
ARC
  8
CSLAYER1
  6
CONTINUOUS
 62
     2
 10
1905.888789
 20
616.366028
 40
6.153702
 50
156.825356
 51
211.065581
  0
ARC
  8
CSLAYER1
  6
CONTINUOUS
 62
     2
 10
1909.974416
 20
616.366028
 40
6.153702
 50
-31.065581
 51
23.174644
  0
ARC
  8
CSLAYER1
  6
CONTINUOUS
 62
     2
 10
1890.059985
 20
606.551074
 40
26.046025
 50
-14.768561
 51
14.768561
  0
LINE
  8
CSLAYER1
  6
CONTINUOUS
 62
     2
 10
1899.648101
 20
618.051074
 11
1899.757195
 21
618.051074
  0
ARC
  8
CSLAYER1
  6
CONTINUOUS
 62
     2
 10
1899.648101
 20
615.051074
 40
3.000000
 50
90.000000
 51
180.000000
  0
LINE
  8
CSLAYER1
  6
CONTINUOUS
 62
     2
 10
1919.648101
 20
618.051074
 11
1919.648101
 21
595.051074
  0
LINE
  8
CSLAYER1
  6
CONTINUOUS
 62
     2
 10
1919.648101
 20
618.051074
 11
1920.508573
 21
619.541455
  0
ARC
  8
CSLAYER1
  6
CONTINUOUS
 62
     2
 10
1945.694126
 20
606.551074
 40
26.046025
 50
165.231439
 51
194.768561
  0
ARC
  8
CSLAYER1
  6
CONTINUOUS
 62
     2
 10
1925.779694
 20
616.366028
 40
6.153702
 50
156.825356
 51
211.065581
  0
LINE
  8
CSLAYER1
  6
CONTINUOUS
 62
     2
 10
1920.508573
 20
613.190602
 11
1924.131999
 21
613.190602
  0
LINE
  8
CSLAYER1
  6
CONTINUOUS
 62
     2
 10
1920.508573
 20
619.541455
 11
1924.648101
 21
619.541455
  0
LINE
  8
CSLAYER1
  6
CONTINUOUS
 62
     2
 10
1916.106010
 20
616.887198
 11
1919.648101
 21
616.887198
  0
LINE
  8
CSLAYER1
  6
CONTINUOUS
 62
     2
 10
1916.106010
 20
616.240820
 11
1917.712371
 21
616.240820
  0
LINE
  8
CSLAYER1
  6
CONTINUOUS
 62
     2
 10
1917.712371
 20
616.887198
 11
1917.712371
 21
596.214949
  0
LINE
  8
CSLAYER1
  6
CONTINUOUS
 62
     2
 10
1917.712371
 20
616.240820
 11
1918.847223
 21
616.887198
  0
LINE
  8
CSLAYER1
  6
CONTINUOUS
 62
     2
 10
1900.617667
 20
593.560692
 11
1915.245538
 21
593.560692
  0
LINE
  8
CSLAYER1
  6
CONTINUOUS
 62
     2
 10
1899.757195
 20
595.051074
 11
1900.617667
 21
593.560692
  0
LINE
  8
CSLAYER1
  6
CONTINUOUS
 62
     2
 10
1916.106010
 20
595.051074
 11
1915.245538
 21
593.560692
  0
LINE
  8
CSLAYER1
  6
CONTINUOUS
 62
     2
 10
1900.617667
 20
599.911545
 11
1915.245538
 21
599.911545
  0
ARC
  8
CSLAYER1
  6
CONTINUOUS
 62
     2
 10
1905.888789
 20
596.736119
 40
6.153702
 50
148.934419
 51
203.174644
  0
ARC
  8
CSLAYER1
  6
CONTINUOUS
 62
     2
 10
1909.974416
 20
596.736119
 40
6.153702
 50
-23.174644
 51
31.065581
  0
LINE
  8
CSLAYER1
  6
CONTINUOUS
 62
     2
 10
1899.648101
 20
595.051074
 11
1899.757195
 21
595.051074
  0
ARC
  8
CSLAYER1
  6
CONTINUOUS
 62
     2
 10
1899.648101
 20
598.051074
 40
3.000000
 50
180.000000
 51
270.000000
  0
LINE
  8
CSLAYER1
  6
CONTINUOUS
 62
     2
 10
1919.648101
 20
595.051074
 11
1920.508573
 21
593.560692
  0
ARC
  8
CSLAYER1
  6
CONTINUOUS
 62
     2
 10
1925.779694
 20
596.736119
 40
6.153702
 50
148.934419
 51
203.174644
  0
LINE
  8
CSLAYER1
  6
CONTINUOUS
 62
     2
 10
1920.508573
 20
599.911545
 11
1921.795857
 21
599.911545
  0
LINE
  8
CSLAYER1
  6
CONTINUOUS
 62
     2
 10
1920.508573
 20
593.560692
 11
1920.678572
 21
593.560692
  0
LINE
  8
CSLAYER1
  6
CONTINUOUS
 62
     2
 10
1916.106010
 20
596.214949
 11
1919.648101
 21
596.214949
  0
LINE
  8
CSLAYER1
  6
CONTINUOUS
 62
     2
 10
1916.106010
 20
596.861327
 11
1917.712371
 21
596.861327
  0
LINE
  8
CSLAYER1
  6
CONTINUOUS
 62
     2
 10
1917.712371
 20
596.861327
 11
1918.847223
 21
596.214949
  0
LINE
  8
CSLAYER1
  6
CONTINUOUS
 62
     2
 10
2057.048101
 20
621.551074
 11
2057.048101
 21
591.251074
  0
LINE
  8
CSLAYER1
  6
CONTINUOUS
 62
     2
 10
2058.348101
 20
627.551074
 11
2015.328780
 21
627.551074
  0
LINE
  8
CSLAYER1
  6
CONTINUOUS
 62
     2
 10
2058.348101
 20
621.551074
 11
2010.298149
 21
621.551074
  0
LINE
  8
CSLAYER1
  6
CONTINUOUS
 62
     2
 10
2058.348101
 20
627.551074
 11
2058.348101
 21
621.551074
  0
LINE
  8
CSLAYER1
  6
CONTINUOUS
 62
     2
 10
1923.348101
 20
627.551074
 11
1923.348101
 21
621.551074
  0
ARC
  8
CSLAYER1
  6
CONTINUOUS
 62
     2
 10
2059.198101
 20
574.400939
 40
25.650135
 50
41.065538
 51
90.000000
  0
ARC
  8
CSLAYER1
  6
CONTINUOUS
 62
     2
 10
2059.198101
 20
574.400939
 40
28.654497
 50
36.018400
 51
90.999820
  0
ARC
  8
CSLAYER1
  6
CONTINUOUS
 62
     2
 10
2059.198101
 20
574.400939
 40
35.653641
 50
28.203609
 51
90.803532
  0
ARC
  8
CSLAYER1
  6
CONTINUOUS
 62
     2
 10
2059.198101
 20
574.400939
 40
38.650135
 50
25.846761
 51
90.000000
  0
LINE
  8
CSLAYER1
  6
CONTINUOUS
 62
     2
 10
1894.130593
 20
602.751074
 11
1896.648101
 21
602.751074
  0
LINE
  8
CSLAYER1
  6
CONTINUOUS
 62
     2
 10
2058.198101
 20
617.051074
 11
2057.048101
 21
617.051074
  0
LINE
  8
CSLAYER1
  6
CONTINUOUS
 62
     2
 10
2059.198101
 20
616.051074
 11
2059.198101
 21
610.054580
  0
ARC
  8
CSLAYER1
  6
CONTINUOUS
 62
     2
 10
2058.198101
 20
616.051074
 40
1.000000
 50
0.000000
 51
90.000000
  0
LINE
  8
CSLAYER1
  6
CONTINUOUS
 62
     2
 10
2058.198101
 20
596.051074
 11
2057.198101
 21
596.051074
  0
ARC
  8
CSLAYER1
  6
CONTINUOUS
 62
     2
 10
2058.198101
 20
597.051074
 40
1.000000
 50
270.000000
 51
360.000000
  0
LINE
  8
CSLAYER1
  6
CONTINUOUS
 62
     2
 10
2058.098101
 20
613.051074
 11
2057.198101
 21
613.051074
  0
LINE
  8
CSLAYER1
  6
CONTINUOUS
 62
     2
 10
2058.698101
 20
612.451074
 11
2058.698101
 21
600.651074
  0
ARC
  8
CSLAYER1
  6
CONTINUOUS
 62
     2
 10
2058.098101
 20
612.451074
 40
0.600000
 50
0.000000
 51
90.000000
  0
LINE
  8
CSLAYER1
  6
CONTINUOUS
 62
     2
 10
2058.098101
 20
600.051074
 11
2057.198101
 21
600.051074
  0
ARC
  8
CSLAYER1
  6
CONTINUOUS
 62
     2
 10
2058.098101
 20
600.651074
 40
0.600000
 50
270.000000
 51
360.000000
  0
LINE
  8
CSLAYER1
  6
CONTINUOUS
 62
     2
 10
2059.198101
 20
603.055436
 11
2059.198101
 21
597.051074
  0
ARC
  8
CSLAYER1
  6
CENTER
 62
     5
 10
2059.198101
 20
574.400939
 40
32.153641
 50
31.604352
 51
89.153864
  0
LINE
  8
CSLAYER1
  6
CONTINUOUS
 62
     2
 10
1926.658392
 20
627.551074
 11
1923.348101
 21
627.551074
  0
LINE
  8
CSLAYER1
  6
CONTINUOUS
 62
     2
 10
1925.602831
 20
621.551074
 11
1923.348101
 21
621.551074
  0
ARC
  8
CSLAYER1
  6
CONTINUOUS
 62
     2
 10
1894.130593
 20
502.751074
 40
100.000000
 50
90.000000
 51
141.188616
  0
ARC
  8
CSLAYER1
  6
CONTINUOUS
 62
     2
 10
1894.130593
 20
502.751074
 40
107.600000
 50
90.000000
 51
141.188616
  0
ARC
  8
CSLAYER1
  6
CENTER
 62
     5
 10
1894.130593
 20
502.751074
 40
103.800000
 50
90.000000
 51
141.188616
  0
LINE
  8
CSLAYER1
  6
CONTINUOUS
 62
     5
 10
5064.746702
 20
3063.566136
 11
3980.554436
 21
3063.566136
  0
LINE
  8
CSLAYER1
  6
CONTINUOUS
 62
     5
 10
5064.746702
 20
2967.310139
 11
3980.554436
 21
2967.310139
  0
LINE
  8
CSLAYER1
  6
CONTINUOUS
 62
     5
 10
5064.746702
 20
2871.054141
 11
3980.554436
 21
2871.054141
  0
LINE
  8
CSLAYER1
  6
CONTINUOUS
 62
     5
 10
5064.746702
 20
2774.798144
 11
3981.866729
 21
2774.798144
  0
LINE
  8
CSLAYER1
  6
CONTINUOUS
 62
     5
 10
5064.746702
 20
2678.542146
 11
3980.554436
 21
2678.542146
  0
LINE
  8
CSLAYER1
  6
CONTINUOUS
 62
     5
 10
5064.746702
 20
2582.286149
 11
3980.554436
 21
2582.286149
  0
LINE
  8
CSLAYER1
  6
CONTINUOUS
 62
     5
 10
5064.746702
 20
2486.030151
 11
3980.554436
 21
2486.030151
  0
LINE
  8
CSLAYER1
  6
CONTINUOUS
 62
     5
 10
5064.746702
 20
2389.774153
 11
3980.554436
 21
2389.774153
  0
LINE
  8
CSLAYER1
  6
CONTINUOUS
 62
     5
 10
5064.746702
 20
2293.518156
 11
3980.554436
 21
2293.518156
  0
TEXT
  8
CSLAYER1
 62
     5
 10
4274.923168
 20
3183.613361
 40
60.159996
 41
0.857143
  1
仕   様
 50
0.000000
 51
0.000000
  7
EASYDRAW_FONT
 72
     5
 11
4515.563160
 21
3183.613361
  0
TEXT
  8
CSLAYER1
 62
     5
 10
3996.737587
 20
3075.933186
 40
60.159996
 41
0.847059
  1
型    式
 50
0.000000
 51
0.000000
  7
EASYDRAW_FONT
 72
     5
 11
4285.505577
 21
3075.933186
  0
TEXT
  8
CSLAYER1
 62
     5
 10
3994.000282
 20
2891.708088
 40
60.159996
 41
0.847059
  1
テーブル寸法
 50
0.000000
 51
0.000000
  7
EASYDRAW_FONT
 72
     5
 11
4282.768272
 21
2891.708088
  0
TEXT
  8
CSLAYER1
 62
     5
 10
3996.737587
 20
2796.860920
 40
60.159996
 41
0.847059
  1
テーブル高サ
 50
0.000000
 51
0.000000
  7
EASYDRAW_FONT
 72
     5
 11
4285.505577
 21
2796.860920
  0
TEXT
  8
CSLAYER1
 62
     5
 10
3998.913403
 20
2699.276936
 40
60.159996
 41
0.857143
  1
ストローク
 50
0.000000
 51
0.000000
  7
EASYDRAW_FONT
 72
     5
 11
4239.553394
 21
2699.276936
  0
TEXT
  8
CSLAYER1
 62
     5
 10
3998.001293
 20
2601.692951
 40
60.159996
 41
0.857143
  1
全   長
 50
0.000000
 51
0.000000
  7
EASYDRAW_FONT
 72
     5
 11
4238.641285
 21
2601.692951
  0
TEXT
  8
CSLAYER1
 62
     5
 10
4001.417309
 20
2502.653889
 40
60.159996
 41
0.857143
  1
全   巾
 50
0.000000
 51
0.000000
  7
EASYDRAW_FONT
 72
     5
 11
4242.057301
 21
2502.653889
  0
TEXT
  8
CSLAYER1
 62
     5
 10
3999.074047
 20
2406.569904
 40
60.159996
 41
0.857143
  1
全   高
 50
0.000000
 51
0.000000
  7
EASYDRAW_FONT
 72
     5
 11
4239.714039
 21
2406.569904
  0
TEXT
  8
CSLAYER1
 62
     5
 10
3999.074047
 20
2312.831135
 40
60.159996
 41
0.857143
  1
リフト方式
 50
0.000000
 51
0.000000
  7
EASYDRAW_FONT
 72
     5
 11
4239.714039
 21
2312.831135
  0
TEXT
  8
CSLAYER1
 62
     5
 10
4958.664482
 20
2977.925373
 40
60.159996
 41
0.960000
  1
Ｋｇ
 50
0.000000
 51
0.000000
  7
EASYDRAW_FONT
 72
     5
 11
5054.920479
 21
2977.925373
  0
TEXT
  8
CSLAYER1
 62
     5
 10
4877.721157
 20
2904.013264
 40
60.159996
 41
1.200000
  1
Ｗ
 50
0.000000
 51
0.000000
  7
EASYDRAW_FONT
 72
     5
 11
4925.849155
 21
2904.013264
  0
TEXT
  8
CSLAYER1
 62
     5
 10
4613.553188
 20
2905.833088
 40
60.159996
 41
1.200000
  1
Ｌ
 50
0.000000
 51
0.000000
  7
EASYDRAW_FONT
 72
     5
 11
4661.681187
 21
2905.833088
  0
TEXT
  8
CSLAYER1
 62
     5
 10
4406.713524
 20
2314.266193
 40
60.159996
 41
0.827586
  1
電 動 ボールネジ式
 50
0.000000
 51
0.000000
  7
EASYDRAW_FONT
 72
     5
 11
4887.993507
 21
2314.266193
  0
TEXT
  8
CSLAYER1
 62
     5
 10
4954.883232
 20
2881.513264
 40
60.159996
 41
0.960000
  1
mm
 50
0.000000
 51
0.000000
  7
EASYDRAW_FONT
 72
     5
 11
5051.139229
 21
2881.513264
  0
TEXT
  8
CSLAYER1
 62
     5
 10
4954.883232
 20
2790.772541
 40
60.159996
 41
0.960000
  1
mm
 50
0.000000
 51
0.000000
  7
EASYDRAW_FONT
 72
     5
 11
5051.139229
 21
2790.772541
  0
TEXT
  8
CSLAYER1
 62
     5
 10
4949.211845
 20
2694.360920
 40
60.159996
 41
0.960000
  1
mm
 50
0.000000
 51
0.000000
  7
EASYDRAW_FONT
 72
     5
 11
5045.467842
 21
2694.360920
  0
TEXT
  8
CSLAYER1
 62
     5
 10
4949.211845
 20
2592.276936
 40
60.159996
 41
0.960000
  1
mm
 50
0.000000
 51
0.000000
  7
EASYDRAW_FONT
 72
     5
 11
5045.467842
 21
2592.276936
  0
TEXT
  8
CSLAYER1
 62
     5
 10
4945.431572
 20
2501.536213
 40
60.159996
 41
0.960000
  1
mm
 50
0.000000
 51
0.000000
  7
EASYDRAW_FONT
 72
     5
 11
5041.687569
 21
2501.536213
  0
TEXT
  8
CSLAYER1
 62
     5
 10
4945.431572
 20
2405.123127
 40
60.159996
 41
0.960000
  1
mm
 50
0.000000
 51
0.000000
  7
EASYDRAW_FONT
 72
     5
 11
5041.687569
 21
2405.123127
  0
LINE
  8
CSLAYER1
  6
CONTINUOUS
 62
     5
 10
4557.754950
 20
3159.822134
 11
4244.342448
 21
3159.822134
  0
LINE
  8
CSLAYER1
  6
CONTINUOUS
 62
     5
 10
4557.754950
 20
3171.854134
 11
4244.342448
 21
3171.854134
  0
TEXT
  8
CSLAYER1
 62
     5
 10
4718.764648
 20
2984.646973
 40
60.000000
 41
0.975000
  1
５００
 50
0.000000
 51
0.000000
  7
EASYDRAW_FONT
 72
     5
 11
4874.764648
 21
2984.646973
  0
TEXT
  8
CSLAYER1
 62
     5
 10
4397.314453
 20
2889.002441
 40
60.000000
 41
0.923077
  1
１０５０　×６００
 50
0.000000
 51
0.000000
  7
EASYDRAW_FONT
 72
     5
 11
4877.314453
 21
2889.002441
  0
TEXT
  8
CSLAYER1
 62
     5
 10
4452.919434
 20
2791.304199
 40
60.000000
 41
0.926087
  1
４００～１６００
 50
0.000000
 51
0.000000
  7
EASYDRAW_FONT
 72
     5
 11
4878.919434
 21
2791.304199
  0
TEXT
  8
CSLAYER1
 62
     5
 10
4675.461914
 20
2694.959961
 40
60.000000
 41
0.954545
  1
１２００
 50
0.000000
 51
0.000000
  7
EASYDRAW_FONT
 72
     5
 11
4885.461914
 21
2694.959961
  0
TEXT
  8
CSLAYER1
 62
     5
 10
4672.250488
 20
2600.756348
 40
60.000000
 41
0.954545
  1
１０５０
 50
0.000000
 51
0.000000
  7
EASYDRAW_FONT
 72
     5
 11
4882.250488
 21
2600.756348
  0
TEXT
  8
CSLAYER1
 62
     5
 10
4730.294922
 20
2502.270996
 40
60.000000
 41
0.975000
  1
６００
 50
0.000000
 51
0.000000
  7
EASYDRAW_FONT
 72
     5
 11
4886.294922
 21
2502.270996
  0
TEXT
  8
CSLAYER1
 62
     5
 10
4727.083496
 20
2410.208496
 40
60.000000
 41
0.975000
  1
４００
 50
0.000000
 51
0.000000
  7
EASYDRAW_FONT
 72
     5
 11
4883.083496
 21
2410.208496
  0
TEXT
  8
CSLAYER2
 62
     5
 10
4342.684998
 20
3081.788898
 40
55.851891
 41
0.955718
  1
ＧＬＩ－５００－０６１０Ｗ
 50
0.000000
 51
0.000000
  7
EASYDRAW_FONT
 72
     5
 11
5018.815002
 21
3081.788898
  0
LINE
  8
CSLAYER1
  6
PHANTOM
 62
     5
 10
1896.648101
 20
924.451074
 11
2946.648101
 21
924.451074
  0
LINE
  8
CSLAYER1
  6
PHANTOM
 62
     5
 10
1896.648101
 20
924.451074
 11
1896.648101
 21
871.451074
  0
LINE
  8
CSLAYER1
  6
CONTINUOUS
 62
     5
 10
1913.848101
 20
897.251074
 11
1947.848101
 21
897.251074
  0
LINE
  8
CSLAYER1
  6
PHANTOM
 62
     5
 10
1896.648101
 20
871.451074
 11
2946.648101
 21
871.451074
  0
LINE
  8
CSLAYER1
  6
CONTINUOUS
 62
     5
 10
1930.848101
 20
914.251074
 11
1930.848101
 21
880.251074
  0
LINE
  8
CSLAYER1
  6
PHANTOM
 62
     5
 10
2946.648101
 20
924.451074
 11
2946.648101
 21
871.451074
  0
LINE
  8
CSLAYER1
  6
CONTINUOUS
 62
     5
 10
1922.155270
 20
1529.164343
 11
2003.093138
 21
1529.164343
  0
LINE
  8
CSLAYER1
  6
CONTINUOUS
 62
     5
 10
1962.559100
 20
1571.481117
 11
1962.559100
 21
1529.164343
  0
TEXT
  8
CSLAYER1
 62
     4
 10
3995.167480
 20
2129.559570
 40
60.000000
 41
1.036364
  1
操作方式
 50
0.000000
 51
0.000000
  7
EASYDRAW_FONT
 72
     5
 11
4223.167480
 21
2129.559570
  0
TEXT
  8
CSLAYER1
 62
     4
 10
4417.629883
 20
2121.619629
 40
60.000000
 41
1.020000
  1
フットスイッチ
 50
0.000000
 51
0.000000
  7
EASYDRAW_FONT
 72
     5
 11
4825.629883
 21
2121.619629
  0
LINE
  8
CSLAYER1
  6
CONTINUOUS
 62
     5
 10
5061.863211
 20
2111.520152
 11
3980.554436
 21
2111.520152
  0
LINE
  8
CSLAYER1
  6
CONTINUOUS
 62
     5
 10
5061.863211
 20
2015.520154
 11
3980.554436
 21
2015.520154
  0
TEXT
  8
CSLAYER1
 62
     4
 10
3997.314453
 20
2030.450684
 40
60.000000
 41
0.872727
  1
モーター
 50
0.000000
 51
0.000000
  7
EASYDRAW_FONT
 72
     5
 11
4189.314453
 21
2030.450684
  0
LINE
  8
CSLAYER1
  6
CONTINUOUS
 62
     5
 10
5061.863211
 20
1919.520156
 11
3980.554436
 21
1919.520156
  0
LINE
  8
CSLAYER1
  6
CONTINUOUS
 62
     5
 10
5061.863211
 20
1727.520161
 11
3977.346682
 21
1727.520161
  0
LINE
  8
CSLAYER1
  6
CONTINUOUS
 62
     5
 10
5061.863211
 20
1631.520164
 11
3980.554436
 21
1631.520164
  0
LINE
  8
CSLAYER1
  6
CONTINUOUS
 62
     5
 10
5061.863211
 20
1535.520166
 11
3980.554436
 21
1535.520166
  0
TEXT
  8
CSLAYER1
 62
     4
 10
4001.186523
 20
1552.203125
 40
60.000000
 41
0.857143
  1
自  　重
 50
0.000000
 51
0.000000
  7
EASYDRAW_FONT
 72
     5
 11
4241.186523
 21
1552.203125
  0
TEXT
  8
CSLAYER1
 62
     4
 10
4005.610352
 20
1456.096191
 40
60.000000
 41
0.847059
  1
塗　装　色 
 50
0.000000
 51
0.000000
  7
EASYDRAW_FONT
 72
     5
 11
4293.610352
 21
1456.096191
  0
TEXT
  8
CSLAYER1
 62
     4
 10
4343.973633
 20
2031.825684
 40
60.000000
 41
0.819512
  1
３相ＡＣ２００Ｖ、0.4ＫＷ
 50
0.000000
 51
0.000000
  7
EASYDRAW_FONT
 72
     5
 11
5015.973633
 21
2031.825684
  0
TEXT
  8
CSLAYER1
 62
     4
 10
4540.448730
 20
1936.060669
 40
60.000000
 41
0.840000
  1
長サ  ４ ｍ
 50
0.000000
 51
0.000000
  7
EASYDRAW_FONT
 72
     5
 11
4876.448730
 21
1936.060669
  0
TEXT
  8
CSLAYER1
 62
     3
 10
4709.408203
 20
1555.051758
 40
60.000000
 41
0.847059
  1
１７３　Ｋｇ
 50
0.000000
 51
0.000000
  7
EASYDRAW_FONT
 72
     5
 11
4997.408203
 21
1555.051758
  0
LINE
  8
CSLAYER1
  6
CONTINUOUS
 62
     5
 10
5061.863211
 20
1823.520159
 11
3980.554436
 21
1823.520159
  0
TEXT
  8
CSLAYER1
 62
     4
 10
3998.688965
 20
1935.474731
 40
60.000000
 41
0.942857
  1
電源コード
 50
0.000000
 51
0.000000
  7
EASYDRAW_FONT
 72
     5
 11
4262.688965
 21
1935.474731
  0
TEXT
  8
CSLAYER1
 62
     4
 10
3999.331823
 20
1831.792313
 40
71.595306
 41
0.593339
  1
昇降時間 ３６秒（50HZ） ３０秒(60HZ)
 50
0.000000
 51
0.000000
  7
EASYDRAW_FONT
 72
     5
 11
5004.699427
 21
1831.792313
  0
TEXT
  8
CSLAYER1
 62
     4
 10
4001.283203
 20
1643.627930
 40
60.000000
 41
0.912766
  1
上昇端、下降端リミットスイッチ付
 50
0.000000
 51
0.000000
  7
EASYDRAW_FONT
 72
     5
 11
4859.283203
 21
1643.627930
  0
TEXT
  8
CSLAYER1
 62
     4
 10
4004.053087
 20
1740.622879
 40
68.819672
 41
0.605080
  1
最大使用頻度８０回／時間・最大起動頻度１０回／分
 50
0.000000
 51
0.000000
  7
EASYDRAW_FONT
 72
     5
 11
4989.566054
 21
1740.622879
  0
LINE
  8
CSLAYER1
  6
CONTINUOUS
 62
     5
 10
5061.863211
 20
2197.518158
 11
3980.554436
 21
2197.518158
  0
TEXT
  8
CSLAYER1
 62
     4
 10
4295.296875
 20
2215.119141
 40
60.000000
 41
0.825000
  1
マグネットスイッチ制御
 50
0.000000
 51
0.000000
  7
EASYDRAW_FONT
 72
     5
 11
4823.296875
 21
2215.119141
  0
TEXT
  8
CSLAYER1
 62
     4
 10
4000.716309
 20
2212.135254
 40
60.000000
 41
0.872727
  1
制御方式
 50
0.000000
 51
0.000000
  7
EASYDRAW_FONT
 72
     5
 11
4192.716309
 21
2212.135254
  0
LINE
  8
CSLAYER1
  6
CONTINUOUS
 62
     3
 10
609.066683
 20
2104.607557
 11
609.066683
 21
591.251074
  0
LINE
  8
CSLAYER1
  6
CONTINUOUS
 62
     7
 10
895.066683
 20
625.437388
 11
895.369032
 21
625.437388
  0
LINE
  8
CSLAYER1
  6
CONTINUOUS
 62
     4
 10
1941.668402
 20
652.634356
 11
1963.154419
 21
665.415243
  0
LINE
  8
CSLAYER1
  6
CONTINUOUS
 62
     4
 10
1954.449289
 20
631.148339
 11
1975.935306
 21
643.929226
  0
LINE
  8
CSLAYER1
  6
CONTINUOUS
 62
     4
 10
1941.668402
 20
652.634356
 11
1954.449289
 21
631.148339
  0
LINE
  8
CSLAYER1
  6
CONTINUOUS
 62
     5
 10
1939.306461
 20
681.055601
 11
1965.217344
 21
637.496677
  0
LINE
  8
CSLAYER1
  6
CONTINUOUS
 62
     4
 10
1963.154419
 20
665.415243
 11
1975.960352
 21
643.887120
  0
INSERT
  8
CSLAYER1
  2
BLKF0004
 10
0.0
 20
0.0
 30
0.0
  0
INSERT
  8
CSLAYER1
  2
BLKF0005
 10
0.0
 20
0.0
 30
0.0
  0
LINE
  8
CSLAYER1
  6
CONTINUOUS
 62
     4
 10
1947.182312
 20
677.595693
 11
1952.618730
 21
668.456502
  0
LINE
  8
CSLAYER1
  6
CONTINUOUS
 62
     5
 10
1946.322872
 20
677.084458
 11
1951.759290
 21
667.945267
  0
LINE
  8
CSLAYER1
  6
CONTINUOUS
 62
     5
 10
1939.447346
 20
672.994574
 11
1944.883764
 21
663.855383
  0
LINE
  8
CSLAYER1
  6
CONTINUOUS
 62
     4
 10
1938.587906
 20
672.483338
 11
1944.024323
 21
663.344147
  0
LINE
  8
CSLAYER1
  6
CONTINUOUS
 62
     3
 10
1896.648101
 20
3207.805461
 11
2946.648101
 21
3207.805461
  0
LINE
  8
CSLAYER1
  6
CONTINUOUS
 62
     3
 10
1896.648101
 20
2607.805461
 11
2946.648101
 21
2607.805461
  0
LINE
  8
CSLAYER1
  6
CONTINUOUS
 62
     3
 10
1067.066683
 20
2157.607557
 11
1067.066683
 21
2104.607557
  0
LINE
  8
CSLAYER1
  6
CONTINUOUS
 62
     3
 10
467.066683
 20
2157.607557
 11
467.066683
 21
2104.607557
  0
DIMENSION
  8
CSLAYER1
 62
     3
  2
*D0004
 10
3105.819812
 20
3207.805461
 11
3090.819824
 21
2907.805664
 13
2946.648101
 23
2607.805461
 14
2946.648101
 24
3207.805461
 50
90.000000
 70
1
  0
TEXT
  8
CSLAYER1
 62
     5
 10
656.145949
 20
331.823383
 40
38.994835
 41
1.022858
  1
取付穴ピッチ
 50
0.000000
 51
0.000000
  7
EASYDRAW_FONT
 72
     5
 11
882.167528
 21
331.823383
  0
INSERT
  8
CSLAYER1
  2
EASYDRAWDIM0000
 10
0.0
 20
0.0
 30
0.0
  0
DIMENSION
  8
CSLAYER1
 62
     3
  2
*D0005
 10
1017.066683
 20
229.409869
 11
767.066711
 21
244.409698
 13
517.066683
 23
526.251074
 14
1017.066683
 24
526.251074
 52
270.000000
 70
1
  0
DIMENSION
  8
CSLAYER1
 62
     3
  2
*D0006
 10
547.066683
 20
379.923276
 11
767.354614
 21
390.965820
 13
987.066683
 23
379.923276
 14
547.066683
 24
379.923276
 52
0.000000
 70
1
  0
LINE
  8
CSLAYER1
  6
DASHED
 62
     3
 10
522.393992
 20
532.251074
 11
1012.386294
 21
532.251074
  0
INSERT
  8
CSLAYER1
  2
EASYDRAWDIM0001
 10
0.0
 20
0.0
 30
0.0
  0
DIMENSION
  8
CSLAYER1
 62
     3
  2
*D0007
 10
1946.848101
 20
395.925113
 11
1835.651611
 21
312.253937
 13
1896.848101
 23
266.261596
 14
1946.848101
 24
526.251074
  0
DIMENSION
  8
CSLAYER1
 62
     3
  2
*D0008
 10
2446.848101
 20
395.925113
 11
2196.848145
 21
410.925293
 13
1946.848101
 23
526.251074
 14
2446.848101
 24
526.251074
 52
270.000000
 70
1
  0
TEXT
  8
CSLAYER1
 62
     5
 10
2095.185499
 20
348.048969
 40
38.994835
 41
1.022858
  1
取付穴ピッチ
 50
0.000000
 51
0.000000
  7
EASYDRAW_FONT
 72
     5
 11
2321.207079
 21
348.048969
  0
LINE
  8
CSLAYER1
  6
CONTINUOUS
 62
     6
 10
1818.188003
 20
395.925113
 11
1896.848101
 21
395.925113
  0
LINE
  8
CSLAYER1
  6
CONTINUOUS
 62
     6
 10
1896.848101
 20
395.925113
 11
1853.381439
 21
407.571970
  0
LINE
  8
CSLAYER1
  6
CONTINUOUS
 62
     6
 10
1896.848101
 20
395.925113
 11
1853.381439
 21
384.278256
  0
DIMENSION
  8
CSLAYER1
 62
     3
  2
*D0009
 10
2946.648101
 20
266.261596
 11
2421.748047
 21
281.261749
 13
1896.848101
 23
526.251074
 14
2946.648101
 24
526.251074
 52
270.000000
 70
1
  0
LINE
  8
CSLAYER1
  6
CONTINUOUS
 62
     6
 10
2446.848101
 20
561.519485
 11
2446.848101
 21
526.251074
  0
LINE
  8
CSLAYER1
  6
CONTINUOUS
 62
     6
 10
1946.848101
 20
556.243489
 11
1946.848101
 21
526.251074
  0
DIMENSION
  8
CSLAYER1
 62
     3
  2
*D0010
 10
1098.827502
 20
532.251074
 11
1129.196899
 21
612.384766
 13
1017.066683
 23
526.251074
 14
1012.386294
 24
532.251074
 50
90.000000
  0
LINE
  8
CSLAYER1
  6
CONTINUOUS
 62
     5
 10
547.066683
 20
543.418445
 11
547.066683
 21
364.923276
  0
LINE
  8
CSLAYER1
  6
CONTINUOUS
 62
     5
 10
987.066683
 20
543.418445
 11
987.066683
 21
364.923276
  0
LINE
  8
CSLAYER1
  6
CONTINUOUS
 62
     3
 10
1647.524185
 20
2869.305461
 11
1436.986440
 21
2869.305461
  0
LINE
  8
CSLAYER1
  6
CONTINUOUS
 62
     3
 10
1648.056822
 20
2876.305461
 11
1436.986440
 21
2876.305461
  0
ARC
  8
CSLAYER1
  6
CONTINUOUS
 62
     3
 10
1641.219425
 20
2829.805461
 40
40.000000
 50
-243.817766
 51
80.931278
  0
ARC
  8
CSLAYER1
  6
CONTINUOUS
 62
     3
 10
1641.219425
 20
2829.805461
 40
47.000000
 50
-229.860785
 51
81.635125
  0
LINE
  8
CSLAYER1
  6
CONTINUOUS
 62
     3
 10
1896.648101
 20
2869.305461
 11
1671.211041
 21
2869.305461
  0
LINE
  8
CSLAYER1
  6
CONTINUOUS
 62
     3
 10
1896.648101
 20
2876.305461
 11
1660.504150
 21
2876.305461
  0
TEXT
  8
CSLAYER1
 62
     5
 10
854.028198
 20
2420.977295
 40
60.000000
 41
1.020000
  1
コード長サ２ｍ
 50
0.000000
 51
0.000000
  7
EASYDRAW_FONT
 72
     5
 11
1262.028198
 21
2420.977295
  0
TEXT
  8
CSLAYER1
 62
     5
 10
3995.167480
 20
2985.349609
 40
60.000000
 41
1.036364
  1
積載荷重
 50
0.000000
 51
0.000000
  7
EASYDRAW_FONT
 72
     5
 11
4223.167480
 21
2985.349609
  0
LINE
  8
CSLAYER1
  6
CONTINUOUS
 62
     5
 10
5061.863211
 20
1439.520169
 11
3980.554436
 21
1439.520169
  0
TEXT
  8
CSLAYER1
 62
     4
 10
4468.507324
 20
1455.526978
 40
60.000000
 41
0.926087
  1
　１０Ｒ４／１３
 50
0.000000
 51
0.000000
  7
EASYDRAW_FONT
 72
     5
 11
4894.507324
 21
1455.526978
  0
INSERT
  8
CSLAYER1
  2
BLKF0006
 10
0.0
 20
0.0
 30
0.0
  0
ENDSEC
  0
EOF
