  0
SECTION
  2
HEADER
  9
$ACADVER
  1
AC1006
  9
$INSBASE
 10
250.194328
 20
1919.401261
 30
0.0
  9
$EXTMIN
 10
250.194328
 20
1919.401261
  9
$EXTMAX
 10
3890.194328
 20
4489.401261
  9
$LIMMIN
 10
250.194328
 20
1919.401261
  9
$LIMMAX
 10
3890.194328
 20
4489.401261
  9
$VIEWCTR
 10
2070.194328
 20
3204.401261
  9
$VIEWSIZE
 40
2570.000000
  9
$SNAPMODE
 70
     0
  9
$SNAPUNIT
 10
1.0
 20
1.0
  9
$SNAPBASE
 10
0.0
 20
0.0
  9
$SNAPANG
 50
0.0
  9
$SNAPSTYLE
 70
     0
  9
$SNAPISOPAIR
 70
     0
  9
$GRIDMODE
 70
     0
  9
$GRIDUNIT
 10
0.0
 20
0.0
  9
$ORTHOMODE
 70
     0
  9
$REGENMODE
 70
     1
  9
$FILLMODE
 70
     1
  9
$QTEXTMODE
 70
     0
  9
$DRAGMODE
 70
     2
  9
$LTSCALE
 40
15.000000
  9
$OSMODE
 70
     0
  9
$ATTMODE
 70
     1
  9
$TEXTSIZE
 40
0.2
  9
$TRACEWID
 40
0.05
  9
$TEXTSTYLE
  7
STANDARD
  9
$CLAYER
  8
CSLAYER1
  9
$CELTYPE
  6
BYLAYER
  9
$CECOLOR
 62
   256
  9
$DIMSCALE
 40
1.0
  9
$DIMASZ
 40
0.18
  9
$DIMEXO
 40
0.0625
  9
$DIMDLI
 40
0.38
  9
$DIMRND
 40
0.0
  9
$DIMDLE
 40
0.0
  9
$DIMEXE
 40
0.18
  9
$DIMTP
 40
0.0
  9
$DIMTM
 40
0.0
  9
$DIMTXT
 40
0.18
  9
$DIMCEN
 40
0.09
  9
$DIMTSZ
 40
0.0
  9
$DIMTOL
 70
     0
  9
$DIMLIM
 70
     0
  9
$DIMTIH
 70
     1
  9
$DIMTOH
 70
     1
  9
$DIMSE1
 70
     0
  9
$DIMSE2
 70
     0
  9
$DIMTAD
 70
     0
  9
$DIMZIN
 70
     0
  9
$DIMBLK
  1

  9
$LUNITS
 70
     2
  9
$LUPREC
 70
     4
  9
$AXISMODE
 70
     0
  9
$AXISUNIT
 10
0.0
 20
0.0
  9
$SKETCHINC
 40
0.1
  9
$FILLETRAD
 40
0.0
  9
$AUNITS
 70
     0
  9
$AUPREC
 70
     0
  9
$MENU
  1
ACAD
  9
$ELEVATION
 40
0.0
  9
$THICKNESS
 40
0.0
  9
$VIEWDIR
 10
0.0
 20
0.0
 30
1.0
  9
$LIMCHECK
 70
     0
  9
$BLIPMODE
 70
     1
  9
$CHAMFERA
 40
0.0
  9
$CHAMFERB
 40
0.0
  9
$FASTZOOM
 70
     1
  9
$SKPOLY
 70
     0
  9
$TDCREATE
 40
2457497.000000
  9
$TDUPDATE
 40
2457497.000000
  9
$TDINDWG
 40
0.0
  9
$TDUSRTIMER
 40
0.0
  9
$USRTIMER
 70
     1
  9
$ANGBASE
 50
0.0
  9
$ANGDIR
 70
     0
  9
$PDMODE
 70
     0
  9
$PDSIZE
 40
0.0
  9
$PLINEWID
 40
0.0
  9
$COORDS
 70
     0
  9
$USERI1
 70
     0
  9
$USERI2
 70
     0
  9
$USERI3
 70
     0
  9
$USERI4
 70
     0
  9
$USERI5
 70
     0
  9
$USERR1
 40
0.0
  9
$USERR2
 40
0.0
  9
$USERR3
 40
0.0
  9
$USERR4
 40
0.0
  9
$USERR5
 40
0.0
  0
ENDSEC
  0
SECTION
  2
TABLES
  0
TABLE
  2
LTYPE
 70
     9
  0
LTYPE
  2
CONTINUOUS
 70
    64
  3
Solid line
 72
    65
 73
     0
 40
0.0
  0
LTYPE
  2
DASHED
 70
    64
  3
__ __ __ __ __ __ __ __ __ __ __ __ __ __ __
 72
    65
 73
     2
 40
0.75
 49
0.5
 49
-0.25
  0
LTYPE
  2
HIDDEN
 70
    64
  3
_ _ _ _ _ _ _ _ _ _ _ _ _ _ _ _ _ _ _ _ _ _ _
 72
    65
 73
     2
 40
0.375
 49
0.25
 49
-0.125
  0
LTYPE
  2
DOT
 70
    64
  3
...............................................
 72
    65
 73
     2
 40
0.25
 49
0.0
 49
-0.25
  0
LTYPE
  2
DASHDOT
 70
    64
  3
__ . __ . __ . __ . __ . __ . __ . __ . __ . __
 72
    65
 73
     4
 40
1.0
 49
0.5
 49
-0.25
 49
0.0
 49
-0.25
  0
LTYPE
  2
DIVIDE
 70
    64
  3
__ . . __ . . __ . . __ . . __ . . __ . . __
 72
    65
 73
     6
 40
1.25
 49
0.5
 49
-0.25
 49
0.0
 49
-0.25
 49
0.0
 49
-0.25
  0
LTYPE
  2
CENTER
 70
    64
  3
____ _ ____ _ ____ _ ____ _ ____ _ ____ _ ____ 
 72
    65
 73
     4
 40
2.0
 49
1.25
 49
-0.25
 49
0.25
 49
-0.25
  0
LTYPE
  2
PHANTOM
 70
    64
  3
______  __  __  ______  __  __  ______  __  __ 
 72
    65
 73
     6
 40
2.5
 49
1.25
 49
-0.25
 49
0.25
 49
-0.25
 49
0.25
 49
-0.25
  0
LTYPE
  2
BORDER
 70
    64
  3
__ __ . __ __ . __ __ . __ __ . __ __ . __ __ .
 72
    65
 73
     6
 40
1.75
 49
0.5
 49
-0.25
 49
0.5
 49
-0.25
 49
0.0
 49
-0.25
  0
ENDTAB
  0
TABLE
  2
LAYER
 70
    16
  0
LAYER
  2
CSLAYER1
 70
    64
 62
     7
  6
CONTINUOUS
  0
LAYER
  2
CSLAYER2
 70
    64
 62
     7
  6
CONTINUOUS
  0
LAYER
  2
CSLAYER3
 70
    64
 62
     7
  6
CONTINUOUS
  0
LAYER
  2
CSLAYER4
 70
    64
 62
     7
  6
CONTINUOUS
  0
LAYER
  2
CSLAYER5
 70
    64
 62
     7
  6
CONTINUOUS
  0
LAYER
  2
CSLAYER6
 70
    64
 62
     7
  6
CONTINUOUS
  0
LAYER
  2
CSLAYER7
 70
    64
 62
     7
  6
CONTINUOUS
  0
LAYER
  2
CSLAYER8
 70
    64
 62
     7
  6
CONTINUOUS
  0
LAYER
  2
CSLAYER9
 70
    64
 62
     7
  6
CONTINUOUS
  0
LAYER
  2
CSLAYER10
 70
    64
 62
     7
  6
CONTINUOUS
  0
LAYER
  2
CSLAYER11
 70
    64
 62
     7
  6
CONTINUOUS
  0
LAYER
  2
CSLAYER12
 70
    64
 62
     7
  6
CONTINUOUS
  0
LAYER
  2
CSLAYER13
 70
    64
 62
     7
  6
CONTINUOUS
  0
LAYER
  2
CSLAYER14
 70
    64
 62
     7
  6
CONTINUOUS
  0
LAYER
  2
CSLAYER15
 70
    64
 62
     7
  6
CONTINUOUS
  0
LAYER
  2
CSLAYER16
 70
    64
 62
     7
  6
CONTINUOUS
  0
ENDTAB
  0
TABLE
  2
STYLE
 70
     1
  0
STYLE
  2
EASYDRAW_FONT
 70
     0
 40
1.0
 41
1.0
 50
0.0
 71
     0
 42
1.0
  3
monotxt
  4
bigfont
  0
ENDTAB
  0
TABLE
  2
VIEW
 70
     0
  0
ENDTAB
  0
ENDSEC
  0
SECTION
  2
BLOCKS
  0
BLOCK
  8
CSLAYER1
  2
*D0000
 70
    65
 10
0.0
 20
0.0
 30
0.0
  0
TEXT
  8
CSLAYER1
 62
     7
 10
2330.408691
 20
429.261383
 40
40.000000
 41
0.843750
  1
155
 50
90.000000
 51
0.000000
  7
EASYDRAW_FONT
 72
     5
 11
2330.408691
 21
519.261383
  0
LINE
  8
CSLAYER1
  6
CONTINUOUS
 62
     5
 10
2188.666797
 20
394.761620
 11
2388.641621
 21
394.761620
  0
LINE
  8
CSLAYER1
  6
CONTINUOUS
 62
     5
 10
2188.666797
 20
549.761620
 11
2288.641621
 21
549.761620
  0
LINE
  8
CSLAYER1
  6
CONTINUOUS
 62
     5
 10
2278.641621
 20
394.761620
 11
2278.641621
 21
549.761620
  0
LINE
  8
CSLAYER1
  6
CONTINUOUS
 62
     5
 10
2278.641621
 20
394.761620
 11
2270.877050
 21
423.739395
  0
LINE
  8
CSLAYER1
  6
CONTINUOUS
 62
     5
 10
2278.641621
 20
394.761620
 11
2286.406192
 21
423.739395
  0
LINE
  8
CSLAYER1
  6
CONTINUOUS
 62
     5
 10
2278.641621
 20
549.761620
 11
2270.877050
 21
520.783845
  0
LINE
  8
CSLAYER1
  6
CONTINUOUS
 62
     5
 10
2278.641621
 20
549.761620
 11
2286.406192
 21
520.783845
  0
ENDBLK
  8
0
  0
BLOCK
  8
CSLAYER1
  2
*D0001
 70
    65
 10
0.0
 20
0.0
 30
0.0
  0
TEXT
  8
CSLAYER1
 62
     7
 10
2268.641602
 20
888.034424
 40
40.000000
 41
0.843750
  1
750
 50
90.000000
 51
0.000000
  7
EASYDRAW_FONT
 72
     5
 11
2268.641602
 21
978.034424
  0
LINE
  8
CSLAYER1
  6
CONTINUOUS
 62
     5
 10
2185.641621
 20
1316.307238
 11
2388.641621
 21
1316.307238
  0
LINE
  8
CSLAYER1
  6
CONTINUOUS
 62
     5
 10
2278.641621
 20
549.761620
 11
2278.641621
 21
1316.307238
  0
LINE
  8
CSLAYER1
  6
CONTINUOUS
 62
     5
 10
2278.641621
 20
549.761620
 11
2270.877050
 21
578.739395
  0
LINE
  8
CSLAYER1
  6
CONTINUOUS
 62
     5
 10
2278.641621
 20
549.761620
 11
2286.406192
 21
578.739395
  0
LINE
  8
CSLAYER1
  6
CONTINUOUS
 62
     5
 10
2278.641621
 20
1316.307238
 11
2270.877050
 21
1287.329464
  0
LINE
  8
CSLAYER1
  6
CONTINUOUS
 62
     5
 10
2278.641621
 20
1316.307238
 11
2286.406192
 21
1287.329464
  0
ENDBLK
  8
0
  0
BLOCK
  8
CSLAYER1
  2
*D0002
 70
    65
 10
0.0
 20
0.0
 30
0.0
  0
TEXT
  8
CSLAYER1
 62
     7
 10
2368.641602
 20
810.534363
 40
40.000000
 41
0.843750
  1
905
 50
90.000000
 51
0.000000
  7
EASYDRAW_FONT
 72
     5
 11
2368.641602
 21
900.534363
  0
LINE
  8
CSLAYER1
  6
CONTINUOUS
 62
     5
 10
2378.641621
 20
394.761620
 11
2378.641621
 21
1316.307238
  0
LINE
  8
CSLAYER1
  6
CONTINUOUS
 62
     5
 10
2378.641621
 20
394.761620
 11
2370.877050
 21
423.739395
  0
LINE
  8
CSLAYER1
  6
CONTINUOUS
 62
     5
 10
2378.641621
 20
394.761620
 11
2386.406192
 21
423.739395
  0
LINE
  8
CSLAYER1
  6
CONTINUOUS
 62
     5
 10
2378.641621
 20
1316.307238
 11
2370.877050
 21
1287.329464
  0
LINE
  8
CSLAYER1
  6
CONTINUOUS
 62
     5
 10
2378.641621
 20
1316.307238
 11
2386.406192
 21
1287.329464
  0
ENDBLK
  8
0
  0
BLOCK
  8
CSLAYER1
  2
*D0003
 70
    65
 10
0.0
 20
0.0
 30
0.0
  0
TEXT
  8
CSLAYER1
 62
     7
 10
1593.654175
 20
1423.249756
 40
40.000000
 41
0.818182
  1
1050
 50
0.000000
 51
0.000000
  7
EASYDRAW_FONT
 72
     5
 11
1713.654175
 21
1423.249756
  0
LINE
  8
CSLAYER1
  6
CONTINUOUS
 62
     5
 10
1128.666797
 20
1323.307238
 11
1128.666797
 21
1423.249663
  0
LINE
  8
CSLAYER1
  6
CONTINUOUS
 62
     5
 10
1128.666797
 20
1413.249663
 11
2178.641621
 21
1413.249663
  0
LINE
  8
CSLAYER1
  6
CONTINUOUS
 62
     5
 10
1128.666797
 20
1413.249663
 11
1157.644571
 21
1421.014235
  0
LINE
  8
CSLAYER1
  6
CONTINUOUS
 62
     5
 10
1128.666797
 20
1413.249663
 11
1157.644571
 21
1405.485092
  0
LINE
  8
CSLAYER1
  6
CONTINUOUS
 62
     5
 10
2178.641621
 20
1413.249663
 11
2149.663846
 21
1421.014235
  0
LINE
  8
CSLAYER1
  6
CONTINUOUS
 62
     5
 10
2178.641621
 20
1413.249663
 11
2149.663846
 21
1405.485092
  0
LINE
  8
CSLAYER1
  6
CONTINUOUS
 62
     5
 10
2178.641621
 20
1323.307238
 11
2178.641621
 21
1423.249663
  0
ENDBLK
  8
0
  0
BLOCK
  8
CSLAYER1
  2
*D0004
 70
    65
 10
0.0
 20
0.0
 30
0.0
  0
TEXT
  8
CSLAYER1
 62
     7
 10
1593.666748
 20
308.635925
 40
40.000000
 41
0.818182
  1
1050
 50
360.000000
 51
0.000000
  7
EASYDRAW_FONT
 72
     5
 11
1713.666748
 21
308.635925
  0
LINE
  8
CSLAYER1
  6
CONTINUOUS
 62
     5
 10
1128.666797
 20
384.761620
 11
1128.666797
 21
288.635827
  0
LINE
  8
CSLAYER1
  6
CONTINUOUS
 62
     5
 10
1128.666797
 20
298.635827
 11
2178.666797
 21
298.635827
  0
LINE
  8
CSLAYER1
  6
CONTINUOUS
 62
     5
 10
1128.666797
 20
298.635827
 11
1157.644571
 21
306.400398
  0
LINE
  8
CSLAYER1
  6
CONTINUOUS
 62
     5
 10
1128.666797
 20
298.635827
 11
1157.644571
 21
290.871255
  0
LINE
  8
CSLAYER1
  6
CONTINUOUS
 62
     5
 10
2178.666797
 20
298.635827
 11
2149.689022
 21
306.400398
  0
LINE
  8
CSLAYER1
  6
CONTINUOUS
 62
     5
 10
2178.666797
 20
298.635827
 11
2149.689022
 21
290.871255
  0
LINE
  8
CSLAYER1
  6
CONTINUOUS
 62
     5
 10
2178.666797
 20
384.761620
 11
2178.666797
 21
288.635827
  0
ENDBLK
  8
0
  0
BLOCK
  8
CSLAYER1
  2
*D0005
 70
    65
 10
0.0
 20
0.0
 30
0.0
  0
TEXT
  8
CSLAYER1
 62
     7
 10
483.805664
 20
308.635925
 40
40.000000
 41
0.843750
  1
500
 50
0.000000
 51
0.000000
  7
EASYDRAW_FONT
 72
     5
 11
573.805664
 21
308.635925
  0
LINE
  8
CSLAYER1
  6
CONTINUOUS
 62
     5
 10
278.805695
 20
384.761620
 11
278.805695
 21
288.635827
  0
LINE
  8
CSLAYER1
  6
CONTINUOUS
 62
     5
 10
778.805695
 20
384.761620
 11
778.805695
 21
288.635827
  0
LINE
  8
CSLAYER1
  6
CONTINUOUS
 62
     5
 10
278.805695
 20
298.635827
 11
778.805695
 21
298.635827
  0
LINE
  8
CSLAYER1
  6
CONTINUOUS
 62
     5
 10
278.805695
 20
298.635827
 11
307.783470
 21
306.400398
  0
LINE
  8
CSLAYER1
  6
CONTINUOUS
 62
     5
 10
278.805695
 20
298.635827
 11
307.783470
 21
290.871255
  0
LINE
  8
CSLAYER1
  6
CONTINUOUS
 62
     5
 10
778.805695
 20
298.635827
 11
749.827921
 21
306.400398
  0
LINE
  8
CSLAYER1
  6
CONTINUOUS
 62
     5
 10
778.805695
 20
298.635827
 11
749.827921
 21
290.871255
  0
ENDBLK
  8
0
  0
BLOCK
  8
CSLAYER1
  2
*D0006
 70
    65
 10
0.0
 20
0.0
 30
0.0
  0
TEXT
  8
CSLAYER1
 62
     7
 10
997.016235
 20
1786.938232
 40
40.000000
 41
0.843750
  1
650
 50
90.000000
 51
0.000000
  7
EASYDRAW_FONT
 72
     5
 11
997.016235
 21
1876.938232
  0
LINE
  8
CSLAYER1
  6
CONTINUOUS
 62
     5
 10
1118.666797
 20
1506.937885
 11
997.016259
 21
1506.937885
  0
LINE
  8
CSLAYER1
  6
CONTINUOUS
 62
     5
 10
1118.666797
 20
2156.937885
 11
997.016259
 21
2156.937885
  0
LINE
  8
CSLAYER1
  6
CONTINUOUS
 62
     5
 10
1007.016259
 20
1506.937885
 11
1007.016259
 21
2156.937885
  0
LINE
  8
CSLAYER1
  6
CONTINUOUS
 62
     5
 10
1007.016259
 20
1506.937885
 11
999.251688
 21
1535.915659
  0
LINE
  8
CSLAYER1
  6
CONTINUOUS
 62
     5
 10
1007.016259
 20
1506.937885
 11
1014.780830
 21
1535.915659
  0
LINE
  8
CSLAYER1
  6
CONTINUOUS
 62
     5
 10
1007.016259
 20
2156.937885
 11
999.251688
 21
2127.960110
  0
LINE
  8
CSLAYER1
  6
CONTINUOUS
 62
     5
 10
1007.016259
 20
2156.937885
 11
1014.780830
 21
2127.960110
  0
ENDBLK
  8
0
  0
BLOCK
  8
CSLAYER1
  2
BLKF0000
 70
   64
 10
0.0
 20
0.0
 30
0.0
  0
ARC
  8
CSLAYER1
  6
CONTINUOUS
 62
     5
 10
2781.909508
 20
79.335220
 40
3.549225
 50
6.429109
 51
73.182034
  0
ARC
  8
CSLAYER1
  6
CONTINUOUS
 62
     5
 10
2778.448538
 20
78.176827
 40
6.907754
 50
310.517970
 51
330.092764
  0
ARC
  8
CSLAYER1
  6
CONTINUOUS
 62
     5
 10
2778.387888
 20
78.542345
 40
7.148321
 50
-32.205059
 51
9.585194
  0
ARC
  8
CSLAYER1
  6
CONTINUOUS
 62
     5
 10
2781.680616
 20
75.781346
 40
4.767514
 50
180.000000
 51
218.514150
  0
ARC
  8
CSLAYER1
  6
CONTINUOUS
 62
     5
 10
2780.393895
 20
75.104206
 40
3.348282
 50
222.781148
 51
319.406906
  0
ARC
  8
CSLAYER1
  6
CONTINUOUS
 62
     5
 10
2783.459537
 20
76.194099
 40
6.559434
 50
94.574282
 51
183.607718
  0
LINE
  8
CSLAYER1
  6
CONTINUOUS
 62
     5
 10
2796.903443
 20
71.077266
 11
2796.046407
 21
68.038683
  0
LINE
  8
CSLAYER1
  6
CONTINUOUS
 62
     5
 10
2798.695428
 20
90.944924
 11
2796.591794
 21
93.671857
  0
LINE
  8
CSLAYER1
  6
CONTINUOUS
 62
     5
 10
2796.591794
 20
93.671857
 11
2789.838440
 21
97.429769
  0
LINE
  8
CSLAYER1
  6
CONTINUOUS
 62
     5
 10
2789.838440
 20
97.429769
 11
2782.936412
 21
98.232640
  0
LINE
  8
CSLAYER1
  6
CONTINUOUS
 62
     5
 10
2764.647187
 20
84.853966
 11
2766.793881
 21
89.818197
  0
LINE
  8
CSLAYER1
  6
CONTINUOUS
 62
     5
 10
2766.756884
 20
89.732640
 11
2768.940576
 21
92.367396
  0
LINE
  8
CSLAYER1
  6
CONTINUOUS
 62
     5
 10
2768.940576
 20
92.367396
 11
2772.244998
 21
94.732640
  0
LINE
  8
CSLAYER1
  6
CONTINUOUS
 62
     5
 10
2782.936412
 20
98.232640
 11
2781.418237
 21
97.465795
  0
LINE
  8
CSLAYER1
  6
CONTINUOUS
 62
     5
 10
2781.418237
 20
97.465795
 11
2777.929858
 21
97.465795
  0
LINE
  8
CSLAYER1
  6
CONTINUOUS
 62
     5
 10
2777.929858
 20
97.465795
 11
2774.374396
 21
95.520354
  0
LINE
  8
CSLAYER1
  6
CONTINUOUS
 62
     5
 10
2774.374396
 20
95.520354
 11
2772.244998
 21
94.732640
  0
LINE
  8
CSLAYER1
  6
CONTINUOUS
 62
     5
 10
2764.647187
 20
84.853966
 11
2763.129640
 21
77.305363
  0
LINE
  8
CSLAYER1
  6
CONTINUOUS
 62
     5
 10
2763.129640
 20
77.305363
 11
2762.936412
 21
74.732640
  0
LINE
  8
CSLAYER1
  6
CONTINUOUS
 62
     5
 10
2765.645795
 20
66.892857
 11
2762.936412
 21
72.988969
  0
LINE
  8
CSLAYER1
  6
CONTINUOUS
 62
     5
 10
2762.936412
 20
72.988969
 11
2762.936412
 21
74.732640
  0
LINE
  8
CSLAYER1
  6
CONTINUOUS
 62
     5
 10
2796.046407
 20
68.038683
 11
2794.360620
 21
65.035677
  0
LINE
  8
CSLAYER1
  6
CONTINUOUS
 62
     5
 10
2794.360620
 20
65.035677
 11
2792.936412
 21
63.716966
  0
ARC
  8
CSLAYER1
  6
CONTINUOUS
 62
     5
 10
2780.744468
 20
75.269400
 40
17.266626
 50
208.054813
 51
260.640470
  0
ARC
  8
CSLAYER1
  6
CONTINUOUS
 62
     5
 10
2775.551072
 20
88.011870
 40
29.874611
 50
274.579659
 51
305.587364
  0
ARC
  8
CSLAYER1
  6
CONTINUOUS
 62
     5
 10
2786.523421
 20
82.028147
 40
15.088627
 50
313.467013
 51
331.085078
  0
LINE
  8
CSLAYER1
  6
CONTINUOUS
 62
     5
 10
2801.314754
 20
78.246061
 11
2801.612048
 21
82.028147
  0
LINE
  8
CSLAYER1
  6
CONTINUOUS
 62
     5
 10
2801.612048
 20
82.028147
 11
2800.320051
 21
88.137130
  0
LINE
  8
CSLAYER1
  6
CONTINUOUS
 62
     5
 10
2801.314754
 20
78.246061
 11
2799.731079
 21
74.732640
  0
ARC
  8
CSLAYER1
  6
CONTINUOUS
 62
     5
 10
2786.523421
 20
82.028147
 40
15.088627
 50
23.883193
 51
36.225170
  0
LINE
  8
CSLAYER1
  6
CONTINUOUS
 62
     5
 10
2746.936412
 20
109.732640
 11
2747.936412
 21
110.825284
  0
LINE
  8
CSLAYER1
  6
CONTINUOUS
 62
     5
 10
2746.936412
 20
109.732640
 11
2748.513370
 21
108.287607
  0
LINE
  8
CSLAYER1
  6
CONTINUOUS
 62
     5
 10
2750.052583
 20
106.178315
 11
2750.078851
 21
104.010196
  0
LINE
  8
CSLAYER1
  6
CONTINUOUS
 62
     5
 10
2750.078851
 20
104.010196
 11
2750.286249
 21
103.249737
  0
LINE
  8
CSLAYER1
  6
CONTINUOUS
 62
     5
 10
2750.286249
 20
103.249737
 11
2750.873877
 21
102.523844
  0
LINE
  8
CSLAYER1
  6
CONTINUOUS
 62
     5
 10
2750.873877
 20
102.523844
 11
2751.461504
 21
102.592977
  0
LINE
  8
CSLAYER1
  6
CONTINUOUS
 62
     5
 10
2751.461504
 20
102.592977
 11
2752.083698
 21
102.765808
  0
LINE
  8
CSLAYER1
  6
CONTINUOUS
 62
     5
 10
2752.083698
 20
102.765808
 11
2752.498494
 21
102.592977
  0
LINE
  8
CSLAYER1
  6
CONTINUOUS
 62
     5
 10
2752.498494
 20
102.592977
 11
2753.397219
 21
102.143614
  0
LINE
  8
CSLAYER1
  6
CONTINUOUS
 62
     5
 10
2753.397219
 20
102.143614
 11
2754.173270
 21
101.732640
  0
LINE
  8
CSLAYER1
  6
CONTINUOUS
 62
     5
 10
2754.173270
 20
101.732640
 11
2754.676173
 21
101.763385
  0
LINE
  8
CSLAYER1
  6
CONTINUOUS
 62
     5
 10
2754.676173
 20
101.763385
 11
2757.484045
 21
103.209864
  0
LINE
  8
CSLAYER1
  6
CONTINUOUS
 62
     5
 10
2747.936412
 20
110.825284
 11
2748.269264
 21
112.298991
  0
LINE
  8
CSLAYER1
  6
CONTINUOUS
 62
     5
 10
2748.269264
 20
112.298991
 11
2749.722669
 21
112.449344
  0
LINE
  8
CSLAYER1
  6
CONTINUOUS
 62
     5
 10
2751.216428
 20
115.217802
 11
2752.970601
 21
115.374892
  0
LINE
  8
CSLAYER1
  6
CONTINUOUS
 62
     5
 10
2752.970601
 20
115.374892
 11
2756.505128
 21
116.212706
  0
LINE
  8
CSLAYER1
  6
CONTINUOUS
 62
     5
 10
2756.505128
 20
116.212706
 11
2757.936412
 21
116.544345
  0
LINE
  8
CSLAYER1
  6
CONTINUOUS
 62
     5
 10
2751.216428
 20
115.217802
 11
2749.283537
 21
115.376670
  0
LINE
  8
CSLAYER1
  6
CONTINUOUS
 62
     5
 10
2748.547414
 20
114.507983
 11
2748.640939
 21
114.136822
  0
LINE
  8
CSLAYER1
  6
CONTINUOUS
 62
     5
 10
2748.640939
 20
114.136822
 11
2749.132533
 21
113.599141
  0
LINE
  8
CSLAYER1
  6
CONTINUOUS
 62
     5
 10
2749.132533
 20
113.599141
 11
2749.808475
 21
113.092184
  0
LINE
  8
CSLAYER1
  6
CONTINUOUS
 62
     5
 10
2749.808475
 20
113.092184
 11
2749.931800
 21
112.927751
  0
LINE
  8
CSLAYER1
  6
CONTINUOUS
 62
     5
 10
2748.513370
 20
108.287607
 11
2750.052583
 21
106.178315
  0
ARC
  8
CSLAYER1
  6
CONTINUOUS
 62
     5
 10
2792.923113
 20
-61.926013
 40
180.727463
 50
80.438896
 51
96.353582
  0
ARC
  8
CSLAYER1
  6
CONTINUOUS
 62
     5
 10
2768.024200
 20
83.321887
 40
34.720242
 50
81.866516
 51
106.890578
  0
LINE
  8
CSLAYER1
  6
CONTINUOUS
 62
     5
 10
2827.130674
 20
115.499310
 11
2829.377756
 21
114.477909
  0
LINE
  8
CSLAYER1
  6
CONTINUOUS
 62
     5
 10
2832.952661
 20
112.894737
 11
2829.377756
 21
114.477909
  0
LINE
  8
CSLAYER1
  6
CONTINUOUS
 62
     5
 10
2827.130674
 20
115.499310
 11
2822.936412
 21
116.291881
  0
LINE
  8
CSLAYER1
  6
CONTINUOUS
 62
     5
 10
2832.936412
 20
112.901933
 11
2834.807988
 21
111.333456
  0
LINE
  8
CSLAYER1
  6
CONTINUOUS
 62
     5
 10
2816.179668
 20
113.938783
 11
2817.078943
 21
115.391458
  0
LINE
  8
CSLAYER1
  6
CONTINUOUS
 62
     5
 10
2817.078943
 20
115.391458
 11
2821.754542
 21
114.271949
  0
LINE
  8
CSLAYER1
  6
CONTINUOUS
 62
     5
 10
2821.754542
 20
114.271949
 11
2838.496928
 21
109.732640
  0
LINE
  8
CSLAYER1
  6
CONTINUOUS
 62
     5
 10
2841.436412
 20
109.732640
 11
2834.807988
 21
111.333456
  0
LINE
  8
CSLAYER1
  6
CONTINUOUS
 62
     5
 10
2838.496928
 20
109.732640
 11
2841.436412
 21
109.732640
  0
LINE
  8
CSLAYER1
  6
CONTINUOUS
 62
     5
 10
2782.936412
 20
114.197581
 11
2802.936412
 21
114.732640
  0
LINE
  8
CSLAYER1
  6
CONTINUOUS
 62
     5
 10
2802.936412
 20
114.732640
 11
2816.179668
 21
113.938783
  0
LINE
  8
CSLAYER1
  6
CONTINUOUS
 62
     5
 10
2817.782649
 20
111.878304
 11
2802.936412
 21
113.232640
  0
LINE
  8
CSLAYER1
  6
CONTINUOUS
 62
     5
 10
2802.936412
 20
113.232640
 11
2787.887203
 21
113.641292
  0
LINE
  8
CSLAYER1
  6
CONTINUOUS
 62
     5
 10
2787.936412
 20
113.639956
 11
2782.936412
 21
113.735249
  0
LINE
  8
CSLAYER1
  6
CONTINUOUS
 62
     5
 10
2782.936412
 20
114.197581
 11
2782.936412
 21
113.735249
  0
LINE
  8
CSLAYER1
  6
CONTINUOUS
 62
     5
 10
2840.436412
 20
106.232640
 11
2831.593854
 21
108.543302
  0
LINE
  8
CSLAYER1
  6
CONTINUOUS
 62
     5
 10
2817.782649
 20
111.878304
 11
2827.936412
 21
109.905920
  0
LINE
  8
CSLAYER1
  6
CONTINUOUS
 62
     5
 10
2827.936412
 20
109.905920
 11
2831.593854
 21
108.543302
  0
LINE
  8
CSLAYER1
  6
CONTINUOUS
 62
     5
 10
2840.436412
 20
106.232640
 11
2840.143795
 21
105.393534
  0
LINE
  8
CSLAYER1
  6
CONTINUOUS
 62
     5
 10
2849.936412
 20
100.732640
 11
2849.630385
 21
101.961621
  0
LINE
  8
CSLAYER1
  6
CONTINUOUS
 62
     5
 10
2840.143795
 20
105.393534
 11
2849.630385
 21
101.961621
  0
LINE
  8
CSLAYER1
  6
CONTINUOUS
 62
     5
 10
2786.436412
 20
106.232640
 11
2788.859450
 21
106.232640
  0
LINE
  8
CSLAYER1
  6
CONTINUOUS
 62
     5
 10
2808.936412
 20
106.665135
 11
2808.936412
 21
106.232640
  0
LINE
  8
CSLAYER1
  6
CONTINUOUS
 62
     5
 10
2807.936412
 20
107.199576
 11
2806.225133
 21
107.836755
  0
LINE
  8
CSLAYER1
  6
CONTINUOUS
 62
     5
 10
2806.225133
 20
107.836755
 11
2805.115077
 21
107.887212
  0
LINE
  8
CSLAYER1
  6
CONTINUOUS
 62
     5
 10
2805.115077
 20
107.887212
 11
2804.635735
 21
107.634926
  0
LINE
  8
CSLAYER1
  6
CONTINUOUS
 62
     5
 10
2804.635735
 20
107.634926
 11
2804.534821
 21
107.231270
  0
LINE
  8
CSLAYER1
  6
CONTINUOUS
 62
     5
 10
2804.534821
 20
107.231270
 11
2804.988934
 21
106.928527
  0
LINE
  8
CSLAYER1
  6
CONTINUOUS
 62
     5
 10
2804.988934
 20
106.928527
 11
2806.628790
 21
106.777156
  0
LINE
  8
CSLAYER1
  6
CONTINUOUS
 62
     5
 10
2806.628790
 20
106.777156
 11
2808.936412
 21
106.665135
  0
LINE
  8
CSLAYER1
  6
CONTINUOUS
 62
     5
 10
2849.936412
 20
100.732640
 11
2846.960870
 21
101.919221
  0
LINE
  8
CSLAYER1
  6
CONTINUOUS
 62
     5
 10
2846.960870
 20
101.919221
 11
2836.905180
 21
103.762097
  0
LINE
  8
CSLAYER1
  6
CONTINUOUS
 62
     5
 10
2836.905180
 20
103.762097
 11
2831.879400
 21
104.921892
  0
LINE
  8
CSLAYER1
  6
CONTINUOUS
 62
     5
 10
2809.470633
 20
107.232640
 11
2821.236299
 21
107.232640
  0
LINE
  8
CSLAYER1
  6
CONTINUOUS
 62
     5
 10
2807.936412
 20
107.199576
 11
2808.461072
 21
106.891109
  0
LINE
  8
CSLAYER1
  6
CONTINUOUS
 62
     5
 10
2808.461072
 20
106.891109
 11
2808.757884
 21
106.802065
  0
LINE
  8
CSLAYER1
  6
CONTINUOUS
 62
     5
 10
2808.757884
 20
106.802065
 11
2808.936412
 21
106.827236
  0
LINE
  8
CSLAYER1
  6
CONTINUOUS
 62
     5
 10
2808.936412
 20
106.827236
 11
2809.470633
 21
107.232640
  0
LINE
  8
CSLAYER1
  6
CONTINUOUS
 62
     5
 10
2821.236299
 20
107.232640
 11
2825.686568
 21
106.203814
  0
LINE
  8
CSLAYER1
  6
CONTINUOUS
 62
     5
 10
2825.686568
 20
106.203814
 11
2829.839760
 21
105.038665
  0
LINE
  8
CSLAYER1
  6
CONTINUOUS
 62
     5
 10
2829.839760
 20
105.038665
 11
2831.879400
 21
104.921892
  0
LINE
  8
CSLAYER1
  6
CONTINUOUS
 62
     5
 10
2785.436412
 20
105.232640
 11
2785.436412
 21
104.732640
  0
LINE
  8
CSLAYER1
  6
CONTINUOUS
 62
     5
 10
2782.936412
 20
104.732640
 11
2785.436412
 21
104.732640
  0
ARC
  8
CSLAYER1
  6
CONTINUOUS
 62
     5
 10
2786.436412
 20
105.232640
 40
1.000000
 50
90.000000
 51
180.000000
  0
LINE
  8
CSLAYER1
  6
CONTINUOUS
 62
     5
 10
2788.859450
 20
106.232640
 11
2789.557007
 21
105.660643
  0
LINE
  8
CSLAYER1
  6
CONTINUOUS
 62
     5
 10
2790.159375
 20
105.636683
 11
2791.016972
 21
106.232640
  0
LINE
  8
CSLAYER1
  6
CONTINUOUS
 62
     5
 10
2792.595368
 20
106.232640
 11
2794.262494
 21
105.574564
  0
LINE
  8
CSLAYER1
  6
CONTINUOUS
 62
     5
 10
2794.686203
 20
105.601076
 11
2795.839690
 21
106.232640
  0
LINE
  8
CSLAYER1
  6
CONTINUOUS
 62
     5
 10
2791.016972
 20
106.232640
 11
2792.595368
 21
106.232640
  0
LINE
  8
CSLAYER1
  6
CONTINUOUS
 62
     5
 10
2795.839690
 20
106.232640
 11
2808.936412
 21
106.232640
  0
LINE
  8
CSLAYER1
  6
CONTINUOUS
 62
     5
 10
2761.485395
 20
103.123813
 11
2782.936412
 21
104.732640
  0
LINE
  8
CSLAYER1
  6
CONTINUOUS
 62
     5
 10
2757.484045
 20
103.209864
 11
2761.485395
 21
103.123813
  0
ARC
  8
CSLAYER1
  6
CONTINUOUS
 62
     5
 10
2789.874047
 20
106.047277
 40
0.500000
 50
230.648247
 51
304.796026
  0
ARC
  8
CSLAYER1
  6
CONTINUOUS
 62
     5
 10
2794.446077
 20
106.039642
 40
0.500000
 50
248.459024
 51
298.701829
  0
ARC
  8
CSLAYER1
  6
CONTINUOUS
 62
     5
 10
2749.691800
 20
112.747751
 40
0.300000
 50
-84.093859
 51
36.869898
  0
ARC
  8
CSLAYER1
  6
CONTINUOUS
 62
     5
 10
2749.226196
 20
114.679023
 40
0.700000
 50
85.301319
 51
194.142980
  0
LINE
  8
CSLAYER1
  6
CONTINUOUS
 62
     3
 10
2781.418237
 20
97.465795
 11
2789.528732
 21
97.465795
  0
LINE
  8
CSLAYER1
  6
CONTINUOUS
 62
     3
 10
2775.005720
 20
95.865795
 11
2792.649061
 21
95.865795
  0
LINE
  8
CSLAYER1
  6
CONTINUOUS
 62
     3
 10
2771.592781
 20
94.265795
 11
2795.524426
 21
94.265795
  0
LINE
  8
CSLAYER1
  6
CONTINUOUS
 62
     3
 10
2769.357462
 20
92.665795
 11
2797.367899
 21
92.665795
  0
LINE
  8
CSLAYER1
  6
CONTINUOUS
 62
     3
 10
2767.861806
 20
91.065795
 11
2798.602184
 21
91.065795
  0
LINE
  8
CSLAYER1
  6
CONTINUOUS
 62
     3
 10
2766.641492
 20
89.465795
 11
2799.651561
 21
89.465795
  0
LINE
  8
CSLAYER1
  6
CONTINUOUS
 62
     3
 10
2765.949600
 20
87.865795
 11
2800.377436
 21
87.865795
  0
LINE
  8
CSLAYER1
  6
CONTINUOUS
 62
     3
 10
2765.257708
 20
86.265795
 11
2800.715822
 21
86.265795
  0
LINE
  8
CSLAYER1
  6
CONTINUOUS
 62
     3
 10
2764.609358
 20
84.665795
 11
2801.054208
 21
84.665795
  0
LINE
  8
CSLAYER1
  6
CONTINUOUS
 62
     3
 10
2764.287699
 20
83.065795
 11
2801.392594
 21
83.065795
  0
LINE
  8
CSLAYER1
  6
CONTINUOUS
 62
     3
 10
2763.966040
 20
81.465795
 11
2779.556283
 21
81.465795
  0
LINE
  8
CSLAYER1
  6
CONTINUOUS
 62
     3
 10
2763.644381
 20
79.865795
 11
2778.024022
 21
79.865795
  0
LINE
  8
CSLAYER1
  6
CONTINUOUS
 62
     3
 10
2763.322722
 20
78.265795
 11
2777.235852
 21
78.265795
  0
LINE
  8
CSLAYER1
  6
CONTINUOUS
 62
     3
 10
2763.081604
 20
76.665795
 11
2776.917085
 21
76.665795
  0
LINE
  8
CSLAYER1
  6
CONTINUOUS
 62
     3
 10
2762.961434
 20
75.065795
 11
2776.967106
 21
75.065795
  0
LINE
  8
CSLAYER1
  6
CONTINUOUS
 62
     3
 10
2762.936412
 20
73.465795
 11
2777.513193
 21
73.465795
  0
LINE
  8
CSLAYER1
  6
CONTINUOUS
 62
     3
 10
2763.435600
 20
71.865795
 11
2779.543195
 21
71.865795
  0
LINE
  8
CSLAYER1
  6
CONTINUOUS
 62
     3
 10
2764.146711
 20
70.265795
 11
2796.674567
 21
70.265795
  0
LINE
  8
CSLAYER1
  6
CONTINUOUS
 62
     3
 10
2764.857823
 20
68.665795
 11
2796.223285
 21
68.665795
  0
LINE
  8
CSLAYER1
  6
CONTINUOUS
 62
     3
 10
2765.568934
 20
67.065795
 11
2795.500261
 21
67.065795
  0
LINE
  8
CSLAYER1
  6
CONTINUOUS
 62
     3
 10
2766.530893
 20
65.465795
 11
2794.602074
 21
65.465795
  0
LINE
  8
CSLAYER1
  6
CONTINUOUS
 62
     3
 10
2767.779354
 20
63.865795
 11
2793.097148
 21
63.865795
  0
LINE
  8
CSLAYER1
  6
CONTINUOUS
 62
     3
 10
2769.384774
 20
62.265795
 11
2790.704687
 21
62.265795
  0
LINE
  8
CSLAYER1
  6
CONTINUOUS
 62
     3
 10
2771.531916
 20
60.665795
 11
2787.579564
 21
60.665795
  0
LINE
  8
CSLAYER1
  6
CONTINUOUS
 62
     3
 10
2774.779606
 20
59.065795
 11
2782.941415
 21
59.065795
  0
LINE
  8
CSLAYER1
  6
CONTINUOUS
 62
     3
 10
2784.748107
 20
81.465795
 11
2801.567844
 21
81.465795
  0
LINE
  8
CSLAYER1
  6
CONTINUOUS
 62
     3
 10
2785.418851
 20
79.865795
 11
2801.442074
 21
79.865795
  0
LINE
  8
CSLAYER1
  6
CONTINUOUS
 62
     3
 10
2785.530858
 20
78.265795
 11
2801.316305
 21
78.265795
  0
LINE
  8
CSLAYER1
  6
CONTINUOUS
 62
     3
 10
2785.285501
 20
76.665795
 11
2800.602449
 21
76.665795
  0
LINE
  8
CSLAYER1
  6
CONTINUOUS
 62
     3
 10
2784.633855
 20
75.065795
 11
2799.881249
 21
75.065795
  0
LINE
  8
CSLAYER1
  6
CONTINUOUS
 62
     3
 10
2783.500592
 20
73.465795
 11
2798.947301
 21
73.465795
  0
LINE
  8
CSLAYER1
  6
CONTINUOUS
 62
     3
 10
2781.244595
 20
71.865795
 11
2797.676594
 21
71.865795
  0
TEXT
  8
CSLAYER1
 62
     5
 10
2802.108183
 20
79.476970
 40
4.713448
 41
1.951056
  1
M
 50
0.000000
 51
0.000000
  7
EASYDRAW_FONT
 72
     5
 11
2808.238985
 21
79.476970
  0
TEXT
  8
CSLAYER1
 62
     5
 10
2811.759570
 20
79.418700
 40
4.626621
 41
0.778201
  1
T
 50
0.000000
 51
0.000000
  7
EASYDRAW_FONT
 72
     5
 11
2814.159863
 21
79.418700
  0
TEXT
  8
CSLAYER1
 62
     5
 10
2814.525133
 20
79.453499
 40
4.696183
 41
1.055553
  1
E
 50
0.000000
 51
0.000000
  7
EASYDRAW_FONT
 72
     5
 11
2817.829848
 21
79.453499
  0
TEXT
  8
CSLAYER1
 62
     5
 10
2817.641314
 20
81.069343
 40
0.348283
 41
9.375319
  1
-
 50
0.000000
 51
0.000000
  7
EASYDRAW_FONT
 72
     5
 11
2819.818159
 21
81.069343
  0
TEXT
  8
CSLAYER1
 62
     5
 10
2819.455523
 20
79.422152
 40
4.861659
 41
1.298502
  1
H
 50
0.000000
 51
0.000000
  7
EASYDRAW_FONT
 72
     5
 11
2823.664106
 21
79.422152
  0
TEXT
  8
CSLAYER1
 62
     5
 10
2823.531538
 20
79.452530
 40
4.843139
 41
1.269236
  1
A
 50
0.000000
 51
0.000000
  7
EASYDRAW_FONT
 72
     5
 11
2827.629595
 21
79.452530
  0
TEXT
  8
CSLAYER1
 62
     5
 10
2827.237694
 20
79.411004
 40
4.825362
 41
1.490144
  1
N
 50
0.000000
 51
0.000000
  7
EASYDRAW_FONT
 72
     5
 11
2832.031349
 21
79.411004
  0
TEXT
  8
CSLAYER1
 62
     5
 10
2808.029152
 20
79.388431
 40
4.982325
 41
1.177443
  1
A
 50
0.000000
 51
0.000000
  7
EASYDRAW_FONT
 72
     5
 11
2811.940086
 21
79.388431
  0
TEXT
  8
CSLAYER1
 62
     5
 10
2802.475197
 20
72.393191
 40
4.982325
 41
1.177443
  1
A
 50
0.000000
 51
0.000000
  7
EASYDRAW_FONT
 72
     5
 11
2806.386131
 21
72.393191
  0
TEXT
  8
CSLAYER1
 62
     5
 10
2815.259621
 20
72.421512
 40
4.982325
 41
1.177443
  1
A
 50
0.000000
 51
0.000000
  7
EASYDRAW_FONT
 72
     5
 11
2819.170555
 21
72.421512
  0
TEXT
  8
CSLAYER1
 62
     5
 10
2819.020165
 20
72.478509
 40
4.825362
 41
1.490144
  1
N
 50
0.000000
 51
0.000000
  7
EASYDRAW_FONT
 72
     5
 11
2823.813819
 21
72.478509
  0
TEXT
  8
CSLAYER1
 62
     5
 10
2827.922501
 20
72.486903
 40
4.841775
 41
1.184218
  1
E
 50
0.000000
 51
0.000000
  7
EASYDRAW_FONT
 72
     5
 11
2831.744980
 21
72.486903
  0
TEXT
  8
CSLAYER1
 62
     5
 10
2806.755750
 20
72.391867
 40
4.947865
 41
1.093992
  1
D
 50
0.000000
 51
0.000000
  7
EASYDRAW_FONT
 72
     5
 11
2810.364367
 21
72.391867
  0
TEXT
  8
CSLAYER1
 62
     5
 10
2811.158109
 20
72.386482
 40
4.924210
 41
1.228195
  1
V
 50
0.000000
 51
0.000000
  7
EASYDRAW_FONT
 72
     5
 11
2815.190036
 21
72.386482
  0
TEXT
  8
CSLAYER1
 62
     5
 10
2823.383310
 20
72.407213
 40
5.032894
 41
1.481023
  1
C
 50
0.000000
 51
0.000000
  7
EASYDRAW_FONT
 72
     5
 11
2828.352530
 21
72.407213
  0
LINE
  8
CSLAYER1
  6
CONTINUOUS
 62
     5
 10
2814.013749
 20
83.467612
 11
2813.001687
 21
83.467612
  0
LINE
  8
CSLAYER1
  6
CONTINUOUS
 62
     3
 10
2763.111987
 20
117.692883
 11
2812.909813
 21
117.692883
  0
LINE
  8
CSLAYER1
  6
CONTINUOUS
 62
     3
 10
2755.999623
 20
116.092883
 11
2823.989505
 21
116.092883
  0
LINE
  8
CSLAYER1
  6
CONTINUOUS
 62
     3
 10
2748.551219
 20
114.492883
 11
2793.974529
 21
114.492883
  0
LINE
  8
CSLAYER1
  6
CONTINUOUS
 62
     3
 10
2806.936079
 20
114.492883
 11
2816.522682
 21
114.492883
  0
LINE
  8
CSLAYER1
  6
CONTINUOUS
 62
     3
 10
2820.831816
 20
114.492883
 11
2829.344813
 21
114.492883
  0
LINE
  8
CSLAYER1
  6
CONTINUOUS
 62
     3
 10
2749.954358
 20
112.892883
 11
2806.660827
 21
112.892883
  0
LINE
  8
CSLAYER1
  6
CONTINUOUS
 62
     3
 10
2826.840965
 20
112.892883
 11
2832.947211
 21
112.892883
  0
LINE
  8
CSLAYER1
  6
CONTINUOUS
 62
     3
 10
2748.042024
 20
111.292883
 11
2820.796375
 21
111.292883
  0
LINE
  8
CSLAYER1
  6
CONTINUOUS
 62
     3
 10
2832.742264
 20
111.292883
 11
2834.975986
 21
111.292883
  0
LINE
  8
CSLAYER1
  6
CONTINUOUS
 62
     3
 10
2746.979799
 20
109.692883
 11
2828.508231
 21
109.692883
  0
LINE
  8
CSLAYER1
  6
CONTINUOUS
 62
     3
 10
2748.655466
 20
108.092883
 11
2833.317540
 21
108.092883
  0
LINE
  8
CSLAYER1
  6
CONTINUOUS
 62
     3
 10
2749.823033
 20
106.492883
 11
2808.936412
 21
106.492883
  0
LINE
  8
CSLAYER1
  6
CONTINUOUS
 62
     3
 10
2824.436177
 20
106.492883
 11
2839.440500
 21
106.492883
  0
LINE
  8
CSLAYER1
  6
CONTINUOUS
 62
     3
 10
2750.068157
 20
104.892883
 11
2785.436412
 21
104.892883
  0
LINE
  8
CSLAYER1
  6
CONTINUOUS
 62
     3
 10
2832.005106
 20
104.892883
 11
2841.527709
 21
104.892883
  0
LINE
  8
CSLAYER1
  6
CONTINUOUS
 62
     3
 10
2750.274482
 20
103.292883
 11
2763.739655
 21
103.292883
  0
LINE
  8
CSLAYER1
  6
CONTINUOUS
 62
     3
 10
2839.465455
 20
103.292883
 11
2845.950473
 21
103.292883
  0
LINE
  8
CSLAYER1
  6
CONTINUOUS
 62
     3
 10
2847.528449
 20
101.692883
 11
2849.697303
 21
101.692883
  0
ENDBLK
  8
0
  0
BLOCK
  8
CSLAYER1
  2
BLKF0001
 70
   64
 10
0.0
 20
0.0
 30
0.0
  0
LINE
  8
CSLAYER1
  6
CONTINUOUS
 62
     1
 10
441.305695
 20
502.261620
 11
441.305695
 21
500.061620
  0
LINE
  8
CSLAYER1
  6
CONTINUOUS
 62
     1
 10
448.305695
 20
502.261620
 11
448.305695
 21
500.061620
  0
LINE
  8
CSLAYER1
  6
CONTINUOUS
 62
     1
 10
448.305695
 20
501.061620
 11
441.305695
 21
501.061620
  0
LINE
  8
CSLAYER1
  6
CONTINUOUS
 62
     1
 10
446.905695
 20
503.661620
 11
442.705695
 21
503.661620
  0
LINE
  8
CSLAYER1
  6
CONTINUOUS
 62
     1
 10
449.305695
 20
500.061620
 11
449.305695
 21
499.261620
  0
LINE
  8
CSLAYER1
  6
CONTINUOUS
 62
     1
 10
440.305695
 20
500.061620
 11
440.305695
 21
499.261620
  0
LINE
  8
CSLAYER1
  6
CONTINUOUS
 62
     1
 10
448.305695
 20
502.261620
 11
448.305695
 21
501.061620
  0
LINE
  8
CSLAYER1
  6
CONTINUOUS
 62
     1
 10
449.305695
 20
500.061620
 11
440.305695
 21
500.061620
  0
ARC
  8
CSLAYER1
  6
CONTINUOUS
 62
     1
 10
446.905695
 20
502.261620
 40
1.400000
 50
-0.000000
 51
90.000000
  0
ARC
  8
CSLAYER1
  6
CONTINUOUS
 62
     1
 10
442.705695
 20
502.261620
 40
1.400000
 50
90.000000
 51
180.000000
  0
LINE
  8
CSLAYER1
  6
CONTINUOUS
 62
     1
 10
445.845647
 20
500.061620
 11
443.460445
 21
501.061620
  0
LINE
  8
CSLAYER1
  6
CONTINUOUS
 62
     1
 10
444.805695
 20
505.422852
 11
444.805695
 21
497.980048
  0
ENDBLK
  8
0
  0
BLOCK
  8
CSLAYER1
  2
BLKF0002
 70
   64
 10
0.0
 20
0.0
 30
0.0
  0
LINE
  8
CSLAYER1
  6
CONTINUOUS
 62
     1
 10
2084.666797
 20
502.261620
 11
2084.666797
 21
500.061620
  0
LINE
  8
CSLAYER1
  6
CONTINUOUS
 62
     1
 10
2091.666797
 20
502.261620
 11
2091.666797
 21
500.061620
  0
LINE
  8
CSLAYER1
  6
CONTINUOUS
 62
     1
 10
2091.666797
 20
501.061620
 11
2084.666797
 21
501.061620
  0
LINE
  8
CSLAYER1
  6
CONTINUOUS
 62
     1
 10
2090.266797
 20
503.661620
 11
2086.066797
 21
503.661620
  0
LINE
  8
CSLAYER1
  6
CONTINUOUS
 62
     1
 10
2092.666797
 20
500.061620
 11
2092.666797
 21
499.261620
  0
LINE
  8
CSLAYER1
  6
CONTINUOUS
 62
     1
 10
2083.666797
 20
500.061620
 11
2083.666797
 21
499.261620
  0
LINE
  8
CSLAYER1
  6
CONTINUOUS
 62
     1
 10
2091.666797
 20
502.261620
 11
2091.666797
 21
501.061620
  0
LINE
  8
CSLAYER1
  6
CONTINUOUS
 62
     1
 10
2092.666797
 20
500.061620
 11
2083.666797
 21
500.061620
  0
ARC
  8
CSLAYER1
  6
CONTINUOUS
 62
     1
 10
2090.266797
 20
502.261620
 40
1.400000
 50
-0.000000
 51
90.000000
  0
ARC
  8
CSLAYER1
  6
CONTINUOUS
 62
     1
 10
2086.066797
 20
502.261620
 40
1.400000
 50
90.000000
 51
180.000000
  0
LINE
  8
CSLAYER1
  6
CONTINUOUS
 62
     1
 10
2089.206749
 20
500.061620
 11
2086.821546
 21
501.061620
  0
ENDBLK
  8
0
  0
BLOCK
  8
CSLAYER1
  2
BLKF0003
 70
   64
 10
0.0
 20
0.0
 30
0.0
  0
LINE
  8
CSLAYER1
  6
CONTINUOUS
 62
     3
 10
2479.753542
 20
1761.737885
 11
2479.753542
 21
1823.737885
  0
LINE
  8
CSLAYER1
  6
CONTINUOUS
 62
     3
 10
2482.253542
 20
1759.237885
 11
2567.253542
 21
1759.237885
  0
LINE
  8
CSLAYER1
  6
CENTER
 62
     5
 10
2421.403904
 20
1831.737885
 11
2479.753542
 21
1831.737885
  0
LINE
  8
CSLAYER1
  6
CONTINUOUS
 62
     2
 10
2482.253542
 20
1815.737885
 11
2567.253542
 21
1815.737885
  0
LINE
  8
CSLAYER1
  6
CONTINUOUS
 62
     3
 10
2482.253542
 20
1764.237885
 11
2482.253542
 21
1809.237885
  0
LINE
  8
CSLAYER1
  6
CONTINUOUS
 62
     3
 10
2569.753542
 20
1761.737885
 11
2569.753542
 21
1831.737885
  0
LINE
  8
CSLAYER1
  6
CONTINUOUS
 62
     3
 10
2484.753542
 20
1761.737885
 11
2561.753542
 21
1761.737885
  0
LINE
  8
CSLAYER1
  6
CONTINUOUS
 62
     3
 10
2484.753542
 20
1811.737885
 11
2561.753542
 21
1811.737885
  0
ARC
  8
CSLAYER1
  6
CONTINUOUS
 62
     3
 10
2507.685361
 20
1786.737885
 40
59.568182
 50
-24.814837
 51
24.814837
  0
ARC
  8
CSLAYER1
  6
CONTINUOUS
 62
     3
 10
2484.753542
 20
1764.237885
 40
2.500000
 50
180.000000
 51
270.000000
  0
ARC
  8
CSLAYER1
  6
CONTINUOUS
 62
     3
 10
2484.753542
 20
1809.237885
 40
2.500000
 50
90.000000
 51
180.000000
  0
ARC
  8
CSLAYER1
  6
CONTINUOUS
 62
     3
 10
2482.253542
 20
1761.737885
 40
2.500000
 50
180.000000
 51
270.000000
  0
ARC
  8
CSLAYER1
  6
CONTINUOUS
 62
     3
 10
2567.253542
 20
1761.737885
 40
2.500000
 50
270.000000
 51
360.000000
  0
ARC
  8
CSLAYER1
  6
CONTINUOUS
 62
     2
 10
2567.253542
 20
1818.237885
 40
2.500000
 50
270.000000
 51
360.000000
  0
ARC
  8
CSLAYER1
  6
CONTINUOUS
 62
     2
 10
2482.253542
 20
1818.237885
 40
2.500000
 50
180.000000
 51
270.000000
  0
LINE
  8
CSLAYER1
  6
CONTINUOUS
 62
     3
 10
2479.753542
 20
1901.737885
 11
2479.753542
 21
1839.737885
  0
LINE
  8
CSLAYER1
  6
CONTINUOUS
 62
     3
 10
2482.253542
 20
1904.237885
 11
2567.253542
 21
1904.237885
  0
LINE
  8
CSLAYER1
  6
CONTINUOUS
 62
     2
 10
2482.253542
 20
1847.737885
 11
2567.253542
 21
1847.737885
  0
LINE
  8
CSLAYER1
  6
CONTINUOUS
 62
     3
 10
2569.753542
 20
1901.737885
 11
2569.753542
 21
1831.737885
  0
ARC
  8
CSLAYER1
  6
CONTINUOUS
 62
     3
 10
2482.253542
 20
1901.737885
 40
2.500000
 50
90.000000
 51
180.000000
  0
ARC
  8
CSLAYER1
  6
CONTINUOUS
 62
     3
 10
2567.253542
 20
1901.737885
 40
2.500000
 50
0.000000
 51
90.000000
  0
ARC
  8
CSLAYER1
  6
CONTINUOUS
 62
     2
 10
2567.253542
 20
1845.237885
 40
2.500000
 50
0.000000
 51
90.000000
  0
ARC
  8
CSLAYER1
  6
CONTINUOUS
 62
     2
 10
2482.253542
 20
1845.237885
 40
2.500000
 50
90.000000
 51
180.000000
  0
LINE
  8
CSLAYER1
  6
CONTINUOUS
 62
     3
 10
2482.253542
 20
1899.237885
 11
2482.253542
 21
1854.237885
  0
LINE
  8
CSLAYER1
  6
CONTINUOUS
 62
     3
 10
2484.753542
 20
1901.737885
 11
2561.753542
 21
1901.737885
  0
LINE
  8
CSLAYER1
  6
CONTINUOUS
 62
     3
 10
2484.753542
 20
1851.737885
 11
2561.753542
 21
1851.737885
  0
ARC
  8
CSLAYER1
  6
CONTINUOUS
 62
     3
 10
2507.685361
 20
1876.737885
 40
59.568182
 50
-24.814837
 51
24.814837
  0
ARC
  8
CSLAYER1
  6
CONTINUOUS
 62
     3
 10
2484.753542
 20
1899.237885
 40
2.500000
 50
90.000000
 51
180.000000
  0
ARC
  8
CSLAYER1
  6
CONTINUOUS
 62
     3
 10
2484.753542
 20
1854.237885
 40
2.500000
 50
180.000000
 51
270.000000
  0
LINE
  8
CSLAYER1
  6
CONTINUOUS
 62
     3
 10
2472.753542
 20
1838.737885
 11
2472.753542
 21
1835.237885
  0
LINE
  8
CSLAYER1
  6
CONTINUOUS
 62
     3
 10
2421.403904
 20
1835.237885
 11
2472.753542
 21
1835.237885
  0
LINE
  8
CSLAYER1
  6
CONTINUOUS
 62
     3
 10
2473.753542
 20
1839.737885
 11
2479.753542
 21
1839.737885
  0
LINE
  8
CSLAYER1
  6
CONTINUOUS
 62
     3
 10
2473.753542
 20
1823.737885
 11
2479.753542
 21
1823.737885
  0
LINE
  8
CSLAYER1
  6
CONTINUOUS
 62
     3
 10
2421.403904
 20
1828.237885
 11
2472.753542
 21
1828.237885
  0
ARC
  8
CSLAYER1
  6
CONTINUOUS
 62
     3
 10
2473.753542
 20
1824.737885
 40
1.000000
 50
180.000000
 51
270.000000
  0
ARC
  8
CSLAYER1
  6
CONTINUOUS
 62
     3
 10
2473.753542
 20
1838.737885
 40
1.000000
 50
90.000000
 51
180.000000
  0
LINE
  8
CSLAYER1
  6
CONTINUOUS
 62
     3
 10
2472.753542
 20
1828.237885
 11
2472.753542
 21
1824.737885
  0
LINE
  8
CSLAYER1
  6
CONTINUOUS
 62
     2
 10
2472.753542
 20
1835.237885
 11
2472.753542
 21
1828.237885
  0
LINE
  8
CSLAYER1
  6
CONTINUOUS
 62
     2
 10
2479.753542
 20
1823.737885
 11
2479.753542
 21
1831.737885
  0
LINE
  8
CSLAYER1
  6
CONTINUOUS
 62
     2
 10
2479.753542
 20
1839.737885
 11
2479.753542
 21
1831.737885
  0
LINE
  8
CSLAYER1
  6
CONTINUOUS
 62
     2
 10
2499.246554
 20
1819.575225
 11
2490.111554
 21
1819.575225
  0
LINE
  8
CSLAYER1
  6
CONTINUOUS
 62
     2
 10
2499.246554
 20
1843.200225
 11
2490.111554
 21
1843.200225
  0
LINE
  8
CSLAYER1
  6
CONTINUOUS
 62
     2
 10
2488.851554
 20
1820.835225
 11
2488.851554
 21
1841.940225
  0
LINE
  8
CSLAYER1
  6
CONTINUOUS
 62
     2
 10
2500.506554
 20
1820.835225
 11
2500.506554
 21
1841.940225
  0
LINE
  8
CSLAYER1
  6
CONTINUOUS
 62
     2
 10
2498.616554
 20
1841.310225
 11
2490.584054
 21
1841.310225
  0
LINE
  8
CSLAYER1
  6
CONTINUOUS
 62
     2
 10
2498.616554
 20
1838.160225
 11
2497.671554
 21
1838.160225
  0
LINE
  8
CSLAYER1
  6
CONTINUOUS
 62
     2
 10
2498.616554
 20
1829.497725
 11
2497.671554
 21
1829.497725
  0
LINE
  8
CSLAYER1
  6
CONTINUOUS
 62
     2
 10
2498.616554
 20
1824.930225
 11
2493.576554
 21
1824.930225
  0
LINE
  8
CSLAYER1
  6
CONTINUOUS
 62
     2
 10
2499.719054
 20
1826.032725
 11
2499.719054
 21
1828.395225
  0
LINE
  8
CSLAYER1
  6
CONTINUOUS
 62
     2
 10
2492.474054
 20
1826.032725
 11
2492.474054
 21
1828.395225
  0
LINE
  8
CSLAYER1
  6
CONTINUOUS
 62
     2
 10
2489.481554
 20
1839.262725
 11
2489.481554
 21
1840.207725
  0
LINE
  8
CSLAYER1
  6
CONTINUOUS
 62
     2
 10
2496.726554
 20
1830.442725
 11
2496.726554
 21
1837.215225
  0
LINE
  8
CSLAYER1
  6
CONTINUOUS
 62
     2
 10
2495.939054
 20
1830.442725
 11
2495.939054
 21
1837.215225
  0
ARC
  8
CSLAYER1
  6
CONTINUOUS
 62
     2
 10
2498.616554
 20
1826.032725
 40
1.102500
 50
270.000000
 51
360.000000
  0
ARC
  8
CSLAYER1
  6
CONTINUOUS
 62
     2
 10
2493.576554
 20
1826.032725
 40
1.102500
 50
180.000000
 51
270.000000
  0
ARC
  8
CSLAYER1
  6
CONTINUOUS
 62
     2
 10
2493.576554
 20
1828.395225
 40
1.102500
 50
90.000000
 51
180.000000
  0
ARC
  8
CSLAYER1
  6
CONTINUOUS
 62
     2
 10
2498.616554
 20
1828.395225
 40
1.102500
 50
0.000000
 51
90.000000
  0
ARC
  8
CSLAYER1
  6
CONTINUOUS
 62
     2
 10
2490.584054
 20
1839.262725
 40
1.102500
 50
180.000000
 51
270.000000
  0
ARC
  8
CSLAYER1
  6
CONTINUOUS
 62
     2
 10
2490.584054
 20
1840.207725
 40
1.102500
 50
90.000000
 51
180.000000
  0
ARC
  8
CSLAYER1
  6
CONTINUOUS
 62
     2
 10
2498.616554
 20
1840.207725
 40
1.102500
 50
0.000000
 51
90.000000
  0
ARC
  8
CSLAYER1
  6
CONTINUOUS
 62
     2
 10
2498.616554
 20
1839.262725
 40
1.102500
 50
270.000000
 51
360.000000
  0
LINE
  8
CSLAYER1
  6
CONTINUOUS
 62
     2
 10
2494.994054
 20
1829.497725
 11
2493.576554
 21
1829.497725
  0
LINE
  8
CSLAYER1
  6
CONTINUOUS
 62
     2
 10
2494.994054
 20
1838.160225
 11
2490.584054
 21
1838.160225
  0
ARC
  8
CSLAYER1
  6
CONTINUOUS
 62
     2
 10
2497.671554
 20
1830.442725
 40
0.945000
 50
180.000000
 51
270.000000
  0
ARC
  8
CSLAYER1
  6
CONTINUOUS
 62
     2
 10
2494.994054
 20
1830.442725
 40
0.945000
 50
270.000000
 51
360.000000
  0
ARC
  8
CSLAYER1
  6
CONTINUOUS
 62
     2
 10
2494.994054
 20
1837.215225
 40
0.945000
 50
0.000000
 51
90.000000
  0
ARC
  8
CSLAYER1
  6
CONTINUOUS
 62
     2
 10
2499.246554
 20
1820.835225
 40
1.260000
 50
270.000000
 51
360.000000
  0
ARC
  8
CSLAYER1
  6
CONTINUOUS
 62
     2
 10
2490.111554
 20
1820.835225
 40
1.260000
 50
180.000000
 51
270.000000
  0
ARC
  8
CSLAYER1
  6
CONTINUOUS
 62
     2
 10
2490.111554
 20
1841.940225
 40
1.260000
 50
90.000000
 51
180.000000
  0
ARC
  8
CSLAYER1
  6
CONTINUOUS
 62
     2
 10
2499.246554
 20
1841.940225
 40
1.260000
 50
0.000000
 51
90.000000
  0
ARC
  8
CSLAYER1
  6
CONTINUOUS
 62
     2
 10
2497.671554
 20
1837.215225
 40
0.945000
 50
90.000000
 51
180.000000
  0
LINE
  8
CSLAYER1
  6
CONTINUOUS
 62
     2
 10
2499.719054
 20
1839.262725
 11
2499.719054
 21
1840.207725
  0
CIRCLE
  8
CSLAYER1
  6
CONTINUOUS
 62
     2
 10
2514.253542
 20
1781.737885
 40
2.500000
  0
CIRCLE
  8
CSLAYER1
  6
CONTINUOUS
 62
     2
 10
2514.253542
 20
1771.737885
 40
2.500000
  0
CIRCLE
  8
CSLAYER1
  6
CONTINUOUS
 62
     2
 10
2524.253542
 20
1771.737885
 40
2.500000
  0
CIRCLE
  8
CSLAYER1
  6
CONTINUOUS
 62
     2
 10
2524.253542
 20
1781.737885
 40
2.500000
  0
CIRCLE
  8
CSLAYER1
  6
CONTINUOUS
 62
     2
 10
2534.253542
 20
1781.737885
 40
2.500000
  0
CIRCLE
  8
CSLAYER1
  6
CONTINUOUS
 62
     2
 10
2534.253542
 20
1771.737885
 40
2.500000
  0
CIRCLE
  8
CSLAYER1
  6
CONTINUOUS
 62
     2
 10
2544.253542
 20
1771.737885
 40
2.500000
  0
CIRCLE
  8
CSLAYER1
  6
CONTINUOUS
 62
     2
 10
2544.253542
 20
1781.737885
 40
2.500000
  0
CIRCLE
  8
CSLAYER1
  6
CONTINUOUS
 62
     2
 10
2554.253542
 20
1781.737885
 40
2.500000
  0
CIRCLE
  8
CSLAYER1
  6
CONTINUOUS
 62
     2
 10
2554.253542
 20
1771.737885
 40
2.500000
  0
CIRCLE
  8
CSLAYER1
  6
CONTINUOUS
 62
     2
 10
2514.253542
 20
1791.737885
 40
2.500000
  0
CIRCLE
  8
CSLAYER1
  6
CONTINUOUS
 62
     2
 10
2514.253542
 20
1801.737885
 40
2.500000
  0
CIRCLE
  8
CSLAYER1
  6
CONTINUOUS
 62
     2
 10
2524.253542
 20
1801.737885
 40
2.500000
  0
CIRCLE
  8
CSLAYER1
  6
CONTINUOUS
 62
     2
 10
2524.253542
 20
1791.737885
 40
2.500000
  0
CIRCLE
  8
CSLAYER1
  6
CONTINUOUS
 62
     2
 10
2534.253542
 20
1791.737885
 40
2.500000
  0
CIRCLE
  8
CSLAYER1
  6
CONTINUOUS
 62
     2
 10
2534.253542
 20
1801.737885
 40
2.500000
  0
CIRCLE
  8
CSLAYER1
  6
CONTINUOUS
 62
     2
 10
2544.253542
 20
1801.737885
 40
2.500000
  0
CIRCLE
  8
CSLAYER1
  6
CONTINUOUS
 62
     2
 10
2544.253542
 20
1791.737885
 40
2.500000
  0
CIRCLE
  8
CSLAYER1
  6
CONTINUOUS
 62
     2
 10
2554.253542
 20
1791.737885
 40
2.500000
  0
CIRCLE
  8
CSLAYER1
  6
CONTINUOUS
 62
     2
 10
2554.253542
 20
1801.737885
 40
2.500000
  0
CIRCLE
  8
CSLAYER1
  6
CONTINUOUS
 62
     2
 10
2514.253542
 20
1881.737885
 40
2.500000
  0
CIRCLE
  8
CSLAYER1
  6
CONTINUOUS
 62
     2
 10
2514.253542
 20
1891.737885
 40
2.500000
  0
CIRCLE
  8
CSLAYER1
  6
CONTINUOUS
 62
     2
 10
2524.253542
 20
1891.737885
 40
2.500000
  0
CIRCLE
  8
CSLAYER1
  6
CONTINUOUS
 62
     2
 10
2524.253542
 20
1881.737885
 40
2.500000
  0
CIRCLE
  8
CSLAYER1
  6
CONTINUOUS
 62
     2
 10
2534.253542
 20
1881.737885
 40
2.500000
  0
CIRCLE
  8
CSLAYER1
  6
CONTINUOUS
 62
     2
 10
2534.253542
 20
1891.737885
 40
2.500000
  0
CIRCLE
  8
CSLAYER1
  6
CONTINUOUS
 62
     2
 10
2544.253542
 20
1891.737885
 40
2.500000
  0
CIRCLE
  8
CSLAYER1
  6
CONTINUOUS
 62
     2
 10
2544.253542
 20
1881.737885
 40
2.500000
  0
CIRCLE
  8
CSLAYER1
  6
CONTINUOUS
 62
     2
 10
2554.253542
 20
1881.737885
 40
2.500000
  0
CIRCLE
  8
CSLAYER1
  6
CONTINUOUS
 62
     2
 10
2554.253542
 20
1891.737885
 40
2.500000
  0
CIRCLE
  8
CSLAYER1
  6
CONTINUOUS
 62
     2
 10
2514.253542
 20
1871.737885
 40
2.500000
  0
CIRCLE
  8
CSLAYER1
  6
CONTINUOUS
 62
     2
 10
2514.253542
 20
1861.737885
 40
2.500000
  0
CIRCLE
  8
CSLAYER1
  6
CONTINUOUS
 62
     2
 10
2524.253542
 20
1861.737885
 40
2.500000
  0
CIRCLE
  8
CSLAYER1
  6
CONTINUOUS
 62
     2
 10
2524.253542
 20
1871.737885
 40
2.500000
  0
CIRCLE
  8
CSLAYER1
  6
CONTINUOUS
 62
     2
 10
2534.253542
 20
1871.737885
 40
2.500000
  0
CIRCLE
  8
CSLAYER1
  6
CONTINUOUS
 62
     2
 10
2534.253542
 20
1861.737885
 40
2.500000
  0
CIRCLE
  8
CSLAYER1
  6
CONTINUOUS
 62
     2
 10
2544.253542
 20
1861.737885
 40
2.500000
  0
CIRCLE
  8
CSLAYER1
  6
CONTINUOUS
 62
     2
 10
2544.253542
 20
1871.737885
 40
2.500000
  0
CIRCLE
  8
CSLAYER1
  6
CONTINUOUS
 62
     2
 10
2554.253542
 20
1871.737885
 40
2.500000
  0
CIRCLE
  8
CSLAYER1
  6
CONTINUOUS
 62
     2
 10
2554.253542
 20
1861.737885
 40
2.500000
  0
LINE
  8
CSLAYER1
  6
CONTINUOUS
 62
     2
 10
2488.253542
 20
1859.237885
 11
2488.253542
 21
1894.237885
  0
LINE
  8
CSLAYER1
  6
CONTINUOUS
 62
     2
 10
2504.253542
 20
1859.237885
 11
2504.253542
 21
1894.237885
  0
LINE
  8
CSLAYER1
  6
CONTINUOUS
 62
     2
 10
2489.753542
 20
1857.737885
 11
2502.753542
 21
1857.737885
  0
LINE
  8
CSLAYER1
  6
CONTINUOUS
 62
     2
 10
2489.253542
 20
1859.237885
 11
2489.253542
 21
1894.237885
  0
LINE
  8
CSLAYER1
  6
CONTINUOUS
 62
     2
 10
2503.253542
 20
1859.237885
 11
2503.253542
 21
1894.237885
  0
LINE
  8
CSLAYER1
  6
CONTINUOUS
 62
     2
 10
2489.753542
 20
1858.737885
 11
2502.753542
 21
1858.737885
  0
LINE
  8
CSLAYER1
  6
CONTINUOUS
 62
     2
 10
2489.753542
 20
1895.737885
 11
2502.753542
 21
1895.737885
  0
LINE
  8
CSLAYER1
  6
CONTINUOUS
 62
     2
 10
2489.753542
 20
1894.737885
 11
2502.753542
 21
1894.737885
  0
ARC
  8
CSLAYER1
  6
CONTINUOUS
 62
     2
 10
2489.753542
 20
1859.237885
 40
0.500000
 50
180.000000
 51
270.000000
  0
ARC
  8
CSLAYER1
  6
CONTINUOUS
 62
     2
 10
2502.753542
 20
1859.237885
 40
0.500000
 50
270.000000
 51
360.000000
  0
ARC
  8
CSLAYER1
  6
CONTINUOUS
 62
     2
 10
2489.753542
 20
1894.237885
 40
0.500000
 50
90.000000
 51
180.000000
  0
ARC
  8
CSLAYER1
  6
CONTINUOUS
 62
     2
 10
2502.753542
 20
1894.237885
 40
0.500000
 50
0.000000
 51
90.000000
  0
ARC
  8
CSLAYER1
  6
CONTINUOUS
 62
     2
 10
2489.753542
 20
1859.237885
 40
1.500000
 50
180.000000
 51
270.000000
  0
ARC
  8
CSLAYER1
  6
CONTINUOUS
 62
     2
 10
2502.753542
 20
1859.237885
 40
1.500000
 50
270.000000
 51
360.000000
  0
ARC
  8
CSLAYER1
  6
CONTINUOUS
 62
     2
 10
2489.753542
 20
1894.237885
 40
1.500000
 50
90.000000
 51
180.000000
  0
ARC
  8
CSLAYER1
  6
CONTINUOUS
 62
     2
 10
2502.753542
 20
1894.237885
 40
1.500000
 50
0.000000
 51
90.000000
  0
LINE
  8
CSLAYER1
  6
CONTINUOUS
 62
     2
 10
2493.253542
 20
1867.737885
 11
2493.253542
 21
1885.737885
  0
LINE
  8
CSLAYER1
  6
CONTINUOUS
 62
     2
 10
2490.175471
 20
1876.737885
 11
2493.253542
 21
1885.737885
  0
LINE
  8
CSLAYER1
  6
CONTINUOUS
 62
     2
 10
2490.175471
 20
1876.737885
 11
2493.253542
 21
1867.737885
  0
TEXT
  8
CSLAYER1
 62
     2
 10
2501.547189
 20
1867.758003
 40
7.066058
 41
1.574983
  1
UP
 50
90.000000
 51
0.000000
  7
EASYDRAW_FONT
 72
     5
 11
2501.547189
 21
1886.306206
  0
LINE
  8
CSLAYER1
  6
CONTINUOUS
 62
     2
 10
2488.253542
 20
1804.237885
 11
2488.253542
 21
1769.237885
  0
LINE
  8
CSLAYER1
  6
CONTINUOUS
 62
     2
 10
2504.253542
 20
1804.237885
 11
2504.253542
 21
1769.237885
  0
LINE
  8
CSLAYER1
  6
CONTINUOUS
 62
     2
 10
2489.753542
 20
1805.737885
 11
2502.753542
 21
1805.737885
  0
LINE
  8
CSLAYER1
  6
CONTINUOUS
 62
     2
 10
2489.253542
 20
1804.237885
 11
2489.253542
 21
1769.237885
  0
LINE
  8
CSLAYER1
  6
CONTINUOUS
 62
     2
 10
2503.253542
 20
1804.237885
 11
2503.253542
 21
1769.237885
  0
LINE
  8
CSLAYER1
  6
CONTINUOUS
 62
     2
 10
2489.753542
 20
1804.737885
 11
2502.753542
 21
1804.737885
  0
LINE
  8
CSLAYER1
  6
CONTINUOUS
 62
     2
 10
2489.753542
 20
1767.737885
 11
2502.753542
 21
1767.737885
  0
LINE
  8
CSLAYER1
  6
CONTINUOUS
 62
     2
 10
2489.753542
 20
1768.737885
 11
2502.753542
 21
1768.737885
  0
ARC
  8
CSLAYER1
  6
CONTINUOUS
 62
     2
 10
2489.753542
 20
1804.237885
 40
0.500000
 50
90.000000
 51
180.000000
  0
ARC
  8
CSLAYER1
  6
CONTINUOUS
 62
     2
 10
2502.753542
 20
1804.237885
 40
0.500000
 50
0.000000
 51
90.000000
  0
ARC
  8
CSLAYER1
  6
CONTINUOUS
 62
     2
 10
2489.753542
 20
1769.237885
 40
0.500000
 50
180.000000
 51
270.000000
  0
ARC
  8
CSLAYER1
  6
CONTINUOUS
 62
     2
 10
2502.753542
 20
1769.237885
 40
0.500000
 50
270.000000
 51
360.000000
  0
ARC
  8
CSLAYER1
  6
CONTINUOUS
 62
     2
 10
2489.753542
 20
1804.237885
 40
1.500000
 50
90.000000
 51
180.000000
  0
ARC
  8
CSLAYER1
  6
CONTINUOUS
 62
     2
 10
2502.753542
 20
1804.237885
 40
1.500000
 50
0.000000
 51
90.000000
  0
ARC
  8
CSLAYER1
  6
CONTINUOUS
 62
     2
 10
2489.753542
 20
1769.237885
 40
1.500000
 50
180.000000
 51
270.000000
  0
ARC
  8
CSLAYER1
  6
CONTINUOUS
 62
     2
 10
2502.753542
 20
1769.237885
 40
1.500000
 50
270.000000
 51
360.000000
  0
LINE
  8
CSLAYER1
  6
CONTINUOUS
 62
     2
 10
2498.726473
 20
1795.737885
 11
2498.726473
 21
1777.737885
  0
LINE
  8
CSLAYER1
  6
CONTINUOUS
 62
     2
 10
2501.804545
 20
1786.737885
 11
2498.726473
 21
1777.737885
  0
LINE
  8
CSLAYER1
  6
CONTINUOUS
 62
     2
 10
2501.804545
 20
1786.737885
 11
2498.726473
 21
1795.737885
  0
TEXT
  8
CSLAYER1
 62
     2
 10
2497.116348
 20
1772.040190
 40
6.383575
 41
1.255870
  1
DOWN
 50
90.000000
 51
0.000000
  7
EASYDRAW_FONT
 72
     5
 11
2497.116348
 21
1801.435640
  0
ENDBLK
  8
0
  0
ENDSEC
  0
SECTION
  2
ENTITIES
  0
LINE
  8
CSLAYER1
  6
CONTINUOUS
 62
     3
 10
118.051807
 20
2400.454119
 11
118.051807
 21
51.907189
  0
LINE
  8
CSLAYER1
  6
CONTINUOUS
 62
     3
 10
3440.625117
 20
2400.454119
 11
118.051807
 21
2400.454119
  0
LINE
  8
CSLAYER1
  6
CONTINUOUS
 62
     3
 10
3440.625117
 20
2400.454119
 11
3440.625117
 21
51.907189
  0
LINE
  8
CSLAYER1
  6
CONTINUOUS
 62
     3
 10
3440.625117
 20
51.907189
 11
118.051807
 21
51.907189
  0
LINE
  8
CSLAYER1
  6
CONTINUOUS
 62
     5
 10
68.051807
 20
1211.907189
 11
18.051807
 21
1211.907189
  0
LINE
  8
CSLAYER1
  6
CONTINUOUS
 62
     5
 10
2640.625117
 20
491.907189
 11
3440.625117
 21
491.907189
  0
LINE
  8
CSLAYER1
  6
CONTINUOUS
 62
     5
 10
2640.625117
 20
131.907189
 11
3440.625117
 21
131.907189
  0
LINE
  8
CSLAYER1
  6
CONTINUOUS
 62
     5
 10
2640.625117
 20
291.907189
 11
3440.625117
 21
291.907189
  0
LINE
  8
CSLAYER1
  6
CONTINUOUS
 62
     5
 10
2640.625117
 20
351.907189
 11
3440.625117
 21
351.907189
  0
LINE
  8
CSLAYER1
  6
CONTINUOUS
 62
     5
 10
2640.625117
 20
411.907189
 11
3440.625117
 21
411.907189
  0
LINE
  8
CSLAYER1
  6
CONTINUOUS
 62
     5
 10
2640.625117
 20
571.907189
 11
3440.625117
 21
571.907189
  0
LINE
  8
CSLAYER1
  6
CONTINUOUS
 62
     5
 10
2640.625117
 20
651.907189
 11
2640.625117
 21
51.907189
  0
LINE
  8
CSLAYER1
  6
CONTINUOUS
 62
     5
 10
2840.625117
 20
651.907189
 11
2840.625117
 21
411.907189
  0
LINE
  8
CSLAYER1
  6
CONTINUOUS
 62
     5
 10
2640.625117
 20
651.907189
 11
3440.625117
 21
651.907189
  0
LINE
  8
CSLAYER1
  6
CONTINUOUS
 62
     5
 10
3140.625117
 20
411.907189
 11
3140.625117
 21
131.907189
  0
TEXT
  8
CSLAYER1
 62
     3
 10
2860.316219
 20
60.469913
 40
59.380363
 41
1.003345
  1
東正車輌株式会社
 50
0.000000
 51
0.000000
  7
EASYDRAW_FONT
 72
     5
 11
3317.088566
 21
60.469913
  0
LINE
  8
CSLAYER1
  6
CONTINUOUS
 62
     5
 10
2890.625117
 20
351.907189
 11
2890.625117
 21
131.907189
  0
TEXT
  8
CSLAYER1
 62
     5
 10
2670.625000
 20
586.907166
 40
50.000000
 41
1.050000
  1
品　名
 50
0.000000
 51
0.000000
  7
EASYDRAW_FONT
 72
     5
 11
2810.625000
 21
586.907166
  0
TEXT
  8
CSLAYER1
 62
     5
 10
2670.625000
 20
506.907166
 40
50.000000
 41
1.050000
  1
型　式
 50
0.000000
 51
0.000000
  7
EASYDRAW_FONT
 72
     5
 11
2810.625000
 21
506.907166
  0
TEXT
  8
CSLAYER1
 62
     5
 10
2645.625000
 20
426.907196
 40
50.000000
 41
1.036364
  1
図面番号
 50
0.000000
 51
0.000000
  7
EASYDRAW_FONT
 72
     5
 11
2835.625000
 21
426.907196
  0
TEXT
  8
CSLAYER1
 62
     5
 10
2690.625000
 20
356.907196
 40
50.000000
 41
0.827586
  1
平成２８年４月１６日
 50
0.000000
 51
0.000000
  7
EASYDRAW_FONT
 72
     5
 11
3090.625000
 21
356.907196
  0
TEXT
  8
CSLAYER1
 62
     5
 10
3220.625000
 20
356.907196
 40
50.000000
 41
1.050000
  1
Ｂ－４
 50
0.000000
 51
0.000000
  7
EASYDRAW_FONT
 72
     5
 11
3360.625000
 21
356.907196
  0
TEXT
  8
CSLAYER1
 62
     5
 10
2695.625000
 20
296.907196
 40
50.000000
 41
1.050000
  1
検　図
 50
0.000000
 51
0.000000
  7
EASYDRAW_FONT
 72
     5
 11
2835.625000
 21
296.907196
  0
TEXT
  8
CSLAYER1
 62
     5
 10
2945.625000
 20
296.907196
 40
50.000000
 41
1.050000
  1
作　図
 50
0.000000
 51
0.000000
  7
EASYDRAW_FONT
 72
     5
 11
3085.625000
 21
296.907196
  0
TEXT
  8
CSLAYER1
 62
     5
 10
3220.625000
 20
296.907196
 40
50.000000
 41
1.050000
  1
尺　度
 50
0.000000
 51
0.000000
  7
EASYDRAW_FONT
 72
     5
 11
3360.625000
 21
296.907196
  0
TEXT
  8
CSLAYER1
 62
     5
 10
3321.363770
 20
146.392456
 40
50.000000
 41
1.080000
  1
１０
 50
0.000000
 51
0.000000
  7
EASYDRAW_FONT
 72
     5
 11
3411.363770
 21
146.392456
  0
TEXT
  8
CSLAYER1
 62
     5
 10
3301.044189
 20
194.097153
 40
50.000000
 41
1.200000
  1
／
 50
0.000000
 51
0.000000
  7
EASYDRAW_FONT
 72
     5
 11
3341.044189
 21
194.097153
  0
TEXT
  8
CSLAYER1
 62
     5
 10
3270.831299
 20
229.080597
 40
50.000000
 41
1.200000
  1
１
 50
0.000000
 51
0.000000
  7
EASYDRAW_FONT
 72
     5
 11
3310.831299
 21
229.080597
  0
TEXT
  8
CSLAYER1
 62
     3
 10
2980.625000
 20
586.907166
 40
50.000000
 41
0.834783
  1
ゴールドリフター
 50
0.000000
 51
0.000000
  7
EASYDRAW_FONT
 72
     5
 11
3300.625000
 21
586.907166
  0
TEXT
  8
CSLAYER1
 62
     3
 10
2900.625000
 20
506.907166
 40
50.000000
 41
0.822857
  1
ＧＬＩ－５００－０６１０
 50
0.000000
 51
0.000000
  7
EASYDRAW_FONT
 72
     5
 11
3380.625000
 21
506.907166
  0
TEXT
  8
CSLAYER1
 62
     3
 10
3040.625000
 20
426.907196
 40
50.000000
 41
0.857143
  1
GI-22
 50
0.000000
 51
0.000000
  7
EASYDRAW_FONT
 72
     5
 11
3240.625000
 21
426.907196
  0
INSERT
  8
CSLAYER1
  2
BLKF0000
 10
0.0
 20
0.0
 30
0.0
  0
LINE
  8
CSLAYER1
  6
CONTINUOUS
 62
     5
 10
3394.958729
 20
1876.333996
 11
2674.086212
 21
1876.333996
  0
LINE
  8
CSLAYER1
  6
CONTINUOUS
 62
     5
 10
3394.958729
 20
1812.333998
 11
2674.086212
 21
1812.333998
  0
LINE
  8
CSLAYER1
  6
CONTINUOUS
 62
     5
 10
3394.958729
 20
1748.333999
 11
2674.086212
 21
1748.333999
  0
LINE
  8
CSLAYER1
  6
CONTINUOUS
 62
     5
 10
3394.958729
 20
1684.334001
 11
2674.958747
 21
1684.334001
  0
LINE
  8
CSLAYER1
  6
CONTINUOUS
 62
     5
 10
3394.958729
 20
1620.334003
 11
2674.086212
 21
1620.334003
  0
LINE
  8
CSLAYER1
  6
CONTINUOUS
 62
     5
 10
3394.958729
 20
1556.334004
 11
2674.086212
 21
1556.334004
  0
LINE
  8
CSLAYER1
  6
CONTINUOUS
 62
     5
 10
3394.958729
 20
1492.334006
 11
2674.086212
 21
1492.334006
  0
LINE
  8
CSLAYER1
  6
CONTINUOUS
 62
     5
 10
3394.958729
 20
1428.334007
 11
2674.086212
 21
1428.334007
  0
LINE
  8
CSLAYER1
  6
CONTINUOUS
 62
     5
 10
3394.958729
 20
1364.334009
 11
2674.086212
 21
1364.334009
  0
TEXT
  8
CSLAYER1
 62
     3
 10
2869.810059
 20
1956.152954
 40
40.000000
 41
0.857143
  1
仕   様
 50
0.000000
 51
0.000000
  7
EASYDRAW_FONT
 72
     5
 11
3029.810059
 21
1956.152954
  0
TEXT
  8
CSLAYER1
 62
     3
 10
2684.845703
 20
1884.556763
 40
40.000000
 41
0.847059
  1
型    式
 50
0.000000
 51
0.000000
  7
EASYDRAW_FONT
 72
     5
 11
2876.845703
 21
1884.556763
  0
TEXT
  8
CSLAYER1
 62
     3
 10
2683.026123
 20
1762.067017
 40
40.000000
 41
0.847059
  1
テーブル寸法
 50
0.000000
 51
0.000000
  7
EASYDRAW_FONT
 72
     5
 11
2875.026123
 21
1762.067017
  0
TEXT
  8
CSLAYER1
 62
     3
 10
2684.845703
 20
1699.003174
 40
40.000000
 41
0.847059
  1
テーブル高サ
 50
0.000000
 51
0.000000
  7
EASYDRAW_FONT
 72
     5
 11
2876.845703
 21
1699.003174
  0
TEXT
  8
CSLAYER1
 62
     3
 10
2686.292480
 20
1634.120361
 40
40.000000
 41
0.857143
  1
ストローク
 50
0.000000
 51
0.000000
  7
EASYDRAW_FONT
 72
     5
 11
2846.292480
 21
1634.120361
  0
TEXT
  8
CSLAYER1
 62
     3
 10
2685.686279
 20
1569.237549
 40
40.000000
 41
0.857143
  1
全   長
 50
0.000000
 51
0.000000
  7
EASYDRAW_FONT
 72
     5
 11
2845.686279
 21
1569.237549
  0
TEXT
  8
CSLAYER1
 62
     3
 10
2687.957520
 20
1503.386963
 40
40.000000
 41
0.857143
  1
全   巾
 50
0.000000
 51
0.000000
  7
EASYDRAW_FONT
 72
     5
 11
2847.957520
 21
1503.386963
  0
TEXT
  8
CSLAYER1
 62
     3
 10
2686.399658
 20
1439.501709
 40
40.000000
 41
0.857143
  1
全   高
 50
0.000000
 51
0.000000
  7
EASYDRAW_FONT
 72
     5
 11
2846.399658
 21
1439.501709
  0
TEXT
  8
CSLAYER1
 62
     3
 10
2686.399658
 20
1377.175049
 40
40.000000
 41
0.857143
  1
リフト方式
 50
0.000000
 51
0.000000
  7
EASYDRAW_FONT
 72
     5
 11
2846.399658
 21
1377.175049
  0
TEXT
  8
CSLAYER1
 62
     3
 10
3138.268066
 20
1823.065552
 40
40.000000
 41
0.872727
  1
 500
 50
0.000000
 51
0.000000
  7
EASYDRAW_FONT
 72
     5
 11
3266.268066
 21
1823.065552
  0
TEXT
  8
CSLAYER1
 62
     3
 10
3324.424805
 20
1819.392212
 40
40.000000
 41
0.960000
  1
Ｋｇ
 50
0.000000
 51
0.000000
  7
EASYDRAW_FONT
 72
     5
 11
3388.424805
 21
1819.392212
  0
TEXT
  8
CSLAYER1
 62
     3
 10
2961.152344
 20
1758.562134
 40
40.000000
 41
0.827586
  1
1050L×650W
 50
0.000000
 51
0.000000
  7
EASYDRAW_FONT
 72
     5
 11
3281.152344
 21
1758.562134
  0
TEXT
  8
CSLAYER1
 62
     3
 10
3037.859863
 20
1696.028564
 40
40.000000
 41
0.840000
  1
155～905
 50
0.000000
 51
0.000000
  7
EASYDRAW_FONT
 72
     5
 11
3261.859863
 21
1696.028564
  0
TEXT
  8
CSLAYER1
 62
     3
 10
3164.106445
 20
1632.353760
 40
40.000000
 41
0.900000
  1
750
 50
0.000000
 51
0.000000
  7
EASYDRAW_FONT
 72
     5
 11
3260.106445
 21
1632.353760
  0
TEXT
  8
CSLAYER1
 62
     3
 10
3134.484131
 20
1568.782959
 40
40.000000
 41
0.872727
  1
1050
 50
0.000000
 51
0.000000
  7
EASYDRAW_FONT
 72
     5
 11
3262.484131
 21
1568.782959
  0
TEXT
  8
CSLAYER1
 62
     3
 10
3166.225586
 20
1504.263916
 40
40.000000
 41
0.900000
  1
650
 50
0.000000
 51
0.000000
  7
EASYDRAW_FONT
 72
     5
 11
3262.225586
 21
1504.263916
  0
TEXT
  8
CSLAYER1
 62
     3
 10
2957.436768
 20
1378.129639
 40
40.000000
 41
0.827586
  1
電 動 ボールネジ式
 50
0.000000
 51
0.000000
  7
EASYDRAW_FONT
 72
     5
 11
3277.436768
 21
1378.129639
  0
TEXT
  8
CSLAYER1
 62
     3
 10
3164.216797
 20
1439.602295
 40
40.000000
 41
0.900000
  1
155
 50
0.000000
 51
0.000000
  7
EASYDRAW_FONT
 72
     5
 11
3260.216797
 21
1439.602295
  0
TEXT
  8
CSLAYER1
 62
     3
 10
3321.910645
 20
1755.288818
 40
40.000000
 41
0.960000
  1
mm
 50
0.000000
 51
0.000000
  7
EASYDRAW_FONT
 72
     5
 11
3385.910645
 21
1755.288818
  0
TEXT
  8
CSLAYER1
 62
     3
 10
3321.910645
 20
1694.955811
 40
40.000000
 41
0.960000
  1
mm
 50
0.000000
 51
0.000000
  7
EASYDRAW_FONT
 72
     5
 11
3385.910645
 21
1694.955811
  0
TEXT
  8
CSLAYER1
 62
     3
 10
3318.139893
 20
1630.851807
 40
40.000000
 41
0.960000
  1
mm
 50
0.000000
 51
0.000000
  7
EASYDRAW_FONT
 72
     5
 11
3382.139893
 21
1630.851807
  0
TEXT
  8
CSLAYER1
 62
     3
 10
3318.139893
 20
1562.976807
 40
40.000000
 41
0.960000
  1
mm
 50
0.000000
 51
0.000000
  7
EASYDRAW_FONT
 72
     5
 11
3382.139893
 21
1562.976807
  0
TEXT
  8
CSLAYER1
 62
     3
 10
3315.626465
 20
1502.643799
 40
40.000000
 41
0.960000
  1
mm
 50
0.000000
 51
0.000000
  7
EASYDRAW_FONT
 72
     5
 11
3379.626465
 21
1502.643799
  0
TEXT
  8
CSLAYER1
 62
     3
 10
3315.626465
 20
1438.539307
 40
40.000000
 41
0.960000
  1
mm
 50
0.000000
 51
0.000000
  7
EASYDRAW_FONT
 72
     5
 11
3379.626465
 21
1438.539307
  0
LINE
  8
CSLAYER1
  6
CONTINUOUS
 62
     5
 10
3057.863150
 20
1940.333995
 11
2849.477178
 21
1940.333995
  0
LINE
  8
CSLAYER1
  6
CONTINUOUS
 62
     5
 10
3057.863150
 20
1948.333994
 11
2849.477178
 21
1948.333994
  0
LINE
  8
CSLAYER1
  6
CONTINUOUS
 62
     3
 10
1128.666797
 20
2156.937885
 11
1128.666797
 21
1506.937885
  0
TEXT
  8
CSLAYER1
 62
     5
 10
2644.437988
 20
2090.372559
 40
40.000000
 41
1.020000
  1
ＵＰ・ＤＯＷＮ
 50
360.000000
 51
0.000000
  7
EASYDRAW_FONT
 72
     5
 11
2916.437988
 21
2090.372559
  0
TEXT
  8
CSLAYER1
 62
     5
 10
2643.801025
 20
2148.332031
 40
40.000000
 41
1.020000
  1
フットスイッチ
 50
360.000000
 51
0.000000
  7
EASYDRAW_FONT
 72
     5
 11
2915.801025
 21
2148.332031
  0
LINE
  8
CSLAYER1
  6
CONTINUOUS
 62
     3
 10
2262.215798
 20
1828.237885
 11
2472.753542
 21
1828.237885
  0
LINE
  8
CSLAYER1
  6
CONTINUOUS
 62
     3
 10
2261.683161
 20
1835.237885
 11
2472.753542
 21
1835.237885
  0
ARC
  8
CSLAYER1
  6
CONTINUOUS
 62
     3
 10
2268.520558
 20
1788.737885
 40
40.000000
 50
-260.931278
 51
63.817766
  0
ARC
  8
CSLAYER1
  6
CONTINUOUS
 62
     3
 10
2268.520558
 20
1788.737885
 40
47.000000
 50
-261.635125
 51
49.860785
  0
LINE
  8
CSLAYER1
  6
CONTINUOUS
 62
     3
 10
2178.668501
 20
1828.237885
 11
2238.528941
 21
1828.237885
  0
LINE
  8
CSLAYER1
  6
CONTINUOUS
 62
     3
 10
2178.668501
 20
1835.237885
 11
2249.235833
 21
1835.237885
  0
LINE
  8
CSLAYER1
  6
CONTINUOUS
 62
     3
 10
2178.668501
 20
1870.437885
 11
2294.113469
 21
1870.437885
  0
LINE
  8
CSLAYER1
  6
CONTINUOUS
 62
     3
 10
2178.668501
 20
1863.437885
 11
2303.995259
 21
1863.437885
  0
TEXT
  8
CSLAYER1
 62
     5
 10
2496.098877
 20
2267.936035
 40
40.000000
 41
1.028571
  1
電源コード
 50
360.000000
 51
0.000000
  7
EASYDRAW_FONT
 72
     5
 11
2688.098877
 21
2267.936035
  0
TEXT
  8
CSLAYER1
 62
     5
 10
2516.098877
 20
2216.708496
 40
40.000000
 41
1.036364
  1
長サ４ｍ
 50
360.000000
 51
0.000000
  7
EASYDRAW_FONT
 72
     5
 11
2668.098877
 21
2216.708496
  0
LINE
  8
CSLAYER1
  6
CONTINUOUS
 62
     3
 10
2540.613786
 20
2017.050124
 11
2545.684414
 21
2018.959841
  0
LINE
  8
CSLAYER1
  6
CONTINUOUS
 62
     3
 10
2545.684414
 20
2018.959841
 11
2552.109046
 21
2019.138303
  0
LINE
  8
CSLAYER1
  6
CONTINUOUS
 62
     3
 10
2539.559456
 20
2018.439226
 11
2545.208515
 21
2020.803948
  0
LINE
  8
CSLAYER1
  6
CONTINUOUS
 62
     3
 10
2545.208515
 20
2020.803948
 11
2550.562375
 21
2022.112669
  0
LINE
  8
CSLAYER1
  6
CONTINUOUS
 62
     3
 10
2538.717261
 20
2019.548835
 11
2543.602357
 21
2022.410106
  0
LINE
  8
CSLAYER1
  6
CONTINUOUS
 62
     3
 10
2543.602357
 20
2022.410106
 11
2545.922363
 21
2025.741397
  0
ARC
  8
CSLAYER1
  6
CONTINUOUS
 62
     3
 10
2325.648409
 20
1910.437885
 40
47.000000
 50
-10.756396
 51
307.198537
  0
ARC
  8
CSLAYER1
  6
CONTINUOUS
 62
     3
 10
2325.648409
 20
1910.437885
 40
40.000000
 50
-23.471057
 51
307.198537
  0
LINE
  8
CSLAYER1
  6
CONTINUOUS
 62
     3
 10
2541.797539
 20
2015.490503
 11
2354.063612
 21
1873.000253
  0
LINE
  8
CSLAYER1
  6
CONTINUOUS
 62
     3
 10
2537.565488
 20
2021.066321
 11
2349.831560
 21
1878.576070
  0
LINE
  8
CSLAYER1
  6
CONTINUOUS
 62
     3
 10
2541.797539
 20
2015.490503
 11
2537.565488
 21
2021.066321
  0
LINE
  8
CSLAYER1
  6
CONTINUOUS
 62
     5
 10
2483.262704
 20
2262.354162
 11
2702.514229
 21
2262.354162
  0
LINE
  8
CSLAYER1
  6
CONTINUOUS
 62
     5
 10
2633.963311
 20
2141.208256
 11
2927.832737
 21
2141.208256
  0
LINE
  8
CSLAYER1
  6
PHANTOM
 62
     5
 10
1128.666797
 20
549.761620
 11
2178.666797
 21
549.761620
  0
LINE
  8
CSLAYER1
  6
PHANTOM
 62
     5
 10
2178.666797
 20
549.761620
 11
2178.666797
 21
496.761620
  0
LINE
  8
CSLAYER1
  6
PHANTOM
 62
     5
 10
1128.666797
 20
496.761620
 11
2178.666797
 21
496.761620
  0
LINE
  8
CSLAYER1
  6
PHANTOM
 62
     5
 10
1128.666797
 20
549.761620
 11
1128.666797
 21
496.761620
  0
DIMENSION
  8
CSLAYER1
 62
     7
  2
*D0000
 10
2278.641621
 20
549.761620
 11
2330.408691
 21
474.261383
 13
2378.641621
 23
394.761620
 14
2178.666797
 24
549.761620
 50
90.000000
  0
DIMENSION
  8
CSLAYER1
 62
     7
  2
*D0001
 10
2278.641621
 20
1316.307238
 11
2268.641602
 21
933.034424
 13
2158.641621
 23
549.761620
 14
2158.641621
 24
1316.307238
 50
90.000000
 70
1
  0
DIMENSION
  8
CSLAYER1
 62
     7
  2
*D0002
 10
2378.641621
 20
394.761620
 11
2368.641602
 21
855.534363
 13
2378.641621
 23
1316.307238
 14
2378.641621
 24
394.761620
 50
90.000000
 70
1
  0
DIMENSION
  8
CSLAYER1
 62
     7
  2
*D0003
 10
2178.641621
 20
1413.249663
 11
1653.654175
 21
1423.249756
 13
1128.666797
 23
1313.307238
 14
2178.641621
 24
1313.307238
 70
1
  0
DIMENSION
  8
CSLAYER1
 62
     7
  2
*D0004
 10
2178.666797
 20
298.635827
 11
1653.666748
 21
308.635925
 13
1128.666797
 23
394.761620
 14
2178.666797
 24
394.761620
 52
270.000000
 70
1
  0
LINE
  8
CSLAYER1
  6
CENTER
 62
     5
 10
528.805695
 20
1331.047792
 11
528.805695
 21
374.059739
  0
LINE
  8
CSLAYER1
  6
CONTINUOUS
 62
     4
 10
778.805695
 20
459.043404
 11
778.805695
 21
394.761620
  0
LINE
  8
CSLAYER1
  6
CONTINUOUS
 62
     4
 10
850.805695
 20
1316.307238
 11
206.805695
 21
1316.307238
  0
LINE
  8
CSLAYER1
  6
CONTINUOUS
 62
     4
 10
853.805695
 20
1313.307238
 11
853.805695
 21
1263.307238
  0
LINE
  8
CSLAYER1
  6
CENTER
 62
     5
 10
657.305695
 20
1196.982913
 11
400.305695
 21
1196.982913
  0
POINT
  8
CSLAYER1
 62
     4
 10
603.805695
 20
1109.400221
  0
LINE
  8
CSLAYER1
  6
CONTINUOUS
 62
     5
 10
617.931072
 20
1109.400223
 11
589.691982
 21
1109.400223
  0
LINE
  8
CSLAYER1
  6
CONTINUOUS
 62
     4
 10
612.305695
 20
1134.400223
 11
612.305695
 21
1174.982913
  0
LINE
  8
CSLAYER1
  6
CONTINUOUS
 62
     4
 10
613.805695
 20
1126.400223
 11
613.805695
 21
1174.982913
  0
LINE
  8
CSLAYER1
  6
CONTINUOUS
 62
     4
 10
613.805695
 20
1134.400223
 11
593.805695
 21
1134.400223
  0
LINE
  8
CSLAYER1
  6
CONTINUOUS
 62
     4
 10
612.305695
 20
1134.400223
 11
613.805695
 21
1131.802147
  0
LINE
  8
CSLAYER1
  6
CONTINUOUS
 62
     4
 10
595.305695
 20
1134.400223
 11
595.305695
 21
1174.982913
  0
LINE
  8
CSLAYER1
  6
CONTINUOUS
 62
     4
 10
595.305695
 20
1134.400223
 11
593.805695
 21
1131.802147
  0
LINE
  8
CSLAYER1
  6
CONTINUOUS
 62
     4
 10
593.805695
 20
1126.400223
 11
593.805695
 21
1174.982913
  0
LINE
  8
CSLAYER1
  6
CONTINUOUS
 62
     4
 10
591.280695
 20
1124.400221
 11
616.330695
 21
1124.400221
  0
POINT
  8
CSLAYER1
 62
     4
 10
603.805695
 20
1077.650221
  0
LINE
  8
CSLAYER1
  6
CONTINUOUS
 62
     4
 10
617.330695
 20
1123.400221
 11
617.330695
 21
1030.850221
  0
LINE
  8
CSLAYER1
  6
CONTINUOUS
 62
     4
 10
613.330695
 20
1092.700221
 11
613.330695
 21
1030.850221
  0
LINE
  8
CSLAYER1
  6
CONTINUOUS
 62
     4
 10
613.330695
 20
1092.700221
 11
617.330695
 21
1092.700221
  0
LINE
  8
CSLAYER1
  6
CONTINUOUS
 62
     4
 10
612.330695
 20
1068.125221
 11
595.280695
 21
1068.125221
  0
LINE
  8
CSLAYER1
  6
CONTINUOUS
 62
     4
 10
612.330695
 20
1087.175221
 11
595.280695
 21
1087.175221
  0
ARC
  8
CSLAYER1
  6
CONTINUOUS
 62
     4
 10
612.330695
 20
1069.125221
 40
1.000000
 50
270.000000
 51
360.000000
  0
ARC
  8
CSLAYER1
  6
CONTINUOUS
 62
     4
 10
612.330695
 20
1086.175221
 40
1.000000
 50
0.000000
 51
90.000000
  0
LINE
  8
CSLAYER1
  6
CONTINUOUS
 62
     4
 10
590.280695
 20
1123.400221
 11
590.280695
 21
1030.150221
  0
LINE
  8
CSLAYER1
  6
CONTINUOUS
 62
     4
 10
594.280695
 20
1092.700221
 11
594.280695
 21
1030.850221
  0
LINE
  8
CSLAYER1
  6
CONTINUOUS
 62
     4
 10
594.280695
 20
1092.700221
 11
590.280695
 21
1092.700221
  0
ARC
  8
CSLAYER1
  6
CONTINUOUS
 62
     4
 10
595.280695
 20
1069.125221
 40
1.000000
 50
180.000000
 51
270.000000
  0
ARC
  8
CSLAYER1
  6
CONTINUOUS
 62
     4
 10
595.280695
 20
1086.175221
 40
1.000000
 50
90.000000
 51
180.000000
  0
LINE
  8
CSLAYER1
  6
CONTINUOUS
 62
     4
 10
623.555695
 20
1073.880221
 11
623.555695
 21
1081.429948
  0
LINE
  8
CSLAYER1
  6
CONTINUOUS
 62
     4
 10
617.330695
 20
1064.650221
 11
621.705695
 21
1064.650221
  0
LINE
  8
CSLAYER1
  6
CONTINUOUS
 62
     4
 10
617.330695
 20
1122.400221
 11
621.705695
 21
1122.400221
  0
LINE
  8
CSLAYER1
  6
CONTINUOUS
 62
     4
 10
621.705695
 20
1072.880221
 11
622.555695
 21
1072.880221
  0
LINE
  8
CSLAYER1
  6
CONTINUOUS
 62
     4
 10
621.705695
 20
1082.429948
 11
622.555695
 21
1082.429948
  0
ARC
  8
CSLAYER1
  6
CONTINUOUS
 62
     4
 10
622.555695
 20
1073.880221
 40
1.000000
 50
270.000000
 51
360.000000
  0
ARC
  8
CSLAYER1
  6
CONTINUOUS
 62
     4
 10
622.555695
 20
1081.429948
 40
1.000000
 50
0.000000
 51
90.000000
  0
LINE
  8
CSLAYER1
  6
CONTINUOUS
 62
     4
 10
623.555695
 20
1105.630221
 11
623.555695
 21
1113.179948
  0
LINE
  8
CSLAYER1
  6
CONTINUOUS
 62
     4
 10
621.705695
 20
1104.630221
 11
622.555695
 21
1104.630221
  0
LINE
  8
CSLAYER1
  6
CONTINUOUS
 62
     4
 10
621.705695
 20
1114.179948
 11
622.555695
 21
1114.179948
  0
ARC
  8
CSLAYER1
  6
CONTINUOUS
 62
     4
 10
622.555695
 20
1105.630221
 40
1.000000
 50
270.000000
 51
360.000000
  0
ARC
  8
CSLAYER1
  6
CONTINUOUS
 62
     4
 10
622.555695
 20
1113.179948
 40
1.000000
 50
0.000000
 51
90.000000
  0
LINE
  8
CSLAYER1
  6
CONTINUOUS
 62
     4
 10
584.055695
 20
1073.880221
 11
584.055695
 21
1081.429948
  0
LINE
  8
CSLAYER1
  6
CONTINUOUS
 62
     4
 10
590.280695
 20
1064.650221
 11
585.905695
 21
1064.650221
  0
LINE
  8
CSLAYER1
  6
CONTINUOUS
 62
     4
 10
590.280695
 20
1122.400221
 11
585.905695
 21
1122.400221
  0
LINE
  8
CSLAYER1
  6
CONTINUOUS
 62
     4
 10
585.905695
 20
1072.880221
 11
585.055695
 21
1072.880221
  0
LINE
  8
CSLAYER1
  6
CONTINUOUS
 62
     4
 10
585.905695
 20
1082.429948
 11
585.055695
 21
1082.429948
  0
ARC
  8
CSLAYER1
  6
CONTINUOUS
 62
     4
 10
585.055695
 20
1073.880221
 40
1.000000
 50
180.000000
 51
270.000000
  0
ARC
  8
CSLAYER1
  6
CONTINUOUS
 62
     4
 10
585.055695
 20
1081.429948
 40
1.000000
 50
90.000000
 51
180.000000
  0
LINE
  8
CSLAYER1
  6
CONTINUOUS
 62
     4
 10
580.955695
 20
1105.630221
 11
580.955695
 21
1113.179948
  0
LINE
  8
CSLAYER1
  6
CONTINUOUS
 62
     4
 10
585.905695
 20
1104.630221
 11
581.955695
 21
1104.630221
  0
LINE
  8
CSLAYER1
  6
CONTINUOUS
 62
     4
 10
585.905695
 20
1114.179948
 11
581.955695
 21
1114.179948
  0
ARC
  8
CSLAYER1
  6
CONTINUOUS
 62
     4
 10
581.955695
 20
1105.630221
 40
1.000000
 50
180.000000
 51
270.000000
  0
ARC
  8
CSLAYER1
  6
CONTINUOUS
 62
     4
 10
581.955695
 20
1113.179948
 40
1.000000
 50
90.000000
 51
180.000000
  0
LINE
  8
CSLAYER1
  6
CONTINUOUS
 62
     4
 10
590.280695
 20
1114.179948
 11
617.330695
 21
1114.179948
  0
LINE
  8
CSLAYER1
  6
CONTINUOUS
 62
     4
 10
590.280695
 20
1104.630221
 11
617.330695
 21
1104.630221
  0
LINE
  8
CSLAYER1
  6
CONTINUOUS
 62
     4
 10
592.280695
 20
1094.400221
 11
615.330695
 21
1094.400221
  0
ARC
  8
CSLAYER1
  6
CONTINUOUS
 62
     4
 10
615.330695
 20
1096.400221
 40
2.000000
 50
270.000000
 51
360.000000
  0
ARC
  8
CSLAYER1
  6
CONTINUOUS
 62
     4
 10
592.280695
 20
1096.400221
 40
2.000000
 50
180.000000
 51
270.000000
  0
ARC
  8
CSLAYER1
  6
CONTINUOUS
 62
     4
 10
591.805695
 20
1126.400221
 40
2.000000
 50
270.000000
 51
360.000000
  0
ARC
  8
CSLAYER1
  6
CONTINUOUS
 62
     4
 10
615.805695
 20
1126.400221
 40
2.000000
 50
180.000000
 51
270.000000
  0
ARC
  8
CSLAYER1
  6
CONTINUOUS
 62
     4
 10
591.280695
 20
1123.400221
 40
1.000000
 50
90.000000
 51
180.000000
  0
ARC
  8
CSLAYER1
  6
CONTINUOUS
 62
     4
 10
616.330695
 20
1123.400221
 40
1.000000
 50
0.000000
 51
90.000000
  0
POINT
  8
CSLAYER1
 62
     4
 10
603.805695
 20
1124.400221
  0
LINE
  8
CSLAYER1
  6
CONTINUOUS
 62
     4
 10
621.705695
 20
1064.650221
 11
621.705695
 21
1122.400221
  0
LINE
  8
CSLAYER1
  6
CONTINUOUS
 62
     4
 10
585.905695
 20
1064.650221
 11
585.905695
 21
1122.400221
  0
LINE
  8
CSLAYER1
  6
CONTINUOUS
 62
     4
 10
607.005695
 20
459.761620
 11
607.005695
 21
485.423365
  0
LINE
  8
CSLAYER1
  6
CONTINUOUS
 62
     5
 10
601.176519
 20
477.678686
 11
635.716649
 21
477.678686
  0
LINE
  8
CSLAYER1
  6
CONTINUOUS
 62
     4
 10
605.805695
 20
482.678686
 11
607.005695
 21
482.678686
  0
LINE
  8
CSLAYER1
  6
CONTINUOUS
 62
     4
 10
605.805695
 20
472.678686
 11
607.005695
 21
472.678686
  0
LINE
  8
CSLAYER1
  6
CONTINUOUS
 62
     4
 10
607.005695
 20
472.372396
 11
610.005695
 21
472.372396
  0
LINE
  8
CSLAYER1
  6
CENTER
 62
     5
 10
664.088680
 20
749.028002
 11
574.767636
 21
749.028002
  0
POINT
  8
CSLAYER1
 62
     4
 10
603.805695
 20
1045.900221
  0
LINE
  8
CSLAYER1
  6
CONTINUOUS
 62
     4
 10
613.330695
 20
1030.850221
 11
617.330695
 21
1030.850221
  0
LINE
  8
CSLAYER1
  6
CONTINUOUS
 62
     4
 10
612.330695
 20
1055.425221
 11
595.280695
 21
1055.425221
  0
LINE
  8
CSLAYER1
  6
CONTINUOUS
 62
     4
 10
612.330695
 20
1036.375221
 11
595.280695
 21
1036.375221
  0
ARC
  8
CSLAYER1
  6
CONTINUOUS
 62
     4
 10
612.330695
 20
1054.425221
 40
1.000000
 50
0.000000
 51
90.000000
  0
ARC
  8
CSLAYER1
  6
CONTINUOUS
 62
     4
 10
612.330695
 20
1037.375221
 40
1.000000
 50
270.000000
 51
360.000000
  0
LINE
  8
CSLAYER1
  6
CONTINUOUS
 62
     4
 10
594.280695
 20
1030.850221
 11
590.280695
 21
1030.850221
  0
ARC
  8
CSLAYER1
  6
CONTINUOUS
 62
     4
 10
595.280695
 20
1054.425221
 40
1.000000
 50
90.000000
 51
180.000000
  0
ARC
  8
CSLAYER1
  6
CONTINUOUS
 62
     4
 10
595.280695
 20
1037.375221
 40
1.000000
 50
180.000000
 51
270.000000
  0
LINE
  8
CSLAYER1
  6
CONTINUOUS
 62
     4
 10
623.555695
 20
1049.670221
 11
623.555695
 21
1042.120495
  0
LINE
  8
CSLAYER1
  6
CONTINUOUS
 62
     4
 10
617.330695
 20
1058.900221
 11
621.705695
 21
1058.900221
  0
LINE
  8
CSLAYER1
  6
CONTINUOUS
 62
     4
 10
621.705695
 20
1050.670221
 11
622.555695
 21
1050.670221
  0
LINE
  8
CSLAYER1
  6
CONTINUOUS
 62
     4
 10
621.705695
 20
1041.120495
 11
622.555695
 21
1041.120495
  0
ARC
  8
CSLAYER1
  6
CONTINUOUS
 62
     4
 10
622.555695
 20
1049.670221
 40
1.000000
 50
0.000000
 51
90.000000
  0
ARC
  8
CSLAYER1
  6
CONTINUOUS
 62
     4
 10
622.555695
 20
1042.120495
 40
1.000000
 50
270.000000
 51
360.000000
  0
LINE
  8
CSLAYER1
  6
CONTINUOUS
 62
     4
 10
584.055695
 20
1049.670221
 11
584.055695
 21
1042.120495
  0
LINE
  8
CSLAYER1
  6
CONTINUOUS
 62
     4
 10
590.280695
 20
1058.900221
 11
585.905695
 21
1058.900221
  0
LINE
  8
CSLAYER1
  6
CONTINUOUS
 62
     4
 10
585.905695
 20
1050.670221
 11
585.055695
 21
1050.670221
  0
LINE
  8
CSLAYER1
  6
CONTINUOUS
 62
     4
 10
585.905695
 20
1041.120495
 11
585.055695
 21
1041.120495
  0
ARC
  8
CSLAYER1
  6
CONTINUOUS
 62
     4
 10
585.055695
 20
1049.670221
 40
1.000000
 50
90.000000
 51
180.000000
  0
ARC
  8
CSLAYER1
  6
CONTINUOUS
 62
     4
 10
585.055695
 20
1042.120495
 40
1.000000
 50
180.000000
 51
270.000000
  0
LINE
  8
CSLAYER1
  6
CONTINUOUS
 62
     4
 10
585.905695
 20
1058.900221
 11
585.905695
 21
1001.150221
  0
LINE
  8
CSLAYER1
  6
CONTINUOUS
 62
     4
 10
621.705695
 20
1058.900221
 11
621.705695
 21
1001.150221
  0
LINE
  8
CSLAYER1
  6
CONTINUOUS
 62
     4
 10
2537.859692
 20
394.761620
 11
168.155026
 21
394.761620
  0
LINE
  8
CSLAYER1
  6
CONTINUOUS
 62
     4
 10
607.005695
 20
476.719615
 11
610.005695
 21
476.719615
  0
LINE
  8
CSLAYER1
  6
CONTINUOUS
 62
     4
 10
607.005695
 20
485.423365
 11
611.005695
 21
485.423365
  0
LINE
  8
CSLAYER1
  6
CONTINUOUS
 62
     4
 10
610.005695
 20
459.761620
 11
610.005695
 21
485.423365
  0
LINE
  8
CSLAYER1
  6
CONTINUOUS
 62
     4
 10
626.005695
 20
459.761620
 11
626.005695
 21
485.423365
  0
LINE
  8
CSLAYER1
  6
CONTINUOUS
 62
     4
 10
614.505695
 20
503.451688
 11
614.505695
 21
515.763425
  0
LINE
  8
CSLAYER1
  6
CONTINUOUS
 62
     4
 10
621.505695
 20
503.451688
 11
621.505695
 21
515.763425
  0
LINE
  8
CSLAYER1
  6
CONTINUOUS
 62
     4
 10
611.005695
 20
476.137191
 11
611.005695
 21
491.467550
  0
LINE
  8
CSLAYER1
  6
CONTINUOUS
 62
     4
 10
625.005695
 20
476.137191
 11
625.005695
 21
491.467550
  0
LINE
  8
CSLAYER1
  6
CONTINUOUS
 62
     4
 10
616.005695
 20
503.451688
 11
616.005695
 21
531.741358
  0
LINE
  8
CSLAYER1
  6
CONTINUOUS
 62
     4
 10
620.005695
 20
503.451688
 11
620.005695
 21
527.701914
  0
LINE
  8
CSLAYER1
  6
CONTINUOUS
 62
     4
 10
612.466513
 20
503.451688
 11
623.544878
 21
503.451688
  0
LINE
  8
CSLAYER1
  6
CONTINUOUS
 62
     4
 10
610.005695
 20
476.137191
 11
626.005695
 21
476.137191
  0
LINE
  8
CSLAYER1
  6
CONTINUOUS
 62
     4
 10
625.005695
 20
491.467550
 11
623.544878
 21
503.451688
  0
LINE
  8
CSLAYER1
  6
CONTINUOUS
 62
     4
 10
611.005695
 20
491.467550
 11
612.466513
 21
503.451688
  0
LINE
  8
CSLAYER1
  6
CONTINUOUS
 62
     4
 10
627.005695
 20
469.886228
 11
627.005695
 21
477.486228
  0
LINE
  8
CSLAYER1
  6
CONTINUOUS
 62
     4
 10
627.005695
 20
469.886228
 11
626.005695
 21
469.886228
  0
LINE
  8
CSLAYER1
  6
CONTINUOUS
 62
     4
 10
627.005695
 20
477.486228
 11
626.005695
 21
477.486228
  0
LINE
  8
CSLAYER1
  6
CONTINUOUS
 62
     4
 10
629.605695
 20
472.186228
 11
629.605695
 21
475.186228
  0
LINE
  8
CSLAYER1
  6
CONTINUOUS
 62
     4
 10
627.605695
 20
470.186228
 11
627.005695
 21
470.186228
  0
LINE
  8
CSLAYER1
  6
CONTINUOUS
 62
     4
 10
627.605695
 20
477.186228
 11
627.005695
 21
477.186228
  0
ARC
  8
CSLAYER1
  6
CONTINUOUS
 62
     4
 10
627.605695
 20
472.186228
 40
2.000000
 50
270.000000
 51
360.000000
  0
ARC
  8
CSLAYER1
  6
CONTINUOUS
 62
     4
 10
627.605695
 20
475.186228
 40
2.000000
 50
0.000000
 51
90.000000
  0
LINE
  8
CSLAYER1
  6
CONTINUOUS
 62
     4
 10
625.005695
 20
485.423365
 11
626.005695
 21
485.423365
  0
LINE
  8
CSLAYER1
  6
CONTINUOUS
 62
     4
 10
620.005695
 20
515.255218
 11
621.505695
 21
515.255218
  0
LINE
  8
CSLAYER1
  6
CONTINUOUS
 62
     4
 10
620.005695
 20
515.763425
 11
621.505695
 21
515.763425
  0
LINE
  8
CSLAYER1
  6
CONTINUOUS
 62
     4
 10
615.259634
 20
532.188995
 11
624.233795
 21
524.411389
  0
LINE
  8
CSLAYER1
  6
CONTINUOUS
 62
     4
 10
605.805695
 20
482.678686
 11
605.805695
 21
472.678686
  0
LINE
  8
CSLAYER1
  6
CONTINUOUS
 62
     4
 10
626.005695
 20
482.678686
 11
635.805695
 21
482.678686
  0
LINE
  8
CSLAYER1
  6
CONTINUOUS
 62
     4
 10
629.544119
 20
472.678686
 11
635.805695
 21
472.678686
  0
LINE
  8
CSLAYER1
  6
CONTINUOUS
 62
     4
 10
635.805695
 20
459.761620
 11
635.805695
 21
1263.307238
  0
LINE
  8
CSLAYER1
  6
CONTINUOUS
 62
     4
 10
651.805695
 20
459.761620
 11
651.805695
 21
1263.307238
  0
LINE
  8
CSLAYER1
  6
CONTINUOUS
 62
     4
 10
573.355695
 20
1042.467453
 11
573.355695
 21
802.555680
  0
LINE
  8
CSLAYER1
  6
CONTINUOUS
 62
     4
 10
559.055695
 20
1166.732913
 11
559.055695
 21
1060.713294
  0
LINE
  8
CSLAYER1
  6
CONTINUOUS
 62
     4
 10
573.355695
 20
1042.467453
 11
573.186169
 21
1044.582171
  0
LINE
  8
CSLAYER1
  6
CONTINUOUS
 62
     4
 10
573.186169
 20
1044.582171
 11
572.678881
 21
1046.680795
  0
LINE
  8
CSLAYER1
  6
CONTINUOUS
 62
     4
 10
572.678881
 20
1046.680795
 11
571.837691
 21
1048.747353
  0
LINE
  8
CSLAYER1
  6
CONTINUOUS
 62
     4
 10
571.837691
 20
1048.747353
 11
570.669002
 21
1050.766117
  0
LINE
  8
CSLAYER1
  6
CONTINUOUS
 62
     4
 10
570.669002
 20
1050.766117
 11
569.181707
 21
1052.721723
  0
LINE
  8
CSLAYER1
  6
CONTINUOUS
 62
     4
 10
569.181707
 20
1052.721723
 11
567.387127
 21
1054.599288
  0
LINE
  8
CSLAYER1
  6
CONTINUOUS
 62
     4
 10
567.387127
 20
1054.599288
 11
565.298919
 21
1056.384522
  0
LINE
  8
CSLAYER1
  6
CONTINUOUS
 62
     4
 10
565.298919
 20
1056.384522
 11
562.932975
 21
1058.063839
  0
LINE
  8
CSLAYER1
  6
CONTINUOUS
 62
     4
 10
562.932975
 20
1058.063839
 11
560.307303
 21
1059.624458
  0
LINE
  8
CSLAYER1
  6
CONTINUOUS
 62
     4
 10
560.307303
 20
1059.624458
 11
557.441884
 21
1061.054502
  0
LINE
  8
CSLAYER1
  6
CONTINUOUS
 62
     4
 10
557.441884
 20
1061.054502
 11
554.358526
 21
1062.343087
  0
LINE
  8
CSLAYER1
  6
CONTINUOUS
 62
     4
 10
554.358526
 20
1062.343087
 11
551.080695
 21
1063.480407
  0
LINE
  8
CSLAYER1
  6
CONTINUOUS
 62
     4
 10
551.080695
 20
1063.480407
 11
547.633339
 21
1064.457805
  0
LINE
  8
CSLAYER1
  6
CONTINUOUS
 62
     4
 10
547.633339
 20
1064.457805
 11
544.042693
 21
1065.267844
  0
LINE
  8
CSLAYER1
  6
CONTINUOUS
 62
     4
 10
544.042693
 20
1065.267844
 11
540.336084
 21
1065.904358
  0
LINE
  8
CSLAYER1
  6
CONTINUOUS
 62
     4
 10
540.336084
 20
1065.904358
 11
536.541722
 21
1066.362502
  0
LINE
  8
CSLAYER1
  6
CONTINUOUS
 62
     4
 10
536.541722
 20
1066.362502
 11
532.688484
 21
1066.638791
  0
LINE
  8
CSLAYER1
  6
CONTINUOUS
 62
     4
 10
532.688484
 20
1066.638791
 11
528.805695
 21
1066.731122
  0
LINE
  8
CSLAYER1
  6
CONTINUOUS
 62
     4
 10
694.805695
 20
687.247445
 11
651.805695
 21
687.247445
  0
LINE
  8
CSLAYER1
  6
CONTINUOUS
 62
     4
 10
694.805695
 20
607.834188
 11
651.805695
 21
607.834188
  0
LINE
  8
CSLAYER1
  6
CONTINUOUS
 62
     4
 10
651.805695
 20
702.441059
 11
694.805695
 21
702.441059
  0
LINE
  8
CSLAYER1
  6
CONTINUOUS
 62
     4
 10
635.805695
 20
687.247445
 11
583.929148
 21
687.247445
  0
LINE
  8
CSLAYER1
  6
CONTINUOUS
 62
     4
 10
635.805695
 20
607.834188
 11
613.805695
 21
607.834188
  0
LINE
  8
CSLAYER1
  6
CONTINUOUS
 62
     4
 10
606.362362
 20
702.441059
 11
635.805695
 21
702.441059
  0
LINE
  8
CSLAYER1
  6
CONTINUOUS
 62
     4
 10
710.805695
 20
1173.107238
 11
710.805695
 21
806.934429
  0
LINE
  8
CSLAYER1
  6
CONTINUOUS
 62
     4
 10
694.805695
 20
1173.107238
 11
694.805695
 21
459.761620
  0
LINE
  8
CSLAYER1
  6
CONTINUOUS
 62
     4
 10
853.805695
 20
1263.307238
 11
203.805695
 21
1263.307238
  0
ARC
  8
CSLAYER1
  6
CONTINUOUS
 62
     4
 10
850.805695
 20
1313.307238
 40
3.000000
 50
0.000000
 51
90.000000
  0
LINE
  8
CSLAYER1
  6
CENTER
 62
     5
 10
603.805695
 20
1281.529347
 11
603.805695
 21
796.526892
  0
LINE
  8
CSLAYER1
  6
CONTINUOUS
 62
     4
 10
653.805695
 20
765.028002
 11
653.805695
 21
733.028002
  0
LINE
  8
CSLAYER1
  6
CONTINUOUS
 62
     4
 10
663.805695
 20
763.028002
 11
663.805695
 21
735.028002
  0
LINE
  8
CSLAYER1
  6
CONTINUOUS
 62
     4
 10
661.805695
 20
765.028002
 11
653.805695
 21
765.028002
  0
LINE
  8
CSLAYER1
  6
CONTINUOUS
 62
     4
 10
663.805695
 20
763.028002
 11
661.805695
 21
765.028002
  0
LINE
  8
CSLAYER1
  6
CONTINUOUS
 62
     4
 10
661.805695
 20
765.028002
 11
661.805695
 21
733.028002
  0
LINE
  8
CSLAYER1
  6
CONTINUOUS
 62
     4
 10
661.805695
 20
733.028002
 11
653.805695
 21
733.028002
  0
LINE
  8
CSLAYER1
  6
CONTINUOUS
 62
     4
 10
663.805695
 20
735.028002
 11
661.805695
 21
733.028002
  0
LINE
  8
CSLAYER1
  6
CONTINUOUS
 62
     4
 10
653.805695
 20
763.028002
 11
651.805695
 21
763.028002
  0
LINE
  8
CSLAYER1
  6
CONTINUOUS
 62
     4
 10
653.805695
 20
735.028002
 11
651.805695
 21
735.028002
  0
LINE
  8
CSLAYER1
  6
CONTINUOUS
 62
     4
 10
660.805695
 20
1238.107238
 11
685.805695
 21
1238.107238
  0
LINE
  8
CSLAYER1
  6
CONTINUOUS
 62
     4
 10
685.805695
 20
1213.107238
 11
658.305695
 21
1213.107238
  0
LINE
  8
CSLAYER1
  6
CONTINUOUS
 62
     4
 10
685.805695
 20
1263.307238
 11
685.805695
 21
1213.107238
  0
LINE
  8
CSLAYER1
  6
CONTINUOUS
 62
     4
 10
660.805695
 20
1213.107238
 11
660.805695
 21
1263.307238
  0
LINE
  8
CSLAYER1
  6
CONTINUOUS
 62
     4
 10
676.305695
 20
1263.307238
 11
676.305695
 21
1238.107238
  0
LINE
  8
CSLAYER1
  6
CONTINUOUS
 62
     4
 10
670.305695
 20
1263.307238
 11
670.305695
 21
1238.107238
  0
LINE
  8
CSLAYER1
  6
CENTER
 62
     5
 10
630.121921
 20
1192.107238
 11
725.536333
 21
1192.107238
  0
LINE
  8
CSLAYER1
  6
CONTINUOUS
 62
     4
 10
657.305695
 20
1212.107238
 11
657.305695
 21
1172.107238
  0
LINE
  8
CSLAYER1
  6
CONTINUOUS
 62
     4
 10
683.805695
 20
1203.658881
 11
683.805695
 21
1180.555596
  0
LINE
  8
CSLAYER1
  6
CONTINUOUS
 62
     4
 10
684.955695
 20
1203.658881
 11
684.955695
 21
1180.555596
  0
LINE
  8
CSLAYER1
  6
CONTINUOUS
 62
     4
 10
685.805695
 20
1199.607238
 11
684.955695
 21
1199.607238
  0
LINE
  8
CSLAYER1
  6
CONTINUOUS
 62
     4
 10
684.955695
 20
1203.658881
 11
683.805695
 21
1203.658881
  0
LINE
  8
CSLAYER1
  6
CONTINUOUS
 62
     4
 10
683.805695
 20
1199.607238
 11
683.305695
 21
1199.607238
  0
LINE
  8
CSLAYER1
  6
CONTINUOUS
 62
     4
 10
683.305695
 20
1212.107238
 11
683.305695
 21
1172.107238
  0
ARC
  8
CSLAYER1
  6
CONTINUOUS
 62
     4
 10
658.305695
 20
1212.107238
 40
1.000000
 50
90.000000
 51
180.000000
  0
ARC
  8
CSLAYER1
  6
CONTINUOUS
 62
     4
 10
682.305695
 20
1212.107238
 40
1.000000
 50
0.000000
 51
90.000000
  0
ARC
  8
CSLAYER1
  6
CONTINUOUS
 62
     4
 10
671.305695
 20
1212.107238
 40
1.000000
 50
90.000000
 51
180.000000
  0
ARC
  8
CSLAYER1
  6
CONTINUOUS
 62
     4
 10
669.305695
 20
1212.107238
 40
1.000000
 50
0.000000
 51
90.000000
  0
LINE
  8
CSLAYER1
  6
CONTINUOUS
 62
     4
 10
686.305695
 20
1263.307238
 11
686.305695
 21
1173.107238
  0
LINE
  8
CSLAYER1
  6
CONTINUOUS
 62
     4
 10
682.305695
 20
1171.107238
 11
671.305695
 21
1171.107238
  0
LINE
  8
CSLAYER1
  6
CONTINUOUS
 62
     4
 10
685.805695
 20
1184.607238
 11
684.955695
 21
1184.607238
  0
LINE
  8
CSLAYER1
  6
CONTINUOUS
 62
     4
 10
684.955695
 20
1180.555596
 11
683.805695
 21
1180.555596
  0
LINE
  8
CSLAYER1
  6
CONTINUOUS
 62
     4
 10
683.805695
 20
1184.607238
 11
683.305695
 21
1184.607238
  0
ARC
  8
CSLAYER1
  6
CONTINUOUS
 62
     4
 10
658.305695
 20
1172.107238
 40
1.000000
 50
180.000000
 51
270.000000
  0
ARC
  8
CSLAYER1
  6
CONTINUOUS
 62
     4
 10
682.305695
 20
1172.107238
 40
1.000000
 50
270.000000
 51
360.000000
  0
ARC
  8
CSLAYER1
  6
CONTINUOUS
 62
     4
 10
671.305695
 20
1172.107238
 40
1.000000
 50
180.000000
 51
270.000000
  0
ARC
  8
CSLAYER1
  6
CONTINUOUS
 62
     4
 10
669.305695
 20
1172.107238
 40
1.000000
 50
270.000000
 51
360.000000
  0
LINE
  8
CSLAYER1
  6
CONTINUOUS
 62
     4
 10
658.305695
 20
1171.107238
 11
669.305695
 21
1171.107238
  0
LINE
  8
CSLAYER1
  6
CONTINUOUS
 62
     4
 10
657.305695
 20
1192.107238
 11
656.305695
 21
1192.107238
  0
LINE
  8
CSLAYER1
  6
CONTINUOUS
 62
     4
 10
656.805695
 20
1202.107238
 11
657.305695
 21
1201.607238
  0
LINE
  8
CSLAYER1
  6
CONTINUOUS
 62
     4
 10
656.805695
 20
1182.107238
 11
657.305695
 21
1182.607238
  0
LINE
  8
CSLAYER1
  6
CONTINUOUS
 62
     4
 10
635.805695
 20
1241.622378
 11
421.805695
 21
1241.622378
  0
LINE
  8
CSLAYER1
  6
CONTINUOUS
 62
     4
 10
559.055695
 20
1166.732913
 11
583.305695
 21
1166.732913
  0
LINE
  8
CSLAYER1
  6
CONTINUOUS
 62
     4
 10
629.805695
 20
1174.982913
 11
585.305695
 21
1174.982913
  0
LINE
  8
CSLAYER1
  6
CONTINUOUS
 62
     4
 10
629.805695
 20
1218.982913
 11
585.305695
 21
1218.982913
  0
LINE
  8
CSLAYER1
  6
CONTINUOUS
 62
     4
 10
585.305695
 20
1225.232913
 11
585.305695
 21
1168.732913
  0
LINE
  8
CSLAYER1
  6
CONTINUOUS
 62
     4
 10
583.305695
 20
1227.232913
 11
474.305695
 21
1227.232913
  0
LINE
  8
CSLAYER1
  6
CONTINUOUS
 62
     4
 10
585.305695
 20
1225.232913
 11
583.305695
 21
1227.232913
  0
LINE
  8
CSLAYER1
  6
CONTINUOUS
 62
     4
 10
585.305695
 20
1168.732913
 11
583.305695
 21
1166.732913
  0
LINE
  8
CSLAYER1
  6
CONTINUOUS
 62
     4
 10
629.805695
 20
1218.982913
 11
634.805695
 21
1213.982913
  0
LINE
  8
CSLAYER1
  6
CONTINUOUS
 62
     4
 10
629.805695
 20
1218.982913
 11
629.805695
 21
1174.982913
  0
LINE
  8
CSLAYER1
  6
CONTINUOUS
 62
     4
 10
629.805695
 20
1174.982913
 11
634.805695
 21
1179.982913
  0
LINE
  8
CSLAYER1
  6
CONTINUOUS
 62
     4
 10
618.805695
 20
1237.182913
 11
588.805695
 21
1237.182913
  0
LINE
  8
CSLAYER1
  6
CONTINUOUS
 62
     4
 10
621.126204
 20
1222.182913
 11
621.126204
 21
1235.843167
  0
LINE
  8
CSLAYER1
  6
CONTINUOUS
 62
     4
 10
612.465950
 20
1222.182913
 11
612.465950
 21
1235.843167
  0
LINE
  8
CSLAYER1
  6
CONTINUOUS
 62
     4
 10
618.805695
 20
1237.182913
 11
621.126204
 21
1235.843167
  0
ARC
  8
CSLAYER1
  6
CONTINUOUS
 62
     4
 10
616.796077
 20
1229.528295
 40
7.656867
 50
55.561448
 51
124.438552
  0
ARC
  8
CSLAYER1
  6
CONTINUOUS
 62
     4
 10
603.805695
 20
1208.522659
 40
28.660254
 50
72.412046
 51
107.587954
  0
LINE
  8
CSLAYER1
  6
CONTINUOUS
 62
     4
 10
585.305695
 20
1222.182913
 11
622.305695
 21
1222.182913
  0
LINE
  8
CSLAYER1
  6
CONTINUOUS
 62
     4
 10
616.805695
 20
1239.682913
 11
590.805695
 21
1239.682913
  0
LINE
  8
CSLAYER1
  6
CONTINUOUS
 62
     4
 10
618.805695
 20
1237.182913
 11
618.805695
 21
1237.682913
  0
ARC
  8
CSLAYER1
  6
CONTINUOUS
 62
     4
 10
616.805695
 20
1237.682913
 40
2.000000
 50
0.000000
 51
90.000000
  0
LINE
  8
CSLAYER1
  6
CONTINUOUS
 62
     4
 10
586.485187
 20
1222.182913
 11
586.485187
 21
1235.843167
  0
LINE
  8
CSLAYER1
  6
CONTINUOUS
 62
     4
 10
595.145441
 20
1222.182913
 11
595.145441
 21
1235.843167
  0
LINE
  8
CSLAYER1
  6
CONTINUOUS
 62
     4
 10
588.805695
 20
1237.182913
 11
586.485187
 21
1235.843167
  0
ARC
  8
CSLAYER1
  6
CONTINUOUS
 62
     4
 10
590.815314
 20
1229.528295
 40
7.656867
 50
55.561448
 51
124.438552
  0
LINE
  8
CSLAYER1
  6
CONTINUOUS
 62
     4
 10
588.805695
 20
1237.182913
 11
588.805695
 21
1237.682913
  0
ARC
  8
CSLAYER1
  6
CONTINUOUS
 62
     4
 10
590.805695
 20
1237.682913
 40
2.000000
 50
90.000000
 51
180.000000
  0
LINE
  8
CSLAYER1
  6
CONTINUOUS
 62
     4
 10
613.805695
 20
1239.682913
 11
613.805695
 21
1241.622378
  0
LINE
  8
CSLAYER1
  6
CONTINUOUS
 62
     4
 10
612.305695
 20
1239.682913
 11
612.305695
 21
1241.622378
  0
LINE
  8
CSLAYER1
  6
CONTINUOUS
 62
     4
 10
622.305695
 20
1218.982913
 11
622.305695
 21
1222.182913
  0
LINE
  8
CSLAYER1
  6
CONTINUOUS
 62
     4
 10
593.805695
 20
1239.682913
 11
593.805695
 21
1241.622378
  0
LINE
  8
CSLAYER1
  6
CONTINUOUS
 62
     4
 10
595.305695
 20
1239.682913
 11
595.305695
 21
1241.622378
  0
LINE
  8
CSLAYER1
  6
CONTINUOUS
 62
     4
 10
583.305695
 20
1227.232913
 11
583.305695
 21
1166.732913
  0
LINE
  8
CSLAYER1
  6
CONTINUOUS
 62
     4
 10
531.442157
 20
1183.145550
 11
534.058553
 21
1182.957947
  0
LINE
  8
CSLAYER1
  6
CONTINUOUS
 62
     4
 10
534.058553
 20
1182.957947
 11
536.634972
 21
1182.646861
  0
LINE
  8
CSLAYER1
  6
CONTINUOUS
 62
     4
 10
536.634972
 20
1182.646861
 11
539.151805
 21
1182.214660
  0
LINE
  8
CSLAYER1
  6
CONTINUOUS
 62
     4
 10
539.151805
 20
1182.214660
 11
541.589898
 21
1181.664634
  0
LINE
  8
CSLAYER1
  6
CONTINUOUS
 62
     4
 10
541.589898
 20
1181.664634
 11
543.930695
 21
1181.000968
  0
LINE
  8
CSLAYER1
  6
CONTINUOUS
 62
     4
 10
543.930695
 20
1181.000968
 11
546.156383
 21
1180.228714
  0
LINE
  8
CSLAYER1
  6
CONTINUOUS
 62
     4
 10
546.156383
 20
1180.228714
 11
548.250021
 21
1179.353749
  0
LINE
  8
CSLAYER1
  6
CONTINUOUS
 62
     4
 10
548.250021
 20
1179.353749
 11
550.195676
 21
1178.382731
  0
LINE
  8
CSLAYER1
  6
CONTINUOUS
 62
     4
 10
550.195676
 20
1178.382731
 11
551.978540
 21
1177.323052
  0
LINE
  8
CSLAYER1
  6
CONTINUOUS
 62
     4
 10
551.978540
 20
1177.323052
 11
553.585045
 21
1176.182775
  0
LINE
  8
CSLAYER1
  6
CONTINUOUS
 62
     4
 10
553.585045
 20
1176.182775
 11
555.002964
 21
1174.970579
  0
LINE
  8
CSLAYER1
  6
CONTINUOUS
 62
     4
 10
555.002964
 20
1174.970579
 11
556.221506
 21
1173.695689
  0
LINE
  8
CSLAYER1
  6
CONTINUOUS
 62
     4
 10
556.221506
 20
1173.695689
 11
557.231397
 21
1172.367808
  0
LINE
  8
CSLAYER1
  6
CONTINUOUS
 62
     4
 10
557.231397
 20
1172.367808
 11
558.024952
 21
1170.997043
  0
LINE
  8
CSLAYER1
  6
CONTINUOUS
 62
     4
 10
558.024952
 20
1170.997043
 11
558.596130
 21
1169.593824
  0
LINE
  8
CSLAYER1
  6
CONTINUOUS
 62
     4
 10
558.596130
 20
1169.593824
 11
558.940585
 21
1168.168833
  0
LINE
  8
CSLAYER1
  6
CONTINUOUS
 62
     4
 10
558.940585
 20
1168.168833
 11
559.055695
 21
1166.732913
  0
LINE
  8
CSLAYER1
  6
CONTINUOUS
 62
     4
 10
656.805695
 20
1202.107238
 11
655.805695
 21
1202.107238
  0
LINE
  8
CSLAYER1
  6
CONTINUOUS
 62
     4
 10
656.805695
 20
1182.107238
 11
653.155695
 21
1182.107238
  0
LINE
  8
CSLAYER1
  6
CONTINUOUS
 62
     4
 10
634.805695
 20
1226.882913
 11
634.805695
 21
1167.082913
  0
ARC
  8
CSLAYER1
  6
CONTINUOUS
 62
     4
 10
635.905695
 20
1226.882913
 40
1.100000
 50
95.215909
 51
180.000000
  0
ARC
  8
CSLAYER1
  6
CONTINUOUS
 62
     4
 10
635.905695
 20
1167.082913
 40
1.100000
 50
180.000000
 51
264.784091
  0
LINE
  8
CSLAYER1
  6
CONTINUOUS
 62
     4
 10
654.305695
 20
1209.482913
 11
653.155695
 21
1209.482913
  0
LINE
  8
CSLAYER1
  6
CONTINUOUS
 62
     4
 10
653.155695
 20
1212.032913
 11
651.805695
 21
1212.032913
  0
LINE
  8
CSLAYER1
  6
CONTINUOUS
 62
     4
 10
653.155695
 20
1212.032913
 11
653.155695
 21
1181.932913
  0
LINE
  8
CSLAYER1
  6
CONTINUOUS
 62
     4
 10
655.805695
 20
1207.982913
 11
655.805695
 21
1185.982913
  0
LINE
  8
CSLAYER1
  6
CONTINUOUS
 62
     4
 10
655.805695
 20
1207.982913
 11
654.305695
 21
1209.482913
  0
LINE
  8
CSLAYER1
  6
CONTINUOUS
 62
     4
 10
654.305695
 20
1209.482913
 11
654.305695
 21
1184.482913
  0
LINE
  8
CSLAYER1
  6
CONTINUOUS
 62
     4
 10
654.305695
 20
1184.482913
 11
653.155695
 21
1184.482913
  0
LINE
  8
CSLAYER1
  6
CONTINUOUS
 62
     4
 10
653.155695
 20
1181.932913
 11
651.805695
 21
1181.932913
  0
LINE
  8
CSLAYER1
  6
CONTINUOUS
 62
     4
 10
655.805695
 20
1185.982913
 11
654.305695
 21
1184.482913
  0
LINE
  8
CSLAYER1
  6
CONTINUOUS
 62
     4
 10
670.305695
 20
1212.107238
 11
670.305695
 21
1172.107238
  0
LINE
  8
CSLAYER1
  6
CONTINUOUS
 62
     3
 10
730.505695
 20
1192.107238
 11
730.505695
 21
1201.607238
  0
LINE
  8
CSLAYER1
  6
CONTINUOUS
 62
     4
 10
727.305695
 20
1263.307238
 11
727.305695
 21
1173.107238
  0
LINE
  8
CSLAYER1
  6
CONTINUOUS
 62
     4
 10
686.305695
 20
1173.107238
 11
727.305695
 21
1173.107238
  0
LINE
  8
CSLAYER1
  6
CONTINUOUS
 62
     4
 10
730.505695
 20
1215.107238
 11
730.505695
 21
1184.107238
  0
LINE
  8
CSLAYER1
  6
CONTINUOUS
 62
     5
 10
734.996570
 20
1207.107238
 11
721.305695
 21
1207.107238
  0
LINE
  8
CSLAYER1
  6
CONTINUOUS
 62
     4
 10
730.505695
 20
1215.107238
 11
727.305695
 21
1215.107238
  0
LINE
  8
CSLAYER1
  6
CONTINUOUS
 62
     4
 10
685.305695
 20
1185.107238
 11
685.305695
 21
1199.107238
  0
LINE
  8
CSLAYER1
  6
CONTINUOUS
 62
     4
 10
685.305695
 20
1185.107238
 11
686.305695
 21
1184.107238
  0
LINE
  8
CSLAYER1
  6
CONTINUOUS
 62
     4
 10
730.505695
 20
1184.107238
 11
727.305695
 21
1184.107238
  0
LINE
  8
CSLAYER1
  6
CONTINUOUS
 62
     4
 10
685.305695
 20
1199.107238
 11
686.305695
 21
1200.107238
  0
LINE
  8
CSLAYER1
  6
CONTINUOUS
 62
     4
 10
730.505695
 20
1188.107238
 11
727.305695
 21
1188.107238
  0
LINE
  8
CSLAYER1
  6
CONTINUOUS
 62
     4
 10
730.505695
 20
1196.107238
 11
727.305695
 21
1196.107238
  0
LINE
  8
CSLAYER1
  6
CONTINUOUS
 62
     4
 10
589.805695
 20
802.555680
 11
589.805695
 21
819.934429
  0
LINE
  8
CSLAYER1
  6
CONTINUOUS
 62
     4
 10
590.805695
 20
802.555680
 11
590.805695
 21
820.934429
  0
LINE
  8
CSLAYER1
  6
CONTINUOUS
 62
     4
 10
595.805695
 20
820.934429
 11
592.779155
 21
820.934429
  0
LINE
  8
CSLAYER1
  6
CONTINUOUS
 62
     4
 10
589.805695
 20
819.934429
 11
590.805695
 21
820.934429
  0
LINE
  8
CSLAYER1
  6
CONTINUOUS
 62
     4
 10
612.805695
 20
825.934429
 11
613.805695
 21
826.934429
  0
LINE
  8
CSLAYER1
  6
CONTINUOUS
 62
     4
 10
590.805695
 20
820.934429
 11
595.871954
 21
825.919110
  0
LINE
  8
CSLAYER1
  6
CONTINUOUS
 62
     4
 10
595.805695
 20
825.853919
 11
590.886206
 21
820.934429
  0
LINE
  8
CSLAYER1
  6
CONTINUOUS
 62
     4
 10
595.805695
 20
825.571076
 11
591.169048
 21
820.934429
  0
LINE
  8
CSLAYER1
  6
CONTINUOUS
 62
     4
 10
595.805695
 20
825.288234
 11
591.451891
 21
820.934429
  0
LINE
  8
CSLAYER1
  6
CONTINUOUS
 62
     4
 10
595.805695
 20
825.005391
 11
591.734734
 21
820.934429
  0
LINE
  8
CSLAYER1
  6
CONTINUOUS
 62
     4
 10
595.805695
 20
824.722548
 11
592.017577
 21
820.934429
  0
LINE
  8
CSLAYER1
  6
CONTINUOUS
 62
     4
 10
595.805695
 20
824.439705
 11
592.300419
 21
820.934429
  0
LINE
  8
CSLAYER1
  6
CONTINUOUS
 62
     4
 10
595.805695
 20
824.156863
 11
592.583262
 21
820.934429
  0
LINE
  8
CSLAYER1
  6
CONTINUOUS
 62
     4
 10
595.805695
 20
823.874020
 11
592.866105
 21
820.934429
  0
LINE
  8
CSLAYER1
  6
CONTINUOUS
 62
     4
 10
595.805695
 20
823.591177
 11
593.148947
 21
820.934429
  0
LINE
  8
CSLAYER1
  6
CONTINUOUS
 62
     4
 10
595.805695
 20
823.308335
 11
593.431790
 21
820.934429
  0
LINE
  8
CSLAYER1
  6
CONTINUOUS
 62
     4
 10
595.805695
 20
823.025492
 11
593.714633
 21
820.934429
  0
LINE
  8
CSLAYER1
  6
CONTINUOUS
 62
     4
 10
595.805695
 20
822.742649
 11
593.997476
 21
820.934429
  0
LINE
  8
CSLAYER1
  6
CONTINUOUS
 62
     4
 10
595.805695
 20
822.459806
 11
594.280318
 21
820.934429
  0
LINE
  8
CSLAYER1
  6
CONTINUOUS
 62
     4
 10
595.805695
 20
822.176964
 11
594.563161
 21
820.934429
  0
LINE
  8
CSLAYER1
  6
CONTINUOUS
 62
     4
 10
595.805695
 20
821.894121
 11
594.846004
 21
820.934429
  0
LINE
  8
CSLAYER1
  6
CONTINUOUS
 62
     4
 10
595.805695
 20
821.611278
 11
595.128846
 21
820.934429
  0
LINE
  8
CSLAYER1
  6
CONTINUOUS
 62
     4
 10
595.805695
 20
821.328436
 11
595.411689
 21
820.934429
  0
LINE
  8
CSLAYER1
  6
CONTINUOUS
 62
     4
 10
595.805695
 20
821.045593
 11
595.694532
 21
820.934429
  0
LINE
  8
CSLAYER1
  6
CONTINUOUS
 62
     4
 10
692.779155
 20
785.584429
 11
651.805695
 21
785.584429
  0
LINE
  8
CSLAYER1
  6
CONTINUOUS
 62
     4
 10
612.805695
 20
825.934429
 11
612.805695
 21
791.302675
  0
LINE
  8
CSLAYER1
  6
CONTINUOUS
 62
     4
 10
693.779155
 20
827.284429
 11
693.779155
 21
786.584429
  0
LINE
  8
CSLAYER1
  6
CONTINUOUS
 62
     4
 10
693.779155
 20
786.584429
 11
692.779155
 21
785.584429
  0
LINE
  8
CSLAYER1
  6
CONTINUOUS
 62
     4
 10
733.779155
 20
816.934429
 11
733.779155
 21
796.934429
  0
LINE
  8
CSLAYER1
  6
CONTINUOUS
 62
     4
 10
714.779155
 20
825.434429
 11
714.779155
 21
788.434429
  0
LINE
  8
CSLAYER1
  6
CONTINUOUS
 62
     4
 10
719.879155
 20
823.934429
 11
719.879155
 21
789.934429
  0
LINE
  8
CSLAYER1
  6
CONTINUOUS
 62
     4
 10
731.879155
 20
823.934429
 11
731.879155
 21
789.934429
  0
LINE
  8
CSLAYER1
  6
CONTINUOUS
 62
     4
 10
714.779155
 20
823.934429
 11
731.879155
 21
823.934429
  0
LINE
  8
CSLAYER1
  6
CONTINUOUS
 62
     4
 10
719.879155
 20
816.934429
 11
733.779155
 21
816.934429
  0
LINE
  8
CSLAYER1
  6
CONTINUOUS
 62
     4
 10
714.779155
 20
789.934429
 11
731.879155
 21
789.934429
  0
LINE
  8
CSLAYER1
  6
CONTINUOUS
 62
     4
 10
719.879155
 20
796.934429
 11
733.779155
 21
796.934429
  0
LINE
  8
CSLAYER1
  6
CONTINUOUS
 62
     4
 10
711.779155
 20
825.434429
 11
714.779155
 21
825.434429
  0
LINE
  8
CSLAYER1
  6
CONTINUOUS
 62
     4
 10
711.779155
 20
788.434429
 11
714.779155
 21
788.434429
  0
LINE
  8
CSLAYER1
  6
CONTINUOUS
 62
     4
 10
711.779155
 20
788.434429
 11
711.779155
 21
825.434429
  0
LINE
  8
CSLAYER1
  6
CENTER
 62
     5
 10
738.670406
 20
806.934429
 11
587.985416
 21
806.934429
  0
LINE
  8
CSLAYER1
  6
CONTINUOUS
 62
     4
 10
711.779155
 20
794.434429
 11
710.805695
 21
794.434429
  0
LINE
  8
CSLAYER1
  6
CONTINUOUS
 62
     4
 10
692.779155
 20
828.284429
 11
651.805695
 21
828.284429
  0
LINE
  8
CSLAYER1
  6
CONTINUOUS
 62
     4
 10
693.779155
 20
827.284429
 11
692.779155
 21
828.284429
  0
LINE
  8
CSLAYER1
  6
CONTINUOUS
 62
     4
 10
711.779155
 20
819.434429
 11
710.805695
 21
819.434429
  0
LINE
  8
CSLAYER1
  6
CONTINUOUS
 62
     4
 10
710.779155
 20
806.934429
 11
710.779155
 21
459.761620
  0
LINE
  8
CSLAYER1
  6
CONTINUOUS
 62
     4
 10
656.805695
 20
785.584429
 11
651.805695
 21
780.584429
  0
LINE
  8
CSLAYER1
  6
CONTINUOUS
 62
     4
 10
651.805695
 20
780.867272
 11
656.522853
 21
785.584429
  0
LINE
  8
CSLAYER1
  6
CONTINUOUS
 62
     4
 10
651.805695
 20
781.150115
 11
656.240010
 21
785.584429
  0
LINE
  8
CSLAYER1
  6
CONTINUOUS
 62
     4
 10
651.805695
 20
781.432957
 11
655.957167
 21
785.584429
  0
LINE
  8
CSLAYER1
  6
CONTINUOUS
 62
     4
 10
651.805695
 20
781.715800
 11
655.674325
 21
785.584429
  0
LINE
  8
CSLAYER1
  6
CONTINUOUS
 62
     4
 10
651.805695
 20
781.998643
 11
655.391482
 21
785.584429
  0
LINE
  8
CSLAYER1
  6
CONTINUOUS
 62
     4
 10
651.805695
 20
782.281486
 11
655.108639
 21
785.584429
  0
LINE
  8
CSLAYER1
  6
CONTINUOUS
 62
     4
 10
651.805695
 20
782.564328
 11
654.825797
 21
785.584429
  0
LINE
  8
CSLAYER1
  6
CONTINUOUS
 62
     4
 10
651.805695
 20
782.847171
 11
654.542954
 21
785.584429
  0
LINE
  8
CSLAYER1
  6
CONTINUOUS
 62
     4
 10
651.805695
 20
783.130014
 11
654.260111
 21
785.584429
  0
LINE
  8
CSLAYER1
  6
CONTINUOUS
 62
     4
 10
651.805695
 20
783.412856
 11
653.977268
 21
785.584429
  0
LINE
  8
CSLAYER1
  6
CONTINUOUS
 62
     4
 10
651.805695
 20
783.695699
 11
653.694426
 21
785.584429
  0
LINE
  8
CSLAYER1
  6
CONTINUOUS
 62
     4
 10
651.805695
 20
783.978542
 11
653.411583
 21
785.584429
  0
LINE
  8
CSLAYER1
  6
CONTINUOUS
 62
     4
 10
651.805695
 20
784.261385
 11
653.128740
 21
785.584429
  0
LINE
  8
CSLAYER1
  6
CONTINUOUS
 62
     4
 10
651.805695
 20
784.544227
 11
652.845898
 21
785.584429
  0
LINE
  8
CSLAYER1
  6
CONTINUOUS
 62
     4
 10
651.805695
 20
784.827070
 11
652.563055
 21
785.584429
  0
LINE
  8
CSLAYER1
  6
CONTINUOUS
 62
     4
 10
651.805695
 20
785.109913
 11
652.280212
 21
785.584429
  0
LINE
  8
CSLAYER1
  6
CONTINUOUS
 62
     4
 10
651.805695
 20
785.392755
 11
651.997369
 21
785.584429
  0
LINE
  8
CSLAYER1
  6
CONTINUOUS
 62
     4
 10
635.805695
 20
831.651587
 11
631.088538
 21
826.934429
  0
LINE
  8
CSLAYER1
  6
CONTINUOUS
 62
     4
 10
635.805695
 20
831.368744
 11
631.371381
 21
826.934429
  0
LINE
  8
CSLAYER1
  6
CONTINUOUS
 62
     4
 10
635.805695
 20
831.085901
 11
631.654224
 21
826.934429
  0
LINE
  8
CSLAYER1
  6
CONTINUOUS
 62
     4
 10
635.805695
 20
830.803058
 11
631.937066
 21
826.934429
  0
LINE
  8
CSLAYER1
  6
CONTINUOUS
 62
     4
 10
635.805695
 20
830.520216
 11
632.219909
 21
826.934429
  0
LINE
  8
CSLAYER1
  6
CONTINUOUS
 62
     4
 10
635.805695
 20
830.237373
 11
632.502752
 21
826.934429
  0
LINE
  8
CSLAYER1
  6
CONTINUOUS
 62
     4
 10
635.805695
 20
829.954530
 11
632.785594
 21
826.934429
  0
LINE
  8
CSLAYER1
  6
CONTINUOUS
 62
     4
 10
635.805695
 20
829.671688
 11
633.068437
 21
826.934429
  0
LINE
  8
CSLAYER1
  6
CONTINUOUS
 62
     4
 10
635.805695
 20
829.388845
 11
633.351280
 21
826.934429
  0
LINE
  8
CSLAYER1
  6
CONTINUOUS
 62
     4
 10
635.805695
 20
829.106002
 11
633.634123
 21
826.934429
  0
LINE
  8
CSLAYER1
  6
CONTINUOUS
 62
     4
 10
635.805695
 20
828.823159
 11
633.916965
 21
826.934429
  0
LINE
  8
CSLAYER1
  6
CONTINUOUS
 62
     4
 10
635.805695
 20
828.540317
 11
634.199808
 21
826.934429
  0
LINE
  8
CSLAYER1
  6
CONTINUOUS
 62
     4
 10
635.805695
 20
828.257474
 11
634.482651
 21
826.934429
  0
LINE
  8
CSLAYER1
  6
CONTINUOUS
 62
     4
 10
635.805695
 20
827.974631
 11
634.765493
 21
826.934429
  0
LINE
  8
CSLAYER1
  6
CONTINUOUS
 62
     4
 10
635.805695
 20
827.691789
 11
635.048336
 21
826.934429
  0
LINE
  8
CSLAYER1
  6
CONTINUOUS
 62
     4
 10
635.805695
 20
827.408946
 11
635.331179
 21
826.934429
  0
LINE
  8
CSLAYER1
  6
CONTINUOUS
 62
     4
 10
635.805695
 20
827.126103
 11
635.614022
 21
826.934429
  0
LINE
  8
CSLAYER1
  6
CONTINUOUS
 62
     4
 10
656.805695
 20
828.284429
 11
651.805695
 21
833.284429
  0
LINE
  8
CSLAYER1
  6
CONTINUOUS
 62
     4
 10
651.805695
 20
833.001587
 11
656.522853
 21
828.284429
  0
LINE
  8
CSLAYER1
  6
CONTINUOUS
 62
     4
 10
651.805695
 20
832.718744
 11
656.240010
 21
828.284429
  0
LINE
  8
CSLAYER1
  6
CONTINUOUS
 62
     4
 10
651.805695
 20
832.435901
 11
655.957167
 21
828.284429
  0
LINE
  8
CSLAYER1
  6
CONTINUOUS
 62
     4
 10
651.805695
 20
832.153058
 11
655.674325
 21
828.284429
  0
LINE
  8
CSLAYER1
  6
CONTINUOUS
 62
     4
 10
651.805695
 20
831.870216
 11
655.391482
 21
828.284429
  0
LINE
  8
CSLAYER1
  6
CONTINUOUS
 62
     4
 10
651.805695
 20
831.587373
 11
655.108639
 21
828.284429
  0
LINE
  8
CSLAYER1
  6
CONTINUOUS
 62
     4
 10
651.805695
 20
831.304530
 11
654.825797
 21
828.284429
  0
LINE
  8
CSLAYER1
  6
CONTINUOUS
 62
     4
 10
651.805695
 20
831.021688
 11
654.542954
 21
828.284429
  0
LINE
  8
CSLAYER1
  6
CONTINUOUS
 62
     4
 10
651.805695
 20
830.738845
 11
654.260111
 21
828.284429
  0
LINE
  8
CSLAYER1
  6
CONTINUOUS
 62
     4
 10
651.805695
 20
830.456002
 11
653.977268
 21
828.284429
  0
LINE
  8
CSLAYER1
  6
CONTINUOUS
 62
     4
 10
651.805695
 20
830.173159
 11
653.694426
 21
828.284429
  0
LINE
  8
CSLAYER1
  6
CONTINUOUS
 62
     4
 10
651.805695
 20
829.890317
 11
653.411583
 21
828.284429
  0
LINE
  8
CSLAYER1
  6
CONTINUOUS
 62
     4
 10
651.805695
 20
829.607474
 11
653.128740
 21
828.284429
  0
LINE
  8
CSLAYER1
  6
CONTINUOUS
 62
     4
 10
651.805695
 20
829.324631
 11
652.845898
 21
828.284429
  0
LINE
  8
CSLAYER1
  6
CONTINUOUS
 62
     4
 10
651.805695
 20
829.041789
 11
652.563055
 21
828.284429
  0
LINE
  8
CSLAYER1
  6
CONTINUOUS
 62
     4
 10
651.805695
 20
828.758946
 11
652.280212
 21
828.284429
  0
LINE
  8
CSLAYER1
  6
CONTINUOUS
 62
     4
 10
651.805695
 20
828.476103
 11
651.997369
 21
828.284429
  0
LINE
  8
CSLAYER1
  6
CONTINUOUS
 62
     4
 10
634.765493
 20
826.934429
 11
635.805695
 21
826.934429
  0
POINT
  8
CSLAYER1
 62
     4
 10
603.805695
 20
849.703657
  0
LINE
  8
CSLAYER1
  6
CONTINUOUS
 62
     4
 10
621.705695
 20
836.703657
 11
621.705695
 21
894.453657
  0
LINE
  8
CSLAYER1
  6
CONTINUOUS
 62
     4
 10
623.555695
 20
845.933657
 11
623.555695
 21
853.483383
  0
LINE
  8
CSLAYER1
  6
CONTINUOUS
 62
     4
 10
617.330695
 20
836.703657
 11
621.705695
 21
836.703657
  0
LINE
  8
CSLAYER1
  6
CONTINUOUS
 62
     4
 10
621.705695
 20
854.483383
 11
622.555695
 21
854.483383
  0
ARC
  8
CSLAYER1
  6
CONTINUOUS
 62
     4
 10
622.555695
 20
845.933657
 40
1.000000
 50
270.000000
 51
360.000000
  0
ARC
  8
CSLAYER1
  6
CONTINUOUS
 62
     4
 10
622.555695
 20
853.483383
 40
1.000000
 50
0.000000
 51
90.000000
  0
LINE
  8
CSLAYER1
  6
CONTINUOUS
 62
     4
 10
590.280695
 20
836.703657
 11
590.280695
 21
931.953657
  0
LINE
  8
CSLAYER1
  6
CONTINUOUS
 62
     4
 10
585.905695
 20
836.703657
 11
585.905695
 21
894.453657
  0
LINE
  8
CSLAYER1
  6
CONTINUOUS
 62
     4
 10
584.055695
 20
845.933657
 11
584.055695
 21
853.483383
  0
LINE
  8
CSLAYER1
  6
CONTINUOUS
 62
     4
 10
590.280695
 20
836.703657
 11
585.905695
 21
836.703657
  0
LINE
  8
CSLAYER1
  6
CONTINUOUS
 62
     4
 10
585.905695
 20
844.933657
 11
585.055695
 21
844.933657
  0
LINE
  8
CSLAYER1
  6
CONTINUOUS
 62
     4
 10
585.905695
 20
854.483383
 11
585.055695
 21
854.483383
  0
ARC
  8
CSLAYER1
  6
CONTINUOUS
 62
     4
 10
585.055695
 20
845.933657
 40
1.000000
 50
180.000000
 51
270.000000
  0
ARC
  8
CSLAYER1
  6
CONTINUOUS
 62
     4
 10
585.055695
 20
853.483383
 40
1.000000
 50
90.000000
 51
180.000000
  0
LINE
  8
CSLAYER1
  6
CONTINUOUS
 62
     4
 10
591.280695
 20
839.703657
 11
595.805695
 21
839.703657
  0
LINE
  8
CSLAYER1
  6
CONTINUOUS
 62
     4
 10
590.280695
 20
840.703657
 11
591.280695
 21
839.703657
  0
LINE
  8
CSLAYER1
  6
CONTINUOUS
 62
     4
 10
616.330695
 20
839.703657
 11
617.330695
 21
840.703657
  0
LINE
  8
CSLAYER1
  6
CONTINUOUS
 62
     4
 10
591.280695
 20
859.703657
 11
595.805695
 21
859.703657
  0
LINE
  8
CSLAYER1
  6
CONTINUOUS
 62
     4
 10
590.280695
 20
858.703657
 11
591.280695
 21
859.703657
  0
LINE
  8
CSLAYER1
  6
CONTINUOUS
 62
     4
 10
616.330695
 20
859.703657
 11
617.330695
 21
858.703657
  0
LINE
  8
CSLAYER1
  6
CONTINUOUS
 62
     5
 10
631.288977
 20
881.453657
 11
586.753065
 21
881.453657
  0
LINE
  8
CSLAYER1
  6
CONTINUOUS
 62
     4
 10
590.280695
 20
894.453657
 11
585.905695
 21
894.453657
  0
LINE
  8
CSLAYER1
  6
CONTINUOUS
 62
     4
 10
584.055695
 20
877.683657
 11
584.055695
 21
885.233383
  0
LINE
  8
CSLAYER1
  6
CONTINUOUS
 62
     4
 10
585.905695
 20
876.683657
 11
585.055695
 21
876.683657
  0
LINE
  8
CSLAYER1
  6
CONTINUOUS
 62
     4
 10
585.905695
 20
886.233383
 11
585.055695
 21
886.233383
  0
ARC
  8
CSLAYER1
  6
CONTINUOUS
 62
     4
 10
585.055695
 20
877.683657
 40
1.000000
 50
180.000000
 51
270.000000
  0
ARC
  8
CSLAYER1
  6
CONTINUOUS
 62
     4
 10
585.055695
 20
885.233383
 40
1.000000
 50
90.000000
 51
180.000000
  0
LINE
  8
CSLAYER1
  6
CONTINUOUS
 62
     4
 10
617.330695
 20
894.453657
 11
621.705695
 21
894.453657
  0
LINE
  8
CSLAYER1
  6
CONTINUOUS
 62
     4
 10
621.705695
 20
844.933657
 11
622.555695
 21
844.933657
  0
LINE
  8
CSLAYER1
  6
CONTINUOUS
 62
     4
 10
623.555695
 20
877.683657
 11
623.555695
 21
885.233383
  0
LINE
  8
CSLAYER1
  6
CONTINUOUS
 62
     4
 10
621.705695
 20
876.683657
 11
622.555695
 21
876.683657
  0
LINE
  8
CSLAYER1
  6
CONTINUOUS
 62
     4
 10
621.705695
 20
886.233383
 11
622.555695
 21
886.233383
  0
ARC
  8
CSLAYER1
  6
CONTINUOUS
 62
     4
 10
622.555695
 20
877.683657
 40
1.000000
 50
270.000000
 51
360.000000
  0
ARC
  8
CSLAYER1
  6
CONTINUOUS
 62
     4
 10
622.555695
 20
885.233383
 40
1.000000
 50
0.000000
 51
90.000000
  0
POINT
  8
CSLAYER1
 62
     4
 10
603.805695
 20
881.453657
  0
LINE
  8
CSLAYER1
  6
CONTINUOUS
 62
     5
 10
630.443358
 20
849.703657
 11
585.907447
 21
849.703657
  0
LINE
  8
CSLAYER1
  6
CONTINUOUS
 62
     4
 10
611.805695
 20
871.928657
 11
611.805695
 21
791.883143
  0
LINE
  8
CSLAYER1
  6
CONTINUOUS
 62
     4
 10
595.805695
 20
871.928657
 11
595.805695
 21
801.170640
  0
POINT
  8
CSLAYER1
 62
     4
 10
603.805695
 20
913.203657
  0
LINE
  8
CSLAYER1
  6
CONTINUOUS
 62
     4
 10
617.330695
 20
836.703657
 11
617.330695
 21
931.953657
  0
LINE
  8
CSLAYER1
  6
CONTINUOUS
 62
     4
 10
613.330695
 20
928.253657
 11
613.330695
 21
866.403657
  0
LINE
  8
CSLAYER1
  6
CONTINUOUS
 62
     4
 10
613.330695
 20
928.253657
 11
617.330695
 21
928.253657
  0
LINE
  8
CSLAYER1
  6
CONTINUOUS
 62
     4
 10
612.330695
 20
903.678657
 11
595.280695
 21
903.678657
  0
LINE
  8
CSLAYER1
  6
CONTINUOUS
 62
     4
 10
612.330695
 20
922.728657
 11
595.280695
 21
922.728657
  0
ARC
  8
CSLAYER1
  6
CONTINUOUS
 62
     4
 10
612.330695
 20
904.678657
 40
1.000000
 50
270.000000
 51
360.000000
  0
ARC
  8
CSLAYER1
  6
CONTINUOUS
 62
     4
 10
612.330695
 20
921.728657
 40
1.000000
 50
0.000000
 51
90.000000
  0
LINE
  8
CSLAYER1
  6
CONTINUOUS
 62
     4
 10
594.280695
 20
928.253657
 11
594.280695
 21
866.403657
  0
LINE
  8
CSLAYER1
  6
CONTINUOUS
 62
     4
 10
594.280695
 20
928.253657
 11
590.280695
 21
928.253657
  0
ARC
  8
CSLAYER1
  6
CONTINUOUS
 62
     4
 10
595.280695
 20
904.678657
 40
1.000000
 50
180.000000
 51
270.000000
  0
ARC
  8
CSLAYER1
  6
CONTINUOUS
 62
     4
 10
595.280695
 20
921.728657
 40
1.000000
 50
90.000000
 51
180.000000
  0
LINE
  8
CSLAYER1
  6
CONTINUOUS
 62
     4
 10
623.555695
 20
909.433657
 11
623.555695
 21
916.983383
  0
LINE
  8
CSLAYER1
  6
CONTINUOUS
 62
     4
 10
617.330695
 20
900.203657
 11
621.705695
 21
900.203657
  0
LINE
  8
CSLAYER1
  6
CONTINUOUS
 62
     4
 10
621.705695
 20
908.433657
 11
622.555695
 21
908.433657
  0
LINE
  8
CSLAYER1
  6
CONTINUOUS
 62
     4
 10
621.705695
 20
917.983383
 11
622.555695
 21
917.983383
  0
ARC
  8
CSLAYER1
  6
CONTINUOUS
 62
     4
 10
622.555695
 20
909.433657
 40
1.000000
 50
270.000000
 51
360.000000
  0
ARC
  8
CSLAYER1
  6
CONTINUOUS
 62
     4
 10
622.555695
 20
916.983383
 40
1.000000
 50
0.000000
 51
90.000000
  0
LINE
  8
CSLAYER1
  6
CONTINUOUS
 62
     4
 10
584.055695
 20
909.433657
 11
584.055695
 21
916.983383
  0
LINE
  8
CSLAYER1
  6
CONTINUOUS
 62
     4
 10
590.280695
 20
900.203657
 11
585.905695
 21
900.203657
  0
LINE
  8
CSLAYER1
  6
CONTINUOUS
 62
     4
 10
585.905695
 20
908.433657
 11
585.055695
 21
908.433657
  0
LINE
  8
CSLAYER1
  6
CONTINUOUS
 62
     4
 10
585.905695
 20
917.983383
 11
585.055695
 21
917.983383
  0
ARC
  8
CSLAYER1
  6
CONTINUOUS
 62
     4
 10
585.055695
 20
909.433657
 40
1.000000
 50
180.000000
 51
270.000000
  0
ARC
  8
CSLAYER1
  6
CONTINUOUS
 62
     4
 10
585.055695
 20
916.983383
 40
1.000000
 50
90.000000
 51
180.000000
  0
LINE
  8
CSLAYER1
  6
CONTINUOUS
 62
     4
 10
621.705695
 20
900.203657
 11
621.705695
 21
957.953657
  0
LINE
  8
CSLAYER1
  6
CONTINUOUS
 62
     4
 10
585.905695
 20
900.203657
 11
585.905695
 21
957.953657
  0
LINE
  8
CSLAYER1
  6
CONTINUOUS
 62
     4
 10
613.330695
 20
866.403657
 11
617.330695
 21
866.403657
  0
LINE
  8
CSLAYER1
  6
CONTINUOUS
 62
     4
 10
612.330695
 20
890.978657
 11
595.280695
 21
890.978657
  0
LINE
  8
CSLAYER1
  6
CONTINUOUS
 62
     4
 10
612.330695
 20
871.928657
 11
595.280695
 21
871.928657
  0
ARC
  8
CSLAYER1
  6
CONTINUOUS
 62
     4
 10
612.330695
 20
889.978657
 40
1.000000
 50
0.000000
 51
90.000000
  0
ARC
  8
CSLAYER1
  6
CONTINUOUS
 62
     4
 10
612.330695
 20
872.928657
 40
1.000000
 50
270.000000
 51
360.000000
  0
LINE
  8
CSLAYER1
  6
CONTINUOUS
 62
     4
 10
594.280695
 20
866.403657
 11
590.280695
 21
866.403657
  0
ARC
  8
CSLAYER1
  6
CONTINUOUS
 62
     4
 10
595.280695
 20
889.978657
 40
1.000000
 50
90.000000
 51
180.000000
  0
ARC
  8
CSLAYER1
  6
CONTINUOUS
 62
     4
 10
595.280695
 20
872.928657
 40
1.000000
 50
180.000000
 51
270.000000
  0
LINE
  8
CSLAYER1
  6
CONTINUOUS
 62
     4
 10
611.805695
 20
866.703657
 11
595.805695
 21
866.703657
  0
LINE
  8
CSLAYER1
  6
CONTINUOUS
 62
     4
 10
611.805695
 20
859.703657
 11
616.330695
 21
859.703657
  0
LINE
  8
CSLAYER1
  6
CONTINUOUS
 62
     4
 10
611.805695
 20
839.703657
 11
616.330695
 21
839.703657
  0
LINE
  8
CSLAYER1
  6
CONTINUOUS
 62
     4
 10
633.614022
 20
826.934429
 11
613.805695
 21
826.934429
  0
LINE
  8
CSLAYER1
  6
CONTINUOUS
 62
     4
 10
612.805695
 20
821.934429
 11
611.805695
 21
821.934429
  0
LINE
  8
CSLAYER1
  6
CONTINUOUS
 62
     4
 10
694.805695
 20
821.934429
 11
693.779155
 21
821.934429
  0
LINE
  8
CSLAYER1
  6
CONTINUOUS
 62
     4
 10
694.805695
 20
791.934429
 11
693.779155
 21
791.934429
  0
LINE
  8
CSLAYER1
  6
CONTINUOUS
 62
     4
 10
635.805695
 20
782.217272
 11
631.088538
 21
786.934429
  0
LINE
  8
CSLAYER1
  6
CONTINUOUS
 62
     4
 10
635.805695
 20
782.500115
 11
631.371381
 21
786.934429
  0
LINE
  8
CSLAYER1
  6
CONTINUOUS
 62
     4
 10
635.805695
 20
782.782957
 11
631.654224
 21
786.934429
  0
LINE
  8
CSLAYER1
  6
CONTINUOUS
 62
     4
 10
635.805695
 20
783.065800
 11
631.937066
 21
786.934429
  0
LINE
  8
CSLAYER1
  6
CONTINUOUS
 62
     4
 10
635.805695
 20
783.348643
 11
632.219909
 21
786.934429
  0
LINE
  8
CSLAYER1
  6
CONTINUOUS
 62
     4
 10
635.805695
 20
783.631486
 11
632.502752
 21
786.934429
  0
LINE
  8
CSLAYER1
  6
CONTINUOUS
 62
     4
 10
635.805695
 20
783.914328
 11
632.785594
 21
786.934429
  0
LINE
  8
CSLAYER1
  6
CONTINUOUS
 62
     4
 10
635.805695
 20
784.197171
 11
633.068437
 21
786.934429
  0
LINE
  8
CSLAYER1
  6
CONTINUOUS
 62
     4
 10
635.805695
 20
784.480014
 11
633.351280
 21
786.934429
  0
LINE
  8
CSLAYER1
  6
CONTINUOUS
 62
     4
 10
635.805695
 20
784.762856
 11
633.634123
 21
786.934429
  0
LINE
  8
CSLAYER1
  6
CONTINUOUS
 62
     4
 10
635.805695
 20
785.045699
 11
633.916965
 21
786.934429
  0
LINE
  8
CSLAYER1
  6
CONTINUOUS
 62
     4
 10
635.805695
 20
785.328542
 11
634.199808
 21
786.934429
  0
LINE
  8
CSLAYER1
  6
CONTINUOUS
 62
     4
 10
635.805695
 20
785.611385
 11
634.482651
 21
786.934429
  0
LINE
  8
CSLAYER1
  6
CONTINUOUS
 62
     4
 10
635.805695
 20
785.894227
 11
634.765493
 21
786.934429
  0
LINE
  8
CSLAYER1
  6
CONTINUOUS
 62
     4
 10
635.805695
 20
786.177070
 11
635.048336
 21
786.934429
  0
LINE
  8
CSLAYER1
  6
CONTINUOUS
 62
     4
 10
635.805695
 20
786.459913
 11
635.331179
 21
786.934429
  0
LINE
  8
CSLAYER1
  6
CONTINUOUS
 62
     4
 10
635.805695
 20
786.742755
 11
635.614022
 21
786.934429
  0
LINE
  8
CSLAYER1
  6
CONTINUOUS
 62
     4
 10
634.765493
 20
786.934429
 11
635.805695
 21
786.934429
  0
LINE
  8
CSLAYER1
  6
CONTINUOUS
 62
     4
 10
633.614022
 20
786.934429
 11
620.331074
 21
786.934429
  0
POINT
  8
CSLAYER1
 62
     5
 10
634.805695
 20
749.028002
  0
LINE
  8
CSLAYER1
  6
CONTINUOUS
 62
     7
 10
590.727610
 20
802.555680
 11
466.883781
 21
802.555680
  0
LINE
  8
CSLAYER1
  6
CONTINUOUS
 62
     7
 10
634.805695
 20
772.774424
 11
634.805695
 21
725.182713
  0
LINE
  8
CSLAYER1
  6
CONTINUOUS
 62
     7
 10
612.805695
 20
727.620416
 11
612.668965
 21
728.560953
  0
LINE
  8
CSLAYER1
  6
CONTINUOUS
 62
     7
 10
612.668965
 20
728.560953
 11
612.262929
 21
729.472912
  0
LINE
  8
CSLAYER1
  6
CONTINUOUS
 62
     7
 10
612.262929
 20
729.472912
 11
611.599924
 21
730.328584
  0
LINE
  8
CSLAYER1
  6
CONTINUOUS
 62
     7
 10
611.599924
 20
730.328584
 11
610.700095
 21
731.101969
  0
LINE
  8
CSLAYER1
  6
CONTINUOUS
 62
     7
 10
610.700095
 20
731.101969
 11
609.590784
 21
731.769570
  0
LINE
  8
CSLAYER1
  6
CONTINUOUS
 62
     7
 10
609.590784
 20
731.769570
 11
608.305695
 21
732.311100
  0
LINE
  8
CSLAYER1
  6
CONTINUOUS
 62
     7
 10
608.305695
 20
732.311100
 11
606.883877
 21
732.710106
  0
LINE
  8
CSLAYER1
  6
CONTINUOUS
 62
     7
 10
606.883877
 20
732.710106
 11
605.368529
 21
732.954465
  0
LINE
  8
CSLAYER1
  6
CONTINUOUS
 62
     7
 10
605.368529
 20
732.954465
 11
603.805695
 21
733.036751
  0
LINE
  8
CSLAYER1
  6
CONTINUOUS
 62
     7
 10
603.805695
 20
733.036751
 11
602.242862
 21
732.954465
  0
LINE
  8
CSLAYER1
  6
CONTINUOUS
 62
     7
 10
602.242862
 20
732.954465
 11
600.727514
 21
732.710106
  0
LINE
  8
CSLAYER1
  6
CONTINUOUS
 62
     7
 10
600.727514
 20
732.710106
 11
599.305695
 21
732.311100
  0
LINE
  8
CSLAYER1
  6
CONTINUOUS
 62
     7
 10
599.305695
 20
732.311100
 11
598.020607
 21
731.769570
  0
LINE
  8
CSLAYER1
  6
CONTINUOUS
 62
     7
 10
598.020607
 20
731.769570
 11
596.911296
 21
731.101969
  0
LINE
  8
CSLAYER1
  6
CONTINUOUS
 62
     7
 10
596.911296
 20
731.101969
 11
596.011467
 21
730.328584
  0
LINE
  8
CSLAYER1
  6
CONTINUOUS
 62
     7
 10
596.011467
 20
730.328584
 11
595.348462
 21
729.472912
  0
LINE
  8
CSLAYER1
  6
CONTINUOUS
 62
     7
 10
595.348462
 20
729.472912
 11
594.942426
 21
728.560953
  0
LINE
  8
CSLAYER1
  6
CONTINUOUS
 62
     7
 10
594.942426
 20
728.560953
 11
594.805695
 21
727.620416
  0
LINE
  8
CSLAYER1
  6
CONTINUOUS
 62
     7
 10
594.805695
 20
727.620416
 11
594.942426
 21
726.679879
  0
LINE
  8
CSLAYER1
  6
CONTINUOUS
 62
     7
 10
594.942426
 20
726.679879
 11
595.348462
 21
725.767920
  0
LINE
  8
CSLAYER1
  6
CONTINUOUS
 62
     7
 10
595.348462
 20
725.767920
 11
596.011467
 21
724.912249
  0
LINE
  8
CSLAYER1
  6
CONTINUOUS
 62
     7
 10
596.011467
 20
724.912249
 11
596.911296
 21
724.138863
  0
LINE
  8
CSLAYER1
  6
CONTINUOUS
 62
     7
 10
596.911296
 20
724.138863
 11
598.020607
 21
723.471263
  0
LINE
  8
CSLAYER1
  6
CONTINUOUS
 62
     7
 10
598.020607
 20
723.471263
 11
599.305695
 21
722.929732
  0
LINE
  8
CSLAYER1
  6
CONTINUOUS
 62
     7
 10
599.305695
 20
722.929732
 11
600.727514
 21
722.530726
  0
LINE
  8
CSLAYER1
  6
CONTINUOUS
 62
     7
 10
600.727514
 20
722.530726
 11
602.242862
 21
722.286367
  0
LINE
  8
CSLAYER1
  6
CONTINUOUS
 62
     7
 10
602.242862
 20
722.286367
 11
603.805695
 21
722.204081
  0
LINE
  8
CSLAYER1
  6
CONTINUOUS
 62
     7
 10
603.805695
 20
722.204081
 11
605.368529
 21
722.286367
  0
LINE
  8
CSLAYER1
  6
CONTINUOUS
 62
     7
 10
605.368529
 20
722.286367
 11
606.883877
 21
722.530726
  0
LINE
  8
CSLAYER1
  6
CONTINUOUS
 62
     7
 10
606.883877
 20
722.530726
 11
608.305695
 21
722.929732
  0
LINE
  8
CSLAYER1
  6
CONTINUOUS
 62
     7
 10
608.305695
 20
722.929732
 11
609.590784
 21
723.471263
  0
LINE
  8
CSLAYER1
  6
CONTINUOUS
 62
     7
 10
609.590784
 20
723.471263
 11
610.700095
 21
724.138863
  0
LINE
  8
CSLAYER1
  6
CONTINUOUS
 62
     7
 10
610.700095
 20
724.138863
 11
611.599924
 21
724.912249
  0
LINE
  8
CSLAYER1
  6
CONTINUOUS
 62
     7
 10
611.599924
 20
724.912249
 11
612.262929
 21
725.767920
  0
LINE
  8
CSLAYER1
  6
CONTINUOUS
 62
     7
 10
612.262929
 20
725.767920
 11
612.668965
 21
726.679879
  0
LINE
  8
CSLAYER1
  6
CONTINUOUS
 62
     7
 10
612.668965
 20
726.679879
 11
612.805695
 21
727.620416
  0
LINE
  8
CSLAYER1
  6
CONTINUOUS
 62
     7
 10
612.805695
 20
733.036751
 11
612.668965
 21
733.977288
  0
LINE
  8
CSLAYER1
  6
CONTINUOUS
 62
     7
 10
612.668965
 20
733.977288
 11
612.262929
 21
734.889247
  0
LINE
  8
CSLAYER1
  6
CONTINUOUS
 62
     7
 10
612.262929
 20
734.889247
 11
611.599924
 21
735.744919
  0
LINE
  8
CSLAYER1
  6
CONTINUOUS
 62
     7
 10
611.599924
 20
735.744919
 11
610.700095
 21
736.518305
  0
LINE
  8
CSLAYER1
  6
CONTINUOUS
 62
     7
 10
610.700095
 20
736.518305
 11
609.590784
 21
737.185905
  0
LINE
  8
CSLAYER1
  6
CONTINUOUS
 62
     7
 10
609.590784
 20
737.185905
 11
608.305695
 21
737.727435
  0
LINE
  8
CSLAYER1
  6
CONTINUOUS
 62
     7
 10
608.305695
 20
737.727435
 11
606.883877
 21
738.126442
  0
LINE
  8
CSLAYER1
  6
CONTINUOUS
 62
     7
 10
606.883877
 20
738.126442
 11
605.368529
 21
738.370800
  0
LINE
  8
CSLAYER1
  6
CONTINUOUS
 62
     7
 10
605.368529
 20
738.370800
 11
603.805695
 21
738.453087
  0
LINE
  8
CSLAYER1
  6
CONTINUOUS
 62
     7
 10
603.805695
 20
738.453087
 11
602.242862
 21
738.370800
  0
LINE
  8
CSLAYER1
  6
CONTINUOUS
 62
     7
 10
602.242862
 20
738.370800
 11
600.727514
 21
738.126442
  0
LINE
  8
CSLAYER1
  6
CONTINUOUS
 62
     7
 10
600.727514
 20
738.126442
 11
599.305695
 21
737.727435
  0
LINE
  8
CSLAYER1
  6
CONTINUOUS
 62
     7
 10
599.305695
 20
737.727435
 11
598.020607
 21
737.185905
  0
LINE
  8
CSLAYER1
  6
CONTINUOUS
 62
     7
 10
598.020607
 20
737.185905
 11
596.911296
 21
736.518305
  0
LINE
  8
CSLAYER1
  6
CONTINUOUS
 62
     7
 10
596.911296
 20
736.518305
 11
596.011467
 21
735.744919
  0
LINE
  8
CSLAYER1
  6
CONTINUOUS
 62
     7
 10
596.011467
 20
735.744919
 11
595.348462
 21
734.889247
  0
LINE
  8
CSLAYER1
  6
CONTINUOUS
 62
     7
 10
595.348462
 20
734.889247
 11
594.942426
 21
733.977288
  0
LINE
  8
CSLAYER1
  6
CONTINUOUS
 62
     7
 10
594.942426
 20
733.977288
 11
594.805695
 21
733.036751
  0
LINE
  8
CSLAYER1
  6
CONTINUOUS
 62
     7
 10
612.805695
 20
733.036751
 11
612.805695
 21
727.148351
  0
LINE
  8
CSLAYER1
  6
CONTINUOUS
 62
     7
 10
594.805695
 20
733.036751
 11
594.805695
 21
727.148351
  0
LINE
  8
CSLAYER1
  6
CONTINUOUS
 62
     7
 10
2178.666797
 20
1263.307238
 11
2178.666797
 21
1316.307238
  0
LINE
  8
CSLAYER1
  6
CONTINUOUS
 62
     3
 10
2178.666797
 20
1506.937885
 11
2178.666797
 21
2156.937885
  0
LINE
  8
CSLAYER1
  6
CONTINUOUS
 62
     5
 10
1150.666797
 20
421.761620
 11
1190.666797
 21
421.761620
  0
LINE
  8
CSLAYER1
  6
CONTINUOUS
 62
     5
 10
1170.666797
 20
441.761620
 11
1170.666797
 21
401.761620
  0
TEXT
  8
CSLAYER1
 62
     5
 10
2432.210693
 20
400.644928
 40
40.000000
 41
1.050000
  1
F.L
 50
0.000000
 51
0.000000
  7
EASYDRAW_FONT
 72
     5
 11
2544.210693
 21
400.644928
  0
LINE
  8
CSLAYER1
  6
CONTINUOUS
 62
     7
 10
595.747823
 20
801.204233
 11
629.825908
 21
781.422977
  0
LINE
  8
CSLAYER1
  6
CONTINUOUS
 62
     7
 10
593.419622
 20
770.573179
 11
629.825908
 21
749.440475
  0
LINE
  8
CSLAYER1
  6
CONTINUOUS
 62
     7
 10
594.805695
 20
695.500324
 11
629.954326
 21
716.609988
  0
ARC
  8
CSLAYER1
  6
CONTINUOUS
 62
     7
 10
590.727610
 20
792.555680
 40
10.000000
 50
59.866183
 51
90.000000
  0
ARC
  8
CSLAYER1
  6
CONTINUOUS
 62
     7
 10
624.805695
 20
772.774424
 40
10.000000
 50
0.000000
 51
59.866183
  0
ARC
  8
CSLAYER1
  6
CONTINUOUS
 62
     7
 10
624.805695
 20
725.182713
 40
10.000000
 50
-59.011695
 51
0.000000
  0
ARC
  8
CSLAYER1
  6
CONTINUOUS
 62
     7
 10
624.805695
 20
740.791922
 40
10.000000
 50
0.000000
 51
59.866183
  0
LINE
  8
CSLAYER1
  6
CONTINUOUS
 62
     4
 10
278.805695
 20
459.043404
 11
278.805695
 21
394.761620
  0
LINE
  8
CSLAYER1
  6
CONTINUOUS
 62
     4
 10
203.805695
 20
1313.307238
 11
203.805695
 21
1263.307238
  0
POINT
  8
CSLAYER1
 62
     4
 10
453.805695
 20
1109.400221
  0
LINE
  8
CSLAYER1
  6
CONTINUOUS
 62
     5
 10
439.680319
 20
1109.400223
 11
467.919409
 21
1109.400223
  0
LINE
  8
CSLAYER1
  6
CONTINUOUS
 62
     4
 10
445.305695
 20
1134.400223
 11
445.305695
 21
1174.982913
  0
LINE
  8
CSLAYER1
  6
CONTINUOUS
 62
     4
 10
443.805695
 20
1126.400223
 11
443.805695
 21
1174.982913
  0
LINE
  8
CSLAYER1
  6
CONTINUOUS
 62
     4
 10
443.805695
 20
1134.400223
 11
463.805695
 21
1134.400223
  0
LINE
  8
CSLAYER1
  6
CONTINUOUS
 62
     4
 10
445.305695
 20
1134.400223
 11
443.805695
 21
1131.802147
  0
LINE
  8
CSLAYER1
  6
CONTINUOUS
 62
     4
 10
462.305695
 20
1134.400223
 11
462.305695
 21
1174.982913
  0
LINE
  8
CSLAYER1
  6
CONTINUOUS
 62
     4
 10
462.305695
 20
1134.400223
 11
463.805695
 21
1131.802147
  0
LINE
  8
CSLAYER1
  6
CONTINUOUS
 62
     4
 10
463.805695
 20
1126.400223
 11
463.805695
 21
1174.982913
  0
LINE
  8
CSLAYER1
  6
CONTINUOUS
 62
     4
 10
466.330695
 20
1124.400221
 11
441.280695
 21
1124.400221
  0
POINT
  8
CSLAYER1
 62
     4
 10
453.805695
 20
1077.650221
  0
LINE
  8
CSLAYER1
  6
CONTINUOUS
 62
     4
 10
440.280695
 20
1123.400221
 11
440.280695
 21
1030.850221
  0
LINE
  8
CSLAYER1
  6
CONTINUOUS
 62
     4
 10
444.280695
 20
1092.700221
 11
444.280695
 21
1030.850221
  0
LINE
  8
CSLAYER1
  6
CONTINUOUS
 62
     4
 10
444.280695
 20
1092.700221
 11
440.280695
 21
1092.700221
  0
LINE
  8
CSLAYER1
  6
CONTINUOUS
 62
     4
 10
445.280695
 20
1068.125221
 11
462.330695
 21
1068.125221
  0
LINE
  8
CSLAYER1
  6
CONTINUOUS
 62
     4
 10
445.280695
 20
1087.175221
 11
462.330695
 21
1087.175221
  0
ARC
  8
CSLAYER1
  6
CONTINUOUS
 62
     4
 10
445.280695
 20
1069.125221
 40
1.000000
 50
180.000000
 51
270.000000
  0
ARC
  8
CSLAYER1
  6
CONTINUOUS
 62
     4
 10
445.280695
 20
1086.175221
 40
1.000000
 50
90.000000
 51
180.000000
  0
LINE
  8
CSLAYER1
  6
CONTINUOUS
 62
     4
 10
467.330695
 20
1123.400221
 11
467.330695
 21
1030.150221
  0
LINE
  8
CSLAYER1
  6
CONTINUOUS
 62
     4
 10
463.330695
 20
1092.700221
 11
463.330695
 21
1030.850221
  0
LINE
  8
CSLAYER1
  6
CONTINUOUS
 62
     4
 10
463.330695
 20
1092.700221
 11
467.330695
 21
1092.700221
  0
ARC
  8
CSLAYER1
  6
CONTINUOUS
 62
     4
 10
462.330695
 20
1069.125221
 40
1.000000
 50
270.000000
 51
360.000000
  0
ARC
  8
CSLAYER1
  6
CONTINUOUS
 62
     4
 10
462.330695
 20
1086.175221
 40
1.000000
 50
0.000000
 51
90.000000
  0
LINE
  8
CSLAYER1
  6
CONTINUOUS
 62
     4
 10
434.055695
 20
1073.880221
 11
434.055695
 21
1081.429948
  0
LINE
  8
CSLAYER1
  6
CONTINUOUS
 62
     4
 10
440.280695
 20
1064.650221
 11
435.905695
 21
1064.650221
  0
LINE
  8
CSLAYER1
  6
CONTINUOUS
 62
     4
 10
440.280695
 20
1122.400221
 11
435.905695
 21
1122.400221
  0
LINE
  8
CSLAYER1
  6
CONTINUOUS
 62
     4
 10
435.905695
 20
1072.880221
 11
435.055695
 21
1072.880221
  0
LINE
  8
CSLAYER1
  6
CONTINUOUS
 62
     4
 10
435.905695
 20
1082.429948
 11
435.055695
 21
1082.429948
  0
ARC
  8
CSLAYER1
  6
CONTINUOUS
 62
     4
 10
435.055695
 20
1073.880221
 40
1.000000
 50
180.000000
 51
270.000000
  0
ARC
  8
CSLAYER1
  6
CONTINUOUS
 62
     4
 10
435.055695
 20
1081.429948
 40
1.000000
 50
90.000000
 51
180.000000
  0
LINE
  8
CSLAYER1
  6
CONTINUOUS
 62
     4
 10
434.055695
 20
1105.630221
 11
434.055695
 21
1113.179948
  0
LINE
  8
CSLAYER1
  6
CONTINUOUS
 62
     4
 10
435.905695
 20
1104.630221
 11
435.055695
 21
1104.630221
  0
LINE
  8
CSLAYER1
  6
CONTINUOUS
 62
     4
 10
435.905695
 20
1114.179948
 11
435.055695
 21
1114.179948
  0
ARC
  8
CSLAYER1
  6
CONTINUOUS
 62
     4
 10
435.055695
 20
1105.630221
 40
1.000000
 50
180.000000
 51
270.000000
  0
ARC
  8
CSLAYER1
  6
CONTINUOUS
 62
     4
 10
435.055695
 20
1113.179948
 40
1.000000
 50
90.000000
 51
180.000000
  0
LINE
  8
CSLAYER1
  6
CONTINUOUS
 62
     4
 10
473.555695
 20
1073.880221
 11
473.555695
 21
1081.429948
  0
LINE
  8
CSLAYER1
  6
CONTINUOUS
 62
     4
 10
467.330695
 20
1064.650221
 11
471.705695
 21
1064.650221
  0
LINE
  8
CSLAYER1
  6
CONTINUOUS
 62
     4
 10
467.330695
 20
1122.400221
 11
471.705695
 21
1122.400221
  0
LINE
  8
CSLAYER1
  6
CONTINUOUS
 62
     4
 10
471.705695
 20
1072.880221
 11
472.555695
 21
1072.880221
  0
LINE
  8
CSLAYER1
  6
CONTINUOUS
 62
     4
 10
471.705695
 20
1082.429948
 11
472.555695
 21
1082.429948
  0
ARC
  8
CSLAYER1
  6
CONTINUOUS
 62
     4
 10
472.555695
 20
1073.880221
 40
1.000000
 50
270.000000
 51
360.000000
  0
ARC
  8
CSLAYER1
  6
CONTINUOUS
 62
     4
 10
472.555695
 20
1081.429948
 40
1.000000
 50
0.000000
 51
90.000000
  0
LINE
  8
CSLAYER1
  6
CONTINUOUS
 62
     4
 10
476.655695
 20
1105.630221
 11
476.655695
 21
1113.179948
  0
LINE
  8
CSLAYER1
  6
CONTINUOUS
 62
     4
 10
471.705695
 20
1104.630221
 11
475.655695
 21
1104.630221
  0
LINE
  8
CSLAYER1
  6
CONTINUOUS
 62
     4
 10
471.705695
 20
1114.179948
 11
475.655695
 21
1114.179948
  0
ARC
  8
CSLAYER1
  6
CONTINUOUS
 62
     4
 10
475.655695
 20
1105.630221
 40
1.000000
 50
270.000000
 51
360.000000
  0
ARC
  8
CSLAYER1
  6
CONTINUOUS
 62
     4
 10
475.655695
 20
1113.179948
 40
1.000000
 50
0.000000
 51
90.000000
  0
LINE
  8
CSLAYER1
  6
CONTINUOUS
 62
     4
 10
467.330695
 20
1114.179948
 11
440.280695
 21
1114.179948
  0
LINE
  8
CSLAYER1
  6
CONTINUOUS
 62
     4
 10
467.330695
 20
1104.630221
 11
440.280695
 21
1104.630221
  0
LINE
  8
CSLAYER1
  6
CONTINUOUS
 62
     4
 10
465.330695
 20
1094.400221
 11
442.280695
 21
1094.400221
  0
ARC
  8
CSLAYER1
  6
CONTINUOUS
 62
     4
 10
442.280695
 20
1096.400221
 40
2.000000
 50
180.000000
 51
270.000000
  0
ARC
  8
CSLAYER1
  6
CONTINUOUS
 62
     4
 10
465.330695
 20
1096.400221
 40
2.000000
 50
270.000000
 51
360.000000
  0
ARC
  8
CSLAYER1
  6
CONTINUOUS
 62
     4
 10
465.805695
 20
1126.400221
 40
2.000000
 50
180.000000
 51
270.000000
  0
ARC
  8
CSLAYER1
  6
CONTINUOUS
 62
     4
 10
441.805695
 20
1126.400221
 40
2.000000
 50
270.000000
 51
360.000000
  0
ARC
  8
CSLAYER1
  6
CONTINUOUS
 62
     4
 10
466.330695
 20
1123.400221
 40
1.000000
 50
0.000000
 51
90.000000
  0
ARC
  8
CSLAYER1
  6
CONTINUOUS
 62
     4
 10
441.280695
 20
1123.400221
 40
1.000000
 50
90.000000
 51
180.000000
  0
POINT
  8
CSLAYER1
 62
     4
 10
453.805695
 20
1124.400221
  0
LINE
  8
CSLAYER1
  6
CONTINUOUS
 62
     4
 10
435.905695
 20
1064.650221
 11
435.905695
 21
1122.400221
  0
LINE
  8
CSLAYER1
  6
CONTINUOUS
 62
     4
 10
471.705695
 20
1064.650221
 11
471.705695
 21
1122.400221
  0
LINE
  8
CSLAYER1
  6
CENTER
 62
     5
 10
393.522711
 20
749.028002
 11
482.843755
 21
749.028002
  0
POINT
  8
CSLAYER1
 62
     4
 10
453.805695
 20
1045.900221
  0
LINE
  8
CSLAYER1
  6
CONTINUOUS
 62
     4
 10
444.280695
 20
1030.850221
 11
440.280695
 21
1030.850221
  0
LINE
  8
CSLAYER1
  6
CONTINUOUS
 62
     4
 10
445.280695
 20
1055.425221
 11
462.330695
 21
1055.425221
  0
LINE
  8
CSLAYER1
  6
CONTINUOUS
 62
     4
 10
445.280695
 20
1036.375221
 11
462.330695
 21
1036.375221
  0
ARC
  8
CSLAYER1
  6
CONTINUOUS
 62
     4
 10
445.280695
 20
1054.425221
 40
1.000000
 50
90.000000
 51
180.000000
  0
ARC
  8
CSLAYER1
  6
CONTINUOUS
 62
     4
 10
445.280695
 20
1037.375221
 40
1.000000
 50
180.000000
 51
270.000000
  0
LINE
  8
CSLAYER1
  6
CONTINUOUS
 62
     4
 10
463.330695
 20
1030.850221
 11
467.330695
 21
1030.850221
  0
ARC
  8
CSLAYER1
  6
CONTINUOUS
 62
     4
 10
462.330695
 20
1054.425221
 40
1.000000
 50
0.000000
 51
90.000000
  0
ARC
  8
CSLAYER1
  6
CONTINUOUS
 62
     4
 10
462.330695
 20
1037.375221
 40
1.000000
 50
270.000000
 51
360.000000
  0
LINE
  8
CSLAYER1
  6
CONTINUOUS
 62
     4
 10
434.055695
 20
1049.670221
 11
434.055695
 21
1042.120495
  0
LINE
  8
CSLAYER1
  6
CONTINUOUS
 62
     4
 10
440.280695
 20
1058.900221
 11
435.905695
 21
1058.900221
  0
LINE
  8
CSLAYER1
  6
CONTINUOUS
 62
     4
 10
435.905695
 20
1050.670221
 11
435.055695
 21
1050.670221
  0
LINE
  8
CSLAYER1
  6
CONTINUOUS
 62
     4
 10
435.905695
 20
1041.120495
 11
435.055695
 21
1041.120495
  0
ARC
  8
CSLAYER1
  6
CONTINUOUS
 62
     4
 10
435.055695
 20
1049.670221
 40
1.000000
 50
90.000000
 51
180.000000
  0
ARC
  8
CSLAYER1
  6
CONTINUOUS
 62
     4
 10
435.055695
 20
1042.120495
 40
1.000000
 50
180.000000
 51
270.000000
  0
LINE
  8
CSLAYER1
  6
CONTINUOUS
 62
     4
 10
473.555695
 20
1049.670221
 11
473.555695
 21
1042.120495
  0
LINE
  8
CSLAYER1
  6
CONTINUOUS
 62
     4
 10
467.330695
 20
1058.900221
 11
471.705695
 21
1058.900221
  0
LINE
  8
CSLAYER1
  6
CONTINUOUS
 62
     4
 10
471.705695
 20
1050.670221
 11
472.555695
 21
1050.670221
  0
LINE
  8
CSLAYER1
  6
CONTINUOUS
 62
     4
 10
471.705695
 20
1041.120495
 11
472.555695
 21
1041.120495
  0
ARC
  8
CSLAYER1
  6
CONTINUOUS
 62
     4
 10
472.555695
 20
1049.670221
 40
1.000000
 50
0.000000
 51
90.000000
  0
ARC
  8
CSLAYER1
  6
CONTINUOUS
 62
     4
 10
472.555695
 20
1042.120495
 40
1.000000
 50
270.000000
 51
360.000000
  0
LINE
  8
CSLAYER1
  6
CONTINUOUS
 62
     4
 10
471.705695
 20
1058.900221
 11
471.705695
 21
1001.150221
  0
LINE
  8
CSLAYER1
  6
CONTINUOUS
 62
     4
 10
435.905695
 20
1058.900221
 11
435.905695
 21
1001.150221
  0
LINE
  8
CSLAYER1
  6
CONTINUOUS
 62
     4
 10
778.805695
 20
459.761620
 11
278.805695
 21
459.761620
  0
LINE
  8
CSLAYER1
  6
CONTINUOUS
 62
     4
 10
421.805695
 20
459.761620
 11
421.805695
 21
1263.307238
  0
LINE
  8
CSLAYER1
  6
CONTINUOUS
 62
     4
 10
405.805695
 20
459.761620
 11
405.805695
 21
1263.307238
  0
LINE
  8
CSLAYER1
  6
CONTINUOUS
 62
     4
 10
484.255695
 20
1042.467453
 11
484.255695
 21
802.555680
  0
LINE
  8
CSLAYER1
  6
CONTINUOUS
 62
     4
 10
498.555695
 20
1166.732913
 11
498.555695
 21
1060.713294
  0
LINE
  8
CSLAYER1
  6
CONTINUOUS
 62
     4
 10
484.255695
 20
1042.467453
 11
484.425222
 21
1044.582171
  0
LINE
  8
CSLAYER1
  6
CONTINUOUS
 62
     4
 10
484.425222
 20
1044.582171
 11
484.932510
 21
1046.680795
  0
LINE
  8
CSLAYER1
  6
CONTINUOUS
 62
     4
 10
484.932510
 20
1046.680795
 11
485.773700
 21
1048.747353
  0
LINE
  8
CSLAYER1
  6
CONTINUOUS
 62
     4
 10
485.773700
 20
1048.747353
 11
486.942389
 21
1050.766117
  0
LINE
  8
CSLAYER1
  6
CONTINUOUS
 62
     4
 10
486.942389
 20
1050.766117
 11
488.429684
 21
1052.721723
  0
LINE
  8
CSLAYER1
  6
CONTINUOUS
 62
     4
 10
488.429684
 20
1052.721723
 11
490.224264
 21
1054.599288
  0
LINE
  8
CSLAYER1
  6
CONTINUOUS
 62
     4
 10
490.224264
 20
1054.599288
 11
492.312472
 21
1056.384522
  0
LINE
  8
CSLAYER1
  6
CONTINUOUS
 62
     4
 10
492.312472
 20
1056.384522
 11
494.678416
 21
1058.063839
  0
LINE
  8
CSLAYER1
  6
CONTINUOUS
 62
     4
 10
494.678416
 20
1058.063839
 11
497.304088
 21
1059.624458
  0
LINE
  8
CSLAYER1
  6
CONTINUOUS
 62
     4
 10
497.304088
 20
1059.624458
 11
500.169507
 21
1061.054502
  0
LINE
  8
CSLAYER1
  6
CONTINUOUS
 62
     4
 10
500.169507
 20
1061.054502
 11
503.252865
 21
1062.343087
  0
LINE
  8
CSLAYER1
  6
CONTINUOUS
 62
     4
 10
503.252865
 20
1062.343087
 11
506.530695
 21
1063.480407
  0
LINE
  8
CSLAYER1
  6
CONTINUOUS
 62
     4
 10
506.530695
 20
1063.480407
 11
509.978052
 21
1064.457805
  0
LINE
  8
CSLAYER1
  6
CONTINUOUS
 62
     4
 10
509.978052
 20
1064.457805
 11
513.568698
 21
1065.267844
  0
LINE
  8
CSLAYER1
  6
CONTINUOUS
 62
     4
 10
513.568698
 20
1065.267844
 11
517.275307
 21
1065.904358
  0
LINE
  8
CSLAYER1
  6
CONTINUOUS
 62
     4
 10
517.275307
 20
1065.904358
 11
521.069669
 21
1066.362502
  0
LINE
  8
CSLAYER1
  6
CONTINUOUS
 62
     4
 10
521.069669
 20
1066.362502
 11
524.922907
 21
1066.638791
  0
LINE
  8
CSLAYER1
  6
CONTINUOUS
 62
     4
 10
524.922907
 20
1066.638791
 11
528.805695
 21
1066.731122
  0
LINE
  8
CSLAYER1
  6
CONTINUOUS
 62
     4
 10
362.805695
 20
687.247445
 11
405.805695
 21
687.247445
  0
LINE
  8
CSLAYER1
  6
CONTINUOUS
 62
     4
 10
362.805695
 20
607.834188
 11
405.805695
 21
607.834188
  0
LINE
  8
CSLAYER1
  6
CONTINUOUS
 62
     4
 10
405.805695
 20
702.441059
 11
362.805695
 21
702.441059
  0
LINE
  8
CSLAYER1
  6
CONTINUOUS
 62
     4
 10
421.805695
 20
687.247445
 11
473.682243
 21
687.247445
  0
LINE
  8
CSLAYER1
  6
CONTINUOUS
 62
     4
 10
421.805695
 20
607.834188
 11
468.805695
 21
607.834188
  0
LINE
  8
CSLAYER1
  6
CONTINUOUS
 62
     4
 10
451.249029
 20
702.441059
 11
421.805695
 21
702.441059
  0
LINE
  8
CSLAYER1
  6
CONTINUOUS
 62
     4
 10
346.805695
 20
1173.107238
 11
346.805695
 21
806.934429
  0
LINE
  8
CSLAYER1
  6
CONTINUOUS
 62
     4
 10
362.805695
 20
1173.107238
 11
362.805695
 21
459.761620
  0
ARC
  8
CSLAYER1
  6
CONTINUOUS
 62
     4
 10
206.805695
 20
1313.307238
 40
3.000000
 50
90.000000
 51
180.000000
  0
LINE
  8
CSLAYER1
  6
CENTER
 62
     5
 10
453.805695
 20
1281.529347
 11
453.805695
 21
796.526892
  0
LINE
  8
CSLAYER1
  6
CONTINUOUS
 62
     4
 10
403.805695
 20
765.028002
 11
403.805695
 21
733.028002
  0
LINE
  8
CSLAYER1
  6
CONTINUOUS
 62
     4
 10
393.805695
 20
763.028002
 11
393.805695
 21
735.028002
  0
LINE
  8
CSLAYER1
  6
CONTINUOUS
 62
     4
 10
395.805695
 20
765.028002
 11
403.805695
 21
765.028002
  0
LINE
  8
CSLAYER1
  6
CONTINUOUS
 62
     4
 10
393.805695
 20
763.028002
 11
395.805695
 21
765.028002
  0
LINE
  8
CSLAYER1
  6
CONTINUOUS
 62
     4
 10
395.805695
 20
765.028002
 11
395.805695
 21
733.028002
  0
LINE
  8
CSLAYER1
  6
CONTINUOUS
 62
     4
 10
395.805695
 20
733.028002
 11
403.805695
 21
733.028002
  0
LINE
  8
CSLAYER1
  6
CONTINUOUS
 62
     4
 10
393.805695
 20
735.028002
 11
395.805695
 21
733.028002
  0
LINE
  8
CSLAYER1
  6
CONTINUOUS
 62
     4
 10
403.805695
 20
763.028002
 11
405.805695
 21
763.028002
  0
LINE
  8
CSLAYER1
  6
CONTINUOUS
 62
     4
 10
403.805695
 20
735.028002
 11
405.805695
 21
735.028002
  0
LINE
  8
CSLAYER1
  6
CONTINUOUS
 62
     4
 10
396.805695
 20
1238.107238
 11
371.805695
 21
1238.107238
  0
LINE
  8
CSLAYER1
  6
CONTINUOUS
 62
     4
 10
371.805695
 20
1213.107238
 11
399.305695
 21
1213.107238
  0
LINE
  8
CSLAYER1
  6
CONTINUOUS
 62
     4
 10
371.805695
 20
1263.307238
 11
371.805695
 21
1213.107238
  0
LINE
  8
CSLAYER1
  6
CONTINUOUS
 62
     4
 10
396.805695
 20
1213.107238
 11
396.805695
 21
1263.307238
  0
LINE
  8
CSLAYER1
  6
CONTINUOUS
 62
     4
 10
381.305695
 20
1263.307238
 11
381.305695
 21
1238.107238
  0
LINE
  8
CSLAYER1
  6
CONTINUOUS
 62
     4
 10
387.305695
 20
1263.307238
 11
387.305695
 21
1238.107238
  0
LINE
  8
CSLAYER1
  6
CENTER
 62
     5
 10
427.489470
 20
1192.107238
 11
332.075058
 21
1192.107238
  0
LINE
  8
CSLAYER1
  6
CONTINUOUS
 62
     4
 10
400.305695
 20
1212.107238
 11
400.305695
 21
1172.107238
  0
LINE
  8
CSLAYER1
  6
CONTINUOUS
 62
     4
 10
373.805695
 20
1203.658881
 11
373.805695
 21
1180.555596
  0
LINE
  8
CSLAYER1
  6
CONTINUOUS
 62
     4
 10
372.655695
 20
1203.658881
 11
372.655695
 21
1180.555596
  0
LINE
  8
CSLAYER1
  6
CONTINUOUS
 62
     4
 10
371.805695
 20
1199.607238
 11
372.655695
 21
1199.607238
  0
LINE
  8
CSLAYER1
  6
CONTINUOUS
 62
     4
 10
372.655695
 20
1203.658881
 11
373.805695
 21
1203.658881
  0
LINE
  8
CSLAYER1
  6
CONTINUOUS
 62
     4
 10
373.805695
 20
1199.607238
 11
374.305695
 21
1199.607238
  0
LINE
  8
CSLAYER1
  6
CONTINUOUS
 62
     4
 10
374.305695
 20
1212.107238
 11
374.305695
 21
1172.107238
  0
ARC
  8
CSLAYER1
  6
CONTINUOUS
 62
     4
 10
399.305695
 20
1212.107238
 40
1.000000
 50
0.000000
 51
90.000000
  0
ARC
  8
CSLAYER1
  6
CONTINUOUS
 62
     4
 10
375.305695
 20
1212.107238
 40
1.000000
 50
90.000000
 51
180.000000
  0
ARC
  8
CSLAYER1
  6
CONTINUOUS
 62
     4
 10
386.305695
 20
1212.107238
 40
1.000000
 50
0.000000
 51
90.000000
  0
ARC
  8
CSLAYER1
  6
CONTINUOUS
 62
     4
 10
388.305695
 20
1212.107238
 40
1.000000
 50
90.000000
 51
180.000000
  0
LINE
  8
CSLAYER1
  6
CONTINUOUS
 62
     4
 10
371.305695
 20
1263.307238
 11
371.305695
 21
1173.107238
  0
LINE
  8
CSLAYER1
  6
CONTINUOUS
 62
     4
 10
375.305695
 20
1171.107238
 11
386.305695
 21
1171.107238
  0
LINE
  8
CSLAYER1
  6
CONTINUOUS
 62
     4
 10
371.805695
 20
1184.607238
 11
372.655695
 21
1184.607238
  0
LINE
  8
CSLAYER1
  6
CONTINUOUS
 62
     4
 10
372.655695
 20
1180.555596
 11
373.805695
 21
1180.555596
  0
LINE
  8
CSLAYER1
  6
CONTINUOUS
 62
     4
 10
373.805695
 20
1184.607238
 11
374.305695
 21
1184.607238
  0
ARC
  8
CSLAYER1
  6
CONTINUOUS
 62
     4
 10
399.305695
 20
1172.107238
 40
1.000000
 50
270.000000
 51
360.000000
  0
ARC
  8
CSLAYER1
  6
CONTINUOUS
 62
     4
 10
375.305695
 20
1172.107238
 40
1.000000
 50
180.000000
 51
270.000000
  0
ARC
  8
CSLAYER1
  6
CONTINUOUS
 62
     4
 10
386.305695
 20
1172.107238
 40
1.000000
 50
270.000000
 51
360.000000
  0
ARC
  8
CSLAYER1
  6
CONTINUOUS
 62
     4
 10
388.305695
 20
1172.107238
 40
1.000000
 50
180.000000
 51
270.000000
  0
LINE
  8
CSLAYER1
  6
CONTINUOUS
 62
     4
 10
399.305695
 20
1171.107238
 11
388.305695
 21
1171.107238
  0
LINE
  8
CSLAYER1
  6
CONTINUOUS
 62
     4
 10
400.305695
 20
1192.107238
 11
401.305695
 21
1192.107238
  0
LINE
  8
CSLAYER1
  6
CONTINUOUS
 62
     4
 10
400.805695
 20
1202.107238
 11
400.305695
 21
1201.607238
  0
LINE
  8
CSLAYER1
  6
CONTINUOUS
 62
     4
 10
400.805695
 20
1182.107238
 11
400.305695
 21
1182.607238
  0
LINE
  8
CSLAYER1
  6
CONTINUOUS
 62
     4
 10
498.555695
 20
1166.732913
 11
474.305695
 21
1166.732913
  0
LINE
  8
CSLAYER1
  6
CONTINUOUS
 62
     4
 10
427.805695
 20
1174.982913
 11
472.305695
 21
1174.982913
  0
LINE
  8
CSLAYER1
  6
CONTINUOUS
 62
     4
 10
427.805695
 20
1218.982913
 11
472.305695
 21
1218.982913
  0
LINE
  8
CSLAYER1
  6
CONTINUOUS
 62
     4
 10
472.305695
 20
1225.232913
 11
472.305695
 21
1168.732913
  0
LINE
  8
CSLAYER1
  6
CONTINUOUS
 62
     4
 10
472.305695
 20
1225.232913
 11
474.305695
 21
1227.232913
  0
LINE
  8
CSLAYER1
  6
CONTINUOUS
 62
     4
 10
472.305695
 20
1168.732913
 11
474.305695
 21
1166.732913
  0
LINE
  8
CSLAYER1
  6
CONTINUOUS
 62
     4
 10
427.805695
 20
1218.982913
 11
422.805695
 21
1213.982913
  0
LINE
  8
CSLAYER1
  6
CONTINUOUS
 62
     4
 10
427.805695
 20
1218.982913
 11
427.805695
 21
1174.982913
  0
LINE
  8
CSLAYER1
  6
CONTINUOUS
 62
     4
 10
427.805695
 20
1174.982913
 11
422.805695
 21
1179.982913
  0
LINE
  8
CSLAYER1
  6
CONTINUOUS
 62
     4
 10
438.805695
 20
1237.182913
 11
468.805695
 21
1237.182913
  0
LINE
  8
CSLAYER1
  6
CONTINUOUS
 62
     4
 10
436.485187
 20
1222.182913
 11
436.485187
 21
1235.843167
  0
LINE
  8
CSLAYER1
  6
CONTINUOUS
 62
     4
 10
445.145441
 20
1222.182913
 11
445.145441
 21
1235.843167
  0
LINE
  8
CSLAYER1
  6
CONTINUOUS
 62
     4
 10
438.805695
 20
1237.182913
 11
436.485187
 21
1235.843167
  0
ARC
  8
CSLAYER1
  6
CONTINUOUS
 62
     4
 10
440.815314
 20
1229.528295
 40
7.656867
 50
55.561448
 51
124.438552
  0
ARC
  8
CSLAYER1
  6
CONTINUOUS
 62
     4
 10
453.805695
 20
1208.522659
 40
28.660254
 50
72.412046
 51
107.587954
  0
LINE
  8
CSLAYER1
  6
CONTINUOUS
 62
     4
 10
472.305695
 20
1222.182913
 11
435.305695
 21
1222.182913
  0
LINE
  8
CSLAYER1
  6
CONTINUOUS
 62
     4
 10
440.805695
 20
1239.682913
 11
466.805695
 21
1239.682913
  0
LINE
  8
CSLAYER1
  6
CONTINUOUS
 62
     4
 10
438.805695
 20
1237.182913
 11
438.805695
 21
1237.682913
  0
ARC
  8
CSLAYER1
  6
CONTINUOUS
 62
     4
 10
440.805695
 20
1237.682913
 40
2.000000
 50
90.000000
 51
180.000000
  0
LINE
  8
CSLAYER1
  6
CONTINUOUS
 62
     4
 10
471.126204
 20
1222.182913
 11
471.126204
 21
1235.843167
  0
LINE
  8
CSLAYER1
  6
CONTINUOUS
 62
     4
 10
462.465950
 20
1222.182913
 11
462.465950
 21
1235.843167
  0
LINE
  8
CSLAYER1
  6
CONTINUOUS
 62
     4
 10
468.805695
 20
1237.182913
 11
471.126204
 21
1235.843167
  0
ARC
  8
CSLAYER1
  6
CONTINUOUS
 62
     4
 10
466.796077
 20
1229.528295
 40
7.656867
 50
55.561448
 51
124.438552
  0
LINE
  8
CSLAYER1
  6
CONTINUOUS
 62
     4
 10
468.805695
 20
1237.182913
 11
468.805695
 21
1237.682913
  0
ARC
  8
CSLAYER1
  6
CONTINUOUS
 62
     4
 10
466.805695
 20
1237.682913
 40
2.000000
 50
0.000000
 51
90.000000
  0
LINE
  8
CSLAYER1
  6
CONTINUOUS
 62
     4
 10
443.805695
 20
1239.682913
 11
443.805695
 21
1241.622378
  0
LINE
  8
CSLAYER1
  6
CONTINUOUS
 62
     4
 10
445.305695
 20
1239.682913
 11
445.305695
 21
1241.622378
  0
LINE
  8
CSLAYER1
  6
CONTINUOUS
 62
     4
 10
435.305695
 20
1218.982913
 11
435.305695
 21
1222.182913
  0
LINE
  8
CSLAYER1
  6
CONTINUOUS
 62
     4
 10
463.805695
 20
1239.682913
 11
463.805695
 21
1241.622378
  0
LINE
  8
CSLAYER1
  6
CONTINUOUS
 62
     4
 10
462.305695
 20
1239.682913
 11
462.305695
 21
1241.622378
  0
LINE
  8
CSLAYER1
  6
CONTINUOUS
 62
     4
 10
474.305695
 20
1227.232913
 11
474.305695
 21
1166.732913
  0
LINE
  8
CSLAYER1
  6
CONTINUOUS
 62
     4
 10
526.169234
 20
1183.145550
 11
523.552838
 21
1182.957947
  0
LINE
  8
CSLAYER1
  6
CONTINUOUS
 62
     4
 10
523.552838
 20
1182.957947
 11
520.976419
 21
1182.646861
  0
LINE
  8
CSLAYER1
  6
CONTINUOUS
 62
     4
 10
520.976419
 20
1182.646861
 11
518.459586
 21
1182.214660
  0
LINE
  8
CSLAYER1
  6
CONTINUOUS
 62
     4
 10
518.459586
 20
1182.214660
 11
516.021493
 21
1181.664634
  0
LINE
  8
CSLAYER1
  6
CONTINUOUS
 62
     4
 10
516.021493
 20
1181.664634
 11
513.680695
 21
1181.000968
  0
LINE
  8
CSLAYER1
  6
CONTINUOUS
 62
     4
 10
513.680695
 20
1181.000968
 11
511.455008
 21
1180.228714
  0
LINE
  8
CSLAYER1
  6
CONTINUOUS
 62
     4
 10
511.455008
 20
1180.228714
 11
509.361370
 21
1179.353749
  0
LINE
  8
CSLAYER1
  6
CONTINUOUS
 62
     4
 10
509.361370
 20
1179.353749
 11
507.415715
 21
1178.382731
  0
LINE
  8
CSLAYER1
  6
CONTINUOUS
 62
     4
 10
507.415715
 20
1178.382731
 11
505.632851
 21
1177.323052
  0
LINE
  8
CSLAYER1
  6
CONTINUOUS
 62
     4
 10
505.632851
 20
1177.323052
 11
504.026346
 21
1176.182775
  0
LINE
  8
CSLAYER1
  6
CONTINUOUS
 62
     4
 10
504.026346
 20
1176.182775
 11
502.608427
 21
1174.970579
  0
LINE
  8
CSLAYER1
  6
CONTINUOUS
 62
     4
 10
502.608427
 20
1174.970579
 11
501.389885
 21
1173.695689
  0
LINE
  8
CSLAYER1
  6
CONTINUOUS
 62
     4
 10
501.389885
 20
1173.695689
 11
500.379994
 21
1172.367808
  0
LINE
  8
CSLAYER1
  6
CONTINUOUS
 62
     4
 10
500.379994
 20
1172.367808
 11
499.586439
 21
1170.997043
  0
LINE
  8
CSLAYER1
  6
CONTINUOUS
 62
     4
 10
499.586439
 20
1170.997043
 11
499.015261
 21
1169.593824
  0
LINE
  8
CSLAYER1
  6
CONTINUOUS
 62
     4
 10
499.015261
 20
1169.593824
 11
498.670806
 21
1168.168833
  0
LINE
  8
CSLAYER1
  6
CONTINUOUS
 62
     4
 10
498.670806
 20
1168.168833
 11
498.555695
 21
1166.732913
  0
LINE
  8
CSLAYER1
  6
CONTINUOUS
 62
     4
 10
400.805695
 20
1202.107238
 11
401.805695
 21
1202.107238
  0
LINE
  8
CSLAYER1
  6
CONTINUOUS
 62
     4
 10
400.805695
 20
1182.107238
 11
404.455695
 21
1182.107238
  0
LINE
  8
CSLAYER1
  6
CONTINUOUS
 62
     4
 10
422.805695
 20
1226.882913
 11
422.805695
 21
1167.082913
  0
ARC
  8
CSLAYER1
  6
CONTINUOUS
 62
     4
 10
421.705695
 20
1226.882913
 40
1.100000
 50
0.000000
 51
84.784091
  0
ARC
  8
CSLAYER1
  6
CONTINUOUS
 62
     4
 10
421.705695
 20
1167.082913
 40
1.100000
 50
275.215909
 51
360.000000
  0
LINE
  8
CSLAYER1
  6
CONTINUOUS
 62
     4
 10
403.305695
 20
1209.482913
 11
404.455695
 21
1209.482913
  0
LINE
  8
CSLAYER1
  6
CONTINUOUS
 62
     4
 10
404.455695
 20
1212.032913
 11
405.805695
 21
1212.032913
  0
LINE
  8
CSLAYER1
  6
CONTINUOUS
 62
     4
 10
404.455695
 20
1212.032913
 11
404.455695
 21
1181.932913
  0
LINE
  8
CSLAYER1
  6
CONTINUOUS
 62
     4
 10
401.805695
 20
1207.982913
 11
401.805695
 21
1185.982913
  0
LINE
  8
CSLAYER1
  6
CONTINUOUS
 62
     4
 10
401.805695
 20
1207.982913
 11
403.305695
 21
1209.482913
  0
LINE
  8
CSLAYER1
  6
CONTINUOUS
 62
     4
 10
403.305695
 20
1209.482913
 11
403.305695
 21
1184.482913
  0
LINE
  8
CSLAYER1
  6
CONTINUOUS
 62
     4
 10
403.305695
 20
1184.482913
 11
404.455695
 21
1184.482913
  0
LINE
  8
CSLAYER1
  6
CONTINUOUS
 62
     4
 10
404.455695
 20
1181.932913
 11
405.805695
 21
1181.932913
  0
LINE
  8
CSLAYER1
  6
CONTINUOUS
 62
     4
 10
401.805695
 20
1185.982913
 11
403.305695
 21
1184.482913
  0
LINE
  8
CSLAYER1
  6
CONTINUOUS
 62
     4
 10
387.305695
 20
1212.107238
 11
387.305695
 21
1172.107238
  0
LINE
  8
CSLAYER1
  6
CONTINUOUS
 62
     3
 10
327.105695
 20
1192.107238
 11
327.105695
 21
1201.607238
  0
LINE
  8
CSLAYER1
  6
CONTINUOUS
 62
     4
 10
330.305695
 20
1263.307238
 11
330.305695
 21
1173.107238
  0
LINE
  8
CSLAYER1
  6
CONTINUOUS
 62
     4
 10
371.305695
 20
1173.107238
 11
330.305695
 21
1173.107238
  0
LINE
  8
CSLAYER1
  6
CONTINUOUS
 62
     4
 10
327.105695
 20
1215.107238
 11
327.105695
 21
1184.107238
  0
LINE
  8
CSLAYER1
  6
CONTINUOUS
 62
     5
 10
322.614821
 20
1207.107238
 11
336.305695
 21
1207.107238
  0
LINE
  8
CSLAYER1
  6
CONTINUOUS
 62
     4
 10
327.105695
 20
1215.107238
 11
330.305695
 21
1215.107238
  0
LINE
  8
CSLAYER1
  6
CONTINUOUS
 62
     4
 10
372.305695
 20
1185.107238
 11
372.305695
 21
1199.107238
  0
LINE
  8
CSLAYER1
  6
CONTINUOUS
 62
     4
 10
372.305695
 20
1185.107238
 11
371.305695
 21
1184.107238
  0
LINE
  8
CSLAYER1
  6
CONTINUOUS
 62
     4
 10
327.105695
 20
1184.107238
 11
330.305695
 21
1184.107238
  0
LINE
  8
CSLAYER1
  6
CONTINUOUS
 62
     4
 10
372.305695
 20
1199.107238
 11
371.305695
 21
1200.107238
  0
LINE
  8
CSLAYER1
  6
CONTINUOUS
 62
     4
 10
327.105695
 20
1188.107238
 11
330.305695
 21
1188.107238
  0
LINE
  8
CSLAYER1
  6
CONTINUOUS
 62
     4
 10
327.105695
 20
1196.107238
 11
330.305695
 21
1196.107238
  0
LINE
  8
CSLAYER1
  6
CONTINUOUS
 62
     4
 10
467.805695
 20
802.555680
 11
467.805695
 21
819.934429
  0
LINE
  8
CSLAYER1
  6
CONTINUOUS
 62
     4
 10
466.805695
 20
802.555680
 11
466.805695
 21
820.934429
  0
LINE
  8
CSLAYER1
  6
CONTINUOUS
 62
     4
 10
461.805695
 20
820.934429
 11
464.832236
 21
820.934429
  0
LINE
  8
CSLAYER1
  6
CONTINUOUS
 62
     4
 10
467.805695
 20
819.934429
 11
466.805695
 21
820.934429
  0
LINE
  8
CSLAYER1
  6
CONTINUOUS
 62
     4
 10
444.805695
 20
825.934429
 11
443.805695
 21
826.934429
  0
LINE
  8
CSLAYER1
  6
CONTINUOUS
 62
     4
 10
466.805695
 20
820.934429
 11
461.739437
 21
825.919110
  0
LINE
  8
CSLAYER1
  6
CONTINUOUS
 62
     4
 10
461.805695
 20
825.853919
 11
466.725185
 21
820.934429
  0
LINE
  8
CSLAYER1
  6
CONTINUOUS
 62
     4
 10
461.805695
 20
825.571076
 11
466.442343
 21
820.934429
  0
LINE
  8
CSLAYER1
  6
CONTINUOUS
 62
     4
 10
461.805695
 20
825.288234
 11
466.159500
 21
820.934429
  0
LINE
  8
CSLAYER1
  6
CONTINUOUS
 62
     4
 10
461.805695
 20
825.005391
 11
465.876657
 21
820.934429
  0
LINE
  8
CSLAYER1
  6
CONTINUOUS
 62
     4
 10
461.805695
 20
824.722548
 11
465.593814
 21
820.934429
  0
LINE
  8
CSLAYER1
  6
CONTINUOUS
 62
     4
 10
461.805695
 20
824.439705
 11
465.310972
 21
820.934429
  0
LINE
  8
CSLAYER1
  6
CONTINUOUS
 62
     4
 10
461.805695
 20
824.156863
 11
465.028129
 21
820.934429
  0
LINE
  8
CSLAYER1
  6
CONTINUOUS
 62
     4
 10
461.805695
 20
823.874020
 11
464.745286
 21
820.934429
  0
LINE
  8
CSLAYER1
  6
CONTINUOUS
 62
     4
 10
461.805695
 20
823.591177
 11
464.462444
 21
820.934429
  0
LINE
  8
CSLAYER1
  6
CONTINUOUS
 62
     4
 10
461.805695
 20
823.308335
 11
464.179601
 21
820.934429
  0
LINE
  8
CSLAYER1
  6
CONTINUOUS
 62
     4
 10
461.805695
 20
823.025492
 11
463.896758
 21
820.934429
  0
LINE
  8
CSLAYER1
  6
CONTINUOUS
 62
     4
 10
461.805695
 20
822.742649
 11
463.613915
 21
820.934429
  0
LINE
  8
CSLAYER1
  6
CONTINUOUS
 62
     4
 10
461.805695
 20
822.459806
 11
463.331073
 21
820.934429
  0
LINE
  8
CSLAYER1
  6
CONTINUOUS
 62
     4
 10
461.805695
 20
822.176964
 11
463.048230
 21
820.934429
  0
LINE
  8
CSLAYER1
  6
CONTINUOUS
 62
     4
 10
461.805695
 20
821.894121
 11
462.765387
 21
820.934429
  0
LINE
  8
CSLAYER1
  6
CONTINUOUS
 62
     4
 10
461.805695
 20
821.611278
 11
462.482545
 21
820.934429
  0
LINE
  8
CSLAYER1
  6
CONTINUOUS
 62
     4
 10
461.805695
 20
821.328436
 11
462.199702
 21
820.934429
  0
LINE
  8
CSLAYER1
  6
CONTINUOUS
 62
     4
 10
461.805695
 20
821.045593
 11
461.916859
 21
820.934429
  0
LINE
  8
CSLAYER1
  6
CONTINUOUS
 62
     4
 10
364.832236
 20
785.584429
 11
405.805695
 21
785.584429
  0
LINE
  8
CSLAYER1
  6
CONTINUOUS
 62
     4
 10
444.805695
 20
825.934429
 11
444.805695
 21
791.302675
  0
LINE
  8
CSLAYER1
  6
CONTINUOUS
 62
     4
 10
363.832236
 20
827.284429
 11
363.832236
 21
786.584429
  0
LINE
  8
CSLAYER1
  6
CONTINUOUS
 62
     4
 10
363.832236
 20
786.584429
 11
364.832236
 21
785.584429
  0
LINE
  8
CSLAYER1
  6
CONTINUOUS
 62
     4
 10
323.832236
 20
816.934429
 11
323.832236
 21
796.934429
  0
LINE
  8
CSLAYER1
  6
CONTINUOUS
 62
     4
 10
342.832236
 20
825.434429
 11
342.832236
 21
788.434429
  0
LINE
  8
CSLAYER1
  6
CONTINUOUS
 62
     4
 10
337.732236
 20
823.934429
 11
337.732236
 21
789.934429
  0
LINE
  8
CSLAYER1
  6
CONTINUOUS
 62
     4
 10
325.732236
 20
823.934429
 11
325.732236
 21
789.934429
  0
LINE
  8
CSLAYER1
  6
CONTINUOUS
 62
     4
 10
342.832236
 20
823.934429
 11
325.732236
 21
823.934429
  0
LINE
  8
CSLAYER1
  6
CONTINUOUS
 62
     4
 10
337.732236
 20
816.934429
 11
323.832236
 21
816.934429
  0
LINE
  8
CSLAYER1
  6
CONTINUOUS
 62
     4
 10
342.832236
 20
789.934429
 11
325.732236
 21
789.934429
  0
LINE
  8
CSLAYER1
  6
CONTINUOUS
 62
     4
 10
337.732236
 20
796.934429
 11
323.832236
 21
796.934429
  0
LINE
  8
CSLAYER1
  6
CONTINUOUS
 62
     4
 10
345.832236
 20
825.434429
 11
342.832236
 21
825.434429
  0
LINE
  8
CSLAYER1
  6
CONTINUOUS
 62
     4
 10
345.832236
 20
788.434429
 11
342.832236
 21
788.434429
  0
LINE
  8
CSLAYER1
  6
CONTINUOUS
 62
     4
 10
345.832236
 20
788.434429
 11
345.832236
 21
825.434429
  0
LINE
  8
CSLAYER1
  6
CENTER
 62
     5
 10
318.940985
 20
806.934429
 11
469.625975
 21
806.934429
  0
LINE
  8
CSLAYER1
  6
CONTINUOUS
 62
     4
 10
345.832236
 20
794.434429
 11
346.805695
 21
794.434429
  0
LINE
  8
CSLAYER1
  6
CONTINUOUS
 62
     4
 10
364.832236
 20
828.284429
 11
405.805695
 21
828.284429
  0
LINE
  8
CSLAYER1
  6
CONTINUOUS
 62
     4
 10
363.832236
 20
827.284429
 11
364.832236
 21
828.284429
  0
LINE
  8
CSLAYER1
  6
CONTINUOUS
 62
     4
 10
345.832236
 20
819.434429
 11
346.805695
 21
819.434429
  0
LINE
  8
CSLAYER1
  6
CONTINUOUS
 62
     4
 10
346.832236
 20
806.934429
 11
346.832236
 21
459.761620
  0
LINE
  8
CSLAYER1
  6
CONTINUOUS
 62
     4
 10
400.805695
 20
785.584429
 11
405.805695
 21
780.584429
  0
LINE
  8
CSLAYER1
  6
CONTINUOUS
 62
     4
 10
405.805695
 20
780.867272
 11
401.088538
 21
785.584429
  0
LINE
  8
CSLAYER1
  6
CONTINUOUS
 62
     4
 10
405.805695
 20
781.150115
 11
401.371381
 21
785.584429
  0
LINE
  8
CSLAYER1
  6
CONTINUOUS
 62
     4
 10
405.805695
 20
781.432957
 11
401.654224
 21
785.584429
  0
LINE
  8
CSLAYER1
  6
CONTINUOUS
 62
     4
 10
405.805695
 20
781.715800
 11
401.937066
 21
785.584429
  0
LINE
  8
CSLAYER1
  6
CONTINUOUS
 62
     4
 10
405.805695
 20
781.998643
 11
402.219909
 21
785.584429
  0
LINE
  8
CSLAYER1
  6
CONTINUOUS
 62
     4
 10
405.805695
 20
782.281486
 11
402.502752
 21
785.584429
  0
LINE
  8
CSLAYER1
  6
CONTINUOUS
 62
     4
 10
405.805695
 20
782.564328
 11
402.785594
 21
785.584429
  0
LINE
  8
CSLAYER1
  6
CONTINUOUS
 62
     4
 10
405.805695
 20
782.847171
 11
403.068437
 21
785.584429
  0
LINE
  8
CSLAYER1
  6
CONTINUOUS
 62
     4
 10
405.805695
 20
783.130014
 11
403.351280
 21
785.584429
  0
LINE
  8
CSLAYER1
  6
CONTINUOUS
 62
     4
 10
405.805695
 20
783.412856
 11
403.634123
 21
785.584429
  0
LINE
  8
CSLAYER1
  6
CONTINUOUS
 62
     4
 10
405.805695
 20
783.695699
 11
403.916965
 21
785.584429
  0
LINE
  8
CSLAYER1
  6
CONTINUOUS
 62
     4
 10
405.805695
 20
783.978542
 11
404.199808
 21
785.584429
  0
LINE
  8
CSLAYER1
  6
CONTINUOUS
 62
     4
 10
405.805695
 20
784.261385
 11
404.482651
 21
785.584429
  0
LINE
  8
CSLAYER1
  6
CONTINUOUS
 62
     4
 10
405.805695
 20
784.544227
 11
404.765493
 21
785.584429
  0
LINE
  8
CSLAYER1
  6
CONTINUOUS
 62
     4
 10
405.805695
 20
784.827070
 11
405.048336
 21
785.584429
  0
LINE
  8
CSLAYER1
  6
CONTINUOUS
 62
     4
 10
405.805695
 20
785.109913
 11
405.331179
 21
785.584429
  0
LINE
  8
CSLAYER1
  6
CONTINUOUS
 62
     4
 10
405.805695
 20
785.392755
 11
405.614022
 21
785.584429
  0
LINE
  8
CSLAYER1
  6
CONTINUOUS
 62
     4
 10
421.805695
 20
831.651587
 11
426.522853
 21
826.934429
  0
LINE
  8
CSLAYER1
  6
CONTINUOUS
 62
     4
 10
421.805695
 20
831.368744
 11
426.240010
 21
826.934429
  0
LINE
  8
CSLAYER1
  6
CONTINUOUS
 62
     4
 10
421.805695
 20
831.085901
 11
425.957167
 21
826.934429
  0
LINE
  8
CSLAYER1
  6
CONTINUOUS
 62
     4
 10
421.805695
 20
830.803058
 11
425.674325
 21
826.934429
  0
LINE
  8
CSLAYER1
  6
CONTINUOUS
 62
     4
 10
421.805695
 20
830.520216
 11
425.391482
 21
826.934429
  0
LINE
  8
CSLAYER1
  6
CONTINUOUS
 62
     4
 10
421.805695
 20
830.237373
 11
425.108639
 21
826.934429
  0
LINE
  8
CSLAYER1
  6
CONTINUOUS
 62
     4
 10
421.805695
 20
829.954530
 11
424.825797
 21
826.934429
  0
LINE
  8
CSLAYER1
  6
CONTINUOUS
 62
     4
 10
421.805695
 20
829.671688
 11
424.542954
 21
826.934429
  0
LINE
  8
CSLAYER1
  6
CONTINUOUS
 62
     4
 10
421.805695
 20
829.388845
 11
424.260111
 21
826.934429
  0
LINE
  8
CSLAYER1
  6
CONTINUOUS
 62
     4
 10
421.805695
 20
829.106002
 11
423.977268
 21
826.934429
  0
LINE
  8
CSLAYER1
  6
CONTINUOUS
 62
     4
 10
421.805695
 20
828.823159
 11
423.694426
 21
826.934429
  0
LINE
  8
CSLAYER1
  6
CONTINUOUS
 62
     4
 10
421.805695
 20
828.540317
 11
423.411583
 21
826.934429
  0
LINE
  8
CSLAYER1
  6
CONTINUOUS
 62
     4
 10
421.805695
 20
828.257474
 11
423.128740
 21
826.934429
  0
LINE
  8
CSLAYER1
  6
CONTINUOUS
 62
     4
 10
421.805695
 20
827.974631
 11
422.845898
 21
826.934429
  0
LINE
  8
CSLAYER1
  6
CONTINUOUS
 62
     4
 10
421.805695
 20
827.691789
 11
422.563055
 21
826.934429
  0
LINE
  8
CSLAYER1
  6
CONTINUOUS
 62
     4
 10
421.805695
 20
827.408946
 11
422.280212
 21
826.934429
  0
LINE
  8
CSLAYER1
  6
CONTINUOUS
 62
     4
 10
421.805695
 20
827.126103
 11
421.997369
 21
826.934429
  0
LINE
  8
CSLAYER1
  6
CONTINUOUS
 62
     4
 10
400.805695
 20
828.284429
 11
405.805695
 21
833.284429
  0
LINE
  8
CSLAYER1
  6
CONTINUOUS
 62
     4
 10
405.805695
 20
833.001587
 11
401.088538
 21
828.284429
  0
LINE
  8
CSLAYER1
  6
CONTINUOUS
 62
     4
 10
405.805695
 20
832.718744
 11
401.371381
 21
828.284429
  0
LINE
  8
CSLAYER1
  6
CONTINUOUS
 62
     4
 10
405.805695
 20
832.435901
 11
401.654224
 21
828.284429
  0
LINE
  8
CSLAYER1
  6
CONTINUOUS
 62
     4
 10
405.805695
 20
832.153058
 11
401.937066
 21
828.284429
  0
LINE
  8
CSLAYER1
  6
CONTINUOUS
 62
     4
 10
405.805695
 20
831.870216
 11
402.219909
 21
828.284429
  0
LINE
  8
CSLAYER1
  6
CONTINUOUS
 62
     4
 10
405.805695
 20
831.587373
 11
402.502752
 21
828.284429
  0
LINE
  8
CSLAYER1
  6
CONTINUOUS
 62
     4
 10
405.805695
 20
831.304530
 11
402.785594
 21
828.284429
  0
LINE
  8
CSLAYER1
  6
CONTINUOUS
 62
     4
 10
405.805695
 20
831.021688
 11
403.068437
 21
828.284429
  0
LINE
  8
CSLAYER1
  6
CONTINUOUS
 62
     4
 10
405.805695
 20
830.738845
 11
403.351280
 21
828.284429
  0
LINE
  8
CSLAYER1
  6
CONTINUOUS
 62
     4
 10
405.805695
 20
830.456002
 11
403.634123
 21
828.284429
  0
LINE
  8
CSLAYER1
  6
CONTINUOUS
 62
     4
 10
405.805695
 20
830.173159
 11
403.916965
 21
828.284429
  0
LINE
  8
CSLAYER1
  6
CONTINUOUS
 62
     4
 10
405.805695
 20
829.890317
 11
404.199808
 21
828.284429
  0
LINE
  8
CSLAYER1
  6
CONTINUOUS
 62
     4
 10
405.805695
 20
829.607474
 11
404.482651
 21
828.284429
  0
LINE
  8
CSLAYER1
  6
CONTINUOUS
 62
     4
 10
405.805695
 20
829.324631
 11
404.765493
 21
828.284429
  0
LINE
  8
CSLAYER1
  6
CONTINUOUS
 62
     4
 10
405.805695
 20
829.041789
 11
405.048336
 21
828.284429
  0
LINE
  8
CSLAYER1
  6
CONTINUOUS
 62
     4
 10
405.805695
 20
828.758946
 11
405.331179
 21
828.284429
  0
LINE
  8
CSLAYER1
  6
CONTINUOUS
 62
     4
 10
405.805695
 20
828.476103
 11
405.614022
 21
828.284429
  0
LINE
  8
CSLAYER1
  6
CONTINUOUS
 62
     4
 10
422.845898
 20
826.934429
 11
421.805695
 21
826.934429
  0
POINT
  8
CSLAYER1
 62
     4
 10
453.805695
 20
849.703657
  0
LINE
  8
CSLAYER1
  6
CONTINUOUS
 62
     4
 10
435.905695
 20
836.703657
 11
435.905695
 21
894.453657
  0
LINE
  8
CSLAYER1
  6
CONTINUOUS
 62
     4
 10
434.055695
 20
845.933657
 11
434.055695
 21
853.483383
  0
LINE
  8
CSLAYER1
  6
CONTINUOUS
 62
     4
 10
440.280695
 20
836.703657
 11
435.905695
 21
836.703657
  0
LINE
  8
CSLAYER1
  6
CONTINUOUS
 62
     4
 10
435.905695
 20
854.483383
 11
435.055695
 21
854.483383
  0
ARC
  8
CSLAYER1
  6
CONTINUOUS
 62
     4
 10
435.055695
 20
845.933657
 40
1.000000
 50
180.000000
 51
270.000000
  0
ARC
  8
CSLAYER1
  6
CONTINUOUS
 62
     4
 10
435.055695
 20
853.483383
 40
1.000000
 50
90.000000
 51
180.000000
  0
LINE
  8
CSLAYER1
  6
CONTINUOUS
 62
     4
 10
467.330695
 20
836.703657
 11
467.330695
 21
931.953657
  0
LINE
  8
CSLAYER1
  6
CONTINUOUS
 62
     4
 10
471.705695
 20
836.703657
 11
471.705695
 21
894.453657
  0
LINE
  8
CSLAYER1
  6
CONTINUOUS
 62
     4
 10
473.555695
 20
845.933657
 11
473.555695
 21
853.483383
  0
LINE
  8
CSLAYER1
  6
CONTINUOUS
 62
     4
 10
467.330695
 20
836.703657
 11
471.705695
 21
836.703657
  0
LINE
  8
CSLAYER1
  6
CONTINUOUS
 62
     4
 10
471.705695
 20
844.933657
 11
472.555695
 21
844.933657
  0
LINE
  8
CSLAYER1
  6
CONTINUOUS
 62
     4
 10
471.705695
 20
854.483383
 11
472.555695
 21
854.483383
  0
ARC
  8
CSLAYER1
  6
CONTINUOUS
 62
     4
 10
472.555695
 20
845.933657
 40
1.000000
 50
270.000000
 51
360.000000
  0
ARC
  8
CSLAYER1
  6
CONTINUOUS
 62
     4
 10
472.555695
 20
853.483383
 40
1.000000
 50
0.000000
 51
90.000000
  0
LINE
  8
CSLAYER1
  6
CONTINUOUS
 62
     4
 10
466.330695
 20
839.703657
 11
461.805695
 21
839.703657
  0
LINE
  8
CSLAYER1
  6
CONTINUOUS
 62
     4
 10
467.330695
 20
840.703657
 11
466.330695
 21
839.703657
  0
LINE
  8
CSLAYER1
  6
CONTINUOUS
 62
     4
 10
441.280695
 20
839.703657
 11
440.280695
 21
840.703657
  0
LINE
  8
CSLAYER1
  6
CONTINUOUS
 62
     4
 10
466.330695
 20
859.703657
 11
461.805695
 21
859.703657
  0
LINE
  8
CSLAYER1
  6
CONTINUOUS
 62
     4
 10
467.330695
 20
858.703657
 11
466.330695
 21
859.703657
  0
LINE
  8
CSLAYER1
  6
CONTINUOUS
 62
     4
 10
441.280695
 20
859.703657
 11
440.280695
 21
858.703657
  0
LINE
  8
CSLAYER1
  6
CONTINUOUS
 62
     5
 10
426.322414
 20
881.453657
 11
470.858326
 21
881.453657
  0
LINE
  8
CSLAYER1
  6
CONTINUOUS
 62
     4
 10
467.330695
 20
894.453657
 11
471.705695
 21
894.453657
  0
LINE
  8
CSLAYER1
  6
CONTINUOUS
 62
     4
 10
473.555695
 20
877.683657
 11
473.555695
 21
885.233383
  0
LINE
  8
CSLAYER1
  6
CONTINUOUS
 62
     4
 10
471.705695
 20
876.683657
 11
472.555695
 21
876.683657
  0
LINE
  8
CSLAYER1
  6
CONTINUOUS
 62
     4
 10
471.705695
 20
886.233383
 11
472.555695
 21
886.233383
  0
ARC
  8
CSLAYER1
  6
CONTINUOUS
 62
     4
 10
472.555695
 20
877.683657
 40
1.000000
 50
270.000000
 51
360.000000
  0
ARC
  8
CSLAYER1
  6
CONTINUOUS
 62
     4
 10
472.555695
 20
885.233383
 40
1.000000
 50
0.000000
 51
90.000000
  0
LINE
  8
CSLAYER1
  6
CONTINUOUS
 62
     4
 10
440.280695
 20
894.453657
 11
435.905695
 21
894.453657
  0
LINE
  8
CSLAYER1
  6
CONTINUOUS
 62
     4
 10
435.905695
 20
844.933657
 11
435.055695
 21
844.933657
  0
LINE
  8
CSLAYER1
  6
CONTINUOUS
 62
     4
 10
434.055695
 20
877.683657
 11
434.055695
 21
885.233383
  0
LINE
  8
CSLAYER1
  6
CONTINUOUS
 62
     4
 10
435.905695
 20
876.683657
 11
435.055695
 21
876.683657
  0
LINE
  8
CSLAYER1
  6
CONTINUOUS
 62
     4
 10
435.905695
 20
886.233383
 11
435.055695
 21
886.233383
  0
ARC
  8
CSLAYER1
  6
CONTINUOUS
 62
     4
 10
435.055695
 20
877.683657
 40
1.000000
 50
180.000000
 51
270.000000
  0
ARC
  8
CSLAYER1
  6
CONTINUOUS
 62
     4
 10
435.055695
 20
885.233383
 40
1.000000
 50
90.000000
 51
180.000000
  0
POINT
  8
CSLAYER1
 62
     4
 10
453.805695
 20
881.453657
  0
LINE
  8
CSLAYER1
  6
CONTINUOUS
 62
     5
 10
427.168033
 20
849.703657
 11
471.703944
 21
849.703657
  0
LINE
  8
CSLAYER1
  6
CONTINUOUS
 62
     4
 10
445.805695
 20
871.928657
 11
445.805695
 21
791.883143
  0
LINE
  8
CSLAYER1
  6
CONTINUOUS
 62
     4
 10
461.805695
 20
871.928657
 11
461.805695
 21
801.170640
  0
POINT
  8
CSLAYER1
 62
     4
 10
453.805695
 20
913.203657
  0
LINE
  8
CSLAYER1
  6
CONTINUOUS
 62
     4
 10
440.280695
 20
836.703657
 11
440.280695
 21
931.953657
  0
LINE
  8
CSLAYER1
  6
CONTINUOUS
 62
     4
 10
444.280695
 20
928.253657
 11
444.280695
 21
866.403657
  0
LINE
  8
CSLAYER1
  6
CONTINUOUS
 62
     4
 10
444.280695
 20
928.253657
 11
440.280695
 21
928.253657
  0
LINE
  8
CSLAYER1
  6
CONTINUOUS
 62
     4
 10
445.280695
 20
903.678657
 11
462.330695
 21
903.678657
  0
LINE
  8
CSLAYER1
  6
CONTINUOUS
 62
     4
 10
445.280695
 20
922.728657
 11
462.330695
 21
922.728657
  0
ARC
  8
CSLAYER1
  6
CONTINUOUS
 62
     4
 10
445.280695
 20
904.678657
 40
1.000000
 50
180.000000
 51
270.000000
  0
ARC
  8
CSLAYER1
  6
CONTINUOUS
 62
     4
 10
445.280695
 20
921.728657
 40
1.000000
 50
90.000000
 51
180.000000
  0
LINE
  8
CSLAYER1
  6
CONTINUOUS
 62
     4
 10
463.330695
 20
928.253657
 11
463.330695
 21
866.403657
  0
LINE
  8
CSLAYER1
  6
CONTINUOUS
 62
     4
 10
463.330695
 20
928.253657
 11
467.330695
 21
928.253657
  0
ARC
  8
CSLAYER1
  6
CONTINUOUS
 62
     4
 10
462.330695
 20
904.678657
 40
1.000000
 50
270.000000
 51
360.000000
  0
ARC
  8
CSLAYER1
  6
CONTINUOUS
 62
     4
 10
462.330695
 20
921.728657
 40
1.000000
 50
0.000000
 51
90.000000
  0
LINE
  8
CSLAYER1
  6
CONTINUOUS
 62
     4
 10
434.055695
 20
909.433657
 11
434.055695
 21
916.983383
  0
LINE
  8
CSLAYER1
  6
CONTINUOUS
 62
     4
 10
440.280695
 20
900.203657
 11
435.905695
 21
900.203657
  0
LINE
  8
CSLAYER1
  6
CONTINUOUS
 62
     4
 10
435.905695
 20
908.433657
 11
435.055695
 21
908.433657
  0
LINE
  8
CSLAYER1
  6
CONTINUOUS
 62
     4
 10
435.905695
 20
917.983383
 11
435.055695
 21
917.983383
  0
ARC
  8
CSLAYER1
  6
CONTINUOUS
 62
     4
 10
435.055695
 20
909.433657
 40
1.000000
 50
180.000000
 51
270.000000
  0
ARC
  8
CSLAYER1
  6
CONTINUOUS
 62
     4
 10
435.055695
 20
916.983383
 40
1.000000
 50
90.000000
 51
180.000000
  0
LINE
  8
CSLAYER1
  6
CONTINUOUS
 62
     4
 10
473.555695
 20
909.433657
 11
473.555695
 21
916.983383
  0
LINE
  8
CSLAYER1
  6
CONTINUOUS
 62
     4
 10
467.330695
 20
900.203657
 11
471.705695
 21
900.203657
  0
LINE
  8
CSLAYER1
  6
CONTINUOUS
 62
     4
 10
471.705695
 20
908.433657
 11
472.555695
 21
908.433657
  0
LINE
  8
CSLAYER1
  6
CONTINUOUS
 62
     4
 10
471.705695
 20
917.983383
 11
472.555695
 21
917.983383
  0
ARC
  8
CSLAYER1
  6
CONTINUOUS
 62
     4
 10
472.555695
 20
909.433657
 40
1.000000
 50
270.000000
 51
360.000000
  0
ARC
  8
CSLAYER1
  6
CONTINUOUS
 62
     4
 10
472.555695
 20
916.983383
 40
1.000000
 50
0.000000
 51
90.000000
  0
LINE
  8
CSLAYER1
  6
CONTINUOUS
 62
     4
 10
435.905695
 20
900.203657
 11
435.905695
 21
957.953657
  0
LINE
  8
CSLAYER1
  6
CONTINUOUS
 62
     4
 10
471.705695
 20
900.203657
 11
471.705695
 21
957.953657
  0
LINE
  8
CSLAYER1
  6
CONTINUOUS
 62
     4
 10
444.280695
 20
866.403657
 11
440.280695
 21
866.403657
  0
LINE
  8
CSLAYER1
  6
CONTINUOUS
 62
     4
 10
445.280695
 20
890.978657
 11
462.330695
 21
890.978657
  0
LINE
  8
CSLAYER1
  6
CONTINUOUS
 62
     4
 10
445.280695
 20
871.928657
 11
462.330695
 21
871.928657
  0
ARC
  8
CSLAYER1
  6
CONTINUOUS
 62
     4
 10
445.280695
 20
889.978657
 40
1.000000
 50
90.000000
 51
180.000000
  0
ARC
  8
CSLAYER1
  6
CONTINUOUS
 62
     4
 10
445.280695
 20
872.928657
 40
1.000000
 50
180.000000
 51
270.000000
  0
LINE
  8
CSLAYER1
  6
CONTINUOUS
 62
     4
 10
463.330695
 20
866.403657
 11
467.330695
 21
866.403657
  0
ARC
  8
CSLAYER1
  6
CONTINUOUS
 62
     4
 10
462.330695
 20
889.978657
 40
1.000000
 50
0.000000
 51
90.000000
  0
ARC
  8
CSLAYER1
  6
CONTINUOUS
 62
     4
 10
462.330695
 20
872.928657
 40
1.000000
 50
270.000000
 51
360.000000
  0
LINE
  8
CSLAYER1
  6
CONTINUOUS
 62
     4
 10
445.805695
 20
866.703657
 11
461.805695
 21
866.703657
  0
LINE
  8
CSLAYER1
  6
CONTINUOUS
 62
     4
 10
445.805695
 20
859.703657
 11
441.280695
 21
859.703657
  0
LINE
  8
CSLAYER1
  6
CONTINUOUS
 62
     4
 10
445.805695
 20
839.703657
 11
441.280695
 21
839.703657
  0
LINE
  8
CSLAYER1
  6
CONTINUOUS
 62
     4
 10
423.997369
 20
826.934429
 11
443.805695
 21
826.934429
  0
LINE
  8
CSLAYER1
  6
CONTINUOUS
 62
     4
 10
444.805695
 20
821.934429
 11
445.805695
 21
821.934429
  0
LINE
  8
CSLAYER1
  6
CONTINUOUS
 62
     4
 10
362.805695
 20
821.934429
 11
363.832236
 21
821.934429
  0
LINE
  8
CSLAYER1
  6
CONTINUOUS
 62
     4
 10
362.805695
 20
791.934429
 11
363.832236
 21
791.934429
  0
LINE
  8
CSLAYER1
  6
CONTINUOUS
 62
     4
 10
421.805695
 20
782.217272
 11
426.522853
 21
786.934429
  0
LINE
  8
CSLAYER1
  6
CONTINUOUS
 62
     4
 10
421.805695
 20
782.500115
 11
426.240010
 21
786.934429
  0
LINE
  8
CSLAYER1
  6
CONTINUOUS
 62
     4
 10
421.805695
 20
782.782957
 11
425.957167
 21
786.934429
  0
LINE
  8
CSLAYER1
  6
CONTINUOUS
 62
     4
 10
421.805695
 20
783.065800
 11
425.674325
 21
786.934429
  0
LINE
  8
CSLAYER1
  6
CONTINUOUS
 62
     4
 10
421.805695
 20
783.348643
 11
425.391482
 21
786.934429
  0
LINE
  8
CSLAYER1
  6
CONTINUOUS
 62
     4
 10
421.805695
 20
783.631486
 11
425.108639
 21
786.934429
  0
LINE
  8
CSLAYER1
  6
CONTINUOUS
 62
     4
 10
421.805695
 20
783.914328
 11
424.825797
 21
786.934429
  0
LINE
  8
CSLAYER1
  6
CONTINUOUS
 62
     4
 10
421.805695
 20
784.197171
 11
424.542954
 21
786.934429
  0
LINE
  8
CSLAYER1
  6
CONTINUOUS
 62
     4
 10
421.805695
 20
784.480014
 11
424.260111
 21
786.934429
  0
LINE
  8
CSLAYER1
  6
CONTINUOUS
 62
     4
 10
421.805695
 20
784.762856
 11
423.977268
 21
786.934429
  0
LINE
  8
CSLAYER1
  6
CONTINUOUS
 62
     4
 10
421.805695
 20
785.045699
 11
423.694426
 21
786.934429
  0
LINE
  8
CSLAYER1
  6
CONTINUOUS
 62
     4
 10
421.805695
 20
785.328542
 11
423.411583
 21
786.934429
  0
LINE
  8
CSLAYER1
  6
CONTINUOUS
 62
     4
 10
421.805695
 20
785.611385
 11
423.128740
 21
786.934429
  0
LINE
  8
CSLAYER1
  6
CONTINUOUS
 62
     4
 10
421.805695
 20
785.894227
 11
422.845898
 21
786.934429
  0
LINE
  8
CSLAYER1
  6
CONTINUOUS
 62
     4
 10
421.805695
 20
786.177070
 11
422.563055
 21
786.934429
  0
LINE
  8
CSLAYER1
  6
CONTINUOUS
 62
     4
 10
421.805695
 20
786.459913
 11
422.280212
 21
786.934429
  0
LINE
  8
CSLAYER1
  6
CONTINUOUS
 62
     4
 10
421.805695
 20
786.742755
 11
421.997369
 21
786.934429
  0
LINE
  8
CSLAYER1
  6
CONTINUOUS
 62
     4
 10
422.845898
 20
786.934429
 11
421.805695
 21
786.934429
  0
LINE
  8
CSLAYER1
  6
CONTINUOUS
 62
     4
 10
423.997369
 20
786.934429
 11
437.280317
 21
786.934429
  0
POINT
  8
CSLAYER1
 62
     5
 10
422.805695
 20
749.028002
  0
LINE
  8
CSLAYER1
  6
CONTINUOUS
 62
     7
 10
422.805695
 20
772.774424
 11
422.805695
 21
725.182713
  0
LINE
  8
CSLAYER1
  6
CONTINUOUS
 62
     7
 10
444.805695
 20
727.620416
 11
444.942426
 21
728.560953
  0
LINE
  8
CSLAYER1
  6
CONTINUOUS
 62
     7
 10
444.942426
 20
728.560953
 11
445.348462
 21
729.472912
  0
LINE
  8
CSLAYER1
  6
CONTINUOUS
 62
     7
 10
445.348462
 20
729.472912
 11
446.011467
 21
730.328584
  0
LINE
  8
CSLAYER1
  6
CONTINUOUS
 62
     7
 10
446.011467
 20
730.328584
 11
446.911296
 21
731.101969
  0
LINE
  8
CSLAYER1
  6
CONTINUOUS
 62
     7
 10
446.911296
 20
731.101969
 11
448.020607
 21
731.769570
  0
LINE
  8
CSLAYER1
  6
CONTINUOUS
 62
     7
 10
448.020607
 20
731.769570
 11
449.305695
 21
732.311100
  0
LINE
  8
CSLAYER1
  6
CONTINUOUS
 62
     7
 10
449.305695
 20
732.311100
 11
450.727514
 21
732.710106
  0
LINE
  8
CSLAYER1
  6
CONTINUOUS
 62
     7
 10
450.727514
 20
732.710106
 11
452.242862
 21
732.954465
  0
LINE
  8
CSLAYER1
  6
CONTINUOUS
 62
     7
 10
452.242862
 20
732.954465
 11
453.805695
 21
733.036751
  0
LINE
  8
CSLAYER1
  6
CONTINUOUS
 62
     7
 10
453.805695
 20
733.036751
 11
455.368529
 21
732.954465
  0
LINE
  8
CSLAYER1
  6
CONTINUOUS
 62
     7
 10
455.368529
 20
732.954465
 11
456.883877
 21
732.710106
  0
LINE
  8
CSLAYER1
  6
CONTINUOUS
 62
     7
 10
456.883877
 20
732.710106
 11
458.305695
 21
732.311100
  0
LINE
  8
CSLAYER1
  6
CONTINUOUS
 62
     7
 10
458.305695
 20
732.311100
 11
459.590784
 21
731.769570
  0
LINE
  8
CSLAYER1
  6
CONTINUOUS
 62
     7
 10
459.590784
 20
731.769570
 11
460.700095
 21
731.101969
  0
LINE
  8
CSLAYER1
  6
CONTINUOUS
 62
     7
 10
460.700095
 20
731.101969
 11
461.599924
 21
730.328584
  0
LINE
  8
CSLAYER1
  6
CONTINUOUS
 62
     7
 10
461.599924
 20
730.328584
 11
462.262929
 21
729.472912
  0
LINE
  8
CSLAYER1
  6
CONTINUOUS
 62
     7
 10
462.262929
 20
729.472912
 11
462.668965
 21
728.560953
  0
LINE
  8
CSLAYER1
  6
CONTINUOUS
 62
     7
 10
462.668965
 20
728.560953
 11
462.805695
 21
727.620416
  0
LINE
  8
CSLAYER1
  6
CONTINUOUS
 62
     7
 10
462.805695
 20
727.620416
 11
462.668965
 21
726.679879
  0
LINE
  8
CSLAYER1
  6
CONTINUOUS
 62
     7
 10
462.668965
 20
726.679879
 11
462.262929
 21
725.767920
  0
LINE
  8
CSLAYER1
  6
CONTINUOUS
 62
     7
 10
462.262929
 20
725.767920
 11
461.599924
 21
724.912249
  0
LINE
  8
CSLAYER1
  6
CONTINUOUS
 62
     7
 10
461.599924
 20
724.912249
 11
460.700095
 21
724.138863
  0
LINE
  8
CSLAYER1
  6
CONTINUOUS
 62
     7
 10
460.700095
 20
724.138863
 11
459.590784
 21
723.471263
  0
LINE
  8
CSLAYER1
  6
CONTINUOUS
 62
     7
 10
459.590784
 20
723.471263
 11
458.305695
 21
722.929732
  0
LINE
  8
CSLAYER1
  6
CONTINUOUS
 62
     7
 10
458.305695
 20
722.929732
 11
456.883877
 21
722.530726
  0
LINE
  8
CSLAYER1
  6
CONTINUOUS
 62
     7
 10
456.883877
 20
722.530726
 11
455.368529
 21
722.286367
  0
LINE
  8
CSLAYER1
  6
CONTINUOUS
 62
     7
 10
455.368529
 20
722.286367
 11
453.805695
 21
722.204081
  0
LINE
  8
CSLAYER1
  6
CONTINUOUS
 62
     7
 10
453.805695
 20
722.204081
 11
452.242862
 21
722.286367
  0
LINE
  8
CSLAYER1
  6
CONTINUOUS
 62
     7
 10
452.242862
 20
722.286367
 11
450.727514
 21
722.530726
  0
LINE
  8
CSLAYER1
  6
CONTINUOUS
 62
     7
 10
450.727514
 20
722.530726
 11
449.305695
 21
722.929732
  0
LINE
  8
CSLAYER1
  6
CONTINUOUS
 62
     7
 10
449.305695
 20
722.929732
 11
448.020607
 21
723.471263
  0
LINE
  8
CSLAYER1
  6
CONTINUOUS
 62
     7
 10
448.020607
 20
723.471263
 11
446.911296
 21
724.138863
  0
LINE
  8
CSLAYER1
  6
CONTINUOUS
 62
     7
 10
446.911296
 20
724.138863
 11
446.011467
 21
724.912249
  0
LINE
  8
CSLAYER1
  6
CONTINUOUS
 62
     7
 10
446.011467
 20
724.912249
 11
445.348462
 21
725.767920
  0
LINE
  8
CSLAYER1
  6
CONTINUOUS
 62
     7
 10
445.348462
 20
725.767920
 11
444.942426
 21
726.679879
  0
LINE
  8
CSLAYER1
  6
CONTINUOUS
 62
     7
 10
444.942426
 20
726.679879
 11
444.805695
 21
727.620416
  0
LINE
  8
CSLAYER1
  6
CONTINUOUS
 62
     7
 10
444.805695
 20
733.036751
 11
444.942426
 21
733.977288
  0
LINE
  8
CSLAYER1
  6
CONTINUOUS
 62
     7
 10
444.942426
 20
733.977288
 11
445.348462
 21
734.889247
  0
LINE
  8
CSLAYER1
  6
CONTINUOUS
 62
     7
 10
445.348462
 20
734.889247
 11
446.011467
 21
735.744919
  0
LINE
  8
CSLAYER1
  6
CONTINUOUS
 62
     7
 10
446.011467
 20
735.744919
 11
446.911296
 21
736.518305
  0
LINE
  8
CSLAYER1
  6
CONTINUOUS
 62
     7
 10
446.911296
 20
736.518305
 11
448.020607
 21
737.185905
  0
LINE
  8
CSLAYER1
  6
CONTINUOUS
 62
     7
 10
448.020607
 20
737.185905
 11
449.305695
 21
737.727435
  0
LINE
  8
CSLAYER1
  6
CONTINUOUS
 62
     7
 10
449.305695
 20
737.727435
 11
450.727514
 21
738.126442
  0
LINE
  8
CSLAYER1
  6
CONTINUOUS
 62
     7
 10
450.727514
 20
738.126442
 11
452.242862
 21
738.370800
  0
LINE
  8
CSLAYER1
  6
CONTINUOUS
 62
     7
 10
452.242862
 20
738.370800
 11
453.805695
 21
738.453087
  0
LINE
  8
CSLAYER1
  6
CONTINUOUS
 62
     7
 10
453.805695
 20
738.453087
 11
455.368529
 21
738.370800
  0
LINE
  8
CSLAYER1
  6
CONTINUOUS
 62
     7
 10
455.368529
 20
738.370800
 11
456.883877
 21
738.126442
  0
LINE
  8
CSLAYER1
  6
CONTINUOUS
 62
     7
 10
456.883877
 20
738.126442
 11
458.305695
 21
737.727435
  0
LINE
  8
CSLAYER1
  6
CONTINUOUS
 62
     7
 10
458.305695
 20
737.727435
 11
459.590784
 21
737.185905
  0
LINE
  8
CSLAYER1
  6
CONTINUOUS
 62
     7
 10
459.590784
 20
737.185905
 11
460.700095
 21
736.518305
  0
LINE
  8
CSLAYER1
  6
CONTINUOUS
 62
     7
 10
460.700095
 20
736.518305
 11
461.599924
 21
735.744919
  0
LINE
  8
CSLAYER1
  6
CONTINUOUS
 62
     7
 10
461.599924
 20
735.744919
 11
462.262929
 21
734.889247
  0
LINE
  8
CSLAYER1
  6
CONTINUOUS
 62
     7
 10
462.262929
 20
734.889247
 11
462.668965
 21
733.977288
  0
LINE
  8
CSLAYER1
  6
CONTINUOUS
 62
     7
 10
462.668965
 20
733.977288
 11
462.805695
 21
733.036751
  0
LINE
  8
CSLAYER1
  6
CONTINUOUS
 62
     7
 10
444.805695
 20
733.036751
 11
444.805695
 21
727.148351
  0
LINE
  8
CSLAYER1
  6
CONTINUOUS
 62
     7
 10
462.805695
 20
733.036751
 11
462.805695
 21
727.148351
  0
LINE
  8
CSLAYER1
  6
CONTINUOUS
 62
     7
 10
461.863568
 20
801.204233
 11
427.785483
 21
781.422977
  0
LINE
  8
CSLAYER1
  6
CONTINUOUS
 62
     7
 10
464.191769
 20
770.573179
 11
427.785483
 21
749.440475
  0
LINE
  8
CSLAYER1
  6
CONTINUOUS
 62
     7
 10
462.805695
 20
695.500324
 11
427.657064
 21
716.609988
  0
ARC
  8
CSLAYER1
  6
CONTINUOUS
 62
     7
 10
466.883781
 20
792.555680
 40
10.000000
 50
90.000000
 51
120.133817
  0
ARC
  8
CSLAYER1
  6
CONTINUOUS
 62
     7
 10
432.805695
 20
772.774424
 40
10.000000
 50
120.133817
 51
180.000000
  0
ARC
  8
CSLAYER1
  6
CONTINUOUS
 62
     7
 10
432.805695
 20
725.182713
 40
10.000000
 50
180.000000
 51
239.011695
  0
ARC
  8
CSLAYER1
  6
CONTINUOUS
 62
     7
 10
432.805695
 20
740.791922
 40
10.000000
 50
120.133817
 51
180.000000
  0
LINE
  8
CSLAYER1
  6
CONTINUOUS
 62
     3
 10
1128.666797
 20
2156.937885
 11
2178.668501
 21
2156.937885
  0
LINE
  8
CSLAYER1
  6
CONTINUOUS
 62
     3
 10
1128.666797
 20
1506.937885
 11
2178.668501
 21
1506.937885
  0
DIMENSION
  8
CSLAYER1
 62
     7
  2
*D0005
 10
778.805695
 20
298.635827
 11
528.805664
 21
308.635925
 13
278.805695
 23
394.761620
 14
778.805695
 24
394.761620
 52
270.000000
 70
1
  0
DIMENSION
  8
CSLAYER1
 62
     7
  2
*D0006
 10
1007.016259
 20
2156.937885
 11
997.016235
 21
1831.938232
 13
1128.666797
 23
1506.937885
 14
1128.666797
 24
2156.937885
 50
90.000000
 70
1
  0
LINE
  8
CSLAYER1
  6
CENTER
 62
     5
 10
1090.074152
 20
1831.937885
 11
2197.174884
 21
1831.937885
  0
LINE
  8
CSLAYER1
  6
CONTINUOUS
 62
     3
 10
438.805695
 20
493.261620
 11
438.805695
 21
459.761620
  0
LINE
  8
CSLAYER1
  6
CONTINUOUS
 62
     3
 10
436.805695
 20
493.261620
 11
436.805695
 21
499.261620
  0
LINE
  8
CSLAYER1
  6
CONTINUOUS
 62
     3
 10
436.805695
 20
499.261620
 11
470.300961
 21
499.261620
  0
LINE
  8
CSLAYER1
  6
CONTINUOUS
 62
     3
 10
436.805695
 20
493.261620
 11
438.805695
 21
493.261620
  0
LINE
  8
CSLAYER1
  6
CONTINUOUS
 62
     1
 10
609.305695
 20
502.261620
 11
609.305695
 21
500.061620
  0
LINE
  8
CSLAYER1
  6
CONTINUOUS
 62
     1
 10
612.175174
 20
501.061620
 11
609.305695
 21
501.061620
  0
LINE
  8
CSLAYER1
  6
CONTINUOUS
 62
     1
 10
614.505695
 20
503.661620
 11
610.705695
 21
503.661620
  0
LINE
  8
CSLAYER1
  6
CONTINUOUS
 62
     1
 10
608.305695
 20
500.061620
 11
608.305695
 21
499.261620
  0
LINE
  8
CSLAYER1
  6
CONTINUOUS
 62
     1
 10
612.053278
 20
500.061620
 11
608.305695
 21
500.061620
  0
ARC
  8
CSLAYER1
  6
CONTINUOUS
 62
     1
 10
610.705695
 20
502.261620
 40
1.400000
 50
90.000000
 51
180.000000
  0
LINE
  8
CSLAYER1
  6
CONTINUOUS
 62
     1
 10
612.140423
 20
500.776538
 11
611.460445
 21
501.061620
  0
LINE
  8
CSLAYER1
  6
CONTINUOUS
 62
     3
 10
587.310430
 20
499.261620
 11
611.955761
 21
499.261620
  0
LINE
  8
CSLAYER1
  6
CONTINUOUS
 62
     4
 10
582.810632
 20
493.261620
 11
611.224385
 21
493.261620
  0
INSERT
  8
CSLAYER1
  2
BLKF0001
 10
0.0
 20
0.0
 30
0.0
  0
LINE
  8
CSLAYER1
  6
CONTINUOUS
 62
     5
 10
1152.932558
 20
1192.107238
 11
1185.873878
 21
1192.107238
  0
LINE
  8
CSLAYER1
  6
CONTINUOUS
 62
     5
 10
1170.666797
 20
1208.591870
 11
1170.666797
 21
1176.763433
  0
CIRCLE
  8
CSLAYER1
  6
CONTINUOUS
 62
     4
 10
1170.666797
 20
1192.107238
 40
8.000000
  0
CIRCLE
  8
CSLAYER1
  6
CONTINUOUS
 62
     4
 10
1351.834441
 20
749.028002
 40
14.000000
  0
LINE
  8
CSLAYER1
  6
CONTINUOUS
 62
     7
 10
1128.666797
 20
459.761620
 11
1128.666797
 21
394.761620
  0
LINE
  8
CSLAYER1
  6
CONTINUOUS
 62
     7
 10
2178.666797
 20
459.761620
 11
2178.666797
 21
394.761620
  0
LINE
  8
CSLAYER1
  6
CONTINUOUS
 62
     7
 10
1128.666797
 20
459.761620
 11
2178.666797
 21
459.761620
  0
LINE
  8
CSLAYER1
  6
CONTINUOUS
 62
     7
 10
1131.666797
 20
1316.307238
 11
2178.666797
 21
1316.307238
  0
LINE
  8
CSLAYER1
  6
CONTINUOUS
 62
     7
 10
1128.666797
 20
1313.307238
 11
1128.666797
 21
1263.307238
  0
LINE
  8
CSLAYER1
  6
CONTINUOUS
 62
     7
 10
2175.441621
 20
1263.307238
 11
2175.441621
 21
1241.107238
  0
ARC
  8
CSLAYER1
  6
CONTINUOUS
 62
     7
 10
1131.666797
 20
1313.307238
 40
3.000000
 50
90.000000
 51
180.000000
  0
LINE
  8
CSLAYER1
  6
CONTINUOUS
 62
     7
 10
1128.666797
 20
1263.307238
 11
2178.666797
 21
1263.307238
  0
POINT
  8
CSLAYER1
 62
     5
 10
1351.834441
 20
749.028002
  0
LINE
  8
CSLAYER1
  6
CONTINUOUS
 62
     2
 10
1223.136976
 20
635.582829
 11
1229.158632
 21
631.059726
  0
LINE
  8
CSLAYER1
  6
CONTINUOUS
 62
     2
 10
1285.580376
 20
737.352132
 11
1331.480132
 21
798.458981
  0
LINE
  8
CSLAYER1
  6
CONTINUOUS
 62
     4
 10
1288.039268
 20
755.674495
 11
1295.846844
 21
766.068808
  0
LINE
  8
CSLAYER1
  6
CONTINUOUS
 62
     4
 10
1128.693122
 20
555.190565
 11
1174.988571
 21
520.416234
  0
LINE
  8
CSLAYER1
  6
CONTINUOUS
 62
     4
 10
1162.926344
 20
600.765630
 11
1186.913220
 21
582.748144
  0
LINE
  8
CSLAYER1
  6
CONTINUOUS
 62
     4
 10
1246.805319
 20
709.104532
 11
1270.078223
 21
691.623339
  0
LINE
  8
CSLAYER1
  6
CONTINUOUS
 62
     4
 10
1289.850125
 20
770.573179
 11
1306.839686
 21
757.811652
  0
LINE
  8
CSLAYER1
  6
CONTINUOUS
 62
     4
 10
1128.693122
 20
555.190565
 11
1162.926344
 21
600.765630
  0
LINE
  8
CSLAYER1
  6
CONTINUOUS
 62
     4
 10
1164.525469
 20
599.564464
 11
1251.609981
 21
715.501032
  0
LINE
  8
CSLAYER1
  6
CONTINUOUS
 62
     4
 10
1259.410271
 20
715.895348
 11
1288.838830
 21
755.073912
  0
LINE
  8
CSLAYER1
  6
CONTINUOUS
 62
     4
 10
1128.693122
 20
555.190565
 11
1138.280585
 21
537.983574
  0
LINE
  8
CSLAYER1
  6
CONTINUOUS
 62
     4
 10
1234.655913
 20
641.313367
 11
1239.933823
 21
637.348922
  0
LINE
  8
CSLAYER1
  6
CONTINUOUS
 62
     4
 10
1185.708411
 20
576.149021
 11
1199.986366
 21
565.424288
  0
LINE
  8
CSLAYER1
  6
CONTINUOUS
 62
     2
 10
1186.913220
 20
582.748144
 11
1230.455476
 21
640.716428
  0
LINE
  8
CSLAYER1
  6
CONTINUOUS
 62
     4
 10
1171.067348
 20
513.356148
 11
1138.280585
 21
537.983574
  0
ARC
  8
CSLAYER1
  6
CONTINUOUS
 62
     4
 10
1187.510159
 20
578.547708
 40
3.000000
 50
143.088348
 51
233.088348
  0
ARC
  8
CSLAYER1
  6
CONTINUOUS
 62
     4
 10
1232.854164
 20
638.914680
 40
3.000000
 50
53.088348
 51
143.088348
  0
LINE
  8
CSLAYER1
  6
CONTINUOUS
 62
     4
 10
1288.039268
 20
755.674495
 11
1300.467699
 21
746.339011
  0
LINE
  8
CSLAYER1
  6
CONTINUOUS
 62
     4
 10
1268.419013
 20
727.888786
 11
1283.802503
 21
716.333642
  0
LINE
  8
CSLAYER1
  6
CONTINUOUS
 62
     4
 10
1509.053120
 20
884.157014
 11
1602.548184
 21
1008.628020
  0
LINE
  8
CSLAYER1
  6
CONTINUOUS
 62
     4
 10
1254.410272
 20
715.898991
 11
1274.979751
 21
700.448447
  0
ARC
  8
CSLAYER1
  6
CONTINUOUS
 62
     4
 10
1257.011583
 20
717.697096
 40
3.000000
 50
233.088348
 51
323.088348
  0
LINE
  8
CSLAYER1
  6
CONTINUOUS
 62
     4
 10
1185.111472
 20
580.349457
 11
1269.525879
 21
692.731285
  0
LINE
  8
CSLAYER1
  6
CONTINUOUS
 62
     4
 10
1170.921970
 20
594.759801
 11
1253.201819
 21
704.299869
  0
LINE
  8
CSLAYER1
  6
CONTINUOUS
 62
     4
 10
1169.322845
 20
595.960967
 11
1251.602694
 21
705.501035
  0
ARC
  8
CSLAYER1
  6
CONTINUOUS
 62
     4
 10
1253.209106
 20
714.299866
 40
2.000000
 50
53.088348
 51
143.088348
  0
LINE
  8
CSLAYER1
  6
CONTINUOUS
 62
     4
 10
1313.873439
 20
802.555680
 11
1326.445800
 21
793.112086
  0
LINE
  8
CSLAYER1
  6
CONTINUOUS
 62
     2
 10
1289.109130
 20
754.870879
 11
1301.422393
 21
745.621903
  0
LINE
  8
CSLAYER1
  6
CONTINUOUS
 62
     2
 10
1321.095492
 20
797.130912
 11
1327.096652
 21
792.623206
  0
LINE
  8
CSLAYER1
  6
CONTINUOUS
 62
     4
 10
1325.202701
 20
800.924588
 11
1329.141641
 21
797.965896
  0
LINE
  8
CSLAYER1
  6
CONTINUOUS
 62
     4
 10
1287.907964
 20
753.271754
 11
1300.221227
 21
744.022778
  0
LINE
  8
CSLAYER1
  6
CONTINUOUS
 62
     4
 10
1287.907964
 20
753.271754
 11
1289.109130
 21
754.870879
  0
LINE
  8
CSLAYER1
  6
CONTINUOUS
 62
     4
 10
1284.963650
 20
747.353898
 11
1295.357963
 21
739.546321
  0
LINE
  8
CSLAYER1
  6
CONTINUOUS
 62
     4
 10
1324.050026
 20
801.064315
 11
1321.095492
 21
797.130912
  0
LINE
  8
CSLAYER1
  6
CONTINUOUS
 62
     4
 10
1327.050605
 20
798.810462
 11
1324.096072
 21
794.877059
  0
LINE
  8
CSLAYER1
  6
CONTINUOUS
 62
     4
 10
1284.963650
 20
747.353898
 11
1284.508320
 21
748.422008
  0
LINE
  8
CSLAYER1
  6
CONTINUOUS
 62
     4
 10
1325.202701
 20
800.924588
 11
1324.050026
 21
801.064315
  0
LINE
  8
CSLAYER1
  6
CONTINUOUS
 62
     4
 10
1288.063436
 20
753.154973
 11
1284.508320
 21
748.422008
  0
ARC
  8
CSLAYER1
  6
CONTINUOUS
 62
     4
 10
1287.628641
 20
749.451847
 40
3.285875
 50
208.401853
 51
268.052731
  0
ARC
  8
CSLAYER1
  6
CONTINUOUS
 62
     4
 10
1323.949808
 20
797.806615
 40
3.259241
 50
17.716730
 51
78.654247
  0
ARC
  8
CSLAYER1
  6
CONTINUOUS
 62
     4
 10
1322.940953
 20
787.090678
 40
12.419443
 50
60.304512
 51
70.676302
  0
ARC
  8
CSLAYER1
  6
CONTINUOUS
 62
     4
 10
1297.619712
 20
753.380231
 40
12.419443
 50
215.500394
 51
250.676302
  0
LINE
  8
CSLAYER1
  6
CONTINUOUS
 62
     4
 10
1291.064016
 20
750.901120
 11
1287.508900
 21
746.168154
  0
LINE
  8
CSLAYER1
  6
CONTINUOUS
 62
     4
 10
1285.420211
 20
742.633564
 11
1290.697323
 21
738.669718
  0
LINE
  8
CSLAYER1
  6
CONTINUOUS
 62
     4
 10
1285.280925
 20
743.613666
 11
1286.962557
 21
745.852441
  0
LINE
  8
CSLAYER1
  6
CONTINUOUS
 62
     2
 10
1285.420211
 20
742.633564
 11
1287.522251
 21
745.432033
  0
LINE
  8
CSLAYER1
  6
CONTINUOUS
 62
     4
 10
1285.280925
 20
743.613666
 11
1285.420211
 21
742.633564
  0
LINE
  8
CSLAYER1
  6
CONTINUOUS
 62
     4
 10
1285.280925
 20
743.613666
 11
1291.677425
 21
738.809003
  0
LINE
  8
CSLAYER1
  6
CONTINUOUS
 62
     2
 10
1300.221227
 20
744.022778
 11
1301.422393
 21
745.621903
  0
LINE
  8
CSLAYER1
  6
CONTINUOUS
 62
     4
 10
1295.357963
 20
739.546321
 11
1296.510639
 21
739.406594
  0
LINE
  8
CSLAYER1
  6
CONTINUOUS
 62
     2
 10
1300.065755
 20
744.139560
 11
1296.510639
 21
739.406594
  0
ARC
  8
CSLAYER1
  6
CONTINUOUS
 62
     4
 10
1296.630381
 20
742.690287
 40
3.285875
 50
198.123965
 51
257.774843
  0
LINE
  8
CSLAYER1
  6
CONTINUOUS
 62
     4
 10
1297.065175
 20
746.393413
 11
1293.510059
 21
741.660448
  0
LINE
  8
CSLAYER1
  6
CONTINUOUS
 62
     4
 10
1291.677425
 20
738.809003
 11
1293.359057
 21
741.047778
  0
LINE
  8
CSLAYER1
  6
CONTINUOUS
 62
     2
 10
1290.697323
 20
738.669718
 11
1292.799363
 21
741.468186
  0
LINE
  8
CSLAYER1
  6
CONTINUOUS
 62
     4
 10
1291.677425
 20
738.809003
 11
1290.697323
 21
738.669718
  0
LINE
  8
CSLAYER1
  6
CONTINUOUS
 62
     4
 10
1293.992893
 20
751.202493
 11
1295.776106
 21
747.361683
  0
LINE
  8
CSLAYER1
  6
CONTINUOUS
 62
     4
 10
1289.850125
 20
770.573179
 11
1313.873439
 21
802.555680
  0
LINE
  8
CSLAYER1
  6
CONTINUOUS
 62
     5
 10
1334.824069
 20
761.805161
 11
1368.307439
 21
736.654486
  0
POINT
  8
CSLAYER1
 62
     6
 10
1351.834441
 20
749.028002
  0
POINT
  8
CSLAYER1
 62
     5
 10
1465.398721
 20
806.934429
  0
POINT
  8
CSLAYER1
 62
     1
 10
1465.398721
 20
806.934429
  0
LINE
  8
CSLAYER1
  6
CONTINUOUS
 62
     5
 10
1334.881186
 20
726.457948
 11
1368.168675
 21
770.773947
  0
POINT
  8
CSLAYER1
 62
     5
 10
1170.666797
 20
1192.107238
  0
LINE
  8
CSLAYER1
  6
CONTINUOUS
 62
     5
 10
1760.130645
 20
1218.252081
 11
1760.130645
 21
1163.721367
  0
LINE
  8
CSLAYER1
  6
CONTINUOUS
 62
     5
 10
1730.749085
 20
1192.107238
 11
1786.244944
 21
1192.107238
  0
LINE
  8
CSLAYER1
  6
CONTINUOUS
 62
     7
 10
2160.441621
 20
1213.107238
 11
1713.441621
 21
1213.107238
  0
LINE
  8
CSLAYER1
  6
CENTER
 62
     5
 10
1640.225325
 20
1239.786943
 11
1742.460981
 21
1161.556832
  0
LINE
  8
CSLAYER1
  6
CENTER
 62
     5
 10
1536.917228
 20
1104.777917
 11
1639.152883
 21
1026.547806
  0
ARC
  8
CSLAYER1
  6
CONTINUOUS
 62
     4
 10
1587.745039
 20
686.495231
 40
30.000000
 50
11.696960
 51
24.832507
  0
LINE
  8
CSLAYER1
  6
CONTINUOUS
 62
     4
 10
1614.971219
 20
699.094242
 11
1547.092096
 21
845.779507
  0
ARC
  8
CSLAYER1
  6
CONTINUOUS
 62
     4
 10
1483.929562
 20
816.550821
 40
69.597570
 50
24.832507
 51
69.373343
  0
LINE
  8
CSLAYER1
  6
CONTINUOUS
 62
     4
 10
1140.666797
 20
1263.307238
 11
1140.666797
 21
1173.107238
  0
LINE
  8
CSLAYER1
  6
CONTINUOUS
 62
     4
 10
1190.666797
 20
1263.307238
 11
1190.666797
 21
1188.107238
  0
ARC
  8
CSLAYER1
  6
CONTINUOUS
 62
     4
 10
1175.666797
 20
1188.107238
 40
15.000000
 50
270.000000
 51
360.000000
  0
LINE
  8
CSLAYER1
  6
CONTINUOUS
 62
     4
 10
1140.666797
 20
1173.107238
 11
1175.666797
 21
1173.107238
  0
LINE
  8
CSLAYER1
  6
CONTINUOUS
 62
     7
 10
2172.441621
 20
1238.107238
 11
1243.441621
 21
1238.107238
  0
LINE
  8
CSLAYER1
  6
CONTINUOUS
 62
     4
 10
1162.540331
 20
1173.107238
 11
1408.565019
 21
851.587877
  0
LINE
  8
CSLAYER1
  6
CONTINUOUS
 62
     4
 10
1476.723358
 20
752.641220
 11
1493.642276
 21
740.403973
  0
LINE
  8
CSLAYER1
  6
CONTINUOUS
 62
     4
 10
1493.642276
 20
740.403973
 11
1708.388122
 21
459.761620
  0
LINE
  8
CSLAYER1
  6
CONTINUOUS
 62
     4
 10
1373.274915
 20
877.427014
 11
1381.033243
 21
887.568002
  0
ARC
  8
CSLAYER1
  6
CONTINUOUS
 62
     4
 10
1587.878919
 20
1065.775309
 40
59.000000
 50
280.806980
 51
322.582328
  0
LINE
  8
CSLAYER1
  6
CONTINUOUS
 62
     4
 10
1222.458893
 20
459.761620
 11
1437.161353
 21
740.401347
  0
LINE
  8
CSLAYER1
  6
CONTINUOUS
 62
     4
 10
1511.281226
 20
893.240120
 11
1499.700595
 21
846.030468
  0
LINE
  8
CSLAYER1
  6
CONTINUOUS
 62
     4
 10
1454.079133
 20
752.640167
 11
1437.161353
 21
740.401347
  0
LINE
  8
CSLAYER1
  6
CONTINUOUS
 62
     4
 10
1454.079133
 20
752.640167
 11
1465.400557
 21
767.438513
  0
LINE
  8
CSLAYER1
  6
CONTINUOUS
 62
     4
 10
1511.281226
 20
893.240120
 11
1598.941477
 21
1007.821709
  0
LINE
  8
CSLAYER1
  6
CONTINUOUS
 62
     7
 10
2163.441621
 20
1263.307238
 11
2163.441621
 21
1216.107238
  0
LINE
  8
CSLAYER1
  6
CONTINUOUS
 62
     7
 10
1218.241621
 20
1263.307238
 11
1243.441621
 21
1238.107238
  0
LINE
  8
CSLAYER1
  6
CONTINUOUS
 62
     4
 10
1241.554239
 20
1183.391130
 11
1770.248618
 21
492.462586
  0
LINE
  8
CSLAYER1
  6
CONTINUOUS
 62
     4
 10
1241.554239
 20
1183.391130
 11
1190.666797
 21
1203.546239
  0
LINE
  8
CSLAYER1
  6
CONTINUOUS
 62
     4
 10
1770.248618
 20
492.462586
 11
1773.947339
 21
459.761620
  0
LINE
  8
CSLAYER1
  6
CONTINUOUS
 62
     4
 10
1159.786779
 20
493.045698
 11
1156.437884
 21
459.761620
  0
LINE
  8
CSLAYER1
  6
CONTINUOUS
 62
     4
 10
1373.274915
 20
877.427014
 11
1159.786779
 21
493.045698
  0
LINE
  8
CSLAYER1
  6
CONTINUOUS
 62
     4
 10
1476.723358
 20
752.641220
 11
1415.953889
 21
832.058294
  0
LINE
  8
CSLAYER1
  6
CONTINUOUS
 62
     7
 10
2172.441621
 20
1238.107238
 11
2175.441621
 21
1241.107238
  0
LINE
  8
CSLAYER1
  6
CONTINUOUS
 62
     7
 10
2163.441621
 20
1216.107238
 11
2160.441621
 21
1213.107238
  0
LINE
  8
CSLAYER1
  6
CONTINUOUS
 62
     4
 10
1415.953889
 20
832.058294
 11
1408.565019
 21
851.587877
  0
LINE
  8
CSLAYER1
  6
CONTINUOUS
 62
     4
 10
1424.470598
 20
944.345401
 11
1649.212083
 21
1238.107238
  0
CIRCLE
  8
CSLAYER1
  6
CONTINUOUS
 62
     4
 10
1465.398721
 20
806.934429
 40
15.000000
  0
CIRCLE
  8
CSLAYER1
  6
CONTINUOUS
 62
     4
 10
1465.398721
 20
806.934429
 40
10.000000
  0
CIRCLE
  8
CSLAYER1
  6
CONTINUOUS
 62
     4
 10
1465.398721
 20
806.934429
 40
9.000000
  0
LINE
  8
CSLAYER1
  6
CONTINUOUS
 62
     4
 10
1480.398721
 20
815.594683
 11
1465.398721
 21
824.254937
  0
LINE
  8
CSLAYER1
  6
CONTINUOUS
 62
     4
 10
1465.398721
 20
824.254937
 11
1450.398721
 21
815.594683
  0
LINE
  8
CSLAYER1
  6
CONTINUOUS
 62
     4
 10
1450.398721
 20
815.594683
 11
1450.398721
 21
798.274175
  0
LINE
  8
CSLAYER1
  6
CONTINUOUS
 62
     4
 10
1450.398721
 20
798.274175
 11
1465.398721
 21
789.613921
  0
LINE
  8
CSLAYER1
  6
CONTINUOUS
 62
     4
 10
1465.398721
 20
789.613921
 11
1480.398721
 21
798.274175
  0
LINE
  8
CSLAYER1
  6
CONTINUOUS
 62
     4
 10
1480.398721
 20
798.274175
 11
1480.398721
 21
815.594683
  0
LINE
  8
CSLAYER1
  6
CONTINUOUS
 62
     7
 10
2010.789881
 20
459.761620
 11
2010.827147
 21
459.608454
  0
CIRCLE
  8
CSLAYER1
  6
CONTINUOUS
 62
     4
 10
1760.130645
 20
1192.107238
 40
21.000000
  0
CIRCLE
  8
CSLAYER1
  6
CONTINUOUS
 62
     4
 10
1760.130645
 20
1192.107238
 40
7.500000
  0
LINE
  8
CSLAYER1
  6
CENTER
 62
     5
 10
1662.493966
 20
1216.375086
 11
1714.586346
 21
1177.246452
  0
LINE
  8
CSLAYER1
  6
CONTINUOUS
 62
     4
 10
1555.709782
 20
1070.400961
 11
1645.706034
 21
1190.213960
  0
LINE
  8
CSLAYER1
  6
CONTINUOUS
 62
     4
 10
1693.330661
 20
1155.379244
 11
1646.756143
 21
1190.363195
  0
LINE
  8
CSLAYER1
  6
CONTINUOUS
 62
     4
 10
1693.330661
 20
1155.379244
 11
1693.529640
 21
1153.979099
  0
LINE
  8
CSLAYER1
  6
CONTINUOUS
 62
     4
 10
1646.756143
 20
1190.363195
 11
1645.706034
 21
1190.213960
  0
LINE
  8
CSLAYER1
  6
CONTINUOUS
 62
     4
 10
1655.107654
 20
1184.090047
 11
1659.520649
 21
1186.627444
  0
LINE
  8
CSLAYER1
  6
CONTINUOUS
 62
     4
 10
1659.520649
 20
1186.627444
 11
1660.071968
 21
1180.361155
  0
LINE
  8
CSLAYER1
  6
CONTINUOUS
 62
     4
 10
1660.071968
 20
1180.361155
 11
1661.866425
 21
1181.940316
  0
LINE
  8
CSLAYER1
  6
CONTINUOUS
 62
     4
 10
1660.071968
 20
1180.361155
 11
1659.207067
 21
1186.447140
  0
LINE
  8
CSLAYER1
  6
CONTINUOUS
 62
     4
 10
1659.845817
 20
1180.531026
 11
1659.020317
 21
1186.339762
  0
LINE
  8
CSLAYER1
  6
CONTINUOUS
 62
     4
 10
1659.619667
 20
1180.700896
 11
1658.833567
 21
1186.232384
  0
LINE
  8
CSLAYER1
  6
CONTINUOUS
 62
     4
 10
1659.393516
 20
1180.870767
 11
1658.646818
 21
1186.125006
  0
LINE
  8
CSLAYER1
  6
CONTINUOUS
 62
     4
 10
1659.167366
 20
1181.040637
 11
1658.460068
 21
1186.017628
  0
LINE
  8
CSLAYER1
  6
CONTINUOUS
 62
     4
 10
1658.941216
 20
1181.210508
 11
1658.273318
 21
1185.910250
  0
LINE
  8
CSLAYER1
  6
CONTINUOUS
 62
     4
 10
1658.715065
 20
1181.380378
 11
1658.086569
 21
1185.802872
  0
LINE
  8
CSLAYER1
  6
CONTINUOUS
 62
     4
 10
1658.488915
 20
1181.550249
 11
1657.899819
 21
1185.695494
  0
LINE
  8
CSLAYER1
  6
CONTINUOUS
 62
     4
 10
1658.262764
 20
1181.720119
 11
1657.713069
 21
1185.588117
  0
LINE
  8
CSLAYER1
  6
CONTINUOUS
 62
     4
 10
1658.036614
 20
1181.889990
 11
1657.526320
 21
1185.480739
  0
LINE
  8
CSLAYER1
  6
CONTINUOUS
 62
     4
 10
1657.810463
 20
1182.059860
 11
1657.339570
 21
1185.373361
  0
LINE
  8
CSLAYER1
  6
CONTINUOUS
 62
     4
 10
1657.584313
 20
1182.229731
 11
1657.152820
 21
1185.265983
  0
LINE
  8
CSLAYER1
  6
CONTINUOUS
 62
     4
 10
1657.358163
 20
1182.399601
 11
1656.966071
 21
1185.158605
  0
LINE
  8
CSLAYER1
  6
CONTINUOUS
 62
     4
 10
1657.132012
 20
1182.569472
 11
1656.779321
 21
1185.051227
  0
LINE
  8
CSLAYER1
  6
CONTINUOUS
 62
     4
 10
1656.905862
 20
1182.739342
 11
1656.592571
 21
1184.943849
  0
LINE
  8
CSLAYER1
  6
CONTINUOUS
 62
     4
 10
1656.679711
 20
1182.909212
 11
1656.405822
 21
1184.836471
  0
LINE
  8
CSLAYER1
  6
CONTINUOUS
 62
     4
 10
1656.453561
 20
1183.079083
 11
1656.219072
 21
1184.729093
  0
LINE
  8
CSLAYER1
  6
CONTINUOUS
 62
     4
 10
1656.227410
 20
1183.248953
 11
1656.032322
 21
1184.621716
  0
LINE
  8
CSLAYER1
  6
CONTINUOUS
 62
     4
 10
1656.001260
 20
1183.418824
 11
1655.845573
 21
1184.514338
  0
LINE
  8
CSLAYER1
  6
CONTINUOUS
 62
     4
 10
1655.775109
 20
1183.588694
 11
1655.658823
 21
1184.406960
  0
LINE
  8
CSLAYER1
  6
CONTINUOUS
 62
     4
 10
1655.548959
 20
1183.758565
 11
1655.472073
 21
1184.299582
  0
LINE
  8
CSLAYER1
  6
CONTINUOUS
 62
     4
 10
1655.322809
 20
1183.928435
 11
1655.285323
 21
1184.192204
  0
LINE
  8
CSLAYER1
  6
CONTINUOUS
 62
     4
 10
1660.251522
 20
1180.519167
 11
1659.393816
 21
1186.554517
  0
LINE
  8
CSLAYER1
  6
CONTINUOUS
 62
     4
 10
1660.431076
 20
1180.677178
 11
1659.620109
 21
1186.383647
  0
LINE
  8
CSLAYER1
  6
CONTINUOUS
 62
     4
 10
1660.610630
 20
1180.835189
 11
1659.923009
 21
1185.673718
  0
LINE
  8
CSLAYER1
  6
CONTINUOUS
 62
     4
 10
1660.790184
 20
1180.993200
 11
1660.217093
 21
1185.025825
  0
LINE
  8
CSLAYER1
  6
CONTINUOUS
 62
     4
 10
1660.969738
 20
1181.151212
 11
1660.504148
 21
1184.427389
  0
LINE
  8
CSLAYER1
  6
CONTINUOUS
 62
     4
 10
1661.149292
 20
1181.309223
 11
1660.785423
 21
1183.869633
  0
LINE
  8
CSLAYER1
  6
CONTINUOUS
 62
     4
 10
1661.328846
 20
1181.467234
 11
1661.061828
 21
1183.346140
  0
LINE
  8
CSLAYER1
  6
CONTINUOUS
 62
     4
 10
1661.508400
 20
1181.625245
 11
1661.334054
 21
1182.852048
  0
LINE
  8
CSLAYER1
  6
CONTINUOUS
 62
     4
 10
1661.687954
 20
1181.783257
 11
1661.602641
 21
1182.383572
  0
LINE
  8
CSLAYER1
  6
CONTINUOUS
 62
     4
 10
1685.179041
 20
1161.502246
 11
1686.386512
 21
1166.447438
  0
LINE
  8
CSLAYER1
  6
CONTINUOUS
 62
     4
 10
1686.386512
 20
1166.447438
 11
1680.214726
 21
1165.231138
  0
LINE
  8
CSLAYER1
  6
CONTINUOUS
 62
     4
 10
1680.214726
 20
1165.231138
 11
1681.231426
 21
1167.394502
  0
LINE
  8
CSLAYER1
  6
CONTINUOUS
 62
     4
 10
1680.214726
 20
1165.231138
 11
1686.300711
 21
1166.096039
  0
LINE
  8
CSLAYER1
  6
CONTINUOUS
 62
     4
 10
1680.440877
 20
1165.061267
 11
1686.249613
 21
1165.886768
  0
LINE
  8
CSLAYER1
  6
CONTINUOUS
 62
     4
 10
1680.667027
 20
1164.891397
 11
1686.198515
 21
1165.677496
  0
LINE
  8
CSLAYER1
  6
CONTINUOUS
 62
     4
 10
1680.893178
 20
1164.721526
 11
1686.147417
 21
1165.468225
  0
LINE
  8
CSLAYER1
  6
CONTINUOUS
 62
     4
 10
1681.119328
 20
1164.551656
 11
1686.096319
 21
1165.258954
  0
LINE
  8
CSLAYER1
  6
CONTINUOUS
 62
     4
 10
1681.345478
 20
1164.381785
 11
1686.045221
 21
1165.049683
  0
LINE
  8
CSLAYER1
  6
CONTINUOUS
 62
     4
 10
1681.571629
 20
1164.211915
 11
1685.994123
 21
1164.840411
  0
LINE
  8
CSLAYER1
  6
CONTINUOUS
 62
     4
 10
1681.797779
 20
1164.042044
 11
1685.943025
 21
1164.631140
  0
LINE
  8
CSLAYER1
  6
CONTINUOUS
 62
     4
 10
1682.023930
 20
1163.872174
 11
1685.891927
 21
1164.421869
  0
LINE
  8
CSLAYER1
  6
CONTINUOUS
 62
     4
 10
1682.250080
 20
1163.702304
 11
1685.840829
 21
1164.212598
  0
LINE
  8
CSLAYER1
  6
CONTINUOUS
 62
     4
 10
1682.476231
 20
1163.532433
 11
1685.789731
 21
1164.003327
  0
LINE
  8
CSLAYER1
  6
CONTINUOUS
 62
     4
 10
1682.702381
 20
1163.362563
 11
1685.738633
 21
1163.794055
  0
LINE
  8
CSLAYER1
  6
CONTINUOUS
 62
     4
 10
1682.928531
 20
1163.192692
 11
1685.687535
 21
1163.584784
  0
LINE
  8
CSLAYER1
  6
CONTINUOUS
 62
     4
 10
1683.154682
 20
1163.022822
 11
1685.636437
 21
1163.375513
  0
LINE
  8
CSLAYER1
  6
CONTINUOUS
 62
     4
 10
1683.380832
 20
1162.852951
 11
1685.585340
 21
1163.166242
  0
LINE
  8
CSLAYER1
  6
CONTINUOUS
 62
     4
 10
1683.606983
 20
1162.683081
 11
1685.534242
 21
1162.956970
  0
LINE
  8
CSLAYER1
  6
CONTINUOUS
 62
     4
 10
1683.833133
 20
1162.513210
 11
1685.483144
 21
1162.747699
  0
LINE
  8
CSLAYER1
  6
CONTINUOUS
 62
     4
 10
1684.059284
 20
1162.343340
 11
1685.432046
 21
1162.538428
  0
LINE
  8
CSLAYER1
  6
CONTINUOUS
 62
     4
 10
1684.285434
 20
1162.173469
 11
1685.380948
 21
1162.329157
  0
LINE
  8
CSLAYER1
  6
CONTINUOUS
 62
     4
 10
1684.511585
 20
1162.003599
 11
1685.329850
 21
1162.119885
  0
LINE
  8
CSLAYER1
  6
CONTINUOUS
 62
     4
 10
1684.737735
 20
1161.833728
 11
1685.278752
 21
1161.910614
  0
LINE
  8
CSLAYER1
  6
CONTINUOUS
 62
     4
 10
1684.963885
 20
1161.663858
 11
1685.227654
 21
1161.701343
  0
LINE
  8
CSLAYER1
  6
CONTINUOUS
 62
     4
 10
1680.316458
 20
1165.447605
 11
1686.351808
 21
1166.305310
  0
LINE
  8
CSLAYER1
  6
CONTINUOUS
 62
     4
 10
1680.418189
 20
1165.664072
 11
1686.124658
 21
1166.475039
  0
LINE
  8
CSLAYER1
  6
CONTINUOUS
 62
     4
 10
1680.519920
 20
1165.880539
 11
1685.358449
 21
1166.568159
  0
LINE
  8
CSLAYER1
  6
CONTINUOUS
 62
     4
 10
1680.621652
 20
1166.097006
 11
1684.654276
 21
1166.670096
  0
LINE
  8
CSLAYER1
  6
CONTINUOUS
 62
     4
 10
1680.723383
 20
1166.313473
 11
1683.999561
 21
1166.779062
  0
LINE
  8
CSLAYER1
  6
CONTINUOUS
 62
     4
 10
1680.825114
 20
1166.529939
 11
1683.385525
 21
1166.893809
  0
LINE
  8
CSLAYER1
  6
CONTINUOUS
 62
     4
 10
1680.926845
 20
1166.746406
 11
1682.805751
 21
1167.013424
  0
LINE
  8
CSLAYER1
  6
CONTINUOUS
 62
     4
 10
1681.028577
 20
1166.962873
 11
1682.255380
 21
1167.137219
  0
LINE
  8
CSLAYER1
  6
CONTINUOUS
 62
     4
 10
1681.130308
 20
1167.179340
 11
1681.730623
 21
1167.264653
  0
CIRCLE
  8
CSLAYER1
  6
CONTINUOUS
 62
     4
 10
1688.310978
 20
1196.982913
 40
22.000000
  0
CIRCLE
  8
CSLAYER1
  6
CONTINUOUS
 62
     4
 10
1688.310978
 20
1196.982913
 40
22.250000
  0
ARC
  8
CSLAYER1
  6
CONTINUOUS
 62
     4
 10
1688.310978
 20
1196.982913
 40
30.250000
 50
-270.204447
 51
14.389295
  0
POINT
  8
CSLAYER1
 62
     4
 10
1575.980483
 20
1052.727396
  0
ARC
  8
CSLAYER1
  6
CONTINUOUS
 62
     4
 10
1575.980483
 20
1052.727396
 40
15.050000
 50
-69.738110
 51
20.126675
  0
ARC
  8
CSLAYER1
  6
CONTINUOUS
 62
     4
 10
1586.404467
 20
1024.490000
 40
15.050000
 50
110.261890
 51
133.108846
  0
ARC
  8
CSLAYER1
  6
CONTINUOUS
 62
     4
 10
1546.049632
 20
1055.913953
 40
15.050000
 50
335.109935
 51
353.922957
  0
ARC
  8
CSLAYER1
  6
CONTINUOUS
 62
     4
 10
1575.980483
 20
1052.727396
 40
13.000000
 50
104.461194
 51
359.723654
  0
ARC
  8
CSLAYER1
  6
CONTINUOUS
 62
     4
 10
1575.980483
 20
1052.727396
 40
15.050000
 50
84.058173
 51
173.922957
  0
POINT
  8
CSLAYER1
 62
     4
 10
1595.487351
 20
1077.778237
  0
POINT
  8
CSLAYER1
 62
     4
 10
1614.994219
 20
1102.829077
  0
CIRCLE
  8
CSLAYER1
  6
CONTINUOUS
 62
     4
 10
1575.980483
 20
1052.727396
 40
4.770000
  0
CIRCLE
  8
CSLAYER1
  6
CONTINUOUS
 62
     4
 10
1595.487351
 20
1077.778237
 40
4.770000
  0
ARC
  8
CSLAYER1
  6
CONTINUOUS
 62
     4
 10
1595.487351
 20
1077.778237
 40
13.000000
 50
-75.538806
 51
179.723654
  0
ARC
  8
CSLAYER1
  6
CONTINUOUS
 62
     4
 10
1595.487351
 20
1077.778237
 40
15.050000
 50
264.058173
 51
353.922957
  0
ARC
  8
CSLAYER1
  6
CONTINUOUS
 62
     4
 10
1614.994219
 20
1102.829077
 40
15.050000
 50
-69.738110
 51
20.126675
  0
ARC
  8
CSLAYER1
  6
CONTINUOUS
 62
     4
 10
1601.980181
 20
1052.601995
 40
13.000000
 50
104.461194
 51
179.723654
  0
ARC
  8
CSLAYER1
  6
CONTINUOUS
 62
     4
 10
1569.487654
 20
1077.903638
 40
13.000000
 50
284.461194
 51
359.723654
  0
ARC
  8
CSLAYER1
  6
CONTINUOUS
 62
     4
 10
1625.418202
 20
1074.591681
 40
15.050000
 50
110.261890
 51
173.922957
  0
ARC
  8
CSLAYER1
  6
CONTINUOUS
 62
     4
 10
1585.063368
 20
1106.015633
 40
15.050000
 50
290.261890
 51
353.922957
  0
CIRCLE
  8
CSLAYER1
  6
CONTINUOUS
 62
     4
 10
1575.980483
 20
1052.727396
 40
9.525000
  0
CIRCLE
  8
CSLAYER1
  6
CONTINUOUS
 62
     4
 10
1595.487351
 20
1077.778237
 40
9.525000
  0
ARC
  8
CSLAYER1
  6
CONTINUOUS
 62
     4
 10
1595.487351
 20
1077.778237
 40
15.050000
 50
110.261890
 51
200.126675
  0
ARC
  8
CSLAYER1
  6
CONTINUOUS
 62
     4
 10
1614.994219
 20
1102.829077
 40
13.000000
 50
104.461194
 51
359.723654
  0
ARC
  8
CSLAYER1
  6
CONTINUOUS
 62
     4
 10
1614.994219
 20
1102.829077
 40
15.050000
 50
84.058173
 51
173.922957
  0
POINT
  8
CSLAYER1
 62
     4
 10
1688.310978
 20
1196.982913
  0
POINT
  8
CSLAYER1
 62
     4
 10
1634.501087
 20
1127.879918
  0
LINE
  8
CSLAYER1
  6
CONTINUOUS
 62
     4
 10
1653.599192
 20
1132.019733
 11
1633.834670
 21
1147.410191
  0
LINE
  8
CSLAYER1
  6
CONTINUOUS
 62
     4
 10
1615.634593
 20
1123.559754
 11
1634.935897
 21
1108.529999
  0
CIRCLE
  8
CSLAYER1
  6
CONTINUOUS
 62
     4
 10
1634.501088
 20
1127.879919
 40
4.770000
  0
ARC
  8
CSLAYER1
  6
CONTINUOUS
 62
     4
 10
1634.501088
 20
1127.879919
 40
13.000000
 50
-76.877857
 51
179.723654
  0
ARC
  8
CSLAYER1
  6
CONTINUOUS
 62
     4
 10
1640.993918
 20
1102.703677
 40
13.000000
 50
104.461194
 51
179.723654
  0
ARC
  8
CSLAYER1
  6
CONTINUOUS
 62
     4
 10
1608.501390
 20
1128.005321
 40
13.000000
 50
284.461194
 51
359.723654
  0
LINE
  8
CSLAYER1
  6
CONTINUOUS
 62
     4
 10
1613.728586
 20
1126.576014
 11
1630.674915
 21
1148.338595
  0
LINE
  8
CSLAYER1
  6
CONTINUOUS
 62
     4
 10
1636.148195
 20
1144.090850
 11
1619.188051
 21
1122.310527
  0
ARC
  8
CSLAYER1
  6
CONTINUOUS
 62
     4
 10
1630.726271
 20
1142.754695
 40
5.584136
 50
13.843874
 51
90.526941
  0
ARC
  8
CSLAYER1
  6
CONTINUOUS
 62
     4
 10
1624.110317
 20
1114.536027
 40
31.912350
 50
36.346245
 51
67.838602
  0
LINE
  8
CSLAYER1
  6
CONTINUOUS
 62
     4
 10
1623.356126
 20
1136.558403
 11
1645.636848
 21
1119.208601
  0
ARC
  8
CSLAYER1
  6
CONTINUOUS
 62
     4
 10
1619.154819
 20
1127.894565
 40
5.584136
 50
193.657906
 51
270.340973
  0
ARC
  8
CSLAYER1
  6
CONTINUOUS
 62
     4
 10
1644.891859
 20
1141.223812
 40
31.912350
 50
216.346245
 51
247.838602
  0
LINE
  8
CSLAYER1
  6
CONTINUOUS
 62
     4
 10
1638.327261
 20
1107.421244
 11
1655.273590
 21
1129.183824
  0
LINE
  8
CSLAYER1
  6
CONTINUOUS
 62
     4
 10
1649.814125
 20
1133.449311
 11
1632.853981
 21
1111.668989
  0
ARC
  8
CSLAYER1
  6
CONTINUOUS
 62
     4
 10
1649.847357
 20
1127.865274
 40
5.584136
 50
13.657906
 51
90.340973
  0
ARC
  8
CSLAYER1
  6
CONTINUOUS
 62
     4
 10
1638.275905
 20
1113.005144
 40
5.584136
 50
193.843874
 51
270.526941
  0
LINE
  8
CSLAYER1
  6
CONTINUOUS
 62
     4
 10
1690.127663
 20
1227.507322
 11
1694.500755
 21
1233.123275
  0
LINE
  8
CSLAYER1
  6
CONTINUOUS
 62
     4
 10
1696.960628
 20
1222.186553
 11
1703.665901
 21
1230.797506
  0
LINE
  8
CSLAYER1
  6
CONTINUOUS
 62
     4
 10
1718.390146
 20
1205.499577
 11
1689.197040
 21
1228.231990
  0
LINE
  8
CSLAYER1
  6
CONTINUOUS
 62
     4
 10
1701.174393
 20
1237.916669
 11
1701.481588
 21
1238.311170
  0
LINE
  8
CSLAYER1
  6
CONTINUOUS
 62
     4
 10
1717.459523
 20
1206.224244
 11
1721.769029
 21
1211.758538
  0
LINE
  8
CSLAYER1
  6
CONTINUOUS
 62
     4
 10
1710.626558
 20
1211.545014
 11
1711.843048
 21
1213.107238
  0
LINE
  8
CSLAYER1
  6
CONTINUOUS
 62
     4
 10
1643.154302
 20
1152.827302
 11
1669.137491
 21
1186.195073
  0
LINE
  8
CSLAYER1
  6
CONTINUOUS
 62
     4
 10
1637.055682
 20
1147.436863
 11
1668.381421
 21
1187.665572
  0
LINE
  8
CSLAYER1
  6
CONTINUOUS
 62
     4
 10
1716.424099
 20
1202.974768
 11
1687.230994
 21
1225.707180
  0
LINE
  8
CSLAYER1
  6
CONTINUOUS
 62
     4
 10
1716.424099
 20
1202.974768
 11
1718.390146
 21
1205.499577
  0
LINE
  8
CSLAYER1
  6
CONTINUOUS
 62
     4
 10
1687.230994
 20
1225.707180
 11
1689.197040
 21
1228.231990
  0
LINE
  8
CSLAYER1
  6
CONTINUOUS
 62
     4
 10
1641.970798
 20
1153.748886
 11
1657.750855
 21
1141.461095
  0
LINE
  8
CSLAYER1
  6
CONTINUOUS
 62
     4
 10
1643.154302
 20
1152.827302
 11
1640.374567
 21
1151.698996
  0
LINE
  8
CSLAYER1
  6
CONTINUOUS
 62
     4
 10
1656.567351
 20
1142.382680
 11
1682.550539
 21
1175.750451
  0
LINE
  8
CSLAYER1
  6
CONTINUOUS
 62
     4
 10
1656.567351
 20
1142.382680
 11
1656.154624
 21
1139.411206
  0
LINE
  8
CSLAYER1
  6
CONTINUOUS
 62
     4
 10
1652.835739
 20
1135.149072
 11
1684.161478
 21
1175.377781
  0
ARC
  8
CSLAYER1
  6
CONTINUOUS
 62
     4
 10
1654.413744
 20
1133.920293
 40
2.000000
 50
142.092424
 51
232.092424
  0
ARC
  8
CSLAYER1
  6
CONTINUOUS
 62
     4
 10
1635.477676
 20
1148.665642
 40
2.000000
 50
232.092424
 51
322.092424
  0
POINT
  8
CSLAYER1
 62
     4
 10
1643.716931
 20
1139.714962
  0
LINE
  8
CSLAYER1
  6
CONTINUOUS
 62
     4
 10
1692.460475
 20
1218.588042
 11
1693.937518
 21
1220.484869
  0
LINE
  8
CSLAYER1
  6
CONTINUOUS
 62
     4
 10
1694.071414
 20
1218.215371
 11
1695.121022
 21
1219.563285
  0
LINE
  8
CSLAYER1
  6
CONTINUOUS
 62
     4
 10
1708.277227
 20
1206.347375
 11
1709.717575
 21
1208.197079
  0
LINE
  8
CSLAYER1
  6
CONTINUOUS
 62
     4
 10
1707.484462
 20
1207.770749
 11
1708.534070
 21
1209.118663
  0
CIRCLE
  8
CSLAYER1
  6
CONTINUOUS
 62
     4
 10
1614.994219
 20
1102.829077
 40
4.770000
  0
CIRCLE
  8
CSLAYER1
  6
CONTINUOUS
 62
     4
 10
1614.994219
 20
1102.829077
 40
9.525000
  0
CIRCLE
  8
CSLAYER1
  6
CONTINUOUS
 62
     4
 10
1634.501087
 20
1127.879918
 40
9.525000
  0
POINT
  8
CSLAYER1
 62
     4
 10
1760.130645
 20
1192.107238
  0
LINE
  8
CSLAYER1
  6
CENTER
 62
     5
 10
1557.567463
 20
1026.119688
 11
1721.251521
 21
1240.031530
  0
ARC
  8
CSLAYER1
  6
CONTINUOUS
 62
     4
 10
1765.750018
 20
1197.880843
 40
17.000000
 50
-25.687221
 51
63.594662
  0
LINE
  8
CSLAYER1
  6
CONTINUOUS
 62
     4
 10
1728.919556
 20
1153.030904
 11
1759.807255
 21
1171.109728
  0
ARC
  8
CSLAYER1
  6
CONTINUOUS
 62
     4
 10
1691.174460
 20
1200.793942
 40
32.500000
 50
-37.417672
 51
22.263747
  0
LINE
  8
CSLAYER1
  6
CONTINUOUS
 62
     4
 10
1716.986846
 20
1181.046265
 11
1613.691304
 21
1046.027632
  0
LINE
  8
CSLAYER1
  6
CONTINUOUS
 62
     4
 10
1665.362075
 20
1220.541619
 11
1562.066533
 21
1085.522986
  0
ARC
  8
CSLAYER1
  6
CONTINUOUS
 62
     4
 10
1587.878919
 20
1065.775309
 40
32.500000
 50
142.582328
 51
322.582328
  0
LINE
  8
CSLAYER1
  6
CONTINUOUS
 62
     4
 10
1634.738327
 20
1029.925680
 11
1728.919556
 21
1153.030904
  0
POINT
  8
CSLAYER1
 62
     4
 10
1691.174460
 20
1200.793942
  0
LINE
  8
CSLAYER1
  6
CONTINUOUS
 62
     4
 10
1713.441621
 20
1238.107238
 11
1713.441621
 21
1213.107238
  0
ARC
  8
CSLAYER1
  6
CONTINUOUS
 62
     4
 10
1691.174460
 20
1200.793942
 40
32.500000
 50
46.753114
 51
142.582328
  0
LINE
  8
CSLAYER1
  6
CONTINUOUS
 62
     3
 10
2157.866797
 20
493.261620
 11
2157.866797
 21
459.761620
  0
LINE
  8
CSLAYER1
  6
CONTINUOUS
 62
     3
 10
2018.466797
 20
493.261620
 11
2018.466797
 21
459.761620
  0
LINE
  8
CSLAYER1
  6
CONTINUOUS
 62
     5
 10
2088.166797
 20
509.357745
 11
2088.166797
 21
483.232059
  0
LINE
  8
CSLAYER1
  6
CONTINUOUS
 62
     3
 10
2159.666797
 20
499.261620
 11
2016.666797
 21
499.261620
  0
LINE
  8
CSLAYER1
  6
CONTINUOUS
 62
     3
 10
2159.666797
 20
493.261620
 11
2157.866797
 21
493.261620
  0
LINE
  8
CSLAYER1
  6
CONTINUOUS
 62
     3
 10
2159.666797
 20
499.261620
 11
2159.666797
 21
493.261620
  0
LINE
  8
CSLAYER1
  6
CONTINUOUS
 62
     3
 10
2016.666797
 20
499.261620
 11
2016.666797
 21
493.261620
  0
LINE
  8
CSLAYER1
  6
CONTINUOUS
 62
     5
 10
2187.866797
 20
483.561620
 11
2187.866797
 21
466.561620
  0
LINE
  8
CSLAYER1
  6
CONTINUOUS
 62
     5
 10
2183.897230
 20
488.052001
 11
2169.269360
 21
488.052001
  0
LINE
  8
CSLAYER1
  6
CONTINUOUS
 62
     5
 10
2184.757702
 20
486.561620
 11
2184.757702
 21
463.561620
  0
LINE
  8
CSLAYER1
  6
CONTINUOUS
 62
     5
 10
2168.408888
 20
486.561620
 11
2168.408888
 21
463.561620
  0
LINE
  8
CSLAYER1
  6
CONTINUOUS
 62
     5
 10
2184.757702
 20
486.561620
 11
2183.897230
 21
488.052001
  0
LINE
  8
CSLAYER1
  6
CONTINUOUS
 62
     5
 10
2168.408888
 20
486.561620
 11
2169.269360
 21
488.052001
  0
LINE
  8
CSLAYER1
  6
CONTINUOUS
 62
     5
 10
2183.897230
 20
481.701148
 11
2169.269360
 21
481.701148
  0
ARC
  8
CSLAYER1
  6
CONTINUOUS
 62
     5
 10
2158.711677
 20
475.061620
 40
26.046025
 50
-14.768561
 51
14.768561
  0
ARC
  8
CSLAYER1
  6
CONTINUOUS
 62
     5
 10
2178.626109
 20
484.876575
 40
6.153702
 50
-31.065581
 51
23.174644
  0
ARC
  8
CSLAYER1
  6
CONTINUOUS
 62
     5
 10
2174.540481
 20
484.876575
 40
6.153702
 50
156.825356
 51
211.065581
  0
ARC
  8
CSLAYER1
  6
CONTINUOUS
 62
     5
 10
2194.454913
 20
475.061620
 40
26.046025
 50
165.231439
 51
194.768561
  0
LINE
  8
CSLAYER1
  6
CONTINUOUS
 62
     5
 10
2184.866797
 20
486.561620
 11
2184.757702
 21
486.561620
  0
ARC
  8
CSLAYER1
  6
CONTINUOUS
 62
     5
 10
2184.866797
 20
483.561620
 40
3.000000
 50
0.000000
 51
90.000000
  0
LINE
  8
CSLAYER1
  6
CONTINUOUS
 62
     5
 10
2164.866797
 20
486.561620
 11
2164.866797
 21
463.561620
  0
LINE
  8
CSLAYER1
  6
CONTINUOUS
 62
     5
 10
2164.866797
 20
486.561620
 11
2164.006325
 21
488.052001
  0
ARC
  8
CSLAYER1
  6
CONTINUOUS
 62
     5
 10
2138.820772
 20
475.061620
 40
26.046025
 50
-14.768561
 51
14.768561
  0
ARC
  8
CSLAYER1
  6
CONTINUOUS
 62
     5
 10
2158.735203
 20
484.876575
 40
6.153702
 50
-31.065581
 51
23.174644
  0
LINE
  8
CSLAYER1
  6
CONTINUOUS
 62
     5
 10
2164.006325
 20
481.701148
 11
2157.866797
 21
481.701148
  0
LINE
  8
CSLAYER1
  6
CONTINUOUS
 62
     5
 10
2164.006325
 20
488.052001
 11
2157.866797
 21
488.052001
  0
LINE
  8
CSLAYER1
  6
CONTINUOUS
 62
     5
 10
2168.408888
 20
485.397744
 11
2164.866797
 21
485.397744
  0
LINE
  8
CSLAYER1
  6
CONTINUOUS
 62
     5
 10
2168.408888
 20
484.751367
 11
2166.802526
 21
484.751367
  0
LINE
  8
CSLAYER1
  6
CONTINUOUS
 62
     5
 10
2166.802526
 20
485.397744
 11
2166.802526
 21
464.725496
  0
LINE
  8
CSLAYER1
  6
CONTINUOUS
 62
     5
 10
2166.802526
 20
484.751367
 11
2165.667674
 21
485.397744
  0
LINE
  8
CSLAYER1
  6
CONTINUOUS
 62
     5
 10
2183.897230
 20
462.071239
 11
2169.269360
 21
462.071239
  0
LINE
  8
CSLAYER1
  6
CONTINUOUS
 62
     5
 10
2184.757702
 20
463.561620
 11
2183.897230
 21
462.071239
  0
LINE
  8
CSLAYER1
  6
CONTINUOUS
 62
     5
 10
2168.408888
 20
463.561620
 11
2169.269360
 21
462.071239
  0
LINE
  8
CSLAYER1
  6
CONTINUOUS
 62
     5
 10
2183.897230
 20
468.422092
 11
2169.269360
 21
468.422092
  0
ARC
  8
CSLAYER1
  6
CONTINUOUS
 62
     5
 10
2178.626109
 20
465.246666
 40
6.153702
 50
-23.174644
 51
31.065581
  0
ARC
  8
CSLAYER1
  6
CONTINUOUS
 62
     5
 10
2174.540481
 20
465.246666
 40
6.153702
 50
148.934419
 51
203.174644
  0
LINE
  8
CSLAYER1
  6
CONTINUOUS
 62
     5
 10
2184.866797
 20
463.561620
 11
2184.757702
 21
463.561620
  0
ARC
  8
CSLAYER1
  6
CONTINUOUS
 62
     5
 10
2184.866797
 20
466.561620
 40
3.000000
 50
270.000000
 51
360.000000
  0
LINE
  8
CSLAYER1
  6
CONTINUOUS
 62
     5
 10
2164.866797
 20
463.561620
 11
2164.006325
 21
462.071239
  0
ARC
  8
CSLAYER1
  6
CONTINUOUS
 62
     5
 10
2158.735203
 20
465.246666
 40
6.153702
 50
-23.174644
 51
31.065581
  0
LINE
  8
CSLAYER1
  6
CONTINUOUS
 62
     5
 10
2164.006325
 20
468.422092
 11
2157.866797
 21
468.422092
  0
LINE
  8
CSLAYER1
  6
CONTINUOUS
 62
     5
 10
2164.006325
 20
462.071239
 11
2157.866797
 21
462.071239
  0
LINE
  8
CSLAYER1
  6
CONTINUOUS
 62
     5
 10
2168.408888
 20
464.725496
 11
2164.866797
 21
464.725496
  0
LINE
  8
CSLAYER1
  6
CONTINUOUS
 62
     5
 10
2168.408888
 20
465.371874
 11
2166.802526
 21
465.371874
  0
LINE
  8
CSLAYER1
  6
CONTINUOUS
 62
     5
 10
2166.802526
 20
465.371874
 11
2165.667674
 21
464.725496
  0
LINE
  8
CSLAYER1
  6
CENTER
 62
     5
 10
2221.622818
 20
475.061620
 11
2148.622648
 21
475.061620
  0
LINE
  8
CSLAYER1
  6
CONTINUOUS
 62
     5
 10
2221.434777
 20
478.861620
 11
2187.866797
 21
478.861620
  0
LINE
  8
CSLAYER1
  6
CONTINUOUS
 62
     5
 10
2222.751065
 20
471.261620
 11
2187.866797
 21
471.261620
  0
INSERT
  8
CSLAYER1
  2
BLKF0002
 10
0.0
 20
0.0
 30
0.0
  0
LINE
  8
CSLAYER1
  6
CONTINUOUS
 62
     3
 10
2018.466797
 20
493.261620
 11
2016.666797
 21
493.261620
  0
LINE
  8
CSLAYER1
  6
CONTINUOUS
 62
     5
 10
2157.866797
 20
493.261620
 11
2018.466797
 21
493.261620
  0
LINE
  8
CSLAYER1
  6
CONTINUOUS
 62
     4
 10
438.805695
 20
493.261620
 11
474.800759
 21
493.261620
  0
LINE
  8
CSLAYER1
  6
CONTINUOUS
 62
     5
 10
1283.917198
 20
750.186738
 11
1191.596747
 21
940.597668
  0
LINE
  8
CSLAYER1
  6
CONTINUOUS
 62
     5
 10
1283.917198
 20
750.186738
 11
1264.288292
 21
772.873872
  0
LINE
  8
CSLAYER1
  6
CONTINUOUS
 62
     5
 10
1283.917198
 20
750.186738
 11
1278.261633
 21
779.648825
  0
LINE
  8
CSLAYER1
  6
CONTINUOUS
 62
     5
 10
1191.596747
 20
940.597668
 11
941.596747
 21
940.597668
  0
TEXT
  8
CSLAYER1
 62
     5
 10
951.596680
 20
950.597656
 40
40.000000
 41
0.782609
  1
ギヤードモ－ター
 50
0.000000
 51
0.000000
  7
EASYDRAW_FONT
 72
     5
 11
1191.596680
 21
950.597656
  0
TEXT
  8
CSLAYER1
 62
     5
 10
799.044922
 20
757.434021
 40
40.000000
 41
0.769737
  1
上限・下限リミットスイッチ
 50
0.000000
 51
0.000000
  7
EASYDRAW_FONT
 72
     5
 11
1189.044922
 21
757.434021
  0
LINE
  8
CSLAYER1
  6
CONTINUOUS
 62
     5
 10
622.931246
 20
531.551841
 11
788.039376
 21
748.828576
  0
LINE
  8
CSLAYER1
  6
CONTINUOUS
 62
     5
 10
622.931246
 20
531.551841
 11
634.281557
 21
559.321796
  0
LINE
  8
CSLAYER1
  6
CONTINUOUS
 62
     5
 10
622.931246
 20
531.551841
 11
646.645882
 21
549.926172
  0
LINE
  8
CSLAYER1
  6
CONTINUOUS
 62
     5
 10
788.039376
 20
748.828576
 11
1192.457366
 21
748.828576
  0
LINE
  8
CSLAYER1
  6
CONTINUOUS
 62
     7
 10
464.191769
 20
770.573179
 11
593.419622
 21
770.573179
  0
LINE
  8
CSLAYER1
  6
CONTINUOUS
 62
     7
 10
462.805695
 20
695.500324
 11
473.805695
 21
695.500324
  0
LINE
  8
CSLAYER1
  6
CONTINUOUS
 62
     7
 10
582.805695
 20
727.482825
 11
582.805695
 21
581.831509
  0
LINE
  8
CSLAYER1
  6
CONTINUOUS
 62
     7
 10
588.805695
 20
673.069561
 11
588.805695
 21
572.745430
  0
LINE
  8
CSLAYER1
  6
CONTINUOUS
 62
     7
 10
590.805695
 20
563.529494
 11
590.805695
 21
511.557929
  0
LINE
  8
CSLAYER1
  6
CONTINUOUS
 62
     7
 10
528.805695
 20
755.140450
 11
533.512106
 21
755.016785
  0
LINE
  8
CSLAYER1
  6
CONTINUOUS
 62
     7
 10
533.512106
 20
755.016785
 11
538.182697
 21
754.646732
  0
LINE
  8
CSLAYER1
  6
CONTINUOUS
 62
     7
 10
538.182697
 20
754.646732
 11
542.781924
 21
754.033107
  0
LINE
  8
CSLAYER1
  6
CONTINUOUS
 62
     7
 10
542.781924
 20
754.033107
 11
547.274783
 21
753.180580
  0
LINE
  8
CSLAYER1
  6
CONTINUOUS
 62
     7
 10
547.274783
 20
753.180580
 11
551.627082
 21
752.095639
  0
LINE
  8
CSLAYER1
  6
CONTINUOUS
 62
     7
 10
551.627082
 20
752.095639
 11
555.805695
 21
750.786542
  0
LINE
  8
CSLAYER1
  6
CONTINUOUS
 62
     7
 10
555.805695
 20
750.786542
 11
559.778823
 21
749.263251
  0
LINE
  8
CSLAYER1
  6
CONTINUOUS
 62
     7
 10
559.778823
 20
749.263251
 11
563.516226
 21
747.537359
  0
LINE
  8
CSLAYER1
  6
CONTINUOUS
 62
     7
 10
563.516226
 20
747.537359
 11
566.989462
 21
745.622002
  0
LINE
  8
CSLAYER1
  6
CONTINUOUS
 62
     7
 10
566.989462
 20
745.622002
 11
570.172095
 21
743.531757
  0
LINE
  8
CSLAYER1
  6
CONTINUOUS
 62
     7
 10
570.172095
 20
743.531757
 11
573.039906
 21
741.282532
  0
LINE
  8
CSLAYER1
  6
CONTINUOUS
 62
     7
 10
573.039906
 20
741.282532
 11
575.571067
 21
738.891444
  0
LINE
  8
CSLAYER1
  6
CONTINUOUS
 62
     7
 10
575.571067
 20
738.891444
 11
577.746316
 21
736.376691
  0
LINE
  8
CSLAYER1
  6
CONTINUOUS
 62
     7
 10
577.746316
 20
736.376691
 11
579.549097
 21
733.757413
  0
LINE
  8
CSLAYER1
  6
CONTINUOUS
 62
     7
 10
579.549097
 20
733.757413
 11
580.965690
 21
731.053543
  0
LINE
  8
CSLAYER1
  6
CONTINUOUS
 62
     7
 10
580.965690
 20
731.053543
 11
581.985314
 21
728.285659
  0
LINE
  8
CSLAYER1
  6
CONTINUOUS
 62
     7
 10
581.985314
 20
728.285659
 11
582.600209
 21
725.474827
  0
LINE
  8
CSLAYER1
  6
CONTINUOUS
 62
     7
 10
582.600209
 20
725.474827
 11
582.805695
 21
722.642438
  0
LINE
  8
CSLAYER1
  6
CONTINUOUS
 62
     7
 10
582.805695
 20
722.642438
 11
582.600209
 21
719.810050
  0
LINE
  8
CSLAYER1
  6
CONTINUOUS
 62
     7
 10
528.805695
 20
709.178462
 11
534.035040
 21
709.041057
  0
LINE
  8
CSLAYER1
  6
CONTINUOUS
 62
     7
 10
534.035040
 20
709.041057
 11
539.224586
 21
708.629887
  0
LINE
  8
CSLAYER1
  6
CONTINUOUS
 62
     7
 10
539.224586
 20
708.629887
 11
544.334838
 21
707.948082
  0
LINE
  8
CSLAYER1
  6
CONTINUOUS
 62
     7
 10
544.334838
 20
707.948082
 11
549.326904
 21
707.000829
  0
LINE
  8
CSLAYER1
  6
CONTINUOUS
 62
     7
 10
549.326904
 20
707.000829
 11
554.162791
 21
705.795340
  0
LINE
  8
CSLAYER1
  6
CONTINUOUS
 62
     7
 10
554.162791
 20
705.795340
 11
558.805695
 21
704.340787
  0
LINE
  8
CSLAYER1
  6
CONTINUOUS
 62
     7
 10
558.805695
 20
704.340787
 11
563.220282
 21
702.648241
  0
LINE
  8
CSLAYER1
  6
CONTINUOUS
 62
     7
 10
563.220282
 20
702.648241
 11
567.372952
 21
700.730584
  0
LINE
  8
CSLAYER1
  6
CONTINUOUS
 62
     7
 10
567.372952
 20
700.730584
 11
571.232102
 21
698.602410
  0
LINE
  8
CSLAYER1
  6
CONTINUOUS
 62
     7
 10
571.232102
 20
698.602410
 11
574.768362
 21
696.279916
  0
LINE
  8
CSLAYER1
  6
CONTINUOUS
 62
     7
 10
574.768362
 20
696.279916
 11
577.954818
 21
693.780776
  0
LINE
  8
CSLAYER1
  6
CONTINUOUS
 62
     7
 10
577.954818
 20
693.780776
 11
580.767220
 21
691.124012
  0
LINE
  8
CSLAYER1
  6
CONTINUOUS
 62
     7
 10
580.767220
 20
691.124012
 11
583.184163
 21
688.329842
  0
LINE
  8
CSLAYER1
  6
CONTINUOUS
 62
     7
 10
583.184163
 20
688.329842
 11
585.187253
 21
685.419533
  0
LINE
  8
CSLAYER1
  6
CONTINUOUS
 62
     7
 10
585.187253
 20
685.419533
 11
586.761245
 21
682.415232
  0
LINE
  8
CSLAYER1
  6
CONTINUOUS
 62
     7
 10
586.761245
 20
682.415232
 11
587.894161
 21
679.339806
  0
LINE
  8
CSLAYER1
  6
CONTINUOUS
 62
     7
 10
587.894161
 20
679.339806
 11
588.577377
 21
676.216659
  0
LINE
  8
CSLAYER1
  6
CONTINUOUS
 62
     7
 10
588.577377
 20
676.216659
 11
588.805695
 21
673.069561
  0
LINE
  8
CSLAYER1
  6
CONTINUOUS
 62
     7
 10
588.805695
 20
673.069561
 11
588.577377
 21
669.922463
  0
LINE
  8
CSLAYER1
  6
CONTINUOUS
 62
     7
 10
528.805695
 20
600.842025
 11
534.209352
 21
600.700040
  0
LINE
  8
CSLAYER1
  6
CONTINUOUS
 62
     7
 10
534.209352
 20
600.700040
 11
539.571883
 21
600.275164
  0
LINE
  8
CSLAYER1
  6
CONTINUOUS
 62
     7
 10
539.571883
 20
600.275164
 11
544.852476
 21
599.570631
  0
LINE
  8
CSLAYER1
  6
CONTINUOUS
 62
     7
 10
544.852476
 20
599.570631
 11
550.010944
 21
598.591804
  0
LINE
  8
CSLAYER1
  6
CONTINUOUS
 62
     7
 10
550.010944
 20
598.591804
 11
555.008028
 21
597.346131
  0
LINE
  8
CSLAYER1
  6
CONTINUOUS
 62
     7
 10
555.008028
 20
597.346131
 11
559.805695
 21
595.843094
  0
LINE
  8
CSLAYER1
  6
CONTINUOUS
 62
     7
 10
559.805695
 20
595.843094
 11
564.367435
 21
594.094130
  0
LINE
  8
CSLAYER1
  6
CONTINUOUS
 62
     7
 10
564.367435
 20
594.094130
 11
568.658527
 21
592.112551
  0
LINE
  8
CSLAYER1
  6
CONTINUOUS
 62
     7
 10
568.658527
 20
592.112551
 11
572.646316
 21
589.913438
  0
LINE
  8
CSLAYER1
  6
CONTINUOUS
 62
     7
 10
572.646316
 20
589.913438
 11
576.300451
 21
587.513526
  0
LINE
  8
CSLAYER1
  6
CONTINUOUS
 62
     7
 10
576.300451
 20
587.513526
 11
579.593122
 21
584.931082
  0
LINE
  8
CSLAYER1
  6
CONTINUOUS
 62
     7
 10
579.593122
 20
584.931082
 11
582.499271
 21
582.185759
  0
LINE
  8
CSLAYER1
  6
CONTINUOUS
 62
     7
 10
582.499271
 20
582.185759
 11
584.996778
 21
579.298451
  0
LINE
  8
CSLAYER1
  6
CONTINUOUS
 62
     7
 10
584.996778
 20
579.298451
 11
587.066638
 21
576.291131
  0
LINE
  8
CSLAYER1
  6
CONTINUOUS
 62
     7
 10
587.066638
 20
576.291131
 11
588.693097
 21
573.186687
  0
LINE
  8
CSLAYER1
  6
CONTINUOUS
 62
     7
 10
588.693097
 20
573.186687
 11
589.863776
 21
570.008747
  0
LINE
  8
CSLAYER1
  6
CONTINUOUS
 62
     7
 10
589.863776
 20
570.008747
 11
590.569767
 21
566.781495
  0
LINE
  8
CSLAYER1
  6
CONTINUOUS
 62
     7
 10
590.569767
 20
566.781495
 11
590.805695
 21
563.529494
  0
LINE
  8
CSLAYER1
  6
CONTINUOUS
 62
     7
 10
528.805695
 20
548.870460
 11
534.209352
 21
548.728475
  0
LINE
  8
CSLAYER1
  6
CONTINUOUS
 62
     7
 10
534.209352
 20
548.728475
 11
539.571883
 21
548.303599
  0
LINE
  8
CSLAYER1
  6
CONTINUOUS
 62
     7
 10
539.571883
 20
548.303599
 11
544.852476
 21
547.599066
  0
LINE
  8
CSLAYER1
  6
CONTINUOUS
 62
     7
 10
544.852476
 20
547.599066
 11
550.010944
 21
546.620239
  0
LINE
  8
CSLAYER1
  6
CONTINUOUS
 62
     7
 10
550.010944
 20
546.620239
 11
555.008028
 21
545.374566
  0
LINE
  8
CSLAYER1
  6
CONTINUOUS
 62
     7
 10
555.008028
 20
545.374566
 11
559.805695
 21
543.871529
  0
LINE
  8
CSLAYER1
  6
CONTINUOUS
 62
     7
 10
559.805695
 20
543.871529
 11
564.367435
 21
542.122565
  0
LINE
  8
CSLAYER1
  6
CONTINUOUS
 62
     7
 10
564.367435
 20
542.122565
 11
568.658527
 21
540.140986
  0
LINE
  8
CSLAYER1
  6
CONTINUOUS
 62
     7
 10
568.658527
 20
540.140986
 11
572.646316
 21
537.941873
  0
LINE
  8
CSLAYER1
  6
CONTINUOUS
 62
     7
 10
572.646316
 20
537.941873
 11
576.300451
 21
535.541962
  0
LINE
  8
CSLAYER1
  6
CONTINUOUS
 62
     7
 10
576.300451
 20
535.541962
 11
579.593122
 21
532.959517
  0
LINE
  8
CSLAYER1
  6
CONTINUOUS
 62
     7
 10
579.593122
 20
532.959517
 11
582.499271
 21
530.214194
  0
LINE
  8
CSLAYER1
  6
CONTINUOUS
 62
     7
 10
582.499271
 20
530.214194
 11
584.996778
 21
527.326886
  0
LINE
  8
CSLAYER1
  6
CONTINUOUS
 62
     7
 10
584.996778
 20
527.326886
 11
587.066638
 21
524.319566
  0
LINE
  8
CSLAYER1
  6
CONTINUOUS
 62
     7
 10
587.066638
 20
524.319566
 11
588.693097
 21
521.215122
  0
LINE
  8
CSLAYER1
  6
CONTINUOUS
 62
     7
 10
588.693097
 20
521.215122
 11
589.863776
 21
518.037182
  0
LINE
  8
CSLAYER1
  6
CONTINUOUS
 62
     7
 10
589.863776
 20
518.037182
 11
590.569767
 21
514.809930
  0
LINE
  8
CSLAYER1
  6
CONTINUOUS
 62
     7
 10
590.569767
 20
514.809930
 11
590.805695
 21
511.557929
  0
LINE
  8
CSLAYER1
  6
CONTINUOUS
 62
     7
 10
590.805695
 20
511.557929
 11
590.569767
 21
508.305927
  0
LINE
  8
CSLAYER1
  6
CONTINUOUS
 62
     7
 10
590.569767
 20
508.305927
 11
589.863776
 21
505.078676
  0
LINE
  8
CSLAYER1
  6
CONTINUOUS
 62
     7
 10
589.863776
 20
505.078676
 11
588.693097
 21
501.900735
  0
LINE
  8
CSLAYER1
  6
CONTINUOUS
 62
     7
 10
588.693097
 20
501.900735
 11
587.066638
 21
498.796291
  0
LINE
  8
CSLAYER1
  6
CONTINUOUS
 62
     7
 10
587.066638
 20
498.796291
 11
584.996778
 21
495.788971
  0
LINE
  8
CSLAYER1
  6
CONTINUOUS
 62
     7
 10
584.996778
 20
495.788971
 11
582.499271
 21
492.901663
  0
LINE
  8
CSLAYER1
  6
CONTINUOUS
 62
     7
 10
582.499271
 20
492.901663
 11
579.593122
 21
490.156340
  0
LINE
  8
CSLAYER1
  6
CONTINUOUS
 62
     7
 10
579.593122
 20
490.156340
 11
576.300451
 21
487.573896
  0
LINE
  8
CSLAYER1
  6
CONTINUOUS
 62
     7
 10
576.300451
 20
487.573896
 11
572.646316
 21
485.173985
  0
LINE
  8
CSLAYER1
  6
CONTINUOUS
 62
     7
 10
572.646316
 20
485.173985
 11
568.658527
 21
482.974871
  0
LINE
  8
CSLAYER1
  6
CONTINUOUS
 62
     7
 10
568.658527
 20
482.974871
 11
564.367435
 21
480.993292
  0
LINE
  8
CSLAYER1
  6
CONTINUOUS
 62
     7
 10
564.367435
 20
480.993292
 11
559.805695
 21
479.244329
  0
LINE
  8
CSLAYER1
  6
CONTINUOUS
 62
     7
 10
559.805695
 20
479.244329
 11
555.008028
 21
477.741291
  0
LINE
  8
CSLAYER1
  6
CONTINUOUS
 62
     7
 10
555.008028
 20
477.741291
 11
550.010944
 21
476.495618
  0
LINE
  8
CSLAYER1
  6
CONTINUOUS
 62
     7
 10
550.010944
 20
476.495618
 11
544.852476
 21
475.516791
  0
LINE
  8
CSLAYER1
  6
CONTINUOUS
 62
     7
 10
544.852476
 20
475.516791
 11
539.571883
 21
474.812258
  0
LINE
  8
CSLAYER1
  6
CONTINUOUS
 62
     7
 10
539.571883
 20
474.812258
 11
534.209352
 21
474.387383
  0
LINE
  8
CSLAYER1
  6
CONTINUOUS
 62
     7
 10
534.209352
 20
474.387383
 11
528.805695
 21
474.245397
  0
LINE
  8
CSLAYER1
  6
CONTINUOUS
 62
     7
 10
583.805695
 20
760.753103
 11
583.805695
 21
687.426811
  0
LINE
  8
CSLAYER1
  6
CONTINUOUS
 62
     7
 10
578.805695
 20
765.753103
 11
478.805695
 21
765.753103
  0
LINE
  8
CSLAYER1
  6
CONTINUOUS
 62
     7
 10
578.805695
 20
757.420237
 11
478.805695
 21
757.420237
  0
ARC
  8
CSLAYER1
  6
CONTINUOUS
 62
     7
 10
578.805695
 20
760.753103
 40
5.000000
 50
0.000000
 51
90.000000
  0
ARC
  8
CSLAYER1
  6
CONTINUOUS
 62
     7
 10
578.805695
 20
752.420237
 40
5.000000
 50
0.000000
 51
90.000000
  0
LINE
  8
CSLAYER1
  6
CONTINUOUS
 62
     7
 10
594.676275
 20
629.216428
 11
610.235112
 21
629.216428
  0
LINE
  8
CSLAYER1
  6
CONTINUOUS
 62
     7
 10
602.305695
 20
620.530938
 11
602.305695
 21
638.354627
  0
LINE
  8
CSLAYER1
  6
CONTINUOUS
 62
     7
 10
592.771125
 20
559.216428
 11
610.805695
 21
559.216428
  0
LINE
  8
CSLAYER1
  6
CONTINUOUS
 62
     7
 10
592.771125
 20
640.716428
 11
610.805695
 21
640.716428
  0
LINE
  8
CSLAYER1
  6
CONTINUOUS
 62
     7
 10
613.805695
 20
637.716428
 11
613.805695
 21
544.315216
  0
LINE
  8
CSLAYER1
  6
CONTINUOUS
 62
     7
 10
592.771125
 20
541.315216
 11
592.771125
 21
640.716428
  0
LINE
  8
CSLAYER1
  6
CONTINUOUS
 62
     7
 10
588.805695
 20
574.725973
 11
592.771125
 21
574.725973
  0
CIRCLE
  8
CSLAYER1
  6
CONTINUOUS
 62
     7
 10
602.305695
 20
629.216428
 40
6.250000
  0
LINE
  8
CSLAYER1
  6
CONTINUOUS
 62
     7
 10
588.805695
 20
601.706884
 11
592.771125
 21
601.706884
  0
ARC
  8
CSLAYER1
  6
CONTINUOUS
 62
     7
 10
610.805695
 20
562.216428
 40
3.000000
 50
270.000000
 51
360.000000
  0
ARC
  8
CSLAYER1
  6
CONTINUOUS
 62
     7
 10
610.805695
 20
637.716428
 40
3.000000
 50
0.000000
 51
90.000000
  0
LINE
  8
CSLAYER1
  6
CONTINUOUS
 62
     7
 10
580.805695
 20
583.785612
 11
580.805695
 21
691.087665
  0
LINE
  8
CSLAYER1
  6
CONTINUOUS
 62
     7
 10
560.805695
 20
595.459695
 11
560.805695
 21
703.573990
  0
LINE
  8
CSLAYER1
  6
CONTINUOUS
 62
     7
 10
553.805695
 20
597.645849
 11
553.805695
 21
705.907212
  0
LINE
  8
CSLAYER1
  6
CONTINUOUS
 62
     7
 10
545.805695
 20
599.389756
 11
545.805695
 21
707.751841
  0
LINE
  8
CSLAYER1
  6
CONTINUOUS
 62
     7
 10
592.771125
 20
541.315216
 11
610.805695
 21
541.315216
  0
ARC
  8
CSLAYER1
  6
CONTINUOUS
 62
     7
 10
610.805695
 20
544.315216
 40
3.000000
 50
270.000000
 51
360.000000
  0
LINE
  8
CSLAYER1
  6
CONTINUOUS
 62
     7
 10
474.805695
 20
727.482825
 11
474.805695
 21
581.831509
  0
LINE
  8
CSLAYER1
  6
CONTINUOUS
 62
     7
 10
468.805695
 20
673.069561
 11
468.805695
 21
572.745430
  0
LINE
  8
CSLAYER1
  6
CONTINUOUS
 62
     7
 10
466.805695
 20
563.529494
 11
466.805695
 21
511.557929
  0
LINE
  8
CSLAYER1
  6
CONTINUOUS
 62
     7
 10
528.805695
 20
755.140450
 11
524.099285
 21
755.016785
  0
LINE
  8
CSLAYER1
  6
CONTINUOUS
 62
     7
 10
524.099285
 20
755.016785
 11
519.428694
 21
754.646732
  0
LINE
  8
CSLAYER1
  6
CONTINUOUS
 62
     7
 10
519.428694
 20
754.646732
 11
514.829467
 21
754.033107
  0
LINE
  8
CSLAYER1
  6
CONTINUOUS
 62
     7
 10
514.829467
 20
754.033107
 11
510.336608
 21
753.180580
  0
LINE
  8
CSLAYER1
  6
CONTINUOUS
 62
     7
 10
510.336608
 20
753.180580
 11
505.984309
 21
752.095639
  0
LINE
  8
CSLAYER1
  6
CONTINUOUS
 62
     7
 10
505.984309
 20
752.095639
 11
501.805695
 21
750.786542
  0
LINE
  8
CSLAYER1
  6
CONTINUOUS
 62
     7
 10
501.805695
 20
750.786542
 11
497.832568
 21
749.263251
  0
LINE
  8
CSLAYER1
  6
CONTINUOUS
 62
     7
 10
497.832568
 20
749.263251
 11
494.095165
 21
747.537359
  0
LINE
  8
CSLAYER1
  6
CONTINUOUS
 62
     7
 10
494.095165
 20
747.537359
 11
490.621929
 21
745.622002
  0
LINE
  8
CSLAYER1
  6
CONTINUOUS
 62
     7
 10
490.621929
 20
745.622002
 11
487.439296
 21
743.531757
  0
LINE
  8
CSLAYER1
  6
CONTINUOUS
 62
     7
 10
487.439296
 20
743.531757
 11
484.571485
 21
741.282532
  0
LINE
  8
CSLAYER1
  6
CONTINUOUS
 62
     7
 10
484.571485
 20
741.282532
 11
482.040324
 21
738.891444
  0
LINE
  8
CSLAYER1
  6
CONTINUOUS
 62
     7
 10
482.040324
 20
738.891444
 11
479.865075
 21
736.376691
  0
LINE
  8
CSLAYER1
  6
CONTINUOUS
 62
     7
 10
479.865075
 20
736.376691
 11
478.062294
 21
733.757413
  0
LINE
  8
CSLAYER1
  6
CONTINUOUS
 62
     7
 10
478.062294
 20
733.757413
 11
476.645701
 21
731.053543
  0
LINE
  8
CSLAYER1
  6
CONTINUOUS
 62
     7
 10
476.645701
 20
731.053543
 11
475.626077
 21
728.285659
  0
LINE
  8
CSLAYER1
  6
CONTINUOUS
 62
     7
 10
475.626077
 20
728.285659
 11
475.011182
 21
725.474827
  0
LINE
  8
CSLAYER1
  6
CONTINUOUS
 62
     7
 10
475.011182
 20
725.474827
 11
474.805695
 21
722.642438
  0
LINE
  8
CSLAYER1
  6
CONTINUOUS
 62
     7
 10
474.805695
 20
722.642438
 11
475.011182
 21
719.810050
  0
LINE
  8
CSLAYER1
  6
CONTINUOUS
 62
     7
 10
528.805695
 20
709.178462
 11
523.576351
 21
709.041057
  0
LINE
  8
CSLAYER1
  6
CONTINUOUS
 62
     7
 10
523.576351
 20
709.041057
 11
518.386805
 21
708.629887
  0
LINE
  8
CSLAYER1
  6
CONTINUOUS
 62
     7
 10
518.386805
 20
708.629887
 11
513.276553
 21
707.948082
  0
LINE
  8
CSLAYER1
  6
CONTINUOUS
 62
     7
 10
513.276553
 20
707.948082
 11
508.284487
 21
707.000829
  0
LINE
  8
CSLAYER1
  6
CONTINUOUS
 62
     7
 10
508.284487
 20
707.000829
 11
503.448600
 21
705.795340
  0
LINE
  8
CSLAYER1
  6
CONTINUOUS
 62
     7
 10
503.448600
 20
705.795340
 11
498.805695
 21
704.340787
  0
LINE
  8
CSLAYER1
  6
CONTINUOUS
 62
     7
 10
498.805695
 20
704.340787
 11
494.391109
 21
702.648241
  0
LINE
  8
CSLAYER1
  6
CONTINUOUS
 62
     7
 10
494.391109
 20
702.648241
 11
490.238439
 21
700.730584
  0
LINE
  8
CSLAYER1
  6
CONTINUOUS
 62
     7
 10
490.238439
 20
700.730584
 11
486.379289
 21
698.602410
  0
LINE
  8
CSLAYER1
  6
CONTINUOUS
 62
     7
 10
486.379289
 20
698.602410
 11
482.843029
 21
696.279916
  0
LINE
  8
CSLAYER1
  6
CONTINUOUS
 62
     7
 10
482.843029
 20
696.279916
 11
479.656573
 21
693.780776
  0
LINE
  8
CSLAYER1
  6
CONTINUOUS
 62
     7
 10
479.656573
 20
693.780776
 11
476.844171
 21
691.124012
  0
LINE
  8
CSLAYER1
  6
CONTINUOUS
 62
     7
 10
476.844171
 20
691.124012
 11
474.427228
 21
688.329842
  0
LINE
  8
CSLAYER1
  6
CONTINUOUS
 62
     7
 10
474.427228
 20
688.329842
 11
472.424138
 21
685.419533
  0
LINE
  8
CSLAYER1
  6
CONTINUOUS
 62
     7
 10
472.424138
 20
685.419533
 11
470.850146
 21
682.415232
  0
LINE
  8
CSLAYER1
  6
CONTINUOUS
 62
     7
 10
470.850146
 20
682.415232
 11
469.717230
 21
679.339806
  0
LINE
  8
CSLAYER1
  6
CONTINUOUS
 62
     7
 10
469.717230
 20
679.339806
 11
469.034014
 21
676.216659
  0
LINE
  8
CSLAYER1
  6
CONTINUOUS
 62
     7
 10
469.034014
 20
676.216659
 11
468.805695
 21
673.069561
  0
LINE
  8
CSLAYER1
  6
CONTINUOUS
 62
     7
 10
468.805695
 20
673.069561
 11
469.034014
 21
669.922463
  0
LINE
  8
CSLAYER1
  6
CONTINUOUS
 62
     7
 10
528.805695
 20
600.842025
 11
523.402039
 21
600.700040
  0
LINE
  8
CSLAYER1
  6
CONTINUOUS
 62
     7
 10
523.402039
 20
600.700040
 11
518.039508
 21
600.275164
  0
LINE
  8
CSLAYER1
  6
CONTINUOUS
 62
     7
 10
518.039508
 20
600.275164
 11
512.758915
 21
599.570631
  0
LINE
  8
CSLAYER1
  6
CONTINUOUS
 62
     7
 10
512.758915
 20
599.570631
 11
507.600447
 21
598.591804
  0
LINE
  8
CSLAYER1
  6
CONTINUOUS
 62
     7
 10
507.600447
 20
598.591804
 11
502.603363
 21
597.346131
  0
LINE
  8
CSLAYER1
  6
CONTINUOUS
 62
     7
 10
502.603363
 20
597.346131
 11
497.805695
 21
595.843094
  0
LINE
  8
CSLAYER1
  6
CONTINUOUS
 62
     7
 10
497.805695
 20
595.843094
 11
493.243956
 21
594.094130
  0
LINE
  8
CSLAYER1
  6
CONTINUOUS
 62
     7
 10
493.243956
 20
594.094130
 11
488.952864
 21
592.112551
  0
LINE
  8
CSLAYER1
  6
CONTINUOUS
 62
     7
 10
488.952864
 20
592.112551
 11
484.965075
 21
589.913438
  0
LINE
  8
CSLAYER1
  6
CONTINUOUS
 62
     7
 10
484.965075
 20
589.913438
 11
481.310940
 21
587.513526
  0
LINE
  8
CSLAYER1
  6
CONTINUOUS
 62
     7
 10
481.310940
 20
587.513526
 11
478.018269
 21
584.931082
  0
LINE
  8
CSLAYER1
  6
CONTINUOUS
 62
     7
 10
478.018269
 20
584.931082
 11
475.112120
 21
582.185759
  0
LINE
  8
CSLAYER1
  6
CONTINUOUS
 62
     7
 10
475.112120
 20
582.185759
 11
472.614613
 21
579.298451
  0
LINE
  8
CSLAYER1
  6
CONTINUOUS
 62
     7
 10
472.614613
 20
579.298451
 11
470.544753
 21
576.291131
  0
LINE
  8
CSLAYER1
  6
CONTINUOUS
 62
     7
 10
470.544753
 20
576.291131
 11
468.918294
 21
573.186687
  0
LINE
  8
CSLAYER1
  6
CONTINUOUS
 62
     7
 10
468.918294
 20
573.186687
 11
467.747615
 21
570.008747
  0
LINE
  8
CSLAYER1
  6
CONTINUOUS
 62
     7
 10
467.747615
 20
570.008747
 11
467.041624
 21
566.781495
  0
LINE
  8
CSLAYER1
  6
CONTINUOUS
 62
     7
 10
467.041624
 20
566.781495
 11
466.805695
 21
563.529494
  0
LINE
  8
CSLAYER1
  6
CONTINUOUS
 62
     7
 10
528.805695
 20
548.870460
 11
523.402039
 21
548.728475
  0
LINE
  8
CSLAYER1
  6
CONTINUOUS
 62
     7
 10
523.402039
 20
548.728475
 11
518.039508
 21
548.303599
  0
LINE
  8
CSLAYER1
  6
CONTINUOUS
 62
     7
 10
518.039508
 20
548.303599
 11
512.758915
 21
547.599066
  0
LINE
  8
CSLAYER1
  6
CONTINUOUS
 62
     7
 10
512.758915
 20
547.599066
 11
507.600447
 21
546.620239
  0
LINE
  8
CSLAYER1
  6
CONTINUOUS
 62
     7
 10
507.600447
 20
546.620239
 11
502.603363
 21
545.374566
  0
LINE
  8
CSLAYER1
  6
CONTINUOUS
 62
     7
 10
502.603363
 20
545.374566
 11
497.805695
 21
543.871529
  0
LINE
  8
CSLAYER1
  6
CONTINUOUS
 62
     7
 10
497.805695
 20
543.871529
 11
493.243956
 21
542.122565
  0
LINE
  8
CSLAYER1
  6
CONTINUOUS
 62
     7
 10
493.243956
 20
542.122565
 11
488.952864
 21
540.140986
  0
LINE
  8
CSLAYER1
  6
CONTINUOUS
 62
     7
 10
488.952864
 20
540.140986
 11
484.965075
 21
537.941873
  0
LINE
  8
CSLAYER1
  6
CONTINUOUS
 62
     7
 10
484.965075
 20
537.941873
 11
481.310940
 21
535.541962
  0
LINE
  8
CSLAYER1
  6
CONTINUOUS
 62
     7
 10
481.310940
 20
535.541962
 11
478.018269
 21
532.959517
  0
LINE
  8
CSLAYER1
  6
CONTINUOUS
 62
     7
 10
478.018269
 20
532.959517
 11
475.112120
 21
530.214194
  0
LINE
  8
CSLAYER1
  6
CONTINUOUS
 62
     7
 10
475.112120
 20
530.214194
 11
472.614613
 21
527.326886
  0
LINE
  8
CSLAYER1
  6
CONTINUOUS
 62
     7
 10
472.614613
 20
527.326886
 11
470.544753
 21
524.319566
  0
LINE
  8
CSLAYER1
  6
CONTINUOUS
 62
     7
 10
470.544753
 20
524.319566
 11
468.918294
 21
521.215122
  0
LINE
  8
CSLAYER1
  6
CONTINUOUS
 62
     7
 10
468.918294
 20
521.215122
 11
467.747615
 21
518.037182
  0
LINE
  8
CSLAYER1
  6
CONTINUOUS
 62
     7
 10
467.747615
 20
518.037182
 11
467.041624
 21
514.809930
  0
LINE
  8
CSLAYER1
  6
CONTINUOUS
 62
     7
 10
467.041624
 20
514.809930
 11
466.805695
 21
511.557929
  0
LINE
  8
CSLAYER1
  6
CONTINUOUS
 62
     7
 10
466.805695
 20
511.557929
 11
467.041624
 21
508.305927
  0
LINE
  8
CSLAYER1
  6
CONTINUOUS
 62
     7
 10
467.041624
 20
508.305927
 11
467.747615
 21
505.078676
  0
LINE
  8
CSLAYER1
  6
CONTINUOUS
 62
     7
 10
467.747615
 20
505.078676
 11
468.918294
 21
501.900735
  0
LINE
  8
CSLAYER1
  6
CONTINUOUS
 62
     7
 10
468.918294
 20
501.900735
 11
470.544753
 21
498.796291
  0
LINE
  8
CSLAYER1
  6
CONTINUOUS
 62
     7
 10
470.544753
 20
498.796291
 11
472.614613
 21
495.788971
  0
LINE
  8
CSLAYER1
  6
CONTINUOUS
 62
     7
 10
472.614613
 20
495.788971
 11
475.112120
 21
492.901663
  0
LINE
  8
CSLAYER1
  6
CONTINUOUS
 62
     7
 10
475.112120
 20
492.901663
 11
478.018269
 21
490.156340
  0
LINE
  8
CSLAYER1
  6
CONTINUOUS
 62
     7
 10
478.018269
 20
490.156340
 11
481.310940
 21
487.573896
  0
LINE
  8
CSLAYER1
  6
CONTINUOUS
 62
     7
 10
481.310940
 20
487.573896
 11
484.965075
 21
485.173985
  0
LINE
  8
CSLAYER1
  6
CONTINUOUS
 62
     7
 10
484.965075
 20
485.173985
 11
488.952864
 21
482.974871
  0
LINE
  8
CSLAYER1
  6
CONTINUOUS
 62
     7
 10
488.952864
 20
482.974871
 11
493.243956
 21
480.993292
  0
LINE
  8
CSLAYER1
  6
CONTINUOUS
 62
     7
 10
493.243956
 20
480.993292
 11
497.805695
 21
479.244329
  0
LINE
  8
CSLAYER1
  6
CONTINUOUS
 62
     7
 10
497.805695
 20
479.244329
 11
502.603363
 21
477.741291
  0
LINE
  8
CSLAYER1
  6
CONTINUOUS
 62
     7
 10
502.603363
 20
477.741291
 11
507.600447
 21
476.495618
  0
LINE
  8
CSLAYER1
  6
CONTINUOUS
 62
     7
 10
507.600447
 20
476.495618
 11
512.758915
 21
475.516791
  0
LINE
  8
CSLAYER1
  6
CONTINUOUS
 62
     7
 10
512.758915
 20
475.516791
 11
518.039508
 21
474.812258
  0
LINE
  8
CSLAYER1
  6
CONTINUOUS
 62
     7
 10
518.039508
 20
474.812258
 11
523.402039
 21
474.387383
  0
LINE
  8
CSLAYER1
  6
CONTINUOUS
 62
     7
 10
523.402039
 20
474.387383
 11
528.805695
 21
474.245397
  0
LINE
  8
CSLAYER1
  6
CONTINUOUS
 62
     7
 10
473.805695
 20
760.753103
 11
473.805695
 21
687.426811
  0
ARC
  8
CSLAYER1
  6
CONTINUOUS
 62
     7
 10
478.805695
 20
760.753103
 40
5.000000
 50
90.000000
 51
180.000000
  0
ARC
  8
CSLAYER1
  6
CONTINUOUS
 62
     7
 10
478.805695
 20
752.420237
 40
5.000000
 50
90.000000
 51
180.000000
  0
LINE
  8
CSLAYER1
  6
CONTINUOUS
 62
     7
 10
476.805695
 20
583.785612
 11
476.805695
 21
691.087665
  0
LINE
  8
CSLAYER1
  6
CONTINUOUS
 62
     7
 10
496.805695
 20
595.459695
 11
496.805695
 21
703.573990
  0
LINE
  8
CSLAYER1
  6
CONTINUOUS
 62
     7
 10
503.805695
 20
597.645849
 11
503.805695
 21
705.907212
  0
LINE
  8
CSLAYER1
  6
CONTINUOUS
 62
     7
 10
511.805695
 20
599.389756
 11
511.805695
 21
707.751841
  0
LINE
  8
CSLAYER1
  6
CONTINUOUS
 62
     7
 10
582.805695
 20
695.500324
 11
594.805695
 21
695.500324
  0
LINE
  8
CSLAYER1
  6
CONTINUOUS
 62
     5
 10
1439.615631
 20
806.934429
 11
1494.709205
 21
806.934429
  0
LINE
  8
CSLAYER1
  6
CONTINUOUS
 62
     5
 10
1465.398721
 20
840.815915
 11
1465.398721
 21
778.305898
  0
LINE
  8
CSLAYER1
  6
CONTINUOUS
 62
     5
 10
2542.815818
 20
2032.349461
 11
2483.262704
 21
2262.354162
  0
LINE
  8
CSLAYER1
  6
CONTINUOUS
 62
     5
 10
2542.815818
 20
2032.349461
 11
2528.035679
 21
2058.455926
  0
LINE
  8
CSLAYER1
  6
CONTINUOUS
 62
     5
 10
2542.815818
 20
2032.349461
 11
2543.069075
 21
2062.348392
  0
LINE
  8
CSLAYER1
  6
CONTINUOUS
 62
     5
 10
2563.918607
 20
1904.237885
 11
2633.963311
 21
2141.208256
  0
LINE
  8
CSLAYER1
  6
CONTINUOUS
 62
     5
 10
2563.918607
 20
1904.237885
 11
2564.686563
 21
1934.228054
  0
LINE
  8
CSLAYER1
  6
CONTINUOUS
 62
     5
 10
2563.918607
 20
1904.237885
 11
2579.578761
 21
1929.826155
  0
TEXT
  8
CSLAYER1
 62
     4
 10
2683.828125
 20
1255.028076
 40
40.000000
 41
1.036364
  1
操作方式
 50
0.000000
 51
0.000000
  7
EASYDRAW_FONT
 72
     5
 11
2835.828125
 21
1255.028076
  0
TEXT
  8
CSLAYER1
 62
     4
 10
2965.469727
 20
1249.735107
 40
40.000000
 41
1.020000
  1
フットスイッチ
 50
0.000000
 51
0.000000
  7
EASYDRAW_FONT
 72
     5
 11
3237.469727
 21
1249.735107
  0
LINE
  8
CSLAYER1
  6
CONTINUOUS
 62
     5
 10
3394.958729
 20
1243.002006
 11
2674.086212
 21
1243.002006
  0
LINE
  8
CSLAYER1
  6
CONTINUOUS
 62
     5
 10
3394.958729
 20
1179.002008
 11
2674.086212
 21
1179.002008
  0
TEXT
  8
CSLAYER1
 62
     4
 10
2685.259277
 20
1188.955566
 40
40.000000
 41
0.872727
  1
モーター
 50
0.000000
 51
0.000000
  7
EASYDRAW_FONT
 72
     5
 11
2813.259277
 21
1188.955566
  0
LINE
  8
CSLAYER1
  6
CONTINUOUS
 62
     5
 10
3394.958729
 20
1115.002009
 11
2674.086212
 21
1115.002009
  0
LINE
  8
CSLAYER1
  6
CONTINUOUS
 62
     5
 10
3394.958729
 20
987.002013
 11
2671.947710
 21
987.002013
  0
LINE
  8
CSLAYER1
  6
CONTINUOUS
 62
     5
 10
3394.958729
 20
923.002014
 11
2674.086212
 21
923.002014
  0
LINE
  8
CSLAYER1
  6
CONTINUOUS
 62
     5
 10
3394.958729
 20
859.002016
 11
2674.086212
 21
859.002016
  0
TEXT
  8
CSLAYER1
 62
     4
 10
2687.840820
 20
870.124023
 40
40.000000
 41
0.857143
  1
自  　重
 50
0.000000
 51
0.000000
  7
EASYDRAW_FONT
 72
     5
 11
2847.840820
 21
870.124023
  0
TEXT
  8
CSLAYER1
 62
     4
 10
2690.790039
 20
806.052734
 40
40.000000
 41
0.847059
  1
塗　装　色 
 50
0.000000
 51
0.000000
  7
EASYDRAW_FONT
 72
     5
 11
2882.790039
 21
806.052734
  0
TEXT
  8
CSLAYER1
 62
     4
 10
2916.365723
 20
1189.872314
 40
40.000000
 41
0.819512
  1
３相ＡＣ２００Ｖ、0.4ＫＷ
 50
0.000000
 51
0.000000
  7
EASYDRAW_FONT
 72
     5
 11
3364.365723
 21
1189.872314
  0
TEXT
  8
CSLAYER1
 62
     4
 10
3047.349121
 20
1126.028809
 40
40.000000
 41
0.840000
  1
長サ  ４ ｍ
 50
0.000000
 51
0.000000
  7
EASYDRAW_FONT
 72
     5
 11
3271.349121
 21
1126.028809
  0
TEXT
  8
CSLAYER1
 62
     3
 10
3159.988770
 20
872.023193
 40
40.000000
 41
0.847059
  1
１４５　Ｋｇ
 50
0.000000
 51
0.000000
  7
EASYDRAW_FONT
 72
     5
 11
3351.988770
 21
872.023193
  0
LINE
  8
CSLAYER1
  6
CONTINUOUS
 62
     5
 10
3394.958729
 20
1051.002011
 11
2674.086212
 21
1051.002011
  0
TEXT
  8
CSLAYER1
 62
     4
 10
2686.175537
 20
1125.638184
 40
40.000000
 41
0.942857
  1
電源コード
 50
0.000000
 51
0.000000
  7
EASYDRAW_FONT
 72
     5
 11
2862.175537
 21
1125.638184
  0
TEXT
  8
CSLAYER1
 62
     4
 10
2686.604508
 20
1056.516733
 40
47.730206
 41
0.593339
  1
昇降時間 ２２秒（50HZ） １８秒(60HZ)
 50
0.000000
 51
0.000000
  7
EASYDRAW_FONT
 72
     5
 11
3356.849594
 21
1056.516733
  0
TEXT
  8
CSLAYER1
 62
     4
 10
2687.905273
 20
931.073730
 40
40.000000
 41
0.912766
  1
上昇端、下降端リミットスイッチ付
 50
0.000000
 51
0.000000
  7
EASYDRAW_FONT
 72
     5
 11
3259.905273
 21
931.073730
  0
TEXT
  8
CSLAYER1
 62
     4
 10
2689.752008
 20
995.737110
 40
45.879784
 41
0.605080
  1
最大使用頻度８０回／時間・最大起動頻度１０回／分
 50
0.000000
 51
0.000000
  7
EASYDRAW_FONT
 72
     5
 11
3346.760687
 21
995.737110
  0
LINE
  8
CSLAYER1
  6
CONTINUOUS
 62
     5
 10
3394.958729
 20
1300.334011
 11
2674.086212
 21
1300.334011
  0
TEXT
  8
CSLAYER1
 62
     4
 10
2883.914551
 20
1312.068115
 40
40.000000
 41
0.825000
  1
マグネットスイッチ制御
 50
0.000000
 51
0.000000
  7
EASYDRAW_FONT
 72
     5
 11
3235.914551
 21
1312.068115
  0
TEXT
  8
CSLAYER1
 62
     4
 10
2687.527344
 20
1310.078857
 40
40.000000
 41
0.872727
  1
制御方式
 50
0.000000
 51
0.000000
  7
EASYDRAW_FONT
 72
     5
 11
2815.527344
 21
1310.078857
  0
TEXT
  8
CSLAYER2
 62
     5
 10
2970.514893
 20
1882.789185
 40
40.000000
 41
0.822857
  1
GLI-500-0610
 50
0.000000
 51
0.000000
  7
EASYDRAW_FONT
 72
     5
 11
3354.514893
 21
1882.789185
  0
LINE
  8
CSLAYER1
  6
CONTINUOUS
 62
     5
 10
3394.958729
 20
795.002017
 11
2674.086212
 21
795.002017
  0
TEXT
  8
CSLAYER1
 62
     4
 10
2999.388184
 20
805.673218
 40
40.000000
 41
0.926087
  1
　１０Ｒ４／１３
 50
0.000000
 51
0.000000
  7
EASYDRAW_FONT
 72
     5
 11
3283.388184
 21
805.673218
  0
TEXT
  8
CSLAYER1
 62
     3
 10
2683.828125
 20
1824.360107
 40
40.000000
 41
1.036364
  1
積載荷重
 50
0.000000
 51
0.000000
  7
EASYDRAW_FONT
 72
     5
 11
2835.828125
 21
1824.360107
  0
TEXT
  8
CSLAYER1
 62
     5
 10
2644.437988
 20
2043.658936
 40
40.000000
 41
1.020000
  1
コード長サ２ｍ
 50
360.000000
 51
0.000000
  7
EASYDRAW_FONT
 72
     5
 11
2916.437988
 21
2043.658936
  0
INSERT
  8
CSLAYER1
  2
BLKF0003
 10
0.0
 20
0.0
 30
0.0
  0
ENDSEC
  0
EOF
