  0
SECTION
  2
HEADER
  9
$ACADVER
  1
AC1006
  9
$INSBASE
 10
-915.333876
 20
2486.286645
 30
0.0
  9
$EXTMIN
 10
-915.333876
 20
2486.286645
  9
$EXTMAX
 10
2724.666124
 20
5056.286645
  9
$LIMMIN
 10
-915.333876
 20
2486.286645
  9
$LIMMAX
 10
2724.666124
 20
5056.286645
  9
$VIEWCTR
 10
904.666124
 20
3771.286645
  9
$VIEWSIZE
 40
2570.000000
  9
$SNAPMODE
 70
     0
  9
$SNAPUNIT
 10
1.0
 20
1.0
  9
$SNAPBASE
 10
0.0
 20
0.0
  9
$SNAPANG
 50
0.0
  9
$SNAPSTYLE
 70
     0
  9
$SNAPISOPAIR
 70
     0
  9
$GRIDMODE
 70
     0
  9
$GRIDUNIT
 10
0.0
 20
0.0
  9
$ORTHOMODE
 70
     0
  9
$REGENMODE
 70
     1
  9
$FILLMODE
 70
     1
  9
$QTEXTMODE
 70
     0
  9
$DRAGMODE
 70
     2
  9
$LTSCALE
 40
15.000000
  9
$OSMODE
 70
     0
  9
$ATTMODE
 70
     1
  9
$TEXTSIZE
 40
0.2
  9
$TRACEWID
 40
0.05
  9
$TEXTSTYLE
  7
STANDARD
  9
$CLAYER
  8
CSLAYER1
  9
$CELTYPE
  6
BYLAYER
  9
$CECOLOR
 62
   256
  9
$DIMSCALE
 40
1.0
  9
$DIMASZ
 40
0.18
  9
$DIMEXO
 40
0.0625
  9
$DIMDLI
 40
0.38
  9
$DIMRND
 40
0.0
  9
$DIMDLE
 40
0.0
  9
$DIMEXE
 40
0.18
  9
$DIMTP
 40
0.0
  9
$DIMTM
 40
0.0
  9
$DIMTXT
 40
0.18
  9
$DIMCEN
 40
0.09
  9
$DIMTSZ
 40
0.0
  9
$DIMTOL
 70
     0
  9
$DIMLIM
 70
     0
  9
$DIMTIH
 70
     1
  9
$DIMTOH
 70
     1
  9
$DIMSE1
 70
     0
  9
$DIMSE2
 70
     0
  9
$DIMTAD
 70
     0
  9
$DIMZIN
 70
     0
  9
$DIMBLK
  1

  9
$LUNITS
 70
     2
  9
$LUPREC
 70
     4
  9
$AXISMODE
 70
     0
  9
$AXISUNIT
 10
0.0
 20
0.0
  9
$SKETCHINC
 40
0.1
  9
$FILLETRAD
 40
0.0
  9
$AUNITS
 70
     0
  9
$AUPREC
 70
     0
  9
$MENU
  1
ACAD
  9
$ELEVATION
 40
0.0
  9
$THICKNESS
 40
0.0
  9
$VIEWDIR
 10
0.0
 20
0.0
 30
1.0
  9
$LIMCHECK
 70
     0
  9
$BLIPMODE
 70
     1
  9
$CHAMFERA
 40
0.0
  9
$CHAMFERB
 40
0.0
  9
$FASTZOOM
 70
     1
  9
$SKPOLY
 70
     0
  9
$TDCREATE
 40
2457497.000000
  9
$TDUPDATE
 40
2457497.000000
  9
$TDINDWG
 40
0.0
  9
$TDUSRTIMER
 40
0.0
  9
$USRTIMER
 70
     1
  9
$ANGBASE
 50
0.0
  9
$ANGDIR
 70
     0
  9
$PDMODE
 70
     0
  9
$PDSIZE
 40
0.0
  9
$PLINEWID
 40
0.0
  9
$COORDS
 70
     0
  9
$USERI1
 70
     0
  9
$USERI2
 70
     0
  9
$USERI3
 70
     0
  9
$USERI4
 70
     0
  9
$USERI5
 70
     0
  9
$USERR1
 40
0.0
  9
$USERR2
 40
0.0
  9
$USERR3
 40
0.0
  9
$USERR4
 40
0.0
  9
$USERR5
 40
0.0
  0
ENDSEC
  0
SECTION
  2
TABLES
  0
TABLE
  2
LTYPE
 70
     9
  0
LTYPE
  2
CONTINUOUS
 70
    64
  3
Solid line
 72
    65
 73
     0
 40
0.0
  0
LTYPE
  2
DASHED
 70
    64
  3
__ __ __ __ __ __ __ __ __ __ __ __ __ __ __
 72
    65
 73
     2
 40
0.75
 49
0.5
 49
-0.25
  0
LTYPE
  2
HIDDEN
 70
    64
  3
_ _ _ _ _ _ _ _ _ _ _ _ _ _ _ _ _ _ _ _ _ _ _
 72
    65
 73
     2
 40
0.375
 49
0.25
 49
-0.125
  0
LTYPE
  2
DOT
 70
    64
  3
...............................................
 72
    65
 73
     2
 40
0.25
 49
0.0
 49
-0.25
  0
LTYPE
  2
DASHDOT
 70
    64
  3
__ . __ . __ . __ . __ . __ . __ . __ . __ . __
 72
    65
 73
     4
 40
1.0
 49
0.5
 49
-0.25
 49
0.0
 49
-0.25
  0
LTYPE
  2
DIVIDE
 70
    64
  3
__ . . __ . . __ . . __ . . __ . . __ . . __
 72
    65
 73
     6
 40
1.25
 49
0.5
 49
-0.25
 49
0.0
 49
-0.25
 49
0.0
 49
-0.25
  0
LTYPE
  2
CENTER
 70
    64
  3
____ _ ____ _ ____ _ ____ _ ____ _ ____ _ ____ 
 72
    65
 73
     4
 40
2.0
 49
1.25
 49
-0.25
 49
0.25
 49
-0.25
  0
LTYPE
  2
PHANTOM
 70
    64
  3
______  __  __  ______  __  __  ______  __  __ 
 72
    65
 73
     6
 40
2.5
 49
1.25
 49
-0.25
 49
0.25
 49
-0.25
 49
0.25
 49
-0.25
  0
LTYPE
  2
BORDER
 70
    64
  3
__ __ . __ __ . __ __ . __ __ . __ __ . __ __ .
 72
    65
 73
     6
 40
1.75
 49
0.5
 49
-0.25
 49
0.5
 49
-0.25
 49
0.0
 49
-0.25
  0
ENDTAB
  0
TABLE
  2
LAYER
 70
    16
  0
LAYER
  2
CSLAYER1
 70
    64
 62
     7
  6
CONTINUOUS
  0
LAYER
  2
CSLAYER2
 70
    64
 62
     7
  6
CONTINUOUS
  0
LAYER
  2
CSLAYER3
 70
    64
 62
     7
  6
CONTINUOUS
  0
LAYER
  2
CSLAYER4
 70
    64
 62
     7
  6
CONTINUOUS
  0
LAYER
  2
CSLAYER5
 70
    64
 62
     7
  6
CONTINUOUS
  0
LAYER
  2
CSLAYER6
 70
    64
 62
     7
  6
CONTINUOUS
  0
LAYER
  2
CSLAYER7
 70
    64
 62
     7
  6
CONTINUOUS
  0
LAYER
  2
CSLAYER8
 70
    64
 62
     7
  6
CONTINUOUS
  0
LAYER
  2
CSLAYER9
 70
    64
 62
     7
  6
CONTINUOUS
  0
LAYER
  2
CSLAYER10
 70
    64
 62
     7
  6
CONTINUOUS
  0
LAYER
  2
CSLAYER11
 70
    64
 62
     7
  6
CONTINUOUS
  0
LAYER
  2
CSLAYER12
 70
    64
 62
     7
  6
CONTINUOUS
  0
LAYER
  2
CSLAYER13
 70
    64
 62
     7
  6
CONTINUOUS
  0
LAYER
  2
CSLAYER14
 70
    64
 62
     7
  6
CONTINUOUS
  0
LAYER
  2
CSLAYER15
 70
    64
 62
     7
  6
CONTINUOUS
  0
LAYER
  2
CSLAYER16
 70
    64
 62
     7
  6
CONTINUOUS
  0
ENDTAB
  0
TABLE
  2
STYLE
 70
     1
  0
STYLE
  2
EASYDRAW_FONT
 70
     0
 40
1.0
 41
1.0
 50
0.0
 71
     0
 42
1.0
  3
monotxt
  4
bigfont
  0
ENDTAB
  0
TABLE
  2
VIEW
 70
     0
  0
ENDTAB
  0
ENDSEC
  0
SECTION
  2
BLOCKS
  0
BLOCK
  8
CSLAYER1
  2
*D0000
 70
    65
 10
0.0
 20
0.0
 30
0.0
  0
TEXT
  8
CSLAYER1
 62
     7
 10
2342.400391
 20
405.911530
 40
40.000000
 41
0.843750
  1
155
 50
90.000000
 51
0.000000
  7
EASYDRAW_FONT
 72
     5
 11
2342.400391
 21
495.911530
  0
LINE
  8
CSLAYER1
  6
CONTINUOUS
 62
     5
 10
2193.592110
 20
533.083386
 11
2294.013356
 21
533.083386
  0
LINE
  8
CSLAYER1
  6
CONTINUOUS
 62
     5
 10
2284.013356
 20
378.083386
 11
2284.013356
 21
533.083386
  0
LINE
  8
CSLAYER1
  6
CONTINUOUS
 62
     5
 10
2284.013356
 20
378.083386
 11
2276.248785
 21
407.061161
  0
LINE
  8
CSLAYER1
  6
CONTINUOUS
 62
     5
 10
2284.013356
 20
378.083386
 11
2291.777927
 21
407.061161
  0
LINE
  8
CSLAYER1
  6
CONTINUOUS
 62
     5
 10
2284.013356
 20
533.083386
 11
2276.248785
 21
504.105611
  0
LINE
  8
CSLAYER1
  6
CONTINUOUS
 62
     5
 10
2284.013356
 20
533.083386
 11
2291.777927
 21
504.105611
  0
ENDBLK
  8
0
  0
BLOCK
  8
CSLAYER1
  2
*D0001
 70
    65
 10
0.0
 20
0.0
 30
0.0
  0
TEXT
  8
CSLAYER1
 62
     7
 10
2274.013184
 20
930.918884
 40
40.000000
 41
0.843750
  1
860
 50
90.000000
 51
0.000000
  7
EASYDRAW_FONT
 72
     5
 11
2274.013184
 21
1020.918884
  0
LINE
  8
CSLAYER1
  6
CONTINUOUS
 62
     5
 10
2284.013356
 20
533.083386
 11
2284.013356
 21
1418.754615
  0
LINE
  8
CSLAYER1
  6
CONTINUOUS
 62
     5
 10
2284.013356
 20
533.083386
 11
2276.248785
 21
562.061161
  0
LINE
  8
CSLAYER1
  6
CONTINUOUS
 62
     5
 10
2284.013356
 20
533.083386
 11
2291.777927
 21
562.061161
  0
LINE
  8
CSLAYER1
  6
CONTINUOUS
 62
     5
 10
2284.013356
 20
1418.754615
 11
2276.248785
 21
1389.776840
  0
LINE
  8
CSLAYER1
  6
CONTINUOUS
 62
     5
 10
2284.013356
 20
1418.754615
 11
2291.777927
 21
1389.776840
  0
ENDBLK
  8
0
  0
BLOCK
  8
CSLAYER1
  2
*D0002
 70
    65
 10
0.0
 20
0.0
 30
0.0
  0
TEXT
  8
CSLAYER1
 62
     7
 10
2373.592041
 20
838.418823
 40
40.000000
 41
0.818182
  1
1015
 50
90.000000
 51
0.000000
  7
EASYDRAW_FONT
 72
     5
 11
2373.592041
 21
958.418823
  0
LINE
  8
CSLAYER1
  6
CONTINUOUS
 62
     5
 10
2190.592110
 20
1418.754615
 11
2393.592110
 21
1418.754615
  0
LINE
  8
CSLAYER1
  6
CONTINUOUS
 62
     5
 10
2383.592110
 20
378.083386
 11
2383.592110
 21
1418.754615
  0
LINE
  8
CSLAYER1
  6
CONTINUOUS
 62
     5
 10
2383.592110
 20
378.083386
 11
2375.827538
 21
407.061161
  0
LINE
  8
CSLAYER1
  6
CONTINUOUS
 62
     5
 10
2383.592110
 20
378.083386
 11
2391.356681
 21
407.061161
  0
LINE
  8
CSLAYER1
  6
CONTINUOUS
 62
     5
 10
2383.592110
 20
1418.754615
 11
2375.827538
 21
1389.776840
  0
LINE
  8
CSLAYER1
  6
CONTINUOUS
 62
     5
 10
2383.592110
 20
1418.754615
 11
2391.356681
 21
1389.776840
  0
ENDBLK
  8
0
  0
BLOCK
  8
CSLAYER1
  2
*D0003
 70
    65
 10
0.0
 20
0.0
 30
0.0
  0
TEXT
  8
CSLAYER1
 62
     7
 10
1523.592041
 20
1523.312500
 40
40.000000
 41
0.818182
  1
1200
 50
0.000000
 51
0.000000
  7
EASYDRAW_FONT
 72
     5
 11
1643.592041
 21
1523.312500
  0
LINE
  8
CSLAYER1
  6
CONTINUOUS
 62
     5
 10
983.592110
 20
1425.754615
 11
983.592110
 21
1523.312739
  0
LINE
  8
CSLAYER1
  6
CONTINUOUS
 62
     5
 10
2183.592110
 20
1425.754615
 11
2183.592110
 21
1523.312739
  0
LINE
  8
CSLAYER1
  6
CONTINUOUS
 62
     5
 10
983.592110
 20
1513.312739
 11
2183.592110
 21
1513.312739
  0
LINE
  8
CSLAYER1
  6
CONTINUOUS
 62
     5
 10
983.592110
 20
1513.312739
 11
1012.569885
 21
1521.077311
  0
LINE
  8
CSLAYER1
  6
CONTINUOUS
 62
     5
 10
983.592110
 20
1513.312739
 11
1012.569885
 21
1505.548168
  0
LINE
  8
CSLAYER1
  6
CONTINUOUS
 62
     5
 10
2183.592110
 20
1513.312739
 11
2154.614335
 21
1521.077311
  0
LINE
  8
CSLAYER1
  6
CONTINUOUS
 62
     5
 10
2183.592110
 20
1513.312739
 11
2154.614335
 21
1505.548168
  0
ENDBLK
  8
0
  0
BLOCK
  8
CSLAYER1
  2
*D0004
 70
    65
 10
0.0
 20
0.0
 30
0.0
  0
TEXT
  8
CSLAYER1
 62
     7
 10
1523.592041
 20
289.770935
 40
40.000000
 41
0.818182
  1
1200
 50
0.000000
 51
0.000000
  7
EASYDRAW_FONT
 72
     5
 11
1643.592041
 21
289.770935
  0
LINE
  8
CSLAYER1
  6
CONTINUOUS
 62
     5
 10
983.592110
 20
368.083386
 11
983.592110
 21
269.770953
  0
LINE
  8
CSLAYER1
  6
CONTINUOUS
 62
     5
 10
2183.592110
 20
368.083386
 11
2183.592110
 21
269.770953
  0
LINE
  8
CSLAYER1
  6
CONTINUOUS
 62
     5
 10
983.592110
 20
279.770953
 11
2183.592110
 21
279.770953
  0
LINE
  8
CSLAYER1
  6
CONTINUOUS
 62
     5
 10
983.592110
 20
279.770953
 11
1012.569885
 21
287.535524
  0
LINE
  8
CSLAYER1
  6
CONTINUOUS
 62
     5
 10
983.592110
 20
279.770953
 11
1012.569885
 21
272.006382
  0
LINE
  8
CSLAYER1
  6
CONTINUOUS
 62
     5
 10
2183.592110
 20
279.770953
 11
2154.614335
 21
287.535524
  0
LINE
  8
CSLAYER1
  6
CONTINUOUS
 62
     5
 10
2183.592110
 20
279.770953
 11
2154.614335
 21
272.006382
  0
ENDBLK
  8
0
  0
BLOCK
  8
CSLAYER1
  2
*D0005
 70
    65
 10
0.0
 20
0.0
 30
0.0
  0
TEXT
  8
CSLAYER1
 62
     7
 10
438.592133
 20
289.770935
 40
40.000000
 41
0.843750
  1
500
 50
0.000000
 51
0.000000
  7
EASYDRAW_FONT
 72
     5
 11
528.592133
 21
289.770935
  0
LINE
  8
CSLAYER1
  6
CONTINUOUS
 62
     5
 10
233.592110
 20
368.083386
 11
233.592110
 21
269.770953
  0
LINE
  8
CSLAYER1
  6
CONTINUOUS
 62
     5
 10
733.592110
 20
368.083386
 11
733.592110
 21
269.770953
  0
LINE
  8
CSLAYER1
  6
CONTINUOUS
 62
     5
 10
233.592110
 20
279.770953
 11
733.592110
 21
279.770953
  0
LINE
  8
CSLAYER1
  6
CONTINUOUS
 62
     5
 10
233.592110
 20
279.770953
 11
262.569885
 21
287.535524
  0
LINE
  8
CSLAYER1
  6
CONTINUOUS
 62
     5
 10
233.592110
 20
279.770953
 11
262.569885
 21
272.006382
  0
LINE
  8
CSLAYER1
  6
CONTINUOUS
 62
     5
 10
733.592110
 20
279.770953
 11
704.614335
 21
287.535524
  0
LINE
  8
CSLAYER1
  6
CONTINUOUS
 62
     5
 10
733.592110
 20
279.770953
 11
704.614335
 21
272.006382
  0
ENDBLK
  8
0
  0
BLOCK
  8
CSLAYER1
  2
*D0006
 70
    65
 10
0.0
 20
0.0
 30
0.0
  0
TEXT
  8
CSLAYER1
 62
     7
 10
864.996887
 20
1885.724487
 40
40.000000
 41
0.843750
  1
500
 50
90.000000
 51
0.000000
  7
EASYDRAW_FONT
 72
     5
 11
864.996887
 21
1975.724487
  0
LINE
  8
CSLAYER1
  6
CONTINUOUS
 62
     5
 10
973.592110
 20
1680.724699
 11
864.997006
 21
1680.724699
  0
LINE
  8
CSLAYER1
  6
CONTINUOUS
 62
     5
 10
973.592110
 20
2180.724699
 11
864.997006
 21
2180.724699
  0
LINE
  8
CSLAYER1
  6
CONTINUOUS
 62
     5
 10
874.997006
 20
1680.724699
 11
874.997006
 21
2180.724699
  0
LINE
  8
CSLAYER1
  6
CONTINUOUS
 62
     5
 10
874.997006
 20
1680.724699
 11
867.232435
 21
1709.702474
  0
LINE
  8
CSLAYER1
  6
CONTINUOUS
 62
     5
 10
874.997006
 20
1680.724699
 11
882.761578
 21
1709.702474
  0
LINE
  8
CSLAYER1
  6
CONTINUOUS
 62
     5
 10
874.997006
 20
2180.724699
 11
867.232435
 21
2151.746924
  0
LINE
  8
CSLAYER1
  6
CONTINUOUS
 62
     5
 10
874.997006
 20
2180.724699
 11
882.761578
 21
2151.746924
  0
ENDBLK
  8
0
  0
BLOCK
  8
CSLAYER1
  2
BLKF0000
 70
   64
 10
0.0
 20
0.0
 30
0.0
  0
ARC
  8
CSLAYER1
  6
CONTINUOUS
 62
     5
 10
2781.909508
 20
79.335220
 40
3.549225
 50
6.429109
 51
73.182034
  0
ARC
  8
CSLAYER1
  6
CONTINUOUS
 62
     5
 10
2778.448538
 20
78.176827
 40
6.907754
 50
310.517970
 51
330.092764
  0
ARC
  8
CSLAYER1
  6
CONTINUOUS
 62
     5
 10
2778.387888
 20
78.542345
 40
7.148321
 50
-32.205059
 51
9.585194
  0
ARC
  8
CSLAYER1
  6
CONTINUOUS
 62
     5
 10
2781.680616
 20
75.781346
 40
4.767514
 50
180.000000
 51
218.514150
  0
ARC
  8
CSLAYER1
  6
CONTINUOUS
 62
     5
 10
2780.393895
 20
75.104206
 40
3.348282
 50
222.781148
 51
319.406906
  0
ARC
  8
CSLAYER1
  6
CONTINUOUS
 62
     5
 10
2783.459537
 20
76.194099
 40
6.559434
 50
94.574282
 51
183.607718
  0
LINE
  8
CSLAYER1
  6
CONTINUOUS
 62
     5
 10
2796.903443
 20
71.077266
 11
2796.046407
 21
68.038683
  0
LINE
  8
CSLAYER1
  6
CONTINUOUS
 62
     5
 10
2798.695428
 20
90.944924
 11
2796.591794
 21
93.671857
  0
LINE
  8
CSLAYER1
  6
CONTINUOUS
 62
     5
 10
2796.591794
 20
93.671857
 11
2789.838440
 21
97.429769
  0
LINE
  8
CSLAYER1
  6
CONTINUOUS
 62
     5
 10
2789.838440
 20
97.429769
 11
2782.936412
 21
98.232640
  0
LINE
  8
CSLAYER1
  6
CONTINUOUS
 62
     5
 10
2764.647187
 20
84.853966
 11
2766.793881
 21
89.818197
  0
LINE
  8
CSLAYER1
  6
CONTINUOUS
 62
     5
 10
2766.756884
 20
89.732640
 11
2768.940576
 21
92.367396
  0
LINE
  8
CSLAYER1
  6
CONTINUOUS
 62
     5
 10
2768.940576
 20
92.367396
 11
2772.244998
 21
94.732640
  0
LINE
  8
CSLAYER1
  6
CONTINUOUS
 62
     5
 10
2782.936412
 20
98.232640
 11
2781.418237
 21
97.465795
  0
LINE
  8
CSLAYER1
  6
CONTINUOUS
 62
     5
 10
2781.418237
 20
97.465795
 11
2777.929858
 21
97.465795
  0
LINE
  8
CSLAYER1
  6
CONTINUOUS
 62
     5
 10
2777.929858
 20
97.465795
 11
2774.374396
 21
95.520354
  0
LINE
  8
CSLAYER1
  6
CONTINUOUS
 62
     5
 10
2774.374396
 20
95.520354
 11
2772.244998
 21
94.732640
  0
LINE
  8
CSLAYER1
  6
CONTINUOUS
 62
     5
 10
2764.647187
 20
84.853966
 11
2763.129640
 21
77.305363
  0
LINE
  8
CSLAYER1
  6
CONTINUOUS
 62
     5
 10
2763.129640
 20
77.305363
 11
2762.936412
 21
74.732640
  0
LINE
  8
CSLAYER1
  6
CONTINUOUS
 62
     5
 10
2765.645795
 20
66.892857
 11
2762.936412
 21
72.988969
  0
LINE
  8
CSLAYER1
  6
CONTINUOUS
 62
     5
 10
2762.936412
 20
72.988969
 11
2762.936412
 21
74.732640
  0
LINE
  8
CSLAYER1
  6
CONTINUOUS
 62
     5
 10
2796.046407
 20
68.038683
 11
2794.360620
 21
65.035677
  0
LINE
  8
CSLAYER1
  6
CONTINUOUS
 62
     5
 10
2794.360620
 20
65.035677
 11
2792.936412
 21
63.716966
  0
ARC
  8
CSLAYER1
  6
CONTINUOUS
 62
     5
 10
2780.744468
 20
75.269400
 40
17.266626
 50
208.054813
 51
260.640470
  0
ARC
  8
CSLAYER1
  6
CONTINUOUS
 62
     5
 10
2775.551072
 20
88.011870
 40
29.874611
 50
274.579659
 51
305.587364
  0
ARC
  8
CSLAYER1
  6
CONTINUOUS
 62
     5
 10
2786.523421
 20
82.028147
 40
15.088627
 50
313.467013
 51
331.085078
  0
LINE
  8
CSLAYER1
  6
CONTINUOUS
 62
     5
 10
2801.314754
 20
78.246061
 11
2801.612048
 21
82.028147
  0
LINE
  8
CSLAYER1
  6
CONTINUOUS
 62
     5
 10
2801.612048
 20
82.028147
 11
2800.320051
 21
88.137130
  0
LINE
  8
CSLAYER1
  6
CONTINUOUS
 62
     5
 10
2801.314754
 20
78.246061
 11
2799.731079
 21
74.732640
  0
ARC
  8
CSLAYER1
  6
CONTINUOUS
 62
     5
 10
2786.523421
 20
82.028147
 40
15.088627
 50
23.883193
 51
36.225170
  0
LINE
  8
CSLAYER1
  6
CONTINUOUS
 62
     5
 10
2746.936412
 20
109.732640
 11
2747.936412
 21
110.825284
  0
LINE
  8
CSLAYER1
  6
CONTINUOUS
 62
     5
 10
2746.936412
 20
109.732640
 11
2748.513370
 21
108.287607
  0
LINE
  8
CSLAYER1
  6
CONTINUOUS
 62
     5
 10
2750.052583
 20
106.178315
 11
2750.078851
 21
104.010196
  0
LINE
  8
CSLAYER1
  6
CONTINUOUS
 62
     5
 10
2750.078851
 20
104.010196
 11
2750.286249
 21
103.249737
  0
LINE
  8
CSLAYER1
  6
CONTINUOUS
 62
     5
 10
2750.286249
 20
103.249737
 11
2750.873877
 21
102.523844
  0
LINE
  8
CSLAYER1
  6
CONTINUOUS
 62
     5
 10
2750.873877
 20
102.523844
 11
2751.461504
 21
102.592977
  0
LINE
  8
CSLAYER1
  6
CONTINUOUS
 62
     5
 10
2751.461504
 20
102.592977
 11
2752.083698
 21
102.765808
  0
LINE
  8
CSLAYER1
  6
CONTINUOUS
 62
     5
 10
2752.083698
 20
102.765808
 11
2752.498494
 21
102.592977
  0
LINE
  8
CSLAYER1
  6
CONTINUOUS
 62
     5
 10
2752.498494
 20
102.592977
 11
2753.397219
 21
102.143614
  0
LINE
  8
CSLAYER1
  6
CONTINUOUS
 62
     5
 10
2753.397219
 20
102.143614
 11
2754.173270
 21
101.732640
  0
LINE
  8
CSLAYER1
  6
CONTINUOUS
 62
     5
 10
2754.173270
 20
101.732640
 11
2754.676173
 21
101.763385
  0
LINE
  8
CSLAYER1
  6
CONTINUOUS
 62
     5
 10
2754.676173
 20
101.763385
 11
2757.484045
 21
103.209864
  0
LINE
  8
CSLAYER1
  6
CONTINUOUS
 62
     5
 10
2747.936412
 20
110.825284
 11
2748.269264
 21
112.298991
  0
LINE
  8
CSLAYER1
  6
CONTINUOUS
 62
     5
 10
2748.269264
 20
112.298991
 11
2749.722669
 21
112.449344
  0
LINE
  8
CSLAYER1
  6
CONTINUOUS
 62
     5
 10
2751.216428
 20
115.217802
 11
2752.970601
 21
115.374892
  0
LINE
  8
CSLAYER1
  6
CONTINUOUS
 62
     5
 10
2752.970601
 20
115.374892
 11
2756.505128
 21
116.212706
  0
LINE
  8
CSLAYER1
  6
CONTINUOUS
 62
     5
 10
2756.505128
 20
116.212706
 11
2757.936412
 21
116.544345
  0
LINE
  8
CSLAYER1
  6
CONTINUOUS
 62
     5
 10
2751.216428
 20
115.217802
 11
2749.283537
 21
115.376670
  0
LINE
  8
CSLAYER1
  6
CONTINUOUS
 62
     5
 10
2748.547414
 20
114.507983
 11
2748.640939
 21
114.136822
  0
LINE
  8
CSLAYER1
  6
CONTINUOUS
 62
     5
 10
2748.640939
 20
114.136822
 11
2749.132533
 21
113.599141
  0
LINE
  8
CSLAYER1
  6
CONTINUOUS
 62
     5
 10
2749.132533
 20
113.599141
 11
2749.808475
 21
113.092184
  0
LINE
  8
CSLAYER1
  6
CONTINUOUS
 62
     5
 10
2749.808475
 20
113.092184
 11
2749.931800
 21
112.927751
  0
LINE
  8
CSLAYER1
  6
CONTINUOUS
 62
     5
 10
2748.513370
 20
108.287607
 11
2750.052583
 21
106.178315
  0
ARC
  8
CSLAYER1
  6
CONTINUOUS
 62
     5
 10
2792.923113
 20
-61.926013
 40
180.727463
 50
80.438896
 51
96.353582
  0
ARC
  8
CSLAYER1
  6
CONTINUOUS
 62
     5
 10
2768.024200
 20
83.321887
 40
34.720242
 50
81.866516
 51
106.890578
  0
LINE
  8
CSLAYER1
  6
CONTINUOUS
 62
     5
 10
2827.130674
 20
115.499310
 11
2829.377756
 21
114.477909
  0
LINE
  8
CSLAYER1
  6
CONTINUOUS
 62
     5
 10
2832.952661
 20
112.894737
 11
2829.377756
 21
114.477909
  0
LINE
  8
CSLAYER1
  6
CONTINUOUS
 62
     5
 10
2827.130674
 20
115.499310
 11
2822.936412
 21
116.291881
  0
LINE
  8
CSLAYER1
  6
CONTINUOUS
 62
     5
 10
2832.936412
 20
112.901933
 11
2834.807988
 21
111.333456
  0
LINE
  8
CSLAYER1
  6
CONTINUOUS
 62
     5
 10
2816.179668
 20
113.938783
 11
2817.078943
 21
115.391458
  0
LINE
  8
CSLAYER1
  6
CONTINUOUS
 62
     5
 10
2817.078943
 20
115.391458
 11
2821.754542
 21
114.271949
  0
LINE
  8
CSLAYER1
  6
CONTINUOUS
 62
     5
 10
2821.754542
 20
114.271949
 11
2838.496928
 21
109.732640
  0
LINE
  8
CSLAYER1
  6
CONTINUOUS
 62
     5
 10
2841.436412
 20
109.732640
 11
2834.807988
 21
111.333456
  0
LINE
  8
CSLAYER1
  6
CONTINUOUS
 62
     5
 10
2838.496928
 20
109.732640
 11
2841.436412
 21
109.732640
  0
LINE
  8
CSLAYER1
  6
CONTINUOUS
 62
     5
 10
2782.936412
 20
114.197581
 11
2802.936412
 21
114.732640
  0
LINE
  8
CSLAYER1
  6
CONTINUOUS
 62
     5
 10
2802.936412
 20
114.732640
 11
2816.179668
 21
113.938783
  0
LINE
  8
CSLAYER1
  6
CONTINUOUS
 62
     5
 10
2817.782649
 20
111.878304
 11
2802.936412
 21
113.232640
  0
LINE
  8
CSLAYER1
  6
CONTINUOUS
 62
     5
 10
2802.936412
 20
113.232640
 11
2787.887203
 21
113.641292
  0
LINE
  8
CSLAYER1
  6
CONTINUOUS
 62
     5
 10
2787.936412
 20
113.639956
 11
2782.936412
 21
113.735249
  0
LINE
  8
CSLAYER1
  6
CONTINUOUS
 62
     5
 10
2782.936412
 20
114.197581
 11
2782.936412
 21
113.735249
  0
LINE
  8
CSLAYER1
  6
CONTINUOUS
 62
     5
 10
2840.436412
 20
106.232640
 11
2831.593854
 21
108.543302
  0
LINE
  8
CSLAYER1
  6
CONTINUOUS
 62
     5
 10
2817.782649
 20
111.878304
 11
2827.936412
 21
109.905920
  0
LINE
  8
CSLAYER1
  6
CONTINUOUS
 62
     5
 10
2827.936412
 20
109.905920
 11
2831.593854
 21
108.543302
  0
LINE
  8
CSLAYER1
  6
CONTINUOUS
 62
     5
 10
2840.436412
 20
106.232640
 11
2840.143795
 21
105.393534
  0
LINE
  8
CSLAYER1
  6
CONTINUOUS
 62
     5
 10
2849.936412
 20
100.732640
 11
2849.630385
 21
101.961621
  0
LINE
  8
CSLAYER1
  6
CONTINUOUS
 62
     5
 10
2840.143795
 20
105.393534
 11
2849.630385
 21
101.961621
  0
LINE
  8
CSLAYER1
  6
CONTINUOUS
 62
     5
 10
2786.436412
 20
106.232640
 11
2788.859450
 21
106.232640
  0
LINE
  8
CSLAYER1
  6
CONTINUOUS
 62
     5
 10
2808.936412
 20
106.665135
 11
2808.936412
 21
106.232640
  0
LINE
  8
CSLAYER1
  6
CONTINUOUS
 62
     5
 10
2807.936412
 20
107.199576
 11
2806.225133
 21
107.836755
  0
LINE
  8
CSLAYER1
  6
CONTINUOUS
 62
     5
 10
2806.225133
 20
107.836755
 11
2805.115077
 21
107.887212
  0
LINE
  8
CSLAYER1
  6
CONTINUOUS
 62
     5
 10
2805.115077
 20
107.887212
 11
2804.635735
 21
107.634926
  0
LINE
  8
CSLAYER1
  6
CONTINUOUS
 62
     5
 10
2804.635735
 20
107.634926
 11
2804.534821
 21
107.231270
  0
LINE
  8
CSLAYER1
  6
CONTINUOUS
 62
     5
 10
2804.534821
 20
107.231270
 11
2804.988934
 21
106.928527
  0
LINE
  8
CSLAYER1
  6
CONTINUOUS
 62
     5
 10
2804.988934
 20
106.928527
 11
2806.628790
 21
106.777156
  0
LINE
  8
CSLAYER1
  6
CONTINUOUS
 62
     5
 10
2806.628790
 20
106.777156
 11
2808.936412
 21
106.665135
  0
LINE
  8
CSLAYER1
  6
CONTINUOUS
 62
     5
 10
2849.936412
 20
100.732640
 11
2846.960870
 21
101.919221
  0
LINE
  8
CSLAYER1
  6
CONTINUOUS
 62
     5
 10
2846.960870
 20
101.919221
 11
2836.905180
 21
103.762097
  0
LINE
  8
CSLAYER1
  6
CONTINUOUS
 62
     5
 10
2836.905180
 20
103.762097
 11
2831.879400
 21
104.921892
  0
LINE
  8
CSLAYER1
  6
CONTINUOUS
 62
     5
 10
2809.470633
 20
107.232640
 11
2821.236299
 21
107.232640
  0
LINE
  8
CSLAYER1
  6
CONTINUOUS
 62
     5
 10
2807.936412
 20
107.199576
 11
2808.461072
 21
106.891109
  0
LINE
  8
CSLAYER1
  6
CONTINUOUS
 62
     5
 10
2808.461072
 20
106.891109
 11
2808.757884
 21
106.802065
  0
LINE
  8
CSLAYER1
  6
CONTINUOUS
 62
     5
 10
2808.757884
 20
106.802065
 11
2808.936412
 21
106.827236
  0
LINE
  8
CSLAYER1
  6
CONTINUOUS
 62
     5
 10
2808.936412
 20
106.827236
 11
2809.470633
 21
107.232640
  0
LINE
  8
CSLAYER1
  6
CONTINUOUS
 62
     5
 10
2821.236299
 20
107.232640
 11
2825.686568
 21
106.203814
  0
LINE
  8
CSLAYER1
  6
CONTINUOUS
 62
     5
 10
2825.686568
 20
106.203814
 11
2829.839760
 21
105.038665
  0
LINE
  8
CSLAYER1
  6
CONTINUOUS
 62
     5
 10
2829.839760
 20
105.038665
 11
2831.879400
 21
104.921892
  0
LINE
  8
CSLAYER1
  6
CONTINUOUS
 62
     5
 10
2785.436412
 20
105.232640
 11
2785.436412
 21
104.732640
  0
LINE
  8
CSLAYER1
  6
CONTINUOUS
 62
     5
 10
2782.936412
 20
104.732640
 11
2785.436412
 21
104.732640
  0
ARC
  8
CSLAYER1
  6
CONTINUOUS
 62
     5
 10
2786.436412
 20
105.232640
 40
1.000000
 50
90.000000
 51
180.000000
  0
LINE
  8
CSLAYER1
  6
CONTINUOUS
 62
     5
 10
2788.859450
 20
106.232640
 11
2789.557007
 21
105.660643
  0
LINE
  8
CSLAYER1
  6
CONTINUOUS
 62
     5
 10
2790.159375
 20
105.636683
 11
2791.016972
 21
106.232640
  0
LINE
  8
CSLAYER1
  6
CONTINUOUS
 62
     5
 10
2792.595368
 20
106.232640
 11
2794.262494
 21
105.574564
  0
LINE
  8
CSLAYER1
  6
CONTINUOUS
 62
     5
 10
2794.686203
 20
105.601076
 11
2795.839690
 21
106.232640
  0
LINE
  8
CSLAYER1
  6
CONTINUOUS
 62
     5
 10
2791.016972
 20
106.232640
 11
2792.595368
 21
106.232640
  0
LINE
  8
CSLAYER1
  6
CONTINUOUS
 62
     5
 10
2795.839690
 20
106.232640
 11
2808.936412
 21
106.232640
  0
LINE
  8
CSLAYER1
  6
CONTINUOUS
 62
     5
 10
2761.485395
 20
103.123813
 11
2782.936412
 21
104.732640
  0
LINE
  8
CSLAYER1
  6
CONTINUOUS
 62
     5
 10
2757.484045
 20
103.209864
 11
2761.485395
 21
103.123813
  0
ARC
  8
CSLAYER1
  6
CONTINUOUS
 62
     5
 10
2789.874047
 20
106.047277
 40
0.500000
 50
230.648247
 51
304.796026
  0
ARC
  8
CSLAYER1
  6
CONTINUOUS
 62
     5
 10
2794.446077
 20
106.039642
 40
0.500000
 50
248.459024
 51
298.701829
  0
ARC
  8
CSLAYER1
  6
CONTINUOUS
 62
     5
 10
2749.691800
 20
112.747751
 40
0.300000
 50
-84.093859
 51
36.869898
  0
ARC
  8
CSLAYER1
  6
CONTINUOUS
 62
     5
 10
2749.226196
 20
114.679023
 40
0.700000
 50
85.301319
 51
194.142980
  0
LINE
  8
CSLAYER1
  6
CONTINUOUS
 62
     3
 10
2781.418237
 20
97.465795
 11
2789.528732
 21
97.465795
  0
LINE
  8
CSLAYER1
  6
CONTINUOUS
 62
     3
 10
2775.005720
 20
95.865795
 11
2792.649061
 21
95.865795
  0
LINE
  8
CSLAYER1
  6
CONTINUOUS
 62
     3
 10
2771.592781
 20
94.265795
 11
2795.524426
 21
94.265795
  0
LINE
  8
CSLAYER1
  6
CONTINUOUS
 62
     3
 10
2769.357462
 20
92.665795
 11
2797.367899
 21
92.665795
  0
LINE
  8
CSLAYER1
  6
CONTINUOUS
 62
     3
 10
2767.861806
 20
91.065795
 11
2798.602184
 21
91.065795
  0
LINE
  8
CSLAYER1
  6
CONTINUOUS
 62
     3
 10
2766.641492
 20
89.465795
 11
2799.651561
 21
89.465795
  0
LINE
  8
CSLAYER1
  6
CONTINUOUS
 62
     3
 10
2765.949600
 20
87.865795
 11
2800.377436
 21
87.865795
  0
LINE
  8
CSLAYER1
  6
CONTINUOUS
 62
     3
 10
2765.257708
 20
86.265795
 11
2800.715822
 21
86.265795
  0
LINE
  8
CSLAYER1
  6
CONTINUOUS
 62
     3
 10
2764.609358
 20
84.665795
 11
2801.054208
 21
84.665795
  0
LINE
  8
CSLAYER1
  6
CONTINUOUS
 62
     3
 10
2764.287699
 20
83.065795
 11
2801.392594
 21
83.065795
  0
LINE
  8
CSLAYER1
  6
CONTINUOUS
 62
     3
 10
2763.966040
 20
81.465795
 11
2779.556283
 21
81.465795
  0
LINE
  8
CSLAYER1
  6
CONTINUOUS
 62
     3
 10
2763.644381
 20
79.865795
 11
2778.024022
 21
79.865795
  0
LINE
  8
CSLAYER1
  6
CONTINUOUS
 62
     3
 10
2763.322722
 20
78.265795
 11
2777.235852
 21
78.265795
  0
LINE
  8
CSLAYER1
  6
CONTINUOUS
 62
     3
 10
2763.081604
 20
76.665795
 11
2776.917085
 21
76.665795
  0
LINE
  8
CSLAYER1
  6
CONTINUOUS
 62
     3
 10
2762.961434
 20
75.065795
 11
2776.967106
 21
75.065795
  0
LINE
  8
CSLAYER1
  6
CONTINUOUS
 62
     3
 10
2762.936412
 20
73.465795
 11
2777.513193
 21
73.465795
  0
LINE
  8
CSLAYER1
  6
CONTINUOUS
 62
     3
 10
2763.435600
 20
71.865795
 11
2779.543195
 21
71.865795
  0
LINE
  8
CSLAYER1
  6
CONTINUOUS
 62
     3
 10
2764.146711
 20
70.265795
 11
2796.674567
 21
70.265795
  0
LINE
  8
CSLAYER1
  6
CONTINUOUS
 62
     3
 10
2764.857823
 20
68.665795
 11
2796.223285
 21
68.665795
  0
LINE
  8
CSLAYER1
  6
CONTINUOUS
 62
     3
 10
2765.568934
 20
67.065795
 11
2795.500261
 21
67.065795
  0
LINE
  8
CSLAYER1
  6
CONTINUOUS
 62
     3
 10
2766.530893
 20
65.465795
 11
2794.602074
 21
65.465795
  0
LINE
  8
CSLAYER1
  6
CONTINUOUS
 62
     3
 10
2767.779354
 20
63.865795
 11
2793.097148
 21
63.865795
  0
LINE
  8
CSLAYER1
  6
CONTINUOUS
 62
     3
 10
2769.384774
 20
62.265795
 11
2790.704687
 21
62.265795
  0
LINE
  8
CSLAYER1
  6
CONTINUOUS
 62
     3
 10
2771.531916
 20
60.665795
 11
2787.579564
 21
60.665795
  0
LINE
  8
CSLAYER1
  6
CONTINUOUS
 62
     3
 10
2774.779606
 20
59.065795
 11
2782.941415
 21
59.065795
  0
LINE
  8
CSLAYER1
  6
CONTINUOUS
 62
     3
 10
2784.748107
 20
81.465795
 11
2801.567844
 21
81.465795
  0
LINE
  8
CSLAYER1
  6
CONTINUOUS
 62
     3
 10
2785.418851
 20
79.865795
 11
2801.442074
 21
79.865795
  0
LINE
  8
CSLAYER1
  6
CONTINUOUS
 62
     3
 10
2785.530858
 20
78.265795
 11
2801.316305
 21
78.265795
  0
LINE
  8
CSLAYER1
  6
CONTINUOUS
 62
     3
 10
2785.285501
 20
76.665795
 11
2800.602449
 21
76.665795
  0
LINE
  8
CSLAYER1
  6
CONTINUOUS
 62
     3
 10
2784.633855
 20
75.065795
 11
2799.881249
 21
75.065795
  0
LINE
  8
CSLAYER1
  6
CONTINUOUS
 62
     3
 10
2783.500592
 20
73.465795
 11
2798.947301
 21
73.465795
  0
LINE
  8
CSLAYER1
  6
CONTINUOUS
 62
     3
 10
2781.244595
 20
71.865795
 11
2797.676594
 21
71.865795
  0
TEXT
  8
CSLAYER1
 62
     5
 10
2802.108183
 20
79.476970
 40
4.713448
 41
1.951056
  1
M
 50
0.000000
 51
0.000000
  7
EASYDRAW_FONT
 72
     5
 11
2808.238985
 21
79.476970
  0
TEXT
  8
CSLAYER1
 62
     5
 10
2811.759570
 20
79.418700
 40
4.626621
 41
0.778201
  1
T
 50
0.000000
 51
0.000000
  7
EASYDRAW_FONT
 72
     5
 11
2814.159863
 21
79.418700
  0
TEXT
  8
CSLAYER1
 62
     5
 10
2814.525133
 20
79.453499
 40
4.696183
 41
1.055553
  1
E
 50
0.000000
 51
0.000000
  7
EASYDRAW_FONT
 72
     5
 11
2817.829848
 21
79.453499
  0
TEXT
  8
CSLAYER1
 62
     5
 10
2817.641314
 20
81.069343
 40
0.348283
 41
9.375319
  1
-
 50
0.000000
 51
0.000000
  7
EASYDRAW_FONT
 72
     5
 11
2819.818159
 21
81.069343
  0
TEXT
  8
CSLAYER1
 62
     5
 10
2819.455523
 20
79.422152
 40
4.861659
 41
1.298502
  1
H
 50
0.000000
 51
0.000000
  7
EASYDRAW_FONT
 72
     5
 11
2823.664106
 21
79.422152
  0
TEXT
  8
CSLAYER1
 62
     5
 10
2823.531538
 20
79.452530
 40
4.843139
 41
1.269236
  1
A
 50
0.000000
 51
0.000000
  7
EASYDRAW_FONT
 72
     5
 11
2827.629595
 21
79.452530
  0
TEXT
  8
CSLAYER1
 62
     5
 10
2827.237694
 20
79.411004
 40
4.825362
 41
1.490144
  1
N
 50
0.000000
 51
0.000000
  7
EASYDRAW_FONT
 72
     5
 11
2832.031349
 21
79.411004
  0
TEXT
  8
CSLAYER1
 62
     5
 10
2808.029152
 20
79.388431
 40
4.982325
 41
1.177443
  1
A
 50
0.000000
 51
0.000000
  7
EASYDRAW_FONT
 72
     5
 11
2811.940086
 21
79.388431
  0
TEXT
  8
CSLAYER1
 62
     5
 10
2802.475197
 20
72.393191
 40
4.982325
 41
1.177443
  1
A
 50
0.000000
 51
0.000000
  7
EASYDRAW_FONT
 72
     5
 11
2806.386131
 21
72.393191
  0
TEXT
  8
CSLAYER1
 62
     5
 10
2815.259621
 20
72.421512
 40
4.982325
 41
1.177443
  1
A
 50
0.000000
 51
0.000000
  7
EASYDRAW_FONT
 72
     5
 11
2819.170555
 21
72.421512
  0
TEXT
  8
CSLAYER1
 62
     5
 10
2819.020165
 20
72.478509
 40
4.825362
 41
1.490144
  1
N
 50
0.000000
 51
0.000000
  7
EASYDRAW_FONT
 72
     5
 11
2823.813819
 21
72.478509
  0
TEXT
  8
CSLAYER1
 62
     5
 10
2827.922501
 20
72.486903
 40
4.841775
 41
1.184218
  1
E
 50
0.000000
 51
0.000000
  7
EASYDRAW_FONT
 72
     5
 11
2831.744980
 21
72.486903
  0
TEXT
  8
CSLAYER1
 62
     5
 10
2806.755750
 20
72.391867
 40
4.947865
 41
1.093992
  1
D
 50
0.000000
 51
0.000000
  7
EASYDRAW_FONT
 72
     5
 11
2810.364367
 21
72.391867
  0
TEXT
  8
CSLAYER1
 62
     5
 10
2811.158109
 20
72.386482
 40
4.924210
 41
1.228195
  1
V
 50
0.000000
 51
0.000000
  7
EASYDRAW_FONT
 72
     5
 11
2815.190036
 21
72.386482
  0
TEXT
  8
CSLAYER1
 62
     5
 10
2823.383310
 20
72.407213
 40
5.032894
 41
1.481023
  1
C
 50
0.000000
 51
0.000000
  7
EASYDRAW_FONT
 72
     5
 11
2828.352530
 21
72.407213
  0
LINE
  8
CSLAYER1
  6
CONTINUOUS
 62
     5
 10
2814.013749
 20
83.467612
 11
2813.001687
 21
83.467612
  0
LINE
  8
CSLAYER1
  6
CONTINUOUS
 62
     3
 10
2763.111987
 20
117.692883
 11
2812.909813
 21
117.692883
  0
LINE
  8
CSLAYER1
  6
CONTINUOUS
 62
     3
 10
2755.999623
 20
116.092883
 11
2823.989505
 21
116.092883
  0
LINE
  8
CSLAYER1
  6
CONTINUOUS
 62
     3
 10
2748.551219
 20
114.492883
 11
2793.974529
 21
114.492883
  0
LINE
  8
CSLAYER1
  6
CONTINUOUS
 62
     3
 10
2806.936079
 20
114.492883
 11
2816.522682
 21
114.492883
  0
LINE
  8
CSLAYER1
  6
CONTINUOUS
 62
     3
 10
2820.831816
 20
114.492883
 11
2829.344813
 21
114.492883
  0
LINE
  8
CSLAYER1
  6
CONTINUOUS
 62
     3
 10
2749.954358
 20
112.892883
 11
2806.660827
 21
112.892883
  0
LINE
  8
CSLAYER1
  6
CONTINUOUS
 62
     3
 10
2826.840965
 20
112.892883
 11
2832.947211
 21
112.892883
  0
LINE
  8
CSLAYER1
  6
CONTINUOUS
 62
     3
 10
2748.042024
 20
111.292883
 11
2820.796375
 21
111.292883
  0
LINE
  8
CSLAYER1
  6
CONTINUOUS
 62
     3
 10
2832.742264
 20
111.292883
 11
2834.975986
 21
111.292883
  0
LINE
  8
CSLAYER1
  6
CONTINUOUS
 62
     3
 10
2746.979799
 20
109.692883
 11
2828.508231
 21
109.692883
  0
LINE
  8
CSLAYER1
  6
CONTINUOUS
 62
     3
 10
2748.655466
 20
108.092883
 11
2833.317540
 21
108.092883
  0
LINE
  8
CSLAYER1
  6
CONTINUOUS
 62
     3
 10
2749.823033
 20
106.492883
 11
2808.936412
 21
106.492883
  0
LINE
  8
CSLAYER1
  6
CONTINUOUS
 62
     3
 10
2824.436177
 20
106.492883
 11
2839.440500
 21
106.492883
  0
LINE
  8
CSLAYER1
  6
CONTINUOUS
 62
     3
 10
2750.068157
 20
104.892883
 11
2785.436412
 21
104.892883
  0
LINE
  8
CSLAYER1
  6
CONTINUOUS
 62
     3
 10
2832.005106
 20
104.892883
 11
2841.527709
 21
104.892883
  0
LINE
  8
CSLAYER1
  6
CONTINUOUS
 62
     3
 10
2750.274482
 20
103.292883
 11
2763.739655
 21
103.292883
  0
LINE
  8
CSLAYER1
  6
CONTINUOUS
 62
     3
 10
2839.465455
 20
103.292883
 11
2845.950473
 21
103.292883
  0
LINE
  8
CSLAYER1
  6
CONTINUOUS
 62
     3
 10
2847.528449
 20
101.692883
 11
2849.697303
 21
101.692883
  0
ENDBLK
  8
0
  0
BLOCK
  8
CSLAYER1
  2
BLKF0001
 70
   64
 10
0.0
 20
0.0
 30
0.0
  0
POINT
  8
CSLAYER1
 62
     5
 10
589.592110
 20
791.912573
  0
POINT
  8
CSLAYER1
 62
     5
 10
377.592110
 20
791.912573
  0
LINE
  8
CSLAYER1
  6
CONTINUOUS
 62
     7
 10
483.592110
 20
845.440252
 11
548.206037
 21
845.440252
  0
LINE
  8
CSLAYER1
  6
CONTINUOUS
 62
     7
 10
483.592110
 20
813.457750
 11
548.206037
 21
813.457750
  0
LINE
  8
CSLAYER1
  6
CONTINUOUS
 62
     7
 10
538.592110
 20
738.384895
 11
549.592110
 21
738.384895
  0
LINE
  8
CSLAYER1
  6
CONTINUOUS
 62
     7
 10
589.592110
 20
818.587401
 11
589.592110
 21
765.235140
  0
LINE
  8
CSLAYER1
  6
CONTINUOUS
 62
     7
 10
549.592110
 20
845.440252
 11
549.592110
 21
813.457750
  0
LINE
  8
CSLAYER1
  6
CONTINUOUS
 62
     7
 10
550.780352
 20
844.726614
 11
587.166425
 21
822.873763
  0
LINE
  8
CSLAYER1
  6
CONTINUOUS
 62
     7
 10
550.780352
 20
812.744112
 11
587.166425
 21
790.891261
  0
LINE
  8
CSLAYER1
  6
CONTINUOUS
 62
     7
 10
549.592110
 20
738.341884
 11
587.169810
 21
760.950813
  0
LINE
  8
CSLAYER1
  6
CONTINUOUS
 62
     7
 10
537.592110
 20
770.367397
 11
537.592110
 21
731.556942
  0
LINE
  8
CSLAYER1
  6
CONTINUOUS
 62
     7
 10
543.592110
 20
715.954133
 11
543.592110
 21
615.630002
  0
LINE
  8
CSLAYER1
  6
CONTINUOUS
 62
     7
 10
545.592110
 20
606.414065
 11
545.592110
 21
554.442500
  0
LINE
  8
CSLAYER1
  6
CONTINUOUS
 62
     7
 10
483.592110
 20
798.025021
 11
488.298520
 21
797.901356
  0
LINE
  8
CSLAYER1
  6
CONTINUOUS
 62
     7
 10
488.298520
 20
797.901356
 11
492.969111
 21
797.531303
  0
LINE
  8
CSLAYER1
  6
CONTINUOUS
 62
     7
 10
492.969111
 20
797.531303
 11
497.568338
 21
796.917678
  0
LINE
  8
CSLAYER1
  6
CONTINUOUS
 62
     7
 10
497.568338
 20
796.917678
 11
502.061198
 21
796.065151
  0
LINE
  8
CSLAYER1
  6
CONTINUOUS
 62
     7
 10
502.061198
 20
796.065151
 11
506.413496
 21
794.980210
  0
LINE
  8
CSLAYER1
  6
CONTINUOUS
 62
     7
 10
506.413496
 20
794.980210
 11
510.592110
 21
793.671113
  0
LINE
  8
CSLAYER1
  6
CONTINUOUS
 62
     7
 10
510.592110
 20
793.671113
 11
514.565237
 21
792.147822
  0
LINE
  8
CSLAYER1
  6
CONTINUOUS
 62
     7
 10
514.565237
 20
792.147822
 11
518.302641
 21
790.421931
  0
LINE
  8
CSLAYER1
  6
CONTINUOUS
 62
     7
 10
518.302641
 20
790.421931
 11
521.775876
 21
788.506574
  0
LINE
  8
CSLAYER1
  6
CONTINUOUS
 62
     7
 10
521.775876
 20
788.506574
 11
524.958510
 21
786.416329
  0
LINE
  8
CSLAYER1
  6
CONTINUOUS
 62
     7
 10
524.958510
 20
786.416329
 11
527.826320
 21
784.167103
  0
LINE
  8
CSLAYER1
  6
CONTINUOUS
 62
     7
 10
527.826320
 20
784.167103
 11
530.357482
 21
781.776015
  0
LINE
  8
CSLAYER1
  6
CONTINUOUS
 62
     7
 10
530.357482
 20
781.776015
 11
532.532730
 21
779.261263
  0
LINE
  8
CSLAYER1
  6
CONTINUOUS
 62
     7
 10
532.532730
 20
779.261263
 11
534.335511
 21
776.641984
  0
LINE
  8
CSLAYER1
  6
CONTINUOUS
 62
     7
 10
534.335511
 20
776.641984
 11
535.752104
 21
773.938114
  0
LINE
  8
CSLAYER1
  6
CONTINUOUS
 62
     7
 10
535.752104
 20
773.938114
 11
536.771728
 21
771.170230
  0
LINE
  8
CSLAYER1
  6
CONTINUOUS
 62
     7
 10
536.771728
 20
771.170230
 11
537.386624
 21
768.359398
  0
LINE
  8
CSLAYER1
  6
CONTINUOUS
 62
     7
 10
537.386624
 20
768.359398
 11
537.592110
 21
765.527010
  0
LINE
  8
CSLAYER1
  6
CONTINUOUS
 62
     7
 10
537.592110
 20
765.527010
 11
537.386624
 21
762.694621
  0
LINE
  8
CSLAYER1
  6
CONTINUOUS
 62
     7
 10
483.592110
 20
752.063034
 11
488.821454
 21
751.925629
  0
LINE
  8
CSLAYER1
  6
CONTINUOUS
 62
     7
 10
488.821454
 20
751.925629
 11
494.011000
 21
751.514459
  0
LINE
  8
CSLAYER1
  6
CONTINUOUS
 62
     7
 10
494.011000
 20
751.514459
 11
499.121253
 21
750.832653
  0
LINE
  8
CSLAYER1
  6
CONTINUOUS
 62
     7
 10
499.121253
 20
750.832653
 11
504.113318
 21
749.885401
  0
LINE
  8
CSLAYER1
  6
CONTINUOUS
 62
     7
 10
504.113318
 20
749.885401
 11
508.949206
 21
748.679911
  0
LINE
  8
CSLAYER1
  6
CONTINUOUS
 62
     7
 10
508.949206
 20
748.679911
 11
513.592110
 21
747.225358
  0
LINE
  8
CSLAYER1
  6
CONTINUOUS
 62
     7
 10
513.592110
 20
747.225358
 11
518.006696
 21
745.532813
  0
LINE
  8
CSLAYER1
  6
CONTINUOUS
 62
     7
 10
518.006696
 20
745.532813
 11
522.159366
 21
743.615156
  0
LINE
  8
CSLAYER1
  6
CONTINUOUS
 62
     7
 10
522.159366
 20
743.615156
 11
526.018517
 21
741.486982
  0
LINE
  8
CSLAYER1
  6
CONTINUOUS
 62
     7
 10
526.018517
 20
741.486982
 11
529.554776
 21
739.164487
  0
LINE
  8
CSLAYER1
  6
CONTINUOUS
 62
     7
 10
529.554776
 20
739.164487
 11
532.741232
 21
736.665347
  0
LINE
  8
CSLAYER1
  6
CONTINUOUS
 62
     7
 10
532.741232
 20
736.665347
 11
535.553634
 21
734.008583
  0
LINE
  8
CSLAYER1
  6
CONTINUOUS
 62
     7
 10
535.553634
 20
734.008583
 11
537.970577
 21
731.214414
  0
LINE
  8
CSLAYER1
  6
CONTINUOUS
 62
     7
 10
537.970577
 20
731.214414
 11
539.973667
 21
728.304104
  0
LINE
  8
CSLAYER1
  6
CONTINUOUS
 62
     7
 10
539.973667
 20
728.304104
 11
541.547659
 21
725.299804
  0
LINE
  8
CSLAYER1
  6
CONTINUOUS
 62
     7
 10
541.547659
 20
725.299804
 11
542.680575
 21
722.224377
  0
LINE
  8
CSLAYER1
  6
CONTINUOUS
 62
     7
 10
542.680575
 20
722.224377
 11
543.363792
 21
719.101231
  0
LINE
  8
CSLAYER1
  6
CONTINUOUS
 62
     7
 10
543.363792
 20
719.101231
 11
543.592110
 21
715.954133
  0
LINE
  8
CSLAYER1
  6
CONTINUOUS
 62
     7
 10
543.592110
 20
715.954133
 11
543.363792
 21
712.807034
  0
LINE
  8
CSLAYER1
  6
CONTINUOUS
 62
     7
 10
483.592110
 20
643.726596
 11
488.995766
 21
643.584611
  0
LINE
  8
CSLAYER1
  6
CONTINUOUS
 62
     7
 10
488.995766
 20
643.584611
 11
494.358297
 21
643.159735
  0
LINE
  8
CSLAYER1
  6
CONTINUOUS
 62
     7
 10
494.358297
 20
643.159735
 11
499.638891
 21
642.455203
  0
LINE
  8
CSLAYER1
  6
CONTINUOUS
 62
     7
 10
499.638891
 20
642.455203
 11
504.797359
 21
641.476375
  0
LINE
  8
CSLAYER1
  6
CONTINUOUS
 62
     7
 10
504.797359
 20
641.476375
 11
509.794442
 21
640.230703
  0
LINE
  8
CSLAYER1
  6
CONTINUOUS
 62
     7
 10
509.794442
 20
640.230703
 11
514.592110
 21
638.727665
  0
LINE
  8
CSLAYER1
  6
CONTINUOUS
 62
     7
 10
514.592110
 20
638.727665
 11
519.153849
 21
636.978701
  0
LINE
  8
CSLAYER1
  6
CONTINUOUS
 62
     7
 10
519.153849
 20
636.978701
 11
523.444942
 21
634.997122
  0
LINE
  8
CSLAYER1
  6
CONTINUOUS
 62
     7
 10
523.444942
 20
634.997122
 11
527.432730
 21
632.798009
  0
LINE
  8
CSLAYER1
  6
CONTINUOUS
 62
     7
 10
527.432730
 20
632.798009
 11
531.086865
 21
630.398098
  0
LINE
  8
CSLAYER1
  6
CONTINUOUS
 62
     7
 10
531.086865
 20
630.398098
 11
534.379537
 21
627.815654
  0
LINE
  8
CSLAYER1
  6
CONTINUOUS
 62
     7
 10
534.379537
 20
627.815654
 11
537.285685
 21
625.070331
  0
LINE
  8
CSLAYER1
  6
CONTINUOUS
 62
     7
 10
537.285685
 20
625.070331
 11
539.783193
 21
622.183022
  0
LINE
  8
CSLAYER1
  6
CONTINUOUS
 62
     7
 10
539.783193
 20
622.183022
 11
541.853052
 21
619.175702
  0
LINE
  8
CSLAYER1
  6
CONTINUOUS
 62
     7
 10
541.853052
 20
619.175702
 11
543.479511
 21
616.071259
  0
LINE
  8
CSLAYER1
  6
CONTINUOUS
 62
     7
 10
543.479511
 20
616.071259
 11
544.650191
 21
612.893318
  0
LINE
  8
CSLAYER1
  6
CONTINUOUS
 62
     7
 10
544.650191
 20
612.893318
 11
545.356181
 21
609.666066
  0
LINE
  8
CSLAYER1
  6
CONTINUOUS
 62
     7
 10
545.356181
 20
609.666066
 11
545.592110
 21
606.414065
  0
LINE
  8
CSLAYER1
  6
CONTINUOUS
 62
     7
 10
483.592110
 20
591.755032
 11
488.995766
 21
591.613046
  0
LINE
  8
CSLAYER1
  6
CONTINUOUS
 62
     7
 10
488.995766
 20
591.613046
 11
494.358297
 21
591.188170
  0
LINE
  8
CSLAYER1
  6
CONTINUOUS
 62
     7
 10
494.358297
 20
591.188170
 11
499.638891
 21
590.483638
  0
LINE
  8
CSLAYER1
  6
CONTINUOUS
 62
     7
 10
499.638891
 20
590.483638
 11
504.797359
 21
589.504811
  0
LINE
  8
CSLAYER1
  6
CONTINUOUS
 62
     7
 10
504.797359
 20
589.504811
 11
509.794442
 21
588.259138
  0
LINE
  8
CSLAYER1
  6
CONTINUOUS
 62
     7
 10
509.794442
 20
588.259138
 11
514.592110
 21
586.756100
  0
LINE
  8
CSLAYER1
  6
CONTINUOUS
 62
     7
 10
514.592110
 20
586.756100
 11
519.153849
 21
585.007136
  0
LINE
  8
CSLAYER1
  6
CONTINUOUS
 62
     7
 10
519.153849
 20
585.007136
 11
523.444942
 21
583.025557
  0
LINE
  8
CSLAYER1
  6
CONTINUOUS
 62
     7
 10
523.444942
 20
583.025557
 11
527.432730
 21
580.826444
  0
LINE
  8
CSLAYER1
  6
CONTINUOUS
 62
     7
 10
527.432730
 20
580.826444
 11
531.086865
 21
578.426533
  0
LINE
  8
CSLAYER1
  6
CONTINUOUS
 62
     7
 10
531.086865
 20
578.426533
 11
534.379537
 21
575.844089
  0
LINE
  8
CSLAYER1
  6
CONTINUOUS
 62
     7
 10
534.379537
 20
575.844089
 11
537.285685
 21
573.098766
  0
LINE
  8
CSLAYER1
  6
CONTINUOUS
 62
     7
 10
537.285685
 20
573.098766
 11
539.783193
 21
570.211457
  0
LINE
  8
CSLAYER1
  6
CONTINUOUS
 62
     7
 10
539.783193
 20
570.211457
 11
541.853052
 21
567.204137
  0
LINE
  8
CSLAYER1
  6
CONTINUOUS
 62
     7
 10
541.853052
 20
567.204137
 11
543.479511
 21
564.099694
  0
LINE
  8
CSLAYER1
  6
CONTINUOUS
 62
     7
 10
543.479511
 20
564.099694
 11
544.650191
 21
560.921753
  0
LINE
  8
CSLAYER1
  6
CONTINUOUS
 62
     7
 10
544.650191
 20
560.921753
 11
545.356181
 21
557.694501
  0
LINE
  8
CSLAYER1
  6
CONTINUOUS
 62
     7
 10
545.356181
 20
557.694501
 11
545.592110
 21
554.442500
  0
LINE
  8
CSLAYER1
  6
CONTINUOUS
 62
     7
 10
545.592110
 20
554.442500
 11
545.356181
 21
551.190499
  0
LINE
  8
CSLAYER1
  6
CONTINUOUS
 62
     7
 10
545.356181
 20
551.190499
 11
544.650191
 21
547.963247
  0
LINE
  8
CSLAYER1
  6
CONTINUOUS
 62
     7
 10
544.650191
 20
547.963247
 11
543.479511
 21
544.785306
  0
LINE
  8
CSLAYER1
  6
CONTINUOUS
 62
     7
 10
543.479511
 20
544.785306
 11
541.853052
 21
541.680863
  0
LINE
  8
CSLAYER1
  6
CONTINUOUS
 62
     7
 10
541.853052
 20
541.680863
 11
539.783193
 21
538.673543
  0
LINE
  8
CSLAYER1
  6
CONTINUOUS
 62
     7
 10
539.783193
 20
538.673543
 11
537.285685
 21
535.786234
  0
LINE
  8
CSLAYER1
  6
CONTINUOUS
 62
     7
 10
537.285685
 20
535.786234
 11
534.379537
 21
533.040911
  0
LINE
  8
CSLAYER1
  6
CONTINUOUS
 62
     7
 10
534.379537
 20
533.040911
 11
531.086865
 21
530.458467
  0
LINE
  8
CSLAYER1
  6
CONTINUOUS
 62
     7
 10
531.086865
 20
530.458467
 11
527.432730
 21
528.058556
  0
LINE
  8
CSLAYER1
  6
CONTINUOUS
 62
     7
 10
527.432730
 20
528.058556
 11
523.444942
 21
525.859443
  0
LINE
  8
CSLAYER1
  6
CONTINUOUS
 62
     7
 10
523.444942
 20
525.859443
 11
519.153849
 21
523.877864
  0
LINE
  8
CSLAYER1
  6
CONTINUOUS
 62
     7
 10
519.153849
 20
523.877864
 11
514.592110
 21
522.128900
  0
LINE
  8
CSLAYER1
  6
CONTINUOUS
 62
     7
 10
514.592110
 20
522.128900
 11
509.794442
 21
520.625862
  0
LINE
  8
CSLAYER1
  6
CONTINUOUS
 62
     7
 10
509.794442
 20
520.625862
 11
504.797359
 21
519.380190
  0
LINE
  8
CSLAYER1
  6
CONTINUOUS
 62
     7
 10
504.797359
 20
519.380190
 11
499.638891
 21
518.401362
  0
LINE
  8
CSLAYER1
  6
CONTINUOUS
 62
     7
 10
499.638891
 20
518.401362
 11
494.358297
 21
517.696830
  0
LINE
  8
CSLAYER1
  6
CONTINUOUS
 62
     7
 10
494.358297
 20
517.696830
 11
488.995766
 21
517.271954
  0
LINE
  8
CSLAYER1
  6
CONTINUOUS
 62
     7
 10
488.995766
 20
517.271954
 11
483.592110
 21
517.129969
  0
LINE
  8
CSLAYER1
  6
CONTINUOUS
 62
     7
 10
538.592110
 20
803.637675
 11
538.592110
 21
730.311382
  0
LINE
  8
CSLAYER1
  6
CONTINUOUS
 62
     7
 10
483.592110
 20
808.637675
 11
533.592110
 21
808.637675
  0
LINE
  8
CSLAYER1
  6
CONTINUOUS
 62
     7
 10
483.592110
 20
800.304808
 11
533.592110
 21
800.304808
  0
ARC
  8
CSLAYER1
  6
CONTINUOUS
 62
     7
 10
533.592110
 20
803.637675
 40
5.000000
 50
0.000000
 51
90.000000
  0
ARC
  8
CSLAYER1
  6
CONTINUOUS
 62
     7
 10
533.592110
 20
795.304808
 40
5.000000
 50
0.000000
 51
90.000000
  0
ARC
  8
CSLAYER1
  6
CONTINUOUS
 62
     7
 10
548.206037
 20
840.440252
 40
5.000000
 50
59.011695
 51
90.000000
  0
ARC
  8
CSLAYER1
  6
CONTINUOUS
 62
     7
 10
548.206037
 20
808.457750
 40
5.000000
 50
59.011695
 51
90.000000
  0
ARC
  8
CSLAYER1
  6
CONTINUOUS
 62
     7
 10
584.592110
 20
818.587401
 40
5.000000
 50
0.000000
 51
59.011695
  0
ARC
  8
CSLAYER1
  6
CONTINUOUS
 62
     7
 10
584.592110
 20
786.604899
 40
5.000000
 50
0.000000
 51
59.011695
  0
ARC
  8
CSLAYER1
  6
CONTINUOUS
 62
     7
 10
584.592110
 20
765.235140
 40
5.000000
 50
301.033561
 51
360.000000
  0
LINE
  8
CSLAYER1
  6
CONTINUOUS
 62
     7
 10
567.592110
 20
770.504988
 11
567.557862
 21
770.977052
  0
LINE
  8
CSLAYER1
  6
CONTINUOUS
 62
     7
 10
567.557862
 20
770.977052
 11
567.455380
 21
771.445524
  0
LINE
  8
CSLAYER1
  6
CONTINUOUS
 62
     7
 10
567.455380
 20
771.445524
 11
567.285442
 21
771.906838
  0
LINE
  8
CSLAYER1
  6
CONTINUOUS
 62
     7
 10
567.285442
 20
771.906838
 11
567.049343
 21
772.357483
  0
LINE
  8
CSLAYER1
  6
CONTINUOUS
 62
     7
 10
567.049343
 20
772.357483
 11
566.748880
 21
772.794030
  0
LINE
  8
CSLAYER1
  6
CONTINUOUS
 62
     7
 10
566.748880
 20
772.794030
 11
566.386338
 21
773.213155
  0
LINE
  8
CSLAYER1
  6
CONTINUOUS
 62
     7
 10
566.386338
 20
773.213155
 11
565.964478
 21
773.611670
  0
LINE
  8
CSLAYER1
  6
CONTINUOUS
 62
     7
 10
565.964478
 20
773.611670
 11
565.486510
 21
773.986541
  0
LINE
  8
CSLAYER1
  6
CONTINUOUS
 62
     7
 10
565.486510
 20
773.986541
 11
564.956071
 21
774.334915
  0
LINE
  8
CSLAYER1
  6
CONTINUOUS
 62
     7
 10
564.956071
 20
774.334915
 11
564.377198
 21
774.654141
  0
LINE
  8
CSLAYER1
  6
CONTINUOUS
 62
     7
 10
564.377198
 20
774.654141
 11
563.754298
 21
774.941790
  0
LINE
  8
CSLAYER1
  6
CONTINUOUS
 62
     7
 10
563.754298
 20
774.941790
 11
563.092110
 21
775.195671
  0
LINE
  8
CSLAYER1
  6
CONTINUOUS
 62
     7
 10
563.092110
 20
775.195671
 11
562.395674
 21
775.413854
  0
LINE
  8
CSLAYER1
  6
CONTINUOUS
 62
     7
 10
562.395674
 20
775.413854
 11
561.670291
 21
775.594678
  0
LINE
  8
CSLAYER1
  6
CONTINUOUS
 62
     7
 10
561.670291
 20
775.594678
 11
560.921481
 21
775.736766
  0
LINE
  8
CSLAYER1
  6
CONTINUOUS
 62
     7
 10
560.921481
 20
775.736766
 11
560.154943
 21
775.839036
  0
LINE
  8
CSLAYER1
  6
CONTINUOUS
 62
     7
 10
560.154943
 20
775.839036
 11
559.376512
 21
775.900712
  0
LINE
  8
CSLAYER1
  6
CONTINUOUS
 62
     7
 10
559.376512
 20
775.900712
 11
558.592110
 21
775.921323
  0
LINE
  8
CSLAYER1
  6
CONTINUOUS
 62
     7
 10
558.592110
 20
775.921323
 11
557.807708
 21
775.900712
  0
LINE
  8
CSLAYER1
  6
CONTINUOUS
 62
     7
 10
557.807708
 20
775.900712
 11
557.029276
 21
775.839036
  0
LINE
  8
CSLAYER1
  6
CONTINUOUS
 62
     7
 10
557.029276
 20
775.839036
 11
556.262738
 21
775.736766
  0
LINE
  8
CSLAYER1
  6
CONTINUOUS
 62
     7
 10
556.262738
 20
775.736766
 11
555.513929
 21
775.594678
  0
LINE
  8
CSLAYER1
  6
CONTINUOUS
 62
     7
 10
555.513929
 20
775.594678
 11
554.788545
 21
775.413854
  0
LINE
  8
CSLAYER1
  6
CONTINUOUS
 62
     7
 10
554.788545
 20
775.413854
 11
554.092110
 21
775.195671
  0
LINE
  8
CSLAYER1
  6
CONTINUOUS
 62
     7
 10
554.092110
 20
775.195671
 11
553.429922
 21
774.941790
  0
LINE
  8
CSLAYER1
  6
CONTINUOUS
 62
     7
 10
553.429922
 20
774.941790
 11
552.807021
 21
774.654141
  0
LINE
  8
CSLAYER1
  6
CONTINUOUS
 62
     7
 10
552.807021
 20
774.654141
 11
552.228149
 21
774.334915
  0
LINE
  8
CSLAYER1
  6
CONTINUOUS
 62
     7
 10
552.228149
 20
774.334915
 11
551.697710
 21
773.986541
  0
LINE
  8
CSLAYER1
  6
CONTINUOUS
 62
     7
 10
551.697710
 20
773.986541
 11
551.219741
 21
773.611670
  0
LINE
  8
CSLAYER1
  6
CONTINUOUS
 62
     7
 10
551.219741
 20
773.611670
 11
550.797881
 21
773.213155
  0
LINE
  8
CSLAYER1
  6
CONTINUOUS
 62
     7
 10
550.797881
 20
773.213155
 11
550.435340
 21
772.794030
  0
LINE
  8
CSLAYER1
  6
CONTINUOUS
 62
     7
 10
550.435340
 20
772.794030
 11
550.134876
 21
772.357483
  0
LINE
  8
CSLAYER1
  6
CONTINUOUS
 62
     7
 10
550.134876
 20
772.357483
 11
549.898777
 21
771.906838
  0
LINE
  8
CSLAYER1
  6
CONTINUOUS
 62
     7
 10
549.898777
 20
771.906838
 11
549.728840
 21
771.445524
  0
LINE
  8
CSLAYER1
  6
CONTINUOUS
 62
     7
 10
549.728840
 20
771.445524
 11
549.626358
 21
770.977052
  0
LINE
  8
CSLAYER1
  6
CONTINUOUS
 62
     7
 10
549.626358
 20
770.977052
 11
549.592110
 21
770.504988
  0
LINE
  8
CSLAYER1
  6
CONTINUOUS
 62
     7
 10
549.592110
 20
770.504988
 11
549.626358
 21
770.032923
  0
LINE
  8
CSLAYER1
  6
CONTINUOUS
 62
     7
 10
549.626358
 20
770.032923
 11
549.728840
 21
769.564451
  0
LINE
  8
CSLAYER1
  6
CONTINUOUS
 62
     7
 10
549.728840
 20
769.564451
 11
549.898777
 21
769.103137
  0
LINE
  8
CSLAYER1
  6
CONTINUOUS
 62
     7
 10
549.898777
 20
769.103137
 11
550.134876
 21
768.652492
  0
LINE
  8
CSLAYER1
  6
CONTINUOUS
 62
     7
 10
550.134876
 20
768.652492
 11
550.435340
 21
768.215945
  0
LINE
  8
CSLAYER1
  6
CONTINUOUS
 62
     7
 10
550.435340
 20
768.215945
 11
550.797881
 21
767.796820
  0
LINE
  8
CSLAYER1
  6
CONTINUOUS
 62
     7
 10
550.797881
 20
767.796820
 11
551.219741
 21
767.398305
  0
LINE
  8
CSLAYER1
  6
CONTINUOUS
 62
     7
 10
551.219741
 20
767.398305
 11
551.697710
 21
767.023434
  0
LINE
  8
CSLAYER1
  6
CONTINUOUS
 62
     7
 10
551.697710
 20
767.023434
 11
552.228149
 21
766.675060
  0
LINE
  8
CSLAYER1
  6
CONTINUOUS
 62
     7
 10
552.228149
 20
766.675060
 11
552.807021
 21
766.355834
  0
LINE
  8
CSLAYER1
  6
CONTINUOUS
 62
     7
 10
552.807021
 20
766.355834
 11
553.429922
 21
766.068185
  0
LINE
  8
CSLAYER1
  6
CONTINUOUS
 62
     7
 10
553.429922
 20
766.068185
 11
554.092110
 21
765.814304
  0
LINE
  8
CSLAYER1
  6
CONTINUOUS
 62
     7
 10
554.092110
 20
765.814304
 11
554.788545
 21
765.596121
  0
LINE
  8
CSLAYER1
  6
CONTINUOUS
 62
     7
 10
554.788545
 20
765.596121
 11
555.513929
 21
765.415297
  0
LINE
  8
CSLAYER1
  6
CONTINUOUS
 62
     7
 10
555.513929
 20
765.415297
 11
556.262738
 21
765.273209
  0
LINE
  8
CSLAYER1
  6
CONTINUOUS
 62
     7
 10
556.262738
 20
765.273209
 11
557.029276
 21
765.170939
  0
LINE
  8
CSLAYER1
  6
CONTINUOUS
 62
     7
 10
557.029276
 20
765.170939
 11
557.807708
 21
765.109263
  0
LINE
  8
CSLAYER1
  6
CONTINUOUS
 62
     7
 10
557.807708
 20
765.109263
 11
558.592110
 21
765.088652
  0
LINE
  8
CSLAYER1
  6
CONTINUOUS
 62
     7
 10
558.592110
 20
765.088652
 11
559.376512
 21
765.109263
  0
LINE
  8
CSLAYER1
  6
CONTINUOUS
 62
     7
 10
559.376512
 20
765.109263
 11
560.154943
 21
765.170939
  0
LINE
  8
CSLAYER1
  6
CONTINUOUS
 62
     7
 10
560.154943
 20
765.170939
 11
560.921481
 21
765.273209
  0
LINE
  8
CSLAYER1
  6
CONTINUOUS
 62
     7
 10
560.921481
 20
765.273209
 11
561.670291
 21
765.415297
  0
LINE
  8
CSLAYER1
  6
CONTINUOUS
 62
     7
 10
561.670291
 20
765.415297
 11
562.395674
 21
765.596121
  0
LINE
  8
CSLAYER1
  6
CONTINUOUS
 62
     7
 10
562.395674
 20
765.596121
 11
563.092110
 21
765.814304
  0
LINE
  8
CSLAYER1
  6
CONTINUOUS
 62
     7
 10
563.092110
 20
765.814304
 11
563.754298
 21
766.068185
  0
LINE
  8
CSLAYER1
  6
CONTINUOUS
 62
     7
 10
563.754298
 20
766.068185
 11
564.377198
 21
766.355834
  0
LINE
  8
CSLAYER1
  6
CONTINUOUS
 62
     7
 10
564.377198
 20
766.355834
 11
564.956071
 21
766.675060
  0
LINE
  8
CSLAYER1
  6
CONTINUOUS
 62
     7
 10
564.956071
 20
766.675060
 11
565.486510
 21
767.023434
  0
LINE
  8
CSLAYER1
  6
CONTINUOUS
 62
     7
 10
565.486510
 20
767.023434
 11
565.964478
 21
767.398305
  0
LINE
  8
CSLAYER1
  6
CONTINUOUS
 62
     7
 10
565.964478
 20
767.398305
 11
566.386338
 21
767.796820
  0
LINE
  8
CSLAYER1
  6
CONTINUOUS
 62
     7
 10
566.386338
 20
767.796820
 11
566.748880
 21
768.215945
  0
LINE
  8
CSLAYER1
  6
CONTINUOUS
 62
     7
 10
566.748880
 20
768.215945
 11
567.049343
 21
768.652492
  0
LINE
  8
CSLAYER1
  6
CONTINUOUS
 62
     7
 10
567.049343
 20
768.652492
 11
567.285442
 21
769.103137
  0
LINE
  8
CSLAYER1
  6
CONTINUOUS
 62
     7
 10
567.285442
 20
769.103137
 11
567.455380
 21
769.564451
  0
LINE
  8
CSLAYER1
  6
CONTINUOUS
 62
     7
 10
567.455380
 20
769.564451
 11
567.557862
 21
770.032923
  0
LINE
  8
CSLAYER1
  6
CONTINUOUS
 62
     7
 10
567.557862
 20
770.032923
 11
567.592110
 21
770.504988
  0
LINE
  8
CSLAYER1
  6
CONTINUOUS
 62
     7
 10
567.592110
 20
775.921323
 11
567.557862
 21
776.393387
  0
LINE
  8
CSLAYER1
  6
CONTINUOUS
 62
     7
 10
567.557862
 20
776.393387
 11
567.455380
 21
776.861859
  0
LINE
  8
CSLAYER1
  6
CONTINUOUS
 62
     7
 10
567.455380
 20
776.861859
 11
567.285442
 21
777.323173
  0
LINE
  8
CSLAYER1
  6
CONTINUOUS
 62
     7
 10
567.285442
 20
777.323173
 11
567.049343
 21
777.773819
  0
LINE
  8
CSLAYER1
  6
CONTINUOUS
 62
     7
 10
567.049343
 20
777.773819
 11
566.748880
 21
778.210365
  0
LINE
  8
CSLAYER1
  6
CONTINUOUS
 62
     7
 10
566.748880
 20
778.210365
 11
566.386338
 21
778.629490
  0
LINE
  8
CSLAYER1
  6
CONTINUOUS
 62
     7
 10
566.386338
 20
778.629490
 11
565.964478
 21
779.028005
  0
LINE
  8
CSLAYER1
  6
CONTINUOUS
 62
     7
 10
565.964478
 20
779.028005
 11
565.486510
 21
779.402876
  0
LINE
  8
CSLAYER1
  6
CONTINUOUS
 62
     7
 10
565.486510
 20
779.402876
 11
564.956071
 21
779.751250
  0
LINE
  8
CSLAYER1
  6
CONTINUOUS
 62
     7
 10
564.956071
 20
779.751250
 11
564.377198
 21
780.070476
  0
LINE
  8
CSLAYER1
  6
CONTINUOUS
 62
     7
 10
564.377198
 20
780.070476
 11
563.754298
 21
780.358125
  0
LINE
  8
CSLAYER1
  6
CONTINUOUS
 62
     7
 10
563.754298
 20
780.358125
 11
563.092110
 21
780.612007
  0
LINE
  8
CSLAYER1
  6
CONTINUOUS
 62
     7
 10
563.092110
 20
780.612007
 11
562.395674
 21
780.830190
  0
LINE
  8
CSLAYER1
  6
CONTINUOUS
 62
     7
 10
562.395674
 20
780.830190
 11
561.670291
 21
781.011013
  0
LINE
  8
CSLAYER1
  6
CONTINUOUS
 62
     7
 10
561.670291
 20
781.011013
 11
560.921481
 21
781.153101
  0
LINE
  8
CSLAYER1
  6
CONTINUOUS
 62
     7
 10
560.921481
 20
781.153101
 11
560.154943
 21
781.255372
  0
LINE
  8
CSLAYER1
  6
CONTINUOUS
 62
     7
 10
560.154943
 20
781.255372
 11
559.376512
 21
781.317047
  0
LINE
  8
CSLAYER1
  6
CONTINUOUS
 62
     7
 10
559.376512
 20
781.317047
 11
558.592110
 21
781.337658
  0
LINE
  8
CSLAYER1
  6
CONTINUOUS
 62
     7
 10
558.592110
 20
781.337658
 11
557.807708
 21
781.317047
  0
LINE
  8
CSLAYER1
  6
CONTINUOUS
 62
     7
 10
557.807708
 20
781.317047
 11
557.029276
 21
781.255372
  0
LINE
  8
CSLAYER1
  6
CONTINUOUS
 62
     7
 10
557.029276
 20
781.255372
 11
556.262738
 21
781.153101
  0
LINE
  8
CSLAYER1
  6
CONTINUOUS
 62
     7
 10
556.262738
 20
781.153101
 11
555.513929
 21
781.011013
  0
LINE
  8
CSLAYER1
  6
CONTINUOUS
 62
     7
 10
555.513929
 20
781.011013
 11
554.788545
 21
780.830190
  0
LINE
  8
CSLAYER1
  6
CONTINUOUS
 62
     7
 10
554.788545
 20
780.830190
 11
554.092110
 21
780.612007
  0
LINE
  8
CSLAYER1
  6
CONTINUOUS
 62
     7
 10
554.092110
 20
780.612007
 11
553.429922
 21
780.358125
  0
LINE
  8
CSLAYER1
  6
CONTINUOUS
 62
     7
 10
553.429922
 20
780.358125
 11
552.807021
 21
780.070476
  0
LINE
  8
CSLAYER1
  6
CONTINUOUS
 62
     7
 10
552.807021
 20
780.070476
 11
552.228149
 21
779.751250
  0
LINE
  8
CSLAYER1
  6
CONTINUOUS
 62
     7
 10
552.228149
 20
779.751250
 11
551.697710
 21
779.402876
  0
LINE
  8
CSLAYER1
  6
CONTINUOUS
 62
     7
 10
551.697710
 20
779.402876
 11
551.219741
 21
779.028005
  0
LINE
  8
CSLAYER1
  6
CONTINUOUS
 62
     7
 10
551.219741
 20
779.028005
 11
550.797881
 21
778.629490
  0
LINE
  8
CSLAYER1
  6
CONTINUOUS
 62
     7
 10
550.797881
 20
778.629490
 11
550.435340
 21
778.210365
  0
LINE
  8
CSLAYER1
  6
CONTINUOUS
 62
     7
 10
550.435340
 20
778.210365
 11
550.134876
 21
777.773819
  0
LINE
  8
CSLAYER1
  6
CONTINUOUS
 62
     7
 10
550.134876
 20
777.773819
 11
549.898777
 21
777.323173
  0
LINE
  8
CSLAYER1
  6
CONTINUOUS
 62
     7
 10
549.898777
 20
777.323173
 11
549.728840
 21
776.861859
  0
LINE
  8
CSLAYER1
  6
CONTINUOUS
 62
     7
 10
549.728840
 20
776.861859
 11
549.626358
 21
776.393387
  0
LINE
  8
CSLAYER1
  6
CONTINUOUS
 62
     7
 10
549.626358
 20
776.393387
 11
549.592110
 21
775.921323
  0
LINE
  8
CSLAYER1
  6
CONTINUOUS
 62
     7
 10
567.592110
 20
775.921323
 11
567.592110
 21
770.032923
  0
LINE
  8
CSLAYER1
  6
CONTINUOUS
 62
     7
 10
549.592110
 20
775.921323
 11
549.592110
 21
770.032923
  0
LINE
  8
CSLAYER1
  6
CONTINUOUS
 62
     7
 10
549.462689
 20
672.101000
 11
565.021526
 21
672.101000
  0
LINE
  8
CSLAYER1
  6
CONTINUOUS
 62
     7
 10
557.092110
 20
663.415509
 11
557.092110
 21
681.239198
  0
LINE
  8
CSLAYER1
  6
CONTINUOUS
 62
     7
 10
547.557540
 20
602.101000
 11
565.592110
 21
602.101000
  0
LINE
  8
CSLAYER1
  6
CONTINUOUS
 62
     7
 10
547.557540
 20
683.601000
 11
565.592110
 21
683.601000
  0
LINE
  8
CSLAYER1
  6
CONTINUOUS
 62
     7
 10
568.592110
 20
680.601000
 11
568.592110
 21
587.199787
  0
LINE
  8
CSLAYER1
  6
CONTINUOUS
 62
     7
 10
547.557540
 20
584.199787
 11
547.557540
 21
683.601000
  0
LINE
  8
CSLAYER1
  6
CONTINUOUS
 62
     7
 10
543.592110
 20
617.610544
 11
547.557540
 21
617.610544
  0
CIRCLE
  8
CSLAYER1
  6
CONTINUOUS
 62
     7
 10
557.092110
 20
672.101000
 40
6.250000
  0
LINE
  8
CSLAYER1
  6
CONTINUOUS
 62
     7
 10
543.592110
 20
644.591456
 11
547.557540
 21
644.591456
  0
ARC
  8
CSLAYER1
  6
CONTINUOUS
 62
     7
 10
565.592110
 20
605.101000
 40
3.000000
 50
270.000000
 51
360.000000
  0
ARC
  8
CSLAYER1
  6
CONTINUOUS
 62
     7
 10
565.592110
 20
680.601000
 40
3.000000
 50
0.000000
 51
90.000000
  0
LINE
  8
CSLAYER1
  6
CONTINUOUS
 62
     7
 10
537.592110
 20
624.716080
 11
537.592110
 21
731.651950
  0
LINE
  8
CSLAYER1
  6
CONTINUOUS
 62
     7
 10
535.592110
 20
626.670184
 11
535.592110
 21
733.972237
  0
LINE
  8
CSLAYER1
  6
CONTINUOUS
 62
     7
 10
515.592110
 20
638.344267
 11
515.592110
 21
746.458562
  0
LINE
  8
CSLAYER1
  6
CONTINUOUS
 62
     7
 10
508.592110
 20
640.530420
 11
508.592110
 21
748.791784
  0
LINE
  8
CSLAYER1
  6
CONTINUOUS
 62
     7
 10
500.592110
 20
642.274328
 11
500.592110
 21
750.636412
  0
LINE
  8
CSLAYER1
  6
CONTINUOUS
 62
     7
 10
547.557540
 20
584.199787
 11
565.592110
 21
584.199787
  0
ARC
  8
CSLAYER1
  6
CONTINUOUS
 62
     7
 10
565.592110
 20
587.199787
 40
3.000000
 50
270.000000
 51
360.000000
  0
LINE
  8
CSLAYER1
  6
CONTINUOUS
 62
     7
 10
483.592110
 20
845.440252
 11
418.978183
 21
845.440252
  0
LINE
  8
CSLAYER1
  6
CONTINUOUS
 62
     7
 10
483.592110
 20
813.457750
 11
418.978183
 21
813.457750
  0
LINE
  8
CSLAYER1
  6
CONTINUOUS
 62
     7
 10
428.592110
 20
738.384895
 11
417.592110
 21
738.384895
  0
LINE
  8
CSLAYER1
  6
CONTINUOUS
 62
     7
 10
377.592110
 20
818.587401
 11
377.592110
 21
765.235140
  0
LINE
  8
CSLAYER1
  6
CONTINUOUS
 62
     7
 10
417.592110
 20
845.440252
 11
417.592110
 21
813.457750
  0
LINE
  8
CSLAYER1
  6
CONTINUOUS
 62
     7
 10
416.403868
 20
844.726614
 11
380.017794
 21
822.873763
  0
LINE
  8
CSLAYER1
  6
CONTINUOUS
 62
     7
 10
416.403868
 20
812.744112
 11
380.017794
 21
790.891261
  0
LINE
  8
CSLAYER1
  6
CONTINUOUS
 62
     7
 10
417.592110
 20
738.341884
 11
380.014409
 21
760.950813
  0
LINE
  8
CSLAYER1
  6
CONTINUOUS
 62
     7
 10
429.592110
 20
770.367397
 11
429.592110
 21
731.556942
  0
LINE
  8
CSLAYER1
  6
CONTINUOUS
 62
     7
 10
423.592110
 20
715.954133
 11
423.592110
 21
615.630002
  0
LINE
  8
CSLAYER1
  6
CONTINUOUS
 62
     7
 10
421.592110
 20
606.414065
 11
421.592110
 21
554.442500
  0
LINE
  8
CSLAYER1
  6
CONTINUOUS
 62
     7
 10
483.592110
 20
798.025021
 11
478.885700
 21
797.901356
  0
LINE
  8
CSLAYER1
  6
CONTINUOUS
 62
     7
 10
478.885700
 20
797.901356
 11
474.215108
 21
797.531303
  0
LINE
  8
CSLAYER1
  6
CONTINUOUS
 62
     7
 10
474.215108
 20
797.531303
 11
469.615881
 21
796.917678
  0
LINE
  8
CSLAYER1
  6
CONTINUOUS
 62
     7
 10
469.615881
 20
796.917678
 11
465.123022
 21
796.065151
  0
LINE
  8
CSLAYER1
  6
CONTINUOUS
 62
     7
 10
465.123022
 20
796.065151
 11
460.770724
 21
794.980210
  0
LINE
  8
CSLAYER1
  6
CONTINUOUS
 62
     7
 10
460.770724
 20
794.980210
 11
456.592110
 21
793.671113
  0
LINE
  8
CSLAYER1
  6
CONTINUOUS
 62
     7
 10
456.592110
 20
793.671113
 11
452.618982
 21
792.147822
  0
LINE
  8
CSLAYER1
  6
CONTINUOUS
 62
     7
 10
452.618982
 20
792.147822
 11
448.881579
 21
790.421931
  0
LINE
  8
CSLAYER1
  6
CONTINUOUS
 62
     7
 10
448.881579
 20
790.421931
 11
445.408344
 21
788.506574
  0
LINE
  8
CSLAYER1
  6
CONTINUOUS
 62
     7
 10
445.408344
 20
788.506574
 11
442.225710
 21
786.416329
  0
LINE
  8
CSLAYER1
  6
CONTINUOUS
 62
     7
 10
442.225710
 20
786.416329
 11
439.357899
 21
784.167103
  0
LINE
  8
CSLAYER1
  6
CONTINUOUS
 62
     7
 10
439.357899
 20
784.167103
 11
436.826738
 21
781.776015
  0
LINE
  8
CSLAYER1
  6
CONTINUOUS
 62
     7
 10
436.826738
 20
781.776015
 11
434.651489
 21
779.261263
  0
LINE
  8
CSLAYER1
  6
CONTINUOUS
 62
     7
 10
434.651489
 20
779.261263
 11
432.848708
 21
776.641984
  0
LINE
  8
CSLAYER1
  6
CONTINUOUS
 62
     7
 10
432.848708
 20
776.641984
 11
431.432115
 21
773.938114
  0
LINE
  8
CSLAYER1
  6
CONTINUOUS
 62
     7
 10
431.432115
 20
773.938114
 11
430.412491
 21
771.170230
  0
LINE
  8
CSLAYER1
  6
CONTINUOUS
 62
     7
 10
430.412491
 20
771.170230
 11
429.797596
 21
768.359398
  0
LINE
  8
CSLAYER1
  6
CONTINUOUS
 62
     7
 10
429.797596
 20
768.359398
 11
429.592110
 21
765.527010
  0
LINE
  8
CSLAYER1
  6
CONTINUOUS
 62
     7
 10
429.592110
 20
765.527010
 11
429.797596
 21
762.694621
  0
LINE
  8
CSLAYER1
  6
CONTINUOUS
 62
     7
 10
483.592110
 20
752.063034
 11
478.362765
 21
751.925629
  0
LINE
  8
CSLAYER1
  6
CONTINUOUS
 62
     7
 10
478.362765
 20
751.925629
 11
473.173219
 21
751.514459
  0
LINE
  8
CSLAYER1
  6
CONTINUOUS
 62
     7
 10
473.173219
 20
751.514459
 11
468.062967
 21
750.832653
  0
LINE
  8
CSLAYER1
  6
CONTINUOUS
 62
     7
 10
468.062967
 20
750.832653
 11
463.070901
 21
749.885401
  0
LINE
  8
CSLAYER1
  6
CONTINUOUS
 62
     7
 10
463.070901
 20
749.885401
 11
458.235014
 21
748.679911
  0
LINE
  8
CSLAYER1
  6
CONTINUOUS
 62
     7
 10
458.235014
 20
748.679911
 11
453.592110
 21
747.225358
  0
LINE
  8
CSLAYER1
  6
CONTINUOUS
 62
     7
 10
453.592110
 20
747.225358
 11
449.177524
 21
745.532813
  0
LINE
  8
CSLAYER1
  6
CONTINUOUS
 62
     7
 10
449.177524
 20
745.532813
 11
445.024853
 21
743.615156
  0
LINE
  8
CSLAYER1
  6
CONTINUOUS
 62
     7
 10
445.024853
 20
743.615156
 11
441.165703
 21
741.486982
  0
LINE
  8
CSLAYER1
  6
CONTINUOUS
 62
     7
 10
441.165703
 20
741.486982
 11
437.629443
 21
739.164487
  0
LINE
  8
CSLAYER1
  6
CONTINUOUS
 62
     7
 10
437.629443
 20
739.164487
 11
434.442987
 21
736.665347
  0
LINE
  8
CSLAYER1
  6
CONTINUOUS
 62
     7
 10
434.442987
 20
736.665347
 11
431.630586
 21
734.008583
  0
LINE
  8
CSLAYER1
  6
CONTINUOUS
 62
     7
 10
431.630586
 20
734.008583
 11
429.213643
 21
731.214414
  0
LINE
  8
CSLAYER1
  6
CONTINUOUS
 62
     7
 10
429.213643
 20
731.214414
 11
427.210553
 21
728.304104
  0
LINE
  8
CSLAYER1
  6
CONTINUOUS
 62
     7
 10
427.210553
 20
728.304104
 11
425.636560
 21
725.299804
  0
LINE
  8
CSLAYER1
  6
CONTINUOUS
 62
     7
 10
425.636560
 20
725.299804
 11
424.503645
 21
722.224377
  0
LINE
  8
CSLAYER1
  6
CONTINUOUS
 62
     7
 10
424.503645
 20
722.224377
 11
423.820428
 21
719.101231
  0
LINE
  8
CSLAYER1
  6
CONTINUOUS
 62
     7
 10
423.820428
 20
719.101231
 11
423.592110
 21
715.954133
  0
LINE
  8
CSLAYER1
  6
CONTINUOUS
 62
     7
 10
423.592110
 20
715.954133
 11
423.820428
 21
712.807034
  0
LINE
  8
CSLAYER1
  6
CONTINUOUS
 62
     7
 10
483.592110
 20
643.726596
 11
478.188454
 21
643.584611
  0
LINE
  8
CSLAYER1
  6
CONTINUOUS
 62
     7
 10
478.188454
 20
643.584611
 11
472.825923
 21
643.159735
  0
LINE
  8
CSLAYER1
  6
CONTINUOUS
 62
     7
 10
472.825923
 20
643.159735
 11
467.545329
 21
642.455203
  0
LINE
  8
CSLAYER1
  6
CONTINUOUS
 62
     7
 10
467.545329
 20
642.455203
 11
462.386861
 21
641.476375
  0
LINE
  8
CSLAYER1
  6
CONTINUOUS
 62
     7
 10
462.386861
 20
641.476375
 11
457.389778
 21
640.230703
  0
LINE
  8
CSLAYER1
  6
CONTINUOUS
 62
     7
 10
457.389778
 20
640.230703
 11
452.592110
 21
638.727665
  0
LINE
  8
CSLAYER1
  6
CONTINUOUS
 62
     7
 10
452.592110
 20
638.727665
 11
448.030371
 21
636.978701
  0
LINE
  8
CSLAYER1
  6
CONTINUOUS
 62
     7
 10
448.030371
 20
636.978701
 11
443.739278
 21
634.997122
  0
LINE
  8
CSLAYER1
  6
CONTINUOUS
 62
     7
 10
443.739278
 20
634.997122
 11
439.751489
 21
632.798009
  0
LINE
  8
CSLAYER1
  6
CONTINUOUS
 62
     7
 10
439.751489
 20
632.798009
 11
436.097354
 21
630.398098
  0
LINE
  8
CSLAYER1
  6
CONTINUOUS
 62
     7
 10
436.097354
 20
630.398098
 11
432.804683
 21
627.815654
  0
LINE
  8
CSLAYER1
  6
CONTINUOUS
 62
     7
 10
432.804683
 20
627.815654
 11
429.898535
 21
625.070331
  0
LINE
  8
CSLAYER1
  6
CONTINUOUS
 62
     7
 10
429.898535
 20
625.070331
 11
427.401027
 21
622.183022
  0
LINE
  8
CSLAYER1
  6
CONTINUOUS
 62
     7
 10
427.401027
 20
622.183022
 11
425.331167
 21
619.175702
  0
LINE
  8
CSLAYER1
  6
CONTINUOUS
 62
     7
 10
425.331167
 20
619.175702
 11
423.704709
 21
616.071259
  0
LINE
  8
CSLAYER1
  6
CONTINUOUS
 62
     7
 10
423.704709
 20
616.071259
 11
422.534029
 21
612.893318
  0
LINE
  8
CSLAYER1
  6
CONTINUOUS
 62
     7
 10
422.534029
 20
612.893318
 11
421.828039
 21
609.666066
  0
LINE
  8
CSLAYER1
  6
CONTINUOUS
 62
     7
 10
421.828039
 20
609.666066
 11
421.592110
 21
606.414065
  0
LINE
  8
CSLAYER1
  6
CONTINUOUS
 62
     7
 10
483.592110
 20
591.755032
 11
478.188454
 21
591.613046
  0
LINE
  8
CSLAYER1
  6
CONTINUOUS
 62
     7
 10
478.188454
 20
591.613046
 11
472.825923
 21
591.188170
  0
LINE
  8
CSLAYER1
  6
CONTINUOUS
 62
     7
 10
472.825923
 20
591.188170
 11
467.545329
 21
590.483638
  0
LINE
  8
CSLAYER1
  6
CONTINUOUS
 62
     7
 10
467.545329
 20
590.483638
 11
462.386861
 21
589.504811
  0
LINE
  8
CSLAYER1
  6
CONTINUOUS
 62
     7
 10
462.386861
 20
589.504811
 11
457.389778
 21
588.259138
  0
LINE
  8
CSLAYER1
  6
CONTINUOUS
 62
     7
 10
457.389778
 20
588.259138
 11
452.592110
 21
586.756100
  0
LINE
  8
CSLAYER1
  6
CONTINUOUS
 62
     7
 10
452.592110
 20
586.756100
 11
448.030371
 21
585.007136
  0
LINE
  8
CSLAYER1
  6
CONTINUOUS
 62
     7
 10
448.030371
 20
585.007136
 11
443.739278
 21
583.025557
  0
LINE
  8
CSLAYER1
  6
CONTINUOUS
 62
     7
 10
443.739278
 20
583.025557
 11
439.751489
 21
580.826444
  0
LINE
  8
CSLAYER1
  6
CONTINUOUS
 62
     7
 10
439.751489
 20
580.826444
 11
436.097354
 21
578.426533
  0
LINE
  8
CSLAYER1
  6
CONTINUOUS
 62
     7
 10
436.097354
 20
578.426533
 11
432.804683
 21
575.844089
  0
LINE
  8
CSLAYER1
  6
CONTINUOUS
 62
     7
 10
432.804683
 20
575.844089
 11
429.898535
 21
573.098766
  0
LINE
  8
CSLAYER1
  6
CONTINUOUS
 62
     7
 10
429.898535
 20
573.098766
 11
427.401027
 21
570.211457
  0
LINE
  8
CSLAYER1
  6
CONTINUOUS
 62
     7
 10
427.401027
 20
570.211457
 11
425.331167
 21
567.204137
  0
LINE
  8
CSLAYER1
  6
CONTINUOUS
 62
     7
 10
425.331167
 20
567.204137
 11
423.704709
 21
564.099694
  0
LINE
  8
CSLAYER1
  6
CONTINUOUS
 62
     7
 10
423.704709
 20
564.099694
 11
422.534029
 21
560.921753
  0
LINE
  8
CSLAYER1
  6
CONTINUOUS
 62
     7
 10
422.534029
 20
560.921753
 11
421.828039
 21
557.694501
  0
LINE
  8
CSLAYER1
  6
CONTINUOUS
 62
     7
 10
421.828039
 20
557.694501
 11
421.592110
 21
554.442500
  0
LINE
  8
CSLAYER1
  6
CONTINUOUS
 62
     7
 10
421.592110
 20
554.442500
 11
421.828039
 21
551.190499
  0
LINE
  8
CSLAYER1
  6
CONTINUOUS
 62
     7
 10
421.828039
 20
551.190499
 11
422.534029
 21
547.963247
  0
LINE
  8
CSLAYER1
  6
CONTINUOUS
 62
     7
 10
422.534029
 20
547.963247
 11
423.704709
 21
544.785306
  0
LINE
  8
CSLAYER1
  6
CONTINUOUS
 62
     7
 10
423.704709
 20
544.785306
 11
425.331167
 21
541.680863
  0
LINE
  8
CSLAYER1
  6
CONTINUOUS
 62
     7
 10
425.331167
 20
541.680863
 11
427.401027
 21
538.673543
  0
LINE
  8
CSLAYER1
  6
CONTINUOUS
 62
     7
 10
427.401027
 20
538.673543
 11
429.898535
 21
535.786234
  0
LINE
  8
CSLAYER1
  6
CONTINUOUS
 62
     7
 10
429.898535
 20
535.786234
 11
432.804683
 21
533.040911
  0
LINE
  8
CSLAYER1
  6
CONTINUOUS
 62
     7
 10
432.804683
 20
533.040911
 11
436.097354
 21
530.458467
  0
LINE
  8
CSLAYER1
  6
CONTINUOUS
 62
     7
 10
436.097354
 20
530.458467
 11
439.751489
 21
528.058556
  0
LINE
  8
CSLAYER1
  6
CONTINUOUS
 62
     7
 10
439.751489
 20
528.058556
 11
443.739278
 21
525.859443
  0
LINE
  8
CSLAYER1
  6
CONTINUOUS
 62
     7
 10
443.739278
 20
525.859443
 11
448.030371
 21
523.877864
  0
LINE
  8
CSLAYER1
  6
CONTINUOUS
 62
     7
 10
448.030371
 20
523.877864
 11
452.592110
 21
522.128900
  0
LINE
  8
CSLAYER1
  6
CONTINUOUS
 62
     7
 10
452.592110
 20
522.128900
 11
457.389778
 21
520.625862
  0
LINE
  8
CSLAYER1
  6
CONTINUOUS
 62
     7
 10
457.389778
 20
520.625862
 11
462.386861
 21
519.380190
  0
LINE
  8
CSLAYER1
  6
CONTINUOUS
 62
     7
 10
462.386861
 20
519.380190
 11
467.545329
 21
518.401362
  0
LINE
  8
CSLAYER1
  6
CONTINUOUS
 62
     7
 10
467.545329
 20
518.401362
 11
472.825923
 21
517.696830
  0
LINE
  8
CSLAYER1
  6
CONTINUOUS
 62
     7
 10
472.825923
 20
517.696830
 11
478.188454
 21
517.271954
  0
LINE
  8
CSLAYER1
  6
CONTINUOUS
 62
     7
 10
478.188454
 20
517.271954
 11
483.592110
 21
517.129969
  0
LINE
  8
CSLAYER1
  6
CONTINUOUS
 62
     7
 10
428.592110
 20
803.637675
 11
428.592110
 21
730.311382
  0
LINE
  8
CSLAYER1
  6
CONTINUOUS
 62
     7
 10
483.592110
 20
808.637675
 11
433.592110
 21
808.637675
  0
LINE
  8
CSLAYER1
  6
CONTINUOUS
 62
     7
 10
483.592110
 20
800.304808
 11
433.592110
 21
800.304808
  0
ARC
  8
CSLAYER1
  6
CONTINUOUS
 62
     7
 10
433.592110
 20
803.637675
 40
5.000000
 50
90.000000
 51
180.000000
  0
ARC
  8
CSLAYER1
  6
CONTINUOUS
 62
     7
 10
433.592110
 20
795.304808
 40
5.000000
 50
90.000000
 51
180.000000
  0
ARC
  8
CSLAYER1
  6
CONTINUOUS
 62
     7
 10
418.978183
 20
840.440252
 40
5.000000
 50
90.000000
 51
120.988305
  0
ARC
  8
CSLAYER1
  6
CONTINUOUS
 62
     7
 10
418.978183
 20
808.457750
 40
5.000000
 50
90.000000
 51
120.988305
  0
ARC
  8
CSLAYER1
  6
CONTINUOUS
 62
     7
 10
382.592110
 20
818.587401
 40
5.000000
 50
120.988305
 51
180.000000
  0
ARC
  8
CSLAYER1
  6
CONTINUOUS
 62
     7
 10
382.592110
 20
786.604899
 40
5.000000
 50
120.988305
 51
180.000000
  0
ARC
  8
CSLAYER1
  6
CONTINUOUS
 62
     7
 10
382.592110
 20
765.235140
 40
5.000000
 50
180.000000
 51
238.966439
  0
LINE
  8
CSLAYER1
  6
CONTINUOUS
 62
     7
 10
399.592110
 20
770.504988
 11
399.626358
 21
770.977052
  0
LINE
  8
CSLAYER1
  6
CONTINUOUS
 62
     7
 10
399.626358
 20
770.977052
 11
399.728840
 21
771.445524
  0
LINE
  8
CSLAYER1
  6
CONTINUOUS
 62
     7
 10
399.728840
 20
771.445524
 11
399.898777
 21
771.906838
  0
LINE
  8
CSLAYER1
  6
CONTINUOUS
 62
     7
 10
399.898777
 20
771.906838
 11
400.134876
 21
772.357483
  0
LINE
  8
CSLAYER1
  6
CONTINUOUS
 62
     7
 10
400.134876
 20
772.357483
 11
400.435340
 21
772.794030
  0
LINE
  8
CSLAYER1
  6
CONTINUOUS
 62
     7
 10
400.435340
 20
772.794030
 11
400.797881
 21
773.213155
  0
LINE
  8
CSLAYER1
  6
CONTINUOUS
 62
     7
 10
400.797881
 20
773.213155
 11
401.219741
 21
773.611670
  0
LINE
  8
CSLAYER1
  6
CONTINUOUS
 62
     7
 10
401.219741
 20
773.611670
 11
401.697710
 21
773.986541
  0
LINE
  8
CSLAYER1
  6
CONTINUOUS
 62
     7
 10
401.697710
 20
773.986541
 11
402.228149
 21
774.334915
  0
LINE
  8
CSLAYER1
  6
CONTINUOUS
 62
     7
 10
402.228149
 20
774.334915
 11
402.807021
 21
774.654141
  0
LINE
  8
CSLAYER1
  6
CONTINUOUS
 62
     7
 10
402.807021
 20
774.654141
 11
403.429922
 21
774.941790
  0
LINE
  8
CSLAYER1
  6
CONTINUOUS
 62
     7
 10
403.429922
 20
774.941790
 11
404.092110
 21
775.195671
  0
LINE
  8
CSLAYER1
  6
CONTINUOUS
 62
     7
 10
404.092110
 20
775.195671
 11
404.788545
 21
775.413854
  0
LINE
  8
CSLAYER1
  6
CONTINUOUS
 62
     7
 10
404.788545
 20
775.413854
 11
405.513929
 21
775.594678
  0
LINE
  8
CSLAYER1
  6
CONTINUOUS
 62
     7
 10
405.513929
 20
775.594678
 11
406.262738
 21
775.736766
  0
LINE
  8
CSLAYER1
  6
CONTINUOUS
 62
     7
 10
406.262738
 20
775.736766
 11
407.029276
 21
775.839036
  0
LINE
  8
CSLAYER1
  6
CONTINUOUS
 62
     7
 10
407.029276
 20
775.839036
 11
407.807708
 21
775.900712
  0
LINE
  8
CSLAYER1
  6
CONTINUOUS
 62
     7
 10
407.807708
 20
775.900712
 11
408.592110
 21
775.921323
  0
LINE
  8
CSLAYER1
  6
CONTINUOUS
 62
     7
 10
408.592110
 20
775.921323
 11
409.376512
 21
775.900712
  0
LINE
  8
CSLAYER1
  6
CONTINUOUS
 62
     7
 10
409.376512
 20
775.900712
 11
410.154943
 21
775.839036
  0
LINE
  8
CSLAYER1
  6
CONTINUOUS
 62
     7
 10
410.154943
 20
775.839036
 11
410.921481
 21
775.736766
  0
LINE
  8
CSLAYER1
  6
CONTINUOUS
 62
     7
 10
410.921481
 20
775.736766
 11
411.670291
 21
775.594678
  0
LINE
  8
CSLAYER1
  6
CONTINUOUS
 62
     7
 10
411.670291
 20
775.594678
 11
412.395674
 21
775.413854
  0
LINE
  8
CSLAYER1
  6
CONTINUOUS
 62
     7
 10
412.395674
 20
775.413854
 11
413.092110
 21
775.195671
  0
LINE
  8
CSLAYER1
  6
CONTINUOUS
 62
     7
 10
413.092110
 20
775.195671
 11
413.754298
 21
774.941790
  0
LINE
  8
CSLAYER1
  6
CONTINUOUS
 62
     7
 10
413.754298
 20
774.941790
 11
414.377198
 21
774.654141
  0
LINE
  8
CSLAYER1
  6
CONTINUOUS
 62
     7
 10
414.377198
 20
774.654141
 11
414.956071
 21
774.334915
  0
LINE
  8
CSLAYER1
  6
CONTINUOUS
 62
     7
 10
414.956071
 20
774.334915
 11
415.486510
 21
773.986541
  0
LINE
  8
CSLAYER1
  6
CONTINUOUS
 62
     7
 10
415.486510
 20
773.986541
 11
415.964478
 21
773.611670
  0
LINE
  8
CSLAYER1
  6
CONTINUOUS
 62
     7
 10
415.964478
 20
773.611670
 11
416.386338
 21
773.213155
  0
LINE
  8
CSLAYER1
  6
CONTINUOUS
 62
     7
 10
416.386338
 20
773.213155
 11
416.748880
 21
772.794030
  0
LINE
  8
CSLAYER1
  6
CONTINUOUS
 62
     7
 10
416.748880
 20
772.794030
 11
417.049343
 21
772.357483
  0
LINE
  8
CSLAYER1
  6
CONTINUOUS
 62
     7
 10
417.049343
 20
772.357483
 11
417.285442
 21
771.906838
  0
LINE
  8
CSLAYER1
  6
CONTINUOUS
 62
     7
 10
417.285442
 20
771.906838
 11
417.455380
 21
771.445524
  0
LINE
  8
CSLAYER1
  6
CONTINUOUS
 62
     7
 10
417.455380
 20
771.445524
 11
417.557862
 21
770.977052
  0
LINE
  8
CSLAYER1
  6
CONTINUOUS
 62
     7
 10
417.557862
 20
770.977052
 11
417.592110
 21
770.504988
  0
LINE
  8
CSLAYER1
  6
CONTINUOUS
 62
     7
 10
417.592110
 20
770.504988
 11
417.557862
 21
770.032923
  0
LINE
  8
CSLAYER1
  6
CONTINUOUS
 62
     7
 10
417.557862
 20
770.032923
 11
417.455380
 21
769.564451
  0
LINE
  8
CSLAYER1
  6
CONTINUOUS
 62
     7
 10
417.455380
 20
769.564451
 11
417.285442
 21
769.103137
  0
LINE
  8
CSLAYER1
  6
CONTINUOUS
 62
     7
 10
417.285442
 20
769.103137
 11
417.049343
 21
768.652492
  0
LINE
  8
CSLAYER1
  6
CONTINUOUS
 62
     7
 10
417.049343
 20
768.652492
 11
416.748880
 21
768.215945
  0
LINE
  8
CSLAYER1
  6
CONTINUOUS
 62
     7
 10
416.748880
 20
768.215945
 11
416.386338
 21
767.796820
  0
LINE
  8
CSLAYER1
  6
CONTINUOUS
 62
     7
 10
416.386338
 20
767.796820
 11
415.964478
 21
767.398305
  0
LINE
  8
CSLAYER1
  6
CONTINUOUS
 62
     7
 10
415.964478
 20
767.398305
 11
415.486510
 21
767.023434
  0
LINE
  8
CSLAYER1
  6
CONTINUOUS
 62
     7
 10
415.486510
 20
767.023434
 11
414.956071
 21
766.675060
  0
LINE
  8
CSLAYER1
  6
CONTINUOUS
 62
     7
 10
414.956071
 20
766.675060
 11
414.377198
 21
766.355834
  0
LINE
  8
CSLAYER1
  6
CONTINUOUS
 62
     7
 10
414.377198
 20
766.355834
 11
413.754298
 21
766.068185
  0
LINE
  8
CSLAYER1
  6
CONTINUOUS
 62
     7
 10
413.754298
 20
766.068185
 11
413.092110
 21
765.814304
  0
LINE
  8
CSLAYER1
  6
CONTINUOUS
 62
     7
 10
413.092110
 20
765.814304
 11
412.395674
 21
765.596121
  0
LINE
  8
CSLAYER1
  6
CONTINUOUS
 62
     7
 10
412.395674
 20
765.596121
 11
411.670291
 21
765.415297
  0
LINE
  8
CSLAYER1
  6
CONTINUOUS
 62
     7
 10
411.670291
 20
765.415297
 11
410.921481
 21
765.273209
  0
LINE
  8
CSLAYER1
  6
CONTINUOUS
 62
     7
 10
410.921481
 20
765.273209
 11
410.154943
 21
765.170939
  0
LINE
  8
CSLAYER1
  6
CONTINUOUS
 62
     7
 10
410.154943
 20
765.170939
 11
409.376512
 21
765.109263
  0
LINE
  8
CSLAYER1
  6
CONTINUOUS
 62
     7
 10
409.376512
 20
765.109263
 11
408.592110
 21
765.088652
  0
LINE
  8
CSLAYER1
  6
CONTINUOUS
 62
     7
 10
408.592110
 20
765.088652
 11
407.807708
 21
765.109263
  0
LINE
  8
CSLAYER1
  6
CONTINUOUS
 62
     7
 10
407.807708
 20
765.109263
 11
407.029276
 21
765.170939
  0
LINE
  8
CSLAYER1
  6
CONTINUOUS
 62
     7
 10
407.029276
 20
765.170939
 11
406.262738
 21
765.273209
  0
LINE
  8
CSLAYER1
  6
CONTINUOUS
 62
     7
 10
406.262738
 20
765.273209
 11
405.513929
 21
765.415297
  0
LINE
  8
CSLAYER1
  6
CONTINUOUS
 62
     7
 10
405.513929
 20
765.415297
 11
404.788545
 21
765.596121
  0
LINE
  8
CSLAYER1
  6
CONTINUOUS
 62
     7
 10
404.788545
 20
765.596121
 11
404.092110
 21
765.814304
  0
LINE
  8
CSLAYER1
  6
CONTINUOUS
 62
     7
 10
404.092110
 20
765.814304
 11
403.429922
 21
766.068185
  0
LINE
  8
CSLAYER1
  6
CONTINUOUS
 62
     7
 10
403.429922
 20
766.068185
 11
402.807021
 21
766.355834
  0
LINE
  8
CSLAYER1
  6
CONTINUOUS
 62
     7
 10
402.807021
 20
766.355834
 11
402.228149
 21
766.675060
  0
LINE
  8
CSLAYER1
  6
CONTINUOUS
 62
     7
 10
402.228149
 20
766.675060
 11
401.697710
 21
767.023434
  0
LINE
  8
CSLAYER1
  6
CONTINUOUS
 62
     7
 10
401.697710
 20
767.023434
 11
401.219741
 21
767.398305
  0
LINE
  8
CSLAYER1
  6
CONTINUOUS
 62
     7
 10
401.219741
 20
767.398305
 11
400.797881
 21
767.796820
  0
LINE
  8
CSLAYER1
  6
CONTINUOUS
 62
     7
 10
400.797881
 20
767.796820
 11
400.435340
 21
768.215945
  0
LINE
  8
CSLAYER1
  6
CONTINUOUS
 62
     7
 10
400.435340
 20
768.215945
 11
400.134876
 21
768.652492
  0
LINE
  8
CSLAYER1
  6
CONTINUOUS
 62
     7
 10
400.134876
 20
768.652492
 11
399.898777
 21
769.103137
  0
LINE
  8
CSLAYER1
  6
CONTINUOUS
 62
     7
 10
399.898777
 20
769.103137
 11
399.728840
 21
769.564451
  0
LINE
  8
CSLAYER1
  6
CONTINUOUS
 62
     7
 10
399.728840
 20
769.564451
 11
399.626358
 21
770.032923
  0
LINE
  8
CSLAYER1
  6
CONTINUOUS
 62
     7
 10
399.626358
 20
770.032923
 11
399.592110
 21
770.504988
  0
LINE
  8
CSLAYER1
  6
CONTINUOUS
 62
     7
 10
399.592110
 20
775.921323
 11
399.626358
 21
776.393387
  0
LINE
  8
CSLAYER1
  6
CONTINUOUS
 62
     7
 10
399.626358
 20
776.393387
 11
399.728840
 21
776.861859
  0
LINE
  8
CSLAYER1
  6
CONTINUOUS
 62
     7
 10
399.728840
 20
776.861859
 11
399.898777
 21
777.323173
  0
LINE
  8
CSLAYER1
  6
CONTINUOUS
 62
     7
 10
399.898777
 20
777.323173
 11
400.134876
 21
777.773819
  0
LINE
  8
CSLAYER1
  6
CONTINUOUS
 62
     7
 10
400.134876
 20
777.773819
 11
400.435340
 21
778.210365
  0
LINE
  8
CSLAYER1
  6
CONTINUOUS
 62
     7
 10
400.435340
 20
778.210365
 11
400.797881
 21
778.629490
  0
LINE
  8
CSLAYER1
  6
CONTINUOUS
 62
     7
 10
400.797881
 20
778.629490
 11
401.219741
 21
779.028005
  0
LINE
  8
CSLAYER1
  6
CONTINUOUS
 62
     7
 10
401.219741
 20
779.028005
 11
401.697710
 21
779.402876
  0
LINE
  8
CSLAYER1
  6
CONTINUOUS
 62
     7
 10
401.697710
 20
779.402876
 11
402.228149
 21
779.751250
  0
LINE
  8
CSLAYER1
  6
CONTINUOUS
 62
     7
 10
402.228149
 20
779.751250
 11
402.807021
 21
780.070476
  0
LINE
  8
CSLAYER1
  6
CONTINUOUS
 62
     7
 10
402.807021
 20
780.070476
 11
403.429922
 21
780.358125
  0
LINE
  8
CSLAYER1
  6
CONTINUOUS
 62
     7
 10
403.429922
 20
780.358125
 11
404.092110
 21
780.612007
  0
LINE
  8
CSLAYER1
  6
CONTINUOUS
 62
     7
 10
404.092110
 20
780.612007
 11
404.788545
 21
780.830190
  0
LINE
  8
CSLAYER1
  6
CONTINUOUS
 62
     7
 10
404.788545
 20
780.830190
 11
405.513929
 21
781.011013
  0
LINE
  8
CSLAYER1
  6
CONTINUOUS
 62
     7
 10
405.513929
 20
781.011013
 11
406.262738
 21
781.153101
  0
LINE
  8
CSLAYER1
  6
CONTINUOUS
 62
     7
 10
406.262738
 20
781.153101
 11
407.029276
 21
781.255372
  0
LINE
  8
CSLAYER1
  6
CONTINUOUS
 62
     7
 10
407.029276
 20
781.255372
 11
407.807708
 21
781.317047
  0
LINE
  8
CSLAYER1
  6
CONTINUOUS
 62
     7
 10
407.807708
 20
781.317047
 11
408.592110
 21
781.337658
  0
LINE
  8
CSLAYER1
  6
CONTINUOUS
 62
     7
 10
408.592110
 20
781.337658
 11
409.376512
 21
781.317047
  0
LINE
  8
CSLAYER1
  6
CONTINUOUS
 62
     7
 10
409.376512
 20
781.317047
 11
410.154943
 21
781.255372
  0
LINE
  8
CSLAYER1
  6
CONTINUOUS
 62
     7
 10
410.154943
 20
781.255372
 11
410.921481
 21
781.153101
  0
LINE
  8
CSLAYER1
  6
CONTINUOUS
 62
     7
 10
410.921481
 20
781.153101
 11
411.670291
 21
781.011013
  0
LINE
  8
CSLAYER1
  6
CONTINUOUS
 62
     7
 10
411.670291
 20
781.011013
 11
412.395674
 21
780.830190
  0
LINE
  8
CSLAYER1
  6
CONTINUOUS
 62
     7
 10
412.395674
 20
780.830190
 11
413.092110
 21
780.612007
  0
LINE
  8
CSLAYER1
  6
CONTINUOUS
 62
     7
 10
413.092110
 20
780.612007
 11
413.754298
 21
780.358125
  0
LINE
  8
CSLAYER1
  6
CONTINUOUS
 62
     7
 10
413.754298
 20
780.358125
 11
414.377198
 21
780.070476
  0
LINE
  8
CSLAYER1
  6
CONTINUOUS
 62
     7
 10
414.377198
 20
780.070476
 11
414.956071
 21
779.751250
  0
LINE
  8
CSLAYER1
  6
CONTINUOUS
 62
     7
 10
414.956071
 20
779.751250
 11
415.486510
 21
779.402876
  0
LINE
  8
CSLAYER1
  6
CONTINUOUS
 62
     7
 10
415.486510
 20
779.402876
 11
415.964478
 21
779.028005
  0
LINE
  8
CSLAYER1
  6
CONTINUOUS
 62
     7
 10
415.964478
 20
779.028005
 11
416.386338
 21
778.629490
  0
LINE
  8
CSLAYER1
  6
CONTINUOUS
 62
     7
 10
416.386338
 20
778.629490
 11
416.748880
 21
778.210365
  0
LINE
  8
CSLAYER1
  6
CONTINUOUS
 62
     7
 10
416.748880
 20
778.210365
 11
417.049343
 21
777.773819
  0
LINE
  8
CSLAYER1
  6
CONTINUOUS
 62
     7
 10
417.049343
 20
777.773819
 11
417.285442
 21
777.323173
  0
LINE
  8
CSLAYER1
  6
CONTINUOUS
 62
     7
 10
417.285442
 20
777.323173
 11
417.455380
 21
776.861859
  0
LINE
  8
CSLAYER1
  6
CONTINUOUS
 62
     7
 10
417.455380
 20
776.861859
 11
417.557862
 21
776.393387
  0
LINE
  8
CSLAYER1
  6
CONTINUOUS
 62
     7
 10
417.557862
 20
776.393387
 11
417.592110
 21
775.921323
  0
LINE
  8
CSLAYER1
  6
CONTINUOUS
 62
     7
 10
399.592110
 20
775.921323
 11
399.592110
 21
770.032923
  0
LINE
  8
CSLAYER1
  6
CONTINUOUS
 62
     7
 10
417.592110
 20
775.921323
 11
417.592110
 21
770.032923
  0
LINE
  8
CSLAYER1
  6
CONTINUOUS
 62
     7
 10
429.592110
 20
624.716080
 11
429.592110
 21
731.651950
  0
LINE
  8
CSLAYER1
  6
CONTINUOUS
 62
     7
 10
431.592110
 20
626.670184
 11
431.592110
 21
733.972237
  0
LINE
  8
CSLAYER1
  6
CONTINUOUS
 62
     7
 10
451.592110
 20
638.344267
 11
451.592110
 21
746.458562
  0
LINE
  8
CSLAYER1
  6
CONTINUOUS
 62
     7
 10
458.592110
 20
640.530420
 11
458.592110
 21
748.791784
  0
LINE
  8
CSLAYER1
  6
CONTINUOUS
 62
     7
 10
466.592110
 20
642.274328
 11
466.592110
 21
750.636412
  0
ENDBLK
  8
0
  0
BLOCK
  8
CSLAYER1
  2
BLKF0002
 70
   64
 10
0.0
 20
0.0
 30
0.0
  0
LINE
  8
CSLAYER1
  6
CONTINUOUS
 62
     2
 10
1562.996381
 20
1259.259657
 11
1615.088761
 21
1220.131023
  0
LINE
  8
CSLAYER1
  6
CONTINUOUS
 62
     2
 10
1521.348696
 20
1153.228902
 11
1611.709296
 21
1269.270545
  0
LINE
  8
CSLAYER1
  6
CONTINUOUS
 62
     2
 10
1523.858541
 20
1179.442974
 11
1546.139263
 21
1162.093173
  0
LINE
  8
CSLAYER1
  6
CONTINUOUS
 62
     2
 10
1456.212197
 20
1113.285533
 11
1546.208449
 21
1233.098531
  0
LINE
  8
CSLAYER1
  6
CONTINUOUS
 62
     2
 10
1593.833076
 20
1198.263816
 11
1547.258558
 21
1233.247766
  0
LINE
  8
CSLAYER1
  6
CONTINUOUS
 62
     2
 10
1593.833076
 20
1198.263816
 11
1594.032055
 21
1196.863670
  0
LINE
  8
CSLAYER1
  6
CONTINUOUS
 62
     2
 10
1547.258558
 20
1233.247766
 11
1546.208449
 21
1233.098531
  0
LINE
  8
CSLAYER1
  6
CONTINUOUS
 62
     2
 10
1555.610068
 20
1226.974618
 11
1560.023064
 21
1229.512015
  0
LINE
  8
CSLAYER1
  6
CONTINUOUS
 62
     2
 10
1560.023064
 20
1229.512015
 11
1560.574383
 21
1223.245727
  0
LINE
  8
CSLAYER1
  6
CONTINUOUS
 62
     2
 10
1560.574383
 20
1223.245727
 11
1562.368840
 21
1224.824887
  0
LINE
  8
CSLAYER1
  6
CONTINUOUS
 62
     2
 10
1560.574383
 20
1223.245727
 11
1559.709482
 21
1229.331711
  0
LINE
  8
CSLAYER1
  6
CONTINUOUS
 62
     2
 10
1560.348232
 20
1223.415597
 11
1559.522732
 21
1229.224333
  0
LINE
  8
CSLAYER1
  6
CONTINUOUS
 62
     2
 10
1560.122082
 20
1223.585468
 11
1559.335982
 21
1229.116955
  0
LINE
  8
CSLAYER1
  6
CONTINUOUS
 62
     2
 10
1559.895931
 20
1223.755338
 11
1559.149233
 21
1229.009577
  0
LINE
  8
CSLAYER1
  6
CONTINUOUS
 62
     2
 10
1559.669781
 20
1223.925209
 11
1558.962483
 21
1228.902199
  0
LINE
  8
CSLAYER1
  6
CONTINUOUS
 62
     2
 10
1559.443631
 20
1224.095079
 11
1558.775733
 21
1228.794822
  0
LINE
  8
CSLAYER1
  6
CONTINUOUS
 62
     2
 10
1559.217480
 20
1224.264950
 11
1558.588984
 21
1228.687444
  0
LINE
  8
CSLAYER1
  6
CONTINUOUS
 62
     2
 10
1558.991330
 20
1224.434820
 11
1558.402234
 21
1228.580066
  0
LINE
  8
CSLAYER1
  6
CONTINUOUS
 62
     2
 10
1558.765179
 20
1224.604691
 11
1558.215484
 21
1228.472688
  0
LINE
  8
CSLAYER1
  6
CONTINUOUS
 62
     2
 10
1558.539029
 20
1224.774561
 11
1558.028735
 21
1228.365310
  0
LINE
  8
CSLAYER1
  6
CONTINUOUS
 62
     2
 10
1558.312878
 20
1224.944431
 11
1557.841985
 21
1228.257932
  0
LINE
  8
CSLAYER1
  6
CONTINUOUS
 62
     2
 10
1558.086728
 20
1225.114302
 11
1557.655235
 21
1228.150554
  0
LINE
  8
CSLAYER1
  6
CONTINUOUS
 62
     2
 10
1557.860578
 20
1225.284172
 11
1557.468486
 21
1228.043176
  0
LINE
  8
CSLAYER1
  6
CONTINUOUS
 62
     2
 10
1557.634427
 20
1225.454043
 11
1557.281736
 21
1227.935798
  0
LINE
  8
CSLAYER1
  6
CONTINUOUS
 62
     2
 10
1557.408277
 20
1225.623913
 11
1557.094986
 21
1227.828421
  0
LINE
  8
CSLAYER1
  6
CONTINUOUS
 62
     2
 10
1557.182126
 20
1225.793784
 11
1556.908237
 21
1227.721043
  0
LINE
  8
CSLAYER1
  6
CONTINUOUS
 62
     2
 10
1556.955976
 20
1225.963654
 11
1556.721487
 21
1227.613665
  0
LINE
  8
CSLAYER1
  6
CONTINUOUS
 62
     2
 10
1556.729825
 20
1226.133525
 11
1556.534737
 21
1227.506287
  0
LINE
  8
CSLAYER1
  6
CONTINUOUS
 62
     2
 10
1556.503675
 20
1226.303395
 11
1556.347988
 21
1227.398909
  0
LINE
  8
CSLAYER1
  6
CONTINUOUS
 62
     2
 10
1556.277524
 20
1226.473266
 11
1556.161238
 21
1227.291531
  0
LINE
  8
CSLAYER1
  6
CONTINUOUS
 62
     2
 10
1556.051374
 20
1226.643136
 11
1555.974488
 21
1227.184153
  0
LINE
  8
CSLAYER1
  6
CONTINUOUS
 62
     2
 10
1555.825224
 20
1226.813007
 11
1555.787738
 21
1227.076775
  0
LINE
  8
CSLAYER1
  6
CONTINUOUS
 62
     2
 10
1560.753937
 20
1223.403738
 11
1559.896231
 21
1229.439089
  0
LINE
  8
CSLAYER1
  6
CONTINUOUS
 62
     2
 10
1560.933491
 20
1223.561749
 11
1560.122524
 21
1229.268219
  0
LINE
  8
CSLAYER1
  6
CONTINUOUS
 62
     2
 10
1561.113045
 20
1223.719760
 11
1560.425424
 21
1228.558289
  0
LINE
  8
CSLAYER1
  6
CONTINUOUS
 62
     2
 10
1561.292599
 20
1223.877772
 11
1560.719508
 21
1227.910396
  0
LINE
  8
CSLAYER1
  6
CONTINUOUS
 62
     2
 10
1561.472153
 20
1224.035783
 11
1561.006563
 21
1227.311961
  0
LINE
  8
CSLAYER1
  6
CONTINUOUS
 62
     2
 10
1561.651707
 20
1224.193794
 11
1561.287838
 21
1226.754205
  0
LINE
  8
CSLAYER1
  6
CONTINUOUS
 62
     2
 10
1561.831261
 20
1224.351806
 11
1561.564243
 21
1226.230711
  0
LINE
  8
CSLAYER1
  6
CONTINUOUS
 62
     2
 10
1562.010815
 20
1224.509817
 11
1561.836469
 21
1225.736620
  0
LINE
  8
CSLAYER1
  6
CONTINUOUS
 62
     2
 10
1562.190369
 20
1224.667828
 11
1562.105056
 21
1225.268143
  0
LINE
  8
CSLAYER1
  6
CONTINUOUS
 62
     2
 10
1585.681455
 20
1204.386818
 11
1586.888927
 21
1209.332010
  0
LINE
  8
CSLAYER1
  6
CONTINUOUS
 62
     2
 10
1586.888927
 20
1209.332010
 11
1580.717141
 21
1208.115709
  0
LINE
  8
CSLAYER1
  6
CONTINUOUS
 62
     2
 10
1580.717141
 20
1208.115709
 11
1581.733841
 21
1210.279074
  0
LINE
  8
CSLAYER1
  6
CONTINUOUS
 62
     2
 10
1580.717141
 20
1208.115709
 11
1586.803126
 21
1208.980610
  0
LINE
  8
CSLAYER1
  6
CONTINUOUS
 62
     2
 10
1580.943292
 20
1207.945839
 11
1586.752028
 21
1208.771339
  0
LINE
  8
CSLAYER1
  6
CONTINUOUS
 62
     2
 10
1581.169442
 20
1207.775968
 11
1586.700930
 21
1208.562068
  0
LINE
  8
CSLAYER1
  6
CONTINUOUS
 62
     2
 10
1581.395593
 20
1207.606098
 11
1586.649832
 21
1208.352797
  0
LINE
  8
CSLAYER1
  6
CONTINUOUS
 62
     2
 10
1581.621743
 20
1207.436227
 11
1586.598734
 21
1208.143525
  0
LINE
  8
CSLAYER1
  6
CONTINUOUS
 62
     2
 10
1581.847893
 20
1207.266357
 11
1586.547636
 21
1207.934254
  0
LINE
  8
CSLAYER1
  6
CONTINUOUS
 62
     2
 10
1582.074044
 20
1207.096486
 11
1586.496538
 21
1207.724983
  0
LINE
  8
CSLAYER1
  6
CONTINUOUS
 62
     2
 10
1582.300194
 20
1206.926616
 11
1586.445440
 21
1207.515712
  0
LINE
  8
CSLAYER1
  6
CONTINUOUS
 62
     2
 10
1582.526345
 20
1206.756745
 11
1586.394342
 21
1207.306440
  0
LINE
  8
CSLAYER1
  6
CONTINUOUS
 62
     2
 10
1582.752495
 20
1206.586875
 11
1586.343244
 21
1207.097169
  0
LINE
  8
CSLAYER1
  6
CONTINUOUS
 62
     2
 10
1582.978646
 20
1206.417004
 11
1586.292146
 21
1206.887898
  0
LINE
  8
CSLAYER1
  6
CONTINUOUS
 62
     2
 10
1583.204796
 20
1206.247134
 11
1586.241048
 21
1206.678627
  0
LINE
  8
CSLAYER1
  6
CONTINUOUS
 62
     2
 10
1583.430946
 20
1206.077263
 11
1586.189950
 21
1206.469355
  0
LINE
  8
CSLAYER1
  6
CONTINUOUS
 62
     2
 10
1583.657097
 20
1205.907393
 11
1586.138852
 21
1206.260084
  0
LINE
  8
CSLAYER1
  6
CONTINUOUS
 62
     2
 10
1583.883247
 20
1205.737523
 11
1586.087755
 21
1206.050813
  0
LINE
  8
CSLAYER1
  6
CONTINUOUS
 62
     2
 10
1584.109398
 20
1205.567652
 11
1586.036657
 21
1205.841542
  0
LINE
  8
CSLAYER1
  6
CONTINUOUS
 62
     2
 10
1584.335548
 20
1205.397782
 11
1585.985559
 21
1205.632270
  0
LINE
  8
CSLAYER1
  6
CONTINUOUS
 62
     2
 10
1584.561699
 20
1205.227911
 11
1585.934461
 21
1205.422999
  0
LINE
  8
CSLAYER1
  6
CONTINUOUS
 62
     2
 10
1584.787849
 20
1205.058041
 11
1585.883363
 21
1205.213728
  0
LINE
  8
CSLAYER1
  6
CONTINUOUS
 62
     2
 10
1585.014000
 20
1204.888170
 11
1585.832265
 21
1205.004457
  0
LINE
  8
CSLAYER1
  6
CONTINUOUS
 62
     2
 10
1585.240150
 20
1204.718300
 11
1585.781167
 21
1204.795186
  0
LINE
  8
CSLAYER1
  6
CONTINUOUS
 62
     2
 10
1585.466300
 20
1204.548429
 11
1585.730069
 21
1204.585914
  0
LINE
  8
CSLAYER1
  6
CONTINUOUS
 62
     2
 10
1580.818873
 20
1208.332176
 11
1586.854223
 21
1209.189882
  0
LINE
  8
CSLAYER1
  6
CONTINUOUS
 62
     2
 10
1580.920604
 20
1208.548643
 11
1586.627073
 21
1209.359610
  0
LINE
  8
CSLAYER1
  6
CONTINUOUS
 62
     2
 10
1581.022335
 20
1208.765110
 11
1585.860864
 21
1209.452731
  0
LINE
  8
CSLAYER1
  6
CONTINUOUS
 62
     2
 10
1581.124066
 20
1208.981577
 11
1585.156691
 21
1209.554668
  0
LINE
  8
CSLAYER1
  6
CONTINUOUS
 62
     2
 10
1581.225798
 20
1209.198044
 11
1584.501975
 21
1209.663633
  0
LINE
  8
CSLAYER1
  6
CONTINUOUS
 62
     2
 10
1581.327529
 20
1209.414511
 11
1583.887940
 21
1209.778380
  0
LINE
  8
CSLAYER1
  6
CONTINUOUS
 62
     2
 10
1581.429260
 20
1209.630978
 11
1583.308166
 21
1209.897996
  0
LINE
  8
CSLAYER1
  6
CONTINUOUS
 62
     2
 10
1581.530992
 20
1209.847445
 11
1582.757795
 21
1210.021790
  0
LINE
  8
CSLAYER1
  6
CONTINUOUS
 62
     2
 10
1581.632723
 20
1210.063912
 11
1582.233038
 21
1210.149225
  0
LINE
  8
CSLAYER1
  6
CONTINUOUS
 62
     2
 10
1559.534105
 20
1224.027120
 11
1570.645762
 21
1215.680718
  0
CIRCLE
  8
CSLAYER1
  6
CONTINUOUS
 62
     2
 10
1588.813393
 20
1239.867485
 40
22.000000
  0
CIRCLE
  8
CSLAYER1
  6
CONTINUOUS
 62
     2
 10
1588.813393
 20
1239.867485
 40
22.250000
  0
POINT
  8
CSLAYER1
 62
     2
 10
1476.482898
 20
1095.611968
  0
ARC
  8
CSLAYER1
  6
CONTINUOUS
 62
     2
 10
1476.482898
 20
1095.611968
 40
15.050000
 50
-69.738110
 51
20.126675
  0
ARC
  8
CSLAYER1
  6
CONTINUOUS
 62
     2
 10
1486.906882
 20
1067.374571
 40
15.050000
 50
110.261890
 51
133.108846
  0
ARC
  8
CSLAYER1
  6
CONTINUOUS
 62
     2
 10
1446.552047
 20
1098.798524
 40
15.050000
 50
335.109935
 51
353.922957
  0
POINT
  8
CSLAYER1
 62
     2
 10
1476.482898
 20
1095.611968
  0
ARC
  8
CSLAYER1
  6
CONTINUOUS
 62
     2
 10
1476.482898
 20
1095.611968
 40
13.000000
 50
104.461194
 51
359.723654
  0
POINT
  8
CSLAYER1
 62
     2
 10
1476.482898
 20
1095.611968
  0
ARC
  8
CSLAYER1
  6
CONTINUOUS
 62
     2
 10
1476.482898
 20
1095.611968
 40
15.050000
 50
84.058173
 51
173.922957
  0
POINT
  8
CSLAYER1
 62
     2
 10
1476.482898
 20
1095.611968
  0
POINT
  8
CSLAYER1
 62
     2
 10
1495.989766
 20
1120.662808
  0
POINT
  8
CSLAYER1
 62
     2
 10
1515.496634
 20
1145.713649
  0
CIRCLE
  8
CSLAYER1
  6
CONTINUOUS
 62
     2
 10
1476.482898
 20
1095.611968
 40
4.770000
  0
CIRCLE
  8
CSLAYER1
  6
CONTINUOUS
 62
     2
 10
1495.989766
 20
1120.662808
 40
4.770000
  0
ARC
  8
CSLAYER1
  6
CONTINUOUS
 62
     2
 10
1476.482898
 20
1095.611968
 40
13.000000
 50
104.461194
 51
359.723654
  0
ARC
  8
CSLAYER1
  6
CONTINUOUS
 62
     2
 10
1495.989766
 20
1120.662808
 40
13.000000
 50
-75.538806
 51
179.723654
  0
ARC
  8
CSLAYER1
  6
CONTINUOUS
 62
     2
 10
1495.989766
 20
1120.662808
 40
15.050000
 50
264.058173
 51
353.922957
  0
ARC
  8
CSLAYER1
  6
CONTINUOUS
 62
     2
 10
1515.496634
 20
1145.713649
 40
15.050000
 50
-69.738110
 51
20.126675
  0
ARC
  8
CSLAYER1
  6
CONTINUOUS
 62
     2
 10
1502.482596
 20
1095.486566
 40
13.000000
 50
104.461194
 51
179.723654
  0
ARC
  8
CSLAYER1
  6
CONTINUOUS
 62
     2
 10
1469.990068
 20
1120.788210
 40
13.000000
 50
284.461194
 51
359.723654
  0
ARC
  8
CSLAYER1
  6
CONTINUOUS
 62
     2
 10
1525.920617
 20
1117.476252
 40
15.050000
 50
110.261890
 51
173.922957
  0
ARC
  8
CSLAYER1
  6
CONTINUOUS
 62
     2
 10
1485.565783
 20
1148.900205
 40
15.050000
 50
290.261890
 51
353.922957
  0
POINT
  8
CSLAYER1
 62
     2
 10
1476.482898
 20
1095.611968
  0
CIRCLE
  8
CSLAYER1
  6
CONTINUOUS
 62
     2
 10
1476.482898
 20
1095.611968
 40
9.525000
  0
CIRCLE
  8
CSLAYER1
  6
CONTINUOUS
 62
     2
 10
1495.989766
 20
1120.662808
 40
9.525000
  0
ARC
  8
CSLAYER1
  6
CONTINUOUS
 62
     2
 10
1495.989766
 20
1120.662808
 40
15.050000
 50
110.261890
 51
200.126675
  0
POINT
  8
CSLAYER1
 62
     2
 10
1515.496634
 20
1145.713649
  0
ARC
  8
CSLAYER1
  6
CONTINUOUS
 62
     2
 10
1515.496634
 20
1145.713649
 40
13.000000
 50
104.461194
 51
359.723654
  0
POINT
  8
CSLAYER1
 62
     2
 10
1515.496634
 20
1145.713649
  0
ARC
  8
CSLAYER1
  6
CONTINUOUS
 62
     2
 10
1515.496634
 20
1145.713649
 40
15.050000
 50
84.058173
 51
173.922957
  0
POINT
  8
CSLAYER1
 62
     2
 10
1588.813393
 20
1239.867485
  0
POINT
  8
CSLAYER1
 62
     2
 10
1588.813393
 20
1239.867485
  0
ARC
  8
CSLAYER1
  6
CONTINUOUS
 62
     2
 10
1588.813393
 20
1239.867485
 40
30.250000
 50
-270.204447
 51
14.389295
  0
POINT
  8
CSLAYER1
 62
     2
 10
1535.003502
 20
1170.764489
  0
POINT
  8
CSLAYER1
 62
     2
 10
1535.003502
 20
1170.764489
  0
POINT
  8
CSLAYER1
 62
     2
 10
1535.003502
 20
1170.764489
  0
POINT
  8
CSLAYER1
 62
     2
 10
1535.003502
 20
1170.764489
  0
POINT
  8
CSLAYER1
 62
     2
 10
1535.003502
 20
1170.764489
  0
POINT
  8
CSLAYER1
 62
     2
 10
1535.003502
 20
1170.764489
  0
POINT
  8
CSLAYER1
 62
     2
 10
1535.003502
 20
1170.764489
  0
POINT
  8
CSLAYER1
 62
     2
 10
1535.003502
 20
1170.764489
  0
LINE
  8
CSLAYER1
  6
CONTINUOUS
 62
     2
 10
1544.219346
 20
1182.599534
 11
1534.751312
 21
1189.972208
  0
LINE
  8
CSLAYER1
  6
CONTINUOUS
 62
     2
 10
1516.137008
 20
1166.444326
 11
1525.787660
 21
1158.929448
  0
POINT
  8
CSLAYER1
 62
     2
 10
1535.003503
 20
1170.764491
  0
POINT
  8
CSLAYER1
 62
     2
 10
1535.003502
 20
1170.764489
  0
POINT
  8
CSLAYER1
 62
     2
 10
1535.003503
 20
1170.764491
  0
CIRCLE
  8
CSLAYER1
  6
CONTINUOUS
 62
     2
 10
1535.003503
 20
1170.764491
 40
4.770000
  0
ARC
  8
CSLAYER1
  6
CONTINUOUS
 62
     2
 10
1535.003503
 20
1170.764491
 40
13.000000
 50
-75.538806
 51
179.723654
  0
ARC
  8
CSLAYER1
  6
CONTINUOUS
 62
     2
 10
1541.496333
 20
1145.588249
 40
13.000000
 50
104.461194
 51
179.723654
  0
ARC
  8
CSLAYER1
  6
CONTINUOUS
 62
     2
 10
1509.003805
 20
1170.889892
 40
13.000000
 50
284.461194
 51
359.723654
  0
POINT
  8
CSLAYER1
 62
     2
 10
1535.003502
 20
1170.764489
  0
LINE
  8
CSLAYER1
  6
CONTINUOUS
 62
     2
 10
1514.231001
 20
1169.460586
 11
1531.177330
 21
1191.223166
  0
LINE
  8
CSLAYER1
  6
CONTINUOUS
 62
     2
 10
1536.650610
 20
1186.975422
 11
1519.690466
 21
1165.195099
  0
LINE
  8
CSLAYER1
  6
CONTINUOUS
 62
     2
 10
1521.348696
 20
1153.228902
 11
1603.350516
 21
1258.536148
  0
ARC
  8
CSLAYER1
  6
CONTINUOUS
 62
     2
 10
1531.228686
 20
1185.639266
 40
5.584136
 50
13.843874
 51
90.526941
  0
ARC
  8
CSLAYER1
  6
CONTINUOUS
 62
     2
 10
1524.612732
 20
1157.420599
 40
31.912350
 50
52.092424
 51
67.838602
  0
ARC
  8
CSLAYER1
  6
CONTINUOUS
 62
     2
 10
1519.657234
 20
1170.779136
 40
5.584136
 50
193.657906
 51
270.340973
  0
ARC
  8
CSLAYER1
  6
CONTINUOUS
 62
     2
 10
1545.394274
 20
1184.108383
 40
31.912350
 50
216.346245
 51
232.092424
  0
LINE
  8
CSLAYER1
  6
CONTINUOUS
 62
     2
 10
1544.219346
 20
1182.599534
 11
1553.687380
 21
1175.226859
  0
LINE
  8
CSLAYER1
  6
CONTINUOUS
 62
     2
 10
1535.438312
 20
1151.414571
 11
1525.787660
 21
1158.929448
  0
POINT
  8
CSLAYER1
 62
     2
 10
1535.003503
 20
1170.764491
  0
POINT
  8
CSLAYER1
 62
     2
 10
1535.003503
 20
1170.764491
  0
LINE
  8
CSLAYER1
  6
CONTINUOUS
 62
     2
 10
1538.829676
 20
1150.305816
 11
1555.776005
 21
1172.068396
  0
LINE
  8
CSLAYER1
  6
CONTINUOUS
 62
     2
 10
1550.316540
 20
1176.333883
 11
1533.356396
 21
1154.553560
  0
ARC
  8
CSLAYER1
  6
CONTINUOUS
 62
     2
 10
1550.349772
 20
1170.749846
 40
5.584136
 50
13.657906
 51
90.340973
  0
ARC
  8
CSLAYER1
  6
CONTINUOUS
 62
     2
 10
1524.612732
 20
1157.420599
 40
31.912350
 50
36.346245
 51
52.092424
  0
ARC
  8
CSLAYER1
  6
CONTINUOUS
 62
     2
 10
1538.778320
 20
1155.889715
 40
5.584136
 50
193.843874
 51
270.526941
  0
ARC
  8
CSLAYER1
  6
CONTINUOUS
 62
     2
 10
1545.394274
 20
1184.108383
 40
31.912350
 50
232.092424
 51
247.838602
  0
LINE
  8
CSLAYER1
  6
CONTINUOUS
 62
     2
 10
1534.751312
 20
1189.972208
 11
1534.748912
 21
1189.974077
  0
LINE
  8
CSLAYER1
  6
CONTINUOUS
 62
     2
 10
1553.687380
 20
1175.226859
 11
1553.689780
 21
1175.224991
  0
LINE
  8
CSLAYER1
  6
CONTINUOUS
 62
     2
 10
1590.630078
 20
1270.391893
 11
1595.003170
 21
1276.007846
  0
LINE
  8
CSLAYER1
  6
CONTINUOUS
 62
     2
 10
1597.463043
 20
1265.071124
 11
1604.168316
 21
1273.682078
  0
LINE
  8
CSLAYER1
  6
CONTINUOUS
 62
     2
 10
1590.630078
 20
1270.391893
 11
1604.296008
 21
1259.750355
  0
LINE
  8
CSLAYER1
  6
CONTINUOUS
 62
     2
 10
1617.961938
 20
1249.108816
 11
1622.271444
 21
1254.643110
  0
LINE
  8
CSLAYER1
  6
CONTINUOUS
 62
     2
 10
1611.128973
 20
1254.429585
 11
1617.806335
 21
1263.004695
  0
LINE
  8
CSLAYER1
  6
CONTINUOUS
 62
     2
 10
1618.892560
 20
1248.384148
 11
1604.296008
 21
1259.750355
  0
LINE
  8
CSLAYER1
  6
CONTINUOUS
 62
     2
 10
1553.312604
 20
1175.518694
 11
1552.898377
 21
1175.841249
  0
LINE
  8
CSLAYER1
  6
CONTINUOUS
 62
     2
 10
1543.656717
 20
1195.711873
 11
1569.639906
 21
1229.079645
  0
LINE
  8
CSLAYER1
  6
CONTINUOUS
 62
     2
 10
1537.558097
 20
1190.321435
 11
1568.883836
 21
1230.550143
  0
LINE
  8
CSLAYER1
  6
CONTINUOUS
 62
     2
 10
1616.926514
 20
1245.859339
 11
1587.733409
 21
1268.591752
  0
LINE
  8
CSLAYER1
  6
CONTINUOUS
 62
     2
 10
1616.926514
 20
1245.859339
 11
1618.892560
 21
1248.384148
  0
LINE
  8
CSLAYER1
  6
CONTINUOUS
 62
     2
 10
1589.699455
 20
1271.116561
 11
1604.296008
 21
1259.750355
  0
LINE
  8
CSLAYER1
  6
CONTINUOUS
 62
     2
 10
1587.733409
 20
1268.591752
 11
1589.699455
 21
1271.116561
  0
LINE
  8
CSLAYER1
  6
CONTINUOUS
 62
     2
 10
1550.363241
 20
1190.489562
 11
1542.473213
 21
1196.633457
  0
LINE
  8
CSLAYER1
  6
CONTINUOUS
 62
     2
 10
1543.656717
 20
1195.711873
 11
1540.876982
 21
1194.583568
  0
LINE
  8
CSLAYER1
  6
CONTINUOUS
 62
     2
 10
1535.540315
 20
1189.357818
 11
1535.126088
 21
1189.680373
  0
LINE
  8
CSLAYER1
  6
CONTINUOUS
 62
     2
 10
1554.101607
 20
1174.904305
 11
1553.687380
 21
1175.226859
  0
LINE
  8
CSLAYER1
  6
CONTINUOUS
 62
     2
 10
1557.069766
 20
1185.267251
 11
1583.052954
 21
1218.635023
  0
LINE
  8
CSLAYER1
  6
CONTINUOUS
 62
     2
 10
1550.363241
 20
1190.489562
 11
1558.253270
 21
1184.345667
  0
LINE
  8
CSLAYER1
  6
CONTINUOUS
 62
     2
 10
1557.069766
 20
1185.267251
 11
1556.657039
 21
1182.295777
  0
LINE
  8
CSLAYER1
  6
CONTINUOUS
 62
     2
 10
1553.338154
 20
1178.033644
 11
1584.663893
 21
1218.262352
  0
LINE
  8
CSLAYER1
  6
CONTINUOUS
 62
     2
 10
1534.751312
 20
1189.972208
 11
1534.337085
 21
1190.294762
  0
LINE
  8
CSLAYER1
  6
CONTINUOUS
 62
     2
 10
1553.687380
 20
1175.226859
 11
1534.751312
 21
1189.972208
  0
ARC
  8
CSLAYER1
  6
CONTINUOUS
 62
     2
 10
1554.916159
 20
1176.804865
 40
2.000000
 50
142.092424
 51
232.092424
  0
ARC
  8
CSLAYER1
  6
CONTINUOUS
 62
     2
 10
1535.980091
 20
1191.550214
 40
2.000000
 50
232.092424
 51
322.092424
  0
POINT
  8
CSLAYER1
 62
     2
 10
1544.219346
 20
1182.599534
  0
LINE
  8
CSLAYER1
  6
CONTINUOUS
 62
     2
 10
1592.962890
 20
1261.472613
 11
1594.439933
 21
1263.369441
  0
LINE
  8
CSLAYER1
  6
CONTINUOUS
 62
     2
 10
1608.779642
 20
1249.231947
 11
1610.219990
 21
1251.081650
  0
LINE
  8
CSLAYER1
  6
CONTINUOUS
 62
     2
 10
1607.986877
 20
1250.655321
 11
1609.036485
 21
1252.003234
  0
CIRCLE
  8
CSLAYER1
  6
CONTINUOUS
 62
     2
 10
1588.813391
 20
1239.867483
 40
22.000000
  0
CIRCLE
  8
CSLAYER1
  6
CONTINUOUS
 62
     2
 10
1515.496634
 20
1145.713649
 40
4.770000
  0
CIRCLE
  8
CSLAYER1
  6
CONTINUOUS
 62
     2
 10
1535.003502
 20
1170.764489
 40
4.770000
  0
ARC
  8
CSLAYER1
  6
CONTINUOUS
 62
     2
 10
1535.003502
 20
1170.764489
 40
13.000000
 50
-76.877857
 51
178.384603
  0
ARC
  8
CSLAYER1
  6
CONTINUOUS
 62
     2
 10
1541.496331
 20
1145.588247
 40
13.000000
 50
104.461194
 51
179.723654
  0
ARC
  8
CSLAYER1
  6
CONTINUOUS
 62
     2
 10
1509.003804
 20
1170.889891
 40
13.000000
 50
284.461194
 51
359.723654
  0
CIRCLE
  8
CSLAYER1
  6
CONTINUOUS
 62
     2
 10
1515.496634
 20
1145.713649
 40
9.525000
  0
CIRCLE
  8
CSLAYER1
  6
CONTINUOUS
 62
     2
 10
1535.003502
 20
1170.764489
 40
9.525000
  0
POINT
  8
CSLAYER1
 62
     2
 10
1591.676875
 20
1243.678513
  0
ENDBLK
  8
0
  0
BLOCK
  8
CSLAYER1
  2
BLKF0003
 70
   64
 10
0.0
 20
0.0
 30
0.0
  0
LINE
  8
CSLAYER1
  6
CONTINUOUS
 62
     1
 10
396.092110
 20
485.583386
 11
396.092110
 21
483.383386
  0
LINE
  8
CSLAYER1
  6
CONTINUOUS
 62
     1
 10
403.092110
 20
485.583386
 11
403.092110
 21
483.383386
  0
LINE
  8
CSLAYER1
  6
CONTINUOUS
 62
     1
 10
403.092110
 20
484.383386
 11
396.092110
 21
484.383386
  0
LINE
  8
CSLAYER1
  6
CONTINUOUS
 62
     1
 10
401.692110
 20
486.983386
 11
397.492110
 21
486.983386
  0
LINE
  8
CSLAYER1
  6
CONTINUOUS
 62
     1
 10
404.092110
 20
483.383386
 11
404.092110
 21
482.583386
  0
LINE
  8
CSLAYER1
  6
CONTINUOUS
 62
     1
 10
395.092110
 20
483.383386
 11
395.092110
 21
482.583386
  0
LINE
  8
CSLAYER1
  6
CONTINUOUS
 62
     1
 10
403.092110
 20
485.583386
 11
403.092110
 21
484.383386
  0
LINE
  8
CSLAYER1
  6
CONTINUOUS
 62
     1
 10
404.092110
 20
483.383386
 11
395.092110
 21
483.383386
  0
ARC
  8
CSLAYER1
  6
CONTINUOUS
 62
     1
 10
401.692110
 20
485.583386
 40
1.400000
 50
-0.000000
 51
90.000000
  0
ARC
  8
CSLAYER1
  6
CONTINUOUS
 62
     1
 10
397.492110
 20
485.583386
 40
1.400000
 50
90.000000
 51
180.000000
  0
LINE
  8
CSLAYER1
  6
CONTINUOUS
 62
     1
 10
400.632062
 20
483.383386
 11
398.246859
 21
484.383386
  0
LINE
  8
CSLAYER1
  6
CONTINUOUS
 62
     1
 10
399.592110
 20
488.202009
 11
399.592110
 21
480.966368
  0
ENDBLK
  8
0
  0
BLOCK
  8
CSLAYER1
  2
BLKF0004
 70
   64
 10
0.0
 20
0.0
 30
0.0
  0
LINE
  8
CSLAYER1
  6
CONTINUOUS
 62
     1
 10
2089.592110
 20
485.583386
 11
2089.592110
 21
483.383386
  0
LINE
  8
CSLAYER1
  6
CONTINUOUS
 62
     1
 10
2096.592110
 20
485.583386
 11
2096.592110
 21
483.383386
  0
LINE
  8
CSLAYER1
  6
CONTINUOUS
 62
     1
 10
2096.592110
 20
484.383386
 11
2089.592110
 21
484.383386
  0
LINE
  8
CSLAYER1
  6
CONTINUOUS
 62
     1
 10
2095.192110
 20
486.983386
 11
2090.992110
 21
486.983386
  0
LINE
  8
CSLAYER1
  6
CONTINUOUS
 62
     1
 10
2097.592110
 20
483.383386
 11
2097.592110
 21
482.583386
  0
LINE
  8
CSLAYER1
  6
CONTINUOUS
 62
     1
 10
2088.592110
 20
483.383386
 11
2088.592110
 21
482.583386
  0
LINE
  8
CSLAYER1
  6
CONTINUOUS
 62
     1
 10
2096.592110
 20
485.583386
 11
2096.592110
 21
484.383386
  0
LINE
  8
CSLAYER1
  6
CONTINUOUS
 62
     1
 10
2097.592110
 20
483.383386
 11
2088.592110
 21
483.383386
  0
ARC
  8
CSLAYER1
  6
CONTINUOUS
 62
     1
 10
2095.192110
 20
485.583386
 40
1.400000
 50
-0.000000
 51
90.000000
  0
ARC
  8
CSLAYER1
  6
CONTINUOUS
 62
     1
 10
2090.992110
 20
485.583386
 40
1.400000
 50
90.000000
 51
180.000000
  0
LINE
  8
CSLAYER1
  6
CONTINUOUS
 62
     1
 10
2094.132062
 20
483.383386
 11
2091.746859
 21
484.383386
  0
ENDBLK
  8
0
  0
BLOCK
  8
CSLAYER1
  2
BLKF0005
 70
   64
 10
0.0
 20
0.0
 30
0.0
  0
LINE
  8
CSLAYER1
  6
CONTINUOUS
 62
     3
 10
2536.028495
 20
1860.524699
 11
2536.028495
 21
1922.524699
  0
LINE
  8
CSLAYER1
  6
CONTINUOUS
 62
     3
 10
2538.528495
 20
1858.024699
 11
2623.528495
 21
1858.024699
  0
LINE
  8
CSLAYER1
  6
CENTER
 62
     5
 10
2477.678856
 20
1930.524699
 11
2536.028495
 21
1930.524699
  0
LINE
  8
CSLAYER1
  6
CONTINUOUS
 62
     2
 10
2538.528495
 20
1914.524699
 11
2623.528495
 21
1914.524699
  0
LINE
  8
CSLAYER1
  6
CONTINUOUS
 62
     3
 10
2538.528495
 20
1863.024699
 11
2538.528495
 21
1908.024699
  0
LINE
  8
CSLAYER1
  6
CONTINUOUS
 62
     3
 10
2626.028495
 20
1860.524699
 11
2626.028495
 21
1930.524699
  0
LINE
  8
CSLAYER1
  6
CONTINUOUS
 62
     3
 10
2541.028495
 20
1860.524699
 11
2618.028495
 21
1860.524699
  0
LINE
  8
CSLAYER1
  6
CONTINUOUS
 62
     3
 10
2541.028495
 20
1910.524699
 11
2618.028495
 21
1910.524699
  0
ARC
  8
CSLAYER1
  6
CONTINUOUS
 62
     3
 10
2563.960313
 20
1885.524699
 40
59.568182
 50
-24.814837
 51
24.814837
  0
ARC
  8
CSLAYER1
  6
CONTINUOUS
 62
     3
 10
2541.028495
 20
1863.024699
 40
2.500000
 50
180.000000
 51
270.000000
  0
ARC
  8
CSLAYER1
  6
CONTINUOUS
 62
     3
 10
2541.028495
 20
1908.024699
 40
2.500000
 50
90.000000
 51
180.000000
  0
ARC
  8
CSLAYER1
  6
CONTINUOUS
 62
     3
 10
2538.528495
 20
1860.524699
 40
2.500000
 50
180.000000
 51
270.000000
  0
ARC
  8
CSLAYER1
  6
CONTINUOUS
 62
     3
 10
2623.528495
 20
1860.524699
 40
2.500000
 50
270.000000
 51
360.000000
  0
ARC
  8
CSLAYER1
  6
CONTINUOUS
 62
     2
 10
2623.528495
 20
1917.024699
 40
2.500000
 50
270.000000
 51
360.000000
  0
ARC
  8
CSLAYER1
  6
CONTINUOUS
 62
     2
 10
2538.528495
 20
1917.024699
 40
2.500000
 50
180.000000
 51
270.000000
  0
LINE
  8
CSLAYER1
  6
CONTINUOUS
 62
     3
 10
2536.028495
 20
2000.524699
 11
2536.028495
 21
1938.524699
  0
LINE
  8
CSLAYER1
  6
CONTINUOUS
 62
     3
 10
2538.528495
 20
2003.024699
 11
2623.528495
 21
2003.024699
  0
LINE
  8
CSLAYER1
  6
CONTINUOUS
 62
     2
 10
2538.528495
 20
1946.524699
 11
2623.528495
 21
1946.524699
  0
LINE
  8
CSLAYER1
  6
CONTINUOUS
 62
     3
 10
2626.028495
 20
2000.524699
 11
2626.028495
 21
1930.524699
  0
ARC
  8
CSLAYER1
  6
CONTINUOUS
 62
     3
 10
2538.528495
 20
2000.524699
 40
2.500000
 50
90.000000
 51
180.000000
  0
ARC
  8
CSLAYER1
  6
CONTINUOUS
 62
     3
 10
2623.528495
 20
2000.524699
 40
2.500000
 50
0.000000
 51
90.000000
  0
ARC
  8
CSLAYER1
  6
CONTINUOUS
 62
     2
 10
2623.528495
 20
1944.024699
 40
2.500000
 50
0.000000
 51
90.000000
  0
ARC
  8
CSLAYER1
  6
CONTINUOUS
 62
     2
 10
2538.528495
 20
1944.024699
 40
2.500000
 50
90.000000
 51
180.000000
  0
LINE
  8
CSLAYER1
  6
CONTINUOUS
 62
     3
 10
2538.528495
 20
1998.024699
 11
2538.528495
 21
1953.024699
  0
LINE
  8
CSLAYER1
  6
CONTINUOUS
 62
     3
 10
2541.028495
 20
2000.524699
 11
2618.028495
 21
2000.524699
  0
LINE
  8
CSLAYER1
  6
CONTINUOUS
 62
     3
 10
2541.028495
 20
1950.524699
 11
2618.028495
 21
1950.524699
  0
ARC
  8
CSLAYER1
  6
CONTINUOUS
 62
     3
 10
2563.960313
 20
1975.524699
 40
59.568182
 50
-24.814837
 51
24.814837
  0
ARC
  8
CSLAYER1
  6
CONTINUOUS
 62
     3
 10
2541.028495
 20
1998.024699
 40
2.500000
 50
90.000000
 51
180.000000
  0
ARC
  8
CSLAYER1
  6
CONTINUOUS
 62
     3
 10
2541.028495
 20
1953.024699
 40
2.500000
 50
180.000000
 51
270.000000
  0
LINE
  8
CSLAYER1
  6
CONTINUOUS
 62
     3
 10
2529.028495
 20
1937.524699
 11
2529.028495
 21
1934.024699
  0
LINE
  8
CSLAYER1
  6
CONTINUOUS
 62
     3
 10
2477.678856
 20
1934.024699
 11
2529.028495
 21
1934.024699
  0
LINE
  8
CSLAYER1
  6
CONTINUOUS
 62
     3
 10
2530.028495
 20
1938.524699
 11
2536.028495
 21
1938.524699
  0
LINE
  8
CSLAYER1
  6
CONTINUOUS
 62
     3
 10
2530.028495
 20
1922.524699
 11
2536.028495
 21
1922.524699
  0
LINE
  8
CSLAYER1
  6
CONTINUOUS
 62
     3
 10
2477.678856
 20
1927.024699
 11
2529.028495
 21
1927.024699
  0
ARC
  8
CSLAYER1
  6
CONTINUOUS
 62
     3
 10
2530.028495
 20
1923.524699
 40
1.000000
 50
180.000000
 51
270.000000
  0
ARC
  8
CSLAYER1
  6
CONTINUOUS
 62
     3
 10
2530.028495
 20
1937.524699
 40
1.000000
 50
90.000000
 51
180.000000
  0
LINE
  8
CSLAYER1
  6
CONTINUOUS
 62
     3
 10
2529.028495
 20
1927.024699
 11
2529.028495
 21
1923.524699
  0
LINE
  8
CSLAYER1
  6
CONTINUOUS
 62
     2
 10
2529.028495
 20
1934.024699
 11
2529.028495
 21
1927.024699
  0
LINE
  8
CSLAYER1
  6
CONTINUOUS
 62
     2
 10
2536.028495
 20
1922.524699
 11
2536.028495
 21
1930.524699
  0
LINE
  8
CSLAYER1
  6
CONTINUOUS
 62
     2
 10
2536.028495
 20
1938.524699
 11
2536.028495
 21
1930.524699
  0
LINE
  8
CSLAYER1
  6
CONTINUOUS
 62
     2
 10
2555.521506
 20
1918.362039
 11
2546.386506
 21
1918.362039
  0
LINE
  8
CSLAYER1
  6
CONTINUOUS
 62
     2
 10
2555.521506
 20
1941.987039
 11
2546.386506
 21
1941.987039
  0
LINE
  8
CSLAYER1
  6
CONTINUOUS
 62
     2
 10
2545.126506
 20
1919.622039
 11
2545.126506
 21
1940.727039
  0
LINE
  8
CSLAYER1
  6
CONTINUOUS
 62
     2
 10
2556.781506
 20
1919.622039
 11
2556.781506
 21
1940.727039
  0
LINE
  8
CSLAYER1
  6
CONTINUOUS
 62
     2
 10
2554.891506
 20
1940.097039
 11
2546.859006
 21
1940.097039
  0
LINE
  8
CSLAYER1
  6
CONTINUOUS
 62
     2
 10
2554.891506
 20
1936.947039
 11
2553.946506
 21
1936.947039
  0
LINE
  8
CSLAYER1
  6
CONTINUOUS
 62
     2
 10
2554.891506
 20
1928.284539
 11
2553.946506
 21
1928.284539
  0
LINE
  8
CSLAYER1
  6
CONTINUOUS
 62
     2
 10
2554.891506
 20
1923.717039
 11
2549.851506
 21
1923.717039
  0
LINE
  8
CSLAYER1
  6
CONTINUOUS
 62
     2
 10
2555.994006
 20
1924.819539
 11
2555.994006
 21
1927.182039
  0
LINE
  8
CSLAYER1
  6
CONTINUOUS
 62
     2
 10
2548.749006
 20
1924.819539
 11
2548.749006
 21
1927.182039
  0
LINE
  8
CSLAYER1
  6
CONTINUOUS
 62
     2
 10
2545.756506
 20
1938.049539
 11
2545.756506
 21
1938.994539
  0
LINE
  8
CSLAYER1
  6
CONTINUOUS
 62
     2
 10
2553.001506
 20
1929.229539
 11
2553.001506
 21
1936.002039
  0
LINE
  8
CSLAYER1
  6
CONTINUOUS
 62
     2
 10
2552.214006
 20
1929.229539
 11
2552.214006
 21
1936.002039
  0
ARC
  8
CSLAYER1
  6
CONTINUOUS
 62
     2
 10
2554.891506
 20
1924.819539
 40
1.102500
 50
270.000000
 51
360.000000
  0
ARC
  8
CSLAYER1
  6
CONTINUOUS
 62
     2
 10
2549.851506
 20
1924.819539
 40
1.102500
 50
180.000000
 51
270.000000
  0
ARC
  8
CSLAYER1
  6
CONTINUOUS
 62
     2
 10
2549.851506
 20
1927.182039
 40
1.102500
 50
90.000000
 51
180.000000
  0
ARC
  8
CSLAYER1
  6
CONTINUOUS
 62
     2
 10
2554.891506
 20
1927.182039
 40
1.102500
 50
0.000000
 51
90.000000
  0
ARC
  8
CSLAYER1
  6
CONTINUOUS
 62
     2
 10
2546.859006
 20
1938.049539
 40
1.102500
 50
180.000000
 51
270.000000
  0
ARC
  8
CSLAYER1
  6
CONTINUOUS
 62
     2
 10
2546.859006
 20
1938.994539
 40
1.102500
 50
90.000000
 51
180.000000
  0
ARC
  8
CSLAYER1
  6
CONTINUOUS
 62
     2
 10
2554.891506
 20
1938.994539
 40
1.102500
 50
0.000000
 51
90.000000
  0
ARC
  8
CSLAYER1
  6
CONTINUOUS
 62
     2
 10
2554.891506
 20
1938.049539
 40
1.102500
 50
270.000000
 51
360.000000
  0
LINE
  8
CSLAYER1
  6
CONTINUOUS
 62
     2
 10
2551.269006
 20
1928.284539
 11
2549.851506
 21
1928.284539
  0
LINE
  8
CSLAYER1
  6
CONTINUOUS
 62
     2
 10
2551.269006
 20
1936.947039
 11
2546.859006
 21
1936.947039
  0
ARC
  8
CSLAYER1
  6
CONTINUOUS
 62
     2
 10
2553.946506
 20
1929.229539
 40
0.945000
 50
180.000000
 51
270.000000
  0
ARC
  8
CSLAYER1
  6
CONTINUOUS
 62
     2
 10
2551.269006
 20
1929.229539
 40
0.945000
 50
270.000000
 51
360.000000
  0
ARC
  8
CSLAYER1
  6
CONTINUOUS
 62
     2
 10
2551.269006
 20
1936.002039
 40
0.945000
 50
0.000000
 51
90.000000
  0
ARC
  8
CSLAYER1
  6
CONTINUOUS
 62
     2
 10
2555.521506
 20
1919.622039
 40
1.260000
 50
270.000000
 51
360.000000
  0
ARC
  8
CSLAYER1
  6
CONTINUOUS
 62
     2
 10
2546.386506
 20
1919.622039
 40
1.260000
 50
180.000000
 51
270.000000
  0
ARC
  8
CSLAYER1
  6
CONTINUOUS
 62
     2
 10
2546.386506
 20
1940.727039
 40
1.260000
 50
90.000000
 51
180.000000
  0
ARC
  8
CSLAYER1
  6
CONTINUOUS
 62
     2
 10
2555.521506
 20
1940.727039
 40
1.260000
 50
0.000000
 51
90.000000
  0
ARC
  8
CSLAYER1
  6
CONTINUOUS
 62
     2
 10
2553.946506
 20
1936.002039
 40
0.945000
 50
90.000000
 51
180.000000
  0
LINE
  8
CSLAYER1
  6
CONTINUOUS
 62
     2
 10
2555.994006
 20
1938.049539
 11
2555.994006
 21
1938.994539
  0
CIRCLE
  8
CSLAYER1
  6
CONTINUOUS
 62
     2
 10
2570.528495
 20
1880.524699
 40
2.500000
  0
CIRCLE
  8
CSLAYER1
  6
CONTINUOUS
 62
     2
 10
2570.528495
 20
1870.524699
 40
2.500000
  0
CIRCLE
  8
CSLAYER1
  6
CONTINUOUS
 62
     2
 10
2580.528495
 20
1870.524699
 40
2.500000
  0
CIRCLE
  8
CSLAYER1
  6
CONTINUOUS
 62
     2
 10
2580.528495
 20
1880.524699
 40
2.500000
  0
CIRCLE
  8
CSLAYER1
  6
CONTINUOUS
 62
     2
 10
2590.528495
 20
1880.524699
 40
2.500000
  0
CIRCLE
  8
CSLAYER1
  6
CONTINUOUS
 62
     2
 10
2590.528495
 20
1870.524699
 40
2.500000
  0
CIRCLE
  8
CSLAYER1
  6
CONTINUOUS
 62
     2
 10
2600.528495
 20
1870.524699
 40
2.500000
  0
CIRCLE
  8
CSLAYER1
  6
CONTINUOUS
 62
     2
 10
2600.528495
 20
1880.524699
 40
2.500000
  0
CIRCLE
  8
CSLAYER1
  6
CONTINUOUS
 62
     2
 10
2610.528495
 20
1880.524699
 40
2.500000
  0
CIRCLE
  8
CSLAYER1
  6
CONTINUOUS
 62
     2
 10
2610.528495
 20
1870.524699
 40
2.500000
  0
CIRCLE
  8
CSLAYER1
  6
CONTINUOUS
 62
     2
 10
2570.528495
 20
1890.524699
 40
2.500000
  0
CIRCLE
  8
CSLAYER1
  6
CONTINUOUS
 62
     2
 10
2570.528495
 20
1900.524699
 40
2.500000
  0
CIRCLE
  8
CSLAYER1
  6
CONTINUOUS
 62
     2
 10
2580.528495
 20
1900.524699
 40
2.500000
  0
CIRCLE
  8
CSLAYER1
  6
CONTINUOUS
 62
     2
 10
2580.528495
 20
1890.524699
 40
2.500000
  0
CIRCLE
  8
CSLAYER1
  6
CONTINUOUS
 62
     2
 10
2590.528495
 20
1890.524699
 40
2.500000
  0
CIRCLE
  8
CSLAYER1
  6
CONTINUOUS
 62
     2
 10
2590.528495
 20
1900.524699
 40
2.500000
  0
CIRCLE
  8
CSLAYER1
  6
CONTINUOUS
 62
     2
 10
2600.528495
 20
1900.524699
 40
2.500000
  0
CIRCLE
  8
CSLAYER1
  6
CONTINUOUS
 62
     2
 10
2600.528495
 20
1890.524699
 40
2.500000
  0
CIRCLE
  8
CSLAYER1
  6
CONTINUOUS
 62
     2
 10
2610.528495
 20
1890.524699
 40
2.500000
  0
CIRCLE
  8
CSLAYER1
  6
CONTINUOUS
 62
     2
 10
2610.528495
 20
1900.524699
 40
2.500000
  0
CIRCLE
  8
CSLAYER1
  6
CONTINUOUS
 62
     2
 10
2570.528495
 20
1980.524699
 40
2.500000
  0
CIRCLE
  8
CSLAYER1
  6
CONTINUOUS
 62
     2
 10
2570.528495
 20
1990.524699
 40
2.500000
  0
CIRCLE
  8
CSLAYER1
  6
CONTINUOUS
 62
     2
 10
2580.528495
 20
1990.524699
 40
2.500000
  0
CIRCLE
  8
CSLAYER1
  6
CONTINUOUS
 62
     2
 10
2580.528495
 20
1980.524699
 40
2.500000
  0
CIRCLE
  8
CSLAYER1
  6
CONTINUOUS
 62
     2
 10
2590.528495
 20
1980.524699
 40
2.500000
  0
CIRCLE
  8
CSLAYER1
  6
CONTINUOUS
 62
     2
 10
2590.528495
 20
1990.524699
 40
2.500000
  0
CIRCLE
  8
CSLAYER1
  6
CONTINUOUS
 62
     2
 10
2600.528495
 20
1990.524699
 40
2.500000
  0
CIRCLE
  8
CSLAYER1
  6
CONTINUOUS
 62
     2
 10
2600.528495
 20
1980.524699
 40
2.500000
  0
CIRCLE
  8
CSLAYER1
  6
CONTINUOUS
 62
     2
 10
2610.528495
 20
1980.524699
 40
2.500000
  0
CIRCLE
  8
CSLAYER1
  6
CONTINUOUS
 62
     2
 10
2610.528495
 20
1990.524699
 40
2.500000
  0
CIRCLE
  8
CSLAYER1
  6
CONTINUOUS
 62
     2
 10
2570.528495
 20
1970.524699
 40
2.500000
  0
CIRCLE
  8
CSLAYER1
  6
CONTINUOUS
 62
     2
 10
2570.528495
 20
1960.524699
 40
2.500000
  0
CIRCLE
  8
CSLAYER1
  6
CONTINUOUS
 62
     2
 10
2580.528495
 20
1960.524699
 40
2.500000
  0
CIRCLE
  8
CSLAYER1
  6
CONTINUOUS
 62
     2
 10
2580.528495
 20
1970.524699
 40
2.500000
  0
CIRCLE
  8
CSLAYER1
  6
CONTINUOUS
 62
     2
 10
2590.528495
 20
1970.524699
 40
2.500000
  0
CIRCLE
  8
CSLAYER1
  6
CONTINUOUS
 62
     2
 10
2590.528495
 20
1960.524699
 40
2.500000
  0
CIRCLE
  8
CSLAYER1
  6
CONTINUOUS
 62
     2
 10
2600.528495
 20
1960.524699
 40
2.500000
  0
CIRCLE
  8
CSLAYER1
  6
CONTINUOUS
 62
     2
 10
2600.528495
 20
1970.524699
 40
2.500000
  0
CIRCLE
  8
CSLAYER1
  6
CONTINUOUS
 62
     2
 10
2610.528495
 20
1970.524699
 40
2.500000
  0
CIRCLE
  8
CSLAYER1
  6
CONTINUOUS
 62
     2
 10
2610.528495
 20
1960.524699
 40
2.500000
  0
LINE
  8
CSLAYER1
  6
CONTINUOUS
 62
     2
 10
2544.528495
 20
1958.024699
 11
2544.528495
 21
1993.024699
  0
LINE
  8
CSLAYER1
  6
CONTINUOUS
 62
     2
 10
2560.528495
 20
1958.024699
 11
2560.528495
 21
1993.024699
  0
LINE
  8
CSLAYER1
  6
CONTINUOUS
 62
     2
 10
2546.028495
 20
1956.524699
 11
2559.028495
 21
1956.524699
  0
LINE
  8
CSLAYER1
  6
CONTINUOUS
 62
     2
 10
2545.528495
 20
1958.024699
 11
2545.528495
 21
1993.024699
  0
LINE
  8
CSLAYER1
  6
CONTINUOUS
 62
     2
 10
2559.528495
 20
1958.024699
 11
2559.528495
 21
1993.024699
  0
LINE
  8
CSLAYER1
  6
CONTINUOUS
 62
     2
 10
2546.028495
 20
1957.524699
 11
2559.028495
 21
1957.524699
  0
LINE
  8
CSLAYER1
  6
CONTINUOUS
 62
     2
 10
2546.028495
 20
1994.524699
 11
2559.028495
 21
1994.524699
  0
LINE
  8
CSLAYER1
  6
CONTINUOUS
 62
     2
 10
2546.028495
 20
1993.524699
 11
2559.028495
 21
1993.524699
  0
ARC
  8
CSLAYER1
  6
CONTINUOUS
 62
     2
 10
2546.028495
 20
1958.024699
 40
0.500000
 50
180.000000
 51
270.000000
  0
ARC
  8
CSLAYER1
  6
CONTINUOUS
 62
     2
 10
2559.028495
 20
1958.024699
 40
0.500000
 50
270.000000
 51
360.000000
  0
ARC
  8
CSLAYER1
  6
CONTINUOUS
 62
     2
 10
2546.028495
 20
1993.024699
 40
0.500000
 50
90.000000
 51
180.000000
  0
ARC
  8
CSLAYER1
  6
CONTINUOUS
 62
     2
 10
2559.028495
 20
1993.024699
 40
0.500000
 50
0.000000
 51
90.000000
  0
ARC
  8
CSLAYER1
  6
CONTINUOUS
 62
     2
 10
2546.028495
 20
1958.024699
 40
1.500000
 50
180.000000
 51
270.000000
  0
ARC
  8
CSLAYER1
  6
CONTINUOUS
 62
     2
 10
2559.028495
 20
1958.024699
 40
1.500000
 50
270.000000
 51
360.000000
  0
ARC
  8
CSLAYER1
  6
CONTINUOUS
 62
     2
 10
2546.028495
 20
1993.024699
 40
1.500000
 50
90.000000
 51
180.000000
  0
ARC
  8
CSLAYER1
  6
CONTINUOUS
 62
     2
 10
2559.028495
 20
1993.024699
 40
1.500000
 50
0.000000
 51
90.000000
  0
LINE
  8
CSLAYER1
  6
CONTINUOUS
 62
     2
 10
2549.528495
 20
1966.524699
 11
2549.528495
 21
1984.524699
  0
LINE
  8
CSLAYER1
  6
CONTINUOUS
 62
     2
 10
2546.450423
 20
1975.524699
 11
2549.528495
 21
1984.524699
  0
LINE
  8
CSLAYER1
  6
CONTINUOUS
 62
     2
 10
2546.450423
 20
1975.524699
 11
2549.528495
 21
1966.524699
  0
TEXT
  8
CSLAYER1
 62
     2
 10
2557.822092
 20
1966.544868
 40
7.066058
 41
1.574983
  1
UP
 50
90.000000
 51
0.000000
  7
EASYDRAW_FONT
 72
     5
 11
2557.822092
 21
1985.093071
  0
LINE
  8
CSLAYER1
  6
CONTINUOUS
 62
     2
 10
2544.528495
 20
1903.024699
 11
2544.528495
 21
1868.024699
  0
LINE
  8
CSLAYER1
  6
CONTINUOUS
 62
     2
 10
2560.528495
 20
1903.024699
 11
2560.528495
 21
1868.024699
  0
LINE
  8
CSLAYER1
  6
CONTINUOUS
 62
     2
 10
2546.028495
 20
1904.524699
 11
2559.028495
 21
1904.524699
  0
LINE
  8
CSLAYER1
  6
CONTINUOUS
 62
     2
 10
2545.528495
 20
1903.024699
 11
2545.528495
 21
1868.024699
  0
LINE
  8
CSLAYER1
  6
CONTINUOUS
 62
     2
 10
2559.528495
 20
1903.024699
 11
2559.528495
 21
1868.024699
  0
LINE
  8
CSLAYER1
  6
CONTINUOUS
 62
     2
 10
2546.028495
 20
1903.524699
 11
2559.028495
 21
1903.524699
  0
LINE
  8
CSLAYER1
  6
CONTINUOUS
 62
     2
 10
2546.028495
 20
1866.524699
 11
2559.028495
 21
1866.524699
  0
LINE
  8
CSLAYER1
  6
CONTINUOUS
 62
     2
 10
2546.028495
 20
1867.524699
 11
2559.028495
 21
1867.524699
  0
ARC
  8
CSLAYER1
  6
CONTINUOUS
 62
     2
 10
2546.028495
 20
1903.024699
 40
0.500000
 50
90.000000
 51
180.000000
  0
ARC
  8
CSLAYER1
  6
CONTINUOUS
 62
     2
 10
2559.028495
 20
1903.024699
 40
0.500000
 50
0.000000
 51
90.000000
  0
ARC
  8
CSLAYER1
  6
CONTINUOUS
 62
     2
 10
2546.028495
 20
1868.024699
 40
0.500000
 50
180.000000
 51
270.000000
  0
ARC
  8
CSLAYER1
  6
CONTINUOUS
 62
     2
 10
2559.028495
 20
1868.024699
 40
0.500000
 50
270.000000
 51
360.000000
  0
ARC
  8
CSLAYER1
  6
CONTINUOUS
 62
     2
 10
2546.028495
 20
1903.024699
 40
1.500000
 50
90.000000
 51
180.000000
  0
ARC
  8
CSLAYER1
  6
CONTINUOUS
 62
     2
 10
2559.028495
 20
1903.024699
 40
1.500000
 50
0.000000
 51
90.000000
  0
ARC
  8
CSLAYER1
  6
CONTINUOUS
 62
     2
 10
2546.028495
 20
1868.024699
 40
1.500000
 50
180.000000
 51
270.000000
  0
ARC
  8
CSLAYER1
  6
CONTINUOUS
 62
     2
 10
2559.028495
 20
1868.024699
 40
1.500000
 50
270.000000
 51
360.000000
  0
LINE
  8
CSLAYER1
  6
CONTINUOUS
 62
     2
 10
2555.001425
 20
1894.524699
 11
2555.001425
 21
1876.524699
  0
LINE
  8
CSLAYER1
  6
CONTINUOUS
 62
     2
 10
2558.079497
 20
1885.524699
 11
2555.001425
 21
1876.524699
  0
LINE
  8
CSLAYER1
  6
CONTINUOUS
 62
     2
 10
2558.079497
 20
1885.524699
 11
2555.001425
 21
1894.524699
  0
TEXT
  8
CSLAYER1
 62
     2
 10
2553.391250
 20
1870.827056
 40
6.383575
 41
1.255870
  1
DOWN
 50
90.000000
 51
0.000000
  7
EASYDRAW_FONT
 72
     5
 11
2553.391250
 21
1900.222505
  0
ENDBLK
  8
0
  0
ENDSEC
  0
SECTION
  2
ENTITIES
  0
LINE
  8
CSLAYER1
  6
CONTINUOUS
 62
     3
 10
118.051807
 20
2400.454119
 11
118.051807
 21
51.907189
  0
LINE
  8
CSLAYER1
  6
CONTINUOUS
 62
     3
 10
3440.625117
 20
2400.454119
 11
118.051807
 21
2400.454119
  0
LINE
  8
CSLAYER1
  6
CONTINUOUS
 62
     3
 10
3440.625117
 20
2400.454119
 11
3440.625117
 21
51.907189
  0
LINE
  8
CSLAYER1
  6
CONTINUOUS
 62
     3
 10
3440.625117
 20
51.907189
 11
118.051807
 21
51.907189
  0
LINE
  8
CSLAYER1
  6
CONTINUOUS
 62
     5
 10
68.051807
 20
1211.907189
 11
18.051807
 21
1211.907189
  0
LINE
  8
CSLAYER1
  6
CONTINUOUS
 62
     5
 10
2640.625117
 20
491.907189
 11
3440.625117
 21
491.907189
  0
LINE
  8
CSLAYER1
  6
CONTINUOUS
 62
     5
 10
2640.625117
 20
131.907189
 11
3440.625117
 21
131.907189
  0
LINE
  8
CSLAYER1
  6
CONTINUOUS
 62
     5
 10
2640.625117
 20
291.907189
 11
3440.625117
 21
291.907189
  0
LINE
  8
CSLAYER1
  6
CONTINUOUS
 62
     5
 10
2640.625117
 20
351.907189
 11
3440.625117
 21
351.907189
  0
LINE
  8
CSLAYER1
  6
CONTINUOUS
 62
     5
 10
2640.625117
 20
411.907189
 11
3440.625117
 21
411.907189
  0
LINE
  8
CSLAYER1
  6
CONTINUOUS
 62
     5
 10
2640.625117
 20
571.907189
 11
3440.625117
 21
571.907189
  0
LINE
  8
CSLAYER1
  6
CONTINUOUS
 62
     5
 10
2640.625117
 20
651.907189
 11
2640.625117
 21
51.907189
  0
LINE
  8
CSLAYER1
  6
CONTINUOUS
 62
     5
 10
2840.625117
 20
651.907189
 11
2840.625117
 21
411.907189
  0
LINE
  8
CSLAYER1
  6
CONTINUOUS
 62
     5
 10
2640.625117
 20
651.907189
 11
3440.625117
 21
651.907189
  0
LINE
  8
CSLAYER1
  6
CONTINUOUS
 62
     5
 10
3140.625117
 20
411.907189
 11
3140.625117
 21
131.907189
  0
TEXT
  8
CSLAYER1
 62
     3
 10
2860.316219
 20
60.469913
 40
59.380363
 41
1.003345
  1
東正車輌株式会社
 50
0.000000
 51
0.000000
  7
EASYDRAW_FONT
 72
     5
 11
3317.088566
 21
60.469913
  0
LINE
  8
CSLAYER1
  6
CONTINUOUS
 62
     5
 10
2890.625117
 20
351.907189
 11
2890.625117
 21
131.907189
  0
TEXT
  8
CSLAYER1
 62
     5
 10
2670.625000
 20
586.907166
 40
50.000000
 41
1.050000
  1
品　名
 50
0.000000
 51
0.000000
  7
EASYDRAW_FONT
 72
     5
 11
2810.625000
 21
586.907166
  0
TEXT
  8
CSLAYER1
 62
     5
 10
2670.625000
 20
506.907166
 40
50.000000
 41
1.050000
  1
型　式
 50
0.000000
 51
0.000000
  7
EASYDRAW_FONT
 72
     5
 11
2810.625000
 21
506.907166
  0
TEXT
  8
CSLAYER1
 62
     5
 10
2645.625000
 20
426.907196
 40
50.000000
 41
1.036364
  1
図面番号
 50
0.000000
 51
0.000000
  7
EASYDRAW_FONT
 72
     5
 11
2835.625000
 21
426.907196
  0
TEXT
  8
CSLAYER1
 62
     5
 10
2690.625000
 20
356.907196
 40
50.000000
 41
0.827586
  1
平成２８年４月１６日
 50
0.000000
 51
0.000000
  7
EASYDRAW_FONT
 72
     5
 11
3090.625000
 21
356.907196
  0
TEXT
  8
CSLAYER1
 62
     5
 10
3220.625000
 20
356.907196
 40
50.000000
 41
1.050000
  1
Ｂ－４
 50
0.000000
 51
0.000000
  7
EASYDRAW_FONT
 72
     5
 11
3360.625000
 21
356.907196
  0
TEXT
  8
CSLAYER1
 62
     5
 10
2695.625000
 20
296.907196
 40
50.000000
 41
1.050000
  1
検　図
 50
0.000000
 51
0.000000
  7
EASYDRAW_FONT
 72
     5
 11
2835.625000
 21
296.907196
  0
TEXT
  8
CSLAYER1
 62
     5
 10
2945.625000
 20
296.907196
 40
50.000000
 41
1.050000
  1
作　図
 50
0.000000
 51
0.000000
  7
EASYDRAW_FONT
 72
     5
 11
3085.625000
 21
296.907196
  0
TEXT
  8
CSLAYER1
 62
     5
 10
3220.625000
 20
296.907196
 40
50.000000
 41
1.050000
  1
尺　度
 50
0.000000
 51
0.000000
  7
EASYDRAW_FONT
 72
     5
 11
3360.625000
 21
296.907196
  0
TEXT
  8
CSLAYER1
 62
     5
 10
3321.363770
 20
146.392456
 40
50.000000
 41
1.080000
  1
１０
 50
0.000000
 51
0.000000
  7
EASYDRAW_FONT
 72
     5
 11
3411.363770
 21
146.392456
  0
TEXT
  8
CSLAYER1
 62
     5
 10
3301.044189
 20
194.097153
 40
50.000000
 41
1.200000
  1
／
 50
0.000000
 51
0.000000
  7
EASYDRAW_FONT
 72
     5
 11
3341.044189
 21
194.097153
  0
TEXT
  8
CSLAYER1
 62
     5
 10
3270.831299
 20
229.080597
 40
50.000000
 41
1.200000
  1
１
 50
0.000000
 51
0.000000
  7
EASYDRAW_FONT
 72
     5
 11
3310.831299
 21
229.080597
  0
TEXT
  8
CSLAYER1
 62
     3
 10
2980.625000
 20
586.907166
 40
50.000000
 41
0.834783
  1
ゴールドリフター
 50
0.000000
 51
0.000000
  7
EASYDRAW_FONT
 72
     5
 11
3300.625000
 21
586.907166
  0
TEXT
  8
CSLAYER1
 62
     3
 10
2900.625000
 20
506.907166
 40
50.000000
 41
0.822857
  1
ＧＬＩ－５００－０５１２
 50
0.000000
 51
0.000000
  7
EASYDRAW_FONT
 72
     5
 11
3380.625000
 21
506.907166
  0
TEXT
  8
CSLAYER1
 62
     3
 10
3040.625000
 20
426.907196
 40
50.000000
 41
0.857143
  1
GI-24
 50
0.000000
 51
0.000000
  7
EASYDRAW_FONT
 72
     5
 11
3240.625000
 21
426.907196
  0
INSERT
  8
CSLAYER1
  2
BLKF0000
 10
0.0
 20
0.0
 30
0.0
  0
TEXT
  8
CSLAYER1
 62
     5
 10
2433.475098
 20
382.568298
 40
40.000000
 41
1.050000
  1
Ｆ.Ｌ
 50
360.000000
 51
0.000000
  7
EASYDRAW_FONT
 72
     5
 11
2545.475098
 21
382.568298
  0
TEXT
  8
CSLAYER1
 62
     5
 10
786.823853
 20
739.209595
 40
40.000000
 41
1.028571
  1
上限・下限
 50
360.000000
 51
0.000000
  7
EASYDRAW_FONT
 72
     5
 11
978.823853
 21
739.209595
  0
TEXT
  8
CSLAYER1
 62
     5
 10
739.831665
 20
684.221802
 40
40.000000
 41
1.017391
  1
リミットスイッチ
 50
360.000000
 51
0.000000
  7
EASYDRAW_FONT
 72
     5
 11
1051.831665
 21
684.221802
  0
TEXT
  8
CSLAYER1
 62
     5
 10
738.909851
 20
943.949402
 40
40.000000
 41
1.017391
  1
ギヤードモーター
 50
360.000000
 51
0.000000
  7
EASYDRAW_FONT
 72
     5
 11
1050.909851
 21
943.949402
  0
LINE
  8
CSLAYER1
  6
CONTINUOUS
 62
     5
 10
3391.269391
 20
1878.901961
 11
2670.396874
 21
1878.901961
  0
LINE
  8
CSLAYER1
  6
CONTINUOUS
 62
     5
 10
3391.269391
 20
1814.901962
 11
2670.396874
 21
1814.901962
  0
LINE
  8
CSLAYER1
  6
CONTINUOUS
 62
     5
 10
3391.269391
 20
1750.901964
 11
2670.396874
 21
1750.901964
  0
LINE
  8
CSLAYER1
  6
CONTINUOUS
 62
     5
 10
3391.269391
 20
1686.901966
 11
2671.269409
 21
1686.901966
  0
LINE
  8
CSLAYER1
  6
CONTINUOUS
 62
     5
 10
3391.269391
 20
1622.901967
 11
2670.396874
 21
1622.901967
  0
LINE
  8
CSLAYER1
  6
CONTINUOUS
 62
     5
 10
3391.269391
 20
1558.901969
 11
2670.396874
 21
1558.901969
  0
LINE
  8
CSLAYER1
  6
CONTINUOUS
 62
     5
 10
3391.269391
 20
1494.901970
 11
2670.396874
 21
1494.901970
  0
LINE
  8
CSLAYER1
  6
CONTINUOUS
 62
     5
 10
3391.269391
 20
1430.901972
 11
2670.396874
 21
1430.901972
  0
LINE
  8
CSLAYER1
  6
CONTINUOUS
 62
     5
 10
3391.269391
 20
1366.901974
 11
2670.396874
 21
1366.901974
  0
TEXT
  8
CSLAYER1
 62
     5
 10
2866.120605
 20
1958.721069
 40
40.000000
 41
0.857143
  1
仕   様
 50
0.000000
 51
0.000000
  7
EASYDRAW_FONT
 72
     5
 11
3026.120605
 21
1958.721069
  0
TEXT
  8
CSLAYER1
 62
     5
 10
2681.156250
 20
1887.124878
 40
40.000000
 41
0.847059
  1
型    式
 50
0.000000
 51
0.000000
  7
EASYDRAW_FONT
 72
     5
 11
2873.156250
 21
1887.124878
  0
TEXT
  8
CSLAYER1
 62
     5
 10
2679.336670
 20
1764.635132
 40
40.000000
 41
0.847059
  1
テーブル寸法
 50
0.000000
 51
0.000000
  7
EASYDRAW_FONT
 72
     5
 11
2871.336670
 21
1764.635132
  0
TEXT
  8
CSLAYER1
 62
     5
 10
2681.156250
 20
1701.571289
 40
40.000000
 41
0.847059
  1
テーブル高サ
 50
0.000000
 51
0.000000
  7
EASYDRAW_FONT
 72
     5
 11
2873.156250
 21
1701.571289
  0
TEXT
  8
CSLAYER1
 62
     5
 10
2682.603027
 20
1636.688477
 40
40.000000
 41
0.857143
  1
ストローク
 50
0.000000
 51
0.000000
  7
EASYDRAW_FONT
 72
     5
 11
2842.603027
 21
1636.688477
  0
TEXT
  8
CSLAYER1
 62
     5
 10
2681.996826
 20
1571.805664
 40
40.000000
 41
0.857143
  1
全   長
 50
0.000000
 51
0.000000
  7
EASYDRAW_FONT
 72
     5
 11
2841.996826
 21
1571.805664
  0
TEXT
  8
CSLAYER1
 62
     5
 10
2684.268066
 20
1505.955078
 40
40.000000
 41
0.857143
  1
全   巾
 50
0.000000
 51
0.000000
  7
EASYDRAW_FONT
 72
     5
 11
2844.268066
 21
1505.955078
  0
TEXT
  8
CSLAYER1
 62
     5
 10
2682.710205
 20
1442.069824
 40
40.000000
 41
0.857143
  1
全   高
 50
0.000000
 51
0.000000
  7
EASYDRAW_FONT
 72
     5
 11
2842.710205
 21
1442.069824
  0
TEXT
  8
CSLAYER1
 62
     5
 10
2682.710205
 20
1379.743164
 40
40.000000
 41
0.857143
  1
リフト方式
 50
0.000000
 51
0.000000
  7
EASYDRAW_FONT
 72
     5
 11
2842.710205
 21
1379.743164
  0
TEXT
  8
CSLAYER1
 62
     5
 10
3320.735352
 20
1821.960327
 40
40.000000
 41
0.960000
  1
Ｋｇ
 50
0.000000
 51
0.000000
  7
EASYDRAW_FONT
 72
     5
 11
3384.735352
 21
1821.960327
  0
TEXT
  8
CSLAYER1
 62
     5
 10
3266.917236
 20
1772.816772
 40
40.000000
 41
1.200000
  1
Ｗ
 50
0.000000
 51
0.000000
  7
EASYDRAW_FONT
 72
     5
 11
3298.917236
 21
1772.816772
  0
TEXT
  8
CSLAYER1
 62
     5
 10
3106.796631
 20
1776.339722
 40
40.000000
 41
1.200000
  1
Ｌ
 50
0.000000
 51
0.000000
  7
EASYDRAW_FONT
 72
     5
 11
3138.796631
 21
1776.339722
  0
TEXT
  8
CSLAYER1
 62
     5
 10
2985.747314
 20
1380.697754
 40
40.000000
 41
0.834783
  1
電動ボールネジ式
 50
0.000000
 51
0.000000
  7
EASYDRAW_FONT
 72
     5
 11
3241.747314
 21
1380.697754
  0
TEXT
  8
CSLAYER1
 62
     5
 10
3318.221191
 20
1757.856812
 40
40.000000
 41
0.960000
  1
mm
 50
0.000000
 51
0.000000
  7
EASYDRAW_FONT
 72
     5
 11
3382.221191
 21
1757.856812
  0
TEXT
  8
CSLAYER1
 62
     5
 10
3318.221191
 20
1697.523926
 40
40.000000
 41
0.960000
  1
mm
 50
0.000000
 51
0.000000
  7
EASYDRAW_FONT
 72
     5
 11
3382.221191
 21
1697.523926
  0
TEXT
  8
CSLAYER1
 62
     5
 10
3314.450439
 20
1633.419922
 40
40.000000
 41
0.960000
  1
mm
 50
0.000000
 51
0.000000
  7
EASYDRAW_FONT
 72
     5
 11
3378.450439
 21
1633.419922
  0
TEXT
  8
CSLAYER1
 62
     5
 10
3314.450439
 20
1565.544922
 40
40.000000
 41
0.960000
  1
mm
 50
0.000000
 51
0.000000
  7
EASYDRAW_FONT
 72
     5
 11
3378.450439
 21
1565.544922
  0
TEXT
  8
CSLAYER1
 62
     5
 10
3311.937012
 20
1505.211914
 40
40.000000
 41
0.960000
  1
mm
 50
0.000000
 51
0.000000
  7
EASYDRAW_FONT
 72
     5
 11
3375.937012
 21
1505.211914
  0
TEXT
  8
CSLAYER1
 62
     5
 10
3311.937012
 20
1441.107422
 40
40.000000
 41
0.960000
  1
mm
 50
0.000000
 51
0.000000
  7
EASYDRAW_FONT
 72
     5
 11
3375.937012
 21
1441.107422
  0
LINE
  8
CSLAYER1
  6
CONTINUOUS
 62
     5
 10
3054.173812
 20
1942.901959
 11
2845.787840
 21
1942.901959
  0
LINE
  8
CSLAYER1
  6
CONTINUOUS
 62
     5
 10
3054.173812
 20
1950.901959
 11
2845.787840
 21
1950.901959
  0
TEXT
  8
CSLAYER1
 62
     5
 10
3156.824219
 20
1826.635132
 40
40.000000
 41
0.900000
  1
５００
 50
0.000000
 51
0.000000
  7
EASYDRAW_FONT
 72
     5
 11
3252.824219
 21
1826.635132
  0
TEXT
  8
CSLAYER1
 62
     5
 10
2978.796631
 20
1762.733276
 40
40.000000
 41
0.830769
  1
１２００　×５００
 50
0.000000
 51
0.000000
  7
EASYDRAW_FONT
 72
     5
 11
3266.796631
 21
1762.733276
  0
TEXT
  8
CSLAYER1
 62
     5
 10
3011.993408
 20
1699.161133
 40
40.000000
 41
0.834783
  1
１５５～１０１５
 50
0.000000
 51
0.000000
  7
EASYDRAW_FONT
 72
     5
 11
3267.993408
 21
1699.161133
  0
TEXT
  8
CSLAYER1
 62
     5
 10
3165.262451
 20
1633.632813
 40
40.000000
 41
0.900000
  1
８６０
 50
0.000000
 51
0.000000
  7
EASYDRAW_FONT
 72
     5
 11
3261.262451
 21
1633.632813
  0
TEXT
  8
CSLAYER1
 62
     5
 10
3133.682617
 20
1570.827148
 40
40.000000
 41
0.872727
  1
１２００
 50
0.000000
 51
0.000000
  7
EASYDRAW_FONT
 72
     5
 11
3261.682617
 21
1570.827148
  0
TEXT
  8
CSLAYER1
 62
     5
 10
3161.854248
 20
1506.073730
 40
40.000000
 41
0.900000
  1
５００
 50
0.000000
 51
0.000000
  7
EASYDRAW_FONT
 72
     5
 11
3257.854248
 21
1506.073730
  0
TEXT
  8
CSLAYER1
 62
     5
 10
3161.367432
 20
1441.320801
 40
40.000000
 41
0.900000
  1
１５５
 50
0.000000
 51
0.000000
  7
EASYDRAW_FONT
 72
     5
 11
3257.367432
 21
1441.320801
  0
LINE
  8
CSLAYER1
  6
CONTINUOUS
 62
     5
 10
1011.992110
 20
1294.554615
 11
1039.192110
 21
1294.554615
  0
LINE
  8
CSLAYER1
  6
CONTINUOUS
 62
     5
 10
1025.592110
 20
1308.154615
 11
1025.592110
 21
1280.954615
  0
CIRCLE
  8
CSLAYER1
  6
CONTINUOUS
 62
     4
 10
1025.592110
 20
1294.554615
 40
8.000000
  0
CIRCLE
  8
CSLAYER1
  6
CONTINUOUS
 62
     4
 10
1252.336856
 20
791.912573
 40
14.000000
  0
LINE
  8
CSLAYER1
  6
CENTER
 62
     5
 10
483.592110
 20
1461.046934
 11
483.592110
 21
355.443647
  0
LINE
  8
CSLAYER1
  6
CONTINUOUS
 62
     4
 10
236.592110
 20
1418.754615
 11
730.592110
 21
1418.754615
  0
LINE
  8
CSLAYER1
  6
CONTINUOUS
 62
     4
 10
233.592110
 20
1365.754615
 11
733.592110
 21
1365.754615
  0
LINE
  8
CSLAYER1
  6
CONTINUOUS
 62
     4
 10
351.592110
 20
1340.554615
 11
326.592110
 21
1340.554615
  0
LINE
  8
CSLAYER1
  6
CONTINUOUS
 62
     4
 10
326.592110
 20
1315.554615
 11
354.092110
 21
1315.554615
  0
LINE
  8
CSLAYER1
  6
CONTINUOUS
 62
     4
 10
233.592110
 20
1415.754615
 11
233.592110
 21
1365.754615
  0
LINE
  8
CSLAYER1
  6
CONTINUOUS
 62
     4
 10
733.592110
 20
442.365170
 11
733.592110
 21
378.083386
  0
LINE
  8
CSLAYER1
  6
CONTINUOUS
 62
     4
 10
326.592110
 20
1365.754615
 11
326.592110
 21
1315.554615
  0
LINE
  8
CSLAYER1
  6
CONTINUOUS
 62
     4
 10
351.592110
 20
1315.554615
 11
351.592110
 21
1365.754615
  0
LINE
  8
CSLAYER1
  6
CONTINUOUS
 62
     4
 10
336.092110
 20
1365.754615
 11
336.092110
 21
1340.554615
  0
LINE
  8
CSLAYER1
  6
CONTINUOUS
 62
     4
 10
342.092110
 20
1365.754615
 11
342.092110
 21
1340.554615
  0
LINE
  8
CSLAYER1
  6
CONTINUOUS
 62
     4
 10
733.592110
 20
1415.754615
 11
733.592110
 21
1365.754615
  0
LINE
  8
CSLAYER1
  6
CONTINUOUS
 62
     4
 10
376.592110
 20
1365.754615
 11
376.592110
 21
443.083386
  0
LINE
  8
CSLAYER1
  6
CONTINUOUS
 62
     4
 10
360.592110
 20
1365.754615
 11
360.592110
 21
443.083386
  0
LINE
  8
CSLAYER1
  6
CONTINUOUS
 62
     4
 10
317.592110
 20
1275.554615
 11
317.592110
 21
443.083386
  0
LINE
  8
CSLAYER1
  6
CONTINUOUS
 62
     4
 10
301.592110
 20
1275.554615
 11
301.592110
 21
443.083386
  0
LINE
  8
CSLAYER1
  6
CONTINUOUS
 62
     4
 10
355.092110
 20
1314.554615
 11
355.092110
 21
1274.554615
  0
LINE
  8
CSLAYER1
  6
CONTINUOUS
 62
     4
 10
328.592110
 20
1306.106258
 11
328.592110
 21
1283.002973
  0
LINE
  8
CSLAYER1
  6
CONTINUOUS
 62
     4
 10
327.442110
 20
1306.106258
 11
327.442110
 21
1283.002973
  0
LINE
  8
CSLAYER1
  6
CONTINUOUS
 62
     4
 10
326.592110
 20
1302.054615
 11
327.384273
 21
1302.054615
  0
LINE
  8
CSLAYER1
  6
CONTINUOUS
 62
     4
 10
327.442110
 20
1306.106258
 11
328.592110
 21
1306.106258
  0
LINE
  8
CSLAYER1
  6
CONTINUOUS
 62
     4
 10
328.592110
 20
1302.054615
 11
329.092110
 21
1302.054615
  0
LINE
  8
CSLAYER1
  6
CONTINUOUS
 62
     4
 10
329.092110
 20
1314.554615
 11
329.092110
 21
1274.554615
  0
ARC
  8
CSLAYER1
  6
CONTINUOUS
 62
     4
 10
354.092110
 20
1314.554615
 40
1.000000
 50
0.000000
 51
90.000000
  0
ARC
  8
CSLAYER1
  6
CONTINUOUS
 62
     4
 10
330.092110
 20
1314.554615
 40
1.000000
 50
90.000000
 51
180.000000
  0
ARC
  8
CSLAYER1
  6
CONTINUOUS
 62
     4
 10
341.092110
 20
1314.554615
 40
1.000000
 50
0.000000
 51
90.000000
  0
ARC
  8
CSLAYER1
  6
CONTINUOUS
 62
     4
 10
343.092110
 20
1314.554615
 40
1.000000
 50
90.000000
 51
180.000000
  0
LINE
  8
CSLAYER1
  6
CONTINUOUS
 62
     4
 10
326.092110
 20
1365.754615
 11
326.092110
 21
1275.554615
  0
LINE
  8
CSLAYER1
  6
CONTINUOUS
 62
     4
 10
330.092110
 20
1273.554615
 11
341.092110
 21
1273.554615
  0
LINE
  8
CSLAYER1
  6
CONTINUOUS
 62
     4
 10
326.592110
 20
1287.054615
 11
327.384273
 21
1287.054615
  0
LINE
  8
CSLAYER1
  6
CONTINUOUS
 62
     4
 10
327.442110
 20
1283.002973
 11
328.592110
 21
1283.002973
  0
LINE
  8
CSLAYER1
  6
CONTINUOUS
 62
     4
 10
328.592110
 20
1287.054615
 11
329.092110
 21
1287.054615
  0
ARC
  8
CSLAYER1
  6
CONTINUOUS
 62
     4
 10
354.092110
 20
1274.554615
 40
1.000000
 50
270.000000
 51
360.000000
  0
ARC
  8
CSLAYER1
  6
CONTINUOUS
 62
     4
 10
330.092110
 20
1274.554615
 40
1.000000
 50
180.000000
 51
270.000000
  0
ARC
  8
CSLAYER1
  6
CONTINUOUS
 62
     4
 10
341.092110
 20
1274.554615
 40
1.000000
 50
270.000000
 51
360.000000
  0
ARC
  8
CSLAYER1
  6
CONTINUOUS
 62
     4
 10
343.092110
 20
1274.554615
 40
1.000000
 50
180.000000
 51
270.000000
  0
LINE
  8
CSLAYER1
  6
CONTINUOUS
 62
     4
 10
354.092110
 20
1273.554615
 11
343.092110
 21
1273.554615
  0
LINE
  8
CSLAYER1
  6
CONTINUOUS
 62
     4
 10
355.592110
 20
1304.554615
 11
355.092110
 21
1304.054615
  0
LINE
  8
CSLAYER1
  6
CONTINUOUS
 62
     4
 10
355.592110
 20
1284.554615
 11
355.092110
 21
1285.054615
  0
LINE
  8
CSLAYER1
  6
CONTINUOUS
 62
     4
 10
342.092110
 20
1274.554615
 11
342.092110
 21
1314.554615
  0
LINE
  8
CSLAYER1
  6
CONTINUOUS
 62
     5
 10
372.238676
 20
1361.069755
 11
594.945544
 21
1361.069755
  0
LINE
  8
CSLAYER1
  6
CONTINUOUS
 62
     4
 10
376.592110
 20
1344.069755
 11
590.592110
 21
1344.069755
  0
LINE
  8
CSLAYER1
  6
CONTINUOUS
 62
     4
 10
483.592110
 20
1184.644941
 11
483.592110
 21
1187.970603
  0
LINE
  8
CSLAYER1
  6
CONTINUOUS
 62
     5
 10
378.592110
 20
1239.867485
 11
609.592110
 21
1239.867485
  0
LINE
  8
CSLAYER1
  6
CONTINUOUS
 62
     4
 10
453.342110
 20
1209.617485
 11
429.092110
 21
1209.617485
  0
LINE
  8
CSLAYER1
  6
CONTINUOUS
 62
     4
 10
382.592110
 20
1217.867485
 11
427.092110
 21
1217.867485
  0
LINE
  8
CSLAYER1
  6
CONTINUOUS
 62
     4
 10
382.592110
 20
1261.867485
 11
427.092110
 21
1261.867485
  0
LINE
  8
CSLAYER1
  6
CONTINUOUS
 62
     4
 10
427.092110
 20
1268.117485
 11
427.092110
 21
1211.617485
  0
LINE
  8
CSLAYER1
  6
CONTINUOUS
 62
     4
 10
429.092110
 20
1270.117485
 11
538.092110
 21
1270.117485
  0
LINE
  8
CSLAYER1
  6
CONTINUOUS
 62
     4
 10
427.092110
 20
1268.117485
 11
429.092110
 21
1270.117485
  0
LINE
  8
CSLAYER1
  6
CONTINUOUS
 62
     4
 10
427.092110
 20
1211.617485
 11
429.092110
 21
1209.617485
  0
LINE
  8
CSLAYER1
  6
CONTINUOUS
 62
     4
 10
382.592110
 20
1261.867485
 11
377.592110
 21
1256.867485
  0
LINE
  8
CSLAYER1
  6
CONTINUOUS
 62
     4
 10
382.592110
 20
1261.867485
 11
382.592110
 21
1217.867485
  0
LINE
  8
CSLAYER1
  6
CONTINUOUS
 62
     4
 10
382.592110
 20
1217.867485
 11
377.592110
 21
1222.867485
  0
LINE
  8
CSLAYER1
  6
CONTINUOUS
 62
     4
 10
393.592110
 20
1280.067485
 11
423.592110
 21
1280.067485
  0
LINE
  8
CSLAYER1
  6
CONTINUOUS
 62
     4
 10
391.271602
 20
1265.067485
 11
391.271602
 21
1278.727739
  0
LINE
  8
CSLAYER1
  6
CONTINUOUS
 62
     4
 10
399.931856
 20
1265.067485
 11
399.931856
 21
1278.727739
  0
LINE
  8
CSLAYER1
  6
CONTINUOUS
 62
     4
 10
393.592110
 20
1280.067485
 11
391.271602
 21
1278.727739
  0
ARC
  8
CSLAYER1
  6
CONTINUOUS
 62
     4
 10
395.601729
 20
1272.412867
 40
7.656867
 50
55.561448
 51
124.438552
  0
ARC
  8
CSLAYER1
  6
CONTINUOUS
 62
     4
 10
408.592110
 20
1251.407231
 40
28.660254
 50
72.412046
 51
107.587954
  0
LINE
  8
CSLAYER1
  6
CONTINUOUS
 62
     4
 10
427.092110
 20
1265.067485
 11
390.092110
 21
1265.067485
  0
LINE
  8
CSLAYER1
  6
CONTINUOUS
 62
     4
 10
395.592110
 20
1282.567485
 11
421.592110
 21
1282.567485
  0
LINE
  8
CSLAYER1
  6
CONTINUOUS
 62
     4
 10
393.592110
 20
1280.067485
 11
393.592110
 21
1280.567485
  0
ARC
  8
CSLAYER1
  6
CONTINUOUS
 62
     4
 10
395.592110
 20
1280.567485
 40
2.000000
 50
90.000000
 51
180.000000
  0
LINE
  8
CSLAYER1
  6
CONTINUOUS
 62
     4
 10
425.912618
 20
1265.067485
 11
425.912618
 21
1278.727739
  0
LINE
  8
CSLAYER1
  6
CONTINUOUS
 62
     4
 10
417.252364
 20
1265.067485
 11
417.252364
 21
1278.727739
  0
LINE
  8
CSLAYER1
  6
CONTINUOUS
 62
     4
 10
423.592110
 20
1280.067485
 11
425.912618
 21
1278.727739
  0
ARC
  8
CSLAYER1
  6
CONTINUOUS
 62
     4
 10
421.582491
 20
1272.412867
 40
7.656867
 50
55.561448
 51
124.438552
  0
LINE
  8
CSLAYER1
  6
CONTINUOUS
 62
     4
 10
423.592110
 20
1280.067485
 11
423.592110
 21
1280.567485
  0
ARC
  8
CSLAYER1
  6
CONTINUOUS
 62
     4
 10
421.592110
 20
1280.567485
 40
2.000000
 50
0.000000
 51
90.000000
  0
LINE
  8
CSLAYER1
  6
CONTINUOUS
 62
     4
 10
400.092110
 20
1177.284795
 11
400.092110
 21
1217.867485
  0
LINE
  8
CSLAYER1
  6
CONTINUOUS
 62
     4
 10
398.592110
 20
1169.284795
 11
398.592110
 21
1217.867485
  0
LINE
  8
CSLAYER1
  6
CONTINUOUS
 62
     4
 10
398.592110
 20
1282.567485
 11
398.592110
 21
1300.645351
  0
LINE
  8
CSLAYER1
  6
CONTINUOUS
 62
     4
 10
400.092110
 20
1282.567485
 11
400.092110
 21
1302.145351
  0
LINE
  8
CSLAYER1
  6
CONTINUOUS
 62
     4
 10
390.092110
 20
1261.867485
 11
390.092110
 21
1265.067485
  0
LINE
  8
CSLAYER1
  6
CONTINUOUS
 62
     4
 10
417.092110
 20
1177.284795
 11
417.092110
 21
1217.867485
  0
LINE
  8
CSLAYER1
  6
CONTINUOUS
 62
     4
 10
418.592110
 20
1282.567485
 11
418.592110
 21
1300.645351
  0
LINE
  8
CSLAYER1
  6
CONTINUOUS
 62
     4
 10
417.092110
 20
1282.567485
 11
417.092110
 21
1302.145351
  0
LINE
  8
CSLAYER1
  6
CONTINUOUS
 62
     4
 10
418.592110
 20
1169.284795
 11
418.592110
 21
1217.867485
  0
POINT
  8
CSLAYER1
 62
     4
 10
558.592110
 20
1152.284793
  0
LINE
  8
CSLAYER1
  6
CONTINUOUS
 62
     5
 10
572.717486
 20
1152.284795
 11
544.478396
 21
1152.284795
  0
LINE
  8
CSLAYER1
  6
CONTINUOUS
 62
     4
 10
567.092110
 20
1177.284795
 11
567.092110
 21
1217.867485
  0
LINE
  8
CSLAYER1
  6
CONTINUOUS
 62
     4
 10
568.592110
 20
1169.284795
 11
568.592110
 21
1217.867485
  0
LINE
  8
CSLAYER1
  6
CONTINUOUS
 62
     4
 10
568.592110
 20
1177.284795
 11
548.592110
 21
1177.284795
  0
LINE
  8
CSLAYER1
  6
CONTINUOUS
 62
     4
 10
567.092110
 20
1177.284795
 11
568.592110
 21
1174.686718
  0
LINE
  8
CSLAYER1
  6
CONTINUOUS
 62
     4
 10
550.092110
 20
1177.284795
 11
550.092110
 21
1217.867485
  0
LINE
  8
CSLAYER1
  6
CONTINUOUS
 62
     4
 10
550.092110
 20
1177.284795
 11
548.592110
 21
1174.686718
  0
LINE
  8
CSLAYER1
  6
CONTINUOUS
 62
     4
 10
548.592110
 20
1169.284795
 11
548.592110
 21
1217.867485
  0
LINE
  8
CSLAYER1
  6
CONTINUOUS
 62
     4
 10
546.067110
 20
1167.284793
 11
571.117110
 21
1167.284793
  0
LINE
  8
CSLAYER1
  6
CONTINUOUS
 62
     5
 10
393.618599
 20
1292.645351
 11
425.219957
 21
1292.645351
  0
POINT
  8
CSLAYER1
 62
     4
 10
558.592110
 20
1120.534793
  0
LINE
  8
CSLAYER1
  6
CONTINUOUS
 62
     4
 10
572.117110
 20
1166.284793
 11
572.117110
 21
1073.734793
  0
LINE
  8
CSLAYER1
  6
CONTINUOUS
 62
     4
 10
568.117110
 20
1135.584793
 11
568.117110
 21
1073.734793
  0
LINE
  8
CSLAYER1
  6
CONTINUOUS
 62
     4
 10
568.117110
 20
1135.584793
 11
572.117110
 21
1135.584793
  0
LINE
  8
CSLAYER1
  6
CONTINUOUS
 62
     4
 10
567.117110
 20
1111.009793
 11
550.067110
 21
1111.009793
  0
LINE
  8
CSLAYER1
  6
CONTINUOUS
 62
     4
 10
567.117110
 20
1130.059793
 11
550.067110
 21
1130.059793
  0
ARC
  8
CSLAYER1
  6
CONTINUOUS
 62
     4
 10
567.117110
 20
1112.009793
 40
1.000000
 50
270.000000
 51
360.000000
  0
ARC
  8
CSLAYER1
  6
CONTINUOUS
 62
     4
 10
567.117110
 20
1129.059793
 40
1.000000
 50
0.000000
 51
90.000000
  0
LINE
  8
CSLAYER1
  6
CONTINUOUS
 62
     4
 10
545.067110
 20
1166.284793
 11
545.067110
 21
1073.034793
  0
LINE
  8
CSLAYER1
  6
CONTINUOUS
 62
     4
 10
549.067110
 20
1135.584793
 11
549.067110
 21
1073.734793
  0
LINE
  8
CSLAYER1
  6
CONTINUOUS
 62
     4
 10
549.067110
 20
1135.584793
 11
545.067110
 21
1135.584793
  0
ARC
  8
CSLAYER1
  6
CONTINUOUS
 62
     4
 10
550.067110
 20
1112.009793
 40
1.000000
 50
180.000000
 51
270.000000
  0
ARC
  8
CSLAYER1
  6
CONTINUOUS
 62
     4
 10
550.067110
 20
1129.059793
 40
1.000000
 50
90.000000
 51
180.000000
  0
LINE
  8
CSLAYER1
  6
CONTINUOUS
 62
     4
 10
578.342110
 20
1116.764793
 11
578.342110
 21
1124.314519
  0
LINE
  8
CSLAYER1
  6
CONTINUOUS
 62
     4
 10
572.117110
 20
1107.534793
 11
576.492110
 21
1107.534793
  0
LINE
  8
CSLAYER1
  6
CONTINUOUS
 62
     4
 10
572.117110
 20
1165.284793
 11
576.492110
 21
1165.284793
  0
LINE
  8
CSLAYER1
  6
CONTINUOUS
 62
     4
 10
576.492110
 20
1115.764793
 11
577.342110
 21
1115.764793
  0
LINE
  8
CSLAYER1
  6
CONTINUOUS
 62
     4
 10
576.492110
 20
1125.314519
 11
577.342110
 21
1125.314519
  0
ARC
  8
CSLAYER1
  6
CONTINUOUS
 62
     4
 10
577.342110
 20
1116.764793
 40
1.000000
 50
270.000000
 51
360.000000
  0
ARC
  8
CSLAYER1
  6
CONTINUOUS
 62
     4
 10
577.342110
 20
1124.314519
 40
1.000000
 50
0.000000
 51
90.000000
  0
LINE
  8
CSLAYER1
  6
CONTINUOUS
 62
     4
 10
578.342110
 20
1148.514793
 11
578.342110
 21
1156.064519
  0
LINE
  8
CSLAYER1
  6
CONTINUOUS
 62
     4
 10
576.492110
 20
1147.514793
 11
577.342110
 21
1147.514793
  0
LINE
  8
CSLAYER1
  6
CONTINUOUS
 62
     4
 10
576.492110
 20
1157.064519
 11
577.342110
 21
1157.064519
  0
ARC
  8
CSLAYER1
  6
CONTINUOUS
 62
     4
 10
577.342110
 20
1148.514793
 40
1.000000
 50
270.000000
 51
360.000000
  0
ARC
  8
CSLAYER1
  6
CONTINUOUS
 62
     4
 10
577.342110
 20
1156.064519
 40
1.000000
 50
0.000000
 51
90.000000
  0
LINE
  8
CSLAYER1
  6
CONTINUOUS
 62
     4
 10
538.842110
 20
1116.764793
 11
538.842110
 21
1124.314519
  0
LINE
  8
CSLAYER1
  6
CONTINUOUS
 62
     4
 10
545.067110
 20
1107.534793
 11
540.692110
 21
1107.534793
  0
LINE
  8
CSLAYER1
  6
CONTINUOUS
 62
     4
 10
545.067110
 20
1165.284793
 11
540.692110
 21
1165.284793
  0
LINE
  8
CSLAYER1
  6
CONTINUOUS
 62
     4
 10
540.692110
 20
1115.764793
 11
539.842110
 21
1115.764793
  0
LINE
  8
CSLAYER1
  6
CONTINUOUS
 62
     4
 10
540.692110
 20
1125.314519
 11
539.842110
 21
1125.314519
  0
ARC
  8
CSLAYER1
  6
CONTINUOUS
 62
     4
 10
539.842110
 20
1116.764793
 40
1.000000
 50
180.000000
 51
270.000000
  0
ARC
  8
CSLAYER1
  6
CONTINUOUS
 62
     4
 10
539.842110
 20
1124.314519
 40
1.000000
 50
90.000000
 51
180.000000
  0
LINE
  8
CSLAYER1
  6
CONTINUOUS
 62
     4
 10
535.742110
 20
1148.514793
 11
535.742110
 21
1156.064519
  0
LINE
  8
CSLAYER1
  6
CONTINUOUS
 62
     4
 10
540.692110
 20
1147.514793
 11
536.742110
 21
1147.514793
  0
LINE
  8
CSLAYER1
  6
CONTINUOUS
 62
     4
 10
540.692110
 20
1157.064519
 11
536.742110
 21
1157.064519
  0
ARC
  8
CSLAYER1
  6
CONTINUOUS
 62
     4
 10
536.742110
 20
1148.514793
 40
1.000000
 50
180.000000
 51
270.000000
  0
ARC
  8
CSLAYER1
  6
CONTINUOUS
 62
     4
 10
536.742110
 20
1156.064519
 40
1.000000
 50
90.000000
 51
180.000000
  0
LINE
  8
CSLAYER1
  6
CONTINUOUS
 62
     4
 10
545.067110
 20
1157.064519
 11
572.117110
 21
1157.064519
  0
LINE
  8
CSLAYER1
  6
CONTINUOUS
 62
     4
 10
545.067110
 20
1147.514793
 11
572.117110
 21
1147.514793
  0
LINE
  8
CSLAYER1
  6
CONTINUOUS
 62
     4
 10
547.067110
 20
1137.284793
 11
570.117110
 21
1137.284793
  0
ARC
  8
CSLAYER1
  6
CONTINUOUS
 62
     4
 10
570.117110
 20
1139.284793
 40
2.000000
 50
270.000000
 51
360.000000
  0
ARC
  8
CSLAYER1
  6
CONTINUOUS
 62
     4
 10
547.067110
 20
1139.284793
 40
2.000000
 50
180.000000
 51
270.000000
  0
ARC
  8
CSLAYER1
  6
CONTINUOUS
 62
     4
 10
546.592110
 20
1169.284793
 40
2.000000
 50
270.000000
 51
360.000000
  0
ARC
  8
CSLAYER1
  6
CONTINUOUS
 62
     4
 10
570.592110
 20
1169.284793
 40
2.000000
 50
180.000000
 51
270.000000
  0
ARC
  8
CSLAYER1
  6
CONTINUOUS
 62
     4
 10
546.067110
 20
1166.284793
 40
1.000000
 50
90.000000
 51
180.000000
  0
ARC
  8
CSLAYER1
  6
CONTINUOUS
 62
     4
 10
571.117110
 20
1166.284793
 40
1.000000
 50
0.000000
 51
90.000000
  0
POINT
  8
CSLAYER1
 62
     4
 10
558.592110
 20
1167.284793
  0
LINE
  8
CSLAYER1
  6
CONTINUOUS
 62
     4
 10
576.492110
 20
1107.534793
 11
576.492110
 21
1165.284793
  0
LINE
  8
CSLAYER1
  6
CONTINUOUS
 62
     4
 10
540.692110
 20
1107.534793
 11
540.692110
 21
1165.284793
  0
LINE
  8
CSLAYER1
  6
CONTINUOUS
 62
     4
 10
561.792110
 20
443.083386
 11
561.792110
 21
468.745131
  0
LINE
  8
CSLAYER1
  6
CONTINUOUS
 62
     5
 10
555.962934
 20
461.000452
 11
590.503064
 21
461.000452
  0
LINE
  8
CSLAYER1
  6
CONTINUOUS
 62
     4
 10
560.592110
 20
466.000452
 11
561.792110
 21
466.000452
  0
LINE
  8
CSLAYER1
  6
CONTINUOUS
 62
     4
 10
560.592110
 20
456.000452
 11
561.792110
 21
456.000452
  0
LINE
  8
CSLAYER1
  6
CONTINUOUS
 62
     4
 10
561.792110
 20
455.694161
 11
564.792110
 21
455.694161
  0
LINE
  8
CSLAYER1
  6
CONTINUOUS
 62
     5
 10
629.602803
 20
791.912573
 11
564.302445
 21
791.912573
  0
LINE
  8
CSLAYER1
  6
CONTINUOUS
 62
     5
 10
336.786599
 20
791.912573
 11
402.972362
 21
791.912573
  0
LINE
  8
CSLAYER1
  6
CONTINUOUS
 62
     4
 10
589.592110
 20
810.912573
 11
589.592110
 21
772.912573
  0
LINE
  8
CSLAYER1
  6
CONTINUOUS
 62
     4
 10
377.592110
 20
810.912573
 11
377.592110
 21
772.912573
  0
LINE
  8
CSLAYER1
  6
CONTINUOUS
 62
     4
 10
358.592110
 20
807.912573
 11
358.592110
 21
775.912573
  0
LINE
  8
CSLAYER1
  6
CONTINUOUS
 62
     4
 10
348.592110
 20
805.912573
 11
348.592110
 21
777.912573
  0
LINE
  8
CSLAYER1
  6
CONTINUOUS
 62
     4
 10
350.592110
 20
807.912573
 11
358.592110
 21
807.912573
  0
LINE
  8
CSLAYER1
  6
CONTINUOUS
 62
     4
 10
348.592110
 20
805.912573
 11
350.592110
 21
807.912573
  0
LINE
  8
CSLAYER1
  6
CONTINUOUS
 62
     4
 10
350.592110
 20
807.912573
 11
350.592110
 21
775.912573
  0
POINT
  8
CSLAYER1
 62
     4
 10
558.592110
 20
892.588228
  0
LINE
  8
CSLAYER1
  6
CONTINUOUS
 62
     4
 10
572.117110
 20
879.588228
 11
572.117110
 21
887.818228
  0
LINE
  8
CSLAYER1
  6
CONTINUOUS
 62
     4
 10
576.492110
 20
879.588228
 11
576.492110
 21
887.818228
  0
LINE
  8
CSLAYER1
  6
CONTINUOUS
 62
     4
 10
578.342110
 20
888.818228
 11
578.342110
 21
896.367955
  0
LINE
  8
CSLAYER1
  6
CONTINUOUS
 62
     4
 10
572.117110
 20
879.588228
 11
576.492110
 21
879.588228
  0
LINE
  8
CSLAYER1
  6
CONTINUOUS
 62
     4
 10
577.342110
 20
887.818228
 11
539.842110
 21
887.818228
  0
ARC
  8
CSLAYER1
  6
CONTINUOUS
 62
     4
 10
577.342110
 20
888.818228
 40
1.000000
 50
270.000000
 51
360.000000
  0
ARC
  8
CSLAYER1
  6
CONTINUOUS
 62
     4
 10
577.342110
 20
896.367955
 40
1.000000
 50
0.000000
 51
90.000000
  0
LINE
  8
CSLAYER1
  6
CONTINUOUS
 62
     4
 10
545.067110
 20
879.588228
 11
545.067110
 21
887.818228
  0
LINE
  8
CSLAYER1
  6
CONTINUOUS
 62
     4
 10
540.692110
 20
879.588228
 11
540.692110
 21
887.818228
  0
LINE
  8
CSLAYER1
  6
CONTINUOUS
 62
     4
 10
538.842110
 20
888.818228
 11
538.842110
 21
896.367955
  0
LINE
  8
CSLAYER1
  6
CONTINUOUS
 62
     4
 10
545.067110
 20
879.588228
 11
540.692110
 21
879.588228
  0
ARC
  8
CSLAYER1
  6
CONTINUOUS
 62
     4
 10
539.842110
 20
888.818228
 40
1.000000
 50
180.000000
 51
270.000000
  0
ARC
  8
CSLAYER1
  6
CONTINUOUS
 62
     4
 10
539.842110
 20
896.367955
 40
1.000000
 50
90.000000
 51
180.000000
  0
LINE
  8
CSLAYER1
  6
CONTINUOUS
 62
     4
 10
546.067110
 20
882.588228
 11
571.117110
 21
882.588228
  0
LINE
  8
CSLAYER1
  6
CONTINUOUS
 62
     4
 10
545.067110
 20
883.588228
 11
546.067110
 21
882.588228
  0
LINE
  8
CSLAYER1
  6
CONTINUOUS
 62
     4
 10
571.117110
 20
882.588228
 11
572.117110
 21
883.588228
  0
LINE
  8
CSLAYER1
  6
CONTINUOUS
 62
     4
 10
546.067110
 20
902.588228
 11
571.117110
 21
902.588228
  0
LINE
  8
CSLAYER1
  6
CONTINUOUS
 62
     4
 10
545.067110
 20
901.588228
 11
546.067110
 21
902.588228
  0
LINE
  8
CSLAYER1
  6
CONTINUOUS
 62
     4
 10
571.117110
 20
902.588228
 11
572.117110
 21
901.588228
  0
LINE
  8
CSLAYER1
  6
CONTINUOUS
 62
     5
 10
586.075391
 20
924.338228
 11
541.539480
 21
924.338228
  0
LINE
  8
CSLAYER1
  6
CONTINUOUS
 62
     4
 10
545.067110
 20
937.338228
 11
540.692110
 21
937.338228
  0
LINE
  8
CSLAYER1
  6
CONTINUOUS
 62
     4
 10
538.842110
 20
920.568228
 11
538.842110
 21
928.117955
  0
LINE
  8
CSLAYER1
  6
CONTINUOUS
 62
     4
 10
540.692110
 20
919.568228
 11
539.842110
 21
919.568228
  0
LINE
  8
CSLAYER1
  6
CONTINUOUS
 62
     4
 10
540.692110
 20
929.117955
 11
539.842110
 21
929.117955
  0
ARC
  8
CSLAYER1
  6
CONTINUOUS
 62
     4
 10
539.842110
 20
920.568228
 40
1.000000
 50
180.000000
 51
270.000000
  0
ARC
  8
CSLAYER1
  6
CONTINUOUS
 62
     4
 10
539.842110
 20
928.117955
 40
1.000000
 50
90.000000
 51
180.000000
  0
LINE
  8
CSLAYER1
  6
CONTINUOUS
 62
     4
 10
572.117110
 20
937.338228
 11
576.492110
 21
937.338228
  0
LINE
  8
CSLAYER1
  6
CONTINUOUS
 62
     4
 10
577.342110
 20
897.358228
 11
539.842110
 21
897.358228
  0
LINE
  8
CSLAYER1
  6
CONTINUOUS
 62
     4
 10
578.342110
 20
920.568228
 11
578.342110
 21
928.117955
  0
LINE
  8
CSLAYER1
  6
CONTINUOUS
 62
     4
 10
576.492110
 20
919.568228
 11
577.342110
 21
919.568228
  0
LINE
  8
CSLAYER1
  6
CONTINUOUS
 62
     4
 10
576.492110
 20
929.117955
 11
577.342110
 21
929.117955
  0
ARC
  8
CSLAYER1
  6
CONTINUOUS
 62
     4
 10
577.342110
 20
920.568228
 40
1.000000
 50
270.000000
 51
360.000000
  0
ARC
  8
CSLAYER1
  6
CONTINUOUS
 62
     4
 10
577.342110
 20
928.117955
 40
1.000000
 50
0.000000
 51
90.000000
  0
POINT
  8
CSLAYER1
 62
     4
 10
558.592110
 20
924.338228
  0
LINE
  8
CSLAYER1
  6
CONTINUOUS
 62
     5
 10
585.229773
 20
892.588228
 11
540.693861
 21
892.588228
  0
LINE
  8
CSLAYER1
  6
CONTINUOUS
 62
     4
 10
576.492110
 20
897.367955
 11
576.492110
 21
937.338228
  0
LINE
  8
CSLAYER1
  6
CONTINUOUS
 62
     4
 10
545.067110
 20
897.358228
 11
545.067110
 21
974.838228
  0
LINE
  8
CSLAYER1
  6
CONTINUOUS
 62
     4
 10
540.692110
 20
897.367955
 11
540.692110
 21
937.338228
  0
LINE
  8
CSLAYER1
  6
CONTINUOUS
 62
     4
 10
566.592110
 20
914.813228
 11
566.592110
 21
902.588228
  0
LINE
  8
CSLAYER1
  6
CONTINUOUS
 62
     4
 10
550.592110
 20
914.813228
 11
550.592110
 21
902.588228
  0
POINT
  8
CSLAYER1
 62
     4
 10
558.592110
 20
1088.784793
  0
LINE
  8
CSLAYER1
  6
CONTINUOUS
 62
     4
 10
568.117110
 20
1073.734793
 11
572.117110
 21
1073.734793
  0
LINE
  8
CSLAYER1
  6
CONTINUOUS
 62
     4
 10
567.117110
 20
1098.309793
 11
550.067110
 21
1098.309793
  0
LINE
  8
CSLAYER1
  6
CONTINUOUS
 62
     4
 10
567.117110
 20
1079.259793
 11
550.067110
 21
1079.259793
  0
ARC
  8
CSLAYER1
  6
CONTINUOUS
 62
     4
 10
567.117110
 20
1097.309793
 40
1.000000
 50
0.000000
 51
90.000000
  0
ARC
  8
CSLAYER1
  6
CONTINUOUS
 62
     4
 10
567.117110
 20
1080.259793
 40
1.000000
 50
270.000000
 51
360.000000
  0
LINE
  8
CSLAYER1
  6
CONTINUOUS
 62
     4
 10
549.067110
 20
1073.734793
 11
545.067110
 21
1073.734793
  0
ARC
  8
CSLAYER1
  6
CONTINUOUS
 62
     4
 10
550.067110
 20
1097.309793
 40
1.000000
 50
90.000000
 51
180.000000
  0
ARC
  8
CSLAYER1
  6
CONTINUOUS
 62
     4
 10
550.067110
 20
1080.259793
 40
1.000000
 50
180.000000
 51
270.000000
  0
LINE
  8
CSLAYER1
  6
CONTINUOUS
 62
     4
 10
578.342110
 20
1092.554793
 11
578.342110
 21
1085.005066
  0
LINE
  8
CSLAYER1
  6
CONTINUOUS
 62
     4
 10
572.117110
 20
1101.784793
 11
576.492110
 21
1101.784793
  0
LINE
  8
CSLAYER1
  6
CONTINUOUS
 62
     4
 10
576.492110
 20
1093.554793
 11
577.342110
 21
1093.554793
  0
LINE
  8
CSLAYER1
  6
CONTINUOUS
 62
     4
 10
576.492110
 20
1084.005066
 11
577.342110
 21
1084.005066
  0
ARC
  8
CSLAYER1
  6
CONTINUOUS
 62
     4
 10
577.342110
 20
1092.554793
 40
1.000000
 50
0.000000
 51
90.000000
  0
ARC
  8
CSLAYER1
  6
CONTINUOUS
 62
     4
 10
577.342110
 20
1085.005066
 40
1.000000
 50
270.000000
 51
360.000000
  0
LINE
  8
CSLAYER1
  6
CONTINUOUS
 62
     4
 10
538.842110
 20
1092.554793
 11
538.842110
 21
1085.005066
  0
LINE
  8
CSLAYER1
  6
CONTINUOUS
 62
     4
 10
545.067110
 20
1101.784793
 11
540.692110
 21
1101.784793
  0
LINE
  8
CSLAYER1
  6
CONTINUOUS
 62
     4
 10
540.692110
 20
1093.554793
 11
539.842110
 21
1093.554793
  0
LINE
  8
CSLAYER1
  6
CONTINUOUS
 62
     4
 10
540.692110
 20
1084.005066
 11
539.842110
 21
1084.005066
  0
ARC
  8
CSLAYER1
  6
CONTINUOUS
 62
     4
 10
539.842110
 20
1092.554793
 40
1.000000
 50
90.000000
 51
180.000000
  0
ARC
  8
CSLAYER1
  6
CONTINUOUS
 62
     4
 10
539.842110
 20
1085.005066
 40
1.000000
 50
180.000000
 51
270.000000
  0
LINE
  8
CSLAYER1
  6
CONTINUOUS
 62
     4
 10
540.692110
 20
1101.784793
 11
540.692110
 21
1044.034793
  0
LINE
  8
CSLAYER1
  6
CONTINUOUS
 62
     4
 10
576.492110
 20
1101.784793
 11
576.492110
 21
1044.034793
  0
POINT
  8
CSLAYER1
 62
     4
 10
558.592110
 20
956.088228
  0
LINE
  8
CSLAYER1
  6
CONTINUOUS
 62
     4
 10
572.117110
 20
897.358228
 11
572.117110
 21
974.838228
  0
LINE
  8
CSLAYER1
  6
CONTINUOUS
 62
     4
 10
568.117110
 20
971.138228
 11
568.117110
 21
909.288228
  0
LINE
  8
CSLAYER1
  6
CONTINUOUS
 62
     4
 10
568.117110
 20
971.138228
 11
572.117110
 21
971.138228
  0
LINE
  8
CSLAYER1
  6
CONTINUOUS
 62
     4
 10
567.117110
 20
946.563228
 11
550.067110
 21
946.563228
  0
LINE
  8
CSLAYER1
  6
CONTINUOUS
 62
     4
 10
567.117110
 20
965.613228
 11
550.067110
 21
965.613228
  0
ARC
  8
CSLAYER1
  6
CONTINUOUS
 62
     4
 10
567.117110
 20
947.563228
 40
1.000000
 50
270.000000
 51
360.000000
  0
ARC
  8
CSLAYER1
  6
CONTINUOUS
 62
     4
 10
567.117110
 20
964.613228
 40
1.000000
 50
0.000000
 51
90.000000
  0
LINE
  8
CSLAYER1
  6
CONTINUOUS
 62
     4
 10
549.067110
 20
971.138228
 11
549.067110
 21
909.288228
  0
LINE
  8
CSLAYER1
  6
CONTINUOUS
 62
     4
 10
549.067110
 20
971.138228
 11
545.067110
 21
971.138228
  0
ARC
  8
CSLAYER1
  6
CONTINUOUS
 62
     4
 10
550.067110
 20
947.563228
 40
1.000000
 50
180.000000
 51
270.000000
  0
ARC
  8
CSLAYER1
  6
CONTINUOUS
 62
     4
 10
550.067110
 20
964.613228
 40
1.000000
 50
90.000000
 51
180.000000
  0
LINE
  8
CSLAYER1
  6
CONTINUOUS
 62
     4
 10
578.342110
 20
952.318228
 11
578.342110
 21
959.867955
  0
LINE
  8
CSLAYER1
  6
CONTINUOUS
 62
     4
 10
572.117110
 20
943.088228
 11
576.492110
 21
943.088228
  0
LINE
  8
CSLAYER1
  6
CONTINUOUS
 62
     4
 10
576.492110
 20
951.318228
 11
577.342110
 21
951.318228
  0
LINE
  8
CSLAYER1
  6
CONTINUOUS
 62
     4
 10
576.492110
 20
960.867955
 11
577.342110
 21
960.867955
  0
ARC
  8
CSLAYER1
  6
CONTINUOUS
 62
     4
 10
577.342110
 20
952.318228
 40
1.000000
 50
270.000000
 51
360.000000
  0
ARC
  8
CSLAYER1
  6
CONTINUOUS
 62
     4
 10
577.342110
 20
959.867955
 40
1.000000
 50
0.000000
 51
90.000000
  0
LINE
  8
CSLAYER1
  6
CONTINUOUS
 62
     4
 10
538.842110
 20
952.318228
 11
538.842110
 21
959.867955
  0
LINE
  8
CSLAYER1
  6
CONTINUOUS
 62
     4
 10
545.067110
 20
943.088228
 11
540.692110
 21
943.088228
  0
LINE
  8
CSLAYER1
  6
CONTINUOUS
 62
     4
 10
540.692110
 20
951.318228
 11
539.842110
 21
951.318228
  0
LINE
  8
CSLAYER1
  6
CONTINUOUS
 62
     4
 10
540.692110
 20
960.867955
 11
539.842110
 21
960.867955
  0
ARC
  8
CSLAYER1
  6
CONTINUOUS
 62
     4
 10
539.842110
 20
952.318228
 40
1.000000
 50
180.000000
 51
270.000000
  0
ARC
  8
CSLAYER1
  6
CONTINUOUS
 62
     4
 10
539.842110
 20
959.867955
 40
1.000000
 50
90.000000
 51
180.000000
  0
LINE
  8
CSLAYER1
  6
CONTINUOUS
 62
     4
 10
576.492110
 20
943.088228
 11
576.492110
 21
1000.838228
  0
LINE
  8
CSLAYER1
  6
CONTINUOUS
 62
     4
 10
540.692110
 20
943.088228
 11
540.692110
 21
1000.838228
  0
LINE
  8
CSLAYER1
  6
CONTINUOUS
 62
     4
 10
568.117110
 20
909.288228
 11
572.117110
 21
909.288228
  0
LINE
  8
CSLAYER1
  6
CONTINUOUS
 62
     4
 10
567.117110
 20
933.863228
 11
550.067110
 21
933.863228
  0
LINE
  8
CSLAYER1
  6
CONTINUOUS
 62
     4
 10
567.117110
 20
914.813228
 11
550.067110
 21
914.813228
  0
ARC
  8
CSLAYER1
  6
CONTINUOUS
 62
     4
 10
567.117110
 20
932.863228
 40
1.000000
 50
0.000000
 51
90.000000
  0
ARC
  8
CSLAYER1
  6
CONTINUOUS
 62
     4
 10
567.117110
 20
915.813228
 40
1.000000
 50
270.000000
 51
360.000000
  0
LINE
  8
CSLAYER1
  6
CONTINUOUS
 62
     4
 10
549.067110
 20
909.288228
 11
545.067110
 21
909.288228
  0
ARC
  8
CSLAYER1
  6
CONTINUOUS
 62
     4
 10
550.067110
 20
932.863228
 40
1.000000
 50
90.000000
 51
180.000000
  0
ARC
  8
CSLAYER1
  6
CONTINUOUS
 62
     4
 10
550.067110
 20
915.813228
 40
1.000000
 50
180.000000
 51
270.000000
  0
LINE
  8
CSLAYER1
  6
CONTINUOUS
 62
     4
 10
550.592110
 20
844.839669
 11
550.592110
 21
882.588228
  0
LINE
  8
CSLAYER1
  6
CONTINUOUS
 62
     4
 10
566.592110
 20
909.588228
 11
550.592110
 21
909.588228
  0
LINE
  8
CSLAYER1
  6
CONTINUOUS
 62
     4
 10
566.592110
 20
882.588228
 11
566.592110
 21
835.230344
  0
POINT
  8
CSLAYER1
 62
     4
 10
408.592110
 20
1152.284793
  0
LINE
  8
CSLAYER1
  6
CONTINUOUS
 62
     5
 10
394.466734
 20
1152.284795
 11
422.705824
 21
1152.284795
  0
LINE
  8
CSLAYER1
  6
CONTINUOUS
 62
     4
 10
398.592110
 20
1177.284795
 11
418.592110
 21
1177.284795
  0
LINE
  8
CSLAYER1
  6
CONTINUOUS
 62
     4
 10
400.092110
 20
1177.284795
 11
398.592110
 21
1174.686718
  0
LINE
  8
CSLAYER1
  6
CONTINUOUS
 62
     4
 10
417.092110
 20
1177.284795
 11
418.592110
 21
1174.686718
  0
LINE
  8
CSLAYER1
  6
CONTINUOUS
 62
     4
 10
421.117110
 20
1167.284793
 11
396.067110
 21
1167.284793
  0
POINT
  8
CSLAYER1
 62
     4
 10
408.592110
 20
1120.534793
  0
LINE
  8
CSLAYER1
  6
CONTINUOUS
 62
     4
 10
395.067110
 20
1166.284793
 11
395.067110
 21
1073.734793
  0
LINE
  8
CSLAYER1
  6
CONTINUOUS
 62
     4
 10
399.067110
 20
1135.584793
 11
399.067110
 21
1073.734793
  0
LINE
  8
CSLAYER1
  6
CONTINUOUS
 62
     4
 10
399.067110
 20
1135.584793
 11
395.067110
 21
1135.584793
  0
LINE
  8
CSLAYER1
  6
CONTINUOUS
 62
     4
 10
400.067110
 20
1111.009793
 11
417.117110
 21
1111.009793
  0
LINE
  8
CSLAYER1
  6
CONTINUOUS
 62
     4
 10
400.067110
 20
1130.059793
 11
417.117110
 21
1130.059793
  0
ARC
  8
CSLAYER1
  6
CONTINUOUS
 62
     4
 10
400.067110
 20
1112.009793
 40
1.000000
 50
180.000000
 51
270.000000
  0
ARC
  8
CSLAYER1
  6
CONTINUOUS
 62
     4
 10
400.067110
 20
1129.059793
 40
1.000000
 50
90.000000
 51
180.000000
  0
LINE
  8
CSLAYER1
  6
CONTINUOUS
 62
     4
 10
422.117110
 20
1166.284793
 11
422.117110
 21
1073.034793
  0
LINE
  8
CSLAYER1
  6
CONTINUOUS
 62
     4
 10
418.117110
 20
1135.584793
 11
418.117110
 21
1073.734793
  0
LINE
  8
CSLAYER1
  6
CONTINUOUS
 62
     4
 10
418.117110
 20
1135.584793
 11
422.117110
 21
1135.584793
  0
ARC
  8
CSLAYER1
  6
CONTINUOUS
 62
     4
 10
417.117110
 20
1112.009793
 40
1.000000
 50
270.000000
 51
360.000000
  0
ARC
  8
CSLAYER1
  6
CONTINUOUS
 62
     4
 10
417.117110
 20
1129.059793
 40
1.000000
 50
0.000000
 51
90.000000
  0
LINE
  8
CSLAYER1
  6
CONTINUOUS
 62
     4
 10
388.842110
 20
1116.764793
 11
388.842110
 21
1124.314519
  0
LINE
  8
CSLAYER1
  6
CONTINUOUS
 62
     4
 10
395.067110
 20
1107.534793
 11
390.692110
 21
1107.534793
  0
LINE
  8
CSLAYER1
  6
CONTINUOUS
 62
     4
 10
395.067110
 20
1165.284793
 11
390.692110
 21
1165.284793
  0
LINE
  8
CSLAYER1
  6
CONTINUOUS
 62
     4
 10
390.692110
 20
1115.764793
 11
389.842110
 21
1115.764793
  0
LINE
  8
CSLAYER1
  6
CONTINUOUS
 62
     4
 10
390.692110
 20
1125.314519
 11
389.842110
 21
1125.314519
  0
ARC
  8
CSLAYER1
  6
CONTINUOUS
 62
     4
 10
389.842110
 20
1116.764793
 40
1.000000
 50
180.000000
 51
270.000000
  0
ARC
  8
CSLAYER1
  6
CONTINUOUS
 62
     4
 10
389.842110
 20
1124.314519
 40
1.000000
 50
90.000000
 51
180.000000
  0
LINE
  8
CSLAYER1
  6
CONTINUOUS
 62
     4
 10
388.842110
 20
1148.514793
 11
388.842110
 21
1156.064519
  0
LINE
  8
CSLAYER1
  6
CONTINUOUS
 62
     4
 10
390.692110
 20
1147.514793
 11
389.842110
 21
1147.514793
  0
LINE
  8
CSLAYER1
  6
CONTINUOUS
 62
     4
 10
390.692110
 20
1157.064519
 11
389.842110
 21
1157.064519
  0
ARC
  8
CSLAYER1
  6
CONTINUOUS
 62
     4
 10
389.842110
 20
1148.514793
 40
1.000000
 50
180.000000
 51
270.000000
  0
ARC
  8
CSLAYER1
  6
CONTINUOUS
 62
     4
 10
389.842110
 20
1156.064519
 40
1.000000
 50
90.000000
 51
180.000000
  0
LINE
  8
CSLAYER1
  6
CONTINUOUS
 62
     4
 10
428.342110
 20
1116.764793
 11
428.342110
 21
1124.314519
  0
LINE
  8
CSLAYER1
  6
CONTINUOUS
 62
     4
 10
422.117110
 20
1107.534793
 11
426.492110
 21
1107.534793
  0
LINE
  8
CSLAYER1
  6
CONTINUOUS
 62
     4
 10
422.117110
 20
1165.284793
 11
426.492110
 21
1165.284793
  0
LINE
  8
CSLAYER1
  6
CONTINUOUS
 62
     4
 10
426.492110
 20
1115.764793
 11
427.342110
 21
1115.764793
  0
LINE
  8
CSLAYER1
  6
CONTINUOUS
 62
     4
 10
426.492110
 20
1125.314519
 11
427.342110
 21
1125.314519
  0
ARC
  8
CSLAYER1
  6
CONTINUOUS
 62
     4
 10
427.342110
 20
1116.764793
 40
1.000000
 50
270.000000
 51
360.000000
  0
ARC
  8
CSLAYER1
  6
CONTINUOUS
 62
     4
 10
427.342110
 20
1124.314519
 40
1.000000
 50
0.000000
 51
90.000000
  0
LINE
  8
CSLAYER1
  6
CONTINUOUS
 62
     4
 10
431.442110
 20
1148.514793
 11
431.442110
 21
1156.064519
  0
LINE
  8
CSLAYER1
  6
CONTINUOUS
 62
     4
 10
426.492110
 20
1147.514793
 11
430.442110
 21
1147.514793
  0
LINE
  8
CSLAYER1
  6
CONTINUOUS
 62
     4
 10
426.492110
 20
1157.064519
 11
430.442110
 21
1157.064519
  0
ARC
  8
CSLAYER1
  6
CONTINUOUS
 62
     4
 10
430.442110
 20
1148.514793
 40
1.000000
 50
270.000000
 51
360.000000
  0
ARC
  8
CSLAYER1
  6
CONTINUOUS
 62
     4
 10
430.442110
 20
1156.064519
 40
1.000000
 50
0.000000
 51
90.000000
  0
LINE
  8
CSLAYER1
  6
CONTINUOUS
 62
     4
 10
422.117110
 20
1157.064519
 11
395.067110
 21
1157.064519
  0
LINE
  8
CSLAYER1
  6
CONTINUOUS
 62
     4
 10
422.117110
 20
1147.514793
 11
395.067110
 21
1147.514793
  0
LINE
  8
CSLAYER1
  6
CONTINUOUS
 62
     4
 10
420.117110
 20
1137.284793
 11
397.067110
 21
1137.284793
  0
ARC
  8
CSLAYER1
  6
CONTINUOUS
 62
     4
 10
397.067110
 20
1139.284793
 40
2.000000
 50
180.000000
 51
270.000000
  0
ARC
  8
CSLAYER1
  6
CONTINUOUS
 62
     4
 10
420.117110
 20
1139.284793
 40
2.000000
 50
270.000000
 51
360.000000
  0
ARC
  8
CSLAYER1
  6
CONTINUOUS
 62
     4
 10
420.592110
 20
1169.284793
 40
2.000000
 50
180.000000
 51
270.000000
  0
ARC
  8
CSLAYER1
  6
CONTINUOUS
 62
     4
 10
396.592110
 20
1169.284793
 40
2.000000
 50
270.000000
 51
360.000000
  0
ARC
  8
CSLAYER1
  6
CONTINUOUS
 62
     4
 10
421.117110
 20
1166.284793
 40
1.000000
 50
0.000000
 51
90.000000
  0
ARC
  8
CSLAYER1
  6
CONTINUOUS
 62
     4
 10
396.067110
 20
1166.284793
 40
1.000000
 50
90.000000
 51
180.000000
  0
POINT
  8
CSLAYER1
 62
     4
 10
408.592110
 20
1167.284793
  0
LINE
  8
CSLAYER1
  6
CONTINUOUS
 62
     4
 10
390.692110
 20
1107.534793
 11
390.692110
 21
1165.284793
  0
LINE
  8
CSLAYER1
  6
CONTINUOUS
 62
     4
 10
426.492110
 20
1107.534793
 11
426.492110
 21
1165.284793
  0
LINE
  8
CSLAYER1
  6
CONTINUOUS
 62
     4
 10
422.592110
 20
845.440252
 11
422.592110
 21
862.819001
  0
LINE
  8
CSLAYER1
  6
CONTINUOUS
 62
     4
 10
421.592110
 20
845.440252
 11
421.592110
 21
863.819001
  0
LINE
  8
CSLAYER1
  6
CONTINUOUS
 62
     4
 10
416.592110
 20
863.819001
 11
419.618651
 21
863.819001
  0
LINE
  8
CSLAYER1
  6
CONTINUOUS
 62
     4
 10
422.592110
 20
862.819001
 11
421.592110
 21
863.819001
  0
LINE
  8
CSLAYER1
  6
CONTINUOUS
 62
     4
 10
399.592110
 20
868.819001
 11
398.592110
 21
869.819001
  0
LINE
  8
CSLAYER1
  6
CONTINUOUS
 62
     4
 10
421.592110
 20
863.819001
 11
416.525852
 21
868.803682
  0
LINE
  8
CSLAYER1
  6
CONTINUOUS
 62
     4
 10
416.592110
 20
868.738490
 11
421.511600
 21
863.819001
  0
LINE
  8
CSLAYER1
  6
CONTINUOUS
 62
     4
 10
416.592110
 20
868.455648
 11
421.228757
 21
863.819001
  0
LINE
  8
CSLAYER1
  6
CONTINUOUS
 62
     4
 10
416.592110
 20
868.172805
 11
420.945914
 21
863.819001
  0
LINE
  8
CSLAYER1
  6
CONTINUOUS
 62
     4
 10
416.592110
 20
867.889962
 11
420.663071
 21
863.819001
  0
LINE
  8
CSLAYER1
  6
CONTINUOUS
 62
     4
 10
416.592110
 20
867.607120
 11
420.380229
 21
863.819001
  0
LINE
  8
CSLAYER1
  6
CONTINUOUS
 62
     4
 10
416.592110
 20
867.324277
 11
420.097386
 21
863.819001
  0
LINE
  8
CSLAYER1
  6
CONTINUOUS
 62
     4
 10
416.592110
 20
867.041434
 11
419.814543
 21
863.819001
  0
LINE
  8
CSLAYER1
  6
CONTINUOUS
 62
     4
 10
416.592110
 20
866.758591
 11
419.531701
 21
863.819001
  0
LINE
  8
CSLAYER1
  6
CONTINUOUS
 62
     4
 10
416.592110
 20
866.475749
 11
419.248858
 21
863.819001
  0
LINE
  8
CSLAYER1
  6
CONTINUOUS
 62
     4
 10
416.592110
 20
866.192906
 11
418.966015
 21
863.819001
  0
LINE
  8
CSLAYER1
  6
CONTINUOUS
 62
     4
 10
416.592110
 20
865.910063
 11
418.683172
 21
863.819001
  0
LINE
  8
CSLAYER1
  6
CONTINUOUS
 62
     4
 10
416.592110
 20
865.627221
 11
418.400330
 21
863.819001
  0
LINE
  8
CSLAYER1
  6
CONTINUOUS
 62
     4
 10
416.592110
 20
865.344378
 11
418.117487
 21
863.819001
  0
LINE
  8
CSLAYER1
  6
CONTINUOUS
 62
     4
 10
416.592110
 20
865.061535
 11
417.834644
 21
863.819001
  0
LINE
  8
CSLAYER1
  6
CONTINUOUS
 62
     4
 10
416.592110
 20
864.778692
 11
417.551802
 21
863.819001
  0
LINE
  8
CSLAYER1
  6
CONTINUOUS
 62
     4
 10
416.592110
 20
864.495850
 11
417.268959
 21
863.819001
  0
LINE
  8
CSLAYER1
  6
CONTINUOUS
 62
     4
 10
416.592110
 20
864.213007
 11
416.986116
 21
863.819001
  0
LINE
  8
CSLAYER1
  6
CONTINUOUS
 62
     4
 10
416.592110
 20
863.930164
 11
416.703273
 21
863.819001
  0
LINE
  8
CSLAYER1
  6
CONTINUOUS
 62
     4
 10
319.618651
 20
828.469001
 11
360.592110
 21
828.469001
  0
LINE
  8
CSLAYER1
  6
CONTINUOUS
 62
     4
 10
399.592110
 20
868.819001
 11
399.592110
 21
834.629761
  0
LINE
  8
CSLAYER1
  6
CONTINUOUS
 62
     4
 10
318.618651
 20
870.169001
 11
318.618651
 21
829.469001
  0
LINE
  8
CSLAYER1
  6
CONTINUOUS
 62
     4
 10
318.618651
 20
829.469001
 11
319.618651
 21
828.469001
  0
LINE
  8
CSLAYER1
  6
CONTINUOUS
 62
     4
 10
278.618651
 20
859.819001
 11
278.618651
 21
839.819001
  0
LINE
  8
CSLAYER1
  6
CONTINUOUS
 62
     4
 10
297.618651
 20
868.319001
 11
297.618651
 21
831.319001
  0
LINE
  8
CSLAYER1
  6
CONTINUOUS
 62
     4
 10
292.518651
 20
866.819001
 11
292.518651
 21
832.819001
  0
LINE
  8
CSLAYER1
  6
CONTINUOUS
 62
     4
 10
280.518651
 20
866.819001
 11
280.518651
 21
832.819001
  0
LINE
  8
CSLAYER1
  6
CONTINUOUS
 62
     4
 10
297.618651
 20
866.819001
 11
280.518651
 21
866.819001
  0
LINE
  8
CSLAYER1
  6
CONTINUOUS
 62
     4
 10
292.518651
 20
859.819001
 11
278.618651
 21
859.819001
  0
LINE
  8
CSLAYER1
  6
CONTINUOUS
 62
     4
 10
297.618651
 20
832.819001
 11
280.518651
 21
832.819001
  0
LINE
  8
CSLAYER1
  6
CONTINUOUS
 62
     4
 10
292.518651
 20
839.819001
 11
278.618651
 21
839.819001
  0
LINE
  8
CSLAYER1
  6
CONTINUOUS
 62
     4
 10
300.618651
 20
868.319001
 11
297.618651
 21
868.319001
  0
LINE
  8
CSLAYER1
  6
CONTINUOUS
 62
     4
 10
300.618651
 20
831.319001
 11
297.618651
 21
831.319001
  0
LINE
  8
CSLAYER1
  6
CONTINUOUS
 62
     4
 10
300.618651
 20
831.319001
 11
300.618651
 21
868.319001
  0
LINE
  8
CSLAYER1
  6
CENTER
 62
     5
 10
261.040671
 20
849.819001
 11
430.549763
 21
849.819001
  0
LINE
  8
CSLAYER1
  6
CONTINUOUS
 62
     4
 10
300.618651
 20
837.319001
 11
301.592110
 21
837.319001
  0
LINE
  8
CSLAYER1
  6
CONTINUOUS
 62
     4
 10
319.618651
 20
871.169001
 11
360.592110
 21
871.169001
  0
LINE
  8
CSLAYER1
  6
CONTINUOUS
 62
     4
 10
318.618651
 20
870.169001
 11
319.618651
 21
871.169001
  0
LINE
  8
CSLAYER1
  6
CONTINUOUS
 62
     4
 10
300.618651
 20
862.319001
 11
301.592110
 21
862.319001
  0
LINE
  8
CSLAYER1
  6
CONTINUOUS
 62
     4
 10
301.618651
 20
823.712076
 11
301.618651
 21
837.319001
  0
LINE
  8
CSLAYER1
  6
CONTINUOUS
 62
     4
 10
355.592110
 20
828.469001
 11
360.592110
 21
823.469001
  0
LINE
  8
CSLAYER1
  6
CONTINUOUS
 62
     4
 10
360.592110
 20
823.751843
 11
355.874953
 21
828.469001
  0
LINE
  8
CSLAYER1
  6
CONTINUOUS
 62
     4
 10
360.592110
 20
824.034686
 11
356.157795
 21
828.469001
  0
LINE
  8
CSLAYER1
  6
CONTINUOUS
 62
     4
 10
360.592110
 20
824.317529
 11
356.440638
 21
828.469001
  0
LINE
  8
CSLAYER1
  6
CONTINUOUS
 62
     4
 10
360.592110
 20
824.600372
 11
356.723481
 21
828.469001
  0
LINE
  8
CSLAYER1
  6
CONTINUOUS
 62
     4
 10
360.592110
 20
824.883214
 11
357.006323
 21
828.469001
  0
LINE
  8
CSLAYER1
  6
CONTINUOUS
 62
     4
 10
360.592110
 20
825.166057
 11
357.289166
 21
828.469001
  0
LINE
  8
CSLAYER1
  6
CONTINUOUS
 62
     4
 10
360.592110
 20
825.448900
 11
357.572009
 21
828.469001
  0
LINE
  8
CSLAYER1
  6
CONTINUOUS
 62
     4
 10
360.592110
 20
825.731742
 11
357.854852
 21
828.469001
  0
LINE
  8
CSLAYER1
  6
CONTINUOUS
 62
     4
 10
360.592110
 20
826.014585
 11
358.137694
 21
828.469001
  0
LINE
  8
CSLAYER1
  6
CONTINUOUS
 62
     4
 10
360.592110
 20
826.297428
 11
358.420537
 21
828.469001
  0
LINE
  8
CSLAYER1
  6
CONTINUOUS
 62
     4
 10
360.592110
 20
826.580271
 11
358.703380
 21
828.469001
  0
LINE
  8
CSLAYER1
  6
CONTINUOUS
 62
     4
 10
360.592110
 20
826.863113
 11
358.986222
 21
828.469001
  0
LINE
  8
CSLAYER1
  6
CONTINUOUS
 62
     4
 10
360.592110
 20
827.145956
 11
359.269065
 21
828.469001
  0
LINE
  8
CSLAYER1
  6
CONTINUOUS
 62
     4
 10
360.592110
 20
827.428799
 11
359.551908
 21
828.469001
  0
LINE
  8
CSLAYER1
  6
CONTINUOUS
 62
     4
 10
360.592110
 20
827.711641
 11
359.834751
 21
828.469001
  0
LINE
  8
CSLAYER1
  6
CONTINUOUS
 62
     4
 10
360.592110
 20
827.994484
 11
360.117593
 21
828.469001
  0
LINE
  8
CSLAYER1
  6
CONTINUOUS
 62
     4
 10
360.592110
 20
828.277327
 11
360.400436
 21
828.469001
  0
LINE
  8
CSLAYER1
  6
CONTINUOUS
 62
     4
 10
376.592110
 20
874.536158
 11
381.309267
 21
869.819001
  0
LINE
  8
CSLAYER1
  6
CONTINUOUS
 62
     4
 10
376.592110
 20
874.253315
 11
381.026424
 21
869.819001
  0
LINE
  8
CSLAYER1
  6
CONTINUOUS
 62
     4
 10
376.592110
 20
873.970473
 11
380.743582
 21
869.819001
  0
LINE
  8
CSLAYER1
  6
CONTINUOUS
 62
     4
 10
376.592110
 20
873.687630
 11
380.460739
 21
869.819001
  0
LINE
  8
CSLAYER1
  6
CONTINUOUS
 62
     4
 10
376.592110
 20
873.404787
 11
380.177896
 21
869.819001
  0
LINE
  8
CSLAYER1
  6
CONTINUOUS
 62
     4
 10
376.592110
 20
873.121944
 11
379.895054
 21
869.819001
  0
LINE
  8
CSLAYER1
  6
CONTINUOUS
 62
     4
 10
376.592110
 20
872.839102
 11
379.612211
 21
869.819001
  0
LINE
  8
CSLAYER1
  6
CONTINUOUS
 62
     4
 10
376.592110
 20
872.556259
 11
379.329368
 21
869.819001
  0
LINE
  8
CSLAYER1
  6
CONTINUOUS
 62
     4
 10
376.592110
 20
872.273416
 11
379.046525
 21
869.819001
  0
LINE
  8
CSLAYER1
  6
CONTINUOUS
 62
     4
 10
376.592110
 20
871.990574
 11
378.763683
 21
869.819001
  0
LINE
  8
CSLAYER1
  6
CONTINUOUS
 62
     4
 10
376.592110
 20
871.707731
 11
378.480840
 21
869.819001
  0
LINE
  8
CSLAYER1
  6
CONTINUOUS
 62
     4
 10
376.592110
 20
871.424888
 11
378.197997
 21
869.819001
  0
LINE
  8
CSLAYER1
  6
CONTINUOUS
 62
     4
 10
376.592110
 20
871.142045
 11
377.915155
 21
869.819001
  0
LINE
  8
CSLAYER1
  6
CONTINUOUS
 62
     4
 10
376.592110
 20
870.859203
 11
377.632312
 21
869.819001
  0
LINE
  8
CSLAYER1
  6
CONTINUOUS
 62
     4
 10
376.592110
 20
870.576360
 11
377.349469
 21
869.819001
  0
LINE
  8
CSLAYER1
  6
CONTINUOUS
 62
     4
 10
376.592110
 20
870.293517
 11
377.066626
 21
869.819001
  0
LINE
  8
CSLAYER1
  6
CONTINUOUS
 62
     4
 10
376.592110
 20
870.010675
 11
376.783784
 21
869.819001
  0
LINE
  8
CSLAYER1
  6
CONTINUOUS
 62
     4
 10
355.592110
 20
871.169001
 11
360.592110
 21
876.169001
  0
LINE
  8
CSLAYER1
  6
CONTINUOUS
 62
     4
 10
360.592110
 20
875.886158
 11
355.874953
 21
871.169001
  0
LINE
  8
CSLAYER1
  6
CONTINUOUS
 62
     4
 10
360.592110
 20
875.603315
 11
356.157795
 21
871.169001
  0
LINE
  8
CSLAYER1
  6
CONTINUOUS
 62
     4
 10
360.592110
 20
875.320473
 11
356.440638
 21
871.169001
  0
LINE
  8
CSLAYER1
  6
CONTINUOUS
 62
     4
 10
360.592110
 20
875.037630
 11
356.723481
 21
871.169001
  0
LINE
  8
CSLAYER1
  6
CONTINUOUS
 62
     4
 10
360.592110
 20
874.754787
 11
357.006323
 21
871.169001
  0
LINE
  8
CSLAYER1
  6
CONTINUOUS
 62
     4
 10
360.592110
 20
874.471944
 11
357.289166
 21
871.169001
  0
LINE
  8
CSLAYER1
  6
CONTINUOUS
 62
     4
 10
360.592110
 20
874.189102
 11
357.572009
 21
871.169001
  0
LINE
  8
CSLAYER1
  6
CONTINUOUS
 62
     4
 10
360.592110
 20
873.906259
 11
357.854852
 21
871.169001
  0
LINE
  8
CSLAYER1
  6
CONTINUOUS
 62
     4
 10
360.592110
 20
873.623416
 11
358.137694
 21
871.169001
  0
LINE
  8
CSLAYER1
  6
CONTINUOUS
 62
     4
 10
360.592110
 20
873.340574
 11
358.420537
 21
871.169001
  0
LINE
  8
CSLAYER1
  6
CONTINUOUS
 62
     4
 10
360.592110
 20
873.057731
 11
358.703380
 21
871.169001
  0
LINE
  8
CSLAYER1
  6
CONTINUOUS
 62
     4
 10
360.592110
 20
872.774888
 11
358.986222
 21
871.169001
  0
LINE
  8
CSLAYER1
  6
CONTINUOUS
 62
     4
 10
360.592110
 20
872.492045
 11
359.269065
 21
871.169001
  0
LINE
  8
CSLAYER1
  6
CONTINUOUS
 62
     4
 10
360.592110
 20
872.209203
 11
359.551908
 21
871.169001
  0
LINE
  8
CSLAYER1
  6
CONTINUOUS
 62
     4
 10
360.592110
 20
871.926360
 11
359.834751
 21
871.169001
  0
LINE
  8
CSLAYER1
  6
CONTINUOUS
 62
     4
 10
360.592110
 20
871.643517
 11
360.117593
 21
871.169001
  0
LINE
  8
CSLAYER1
  6
CONTINUOUS
 62
     4
 10
360.592110
 20
871.360675
 11
360.400436
 21
871.169001
  0
LINE
  8
CSLAYER1
  6
CONTINUOUS
 62
     4
 10
377.632312
 20
869.819001
 11
376.592110
 21
869.819001
  0
POINT
  8
CSLAYER1
 62
     4
 10
408.592110
 20
892.588228
  0
LINE
  8
CSLAYER1
  6
CONTINUOUS
 62
     4
 10
390.692110
 20
879.588228
 11
390.692110
 21
937.338228
  0
LINE
  8
CSLAYER1
  6
CONTINUOUS
 62
     4
 10
388.842110
 20
888.818228
 11
388.842110
 21
896.367955
  0
LINE
  8
CSLAYER1
  6
CONTINUOUS
 62
     4
 10
395.067110
 20
879.588228
 11
390.692110
 21
879.588228
  0
LINE
  8
CSLAYER1
  6
CONTINUOUS
 62
     4
 10
390.692110
 20
897.367955
 11
389.842110
 21
897.367955
  0
ARC
  8
CSLAYER1
  6
CONTINUOUS
 62
     4
 10
389.842110
 20
888.818228
 40
1.000000
 50
180.000000
 51
270.000000
  0
ARC
  8
CSLAYER1
  6
CONTINUOUS
 62
     4
 10
389.842110
 20
896.367955
 40
1.000000
 50
90.000000
 51
180.000000
  0
LINE
  8
CSLAYER1
  6
CONTINUOUS
 62
     4
 10
422.117110
 20
879.588228
 11
422.117110
 21
974.838228
  0
LINE
  8
CSLAYER1
  6
CONTINUOUS
 62
     4
 10
426.492110
 20
879.588228
 11
426.492110
 21
937.338228
  0
LINE
  8
CSLAYER1
  6
CONTINUOUS
 62
     4
 10
428.342110
 20
888.818228
 11
428.342110
 21
896.367955
  0
LINE
  8
CSLAYER1
  6
CONTINUOUS
 62
     4
 10
422.117110
 20
879.588228
 11
426.492110
 21
879.588228
  0
LINE
  8
CSLAYER1
  6
CONTINUOUS
 62
     4
 10
426.492110
 20
887.818228
 11
427.342110
 21
887.818228
  0
LINE
  8
CSLAYER1
  6
CONTINUOUS
 62
     4
 10
426.492110
 20
897.367955
 11
427.342110
 21
897.367955
  0
ARC
  8
CSLAYER1
  6
CONTINUOUS
 62
     4
 10
427.342110
 20
888.818228
 40
1.000000
 50
270.000000
 51
360.000000
  0
ARC
  8
CSLAYER1
  6
CONTINUOUS
 62
     4
 10
427.342110
 20
896.367955
 40
1.000000
 50
0.000000
 51
90.000000
  0
LINE
  8
CSLAYER1
  6
CONTINUOUS
 62
     4
 10
421.117110
 20
882.588228
 11
416.592110
 21
882.588228
  0
LINE
  8
CSLAYER1
  6
CONTINUOUS
 62
     4
 10
422.117110
 20
883.588228
 11
421.117110
 21
882.588228
  0
LINE
  8
CSLAYER1
  6
CONTINUOUS
 62
     4
 10
396.067110
 20
882.588228
 11
395.067110
 21
883.588228
  0
LINE
  8
CSLAYER1
  6
CONTINUOUS
 62
     4
 10
421.117110
 20
902.588228
 11
416.592110
 21
902.588228
  0
LINE
  8
CSLAYER1
  6
CONTINUOUS
 62
     4
 10
422.117110
 20
901.588228
 11
421.117110
 21
902.588228
  0
LINE
  8
CSLAYER1
  6
CONTINUOUS
 62
     4
 10
396.067110
 20
902.588228
 11
395.067110
 21
901.588228
  0
LINE
  8
CSLAYER1
  6
CONTINUOUS
 62
     5
 10
381.108829
 20
924.338228
 11
425.644740
 21
924.338228
  0
LINE
  8
CSLAYER1
  6
CONTINUOUS
 62
     4
 10
422.117110
 20
937.338228
 11
426.492110
 21
937.338228
  0
LINE
  8
CSLAYER1
  6
CONTINUOUS
 62
     4
 10
428.342110
 20
920.568228
 11
428.342110
 21
928.117955
  0
LINE
  8
CSLAYER1
  6
CONTINUOUS
 62
     4
 10
426.492110
 20
919.568228
 11
427.342110
 21
919.568228
  0
LINE
  8
CSLAYER1
  6
CONTINUOUS
 62
     4
 10
426.492110
 20
929.117955
 11
427.342110
 21
929.117955
  0
ARC
  8
CSLAYER1
  6
CONTINUOUS
 62
     4
 10
427.342110
 20
920.568228
 40
1.000000
 50
270.000000
 51
360.000000
  0
ARC
  8
CSLAYER1
  6
CONTINUOUS
 62
     4
 10
427.342110
 20
928.117955
 40
1.000000
 50
0.000000
 51
90.000000
  0
LINE
  8
CSLAYER1
  6
CONTINUOUS
 62
     4
 10
395.067110
 20
937.338228
 11
390.692110
 21
937.338228
  0
LINE
  8
CSLAYER1
  6
CONTINUOUS
 62
     4
 10
390.692110
 20
887.818228
 11
389.842110
 21
887.818228
  0
LINE
  8
CSLAYER1
  6
CONTINUOUS
 62
     4
 10
388.842110
 20
920.568228
 11
388.842110
 21
928.117955
  0
LINE
  8
CSLAYER1
  6
CONTINUOUS
 62
     4
 10
390.692110
 20
919.568228
 11
389.842110
 21
919.568228
  0
LINE
  8
CSLAYER1
  6
CONTINUOUS
 62
     4
 10
390.692110
 20
929.117955
 11
389.842110
 21
929.117955
  0
ARC
  8
CSLAYER1
  6
CONTINUOUS
 62
     4
 10
389.842110
 20
920.568228
 40
1.000000
 50
180.000000
 51
270.000000
  0
ARC
  8
CSLAYER1
  6
CONTINUOUS
 62
     4
 10
389.842110
 20
928.117955
 40
1.000000
 50
90.000000
 51
180.000000
  0
POINT
  8
CSLAYER1
 62
     4
 10
408.592110
 20
924.338228
  0
LINE
  8
CSLAYER1
  6
CONTINUOUS
 62
     5
 10
381.954447
 20
892.588228
 11
426.490359
 21
892.588228
  0
LINE
  8
CSLAYER1
  6
CONTINUOUS
 62
     4
 10
400.592110
 20
914.813228
 11
400.592110
 21
835.230344
  0
LINE
  8
CSLAYER1
  6
CONTINUOUS
 62
     4
 10
416.592110
 20
914.813228
 11
416.592110
 21
844.839669
  0
POINT
  8
CSLAYER1
 62
     4
 10
408.592110
 20
1088.784793
  0
LINE
  8
CSLAYER1
  6
CONTINUOUS
 62
     4
 10
399.067110
 20
1073.734793
 11
395.067110
 21
1073.734793
  0
LINE
  8
CSLAYER1
  6
CONTINUOUS
 62
     4
 10
400.067110
 20
1098.309793
 11
417.117110
 21
1098.309793
  0
LINE
  8
CSLAYER1
  6
CONTINUOUS
 62
     4
 10
400.067110
 20
1079.259793
 11
417.117110
 21
1079.259793
  0
ARC
  8
CSLAYER1
  6
CONTINUOUS
 62
     4
 10
400.067110
 20
1097.309793
 40
1.000000
 50
90.000000
 51
180.000000
  0
ARC
  8
CSLAYER1
  6
CONTINUOUS
 62
     4
 10
400.067110
 20
1080.259793
 40
1.000000
 50
180.000000
 51
270.000000
  0
LINE
  8
CSLAYER1
  6
CONTINUOUS
 62
     4
 10
418.117110
 20
1073.734793
 11
422.117110
 21
1073.734793
  0
ARC
  8
CSLAYER1
  6
CONTINUOUS
 62
     4
 10
417.117110
 20
1097.309793
 40
1.000000
 50
0.000000
 51
90.000000
  0
ARC
  8
CSLAYER1
  6
CONTINUOUS
 62
     4
 10
417.117110
 20
1080.259793
 40
1.000000
 50
270.000000
 51
360.000000
  0
LINE
  8
CSLAYER1
  6
CONTINUOUS
 62
     4
 10
388.842110
 20
1092.554793
 11
388.842110
 21
1085.005066
  0
LINE
  8
CSLAYER1
  6
CONTINUOUS
 62
     4
 10
395.067110
 20
1101.784793
 11
390.692110
 21
1101.784793
  0
LINE
  8
CSLAYER1
  6
CONTINUOUS
 62
     4
 10
390.692110
 20
1093.554793
 11
389.842110
 21
1093.554793
  0
LINE
  8
CSLAYER1
  6
CONTINUOUS
 62
     4
 10
390.692110
 20
1084.005066
 11
389.842110
 21
1084.005066
  0
ARC
  8
CSLAYER1
  6
CONTINUOUS
 62
     4
 10
389.842110
 20
1092.554793
 40
1.000000
 50
90.000000
 51
180.000000
  0
ARC
  8
CSLAYER1
  6
CONTINUOUS
 62
     4
 10
389.842110
 20
1085.005066
 40
1.000000
 50
180.000000
 51
270.000000
  0
LINE
  8
CSLAYER1
  6
CONTINUOUS
 62
     4
 10
428.342110
 20
1092.554793
 11
428.342110
 21
1085.005066
  0
LINE
  8
CSLAYER1
  6
CONTINUOUS
 62
     4
 10
422.117110
 20
1101.784793
 11
426.492110
 21
1101.784793
  0
LINE
  8
CSLAYER1
  6
CONTINUOUS
 62
     4
 10
426.492110
 20
1093.554793
 11
427.342110
 21
1093.554793
  0
LINE
  8
CSLAYER1
  6
CONTINUOUS
 62
     4
 10
426.492110
 20
1084.005066
 11
427.342110
 21
1084.005066
  0
ARC
  8
CSLAYER1
  6
CONTINUOUS
 62
     4
 10
427.342110
 20
1092.554793
 40
1.000000
 50
0.000000
 51
90.000000
  0
ARC
  8
CSLAYER1
  6
CONTINUOUS
 62
     4
 10
427.342110
 20
1085.005066
 40
1.000000
 50
270.000000
 51
360.000000
  0
LINE
  8
CSLAYER1
  6
CONTINUOUS
 62
     4
 10
426.492110
 20
1101.784793
 11
426.492110
 21
1044.034793
  0
LINE
  8
CSLAYER1
  6
CONTINUOUS
 62
     4
 10
390.692110
 20
1101.784793
 11
390.692110
 21
1044.034793
  0
POINT
  8
CSLAYER1
 62
     4
 10
408.592110
 20
956.088228
  0
LINE
  8
CSLAYER1
  6
CONTINUOUS
 62
     4
 10
395.067110
 20
879.588228
 11
395.067110
 21
974.838228
  0
LINE
  8
CSLAYER1
  6
CONTINUOUS
 62
     4
 10
399.067110
 20
971.138228
 11
399.067110
 21
909.288228
  0
LINE
  8
CSLAYER1
  6
CONTINUOUS
 62
     4
 10
399.067110
 20
971.138228
 11
395.067110
 21
971.138228
  0
LINE
  8
CSLAYER1
  6
CONTINUOUS
 62
     4
 10
400.067110
 20
946.563228
 11
417.117110
 21
946.563228
  0
LINE
  8
CSLAYER1
  6
CONTINUOUS
 62
     4
 10
400.067110
 20
965.613228
 11
417.117110
 21
965.613228
  0
ARC
  8
CSLAYER1
  6
CONTINUOUS
 62
     4
 10
400.067110
 20
947.563228
 40
1.000000
 50
180.000000
 51
270.000000
  0
ARC
  8
CSLAYER1
  6
CONTINUOUS
 62
     4
 10
400.067110
 20
964.613228
 40
1.000000
 50
90.000000
 51
180.000000
  0
LINE
  8
CSLAYER1
  6
CONTINUOUS
 62
     4
 10
418.117110
 20
971.138228
 11
418.117110
 21
909.288228
  0
LINE
  8
CSLAYER1
  6
CONTINUOUS
 62
     4
 10
418.117110
 20
971.138228
 11
422.117110
 21
971.138228
  0
ARC
  8
CSLAYER1
  6
CONTINUOUS
 62
     4
 10
417.117110
 20
947.563228
 40
1.000000
 50
270.000000
 51
360.000000
  0
ARC
  8
CSLAYER1
  6
CONTINUOUS
 62
     4
 10
417.117110
 20
964.613228
 40
1.000000
 50
0.000000
 51
90.000000
  0
LINE
  8
CSLAYER1
  6
CONTINUOUS
 62
     4
 10
388.842110
 20
952.318228
 11
388.842110
 21
959.867955
  0
LINE
  8
CSLAYER1
  6
CONTINUOUS
 62
     4
 10
395.067110
 20
943.088228
 11
390.692110
 21
943.088228
  0
LINE
  8
CSLAYER1
  6
CONTINUOUS
 62
     4
 10
390.692110
 20
951.318228
 11
389.842110
 21
951.318228
  0
LINE
  8
CSLAYER1
  6
CONTINUOUS
 62
     4
 10
390.692110
 20
960.867955
 11
389.842110
 21
960.867955
  0
ARC
  8
CSLAYER1
  6
CONTINUOUS
 62
     4
 10
389.842110
 20
952.318228
 40
1.000000
 50
180.000000
 51
270.000000
  0
ARC
  8
CSLAYER1
  6
CONTINUOUS
 62
     4
 10
389.842110
 20
959.867955
 40
1.000000
 50
90.000000
 51
180.000000
  0
LINE
  8
CSLAYER1
  6
CONTINUOUS
 62
     4
 10
428.342110
 20
952.318228
 11
428.342110
 21
959.867955
  0
LINE
  8
CSLAYER1
  6
CONTINUOUS
 62
     4
 10
422.117110
 20
943.088228
 11
426.492110
 21
943.088228
  0
LINE
  8
CSLAYER1
  6
CONTINUOUS
 62
     4
 10
426.492110
 20
951.318228
 11
427.342110
 21
951.318228
  0
LINE
  8
CSLAYER1
  6
CONTINUOUS
 62
     4
 10
426.492110
 20
960.867955
 11
427.342110
 21
960.867955
  0
ARC
  8
CSLAYER1
  6
CONTINUOUS
 62
     4
 10
427.342110
 20
952.318228
 40
1.000000
 50
270.000000
 51
360.000000
  0
ARC
  8
CSLAYER1
  6
CONTINUOUS
 62
     4
 10
427.342110
 20
959.867955
 40
1.000000
 50
0.000000
 51
90.000000
  0
LINE
  8
CSLAYER1
  6
CONTINUOUS
 62
     4
 10
390.692110
 20
943.088228
 11
390.692110
 21
1000.838228
  0
LINE
  8
CSLAYER1
  6
CONTINUOUS
 62
     4
 10
426.492110
 20
943.088228
 11
426.492110
 21
1000.838228
  0
LINE
  8
CSLAYER1
  6
CONTINUOUS
 62
     4
 10
399.067110
 20
909.288228
 11
395.067110
 21
909.288228
  0
LINE
  8
CSLAYER1
  6
CONTINUOUS
 62
     4
 10
400.067110
 20
933.863228
 11
417.117110
 21
933.863228
  0
LINE
  8
CSLAYER1
  6
CONTINUOUS
 62
     4
 10
400.067110
 20
914.813228
 11
417.117110
 21
914.813228
  0
ARC
  8
CSLAYER1
  6
CONTINUOUS
 62
     4
 10
400.067110
 20
932.863228
 40
1.000000
 50
90.000000
 51
180.000000
  0
ARC
  8
CSLAYER1
  6
CONTINUOUS
 62
     4
 10
400.067110
 20
915.813228
 40
1.000000
 50
180.000000
 51
270.000000
  0
LINE
  8
CSLAYER1
  6
CONTINUOUS
 62
     4
 10
418.117110
 20
909.288228
 11
422.117110
 21
909.288228
  0
ARC
  8
CSLAYER1
  6
CONTINUOUS
 62
     4
 10
417.117110
 20
932.863228
 40
1.000000
 50
0.000000
 51
90.000000
  0
ARC
  8
CSLAYER1
  6
CONTINUOUS
 62
     4
 10
417.117110
 20
915.813228
 40
1.000000
 50
270.000000
 51
360.000000
  0
LINE
  8
CSLAYER1
  6
CONTINUOUS
 62
     4
 10
400.592110
 20
909.588228
 11
416.592110
 21
909.588228
  0
LINE
  8
CSLAYER1
  6
CONTINUOUS
 62
     4
 10
400.592110
 20
902.588228
 11
396.067110
 21
902.588228
  0
LINE
  8
CSLAYER1
  6
CONTINUOUS
 62
     4
 10
400.592110
 20
882.588228
 11
396.067110
 21
882.588228
  0
LINE
  8
CSLAYER1
  6
CONTINUOUS
 62
     4
 10
233.592110
 20
442.365170
 11
233.592110
 21
378.083386
  0
LINE
  8
CSLAYER1
  6
CONTINUOUS
 62
     4
 10
733.592110
 20
443.083386
 11
233.592110
 21
443.083386
  0
LINE
  8
CSLAYER1
  6
CONTINUOUS
 62
     4
 10
561.792110
 20
460.041381
 11
564.792110
 21
460.041381
  0
LINE
  8
CSLAYER1
  6
CONTINUOUS
 62
     4
 10
561.792110
 20
468.745131
 11
565.792110
 21
468.745131
  0
LINE
  8
CSLAYER1
  6
CONTINUOUS
 62
     4
 10
564.792110
 20
443.083386
 11
564.792110
 21
468.745131
  0
LINE
  8
CSLAYER1
  6
CONTINUOUS
 62
     4
 10
569.292110
 20
498.576984
 11
570.792110
 21
498.576984
  0
LINE
  8
CSLAYER1
  6
CONTINUOUS
 62
     4
 10
569.292110
 20
499.085191
 11
570.792110
 21
499.085191
  0
LINE
  8
CSLAYER1
  6
CONTINUOUS
 62
     4
 10
580.792110
 20
443.083386
 11
580.792110
 21
468.745131
  0
LINE
  8
CSLAYER1
  6
CONTINUOUS
 62
     4
 10
569.292110
 20
486.773454
 11
569.292110
 21
499.085191
  0
LINE
  8
CSLAYER1
  6
CONTINUOUS
 62
     4
 10
576.292110
 20
486.773454
 11
576.292110
 21
499.085191
  0
LINE
  8
CSLAYER1
  6
CONTINUOUS
 62
     4
 10
565.792110
 20
459.458957
 11
565.792110
 21
474.789316
  0
LINE
  8
CSLAYER1
  6
CONTINUOUS
 62
     4
 10
579.792110
 20
459.458957
 11
579.792110
 21
474.789316
  0
LINE
  8
CSLAYER1
  6
CONTINUOUS
 62
     4
 10
570.792110
 20
486.773454
 11
570.792110
 21
515.063124
  0
LINE
  8
CSLAYER1
  6
CONTINUOUS
 62
     4
 10
574.792110
 20
486.773454
 11
574.792110
 21
511.023680
  0
LINE
  8
CSLAYER1
  6
CONTINUOUS
 62
     4
 10
567.252928
 20
486.773454
 11
578.331292
 21
486.773454
  0
LINE
  8
CSLAYER1
  6
CONTINUOUS
 62
     4
 10
564.792110
 20
459.458957
 11
580.792110
 21
459.458957
  0
LINE
  8
CSLAYER1
  6
CONTINUOUS
 62
     4
 10
579.792110
 20
474.789316
 11
578.331292
 21
486.773454
  0
LINE
  8
CSLAYER1
  6
CONTINUOUS
 62
     4
 10
565.792110
 20
474.789316
 11
567.252928
 21
486.773454
  0
LINE
  8
CSLAYER1
  6
CONTINUOUS
 62
     4
 10
581.792110
 20
453.207994
 11
581.792110
 21
460.807994
  0
LINE
  8
CSLAYER1
  6
CONTINUOUS
 62
     4
 10
581.792110
 20
453.207994
 11
580.792110
 21
453.207994
  0
LINE
  8
CSLAYER1
  6
CONTINUOUS
 62
     4
 10
581.792110
 20
460.807994
 11
580.792110
 21
460.807994
  0
LINE
  8
CSLAYER1
  6
CONTINUOUS
 62
     4
 10
584.392110
 20
455.507994
 11
584.392110
 21
458.507994
  0
LINE
  8
CSLAYER1
  6
CONTINUOUS
 62
     4
 10
582.392110
 20
453.507994
 11
581.792110
 21
453.507994
  0
LINE
  8
CSLAYER1
  6
CONTINUOUS
 62
     4
 10
582.392110
 20
460.507994
 11
581.792110
 21
460.507994
  0
ARC
  8
CSLAYER1
  6
CONTINUOUS
 62
     4
 10
582.392110
 20
455.507994
 40
2.000000
 50
270.000000
 51
360.000000
  0
ARC
  8
CSLAYER1
  6
CONTINUOUS
 62
     4
 10
582.392110
 20
458.507994
 40
2.000000
 50
0.000000
 51
90.000000
  0
LINE
  8
CSLAYER1
  6
CONTINUOUS
 62
     4
 10
579.792110
 20
468.745131
 11
580.792110
 21
468.745131
  0
LINE
  8
CSLAYER1
  6
CONTINUOUS
 62
     4
 10
574.792110
 20
498.576984
 11
576.292110
 21
498.576984
  0
LINE
  8
CSLAYER1
  6
CONTINUOUS
 62
     4
 10
574.792110
 20
499.085191
 11
576.292110
 21
499.085191
  0
LINE
  8
CSLAYER1
  6
CONTINUOUS
 62
     4
 10
568.550355
 20
516.408176
 11
570.046049
 21
515.510760
  0
LINE
  8
CSLAYER1
  6
CONTINUOUS
 62
     4
 10
570.046049
 20
515.510760
 11
579.020209
 21
507.733155
  0
LINE
  8
CSLAYER1
  6
CONTINUOUS
 62
     4
 10
560.592110
 20
466.000452
 11
560.592110
 21
456.000452
  0
LINE
  8
CSLAYER1
  6
CONTINUOUS
 62
     4
 10
580.792110
 20
466.000452
 11
590.592110
 21
466.000452
  0
LINE
  8
CSLAYER1
  6
CONTINUOUS
 62
     4
 10
584.330533
 20
456.000452
 11
590.592110
 21
456.000452
  0
LINE
  8
CSLAYER1
  6
CONTINUOUS
 62
     4
 10
378.783784
 20
869.819001
 11
398.592110
 21
869.819001
  0
LINE
  8
CSLAYER1
  6
CONTINUOUS
 62
     4
 10
399.592110
 20
864.819001
 11
400.592110
 21
864.819001
  0
LINE
  8
CSLAYER1
  6
CONTINUOUS
 62
     4
 10
590.592110
 20
443.083386
 11
590.592110
 21
1365.754615
  0
LINE
  8
CSLAYER1
  6
CONTINUOUS
 62
     4
 10
606.592110
 20
443.083386
 11
606.592110
 21
1365.754615
  0
LINE
  8
CSLAYER1
  6
CONTINUOUS
 62
     4
 10
439.042110
 20
1085.352024
 11
439.042110
 21
845.440252
  0
LINE
  8
CSLAYER1
  6
CONTINUOUS
 62
     4
 10
528.142110
 20
1085.352024
 11
528.142110
 21
845.440252
  0
LINE
  8
CSLAYER1
  6
CONTINUOUS
 62
     4
 10
453.342110
 20
1209.617485
 11
453.342110
 21
1103.597866
  0
LINE
  8
CSLAYER1
  6
CONTINUOUS
 62
     4
 10
513.842110
 20
1209.617485
 11
513.842110
 21
1103.597866
  0
LINE
  8
CSLAYER1
  6
CONTINUOUS
 62
     4
 10
429.092110
 20
1270.117485
 11
429.092110
 21
1209.617485
  0
LINE
  8
CSLAYER1
  6
CONTINUOUS
 62
     4
 10
475.762834
 20
1225.531432
 11
473.246001
 21
1225.099231
  0
LINE
  8
CSLAYER1
  6
CONTINUOUS
 62
     4
 10
473.246001
 20
1225.099231
 11
470.807907
 21
1224.549205
  0
LINE
  8
CSLAYER1
  6
CONTINUOUS
 62
     4
 10
470.807907
 20
1224.549205
 11
468.467110
 21
1223.885540
  0
LINE
  8
CSLAYER1
  6
CONTINUOUS
 62
     4
 10
468.467110
 20
1223.885540
 11
466.241423
 21
1223.113286
  0
LINE
  8
CSLAYER1
  6
CONTINUOUS
 62
     4
 10
466.241423
 20
1223.113286
 11
464.147785
 21
1222.238320
  0
LINE
  8
CSLAYER1
  6
CONTINUOUS
 62
     4
 10
464.147785
 20
1222.238320
 11
462.202130
 21
1221.267303
  0
LINE
  8
CSLAYER1
  6
CONTINUOUS
 62
     4
 10
462.202130
 20
1221.267303
 11
460.419265
 21
1220.207623
  0
LINE
  8
CSLAYER1
  6
CONTINUOUS
 62
     4
 10
460.419265
 20
1220.207623
 11
458.812760
 21
1219.067346
  0
LINE
  8
CSLAYER1
  6
CONTINUOUS
 62
     4
 10
458.812760
 20
1219.067346
 11
457.394841
 21
1217.855150
  0
LINE
  8
CSLAYER1
  6
CONTINUOUS
 62
     4
 10
457.394841
 20
1217.855150
 11
456.176299
 21
1216.580260
  0
LINE
  8
CSLAYER1
  6
CONTINUOUS
 62
     4
 10
456.176299
 20
1216.580260
 11
455.166408
 21
1215.252380
  0
LINE
  8
CSLAYER1
  6
CONTINUOUS
 62
     4
 10
455.166408
 20
1215.252380
 11
454.372854
 21
1213.881614
  0
LINE
  8
CSLAYER1
  6
CONTINUOUS
 62
     4
 10
454.372854
 20
1213.881614
 11
453.801675
 21
1212.478396
  0
LINE
  8
CSLAYER1
  6
CONTINUOUS
 62
     4
 10
453.801675
 20
1212.478396
 11
453.457220
 21
1211.053404
  0
LINE
  8
CSLAYER1
  6
CONTINUOUS
 62
     4
 10
453.457220
 20
1211.053404
 11
453.342110
 21
1209.617485
  0
LINE
  8
CSLAYER1
  6
CONTINUOUS
 62
     4
 10
528.142110
 20
1085.352024
 11
527.972584
 21
1087.466743
  0
LINE
  8
CSLAYER1
  6
CONTINUOUS
 62
     4
 10
527.972584
 20
1087.466743
 11
527.465295
 21
1089.565366
  0
LINE
  8
CSLAYER1
  6
CONTINUOUS
 62
     4
 10
527.465295
 20
1089.565366
 11
526.624105
 21
1091.631924
  0
LINE
  8
CSLAYER1
  6
CONTINUOUS
 62
     4
 10
526.624105
 20
1091.631924
 11
525.455416
 21
1093.650688
  0
LINE
  8
CSLAYER1
  6
CONTINUOUS
 62
     4
 10
525.455416
 20
1093.650688
 11
523.968122
 21
1095.606294
  0
LINE
  8
CSLAYER1
  6
CONTINUOUS
 62
     4
 10
523.968122
 20
1095.606294
 11
522.173542
 21
1097.483859
  0
LINE
  8
CSLAYER1
  6
CONTINUOUS
 62
     4
 10
522.173542
 20
1097.483859
 11
520.085333
 21
1099.269093
  0
LINE
  8
CSLAYER1
  6
CONTINUOUS
 62
     4
 10
520.085333
 20
1099.269093
 11
517.719390
 21
1100.948410
  0
LINE
  8
CSLAYER1
  6
CONTINUOUS
 62
     4
 10
517.719390
 20
1100.948410
 11
515.093717
 21
1102.509029
  0
LINE
  8
CSLAYER1
  6
CONTINUOUS
 62
     4
 10
515.093717
 20
1102.509029
 11
512.228298
 21
1103.939073
  0
LINE
  8
CSLAYER1
  6
CONTINUOUS
 62
     4
 10
512.228298
 20
1103.939073
 11
509.144940
 21
1105.227659
  0
LINE
  8
CSLAYER1
  6
CONTINUOUS
 62
     4
 10
509.144940
 20
1105.227659
 11
505.867110
 21
1106.364978
  0
LINE
  8
CSLAYER1
  6
CONTINUOUS
 62
     4
 10
505.867110
 20
1106.364978
 11
502.419753
 21
1107.342377
  0
LINE
  8
CSLAYER1
  6
CONTINUOUS
 62
     4
 10
502.419753
 20
1107.342377
 11
498.829107
 21
1108.152415
  0
LINE
  8
CSLAYER1
  6
CONTINUOUS
 62
     4
 10
498.829107
 20
1108.152415
 11
495.122498
 21
1108.788929
  0
LINE
  8
CSLAYER1
  6
CONTINUOUS
 62
     4
 10
495.122498
 20
1108.788929
 11
491.328136
 21
1109.247074
  0
LINE
  8
CSLAYER1
  6
CONTINUOUS
 62
     4
 10
491.328136
 20
1109.247074
 11
487.474898
 21
1109.523363
  0
LINE
  8
CSLAYER1
  6
CONTINUOUS
 62
     4
 10
487.474898
 20
1109.523363
 11
483.592110
 21
1109.615693
  0
LINE
  8
CSLAYER1
  6
CONTINUOUS
 62
     4
 10
483.592110
 20
1109.615693
 11
479.709321
 21
1109.523363
  0
LINE
  8
CSLAYER1
  6
CONTINUOUS
 62
     4
 10
479.709321
 20
1109.523363
 11
475.856084
 21
1109.247074
  0
LINE
  8
CSLAYER1
  6
CONTINUOUS
 62
     4
 10
475.856084
 20
1109.247074
 11
472.061721
 21
1108.788929
  0
LINE
  8
CSLAYER1
  6
CONTINUOUS
 62
     4
 10
472.061721
 20
1108.788929
 11
468.355112
 21
1108.152415
  0
LINE
  8
CSLAYER1
  6
CONTINUOUS
 62
     4
 10
468.355112
 20
1108.152415
 11
464.764466
 21
1107.342377
  0
LINE
  8
CSLAYER1
  6
CONTINUOUS
 62
     4
 10
464.764466
 20
1107.342377
 11
461.317110
 21
1106.364978
  0
LINE
  8
CSLAYER1
  6
CONTINUOUS
 62
     4
 10
461.317110
 20
1106.364978
 11
458.039280
 21
1105.227659
  0
LINE
  8
CSLAYER1
  6
CONTINUOUS
 62
     4
 10
458.039280
 20
1105.227659
 11
454.955922
 21
1103.939073
  0
LINE
  8
CSLAYER1
  6
CONTINUOUS
 62
     4
 10
454.955922
 20
1103.939073
 11
452.090503
 21
1102.509029
  0
LINE
  8
CSLAYER1
  6
CONTINUOUS
 62
     4
 10
452.090503
 20
1102.509029
 11
449.464830
 21
1100.948410
  0
LINE
  8
CSLAYER1
  6
CONTINUOUS
 62
     4
 10
449.464830
 20
1100.948410
 11
447.098886
 21
1099.269093
  0
LINE
  8
CSLAYER1
  6
CONTINUOUS
 62
     4
 10
447.098886
 20
1099.269093
 11
445.010678
 21
1097.483859
  0
LINE
  8
CSLAYER1
  6
CONTINUOUS
 62
     4
 10
445.010678
 20
1097.483859
 11
443.216098
 21
1095.606294
  0
LINE
  8
CSLAYER1
  6
CONTINUOUS
 62
     4
 10
443.216098
 20
1095.606294
 11
441.728804
 21
1093.650688
  0
LINE
  8
CSLAYER1
  6
CONTINUOUS
 62
     4
 10
441.728804
 20
1093.650688
 11
440.560114
 21
1091.631924
  0
LINE
  8
CSLAYER1
  6
CONTINUOUS
 62
     4
 10
440.560114
 20
1091.631924
 11
439.718924
 21
1089.565366
  0
LINE
  8
CSLAYER1
  6
CONTINUOUS
 62
     4
 10
439.718924
 20
1089.565366
 11
439.211636
 21
1087.466743
  0
LINE
  8
CSLAYER1
  6
CONTINUOUS
 62
     4
 10
439.211636
 20
1087.466743
 11
439.042110
 21
1085.352024
  0
LINE
  8
CSLAYER1
  6
CONTINUOUS
 62
     4
 10
317.592110
 20
745.325631
 11
360.592110
 21
745.325631
  0
LINE
  8
CSLAYER1
  6
CONTINUOUS
 62
     4
 10
649.592110
 20
730.132017
 11
606.592110
 21
730.132017
  0
LINE
  8
CSLAYER1
  6
CONTINUOUS
 62
     4
 10
649.592110
 20
650.718759
 11
606.592110
 21
650.718759
  0
LINE
  8
CSLAYER1
  6
CONTINUOUS
 62
     4
 10
376.592110
 20
745.325631
 11
405.984609
 21
745.325631
  0
LINE
  8
CSLAYER1
  6
CONTINUOUS
 62
     4
 10
360.592110
 20
730.132017
 11
317.592110
 21
730.132017
  0
LINE
  8
CSLAYER1
  6
CONTINUOUS
 62
     4
 10
360.592110
 20
650.718759
 11
317.592110
 21
650.718759
  0
LINE
  8
CSLAYER1
  6
CONTINUOUS
 62
     4
 10
606.592110
 20
745.325631
 11
649.592110
 21
745.325631
  0
LINE
  8
CSLAYER1
  6
CONTINUOUS
 62
     4
 10
590.592110
 20
730.132017
 11
537.592110
 21
730.132017
  0
LINE
  8
CSLAYER1
  6
CONTINUOUS
 62
     4
 10
590.592110
 20
650.718759
 11
568.592110
 21
650.718759
  0
LINE
  8
CSLAYER1
  6
CONTINUOUS
 62
     4
 10
423.592110
 20
650.718759
 11
376.592110
 21
650.718759
  0
LINE
  8
CSLAYER1
  6
CONTINUOUS
 62
     4
 10
429.592110
 20
730.132017
 11
376.592110
 21
730.132017
  0
LINE
  8
CSLAYER1
  6
CONTINUOUS
 62
     4
 10
561.199610
 20
745.325631
 11
590.592110
 21
745.325631
  0
LINE
  8
CSLAYER1
  6
CONTINUOUS
 62
     4
 10
665.592110
 20
837.319001
 11
665.592110
 21
443.083386
  0
LINE
  8
CSLAYER1
  6
CONTINUOUS
 62
     4
 10
317.592110
 20
864.819001
 11
318.618651
 21
864.819001
  0
LINE
  8
CSLAYER1
  6
CONTINUOUS
 62
     4
 10
317.592110
 20
834.819001
 11
318.618651
 21
834.819001
  0
LINE
  8
CSLAYER1
  6
CONTINUOUS
 62
     4
 10
665.592110
 20
1275.554615
 11
665.592110
 21
862.319001
  0
LINE
  8
CSLAYER1
  6
CONTINUOUS
 62
     4
 10
649.592110
 20
1275.554615
 11
649.592110
 21
443.083386
  0
LINE
  8
CSLAYER1
  6
CONTINUOUS
 62
     4
 10
355.592110
 20
1304.554615
 11
360.592110
 21
1304.554615
  0
LINE
  8
CSLAYER1
  6
CONTINUOUS
 62
     4
 10
355.592110
 20
1284.554615
 11
360.592110
 21
1284.554615
  0
ARC
  8
CSLAYER1
  6
CONTINUOUS
 62
     4
 10
236.592110
 20
1415.754615
 40
3.000000
 50
90.000000
 51
180.000000
  0
ARC
  8
CSLAYER1
  6
CONTINUOUS
 62
     4
 10
730.592110
 20
1415.754615
 40
3.000000
 50
0.000000
 51
90.000000
  0
LINE
  8
CSLAYER1
  6
CONTINUOUS
 62
     5
 10
558.592110
 20
1324.413919
 11
558.592110
 21
849.819001
  0
LINE
  8
CSLAYER1
  6
CONTINUOUS
 62
     5
 10
408.592110
 20
1300.325412
 11
408.592110
 21
868.738490
  0
LINE
  8
CSLAYER1
  6
CONTINUOUS
 62
     4
 10
358.592110
 20
805.912573
 11
360.592110
 21
805.912573
  0
LINE
  8
CSLAYER1
  6
CONTINUOUS
 62
     4
 10
350.592110
 20
775.912573
 11
358.592110
 21
775.912573
  0
LINE
  8
CSLAYER1
  6
CONTINUOUS
 62
     4
 10
348.592110
 20
777.912573
 11
350.592110
 21
775.912573
  0
LINE
  8
CSLAYER1
  6
CONTINUOUS
 62
     4
 10
358.592110
 20
777.912573
 11
360.592110
 21
777.912573
  0
LINE
  8
CSLAYER1
  6
CONTINUOUS
 62
     4
 10
608.592110
 20
807.912573
 11
608.592110
 21
775.912573
  0
LINE
  8
CSLAYER1
  6
CONTINUOUS
 62
     4
 10
618.592110
 20
805.912573
 11
618.592110
 21
777.912573
  0
LINE
  8
CSLAYER1
  6
CONTINUOUS
 62
     4
 10
616.592110
 20
807.912573
 11
608.592110
 21
807.912573
  0
LINE
  8
CSLAYER1
  6
CONTINUOUS
 62
     4
 10
618.592110
 20
805.912573
 11
616.592110
 21
807.912573
  0
LINE
  8
CSLAYER1
  6
CONTINUOUS
 62
     4
 10
616.592110
 20
807.912573
 11
616.592110
 21
775.912573
  0
LINE
  8
CSLAYER1
  6
CONTINUOUS
 62
     4
 10
616.592110
 20
775.912573
 11
608.592110
 21
775.912573
  0
LINE
  8
CSLAYER1
  6
CONTINUOUS
 62
     4
 10
618.592110
 20
777.912573
 11
616.592110
 21
775.912573
  0
LINE
  8
CSLAYER1
  6
CONTINUOUS
 62
     4
 10
608.592110
 20
805.912573
 11
606.592110
 21
805.912573
  0
LINE
  8
CSLAYER1
  6
CONTINUOUS
 62
     4
 10
608.592110
 20
777.912573
 11
606.592110
 21
777.912573
  0
LINE
  8
CSLAYER1
  6
CONTINUOUS
 62
     4
 10
590.592110
 20
805.912573
 11
589.592110
 21
805.912573
  0
LINE
  8
CSLAYER1
  6
CONTINUOUS
 62
     4
 10
590.592110
 20
777.912573
 11
589.592110
 21
777.912573
  0
LINE
  8
CSLAYER1
  6
CONTINUOUS
 62
     4
 10
376.592110
 20
825.101843
 11
381.309267
 21
829.819001
  0
LINE
  8
CSLAYER1
  6
CONTINUOUS
 62
     4
 10
376.592110
 20
825.384686
 11
381.026424
 21
829.819001
  0
LINE
  8
CSLAYER1
  6
CONTINUOUS
 62
     4
 10
376.592110
 20
825.667529
 11
380.743582
 21
829.819001
  0
LINE
  8
CSLAYER1
  6
CONTINUOUS
 62
     4
 10
376.592110
 20
825.950372
 11
380.460739
 21
829.819001
  0
LINE
  8
CSLAYER1
  6
CONTINUOUS
 62
     4
 10
376.592110
 20
826.233214
 11
380.177896
 21
829.819001
  0
LINE
  8
CSLAYER1
  6
CONTINUOUS
 62
     4
 10
376.592110
 20
826.516057
 11
379.895054
 21
829.819001
  0
LINE
  8
CSLAYER1
  6
CONTINUOUS
 62
     4
 10
376.592110
 20
826.798900
 11
379.612211
 21
829.819001
  0
LINE
  8
CSLAYER1
  6
CONTINUOUS
 62
     4
 10
376.592110
 20
827.081742
 11
379.329368
 21
829.819001
  0
LINE
  8
CSLAYER1
  6
CONTINUOUS
 62
     4
 10
376.592110
 20
827.364585
 11
379.046525
 21
829.819001
  0
LINE
  8
CSLAYER1
  6
CONTINUOUS
 62
     4
 10
376.592110
 20
827.647428
 11
378.763683
 21
829.819001
  0
LINE
  8
CSLAYER1
  6
CONTINUOUS
 62
     4
 10
376.592110
 20
827.930271
 11
378.480840
 21
829.819001
  0
LINE
  8
CSLAYER1
  6
CONTINUOUS
 62
     4
 10
376.592110
 20
828.213113
 11
378.197997
 21
829.819001
  0
LINE
  8
CSLAYER1
  6
CONTINUOUS
 62
     4
 10
376.592110
 20
828.495956
 11
377.915155
 21
829.819001
  0
LINE
  8
CSLAYER1
  6
CONTINUOUS
 62
     4
 10
376.592110
 20
828.778799
 11
377.632312
 21
829.819001
  0
LINE
  8
CSLAYER1
  6
CONTINUOUS
 62
     4
 10
376.592110
 20
829.061641
 11
377.349469
 21
829.819001
  0
LINE
  8
CSLAYER1
  6
CONTINUOUS
 62
     4
 10
376.592110
 20
829.344484
 11
377.066626
 21
829.819001
  0
LINE
  8
CSLAYER1
  6
CONTINUOUS
 62
     4
 10
376.592110
 20
829.627327
 11
376.783784
 21
829.819001
  0
LINE
  8
CSLAYER1
  6
CONTINUOUS
 62
     4
 10
377.632312
 20
829.819001
 11
376.592110
 21
829.819001
  0
LINE
  8
CSLAYER1
  6
CONTINUOUS
 62
     4
 10
378.783784
 20
829.819001
 11
391.581958
 21
829.819001
  0
LINE
  8
CSLAYER1
  6
CONTINUOUS
 62
     4
 10
377.592110
 20
1269.767485
 11
377.592110
 21
1209.967485
  0
ARC
  8
CSLAYER1
  6
CONTINUOUS
 62
     4
 10
376.492110
 20
1269.767485
 40
1.100000
 50
0.000000
 51
90.000000
  0
ARC
  8
CSLAYER1
  6
CONTINUOUS
 62
     4
 10
376.492110
 20
1209.967485
 40
1.100000
 50
270.000000
 51
360.000000
  0
LINE
  8
CSLAYER1
  6
CONTINUOUS
 62
     3
 10
983.592110
 20
1680.724699
 11
2183.593814
 21
1680.724699
  0
LINE
  8
CSLAYER1
  6
CONTINUOUS
 62
     3
 10
2183.593814
 20
1680.724699
 11
2183.593814
 21
2180.724699
  0
LINE
  8
CSLAYER1
  6
CONTINUOUS
 62
     3
 10
983.592110
 20
1680.724699
 11
983.592110
 21
2180.724699
  0
LINE
  8
CSLAYER1
  6
CONTINUOUS
 62
     3
 10
983.592110
 20
2180.724699
 11
2183.593814
 21
2180.724699
  0
LINE
  8
CSLAYER1
  6
CONTINUOUS
 62
     4
 10
1316.456304
 20
874.942865
 11
1377.225773
 21
795.525791
  0
LINE
  8
CSLAYER1
  6
CONTINUOUS
 62
     5
 10
1025.592110
 20
425.083386
 11
1025.592110
 21
385.083386
  0
LINE
  8
CSLAYER1
  6
CONTINUOUS
 62
     7
 10
983.592110
 20
443.083386
 11
983.592110
 21
378.083386
  0
LINE
  8
CSLAYER1
  6
CONTINUOUS
 62
     7
 10
2183.592110
 20
443.083386
 11
2183.592110
 21
378.083386
  0
LINE
  8
CSLAYER1
  6
CONTINUOUS
 62
     5
 10
1005.592110
 20
405.083386
 11
1045.592110
 21
405.083386
  0
LINE
  8
CSLAYER1
  6
CONTINUOUS
 62
     7
 10
983.592110
 20
443.083386
 11
2183.592110
 21
443.083386
  0
LINE
  8
CSLAYER1
  6
CONTINUOUS
 62
     7
 10
986.592110
 20
1418.754615
 11
2180.592110
 21
1418.754615
  0
LINE
  8
CSLAYER1
  6
CONTINUOUS
 62
     7
 10
983.592110
 20
1415.754615
 11
983.592110
 21
1365.754615
  0
LINE
  8
CSLAYER1
  6
CONTINUOUS
 62
     7
 10
2183.592110
 20
1415.754615
 11
2183.592110
 21
1365.754615
  0
LINE
  8
CSLAYER1
  6
CONTINUOUS
 62
     7
 10
2180.392110
 20
1365.754615
 11
2180.392110
 21
1343.554615
  0
ARC
  8
CSLAYER1
  6
CONTINUOUS
 62
     7
 10
2180.592110
 20
1415.754615
 40
3.000000
 50
0.000000
 51
90.000000
  0
ARC
  8
CSLAYER1
  6
CONTINUOUS
 62
     7
 10
986.592110
 20
1415.754615
 40
3.000000
 50
90.000000
 51
180.000000
  0
LINE
  8
CSLAYER1
  6
CONTINUOUS
 62
     7
 10
983.592110
 20
1365.754615
 11
2183.592110
 21
1365.754615
  0
CIRCLE
  8
CSLAYER1
  6
CONTINUOUS
 62
     4
 10
1706.210162
 20
1294.554615
 40
21.000000
  0
CIRCLE
  8
CSLAYER1
  6
CONTINUOUS
 62
     2
 10
1706.210162
 20
1294.554615
 40
7.500000
  0
POINT
  8
CSLAYER1
 62
     5
 10
1252.336856
 20
791.912573
  0
POINT
  8
CSLAYER1
 62
     6
 10
1252.336856
 20
791.912573
  0
POINT
  8
CSLAYER1
 62
     5
 10
1365.901136
 20
849.819001
  0
POINT
  8
CSLAYER1
 62
     1
 10
1365.901136
 20
849.819001
  0
POINT
  8
CSLAYER1
 62
     5
 10
1025.592110
 20
1294.554615
  0
POINT
  8
CSLAYER1
 62
     5
 10
1706.210162
 20
1294.554615
  0
LINE
  8
CSLAYER1
  6
CONTINUOUS
 62
     5
 10
1706.210162
 20
1320.699458
 11
1706.210162
 21
1266.168744
  0
LINE
  8
CSLAYER1
  6
CONTINUOUS
 62
     5
 10
1676.828601
 20
1294.554615
 11
1732.324461
 21
1294.554615
  0
LINE
  8
CSLAYER1
  6
CONTINUOUS
 62
     7
 10
2165.392110
 20
1315.554615
 11
1618.392110
 21
1315.554615
  0
LINE
  8
CSLAYER1
  6
CONTINUOUS
 62
     4
 10
1500.546559
 20
774.235889
 11
1447.594511
 21
888.664078
  0
ARC
  8
CSLAYER1
  6
CONTINUOUS
 62
     4
 10
1384.431977
 20
859.435393
 40
69.597570
 50
24.832507
 51
69.373343
  0
LINE
  8
CSLAYER1
  6
CONTINUOUS
 62
     3
 10
995.592110
 20
1365.754615
 11
995.592110
 21
1275.554615
  0
LINE
  8
CSLAYER1
  6
CONTINUOUS
 62
     3
 10
1045.592110
 20
1365.754615
 11
1045.592110
 21
1290.554615
  0
ARC
  8
CSLAYER1
  6
CONTINUOUS
 62
     3
 10
1030.592110
 20
1290.554615
 40
15.000000
 50
270.000000
 51
360.000000
  0
LINE
  8
CSLAYER1
  6
CONTINUOUS
 62
     3
 10
995.592110
 20
1275.554615
 11
1030.592110
 21
1275.554615
  0
LINE
  8
CSLAYER1
  6
CONTINUOUS
 62
     7
 10
2177.392110
 20
1340.554615
 11
1098.366934
 21
1340.554615
  0
LINE
  8
CSLAYER1
  6
CONTINUOUS
 62
     4
 10
1017.465645
 20
1275.554615
 11
1309.067434
 21
894.472448
  0
LINE
  8
CSLAYER1
  6
CONTINUOUS
 62
     4
 10
1377.225773
 20
795.525791
 11
1394.144691
 21
783.288544
  0
LINE
  8
CSLAYER1
  6
CONTINUOUS
 62
     4
 10
1394.144691
 20
783.288544
 11
1654.467638
 21
443.083386
  0
LINE
  8
CSLAYER1
  6
CONTINUOUS
 62
     4
 10
1273.777330
 20
920.311585
 11
1281.535658
 21
930.452573
  0
LINE
  8
CSLAYER1
  6
CONTINUOUS
 62
     2
 10
1722.159089
 20
1313.830083
 11
1719.904936
 21
1315.554615
  0
ARC
  8
CSLAYER1
  6
CONTINUOUS
 62
     2
 10
1711.829535
 20
1300.328220
 40
17.000000
 50
-25.687221
 51
52.582328
  0
LINE
  8
CSLAYER1
  6
CONTINUOUS
 62
     4
 10
1674.999072
 20
1255.478281
 11
1705.886772
 21
1273.557105
  0
LINE
  8
CSLAYER1
  6
CONTINUOUS
 62
     4
 10
1535.240742
 20
1072.810252
 11
1674.983169
 21
1255.468973
  0
LINE
  8
CSLAYER1
  6
CONTINUOUS
 62
     4
 10
1411.783641
 20
936.124691
 11
1403.259710
 21
901.375998
  0
LINE
  8
CSLAYER1
  6
CONTINUOUS
 62
     4
 10
1354.581548
 20
795.524738
 11
1337.663768
 21
783.285918
  0
LINE
  8
CSLAYER1
  6
CONTINUOUS
 62
     4
 10
1354.581548
 20
795.524738
 11
1365.902972
 21
810.323085
  0
LINE
  8
CSLAYER1
  6
CONTINUOUS
 62
     4
 10
1411.783641
 20
936.124691
 11
1499.443892
 21
1050.706280
  0
LINE
  8
CSLAYER1
  6
CONTINUOUS
 62
     7
 10
2168.392110
 20
1365.754615
 11
2168.392110
 21
1318.554615
  0
LINE
  8
CSLAYER1
  6
CONTINUOUS
 62
     7
 10
1073.166934
 20
1365.754615
 11
1098.366934
 21
1340.554615
  0
LINE
  8
CSLAYER1
  6
CONTINUOUS
 62
     4
 10
1014.919466
 20
478.428509
 11
1011.363197
 21
443.083386
  0
LINE
  8
CSLAYER1
  6
CONTINUOUS
 62
     7
 10
2180.392110
 20
1343.554615
 11
2177.392110
 21
1340.554615
  0
LINE
  8
CSLAYER1
  6
CONTINUOUS
 62
     7
 10
2168.392110
 20
1318.554615
 11
2165.392110
 21
1315.554615
  0
LINE
  8
CSLAYER1
  6
CONTINUOUS
 62
     4
 10
1273.777330
 20
920.311585
 11
1014.919466
 21
478.428509
  0
LINE
  8
CSLAYER1
  6
CONTINUOUS
 62
     4
 10
1077.392988
 20
443.083386
 11
1337.663768
 21
783.285918
  0
LINE
  8
CSLAYER1
  6
CONTINUOUS
 62
     4
 10
416.592110
 20
1302.645351
 11
400.592110
 21
1302.645351
  0
LINE
  8
CSLAYER1
  6
CONTINUOUS
 62
     4
 10
418.592110
 20
1300.645351
 11
416.592110
 21
1302.645351
  0
LINE
  8
CSLAYER1
  6
CONTINUOUS
 62
     4
 10
418.592110
 20
1300.645351
 11
398.592110
 21
1300.645351
  0
LINE
  8
CSLAYER1
  6
CONTINUOUS
 62
     4
 10
398.592110
 20
1300.645351
 11
400.592110
 21
1302.645351
  0
CIRCLE
  8
CSLAYER1
  6
CONTINUOUS
 62
     4
 10
408.592110
 20
1292.645351
 40
2.500000
  0
LINE
  8
CSLAYER1
  6
CONTINUOUS
 62
     7
 10
1618.392110
 20
1340.554615
 11
1618.392110
 21
1315.554615
  0
LINE
  8
CSLAYER1
  6
CONTINUOUS
 62
     4
 10
1316.456304
 20
874.942865
 11
1309.067434
 21
894.472448
  0
CIRCLE
  8
CSLAYER1
  6
CONTINUOUS
 62
     2
 10
1365.901136
 20
849.819001
 40
9.000000
  0
CIRCLE
  8
CSLAYER1
  6
CONTINUOUS
 62
     2
 10
1365.901136
 20
849.819001
 40
10.000000
  0
CIRCLE
  8
CSLAYER1
  6
CONTINUOUS
 62
     2
 10
1365.901136
 20
849.819001
 40
15.000000
  0
LINE
  8
CSLAYER1
  6
CONTINUOUS
 62
     4
 10
1357.240882
 20
864.819001
 11
1348.580628
 21
849.819001
  0
LINE
  8
CSLAYER1
  6
CONTINUOUS
 62
     4
 10
1348.580628
 20
849.819001
 11
1357.240882
 21
834.819001
  0
LINE
  8
CSLAYER1
  6
CONTINUOUS
 62
     4
 10
1357.240882
 20
834.819001
 11
1374.561390
 21
834.819001
  0
LINE
  8
CSLAYER1
  6
CONTINUOUS
 62
     4
 10
1374.561390
 20
834.819001
 11
1383.221644
 21
849.819001
  0
LINE
  8
CSLAYER1
  6
CONTINUOUS
 62
     4
 10
1383.221644
 20
849.819001
 11
1374.561390
 21
864.819001
  0
LINE
  8
CSLAYER1
  6
CONTINUOUS
 62
     4
 10
1374.561390
 20
864.819001
 11
1357.240882
 21
864.819001
  0
LINE
  8
CSLAYER1
  6
CONTINUOUS
 62
     4
 10
1331.268281
 20
995.458581
 11
1595.282818
 21
1340.554615
  0
LINE
  8
CSLAYER1
  6
CONTINUOUS
 62
     5
 10
1686.210162
 20
405.083386
 11
1726.210162
 21
405.083386
  0
LINE
  8
CSLAYER1
  6
CONTINUOUS
 62
     5
 10
1706.210162
 20
425.083386
 11
1706.210162
 21
385.083386
  0
LINE
  8
CSLAYER1
  6
PHANTOM
 62
     5
 10
2183.592110
 20
533.083386
 11
2183.592110
 21
480.083386
  0
LINE
  8
CSLAYER1
  6
PHANTOM
 62
     5
 10
2183.592110
 20
533.083386
 11
983.592110
 21
533.083386
  0
LINE
  8
CSLAYER1
  6
PHANTOM
 62
     5
 10
2183.592110
 20
480.083386
 11
983.592110
 21
480.083386
  0
LINE
  8
CSLAYER1
  6
CENTER
 62
     5
 10
281.566042
 20
1294.554615
 11
332.413231
 21
1294.554615
  0
LINE
  8
CSLAYER1
  6
CONTINUOUS
 62
     3
 10
281.892110
 20
1294.554615
 11
281.892110
 21
1304.054615
  0
LINE
  8
CSLAYER1
  6
CONTINUOUS
 62
     4
 10
285.092110
 20
1365.754615
 11
285.092110
 21
1275.554615
  0
LINE
  8
CSLAYER1
  6
CONTINUOUS
 62
     5
 10
286.861473
 20
1294.554615
 11
330.150524
 21
1294.554615
  0
LINE
  8
CSLAYER1
  6
CONTINUOUS
 62
     4
 10
326.092110
 20
1275.554615
 11
285.092110
 21
1275.554615
  0
LINE
  8
CSLAYER1
  6
CONTINUOUS
 62
     4
 10
281.892110
 20
1317.554615
 11
281.892110
 21
1286.554615
  0
LINE
  8
CSLAYER1
  6
CONTINUOUS
 62
     5
 10
277.401236
 20
1309.554615
 11
291.092110
 21
1309.554615
  0
LINE
  8
CSLAYER1
  6
CONTINUOUS
 62
     4
 10
281.892110
 20
1317.554615
 11
285.092110
 21
1317.554615
  0
LINE
  8
CSLAYER1
  6
CONTINUOUS
 62
     4
 10
327.092110
 20
1287.554615
 11
327.092110
 21
1301.554615
  0
LINE
  8
CSLAYER1
  6
CONTINUOUS
 62
     4
 10
327.092110
 20
1287.554615
 11
326.092110
 21
1286.554615
  0
LINE
  8
CSLAYER1
  6
CONTINUOUS
 62
     4
 10
281.892110
 20
1286.554615
 11
285.092110
 21
1286.554615
  0
LINE
  8
CSLAYER1
  6
CONTINUOUS
 62
     4
 10
327.092110
 20
1301.554615
 11
326.092110
 21
1302.554615
  0
LINE
  8
CSLAYER1
  6
CONTINUOUS
 62
     4
 10
281.892110
 20
1290.554615
 11
285.092110
 21
1290.554615
  0
LINE
  8
CSLAYER1
  6
CONTINUOUS
 62
     4
 10
281.892110
 20
1298.554615
 11
285.092110
 21
1298.554615
  0
LINE
  8
CSLAYER1
  6
CONTINUOUS
 62
     4
 10
615.592110
 20
1340.554615
 11
640.592110
 21
1340.554615
  0
LINE
  8
CSLAYER1
  6
CONTINUOUS
 62
     4
 10
640.592110
 20
1315.554615
 11
613.092110
 21
1315.554615
  0
LINE
  8
CSLAYER1
  6
CONTINUOUS
 62
     4
 10
640.592110
 20
1365.754615
 11
640.592110
 21
1315.554615
  0
LINE
  8
CSLAYER1
  6
CONTINUOUS
 62
     4
 10
615.592110
 20
1315.554615
 11
615.592110
 21
1365.754615
  0
LINE
  8
CSLAYER1
  6
CONTINUOUS
 62
     4
 10
631.092110
 20
1365.754615
 11
631.092110
 21
1340.554615
  0
LINE
  8
CSLAYER1
  6
CONTINUOUS
 62
     4
 10
625.092110
 20
1365.754615
 11
625.092110
 21
1340.554615
  0
LINE
  8
CSLAYER1
  6
CONTINUOUS
 62
     4
 10
612.092110
 20
1314.554615
 11
612.092110
 21
1274.554615
  0
LINE
  8
CSLAYER1
  6
CONTINUOUS
 62
     4
 10
638.592110
 20
1306.106258
 11
638.592110
 21
1283.002973
  0
LINE
  8
CSLAYER1
  6
CONTINUOUS
 62
     4
 10
639.742110
 20
1306.106258
 11
639.742110
 21
1283.002973
  0
LINE
  8
CSLAYER1
  6
CONTINUOUS
 62
     4
 10
640.592110
 20
1302.054615
 11
639.799947
 21
1302.054615
  0
LINE
  8
CSLAYER1
  6
CONTINUOUS
 62
     4
 10
639.742110
 20
1306.106258
 11
638.592110
 21
1306.106258
  0
LINE
  8
CSLAYER1
  6
CONTINUOUS
 62
     4
 10
638.592110
 20
1302.054615
 11
638.092110
 21
1302.054615
  0
LINE
  8
CSLAYER1
  6
CONTINUOUS
 62
     4
 10
638.092110
 20
1314.554615
 11
638.092110
 21
1274.554615
  0
ARC
  8
CSLAYER1
  6
CONTINUOUS
 62
     4
 10
613.092110
 20
1314.554615
 40
1.000000
 50
90.000000
 51
180.000000
  0
ARC
  8
CSLAYER1
  6
CONTINUOUS
 62
     4
 10
637.092110
 20
1314.554615
 40
1.000000
 50
0.000000
 51
90.000000
  0
ARC
  8
CSLAYER1
  6
CONTINUOUS
 62
     4
 10
626.092110
 20
1314.554615
 40
1.000000
 50
90.000000
 51
180.000000
  0
ARC
  8
CSLAYER1
  6
CONTINUOUS
 62
     4
 10
624.092110
 20
1314.554615
 40
1.000000
 50
0.000000
 51
90.000000
  0
LINE
  8
CSLAYER1
  6
CONTINUOUS
 62
     4
 10
641.092110
 20
1365.754615
 11
641.092110
 21
1275.554615
  0
LINE
  8
CSLAYER1
  6
CONTINUOUS
 62
     4
 10
637.092110
 20
1273.554615
 11
626.092110
 21
1273.554615
  0
LINE
  8
CSLAYER1
  6
CONTINUOUS
 62
     4
 10
640.592110
 20
1287.054615
 11
639.799947
 21
1287.054615
  0
LINE
  8
CSLAYER1
  6
CONTINUOUS
 62
     4
 10
639.742110
 20
1283.002973
 11
638.592110
 21
1283.002973
  0
LINE
  8
CSLAYER1
  6
CONTINUOUS
 62
     4
 10
638.592110
 20
1287.054615
 11
638.092110
 21
1287.054615
  0
ARC
  8
CSLAYER1
  6
CONTINUOUS
 62
     4
 10
613.092110
 20
1274.554615
 40
1.000000
 50
180.000000
 51
270.000000
  0
ARC
  8
CSLAYER1
  6
CONTINUOUS
 62
     4
 10
637.092110
 20
1274.554615
 40
1.000000
 50
270.000000
 51
360.000000
  0
ARC
  8
CSLAYER1
  6
CONTINUOUS
 62
     4
 10
626.092110
 20
1274.554615
 40
1.000000
 50
180.000000
 51
270.000000
  0
ARC
  8
CSLAYER1
  6
CONTINUOUS
 62
     4
 10
624.092110
 20
1274.554615
 40
1.000000
 50
270.000000
 51
360.000000
  0
LINE
  8
CSLAYER1
  6
CONTINUOUS
 62
     4
 10
613.092110
 20
1273.554615
 11
624.092110
 21
1273.554615
  0
LINE
  8
CSLAYER1
  6
CONTINUOUS
 62
     4
 10
611.592110
 20
1304.554615
 11
612.092110
 21
1304.054615
  0
LINE
  8
CSLAYER1
  6
CONTINUOUS
 62
     4
 10
611.592110
 20
1284.554615
 11
612.092110
 21
1285.054615
  0
LINE
  8
CSLAYER1
  6
CONTINUOUS
 62
     4
 10
625.092110
 20
1274.554615
 11
625.092110
 21
1314.554615
  0
LINE
  8
CSLAYER1
  6
CONTINUOUS
 62
     4
 10
611.592110
 20
1304.554615
 11
606.592110
 21
1304.554615
  0
LINE
  8
CSLAYER1
  6
CONTINUOUS
 62
     4
 10
611.592110
 20
1284.554615
 11
606.592110
 21
1284.554615
  0
LINE
  8
CSLAYER1
  6
CENTER
 62
     5
 10
685.618178
 20
1294.554615
 11
634.770989
 21
1294.554615
  0
LINE
  8
CSLAYER1
  6
CONTINUOUS
 62
     3
 10
685.292110
 20
1294.554615
 11
685.292110
 21
1304.054615
  0
LINE
  8
CSLAYER1
  6
CONTINUOUS
 62
     4
 10
682.092110
 20
1365.754615
 11
682.092110
 21
1275.554615
  0
LINE
  8
CSLAYER1
  6
CONTINUOUS
 62
     5
 10
680.322747
 20
1294.554615
 11
637.033695
 21
1294.554615
  0
LINE
  8
CSLAYER1
  6
CONTINUOUS
 62
     4
 10
641.092110
 20
1275.554615
 11
682.092110
 21
1275.554615
  0
LINE
  8
CSLAYER1
  6
CONTINUOUS
 62
     4
 10
685.292110
 20
1317.554615
 11
685.292110
 21
1286.554615
  0
LINE
  8
CSLAYER1
  6
CONTINUOUS
 62
     5
 10
689.782984
 20
1309.554615
 11
676.092110
 21
1309.554615
  0
LINE
  8
CSLAYER1
  6
CONTINUOUS
 62
     4
 10
685.292110
 20
1317.554615
 11
682.092110
 21
1317.554615
  0
LINE
  8
CSLAYER1
  6
CONTINUOUS
 62
     4
 10
640.092110
 20
1287.554615
 11
640.092110
 21
1301.554615
  0
LINE
  8
CSLAYER1
  6
CONTINUOUS
 62
     4
 10
640.092110
 20
1287.554615
 11
641.092110
 21
1286.554615
  0
LINE
  8
CSLAYER1
  6
CONTINUOUS
 62
     4
 10
685.292110
 20
1286.554615
 11
682.092110
 21
1286.554615
  0
LINE
  8
CSLAYER1
  6
CONTINUOUS
 62
     4
 10
640.092110
 20
1301.554615
 11
641.092110
 21
1302.554615
  0
LINE
  8
CSLAYER1
  6
CONTINUOUS
 62
     4
 10
685.292110
 20
1290.554615
 11
682.092110
 21
1290.554615
  0
LINE
  8
CSLAYER1
  6
CONTINUOUS
 62
     4
 10
685.292110
 20
1298.554615
 11
682.092110
 21
1298.554615
  0
LINE
  8
CSLAYER1
  6
CONTINUOUS
 62
     4
 10
513.842110
 20
1209.617485
 11
538.092110
 21
1209.617485
  0
LINE
  8
CSLAYER1
  6
CONTINUOUS
 62
     4
 10
584.592110
 20
1217.867485
 11
540.092110
 21
1217.867485
  0
LINE
  8
CSLAYER1
  6
CONTINUOUS
 62
     4
 10
584.592110
 20
1261.867485
 11
540.092110
 21
1261.867485
  0
LINE
  8
CSLAYER1
  6
CONTINUOUS
 62
     4
 10
540.092110
 20
1268.117485
 11
540.092110
 21
1211.617485
  0
LINE
  8
CSLAYER1
  6
CONTINUOUS
 62
     4
 10
540.092110
 20
1268.117485
 11
538.092110
 21
1270.117485
  0
LINE
  8
CSLAYER1
  6
CONTINUOUS
 62
     4
 10
540.092110
 20
1211.617485
 11
538.092110
 21
1209.617485
  0
LINE
  8
CSLAYER1
  6
CONTINUOUS
 62
     4
 10
584.592110
 20
1261.867485
 11
589.592110
 21
1256.867485
  0
LINE
  8
CSLAYER1
  6
CONTINUOUS
 62
     4
 10
584.592110
 20
1261.867485
 11
584.592110
 21
1217.867485
  0
LINE
  8
CSLAYER1
  6
CONTINUOUS
 62
     4
 10
584.592110
 20
1217.867485
 11
589.592110
 21
1222.867485
  0
LINE
  8
CSLAYER1
  6
CONTINUOUS
 62
     4
 10
573.592110
 20
1280.067485
 11
543.592110
 21
1280.067485
  0
LINE
  8
CSLAYER1
  6
CONTINUOUS
 62
     4
 10
575.912618
 20
1265.067485
 11
575.912618
 21
1278.727739
  0
LINE
  8
CSLAYER1
  6
CONTINUOUS
 62
     4
 10
567.252364
 20
1265.067485
 11
567.252364
 21
1278.727739
  0
LINE
  8
CSLAYER1
  6
CONTINUOUS
 62
     4
 10
573.592110
 20
1280.067485
 11
575.912618
 21
1278.727739
  0
ARC
  8
CSLAYER1
  6
CONTINUOUS
 62
     4
 10
571.582491
 20
1272.412867
 40
7.656867
 50
55.561448
 51
124.438552
  0
ARC
  8
CSLAYER1
  6
CONTINUOUS
 62
     4
 10
558.592110
 20
1251.407231
 40
28.660254
 50
72.412046
 51
107.587954
  0
LINE
  8
CSLAYER1
  6
CONTINUOUS
 62
     4
 10
540.092110
 20
1265.067485
 11
577.092110
 21
1265.067485
  0
LINE
  8
CSLAYER1
  6
CONTINUOUS
 62
     4
 10
571.592110
 20
1282.567485
 11
545.592110
 21
1282.567485
  0
LINE
  8
CSLAYER1
  6
CONTINUOUS
 62
     4
 10
573.592110
 20
1280.067485
 11
573.592110
 21
1280.567485
  0
ARC
  8
CSLAYER1
  6
CONTINUOUS
 62
     4
 10
571.592110
 20
1280.567485
 40
2.000000
 50
0.000000
 51
90.000000
  0
LINE
  8
CSLAYER1
  6
CONTINUOUS
 62
     4
 10
541.271602
 20
1265.067485
 11
541.271602
 21
1278.727739
  0
LINE
  8
CSLAYER1
  6
CONTINUOUS
 62
     4
 10
549.931856
 20
1265.067485
 11
549.931856
 21
1278.727739
  0
LINE
  8
CSLAYER1
  6
CONTINUOUS
 62
     4
 10
543.592110
 20
1280.067485
 11
541.271602
 21
1278.727739
  0
ARC
  8
CSLAYER1
  6
CONTINUOUS
 62
     4
 10
545.601729
 20
1272.412867
 40
7.656867
 50
55.561448
 51
124.438552
  0
LINE
  8
CSLAYER1
  6
CONTINUOUS
 62
     4
 10
543.592110
 20
1280.067485
 11
543.592110
 21
1280.567485
  0
ARC
  8
CSLAYER1
  6
CONTINUOUS
 62
     4
 10
545.592110
 20
1280.567485
 40
2.000000
 50
90.000000
 51
180.000000
  0
LINE
  8
CSLAYER1
  6
CONTINUOUS
 62
     4
 10
568.592110
 20
1282.567485
 11
568.592110
 21
1300.645351
  0
LINE
  8
CSLAYER1
  6
CONTINUOUS
 62
     4
 10
567.092110
 20
1282.567485
 11
567.092110
 21
1302.145351
  0
LINE
  8
CSLAYER1
  6
CONTINUOUS
 62
     4
 10
577.092110
 20
1261.867485
 11
577.092110
 21
1265.067485
  0
LINE
  8
CSLAYER1
  6
CONTINUOUS
 62
     4
 10
548.592110
 20
1282.567485
 11
548.592110
 21
1300.645351
  0
LINE
  8
CSLAYER1
  6
CONTINUOUS
 62
     4
 10
550.092110
 20
1282.567485
 11
550.092110
 21
1302.145351
  0
LINE
  8
CSLAYER1
  6
CONTINUOUS
 62
     5
 10
573.565620
 20
1292.645351
 11
541.964263
 21
1292.645351
  0
LINE
  8
CSLAYER1
  6
CONTINUOUS
 62
     4
 10
538.092110
 20
1270.117485
 11
538.092110
 21
1209.617485
  0
LINE
  8
CSLAYER1
  6
CONTINUOUS
 62
     4
 10
491.421386
 20
1225.531432
 11
493.938219
 21
1225.099231
  0
LINE
  8
CSLAYER1
  6
CONTINUOUS
 62
     4
 10
493.938219
 20
1225.099231
 11
496.376312
 21
1224.549205
  0
LINE
  8
CSLAYER1
  6
CONTINUOUS
 62
     4
 10
496.376312
 20
1224.549205
 11
498.717110
 21
1223.885540
  0
LINE
  8
CSLAYER1
  6
CONTINUOUS
 62
     4
 10
498.717110
 20
1223.885540
 11
500.942797
 21
1223.113286
  0
LINE
  8
CSLAYER1
  6
CONTINUOUS
 62
     4
 10
500.942797
 20
1223.113286
 11
503.036435
 21
1222.238320
  0
LINE
  8
CSLAYER1
  6
CONTINUOUS
 62
     4
 10
503.036435
 20
1222.238320
 11
504.982090
 21
1221.267303
  0
LINE
  8
CSLAYER1
  6
CONTINUOUS
 62
     4
 10
504.982090
 20
1221.267303
 11
506.764954
 21
1220.207623
  0
LINE
  8
CSLAYER1
  6
CONTINUOUS
 62
     4
 10
506.764954
 20
1220.207623
 11
508.371459
 21
1219.067346
  0
LINE
  8
CSLAYER1
  6
CONTINUOUS
 62
     4
 10
508.371459
 20
1219.067346
 11
509.789378
 21
1217.855150
  0
LINE
  8
CSLAYER1
  6
CONTINUOUS
 62
     4
 10
509.789378
 20
1217.855150
 11
511.007920
 21
1216.580260
  0
LINE
  8
CSLAYER1
  6
CONTINUOUS
 62
     4
 10
511.007920
 20
1216.580260
 11
512.017812
 21
1215.252380
  0
LINE
  8
CSLAYER1
  6
CONTINUOUS
 62
     4
 10
512.017812
 20
1215.252380
 11
512.811366
 21
1213.881614
  0
LINE
  8
CSLAYER1
  6
CONTINUOUS
 62
     4
 10
512.811366
 20
1213.881614
 11
513.382544
 21
1212.478396
  0
LINE
  8
CSLAYER1
  6
CONTINUOUS
 62
     4
 10
513.382544
 20
1212.478396
 11
513.726999
 21
1211.053404
  0
LINE
  8
CSLAYER1
  6
CONTINUOUS
 62
     4
 10
513.726999
 20
1211.053404
 11
513.842110
 21
1209.617485
  0
LINE
  8
CSLAYER1
  6
CONTINUOUS
 62
     4
 10
589.592110
 20
1269.767485
 11
589.592110
 21
1209.967485
  0
ARC
  8
CSLAYER1
  6
CONTINUOUS
 62
     4
 10
590.692110
 20
1269.767485
 40
1.100000
 50
90.000000
 51
180.000000
  0
ARC
  8
CSLAYER1
  6
CONTINUOUS
 62
     4
 10
590.692110
 20
1209.967485
 40
1.100000
 50
180.000000
 51
270.000000
  0
LINE
  8
CSLAYER1
  6
CONTINUOUS
 62
     4
 10
550.592110
 20
1302.645351
 11
566.592110
 21
1302.645351
  0
LINE
  8
CSLAYER1
  6
CONTINUOUS
 62
     4
 10
548.592110
 20
1300.645351
 11
550.592110
 21
1302.645351
  0
LINE
  8
CSLAYER1
  6
CONTINUOUS
 62
     4
 10
548.592110
 20
1300.645351
 11
568.592110
 21
1300.645351
  0
LINE
  8
CSLAYER1
  6
CONTINUOUS
 62
     4
 10
568.592110
 20
1300.645351
 11
566.592110
 21
1302.645351
  0
CIRCLE
  8
CSLAYER1
  6
CONTINUOUS
 62
     4
 10
558.592110
 20
1292.645351
 40
2.500000
  0
LINE
  8
CSLAYER1
  6
CONTINUOUS
 62
     4
 10
376.592110
 20
805.912573
 11
377.592110
 21
805.912573
  0
LINE
  8
CSLAYER1
  6
CONTINUOUS
 62
     4
 10
376.592110
 20
777.912573
 11
377.592110
 21
777.912573
  0
LINE
  8
CSLAYER1
  6
CONTINUOUS
 62
     4
 10
544.592110
 20
845.440252
 11
544.592110
 21
862.819001
  0
LINE
  8
CSLAYER1
  6
CONTINUOUS
 62
     4
 10
545.592110
 20
845.440252
 11
545.592110
 21
863.819001
  0
LINE
  8
CSLAYER1
  6
CONTINUOUS
 62
     4
 10
550.592110
 20
863.819001
 11
547.565569
 21
863.819001
  0
LINE
  8
CSLAYER1
  6
CONTINUOUS
 62
     4
 10
544.592110
 20
862.819001
 11
545.592110
 21
863.819001
  0
LINE
  8
CSLAYER1
  6
CONTINUOUS
 62
     4
 10
567.592110
 20
868.819001
 11
568.592110
 21
869.819001
  0
LINE
  8
CSLAYER1
  6
CONTINUOUS
 62
     4
 10
545.592110
 20
863.819001
 11
550.658368
 21
868.803682
  0
LINE
  8
CSLAYER1
  6
CONTINUOUS
 62
     4
 10
550.592110
 20
868.738490
 11
545.672620
 21
863.819001
  0
LINE
  8
CSLAYER1
  6
CONTINUOUS
 62
     4
 10
550.592110
 20
868.455648
 11
545.955463
 21
863.819001
  0
LINE
  8
CSLAYER1
  6
CONTINUOUS
 62
     4
 10
550.592110
 20
868.172805
 11
546.238306
 21
863.819001
  0
LINE
  8
CSLAYER1
  6
CONTINUOUS
 62
     4
 10
550.592110
 20
867.889962
 11
546.521148
 21
863.819001
  0
LINE
  8
CSLAYER1
  6
CONTINUOUS
 62
     4
 10
550.592110
 20
867.607120
 11
546.803991
 21
863.819001
  0
LINE
  8
CSLAYER1
  6
CONTINUOUS
 62
     4
 10
550.592110
 20
867.324277
 11
547.086834
 21
863.819001
  0
LINE
  8
CSLAYER1
  6
CONTINUOUS
 62
     4
 10
550.592110
 20
867.041434
 11
547.369676
 21
863.819001
  0
LINE
  8
CSLAYER1
  6
CONTINUOUS
 62
     4
 10
550.592110
 20
866.758591
 11
547.652519
 21
863.819001
  0
LINE
  8
CSLAYER1
  6
CONTINUOUS
 62
     4
 10
550.592110
 20
866.475749
 11
547.935362
 21
863.819001
  0
LINE
  8
CSLAYER1
  6
CONTINUOUS
 62
     4
 10
550.592110
 20
866.192906
 11
548.218205
 21
863.819001
  0
LINE
  8
CSLAYER1
  6
CONTINUOUS
 62
     4
 10
550.592110
 20
865.910063
 11
548.501047
 21
863.819001
  0
LINE
  8
CSLAYER1
  6
CONTINUOUS
 62
     4
 10
550.592110
 20
865.627221
 11
548.783890
 21
863.819001
  0
LINE
  8
CSLAYER1
  6
CONTINUOUS
 62
     4
 10
550.592110
 20
865.344378
 11
549.066733
 21
863.819001
  0
LINE
  8
CSLAYER1
  6
CONTINUOUS
 62
     4
 10
550.592110
 20
865.061535
 11
549.349575
 21
863.819001
  0
LINE
  8
CSLAYER1
  6
CONTINUOUS
 62
     4
 10
550.592110
 20
864.778692
 11
549.632418
 21
863.819001
  0
LINE
  8
CSLAYER1
  6
CONTINUOUS
 62
     4
 10
550.592110
 20
864.495850
 11
549.915261
 21
863.819001
  0
LINE
  8
CSLAYER1
  6
CONTINUOUS
 62
     4
 10
550.592110
 20
864.213007
 11
550.198103
 21
863.819001
  0
LINE
  8
CSLAYER1
  6
CONTINUOUS
 62
     4
 10
550.592110
 20
863.930164
 11
550.480946
 21
863.819001
  0
LINE
  8
CSLAYER1
  6
CONTINUOUS
 62
     4
 10
647.565569
 20
828.469001
 11
606.592110
 21
828.469001
  0
LINE
  8
CSLAYER1
  6
CONTINUOUS
 62
     4
 10
567.592110
 20
868.819001
 11
567.592110
 21
834.629761
  0
LINE
  8
CSLAYER1
  6
CONTINUOUS
 62
     4
 10
648.565569
 20
870.169001
 11
648.565569
 21
829.469001
  0
LINE
  8
CSLAYER1
  6
CONTINUOUS
 62
     4
 10
648.565569
 20
829.469001
 11
647.565569
 21
828.469001
  0
LINE
  8
CSLAYER1
  6
CONTINUOUS
 62
     4
 10
688.565569
 20
859.819001
 11
688.565569
 21
839.819001
  0
LINE
  8
CSLAYER1
  6
CONTINUOUS
 62
     4
 10
669.565569
 20
868.319001
 11
669.565569
 21
831.319001
  0
LINE
  8
CSLAYER1
  6
CONTINUOUS
 62
     4
 10
674.665569
 20
866.819001
 11
674.665569
 21
832.819001
  0
LINE
  8
CSLAYER1
  6
CONTINUOUS
 62
     4
 10
686.665569
 20
866.819001
 11
686.665569
 21
832.819001
  0
LINE
  8
CSLAYER1
  6
CONTINUOUS
 62
     4
 10
669.565569
 20
866.819001
 11
686.665569
 21
866.819001
  0
LINE
  8
CSLAYER1
  6
CONTINUOUS
 62
     4
 10
674.665569
 20
859.819001
 11
688.565569
 21
859.819001
  0
LINE
  8
CSLAYER1
  6
CONTINUOUS
 62
     4
 10
669.565569
 20
832.819001
 11
686.665569
 21
832.819001
  0
LINE
  8
CSLAYER1
  6
CONTINUOUS
 62
     4
 10
674.665569
 20
839.819001
 11
688.565569
 21
839.819001
  0
LINE
  8
CSLAYER1
  6
CONTINUOUS
 62
     4
 10
666.565569
 20
868.319001
 11
669.565569
 21
868.319001
  0
LINE
  8
CSLAYER1
  6
CONTINUOUS
 62
     4
 10
666.565569
 20
831.319001
 11
669.565569
 21
831.319001
  0
LINE
  8
CSLAYER1
  6
CONTINUOUS
 62
     4
 10
666.565569
 20
831.319001
 11
666.565569
 21
868.319001
  0
LINE
  8
CSLAYER1
  6
CENTER
 62
     5
 10
700.581454
 20
849.819001
 11
532.716945
 21
849.819001
  0
LINE
  8
CSLAYER1
  6
CONTINUOUS
 62
     4
 10
666.565569
 20
837.319001
 11
665.592110
 21
837.319001
  0
LINE
  8
CSLAYER1
  6
CONTINUOUS
 62
     4
 10
647.565569
 20
871.169001
 11
606.592110
 21
871.169001
  0
LINE
  8
CSLAYER1
  6
CONTINUOUS
 62
     4
 10
648.565569
 20
870.169001
 11
647.565569
 21
871.169001
  0
LINE
  8
CSLAYER1
  6
CONTINUOUS
 62
     4
 10
666.565569
 20
862.319001
 11
665.592110
 21
862.319001
  0
LINE
  8
CSLAYER1
  6
CONTINUOUS
 62
     4
 10
665.565569
 20
823.712076
 11
665.565569
 21
837.319001
  0
LINE
  8
CSLAYER1
  6
CONTINUOUS
 62
     4
 10
611.592110
 20
828.469001
 11
606.592110
 21
823.469001
  0
LINE
  8
CSLAYER1
  6
CONTINUOUS
 62
     4
 10
606.592110
 20
823.751843
 11
611.309267
 21
828.469001
  0
LINE
  8
CSLAYER1
  6
CONTINUOUS
 62
     4
 10
606.592110
 20
824.034686
 11
611.026424
 21
828.469001
  0
LINE
  8
CSLAYER1
  6
CONTINUOUS
 62
     4
 10
606.592110
 20
824.317529
 11
610.743582
 21
828.469001
  0
LINE
  8
CSLAYER1
  6
CONTINUOUS
 62
     4
 10
606.592110
 20
824.600372
 11
610.460739
 21
828.469001
  0
LINE
  8
CSLAYER1
  6
CONTINUOUS
 62
     4
 10
606.592110
 20
824.883214
 11
610.177896
 21
828.469001
  0
LINE
  8
CSLAYER1
  6
CONTINUOUS
 62
     4
 10
606.592110
 20
825.166057
 11
609.895054
 21
828.469001
  0
LINE
  8
CSLAYER1
  6
CONTINUOUS
 62
     4
 10
606.592110
 20
825.448900
 11
609.612211
 21
828.469001
  0
LINE
  8
CSLAYER1
  6
CONTINUOUS
 62
     4
 10
606.592110
 20
825.731742
 11
609.329368
 21
828.469001
  0
LINE
  8
CSLAYER1
  6
CONTINUOUS
 62
     4
 10
606.592110
 20
826.014585
 11
609.046525
 21
828.469001
  0
LINE
  8
CSLAYER1
  6
CONTINUOUS
 62
     4
 10
606.592110
 20
826.297428
 11
608.763683
 21
828.469001
  0
LINE
  8
CSLAYER1
  6
CONTINUOUS
 62
     4
 10
606.592110
 20
826.580271
 11
608.480840
 21
828.469001
  0
LINE
  8
CSLAYER1
  6
CONTINUOUS
 62
     4
 10
606.592110
 20
826.863113
 11
608.197997
 21
828.469001
  0
LINE
  8
CSLAYER1
  6
CONTINUOUS
 62
     4
 10
606.592110
 20
827.145956
 11
607.915155
 21
828.469001
  0
LINE
  8
CSLAYER1
  6
CONTINUOUS
 62
     4
 10
606.592110
 20
827.428799
 11
607.632312
 21
828.469001
  0
LINE
  8
CSLAYER1
  6
CONTINUOUS
 62
     4
 10
606.592110
 20
827.711641
 11
607.349469
 21
828.469001
  0
LINE
  8
CSLAYER1
  6
CONTINUOUS
 62
     4
 10
606.592110
 20
827.994484
 11
607.066626
 21
828.469001
  0
LINE
  8
CSLAYER1
  6
CONTINUOUS
 62
     4
 10
606.592110
 20
828.277327
 11
606.783784
 21
828.469001
  0
LINE
  8
CSLAYER1
  6
CONTINUOUS
 62
     4
 10
590.592110
 20
874.536158
 11
585.874953
 21
869.819001
  0
LINE
  8
CSLAYER1
  6
CONTINUOUS
 62
     4
 10
590.592110
 20
874.253315
 11
586.157795
 21
869.819001
  0
LINE
  8
CSLAYER1
  6
CONTINUOUS
 62
     4
 10
590.592110
 20
873.970473
 11
586.440638
 21
869.819001
  0
LINE
  8
CSLAYER1
  6
CONTINUOUS
 62
     4
 10
590.592110
 20
873.687630
 11
586.723481
 21
869.819001
  0
LINE
  8
CSLAYER1
  6
CONTINUOUS
 62
     4
 10
590.592110
 20
873.404787
 11
587.006323
 21
869.819001
  0
LINE
  8
CSLAYER1
  6
CONTINUOUS
 62
     4
 10
590.592110
 20
873.121944
 11
587.289166
 21
869.819001
  0
LINE
  8
CSLAYER1
  6
CONTINUOUS
 62
     4
 10
590.592110
 20
872.839102
 11
587.572009
 21
869.819001
  0
LINE
  8
CSLAYER1
  6
CONTINUOUS
 62
     4
 10
590.592110
 20
872.556259
 11
587.854852
 21
869.819001
  0
LINE
  8
CSLAYER1
  6
CONTINUOUS
 62
     4
 10
590.592110
 20
872.273416
 11
588.137694
 21
869.819001
  0
LINE
  8
CSLAYER1
  6
CONTINUOUS
 62
     4
 10
590.592110
 20
871.990574
 11
588.420537
 21
869.819001
  0
LINE
  8
CSLAYER1
  6
CONTINUOUS
 62
     4
 10
590.592110
 20
871.707731
 11
588.703380
 21
869.819001
  0
LINE
  8
CSLAYER1
  6
CONTINUOUS
 62
     4
 10
590.592110
 20
871.424888
 11
588.986222
 21
869.819001
  0
LINE
  8
CSLAYER1
  6
CONTINUOUS
 62
     4
 10
590.592110
 20
871.142045
 11
589.269065
 21
869.819001
  0
LINE
  8
CSLAYER1
  6
CONTINUOUS
 62
     4
 10
590.592110
 20
870.859203
 11
589.551908
 21
869.819001
  0
LINE
  8
CSLAYER1
  6
CONTINUOUS
 62
     4
 10
590.592110
 20
870.576360
 11
589.834751
 21
869.819001
  0
LINE
  8
CSLAYER1
  6
CONTINUOUS
 62
     4
 10
590.592110
 20
870.293517
 11
590.117593
 21
869.819001
  0
LINE
  8
CSLAYER1
  6
CONTINUOUS
 62
     4
 10
590.592110
 20
870.010675
 11
590.400436
 21
869.819001
  0
LINE
  8
CSLAYER1
  6
CONTINUOUS
 62
     4
 10
611.592110
 20
871.169001
 11
606.592110
 21
876.169001
  0
LINE
  8
CSLAYER1
  6
CONTINUOUS
 62
     4
 10
606.592110
 20
875.886158
 11
611.309267
 21
871.169001
  0
LINE
  8
CSLAYER1
  6
CONTINUOUS
 62
     4
 10
606.592110
 20
875.603315
 11
611.026424
 21
871.169001
  0
LINE
  8
CSLAYER1
  6
CONTINUOUS
 62
     4
 10
606.592110
 20
875.320473
 11
610.743582
 21
871.169001
  0
LINE
  8
CSLAYER1
  6
CONTINUOUS
 62
     4
 10
606.592110
 20
875.037630
 11
610.460739
 21
871.169001
  0
LINE
  8
CSLAYER1
  6
CONTINUOUS
 62
     4
 10
606.592110
 20
874.754787
 11
610.177896
 21
871.169001
  0
LINE
  8
CSLAYER1
  6
CONTINUOUS
 62
     4
 10
606.592110
 20
874.471944
 11
609.895054
 21
871.169001
  0
LINE
  8
CSLAYER1
  6
CONTINUOUS
 62
     4
 10
606.592110
 20
874.189102
 11
609.612211
 21
871.169001
  0
LINE
  8
CSLAYER1
  6
CONTINUOUS
 62
     4
 10
606.592110
 20
873.906259
 11
609.329368
 21
871.169001
  0
LINE
  8
CSLAYER1
  6
CONTINUOUS
 62
     4
 10
606.592110
 20
873.623416
 11
609.046525
 21
871.169001
  0
LINE
  8
CSLAYER1
  6
CONTINUOUS
 62
     4
 10
606.592110
 20
873.340574
 11
608.763683
 21
871.169001
  0
LINE
  8
CSLAYER1
  6
CONTINUOUS
 62
     4
 10
606.592110
 20
873.057731
 11
608.480840
 21
871.169001
  0
LINE
  8
CSLAYER1
  6
CONTINUOUS
 62
     4
 10
606.592110
 20
872.774888
 11
608.197997
 21
871.169001
  0
LINE
  8
CSLAYER1
  6
CONTINUOUS
 62
     4
 10
606.592110
 20
872.492045
 11
607.915155
 21
871.169001
  0
LINE
  8
CSLAYER1
  6
CONTINUOUS
 62
     4
 10
606.592110
 20
872.209203
 11
607.632312
 21
871.169001
  0
LINE
  8
CSLAYER1
  6
CONTINUOUS
 62
     4
 10
606.592110
 20
871.926360
 11
607.349469
 21
871.169001
  0
LINE
  8
CSLAYER1
  6
CONTINUOUS
 62
     4
 10
606.592110
 20
871.643517
 11
607.066626
 21
871.169001
  0
LINE
  8
CSLAYER1
  6
CONTINUOUS
 62
     4
 10
606.592110
 20
871.360675
 11
606.783784
 21
871.169001
  0
LINE
  8
CSLAYER1
  6
CONTINUOUS
 62
     4
 10
589.551908
 20
869.819001
 11
590.592110
 21
869.819001
  0
LINE
  8
CSLAYER1
  6
CONTINUOUS
 62
     4
 10
588.400436
 20
869.819001
 11
568.592110
 21
869.819001
  0
LINE
  8
CSLAYER1
  6
CONTINUOUS
 62
     4
 10
567.592110
 20
864.819001
 11
566.592110
 21
864.819001
  0
LINE
  8
CSLAYER1
  6
CONTINUOUS
 62
     4
 10
649.592110
 20
864.819001
 11
648.565569
 21
864.819001
  0
LINE
  8
CSLAYER1
  6
CONTINUOUS
 62
     4
 10
649.592110
 20
834.819001
 11
648.565569
 21
834.819001
  0
LINE
  8
CSLAYER1
  6
CONTINUOUS
 62
     4
 10
590.592110
 20
825.101843
 11
585.874953
 21
829.819001
  0
LINE
  8
CSLAYER1
  6
CONTINUOUS
 62
     4
 10
590.592110
 20
825.384686
 11
586.157795
 21
829.819001
  0
LINE
  8
CSLAYER1
  6
CONTINUOUS
 62
     4
 10
590.592110
 20
825.667529
 11
586.440638
 21
829.819001
  0
LINE
  8
CSLAYER1
  6
CONTINUOUS
 62
     4
 10
590.592110
 20
825.950372
 11
586.723481
 21
829.819001
  0
LINE
  8
CSLAYER1
  6
CONTINUOUS
 62
     4
 10
590.592110
 20
826.233214
 11
587.006323
 21
829.819001
  0
LINE
  8
CSLAYER1
  6
CONTINUOUS
 62
     4
 10
590.592110
 20
826.516057
 11
587.289166
 21
829.819001
  0
LINE
  8
CSLAYER1
  6
CONTINUOUS
 62
     4
 10
590.592110
 20
826.798900
 11
587.572009
 21
829.819001
  0
LINE
  8
CSLAYER1
  6
CONTINUOUS
 62
     4
 10
590.592110
 20
827.081742
 11
587.854852
 21
829.819001
  0
LINE
  8
CSLAYER1
  6
CONTINUOUS
 62
     4
 10
590.592110
 20
827.364585
 11
588.137694
 21
829.819001
  0
LINE
  8
CSLAYER1
  6
CONTINUOUS
 62
     4
 10
590.592110
 20
827.647428
 11
588.420537
 21
829.819001
  0
LINE
  8
CSLAYER1
  6
CONTINUOUS
 62
     4
 10
590.592110
 20
827.930271
 11
588.703380
 21
829.819001
  0
LINE
  8
CSLAYER1
  6
CONTINUOUS
 62
     4
 10
590.592110
 20
828.213113
 11
588.986222
 21
829.819001
  0
LINE
  8
CSLAYER1
  6
CONTINUOUS
 62
     4
 10
590.592110
 20
828.495956
 11
589.269065
 21
829.819001
  0
LINE
  8
CSLAYER1
  6
CONTINUOUS
 62
     4
 10
590.592110
 20
828.778799
 11
589.551908
 21
829.819001
  0
LINE
  8
CSLAYER1
  6
CONTINUOUS
 62
     4
 10
590.592110
 20
829.061641
 11
589.834751
 21
829.819001
  0
LINE
  8
CSLAYER1
  6
CONTINUOUS
 62
     4
 10
590.592110
 20
829.344484
 11
590.117593
 21
829.819001
  0
LINE
  8
CSLAYER1
  6
CONTINUOUS
 62
     4
 10
590.592110
 20
829.627327
 11
590.400436
 21
829.819001
  0
LINE
  8
CSLAYER1
  6
CONTINUOUS
 62
     4
 10
589.551908
 20
829.819001
 11
590.592110
 21
829.819001
  0
LINE
  8
CSLAYER1
  6
CONTINUOUS
 62
     4
 10
588.400436
 20
829.819001
 11
575.602262
 21
829.819001
  0
LINE
  8
CSLAYER1
  6
PHANTOM
 62
     5
 10
983.592110
 20
533.083386
 11
983.592110
 21
480.083386
  0
INSERT
  8
CSLAYER1
  2
BLKF0001
 10
0.0
 20
0.0
 30
0.0
  0
DIMENSION
  8
CSLAYER1
 62
     7
  2
*D0000
 10
2284.013356
 20
533.083386
 11
2342.400391
 21
450.911530
 13
2183.592110
 23
378.083386
 14
2183.592110
 24
533.083386
 50
90.000000
 70
1
  0
DIMENSION
  8
CSLAYER1
 62
     7
  2
*D0001
 10
2284.013356
 20
533.083386
 11
2274.013184
 21
975.918884
 13
2284.013356
 23
1418.754615
 14
2284.013356
 24
533.083386
 50
90.000000
 70
1
  0
DIMENSION
  8
CSLAYER1
 62
     7
  2
*D0002
 10
2383.592110
 20
1418.754615
 11
2373.592041
 21
898.418823
 13
2180.592110
 23
378.083386
 14
2180.592110
 24
1418.754615
 50
90.000000
 70
1
  0
DIMENSION
  8
CSLAYER1
 62
     7
  2
*D0003
 10
2183.592110
 20
1513.312739
 11
1583.592041
 21
1523.312500
 13
983.592110
 23
1415.754615
 14
2183.592110
 24
1415.754615
 70
1
  0
DIMENSION
  8
CSLAYER1
 62
     7
  2
*D0004
 10
2183.592110
 20
279.770953
 11
1583.592041
 21
289.770935
 13
983.592110
 23
378.083386
 14
2183.592110
 24
378.083386
 52
270.000000
 70
1
  0
DIMENSION
  8
CSLAYER1
 62
     7
  2
*D0005
 10
733.592110
 20
279.770953
 11
483.592133
 21
289.770935
 13
233.592110
 23
378.083386
 14
733.592110
 24
378.083386
 52
270.000000
 70
1
  0
DIMENSION
  8
CSLAYER1
 62
     7
  2
*D0006
 10
874.997006
 20
2180.724699
 11
864.996887
 21
1930.724487
 13
983.592110
 23
1680.724699
 14
983.592110
 24
2180.724699
 50
90.000000
 70
1
  0
LINE
  8
CSLAYER1
  6
CONTINUOUS
 62
     5
 10
1340.901136
 20
849.819001
 11
1390.901136
 21
849.819001
  0
LINE
  8
CSLAYER1
  6
CONTINUOUS
 62
     5
 10
1365.901136
 20
874.819001
 11
1365.901136
 21
824.819001
  0
LINE
  8
CSLAYER1
  6
CONTINUOUS
 62
     5
 10
1252.336856
 20
815.912573
 11
1252.336856
 21
767.912573
  0
LINE
  8
CSLAYER1
  6
CONTINUOUS
 62
     5
 10
1228.336856
 20
791.912573
 11
1276.336856
 21
791.912573
  0
LINE
  8
CSLAYER1
  6
CONTINUOUS
 62
     4
 10
609.092110
 20
1252.367485
 11
607.942110
 21
1252.367485
  0
LINE
  8
CSLAYER1
  6
CONTINUOUS
 62
     4
 10
607.942110
 20
1251.817485
 11
606.592110
 21
1251.817485
  0
LINE
  8
CSLAYER1
  6
CONTINUOUS
 62
     4
 10
607.942110
 20
1254.917485
 11
606.592110
 21
1254.917485
  0
LINE
  8
CSLAYER1
  6
CONTINUOUS
 62
     4
 10
607.942110
 20
1254.917485
 11
607.942110
 21
1224.817485
  0
LINE
  8
CSLAYER1
  6
CONTINUOUS
 62
     4
 10
610.592110
 20
1250.867485
 11
610.592110
 21
1228.867485
  0
LINE
  8
CSLAYER1
  6
CONTINUOUS
 62
     4
 10
610.592110
 20
1250.867485
 11
609.092110
 21
1252.367485
  0
LINE
  8
CSLAYER1
  6
CONTINUOUS
 62
     4
 10
609.092110
 20
1252.367485
 11
609.092110
 21
1227.367485
  0
LINE
  8
CSLAYER1
  6
CONTINUOUS
 62
     4
 10
609.092110
 20
1227.367485
 11
607.942110
 21
1227.367485
  0
LINE
  8
CSLAYER1
  6
CONTINUOUS
 62
     4
 10
607.942110
 20
1227.917485
 11
606.592110
 21
1227.917485
  0
LINE
  8
CSLAYER1
  6
CONTINUOUS
 62
     4
 10
607.942110
 20
1224.817485
 11
606.592110
 21
1224.817485
  0
LINE
  8
CSLAYER1
  6
CONTINUOUS
 62
     4
 10
610.592110
 20
1228.867485
 11
609.092110
 21
1227.367485
  0
LINE
  8
CSLAYER1
  6
CONTINUOUS
 62
     4
 10
358.092110
 20
1252.367485
 11
359.242110
 21
1252.367485
  0
LINE
  8
CSLAYER1
  6
CONTINUOUS
 62
     4
 10
359.242110
 20
1251.817485
 11
360.592110
 21
1251.817485
  0
LINE
  8
CSLAYER1
  6
CONTINUOUS
 62
     4
 10
359.242110
 20
1254.917485
 11
360.592110
 21
1254.917485
  0
LINE
  8
CSLAYER1
  6
CONTINUOUS
 62
     4
 10
359.242110
 20
1254.917485
 11
359.242110
 21
1224.817485
  0
LINE
  8
CSLAYER1
  6
CONTINUOUS
 62
     4
 10
356.592110
 20
1250.867485
 11
356.592110
 21
1228.867485
  0
LINE
  8
CSLAYER1
  6
CONTINUOUS
 62
     4
 10
356.592110
 20
1250.867485
 11
358.092110
 21
1252.367485
  0
LINE
  8
CSLAYER1
  6
CONTINUOUS
 62
     4
 10
358.092110
 20
1252.367485
 11
358.092110
 21
1227.367485
  0
LINE
  8
CSLAYER1
  6
CONTINUOUS
 62
     4
 10
358.092110
 20
1227.367485
 11
359.242110
 21
1227.367485
  0
LINE
  8
CSLAYER1
  6
CONTINUOUS
 62
     4
 10
359.242110
 20
1227.917485
 11
360.592110
 21
1227.917485
  0
LINE
  8
CSLAYER1
  6
CONTINUOUS
 62
     4
 10
359.242110
 20
1224.817485
 11
360.592110
 21
1224.817485
  0
LINE
  8
CSLAYER1
  6
CONTINUOUS
 62
     4
 10
356.592110
 20
1228.867485
 11
358.092110
 21
1227.367485
  0
LINE
  8
CSLAYER1
  6
CONTINUOUS
 62
     4
 10
1116.575153
 20
1276.032039
 11
1712.115949
 21
497.744714
  0
LINE
  8
CSLAYER1
  6
CONTINUOUS
 62
     4
 10
1116.575153
 20
1276.032039
 11
1045.592110
 21
1305.703718
  0
LINE
  8
CSLAYER1
  6
CONTINUOUS
 62
     4
 10
1712.115949
 20
497.744714
 11
1719.342779
 21
443.083386
  0
LINE
  8
CSLAYER1
  6
CONTINUOUS
 62
     3
 10
2546.958048
 20
378.083386
 11
155.714713
 21
378.083386
  0
LINE
  8
CSLAYER1
  6
CENTER
 62
     5
 10
949.834055
 20
1930.724699
 11
2202.942322
 21
1930.724699
  0
LINE
  8
CSLAYER1
  6
CONTINUOUS
 62
     5
 10
1128.303555
 20
726.688631
 11
1044.706145
 21
935.093443
  0
LINE
  8
CSLAYER1
  6
CONTINUOUS
 62
     5
 10
1128.303555
 20
726.688631
 11
1110.308875
 21
750.692620
  0
LINE
  8
CSLAYER1
  6
CONTINUOUS
 62
     5
 10
1128.303555
 20
726.688631
 11
1124.721699
 21
756.474036
  0
LINE
  8
CSLAYER1
  6
CONTINUOUS
 62
     5
 10
735.661698
 20
935.093443
 11
1044.706145
 21
935.093443
  0
TEXT
  8
CSLAYER1
 62
     5
 10
2640.151855
 20
2292.501953
 40
40.000000
 41
1.028571
  1
電源コード
 50
360.000000
 51
0.000000
  7
EASYDRAW_FONT
 72
     5
 11
2832.151855
 21
2292.501953
  0
TEXT
  8
CSLAYER1
 62
     5
 10
2665.586426
 20
2242.230469
 40
40.000000
 41
1.036364
  1
長サ４ｍ
 50
360.000000
 51
0.000000
  7
EASYDRAW_FONT
 72
     5
 11
2817.586426
 21
2242.230469
  0
TEXT
  8
CSLAYER1
 62
     5
 10
2762.927246
 20
2156.250977
 40
40.000000
 41
1.020000
  1
フットスイッチ
 50
360.000000
 51
0.000000
  7
EASYDRAW_FONT
 72
     5
 11
3034.927246
 21
2156.250977
  0
TEXT
  8
CSLAYER1
 62
     5
 10
2761.577148
 20
2102.923340
 40
40.000000
 41
1.020000
  1
ＵＰ・ＤＯＷＮ
 50
360.000000
 51
0.000000
  7
EASYDRAW_FONT
 72
     5
 11
3033.577148
 21
2102.923340
  0
LINE
  8
CSLAYER1
  6
CONTINUOUS
 62
     3
 10
2267.141111
 20
1927.024699
 11
2477.678856
 21
1927.024699
  0
LINE
  8
CSLAYER1
  6
CONTINUOUS
 62
     3
 10
2266.608474
 20
1934.024699
 11
2477.678856
 21
1934.024699
  0
ARC
  8
CSLAYER1
  6
CONTINUOUS
 62
     3
 10
2273.445871
 20
1887.524699
 40
40.000000
 50
-260.931278
 51
63.817766
  0
ARC
  8
CSLAYER1
  6
CONTINUOUS
 62
     3
 10
2273.445871
 20
1887.524699
 40
47.000000
 50
-261.635125
 51
49.860785
  0
LINE
  8
CSLAYER1
  6
CONTINUOUS
 62
     3
 10
2183.593814
 20
1927.024699
 11
2243.454255
 21
1927.024699
  0
LINE
  8
CSLAYER1
  6
CONTINUOUS
 62
     3
 10
2183.593814
 20
1934.024699
 11
2254.161146
 21
1934.024699
  0
LINE
  8
CSLAYER1
  6
CONTINUOUS
 62
     3
 10
2183.593814
 20
1969.224699
 11
2299.038782
 21
1969.224699
  0
LINE
  8
CSLAYER1
  6
CONTINUOUS
 62
     3
 10
2183.593814
 20
1962.224699
 11
2308.920573
 21
1962.224699
  0
LINE
  8
CSLAYER1
  6
CONTINUOUS
 62
     3
 10
2545.539099
 20
2115.836938
 11
2550.609727
 21
2117.746655
  0
LINE
  8
CSLAYER1
  6
CONTINUOUS
 62
     3
 10
2550.609727
 20
2117.746655
 11
2557.034359
 21
2117.925117
  0
LINE
  8
CSLAYER1
  6
CONTINUOUS
 62
     3
 10
2544.484769
 20
2117.226040
 11
2550.133829
 21
2119.590763
  0
LINE
  8
CSLAYER1
  6
CONTINUOUS
 62
     3
 10
2550.133829
 20
2119.590763
 11
2555.487688
 21
2120.899484
  0
LINE
  8
CSLAYER1
  6
CONTINUOUS
 62
     3
 10
2543.642575
 20
2118.335650
 11
2548.527671
 21
2121.196920
  0
LINE
  8
CSLAYER1
  6
CONTINUOUS
 62
     3
 10
2548.527671
 20
2121.196920
 11
2551.677708
 21
2125.720051
  0
ARC
  8
CSLAYER1
  6
CONTINUOUS
 62
     3
 10
2330.573723
 20
2009.224699
 40
47.000000
 50
-10.756396
 51
307.198537
  0
ARC
  8
CSLAYER1
  6
CONTINUOUS
 62
     3
 10
2330.573723
 20
2009.224699
 40
40.000000
 50
-23.471057
 51
307.198537
  0
LINE
  8
CSLAYER1
  6
CONTINUOUS
 62
     3
 10
2546.722853
 20
2114.277318
 11
2358.988925
 21
1971.787067
  0
LINE
  8
CSLAYER1
  6
CONTINUOUS
 62
     3
 10
2542.490801
 20
2119.853135
 11
2354.756873
 21
1977.362885
  0
LINE
  8
CSLAYER1
  6
CONTINUOUS
 62
     3
 10
2546.722853
 20
2114.277318
 11
2542.490801
 21
2119.853135
  0
LINE
  8
CSLAYER1
  6
CONTINUOUS
 62
     5
 10
2750.589183
 20
2151.377971
 11
3040.033480
 21
2151.377971
  0
LINE
  8
CSLAYER1
  6
CONTINUOUS
 62
     5
 10
2632.897715
 20
2287.959745
 11
2841.676622
 21
2287.959745
  0
LINE
  8
CSLAYER1
  6
CONTINUOUS
 62
     4
 10
1617.489261
 20
1223.930836
 11
1514.193719
 21
1088.912204
  0
LINE
  8
CSLAYER1
  6
CONTINUOUS
 62
     4
 10
1565.864490
 20
1263.426190
 11
1462.568948
 21
1128.407558
  0
ARC
  8
CSLAYER1
  6
CONTINUOUS
 62
     4
 10
1488.381334
 20
1108.659881
 40
32.500000
 50
142.582328
 51
322.582328
  0
ARC
  8
CSLAYER1
  6
CONTINUOUS
 62
     4
 10
1488.381334
 20
1108.659881
 40
59.000000
 50
280.806980
 51
322.582328
  0
ARC
  8
CSLAYER1
  6
CONTINUOUS
 62
     4
 10
1591.676875
 20
1243.678513
 40
32.500000
 50
-37.417672
 51
142.582328
  0
LINE
  8
CSLAYER1
  6
CONTINUOUS
 62
     2
 10
1125.852937
 20
676.804718
 11
1129.517152
 21
674.052383
  0
LINE
  8
CSLAYER1
  6
CONTINUOUS
 62
     4
 10
1188.541683
 20
798.559066
 11
1196.349259
 21
808.953379
  0
LINE
  8
CSLAYER1
  6
CONTINUOUS
 62
     2
 10
1029.195537
 20
598.075137
 11
1067.954435
 21
568.961805
  0
LINE
  8
CSLAYER1
  6
CONTINUOUS
 62
     2
 10
1063.428759
 20
643.650201
 11
1087.415635
 21
625.632716
  0
LINE
  8
CSLAYER1
  6
CONTINUOUS
 62
     2
 10
1147.307734
 20
751.989103
 11
1166.658295
 21
737.454136
  0
LINE
  8
CSLAYER1
  6
CONTINUOUS
 62
     4
 10
1190.352540
 20
813.457750
 11
1196.349259
 21
808.953379
  0
LINE
  8
CSLAYER1
  6
CONTINUOUS
 62
     4
 10
1029.195537
 20
598.075137
 11
1063.428759
 21
643.650201
  0
LINE
  8
CSLAYER1
  6
CONTINUOUS
 62
     4
 10
1065.027884
 20
642.449035
 11
1152.112396
 21
758.385603
  0
LINE
  8
CSLAYER1
  6
CONTINUOUS
 62
     4
 10
1159.912686
 20
758.779919
 11
1189.341245
 21
797.958483
  0
LINE
  8
CSLAYER1
  6
CONTINUOUS
 62
     4
 10
1029.195537
 20
598.075137
 11
1038.783000
 21
580.868145
  0
LINE
  8
CSLAYER1
  6
CONTINUOUS
 62
     2
 10
1086.210826
 20
619.033592
 11
1093.902357
 21
613.256181
  0
LINE
  8
CSLAYER1
  6
CONTINUOUS
 62
     4
 10
1063.884173
 20
562.013668
 11
1038.783000
 21
580.868145
  0
ARC
  8
CSLAYER1
  6
CONTINUOUS
 62
     2
 10
1088.012574
 20
621.432280
 40
3.000000
 50
143.088348
 51
233.088348
  0
ARC
  8
CSLAYER1
  6
CONTINUOUS
 62
     2
 10
1133.356579
 20
681.799251
 40
3.000000
 50
48.044390
 51
143.088348
  0
LINE
  8
CSLAYER1
  6
CONTINUOUS
 62
     2
 10
1188.541683
 20
798.559066
 11
1198.202827
 21
791.302201
  0
LINE
  8
CSLAYER1
  6
CONTINUOUS
 62
     2
 10
1168.921428
 20
770.773357
 11
1180.904213
 21
761.772617
  0
LINE
  8
CSLAYER1
  6
CONTINUOUS
 62
     2
 10
1085.613887
 20
623.234028
 11
1149.825300
 21
708.719388
  0
LINE
  8
CSLAYER1
  6
CONTINUOUS
 62
     2
 10
1071.424385
 20
637.644373
 11
1154.037043
 21
747.627513
  0
LINE
  8
CSLAYER1
  6
CONTINUOUS
 62
     2
 10
1069.825260
 20
638.845538
 11
1152.437918
 21
748.828679
  0
ARC
  8
CSLAYER1
  6
CONTINUOUS
 62
     4
 10
1153.711521
 20
757.184438
 40
2.000000
 50
53.088348
 51
143.088348
  0
LINE
  8
CSLAYER1
  6
CONTINUOUS
 62
     4
 10
1214.375854
 20
845.440252
 11
1225.168314
 21
837.333611
  0
LINE
  8
CSLAYER1
  6
CONTINUOUS
 62
     2
 10
1221.597907
 20
840.015484
 11
1225.168314
 21
837.333611
  0
LINE
  8
CSLAYER1
  6
CONTINUOUS
 62
     2
 10
1188.410379
 20
796.156326
 11
1197.185261
 21
789.565166
  0
LINE
  8
CSLAYER1
  6
CONTINUOUS
 62
     2
 10
1188.410379
 20
796.156326
 11
1189.611545
 21
797.755451
  0
LINE
  8
CSLAYER1
  6
CONTINUOUS
 62
     2
 10
1185.466065
 20
790.238470
 11
1193.878173
 21
783.919805
  0
LINE
  8
CSLAYER1
  6
CONTINUOUS
 62
     4
 10
1224.552441
 20
843.948887
 11
1221.597907
 21
840.015484
  0
LINE
  8
CSLAYER1
  6
CONTINUOUS
 62
     2
 10
1227.553020
 20
841.695033
 11
1224.598487
 21
837.761631
  0
LINE
  8
CSLAYER1
  6
CONTINUOUS
 62
     2
 10
1185.466065
 20
790.238470
 11
1185.010735
 21
791.306579
  0
LINE
  8
CSLAYER1
  6
CONTINUOUS
 62
     4
 10
1225.705116
 20
843.809160
 11
1224.552441
 21
843.948887
  0
LINE
  8
CSLAYER1
  6
CONTINUOUS
 62
     2
 10
1188.565851
 20
796.039544
 11
1185.010735
 21
791.306579
  0
ARC
  8
CSLAYER1
  6
CONTINUOUS
 62
     2
 10
1188.131056
 20
792.336419
 40
3.285875
 50
208.401853
 51
268.052731
  0
ARC
  8
CSLAYER1
  6
CONTINUOUS
 62
     2
 10
1224.452223
 20
840.691187
 40
3.259241
 50
17.716730
 51
78.654247
  0
ARC
  8
CSLAYER1
  6
CONTINUOUS
 62
     2
 10
1198.122127
 20
796.264803
 40
12.419443
 50
215.500394
 51
250.676302
  0
LINE
  8
CSLAYER1
  6
CONTINUOUS
 62
     2
 10
1191.566431
 20
793.785691
 11
1188.011315
 21
789.052726
  0
LINE
  8
CSLAYER1
  6
CONTINUOUS
 62
     2
 10
1185.922626
 20
785.518136
 11
1191.199738
 21
781.554289
  0
LINE
  8
CSLAYER1
  6
CONTINUOUS
 62
     2
 10
1185.783340
 20
786.498237
 11
1187.464972
 21
788.737013
  0
LINE
  8
CSLAYER1
  6
CONTINUOUS
 62
     2
 10
1185.922626
 20
785.518136
 11
1188.024666
 21
788.316605
  0
LINE
  8
CSLAYER1
  6
CONTINUOUS
 62
     2
 10
1185.783340
 20
786.498237
 11
1185.922626
 21
785.518136
  0
LINE
  8
CSLAYER1
  6
CONTINUOUS
 62
     2
 10
1185.783340
 20
786.498237
 11
1192.179840
 21
781.693575
  0
LINE
  8
CSLAYER1
  6
CONTINUOUS
 62
     2
 10
1195.066284
 20
785.947968
 11
1194.012474
 21
784.545019
  0
LINE
  8
CSLAYER1
  6
CONTINUOUS
 62
     2
 10
1192.179840
 20
781.693575
 11
1193.861472
 21
783.932350
  0
LINE
  8
CSLAYER1
  6
CONTINUOUS
 62
     2
 10
1191.199738
 20
781.554289
 11
1193.301778
 21
784.352758
  0
LINE
  8
CSLAYER1
  6
CONTINUOUS
 62
     2
 10
1192.179840
 20
781.693575
 11
1191.199738
 21
781.554289
  0
LINE
  8
CSLAYER1
  6
CONTINUOUS
 62
     2
 10
1194.495308
 20
794.087064
 11
1196.278521
 21
790.246255
  0
LINE
  8
CSLAYER1
  6
CONTINUOUS
 62
     4
 10
1190.352540
 20
813.457750
 11
1214.375854
 21
845.440252
  0
LINE
  8
CSLAYER1
  6
CONTINUOUS
 62
     4
 10
1225.705116
 20
843.809160
 11
1227.966620
 21
842.110455
  0
LINE
  8
CSLAYER1
  6
CONTINUOUS
 62
     2
 10
1154.912687
 20
758.783563
 11
1171.746122
 21
746.139308
  0
ARC
  8
CSLAYER1
  6
CONTINUOUS
 62
     4
 10
1157.513998
 20
760.581667
 40
3.000000
 50
233.088348
 51
323.088348
  0
INSERT
  8
CSLAYER1
  2
BLKF0002
 10
0.0
 20
0.0
 30
0.0
  0
LINE
  8
CSLAYER1
  6
CONTINUOUS
 62
     2
 10
1196.349259
 20
808.953379
 11
1204.817003
 21
802.592924
  0
LINE
  8
CSLAYER1
  6
CONTINUOUS
 62
     5
 10
576.347514
 20
514.212104
 11
730.584100
 21
732.135277
  0
LINE
  8
CSLAYER1
  6
CONTINUOUS
 62
     5
 10
576.347514
 20
514.212104
 11
586.750284
 21
542.350732
  0
LINE
  8
CSLAYER1
  6
CONTINUOUS
 62
     5
 10
576.347514
 20
514.212104
 11
599.425891
 21
533.379486
  0
LINE
  8
CSLAYER1
  6
CONTINUOUS
 62
     5
 10
730.584100
 20
732.135277
 11
1053.764362
 21
732.135277
  0
LINE
  8
CSLAYER1
  6
CONTINUOUS
 62
     3
 10
393.592110
 20
476.583386
 11
393.592110
 21
443.083386
  0
LINE
  8
CSLAYER1
  6
CONTINUOUS
 62
     3
 10
391.592110
 20
476.583386
 11
391.592110
 21
482.583386
  0
LINE
  8
CSLAYER1
  6
CONTINUOUS
 62
     3
 10
391.592110
 20
482.583386
 11
566.742175
 21
482.583386
  0
LINE
  8
CSLAYER1
  6
CONTINUOUS
 62
     3
 10
391.592110
 20
476.583386
 11
393.592110
 21
476.583386
  0
LINE
  8
CSLAYER1
  6
CONTINUOUS
 62
     1
 10
564.092110
 20
485.583386
 11
564.092110
 21
483.383386
  0
LINE
  8
CSLAYER1
  6
CONTINUOUS
 62
     1
 10
566.961588
 20
484.383386
 11
564.092110
 21
484.383386
  0
LINE
  8
CSLAYER1
  6
CONTINUOUS
 62
     1
 10
569.292110
 20
486.983386
 11
565.492110
 21
486.983386
  0
LINE
  8
CSLAYER1
  6
CONTINUOUS
 62
     1
 10
563.092110
 20
483.383386
 11
563.092110
 21
482.583386
  0
LINE
  8
CSLAYER1
  6
CONTINUOUS
 62
     1
 10
566.839692
 20
483.383386
 11
563.092110
 21
483.383386
  0
ARC
  8
CSLAYER1
  6
CONTINUOUS
 62
     1
 10
565.492110
 20
485.583386
 40
1.400000
 50
90.000000
 51
180.000000
  0
LINE
  8
CSLAYER1
  6
CONTINUOUS
 62
     1
 10
566.926838
 20
484.098304
 11
566.246859
 21
484.383386
  0
INSERT
  8
CSLAYER1
  2
BLKF0003
 10
0.0
 20
0.0
 30
0.0
  0
LINE
  8
CSLAYER1
  6
CONTINUOUS
 62
     5
 10
393.592110
 20
476.583386
 11
566.010800
 21
476.583386
  0
LINE
  8
CSLAYER1
  6
CONTINUOUS
 62
     3
 10
2162.792110
 20
476.583386
 11
2162.792110
 21
443.083386
  0
LINE
  8
CSLAYER1
  6
CONTINUOUS
 62
     3
 10
2023.392110
 20
476.583386
 11
2023.392110
 21
443.083386
  0
LINE
  8
CSLAYER1
  6
CONTINUOUS
 62
     5
 10
2093.092110
 20
492.679511
 11
2093.092110
 21
468.259270
  0
LINE
  8
CSLAYER1
  6
CONTINUOUS
 62
     3
 10
2164.592110
 20
482.583386
 11
2021.592110
 21
482.583386
  0
LINE
  8
CSLAYER1
  6
CONTINUOUS
 62
     3
 10
2164.592110
 20
476.583386
 11
2162.792110
 21
476.583386
  0
LINE
  8
CSLAYER1
  6
CONTINUOUS
 62
     3
 10
2164.592110
 20
482.583386
 11
2164.592110
 21
476.583386
  0
LINE
  8
CSLAYER1
  6
CONTINUOUS
 62
     3
 10
2021.592110
 20
482.583386
 11
2021.592110
 21
476.583386
  0
LINE
  8
CSLAYER1
  6
CONTINUOUS
 62
     5
 10
2192.792110
 20
466.883386
 11
2192.792110
 21
449.883386
  0
LINE
  8
CSLAYER1
  6
CONTINUOUS
 62
     5
 10
2188.822543
 20
471.373767
 11
2174.194673
 21
471.373767
  0
LINE
  8
CSLAYER1
  6
CONTINUOUS
 62
     5
 10
2189.683015
 20
469.883386
 11
2189.683015
 21
446.883386
  0
LINE
  8
CSLAYER1
  6
CONTINUOUS
 62
     5
 10
2173.334201
 20
469.883386
 11
2173.334201
 21
446.883386
  0
LINE
  8
CSLAYER1
  6
CONTINUOUS
 62
     5
 10
2189.683015
 20
469.883386
 11
2188.822543
 21
471.373767
  0
LINE
  8
CSLAYER1
  6
CONTINUOUS
 62
     5
 10
2173.334201
 20
469.883386
 11
2174.194673
 21
471.373767
  0
LINE
  8
CSLAYER1
  6
CONTINUOUS
 62
     5
 10
2188.822543
 20
465.022914
 11
2174.194673
 21
465.022914
  0
ARC
  8
CSLAYER1
  6
CONTINUOUS
 62
     5
 10
2163.636990
 20
458.383386
 40
26.046025
 50
-14.768561
 51
14.768561
  0
ARC
  8
CSLAYER1
  6
CONTINUOUS
 62
     5
 10
2183.551422
 20
468.198341
 40
6.153702
 50
-31.065581
 51
23.174644
  0
ARC
  8
CSLAYER1
  6
CONTINUOUS
 62
     5
 10
2179.465794
 20
468.198341
 40
6.153702
 50
156.825356
 51
211.065581
  0
ARC
  8
CSLAYER1
  6
CONTINUOUS
 62
     5
 10
2199.380226
 20
458.383386
 40
26.046025
 50
165.231439
 51
194.768561
  0
LINE
  8
CSLAYER1
  6
CONTINUOUS
 62
     5
 10
2189.792110
 20
469.883386
 11
2189.683015
 21
469.883386
  0
ARC
  8
CSLAYER1
  6
CONTINUOUS
 62
     5
 10
2189.792110
 20
466.883386
 40
3.000000
 50
0.000000
 51
90.000000
  0
LINE
  8
CSLAYER1
  6
CONTINUOUS
 62
     5
 10
2169.792110
 20
469.883386
 11
2169.792110
 21
446.883386
  0
LINE
  8
CSLAYER1
  6
CONTINUOUS
 62
     5
 10
2169.792110
 20
469.883386
 11
2168.931638
 21
471.373767
  0
ARC
  8
CSLAYER1
  6
CONTINUOUS
 62
     5
 10
2143.746085
 20
458.383386
 40
26.046025
 50
-14.768561
 51
14.768561
  0
ARC
  8
CSLAYER1
  6
CONTINUOUS
 62
     5
 10
2163.660517
 20
468.198341
 40
6.153702
 50
-31.065581
 51
23.174644
  0
LINE
  8
CSLAYER1
  6
CONTINUOUS
 62
     5
 10
2168.931638
 20
465.022914
 11
2162.792110
 21
465.022914
  0
LINE
  8
CSLAYER1
  6
CONTINUOUS
 62
     5
 10
2168.931638
 20
471.373767
 11
2162.792110
 21
471.373767
  0
LINE
  8
CSLAYER1
  6
CONTINUOUS
 62
     5
 10
2173.334201
 20
468.719510
 11
2169.792110
 21
468.719510
  0
LINE
  8
CSLAYER1
  6
CONTINUOUS
 62
     5
 10
2173.334201
 20
468.073133
 11
2171.727839
 21
468.073133
  0
LINE
  8
CSLAYER1
  6
CONTINUOUS
 62
     5
 10
2171.727839
 20
468.719510
 11
2171.727839
 21
448.047262
  0
LINE
  8
CSLAYER1
  6
CONTINUOUS
 62
     5
 10
2171.727839
 20
468.073133
 11
2170.592987
 21
468.719510
  0
LINE
  8
CSLAYER1
  6
CONTINUOUS
 62
     5
 10
2188.822543
 20
445.393005
 11
2174.194673
 21
445.393005
  0
LINE
  8
CSLAYER1
  6
CONTINUOUS
 62
     5
 10
2189.683015
 20
446.883386
 11
2188.822543
 21
445.393005
  0
LINE
  8
CSLAYER1
  6
CONTINUOUS
 62
     5
 10
2173.334201
 20
446.883386
 11
2174.194673
 21
445.393005
  0
LINE
  8
CSLAYER1
  6
CONTINUOUS
 62
     5
 10
2188.822543
 20
451.743858
 11
2174.194673
 21
451.743858
  0
ARC
  8
CSLAYER1
  6
CONTINUOUS
 62
     5
 10
2183.551422
 20
448.568432
 40
6.153702
 50
-23.174644
 51
31.065581
  0
ARC
  8
CSLAYER1
  6
CONTINUOUS
 62
     5
 10
2179.465794
 20
448.568432
 40
6.153702
 50
148.934419
 51
203.174644
  0
LINE
  8
CSLAYER1
  6
CONTINUOUS
 62
     5
 10
2189.792110
 20
446.883386
 11
2189.683015
 21
446.883386
  0
ARC
  8
CSLAYER1
  6
CONTINUOUS
 62
     5
 10
2189.792110
 20
449.883386
 40
3.000000
 50
270.000000
 51
360.000000
  0
LINE
  8
CSLAYER1
  6
CONTINUOUS
 62
     5
 10
2169.792110
 20
446.883386
 11
2168.931638
 21
445.393005
  0
ARC
  8
CSLAYER1
  6
CONTINUOUS
 62
     5
 10
2163.660517
 20
448.568432
 40
6.153702
 50
-23.174644
 51
31.065581
  0
LINE
  8
CSLAYER1
  6
CONTINUOUS
 62
     5
 10
2168.931638
 20
451.743858
 11
2162.792110
 21
451.743858
  0
LINE
  8
CSLAYER1
  6
CONTINUOUS
 62
     5
 10
2168.931638
 20
445.393005
 11
2162.792110
 21
445.393005
  0
LINE
  8
CSLAYER1
  6
CONTINUOUS
 62
     5
 10
2173.334201
 20
448.047262
 11
2169.792110
 21
448.047262
  0
LINE
  8
CSLAYER1
  6
CONTINUOUS
 62
     5
 10
2173.334201
 20
448.693640
 11
2171.727839
 21
448.693640
  0
LINE
  8
CSLAYER1
  6
CONTINUOUS
 62
     5
 10
2171.727839
 20
448.693640
 11
2170.592987
 21
448.047262
  0
LINE
  8
CSLAYER1
  6
CENTER
 62
     5
 10
2226.548131
 20
458.383386
 11
2162.792110
 21
458.383386
  0
LINE
  8
CSLAYER1
  6
CONTINUOUS
 62
     5
 10
2226.360090
 20
462.183386
 11
2192.792110
 21
462.183386
  0
LINE
  8
CSLAYER1
  6
CONTINUOUS
 62
     5
 10
2227.676378
 20
454.583386
 11
2192.792110
 21
454.583386
  0
INSERT
  8
CSLAYER1
  2
BLKF0004
 10
0.0
 20
0.0
 30
0.0
  0
LINE
  8
CSLAYER1
  6
CONTINUOUS
 62
     3
 10
2023.392110
 20
476.583386
 11
2021.592110
 21
476.583386
  0
LINE
  8
CSLAYER1
  6
CONTINUOUS
 62
     5
 10
2162.792110
 20
476.583386
 11
2023.392110
 21
476.583386
  0
TEXT
  8
CSLAYER2
 62
     5
 10
2956.042480
 20
1885.517944
 40
40.000000
 41
0.822857
  1
GLI-500-0512
 50
0.000000
 51
0.000000
  7
EASYDRAW_FONT
 72
     5
 11
3340.042480
 21
1885.517944
  0
TEXT
  8
CSLAYER1
 62
     4
 10
2680.138672
 20
1257.596191
 40
40.000000
 41
1.036364
  1
操作方式
 50
0.000000
 51
0.000000
  7
EASYDRAW_FONT
 72
     5
 11
2832.138672
 21
1257.596191
  0
TEXT
  8
CSLAYER1
 62
     4
 10
2961.780273
 20
1252.302734
 40
40.000000
 41
1.020000
  1
フットスイッチ
 50
0.000000
 51
0.000000
  7
EASYDRAW_FONT
 72
     5
 11
3233.780273
 21
1252.302734
  0
LINE
  8
CSLAYER1
  6
CONTINUOUS
 62
     5
 10
3391.269391
 20
1245.569971
 11
2670.396874
 21
1245.569971
  0
LINE
  8
CSLAYER1
  6
CONTINUOUS
 62
     5
 10
3391.269391
 20
1181.569972
 11
2670.396874
 21
1181.569972
  0
TEXT
  8
CSLAYER1
 62
     4
 10
2681.569824
 20
1191.523438
 40
40.000000
 41
0.872727
  1
モーター
 50
0.000000
 51
0.000000
  7
EASYDRAW_FONT
 72
     5
 11
2809.569824
 21
1191.523438
  0
LINE
  8
CSLAYER1
  6
CONTINUOUS
 62
     5
 10
3391.269391
 20
1117.569974
 11
2670.396874
 21
1117.569974
  0
LINE
  8
CSLAYER1
  6
CONTINUOUS
 62
     5
 10
3391.269391
 20
989.569977
 11
2668.258372
 21
989.569977
  0
LINE
  8
CSLAYER1
  6
CONTINUOUS
 62
     5
 10
3391.269391
 20
925.569979
 11
2670.396874
 21
925.569979
  0
LINE
  8
CSLAYER1
  6
CONTINUOUS
 62
     5
 10
3391.269391
 20
861.569980
 11
2670.396874
 21
861.569980
  0
TEXT
  8
CSLAYER1
 62
     4
 10
2684.151367
 20
872.691833
 40
40.000000
 41
0.857143
  1
自  　重
 50
0.000000
 51
0.000000
  7
EASYDRAW_FONT
 72
     5
 11
2844.151367
 21
872.691833
  0
TEXT
  8
CSLAYER1
 62
     4
 10
2687.100586
 20
808.620789
 40
40.000000
 41
0.847059
  1
塗　装　色 
 50
0.000000
 51
0.000000
  7
EASYDRAW_FONT
 72
     5
 11
2879.100586
 21
808.620789
  0
TEXT
  8
CSLAYER1
 62
     4
 10
2912.676270
 20
1192.440430
 40
40.000000
 41
0.819512
  1
３相ＡＣ２００Ｖ、0.4ＫＷ
 50
0.000000
 51
0.000000
  7
EASYDRAW_FONT
 72
     5
 11
3360.676270
 21
1192.440430
  0
TEXT
  8
CSLAYER1
 62
     4
 10
3043.659668
 20
1128.596924
 40
40.000000
 41
0.840000
  1
長サ  ４ ｍ
 50
0.000000
 51
0.000000
  7
EASYDRAW_FONT
 72
     5
 11
3267.659668
 21
1128.596924
  0
TEXT
  8
CSLAYER1
 62
     3
 10
3156.299316
 20
874.591248
 40
40.000000
 41
0.847059
  1
１５４　Ｋｇ
 50
0.000000
 51
0.000000
  7
EASYDRAW_FONT
 72
     5
 11
3348.299316
 21
874.591248
  0
LINE
  8
CSLAYER1
  6
CONTINUOUS
 62
     5
 10
3391.269391
 20
1053.569976
 11
2670.396874
 21
1053.569976
  0
TEXT
  8
CSLAYER1
 62
     4
 10
2682.486084
 20
1128.206299
 40
40.000000
 41
0.942857
  1
電源コード
 50
0.000000
 51
0.000000
  7
EASYDRAW_FONT
 72
     5
 11
2858.486084
 21
1128.206299
  0
TEXT
  8
CSLAYER1
 62
     4
 10
2682.915055
 20
1059.084848
 40
47.730206
 41
0.593339
  1
昇降時間 ２２秒（50HZ） １８秒(60HZ)
 50
0.000000
 51
0.000000
  7
EASYDRAW_FONT
 72
     5
 11
3353.160141
 21
1059.084848
  0
TEXT
  8
CSLAYER1
 62
     4
 10
2684.215820
 20
933.641541
 40
40.000000
 41
0.912766
  1
上昇端、下降端リミットスイッチ付
 50
0.000000
 51
0.000000
  7
EASYDRAW_FONT
 72
     5
 11
3256.215820
 21
933.641541
  0
TEXT
  8
CSLAYER1
 62
     4
 10
2686.062555
 20
998.305164
 40
45.879784
 41
0.605080
  1
最大使用頻度８０回／時間・最大起動頻度１０回／分
 50
0.000000
 51
0.000000
  7
EASYDRAW_FONT
 72
     5
 11
3343.071234
 21
998.305164
  0
LINE
  8
CSLAYER1
  6
CONTINUOUS
 62
     5
 10
3391.269391
 20
1302.901975
 11
2670.396874
 21
1302.901975
  0
TEXT
  8
CSLAYER1
 62
     4
 10
2880.225098
 20
1314.635742
 40
40.000000
 41
0.825000
  1
マグネットスイッチ制御
 50
0.000000
 51
0.000000
  7
EASYDRAW_FONT
 72
     5
 11
3232.225098
 21
1314.635742
  0
TEXT
  8
CSLAYER1
 62
     4
 10
2683.837891
 20
1312.646484
 40
40.000000
 41
0.872727
  1
制御方式
 50
0.000000
 51
0.000000
  7
EASYDRAW_FONT
 72
     5
 11
2811.837891
 21
1312.646484
  0
INSERT
  8
CSLAYER1
  2
BLKF0005
 10
0.0
 20
0.0
 30
0.0
  0
LINE
  8
CSLAYER1
  6
CONTINUOUS
 62
     5
 10
3391.269391
 20
797.569982
 11
2670.396874
 21
797.569982
  0
TEXT
  8
CSLAYER1
 62
     4
 10
2995.698730
 20
808.241211
 40
40.000000
 41
0.926087
  1
　１０Ｒ４／１３
 50
0.000000
 51
0.000000
  7
EASYDRAW_FONT
 72
     5
 11
3279.698730
 21
808.241211
  0
TEXT
  8
CSLAYER1
 62
     5
 10
2680.138672
 20
1826.928223
 40
40.000000
 41
1.036364
  1
積載荷重
 50
0.000000
 51
0.000000
  7
EASYDRAW_FONT
 72
     5
 11
2832.138672
 21
1826.928223
  0
LINE
  8
CSLAYER1
  6
CONTINUOUS
 62
     5
 10
2750.589183
 20
2151.377971
 11
2613.950013
 21
2000.524699
  0
LINE
  8
CSLAYER1
  6
CONTINUOUS
 62
     5
 10
2613.950013
 20
2000.524699
 11
2627.648749
 21
2027.214484
  0
LINE
  8
CSLAYER1
  6
CONTINUOUS
 62
     5
 10
2613.950013
 20
2000.524699
 11
2639.158359
 21
2016.789364
  0
LINE
  8
CSLAYER1
  6
CONTINUOUS
 62
     5
 10
2632.897715
 20
2287.959745
 11
2555.126355
 21
2130.665515
  0
LINE
  8
CSLAYER1
  6
CONTINUOUS
 62
     5
 10
2555.126355
 20
2130.665515
 11
2561.009505
 21
2160.083002
  0
LINE
  8
CSLAYER1
  6
CONTINUOUS
 62
     5
 10
2555.126355
 20
2130.665515
 11
2574.930056
 21
2153.200231
  0
TEXT
  8
CSLAYER1
 62
     5
 10
2761.577148
 20
2056.558105
 40
40.000000
 41
1.020000
  1
コード長サ２ｍ
 50
360.000000
 51
0.000000
  7
EASYDRAW_FONT
 72
     5
 11
3033.577148
 21
2056.558105
  0
ENDSEC
  0
EOF
