  0
SECTION
  2
HEADER
  9
$ACADVER
  1
AC1006
  9
$INSBASE
 10
-1234.873779
 20
3528.517915
 30
0.0
  9
$EXTMIN
 10
-1234.873779
 20
3528.517915
  9
$EXTMAX
 10
4225.126221
 20
7383.517915
  9
$LIMMIN
 10
-1234.873779
 20
3528.517915
  9
$LIMMAX
 10
4225.126221
 20
7383.517915
  9
$VIEWCTR
 10
1495.126221
 20
5456.017915
  9
$VIEWSIZE
 40
3855.000000
  9
$SNAPMODE
 70
     0
  9
$SNAPUNIT
 10
1.0
 20
1.0
  9
$SNAPBASE
 10
0.0
 20
0.0
  9
$SNAPANG
 50
0.0
  9
$SNAPSTYLE
 70
     0
  9
$SNAPISOPAIR
 70
     0
  9
$GRIDMODE
 70
     0
  9
$GRIDUNIT
 10
0.0
 20
0.0
  9
$ORTHOMODE
 70
     0
  9
$REGENMODE
 70
     1
  9
$FILLMODE
 70
     1
  9
$QTEXTMODE
 70
     0
  9
$DRAGMODE
 70
     2
  9
$LTSCALE
 40
15.000000
  9
$OSMODE
 70
     0
  9
$ATTMODE
 70
     1
  9
$TEXTSIZE
 40
0.2
  9
$TRACEWID
 40
0.05
  9
$TEXTSTYLE
  7
STANDARD
  9
$CLAYER
  8
CSLAYER1
  9
$CELTYPE
  6
BYLAYER
  9
$CECOLOR
 62
   256
  9
$DIMSCALE
 40
1.0
  9
$DIMASZ
 40
0.18
  9
$DIMEXO
 40
0.0625
  9
$DIMDLI
 40
0.38
  9
$DIMRND
 40
0.0
  9
$DIMDLE
 40
0.0
  9
$DIMEXE
 40
0.18
  9
$DIMTP
 40
0.0
  9
$DIMTM
 40
0.0
  9
$DIMTXT
 40
0.18
  9
$DIMCEN
 40
0.09
  9
$DIMTSZ
 40
0.0
  9
$DIMTOL
 70
     0
  9
$DIMLIM
 70
     0
  9
$DIMTIH
 70
     1
  9
$DIMTOH
 70
     1
  9
$DIMSE1
 70
     0
  9
$DIMSE2
 70
     0
  9
$DIMTAD
 70
     0
  9
$DIMZIN
 70
     0
  9
$DIMBLK
  1

  9
$LUNITS
 70
     2
  9
$LUPREC
 70
     4
  9
$AXISMODE
 70
     0
  9
$AXISUNIT
 10
0.0
 20
0.0
  9
$SKETCHINC
 40
0.1
  9
$FILLETRAD
 40
0.0
  9
$AUNITS
 70
     0
  9
$AUPREC
 70
     0
  9
$MENU
  1
ACAD
  9
$ELEVATION
 40
0.0
  9
$THICKNESS
 40
0.0
  9
$VIEWDIR
 10
0.0
 20
0.0
 30
1.0
  9
$LIMCHECK
 70
     0
  9
$BLIPMODE
 70
     1
  9
$CHAMFERA
 40
0.0
  9
$CHAMFERB
 40
0.0
  9
$FASTZOOM
 70
     1
  9
$SKPOLY
 70
     0
  9
$TDCREATE
 40
2457497.000000
  9
$TDUPDATE
 40
2457497.000000
  9
$TDINDWG
 40
0.0
  9
$TDUSRTIMER
 40
0.0
  9
$USRTIMER
 70
     1
  9
$ANGBASE
 50
0.0
  9
$ANGDIR
 70
     0
  9
$PDMODE
 70
     0
  9
$PDSIZE
 40
0.0
  9
$PLINEWID
 40
0.0
  9
$COORDS
 70
     0
  9
$USERI1
 70
     0
  9
$USERI2
 70
     0
  9
$USERI3
 70
     0
  9
$USERI4
 70
     0
  9
$USERI5
 70
     0
  9
$USERR1
 40
0.0
  9
$USERR2
 40
0.0
  9
$USERR3
 40
0.0
  9
$USERR4
 40
0.0
  9
$USERR5
 40
0.0
  0
ENDSEC
  0
SECTION
  2
TABLES
  0
TABLE
  2
LTYPE
 70
     9
  0
LTYPE
  2
CONTINUOUS
 70
    64
  3
Solid line
 72
    65
 73
     0
 40
0.0
  0
LTYPE
  2
DASHED
 70
    64
  3
__ __ __ __ __ __ __ __ __ __ __ __ __ __ __
 72
    65
 73
     2
 40
0.75
 49
0.5
 49
-0.25
  0
LTYPE
  2
HIDDEN
 70
    64
  3
_ _ _ _ _ _ _ _ _ _ _ _ _ _ _ _ _ _ _ _ _ _ _
 72
    65
 73
     2
 40
0.375
 49
0.25
 49
-0.125
  0
LTYPE
  2
DOT
 70
    64
  3
...............................................
 72
    65
 73
     2
 40
0.25
 49
0.0
 49
-0.25
  0
LTYPE
  2
DASHDOT
 70
    64
  3
__ . __ . __ . __ . __ . __ . __ . __ . __ . __
 72
    65
 73
     4
 40
1.0
 49
0.5
 49
-0.25
 49
0.0
 49
-0.25
  0
LTYPE
  2
DIVIDE
 70
    64
  3
__ . . __ . . __ . . __ . . __ . . __ . . __
 72
    65
 73
     6
 40
1.25
 49
0.5
 49
-0.25
 49
0.0
 49
-0.25
 49
0.0
 49
-0.25
  0
LTYPE
  2
CENTER
 70
    64
  3
____ _ ____ _ ____ _ ____ _ ____ _ ____ _ ____ 
 72
    65
 73
     4
 40
2.0
 49
1.25
 49
-0.25
 49
0.25
 49
-0.25
  0
LTYPE
  2
PHANTOM
 70
    64
  3
______  __  __  ______  __  __  ______  __  __ 
 72
    65
 73
     6
 40
2.5
 49
1.25
 49
-0.25
 49
0.25
 49
-0.25
 49
0.25
 49
-0.25
  0
LTYPE
  2
BORDER
 70
    64
  3
__ __ . __ __ . __ __ . __ __ . __ __ . __ __ .
 72
    65
 73
     6
 40
1.75
 49
0.5
 49
-0.25
 49
0.5
 49
-0.25
 49
0.0
 49
-0.25
  0
ENDTAB
  0
TABLE
  2
LAYER
 70
    16
  0
LAYER
  2
CSLAYER1
 70
    64
 62
     7
  6
CONTINUOUS
  0
LAYER
  2
CSLAYER2
 70
    64
 62
     7
  6
CONTINUOUS
  0
LAYER
  2
CSLAYER3
 70
    64
 62
     7
  6
CONTINUOUS
  0
LAYER
  2
CSLAYER4
 70
    64
 62
     7
  6
CONTINUOUS
  0
LAYER
  2
CSLAYER5
 70
    64
 62
     7
  6
CONTINUOUS
  0
LAYER
  2
CSLAYER6
 70
    64
 62
     7
  6
CONTINUOUS
  0
LAYER
  2
CSLAYER7
 70
    64
 62
     7
  6
CONTINUOUS
  0
LAYER
  2
CSLAYER8
 70
    64
 62
     7
  6
CONTINUOUS
  0
LAYER
  2
CSLAYER9
 70
    64
 62
     7
  6
CONTINUOUS
  0
LAYER
  2
CSLAYER10
 70
    64
 62
     7
  6
CONTINUOUS
  0
LAYER
  2
CSLAYER11
 70
    64
 62
     7
  6
CONTINUOUS
  0
LAYER
  2
CSLAYER12
 70
    64
 62
     7
  6
CONTINUOUS
  0
LAYER
  2
CSLAYER13
 70
    64
 62
     7
  6
CONTINUOUS
  0
LAYER
  2
CSLAYER14
 70
    64
 62
     7
  6
CONTINUOUS
  0
LAYER
  2
CSLAYER15
 70
    64
 62
     7
  6
CONTINUOUS
  0
LAYER
  2
CSLAYER16
 70
    64
 62
     7
  6
CONTINUOUS
  0
ENDTAB
  0
TABLE
  2
STYLE
 70
     1
  0
STYLE
  2
EASYDRAW_FONT
 70
     0
 40
1.0
 41
1.0
 50
0.0
 71
     0
 42
1.0
  3
monotxt
  4
bigfont
  0
ENDTAB
  0
TABLE
  2
VIEW
 70
     0
  0
ENDTAB
  0
ENDSEC
  0
SECTION
  2
BLOCKS
  0
BLOCK
  8
CSLAYER1
  2
*D0000
 70
    65
 10
0.0
 20
0.0
 30
0.0
  0
TEXT
  8
CSLAYER1
 62
     3
 10
2206.556152
 20
2288.003174
 40
60.000000
 41
0.818182
  1
1050
 50
0.000000
 51
0.000000
  7
EASYDRAW_FONT
 72
     5
 11
2386.556152
 21
2288.003174
  0
LINE
  8
CSLAYER1
  6
CONTINUOUS
 62
     5
 10
1771.555978
 20
2166.489582
 11
1771.555978
 21
2288.002951
  0
LINE
  8
CSLAYER1
  6
CONTINUOUS
 62
     5
 10
2821.555978
 20
2166.489582
 11
2821.555978
 21
2288.002951
  0
LINE
  8
CSLAYER1
  6
CONTINUOUS
 62
     5
 10
1771.555978
 20
2273.002951
 11
2821.555978
 21
2273.002951
  0
LINE
  8
CSLAYER1
  6
CONTINUOUS
 62
     5
 10
1771.555978
 20
2273.002951
 11
1815.022640
 21
2284.649808
  0
LINE
  8
CSLAYER1
  6
CONTINUOUS
 62
     5
 10
1771.555978
 20
2273.002951
 11
1815.022640
 21
2261.356094
  0
LINE
  8
CSLAYER1
  6
CONTINUOUS
 62
     5
 10
2821.555978
 20
2273.002951
 11
2778.089316
 21
2284.649808
  0
LINE
  8
CSLAYER1
  6
CONTINUOUS
 62
     5
 10
2821.555978
 20
2273.002951
 11
2778.089316
 21
2261.356094
  0
ENDBLK
  8
0
  0
BLOCK
  8
CSLAYER1
  2
*D0001
 70
    65
 10
0.0
 20
0.0
 30
0.0
  0
TEXT
  8
CSLAYER1
 62
     3
 10
2960.567383
 20
651.733215
 40
60.000000
 41
0.843750
  1
400
 50
90.000000
 51
0.000000
  7
EASYDRAW_FONT
 72
     5
 11
2960.567383
 21
786.733215
  0
LINE
  8
CSLAYER1
  6
CONTINUOUS
 62
     5
 10
2836.555978
 20
918.333098
 11
2990.567153
 21
918.333098
  0
LINE
  8
CSLAYER1
  6
CONTINUOUS
 62
     5
 10
2975.567153
 20
520.133098
 11
2975.567153
 21
918.333098
  0
LINE
  8
CSLAYER1
  6
CONTINUOUS
 62
     5
 10
2975.567153
 20
520.133098
 11
2963.920296
 21
563.599760
  0
LINE
  8
CSLAYER1
  6
CONTINUOUS
 62
     5
 10
2975.567153
 20
520.133098
 11
2987.214010
 21
563.599760
  0
LINE
  8
CSLAYER1
  6
CONTINUOUS
 62
     5
 10
2975.567153
 20
918.333098
 11
2963.920296
 21
874.866436
  0
LINE
  8
CSLAYER1
  6
CONTINUOUS
 62
     5
 10
2975.567153
 20
918.333098
 11
2987.214010
 21
874.866436
  0
ENDBLK
  8
0
  0
BLOCK
  8
CSLAYER1
  2
*D0002
 70
    65
 10
0.0
 20
0.0
 30
0.0
  0
TEXT
  8
CSLAYER1
 62
     3
 10
2960.567383
 20
1444.911499
 40
60.000000
 41
0.818182
  1
1200
 50
90.000000
 51
0.000000
  7
EASYDRAW_FONT
 72
     5
 11
2960.567383
 21
1624.911499
  0
LINE
  8
CSLAYER1
  6
CONTINUOUS
 62
     5
 10
2836.555978
 20
2151.489582
 11
3130.103026
 21
2151.489582
  0
LINE
  8
CSLAYER1
  6
CONTINUOUS
 62
     5
 10
2975.567153
 20
918.333098
 11
2975.567153
 21
2151.489582
  0
LINE
  8
CSLAYER1
  6
CONTINUOUS
 62
     5
 10
2975.567153
 20
918.333098
 11
2963.920296
 21
961.799760
  0
LINE
  8
CSLAYER1
  6
CONTINUOUS
 62
     5
 10
2975.567153
 20
918.333098
 11
2987.214010
 21
961.799760
  0
LINE
  8
CSLAYER1
  6
CONTINUOUS
 62
     5
 10
2975.567153
 20
2151.489582
 11
2963.920296
 21
2108.022920
  0
LINE
  8
CSLAYER1
  6
CONTINUOUS
 62
     5
 10
2975.567153
 20
2151.489582
 11
2987.214010
 21
2108.022920
  0
ENDBLK
  8
0
  0
BLOCK
  8
CSLAYER1
  2
*D0003
 70
    65
 10
0.0
 20
0.0
 30
0.0
  0
TEXT
  8
CSLAYER1
 62
     3
 10
3100.103271
 20
1245.811890
 40
60.000000
 41
0.818182
  1
1600
 50
90.000000
 51
0.000000
  7
EASYDRAW_FONT
 72
     5
 11
3100.103271
 21
1425.811890
  0
LINE
  8
CSLAYER1
  6
CONTINUOUS
 62
     5
 10
3115.103026
 20
520.133098
 11
3115.103026
 21
2151.489582
  0
LINE
  8
CSLAYER1
  6
CONTINUOUS
 62
     5
 10
3115.103026
 20
520.133098
 11
3103.456169
 21
563.599760
  0
LINE
  8
CSLAYER1
  6
CONTINUOUS
 62
     5
 10
3115.103026
 20
520.133098
 11
3126.749883
 21
563.599760
  0
LINE
  8
CSLAYER1
  6
CONTINUOUS
 62
     5
 10
3115.103026
 20
2151.489582
 11
3103.456169
 21
2108.022920
  0
LINE
  8
CSLAYER1
  6
CONTINUOUS
 62
     5
 10
3115.103026
 20
2151.489582
 11
3126.749883
 21
2108.022920
  0
ENDBLK
  8
0
  0
BLOCK
  8
CSLAYER1
  2
*D0004
 70
    65
 10
0.0
 20
0.0
 30
0.0
  0
TEXT
  8
CSLAYER1
 62
     3
 10
2977.964844
 20
2834.187256
 40
60.000000
 41
0.843750
  1
500
 50
90.000000
 51
0.000000
  7
EASYDRAW_FONT
 72
     5
 11
2977.964844
 21
2969.187256
  0
LINE
  8
CSLAYER1
  6
CONTINUOUS
 62
     5
 10
2836.555978
 20
2651.687486
 11
3007.964552
 21
2651.687486
  0
LINE
  8
CSLAYER1
  6
CONTINUOUS
 62
     5
 10
2836.555978
 20
3151.687486
 11
3007.964552
 21
3151.687486
  0
LINE
  8
CSLAYER1
  6
CONTINUOUS
 62
     5
 10
2992.964552
 20
2651.687486
 11
2992.964552
 21
3151.687486
  0
LINE
  8
CSLAYER1
  6
CONTINUOUS
 62
     5
 10
2992.964552
 20
2651.687486
 11
2981.317695
 21
2695.154148
  0
LINE
  8
CSLAYER1
  6
CONTINUOUS
 62
     5
 10
2992.964552
 20
2651.687486
 11
3004.611409
 21
2695.154148
  0
LINE
  8
CSLAYER1
  6
CONTINUOUS
 62
     5
 10
2992.964552
 20
3151.687486
 11
2981.317695
 21
3108.220824
  0
LINE
  8
CSLAYER1
  6
CONTINUOUS
 62
     5
 10
2992.964552
 20
3151.687486
 11
3004.611409
 21
3108.220824
  0
ENDBLK
  8
0
  0
BLOCK
  8
CSLAYER1
  2
EASYDRAWDIM0000
 70
   64
 10
0.0
 20
0.0
 30
0.0
  0
TEXT
  8
CSLAYER1
 62
     3
 10
1156.707474
 20
301.430969
 40
50.470764
 41
0.839416
  1
アンカーボルト取付穴
 50
0.000000
 51
0.000000
  7
EASYDRAW_FONT
 72
     5
 11
1566.245361
 21
301.430969
  0
ENDBLK
  8
0
  0
BLOCK
  8
CSLAYER1
  2
*D0005
 70
    65
 10
0.0
 20
0.0
 30
0.0
  0
TEXT
  8
CSLAYER1
 62
     3
 10
2004.256348
 20
404.806946
 40
60.000000
 41
0.843750
  1
500
 50
0.000000
 51
0.000000
  7
EASYDRAW_FONT
 72
     5
 11
2139.256348
 21
404.806946
  0
LINE
  8
CSLAYER1
  6
CONTINUOUS
 62
     5
 10
2321.755978
 20
505.133098
 11
2321.755978
 21
374.807138
  0
LINE
  8
CSLAYER1
  6
CONTINUOUS
 62
     5
 10
1821.755978
 20
389.807138
 11
2321.755978
 21
389.807138
  0
LINE
  8
CSLAYER1
  6
CONTINUOUS
 62
     5
 10
1821.755978
 20
389.807138
 11
1865.222640
 21
401.453995
  0
LINE
  8
CSLAYER1
  6
CONTINUOUS
 62
     5
 10
1821.755978
 20
389.807138
 11
1865.222640
 21
378.160281
  0
LINE
  8
CSLAYER1
  6
CONTINUOUS
 62
     5
 10
2321.755978
 20
389.807138
 11
2278.289316
 21
401.453995
  0
LINE
  8
CSLAYER1
  6
CONTINUOUS
 62
     5
 10
2321.755978
 20
389.807138
 11
2278.289316
 21
378.160281
  0
ENDBLK
  8
0
  0
BLOCK
  8
CSLAYER1
  2
*D0006
 70
    65
 10
0.0
 20
0.0
 30
0.0
  0
TEXT
  8
CSLAYER1
 62
     3
 10
1665.559448
 20
306.135559
 40
60.000000
 41
0.900000
  1
50
 50
0.000000
 51
0.000000
  7
EASYDRAW_FONT
 72
     5
 11
1755.559448
 21
306.135559
  0
LINE
  8
CSLAYER1
  6
CONTINUOUS
 62
     5
 10
1771.755978
 20
505.133098
 11
1771.755978
 21
245.143621
  0
LINE
  8
CSLAYER1
  6
CONTINUOUS
 62
     5
 10
1821.755978
 20
505.133098
 11
1821.755978
 21
374.807138
  0
LINE
  8
CSLAYER1
  6
CONTINUOUS
 62
     5
 10
1771.755978
 20
389.807138
 11
1821.755978
 21
389.807138
  0
ENDBLK
  8
0
  0
BLOCK
  8
CSLAYER1
  2
*D0007
 70
    65
 10
0.0
 20
0.0
 30
0.0
  0
TEXT
  8
CSLAYER1
 62
     3
 10
2206.656250
 20
275.143860
 40
60.000000
 41
0.818182
  1
1050
 50
0.000000
 51
0.000000
  7
EASYDRAW_FONT
 72
     5
 11
2386.656250
 21
275.143860
  0
LINE
  8
CSLAYER1
  6
CONTINUOUS
 62
     5
 10
2821.555978
 20
505.133098
 11
2821.555978
 21
245.143621
  0
LINE
  8
CSLAYER1
  6
CONTINUOUS
 62
     5
 10
1771.755978
 20
260.143621
 11
2821.555978
 21
260.143621
  0
LINE
  8
CSLAYER1
  6
CONTINUOUS
 62
     5
 10
1771.755978
 20
260.143621
 11
1815.222640
 21
271.790478
  0
LINE
  8
CSLAYER1
  6
CONTINUOUS
 62
     5
 10
1771.755978
 20
260.143621
 11
1815.222640
 21
248.496764
  0
LINE
  8
CSLAYER1
  6
CONTINUOUS
 62
     5
 10
2821.555978
 20
260.143621
 11
2778.089316
 21
271.790478
  0
LINE
  8
CSLAYER1
  6
CONTINUOUS
 62
     5
 10
2821.555978
 20
260.143621
 11
2778.089316
 21
248.496764
  0
ENDBLK
  8
0
  0
BLOCK
  8
CSLAYER1
  2
EASYDRAWDIM0001
 70
   64
 10
0.0
 20
0.0
 30
0.0
  0
TEXT
  8
CSLAYER1
 62
     3
 10
1161.070313
 20
372.676086
 40
60.000000
 41
0.803571
  1
4-%%c13
 50
0.000000
 51
0.000000
  7
EASYDRAW_FONT
 72
     5
 11
1386.070313
 21
372.676086
  0
LINE
  8
CSLAYER1
  6
CONTINUOUS
 62
     5
 10
1821.755978
 20
520.133098
 11
1609.938874
 21
363.027340
  0
LINE
  8
CSLAYER1
  6
CONTINUOUS
 62
     5
 10
1821.755978
 20
520.133098
 11
1793.782485
 21
484.884216
  0
LINE
  8
CSLAYER1
  6
CONTINUOUS
 62
     5
 10
1821.755978
 20
520.133098
 11
1779.905782
 21
503.593417
  0
LINE
  8
CSLAYER1
  6
CONTINUOUS
 62
     5
 10
1609.938874
 20
363.027340
 11
1140.763738
 21
363.027340
  0
ENDBLK
  8
0
  0
BLOCK
  8
CSLAYER1
  2
*D0008
 70
    65
 10
0.0
 20
0.0
 30
0.0
  0
TEXT
  8
CSLAYER1
 62
     3
 10
574.474548
 20
238.291809
 40
60.000000
 41
0.843750
  1
500
 50
0.000000
 51
0.000000
  7
EASYDRAW_FONT
 72
     5
 11
709.474548
 21
238.291809
  0
LINE
  8
CSLAYER1
  6
CONTINUOUS
 62
     5
 10
391.974561
 20
505.133098
 11
391.974561
 21
208.291893
  0
LINE
  8
CSLAYER1
  6
CONTINUOUS
 62
     5
 10
891.974561
 20
505.133098
 11
891.974561
 21
208.291893
  0
LINE
  8
CSLAYER1
  6
CONTINUOUS
 62
     5
 10
391.974561
 20
223.291893
 11
891.974561
 21
223.291893
  0
LINE
  8
CSLAYER1
  6
CONTINUOUS
 62
     5
 10
391.974561
 20
223.291893
 11
435.441223
 21
234.938750
  0
LINE
  8
CSLAYER1
  6
CONTINUOUS
 62
     5
 10
391.974561
 20
223.291893
 11
435.441223
 21
211.645036
  0
LINE
  8
CSLAYER1
  6
CONTINUOUS
 62
     5
 10
891.974561
 20
223.291893
 11
848.507898
 21
234.938750
  0
LINE
  8
CSLAYER1
  6
CONTINUOUS
 62
     5
 10
891.974561
 20
223.291893
 11
848.507898
 21
211.645036
  0
ENDBLK
  8
0
  0
BLOCK
  8
CSLAYER1
  2
*D0009
 70
    65
 10
0.0
 20
0.0
 30
0.0
  0
TEXT
  8
CSLAYER1
 62
     3
 10
574.762451
 20
384.847961
 40
60.000000
 41
0.843750
  1
440
 50
0.000000
 51
0.000000
  7
EASYDRAW_FONT
 72
     5
 11
709.762451
 21
384.847961
  0
LINE
  8
CSLAYER1
  6
CONTINUOUS
 62
     5
 10
421.974561
 20
373.805300
 11
861.974561
 21
373.805300
  0
LINE
  8
CSLAYER1
  6
CONTINUOUS
 62
     5
 10
421.974561
 20
373.805300
 11
465.441223
 21
385.452157
  0
LINE
  8
CSLAYER1
  6
CONTINUOUS
 62
     5
 10
421.974561
 20
373.805300
 11
465.441223
 21
362.158443
  0
LINE
  8
CSLAYER1
  6
CONTINUOUS
 62
     5
 10
861.974561
 20
373.805300
 11
818.507898
 21
385.452157
  0
LINE
  8
CSLAYER1
  6
CONTINUOUS
 62
     5
 10
861.974561
 20
373.805300
 11
818.507898
 21
362.158443
  0
ENDBLK
  8
0
  0
BLOCK
  8
CSLAYER1
  2
*D0010
 70
    65
 10
0.0
 20
0.0
 30
0.0
  0
TEXT
  8
CSLAYER1
 62
     3
 10
1004.104858
 20
583.766418
 40
60.000000
 41
1.125000
  1
6
 50
90.000000
 51
0.000000
  7
EASYDRAW_FONT
 72
     5
 11
1004.104858
 21
628.766418
  0
LINE
  8
CSLAYER1
  6
CONTINUOUS
 62
     5
 10
906.974561
 20
520.133098
 11
988.735379
 21
520.133098
  0
LINE
  8
CSLAYER1
  6
CONTINUOUS
 62
     5
 10
902.294171
 20
526.133098
 11
988.735379
 21
526.133098
  0
LINE
  8
CSLAYER1
  6
CONTINUOUS
 62
     5
 10
973.735379
 20
520.133098
 11
973.735379
 21
445.133098
  0
LINE
  8
CSLAYER1
  6
CONTINUOUS
 62
     5
 10
973.735379
 20
520.133098
 11
962.088522
 21
476.666436
  0
LINE
  8
CSLAYER1
  6
CONTINUOUS
 62
     5
 10
973.735379
 20
520.133098
 11
985.382236
 21
476.666436
  0
LINE
  8
CSLAYER1
  6
CONTINUOUS
 62
     5
 10
973.735379
 20
526.133098
 11
973.735379
 21
576.969228
  0
LINE
  8
CSLAYER1
  6
CONTINUOUS
 62
     5
 10
973.735379
 20
526.133098
 11
962.088522
 21
569.599760
  0
LINE
  8
CSLAYER1
  6
CONTINUOUS
 62
     5
 10
973.735379
 20
526.133098
 11
985.382236
 21
569.599760
  0
LINE
  8
CSLAYER1
  6
CONTINUOUS
 62
     5
 10
973.735379
 20
520.133098
 11
973.735379
 21
526.133098
  0
ENDBLK
  8
0
  0
BLOCK
  8
CSLAYER1
  2
BLKF0000
 70
   64
 10
0.0
 20
0.0
 30
0.0
  0
ARC
  8
CSLAYER1
  6
CONTINUOUS
 62
     5
 10
4169.771750
 20
120.742239
 40
5.323837
 50
6.429109
 51
73.182034
  0
ARC
  8
CSLAYER1
  6
CONTINUOUS
 62
     5
 10
4164.580294
 20
119.004650
 40
10.361631
 50
310.517970
 51
330.092764
  0
ARC
  8
CSLAYER1
  6
CONTINUOUS
 62
     5
 10
4164.489320
 20
119.552927
 40
10.722482
 50
-32.205059
 51
9.585194
  0
ARC
  8
CSLAYER1
  6
CONTINUOUS
 62
     5
 10
4169.428412
 20
115.411429
 40
7.151272
 50
180.000000
 51
218.514150
  0
ARC
  8
CSLAYER1
  6
CONTINUOUS
 62
     5
 10
4167.498330
 20
114.395718
 40
5.022423
 50
222.781148
 51
319.406906
  0
ARC
  8
CSLAYER1
  6
CONTINUOUS
 62
     5
 10
4172.096793
 20
116.030557
 40
9.839152
 50
94.574282
 51
183.607718
  0
LINE
  8
CSLAYER1
  6
CONTINUOUS
 62
     5
 10
4192.262653
 20
108.355309
 11
4190.977098
 21
103.797435
  0
LINE
  8
CSLAYER1
  6
CONTINUOUS
 62
     5
 10
4194.950630
 20
138.156795
 11
4191.795178
 21
142.247195
  0
LINE
  8
CSLAYER1
  6
CONTINUOUS
 62
     5
 10
4191.795178
 20
142.247195
 11
4181.665147
 21
147.884063
  0
LINE
  8
CSLAYER1
  6
CONTINUOUS
 62
     5
 10
4181.665147
 20
147.884063
 11
4171.312106
 21
149.088369
  0
LINE
  8
CSLAYER1
  6
CONTINUOUS
 62
     5
 10
4143.878268
 20
129.020359
 11
4147.098310
 21
136.466705
  0
LINE
  8
CSLAYER1
  6
CONTINUOUS
 62
     5
 10
4147.042813
 20
136.338369
 11
4150.318351
 21
140.290504
  0
LINE
  8
CSLAYER1
  6
CONTINUOUS
 62
     5
 10
4150.318351
 20
140.290504
 11
4155.274984
 21
143.838369
  0
LINE
  8
CSLAYER1
  6
CONTINUOUS
 62
     5
 10
4171.312106
 20
149.088369
 11
4169.034843
 21
147.938103
  0
LINE
  8
CSLAYER1
  6
CONTINUOUS
 62
     5
 10
4169.034843
 20
147.938103
 11
4163.802275
 21
147.938103
  0
LINE
  8
CSLAYER1
  6
CONTINUOUS
 62
     5
 10
4163.802275
 20
147.938103
 11
4158.469081
 21
145.019940
  0
LINE
  8
CSLAYER1
  6
CONTINUOUS
 62
     5
 10
4158.469081
 20
145.019940
 11
4155.274984
 21
143.838369
  0
LINE
  8
CSLAYER1
  6
CONTINUOUS
 62
     5
 10
4143.878268
 20
129.020359
 11
4141.601947
 21
117.697454
  0
LINE
  8
CSLAYER1
  6
CONTINUOUS
 62
     5
 10
4141.601947
 20
117.697454
 11
4141.312106
 21
113.838369
  0
LINE
  8
CSLAYER1
  6
CONTINUOUS
 62
     5
 10
4145.376180
 20
102.078696
 11
4141.312106
 21
111.222862
  0
LINE
  8
CSLAYER1
  6
CONTINUOUS
 62
     5
 10
4141.312106
 20
111.222862
 11
4141.312106
 21
113.838369
  0
LINE
  8
CSLAYER1
  6
CONTINUOUS
 62
     5
 10
4190.977098
 20
103.797435
 11
4188.448418
 21
99.292925
  0
LINE
  8
CSLAYER1
  6
CONTINUOUS
 62
     5
 10
4188.448418
 20
99.292925
 11
4186.312106
 21
97.314859
  0
ARC
  8
CSLAYER1
  6
CONTINUOUS
 62
     5
 10
4168.024189
 20
114.643510
 40
25.899940
 50
208.054813
 51
260.640470
  0
ARC
  8
CSLAYER1
  6
CONTINUOUS
 62
     5
 10
4160.234096
 20
133.757214
 40
44.811916
 50
274.579659
 51
305.587364
  0
ARC
  8
CSLAYER1
  6
CONTINUOUS
 62
     5
 10
4176.692620
 20
124.781631
 40
22.632940
 50
313.467013
 51
331.085078
  0
LINE
  8
CSLAYER1
  6
CONTINUOUS
 62
     5
 10
4198.879618
 20
119.108501
 11
4199.325560
 21
124.781631
  0
LINE
  8
CSLAYER1
  6
CONTINUOUS
 62
     5
 10
4199.325560
 20
124.781631
 11
4197.387563
 21
133.945105
  0
LINE
  8
CSLAYER1
  6
CONTINUOUS
 62
     5
 10
4198.879618
 20
119.108501
 11
4196.504106
 21
113.838369
  0
ARC
  8
CSLAYER1
  6
CONTINUOUS
 62
     5
 10
4176.692620
 20
124.781631
 40
22.632940
 50
23.883193
 51
36.225170
  0
LINE
  8
CSLAYER1
  6
CONTINUOUS
 62
     5
 10
4117.312106
 20
166.338369
 11
4118.812106
 21
167.977336
  0
LINE
  8
CSLAYER1
  6
CONTINUOUS
 62
     5
 10
4117.312106
 20
166.338369
 11
4119.677543
 21
164.170820
  0
LINE
  8
CSLAYER1
  6
CONTINUOUS
 62
     5
 10
4121.986362
 20
161.006882
 11
4122.025764
 21
157.754704
  0
LINE
  8
CSLAYER1
  6
CONTINUOUS
 62
     5
 10
4122.025764
 20
157.754704
 11
4122.336861
 21
156.614015
  0
LINE
  8
CSLAYER1
  6
CONTINUOUS
 62
     5
 10
4122.336861
 20
156.614015
 11
4123.218303
 21
155.525175
  0
LINE
  8
CSLAYER1
  6
CONTINUOUS
 62
     5
 10
4123.218303
 20
155.525175
 11
4124.099744
 21
155.628874
  0
LINE
  8
CSLAYER1
  6
CONTINUOUS
 62
     5
 10
4124.099744
 20
155.628874
 11
4125.033035
 21
155.888122
  0
LINE
  8
CSLAYER1
  6
CONTINUOUS
 62
     5
 10
4125.033035
 20
155.888122
 11
4125.655229
 21
155.628874
  0
LINE
  8
CSLAYER1
  6
CONTINUOUS
 62
     5
 10
4125.655229
 20
155.628874
 11
4127.003316
 21
154.954831
  0
LINE
  8
CSLAYER1
  6
CONTINUOUS
 62
     5
 10
4127.003316
 20
154.954831
 11
4128.167393
 21
154.338369
  0
LINE
  8
CSLAYER1
  6
CONTINUOUS
 62
     5
 10
4128.167393
 20
154.338369
 11
4128.921747
 21
154.384486
  0
LINE
  8
CSLAYER1
  6
CONTINUOUS
 62
     5
 10
4128.921747
 20
154.384486
 11
4133.133555
 21
156.554206
  0
LINE
  8
CSLAYER1
  6
CONTINUOUS
 62
     5
 10
4118.812106
 20
167.977336
 11
4119.311384
 21
170.187897
  0
LINE
  8
CSLAYER1
  6
CONTINUOUS
 62
     5
 10
4119.311384
 20
170.187897
 11
4121.491492
 21
170.413425
  0
LINE
  8
CSLAYER1
  6
CONTINUOUS
 62
     5
 10
4123.732129
 20
174.566113
 11
4126.363389
 21
174.801748
  0
LINE
  8
CSLAYER1
  6
CONTINUOUS
 62
     5
 10
4126.363389
 20
174.801748
 11
4131.665180
 21
176.058469
  0
LINE
  8
CSLAYER1
  6
CONTINUOUS
 62
     5
 10
4131.665180
 20
176.058469
 11
4133.812106
 21
176.555928
  0
LINE
  8
CSLAYER1
  6
CONTINUOUS
 62
     5
 10
4123.732129
 20
174.566113
 11
4120.832793
 21
174.804415
  0
LINE
  8
CSLAYER1
  6
CONTINUOUS
 62
     5
 10
4119.728608
 20
173.501384
 11
4119.868896
 21
172.944642
  0
LINE
  8
CSLAYER1
  6
CONTINUOUS
 62
     5
 10
4119.868896
 20
172.944642
 11
4120.606287
 21
172.138120
  0
LINE
  8
CSLAYER1
  6
CONTINUOUS
 62
     5
 10
4120.606287
 20
172.138120
 11
4121.620200
 21
171.377686
  0
LINE
  8
CSLAYER1
  6
CONTINUOUS
 62
     5
 10
4121.620200
 20
171.377686
 11
4121.805187
 21
171.131036
  0
LINE
  8
CSLAYER1
  6
CONTINUOUS
 62
     5
 10
4119.677543
 20
164.170820
 11
4121.986362
 21
161.006882
  0
ARC
  8
CSLAYER1
  6
CONTINUOUS
 62
     5
 10
4186.292157
 20
-91.149610
 40
271.091195
 50
80.438896
 51
96.353582
  0
ARC
  8
CSLAYER1
  6
CONTINUOUS
 62
     5
 10
4148.943787
 20
126.722240
 40
52.080363
 50
81.866516
 51
106.890578
  0
LINE
  8
CSLAYER1
  6
CONTINUOUS
 62
     5
 10
4237.603498
 20
174.988375
 11
4240.974122
 21
173.456273
  0
LINE
  8
CSLAYER1
  6
CONTINUOUS
 62
     5
 10
4246.336478
 20
171.081515
 11
4240.974122
 21
173.456273
  0
LINE
  8
CSLAYER1
  6
CONTINUOUS
 62
     5
 10
4237.603498
 20
174.988375
 11
4231.312106
 21
176.177232
  0
LINE
  8
CSLAYER1
  6
CONTINUOUS
 62
     5
 10
4246.312106
 20
171.092308
 11
4249.119469
 21
168.739593
  0
LINE
  8
CSLAYER1
  6
CONTINUOUS
 62
     5
 10
4221.176990
 20
172.647585
 11
4222.525902
 21
174.826597
  0
LINE
  8
CSLAYER1
  6
CONTINUOUS
 62
     5
 10
4222.525902
 20
174.826597
 11
4229.539300
 21
173.147333
  0
LINE
  8
CSLAYER1
  6
CONTINUOUS
 62
     5
 10
4229.539300
 20
173.147333
 11
4254.652879
 21
166.338369
  0
LINE
  8
CSLAYER1
  6
CONTINUOUS
 62
     5
 10
4259.062106
 20
166.338369
 11
4249.119469
 21
168.739593
  0
LINE
  8
CSLAYER1
  6
CONTINUOUS
 62
     5
 10
4254.652879
 20
166.338369
 11
4259.062106
 21
166.338369
  0
LINE
  8
CSLAYER1
  6
CONTINUOUS
 62
     5
 10
4171.312106
 20
173.035781
 11
4201.312106
 21
173.838369
  0
LINE
  8
CSLAYER1
  6
CONTINUOUS
 62
     5
 10
4201.312106
 20
173.838369
 11
4221.176990
 21
172.647585
  0
LINE
  8
CSLAYER1
  6
CONTINUOUS
 62
     5
 10
4223.581462
 20
169.556865
 11
4201.312106
 21
171.588369
  0
LINE
  8
CSLAYER1
  6
CONTINUOUS
 62
     5
 10
4201.312106
 20
171.588369
 11
4178.738292
 21
172.201347
  0
LINE
  8
CSLAYER1
  6
CONTINUOUS
 62
     5
 10
4178.812106
 20
172.199343
 11
4171.312106
 21
172.342284
  0
LINE
  8
CSLAYER1
  6
CONTINUOUS
 62
     5
 10
4171.312106
 20
173.035781
 11
4171.312106
 21
172.342284
  0
LINE
  8
CSLAYER1
  6
CONTINUOUS
 62
     5
 10
4257.562106
 20
161.088369
 11
4244.298268
 21
164.554363
  0
LINE
  8
CSLAYER1
  6
CONTINUOUS
 62
     5
 10
4223.581462
 20
169.556865
 11
4238.812106
 21
166.598290
  0
LINE
  8
CSLAYER1
  6
CONTINUOUS
 62
     5
 10
4238.812106
 20
166.598290
 11
4244.298268
 21
164.554363
  0
LINE
  8
CSLAYER1
  6
CONTINUOUS
 62
     5
 10
4257.562106
 20
161.088369
 11
4257.123180
 21
159.829711
  0
LINE
  8
CSLAYER1
  6
CONTINUOUS
 62
     5
 10
4271.812106
 20
152.838369
 11
4271.353065
 21
154.681841
  0
LINE
  8
CSLAYER1
  6
CONTINUOUS
 62
     5
 10
4257.123180
 20
159.829711
 11
4271.353065
 21
154.681841
  0
LINE
  8
CSLAYER1
  6
CONTINUOUS
 62
     5
 10
4176.562106
 20
161.088369
 11
4180.196663
 21
161.088369
  0
LINE
  8
CSLAYER1
  6
CONTINUOUS
 62
     5
 10
4210.312106
 20
161.737113
 11
4210.312106
 21
161.088369
  0
LINE
  8
CSLAYER1
  6
CONTINUOUS
 62
     5
 10
4208.812106
 20
162.538774
 11
4206.245187
 21
163.494542
  0
LINE
  8
CSLAYER1
  6
CONTINUOUS
 62
     5
 10
4206.245187
 20
163.494542
 11
4204.580103
 21
163.570227
  0
LINE
  8
CSLAYER1
  6
CONTINUOUS
 62
     5
 10
4204.580103
 20
163.570227
 11
4203.861090
 21
163.191799
  0
LINE
  8
CSLAYER1
  6
CONTINUOUS
 62
     5
 10
4203.861090
 20
163.191799
 11
4203.709718
 21
162.586314
  0
LINE
  8
CSLAYER1
  6
CONTINUOUS
 62
     5
 10
4203.709718
 20
162.586314
 11
4204.390889
 21
162.132200
  0
LINE
  8
CSLAYER1
  6
CONTINUOUS
 62
     5
 10
4204.390889
 20
162.132200
 11
4206.850672
 21
161.905143
  0
LINE
  8
CSLAYER1
  6
CONTINUOUS
 62
     5
 10
4206.850672
 20
161.905143
 11
4210.312106
 21
161.737113
  0
LINE
  8
CSLAYER1
  6
CONTINUOUS
 62
     5
 10
4271.812106
 20
152.838369
 11
4267.348792
 21
154.618242
  0
LINE
  8
CSLAYER1
  6
CONTINUOUS
 62
     5
 10
4267.348792
 20
154.618242
 11
4252.265258
 21
157.382555
  0
LINE
  8
CSLAYER1
  6
CONTINUOUS
 62
     5
 10
4252.265258
 20
157.382555
 11
4244.726588
 21
159.122248
  0
LINE
  8
CSLAYER1
  6
CONTINUOUS
 62
     5
 10
4211.113437
 20
162.588369
 11
4228.761936
 21
162.588369
  0
LINE
  8
CSLAYER1
  6
CONTINUOUS
 62
     5
 10
4208.812106
 20
162.538774
 11
4209.599096
 21
162.076073
  0
LINE
  8
CSLAYER1
  6
CONTINUOUS
 62
     5
 10
4209.599096
 20
162.076073
 11
4210.044314
 21
161.942508
  0
LINE
  8
CSLAYER1
  6
CONTINUOUS
 62
     5
 10
4210.044314
 20
161.942508
 11
4210.312106
 21
161.980263
  0
LINE
  8
CSLAYER1
  6
CONTINUOUS
 62
     5
 10
4210.312106
 20
161.980263
 11
4211.113437
 21
162.588369
  0
LINE
  8
CSLAYER1
  6
CONTINUOUS
 62
     5
 10
4228.761936
 20
162.588369
 11
4235.437340
 21
161.045131
  0
LINE
  8
CSLAYER1
  6
CONTINUOUS
 62
     5
 10
4235.437340
 20
161.045131
 11
4241.667127
 21
159.297408
  0
LINE
  8
CSLAYER1
  6
CONTINUOUS
 62
     5
 10
4241.667127
 20
159.297408
 11
4244.726588
 21
159.122248
  0
LINE
  8
CSLAYER1
  6
CONTINUOUS
 62
     5
 10
4175.062106
 20
159.588369
 11
4175.062106
 21
158.838369
  0
LINE
  8
CSLAYER1
  6
CONTINUOUS
 62
     5
 10
4171.312106
 20
158.838369
 11
4175.062106
 21
158.838369
  0
ARC
  8
CSLAYER1
  6
CONTINUOUS
 62
     5
 10
4176.562106
 20
159.588369
 40
1.500000
 50
90.000000
 51
180.000000
  0
LINE
  8
CSLAYER1
  6
CONTINUOUS
 62
     5
 10
4180.196663
 20
161.088369
 11
4181.242998
 21
160.230375
  0
LINE
  8
CSLAYER1
  6
CONTINUOUS
 62
     5
 10
4182.146550
 20
160.194434
 11
4183.432945
 21
161.088369
  0
LINE
  8
CSLAYER1
  6
CONTINUOUS
 62
     5
 10
4185.800540
 20
161.088369
 11
4188.301228
 21
160.101256
  0
LINE
  8
CSLAYER1
  6
CONTINUOUS
 62
     5
 10
4188.936791
 20
160.141024
 11
4190.667022
 21
161.088369
  0
LINE
  8
CSLAYER1
  6
CONTINUOUS
 62
     5
 10
4183.432945
 20
161.088369
 11
4185.800540
 21
161.088369
  0
LINE
  8
CSLAYER1
  6
CONTINUOUS
 62
     5
 10
4190.667022
 20
161.088369
 11
4210.312106
 21
161.088369
  0
LINE
  8
CSLAYER1
  6
CONTINUOUS
 62
     5
 10
4139.135581
 20
156.425130
 11
4171.312106
 21
158.838369
  0
LINE
  8
CSLAYER1
  6
CONTINUOUS
 62
     5
 10
4133.133555
 20
156.554206
 11
4139.135581
 21
156.425130
  0
ARC
  8
CSLAYER1
  6
CONTINUOUS
 62
     5
 10
4181.718558
 20
160.810325
 40
0.750000
 50
230.648247
 51
304.796026
  0
ARC
  8
CSLAYER1
  6
CONTINUOUS
 62
     5
 10
4188.576603
 20
160.798872
 40
0.750000
 50
248.459024
 51
298.701829
  0
ARC
  8
CSLAYER1
  6
CONTINUOUS
 62
     5
 10
4121.445187
 20
170.861036
 40
0.450000
 50
-84.093859
 51
36.869898
  0
ARC
  8
CSLAYER1
  6
CONTINUOUS
 62
     5
 10
4120.746781
 20
173.757944
 40
1.050000
 50
85.301319
 51
194.142980
  0
LINE
  8
CSLAYER1
  6
CONTINUOUS
 62
     3
 10
4169.034843
 20
147.938103
 11
4181.200586
 21
147.938103
  0
LINE
  8
CSLAYER1
  6
CONTINUOUS
 62
     3
 10
4159.416068
 20
145.538103
 11
4185.881079
 21
145.538103
  0
LINE
  8
CSLAYER1
  6
CONTINUOUS
 62
     3
 10
4154.296660
 20
143.138103
 11
4190.194126
 21
143.138103
  0
LINE
  8
CSLAYER1
  6
CONTINUOUS
 62
     3
 10
4150.943680
 20
140.738103
 11
4192.959335
 21
140.738103
  0
LINE
  8
CSLAYER1
  6
CONTINUOUS
 62
     3
 10
4148.700197
 20
138.338103
 11
4194.810764
 21
138.338103
  0
LINE
  8
CSLAYER1
  6
CONTINUOUS
 62
     3
 10
4146.869725
 20
135.938103
 11
4196.384829
 21
135.938103
  0
LINE
  8
CSLAYER1
  6
CONTINUOUS
 62
     3
 10
4145.831887
 20
133.538103
 11
4197.473641
 21
133.538103
  0
LINE
  8
CSLAYER1
  6
CONTINUOUS
 62
     3
 10
4144.794049
 20
131.138103
 11
4197.981220
 21
131.138103
  0
LINE
  8
CSLAYER1
  6
CONTINUOUS
 62
     3
 10
4143.821524
 20
128.738103
 11
4198.488800
 21
128.738103
  0
LINE
  8
CSLAYER1
  6
CONTINUOUS
 62
     3
 10
4143.339036
 20
126.338103
 11
4198.996379
 21
126.338103
  0
LINE
  8
CSLAYER1
  6
CONTINUOUS
 62
     3
 10
4142.856547
 20
123.938103
 11
4166.241912
 21
123.938103
  0
LINE
  8
CSLAYER1
  6
CONTINUOUS
 62
     3
 10
4142.374059
 20
121.538103
 11
4163.943521
 21
121.538103
  0
LINE
  8
CSLAYER1
  6
CONTINUOUS
 62
     3
 10
4141.891571
 20
119.138103
 11
4162.761266
 21
119.138103
  0
LINE
  8
CSLAYER1
  6
CONTINUOUS
 62
     3
 10
4141.529894
 20
116.738103
 11
4162.283115
 21
116.738103
  0
LINE
  8
CSLAYER1
  6
CONTINUOUS
 62
     3
 10
4141.349639
 20
114.338103
 11
4162.358146
 21
114.338103
  0
LINE
  8
CSLAYER1
  6
CONTINUOUS
 62
     3
 10
4141.312106
 20
111.938103
 11
4163.177277
 21
111.938103
  0
LINE
  8
CSLAYER1
  6
CONTINUOUS
 62
     3
 10
4142.060888
 20
109.538103
 11
4166.222280
 21
109.538103
  0
LINE
  8
CSLAYER1
  6
CONTINUOUS
 62
     3
 10
4143.127555
 20
107.138103
 11
4191.919338
 21
107.138103
  0
LINE
  8
CSLAYER1
  6
CONTINUOUS
 62
     3
 10
4144.194221
 20
104.738103
 11
4191.242415
 21
104.738103
  0
LINE
  8
CSLAYER1
  6
CONTINUOUS
 62
     3
 10
4145.260888
 20
102.338103
 11
4190.157878
 21
102.338103
  0
LINE
  8
CSLAYER1
  6
CONTINUOUS
 62
     3
 10
4146.703826
 20
99.938103
 11
4188.810599
 21
99.938103
  0
LINE
  8
CSLAYER1
  6
CONTINUOUS
 62
     3
 10
4148.576518
 20
97.538103
 11
4186.553209
 21
97.538103
  0
LINE
  8
CSLAYER1
  6
CONTINUOUS
 62
     3
 10
4150.984648
 20
95.138103
 11
4182.964518
 21
95.138103
  0
LINE
  8
CSLAYER1
  6
CONTINUOUS
 62
     3
 10
4154.205361
 20
92.738103
 11
4178.276833
 21
92.738103
  0
LINE
  8
CSLAYER1
  6
CONTINUOUS
 62
     3
 10
4159.076897
 20
90.338103
 11
4171.319610
 21
90.338103
  0
LINE
  8
CSLAYER1
  6
CONTINUOUS
 62
     3
 10
4174.029648
 20
123.938103
 11
4199.259253
 21
123.938103
  0
LINE
  8
CSLAYER1
  6
CONTINUOUS
 62
     3
 10
4175.035764
 20
121.538103
 11
4199.070599
 21
121.538103
  0
LINE
  8
CSLAYER1
  6
CONTINUOUS
 62
     3
 10
4175.203774
 20
119.138103
 11
4198.881945
 21
119.138103
  0
LINE
  8
CSLAYER1
  6
CONTINUOUS
 62
     3
 10
4174.835739
 20
116.738103
 11
4197.811161
 21
116.738103
  0
LINE
  8
CSLAYER1
  6
CONTINUOUS
 62
     3
 10
4173.858270
 20
114.338103
 11
4196.729361
 21
114.338103
  0
LINE
  8
CSLAYER1
  6
CONTINUOUS
 62
     3
 10
4172.158375
 20
111.938103
 11
4195.328439
 21
111.938103
  0
LINE
  8
CSLAYER1
  6
CONTINUOUS
 62
     3
 10
4168.774380
 20
109.538103
 11
4193.422378
 21
109.538103
  0
TEXT
  8
CSLAYER1
 62
     5
 10
4200.069867
 20
120.954866
 40
7.070172
 41
1.951056
  1
M
 50
0.000000
 51
0.000000
  7
EASYDRAW_FONT
 72
     5
 11
4209.266070
 21
120.954866
  0
TEXT
  8
CSLAYER1
 62
     5
 10
4214.546948
 20
120.867460
 40
6.939931
 41
0.778201
  1
T
 50
0.000000
 51
0.000000
  7
EASYDRAW_FONT
 72
     5
 11
4218.147388
 21
120.867460
  0
TEXT
  8
CSLAYER1
 62
     5
 10
4218.695292
 20
120.919658
 40
7.044274
 41
1.055553
  1
E
 50
0.000000
 51
0.000000
  7
EASYDRAW_FONT
 72
     5
 11
4223.652364
 21
120.919658
  0
TEXT
  8
CSLAYER1
 62
     5
 10
4223.369808
 20
123.343425
 40
0.522425
 41
9.375319
  1
-
 50
0.000000
 51
0.000000
  7
EASYDRAW_FONT
 72
     5
 11
4226.635075
 21
123.343425
  0
TEXT
  8
CSLAYER1
 62
     5
 10
4226.090633
 20
120.872638
 40
7.292489
 41
1.298502
  1
H
 50
0.000000
 51
0.000000
  7
EASYDRAW_FONT
 72
     5
 11
4232.403507
 21
120.872638
  0
TEXT
  8
CSLAYER1
 62
     5
 10
4232.204778
 20
120.918206
 40
7.264708
 41
1.269236
  1
A
 50
0.000000
 51
0.000000
  7
EASYDRAW_FONT
 72
     5
 11
4238.351862
 21
120.918206
  0
TEXT
  8
CSLAYER1
 62
     5
 10
4237.764134
 20
120.855916
 40
7.238043
 41
1.490144
  1
N
 50
0.000000
 51
0.000000
  7
EASYDRAW_FONT
 72
     5
 11
4244.954616
 21
120.855916
  0
TEXT
  8
CSLAYER1
 62
     5
 10
4208.951077
 20
120.822056
 40
7.473487
 41
1.177443
  1
A
 50
0.000000
 51
0.000000
  7
EASYDRAW_FONT
 72
     5
 11
4214.817478
 21
120.822056
  0
TEXT
  8
CSLAYER1
 62
     5
 10
4200.620022
 20
110.329197
 40
7.473487
 41
1.177443
  1
A
 50
0.000000
 51
0.000000
  7
EASYDRAW_FONT
 72
     5
 11
4206.486423
 21
110.329197
  0
TEXT
  8
CSLAYER1
 62
     5
 10
4219.797268
 20
110.371678
 40
7.473487
 41
1.177443
  1
A
 50
0.000000
 51
0.000000
  7
EASYDRAW_FONT
 72
     5
 11
4225.663670
 21
110.371678
  0
TEXT
  8
CSLAYER1
 62
     5
 10
4225.437962
 20
110.457173
 40
7.238043
 41
1.490144
  1
N
 50
0.000000
 51
0.000000
  7
EASYDRAW_FONT
 72
     5
 11
4232.628444
 21
110.457173
  0
TEXT
  8
CSLAYER1
 62
     5
 10
4238.791344
 20
110.469766
 40
7.262663
 41
1.184218
  1
E
 50
0.000000
 51
0.000000
  7
EASYDRAW_FONT
 72
     5
 11
4244.525062
 21
110.469766
  0
TEXT
  8
CSLAYER1
 62
     5
 10
4207.041096
 20
110.327210
 40
7.421797
 41
1.093992
  1
D
 50
0.000000
 51
0.000000
  7
EASYDRAW_FONT
 72
     5
 11
4212.454021
 21
110.327210
  0
TEXT
  8
CSLAYER1
 62
     5
 10
4213.645000
 20
110.319133
 40
7.386315
 41
1.228195
  1
V
 50
0.000000
 51
0.000000
  7
EASYDRAW_FONT
 72
     5
 11
4219.692891
 21
110.319133
  0
TEXT
  8
CSLAYER1
 62
     5
 10
4231.982558
 20
110.350231
 40
7.549340
 41
1.481023
  1
C
 50
0.000000
 51
0.000000
  7
EASYDRAW_FONT
 72
     5
 11
4239.436388
 21
110.350231
  0
LINE
  8
CSLAYER1
  6
CONTINUOUS
 62
     5
 10
4217.928111
 20
126.940827
 11
4216.410018
 21
126.940827
  0
LINE
  8
CSLAYER1
  6
CONTINUOUS
 62
     3
 10
4141.575468
 20
178.278734
 11
4216.272208
 21
178.278734
  0
LINE
  8
CSLAYER1
  6
CONTINUOUS
 62
     3
 10
4130.906922
 20
175.878734
 11
4232.891745
 21
175.878734
  0
LINE
  8
CSLAYER1
  6
CONTINUOUS
 62
     3
 10
4119.734315
 20
173.478734
 11
4187.869281
 21
173.478734
  0
LINE
  8
CSLAYER1
  6
CONTINUOUS
 62
     3
 10
4207.311605
 20
173.478734
 11
4221.691511
 21
173.478734
  0
LINE
  8
CSLAYER1
  6
CONTINUOUS
 62
     3
 10
4228.155211
 20
173.478734
 11
4240.924707
 21
173.478734
  0
LINE
  8
CSLAYER1
  6
CONTINUOUS
 62
     3
 10
4121.839024
 20
171.078734
 11
4206.898728
 21
171.078734
  0
LINE
  8
CSLAYER1
  6
CONTINUOUS
 62
     3
 10
4237.168936
 20
171.078734
 11
4246.328303
 21
171.078734
  0
LINE
  8
CSLAYER1
  6
CONTINUOUS
 62
     3
 10
4118.970524
 20
168.678734
 11
4228.102050
 21
168.678734
  0
LINE
  8
CSLAYER1
  6
CONTINUOUS
 62
     3
 10
4246.020884
 20
168.678734
 11
4249.371466
 21
168.678734
  0
LINE
  8
CSLAYER1
  6
CONTINUOUS
 62
     3
 10
4117.377186
 20
166.278734
 11
4239.669834
 21
166.278734
  0
LINE
  8
CSLAYER1
  6
CONTINUOUS
 62
     3
 10
4119.890686
 20
163.878734
 11
4246.883797
 21
163.878734
  0
LINE
  8
CSLAYER1
  6
CONTINUOUS
 62
     3
 10
4121.642038
 20
161.478734
 11
4210.312106
 21
161.478734
  0
LINE
  8
CSLAYER1
  6
CONTINUOUS
 62
     3
 10
4233.561753
 20
161.478734
 11
4256.068238
 21
161.478734
  0
LINE
  8
CSLAYER1
  6
CONTINUOUS
 62
     3
 10
4122.009723
 20
159.078734
 11
4175.062106
 21
159.078734
  0
LINE
  8
CSLAYER1
  6
CONTINUOUS
 62
     3
 10
4244.915147
 20
159.078734
 11
4259.199051
 21
159.078734
  0
LINE
  8
CSLAYER1
  6
CONTINUOUS
 62
     3
 10
4122.319210
 20
156.678734
 11
4142.516971
 21
156.678734
  0
LINE
  8
CSLAYER1
  6
CONTINUOUS
 62
     3
 10
4256.105670
 20
156.678734
 11
4265.833197
 21
156.678734
  0
LINE
  8
CSLAYER1
  6
CONTINUOUS
 62
     3
 10
4268.200161
 20
154.278734
 11
4271.453442
 21
154.278734
  0
ENDBLK
  8
0
  0
BLOCK
  8
CSLAYER1
  2
BLKF0001
 70
   64
 10
0.0
 20
0.0
 30
0.0
  0
LINE
  8
CSLAYER1
  6
CONTINUOUS
 62
     2
 10
2316.302794
 20
888.348466
 11
2309.856913
 21
884.136506
  0
LINE
  8
CSLAYER1
  6
CONTINUOUS
 62
     2
 10
2317.396810
 20
886.674211
 11
2310.950928
 21
882.462251
  0
LINE
  8
CSLAYER1
  6
CONTINUOUS
 62
     2
 10
2317.396810
 20
886.674211
 11
2316.302794
 21
888.348466
  0
LINE
  8
CSLAYER1
  6
CONTINUOUS
 62
     2
 10
2319.947808
 20
880.576473
 11
2314.506479
 21
877.020922
  0
LINE
  8
CSLAYER1
  6
CONTINUOUS
 62
     2
 10
2319.947808
 20
880.576473
 11
2320.472015
 21
881.612518
  0
LINE
  8
CSLAYER1
  6
CONTINUOUS
 62
     2
 10
2317.234034
 20
886.567847
 11
2320.472015
 21
881.612518
  0
ARC
  8
CSLAYER1
  6
CONTINUOUS
 62
     2
 10
2317.425722
 20
882.844214
 40
3.285875
 50
268.197593
 51
327.848471
  0
ARC
  8
CSLAYER1
  6
CONTINUOUS
 62
     2
 10
2307.712947
 20
887.417580
 40
12.419443
 50
303.161976
 51
320.749930
  0
LINE
  8
CSLAYER1
  6
CONTINUOUS
 62
     2
 10
2314.092481
 20
884.515049
 11
2317.330463
 21
879.559720
  0
LINE
  8
CSLAYER1
  6
CONTINUOUS
 62
     2
 10
2319.183527
 20
875.896102
 11
2316.421006
 21
874.090976
  0
LINE
  8
CSLAYER1
  6
CONTINUOUS
 62
     2
 10
2319.386611
 20
876.864996
 11
2317.854989
 21
879.208953
  0
LINE
  8
CSLAYER1
  6
CONTINUOUS
 62
     2
 10
2319.183527
 20
875.896102
 11
2317.269000
 21
878.826048
  0
LINE
  8
CSLAYER1
  6
CONTINUOUS
 62
     2
 10
2319.386611
 20
876.864996
 11
2319.183527
 21
875.896102
  0
LINE
  8
CSLAYER1
  6
CONTINUOUS
 62
     2
 10
2319.386611
 20
876.864996
 11
2316.038101
 21
874.676965
  0
LINE
  8
CSLAYER1
  6
CONTINUOUS
 62
     2
 10
2303.411031
 20
879.924546
 11
2309.856913
 21
884.136506
  0
LINE
  8
CSLAYER1
  6
CONTINUOUS
 62
     2
 10
2304.505046
 20
878.250291
 11
2310.950928
 21
882.462251
  0
LINE
  8
CSLAYER1
  6
CONTINUOUS
 62
     2
 10
2304.505046
 20
878.250291
 11
2303.411031
 21
879.924546
  0
LINE
  8
CSLAYER1
  6
CONTINUOUS
 62
     2
 10
2309.065150
 20
873.465372
 11
2314.506479
 21
877.020922
  0
LINE
  8
CSLAYER1
  6
CONTINUOUS
 62
     2
 10
2309.065150
 20
873.465372
 11
2307.905805
 21
873.401326
  0
LINE
  8
CSLAYER1
  6
CONTINUOUS
 62
     2
 10
2304.667823
 20
878.356655
 11
2307.905805
 21
873.401326
  0
ARC
  8
CSLAYER1
  6
CONTINUOUS
 62
     2
 10
2308.001064
 20
876.685820
 40
3.285875
 50
278.475481
 51
338.126359
  0
ARC
  8
CSLAYER1
  6
CONTINUOUS
 62
     2
 10
2307.712947
 20
887.417580
 40
12.419443
 50
285.574022
 51
303.161976
  0
LINE
  8
CSLAYER1
  6
CONTINUOUS
 62
     2
 10
2307.809376
 20
880.409453
 11
2311.047357
 21
875.454124
  0
LINE
  8
CSLAYER1
  6
CONTINUOUS
 62
     2
 10
2313.658485
 20
872.285850
 11
2316.421006
 21
874.090976
  0
LINE
  8
CSLAYER1
  6
CONTINUOUS
 62
     2
 10
2312.689591
 20
872.488934
 11
2311.157969
 21
874.832891
  0
LINE
  8
CSLAYER1
  6
CONTINUOUS
 62
     2
 10
2313.658485
 20
872.285850
 11
2311.743958
 21
875.215797
  0
LINE
  8
CSLAYER1
  6
CONTINUOUS
 62
     2
 10
2312.689591
 20
872.488934
 11
2313.658485
 21
872.285850
  0
LINE
  8
CSLAYER1
  6
CONTINUOUS
 62
     2
 10
2312.689591
 20
872.488934
 11
2316.038101
 21
874.676965
  0
LINE
  8
CSLAYER1
  6
CONTINUOUS
 62
     2
 10
2311.189583
 20
885.007319
 11
2309.159007
 21
881.291349
  0
ENDBLK
  8
0
  0
BLOCK
  8
CSLAYER1
  2
BLKF0002
 70
   64
 10
0.0
 20
0.0
 30
0.0
  0
LINE
  8
CSLAYER1
  6
CONTINUOUS
 62
     3
 10
662.974561
 20
1505.546368
 11
677.974561
 21
1505.546368
  0
LINE
  8
CSLAYER1
  6
CONTINUOUS
 62
     3
 10
620.974561
 20
1505.546368
 11
605.974561
 21
1505.546368
  0
LINE
  8
CSLAYER1
  6
CONTINUOUS
 62
     3
 10
641.974561
 20
1477.271574
 11
644.611022
 21
1477.334267
  0
LINE
  8
CSLAYER1
  6
CONTINUOUS
 62
     3
 10
644.611022
 20
1477.334267
 11
647.227418
 21
1477.521871
  0
LINE
  8
CSLAYER1
  6
CONTINUOUS
 62
     3
 10
647.227418
 20
1477.521871
 11
649.803837
 21
1477.832957
  0
LINE
  8
CSLAYER1
  6
CONTINUOUS
 62
     3
 10
649.803837
 20
1477.832957
 11
652.320670
 21
1478.265158
  0
LINE
  8
CSLAYER1
  6
CONTINUOUS
 62
     3
 10
652.320670
 20
1478.265158
 11
654.758763
 21
1478.815184
  0
LINE
  8
CSLAYER1
  6
CONTINUOUS
 62
     3
 10
654.758763
 20
1478.815184
 11
657.099561
 21
1479.478850
  0
LINE
  8
CSLAYER1
  6
CONTINUOUS
 62
     3
 10
657.099561
 20
1479.478850
 11
659.325248
 21
1480.251104
  0
LINE
  8
CSLAYER1
  6
CONTINUOUS
 62
     3
 10
659.325248
 20
1480.251104
 11
661.418886
 21
1481.126069
  0
LINE
  8
CSLAYER1
  6
CONTINUOUS
 62
     3
 10
661.418886
 20
1481.126069
 11
663.364541
 21
1482.097086
  0
LINE
  8
CSLAYER1
  6
CONTINUOUS
 62
     3
 10
663.364541
 20
1482.097086
 11
665.147405
 21
1483.156766
  0
LINE
  8
CSLAYER1
  6
CONTINUOUS
 62
     3
 10
665.147405
 20
1483.156766
 11
666.753910
 21
1484.297043
  0
LINE
  8
CSLAYER1
  6
CONTINUOUS
 62
     3
 10
666.753910
 20
1484.297043
 11
668.171829
 21
1485.509239
  0
LINE
  8
CSLAYER1
  6
CONTINUOUS
 62
     3
 10
668.171829
 20
1485.509239
 11
669.390371
 21
1486.784129
  0
LINE
  8
CSLAYER1
  6
CONTINUOUS
 62
     3
 10
669.390371
 20
1486.784129
 11
670.400262
 21
1488.112010
  0
LINE
  8
CSLAYER1
  6
CONTINUOUS
 62
     3
 10
670.400262
 20
1488.112010
 11
671.193817
 21
1489.482775
  0
LINE
  8
CSLAYER1
  6
CONTINUOUS
 62
     3
 10
671.193817
 20
1489.482775
 11
671.764995
 21
1490.885993
  0
LINE
  8
CSLAYER1
  6
CONTINUOUS
 62
     3
 10
671.764995
 20
1490.885993
 11
672.109450
 21
1492.310985
  0
LINE
  8
CSLAYER1
  6
CONTINUOUS
 62
     3
 10
672.224561
 20
1502.118180
 11
672.109450
 21
1503.554099
  0
LINE
  8
CSLAYER1
  6
CONTINUOUS
 62
     3
 10
672.109450
 20
1503.554099
 11
671.764995
 21
1504.979091
  0
LINE
  8
CSLAYER1
  6
CONTINUOUS
 62
     3
 10
671.764995
 20
1504.979091
 11
671.534086
 21
1505.546368
  0
LINE
  8
CSLAYER1
  6
CONTINUOUS
 62
     3
 10
661.974561
 20
1489.774665
 11
663.364541
 21
1490.468362
  0
LINE
  8
CSLAYER1
  6
CONTINUOUS
 62
     3
 10
663.364541
 20
1490.468362
 11
665.147405
 21
1491.528041
  0
LINE
  8
CSLAYER1
  6
CONTINUOUS
 62
     3
 10
665.147405
 20
1491.528041
 11
666.753910
 21
1492.668318
  0
LINE
  8
CSLAYER1
  6
CONTINUOUS
 62
     3
 10
666.753910
 20
1492.668318
 11
668.171829
 21
1493.880514
  0
LINE
  8
CSLAYER1
  6
CONTINUOUS
 62
     3
 10
668.171829
 20
1493.880514
 11
669.390371
 21
1495.155404
  0
LINE
  8
CSLAYER1
  6
CONTINUOUS
 62
     3
 10
669.390371
 20
1495.155404
 11
670.400262
 21
1496.483285
  0
LINE
  8
CSLAYER1
  6
CONTINUOUS
 62
     3
 10
670.400262
 20
1496.483285
 11
671.193817
 21
1497.854050
  0
LINE
  8
CSLAYER1
  6
CONTINUOUS
 62
     3
 10
671.193817
 20
1497.854050
 11
671.764995
 21
1499.257269
  0
LINE
  8
CSLAYER1
  6
CONTINUOUS
 62
     3
 10
671.764995
 20
1499.257269
 11
672.109450
 21
1500.682260
  0
LINE
  8
CSLAYER1
  6
CONTINUOUS
 62
     3
 10
672.109450
 20
1500.682260
 11
672.224561
 21
1502.118180
  0
LINE
  8
CSLAYER1
  6
CONTINUOUS
 62
     3
 10
641.974561
 20
1477.271574
 11
639.338099
 21
1477.334267
  0
LINE
  8
CSLAYER1
  6
CONTINUOUS
 62
     3
 10
639.338099
 20
1477.334267
 11
636.721703
 21
1477.521871
  0
LINE
  8
CSLAYER1
  6
CONTINUOUS
 62
     3
 10
636.721703
 20
1477.521871
 11
634.145284
 21
1477.832957
  0
LINE
  8
CSLAYER1
  6
CONTINUOUS
 62
     3
 10
634.145284
 20
1477.832957
 11
631.628451
 21
1478.265158
  0
LINE
  8
CSLAYER1
  6
CONTINUOUS
 62
     3
 10
631.628451
 20
1478.265158
 11
629.190358
 21
1478.815184
  0
LINE
  8
CSLAYER1
  6
CONTINUOUS
 62
     3
 10
629.190358
 20
1478.815184
 11
626.849561
 21
1479.478850
  0
LINE
  8
CSLAYER1
  6
CONTINUOUS
 62
     3
 10
626.849561
 20
1479.478850
 11
624.623873
 21
1480.251104
  0
LINE
  8
CSLAYER1
  6
CONTINUOUS
 62
     3
 10
624.623873
 20
1480.251104
 11
622.530235
 21
1481.126069
  0
LINE
  8
CSLAYER1
  6
CONTINUOUS
 62
     3
 10
622.530235
 20
1481.126069
 11
620.584580
 21
1482.097086
  0
LINE
  8
CSLAYER1
  6
CONTINUOUS
 62
     3
 10
620.584580
 20
1482.097086
 11
618.801716
 21
1483.156766
  0
LINE
  8
CSLAYER1
  6
CONTINUOUS
 62
     3
 10
618.801716
 20
1483.156766
 11
617.195211
 21
1484.297043
  0
LINE
  8
CSLAYER1
  6
CONTINUOUS
 62
     3
 10
617.195211
 20
1484.297043
 11
615.777292
 21
1485.509239
  0
LINE
  8
CSLAYER1
  6
CONTINUOUS
 62
     3
 10
615.777292
 20
1485.509239
 11
614.558750
 21
1486.784129
  0
LINE
  8
CSLAYER1
  6
CONTINUOUS
 62
     3
 10
614.558750
 20
1486.784129
 11
613.548859
 21
1488.112010
  0
LINE
  8
CSLAYER1
  6
CONTINUOUS
 62
     3
 10
613.548859
 20
1488.112010
 11
612.755304
 21
1489.482775
  0
LINE
  8
CSLAYER1
  6
CONTINUOUS
 62
     3
 10
612.755304
 20
1489.482775
 11
612.184126
 21
1490.885993
  0
LINE
  8
CSLAYER1
  6
CONTINUOUS
 62
     3
 10
612.184126
 20
1490.885993
 11
611.839671
 21
1492.310985
  0
LINE
  8
CSLAYER1
  6
CONTINUOUS
 62
     3
 10
611.724561
 20
1502.118180
 11
611.839671
 21
1503.554099
  0
LINE
  8
CSLAYER1
  6
CONTINUOUS
 62
     3
 10
611.839671
 20
1503.554099
 11
612.184126
 21
1504.979091
  0
LINE
  8
CSLAYER1
  6
CONTINUOUS
 62
     3
 10
612.184126
 20
1504.979091
 11
612.415035
 21
1505.546368
  0
LINE
  8
CSLAYER1
  6
CONTINUOUS
 62
     3
 10
621.974561
 20
1489.774665
 11
620.584580
 21
1490.468362
  0
LINE
  8
CSLAYER1
  6
CONTINUOUS
 62
     3
 10
620.584580
 20
1490.468362
 11
618.801716
 21
1491.528041
  0
LINE
  8
CSLAYER1
  6
CONTINUOUS
 62
     3
 10
618.801716
 20
1491.528041
 11
617.195211
 21
1492.668318
  0
LINE
  8
CSLAYER1
  6
CONTINUOUS
 62
     3
 10
617.195211
 20
1492.668318
 11
615.777292
 21
1493.880514
  0
LINE
  8
CSLAYER1
  6
CONTINUOUS
 62
     3
 10
615.777292
 20
1493.880514
 11
614.558750
 21
1495.155404
  0
LINE
  8
CSLAYER1
  6
CONTINUOUS
 62
     3
 10
614.558750
 20
1495.155404
 11
613.548859
 21
1496.483285
  0
LINE
  8
CSLAYER1
  6
CONTINUOUS
 62
     3
 10
613.548859
 20
1496.483285
 11
612.755304
 21
1497.854050
  0
LINE
  8
CSLAYER1
  6
CONTINUOUS
 62
     3
 10
612.755304
 20
1497.854050
 11
612.184126
 21
1499.257269
  0
LINE
  8
CSLAYER1
  6
CONTINUOUS
 62
     3
 10
612.184126
 20
1499.257269
 11
611.839671
 21
1500.682260
  0
LINE
  8
CSLAYER1
  6
CONTINUOUS
 62
     3
 10
611.839671
 20
1500.682260
 11
611.724561
 21
1502.118180
  0
ENDBLK
  8
0
  0
BLOCK
  8
CSLAYER1
  2
BLKF0003
 70
   64
 10
0.0
 20
0.0
 30
0.0
  0
LINE
  8
CSLAYER1
  6
CONTINUOUS
 62
     3
 10
1241.079280
 20
3046.799725
 11
1236.008652
 21
3048.709442
  0
LINE
  8
CSLAYER1
  6
CONTINUOUS
 62
     3
 10
1236.008652
 20
3048.709442
 11
1229.584020
 21
3048.887904
  0
LINE
  8
CSLAYER1
  6
CONTINUOUS
 62
     3
 10
1242.133609
 20
3048.188827
 11
1236.484550
 21
3050.553550
  0
LINE
  8
CSLAYER1
  6
CONTINUOUS
 62
     3
 10
1236.484550
 20
3050.553550
 11
1231.130690
 21
3051.862271
  0
LINE
  8
CSLAYER1
  6
CONTINUOUS
 62
     3
 10
1242.975804
 20
3049.298437
 11
1238.090708
 21
3052.159707
  0
LINE
  8
CSLAYER1
  6
CONTINUOUS
 62
     3
 10
1238.090708
 20
3052.159707
 11
1235.770702
 21
3055.490998
  0
LINE
  8
CSLAYER1
  6
CONTINUOUS
 62
     3
 10
1239.895526
 20
3045.240105
 11
1244.127577
 21
3050.815922
  0
LINE
  8
CSLAYER1
  6
CONTINUOUS
 62
     3
 10
1239.895526
 20
3045.240105
 11
1427.629454
 21
2902.749854
  0
LINE
  8
CSLAYER1
  6
CONTINUOUS
 62
     3
 10
1244.127577
 20
3050.815922
 11
1431.861505
 21
2908.325672
  0
ARC
  8
CSLAYER1
  6
CONTINUOUS
 62
     3
 10
1456.044656
 20
2940.187486
 40
47.000000
 50
0.000000
 51
190.756396
  0
ARC
  8
CSLAYER1
  6
CONTINUOUS
 62
     3
 10
1456.044656
 20
2940.187486
 40
40.000000
 50
0.000000
 51
203.471057
  0
ARC
  8
CSLAYER1
  6
CONTINUOUS
 62
     3
 10
1456.044656
 20
2940.187486
 40
40.000000
 50
232.801463
 51
360.000000
  0
ARC
  8
CSLAYER1
  6
CONTINUOUS
 62
     3
 10
1456.044656
 20
2940.187486
 40
47.000000
 50
232.801463
 51
360.000000
  0
LINE
  8
CSLAYER1
  6
CONTINUOUS
 62
     3
 10
1771.555978
 20
2900.187486
 11
1487.579597
 21
2900.187486
  0
LINE
  8
CSLAYER1
  6
CONTINUOUS
 62
     3
 10
1771.555978
 20
2893.187486
 11
1477.697806
 21
2893.187486
  0
ENDBLK
  8
0
  0
BLOCK
  8
CSLAYER1
  2
BLKF0004
 70
   64
 10
0.0
 20
0.0
 30
0.0
  0
LINE
  8
CSLAYER1
  6
CONTINUOUS
 62
     4
 10
1814.214338
 20
674.937625
 11
1821.519584
 21
679.283127
  0
LINE
  8
CSLAYER1
  6
CONTINUOUS
 62
     4
 10
1817.792986
 20
668.921540
 11
1826.228358
 21
673.939293
  0
LINE
  8
CSLAYER1
  6
CONTINUOUS
 62
     4
 10
1823.037834
 20
679.302900
 11
1826.228358
 21
673.939293
  0
LINE
  8
CSLAYER1
  6
CONTINUOUS
 62
     4
 10
1818.820148
 20
676.794023
 11
1822.010672
 21
671.430417
  0
LINE
  8
CSLAYER1
  6
CONTINUOUS
 62
     4
 10
1821.519584
 20
679.283127
 11
1823.037834
 21
679.302900
  0
ARC
  8
CSLAYER1
  6
CONTINUOUS
 62
     4
 10
1822.517216
 20
660.979612
 40
16.240811
 50
103.158205
 51
120.746159
  0
ARC
  8
CSLAYER1
  6
CONTINUOUS
 62
     4
 10
1822.689426
 20
675.088985
 40
4.228294
 50
96.218799
 51
156.218799
  0
LINE
  8
CSLAYER1
  6
CONTINUOUS
 62
     4
 10
1814.214338
 20
674.937625
 11
1806.909092
 21
670.592124
  0
LINE
  8
CSLAYER1
  6
CONTINUOUS
 62
     4
 10
1817.792986
 20
668.921540
 11
1809.357615
 21
663.903787
  0
LINE
  8
CSLAYER1
  6
CONTINUOUS
 62
     4
 10
1806.167091
 20
669.267394
 11
1809.357615
 21
663.903787
  0
LINE
  8
CSLAYER1
  6
CONTINUOUS
 62
     4
 10
1810.384777
 20
671.776270
 11
1813.575301
 21
666.412664
  0
LINE
  8
CSLAYER1
  6
CONTINUOUS
 62
     4
 10
1806.909092
 20
670.592124
 11
1806.167091
 21
669.267394
  0
ARC
  8
CSLAYER1
  6
CONTINUOUS
 62
     4
 10
1822.517216
 20
660.979612
 40
16.240811
 50
120.746159
 51
138.334113
  0
ARC
  8
CSLAYER1
  6
CONTINUOUS
 62
     4
 10
1810.036369
 20
667.562355
 40
4.228294
 50
85.273519
 51
145.273519
  0
ENDBLK
  8
0
  0
BLOCK
  8
CSLAYER1
  2
BLKF0005
 70
   64
 10
0.0
 20
0.0
 30
0.0
  0
LINE
  8
CSLAYER1
  6
CONTINUOUS
 62
     4
 10
1823.229404
 20
659.782349
 11
1830.534650
 21
664.127851
  0
LINE
  8
CSLAYER1
  6
CONTINUOUS
 62
     4
 10
1832.052900
 20
664.147624
 11
1835.366535
 21
658.577055
  0
LINE
  8
CSLAYER1
  6
CONTINUOUS
 62
     4
 10
1827.835214
 20
661.638747
 11
1831.148849
 21
656.068178
  0
LINE
  8
CSLAYER1
  6
CONTINUOUS
 62
     4
 10
1830.534650
 20
664.127851
 11
1832.052900
 21
664.147624
  0
ARC
  8
CSLAYER1
  6
CONTINUOUS
 62
     4
 10
1831.532283
 20
645.824336
 40
16.240811
 50
103.158205
 51
120.746159
  0
ARC
  8
CSLAYER1
  6
CONTINUOUS
 62
     4
 10
1831.704492
 20
659.933709
 40
4.228294
 50
96.218799
 51
156.218799
  0
LINE
  8
CSLAYER1
  6
CONTINUOUS
 62
     4
 10
1823.229404
 20
659.782349
 11
1815.924158
 21
655.436848
  0
LINE
  8
CSLAYER1
  6
CONTINUOUS
 62
     4
 10
1815.182157
 20
654.112118
 11
1818.495792
 21
648.541549
  0
LINE
  8
CSLAYER1
  6
CONTINUOUS
 62
     4
 10
1819.399843
 20
656.620994
 11
1822.713478
 21
651.050425
  0
LINE
  8
CSLAYER1
  6
CONTINUOUS
 62
     4
 10
1815.924158
 20
655.436848
 11
1815.182157
 21
654.112118
  0
ARC
  8
CSLAYER1
  6
CONTINUOUS
 62
     4
 10
1831.532283
 20
645.824336
 40
16.240811
 50
120.746159
 51
138.334113
  0
ARC
  8
CSLAYER1
  6
CONTINUOUS
 62
     4
 10
1819.051435
 20
652.407079
 40
4.228294
 50
85.273519
 51
145.273519
  0
LINE
  8
CSLAYER1
  6
CONTINUOUS
 62
     4
 10
1827.319288
 20
652.906824
 11
1834.624534
 21
657.252325
  0
LINE
  8
CSLAYER1
  6
CONTINUOUS
 62
     4
 10
1834.624534
 20
657.252325
 11
1835.366535
 21
658.577055
  0
ARC
  8
CSLAYER1
  6
CONTINUOUS
 62
     4
 10
1819.016409
 20
666.864837
 40
16.240811
 50
300.746159
 51
318.334113
  0
ARC
  8
CSLAYER1
  6
CONTINUOUS
 62
     4
 10
1831.497257
 20
660.282094
 40
4.228294
 50
265.273519
 51
325.273519
  0
LINE
  8
CSLAYER1
  6
CONTINUOUS
 62
     4
 10
1827.319288
 20
652.906824
 11
1820.014042
 21
648.561322
  0
LINE
  8
CSLAYER1
  6
CONTINUOUS
 62
     4
 10
1820.014042
 20
648.561322
 11
1818.495792
 21
648.541549
  0
ARC
  8
CSLAYER1
  6
CONTINUOUS
 62
     4
 10
1819.016409
 20
666.864837
 40
16.240811
 50
283.158205
 51
300.746159
  0
ARC
  8
CSLAYER1
  6
CONTINUOUS
 62
     4
 10
1818.844200
 20
652.755464
 40
4.228294
 50
276.218799
 51
336.218799
  0
ENDBLK
  8
0
  0
BLOCK
  8
CSLAYER1
  2
BLKF0006
 70
   64
 10
0.0
 20
0.0
 30
0.0
  0
LINE
  8
CSLAYER1
  6
CONTINUOUS
 62
     3
 10
1304.894317
 20
2936.687486
 11
1304.894317
 21
2874.687486
  0
LINE
  8
CSLAYER1
  6
CONTINUOUS
 62
     3
 10
1302.394317
 20
2939.187486
 11
1217.394317
 21
2939.187486
  0
LINE
  8
CSLAYER1
  6
CENTER
 62
     5
 10
1363.243956
 20
2866.687486
 11
1304.894317
 21
2866.687486
  0
LINE
  8
CSLAYER1
  6
CONTINUOUS
 62
     2
 10
1302.394317
 20
2882.687486
 11
1217.394317
 21
2882.687486
  0
LINE
  8
CSLAYER1
  6
CONTINUOUS
 62
     3
 10
1302.394317
 20
2934.187486
 11
1302.394317
 21
2889.187486
  0
LINE
  8
CSLAYER1
  6
CONTINUOUS
 62
     3
 10
1214.894317
 20
2936.687486
 11
1214.894317
 21
2866.687486
  0
LINE
  8
CSLAYER1
  6
CONTINUOUS
 62
     3
 10
1299.894317
 20
2936.687486
 11
1222.894317
 21
2936.687486
  0
LINE
  8
CSLAYER1
  6
CONTINUOUS
 62
     3
 10
1299.894317
 20
2886.687486
 11
1222.894317
 21
2886.687486
  0
ARC
  8
CSLAYER1
  6
CONTINUOUS
 62
     3
 10
1276.962499
 20
2911.687486
 40
59.568182
 50
155.185163
 51
204.814837
  0
ARC
  8
CSLAYER1
  6
CONTINUOUS
 62
     3
 10
1299.894317
 20
2934.187486
 40
2.500000
 50
0.000000
 51
90.000000
  0
ARC
  8
CSLAYER1
  6
CONTINUOUS
 62
     3
 10
1299.894317
 20
2889.187486
 40
2.500000
 50
270.000000
 51
360.000000
  0
ARC
  8
CSLAYER1
  6
CONTINUOUS
 62
     3
 10
1302.394317
 20
2936.687486
 40
2.500000
 50
0.000000
 51
90.000000
  0
ARC
  8
CSLAYER1
  6
CONTINUOUS
 62
     3
 10
1217.394317
 20
2936.687486
 40
2.500000
 50
90.000000
 51
180.000000
  0
ARC
  8
CSLAYER1
  6
CONTINUOUS
 62
     2
 10
1217.394317
 20
2880.187486
 40
2.500000
 50
90.000000
 51
180.000000
  0
ARC
  8
CSLAYER1
  6
CONTINUOUS
 62
     2
 10
1302.394317
 20
2880.187486
 40
2.500000
 50
0.000000
 51
90.000000
  0
LINE
  8
CSLAYER1
  6
CONTINUOUS
 62
     3
 10
1304.894317
 20
2796.687486
 11
1304.894317
 21
2858.687486
  0
LINE
  8
CSLAYER1
  6
CONTINUOUS
 62
     3
 10
1302.394317
 20
2794.187486
 11
1217.394317
 21
2794.187486
  0
LINE
  8
CSLAYER1
  6
CONTINUOUS
 62
     2
 10
1302.394317
 20
2850.687486
 11
1217.394317
 21
2850.687486
  0
LINE
  8
CSLAYER1
  6
CONTINUOUS
 62
     3
 10
1214.894317
 20
2796.687486
 11
1214.894317
 21
2866.687486
  0
ARC
  8
CSLAYER1
  6
CONTINUOUS
 62
     3
 10
1302.394317
 20
2796.687486
 40
2.500000
 50
270.000000
 51
360.000000
  0
ARC
  8
CSLAYER1
  6
CONTINUOUS
 62
     3
 10
1217.394317
 20
2796.687486
 40
2.500000
 50
180.000000
 51
270.000000
  0
ARC
  8
CSLAYER1
  6
CONTINUOUS
 62
     2
 10
1217.394317
 20
2853.187486
 40
2.500000
 50
180.000000
 51
270.000000
  0
ARC
  8
CSLAYER1
  6
CONTINUOUS
 62
     2
 10
1302.394317
 20
2853.187486
 40
2.500000
 50
270.000000
 51
360.000000
  0
LINE
  8
CSLAYER1
  6
CONTINUOUS
 62
     3
 10
1302.394317
 20
2799.187486
 11
1302.394317
 21
2844.187486
  0
LINE
  8
CSLAYER1
  6
CONTINUOUS
 62
     3
 10
1299.894317
 20
2796.687486
 11
1222.894317
 21
2796.687486
  0
LINE
  8
CSLAYER1
  6
CONTINUOUS
 62
     3
 10
1299.894317
 20
2846.687486
 11
1222.894317
 21
2846.687486
  0
ARC
  8
CSLAYER1
  6
CONTINUOUS
 62
     3
 10
1276.962499
 20
2821.687486
 40
59.568182
 50
155.185163
 51
204.814837
  0
ARC
  8
CSLAYER1
  6
CONTINUOUS
 62
     3
 10
1299.894317
 20
2799.187486
 40
2.500000
 50
270.000000
 51
360.000000
  0
ARC
  8
CSLAYER1
  6
CONTINUOUS
 62
     3
 10
1299.894317
 20
2844.187486
 40
2.500000
 50
0.000000
 51
90.000000
  0
LINE
  8
CSLAYER1
  6
CONTINUOUS
 62
     3
 10
1311.894317
 20
2859.687486
 11
1311.894317
 21
2863.187486
  0
LINE
  8
CSLAYER1
  6
CONTINUOUS
 62
     3
 10
1363.243956
 20
2863.187486
 11
1311.894317
 21
2863.187486
  0
LINE
  8
CSLAYER1
  6
CONTINUOUS
 62
     3
 10
1310.894317
 20
2858.687486
 11
1304.894317
 21
2858.687486
  0
LINE
  8
CSLAYER1
  6
CONTINUOUS
 62
     3
 10
1310.894317
 20
2874.687486
 11
1304.894317
 21
2874.687486
  0
LINE
  8
CSLAYER1
  6
CONTINUOUS
 62
     3
 10
1363.243956
 20
2870.187486
 11
1311.894317
 21
2870.187486
  0
ARC
  8
CSLAYER1
  6
CONTINUOUS
 62
     3
 10
1310.894317
 20
2873.687486
 40
1.000000
 50
0.000000
 51
90.000000
  0
ARC
  8
CSLAYER1
  6
CONTINUOUS
 62
     3
 10
1310.894317
 20
2859.687486
 40
1.000000
 50
270.000000
 51
360.000000
  0
LINE
  8
CSLAYER1
  6
CONTINUOUS
 62
     3
 10
1311.894317
 20
2870.187486
 11
1311.894317
 21
2873.687486
  0
LINE
  8
CSLAYER1
  6
CONTINUOUS
 62
     2
 10
1311.894317
 20
2863.187486
 11
1311.894317
 21
2870.187486
  0
LINE
  8
CSLAYER1
  6
CONTINUOUS
 62
     2
 10
1304.894317
 20
2874.687486
 11
1304.894317
 21
2866.687486
  0
LINE
  8
CSLAYER1
  6
CONTINUOUS
 62
     2
 10
1304.894317
 20
2858.687486
 11
1304.894317
 21
2866.687486
  0
LINE
  8
CSLAYER1
  6
CONTINUOUS
 62
     2
 10
1285.401306
 20
2878.850145
 11
1294.536306
 21
2878.850145
  0
LINE
  8
CSLAYER1
  6
CONTINUOUS
 62
     2
 10
1285.401306
 20
2855.225145
 11
1294.536306
 21
2855.225145
  0
LINE
  8
CSLAYER1
  6
CONTINUOUS
 62
     2
 10
1295.796306
 20
2877.590145
 11
1295.796306
 21
2856.485145
  0
LINE
  8
CSLAYER1
  6
CONTINUOUS
 62
     2
 10
1284.141306
 20
2877.590145
 11
1284.141306
 21
2856.485145
  0
LINE
  8
CSLAYER1
  6
CONTINUOUS
 62
     2
 10
1286.031306
 20
2857.115145
 11
1294.063806
 21
2857.115145
  0
LINE
  8
CSLAYER1
  6
CONTINUOUS
 62
     2
 10
1286.031306
 20
2860.265145
 11
1286.976306
 21
2860.265145
  0
LINE
  8
CSLAYER1
  6
CONTINUOUS
 62
     2
 10
1286.031306
 20
2868.927645
 11
1286.976306
 21
2868.927645
  0
LINE
  8
CSLAYER1
  6
CONTINUOUS
 62
     2
 10
1286.031306
 20
2873.495145
 11
1291.071306
 21
2873.495145
  0
LINE
  8
CSLAYER1
  6
CONTINUOUS
 62
     2
 10
1284.928806
 20
2872.392645
 11
1284.928806
 21
2870.030145
  0
LINE
  8
CSLAYER1
  6
CONTINUOUS
 62
     2
 10
1292.173806
 20
2872.392645
 11
1292.173806
 21
2870.030145
  0
LINE
  8
CSLAYER1
  6
CONTINUOUS
 62
     2
 10
1295.166306
 20
2859.162645
 11
1295.166306
 21
2858.217645
  0
LINE
  8
CSLAYER1
  6
CONTINUOUS
 62
     2
 10
1287.921306
 20
2867.982645
 11
1287.921306
 21
2861.210145
  0
LINE
  8
CSLAYER1
  6
CONTINUOUS
 62
     2
 10
1288.708806
 20
2867.982645
 11
1288.708806
 21
2861.210145
  0
ARC
  8
CSLAYER1
  6
CONTINUOUS
 62
     2
 10
1286.031306
 20
2872.392645
 40
1.102500
 50
90.000000
 51
180.000000
  0
ARC
  8
CSLAYER1
  6
CONTINUOUS
 62
     2
 10
1291.071306
 20
2872.392645
 40
1.102500
 50
0.000000
 51
90.000000
  0
ARC
  8
CSLAYER1
  6
CONTINUOUS
 62
     2
 10
1291.071306
 20
2870.030145
 40
1.102500
 50
270.000000
 51
360.000000
  0
ARC
  8
CSLAYER1
  6
CONTINUOUS
 62
     2
 10
1286.031306
 20
2870.030145
 40
1.102500
 50
180.000000
 51
270.000000
  0
ARC
  8
CSLAYER1
  6
CONTINUOUS
 62
     2
 10
1294.063806
 20
2859.162645
 40
1.102500
 50
0.000000
 51
90.000000
  0
ARC
  8
CSLAYER1
  6
CONTINUOUS
 62
     2
 10
1294.063806
 20
2858.217645
 40
1.102500
 50
270.000000
 51
360.000000
  0
ARC
  8
CSLAYER1
  6
CONTINUOUS
 62
     2
 10
1286.031306
 20
2858.217645
 40
1.102500
 50
180.000000
 51
270.000000
  0
ARC
  8
CSLAYER1
  6
CONTINUOUS
 62
     2
 10
1286.031306
 20
2859.162645
 40
1.102500
 50
90.000000
 51
180.000000
  0
LINE
  8
CSLAYER1
  6
CONTINUOUS
 62
     2
 10
1289.653806
 20
2868.927645
 11
1291.071306
 21
2868.927645
  0
LINE
  8
CSLAYER1
  6
CONTINUOUS
 62
     2
 10
1289.653806
 20
2860.265145
 11
1294.063806
 21
2860.265145
  0
ARC
  8
CSLAYER1
  6
CONTINUOUS
 62
     2
 10
1286.976306
 20
2867.982645
 40
0.945000
 50
0.000000
 51
90.000000
  0
ARC
  8
CSLAYER1
  6
CONTINUOUS
 62
     2
 10
1289.653806
 20
2867.982645
 40
0.945000
 50
90.000000
 51
180.000000
  0
ARC
  8
CSLAYER1
  6
CONTINUOUS
 62
     2
 10
1289.653806
 20
2861.210145
 40
0.945000
 50
180.000000
 51
270.000000
  0
ARC
  8
CSLAYER1
  6
CONTINUOUS
 62
     2
 10
1285.401306
 20
2877.590145
 40
1.260000
 50
90.000000
 51
180.000000
  0
ARC
  8
CSLAYER1
  6
CONTINUOUS
 62
     2
 10
1294.536306
 20
2877.590145
 40
1.260000
 50
0.000000
 51
90.000000
  0
ARC
  8
CSLAYER1
  6
CONTINUOUS
 62
     2
 10
1294.536306
 20
2856.485145
 40
1.260000
 50
270.000000
 51
360.000000
  0
ARC
  8
CSLAYER1
  6
CONTINUOUS
 62
     2
 10
1285.401306
 20
2856.485145
 40
1.260000
 50
180.000000
 51
270.000000
  0
ARC
  8
CSLAYER1
  6
CONTINUOUS
 62
     2
 10
1286.976306
 20
2861.210145
 40
0.945000
 50
270.000000
 51
360.000000
  0
LINE
  8
CSLAYER1
  6
CONTINUOUS
 62
     2
 10
1284.928806
 20
2859.162645
 11
1284.928806
 21
2858.217645
  0
CIRCLE
  8
CSLAYER1
  6
CONTINUOUS
 62
     2
 10
1270.394317
 20
2916.687486
 40
2.500000
  0
CIRCLE
  8
CSLAYER1
  6
CONTINUOUS
 62
     2
 10
1270.394317
 20
2926.687486
 40
2.500000
  0
CIRCLE
  8
CSLAYER1
  6
CONTINUOUS
 62
     2
 10
1260.394317
 20
2926.687486
 40
2.500000
  0
CIRCLE
  8
CSLAYER1
  6
CONTINUOUS
 62
     2
 10
1260.394317
 20
2916.687486
 40
2.500000
  0
CIRCLE
  8
CSLAYER1
  6
CONTINUOUS
 62
     2
 10
1250.394317
 20
2916.687486
 40
2.500000
  0
CIRCLE
  8
CSLAYER1
  6
CONTINUOUS
 62
     2
 10
1250.394317
 20
2926.687486
 40
2.500000
  0
CIRCLE
  8
CSLAYER1
  6
CONTINUOUS
 62
     2
 10
1240.394317
 20
2926.687486
 40
2.500000
  0
CIRCLE
  8
CSLAYER1
  6
CONTINUOUS
 62
     2
 10
1240.394317
 20
2916.687486
 40
2.500000
  0
CIRCLE
  8
CSLAYER1
  6
CONTINUOUS
 62
     2
 10
1230.394317
 20
2916.687486
 40
2.500000
  0
CIRCLE
  8
CSLAYER1
  6
CONTINUOUS
 62
     2
 10
1230.394317
 20
2926.687486
 40
2.500000
  0
CIRCLE
  8
CSLAYER1
  6
CONTINUOUS
 62
     2
 10
1270.394317
 20
2906.687486
 40
2.500000
  0
CIRCLE
  8
CSLAYER1
  6
CONTINUOUS
 62
     2
 10
1270.394317
 20
2896.687486
 40
2.500000
  0
CIRCLE
  8
CSLAYER1
  6
CONTINUOUS
 62
     2
 10
1260.394317
 20
2896.687486
 40
2.500000
  0
CIRCLE
  8
CSLAYER1
  6
CONTINUOUS
 62
     2
 10
1260.394317
 20
2906.687486
 40
2.500000
  0
CIRCLE
  8
CSLAYER1
  6
CONTINUOUS
 62
     2
 10
1250.394317
 20
2906.687486
 40
2.500000
  0
CIRCLE
  8
CSLAYER1
  6
CONTINUOUS
 62
     2
 10
1250.394317
 20
2896.687486
 40
2.500000
  0
CIRCLE
  8
CSLAYER1
  6
CONTINUOUS
 62
     2
 10
1240.394317
 20
2896.687486
 40
2.500000
  0
CIRCLE
  8
CSLAYER1
  6
CONTINUOUS
 62
     2
 10
1240.394317
 20
2906.687486
 40
2.500000
  0
CIRCLE
  8
CSLAYER1
  6
CONTINUOUS
 62
     2
 10
1230.394317
 20
2906.687486
 40
2.500000
  0
CIRCLE
  8
CSLAYER1
  6
CONTINUOUS
 62
     2
 10
1230.394317
 20
2896.687486
 40
2.500000
  0
CIRCLE
  8
CSLAYER1
  6
CONTINUOUS
 62
     2
 10
1270.394317
 20
2816.687486
 40
2.500000
  0
CIRCLE
  8
CSLAYER1
  6
CONTINUOUS
 62
     2
 10
1270.394317
 20
2806.687486
 40
2.500000
  0
CIRCLE
  8
CSLAYER1
  6
CONTINUOUS
 62
     2
 10
1260.394317
 20
2806.687486
 40
2.500000
  0
CIRCLE
  8
CSLAYER1
  6
CONTINUOUS
 62
     2
 10
1260.394317
 20
2816.687486
 40
2.500000
  0
CIRCLE
  8
CSLAYER1
  6
CONTINUOUS
 62
     2
 10
1250.394317
 20
2816.687486
 40
2.500000
  0
CIRCLE
  8
CSLAYER1
  6
CONTINUOUS
 62
     2
 10
1250.394317
 20
2806.687486
 40
2.500000
  0
CIRCLE
  8
CSLAYER1
  6
CONTINUOUS
 62
     2
 10
1240.394317
 20
2806.687486
 40
2.500000
  0
CIRCLE
  8
CSLAYER1
  6
CONTINUOUS
 62
     2
 10
1240.394317
 20
2816.687486
 40
2.500000
  0
CIRCLE
  8
CSLAYER1
  6
CONTINUOUS
 62
     2
 10
1230.394317
 20
2816.687486
 40
2.500000
  0
CIRCLE
  8
CSLAYER1
  6
CONTINUOUS
 62
     2
 10
1230.394317
 20
2806.687486
 40
2.500000
  0
CIRCLE
  8
CSLAYER1
  6
CONTINUOUS
 62
     2
 10
1270.394317
 20
2826.687486
 40
2.500000
  0
CIRCLE
  8
CSLAYER1
  6
CONTINUOUS
 62
     2
 10
1270.394317
 20
2836.687486
 40
2.500000
  0
CIRCLE
  8
CSLAYER1
  6
CONTINUOUS
 62
     2
 10
1260.394317
 20
2836.687486
 40
2.500000
  0
CIRCLE
  8
CSLAYER1
  6
CONTINUOUS
 62
     2
 10
1260.394317
 20
2826.687486
 40
2.500000
  0
CIRCLE
  8
CSLAYER1
  6
CONTINUOUS
 62
     2
 10
1250.394317
 20
2826.687486
 40
2.500000
  0
CIRCLE
  8
CSLAYER1
  6
CONTINUOUS
 62
     2
 10
1250.394317
 20
2836.687486
 40
2.500000
  0
CIRCLE
  8
CSLAYER1
  6
CONTINUOUS
 62
     2
 10
1240.394317
 20
2836.687486
 40
2.500000
  0
CIRCLE
  8
CSLAYER1
  6
CONTINUOUS
 62
     2
 10
1240.394317
 20
2826.687486
 40
2.500000
  0
CIRCLE
  8
CSLAYER1
  6
CONTINUOUS
 62
     2
 10
1230.394317
 20
2826.687486
 40
2.500000
  0
CIRCLE
  8
CSLAYER1
  6
CONTINUOUS
 62
     2
 10
1230.394317
 20
2836.687486
 40
2.500000
  0
LINE
  8
CSLAYER1
  6
CONTINUOUS
 62
     2
 10
1296.394317
 20
2839.187486
 11
1296.394317
 21
2804.187486
  0
LINE
  8
CSLAYER1
  6
CONTINUOUS
 62
     2
 10
1280.394317
 20
2839.187486
 11
1280.394317
 21
2804.187486
  0
LINE
  8
CSLAYER1
  6
CONTINUOUS
 62
     2
 10
1294.894317
 20
2840.687486
 11
1281.894317
 21
2840.687486
  0
LINE
  8
CSLAYER1
  6
CONTINUOUS
 62
     2
 10
1295.394317
 20
2839.187486
 11
1295.394317
 21
2804.187486
  0
LINE
  8
CSLAYER1
  6
CONTINUOUS
 62
     2
 10
1281.394317
 20
2839.187486
 11
1281.394317
 21
2804.187486
  0
LINE
  8
CSLAYER1
  6
CONTINUOUS
 62
     2
 10
1294.894317
 20
2839.687486
 11
1281.894317
 21
2839.687486
  0
LINE
  8
CSLAYER1
  6
CONTINUOUS
 62
     2
 10
1294.894317
 20
2802.687486
 11
1281.894317
 21
2802.687486
  0
LINE
  8
CSLAYER1
  6
CONTINUOUS
 62
     2
 10
1294.894317
 20
2803.687486
 11
1281.894317
 21
2803.687486
  0
ARC
  8
CSLAYER1
  6
CONTINUOUS
 62
     2
 10
1294.894317
 20
2839.187486
 40
0.500000
 50
0.000000
 51
90.000000
  0
ARC
  8
CSLAYER1
  6
CONTINUOUS
 62
     2
 10
1281.894317
 20
2839.187486
 40
0.500000
 50
90.000000
 51
180.000000
  0
ARC
  8
CSLAYER1
  6
CONTINUOUS
 62
     2
 10
1294.894317
 20
2804.187486
 40
0.500000
 50
270.000000
 51
360.000000
  0
ARC
  8
CSLAYER1
  6
CONTINUOUS
 62
     2
 10
1281.894317
 20
2804.187486
 40
0.500000
 50
180.000000
 51
270.000000
  0
ARC
  8
CSLAYER1
  6
CONTINUOUS
 62
     2
 10
1294.894317
 20
2839.187486
 40
1.500000
 50
0.000000
 51
90.000000
  0
ARC
  8
CSLAYER1
  6
CONTINUOUS
 62
     2
 10
1281.894317
 20
2839.187486
 40
1.500000
 50
90.000000
 51
180.000000
  0
ARC
  8
CSLAYER1
  6
CONTINUOUS
 62
     2
 10
1294.894317
 20
2804.187486
 40
1.500000
 50
270.000000
 51
360.000000
  0
ARC
  8
CSLAYER1
  6
CONTINUOUS
 62
     2
 10
1281.894317
 20
2804.187486
 40
1.500000
 50
180.000000
 51
270.000000
  0
LINE
  8
CSLAYER1
  6
CONTINUOUS
 62
     2
 10
1291.394317
 20
2830.687486
 11
1291.394317
 21
2812.687486
  0
LINE
  8
CSLAYER1
  6
CONTINUOUS
 62
     2
 10
1294.472389
 20
2821.687486
 11
1291.394317
 21
2812.687486
  0
LINE
  8
CSLAYER1
  6
CONTINUOUS
 62
     2
 10
1294.472389
 20
2821.687486
 11
1291.394317
 21
2830.687486
  0
TEXT
  8
CSLAYER1
 62
     2
 10
1283.100272
 20
2830.667656
 40
7.066058
 41
1.574983
  1
UP
 50
270.000000
 51
0.000000
  7
EASYDRAW_FONT
 72
     5
 11
1283.100272
 21
2812.119453
  0
LINE
  8
CSLAYER1
  6
CONTINUOUS
 62
     2
 10
1296.394317
 20
2894.187486
 11
1296.394317
 21
2929.187486
  0
LINE
  8
CSLAYER1
  6
CONTINUOUS
 62
     2
 10
1280.394317
 20
2894.187486
 11
1280.394317
 21
2929.187486
  0
LINE
  8
CSLAYER1
  6
CONTINUOUS
 62
     2
 10
1294.894317
 20
2892.687486
 11
1281.894317
 21
2892.687486
  0
LINE
  8
CSLAYER1
  6
CONTINUOUS
 62
     2
 10
1295.394317
 20
2894.187486
 11
1295.394317
 21
2929.187486
  0
LINE
  8
CSLAYER1
  6
CONTINUOUS
 62
     2
 10
1281.394317
 20
2894.187486
 11
1281.394317
 21
2929.187486
  0
LINE
  8
CSLAYER1
  6
CONTINUOUS
 62
     2
 10
1294.894317
 20
2893.687486
 11
1281.894317
 21
2893.687486
  0
LINE
  8
CSLAYER1
  6
CONTINUOUS
 62
     2
 10
1294.894317
 20
2930.687486
 11
1281.894317
 21
2930.687486
  0
LINE
  8
CSLAYER1
  6
CONTINUOUS
 62
     2
 10
1294.894317
 20
2929.687486
 11
1281.894317
 21
2929.687486
  0
ARC
  8
CSLAYER1
  6
CONTINUOUS
 62
     2
 10
1294.894317
 20
2894.187486
 40
0.500000
 50
270.000000
 51
360.000000
  0
ARC
  8
CSLAYER1
  6
CONTINUOUS
 62
     2
 10
1281.894317
 20
2894.187486
 40
0.500000
 50
180.000000
 51
270.000000
  0
ARC
  8
CSLAYER1
  6
CONTINUOUS
 62
     2
 10
1294.894317
 20
2929.187486
 40
0.500000
 50
0.000000
 51
90.000000
  0
ARC
  8
CSLAYER1
  6
CONTINUOUS
 62
     2
 10
1281.894317
 20
2929.187486
 40
0.500000
 50
90.000000
 51
180.000000
  0
ARC
  8
CSLAYER1
  6
CONTINUOUS
 62
     2
 10
1294.894317
 20
2894.187486
 40
1.500000
 50
270.000000
 51
360.000000
  0
ARC
  8
CSLAYER1
  6
CONTINUOUS
 62
     2
 10
1281.894317
 20
2894.187486
 40
1.500000
 50
180.000000
 51
270.000000
  0
ARC
  8
CSLAYER1
  6
CONTINUOUS
 62
     2
 10
1294.894317
 20
2929.187486
 40
1.500000
 50
0.000000
 51
90.000000
  0
ARC
  8
CSLAYER1
  6
CONTINUOUS
 62
     2
 10
1281.894317
 20
2929.187486
 40
1.500000
 50
90.000000
 51
180.000000
  0
LINE
  8
CSLAYER1
  6
CONTINUOUS
 62
     2
 10
1285.921387
 20
2902.687486
 11
1285.921387
 21
2920.687486
  0
LINE
  8
CSLAYER1
  6
CONTINUOUS
 62
     2
 10
1282.843315
 20
2911.687486
 11
1285.921387
 21
2920.687486
  0
LINE
  8
CSLAYER1
  6
CONTINUOUS
 62
     2
 10
1282.843315
 20
2911.687486
 11
1285.921387
 21
2902.687486
  0
TEXT
  8
CSLAYER1
 62
     2
 10
1287.531357
 20
2926.385469
 40
6.383575
 41
1.255870
  1
DOWN
 50
270.000000
 51
0.000000
  7
EASYDRAW_FONT
 72
     5
 11
1287.531357
 21
2896.990019
  0
ENDBLK
  8
0
  0
ENDSEC
  0
SECTION
  2
ENTITIES
  0
LINE
  8
CSLAYER1
  6
CONTINUOUS
 62
     3
 10
180.707488
 20
3599.850540
 11
180.707488
 21
75.393795
  0
LINE
  8
CSLAYER1
  6
CONTINUOUS
 62
     3
 10
5161.512127
 20
3599.850540
 11
180.707488
 21
3599.850540
  0
LINE
  8
CSLAYER1
  6
CONTINUOUS
 62
     3
 10
5161.512127
 20
75.393795
 11
180.707488
 21
75.393795
  0
LINE
  8
CSLAYER1
  6
CONTINUOUS
 62
     3
 10
5161.512127
 20
75.393795
 11
5161.512127
 21
3599.850540
  0
LINE
  8
CSLAYER1
  6
CONTINUOUS
 62
     5
 10
105.707488
 20
1815.393795
 11
30.707488
 21
1815.393795
  0
LINE
  8
CSLAYER1
  6
CONTINUOUS
 62
     5
 10
3961.512127
 20
735.393795
 11
5161.512127
 21
735.393795
  0
LINE
  8
CSLAYER1
  6
CONTINUOUS
 62
     5
 10
3961.512127
 20
195.393795
 11
5161.512127
 21
195.393795
  0
LINE
  8
CSLAYER1
  6
CONTINUOUS
 62
     5
 10
3961.512127
 20
435.393795
 11
5161.512127
 21
435.393795
  0
LINE
  8
CSLAYER1
  6
CONTINUOUS
 62
     5
 10
3961.512127
 20
525.393795
 11
5161.512127
 21
525.393795
  0
LINE
  8
CSLAYER1
  6
CONTINUOUS
 62
     5
 10
3961.512127
 20
615.393795
 11
5161.512127
 21
615.393795
  0
LINE
  8
CSLAYER1
  6
CONTINUOUS
 62
     5
 10
3961.512127
 20
855.393795
 11
5161.512127
 21
855.393795
  0
LINE
  8
CSLAYER1
  6
CONTINUOUS
 62
     5
 10
3961.512127
 20
975.393795
 11
3961.512127
 21
75.393795
  0
LINE
  8
CSLAYER1
  6
CONTINUOUS
 62
     5
 10
4261.512127
 20
975.393795
 11
4261.512127
 21
615.393795
  0
LINE
  8
CSLAYER1
  6
CONTINUOUS
 62
     5
 10
3961.512127
 20
975.393795
 11
5161.512127
 21
975.393795
  0
LINE
  8
CSLAYER1
  6
CONTINUOUS
 62
     5
 10
4711.512127
 20
615.393795
 11
4711.512127
 21
195.393795
  0
TEXT
  8
CSLAYER1
 62
     3
 10
4291.048678
 20
88.237877
 40
89.070541
 41
1.003345
  1
東正車輌株式会社
 50
0.000000
 51
0.000000
  7
EASYDRAW_FONT
 72
     5
 11
4976.207181
 21
88.237877
  0
LINE
  8
CSLAYER1
  6
CONTINUOUS
 62
     5
 10
4336.512127
 20
525.393795
 11
4336.512127
 21
195.393795
  0
TEXT
  8
CSLAYER1
 62
     5
 10
4006.511719
 20
877.893738
 40
75.000000
 41
1.050000
  1
品　名
 50
0.000000
 51
0.000000
  7
EASYDRAW_FONT
 72
     5
 11
4216.511719
 21
877.893738
  0
TEXT
  8
CSLAYER1
 62
     5
 10
4006.511719
 20
757.893738
 40
75.000000
 41
1.050000
  1
型　式
 50
0.000000
 51
0.000000
  7
EASYDRAW_FONT
 72
     5
 11
4216.511719
 21
757.893738
  0
TEXT
  8
CSLAYER1
 62
     5
 10
3969.011719
 20
637.893799
 40
75.000000
 41
1.036364
  1
図面番号
 50
0.000000
 51
0.000000
  7
EASYDRAW_FONT
 72
     5
 11
4254.011719
 21
637.893799
  0
TEXT
  8
CSLAYER1
 62
     5
 10
4036.511719
 20
532.893799
 40
75.000000
 41
0.827586
  1
平成２８年４月１６日
 50
0.000000
 51
0.000000
  7
EASYDRAW_FONT
 72
     5
 11
4636.511719
 21
532.893799
  0
TEXT
  8
CSLAYER1
 62
     5
 10
4831.511719
 20
532.893799
 40
75.000000
 41
1.050000
  1
Ｂ－４
 50
0.000000
 51
0.000000
  7
EASYDRAW_FONT
 72
     5
 11
5041.511719
 21
532.893799
  0
TEXT
  8
CSLAYER1
 62
     5
 10
4044.011719
 20
442.893799
 40
75.000000
 41
1.050000
  1
検　図
 50
0.000000
 51
0.000000
  7
EASYDRAW_FONT
 72
     5
 11
4254.011719
 21
442.893799
  0
TEXT
  8
CSLAYER1
 62
     5
 10
4419.011719
 20
442.893799
 40
75.000000
 41
1.050000
  1
作　図
 50
0.000000
 51
0.000000
  7
EASYDRAW_FONT
 72
     5
 11
4629.011719
 21
442.893799
  0
TEXT
  8
CSLAYER1
 62
     5
 10
4831.511719
 20
442.893799
 40
75.000000
 41
1.050000
  1
尺　度
 50
0.000000
 51
0.000000
  7
EASYDRAW_FONT
 72
     5
 11
5041.511719
 21
442.893799
  0
TEXT
  8
CSLAYER1
 62
     5
 10
4982.620117
 20
217.121689
 40
75.000000
 41
1.080000
  1
１５
 50
0.000000
 51
0.000000
  7
EASYDRAW_FONT
 72
     5
 11
5117.620117
 21
217.121689
  0
TEXT
  8
CSLAYER1
 62
     5
 10
4952.140625
 20
288.678741
 40
75.000000
 41
1.200000
  1
／
 50
0.000000
 51
0.000000
  7
EASYDRAW_FONT
 72
     5
 11
5012.140625
 21
288.678741
  0
TEXT
  8
CSLAYER1
 62
     5
 10
4906.821289
 20
341.153900
 40
75.000000
 41
1.200000
  1
１
 50
0.000000
 51
0.000000
  7
EASYDRAW_FONT
 72
     5
 11
4966.821289
 21
341.153900
  0
TEXT
  8
CSLAYER1
 62
     3
 10
4471.511719
 20
877.893738
 40
75.000000
 41
0.834783
  1
ゴールドリフター
 50
0.000000
 51
0.000000
  7
EASYDRAW_FONT
 72
     5
 11
4951.511719
 21
877.893738
  0
TEXT
  8
CSLAYER1
 62
     3
 10
4321.511719
 20
757.893738
 40
75.000000
 41
0.821053
  1
ＧＬＩ－５００－０５１０Ｗ
 50
0.000000
 51
0.000000
  7
EASYDRAW_FONT
 72
     5
 11
5101.511719
 21
757.893738
  0
TEXT
  8
CSLAYER1
 62
     3
 10
4561.511719
 20
637.893799
 40
75.000000
 41
0.857143
  1
ＧＩ－４０
 50
0.000000
 51
0.000000
  7
EASYDRAW_FONT
 72
     5
 11
4861.511719
 21
637.893799
  0
INSERT
  8
CSLAYER1
  2
BLKF0000
 10
0.0
 20
0.0
 30
0.0
  0
TEXT
  8
CSLAYER1
 62
     5
 10
3231.030518
 20
528.304016
 40
60.000000
 41
1.050000
  1
Ｆ.Ｌ
 50
360.000000
 51
0.000000
  7
EASYDRAW_FONT
 72
     5
 11
3399.030518
 21
528.304016
  0
TEXT
  8
CSLAYER1
 62
     5
 10
2434.492188
 20
1040.343140
 40
60.000000
 41
1.017391
  1
ギヤードモーター
 50
360.000000
 51
0.000000
  7
EASYDRAW_FONT
 72
     5
 11
2902.492188
 21
1040.343140
  0
LINE
  8
CSLAYER1
  6
CONTINUOUS
 62
     3
 10
891.974561
 20
585.133098
 11
391.974561
 21
585.133098
  0
LINE
  8
CSLAYER1
  6
CONTINUOUS
 62
     3
 10
891.974561
 20
2151.489582
 11
891.974561
 21
2098.489582
  0
LINE
  8
CSLAYER1
  6
CENTER
 62
     5
 10
641.974561
 20
2203.168602
 11
641.974561
 21
484.426602
  0
LINE
  8
CSLAYER1
  6
CONTINUOUS
 62
     3
 10
821.974561
 20
2098.489582
 11
821.974561
 21
585.133098
  0
LINE
  8
CSLAYER1
  6
CONTINUOUS
 62
     3
 10
833.974561
 20
2098.489582
 11
833.974561
 21
585.133098
  0
LINE
  8
CSLAYER1
  6
CONTINUOUS
 62
     3
 10
811.974561
 20
2098.489582
 11
811.974561
 21
585.133098
  0
LINE
  8
CSLAYER1
  6
CONTINUOUS
 62
     3
 10
799.974561
 20
2098.489582
 11
799.974561
 21
585.133098
  0
LINE
  8
CSLAYER1
  6
CONTINUOUS
 62
     3
 10
891.974561
 20
585.133098
 11
891.974561
 21
520.133098
  0
LINE
  8
CSLAYER1
  6
CONTINUOUS
 62
     3
 10
891.974561
 20
2098.489582
 11
391.974561
 21
2098.489582
  0
LINE
  8
CSLAYER1
  6
CONTINUOUS
 62
     3
 10
891.974561
 20
2151.489582
 11
391.974561
 21
2151.489582
  0
LINE
  8
CSLAYER1
  6
CENTER
 62
     5
 10
857.543526
 20
1730.000461
 11
412.443764
 21
1730.000461
  0
LINE
  8
CSLAYER1
  6
CENTER
 62
     5
 10
799.974561
 20
1406.426476
 11
483.974561
 21
1406.426476
  0
LINE
  8
CSLAYER1
  6
CENTER
 62
     5
 10
862.324088
 20
1335.711340
 11
417.949441
 21
1335.711340
  0
LINE
  8
CSLAYER1
  6
CONTINUOUS
 62
     3
 10
799.974561
 20
1348.211340
 11
483.974561
 21
1348.211340
  0
LINE
  8
CSLAYER1
  6
CONTINUOUS
 62
     3
 10
799.974561
 20
1323.211340
 11
483.974561
 21
1323.211340
  0
LINE
  8
CSLAYER1
  6
CONTINUOUS
 62
     3
 10
811.974561
 20
1352.711340
 11
821.974561
 21
1352.711340
  0
LINE
  8
CSLAYER1
  6
CONTINUOUS
 62
     3
 10
811.974561
 20
1318.711340
 11
821.974561
 21
1318.711340
  0
LINE
  8
CSLAYER1
  6
CONTINUOUS
 62
     3
 10
833.974561
 20
1355.711340
 11
843.974561
 21
1355.711340
  0
LINE
  8
CSLAYER1
  6
CONTINUOUS
 62
     3
 10
833.974561
 20
1315.711340
 11
843.974561
 21
1315.711340
  0
LINE
  8
CSLAYER1
  6
CONTINUOUS
 62
     3
 10
843.974561
 20
1355.711340
 11
843.974561
 21
1315.711340
  0
LINE
  8
CSLAYER1
  6
CONTINUOUS
 62
     3
 10
799.974561
 20
1368.276476
 11
483.974561
 21
1368.276476
  0
LINE
  8
CSLAYER1
  6
CONTINUOUS
 62
     3
 10
799.974561
 20
1742.500461
 11
483.974561
 21
1742.500461
  0
LINE
  8
CSLAYER1
  6
CONTINUOUS
 62
     3
 10
799.974561
 20
1717.500461
 11
483.974561
 21
1717.500461
  0
LINE
  8
CSLAYER1
  6
CONTINUOUS
 62
     3
 10
799.974561
 20
1804.060363
 11
483.974561
 21
1804.060363
  0
LINE
  8
CSLAYER1
  6
CONTINUOUS
 62
     3
 10
811.974561
 20
1747.000461
 11
821.974561
 21
1747.000461
  0
LINE
  8
CSLAYER1
  6
CONTINUOUS
 62
     3
 10
833.974561
 20
1750.000461
 11
843.974561
 21
1750.000461
  0
LINE
  8
CSLAYER1
  6
CONTINUOUS
 62
     3
 10
833.974561
 20
1710.000461
 11
843.974561
 21
1710.000461
  0
LINE
  8
CSLAYER1
  6
CONTINUOUS
 62
     3
 10
843.974561
 20
1750.000461
 11
843.974561
 21
1710.000461
  0
LINE
  8
CSLAYER1
  6
CONTINUOUS
 62
     3
 10
811.974561
 20
1713.000461
 11
821.974561
 21
1713.000461
  0
LINE
  8
CSLAYER1
  6
CONTINUOUS
 62
     3
 10
677.974561
 20
1444.576476
 11
605.974561
 21
1444.576476
  0
LINE
  8
CSLAYER1
  6
CENTER
 62
     5
 10
862.112558
 20
941.422219
 11
407.855700
 21
941.422219
  0
LINE
  8
CSLAYER1
  6
CONTINUOUS
 62
     3
 10
799.974561
 20
953.922219
 11
483.974561
 21
953.922219
  0
LINE
  8
CSLAYER1
  6
CONTINUOUS
 62
     3
 10
811.974561
 20
958.422219
 11
821.974561
 21
958.422219
  0
LINE
  8
CSLAYER1
  6
CONTINUOUS
 62
     3
 10
833.974561
 20
961.422219
 11
843.974561
 21
961.422219
  0
LINE
  8
CSLAYER1
  6
CONTINUOUS
 62
     3
 10
833.974561
 20
921.422219
 11
843.974561
 21
921.422219
  0
LINE
  8
CSLAYER1
  6
CONTINUOUS
 62
     3
 10
843.974561
 20
961.422219
 11
843.974561
 21
921.422219
  0
LINE
  8
CSLAYER1
  6
CONTINUOUS
 62
     3
 10
811.974561
 20
924.422219
 11
821.974561
 21
924.422219
  0
LINE
  8
CSLAYER1
  6
CONTINUOUS
 62
     3
 10
391.974561
 20
2151.489582
 11
391.974561
 21
2098.489582
  0
LINE
  8
CSLAYER1
  6
CONTINUOUS
 62
     3
 10
461.974561
 20
2098.489582
 11
461.974561
 21
585.133098
  0
LINE
  8
CSLAYER1
  6
CONTINUOUS
 62
     3
 10
449.974561
 20
2098.489582
 11
449.974561
 21
585.133098
  0
LINE
  8
CSLAYER1
  6
CONTINUOUS
 62
     3
 10
471.974561
 20
2098.489582
 11
471.974561
 21
585.133098
  0
LINE
  8
CSLAYER1
  6
CONTINUOUS
 62
     3
 10
471.974561
 20
1352.711340
 11
461.974561
 21
1352.711340
  0
LINE
  8
CSLAYER1
  6
CONTINUOUS
 62
     3
 10
471.974561
 20
1318.711340
 11
461.974561
 21
1318.711340
  0
LINE
  8
CSLAYER1
  6
CONTINUOUS
 62
     3
 10
449.974561
 20
1355.711340
 11
439.974561
 21
1355.711340
  0
LINE
  8
CSLAYER1
  6
CONTINUOUS
 62
     3
 10
449.974561
 20
1315.711340
 11
439.974561
 21
1315.711340
  0
LINE
  8
CSLAYER1
  6
CONTINUOUS
 62
     3
 10
439.974561
 20
1355.711340
 11
439.974561
 21
1315.711340
  0
LINE
  8
CSLAYER1
  6
CONTINUOUS
 62
     3
 10
471.974561
 20
1747.000461
 11
461.974561
 21
1747.000461
  0
LINE
  8
CSLAYER1
  6
CONTINUOUS
 62
     3
 10
449.974561
 20
1750.000461
 11
439.974561
 21
1750.000461
  0
LINE
  8
CSLAYER1
  6
CONTINUOUS
 62
     3
 10
449.974561
 20
1710.000461
 11
439.974561
 21
1710.000461
  0
LINE
  8
CSLAYER1
  6
CONTINUOUS
 62
     3
 10
439.974561
 20
1750.000461
 11
439.974561
 21
1710.000461
  0
LINE
  8
CSLAYER1
  6
CONTINUOUS
 62
     3
 10
471.974561
 20
1713.000461
 11
461.974561
 21
1713.000461
  0
LINE
  8
CSLAYER1
  6
CONTINUOUS
 62
     3
 10
471.974561
 20
958.422219
 11
461.974561
 21
958.422219
  0
LINE
  8
CSLAYER1
  6
CONTINUOUS
 62
     3
 10
449.974561
 20
961.422219
 11
439.974561
 21
961.422219
  0
LINE
  8
CSLAYER1
  6
CONTINUOUS
 62
     3
 10
449.974561
 20
921.422219
 11
439.974561
 21
921.422219
  0
LINE
  8
CSLAYER1
  6
CONTINUOUS
 62
     4
 10
439.974561
 20
961.422219
 11
439.974561
 21
921.422219
  0
LINE
  8
CSLAYER1
  6
CONTINUOUS
 62
     3
 10
471.974561
 20
924.422219
 11
461.974561
 21
924.422219
  0
LINE
  8
CSLAYER1
  6
CONTINUOUS
 62
     3
 10
391.974561
 20
585.133098
 11
391.974561
 21
520.133098
  0
LINE
  8
CSLAYER1
  6
CONTINUOUS
 62
     3
 10
2184.804222
 20
782.454160
 11
2176.374990
 21
775.386768
  0
LINE
  8
CSLAYER1
  6
CONTINUOUS
 62
     3
 10
2107.705393
 20
874.409424
 11
2100.042454
 21
867.984521
  0
LINE
  8
CSLAYER1
  6
CONTINUOUS
 62
     3
 10
2100.042454
 20
867.984521
 11
2134.080381
 21
785.750589
  0
ARC
  8
CSLAYER1
  6
CONTINUOUS
 62
     3
 10
2159.027753
 20
796.076702
 40
27.000000
 50
202.485438
 51
309.977763
  0
LINE
  8
CSLAYER1
  6
CONTINUOUS
 62
     2
 10
2107.705393
 20
874.409424
 11
2184.804222
 21
782.454160
  0
CIRCLE
  8
CSLAYER1
  6
CONTINUOUS
 62
     4
 10
2105.023566
 20
941.422219
 40
12.500000
  0
LINE
  8
CSLAYER1
  6
CENTER
 62
     5
 10
483.974561
 20
1773.810363
 11
799.974561
 21
1773.810363
  0
LINE
  8
CSLAYER1
  6
CONTINUOUS
 62
     3
 10
799.974561
 20
1743.560363
 11
483.974561
 21
1743.560363
  0
LINE
  8
CSLAYER1
  6
CONTINUOUS
 62
     3
 10
483.974561
 20
935.827753
 11
799.974561
 21
935.827753
  0
LINE
  8
CSLAYER1
  6
CONTINUOUS
 62
     3
 10
483.974561
 20
875.327753
 11
799.974561
 21
875.327753
  0
LINE
  8
CSLAYER1
  6
CENTER
 62
     5
 10
477.618180
 20
905.577753
 11
806.487729
 21
905.577753
  0
LINE
  8
CSLAYER1
  6
CENTER
 62
     5
 10
477.618180
 20
812.518749
 11
806.252191
 21
812.518749
  0
LINE
  8
CSLAYER1
  6
CONTINUOUS
 62
     4
 10
461.974561
 20
842.768749
 11
471.974561
 21
842.768749
  0
LINE
  8
CSLAYER1
  6
CONTINUOUS
 62
     4
 10
461.974561
 20
782.268749
 11
471.974561
 21
782.268749
  0
LINE
  8
CSLAYER1
  6
CONTINUOUS
 62
     3
 10
483.974561
 20
850.668749
 11
799.974561
 21
850.668749
  0
LINE
  8
CSLAYER1
  6
CONTINUOUS
 62
     3
 10
483.974561
 20
774.368749
 11
799.974561
 21
774.368749
  0
LINE
  8
CSLAYER1
  6
CONTINUOUS
 62
     4
 10
811.974561
 20
842.768749
 11
821.974561
 21
842.768749
  0
LINE
  8
CSLAYER1
  6
CONTINUOUS
 62
     4
 10
811.974561
 20
782.268749
 11
821.974561
 21
782.268749
  0
ARC
  8
CSLAYER1
  6
CONTINUOUS
 62
     3
 10
1837.466977
 20
1523.046368
 40
30.000000
 50
-2.174713
 51
172.935262
  0
LINE
  8
CSLAYER1
  6
CONTINUOUS
 62
     3
 10
1795.417893
 20
1427.674644
 11
1807.694742
 21
1526.736090
  0
LINE
  8
CSLAYER1
  6
CONTINUOUS
 62
     3
 10
1866.989889
 20
1509.913471
 11
1867.445370
 21
1521.907964
  0
LINE
  8
CSLAYER1
  6
CONTINUOUS
 62
     3
 10
2210.413770
 20
891.989770
 11
2235.364517
 21
910.646285
  0
LINE
  8
CSLAYER1
  6
CONTINUOUS
 62
     3
 10
2250.616976
 20
844.039672
 11
2273.277462
 21
864.212926
  0
ARC
  8
CSLAYER1
  6
CONTINUOUS
 62
     3
 10
2253.329650
 20
886.620174
 40
30.000000
 50
-48.323270
 51
126.786704
  0
LINE
  8
CSLAYER1
  6
CONTINUOUS
 62
     3
 10
677.974561
 20
1543.046368
 11
677.974561
 21
1421.908009
  0
LINE
  8
CSLAYER1
  6
CONTINUOUS
 62
     3
 10
677.974561
 20
1543.046368
 11
693.974561
 21
1543.046368
  0
LINE
  8
CSLAYER1
  6
CONTINUOUS
 62
     3
 10
662.974561
 20
1540.546368
 11
662.974561
 21
1505.546368
  0
LINE
  8
CSLAYER1
  6
CONTINUOUS
 62
     4
 10
677.974561
 20
1421.908009
 11
693.974561
 21
1421.908009
  0
LINE
  8
CSLAYER1
  6
CONTINUOUS
 62
     3
 10
662.974561
 20
1540.546368
 11
677.974561
 21
1540.546368
  0
LINE
  8
CSLAYER1
  6
CONTINUOUS
 62
     3
 10
620.974561
 20
1540.546368
 11
620.974561
 21
1505.546368
  0
LINE
  8
CSLAYER1
  6
CONTINUOUS
 62
     3
 10
620.974561
 20
1540.546368
 11
605.974561
 21
1540.546368
  0
LINE
  8
CSLAYER1
  6
CONTINUOUS
 62
     3
 10
693.974561
 20
1543.046368
 11
693.974561
 21
1421.908009
  0
LINE
  8
CSLAYER1
  6
CONTINUOUS
 62
     3
 10
605.974561
 20
1543.046368
 11
605.974561
 21
1421.908009
  0
LINE
  8
CSLAYER1
  6
CONTINUOUS
 62
     3
 10
605.974561
 20
1543.046368
 11
589.974561
 21
1543.046368
  0
LINE
  8
CSLAYER1
  6
CONTINUOUS
 62
     3
 10
605.974561
 20
1421.908009
 11
589.974561
 21
1421.908009
  0
LINE
  8
CSLAYER1
  6
CONTINUOUS
 62
     3
 10
589.974561
 20
1543.046368
 11
589.974561
 21
1421.908009
  0
LINE
  8
CSLAYER1
  6
CONTINUOUS
 62
     3
 10
661.974561
 20
1553.820696
 11
661.974561
 21
1489.774665
  0
LINE
  8
CSLAYER1
  6
CONTINUOUS
 62
     3
 10
661.974561
 20
1553.820696
 11
621.974561
 21
1553.820696
  0
LINE
  8
CSLAYER1
  6
CONTINUOUS
 62
     3
 10
672.224561
 20
1500.215605
 11
672.224561
 21
1444.576476
  0
LINE
  8
CSLAYER1
  6
CONTINUOUS
 62
     3
 10
621.974561
 20
1553.820696
 11
621.974561
 21
1489.774665
  0
LINE
  8
CSLAYER1
  6
CONTINUOUS
 62
     3
 10
611.724561
 20
1502.118180
 11
611.724561
 21
1444.576476
  0
LINE
  8
CSLAYER1
  6
CONTINUOUS
 62
     5
 10
573.735481
 20
1523.046368
 11
717.093078
 21
1523.046368
  0
LINE
  8
CSLAYER1
  6
CONTINUOUS
 62
     3
 10
589.974561
 20
1444.576476
 11
483.974561
 21
1444.576476
  0
LINE
  8
CSLAYER1
  6
CONTINUOUS
 62
     3
 10
693.974561
 20
1444.576476
 11
799.974561
 21
1444.576476
  0
LINE
  8
CSLAYER1
  6
CENTER
 62
     5
 10
2780.700079
 20
547.133098
 11
1805.755978
 21
719.133098
  0
LINE
  8
CSLAYER1
  6
CENTER
 62
     5
 10
1805.755978
 20
891.133098
 11
2780.700079
 21
719.133098
  0
LINE
  8
CSLAYER1
  6
CENTER
 62
     5
 10
2780.700079
 20
719.133098
 11
1805.755978
 21
547.133098
  0
LINE
  8
CSLAYER1
  6
CENTER
 62
     5
 10
1805.755978
 20
719.133098
 11
2780.700079
 21
891.133098
  0
POINT
  8
CSLAYER1
 62
     5
 10
2780.700079
 20
719.133098
  0
LINE
  8
CSLAYER1
  6
CONTINUOUS
 62
     2
 10
2003.322855
 20
866.663862
 11
2004.563505
 21
867.342675
  0
LINE
  8
CSLAYER1
  6
CONTINUOUS
 62
     2
 10
1999.516408
 20
853.659499
 11
1952.249626
 21
867.494739
  0
LINE
  8
CSLAYER1
  6
CONTINUOUS
 62
     2
 10
1952.249626
 20
867.494739
 11
1937.361824
 21
859.348982
  0
LINE
  8
CSLAYER1
  6
CONTINUOUS
 62
     3
 10
1771.555978
 20
2151.489582
 11
2821.555978
 21
2151.489582
  0
LINE
  8
CSLAYER1
  6
CONTINUOUS
 62
     3
 10
1771.555978
 20
2151.489582
 11
1771.555978
 21
2098.489582
  0
LINE
  8
CSLAYER1
  6
CONTINUOUS
 62
     3
 10
1771.555978
 20
2098.489582
 11
2821.555978
 21
2098.489582
  0
LINE
  8
CSLAYER1
  6
CONTINUOUS
 62
     3
 10
2821.555978
 20
2151.489582
 11
2821.555978
 21
2098.489582
  0
ARC
  8
CSLAYER1
  6
CONTINUOUS
 62
     3
 10
2404.291154
 20
1335.711340
 40
25.000000
 50
-142.801304
 51
9.977763
  0
LINE
  8
CSLAYER1
  6
CONTINUOUS
 62
     3
 10
1809.208138
 20
2006.551812
 11
2385.133807
 21
1319.649084
  0
LINE
  8
CSLAYER1
  6
CONTINUOUS
 62
     3
 10
2413.891093
 20
1425.430407
 11
1849.572391
 21
2098.489582
  0
LINE
  8
CSLAYER1
  6
CONTINUOUS
 62
     3
 10
1793.033818
 20
2098.489582
 11
1809.208138
 21
2006.551812
  0
LINE
  8
CSLAYER1
  6
CONTINUOUS
 62
     3
 10
2428.913030
 20
1340.042989
 11
2414.177548
 21
1423.802144
  0
ARC
  8
CSLAYER1
  6
CONTINUOUS
 62
     4
 10
1805.755978
 20
1335.711340
 40
25.000000
 50
170.022237
 51
189.977763
  0
LINE
  8
CSLAYER1
  6
CONTINUOUS
 62
     3
 10
2400.838994
 20
2006.551812
 11
2163.747774
 21
1723.774686
  0
LINE
  8
CSLAYER1
  6
CONTINUOUS
 62
     3
 10
1796.156039
 20
1425.430407
 11
2046.299358
 21
1723.774686
  0
LINE
  8
CSLAYER1
  6
CONTINUOUS
 62
     3
 10
2417.013314
 20
2098.489582
 11
2400.838994
 21
2006.551812
  0
LINE
  8
CSLAYER1
  6
CONTINUOUS
 62
     3
 10
1781.134101
 20
1340.042989
 11
1796.156039
 21
1425.430407
  0
LINE
  8
CSLAYER1
  6
CONTINUOUS
 62
     2
 10
2161.009423
 20
881.864977
 11
2160.229958
 21
880.561938
  0
LINE
  8
CSLAYER1
  6
CENTER
 62
     5
 10
2404.291154
 20
547.133098
 11
1805.755978
 21
1335.711340
  0
LINE
  8
CSLAYER1
  6
CENTER
 62
     5
 10
1805.755978
 20
1335.711340
 11
2404.291154
 21
2124.289582
  0
LINE
  8
CSLAYER1
  6
CENTER
 62
     5
 10
2404.291154
 20
1335.711340
 11
1805.755978
 21
2124.289582
  0
LINE
  8
CSLAYER1
  6
CENTER
 62
     5
 10
1805.755978
 20
547.133098
 11
2404.291154
 21
1335.711340
  0
LINE
  8
CSLAYER1
  6
CONTINUOUS
 62
     4
 10
2022.990837
 20
1293.968958
 11
1926.803101
 21
1441.172345
  0
LINE
  8
CSLAYER1
  6
CONTINUOUS
 62
     4
 10
1972.763186
 20
1261.148490
 11
1886.522212
 21
1393.129595
  0
LINE
  8
CSLAYER1
  6
CONTINUOUS
 62
     4
 10
1875.361167
 20
1519.897839
 11
1855.469701
 21
1550.339259
  0
LINE
  8
CSLAYER1
  6
CONTINUOUS
 62
     3
 10
1806.343520
 20
1515.833128
 11
1805.242050
 21
1517.518791
  0
LINE
  8
CSLAYER1
  6
CONTINUOUS
 62
     3
 10
1838.860077
 20
1553.820696
 11
1837.673971
 21
1553.045653
  0
LINE
  8
CSLAYER1
  6
CONTINUOUS
 62
     4
 10
1855.469701
 20
1550.339259
 11
1838.860077
 21
1553.820696
  0
LINE
  8
CSLAYER1
  6
CONTINUOUS
 62
     4
 10
1805.242050
 20
1517.518791
 11
1808.723487
 21
1534.128415
  0
LINE
  8
CSLAYER1
  6
CENTER
 62
     5
 10
2375.539657
 20
716.813100
 11
2367.654279
 21
711.660524
  0
LINE
  8
CSLAYER1
  6
CONTINUOUS
 62
     2
 10
2374.332583
 20
765.001363
 11
2368.028017
 21
760.881744
  0
LINE
  8
CSLAYER1
  6
CONTINUOUS
 62
     2
 10
2359.768901
 20
706.507948
 11
2367.654279
 21
711.660524
  0
LINE
  8
CSLAYER1
  6
CONTINUOUS
 62
     2
 10
2148.586959
 20
1137.125537
 11
2138.712708
 21
1130.673363
  0
LINE
  8
CSLAYER1
  6
CONTINUOUS
 62
     2
 10
2318.678312
 20
870.636450
 11
2276.873049
 21
934.614215
  0
LINE
  8
CSLAYER1
  6
CONTINUOUS
 62
     4
 10
2034.333915
 20
1301.380913
 11
1961.420108
 21
1253.736535
  0
LINE
  8
CSLAYER1
  6
CONTINUOUS
 62
     4
 10
2143.254929
 20
1142.003334
 11
2150.913038
 21
1130.283549
  0
LINE
  8
CSLAYER1
  6
CONTINUOUS
 62
     4
 10
2143.254929
 20
1142.003334
 11
2140.470042
 21
1140.780874
  0
LINE
  8
CSLAYER1
  6
CONTINUOUS
 62
     4
 10
2150.913038
 20
1130.283549
 11
2148.675159
 21
1128.223962
  0
LINE
  8
CSLAYER1
  6
CONTINUOUS
 62
     2
 10
2148.675159
 20
1128.223962
 11
2140.470042
 21
1140.780874
  0
LINE
  8
CSLAYER1
  6
CONTINUOUS
 62
     4
 10
2317.422921
 20
889.080395
 11
2310.311819
 21
899.963053
  0
LINE
  8
CSLAYER1
  6
CONTINUOUS
 62
     2
 10
2463.316808
 20
678.604806
 11
2411.414902
 21
644.690323
  0
LINE
  8
CSLAYER1
  6
CONTINUOUS
 62
     2
 10
2432.137364
 20
726.321074
 11
2407.023538
 21
709.910840
  0
LINE
  8
CSLAYER1
  6
CONTINUOUS
 62
     2
 10
2355.523041
 20
839.913528
 11
2289.983356
 21
797.087653
  0
LINE
  8
CSLAYER1
  6
CONTINUOUS
 62
     4
 10
2316.590276
 20
904.065611
 11
2282.988546
 21
882.109090
  0
LINE
  8
CSLAYER1
  6
CONTINUOUS
 62
     4
 10
2463.316808
 20
678.604806
 11
2432.137364
 21
726.321074
  0
LINE
  8
CSLAYER1
  6
CONTINUOUS
 62
     4
 10
2430.463109
 20
725.227058
 11
2351.146979
 21
846.610548
  0
LINE
  8
CSLAYER1
  6
CONTINUOUS
 62
     4
 10
2343.389175
 20
847.514139
 11
2316.585793
 21
888.533387
  0
LINE
  8
CSLAYER1
  6
CONTINUOUS
 62
     4
 10
2463.316808
 20
678.604806
 11
2452.624575
 21
662.061645
  0
LINE
  8
CSLAYER1
  6
CONTINUOUS
 62
     2
 10
2363.213068
 20
771.472944
 11
2329.777739
 21
749.625155
  0
LINE
  8
CSLAYER1
  6
CONTINUOUS
 62
     2
 10
2407.794203
 20
703.247052
 11
2383.517505
 21
687.383826
  0
LINE
  8
CSLAYER1
  6
CONTINUOUS
 62
     2
 10
2408.664562
 20
707.399458
 11
2332.083471
 21
824.597310
  0
LINE
  8
CSLAYER1
  6
CONTINUOUS
 62
     4
 10
2406.621562
 20
632.001701
 11
2452.624575
 21
662.061645
  0
LINE
  8
CSLAYER1
  6
CONTINUOUS
 62
     4
 10
2405.113662
 20
640.572877
 11
2411.414902
 21
644.690323
  0
ARC
  8
CSLAYER1
  6
CONTINUOUS
 62
     2
 10
2406.153179
 20
705.758434
 40
3.000000
 50
-56.838024
 51
33.161976
  0
ARC
  8
CSLAYER1
  6
CONTINUOUS
 62
     2
 10
2364.854091
 20
768.961562
 40
3.000000
 50
33.161976
 51
123.161976
  0
LINE
  8
CSLAYER1
  6
CONTINUOUS
 62
     4
 10
2276.674982
 20
932.336123
 11
2221.590299
 21
1016.636392
  0
LINE
  8
CSLAYER1
  6
CONTINUOUS
 62
     2
 10
2317.422921
 20
889.080395
 11
2271.380907
 21
858.994966
  0
LINE
  8
CSLAYER1
  6
CONTINUOUS
 62
     2
 10
2335.184058
 20
860.071052
 11
2271.865588
 21
818.696594
  0
LINE
  8
CSLAYER1
  6
CONTINUOUS
 62
     4
 10
2110.331244
 20
1024.018401
 11
1961.129989
 21
1252.352399
  0
LINE
  8
CSLAYER1
  6
CONTINUOUS
 62
     4
 10
2256.475935
 20
849.255547
 11
2271.380907
 21
858.994966
  0
LINE
  8
CSLAYER1
  6
CONTINUOUS
 62
     2
 10
2348.378708
 20
847.190788
 11
2283.512724
 21
804.805132
  0
ARC
  8
CSLAYER1
  6
CONTINUOUS
 62
     4
 10
2345.900557
 20
849.155162
 40
3.000000
 50
213.161976
 51
303.161976
  0
LINE
  8
CSLAYER1
  6
CONTINUOUS
 62
     2
 10
2353.167537
 20
764.908851
 11
2319.526558
 21
816.392193
  0
LINE
  8
CSLAYER1
  6
CONTINUOUS
 62
     2
 10
2359.864557
 20
769.284913
 11
2326.223578
 21
820.768255
  0
LINE
  8
CSLAYER1
  6
CONTINUOUS
 62
     2
 10
2423.766089
 20
720.850996
 11
2348.826021
 21
835.537466
  0
LINE
  8
CSLAYER1
  6
CONTINUOUS
 62
     2
 10
2425.440344
 20
721.945012
 11
2350.500276
 21
836.631481
  0
LINE
  8
CSLAYER1
  6
CONTINUOUS
 62
     2
 10
2296.973379
 20
788.750698
 11
2291.064223
 21
797.793928
  0
ARC
  8
CSLAYER1
  6
CONTINUOUS
 62
     4
 10
2349.472724
 20
845.516533
 40
2.000000
 50
33.161976
 51
123.161976
  0
LINE
  8
CSLAYER1
  6
CONTINUOUS
 62
     4
 10
2294.709964
 20
937.550712
 11
2261.108235
 21
915.594191
  0
LINE
  8
CSLAYER1
  6
CONTINUOUS
 62
     2
 10
2287.148605
 20
932.609861
 11
2274.582394
 21
924.398668
  0
LINE
  8
CSLAYER1
  6
CONTINUOUS
 62
     2
 10
2283.298286
 20
936.664016
 11
2272.415628
 21
929.552915
  0
LINE
  8
CSLAYER1
  6
CONTINUOUS
 62
     2
 10
2284.457631
 20
936.728062
 11
2287.148605
 21
932.609861
  0
LINE
  8
CSLAYER1
  6
CONTINUOUS
 62
     2
 10
2281.316078
 20
934.675264
 11
2284.007052
 21
930.557063
  0
LINE
  8
CSLAYER1
  6
CONTINUOUS
 62
     2
 10
2283.298286
 20
936.664016
 11
2284.457631
 21
936.728062
  0
ARC
  8
CSLAYER1
  6
CONTINUOUS
 62
     2
 10
2284.344589
 20
933.470782
 40
3.259241
 50
97.596078
 51
158.533594
  0
ARC
  8
CSLAYER1
  6
CONTINUOUS
 62
     2
 10
2284.650489
 20
922.711808
 40
12.419443
 50
105.574022
 51
140.749930
  0
LINE
  8
CSLAYER1
  6
CONTINUOUS
 62
     4
 10
2316.590276
 20
904.065611
 11
2294.709964
 21
937.550712
  0
LINE
  8
CSLAYER1
  6
CONTINUOUS
 62
     3
 10
2034.333915
 20
1301.380913
 11
2035.718050
 21
1301.090793
  0
LINE
  8
CSLAYER1
  6
CONTINUOUS
 62
     3
 10
1961.420108
 20
1253.736535
 11
1961.129989
 21
1252.352399
  0
LINE
  8
CSLAYER1
  6
CONTINUOUS
 62
     4
 10
2271.891420
 20
928.516870
 11
2274.582394
 21
924.398668
  0
LINE
  8
CSLAYER1
  6
CONTINUOUS
 62
     2
 10
2275.032973
 20
930.569668
 11
2277.723947
 21
926.451466
  0
LINE
  8
CSLAYER1
  6
CONTINUOUS
 62
     2
 10
2272.415628
 20
929.552915
 11
2271.891420
 21
928.516870
  0
ARC
  8
CSLAYER1
  6
CONTINUOUS
 62
     2
 10
2274.919931
 20
927.312388
 40
3.259241
 50
87.790358
 51
148.727875
  0
LINE
  8
CSLAYER1
  6
CONTINUOUS
 62
     2
 10
2035.718050
 20
1301.090793
 11
1961.129989
 21
1252.352399
  0
LINE
  8
CSLAYER1
  6
CENTER
 62
     5
 10
2421.173430
 20
629.756107
 11
1837.466977
 21
1523.046368
  0
ARC
  8
CSLAYER1
  6
CONTINUOUS
 62
     3
 10
1805.755978
 20
1335.711340
 40
25.000000
 50
37.198696
 51
189.977763
  0
LINE
  8
CSLAYER1
  6
CONTINUOUS
 62
     3
 10
2400.838994
 20
664.870868
 11
1824.913325
 21
1351.773596
  0
LINE
  8
CSLAYER1
  6
CONTINUOUS
 62
     3
 10
1796.156039
 20
1245.992273
 11
2350.245791
 21
585.133098
  0
LINE
  8
CSLAYER1
  6
CONTINUOUS
 62
     3
 10
2414.867007
 20
585.133098
 11
2400.838994
 21
664.870868
  0
LINE
  8
CSLAYER1
  6
CONTINUOUS
 62
     3
 10
1781.134101
 20
1331.379691
 11
1795.869584
 21
1247.620536
  0
LINE
  8
CSLAYER1
  6
CONTINUOUS
 62
     3
 10
1809.208138
 20
664.870868
 11
2046.299358
 21
947.647994
  0
LINE
  8
CSLAYER1
  6
CONTINUOUS
 62
     3
 10
2413.891093
 20
1245.992273
 11
2163.747774
 21
947.647994
  0
LINE
  8
CSLAYER1
  6
CONTINUOUS
 62
     3
 10
1795.180125
 20
585.133098
 11
1809.208138
 21
664.870868
  0
LINE
  8
CSLAYER1
  6
CONTINUOUS
 62
     3
 10
2428.913030
 20
1331.379691
 11
2414.177548
 21
1247.620536
  0
LINE
  8
CSLAYER1
  6
CONTINUOUS
 62
     3
 10
1771.755978
 20
585.133098
 11
1771.755978
 21
520.133098
  0
LINE
  8
CSLAYER1
  6
CONTINUOUS
 62
     3
 10
2821.755978
 20
585.133098
 11
2821.755978
 21
520.133098
  0
LINE
  8
CSLAYER1
  6
CONTINUOUS
 62
     5
 10
1805.755978
 20
567.133098
 11
1805.755978
 21
527.133098
  0
LINE
  8
CSLAYER1
  6
CONTINUOUS
 62
     3
 10
1771.755978
 20
585.133098
 11
2821.755978
 21
585.133098
  0
LINE
  8
CSLAYER1
  6
CONTINUOUS
 62
     5
 10
1785.755978
 20
547.133098
 11
1825.755978
 21
547.133098
  0
LINE
  8
CSLAYER1
  6
CONTINUOUS
 62
     5
 10
2110.103235
 20
1773.810363
 11
2166.873832
 21
1773.810363
  0
LINE
  8
CSLAYER1
  6
CONTINUOUS
 62
     5
 10
2138.275520
 20
1743.560363
 11
2138.275520
 21
1803.823053
  0
CIRCLE
  8
CSLAYER1
  6
CONTINUOUS
 62
     3
 10
1837.466977
 20
1523.046368
 40
12.500000
  0
LINE
  8
CSLAYER1
  6
PHANTOM
 62
     5
 10
1837.466977
 20
1523.046368
 11
1828.043553
 21
1406.426476
  0
LINE
  8
CSLAYER1
  6
CONTINUOUS
 62
     1
 10
1829.956921
 20
1499.574990
 11
1841.352413
 21
1498.654181
  0
CIRCLE
  8
CSLAYER1
  6
CONTINUOUS
 62
     1
 10
1835.533967
 20
1499.124339
 40
4.000000
  0
ARC
  8
CSLAYER1
  6
CONTINUOUS
 62
     3
 10
1800.379932
 20
1427.059690
 40
5.000000
 50
167.256444
 51
209.168069
  0
LINE
  8
CSLAYER1
  6
CONTINUOUS
 62
     3
 10
1809.909593
 20
1534.903457
 11
1808.723487
 21
1534.128415
  0
POINT
  8
CSLAYER1
 62
     5
 10
2162.786960
 20
812.518749
  0
LINE
  8
CSLAYER1
  6
PHANTOM
 62
     5
 10
2268.807033
 20
899.287085
 11
2139.639060
 21
793.574178
  0
CIRCLE
  8
CSLAYER1
  6
CONTINUOUS
 62
     4
 10
2253.329650
 20
886.620174
 40
16.000000
  0
INSERT
  8
CSLAYER1
  2
BLKF0001
 10
0.0
 20
0.0
 30
0.0
  0
LINE
  8
CSLAYER1
  6
CONTINUOUS
 62
     5
 10
2384.291154
 20
547.133098
 11
2424.291154
 21
547.133098
  0
LINE
  8
CSLAYER1
  6
CONTINUOUS
 62
     5
 10
2404.291154
 20
567.133098
 11
2404.291154
 21
527.133098
  0
LINE
  8
CSLAYER1
  6
CONTINUOUS
 62
     5
 10
2404.291154
 20
2147.055436
 11
2404.291154
 21
2104.409258
  0
LINE
  8
CSLAYER1
  6
CONTINUOUS
 62
     5
 10
2381.869998
 20
2124.289582
 11
2426.811810
 21
2124.289582
  0
LINE
  8
CSLAYER1
  6
CONTINUOUS
 62
     5
 10
1785.548480
 20
2124.289582
 11
1830.888291
 21
2124.289582
  0
LINE
  8
CSLAYER1
  6
CONTINUOUS
 62
     5
 10
1805.755978
 20
2144.379881
 11
1805.755978
 21
2103.514393
  0
LINE
  8
CSLAYER1
  6
CONTINUOUS
 62
     3
 10
2105.023566
 20
1793.814659
 11
2360.474740
 21
2098.489582
  0
LINE
  8
CSLAYER1
  6
CONTINUOUS
 62
     3
 10
2105.023566
 20
1653.734712
 11
1838.380538
 21
1335.711340
  0
LINE
  8
CSLAYER1
  6
CONTINUOUS
 62
     3
 10
2105.023566
 20
1017.687968
 11
2371.666594
 21
1335.711340
  0
LINE
  8
CSLAYER1
  6
CONTINUOUS
 62
     3
 10
2105.023566
 20
877.608021
 11
1859.801340
 21
585.133098
  0
LINE
  8
CSLAYER1
  6
CONTINUOUS
 62
     4
 10
2170.148366
 20
1095.361885
 11
2035.718050
 21
1301.090793
  0
LINE
  8
CSLAYER1
  6
CENTER
 62
     5
 10
2034.631451
 20
905.577753
 11
2120.731108
 21
905.577753
  0
LINE
  8
CSLAYER1
  6
CENTER
 62
     5
 10
2077.817421
 20
947.497366
 11
2077.817421
 21
866.807111
  0
LINE
  8
CSLAYER1
  6
CONTINUOUS
 62
     5
 10
2105.023566
 20
961.471656
 11
2105.023566
 21
918.333098
  0
LINE
  8
CSLAYER1
  6
CONTINUOUS
 62
     5
 10
2086.471559
 20
941.422219
 11
2126.591295
 21
941.422219
  0
LINE
  8
CSLAYER1
  6
CONTINUOUS
 62
     5
 10
2380.325487
 20
1335.711340
 11
2440.618427
 21
1335.711340
  0
LINE
  8
CSLAYER1
  6
CONTINUOUS
 62
     5
 10
2404.291154
 20
1364.068606
 11
2404.291154
 21
1301.569827
  0
LINE
  8
CSLAYER1
  6
CONTINUOUS
 62
     5
 10
1805.755978
 20
1367.070465
 11
1805.755978
 21
1311.988912
  0
LINE
  8
CSLAYER1
  6
CONTINUOUS
 62
     5
 10
1773.788123
 20
1335.711340
 11
1828.620061
 21
1335.711340
  0
LINE
  8
CSLAYER1
  6
CONTINUOUS
 62
     5
 10
2074.615952
 20
1730.000461
 11
2138.365451
 21
1730.000461
  0
LINE
  8
CSLAYER1
  6
CONTINUOUS
 62
     5
 10
2105.023566
 20
1756.795745
 11
2105.023566
 21
1697.240292
  0
CIRCLE
  8
CSLAYER1
  6
CONTINUOUS
 62
     3
 10
2105.023566
 20
1730.000461
 40
12.500000
  0
CIRCLE
  8
CSLAYER1
  6
CONTINUOUS
 62
     3
 10
1805.755978
 20
1335.711340
 40
12.500000
  0
CIRCLE
  8
CSLAYER1
  6
CONTINUOUS
 62
     3
 10
2404.291154
 20
1335.711340
 40
12.500000
  0
CIRCLE
  8
CSLAYER1
  6
CONTINUOUS
 62
     3
 10
2105.023566
 20
941.422219
 40
12.500000
  0
LINE
  8
CSLAYER1
  6
CONTINUOUS
 62
     5
 10
1804.790657
 20
1406.426476
 11
1850.651027
 21
1406.426476
  0
LINE
  8
CSLAYER1
  6
CONTINUOUS
 62
     5
 10
1828.043553
 20
1406.426476
 11
1828.043553
 21
1378.962295
  0
LINE
  8
CSLAYER1
  6
CONTINUOUS
 62
     5
 10
2780.700079
 20
567.133098
 11
2780.700079
 21
527.133098
  0
LINE
  8
CSLAYER1
  6
CONTINUOUS
 62
     5
 10
2760.700079
 20
547.133098
 11
2800.700079
 21
547.133098
  0
LINE
  8
CSLAYER1
  6
CONTINUOUS
 62
     5
 10
2763.700079
 20
891.133098
 11
2797.700079
 21
891.133098
  0
LINE
  8
CSLAYER1
  6
CONTINUOUS
 62
     5
 10
2780.700079
 20
908.133098
 11
2780.700079
 21
874.133098
  0
POINT
  8
CSLAYER1
 62
     5
 10
1805.755978
 20
719.133098
  0
INSERT
  8
CSLAYER1
  2
BLKF0002
 10
0.0
 20
0.0
 30
0.0
  0
LINE
  8
CSLAYER1
  6
CONTINUOUS
 62
     3
 10
2821.555978
 20
3151.687486
 11
2821.555978
 21
2651.687486
  0
LINE
  8
CSLAYER1
  6
CONTINUOUS
 62
     3
 10
1771.555978
 20
3151.687486
 11
1771.555978
 21
2651.687486
  0
DIMENSION
  8
CSLAYER1
 62
     3
  2
*D0000
 10
2821.555978
 20
2273.002951
 11
2296.556152
 21
2288.003174
 13
1771.555978
 23
2151.489582
 14
2821.555978
 24
2151.489582
 70
1
  0
DIMENSION
  8
CSLAYER1
 62
     3
  2
*D0001
 10
2975.567153
 20
918.333098
 11
2960.567383
 21
719.233215
 13
2821.555978
 23
520.133098
 14
2821.555978
 24
918.333098
 50
90.000000
 70
1
  0
DIMENSION
  8
CSLAYER1
 62
     3
  2
*D0002
 10
2975.567153
 20
2151.489582
 11
2960.567383
 21
1534.911499
 13
2806.031280
 23
918.333098
 14
2806.031280
 24
2151.489582
 50
90.000000
 70
1
  0
DIMENSION
  8
CSLAYER1
 62
     3
  2
*D0003
 10
3115.103026
 20
520.133098
 11
3100.103271
 21
1335.811890
 13
3115.103026
 23
2151.489582
 14
3115.103026
 24
520.133098
 50
90.000000
 70
1
  0
LINE
  8
CSLAYER1
  6
CONTINUOUS
 62
     3
 10
3389.059156
 20
520.133098
 11
391.974561
 21
520.133098
  0
LINE
  8
CSLAYER1
  6
CENTER
 62
     5
 10
1771.555978
 20
2901.687486
 11
2855.142174
 21
2901.687486
  0
TEXT
  8
CSLAYER1
 62
     5
 10
728.936157
 20
2494.687744
 40
60.000000
 41
1.020000
  1
ＵＰ・ＤＯＷＮ
 50
0.000000
 51
0.000000
  7
EASYDRAW_FONT
 72
     5
 11
1136.936157
 21
2494.687744
  0
TEXT
  8
CSLAYER1
 62
     5
 10
722.366943
 20
2575.981689
 40
60.000000
 41
1.020000
  1
フットスイッチ
 50
0.000000
 51
0.000000
  7
EASYDRAW_FONT
 72
     5
 11
1130.366943
 21
2575.981689
  0
TEXT
  8
CSLAYER1
 62
     5
 10
871.927490
 20
3270.673096
 40
60.000000
 41
1.028571
  1
電源コード
 50
0.000000
 51
0.000000
  7
EASYDRAW_FONT
 72
     5
 11
1159.927490
 21
3270.673096
  0
TEXT
  8
CSLAYER1
 62
     5
 10
905.579834
 20
3192.512939
 40
60.000000
 41
1.036364
  1
長サ４ｍ
 50
0.000000
 51
0.000000
  7
EASYDRAW_FONT
 72
     5
 11
1133.579834
 21
3192.512939
  0
INSERT
  8
CSLAYER1
  2
BLKF0003
 10
0.0
 20
0.0
 30
0.0
  0
LINE
  8
CSLAYER1
  6
CONTINUOUS
 62
     5
 10
1228.473211
 20
3063.852758
 11
1176.995116
 21
3262.540141
  0
LINE
  8
CSLAYER1
  6
CONTINUOUS
 62
     5
 10
1228.473211
 20
3063.852758
 11
1206.296779
 21
3103.008931
  0
LINE
  8
CSLAYER1
  6
CONTINUOUS
 62
     5
 10
1228.473211
 20
3063.852758
 11
1228.845944
 21
3108.851215
  0
LINE
  8
CSLAYER1
  6
CONTINUOUS
 62
     5
 10
1242.858784
 20
2794.187486
 11
1149.378250
 21
2566.478491
  0
LINE
  8
CSLAYER1
  6
CONTINUOUS
 62
     5
 10
1242.858784
 20
2794.187486
 11
1237.125733
 21
2749.554179
  0
LINE
  8
CSLAYER1
  6
CONTINUOUS
 62
     5
 10
1242.858784
 20
2794.187486
 11
1215.577162
 21
2758.400434
  0
LINE
  8
CSLAYER1
  6
CONTINUOUS
 62
     5
 10
849.380520
 20
3262.540141
 11
1176.995116
 21
3262.540141
  0
LINE
  8
CSLAYER1
  6
CONTINUOUS
 62
     5
 10
713.689555
 20
2566.478491
 11
1149.378250
 21
2566.478491
  0
LINE
  8
CSLAYER1
  6
CONTINUOUS
 62
     1
 10
1840.905123
 20
624.319412
 11
1854.728205
 21
624.319412
  0
LINE
  8
CSLAYER1
  6
CONTINUOUS
 62
     1
 10
1848.020299
 20
632.018870
 11
1848.020299
 21
617.540384
  0
LINE
  8
CSLAYER1
  6
CONTINUOUS
 62
     4
 10
522.474561
 20
615.433098
 11
522.474561
 21
585.133098
  0
LINE
  8
CSLAYER1
  6
CONTINUOUS
 62
     4
 10
702.474561
 20
615.433098
 11
702.474561
 21
585.133098
  0
LINE
  8
CSLAYER1
  6
CONTINUOUS
 62
     4
 10
520.974561
 20
621.433098
 11
703.974561
 21
621.433098
  0
LINE
  8
CSLAYER1
  6
CONTINUOUS
 62
     4
 10
520.974561
 20
615.433098
 11
520.974561
 21
621.433098
  0
LINE
  8
CSLAYER1
  6
CONTINUOUS
 62
     2
 10
520.974561
 20
615.433098
 11
703.974561
 21
615.433098
  0
LINE
  8
CSLAYER1
  6
CONTINUOUS
 62
     4
 10
703.974561
 20
615.433098
 11
703.974561
 21
621.433098
  0
LINE
  8
CSLAYER1
  6
CONTINUOUS
 62
     2
 10
703.974561
 20
615.433098
 11
703.974561
 21
621.433098
  0
LINE
  8
CSLAYER1
  6
CONTINUOUS
 62
     2
 10
523.474561
 20
621.433098
 11
533.474561
 21
621.433098
  0
LINE
  8
CSLAYER1
  6
CONTINUOUS
 62
     2
 10
692.974561
 20
624.433098
 11
692.974561
 21
622.233098
  0
LINE
  8
CSLAYER1
  6
CONTINUOUS
 62
     2
 10
699.974561
 20
624.433098
 11
699.974561
 21
622.233098
  0
LINE
  8
CSLAYER1
  6
CONTINUOUS
 62
     2
 10
699.974561
 20
623.233098
 11
692.974561
 21
623.233098
  0
LINE
  8
CSLAYER1
  6
CONTINUOUS
 62
     2
 10
698.574561
 20
625.833098
 11
694.374561
 21
625.833098
  0
LINE
  8
CSLAYER1
  6
CONTINUOUS
 62
     2
 10
700.974561
 20
622.233098
 11
700.974561
 21
621.433098
  0
LINE
  8
CSLAYER1
  6
CONTINUOUS
 62
     2
 10
691.974561
 20
622.233098
 11
691.974561
 21
621.433098
  0
LINE
  8
CSLAYER1
  6
CONTINUOUS
 62
     2
 10
700.974561
 20
622.233098
 11
691.974561
 21
622.233098
  0
ARC
  8
CSLAYER1
  6
CONTINUOUS
 62
     2
 10
698.574561
 20
624.433098
 40
1.400000
 50
-0.000000
 51
90.000000
  0
ARC
  8
CSLAYER1
  6
CONTINUOUS
 62
     2
 10
694.374561
 20
624.433098
 40
1.400000
 50
90.000000
 51
180.000000
  0
LINE
  8
CSLAYER1
  6
CONTINUOUS
 62
     2
 10
697.514512
 20
622.233098
 11
695.129310
 21
623.233098
  0
LINE
  8
CSLAYER1
  6
CONTINUOUS
 62
     5
 10
696.474561
 20
627.661447
 11
696.474561
 21
612.463269
  0
LINE
  8
CSLAYER1
  6
CONTINUOUS
 62
     2
 10
524.974561
 20
624.433098
 11
524.974561
 21
622.233098
  0
LINE
  8
CSLAYER1
  6
CONTINUOUS
 62
     2
 10
531.974561
 20
624.433098
 11
531.974561
 21
622.233098
  0
LINE
  8
CSLAYER1
  6
CONTINUOUS
 62
     2
 10
531.974561
 20
623.233098
 11
524.974561
 21
623.233098
  0
LINE
  8
CSLAYER1
  6
CONTINUOUS
 62
     2
 10
530.574561
 20
625.833098
 11
526.374561
 21
625.833098
  0
LINE
  8
CSLAYER1
  6
CONTINUOUS
 62
     2
 10
532.974561
 20
622.233098
 11
532.974561
 21
621.433098
  0
LINE
  8
CSLAYER1
  6
CONTINUOUS
 62
     2
 10
523.974561
 20
622.233098
 11
523.974561
 21
621.433098
  0
LINE
  8
CSLAYER1
  6
CONTINUOUS
 62
     2
 10
532.974561
 20
622.233098
 11
523.974561
 21
622.233098
  0
ARC
  8
CSLAYER1
  6
CONTINUOUS
 62
     2
 10
530.574561
 20
624.433098
 40
1.400000
 50
-0.000000
 51
90.000000
  0
ARC
  8
CSLAYER1
  6
CONTINUOUS
 62
     2
 10
526.374561
 20
624.433098
 40
1.400000
 50
90.000000
 51
180.000000
  0
LINE
  8
CSLAYER1
  6
CONTINUOUS
 62
     2
 10
529.514512
 20
622.233098
 11
527.129310
 21
623.233098
  0
LINE
  8
CSLAYER1
  6
CONTINUOUS
 62
     5
 10
528.474561
 20
627.661447
 11
528.474561
 21
612.463269
  0
LINE
  8
CSLAYER1
  6
CONTINUOUS
 62
     5
 10
601.619719
 20
600.433098
 11
632.497849
 21
600.433098
  0
LINE
  8
CSLAYER1
  6
CONTINUOUS
 62
     5
 10
647.474561
 20
611.232208
 11
647.474561
 21
585.133098
  0
LINE
  8
CSLAYER1
  6
CONTINUOUS
 62
     5
 10
617.474561
 20
615.433098
 11
617.474561
 21
585.042817
  0
ARC
  8
CSLAYER1
  6
CONTINUOUS
 62
     2
 10
647.474561
 20
600.433098
 40
6.500000
 50
-59.489763
 51
239.489763
  0
ARC
  8
CSLAYER1
  6
CONTINUOUS
 62
     2
 10
617.474561
 20
600.433098
 40
10.500000
 50
-55.150095
 51
231.502580
  0
ARC
  8
CSLAYER1
  6
CONTINUOUS
 62
     2
 10
617.474561
 20
600.433098
 40
6.000000
 50
0.000000
 51
180.000000
  0
ARC
  8
CSLAYER1
  6
CONTINUOUS
 62
     2
 10
647.474561
 20
600.433098
 40
3.300000
 50
0.000000
 51
180.000000
  0
LINE
  8
CSLAYER1
  6
CONTINUOUS
 62
     2
 10
611.474561
 20
600.433098
 11
611.474561
 21
585.133098
  0
LINE
  8
CSLAYER1
  6
CONTINUOUS
 62
     2
 10
623.474561
 20
600.433098
 11
623.474561
 21
585.133098
  0
LINE
  8
CSLAYER1
  6
CONTINUOUS
 62
     2
 10
644.174561
 20
600.433098
 11
644.174561
 21
585.133098
  0
LINE
  8
CSLAYER1
  6
CONTINUOUS
 62
     2
 10
650.774561
 20
600.433098
 11
650.774561
 21
585.133098
  0
LINE
  8
CSLAYER1
  6
CONTINUOUS
 62
     5
 10
638.575418
 20
600.433098
 11
657.639059
 21
600.433098
  0
POINT
  8
CSLAYER1
 62
     2
 10
542.474561
 20
600.433098
  0
POINT
  8
CSLAYER1
 62
     2
 10
582.474561
 20
600.433098
  0
LINE
  8
CSLAYER1
  6
CONTINUOUS
 62
     3
 10
748.974561
 20
875.327753
 11
748.974561
 21
850.668749
  0
LINE
  8
CSLAYER1
  6
CONTINUOUS
 62
     3
 10
764.974561
 20
875.327753
 11
764.974561
 21
850.668749
  0
LINE
  8
CSLAYER1
  6
CONTINUOUS
 62
     3
 10
766.974561
 20
870.275181
 11
766.974561
 21
875.327753
  0
LINE
  8
CSLAYER1
  6
CONTINUOUS
 62
     3
 10
776.974561
 20
872.275181
 11
776.974561
 21
875.327753
  0
LINE
  8
CSLAYER1
  6
CONTINUOUS
 62
     3
 10
774.974561
 20
870.275181
 11
774.974561
 21
875.327753
  0
LINE
  8
CSLAYER1
  6
CONTINUOUS
 62
     3
 10
766.974561
 20
870.275181
 11
774.974561
 21
870.275181
  0
LINE
  8
CSLAYER1
  6
CONTINUOUS
 62
     3
 10
774.974561
 20
870.275181
 11
776.974561
 21
872.275181
  0
LINE
  8
CSLAYER1
  6
CONTINUOUS
 62
     3
 10
764.974561
 20
872.275181
 11
766.974561
 21
872.275181
  0
LINE
  8
CSLAYER1
  6
CONTINUOUS
 62
     3
 10
747.974561
 20
872.275181
 11
748.974561
 21
872.275181
  0
LINE
  8
CSLAYER1
  6
CONTINUOUS
 62
     3
 10
534.974561
 20
875.327753
 11
534.974561
 21
850.668749
  0
LINE
  8
CSLAYER1
  6
CONTINUOUS
 62
     3
 10
518.974561
 20
875.327753
 11
518.974561
 21
850.668749
  0
LINE
  8
CSLAYER1
  6
CONTINUOUS
 62
     3
 10
516.974561
 20
870.275181
 11
516.974561
 21
875.327753
  0
LINE
  8
CSLAYER1
  6
CONTINUOUS
 62
     3
 10
506.974561
 20
872.275181
 11
506.974561
 21
875.327753
  0
LINE
  8
CSLAYER1
  6
CONTINUOUS
 62
     3
 10
508.974561
 20
870.275181
 11
508.974561
 21
875.327753
  0
LINE
  8
CSLAYER1
  6
CONTINUOUS
 62
     3
 10
516.974561
 20
870.275181
 11
508.974561
 21
870.275181
  0
LINE
  8
CSLAYER1
  6
CONTINUOUS
 62
     3
 10
508.974561
 20
870.275181
 11
506.974561
 21
872.275181
  0
LINE
  8
CSLAYER1
  6
CONTINUOUS
 62
     3
 10
518.974561
 20
872.275181
 11
516.974561
 21
872.275181
  0
LINE
  8
CSLAYER1
  6
CONTINUOUS
 62
     3
 10
535.974561
 20
872.275181
 11
534.974561
 21
872.275181
  0
LINE
  8
CSLAYER1
  6
CONTINUOUS
 62
     3
 10
705.418249
 20
869.174738
 11
578.530872
 21
869.174738
  0
LINE
  8
CSLAYER1
  6
CONTINUOUS
 62
     3
 10
747.974561
 20
875.327753
 11
747.974561
 21
863.498193
  0
LINE
  8
CSLAYER1
  6
CONTINUOUS
 62
     3
 10
735.358287
 20
850.668749
 11
742.773581
 21
854.724972
  0
LINE
  8
CSLAYER1
  6
CONTINUOUS
 62
     3
 10
710.217269
 20
870.401517
 11
719.223058
 21
875.327753
  0
LINE
  8
CSLAYER1
  6
CONTINUOUS
 62
     3
 10
686.474561
 20
1277.558724
 11
686.474561
 21
953.922219
  0
LINE
  8
CSLAYER1
  6
CONTINUOUS
 62
     3
 10
726.974561
 20
771.472944
 11
703.974561
 21
771.472944
  0
LINE
  8
CSLAYER1
  6
CONTINUOUS
 62
     3
 10
703.974561
 20
671.520600
 11
726.974561
 21
671.520600
  0
LINE
  8
CSLAYER1
  6
CONTINUOUS
 62
     3
 10
686.474561
 20
1277.558724
 11
686.305225
 21
1279.671069
  0
LINE
  8
CSLAYER1
  6
CONTINUOUS
 62
     3
 10
686.305225
 20
1279.671069
 11
685.798506
 21
1281.767337
  0
LINE
  8
CSLAYER1
  6
CONTINUOUS
 62
     3
 10
685.798506
 20
1281.767337
 11
684.958260
 21
1283.831575
  0
LINE
  8
CSLAYER1
  6
CONTINUOUS
 62
     3
 10
684.958260
 20
1283.831575
 11
683.790882
 21
1285.848074
  0
LINE
  8
CSLAYER1
  6
CONTINUOUS
 62
     3
 10
683.790882
 20
1285.848074
 11
682.305257
 21
1287.801485
  0
LINE
  8
CSLAYER1
  6
CONTINUOUS
 62
     3
 10
682.305257
 20
1287.801485
 11
680.512691
 21
1289.676942
  0
LINE
  8
CSLAYER1
  6
CONTINUOUS
 62
     3
 10
680.512691
 20
1289.676942
 11
678.426826
 21
1291.460173
  0
LINE
  8
CSLAYER1
  6
CONTINUOUS
 62
     3
 10
678.426826
 20
1291.460173
 11
676.063538
 21
1293.137605
  0
LINE
  8
CSLAYER1
  6
CONTINUOUS
 62
     3
 10
676.063538
 20
1293.137605
 11
673.440812
 21
1294.696473
  0
LINE
  8
CSLAYER1
  6
CONTINUOUS
 62
     3
 10
673.440812
 20
1294.696473
 11
672.224561
 21
1295.303467
  0
LINE
  8
CSLAYER1
  6
CONTINUOUS
 62
     3
 10
641.974561
 20
1253.322287
 11
645.852991
 21
1253.414514
  0
LINE
  8
CSLAYER1
  6
CONTINUOUS
 62
     3
 10
645.852991
 20
1253.414514
 11
649.701904
 21
1253.690493
  0
LINE
  8
CSLAYER1
  6
CONTINUOUS
 62
     3
 10
649.701904
 20
1253.690493
 11
653.492008
 21
1254.148123
  0
LINE
  8
CSLAYER1
  6
CONTINUOUS
 62
     3
 10
653.492008
 20
1254.148123
 11
657.194457
 21
1254.783923
  0
LINE
  8
CSLAYER1
  6
CONTINUOUS
 62
     3
 10
657.194457
 20
1254.783923
 11
660.781073
 21
1255.593052
  0
LINE
  8
CSLAYER1
  6
CONTINUOUS
 62
     3
 10
660.781073
 20
1255.593052
 11
664.224561
 21
1256.569354
  0
LINE
  8
CSLAYER1
  6
CONTINUOUS
 62
     3
 10
664.224561
 20
1256.569354
 11
667.498712
 21
1257.705397
  0
LINE
  8
CSLAYER1
  6
CONTINUOUS
 62
     3
 10
667.498712
 20
1257.705397
 11
670.578609
 21
1258.992536
  0
LINE
  8
CSLAYER1
  6
CONTINUOUS
 62
     3
 10
670.578609
 20
1258.992536
 11
673.440812
 21
1260.420975
  0
LINE
  8
CSLAYER1
  6
CONTINUOUS
 62
     3
 10
673.440812
 20
1260.420975
 11
676.063538
 21
1261.979842
  0
LINE
  8
CSLAYER1
  6
CONTINUOUS
 62
     3
 10
676.063538
 20
1261.979842
 11
678.426826
 21
1263.657275
  0
LINE
  8
CSLAYER1
  6
CONTINUOUS
 62
     3
 10
678.426826
 20
1263.657275
 11
680.512691
 21
1265.440505
  0
LINE
  8
CSLAYER1
  6
CONTINUOUS
 62
     3
 10
680.512691
 20
1265.440505
 11
682.305257
 21
1267.315963
  0
LINE
  8
CSLAYER1
  6
CONTINUOUS
 62
     3
 10
682.305257
 20
1267.315963
 11
683.790882
 21
1269.269374
  0
LINE
  8
CSLAYER1
  6
CONTINUOUS
 62
     3
 10
683.790882
 20
1269.269374
 11
684.958260
 21
1271.285872
  0
LINE
  8
CSLAYER1
  6
CONTINUOUS
 62
     3
 10
684.958260
 20
1271.285872
 11
685.798506
 21
1273.350111
  0
LINE
  8
CSLAYER1
  6
CONTINUOUS
 62
     3
 10
685.798506
 20
1273.350111
 11
686.305225
 21
1275.446379
  0
LINE
  8
CSLAYER1
  6
CONTINUOUS
 62
     3
 10
686.305225
 20
1275.446379
 11
686.474561
 21
1277.558724
  0
LINE
  8
CSLAYER1
  6
CONTINUOUS
 62
     3
 10
672.224561
 20
1277.558724
 11
672.109450
 21
1278.994644
  0
LINE
  8
CSLAYER1
  6
CONTINUOUS
 62
     3
 10
641.974561
 20
1261.083393
 11
644.611022
 21
1261.146087
  0
LINE
  8
CSLAYER1
  6
CONTINUOUS
 62
     3
 10
644.611022
 20
1261.146087
 11
647.227418
 21
1261.333690
  0
LINE
  8
CSLAYER1
  6
CONTINUOUS
 62
     3
 10
647.227418
 20
1261.333690
 11
649.803837
 21
1261.644776
  0
LINE
  8
CSLAYER1
  6
CONTINUOUS
 62
     3
 10
649.803837
 20
1261.644776
 11
652.320670
 21
1262.076977
  0
LINE
  8
CSLAYER1
  6
CONTINUOUS
 62
     3
 10
652.320670
 20
1262.076977
 11
654.758763
 21
1262.627003
  0
LINE
  8
CSLAYER1
  6
CONTINUOUS
 62
     3
 10
654.758763
 20
1262.627003
 11
657.099561
 21
1263.290669
  0
LINE
  8
CSLAYER1
  6
CONTINUOUS
 62
     3
 10
657.099561
 20
1263.290669
 11
659.325248
 21
1264.062923
  0
LINE
  8
CSLAYER1
  6
CONTINUOUS
 62
     3
 10
659.325248
 20
1264.062923
 11
661.418886
 21
1264.937888
  0
LINE
  8
CSLAYER1
  6
CONTINUOUS
 62
     3
 10
661.418886
 20
1264.937888
 11
663.364541
 21
1265.908906
  0
LINE
  8
CSLAYER1
  6
CONTINUOUS
 62
     3
 10
663.364541
 20
1265.908906
 11
665.147405
 21
1266.968585
  0
LINE
  8
CSLAYER1
  6
CONTINUOUS
 62
     3
 10
665.147405
 20
1266.968585
 11
666.753910
 21
1268.108862
  0
LINE
  8
CSLAYER1
  6
CONTINUOUS
 62
     3
 10
666.753910
 20
1268.108862
 11
668.171829
 21
1269.321058
  0
LINE
  8
CSLAYER1
  6
CONTINUOUS
 62
     3
 10
668.171829
 20
1269.321058
 11
669.390371
 21
1270.595948
  0
LINE
  8
CSLAYER1
  6
CONTINUOUS
 62
     3
 10
669.390371
 20
1270.595948
 11
670.400262
 21
1271.923829
  0
LINE
  8
CSLAYER1
  6
CONTINUOUS
 62
     3
 10
670.400262
 20
1271.923829
 11
671.193817
 21
1273.294594
  0
LINE
  8
CSLAYER1
  6
CONTINUOUS
 62
     3
 10
671.193817
 20
1273.294594
 11
671.764995
 21
1274.697813
  0
LINE
  8
CSLAYER1
  6
CONTINUOUS
 62
     3
 10
671.764995
 20
1274.697813
 11
672.109450
 21
1276.122804
  0
LINE
  8
CSLAYER1
  6
CONTINUOUS
 62
     3
 10
672.109450
 20
1276.122804
 11
672.224561
 21
1277.558724
  0
LINE
  8
CSLAYER1
  6
CONTINUOUS
 62
     3
 10
641.974561
 20
652.960080
 11
647.378217
 21
653.088576
  0
LINE
  8
CSLAYER1
  6
CONTINUOUS
 62
     3
 10
647.378217
 20
653.088576
 11
652.740748
 21
653.473086
  0
LINE
  8
CSLAYER1
  6
CONTINUOUS
 62
     3
 10
652.740748
 20
653.473086
 11
658.021341
 21
654.110683
  0
LINE
  8
CSLAYER1
  6
CONTINUOUS
 62
     3
 10
658.021341
 20
654.110683
 11
663.179809
 21
654.996516
  0
LINE
  8
CSLAYER1
  6
CONTINUOUS
 62
     3
 10
663.179809
 20
654.996516
 11
668.176893
 21
656.123843
  0
LINE
  8
CSLAYER1
  6
CONTINUOUS
 62
     3
 10
668.176893
 20
656.123843
 11
672.974561
 21
657.484083
  0
LINE
  8
CSLAYER1
  6
CONTINUOUS
 62
     3
 10
672.974561
 20
657.484083
 11
677.536300
 21
659.066885
  0
LINE
  8
CSLAYER1
  6
CONTINUOUS
 62
     3
 10
677.536300
 20
659.066885
 11
681.827392
 21
660.860202
  0
LINE
  8
CSLAYER1
  6
CONTINUOUS
 62
     3
 10
681.827392
 20
660.860202
 11
685.815181
 21
662.850387
  0
LINE
  8
CSLAYER1
  6
CONTINUOUS
 62
     3
 10
685.815181
 20
662.850387
 11
689.469316
 21
665.022292
  0
LINE
  8
CSLAYER1
  6
CONTINUOUS
 62
     3
 10
689.469316
 20
665.022292
 11
692.761987
 21
667.359389
  0
LINE
  8
CSLAYER1
  6
CONTINUOUS
 62
     3
 10
692.761987
 20
667.359389
 11
695.668136
 21
669.843890
  0
LINE
  8
CSLAYER1
  6
CONTINUOUS
 62
     3
 10
695.668136
 20
669.843890
 11
698.165643
 21
672.456887
  0
LINE
  8
CSLAYER1
  6
CONTINUOUS
 62
     3
 10
698.165643
 20
672.456887
 11
700.235503
 21
675.178493
  0
LINE
  8
CSLAYER1
  6
CONTINUOUS
 62
     3
 10
700.235503
 20
675.178493
 11
701.861962
 21
677.987997
  0
LINE
  8
CSLAYER1
  6
CONTINUOUS
 62
     3
 10
701.861962
 20
677.987997
 11
703.032641
 21
680.864014
  0
LINE
  8
CSLAYER1
  6
CONTINUOUS
 62
     3
 10
703.032641
 20
680.864014
 11
703.738632
 21
683.784658
  0
LINE
  8
CSLAYER1
  6
CONTINUOUS
 62
     3
 10
703.738632
 20
683.784658
 11
703.974561
 21
686.727700
  0
LINE
  8
CSLAYER1
  6
CONTINUOUS
 62
     3
 10
703.974561
 20
637.993303
 11
703.738632
 21
640.936345
  0
LINE
  8
CSLAYER1
  6
CONTINUOUS
 62
     3
 10
699.503003
 20
625.480950
 11
700.235503
 21
626.444096
  0
LINE
  8
CSLAYER1
  6
CONTINUOUS
 62
     3
 10
700.235503
 20
626.444096
 11
701.861962
 21
629.253599
  0
LINE
  8
CSLAYER1
  6
CONTINUOUS
 62
     3
 10
701.861962
 20
629.253599
 11
703.032641
 21
632.129617
  0
LINE
  8
CSLAYER1
  6
CONTINUOUS
 62
     3
 10
703.032641
 20
632.129617
 11
703.738632
 21
635.050261
  0
LINE
  8
CSLAYER1
  6
CONTINUOUS
 62
     3
 10
703.738632
 20
635.050261
 11
703.974561
 21
637.993303
  0
LINE
  8
CSLAYER1
  6
CONTINUOUS
 62
     3
 10
703.974561
 20
771.472944
 11
703.974561
 21
637.993303
  0
LINE
  8
CSLAYER1
  6
CONTINUOUS
 62
     3
 10
641.974561
 20
654.049358
 11
647.203905
 21
654.173709
  0
LINE
  8
CSLAYER1
  6
CONTINUOUS
 62
     3
 10
647.203905
 20
654.173709
 11
652.393451
 21
654.545815
  0
LINE
  8
CSLAYER1
  6
CONTINUOUS
 62
     3
 10
652.393451
 20
654.545815
 11
657.503703
 21
655.162845
  0
LINE
  8
CSLAYER1
  6
CONTINUOUS
 62
     3
 10
657.503703
 20
655.162845
 11
662.495769
 21
656.020103
  0
LINE
  8
CSLAYER1
  6
CONTINUOUS
 62
     3
 10
662.495769
 20
656.020103
 11
667.331656
 21
657.111064
  0
LINE
  8
CSLAYER1
  6
CONTINUOUS
 62
     3
 10
667.331656
 20
657.111064
 11
671.974561
 21
658.427425
  0
LINE
  8
CSLAYER1
  6
CONTINUOUS
 62
     3
 10
671.974561
 20
658.427425
 11
676.389147
 21
659.959169
  0
LINE
  8
CSLAYER1
  6
CONTINUOUS
 62
     3
 10
676.389147
 20
659.959169
 11
680.541817
 21
661.694637
  0
LINE
  8
CSLAYER1
  6
CONTINUOUS
 62
     3
 10
680.541817
 20
661.694637
 11
684.400967
 21
663.620622
  0
LINE
  8
CSLAYER1
  6
CONTINUOUS
 62
     3
 10
684.400967
 20
663.620622
 11
687.937227
 21
665.722466
  0
LINE
  8
CSLAYER1
  6
CONTINUOUS
 62
     3
 10
687.937227
 20
665.722466
 11
691.123683
 21
667.984173
  0
LINE
  8
CSLAYER1
  6
CONTINUOUS
 62
     3
 10
691.123683
 20
667.984173
 11
693.936085
 21
670.388529
  0
LINE
  8
CSLAYER1
  6
CONTINUOUS
 62
     3
 10
693.936085
 20
670.388529
 11
696.353028
 21
672.917236
  0
LINE
  8
CSLAYER1
  6
CONTINUOUS
 62
     3
 10
696.353028
 20
672.917236
 11
698.356118
 21
675.551048
  0
LINE
  8
CSLAYER1
  6
CONTINUOUS
 62
     3
 10
698.356118
 20
675.551048
 11
699.930110
 21
678.269922
  0
LINE
  8
CSLAYER1
  6
CONTINUOUS
 62
     3
 10
699.930110
 20
678.269922
 11
701.063026
 21
681.053165
  0
LINE
  8
CSLAYER1
  6
CONTINUOUS
 62
     3
 10
701.063026
 20
681.053165
 11
701.746242
 21
683.879595
  0
LINE
  8
CSLAYER1
  6
CONTINUOUS
 62
     3
 10
701.746242
 20
683.879595
 11
701.974561
 21
686.727700
  0
LINE
  8
CSLAYER1
  6
CONTINUOUS
 62
     3
 10
701.974561
 20
774.368749
 11
701.974561
 21
686.727700
  0
LINE
  8
CSLAYER1
  6
CONTINUOUS
 62
     3
 10
701.974561
 20
695.190781
 11
703.032641
 21
692.591385
  0
LINE
  8
CSLAYER1
  6
CONTINUOUS
 62
     3
 10
703.032641
 20
692.591385
 11
703.738632
 21
689.670742
  0
LINE
  8
CSLAYER1
  6
CONTINUOUS
 62
     3
 10
703.738632
 20
689.670742
 11
703.974561
 21
686.727700
  0
LINE
  8
CSLAYER1
  6
CONTINUOUS
 62
     4
 10
695.744465
 20
774.368749
 11
695.744465
 21
672.280532
  0
LINE
  8
CSLAYER1
  6
CONTINUOUS
 62
     4
 10
688.637701
 20
774.368749
 11
688.637701
 21
666.157994
  0
LINE
  8
CSLAYER1
  6
CONTINUOUS
 62
     4
 10
676.355774
 20
774.368749
 11
676.355774
 21
659.996267
  0
LINE
  8
CSLAYER1
  6
CONTINUOUS
 62
     4
 10
671.421557
 20
774.368749
 11
671.421557
 21
658.270637
  0
LINE
  8
CSLAYER1
  6
CONTINUOUS
 62
     4
 10
653.580251
 20
774.368749
 11
653.580251
 21
654.689114
  0
ARC
  8
CSLAYER1
  6
CONTINUOUS
 62
     3
 10
705.418249
 20
879.174738
 40
10.000000
 50
270.000000
 51
298.679003
  0
ARC
  8
CSLAYER1
  6
CONTINUOUS
 62
     3
 10
737.974561
 20
863.498193
 40
10.000000
 50
298.679003
 51
360.000000
  0
LINE
  8
CSLAYER1
  6
CONTINUOUS
 62
     3
 10
535.974561
 20
875.327753
 11
535.974561
 21
863.498193
  0
LINE
  8
CSLAYER1
  6
CONTINUOUS
 62
     3
 10
548.590834
 20
850.668749
 11
541.175540
 21
854.724972
  0
LINE
  8
CSLAYER1
  6
CONTINUOUS
 62
     3
 10
573.731852
 20
870.401517
 11
564.726063
 21
875.327753
  0
LINE
  8
CSLAYER1
  6
CONTINUOUS
 62
     3
 10
597.474561
 20
1277.558724
 11
597.474561
 21
953.922219
  0
LINE
  8
CSLAYER1
  6
CONTINUOUS
 62
     3
 10
597.474561
 20
1277.558724
 11
597.643896
 21
1279.671069
  0
LINE
  8
CSLAYER1
  6
CONTINUOUS
 62
     3
 10
597.643896
 20
1279.671069
 11
598.150616
 21
1281.767337
  0
LINE
  8
CSLAYER1
  6
CONTINUOUS
 62
     3
 10
598.150616
 20
1281.767337
 11
598.990861
 21
1283.831575
  0
LINE
  8
CSLAYER1
  6
CONTINUOUS
 62
     3
 10
598.990861
 20
1283.831575
 11
600.158239
 21
1285.848074
  0
LINE
  8
CSLAYER1
  6
CONTINUOUS
 62
     3
 10
600.158239
 20
1285.848074
 11
601.643864
 21
1287.801485
  0
LINE
  8
CSLAYER1
  6
CONTINUOUS
 62
     3
 10
601.643864
 20
1287.801485
 11
603.436430
 21
1289.676942
  0
LINE
  8
CSLAYER1
  6
CONTINUOUS
 62
     3
 10
603.436430
 20
1289.676942
 11
605.522295
 21
1291.460173
  0
LINE
  8
CSLAYER1
  6
CONTINUOUS
 62
     3
 10
605.522295
 20
1291.460173
 11
607.885583
 21
1293.137605
  0
LINE
  8
CSLAYER1
  6
CONTINUOUS
 62
     3
 10
607.885583
 20
1293.137605
 11
610.508309
 21
1294.696473
  0
LINE
  8
CSLAYER1
  6
CONTINUOUS
 62
     3
 10
610.508309
 20
1294.696473
 11
611.724561
 21
1295.303467
  0
LINE
  8
CSLAYER1
  6
CONTINUOUS
 62
     3
 10
641.974561
 20
1253.322287
 11
638.096130
 21
1253.414514
  0
LINE
  8
CSLAYER1
  6
CONTINUOUS
 62
     3
 10
638.096130
 20
1253.414514
 11
634.247217
 21
1253.690493
  0
LINE
  8
CSLAYER1
  6
CONTINUOUS
 62
     3
 10
634.247217
 20
1253.690493
 11
630.457113
 21
1254.148123
  0
LINE
  8
CSLAYER1
  6
CONTINUOUS
 62
     3
 10
630.457113
 20
1254.148123
 11
626.754664
 21
1254.783923
  0
LINE
  8
CSLAYER1
  6
CONTINUOUS
 62
     3
 10
626.754664
 20
1254.783923
 11
623.168048
 21
1255.593052
  0
LINE
  8
CSLAYER1
  6
CONTINUOUS
 62
     3
 10
623.168048
 20
1255.593052
 11
619.724561
 21
1256.569354
  0
LINE
  8
CSLAYER1
  6
CONTINUOUS
 62
     3
 10
619.724561
 20
1256.569354
 11
616.450409
 21
1257.705397
  0
LINE
  8
CSLAYER1
  6
CONTINUOUS
 62
     3
 10
616.450409
 20
1257.705397
 11
613.370512
 21
1258.992536
  0
LINE
  8
CSLAYER1
  6
CONTINUOUS
 62
     3
 10
613.370512
 20
1258.992536
 11
610.508309
 21
1260.420975
  0
LINE
  8
CSLAYER1
  6
CONTINUOUS
 62
     3
 10
610.508309
 20
1260.420975
 11
607.885583
 21
1261.979842
  0
LINE
  8
CSLAYER1
  6
CONTINUOUS
 62
     3
 10
607.885583
 20
1261.979842
 11
605.522295
 21
1263.657275
  0
LINE
  8
CSLAYER1
  6
CONTINUOUS
 62
     3
 10
605.522295
 20
1263.657275
 11
603.436430
 21
1265.440505
  0
LINE
  8
CSLAYER1
  6
CONTINUOUS
 62
     3
 10
603.436430
 20
1265.440505
 11
601.643864
 21
1267.315963
  0
LINE
  8
CSLAYER1
  6
CONTINUOUS
 62
     3
 10
601.643864
 20
1267.315963
 11
600.158239
 21
1269.269374
  0
LINE
  8
CSLAYER1
  6
CONTINUOUS
 62
     3
 10
600.158239
 20
1269.269374
 11
598.990861
 21
1271.285872
  0
LINE
  8
CSLAYER1
  6
CONTINUOUS
 62
     3
 10
598.990861
 20
1271.285872
 11
598.150616
 21
1273.350111
  0
LINE
  8
CSLAYER1
  6
CONTINUOUS
 62
     3
 10
598.150616
 20
1273.350111
 11
597.643896
 21
1275.446379
  0
LINE
  8
CSLAYER1
  6
CONTINUOUS
 62
     3
 10
597.643896
 20
1275.446379
 11
597.474561
 21
1277.558724
  0
LINE
  8
CSLAYER1
  6
CONTINUOUS
 62
     3
 10
611.724561
 20
1277.558724
 11
611.839671
 21
1278.994644
  0
LINE
  8
CSLAYER1
  6
CONTINUOUS
 62
     3
 10
641.974561
 20
1261.083393
 11
639.338099
 21
1261.146087
  0
LINE
  8
CSLAYER1
  6
CONTINUOUS
 62
     3
 10
639.338099
 20
1261.146087
 11
636.721703
 21
1261.333690
  0
LINE
  8
CSLAYER1
  6
CONTINUOUS
 62
     3
 10
636.721703
 20
1261.333690
 11
634.145284
 21
1261.644776
  0
LINE
  8
CSLAYER1
  6
CONTINUOUS
 62
     3
 10
634.145284
 20
1261.644776
 11
631.628451
 21
1262.076977
  0
LINE
  8
CSLAYER1
  6
CONTINUOUS
 62
     3
 10
631.628451
 20
1262.076977
 11
629.190358
 21
1262.627003
  0
LINE
  8
CSLAYER1
  6
CONTINUOUS
 62
     3
 10
629.190358
 20
1262.627003
 11
626.849561
 21
1263.290669
  0
LINE
  8
CSLAYER1
  6
CONTINUOUS
 62
     3
 10
626.849561
 20
1263.290669
 11
624.623873
 21
1264.062923
  0
LINE
  8
CSLAYER1
  6
CONTINUOUS
 62
     3
 10
624.623873
 20
1264.062923
 11
622.530235
 21
1264.937888
  0
LINE
  8
CSLAYER1
  6
CONTINUOUS
 62
     3
 10
622.530235
 20
1264.937888
 11
620.584580
 21
1265.908906
  0
LINE
  8
CSLAYER1
  6
CONTINUOUS
 62
     3
 10
620.584580
 20
1265.908906
 11
618.801716
 21
1266.968585
  0
LINE
  8
CSLAYER1
  6
CONTINUOUS
 62
     3
 10
618.801716
 20
1266.968585
 11
617.195211
 21
1268.108862
  0
LINE
  8
CSLAYER1
  6
CONTINUOUS
 62
     3
 10
617.195211
 20
1268.108862
 11
615.777292
 21
1269.321058
  0
LINE
  8
CSLAYER1
  6
CONTINUOUS
 62
     3
 10
615.777292
 20
1269.321058
 11
614.558750
 21
1270.595948
  0
LINE
  8
CSLAYER1
  6
CONTINUOUS
 62
     3
 10
614.558750
 20
1270.595948
 11
613.548859
 21
1271.923829
  0
LINE
  8
CSLAYER1
  6
CONTINUOUS
 62
     3
 10
613.548859
 20
1271.923829
 11
612.755304
 21
1273.294594
  0
LINE
  8
CSLAYER1
  6
CONTINUOUS
 62
     3
 10
612.755304
 20
1273.294594
 11
612.184126
 21
1274.697813
  0
LINE
  8
CSLAYER1
  6
CONTINUOUS
 62
     3
 10
612.184126
 20
1274.697813
 11
611.839671
 21
1276.122804
  0
LINE
  8
CSLAYER1
  6
CONTINUOUS
 62
     3
 10
611.839671
 20
1276.122804
 11
611.724561
 21
1277.558724
  0
LINE
  8
CSLAYER1
  6
CONTINUOUS
 62
     3
 10
641.974561
 20
652.960080
 11
636.570904
 21
653.088576
  0
LINE
  8
CSLAYER1
  6
CONTINUOUS
 62
     3
 10
636.570904
 20
653.088576
 11
631.208374
 21
653.473086
  0
LINE
  8
CSLAYER1
  6
CONTINUOUS
 62
     3
 10
631.208374
 20
653.473086
 11
625.927780
 21
654.110683
  0
LINE
  8
CSLAYER1
  6
CONTINUOUS
 62
     3
 10
625.927780
 20
654.110683
 11
620.769312
 21
654.996516
  0
LINE
  8
CSLAYER1
  6
CONTINUOUS
 62
     3
 10
620.769312
 20
654.996516
 11
615.772228
 21
656.123843
  0
LINE
  8
CSLAYER1
  6
CONTINUOUS
 62
     3
 10
615.772228
 20
656.123843
 11
610.974561
 21
657.484083
  0
LINE
  8
CSLAYER1
  6
CONTINUOUS
 62
     3
 10
610.974561
 20
657.484083
 11
606.412821
 21
659.066885
  0
LINE
  8
CSLAYER1
  6
CONTINUOUS
 62
     3
 10
606.412821
 20
659.066885
 11
602.121729
 21
660.860202
  0
LINE
  8
CSLAYER1
  6
CONTINUOUS
 62
     3
 10
602.121729
 20
660.860202
 11
598.133940
 21
662.850387
  0
LINE
  8
CSLAYER1
  6
CONTINUOUS
 62
     3
 10
598.133940
 20
662.850387
 11
594.479805
 21
665.022292
  0
LINE
  8
CSLAYER1
  6
CONTINUOUS
 62
     3
 10
594.479805
 20
665.022292
 11
591.187134
 21
667.359389
  0
LINE
  8
CSLAYER1
  6
CONTINUOUS
 62
     3
 10
591.187134
 20
667.359389
 11
588.280985
 21
669.843890
  0
LINE
  8
CSLAYER1
  6
CONTINUOUS
 62
     3
 10
588.280985
 20
669.843890
 11
585.783478
 21
672.456887
  0
LINE
  8
CSLAYER1
  6
CONTINUOUS
 62
     3
 10
585.783478
 20
672.456887
 11
583.713618
 21
675.178493
  0
LINE
  8
CSLAYER1
  6
CONTINUOUS
 62
     3
 10
583.713618
 20
675.178493
 11
582.087159
 21
677.987997
  0
LINE
  8
CSLAYER1
  6
CONTINUOUS
 62
     3
 10
582.087159
 20
677.987997
 11
580.916480
 21
680.864014
  0
LINE
  8
CSLAYER1
  6
CONTINUOUS
 62
     3
 10
580.916480
 20
680.864014
 11
580.210489
 21
683.784658
  0
LINE
  8
CSLAYER1
  6
CONTINUOUS
 62
     3
 10
580.210489
 20
683.784658
 11
579.974561
 21
686.727700
  0
LINE
  8
CSLAYER1
  6
CONTINUOUS
 62
     3
 10
587.971683
 20
621.433098
 11
585.783478
 21
623.722490
  0
LINE
  8
CSLAYER1
  6
CONTINUOUS
 62
     3
 10
585.783478
 20
623.722490
 11
583.713618
 21
626.444096
  0
LINE
  8
CSLAYER1
  6
CONTINUOUS
 62
     3
 10
583.713618
 20
626.444096
 11
582.087159
 21
629.253599
  0
LINE
  8
CSLAYER1
  6
CONTINUOUS
 62
     3
 10
582.087159
 20
629.253599
 11
580.916480
 21
632.129617
  0
LINE
  8
CSLAYER1
  6
CONTINUOUS
 62
     3
 10
580.916480
 20
632.129617
 11
580.210489
 21
635.050261
  0
LINE
  8
CSLAYER1
  6
CONTINUOUS
 62
     3
 10
580.210489
 20
635.050261
 11
579.974561
 21
637.993303
  0
LINE
  8
CSLAYER1
  6
CONTINUOUS
 62
     3
 10
641.974561
 20
654.049358
 11
636.745216
 21
654.173709
  0
LINE
  8
CSLAYER1
  6
CONTINUOUS
 62
     3
 10
636.745216
 20
654.173709
 11
631.555670
 21
654.545815
  0
LINE
  8
CSLAYER1
  6
CONTINUOUS
 62
     3
 10
631.555670
 20
654.545815
 11
626.445418
 21
655.162845
  0
LINE
  8
CSLAYER1
  6
CONTINUOUS
 62
     3
 10
626.445418
 20
655.162845
 11
621.453352
 21
656.020103
  0
LINE
  8
CSLAYER1
  6
CONTINUOUS
 62
     3
 10
621.453352
 20
656.020103
 11
616.617465
 21
657.111064
  0
LINE
  8
CSLAYER1
  6
CONTINUOUS
 62
     3
 10
616.617465
 20
657.111064
 11
611.974561
 21
658.427425
  0
LINE
  8
CSLAYER1
  6
CONTINUOUS
 62
     3
 10
611.974561
 20
658.427425
 11
607.559974
 21
659.959169
  0
LINE
  8
CSLAYER1
  6
CONTINUOUS
 62
     3
 10
607.559974
 20
659.959169
 11
603.407304
 21
661.694637
  0
LINE
  8
CSLAYER1
  6
CONTINUOUS
 62
     3
 10
603.407304
 20
661.694637
 11
599.548154
 21
663.620622
  0
LINE
  8
CSLAYER1
  6
CONTINUOUS
 62
     3
 10
599.548154
 20
663.620622
 11
596.011894
 21
665.722466
  0
LINE
  8
CSLAYER1
  6
CONTINUOUS
 62
     3
 10
596.011894
 20
665.722466
 11
592.825438
 21
667.984173
  0
LINE
  8
CSLAYER1
  6
CONTINUOUS
 62
     3
 10
592.825438
 20
667.984173
 11
590.013036
 21
670.388529
  0
LINE
  8
CSLAYER1
  6
CONTINUOUS
 62
     3
 10
590.013036
 20
670.388529
 11
587.596093
 21
672.917236
  0
LINE
  8
CSLAYER1
  6
CONTINUOUS
 62
     3
 10
587.596093
 20
672.917236
 11
585.593003
 21
675.551048
  0
LINE
  8
CSLAYER1
  6
CONTINUOUS
 62
     3
 10
585.593003
 20
675.551048
 11
584.019011
 21
678.269922
  0
LINE
  8
CSLAYER1
  6
CONTINUOUS
 62
     3
 10
584.019011
 20
678.269922
 11
582.886095
 21
681.053165
  0
LINE
  8
CSLAYER1
  6
CONTINUOUS
 62
     3
 10
582.886095
 20
681.053165
 11
582.202879
 21
683.879595
  0
LINE
  8
CSLAYER1
  6
CONTINUOUS
 62
     3
 10
582.202879
 20
683.879595
 11
581.974561
 21
686.727700
  0
LINE
  8
CSLAYER1
  6
CONTINUOUS
 62
     3
 10
581.974561
 20
774.368749
 11
581.974561
 21
686.727700
  0
LINE
  8
CSLAYER1
  6
CONTINUOUS
 62
     3
 10
581.974561
 20
695.190781
 11
580.916480
 21
692.591385
  0
LINE
  8
CSLAYER1
  6
CONTINUOUS
 62
     3
 10
580.916480
 20
692.591385
 11
580.210489
 21
689.670742
  0
LINE
  8
CSLAYER1
  6
CONTINUOUS
 62
     3
 10
580.210489
 20
689.670742
 11
579.974561
 21
686.727700
  0
LINE
  8
CSLAYER1
  6
CONTINUOUS
 62
     4
 10
588.204656
 20
774.368749
 11
588.204656
 21
672.280532
  0
LINE
  8
CSLAYER1
  6
CONTINUOUS
 62
     4
 10
595.311420
 20
774.368749
 11
595.311420
 21
666.157994
  0
LINE
  8
CSLAYER1
  6
CONTINUOUS
 62
     4
 10
607.593347
 20
774.368749
 11
607.593347
 21
659.996267
  0
LINE
  8
CSLAYER1
  6
CONTINUOUS
 62
     4
 10
612.527564
 20
774.368749
 11
612.527564
 21
658.270637
  0
LINE
  8
CSLAYER1
  6
CONTINUOUS
 62
     4
 10
630.368870
 20
774.368749
 11
630.368870
 21
654.689114
  0
ARC
  8
CSLAYER1
  6
CONTINUOUS
 62
     3
 10
578.530872
 20
879.174738
 40
10.000000
 50
241.320997
 51
270.000000
  0
ARC
  8
CSLAYER1
  6
CONTINUOUS
 62
     3
 10
545.974561
 20
863.498193
 40
10.000000
 50
180.000000
 51
241.320997
  0
LINE
  8
CSLAYER1
  6
CONTINUOUS
 62
     3
 10
726.974561
 20
771.472944
 11
726.974561
 21
671.520600
  0
LINE
  8
CSLAYER1
  6
CONTINUOUS
 62
     3
 10
579.974561
 20
686.727700
 11
579.974561
 21
637.993303
  0
LINE
  8
CSLAYER1
  6
CONTINUOUS
 62
     3
 10
672.224561
 20
1368.276476
 11
672.224561
 21
1348.211340
  0
LINE
  8
CSLAYER1
  6
CONTINUOUS
 62
     3
 10
611.724561
 20
1368.276476
 11
611.724561
 21
1348.211340
  0
LINE
  8
CSLAYER1
  6
CONTINUOUS
 62
     3
 10
672.224561
 20
1323.211340
 11
672.224561
 21
1277.558724
  0
LINE
  8
CSLAYER1
  6
CONTINUOUS
 62
     3
 10
611.724561
 20
1323.211340
 11
611.724561
 21
1277.558724
  0
LINE
  8
CSLAYER1
  6
CONTINUOUS
 62
     5
 10
2300.938510
 20
929.727335
 11
2428.898196
 21
1031.601867
  0
LINE
  8
CSLAYER1
  6
CONTINUOUS
 62
     5
 10
2300.938510
 20
929.727335
 11
2327.689817
 21
965.912520
  0
LINE
  8
CSLAYER1
  6
CONTINUOUS
 62
     5
 10
2300.938510
 20
929.727335
 11
2342.198414
 21
947.688971
  0
LINE
  8
CSLAYER1
  6
CONTINUOUS
 62
     5
 10
2428.898196
 20
1031.601867
 11
2900.698963
 21
1031.601867
  0
LINE
  8
CSLAYER1
  6
CENTER
 62
     5
 10
1934.580801
 20
600.433098
 11
1923.727965
 21
600.433098
  0
LINE
  8
CSLAYER1
  6
CENTER
 62
     5
 10
1769.038471
 20
600.433098
 11
1797.871805
 21
600.433098
  0
LINE
  8
CSLAYER1
  6
CONTINUOUS
 62
     2
 10
1769.038471
 20
604.233098
 11
1771.555978
 21
604.233098
  0
LINE
  8
CSLAYER1
  6
CONTINUOUS
 62
     2
 10
1799.555978
 20
615.433098
 11
1799.555978
 21
610.006241
  0
LINE
  8
CSLAYER1
  6
CONTINUOUS
 62
     2
 10
1771.555978
 20
608.933098
 11
1771.555978
 21
591.933098
  0
LINE
  8
CSLAYER1
  6
CONTINUOUS
 62
     2
 10
1775.525545
 20
613.423479
 11
1790.153415
 21
613.423479
  0
LINE
  8
CSLAYER1
  6
CONTINUOUS
 62
     2
 10
1774.665073
 20
611.933098
 11
1774.665073
 21
588.933098
  0
LINE
  8
CSLAYER1
  6
CONTINUOUS
 62
     2
 10
1791.013887
 20
611.933098
 11
1791.013887
 21
588.933098
  0
LINE
  8
CSLAYER1
  6
CONTINUOUS
 62
     2
 10
1774.665073
 20
611.933098
 11
1775.525545
 21
613.423479
  0
LINE
  8
CSLAYER1
  6
CONTINUOUS
 62
     2
 10
1791.013887
 20
611.933098
 11
1790.153415
 21
613.423479
  0
LINE
  8
CSLAYER1
  6
CONTINUOUS
 62
     2
 10
1775.525545
 20
607.072626
 11
1790.153415
 21
607.072626
  0
ARC
  8
CSLAYER1
  6
CONTINUOUS
 62
     2
 10
1800.711098
 20
600.433098
 40
26.046025
 50
165.231439
 51
194.768561
  0
ARC
  8
CSLAYER1
  6
CONTINUOUS
 62
     2
 10
1780.796666
 20
610.248053
 40
6.153702
 50
156.825356
 51
211.065581
  0
ARC
  8
CSLAYER1
  6
CONTINUOUS
 62
     2
 10
1784.882294
 20
610.248053
 40
6.153702
 50
-31.065581
 51
23.174644
  0
ARC
  8
CSLAYER1
  6
CONTINUOUS
 62
     2
 10
1764.967862
 20
600.433098
 40
26.046025
 50
-14.768561
 51
14.768561
  0
LINE
  8
CSLAYER1
  6
CONTINUOUS
 62
     2
 10
1774.555978
 20
611.933098
 11
1774.665073
 21
611.933098
  0
ARC
  8
CSLAYER1
  6
CONTINUOUS
 62
     2
 10
1774.555978
 20
608.933098
 40
3.000000
 50
90.000000
 51
180.000000
  0
LINE
  8
CSLAYER1
  6
CONTINUOUS
 62
     2
 10
1794.555978
 20
611.933098
 11
1794.555978
 21
588.933098
  0
LINE
  8
CSLAYER1
  6
CONTINUOUS
 62
     2
 10
1794.555978
 20
611.933098
 11
1795.416450
 21
613.423479
  0
ARC
  8
CSLAYER1
  6
CONTINUOUS
 62
     2
 10
1820.602003
 20
600.433098
 40
26.046025
 50
165.231439
 51
194.768561
  0
ARC
  8
CSLAYER1
  6
CONTINUOUS
 62
     2
 10
1800.687571
 20
610.248053
 40
6.153702
 50
156.825356
 51
211.065581
  0
LINE
  8
CSLAYER1
  6
CONTINUOUS
 62
     2
 10
1795.416450
 20
607.072626
 11
1799.039877
 21
607.072626
  0
LINE
  8
CSLAYER1
  6
CONTINUOUS
 62
     2
 10
1795.416450
 20
613.423479
 11
1799.555978
 21
613.423479
  0
LINE
  8
CSLAYER1
  6
CONTINUOUS
 62
     2
 10
1791.013887
 20
610.769222
 11
1794.555978
 21
610.769222
  0
LINE
  8
CSLAYER1
  6
CONTINUOUS
 62
     2
 10
1791.013887
 20
610.122844
 11
1792.620248
 21
610.122844
  0
LINE
  8
CSLAYER1
  6
CONTINUOUS
 62
     2
 10
1792.620248
 20
610.769222
 11
1792.620248
 21
590.096974
  0
LINE
  8
CSLAYER1
  6
CONTINUOUS
 62
     2
 10
1792.620248
 20
610.122844
 11
1793.755100
 21
610.769222
  0
LINE
  8
CSLAYER1
  6
CONTINUOUS
 62
     2
 10
1775.525545
 20
587.442717
 11
1790.153415
 21
587.442717
  0
LINE
  8
CSLAYER1
  6
CONTINUOUS
 62
     2
 10
1774.665073
 20
588.933098
 11
1775.525545
 21
587.442717
  0
LINE
  8
CSLAYER1
  6
CONTINUOUS
 62
     2
 10
1791.013887
 20
588.933098
 11
1790.153415
 21
587.442717
  0
LINE
  8
CSLAYER1
  6
CONTINUOUS
 62
     2
 10
1775.525545
 20
593.793570
 11
1790.153415
 21
593.793570
  0
ARC
  8
CSLAYER1
  6
CONTINUOUS
 62
     2
 10
1780.796666
 20
590.618143
 40
6.153702
 50
148.934419
 51
203.174644
  0
ARC
  8
CSLAYER1
  6
CONTINUOUS
 62
     2
 10
1784.882294
 20
590.618143
 40
6.153702
 50
-23.174644
 51
31.065581
  0
LINE
  8
CSLAYER1
  6
CONTINUOUS
 62
     2
 10
1774.555978
 20
588.933098
 11
1774.665073
 21
588.933098
  0
ARC
  8
CSLAYER1
  6
CONTINUOUS
 62
     2
 10
1774.555978
 20
591.933098
 40
3.000000
 50
180.000000
 51
270.000000
  0
LINE
  8
CSLAYER1
  6
CONTINUOUS
 62
     2
 10
1794.555978
 20
588.933098
 11
1795.416450
 21
587.442717
  0
ARC
  8
CSLAYER1
  6
CONTINUOUS
 62
     2
 10
1800.687571
 20
590.618143
 40
6.153702
 50
148.934419
 51
203.174644
  0
LINE
  8
CSLAYER1
  6
CONTINUOUS
 62
     2
 10
1795.416450
 20
593.793570
 11
1796.703734
 21
593.793570
  0
LINE
  8
CSLAYER1
  6
CONTINUOUS
 62
     2
 10
1795.416450
 20
587.442717
 11
1795.586449
 21
587.442717
  0
LINE
  8
CSLAYER1
  6
CONTINUOUS
 62
     2
 10
1791.013887
 20
590.096974
 11
1794.555978
 21
590.096974
  0
LINE
  8
CSLAYER1
  6
CONTINUOUS
 62
     2
 10
1791.013887
 20
590.743352
 11
1792.620248
 21
590.743352
  0
LINE
  8
CSLAYER1
  6
CONTINUOUS
 62
     2
 10
1792.620248
 20
590.743352
 11
1793.755100
 21
590.096974
  0
LINE
  8
CSLAYER1
  6
CONTINUOUS
 62
     2
 10
1931.955978
 20
615.433098
 11
1931.955978
 21
585.133098
  0
LINE
  8
CSLAYER1
  6
CONTINUOUS
 62
     2
 10
1933.255978
 20
621.433098
 11
1890.236657
 21
621.433098
  0
LINE
  8
CSLAYER1
  6
CONTINUOUS
 62
     2
 10
1933.255978
 20
615.433098
 11
1885.206026
 21
615.433098
  0
LINE
  8
CSLAYER1
  6
CONTINUOUS
 62
     2
 10
1933.255978
 20
621.433098
 11
1933.255978
 21
615.433098
  0
LINE
  8
CSLAYER1
  6
CONTINUOUS
 62
     2
 10
1798.255978
 20
621.433098
 11
1798.255978
 21
615.433098
  0
ARC
  8
CSLAYER1
  6
CONTINUOUS
 62
     2
 10
1934.105978
 20
568.282963
 40
25.650135
 50
41.065538
 51
90.000000
  0
ARC
  8
CSLAYER1
  6
CONTINUOUS
 62
     2
 10
1934.105978
 20
568.282963
 40
28.654497
 50
36.018400
 51
90.999820
  0
ARC
  8
CSLAYER1
  6
CONTINUOUS
 62
     2
 10
1934.105978
 20
568.282963
 40
35.653641
 50
28.203609
 51
90.803532
  0
ARC
  8
CSLAYER1
  6
CONTINUOUS
 62
     2
 10
1934.105978
 20
568.282963
 40
38.650135
 50
25.846761
 51
90.000000
  0
LINE
  8
CSLAYER1
  6
CONTINUOUS
 62
     2
 10
1769.038471
 20
596.633098
 11
1771.555978
 21
596.633098
  0
LINE
  8
CSLAYER1
  6
CONTINUOUS
 62
     2
 10
1933.105978
 20
610.933098
 11
1931.955978
 21
610.933098
  0
LINE
  8
CSLAYER1
  6
CONTINUOUS
 62
     2
 10
1934.105978
 20
609.933098
 11
1934.105978
 21
603.936604
  0
ARC
  8
CSLAYER1
  6
CONTINUOUS
 62
     2
 10
1933.105978
 20
609.933098
 40
1.000000
 50
0.000000
 51
90.000000
  0
LINE
  8
CSLAYER1
  6
CONTINUOUS
 62
     2
 10
1933.105978
 20
589.933098
 11
1932.105978
 21
589.933098
  0
ARC
  8
CSLAYER1
  6
CONTINUOUS
 62
     2
 10
1933.105978
 20
590.933098
 40
1.000000
 50
270.000000
 51
360.000000
  0
LINE
  8
CSLAYER1
  6
CONTINUOUS
 62
     2
 10
1933.005978
 20
606.933098
 11
1932.105978
 21
606.933098
  0
LINE
  8
CSLAYER1
  6
CONTINUOUS
 62
     2
 10
1933.605978
 20
606.333098
 11
1933.605978
 21
594.533098
  0
ARC
  8
CSLAYER1
  6
CONTINUOUS
 62
     2
 10
1933.005978
 20
606.333098
 40
0.600000
 50
0.000000
 51
90.000000
  0
LINE
  8
CSLAYER1
  6
CONTINUOUS
 62
     2
 10
1933.005978
 20
593.933098
 11
1932.105978
 21
593.933098
  0
ARC
  8
CSLAYER1
  6
CONTINUOUS
 62
     2
 10
1933.005978
 20
594.533098
 40
0.600000
 50
270.000000
 51
360.000000
  0
LINE
  8
CSLAYER1
  6
CONTINUOUS
 62
     2
 10
1934.105978
 20
596.937461
 11
1934.105978
 21
590.933098
  0
ARC
  8
CSLAYER1
  6
CENTER
 62
     5
 10
1934.105978
 20
568.282963
 40
32.153641
 50
31.604352
 51
89.153864
  0
LINE
  8
CSLAYER1
  6
CONTINUOUS
 62
     2
 10
1801.566269
 20
621.433098
 11
1798.255978
 21
621.433098
  0
LINE
  8
CSLAYER1
  6
CONTINUOUS
 62
     2
 10
1800.510708
 20
615.433098
 11
1798.255978
 21
615.433098
  0
ARC
  8
CSLAYER1
  6
CONTINUOUS
 62
     2
 10
1769.038471
 20
496.633098
 40
100.000000
 50
90.000000
 51
141.188616
  0
ARC
  8
CSLAYER1
  6
CONTINUOUS
 62
     2
 10
1769.038471
 20
496.633098
 40
107.600000
 50
90.000000
 51
141.188616
  0
ARC
  8
CSLAYER1
  6
CENTER
 62
     5
 10
1769.038471
 20
496.633098
 40
103.800000
 50
90.000000
 51
141.188616
  0
LINE
  8
CSLAYER1
  6
CONTINUOUS
 62
     5
 10
4939.654579
 20
3057.448161
 11
3855.462313
 21
3057.448161
  0
LINE
  8
CSLAYER1
  6
CONTINUOUS
 62
     5
 10
4939.654579
 20
2961.192163
 11
3855.462313
 21
2961.192163
  0
LINE
  8
CSLAYER1
  6
CONTINUOUS
 62
     5
 10
4939.654579
 20
2864.936166
 11
3855.462313
 21
2864.936166
  0
LINE
  8
CSLAYER1
  6
CONTINUOUS
 62
     5
 10
4939.654579
 20
2768.680168
 11
3856.774606
 21
2768.680168
  0
LINE
  8
CSLAYER1
  6
CONTINUOUS
 62
     5
 10
4939.654579
 20
2672.424171
 11
3855.462313
 21
2672.424171
  0
LINE
  8
CSLAYER1
  6
CONTINUOUS
 62
     5
 10
4939.654579
 20
2576.168173
 11
3855.462313
 21
2576.168173
  0
LINE
  8
CSLAYER1
  6
CONTINUOUS
 62
     5
 10
4939.654579
 20
2479.912175
 11
3855.462313
 21
2479.912175
  0
LINE
  8
CSLAYER1
  6
CONTINUOUS
 62
     5
 10
4939.654579
 20
2383.656178
 11
3855.462313
 21
2383.656178
  0
LINE
  8
CSLAYER1
  6
CONTINUOUS
 62
     5
 10
4939.654579
 20
2287.400180
 11
3855.462313
 21
2287.400180
  0
TEXT
  8
CSLAYER1
 62
     5
 10
4149.830883
 20
3177.495441
 40
60.159996
 41
0.857143
  1
仕   様
 50
0.000000
 51
0.000000
  7
EASYDRAW_FONT
 72
     5
 11
4390.470875
 21
3177.495441
  0
TEXT
  8
CSLAYER1
 62
     5
 10
3871.645546
 20
3069.815266
 40
60.159996
 41
0.847059
  1
型    式
 50
0.000000
 51
0.000000
  7
EASYDRAW_FONT
 72
     5
 11
4160.413536
 21
3069.815266
  0
TEXT
  8
CSLAYER1
 62
     5
 10
3868.908241
 20
2885.590168
 40
60.159996
 41
0.847059
  1
テーブル寸法
 50
0.000000
 51
0.000000
  7
EASYDRAW_FONT
 72
     5
 11
4157.676231
 21
2885.590168
  0
TEXT
  8
CSLAYER1
 62
     5
 10
3871.645546
 20
2790.742512
 40
60.159996
 41
0.847059
  1
テーブル高サ
 50
0.000000
 51
0.000000
  7
EASYDRAW_FONT
 72
     5
 11
4160.413536
 21
2790.742512
  0
TEXT
  8
CSLAYER1
 62
     5
 10
3873.821362
 20
2693.158527
 40
60.159996
 41
0.857143
  1
ストローク
 50
0.000000
 51
0.000000
  7
EASYDRAW_FONT
 72
     5
 11
4114.461353
 21
2693.158527
  0
TEXT
  8
CSLAYER1
 62
     5
 10
3872.909252
 20
2595.575031
 40
60.159996
 41
0.857143
  1
全   長
 50
0.000000
 51
0.000000
  7
EASYDRAW_FONT
 72
     5
 11
4113.549244
 21
2595.575031
  0
TEXT
  8
CSLAYER1
 62
     5
 10
3876.325268
 20
2496.535480
 40
60.159996
 41
0.857143
  1
全   巾
 50
0.000000
 51
0.000000
  7
EASYDRAW_FONT
 72
     5
 11
4116.965260
 21
2496.535480
  0
TEXT
  8
CSLAYER1
 62
     5
 10
3873.982006
 20
2400.451496
 40
60.159996
 41
0.857143
  1
全   高
 50
0.000000
 51
0.000000
  7
EASYDRAW_FONT
 72
     5
 11
4114.621998
 21
2400.451496
  0
TEXT
  8
CSLAYER1
 62
     5
 10
3873.982006
 20
2306.713215
 40
60.159996
 41
0.857143
  1
リフト方式
 50
0.000000
 51
0.000000
  7
EASYDRAW_FONT
 72
     5
 11
4114.621998
 21
2306.713215
  0
TEXT
  8
CSLAYER1
 62
     5
 10
4833.572197
 20
2971.806965
 40
60.159996
 41
0.960000
  1
Ｋｇ
 50
0.000000
 51
0.000000
  7
EASYDRAW_FONT
 72
     5
 11
4929.828194
 21
2971.806965
  0
TEXT
  8
CSLAYER1
 62
     5
 10
4752.628872
 20
2897.894855
 40
60.159996
 41
1.200000
  1
Ｗ
 50
0.000000
 51
0.000000
  7
EASYDRAW_FONT
 72
     5
 11
4800.756870
 21
2897.894855
  0
TEXT
  8
CSLAYER1
 62
     5
 10
4488.460903
 20
2899.714680
 40
60.159996
 41
1.200000
  1
Ｌ
 50
0.000000
 51
0.000000
  7
EASYDRAW_FONT
 72
     5
 11
4536.588902
 21
2899.714680
  0
TEXT
  8
CSLAYER1
 62
     5
 10
4281.621239
 20
2308.147785
 40
60.159996
 41
0.827586
  1
電 動 ボールネジ式
 50
0.000000
 51
0.000000
  7
EASYDRAW_FONT
 72
     5
 11
4762.901222
 21
2308.147785
  0
TEXT
  8
CSLAYER1
 62
     5
 10
4829.790947
 20
2875.395344
 40
60.159996
 41
0.960000
  1
mm
 50
0.000000
 51
0.000000
  7
EASYDRAW_FONT
 72
     5
 11
4926.046944
 21
2875.395344
  0
TEXT
  8
CSLAYER1
 62
     5
 10
4829.790947
 20
2784.654621
 40
60.159996
 41
0.960000
  1
mm
 50
0.000000
 51
0.000000
  7
EASYDRAW_FONT
 72
     5
 11
4926.046944
 21
2784.654621
  0
TEXT
  8
CSLAYER1
 62
     5
 10
4824.119560
 20
2688.243000
 40
60.159996
 41
0.960000
  1
mm
 50
0.000000
 51
0.000000
  7
EASYDRAW_FONT
 72
     5
 11
4920.375557
 21
2688.243000
  0
TEXT
  8
CSLAYER1
 62
     5
 10
4824.119560
 20
2586.158527
 40
60.159996
 41
0.960000
  1
mm
 50
0.000000
 51
0.000000
  7
EASYDRAW_FONT
 72
     5
 11
4920.375557
 21
2586.158527
  0
TEXT
  8
CSLAYER1
 62
     5
 10
4820.339287
 20
2495.417805
 40
60.159996
 41
0.960000
  1
mm
 50
0.000000
 51
0.000000
  7
EASYDRAW_FONT
 72
     5
 11
4916.595284
 21
2495.417805
  0
TEXT
  8
CSLAYER1
 62
     5
 10
4820.339287
 20
2399.004719
 40
60.159996
 41
0.960000
  1
mm
 50
0.000000
 51
0.000000
  7
EASYDRAW_FONT
 72
     5
 11
4916.595284
 21
2399.004719
  0
LINE
  8
CSLAYER1
  6
CONTINUOUS
 62
     5
 10
4432.662827
 20
3153.704159
 11
4119.250326
 21
3153.704159
  0
LINE
  8
CSLAYER1
  6
CONTINUOUS
 62
     5
 10
4432.662827
 20
3165.736158
 11
4119.250326
 21
3165.736158
  0
TEXT
  8
CSLAYER1
 62
     5
 10
4593.672363
 20
2978.528564
 40
60.000000
 41
0.975000
  1
５００
 50
0.000000
 51
0.000000
  7
EASYDRAW_FONT
 72
     5
 11
4749.672363
 21
2978.528564
  0
TEXT
  8
CSLAYER1
 62
     5
 10
4272.222168
 20
2882.884033
 40
60.000000
 41
0.923077
  1
１０５０　×５００
 50
0.000000
 51
0.000000
  7
EASYDRAW_FONT
 72
     5
 11
4752.222168
 21
2882.884033
  0
TEXT
  8
CSLAYER1
 62
     5
 10
4327.827148
 20
2785.185791
 40
60.000000
 41
0.926087
  1
４００～１６００
 50
0.000000
 51
0.000000
  7
EASYDRAW_FONT
 72
     5
 11
4753.827148
 21
2785.185791
  0
TEXT
  8
CSLAYER1
 62
     5
 10
4550.369629
 20
2688.841553
 40
60.000000
 41
0.954545
  1
１２００
 50
0.000000
 51
0.000000
  7
EASYDRAW_FONT
 72
     5
 11
4760.369629
 21
2688.841553
  0
TEXT
  8
CSLAYER1
 62
     5
 10
4547.158203
 20
2594.638428
 40
60.000000
 41
0.954545
  1
１０５０
 50
0.000000
 51
0.000000
  7
EASYDRAW_FONT
 72
     5
 11
4757.158203
 21
2594.638428
  0
TEXT
  8
CSLAYER1
 62
     5
 10
4605.202637
 20
2496.152588
 40
60.000000
 41
0.975000
  1
５００
 50
0.000000
 51
0.000000
  7
EASYDRAW_FONT
 72
     5
 11
4761.202637
 21
2496.152588
  0
TEXT
  8
CSLAYER1
 62
     5
 10
4601.991211
 20
2404.090576
 40
60.000000
 41
0.975000
  1
４００
 50
0.000000
 51
0.000000
  7
EASYDRAW_FONT
 72
     5
 11
4757.991211
 21
2404.090576
  0
TEXT
  8
CSLAYER2
 62
     5
 10
4217.592712
 20
3075.670979
 40
55.851891
 41
0.955718
  1
ＧＬＩ－５００－０５１０Ｗ
 50
0.000000
 51
0.000000
  7
EASYDRAW_FONT
 72
     5
 11
4893.722717
 21
3075.670979
  0
LINE
  8
CSLAYER1
  6
PHANTOM
 62
     5
 10
1771.555978
 20
918.333098
 11
2821.555978
 21
918.333098
  0
LINE
  8
CSLAYER1
  6
PHANTOM
 62
     5
 10
1771.555978
 20
918.333098
 11
1771.555978
 21
865.333098
  0
LINE
  8
CSLAYER1
  6
CONTINUOUS
 62
     5
 10
1788.755978
 20
891.133098
 11
1822.755978
 21
891.133098
  0
LINE
  8
CSLAYER1
  6
PHANTOM
 62
     5
 10
1771.555978
 20
865.333098
 11
2821.555978
 21
865.333098
  0
LINE
  8
CSLAYER1
  6
CONTINUOUS
 62
     5
 10
1805.755978
 20
908.133098
 11
1805.755978
 21
874.133098
  0
LINE
  8
CSLAYER1
  6
PHANTOM
 62
     5
 10
2821.555978
 20
918.333098
 11
2821.555978
 21
865.333098
  0
LINE
  8
CSLAYER1
  6
CONTINUOUS
 62
     5
 10
1797.063147
 20
1523.046368
 11
1878.001015
 21
1523.046368
  0
LINE
  8
CSLAYER1
  6
CONTINUOUS
 62
     5
 10
1837.466977
 20
1565.363142
 11
1837.466977
 21
1523.046368
  0
TEXT
  8
CSLAYER1
 62
     4
 10
3870.075439
 20
2123.441650
 40
60.000000
 41
1.036364
  1
操作方式
 50
0.000000
 51
0.000000
  7
EASYDRAW_FONT
 72
     5
 11
4098.075439
 21
2123.441650
  0
TEXT
  8
CSLAYER1
 62
     4
 10
4292.537598
 20
2115.501221
 40
60.000000
 41
1.020000
  1
フットスイッチ
 50
0.000000
 51
0.000000
  7
EASYDRAW_FONT
 72
     5
 11
4700.537598
 21
2115.501221
  0
LINE
  8
CSLAYER1
  6
CONTINUOUS
 62
     5
 10
4936.771089
 20
2105.402176
 11
3855.462313
 21
2105.402176
  0
LINE
  8
CSLAYER1
  6
CONTINUOUS
 62
     5
 10
4936.771089
 20
2009.402179
 11
3855.462313
 21
2009.402179
  0
TEXT
  8
CSLAYER1
 62
     4
 10
3872.222412
 20
2024.332275
 40
60.000000
 41
0.872727
  1
モーター
 50
0.000000
 51
0.000000
  7
EASYDRAW_FONT
 72
     5
 11
4064.222412
 21
2024.332275
  0
LINE
  8
CSLAYER1
  6
CONTINUOUS
 62
     5
 10
4936.771089
 20
1913.402181
 11
3855.462313
 21
1913.402181
  0
LINE
  8
CSLAYER1
  6
CONTINUOUS
 62
     5
 10
4936.771089
 20
1721.402186
 11
3852.254560
 21
1721.402186
  0
LINE
  8
CSLAYER1
  6
CONTINUOUS
 62
     5
 10
4936.771089
 20
1625.402188
 11
3855.462313
 21
1625.402188
  0
LINE
  8
CSLAYER1
  6
CONTINUOUS
 62
     5
 10
4936.771089
 20
1529.402191
 11
3855.462313
 21
1529.402191
  0
TEXT
  8
CSLAYER1
 62
     4
 10
3876.094482
 20
1546.084839
 40
60.000000
 41
0.857143
  1
自  　重
 50
0.000000
 51
0.000000
  7
EASYDRAW_FONT
 72
     5
 11
4116.094482
 21
1546.084839
  0
TEXT
  8
CSLAYER1
 62
     4
 10
3880.518311
 20
1449.978394
 40
60.000000
 41
0.847059
  1
塗　装　色 
 50
0.000000
 51
0.000000
  7
EASYDRAW_FONT
 72
     5
 11
4168.518311
 21
1449.978394
  0
TEXT
  8
CSLAYER1
 62
     4
 10
4218.881348
 20
2025.707275
 40
60.000000
 41
0.819512
  1
３相ＡＣ２００Ｖ、0.4ＫＷ
 50
0.000000
 51
0.000000
  7
EASYDRAW_FONT
 72
     5
 11
4890.881348
 21
2025.707275
  0
TEXT
  8
CSLAYER1
 62
     4
 10
4415.356445
 20
1929.942261
 40
60.000000
 41
0.840000
  1
長サ  ４ ｍ
 50
0.000000
 51
0.000000
  7
EASYDRAW_FONT
 72
     5
 11
4751.356445
 21
1929.942261
  0
TEXT
  8
CSLAYER1
 62
     3
 10
4584.315918
 20
1548.933960
 40
60.000000
 41
0.847059
  1
１７０　Ｋｇ
 50
0.000000
 51
0.000000
  7
EASYDRAW_FONT
 72
     5
 11
4872.315918
 21
1548.933960
  0
LINE
  8
CSLAYER1
  6
CONTINUOUS
 62
     5
 10
4936.771089
 20
1817.402183
 11
3855.462313
 21
1817.402183
  0
TEXT
  8
CSLAYER1
 62
     4
 10
3873.596924
 20
1929.356323
 40
60.000000
 41
0.942857
  1
電源コード
 50
0.000000
 51
0.000000
  7
EASYDRAW_FONT
 72
     5
 11
4137.596924
 21
1929.356323
  0
TEXT
  8
CSLAYER1
 62
     4
 10
3874.239538
 20
1825.674393
 40
71.595306
 41
0.593339
  1
昇降時間 ３６秒（50HZ） ３０秒(60HZ)
 50
0.000000
 51
0.000000
  7
EASYDRAW_FONT
 72
     5
 11
4879.607141
 21
1825.674393
  0
TEXT
  8
CSLAYER1
 62
     4
 10
3876.190918
 20
1637.509644
 40
60.000000
 41
0.912766
  1
上昇端、下降端リミットスイッチ付
 50
0.000000
 51
0.000000
  7
EASYDRAW_FONT
 72
     5
 11
4734.190918
 21
1637.509644
  0
TEXT
  8
CSLAYER1
 62
     4
 10
3878.960802
 20
1734.505081
 40
68.819672
 41
0.605080
  1
最大使用頻度８０回／時間・最大起動頻度１０回／分
 50
0.000000
 51
0.000000
  7
EASYDRAW_FONT
 72
     5
 11
4864.473769
 21
1734.505081
  0
LINE
  8
CSLAYER1
  6
CONTINUOUS
 62
     5
 10
4936.771089
 20
2191.400183
 11
3855.462313
 21
2191.400183
  0
TEXT
  8
CSLAYER1
 62
     4
 10
4170.204590
 20
2209.000732
 40
60.000000
 41
0.825000
  1
マグネットスイッチ制御
 50
0.000000
 51
0.000000
  7
EASYDRAW_FONT
 72
     5
 11
4698.204590
 21
2209.000732
  0
TEXT
  8
CSLAYER1
 62
     4
 10
3875.624268
 20
2206.016846
 40
60.000000
 41
0.872727
  1
制御方式
 50
0.000000
 51
0.000000
  7
EASYDRAW_FONT
 72
     5
 11
4067.624268
 21
2206.016846
  0
LINE
  8
CSLAYER1
  6
CONTINUOUS
 62
     3
 10
1771.555978
 20
3151.687486
 11
2821.555978
 21
3151.687486
  0
LINE
  8
CSLAYER1
  6
CONTINUOUS
 62
     3
 10
1771.555978
 20
2651.687486
 11
2821.555978
 21
2651.687486
  0
DIMENSION
  8
CSLAYER1
 62
     3
  2
*D0004
 10
2992.964552
 20
3151.687486
 11
2977.964844
 21
2901.687256
 13
2821.555978
 23
2651.687486
 14
2821.555978
 24
3151.687486
 50
90.000000
 70
1
  0
LINE
  8
CSLAYER1
  6
CONTINUOUS
 62
     3
 10
483.974561
 20
2098.489582
 11
483.974561
 21
585.133098
  0
LINE
  8
CSLAYER1
  6
CONTINUOUS
 62
     4
 10
739.474561
 20
585.133098
 11
739.474561
 21
610.794843
  0
LINE
  8
CSLAYER1
  6
CONTINUOUS
 62
     4
 10
744.935378
 20
628.823166
 11
746.974561
 21
628.823166
  0
LINE
  8
CSLAYER1
  6
CONTINUOUS
 62
     4
 10
746.974561
 20
628.823166
 11
746.974561
 21
641.134903
  0
LINE
  8
CSLAYER1
  6
CONTINUOUS
 62
     2
 10
739.474561
 20
597.743873
 11
742.474561
 21
597.743873
  0
LINE
  8
CSLAYER1
  6
CONTINUOUS
 62
     2
 10
739.474561
 20
602.091093
 11
742.474561
 21
602.091093
  0
LINE
  8
CSLAYER1
  6
CONTINUOUS
 62
     4
 10
739.474561
 20
610.794843
 11
743.474561
 21
610.794843
  0
LINE
  8
CSLAYER1
  6
CONTINUOUS
 62
     2
 10
742.474561
 20
585.133098
 11
742.474561
 21
610.794843
  0
LINE
  8
CSLAYER1
  6
CONTINUOUS
 62
     4
 10
758.474561
 20
585.133098
 11
758.474561
 21
610.794843
  0
LINE
  8
CSLAYER1
  6
CONTINUOUS
 62
     2
 10
742.474561
 20
601.508669
 11
758.474561
 21
601.508669
  0
LINE
  8
CSLAYER1
  6
CONTINUOUS
 62
     2
 10
759.474561
 20
595.257706
 11
759.474561
 21
602.857706
  0
LINE
  8
CSLAYER1
  6
CONTINUOUS
 62
     4
 10
759.474561
 20
595.257706
 11
758.474561
 21
595.257706
  0
LINE
  8
CSLAYER1
  6
CONTINUOUS
 62
     4
 10
759.474561
 20
602.857706
 11
758.474561
 21
602.857706
  0
LINE
  8
CSLAYER1
  6
CONTINUOUS
 62
     4
 10
762.074561
 20
597.557706
 11
762.074561
 21
600.557706
  0
LINE
  8
CSLAYER1
  6
CONTINUOUS
 62
     4
 10
760.074561
 20
595.557706
 11
759.474561
 21
595.557706
  0
LINE
  8
CSLAYER1
  6
CONTINUOUS
 62
     4
 10
760.074561
 20
602.557706
 11
759.474561
 21
602.557706
  0
ARC
  8
CSLAYER1
  6
CONTINUOUS
 62
     4
 10
760.074561
 20
597.557706
 40
2.000000
 50
270.000000
 51
360.000000
  0
ARC
  8
CSLAYER1
  6
CONTINUOUS
 62
     4
 10
760.074561
 20
600.557706
 40
2.000000
 50
0.000000
 51
90.000000
  0
LINE
  8
CSLAYER1
  6
CONTINUOUS
 62
     4
 10
757.474561
 20
610.794843
 11
758.474561
 21
610.794843
  0
LINE
  8
CSLAYER1
  6
CONTINUOUS
 62
     2
 10
748.474561
 20
628.823166
 11
748.474561
 21
641.134903
  0
LINE
  8
CSLAYER1
  6
CONTINUOUS
 62
     4
 10
757.474561
 20
616.839028
 11
756.013743
 21
628.823166
  0
LINE
  8
CSLAYER1
  6
CONTINUOUS
 62
     4
 10
743.474561
 20
616.839028
 11
744.935378
 21
628.823166
  0
LINE
  8
CSLAYER1
  6
CONTINUOUS
 62
     4
 10
743.474561
 20
601.508669
 11
743.474561
 21
616.839028
  0
LINE
  8
CSLAYER1
  6
CONTINUOUS
 62
     2
 10
757.474561
 20
601.508669
 11
757.474561
 21
610.794843
  0
LINE
  8
CSLAYER1
  6
CONTINUOUS
 62
     4
 10
753.974561
 20
628.823166
 11
753.974561
 21
641.134903
  0
LINE
  8
CSLAYER1
  6
CONTINUOUS
 62
     4
 10
753.974561
 20
628.823166
 11
756.013743
 21
628.823166
  0
LINE
  8
CSLAYER1
  6
CONTINUOUS
 62
     2
 10
752.474561
 20
628.823166
 11
752.474561
 21
641.134903
  0
LINE
  8
CSLAYER1
  6
CONTINUOUS
 62
     4
 10
746.974561
 20
641.134903
 11
748.474561
 21
641.134903
  0
LINE
  8
CSLAYER1
  6
CONTINUOUS
 62
     2
 10
746.974561
 20
640.626696
 11
748.474561
 21
640.626696
  0
LINE
  8
CSLAYER1
  6
CONTINUOUS
 62
     4
 10
747.728499
 20
657.560472
 11
756.702660
 21
649.782867
  0
LINE
  8
CSLAYER1
  6
CENTER
 62
     5
 10
737.757918
 20
624.319412
 11
799.974561
 21
624.319412
  0
LINE
  8
CSLAYER1
  6
CONTINUOUS
 62
     7
 10
743.974561
 20
629.319412
 11
746.974561
 21
629.319412
  0
LINE
  8
CSLAYER1
  6
CONTINUOUS
 62
     7
 10
757.172212
 20
619.319412
 11
799.974561
 21
619.319412
  0
LINE
  8
CSLAYER1
  6
CONTINUOUS
 62
     7
 10
743.974561
 20
629.319412
 11
743.974561
 21
620.940887
  0
LINE
  8
CSLAYER1
  6
CONTINUOUS
 62
     7
 10
753.974561
 20
629.319412
 11
799.974561
 21
629.319412
  0
LINE
  8
CSLAYER1
  6
CONTINUOUS
 62
     4
 10
752.474561
 20
641.134903
 11
753.974561
 21
641.134903
  0
LINE
  8
CSLAYER1
  6
CONTINUOUS
 62
     2
 10
752.474561
 20
640.626696
 11
753.974561
 21
640.626696
  0
LINE
  8
CSLAYER1
  6
CONTINUOUS
 62
     4
 10
757.474561
 20
610.794843
 11
757.474561
 21
616.839028
  0
LINE
  8
CSLAYER1
  6
CONTINUOUS
 62
     4
 10
748.474561
 20
641.134903
 11
748.474561
 21
657.112836
  0
LINE
  8
CSLAYER1
  6
CONTINUOUS
 62
     4
 10
752.474561
 20
641.134903
 11
752.474561
 21
653.073392
  0
LINE
  8
CSLAYER1
  6
CONTINUOUS
 62
     2
 10
746.974561
 20
628.823166
 11
753.974561
 21
628.823166
  0
LINE
  8
CSLAYER1
  6
CONTINUOUS
 62
     5
 10
753.974561
 20
637.354944
 11
977.186752
 21
808.453411
  0
LINE
  8
CSLAYER1
  6
CONTINUOUS
 62
     5
 10
753.974561
 20
637.354944
 11
781.386775
 21
673.042063
  0
LINE
  8
CSLAYER1
  6
CONTINUOUS
 62
     5
 10
753.974561
 20
637.354944
 11
795.557794
 21
654.554789
  0
TEXT
  8
CSLAYER1
 62
     5
 10
1069.915894
 20
823.912903
 40
60.000000
 41
1.028571
  1
上限・下限
 50
360.000000
 51
0.000000
  7
EASYDRAW_FONT
 72
     5
 11
1357.915894
 21
823.912903
  0
LINE
  8
CSLAYER1
  6
CONTINUOUS
 62
     5
 10
977.186752
 20
808.453411
 11
1456.975631
 21
808.453411
  0
TEXT
  8
CSLAYER1
 62
     5
 10
988.098389
 20
736.973450
 40
60.000000
 41
1.017391
  1
リミットスイッチ
 50
360.000000
 51
0.000000
  7
EASYDRAW_FONT
 72
     5
 11
1456.098389
 21
736.973450
  0
LINE
  8
CSLAYER1
  6
CONTINUOUS
 62
     6
 10
1693.095880
 20
389.807138
 11
1771.755978
 21
389.807138
  0
LINE
  8
CSLAYER1
  6
CONTINUOUS
 62
     6
 10
1771.755978
 20
389.807138
 11
1728.289316
 21
401.453995
  0
LINE
  8
CSLAYER1
  6
CONTINUOUS
 62
     6
 10
1771.755978
 20
389.807138
 11
1728.289316
 21
378.160281
  0
TEXT
  8
CSLAYER1
 62
     5
 10
531.053786
 20
325.705036
 40
38.994835
 41
1.022858
  1
取付穴ピッチ
 50
0.000000
 51
0.000000
  7
EASYDRAW_FONT
 72
     5
 11
757.075365
 21
325.705036
  0
INSERT
  8
CSLAYER1
  2
EASYDRAWDIM0000
 10
0.0
 20
0.0
 30
0.0
  0
TEXT
  8
CSLAYER1
 62
     5
 10
1970.093703
 20
341.931110
 40
38.994835
 41
1.022858
  1
取付穴ピッチ
 50
0.000000
 51
0.000000
  7
EASYDRAW_FONT
 72
     5
 11
2196.115282
 21
341.931110
  0
DIMENSION
  8
CSLAYER1
 62
     3
  2
*D0005
 10
2321.755978
 20
389.807138
 11
2071.756348
 21
404.806946
 13
1821.755978
 23
520.133098
 14
2321.755978
 24
520.133098
 52
270.000000
 70
1
  0
DIMENSION
  8
CSLAYER1
 62
     3
  2
*D0006
 10
1821.755978
 20
389.807138
 11
1710.559448
 21
306.135559
 13
1771.755978
 23
260.143621
 14
1821.755978
 24
520.133098
  0
DIMENSION
  8
CSLAYER1
 62
     3
  2
*D0007
 10
2821.555978
 20
260.143621
 11
2296.656250
 21
275.143860
 13
1771.755978
 23
520.133098
 14
2821.555978
 24
520.133098
 52
270.000000
 70
1
  0
INSERT
  8
CSLAYER1
  2
EASYDRAWDIM0001
 10
0.0
 20
0.0
 30
0.0
  0
DIMENSION
  8
CSLAYER1
 62
     3
  2
*D0008
 10
891.974561
 20
223.291893
 11
641.974548
 21
238.291809
 13
391.974561
 23
520.133098
 14
891.974561
 24
520.133098
 52
270.000000
 70
1
  0
DIMENSION
  8
CSLAYER1
 62
     3
  2
*D0009
 10
421.974561
 20
373.805300
 11
642.262451
 21
384.847961
 13
861.974561
 23
373.805300
 14
421.974561
 24
373.805300
 52
0.000000
 70
1
  0
DIMENSION
  8
CSLAYER1
 62
     3
  2
*D0010
 10
973.735379
 20
526.133098
 11
1004.104858
 21
606.266418
 13
891.974561
 23
520.133098
 14
887.294171
 24
526.133098
 50
90.000000
  0
LINE
  8
CSLAYER1
  6
DASHED
 62
     3
 10
397.301869
 20
526.133098
 11
887.294171
 21
526.133098
  0
LINE
  8
CSLAYER1
  6
CONTINUOUS
 62
     6
 10
2321.755978
 20
555.401510
 11
2321.755978
 21
520.133098
  0
LINE
  8
CSLAYER1
  6
CONTINUOUS
 62
     6
 10
1821.755978
 20
550.125513
 11
1821.755978
 21
520.133098
  0
LINE
  8
CSLAYER1
  6
CONTINUOUS
 62
     4
 10
1816.576279
 20
646.516380
 11
1838.062296
 21
659.297267
  0
LINE
  8
CSLAYER1
  6
CONTINUOUS
 62
     4
 10
1829.357166
 20
625.030363
 11
1850.843183
 21
637.811250
  0
LINE
  8
CSLAYER1
  6
CONTINUOUS
 62
     4
 10
1816.576279
 20
646.516380
 11
1829.357166
 21
625.030363
  0
LINE
  8
CSLAYER1
  6
CONTINUOUS
 62
     5
 10
1814.214338
 20
674.937625
 11
1840.125221
 21
631.378701
  0
LINE
  8
CSLAYER1
  6
CONTINUOUS
 62
     4
 10
1838.062296
 20
659.297267
 11
1850.868230
 21
637.769144
  0
INSERT
  8
CSLAYER1
  2
BLKF0004
 10
0.0
 20
0.0
 30
0.0
  0
INSERT
  8
CSLAYER1
  2
BLKF0005
 10
0.0
 20
0.0
 30
0.0
  0
LINE
  8
CSLAYER1
  6
CONTINUOUS
 62
     4
 10
1822.090190
 20
671.477718
 11
1827.526608
 21
662.338527
  0
LINE
  8
CSLAYER1
  6
CONTINUOUS
 62
     5
 10
1821.230749
 20
670.966482
 11
1826.667167
 21
661.827291
  0
LINE
  8
CSLAYER1
  6
CONTINUOUS
 62
     5
 10
1814.355223
 20
666.876598
 11
1819.791641
 21
657.737407
  0
LINE
  8
CSLAYER1
  6
CONTINUOUS
 62
     4
 10
1813.495783
 20
666.365363
 11
1818.932201
 21
657.226172
  0
LINE
  8
CSLAYER1
  6
CONTINUOUS
 62
     5
 10
421.974561
 20
537.300469
 11
421.974561
 21
358.805300
  0
LINE
  8
CSLAYER1
  6
CONTINUOUS
 62
     5
 10
861.974561
 20
537.300469
 11
861.974561
 21
358.805300
  0
LINE
  8
CSLAYER1
  6
CONTINUOUS
 62
     3
 10
1522.432062
 20
2863.187486
 11
1311.894317
 21
2863.187486
  0
LINE
  8
CSLAYER1
  6
CONTINUOUS
 62
     3
 10
1522.964699
 20
2870.187486
 11
1311.894317
 21
2870.187486
  0
ARC
  8
CSLAYER1
  6
CONTINUOUS
 62
     3
 10
1516.127302
 20
2823.687486
 40
40.000000
 50
-243.817766
 51
80.931278
  0
ARC
  8
CSLAYER1
  6
CONTINUOUS
 62
     3
 10
1516.127302
 20
2823.687486
 40
47.000000
 50
-229.860785
 51
81.635125
  0
LINE
  8
CSLAYER1
  6
CONTINUOUS
 62
     3
 10
1771.555978
 20
2863.187486
 11
1546.118918
 21
2863.187486
  0
LINE
  8
CSLAYER1
  6
CONTINUOUS
 62
     3
 10
1771.555978
 20
2870.187486
 11
1535.412027
 21
2870.187486
  0
LINE
  8
CSLAYER1
  6
CONTINUOUS
 62
     5
 10
4936.771089
 20
1433.402193
 11
3855.462313
 21
1433.402193
  0
TEXT
  8
CSLAYER1
 62
     4
 10
4343.415039
 20
1449.409058
 40
60.000000
 41
0.926087
  1
　１０Ｒ４／１３
 50
0.000000
 51
0.000000
  7
EASYDRAW_FONT
 72
     5
 11
4769.415039
 21
1449.409058
  0
TEXT
  8
CSLAYER1
 62
     5
 10
3870.075439
 20
2979.231689
 40
60.000000
 41
1.036364
  1
積載荷重
 50
0.000000
 51
0.000000
  7
EASYDRAW_FONT
 72
     5
 11
4098.075439
 21
2979.231689
  0
TEXT
  8
CSLAYER1
 62
     5
 10
728.936157
 20
2421.903564
 40
60.000000
 41
1.020000
  1
コード長サ２ｍ
 50
0.000000
 51
0.000000
  7
EASYDRAW_FONT
 72
     5
 11
1136.936157
 21
2421.903564
  0
INSERT
  8
CSLAYER1
  2
BLKF0006
 10
0.0
 20
0.0
 30
0.0
  0
ENDSEC
  0
EOF
