  0
SECTION
  2
HEADER
  9
$ACADVER
  1
AC1006
  9
$INSBASE
 10
-505.138436
 20
2477.915309
 30
0.0
  9
$EXTMIN
 10
-505.138436
 20
2477.915309
  9
$EXTMAX
 10
3134.861564
 20
5047.915309
  9
$LIMMIN
 10
-505.138436
 20
2477.915309
  9
$LIMMAX
 10
3134.861564
 20
5047.915309
  9
$VIEWCTR
 10
1314.861564
 20
3762.915309
  9
$VIEWSIZE
 40
2570.000000
  9
$SNAPMODE
 70
     0
  9
$SNAPUNIT
 10
1.0
 20
1.0
  9
$SNAPBASE
 10
0.0
 20
0.0
  9
$SNAPANG
 50
0.0
  9
$SNAPSTYLE
 70
     0
  9
$SNAPISOPAIR
 70
     0
  9
$GRIDMODE
 70
     0
  9
$GRIDUNIT
 10
0.0
 20
0.0
  9
$ORTHOMODE
 70
     0
  9
$REGENMODE
 70
     1
  9
$FILLMODE
 70
     1
  9
$QTEXTMODE
 70
     0
  9
$DRAGMODE
 70
     2
  9
$LTSCALE
 40
15.000000
  9
$OSMODE
 70
     0
  9
$ATTMODE
 70
     1
  9
$TEXTSIZE
 40
0.2
  9
$TRACEWID
 40
0.05
  9
$TEXTSTYLE
  7
STANDARD
  9
$CLAYER
  8
CSLAYER1
  9
$CELTYPE
  6
BYLAYER
  9
$CECOLOR
 62
   256
  9
$DIMSCALE
 40
1.0
  9
$DIMASZ
 40
0.18
  9
$DIMEXO
 40
0.0625
  9
$DIMDLI
 40
0.38
  9
$DIMRND
 40
0.0
  9
$DIMDLE
 40
0.0
  9
$DIMEXE
 40
0.18
  9
$DIMTP
 40
0.0
  9
$DIMTM
 40
0.0
  9
$DIMTXT
 40
0.18
  9
$DIMCEN
 40
0.09
  9
$DIMTSZ
 40
0.0
  9
$DIMTOL
 70
     0
  9
$DIMLIM
 70
     0
  9
$DIMTIH
 70
     1
  9
$DIMTOH
 70
     1
  9
$DIMSE1
 70
     0
  9
$DIMSE2
 70
     0
  9
$DIMTAD
 70
     0
  9
$DIMZIN
 70
     0
  9
$DIMBLK
  1

  9
$LUNITS
 70
     2
  9
$LUPREC
 70
     4
  9
$AXISMODE
 70
     0
  9
$AXISUNIT
 10
0.0
 20
0.0
  9
$SKETCHINC
 40
0.1
  9
$FILLETRAD
 40
0.0
  9
$AUNITS
 70
     0
  9
$AUPREC
 70
     0
  9
$MENU
  1
ACAD
  9
$ELEVATION
 40
0.0
  9
$THICKNESS
 40
0.0
  9
$VIEWDIR
 10
0.0
 20
0.0
 30
1.0
  9
$LIMCHECK
 70
     0
  9
$BLIPMODE
 70
     1
  9
$CHAMFERA
 40
0.0
  9
$CHAMFERB
 40
0.0
  9
$FASTZOOM
 70
     1
  9
$SKPOLY
 70
     0
  9
$TDCREATE
 40
2457497.000000
  9
$TDUPDATE
 40
2457497.000000
  9
$TDINDWG
 40
0.0
  9
$TDUSRTIMER
 40
0.0
  9
$USRTIMER
 70
     1
  9
$ANGBASE
 50
0.0
  9
$ANGDIR
 70
     0
  9
$PDMODE
 70
     0
  9
$PDSIZE
 40
0.0
  9
$PLINEWID
 40
0.0
  9
$COORDS
 70
     0
  9
$USERI1
 70
     0
  9
$USERI2
 70
     0
  9
$USERI3
 70
     0
  9
$USERI4
 70
     0
  9
$USERI5
 70
     0
  9
$USERR1
 40
0.0
  9
$USERR2
 40
0.0
  9
$USERR3
 40
0.0
  9
$USERR4
 40
0.0
  9
$USERR5
 40
0.0
  0
ENDSEC
  0
SECTION
  2
TABLES
  0
TABLE
  2
LTYPE
 70
     9
  0
LTYPE
  2
CONTINUOUS
 70
    64
  3
Solid line
 72
    65
 73
     0
 40
0.0
  0
LTYPE
  2
DASHED
 70
    64
  3
__ __ __ __ __ __ __ __ __ __ __ __ __ __ __
 72
    65
 73
     2
 40
0.75
 49
0.5
 49
-0.25
  0
LTYPE
  2
HIDDEN
 70
    64
  3
_ _ _ _ _ _ _ _ _ _ _ _ _ _ _ _ _ _ _ _ _ _ _
 72
    65
 73
     2
 40
0.375
 49
0.25
 49
-0.125
  0
LTYPE
  2
DOT
 70
    64
  3
...............................................
 72
    65
 73
     2
 40
0.25
 49
0.0
 49
-0.25
  0
LTYPE
  2
DASHDOT
 70
    64
  3
__ . __ . __ . __ . __ . __ . __ . __ . __ . __
 72
    65
 73
     4
 40
1.0
 49
0.5
 49
-0.25
 49
0.0
 49
-0.25
  0
LTYPE
  2
DIVIDE
 70
    64
  3
__ . . __ . . __ . . __ . . __ . . __ . . __
 72
    65
 73
     6
 40
1.25
 49
0.5
 49
-0.25
 49
0.0
 49
-0.25
 49
0.0
 49
-0.25
  0
LTYPE
  2
CENTER
 70
    64
  3
____ _ ____ _ ____ _ ____ _ ____ _ ____ _ ____ 
 72
    65
 73
     4
 40
2.0
 49
1.25
 49
-0.25
 49
0.25
 49
-0.25
  0
LTYPE
  2
PHANTOM
 70
    64
  3
______  __  __  ______  __  __  ______  __  __ 
 72
    65
 73
     6
 40
2.5
 49
1.25
 49
-0.25
 49
0.25
 49
-0.25
 49
0.25
 49
-0.25
  0
LTYPE
  2
BORDER
 70
    64
  3
__ __ . __ __ . __ __ . __ __ . __ __ . __ __ .
 72
    65
 73
     6
 40
1.75
 49
0.5
 49
-0.25
 49
0.5
 49
-0.25
 49
0.0
 49
-0.25
  0
ENDTAB
  0
TABLE
  2
LAYER
 70
    16
  0
LAYER
  2
CSLAYER1
 70
    64
 62
     7
  6
CONTINUOUS
  0
LAYER
  2
CSLAYER2
 70
    64
 62
     7
  6
CONTINUOUS
  0
LAYER
  2
CSLAYER3
 70
    64
 62
     7
  6
CONTINUOUS
  0
LAYER
  2
CSLAYER4
 70
    64
 62
     7
  6
CONTINUOUS
  0
LAYER
  2
CSLAYER5
 70
    64
 62
     7
  6
CONTINUOUS
  0
LAYER
  2
CSLAYER6
 70
    64
 62
     7
  6
CONTINUOUS
  0
LAYER
  2
CSLAYER7
 70
    64
 62
     7
  6
CONTINUOUS
  0
LAYER
  2
CSLAYER8
 70
    64
 62
     7
  6
CONTINUOUS
  0
LAYER
  2
CSLAYER9
 70
    64
 62
     7
  6
CONTINUOUS
  0
LAYER
  2
CSLAYER10
 70
    64
 62
     7
  6
CONTINUOUS
  0
LAYER
  2
CSLAYER11
 70
    64
 62
     7
  6
CONTINUOUS
  0
LAYER
  2
CSLAYER12
 70
    64
 62
     7
  6
CONTINUOUS
  0
LAYER
  2
CSLAYER13
 70
    64
 62
     7
  6
CONTINUOUS
  0
LAYER
  2
CSLAYER14
 70
    64
 62
     7
  6
CONTINUOUS
  0
LAYER
  2
CSLAYER15
 70
    64
 62
     7
  6
CONTINUOUS
  0
LAYER
  2
CSLAYER16
 70
    64
 62
     7
  6
CONTINUOUS
  0
ENDTAB
  0
TABLE
  2
STYLE
 70
     1
  0
STYLE
  2
EASYDRAW_FONT
 70
     0
 40
1.0
 41
1.0
 50
0.0
 71
     0
 42
1.0
  3
monotxt
  4
bigfont
  0
ENDTAB
  0
TABLE
  2
VIEW
 70
     0
  0
ENDTAB
  0
ENDSEC
  0
SECTION
  2
BLOCKS
  0
BLOCK
  8
CSLAYER1
  2
*D0000
 70
    65
 10
0.0
 20
0.0
 30
0.0
  0
TEXT
  8
CSLAYER1
 62
     7
 10
2317.982422
 20
404.358032
 40
40.000000
 41
0.843750
  1
155
 50
90.000000
 51
0.000000
  7
EASYDRAW_FONT
 72
     5
 11
2317.982422
 21
494.358032
  0
LINE
  8
CSLAYER1
  6
CONTINUOUS
 62
     5
 10
2176.240494
 20
369.858387
 11
2376.215318
 21
369.858387
  0
LINE
  8
CSLAYER1
  6
CONTINUOUS
 62
     5
 10
2176.240494
 20
524.858387
 11
2276.215318
 21
524.858387
  0
LINE
  8
CSLAYER1
  6
CONTINUOUS
 62
     5
 10
2266.215318
 20
369.858387
 11
2266.215318
 21
524.858387
  0
LINE
  8
CSLAYER1
  6
CONTINUOUS
 62
     5
 10
2266.215318
 20
369.858387
 11
2258.450747
 21
398.836162
  0
LINE
  8
CSLAYER1
  6
CONTINUOUS
 62
     5
 10
2266.215318
 20
369.858387
 11
2273.979889
 21
398.836162
  0
LINE
  8
CSLAYER1
  6
CONTINUOUS
 62
     5
 10
2266.215318
 20
524.858387
 11
2258.450747
 21
495.880613
  0
LINE
  8
CSLAYER1
  6
CONTINUOUS
 62
     5
 10
2266.215318
 20
524.858387
 11
2273.979889
 21
495.880613
  0
ENDBLK
  8
0
  0
BLOCK
  8
CSLAYER1
  2
*D0001
 70
    65
 10
0.0
 20
0.0
 30
0.0
  0
TEXT
  8
CSLAYER1
 62
     7
 10
2256.215332
 20
863.131287
 40
40.000000
 41
0.843750
  1
750
 50
90.000000
 51
0.000000
  7
EASYDRAW_FONT
 72
     5
 11
2256.215332
 21
953.131287
  0
LINE
  8
CSLAYER1
  6
CONTINUOUS
 62
     5
 10
2173.215318
 20
1291.404006
 11
2376.215318
 21
1291.404006
  0
LINE
  8
CSLAYER1
  6
CONTINUOUS
 62
     5
 10
2266.215318
 20
524.858387
 11
2266.215318
 21
1291.404006
  0
LINE
  8
CSLAYER1
  6
CONTINUOUS
 62
     5
 10
2266.215318
 20
524.858387
 11
2258.450747
 21
553.836162
  0
LINE
  8
CSLAYER1
  6
CONTINUOUS
 62
     5
 10
2266.215318
 20
524.858387
 11
2273.979889
 21
553.836162
  0
LINE
  8
CSLAYER1
  6
CONTINUOUS
 62
     5
 10
2266.215318
 20
1291.404006
 11
2258.450747
 21
1262.426231
  0
LINE
  8
CSLAYER1
  6
CONTINUOUS
 62
     5
 10
2266.215318
 20
1291.404006
 11
2273.979889
 21
1262.426231
  0
ENDBLK
  8
0
  0
BLOCK
  8
CSLAYER1
  2
*D0002
 70
    65
 10
0.0
 20
0.0
 30
0.0
  0
TEXT
  8
CSLAYER1
 62
     7
 10
2356.215332
 20
785.631226
 40
40.000000
 41
0.843750
  1
905
 50
90.000000
 51
0.000000
  7
EASYDRAW_FONT
 72
     5
 11
2356.215332
 21
875.631226
  0
LINE
  8
CSLAYER1
  6
CONTINUOUS
 62
     5
 10
2366.215318
 20
369.858387
 11
2366.215318
 21
1291.404006
  0
LINE
  8
CSLAYER1
  6
CONTINUOUS
 62
     5
 10
2366.215318
 20
369.858387
 11
2358.450747
 21
398.836162
  0
LINE
  8
CSLAYER1
  6
CONTINUOUS
 62
     5
 10
2366.215318
 20
369.858387
 11
2373.979889
 21
398.836162
  0
LINE
  8
CSLAYER1
  6
CONTINUOUS
 62
     5
 10
2366.215318
 20
1291.404006
 11
2358.450747
 21
1262.426231
  0
LINE
  8
CSLAYER1
  6
CONTINUOUS
 62
     5
 10
2366.215318
 20
1291.404006
 11
2373.979889
 21
1262.426231
  0
ENDBLK
  8
0
  0
BLOCK
  8
CSLAYER1
  2
*D0003
 70
    65
 10
0.0
 20
0.0
 30
0.0
  0
TEXT
  8
CSLAYER1
 62
     7
 10
1581.227783
 20
1398.346558
 40
40.000000
 41
0.818182
  1
1050
 50
0.000000
 51
0.000000
  7
EASYDRAW_FONT
 72
     5
 11
1701.227783
 21
1398.346558
  0
LINE
  8
CSLAYER1
  6
CONTINUOUS
 62
     5
 10
1116.240494
 20
1298.404006
 11
1116.240494
 21
1398.346431
  0
LINE
  8
CSLAYER1
  6
CONTINUOUS
 62
     5
 10
1116.240494
 20
1388.346431
 11
2166.215318
 21
1388.346431
  0
LINE
  8
CSLAYER1
  6
CONTINUOUS
 62
     5
 10
1116.240494
 20
1388.346431
 11
1145.218268
 21
1396.111002
  0
LINE
  8
CSLAYER1
  6
CONTINUOUS
 62
     5
 10
1116.240494
 20
1388.346431
 11
1145.218268
 21
1380.581859
  0
LINE
  8
CSLAYER1
  6
CONTINUOUS
 62
     5
 10
2166.215318
 20
1388.346431
 11
2137.237543
 21
1396.111002
  0
LINE
  8
CSLAYER1
  6
CONTINUOUS
 62
     5
 10
2166.215318
 20
1388.346431
 11
2137.237543
 21
1380.581859
  0
LINE
  8
CSLAYER1
  6
CONTINUOUS
 62
     5
 10
2166.215318
 20
1298.404006
 11
2166.215318
 21
1398.346431
  0
ENDBLK
  8
0
  0
BLOCK
  8
CSLAYER1
  2
*D0004
 70
    65
 10
0.0
 20
0.0
 30
0.0
  0
TEXT
  8
CSLAYER1
 62
     7
 10
1581.240356
 20
283.732544
 40
40.000000
 41
0.818182
  1
1050
 50
360.000000
 51
0.000000
  7
EASYDRAW_FONT
 72
     5
 11
1701.240356
 21
283.732544
  0
LINE
  8
CSLAYER1
  6
CONTINUOUS
 62
     5
 10
1116.240494
 20
359.858387
 11
1116.240494
 21
263.732594
  0
LINE
  8
CSLAYER1
  6
CONTINUOUS
 62
     5
 10
1116.240494
 20
273.732594
 11
2166.240494
 21
273.732594
  0
LINE
  8
CSLAYER1
  6
CONTINUOUS
 62
     5
 10
1116.240494
 20
273.732594
 11
1145.218268
 21
281.497165
  0
LINE
  8
CSLAYER1
  6
CONTINUOUS
 62
     5
 10
1116.240494
 20
273.732594
 11
1145.218268
 21
265.968022
  0
LINE
  8
CSLAYER1
  6
CONTINUOUS
 62
     5
 10
2166.240494
 20
273.732594
 11
2137.262719
 21
281.497165
  0
LINE
  8
CSLAYER1
  6
CONTINUOUS
 62
     5
 10
2166.240494
 20
273.732594
 11
2137.262719
 21
265.968022
  0
LINE
  8
CSLAYER1
  6
CONTINUOUS
 62
     5
 10
2166.240494
 20
359.858387
 11
2166.240494
 21
263.732594
  0
ENDBLK
  8
0
  0
BLOCK
  8
CSLAYER1
  2
*D0005
 70
    65
 10
0.0
 20
0.0
 30
0.0
  0
TEXT
  8
CSLAYER1
 62
     7
 10
471.379395
 20
283.732788
 40
40.000000
 41
0.843750
  1
500
 50
0.000000
 51
0.000000
  7
EASYDRAW_FONT
 72
     5
 11
561.379395
 21
283.732788
  0
LINE
  8
CSLAYER1
  6
CONTINUOUS
 62
     5
 10
266.379393
 20
359.858387
 11
266.379393
 21
263.732594
  0
LINE
  8
CSLAYER1
  6
CONTINUOUS
 62
     5
 10
766.379393
 20
359.858387
 11
766.379393
 21
263.732594
  0
LINE
  8
CSLAYER1
  6
CONTINUOUS
 62
     5
 10
266.379393
 20
273.732594
 11
766.379393
 21
273.732594
  0
LINE
  8
CSLAYER1
  6
CONTINUOUS
 62
     5
 10
266.379393
 20
273.732594
 11
295.357167
 21
281.497165
  0
LINE
  8
CSLAYER1
  6
CONTINUOUS
 62
     5
 10
266.379393
 20
273.732594
 11
295.357167
 21
265.968022
  0
LINE
  8
CSLAYER1
  6
CONTINUOUS
 62
     5
 10
766.379393
 20
273.732594
 11
737.401618
 21
281.497165
  0
LINE
  8
CSLAYER1
  6
CONTINUOUS
 62
     5
 10
766.379393
 20
273.732594
 11
737.401618
 21
265.968022
  0
ENDBLK
  8
0
  0
BLOCK
  8
CSLAYER1
  2
BLKF0000
 70
   64
 10
0.0
 20
0.0
 30
0.0
  0
ARC
  8
CSLAYER1
  6
CONTINUOUS
 62
     5
 10
2781.909508
 20
79.335220
 40
3.549225
 50
6.429109
 51
73.182034
  0
ARC
  8
CSLAYER1
  6
CONTINUOUS
 62
     5
 10
2778.448538
 20
78.176827
 40
6.907754
 50
310.517970
 51
330.092764
  0
ARC
  8
CSLAYER1
  6
CONTINUOUS
 62
     5
 10
2778.387888
 20
78.542345
 40
7.148321
 50
-32.205059
 51
9.585194
  0
ARC
  8
CSLAYER1
  6
CONTINUOUS
 62
     5
 10
2781.680616
 20
75.781346
 40
4.767514
 50
180.000000
 51
218.514150
  0
ARC
  8
CSLAYER1
  6
CONTINUOUS
 62
     5
 10
2780.393895
 20
75.104206
 40
3.348282
 50
222.781148
 51
319.406906
  0
ARC
  8
CSLAYER1
  6
CONTINUOUS
 62
     5
 10
2783.459537
 20
76.194099
 40
6.559434
 50
94.574282
 51
183.607718
  0
LINE
  8
CSLAYER1
  6
CONTINUOUS
 62
     5
 10
2796.903443
 20
71.077266
 11
2796.046407
 21
68.038683
  0
LINE
  8
CSLAYER1
  6
CONTINUOUS
 62
     5
 10
2798.695428
 20
90.944924
 11
2796.591794
 21
93.671857
  0
LINE
  8
CSLAYER1
  6
CONTINUOUS
 62
     5
 10
2796.591794
 20
93.671857
 11
2789.838440
 21
97.429769
  0
LINE
  8
CSLAYER1
  6
CONTINUOUS
 62
     5
 10
2789.838440
 20
97.429769
 11
2782.936412
 21
98.232640
  0
LINE
  8
CSLAYER1
  6
CONTINUOUS
 62
     5
 10
2764.647187
 20
84.853966
 11
2766.793881
 21
89.818197
  0
LINE
  8
CSLAYER1
  6
CONTINUOUS
 62
     5
 10
2766.756884
 20
89.732640
 11
2768.940576
 21
92.367396
  0
LINE
  8
CSLAYER1
  6
CONTINUOUS
 62
     5
 10
2768.940576
 20
92.367396
 11
2772.244998
 21
94.732640
  0
LINE
  8
CSLAYER1
  6
CONTINUOUS
 62
     5
 10
2782.936412
 20
98.232640
 11
2781.418237
 21
97.465795
  0
LINE
  8
CSLAYER1
  6
CONTINUOUS
 62
     5
 10
2781.418237
 20
97.465795
 11
2777.929858
 21
97.465795
  0
LINE
  8
CSLAYER1
  6
CONTINUOUS
 62
     5
 10
2777.929858
 20
97.465795
 11
2774.374396
 21
95.520354
  0
LINE
  8
CSLAYER1
  6
CONTINUOUS
 62
     5
 10
2774.374396
 20
95.520354
 11
2772.244998
 21
94.732640
  0
LINE
  8
CSLAYER1
  6
CONTINUOUS
 62
     5
 10
2764.647187
 20
84.853966
 11
2763.129640
 21
77.305363
  0
LINE
  8
CSLAYER1
  6
CONTINUOUS
 62
     5
 10
2763.129640
 20
77.305363
 11
2762.936412
 21
74.732640
  0
LINE
  8
CSLAYER1
  6
CONTINUOUS
 62
     5
 10
2765.645795
 20
66.892857
 11
2762.936412
 21
72.988969
  0
LINE
  8
CSLAYER1
  6
CONTINUOUS
 62
     5
 10
2762.936412
 20
72.988969
 11
2762.936412
 21
74.732640
  0
LINE
  8
CSLAYER1
  6
CONTINUOUS
 62
     5
 10
2796.046407
 20
68.038683
 11
2794.360620
 21
65.035677
  0
LINE
  8
CSLAYER1
  6
CONTINUOUS
 62
     5
 10
2794.360620
 20
65.035677
 11
2792.936412
 21
63.716966
  0
ARC
  8
CSLAYER1
  6
CONTINUOUS
 62
     5
 10
2780.744468
 20
75.269400
 40
17.266626
 50
208.054813
 51
260.640470
  0
ARC
  8
CSLAYER1
  6
CONTINUOUS
 62
     5
 10
2775.551072
 20
88.011870
 40
29.874611
 50
274.579659
 51
305.587364
  0
ARC
  8
CSLAYER1
  6
CONTINUOUS
 62
     5
 10
2786.523421
 20
82.028147
 40
15.088627
 50
313.467013
 51
331.085078
  0
LINE
  8
CSLAYER1
  6
CONTINUOUS
 62
     5
 10
2801.314754
 20
78.246061
 11
2801.612048
 21
82.028147
  0
LINE
  8
CSLAYER1
  6
CONTINUOUS
 62
     5
 10
2801.612048
 20
82.028147
 11
2800.320051
 21
88.137130
  0
LINE
  8
CSLAYER1
  6
CONTINUOUS
 62
     5
 10
2801.314754
 20
78.246061
 11
2799.731079
 21
74.732640
  0
ARC
  8
CSLAYER1
  6
CONTINUOUS
 62
     5
 10
2786.523421
 20
82.028147
 40
15.088627
 50
23.883193
 51
36.225170
  0
LINE
  8
CSLAYER1
  6
CONTINUOUS
 62
     5
 10
2746.936412
 20
109.732640
 11
2747.936412
 21
110.825284
  0
LINE
  8
CSLAYER1
  6
CONTINUOUS
 62
     5
 10
2746.936412
 20
109.732640
 11
2748.513370
 21
108.287607
  0
LINE
  8
CSLAYER1
  6
CONTINUOUS
 62
     5
 10
2750.052583
 20
106.178315
 11
2750.078851
 21
104.010196
  0
LINE
  8
CSLAYER1
  6
CONTINUOUS
 62
     5
 10
2750.078851
 20
104.010196
 11
2750.286249
 21
103.249737
  0
LINE
  8
CSLAYER1
  6
CONTINUOUS
 62
     5
 10
2750.286249
 20
103.249737
 11
2750.873877
 21
102.523844
  0
LINE
  8
CSLAYER1
  6
CONTINUOUS
 62
     5
 10
2750.873877
 20
102.523844
 11
2751.461504
 21
102.592977
  0
LINE
  8
CSLAYER1
  6
CONTINUOUS
 62
     5
 10
2751.461504
 20
102.592977
 11
2752.083698
 21
102.765808
  0
LINE
  8
CSLAYER1
  6
CONTINUOUS
 62
     5
 10
2752.083698
 20
102.765808
 11
2752.498494
 21
102.592977
  0
LINE
  8
CSLAYER1
  6
CONTINUOUS
 62
     5
 10
2752.498494
 20
102.592977
 11
2753.397219
 21
102.143614
  0
LINE
  8
CSLAYER1
  6
CONTINUOUS
 62
     5
 10
2753.397219
 20
102.143614
 11
2754.173270
 21
101.732640
  0
LINE
  8
CSLAYER1
  6
CONTINUOUS
 62
     5
 10
2754.173270
 20
101.732640
 11
2754.676173
 21
101.763385
  0
LINE
  8
CSLAYER1
  6
CONTINUOUS
 62
     5
 10
2754.676173
 20
101.763385
 11
2757.484045
 21
103.209864
  0
LINE
  8
CSLAYER1
  6
CONTINUOUS
 62
     5
 10
2747.936412
 20
110.825284
 11
2748.269264
 21
112.298991
  0
LINE
  8
CSLAYER1
  6
CONTINUOUS
 62
     5
 10
2748.269264
 20
112.298991
 11
2749.722669
 21
112.449344
  0
LINE
  8
CSLAYER1
  6
CONTINUOUS
 62
     5
 10
2751.216428
 20
115.217802
 11
2752.970601
 21
115.374892
  0
LINE
  8
CSLAYER1
  6
CONTINUOUS
 62
     5
 10
2752.970601
 20
115.374892
 11
2756.505128
 21
116.212706
  0
LINE
  8
CSLAYER1
  6
CONTINUOUS
 62
     5
 10
2756.505128
 20
116.212706
 11
2757.936412
 21
116.544345
  0
LINE
  8
CSLAYER1
  6
CONTINUOUS
 62
     5
 10
2751.216428
 20
115.217802
 11
2749.283537
 21
115.376670
  0
LINE
  8
CSLAYER1
  6
CONTINUOUS
 62
     5
 10
2748.547414
 20
114.507983
 11
2748.640939
 21
114.136822
  0
LINE
  8
CSLAYER1
  6
CONTINUOUS
 62
     5
 10
2748.640939
 20
114.136822
 11
2749.132533
 21
113.599141
  0
LINE
  8
CSLAYER1
  6
CONTINUOUS
 62
     5
 10
2749.132533
 20
113.599141
 11
2749.808475
 21
113.092184
  0
LINE
  8
CSLAYER1
  6
CONTINUOUS
 62
     5
 10
2749.808475
 20
113.092184
 11
2749.931800
 21
112.927751
  0
LINE
  8
CSLAYER1
  6
CONTINUOUS
 62
     5
 10
2748.513370
 20
108.287607
 11
2750.052583
 21
106.178315
  0
ARC
  8
CSLAYER1
  6
CONTINUOUS
 62
     5
 10
2792.923113
 20
-61.926013
 40
180.727463
 50
80.438896
 51
96.353582
  0
ARC
  8
CSLAYER1
  6
CONTINUOUS
 62
     5
 10
2768.024200
 20
83.321887
 40
34.720242
 50
81.866516
 51
106.890578
  0
LINE
  8
CSLAYER1
  6
CONTINUOUS
 62
     5
 10
2827.130674
 20
115.499310
 11
2829.377756
 21
114.477909
  0
LINE
  8
CSLAYER1
  6
CONTINUOUS
 62
     5
 10
2832.952661
 20
112.894737
 11
2829.377756
 21
114.477909
  0
LINE
  8
CSLAYER1
  6
CONTINUOUS
 62
     5
 10
2827.130674
 20
115.499310
 11
2822.936412
 21
116.291881
  0
LINE
  8
CSLAYER1
  6
CONTINUOUS
 62
     5
 10
2832.936412
 20
112.901933
 11
2834.807988
 21
111.333456
  0
LINE
  8
CSLAYER1
  6
CONTINUOUS
 62
     5
 10
2816.179668
 20
113.938783
 11
2817.078943
 21
115.391458
  0
LINE
  8
CSLAYER1
  6
CONTINUOUS
 62
     5
 10
2817.078943
 20
115.391458
 11
2821.754542
 21
114.271949
  0
LINE
  8
CSLAYER1
  6
CONTINUOUS
 62
     5
 10
2821.754542
 20
114.271949
 11
2838.496928
 21
109.732640
  0
LINE
  8
CSLAYER1
  6
CONTINUOUS
 62
     5
 10
2841.436412
 20
109.732640
 11
2834.807988
 21
111.333456
  0
LINE
  8
CSLAYER1
  6
CONTINUOUS
 62
     5
 10
2838.496928
 20
109.732640
 11
2841.436412
 21
109.732640
  0
LINE
  8
CSLAYER1
  6
CONTINUOUS
 62
     5
 10
2782.936412
 20
114.197581
 11
2802.936412
 21
114.732640
  0
LINE
  8
CSLAYER1
  6
CONTINUOUS
 62
     5
 10
2802.936412
 20
114.732640
 11
2816.179668
 21
113.938783
  0
LINE
  8
CSLAYER1
  6
CONTINUOUS
 62
     5
 10
2817.782649
 20
111.878304
 11
2802.936412
 21
113.232640
  0
LINE
  8
CSLAYER1
  6
CONTINUOUS
 62
     5
 10
2802.936412
 20
113.232640
 11
2787.887203
 21
113.641292
  0
LINE
  8
CSLAYER1
  6
CONTINUOUS
 62
     5
 10
2787.936412
 20
113.639956
 11
2782.936412
 21
113.735249
  0
LINE
  8
CSLAYER1
  6
CONTINUOUS
 62
     5
 10
2782.936412
 20
114.197581
 11
2782.936412
 21
113.735249
  0
LINE
  8
CSLAYER1
  6
CONTINUOUS
 62
     5
 10
2840.436412
 20
106.232640
 11
2831.593854
 21
108.543302
  0
LINE
  8
CSLAYER1
  6
CONTINUOUS
 62
     5
 10
2817.782649
 20
111.878304
 11
2827.936412
 21
109.905920
  0
LINE
  8
CSLAYER1
  6
CONTINUOUS
 62
     5
 10
2827.936412
 20
109.905920
 11
2831.593854
 21
108.543302
  0
LINE
  8
CSLAYER1
  6
CONTINUOUS
 62
     5
 10
2840.436412
 20
106.232640
 11
2840.143795
 21
105.393534
  0
LINE
  8
CSLAYER1
  6
CONTINUOUS
 62
     5
 10
2849.936412
 20
100.732640
 11
2849.630385
 21
101.961621
  0
LINE
  8
CSLAYER1
  6
CONTINUOUS
 62
     5
 10
2840.143795
 20
105.393534
 11
2849.630385
 21
101.961621
  0
LINE
  8
CSLAYER1
  6
CONTINUOUS
 62
     5
 10
2786.436412
 20
106.232640
 11
2788.859450
 21
106.232640
  0
LINE
  8
CSLAYER1
  6
CONTINUOUS
 62
     5
 10
2808.936412
 20
106.665135
 11
2808.936412
 21
106.232640
  0
LINE
  8
CSLAYER1
  6
CONTINUOUS
 62
     5
 10
2807.936412
 20
107.199576
 11
2806.225133
 21
107.836755
  0
LINE
  8
CSLAYER1
  6
CONTINUOUS
 62
     5
 10
2806.225133
 20
107.836755
 11
2805.115077
 21
107.887212
  0
LINE
  8
CSLAYER1
  6
CONTINUOUS
 62
     5
 10
2805.115077
 20
107.887212
 11
2804.635735
 21
107.634926
  0
LINE
  8
CSLAYER1
  6
CONTINUOUS
 62
     5
 10
2804.635735
 20
107.634926
 11
2804.534821
 21
107.231270
  0
LINE
  8
CSLAYER1
  6
CONTINUOUS
 62
     5
 10
2804.534821
 20
107.231270
 11
2804.988934
 21
106.928527
  0
LINE
  8
CSLAYER1
  6
CONTINUOUS
 62
     5
 10
2804.988934
 20
106.928527
 11
2806.628790
 21
106.777156
  0
LINE
  8
CSLAYER1
  6
CONTINUOUS
 62
     5
 10
2806.628790
 20
106.777156
 11
2808.936412
 21
106.665135
  0
LINE
  8
CSLAYER1
  6
CONTINUOUS
 62
     5
 10
2849.936412
 20
100.732640
 11
2846.960870
 21
101.919221
  0
LINE
  8
CSLAYER1
  6
CONTINUOUS
 62
     5
 10
2846.960870
 20
101.919221
 11
2836.905180
 21
103.762097
  0
LINE
  8
CSLAYER1
  6
CONTINUOUS
 62
     5
 10
2836.905180
 20
103.762097
 11
2831.879400
 21
104.921892
  0
LINE
  8
CSLAYER1
  6
CONTINUOUS
 62
     5
 10
2809.470633
 20
107.232640
 11
2821.236299
 21
107.232640
  0
LINE
  8
CSLAYER1
  6
CONTINUOUS
 62
     5
 10
2807.936412
 20
107.199576
 11
2808.461072
 21
106.891109
  0
LINE
  8
CSLAYER1
  6
CONTINUOUS
 62
     5
 10
2808.461072
 20
106.891109
 11
2808.757884
 21
106.802065
  0
LINE
  8
CSLAYER1
  6
CONTINUOUS
 62
     5
 10
2808.757884
 20
106.802065
 11
2808.936412
 21
106.827236
  0
LINE
  8
CSLAYER1
  6
CONTINUOUS
 62
     5
 10
2808.936412
 20
106.827236
 11
2809.470633
 21
107.232640
  0
LINE
  8
CSLAYER1
  6
CONTINUOUS
 62
     5
 10
2821.236299
 20
107.232640
 11
2825.686568
 21
106.203814
  0
LINE
  8
CSLAYER1
  6
CONTINUOUS
 62
     5
 10
2825.686568
 20
106.203814
 11
2829.839760
 21
105.038665
  0
LINE
  8
CSLAYER1
  6
CONTINUOUS
 62
     5
 10
2829.839760
 20
105.038665
 11
2831.879400
 21
104.921892
  0
LINE
  8
CSLAYER1
  6
CONTINUOUS
 62
     5
 10
2785.436412
 20
105.232640
 11
2785.436412
 21
104.732640
  0
LINE
  8
CSLAYER1
  6
CONTINUOUS
 62
     5
 10
2782.936412
 20
104.732640
 11
2785.436412
 21
104.732640
  0
ARC
  8
CSLAYER1
  6
CONTINUOUS
 62
     5
 10
2786.436412
 20
105.232640
 40
1.000000
 50
90.000000
 51
180.000000
  0
LINE
  8
CSLAYER1
  6
CONTINUOUS
 62
     5
 10
2788.859450
 20
106.232640
 11
2789.557007
 21
105.660643
  0
LINE
  8
CSLAYER1
  6
CONTINUOUS
 62
     5
 10
2790.159375
 20
105.636683
 11
2791.016972
 21
106.232640
  0
LINE
  8
CSLAYER1
  6
CONTINUOUS
 62
     5
 10
2792.595368
 20
106.232640
 11
2794.262494
 21
105.574564
  0
LINE
  8
CSLAYER1
  6
CONTINUOUS
 62
     5
 10
2794.686203
 20
105.601076
 11
2795.839690
 21
106.232640
  0
LINE
  8
CSLAYER1
  6
CONTINUOUS
 62
     5
 10
2791.016972
 20
106.232640
 11
2792.595368
 21
106.232640
  0
LINE
  8
CSLAYER1
  6
CONTINUOUS
 62
     5
 10
2795.839690
 20
106.232640
 11
2808.936412
 21
106.232640
  0
LINE
  8
CSLAYER1
  6
CONTINUOUS
 62
     5
 10
2761.485395
 20
103.123813
 11
2782.936412
 21
104.732640
  0
LINE
  8
CSLAYER1
  6
CONTINUOUS
 62
     5
 10
2757.484045
 20
103.209864
 11
2761.485395
 21
103.123813
  0
ARC
  8
CSLAYER1
  6
CONTINUOUS
 62
     5
 10
2789.874047
 20
106.047277
 40
0.500000
 50
230.648247
 51
304.796026
  0
ARC
  8
CSLAYER1
  6
CONTINUOUS
 62
     5
 10
2794.446077
 20
106.039642
 40
0.500000
 50
248.459024
 51
298.701829
  0
ARC
  8
CSLAYER1
  6
CONTINUOUS
 62
     5
 10
2749.691800
 20
112.747751
 40
0.300000
 50
-84.093859
 51
36.869898
  0
ARC
  8
CSLAYER1
  6
CONTINUOUS
 62
     5
 10
2749.226196
 20
114.679023
 40
0.700000
 50
85.301319
 51
194.142980
  0
LINE
  8
CSLAYER1
  6
CONTINUOUS
 62
     3
 10
2781.418237
 20
97.465795
 11
2789.528732
 21
97.465795
  0
LINE
  8
CSLAYER1
  6
CONTINUOUS
 62
     3
 10
2775.005720
 20
95.865795
 11
2792.649061
 21
95.865795
  0
LINE
  8
CSLAYER1
  6
CONTINUOUS
 62
     3
 10
2771.592781
 20
94.265795
 11
2795.524426
 21
94.265795
  0
LINE
  8
CSLAYER1
  6
CONTINUOUS
 62
     3
 10
2769.357462
 20
92.665795
 11
2797.367899
 21
92.665795
  0
LINE
  8
CSLAYER1
  6
CONTINUOUS
 62
     3
 10
2767.861806
 20
91.065795
 11
2798.602184
 21
91.065795
  0
LINE
  8
CSLAYER1
  6
CONTINUOUS
 62
     3
 10
2766.641492
 20
89.465795
 11
2799.651561
 21
89.465795
  0
LINE
  8
CSLAYER1
  6
CONTINUOUS
 62
     3
 10
2765.949600
 20
87.865795
 11
2800.377436
 21
87.865795
  0
LINE
  8
CSLAYER1
  6
CONTINUOUS
 62
     3
 10
2765.257708
 20
86.265795
 11
2800.715822
 21
86.265795
  0
LINE
  8
CSLAYER1
  6
CONTINUOUS
 62
     3
 10
2764.609358
 20
84.665795
 11
2801.054208
 21
84.665795
  0
LINE
  8
CSLAYER1
  6
CONTINUOUS
 62
     3
 10
2764.287699
 20
83.065795
 11
2801.392594
 21
83.065795
  0
LINE
  8
CSLAYER1
  6
CONTINUOUS
 62
     3
 10
2763.966040
 20
81.465795
 11
2779.556283
 21
81.465795
  0
LINE
  8
CSLAYER1
  6
CONTINUOUS
 62
     3
 10
2763.644381
 20
79.865795
 11
2778.024022
 21
79.865795
  0
LINE
  8
CSLAYER1
  6
CONTINUOUS
 62
     3
 10
2763.322722
 20
78.265795
 11
2777.235852
 21
78.265795
  0
LINE
  8
CSLAYER1
  6
CONTINUOUS
 62
     3
 10
2763.081604
 20
76.665795
 11
2776.917085
 21
76.665795
  0
LINE
  8
CSLAYER1
  6
CONTINUOUS
 62
     3
 10
2762.961434
 20
75.065795
 11
2776.967106
 21
75.065795
  0
LINE
  8
CSLAYER1
  6
CONTINUOUS
 62
     3
 10
2762.936412
 20
73.465795
 11
2777.513193
 21
73.465795
  0
LINE
  8
CSLAYER1
  6
CONTINUOUS
 62
     3
 10
2763.435600
 20
71.865795
 11
2779.543195
 21
71.865795
  0
LINE
  8
CSLAYER1
  6
CONTINUOUS
 62
     3
 10
2764.146711
 20
70.265795
 11
2796.674567
 21
70.265795
  0
LINE
  8
CSLAYER1
  6
CONTINUOUS
 62
     3
 10
2764.857823
 20
68.665795
 11
2796.223285
 21
68.665795
  0
LINE
  8
CSLAYER1
  6
CONTINUOUS
 62
     3
 10
2765.568934
 20
67.065795
 11
2795.500261
 21
67.065795
  0
LINE
  8
CSLAYER1
  6
CONTINUOUS
 62
     3
 10
2766.530893
 20
65.465795
 11
2794.602074
 21
65.465795
  0
LINE
  8
CSLAYER1
  6
CONTINUOUS
 62
     3
 10
2767.779354
 20
63.865795
 11
2793.097148
 21
63.865795
  0
LINE
  8
CSLAYER1
  6
CONTINUOUS
 62
     3
 10
2769.384774
 20
62.265795
 11
2790.704687
 21
62.265795
  0
LINE
  8
CSLAYER1
  6
CONTINUOUS
 62
     3
 10
2771.531916
 20
60.665795
 11
2787.579564
 21
60.665795
  0
LINE
  8
CSLAYER1
  6
CONTINUOUS
 62
     3
 10
2774.779606
 20
59.065795
 11
2782.941415
 21
59.065795
  0
LINE
  8
CSLAYER1
  6
CONTINUOUS
 62
     3
 10
2784.748107
 20
81.465795
 11
2801.567844
 21
81.465795
  0
LINE
  8
CSLAYER1
  6
CONTINUOUS
 62
     3
 10
2785.418851
 20
79.865795
 11
2801.442074
 21
79.865795
  0
LINE
  8
CSLAYER1
  6
CONTINUOUS
 62
     3
 10
2785.530858
 20
78.265795
 11
2801.316305
 21
78.265795
  0
LINE
  8
CSLAYER1
  6
CONTINUOUS
 62
     3
 10
2785.285501
 20
76.665795
 11
2800.602449
 21
76.665795
  0
LINE
  8
CSLAYER1
  6
CONTINUOUS
 62
     3
 10
2784.633855
 20
75.065795
 11
2799.881249
 21
75.065795
  0
LINE
  8
CSLAYER1
  6
CONTINUOUS
 62
     3
 10
2783.500592
 20
73.465795
 11
2798.947301
 21
73.465795
  0
LINE
  8
CSLAYER1
  6
CONTINUOUS
 62
     3
 10
2781.244595
 20
71.865795
 11
2797.676594
 21
71.865795
  0
TEXT
  8
CSLAYER1
 62
     5
 10
2802.108183
 20
79.476970
 40
4.713448
 41
1.951056
  1
M
 50
0.000000
 51
0.000000
  7
EASYDRAW_FONT
 72
     5
 11
2808.238985
 21
79.476970
  0
TEXT
  8
CSLAYER1
 62
     5
 10
2811.759570
 20
79.418700
 40
4.626621
 41
0.778201
  1
T
 50
0.000000
 51
0.000000
  7
EASYDRAW_FONT
 72
     5
 11
2814.159863
 21
79.418700
  0
TEXT
  8
CSLAYER1
 62
     5
 10
2814.525133
 20
79.453499
 40
4.696183
 41
1.055553
  1
E
 50
0.000000
 51
0.000000
  7
EASYDRAW_FONT
 72
     5
 11
2817.829848
 21
79.453499
  0
TEXT
  8
CSLAYER1
 62
     5
 10
2817.641314
 20
81.069343
 40
0.348283
 41
9.375319
  1
-
 50
0.000000
 51
0.000000
  7
EASYDRAW_FONT
 72
     5
 11
2819.818159
 21
81.069343
  0
TEXT
  8
CSLAYER1
 62
     5
 10
2819.455523
 20
79.422152
 40
4.861659
 41
1.298502
  1
H
 50
0.000000
 51
0.000000
  7
EASYDRAW_FONT
 72
     5
 11
2823.664106
 21
79.422152
  0
TEXT
  8
CSLAYER1
 62
     5
 10
2823.531538
 20
79.452530
 40
4.843139
 41
1.269236
  1
A
 50
0.000000
 51
0.000000
  7
EASYDRAW_FONT
 72
     5
 11
2827.629595
 21
79.452530
  0
TEXT
  8
CSLAYER1
 62
     5
 10
2827.237694
 20
79.411004
 40
4.825362
 41
1.490144
  1
N
 50
0.000000
 51
0.000000
  7
EASYDRAW_FONT
 72
     5
 11
2832.031349
 21
79.411004
  0
TEXT
  8
CSLAYER1
 62
     5
 10
2808.029152
 20
79.388431
 40
4.982325
 41
1.177443
  1
A
 50
0.000000
 51
0.000000
  7
EASYDRAW_FONT
 72
     5
 11
2811.940086
 21
79.388431
  0
TEXT
  8
CSLAYER1
 62
     5
 10
2802.475197
 20
72.393191
 40
4.982325
 41
1.177443
  1
A
 50
0.000000
 51
0.000000
  7
EASYDRAW_FONT
 72
     5
 11
2806.386131
 21
72.393191
  0
TEXT
  8
CSLAYER1
 62
     5
 10
2815.259621
 20
72.421512
 40
4.982325
 41
1.177443
  1
A
 50
0.000000
 51
0.000000
  7
EASYDRAW_FONT
 72
     5
 11
2819.170555
 21
72.421512
  0
TEXT
  8
CSLAYER1
 62
     5
 10
2819.020165
 20
72.478509
 40
4.825362
 41
1.490144
  1
N
 50
0.000000
 51
0.000000
  7
EASYDRAW_FONT
 72
     5
 11
2823.813819
 21
72.478509
  0
TEXT
  8
CSLAYER1
 62
     5
 10
2827.922501
 20
72.486903
 40
4.841775
 41
1.184218
  1
E
 50
0.000000
 51
0.000000
  7
EASYDRAW_FONT
 72
     5
 11
2831.744980
 21
72.486903
  0
TEXT
  8
CSLAYER1
 62
     5
 10
2806.755750
 20
72.391867
 40
4.947865
 41
1.093992
  1
D
 50
0.000000
 51
0.000000
  7
EASYDRAW_FONT
 72
     5
 11
2810.364367
 21
72.391867
  0
TEXT
  8
CSLAYER1
 62
     5
 10
2811.158109
 20
72.386482
 40
4.924210
 41
1.228195
  1
V
 50
0.000000
 51
0.000000
  7
EASYDRAW_FONT
 72
     5
 11
2815.190036
 21
72.386482
  0
TEXT
  8
CSLAYER1
 62
     5
 10
2823.383310
 20
72.407213
 40
5.032894
 41
1.481023
  1
C
 50
0.000000
 51
0.000000
  7
EASYDRAW_FONT
 72
     5
 11
2828.352530
 21
72.407213
  0
LINE
  8
CSLAYER1
  6
CONTINUOUS
 62
     5
 10
2814.013749
 20
83.467612
 11
2813.001687
 21
83.467612
  0
LINE
  8
CSLAYER1
  6
CONTINUOUS
 62
     3
 10
2763.111987
 20
117.692883
 11
2812.909813
 21
117.692883
  0
LINE
  8
CSLAYER1
  6
CONTINUOUS
 62
     3
 10
2755.999623
 20
116.092883
 11
2823.989505
 21
116.092883
  0
LINE
  8
CSLAYER1
  6
CONTINUOUS
 62
     3
 10
2748.551219
 20
114.492883
 11
2793.974529
 21
114.492883
  0
LINE
  8
CSLAYER1
  6
CONTINUOUS
 62
     3
 10
2806.936079
 20
114.492883
 11
2816.522682
 21
114.492883
  0
LINE
  8
CSLAYER1
  6
CONTINUOUS
 62
     3
 10
2820.831816
 20
114.492883
 11
2829.344813
 21
114.492883
  0
LINE
  8
CSLAYER1
  6
CONTINUOUS
 62
     3
 10
2749.954358
 20
112.892883
 11
2806.660827
 21
112.892883
  0
LINE
  8
CSLAYER1
  6
CONTINUOUS
 62
     3
 10
2826.840965
 20
112.892883
 11
2832.947211
 21
112.892883
  0
LINE
  8
CSLAYER1
  6
CONTINUOUS
 62
     3
 10
2748.042024
 20
111.292883
 11
2820.796375
 21
111.292883
  0
LINE
  8
CSLAYER1
  6
CONTINUOUS
 62
     3
 10
2832.742264
 20
111.292883
 11
2834.975986
 21
111.292883
  0
LINE
  8
CSLAYER1
  6
CONTINUOUS
 62
     3
 10
2746.979799
 20
109.692883
 11
2828.508231
 21
109.692883
  0
LINE
  8
CSLAYER1
  6
CONTINUOUS
 62
     3
 10
2748.655466
 20
108.092883
 11
2833.317540
 21
108.092883
  0
LINE
  8
CSLAYER1
  6
CONTINUOUS
 62
     3
 10
2749.823033
 20
106.492883
 11
2808.936412
 21
106.492883
  0
LINE
  8
CSLAYER1
  6
CONTINUOUS
 62
     3
 10
2824.436177
 20
106.492883
 11
2839.440500
 21
106.492883
  0
LINE
  8
CSLAYER1
  6
CONTINUOUS
 62
     3
 10
2750.068157
 20
104.892883
 11
2785.436412
 21
104.892883
  0
LINE
  8
CSLAYER1
  6
CONTINUOUS
 62
     3
 10
2832.005106
 20
104.892883
 11
2841.527709
 21
104.892883
  0
LINE
  8
CSLAYER1
  6
CONTINUOUS
 62
     3
 10
2750.274482
 20
103.292883
 11
2763.739655
 21
103.292883
  0
LINE
  8
CSLAYER1
  6
CONTINUOUS
 62
     3
 10
2839.465455
 20
103.292883
 11
2845.950473
 21
103.292883
  0
LINE
  8
CSLAYER1
  6
CONTINUOUS
 62
     3
 10
2847.528449
 20
101.692883
 11
2849.697303
 21
101.692883
  0
ENDBLK
  8
0
  0
BLOCK
  8
CSLAYER1
  2
BLKF0001
 70
   64
 10
0.0
 20
0.0
 30
0.0
  0
LINE
  8
CSLAYER1
  6
CONTINUOUS
 62
     7
 10
516.379393
 20
745.669946
 11
580.993319
 21
745.669946
  0
LINE
  8
CSLAYER1
  6
CONTINUOUS
 62
     7
 10
571.379393
 20
670.597091
 11
582.379393
 21
670.597091
  0
LINE
  8
CSLAYER1
  6
CONTINUOUS
 62
     7
 10
570.379393
 20
702.579592
 11
570.379393
 21
663.769137
  0
LINE
  8
CSLAYER1
  6
CONTINUOUS
 62
     7
 10
576.379393
 20
648.166328
 11
576.379393
 21
547.842198
  0
LINE
  8
CSLAYER1
  6
CONTINUOUS
 62
     7
 10
578.379393
 20
538.626261
 11
578.379393
 21
486.654696
  0
LINE
  8
CSLAYER1
  6
CONTINUOUS
 62
     7
 10
516.379393
 20
730.237217
 11
521.085803
 21
730.113552
  0
LINE
  8
CSLAYER1
  6
CONTINUOUS
 62
     7
 10
521.085803
 20
730.113552
 11
525.756394
 21
729.743499
  0
LINE
  8
CSLAYER1
  6
CONTINUOUS
 62
     7
 10
525.756394
 20
729.743499
 11
530.355621
 21
729.129874
  0
LINE
  8
CSLAYER1
  6
CONTINUOUS
 62
     7
 10
530.355621
 20
729.129874
 11
534.848480
 21
728.277347
  0
LINE
  8
CSLAYER1
  6
CONTINUOUS
 62
     7
 10
534.848480
 20
728.277347
 11
539.200779
 21
727.192406
  0
LINE
  8
CSLAYER1
  6
CONTINUOUS
 62
     7
 10
539.200779
 20
727.192406
 11
543.379393
 21
725.883309
  0
LINE
  8
CSLAYER1
  6
CONTINUOUS
 62
     7
 10
543.379393
 20
725.883309
 11
547.352520
 21
724.360018
  0
LINE
  8
CSLAYER1
  6
CONTINUOUS
 62
     7
 10
547.352520
 20
724.360018
 11
551.089923
 21
722.634126
  0
LINE
  8
CSLAYER1
  6
CONTINUOUS
 62
     7
 10
551.089923
 20
722.634126
 11
554.563159
 21
720.718770
  0
LINE
  8
CSLAYER1
  6
CONTINUOUS
 62
     7
 10
554.563159
 20
720.718770
 11
557.745793
 21
718.628525
  0
LINE
  8
CSLAYER1
  6
CONTINUOUS
 62
     7
 10
557.745793
 20
718.628525
 11
560.613603
 21
716.379299
  0
LINE
  8
CSLAYER1
  6
CONTINUOUS
 62
     7
 10
560.613603
 20
716.379299
 11
563.144764
 21
713.988211
  0
LINE
  8
CSLAYER1
  6
CONTINUOUS
 62
     7
 10
563.144764
 20
713.988211
 11
565.320013
 21
711.473459
  0
LINE
  8
CSLAYER1
  6
CONTINUOUS
 62
     7
 10
565.320013
 20
711.473459
 11
567.122794
 21
708.854180
  0
LINE
  8
CSLAYER1
  6
CONTINUOUS
 62
     7
 10
567.122794
 20
708.854180
 11
568.539387
 21
706.150310
  0
LINE
  8
CSLAYER1
  6
CONTINUOUS
 62
     7
 10
568.539387
 20
706.150310
 11
569.559011
 21
703.382426
  0
LINE
  8
CSLAYER1
  6
CONTINUOUS
 62
     7
 10
569.559011
 20
703.382426
 11
570.173906
 21
700.571594
  0
LINE
  8
CSLAYER1
  6
CONTINUOUS
 62
     7
 10
570.173906
 20
700.571594
 11
570.379393
 21
697.739206
  0
LINE
  8
CSLAYER1
  6
CONTINUOUS
 62
     7
 10
570.379393
 20
697.739206
 11
570.173906
 21
694.906817
  0
LINE
  8
CSLAYER1
  6
CONTINUOUS
 62
     7
 10
516.379393
 20
684.275230
 11
521.608737
 21
684.137824
  0
LINE
  8
CSLAYER1
  6
CONTINUOUS
 62
     7
 10
521.608737
 20
684.137824
 11
526.798283
 21
683.726654
  0
LINE
  8
CSLAYER1
  6
CONTINUOUS
 62
     7
 10
526.798283
 20
683.726654
 11
531.908535
 21
683.044849
  0
LINE
  8
CSLAYER1
  6
CONTINUOUS
 62
     7
 10
531.908535
 20
683.044849
 11
536.900601
 21
682.097596
  0
LINE
  8
CSLAYER1
  6
CONTINUOUS
 62
     7
 10
536.900601
 20
682.097596
 11
541.736488
 21
680.892107
  0
LINE
  8
CSLAYER1
  6
CONTINUOUS
 62
     7
 10
541.736488
 20
680.892107
 11
546.379393
 21
679.437554
  0
LINE
  8
CSLAYER1
  6
CONTINUOUS
 62
     7
 10
546.379393
 20
679.437554
 11
550.793979
 21
677.745009
  0
LINE
  8
CSLAYER1
  6
CONTINUOUS
 62
     7
 10
550.793979
 20
677.745009
 11
554.946649
 21
675.827352
  0
LINE
  8
CSLAYER1
  6
CONTINUOUS
 62
     7
 10
554.946649
 20
675.827352
 11
558.805799
 21
673.699177
  0
LINE
  8
CSLAYER1
  6
CONTINUOUS
 62
     7
 10
558.805799
 20
673.699177
 11
562.342059
 21
671.376683
  0
LINE
  8
CSLAYER1
  6
CONTINUOUS
 62
     7
 10
562.342059
 20
671.376683
 11
565.528515
 21
668.877543
  0
LINE
  8
CSLAYER1
  6
CONTINUOUS
 62
     7
 10
565.528515
 20
668.877543
 11
568.340917
 21
666.220779
  0
LINE
  8
CSLAYER1
  6
CONTINUOUS
 62
     7
 10
568.340917
 20
666.220779
 11
570.757860
 21
663.426609
  0
LINE
  8
CSLAYER1
  6
CONTINUOUS
 62
     7
 10
570.757860
 20
663.426609
 11
572.760950
 21
660.516300
  0
LINE
  8
CSLAYER1
  6
CONTINUOUS
 62
     7
 10
572.760950
 20
660.516300
 11
574.334942
 21
657.512000
  0
LINE
  8
CSLAYER1
  6
CONTINUOUS
 62
     7
 10
574.334942
 20
657.512000
 11
575.467858
 21
654.436573
  0
LINE
  8
CSLAYER1
  6
CONTINUOUS
 62
     7
 10
575.467858
 20
654.436573
 11
576.151074
 21
651.313426
  0
LINE
  8
CSLAYER1
  6
CONTINUOUS
 62
     7
 10
576.151074
 20
651.313426
 11
576.379393
 21
648.166328
  0
LINE
  8
CSLAYER1
  6
CONTINUOUS
 62
     7
 10
576.379393
 20
648.166328
 11
576.151074
 21
645.019230
  0
LINE
  8
CSLAYER1
  6
CONTINUOUS
 62
     7
 10
516.379393
 20
575.938792
 11
521.783049
 21
575.796807
  0
LINE
  8
CSLAYER1
  6
CONTINUOUS
 62
     7
 10
521.783049
 20
575.796807
 11
527.145580
 21
575.371931
  0
LINE
  8
CSLAYER1
  6
CONTINUOUS
 62
     7
 10
527.145580
 20
575.371931
 11
532.426173
 21
574.667399
  0
LINE
  8
CSLAYER1
  6
CONTINUOUS
 62
     7
 10
532.426173
 20
574.667399
 11
537.584641
 21
573.688571
  0
LINE
  8
CSLAYER1
  6
CONTINUOUS
 62
     7
 10
537.584641
 20
573.688571
 11
542.581725
 21
572.442899
  0
LINE
  8
CSLAYER1
  6
CONTINUOUS
 62
     7
 10
542.581725
 20
572.442899
 11
547.379393
 21
570.939861
  0
LINE
  8
CSLAYER1
  6
CONTINUOUS
 62
     7
 10
547.379393
 20
570.939861
 11
551.941132
 21
569.190897
  0
LINE
  8
CSLAYER1
  6
CONTINUOUS
 62
     7
 10
551.941132
 20
569.190897
 11
556.232224
 21
567.209318
  0
LINE
  8
CSLAYER1
  6
CONTINUOUS
 62
     7
 10
556.232224
 20
567.209318
 11
560.220013
 21
565.010205
  0
LINE
  8
CSLAYER1
  6
CONTINUOUS
 62
     7
 10
560.220013
 20
565.010205
 11
563.874148
 21
562.610294
  0
LINE
  8
CSLAYER1
  6
CONTINUOUS
 62
     7
 10
563.874148
 20
562.610294
 11
567.166819
 21
560.027850
  0
LINE
  8
CSLAYER1
  6
CONTINUOUS
 62
     7
 10
567.166819
 20
560.027850
 11
570.072968
 21
557.282526
  0
LINE
  8
CSLAYER1
  6
CONTINUOUS
 62
     7
 10
570.072968
 20
557.282526
 11
572.570475
 21
554.395218
  0
LINE
  8
CSLAYER1
  6
CONTINUOUS
 62
     7
 10
572.570475
 20
554.395218
 11
574.640335
 21
551.387898
  0
LINE
  8
CSLAYER1
  6
CONTINUOUS
 62
     7
 10
574.640335
 20
551.387898
 11
576.266794
 21
548.283455
  0
LINE
  8
CSLAYER1
  6
CONTINUOUS
 62
     7
 10
576.266794
 20
548.283455
 11
577.437473
 21
545.105514
  0
LINE
  8
CSLAYER1
  6
CONTINUOUS
 62
     7
 10
577.437473
 20
545.105514
 11
578.143464
 21
541.878262
  0
LINE
  8
CSLAYER1
  6
CONTINUOUS
 62
     7
 10
578.143464
 20
541.878262
 11
578.379393
 21
538.626261
  0
LINE
  8
CSLAYER1
  6
CONTINUOUS
 62
     7
 10
516.379393
 20
523.967227
 11
521.783049
 21
523.825242
  0
LINE
  8
CSLAYER1
  6
CONTINUOUS
 62
     7
 10
521.783049
 20
523.825242
 11
527.145580
 21
523.400366
  0
LINE
  8
CSLAYER1
  6
CONTINUOUS
 62
     7
 10
527.145580
 20
523.400366
 11
532.426173
 21
522.695834
  0
LINE
  8
CSLAYER1
  6
CONTINUOUS
 62
     7
 10
532.426173
 20
522.695834
 11
537.584641
 21
521.717006
  0
LINE
  8
CSLAYER1
  6
CONTINUOUS
 62
     7
 10
537.584641
 20
521.717006
 11
542.581725
 21
520.471334
  0
LINE
  8
CSLAYER1
  6
CONTINUOUS
 62
     7
 10
542.581725
 20
520.471334
 11
547.379393
 21
518.968296
  0
LINE
  8
CSLAYER1
  6
CONTINUOUS
 62
     7
 10
547.379393
 20
518.968296
 11
551.941132
 21
517.219332
  0
LINE
  8
CSLAYER1
  6
CONTINUOUS
 62
     7
 10
551.941132
 20
517.219332
 11
556.232224
 21
515.237753
  0
LINE
  8
CSLAYER1
  6
CONTINUOUS
 62
     7
 10
556.232224
 20
515.237753
 11
560.220013
 21
513.038640
  0
LINE
  8
CSLAYER1
  6
CONTINUOUS
 62
     7
 10
560.220013
 20
513.038640
 11
563.874148
 21
510.638729
  0
LINE
  8
CSLAYER1
  6
CONTINUOUS
 62
     7
 10
563.874148
 20
510.638729
 11
567.166819
 21
508.056285
  0
LINE
  8
CSLAYER1
  6
CONTINUOUS
 62
     7
 10
567.166819
 20
508.056285
 11
570.072968
 21
505.310962
  0
LINE
  8
CSLAYER1
  6
CONTINUOUS
 62
     7
 10
570.072968
 20
505.310962
 11
572.570475
 21
502.423653
  0
LINE
  8
CSLAYER1
  6
CONTINUOUS
 62
     7
 10
572.570475
 20
502.423653
 11
574.640335
 21
499.416333
  0
LINE
  8
CSLAYER1
  6
CONTINUOUS
 62
     7
 10
574.640335
 20
499.416333
 11
576.266794
 21
496.311890
  0
LINE
  8
CSLAYER1
  6
CONTINUOUS
 62
     7
 10
576.266794
 20
496.311890
 11
577.437473
 21
493.133949
  0
LINE
  8
CSLAYER1
  6
CONTINUOUS
 62
     7
 10
577.437473
 20
493.133949
 11
578.143464
 21
489.906697
  0
LINE
  8
CSLAYER1
  6
CONTINUOUS
 62
     7
 10
578.143464
 20
489.906697
 11
578.379393
 21
486.654696
  0
LINE
  8
CSLAYER1
  6
CONTINUOUS
 62
     7
 10
578.379393
 20
486.654696
 11
578.143464
 21
483.402694
  0
LINE
  8
CSLAYER1
  6
CONTINUOUS
 62
     7
 10
578.143464
 20
483.402694
 11
577.437473
 21
480.175443
  0
LINE
  8
CSLAYER1
  6
CONTINUOUS
 62
     7
 10
577.437473
 20
480.175443
 11
576.266794
 21
476.997502
  0
LINE
  8
CSLAYER1
  6
CONTINUOUS
 62
     7
 10
576.266794
 20
476.997502
 11
574.640335
 21
473.893059
  0
LINE
  8
CSLAYER1
  6
CONTINUOUS
 62
     7
 10
574.640335
 20
473.893059
 11
572.570475
 21
470.885739
  0
LINE
  8
CSLAYER1
  6
CONTINUOUS
 62
     7
 10
572.570475
 20
470.885739
 11
570.072968
 21
467.998430
  0
LINE
  8
CSLAYER1
  6
CONTINUOUS
 62
     7
 10
570.072968
 20
467.998430
 11
567.166819
 21
465.253107
  0
LINE
  8
CSLAYER1
  6
CONTINUOUS
 62
     7
 10
567.166819
 20
465.253107
 11
563.874148
 21
462.670663
  0
LINE
  8
CSLAYER1
  6
CONTINUOUS
 62
     7
 10
563.874148
 20
462.670663
 11
560.220013
 21
460.270752
  0
LINE
  8
CSLAYER1
  6
CONTINUOUS
 62
     7
 10
560.220013
 20
460.270752
 11
556.232224
 21
458.071639
  0
LINE
  8
CSLAYER1
  6
CONTINUOUS
 62
     7
 10
556.232224
 20
458.071639
 11
551.941132
 21
456.090059
  0
LINE
  8
CSLAYER1
  6
CONTINUOUS
 62
     7
 10
551.941132
 20
456.090059
 11
547.379393
 21
454.341096
  0
LINE
  8
CSLAYER1
  6
CONTINUOUS
 62
     7
 10
547.379393
 20
454.341096
 11
542.581725
 21
452.838058
  0
LINE
  8
CSLAYER1
  6
CONTINUOUS
 62
     7
 10
542.581725
 20
452.838058
 11
537.584641
 21
451.592385
  0
LINE
  8
CSLAYER1
  6
CONTINUOUS
 62
     7
 10
537.584641
 20
451.592385
 11
532.426173
 21
450.613558
  0
LINE
  8
CSLAYER1
  6
CONTINUOUS
 62
     7
 10
532.426173
 20
450.613558
 11
527.145580
 21
449.909026
  0
LINE
  8
CSLAYER1
  6
CONTINUOUS
 62
     7
 10
527.145580
 20
449.909026
 11
521.783049
 21
449.484150
  0
LINE
  8
CSLAYER1
  6
CONTINUOUS
 62
     7
 10
521.783049
 20
449.484150
 11
516.379393
 21
449.342164
  0
LINE
  8
CSLAYER1
  6
CONTINUOUS
 62
     7
 10
571.379393
 20
735.849871
 11
571.379393
 21
662.523578
  0
LINE
  8
CSLAYER1
  6
CONTINUOUS
 62
     7
 10
516.379393
 20
740.849871
 11
566.379393
 21
740.849871
  0
LINE
  8
CSLAYER1
  6
CONTINUOUS
 62
     7
 10
516.379393
 20
732.517004
 11
566.379393
 21
732.517004
  0
ARC
  8
CSLAYER1
  6
CONTINUOUS
 62
     7
 10
566.379393
 20
735.849871
 40
5.000000
 50
0.000000
 51
90.000000
  0
ARC
  8
CSLAYER1
  6
CONTINUOUS
 62
     7
 10
566.379393
 20
727.517004
 40
5.000000
 50
0.000000
 51
90.000000
  0
LINE
  8
CSLAYER1
  6
CONTINUOUS
 62
     7
 10
582.249972
 20
604.313196
 11
597.808809
 21
604.313196
  0
LINE
  8
CSLAYER1
  6
CONTINUOUS
 62
     7
 10
589.879393
 20
595.627705
 11
589.879393
 21
613.451394
  0
LINE
  8
CSLAYER1
  6
CONTINUOUS
 62
     7
 10
580.344823
 20
534.313196
 11
598.379393
 21
534.313196
  0
LINE
  8
CSLAYER1
  6
CONTINUOUS
 62
     7
 10
580.344823
 20
615.813196
 11
598.379393
 21
615.813196
  0
LINE
  8
CSLAYER1
  6
CONTINUOUS
 62
     7
 10
601.379393
 20
612.813196
 11
601.379393
 21
519.411983
  0
LINE
  8
CSLAYER1
  6
CONTINUOUS
 62
     7
 10
580.344823
 20
516.411983
 11
580.344823
 21
615.813196
  0
LINE
  8
CSLAYER1
  6
CONTINUOUS
 62
     7
 10
576.379393
 20
549.822740
 11
580.344823
 21
549.822740
  0
CIRCLE
  8
CSLAYER1
  6
CONTINUOUS
 62
     7
 10
589.879393
 20
604.313196
 40
6.250000
  0
LINE
  8
CSLAYER1
  6
CONTINUOUS
 62
     7
 10
576.379393
 20
576.803651
 11
580.344823
 21
576.803651
  0
ARC
  8
CSLAYER1
  6
CONTINUOUS
 62
     7
 10
598.379393
 20
537.313196
 40
3.000000
 50
270.000000
 51
360.000000
  0
ARC
  8
CSLAYER1
  6
CONTINUOUS
 62
     7
 10
598.379393
 20
612.813196
 40
3.000000
 50
0.000000
 51
90.000000
  0
LINE
  8
CSLAYER1
  6
CONTINUOUS
 62
     7
 10
570.379393
 20
556.928276
 11
570.379393
 21
663.864146
  0
LINE
  8
CSLAYER1
  6
CONTINUOUS
 62
     7
 10
568.379393
 20
558.882380
 11
568.379393
 21
666.184432
  0
LINE
  8
CSLAYER1
  6
CONTINUOUS
 62
     7
 10
548.379393
 20
570.556462
 11
548.379393
 21
678.670757
  0
LINE
  8
CSLAYER1
  6
CONTINUOUS
 62
     7
 10
541.379393
 20
572.742616
 11
541.379393
 21
681.003980
  0
LINE
  8
CSLAYER1
  6
CONTINUOUS
 62
     7
 10
533.379393
 20
574.486524
 11
533.379393
 21
682.848608
  0
LINE
  8
CSLAYER1
  6
CONTINUOUS
 62
     7
 10
580.344823
 20
516.411983
 11
598.379393
 21
516.411983
  0
ARC
  8
CSLAYER1
  6
CONTINUOUS
 62
     7
 10
598.379393
 20
519.411983
 40
3.000000
 50
270.000000
 51
360.000000
  0
LINE
  8
CSLAYER1
  6
CONTINUOUS
 62
     7
 10
462.379393
 20
702.579592
 11
462.379393
 21
663.769137
  0
LINE
  8
CSLAYER1
  6
CONTINUOUS
 62
     7
 10
456.379393
 20
648.166328
 11
456.379393
 21
547.842198
  0
LINE
  8
CSLAYER1
  6
CONTINUOUS
 62
     7
 10
454.379393
 20
538.626261
 11
454.379393
 21
486.654696
  0
LINE
  8
CSLAYER1
  6
CONTINUOUS
 62
     7
 10
516.379393
 20
730.237217
 11
511.672982
 21
730.113552
  0
LINE
  8
CSLAYER1
  6
CONTINUOUS
 62
     7
 10
511.672982
 20
730.113552
 11
507.002391
 21
729.743499
  0
LINE
  8
CSLAYER1
  6
CONTINUOUS
 62
     7
 10
507.002391
 20
729.743499
 11
502.403164
 21
729.129874
  0
LINE
  8
CSLAYER1
  6
CONTINUOUS
 62
     7
 10
502.403164
 20
729.129874
 11
497.910305
 21
728.277347
  0
LINE
  8
CSLAYER1
  6
CONTINUOUS
 62
     7
 10
497.910305
 20
728.277347
 11
493.558006
 21
727.192406
  0
LINE
  8
CSLAYER1
  6
CONTINUOUS
 62
     7
 10
493.558006
 20
727.192406
 11
489.379393
 21
725.883309
  0
LINE
  8
CSLAYER1
  6
CONTINUOUS
 62
     7
 10
489.379393
 20
725.883309
 11
485.406265
 21
724.360018
  0
LINE
  8
CSLAYER1
  6
CONTINUOUS
 62
     7
 10
485.406265
 20
724.360018
 11
481.668862
 21
722.634126
  0
LINE
  8
CSLAYER1
  6
CONTINUOUS
 62
     7
 10
481.668862
 20
722.634126
 11
478.195626
 21
720.718770
  0
LINE
  8
CSLAYER1
  6
CONTINUOUS
 62
     7
 10
478.195626
 20
720.718770
 11
475.012993
 21
718.628525
  0
LINE
  8
CSLAYER1
  6
CONTINUOUS
 62
     7
 10
475.012993
 20
718.628525
 11
472.145182
 21
716.379299
  0
LINE
  8
CSLAYER1
  6
CONTINUOUS
 62
     7
 10
472.145182
 20
716.379299
 11
469.614021
 21
713.988211
  0
LINE
  8
CSLAYER1
  6
CONTINUOUS
 62
     7
 10
469.614021
 20
713.988211
 11
467.438772
 21
711.473459
  0
LINE
  8
CSLAYER1
  6
CONTINUOUS
 62
     7
 10
467.438772
 20
711.473459
 11
465.635991
 21
708.854180
  0
LINE
  8
CSLAYER1
  6
CONTINUOUS
 62
     7
 10
465.635991
 20
708.854180
 11
464.219398
 21
706.150310
  0
LINE
  8
CSLAYER1
  6
CONTINUOUS
 62
     7
 10
464.219398
 20
706.150310
 11
463.199774
 21
703.382426
  0
LINE
  8
CSLAYER1
  6
CONTINUOUS
 62
     7
 10
463.199774
 20
703.382426
 11
462.584879
 21
700.571594
  0
LINE
  8
CSLAYER1
  6
CONTINUOUS
 62
     7
 10
462.584879
 20
700.571594
 11
462.379393
 21
697.739206
  0
LINE
  8
CSLAYER1
  6
CONTINUOUS
 62
     7
 10
462.379393
 20
697.739206
 11
462.584879
 21
694.906817
  0
LINE
  8
CSLAYER1
  6
CONTINUOUS
 62
     7
 10
516.379393
 20
684.275230
 11
511.150048
 21
684.137824
  0
LINE
  8
CSLAYER1
  6
CONTINUOUS
 62
     7
 10
511.150048
 20
684.137824
 11
505.960502
 21
683.726654
  0
LINE
  8
CSLAYER1
  6
CONTINUOUS
 62
     7
 10
505.960502
 20
683.726654
 11
500.850250
 21
683.044849
  0
LINE
  8
CSLAYER1
  6
CONTINUOUS
 62
     7
 10
500.850250
 20
683.044849
 11
495.858184
 21
682.097596
  0
LINE
  8
CSLAYER1
  6
CONTINUOUS
 62
     7
 10
495.858184
 20
682.097596
 11
491.022297
 21
680.892107
  0
LINE
  8
CSLAYER1
  6
CONTINUOUS
 62
     7
 10
491.022297
 20
680.892107
 11
486.379393
 21
679.437554
  0
LINE
  8
CSLAYER1
  6
CONTINUOUS
 62
     7
 10
486.379393
 20
679.437554
 11
481.964806
 21
677.745009
  0
LINE
  8
CSLAYER1
  6
CONTINUOUS
 62
     7
 10
481.964806
 20
677.745009
 11
477.812136
 21
675.827352
  0
LINE
  8
CSLAYER1
  6
CONTINUOUS
 62
     7
 10
477.812136
 20
675.827352
 11
473.952986
 21
673.699177
  0
LINE
  8
CSLAYER1
  6
CONTINUOUS
 62
     7
 10
473.952986
 20
673.699177
 11
470.416726
 21
671.376683
  0
LINE
  8
CSLAYER1
  6
CONTINUOUS
 62
     7
 10
470.416726
 20
671.376683
 11
467.230270
 21
668.877543
  0
LINE
  8
CSLAYER1
  6
CONTINUOUS
 62
     7
 10
467.230270
 20
668.877543
 11
464.417868
 21
666.220779
  0
LINE
  8
CSLAYER1
  6
CONTINUOUS
 62
     7
 10
464.417868
 20
666.220779
 11
462.000925
 21
663.426609
  0
LINE
  8
CSLAYER1
  6
CONTINUOUS
 62
     7
 10
462.000925
 20
663.426609
 11
459.997835
 21
660.516300
  0
LINE
  8
CSLAYER1
  6
CONTINUOUS
 62
     7
 10
459.997835
 20
660.516300
 11
458.423843
 21
657.512000
  0
LINE
  8
CSLAYER1
  6
CONTINUOUS
 62
     7
 10
458.423843
 20
657.512000
 11
457.290927
 21
654.436573
  0
LINE
  8
CSLAYER1
  6
CONTINUOUS
 62
     7
 10
457.290927
 20
654.436573
 11
456.607711
 21
651.313426
  0
LINE
  8
CSLAYER1
  6
CONTINUOUS
 62
     7
 10
456.607711
 20
651.313426
 11
456.379393
 21
648.166328
  0
LINE
  8
CSLAYER1
  6
CONTINUOUS
 62
     7
 10
456.379393
 20
648.166328
 11
456.607711
 21
645.019230
  0
LINE
  8
CSLAYER1
  6
CONTINUOUS
 62
     7
 10
516.379393
 20
575.938792
 11
510.975737
 21
575.796807
  0
LINE
  8
CSLAYER1
  6
CONTINUOUS
 62
     7
 10
510.975737
 20
575.796807
 11
505.613206
 21
575.371931
  0
LINE
  8
CSLAYER1
  6
CONTINUOUS
 62
     7
 10
505.613206
 20
575.371931
 11
500.332612
 21
574.667399
  0
LINE
  8
CSLAYER1
  6
CONTINUOUS
 62
     7
 10
500.332612
 20
574.667399
 11
495.174144
 21
573.688571
  0
LINE
  8
CSLAYER1
  6
CONTINUOUS
 62
     7
 10
495.174144
 20
573.688571
 11
490.177060
 21
572.442899
  0
LINE
  8
CSLAYER1
  6
CONTINUOUS
 62
     7
 10
490.177060
 20
572.442899
 11
485.379393
 21
570.939861
  0
LINE
  8
CSLAYER1
  6
CONTINUOUS
 62
     7
 10
485.379393
 20
570.939861
 11
480.817654
 21
569.190897
  0
LINE
  8
CSLAYER1
  6
CONTINUOUS
 62
     7
 10
480.817654
 20
569.190897
 11
476.526561
 21
567.209318
  0
LINE
  8
CSLAYER1
  6
CONTINUOUS
 62
     7
 10
476.526561
 20
567.209318
 11
472.538772
 21
565.010205
  0
LINE
  8
CSLAYER1
  6
CONTINUOUS
 62
     7
 10
472.538772
 20
565.010205
 11
468.884637
 21
562.610294
  0
LINE
  8
CSLAYER1
  6
CONTINUOUS
 62
     7
 10
468.884637
 20
562.610294
 11
465.591966
 21
560.027850
  0
LINE
  8
CSLAYER1
  6
CONTINUOUS
 62
     7
 10
465.591966
 20
560.027850
 11
462.685818
 21
557.282526
  0
LINE
  8
CSLAYER1
  6
CONTINUOUS
 62
     7
 10
462.685818
 20
557.282526
 11
460.188310
 21
554.395218
  0
LINE
  8
CSLAYER1
  6
CONTINUOUS
 62
     7
 10
460.188310
 20
554.395218
 11
458.118450
 21
551.387898
  0
LINE
  8
CSLAYER1
  6
CONTINUOUS
 62
     7
 10
458.118450
 20
551.387898
 11
456.491991
 21
548.283455
  0
LINE
  8
CSLAYER1
  6
CONTINUOUS
 62
     7
 10
456.491991
 20
548.283455
 11
455.321312
 21
545.105514
  0
LINE
  8
CSLAYER1
  6
CONTINUOUS
 62
     7
 10
455.321312
 20
545.105514
 11
454.615321
 21
541.878262
  0
LINE
  8
CSLAYER1
  6
CONTINUOUS
 62
     7
 10
454.615321
 20
541.878262
 11
454.379393
 21
538.626261
  0
LINE
  8
CSLAYER1
  6
CONTINUOUS
 62
     7
 10
516.379393
 20
523.967227
 11
510.975737
 21
523.825242
  0
LINE
  8
CSLAYER1
  6
CONTINUOUS
 62
     7
 10
510.975737
 20
523.825242
 11
505.613206
 21
523.400366
  0
LINE
  8
CSLAYER1
  6
CONTINUOUS
 62
     7
 10
505.613206
 20
523.400366
 11
500.332612
 21
522.695834
  0
LINE
  8
CSLAYER1
  6
CONTINUOUS
 62
     7
 10
500.332612
 20
522.695834
 11
495.174144
 21
521.717006
  0
LINE
  8
CSLAYER1
  6
CONTINUOUS
 62
     7
 10
495.174144
 20
521.717006
 11
490.177060
 21
520.471334
  0
LINE
  8
CSLAYER1
  6
CONTINUOUS
 62
     7
 10
490.177060
 20
520.471334
 11
485.379393
 21
518.968296
  0
LINE
  8
CSLAYER1
  6
CONTINUOUS
 62
     7
 10
485.379393
 20
518.968296
 11
480.817654
 21
517.219332
  0
LINE
  8
CSLAYER1
  6
CONTINUOUS
 62
     7
 10
480.817654
 20
517.219332
 11
476.526561
 21
515.237753
  0
LINE
  8
CSLAYER1
  6
CONTINUOUS
 62
     7
 10
476.526561
 20
515.237753
 11
472.538772
 21
513.038640
  0
LINE
  8
CSLAYER1
  6
CONTINUOUS
 62
     7
 10
472.538772
 20
513.038640
 11
468.884637
 21
510.638729
  0
LINE
  8
CSLAYER1
  6
CONTINUOUS
 62
     7
 10
468.884637
 20
510.638729
 11
465.591966
 21
508.056285
  0
LINE
  8
CSLAYER1
  6
CONTINUOUS
 62
     7
 10
465.591966
 20
508.056285
 11
462.685818
 21
505.310962
  0
LINE
  8
CSLAYER1
  6
CONTINUOUS
 62
     7
 10
462.685818
 20
505.310962
 11
460.188310
 21
502.423653
  0
LINE
  8
CSLAYER1
  6
CONTINUOUS
 62
     7
 10
460.188310
 20
502.423653
 11
458.118450
 21
499.416333
  0
LINE
  8
CSLAYER1
  6
CONTINUOUS
 62
     7
 10
458.118450
 20
499.416333
 11
456.491991
 21
496.311890
  0
LINE
  8
CSLAYER1
  6
CONTINUOUS
 62
     7
 10
456.491991
 20
496.311890
 11
455.321312
 21
493.133949
  0
LINE
  8
CSLAYER1
  6
CONTINUOUS
 62
     7
 10
455.321312
 20
493.133949
 11
454.615321
 21
489.906697
  0
LINE
  8
CSLAYER1
  6
CONTINUOUS
 62
     7
 10
454.615321
 20
489.906697
 11
454.379393
 21
486.654696
  0
LINE
  8
CSLAYER1
  6
CONTINUOUS
 62
     7
 10
454.379393
 20
486.654696
 11
454.615321
 21
483.402694
  0
LINE
  8
CSLAYER1
  6
CONTINUOUS
 62
     7
 10
454.615321
 20
483.402694
 11
455.321312
 21
480.175443
  0
LINE
  8
CSLAYER1
  6
CONTINUOUS
 62
     7
 10
455.321312
 20
480.175443
 11
456.491991
 21
476.997502
  0
LINE
  8
CSLAYER1
  6
CONTINUOUS
 62
     7
 10
456.491991
 20
476.997502
 11
458.118450
 21
473.893059
  0
LINE
  8
CSLAYER1
  6
CONTINUOUS
 62
     7
 10
458.118450
 20
473.893059
 11
460.188310
 21
470.885739
  0
LINE
  8
CSLAYER1
  6
CONTINUOUS
 62
     7
 10
460.188310
 20
470.885739
 11
462.685818
 21
467.998430
  0
LINE
  8
CSLAYER1
  6
CONTINUOUS
 62
     7
 10
462.685818
 20
467.998430
 11
465.591966
 21
465.253107
  0
LINE
  8
CSLAYER1
  6
CONTINUOUS
 62
     7
 10
465.591966
 20
465.253107
 11
468.884637
 21
462.670663
  0
LINE
  8
CSLAYER1
  6
CONTINUOUS
 62
     7
 10
468.884637
 20
462.670663
 11
472.538772
 21
460.270752
  0
LINE
  8
CSLAYER1
  6
CONTINUOUS
 62
     7
 10
472.538772
 20
460.270752
 11
476.526561
 21
458.071639
  0
LINE
  8
CSLAYER1
  6
CONTINUOUS
 62
     7
 10
476.526561
 20
458.071639
 11
480.817654
 21
456.090059
  0
LINE
  8
CSLAYER1
  6
CONTINUOUS
 62
     7
 10
480.817654
 20
456.090059
 11
485.379393
 21
454.341096
  0
LINE
  8
CSLAYER1
  6
CONTINUOUS
 62
     7
 10
485.379393
 20
454.341096
 11
490.177060
 21
452.838058
  0
LINE
  8
CSLAYER1
  6
CONTINUOUS
 62
     7
 10
490.177060
 20
452.838058
 11
495.174144
 21
451.592385
  0
LINE
  8
CSLAYER1
  6
CONTINUOUS
 62
     7
 10
495.174144
 20
451.592385
 11
500.332612
 21
450.613558
  0
LINE
  8
CSLAYER1
  6
CONTINUOUS
 62
     7
 10
500.332612
 20
450.613558
 11
505.613206
 21
449.909026
  0
LINE
  8
CSLAYER1
  6
CONTINUOUS
 62
     7
 10
505.613206
 20
449.909026
 11
510.975737
 21
449.484150
  0
LINE
  8
CSLAYER1
  6
CONTINUOUS
 62
     7
 10
510.975737
 20
449.484150
 11
516.379393
 21
449.342164
  0
LINE
  8
CSLAYER1
  6
CONTINUOUS
 62
     7
 10
461.379393
 20
735.849871
 11
461.379393
 21
662.523578
  0
LINE
  8
CSLAYER1
  6
CONTINUOUS
 62
     7
 10
516.379393
 20
740.849871
 11
466.379393
 21
740.849871
  0
LINE
  8
CSLAYER1
  6
CONTINUOUS
 62
     7
 10
516.379393
 20
732.517004
 11
466.379393
 21
732.517004
  0
ARC
  8
CSLAYER1
  6
CONTINUOUS
 62
     7
 10
466.379393
 20
735.849871
 40
5.000000
 50
90.000000
 51
180.000000
  0
ARC
  8
CSLAYER1
  6
CONTINUOUS
 62
     7
 10
466.379393
 20
727.517004
 40
5.000000
 50
90.000000
 51
180.000000
  0
LINE
  8
CSLAYER1
  6
CONTINUOUS
 62
     7
 10
462.379393
 20
556.928276
 11
462.379393
 21
663.864146
  0
LINE
  8
CSLAYER1
  6
CONTINUOUS
 62
     7
 10
464.379393
 20
558.882380
 11
464.379393
 21
666.184432
  0
LINE
  8
CSLAYER1
  6
CONTINUOUS
 62
     7
 10
484.379393
 20
570.556462
 11
484.379393
 21
678.670757
  0
LINE
  8
CSLAYER1
  6
CONTINUOUS
 62
     7
 10
491.379393
 20
572.742616
 11
491.379393
 21
681.003980
  0
LINE
  8
CSLAYER1
  6
CONTINUOUS
 62
     7
 10
499.379393
 20
574.486524
 11
499.379393
 21
682.848608
  0
ENDBLK
  8
0
  0
BLOCK
  8
CSLAYER1
  2
BLKF0002
 70
   64
 10
0.0
 20
0.0
 30
0.0
  0
LINE
  8
CSLAYER1
  6
CONTINUOUS
 62
     3
 10
2409.096602
 20
1761.834652
 11
2409.096602
 21
1823.834652
  0
LINE
  8
CSLAYER1
  6
CONTINUOUS
 62
     3
 10
2411.596602
 20
1759.334652
 11
2496.596602
 21
1759.334652
  0
LINE
  8
CSLAYER1
  6
CENTER
 62
     5
 10
2350.746963
 20
1831.834652
 11
2409.096602
 21
1831.834652
  0
LINE
  8
CSLAYER1
  6
CONTINUOUS
 62
     2
 10
2411.596602
 20
1815.834652
 11
2496.596602
 21
1815.834652
  0
LINE
  8
CSLAYER1
  6
CONTINUOUS
 62
     3
 10
2411.596602
 20
1764.334652
 11
2411.596602
 21
1809.334652
  0
LINE
  8
CSLAYER1
  6
CONTINUOUS
 62
     3
 10
2499.096602
 20
1761.834652
 11
2499.096602
 21
1831.834652
  0
LINE
  8
CSLAYER1
  6
CONTINUOUS
 62
     3
 10
2414.096602
 20
1761.834652
 11
2491.096602
 21
1761.834652
  0
LINE
  8
CSLAYER1
  6
CONTINUOUS
 62
     3
 10
2414.096602
 20
1811.834652
 11
2491.096602
 21
1811.834652
  0
ARC
  8
CSLAYER1
  6
CONTINUOUS
 62
     3
 10
2437.028420
 20
1786.834652
 40
59.568182
 50
-24.814837
 51
24.814837
  0
ARC
  8
CSLAYER1
  6
CONTINUOUS
 62
     3
 10
2414.096602
 20
1764.334652
 40
2.500000
 50
180.000000
 51
270.000000
  0
ARC
  8
CSLAYER1
  6
CONTINUOUS
 62
     3
 10
2414.096602
 20
1809.334652
 40
2.500000
 50
90.000000
 51
180.000000
  0
ARC
  8
CSLAYER1
  6
CONTINUOUS
 62
     3
 10
2411.596602
 20
1761.834652
 40
2.500000
 50
180.000000
 51
270.000000
  0
ARC
  8
CSLAYER1
  6
CONTINUOUS
 62
     3
 10
2496.596602
 20
1761.834652
 40
2.500000
 50
270.000000
 51
360.000000
  0
ARC
  8
CSLAYER1
  6
CONTINUOUS
 62
     2
 10
2496.596602
 20
1818.334652
 40
2.500000
 50
270.000000
 51
360.000000
  0
ARC
  8
CSLAYER1
  6
CONTINUOUS
 62
     2
 10
2411.596602
 20
1818.334652
 40
2.500000
 50
180.000000
 51
270.000000
  0
LINE
  8
CSLAYER1
  6
CONTINUOUS
 62
     3
 10
2409.096602
 20
1901.834652
 11
2409.096602
 21
1839.834652
  0
LINE
  8
CSLAYER1
  6
CONTINUOUS
 62
     3
 10
2411.596602
 20
1904.334652
 11
2496.596602
 21
1904.334652
  0
LINE
  8
CSLAYER1
  6
CONTINUOUS
 62
     2
 10
2411.596602
 20
1847.834652
 11
2496.596602
 21
1847.834652
  0
LINE
  8
CSLAYER1
  6
CONTINUOUS
 62
     3
 10
2499.096602
 20
1901.834652
 11
2499.096602
 21
1831.834652
  0
ARC
  8
CSLAYER1
  6
CONTINUOUS
 62
     3
 10
2411.596602
 20
1901.834652
 40
2.500000
 50
90.000000
 51
180.000000
  0
ARC
  8
CSLAYER1
  6
CONTINUOUS
 62
     3
 10
2496.596602
 20
1901.834652
 40
2.500000
 50
0.000000
 51
90.000000
  0
ARC
  8
CSLAYER1
  6
CONTINUOUS
 62
     2
 10
2496.596602
 20
1845.334652
 40
2.500000
 50
0.000000
 51
90.000000
  0
ARC
  8
CSLAYER1
  6
CONTINUOUS
 62
     2
 10
2411.596602
 20
1845.334652
 40
2.500000
 50
90.000000
 51
180.000000
  0
LINE
  8
CSLAYER1
  6
CONTINUOUS
 62
     3
 10
2411.596602
 20
1899.334652
 11
2411.596602
 21
1854.334652
  0
LINE
  8
CSLAYER1
  6
CONTINUOUS
 62
     3
 10
2414.096602
 20
1901.834652
 11
2491.096602
 21
1901.834652
  0
LINE
  8
CSLAYER1
  6
CONTINUOUS
 62
     3
 10
2414.096602
 20
1851.834652
 11
2491.096602
 21
1851.834652
  0
ARC
  8
CSLAYER1
  6
CONTINUOUS
 62
     3
 10
2437.028420
 20
1876.834652
 40
59.568182
 50
-24.814837
 51
24.814837
  0
ARC
  8
CSLAYER1
  6
CONTINUOUS
 62
     3
 10
2414.096602
 20
1899.334652
 40
2.500000
 50
90.000000
 51
180.000000
  0
ARC
  8
CSLAYER1
  6
CONTINUOUS
 62
     3
 10
2414.096602
 20
1854.334652
 40
2.500000
 50
180.000000
 51
270.000000
  0
LINE
  8
CSLAYER1
  6
CONTINUOUS
 62
     3
 10
2402.096602
 20
1838.834652
 11
2402.096602
 21
1835.334652
  0
LINE
  8
CSLAYER1
  6
CONTINUOUS
 62
     3
 10
2350.746963
 20
1835.334652
 11
2402.096602
 21
1835.334652
  0
LINE
  8
CSLAYER1
  6
CONTINUOUS
 62
     3
 10
2403.096602
 20
1839.834652
 11
2409.096602
 21
1839.834652
  0
LINE
  8
CSLAYER1
  6
CONTINUOUS
 62
     3
 10
2403.096602
 20
1823.834652
 11
2409.096602
 21
1823.834652
  0
LINE
  8
CSLAYER1
  6
CONTINUOUS
 62
     3
 10
2350.746963
 20
1828.334652
 11
2402.096602
 21
1828.334652
  0
ARC
  8
CSLAYER1
  6
CONTINUOUS
 62
     3
 10
2403.096602
 20
1824.834652
 40
1.000000
 50
180.000000
 51
270.000000
  0
ARC
  8
CSLAYER1
  6
CONTINUOUS
 62
     3
 10
2403.096602
 20
1838.834652
 40
1.000000
 50
90.000000
 51
180.000000
  0
LINE
  8
CSLAYER1
  6
CONTINUOUS
 62
     3
 10
2402.096602
 20
1828.334652
 11
2402.096602
 21
1824.834652
  0
LINE
  8
CSLAYER1
  6
CONTINUOUS
 62
     2
 10
2402.096602
 20
1835.334652
 11
2402.096602
 21
1828.334652
  0
LINE
  8
CSLAYER1
  6
CONTINUOUS
 62
     2
 10
2409.096602
 20
1823.834652
 11
2409.096602
 21
1831.834652
  0
LINE
  8
CSLAYER1
  6
CONTINUOUS
 62
     2
 10
2409.096602
 20
1839.834652
 11
2409.096602
 21
1831.834652
  0
LINE
  8
CSLAYER1
  6
CONTINUOUS
 62
     2
 10
2428.589613
 20
1819.671992
 11
2419.454613
 21
1819.671992
  0
LINE
  8
CSLAYER1
  6
CONTINUOUS
 62
     2
 10
2428.589613
 20
1843.296992
 11
2419.454613
 21
1843.296992
  0
LINE
  8
CSLAYER1
  6
CONTINUOUS
 62
     2
 10
2418.194613
 20
1820.931992
 11
2418.194613
 21
1842.036992
  0
LINE
  8
CSLAYER1
  6
CONTINUOUS
 62
     2
 10
2429.849613
 20
1820.931992
 11
2429.849613
 21
1842.036992
  0
LINE
  8
CSLAYER1
  6
CONTINUOUS
 62
     2
 10
2427.959613
 20
1841.406992
 11
2419.927113
 21
1841.406992
  0
LINE
  8
CSLAYER1
  6
CONTINUOUS
 62
     2
 10
2427.959613
 20
1838.256992
 11
2427.014613
 21
1838.256992
  0
LINE
  8
CSLAYER1
  6
CONTINUOUS
 62
     2
 10
2427.959613
 20
1829.594492
 11
2427.014613
 21
1829.594492
  0
LINE
  8
CSLAYER1
  6
CONTINUOUS
 62
     2
 10
2427.959613
 20
1825.026992
 11
2422.919613
 21
1825.026992
  0
LINE
  8
CSLAYER1
  6
CONTINUOUS
 62
     2
 10
2429.062113
 20
1826.129492
 11
2429.062113
 21
1828.491992
  0
LINE
  8
CSLAYER1
  6
CONTINUOUS
 62
     2
 10
2421.817113
 20
1826.129492
 11
2421.817113
 21
1828.491992
  0
LINE
  8
CSLAYER1
  6
CONTINUOUS
 62
     2
 10
2418.824613
 20
1839.359492
 11
2418.824613
 21
1840.304492
  0
LINE
  8
CSLAYER1
  6
CONTINUOUS
 62
     2
 10
2426.069613
 20
1830.539492
 11
2426.069613
 21
1837.311992
  0
LINE
  8
CSLAYER1
  6
CONTINUOUS
 62
     2
 10
2425.282113
 20
1830.539492
 11
2425.282113
 21
1837.311992
  0
ARC
  8
CSLAYER1
  6
CONTINUOUS
 62
     2
 10
2427.959613
 20
1826.129492
 40
1.102500
 50
270.000000
 51
360.000000
  0
ARC
  8
CSLAYER1
  6
CONTINUOUS
 62
     2
 10
2422.919613
 20
1826.129492
 40
1.102500
 50
180.000000
 51
270.000000
  0
ARC
  8
CSLAYER1
  6
CONTINUOUS
 62
     2
 10
2422.919613
 20
1828.491992
 40
1.102500
 50
90.000000
 51
180.000000
  0
ARC
  8
CSLAYER1
  6
CONTINUOUS
 62
     2
 10
2427.959613
 20
1828.491992
 40
1.102500
 50
0.000000
 51
90.000000
  0
ARC
  8
CSLAYER1
  6
CONTINUOUS
 62
     2
 10
2419.927113
 20
1839.359492
 40
1.102500
 50
180.000000
 51
270.000000
  0
ARC
  8
CSLAYER1
  6
CONTINUOUS
 62
     2
 10
2419.927113
 20
1840.304492
 40
1.102500
 50
90.000000
 51
180.000000
  0
ARC
  8
CSLAYER1
  6
CONTINUOUS
 62
     2
 10
2427.959613
 20
1840.304492
 40
1.102500
 50
0.000000
 51
90.000000
  0
ARC
  8
CSLAYER1
  6
CONTINUOUS
 62
     2
 10
2427.959613
 20
1839.359492
 40
1.102500
 50
270.000000
 51
360.000000
  0
LINE
  8
CSLAYER1
  6
CONTINUOUS
 62
     2
 10
2424.337113
 20
1829.594492
 11
2422.919613
 21
1829.594492
  0
LINE
  8
CSLAYER1
  6
CONTINUOUS
 62
     2
 10
2424.337113
 20
1838.256992
 11
2419.927113
 21
1838.256992
  0
ARC
  8
CSLAYER1
  6
CONTINUOUS
 62
     2
 10
2427.014613
 20
1830.539492
 40
0.945000
 50
180.000000
 51
270.000000
  0
ARC
  8
CSLAYER1
  6
CONTINUOUS
 62
     2
 10
2424.337113
 20
1830.539492
 40
0.945000
 50
270.000000
 51
360.000000
  0
ARC
  8
CSLAYER1
  6
CONTINUOUS
 62
     2
 10
2424.337113
 20
1837.311992
 40
0.945000
 50
0.000000
 51
90.000000
  0
ARC
  8
CSLAYER1
  6
CONTINUOUS
 62
     2
 10
2428.589613
 20
1820.931992
 40
1.260000
 50
270.000000
 51
360.000000
  0
ARC
  8
CSLAYER1
  6
CONTINUOUS
 62
     2
 10
2419.454613
 20
1820.931992
 40
1.260000
 50
180.000000
 51
270.000000
  0
ARC
  8
CSLAYER1
  6
CONTINUOUS
 62
     2
 10
2419.454613
 20
1842.036992
 40
1.260000
 50
90.000000
 51
180.000000
  0
ARC
  8
CSLAYER1
  6
CONTINUOUS
 62
     2
 10
2428.589613
 20
1842.036992
 40
1.260000
 50
0.000000
 51
90.000000
  0
ARC
  8
CSLAYER1
  6
CONTINUOUS
 62
     2
 10
2427.014613
 20
1837.311992
 40
0.945000
 50
90.000000
 51
180.000000
  0
LINE
  8
CSLAYER1
  6
CONTINUOUS
 62
     2
 10
2429.062113
 20
1839.359492
 11
2429.062113
 21
1840.304492
  0
CIRCLE
  8
CSLAYER1
  6
CONTINUOUS
 62
     2
 10
2443.596602
 20
1781.834652
 40
2.500000
  0
CIRCLE
  8
CSLAYER1
  6
CONTINUOUS
 62
     2
 10
2443.596602
 20
1771.834652
 40
2.500000
  0
CIRCLE
  8
CSLAYER1
  6
CONTINUOUS
 62
     2
 10
2453.596602
 20
1771.834652
 40
2.500000
  0
CIRCLE
  8
CSLAYER1
  6
CONTINUOUS
 62
     2
 10
2453.596602
 20
1781.834652
 40
2.500000
  0
CIRCLE
  8
CSLAYER1
  6
CONTINUOUS
 62
     2
 10
2463.596602
 20
1781.834652
 40
2.500000
  0
CIRCLE
  8
CSLAYER1
  6
CONTINUOUS
 62
     2
 10
2463.596602
 20
1771.834652
 40
2.500000
  0
CIRCLE
  8
CSLAYER1
  6
CONTINUOUS
 62
     2
 10
2473.596602
 20
1771.834652
 40
2.500000
  0
CIRCLE
  8
CSLAYER1
  6
CONTINUOUS
 62
     2
 10
2473.596602
 20
1781.834652
 40
2.500000
  0
CIRCLE
  8
CSLAYER1
  6
CONTINUOUS
 62
     2
 10
2483.596602
 20
1781.834652
 40
2.500000
  0
CIRCLE
  8
CSLAYER1
  6
CONTINUOUS
 62
     2
 10
2483.596602
 20
1771.834652
 40
2.500000
  0
CIRCLE
  8
CSLAYER1
  6
CONTINUOUS
 62
     2
 10
2443.596602
 20
1791.834652
 40
2.500000
  0
CIRCLE
  8
CSLAYER1
  6
CONTINUOUS
 62
     2
 10
2443.596602
 20
1801.834652
 40
2.500000
  0
CIRCLE
  8
CSLAYER1
  6
CONTINUOUS
 62
     2
 10
2453.596602
 20
1801.834652
 40
2.500000
  0
CIRCLE
  8
CSLAYER1
  6
CONTINUOUS
 62
     2
 10
2453.596602
 20
1791.834652
 40
2.500000
  0
CIRCLE
  8
CSLAYER1
  6
CONTINUOUS
 62
     2
 10
2463.596602
 20
1791.834652
 40
2.500000
  0
CIRCLE
  8
CSLAYER1
  6
CONTINUOUS
 62
     2
 10
2463.596602
 20
1801.834652
 40
2.500000
  0
CIRCLE
  8
CSLAYER1
  6
CONTINUOUS
 62
     2
 10
2473.596602
 20
1801.834652
 40
2.500000
  0
CIRCLE
  8
CSLAYER1
  6
CONTINUOUS
 62
     2
 10
2473.596602
 20
1791.834652
 40
2.500000
  0
CIRCLE
  8
CSLAYER1
  6
CONTINUOUS
 62
     2
 10
2483.596602
 20
1791.834652
 40
2.500000
  0
CIRCLE
  8
CSLAYER1
  6
CONTINUOUS
 62
     2
 10
2483.596602
 20
1801.834652
 40
2.500000
  0
CIRCLE
  8
CSLAYER1
  6
CONTINUOUS
 62
     2
 10
2443.596602
 20
1881.834652
 40
2.500000
  0
CIRCLE
  8
CSLAYER1
  6
CONTINUOUS
 62
     2
 10
2443.596602
 20
1891.834652
 40
2.500000
  0
CIRCLE
  8
CSLAYER1
  6
CONTINUOUS
 62
     2
 10
2453.596602
 20
1891.834652
 40
2.500000
  0
CIRCLE
  8
CSLAYER1
  6
CONTINUOUS
 62
     2
 10
2453.596602
 20
1881.834652
 40
2.500000
  0
CIRCLE
  8
CSLAYER1
  6
CONTINUOUS
 62
     2
 10
2463.596602
 20
1881.834652
 40
2.500000
  0
CIRCLE
  8
CSLAYER1
  6
CONTINUOUS
 62
     2
 10
2463.596602
 20
1891.834652
 40
2.500000
  0
CIRCLE
  8
CSLAYER1
  6
CONTINUOUS
 62
     2
 10
2473.596602
 20
1891.834652
 40
2.500000
  0
CIRCLE
  8
CSLAYER1
  6
CONTINUOUS
 62
     2
 10
2473.596602
 20
1881.834652
 40
2.500000
  0
CIRCLE
  8
CSLAYER1
  6
CONTINUOUS
 62
     2
 10
2483.596602
 20
1881.834652
 40
2.500000
  0
CIRCLE
  8
CSLAYER1
  6
CONTINUOUS
 62
     2
 10
2483.596602
 20
1891.834652
 40
2.500000
  0
CIRCLE
  8
CSLAYER1
  6
CONTINUOUS
 62
     2
 10
2443.596602
 20
1871.834652
 40
2.500000
  0
CIRCLE
  8
CSLAYER1
  6
CONTINUOUS
 62
     2
 10
2443.596602
 20
1861.834652
 40
2.500000
  0
CIRCLE
  8
CSLAYER1
  6
CONTINUOUS
 62
     2
 10
2453.596602
 20
1861.834652
 40
2.500000
  0
CIRCLE
  8
CSLAYER1
  6
CONTINUOUS
 62
     2
 10
2453.596602
 20
1871.834652
 40
2.500000
  0
CIRCLE
  8
CSLAYER1
  6
CONTINUOUS
 62
     2
 10
2463.596602
 20
1871.834652
 40
2.500000
  0
CIRCLE
  8
CSLAYER1
  6
CONTINUOUS
 62
     2
 10
2463.596602
 20
1861.834652
 40
2.500000
  0
CIRCLE
  8
CSLAYER1
  6
CONTINUOUS
 62
     2
 10
2473.596602
 20
1861.834652
 40
2.500000
  0
CIRCLE
  8
CSLAYER1
  6
CONTINUOUS
 62
     2
 10
2473.596602
 20
1871.834652
 40
2.500000
  0
CIRCLE
  8
CSLAYER1
  6
CONTINUOUS
 62
     2
 10
2483.596602
 20
1871.834652
 40
2.500000
  0
CIRCLE
  8
CSLAYER1
  6
CONTINUOUS
 62
     2
 10
2483.596602
 20
1861.834652
 40
2.500000
  0
LINE
  8
CSLAYER1
  6
CONTINUOUS
 62
     2
 10
2417.596602
 20
1859.334652
 11
2417.596602
 21
1894.334652
  0
LINE
  8
CSLAYER1
  6
CONTINUOUS
 62
     2
 10
2433.596602
 20
1859.334652
 11
2433.596602
 21
1894.334652
  0
LINE
  8
CSLAYER1
  6
CONTINUOUS
 62
     2
 10
2419.096602
 20
1857.834652
 11
2432.096602
 21
1857.834652
  0
LINE
  8
CSLAYER1
  6
CONTINUOUS
 62
     2
 10
2418.596602
 20
1859.334652
 11
2418.596602
 21
1894.334652
  0
LINE
  8
CSLAYER1
  6
CONTINUOUS
 62
     2
 10
2432.596602
 20
1859.334652
 11
2432.596602
 21
1894.334652
  0
LINE
  8
CSLAYER1
  6
CONTINUOUS
 62
     2
 10
2419.096602
 20
1858.834652
 11
2432.096602
 21
1858.834652
  0
LINE
  8
CSLAYER1
  6
CONTINUOUS
 62
     2
 10
2419.096602
 20
1895.834652
 11
2432.096602
 21
1895.834652
  0
LINE
  8
CSLAYER1
  6
CONTINUOUS
 62
     2
 10
2419.096602
 20
1894.834652
 11
2432.096602
 21
1894.834652
  0
ARC
  8
CSLAYER1
  6
CONTINUOUS
 62
     2
 10
2419.096602
 20
1859.334652
 40
0.500000
 50
180.000000
 51
270.000000
  0
ARC
  8
CSLAYER1
  6
CONTINUOUS
 62
     2
 10
2432.096602
 20
1859.334652
 40
0.500000
 50
270.000000
 51
360.000000
  0
ARC
  8
CSLAYER1
  6
CONTINUOUS
 62
     2
 10
2419.096602
 20
1894.334652
 40
0.500000
 50
90.000000
 51
180.000000
  0
ARC
  8
CSLAYER1
  6
CONTINUOUS
 62
     2
 10
2432.096602
 20
1894.334652
 40
0.500000
 50
0.000000
 51
90.000000
  0
ARC
  8
CSLAYER1
  6
CONTINUOUS
 62
     2
 10
2419.096602
 20
1859.334652
 40
1.500000
 50
180.000000
 51
270.000000
  0
ARC
  8
CSLAYER1
  6
CONTINUOUS
 62
     2
 10
2432.096602
 20
1859.334652
 40
1.500000
 50
270.000000
 51
360.000000
  0
ARC
  8
CSLAYER1
  6
CONTINUOUS
 62
     2
 10
2419.096602
 20
1894.334652
 40
1.500000
 50
90.000000
 51
180.000000
  0
ARC
  8
CSLAYER1
  6
CONTINUOUS
 62
     2
 10
2432.096602
 20
1894.334652
 40
1.500000
 50
0.000000
 51
90.000000
  0
LINE
  8
CSLAYER1
  6
CONTINUOUS
 62
     2
 10
2422.596602
 20
1867.834652
 11
2422.596602
 21
1885.834652
  0
LINE
  8
CSLAYER1
  6
CONTINUOUS
 62
     2
 10
2419.518530
 20
1876.834652
 11
2422.596602
 21
1885.834652
  0
LINE
  8
CSLAYER1
  6
CONTINUOUS
 62
     2
 10
2419.518530
 20
1876.834652
 11
2422.596602
 21
1867.834652
  0
TEXT
  8
CSLAYER1
 62
     2
 10
2430.890207
 20
1867.854805
 40
7.066058
 41
1.574983
  1
UP
 50
90.000000
 51
0.000000
  7
EASYDRAW_FONT
 72
     5
 11
2430.890207
 21
1886.403008
  0
LINE
  8
CSLAYER1
  6
CONTINUOUS
 62
     2
 10
2417.596602
 20
1804.334652
 11
2417.596602
 21
1769.334652
  0
LINE
  8
CSLAYER1
  6
CONTINUOUS
 62
     2
 10
2433.596602
 20
1804.334652
 11
2433.596602
 21
1769.334652
  0
LINE
  8
CSLAYER1
  6
CONTINUOUS
 62
     2
 10
2419.096602
 20
1805.834652
 11
2432.096602
 21
1805.834652
  0
LINE
  8
CSLAYER1
  6
CONTINUOUS
 62
     2
 10
2418.596602
 20
1804.334652
 11
2418.596602
 21
1769.334652
  0
LINE
  8
CSLAYER1
  6
CONTINUOUS
 62
     2
 10
2432.596602
 20
1804.334652
 11
2432.596602
 21
1769.334652
  0
LINE
  8
CSLAYER1
  6
CONTINUOUS
 62
     2
 10
2419.096602
 20
1804.834652
 11
2432.096602
 21
1804.834652
  0
LINE
  8
CSLAYER1
  6
CONTINUOUS
 62
     2
 10
2419.096602
 20
1767.834652
 11
2432.096602
 21
1767.834652
  0
LINE
  8
CSLAYER1
  6
CONTINUOUS
 62
     2
 10
2419.096602
 20
1768.834652
 11
2432.096602
 21
1768.834652
  0
ARC
  8
CSLAYER1
  6
CONTINUOUS
 62
     2
 10
2419.096602
 20
1804.334652
 40
0.500000
 50
90.000000
 51
180.000000
  0
ARC
  8
CSLAYER1
  6
CONTINUOUS
 62
     2
 10
2432.096602
 20
1804.334652
 40
0.500000
 50
0.000000
 51
90.000000
  0
ARC
  8
CSLAYER1
  6
CONTINUOUS
 62
     2
 10
2419.096602
 20
1769.334652
 40
0.500000
 50
180.000000
 51
270.000000
  0
ARC
  8
CSLAYER1
  6
CONTINUOUS
 62
     2
 10
2432.096602
 20
1769.334652
 40
0.500000
 50
270.000000
 51
360.000000
  0
ARC
  8
CSLAYER1
  6
CONTINUOUS
 62
     2
 10
2419.096602
 20
1804.334652
 40
1.500000
 50
90.000000
 51
180.000000
  0
ARC
  8
CSLAYER1
  6
CONTINUOUS
 62
     2
 10
2432.096602
 20
1804.334652
 40
1.500000
 50
0.000000
 51
90.000000
  0
ARC
  8
CSLAYER1
  6
CONTINUOUS
 62
     2
 10
2419.096602
 20
1769.334652
 40
1.500000
 50
180.000000
 51
270.000000
  0
ARC
  8
CSLAYER1
  6
CONTINUOUS
 62
     2
 10
2432.096602
 20
1769.334652
 40
1.500000
 50
270.000000
 51
360.000000
  0
LINE
  8
CSLAYER1
  6
CONTINUOUS
 62
     2
 10
2428.069532
 20
1795.834652
 11
2428.069532
 21
1777.834652
  0
LINE
  8
CSLAYER1
  6
CONTINUOUS
 62
     2
 10
2431.147604
 20
1786.834652
 11
2428.069532
 21
1777.834652
  0
LINE
  8
CSLAYER1
  6
CONTINUOUS
 62
     2
 10
2431.147604
 20
1786.834652
 11
2428.069532
 21
1795.834652
  0
TEXT
  8
CSLAYER1
 62
     2
 10
2426.459366
 20
1772.136992
 40
6.383575
 41
1.255870
  1
DOWN
 50
90.000000
 51
0.000000
  7
EASYDRAW_FONT
 72
     5
 11
2426.459366
 21
1801.532441
  0
ENDBLK
  8
0
  0
ENDSEC
  0
SECTION
  2
ENTITIES
  0
LINE
  8
CSLAYER1
  6
CONTINUOUS
 62
     3
 10
118.051807
 20
2400.454119
 11
118.051807
 21
51.907189
  0
LINE
  8
CSLAYER1
  6
CONTINUOUS
 62
     3
 10
3440.625117
 20
2400.454119
 11
118.051807
 21
2400.454119
  0
LINE
  8
CSLAYER1
  6
CONTINUOUS
 62
     3
 10
3440.625117
 20
2400.454119
 11
3440.625117
 21
51.907189
  0
LINE
  8
CSLAYER1
  6
CONTINUOUS
 62
     3
 10
3440.625117
 20
51.907189
 11
118.051807
 21
51.907189
  0
LINE
  8
CSLAYER1
  6
CONTINUOUS
 62
     5
 10
68.051807
 20
1211.907189
 11
18.051807
 21
1211.907189
  0
LINE
  8
CSLAYER1
  6
CONTINUOUS
 62
     5
 10
2640.625117
 20
491.907189
 11
3440.625117
 21
491.907189
  0
LINE
  8
CSLAYER1
  6
CONTINUOUS
 62
     5
 10
2640.625117
 20
131.907189
 11
3440.625117
 21
131.907189
  0
LINE
  8
CSLAYER1
  6
CONTINUOUS
 62
     5
 10
2640.625117
 20
291.907189
 11
3440.625117
 21
291.907189
  0
LINE
  8
CSLAYER1
  6
CONTINUOUS
 62
     5
 10
2640.625117
 20
351.907189
 11
3440.625117
 21
351.907189
  0
LINE
  8
CSLAYER1
  6
CONTINUOUS
 62
     5
 10
2640.625117
 20
411.907189
 11
3440.625117
 21
411.907189
  0
LINE
  8
CSLAYER1
  6
CONTINUOUS
 62
     5
 10
2640.625117
 20
571.907189
 11
3440.625117
 21
571.907189
  0
LINE
  8
CSLAYER1
  6
CONTINUOUS
 62
     5
 10
2640.625117
 20
651.907189
 11
2640.625117
 21
51.907189
  0
LINE
  8
CSLAYER1
  6
CONTINUOUS
 62
     5
 10
2840.625117
 20
651.907189
 11
2840.625117
 21
411.907189
  0
LINE
  8
CSLAYER1
  6
CONTINUOUS
 62
     5
 10
2640.625117
 20
651.907189
 11
3440.625117
 21
651.907189
  0
LINE
  8
CSLAYER1
  6
CONTINUOUS
 62
     5
 10
3140.625117
 20
411.907189
 11
3140.625117
 21
131.907189
  0
TEXT
  8
CSLAYER1
 62
     3
 10
2860.316219
 20
60.469913
 40
59.380363
 41
1.003345
  1
東正車輌株式会社
 50
0.000000
 51
0.000000
  7
EASYDRAW_FONT
 72
     5
 11
3317.088566
 21
60.469913
  0
LINE
  8
CSLAYER1
  6
CONTINUOUS
 62
     5
 10
2890.625117
 20
351.907189
 11
2890.625117
 21
131.907189
  0
TEXT
  8
CSLAYER1
 62
     5
 10
2670.625000
 20
586.907166
 40
50.000000
 41
1.050000
  1
品　名
 50
0.000000
 51
0.000000
  7
EASYDRAW_FONT
 72
     5
 11
2810.625000
 21
586.907166
  0
TEXT
  8
CSLAYER1
 62
     5
 10
2670.625000
 20
506.907166
 40
50.000000
 41
1.050000
  1
型　式
 50
0.000000
 51
0.000000
  7
EASYDRAW_FONT
 72
     5
 11
2810.625000
 21
506.907166
  0
TEXT
  8
CSLAYER1
 62
     5
 10
2645.625000
 20
426.907196
 40
50.000000
 41
1.036364
  1
図面番号
 50
0.000000
 51
0.000000
  7
EASYDRAW_FONT
 72
     5
 11
2835.625000
 21
426.907196
  0
TEXT
  8
CSLAYER1
 62
     5
 10
2690.625000
 20
356.907196
 40
50.000000
 41
0.827586
  1
平成２８年４月１６日
 50
0.000000
 51
0.000000
  7
EASYDRAW_FONT
 72
     5
 11
3090.625000
 21
356.907196
  0
TEXT
  8
CSLAYER1
 62
     5
 10
3220.625000
 20
356.907196
 40
50.000000
 41
1.050000
  1
Ｂ－４
 50
0.000000
 51
0.000000
  7
EASYDRAW_FONT
 72
     5
 11
3360.625000
 21
356.907196
  0
TEXT
  8
CSLAYER1
 62
     5
 10
2695.625000
 20
296.907196
 40
50.000000
 41
1.050000
  1
検　図
 50
0.000000
 51
0.000000
  7
EASYDRAW_FONT
 72
     5
 11
2835.625000
 21
296.907196
  0
TEXT
  8
CSLAYER1
 62
     5
 10
2945.625000
 20
296.907196
 40
50.000000
 41
1.050000
  1
作　図
 50
0.000000
 51
0.000000
  7
EASYDRAW_FONT
 72
     5
 11
3085.625000
 21
296.907196
  0
TEXT
  8
CSLAYER1
 62
     5
 10
3220.625000
 20
296.907196
 40
50.000000
 41
1.050000
  1
尺　度
 50
0.000000
 51
0.000000
  7
EASYDRAW_FONT
 72
     5
 11
3360.625000
 21
296.907196
  0
TEXT
  8
CSLAYER1
 62
     5
 10
3321.363770
 20
146.392456
 40
50.000000
 41
1.080000
  1
１０
 50
0.000000
 51
0.000000
  7
EASYDRAW_FONT
 72
     5
 11
3411.363770
 21
146.392456
  0
TEXT
  8
CSLAYER1
 62
     5
 10
3301.044189
 20
194.097153
 40
50.000000
 41
1.200000
  1
／
 50
0.000000
 51
0.000000
  7
EASYDRAW_FONT
 72
     5
 11
3341.044189
 21
194.097153
  0
TEXT
  8
CSLAYER1
 62
     5
 10
3270.831299
 20
229.080597
 40
50.000000
 41
1.200000
  1
１
 50
0.000000
 51
0.000000
  7
EASYDRAW_FONT
 72
     5
 11
3310.831299
 21
229.080597
  0
TEXT
  8
CSLAYER1
 62
     3
 10
2980.625000
 20
586.907166
 40
50.000000
 41
0.834783
  1
ゴールドリフター
 50
0.000000
 51
0.000000
  7
EASYDRAW_FONT
 72
     5
 11
3300.625000
 21
586.907166
  0
TEXT
  8
CSLAYER1
 62
     3
 10
2900.625000
 20
506.907166
 40
50.000000
 41
0.822857
  1
ＧＬＩ－５００－０５１０
 50
0.000000
 51
0.000000
  7
EASYDRAW_FONT
 72
     5
 11
3380.625000
 21
506.907166
  0
TEXT
  8
CSLAYER1
 62
     3
 10
3040.625000
 20
426.907196
 40
50.000000
 41
0.857143
  1
GI-21
 50
0.000000
 51
0.000000
  7
EASYDRAW_FONT
 72
     5
 11
3240.625000
 21
426.907196
  0
INSERT
  8
CSLAYER1
  2
BLKF0000
 10
0.0
 20
0.0
 30
0.0
  0
LINE
  8
CSLAYER1
  6
CONTINUOUS
 62
     5
 10
3400.111639
 20
1865.982589
 11
2679.239121
 21
1865.982589
  0
LINE
  8
CSLAYER1
  6
CONTINUOUS
 62
     5
 10
3400.111639
 20
1801.982590
 11
2679.239121
 21
1801.982590
  0
LINE
  8
CSLAYER1
  6
CONTINUOUS
 62
     5
 10
3400.111639
 20
1737.982592
 11
2679.239121
 21
1737.982592
  0
LINE
  8
CSLAYER1
  6
CONTINUOUS
 62
     5
 10
3400.111639
 20
1673.982594
 11
2680.111657
 21
1673.982594
  0
LINE
  8
CSLAYER1
  6
CONTINUOUS
 62
     5
 10
3400.111639
 20
1609.982595
 11
2679.239121
 21
1609.982595
  0
LINE
  8
CSLAYER1
  6
CONTINUOUS
 62
     5
 10
3400.111639
 20
1545.982597
 11
2679.239121
 21
1545.982597
  0
LINE
  8
CSLAYER1
  6
CONTINUOUS
 62
     5
 10
3400.111639
 20
1481.982599
 11
2679.239121
 21
1481.982599
  0
LINE
  8
CSLAYER1
  6
CONTINUOUS
 62
     5
 10
3400.111639
 20
1417.982600
 11
2679.239121
 21
1417.982600
  0
LINE
  8
CSLAYER1
  6
CONTINUOUS
 62
     5
 10
3400.111639
 20
1353.982602
 11
2679.239121
 21
1353.982602
  0
TEXT
  8
CSLAYER1
 62
     3
 10
2779.238525
 20
1955.403198
 40
40.000000
 41
0.857143
  1
仕   様
 50
0.000000
 51
0.000000
  7
EASYDRAW_FONT
 72
     5
 11
2939.238525
 21
1955.403198
  0
TEXT
  8
CSLAYER1
 62
     3
 10
2689.998535
 20
1874.205444
 40
40.000000
 41
0.847059
  1
型    式
 50
0.000000
 51
0.000000
  7
EASYDRAW_FONT
 72
     5
 11
2881.998535
 21
1874.205444
  0
TEXT
  8
CSLAYER1
 62
     3
 10
2688.178955
 20
1751.715698
 40
40.000000
 41
0.847059
  1
テーブル寸法
 50
0.000000
 51
0.000000
  7
EASYDRAW_FONT
 72
     5
 11
2880.178955
 21
1751.715698
  0
TEXT
  8
CSLAYER1
 62
     3
 10
2689.998535
 20
1688.651733
 40
40.000000
 41
0.847059
  1
テーブル高サ
 50
0.000000
 51
0.000000
  7
EASYDRAW_FONT
 72
     5
 11
2881.998535
 21
1688.651733
  0
TEXT
  8
CSLAYER1
 62
     3
 10
2691.445313
 20
1623.768921
 40
40.000000
 41
0.857143
  1
ストローク
 50
0.000000
 51
0.000000
  7
EASYDRAW_FONT
 72
     5
 11
2851.445313
 21
1623.768921
  0
TEXT
  8
CSLAYER1
 62
     3
 10
2690.839111
 20
1558.886108
 40
40.000000
 41
0.857143
  1
全   長
 50
0.000000
 51
0.000000
  7
EASYDRAW_FONT
 72
     5
 11
2850.839111
 21
1558.886108
  0
TEXT
  8
CSLAYER1
 62
     3
 10
2693.110352
 20
1493.035034
 40
40.000000
 41
0.857143
  1
全   巾
 50
0.000000
 51
0.000000
  7
EASYDRAW_FONT
 72
     5
 11
2853.110352
 21
1493.035034
  0
TEXT
  8
CSLAYER1
 62
     3
 10
2691.552490
 20
1429.150269
 40
40.000000
 41
0.857143
  1
全   高
 50
0.000000
 51
0.000000
  7
EASYDRAW_FONT
 72
     5
 11
2851.552490
 21
1429.150269
  0
TEXT
  8
CSLAYER1
 62
     3
 10
2691.552490
 20
1366.823608
 40
40.000000
 41
0.857143
  1
リフト方式
 50
0.000000
 51
0.000000
  7
EASYDRAW_FONT
 72
     5
 11
2851.552490
 21
1366.823608
  0
TEXT
  8
CSLAYER1
 62
     3
 10
3143.420898
 20
1812.713745
 40
40.000000
 41
0.872727
  1
 500
 50
0.000000
 51
0.000000
  7
EASYDRAW_FONT
 72
     5
 11
3271.420898
 21
1812.713745
  0
TEXT
  8
CSLAYER1
 62
     3
 10
3329.577637
 20
1809.040405
 40
40.000000
 41
0.960000
  1
Ｋｇ
 50
0.000000
 51
0.000000
  7
EASYDRAW_FONT
 72
     5
 11
3393.577637
 21
1809.040405
  0
TEXT
  8
CSLAYER1
 62
     3
 10
2966.305176
 20
1748.210815
 40
40.000000
 41
0.827586
  1
1050L×500W
 50
0.000000
 51
0.000000
  7
EASYDRAW_FONT
 72
     5
 11
3286.305176
 21
1748.210815
  0
TEXT
  8
CSLAYER1
 62
     3
 10
3043.012695
 20
1685.677124
 40
40.000000
 41
0.840000
  1
155～905
 50
0.000000
 51
0.000000
  7
EASYDRAW_FONT
 72
     5
 11
3267.012695
 21
1685.677124
  0
TEXT
  8
CSLAYER1
 62
     3
 10
3169.259277
 20
1622.001831
 40
40.000000
 41
0.900000
  1
750
 50
0.000000
 51
0.000000
  7
EASYDRAW_FONT
 72
     5
 11
3265.259277
 21
1622.001831
  0
TEXT
  8
CSLAYER1
 62
     3
 10
3139.636963
 20
1558.431030
 40
40.000000
 41
0.872727
  1
1050
 50
0.000000
 51
0.000000
  7
EASYDRAW_FONT
 72
     5
 11
3267.636963
 21
1558.431030
  0
TEXT
  8
CSLAYER1
 62
     3
 10
3171.378418
 20
1493.911987
 40
40.000000
 41
0.900000
  1
500
 50
0.000000
 51
0.000000
  7
EASYDRAW_FONT
 72
     5
 11
3267.378418
 21
1493.911987
  0
TEXT
  8
CSLAYER1
 62
     3
 10
2962.589600
 20
1367.778198
 40
40.000000
 41
0.827586
  1
電 動 ボールネジ式
 50
0.000000
 51
0.000000
  7
EASYDRAW_FONT
 72
     5
 11
3282.589600
 21
1367.778198
  0
TEXT
  8
CSLAYER1
 62
     3
 10
3169.369629
 20
1429.250854
 40
40.000000
 41
0.900000
  1
155
 50
0.000000
 51
0.000000
  7
EASYDRAW_FONT
 72
     5
 11
3265.369629
 21
1429.250854
  0
TEXT
  8
CSLAYER1
 62
     3
 10
3327.063477
 20
1744.937378
 40
40.000000
 41
0.960000
  1
mm
 50
0.000000
 51
0.000000
  7
EASYDRAW_FONT
 72
     5
 11
3391.063477
 21
1744.937378
  0
TEXT
  8
CSLAYER1
 62
     3
 10
3327.063477
 20
1684.603882
 40
40.000000
 41
0.960000
  1
mm
 50
0.000000
 51
0.000000
  7
EASYDRAW_FONT
 72
     5
 11
3391.063477
 21
1684.603882
  0
TEXT
  8
CSLAYER1
 62
     3
 10
3323.292725
 20
1620.499878
 40
40.000000
 41
0.960000
  1
mm
 50
0.000000
 51
0.000000
  7
EASYDRAW_FONT
 72
     5
 11
3387.292725
 21
1620.499878
  0
TEXT
  8
CSLAYER1
 62
     3
 10
3323.292725
 20
1552.624878
 40
40.000000
 41
0.960000
  1
mm
 50
0.000000
 51
0.000000
  7
EASYDRAW_FONT
 72
     5
 11
3387.292725
 21
1552.624878
  0
TEXT
  8
CSLAYER1
 62
     3
 10
3320.779297
 20
1492.292358
 40
40.000000
 41
0.960000
  1
mm
 50
0.000000
 51
0.000000
  7
EASYDRAW_FONT
 72
     5
 11
3384.779297
 21
1492.292358
  0
TEXT
  8
CSLAYER1
 62
     3
 10
3320.779297
 20
1428.187378
 40
40.000000
 41
0.960000
  1
mm
 50
0.000000
 51
0.000000
  7
EASYDRAW_FONT
 72
     5
 11
3384.779297
 21
1428.187378
  0
LINE
  8
CSLAYER1
  6
CONTINUOUS
 62
     5
 10
2967.291767
 20
1939.584095
 11
2758.905796
 21
1939.584095
  0
LINE
  8
CSLAYER1
  6
CONTINUOUS
 62
     5
 10
2967.291767
 20
1947.584095
 11
2758.905796
 21
1947.584095
  0
TEXT
  8
CSLAYER1
 62
     4
 10
2688.980957
 20
1244.676636
 40
40.000000
 41
1.036364
  1
操作方式
 50
0.000000
 51
0.000000
  7
EASYDRAW_FONT
 72
     5
 11
2840.980957
 21
1244.676636
  0
TEXT
  8
CSLAYER1
 62
     4
 10
2970.622559
 20
1239.383667
 40
40.000000
 41
1.020000
  1
フットスイッチ
 50
0.000000
 51
0.000000
  7
EASYDRAW_FONT
 72
     5
 11
3242.622559
 21
1239.383667
  0
LINE
  8
CSLAYER1
  6
CONTINUOUS
 62
     3
 10
1116.240494
 20
2082.034652
 11
1116.240494
 21
1582.034652
  0
TEXT
  8
CSLAYER1
 62
     5
 10
2771.245361
 20
2103.179199
 40
40.000000
 41
1.020000
  1
ＵＰ・ＤＯＷＮ
 50
360.000000
 51
0.000000
  7
EASYDRAW_FONT
 72
     5
 11
3043.245361
 21
2103.179199
  0
TEXT
  8
CSLAYER1
 62
     5
 10
2769.763672
 20
2159.479980
 40
40.000000
 41
1.020000
  1
フットスイッチ
 50
360.000000
 51
0.000000
  7
EASYDRAW_FONT
 72
     5
 11
3041.763672
 21
2159.479980
  0
LINE
  8
CSLAYER1
  6
CONTINUOUS
 62
     3
 10
2249.789495
 20
1828.334652
 11
2402.096602
 21
1828.334652
  0
LINE
  8
CSLAYER1
  6
CONTINUOUS
 62
     3
 10
2249.256858
 20
1835.334652
 11
2402.096602
 21
1835.334652
  0
ARC
  8
CSLAYER1
  6
CONTINUOUS
 62
     3
 10
2256.094255
 20
1788.834652
 40
40.000000
 50
-260.931278
 51
63.817766
  0
ARC
  8
CSLAYER1
  6
CONTINUOUS
 62
     3
 10
2256.094255
 20
1788.834652
 40
47.000000
 50
-261.635125
 51
49.860785
  0
LINE
  8
CSLAYER1
  6
CONTINUOUS
 62
     3
 10
2166.242198
 20
1828.334652
 11
2226.102639
 21
1828.334652
  0
LINE
  8
CSLAYER1
  6
CONTINUOUS
 62
     3
 10
2166.242198
 20
1835.334652
 11
2236.809530
 21
1835.334652
  0
LINE
  8
CSLAYER1
  6
CONTINUOUS
 62
     3
 10
2166.242198
 20
1870.534652
 11
2281.687166
 21
1870.534652
  0
LINE
  8
CSLAYER1
  6
CONTINUOUS
 62
     3
 10
2166.242198
 20
1863.534652
 11
2291.568956
 21
1863.534652
  0
TEXT
  8
CSLAYER1
 62
     5
 10
2495.137207
 20
2210.638672
 40
40.000000
 41
1.028571
  1
電源コード
 50
360.000000
 51
0.000000
  7
EASYDRAW_FONT
 72
     5
 11
2687.137207
 21
2210.638672
  0
TEXT
  8
CSLAYER1
 62
     5
 10
2510.931885
 20
2157.545410
 40
40.000000
 41
1.036364
  1
長サ４ｍ
 50
360.000000
 51
0.000000
  7
EASYDRAW_FONT
 72
     5
 11
2662.931885
 21
2157.545410
  0
LINE
  8
CSLAYER1
  6
CONTINUOUS
 62
     3
 10
2528.187483
 20
2017.146891
 11
2533.258111
 21
2019.056608
  0
LINE
  8
CSLAYER1
  6
CONTINUOUS
 62
     3
 10
2533.258111
 20
2019.056608
 11
2539.682743
 21
2019.235070
  0
LINE
  8
CSLAYER1
  6
CONTINUOUS
 62
     3
 10
2527.133153
 20
2018.535993
 11
2532.782212
 21
2020.900715
  0
LINE
  8
CSLAYER1
  6
CONTINUOUS
 62
     3
 10
2532.782212
 20
2020.900715
 11
2538.136072
 21
2022.209437
  0
LINE
  8
CSLAYER1
  6
CONTINUOUS
 62
     3
 10
2526.290958
 20
2019.645603
 11
2531.176054
 21
2022.506873
  0
LINE
  8
CSLAYER1
  6
CONTINUOUS
 62
     3
 10
2531.176054
 20
2022.506873
 11
2533.496060
 21
2025.838164
  0
ARC
  8
CSLAYER1
  6
CONTINUOUS
 62
     3
 10
2313.222106
 20
1910.534652
 40
47.000000
 50
-10.756396
 51
307.198537
  0
ARC
  8
CSLAYER1
  6
CONTINUOUS
 62
     3
 10
2313.222106
 20
1910.534652
 40
40.000000
 50
-23.471057
 51
307.198537
  0
LINE
  8
CSLAYER1
  6
CONTINUOUS
 62
     3
 10
2529.371237
 20
2015.587271
 11
2341.637309
 21
1873.097020
  0
LINE
  8
CSLAYER1
  6
CONTINUOUS
 62
     3
 10
2525.139185
 20
2021.163088
 11
2337.405257
 21
1878.672837
  0
LINE
  8
CSLAYER1
  6
CONTINUOUS
 62
     3
 10
2529.371237
 20
2015.587271
 11
2525.139185
 21
2021.163088
  0
LINE
  8
CSLAYER1
  6
CONTINUOUS
 62
     5
 10
2475.943940
 20
2204.431476
 11
2686.691840
 21
2204.431476
  0
LINE
  8
CSLAYER1
  6
CONTINUOUS
 62
     5
 10
2742.003480
 20
2151.569463
 11
3048.640241
 21
2151.569463
  0
LINE
  8
CSLAYER1
  6
PHANTOM
 62
     5
 10
1116.240494
 20
524.858387
 11
2166.240494
 21
524.858387
  0
LINE
  8
CSLAYER1
  6
PHANTOM
 62
     5
 10
2166.240494
 20
524.858387
 11
2166.240494
 21
471.858387
  0
LINE
  8
CSLAYER1
  6
PHANTOM
 62
     5
 10
1116.240494
 20
471.858387
 11
2166.240494
 21
471.858387
  0
LINE
  8
CSLAYER1
  6
PHANTOM
 62
     5
 10
1116.240494
 20
524.858387
 11
1116.240494
 21
471.858387
  0
DIMENSION
  8
CSLAYER1
 62
     7
  2
*D0000
 10
2266.215318
 20
524.858387
 11
2317.982422
 21
449.358032
 13
2366.215318
 23
369.858387
 14
2166.240494
 24
524.858387
 50
90.000000
  0
DIMENSION
  8
CSLAYER1
 62
     7
  2
*D0001
 10
2266.215318
 20
1291.404006
 11
2256.215332
 21
908.131287
 13
2146.215318
 23
524.858387
 14
2146.215318
 24
1291.404006
 50
90.000000
 70
1
  0
DIMENSION
  8
CSLAYER1
 62
     7
  2
*D0002
 10
2366.215318
 20
369.858387
 11
2356.215332
 21
830.631226
 13
2366.215318
 23
1291.404006
 14
2366.215318
 24
369.858387
 50
90.000000
 70
1
  0
DIMENSION
  8
CSLAYER1
 62
     7
  2
*D0003
 10
2166.215318
 20
1388.346431
 11
1641.227783
 21
1398.346558
 13
1116.240494
 23
1288.404006
 14
2166.215318
 24
1288.404006
 70
1
  0
DIMENSION
  8
CSLAYER1
 62
     7
  2
*D0004
 10
2166.240494
 20
273.732594
 11
1641.240356
 21
283.732544
 13
1116.240494
 23
369.858387
 14
2166.240494
 24
369.858387
 52
270.000000
 70
1
  0
LINE
  8
CSLAYER1
  6
CENTER
 62
     5
 10
516.379393
 20
1319.821081
 11
516.379393
 21
346.152493
  0
LINE
  8
CSLAYER1
  6
CONTINUOUS
 62
     4
 10
2533.604630
 20
369.858387
 11
154.186399
 21
369.858387
  0
LINE
  8
CSLAYER1
  6
CONTINUOUS
 62
     7
 10
2166.240494
 20
1238.404006
 11
2166.240494
 21
1291.404006
  0
LINE
  8
CSLAYER1
  6
CONTINUOUS
 62
     3
 10
2166.240494
 20
1582.034652
 11
2166.240494
 21
2082.034652
  0
LINE
  8
CSLAYER1
  6
CENTER
 62
     5
 10
1129.622352
 20
396.858387
 11
1191.489407
 21
396.858387
  0
LINE
  8
CSLAYER1
  6
CENTER
 62
     5
 10
1158.240494
 20
422.569961
 11
1158.240494
 21
372.807329
  0
TEXT
  8
CSLAYER1
 62
     5
 10
2430.254395
 20
377.487183
 40
40.000000
 41
1.050000
  1
F.L
 50
0.000000
 51
0.000000
  7
EASYDRAW_FONT
 72
     5
 11
2542.254395
 21
377.487183
  0
TEXT
  8
CSLAYER2
 62
     5
 10
2969.834480
 20
1872.482443
 40
40.809284
 41
0.732273
  1
GLI-500-0510
 50
0.000000
 51
0.000000
  7
EASYDRAW_FONT
 72
     5
 11
3318.475578
 21
1872.482443
  0
LINE
  8
CSLAYER1
  6
CONTINUOUS
 62
     3
 10
1116.240494
 20
2082.034652
 11
2166.242198
 21
2082.034652
  0
LINE
  8
CSLAYER1
  6
CONTINUOUS
 62
     3
 10
1116.240494
 20
1582.034652
 11
2166.242198
 21
1582.034652
  0
LINE
  8
CSLAYER1
  6
CONTINUOUS
 62
     5
 10
994.589956
 20
1582.034652
 11
994.589956
 21
2082.034652
  0
LINE
  8
CSLAYER1
  6
CONTINUOUS
 62
     5
 10
994.589956
 20
1582.034652
 11
986.825385
 21
1611.012426
  0
LINE
  8
CSLAYER1
  6
CONTINUOUS
 62
     5
 10
994.589956
 20
1582.034652
 11
1002.354528
 21
1611.012426
  0
LINE
  8
CSLAYER1
  6
CONTINUOUS
 62
     5
 10
994.589956
 20
2082.034652
 11
986.825385
 21
2053.056877
  0
LINE
  8
CSLAYER1
  6
CONTINUOUS
 62
     5
 10
994.589956
 20
2082.034652
 11
1002.354528
 21
2053.056877
  0
TEXT
  8
CSLAYER1
 62
     7
 10
984.589905
 20
1787.034546
 40
40.000000
 41
0.843750
  1
500
 50
90.000000
 51
0.000000
  7
EASYDRAW_FONT
 72
     5
 11
984.589905
 21
1877.034546
  0
LINE
  8
CSLAYER1
  6
CONTINUOUS
 62
     5
 10
1106.240494
 20
2082.034652
 11
984.589956
 21
2082.034652
  0
LINE
  8
CSLAYER1
  6
CONTINUOUS
 62
     5
 10
1106.240494
 20
1582.034652
 11
984.589956
 21
1582.034652
  0
LINE
  8
CSLAYER1
  6
CONTINUOUS
 62
     4
 10
766.379393
 20
434.140172
 11
766.379393
 21
369.858387
  0
LINE
  8
CSLAYER1
  6
CONTINUOUS
 62
     4
 10
763.379393
 20
1291.404006
 11
269.379393
 21
1291.404006
  0
LINE
  8
CSLAYER1
  6
CONTINUOUS
 62
     4
 10
766.379393
 20
1288.404006
 11
766.379393
 21
1238.404006
  0
LINE
  8
CSLAYER1
  6
CENTER
 62
     5
 10
644.879393
 20
1172.079680
 11
387.879393
 21
1172.079680
  0
POINT
  8
CSLAYER1
 62
     4
 10
591.379393
 20
1084.496988
  0
LINE
  8
CSLAYER1
  6
CONTINUOUS
 62
     5
 10
605.504769
 20
1084.496990
 11
577.265679
 21
1084.496990
  0
LINE
  8
CSLAYER1
  6
CONTINUOUS
 62
     4
 10
599.879393
 20
1109.496990
 11
599.879393
 21
1150.079680
  0
LINE
  8
CSLAYER1
  6
CONTINUOUS
 62
     4
 10
601.379393
 20
1101.496990
 11
601.379393
 21
1150.079680
  0
LINE
  8
CSLAYER1
  6
CONTINUOUS
 62
     4
 10
601.379393
 20
1109.496990
 11
581.379393
 21
1109.496990
  0
LINE
  8
CSLAYER1
  6
CONTINUOUS
 62
     4
 10
599.879393
 20
1109.496990
 11
601.379393
 21
1106.898914
  0
LINE
  8
CSLAYER1
  6
CONTINUOUS
 62
     4
 10
582.879393
 20
1109.496990
 11
582.879393
 21
1150.079680
  0
LINE
  8
CSLAYER1
  6
CONTINUOUS
 62
     4
 10
582.879393
 20
1109.496990
 11
581.379393
 21
1106.898914
  0
LINE
  8
CSLAYER1
  6
CONTINUOUS
 62
     4
 10
581.379393
 20
1101.496990
 11
581.379393
 21
1150.079680
  0
LINE
  8
CSLAYER1
  6
CONTINUOUS
 62
     4
 10
578.854393
 20
1099.496988
 11
603.904393
 21
1099.496988
  0
POINT
  8
CSLAYER1
 62
     4
 10
591.379393
 20
1052.746988
  0
LINE
  8
CSLAYER1
  6
CONTINUOUS
 62
     4
 10
604.904393
 20
1098.496988
 11
604.904393
 21
1005.946988
  0
LINE
  8
CSLAYER1
  6
CONTINUOUS
 62
     4
 10
600.904393
 20
1067.796988
 11
600.904393
 21
1005.946988
  0
LINE
  8
CSLAYER1
  6
CONTINUOUS
 62
     4
 10
600.904393
 20
1067.796988
 11
604.904393
 21
1067.796988
  0
LINE
  8
CSLAYER1
  6
CONTINUOUS
 62
     4
 10
599.904393
 20
1043.221988
 11
582.854393
 21
1043.221988
  0
LINE
  8
CSLAYER1
  6
CONTINUOUS
 62
     4
 10
599.904393
 20
1062.271988
 11
582.854393
 21
1062.271988
  0
ARC
  8
CSLAYER1
  6
CONTINUOUS
 62
     4
 10
599.904393
 20
1044.221988
 40
1.000000
 50
270.000000
 51
360.000000
  0
ARC
  8
CSLAYER1
  6
CONTINUOUS
 62
     4
 10
599.904393
 20
1061.271988
 40
1.000000
 50
0.000000
 51
90.000000
  0
LINE
  8
CSLAYER1
  6
CONTINUOUS
 62
     4
 10
577.854393
 20
1098.496988
 11
577.854393
 21
1005.246988
  0
LINE
  8
CSLAYER1
  6
CONTINUOUS
 62
     4
 10
581.854393
 20
1067.796988
 11
581.854393
 21
1005.946988
  0
LINE
  8
CSLAYER1
  6
CONTINUOUS
 62
     4
 10
581.854393
 20
1067.796988
 11
577.854393
 21
1067.796988
  0
ARC
  8
CSLAYER1
  6
CONTINUOUS
 62
     4
 10
582.854393
 20
1044.221988
 40
1.000000
 50
180.000000
 51
270.000000
  0
ARC
  8
CSLAYER1
  6
CONTINUOUS
 62
     4
 10
582.854393
 20
1061.271988
 40
1.000000
 50
90.000000
 51
180.000000
  0
LINE
  8
CSLAYER1
  6
CONTINUOUS
 62
     4
 10
611.129393
 20
1048.976988
 11
611.129393
 21
1056.526715
  0
LINE
  8
CSLAYER1
  6
CONTINUOUS
 62
     4
 10
604.904393
 20
1039.746988
 11
609.279393
 21
1039.746988
  0
LINE
  8
CSLAYER1
  6
CONTINUOUS
 62
     4
 10
604.904393
 20
1097.496988
 11
609.279393
 21
1097.496988
  0
LINE
  8
CSLAYER1
  6
CONTINUOUS
 62
     4
 10
609.279393
 20
1047.976988
 11
610.129393
 21
1047.976988
  0
LINE
  8
CSLAYER1
  6
CONTINUOUS
 62
     4
 10
609.279393
 20
1057.526715
 11
610.129393
 21
1057.526715
  0
ARC
  8
CSLAYER1
  6
CONTINUOUS
 62
     4
 10
610.129393
 20
1048.976988
 40
1.000000
 50
270.000000
 51
360.000000
  0
ARC
  8
CSLAYER1
  6
CONTINUOUS
 62
     4
 10
610.129393
 20
1056.526715
 40
1.000000
 50
0.000000
 51
90.000000
  0
LINE
  8
CSLAYER1
  6
CONTINUOUS
 62
     4
 10
611.129393
 20
1080.726988
 11
611.129393
 21
1088.276715
  0
LINE
  8
CSLAYER1
  6
CONTINUOUS
 62
     4
 10
609.279393
 20
1079.726988
 11
610.129393
 21
1079.726988
  0
LINE
  8
CSLAYER1
  6
CONTINUOUS
 62
     4
 10
609.279393
 20
1089.276715
 11
610.129393
 21
1089.276715
  0
ARC
  8
CSLAYER1
  6
CONTINUOUS
 62
     4
 10
610.129393
 20
1080.726988
 40
1.000000
 50
270.000000
 51
360.000000
  0
ARC
  8
CSLAYER1
  6
CONTINUOUS
 62
     4
 10
610.129393
 20
1088.276715
 40
1.000000
 50
0.000000
 51
90.000000
  0
LINE
  8
CSLAYER1
  6
CONTINUOUS
 62
     4
 10
571.629393
 20
1048.976988
 11
571.629393
 21
1056.526715
  0
LINE
  8
CSLAYER1
  6
CONTINUOUS
 62
     4
 10
577.854393
 20
1039.746988
 11
573.479393
 21
1039.746988
  0
LINE
  8
CSLAYER1
  6
CONTINUOUS
 62
     4
 10
577.854393
 20
1097.496988
 11
573.479393
 21
1097.496988
  0
LINE
  8
CSLAYER1
  6
CONTINUOUS
 62
     4
 10
573.479393
 20
1047.976988
 11
572.629393
 21
1047.976988
  0
LINE
  8
CSLAYER1
  6
CONTINUOUS
 62
     4
 10
573.479393
 20
1057.526715
 11
572.629393
 21
1057.526715
  0
ARC
  8
CSLAYER1
  6
CONTINUOUS
 62
     4
 10
572.629393
 20
1048.976988
 40
1.000000
 50
180.000000
 51
270.000000
  0
ARC
  8
CSLAYER1
  6
CONTINUOUS
 62
     4
 10
572.629393
 20
1056.526715
 40
1.000000
 50
90.000000
 51
180.000000
  0
LINE
  8
CSLAYER1
  6
CONTINUOUS
 62
     4
 10
568.529393
 20
1080.726988
 11
568.529393
 21
1088.276715
  0
LINE
  8
CSLAYER1
  6
CONTINUOUS
 62
     4
 10
573.479393
 20
1079.726988
 11
569.529393
 21
1079.726988
  0
LINE
  8
CSLAYER1
  6
CONTINUOUS
 62
     4
 10
573.479393
 20
1089.276715
 11
569.529393
 21
1089.276715
  0
ARC
  8
CSLAYER1
  6
CONTINUOUS
 62
     4
 10
569.529393
 20
1080.726988
 40
1.000000
 50
180.000000
 51
270.000000
  0
ARC
  8
CSLAYER1
  6
CONTINUOUS
 62
     4
 10
569.529393
 20
1088.276715
 40
1.000000
 50
90.000000
 51
180.000000
  0
LINE
  8
CSLAYER1
  6
CONTINUOUS
 62
     4
 10
577.854393
 20
1089.276715
 11
604.904393
 21
1089.276715
  0
LINE
  8
CSLAYER1
  6
CONTINUOUS
 62
     4
 10
577.854393
 20
1079.726988
 11
604.904393
 21
1079.726988
  0
LINE
  8
CSLAYER1
  6
CONTINUOUS
 62
     4
 10
579.854393
 20
1069.496988
 11
602.904393
 21
1069.496988
  0
ARC
  8
CSLAYER1
  6
CONTINUOUS
 62
     4
 10
602.904393
 20
1071.496988
 40
2.000000
 50
270.000000
 51
360.000000
  0
ARC
  8
CSLAYER1
  6
CONTINUOUS
 62
     4
 10
579.854393
 20
1071.496988
 40
2.000000
 50
180.000000
 51
270.000000
  0
ARC
  8
CSLAYER1
  6
CONTINUOUS
 62
     4
 10
579.379393
 20
1101.496988
 40
2.000000
 50
270.000000
 51
360.000000
  0
ARC
  8
CSLAYER1
  6
CONTINUOUS
 62
     4
 10
603.379393
 20
1101.496988
 40
2.000000
 50
180.000000
 51
270.000000
  0
ARC
  8
CSLAYER1
  6
CONTINUOUS
 62
     4
 10
578.854393
 20
1098.496988
 40
1.000000
 50
90.000000
 51
180.000000
  0
ARC
  8
CSLAYER1
  6
CONTINUOUS
 62
     4
 10
603.904393
 20
1098.496988
 40
1.000000
 50
0.000000
 51
90.000000
  0
POINT
  8
CSLAYER1
 62
     4
 10
591.379393
 20
1099.496988
  0
LINE
  8
CSLAYER1
  6
CONTINUOUS
 62
     4
 10
609.279393
 20
1039.746988
 11
609.279393
 21
1097.496988
  0
LINE
  8
CSLAYER1
  6
CONTINUOUS
 62
     4
 10
573.479393
 20
1039.746988
 11
573.479393
 21
1097.496988
  0
LINE
  8
CSLAYER1
  6
CONTINUOUS
 62
     4
 10
594.579393
 20
434.858387
 11
594.579393
 21
460.520133
  0
LINE
  8
CSLAYER1
  6
CONTINUOUS
 62
     5
 10
588.750216
 20
452.775454
 11
623.290346
 21
452.775454
  0
LINE
  8
CSLAYER1
  6
CONTINUOUS
 62
     4
 10
593.379393
 20
457.775454
 11
594.579393
 21
457.775454
  0
LINE
  8
CSLAYER1
  6
CONTINUOUS
 62
     4
 10
593.379393
 20
447.775454
 11
594.579393
 21
447.775454
  0
LINE
  8
CSLAYER1
  6
CONTINUOUS
 62
     4
 10
594.579393
 20
447.469163
 11
597.579393
 21
447.469163
  0
LINE
  8
CSLAYER1
  6
CENTER
 62
     5
 10
658.940383
 20
724.124769
 11
590.991732
 21
724.124769
  0
POINT
  8
CSLAYER1
 62
     4
 10
591.379393
 20
1020.996988
  0
LINE
  8
CSLAYER1
  6
CONTINUOUS
 62
     4
 10
600.904393
 20
1005.946988
 11
604.904393
 21
1005.946988
  0
LINE
  8
CSLAYER1
  6
CONTINUOUS
 62
     4
 10
599.904393
 20
1030.521988
 11
582.854393
 21
1030.521988
  0
LINE
  8
CSLAYER1
  6
CONTINUOUS
 62
     4
 10
599.904393
 20
1011.471988
 11
582.854393
 21
1011.471988
  0
ARC
  8
CSLAYER1
  6
CONTINUOUS
 62
     4
 10
599.904393
 20
1029.521988
 40
1.000000
 50
0.000000
 51
90.000000
  0
ARC
  8
CSLAYER1
  6
CONTINUOUS
 62
     4
 10
599.904393
 20
1012.471988
 40
1.000000
 50
270.000000
 51
360.000000
  0
LINE
  8
CSLAYER1
  6
CONTINUOUS
 62
     4
 10
581.854393
 20
1005.946988
 11
577.854393
 21
1005.946988
  0
ARC
  8
CSLAYER1
  6
CONTINUOUS
 62
     4
 10
582.854393
 20
1029.521988
 40
1.000000
 50
90.000000
 51
180.000000
  0
ARC
  8
CSLAYER1
  6
CONTINUOUS
 62
     4
 10
582.854393
 20
1012.471988
 40
1.000000
 50
180.000000
 51
270.000000
  0
LINE
  8
CSLAYER1
  6
CONTINUOUS
 62
     4
 10
611.129393
 20
1024.766988
 11
611.129393
 21
1017.217262
  0
LINE
  8
CSLAYER1
  6
CONTINUOUS
 62
     4
 10
604.904393
 20
1033.996988
 11
609.279393
 21
1033.996988
  0
LINE
  8
CSLAYER1
  6
CONTINUOUS
 62
     4
 10
609.279393
 20
1025.766988
 11
610.129393
 21
1025.766988
  0
LINE
  8
CSLAYER1
  6
CONTINUOUS
 62
     4
 10
609.279393
 20
1016.217262
 11
610.129393
 21
1016.217262
  0
ARC
  8
CSLAYER1
  6
CONTINUOUS
 62
     4
 10
610.129393
 20
1024.766988
 40
1.000000
 50
0.000000
 51
90.000000
  0
ARC
  8
CSLAYER1
  6
CONTINUOUS
 62
     4
 10
610.129393
 20
1017.217262
 40
1.000000
 50
270.000000
 51
360.000000
  0
LINE
  8
CSLAYER1
  6
CONTINUOUS
 62
     4
 10
571.629393
 20
1024.766988
 11
571.629393
 21
1017.217262
  0
LINE
  8
CSLAYER1
  6
CONTINUOUS
 62
     4
 10
577.854393
 20
1033.996988
 11
573.479393
 21
1033.996988
  0
LINE
  8
CSLAYER1
  6
CONTINUOUS
 62
     4
 10
573.479393
 20
1025.766988
 11
572.629393
 21
1025.766988
  0
LINE
  8
CSLAYER1
  6
CONTINUOUS
 62
     4
 10
573.479393
 20
1016.217262
 11
572.629393
 21
1016.217262
  0
ARC
  8
CSLAYER1
  6
CONTINUOUS
 62
     4
 10
572.629393
 20
1024.766988
 40
1.000000
 50
90.000000
 51
180.000000
  0
ARC
  8
CSLAYER1
  6
CONTINUOUS
 62
     4
 10
572.629393
 20
1017.217262
 40
1.000000
 50
180.000000
 51
270.000000
  0
LINE
  8
CSLAYER1
  6
CONTINUOUS
 62
     4
 10
573.479393
 20
1033.996988
 11
573.479393
 21
976.246988
  0
LINE
  8
CSLAYER1
  6
CONTINUOUS
 62
     4
 10
609.279393
 20
1033.996988
 11
609.279393
 21
976.246988
  0
LINE
  8
CSLAYER1
  6
CONTINUOUS
 62
     4
 10
594.579393
 20
451.816382
 11
597.579393
 21
451.816382
  0
LINE
  8
CSLAYER1
  6
CONTINUOUS
 62
     4
 10
594.579393
 20
460.520133
 11
598.579393
 21
460.520133
  0
LINE
  8
CSLAYER1
  6
CONTINUOUS
 62
     4
 10
597.579393
 20
434.858387
 11
597.579393
 21
460.520133
  0
LINE
  8
CSLAYER1
  6
CONTINUOUS
 62
     4
 10
613.579393
 20
434.858387
 11
613.579393
 21
460.520133
  0
LINE
  8
CSLAYER1
  6
CONTINUOUS
 62
     4
 10
602.079393
 20
478.548456
 11
602.079393
 21
490.860192
  0
LINE
  8
CSLAYER1
  6
CONTINUOUS
 62
     4
 10
609.079393
 20
478.548456
 11
609.079393
 21
490.860192
  0
LINE
  8
CSLAYER1
  6
CONTINUOUS
 62
     4
 10
598.579393
 20
451.233958
 11
598.579393
 21
466.564317
  0
LINE
  8
CSLAYER1
  6
CONTINUOUS
 62
     4
 10
612.579393
 20
451.233958
 11
612.579393
 21
466.564317
  0
LINE
  8
CSLAYER1
  6
CONTINUOUS
 62
     4
 10
603.579393
 20
478.548456
 11
603.579393
 21
506.838125
  0
LINE
  8
CSLAYER1
  6
CONTINUOUS
 62
     4
 10
607.579393
 20
478.548456
 11
607.579393
 21
502.798682
  0
LINE
  8
CSLAYER1
  6
CONTINUOUS
 62
     4
 10
600.040210
 20
478.548456
 11
611.118575
 21
478.548456
  0
LINE
  8
CSLAYER1
  6
CONTINUOUS
 62
     4
 10
597.579393
 20
451.233958
 11
613.579393
 21
451.233958
  0
LINE
  8
CSLAYER1
  6
CONTINUOUS
 62
     4
 10
612.579393
 20
466.564317
 11
611.118575
 21
478.548456
  0
LINE
  8
CSLAYER1
  6
CONTINUOUS
 62
     4
 10
598.579393
 20
466.564317
 11
600.040210
 21
478.548456
  0
LINE
  8
CSLAYER1
  6
CONTINUOUS
 62
     4
 10
614.579393
 20
444.982995
 11
614.579393
 21
452.582995
  0
LINE
  8
CSLAYER1
  6
CONTINUOUS
 62
     4
 10
614.579393
 20
444.982995
 11
613.579393
 21
444.982995
  0
LINE
  8
CSLAYER1
  6
CONTINUOUS
 62
     4
 10
614.579393
 20
452.582995
 11
613.579393
 21
452.582995
  0
LINE
  8
CSLAYER1
  6
CONTINUOUS
 62
     4
 10
617.179393
 20
447.282995
 11
617.179393
 21
450.282995
  0
LINE
  8
CSLAYER1
  6
CONTINUOUS
 62
     4
 10
615.179393
 20
445.282995
 11
614.579393
 21
445.282995
  0
LINE
  8
CSLAYER1
  6
CONTINUOUS
 62
     4
 10
615.179393
 20
452.282995
 11
614.579393
 21
452.282995
  0
ARC
  8
CSLAYER1
  6
CONTINUOUS
 62
     4
 10
615.179393
 20
447.282995
 40
2.000000
 50
270.000000
 51
360.000000
  0
ARC
  8
CSLAYER1
  6
CONTINUOUS
 62
     4
 10
615.179393
 20
450.282995
 40
2.000000
 50
0.000000
 51
90.000000
  0
LINE
  8
CSLAYER1
  6
CONTINUOUS
 62
     4
 10
612.579393
 20
460.520133
 11
613.579393
 21
460.520133
  0
LINE
  8
CSLAYER1
  6
CONTINUOUS
 62
     4
 10
607.579393
 20
490.351985
 11
609.079393
 21
490.351985
  0
LINE
  8
CSLAYER1
  6
CONTINUOUS
 62
     4
 10
607.579393
 20
490.860192
 11
609.079393
 21
490.860192
  0
LINE
  8
CSLAYER1
  6
CONTINUOUS
 62
     4
 10
602.833331
 20
507.285762
 11
611.807492
 21
499.508156
  0
LINE
  8
CSLAYER1
  6
CONTINUOUS
 62
     4
 10
593.379393
 20
457.775454
 11
593.379393
 21
447.775454
  0
LINE
  8
CSLAYER1
  6
CONTINUOUS
 62
     4
 10
613.579393
 20
457.775454
 11
623.379393
 21
457.775454
  0
LINE
  8
CSLAYER1
  6
CONTINUOUS
 62
     4
 10
617.117816
 20
447.775454
 11
623.379393
 21
447.775454
  0
LINE
  8
CSLAYER1
  6
CONTINUOUS
 62
     4
 10
623.379393
 20
434.858387
 11
623.379393
 21
1238.404006
  0
LINE
  8
CSLAYER1
  6
CONTINUOUS
 62
     4
 10
639.379393
 20
434.858387
 11
639.379393
 21
1238.404006
  0
LINE
  8
CSLAYER1
  6
CONTINUOUS
 62
     4
 10
560.929393
 20
1017.564220
 11
560.929393
 21
777.652448
  0
LINE
  8
CSLAYER1
  6
CONTINUOUS
 62
     4
 10
546.629393
 20
1141.829680
 11
546.629393
 21
1035.810062
  0
LINE
  8
CSLAYER1
  6
CONTINUOUS
 62
     4
 10
560.929393
 20
1017.564220
 11
560.759866
 21
1019.678938
  0
LINE
  8
CSLAYER1
  6
CONTINUOUS
 62
     4
 10
560.759866
 20
1019.678938
 11
560.252578
 21
1021.777562
  0
LINE
  8
CSLAYER1
  6
CONTINUOUS
 62
     4
 10
560.252578
 20
1021.777562
 11
559.411388
 21
1023.844120
  0
LINE
  8
CSLAYER1
  6
CONTINUOUS
 62
     4
 10
559.411388
 20
1023.844120
 11
558.242699
 21
1025.862884
  0
LINE
  8
CSLAYER1
  6
CONTINUOUS
 62
     4
 10
558.242699
 20
1025.862884
 11
556.755404
 21
1027.818490
  0
LINE
  8
CSLAYER1
  6
CONTINUOUS
 62
     4
 10
556.755404
 20
1027.818490
 11
554.960824
 21
1029.696055
  0
LINE
  8
CSLAYER1
  6
CONTINUOUS
 62
     4
 10
554.960824
 20
1029.696055
 11
552.872616
 21
1031.481289
  0
LINE
  8
CSLAYER1
  6
CONTINUOUS
 62
     4
 10
552.872616
 20
1031.481289
 11
550.506673
 21
1033.160606
  0
LINE
  8
CSLAYER1
  6
CONTINUOUS
 62
     4
 10
550.506673
 20
1033.160606
 11
547.881000
 21
1034.721225
  0
LINE
  8
CSLAYER1
  6
CONTINUOUS
 62
     4
 10
547.881000
 20
1034.721225
 11
545.015581
 21
1036.151269
  0
LINE
  8
CSLAYER1
  6
CONTINUOUS
 62
     4
 10
545.015581
 20
1036.151269
 11
541.932223
 21
1037.439854
  0
LINE
  8
CSLAYER1
  6
CONTINUOUS
 62
     4
 10
541.932223
 20
1037.439854
 11
538.654393
 21
1038.577174
  0
LINE
  8
CSLAYER1
  6
CONTINUOUS
 62
     4
 10
538.654393
 20
1038.577174
 11
535.207036
 21
1039.554572
  0
LINE
  8
CSLAYER1
  6
CONTINUOUS
 62
     4
 10
535.207036
 20
1039.554572
 11
531.616390
 21
1040.364611
  0
LINE
  8
CSLAYER1
  6
CONTINUOUS
 62
     4
 10
531.616390
 20
1040.364611
 11
527.909781
 21
1041.001125
  0
LINE
  8
CSLAYER1
  6
CONTINUOUS
 62
     4
 10
527.909781
 20
1041.001125
 11
524.115419
 21
1041.459270
  0
LINE
  8
CSLAYER1
  6
CONTINUOUS
 62
     4
 10
524.115419
 20
1041.459270
 11
520.262181
 21
1041.735559
  0
LINE
  8
CSLAYER1
  6
CONTINUOUS
 62
     4
 10
520.262181
 20
1041.735559
 11
516.379393
 21
1041.827889
  0
LINE
  8
CSLAYER1
  6
CONTINUOUS
 62
     4
 10
682.379393
 20
662.344212
 11
639.379393
 21
662.344212
  0
LINE
  8
CSLAYER1
  6
CONTINUOUS
 62
     4
 10
682.379393
 20
582.930955
 11
639.379393
 21
582.930955
  0
LINE
  8
CSLAYER1
  6
CONTINUOUS
 62
     4
 10
639.379393
 20
677.537826
 11
682.379393
 21
677.537826
  0
LINE
  8
CSLAYER1
  6
CONTINUOUS
 62
     4
 10
623.379393
 20
662.344212
 11
571.502845
 21
662.344212
  0
LINE
  8
CSLAYER1
  6
CONTINUOUS
 62
     4
 10
623.379393
 20
582.930955
 11
601.379393
 21
582.930955
  0
LINE
  8
CSLAYER1
  6
CONTINUOUS
 62
     4
 10
593.936059
 20
677.537826
 11
623.379393
 21
677.537826
  0
LINE
  8
CSLAYER1
  6
CONTINUOUS
 62
     4
 10
698.379393
 20
1148.204006
 11
698.379393
 21
782.031196
  0
LINE
  8
CSLAYER1
  6
CONTINUOUS
 62
     4
 10
682.379393
 20
1148.204006
 11
682.379393
 21
434.858387
  0
LINE
  8
CSLAYER1
  6
CONTINUOUS
 62
     4
 10
766.379393
 20
1238.404006
 11
266.379393
 21
1238.404006
  0
ARC
  8
CSLAYER1
  6
CONTINUOUS
 62
     4
 10
763.379393
 20
1288.404006
 40
3.000000
 50
0.000000
 51
90.000000
  0
LINE
  8
CSLAYER1
  6
CENTER
 62
     5
 10
591.379393
 20
1256.626115
 11
591.379393
 21
771.623659
  0
LINE
  8
CSLAYER1
  6
CONTINUOUS
 62
     4
 10
641.379393
 20
740.124769
 11
641.379393
 21
708.124769
  0
LINE
  8
CSLAYER1
  6
CONTINUOUS
 62
     4
 10
651.379393
 20
738.124769
 11
651.379393
 21
710.124769
  0
LINE
  8
CSLAYER1
  6
CONTINUOUS
 62
     4
 10
649.379393
 20
740.124769
 11
641.379393
 21
740.124769
  0
LINE
  8
CSLAYER1
  6
CONTINUOUS
 62
     4
 10
651.379393
 20
738.124769
 11
649.379393
 21
740.124769
  0
LINE
  8
CSLAYER1
  6
CONTINUOUS
 62
     4
 10
649.379393
 20
740.124769
 11
649.379393
 21
708.124769
  0
LINE
  8
CSLAYER1
  6
CONTINUOUS
 62
     4
 10
649.379393
 20
708.124769
 11
641.379393
 21
708.124769
  0
LINE
  8
CSLAYER1
  6
CONTINUOUS
 62
     4
 10
651.379393
 20
710.124769
 11
649.379393
 21
708.124769
  0
LINE
  8
CSLAYER1
  6
CONTINUOUS
 62
     4
 10
641.379393
 20
738.124769
 11
639.379393
 21
738.124769
  0
LINE
  8
CSLAYER1
  6
CONTINUOUS
 62
     4
 10
641.379393
 20
710.124769
 11
639.379393
 21
710.124769
  0
LINE
  8
CSLAYER1
  6
CONTINUOUS
 62
     4
 10
648.379393
 20
1213.204006
 11
673.379393
 21
1213.204006
  0
LINE
  8
CSLAYER1
  6
CONTINUOUS
 62
     4
 10
673.379393
 20
1188.204006
 11
645.879393
 21
1188.204006
  0
LINE
  8
CSLAYER1
  6
CONTINUOUS
 62
     4
 10
673.379393
 20
1238.404006
 11
673.379393
 21
1188.204006
  0
LINE
  8
CSLAYER1
  6
CONTINUOUS
 62
     4
 10
648.379393
 20
1188.204006
 11
648.379393
 21
1238.404006
  0
LINE
  8
CSLAYER1
  6
CONTINUOUS
 62
     4
 10
663.879393
 20
1238.404006
 11
663.879393
 21
1213.204006
  0
LINE
  8
CSLAYER1
  6
CONTINUOUS
 62
     4
 10
657.879393
 20
1238.404006
 11
657.879393
 21
1213.204006
  0
LINE
  8
CSLAYER1
  6
CENTER
 62
     5
 10
617.695618
 20
1167.204006
 11
713.110030
 21
1167.204006
  0
LINE
  8
CSLAYER1
  6
CONTINUOUS
 62
     4
 10
644.879393
 20
1187.204006
 11
644.879393
 21
1147.204006
  0
LINE
  8
CSLAYER1
  6
CONTINUOUS
 62
     4
 10
671.379393
 20
1178.755648
 11
671.379393
 21
1155.652363
  0
LINE
  8
CSLAYER1
  6
CONTINUOUS
 62
     4
 10
672.529393
 20
1178.755648
 11
672.529393
 21
1155.652363
  0
LINE
  8
CSLAYER1
  6
CONTINUOUS
 62
     4
 10
673.379393
 20
1174.704006
 11
672.529393
 21
1174.704006
  0
LINE
  8
CSLAYER1
  6
CONTINUOUS
 62
     4
 10
672.529393
 20
1178.755648
 11
671.379393
 21
1178.755648
  0
LINE
  8
CSLAYER1
  6
CONTINUOUS
 62
     4
 10
671.379393
 20
1174.704006
 11
670.879393
 21
1174.704006
  0
LINE
  8
CSLAYER1
  6
CONTINUOUS
 62
     4
 10
670.879393
 20
1187.204006
 11
670.879393
 21
1147.204006
  0
ARC
  8
CSLAYER1
  6
CONTINUOUS
 62
     4
 10
645.879393
 20
1187.204006
 40
1.000000
 50
90.000000
 51
180.000000
  0
ARC
  8
CSLAYER1
  6
CONTINUOUS
 62
     4
 10
669.879393
 20
1187.204006
 40
1.000000
 50
0.000000
 51
90.000000
  0
ARC
  8
CSLAYER1
  6
CONTINUOUS
 62
     4
 10
658.879393
 20
1187.204006
 40
1.000000
 50
90.000000
 51
180.000000
  0
ARC
  8
CSLAYER1
  6
CONTINUOUS
 62
     4
 10
656.879393
 20
1187.204006
 40
1.000000
 50
0.000000
 51
90.000000
  0
LINE
  8
CSLAYER1
  6
CONTINUOUS
 62
     4
 10
673.879393
 20
1238.404006
 11
673.879393
 21
1148.204006
  0
LINE
  8
CSLAYER1
  6
CONTINUOUS
 62
     4
 10
669.879393
 20
1146.204006
 11
658.879393
 21
1146.204006
  0
LINE
  8
CSLAYER1
  6
CONTINUOUS
 62
     4
 10
673.379393
 20
1159.704006
 11
672.529393
 21
1159.704006
  0
LINE
  8
CSLAYER1
  6
CONTINUOUS
 62
     4
 10
672.529393
 20
1155.652363
 11
671.379393
 21
1155.652363
  0
LINE
  8
CSLAYER1
  6
CONTINUOUS
 62
     4
 10
671.379393
 20
1159.704006
 11
670.879393
 21
1159.704006
  0
ARC
  8
CSLAYER1
  6
CONTINUOUS
 62
     4
 10
645.879393
 20
1147.204006
 40
1.000000
 50
180.000000
 51
270.000000
  0
ARC
  8
CSLAYER1
  6
CONTINUOUS
 62
     4
 10
669.879393
 20
1147.204006
 40
1.000000
 50
270.000000
 51
360.000000
  0
ARC
  8
CSLAYER1
  6
CONTINUOUS
 62
     4
 10
658.879393
 20
1147.204006
 40
1.000000
 50
180.000000
 51
270.000000
  0
ARC
  8
CSLAYER1
  6
CONTINUOUS
 62
     4
 10
656.879393
 20
1147.204006
 40
1.000000
 50
270.000000
 51
360.000000
  0
LINE
  8
CSLAYER1
  6
CONTINUOUS
 62
     4
 10
645.879393
 20
1146.204006
 11
656.879393
 21
1146.204006
  0
LINE
  8
CSLAYER1
  6
CONTINUOUS
 62
     4
 10
644.879393
 20
1167.204006
 11
643.879393
 21
1167.204006
  0
LINE
  8
CSLAYER1
  6
CONTINUOUS
 62
     4
 10
644.379393
 20
1177.204006
 11
644.879393
 21
1176.704006
  0
LINE
  8
CSLAYER1
  6
CONTINUOUS
 62
     4
 10
644.379393
 20
1157.204006
 11
644.879393
 21
1157.704006
  0
LINE
  8
CSLAYER1
  6
CONTINUOUS
 62
     4
 10
623.379393
 20
1216.719146
 11
409.379393
 21
1216.719146
  0
LINE
  8
CSLAYER1
  6
CONTINUOUS
 62
     4
 10
546.629393
 20
1141.829680
 11
570.879393
 21
1141.829680
  0
LINE
  8
CSLAYER1
  6
CONTINUOUS
 62
     4
 10
617.379393
 20
1150.079680
 11
572.879393
 21
1150.079680
  0
LINE
  8
CSLAYER1
  6
CONTINUOUS
 62
     4
 10
617.379393
 20
1194.079680
 11
572.879393
 21
1194.079680
  0
LINE
  8
CSLAYER1
  6
CONTINUOUS
 62
     4
 10
572.879393
 20
1200.329680
 11
572.879393
 21
1143.829680
  0
LINE
  8
CSLAYER1
  6
CONTINUOUS
 62
     4
 10
570.879393
 20
1202.329680
 11
461.879393
 21
1202.329680
  0
LINE
  8
CSLAYER1
  6
CONTINUOUS
 62
     4
 10
572.879393
 20
1200.329680
 11
570.879393
 21
1202.329680
  0
LINE
  8
CSLAYER1
  6
CONTINUOUS
 62
     4
 10
572.879393
 20
1143.829680
 11
570.879393
 21
1141.829680
  0
LINE
  8
CSLAYER1
  6
CONTINUOUS
 62
     4
 10
617.379393
 20
1194.079680
 11
622.379393
 21
1189.079680
  0
LINE
  8
CSLAYER1
  6
CONTINUOUS
 62
     4
 10
617.379393
 20
1194.079680
 11
617.379393
 21
1150.079680
  0
LINE
  8
CSLAYER1
  6
CONTINUOUS
 62
     4
 10
617.379393
 20
1150.079680
 11
622.379393
 21
1155.079680
  0
LINE
  8
CSLAYER1
  6
CONTINUOUS
 62
     4
 10
606.379393
 20
1212.279680
 11
576.379393
 21
1212.279680
  0
LINE
  8
CSLAYER1
  6
CONTINUOUS
 62
     4
 10
608.699901
 20
1197.279680
 11
608.699901
 21
1210.939935
  0
LINE
  8
CSLAYER1
  6
CONTINUOUS
 62
     4
 10
600.039647
 20
1197.279680
 11
600.039647
 21
1210.939935
  0
LINE
  8
CSLAYER1
  6
CONTINUOUS
 62
     4
 10
606.379393
 20
1212.279680
 11
608.699901
 21
1210.939935
  0
ARC
  8
CSLAYER1
  6
CONTINUOUS
 62
     4
 10
604.369774
 20
1204.625063
 40
7.656867
 50
55.561448
 51
124.438552
  0
ARC
  8
CSLAYER1
  6
CONTINUOUS
 62
     4
 10
591.379393
 20
1183.619426
 40
28.660254
 50
72.412046
 51
107.587954
  0
LINE
  8
CSLAYER1
  6
CONTINUOUS
 62
     4
 10
572.879393
 20
1197.279680
 11
609.879393
 21
1197.279680
  0
LINE
  8
CSLAYER1
  6
CONTINUOUS
 62
     4
 10
604.379393
 20
1214.779680
 11
578.379393
 21
1214.779680
  0
LINE
  8
CSLAYER1
  6
CONTINUOUS
 62
     4
 10
606.379393
 20
1212.279680
 11
606.379393
 21
1212.779680
  0
ARC
  8
CSLAYER1
  6
CONTINUOUS
 62
     4
 10
604.379393
 20
1212.779680
 40
2.000000
 50
0.000000
 51
90.000000
  0
LINE
  8
CSLAYER1
  6
CONTINUOUS
 62
     4
 10
574.058884
 20
1197.279680
 11
574.058884
 21
1210.939935
  0
LINE
  8
CSLAYER1
  6
CONTINUOUS
 62
     4
 10
582.719139
 20
1197.279680
 11
582.719139
 21
1210.939935
  0
LINE
  8
CSLAYER1
  6
CONTINUOUS
 62
     4
 10
576.379393
 20
1212.279680
 11
574.058884
 21
1210.939935
  0
ARC
  8
CSLAYER1
  6
CONTINUOUS
 62
     4
 10
578.389012
 20
1204.625063
 40
7.656867
 50
55.561448
 51
124.438552
  0
LINE
  8
CSLAYER1
  6
CONTINUOUS
 62
     4
 10
576.379393
 20
1212.279680
 11
576.379393
 21
1212.779680
  0
ARC
  8
CSLAYER1
  6
CONTINUOUS
 62
     4
 10
578.379393
 20
1212.779680
 40
2.000000
 50
90.000000
 51
180.000000
  0
LINE
  8
CSLAYER1
  6
CONTINUOUS
 62
     4
 10
601.379393
 20
1214.779680
 11
601.379393
 21
1216.719146
  0
LINE
  8
CSLAYER1
  6
CONTINUOUS
 62
     4
 10
599.879393
 20
1214.779680
 11
599.879393
 21
1216.719146
  0
LINE
  8
CSLAYER1
  6
CONTINUOUS
 62
     4
 10
609.879393
 20
1194.079680
 11
609.879393
 21
1197.279680
  0
LINE
  8
CSLAYER1
  6
CONTINUOUS
 62
     4
 10
581.379393
 20
1214.779680
 11
581.379393
 21
1216.719146
  0
LINE
  8
CSLAYER1
  6
CONTINUOUS
 62
     4
 10
582.879393
 20
1214.779680
 11
582.879393
 21
1216.719146
  0
LINE
  8
CSLAYER1
  6
CONTINUOUS
 62
     4
 10
570.879393
 20
1202.329680
 11
570.879393
 21
1141.829680
  0
LINE
  8
CSLAYER1
  6
CONTINUOUS
 62
     4
 10
519.015854
 20
1158.242318
 11
521.632250
 21
1158.054714
  0
LINE
  8
CSLAYER1
  6
CONTINUOUS
 62
     4
 10
521.632250
 20
1158.054714
 11
524.208669
 21
1157.743628
  0
LINE
  8
CSLAYER1
  6
CONTINUOUS
 62
     4
 10
524.208669
 20
1157.743628
 11
526.725502
 21
1157.311427
  0
LINE
  8
CSLAYER1
  6
CONTINUOUS
 62
     4
 10
526.725502
 20
1157.311427
 11
529.163595
 21
1156.761401
  0
LINE
  8
CSLAYER1
  6
CONTINUOUS
 62
     4
 10
529.163595
 20
1156.761401
 11
531.504393
 21
1156.097735
  0
LINE
  8
CSLAYER1
  6
CONTINUOUS
 62
     4
 10
531.504393
 20
1156.097735
 11
533.730080
 21
1155.325481
  0
LINE
  8
CSLAYER1
  6
CONTINUOUS
 62
     4
 10
533.730080
 20
1155.325481
 11
535.823718
 21
1154.450516
  0
LINE
  8
CSLAYER1
  6
CONTINUOUS
 62
     4
 10
535.823718
 20
1154.450516
 11
537.769373
 21
1153.479499
  0
LINE
  8
CSLAYER1
  6
CONTINUOUS
 62
     4
 10
537.769373
 20
1153.479499
 11
539.552237
 21
1152.419819
  0
LINE
  8
CSLAYER1
  6
CONTINUOUS
 62
     4
 10
539.552237
 20
1152.419819
 11
541.158742
 21
1151.279542
  0
LINE
  8
CSLAYER1
  6
CONTINUOUS
 62
     4
 10
541.158742
 20
1151.279542
 11
542.576661
 21
1150.067346
  0
LINE
  8
CSLAYER1
  6
CONTINUOUS
 62
     4
 10
542.576661
 20
1150.067346
 11
543.795203
 21
1148.792456
  0
LINE
  8
CSLAYER1
  6
CONTINUOUS
 62
     4
 10
543.795203
 20
1148.792456
 11
544.805094
 21
1147.464575
  0
LINE
  8
CSLAYER1
  6
CONTINUOUS
 62
     4
 10
544.805094
 20
1147.464575
 11
545.598649
 21
1146.093810
  0
LINE
  8
CSLAYER1
  6
CONTINUOUS
 62
     4
 10
545.598649
 20
1146.093810
 11
546.169827
 21
1144.690592
  0
LINE
  8
CSLAYER1
  6
CONTINUOUS
 62
     4
 10
546.169827
 20
1144.690592
 11
546.514282
 21
1143.265600
  0
LINE
  8
CSLAYER1
  6
CONTINUOUS
 62
     4
 10
546.514282
 20
1143.265600
 11
546.629393
 21
1141.829680
  0
LINE
  8
CSLAYER1
  6
CONTINUOUS
 62
     4
 10
644.379393
 20
1177.204006
 11
643.379393
 21
1177.204006
  0
LINE
  8
CSLAYER1
  6
CONTINUOUS
 62
     4
 10
644.379393
 20
1157.204006
 11
640.729393
 21
1157.204006
  0
LINE
  8
CSLAYER1
  6
CONTINUOUS
 62
     4
 10
622.379393
 20
1201.979680
 11
622.379393
 21
1142.179680
  0
ARC
  8
CSLAYER1
  6
CONTINUOUS
 62
     4
 10
623.479393
 20
1201.979680
 40
1.100000
 50
95.215909
 51
180.000000
  0
ARC
  8
CSLAYER1
  6
CONTINUOUS
 62
     4
 10
623.479393
 20
1142.179680
 40
1.100000
 50
180.000000
 51
264.784091
  0
LINE
  8
CSLAYER1
  6
CONTINUOUS
 62
     4
 10
641.879393
 20
1184.579680
 11
640.729393
 21
1184.579680
  0
LINE
  8
CSLAYER1
  6
CONTINUOUS
 62
     4
 10
640.729393
 20
1187.129680
 11
639.379393
 21
1187.129680
  0
LINE
  8
CSLAYER1
  6
CONTINUOUS
 62
     4
 10
640.729393
 20
1187.129680
 11
640.729393
 21
1157.029680
  0
LINE
  8
CSLAYER1
  6
CONTINUOUS
 62
     4
 10
643.379393
 20
1183.079680
 11
643.379393
 21
1161.079680
  0
LINE
  8
CSLAYER1
  6
CONTINUOUS
 62
     4
 10
643.379393
 20
1183.079680
 11
641.879393
 21
1184.579680
  0
LINE
  8
CSLAYER1
  6
CONTINUOUS
 62
     4
 10
641.879393
 20
1184.579680
 11
641.879393
 21
1159.579680
  0
LINE
  8
CSLAYER1
  6
CONTINUOUS
 62
     4
 10
641.879393
 20
1159.579680
 11
640.729393
 21
1159.579680
  0
LINE
  8
CSLAYER1
  6
CONTINUOUS
 62
     4
 10
640.729393
 20
1157.029680
 11
639.379393
 21
1157.029680
  0
LINE
  8
CSLAYER1
  6
CONTINUOUS
 62
     4
 10
643.379393
 20
1161.079680
 11
641.879393
 21
1159.579680
  0
LINE
  8
CSLAYER1
  6
CONTINUOUS
 62
     4
 10
657.879393
 20
1187.204006
 11
657.879393
 21
1147.204006
  0
LINE
  8
CSLAYER1
  6
CONTINUOUS
 62
     3
 10
718.079393
 20
1167.204006
 11
718.079393
 21
1176.704006
  0
LINE
  8
CSLAYER1
  6
CONTINUOUS
 62
     4
 10
714.879393
 20
1238.404006
 11
714.879393
 21
1148.204006
  0
LINE
  8
CSLAYER1
  6
CONTINUOUS
 62
     4
 10
673.879393
 20
1148.204006
 11
714.879393
 21
1148.204006
  0
LINE
  8
CSLAYER1
  6
CONTINUOUS
 62
     4
 10
718.079393
 20
1190.204006
 11
718.079393
 21
1159.204006
  0
LINE
  8
CSLAYER1
  6
CONTINUOUS
 62
     5
 10
722.570267
 20
1182.204006
 11
708.879393
 21
1182.204006
  0
LINE
  8
CSLAYER1
  6
CONTINUOUS
 62
     4
 10
718.079393
 20
1190.204006
 11
714.879393
 21
1190.204006
  0
LINE
  8
CSLAYER1
  6
CONTINUOUS
 62
     4
 10
672.879393
 20
1160.204006
 11
672.879393
 21
1174.204006
  0
LINE
  8
CSLAYER1
  6
CONTINUOUS
 62
     4
 10
672.879393
 20
1160.204006
 11
673.879393
 21
1159.204006
  0
LINE
  8
CSLAYER1
  6
CONTINUOUS
 62
     4
 10
718.079393
 20
1159.204006
 11
714.879393
 21
1159.204006
  0
LINE
  8
CSLAYER1
  6
CONTINUOUS
 62
     4
 10
672.879393
 20
1174.204006
 11
673.879393
 21
1175.204006
  0
LINE
  8
CSLAYER1
  6
CONTINUOUS
 62
     4
 10
718.079393
 20
1163.204006
 11
714.879393
 21
1163.204006
  0
LINE
  8
CSLAYER1
  6
CONTINUOUS
 62
     4
 10
718.079393
 20
1171.204006
 11
714.879393
 21
1171.204006
  0
LINE
  8
CSLAYER1
  6
CONTINUOUS
 62
     4
 10
577.379393
 20
777.652448
 11
577.379393
 21
795.031196
  0
LINE
  8
CSLAYER1
  6
CONTINUOUS
 62
     4
 10
578.379393
 20
777.652448
 11
578.379393
 21
796.031196
  0
LINE
  8
CSLAYER1
  6
CONTINUOUS
 62
     4
 10
583.379393
 20
796.031196
 11
580.352852
 21
796.031196
  0
LINE
  8
CSLAYER1
  6
CONTINUOUS
 62
     4
 10
577.379393
 20
795.031196
 11
578.379393
 21
796.031196
  0
LINE
  8
CSLAYER1
  6
CONTINUOUS
 62
     4
 10
600.379393
 20
801.031196
 11
601.379393
 21
802.031196
  0
LINE
  8
CSLAYER1
  6
CONTINUOUS
 62
     4
 10
578.379393
 20
796.031196
 11
583.445651
 21
801.015878
  0
LINE
  8
CSLAYER1
  6
CONTINUOUS
 62
     4
 10
583.379393
 20
800.950686
 11
578.459903
 21
796.031196
  0
LINE
  8
CSLAYER1
  6
CONTINUOUS
 62
     4
 10
583.379393
 20
800.667844
 11
578.742746
 21
796.031196
  0
LINE
  8
CSLAYER1
  6
CONTINUOUS
 62
     4
 10
583.379393
 20
800.385001
 11
579.025588
 21
796.031196
  0
LINE
  8
CSLAYER1
  6
CONTINUOUS
 62
     4
 10
583.379393
 20
800.102158
 11
579.308431
 21
796.031196
  0
LINE
  8
CSLAYER1
  6
CONTINUOUS
 62
     4
 10
583.379393
 20
799.819315
 11
579.591274
 21
796.031196
  0
LINE
  8
CSLAYER1
  6
CONTINUOUS
 62
     4
 10
583.379393
 20
799.536473
 11
579.874116
 21
796.031196
  0
LINE
  8
CSLAYER1
  6
CONTINUOUS
 62
     4
 10
583.379393
 20
799.253630
 11
580.156959
 21
796.031196
  0
LINE
  8
CSLAYER1
  6
CONTINUOUS
 62
     4
 10
583.379393
 20
798.970787
 11
580.439802
 21
796.031196
  0
LINE
  8
CSLAYER1
  6
CONTINUOUS
 62
     4
 10
583.379393
 20
798.687945
 11
580.722645
 21
796.031196
  0
LINE
  8
CSLAYER1
  6
CONTINUOUS
 62
     4
 10
583.379393
 20
798.405102
 11
581.005487
 21
796.031196
  0
LINE
  8
CSLAYER1
  6
CONTINUOUS
 62
     4
 10
583.379393
 20
798.122259
 11
581.288330
 21
796.031196
  0
LINE
  8
CSLAYER1
  6
CONTINUOUS
 62
     4
 10
583.379393
 20
797.839416
 11
581.571173
 21
796.031196
  0
LINE
  8
CSLAYER1
  6
CONTINUOUS
 62
     4
 10
583.379393
 20
797.556574
 11
581.854015
 21
796.031196
  0
LINE
  8
CSLAYER1
  6
CONTINUOUS
 62
     4
 10
583.379393
 20
797.273731
 11
582.136858
 21
796.031196
  0
LINE
  8
CSLAYER1
  6
CONTINUOUS
 62
     4
 10
583.379393
 20
796.990888
 11
582.419701
 21
796.031196
  0
LINE
  8
CSLAYER1
  6
CONTINUOUS
 62
     4
 10
583.379393
 20
796.708046
 11
582.702544
 21
796.031196
  0
LINE
  8
CSLAYER1
  6
CONTINUOUS
 62
     4
 10
583.379393
 20
796.425203
 11
582.985386
 21
796.031196
  0
LINE
  8
CSLAYER1
  6
CONTINUOUS
 62
     4
 10
583.379393
 20
796.142360
 11
583.268229
 21
796.031196
  0
LINE
  8
CSLAYER1
  6
CONTINUOUS
 62
     4
 10
680.352852
 20
760.681196
 11
639.379393
 21
760.681196
  0
LINE
  8
CSLAYER1
  6
CONTINUOUS
 62
     4
 10
600.379393
 20
801.031196
 11
600.379393
 21
766.399442
  0
LINE
  8
CSLAYER1
  6
CONTINUOUS
 62
     4
 10
681.352852
 20
802.381196
 11
681.352852
 21
761.681196
  0
LINE
  8
CSLAYER1
  6
CONTINUOUS
 62
     4
 10
681.352852
 20
761.681196
 11
680.352852
 21
760.681196
  0
LINE
  8
CSLAYER1
  6
CONTINUOUS
 62
     4
 10
721.352852
 20
792.031196
 11
721.352852
 21
772.031196
  0
LINE
  8
CSLAYER1
  6
CONTINUOUS
 62
     4
 10
702.352852
 20
800.531196
 11
702.352852
 21
763.531196
  0
LINE
  8
CSLAYER1
  6
CONTINUOUS
 62
     4
 10
707.452852
 20
799.031196
 11
707.452852
 21
765.031196
  0
LINE
  8
CSLAYER1
  6
CONTINUOUS
 62
     4
 10
719.452852
 20
799.031196
 11
719.452852
 21
765.031196
  0
LINE
  8
CSLAYER1
  6
CONTINUOUS
 62
     4
 10
702.352852
 20
799.031196
 11
719.452852
 21
799.031196
  0
LINE
  8
CSLAYER1
  6
CONTINUOUS
 62
     4
 10
707.452852
 20
792.031196
 11
721.352852
 21
792.031196
  0
LINE
  8
CSLAYER1
  6
CONTINUOUS
 62
     4
 10
702.352852
 20
765.031196
 11
719.452852
 21
765.031196
  0
LINE
  8
CSLAYER1
  6
CONTINUOUS
 62
     4
 10
707.452852
 20
772.031196
 11
721.352852
 21
772.031196
  0
LINE
  8
CSLAYER1
  6
CONTINUOUS
 62
     4
 10
699.352852
 20
800.531196
 11
702.352852
 21
800.531196
  0
LINE
  8
CSLAYER1
  6
CONTINUOUS
 62
     4
 10
699.352852
 20
763.531196
 11
702.352852
 21
763.531196
  0
LINE
  8
CSLAYER1
  6
CONTINUOUS
 62
     4
 10
699.352852
 20
763.531196
 11
699.352852
 21
800.531196
  0
LINE
  8
CSLAYER1
  6
CENTER
 62
     5
 10
736.984261
 20
782.031196
 11
569.248164
 21
782.031196
  0
LINE
  8
CSLAYER1
  6
CONTINUOUS
 62
     4
 10
699.352852
 20
769.531196
 11
698.379393
 21
769.531196
  0
LINE
  8
CSLAYER1
  6
CONTINUOUS
 62
     4
 10
680.352852
 20
803.381196
 11
639.379393
 21
803.381196
  0
LINE
  8
CSLAYER1
  6
CONTINUOUS
 62
     4
 10
681.352852
 20
802.381196
 11
680.352852
 21
803.381196
  0
LINE
  8
CSLAYER1
  6
CONTINUOUS
 62
     4
 10
699.352852
 20
794.531196
 11
698.379393
 21
794.531196
  0
LINE
  8
CSLAYER1
  6
CONTINUOUS
 62
     4
 10
698.352852
 20
782.031196
 11
698.352852
 21
434.858387
  0
LINE
  8
CSLAYER1
  6
CONTINUOUS
 62
     4
 10
644.379393
 20
760.681196
 11
639.379393
 21
755.681196
  0
LINE
  8
CSLAYER1
  6
CONTINUOUS
 62
     4
 10
639.379393
 20
755.964039
 11
644.096550
 21
760.681196
  0
LINE
  8
CSLAYER1
  6
CONTINUOUS
 62
     4
 10
639.379393
 20
756.246882
 11
643.813707
 21
760.681196
  0
LINE
  8
CSLAYER1
  6
CONTINUOUS
 62
     4
 10
639.379393
 20
756.529725
 11
643.530864
 21
760.681196
  0
LINE
  8
CSLAYER1
  6
CONTINUOUS
 62
     4
 10
639.379393
 20
756.812567
 11
643.248022
 21
760.681196
  0
LINE
  8
CSLAYER1
  6
CONTINUOUS
 62
     4
 10
639.379393
 20
757.095410
 11
642.965179
 21
760.681196
  0
LINE
  8
CSLAYER1
  6
CONTINUOUS
 62
     4
 10
639.379393
 20
757.378253
 11
642.682336
 21
760.681196
  0
LINE
  8
CSLAYER1
  6
CONTINUOUS
 62
     4
 10
639.379393
 20
757.661095
 11
642.399494
 21
760.681196
  0
LINE
  8
CSLAYER1
  6
CONTINUOUS
 62
     4
 10
639.379393
 20
757.943938
 11
642.116651
 21
760.681196
  0
LINE
  8
CSLAYER1
  6
CONTINUOUS
 62
     4
 10
639.379393
 20
758.226781
 11
641.833808
 21
760.681196
  0
LINE
  8
CSLAYER1
  6
CONTINUOUS
 62
     4
 10
639.379393
 20
758.509624
 11
641.550965
 21
760.681196
  0
LINE
  8
CSLAYER1
  6
CONTINUOUS
 62
     4
 10
639.379393
 20
758.792466
 11
641.268123
 21
760.681196
  0
LINE
  8
CSLAYER1
  6
CONTINUOUS
 62
     4
 10
639.379393
 20
759.075309
 11
640.985280
 21
760.681196
  0
LINE
  8
CSLAYER1
  6
CONTINUOUS
 62
     4
 10
639.379393
 20
759.358152
 11
640.702437
 21
760.681196
  0
LINE
  8
CSLAYER1
  6
CONTINUOUS
 62
     4
 10
639.379393
 20
759.640994
 11
640.419595
 21
760.681196
  0
LINE
  8
CSLAYER1
  6
CONTINUOUS
 62
     4
 10
639.379393
 20
759.923837
 11
640.136752
 21
760.681196
  0
LINE
  8
CSLAYER1
  6
CONTINUOUS
 62
     4
 10
639.379393
 20
760.206680
 11
639.853909
 21
760.681196
  0
LINE
  8
CSLAYER1
  6
CONTINUOUS
 62
     4
 10
639.379393
 20
760.489523
 11
639.571066
 21
760.681196
  0
LINE
  8
CSLAYER1
  6
CONTINUOUS
 62
     4
 10
623.379393
 20
806.748354
 11
618.662235
 21
802.031196
  0
LINE
  8
CSLAYER1
  6
CONTINUOUS
 62
     4
 10
623.379393
 20
806.465511
 11
618.945078
 21
802.031196
  0
LINE
  8
CSLAYER1
  6
CONTINUOUS
 62
     4
 10
623.379393
 20
806.182668
 11
619.227921
 21
802.031196
  0
LINE
  8
CSLAYER1
  6
CONTINUOUS
 62
     4
 10
623.379393
 20
805.899826
 11
619.510763
 21
802.031196
  0
LINE
  8
CSLAYER1
  6
CONTINUOUS
 62
     4
 10
623.379393
 20
805.616983
 11
619.793606
 21
802.031196
  0
LINE
  8
CSLAYER1
  6
CONTINUOUS
 62
     4
 10
623.379393
 20
805.334140
 11
620.076449
 21
802.031196
  0
LINE
  8
CSLAYER1
  6
CONTINUOUS
 62
     4
 10
623.379393
 20
805.051298
 11
620.359292
 21
802.031196
  0
LINE
  8
CSLAYER1
  6
CONTINUOUS
 62
     4
 10
623.379393
 20
804.768455
 11
620.642134
 21
802.031196
  0
LINE
  8
CSLAYER1
  6
CONTINUOUS
 62
     4
 10
623.379393
 20
804.485612
 11
620.924977
 21
802.031196
  0
LINE
  8
CSLAYER1
  6
CONTINUOUS
 62
     4
 10
623.379393
 20
804.202769
 11
621.207820
 21
802.031196
  0
LINE
  8
CSLAYER1
  6
CONTINUOUS
 62
     4
 10
623.379393
 20
803.919927
 11
621.490662
 21
802.031196
  0
LINE
  8
CSLAYER1
  6
CONTINUOUS
 62
     4
 10
623.379393
 20
803.637084
 11
621.773505
 21
802.031196
  0
LINE
  8
CSLAYER1
  6
CONTINUOUS
 62
     4
 10
623.379393
 20
803.354241
 11
622.056348
 21
802.031196
  0
LINE
  8
CSLAYER1
  6
CONTINUOUS
 62
     4
 10
623.379393
 20
803.071399
 11
622.339191
 21
802.031196
  0
LINE
  8
CSLAYER1
  6
CONTINUOUS
 62
     4
 10
623.379393
 20
802.788556
 11
622.622033
 21
802.031196
  0
LINE
  8
CSLAYER1
  6
CONTINUOUS
 62
     4
 10
623.379393
 20
802.505713
 11
622.904876
 21
802.031196
  0
LINE
  8
CSLAYER1
  6
CONTINUOUS
 62
     4
 10
623.379393
 20
802.222870
 11
623.187719
 21
802.031196
  0
LINE
  8
CSLAYER1
  6
CONTINUOUS
 62
     4
 10
644.379393
 20
803.381196
 11
639.379393
 21
808.381196
  0
LINE
  8
CSLAYER1
  6
CONTINUOUS
 62
     4
 10
639.379393
 20
808.098354
 11
644.096550
 21
803.381196
  0
LINE
  8
CSLAYER1
  6
CONTINUOUS
 62
     4
 10
639.379393
 20
807.815511
 11
643.813707
 21
803.381196
  0
LINE
  8
CSLAYER1
  6
CONTINUOUS
 62
     4
 10
639.379393
 20
807.532668
 11
643.530864
 21
803.381196
  0
LINE
  8
CSLAYER1
  6
CONTINUOUS
 62
     4
 10
639.379393
 20
807.249826
 11
643.248022
 21
803.381196
  0
LINE
  8
CSLAYER1
  6
CONTINUOUS
 62
     4
 10
639.379393
 20
806.966983
 11
642.965179
 21
803.381196
  0
LINE
  8
CSLAYER1
  6
CONTINUOUS
 62
     4
 10
639.379393
 20
806.684140
 11
642.682336
 21
803.381196
  0
LINE
  8
CSLAYER1
  6
CONTINUOUS
 62
     4
 10
639.379393
 20
806.401298
 11
642.399494
 21
803.381196
  0
LINE
  8
CSLAYER1
  6
CONTINUOUS
 62
     4
 10
639.379393
 20
806.118455
 11
642.116651
 21
803.381196
  0
LINE
  8
CSLAYER1
  6
CONTINUOUS
 62
     4
 10
639.379393
 20
805.835612
 11
641.833808
 21
803.381196
  0
LINE
  8
CSLAYER1
  6
CONTINUOUS
 62
     4
 10
639.379393
 20
805.552769
 11
641.550965
 21
803.381196
  0
LINE
  8
CSLAYER1
  6
CONTINUOUS
 62
     4
 10
639.379393
 20
805.269927
 11
641.268123
 21
803.381196
  0
LINE
  8
CSLAYER1
  6
CONTINUOUS
 62
     4
 10
639.379393
 20
804.987084
 11
640.985280
 21
803.381196
  0
LINE
  8
CSLAYER1
  6
CONTINUOUS
 62
     4
 10
639.379393
 20
804.704241
 11
640.702437
 21
803.381196
  0
LINE
  8
CSLAYER1
  6
CONTINUOUS
 62
     4
 10
639.379393
 20
804.421399
 11
640.419595
 21
803.381196
  0
LINE
  8
CSLAYER1
  6
CONTINUOUS
 62
     4
 10
639.379393
 20
804.138556
 11
640.136752
 21
803.381196
  0
LINE
  8
CSLAYER1
  6
CONTINUOUS
 62
     4
 10
639.379393
 20
803.855713
 11
639.853909
 21
803.381196
  0
LINE
  8
CSLAYER1
  6
CONTINUOUS
 62
     4
 10
639.379393
 20
803.572870
 11
639.571066
 21
803.381196
  0
LINE
  8
CSLAYER1
  6
CONTINUOUS
 62
     4
 10
622.339191
 20
802.031196
 11
623.379393
 21
802.031196
  0
POINT
  8
CSLAYER1
 62
     4
 10
591.379393
 20
824.800424
  0
LINE
  8
CSLAYER1
  6
CONTINUOUS
 62
     4
 10
609.279393
 20
811.800424
 11
609.279393
 21
869.550424
  0
LINE
  8
CSLAYER1
  6
CONTINUOUS
 62
     4
 10
611.129393
 20
821.030424
 11
611.129393
 21
828.580150
  0
LINE
  8
CSLAYER1
  6
CONTINUOUS
 62
     4
 10
604.904393
 20
811.800424
 11
609.279393
 21
811.800424
  0
LINE
  8
CSLAYER1
  6
CONTINUOUS
 62
     4
 10
609.279393
 20
829.580150
 11
610.129393
 21
829.580150
  0
ARC
  8
CSLAYER1
  6
CONTINUOUS
 62
     4
 10
610.129393
 20
821.030424
 40
1.000000
 50
270.000000
 51
360.000000
  0
ARC
  8
CSLAYER1
  6
CONTINUOUS
 62
     4
 10
610.129393
 20
828.580150
 40
1.000000
 50
0.000000
 51
90.000000
  0
LINE
  8
CSLAYER1
  6
CONTINUOUS
 62
     4
 10
577.854393
 20
811.800424
 11
577.854393
 21
907.050424
  0
LINE
  8
CSLAYER1
  6
CONTINUOUS
 62
     4
 10
573.479393
 20
811.800424
 11
573.479393
 21
869.550424
  0
LINE
  8
CSLAYER1
  6
CONTINUOUS
 62
     4
 10
571.629393
 20
821.030424
 11
571.629393
 21
828.580150
  0
LINE
  8
CSLAYER1
  6
CONTINUOUS
 62
     4
 10
577.854393
 20
811.800424
 11
573.479393
 21
811.800424
  0
LINE
  8
CSLAYER1
  6
CONTINUOUS
 62
     4
 10
573.479393
 20
820.030424
 11
572.629393
 21
820.030424
  0
LINE
  8
CSLAYER1
  6
CONTINUOUS
 62
     4
 10
573.479393
 20
829.580150
 11
572.629393
 21
829.580150
  0
ARC
  8
CSLAYER1
  6
CONTINUOUS
 62
     4
 10
572.629393
 20
821.030424
 40
1.000000
 50
180.000000
 51
270.000000
  0
ARC
  8
CSLAYER1
  6
CONTINUOUS
 62
     4
 10
572.629393
 20
828.580150
 40
1.000000
 50
90.000000
 51
180.000000
  0
LINE
  8
CSLAYER1
  6
CONTINUOUS
 62
     4
 10
578.854393
 20
814.800424
 11
583.379393
 21
814.800424
  0
LINE
  8
CSLAYER1
  6
CONTINUOUS
 62
     4
 10
577.854393
 20
815.800424
 11
578.854393
 21
814.800424
  0
LINE
  8
CSLAYER1
  6
CONTINUOUS
 62
     4
 10
603.904393
 20
814.800424
 11
604.904393
 21
815.800424
  0
LINE
  8
CSLAYER1
  6
CONTINUOUS
 62
     4
 10
578.854393
 20
834.800424
 11
583.379393
 21
834.800424
  0
LINE
  8
CSLAYER1
  6
CONTINUOUS
 62
     4
 10
577.854393
 20
833.800424
 11
578.854393
 21
834.800424
  0
LINE
  8
CSLAYER1
  6
CONTINUOUS
 62
     4
 10
603.904393
 20
834.800424
 11
604.904393
 21
833.800424
  0
LINE
  8
CSLAYER1
  6
CONTINUOUS
 62
     5
 10
618.862674
 20
856.550424
 11
574.326762
 21
856.550424
  0
LINE
  8
CSLAYER1
  6
CONTINUOUS
 62
     4
 10
577.854393
 20
869.550424
 11
573.479393
 21
869.550424
  0
LINE
  8
CSLAYER1
  6
CONTINUOUS
 62
     4
 10
571.629393
 20
852.780424
 11
571.629393
 21
860.330150
  0
LINE
  8
CSLAYER1
  6
CONTINUOUS
 62
     4
 10
573.479393
 20
851.780424
 11
572.629393
 21
851.780424
  0
LINE
  8
CSLAYER1
  6
CONTINUOUS
 62
     4
 10
573.479393
 20
861.330150
 11
572.629393
 21
861.330150
  0
ARC
  8
CSLAYER1
  6
CONTINUOUS
 62
     4
 10
572.629393
 20
852.780424
 40
1.000000
 50
180.000000
 51
270.000000
  0
ARC
  8
CSLAYER1
  6
CONTINUOUS
 62
     4
 10
572.629393
 20
860.330150
 40
1.000000
 50
90.000000
 51
180.000000
  0
LINE
  8
CSLAYER1
  6
CONTINUOUS
 62
     4
 10
604.904393
 20
869.550424
 11
609.279393
 21
869.550424
  0
LINE
  8
CSLAYER1
  6
CONTINUOUS
 62
     4
 10
609.279393
 20
820.030424
 11
610.129393
 21
820.030424
  0
LINE
  8
CSLAYER1
  6
CONTINUOUS
 62
     4
 10
611.129393
 20
852.780424
 11
611.129393
 21
860.330150
  0
LINE
  8
CSLAYER1
  6
CONTINUOUS
 62
     4
 10
609.279393
 20
851.780424
 11
610.129393
 21
851.780424
  0
LINE
  8
CSLAYER1
  6
CONTINUOUS
 62
     4
 10
609.279393
 20
861.330150
 11
610.129393
 21
861.330150
  0
ARC
  8
CSLAYER1
  6
CONTINUOUS
 62
     4
 10
610.129393
 20
852.780424
 40
1.000000
 50
270.000000
 51
360.000000
  0
ARC
  8
CSLAYER1
  6
CONTINUOUS
 62
     4
 10
610.129393
 20
860.330150
 40
1.000000
 50
0.000000
 51
90.000000
  0
POINT
  8
CSLAYER1
 62
     4
 10
591.379393
 20
856.550424
  0
LINE
  8
CSLAYER1
  6
CONTINUOUS
 62
     5
 10
618.017055
 20
824.800424
 11
573.481144
 21
824.800424
  0
LINE
  8
CSLAYER1
  6
CONTINUOUS
 62
     4
 10
599.379393
 20
847.025424
 11
599.379393
 21
766.979910
  0
LINE
  8
CSLAYER1
  6
CONTINUOUS
 62
     4
 10
583.379393
 20
847.025424
 11
583.379393
 21
776.267407
  0
POINT
  8
CSLAYER1
 62
     4
 10
591.379393
 20
888.300424
  0
LINE
  8
CSLAYER1
  6
CONTINUOUS
 62
     4
 10
604.904393
 20
811.800424
 11
604.904393
 21
907.050424
  0
LINE
  8
CSLAYER1
  6
CONTINUOUS
 62
     4
 10
600.904393
 20
903.350424
 11
600.904393
 21
841.500424
  0
LINE
  8
CSLAYER1
  6
CONTINUOUS
 62
     4
 10
600.904393
 20
903.350424
 11
604.904393
 21
903.350424
  0
LINE
  8
CSLAYER1
  6
CONTINUOUS
 62
     4
 10
599.904393
 20
878.775424
 11
582.854393
 21
878.775424
  0
LINE
  8
CSLAYER1
  6
CONTINUOUS
 62
     4
 10
599.904393
 20
897.825424
 11
582.854393
 21
897.825424
  0
ARC
  8
CSLAYER1
  6
CONTINUOUS
 62
     4
 10
599.904393
 20
879.775424
 40
1.000000
 50
270.000000
 51
360.000000
  0
ARC
  8
CSLAYER1
  6
CONTINUOUS
 62
     4
 10
599.904393
 20
896.825424
 40
1.000000
 50
0.000000
 51
90.000000
  0
LINE
  8
CSLAYER1
  6
CONTINUOUS
 62
     4
 10
581.854393
 20
903.350424
 11
581.854393
 21
841.500424
  0
LINE
  8
CSLAYER1
  6
CONTINUOUS
 62
     4
 10
581.854393
 20
903.350424
 11
577.854393
 21
903.350424
  0
ARC
  8
CSLAYER1
  6
CONTINUOUS
 62
     4
 10
582.854393
 20
879.775424
 40
1.000000
 50
180.000000
 51
270.000000
  0
ARC
  8
CSLAYER1
  6
CONTINUOUS
 62
     4
 10
582.854393
 20
896.825424
 40
1.000000
 50
90.000000
 51
180.000000
  0
LINE
  8
CSLAYER1
  6
CONTINUOUS
 62
     4
 10
611.129393
 20
884.530424
 11
611.129393
 21
892.080150
  0
LINE
  8
CSLAYER1
  6
CONTINUOUS
 62
     4
 10
604.904393
 20
875.300424
 11
609.279393
 21
875.300424
  0
LINE
  8
CSLAYER1
  6
CONTINUOUS
 62
     4
 10
609.279393
 20
883.530424
 11
610.129393
 21
883.530424
  0
LINE
  8
CSLAYER1
  6
CONTINUOUS
 62
     4
 10
609.279393
 20
893.080150
 11
610.129393
 21
893.080150
  0
ARC
  8
CSLAYER1
  6
CONTINUOUS
 62
     4
 10
610.129393
 20
884.530424
 40
1.000000
 50
270.000000
 51
360.000000
  0
ARC
  8
CSLAYER1
  6
CONTINUOUS
 62
     4
 10
610.129393
 20
892.080150
 40
1.000000
 50
0.000000
 51
90.000000
  0
LINE
  8
CSLAYER1
  6
CONTINUOUS
 62
     4
 10
571.629393
 20
884.530424
 11
571.629393
 21
892.080150
  0
LINE
  8
CSLAYER1
  6
CONTINUOUS
 62
     4
 10
577.854393
 20
875.300424
 11
573.479393
 21
875.300424
  0
LINE
  8
CSLAYER1
  6
CONTINUOUS
 62
     4
 10
573.479393
 20
883.530424
 11
572.629393
 21
883.530424
  0
LINE
  8
CSLAYER1
  6
CONTINUOUS
 62
     4
 10
573.479393
 20
893.080150
 11
572.629393
 21
893.080150
  0
ARC
  8
CSLAYER1
  6
CONTINUOUS
 62
     4
 10
572.629393
 20
884.530424
 40
1.000000
 50
180.000000
 51
270.000000
  0
ARC
  8
CSLAYER1
  6
CONTINUOUS
 62
     4
 10
572.629393
 20
892.080150
 40
1.000000
 50
90.000000
 51
180.000000
  0
LINE
  8
CSLAYER1
  6
CONTINUOUS
 62
     4
 10
609.279393
 20
875.300424
 11
609.279393
 21
933.050424
  0
LINE
  8
CSLAYER1
  6
CONTINUOUS
 62
     4
 10
573.479393
 20
875.300424
 11
573.479393
 21
933.050424
  0
LINE
  8
CSLAYER1
  6
CONTINUOUS
 62
     4
 10
600.904393
 20
841.500424
 11
604.904393
 21
841.500424
  0
LINE
  8
CSLAYER1
  6
CONTINUOUS
 62
     4
 10
599.904393
 20
866.075424
 11
582.854393
 21
866.075424
  0
LINE
  8
CSLAYER1
  6
CONTINUOUS
 62
     4
 10
599.904393
 20
847.025424
 11
582.854393
 21
847.025424
  0
ARC
  8
CSLAYER1
  6
CONTINUOUS
 62
     4
 10
599.904393
 20
865.075424
 40
1.000000
 50
0.000000
 51
90.000000
  0
ARC
  8
CSLAYER1
  6
CONTINUOUS
 62
     4
 10
599.904393
 20
848.025424
 40
1.000000
 50
270.000000
 51
360.000000
  0
LINE
  8
CSLAYER1
  6
CONTINUOUS
 62
     4
 10
581.854393
 20
841.500424
 11
577.854393
 21
841.500424
  0
ARC
  8
CSLAYER1
  6
CONTINUOUS
 62
     4
 10
582.854393
 20
865.075424
 40
1.000000
 50
90.000000
 51
180.000000
  0
ARC
  8
CSLAYER1
  6
CONTINUOUS
 62
     4
 10
582.854393
 20
848.025424
 40
1.000000
 50
180.000000
 51
270.000000
  0
LINE
  8
CSLAYER1
  6
CONTINUOUS
 62
     4
 10
599.379393
 20
841.800424
 11
583.379393
 21
841.800424
  0
LINE
  8
CSLAYER1
  6
CONTINUOUS
 62
     4
 10
599.379393
 20
834.800424
 11
603.904393
 21
834.800424
  0
LINE
  8
CSLAYER1
  6
CONTINUOUS
 62
     4
 10
599.379393
 20
814.800424
 11
603.904393
 21
814.800424
  0
LINE
  8
CSLAYER1
  6
CONTINUOUS
 62
     4
 10
621.187719
 20
802.031196
 11
601.379393
 21
802.031196
  0
LINE
  8
CSLAYER1
  6
CONTINUOUS
 62
     4
 10
600.379393
 20
797.031196
 11
599.379393
 21
797.031196
  0
LINE
  8
CSLAYER1
  6
CONTINUOUS
 62
     4
 10
682.379393
 20
797.031196
 11
681.352852
 21
797.031196
  0
LINE
  8
CSLAYER1
  6
CONTINUOUS
 62
     4
 10
682.379393
 20
767.031196
 11
681.352852
 21
767.031196
  0
LINE
  8
CSLAYER1
  6
CONTINUOUS
 62
     4
 10
623.379393
 20
757.314039
 11
618.662235
 21
762.031196
  0
LINE
  8
CSLAYER1
  6
CONTINUOUS
 62
     4
 10
623.379393
 20
757.596882
 11
618.945078
 21
762.031196
  0
LINE
  8
CSLAYER1
  6
CONTINUOUS
 62
     4
 10
623.379393
 20
757.879725
 11
619.227921
 21
762.031196
  0
LINE
  8
CSLAYER1
  6
CONTINUOUS
 62
     4
 10
623.379393
 20
758.162567
 11
619.510763
 21
762.031196
  0
LINE
  8
CSLAYER1
  6
CONTINUOUS
 62
     4
 10
623.379393
 20
758.445410
 11
619.793606
 21
762.031196
  0
LINE
  8
CSLAYER1
  6
CONTINUOUS
 62
     4
 10
623.379393
 20
758.728253
 11
620.076449
 21
762.031196
  0
LINE
  8
CSLAYER1
  6
CONTINUOUS
 62
     4
 10
623.379393
 20
759.011095
 11
620.359292
 21
762.031196
  0
LINE
  8
CSLAYER1
  6
CONTINUOUS
 62
     4
 10
623.379393
 20
759.293938
 11
620.642134
 21
762.031196
  0
LINE
  8
CSLAYER1
  6
CONTINUOUS
 62
     4
 10
623.379393
 20
759.576781
 11
620.924977
 21
762.031196
  0
LINE
  8
CSLAYER1
  6
CONTINUOUS
 62
     4
 10
623.379393
 20
759.859624
 11
621.207820
 21
762.031196
  0
LINE
  8
CSLAYER1
  6
CONTINUOUS
 62
     4
 10
623.379393
 20
760.142466
 11
621.490662
 21
762.031196
  0
LINE
  8
CSLAYER1
  6
CONTINUOUS
 62
     4
 10
623.379393
 20
760.425309
 11
621.773505
 21
762.031196
  0
LINE
  8
CSLAYER1
  6
CONTINUOUS
 62
     4
 10
623.379393
 20
760.708152
 11
622.056348
 21
762.031196
  0
LINE
  8
CSLAYER1
  6
CONTINUOUS
 62
     4
 10
623.379393
 20
760.990994
 11
622.339191
 21
762.031196
  0
LINE
  8
CSLAYER1
  6
CONTINUOUS
 62
     4
 10
623.379393
 20
761.273837
 11
622.622033
 21
762.031196
  0
LINE
  8
CSLAYER1
  6
CONTINUOUS
 62
     4
 10
623.379393
 20
761.556680
 11
622.904876
 21
762.031196
  0
LINE
  8
CSLAYER1
  6
CONTINUOUS
 62
     4
 10
623.379393
 20
761.839523
 11
623.187719
 21
762.031196
  0
LINE
  8
CSLAYER1
  6
CONTINUOUS
 62
     4
 10
622.339191
 20
762.031196
 11
623.379393
 21
762.031196
  0
LINE
  8
CSLAYER1
  6
CONTINUOUS
 62
     4
 10
621.187719
 20
762.031196
 11
607.904771
 21
762.031196
  0
POINT
  8
CSLAYER1
 62
     5
 10
622.379393
 20
724.124769
  0
LINE
  8
CSLAYER1
  6
CONTINUOUS
 62
     7
 10
578.301307
 20
777.652448
 11
454.457478
 21
777.652448
  0
LINE
  8
CSLAYER1
  6
CONTINUOUS
 62
     7
 10
622.379393
 20
747.871191
 11
622.379393
 21
700.279480
  0
LINE
  8
CSLAYER1
  6
CONTINUOUS
 62
     7
 10
600.379393
 20
702.717183
 11
600.242662
 21
703.657720
  0
LINE
  8
CSLAYER1
  6
CONTINUOUS
 62
     7
 10
600.242662
 20
703.657720
 11
599.836626
 21
704.569679
  0
LINE
  8
CSLAYER1
  6
CONTINUOUS
 62
     7
 10
599.836626
 20
704.569679
 11
599.173621
 21
705.425351
  0
LINE
  8
CSLAYER1
  6
CONTINUOUS
 62
     7
 10
599.173621
 20
705.425351
 11
598.273793
 21
706.198736
  0
LINE
  8
CSLAYER1
  6
CONTINUOUS
 62
     7
 10
598.273793
 20
706.198736
 11
597.164481
 21
706.866337
  0
LINE
  8
CSLAYER1
  6
CONTINUOUS
 62
     7
 10
597.164481
 20
706.866337
 11
595.879393
 21
707.407867
  0
LINE
  8
CSLAYER1
  6
CONTINUOUS
 62
     7
 10
595.879393
 20
707.407867
 11
594.457574
 21
707.806874
  0
LINE
  8
CSLAYER1
  6
CONTINUOUS
 62
     7
 10
594.457574
 20
707.806874
 11
592.942226
 21
708.051232
  0
LINE
  8
CSLAYER1
  6
CONTINUOUS
 62
     7
 10
592.942226
 20
708.051232
 11
591.379393
 21
708.133519
  0
LINE
  8
CSLAYER1
  6
CONTINUOUS
 62
     7
 10
591.379393
 20
708.133519
 11
589.816559
 21
708.051232
  0
LINE
  8
CSLAYER1
  6
CONTINUOUS
 62
     7
 10
589.816559
 20
708.051232
 11
588.301211
 21
707.806874
  0
LINE
  8
CSLAYER1
  6
CONTINUOUS
 62
     7
 10
588.301211
 20
707.806874
 11
586.879393
 21
707.407867
  0
LINE
  8
CSLAYER1
  6
CONTINUOUS
 62
     7
 10
586.879393
 20
707.407867
 11
585.594304
 21
706.866337
  0
LINE
  8
CSLAYER1
  6
CONTINUOUS
 62
     7
 10
585.594304
 20
706.866337
 11
584.484993
 21
706.198736
  0
LINE
  8
CSLAYER1
  6
CONTINUOUS
 62
     7
 10
584.484993
 20
706.198736
 11
583.585164
 21
705.425351
  0
LINE
  8
CSLAYER1
  6
CONTINUOUS
 62
     7
 10
583.585164
 20
705.425351
 11
582.922159
 21
704.569679
  0
LINE
  8
CSLAYER1
  6
CONTINUOUS
 62
     7
 10
582.922159
 20
704.569679
 11
582.516123
 21
703.657720
  0
LINE
  8
CSLAYER1
  6
CONTINUOUS
 62
     7
 10
582.516123
 20
703.657720
 11
582.379393
 21
702.717183
  0
LINE
  8
CSLAYER1
  6
CONTINUOUS
 62
     7
 10
582.379393
 20
702.717183
 11
582.516123
 21
701.776647
  0
LINE
  8
CSLAYER1
  6
CONTINUOUS
 62
     7
 10
582.516123
 20
701.776647
 11
582.922159
 21
700.864688
  0
LINE
  8
CSLAYER1
  6
CONTINUOUS
 62
     7
 10
582.922159
 20
700.864688
 11
583.585164
 21
700.009016
  0
LINE
  8
CSLAYER1
  6
CONTINUOUS
 62
     7
 10
583.585164
 20
700.009016
 11
584.484993
 21
699.235630
  0
LINE
  8
CSLAYER1
  6
CONTINUOUS
 62
     7
 10
584.484993
 20
699.235630
 11
585.594304
 21
698.568030
  0
LINE
  8
CSLAYER1
  6
CONTINUOUS
 62
     7
 10
585.594304
 20
698.568030
 11
586.879393
 21
698.026499
  0
LINE
  8
CSLAYER1
  6
CONTINUOUS
 62
     7
 10
586.879393
 20
698.026499
 11
588.301211
 21
697.627493
  0
LINE
  8
CSLAYER1
  6
CONTINUOUS
 62
     7
 10
588.301211
 20
697.627493
 11
589.816559
 21
697.383134
  0
LINE
  8
CSLAYER1
  6
CONTINUOUS
 62
     7
 10
589.816559
 20
697.383134
 11
591.379393
 21
697.300848
  0
LINE
  8
CSLAYER1
  6
CONTINUOUS
 62
     7
 10
591.379393
 20
697.300848
 11
592.942226
 21
697.383134
  0
LINE
  8
CSLAYER1
  6
CONTINUOUS
 62
     7
 10
592.942226
 20
697.383134
 11
594.457574
 21
697.627493
  0
LINE
  8
CSLAYER1
  6
CONTINUOUS
 62
     7
 10
594.457574
 20
697.627493
 11
595.879393
 21
698.026499
  0
LINE
  8
CSLAYER1
  6
CONTINUOUS
 62
     7
 10
595.879393
 20
698.026499
 11
597.164481
 21
698.568030
  0
LINE
  8
CSLAYER1
  6
CONTINUOUS
 62
     7
 10
597.164481
 20
698.568030
 11
598.273793
 21
699.235630
  0
LINE
  8
CSLAYER1
  6
CONTINUOUS
 62
     7
 10
598.273793
 20
699.235630
 11
599.173621
 21
700.009016
  0
LINE
  8
CSLAYER1
  6
CONTINUOUS
 62
     7
 10
599.173621
 20
700.009016
 11
599.836626
 21
700.864688
  0
LINE
  8
CSLAYER1
  6
CONTINUOUS
 62
     7
 10
599.836626
 20
700.864688
 11
600.242662
 21
701.776647
  0
LINE
  8
CSLAYER1
  6
CONTINUOUS
 62
     7
 10
600.242662
 20
701.776647
 11
600.379393
 21
702.717183
  0
LINE
  8
CSLAYER1
  6
CONTINUOUS
 62
     7
 10
600.379393
 20
708.133519
 11
600.242662
 21
709.074055
  0
LINE
  8
CSLAYER1
  6
CONTINUOUS
 62
     7
 10
600.242662
 20
709.074055
 11
599.836626
 21
709.986014
  0
LINE
  8
CSLAYER1
  6
CONTINUOUS
 62
     7
 10
599.836626
 20
709.986014
 11
599.173621
 21
710.841686
  0
LINE
  8
CSLAYER1
  6
CONTINUOUS
 62
     7
 10
599.173621
 20
710.841686
 11
598.273793
 21
711.615072
  0
LINE
  8
CSLAYER1
  6
CONTINUOUS
 62
     7
 10
598.273793
 20
711.615072
 11
597.164481
 21
712.282672
  0
LINE
  8
CSLAYER1
  6
CONTINUOUS
 62
     7
 10
597.164481
 20
712.282672
 11
595.879393
 21
712.824202
  0
LINE
  8
CSLAYER1
  6
CONTINUOUS
 62
     7
 10
595.879393
 20
712.824202
 11
594.457574
 21
713.223209
  0
LINE
  8
CSLAYER1
  6
CONTINUOUS
 62
     7
 10
594.457574
 20
713.223209
 11
592.942226
 21
713.467567
  0
LINE
  8
CSLAYER1
  6
CONTINUOUS
 62
     7
 10
592.942226
 20
713.467567
 11
591.379393
 21
713.549854
  0
LINE
  8
CSLAYER1
  6
CONTINUOUS
 62
     7
 10
591.379393
 20
713.549854
 11
589.816559
 21
713.467567
  0
LINE
  8
CSLAYER1
  6
CONTINUOUS
 62
     7
 10
589.816559
 20
713.467567
 11
588.301211
 21
713.223209
  0
LINE
  8
CSLAYER1
  6
CONTINUOUS
 62
     7
 10
588.301211
 20
713.223209
 11
586.879393
 21
712.824202
  0
LINE
  8
CSLAYER1
  6
CONTINUOUS
 62
     7
 10
586.879393
 20
712.824202
 11
585.594304
 21
712.282672
  0
LINE
  8
CSLAYER1
  6
CONTINUOUS
 62
     7
 10
585.594304
 20
712.282672
 11
584.484993
 21
711.615072
  0
LINE
  8
CSLAYER1
  6
CONTINUOUS
 62
     7
 10
584.484993
 20
711.615072
 11
583.585164
 21
710.841686
  0
LINE
  8
CSLAYER1
  6
CONTINUOUS
 62
     7
 10
583.585164
 20
710.841686
 11
582.922159
 21
709.986014
  0
LINE
  8
CSLAYER1
  6
CONTINUOUS
 62
     7
 10
582.922159
 20
709.986014
 11
582.516123
 21
709.074055
  0
LINE
  8
CSLAYER1
  6
CONTINUOUS
 62
     7
 10
582.516123
 20
709.074055
 11
582.379393
 21
708.133519
  0
LINE
  8
CSLAYER1
  6
CONTINUOUS
 62
     7
 10
600.379393
 20
708.133519
 11
600.379393
 21
702.245119
  0
LINE
  8
CSLAYER1
  6
CONTINUOUS
 62
     7
 10
582.379393
 20
708.133519
 11
582.379393
 21
702.245119
  0
INSERT
  8
CSLAYER1
  2
BLKF0001
 10
0.0
 20
0.0
 30
0.0
  0
LINE
  8
CSLAYER1
  6
CONTINUOUS
 62
     7
 10
583.321520
 20
776.301000
 11
617.399605
 21
756.519744
  0
LINE
  8
CSLAYER1
  6
CONTINUOUS
 62
     7
 10
580.993319
 20
745.669946
 11
617.399605
 21
724.537242
  0
LINE
  8
CSLAYER1
  6
CONTINUOUS
 62
     7
 10
582.379393
 20
670.597091
 11
617.528024
 21
691.706756
  0
ARC
  8
CSLAYER1
  6
CONTINUOUS
 62
     7
 10
578.301307
 20
767.652448
 40
10.000000
 50
59.866183
 51
90.000000
  0
ARC
  8
CSLAYER1
  6
CONTINUOUS
 62
     7
 10
612.379393
 20
747.871191
 40
10.000000
 50
0.000000
 51
59.866183
  0
ARC
  8
CSLAYER1
  6
CONTINUOUS
 62
     7
 10
612.379393
 20
700.279480
 40
10.000000
 50
-59.011695
 51
0.000000
  0
ARC
  8
CSLAYER1
  6
CONTINUOUS
 62
     7
 10
612.379393
 20
715.888690
 40
10.000000
 50
0.000000
 51
59.866183
  0
LINE
  8
CSLAYER1
  6
CONTINUOUS
 62
     4
 10
266.379393
 20
434.858387
 11
266.379393
 21
369.858387
  0
LINE
  8
CSLAYER1
  6
CONTINUOUS
 62
     4
 10
266.379393
 20
1288.404006
 11
266.379393
 21
1238.404006
  0
POINT
  8
CSLAYER1
 62
     4
 10
441.379393
 20
1084.496988
  0
LINE
  8
CSLAYER1
  6
CONTINUOUS
 62
     5
 10
427.254016
 20
1084.496990
 11
455.493106
 21
1084.496990
  0
LINE
  8
CSLAYER1
  6
CONTINUOUS
 62
     4
 10
432.879393
 20
1109.496990
 11
432.879393
 21
1150.079680
  0
LINE
  8
CSLAYER1
  6
CONTINUOUS
 62
     4
 10
431.379393
 20
1101.496990
 11
431.379393
 21
1150.079680
  0
LINE
  8
CSLAYER1
  6
CONTINUOUS
 62
     4
 10
431.379393
 20
1109.496990
 11
451.379393
 21
1109.496990
  0
LINE
  8
CSLAYER1
  6
CONTINUOUS
 62
     4
 10
432.879393
 20
1109.496990
 11
431.379393
 21
1106.898914
  0
LINE
  8
CSLAYER1
  6
CONTINUOUS
 62
     4
 10
449.879393
 20
1109.496990
 11
449.879393
 21
1150.079680
  0
LINE
  8
CSLAYER1
  6
CONTINUOUS
 62
     4
 10
449.879393
 20
1109.496990
 11
451.379393
 21
1106.898914
  0
LINE
  8
CSLAYER1
  6
CONTINUOUS
 62
     4
 10
451.379393
 20
1101.496990
 11
451.379393
 21
1150.079680
  0
LINE
  8
CSLAYER1
  6
CONTINUOUS
 62
     4
 10
453.904393
 20
1099.496988
 11
428.854393
 21
1099.496988
  0
POINT
  8
CSLAYER1
 62
     4
 10
441.379393
 20
1052.746988
  0
LINE
  8
CSLAYER1
  6
CONTINUOUS
 62
     4
 10
427.854393
 20
1098.496988
 11
427.854393
 21
1005.946988
  0
LINE
  8
CSLAYER1
  6
CONTINUOUS
 62
     4
 10
431.854393
 20
1067.796988
 11
431.854393
 21
1005.946988
  0
LINE
  8
CSLAYER1
  6
CONTINUOUS
 62
     4
 10
431.854393
 20
1067.796988
 11
427.854393
 21
1067.796988
  0
LINE
  8
CSLAYER1
  6
CONTINUOUS
 62
     4
 10
432.854393
 20
1043.221988
 11
449.904393
 21
1043.221988
  0
LINE
  8
CSLAYER1
  6
CONTINUOUS
 62
     4
 10
432.854393
 20
1062.271988
 11
449.904393
 21
1062.271988
  0
ARC
  8
CSLAYER1
  6
CONTINUOUS
 62
     4
 10
432.854393
 20
1044.221988
 40
1.000000
 50
180.000000
 51
270.000000
  0
ARC
  8
CSLAYER1
  6
CONTINUOUS
 62
     4
 10
432.854393
 20
1061.271988
 40
1.000000
 50
90.000000
 51
180.000000
  0
LINE
  8
CSLAYER1
  6
CONTINUOUS
 62
     4
 10
454.904393
 20
1098.496988
 11
454.904393
 21
1005.246988
  0
LINE
  8
CSLAYER1
  6
CONTINUOUS
 62
     4
 10
450.904393
 20
1067.796988
 11
450.904393
 21
1005.946988
  0
LINE
  8
CSLAYER1
  6
CONTINUOUS
 62
     4
 10
450.904393
 20
1067.796988
 11
454.904393
 21
1067.796988
  0
ARC
  8
CSLAYER1
  6
CONTINUOUS
 62
     4
 10
449.904393
 20
1044.221988
 40
1.000000
 50
270.000000
 51
360.000000
  0
ARC
  8
CSLAYER1
  6
CONTINUOUS
 62
     4
 10
449.904393
 20
1061.271988
 40
1.000000
 50
0.000000
 51
90.000000
  0
LINE
  8
CSLAYER1
  6
CONTINUOUS
 62
     4
 10
421.629393
 20
1048.976988
 11
421.629393
 21
1056.526715
  0
LINE
  8
CSLAYER1
  6
CONTINUOUS
 62
     4
 10
427.854393
 20
1039.746988
 11
423.479393
 21
1039.746988
  0
LINE
  8
CSLAYER1
  6
CONTINUOUS
 62
     4
 10
427.854393
 20
1097.496988
 11
423.479393
 21
1097.496988
  0
LINE
  8
CSLAYER1
  6
CONTINUOUS
 62
     4
 10
423.479393
 20
1047.976988
 11
422.629393
 21
1047.976988
  0
LINE
  8
CSLAYER1
  6
CONTINUOUS
 62
     4
 10
423.479393
 20
1057.526715
 11
422.629393
 21
1057.526715
  0
ARC
  8
CSLAYER1
  6
CONTINUOUS
 62
     4
 10
422.629393
 20
1048.976988
 40
1.000000
 50
180.000000
 51
270.000000
  0
ARC
  8
CSLAYER1
  6
CONTINUOUS
 62
     4
 10
422.629393
 20
1056.526715
 40
1.000000
 50
90.000000
 51
180.000000
  0
LINE
  8
CSLAYER1
  6
CONTINUOUS
 62
     4
 10
421.629393
 20
1080.726988
 11
421.629393
 21
1088.276715
  0
LINE
  8
CSLAYER1
  6
CONTINUOUS
 62
     4
 10
423.479393
 20
1079.726988
 11
422.629393
 21
1079.726988
  0
LINE
  8
CSLAYER1
  6
CONTINUOUS
 62
     4
 10
423.479393
 20
1089.276715
 11
422.629393
 21
1089.276715
  0
ARC
  8
CSLAYER1
  6
CONTINUOUS
 62
     4
 10
422.629393
 20
1080.726988
 40
1.000000
 50
180.000000
 51
270.000000
  0
ARC
  8
CSLAYER1
  6
CONTINUOUS
 62
     4
 10
422.629393
 20
1088.276715
 40
1.000000
 50
90.000000
 51
180.000000
  0
LINE
  8
CSLAYER1
  6
CONTINUOUS
 62
     4
 10
461.129393
 20
1048.976988
 11
461.129393
 21
1056.526715
  0
LINE
  8
CSLAYER1
  6
CONTINUOUS
 62
     4
 10
454.904393
 20
1039.746988
 11
459.279393
 21
1039.746988
  0
LINE
  8
CSLAYER1
  6
CONTINUOUS
 62
     4
 10
454.904393
 20
1097.496988
 11
459.279393
 21
1097.496988
  0
LINE
  8
CSLAYER1
  6
CONTINUOUS
 62
     4
 10
459.279393
 20
1047.976988
 11
460.129393
 21
1047.976988
  0
LINE
  8
CSLAYER1
  6
CONTINUOUS
 62
     4
 10
459.279393
 20
1057.526715
 11
460.129393
 21
1057.526715
  0
ARC
  8
CSLAYER1
  6
CONTINUOUS
 62
     4
 10
460.129393
 20
1048.976988
 40
1.000000
 50
270.000000
 51
360.000000
  0
ARC
  8
CSLAYER1
  6
CONTINUOUS
 62
     4
 10
460.129393
 20
1056.526715
 40
1.000000
 50
0.000000
 51
90.000000
  0
LINE
  8
CSLAYER1
  6
CONTINUOUS
 62
     4
 10
464.229393
 20
1080.726988
 11
464.229393
 21
1088.276715
  0
LINE
  8
CSLAYER1
  6
CONTINUOUS
 62
     4
 10
459.279393
 20
1079.726988
 11
463.229393
 21
1079.726988
  0
LINE
  8
CSLAYER1
  6
CONTINUOUS
 62
     4
 10
459.279393
 20
1089.276715
 11
463.229393
 21
1089.276715
  0
ARC
  8
CSLAYER1
  6
CONTINUOUS
 62
     4
 10
463.229393
 20
1080.726988
 40
1.000000
 50
270.000000
 51
360.000000
  0
ARC
  8
CSLAYER1
  6
CONTINUOUS
 62
     4
 10
463.229393
 20
1088.276715
 40
1.000000
 50
0.000000
 51
90.000000
  0
LINE
  8
CSLAYER1
  6
CONTINUOUS
 62
     4
 10
454.904393
 20
1089.276715
 11
427.854393
 21
1089.276715
  0
LINE
  8
CSLAYER1
  6
CONTINUOUS
 62
     4
 10
454.904393
 20
1079.726988
 11
427.854393
 21
1079.726988
  0
LINE
  8
CSLAYER1
  6
CONTINUOUS
 62
     4
 10
452.904393
 20
1069.496988
 11
429.854393
 21
1069.496988
  0
ARC
  8
CSLAYER1
  6
CONTINUOUS
 62
     4
 10
429.854393
 20
1071.496988
 40
2.000000
 50
180.000000
 51
270.000000
  0
ARC
  8
CSLAYER1
  6
CONTINUOUS
 62
     4
 10
452.904393
 20
1071.496988
 40
2.000000
 50
270.000000
 51
360.000000
  0
ARC
  8
CSLAYER1
  6
CONTINUOUS
 62
     4
 10
453.379393
 20
1101.496988
 40
2.000000
 50
180.000000
 51
270.000000
  0
ARC
  8
CSLAYER1
  6
CONTINUOUS
 62
     4
 10
429.379393
 20
1101.496988
 40
2.000000
 50
270.000000
 51
360.000000
  0
ARC
  8
CSLAYER1
  6
CONTINUOUS
 62
     4
 10
453.904393
 20
1098.496988
 40
1.000000
 50
0.000000
 51
90.000000
  0
ARC
  8
CSLAYER1
  6
CONTINUOUS
 62
     4
 10
428.854393
 20
1098.496988
 40
1.000000
 50
90.000000
 51
180.000000
  0
POINT
  8
CSLAYER1
 62
     4
 10
441.379393
 20
1099.496988
  0
LINE
  8
CSLAYER1
  6
CONTINUOUS
 62
     4
 10
423.479393
 20
1039.746988
 11
423.479393
 21
1097.496988
  0
LINE
  8
CSLAYER1
  6
CONTINUOUS
 62
     4
 10
459.279393
 20
1039.746988
 11
459.279393
 21
1097.496988
  0
LINE
  8
CSLAYER1
  6
CENTER
 62
     5
 10
368.135238
 20
724.124769
 11
435.950064
 21
724.124769
  0
POINT
  8
CSLAYER1
 62
     4
 10
441.379393
 20
1020.996988
  0
LINE
  8
CSLAYER1
  6
CONTINUOUS
 62
     4
 10
431.854393
 20
1005.946988
 11
427.854393
 21
1005.946988
  0
LINE
  8
CSLAYER1
  6
CONTINUOUS
 62
     4
 10
432.854393
 20
1030.521988
 11
449.904393
 21
1030.521988
  0
LINE
  8
CSLAYER1
  6
CONTINUOUS
 62
     4
 10
432.854393
 20
1011.471988
 11
449.904393
 21
1011.471988
  0
ARC
  8
CSLAYER1
  6
CONTINUOUS
 62
     4
 10
432.854393
 20
1029.521988
 40
1.000000
 50
90.000000
 51
180.000000
  0
ARC
  8
CSLAYER1
  6
CONTINUOUS
 62
     4
 10
432.854393
 20
1012.471988
 40
1.000000
 50
180.000000
 51
270.000000
  0
LINE
  8
CSLAYER1
  6
CONTINUOUS
 62
     4
 10
450.904393
 20
1005.946988
 11
454.904393
 21
1005.946988
  0
ARC
  8
CSLAYER1
  6
CONTINUOUS
 62
     4
 10
449.904393
 20
1029.521988
 40
1.000000
 50
0.000000
 51
90.000000
  0
ARC
  8
CSLAYER1
  6
CONTINUOUS
 62
     4
 10
449.904393
 20
1012.471988
 40
1.000000
 50
270.000000
 51
360.000000
  0
LINE
  8
CSLAYER1
  6
CONTINUOUS
 62
     4
 10
421.629393
 20
1024.766988
 11
421.629393
 21
1017.217262
  0
LINE
  8
CSLAYER1
  6
CONTINUOUS
 62
     4
 10
427.854393
 20
1033.996988
 11
423.479393
 21
1033.996988
  0
LINE
  8
CSLAYER1
  6
CONTINUOUS
 62
     4
 10
423.479393
 20
1025.766988
 11
422.629393
 21
1025.766988
  0
LINE
  8
CSLAYER1
  6
CONTINUOUS
 62
     4
 10
423.479393
 20
1016.217262
 11
422.629393
 21
1016.217262
  0
ARC
  8
CSLAYER1
  6
CONTINUOUS
 62
     4
 10
422.629393
 20
1024.766988
 40
1.000000
 50
90.000000
 51
180.000000
  0
ARC
  8
CSLAYER1
  6
CONTINUOUS
 62
     4
 10
422.629393
 20
1017.217262
 40
1.000000
 50
180.000000
 51
270.000000
  0
LINE
  8
CSLAYER1
  6
CONTINUOUS
 62
     4
 10
461.129393
 20
1024.766988
 11
461.129393
 21
1017.217262
  0
LINE
  8
CSLAYER1
  6
CONTINUOUS
 62
     4
 10
454.904393
 20
1033.996988
 11
459.279393
 21
1033.996988
  0
LINE
  8
CSLAYER1
  6
CONTINUOUS
 62
     4
 10
459.279393
 20
1025.766988
 11
460.129393
 21
1025.766988
  0
LINE
  8
CSLAYER1
  6
CONTINUOUS
 62
     4
 10
459.279393
 20
1016.217262
 11
460.129393
 21
1016.217262
  0
ARC
  8
CSLAYER1
  6
CONTINUOUS
 62
     4
 10
460.129393
 20
1024.766988
 40
1.000000
 50
0.000000
 51
90.000000
  0
ARC
  8
CSLAYER1
  6
CONTINUOUS
 62
     4
 10
460.129393
 20
1017.217262
 40
1.000000
 50
270.000000
 51
360.000000
  0
LINE
  8
CSLAYER1
  6
CONTINUOUS
 62
     4
 10
459.279393
 20
1033.996988
 11
459.279393
 21
976.246988
  0
LINE
  8
CSLAYER1
  6
CONTINUOUS
 62
     4
 10
423.479393
 20
1033.996988
 11
423.479393
 21
976.246988
  0
LINE
  8
CSLAYER1
  6
CONTINUOUS
 62
     4
 10
766.379393
 20
434.858387
 11
266.379393
 21
434.858387
  0
LINE
  8
CSLAYER1
  6
CONTINUOUS
 62
     4
 10
409.379393
 20
434.858387
 11
409.379393
 21
1238.404006
  0
LINE
  8
CSLAYER1
  6
CONTINUOUS
 62
     4
 10
393.379393
 20
434.858387
 11
393.379393
 21
1238.404006
  0
LINE
  8
CSLAYER1
  6
CONTINUOUS
 62
     4
 10
471.829393
 20
1017.564220
 11
471.829393
 21
777.652448
  0
LINE
  8
CSLAYER1
  6
CONTINUOUS
 62
     4
 10
486.129393
 20
1141.829680
 11
486.129393
 21
1035.810062
  0
LINE
  8
CSLAYER1
  6
CONTINUOUS
 62
     4
 10
471.829393
 20
1017.564220
 11
471.998919
 21
1019.678938
  0
LINE
  8
CSLAYER1
  6
CONTINUOUS
 62
     4
 10
471.998919
 20
1019.678938
 11
472.506207
 21
1021.777562
  0
LINE
  8
CSLAYER1
  6
CONTINUOUS
 62
     4
 10
472.506207
 20
1021.777562
 11
473.347397
 21
1023.844120
  0
LINE
  8
CSLAYER1
  6
CONTINUOUS
 62
     4
 10
473.347397
 20
1023.844120
 11
474.516086
 21
1025.862884
  0
LINE
  8
CSLAYER1
  6
CONTINUOUS
 62
     4
 10
474.516086
 20
1025.862884
 11
476.003381
 21
1027.818490
  0
LINE
  8
CSLAYER1
  6
CONTINUOUS
 62
     4
 10
476.003381
 20
1027.818490
 11
477.797961
 21
1029.696055
  0
LINE
  8
CSLAYER1
  6
CONTINUOUS
 62
     4
 10
477.797961
 20
1029.696055
 11
479.886169
 21
1031.481289
  0
LINE
  8
CSLAYER1
  6
CONTINUOUS
 62
     4
 10
479.886169
 20
1031.481289
 11
482.252113
 21
1033.160606
  0
LINE
  8
CSLAYER1
  6
CONTINUOUS
 62
     4
 10
482.252113
 20
1033.160606
 11
484.877785
 21
1034.721225
  0
LINE
  8
CSLAYER1
  6
CONTINUOUS
 62
     4
 10
484.877785
 20
1034.721225
 11
487.743205
 21
1036.151269
  0
LINE
  8
CSLAYER1
  6
CONTINUOUS
 62
     4
 10
487.743205
 20
1036.151269
 11
490.826562
 21
1037.439854
  0
LINE
  8
CSLAYER1
  6
CONTINUOUS
 62
     4
 10
490.826562
 20
1037.439854
 11
494.104393
 21
1038.577174
  0
LINE
  8
CSLAYER1
  6
CONTINUOUS
 62
     4
 10
494.104393
 20
1038.577174
 11
497.551749
 21
1039.554572
  0
LINE
  8
CSLAYER1
  6
CONTINUOUS
 62
     4
 10
497.551749
 20
1039.554572
 11
501.142395
 21
1040.364611
  0
LINE
  8
CSLAYER1
  6
CONTINUOUS
 62
     4
 10
501.142395
 20
1040.364611
 11
504.849004
 21
1041.001125
  0
LINE
  8
CSLAYER1
  6
CONTINUOUS
 62
     4
 10
504.849004
 20
1041.001125
 11
508.643366
 21
1041.459270
  0
LINE
  8
CSLAYER1
  6
CONTINUOUS
 62
     4
 10
508.643366
 20
1041.459270
 11
512.496604
 21
1041.735559
  0
LINE
  8
CSLAYER1
  6
CONTINUOUS
 62
     4
 10
512.496604
 20
1041.735559
 11
516.379393
 21
1041.827889
  0
LINE
  8
CSLAYER1
  6
CONTINUOUS
 62
     4
 10
350.379393
 20
662.344212
 11
393.379393
 21
662.344212
  0
LINE
  8
CSLAYER1
  6
CONTINUOUS
 62
     4
 10
350.379393
 20
582.930955
 11
393.379393
 21
582.930955
  0
LINE
  8
CSLAYER1
  6
CONTINUOUS
 62
     4
 10
393.379393
 20
677.537826
 11
350.379393
 21
677.537826
  0
LINE
  8
CSLAYER1
  6
CONTINUOUS
 62
     4
 10
409.379393
 20
662.344212
 11
461.255940
 21
662.344212
  0
LINE
  8
CSLAYER1
  6
CONTINUOUS
 62
     4
 10
409.379393
 20
582.930955
 11
456.379393
 21
582.930955
  0
LINE
  8
CSLAYER1
  6
CONTINUOUS
 62
     4
 10
438.822726
 20
677.537826
 11
409.379393
 21
677.537826
  0
LINE
  8
CSLAYER1
  6
CONTINUOUS
 62
     4
 10
334.379393
 20
1148.204006
 11
334.379393
 21
782.031196
  0
LINE
  8
CSLAYER1
  6
CONTINUOUS
 62
     4
 10
350.379393
 20
1148.204006
 11
350.379393
 21
434.858387
  0
ARC
  8
CSLAYER1
  6
CONTINUOUS
 62
     4
 10
269.379393
 20
1288.404006
 40
3.000000
 50
90.000000
 51
180.000000
  0
LINE
  8
CSLAYER1
  6
CENTER
 62
     5
 10
441.379393
 20
1256.626115
 11
441.379393
 21
771.623659
  0
LINE
  8
CSLAYER1
  6
CONTINUOUS
 62
     4
 10
391.379393
 20
740.124769
 11
391.379393
 21
708.124769
  0
LINE
  8
CSLAYER1
  6
CONTINUOUS
 62
     4
 10
381.379393
 20
738.124769
 11
381.379393
 21
710.124769
  0
LINE
  8
CSLAYER1
  6
CONTINUOUS
 62
     4
 10
383.379393
 20
740.124769
 11
391.379393
 21
740.124769
  0
LINE
  8
CSLAYER1
  6
CONTINUOUS
 62
     4
 10
381.379393
 20
738.124769
 11
383.379393
 21
740.124769
  0
LINE
  8
CSLAYER1
  6
CONTINUOUS
 62
     4
 10
383.379393
 20
740.124769
 11
383.379393
 21
708.124769
  0
LINE
  8
CSLAYER1
  6
CONTINUOUS
 62
     4
 10
383.379393
 20
708.124769
 11
391.379393
 21
708.124769
  0
LINE
  8
CSLAYER1
  6
CONTINUOUS
 62
     4
 10
381.379393
 20
710.124769
 11
383.379393
 21
708.124769
  0
LINE
  8
CSLAYER1
  6
CONTINUOUS
 62
     4
 10
391.379393
 20
738.124769
 11
393.379393
 21
738.124769
  0
LINE
  8
CSLAYER1
  6
CONTINUOUS
 62
     4
 10
391.379393
 20
710.124769
 11
393.379393
 21
710.124769
  0
LINE
  8
CSLAYER1
  6
CONTINUOUS
 62
     4
 10
384.379393
 20
1213.204006
 11
359.379393
 21
1213.204006
  0
LINE
  8
CSLAYER1
  6
CONTINUOUS
 62
     4
 10
359.379393
 20
1188.204006
 11
386.879393
 21
1188.204006
  0
LINE
  8
CSLAYER1
  6
CONTINUOUS
 62
     4
 10
359.379393
 20
1238.404006
 11
359.379393
 21
1188.204006
  0
LINE
  8
CSLAYER1
  6
CONTINUOUS
 62
     4
 10
384.379393
 20
1188.204006
 11
384.379393
 21
1238.404006
  0
LINE
  8
CSLAYER1
  6
CONTINUOUS
 62
     4
 10
368.879393
 20
1238.404006
 11
368.879393
 21
1213.204006
  0
LINE
  8
CSLAYER1
  6
CONTINUOUS
 62
     4
 10
374.879393
 20
1238.404006
 11
374.879393
 21
1213.204006
  0
LINE
  8
CSLAYER1
  6
CENTER
 62
     5
 10
415.063167
 20
1167.204006
 11
319.648755
 21
1167.204006
  0
LINE
  8
CSLAYER1
  6
CONTINUOUS
 62
     4
 10
387.879393
 20
1187.204006
 11
387.879393
 21
1147.204006
  0
LINE
  8
CSLAYER1
  6
CONTINUOUS
 62
     4
 10
361.379393
 20
1178.755648
 11
361.379393
 21
1155.652363
  0
LINE
  8
CSLAYER1
  6
CONTINUOUS
 62
     4
 10
360.229393
 20
1178.755648
 11
360.229393
 21
1155.652363
  0
LINE
  8
CSLAYER1
  6
CONTINUOUS
 62
     4
 10
359.379393
 20
1174.704006
 11
360.229393
 21
1174.704006
  0
LINE
  8
CSLAYER1
  6
CONTINUOUS
 62
     4
 10
360.229393
 20
1178.755648
 11
361.379393
 21
1178.755648
  0
LINE
  8
CSLAYER1
  6
CONTINUOUS
 62
     4
 10
361.379393
 20
1174.704006
 11
361.879393
 21
1174.704006
  0
LINE
  8
CSLAYER1
  6
CONTINUOUS
 62
     4
 10
361.879393
 20
1187.204006
 11
361.879393
 21
1147.204006
  0
ARC
  8
CSLAYER1
  6
CONTINUOUS
 62
     4
 10
386.879393
 20
1187.204006
 40
1.000000
 50
0.000000
 51
90.000000
  0
ARC
  8
CSLAYER1
  6
CONTINUOUS
 62
     4
 10
362.879393
 20
1187.204006
 40
1.000000
 50
90.000000
 51
180.000000
  0
ARC
  8
CSLAYER1
  6
CONTINUOUS
 62
     4
 10
373.879393
 20
1187.204006
 40
1.000000
 50
0.000000
 51
90.000000
  0
ARC
  8
CSLAYER1
  6
CONTINUOUS
 62
     4
 10
375.879393
 20
1187.204006
 40
1.000000
 50
90.000000
 51
180.000000
  0
LINE
  8
CSLAYER1
  6
CONTINUOUS
 62
     4
 10
358.879393
 20
1238.404006
 11
358.879393
 21
1148.204006
  0
LINE
  8
CSLAYER1
  6
CONTINUOUS
 62
     4
 10
362.879393
 20
1146.204006
 11
373.879393
 21
1146.204006
  0
LINE
  8
CSLAYER1
  6
CONTINUOUS
 62
     4
 10
359.379393
 20
1159.704006
 11
360.229393
 21
1159.704006
  0
LINE
  8
CSLAYER1
  6
CONTINUOUS
 62
     4
 10
360.229393
 20
1155.652363
 11
361.379393
 21
1155.652363
  0
LINE
  8
CSLAYER1
  6
CONTINUOUS
 62
     4
 10
361.379393
 20
1159.704006
 11
361.879393
 21
1159.704006
  0
ARC
  8
CSLAYER1
  6
CONTINUOUS
 62
     4
 10
386.879393
 20
1147.204006
 40
1.000000
 50
270.000000
 51
360.000000
  0
ARC
  8
CSLAYER1
  6
CONTINUOUS
 62
     4
 10
362.879393
 20
1147.204006
 40
1.000000
 50
180.000000
 51
270.000000
  0
ARC
  8
CSLAYER1
  6
CONTINUOUS
 62
     4
 10
373.879393
 20
1147.204006
 40
1.000000
 50
270.000000
 51
360.000000
  0
ARC
  8
CSLAYER1
  6
CONTINUOUS
 62
     4
 10
375.879393
 20
1147.204006
 40
1.000000
 50
180.000000
 51
270.000000
  0
LINE
  8
CSLAYER1
  6
CONTINUOUS
 62
     4
 10
386.879393
 20
1146.204006
 11
375.879393
 21
1146.204006
  0
LINE
  8
CSLAYER1
  6
CONTINUOUS
 62
     4
 10
387.879393
 20
1167.204006
 11
388.879393
 21
1167.204006
  0
LINE
  8
CSLAYER1
  6
CONTINUOUS
 62
     4
 10
388.379393
 20
1177.204006
 11
387.879393
 21
1176.704006
  0
LINE
  8
CSLAYER1
  6
CONTINUOUS
 62
     4
 10
388.379393
 20
1157.204006
 11
387.879393
 21
1157.704006
  0
LINE
  8
CSLAYER1
  6
CONTINUOUS
 62
     4
 10
486.129393
 20
1141.829680
 11
461.879393
 21
1141.829680
  0
LINE
  8
CSLAYER1
  6
CONTINUOUS
 62
     4
 10
415.379393
 20
1150.079680
 11
459.879393
 21
1150.079680
  0
LINE
  8
CSLAYER1
  6
CONTINUOUS
 62
     4
 10
415.379393
 20
1194.079680
 11
459.879393
 21
1194.079680
  0
LINE
  8
CSLAYER1
  6
CONTINUOUS
 62
     4
 10
459.879393
 20
1200.329680
 11
459.879393
 21
1143.829680
  0
LINE
  8
CSLAYER1
  6
CONTINUOUS
 62
     4
 10
459.879393
 20
1200.329680
 11
461.879393
 21
1202.329680
  0
LINE
  8
CSLAYER1
  6
CONTINUOUS
 62
     4
 10
459.879393
 20
1143.829680
 11
461.879393
 21
1141.829680
  0
LINE
  8
CSLAYER1
  6
CONTINUOUS
 62
     4
 10
415.379393
 20
1194.079680
 11
410.379393
 21
1189.079680
  0
LINE
  8
CSLAYER1
  6
CONTINUOUS
 62
     4
 10
415.379393
 20
1194.079680
 11
415.379393
 21
1150.079680
  0
LINE
  8
CSLAYER1
  6
CONTINUOUS
 62
     4
 10
415.379393
 20
1150.079680
 11
410.379393
 21
1155.079680
  0
LINE
  8
CSLAYER1
  6
CONTINUOUS
 62
     4
 10
426.379393
 20
1212.279680
 11
456.379393
 21
1212.279680
  0
LINE
  8
CSLAYER1
  6
CONTINUOUS
 62
     4
 10
424.058884
 20
1197.279680
 11
424.058884
 21
1210.939935
  0
LINE
  8
CSLAYER1
  6
CONTINUOUS
 62
     4
 10
432.719139
 20
1197.279680
 11
432.719139
 21
1210.939935
  0
LINE
  8
CSLAYER1
  6
CONTINUOUS
 62
     4
 10
426.379393
 20
1212.279680
 11
424.058884
 21
1210.939935
  0
ARC
  8
CSLAYER1
  6
CONTINUOUS
 62
     4
 10
428.389012
 20
1204.625063
 40
7.656867
 50
55.561448
 51
124.438552
  0
ARC
  8
CSLAYER1
  6
CONTINUOUS
 62
     4
 10
441.379393
 20
1183.619426
 40
28.660254
 50
72.412046
 51
107.587954
  0
LINE
  8
CSLAYER1
  6
CONTINUOUS
 62
     4
 10
459.879393
 20
1197.279680
 11
422.879393
 21
1197.279680
  0
LINE
  8
CSLAYER1
  6
CONTINUOUS
 62
     4
 10
428.379393
 20
1214.779680
 11
454.379393
 21
1214.779680
  0
LINE
  8
CSLAYER1
  6
CONTINUOUS
 62
     4
 10
426.379393
 20
1212.279680
 11
426.379393
 21
1212.779680
  0
ARC
  8
CSLAYER1
  6
CONTINUOUS
 62
     4
 10
428.379393
 20
1212.779680
 40
2.000000
 50
90.000000
 51
180.000000
  0
LINE
  8
CSLAYER1
  6
CONTINUOUS
 62
     4
 10
458.699901
 20
1197.279680
 11
458.699901
 21
1210.939935
  0
LINE
  8
CSLAYER1
  6
CONTINUOUS
 62
     4
 10
450.039647
 20
1197.279680
 11
450.039647
 21
1210.939935
  0
LINE
  8
CSLAYER1
  6
CONTINUOUS
 62
     4
 10
456.379393
 20
1212.279680
 11
458.699901
 21
1210.939935
  0
ARC
  8
CSLAYER1
  6
CONTINUOUS
 62
     4
 10
454.369774
 20
1204.625063
 40
7.656867
 50
55.561448
 51
124.438552
  0
LINE
  8
CSLAYER1
  6
CONTINUOUS
 62
     4
 10
456.379393
 20
1212.279680
 11
456.379393
 21
1212.779680
  0
ARC
  8
CSLAYER1
  6
CONTINUOUS
 62
     4
 10
454.379393
 20
1212.779680
 40
2.000000
 50
0.000000
 51
90.000000
  0
LINE
  8
CSLAYER1
  6
CONTINUOUS
 62
     4
 10
431.379393
 20
1214.779680
 11
431.379393
 21
1216.719146
  0
LINE
  8
CSLAYER1
  6
CONTINUOUS
 62
     4
 10
432.879393
 20
1214.779680
 11
432.879393
 21
1216.719146
  0
LINE
  8
CSLAYER1
  6
CONTINUOUS
 62
     4
 10
422.879393
 20
1194.079680
 11
422.879393
 21
1197.279680
  0
LINE
  8
CSLAYER1
  6
CONTINUOUS
 62
     4
 10
451.379393
 20
1214.779680
 11
451.379393
 21
1216.719146
  0
LINE
  8
CSLAYER1
  6
CONTINUOUS
 62
     4
 10
449.879393
 20
1214.779680
 11
449.879393
 21
1216.719146
  0
LINE
  8
CSLAYER1
  6
CONTINUOUS
 62
     4
 10
461.879393
 20
1202.329680
 11
461.879393
 21
1141.829680
  0
LINE
  8
CSLAYER1
  6
CONTINUOUS
 62
     4
 10
513.742931
 20
1158.242318
 11
511.126535
 21
1158.054714
  0
LINE
  8
CSLAYER1
  6
CONTINUOUS
 62
     4
 10
511.126535
 20
1158.054714
 11
508.550116
 21
1157.743628
  0
LINE
  8
CSLAYER1
  6
CONTINUOUS
 62
     4
 10
508.550116
 20
1157.743628
 11
506.033283
 21
1157.311427
  0
LINE
  8
CSLAYER1
  6
CONTINUOUS
 62
     4
 10
506.033283
 20
1157.311427
 11
503.595190
 21
1156.761401
  0
LINE
  8
CSLAYER1
  6
CONTINUOUS
 62
     4
 10
503.595190
 20
1156.761401
 11
501.254393
 21
1156.097735
  0
LINE
  8
CSLAYER1
  6
CONTINUOUS
 62
     4
 10
501.254393
 20
1156.097735
 11
499.028705
 21
1155.325481
  0
LINE
  8
CSLAYER1
  6
CONTINUOUS
 62
     4
 10
499.028705
 20
1155.325481
 11
496.935067
 21
1154.450516
  0
LINE
  8
CSLAYER1
  6
CONTINUOUS
 62
     4
 10
496.935067
 20
1154.450516
 11
494.989412
 21
1153.479499
  0
LINE
  8
CSLAYER1
  6
CONTINUOUS
 62
     4
 10
494.989412
 20
1153.479499
 11
493.206548
 21
1152.419819
  0
LINE
  8
CSLAYER1
  6
CONTINUOUS
 62
     4
 10
493.206548
 20
1152.419819
 11
491.600043
 21
1151.279542
  0
LINE
  8
CSLAYER1
  6
CONTINUOUS
 62
     4
 10
491.600043
 20
1151.279542
 11
490.182124
 21
1150.067346
  0
LINE
  8
CSLAYER1
  6
CONTINUOUS
 62
     4
 10
490.182124
 20
1150.067346
 11
488.963582
 21
1148.792456
  0
LINE
  8
CSLAYER1
  6
CONTINUOUS
 62
     4
 10
488.963582
 20
1148.792456
 11
487.953691
 21
1147.464575
  0
LINE
  8
CSLAYER1
  6
CONTINUOUS
 62
     4
 10
487.953691
 20
1147.464575
 11
487.160136
 21
1146.093810
  0
LINE
  8
CSLAYER1
  6
CONTINUOUS
 62
     4
 10
487.160136
 20
1146.093810
 11
486.588958
 21
1144.690592
  0
LINE
  8
CSLAYER1
  6
CONTINUOUS
 62
     4
 10
486.588958
 20
1144.690592
 11
486.244503
 21
1143.265600
  0
LINE
  8
CSLAYER1
  6
CONTINUOUS
 62
     4
 10
486.244503
 20
1143.265600
 11
486.129393
 21
1141.829680
  0
LINE
  8
CSLAYER1
  6
CONTINUOUS
 62
     4
 10
388.379393
 20
1177.204006
 11
389.379393
 21
1177.204006
  0
LINE
  8
CSLAYER1
  6
CONTINUOUS
 62
     4
 10
388.379393
 20
1157.204006
 11
392.029393
 21
1157.204006
  0
LINE
  8
CSLAYER1
  6
CONTINUOUS
 62
     4
 10
410.379393
 20
1201.979680
 11
410.379393
 21
1142.179680
  0
ARC
  8
CSLAYER1
  6
CONTINUOUS
 62
     4
 10
409.279393
 20
1201.979680
 40
1.100000
 50
0.000000
 51
84.784091
  0
ARC
  8
CSLAYER1
  6
CONTINUOUS
 62
     4
 10
409.279393
 20
1142.179680
 40
1.100000
 50
275.215909
 51
360.000000
  0
LINE
  8
CSLAYER1
  6
CONTINUOUS
 62
     4
 10
390.879393
 20
1184.579680
 11
392.029393
 21
1184.579680
  0
LINE
  8
CSLAYER1
  6
CONTINUOUS
 62
     4
 10
392.029393
 20
1187.129680
 11
393.379393
 21
1187.129680
  0
LINE
  8
CSLAYER1
  6
CONTINUOUS
 62
     4
 10
392.029393
 20
1187.129680
 11
392.029393
 21
1157.029680
  0
LINE
  8
CSLAYER1
  6
CONTINUOUS
 62
     4
 10
389.379393
 20
1183.079680
 11
389.379393
 21
1161.079680
  0
LINE
  8
CSLAYER1
  6
CONTINUOUS
 62
     4
 10
389.379393
 20
1183.079680
 11
390.879393
 21
1184.579680
  0
LINE
  8
CSLAYER1
  6
CONTINUOUS
 62
     4
 10
390.879393
 20
1184.579680
 11
390.879393
 21
1159.579680
  0
LINE
  8
CSLAYER1
  6
CONTINUOUS
 62
     4
 10
390.879393
 20
1159.579680
 11
392.029393
 21
1159.579680
  0
LINE
  8
CSLAYER1
  6
CONTINUOUS
 62
     4
 10
392.029393
 20
1157.029680
 11
393.379393
 21
1157.029680
  0
LINE
  8
CSLAYER1
  6
CONTINUOUS
 62
     4
 10
389.379393
 20
1161.079680
 11
390.879393
 21
1159.579680
  0
LINE
  8
CSLAYER1
  6
CONTINUOUS
 62
     4
 10
374.879393
 20
1187.204006
 11
374.879393
 21
1147.204006
  0
LINE
  8
CSLAYER1
  6
CONTINUOUS
 62
     3
 10
314.679393
 20
1167.204006
 11
314.679393
 21
1176.704006
  0
LINE
  8
CSLAYER1
  6
CONTINUOUS
 62
     4
 10
317.879393
 20
1238.404006
 11
317.879393
 21
1148.204006
  0
LINE
  8
CSLAYER1
  6
CONTINUOUS
 62
     4
 10
358.879393
 20
1148.204006
 11
317.879393
 21
1148.204006
  0
LINE
  8
CSLAYER1
  6
CONTINUOUS
 62
     4
 10
314.679393
 20
1190.204006
 11
314.679393
 21
1159.204006
  0
LINE
  8
CSLAYER1
  6
CONTINUOUS
 62
     5
 10
310.188519
 20
1182.204006
 11
323.879393
 21
1182.204006
  0
LINE
  8
CSLAYER1
  6
CONTINUOUS
 62
     4
 10
314.679393
 20
1190.204006
 11
317.879393
 21
1190.204006
  0
LINE
  8
CSLAYER1
  6
CONTINUOUS
 62
     4
 10
359.879393
 20
1160.204006
 11
359.879393
 21
1174.204006
  0
LINE
  8
CSLAYER1
  6
CONTINUOUS
 62
     4
 10
359.879393
 20
1160.204006
 11
358.879393
 21
1159.204006
  0
LINE
  8
CSLAYER1
  6
CONTINUOUS
 62
     4
 10
314.679393
 20
1159.204006
 11
317.879393
 21
1159.204006
  0
LINE
  8
CSLAYER1
  6
CONTINUOUS
 62
     4
 10
359.879393
 20
1174.204006
 11
358.879393
 21
1175.204006
  0
LINE
  8
CSLAYER1
  6
CONTINUOUS
 62
     4
 10
314.679393
 20
1163.204006
 11
317.879393
 21
1163.204006
  0
LINE
  8
CSLAYER1
  6
CONTINUOUS
 62
     4
 10
314.679393
 20
1171.204006
 11
317.879393
 21
1171.204006
  0
LINE
  8
CSLAYER1
  6
CONTINUOUS
 62
     4
 10
455.379393
 20
777.652448
 11
455.379393
 21
795.031196
  0
LINE
  8
CSLAYER1
  6
CONTINUOUS
 62
     4
 10
454.379393
 20
777.652448
 11
454.379393
 21
796.031196
  0
LINE
  8
CSLAYER1
  6
CONTINUOUS
 62
     4
 10
449.379393
 20
796.031196
 11
452.405933
 21
796.031196
  0
LINE
  8
CSLAYER1
  6
CONTINUOUS
 62
     4
 10
455.379393
 20
795.031196
 11
454.379393
 21
796.031196
  0
LINE
  8
CSLAYER1
  6
CONTINUOUS
 62
     4
 10
432.379393
 20
801.031196
 11
431.379393
 21
802.031196
  0
LINE
  8
CSLAYER1
  6
CONTINUOUS
 62
     4
 10
454.379393
 20
796.031196
 11
449.313134
 21
801.015878
  0
LINE
  8
CSLAYER1
  6
CONTINUOUS
 62
     4
 10
449.379393
 20
800.950686
 11
454.298882
 21
796.031196
  0
LINE
  8
CSLAYER1
  6
CONTINUOUS
 62
     4
 10
449.379393
 20
800.667844
 11
454.016040
 21
796.031196
  0
LINE
  8
CSLAYER1
  6
CONTINUOUS
 62
     4
 10
449.379393
 20
800.385001
 11
453.733197
 21
796.031196
  0
LINE
  8
CSLAYER1
  6
CONTINUOUS
 62
     4
 10
449.379393
 20
800.102158
 11
453.450354
 21
796.031196
  0
LINE
  8
CSLAYER1
  6
CONTINUOUS
 62
     4
 10
449.379393
 20
799.819315
 11
453.167511
 21
796.031196
  0
LINE
  8
CSLAYER1
  6
CONTINUOUS
 62
     4
 10
449.379393
 20
799.536473
 11
452.884669
 21
796.031196
  0
LINE
  8
CSLAYER1
  6
CONTINUOUS
 62
     4
 10
449.379393
 20
799.253630
 11
452.601826
 21
796.031196
  0
LINE
  8
CSLAYER1
  6
CONTINUOUS
 62
     4
 10
449.379393
 20
798.970787
 11
452.318983
 21
796.031196
  0
LINE
  8
CSLAYER1
  6
CONTINUOUS
 62
     4
 10
449.379393
 20
798.687945
 11
452.036141
 21
796.031196
  0
LINE
  8
CSLAYER1
  6
CONTINUOUS
 62
     4
 10
449.379393
 20
798.405102
 11
451.753298
 21
796.031196
  0
LINE
  8
CSLAYER1
  6
CONTINUOUS
 62
     4
 10
449.379393
 20
798.122259
 11
451.470455
 21
796.031196
  0
LINE
  8
CSLAYER1
  6
CONTINUOUS
 62
     4
 10
449.379393
 20
797.839416
 11
451.187612
 21
796.031196
  0
LINE
  8
CSLAYER1
  6
CONTINUOUS
 62
     4
 10
449.379393
 20
797.556574
 11
450.904770
 21
796.031196
  0
LINE
  8
CSLAYER1
  6
CONTINUOUS
 62
     4
 10
449.379393
 20
797.273731
 11
450.621927
 21
796.031196
  0
LINE
  8
CSLAYER1
  6
CONTINUOUS
 62
     4
 10
449.379393
 20
796.990888
 11
450.339084
 21
796.031196
  0
LINE
  8
CSLAYER1
  6
CONTINUOUS
 62
     4
 10
449.379393
 20
796.708046
 11
450.056242
 21
796.031196
  0
LINE
  8
CSLAYER1
  6
CONTINUOUS
 62
     4
 10
449.379393
 20
796.425203
 11
449.773399
 21
796.031196
  0
LINE
  8
CSLAYER1
  6
CONTINUOUS
 62
     4
 10
449.379393
 20
796.142360
 11
449.490556
 21
796.031196
  0
LINE
  8
CSLAYER1
  6
CONTINUOUS
 62
     4
 10
352.405933
 20
760.681196
 11
393.379393
 21
760.681196
  0
LINE
  8
CSLAYER1
  6
CONTINUOUS
 62
     4
 10
432.379393
 20
801.031196
 11
432.379393
 21
766.399442
  0
LINE
  8
CSLAYER1
  6
CONTINUOUS
 62
     4
 10
351.405933
 20
802.381196
 11
351.405933
 21
761.681196
  0
LINE
  8
CSLAYER1
  6
CONTINUOUS
 62
     4
 10
351.405933
 20
761.681196
 11
352.405933
 21
760.681196
  0
LINE
  8
CSLAYER1
  6
CONTINUOUS
 62
     4
 10
311.405933
 20
792.031196
 11
311.405933
 21
772.031196
  0
LINE
  8
CSLAYER1
  6
CONTINUOUS
 62
     4
 10
330.405933
 20
800.531196
 11
330.405933
 21
763.531196
  0
LINE
  8
CSLAYER1
  6
CONTINUOUS
 62
     4
 10
325.305933
 20
799.031196
 11
325.305933
 21
765.031196
  0
LINE
  8
CSLAYER1
  6
CONTINUOUS
 62
     4
 10
313.305933
 20
799.031196
 11
313.305933
 21
765.031196
  0
LINE
  8
CSLAYER1
  6
CONTINUOUS
 62
     4
 10
330.405933
 20
799.031196
 11
313.305933
 21
799.031196
  0
LINE
  8
CSLAYER1
  6
CONTINUOUS
 62
     4
 10
325.305933
 20
792.031196
 11
311.405933
 21
792.031196
  0
LINE
  8
CSLAYER1
  6
CONTINUOUS
 62
     4
 10
330.405933
 20
765.031196
 11
313.305933
 21
765.031196
  0
LINE
  8
CSLAYER1
  6
CONTINUOUS
 62
     4
 10
325.305933
 20
772.031196
 11
311.405933
 21
772.031196
  0
LINE
  8
CSLAYER1
  6
CONTINUOUS
 62
     4
 10
333.405933
 20
800.531196
 11
330.405933
 21
800.531196
  0
LINE
  8
CSLAYER1
  6
CONTINUOUS
 62
     4
 10
333.405933
 20
763.531196
 11
330.405933
 21
763.531196
  0
LINE
  8
CSLAYER1
  6
CONTINUOUS
 62
     4
 10
333.405933
 20
763.531196
 11
333.405933
 21
800.531196
  0
LINE
  8
CSLAYER1
  6
CENTER
 62
     5
 10
297.283927
 20
782.031196
 11
457.199672
 21
782.031196
  0
LINE
  8
CSLAYER1
  6
CONTINUOUS
 62
     4
 10
333.405933
 20
769.531196
 11
334.379393
 21
769.531196
  0
LINE
  8
CSLAYER1
  6
CONTINUOUS
 62
     4
 10
352.405933
 20
803.381196
 11
393.379393
 21
803.381196
  0
LINE
  8
CSLAYER1
  6
CONTINUOUS
 62
     4
 10
351.405933
 20
802.381196
 11
352.405933
 21
803.381196
  0
LINE
  8
CSLAYER1
  6
CONTINUOUS
 62
     4
 10
333.405933
 20
794.531196
 11
334.379393
 21
794.531196
  0
LINE
  8
CSLAYER1
  6
CONTINUOUS
 62
     4
 10
334.405933
 20
782.031196
 11
334.405933
 21
434.858387
  0
LINE
  8
CSLAYER1
  6
CONTINUOUS
 62
     4
 10
388.379393
 20
760.681196
 11
393.379393
 21
755.681196
  0
LINE
  8
CSLAYER1
  6
CONTINUOUS
 62
     4
 10
393.379393
 20
755.964039
 11
388.662235
 21
760.681196
  0
LINE
  8
CSLAYER1
  6
CONTINUOUS
 62
     4
 10
393.379393
 20
756.246882
 11
388.945078
 21
760.681196
  0
LINE
  8
CSLAYER1
  6
CONTINUOUS
 62
     4
 10
393.379393
 20
756.529725
 11
389.227921
 21
760.681196
  0
LINE
  8
CSLAYER1
  6
CONTINUOUS
 62
     4
 10
393.379393
 20
756.812567
 11
389.510763
 21
760.681196
  0
LINE
  8
CSLAYER1
  6
CONTINUOUS
 62
     4
 10
393.379393
 20
757.095410
 11
389.793606
 21
760.681196
  0
LINE
  8
CSLAYER1
  6
CONTINUOUS
 62
     4
 10
393.379393
 20
757.378253
 11
390.076449
 21
760.681196
  0
LINE
  8
CSLAYER1
  6
CONTINUOUS
 62
     4
 10
393.379393
 20
757.661095
 11
390.359292
 21
760.681196
  0
LINE
  8
CSLAYER1
  6
CONTINUOUS
 62
     4
 10
393.379393
 20
757.943938
 11
390.642134
 21
760.681196
  0
LINE
  8
CSLAYER1
  6
CONTINUOUS
 62
     4
 10
393.379393
 20
758.226781
 11
390.924977
 21
760.681196
  0
LINE
  8
CSLAYER1
  6
CONTINUOUS
 62
     4
 10
393.379393
 20
758.509624
 11
391.207820
 21
760.681196
  0
LINE
  8
CSLAYER1
  6
CONTINUOUS
 62
     4
 10
393.379393
 20
758.792466
 11
391.490662
 21
760.681196
  0
LINE
  8
CSLAYER1
  6
CONTINUOUS
 62
     4
 10
393.379393
 20
759.075309
 11
391.773505
 21
760.681196
  0
LINE
  8
CSLAYER1
  6
CONTINUOUS
 62
     4
 10
393.379393
 20
759.358152
 11
392.056348
 21
760.681196
  0
LINE
  8
CSLAYER1
  6
CONTINUOUS
 62
     4
 10
393.379393
 20
759.640994
 11
392.339191
 21
760.681196
  0
LINE
  8
CSLAYER1
  6
CONTINUOUS
 62
     4
 10
393.379393
 20
759.923837
 11
392.622033
 21
760.681196
  0
LINE
  8
CSLAYER1
  6
CONTINUOUS
 62
     4
 10
393.379393
 20
760.206680
 11
392.904876
 21
760.681196
  0
LINE
  8
CSLAYER1
  6
CONTINUOUS
 62
     4
 10
393.379393
 20
760.489523
 11
393.187719
 21
760.681196
  0
LINE
  8
CSLAYER1
  6
CONTINUOUS
 62
     4
 10
409.379393
 20
806.748354
 11
414.096550
 21
802.031196
  0
LINE
  8
CSLAYER1
  6
CONTINUOUS
 62
     4
 10
409.379393
 20
806.465511
 11
413.813707
 21
802.031196
  0
LINE
  8
CSLAYER1
  6
CONTINUOUS
 62
     4
 10
409.379393
 20
806.182668
 11
413.530864
 21
802.031196
  0
LINE
  8
CSLAYER1
  6
CONTINUOUS
 62
     4
 10
409.379393
 20
805.899826
 11
413.248022
 21
802.031196
  0
LINE
  8
CSLAYER1
  6
CONTINUOUS
 62
     4
 10
409.379393
 20
805.616983
 11
412.965179
 21
802.031196
  0
LINE
  8
CSLAYER1
  6
CONTINUOUS
 62
     4
 10
409.379393
 20
805.334140
 11
412.682336
 21
802.031196
  0
LINE
  8
CSLAYER1
  6
CONTINUOUS
 62
     4
 10
409.379393
 20
805.051298
 11
412.399494
 21
802.031196
  0
LINE
  8
CSLAYER1
  6
CONTINUOUS
 62
     4
 10
409.379393
 20
804.768455
 11
412.116651
 21
802.031196
  0
LINE
  8
CSLAYER1
  6
CONTINUOUS
 62
     4
 10
409.379393
 20
804.485612
 11
411.833808
 21
802.031196
  0
LINE
  8
CSLAYER1
  6
CONTINUOUS
 62
     4
 10
409.379393
 20
804.202769
 11
411.550965
 21
802.031196
  0
LINE
  8
CSLAYER1
  6
CONTINUOUS
 62
     4
 10
409.379393
 20
803.919927
 11
411.268123
 21
802.031196
  0
LINE
  8
CSLAYER1
  6
CONTINUOUS
 62
     4
 10
409.379393
 20
803.637084
 11
410.985280
 21
802.031196
  0
LINE
  8
CSLAYER1
  6
CONTINUOUS
 62
     4
 10
409.379393
 20
803.354241
 11
410.702437
 21
802.031196
  0
LINE
  8
CSLAYER1
  6
CONTINUOUS
 62
     4
 10
409.379393
 20
803.071399
 11
410.419595
 21
802.031196
  0
LINE
  8
CSLAYER1
  6
CONTINUOUS
 62
     4
 10
409.379393
 20
802.788556
 11
410.136752
 21
802.031196
  0
LINE
  8
CSLAYER1
  6
CONTINUOUS
 62
     4
 10
409.379393
 20
802.505713
 11
409.853909
 21
802.031196
  0
LINE
  8
CSLAYER1
  6
CONTINUOUS
 62
     4
 10
409.379393
 20
802.222870
 11
409.571066
 21
802.031196
  0
LINE
  8
CSLAYER1
  6
CONTINUOUS
 62
     4
 10
388.379393
 20
803.381196
 11
393.379393
 21
808.381196
  0
LINE
  8
CSLAYER1
  6
CONTINUOUS
 62
     4
 10
393.379393
 20
808.098354
 11
388.662235
 21
803.381196
  0
LINE
  8
CSLAYER1
  6
CONTINUOUS
 62
     4
 10
393.379393
 20
807.815511
 11
388.945078
 21
803.381196
  0
LINE
  8
CSLAYER1
  6
CONTINUOUS
 62
     4
 10
393.379393
 20
807.532668
 11
389.227921
 21
803.381196
  0
LINE
  8
CSLAYER1
  6
CONTINUOUS
 62
     4
 10
393.379393
 20
807.249826
 11
389.510763
 21
803.381196
  0
LINE
  8
CSLAYER1
  6
CONTINUOUS
 62
     4
 10
393.379393
 20
806.966983
 11
389.793606
 21
803.381196
  0
LINE
  8
CSLAYER1
  6
CONTINUOUS
 62
     4
 10
393.379393
 20
806.684140
 11
390.076449
 21
803.381196
  0
LINE
  8
CSLAYER1
  6
CONTINUOUS
 62
     4
 10
393.379393
 20
806.401298
 11
390.359292
 21
803.381196
  0
LINE
  8
CSLAYER1
  6
CONTINUOUS
 62
     4
 10
393.379393
 20
806.118455
 11
390.642134
 21
803.381196
  0
LINE
  8
CSLAYER1
  6
CONTINUOUS
 62
     4
 10
393.379393
 20
805.835612
 11
390.924977
 21
803.381196
  0
LINE
  8
CSLAYER1
  6
CONTINUOUS
 62
     4
 10
393.379393
 20
805.552769
 11
391.207820
 21
803.381196
  0
LINE
  8
CSLAYER1
  6
CONTINUOUS
 62
     4
 10
393.379393
 20
805.269927
 11
391.490662
 21
803.381196
  0
LINE
  8
CSLAYER1
  6
CONTINUOUS
 62
     4
 10
393.379393
 20
804.987084
 11
391.773505
 21
803.381196
  0
LINE
  8
CSLAYER1
  6
CONTINUOUS
 62
     4
 10
393.379393
 20
804.704241
 11
392.056348
 21
803.381196
  0
LINE
  8
CSLAYER1
  6
CONTINUOUS
 62
     4
 10
393.379393
 20
804.421399
 11
392.339191
 21
803.381196
  0
LINE
  8
CSLAYER1
  6
CONTINUOUS
 62
     4
 10
393.379393
 20
804.138556
 11
392.622033
 21
803.381196
  0
LINE
  8
CSLAYER1
  6
CONTINUOUS
 62
     4
 10
393.379393
 20
803.855713
 11
392.904876
 21
803.381196
  0
LINE
  8
CSLAYER1
  6
CONTINUOUS
 62
     4
 10
393.379393
 20
803.572870
 11
393.187719
 21
803.381196
  0
LINE
  8
CSLAYER1
  6
CONTINUOUS
 62
     4
 10
410.419595
 20
802.031196
 11
409.379393
 21
802.031196
  0
POINT
  8
CSLAYER1
 62
     4
 10
441.379393
 20
824.800424
  0
LINE
  8
CSLAYER1
  6
CONTINUOUS
 62
     4
 10
423.479393
 20
811.800424
 11
423.479393
 21
869.550424
  0
LINE
  8
CSLAYER1
  6
CONTINUOUS
 62
     4
 10
421.629393
 20
821.030424
 11
421.629393
 21
828.580150
  0
LINE
  8
CSLAYER1
  6
CONTINUOUS
 62
     4
 10
427.854393
 20
811.800424
 11
423.479393
 21
811.800424
  0
LINE
  8
CSLAYER1
  6
CONTINUOUS
 62
     4
 10
423.479393
 20
829.580150
 11
422.629393
 21
829.580150
  0
ARC
  8
CSLAYER1
  6
CONTINUOUS
 62
     4
 10
422.629393
 20
821.030424
 40
1.000000
 50
180.000000
 51
270.000000
  0
ARC
  8
CSLAYER1
  6
CONTINUOUS
 62
     4
 10
422.629393
 20
828.580150
 40
1.000000
 50
90.000000
 51
180.000000
  0
LINE
  8
CSLAYER1
  6
CONTINUOUS
 62
     4
 10
454.904393
 20
811.800424
 11
454.904393
 21
907.050424
  0
LINE
  8
CSLAYER1
  6
CONTINUOUS
 62
     4
 10
459.279393
 20
811.800424
 11
459.279393
 21
869.550424
  0
LINE
  8
CSLAYER1
  6
CONTINUOUS
 62
     4
 10
461.129393
 20
821.030424
 11
461.129393
 21
828.580150
  0
LINE
  8
CSLAYER1
  6
CONTINUOUS
 62
     4
 10
454.904393
 20
811.800424
 11
459.279393
 21
811.800424
  0
LINE
  8
CSLAYER1
  6
CONTINUOUS
 62
     4
 10
459.279393
 20
820.030424
 11
460.129393
 21
820.030424
  0
LINE
  8
CSLAYER1
  6
CONTINUOUS
 62
     4
 10
459.279393
 20
829.580150
 11
460.129393
 21
829.580150
  0
ARC
  8
CSLAYER1
  6
CONTINUOUS
 62
     4
 10
460.129393
 20
821.030424
 40
1.000000
 50
270.000000
 51
360.000000
  0
ARC
  8
CSLAYER1
  6
CONTINUOUS
 62
     4
 10
460.129393
 20
828.580150
 40
1.000000
 50
0.000000
 51
90.000000
  0
LINE
  8
CSLAYER1
  6
CONTINUOUS
 62
     4
 10
453.904393
 20
814.800424
 11
449.379393
 21
814.800424
  0
LINE
  8
CSLAYER1
  6
CONTINUOUS
 62
     4
 10
454.904393
 20
815.800424
 11
453.904393
 21
814.800424
  0
LINE
  8
CSLAYER1
  6
CONTINUOUS
 62
     4
 10
428.854393
 20
814.800424
 11
427.854393
 21
815.800424
  0
LINE
  8
CSLAYER1
  6
CONTINUOUS
 62
     4
 10
453.904393
 20
834.800424
 11
449.379393
 21
834.800424
  0
LINE
  8
CSLAYER1
  6
CONTINUOUS
 62
     4
 10
454.904393
 20
833.800424
 11
453.904393
 21
834.800424
  0
LINE
  8
CSLAYER1
  6
CONTINUOUS
 62
     4
 10
428.854393
 20
834.800424
 11
427.854393
 21
833.800424
  0
LINE
  8
CSLAYER1
  6
CONTINUOUS
 62
     5
 10
413.896111
 20
856.550424
 11
458.432023
 21
856.550424
  0
LINE
  8
CSLAYER1
  6
CONTINUOUS
 62
     4
 10
454.904393
 20
869.550424
 11
459.279393
 21
869.550424
  0
LINE
  8
CSLAYER1
  6
CONTINUOUS
 62
     4
 10
461.129393
 20
852.780424
 11
461.129393
 21
860.330150
  0
LINE
  8
CSLAYER1
  6
CONTINUOUS
 62
     4
 10
459.279393
 20
851.780424
 11
460.129393
 21
851.780424
  0
LINE
  8
CSLAYER1
  6
CONTINUOUS
 62
     4
 10
459.279393
 20
861.330150
 11
460.129393
 21
861.330150
  0
ARC
  8
CSLAYER1
  6
CONTINUOUS
 62
     4
 10
460.129393
 20
852.780424
 40
1.000000
 50
270.000000
 51
360.000000
  0
ARC
  8
CSLAYER1
  6
CONTINUOUS
 62
     4
 10
460.129393
 20
860.330150
 40
1.000000
 50
0.000000
 51
90.000000
  0
LINE
  8
CSLAYER1
  6
CONTINUOUS
 62
     4
 10
427.854393
 20
869.550424
 11
423.479393
 21
869.550424
  0
LINE
  8
CSLAYER1
  6
CONTINUOUS
 62
     4
 10
423.479393
 20
820.030424
 11
422.629393
 21
820.030424
  0
LINE
  8
CSLAYER1
  6
CONTINUOUS
 62
     4
 10
421.629393
 20
852.780424
 11
421.629393
 21
860.330150
  0
LINE
  8
CSLAYER1
  6
CONTINUOUS
 62
     4
 10
423.479393
 20
851.780424
 11
422.629393
 21
851.780424
  0
LINE
  8
CSLAYER1
  6
CONTINUOUS
 62
     4
 10
423.479393
 20
861.330150
 11
422.629393
 21
861.330150
  0
ARC
  8
CSLAYER1
  6
CONTINUOUS
 62
     4
 10
422.629393
 20
852.780424
 40
1.000000
 50
180.000000
 51
270.000000
  0
ARC
  8
CSLAYER1
  6
CONTINUOUS
 62
     4
 10
422.629393
 20
860.330150
 40
1.000000
 50
90.000000
 51
180.000000
  0
POINT
  8
CSLAYER1
 62
     4
 10
441.379393
 20
856.550424
  0
LINE
  8
CSLAYER1
  6
CONTINUOUS
 62
     5
 10
414.741730
 20
824.800424
 11
459.277641
 21
824.800424
  0
LINE
  8
CSLAYER1
  6
CONTINUOUS
 62
     4
 10
433.379393
 20
847.025424
 11
433.379393
 21
766.979910
  0
LINE
  8
CSLAYER1
  6
CONTINUOUS
 62
     4
 10
449.379393
 20
847.025424
 11
449.379393
 21
776.267407
  0
POINT
  8
CSLAYER1
 62
     4
 10
441.379393
 20
888.300424
  0
LINE
  8
CSLAYER1
  6
CONTINUOUS
 62
     4
 10
427.854393
 20
811.800424
 11
427.854393
 21
907.050424
  0
LINE
  8
CSLAYER1
  6
CONTINUOUS
 62
     4
 10
431.854393
 20
903.350424
 11
431.854393
 21
841.500424
  0
LINE
  8
CSLAYER1
  6
CONTINUOUS
 62
     4
 10
431.854393
 20
903.350424
 11
427.854393
 21
903.350424
  0
LINE
  8
CSLAYER1
  6
CONTINUOUS
 62
     4
 10
432.854393
 20
878.775424
 11
449.904393
 21
878.775424
  0
LINE
  8
CSLAYER1
  6
CONTINUOUS
 62
     4
 10
432.854393
 20
897.825424
 11
449.904393
 21
897.825424
  0
ARC
  8
CSLAYER1
  6
CONTINUOUS
 62
     4
 10
432.854393
 20
879.775424
 40
1.000000
 50
180.000000
 51
270.000000
  0
ARC
  8
CSLAYER1
  6
CONTINUOUS
 62
     4
 10
432.854393
 20
896.825424
 40
1.000000
 50
90.000000
 51
180.000000
  0
LINE
  8
CSLAYER1
  6
CONTINUOUS
 62
     4
 10
450.904393
 20
903.350424
 11
450.904393
 21
841.500424
  0
LINE
  8
CSLAYER1
  6
CONTINUOUS
 62
     4
 10
450.904393
 20
903.350424
 11
454.904393
 21
903.350424
  0
ARC
  8
CSLAYER1
  6
CONTINUOUS
 62
     4
 10
449.904393
 20
879.775424
 40
1.000000
 50
270.000000
 51
360.000000
  0
ARC
  8
CSLAYER1
  6
CONTINUOUS
 62
     4
 10
449.904393
 20
896.825424
 40
1.000000
 50
0.000000
 51
90.000000
  0
LINE
  8
CSLAYER1
  6
CONTINUOUS
 62
     4
 10
421.629393
 20
884.530424
 11
421.629393
 21
892.080150
  0
LINE
  8
CSLAYER1
  6
CONTINUOUS
 62
     4
 10
427.854393
 20
875.300424
 11
423.479393
 21
875.300424
  0
LINE
  8
CSLAYER1
  6
CONTINUOUS
 62
     4
 10
423.479393
 20
883.530424
 11
422.629393
 21
883.530424
  0
LINE
  8
CSLAYER1
  6
CONTINUOUS
 62
     4
 10
423.479393
 20
893.080150
 11
422.629393
 21
893.080150
  0
ARC
  8
CSLAYER1
  6
CONTINUOUS
 62
     4
 10
422.629393
 20
884.530424
 40
1.000000
 50
180.000000
 51
270.000000
  0
ARC
  8
CSLAYER1
  6
CONTINUOUS
 62
     4
 10
422.629393
 20
892.080150
 40
1.000000
 50
90.000000
 51
180.000000
  0
LINE
  8
CSLAYER1
  6
CONTINUOUS
 62
     4
 10
461.129393
 20
884.530424
 11
461.129393
 21
892.080150
  0
LINE
  8
CSLAYER1
  6
CONTINUOUS
 62
     4
 10
454.904393
 20
875.300424
 11
459.279393
 21
875.300424
  0
LINE
  8
CSLAYER1
  6
CONTINUOUS
 62
     4
 10
459.279393
 20
883.530424
 11
460.129393
 21
883.530424
  0
LINE
  8
CSLAYER1
  6
CONTINUOUS
 62
     4
 10
459.279393
 20
893.080150
 11
460.129393
 21
893.080150
  0
ARC
  8
CSLAYER1
  6
CONTINUOUS
 62
     4
 10
460.129393
 20
884.530424
 40
1.000000
 50
270.000000
 51
360.000000
  0
ARC
  8
CSLAYER1
  6
CONTINUOUS
 62
     4
 10
460.129393
 20
892.080150
 40
1.000000
 50
0.000000
 51
90.000000
  0
LINE
  8
CSLAYER1
  6
CONTINUOUS
 62
     4
 10
423.479393
 20
875.300424
 11
423.479393
 21
933.050424
  0
LINE
  8
CSLAYER1
  6
CONTINUOUS
 62
     4
 10
459.279393
 20
875.300424
 11
459.279393
 21
933.050424
  0
LINE
  8
CSLAYER1
  6
CONTINUOUS
 62
     4
 10
431.854393
 20
841.500424
 11
427.854393
 21
841.500424
  0
LINE
  8
CSLAYER1
  6
CONTINUOUS
 62
     4
 10
432.854393
 20
866.075424
 11
449.904393
 21
866.075424
  0
LINE
  8
CSLAYER1
  6
CONTINUOUS
 62
     4
 10
432.854393
 20
847.025424
 11
449.904393
 21
847.025424
  0
ARC
  8
CSLAYER1
  6
CONTINUOUS
 62
     4
 10
432.854393
 20
865.075424
 40
1.000000
 50
90.000000
 51
180.000000
  0
ARC
  8
CSLAYER1
  6
CONTINUOUS
 62
     4
 10
432.854393
 20
848.025424
 40
1.000000
 50
180.000000
 51
270.000000
  0
LINE
  8
CSLAYER1
  6
CONTINUOUS
 62
     4
 10
450.904393
 20
841.500424
 11
454.904393
 21
841.500424
  0
ARC
  8
CSLAYER1
  6
CONTINUOUS
 62
     4
 10
449.904393
 20
865.075424
 40
1.000000
 50
0.000000
 51
90.000000
  0
ARC
  8
CSLAYER1
  6
CONTINUOUS
 62
     4
 10
449.904393
 20
848.025424
 40
1.000000
 50
270.000000
 51
360.000000
  0
LINE
  8
CSLAYER1
  6
CONTINUOUS
 62
     4
 10
433.379393
 20
841.800424
 11
449.379393
 21
841.800424
  0
LINE
  8
CSLAYER1
  6
CONTINUOUS
 62
     4
 10
433.379393
 20
834.800424
 11
428.854393
 21
834.800424
  0
LINE
  8
CSLAYER1
  6
CONTINUOUS
 62
     4
 10
433.379393
 20
814.800424
 11
428.854393
 21
814.800424
  0
LINE
  8
CSLAYER1
  6
CONTINUOUS
 62
     4
 10
411.571066
 20
802.031196
 11
431.379393
 21
802.031196
  0
LINE
  8
CSLAYER1
  6
CONTINUOUS
 62
     4
 10
432.379393
 20
797.031196
 11
433.379393
 21
797.031196
  0
LINE
  8
CSLAYER1
  6
CONTINUOUS
 62
     4
 10
350.379393
 20
797.031196
 11
351.405933
 21
797.031196
  0
LINE
  8
CSLAYER1
  6
CONTINUOUS
 62
     4
 10
350.379393
 20
767.031196
 11
351.405933
 21
767.031196
  0
LINE
  8
CSLAYER1
  6
CONTINUOUS
 62
     4
 10
409.379393
 20
757.314039
 11
414.096550
 21
762.031196
  0
LINE
  8
CSLAYER1
  6
CONTINUOUS
 62
     4
 10
409.379393
 20
757.596882
 11
413.813707
 21
762.031196
  0
LINE
  8
CSLAYER1
  6
CONTINUOUS
 62
     4
 10
409.379393
 20
757.879725
 11
413.530864
 21
762.031196
  0
LINE
  8
CSLAYER1
  6
CONTINUOUS
 62
     4
 10
409.379393
 20
758.162567
 11
413.248022
 21
762.031196
  0
LINE
  8
CSLAYER1
  6
CONTINUOUS
 62
     4
 10
409.379393
 20
758.445410
 11
412.965179
 21
762.031196
  0
LINE
  8
CSLAYER1
  6
CONTINUOUS
 62
     4
 10
409.379393
 20
758.728253
 11
412.682336
 21
762.031196
  0
LINE
  8
CSLAYER1
  6
CONTINUOUS
 62
     4
 10
409.379393
 20
759.011095
 11
412.399494
 21
762.031196
  0
LINE
  8
CSLAYER1
  6
CONTINUOUS
 62
     4
 10
409.379393
 20
759.293938
 11
412.116651
 21
762.031196
  0
LINE
  8
CSLAYER1
  6
CONTINUOUS
 62
     4
 10
409.379393
 20
759.576781
 11
411.833808
 21
762.031196
  0
LINE
  8
CSLAYER1
  6
CONTINUOUS
 62
     4
 10
409.379393
 20
759.859624
 11
411.550965
 21
762.031196
  0
LINE
  8
CSLAYER1
  6
CONTINUOUS
 62
     4
 10
409.379393
 20
760.142466
 11
411.268123
 21
762.031196
  0
LINE
  8
CSLAYER1
  6
CONTINUOUS
 62
     4
 10
409.379393
 20
760.425309
 11
410.985280
 21
762.031196
  0
LINE
  8
CSLAYER1
  6
CONTINUOUS
 62
     4
 10
409.379393
 20
760.708152
 11
410.702437
 21
762.031196
  0
LINE
  8
CSLAYER1
  6
CONTINUOUS
 62
     4
 10
409.379393
 20
760.990994
 11
410.419595
 21
762.031196
  0
LINE
  8
CSLAYER1
  6
CONTINUOUS
 62
     4
 10
409.379393
 20
761.273837
 11
410.136752
 21
762.031196
  0
LINE
  8
CSLAYER1
  6
CONTINUOUS
 62
     4
 10
409.379393
 20
761.556680
 11
409.853909
 21
762.031196
  0
LINE
  8
CSLAYER1
  6
CONTINUOUS
 62
     4
 10
409.379393
 20
761.839523
 11
409.571066
 21
762.031196
  0
LINE
  8
CSLAYER1
  6
CONTINUOUS
 62
     4
 10
410.419595
 20
762.031196
 11
409.379393
 21
762.031196
  0
LINE
  8
CSLAYER1
  6
CONTINUOUS
 62
     4
 10
411.571066
 20
762.031196
 11
424.854014
 21
762.031196
  0
POINT
  8
CSLAYER1
 62
     5
 10
410.379393
 20
724.124769
  0
LINE
  8
CSLAYER1
  6
CONTINUOUS
 62
     7
 10
410.379393
 20
747.871191
 11
410.379393
 21
700.279480
  0
LINE
  8
CSLAYER1
  6
CONTINUOUS
 62
     7
 10
432.379393
 20
702.717183
 11
432.516123
 21
703.657720
  0
LINE
  8
CSLAYER1
  6
CONTINUOUS
 62
     7
 10
432.516123
 20
703.657720
 11
432.922159
 21
704.569679
  0
LINE
  8
CSLAYER1
  6
CONTINUOUS
 62
     7
 10
432.922159
 20
704.569679
 11
433.585164
 21
705.425351
  0
LINE
  8
CSLAYER1
  6
CONTINUOUS
 62
     7
 10
433.585164
 20
705.425351
 11
434.484993
 21
706.198736
  0
LINE
  8
CSLAYER1
  6
CONTINUOUS
 62
     7
 10
434.484993
 20
706.198736
 11
435.594304
 21
706.866337
  0
LINE
  8
CSLAYER1
  6
CONTINUOUS
 62
     7
 10
435.594304
 20
706.866337
 11
436.879393
 21
707.407867
  0
LINE
  8
CSLAYER1
  6
CONTINUOUS
 62
     7
 10
436.879393
 20
707.407867
 11
438.301211
 21
707.806874
  0
LINE
  8
CSLAYER1
  6
CONTINUOUS
 62
     7
 10
438.301211
 20
707.806874
 11
439.816559
 21
708.051232
  0
LINE
  8
CSLAYER1
  6
CONTINUOUS
 62
     7
 10
439.816559
 20
708.051232
 11
441.379393
 21
708.133519
  0
LINE
  8
CSLAYER1
  6
CONTINUOUS
 62
     7
 10
441.379393
 20
708.133519
 11
442.942226
 21
708.051232
  0
LINE
  8
CSLAYER1
  6
CONTINUOUS
 62
     7
 10
442.942226
 20
708.051232
 11
444.457574
 21
707.806874
  0
LINE
  8
CSLAYER1
  6
CONTINUOUS
 62
     7
 10
444.457574
 20
707.806874
 11
445.879393
 21
707.407867
  0
LINE
  8
CSLAYER1
  6
CONTINUOUS
 62
     7
 10
445.879393
 20
707.407867
 11
447.164481
 21
706.866337
  0
LINE
  8
CSLAYER1
  6
CONTINUOUS
 62
     7
 10
447.164481
 20
706.866337
 11
448.273793
 21
706.198736
  0
LINE
  8
CSLAYER1
  6
CONTINUOUS
 62
     7
 10
448.273793
 20
706.198736
 11
449.173621
 21
705.425351
  0
LINE
  8
CSLAYER1
  6
CONTINUOUS
 62
     7
 10
449.173621
 20
705.425351
 11
449.836626
 21
704.569679
  0
LINE
  8
CSLAYER1
  6
CONTINUOUS
 62
     7
 10
449.836626
 20
704.569679
 11
450.242662
 21
703.657720
  0
LINE
  8
CSLAYER1
  6
CONTINUOUS
 62
     7
 10
450.242662
 20
703.657720
 11
450.379393
 21
702.717183
  0
LINE
  8
CSLAYER1
  6
CONTINUOUS
 62
     7
 10
450.379393
 20
702.717183
 11
450.242662
 21
701.776647
  0
LINE
  8
CSLAYER1
  6
CONTINUOUS
 62
     7
 10
450.242662
 20
701.776647
 11
449.836626
 21
700.864688
  0
LINE
  8
CSLAYER1
  6
CONTINUOUS
 62
     7
 10
449.836626
 20
700.864688
 11
449.173621
 21
700.009016
  0
LINE
  8
CSLAYER1
  6
CONTINUOUS
 62
     7
 10
449.173621
 20
700.009016
 11
448.273793
 21
699.235630
  0
LINE
  8
CSLAYER1
  6
CONTINUOUS
 62
     7
 10
448.273793
 20
699.235630
 11
447.164481
 21
698.568030
  0
LINE
  8
CSLAYER1
  6
CONTINUOUS
 62
     7
 10
447.164481
 20
698.568030
 11
445.879393
 21
698.026499
  0
LINE
  8
CSLAYER1
  6
CONTINUOUS
 62
     7
 10
445.879393
 20
698.026499
 11
444.457574
 21
697.627493
  0
LINE
  8
CSLAYER1
  6
CONTINUOUS
 62
     7
 10
444.457574
 20
697.627493
 11
442.942226
 21
697.383134
  0
LINE
  8
CSLAYER1
  6
CONTINUOUS
 62
     7
 10
442.942226
 20
697.383134
 11
441.379393
 21
697.300848
  0
LINE
  8
CSLAYER1
  6
CONTINUOUS
 62
     7
 10
441.379393
 20
697.300848
 11
439.816559
 21
697.383134
  0
LINE
  8
CSLAYER1
  6
CONTINUOUS
 62
     7
 10
439.816559
 20
697.383134
 11
438.301211
 21
697.627493
  0
LINE
  8
CSLAYER1
  6
CONTINUOUS
 62
     7
 10
438.301211
 20
697.627493
 11
436.879393
 21
698.026499
  0
LINE
  8
CSLAYER1
  6
CONTINUOUS
 62
     7
 10
436.879393
 20
698.026499
 11
435.594304
 21
698.568030
  0
LINE
  8
CSLAYER1
  6
CONTINUOUS
 62
     7
 10
435.594304
 20
698.568030
 11
434.484993
 21
699.235630
  0
LINE
  8
CSLAYER1
  6
CONTINUOUS
 62
     7
 10
434.484993
 20
699.235630
 11
433.585164
 21
700.009016
  0
LINE
  8
CSLAYER1
  6
CONTINUOUS
 62
     7
 10
433.585164
 20
700.009016
 11
432.922159
 21
700.864688
  0
LINE
  8
CSLAYER1
  6
CONTINUOUS
 62
     7
 10
432.922159
 20
700.864688
 11
432.516123
 21
701.776647
  0
LINE
  8
CSLAYER1
  6
CONTINUOUS
 62
     7
 10
432.516123
 20
701.776647
 11
432.379393
 21
702.717183
  0
LINE
  8
CSLAYER1
  6
CONTINUOUS
 62
     7
 10
432.379393
 20
708.133519
 11
432.516123
 21
709.074055
  0
LINE
  8
CSLAYER1
  6
CONTINUOUS
 62
     7
 10
432.516123
 20
709.074055
 11
432.922159
 21
709.986014
  0
LINE
  8
CSLAYER1
  6
CONTINUOUS
 62
     7
 10
432.922159
 20
709.986014
 11
433.585164
 21
710.841686
  0
LINE
  8
CSLAYER1
  6
CONTINUOUS
 62
     7
 10
433.585164
 20
710.841686
 11
434.484993
 21
711.615072
  0
LINE
  8
CSLAYER1
  6
CONTINUOUS
 62
     7
 10
434.484993
 20
711.615072
 11
435.594304
 21
712.282672
  0
LINE
  8
CSLAYER1
  6
CONTINUOUS
 62
     7
 10
435.594304
 20
712.282672
 11
436.879393
 21
712.824202
  0
LINE
  8
CSLAYER1
  6
CONTINUOUS
 62
     7
 10
436.879393
 20
712.824202
 11
438.301211
 21
713.223209
  0
LINE
  8
CSLAYER1
  6
CONTINUOUS
 62
     7
 10
438.301211
 20
713.223209
 11
439.816559
 21
713.467567
  0
LINE
  8
CSLAYER1
  6
CONTINUOUS
 62
     7
 10
439.816559
 20
713.467567
 11
441.379393
 21
713.549854
  0
LINE
  8
CSLAYER1
  6
CONTINUOUS
 62
     7
 10
441.379393
 20
713.549854
 11
442.942226
 21
713.467567
  0
LINE
  8
CSLAYER1
  6
CONTINUOUS
 62
     7
 10
442.942226
 20
713.467567
 11
444.457574
 21
713.223209
  0
LINE
  8
CSLAYER1
  6
CONTINUOUS
 62
     7
 10
444.457574
 20
713.223209
 11
445.879393
 21
712.824202
  0
LINE
  8
CSLAYER1
  6
CONTINUOUS
 62
     7
 10
445.879393
 20
712.824202
 11
447.164481
 21
712.282672
  0
LINE
  8
CSLAYER1
  6
CONTINUOUS
 62
     7
 10
447.164481
 20
712.282672
 11
448.273793
 21
711.615072
  0
LINE
  8
CSLAYER1
  6
CONTINUOUS
 62
     7
 10
448.273793
 20
711.615072
 11
449.173621
 21
710.841686
  0
LINE
  8
CSLAYER1
  6
CONTINUOUS
 62
     7
 10
449.173621
 20
710.841686
 11
449.836626
 21
709.986014
  0
LINE
  8
CSLAYER1
  6
CONTINUOUS
 62
     7
 10
449.836626
 20
709.986014
 11
450.242662
 21
709.074055
  0
LINE
  8
CSLAYER1
  6
CONTINUOUS
 62
     7
 10
450.242662
 20
709.074055
 11
450.379393
 21
708.133519
  0
LINE
  8
CSLAYER1
  6
CONTINUOUS
 62
     7
 10
432.379393
 20
708.133519
 11
432.379393
 21
702.245119
  0
LINE
  8
CSLAYER1
  6
CONTINUOUS
 62
     7
 10
450.379393
 20
708.133519
 11
450.379393
 21
702.245119
  0
LINE
  8
CSLAYER1
  6
CONTINUOUS
 62
     7
 10
449.437265
 20
776.301000
 11
415.359180
 21
756.519744
  0
LINE
  8
CSLAYER1
  6
CONTINUOUS
 62
     7
 10
451.765466
 20
745.669946
 11
415.359180
 21
724.537242
  0
LINE
  8
CSLAYER1
  6
CONTINUOUS
 62
     7
 10
450.379393
 20
670.597091
 11
415.230762
 21
691.706756
  0
ARC
  8
CSLAYER1
  6
CONTINUOUS
 62
     7
 10
454.457478
 20
767.652448
 40
10.000000
 50
90.000000
 51
120.133817
  0
ARC
  8
CSLAYER1
  6
CONTINUOUS
 62
     7
 10
420.379393
 20
747.871191
 40
10.000000
 50
120.133817
 51
180.000000
  0
ARC
  8
CSLAYER1
  6
CONTINUOUS
 62
     7
 10
420.379393
 20
700.279480
 40
10.000000
 50
180.000000
 51
239.011695
  0
ARC
  8
CSLAYER1
  6
CONTINUOUS
 62
     7
 10
420.379393
 20
715.888690
 40
10.000000
 50
120.133817
 51
180.000000
  0
DIMENSION
  8
CSLAYER1
 62
     7
  2
*D0005
 10
766.379393
 20
273.732594
 11
516.379395
 21
283.732788
 13
266.379393
 23
369.858387
 14
766.379393
 24
369.858387
 52
270.000000
 70
1
  0
LINE
  8
CSLAYER1
  6
CONTINUOUS
 62
     7
 10
516.379393
 20
745.669946
 11
451.765466
 21
745.669946
  0
LINE
  8
CSLAYER1
  6
CONTINUOUS
 62
     7
 10
450.379393
 20
670.597091
 11
461.379393
 21
670.597091
  0
LINE
  8
CSLAYER1
  6
CONTINUOUS
 62
     3
 10
426.379393
 20
465.158387
 11
426.379393
 21
434.858387
  0
LINE
  8
CSLAYER1
  6
CONTINUOUS
 62
     3
 10
424.879393
 20
471.158387
 11
460.000653
 21
471.158387
  0
LINE
  8
CSLAYER1
  6
CONTINUOUS
 62
     1
 10
424.879393
 20
465.158387
 11
426.379393
 21
465.158387
  0
LINE
  8
CSLAYER1
  6
CONTINUOUS
 62
     3
 10
424.879393
 20
465.158387
 11
424.879393
 21
471.158387
  0
LINE
  8
CSLAYER1
  6
CONTINUOUS
 62
     3
 10
599.139391
 20
471.158387
 11
572.806315
 21
471.158387
  0
LINE
  8
CSLAYER1
  6
CONTINUOUS
 62
     3
 10
424.879393
 20
465.158387
 11
465.712735
 21
465.158387
  0
LINE
  8
CSLAYER1
  6
CONTINUOUS
 62
     7
 10
427.379393
 20
471.158387
 11
437.379393
 21
471.158387
  0
LINE
  8
CSLAYER1
  6
CONTINUOUS
 62
     7
 10
596.879393
 20
474.158387
 11
596.879393
 21
471.958387
  0
LINE
  8
CSLAYER1
  6
CONTINUOUS
 62
     7
 10
599.358804
 20
472.958387
 11
596.879393
 21
472.958387
  0
LINE
  8
CSLAYER1
  6
CONTINUOUS
 62
     7
 10
599.675733
 20
475.558387
 11
598.279393
 21
475.558387
  0
LINE
  8
CSLAYER1
  6
CONTINUOUS
 62
     7
 10
595.879393
 20
471.958387
 11
595.879393
 21
471.158387
  0
LINE
  8
CSLAYER1
  6
CONTINUOUS
 62
     7
 10
599.236908
 20
471.958387
 11
595.879393
 21
471.958387
  0
ARC
  8
CSLAYER1
  6
CONTINUOUS
 62
     7
 10
598.279393
 20
474.158387
 40
1.400000
 50
90.000000
 51
180.000000
  0
LINE
  8
CSLAYER1
  6
CONTINUOUS
 62
     7
 10
428.879393
 20
474.158387
 11
428.879393
 21
471.958387
  0
LINE
  8
CSLAYER1
  6
CONTINUOUS
 62
     7
 10
435.879393
 20
474.158387
 11
435.879393
 21
471.958387
  0
LINE
  8
CSLAYER1
  6
CONTINUOUS
 62
     7
 10
435.879393
 20
472.958387
 11
428.879393
 21
472.958387
  0
LINE
  8
CSLAYER1
  6
CONTINUOUS
 62
     7
 10
434.479393
 20
475.558387
 11
430.279393
 21
475.558387
  0
LINE
  8
CSLAYER1
  6
CONTINUOUS
 62
     7
 10
436.879393
 20
471.958387
 11
436.879393
 21
471.158387
  0
LINE
  8
CSLAYER1
  6
CONTINUOUS
 62
     7
 10
427.879393
 20
471.958387
 11
427.879393
 21
471.158387
  0
LINE
  8
CSLAYER1
  6
CONTINUOUS
 62
     7
 10
436.879393
 20
471.958387
 11
427.879393
 21
471.958387
  0
ARC
  8
CSLAYER1
  6
CONTINUOUS
 62
     7
 10
434.479393
 20
474.158387
 40
1.400000
 50
-0.000000
 51
90.000000
  0
ARC
  8
CSLAYER1
  6
CONTINUOUS
 62
     7
 10
430.279393
 20
474.158387
 40
1.400000
 50
90.000000
 51
180.000000
  0
LINE
  8
CSLAYER1
  6
CONTINUOUS
 62
     7
 10
433.419345
 20
471.958387
 11
431.034142
 21
472.958387
  0
LINE
  8
CSLAYER1
  6
CONTINUOUS
 62
     1
 10
432.379393
 20
477.386737
 11
432.379393
 21
462.188559
  0
LINE
  8
CSLAYER1
  6
CONTINUOUS
 62
     3
 10
567.046050
 20
465.158387
 11
598.579393
 21
465.158387
  0
POINT
  8
CSLAYER1
 62
     5
 10
446.379393
 20
450.158387
  0
POINT
  8
CSLAYER1
 62
     5
 10
486.379393
 20
450.158387
  0
LINE
  8
CSLAYER1
  6
CENTER
 62
     5
 10
1087.644382
 20
1832.034652
 11
2190.035656
 21
1832.034652
  0
LINE
  8
CSLAYER1
  6
CONTINUOUS
 62
     5
 10
1144.973322
 20
1167.204006
 11
1171.507665
 21
1167.204006
  0
LINE
  8
CSLAYER1
  6
CONTINUOUS
 62
     5
 10
1158.240494
 20
1180.471177
 11
1158.240494
 21
1153.936834
  0
CIRCLE
  8
CSLAYER1
  6
CONTINUOUS
 62
     4
 10
1158.240494
 20
1167.204006
 40
8.000000
  0
CIRCLE
  8
CSLAYER1
  6
CONTINUOUS
 62
     4
 10
1339.408138
 20
724.124769
 40
14.000000
  0
LINE
  8
CSLAYER1
  6
CONTINUOUS
 62
     7
 10
1116.240494
 20
434.858387
 11
1116.240494
 21
369.858387
  0
POINT
  8
CSLAYER1
 62
     5
 10
1158.240494
 20
396.858387
  0
LINE
  8
CSLAYER1
  6
CONTINUOUS
 62
     7
 10
2166.240494
 20
434.858387
 11
2166.240494
 21
369.858387
  0
LINE
  8
CSLAYER1
  6
CONTINUOUS
 62
     7
 10
1116.240494
 20
434.858387
 11
2166.240494
 21
434.858387
  0
LINE
  8
CSLAYER1
  6
CONTINUOUS
 62
     7
 10
1119.240494
 20
1291.404006
 11
2166.240494
 21
1291.404006
  0
LINE
  8
CSLAYER1
  6
CONTINUOUS
 62
     7
 10
1116.240494
 20
1288.404006
 11
1116.240494
 21
1238.404006
  0
LINE
  8
CSLAYER1
  6
CONTINUOUS
 62
     7
 10
2163.015318
 20
1238.404006
 11
2163.015318
 21
1216.204006
  0
ARC
  8
CSLAYER1
  6
CONTINUOUS
 62
     7
 10
1119.240494
 20
1288.404006
 40
3.000000
 50
90.000000
 51
180.000000
  0
LINE
  8
CSLAYER1
  6
CONTINUOUS
 62
     7
 10
1116.240494
 20
1238.404006
 11
2166.240494
 21
1238.404006
  0
LINE
  8
CSLAYER1
  6
CONTINUOUS
 62
     2
 10
1210.710673
 20
610.679596
 11
1216.732330
 21
606.156493
  0
LINE
  8
CSLAYER1
  6
CONTINUOUS
 62
     2
 10
1273.154074
 20
712.448900
 11
1319.053829
 21
773.555748
  0
LINE
  8
CSLAYER1
  6
CONTINUOUS
 62
     4
 10
1275.612965
 20
730.771262
 11
1283.420542
 21
741.165575
  0
LINE
  8
CSLAYER1
  6
CONTINUOUS
 62
     4
 10
1116.266819
 20
530.287332
 11
1162.562268
 21
495.513002
  0
LINE
  8
CSLAYER1
  6
CONTINUOUS
 62
     4
 10
1150.500041
 20
575.862397
 11
1174.486917
 21
557.844912
  0
LINE
  8
CSLAYER1
  6
CONTINUOUS
 62
     4
 10
1234.379016
 20
684.201299
 11
1257.651920
 21
666.720106
  0
LINE
  8
CSLAYER1
  6
CONTINUOUS
 62
     4
 10
1277.423823
 20
745.669946
 11
1294.413383
 21
732.908419
  0
LINE
  8
CSLAYER1
  6
CONTINUOUS
 62
     4
 10
1116.266819
 20
530.287332
 11
1150.500041
 21
575.862397
  0
LINE
  8
CSLAYER1
  6
CONTINUOUS
 62
     4
 10
1152.099166
 20
574.661231
 11
1239.183679
 21
690.597799
  0
LINE
  8
CSLAYER1
  6
CONTINUOUS
 62
     4
 10
1246.983968
 20
690.992115
 11
1276.412527
 21
730.170679
  0
LINE
  8
CSLAYER1
  6
CONTINUOUS
 62
     4
 10
1116.266819
 20
530.287332
 11
1125.854282
 21
513.080341
  0
LINE
  8
CSLAYER1
  6
CONTINUOUS
 62
     4
 10
1222.229610
 20
616.410135
 11
1227.507520
 21
612.445689
  0
LINE
  8
CSLAYER1
  6
CONTINUOUS
 62
     4
 10
1173.282108
 20
551.245788
 11
1187.560063
 21
540.521055
  0
LINE
  8
CSLAYER1
  6
CONTINUOUS
 62
     2
 10
1174.486917
 20
557.844912
 11
1218.029173
 21
615.813196
  0
LINE
  8
CSLAYER1
  6
CONTINUOUS
 62
     4
 10
1158.641045
 20
488.452915
 11
1125.854282
 21
513.080341
  0
ARC
  8
CSLAYER1
  6
CONTINUOUS
 62
     4
 10
1175.083857
 20
553.644476
 40
3.000000
 50
143.088348
 51
233.088348
  0
ARC
  8
CSLAYER1
  6
CONTINUOUS
 62
     4
 10
1220.427861
 20
614.011447
 40
3.000000
 50
53.088348
 51
143.088348
  0
LINE
  8
CSLAYER1
  6
CONTINUOUS
 62
     4
 10
1275.612965
 20
730.771262
 11
1288.041396
 21
721.435778
  0
LINE
  8
CSLAYER1
  6
CONTINUOUS
 62
     4
 10
1255.992711
 20
702.985553
 11
1271.376200
 21
691.430410
  0
LINE
  8
CSLAYER1
  6
CONTINUOUS
 62
     4
 10
1496.626817
 20
859.253781
 11
1590.121881
 21
983.724787
  0
LINE
  8
CSLAYER1
  6
CONTINUOUS
 62
     4
 10
1241.983969
 20
690.995758
 11
1262.553448
 21
675.545214
  0
ARC
  8
CSLAYER1
  6
CONTINUOUS
 62
     4
 10
1244.585280
 20
692.793863
 40
3.000000
 50
233.088348
 51
323.088348
  0
LINE
  8
CSLAYER1
  6
CONTINUOUS
 62
     4
 10
1172.685169
 20
555.446224
 11
1257.099576
 21
667.828052
  0
LINE
  8
CSLAYER1
  6
CONTINUOUS
 62
     4
 10
1158.495667
 20
569.856569
 11
1240.775516
 21
679.396636
  0
LINE
  8
CSLAYER1
  6
CONTINUOUS
 62
     4
 10
1156.896542
 20
571.057734
 11
1239.176391
 21
680.597802
  0
ARC
  8
CSLAYER1
  6
CONTINUOUS
 62
     4
 10
1240.782804
 20
689.396633
 40
2.000000
 50
53.088348
 51
143.088348
  0
LINE
  8
CSLAYER1
  6
CONTINUOUS
 62
     4
 10
1301.447136
 20
777.652448
 11
1314.019497
 21
768.208853
  0
LINE
  8
CSLAYER1
  6
CONTINUOUS
 62
     2
 10
1276.682827
 20
729.967646
 11
1288.996090
 21
720.718671
  0
LINE
  8
CSLAYER1
  6
CONTINUOUS
 62
     2
 10
1308.669189
 20
772.227680
 11
1314.670349
 21
767.719973
  0
LINE
  8
CSLAYER1
  6
CONTINUOUS
 62
     4
 10
1312.776398
 20
776.021355
 11
1316.715338
 21
773.062663
  0
LINE
  8
CSLAYER1
  6
CONTINUOUS
 62
     4
 10
1275.481661
 20
728.368521
 11
1287.794924
 21
719.119546
  0
LINE
  8
CSLAYER1
  6
CONTINUOUS
 62
     4
 10
1275.481661
 20
728.368521
 11
1276.682827
 21
729.967646
  0
LINE
  8
CSLAYER1
  6
CONTINUOUS
 62
     4
 10
1272.537348
 20
722.450665
 11
1282.931661
 21
714.643089
  0
LINE
  8
CSLAYER1
  6
CONTINUOUS
 62
     4
 10
1311.623723
 20
776.161082
 11
1308.669189
 21
772.227680
  0
LINE
  8
CSLAYER1
  6
CONTINUOUS
 62
     4
 10
1314.624302
 20
773.907229
 11
1311.669769
 21
769.973826
  0
LINE
  8
CSLAYER1
  6
CONTINUOUS
 62
     4
 10
1272.537348
 20
722.450665
 11
1272.082017
 21
723.518775
  0
LINE
  8
CSLAYER1
  6
CONTINUOUS
 62
     4
 10
1312.776398
 20
776.021355
 11
1311.623723
 21
776.161082
  0
LINE
  8
CSLAYER1
  6
CONTINUOUS
 62
     4
 10
1275.637133
 20
728.251740
 11
1272.082017
 21
723.518775
  0
ARC
  8
CSLAYER1
  6
CONTINUOUS
 62
     4
 10
1275.202339
 20
724.548614
 40
3.285875
 50
208.401853
 51
268.052731
  0
ARC
  8
CSLAYER1
  6
CONTINUOUS
 62
     4
 10
1311.523505
 20
772.903382
 40
3.259241
 50
17.716730
 51
78.654247
  0
ARC
  8
CSLAYER1
  6
CONTINUOUS
 62
     4
 10
1310.514650
 20
762.187445
 40
12.419443
 50
60.304512
 51
70.676302
  0
ARC
  8
CSLAYER1
  6
CONTINUOUS
 62
     4
 10
1285.193409
 20
728.476999
 40
12.419443
 50
215.500394
 51
250.676302
  0
LINE
  8
CSLAYER1
  6
CONTINUOUS
 62
     4
 10
1278.637713
 20
725.997887
 11
1275.082597
 21
721.264922
  0
LINE
  8
CSLAYER1
  6
CONTINUOUS
 62
     4
 10
1272.993908
 20
717.730332
 11
1278.271020
 21
713.766485
  0
LINE
  8
CSLAYER1
  6
CONTINUOUS
 62
     4
 10
1272.854622
 20
718.710433
 11
1274.536254
 21
720.949208
  0
LINE
  8
CSLAYER1
  6
CONTINUOUS
 62
     2
 10
1272.993908
 20
717.730332
 11
1275.095948
 21
720.528800
  0
LINE
  8
CSLAYER1
  6
CONTINUOUS
 62
     4
 10
1272.854622
 20
718.710433
 11
1272.993908
 21
717.730332
  0
LINE
  8
CSLAYER1
  6
CONTINUOUS
 62
     4
 10
1272.854622
 20
718.710433
 11
1279.251122
 21
713.905771
  0
LINE
  8
CSLAYER1
  6
CONTINUOUS
 62
     2
 10
1287.794924
 20
719.119546
 11
1288.996090
 21
720.718671
  0
LINE
  8
CSLAYER1
  6
CONTINUOUS
 62
     4
 10
1282.931661
 20
714.643089
 11
1284.084336
 21
714.503362
  0
LINE
  8
CSLAYER1
  6
CONTINUOUS
 62
     2
 10
1287.639452
 20
719.236327
 11
1284.084336
 21
714.503362
  0
ARC
  8
CSLAYER1
  6
CONTINUOUS
 62
     4
 10
1284.204078
 20
717.787054
 40
3.285875
 50
198.123965
 51
257.774843
  0
LINE
  8
CSLAYER1
  6
CONTINUOUS
 62
     4
 10
1284.638872
 20
721.490180
 11
1281.083756
 21
716.757215
  0
LINE
  8
CSLAYER1
  6
CONTINUOUS
 62
     4
 10
1279.251122
 20
713.905771
 11
1280.932754
 21
716.144546
  0
LINE
  8
CSLAYER1
  6
CONTINUOUS
 62
     2
 10
1278.271020
 20
713.766485
 11
1280.373060
 21
716.564954
  0
LINE
  8
CSLAYER1
  6
CONTINUOUS
 62
     4
 10
1279.251122
 20
713.905771
 11
1278.271020
 21
713.766485
  0
LINE
  8
CSLAYER1
  6
CONTINUOUS
 62
     4
 10
1281.566590
 20
726.299260
 11
1283.349803
 21
722.458450
  0
LINE
  8
CSLAYER1
  6
CONTINUOUS
 62
     4
 10
1277.423823
 20
745.669946
 11
1301.447136
 21
777.652448
  0
POINT
  8
CSLAYER1
 62
     5
 10
1158.240494
 20
1167.204006
  0
LINE
  8
CSLAYER1
  6
CONTINUOUS
 62
     5
 10
1747.704342
 20
1193.348849
 11
1747.704342
 21
1138.818134
  0
LINE
  8
CSLAYER1
  6
CONTINUOUS
 62
     5
 10
1718.322782
 20
1167.204006
 11
1773.818641
 21
1167.204006
  0
LINE
  8
CSLAYER1
  6
CONTINUOUS
 62
     7
 10
2148.015318
 20
1188.204006
 11
1701.015318
 21
1188.204006
  0
LINE
  8
CSLAYER1
  6
CENTER
 62
     5
 10
1627.799022
 20
1214.883710
 11
1730.034678
 21
1136.653599
  0
LINE
  8
CSLAYER1
  6
CENTER
 62
     5
 10
1524.490925
 20
1079.874684
 11
1626.726581
 21
1001.644573
  0
ARC
  8
CSLAYER1
  6
CONTINUOUS
 62
     4
 10
1575.318736
 20
661.591998
 40
30.000000
 50
11.696960
 51
24.832507
  0
LINE
  8
CSLAYER1
  6
CONTINUOUS
 62
     4
 10
1602.544917
 20
674.191010
 11
1534.665793
 21
820.876274
  0
ARC
  8
CSLAYER1
  6
CONTINUOUS
 62
     4
 10
1471.503259
 20
791.647589
 40
69.597570
 50
24.832507
 51
69.373343
  0
LINE
  8
CSLAYER1
  6
CONTINUOUS
 62
     4
 10
1128.240494
 20
1238.404006
 11
1128.240494
 21
1148.204006
  0
LINE
  8
CSLAYER1
  6
CONTINUOUS
 62
     4
 10
1178.240494
 20
1238.404006
 11
1178.240494
 21
1163.204006
  0
ARC
  8
CSLAYER1
  6
CONTINUOUS
 62
     4
 10
1163.240494
 20
1163.204006
 40
15.000000
 50
270.000000
 51
360.000000
  0
LINE
  8
CSLAYER1
  6
CONTINUOUS
 62
     4
 10
1128.240494
 20
1148.204006
 11
1163.240494
 21
1148.204006
  0
LINE
  8
CSLAYER1
  6
CONTINUOUS
 62
     7
 10
2160.015318
 20
1213.204006
 11
1231.015318
 21
1213.204006
  0
LINE
  8
CSLAYER1
  6
CONTINUOUS
 62
     4
 10
1150.114028
 20
1148.204006
 11
1396.138716
 21
826.684644
  0
LINE
  8
CSLAYER1
  6
CONTINUOUS
 62
     4
 10
1464.297055
 20
727.737987
 11
1481.215973
 21
715.500740
  0
LINE
  8
CSLAYER1
  6
CONTINUOUS
 62
     4
 10
1481.215973
 20
715.500740
 11
1695.961819
 21
434.858387
  0
LINE
  8
CSLAYER1
  6
CONTINUOUS
 62
     4
 10
1360.848612
 20
852.523781
 11
1368.606940
 21
862.664769
  0
ARC
  8
CSLAYER1
  6
CONTINUOUS
 62
     4
 10
1575.452616
 20
1040.872076
 40
59.000000
 50
280.806980
 51
322.582328
  0
LINE
  8
CSLAYER1
  6
CONTINUOUS
 62
     4
 10
1210.032590
 20
434.858387
 11
1424.735050
 21
715.498114
  0
LINE
  8
CSLAYER1
  6
CONTINUOUS
 62
     4
 10
1498.854923
 20
868.336887
 11
1487.274292
 21
821.127235
  0
LINE
  8
CSLAYER1
  6
CONTINUOUS
 62
     4
 10
1441.652830
 20
727.736934
 11
1424.735050
 21
715.498114
  0
LINE
  8
CSLAYER1
  6
CONTINUOUS
 62
     4
 10
1441.652830
 20
727.736934
 11
1452.974254
 21
742.535280
  0
LINE
  8
CSLAYER1
  6
CONTINUOUS
 62
     4
 10
1498.854923
 20
868.336887
 11
1586.515174
 21
982.918476
  0
LINE
  8
CSLAYER1
  6
CONTINUOUS
 62
     7
 10
2151.015318
 20
1238.404006
 11
2151.015318
 21
1191.204006
  0
LINE
  8
CSLAYER1
  6
CONTINUOUS
 62
     7
 10
1205.815318
 20
1238.404006
 11
1231.015318
 21
1213.204006
  0
LINE
  8
CSLAYER1
  6
CONTINUOUS
 62
     4
 10
1229.127936
 20
1158.487898
 11
1757.822315
 21
467.559354
  0
LINE
  8
CSLAYER1
  6
CONTINUOUS
 62
     4
 10
1229.127936
 20
1158.487898
 11
1178.240494
 21
1178.643007
  0
LINE
  8
CSLAYER1
  6
CONTINUOUS
 62
     4
 10
1757.822315
 20
467.559354
 11
1761.521036
 21
434.858387
  0
LINE
  8
CSLAYER1
  6
CONTINUOUS
 62
     4
 10
1147.360476
 20
468.142465
 11
1144.011581
 21
434.858387
  0
LINE
  8
CSLAYER1
  6
CONTINUOUS
 62
     4
 10
1360.848612
 20
852.523781
 11
1147.360476
 21
468.142465
  0
LINE
  8
CSLAYER1
  6
CONTINUOUS
 62
     4
 10
1464.297055
 20
727.737987
 11
1403.527586
 21
807.155061
  0
LINE
  8
CSLAYER1
  6
CONTINUOUS
 62
     7
 10
2160.015318
 20
1213.204006
 11
2163.015318
 21
1216.204006
  0
LINE
  8
CSLAYER1
  6
CONTINUOUS
 62
     7
 10
2151.015318
 20
1191.204006
 11
2148.015318
 21
1188.204006
  0
LINE
  8
CSLAYER1
  6
CONTINUOUS
 62
     4
 10
1403.527586
 20
807.155061
 11
1396.138716
 21
826.684644
  0
LINE
  8
CSLAYER1
  6
CONTINUOUS
 62
     4
 10
1412.044295
 20
919.442169
 11
1636.785780
 21
1213.204006
  0
CIRCLE
  8
CSLAYER1
  6
CONTINUOUS
 62
     5
 10
1452.972418
 20
782.031196
 40
15.000000
  0
CIRCLE
  8
CSLAYER1
  6
CONTINUOUS
 62
     4
 10
1452.972418
 20
782.031196
 40
10.000000
  0
CIRCLE
  8
CSLAYER1
  6
CONTINUOUS
 62
     5
 10
1452.972418
 20
782.031196
 40
9.000000
  0
LINE
  8
CSLAYER1
  6
CONTINUOUS
 62
     4
 10
1467.972418
 20
790.691451
 11
1452.972418
 21
799.351705
  0
LINE
  8
CSLAYER1
  6
CONTINUOUS
 62
     4
 10
1452.972418
 20
799.351705
 11
1437.972418
 21
790.691451
  0
LINE
  8
CSLAYER1
  6
CONTINUOUS
 62
     4
 10
1437.972418
 20
790.691451
 11
1437.972418
 21
773.370942
  0
LINE
  8
CSLAYER1
  6
CONTINUOUS
 62
     4
 10
1437.972418
 20
773.370942
 11
1452.972418
 21
764.710688
  0
LINE
  8
CSLAYER1
  6
CONTINUOUS
 62
     4
 10
1452.972418
 20
764.710688
 11
1467.972418
 21
773.370942
  0
LINE
  8
CSLAYER1
  6
CONTINUOUS
 62
     4
 10
1467.972418
 20
773.370942
 11
1467.972418
 21
790.691451
  0
CIRCLE
  8
CSLAYER1
  6
CONTINUOUS
 62
     4
 10
1747.704342
 20
1167.204006
 40
21.000000
  0
CIRCLE
  8
CSLAYER1
  6
CONTINUOUS
 62
     4
 10
1747.704342
 20
1167.204006
 40
7.500000
  0
LINE
  8
CSLAYER1
  6
CENTER
 62
     5
 10
1650.067663
 20
1191.471853
 11
1702.160043
 21
1152.343219
  0
LINE
  8
CSLAYER1
  6
CONTINUOUS
 62
     4
 10
1543.283479
 20
1045.497729
 11
1633.279731
 21
1165.310727
  0
LINE
  8
CSLAYER1
  6
CONTINUOUS
 62
     4
 10
1680.904358
 20
1130.476011
 11
1634.329840
 21
1165.459962
  0
LINE
  8
CSLAYER1
  6
CONTINUOUS
 62
     4
 10
1680.904358
 20
1130.476011
 11
1681.103337
 21
1129.075866
  0
LINE
  8
CSLAYER1
  6
CONTINUOUS
 62
     4
 10
1634.329840
 20
1165.459962
 11
1633.279731
 21
1165.310727
  0
LINE
  8
CSLAYER1
  6
CONTINUOUS
 62
     4
 10
1642.681351
 20
1159.186814
 11
1647.094346
 21
1161.724211
  0
LINE
  8
CSLAYER1
  6
CONTINUOUS
 62
     4
 10
1647.094346
 20
1161.724211
 11
1647.645665
 21
1155.457922
  0
LINE
  8
CSLAYER1
  6
CONTINUOUS
 62
     4
 10
1647.645665
 20
1155.457922
 11
1649.440122
 21
1157.037083
  0
LINE
  8
CSLAYER1
  6
CONTINUOUS
 62
     4
 10
1647.645665
 20
1155.457922
 11
1646.780764
 21
1161.543907
  0
LINE
  8
CSLAYER1
  6
CONTINUOUS
 62
     4
 10
1647.419514
 20
1155.627793
 11
1646.594014
 21
1161.436529
  0
LINE
  8
CSLAYER1
  6
CONTINUOUS
 62
     4
 10
1647.193364
 20
1155.797663
 11
1646.407264
 21
1161.329151
  0
LINE
  8
CSLAYER1
  6
CONTINUOUS
 62
     4
 10
1646.967214
 20
1155.967534
 11
1646.220515
 21
1161.221773
  0
LINE
  8
CSLAYER1
  6
CONTINUOUS
 62
     4
 10
1646.741063
 20
1156.137404
 11
1646.033765
 21
1161.114395
  0
LINE
  8
CSLAYER1
  6
CONTINUOUS
 62
     4
 10
1646.514913
 20
1156.307275
 11
1645.847015
 21
1161.007017
  0
LINE
  8
CSLAYER1
  6
CONTINUOUS
 62
     4
 10
1646.288762
 20
1156.477145
 11
1645.660266
 21
1160.899639
  0
LINE
  8
CSLAYER1
  6
CONTINUOUS
 62
     4
 10
1646.062612
 20
1156.647016
 11
1645.473516
 21
1160.792262
  0
LINE
  8
CSLAYER1
  6
CONTINUOUS
 62
     4
 10
1645.836461
 20
1156.816886
 11
1645.286766
 21
1160.684884
  0
LINE
  8
CSLAYER1
  6
CONTINUOUS
 62
     4
 10
1645.610311
 20
1156.986757
 11
1645.100017
 21
1160.577506
  0
LINE
  8
CSLAYER1
  6
CONTINUOUS
 62
     4
 10
1645.384160
 20
1157.156627
 11
1644.913267
 21
1160.470128
  0
LINE
  8
CSLAYER1
  6
CONTINUOUS
 62
     4
 10
1645.158010
 20
1157.326498
 11
1644.726517
 21
1160.362750
  0
LINE
  8
CSLAYER1
  6
CONTINUOUS
 62
     4
 10
1644.931860
 20
1157.496368
 11
1644.539768
 21
1160.255372
  0
LINE
  8
CSLAYER1
  6
CONTINUOUS
 62
     4
 10
1644.705709
 20
1157.666239
 11
1644.353018
 21
1160.147994
  0
LINE
  8
CSLAYER1
  6
CONTINUOUS
 62
     4
 10
1644.479559
 20
1157.836109
 11
1644.166268
 21
1160.040616
  0
LINE
  8
CSLAYER1
  6
CONTINUOUS
 62
     4
 10
1644.253408
 20
1158.005980
 11
1643.979519
 21
1159.933239
  0
LINE
  8
CSLAYER1
  6
CONTINUOUS
 62
     4
 10
1644.027258
 20
1158.175850
 11
1643.792769
 21
1159.825861
  0
LINE
  8
CSLAYER1
  6
CONTINUOUS
 62
     4
 10
1643.801107
 20
1158.345721
 11
1643.606019
 21
1159.718483
  0
LINE
  8
CSLAYER1
  6
CONTINUOUS
 62
     4
 10
1643.574957
 20
1158.515591
 11
1643.419270
 21
1159.611105
  0
LINE
  8
CSLAYER1
  6
CONTINUOUS
 62
     4
 10
1643.348807
 20
1158.685462
 11
1643.232520
 21
1159.503727
  0
LINE
  8
CSLAYER1
  6
CONTINUOUS
 62
     4
 10
1643.122656
 20
1158.855332
 11
1643.045770
 21
1159.396349
  0
LINE
  8
CSLAYER1
  6
CONTINUOUS
 62
     4
 10
1642.896506
 20
1159.025203
 11
1642.859021
 21
1159.288971
  0
LINE
  8
CSLAYER1
  6
CONTINUOUS
 62
     4
 10
1647.825219
 20
1155.615934
 11
1646.967513
 21
1161.651285
  0
LINE
  8
CSLAYER1
  6
CONTINUOUS
 62
     4
 10
1648.004773
 20
1155.773945
 11
1647.193806
 21
1161.480414
  0
LINE
  8
CSLAYER1
  6
CONTINUOUS
 62
     4
 10
1648.184327
 20
1155.931956
 11
1647.496706
 21
1160.770485
  0
LINE
  8
CSLAYER1
  6
CONTINUOUS
 62
     4
 10
1648.363881
 20
1156.089968
 11
1647.790790
 21
1160.122592
  0
LINE
  8
CSLAYER1
  6
CONTINUOUS
 62
     4
 10
1648.543435
 20
1156.247979
 11
1648.077845
 21
1159.524157
  0
LINE
  8
CSLAYER1
  6
CONTINUOUS
 62
     4
 10
1648.722989
 20
1156.405990
 11
1648.359120
 21
1158.966401
  0
LINE
  8
CSLAYER1
  6
CONTINUOUS
 62
     4
 10
1648.902543
 20
1156.564001
 11
1648.635525
 21
1158.442907
  0
LINE
  8
CSLAYER1
  6
CONTINUOUS
 62
     4
 10
1649.082097
 20
1156.722013
 11
1648.907751
 21
1157.948816
  0
LINE
  8
CSLAYER1
  6
CONTINUOUS
 62
     4
 10
1649.261651
 20
1156.880024
 11
1649.176338
 21
1157.480339
  0
LINE
  8
CSLAYER1
  6
CONTINUOUS
 62
     4
 10
1672.752738
 20
1136.599013
 11
1673.960209
 21
1141.544206
  0
LINE
  8
CSLAYER1
  6
CONTINUOUS
 62
     4
 10
1673.960209
 20
1141.544206
 11
1667.788423
 21
1140.327905
  0
LINE
  8
CSLAYER1
  6
CONTINUOUS
 62
     4
 10
1667.788423
 20
1140.327905
 11
1668.805123
 21
1142.491270
  0
LINE
  8
CSLAYER1
  6
CONTINUOUS
 62
     4
 10
1667.788423
 20
1140.327905
 11
1673.874408
 21
1141.192806
  0
LINE
  8
CSLAYER1
  6
CONTINUOUS
 62
     4
 10
1668.014574
 20
1140.158035
 11
1673.823310
 21
1140.983535
  0
LINE
  8
CSLAYER1
  6
CONTINUOUS
 62
     4
 10
1668.240724
 20
1139.988164
 11
1673.772212
 21
1140.774264
  0
LINE
  8
CSLAYER1
  6
CONTINUOUS
 62
     4
 10
1668.466875
 20
1139.818294
 11
1673.721114
 21
1140.564992
  0
LINE
  8
CSLAYER1
  6
CONTINUOUS
 62
     4
 10
1668.693025
 20
1139.648423
 11
1673.670016
 21
1140.355721
  0
LINE
  8
CSLAYER1
  6
CONTINUOUS
 62
     4
 10
1668.919176
 20
1139.478553
 11
1673.618918
 21
1140.146450
  0
LINE
  8
CSLAYER1
  6
CONTINUOUS
 62
     4
 10
1669.145326
 20
1139.308682
 11
1673.567820
 21
1139.937179
  0
LINE
  8
CSLAYER1
  6
CONTINUOUS
 62
     4
 10
1669.371476
 20
1139.138812
 11
1673.516722
 21
1139.727907
  0
LINE
  8
CSLAYER1
  6
CONTINUOUS
 62
     4
 10
1669.597627
 20
1138.968941
 11
1673.465624
 21
1139.518636
  0
LINE
  8
CSLAYER1
  6
CONTINUOUS
 62
     4
 10
1669.823777
 20
1138.799071
 11
1673.414526
 21
1139.309365
  0
LINE
  8
CSLAYER1
  6
CONTINUOUS
 62
     4
 10
1670.049928
 20
1138.629200
 11
1673.363428
 21
1139.100094
  0
LINE
  8
CSLAYER1
  6
CONTINUOUS
 62
     4
 10
1670.276078
 20
1138.459330
 11
1673.312330
 21
1138.890822
  0
LINE
  8
CSLAYER1
  6
CONTINUOUS
 62
     4
 10
1670.502229
 20
1138.289459
 11
1673.261233
 21
1138.681551
  0
LINE
  8
CSLAYER1
  6
CONTINUOUS
 62
     4
 10
1670.728379
 20
1138.119589
 11
1673.210135
 21
1138.472280
  0
LINE
  8
CSLAYER1
  6
CONTINUOUS
 62
     4
 10
1670.954529
 20
1137.949718
 11
1673.159037
 21
1138.263009
  0
LINE
  8
CSLAYER1
  6
CONTINUOUS
 62
     4
 10
1671.180680
 20
1137.779848
 11
1673.107939
 21
1138.053738
  0
LINE
  8
CSLAYER1
  6
CONTINUOUS
 62
     4
 10
1671.406830
 20
1137.609977
 11
1673.056841
 21
1137.844466
  0
LINE
  8
CSLAYER1
  6
CONTINUOUS
 62
     4
 10
1671.632981
 20
1137.440107
 11
1673.005743
 21
1137.635195
  0
LINE
  8
CSLAYER1
  6
CONTINUOUS
 62
     4
 10
1671.859131
 20
1137.270236
 11
1672.954645
 21
1137.425924
  0
LINE
  8
CSLAYER1
  6
CONTINUOUS
 62
     4
 10
1672.085282
 20
1137.100366
 11
1672.903547
 21
1137.216653
  0
LINE
  8
CSLAYER1
  6
CONTINUOUS
 62
     4
 10
1672.311432
 20
1136.930495
 11
1672.852449
 21
1137.007381
  0
LINE
  8
CSLAYER1
  6
CONTINUOUS
 62
     4
 10
1672.537582
 20
1136.760625
 11
1672.801351
 21
1136.798110
  0
LINE
  8
CSLAYER1
  6
CONTINUOUS
 62
     4
 10
1667.890155
 20
1140.544372
 11
1673.925506
 21
1141.402077
  0
LINE
  8
CSLAYER1
  6
CONTINUOUS
 62
     4
 10
1667.991886
 20
1140.760839
 11
1673.698355
 21
1141.571806
  0
LINE
  8
CSLAYER1
  6
CONTINUOUS
 62
     4
 10
1668.093617
 20
1140.977306
 11
1672.932146
 21
1141.664927
  0
LINE
  8
CSLAYER1
  6
CONTINUOUS
 62
     4
 10
1668.195349
 20
1141.193773
 11
1672.227973
 21
1141.766863
  0
LINE
  8
CSLAYER1
  6
CONTINUOUS
 62
     4
 10
1668.297080
 20
1141.410240
 11
1671.573258
 21
1141.875829
  0
LINE
  8
CSLAYER1
  6
CONTINUOUS
 62
     4
 10
1668.398811
 20
1141.626707
 11
1670.959222
 21
1141.990576
  0
LINE
  8
CSLAYER1
  6
CONTINUOUS
 62
     4
 10
1668.500543
 20
1141.843174
 11
1670.379448
 21
1142.110192
  0
LINE
  8
CSLAYER1
  6
CONTINUOUS
 62
     4
 10
1668.602274
 20
1142.059641
 11
1669.829077
 21
1142.233986
  0
LINE
  8
CSLAYER1
  6
CONTINUOUS
 62
     4
 10
1668.704005
 20
1142.276107
 11
1669.304320
 21
1142.361420
  0
CIRCLE
  8
CSLAYER1
  6
CONTINUOUS
 62
     4
 10
1675.884675
 20
1172.079680
 40
22.000000
  0
CIRCLE
  8
CSLAYER1
  6
CONTINUOUS
 62
     4
 10
1675.884675
 20
1172.079680
 40
22.250000
  0
ARC
  8
CSLAYER1
  6
CONTINUOUS
 62
     4
 10
1675.884675
 20
1172.079680
 40
30.250000
 50
-270.204447
 51
14.389295
  0
POINT
  8
CSLAYER1
 62
     4
 10
1563.554180
 20
1027.824164
  0
ARC
  8
CSLAYER1
  6
CONTINUOUS
 62
     4
 10
1563.554180
 20
1027.824164
 40
15.050000
 50
-69.738110
 51
20.126675
  0
ARC
  8
CSLAYER1
  6
CONTINUOUS
 62
     4
 10
1573.978164
 20
999.586767
 40
15.050000
 50
110.261890
 51
133.108846
  0
ARC
  8
CSLAYER1
  6
CONTINUOUS
 62
     4
 10
1533.623329
 20
1031.010720
 40
15.050000
 50
335.109935
 51
353.922957
  0
ARC
  8
CSLAYER1
  6
CONTINUOUS
 62
     4
 10
1563.554180
 20
1027.824164
 40
13.000000
 50
104.461194
 51
359.723654
  0
ARC
  8
CSLAYER1
  6
CONTINUOUS
 62
     4
 10
1563.554180
 20
1027.824164
 40
15.050000
 50
84.058173
 51
173.922957
  0
POINT
  8
CSLAYER1
 62
     4
 10
1583.061048
 20
1052.875004
  0
POINT
  8
CSLAYER1
 62
     4
 10
1602.567916
 20
1077.925844
  0
CIRCLE
  8
CSLAYER1
  6
CONTINUOUS
 62
     4
 10
1563.554180
 20
1027.824164
 40
4.770000
  0
CIRCLE
  8
CSLAYER1
  6
CONTINUOUS
 62
     4
 10
1583.061048
 20
1052.875004
 40
4.770000
  0
ARC
  8
CSLAYER1
  6
CONTINUOUS
 62
     4
 10
1583.061048
 20
1052.875004
 40
13.000000
 50
-75.538806
 51
179.723654
  0
ARC
  8
CSLAYER1
  6
CONTINUOUS
 62
     4
 10
1583.061048
 20
1052.875004
 40
15.050000
 50
264.058173
 51
353.922957
  0
ARC
  8
CSLAYER1
  6
CONTINUOUS
 62
     4
 10
1602.567916
 20
1077.925844
 40
15.050000
 50
-69.738110
 51
20.126675
  0
ARC
  8
CSLAYER1
  6
CONTINUOUS
 62
     4
 10
1589.553878
 20
1027.698762
 40
13.000000
 50
104.461194
 51
179.723654
  0
ARC
  8
CSLAYER1
  6
CONTINUOUS
 62
     4
 10
1557.061351
 20
1053.000406
 40
13.000000
 50
284.461194
 51
359.723654
  0
ARC
  8
CSLAYER1
  6
CONTINUOUS
 62
     4
 10
1612.991899
 20
1049.688448
 40
15.050000
 50
110.261890
 51
173.922957
  0
ARC
  8
CSLAYER1
  6
CONTINUOUS
 62
     4
 10
1572.637065
 20
1081.112401
 40
15.050000
 50
290.261890
 51
353.922957
  0
CIRCLE
  8
CSLAYER1
  6
CONTINUOUS
 62
     4
 10
1563.554180
 20
1027.824164
 40
9.525000
  0
CIRCLE
  8
CSLAYER1
  6
CONTINUOUS
 62
     4
 10
1583.061048
 20
1052.875004
 40
9.525000
  0
ARC
  8
CSLAYER1
  6
CONTINUOUS
 62
     4
 10
1583.061048
 20
1052.875004
 40
15.050000
 50
110.261890
 51
200.126675
  0
ARC
  8
CSLAYER1
  6
CONTINUOUS
 62
     4
 10
1602.567916
 20
1077.925844
 40
13.000000
 50
104.461194
 51
359.723654
  0
ARC
  8
CSLAYER1
  6
CONTINUOUS
 62
     4
 10
1602.567916
 20
1077.925844
 40
15.050000
 50
84.058173
 51
173.922957
  0
POINT
  8
CSLAYER1
 62
     4
 10
1675.884675
 20
1172.079680
  0
POINT
  8
CSLAYER1
 62
     4
 10
1622.074784
 20
1102.976685
  0
LINE
  8
CSLAYER1
  6
CONTINUOUS
 62
     4
 10
1641.172889
 20
1107.116500
 11
1621.408367
 21
1122.506958
  0
LINE
  8
CSLAYER1
  6
CONTINUOUS
 62
     4
 10
1603.208290
 20
1098.656521
 11
1622.509594
 21
1083.626766
  0
CIRCLE
  8
CSLAYER1
  6
CONTINUOUS
 62
     4
 10
1622.074785
 20
1102.976687
 40
4.770000
  0
ARC
  8
CSLAYER1
  6
CONTINUOUS
 62
     4
 10
1622.074785
 20
1102.976687
 40
13.000000
 50
-76.877857
 51
179.723654
  0
ARC
  8
CSLAYER1
  6
CONTINUOUS
 62
     4
 10
1628.567615
 20
1077.800445
 40
13.000000
 50
104.461194
 51
179.723654
  0
ARC
  8
CSLAYER1
  6
CONTINUOUS
 62
     4
 10
1596.075088
 20
1103.102088
 40
13.000000
 50
284.461194
 51
359.723654
  0
LINE
  8
CSLAYER1
  6
CONTINUOUS
 62
     4
 10
1601.302284
 20
1101.672781
 11
1618.248612
 21
1123.435362
  0
LINE
  8
CSLAYER1
  6
CONTINUOUS
 62
     4
 10
1623.721892
 20
1119.187617
 11
1606.761748
 21
1097.407295
  0
ARC
  8
CSLAYER1
  6
CONTINUOUS
 62
     4
 10
1618.299968
 20
1117.851462
 40
5.584136
 50
13.843874
 51
90.526941
  0
ARC
  8
CSLAYER1
  6
CONTINUOUS
 62
     4
 10
1611.684014
 20
1089.632794
 40
31.912350
 50
36.346245
 51
67.838602
  0
LINE
  8
CSLAYER1
  6
CONTINUOUS
 62
     4
 10
1610.929823
 20
1111.655170
 11
1633.210545
 21
1094.305369
  0
ARC
  8
CSLAYER1
  6
CONTINUOUS
 62
     4
 10
1606.728516
 20
1102.991332
 40
5.584136
 50
193.657906
 51
270.340973
  0
ARC
  8
CSLAYER1
  6
CONTINUOUS
 62
     4
 10
1632.465556
 20
1116.320579
 40
31.912350
 50
216.346245
 51
247.838602
  0
LINE
  8
CSLAYER1
  6
CONTINUOUS
 62
     4
 10
1625.900958
 20
1082.518011
 11
1642.847287
 21
1104.280592
  0
LINE
  8
CSLAYER1
  6
CONTINUOUS
 62
     4
 10
1637.387823
 20
1108.546078
 11
1620.427678
 21
1086.765756
  0
ARC
  8
CSLAYER1
  6
CONTINUOUS
 62
     4
 10
1637.421054
 20
1102.962041
 40
5.584136
 50
13.657906
 51
90.340973
  0
ARC
  8
CSLAYER1
  6
CONTINUOUS
 62
     4
 10
1625.849602
 20
1088.101911
 40
5.584136
 50
193.843874
 51
270.526941
  0
LINE
  8
CSLAYER1
  6
CONTINUOUS
 62
     4
 10
1677.701360
 20
1202.604089
 11
1682.074452
 21
1208.220042
  0
LINE
  8
CSLAYER1
  6
CONTINUOUS
 62
     4
 10
1684.534325
 20
1197.283320
 11
1691.239598
 21
1205.894274
  0
LINE
  8
CSLAYER1
  6
CONTINUOUS
 62
     4
 10
1705.963843
 20
1180.596344
 11
1676.770737
 21
1203.328757
  0
LINE
  8
CSLAYER1
  6
CONTINUOUS
 62
     4
 10
1688.748090
 20
1213.013436
 11
1689.055285
 21
1213.407938
  0
LINE
  8
CSLAYER1
  6
CONTINUOUS
 62
     4
 10
1705.033220
 20
1181.321011
 11
1709.342726
 21
1186.855305
  0
LINE
  8
CSLAYER1
  6
CONTINUOUS
 62
     4
 10
1698.200255
 20
1186.641781
 11
1699.416746
 21
1188.204006
  0
LINE
  8
CSLAYER1
  6
CONTINUOUS
 62
     4
 10
1630.727999
 20
1127.924069
 11
1656.711188
 21
1161.291841
  0
LINE
  8
CSLAYER1
  6
CONTINUOUS
 62
     4
 10
1624.629379
 20
1122.533630
 11
1655.955118
 21
1162.762339
  0
LINE
  8
CSLAYER1
  6
CONTINUOUS
 62
     4
 10
1703.997796
 20
1178.071535
 11
1674.804691
 21
1200.803948
  0
LINE
  8
CSLAYER1
  6
CONTINUOUS
 62
     4
 10
1703.997796
 20
1178.071535
 11
1705.963843
 21
1180.596344
  0
LINE
  8
CSLAYER1
  6
CONTINUOUS
 62
     4
 10
1674.804691
 20
1200.803948
 11
1676.770737
 21
1203.328757
  0
LINE
  8
CSLAYER1
  6
CONTINUOUS
 62
     4
 10
1629.544495
 20
1128.845653
 11
1645.324552
 21
1116.557862
  0
LINE
  8
CSLAYER1
  6
CONTINUOUS
 62
     4
 10
1630.727999
 20
1127.924069
 11
1627.948264
 21
1126.795764
  0
LINE
  8
CSLAYER1
  6
CONTINUOUS
 62
     4
 10
1644.141048
 20
1117.479447
 11
1670.124236
 21
1150.847218
  0
LINE
  8
CSLAYER1
  6
CONTINUOUS
 62
     4
 10
1644.141048
 20
1117.479447
 11
1643.728321
 21
1114.507973
  0
LINE
  8
CSLAYER1
  6
CONTINUOUS
 62
     4
 10
1640.409436
 20
1110.245840
 11
1671.735175
 21
1150.474548
  0
ARC
  8
CSLAYER1
  6
CONTINUOUS
 62
     4
 10
1641.987441
 20
1109.017061
 40
2.000000
 50
142.092424
 51
232.092424
  0
ARC
  8
CSLAYER1
  6
CONTINUOUS
 62
     4
 10
1623.051373
 20
1123.762409
 40
2.000000
 50
232.092424
 51
322.092424
  0
POINT
  8
CSLAYER1
 62
     4
 10
1631.290628
 20
1114.811729
  0
LINE
  8
CSLAYER1
  6
CONTINUOUS
 62
     4
 10
1680.034172
 20
1193.684809
 11
1681.511215
 21
1195.581637
  0
LINE
  8
CSLAYER1
  6
CONTINUOUS
 62
     4
 10
1681.645111
 20
1193.312139
 11
1682.694719
 21
1194.660052
  0
LINE
  8
CSLAYER1
  6
CONTINUOUS
 62
     4
 10
1695.850924
 20
1181.444143
 11
1697.291272
 21
1183.293846
  0
LINE
  8
CSLAYER1
  6
CONTINUOUS
 62
     4
 10
1695.058159
 20
1182.867517
 11
1696.107768
 21
1184.215430
  0
CIRCLE
  8
CSLAYER1
  6
CONTINUOUS
 62
     4
 10
1602.567916
 20
1077.925844
 40
4.770000
  0
CIRCLE
  8
CSLAYER1
  6
CONTINUOUS
 62
     4
 10
1602.567916
 20
1077.925844
 40
9.525000
  0
CIRCLE
  8
CSLAYER1
  6
CONTINUOUS
 62
     4
 10
1622.074784
 20
1102.976685
 40
9.525000
  0
POINT
  8
CSLAYER1
 62
     4
 10
1747.704342
 20
1167.204006
  0
LINE
  8
CSLAYER1
  6
CENTER
 62
     5
 10
1545.141160
 20
1001.216456
 11
1708.825218
 21
1215.128297
  0
ARC
  8
CSLAYER1
  6
CONTINUOUS
 62
     4
 10
1753.323715
 20
1172.977610
 40
17.000000
 50
-25.687221
 51
63.594662
  0
LINE
  8
CSLAYER1
  6
CONTINUOUS
 62
     4
 10
1716.493253
 20
1128.127671
 11
1747.380952
 21
1146.206496
  0
ARC
  8
CSLAYER1
  6
CONTINUOUS
 62
     4
 10
1678.748157
 20
1175.890709
 40
32.500000
 50
-37.417672
 51
22.263747
  0
LINE
  8
CSLAYER1
  6
CONTINUOUS
 62
     4
 10
1704.560543
 20
1156.143032
 11
1601.265002
 21
1021.124399
  0
LINE
  8
CSLAYER1
  6
CONTINUOUS
 62
     4
 10
1652.935772
 20
1195.638386
 11
1549.640230
 21
1060.619753
  0
ARC
  8
CSLAYER1
  6
CONTINUOUS
 62
     4
 10
1575.452616
 20
1040.872076
 40
32.500000
 50
142.582328
 51
322.582328
  0
LINE
  8
CSLAYER1
  6
CONTINUOUS
 62
     4
 10
1622.312024
 20
1005.022447
 11
1716.493253
 21
1128.127671
  0
POINT
  8
CSLAYER1
 62
     4
 10
1678.748157
 20
1175.890709
  0
LINE
  8
CSLAYER1
  6
CONTINUOUS
 62
     4
 10
1701.015318
 20
1213.204006
 11
1701.015318
 21
1188.204006
  0
ARC
  8
CSLAYER1
  6
CONTINUOUS
 62
     4
 10
1678.748157
 20
1175.890709
 40
32.500000
 50
46.753114
 51
142.582328
  0
LINE
  8
CSLAYER1
  6
CENTER
 62
     5
 10
2072.240494
 20
477.570405
 11
2072.240494
 21
468.233367
  0
LINE
  8
CSLAYER1
  6
CENTER
 62
     5
 10
2003.415670
 20
450.158387
 11
2014.268507
 21
450.158387
  0
LINE
  8
CSLAYER1
  6
CENTER
 62
     5
 10
2223.011670
 20
450.158387
 11
2132.708690
 21
450.158387
  0
LINE
  8
CSLAYER1
  6
CONTINUOUS
 62
     3
 10
2223.011670
 20
453.958387
 11
2166.440494
 21
453.958387
  0
LINE
  8
CSLAYER1
  6
CONTINUOUS
 62
     3
 10
2138.440494
 20
465.158387
 11
2138.440494
 21
434.858387
  0
LINE
  8
CSLAYER1
  6
CONTINUOUS
 62
     3
 10
2166.440494
 20
458.658387
 11
2166.440494
 21
441.658387
  0
LINE
  8
CSLAYER1
  6
CONTINUOUS
 62
     3
 10
2162.470927
 20
463.148769
 11
2147.843057
 21
463.148769
  0
LINE
  8
CSLAYER1
  6
CONTINUOUS
 62
     3
 10
2163.331399
 20
461.658387
 11
2163.331399
 21
438.658387
  0
LINE
  8
CSLAYER1
  6
CONTINUOUS
 62
     3
 10
2146.982585
 20
461.658387
 11
2146.982585
 21
438.658387
  0
LINE
  8
CSLAYER1
  6
CONTINUOUS
 62
     3
 10
2163.331399
 20
461.658387
 11
2162.470927
 21
463.148769
  0
LINE
  8
CSLAYER1
  6
CONTINUOUS
 62
     3
 10
2146.982585
 20
461.658387
 11
2147.843057
 21
463.148769
  0
LINE
  8
CSLAYER1
  6
CONTINUOUS
 62
     3
 10
2162.470927
 20
456.797916
 11
2147.843057
 21
456.797916
  0
ARC
  8
CSLAYER1
  6
CONTINUOUS
 62
     3
 10
2137.285374
 20
450.158387
 40
26.046025
 50
-14.768561
 51
14.768561
  0
ARC
  8
CSLAYER1
  6
CONTINUOUS
 62
     3
 10
2157.199806
 20
459.973342
 40
6.153702
 50
-31.065581
 51
23.174644
  0
ARC
  8
CSLAYER1
  6
CONTINUOUS
 62
     3
 10
2153.114178
 20
459.973342
 40
6.153702
 50
156.825356
 51
211.065581
  0
ARC
  8
CSLAYER1
  6
CONTINUOUS
 62
     3
 10
2173.028610
 20
450.158387
 40
26.046025
 50
165.231439
 51
194.768561
  0
LINE
  8
CSLAYER1
  6
CONTINUOUS
 62
     3
 10
2163.440494
 20
461.658387
 11
2163.331399
 21
461.658387
  0
ARC
  8
CSLAYER1
  6
CONTINUOUS
 62
     3
 10
2163.440494
 20
458.658387
 40
3.000000
 50
0.000000
 51
90.000000
  0
LINE
  8
CSLAYER1
  6
CONTINUOUS
 62
     3
 10
2143.440494
 20
461.658387
 11
2143.440494
 21
438.658387
  0
LINE
  8
CSLAYER1
  6
CONTINUOUS
 62
     3
 10
2143.440494
 20
461.658387
 11
2142.580022
 21
463.148769
  0
ARC
  8
CSLAYER1
  6
CONTINUOUS
 62
     3
 10
2117.394469
 20
450.158387
 40
26.046025
 50
-14.768561
 51
14.768561
  0
ARC
  8
CSLAYER1
  6
CONTINUOUS
 62
     3
 10
2137.308900
 20
459.973342
 40
6.153702
 50
-31.065581
 51
23.174644
  0
LINE
  8
CSLAYER1
  6
CONTINUOUS
 62
     3
 10
2142.580022
 20
456.797916
 11
2138.440494
 21
456.797916
  0
LINE
  8
CSLAYER1
  6
CONTINUOUS
 62
     3
 10
2142.580022
 20
463.148769
 11
2138.440494
 21
463.148769
  0
LINE
  8
CSLAYER1
  6
CONTINUOUS
 62
     3
 10
2146.982585
 20
460.494512
 11
2143.440494
 21
460.494512
  0
LINE
  8
CSLAYER1
  6
CONTINUOUS
 62
     3
 10
2146.982585
 20
459.848134
 11
2145.376223
 21
459.848134
  0
LINE
  8
CSLAYER1
  6
CONTINUOUS
 62
     3
 10
2145.376223
 20
460.494512
 11
2145.376223
 21
439.822263
  0
LINE
  8
CSLAYER1
  6
CONTINUOUS
 62
     3
 10
2145.376223
 20
459.848134
 11
2144.241371
 21
460.494512
  0
LINE
  8
CSLAYER1
  6
CONTINUOUS
 62
     3
 10
2162.470927
 20
437.168006
 11
2147.843057
 21
437.168006
  0
LINE
  8
CSLAYER1
  6
CONTINUOUS
 62
     3
 10
2163.331399
 20
438.658387
 11
2162.470927
 21
437.168006
  0
LINE
  8
CSLAYER1
  6
CONTINUOUS
 62
     3
 10
2146.982585
 20
438.658387
 11
2147.843057
 21
437.168006
  0
LINE
  8
CSLAYER1
  6
CONTINUOUS
 62
     3
 10
2162.470927
 20
443.518859
 11
2147.843057
 21
443.518859
  0
ARC
  8
CSLAYER1
  6
CONTINUOUS
 62
     3
 10
2157.199806
 20
440.343433
 40
6.153702
 50
-23.174644
 51
31.065581
  0
ARC
  8
CSLAYER1
  6
CONTINUOUS
 62
     3
 10
2153.114178
 20
440.343433
 40
6.153702
 50
148.934419
 51
203.174644
  0
LINE
  8
CSLAYER1
  6
CONTINUOUS
 62
     3
 10
2163.440494
 20
438.658387
 11
2163.331399
 21
438.658387
  0
ARC
  8
CSLAYER1
  6
CONTINUOUS
 62
     3
 10
2163.440494
 20
441.658387
 40
3.000000
 50
270.000000
 51
360.000000
  0
LINE
  8
CSLAYER1
  6
CONTINUOUS
 62
     3
 10
2143.440494
 20
438.658387
 11
2142.580022
 21
437.168006
  0
ARC
  8
CSLAYER1
  6
CONTINUOUS
 62
     3
 10
2137.308900
 20
440.343433
 40
6.153702
 50
-23.174644
 51
31.065581
  0
LINE
  8
CSLAYER1
  6
CONTINUOUS
 62
     3
 10
2142.580022
 20
443.518859
 11
2138.440494
 21
443.518859
  0
LINE
  8
CSLAYER1
  6
CONTINUOUS
 62
     3
 10
2142.580022
 20
437.168006
 11
2138.440494
 21
437.168006
  0
LINE
  8
CSLAYER1
  6
CONTINUOUS
 62
     3
 10
2146.982585
 20
439.822263
 11
2143.440494
 21
439.822263
  0
LINE
  8
CSLAYER1
  6
CONTINUOUS
 62
     3
 10
2146.982585
 20
440.468641
 11
2145.376223
 21
440.468641
  0
LINE
  8
CSLAYER1
  6
CONTINUOUS
 62
     3
 10
2145.376223
 20
440.468641
 11
2144.241371
 21
439.822263
  0
LINE
  8
CSLAYER1
  6
CONTINUOUS
 62
     3
 10
2006.040494
 20
465.158387
 11
2006.040494
 21
434.858387
  0
LINE
  8
CSLAYER1
  6
CONTINUOUS
 62
     3
 10
2004.740494
 20
471.158387
 11
2139.740494
 21
471.158387
  0
LINE
  8
CSLAYER1
  6
CONTINUOUS
 62
     3
 10
2004.740494
 20
465.158387
 11
2139.740494
 21
465.158387
  0
LINE
  8
CSLAYER1
  6
CONTINUOUS
 62
     3
 10
2004.740494
 20
471.158387
 11
2004.740494
 21
465.158387
  0
LINE
  8
CSLAYER1
  6
CONTINUOUS
 62
     3
 10
2139.740494
 20
471.158387
 11
2139.740494
 21
465.158387
  0
ARC
  8
CSLAYER1
  6
CONTINUOUS
 62
     3
 10
2003.890494
 20
418.008253
 40
25.650135
 50
90.000000
 51
138.934462
  0
ARC
  8
CSLAYER1
  6
CONTINUOUS
 62
     3
 10
2003.890494
 20
418.008253
 40
28.654497
 50
89.000180
 51
143.981600
  0
ARC
  8
CSLAYER1
  6
CONTINUOUS
 62
     3
 10
2003.890494
 20
418.008253
 40
35.653641
 50
89.196468
 51
151.796391
  0
ARC
  8
CSLAYER1
  6
CONTINUOUS
 62
     3
 10
2003.890494
 20
418.008253
 40
38.650135
 50
90.000000
 51
154.153239
  0
LINE
  8
CSLAYER1
  6
CONTINUOUS
 62
     3
 10
2219.758916
 20
446.358387
 11
2166.440494
 21
446.358387
  0
LINE
  8
CSLAYER1
  6
CONTINUOUS
 62
     3
 10
2004.890494
 20
460.658387
 11
2005.890494
 21
460.658387
  0
LINE
  8
CSLAYER1
  6
CONTINUOUS
 62
     3
 10
2003.890494
 20
459.658387
 11
2003.890494
 21
453.661894
  0
ARC
  8
CSLAYER1
  6
CONTINUOUS
 62
     3
 10
2004.890494
 20
459.658387
 40
1.000000
 50
90.000000
 51
180.000000
  0
LINE
  8
CSLAYER1
  6
CONTINUOUS
 62
     3
 10
2004.890494
 20
439.658387
 11
2005.890494
 21
439.658387
  0
ARC
  8
CSLAYER1
  6
CONTINUOUS
 62
     3
 10
2004.890494
 20
440.658387
 40
1.000000
 50
180.000000
 51
270.000000
  0
LINE
  8
CSLAYER1
  6
CONTINUOUS
 62
     3
 10
2004.990494
 20
456.658387
 11
2005.890494
 21
456.658387
  0
LINE
  8
CSLAYER1
  6
CONTINUOUS
 62
     3
 10
2004.390494
 20
456.058387
 11
2004.390494
 21
444.258387
  0
ARC
  8
CSLAYER1
  6
CONTINUOUS
 62
     3
 10
2004.990494
 20
456.058387
 40
0.600000
 50
90.000000
 51
180.000000
  0
LINE
  8
CSLAYER1
  6
CONTINUOUS
 62
     3
 10
2004.990494
 20
443.658387
 11
2005.890494
 21
443.658387
  0
ARC
  8
CSLAYER1
  6
CONTINUOUS
 62
     3
 10
2004.990494
 20
444.258387
 40
0.600000
 50
180.000000
 51
270.000000
  0
LINE
  8
CSLAYER1
  6
CONTINUOUS
 62
     3
 10
2068.740494
 20
474.158387
 11
2068.740494
 21
471.958387
  0
LINE
  8
CSLAYER1
  6
CONTINUOUS
 62
     3
 10
2075.740494
 20
474.158387
 11
2075.740494
 21
471.958387
  0
LINE
  8
CSLAYER1
  6
CONTINUOUS
 62
     3
 10
2075.740494
 20
472.958387
 11
2068.740494
 21
472.958387
  0
LINE
  8
CSLAYER1
  6
CONTINUOUS
 62
     3
 10
2074.340494
 20
475.558387
 11
2070.140494
 21
475.558387
  0
LINE
  8
CSLAYER1
  6
CONTINUOUS
 62
     3
 10
2076.740494
 20
471.958387
 11
2076.740494
 21
471.158387
  0
LINE
  8
CSLAYER1
  6
CONTINUOUS
 62
     3
 10
2067.740494
 20
471.958387
 11
2067.740494
 21
471.158387
  0
LINE
  8
CSLAYER1
  6
CONTINUOUS
 62
     3
 10
2076.740494
 20
471.958387
 11
2067.740494
 21
471.958387
  0
ARC
  8
CSLAYER1
  6
CONTINUOUS
 62
     3
 10
2074.340494
 20
474.158387
 40
1.400000
 50
-0.000000
 51
90.000000
  0
ARC
  8
CSLAYER1
  6
CONTINUOUS
 62
     3
 10
2070.140494
 20
474.158387
 40
1.400000
 50
90.000000
 51
180.000000
  0
LINE
  8
CSLAYER1
  6
CONTINUOUS
 62
     3
 10
2073.280446
 20
471.958387
 11
2070.895243
 21
472.958387
  0
LINE
  8
CSLAYER1
  6
CONTINUOUS
 62
     3
 10
2003.890494
 20
446.662750
 11
2003.890494
 21
440.658387
  0
ARC
  8
CSLAYER1
  6
CENTER
 62
     5
 10
2003.890494
 20
418.008253
 40
32.153641
 50
90.846136
 51
148.395648
  0
LINE
  8
CSLAYER1
  6
CONTINUOUS
 62
     5
 10
612.579393
 20
466.564317
 11
796.914176
 21
674.705127
  0
LINE
  8
CSLAYER1
  6
CONTINUOUS
 62
     5
 10
612.579393
 20
466.564317
 11
625.978875
 21
493.405589
  0
LINE
  8
CSLAYER1
  6
CONTINUOUS
 62
     5
 10
612.579393
 20
466.564317
 11
637.604321
 21
483.109800
  0
LINE
  8
CSLAYER1
  6
CONTINUOUS
 62
     5
 10
796.914176
 20
674.705127
 11
1150.075616
 21
674.705127
  0
TEXT
  8
CSLAYER1
 62
     5
 10
799.064758
 20
686.742798
 40
39.965099
 41
0.691036
  1
上限・下限リミットスイッチ
 50
0.000000
 51
0.000000
  7
EASYDRAW_FONT
 72
     5
 11
1148.884169
 21
686.742798
  0
LINE
  8
CSLAYER1
  6
CONTINUOUS
 62
     5
 10
1271.490895
 20
725.283505
 11
1179.170444
 21
915.694435
  0
LINE
  8
CSLAYER1
  6
CONTINUOUS
 62
     5
 10
1271.490895
 20
725.283505
 11
1251.861989
 21
747.970639
  0
LINE
  8
CSLAYER1
  6
CONTINUOUS
 62
     5
 10
1271.490895
 20
725.283505
 11
1265.835330
 21
754.745592
  0
LINE
  8
CSLAYER1
  6
CONTINUOUS
 62
     5
 10
1179.170444
 20
915.694435
 11
929.170444
 21
915.694435
  0
TEXT
  8
CSLAYER1
 62
     5
 10
939.170288
 20
925.694519
 40
40.000000
 41
0.782609
  1
ギヤードモ－ター
 50
0.000000
 51
0.000000
  7
EASYDRAW_FONT
 72
     5
 11
1179.170288
 21
925.694519
  0
LINE
  8
CSLAYER1
  6
CONTINUOUS
 62
     5
 10
1312.435993
 20
724.124769
 11
1370.397626
 21
724.124769
  0
LINE
  8
CSLAYER1
  6
CONTINUOUS
 62
     5
 10
1339.408138
 20
753.919527
 11
1339.408138
 21
696.776180
  0
LINE
  8
CSLAYER1
  6
CONTINUOUS
 62
     5
 10
1426.304496
 20
782.031196
 11
1484.289251
 21
782.031196
  0
LINE
  8
CSLAYER1
  6
CONTINUOUS
 62
     5
 10
1452.972418
 20
816.021852
 11
1452.972418
 21
748.484053
  0
LINE
  8
CSLAYER1
  6
CONTINUOUS
 62
     5
 10
2526.039760
 20
2027.362711
 11
2475.943940
 21
2204.431476
  0
LINE
  8
CSLAYER1
  6
CONTINUOUS
 62
     5
 10
2526.039760
 20
2027.362711
 11
2510.679767
 21
2053.132278
  0
LINE
  8
CSLAYER1
  6
CONTINUOUS
 62
     5
 10
2526.039760
 20
2027.362711
 11
2525.622399
 21
2057.359808
  0
LINE
  8
CSLAYER1
  6
CONTINUOUS
 62
     5
 10
2557.327240
 20
1865.266653
 11
2742.003480
 21
2151.569463
  0
LINE
  8
CSLAYER1
  6
CONTINUOUS
 62
     5
 10
2557.327240
 20
1865.266653
 11
2566.509844
 21
1893.826761
  0
LINE
  8
CSLAYER1
  6
CONTINUOUS
 62
     5
 10
2557.327240
 20
1865.266653
 11
2579.559662
 21
1885.409130
  0
LINE
  8
CSLAYER1
  6
CONTINUOUS
 62
     5
 10
3400.111639
 20
1232.650599
 11
2679.239121
 21
1232.650599
  0
LINE
  8
CSLAYER1
  6
CONTINUOUS
 62
     5
 10
3400.111639
 20
1168.650601
 11
2679.239121
 21
1168.650601
  0
TEXT
  8
CSLAYER1
 62
     4
 10
2690.412109
 20
1178.604126
 40
40.000000
 41
0.872727
  1
モーター
 50
0.000000
 51
0.000000
  7
EASYDRAW_FONT
 72
     5
 11
2818.412109
 21
1178.604126
  0
LINE
  8
CSLAYER1
  6
CONTINUOUS
 62
     5
 10
3400.111639
 20
1104.650602
 11
2679.239121
 21
1104.650602
  0
LINE
  8
CSLAYER1
  6
CONTINUOUS
 62
     5
 10
3400.111639
 20
976.650605
 11
2677.100619
 21
976.650605
  0
LINE
  8
CSLAYER1
  6
CONTINUOUS
 62
     5
 10
3400.111639
 20
912.650607
 11
2679.239121
 21
912.650607
  0
LINE
  8
CSLAYER1
  6
CONTINUOUS
 62
     5
 10
3400.111639
 20
848.650609
 11
2679.239121
 21
848.650609
  0
TEXT
  8
CSLAYER1
 62
     4
 10
2692.993652
 20
859.772644
 40
40.000000
 41
0.857143
  1
自  　重
 50
0.000000
 51
0.000000
  7
EASYDRAW_FONT
 72
     5
 11
2852.993652
 21
859.772644
  0
TEXT
  8
CSLAYER1
 62
     4
 10
2695.942871
 20
795.701355
 40
40.000000
 41
0.847059
  1
塗　装　色 
 50
0.000000
 51
0.000000
  7
EASYDRAW_FONT
 72
     5
 11
2887.942871
 21
795.701355
  0
TEXT
  8
CSLAYER1
 62
     4
 10
2921.518555
 20
1179.520874
 40
40.000000
 41
0.819512
  1
３相ＡＣ２００Ｖ、0.4ＫＷ
 50
0.000000
 51
0.000000
  7
EASYDRAW_FONT
 72
     5
 11
3369.518555
 21
1179.520874
  0
TEXT
  8
CSLAYER1
 62
     4
 10
3052.501953
 20
1115.677368
 40
40.000000
 41
0.840000
  1
長サ  ４ ｍ
 50
0.000000
 51
0.000000
  7
EASYDRAW_FONT
 72
     5
 11
3276.501953
 21
1115.677368
  0
TEXT
  8
CSLAYER1
 62
     3
 10
3165.141602
 20
861.671814
 40
40.000000
 41
0.847059
  1
１４１　Ｋｇ
 50
0.000000
 51
0.000000
  7
EASYDRAW_FONT
 72
     5
 11
3357.141602
 21
861.671814
  0
LINE
  8
CSLAYER1
  6
CONTINUOUS
 62
     5
 10
3400.111639
 20
1040.650604
 11
2679.239121
 21
1040.650604
  0
TEXT
  8
CSLAYER1
 62
     4
 10
2691.328369
 20
1115.286743
 40
40.000000
 41
0.942857
  1
電源コード
 50
0.000000
 51
0.000000
  7
EASYDRAW_FONT
 72
     5
 11
2867.328369
 21
1115.286743
  0
TEXT
  8
CSLAYER1
 62
     4
 10
2691.757340
 20
1046.165293
 40
47.730206
 41
0.593339
  1
昇降時間 ２２秒（50HZ） １８秒(60HZ)
 50
0.000000
 51
0.000000
  7
EASYDRAW_FONT
 72
     5
 11
3362.002426
 21
1046.165293
  0
TEXT
  8
CSLAYER1
 62
     4
 10
2693.058105
 20
920.722351
 40
40.000000
 41
0.912766
  1
上昇端、下降端リミットスイッチ付
 50
0.000000
 51
0.000000
  7
EASYDRAW_FONT
 72
     5
 11
3265.058105
 21
920.722351
  0
TEXT
  8
CSLAYER1
 62
     4
 10
2694.904840
 20
985.385731
 40
45.879784
 41
0.605080
  1
最大使用頻度８０回／時間・最大起動頻度１０回／分
 50
0.000000
 51
0.000000
  7
EASYDRAW_FONT
 72
     5
 11
3351.913519
 21
985.385731
  0
LINE
  8
CSLAYER1
  6
CONTINUOUS
 62
     5
 10
3400.111639
 20
1289.982603
 11
2679.239121
 21
1289.982603
  0
TEXT
  8
CSLAYER1
 62
     4
 10
2889.067383
 20
1301.716675
 40
40.000000
 41
0.825000
  1
マグネットスイッチ制御
 50
0.000000
 51
0.000000
  7
EASYDRAW_FONT
 72
     5
 11
3241.067383
 21
1301.716675
  0
TEXT
  8
CSLAYER1
 62
     4
 10
2692.680176
 20
1299.727417
 40
40.000000
 41
0.872727
  1
制御方式
 50
0.000000
 51
0.000000
  7
EASYDRAW_FONT
 72
     5
 11
2820.680176
 21
1299.727417
  0
TEXT
  8
CSLAYER1
 62
     5
 10
2771.245361
 20
2053.011719
 40
40.000000
 41
1.020000
  1
コード長サ２ｍ
 50
360.000000
 51
0.000000
  7
EASYDRAW_FONT
 72
     5
 11
3043.245361
 21
2053.011719
  0
LINE
  8
CSLAYER1
  6
CONTINUOUS
 62
     5
 10
3400.111639
 20
784.650610
 11
2679.239121
 21
784.650610
  0
TEXT
  8
CSLAYER1
 62
     4
 10
3004.541016
 20
795.321838
 40
40.000000
 41
0.926087
  1
　１０Ｒ４／１３
 50
0.000000
 51
0.000000
  7
EASYDRAW_FONT
 72
     5
 11
3288.541016
 21
795.321838
  0
TEXT
  8
CSLAYER1
 62
     3
 10
2688.980957
 20
1814.008667
 40
40.000000
 41
1.036364
  1
積載荷重
 50
0.000000
 51
0.000000
  7
EASYDRAW_FONT
 72
     5
 11
2840.980957
 21
1814.008667
  0
INSERT
  8
CSLAYER1
  2
BLKF0002
 10
0.0
 20
0.0
 30
0.0
  0
ENDSEC
  0
EOF
