  0
SECTION
  2
HEADER
  9
$ACADVER
  1
AC1006
  9
$INSBASE
 10
1742.565147
 20
1992.377850
 30
0.0
  9
$EXTMIN
 10
1742.565147
 20
1992.377850
  9
$EXTMAX
 10
5382.565147
 20
4562.377850
  9
$LIMMIN
 10
1742.565147
 20
1992.377850
  9
$LIMMAX
 10
5382.565147
 20
4562.377850
  9
$VIEWCTR
 10
3562.565147
 20
3277.377850
  9
$VIEWSIZE
 40
2570.000000
  9
$SNAPMODE
 70
     0
  9
$SNAPUNIT
 10
1.0
 20
1.0
  9
$SNAPBASE
 10
0.0
 20
0.0
  9
$SNAPANG
 50
0.0
  9
$SNAPSTYLE
 70
     0
  9
$SNAPISOPAIR
 70
     0
  9
$GRIDMODE
 70
     0
  9
$GRIDUNIT
 10
0.0
 20
0.0
  9
$ORTHOMODE
 70
     0
  9
$REGENMODE
 70
     1
  9
$FILLMODE
 70
     1
  9
$QTEXTMODE
 70
     0
  9
$DRAGMODE
 70
     2
  9
$LTSCALE
 40
15.000000
  9
$OSMODE
 70
     0
  9
$ATTMODE
 70
     1
  9
$TEXTSIZE
 40
0.2
  9
$TRACEWID
 40
0.05
  9
$TEXTSTYLE
  7
STANDARD
  9
$CLAYER
  8
CSLAYER1
  9
$CELTYPE
  6
BYLAYER
  9
$CECOLOR
 62
   256
  9
$DIMSCALE
 40
1.0
  9
$DIMASZ
 40
0.18
  9
$DIMEXO
 40
0.0625
  9
$DIMDLI
 40
0.38
  9
$DIMRND
 40
0.0
  9
$DIMDLE
 40
0.0
  9
$DIMEXE
 40
0.18
  9
$DIMTP
 40
0.0
  9
$DIMTM
 40
0.0
  9
$DIMTXT
 40
0.18
  9
$DIMCEN
 40
0.09
  9
$DIMTSZ
 40
0.0
  9
$DIMTOL
 70
     0
  9
$DIMLIM
 70
     0
  9
$DIMTIH
 70
     1
  9
$DIMTOH
 70
     1
  9
$DIMSE1
 70
     0
  9
$DIMSE2
 70
     0
  9
$DIMTAD
 70
     0
  9
$DIMZIN
 70
     0
  9
$DIMBLK
  1

  9
$LUNITS
 70
     2
  9
$LUPREC
 70
     4
  9
$AXISMODE
 70
     0
  9
$AXISUNIT
 10
0.0
 20
0.0
  9
$SKETCHINC
 40
0.1
  9
$FILLETRAD
 40
0.0
  9
$AUNITS
 70
     0
  9
$AUPREC
 70
     0
  9
$MENU
  1
ACAD
  9
$ELEVATION
 40
0.0
  9
$THICKNESS
 40
0.0
  9
$VIEWDIR
 10
0.0
 20
0.0
 30
1.0
  9
$LIMCHECK
 70
     0
  9
$BLIPMODE
 70
     1
  9
$CHAMFERA
 40
0.0
  9
$CHAMFERB
 40
0.0
  9
$FASTZOOM
 70
     1
  9
$SKPOLY
 70
     0
  9
$TDCREATE
 40
2457497.000000
  9
$TDUPDATE
 40
2457497.000000
  9
$TDINDWG
 40
0.0
  9
$TDUSRTIMER
 40
0.0
  9
$USRTIMER
 70
     1
  9
$ANGBASE
 50
0.0
  9
$ANGDIR
 70
     0
  9
$PDMODE
 70
     0
  9
$PDSIZE
 40
0.0
  9
$PLINEWID
 40
0.0
  9
$COORDS
 70
     0
  9
$USERI1
 70
     0
  9
$USERI2
 70
     0
  9
$USERI3
 70
     0
  9
$USERI4
 70
     0
  9
$USERI5
 70
     0
  9
$USERR1
 40
0.0
  9
$USERR2
 40
0.0
  9
$USERR3
 40
0.0
  9
$USERR4
 40
0.0
  9
$USERR5
 40
0.0
  0
ENDSEC
  0
SECTION
  2
TABLES
  0
TABLE
  2
LTYPE
 70
     9
  0
LTYPE
  2
CONTINUOUS
 70
    64
  3
Solid line
 72
    65
 73
     0
 40
0.0
  0
LTYPE
  2
DASHED
 70
    64
  3
__ __ __ __ __ __ __ __ __ __ __ __ __ __ __
 72
    65
 73
     2
 40
0.75
 49
0.5
 49
-0.25
  0
LTYPE
  2
HIDDEN
 70
    64
  3
_ _ _ _ _ _ _ _ _ _ _ _ _ _ _ _ _ _ _ _ _ _ _
 72
    65
 73
     2
 40
0.375
 49
0.25
 49
-0.125
  0
LTYPE
  2
DOT
 70
    64
  3
...............................................
 72
    65
 73
     2
 40
0.25
 49
0.0
 49
-0.25
  0
LTYPE
  2
DASHDOT
 70
    64
  3
__ . __ . __ . __ . __ . __ . __ . __ . __ . __
 72
    65
 73
     4
 40
1.0
 49
0.5
 49
-0.25
 49
0.0
 49
-0.25
  0
LTYPE
  2
DIVIDE
 70
    64
  3
__ . . __ . . __ . . __ . . __ . . __ . . __
 72
    65
 73
     6
 40
1.25
 49
0.5
 49
-0.25
 49
0.0
 49
-0.25
 49
0.0
 49
-0.25
  0
LTYPE
  2
CENTER
 70
    64
  3
____ _ ____ _ ____ _ ____ _ ____ _ ____ _ ____ 
 72
    65
 73
     4
 40
2.0
 49
1.25
 49
-0.25
 49
0.25
 49
-0.25
  0
LTYPE
  2
PHANTOM
 70
    64
  3
______  __  __  ______  __  __  ______  __  __ 
 72
    65
 73
     6
 40
2.5
 49
1.25
 49
-0.25
 49
0.25
 49
-0.25
 49
0.25
 49
-0.25
  0
LTYPE
  2
BORDER
 70
    64
  3
__ __ . __ __ . __ __ . __ __ . __ __ . __ __ .
 72
    65
 73
     6
 40
1.75
 49
0.5
 49
-0.25
 49
0.5
 49
-0.25
 49
0.0
 49
-0.25
  0
ENDTAB
  0
TABLE
  2
LAYER
 70
    16
  0
LAYER
  2
CSLAYER1
 70
    64
 62
     7
  6
CONTINUOUS
  0
LAYER
  2
CSLAYER2
 70
    64
 62
     7
  6
CONTINUOUS
  0
LAYER
  2
CSLAYER3
 70
    64
 62
     7
  6
CONTINUOUS
  0
LAYER
  2
CSLAYER4
 70
    64
 62
     7
  6
CONTINUOUS
  0
LAYER
  2
CSLAYER5
 70
    64
 62
     7
  6
CONTINUOUS
  0
LAYER
  2
CSLAYER6
 70
    64
 62
     7
  6
CONTINUOUS
  0
LAYER
  2
CSLAYER7
 70
    64
 62
     7
  6
CONTINUOUS
  0
LAYER
  2
CSLAYER8
 70
    64
 62
     7
  6
CONTINUOUS
  0
LAYER
  2
CSLAYER9
 70
    64
 62
     7
  6
CONTINUOUS
  0
LAYER
  2
CSLAYER10
 70
    64
 62
     7
  6
CONTINUOUS
  0
LAYER
  2
CSLAYER11
 70
    64
 62
     7
  6
CONTINUOUS
  0
LAYER
  2
CSLAYER12
 70
    64
 62
     7
  6
CONTINUOUS
  0
LAYER
  2
CSLAYER13
 70
    64
 62
     7
  6
CONTINUOUS
  0
LAYER
  2
CSLAYER14
 70
    64
 62
     7
  6
CONTINUOUS
  0
LAYER
  2
CSLAYER15
 70
    64
 62
     7
  6
CONTINUOUS
  0
LAYER
  2
CSLAYER16
 70
    64
 62
     7
  6
CONTINUOUS
  0
ENDTAB
  0
TABLE
  2
STYLE
 70
     1
  0
STYLE
  2
EASYDRAW_FONT
 70
     0
 40
1.0
 41
1.0
 50
0.0
 71
     0
 42
1.0
  3
monotxt
  4
bigfont
  0
ENDTAB
  0
TABLE
  2
VIEW
 70
     0
  0
ENDTAB
  0
ENDSEC
  0
SECTION
  2
BLOCKS
  0
BLOCK
  8
CSLAYER1
  2
*D0000
 70
    65
 10
0.0
 20
0.0
 30
0.0
  0
TEXT
  8
CSLAYER1
 62
     7
 10
2261.042969
 20
462.266541
 40
40.000000
 41
0.843750
  1
155
 50
90.000000
 51
0.000000
  7
EASYDRAW_FONT
 72
     5
 11
2261.042969
 21
552.266541
  0
LINE
  8
CSLAYER1
  6
CONTINUOUS
 62
     5
 10
2137.303653
 20
429.766419
 11
2383.636552
 21
429.766419
  0
LINE
  8
CSLAYER1
  6
CONTINUOUS
 62
     5
 10
2137.103653
 20
584.766419
 11
2281.043345
 21
584.766419
  0
LINE
  8
CSLAYER1
  6
CONTINUOUS
 62
     5
 10
2271.043345
 20
429.766419
 11
2271.043345
 21
584.766419
  0
LINE
  8
CSLAYER1
  6
CONTINUOUS
 62
     5
 10
2271.043345
 20
429.766419
 11
2263.278773
 21
458.744194
  0
LINE
  8
CSLAYER1
  6
CONTINUOUS
 62
     5
 10
2271.043345
 20
429.766419
 11
2278.807916
 21
458.744194
  0
LINE
  8
CSLAYER1
  6
CONTINUOUS
 62
     5
 10
2271.043345
 20
584.766419
 11
2263.278773
 21
555.788645
  0
LINE
  8
CSLAYER1
  6
CONTINUOUS
 62
     5
 10
2271.043345
 20
584.766419
 11
2278.807916
 21
555.788645
  0
ENDBLK
  8
0
  0
BLOCK
  8
CSLAYER1
  2
*D0001
 70
    65
 10
0.0
 20
0.0
 30
0.0
  0
TEXT
  8
CSLAYER1
 62
     7
 10
2261.042969
 20
818.809509
 40
40.000000
 41
0.843750
  1
545
 50
90.000000
 51
0.000000
  7
EASYDRAW_FONT
 72
     5
 11
2261.042969
 21
908.809509
  0
LINE
  8
CSLAYER1
  6
CONTINUOUS
 62
     5
 10
2137.103653
 20
1142.852443
 11
2383.636552
 21
1142.852443
  0
LINE
  8
CSLAYER1
  6
CONTINUOUS
 62
     5
 10
2271.043345
 20
584.766419
 11
2271.043345
 21
1142.852443
  0
LINE
  8
CSLAYER1
  6
CONTINUOUS
 62
     5
 10
2271.043345
 20
584.766419
 11
2263.278773
 21
613.744194
  0
LINE
  8
CSLAYER1
  6
CONTINUOUS
 62
     5
 10
2271.043345
 20
584.766419
 11
2278.807916
 21
613.744194
  0
LINE
  8
CSLAYER1
  6
CONTINUOUS
 62
     5
 10
2271.043345
 20
1142.852443
 11
2263.278773
 21
1113.874669
  0
LINE
  8
CSLAYER1
  6
CONTINUOUS
 62
     5
 10
2271.043345
 20
1142.852443
 11
2278.807916
 21
1113.874669
  0
ENDBLK
  8
0
  0
BLOCK
  8
CSLAYER1
  2
*D0002
 70
    65
 10
0.0
 20
0.0
 30
0.0
  0
TEXT
  8
CSLAYER1
 62
     7
 10
2363.636230
 20
741.309509
 40
40.000000
 41
0.843750
  1
700
 50
90.000000
 51
0.000000
  7
EASYDRAW_FONT
 72
     5
 11
2363.636230
 21
831.309509
  0
LINE
  8
CSLAYER1
  6
CONTINUOUS
 62
     5
 10
2373.636552
 20
429.766419
 11
2373.636552
 21
1142.852443
  0
LINE
  8
CSLAYER1
  6
CONTINUOUS
 62
     5
 10
2373.636552
 20
429.766419
 11
2365.871980
 21
458.744194
  0
LINE
  8
CSLAYER1
  6
CONTINUOUS
 62
     5
 10
2373.636552
 20
429.766419
 11
2381.401123
 21
458.744194
  0
LINE
  8
CSLAYER1
  6
CONTINUOUS
 62
     5
 10
2373.636552
 20
1142.852443
 11
2365.871980
 21
1113.874669
  0
LINE
  8
CSLAYER1
  6
CONTINUOUS
 62
     5
 10
2373.636552
 20
1142.852443
 11
2381.401123
 21
1113.874669
  0
ENDBLK
  8
0
  0
BLOCK
  8
CSLAYER1
  2
*D0003
 70
    65
 10
0.0
 20
0.0
 30
0.0
  0
TEXT
  8
CSLAYER1
 62
     7
 10
1632.103760
 20
1355.994263
 40
40.000000
 41
0.843750
  1
900
 50
0.000000
 51
0.000000
  7
EASYDRAW_FONT
 72
     5
 11
1722.103760
 21
1355.994263
  0
LINE
  8
CSLAYER1
  6
CONTINUOUS
 62
     5
 10
1227.103653
 20
1438.158490
 11
1227.103653
 21
1335.994217
  0
LINE
  8
CSLAYER1
  6
CONTINUOUS
 62
     5
 10
2127.103653
 20
1438.158490
 11
2127.103653
 21
1335.994217
  0
LINE
  8
CSLAYER1
  6
CONTINUOUS
 62
     5
 10
1227.103653
 20
1345.994217
 11
2127.103653
 21
1345.994217
  0
LINE
  8
CSLAYER1
  6
CONTINUOUS
 62
     5
 10
1227.103653
 20
1345.994217
 11
1256.081427
 21
1353.758789
  0
LINE
  8
CSLAYER1
  6
CONTINUOUS
 62
     5
 10
1227.103653
 20
1345.994217
 11
1256.081427
 21
1338.229646
  0
LINE
  8
CSLAYER1
  6
CONTINUOUS
 62
     5
 10
2127.103653
 20
1345.994217
 11
2098.125878
 21
1353.758789
  0
LINE
  8
CSLAYER1
  6
CONTINUOUS
 62
     5
 10
2127.103653
 20
1345.994217
 11
2098.125878
 21
1338.229646
  0
ENDBLK
  8
0
  0
BLOCK
  8
CSLAYER1
  2
*D0004
 70
    65
 10
0.0
 20
0.0
 30
0.0
  0
TEXT
  8
CSLAYER1
 62
     7
 10
1632.303711
 20
324.668610
 40
40.000000
 41
0.843750
  1
900
 50
0.000000
 51
0.000000
  7
EASYDRAW_FONT
 72
     5
 11
1722.303711
 21
324.668610
  0
LINE
  8
CSLAYER1
  6
CONTINUOUS
 62
     5
 10
1227.303653
 20
419.766419
 11
1227.303653
 21
304.668710
  0
LINE
  8
CSLAYER1
  6
CONTINUOUS
 62
     5
 10
2127.303653
 20
419.766419
 11
2127.303653
 21
304.668710
  0
LINE
  8
CSLAYER1
  6
CONTINUOUS
 62
     5
 10
1227.303653
 20
314.668710
 11
2127.303653
 21
314.668710
  0
LINE
  8
CSLAYER1
  6
CONTINUOUS
 62
     5
 10
1227.303653
 20
314.668710
 11
1256.281427
 21
322.433281
  0
LINE
  8
CSLAYER1
  6
CONTINUOUS
 62
     5
 10
1227.303653
 20
314.668710
 11
1256.281427
 21
306.904139
  0
LINE
  8
CSLAYER1
  6
CONTINUOUS
 62
     5
 10
2127.303653
 20
314.668710
 11
2098.325878
 21
322.433281
  0
LINE
  8
CSLAYER1
  6
CONTINUOUS
 62
     5
 10
2127.303653
 20
314.668710
 11
2098.325878
 21
306.904139
  0
ENDBLK
  8
0
  0
BLOCK
  8
CSLAYER1
  2
*D0005
 70
    65
 10
0.0
 20
0.0
 30
0.0
  0
TEXT
  8
CSLAYER1
 62
     7
 10
511.858215
 20
324.668610
 40
40.000000
 41
0.843750
  1
600
 50
0.000000
 51
0.000000
  7
EASYDRAW_FONT
 72
     5
 11
601.858215
 21
324.668610
  0
LINE
  8
CSLAYER1
  6
CONTINUOUS
 62
     5
 10
256.858227
 20
419.766419
 11
256.858227
 21
304.668710
  0
LINE
  8
CSLAYER1
  6
CONTINUOUS
 62
     5
 10
856.858227
 20
419.766419
 11
856.858227
 21
304.668710
  0
LINE
  8
CSLAYER1
  6
CONTINUOUS
 62
     5
 10
256.858227
 20
314.668710
 11
856.858227
 21
314.668710
  0
LINE
  8
CSLAYER1
  6
CONTINUOUS
 62
     5
 10
256.858227
 20
314.668710
 11
285.836002
 21
322.433281
  0
LINE
  8
CSLAYER1
  6
CONTINUOUS
 62
     5
 10
256.858227
 20
314.668710
 11
285.836002
 21
306.904139
  0
LINE
  8
CSLAYER1
  6
CONTINUOUS
 62
     5
 10
856.858227
 20
314.668710
 11
827.880452
 21
322.433281
  0
LINE
  8
CSLAYER1
  6
CONTINUOUS
 62
     5
 10
856.858227
 20
314.668710
 11
827.880452
 21
306.904139
  0
ENDBLK
  8
0
  0
BLOCK
  8
CSLAYER1
  2
*D0006
 70
    65
 10
0.0
 20
0.0
 30
0.0
  0
TEXT
  8
CSLAYER1
 62
     7
 10
1124.515381
 20
1803.158447
 40
40.000000
 41
0.843750
  1
800
 50
90.000000
 51
0.000000
  7
EASYDRAW_FONT
 72
     5
 11
1124.515381
 21
1893.158447
  0
LINE
  8
CSLAYER1
  6
CONTINUOUS
 62
     5
 10
1217.103653
 20
1448.158490
 11
1124.515348
 21
1448.158490
  0
LINE
  8
CSLAYER1
  6
CONTINUOUS
 62
     5
 10
1217.103653
 20
2248.158490
 11
1124.515348
 21
2248.158490
  0
LINE
  8
CSLAYER1
  6
CONTINUOUS
 62
     5
 10
1134.515348
 20
1448.158490
 11
1134.515348
 21
2248.158490
  0
LINE
  8
CSLAYER1
  6
CONTINUOUS
 62
     5
 10
1134.515348
 20
1448.158490
 11
1126.750776
 21
1477.136265
  0
LINE
  8
CSLAYER1
  6
CONTINUOUS
 62
     5
 10
1134.515348
 20
1448.158490
 11
1142.279919
 21
1477.136265
  0
LINE
  8
CSLAYER1
  6
CONTINUOUS
 62
     5
 10
1134.515348
 20
2248.158490
 11
1126.750776
 21
2219.180715
  0
LINE
  8
CSLAYER1
  6
CONTINUOUS
 62
     5
 10
1134.515348
 20
2248.158490
 11
1142.279919
 21
2219.180715
  0
ENDBLK
  8
0
  0
BLOCK
  8
CSLAYER1
  2
BLKF0000
 70
   64
 10
0.0
 20
0.0
 30
0.0
  0
ARC
  8
CSLAYER1
  6
CONTINUOUS
 62
     5
 10
2781.909508
 20
79.335220
 40
3.549225
 50
6.429109
 51
73.182034
  0
ARC
  8
CSLAYER1
  6
CONTINUOUS
 62
     5
 10
2778.448538
 20
78.176827
 40
6.907754
 50
310.517970
 51
330.092764
  0
ARC
  8
CSLAYER1
  6
CONTINUOUS
 62
     5
 10
2778.387888
 20
78.542345
 40
7.148321
 50
-32.205059
 51
9.585194
  0
ARC
  8
CSLAYER1
  6
CONTINUOUS
 62
     5
 10
2781.680616
 20
75.781346
 40
4.767514
 50
180.000000
 51
218.514150
  0
ARC
  8
CSLAYER1
  6
CONTINUOUS
 62
     5
 10
2780.393895
 20
75.104206
 40
3.348282
 50
222.781148
 51
319.406906
  0
ARC
  8
CSLAYER1
  6
CONTINUOUS
 62
     5
 10
2783.459537
 20
76.194099
 40
6.559434
 50
94.574282
 51
183.607718
  0
LINE
  8
CSLAYER1
  6
CONTINUOUS
 62
     5
 10
2796.903443
 20
71.077266
 11
2796.046407
 21
68.038683
  0
LINE
  8
CSLAYER1
  6
CONTINUOUS
 62
     5
 10
2798.695428
 20
90.944924
 11
2796.591794
 21
93.671857
  0
LINE
  8
CSLAYER1
  6
CONTINUOUS
 62
     5
 10
2796.591794
 20
93.671857
 11
2789.838440
 21
97.429769
  0
LINE
  8
CSLAYER1
  6
CONTINUOUS
 62
     5
 10
2789.838440
 20
97.429769
 11
2782.936412
 21
98.232640
  0
LINE
  8
CSLAYER1
  6
CONTINUOUS
 62
     5
 10
2764.647187
 20
84.853966
 11
2766.793881
 21
89.818197
  0
LINE
  8
CSLAYER1
  6
CONTINUOUS
 62
     5
 10
2766.756884
 20
89.732640
 11
2768.940576
 21
92.367396
  0
LINE
  8
CSLAYER1
  6
CONTINUOUS
 62
     5
 10
2768.940576
 20
92.367396
 11
2772.244998
 21
94.732640
  0
LINE
  8
CSLAYER1
  6
CONTINUOUS
 62
     5
 10
2782.936412
 20
98.232640
 11
2781.418237
 21
97.465795
  0
LINE
  8
CSLAYER1
  6
CONTINUOUS
 62
     5
 10
2781.418237
 20
97.465795
 11
2777.929858
 21
97.465795
  0
LINE
  8
CSLAYER1
  6
CONTINUOUS
 62
     5
 10
2777.929858
 20
97.465795
 11
2774.374396
 21
95.520354
  0
LINE
  8
CSLAYER1
  6
CONTINUOUS
 62
     5
 10
2774.374396
 20
95.520354
 11
2772.244998
 21
94.732640
  0
LINE
  8
CSLAYER1
  6
CONTINUOUS
 62
     5
 10
2764.647187
 20
84.853966
 11
2763.129640
 21
77.305363
  0
LINE
  8
CSLAYER1
  6
CONTINUOUS
 62
     5
 10
2763.129640
 20
77.305363
 11
2762.936412
 21
74.732640
  0
LINE
  8
CSLAYER1
  6
CONTINUOUS
 62
     5
 10
2765.645795
 20
66.892857
 11
2762.936412
 21
72.988969
  0
LINE
  8
CSLAYER1
  6
CONTINUOUS
 62
     5
 10
2762.936412
 20
72.988969
 11
2762.936412
 21
74.732640
  0
LINE
  8
CSLAYER1
  6
CONTINUOUS
 62
     5
 10
2796.046407
 20
68.038683
 11
2794.360620
 21
65.035677
  0
LINE
  8
CSLAYER1
  6
CONTINUOUS
 62
     5
 10
2794.360620
 20
65.035677
 11
2792.936412
 21
63.716966
  0
ARC
  8
CSLAYER1
  6
CONTINUOUS
 62
     5
 10
2780.744468
 20
75.269400
 40
17.266626
 50
208.054813
 51
260.640470
  0
ARC
  8
CSLAYER1
  6
CONTINUOUS
 62
     5
 10
2775.551072
 20
88.011870
 40
29.874611
 50
274.579659
 51
305.587364
  0
ARC
  8
CSLAYER1
  6
CONTINUOUS
 62
     5
 10
2786.523421
 20
82.028147
 40
15.088627
 50
313.467013
 51
331.085078
  0
LINE
  8
CSLAYER1
  6
CONTINUOUS
 62
     5
 10
2801.314754
 20
78.246061
 11
2801.612048
 21
82.028147
  0
LINE
  8
CSLAYER1
  6
CONTINUOUS
 62
     5
 10
2801.612048
 20
82.028147
 11
2800.320051
 21
88.137130
  0
LINE
  8
CSLAYER1
  6
CONTINUOUS
 62
     5
 10
2801.314754
 20
78.246061
 11
2799.731079
 21
74.732640
  0
ARC
  8
CSLAYER1
  6
CONTINUOUS
 62
     5
 10
2786.523421
 20
82.028147
 40
15.088627
 50
23.883193
 51
36.225170
  0
LINE
  8
CSLAYER1
  6
CONTINUOUS
 62
     5
 10
2746.936412
 20
109.732640
 11
2747.936412
 21
110.825284
  0
LINE
  8
CSLAYER1
  6
CONTINUOUS
 62
     5
 10
2746.936412
 20
109.732640
 11
2748.513370
 21
108.287607
  0
LINE
  8
CSLAYER1
  6
CONTINUOUS
 62
     5
 10
2750.052583
 20
106.178315
 11
2750.078851
 21
104.010196
  0
LINE
  8
CSLAYER1
  6
CONTINUOUS
 62
     5
 10
2750.078851
 20
104.010196
 11
2750.286249
 21
103.249737
  0
LINE
  8
CSLAYER1
  6
CONTINUOUS
 62
     5
 10
2750.286249
 20
103.249737
 11
2750.873877
 21
102.523844
  0
LINE
  8
CSLAYER1
  6
CONTINUOUS
 62
     5
 10
2750.873877
 20
102.523844
 11
2751.461504
 21
102.592977
  0
LINE
  8
CSLAYER1
  6
CONTINUOUS
 62
     5
 10
2751.461504
 20
102.592977
 11
2752.083698
 21
102.765808
  0
LINE
  8
CSLAYER1
  6
CONTINUOUS
 62
     5
 10
2752.083698
 20
102.765808
 11
2752.498494
 21
102.592977
  0
LINE
  8
CSLAYER1
  6
CONTINUOUS
 62
     5
 10
2752.498494
 20
102.592977
 11
2753.397219
 21
102.143614
  0
LINE
  8
CSLAYER1
  6
CONTINUOUS
 62
     5
 10
2753.397219
 20
102.143614
 11
2754.173270
 21
101.732640
  0
LINE
  8
CSLAYER1
  6
CONTINUOUS
 62
     5
 10
2754.173270
 20
101.732640
 11
2754.676173
 21
101.763385
  0
LINE
  8
CSLAYER1
  6
CONTINUOUS
 62
     5
 10
2754.676173
 20
101.763385
 11
2757.484045
 21
103.209864
  0
LINE
  8
CSLAYER1
  6
CONTINUOUS
 62
     5
 10
2747.936412
 20
110.825284
 11
2748.269264
 21
112.298991
  0
LINE
  8
CSLAYER1
  6
CONTINUOUS
 62
     5
 10
2748.269264
 20
112.298991
 11
2749.722669
 21
112.449344
  0
LINE
  8
CSLAYER1
  6
CONTINUOUS
 62
     5
 10
2751.216428
 20
115.217802
 11
2752.970601
 21
115.374892
  0
LINE
  8
CSLAYER1
  6
CONTINUOUS
 62
     5
 10
2752.970601
 20
115.374892
 11
2756.505128
 21
116.212706
  0
LINE
  8
CSLAYER1
  6
CONTINUOUS
 62
     5
 10
2756.505128
 20
116.212706
 11
2757.936412
 21
116.544345
  0
LINE
  8
CSLAYER1
  6
CONTINUOUS
 62
     5
 10
2751.216428
 20
115.217802
 11
2749.283537
 21
115.376670
  0
LINE
  8
CSLAYER1
  6
CONTINUOUS
 62
     5
 10
2748.547414
 20
114.507983
 11
2748.640939
 21
114.136822
  0
LINE
  8
CSLAYER1
  6
CONTINUOUS
 62
     5
 10
2748.640939
 20
114.136822
 11
2749.132533
 21
113.599141
  0
LINE
  8
CSLAYER1
  6
CONTINUOUS
 62
     5
 10
2749.132533
 20
113.599141
 11
2749.808475
 21
113.092184
  0
LINE
  8
CSLAYER1
  6
CONTINUOUS
 62
     5
 10
2749.808475
 20
113.092184
 11
2749.931800
 21
112.927751
  0
LINE
  8
CSLAYER1
  6
CONTINUOUS
 62
     5
 10
2748.513370
 20
108.287607
 11
2750.052583
 21
106.178315
  0
ARC
  8
CSLAYER1
  6
CONTINUOUS
 62
     5
 10
2792.923113
 20
-61.926013
 40
180.727463
 50
80.438896
 51
96.353582
  0
ARC
  8
CSLAYER1
  6
CONTINUOUS
 62
     5
 10
2768.024200
 20
83.321887
 40
34.720242
 50
81.866516
 51
106.890578
  0
LINE
  8
CSLAYER1
  6
CONTINUOUS
 62
     5
 10
2827.130674
 20
115.499310
 11
2829.377756
 21
114.477909
  0
LINE
  8
CSLAYER1
  6
CONTINUOUS
 62
     5
 10
2832.952661
 20
112.894737
 11
2829.377756
 21
114.477909
  0
LINE
  8
CSLAYER1
  6
CONTINUOUS
 62
     5
 10
2827.130674
 20
115.499310
 11
2822.936412
 21
116.291881
  0
LINE
  8
CSLAYER1
  6
CONTINUOUS
 62
     5
 10
2832.936412
 20
112.901933
 11
2834.807988
 21
111.333456
  0
LINE
  8
CSLAYER1
  6
CONTINUOUS
 62
     5
 10
2816.179668
 20
113.938783
 11
2817.078943
 21
115.391458
  0
LINE
  8
CSLAYER1
  6
CONTINUOUS
 62
     5
 10
2817.078943
 20
115.391458
 11
2821.754542
 21
114.271949
  0
LINE
  8
CSLAYER1
  6
CONTINUOUS
 62
     5
 10
2821.754542
 20
114.271949
 11
2838.496928
 21
109.732640
  0
LINE
  8
CSLAYER1
  6
CONTINUOUS
 62
     5
 10
2841.436412
 20
109.732640
 11
2834.807988
 21
111.333456
  0
LINE
  8
CSLAYER1
  6
CONTINUOUS
 62
     5
 10
2838.496928
 20
109.732640
 11
2841.436412
 21
109.732640
  0
LINE
  8
CSLAYER1
  6
CONTINUOUS
 62
     5
 10
2782.936412
 20
114.197581
 11
2802.936412
 21
114.732640
  0
LINE
  8
CSLAYER1
  6
CONTINUOUS
 62
     5
 10
2802.936412
 20
114.732640
 11
2816.179668
 21
113.938783
  0
LINE
  8
CSLAYER1
  6
CONTINUOUS
 62
     5
 10
2817.782649
 20
111.878304
 11
2802.936412
 21
113.232640
  0
LINE
  8
CSLAYER1
  6
CONTINUOUS
 62
     5
 10
2802.936412
 20
113.232640
 11
2787.887203
 21
113.641292
  0
LINE
  8
CSLAYER1
  6
CONTINUOUS
 62
     5
 10
2787.936412
 20
113.639956
 11
2782.936412
 21
113.735249
  0
LINE
  8
CSLAYER1
  6
CONTINUOUS
 62
     5
 10
2782.936412
 20
114.197581
 11
2782.936412
 21
113.735249
  0
LINE
  8
CSLAYER1
  6
CONTINUOUS
 62
     5
 10
2840.436412
 20
106.232640
 11
2831.593854
 21
108.543302
  0
LINE
  8
CSLAYER1
  6
CONTINUOUS
 62
     5
 10
2817.782649
 20
111.878304
 11
2827.936412
 21
109.905920
  0
LINE
  8
CSLAYER1
  6
CONTINUOUS
 62
     5
 10
2827.936412
 20
109.905920
 11
2831.593854
 21
108.543302
  0
LINE
  8
CSLAYER1
  6
CONTINUOUS
 62
     5
 10
2840.436412
 20
106.232640
 11
2840.143795
 21
105.393534
  0
LINE
  8
CSLAYER1
  6
CONTINUOUS
 62
     5
 10
2849.936412
 20
100.732640
 11
2849.630385
 21
101.961621
  0
LINE
  8
CSLAYER1
  6
CONTINUOUS
 62
     5
 10
2840.143795
 20
105.393534
 11
2849.630385
 21
101.961621
  0
LINE
  8
CSLAYER1
  6
CONTINUOUS
 62
     5
 10
2786.436412
 20
106.232640
 11
2788.859450
 21
106.232640
  0
LINE
  8
CSLAYER1
  6
CONTINUOUS
 62
     5
 10
2808.936412
 20
106.665135
 11
2808.936412
 21
106.232640
  0
LINE
  8
CSLAYER1
  6
CONTINUOUS
 62
     5
 10
2807.936412
 20
107.199576
 11
2806.225133
 21
107.836755
  0
LINE
  8
CSLAYER1
  6
CONTINUOUS
 62
     5
 10
2806.225133
 20
107.836755
 11
2805.115077
 21
107.887212
  0
LINE
  8
CSLAYER1
  6
CONTINUOUS
 62
     5
 10
2805.115077
 20
107.887212
 11
2804.635735
 21
107.634926
  0
LINE
  8
CSLAYER1
  6
CONTINUOUS
 62
     5
 10
2804.635735
 20
107.634926
 11
2804.534821
 21
107.231270
  0
LINE
  8
CSLAYER1
  6
CONTINUOUS
 62
     5
 10
2804.534821
 20
107.231270
 11
2804.988934
 21
106.928527
  0
LINE
  8
CSLAYER1
  6
CONTINUOUS
 62
     5
 10
2804.988934
 20
106.928527
 11
2806.628790
 21
106.777156
  0
LINE
  8
CSLAYER1
  6
CONTINUOUS
 62
     5
 10
2806.628790
 20
106.777156
 11
2808.936412
 21
106.665135
  0
LINE
  8
CSLAYER1
  6
CONTINUOUS
 62
     5
 10
2849.936412
 20
100.732640
 11
2846.960870
 21
101.919221
  0
LINE
  8
CSLAYER1
  6
CONTINUOUS
 62
     5
 10
2846.960870
 20
101.919221
 11
2836.905180
 21
103.762097
  0
LINE
  8
CSLAYER1
  6
CONTINUOUS
 62
     5
 10
2836.905180
 20
103.762097
 11
2831.879400
 21
104.921892
  0
LINE
  8
CSLAYER1
  6
CONTINUOUS
 62
     5
 10
2809.470633
 20
107.232640
 11
2821.236299
 21
107.232640
  0
LINE
  8
CSLAYER1
  6
CONTINUOUS
 62
     5
 10
2807.936412
 20
107.199576
 11
2808.461072
 21
106.891109
  0
LINE
  8
CSLAYER1
  6
CONTINUOUS
 62
     5
 10
2808.461072
 20
106.891109
 11
2808.757884
 21
106.802065
  0
LINE
  8
CSLAYER1
  6
CONTINUOUS
 62
     5
 10
2808.757884
 20
106.802065
 11
2808.936412
 21
106.827236
  0
LINE
  8
CSLAYER1
  6
CONTINUOUS
 62
     5
 10
2808.936412
 20
106.827236
 11
2809.470633
 21
107.232640
  0
LINE
  8
CSLAYER1
  6
CONTINUOUS
 62
     5
 10
2821.236299
 20
107.232640
 11
2825.686568
 21
106.203814
  0
LINE
  8
CSLAYER1
  6
CONTINUOUS
 62
     5
 10
2825.686568
 20
106.203814
 11
2829.839760
 21
105.038665
  0
LINE
  8
CSLAYER1
  6
CONTINUOUS
 62
     5
 10
2829.839760
 20
105.038665
 11
2831.879400
 21
104.921892
  0
LINE
  8
CSLAYER1
  6
CONTINUOUS
 62
     5
 10
2785.436412
 20
105.232640
 11
2785.436412
 21
104.732640
  0
LINE
  8
CSLAYER1
  6
CONTINUOUS
 62
     5
 10
2782.936412
 20
104.732640
 11
2785.436412
 21
104.732640
  0
ARC
  8
CSLAYER1
  6
CONTINUOUS
 62
     5
 10
2786.436412
 20
105.232640
 40
1.000000
 50
90.000000
 51
180.000000
  0
LINE
  8
CSLAYER1
  6
CONTINUOUS
 62
     5
 10
2788.859450
 20
106.232640
 11
2789.557007
 21
105.660643
  0
LINE
  8
CSLAYER1
  6
CONTINUOUS
 62
     5
 10
2790.159375
 20
105.636683
 11
2791.016972
 21
106.232640
  0
LINE
  8
CSLAYER1
  6
CONTINUOUS
 62
     5
 10
2792.595368
 20
106.232640
 11
2794.262494
 21
105.574564
  0
LINE
  8
CSLAYER1
  6
CONTINUOUS
 62
     5
 10
2794.686203
 20
105.601076
 11
2795.839690
 21
106.232640
  0
LINE
  8
CSLAYER1
  6
CONTINUOUS
 62
     5
 10
2791.016972
 20
106.232640
 11
2792.595368
 21
106.232640
  0
LINE
  8
CSLAYER1
  6
CONTINUOUS
 62
     5
 10
2795.839690
 20
106.232640
 11
2808.936412
 21
106.232640
  0
LINE
  8
CSLAYER1
  6
CONTINUOUS
 62
     5
 10
2761.485395
 20
103.123813
 11
2782.936412
 21
104.732640
  0
LINE
  8
CSLAYER1
  6
CONTINUOUS
 62
     5
 10
2757.484045
 20
103.209864
 11
2761.485395
 21
103.123813
  0
ARC
  8
CSLAYER1
  6
CONTINUOUS
 62
     5
 10
2789.874047
 20
106.047277
 40
0.500000
 50
230.648247
 51
304.796026
  0
ARC
  8
CSLAYER1
  6
CONTINUOUS
 62
     5
 10
2794.446077
 20
106.039642
 40
0.500000
 50
248.459024
 51
298.701829
  0
ARC
  8
CSLAYER1
  6
CONTINUOUS
 62
     5
 10
2749.691800
 20
112.747751
 40
0.300000
 50
-84.093859
 51
36.869898
  0
ARC
  8
CSLAYER1
  6
CONTINUOUS
 62
     5
 10
2749.226196
 20
114.679023
 40
0.700000
 50
85.301319
 51
194.142980
  0
LINE
  8
CSLAYER1
  6
CONTINUOUS
 62
     3
 10
2781.418237
 20
97.465795
 11
2789.528732
 21
97.465795
  0
LINE
  8
CSLAYER1
  6
CONTINUOUS
 62
     3
 10
2775.005720
 20
95.865795
 11
2792.649061
 21
95.865795
  0
LINE
  8
CSLAYER1
  6
CONTINUOUS
 62
     3
 10
2771.592781
 20
94.265795
 11
2795.524426
 21
94.265795
  0
LINE
  8
CSLAYER1
  6
CONTINUOUS
 62
     3
 10
2769.357462
 20
92.665795
 11
2797.367899
 21
92.665795
  0
LINE
  8
CSLAYER1
  6
CONTINUOUS
 62
     3
 10
2767.861806
 20
91.065795
 11
2798.602184
 21
91.065795
  0
LINE
  8
CSLAYER1
  6
CONTINUOUS
 62
     3
 10
2766.641492
 20
89.465795
 11
2799.651561
 21
89.465795
  0
LINE
  8
CSLAYER1
  6
CONTINUOUS
 62
     3
 10
2765.949600
 20
87.865795
 11
2800.377436
 21
87.865795
  0
LINE
  8
CSLAYER1
  6
CONTINUOUS
 62
     3
 10
2765.257708
 20
86.265795
 11
2800.715822
 21
86.265795
  0
LINE
  8
CSLAYER1
  6
CONTINUOUS
 62
     3
 10
2764.609358
 20
84.665795
 11
2801.054208
 21
84.665795
  0
LINE
  8
CSLAYER1
  6
CONTINUOUS
 62
     3
 10
2764.287699
 20
83.065795
 11
2801.392594
 21
83.065795
  0
LINE
  8
CSLAYER1
  6
CONTINUOUS
 62
     3
 10
2763.966040
 20
81.465795
 11
2779.556283
 21
81.465795
  0
LINE
  8
CSLAYER1
  6
CONTINUOUS
 62
     3
 10
2763.644381
 20
79.865795
 11
2778.024022
 21
79.865795
  0
LINE
  8
CSLAYER1
  6
CONTINUOUS
 62
     3
 10
2763.322722
 20
78.265795
 11
2777.235852
 21
78.265795
  0
LINE
  8
CSLAYER1
  6
CONTINUOUS
 62
     3
 10
2763.081604
 20
76.665795
 11
2776.917085
 21
76.665795
  0
LINE
  8
CSLAYER1
  6
CONTINUOUS
 62
     3
 10
2762.961434
 20
75.065795
 11
2776.967106
 21
75.065795
  0
LINE
  8
CSLAYER1
  6
CONTINUOUS
 62
     3
 10
2762.936412
 20
73.465795
 11
2777.513193
 21
73.465795
  0
LINE
  8
CSLAYER1
  6
CONTINUOUS
 62
     3
 10
2763.435600
 20
71.865795
 11
2779.543195
 21
71.865795
  0
LINE
  8
CSLAYER1
  6
CONTINUOUS
 62
     3
 10
2764.146711
 20
70.265795
 11
2796.674567
 21
70.265795
  0
LINE
  8
CSLAYER1
  6
CONTINUOUS
 62
     3
 10
2764.857823
 20
68.665795
 11
2796.223285
 21
68.665795
  0
LINE
  8
CSLAYER1
  6
CONTINUOUS
 62
     3
 10
2765.568934
 20
67.065795
 11
2795.500261
 21
67.065795
  0
LINE
  8
CSLAYER1
  6
CONTINUOUS
 62
     3
 10
2766.530893
 20
65.465795
 11
2794.602074
 21
65.465795
  0
LINE
  8
CSLAYER1
  6
CONTINUOUS
 62
     3
 10
2767.779354
 20
63.865795
 11
2793.097148
 21
63.865795
  0
LINE
  8
CSLAYER1
  6
CONTINUOUS
 62
     3
 10
2769.384774
 20
62.265795
 11
2790.704687
 21
62.265795
  0
LINE
  8
CSLAYER1
  6
CONTINUOUS
 62
     3
 10
2771.531916
 20
60.665795
 11
2787.579564
 21
60.665795
  0
LINE
  8
CSLAYER1
  6
CONTINUOUS
 62
     3
 10
2774.779606
 20
59.065795
 11
2782.941415
 21
59.065795
  0
LINE
  8
CSLAYER1
  6
CONTINUOUS
 62
     3
 10
2784.748107
 20
81.465795
 11
2801.567844
 21
81.465795
  0
LINE
  8
CSLAYER1
  6
CONTINUOUS
 62
     3
 10
2785.418851
 20
79.865795
 11
2801.442074
 21
79.865795
  0
LINE
  8
CSLAYER1
  6
CONTINUOUS
 62
     3
 10
2785.530858
 20
78.265795
 11
2801.316305
 21
78.265795
  0
LINE
  8
CSLAYER1
  6
CONTINUOUS
 62
     3
 10
2785.285501
 20
76.665795
 11
2800.602449
 21
76.665795
  0
LINE
  8
CSLAYER1
  6
CONTINUOUS
 62
     3
 10
2784.633855
 20
75.065795
 11
2799.881249
 21
75.065795
  0
LINE
  8
CSLAYER1
  6
CONTINUOUS
 62
     3
 10
2783.500592
 20
73.465795
 11
2798.947301
 21
73.465795
  0
LINE
  8
CSLAYER1
  6
CONTINUOUS
 62
     3
 10
2781.244595
 20
71.865795
 11
2797.676594
 21
71.865795
  0
TEXT
  8
CSLAYER1
 62
     5
 10
2802.108183
 20
79.476970
 40
4.713448
 41
1.951056
  1
M
 50
0.000000
 51
0.000000
  7
EASYDRAW_FONT
 72
     5
 11
2808.238985
 21
79.476970
  0
TEXT
  8
CSLAYER1
 62
     5
 10
2811.759570
 20
79.418700
 40
4.626621
 41
0.778201
  1
T
 50
0.000000
 51
0.000000
  7
EASYDRAW_FONT
 72
     5
 11
2814.159863
 21
79.418700
  0
TEXT
  8
CSLAYER1
 62
     5
 10
2814.525133
 20
79.453499
 40
4.696183
 41
1.055553
  1
E
 50
0.000000
 51
0.000000
  7
EASYDRAW_FONT
 72
     5
 11
2817.829848
 21
79.453499
  0
TEXT
  8
CSLAYER1
 62
     5
 10
2817.641314
 20
81.069343
 40
0.348283
 41
9.375319
  1
-
 50
0.000000
 51
0.000000
  7
EASYDRAW_FONT
 72
     5
 11
2819.818159
 21
81.069343
  0
TEXT
  8
CSLAYER1
 62
     5
 10
2819.455523
 20
79.422152
 40
4.861659
 41
1.298502
  1
H
 50
0.000000
 51
0.000000
  7
EASYDRAW_FONT
 72
     5
 11
2823.664106
 21
79.422152
  0
TEXT
  8
CSLAYER1
 62
     5
 10
2823.531538
 20
79.452530
 40
4.843139
 41
1.269236
  1
A
 50
0.000000
 51
0.000000
  7
EASYDRAW_FONT
 72
     5
 11
2827.629595
 21
79.452530
  0
TEXT
  8
CSLAYER1
 62
     5
 10
2827.237694
 20
79.411004
 40
4.825362
 41
1.490144
  1
N
 50
0.000000
 51
0.000000
  7
EASYDRAW_FONT
 72
     5
 11
2832.031349
 21
79.411004
  0
TEXT
  8
CSLAYER1
 62
     5
 10
2808.029152
 20
79.388431
 40
4.982325
 41
1.177443
  1
A
 50
0.000000
 51
0.000000
  7
EASYDRAW_FONT
 72
     5
 11
2811.940086
 21
79.388431
  0
TEXT
  8
CSLAYER1
 62
     5
 10
2802.475197
 20
72.393191
 40
4.982325
 41
1.177443
  1
A
 50
0.000000
 51
0.000000
  7
EASYDRAW_FONT
 72
     5
 11
2806.386131
 21
72.393191
  0
TEXT
  8
CSLAYER1
 62
     5
 10
2815.259621
 20
72.421512
 40
4.982325
 41
1.177443
  1
A
 50
0.000000
 51
0.000000
  7
EASYDRAW_FONT
 72
     5
 11
2819.170555
 21
72.421512
  0
TEXT
  8
CSLAYER1
 62
     5
 10
2819.020165
 20
72.478509
 40
4.825362
 41
1.490144
  1
N
 50
0.000000
 51
0.000000
  7
EASYDRAW_FONT
 72
     5
 11
2823.813819
 21
72.478509
  0
TEXT
  8
CSLAYER1
 62
     5
 10
2827.922501
 20
72.486903
 40
4.841775
 41
1.184218
  1
E
 50
0.000000
 51
0.000000
  7
EASYDRAW_FONT
 72
     5
 11
2831.744980
 21
72.486903
  0
TEXT
  8
CSLAYER1
 62
     5
 10
2806.755750
 20
72.391867
 40
4.947865
 41
1.093992
  1
D
 50
0.000000
 51
0.000000
  7
EASYDRAW_FONT
 72
     5
 11
2810.364367
 21
72.391867
  0
TEXT
  8
CSLAYER1
 62
     5
 10
2811.158109
 20
72.386482
 40
4.924210
 41
1.228195
  1
V
 50
0.000000
 51
0.000000
  7
EASYDRAW_FONT
 72
     5
 11
2815.190036
 21
72.386482
  0
TEXT
  8
CSLAYER1
 62
     5
 10
2823.383310
 20
72.407213
 40
5.032894
 41
1.481023
  1
C
 50
0.000000
 51
0.000000
  7
EASYDRAW_FONT
 72
     5
 11
2828.352530
 21
72.407213
  0
LINE
  8
CSLAYER1
  6
CONTINUOUS
 62
     5
 10
2814.013749
 20
83.467612
 11
2813.001687
 21
83.467612
  0
LINE
  8
CSLAYER1
  6
CONTINUOUS
 62
     3
 10
2763.111987
 20
117.692883
 11
2812.909813
 21
117.692883
  0
LINE
  8
CSLAYER1
  6
CONTINUOUS
 62
     3
 10
2755.999623
 20
116.092883
 11
2823.989505
 21
116.092883
  0
LINE
  8
CSLAYER1
  6
CONTINUOUS
 62
     3
 10
2748.551219
 20
114.492883
 11
2793.974529
 21
114.492883
  0
LINE
  8
CSLAYER1
  6
CONTINUOUS
 62
     3
 10
2806.936079
 20
114.492883
 11
2816.522682
 21
114.492883
  0
LINE
  8
CSLAYER1
  6
CONTINUOUS
 62
     3
 10
2820.831816
 20
114.492883
 11
2829.344813
 21
114.492883
  0
LINE
  8
CSLAYER1
  6
CONTINUOUS
 62
     3
 10
2749.954358
 20
112.892883
 11
2806.660827
 21
112.892883
  0
LINE
  8
CSLAYER1
  6
CONTINUOUS
 62
     3
 10
2826.840965
 20
112.892883
 11
2832.947211
 21
112.892883
  0
LINE
  8
CSLAYER1
  6
CONTINUOUS
 62
     3
 10
2748.042024
 20
111.292883
 11
2820.796375
 21
111.292883
  0
LINE
  8
CSLAYER1
  6
CONTINUOUS
 62
     3
 10
2832.742264
 20
111.292883
 11
2834.975986
 21
111.292883
  0
LINE
  8
CSLAYER1
  6
CONTINUOUS
 62
     3
 10
2746.979799
 20
109.692883
 11
2828.508231
 21
109.692883
  0
LINE
  8
CSLAYER1
  6
CONTINUOUS
 62
     3
 10
2748.655466
 20
108.092883
 11
2833.317540
 21
108.092883
  0
LINE
  8
CSLAYER1
  6
CONTINUOUS
 62
     3
 10
2749.823033
 20
106.492883
 11
2808.936412
 21
106.492883
  0
LINE
  8
CSLAYER1
  6
CONTINUOUS
 62
     3
 10
2824.436177
 20
106.492883
 11
2839.440500
 21
106.492883
  0
LINE
  8
CSLAYER1
  6
CONTINUOUS
 62
     3
 10
2750.068157
 20
104.892883
 11
2785.436412
 21
104.892883
  0
LINE
  8
CSLAYER1
  6
CONTINUOUS
 62
     3
 10
2832.005106
 20
104.892883
 11
2841.527709
 21
104.892883
  0
LINE
  8
CSLAYER1
  6
CONTINUOUS
 62
     3
 10
2750.274482
 20
103.292883
 11
2763.739655
 21
103.292883
  0
LINE
  8
CSLAYER1
  6
CONTINUOUS
 62
     3
 10
2839.465455
 20
103.292883
 11
2845.950473
 21
103.292883
  0
LINE
  8
CSLAYER1
  6
CONTINUOUS
 62
     3
 10
2847.528449
 20
101.692883
 11
2849.697303
 21
101.692883
  0
ENDBLK
  8
0
  0
BLOCK
  8
CSLAYER1
  2
BLKF0001
 70
   64
 10
0.0
 20
0.0
 30
0.0
  0
CIRCLE
  8
CSLAYER1
  6
CONTINUOUS
 62
     4
 10
1551.163352
 20
758.209431
 40
12.000000
  0
LINE
  8
CSLAYER1
  6
CONTINUOUS
 62
     4
 10
1558.091556
 20
770.209431
 11
1544.235149
 21
770.209431
  0
LINE
  8
CSLAYER1
  6
CONTINUOUS
 62
     4
 10
1544.235149
 20
770.209431
 11
1537.306946
 21
758.209431
  0
LINE
  8
CSLAYER1
  6
CONTINUOUS
 62
     4
 10
1537.306946
 20
758.209431
 11
1544.235149
 21
746.209431
  0
LINE
  8
CSLAYER1
  6
CONTINUOUS
 62
     4
 10
1544.235149
 20
746.209431
 11
1558.091556
 21
746.209431
  0
LINE
  8
CSLAYER1
  6
CONTINUOUS
 62
     4
 10
1558.091556
 20
746.209431
 11
1565.019759
 21
758.209431
  0
LINE
  8
CSLAYER1
  6
CONTINUOUS
 62
     4
 10
1565.019759
 20
758.209431
 11
1558.091556
 21
770.209431
  0
CIRCLE
  8
CSLAYER1
  6
CONTINUOUS
 62
     5
 10
1551.163352
 20
758.209431
 40
8.000000
  0
CIRCLE
  8
CSLAYER1
  6
CONTINUOUS
 62
     4
 10
1551.163352
 20
758.209431
 40
7.000000
  0
POINT
  8
CSLAYER1
 62
     4
 10
1551.163352
 20
758.209431
  0
ENDBLK
  8
0
  0
BLOCK
  8
CSLAYER1
  2
BLKF0002
 70
   64
 10
0.0
 20
0.0
 30
0.0
  0
LINE
  8
CSLAYER1
  6
CONTINUOUS
 62
     5
 10
816.058227
 20
743.209431
 11
816.058227
 21
773.209431
  0
LINE
  8
CSLAYER1
  6
CONTINUOUS
 62
     4
 10
812.858227
 20
773.209431
 11
816.058227
 21
773.209431
  0
LINE
  8
CSLAYER1
  6
CONTINUOUS
 62
     4
 10
812.858227
 20
743.209431
 11
816.058227
 21
743.209431
  0
LINE
  8
CSLAYER1
  6
CONTINUOUS
 62
     4
 10
812.858227
 20
773.209431
 11
812.858227
 21
743.209431
  0
LINE
  8
CSLAYER1
  6
CONTINUOUS
 62
     4
 10
820.058227
 20
744.209431
 11
820.058227
 21
772.209431
  0
LINE
  8
CSLAYER1
  6
CONTINUOUS
 62
     4
 10
816.058227
 20
744.209431
 11
820.058227
 21
744.209431
  0
LINE
  8
CSLAYER1
  6
CONTINUOUS
 62
     4
 10
816.058227
 20
772.209431
 11
820.058227
 21
772.209431
  0
LINE
  8
CSLAYER1
  6
CONTINUOUS
 62
     4
 10
830.058227
 20
746.209431
 11
830.058227
 21
770.209431
  0
LINE
  8
CSLAYER1
  6
CONTINUOUS
 62
     4
 10
812.858227
 20
773.209431
 11
812.858227
 21
743.209431
  0
LINE
  8
CSLAYER1
  6
CONTINUOUS
 62
     4
 10
816.058227
 20
773.209431
 11
816.058227
 21
743.209431
  0
LINE
  8
CSLAYER1
  6
CONTINUOUS
 62
     4
 10
831.858227
 20
765.209431
 11
831.858227
 21
751.209431
  0
LINE
  8
CSLAYER1
  6
CONTINUOUS
 62
     4
 10
830.858227
 20
750.209431
 11
830.058227
 21
750.209431
  0
LINE
  8
CSLAYER1
  6
CONTINUOUS
 62
     5
 10
831.858227
 20
751.209431
 11
830.058227
 21
751.209431
  0
LINE
  8
CSLAYER1
  6
CONTINUOUS
 62
     4
 10
830.858227
 20
750.209431
 11
831.858227
 21
751.209431
  0
LINE
  8
CSLAYER1
  6
CONTINUOUS
 62
     4
 10
830.858227
 20
750.209431
 11
830.858227
 21
766.209431
  0
LINE
  8
CSLAYER1
  6
CONTINUOUS
 62
     4
 10
820.058227
 20
744.353025
 11
828.986430
 21
744.353025
  0
LINE
  8
CSLAYER1
  6
CONTINUOUS
 62
     4
 10
820.058227
 20
751.281228
 11
828.986430
 21
751.281228
  0
LINE
  8
CSLAYER1
  6
CONTINUOUS
 62
     4
 10
830.058227
 20
746.209431
 11
828.986430
 21
744.353025
  0
ARC
  8
CSLAYER1
  6
CONTINUOUS
 62
     4
 10
807.130024
 20
758.209431
 40
22.928203
 50
342.412046
 51
360.000000
  0
ARC
  8
CSLAYER1
  6
CONTINUOUS
 62
     4
 10
824.214356
 20
747.817127
 40
5.896837
 50
-24.023685
 51
35.976315
  0
LINE
  8
CSLAYER1
  6
CONTINUOUS
 62
     4
 10
830.058227
 20
770.209431
 11
830.058227
 21
746.209431
  0
LINE
  8
CSLAYER1
  6
CONTINUOUS
 62
     3
 10
831.858227
 20
751.209431
 11
831.858227
 21
765.209431
  0
LINE
  8
CSLAYER1
  6
CONTINUOUS
 62
     4
 10
830.858227
 20
766.209431
 11
830.058227
 21
766.209431
  0
LINE
  8
CSLAYER1
  6
CONTINUOUS
 62
     5
 10
831.858227
 20
765.209431
 11
830.058227
 21
765.209431
  0
LINE
  8
CSLAYER1
  6
CONTINUOUS
 62
     4
 10
830.858227
 20
766.209431
 11
831.858227
 21
765.209431
  0
LINE
  8
CSLAYER1
  6
CONTINUOUS
 62
     3
 10
830.858227
 20
766.209431
 11
830.858227
 21
750.209431
  0
LINE
  8
CSLAYER1
  6
CONTINUOUS
 62
     4
 10
820.058227
 20
772.065838
 11
828.986430
 21
772.065838
  0
LINE
  8
CSLAYER1
  6
CONTINUOUS
 62
     4
 10
820.058227
 20
765.137635
 11
828.986430
 21
765.137635
  0
LINE
  8
CSLAYER1
  6
CONTINUOUS
 62
     4
 10
830.058227
 20
770.209431
 11
828.986430
 21
772.065838
  0
ARC
  8
CSLAYER1
  6
CONTINUOUS
 62
     4
 10
807.130024
 20
758.209431
 40
22.928203
 50
0.000000
 51
17.587954
  0
ARC
  8
CSLAYER1
  6
CONTINUOUS
 62
     4
 10
824.214356
 20
768.601736
 40
5.896837
 50
-35.976315
 51
24.023685
  0
LINE
  8
CSLAYER1
  6
CONTINUOUS
 62
     4
 10
816.058227
 20
761.010214
 11
820.058227
 21
755.610214
  0
POINT
  8
CSLAYER1
 62
     7
 10
812.858227
 20
758.209431
  0
ENDBLK
  8
0
  0
BLOCK
  8
CSLAYER1
  2
BLKF0003
 70
   64
 10
0.0
 20
0.0
 30
0.0
  0
LINE
  8
CSLAYER1
  6
CONTINUOUS
 62
     5
 10
297.658227
 20
743.209431
 11
297.658227
 21
773.209431
  0
LINE
  8
CSLAYER1
  6
CONTINUOUS
 62
     4
 10
300.858227
 20
773.209431
 11
297.658227
 21
773.209431
  0
LINE
  8
CSLAYER1
  6
CONTINUOUS
 62
     4
 10
300.858227
 20
743.209431
 11
297.658227
 21
743.209431
  0
LINE
  8
CSLAYER1
  6
CONTINUOUS
 62
     4
 10
300.858227
 20
773.209431
 11
300.858227
 21
743.209431
  0
LINE
  8
CSLAYER1
  6
CONTINUOUS
 62
     4
 10
293.658227
 20
744.209431
 11
293.658227
 21
772.209431
  0
LINE
  8
CSLAYER1
  6
CONTINUOUS
 62
     4
 10
297.658227
 20
744.209431
 11
293.658227
 21
744.209431
  0
LINE
  8
CSLAYER1
  6
CONTINUOUS
 62
     4
 10
297.658227
 20
772.209431
 11
293.658227
 21
772.209431
  0
LINE
  8
CSLAYER1
  6
CONTINUOUS
 62
     4
 10
283.658227
 20
746.209431
 11
283.658227
 21
770.209431
  0
LINE
  8
CSLAYER1
  6
CONTINUOUS
 62
     4
 10
300.858227
 20
773.209431
 11
300.858227
 21
743.209431
  0
LINE
  8
CSLAYER1
  6
CONTINUOUS
 62
     4
 10
297.658227
 20
773.209431
 11
297.658227
 21
743.209431
  0
LINE
  8
CSLAYER1
  6
CONTINUOUS
 62
     4
 10
281.858227
 20
765.209431
 11
281.858227
 21
751.209431
  0
LINE
  8
CSLAYER1
  6
CONTINUOUS
 62
     4
 10
282.858227
 20
750.209431
 11
283.658227
 21
750.209431
  0
LINE
  8
CSLAYER1
  6
CONTINUOUS
 62
     5
 10
281.858227
 20
751.209431
 11
283.658227
 21
751.209431
  0
LINE
  8
CSLAYER1
  6
CONTINUOUS
 62
     4
 10
282.858227
 20
750.209431
 11
281.858227
 21
751.209431
  0
LINE
  8
CSLAYER1
  6
CONTINUOUS
 62
     4
 10
282.858227
 20
750.209431
 11
282.858227
 21
766.209431
  0
LINE
  8
CSLAYER1
  6
CONTINUOUS
 62
     4
 10
293.658227
 20
744.353025
 11
284.730024
 21
744.353025
  0
LINE
  8
CSLAYER1
  6
CONTINUOUS
 62
     4
 10
293.658227
 20
751.281228
 11
284.730024
 21
751.281228
  0
LINE
  8
CSLAYER1
  6
CONTINUOUS
 62
     4
 10
283.658227
 20
746.209431
 11
284.730024
 21
744.353025
  0
ARC
  8
CSLAYER1
  6
CONTINUOUS
 62
     4
 10
306.586430
 20
758.209431
 40
22.928203
 50
180.000000
 51
197.587954
  0
ARC
  8
CSLAYER1
  6
CONTINUOUS
 62
     4
 10
289.502098
 20
747.817127
 40
5.896837
 50
144.023685
 51
204.023685
  0
LINE
  8
CSLAYER1
  6
CONTINUOUS
 62
     4
 10
283.658227
 20
770.209431
 11
283.658227
 21
746.209431
  0
LINE
  8
CSLAYER1
  6
CONTINUOUS
 62
     3
 10
281.858227
 20
751.209431
 11
281.858227
 21
765.209431
  0
LINE
  8
CSLAYER1
  6
CONTINUOUS
 62
     4
 10
282.858227
 20
766.209431
 11
283.658227
 21
766.209431
  0
LINE
  8
CSLAYER1
  6
CONTINUOUS
 62
     5
 10
281.858227
 20
765.209431
 11
283.658227
 21
765.209431
  0
LINE
  8
CSLAYER1
  6
CONTINUOUS
 62
     4
 10
282.858227
 20
766.209431
 11
281.858227
 21
765.209431
  0
LINE
  8
CSLAYER1
  6
CONTINUOUS
 62
     3
 10
282.858227
 20
766.209431
 11
282.858227
 21
750.209431
  0
LINE
  8
CSLAYER1
  6
CONTINUOUS
 62
     4
 10
293.658227
 20
772.065838
 11
284.730024
 21
772.065838
  0
LINE
  8
CSLAYER1
  6
CONTINUOUS
 62
     4
 10
293.658227
 20
765.137635
 11
284.730024
 21
765.137635
  0
LINE
  8
CSLAYER1
  6
CONTINUOUS
 62
     4
 10
283.658227
 20
770.209431
 11
284.730024
 21
772.065838
  0
ARC
  8
CSLAYER1
  6
CONTINUOUS
 62
     4
 10
306.586430
 20
758.209431
 40
22.928203
 50
162.412046
 51
180.000000
  0
ARC
  8
CSLAYER1
  6
CONTINUOUS
 62
     4
 10
289.502098
 20
768.601736
 40
5.896837
 50
155.976315
 51
215.976315
  0
LINE
  8
CSLAYER1
  6
CONTINUOUS
 62
     4
 10
297.658227
 20
761.010214
 11
293.658227
 21
755.610214
  0
POINT
  8
CSLAYER1
 62
     7
 10
300.858227
 20
758.209431
  0
ENDBLK
  8
0
  0
BLOCK
  8
CSLAYER1
  2
BLKF0004
 70
   64
 10
0.0
 20
0.0
 30
0.0
  0
LINE
  8
CSLAYER1
  6
CONTINUOUS
 62
     3
 10
2135.732638
 20
1826.658490
 11
2135.732638
 21
1818.158490
  0
LINE
  8
CSLAYER1
  6
CONTINUOUS
 62
     3
 10
2131.763072
 20
1831.148871
 11
2127.103653
 21
1831.148871
  0
LINE
  8
CSLAYER1
  6
CONTINUOUS
 62
     3
 10
2132.623543
 20
1829.658490
 11
2132.623543
 21
1818.158490
  0
LINE
  8
CSLAYER1
  6
CONTINUOUS
 62
     3
 10
2132.623543
 20
1829.658490
 11
2131.763072
 21
1831.148871
  0
LINE
  8
CSLAYER1
  6
CONTINUOUS
 62
     3
 10
2131.763072
 20
1824.798018
 11
2127.103653
 21
1824.798018
  0
ARC
  8
CSLAYER1
  6
CONTINUOUS
 62
     3
 10
2106.577519
 20
1818.158490
 40
26.046025
 50
0.000000
 51
14.768561
  0
ARC
  8
CSLAYER1
  6
CONTINUOUS
 62
     3
 10
2126.491950
 20
1827.973444
 40
6.153702
 50
-31.065581
 51
23.174644
  0
LINE
  8
CSLAYER1
  6
CONTINUOUS
 62
     3
 10
2132.732638
 20
1829.658490
 11
2132.623543
 21
1829.658490
  0
ARC
  8
CSLAYER1
  6
CONTINUOUS
 62
     3
 10
2132.732638
 20
1826.658490
 40
3.000000
 50
0.000000
 51
90.000000
  0
LINE
  8
CSLAYER1
  6
CONTINUOUS
 62
     3
 10
2135.732638
 20
1809.658490
 11
2135.732638
 21
1818.158490
  0
LINE
  8
CSLAYER1
  6
CONTINUOUS
 62
     3
 10
2131.763072
 20
1805.168109
 11
2127.103653
 21
1805.168109
  0
LINE
  8
CSLAYER1
  6
CONTINUOUS
 62
     3
 10
2132.623543
 20
1806.658490
 11
2132.623543
 21
1818.158490
  0
LINE
  8
CSLAYER1
  6
CONTINUOUS
 62
     3
 10
2132.623543
 20
1806.658490
 11
2131.763072
 21
1805.168109
  0
LINE
  8
CSLAYER1
  6
CONTINUOUS
 62
     3
 10
2131.763072
 20
1811.518962
 11
2127.103653
 21
1811.518962
  0
ARC
  8
CSLAYER1
  6
CONTINUOUS
 62
     3
 10
2106.577519
 20
1818.158490
 40
26.046025
 50
-14.768561
 51
0.000000
  0
ARC
  8
CSLAYER1
  6
CONTINUOUS
 62
     3
 10
2126.491950
 20
1808.343535
 40
6.153702
 50
-23.174644
 51
31.065581
  0
LINE
  8
CSLAYER1
  6
CONTINUOUS
 62
     3
 10
2132.732638
 20
1806.658490
 11
2132.623543
 21
1806.658490
  0
ARC
  8
CSLAYER1
  6
CONTINUOUS
 62
     3
 10
2132.732638
 20
1809.658490
 40
3.000000
 50
270.000000
 51
360.000000
  0
LINE
  8
CSLAYER1
  6
CENTER
 62
     5
 10
2142.604416
 20
1818.158490
 11
2127.103653
 21
1818.158490
  0
LINE
  8
CSLAYER1
  6
CONTINUOUS
 62
     3
 10
2135.732638
 20
1791.658490
 11
2135.732638
 21
1783.158490
  0
LINE
  8
CSLAYER1
  6
CONTINUOUS
 62
     3
 10
2131.763072
 20
1796.148871
 11
2127.103653
 21
1796.148871
  0
LINE
  8
CSLAYER1
  6
CONTINUOUS
 62
     3
 10
2132.623543
 20
1794.658490
 11
2132.623543
 21
1783.158490
  0
LINE
  8
CSLAYER1
  6
CONTINUOUS
 62
     3
 10
2132.623543
 20
1794.658490
 11
2131.763072
 21
1796.148871
  0
LINE
  8
CSLAYER1
  6
CONTINUOUS
 62
     3
 10
2131.763072
 20
1789.798018
 11
2127.103653
 21
1789.798018
  0
ARC
  8
CSLAYER1
  6
CONTINUOUS
 62
     3
 10
2106.577519
 20
1783.158490
 40
26.046025
 50
0.000000
 51
14.768561
  0
ARC
  8
CSLAYER1
  6
CONTINUOUS
 62
     3
 10
2126.491950
 20
1792.973444
 40
6.153702
 50
-31.065581
 51
23.174644
  0
LINE
  8
CSLAYER1
  6
CONTINUOUS
 62
     3
 10
2132.732638
 20
1794.658490
 11
2132.623543
 21
1794.658490
  0
ARC
  8
CSLAYER1
  6
CONTINUOUS
 62
     3
 10
2132.732638
 20
1791.658490
 40
3.000000
 50
0.000000
 51
90.000000
  0
LINE
  8
CSLAYER1
  6
CONTINUOUS
 62
     3
 10
2135.732638
 20
1774.658490
 11
2135.732638
 21
1783.158490
  0
LINE
  8
CSLAYER1
  6
CONTINUOUS
 62
     3
 10
2131.763072
 20
1770.168109
 11
2127.103653
 21
1770.168109
  0
LINE
  8
CSLAYER1
  6
CONTINUOUS
 62
     3
 10
2132.623543
 20
1771.658490
 11
2132.623543
 21
1783.158490
  0
LINE
  8
CSLAYER1
  6
CONTINUOUS
 62
     3
 10
2132.623543
 20
1771.658490
 11
2131.763072
 21
1770.168109
  0
LINE
  8
CSLAYER1
  6
CONTINUOUS
 62
     3
 10
2131.763072
 20
1776.518962
 11
2127.103653
 21
1776.518962
  0
ARC
  8
CSLAYER1
  6
CONTINUOUS
 62
     3
 10
2106.577519
 20
1783.158490
 40
26.046025
 50
-14.768561
 51
0.000000
  0
ARC
  8
CSLAYER1
  6
CONTINUOUS
 62
     3
 10
2126.491950
 20
1773.343535
 40
6.153702
 50
-23.174644
 51
31.065581
  0
LINE
  8
CSLAYER1
  6
CONTINUOUS
 62
     3
 10
2132.732638
 20
1771.658490
 11
2132.623543
 21
1771.658490
  0
ARC
  8
CSLAYER1
  6
CONTINUOUS
 62
     3
 10
2132.732638
 20
1774.658490
 40
3.000000
 50
270.000000
 51
360.000000
  0
LINE
  8
CSLAYER1
  6
CENTER
 62
     5
 10
2141.264786
 20
1783.158490
 11
2127.103653
 21
1783.158490
  0
ENDBLK
  8
0
  0
BLOCK
  8
CSLAYER1
  2
BLKF0005
 70
   64
 10
0.0
 20
0.0
 30
0.0
  0
LINE
  8
CSLAYER1
  6
CONTINUOUS
 62
     3
 10
1723.903653
 20
1097.852443
 11
1723.903653
 21
1083.652443
  0
LINE
  8
CSLAYER1
  6
CONTINUOUS
 62
     3
 10
1726.903653
 20
1080.652443
 11
2120.903653
 21
1080.652443
  0
LINE
  8
CSLAYER1
  6
CONTINUOUS
 62
     3
 10
2123.903653
 20
1097.852443
 11
2123.903653
 21
1083.652443
  0
LINE
  8
CSLAYER1
  6
CONTINUOUS
 62
     3
 10
2127.103653
 20
1142.852443
 11
2127.103653
 21
1097.852443
  0
LINE
  8
CSLAYER1
  6
CONTINUOUS
 62
     3
 10
1723.903653
 20
1083.652443
 11
1726.903653
 21
1080.652443
  0
LINE
  8
CSLAYER1
  6
CONTINUOUS
 62
     3
 10
2120.903653
 20
1080.652443
 11
2123.903653
 21
1083.652443
  0
LINE
  8
CSLAYER1
  6
CONTINUOUS
 62
     3
 10
1227.103653
 20
1142.852443
 11
2127.103653
 21
1142.852443
  0
LINE
  8
CSLAYER1
  6
CONTINUOUS
 62
     3
 10
1227.303653
 20
1097.852443
 11
2127.103653
 21
1097.852443
  0
POINT
  8
CSLAYER1
 62
     3
 10
1261.303653
 20
1062.152443
  0
CIRCLE
  8
CSLAYER1
  6
CONTINUOUS
 62
     3
 10
1261.303653
 20
1062.152443
 40
9.500000
  0
LINE
  8
CSLAYER1
  6
CONTINUOUS
 62
     3
 10
1266.788480
 20
1071.652443
 11
1255.818825
 21
1071.652443
  0
LINE
  8
CSLAYER1
  6
CONTINUOUS
 62
     3
 10
1255.818825
 20
1071.652443
 11
1250.333998
 21
1062.152443
  0
LINE
  8
CSLAYER1
  6
CONTINUOUS
 62
     3
 10
1250.333998
 20
1062.152443
 11
1255.818825
 21
1052.652443
  0
LINE
  8
CSLAYER1
  6
CONTINUOUS
 62
     3
 10
1255.818825
 20
1052.652443
 11
1266.788480
 21
1052.652443
  0
LINE
  8
CSLAYER1
  6
CONTINUOUS
 62
     3
 10
1266.788480
 20
1052.652443
 11
1272.273308
 21
1062.152443
  0
LINE
  8
CSLAYER1
  6
CONTINUOUS
 62
     3
 10
1272.273308
 20
1062.152443
 11
1266.788480
 21
1071.652443
  0
CIRCLE
  8
CSLAYER1
  6
CONTINUOUS
 62
     3
 10
1261.303653
 20
1062.152443
 40
8.650000
  0
CIRCLE
  8
CSLAYER1
  6
CONTINUOUS
 62
     3
 10
1261.303653
 20
1062.152443
 40
5.000000
  0
CIRCLE
  8
CSLAYER1
  6
CONTINUOUS
 62
     3
 10
1261.303653
 20
1062.152443
 40
9.500000
  0
LINE
  8
CSLAYER1
  6
CONTINUOUS
 62
     3
 10
1230.303653
 20
1097.852443
 11
1230.303653
 21
1055.652443
  0
LINE
  8
CSLAYER1
  6
CONTINUOUS
 62
     3
 10
1270.303653
 20
1045.652443
 11
1240.303653
 21
1045.652443
  0
LINE
  8
CSLAYER1
  6
CONTINUOUS
 62
     3
 10
1280.303653
 20
1097.852443
 11
1280.303653
 21
1055.652443
  0
LINE
  8
CSLAYER1
  6
CONTINUOUS
 62
     3
 10
1230.303653
 20
1097.852443
 11
1227.103653
 21
1097.852443
  0
LINE
  8
CSLAYER1
  6
CONTINUOUS
 62
     3
 10
1227.103653
 20
1142.852443
 11
1227.103653
 21
1097.852443
  0
ARC
  8
CSLAYER1
  6
CONTINUOUS
 62
     3
 10
1240.303653
 20
1055.652443
 40
10.000000
 50
180.000000
 51
270.000000
  0
ARC
  8
CSLAYER1
  6
CONTINUOUS
 62
     3
 10
1270.303653
 20
1055.652443
 40
10.000000
 50
270.000000
 51
360.000000
  0
POINT
  8
CSLAYER1
 62
     7
 10
1261.303653
 20
1062.152443
  0
ENDBLK
  8
0
  0
BLOCK
  8
CSLAYER1
  2
BLKF0006
 70
   64
 10
0.0
 20
0.0
 30
0.0
  0
LINE
  8
CSLAYER1
  6
PHANTOM
 62
     5
 10
1723.903653
 20
539.766419
 11
1723.903653
 21
525.566419
  0
LINE
  8
CSLAYER1
  6
PHANTOM
 62
     5
 10
1726.903653
 20
522.566419
 11
2120.903653
 21
522.566419
  0
LINE
  8
CSLAYER1
  6
PHANTOM
 62
     5
 10
2123.903653
 20
539.766419
 11
2123.903653
 21
525.566419
  0
LINE
  8
CSLAYER1
  6
PHANTOM
 62
     5
 10
2127.103653
 20
584.766419
 11
2127.103653
 21
539.766419
  0
LINE
  8
CSLAYER1
  6
PHANTOM
 62
     5
 10
1723.903653
 20
525.566419
 11
1726.903653
 21
522.566419
  0
LINE
  8
CSLAYER1
  6
PHANTOM
 62
     5
 10
2120.903653
 20
522.566419
 11
2123.903653
 21
525.566419
  0
LINE
  8
CSLAYER1
  6
PHANTOM
 62
     5
 10
1227.103653
 20
584.766419
 11
2127.103653
 21
584.766419
  0
LINE
  8
CSLAYER1
  6
PHANTOM
 62
     5
 10
1227.303653
 20
539.766419
 11
2127.103653
 21
539.766419
  0
POINT
  8
CSLAYER1
 62
     5
 10
1261.303653
 20
504.066419
  0
CIRCLE
  8
CSLAYER1
  6
PHANTOM
 62
     5
 10
1261.303653
 20
504.066419
 40
9.500000
  0
LINE
  8
CSLAYER1
  6
PHANTOM
 62
     5
 10
1266.788480
 20
513.566419
 11
1255.818825
 21
513.566419
  0
LINE
  8
CSLAYER1
  6
PHANTOM
 62
     5
 10
1255.818825
 20
513.566419
 11
1250.333998
 21
504.066419
  0
LINE
  8
CSLAYER1
  6
PHANTOM
 62
     5
 10
1250.333998
 20
504.066419
 11
1255.818825
 21
494.566419
  0
LINE
  8
CSLAYER1
  6
PHANTOM
 62
     5
 10
1255.818825
 20
494.566419
 11
1266.788480
 21
494.566419
  0
LINE
  8
CSLAYER1
  6
PHANTOM
 62
     5
 10
1266.788480
 20
494.566419
 11
1272.273308
 21
504.066419
  0
LINE
  8
CSLAYER1
  6
PHANTOM
 62
     5
 10
1272.273308
 20
504.066419
 11
1266.788480
 21
513.566419
  0
CIRCLE
  8
CSLAYER1
  6
PHANTOM
 62
     5
 10
1261.303653
 20
504.066419
 40
8.650000
  0
CIRCLE
  8
CSLAYER1
  6
PHANTOM
 62
     5
 10
1261.303653
 20
504.066419
 40
5.000000
  0
CIRCLE
  8
CSLAYER1
  6
PHANTOM
 62
     5
 10
1261.303653
 20
504.066419
 40
9.500000
  0
LINE
  8
CSLAYER1
  6
PHANTOM
 62
     5
 10
1230.303653
 20
539.766419
 11
1230.303653
 21
497.566419
  0
LINE
  8
CSLAYER1
  6
PHANTOM
 62
     5
 10
1270.303653
 20
487.566419
 11
1240.303653
 21
487.566419
  0
LINE
  8
CSLAYER1
  6
PHANTOM
 62
     5
 10
1280.303653
 20
539.766419
 11
1280.303653
 21
497.566419
  0
LINE
  8
CSLAYER1
  6
PHANTOM
 62
     5
 10
1230.303653
 20
539.766419
 11
1227.103653
 21
539.766419
  0
LINE
  8
CSLAYER1
  6
PHANTOM
 62
     5
 10
1227.103653
 20
584.766419
 11
1227.103653
 21
539.766419
  0
ARC
  8
CSLAYER1
  6
PHANTOM
 62
     5
 10
1240.303653
 20
497.566419
 40
10.000000
 50
180.000000
 51
270.000000
  0
ARC
  8
CSLAYER1
  6
PHANTOM
 62
     5
 10
1270.303653
 20
497.566419
 40
10.000000
 50
270.000000
 51
360.000000
  0
POINT
  8
CSLAYER1
 62
     5
 10
1261.303653
 20
504.066419
  0
ENDBLK
  8
0
  0
BLOCK
  8
CSLAYER1
  2
BLKF0007
 70
   64
 10
0.0
 20
0.0
 30
0.0
  0
LINE
  8
CSLAYER1
  6
CONTINUOUS
 62
     3
 10
282.358227
 20
1044.152443
 11
282.358227
 21
1051.402443
  0
LINE
  8
CSLAYER1
  6
CONTINUOUS
 62
     3
 10
294.358227
 20
1070.802443
 11
294.358227
 21
1080.152443
  0
LINE
  8
CSLAYER1
  6
CONTINUOUS
 62
     3
 10
306.358227
 20
1078.152443
 11
306.358227
 21
1080.152443
  0
LINE
  8
CSLAYER1
  6
CONTINUOUS
 62
     3
 10
305.858227
 20
1080.652443
 11
294.858227
 21
1080.652443
  0
LINE
  8
CSLAYER1
  6
CONTINUOUS
 62
     3
 10
294.358227
 20
1053.502443
 11
294.358227
 21
1044.152443
  0
LINE
  8
CSLAYER1
  6
CONTINUOUS
 62
     3
 10
300.858227
 20
1043.652443
 11
294.858227
 21
1043.652443
  0
LINE
  8
CSLAYER1
  6
CONTINUOUS
 62
     3
 10
294.358227
 20
1043.652443
 11
282.358227
 21
1043.652443
  0
LINE
  8
CSLAYER1
  6
CONTINUOUS
 62
     3
 10
293.858227
 20
1080.652443
 11
292.858227
 21
1080.652443
  0
ARC
  8
CSLAYER1
  6
CONTINUOUS
 62
     3
 10
294.858227
 20
1044.152443
 40
0.500000
 50
180.000000
 51
270.000000
  0
ARC
  8
CSLAYER1
  6
CONTINUOUS
 62
     3
 10
305.858227
 20
1080.152443
 40
0.500000
 50
0.000000
 51
90.000000
  0
ARC
  8
CSLAYER1
  6
CONTINUOUS
 62
     3
 10
294.858227
 20
1080.152443
 40
0.500000
 50
90.000000
 51
180.000000
  0
ARC
  8
CSLAYER1
  6
CONTINUOUS
 62
     3
 10
293.858227
 20
1080.152443
 40
0.500000
 50
0.000000
 51
90.000000
  0
ARC
  8
CSLAYER1
  6
CONTINUOUS
 62
     3
 10
282.858227
 20
1080.152443
 40
0.500000
 50
90.000000
 51
180.000000
  0
ARC
  8
CSLAYER1
  6
CONTINUOUS
 62
     3
 10
282.858227
 20
1044.152443
 40
0.500000
 50
180.000000
 51
270.000000
  0
LINE
  8
CSLAYER1
  6
CONTINUOUS
 62
     3
 10
309.858227
 20
1051.152443
 11
320.858227
 21
1051.152443
  0
LINE
  8
CSLAYER1
  6
CONTINUOUS
 62
     3
 10
309.858227
 20
1073.152443
 11
320.858227
 21
1073.152443
  0
ARC
  8
CSLAYER1
  6
CONTINUOUS
 62
     3
 10
293.858227
 20
1044.152443
 40
0.500000
 50
270.000000
 51
360.000000
  0
LINE
  8
CSLAYER1
  6
CONTINUOUS
 62
     3
 10
282.358227
 20
1072.902443
 11
282.358227
 21
1080.152443
  0
LINE
  8
CSLAYER1
  6
CONTINUOUS
 62
     3
 10
283.858227
 20
1080.652443
 11
282.858227
 21
1080.652443
  0
ENDBLK
  8
0
  0
BLOCK
  8
CSLAYER1
  2
BLKF0008
 70
   64
 10
0.0
 20
0.0
 30
0.0
  0
LINE
  8
CSLAYER1
  6
CONTINUOUS
 62
     3
 10
831.358227
 20
1044.152443
 11
831.358227
 21
1051.402443
  0
LINE
  8
CSLAYER1
  6
CONTINUOUS
 62
     3
 10
819.358227
 20
1070.802443
 11
819.358227
 21
1080.152443
  0
LINE
  8
CSLAYER1
  6
CONTINUOUS
 62
     3
 10
807.358227
 20
1078.152443
 11
807.358227
 21
1080.152443
  0
LINE
  8
CSLAYER1
  6
CONTINUOUS
 62
     3
 10
807.858227
 20
1080.652443
 11
818.858227
 21
1080.652443
  0
LINE
  8
CSLAYER1
  6
CONTINUOUS
 62
     3
 10
819.358227
 20
1053.502443
 11
819.358227
 21
1044.152443
  0
LINE
  8
CSLAYER1
  6
CONTINUOUS
 62
     3
 10
812.858227
 20
1043.652443
 11
818.858227
 21
1043.652443
  0
LINE
  8
CSLAYER1
  6
CONTINUOUS
 62
     3
 10
819.358227
 20
1043.652443
 11
831.358227
 21
1043.652443
  0
LINE
  8
CSLAYER1
  6
CONTINUOUS
 62
     3
 10
819.858227
 20
1080.652443
 11
820.858227
 21
1080.652443
  0
ARC
  8
CSLAYER1
  6
CONTINUOUS
 62
     3
 10
818.858227
 20
1044.152443
 40
0.500000
 50
270.000000
 51
360.000000
  0
ARC
  8
CSLAYER1
  6
CONTINUOUS
 62
     3
 10
807.858227
 20
1080.152443
 40
0.500000
 50
90.000000
 51
180.000000
  0
ARC
  8
CSLAYER1
  6
CONTINUOUS
 62
     3
 10
818.858227
 20
1080.152443
 40
0.500000
 50
0.000000
 51
90.000000
  0
ARC
  8
CSLAYER1
  6
CONTINUOUS
 62
     3
 10
819.858227
 20
1080.152443
 40
0.500000
 50
90.000000
 51
180.000000
  0
ARC
  8
CSLAYER1
  6
CONTINUOUS
 62
     3
 10
830.858227
 20
1080.152443
 40
0.500000
 50
0.000000
 51
90.000000
  0
ARC
  8
CSLAYER1
  6
CONTINUOUS
 62
     3
 10
830.858227
 20
1044.152443
 40
0.500000
 50
270.000000
 51
360.000000
  0
LINE
  8
CSLAYER1
  6
CONTINUOUS
 62
     3
 10
803.858227
 20
1051.152443
 11
792.858227
 21
1051.152443
  0
LINE
  8
CSLAYER1
  6
CONTINUOUS
 62
     3
 10
803.858227
 20
1073.152443
 11
792.858227
 21
1073.152443
  0
ARC
  8
CSLAYER1
  6
CONTINUOUS
 62
     3
 10
819.858227
 20
1044.152443
 40
0.500000
 50
180.000000
 51
270.000000
  0
LINE
  8
CSLAYER1
  6
CONTINUOUS
 62
     3
 10
831.358227
 20
1072.902443
 11
831.358227
 21
1080.152443
  0
LINE
  8
CSLAYER1
  6
CONTINUOUS
 62
     3
 10
829.858227
 20
1080.652443
 11
830.858227
 21
1080.652443
  0
ENDBLK
  8
0
  0
BLOCK
  8
CSLAYER1
  2
BLKF0009
 70
   64
 10
0.0
 20
0.0
 30
0.0
  0
LINE
  8
CSLAYER1
  6
CENTER
 62
     5
 10
837.658227
 20
479.766419
 11
837.658227
 21
584.766419
  0
LINE
  8
CSLAYER1
  6
CONTINUOUS
 62
     7
 10
827.658227
 20
479.766419
 11
827.658227
 21
557.766419
  0
LINE
  8
CSLAYER1
  6
CONTINUOUS
 62
     7
 10
847.658227
 20
557.766419
 11
827.658227
 21
557.766419
  0
LINE
  8
CSLAYER1
  6
CONTINUOUS
 62
     7
 10
847.658227
 20
479.766419
 11
847.658227
 21
557.766419
  0
LINE
  8
CSLAYER1
  6
CONTINUOUS
 62
     3
 10
847.473182
 20
557.766419
 11
827.843273
 21
557.766419
  0
LINE
  8
CSLAYER1
  6
CONTINUOUS
 62
     3
 10
827.843273
 20
557.766419
 11
827.843273
 21
564.862892
  0
LINE
  8
CSLAYER1
  6
CONTINUOUS
 62
     3
 10
827.843273
 20
564.862892
 11
829.408227
 21
565.766419
  0
LINE
  8
CSLAYER1
  6
CONTINUOUS
 62
     3
 10
829.408227
 20
565.766419
 11
845.908227
 21
565.766419
  0
LINE
  8
CSLAYER1
  6
CONTINUOUS
 62
     3
 10
845.908227
 20
565.766419
 11
847.473182
 21
564.862892
  0
LINE
  8
CSLAYER1
  6
CONTINUOUS
 62
     3
 10
847.473182
 20
564.862892
 11
847.473182
 21
557.766419
  0
LINE
  8
CSLAYER1
  6
CONTINUOUS
 62
     3
 10
842.565704
 20
557.766419
 11
842.565704
 21
564.862892
  0
LINE
  8
CSLAYER1
  6
CONTINUOUS
 62
     3
 10
832.750750
 20
564.862892
 11
832.750750
 21
557.766419
  0
ARC
  8
CSLAYER1
  6
CONTINUOUS
 62
     3
 10
830.297011
 20
561.982805
 40
3.783614
 50
49.570103
 51
90.000000
  0
ARC
  8
CSLAYER1
  6
CONTINUOUS
 62
     3
 10
837.658227
 20
551.987254
 40
13.779165
 50
69.135936
 51
110.864064
  0
ARC
  8
CSLAYER1
  6
CONTINUOUS
 62
     3
 10
845.019443
 20
561.982805
 40
3.783614
 50
90.000000
 51
130.429897
  0
POINT
  8
CSLAYER1
 62
     3
 10
837.658227
 20
557.766419
  0
LINE
  8
CSLAYER1
  6
CONTINUOUS
 62
     3
 10
847.473182
 20
573.566419
 11
827.843273
 21
573.566419
  0
LINE
  8
CSLAYER1
  6
CONTINUOUS
 62
     3
 10
827.843273
 20
573.566419
 11
827.843273
 21
580.662892
  0
LINE
  8
CSLAYER1
  6
CONTINUOUS
 62
     3
 10
827.843273
 20
580.662892
 11
829.408227
 21
581.566419
  0
LINE
  8
CSLAYER1
  6
CONTINUOUS
 62
     3
 10
829.408227
 20
581.566419
 11
845.908227
 21
581.566419
  0
LINE
  8
CSLAYER1
  6
CONTINUOUS
 62
     3
 10
845.908227
 20
581.566419
 11
847.473182
 21
580.662892
  0
LINE
  8
CSLAYER1
  6
CONTINUOUS
 62
     3
 10
847.473182
 20
580.662892
 11
847.473182
 21
573.566419
  0
LINE
  8
CSLAYER1
  6
CONTINUOUS
 62
     3
 10
842.565704
 20
573.566419
 11
842.565704
 21
580.662892
  0
LINE
  8
CSLAYER1
  6
CONTINUOUS
 62
     3
 10
832.750750
 20
580.662892
 11
832.750750
 21
573.566419
  0
ARC
  8
CSLAYER1
  6
CONTINUOUS
 62
     3
 10
830.297011
 20
577.782805
 40
3.783614
 50
49.570103
 51
90.000000
  0
ARC
  8
CSLAYER1
  6
CONTINUOUS
 62
     3
 10
837.658227
 20
567.787254
 40
13.779165
 50
69.135936
 51
110.864064
  0
ARC
  8
CSLAYER1
  6
CONTINUOUS
 62
     3
 10
845.019443
 20
577.782805
 40
3.783614
 50
90.000000
 51
130.429897
  0
POINT
  8
CSLAYER1
 62
     3
 10
837.658227
 20
573.566419
  0
LINE
  8
CSLAYER1
  6
CONTINUOUS
 62
     3
 10
832.658227
 20
565.766419
 11
832.658227
 21
573.566419
  0
LINE
  8
CSLAYER1
  6
CONTINUOUS
 62
     4
 10
833.658227
 20
565.766419
 11
833.658227
 21
573.566419
  0
LINE
  8
CSLAYER1
  6
CONTINUOUS
 62
     3
 10
842.658227
 20
565.766419
 11
842.658227
 21
573.566419
  0
LINE
  8
CSLAYER1
  6
CONTINUOUS
 62
     4
 10
841.658227
 20
565.766419
 11
841.658227
 21
573.566419
  0
ENDBLK
  8
0
  0
BLOCK
  8
CSLAYER1
  2
BLKF0010
 70
   64
 10
0.0
 20
0.0
 30
0.0
  0
LINE
  8
CSLAYER1
  6
CENTER
 62
     5
 10
276.058227
 20
479.766419
 11
276.058227
 21
584.766419
  0
LINE
  8
CSLAYER1
  6
CONTINUOUS
 62
     7
 10
286.058227
 20
479.766419
 11
286.058227
 21
557.766419
  0
LINE
  8
CSLAYER1
  6
CONTINUOUS
 62
     7
 10
266.058227
 20
557.766419
 11
286.058227
 21
557.766419
  0
LINE
  8
CSLAYER1
  6
CONTINUOUS
 62
     7
 10
266.058227
 20
479.766419
 11
266.058227
 21
557.766419
  0
LINE
  8
CSLAYER1
  6
CONTINUOUS
 62
     3
 10
266.243273
 20
557.766419
 11
285.873182
 21
557.766419
  0
LINE
  8
CSLAYER1
  6
CONTINUOUS
 62
     3
 10
285.873182
 20
557.766419
 11
285.873182
 21
564.862892
  0
LINE
  8
CSLAYER1
  6
CONTINUOUS
 62
     3
 10
285.873182
 20
564.862892
 11
284.308227
 21
565.766419
  0
LINE
  8
CSLAYER1
  6
CONTINUOUS
 62
     3
 10
284.308227
 20
565.766419
 11
267.808227
 21
565.766419
  0
LINE
  8
CSLAYER1
  6
CONTINUOUS
 62
     3
 10
267.808227
 20
565.766419
 11
266.243273
 21
564.862892
  0
LINE
  8
CSLAYER1
  6
CONTINUOUS
 62
     3
 10
266.243273
 20
564.862892
 11
266.243273
 21
557.766419
  0
LINE
  8
CSLAYER1
  6
CONTINUOUS
 62
     3
 10
271.150750
 20
557.766419
 11
271.150750
 21
564.862892
  0
LINE
  8
CSLAYER1
  6
CONTINUOUS
 62
     3
 10
280.965704
 20
564.862892
 11
280.965704
 21
557.766419
  0
ARC
  8
CSLAYER1
  6
CONTINUOUS
 62
     3
 10
283.419443
 20
561.982805
 40
3.783614
 50
90.000000
 51
130.429897
  0
ARC
  8
CSLAYER1
  6
CONTINUOUS
 62
     3
 10
276.058227
 20
551.987254
 40
13.779165
 50
69.135936
 51
110.864064
  0
ARC
  8
CSLAYER1
  6
CONTINUOUS
 62
     3
 10
268.697011
 20
561.982805
 40
3.783614
 50
49.570103
 51
90.000000
  0
POINT
  8
CSLAYER1
 62
     3
 10
276.058227
 20
557.766419
  0
LINE
  8
CSLAYER1
  6
CONTINUOUS
 62
     3
 10
266.243273
 20
573.566419
 11
285.873182
 21
573.566419
  0
LINE
  8
CSLAYER1
  6
CONTINUOUS
 62
     3
 10
285.873182
 20
573.566419
 11
285.873182
 21
580.662892
  0
LINE
  8
CSLAYER1
  6
CONTINUOUS
 62
     3
 10
285.873182
 20
580.662892
 11
284.308227
 21
581.566419
  0
LINE
  8
CSLAYER1
  6
CONTINUOUS
 62
     3
 10
284.308227
 20
581.566419
 11
267.808227
 21
581.566419
  0
LINE
  8
CSLAYER1
  6
CONTINUOUS
 62
     3
 10
267.808227
 20
581.566419
 11
266.243273
 21
580.662892
  0
LINE
  8
CSLAYER1
  6
CONTINUOUS
 62
     3
 10
266.243273
 20
580.662892
 11
266.243273
 21
573.566419
  0
LINE
  8
CSLAYER1
  6
CONTINUOUS
 62
     3
 10
271.150750
 20
573.566419
 11
271.150750
 21
580.662892
  0
LINE
  8
CSLAYER1
  6
CONTINUOUS
 62
     3
 10
280.965704
 20
580.662892
 11
280.965704
 21
573.566419
  0
ARC
  8
CSLAYER1
  6
CONTINUOUS
 62
     3
 10
283.419443
 20
577.782805
 40
3.783614
 50
90.000000
 51
130.429897
  0
ARC
  8
CSLAYER1
  6
CONTINUOUS
 62
     3
 10
276.058227
 20
567.787254
 40
13.779165
 50
69.135936
 51
110.864064
  0
ARC
  8
CSLAYER1
  6
CONTINUOUS
 62
     3
 10
268.697011
 20
577.782805
 40
3.783614
 50
49.570103
 51
90.000000
  0
POINT
  8
CSLAYER1
 62
     3
 10
276.058227
 20
573.566419
  0
LINE
  8
CSLAYER1
  6
CONTINUOUS
 62
     3
 10
281.058227
 20
565.766419
 11
281.058227
 21
573.566419
  0
LINE
  8
CSLAYER1
  6
CONTINUOUS
 62
     4
 10
280.058227
 20
565.766419
 11
280.058227
 21
573.566419
  0
LINE
  8
CSLAYER1
  6
CONTINUOUS
 62
     3
 10
271.058227
 20
565.766419
 11
271.058227
 21
573.566419
  0
LINE
  8
CSLAYER1
  6
CONTINUOUS
 62
     4
 10
272.058227
 20
565.766419
 11
272.058227
 21
573.566419
  0
ENDBLK
  8
0
  0
BLOCK
  8
CSLAYER1
  2
BLKF0011
 70
   64
 10
0.0
 20
0.0
 30
0.0
  0
LINE
  8
CSLAYER1
  6
CONTINUOUS
 62
     3
 10
1327.488698
 20
557.766419
 11
1347.118607
 21
557.766419
  0
LINE
  8
CSLAYER1
  6
CONTINUOUS
 62
     3
 10
1347.118607
 20
557.766419
 11
1347.118607
 21
564.862892
  0
LINE
  8
CSLAYER1
  6
CONTINUOUS
 62
     3
 10
1347.118607
 20
564.862892
 11
1345.553653
 21
565.766419
  0
LINE
  8
CSLAYER1
  6
CONTINUOUS
 62
     3
 10
1345.553653
 20
565.766419
 11
1329.053653
 21
565.766419
  0
LINE
  8
CSLAYER1
  6
CONTINUOUS
 62
     3
 10
1329.053653
 20
565.766419
 11
1327.488698
 21
564.862892
  0
LINE
  8
CSLAYER1
  6
CONTINUOUS
 62
     3
 10
1327.488698
 20
564.862892
 11
1327.488698
 21
557.766419
  0
LINE
  8
CSLAYER1
  6
CONTINUOUS
 62
     3
 10
1332.396175
 20
557.766419
 11
1332.396175
 21
564.862892
  0
LINE
  8
CSLAYER1
  6
CONTINUOUS
 62
     3
 10
1342.211130
 20
564.862892
 11
1342.211130
 21
557.766419
  0
ARC
  8
CSLAYER1
  6
CONTINUOUS
 62
     3
 10
1344.664869
 20
561.982805
 40
3.783614
 50
90.000000
 51
130.429897
  0
ARC
  8
CSLAYER1
  6
CONTINUOUS
 62
     3
 10
1337.303653
 20
551.987254
 40
13.779165
 50
69.135936
 51
110.864064
  0
ARC
  8
CSLAYER1
  6
CONTINUOUS
 62
     3
 10
1329.942437
 20
561.982805
 40
3.783614
 50
49.570103
 51
90.000000
  0
POINT
  8
CSLAYER1
 62
     3
 10
1337.303653
 20
557.766419
  0
ENDBLK
  8
0
  0
BLOCK
  8
CSLAYER1
  2
BLKF0012
 70
   64
 10
0.0
 20
0.0
 30
0.0
  0
LINE
  8
CSLAYER1
  6
CONTINUOUS
 62
     3
 10
1327.488698
 20
573.566419
 11
1347.118607
 21
573.566419
  0
LINE
  8
CSLAYER1
  6
CONTINUOUS
 62
     3
 10
1347.118607
 20
573.566419
 11
1347.118607
 21
580.662892
  0
LINE
  8
CSLAYER1
  6
CONTINUOUS
 62
     3
 10
1347.118607
 20
580.662892
 11
1345.553653
 21
581.566419
  0
LINE
  8
CSLAYER1
  6
CONTINUOUS
 62
     3
 10
1345.553653
 20
581.566419
 11
1329.053653
 21
581.566419
  0
LINE
  8
CSLAYER1
  6
CONTINUOUS
 62
     3
 10
1329.053653
 20
581.566419
 11
1327.488698
 21
580.662892
  0
LINE
  8
CSLAYER1
  6
CONTINUOUS
 62
     3
 10
1327.488698
 20
580.662892
 11
1327.488698
 21
573.566419
  0
LINE
  8
CSLAYER1
  6
CONTINUOUS
 62
     3
 10
1332.396175
 20
573.566419
 11
1332.396175
 21
580.662892
  0
LINE
  8
CSLAYER1
  6
CONTINUOUS
 62
     3
 10
1342.211130
 20
580.662892
 11
1342.211130
 21
573.566419
  0
ARC
  8
CSLAYER1
  6
CONTINUOUS
 62
     3
 10
1344.664869
 20
577.782805
 40
3.783614
 50
90.000000
 51
130.429897
  0
ARC
  8
CSLAYER1
  6
CONTINUOUS
 62
     3
 10
1337.303653
 20
567.787254
 40
13.779165
 50
69.135936
 51
110.864064
  0
ARC
  8
CSLAYER1
  6
CONTINUOUS
 62
     3
 10
1329.942437
 20
577.782805
 40
3.783614
 50
49.570103
 51
90.000000
  0
POINT
  8
CSLAYER1
 62
     3
 10
1337.303653
 20
573.566419
  0
ENDBLK
  8
0
  0
BLOCK
  8
CSLAYER1
  2
BLKF0013
 70
   64
 10
0.0
 20
0.0
 30
0.0
  0
LINE
  8
CSLAYER1
  6
CONTINUOUS
 62
     3
 10
2568.014355
 20
1869.177366
 11
2568.014355
 21
1931.177366
  0
LINE
  8
CSLAYER1
  6
CONTINUOUS
 62
     3
 10
2570.514355
 20
1866.677366
 11
2655.514355
 21
1866.677366
  0
LINE
  8
CSLAYER1
  6
CENTER
 62
     5
 10
2509.664716
 20
1939.177366
 11
2568.014355
 21
1939.177366
  0
LINE
  8
CSLAYER1
  6
CONTINUOUS
 62
     2
 10
2570.514355
 20
1923.177366
 11
2655.514355
 21
1923.177366
  0
LINE
  8
CSLAYER1
  6
CONTINUOUS
 62
     3
 10
2570.514355
 20
1871.677366
 11
2570.514355
 21
1916.677366
  0
LINE
  8
CSLAYER1
  6
CONTINUOUS
 62
     3
 10
2658.014355
 20
1869.177366
 11
2658.014355
 21
1939.177366
  0
LINE
  8
CSLAYER1
  6
CONTINUOUS
 62
     3
 10
2573.014355
 20
1869.177366
 11
2650.014355
 21
1869.177366
  0
LINE
  8
CSLAYER1
  6
CONTINUOUS
 62
     3
 10
2573.014355
 20
1919.177366
 11
2650.014355
 21
1919.177366
  0
ARC
  8
CSLAYER1
  6
CONTINUOUS
 62
     3
 10
2595.946173
 20
1894.177366
 40
59.568182
 50
-24.814837
 51
24.814837
  0
ARC
  8
CSLAYER1
  6
CONTINUOUS
 62
     3
 10
2573.014355
 20
1871.677366
 40
2.500000
 50
180.000000
 51
270.000000
  0
ARC
  8
CSLAYER1
  6
CONTINUOUS
 62
     3
 10
2573.014355
 20
1916.677366
 40
2.500000
 50
90.000000
 51
180.000000
  0
ARC
  8
CSLAYER1
  6
CONTINUOUS
 62
     3
 10
2570.514355
 20
1869.177366
 40
2.500000
 50
180.000000
 51
270.000000
  0
ARC
  8
CSLAYER1
  6
CONTINUOUS
 62
     3
 10
2655.514355
 20
1869.177366
 40
2.500000
 50
-90.000000
 51
0.000000
  0
ARC
  8
CSLAYER1
  6
CONTINUOUS
 62
     2
 10
2655.514355
 20
1925.677366
 40
2.500000
 50
-90.000000
 51
0.000000
  0
ARC
  8
CSLAYER1
  6
CONTINUOUS
 62
     2
 10
2570.514355
 20
1925.677366
 40
2.500000
 50
180.000000
 51
270.000000
  0
LINE
  8
CSLAYER1
  6
CONTINUOUS
 62
     3
 10
2568.014355
 20
2009.177366
 11
2568.014355
 21
1947.177366
  0
LINE
  8
CSLAYER1
  6
CONTINUOUS
 62
     3
 10
2570.514355
 20
2011.677366
 11
2655.514355
 21
2011.677366
  0
LINE
  8
CSLAYER1
  6
CONTINUOUS
 62
     2
 10
2570.514355
 20
1955.177366
 11
2655.514355
 21
1955.177366
  0
LINE
  8
CSLAYER1
  6
CONTINUOUS
 62
     3
 10
2658.014355
 20
2009.177366
 11
2658.014355
 21
1939.177366
  0
ARC
  8
CSLAYER1
  6
CONTINUOUS
 62
     3
 10
2570.514355
 20
2009.177366
 40
2.500000
 50
90.000000
 51
180.000000
  0
ARC
  8
CSLAYER1
  6
CONTINUOUS
 62
     3
 10
2655.514355
 20
2009.177366
 40
2.500000
 50
0.000000
 51
90.000000
  0
ARC
  8
CSLAYER1
  6
CONTINUOUS
 62
     2
 10
2655.514355
 20
1952.677366
 40
2.500000
 50
0.000000
 51
90.000000
  0
ARC
  8
CSLAYER1
  6
CONTINUOUS
 62
     2
 10
2570.514355
 20
1952.677366
 40
2.500000
 50
90.000000
 51
180.000000
  0
LINE
  8
CSLAYER1
  6
CONTINUOUS
 62
     3
 10
2570.514355
 20
2006.677366
 11
2570.514355
 21
1961.677366
  0
LINE
  8
CSLAYER1
  6
CONTINUOUS
 62
     3
 10
2573.014355
 20
2009.177366
 11
2650.014355
 21
2009.177366
  0
LINE
  8
CSLAYER1
  6
CONTINUOUS
 62
     3
 10
2573.014355
 20
1959.177366
 11
2650.014355
 21
1959.177366
  0
ARC
  8
CSLAYER1
  6
CONTINUOUS
 62
     3
 10
2595.946173
 20
1984.177366
 40
59.568182
 50
-24.814837
 51
24.814837
  0
ARC
  8
CSLAYER1
  6
CONTINUOUS
 62
     3
 10
2573.014355
 20
2006.677366
 40
2.500000
 50
90.000000
 51
180.000000
  0
ARC
  8
CSLAYER1
  6
CONTINUOUS
 62
     3
 10
2573.014355
 20
1961.677366
 40
2.500000
 50
180.000000
 51
270.000000
  0
LINE
  8
CSLAYER1
  6
CONTINUOUS
 62
     3
 10
2561.014355
 20
1946.177366
 11
2561.014355
 21
1942.677366
  0
LINE
  8
CSLAYER1
  6
CONTINUOUS
 62
     3
 10
2509.664716
 20
1942.677366
 11
2561.014355
 21
1942.677366
  0
LINE
  8
CSLAYER1
  6
CONTINUOUS
 62
     3
 10
2562.014355
 20
1947.177366
 11
2568.014355
 21
1947.177366
  0
LINE
  8
CSLAYER1
  6
CONTINUOUS
 62
     3
 10
2562.014355
 20
1931.177366
 11
2568.014355
 21
1931.177366
  0
LINE
  8
CSLAYER1
  6
CONTINUOUS
 62
     3
 10
2509.664716
 20
1935.677366
 11
2561.014355
 21
1935.677366
  0
ARC
  8
CSLAYER1
  6
CONTINUOUS
 62
     3
 10
2562.014355
 20
1932.177366
 40
1.000000
 50
180.000000
 51
270.000000
  0
ARC
  8
CSLAYER1
  6
CONTINUOUS
 62
     3
 10
2562.014355
 20
1946.177366
 40
1.000000
 50
90.000000
 51
180.000000
  0
LINE
  8
CSLAYER1
  6
CONTINUOUS
 62
     3
 10
2561.014355
 20
1935.677366
 11
2561.014355
 21
1932.177366
  0
LINE
  8
CSLAYER1
  6
CONTINUOUS
 62
     2
 10
2561.014355
 20
1942.677366
 11
2561.014355
 21
1935.677366
  0
LINE
  8
CSLAYER1
  6
CONTINUOUS
 62
     2
 10
2568.014355
 20
1931.177366
 11
2568.014355
 21
1939.177366
  0
LINE
  8
CSLAYER1
  6
CONTINUOUS
 62
     2
 10
2568.014355
 20
1947.177366
 11
2568.014355
 21
1939.177366
  0
LINE
  8
CSLAYER1
  6
CONTINUOUS
 62
     2
 10
2587.507367
 20
1927.014707
 11
2578.372367
 21
1927.014707
  0
LINE
  8
CSLAYER1
  6
CONTINUOUS
 62
     2
 10
2587.507367
 20
1950.639707
 11
2578.372367
 21
1950.639707
  0
LINE
  8
CSLAYER1
  6
CONTINUOUS
 62
     2
 10
2577.112367
 20
1928.274707
 11
2577.112367
 21
1949.379707
  0
LINE
  8
CSLAYER1
  6
CONTINUOUS
 62
     2
 10
2588.767367
 20
1928.274707
 11
2588.767367
 21
1949.379707
  0
LINE
  8
CSLAYER1
  6
CONTINUOUS
 62
     2
 10
2586.877367
 20
1948.749707
 11
2578.844867
 21
1948.749707
  0
LINE
  8
CSLAYER1
  6
CONTINUOUS
 62
     2
 10
2586.877367
 20
1945.599707
 11
2585.932367
 21
1945.599707
  0
LINE
  8
CSLAYER1
  6
CONTINUOUS
 62
     2
 10
2586.877367
 20
1936.937207
 11
2585.932367
 21
1936.937207
  0
LINE
  8
CSLAYER1
  6
CONTINUOUS
 62
     2
 10
2586.877367
 20
1932.369707
 11
2581.837367
 21
1932.369707
  0
LINE
  8
CSLAYER1
  6
CONTINUOUS
 62
     2
 10
2587.979867
 20
1933.472207
 11
2587.979867
 21
1935.834707
  0
LINE
  8
CSLAYER1
  6
CONTINUOUS
 62
     2
 10
2580.734867
 20
1933.472207
 11
2580.734867
 21
1935.834707
  0
LINE
  8
CSLAYER1
  6
CONTINUOUS
 62
     2
 10
2577.742367
 20
1946.702207
 11
2577.742367
 21
1947.647207
  0
LINE
  8
CSLAYER1
  6
CONTINUOUS
 62
     2
 10
2584.987367
 20
1937.882207
 11
2584.987367
 21
1944.654707
  0
LINE
  8
CSLAYER1
  6
CONTINUOUS
 62
     2
 10
2584.199867
 20
1937.882207
 11
2584.199867
 21
1944.654707
  0
ARC
  8
CSLAYER1
  6
CONTINUOUS
 62
     2
 10
2586.877367
 20
1933.472207
 40
1.102500
 50
-90.000000
 51
0.000000
  0
ARC
  8
CSLAYER1
  6
CONTINUOUS
 62
     2
 10
2581.837367
 20
1933.472207
 40
1.102500
 50
180.000000
 51
270.000000
  0
ARC
  8
CSLAYER1
  6
CONTINUOUS
 62
     2
 10
2581.837367
 20
1935.834707
 40
1.102500
 50
90.000000
 51
180.000000
  0
ARC
  8
CSLAYER1
  6
CONTINUOUS
 62
     2
 10
2586.877367
 20
1935.834707
 40
1.102500
 50
0.000000
 51
90.000000
  0
ARC
  8
CSLAYER1
  6
CONTINUOUS
 62
     2
 10
2578.844867
 20
1946.702207
 40
1.102500
 50
180.000000
 51
270.000000
  0
ARC
  8
CSLAYER1
  6
CONTINUOUS
 62
     2
 10
2578.844867
 20
1947.647207
 40
1.102500
 50
90.000000
 51
180.000000
  0
ARC
  8
CSLAYER1
  6
CONTINUOUS
 62
     2
 10
2586.877367
 20
1947.647207
 40
1.102500
 50
0.000000
 51
90.000000
  0
ARC
  8
CSLAYER1
  6
CONTINUOUS
 62
     2
 10
2586.877367
 20
1946.702207
 40
1.102500
 50
-90.000000
 51
0.000000
  0
LINE
  8
CSLAYER1
  6
CONTINUOUS
 62
     2
 10
2583.254867
 20
1936.937207
 11
2581.837367
 21
1936.937207
  0
LINE
  8
CSLAYER1
  6
CONTINUOUS
 62
     2
 10
2583.254867
 20
1945.599707
 11
2578.844867
 21
1945.599707
  0
ARC
  8
CSLAYER1
  6
CONTINUOUS
 62
     2
 10
2585.932367
 20
1937.882207
 40
0.945000
 50
180.000000
 51
270.000000
  0
ARC
  8
CSLAYER1
  6
CONTINUOUS
 62
     2
 10
2583.254867
 20
1937.882207
 40
0.945000
 50
-90.000000
 51
0.000000
  0
ARC
  8
CSLAYER1
  6
CONTINUOUS
 62
     2
 10
2583.254867
 20
1944.654707
 40
0.945000
 50
0.000000
 51
90.000000
  0
ARC
  8
CSLAYER1
  6
CONTINUOUS
 62
     2
 10
2587.507367
 20
1928.274707
 40
1.260000
 50
-90.000000
 51
0.000000
  0
ARC
  8
CSLAYER1
  6
CONTINUOUS
 62
     2
 10
2578.372367
 20
1928.274707
 40
1.260000
 50
180.000000
 51
270.000000
  0
ARC
  8
CSLAYER1
  6
CONTINUOUS
 62
     2
 10
2578.372367
 20
1949.379707
 40
1.260000
 50
90.000000
 51
180.000000
  0
ARC
  8
CSLAYER1
  6
CONTINUOUS
 62
     2
 10
2587.507367
 20
1949.379707
 40
1.260000
 50
0.000000
 51
90.000000
  0
ARC
  8
CSLAYER1
  6
CONTINUOUS
 62
     2
 10
2585.932367
 20
1944.654707
 40
0.945000
 50
90.000000
 51
180.000000
  0
LINE
  8
CSLAYER1
  6
CONTINUOUS
 62
     2
 10
2587.979867
 20
1946.702207
 11
2587.979867
 21
1947.647207
  0
CIRCLE
  8
CSLAYER1
  6
CONTINUOUS
 62
     2
 10
2602.514355
 20
1889.177366
 40
2.500000
  0
CIRCLE
  8
CSLAYER1
  6
CONTINUOUS
 62
     2
 10
2602.514355
 20
1879.177366
 40
2.500000
  0
CIRCLE
  8
CSLAYER1
  6
CONTINUOUS
 62
     2
 10
2612.514355
 20
1879.177366
 40
2.500000
  0
CIRCLE
  8
CSLAYER1
  6
CONTINUOUS
 62
     2
 10
2612.514355
 20
1889.177366
 40
2.500000
  0
CIRCLE
  8
CSLAYER1
  6
CONTINUOUS
 62
     2
 10
2622.514355
 20
1889.177366
 40
2.500000
  0
CIRCLE
  8
CSLAYER1
  6
CONTINUOUS
 62
     2
 10
2622.514355
 20
1879.177366
 40
2.500000
  0
CIRCLE
  8
CSLAYER1
  6
CONTINUOUS
 62
     2
 10
2632.514355
 20
1879.177366
 40
2.500000
  0
CIRCLE
  8
CSLAYER1
  6
CONTINUOUS
 62
     2
 10
2632.514355
 20
1889.177366
 40
2.500000
  0
CIRCLE
  8
CSLAYER1
  6
CONTINUOUS
 62
     2
 10
2642.514355
 20
1889.177366
 40
2.500000
  0
CIRCLE
  8
CSLAYER1
  6
CONTINUOUS
 62
     2
 10
2642.514355
 20
1879.177366
 40
2.500000
  0
CIRCLE
  8
CSLAYER1
  6
CONTINUOUS
 62
     2
 10
2602.514355
 20
1899.177366
 40
2.500000
  0
CIRCLE
  8
CSLAYER1
  6
CONTINUOUS
 62
     2
 10
2602.514355
 20
1909.177366
 40
2.500000
  0
CIRCLE
  8
CSLAYER1
  6
CONTINUOUS
 62
     2
 10
2612.514355
 20
1909.177366
 40
2.500000
  0
CIRCLE
  8
CSLAYER1
  6
CONTINUOUS
 62
     2
 10
2612.514355
 20
1899.177366
 40
2.500000
  0
CIRCLE
  8
CSLAYER1
  6
CONTINUOUS
 62
     2
 10
2622.514355
 20
1899.177366
 40
2.500000
  0
CIRCLE
  8
CSLAYER1
  6
CONTINUOUS
 62
     2
 10
2622.514355
 20
1909.177366
 40
2.500000
  0
CIRCLE
  8
CSLAYER1
  6
CONTINUOUS
 62
     2
 10
2632.514355
 20
1909.177366
 40
2.500000
  0
CIRCLE
  8
CSLAYER1
  6
CONTINUOUS
 62
     2
 10
2632.514355
 20
1899.177366
 40
2.500000
  0
CIRCLE
  8
CSLAYER1
  6
CONTINUOUS
 62
     2
 10
2642.514355
 20
1899.177366
 40
2.500000
  0
CIRCLE
  8
CSLAYER1
  6
CONTINUOUS
 62
     2
 10
2642.514355
 20
1909.177366
 40
2.500000
  0
CIRCLE
  8
CSLAYER1
  6
CONTINUOUS
 62
     2
 10
2602.514355
 20
1989.177366
 40
2.500000
  0
CIRCLE
  8
CSLAYER1
  6
CONTINUOUS
 62
     2
 10
2602.514355
 20
1999.177366
 40
2.500000
  0
CIRCLE
  8
CSLAYER1
  6
CONTINUOUS
 62
     2
 10
2612.514355
 20
1999.177366
 40
2.500000
  0
CIRCLE
  8
CSLAYER1
  6
CONTINUOUS
 62
     2
 10
2612.514355
 20
1989.177366
 40
2.500000
  0
CIRCLE
  8
CSLAYER1
  6
CONTINUOUS
 62
     2
 10
2622.514355
 20
1989.177366
 40
2.500000
  0
CIRCLE
  8
CSLAYER1
  6
CONTINUOUS
 62
     2
 10
2622.514355
 20
1999.177366
 40
2.500000
  0
CIRCLE
  8
CSLAYER1
  6
CONTINUOUS
 62
     2
 10
2632.514355
 20
1999.177366
 40
2.500000
  0
CIRCLE
  8
CSLAYER1
  6
CONTINUOUS
 62
     2
 10
2632.514355
 20
1989.177366
 40
2.500000
  0
CIRCLE
  8
CSLAYER1
  6
CONTINUOUS
 62
     2
 10
2642.514355
 20
1989.177366
 40
2.500000
  0
CIRCLE
  8
CSLAYER1
  6
CONTINUOUS
 62
     2
 10
2642.514355
 20
1999.177366
 40
2.500000
  0
CIRCLE
  8
CSLAYER1
  6
CONTINUOUS
 62
     2
 10
2602.514355
 20
1979.177366
 40
2.500000
  0
CIRCLE
  8
CSLAYER1
  6
CONTINUOUS
 62
     2
 10
2602.514355
 20
1969.177366
 40
2.500000
  0
CIRCLE
  8
CSLAYER1
  6
CONTINUOUS
 62
     2
 10
2612.514355
 20
1969.177366
 40
2.500000
  0
CIRCLE
  8
CSLAYER1
  6
CONTINUOUS
 62
     2
 10
2612.514355
 20
1979.177366
 40
2.500000
  0
CIRCLE
  8
CSLAYER1
  6
CONTINUOUS
 62
     2
 10
2622.514355
 20
1979.177366
 40
2.500000
  0
CIRCLE
  8
CSLAYER1
  6
CONTINUOUS
 62
     2
 10
2622.514355
 20
1969.177366
 40
2.500000
  0
CIRCLE
  8
CSLAYER1
  6
CONTINUOUS
 62
     2
 10
2632.514355
 20
1969.177366
 40
2.500000
  0
CIRCLE
  8
CSLAYER1
  6
CONTINUOUS
 62
     2
 10
2632.514355
 20
1979.177366
 40
2.500000
  0
CIRCLE
  8
CSLAYER1
  6
CONTINUOUS
 62
     2
 10
2642.514355
 20
1979.177366
 40
2.500000
  0
CIRCLE
  8
CSLAYER1
  6
CONTINUOUS
 62
     2
 10
2642.514355
 20
1969.177366
 40
2.500000
  0
LINE
  8
CSLAYER1
  6
CONTINUOUS
 62
     2
 10
2576.514355
 20
1966.677366
 11
2576.514355
 21
2001.677366
  0
LINE
  8
CSLAYER1
  6
CONTINUOUS
 62
     2
 10
2592.514355
 20
1966.677366
 11
2592.514355
 21
2001.677366
  0
LINE
  8
CSLAYER1
  6
CONTINUOUS
 62
     2
 10
2578.014355
 20
1965.177366
 11
2591.014355
 21
1965.177366
  0
LINE
  8
CSLAYER1
  6
CONTINUOUS
 62
     2
 10
2577.514355
 20
1966.677366
 11
2577.514355
 21
2001.677366
  0
LINE
  8
CSLAYER1
  6
CONTINUOUS
 62
     2
 10
2591.514355
 20
1966.677366
 11
2591.514355
 21
2001.677366
  0
LINE
  8
CSLAYER1
  6
CONTINUOUS
 62
     2
 10
2578.014355
 20
1966.177366
 11
2591.014355
 21
1966.177366
  0
LINE
  8
CSLAYER1
  6
CONTINUOUS
 62
     2
 10
2578.014355
 20
2003.177366
 11
2591.014355
 21
2003.177366
  0
LINE
  8
CSLAYER1
  6
CONTINUOUS
 62
     2
 10
2578.014355
 20
2002.177366
 11
2591.014355
 21
2002.177366
  0
ARC
  8
CSLAYER1
  6
CONTINUOUS
 62
     2
 10
2578.014355
 20
1966.677366
 40
0.500000
 50
180.000000
 51
270.000000
  0
ARC
  8
CSLAYER1
  6
CONTINUOUS
 62
     2
 10
2591.014355
 20
1966.677366
 40
0.500000
 50
-90.000000
 51
0.000000
  0
ARC
  8
CSLAYER1
  6
CONTINUOUS
 62
     2
 10
2578.014355
 20
2001.677366
 40
0.500000
 50
90.000000
 51
180.000000
  0
ARC
  8
CSLAYER1
  6
CONTINUOUS
 62
     2
 10
2591.014355
 20
2001.677366
 40
0.500000
 50
0.000000
 51
90.000000
  0
ARC
  8
CSLAYER1
  6
CONTINUOUS
 62
     2
 10
2578.014355
 20
1966.677366
 40
1.500000
 50
180.000000
 51
270.000000
  0
ARC
  8
CSLAYER1
  6
CONTINUOUS
 62
     2
 10
2591.014355
 20
1966.677366
 40
1.500000
 50
-90.000000
 51
0.000000
  0
ARC
  8
CSLAYER1
  6
CONTINUOUS
 62
     2
 10
2578.014355
 20
2001.677366
 40
1.500000
 50
90.000000
 51
180.000000
  0
ARC
  8
CSLAYER1
  6
CONTINUOUS
 62
     2
 10
2591.014355
 20
2001.677366
 40
1.500000
 50
0.000000
 51
90.000000
  0
LINE
  8
CSLAYER1
  6
CONTINUOUS
 62
     2
 10
2581.514355
 20
1975.177366
 11
2581.514355
 21
1993.177366
  0
LINE
  8
CSLAYER1
  6
CONTINUOUS
 62
     2
 10
2578.436283
 20
1984.177366
 11
2581.514355
 21
1993.177366
  0
LINE
  8
CSLAYER1
  6
CONTINUOUS
 62
     2
 10
2578.436283
 20
1984.177366
 11
2581.514355
 21
1975.177366
  0
TEXT
  8
CSLAYER1
 62
     2
 10
2589.808173
 20
1975.197455
 40
7.066058
 41
1.574983
  1
UP
 50
89.999985
 51
0.000000
  7
EASYDRAW_FONT
 72
     5
 11
2589.808178
 21
1993.745658
  0
LINE
  8
CSLAYER1
  6
CONTINUOUS
 62
     2
 10
2576.514355
 20
1911.677366
 11
2576.514355
 21
1876.677366
  0
LINE
  8
CSLAYER1
  6
CONTINUOUS
 62
     2
 10
2592.514355
 20
1911.677366
 11
2592.514355
 21
1876.677366
  0
LINE
  8
CSLAYER1
  6
CONTINUOUS
 62
     2
 10
2578.014355
 20
1913.177366
 11
2591.014355
 21
1913.177366
  0
LINE
  8
CSLAYER1
  6
CONTINUOUS
 62
     2
 10
2577.514355
 20
1911.677366
 11
2577.514355
 21
1876.677366
  0
LINE
  8
CSLAYER1
  6
CONTINUOUS
 62
     2
 10
2591.514355
 20
1911.677366
 11
2591.514355
 21
1876.677366
  0
LINE
  8
CSLAYER1
  6
CONTINUOUS
 62
     2
 10
2578.014355
 20
1912.177366
 11
2591.014355
 21
1912.177366
  0
LINE
  8
CSLAYER1
  6
CONTINUOUS
 62
     2
 10
2578.014355
 20
1875.177366
 11
2591.014355
 21
1875.177366
  0
LINE
  8
CSLAYER1
  6
CONTINUOUS
 62
     2
 10
2578.014355
 20
1876.177366
 11
2591.014355
 21
1876.177366
  0
ARC
  8
CSLAYER1
  6
CONTINUOUS
 62
     2
 10
2578.014355
 20
1911.677366
 40
0.500000
 50
90.000000
 51
180.000000
  0
ARC
  8
CSLAYER1
  6
CONTINUOUS
 62
     2
 10
2591.014355
 20
1911.677366
 40
0.500000
 50
0.000000
 51
90.000000
  0
ARC
  8
CSLAYER1
  6
CONTINUOUS
 62
     2
 10
2578.014355
 20
1876.677366
 40
0.500000
 50
180.000000
 51
270.000000
  0
ARC
  8
CSLAYER1
  6
CONTINUOUS
 62
     2
 10
2591.014355
 20
1876.677366
 40
0.500000
 50
-90.000000
 51
0.000000
  0
ARC
  8
CSLAYER1
  6
CONTINUOUS
 62
     2
 10
2578.014355
 20
1911.677366
 40
1.500000
 50
90.000000
 51
180.000000
  0
ARC
  8
CSLAYER1
  6
CONTINUOUS
 62
     2
 10
2591.014355
 20
1911.677366
 40
1.500000
 50
0.000000
 51
90.000000
  0
ARC
  8
CSLAYER1
  6
CONTINUOUS
 62
     2
 10
2578.014355
 20
1876.677366
 40
1.500000
 50
180.000000
 51
270.000000
  0
ARC
  8
CSLAYER1
  6
CONTINUOUS
 62
     2
 10
2591.014355
 20
1876.677366
 40
1.500000
 50
-90.000000
 51
0.000000
  0
LINE
  8
CSLAYER1
  6
CONTINUOUS
 62
     2
 10
2586.987285
 20
1903.177366
 11
2586.987285
 21
1885.177366
  0
LINE
  8
CSLAYER1
  6
CONTINUOUS
 62
     2
 10
2590.065357
 20
1894.177366
 11
2586.987285
 21
1885.177366
  0
LINE
  8
CSLAYER1
  6
CONTINUOUS
 62
     2
 10
2590.065357
 20
1894.177366
 11
2586.987285
 21
1903.177366
  0
TEXT
  8
CSLAYER1
 62
     2
 10
2585.377330
 20
1879.479643
 40
6.383575
 41
1.255870
  1
DOWN
 50
89.999985
 51
0.000000
  7
EASYDRAW_FONT
 72
     5
 11
2585.377338
 21
1908.875092
  0
ENDBLK
  8
0
  0
ENDSEC
  0
SECTION
  2
ENTITIES
  0
LINE
  8
CSLAYER1
  6
CONTINUOUS
 62
     3
 10
118.051807
 20
2400.454119
 11
118.051807
 21
51.907189
  0
LINE
  8
CSLAYER1
  6
CONTINUOUS
 62
     3
 10
3440.625117
 20
2400.454119
 11
118.051807
 21
2400.454119
  0
LINE
  8
CSLAYER1
  6
CONTINUOUS
 62
     3
 10
3440.625117
 20
2400.454119
 11
3440.625117
 21
51.907189
  0
LINE
  8
CSLAYER1
  6
CONTINUOUS
 62
     3
 10
3440.625117
 20
51.907189
 11
118.051807
 21
51.907189
  0
LINE
  8
CSLAYER1
  6
CONTINUOUS
 62
     5
 10
68.051807
 20
1211.907189
 11
18.051807
 21
1211.907189
  0
LINE
  8
CSLAYER1
  6
CONTINUOUS
 62
     5
 10
2640.625117
 20
491.907189
 11
3440.625117
 21
491.907189
  0
LINE
  8
CSLAYER1
  6
CONTINUOUS
 62
     5
 10
2640.625117
 20
131.907189
 11
3440.625117
 21
131.907189
  0
LINE
  8
CSLAYER1
  6
CONTINUOUS
 62
     5
 10
2640.625117
 20
291.907189
 11
3440.625117
 21
291.907189
  0
LINE
  8
CSLAYER1
  6
CONTINUOUS
 62
     5
 10
2640.625117
 20
351.907189
 11
3440.625117
 21
351.907189
  0
LINE
  8
CSLAYER1
  6
CONTINUOUS
 62
     5
 10
2640.625117
 20
411.907189
 11
3440.625117
 21
411.907189
  0
LINE
  8
CSLAYER1
  6
CONTINUOUS
 62
     5
 10
2640.625117
 20
571.907189
 11
3440.625117
 21
571.907189
  0
LINE
  8
CSLAYER1
  6
CONTINUOUS
 62
     5
 10
2640.625117
 20
651.907189
 11
2640.625117
 21
51.907189
  0
LINE
  8
CSLAYER1
  6
CONTINUOUS
 62
     5
 10
2840.625117
 20
651.907189
 11
2840.625117
 21
411.907189
  0
LINE
  8
CSLAYER1
  6
CONTINUOUS
 62
     5
 10
2640.625117
 20
651.907189
 11
3440.625117
 21
651.907189
  0
LINE
  8
CSLAYER1
  6
CONTINUOUS
 62
     5
 10
3140.625117
 20
411.907189
 11
3140.625117
 21
131.907189
  0
TEXT
  8
CSLAYER1
 62
     3
 10
2860.316219
 20
60.469913
 40
59.380363
 41
1.003345
  1
東正車輌株式会社
 50
0.000000
 51
0.000000
  7
EASYDRAW_FONT
 72
     5
 11
3317.088566
 21
60.469913
  0
LINE
  8
CSLAYER1
  6
CONTINUOUS
 62
     5
 10
2890.625117
 20
351.907189
 11
2890.625117
 21
131.907189
  0
TEXT
  8
CSLAYER1
 62
     5
 10
2670.625000
 20
586.907166
 40
50.000000
 41
1.050000
  1
品　名
 50
0.000000
 51
0.000000
  7
EASYDRAW_FONT
 72
     5
 11
2810.625000
 21
586.907166
  0
TEXT
  8
CSLAYER1
 62
     5
 10
2670.625000
 20
506.907166
 40
50.000000
 41
1.050000
  1
型　式
 50
0.000000
 51
0.000000
  7
EASYDRAW_FONT
 72
     5
 11
2810.625000
 21
506.907166
  0
TEXT
  8
CSLAYER1
 62
     5
 10
2645.625000
 20
426.907196
 40
50.000000
 41
1.036364
  1
図面番号
 50
0.000000
 51
0.000000
  7
EASYDRAW_FONT
 72
     5
 11
2835.625000
 21
426.907196
  0
TEXT
  8
CSLAYER1
 62
     5
 10
2690.625000
 20
356.907196
 40
50.000000
 41
0.827586
  1
平成２８年４月１６日
 50
0.000000
 51
0.000000
  7
EASYDRAW_FONT
 72
     5
 11
3090.625000
 21
356.907196
  0
TEXT
  8
CSLAYER1
 62
     5
 10
3220.625000
 20
356.907196
 40
50.000000
 41
1.050000
  1
Ｂ－４
 50
0.000000
 51
0.000000
  7
EASYDRAW_FONT
 72
     5
 11
3360.625000
 21
356.907196
  0
TEXT
  8
CSLAYER1
 62
     5
 10
2695.625000
 20
296.907196
 40
50.000000
 41
1.050000
  1
検　図
 50
0.000000
 51
0.000000
  7
EASYDRAW_FONT
 72
     5
 11
2835.625000
 21
296.907196
  0
TEXT
  8
CSLAYER1
 62
     5
 10
2945.625000
 20
296.907196
 40
50.000000
 41
1.050000
  1
作　図
 50
0.000000
 51
0.000000
  7
EASYDRAW_FONT
 72
     5
 11
3085.625000
 21
296.907196
  0
TEXT
  8
CSLAYER1
 62
     5
 10
3220.625000
 20
296.907196
 40
50.000000
 41
1.050000
  1
尺　度
 50
0.000000
 51
0.000000
  7
EASYDRAW_FONT
 72
     5
 11
3360.625000
 21
296.907196
  0
TEXT
  8
CSLAYER1
 62
     5
 10
3321.363770
 20
146.392456
 40
50.000000
 41
1.080000
  1
１０
 50
0.000000
 51
0.000000
  7
EASYDRAW_FONT
 72
     5
 11
3411.363770
 21
146.392456
  0
TEXT
  8
CSLAYER1
 62
     5
 10
3301.044189
 20
194.097153
 40
50.000000
 41
1.200000
  1
／
 50
0.000000
 51
0.000000
  7
EASYDRAW_FONT
 72
     5
 11
3341.044189
 21
194.097153
  0
TEXT
  8
CSLAYER1
 62
     5
 10
3270.831299
 20
229.080597
 40
50.000000
 41
1.200000
  1
１
 50
0.000000
 51
0.000000
  7
EASYDRAW_FONT
 72
     5
 11
3310.831299
 21
229.080597
  0
TEXT
  8
CSLAYER1
 62
     3
 10
2980.625000
 20
586.907166
 40
50.000000
 41
0.834783
  1
ゴールドリフター
 50
0.000000
 51
0.000000
  7
EASYDRAW_FONT
 72
     5
 11
3300.625000
 21
586.907166
  0
TEXT
  8
CSLAYER1
 62
     3
 10
2900.625000
 20
506.907166
 40
50.000000
 41
0.822857
  1
ＧＬＩ－３００－０８０９
 50
0.000000
 51
0.000000
  7
EASYDRAW_FONT
 72
     5
 11
3380.625000
 21
506.907166
  0
TEXT
  8
CSLAYER1
 62
     3
 10
3040.625000
 20
426.907196
 40
50.000000
 41
0.857143
  1
GI-04
 50
0.000000
 51
0.000000
  7
EASYDRAW_FONT
 72
     5
 11
3240.625000
 21
426.907196
  0
INSERT
  8
CSLAYER1
  2
BLKF0000
 10
0.0
 20
0.0
 30
0.0
  0
LINE
  8
CSLAYER1
  6
CONTINUOUS
 62
     5
 10
3411.668952
 20
1836.828624
 11
2690.796434
 21
1836.828624
  0
LINE
  8
CSLAYER1
  6
CONTINUOUS
 62
     5
 10
3411.668952
 20
1772.828625
 11
2690.796434
 21
1772.828625
  0
LINE
  8
CSLAYER1
  6
CONTINUOUS
 62
     5
 10
3411.668952
 20
1708.828627
 11
2690.796434
 21
1708.828627
  0
LINE
  8
CSLAYER1
  6
CONTINUOUS
 62
     5
 10
3411.668952
 20
1644.828628
 11
2691.668970
 21
1644.828628
  0
LINE
  8
CSLAYER1
  6
CONTINUOUS
 62
     5
 10
3411.668952
 20
1580.828630
 11
2690.796434
 21
1580.828630
  0
LINE
  8
CSLAYER1
  6
CONTINUOUS
 62
     5
 10
3411.668952
 20
1516.828632
 11
2690.796434
 21
1516.828632
  0
LINE
  8
CSLAYER1
  6
CONTINUOUS
 62
     5
 10
3411.668952
 20
1452.828633
 11
2690.796434
 21
1452.828633
  0
LINE
  8
CSLAYER1
  6
CONTINUOUS
 62
     5
 10
3411.668952
 20
1388.828635
 11
2690.796434
 21
1388.828635
  0
LINE
  8
CSLAYER1
  6
CONTINUOUS
 62
     5
 10
3411.668952
 20
1324.828636
 11
2690.796434
 21
1324.828636
  0
LINE
  8
CSLAYER1
  6
CONTINUOUS
 62
     5
 10
3411.668952
 20
1196.828640
 11
2690.796434
 21
1196.828640
  0
LINE
  8
CSLAYER1
  6
CONTINUOUS
 62
     5
 10
3411.668952
 20
1132.828641
 11
2690.796434
 21
1132.828641
  0
TEXT
  8
CSLAYER1
 62
     3
 10
2886.520020
 20
1916.647705
 40
40.000000
 41
0.857143
  1
仕   様
 50
0.000000
 51
0.000000
  7
EASYDRAW_FONT
 72
     5
 11
3046.520020
 21
1916.647705
  0
TEXT
  8
CSLAYER1
 62
     3
 10
2701.555664
 20
1845.051514
 40
40.000000
 41
0.847059
  1
型    式
 50
0.000000
 51
0.000000
  7
EASYDRAW_FONT
 72
     5
 11
2893.555664
 21
1845.051514
  0
TEXT
  8
CSLAYER1
 62
     3
 10
2699.736084
 20
1722.561646
 40
40.000000
 41
0.847059
  1
テーブル寸法
 50
0.000000
 51
0.000000
  7
EASYDRAW_FONT
 72
     5
 11
2891.736084
 21
1722.561646
  0
TEXT
  8
CSLAYER1
 62
     3
 10
2701.555664
 20
1659.497681
 40
40.000000
 41
0.847059
  1
テーブル高サ
 50
0.000000
 51
0.000000
  7
EASYDRAW_FONT
 72
     5
 11
2893.555664
 21
1659.497681
  0
TEXT
  8
CSLAYER1
 62
     3
 10
2703.002441
 20
1594.614868
 40
40.000000
 41
0.857143
  1
ストローク
 50
0.000000
 51
0.000000
  7
EASYDRAW_FONT
 72
     5
 11
2863.002441
 21
1594.614868
  0
TEXT
  8
CSLAYER1
 62
     3
 10
2702.396240
 20
1529.732056
 40
40.000000
 41
0.857143
  1
全   長
 50
0.000000
 51
0.000000
  7
EASYDRAW_FONT
 72
     5
 11
2862.396240
 21
1529.732056
  0
TEXT
  8
CSLAYER1
 62
     3
 10
2704.667480
 20
1463.880981
 40
40.000000
 41
0.857143
  1
全   巾
 50
0.000000
 51
0.000000
  7
EASYDRAW_FONT
 72
     5
 11
2864.667480
 21
1463.880981
  0
TEXT
  8
CSLAYER1
 62
     3
 10
2703.109619
 20
1399.996216
 40
40.000000
 41
0.857143
  1
全   高
 50
0.000000
 51
0.000000
  7
EASYDRAW_FONT
 72
     5
 11
2863.109619
 21
1399.996216
  0
TEXT
  8
CSLAYER1
 62
     3
 10
2703.109619
 20
1337.669556
 40
40.000000
 41
0.857143
  1
リフト方式
 50
0.000000
 51
0.000000
  7
EASYDRAW_FONT
 72
     5
 11
2863.109619
 21
1337.669556
  0
TEXT
  8
CSLAYER1
 62
     3
 10
2701.969238
 20
1142.782104
 40
40.000000
 41
0.872727
  1
モーター
 50
0.000000
 51
0.000000
  7
EASYDRAW_FONT
 72
     5
 11
2829.969238
 21
1142.782104
  0
LINE
  8
CSLAYER1
  6
CONTINUOUS
 62
     5
 10
3411.668952
 20
1068.828643
 11
2690.796434
 21
1068.828643
  0
LINE
  8
CSLAYER1
  6
CONTINUOUS
 62
     5
 10
3411.668952
 20
940.828646
 11
2688.657932
 21
940.828646
  0
LINE
  8
CSLAYER1
  6
CONTINUOUS
 62
     5
 10
3411.668952
 20
876.828648
 11
2690.796434
 21
876.828648
  0
LINE
  8
CSLAYER1
  6
CONTINUOUS
 62
     5
 10
3411.668952
 20
812.828649
 11
2690.796434
 21
812.828649
  0
TEXT
  8
CSLAYER1
 62
     3
 10
2704.550781
 20
823.950317
 40
40.000000
 41
0.857143
  1
自  　重
 50
0.000000
 51
0.000000
  7
EASYDRAW_FONT
 72
     5
 11
2864.550781
 21
823.950317
  0
TEXT
  8
CSLAYER1
 62
     3
 10
2701.454834
 20
760.610962
 40
40.000000
 41
0.847059
  1
塗　装　色 
 50
0.000000
 51
0.000000
  7
EASYDRAW_FONT
 72
     5
 11
2893.454834
 21
760.610962
  0
TEXT
  8
CSLAYER1
 62
     3
 10
3154.978027
 20
1783.559814
 40
40.000000
 41
0.872727
  1
 300
 50
0.000000
 51
0.000000
  7
EASYDRAW_FONT
 72
     5
 11
3282.978027
 21
1783.559814
  0
TEXT
  8
CSLAYER1
 62
     3
 10
3341.134766
 20
1779.886475
 40
40.000000
 41
0.960000
  1
Ｋｇ
 50
0.000000
 51
0.000000
  7
EASYDRAW_FONT
 72
     5
 11
3405.134766
 21
1779.886475
  0
TEXT
  8
CSLAYER1
 62
     3
 10
2993.862305
 20
1719.056763
 40
40.000000
 41
0.830769
  1
900L×800W
 50
0.000000
 51
0.000000
  7
EASYDRAW_FONT
 72
     5
 11
3281.862305
 21
1719.056763
  0
TEXT
  8
CSLAYER1
 62
     3
 10
3054.569824
 20
1656.523071
 40
40.000000
 41
0.840000
  1
155～700
 50
0.000000
 51
0.000000
  7
EASYDRAW_FONT
 72
     5
 11
3278.569824
 21
1656.523071
  0
TEXT
  8
CSLAYER1
 62
     3
 10
3180.816406
 20
1592.847778
 40
40.000000
 41
0.900000
  1
545
 50
0.000000
 51
0.000000
  7
EASYDRAW_FONT
 72
     5
 11
3276.816406
 21
1592.847778
  0
TEXT
  8
CSLAYER1
 62
     3
 10
3184.955078
 20
1528.062134
 40
40.000000
 41
0.900000
  1
900
 50
0.000000
 51
0.000000
  7
EASYDRAW_FONT
 72
     5
 11
3280.955078
 21
1528.062134
  0
TEXT
  8
CSLAYER1
 62
     3
 10
3182.935547
 20
1464.757935
 40
40.000000
 41
0.900000
  1
800
 50
0.000000
 51
0.000000
  7
EASYDRAW_FONT
 72
     5
 11
3278.935547
 21
1464.757935
  0
TEXT
  8
CSLAYER1
 62
     3
 10
2935.849609
 20
1337.086548
 40
40.000000
 41
0.827586
  1
電 動 ボールネジ式
 50
0.000000
 51
0.000000
  7
EASYDRAW_FONT
 72
     5
 11
3255.849609
 21
1337.086548
  0
TEXT
  8
CSLAYER1
 62
     3
 10
2933.075684
 20
1143.698853
 40
40.000000
 41
0.819512
  1
３相ＡＣ２００Ｖ、0.2ＫＷ
 50
0.000000
 51
0.000000
  7
EASYDRAW_FONT
 72
     5
 11
3381.075684
 21
1143.698853
  0
TEXT
  8
CSLAYER1
 62
     3
 10
3064.059082
 20
1079.855347
 40
40.000000
 41
0.840000
  1
長サ  ４ ｍ
 50
0.000000
 51
0.000000
  7
EASYDRAW_FONT
 72
     5
 11
3288.059082
 21
1079.855347
  0
TEXT
  8
CSLAYER1
 62
     3
 10
3176.698730
 20
825.849731
 40
40.000000
 41
0.847059
  1
１１０　Ｋｇ
 50
0.000000
 51
0.000000
  7
EASYDRAW_FONT
 72
     5
 11
3368.698730
 21
825.849731
  0
TEXT
  8
CSLAYER1
 62
     3
 10
3180.926758
 20
1400.096802
 40
40.000000
 41
0.900000
  1
155
 50
0.000000
 51
0.000000
  7
EASYDRAW_FONT
 72
     5
 11
3276.926758
 21
1400.096802
  0
TEXT
  8
CSLAYER1
 62
     3
 10
3338.620605
 20
1715.783325
 40
40.000000
 41
0.960000
  1
mm
 50
0.000000
 51
0.000000
  7
EASYDRAW_FONT
 72
     5
 11
3402.620605
 21
1715.783325
  0
TEXT
  8
CSLAYER1
 62
     3
 10
3338.620605
 20
1655.449829
 40
40.000000
 41
0.960000
  1
mm
 50
0.000000
 51
0.000000
  7
EASYDRAW_FONT
 72
     5
 11
3402.620605
 21
1655.449829
  0
TEXT
  8
CSLAYER1
 62
     3
 10
3334.849854
 20
1591.345825
 40
40.000000
 41
0.960000
  1
mm
 50
0.000000
 51
0.000000
  7
EASYDRAW_FONT
 72
     5
 11
3398.849854
 21
1591.345825
  0
TEXT
  8
CSLAYER1
 62
     3
 10
3334.849854
 20
1523.470825
 40
40.000000
 41
0.960000
  1
mm
 50
0.000000
 51
0.000000
  7
EASYDRAW_FONT
 72
     5
 11
3398.849854
 21
1523.470825
  0
TEXT
  8
CSLAYER1
 62
     3
 10
3332.336426
 20
1463.138306
 40
40.000000
 41
0.960000
  1
mm
 50
0.000000
 51
0.000000
  7
EASYDRAW_FONT
 72
     5
 11
3396.336426
 21
1463.138306
  0
TEXT
  8
CSLAYER1
 62
     3
 10
3332.336426
 20
1399.033325
 40
40.000000
 41
0.960000
  1
mm
 50
0.000000
 51
0.000000
  7
EASYDRAW_FONT
 72
     5
 11
3396.336426
 21
1399.033325
  0
LINE
  8
CSLAYER1
  6
CONTINUOUS
 62
     5
 10
3074.573372
 20
1900.828622
 11
2866.187400
 21
1900.828622
  0
LINE
  8
CSLAYER1
  6
CONTINUOUS
 62
     5
 10
3074.573372
 20
1908.828622
 11
2866.187400
 21
1908.828622
  0
TEXT
  8
CSLAYER1
 62
     3
 10
2705.551270
 20
1206.668091
 40
40.000000
 41
1.036364
  1
操作方式
 50
0.000000
 51
0.000000
  7
EASYDRAW_FONT
 72
     5
 11
2857.551270
 21
1206.668091
  0
LINE
  8
CSLAYER1
  6
CONTINUOUS
 62
     5
 10
3411.668952
 20
1004.828644
 11
2690.796434
 21
1004.828644
  0
TEXT
  8
CSLAYER1
 62
     3
 10
2702.885498
 20
1079.464722
 40
40.000000
 41
0.942857
  1
電源コード
 50
0.000000
 51
0.000000
  7
EASYDRAW_FONT
 72
     5
 11
2878.885498
 21
1079.464722
  0
TEXT
  8
CSLAYER2
 62
     5
 10
2955.387480
 20
1842.462084
 40
36.148586
 41
0.847115
  1
GLI-300-0809
 50
0.000000
 51
0.000000
  7
EASYDRAW_FONT
 72
     5
 11
3312.644258
 21
1842.462084
  0
TEXT
  8
CSLAYER1
 62
     3
 10
2933.525879
 20
1206.399536
 40
40.000000
 41
1.020000
  1
フットスイッチ
 50
0.000000
 51
0.000000
  7
EASYDRAW_FONT
 72
     5
 11
3205.525879
 21
1206.399536
  0
LINE
  8
CSLAYER1
  6
CONTINUOUS
 62
     3
 10
2592.108807
 20
429.766419
 11
135.923781
 21
429.766419
  0
TEXT
  8
CSLAYER1
 62
     4
 10
2703.314469
 20
1010.343271
 40
47.730206
 41
0.593339
  1
昇降時間 １９秒（50HZ） １６秒(60HZ)
 50
0.000000
 51
0.000000
  7
EASYDRAW_FONT
 72
     5
 11
3373.559555
 21
1010.343271
  0
TEXT
  8
CSLAYER1
 62
     4
 10
2704.615234
 20
884.900024
 40
40.000000
 41
0.912766
  1
上昇端、下降端リミットスイッチ付
 50
0.000000
 51
0.000000
  7
EASYDRAW_FONT
 72
     5
 11
3276.615234
 21
884.900024
  0
TEXT
  8
CSLAYER1
 62
     5
 10
2517.618080
 20
433.858582
 40
29.942631
 41
0.818121
  1
Ｆ.Ｌ
 50
0.000000
 51
0.000000
  7
EASYDRAW_FONT
 72
     5
 11
2582.942627
 21
433.858582
  0
LINE
  8
CSLAYER1
  6
CONTINUOUS
 62
     3
 10
2135.749878
 20
1779.517088
 11
2220.284711
 21
1779.517088
  0
LINE
  8
CSLAYER1
  6
CONTINUOUS
 62
     3
 10
2135.749878
 20
1786.517088
 11
2220.284711
 21
1786.517088
  0
LINE
  8
CSLAYER1
  6
CONTINUOUS
 62
     3
 10
2135.749878
 20
1821.717088
 11
2176.676417
 21
1821.717088
  0
LINE
  8
CSLAYER1
  6
CONTINUOUS
 62
     3
 10
2135.749878
 20
1814.717088
 11
2176.676417
 21
1814.717088
  0
TEXT
  8
CSLAYER1
 62
     5
 10
2769.692871
 20
2099.676270
 40
40.000000
 41
1.020000
  1
ＵＰ・ＤＯＷＮ
 50
360.000000
 51
0.000000
  7
EASYDRAW_FONT
 72
     5
 11
3041.692871
 21
2099.676270
  0
TEXT
  8
CSLAYER1
 62
     5
 10
2769.692871
 20
2151.453125
 40
40.000000
 41
1.020000
  1
フットスイッチ
 50
360.000000
 51
0.000000
  7
EASYDRAW_FONT
 72
     5
 11
3041.692871
 21
2151.453125
  0
TEXT
  8
CSLAYER1
 62
     5
 10
2708.363770
 20
2245.639160
 40
40.000000
 41
1.036364
  1
長サ４ｍ
 50
360.000000
 51
0.000000
  7
EASYDRAW_FONT
 72
     5
 11
2860.363770
 21
2245.639160
  0
TEXT
  8
CSLAYER1
 62
     5
 10
2695.429443
 20
2297.622559
 40
40.000000
 41
1.028571
  1
電源コード
 50
360.000000
 51
0.000000
  7
EASYDRAW_FONT
 72
     5
 11
2887.429443
 21
2297.622559
  0
LINE
  8
CSLAYER1
  6
CONTINUOUS
 62
     3
 10
2446.951970
 20
1942.677366
 11
2561.014355
 21
1942.677366
  0
LINE
  8
CSLAYER1
  6
CONTINUOUS
 62
     3
 10
2446.951970
 20
1935.677366
 11
2561.014355
 21
1935.677366
  0
ARC
  8
CSLAYER1
  6
CONTINUOUS
 62
     3
 10
2446.951970
 20
1895.677366
 40
40.000000
 50
-270.000000
 51
63.051119
  0
ARC
  8
CSLAYER1
  6
CONTINUOUS
 62
     3
 10
2446.951970
 20
1895.677366
 40
47.000000
 50
-270.000000
 51
50.026912
  0
LINE
  8
CSLAYER1
  6
CONTINUOUS
 62
     3
 10
2255.814923
 20
1860.585290
 11
2354.263973
 21
1988.033050
  0
LINE
  8
CSLAYER1
  6
CONTINUOUS
 62
     3
 10
2261.354619
 20
1856.306064
 11
2367.570699
 21
1993.808676
  0
LINE
  8
CSLAYER1
  6
CONTINUOUS
 62
     3
 10
2288.107239
 20
1813.031685
 11
2400.981661
 21
1917.207865
  0
LINE
  8
CSLAYER1
  6
CONTINUOUS
 62
     3
 10
2292.854816
 20
1807.887706
 11
2395.507851
 21
1902.630173
  0
ARC
  8
CSLAYER1
  6
CONTINUOUS
 62
     3
 10
2344.192453
 20
2040.427304
 40
47.000000
 50
-10.756396
 51
307.198537
  0
ARC
  8
CSLAYER1
  6
CONTINUOUS
 62
     3
 10
2344.192453
 20
2040.427304
 40
40.000000
 50
-23.471057
 51
307.198537
  0
LINE
  8
CSLAYER1
  6
CONTINUOUS
 62
     3
 10
2553.584619
 20
2140.351380
 11
2549.352568
 21
2145.927197
  0
LINE
  8
CSLAYER1
  6
CONTINUOUS
 62
     3
 10
2549.352568
 20
2145.927197
 11
2368.375604
 21
2008.565489
  0
LINE
  8
CSLAYER1
  6
CONTINUOUS
 62
     3
 10
2553.584619
 20
2140.351380
 11
2372.607656
 21
2002.989672
  0
ARC
  8
CSLAYER1
  6
CONTINUOUS
 62
     3
 10
2176.676417
 20
1921.717088
 40
100.000000
 50
270.000000
 51
322.315137
  0
ARC
  8
CSLAYER1
  6
CONTINUOUS
 62
     3
 10
2176.676417
 20
1921.717088
 40
107.000000
 50
270.000000
 51
322.315137
  0
ARC
  8
CSLAYER1
  6
CONTINUOUS
 62
     3
 10
2220.284711
 20
1886.517088
 40
100.000000
 50
270.000000
 51
312.705116
  0
ARC
  8
CSLAYER1
  6
CONTINUOUS
 62
     3
 10
2220.284711
 20
1886.517088
 40
107.000000
 50
270.000000
 51
312.705116
  0
LINE
  8
CSLAYER1
  6
CONTINUOUS
 62
     5
 10
2682.623549
 20
2291.633615
 11
2898.684022
 21
2291.633615
  0
LINE
  8
CSLAYER1
  6
CONTINUOUS
 62
     5
 10
2758.621672
 20
2145.326699
 11
3047.866468
 21
2145.326699
  0
CIRCLE
  8
CSLAYER1
  6
DASHED
 62
     5
 10
1842.193720
 20
454.266419
 40
6.000000
  0
CIRCLE
  8
CSLAYER1
  6
DASHED
 62
     5
 10
1842.193720
 20
454.266419
 40
18.500000
  0
POINT
  8
CSLAYER1
 62
     5
 10
1695.647578
 20
966.412274
  0
ARC
  8
CSLAYER1
  6
CONTINUOUS
 62
     4
 10
1695.647578
 20
966.412274
 40
9.050000
 50
254.519091
 51
344.434860
  0
CIRCLE
  8
CSLAYER1
  6
CONTINUOUS
 62
     4
 10
1841.023052
 20
1062.152443
 40
18.500000
  0
LINE
  8
CSLAYER1
  6
CENTER
 62
     5
 10
1840.942832
 20
1082.468114
 11
1841.100144
 21
1042.628853
  0
LINE
  8
CSLAYER1
  6
CENTER
 62
     5
 10
1818.735687
 20
1062.064438
 11
1862.496487
 21
1062.237235
  0
LINE
  8
CSLAYER1
  6
CENTER
 62
     5
 10
1224.788606
 20
1848.158490
 11
2127.303653
 21
1848.158490
  0
LINE
  8
CSLAYER1
  6
CONTINUOUS
 62
     3
 10
1227.103653
 20
2248.158490
 11
2127.103653
 21
2248.158490
  0
LINE
  8
CSLAYER1
  6
CONTINUOUS
 62
     3
 10
1227.103653
 20
2248.158490
 11
1227.103653
 21
1448.158490
  0
LINE
  8
CSLAYER1
  6
CONTINUOUS
 62
     3
 10
2127.103653
 20
2248.158490
 11
2127.103653
 21
1448.158490
  0
CIRCLE
  8
CSLAYER1
  6
CONTINUOUS
 62
     7
 10
1468.328626
 20
727.474140
 40
10.000000
  0
POINT
  8
CSLAYER1
 62
     7
 10
1468.328626
 20
727.474140
  0
LINE
  8
CSLAYER1
  6
CONTINUOUS
 62
     7
 10
1268.295046
 20
545.508301
 11
1251.352537
 21
479.766419
  0
LINE
  8
CSLAYER1
  6
CONTINUOUS
 62
     7
 10
1347.303653
 20
518.878691
 11
1544.528136
 21
719.378870
  0
LINE
  8
CSLAYER1
  6
CONTINUOUS
 62
     7
 10
1424.361373
 20
742.668898
 11
1268.295046
 21
545.508301
  0
LINE
  8
CSLAYER1
  6
CONTINUOUS
 62
     7
 10
1424.361373
 20
742.668898
 11
1471.286139
 21
790.373036
  0
LINE
  8
CSLAYER1
  6
CONTINUOUS
 62
     7
 10
1614.749606
 20
807.878722
 11
1595.254114
 21
770.947355
  0
LINE
  8
CSLAYER1
  6
CONTINUOUS
 62
     7
 10
1614.749606
 20
807.878722
 11
1697.733406
 21
892.240797
  0
ARC
  8
CSLAYER1
  6
CONTINUOUS
 62
     7
 10
1761.431678
 20
1028.297345
 40
22.000000
 50
-37.096710
 51
142.903290
  0
LINE
  8
CSLAYER1
  6
CONTINUOUS
 62
     7
 10
1743.884070
 20
1041.566913
 11
1673.932858
 21
949.063789
  0
LINE
  8
CSLAYER1
  6
CONTINUOUS
 62
     7
 10
1778.979287
 20
1015.027777
 11
1709.028075
 21
922.524653
  0
ARC
  8
CSLAYER1
  6
CONTINUOUS
 62
     7
 10
1691.480466
 20
935.794221
 40
22.000000
 50
142.903290
 51
322.903290
  0
POINT
  8
CSLAYER1
 62
     7
 10
1551.163352
 20
758.209431
  0
POINT
  8
CSLAYER1
 62
     7
 10
1841.023052
 20
1062.152443
  0
ARC
  8
CSLAYER1
  6
CONTINUOUS
 62
     7
 10
1691.480466
 20
935.794221
 40
44.000000
 50
278.170092
 51
318.419183
  0
LINE
  8
CSLAYER1
  6
CONTINUOUS
 62
     7
 10
1724.393361
 20
906.592486
 11
1846.827762
 21
1044.586700
  0
LINE
  8
CSLAYER1
  6
CONTINUOUS
 62
     7
 10
1680.232714
 20
683.496385
 11
1608.961199
 21
795.941229
  0
ARC
  8
CSLAYER1
  6
CONTINUOUS
 62
     7
 10
1663.340167
 20
672.789292
 40
20.000000
 50
7.890398
 51
32.367967
  0
POINT
  8
CSLAYER1
 62
     5
 10
1551.163352
 20
758.209431
  0
LINE
  8
CSLAYER1
  6
CONTINUOUS
 62
     7
 10
1837.164077
 20
526.248341
 11
1280.303653
 21
1066.018462
  0
LINE
  8
CSLAYER1
  6
CONTINUOUS
 62
     7
 10
1265.162628
 20
990.170522
 11
1791.727241
 21
479.766419
  0
LINE
  8
CSLAYER1
  6
CONTINUOUS
 62
     7
 10
1850.398527
 20
479.766419
 11
1837.164077
 21
526.248341
  0
LINE
  8
CSLAYER1
  6
CONTINUOUS
 62
     7
 10
1265.162628
 20
990.170522
 11
1249.365675
 21
1045.652443
  0
LINE
  8
CSLAYER1
  6
CONTINUOUS
 62
     3
 10
2106.503653
 20
528.066419
 11
2106.503653
 21
479.766419
  0
LINE
  8
CSLAYER1
  6
CONTINUOUS
 62
     3
 10
2136.503653
 20
518.566419
 11
2136.503653
 21
501.566419
  0
LINE
  8
CSLAYER1
  6
CONTINUOUS
 62
     3
 10
2132.534086
 20
523.056800
 11
2117.906216
 21
523.056800
  0
LINE
  8
CSLAYER1
  6
CONTINUOUS
 62
     3
 10
2133.394558
 20
521.566419
 11
2133.394558
 21
498.566419
  0
LINE
  8
CSLAYER1
  6
CONTINUOUS
 62
     3
 10
2117.045744
 20
521.566419
 11
2117.045744
 21
498.566419
  0
LINE
  8
CSLAYER1
  6
CONTINUOUS
 62
     3
 10
2133.394558
 20
521.566419
 11
2132.534086
 21
523.056800
  0
LINE
  8
CSLAYER1
  6
CONTINUOUS
 62
     3
 10
2117.045744
 20
521.566419
 11
2117.906216
 21
523.056800
  0
LINE
  8
CSLAYER1
  6
CONTINUOUS
 62
     3
 10
2132.534086
 20
516.705948
 11
2117.906216
 21
516.705948
  0
ARC
  8
CSLAYER1
  6
CONTINUOUS
 62
     3
 10
2107.348533
 20
510.066419
 40
26.046025
 50
-14.768561
 51
14.768561
  0
ARC
  8
CSLAYER1
  6
CONTINUOUS
 62
     3
 10
2127.262965
 20
519.881374
 40
6.153702
 50
-31.065581
 51
23.174644
  0
ARC
  8
CSLAYER1
  6
CONTINUOUS
 62
     3
 10
2123.177337
 20
519.881374
 40
6.153702
 50
156.825356
 51
211.065581
  0
ARC
  8
CSLAYER1
  6
CONTINUOUS
 62
     3
 10
2143.091769
 20
510.066419
 40
26.046025
 50
165.231439
 51
194.768561
  0
LINE
  8
CSLAYER1
  6
CONTINUOUS
 62
     3
 10
2133.503653
 20
521.566419
 11
2133.394558
 21
521.566419
  0
ARC
  8
CSLAYER1
  6
CONTINUOUS
 62
     3
 10
2133.503653
 20
518.566419
 40
3.000000
 50
0.000000
 51
90.000000
  0
LINE
  8
CSLAYER1
  6
CONTINUOUS
 62
     3
 10
2113.503653
 20
521.566419
 11
2113.503653
 21
498.566419
  0
LINE
  8
CSLAYER1
  6
CONTINUOUS
 62
     3
 10
2113.503653
 20
521.566419
 11
2112.643181
 21
523.056800
  0
ARC
  8
CSLAYER1
  6
CONTINUOUS
 62
     3
 10
2087.457628
 20
510.066419
 40
26.046025
 50
-14.768561
 51
14.768561
  0
ARC
  8
CSLAYER1
  6
CONTINUOUS
 62
     3
 10
2107.372059
 20
519.881374
 40
6.153702
 50
-31.065581
 51
23.174644
  0
LINE
  8
CSLAYER1
  6
CONTINUOUS
 62
     3
 10
2112.643181
 20
516.705948
 11
2108.503653
 21
516.705948
  0
LINE
  8
CSLAYER1
  6
CONTINUOUS
 62
     3
 10
2112.643181
 20
523.056800
 11
2108.503653
 21
523.056800
  0
LINE
  8
CSLAYER1
  6
CONTINUOUS
 62
     3
 10
2117.045744
 20
520.402544
 11
2113.503653
 21
520.402544
  0
LINE
  8
CSLAYER1
  6
CONTINUOUS
 62
     3
 10
2117.045744
 20
519.756166
 11
2115.439382
 21
519.756166
  0
LINE
  8
CSLAYER1
  6
CONTINUOUS
 62
     3
 10
2115.439382
 20
520.402544
 11
2115.439382
 21
499.730295
  0
LINE
  8
CSLAYER1
  6
CONTINUOUS
 62
     3
 10
2115.439382
 20
519.756166
 11
2114.304530
 21
520.402544
  0
LINE
  8
CSLAYER1
  6
CONTINUOUS
 62
     3
 10
2132.534086
 20
497.076038
 11
2117.906216
 21
497.076038
  0
LINE
  8
CSLAYER1
  6
CONTINUOUS
 62
     3
 10
2133.394558
 20
498.566419
 11
2132.534086
 21
497.076038
  0
LINE
  8
CSLAYER1
  6
CONTINUOUS
 62
     3
 10
2117.045744
 20
498.566419
 11
2117.906216
 21
497.076038
  0
LINE
  8
CSLAYER1
  6
CONTINUOUS
 62
     3
 10
2132.534086
 20
503.426891
 11
2117.906216
 21
503.426891
  0
ARC
  8
CSLAYER1
  6
CONTINUOUS
 62
     3
 10
2127.262965
 20
500.251465
 40
6.153702
 50
-23.174644
 51
31.065581
  0
ARC
  8
CSLAYER1
  6
CONTINUOUS
 62
     3
 10
2123.177337
 20
500.251465
 40
6.153702
 50
148.934419
 51
203.174644
  0
LINE
  8
CSLAYER1
  6
CONTINUOUS
 62
     3
 10
2133.503653
 20
498.566419
 11
2133.394558
 21
498.566419
  0
ARC
  8
CSLAYER1
  6
CONTINUOUS
 62
     3
 10
2133.503653
 20
501.566419
 40
3.000000
 50
270.000000
 51
360.000000
  0
LINE
  8
CSLAYER1
  6
CONTINUOUS
 62
     3
 10
2113.503653
 20
498.566419
 11
2112.643181
 21
497.076038
  0
ARC
  8
CSLAYER1
  6
CONTINUOUS
 62
     3
 10
2107.372059
 20
500.251465
 40
6.153702
 50
-23.174644
 51
31.065581
  0
LINE
  8
CSLAYER1
  6
CONTINUOUS
 62
     3
 10
2112.643181
 20
503.426891
 11
2108.503653
 21
503.426891
  0
LINE
  8
CSLAYER1
  6
CONTINUOUS
 62
     3
 10
2112.643181
 20
497.076038
 11
2108.503653
 21
497.076038
  0
LINE
  8
CSLAYER1
  6
CONTINUOUS
 62
     3
 10
2117.045744
 20
499.730295
 11
2113.503653
 21
499.730295
  0
LINE
  8
CSLAYER1
  6
CONTINUOUS
 62
     3
 10
2117.045744
 20
500.376673
 11
2115.439382
 21
500.376673
  0
LINE
  8
CSLAYER1
  6
CONTINUOUS
 62
     3
 10
2115.439382
 20
500.376673
 11
2114.304530
 21
499.730295
  0
ARC
  8
CSLAYER1
  6
CONTINUOUS
 62
     3
 10
2107.503653
 20
521.516419
 40
1.000000
 50
0.000000
 51
180.000000
  0
POINT
  8
CSLAYER1
 62
     3
 10
2107.503653
 20
521.516419
  0
ARC
  8
CSLAYER1
  6
CONTINUOUS
 62
     3
 10
2107.503653
 20
498.616419
 40
1.000000
 50
180.000000
 51
360.000000
  0
POINT
  8
CSLAYER1
 62
     3
 10
2107.503653
 20
498.616419
  0
LINE
  8
CSLAYER1
  6
CONTINUOUS
 62
     3
 10
2108.503653
 20
523.056800
 11
2108.503653
 21
497.076038
  0
LINE
  8
CSLAYER1
  6
CENTER
 62
     5
 10
2194.258528
 20
510.066419
 11
2103.929736
 21
510.066419
  0
LINE
  8
CSLAYER1
  6
CONTINUOUS
 62
     3
 10
2191.080374
 20
513.866419
 11
2136.503653
 21
513.866419
  0
LINE
  8
CSLAYER1
  6
CONTINUOUS
 62
     3
 10
2188.356243
 20
506.266419
 11
2136.503653
 21
506.266419
  0
LINE
  8
CSLAYER1
  6
CONTINUOUS
 62
     3
 10
1967.103653
 20
528.066419
 11
1967.103653
 21
479.766419
  0
LINE
  8
CSLAYER1
  6
CONTINUOUS
 62
     3
 10
1965.803653
 20
534.066419
 11
2107.803653
 21
534.066419
  0
LINE
  8
CSLAYER1
  6
CONTINUOUS
 62
     3
 10
1965.803653
 20
528.066419
 11
2107.803653
 21
528.066419
  0
LINE
  8
CSLAYER1
  6
CONTINUOUS
 62
     3
 10
1965.803653
 20
534.066419
 11
1965.803653
 21
528.066419
  0
LINE
  8
CSLAYER1
  6
CONTINUOUS
 62
     3
 10
2107.803653
 20
534.066419
 11
2107.803653
 21
528.066419
  0
LINE
  8
CSLAYER1
  6
CENTER
 62
     5
 10
2036.803653
 20
537.854921
 11
2036.803653
 21
528.086311
  0
LINE
  8
CSLAYER1
  6
CONTINUOUS
 62
     3
 10
2033.303653
 20
537.066419
 11
2033.303653
 21
534.866419
  0
LINE
  8
CSLAYER1
  6
CONTINUOUS
 62
     3
 10
2040.303653
 20
537.066419
 11
2040.303653
 21
534.866419
  0
LINE
  8
CSLAYER1
  6
CONTINUOUS
 62
     3
 10
2040.303653
 20
535.866419
 11
2033.303653
 21
535.866419
  0
LINE
  8
CSLAYER1
  6
CONTINUOUS
 62
     3
 10
2038.903653
 20
538.466419
 11
2034.703653
 21
538.466419
  0
LINE
  8
CSLAYER1
  6
CONTINUOUS
 62
     3
 10
2041.303653
 20
534.866419
 11
2041.303653
 21
534.066419
  0
LINE
  8
CSLAYER1
  6
CONTINUOUS
 62
     3
 10
2032.303653
 20
534.866419
 11
2032.303653
 21
534.066419
  0
LINE
  8
CSLAYER1
  6
CONTINUOUS
 62
     3
 10
2041.303653
 20
534.866419
 11
2032.303653
 21
534.866419
  0
ARC
  8
CSLAYER1
  6
CONTINUOUS
 62
     3
 10
2038.903653
 20
537.066419
 40
1.400000
 50
0.000000
 51
90.000000
  0
ARC
  8
CSLAYER1
  6
CONTINUOUS
 62
     3
 10
2034.703653
 20
537.066419
 40
1.400000
 50
90.000000
 51
180.000000
  0
LINE
  8
CSLAYER1
  6
CONTINUOUS
 62
     3
 10
2037.843605
 20
534.866419
 11
2035.458402
 21
535.866419
  0
LINE
  8
CSLAYER1
  6
CONTINUOUS
 62
     3
 10
1227.303653
 20
479.766419
 11
2127.303653
 21
479.766419
  0
LINE
  8
CSLAYER1
  6
CONTINUOUS
 62
     3
 10
1227.303653
 20
479.766419
 11
1227.303653
 21
429.766419
  0
LINE
  8
CSLAYER1
  6
CONTINUOUS
 62
     3
 10
2127.303653
 20
479.766419
 11
2127.303653
 21
429.766419
  0
CIRCLE
  8
CSLAYER1
  6
CONTINUOUS
 62
     4
 10
1468.328626
 20
727.474140
 40
10.000000
  0
POINT
  8
CSLAYER1
 62
     4
 10
1468.328626
 20
727.474140
  0
LINE
  8
CSLAYER1
  6
CENTER
 62
     5
 10
1458.007162
 20
737.561242
 11
1478.650090
 21
717.387038
  0
LINE
  8
CSLAYER1
  6
CONTINUOUS
 62
     4
 10
1546.251726
 20
746.401381
 11
1546.235487
 21
747.815502
  0
LINE
  8
CSLAYER1
  6
CONTINUOUS
 62
     4
 10
1452.960713
 20
772.555480
 11
1470.817573
 21
790.827222
  0
LINE
  8
CSLAYER1
  6
CENTER
 62
     5
 10
1402.882808
 20
726.267200
 11
1453.545571
 21
778.107052
  0
LINE
  8
CSLAYER1
  6
CONTINUOUS
 62
     4
 10
1412.446846
 20
759.715055
 11
1427.070715
 21
745.423239
  0
LINE
  8
CSLAYER1
  6
CONTINUOUS
 62
     4
 10
1501.844306
 20
672.347475
 11
1500.019427
 21
674.130918
  0
LINE
  8
CSLAYER1
  6
CONTINUOUS
 62
     4
 10
1727.047484
 20
1019.388018
 11
1735.394950
 21
1011.230093
  0
LINE
  8
CSLAYER1
  6
CONTINUOUS
 62
     4
 10
1722.418237
 20
1016.081953
 11
1725.633364
 21
1019.371779
  0
LINE
  8
CSLAYER1
  6
CONTINUOUS
 62
     4
 10
1412.446846
 20
759.715055
 11
1434.812946
 21
782.600805
  0
LINE
  8
CSLAYER1
  6
CONTINUOUS
 62
     4
 10
1434.812946
 20
782.600805
 11
1449.511127
 21
768.236364
  0
LINE
  8
CSLAYER1
  6
CONTINUOUS
 62
     4
 10
1501.844306
 20
672.347475
 11
1524.210407
 21
695.233225
  0
LINE
  8
CSLAYER1
  6
CONTINUOUS
 62
     4
 10
1522.459840
 20
696.944043
 11
1524.210407
 21
695.233225
  0
LINE
  8
CSLAYER1
  6
CONTINUOUS
 62
     4
 10
1751.025425
 20
988.124327
 11
1754.240552
 21
991.414154
  0
LINE
  8
CSLAYER1
  6
CONTINUOUS
 62
     4
 10
1725.633364
 20
1019.371779
 11
1727.047484
 21
1019.388018
  0
LINE
  8
CSLAYER1
  6
CONTINUOUS
 62
     4
 10
1754.240552
 20
991.414154
 11
1754.224312
 21
992.828274
  0
LINE
  8
CSLAYER1
  6
CONTINUOUS
 62
     4
 10
1445.836135
 20
779.518285
 11
1453.368073
 21
772.157370
  0
LINE
  8
CSLAYER1
  6
CONTINUOUS
 62
     4
 10
1444.711209
 20
779.805905
 11
1441.272811
 21
776.287619
  0
LINE
  8
CSLAYER1
  6
CONTINUOUS
 62
     4
 10
1447.395119
 20
777.182937
 11
1443.956720
 21
773.664651
  0
LINE
  8
CSLAYER1
  6
CONTINUOUS
 62
     4
 10
1445.836135
 20
779.518285
 11
1444.711209
 21
779.805905
  0
ARC
  8
CSLAYER1
  6
CONTINUOUS
 62
     4
 10
1444.190541
 20
776.588522
 40
3.259241
 50
10.286309
 51
71.223826
  0
ARC
  8
CSLAYER1
  6
CONTINUOUS
 62
     4
 10
1441.804350
 20
766.093037
 40
12.419443
 50
28.069973
 51
63.245881
  0
LINE
  8
CSLAYER1
  6
CONTINUOUS
 62
     4
 10
1452.762939
 20
771.937001
 11
1449.324540
 21
768.418715
  0
ARC
  8
CSLAYER1
  6
CONTINUOUS
 62
     4
 10
1452.242270
 20
768.719617
 40
3.259241
 50
75.037263
 51
81.029545
  0
LINE
  8
CSLAYER1
  6
CONTINUOUS
 62
     4
 10
1728.601731
 20
1017.869063
 11
1733.378172
 21
1019.844381
  0
LINE
  8
CSLAYER1
  6
CONTINUOUS
 62
     4
 10
1733.305810
 20
1019.814455
 11
1733.042130
 21
1013.529489
  0
LINE
  8
CSLAYER1
  6
CONTINUOUS
 62
     4
 10
1733.042130
 20
1013.529489
 11
1734.845283
 21
1014.741982
  0
LINE
  8
CSLAYER1
  6
CONTINUOUS
 62
     4
 10
1733.042130
 20
1013.529489
 11
1732.971544
 21
1019.676218
  0
LINE
  8
CSLAYER1
  6
CONTINUOUS
 62
     4
 10
1732.839846
 20
1013.727179
 11
1732.772476
 21
1019.593892
  0
LINE
  8
CSLAYER1
  6
CONTINUOUS
 62
     4
 10
1732.637563
 20
1013.924869
 11
1732.573408
 21
1019.511567
  0
LINE
  8
CSLAYER1
  6
CONTINUOUS
 62
     4
 10
1732.435279
 20
1014.122560
 11
1732.374340
 21
1019.429242
  0
LINE
  8
CSLAYER1
  6
CONTINUOUS
 62
     4
 10
1732.232996
 20
1014.320250
 11
1732.175272
 21
1019.346916
  0
LINE
  8
CSLAYER1
  6
CONTINUOUS
 62
     4
 10
1732.030713
 20
1014.517940
 11
1731.976205
 21
1019.264591
  0
LINE
  8
CSLAYER1
  6
CONTINUOUS
 62
     4
 10
1731.828429
 20
1014.715630
 11
1731.777137
 21
1019.182266
  0
LINE
  8
CSLAYER1
  6
CONTINUOUS
 62
     4
 10
1731.626146
 20
1014.913321
 11
1731.578069
 21
1019.099940
  0
LINE
  8
CSLAYER1
  6
CONTINUOUS
 62
     4
 10
1731.423863
 20
1015.111011
 11
1731.379001
 21
1019.017615
  0
LINE
  8
CSLAYER1
  6
CONTINUOUS
 62
     4
 10
1731.221579
 20
1015.308701
 11
1731.179933
 21
1018.935290
  0
LINE
  8
CSLAYER1
  6
CONTINUOUS
 62
     4
 10
1731.019296
 20
1015.506392
 11
1730.980866
 21
1018.852964
  0
LINE
  8
CSLAYER1
  6
CONTINUOUS
 62
     4
 10
1730.817013
 20
1015.704082
 11
1730.781798
 21
1018.770639
  0
LINE
  8
CSLAYER1
  6
CONTINUOUS
 62
     4
 10
1730.614729
 20
1015.901772
 11
1730.582730
 21
1018.688314
  0
LINE
  8
CSLAYER1
  6
CONTINUOUS
 62
     4
 10
1730.412446
 20
1016.099462
 11
1730.383662
 21
1018.605988
  0
LINE
  8
CSLAYER1
  6
CONTINUOUS
 62
     4
 10
1730.210162
 20
1016.297153
 11
1730.184594
 21
1018.523663
  0
LINE
  8
CSLAYER1
  6
CONTINUOUS
 62
     4
 10
1730.007879
 20
1016.494843
 11
1729.985527
 21
1018.441338
  0
LINE
  8
CSLAYER1
  6
CONTINUOUS
 62
     4
 10
1729.805596
 20
1016.692533
 11
1729.786459
 21
1018.359012
  0
LINE
  8
CSLAYER1
  6
CONTINUOUS
 62
     4
 10
1729.603312
 20
1016.890223
 11
1729.587391
 21
1018.276687
  0
LINE
  8
CSLAYER1
  6
CONTINUOUS
 62
     4
 10
1729.401029
 20
1017.087914
 11
1729.388323
 21
1018.194362
  0
LINE
  8
CSLAYER1
  6
CONTINUOUS
 62
     4
 10
1729.198746
 20
1017.285604
 11
1729.189255
 21
1018.112036
  0
LINE
  8
CSLAYER1
  6
CONTINUOUS
 62
     4
 10
1728.996462
 20
1017.483294
 11
1728.990188
 21
1018.029711
  0
LINE
  8
CSLAYER1
  6
CONTINUOUS
 62
     4
 10
1728.794179
 20
1017.680984
 11
1728.791120
 21
1017.947386
  0
LINE
  8
CSLAYER1
  6
CONTINUOUS
 62
     4
 10
1733.240610
 20
1013.662953
 11
1733.170611
 21
1019.758543
  0
LINE
  8
CSLAYER1
  6
CONTINUOUS
 62
     4
 10
1733.439091
 20
1013.796417
 11
1733.369679
 21
1019.840868
  0
LINE
  8
CSLAYER1
  6
CONTINUOUS
 62
     4
 10
1733.637571
 20
1013.929881
 11
1733.581417
 21
1018.819877
  0
LINE
  8
CSLAYER1
  6
CONTINUOUS
 62
     4
 10
1733.836052
 20
1014.063345
 11
1733.791543
 21
1017.939235
  0
LINE
  8
CSLAYER1
  6
CONTINUOUS
 62
     4
 10
1734.034532
 20
1014.196809
 11
1734.000300
 21
1017.177812
  0
LINE
  8
CSLAYER1
  6
CONTINUOUS
 62
     4
 10
1734.233013
 20
1014.330273
 11
1734.208107
 21
1016.499079
  0
LINE
  8
CSLAYER1
  6
CONTINUOUS
 62
     4
 10
1734.431493
 20
1014.463738
 11
1734.415205
 21
1015.882191
  0
LINE
  8
CSLAYER1
  6
CONTINUOUS
 62
     4
 10
1734.629974
 20
1014.597202
 11
1734.621744
 21
1015.313913
  0
LINE
  8
CSLAYER1
  6
CONTINUOUS
 62
     4
 10
1734.828455
 20
1014.730666
 11
1734.827828
 21
1014.785210
  0
ARC
  8
CSLAYER1
  6
CONTINUOUS
 62
     4
 10
1758.388991
 20
1024.273710
 40
25.400000
 50
236.346470
 51
292.916623
  0
LINE
  8
CSLAYER1
  6
CONTINUOUS
 62
     4
 10
1752.670066
 20
994.347229
 11
1754.535177
 21
999.167772
  0
LINE
  8
CSLAYER1
  6
CONTINUOUS
 62
     4
 10
1754.506921
 20
999.094742
 11
1748.229667
 21
998.686803
  0
LINE
  8
CSLAYER1
  6
CONTINUOUS
 62
     4
 10
1748.229667
 20
998.686803
 11
1749.400433
 21
1000.517325
  0
LINE
  8
CSLAYER1
  6
CONTINUOUS
 62
     4
 10
1748.229667
 20
998.686803
 11
1754.376396
 21
998.757389
  0
LINE
  8
CSLAYER1
  6
CONTINUOUS
 62
     4
 10
1748.431951
 20
998.489113
 11
1754.298664
 21
998.556483
  0
LINE
  8
CSLAYER1
  6
CONTINUOUS
 62
     4
 10
1748.634234
 20
998.291423
 11
1754.220932
 21
998.355578
  0
LINE
  8
CSLAYER1
  6
CONTINUOUS
 62
     4
 10
1748.836517
 20
998.093732
 11
1754.143199
 21
998.154672
  0
LINE
  8
CSLAYER1
  6
CONTINUOUS
 62
     4
 10
1749.038801
 20
997.896042
 11
1754.065467
 21
997.953766
  0
LINE
  8
CSLAYER1
  6
CONTINUOUS
 62
     4
 10
1749.241084
 20
997.698352
 11
1753.987735
 21
997.752860
  0
LINE
  8
CSLAYER1
  6
CONTINUOUS
 62
     4
 10
1749.443367
 20
997.500662
 11
1753.910003
 21
997.551954
  0
LINE
  8
CSLAYER1
  6
CONTINUOUS
 62
     4
 10
1749.645651
 20
997.302971
 11
1753.832270
 21
997.351048
  0
LINE
  8
CSLAYER1
  6
CONTINUOUS
 62
     4
 10
1749.847934
 20
997.105281
 11
1753.754538
 21
997.150143
  0
LINE
  8
CSLAYER1
  6
CONTINUOUS
 62
     4
 10
1750.050217
 20
996.907591
 11
1753.676806
 21
996.949237
  0
LINE
  8
CSLAYER1
  6
CONTINUOUS
 62
     4
 10
1750.252501
 20
996.709901
 11
1753.599074
 21
996.748331
  0
LINE
  8
CSLAYER1
  6
CONTINUOUS
 62
     4
 10
1750.454784
 20
996.512210
 11
1753.521342
 21
996.547425
  0
LINE
  8
CSLAYER1
  6
CONTINUOUS
 62
     4
 10
1750.657068
 20
996.314520
 11
1753.443609
 21
996.346519
  0
LINE
  8
CSLAYER1
  6
CONTINUOUS
 62
     4
 10
1750.859351
 20
996.116830
 11
1753.365877
 21
996.145614
  0
LINE
  8
CSLAYER1
  6
CONTINUOUS
 62
     4
 10
1751.061634
 20
995.919140
 11
1753.288145
 21
995.944708
  0
LINE
  8
CSLAYER1
  6
CONTINUOUS
 62
     4
 10
1751.263918
 20
995.721449
 11
1753.210413
 21
995.743802
  0
LINE
  8
CSLAYER1
  6
CONTINUOUS
 62
     4
 10
1751.466201
 20
995.523759
 11
1753.132680
 21
995.542896
  0
LINE
  8
CSLAYER1
  6
CONTINUOUS
 62
     4
 10
1751.668484
 20
995.326069
 11
1753.054948
 21
995.341990
  0
LINE
  8
CSLAYER1
  6
CONTINUOUS
 62
     4
 10
1751.870768
 20
995.128379
 11
1752.977216
 21
995.141084
  0
LINE
  8
CSLAYER1
  6
CONTINUOUS
 62
     4
 10
1752.073051
 20
994.930688
 11
1752.899484
 21
994.940179
  0
LINE
  8
CSLAYER1
  6
CONTINUOUS
 62
     4
 10
1752.275334
 20
994.732998
 11
1752.821751
 21
994.739273
  0
LINE
  8
CSLAYER1
  6
CONTINUOUS
 62
     4
 10
1752.477618
 20
994.535308
 11
1752.744019
 21
994.538367
  0
LINE
  8
CSLAYER1
  6
CONTINUOUS
 62
     4
 10
1748.358538
 20
998.888296
 11
1754.454128
 21
998.958295
  0
LINE
  8
CSLAYER1
  6
CONTINUOUS
 62
     4
 10
1748.487409
 20
999.089789
 11
1754.531861
 21
999.159201
  0
LINE
  8
CSLAYER1
  6
CONTINUOUS
 62
     4
 10
1748.616280
 20
999.291283
 11
1753.506276
 21
999.347437
  0
LINE
  8
CSLAYER1
  6
CONTINUOUS
 62
     4
 10
1748.745151
 20
999.492776
 11
1752.621041
 21
999.537284
  0
LINE
  8
CSLAYER1
  6
CONTINUOUS
 62
     4
 10
1748.874022
 20
999.694269
 11
1751.855025
 21
999.728501
  0
LINE
  8
CSLAYER1
  6
CONTINUOUS
 62
     4
 10
1749.002893
 20
999.895762
 11
1751.171699
 21
999.920667
  0
LINE
  8
CSLAYER1
  6
CONTINUOUS
 62
     4
 10
1749.131764
 20
1000.097255
 11
1750.550218
 21
1000.113544
  0
LINE
  8
CSLAYER1
  6
CONTINUOUS
 62
     4
 10
1749.260635
 20
1000.298748
 11
1749.977346
 21
1000.306978
  0
LINE
  8
CSLAYER1
  6
CONTINUOUS
 62
     4
 10
1749.389506
 20
1000.500241
 11
1749.444051
 21
1000.500867
  0
LINE
  8
CSLAYER1
  6
CENTER
 62
     5
 10
1743.370217
 20
1038.951464
 11
1773.407764
 21
1009.595957
  0
LINE
  8
CSLAYER1
  6
CONTINUOUS
 62
     4
 10
1408.724465
 20
745.175664
 11
1417.810693
 21
754.473000
  0
LINE
  8
CSLAYER1
  6
CONTINUOUS
 62
     4
 10
1228.284107
 20
570.558147
 11
1265.402128
 21
534.282937
  0
LINE
  8
CSLAYER1
  6
CONTINUOUS
 62
     4
 10
1365.308950
 20
707.905125
 11
1383.088917
 21
690.528874
  0
LINE
  8
CSLAYER1
  6
CONTINUOUS
 62
     4
 10
1228.284107
 20
570.558147
 11
1268.822664
 21
612.038568
  0
LINE
  8
CSLAYER1
  6
CONTINUOUS
 62
     4
 10
1270.253023
 20
610.640687
 11
1370.900475
 21
713.626562
  0
LINE
  8
CSLAYER1
  6
CONTINUOUS
 62
     4
 10
1378.686257
 20
713.008817
 11
1409.439645
 21
744.476723
  0
LINE
  8
CSLAYER1
  6
CONTINUOUS
 62
     4
 10
1228.284107
 20
570.558147
 11
1235.565816
 21
552.255778
  0
LINE
  8
CSLAYER1
  6
CONTINUOUS
 62
     4
 10
1263.099338
 20
525.347439
 11
1235.565816
 21
552.255778
  0
LINE
  8
CSLAYER1
  6
CONTINUOUS
 62
     4
 10
1408.724465
 20
745.175664
 11
1418.659753
 21
735.465968
  0
LINE
  8
CSLAYER1
  6
CONTINUOUS
 62
     4
 10
1389.170366
 20
723.736512
 11
1400.562311
 21
712.603236
  0
LINE
  8
CSLAYER1
  6
CONTINUOUS
 62
     4
 10
1373.728716
 20
713.659040
 11
1389.329415
 21
698.412575
  0
ARC
  8
CSLAYER1
  6
CONTINUOUS
 62
     4
 10
1376.540717
 20
715.105639
 40
3.000000
 50
225.657927
 51
315.657927
  0
LINE
  8
CSLAYER1
  6
CONTINUOUS
 62
     4
 10
1295.284313
 20
586.177765
 11
1322.665197
 21
614.194811
  0
LINE
  8
CSLAYER1
  6
CONTINUOUS
 62
     4
 10
1290.278055
 20
591.070349
 11
1364.381277
 21
666.895271
  0
LINE
  8
CSLAYER1
  6
CONTINUOUS
 62
     4
 10
1275.974461
 20
605.049162
 11
1371.030388
 21
702.313600
  0
LINE
  8
CSLAYER1
  6
CONTINUOUS
 62
     4
 10
1274.544102
 20
606.447043
 11
1369.600028
 21
703.711481
  0
ARC
  8
CSLAYER1
  6
CONTINUOUS
 62
     4
 10
1372.330835
 20
712.228681
 40
2.000000
 50
45.657927
 51
135.657927
  0
LINE
  8
CSLAYER1
  6
CONTINUOUS
 62
     4
 10
1408.283536
 20
742.810080
 11
1417.411654
 21
733.889228
  0
LINE
  8
CSLAYER1
  6
CONTINUOUS
 62
     4
 10
1408.283536
 20
742.810080
 11
1409.681418
 21
744.240440
  0
LINE
  8
CSLAYER1
  6
CONTINUOUS
 62
     4
 10
1404.598638
 20
737.322684
 11
1413.355331
 21
728.764823
  0
LINE
  8
CSLAYER1
  6
CONTINUOUS
 62
     4
 10
1404.598638
 20
737.322684
 11
1404.285261
 21
738.440708
  0
LINE
  8
CSLAYER1
  6
CONTINUOUS
 62
     4
 10
1408.422601
 20
742.674174
 11
1404.285261
 21
738.440708
  0
ARC
  8
CSLAYER1
  6
CONTINUOUS
 62
     4
 10
1407.512561
 20
739.058373
 40
3.285875
 50
200.971432
 51
260.622310
  0
ARC
  8
CSLAYER1
  6
CONTINUOUS
 62
     4
 10
1417.927760
 20
741.661703
 40
12.419443
 50
208.069973
 51
243.245881
  0
LINE
  8
CSLAYER1
  6
CONTINUOUS
 62
     4
 10
1411.106510
 20
740.051206
 11
1406.969171
 21
735.817740
  0
LINE
  8
CSLAYER1
  6
CONTINUOUS
 62
     4
 10
1404.440921
 20
732.582945
 11
1409.161107
 21
727.969937
  0
LINE
  8
CSLAYER1
  6
CONTINUOUS
 62
     4
 10
1404.429553
 20
733.572829
 11
1406.386587
 21
735.575332
  0
LINE
  8
CSLAYER1
  6
CONTINUOUS
 62
     4
 10
1404.440921
 20
732.582945
 11
1406.887213
 21
735.086074
  0
LINE
  8
CSLAYER1
  6
CONTINUOUS
 62
     4
 10
1404.429553
 20
733.572829
 11
1404.440921
 21
732.582945
  0
LINE
  8
CSLAYER1
  6
CONTINUOUS
 62
     4
 10
1404.429553
 20
733.572829
 11
1410.150991
 21
727.981304
  0
ARC
  8
CSLAYER1
  6
CONTINUOUS
 62
     4
 10
1415.564290
 20
731.189469
 40
3.285875
 50
190.693544
 51
227.672202
  0
LINE
  8
CSLAYER1
  6
CONTINUOUS
 62
     4
 10
1416.474330
 20
734.805269
 11
1412.336990
 21
730.571804
  0
LINE
  8
CSLAYER1
  6
CONTINUOUS
 62
     4
 10
1410.150991
 20
727.981304
 11
1412.108025
 21
729.983807
  0
LINE
  8
CSLAYER1
  6
CONTINUOUS
 62
     4
 10
1409.161107
 20
727.969937
 11
1411.607399
 21
730.473065
  0
LINE
  8
CSLAYER1
  6
CONTINUOUS
 62
     4
 10
1410.150991
 20
727.981304
 11
1409.161107
 21
727.969937
  0
LINE
  8
CSLAYER1
  6
CONTINUOUS
 62
     4
 10
1414.049767
 20
739.971280
 11
1415.321304
 21
735.932114
  0
LINE
  8
CSLAYER1
  6
CONTINUOUS
 62
     4
 10
1722.167924
 20
1016.326582
 11
1731.272738
 21
1007.428504
  0
LINE
  8
CSLAYER1
  6
CONTINUOUS
 62
     4
 10
1720.753804
 20
1016.310343
 11
1722.167924
 21
1016.326582
  0
LINE
  8
CSLAYER1
  6
CONTINUOUS
 62
     4
 10
1682.253224
 20
915.822792
 11
1751.291977
 21
986.465578
  0
LINE
  8
CSLAYER1
  6
CONTINUOUS
 62
     4
 10
1751.291977
 20
986.465578
 11
1751.275737
 21
987.879698
  0
POINT
  8
CSLAYER1
 62
     5
 10
1723.655537
 20
992.241796
  0
POINT
  8
CSLAYER1
 62
     5
 10
1709.651558
 20
979.327035
  0
ARC
  8
CSLAYER1
  6
CONTINUOUS
 62
     4
 10
1709.651558
 20
979.327035
 40
9.050000
 50
-79.069071
 51
10.846697
  0
CIRCLE
  8
CSLAYER1
  6
CONTINUOUS
 62
     4
 10
1709.651558
 20
979.327035
 40
2.980000
  0
ARC
  8
CSLAYER1
  6
CONTINUOUS
 62
     4
 10
1713.083779
 20
961.555432
 40
9.050000
 50
100.930929
 51
164.434860
  0
ARC
  8
CSLAYER1
  6
CONTINUOUS
 62
     4
 10
1692.215357
 20
984.183876
 40
9.050000
 50
279.735496
 51
344.434860
  0
ARC
  8
CSLAYER1
  6
CONTINUOUS
 62
     4
 10
1709.651558
 20
979.327035
 40
7.800000
 50
95.311393
 51
350.054395
  0
ARC
  8
CSLAYER1
  6
CONTINUOUS
 62
     4
 10
1723.655537
 20
992.241796
 40
7.800000
 50
-84.948336
 51
170.314124
  0
CIRCLE
  8
CSLAYER1
  6
CONTINUOUS
 62
     5
 10
1709.651558
 20
979.327035
 40
2.980000
  0
CIRCLE
  8
CSLAYER1
  6
CONTINUOUS
 62
     5
 10
1723.655537
 20
992.241796
 40
2.980000
  0
ARC
  8
CSLAYER1
  6
CONTINUOUS
 62
     4
 10
1725.029179
 20
976.702391
 40
7.800000
 50
95.051664
 51
170.314124
  0
ARC
  8
CSLAYER1
  6
CONTINUOUS
 62
     4
 10
1708.277915
 20
994.866440
 40
7.800000
 50
275.051664
 51
350.314124
  0
ARC
  8
CSLAYER1
  6
CONTINUOUS
 62
     4
 10
1709.651558
 20
979.327035
 40
9.050000
 50
74.519091
 51
164.434860
  0
LINE
  8
CSLAYER1
  6
CONTINUOUS
 62
     3
 10
1711.446477
 20
992.205050
 11
1713.939794
 21
989.501449
  0
LINE
  8
CSLAYER1
  6
CONTINUOUS
 62
     3
 10
1724.678583
 20
1004.407974
 11
1735.864597
 21
992.278543
  0
LINE
  8
CSLAYER1
  6
CONTINUOUS
 62
     3
 10
1726.203949
 20
1002.753960
 11
1739.527404
 21
1015.041128
  0
LINE
  8
CSLAYER1
  6
CONTINUOUS
 62
     3
 10
1711.475065
 20
992.911578
 11
1723.972055
 21
1004.436562
  0
LINE
  8
CSLAYER1
  6
CONTINUOUS
 62
     1
 10
1711.446477
 20
992.205050
 11
1711.475065
 21
992.911578
  0
LINE
  8
CSLAYER1
  6
CONTINUOUS
 62
     1
 10
1723.972055
 20
1004.436562
 11
1724.678583
 21
1004.407974
  0
LINE
  8
CSLAYER1
  6
CONTINUOUS
 62
     3
 10
1711.475065
 20
992.911578
 11
1714.273488
 21
989.877140
  0
LINE
  8
CSLAYER1
  6
CONTINUOUS
 62
     3
 10
1723.972055
 20
1004.436562
 11
1735.836009
 21
991.572014
  0
CIRCLE
  8
CSLAYER1
  6
CONTINUOUS
 62
     4
 10
1723.655537
 20
992.241796
 40
3.050000
  0
LINE
  8
CSLAYER1
  6
CONTINUOUS
 62
     3
 10
1722.632491
 20
980.075619
 11
1720.139173
 21
982.779220
  0
LINE
  8
CSLAYER1
  6
CONTINUOUS
 62
     3
 10
1734.339232
 20
993.932556
 11
1747.662687
 21
1006.219724
  0
LINE
  8
CSLAYER1
  6
CONTINUOUS
 62
     3
 10
1723.339019
 20
980.047030
 11
1735.836009
 21
991.572014
  0
LINE
  8
CSLAYER1
  6
CONTINUOUS
 62
     1
 10
1722.632491
 20
980.075619
 11
1723.339019
 21
980.047030
  0
LINE
  8
CSLAYER1
  6
CONTINUOUS
 62
     1
 10
1735.836009
 20
991.572014
 11
1735.864597
 21
992.278543
  0
LINE
  8
CSLAYER1
  6
CONTINUOUS
 62
     3
 10
1723.339019
 20
980.047030
 11
1720.540597
 21
983.081469
  0
LINE
  8
CSLAYER1
  6
CONTINUOUS
 62
     4
 10
1763.706349
 20
1045.501421
 11
1764.858190
 21
1044.252435
  0
LINE
  8
CSLAYER1
  6
CONTINUOUS
 62
     4
 10
1770.547019
 20
1048.409210
 11
1782.071626
 21
1035.912629
  0
LINE
  8
CSLAYER1
  6
CONTINUOUS
 62
     4
 10
1764.404862
 20
1044.743997
 11
1768.926930
 21
1048.914342
  0
LINE
  8
CSLAYER1
  6
CONTINUOUS
 62
     4
 10
1769.572221
 20
1042.048281
 11
1772.645315
 21
1044.882352
  0
LINE
  8
CSLAYER1
  6
CONTINUOUS
 62
     1
 10
1770.547019
 20
1048.409210
 11
1768.926930
 21
1048.914342
  0
ARC
  8
CSLAYER1
  6
CONTINUOUS
 62
     4
 10
1763.643979
 20
1029.119970
 40
18.151494
 50
25.094940
 51
60.270848
  0
ARC
  8
CSLAYER1
  6
CONTINUOUS
 62
     4
 10
1767.874542
 20
1044.213227
 40
4.817468
 50
7.983941
 51
67.983941
  0
LINE
  8
CSLAYER1
  6
CONTINUOUS
 62
     4
 10
1779.976915
 20
1027.858612
 11
1778.825075
 21
1029.107597
  0
LINE
  8
CSLAYER1
  6
CONTINUOUS
 62
     4
 10
1779.278403
 20
1028.616036
 11
1783.094343
 21
1032.135176
  0
LINE
  8
CSLAYER1
  6
CONTINUOUS
 62
     4
 10
1777.008992
 20
1033.984300
 11
1780.082086
 21
1036.818372
  0
ARC
  8
CSLAYER1
  6
CONTINUOUS
 62
     4
 10
1779.029698
 20
1032.117257
 40
4.817468
 50
50.361173
 51
77.381848
  0
LINE
  8
CSLAYER1
  6
CONTINUOUS
 62
     4
 10
1762.922485
 20
1044.778525
 11
1763.706349
 21
1045.501421
  0
LINE
  8
CSLAYER1
  6
CONTINUOUS
 62
     4
 10
1779.193051
 20
1027.135716
 11
1779.976915
 21
1027.858612
  0
POINT
  8
CSLAYER1
 62
     5
 10
1681.643599
 20
953.497512
  0
ARC
  8
CSLAYER1
  6
CONTINUOUS
 62
     4
 10
1681.643599
 20
953.497512
 40
9.050000
 50
-79.069071
 51
10.846697
  0
ARC
  8
CSLAYER1
  6
CONTINUOUS
 62
     4
 10
1667.639619
 20
940.582751
 40
2.980000
 50
-48.059858
 51
25.345910
  0
CIRCLE
  8
CSLAYER1
  6
CONTINUOUS
 62
     4
 10
1681.643599
 20
953.497512
 40
2.980000
  0
ARC
  8
CSLAYER1
  6
CONTINUOUS
 62
     4
 10
1685.075820
 20
935.725910
 40
9.050000
 50
100.930929
 51
164.434860
  0
ARC
  8
CSLAYER1
  6
CONTINUOUS
 62
     4
 10
1681.643599
 20
953.497512
 40
7.800000
 50
206.439126
 51
350.054395
  0
ARC
  8
CSLAYER1
  6
CONTINUOUS
 62
     4
 10
1695.647578
 20
966.412274
 40
7.800000
 50
-84.948336
 51
114.423945
  0
CIRCLE
  8
CSLAYER1
  6
CONTINUOUS
 62
     5
 10
1681.643599
 20
953.497512
 40
2.980000
  0
CIRCLE
  8
CSLAYER1
  6
CONTINUOUS
 62
     4
 10
1695.647578
 20
966.412274
 40
2.980000
  0
ARC
  8
CSLAYER1
  6
CONTINUOUS
 62
     4
 10
1697.021220
 20
950.872869
 40
7.800000
 50
95.051664
 51
170.314124
  0
ARC
  8
CSLAYER1
  6
CONTINUOUS
 62
     4
 10
1667.639619
 20
940.582751
 40
9.050000
 50
284.104726
 51
344.434860
  0
CIRCLE
  8
CSLAYER1
  6
CONTINUOUS
 62
     5
 10
1695.647578
 20
966.412274
 40
2.980000
  0
ARC
  8
CSLAYER1
  6
CONTINUOUS
 62
     4
 10
1667.639619
 20
940.582751
 40
7.800000
 50
-75.043641
 51
53.607296
  0
CIRCLE
  8
CSLAYER1
  6
CONTINUOUS
 62
     4
 10
1841.023052
 20
1062.152443
 40
6.000000
  0
CIRCLE
  8
CSLAYER1
  6
CONTINUOUS
 62
     4
 10
1841.023052
 20
1062.152443
 40
8.000000
  0
CIRCLE
  8
CSLAYER1
  6
CONTINUOUS
 62
     3
 10
1758.388991
 20
1024.273710
 40
7.500000
  0
CIRCLE
  8
CSLAYER1
  6
CONTINUOUS
 62
     3
 10
1758.388991
 20
1024.273710
 40
21.000000
  0
LINE
  8
CSLAYER1
  6
CONTINUOUS
 62
     4
 10
1739.866477
 20
999.029897
 11
1751.275737
 21
987.879698
  0
LINE
  8
CSLAYER1
  6
CONTINUOUS
 62
     4
 10
1743.988688
 20
1002.831486
 11
1754.224312
 21
992.828274
  0
ARC
  8
CSLAYER1
  6
CONTINUOUS
 62
     4
 10
1758.388991
 20
1024.273710
 40
25.400000
 50
68.269581
 51
96.168761
  0
ARC
  8
CSLAYER1
  6
CONTINUOUS
 62
     4
 10
1758.388991
 20
1024.273710
 40
25.400000
 50
172.889958
 51
209.019318
  0
ARC
  8
CSLAYER1
  6
CONTINUOUS
 62
     4
 10
1758.388991
 20
1024.273710
 40
25.400000
 50
9.637820
 51
17.096207
  0
LINE
  8
CSLAYER1
  6
CONTINUOUS
 62
     7
 10
1516.869218
 20
836.713203
 11
1756.823071
 21
1080.652443
  0
LINE
  8
CSLAYER1
  6
CONTINUOUS
 62
     7
 10
1590.111214
 20
765.719037
 11
1595.254114
 21
770.947355
  0
LINE
  8
CSLAYER1
  6
CONTINUOUS
 62
     4
 10
1268.822664
 20
612.038568
 11
1298.218150
 21
583.310543
  0
LINE
  8
CSLAYER1
  6
CENTER
 62
     5
 10
1245.303653
 20
454.266419
 11
1280.442685
 21
454.266419
  0
LINE
  8
CSLAYER1
  6
CENTER
 62
     5
 10
1261.303653
 20
469.822682
 11
1261.303653
 21
438.266419
  0
LINE
  8
CSLAYER1
  6
CENTER
 62
     5
 10
1813.113520
 20
454.266419
 11
1867.714371
 21
454.266419
  0
LINE
  8
CSLAYER1
  6
CENTER
 62
     5
 10
1842.193720
 20
477.983659
 11
1842.193720
 21
431.855354
  0
INSERT
  8
CSLAYER1
  2
BLKF0001
 10
0.0
 20
0.0
 30
0.0
  0
CIRCLE
  8
CSLAYER1
  6
CONTINUOUS
 62
     4
 10
1551.163352
 20
758.209431
 40
15.000000
  0
LINE
  8
CSLAYER1
  6
CONTINUOUS
 62
     3
 10
156.858227
 20
1097.852443
 11
156.858227
 21
1142.852443
  0
LINE
  8
CSLAYER1
  6
CONTINUOUS
 62
     3
 10
300.858227
 20
479.766419
 11
300.858227
 21
1078.152443
  0
LINE
  8
CSLAYER1
  6
CONTINUOUS
 62
     3
 10
309.858227
 20
479.766419
 11
309.858227
 21
1078.152443
  0
LINE
  8
CSLAYER1
  6
CONTINUOUS
 62
     3
 10
320.858227
 20
479.766419
 11
320.858227
 21
1053.502443
  0
LINE
  8
CSLAYER1
  6
CONTINUOUS
 62
     3
 10
329.858227
 20
479.766419
 11
329.858227
 21
1053.502443
  0
LINE
  8
CSLAYER1
  6
CONTINUOUS
 62
     3
 10
156.858227
 20
1142.852443
 11
956.858227
 21
1142.852443
  0
LINE
  8
CSLAYER1
  6
CENTER
 62
     5
 10
315.358227
 20
1024.273710
 11
798.358227
 21
1024.273710
  0
LINE
  8
CSLAYER1
  6
CONTINUOUS
 62
     3
 10
256.858227
 20
479.766419
 11
856.858227
 21
479.766419
  0
LINE
  8
CSLAYER1
  6
CONTINUOUS
 62
     3
 10
256.858227
 20
429.766419
 11
256.858227
 21
479.766419
  0
LINE
  8
CSLAYER1
  6
CONTINUOUS
 62
     3
 10
956.858227
 20
1097.852443
 11
956.858227
 21
1142.852443
  0
LINE
  8
CSLAYER1
  6
CONTINUOUS
 62
     3
 10
812.858227
 20
479.766419
 11
812.858227
 21
1078.152443
  0
LINE
  8
CSLAYER1
  6
CONTINUOUS
 62
     3
 10
803.858227
 20
479.766419
 11
803.858227
 21
1078.152443
  0
LINE
  8
CSLAYER1
  6
CONTINUOUS
 62
     3
 10
792.858227
 20
479.766419
 11
792.858227
 21
1053.502443
  0
LINE
  8
CSLAYER1
  6
CONTINUOUS
 62
     3
 10
783.858227
 20
479.766419
 11
783.858227
 21
1053.502443
  0
LINE
  8
CSLAYER1
  6
CONTINUOUS
 62
     4
 10
793.858227
 20
740.974140
 11
793.858227
 21
713.974140
  0
LINE
  8
CSLAYER1
  6
CONTINUOUS
 62
     4
 10
799.858227
 20
740.474140
 11
799.858227
 21
714.474140
  0
LINE
  8
CSLAYER1
  6
CONTINUOUS
 62
     4
 10
798.858227
 20
741.474140
 11
794.358227
 21
741.474140
  0
LINE
  8
CSLAYER1
  6
CONTINUOUS
 62
     4
 10
799.858227
 20
740.474140
 11
798.858227
 21
741.474140
  0
LINE
  8
CSLAYER1
  6
CONTINUOUS
 62
     4
 10
794.358227
 20
741.474140
 11
793.858227
 21
740.974140
  0
LINE
  8
CSLAYER1
  6
CONTINUOUS
 62
     4
 10
798.858227
 20
741.474140
 11
798.858227
 21
713.474140
  0
LINE
  8
CSLAYER1
  6
CONTINUOUS
 62
     4
 10
794.358227
 20
741.474140
 11
794.358227
 21
713.474140
  0
LINE
  8
CSLAYER1
  6
CONTINUOUS
 62
     4
 10
798.858227
 20
713.474140
 11
794.358227
 21
713.474140
  0
LINE
  8
CSLAYER1
  6
CONTINUOUS
 62
     4
 10
799.858227
 20
714.474140
 11
798.858227
 21
713.474140
  0
LINE
  8
CSLAYER1
  6
CONTINUOUS
 62
     4
 10
794.358227
 20
713.474140
 11
793.858227
 21
713.974140
  0
LINE
  8
CSLAYER1
  6
CONTINUOUS
 62
     4
 10
793.858227
 20
717.474140
 11
792.858227
 21
717.474140
  0
LINE
  8
CSLAYER1
  6
CENTER
 62
     5
 10
831.858227
 20
758.209431
 11
761.810959
 21
758.209431
  0
INSERT
  8
CSLAYER1
  2
BLKF0002
 10
0.0
 20
0.0
 30
0.0
  0
LINE
  8
CSLAYER1
  6
CONTINUOUS
 62
     3
 10
856.858227
 20
429.766419
 11
856.858227
 21
479.766419
  0
LINE
  8
CSLAYER1
  6
CONTINUOUS
 62
     7
 10
755.108227
 20
558.739847
 11
764.608227
 21
558.739847
  0
LINE
  8
CSLAYER1
  6
CONTINUOUS
 62
     7
 10
748.858227
 20
534.475045
 11
767.858227
 21
534.475045
  0
LINE
  8
CSLAYER1
  6
CONTINUOUS
 62
     7
 10
751.858227
 20
483.939797
 11
767.858227
 21
483.939797
  0
LINE
  8
CSLAYER1
  6
CONTINUOUS
 62
     7
 10
745.658227
 20
500.766419
 11
748.858227
 21
500.766419
  0
LINE
  8
CSLAYER1
  6
CONTINUOUS
 62
     4
 10
766.117040
 20
547.474912
 11
783.858227
 21
547.474912
  0
LINE
  8
CSLAYER1
  6
CONTINUOUS
 62
     4
 10
767.456428
 20
537.474912
 11
783.858227
 21
537.474912
  0
LINE
  8
CSLAYER1
  6
CONTINUOUS
 62
     7
 10
767.858227
 20
483.939797
 11
767.858227
 21
503.163425
  0
LINE
  8
CSLAYER1
  6
CONTINUOUS
 62
     7
 10
751.858227
 20
479.766419
 11
751.858227
 21
534.475045
  0
LINE
  8
CSLAYER1
  6
CONTINUOUS
 62
     7
 10
748.858227
 20
479.766419
 11
748.858227
 21
534.475045
  0
LINE
  8
CSLAYER1
  6
CONTINUOUS
 62
     7
 10
745.658227
 20
479.766419
 11
745.658227
 21
500.766419
  0
LINE
  8
CSLAYER1
  6
CONTINUOUS
 62
     7
 10
751.858227
 20
495.894704
 11
767.858227
 21
495.894704
  0
LINE
  8
CSLAYER1
  6
CONTINUOUS
 62
     7
 10
755.108227
 20
558.739847
 11
751.858227
 21
534.475045
  0
LINE
  8
CSLAYER1
  6
CONTINUOUS
 62
     7
 10
764.608227
 20
558.739847
 11
767.858227
 21
534.475045
  0
LINE
  8
CSLAYER1
  6
CONTINUOUS
 62
     7
 10
753.858227
 20
513.163425
 11
783.858227
 21
513.163425
  0
LINE
  8
CSLAYER1
  6
CENTER
 62
     5
 10
753.858227
 20
508.163425
 11
783.858227
 21
508.163425
  0
LINE
  8
CSLAYER1
  6
CONTINUOUS
 62
     7
 10
753.858227
 20
503.163425
 11
783.858227
 21
503.163425
  0
LINE
  8
CSLAYER1
  6
CONTINUOUS
 62
     7
 10
753.858227
 20
503.163425
 11
753.858227
 21
513.163425
  0
LINE
  8
CSLAYER1
  6
CONTINUOUS
 62
     7
 10
767.858227
 20
513.163425
 11
767.858227
 21
534.475045
  0
LINE
  8
CSLAYER1
  6
CONTINUOUS
 62
     3
 10
761.358227
 20
770.709431
 11
762.358227
 21
770.709431
  0
LINE
  8
CSLAYER1
  6
CONTINUOUS
 62
     3
 10
747.358227
 20
769.709431
 11
752.358227
 21
769.709431
  0
LINE
  8
CSLAYER1
  6
CONTINUOUS
 62
     3
 10
762.358227
 20
758.116702
 11
762.358227
 21
774.709431
  0
LINE
  8
CSLAYER1
  6
CONTINUOUS
 62
     3
 10
802.858227
 20
776.259431
 11
802.858227
 21
740.159431
  0
LINE
  8
CSLAYER1
  6
CONTINUOUS
 62
     3
 10
792.858227
 20
777.259431
 11
801.858227
 21
777.259431
  0
LINE
  8
CSLAYER1
  6
CONTINUOUS
 62
     3
 10
763.358227
 20
775.709431
 11
783.858227
 21
775.709431
  0
LINE
  8
CSLAYER1
  6
CONTINUOUS
 62
     3
 10
802.858227
 20
776.259431
 11
801.858227
 21
777.259431
  0
LINE
  8
CSLAYER1
  6
CONTINUOUS
 62
     3
 10
762.358227
 20
774.709431
 11
763.358227
 21
775.709431
  0
LINE
  8
CSLAYER1
  6
CONTINUOUS
 62
     3
 10
797.858227
 20
777.259431
 11
792.858227
 21
782.259431
  0
LINE
  8
CSLAYER1
  6
CONTINUOUS
 62
     3
 10
792.858227
 20
781.976589
 11
797.575384
 21
777.259431
  0
LINE
  8
CSLAYER1
  6
CONTINUOUS
 62
     3
 10
792.858227
 20
781.693746
 11
797.292542
 21
777.259431
  0
LINE
  8
CSLAYER1
  6
CONTINUOUS
 62
     3
 10
792.858227
 20
781.410903
 11
797.009699
 21
777.259431
  0
LINE
  8
CSLAYER1
  6
CONTINUOUS
 62
     3
 10
792.858227
 20
781.128061
 11
796.726856
 21
777.259431
  0
LINE
  8
CSLAYER1
  6
CONTINUOUS
 62
     3
 10
792.858227
 20
780.845218
 11
796.444014
 21
777.259431
  0
LINE
  8
CSLAYER1
  6
CONTINUOUS
 62
     3
 10
792.858227
 20
780.562375
 11
796.161171
 21
777.259431
  0
LINE
  8
CSLAYER1
  6
CONTINUOUS
 62
     3
 10
792.858227
 20
780.279532
 11
795.878328
 21
777.259431
  0
LINE
  8
CSLAYER1
  6
CONTINUOUS
 62
     3
 10
792.858227
 20
779.996690
 11
795.595485
 21
777.259431
  0
LINE
  8
CSLAYER1
  6
CONTINUOUS
 62
     3
 10
792.858227
 20
779.713847
 11
795.312643
 21
777.259431
  0
LINE
  8
CSLAYER1
  6
CONTINUOUS
 62
     3
 10
792.858227
 20
779.431004
 11
795.029800
 21
777.259431
  0
LINE
  8
CSLAYER1
  6
CONTINUOUS
 62
     3
 10
792.858227
 20
779.148162
 11
794.746957
 21
777.259431
  0
LINE
  8
CSLAYER1
  6
CONTINUOUS
 62
     3
 10
792.858227
 20
778.865319
 11
794.464115
 21
777.259431
  0
LINE
  8
CSLAYER1
  6
CONTINUOUS
 62
     3
 10
792.858227
 20
778.582476
 11
794.181272
 21
777.259431
  0
LINE
  8
CSLAYER1
  6
CONTINUOUS
 62
     3
 10
792.858227
 20
778.299633
 11
793.898429
 21
777.259431
  0
LINE
  8
CSLAYER1
  6
CONTINUOUS
 62
     3
 10
792.858227
 20
778.016791
 11
793.615586
 21
777.259431
  0
LINE
  8
CSLAYER1
  6
CONTINUOUS
 62
     3
 10
792.858227
 20
777.733948
 11
793.332744
 21
777.259431
  0
LINE
  8
CSLAYER1
  6
CONTINUOUS
 62
     3
 10
792.858227
 20
777.451105
 11
793.049901
 21
777.259431
  0
LINE
  8
CSLAYER1
  6
CONTINUOUS
 62
     3
 10
783.858227
 20
780.709431
 11
778.858227
 21
775.709431
  0
LINE
  8
CSLAYER1
  6
CONTINUOUS
 62
     3
 10
779.141070
 20
775.709431
 11
783.858227
 21
780.426589
  0
LINE
  8
CSLAYER1
  6
CONTINUOUS
 62
     3
 10
779.423913
 20
775.709431
 11
783.858227
 21
780.143746
  0
LINE
  8
CSLAYER1
  6
CONTINUOUS
 62
     3
 10
779.706755
 20
775.709431
 11
783.858227
 21
779.860903
  0
LINE
  8
CSLAYER1
  6
CONTINUOUS
 62
     3
 10
779.989598
 20
775.709431
 11
783.858227
 21
779.578061
  0
LINE
  8
CSLAYER1
  6
CONTINUOUS
 62
     3
 10
780.272441
 20
775.709431
 11
783.858227
 21
779.295218
  0
LINE
  8
CSLAYER1
  6
CONTINUOUS
 62
     3
 10
780.555283
 20
775.709431
 11
783.858227
 21
779.012375
  0
LINE
  8
CSLAYER1
  6
CONTINUOUS
 62
     3
 10
780.838126
 20
775.709431
 11
783.858227
 21
778.729532
  0
LINE
  8
CSLAYER1
  6
CONTINUOUS
 62
     3
 10
781.120969
 20
775.709431
 11
783.858227
 21
778.446690
  0
LINE
  8
CSLAYER1
  6
CONTINUOUS
 62
     3
 10
781.403811
 20
775.709431
 11
783.858227
 21
778.163847
  0
LINE
  8
CSLAYER1
  6
CONTINUOUS
 62
     3
 10
781.686654
 20
775.709431
 11
783.858227
 21
777.881004
  0
LINE
  8
CSLAYER1
  6
CONTINUOUS
 62
     3
 10
781.969497
 20
775.709431
 11
783.858227
 21
777.598162
  0
LINE
  8
CSLAYER1
  6
CONTINUOUS
 62
     3
 10
782.252340
 20
775.709431
 11
783.858227
 21
777.315319
  0
LINE
  8
CSLAYER1
  6
CONTINUOUS
 62
     3
 10
782.535182
 20
775.709431
 11
783.858227
 21
777.032476
  0
LINE
  8
CSLAYER1
  6
CONTINUOUS
 62
     3
 10
782.818025
 20
775.709431
 11
783.858227
 21
776.749633
  0
LINE
  8
CSLAYER1
  6
CONTINUOUS
 62
     3
 10
783.100868
 20
775.709431
 11
783.858227
 21
776.466791
  0
LINE
  8
CSLAYER1
  6
CONTINUOUS
 62
     3
 10
783.383710
 20
775.709431
 11
783.858227
 21
776.183948
  0
LINE
  8
CSLAYER1
  6
CONTINUOUS
 62
     3
 10
783.666553
 20
775.709431
 11
783.858227
 21
775.901105
  0
LINE
  8
CSLAYER1
  6
CONTINUOUS
 62
     3
 10
752.358227
 20
759.811104
 11
752.358227
 21
812.414266
  0
LINE
  8
CSLAYER1
  6
CONTINUOUS
 62
     3
 10
761.358227
 20
758.286142
 11
761.358227
 21
812.414266
  0
LINE
  8
CSLAYER1
  6
CONTINUOUS
 62
     3
 10
802.858227
 20
770.709431
 11
803.858227
 21
770.709431
  0
LINE
  8
CSLAYER1
  6
CONTINUOUS
 62
     3
 10
799.858227
 20
739.159431
 11
801.858227
 21
739.159431
  0
LINE
  8
CSLAYER1
  6
CONTINUOUS
 62
     3
 10
802.858227
 20
740.159431
 11
801.858227
 21
739.159431
  0
LINE
  8
CSLAYER1
  6
CONTINUOUS
 62
     3
 10
802.858227
 20
745.709431
 11
803.858227
 21
745.709431
  0
LINE
  8
CSLAYER1
  6
CENTER
 62
     5
 10
777.264327
 20
727.474140
 11
799.858227
 21
727.474140
  0
LINE
  8
CSLAYER1
  6
CONTINUOUS
 62
     4
 10
793.858227
 20
737.474140
 11
792.858227
 21
737.474140
  0
LINE
  8
CSLAYER1
  6
CONTINUOUS
 62
     4
 10
319.858227
 20
740.974140
 11
319.858227
 21
713.974140
  0
LINE
  8
CSLAYER1
  6
CONTINUOUS
 62
     4
 10
313.858227
 20
740.474140
 11
313.858227
 21
714.474140
  0
LINE
  8
CSLAYER1
  6
CONTINUOUS
 62
     4
 10
314.858227
 20
741.474140
 11
319.358227
 21
741.474140
  0
LINE
  8
CSLAYER1
  6
CONTINUOUS
 62
     4
 10
313.858227
 20
740.474140
 11
314.858227
 21
741.474140
  0
LINE
  8
CSLAYER1
  6
CONTINUOUS
 62
     4
 10
319.358227
 20
741.474140
 11
319.858227
 21
740.974140
  0
LINE
  8
CSLAYER1
  6
CONTINUOUS
 62
     4
 10
314.858227
 20
741.474140
 11
314.858227
 21
713.474140
  0
LINE
  8
CSLAYER1
  6
CONTINUOUS
 62
     4
 10
319.358227
 20
741.474140
 11
319.358227
 21
713.474140
  0
LINE
  8
CSLAYER1
  6
CONTINUOUS
 62
     4
 10
314.858227
 20
713.474140
 11
319.358227
 21
713.474140
  0
LINE
  8
CSLAYER1
  6
CONTINUOUS
 62
     4
 10
313.858227
 20
714.474140
 11
314.858227
 21
713.474140
  0
LINE
  8
CSLAYER1
  6
CONTINUOUS
 62
     4
 10
319.358227
 20
713.474140
 11
319.858227
 21
713.974140
  0
LINE
  8
CSLAYER1
  6
CONTINUOUS
 62
     4
 10
319.858227
 20
717.474140
 11
320.858227
 21
717.474140
  0
LINE
  8
CSLAYER1
  6
CENTER
 62
     5
 10
281.858227
 20
758.209431
 11
351.905495
 21
758.209431
  0
INSERT
  8
CSLAYER1
  2
BLKF0003
 10
0.0
 20
0.0
 30
0.0
  0
LINE
  8
CSLAYER1
  6
CONTINUOUS
 62
     3
 10
352.358227
 20
770.709431
 11
351.358227
 21
770.709431
  0
LINE
  8
CSLAYER1
  6
CONTINUOUS
 62
     3
 10
366.358227
 20
769.709431
 11
361.358227
 21
769.709431
  0
LINE
  8
CSLAYER1
  6
CONTINUOUS
 62
     3
 10
351.358227
 20
758.116702
 11
351.358227
 21
774.709431
  0
LINE
  8
CSLAYER1
  6
CONTINUOUS
 62
     3
 10
310.858227
 20
776.259431
 11
310.858227
 21
740.159431
  0
LINE
  8
CSLAYER1
  6
CONTINUOUS
 62
     3
 10
320.858227
 20
777.259431
 11
311.858227
 21
777.259431
  0
LINE
  8
CSLAYER1
  6
CONTINUOUS
 62
     3
 10
350.358227
 20
775.709431
 11
329.858227
 21
775.709431
  0
LINE
  8
CSLAYER1
  6
CONTINUOUS
 62
     3
 10
310.858227
 20
776.259431
 11
311.858227
 21
777.259431
  0
LINE
  8
CSLAYER1
  6
CONTINUOUS
 62
     3
 10
351.358227
 20
774.709431
 11
350.358227
 21
775.709431
  0
LINE
  8
CSLAYER1
  6
CONTINUOUS
 62
     3
 10
315.858227
 20
777.259431
 11
320.858227
 21
782.259431
  0
LINE
  8
CSLAYER1
  6
CONTINUOUS
 62
     3
 10
320.858227
 20
781.976589
 11
316.141070
 21
777.259431
  0
LINE
  8
CSLAYER1
  6
CONTINUOUS
 62
     3
 10
320.858227
 20
781.693746
 11
316.423913
 21
777.259431
  0
LINE
  8
CSLAYER1
  6
CONTINUOUS
 62
     3
 10
320.858227
 20
781.410903
 11
316.706755
 21
777.259431
  0
LINE
  8
CSLAYER1
  6
CONTINUOUS
 62
     3
 10
320.858227
 20
781.128061
 11
316.989598
 21
777.259431
  0
LINE
  8
CSLAYER1
  6
CONTINUOUS
 62
     3
 10
320.858227
 20
780.845218
 11
317.272441
 21
777.259431
  0
LINE
  8
CSLAYER1
  6
CONTINUOUS
 62
     3
 10
320.858227
 20
780.562375
 11
317.555283
 21
777.259431
  0
LINE
  8
CSLAYER1
  6
CONTINUOUS
 62
     3
 10
320.858227
 20
780.279532
 11
317.838126
 21
777.259431
  0
LINE
  8
CSLAYER1
  6
CONTINUOUS
 62
     3
 10
320.858227
 20
779.996690
 11
318.120969
 21
777.259431
  0
LINE
  8
CSLAYER1
  6
CONTINUOUS
 62
     3
 10
320.858227
 20
779.713847
 11
318.403811
 21
777.259431
  0
LINE
  8
CSLAYER1
  6
CONTINUOUS
 62
     3
 10
320.858227
 20
779.431004
 11
318.686654
 21
777.259431
  0
LINE
  8
CSLAYER1
  6
CONTINUOUS
 62
     3
 10
320.858227
 20
779.148162
 11
318.969497
 21
777.259431
  0
LINE
  8
CSLAYER1
  6
CONTINUOUS
 62
     3
 10
320.858227
 20
778.865319
 11
319.252340
 21
777.259431
  0
LINE
  8
CSLAYER1
  6
CONTINUOUS
 62
     3
 10
320.858227
 20
778.582476
 11
319.535182
 21
777.259431
  0
LINE
  8
CSLAYER1
  6
CONTINUOUS
 62
     3
 10
320.858227
 20
778.299633
 11
319.818025
 21
777.259431
  0
LINE
  8
CSLAYER1
  6
CONTINUOUS
 62
     3
 10
320.858227
 20
778.016791
 11
320.100868
 21
777.259431
  0
LINE
  8
CSLAYER1
  6
CONTINUOUS
 62
     3
 10
320.858227
 20
777.733948
 11
320.383710
 21
777.259431
  0
LINE
  8
CSLAYER1
  6
CONTINUOUS
 62
     3
 10
320.858227
 20
777.451105
 11
320.666553
 21
777.259431
  0
LINE
  8
CSLAYER1
  6
CONTINUOUS
 62
     3
 10
329.858227
 20
780.709431
 11
334.858227
 21
775.709431
  0
LINE
  8
CSLAYER1
  6
CONTINUOUS
 62
     3
 10
334.575384
 20
775.709431
 11
329.858227
 21
780.426589
  0
LINE
  8
CSLAYER1
  6
CONTINUOUS
 62
     3
 10
334.292542
 20
775.709431
 11
329.858227
 21
780.143746
  0
LINE
  8
CSLAYER1
  6
CONTINUOUS
 62
     3
 10
334.009699
 20
775.709431
 11
329.858227
 21
779.860903
  0
LINE
  8
CSLAYER1
  6
CONTINUOUS
 62
     3
 10
333.726856
 20
775.709431
 11
329.858227
 21
779.578061
  0
LINE
  8
CSLAYER1
  6
CONTINUOUS
 62
     3
 10
333.444014
 20
775.709431
 11
329.858227
 21
779.295218
  0
LINE
  8
CSLAYER1
  6
CONTINUOUS
 62
     3
 10
333.161171
 20
775.709431
 11
329.858227
 21
779.012375
  0
LINE
  8
CSLAYER1
  6
CONTINUOUS
 62
     3
 10
332.878328
 20
775.709431
 11
329.858227
 21
778.729532
  0
LINE
  8
CSLAYER1
  6
CONTINUOUS
 62
     3
 10
332.595485
 20
775.709431
 11
329.858227
 21
778.446690
  0
LINE
  8
CSLAYER1
  6
CONTINUOUS
 62
     3
 10
332.312643
 20
775.709431
 11
329.858227
 21
778.163847
  0
LINE
  8
CSLAYER1
  6
CONTINUOUS
 62
     3
 10
332.029800
 20
775.709431
 11
329.858227
 21
777.881004
  0
LINE
  8
CSLAYER1
  6
CONTINUOUS
 62
     3
 10
331.746957
 20
775.709431
 11
329.858227
 21
777.598162
  0
LINE
  8
CSLAYER1
  6
CONTINUOUS
 62
     3
 10
331.464115
 20
775.709431
 11
329.858227
 21
777.315319
  0
LINE
  8
CSLAYER1
  6
CONTINUOUS
 62
     3
 10
331.181272
 20
775.709431
 11
329.858227
 21
777.032476
  0
LINE
  8
CSLAYER1
  6
CONTINUOUS
 62
     3
 10
330.898429
 20
775.709431
 11
329.858227
 21
776.749633
  0
LINE
  8
CSLAYER1
  6
CONTINUOUS
 62
     3
 10
330.615586
 20
775.709431
 11
329.858227
 21
776.466791
  0
LINE
  8
CSLAYER1
  6
CONTINUOUS
 62
     3
 10
330.332744
 20
775.709431
 11
329.858227
 21
776.183948
  0
LINE
  8
CSLAYER1
  6
CONTINUOUS
 62
     3
 10
330.049901
 20
775.709431
 11
329.858227
 21
775.901105
  0
LINE
  8
CSLAYER1
  6
CONTINUOUS
 62
     5
 10
301.056016
 20
773.209431
 11
298.056016
 21
773.209431
  0
LINE
  8
CSLAYER1
  6
CONTINUOUS
 62
     3
 10
310.858227
 20
770.709431
 11
309.858227
 21
770.709431
  0
LINE
  8
CSLAYER1
  6
CONTINUOUS
 62
     3
 10
313.858227
 20
739.159431
 11
311.858227
 21
739.159431
  0
LINE
  8
CSLAYER1
  6
CONTINUOUS
 62
     3
 10
310.858227
 20
740.159431
 11
311.858227
 21
739.159431
  0
LINE
  8
CSLAYER1
  6
CONTINUOUS
 62
     3
 10
310.858227
 20
745.709431
 11
309.858227
 21
745.709431
  0
LINE
  8
CSLAYER1
  6
CENTER
 62
     5
 10
336.452127
 20
727.474140
 11
313.858227
 21
727.474140
  0
LINE
  8
CSLAYER1
  6
CONTINUOUS
 62
     4
 10
319.858227
 20
737.474140
 11
320.858227
 21
737.474140
  0
LINE
  8
CSLAYER1
  6
CONTINUOUS
 62
     3
 10
361.358227
 20
759.811104
 11
361.358227
 21
812.414266
  0
LINE
  8
CSLAYER1
  6
CONTINUOUS
 62
     3
 10
352.358227
 20
758.286142
 11
352.358227
 21
812.414266
  0
INSERT
  8
CSLAYER1
  2
BLKF0004
 10
0.0
 20
0.0
 30
0.0
  0
LINE
  8
CSLAYER1
  6
CONTINUOUS
 62
     3
 10
1227.103653
 20
1448.158490
 11
2127.103653
 21
1448.158490
  0
LINE
  8
CSLAYER1
  6
CENTER
 62
     5
 10
556.858227
 20
1142.852443
 11
556.858227
 21
429.766419
  0
LINE
  8
CSLAYER1
  6
CENTER
 62
     5
 10
356.858227
 20
759.048623
 11
356.858227
 21
1062.798854
  0
LINE
  8
CSLAYER1
  6
CENTER
 62
     5
 10
756.858227
 20
759.048623
 11
756.858227
 21
1062.798854
  0
LINE
  8
CSLAYER1
  6
CONTINUOUS
 62
     7
 10
495.858227
 20
782.600805
 11
617.858227
 21
782.600805
  0
LINE
  8
CSLAYER1
  6
CONTINUOUS
 62
     7
 10
495.858227
 20
759.715055
 11
617.858227
 21
759.715055
  0
LINE
  8
CSLAYER1
  6
CONTINUOUS
 62
     7
 10
618.858227
 20
541.527421
 11
618.622298
 21
545.348383
  0
LINE
  8
CSLAYER1
  6
CONTINUOUS
 62
     7
 10
618.622298
 20
545.348383
 11
617.916308
 21
549.140265
  0
LINE
  8
CSLAYER1
  6
CONTINUOUS
 62
     7
 10
617.916308
 20
549.140265
 11
616.745628
 21
552.874208
  0
LINE
  8
CSLAYER1
  6
CONTINUOUS
 62
     7
 10
616.745628
 20
552.874208
 11
615.119170
 21
556.521796
  0
LINE
  8
CSLAYER1
  6
CONTINUOUS
 62
     7
 10
615.119170
 20
556.521796
 11
613.049310
 21
560.055268
  0
LINE
  8
CSLAYER1
  6
CONTINUOUS
 62
     7
 10
613.049310
 20
560.055268
 11
610.551802
 21
563.447731
  0
LINE
  8
CSLAYER1
  6
CONTINUOUS
 62
     7
 10
610.551802
 20
563.447731
 11
607.645654
 21
566.673368
  0
LINE
  8
CSLAYER1
  6
CONTINUOUS
 62
     7
 10
607.645654
 20
566.673368
 11
604.352983
 21
569.707628
  0
LINE
  8
CSLAYER1
  6
CONTINUOUS
 62
     7
 10
604.352983
 20
569.707628
 11
600.698848
 21
572.527421
  0
LINE
  8
CSLAYER1
  6
CONTINUOUS
 62
     7
 10
600.698848
 20
572.527421
 11
596.711059
 21
575.111285
  0
LINE
  8
CSLAYER1
  6
CONTINUOUS
 62
     7
 10
596.711059
 20
575.111285
 11
592.419966
 21
577.439555
  0
LINE
  8
CSLAYER1
  6
CONTINUOUS
 62
     7
 10
592.419966
 20
577.439555
 11
587.858227
 21
579.494512
  0
LINE
  8
CSLAYER1
  6
CONTINUOUS
 62
     7
 10
587.858227
 20
579.494512
 11
583.060559
 21
581.260517
  0
LINE
  8
CSLAYER1
  6
CONTINUOUS
 62
     7
 10
583.060559
 20
581.260517
 11
578.063476
 21
582.724128
  0
LINE
  8
CSLAYER1
  6
CONTINUOUS
 62
     7
 10
578.063476
 20
582.724128
 11
572.905008
 21
583.874208
  0
LINE
  8
CSLAYER1
  6
CONTINUOUS
 62
     7
 10
572.905008
 20
583.874208
 11
567.624414
 21
584.702004
  0
LINE
  8
CSLAYER1
  6
CONTINUOUS
 62
     7
 10
567.624414
 20
584.702004
 11
562.261883
 21
585.201215
  0
LINE
  8
CSLAYER1
  6
CONTINUOUS
 62
     7
 10
562.261883
 20
585.201215
 11
556.858227
 21
585.368041
  0
LINE
  8
CSLAYER1
  6
CONTINUOUS
 62
     7
 10
556.858227
 20
585.368041
 11
551.454571
 21
585.201215
  0
LINE
  8
CSLAYER1
  6
CONTINUOUS
 62
     7
 10
551.454571
 20
585.201215
 11
546.092040
 21
584.702004
  0
LINE
  8
CSLAYER1
  6
CONTINUOUS
 62
     7
 10
546.092040
 20
584.702004
 11
540.811446
 21
583.874208
  0
LINE
  8
CSLAYER1
  6
CONTINUOUS
 62
     7
 10
540.811446
 20
583.874208
 11
535.652978
 21
582.724128
  0
LINE
  8
CSLAYER1
  6
CONTINUOUS
 62
     7
 10
535.652978
 20
582.724128
 11
530.655895
 21
581.260517
  0
LINE
  8
CSLAYER1
  6
CONTINUOUS
 62
     7
 10
530.655895
 20
581.260517
 11
525.858227
 21
579.494512
  0
LINE
  8
CSLAYER1
  6
CONTINUOUS
 62
     7
 10
525.858227
 20
579.494512
 11
521.296488
 21
577.439555
  0
LINE
  8
CSLAYER1
  6
CONTINUOUS
 62
     7
 10
521.296488
 20
577.439555
 11
517.005395
 21
575.111285
  0
LINE
  8
CSLAYER1
  6
CONTINUOUS
 62
     7
 10
517.005395
 20
575.111285
 11
513.017607
 21
572.527421
  0
LINE
  8
CSLAYER1
  6
CONTINUOUS
 62
     7
 10
513.017607
 20
572.527421
 11
509.363472
 21
569.707628
  0
LINE
  8
CSLAYER1
  6
CONTINUOUS
 62
     7
 10
509.363472
 20
569.707628
 11
506.070800
 21
566.673368
  0
LINE
  8
CSLAYER1
  6
CONTINUOUS
 62
     7
 10
506.070800
 20
566.673368
 11
503.164652
 21
563.447731
  0
LINE
  8
CSLAYER1
  6
CONTINUOUS
 62
     7
 10
503.164652
 20
563.447731
 11
500.667144
 21
560.055268
  0
LINE
  8
CSLAYER1
  6
CONTINUOUS
 62
     7
 10
500.667144
 20
560.055268
 11
498.597285
 21
556.521796
  0
LINE
  8
CSLAYER1
  6
CONTINUOUS
 62
     7
 10
498.597285
 20
556.521796
 11
496.970826
 21
552.874208
  0
LINE
  8
CSLAYER1
  6
CONTINUOUS
 62
     7
 10
496.970826
 20
552.874208
 11
495.800146
 21
549.140265
  0
LINE
  8
CSLAYER1
  6
CONTINUOUS
 62
     7
 10
495.800146
 20
549.140265
 11
495.094156
 21
545.348383
  0
LINE
  8
CSLAYER1
  6
CONTINUOUS
 62
     7
 10
495.094156
 20
545.348383
 11
494.858227
 21
541.527421
  0
LINE
  8
CSLAYER1
  6
CONTINUOUS
 62
     7
 10
494.858227
 20
541.527421
 11
495.094156
 21
537.706459
  0
LINE
  8
CSLAYER1
  6
CONTINUOUS
 62
     7
 10
495.094156
 20
537.706459
 11
495.800146
 21
533.914577
  0
LINE
  8
CSLAYER1
  6
CONTINUOUS
 62
     7
 10
495.800146
 20
533.914577
 11
496.970826
 21
530.180633
  0
LINE
  8
CSLAYER1
  6
CONTINUOUS
 62
     7
 10
496.970826
 20
530.180633
 11
498.597285
 21
526.533046
  0
LINE
  8
CSLAYER1
  6
CONTINUOUS
 62
     7
 10
498.597285
 20
526.533046
 11
500.667144
 21
522.999574
  0
LINE
  8
CSLAYER1
  6
CONTINUOUS
 62
     7
 10
500.667144
 20
522.999574
 11
503.164652
 21
519.607111
  0
LINE
  8
CSLAYER1
  6
CONTINUOUS
 62
     7
 10
503.164652
 20
519.607111
 11
506.070800
 21
516.381474
  0
LINE
  8
CSLAYER1
  6
CONTINUOUS
 62
     7
 10
506.070800
 20
516.381474
 11
509.363472
 21
513.347213
  0
LINE
  8
CSLAYER1
  6
CONTINUOUS
 62
     7
 10
509.363472
 20
513.347213
 11
513.017607
 21
510.527421
  0
LINE
  8
CSLAYER1
  6
CONTINUOUS
 62
     7
 10
513.017607
 20
510.527421
 11
517.005395
 21
507.943557
  0
LINE
  8
CSLAYER1
  6
CONTINUOUS
 62
     7
 10
517.005395
 20
507.943557
 11
521.296488
 21
505.615287
  0
LINE
  8
CSLAYER1
  6
CONTINUOUS
 62
     7
 10
521.296488
 20
505.615287
 11
525.858227
 21
503.560330
  0
LINE
  8
CSLAYER1
  6
CONTINUOUS
 62
     7
 10
525.858227
 20
503.560330
 11
530.655895
 21
501.794325
  0
LINE
  8
CSLAYER1
  6
CONTINUOUS
 62
     7
 10
530.655895
 20
501.794325
 11
535.652978
 21
500.330713
  0
LINE
  8
CSLAYER1
  6
CONTINUOUS
 62
     7
 10
535.652978
 20
500.330713
 11
540.811446
 21
499.180633
  0
LINE
  8
CSLAYER1
  6
CONTINUOUS
 62
     7
 10
540.811446
 20
499.180633
 11
546.092040
 21
498.352838
  0
LINE
  8
CSLAYER1
  6
CONTINUOUS
 62
     7
 10
546.092040
 20
498.352838
 11
551.454571
 21
497.853627
  0
LINE
  8
CSLAYER1
  6
CONTINUOUS
 62
     7
 10
551.454571
 20
497.853627
 11
556.858227
 21
497.686800
  0
LINE
  8
CSLAYER1
  6
CONTINUOUS
 62
     7
 10
556.858227
 20
497.686800
 11
562.261883
 21
497.853627
  0
LINE
  8
CSLAYER1
  6
CONTINUOUS
 62
     7
 10
562.261883
 20
497.853627
 11
567.624414
 21
498.352838
  0
LINE
  8
CSLAYER1
  6
CONTINUOUS
 62
     7
 10
567.624414
 20
498.352838
 11
572.905008
 21
499.180633
  0
LINE
  8
CSLAYER1
  6
CONTINUOUS
 62
     7
 10
572.905008
 20
499.180633
 11
578.063476
 21
500.330713
  0
LINE
  8
CSLAYER1
  6
CONTINUOUS
 62
     7
 10
578.063476
 20
500.330713
 11
583.060559
 21
501.794325
  0
LINE
  8
CSLAYER1
  6
CONTINUOUS
 62
     7
 10
583.060559
 20
501.794325
 11
587.858227
 21
503.560330
  0
LINE
  8
CSLAYER1
  6
CONTINUOUS
 62
     7
 10
587.858227
 20
503.560330
 11
592.419966
 21
505.615287
  0
LINE
  8
CSLAYER1
  6
CONTINUOUS
 62
     7
 10
592.419966
 20
505.615287
 11
596.711059
 21
507.943557
  0
LINE
  8
CSLAYER1
  6
CONTINUOUS
 62
     7
 10
596.711059
 20
507.943557
 11
600.698848
 21
510.527421
  0
LINE
  8
CSLAYER1
  6
CONTINUOUS
 62
     7
 10
600.698848
 20
510.527421
 11
604.352983
 21
513.347213
  0
LINE
  8
CSLAYER1
  6
CONTINUOUS
 62
     7
 10
604.352983
 20
513.347213
 11
607.645654
 21
516.381474
  0
LINE
  8
CSLAYER1
  6
CONTINUOUS
 62
     7
 10
607.645654
 20
516.381474
 11
610.551802
 21
519.607111
  0
LINE
  8
CSLAYER1
  6
CONTINUOUS
 62
     7
 10
610.551802
 20
519.607111
 11
613.049310
 21
522.999574
  0
LINE
  8
CSLAYER1
  6
CONTINUOUS
 62
     7
 10
613.049310
 20
522.999574
 11
615.119170
 21
526.533046
  0
LINE
  8
CSLAYER1
  6
CONTINUOUS
 62
     7
 10
615.119170
 20
526.533046
 11
616.745628
 21
530.180633
  0
LINE
  8
CSLAYER1
  6
CONTINUOUS
 62
     7
 10
616.745628
 20
530.180633
 11
617.916308
 21
533.914577
  0
LINE
  8
CSLAYER1
  6
CONTINUOUS
 62
     7
 10
617.916308
 20
533.914577
 11
618.622298
 21
537.706459
  0
LINE
  8
CSLAYER1
  6
CONTINUOUS
 62
     7
 10
618.622298
 20
537.706459
 11
618.858227
 21
541.527421
  0
LINE
  8
CSLAYER1
  6
CONTINUOUS
 62
     7
 10
600.858227
 20
535.805983
 11
600.690794
 21
538.517634
  0
LINE
  8
CSLAYER1
  6
CONTINUOUS
 62
     7
 10
600.690794
 20
538.517634
 11
600.189768
 21
541.208647
  0
LINE
  8
CSLAYER1
  6
CONTINUOUS
 62
     7
 10
600.189768
 20
541.208647
 11
599.358963
 21
543.858542
  0
LINE
  8
CSLAYER1
  6
CONTINUOUS
 62
     7
 10
599.358963
 20
543.858542
 11
598.204702
 21
546.447153
  0
LINE
  8
CSLAYER1
  6
CONTINUOUS
 62
     7
 10
598.204702
 20
546.447153
 11
596.735770
 21
548.954778
  0
LINE
  8
CSLAYER1
  6
CONTINUOUS
 62
     7
 10
596.735770
 20
548.954778
 11
594.963345
 21
551.362333
  0
LINE
  8
CSLAYER1
  6
CONTINUOUS
 62
     7
 10
594.963345
 20
551.362333
 11
592.900917
 21
553.651494
  0
LINE
  8
CSLAYER1
  6
CONTINUOUS
 62
     7
 10
592.900917
 20
553.651494
 11
590.564183
 21
555.804840
  0
LINE
  8
CSLAYER1
  6
CONTINUOUS
 62
     7
 10
590.564183
 20
555.804840
 11
587.970925
 21
557.805983
  0
LINE
  8
CSLAYER1
  6
CONTINUOUS
 62
     7
 10
587.970925
 20
557.805983
 11
585.140882
 21
559.639693
  0
LINE
  8
CSLAYER1
  6
CONTINUOUS
 62
     7
 10
585.140882
 20
559.639693
 11
582.095590
 21
561.292014
  0
LINE
  8
CSLAYER1
  6
CONTINUOUS
 62
     7
 10
582.095590
 20
561.292014
 11
578.858227
 21
562.750371
  0
LINE
  8
CSLAYER1
  6
CONTINUOUS
 62
     7
 10
578.858227
 20
562.750371
 11
575.453431
 21
564.003664
  0
LINE
  8
CSLAYER1
  6
CONTINUOUS
 62
     7
 10
575.453431
 20
564.003664
 11
571.907113
 21
565.042356
  0
LINE
  8
CSLAYER1
  6
CONTINUOUS
 62
     7
 10
571.907113
 20
565.042356
 11
568.246265
 21
565.858542
  0
LINE
  8
CSLAYER1
  6
CONTINUOUS
 62
     7
 10
568.246265
 20
565.858542
 11
564.498747
 21
566.446010
  0
LINE
  8
CSLAYER1
  6
CONTINUOUS
 62
     7
 10
564.498747
 20
566.446010
 11
560.693080
 21
566.800289
  0
LINE
  8
CSLAYER1
  6
CONTINUOUS
 62
     7
 10
560.693080
 20
566.800289
 11
556.858227
 21
566.918682
  0
LINE
  8
CSLAYER1
  6
CONTINUOUS
 62
     7
 10
556.858227
 20
566.918682
 11
553.023374
 21
566.800289
  0
LINE
  8
CSLAYER1
  6
CONTINUOUS
 62
     7
 10
553.023374
 20
566.800289
 11
549.217707
 21
566.446010
  0
LINE
  8
CSLAYER1
  6
CONTINUOUS
 62
     7
 10
549.217707
 20
566.446010
 11
545.470189
 21
565.858542
  0
LINE
  8
CSLAYER1
  6
CONTINUOUS
 62
     7
 10
545.470189
 20
565.858542
 11
541.809341
 21
565.042356
  0
LINE
  8
CSLAYER1
  6
CONTINUOUS
 62
     7
 10
541.809341
 20
565.042356
 11
538.263024
 21
564.003664
  0
LINE
  8
CSLAYER1
  6
CONTINUOUS
 62
     7
 10
538.263024
 20
564.003664
 11
534.858227
 21
562.750371
  0
LINE
  8
CSLAYER1
  6
CONTINUOUS
 62
     7
 10
534.858227
 20
562.750371
 11
531.620864
 21
561.292014
  0
LINE
  8
CSLAYER1
  6
CONTINUOUS
 62
     7
 10
531.620864
 20
561.292014
 11
528.575572
 21
559.639693
  0
LINE
  8
CSLAYER1
  6
CONTINUOUS
 62
     7
 10
528.575572
 20
559.639693
 11
525.745529
 21
557.805983
  0
LINE
  8
CSLAYER1
  6
CONTINUOUS
 62
     7
 10
525.745529
 20
557.805983
 11
523.152272
 21
555.804840
  0
LINE
  8
CSLAYER1
  6
CONTINUOUS
 62
     7
 10
523.152272
 20
555.804840
 11
520.815537
 21
553.651494
  0
LINE
  8
CSLAYER1
  6
CONTINUOUS
 62
     7
 10
520.815537
 20
553.651494
 11
518.753109
 21
551.362333
  0
LINE
  8
CSLAYER1
  6
CONTINUOUS
 62
     7
 10
518.753109
 20
551.362333
 11
516.980684
 21
548.954778
  0
LINE
  8
CSLAYER1
  6
CONTINUOUS
 62
     7
 10
516.980684
 20
548.954778
 11
515.511752
 21
546.447153
  0
LINE
  8
CSLAYER1
  6
CONTINUOUS
 62
     7
 10
515.511752
 20
546.447153
 11
514.357491
 21
543.858542
  0
LINE
  8
CSLAYER1
  6
CONTINUOUS
 62
     7
 10
514.357491
 20
543.858542
 11
513.526686
 21
541.208647
  0
LINE
  8
CSLAYER1
  6
CONTINUOUS
 62
     7
 10
513.526686
 20
541.208647
 11
513.025660
 21
538.517634
  0
LINE
  8
CSLAYER1
  6
CONTINUOUS
 62
     7
 10
513.025660
 20
538.517634
 11
512.858227
 21
535.805983
  0
LINE
  8
CSLAYER1
  6
CONTINUOUS
 62
     7
 10
512.858227
 20
535.805983
 11
513.025660
 21
533.094333
  0
LINE
  8
CSLAYER1
  6
CONTINUOUS
 62
     7
 10
513.025660
 20
533.094333
 11
513.526686
 21
530.403320
  0
LINE
  8
CSLAYER1
  6
CONTINUOUS
 62
     7
 10
513.526686
 20
530.403320
 11
514.357491
 21
527.753424
  0
LINE
  8
CSLAYER1
  6
CONTINUOUS
 62
     7
 10
514.357491
 20
527.753424
 11
515.511752
 21
525.164814
  0
LINE
  8
CSLAYER1
  6
CONTINUOUS
 62
     7
 10
515.511752
 20
525.164814
 11
516.980684
 21
522.657189
  0
LINE
  8
CSLAYER1
  6
CONTINUOUS
 62
     7
 10
516.980684
 20
522.657189
 11
518.753109
 21
520.249634
  0
LINE
  8
CSLAYER1
  6
CONTINUOUS
 62
     7
 10
518.753109
 20
520.249634
 11
520.815537
 21
517.960473
  0
LINE
  8
CSLAYER1
  6
CONTINUOUS
 62
     7
 10
520.815537
 20
517.960473
 11
523.152272
 21
515.807126
  0
LINE
  8
CSLAYER1
  6
CONTINUOUS
 62
     7
 10
523.152272
 20
515.807126
 11
525.745529
 21
513.805983
  0
LINE
  8
CSLAYER1
  6
CONTINUOUS
 62
     7
 10
525.745529
 20
513.805983
 11
528.575572
 21
511.972274
  0
LINE
  8
CSLAYER1
  6
CONTINUOUS
 62
     7
 10
528.575572
 20
511.972274
 11
531.620864
 21
510.319953
  0
LINE
  8
CSLAYER1
  6
CONTINUOUS
 62
     7
 10
531.620864
 20
510.319953
 11
534.858227
 21
508.861596
  0
LINE
  8
CSLAYER1
  6
CONTINUOUS
 62
     7
 10
534.858227
 20
508.861596
 11
538.263024
 21
507.608303
  0
LINE
  8
CSLAYER1
  6
CONTINUOUS
 62
     7
 10
538.263024
 20
507.608303
 11
541.809341
 21
506.569610
  0
LINE
  8
CSLAYER1
  6
CONTINUOUS
 62
     7
 10
541.809341
 20
506.569610
 11
545.470189
 21
505.753424
  0
LINE
  8
CSLAYER1
  6
CONTINUOUS
 62
     7
 10
545.470189
 20
505.753424
 11
549.217707
 21
505.165957
  0
LINE
  8
CSLAYER1
  6
CONTINUOUS
 62
     7
 10
549.217707
 20
505.165957
 11
553.023374
 21
504.811678
  0
LINE
  8
CSLAYER1
  6
CONTINUOUS
 62
     7
 10
553.023374
 20
504.811678
 11
556.858227
 21
504.693285
  0
LINE
  8
CSLAYER1
  6
CONTINUOUS
 62
     7
 10
556.858227
 20
504.693285
 11
560.693080
 21
504.811678
  0
LINE
  8
CSLAYER1
  6
CONTINUOUS
 62
     7
 10
560.693080
 20
504.811678
 11
564.498747
 21
505.165957
  0
LINE
  8
CSLAYER1
  6
CONTINUOUS
 62
     7
 10
564.498747
 20
505.165957
 11
568.246265
 21
505.753424
  0
LINE
  8
CSLAYER1
  6
CONTINUOUS
 62
     7
 10
568.246265
 20
505.753424
 11
571.907113
 21
506.569610
  0
LINE
  8
CSLAYER1
  6
CONTINUOUS
 62
     7
 10
571.907113
 20
506.569610
 11
575.453431
 21
507.608303
  0
LINE
  8
CSLAYER1
  6
CONTINUOUS
 62
     7
 10
575.453431
 20
507.608303
 11
578.858227
 21
508.861596
  0
LINE
  8
CSLAYER1
  6
CONTINUOUS
 62
     7
 10
578.858227
 20
508.861596
 11
582.095590
 21
510.319953
  0
LINE
  8
CSLAYER1
  6
CONTINUOUS
 62
     7
 10
582.095590
 20
510.319953
 11
585.140882
 21
511.972274
  0
LINE
  8
CSLAYER1
  6
CONTINUOUS
 62
     7
 10
585.140882
 20
511.972274
 11
587.970925
 21
513.805983
  0
LINE
  8
CSLAYER1
  6
CONTINUOUS
 62
     7
 10
587.970925
 20
513.805983
 11
590.564183
 21
515.807126
  0
LINE
  8
CSLAYER1
  6
CONTINUOUS
 62
     7
 10
590.564183
 20
515.807126
 11
592.900917
 21
517.960473
  0
LINE
  8
CSLAYER1
  6
CONTINUOUS
 62
     7
 10
592.900917
 20
517.960473
 11
594.963345
 21
520.249634
  0
LINE
  8
CSLAYER1
  6
CONTINUOUS
 62
     7
 10
594.963345
 20
520.249634
 11
596.735770
 21
522.657189
  0
LINE
  8
CSLAYER1
  6
CONTINUOUS
 62
     7
 10
596.735770
 20
522.657189
 11
598.204702
 21
525.164814
  0
LINE
  8
CSLAYER1
  6
CONTINUOUS
 62
     7
 10
598.204702
 20
525.164814
 11
599.358963
 21
527.753424
  0
LINE
  8
CSLAYER1
  6
CONTINUOUS
 62
     7
 10
599.358963
 20
527.753424
 11
600.189768
 21
530.403320
  0
LINE
  8
CSLAYER1
  6
CONTINUOUS
 62
     7
 10
600.189768
 20
530.403320
 11
600.690794
 21
533.094333
  0
LINE
  8
CSLAYER1
  6
CONTINUOUS
 62
     7
 10
600.690794
 20
533.094333
 11
600.858227
 21
535.805983
  0
LINE
  8
CSLAYER1
  6
CONTINUOUS
 62
     7
 10
611.858227
 20
747.813833
 11
611.858227
 21
689.989635
  0
LINE
  8
CSLAYER1
  6
CONTINUOUS
 62
     7
 10
501.858227
 20
747.813833
 11
501.858227
 21
689.989635
  0
LINE
  8
CSLAYER1
  6
CONTINUOUS
 62
     7
 10
511.858227
 20
754.473000
 11
601.858227
 21
754.473000
  0
LINE
  8
CSLAYER1
  6
CONTINUOUS
 62
     7
 10
511.858227
 20
745.175664
 11
601.858227
 21
745.175664
  0
LINE
  8
CSLAYER1
  6
CONTINUOUS
 62
     7
 10
618.858227
 20
582.292663
 11
618.858227
 21
541.527421
  0
LINE
  8
CSLAYER1
  6
CONTINUOUS
 62
     7
 10
494.858227
 20
582.292663
 11
494.858227
 21
541.527421
  0
LINE
  8
CSLAYER1
  6
CONTINUOUS
 62
     7
 10
616.858227
 20
673.120483
 11
616.858227
 21
593.386930
  0
LINE
  8
CSLAYER1
  6
CONTINUOUS
 62
     7
 10
611.858227
 20
747.401932
 11
611.820174
 21
748.018216
  0
LINE
  8
CSLAYER1
  6
CONTINUOUS
 62
     7
 10
611.820174
 20
748.018216
 11
611.706305
 21
748.629810
  0
LINE
  8
CSLAYER1
  6
CONTINUOUS
 62
     7
 10
611.706305
 20
748.629810
 11
611.517485
 21
749.232059
  0
LINE
  8
CSLAYER1
  6
CONTINUOUS
 62
     7
 10
611.517485
 20
749.232059
 11
611.255153
 21
749.820380
  0
LINE
  8
CSLAYER1
  6
CONTINUOUS
 62
     7
 10
611.255153
 20
749.820380
 11
610.921305
 21
750.390294
  0
LINE
  8
CSLAYER1
  6
CONTINUOUS
 62
     7
 10
610.921305
 20
750.390294
 11
610.518481
 21
750.937466
  0
LINE
  8
CSLAYER1
  6
CONTINUOUS
 62
     7
 10
610.518481
 20
750.937466
 11
610.049748
 21
751.457730
  0
LINE
  8
CSLAYER1
  6
CONTINUOUS
 62
     7
 10
610.049748
 20
751.457730
 11
609.518672
 21
751.947127
  0
LINE
  8
CSLAYER1
  6
CONTINUOUS
 62
     7
 10
609.518672
 20
751.947127
 11
608.929295
 21
752.401932
  0
LINE
  8
CSLAYER1
  6
CONTINUOUS
 62
     7
 10
608.929295
 20
752.401932
 11
608.286103
 21
752.818684
  0
LINE
  8
CSLAYER1
  6
CONTINUOUS
 62
     7
 10
608.286103
 20
752.818684
 11
607.593991
 21
753.194212
  0
LINE
  8
CSLAYER1
  6
CONTINUOUS
 62
     7
 10
607.593991
 20
753.194212
 11
606.858227
 21
753.525656
  0
LINE
  8
CSLAYER1
  6
CONTINUOUS
 62
     7
 10
606.858227
 20
753.525656
 11
606.084410
 21
753.810496
  0
LINE
  8
CSLAYER1
  6
CONTINUOUS
 62
     7
 10
606.084410
 20
753.810496
 11
605.278429
 21
754.046562
  0
LINE
  8
CSLAYER1
  6
CONTINUOUS
 62
     7
 10
605.278429
 20
754.046562
 11
604.446418
 21
754.232059
  0
LINE
  8
CSLAYER1
  6
CONTINUOUS
 62
     7
 10
604.446418
 20
754.232059
 11
603.594709
 21
754.365574
  0
LINE
  8
CSLAYER1
  6
CONTINUOUS
 62
     7
 10
603.594709
 20
754.365574
 11
602.729785
 21
754.446092
  0
LINE
  8
CSLAYER1
  6
CONTINUOUS
 62
     7
 10
602.729785
 20
754.446092
 11
601.858227
 21
754.473000
  0
LINE
  8
CSLAYER1
  6
CONTINUOUS
 62
     7
 10
611.858227
 20
738.104596
 11
611.820174
 21
738.720880
  0
LINE
  8
CSLAYER1
  6
CONTINUOUS
 62
     7
 10
611.820174
 20
738.720880
 11
611.706305
 21
739.332474
  0
LINE
  8
CSLAYER1
  6
CONTINUOUS
 62
     7
 10
611.706305
 20
739.332474
 11
611.517485
 21
739.934723
  0
LINE
  8
CSLAYER1
  6
CONTINUOUS
 62
     7
 10
611.517485
 20
739.934723
 11
611.255153
 21
740.523044
  0
LINE
  8
CSLAYER1
  6
CONTINUOUS
 62
     7
 10
611.255153
 20
740.523044
 11
610.921305
 21
741.092958
  0
LINE
  8
CSLAYER1
  6
CONTINUOUS
 62
     7
 10
610.921305
 20
741.092958
 11
610.518481
 21
741.640130
  0
LINE
  8
CSLAYER1
  6
CONTINUOUS
 62
     7
 10
610.518481
 20
741.640130
 11
610.049748
 21
742.160394
  0
LINE
  8
CSLAYER1
  6
CONTINUOUS
 62
     7
 10
610.049748
 20
742.160394
 11
609.518672
 21
742.649791
  0
LINE
  8
CSLAYER1
  6
CONTINUOUS
 62
     7
 10
609.518672
 20
742.649791
 11
608.929295
 21
743.104596
  0
LINE
  8
CSLAYER1
  6
CONTINUOUS
 62
     7
 10
608.929295
 20
743.104596
 11
608.286103
 21
743.521348
  0
LINE
  8
CSLAYER1
  6
CONTINUOUS
 62
     7
 10
608.286103
 20
743.521348
 11
607.593991
 21
743.896876
  0
LINE
  8
CSLAYER1
  6
CONTINUOUS
 62
     7
 10
607.593991
 20
743.896876
 11
606.858227
 21
744.228320
  0
LINE
  8
CSLAYER1
  6
CONTINUOUS
 62
     7
 10
606.858227
 20
744.228320
 11
606.084410
 21
744.513160
  0
LINE
  8
CSLAYER1
  6
CONTINUOUS
 62
     7
 10
606.084410
 20
744.513160
 11
605.278429
 21
744.749226
  0
LINE
  8
CSLAYER1
  6
CONTINUOUS
 62
     7
 10
605.278429
 20
744.749226
 11
604.446418
 21
744.934723
  0
LINE
  8
CSLAYER1
  6
CONTINUOUS
 62
     7
 10
604.446418
 20
744.934723
 11
603.594709
 21
745.068238
  0
LINE
  8
CSLAYER1
  6
CONTINUOUS
 62
     7
 10
603.594709
 20
745.068238
 11
602.729785
 21
745.148756
  0
LINE
  8
CSLAYER1
  6
CONTINUOUS
 62
     7
 10
602.729785
 20
745.148756
 11
601.858227
 21
745.175664
  0
LINE
  8
CSLAYER1
  6
CONTINUOUS
 62
     7
 10
501.858227
 20
747.401932
 11
501.896280
 21
748.018216
  0
LINE
  8
CSLAYER1
  6
CONTINUOUS
 62
     7
 10
501.896280
 20
748.018216
 11
502.010150
 21
748.629810
  0
LINE
  8
CSLAYER1
  6
CONTINUOUS
 62
     7
 10
502.010150
 20
748.629810
 11
502.198969
 21
749.232059
  0
LINE
  8
CSLAYER1
  6
CONTINUOUS
 62
     7
 10
502.198969
 20
749.232059
 11
502.461301
 21
749.820380
  0
LINE
  8
CSLAYER1
  6
CONTINUOUS
 62
     7
 10
502.461301
 20
749.820380
 11
502.795149
 21
750.390294
  0
LINE
  8
CSLAYER1
  6
CONTINUOUS
 62
     7
 10
502.795149
 20
750.390294
 11
503.197973
 21
750.937466
  0
LINE
  8
CSLAYER1
  6
CONTINUOUS
 62
     7
 10
503.197973
 20
750.937466
 11
503.666707
 21
751.457730
  0
LINE
  8
CSLAYER1
  6
CONTINUOUS
 62
     7
 10
503.666707
 20
751.457730
 11
504.197783
 21
751.947127
  0
LINE
  8
CSLAYER1
  6
CONTINUOUS
 62
     7
 10
504.197783
 20
751.947127
 11
504.787159
 21
752.401932
  0
LINE
  8
CSLAYER1
  6
CONTINUOUS
 62
     7
 10
504.787159
 20
752.401932
 11
505.430351
 21
752.818684
  0
LINE
  8
CSLAYER1
  6
CONTINUOUS
 62
     7
 10
505.430351
 20
752.818684
 11
506.122463
 21
753.194212
  0
LINE
  8
CSLAYER1
  6
CONTINUOUS
 62
     7
 10
506.122463
 20
753.194212
 11
506.858227
 21
753.525656
  0
LINE
  8
CSLAYER1
  6
CONTINUOUS
 62
     7
 10
506.858227
 20
753.525656
 11
507.632044
 21
753.810496
  0
LINE
  8
CSLAYER1
  6
CONTINUOUS
 62
     7
 10
507.632044
 20
753.810496
 11
508.438026
 21
754.046562
  0
LINE
  8
CSLAYER1
  6
CONTINUOUS
 62
     7
 10
508.438026
 20
754.046562
 11
509.270037
 21
754.232059
  0
LINE
  8
CSLAYER1
  6
CONTINUOUS
 62
     7
 10
509.270037
 20
754.232059
 11
510.121745
 21
754.365574
  0
LINE
  8
CSLAYER1
  6
CONTINUOUS
 62
     7
 10
510.121745
 20
754.365574
 11
510.986670
 21
754.446092
  0
LINE
  8
CSLAYER1
  6
CONTINUOUS
 62
     7
 10
510.986670
 20
754.446092
 11
511.858227
 21
754.473000
  0
LINE
  8
CSLAYER1
  6
CONTINUOUS
 62
     7
 10
501.858227
 20
738.104596
 11
501.896280
 21
738.720880
  0
LINE
  8
CSLAYER1
  6
CONTINUOUS
 62
     7
 10
501.896280
 20
738.720880
 11
502.010150
 21
739.332474
  0
LINE
  8
CSLAYER1
  6
CONTINUOUS
 62
     7
 10
502.010150
 20
739.332474
 11
502.198969
 21
739.934723
  0
LINE
  8
CSLAYER1
  6
CONTINUOUS
 62
     7
 10
502.198969
 20
739.934723
 11
502.461301
 21
740.523044
  0
LINE
  8
CSLAYER1
  6
CONTINUOUS
 62
     7
 10
502.461301
 20
740.523044
 11
502.795149
 21
741.092958
  0
LINE
  8
CSLAYER1
  6
CONTINUOUS
 62
     7
 10
502.795149
 20
741.092958
 11
503.197973
 21
741.640130
  0
LINE
  8
CSLAYER1
  6
CONTINUOUS
 62
     7
 10
503.197973
 20
741.640130
 11
503.666707
 21
742.160394
  0
LINE
  8
CSLAYER1
  6
CONTINUOUS
 62
     7
 10
503.666707
 20
742.160394
 11
504.197783
 21
742.649791
  0
LINE
  8
CSLAYER1
  6
CONTINUOUS
 62
     7
 10
504.197783
 20
742.649791
 11
504.787159
 21
743.104596
  0
LINE
  8
CSLAYER1
  6
CONTINUOUS
 62
     7
 10
504.787159
 20
743.104596
 11
505.430351
 21
743.521348
  0
LINE
  8
CSLAYER1
  6
CONTINUOUS
 62
     7
 10
505.430351
 20
743.521348
 11
506.122463
 21
743.896876
  0
LINE
  8
CSLAYER1
  6
CONTINUOUS
 62
     7
 10
506.122463
 20
743.896876
 11
506.858227
 21
744.228320
  0
LINE
  8
CSLAYER1
  6
CONTINUOUS
 62
     7
 10
506.858227
 20
744.228320
 11
507.632044
 21
744.513160
  0
LINE
  8
CSLAYER1
  6
CONTINUOUS
 62
     7
 10
507.632044
 20
744.513160
 11
508.438026
 21
744.749226
  0
LINE
  8
CSLAYER1
  6
CONTINUOUS
 62
     7
 10
508.438026
 20
744.749226
 11
509.270037
 21
744.934723
  0
LINE
  8
CSLAYER1
  6
CONTINUOUS
 62
     7
 10
509.270037
 20
744.934723
 11
510.121745
 21
745.068238
  0
LINE
  8
CSLAYER1
  6
CONTINUOUS
 62
     7
 10
510.121745
 20
745.068238
 11
510.986670
 21
745.148756
  0
LINE
  8
CSLAYER1
  6
CONTINUOUS
 62
     7
 10
510.986670
 20
745.148756
 11
511.858227
 21
745.175664
  0
LINE
  8
CSLAYER1
  6
CONTINUOUS
 62
     7
 10
496.858227
 20
673.120483
 11
496.858227
 21
593.280311
  0
LINE
  8
CSLAYER1
  6
CONTINUOUS
 62
     7
 10
610.858227
 20
706.733929
 11
610.858227
 21
691.564745
  0
LINE
  8
CSLAYER1
  6
CONTINUOUS
 62
     7
 10
610.858227
 20
706.733929
 11
610.652741
 21
710.061863
  0
LINE
  8
CSLAYER1
  6
CONTINUOUS
 62
     7
 10
610.652741
 20
710.061863
 11
610.037846
 21
713.364470
  0
LINE
  8
CSLAYER1
  6
CONTINUOUS
 62
     7
 10
610.037846
 20
713.364470
 11
609.018222
 21
716.616615
  0
LINE
  8
CSLAYER1
  6
CONTINUOUS
 62
     7
 10
609.018222
 20
716.616615
 11
607.601629
 21
719.793546
  0
LINE
  8
CSLAYER1
  6
CONTINUOUS
 62
     7
 10
607.601629
 20
719.793546
 11
605.798848
 21
722.871086
  0
LINE
  8
CSLAYER1
  6
CONTINUOUS
 62
     7
 10
605.798848
 20
722.871086
 11
603.623599
 21
725.825812
  0
LINE
  8
CSLAYER1
  6
CONTINUOUS
 62
     7
 10
603.623599
 20
725.825812
 11
602.156589
 21
727.454098
  0
LINE
  8
CSLAYER1
  6
CONTINUOUS
 62
     7
 10
594.358227
 20
734.176971
 11
591.568758
 21
735.984391
  0
LINE
  8
CSLAYER1
  6
CONTINUOUS
 62
     7
 10
591.568758
 20
735.984391
 11
587.831355
 21
738.012239
  0
LINE
  8
CSLAYER1
  6
CONTINUOUS
 62
     7
 10
587.831355
 20
738.012239
 11
583.858227
 21
739.802040
  0
LINE
  8
CSLAYER1
  6
CONTINUOUS
 62
     7
 10
583.858227
 20
739.802040
 11
579.679613
 21
741.340173
  0
LINE
  8
CSLAYER1
  6
CONTINUOUS
 62
     7
 10
579.679613
 20
741.340173
 11
575.327315
 21
742.614932
  0
LINE
  8
CSLAYER1
  6
CONTINUOUS
 62
     7
 10
575.327315
 20
742.614932
 11
570.834456
 21
743.616615
  0
LINE
  8
CSLAYER1
  6
CONTINUOUS
 62
     7
 10
570.834456
 20
743.616615
 11
566.235229
 21
744.337598
  0
LINE
  8
CSLAYER1
  6
CONTINUOUS
 62
     7
 10
566.235229
 20
744.337598
 11
561.564637
 21
744.772394
  0
LINE
  8
CSLAYER1
  6
CONTINUOUS
 62
     7
 10
561.564637
 20
744.772394
 11
556.858227
 21
744.917695
  0
LINE
  8
CSLAYER1
  6
CONTINUOUS
 62
     7
 10
556.858227
 20
744.917695
 11
552.151817
 21
744.772394
  0
LINE
  8
CSLAYER1
  6
CONTINUOUS
 62
     7
 10
552.151817
 20
744.772394
 11
547.481225
 21
744.337598
  0
LINE
  8
CSLAYER1
  6
CONTINUOUS
 62
     7
 10
547.481225
 20
744.337598
 11
542.881999
 21
743.616615
  0
LINE
  8
CSLAYER1
  6
CONTINUOUS
 62
     7
 10
542.881999
 20
743.616615
 11
538.389139
 21
742.614932
  0
LINE
  8
CSLAYER1
  6
CONTINUOUS
 62
     7
 10
538.389139
 20
742.614932
 11
534.036841
 21
741.340173
  0
LINE
  8
CSLAYER1
  6
CONTINUOUS
 62
     7
 10
534.036841
 20
741.340173
 11
529.858227
 21
739.802040
  0
LINE
  8
CSLAYER1
  6
CONTINUOUS
 62
     7
 10
529.858227
 20
739.802040
 11
525.885100
 21
738.012239
  0
LINE
  8
CSLAYER1
  6
CONTINUOUS
 62
     7
 10
525.885100
 20
738.012239
 11
522.147696
 21
735.984391
  0
LINE
  8
CSLAYER1
  6
CONTINUOUS
 62
     7
 10
522.147696
 20
735.984391
 11
519.358227
 21
734.176971
  0
LINE
  8
CSLAYER1
  6
CONTINUOUS
 62
     7
 10
511.545690
 20
727.438365
 11
510.092855
 21
725.825812
  0
LINE
  8
CSLAYER1
  6
CONTINUOUS
 62
     7
 10
510.092855
 20
725.825812
 11
507.917607
 21
722.871086
  0
LINE
  8
CSLAYER1
  6
CONTINUOUS
 62
     7
 10
507.917607
 20
722.871086
 11
506.114826
 21
719.793546
  0
LINE
  8
CSLAYER1
  6
CONTINUOUS
 62
     7
 10
506.114826
 20
719.793546
 11
504.698232
 21
716.616615
  0
LINE
  8
CSLAYER1
  6
CONTINUOUS
 62
     7
 10
504.698232
 20
716.616615
 11
503.678608
 21
713.364470
  0
LINE
  8
CSLAYER1
  6
CONTINUOUS
 62
     7
 10
503.678608
 20
713.364470
 11
503.063713
 21
710.061863
  0
LINE
  8
CSLAYER1
  6
CONTINUOUS
 62
     7
 10
503.063713
 20
710.061863
 11
502.858227
 21
706.733929
  0
LINE
  8
CSLAYER1
  6
CONTINUOUS
 62
     7
 10
502.858227
 20
706.733929
 11
502.858227
 21
691.564745
  0
LINE
  8
CSLAYER1
  6
CONTINUOUS
 62
     7
 10
610.007897
 20
692.719781
 11
609.018222
 21
695.876404
  0
LINE
  8
CSLAYER1
  6
CONTINUOUS
 62
     7
 10
609.018222
 20
695.876404
 11
607.601629
 21
699.053335
  0
LINE
  8
CSLAYER1
  6
CONTINUOUS
 62
     7
 10
607.601629
 20
699.053335
 11
605.798848
 21
702.130875
  0
LINE
  8
CSLAYER1
  6
CONTINUOUS
 62
     7
 10
605.798848
 20
702.130875
 11
603.623599
 21
705.085601
  0
LINE
  8
CSLAYER1
  6
CONTINUOUS
 62
     7
 10
603.623599
 20
705.085601
 11
601.092437
 21
707.895026
  0
LINE
  8
CSLAYER1
  6
CONTINUOUS
 62
     7
 10
601.092437
 20
707.895026
 11
598.224627
 21
710.537770
  0
LINE
  8
CSLAYER1
  6
CONTINUOUS
 62
     7
 10
598.224627
 20
710.537770
 11
595.041993
 21
712.993718
  0
LINE
  8
CSLAYER1
  6
CONTINUOUS
 62
     7
 10
595.041993
 20
712.993718
 11
591.568758
 21
715.244180
  0
LINE
  8
CSLAYER1
  6
CONTINUOUS
 62
     7
 10
591.568758
 20
715.244180
 11
587.831355
 21
717.272028
  0
LINE
  8
CSLAYER1
  6
CONTINUOUS
 62
     7
 10
587.831355
 20
717.272028
 11
583.858227
 21
719.061829
  0
LINE
  8
CSLAYER1
  6
CONTINUOUS
 62
     7
 10
583.858227
 20
719.061829
 11
579.679613
 21
720.599962
  0
LINE
  8
CSLAYER1
  6
CONTINUOUS
 62
     7
 10
579.679613
 20
720.599962
 11
575.327315
 21
721.874721
  0
LINE
  8
CSLAYER1
  6
CONTINUOUS
 62
     7
 10
575.327315
 20
721.874721
 11
570.834456
 21
722.876404
  0
LINE
  8
CSLAYER1
  6
CONTINUOUS
 62
     7
 10
570.834456
 20
722.876404
 11
566.235229
 21
723.597387
  0
LINE
  8
CSLAYER1
  6
CONTINUOUS
 62
     7
 10
566.235229
 20
723.597387
 11
561.564637
 21
724.032183
  0
LINE
  8
CSLAYER1
  6
CONTINUOUS
 62
     7
 10
561.564637
 20
724.032183
 11
556.858227
 21
724.177484
  0
LINE
  8
CSLAYER1
  6
CONTINUOUS
 62
     7
 10
556.858227
 20
724.177484
 11
552.151817
 21
724.032183
  0
LINE
  8
CSLAYER1
  6
CONTINUOUS
 62
     7
 10
552.151817
 20
724.032183
 11
547.481225
 21
723.597387
  0
LINE
  8
CSLAYER1
  6
CONTINUOUS
 62
     7
 10
547.481225
 20
723.597387
 11
542.881999
 21
722.876404
  0
LINE
  8
CSLAYER1
  6
CONTINUOUS
 62
     7
 10
542.881999
 20
722.876404
 11
538.389139
 21
721.874721
  0
LINE
  8
CSLAYER1
  6
CONTINUOUS
 62
     7
 10
538.389139
 20
721.874721
 11
534.036841
 21
720.599962
  0
LINE
  8
CSLAYER1
  6
CONTINUOUS
 62
     7
 10
534.036841
 20
720.599962
 11
529.858227
 21
719.061829
  0
LINE
  8
CSLAYER1
  6
CONTINUOUS
 62
     7
 10
529.858227
 20
719.061829
 11
525.885100
 21
717.272028
  0
LINE
  8
CSLAYER1
  6
CONTINUOUS
 62
     7
 10
525.885100
 20
717.272028
 11
522.147696
 21
715.244180
  0
LINE
  8
CSLAYER1
  6
CONTINUOUS
 62
     7
 10
522.147696
 20
715.244180
 11
518.674461
 21
712.993718
  0
LINE
  8
CSLAYER1
  6
CONTINUOUS
 62
     7
 10
518.674461
 20
712.993718
 11
515.491827
 21
710.537770
  0
LINE
  8
CSLAYER1
  6
CONTINUOUS
 62
     7
 10
515.491827
 20
710.537770
 11
512.624017
 21
707.895026
  0
LINE
  8
CSLAYER1
  6
CONTINUOUS
 62
     7
 10
512.624017
 20
707.895026
 11
510.092855
 21
705.085601
  0
LINE
  8
CSLAYER1
  6
CONTINUOUS
 62
     7
 10
510.092855
 20
705.085601
 11
507.917607
 21
702.130875
  0
LINE
  8
CSLAYER1
  6
CONTINUOUS
 62
     7
 10
507.917607
 20
702.130875
 11
506.114826
 21
699.053335
  0
LINE
  8
CSLAYER1
  6
CONTINUOUS
 62
     7
 10
506.114826
 20
699.053335
 11
504.698232
 21
695.876404
  0
LINE
  8
CSLAYER1
  6
CONTINUOUS
 62
     7
 10
504.698232
 20
695.876404
 11
503.708557
 21
692.719781
  0
LINE
  8
CSLAYER1
  6
CONTINUOUS
 62
     7
 10
616.858227
 20
673.120483
 11
616.629909
 21
676.818188
  0
LINE
  8
CSLAYER1
  6
CONTINUOUS
 62
     7
 10
616.629909
 20
676.818188
 11
615.946692
 21
680.487752
  0
LINE
  8
CSLAYER1
  6
CONTINUOUS
 62
     7
 10
615.946692
 20
680.487752
 11
614.813777
 21
684.101246
  0
LINE
  8
CSLAYER1
  6
CONTINUOUS
 62
     7
 10
614.813777
 20
684.101246
 11
613.239784
 21
687.631169
  0
LINE
  8
CSLAYER1
  6
CONTINUOUS
 62
     7
 10
613.239784
 20
687.631169
 11
611.236694
 21
691.050658
  0
LINE
  8
CSLAYER1
  6
CONTINUOUS
 62
     7
 10
611.236694
 20
691.050658
 11
608.819751
 21
694.333687
  0
LINE
  8
CSLAYER1
  6
CONTINUOUS
 62
     7
 10
608.819751
 20
694.333687
 11
606.007350
 21
697.455271
  0
LINE
  8
CSLAYER1
  6
CONTINUOUS
 62
     7
 10
606.007350
 20
697.455271
 11
602.820894
 21
700.391652
  0
LINE
  8
CSLAYER1
  6
CONTINUOUS
 62
     7
 10
602.820894
 20
700.391652
 11
599.284634
 21
703.120483
  0
LINE
  8
CSLAYER1
  6
CONTINUOUS
 62
     7
 10
599.284634
 20
703.120483
 11
595.425484
 21
705.620997
  0
LINE
  8
CSLAYER1
  6
CONTINUOUS
 62
     7
 10
595.425484
 20
705.620997
 11
591.272813
 21
707.874161
  0
LINE
  8
CSLAYER1
  6
CONTINUOUS
 62
     7
 10
591.272813
 20
707.874161
 11
586.858227
 21
709.862830
  0
LINE
  8
CSLAYER1
  6
CONTINUOUS
 62
     7
 10
586.858227
 20
709.862830
 11
582.215323
 21
711.571866
  0
LINE
  8
CSLAYER1
  6
CONTINUOUS
 62
     7
 10
582.215323
 20
711.571866
 11
577.379436
 21
712.988265
  0
LINE
  8
CSLAYER1
  6
CONTINUOUS
 62
     7
 10
577.379436
 20
712.988265
 11
572.387370
 21
714.101246
  0
LINE
  8
CSLAYER1
  6
CONTINUOUS
 62
     7
 10
572.387370
 20
714.101246
 11
567.277118
 21
714.902338
  0
LINE
  8
CSLAYER1
  6
CONTINUOUS
 62
     7
 10
567.277118
 20
714.902338
 11
562.087572
 21
715.385445
  0
LINE
  8
CSLAYER1
  6
CONTINUOUS
 62
     7
 10
562.087572
 20
715.385445
 11
556.858227
 21
715.546890
  0
LINE
  8
CSLAYER1
  6
CONTINUOUS
 62
     7
 10
556.858227
 20
715.546890
 11
551.628883
 21
715.385445
  0
LINE
  8
CSLAYER1
  6
CONTINUOUS
 62
     7
 10
551.628883
 20
715.385445
 11
546.439336
 21
714.902338
  0
LINE
  8
CSLAYER1
  6
CONTINUOUS
 62
     7
 10
546.439336
 20
714.902338
 11
541.329084
 21
714.101246
  0
LINE
  8
CSLAYER1
  6
CONTINUOUS
 62
     7
 10
541.329084
 20
714.101246
 11
536.337018
 21
712.988265
  0
LINE
  8
CSLAYER1
  6
CONTINUOUS
 62
     7
 10
536.337018
 20
712.988265
 11
531.501131
 21
711.571866
  0
LINE
  8
CSLAYER1
  6
CONTINUOUS
 62
     7
 10
531.501131
 20
711.571866
 11
526.858227
 21
709.862830
  0
LINE
  8
CSLAYER1
  6
CONTINUOUS
 62
     7
 10
526.858227
 20
709.862830
 11
522.443641
 21
707.874161
  0
LINE
  8
CSLAYER1
  6
CONTINUOUS
 62
     7
 10
522.443641
 20
707.874161
 11
518.290971
 21
705.620997
  0
LINE
  8
CSLAYER1
  6
CONTINUOUS
 62
     7
 10
518.290971
 20
705.620997
 11
514.431820
 21
703.120483
  0
LINE
  8
CSLAYER1
  6
CONTINUOUS
 62
     7
 10
514.431820
 20
703.120483
 11
510.895560
 21
700.391652
  0
LINE
  8
CSLAYER1
  6
CONTINUOUS
 62
     7
 10
510.895560
 20
700.391652
 11
507.709104
 21
697.455271
  0
LINE
  8
CSLAYER1
  6
CONTINUOUS
 62
     7
 10
507.709104
 20
697.455271
 11
504.896703
 21
694.333687
  0
LINE
  8
CSLAYER1
  6
CONTINUOUS
 62
     7
 10
504.896703
 20
694.333687
 11
502.479760
 21
691.050658
  0
LINE
  8
CSLAYER1
  6
CONTINUOUS
 62
     7
 10
502.479760
 20
691.050658
 11
500.476670
 21
687.631169
  0
LINE
  8
CSLAYER1
  6
CONTINUOUS
 62
     7
 10
500.476670
 20
687.631169
 11
498.902678
 21
684.101246
  0
LINE
  8
CSLAYER1
  6
CONTINUOUS
 62
     7
 10
498.902678
 20
684.101246
 11
497.769762
 21
680.487752
  0
LINE
  8
CSLAYER1
  6
CONTINUOUS
 62
     7
 10
497.769762
 20
680.487752
 11
497.086545
 21
676.818188
  0
LINE
  8
CSLAYER1
  6
CONTINUOUS
 62
     7
 10
497.086545
 20
676.818188
 11
496.858227
 21
673.120483
  0
LINE
  8
CSLAYER1
  6
CONTINUOUS
 62
     7
 10
616.858227
 20
665.968687
 11
616.629909
 21
669.666392
  0
LINE
  8
CSLAYER1
  6
CONTINUOUS
 62
     7
 10
616.629909
 20
669.666392
 11
615.946692
 21
673.335955
  0
LINE
  8
CSLAYER1
  6
CONTINUOUS
 62
     7
 10
615.946692
 20
673.335955
 11
614.813777
 21
676.949449
  0
LINE
  8
CSLAYER1
  6
CONTINUOUS
 62
     7
 10
614.813777
 20
676.949449
 11
613.239784
 21
680.479372
  0
LINE
  8
CSLAYER1
  6
CONTINUOUS
 62
     7
 10
613.239784
 20
680.479372
 11
611.236694
 21
683.898861
  0
LINE
  8
CSLAYER1
  6
CONTINUOUS
 62
     7
 10
611.236694
 20
683.898861
 11
608.819751
 21
687.181890
  0
LINE
  8
CSLAYER1
  6
CONTINUOUS
 62
     7
 10
608.819751
 20
687.181890
 11
606.007350
 21
690.303474
  0
LINE
  8
CSLAYER1
  6
CONTINUOUS
 62
     7
 10
606.007350
 20
690.303474
 11
602.820894
 21
693.239855
  0
LINE
  8
CSLAYER1
  6
CONTINUOUS
 62
     7
 10
602.820894
 20
693.239855
 11
599.284634
 21
695.968687
  0
LINE
  8
CSLAYER1
  6
CONTINUOUS
 62
     7
 10
599.284634
 20
695.968687
 11
595.425484
 21
698.469200
  0
LINE
  8
CSLAYER1
  6
CONTINUOUS
 62
     7
 10
595.425484
 20
698.469200
 11
591.272813
 21
700.722364
  0
LINE
  8
CSLAYER1
  6
CONTINUOUS
 62
     7
 10
591.272813
 20
700.722364
 11
586.858227
 21
702.711033
  0
LINE
  8
CSLAYER1
  6
CONTINUOUS
 62
     7
 10
586.858227
 20
702.711033
 11
582.215323
 21
704.420069
  0
LINE
  8
CSLAYER1
  6
CONTINUOUS
 62
     7
 10
582.215323
 20
704.420069
 11
577.379436
 21
705.836468
  0
LINE
  8
CSLAYER1
  6
CONTINUOUS
 62
     7
 10
577.379436
 20
705.836468
 11
572.387370
 21
706.949449
  0
LINE
  8
CSLAYER1
  6
CONTINUOUS
 62
     7
 10
572.387370
 20
706.949449
 11
567.277118
 21
707.750541
  0
LINE
  8
CSLAYER1
  6
CONTINUOUS
 62
     7
 10
567.277118
 20
707.750541
 11
562.087572
 21
708.233648
  0
LINE
  8
CSLAYER1
  6
CONTINUOUS
 62
     7
 10
562.087572
 20
708.233648
 11
556.858227
 21
708.395093
  0
LINE
  8
CSLAYER1
  6
CONTINUOUS
 62
     7
 10
556.858227
 20
708.395093
 11
551.628883
 21
708.233648
  0
LINE
  8
CSLAYER1
  6
CONTINUOUS
 62
     7
 10
551.628883
 20
708.233648
 11
546.439336
 21
707.750541
  0
LINE
  8
CSLAYER1
  6
CONTINUOUS
 62
     7
 10
546.439336
 20
707.750541
 11
541.329084
 21
706.949449
  0
LINE
  8
CSLAYER1
  6
CONTINUOUS
 62
     7
 10
541.329084
 20
706.949449
 11
536.337018
 21
705.836468
  0
LINE
  8
CSLAYER1
  6
CONTINUOUS
 62
     7
 10
536.337018
 20
705.836468
 11
531.501131
 21
704.420069
  0
LINE
  8
CSLAYER1
  6
CONTINUOUS
 62
     7
 10
531.501131
 20
704.420069
 11
526.858227
 21
702.711033
  0
LINE
  8
CSLAYER1
  6
CONTINUOUS
 62
     7
 10
526.858227
 20
702.711033
 11
522.443641
 21
700.722364
  0
LINE
  8
CSLAYER1
  6
CONTINUOUS
 62
     7
 10
522.443641
 20
700.722364
 11
518.290971
 21
698.469200
  0
LINE
  8
CSLAYER1
  6
CONTINUOUS
 62
     7
 10
518.290971
 20
698.469200
 11
514.431820
 21
695.968687
  0
LINE
  8
CSLAYER1
  6
CONTINUOUS
 62
     7
 10
514.431820
 20
695.968687
 11
510.895560
 21
693.239855
  0
LINE
  8
CSLAYER1
  6
CONTINUOUS
 62
     7
 10
510.895560
 20
693.239855
 11
507.709104
 21
690.303474
  0
LINE
  8
CSLAYER1
  6
CONTINUOUS
 62
     7
 10
507.709104
 20
690.303474
 11
504.896703
 21
687.181890
  0
LINE
  8
CSLAYER1
  6
CONTINUOUS
 62
     7
 10
504.896703
 20
687.181890
 11
502.479760
 21
683.898861
  0
LINE
  8
CSLAYER1
  6
CONTINUOUS
 62
     7
 10
502.479760
 20
683.898861
 11
500.476670
 21
680.479372
  0
LINE
  8
CSLAYER1
  6
CONTINUOUS
 62
     7
 10
500.476670
 20
680.479372
 11
498.902678
 21
676.949449
  0
LINE
  8
CSLAYER1
  6
CONTINUOUS
 62
     7
 10
498.902678
 20
676.949449
 11
497.769762
 21
673.335955
  0
LINE
  8
CSLAYER1
  6
CONTINUOUS
 62
     7
 10
497.769762
 20
673.335955
 11
497.086545
 21
669.666392
  0
LINE
  8
CSLAYER1
  6
CONTINUOUS
 62
     7
 10
497.086545
 20
669.666392
 11
496.858227
 21
665.968687
  0
LINE
  8
CSLAYER1
  6
CONTINUOUS
 62
     7
 10
618.858227
 20
582.292663
 11
618.622298
 21
586.113625
  0
LINE
  8
CSLAYER1
  6
CONTINUOUS
 62
     7
 10
618.622298
 20
586.113625
 11
617.916308
 21
589.905507
  0
LINE
  8
CSLAYER1
  6
CONTINUOUS
 62
     7
 10
617.916308
 20
589.905507
 11
616.745628
 21
593.639451
  0
LINE
  8
CSLAYER1
  6
CONTINUOUS
 62
     7
 10
616.745628
 20
593.639451
 11
615.119170
 21
597.287038
  0
LINE
  8
CSLAYER1
  6
CONTINUOUS
 62
     7
 10
615.119170
 20
597.287038
 11
613.049310
 21
600.820510
  0
LINE
  8
CSLAYER1
  6
CONTINUOUS
 62
     7
 10
613.049310
 20
600.820510
 11
610.551802
 21
604.212973
  0
LINE
  8
CSLAYER1
  6
CONTINUOUS
 62
     7
 10
610.551802
 20
604.212973
 11
607.645654
 21
607.438610
  0
LINE
  8
CSLAYER1
  6
CONTINUOUS
 62
     7
 10
607.645654
 20
607.438610
 11
604.352983
 21
610.472871
  0
LINE
  8
CSLAYER1
  6
CONTINUOUS
 62
     7
 10
604.352983
 20
610.472871
 11
600.698848
 21
613.292663
  0
LINE
  8
CSLAYER1
  6
CONTINUOUS
 62
     7
 10
600.698848
 20
613.292663
 11
596.711059
 21
615.876527
  0
LINE
  8
CSLAYER1
  6
CONTINUOUS
 62
     7
 10
596.711059
 20
615.876527
 11
592.419966
 21
618.204797
  0
LINE
  8
CSLAYER1
  6
CONTINUOUS
 62
     7
 10
592.419966
 20
618.204797
 11
587.858227
 21
620.259754
  0
LINE
  8
CSLAYER1
  6
CONTINUOUS
 62
     7
 10
587.858227
 20
620.259754
 11
583.060559
 21
622.025759
  0
LINE
  8
CSLAYER1
  6
CONTINUOUS
 62
     7
 10
583.060559
 20
622.025759
 11
578.063476
 21
623.489371
  0
LINE
  8
CSLAYER1
  6
CONTINUOUS
 62
     7
 10
578.063476
 20
623.489371
 11
572.905008
 21
624.639451
  0
LINE
  8
CSLAYER1
  6
CONTINUOUS
 62
     7
 10
572.905008
 20
624.639451
 11
567.624414
 21
625.467246
  0
LINE
  8
CSLAYER1
  6
CONTINUOUS
 62
     7
 10
567.624414
 20
625.467246
 11
562.261883
 21
625.966457
  0
LINE
  8
CSLAYER1
  6
CONTINUOUS
 62
     7
 10
562.261883
 20
625.966457
 11
556.858227
 21
626.133284
  0
LINE
  8
CSLAYER1
  6
CONTINUOUS
 62
     7
 10
556.858227
 20
626.133284
 11
551.454571
 21
625.966457
  0
LINE
  8
CSLAYER1
  6
CONTINUOUS
 62
     7
 10
551.454571
 20
625.966457
 11
546.092040
 21
625.467246
  0
LINE
  8
CSLAYER1
  6
CONTINUOUS
 62
     7
 10
546.092040
 20
625.467246
 11
540.811446
 21
624.639451
  0
LINE
  8
CSLAYER1
  6
CONTINUOUS
 62
     7
 10
540.811446
 20
624.639451
 11
535.652978
 21
623.489371
  0
LINE
  8
CSLAYER1
  6
CONTINUOUS
 62
     7
 10
535.652978
 20
623.489371
 11
530.655895
 21
622.025759
  0
LINE
  8
CSLAYER1
  6
CONTINUOUS
 62
     7
 10
530.655895
 20
622.025759
 11
525.858227
 21
620.259754
  0
LINE
  8
CSLAYER1
  6
CONTINUOUS
 62
     7
 10
525.858227
 20
620.259754
 11
521.296488
 21
618.204797
  0
LINE
  8
CSLAYER1
  6
CONTINUOUS
 62
     7
 10
521.296488
 20
618.204797
 11
517.005395
 21
615.876527
  0
LINE
  8
CSLAYER1
  6
CONTINUOUS
 62
     7
 10
517.005395
 20
615.876527
 11
513.017607
 21
613.292663
  0
LINE
  8
CSLAYER1
  6
CONTINUOUS
 62
     7
 10
513.017607
 20
613.292663
 11
509.363472
 21
610.472871
  0
LINE
  8
CSLAYER1
  6
CONTINUOUS
 62
     7
 10
509.363472
 20
610.472871
 11
506.070800
 21
607.438610
  0
LINE
  8
CSLAYER1
  6
CONTINUOUS
 62
     7
 10
506.070800
 20
607.438610
 11
503.164652
 21
604.212973
  0
LINE
  8
CSLAYER1
  6
CONTINUOUS
 62
     7
 10
503.164652
 20
604.212973
 11
500.667144
 21
600.820510
  0
LINE
  8
CSLAYER1
  6
CONTINUOUS
 62
     7
 10
500.667144
 20
600.820510
 11
498.597285
 21
597.287038
  0
LINE
  8
CSLAYER1
  6
CONTINUOUS
 62
     7
 10
498.597285
 20
597.287038
 11
496.970826
 21
593.639451
  0
LINE
  8
CSLAYER1
  6
CONTINUOUS
 62
     7
 10
496.970826
 20
593.639451
 11
495.800146
 21
589.905507
  0
LINE
  8
CSLAYER1
  6
CONTINUOUS
 62
     7
 10
495.800146
 20
589.905507
 11
495.094156
 21
586.113625
  0
LINE
  8
CSLAYER1
  6
CONTINUOUS
 62
     7
 10
495.094156
 20
586.113625
 11
494.858227
 21
582.292663
  0
LINE
  8
CSLAYER1
  6
CONTINUOUS
 62
     7
 10
605.858227
 20
730.276441
 11
605.721930
 21
731.008491
  0
LINE
  8
CSLAYER1
  6
CONTINUOUS
 62
     7
 10
605.721930
 20
731.008491
 11
605.322329
 21
731.690654
  0
LINE
  8
CSLAYER1
  6
CONTINUOUS
 62
     7
 10
605.322329
 20
731.690654
 11
604.686654
 21
732.276441
  0
LINE
  8
CSLAYER1
  6
CONTINUOUS
 62
     7
 10
604.686654
 20
732.276441
 11
603.858227
 21
732.725930
  0
LINE
  8
CSLAYER1
  6
CONTINUOUS
 62
     7
 10
603.858227
 20
732.725930
 11
602.893503
 21
733.008491
  0
LINE
  8
CSLAYER1
  6
CONTINUOUS
 62
     7
 10
602.893503
 20
733.008491
 11
601.858227
 21
733.104868
  0
LINE
  8
CSLAYER1
  6
CONTINUOUS
 62
     7
 10
601.858227
 20
733.104868
 11
600.822951
 21
733.008491
  0
LINE
  8
CSLAYER1
  6
CONTINUOUS
 62
     7
 10
600.822951
 20
733.008491
 11
599.858227
 21
732.725930
  0
LINE
  8
CSLAYER1
  6
CONTINUOUS
 62
     7
 10
599.858227
 20
732.725930
 11
599.029800
 21
732.276441
  0
LINE
  8
CSLAYER1
  6
CONTINUOUS
 62
     7
 10
599.029800
 20
732.276441
 11
598.394125
 21
731.690654
  0
LINE
  8
CSLAYER1
  6
CONTINUOUS
 62
     7
 10
598.394125
 20
731.690654
 11
597.994524
 21
731.008491
  0
LINE
  8
CSLAYER1
  6
CONTINUOUS
 62
     7
 10
597.994524
 20
731.008491
 11
597.858227
 21
730.276441
  0
LINE
  8
CSLAYER1
  6
CONTINUOUS
 62
     7
 10
597.858227
 20
730.276441
 11
597.994524
 21
729.544390
  0
LINE
  8
CSLAYER1
  6
CONTINUOUS
 62
     7
 10
597.994524
 20
729.544390
 11
598.394125
 21
728.862227
  0
LINE
  8
CSLAYER1
  6
CONTINUOUS
 62
     7
 10
598.394125
 20
728.862227
 11
599.029800
 21
728.276441
  0
LINE
  8
CSLAYER1
  6
CONTINUOUS
 62
     7
 10
599.029800
 20
728.276441
 11
599.858227
 21
727.826951
  0
LINE
  8
CSLAYER1
  6
CONTINUOUS
 62
     7
 10
599.858227
 20
727.826951
 11
600.822951
 21
727.544390
  0
LINE
  8
CSLAYER1
  6
CONTINUOUS
 62
     7
 10
601.858227
 20
727.448014
 11
603.160588
 21
727.556838
  0
LINE
  8
CSLAYER1
  6
CONTINUOUS
 62
     7
 10
602.893503
 20
727.544390
 11
603.858227
 21
727.826951
  0
LINE
  8
CSLAYER1
  6
CONTINUOUS
 62
     7
 10
603.858227
 20
727.826951
 11
604.686654
 21
728.276441
  0
LINE
  8
CSLAYER1
  6
CONTINUOUS
 62
     7
 10
604.686654
 20
728.276441
 11
605.322329
 21
728.862227
  0
LINE
  8
CSLAYER1
  6
CONTINUOUS
 62
     7
 10
605.322329
 20
728.862227
 11
605.721930
 21
729.544390
  0
LINE
  8
CSLAYER1
  6
CONTINUOUS
 62
     7
 10
605.721930
 20
729.544390
 11
605.858227
 21
730.276441
  0
LINE
  8
CSLAYER1
  6
CONTINUOUS
 62
     7
 10
609.358227
 20
732.779570
 11
609.244285
 21
733.700478
  0
LINE
  8
CSLAYER1
  6
CONTINUOUS
 62
     7
 10
609.244285
 20
733.700478
 11
608.905922
 21
734.593405
  0
LINE
  8
CSLAYER1
  6
CONTINUOUS
 62
     7
 10
608.905922
 20
734.593405
 11
608.353418
 21
735.431220
  0
LINE
  8
CSLAYER1
  6
CONTINUOUS
 62
     7
 10
608.353418
 20
735.431220
 11
607.603560
 21
736.188466
  0
LINE
  8
CSLAYER1
  6
CONTINUOUS
 62
     7
 10
607.603560
 20
736.188466
 11
606.679134
 21
736.842134
  0
LINE
  8
CSLAYER1
  6
CONTINUOUS
 62
     7
 10
606.679134
 20
736.842134
 11
605.608227
 21
737.372363
  0
LINE
  8
CSLAYER1
  6
CONTINUOUS
 62
     7
 10
605.608227
 20
737.372363
 11
604.423378
 21
737.763042
  0
LINE
  8
CSLAYER1
  6
CONTINUOUS
 62
     7
 10
604.423378
 20
737.763042
 11
603.160588
 21
738.002301
  0
LINE
  8
CSLAYER1
  6
CONTINUOUS
 62
     7
 10
603.160588
 20
738.002301
 11
601.858227
 21
738.082870
  0
LINE
  8
CSLAYER1
  6
CONTINUOUS
 62
     7
 10
601.858227
 20
738.082870
 11
600.555866
 21
738.002301
  0
LINE
  8
CSLAYER1
  6
CONTINUOUS
 62
     7
 10
600.555866
 20
738.002301
 11
599.293076
 21
737.763042
  0
LINE
  8
CSLAYER1
  6
CONTINUOUS
 62
     7
 10
599.293076
 20
737.763042
 11
598.108227
 21
737.372363
  0
LINE
  8
CSLAYER1
  6
CONTINUOUS
 62
     7
 10
598.108227
 20
737.372363
 11
597.037320
 21
736.842134
  0
LINE
  8
CSLAYER1
  6
CONTINUOUS
 62
     7
 10
597.037320
 20
736.842134
 11
596.112894
 21
736.188466
  0
LINE
  8
CSLAYER1
  6
CONTINUOUS
 62
     7
 10
596.112894
 20
736.188466
 11
595.363037
 21
735.431220
  0
LINE
  8
CSLAYER1
  6
CONTINUOUS
 62
     7
 10
595.363037
 20
735.431220
 11
594.810532
 21
734.593405
  0
LINE
  8
CSLAYER1
  6
CONTINUOUS
 62
     7
 10
594.810532
 20
734.593405
 11
594.472169
 21
733.700478
  0
LINE
  8
CSLAYER1
  6
CONTINUOUS
 62
     7
 10
594.472169
 20
733.700478
 11
594.358227
 21
732.779570
  0
LINE
  8
CSLAYER1
  6
CONTINUOUS
 62
     7
 10
594.358227
 20
732.779570
 11
594.472169
 21
731.858661
  0
LINE
  8
CSLAYER1
  6
CONTINUOUS
 62
     7
 10
594.472169
 20
731.858661
 11
594.810532
 21
730.965734
  0
LINE
  8
CSLAYER1
  6
CONTINUOUS
 62
     7
 10
594.810532
 20
730.965734
 11
595.363037
 21
730.127919
  0
LINE
  8
CSLAYER1
  6
CONTINUOUS
 62
     7
 10
595.363037
 20
730.127919
 11
596.112894
 21
729.370673
  0
LINE
  8
CSLAYER1
  6
CONTINUOUS
 62
     7
 10
596.112894
 20
729.370673
 11
597.037320
 21
728.717005
  0
LINE
  8
CSLAYER1
  6
CONTINUOUS
 62
     7
 10
597.037320
 20
728.717005
 11
598.108227
 21
728.186776
  0
LINE
  8
CSLAYER1
  6
CONTINUOUS
 62
     7
 10
598.108227
 20
728.186776
 11
599.293076
 21
727.796097
  0
LINE
  8
CSLAYER1
  6
CONTINUOUS
 62
     7
 10
599.293076
 20
727.796097
 11
600.555866
 21
727.556838
  0
LINE
  8
CSLAYER1
  6
CONTINUOUS
 62
     7
 10
601.858227
 20
727.448014
 11
600.555866
 21
727.556838
  0
LINE
  8
CSLAYER1
  6
CONTINUOUS
 62
     7
 10
603.160588
 20
727.556838
 11
604.423378
 21
727.796097
  0
LINE
  8
CSLAYER1
  6
CONTINUOUS
 62
     7
 10
604.423378
 20
727.796097
 11
605.608227
 21
728.186776
  0
LINE
  8
CSLAYER1
  6
CONTINUOUS
 62
     7
 10
605.608227
 20
728.186776
 11
606.679134
 21
728.717005
  0
LINE
  8
CSLAYER1
  6
CONTINUOUS
 62
     7
 10
606.679134
 20
728.717005
 11
607.603560
 21
729.370673
  0
LINE
  8
CSLAYER1
  6
CONTINUOUS
 62
     7
 10
607.603560
 20
729.370673
 11
608.353418
 21
730.127919
  0
LINE
  8
CSLAYER1
  6
CONTINUOUS
 62
     7
 10
608.353418
 20
730.127919
 11
608.905922
 21
730.965734
  0
LINE
  8
CSLAYER1
  6
CONTINUOUS
 62
     7
 10
608.905922
 20
730.965734
 11
609.244285
 21
731.858661
  0
LINE
  8
CSLAYER1
  6
CONTINUOUS
 62
     7
 10
609.244285
 20
731.858661
 11
609.358227
 21
732.779570
  0
LINE
  8
CSLAYER1
  6
CONTINUOUS
 62
     7
 10
609.358227
 20
738.858597
 11
609.358227
 21
732.779570
  0
LINE
  8
CSLAYER1
  6
CONTINUOUS
 62
     7
 10
605.858227
 20
732.779570
 11
605.858227
 21
730.276441
  0
LINE
  8
CSLAYER1
  6
CONTINUOUS
 62
     7
 10
609.358227
 20
738.858597
 11
609.244285
 21
739.779505
  0
LINE
  8
CSLAYER1
  6
CONTINUOUS
 62
     7
 10
609.244285
 20
739.779505
 11
608.905922
 21
740.672433
  0
LINE
  8
CSLAYER1
  6
CONTINUOUS
 62
     7
 10
608.905922
 20
740.672433
 11
608.353418
 21
741.510247
  0
LINE
  8
CSLAYER1
  6
CONTINUOUS
 62
     7
 10
608.353418
 20
741.510247
 11
607.603560
 21
742.267493
  0
LINE
  8
CSLAYER1
  6
CONTINUOUS
 62
     7
 10
607.603560
 20
742.267493
 11
606.679134
 21
742.921161
  0
LINE
  8
CSLAYER1
  6
CONTINUOUS
 62
     7
 10
606.679134
 20
742.921161
 11
605.608227
 21
743.451390
  0
LINE
  8
CSLAYER1
  6
CONTINUOUS
 62
     7
 10
605.608227
 20
743.451390
 11
604.423378
 21
743.842070
  0
LINE
  8
CSLAYER1
  6
CONTINUOUS
 62
     7
 10
604.423378
 20
743.842070
 11
603.160588
 21
744.081329
  0
LINE
  8
CSLAYER1
  6
CONTINUOUS
 62
     7
 10
603.160588
 20
744.081329
 11
601.858227
 21
744.161898
  0
LINE
  8
CSLAYER1
  6
CONTINUOUS
 62
     7
 10
601.858227
 20
744.161898
 11
600.555866
 21
744.081329
  0
LINE
  8
CSLAYER1
  6
CONTINUOUS
 62
     7
 10
600.555866
 20
744.081329
 11
599.293076
 21
743.842070
  0
LINE
  8
CSLAYER1
  6
CONTINUOUS
 62
     7
 10
599.293076
 20
743.842070
 11
598.108227
 21
743.451390
  0
LINE
  8
CSLAYER1
  6
CONTINUOUS
 62
     7
 10
598.108227
 20
743.451390
 11
597.037320
 21
742.921161
  0
LINE
  8
CSLAYER1
  6
CONTINUOUS
 62
     7
 10
597.037320
 20
742.921161
 11
596.112894
 21
742.267493
  0
LINE
  8
CSLAYER1
  6
CONTINUOUS
 62
     7
 10
596.112894
 20
742.267493
 11
595.363037
 21
741.510247
  0
LINE
  8
CSLAYER1
  6
CONTINUOUS
 62
     7
 10
595.363037
 20
741.510247
 11
594.810532
 21
740.672433
  0
LINE
  8
CSLAYER1
  6
CONTINUOUS
 62
     7
 10
594.810532
 20
740.672433
 11
594.472169
 21
739.779505
  0
LINE
  8
CSLAYER1
  6
CONTINUOUS
 62
     7
 10
594.472169
 20
739.779505
 11
594.358227
 21
738.858597
  0
LINE
  8
CSLAYER1
  6
CONTINUOUS
 62
     7
 10
605.858227
 20
732.779570
 11
605.721930
 21
733.511620
  0
LINE
  8
CSLAYER1
  6
CONTINUOUS
 62
     7
 10
605.721930
 20
733.511620
 11
605.322329
 21
734.193783
  0
LINE
  8
CSLAYER1
  6
CONTINUOUS
 62
     7
 10
605.322329
 20
734.193783
 11
604.686654
 21
734.779570
  0
LINE
  8
CSLAYER1
  6
CONTINUOUS
 62
     7
 10
604.686654
 20
734.779570
 11
603.858227
 21
735.229059
  0
LINE
  8
CSLAYER1
  6
CONTINUOUS
 62
     7
 10
603.858227
 20
735.229059
 11
602.893503
 21
735.511620
  0
LINE
  8
CSLAYER1
  6
CONTINUOUS
 62
     7
 10
602.893503
 20
735.511620
 11
601.858227
 21
735.607997
  0
LINE
  8
CSLAYER1
  6
CONTINUOUS
 62
     7
 10
601.858227
 20
735.607997
 11
600.822951
 21
735.511620
  0
LINE
  8
CSLAYER1
  6
CONTINUOUS
 62
     7
 10
600.822951
 20
735.511620
 11
599.858227
 21
735.229059
  0
LINE
  8
CSLAYER1
  6
CONTINUOUS
 62
     7
 10
599.858227
 20
735.229059
 11
599.029800
 21
734.779570
  0
LINE
  8
CSLAYER1
  6
CONTINUOUS
 62
     7
 10
599.029800
 20
734.779570
 11
598.394125
 21
734.193783
  0
LINE
  8
CSLAYER1
  6
CONTINUOUS
 62
     7
 10
598.394125
 20
734.193783
 11
597.994524
 21
733.511620
  0
LINE
  8
CSLAYER1
  6
CONTINUOUS
 62
     7
 10
597.994524
 20
733.511620
 11
597.858227
 21
732.779570
  0
LINE
  8
CSLAYER1
  6
CONTINUOUS
 62
     7
 10
605.631465
 20
743.440922
 11
605.631465
 21
737.363809
  0
LINE
  8
CSLAYER1
  6
CONTINUOUS
 62
     7
 10
598.084989
 20
743.440922
 11
598.084989
 21
737.363809
  0
LINE
  8
CSLAYER1
  6
CONTINUOUS
 62
     7
 10
594.358227
 20
738.858597
 11
594.358227
 21
732.779570
  0
LINE
  8
CSLAYER1
  6
CONTINUOUS
 62
     7
 10
597.858227
 20
732.779570
 11
597.858227
 21
730.276441
  0
LINE
  8
CSLAYER1
  6
CONTINUOUS
 62
     7
 10
507.858227
 20
730.276441
 11
507.994524
 21
731.008491
  0
LINE
  8
CSLAYER1
  6
CONTINUOUS
 62
     7
 10
507.994524
 20
731.008491
 11
508.394125
 21
731.690654
  0
LINE
  8
CSLAYER1
  6
CONTINUOUS
 62
     7
 10
508.394125
 20
731.690654
 11
509.029800
 21
732.276441
  0
LINE
  8
CSLAYER1
  6
CONTINUOUS
 62
     7
 10
509.029800
 20
732.276441
 11
509.858227
 21
732.725930
  0
LINE
  8
CSLAYER1
  6
CONTINUOUS
 62
     7
 10
509.858227
 20
732.725930
 11
510.822951
 21
733.008491
  0
LINE
  8
CSLAYER1
  6
CONTINUOUS
 62
     7
 10
510.822951
 20
733.008491
 11
511.858227
 21
733.104868
  0
LINE
  8
CSLAYER1
  6
CONTINUOUS
 62
     7
 10
511.858227
 20
733.104868
 11
512.893503
 21
733.008491
  0
LINE
  8
CSLAYER1
  6
CONTINUOUS
 62
     7
 10
512.893503
 20
733.008491
 11
513.858227
 21
732.725930
  0
LINE
  8
CSLAYER1
  6
CONTINUOUS
 62
     7
 10
513.858227
 20
732.725930
 11
514.686654
 21
732.276441
  0
LINE
  8
CSLAYER1
  6
CONTINUOUS
 62
     7
 10
514.686654
 20
732.276441
 11
515.322329
 21
731.690654
  0
LINE
  8
CSLAYER1
  6
CONTINUOUS
 62
     7
 10
515.322329
 20
731.690654
 11
515.721930
 21
731.008491
  0
LINE
  8
CSLAYER1
  6
CONTINUOUS
 62
     7
 10
515.721930
 20
731.008491
 11
515.858227
 21
730.276441
  0
LINE
  8
CSLAYER1
  6
CONTINUOUS
 62
     7
 10
515.858227
 20
730.276441
 11
515.721930
 21
729.544390
  0
LINE
  8
CSLAYER1
  6
CONTINUOUS
 62
     7
 10
515.721930
 20
729.544390
 11
515.322329
 21
728.862227
  0
LINE
  8
CSLAYER1
  6
CONTINUOUS
 62
     7
 10
515.322329
 20
728.862227
 11
514.686654
 21
728.276441
  0
LINE
  8
CSLAYER1
  6
CONTINUOUS
 62
     7
 10
514.686654
 20
728.276441
 11
513.858227
 21
727.826951
  0
LINE
  8
CSLAYER1
  6
CONTINUOUS
 62
     7
 10
513.858227
 20
727.826951
 11
512.893503
 21
727.544390
  0
LINE
  8
CSLAYER1
  6
CONTINUOUS
 62
     7
 10
511.858227
 20
727.448014
 11
510.555866
 21
727.556838
  0
LINE
  8
CSLAYER1
  6
CONTINUOUS
 62
     7
 10
510.822951
 20
727.544390
 11
509.858227
 21
727.826951
  0
LINE
  8
CSLAYER1
  6
CONTINUOUS
 62
     7
 10
509.858227
 20
727.826951
 11
509.029800
 21
728.276441
  0
LINE
  8
CSLAYER1
  6
CONTINUOUS
 62
     7
 10
509.029800
 20
728.276441
 11
508.394125
 21
728.862227
  0
LINE
  8
CSLAYER1
  6
CONTINUOUS
 62
     7
 10
508.394125
 20
728.862227
 11
507.994524
 21
729.544390
  0
LINE
  8
CSLAYER1
  6
CONTINUOUS
 62
     7
 10
507.994524
 20
729.544390
 11
507.858227
 21
730.276441
  0
LINE
  8
CSLAYER1
  6
CONTINUOUS
 62
     7
 10
504.358227
 20
732.779570
 11
504.472169
 21
733.700478
  0
LINE
  8
CSLAYER1
  6
CONTINUOUS
 62
     7
 10
504.472169
 20
733.700478
 11
504.810532
 21
734.593405
  0
LINE
  8
CSLAYER1
  6
CONTINUOUS
 62
     7
 10
504.810532
 20
734.593405
 11
505.363037
 21
735.431220
  0
LINE
  8
CSLAYER1
  6
CONTINUOUS
 62
     7
 10
505.363037
 20
735.431220
 11
506.112894
 21
736.188466
  0
LINE
  8
CSLAYER1
  6
CONTINUOUS
 62
     7
 10
506.112894
 20
736.188466
 11
507.037320
 21
736.842134
  0
LINE
  8
CSLAYER1
  6
CONTINUOUS
 62
     7
 10
507.037320
 20
736.842134
 11
508.108227
 21
737.372363
  0
LINE
  8
CSLAYER1
  6
CONTINUOUS
 62
     7
 10
508.108227
 20
737.372363
 11
509.293076
 21
737.763042
  0
LINE
  8
CSLAYER1
  6
CONTINUOUS
 62
     7
 10
509.293076
 20
737.763042
 11
510.555866
 21
738.002301
  0
LINE
  8
CSLAYER1
  6
CONTINUOUS
 62
     7
 10
510.555866
 20
738.002301
 11
511.858227
 21
738.082870
  0
LINE
  8
CSLAYER1
  6
CONTINUOUS
 62
     7
 10
511.858227
 20
738.082870
 11
513.160588
 21
738.002301
  0
LINE
  8
CSLAYER1
  6
CONTINUOUS
 62
     7
 10
513.160588
 20
738.002301
 11
514.423378
 21
737.763042
  0
LINE
  8
CSLAYER1
  6
CONTINUOUS
 62
     7
 10
514.423378
 20
737.763042
 11
515.608227
 21
737.372363
  0
LINE
  8
CSLAYER1
  6
CONTINUOUS
 62
     7
 10
515.608227
 20
737.372363
 11
516.679134
 21
736.842134
  0
LINE
  8
CSLAYER1
  6
CONTINUOUS
 62
     7
 10
516.679134
 20
736.842134
 11
517.603560
 21
736.188466
  0
LINE
  8
CSLAYER1
  6
CONTINUOUS
 62
     7
 10
517.603560
 20
736.188466
 11
518.353418
 21
735.431220
  0
LINE
  8
CSLAYER1
  6
CONTINUOUS
 62
     7
 10
518.353418
 20
735.431220
 11
518.905922
 21
734.593405
  0
LINE
  8
CSLAYER1
  6
CONTINUOUS
 62
     7
 10
518.905922
 20
734.593405
 11
519.244285
 21
733.700478
  0
LINE
  8
CSLAYER1
  6
CONTINUOUS
 62
     7
 10
519.244285
 20
733.700478
 11
519.358227
 21
732.779570
  0
LINE
  8
CSLAYER1
  6
CONTINUOUS
 62
     7
 10
519.358227
 20
732.779570
 11
519.244285
 21
731.858661
  0
LINE
  8
CSLAYER1
  6
CONTINUOUS
 62
     7
 10
519.244285
 20
731.858661
 11
518.905922
 21
730.965734
  0
LINE
  8
CSLAYER1
  6
CONTINUOUS
 62
     7
 10
518.905922
 20
730.965734
 11
518.353418
 21
730.127919
  0
LINE
  8
CSLAYER1
  6
CONTINUOUS
 62
     7
 10
518.353418
 20
730.127919
 11
517.603560
 21
729.370673
  0
LINE
  8
CSLAYER1
  6
CONTINUOUS
 62
     7
 10
517.603560
 20
729.370673
 11
516.679134
 21
728.717005
  0
LINE
  8
CSLAYER1
  6
CONTINUOUS
 62
     7
 10
516.679134
 20
728.717005
 11
515.608227
 21
728.186776
  0
LINE
  8
CSLAYER1
  6
CONTINUOUS
 62
     7
 10
515.608227
 20
728.186776
 11
514.423378
 21
727.796097
  0
LINE
  8
CSLAYER1
  6
CONTINUOUS
 62
     7
 10
514.423378
 20
727.796097
 11
513.160588
 21
727.556838
  0
LINE
  8
CSLAYER1
  6
CONTINUOUS
 62
     7
 10
511.858227
 20
727.448014
 11
513.160588
 21
727.556838
  0
LINE
  8
CSLAYER1
  6
CONTINUOUS
 62
     7
 10
510.555866
 20
727.556838
 11
509.293076
 21
727.796097
  0
LINE
  8
CSLAYER1
  6
CONTINUOUS
 62
     7
 10
509.293076
 20
727.796097
 11
508.108227
 21
728.186776
  0
LINE
  8
CSLAYER1
  6
CONTINUOUS
 62
     7
 10
508.108227
 20
728.186776
 11
507.037320
 21
728.717005
  0
LINE
  8
CSLAYER1
  6
CONTINUOUS
 62
     7
 10
507.037320
 20
728.717005
 11
506.112894
 21
729.370673
  0
LINE
  8
CSLAYER1
  6
CONTINUOUS
 62
     7
 10
506.112894
 20
729.370673
 11
505.363037
 21
730.127919
  0
LINE
  8
CSLAYER1
  6
CONTINUOUS
 62
     7
 10
505.363037
 20
730.127919
 11
504.810532
 21
730.965734
  0
LINE
  8
CSLAYER1
  6
CONTINUOUS
 62
     7
 10
504.810532
 20
730.965734
 11
504.472169
 21
731.858661
  0
LINE
  8
CSLAYER1
  6
CONTINUOUS
 62
     7
 10
504.472169
 20
731.858661
 11
504.358227
 21
732.779570
  0
LINE
  8
CSLAYER1
  6
CONTINUOUS
 62
     7
 10
504.358227
 20
738.858597
 11
504.358227
 21
732.779570
  0
LINE
  8
CSLAYER1
  6
CONTINUOUS
 62
     7
 10
507.858227
 20
732.779570
 11
507.858227
 21
730.276441
  0
LINE
  8
CSLAYER1
  6
CONTINUOUS
 62
     7
 10
504.358227
 20
738.858597
 11
504.472169
 21
739.779505
  0
LINE
  8
CSLAYER1
  6
CONTINUOUS
 62
     7
 10
504.472169
 20
739.779505
 11
504.810532
 21
740.672433
  0
LINE
  8
CSLAYER1
  6
CONTINUOUS
 62
     7
 10
504.810532
 20
740.672433
 11
505.363037
 21
741.510247
  0
LINE
  8
CSLAYER1
  6
CONTINUOUS
 62
     7
 10
505.363037
 20
741.510247
 11
506.112894
 21
742.267493
  0
LINE
  8
CSLAYER1
  6
CONTINUOUS
 62
     7
 10
506.112894
 20
742.267493
 11
507.037320
 21
742.921161
  0
LINE
  8
CSLAYER1
  6
CONTINUOUS
 62
     7
 10
507.037320
 20
742.921161
 11
508.108227
 21
743.451390
  0
LINE
  8
CSLAYER1
  6
CONTINUOUS
 62
     7
 10
508.108227
 20
743.451390
 11
509.293076
 21
743.842070
  0
LINE
  8
CSLAYER1
  6
CONTINUOUS
 62
     7
 10
509.293076
 20
743.842070
 11
510.555866
 21
744.081329
  0
LINE
  8
CSLAYER1
  6
CONTINUOUS
 62
     7
 10
510.555866
 20
744.081329
 11
511.858227
 21
744.161898
  0
LINE
  8
CSLAYER1
  6
CONTINUOUS
 62
     7
 10
511.858227
 20
744.161898
 11
513.160588
 21
744.081329
  0
LINE
  8
CSLAYER1
  6
CONTINUOUS
 62
     7
 10
513.160588
 20
744.081329
 11
514.423378
 21
743.842070
  0
LINE
  8
CSLAYER1
  6
CONTINUOUS
 62
     7
 10
514.423378
 20
743.842070
 11
515.608227
 21
743.451390
  0
LINE
  8
CSLAYER1
  6
CONTINUOUS
 62
     7
 10
515.608227
 20
743.451390
 11
516.679134
 21
742.921161
  0
LINE
  8
CSLAYER1
  6
CONTINUOUS
 62
     7
 10
516.679134
 20
742.921161
 11
517.603560
 21
742.267493
  0
LINE
  8
CSLAYER1
  6
CONTINUOUS
 62
     7
 10
517.603560
 20
742.267493
 11
518.353418
 21
741.510247
  0
LINE
  8
CSLAYER1
  6
CONTINUOUS
 62
     7
 10
518.353418
 20
741.510247
 11
518.905922
 21
740.672433
  0
LINE
  8
CSLAYER1
  6
CONTINUOUS
 62
     7
 10
518.905922
 20
740.672433
 11
519.244285
 21
739.779505
  0
LINE
  8
CSLAYER1
  6
CONTINUOUS
 62
     7
 10
519.244285
 20
739.779505
 11
519.358227
 21
738.858597
  0
LINE
  8
CSLAYER1
  6
CONTINUOUS
 62
     7
 10
507.858227
 20
732.779570
 11
507.994524
 21
733.511620
  0
LINE
  8
CSLAYER1
  6
CONTINUOUS
 62
     7
 10
507.994524
 20
733.511620
 11
508.394125
 21
734.193783
  0
LINE
  8
CSLAYER1
  6
CONTINUOUS
 62
     7
 10
508.394125
 20
734.193783
 11
509.029800
 21
734.779570
  0
LINE
  8
CSLAYER1
  6
CONTINUOUS
 62
     7
 10
509.029800
 20
734.779570
 11
509.858227
 21
735.229059
  0
LINE
  8
CSLAYER1
  6
CONTINUOUS
 62
     7
 10
509.858227
 20
735.229059
 11
510.822951
 21
735.511620
  0
LINE
  8
CSLAYER1
  6
CONTINUOUS
 62
     7
 10
510.822951
 20
735.511620
 11
511.858227
 21
735.607997
  0
LINE
  8
CSLAYER1
  6
CONTINUOUS
 62
     7
 10
511.858227
 20
735.607997
 11
512.893503
 21
735.511620
  0
LINE
  8
CSLAYER1
  6
CONTINUOUS
 62
     7
 10
512.893503
 20
735.511620
 11
513.858227
 21
735.229059
  0
LINE
  8
CSLAYER1
  6
CONTINUOUS
 62
     7
 10
513.858227
 20
735.229059
 11
514.686654
 21
734.779570
  0
LINE
  8
CSLAYER1
  6
CONTINUOUS
 62
     7
 10
514.686654
 20
734.779570
 11
515.322329
 21
734.193783
  0
LINE
  8
CSLAYER1
  6
CONTINUOUS
 62
     7
 10
515.322329
 20
734.193783
 11
515.721930
 21
733.511620
  0
LINE
  8
CSLAYER1
  6
CONTINUOUS
 62
     7
 10
515.721930
 20
733.511620
 11
515.858227
 21
732.779570
  0
LINE
  8
CSLAYER1
  6
CONTINUOUS
 62
     7
 10
508.084989
 20
743.440922
 11
508.084989
 21
737.363809
  0
LINE
  8
CSLAYER1
  6
CONTINUOUS
 62
     7
 10
515.631465
 20
743.440922
 11
515.631465
 21
737.363809
  0
LINE
  8
CSLAYER1
  6
CONTINUOUS
 62
     7
 10
519.358227
 20
738.858597
 11
519.358227
 21
732.779570
  0
LINE
  8
CSLAYER1
  6
CONTINUOUS
 62
     7
 10
515.858227
 20
732.779570
 11
515.858227
 21
730.276441
  0
LINE
  8
CSLAYER1
  6
CONTINUOUS
 62
     7
 10
578.208227
 20
1024.273710
 11
578.208227
 21
950.825801
  0
LINE
  8
CSLAYER1
  6
CONTINUOUS
 62
     7
 10
595.008227
 20
928.439632
 11
595.008227
 21
782.600805
  0
LINE
  8
CSLAYER1
  6
CONTINUOUS
 62
     7
 10
578.208227
 20
1022.957943
 11
578.126984
 21
1024.273710
  0
LINE
  8
CSLAYER1
  6
CONTINUOUS
 62
     7
 10
578.126984
 20
1024.273710
 11
577.883873
 21
1025.579463
  0
LINE
  8
CSLAYER1
  6
CONTINUOUS
 62
     7
 10
577.883873
 20
1025.579463
 11
577.480743
 21
1026.865265
  0
LINE
  8
CSLAYER1
  6
CONTINUOUS
 62
     7
 10
577.480743
 20
1026.865265
 11
576.920665
 21
1028.121329
  0
LINE
  8
CSLAYER1
  6
CONTINUOUS
 62
     7
 10
576.920665
 20
1028.121329
 11
576.207898
 21
1029.338097
  0
LINE
  8
CSLAYER1
  6
CONTINUOUS
 62
     7
 10
576.207898
 20
1029.338097
 11
575.347869
 21
1030.506308
  0
LINE
  8
CSLAYER1
  6
CONTINUOUS
 62
     7
 10
575.347869
 20
1030.506308
 11
574.347123
 21
1031.617072
  0
LINE
  8
CSLAYER1
  6
CONTINUOUS
 62
     7
 10
574.347123
 20
1031.617072
 11
573.213276
 21
1032.661934
  0
LINE
  8
CSLAYER1
  6
CONTINUOUS
 62
     7
 10
573.213276
 20
1032.661934
 11
571.954957
 21
1033.632943
  0
LINE
  8
CSLAYER1
  6
CONTINUOUS
 62
     7
 10
571.954957
 20
1033.632943
 11
570.581743
 21
1034.522709
  0
LINE
  8
CSLAYER1
  6
CONTINUOUS
 62
     7
 10
570.581743
 20
1034.522709
 11
569.104084
 21
1035.324461
  0
LINE
  8
CSLAYER1
  6
CONTINUOUS
 62
     7
 10
569.104084
 20
1035.324461
 11
567.533227
 21
1036.032095
  0
LINE
  8
CSLAYER1
  6
CONTINUOUS
 62
     7
 10
567.533227
 20
1036.032095
 11
565.881127
 21
1036.640227
  0
LINE
  8
CSLAYER1
  6
CONTINUOUS
 62
     7
 10
565.881127
 20
1036.640227
 11
564.160357
 21
1037.144229
  0
LINE
  8
CSLAYER1
  6
CONTINUOUS
 62
     7
 10
564.160357
 20
1037.144229
 11
562.384014
 21
1037.540265
  0
LINE
  8
CSLAYER1
  6
CONTINUOUS
 62
     7
 10
562.384014
 20
1037.540265
 11
560.565616
 21
1037.825320
  0
LINE
  8
CSLAYER1
  6
CONTINUOUS
 62
     7
 10
560.565616
 20
1037.825320
 11
558.719002
 21
1037.997226
  0
LINE
  8
CSLAYER1
  6
CONTINUOUS
 62
     7
 10
558.719002
 20
1037.997226
 11
556.858227
 21
1038.054673
  0
LINE
  8
CSLAYER1
  6
CONTINUOUS
 62
     7
 10
556.858227
 20
1038.054673
 11
554.997452
 21
1037.997226
  0
LINE
  8
CSLAYER1
  6
CONTINUOUS
 62
     7
 10
554.997452
 20
1037.997226
 11
553.150838
 21
1037.825320
  0
LINE
  8
CSLAYER1
  6
CONTINUOUS
 62
     7
 10
553.150838
 20
1037.825320
 11
551.332440
 21
1037.540265
  0
LINE
  8
CSLAYER1
  6
CONTINUOUS
 62
     7
 10
551.332440
 20
1037.540265
 11
549.556097
 21
1037.144229
  0
LINE
  8
CSLAYER1
  6
CONTINUOUS
 62
     7
 10
549.556097
 20
1037.144229
 11
547.835327
 21
1036.640227
  0
LINE
  8
CSLAYER1
  6
CONTINUOUS
 62
     7
 10
547.835327
 20
1036.640227
 11
546.183227
 21
1036.032095
  0
LINE
  8
CSLAYER1
  6
CONTINUOUS
 62
     7
 10
546.183227
 20
1036.032095
 11
544.612370
 21
1035.324461
  0
LINE
  8
CSLAYER1
  6
CONTINUOUS
 62
     7
 10
544.612370
 20
1035.324461
 11
543.134712
 21
1034.522709
  0
LINE
  8
CSLAYER1
  6
CONTINUOUS
 62
     7
 10
543.134712
 20
1034.522709
 11
541.761497
 21
1033.632943
  0
LINE
  8
CSLAYER1
  6
CONTINUOUS
 62
     7
 10
541.761497
 20
1033.632943
 11
540.503178
 21
1032.661934
  0
LINE
  8
CSLAYER1
  6
CONTINUOUS
 62
     7
 10
540.503178
 20
1032.661934
 11
539.369331
 21
1031.617072
  0
LINE
  8
CSLAYER1
  6
CONTINUOUS
 62
     7
 10
539.369331
 20
1031.617072
 11
538.368585
 21
1030.506308
  0
LINE
  8
CSLAYER1
  6
CONTINUOUS
 62
     7
 10
538.368585
 20
1030.506308
 11
537.508556
 21
1029.338097
  0
LINE
  8
CSLAYER1
  6
CONTINUOUS
 62
     7
 10
537.508556
 20
1029.338097
 11
536.795790
 21
1028.121329
  0
LINE
  8
CSLAYER1
  6
CONTINUOUS
 62
     7
 10
536.795790
 20
1028.121329
 11
536.235711
 21
1026.865265
  0
LINE
  8
CSLAYER1
  6
CONTINUOUS
 62
     7
 10
536.235711
 20
1026.865265
 11
535.832582
 21
1025.579463
  0
LINE
  8
CSLAYER1
  6
CONTINUOUS
 62
     7
 10
535.832582
 20
1025.579463
 11
535.589470
 21
1024.273710
  0
LINE
  8
CSLAYER1
  6
CONTINUOUS
 62
     7
 10
535.589470
 20
1024.273710
 11
535.508227
 21
1022.957943
  0
LINE
  8
CSLAYER1
  6
CONTINUOUS
 62
     7
 10
595.008227
 20
928.439632
 11
594.863055
 21
930.790756
  0
LINE
  8
CSLAYER1
  6
CONTINUOUS
 62
     7
 10
594.863055
 20
930.790756
 11
594.428643
 21
933.123987
  0
LINE
  8
CSLAYER1
  6
CONTINUOUS
 62
     7
 10
594.428643
 20
933.123987
 11
593.708297
 21
935.421567
  0
LINE
  8
CSLAYER1
  6
CONTINUOUS
 62
     7
 10
593.708297
 20
935.421567
 11
592.707501
 21
937.666010
  0
LINE
  8
CSLAYER1
  6
CONTINUOUS
 62
     7
 10
592.707501
 20
937.666010
 11
591.433869
 21
939.840234
  0
LINE
  8
CSLAYER1
  6
CONTINUOUS
 62
     7
 10
591.433869
 20
939.840234
 11
589.897096
 21
941.927694
  0
LINE
  8
CSLAYER1
  6
CONTINUOUS
 62
     7
 10
589.897096
 20
941.927694
 11
588.108878
 21
943.912501
  0
LINE
  8
CSLAYER1
  6
CONTINUOUS
 62
     7
 10
588.108878
 20
943.912501
 11
586.082823
 21
945.779550
  0
LINE
  8
CSLAYER1
  6
CONTINUOUS
 62
     7
 10
586.082823
 20
945.779550
 11
583.834351
 21
947.514632
  0
LINE
  8
CSLAYER1
  6
CONTINUOUS
 62
     7
 10
583.834351
 20
947.514632
 11
581.380574
 21
949.104542
  0
LINE
  8
CSLAYER1
  6
CONTINUOUS
 62
     7
 10
581.380574
 20
949.104542
 11
578.740168
 21
950.537179
  0
LINE
  8
CSLAYER1
  6
CONTINUOUS
 62
     7
 10
578.740168
 20
950.537179
 11
575.933227
 21
951.801640
  0
LINE
  8
CSLAYER1
  6
CONTINUOUS
 62
     7
 10
575.933227
 20
951.801640
 11
572.981114
 21
952.888303
  0
LINE
  8
CSLAYER1
  6
CONTINUOUS
 62
     7
 10
572.981114
 20
952.888303
 11
569.906296
 21
953.788896
  0
LINE
  8
CSLAYER1
  6
CONTINUOUS
 62
     7
 10
569.906296
 20
953.788896
 11
566.732174
 21
954.496567
  0
LINE
  8
CSLAYER1
  6
CONTINUOUS
 62
     7
 10
566.732174
 20
954.496567
 11
563.482905
 21
955.005928
  0
LINE
  8
CSLAYER1
  6
CONTINUOUS
 62
     7
 10
563.482905
 20
955.005928
 11
560.183219
 21
955.313103
  0
LINE
  8
CSLAYER1
  6
CONTINUOUS
 62
     7
 10
560.183219
 20
955.313103
 11
556.858227
 21
955.415756
  0
LINE
  8
CSLAYER1
  6
CONTINUOUS
 62
     7
 10
556.858227
 20
955.415756
 11
553.533235
 21
955.313103
  0
LINE
  8
CSLAYER1
  6
CONTINUOUS
 62
     7
 10
553.533235
 20
955.313103
 11
550.233549
 21
955.005928
  0
LINE
  8
CSLAYER1
  6
CONTINUOUS
 62
     7
 10
550.233549
 20
955.005928
 11
546.984281
 21
954.496567
  0
LINE
  8
CSLAYER1
  6
CONTINUOUS
 62
     7
 10
546.984281
 20
954.496567
 11
543.810159
 21
953.788896
  0
LINE
  8
CSLAYER1
  6
CONTINUOUS
 62
     7
 10
543.810159
 20
953.788896
 11
540.735340
 21
952.888303
  0
LINE
  8
CSLAYER1
  6
CONTINUOUS
 62
     7
 10
540.735340
 20
952.888303
 11
537.783227
 21
951.801640
  0
LINE
  8
CSLAYER1
  6
CONTINUOUS
 62
     7
 10
537.783227
 20
951.801640
 11
534.976286
 21
950.537179
  0
LINE
  8
CSLAYER1
  6
CONTINUOUS
 62
     7
 10
534.976286
 20
950.537179
 11
532.335880
 21
949.104542
  0
LINE
  8
CSLAYER1
  6
CONTINUOUS
 62
     7
 10
532.335880
 20
949.104542
 11
529.882103
 21
947.514632
  0
LINE
  8
CSLAYER1
  6
CONTINUOUS
 62
     7
 10
529.882103
 20
947.514632
 11
527.633632
 21
945.779550
  0
LINE
  8
CSLAYER1
  6
CONTINUOUS
 62
     7
 10
527.633632
 20
945.779550
 11
525.607577
 21
943.912501
  0
LINE
  8
CSLAYER1
  6
CONTINUOUS
 62
     7
 10
525.607577
 20
943.912501
 11
523.819358
 21
941.927694
  0
LINE
  8
CSLAYER1
  6
CONTINUOUS
 62
     7
 10
523.819358
 20
941.927694
 11
522.282585
 21
939.840234
  0
LINE
  8
CSLAYER1
  6
CONTINUOUS
 62
     7
 10
522.282585
 20
939.840234
 11
521.008954
 21
937.666010
  0
LINE
  8
CSLAYER1
  6
CONTINUOUS
 62
     7
 10
521.008954
 20
937.666010
 11
520.008157
 21
935.421567
  0
LINE
  8
CSLAYER1
  6
CONTINUOUS
 62
     7
 10
520.008157
 20
935.421567
 11
519.287811
 21
933.123987
  0
LINE
  8
CSLAYER1
  6
CONTINUOUS
 62
     7
 10
519.287811
 20
933.123987
 11
518.853399
 21
930.790756
  0
LINE
  8
CSLAYER1
  6
CONTINUOUS
 62
     7
 10
518.853399
 20
930.790756
 11
518.708227
 21
928.439632
  0
LINE
  8
CSLAYER1
  6
CONTINUOUS
 62
     7
 10
535.508227
 20
1024.273710
 11
535.508227
 21
950.825801
  0
LINE
  8
CSLAYER1
  6
CONTINUOUS
 62
     7
 10
518.708227
 20
928.439632
 11
518.708227
 21
782.600805
  0
LINE
  8
CSLAYER1
  6
CONTINUOUS
 62
     7
 10
616.858227
 20
672.347475
 11
617.858227
 21
672.347475
  0
LINE
  8
CSLAYER1
  6
CONTINUOUS
 62
     7
 10
782.858227
 20
754.643179
 11
782.858227
 21
700.305100
  0
LINE
  8
CSLAYER1
  6
CONTINUOUS
 62
     7
 10
617.858227
 20
782.600805
 11
617.858227
 21
759.715055
  0
LINE
  8
CSLAYER1
  6
CONTINUOUS
 62
     7
 10
330.858227
 20
754.643179
 11
330.858227
 21
700.305100
  0
LINE
  8
CSLAYER1
  6
CONTINUOUS
 62
     7
 10
495.858227
 20
782.600805
 11
495.858227
 21
759.715055
  0
POINT
  8
CSLAYER1
 62
     7
 10
556.858227
 20
727.474140
  0
LINE
  8
CSLAYER1
  6
CONTINUOUS
 62
     7
 10
763.358227
 20
711.435071
 11
763.259477
 21
712.233191
  0
LINE
  8
CSLAYER1
  6
CONTINUOUS
 62
     7
 10
763.259477
 20
712.233191
 11
762.966229
 21
713.007062
  0
LINE
  8
CSLAYER1
  6
CONTINUOUS
 62
     7
 10
762.966229
 20
713.007062
 11
762.487392
 21
713.733168
  0
LINE
  8
CSLAYER1
  6
CONTINUOUS
 62
     7
 10
762.487392
 20
713.733168
 11
761.837516
 21
714.389447
  0
LINE
  8
CSLAYER1
  6
CONTINUOUS
 62
     7
 10
761.837516
 20
714.389447
 11
761.036347
 21
714.955960
  0
LINE
  8
CSLAYER1
  6
CONTINUOUS
 62
     7
 10
761.036347
 20
714.955960
 11
760.108227
 21
715.415491
  0
LINE
  8
CSLAYER1
  6
CONTINUOUS
 62
     7
 10
760.108227
 20
715.415491
 11
759.081358
 21
715.754080
  0
LINE
  8
CSLAYER1
  6
CONTINUOUS
 62
     7
 10
759.081358
 20
715.754080
 11
757.986940
 21
715.961438
  0
LINE
  8
CSLAYER1
  6
CONTINUOUS
 62
     7
 10
757.986940
 20
715.961438
 11
756.858227
 21
716.031265
  0
LINE
  8
CSLAYER1
  6
CONTINUOUS
 62
     7
 10
756.858227
 20
716.031265
 11
755.729514
 21
715.961438
  0
LINE
  8
CSLAYER1
  6
CONTINUOUS
 62
     7
 10
755.729514
 20
715.961438
 11
754.635096
 21
715.754080
  0
LINE
  8
CSLAYER1
  6
CONTINUOUS
 62
     7
 10
754.635096
 20
715.754080
 11
753.608227
 21
715.415491
  0
LINE
  8
CSLAYER1
  6
CONTINUOUS
 62
     7
 10
753.608227
 20
715.415491
 11
752.680108
 21
714.955960
  0
LINE
  8
CSLAYER1
  6
CONTINUOUS
 62
     7
 10
752.680108
 20
714.955960
 11
751.878938
 21
714.389447
  0
LINE
  8
CSLAYER1
  6
CONTINUOUS
 62
     7
 10
751.878938
 20
714.389447
 11
751.229062
 21
713.733168
  0
LINE
  8
CSLAYER1
  6
CONTINUOUS
 62
     7
 10
751.229062
 20
713.733168
 11
750.750225
 21
713.007062
  0
LINE
  8
CSLAYER1
  6
CONTINUOUS
 62
     7
 10
750.750225
 20
713.007062
 11
750.456977
 21
712.233191
  0
LINE
  8
CSLAYER1
  6
CONTINUOUS
 62
     7
 10
750.456977
 20
712.233191
 11
750.358227
 21
711.435071
  0
LINE
  8
CSLAYER1
  6
CONTINUOUS
 62
     7
 10
750.358227
 20
711.435071
 11
750.456977
 21
710.636950
  0
LINE
  8
CSLAYER1
  6
CONTINUOUS
 62
     7
 10
750.456977
 20
710.636950
 11
750.750225
 21
709.863080
  0
LINE
  8
CSLAYER1
  6
CONTINUOUS
 62
     7
 10
750.750225
 20
709.863080
 11
751.229062
 21
709.136974
  0
LINE
  8
CSLAYER1
  6
CONTINUOUS
 62
     7
 10
751.229062
 20
709.136974
 11
751.878938
 21
708.480694
  0
LINE
  8
CSLAYER1
  6
CONTINUOUS
 62
     7
 10
751.878938
 20
708.480694
 11
752.680108
 21
707.914182
  0
LINE
  8
CSLAYER1
  6
CONTINUOUS
 62
     7
 10
752.680108
 20
707.914182
 11
753.608227
 21
707.454650
  0
LINE
  8
CSLAYER1
  6
CONTINUOUS
 62
     7
 10
753.608227
 20
707.454650
 11
754.635096
 21
707.116061
  0
LINE
  8
CSLAYER1
  6
CONTINUOUS
 62
     7
 10
754.635096
 20
707.116061
 11
755.729514
 21
706.908703
  0
LINE
  8
CSLAYER1
  6
CONTINUOUS
 62
     7
 10
755.729514
 20
706.908703
 11
756.858227
 21
706.838877
  0
LINE
  8
CSLAYER1
  6
CONTINUOUS
 62
     7
 10
756.858227
 20
706.838877
 11
757.986940
 21
706.908703
  0
LINE
  8
CSLAYER1
  6
CONTINUOUS
 62
     7
 10
757.986940
 20
706.908703
 11
759.081358
 21
707.116061
  0
LINE
  8
CSLAYER1
  6
CONTINUOUS
 62
     7
 10
759.081358
 20
707.116061
 11
760.108227
 21
707.454650
  0
LINE
  8
CSLAYER1
  6
CONTINUOUS
 62
     7
 10
760.108227
 20
707.454650
 11
761.036347
 21
707.914182
  0
LINE
  8
CSLAYER1
  6
CONTINUOUS
 62
     7
 10
761.036347
 20
707.914182
 11
761.837516
 21
708.480694
  0
LINE
  8
CSLAYER1
  6
CONTINUOUS
 62
     7
 10
761.837516
 20
708.480694
 11
762.487392
 21
709.136974
  0
LINE
  8
CSLAYER1
  6
CONTINUOUS
 62
     7
 10
762.487392
 20
709.136974
 11
762.966229
 21
709.863080
  0
LINE
  8
CSLAYER1
  6
CONTINUOUS
 62
     7
 10
762.966229
 20
709.863080
 11
763.259477
 21
710.636950
  0
LINE
  8
CSLAYER1
  6
CONTINUOUS
 62
     7
 10
763.259477
 20
710.636950
 11
763.358227
 21
711.435071
  0
LINE
  8
CSLAYER1
  6
CONTINUOUS
 62
     7
 10
763.358227
 20
716.031265
 11
763.358227
 21
711.435071
  0
LINE
  8
CSLAYER1
  6
CONTINUOUS
 62
     7
 10
763.358227
 20
716.031265
 11
763.259477
 21
716.829385
  0
LINE
  8
CSLAYER1
  6
CONTINUOUS
 62
     7
 10
763.259477
 20
716.829385
 11
762.966229
 21
717.603256
  0
LINE
  8
CSLAYER1
  6
CONTINUOUS
 62
     7
 10
762.966229
 20
717.603256
 11
762.487392
 21
718.329362
  0
LINE
  8
CSLAYER1
  6
CONTINUOUS
 62
     7
 10
762.487392
 20
718.329362
 11
761.837516
 21
718.985641
  0
LINE
  8
CSLAYER1
  6
CONTINUOUS
 62
     7
 10
761.837516
 20
718.985641
 11
761.036347
 21
719.552154
  0
LINE
  8
CSLAYER1
  6
CONTINUOUS
 62
     7
 10
761.036347
 20
719.552154
 11
760.108227
 21
720.011686
  0
LINE
  8
CSLAYER1
  6
CONTINUOUS
 62
     7
 10
760.108227
 20
720.011686
 11
759.081358
 21
720.350274
  0
LINE
  8
CSLAYER1
  6
CONTINUOUS
 62
     7
 10
759.081358
 20
720.350274
 11
757.986940
 21
720.557632
  0
LINE
  8
CSLAYER1
  6
CONTINUOUS
 62
     7
 10
757.986940
 20
720.557632
 11
756.858227
 21
720.627459
  0
LINE
  8
CSLAYER1
  6
CONTINUOUS
 62
     7
 10
756.858227
 20
720.627459
 11
755.729514
 21
720.557632
  0
LINE
  8
CSLAYER1
  6
CONTINUOUS
 62
     7
 10
755.729514
 20
720.557632
 11
754.635096
 21
720.350274
  0
LINE
  8
CSLAYER1
  6
CONTINUOUS
 62
     7
 10
754.635096
 20
720.350274
 11
753.608227
 21
720.011686
  0
LINE
  8
CSLAYER1
  6
CONTINUOUS
 62
     7
 10
753.608227
 20
720.011686
 11
752.680108
 21
719.552154
  0
LINE
  8
CSLAYER1
  6
CONTINUOUS
 62
     7
 10
752.680108
 20
719.552154
 11
751.878938
 21
718.985641
  0
LINE
  8
CSLAYER1
  6
CONTINUOUS
 62
     7
 10
751.878938
 20
718.985641
 11
751.229062
 21
718.329362
  0
LINE
  8
CSLAYER1
  6
CONTINUOUS
 62
     7
 10
751.229062
 20
718.329362
 11
750.750225
 21
717.603256
  0
LINE
  8
CSLAYER1
  6
CONTINUOUS
 62
     7
 10
750.750225
 20
717.603256
 11
750.456977
 21
716.829385
  0
LINE
  8
CSLAYER1
  6
CONTINUOUS
 62
     7
 10
750.456977
 20
716.829385
 11
750.358227
 21
716.031265
  0
LINE
  8
CSLAYER1
  6
CONTINUOUS
 62
     7
 10
750.358227
 20
716.031265
 11
750.358227
 21
711.435071
  0
LINE
  8
CSLAYER1
  6
CONTINUOUS
 62
     7
 10
350.358227
 20
711.435071
 11
350.456977
 21
712.233191
  0
LINE
  8
CSLAYER1
  6
CONTINUOUS
 62
     7
 10
350.456977
 20
712.233191
 11
350.750225
 21
713.007062
  0
LINE
  8
CSLAYER1
  6
CONTINUOUS
 62
     7
 10
350.750225
 20
713.007062
 11
351.229062
 21
713.733168
  0
LINE
  8
CSLAYER1
  6
CONTINUOUS
 62
     7
 10
351.229062
 20
713.733168
 11
351.878938
 21
714.389447
  0
LINE
  8
CSLAYER1
  6
CONTINUOUS
 62
     7
 10
351.878938
 20
714.389447
 11
352.680108
 21
714.955960
  0
LINE
  8
CSLAYER1
  6
CONTINUOUS
 62
     7
 10
352.680108
 20
714.955960
 11
353.608227
 21
715.415491
  0
LINE
  8
CSLAYER1
  6
CONTINUOUS
 62
     7
 10
353.608227
 20
715.415491
 11
354.635096
 21
715.754080
  0
LINE
  8
CSLAYER1
  6
CONTINUOUS
 62
     7
 10
354.635096
 20
715.754080
 11
355.729514
 21
715.961438
  0
LINE
  8
CSLAYER1
  6
CONTINUOUS
 62
     7
 10
355.729514
 20
715.961438
 11
356.858227
 21
716.031265
  0
LINE
  8
CSLAYER1
  6
CONTINUOUS
 62
     7
 10
356.858227
 20
716.031265
 11
357.986940
 21
715.961438
  0
LINE
  8
CSLAYER1
  6
CONTINUOUS
 62
     7
 10
357.986940
 20
715.961438
 11
359.081358
 21
715.754080
  0
LINE
  8
CSLAYER1
  6
CONTINUOUS
 62
     7
 10
359.081358
 20
715.754080
 11
360.108227
 21
715.415491
  0
LINE
  8
CSLAYER1
  6
CONTINUOUS
 62
     7
 10
360.108227
 20
715.415491
 11
361.036347
 21
714.955960
  0
LINE
  8
CSLAYER1
  6
CONTINUOUS
 62
     7
 10
361.036347
 20
714.955960
 11
361.837516
 21
714.389447
  0
LINE
  8
CSLAYER1
  6
CONTINUOUS
 62
     7
 10
361.837516
 20
714.389447
 11
362.487392
 21
713.733168
  0
LINE
  8
CSLAYER1
  6
CONTINUOUS
 62
     7
 10
362.487392
 20
713.733168
 11
362.966229
 21
713.007062
  0
LINE
  8
CSLAYER1
  6
CONTINUOUS
 62
     7
 10
362.966229
 20
713.007062
 11
363.259477
 21
712.233191
  0
LINE
  8
CSLAYER1
  6
CONTINUOUS
 62
     7
 10
363.259477
 20
712.233191
 11
363.358227
 21
711.435071
  0
LINE
  8
CSLAYER1
  6
CONTINUOUS
 62
     7
 10
363.358227
 20
711.435071
 11
363.259477
 21
710.636950
  0
LINE
  8
CSLAYER1
  6
CONTINUOUS
 62
     7
 10
363.259477
 20
710.636950
 11
362.966229
 21
709.863080
  0
LINE
  8
CSLAYER1
  6
CONTINUOUS
 62
     7
 10
362.966229
 20
709.863080
 11
362.487392
 21
709.136974
  0
LINE
  8
CSLAYER1
  6
CONTINUOUS
 62
     7
 10
362.487392
 20
709.136974
 11
361.837516
 21
708.480694
  0
LINE
  8
CSLAYER1
  6
CONTINUOUS
 62
     7
 10
361.837516
 20
708.480694
 11
361.036347
 21
707.914182
  0
LINE
  8
CSLAYER1
  6
CONTINUOUS
 62
     7
 10
361.036347
 20
707.914182
 11
360.108227
 21
707.454650
  0
LINE
  8
CSLAYER1
  6
CONTINUOUS
 62
     7
 10
360.108227
 20
707.454650
 11
359.081358
 21
707.116061
  0
LINE
  8
CSLAYER1
  6
CONTINUOUS
 62
     7
 10
359.081358
 20
707.116061
 11
357.986940
 21
706.908703
  0
LINE
  8
CSLAYER1
  6
CONTINUOUS
 62
     7
 10
357.986940
 20
706.908703
 11
356.858227
 21
706.838877
  0
LINE
  8
CSLAYER1
  6
CONTINUOUS
 62
     7
 10
356.858227
 20
706.838877
 11
355.729514
 21
706.908703
  0
LINE
  8
CSLAYER1
  6
CONTINUOUS
 62
     7
 10
355.729514
 20
706.908703
 11
354.635096
 21
707.116061
  0
LINE
  8
CSLAYER1
  6
CONTINUOUS
 62
     7
 10
354.635096
 20
707.116061
 11
353.608227
 21
707.454650
  0
LINE
  8
CSLAYER1
  6
CONTINUOUS
 62
     7
 10
353.608227
 20
707.454650
 11
352.680108
 21
707.914182
  0
LINE
  8
CSLAYER1
  6
CONTINUOUS
 62
     7
 10
352.680108
 20
707.914182
 11
351.878938
 21
708.480694
  0
LINE
  8
CSLAYER1
  6
CONTINUOUS
 62
     7
 10
351.878938
 20
708.480694
 11
351.229062
 21
709.136974
  0
LINE
  8
CSLAYER1
  6
CONTINUOUS
 62
     7
 10
351.229062
 20
709.136974
 11
350.750225
 21
709.863080
  0
LINE
  8
CSLAYER1
  6
CONTINUOUS
 62
     7
 10
350.750225
 20
709.863080
 11
350.456977
 21
710.636950
  0
LINE
  8
CSLAYER1
  6
CONTINUOUS
 62
     7
 10
350.456977
 20
710.636950
 11
350.358227
 21
711.435071
  0
LINE
  8
CSLAYER1
  6
CONTINUOUS
 62
     7
 10
350.358227
 20
716.031265
 11
350.358227
 21
711.435071
  0
LINE
  8
CSLAYER1
  6
CONTINUOUS
 62
     7
 10
350.358227
 20
716.031265
 11
350.456977
 21
716.829385
  0
LINE
  8
CSLAYER1
  6
CONTINUOUS
 62
     7
 10
350.456977
 20
716.829385
 11
350.750225
 21
717.603256
  0
LINE
  8
CSLAYER1
  6
CONTINUOUS
 62
     7
 10
350.750225
 20
717.603256
 11
351.229062
 21
718.329362
  0
LINE
  8
CSLAYER1
  6
CONTINUOUS
 62
     7
 10
351.229062
 20
718.329362
 11
351.878938
 21
718.985641
  0
LINE
  8
CSLAYER1
  6
CONTINUOUS
 62
     7
 10
351.878938
 20
718.985641
 11
352.680108
 21
719.552154
  0
LINE
  8
CSLAYER1
  6
CONTINUOUS
 62
     7
 10
352.680108
 20
719.552154
 11
353.608227
 21
720.011686
  0
LINE
  8
CSLAYER1
  6
CONTINUOUS
 62
     7
 10
353.608227
 20
720.011686
 11
354.635096
 21
720.350274
  0
LINE
  8
CSLAYER1
  6
CONTINUOUS
 62
     7
 10
354.635096
 20
720.350274
 11
355.729514
 21
720.557632
  0
LINE
  8
CSLAYER1
  6
CONTINUOUS
 62
     7
 10
355.729514
 20
720.557632
 11
356.858227
 21
720.627459
  0
LINE
  8
CSLAYER1
  6
CONTINUOUS
 62
     7
 10
356.858227
 20
720.627459
 11
357.986940
 21
720.557632
  0
LINE
  8
CSLAYER1
  6
CONTINUOUS
 62
     7
 10
357.986940
 20
720.557632
 11
359.081358
 21
720.350274
  0
LINE
  8
CSLAYER1
  6
CONTINUOUS
 62
     7
 10
359.081358
 20
720.350274
 11
360.108227
 21
720.011686
  0
LINE
  8
CSLAYER1
  6
CONTINUOUS
 62
     7
 10
360.108227
 20
720.011686
 11
361.036347
 21
719.552154
  0
LINE
  8
CSLAYER1
  6
CONTINUOUS
 62
     7
 10
361.036347
 20
719.552154
 11
361.837516
 21
718.985641
  0
LINE
  8
CSLAYER1
  6
CONTINUOUS
 62
     7
 10
361.837516
 20
718.985641
 11
362.487392
 21
718.329362
  0
LINE
  8
CSLAYER1
  6
CONTINUOUS
 62
     7
 10
362.487392
 20
718.329362
 11
362.966229
 21
717.603256
  0
LINE
  8
CSLAYER1
  6
CONTINUOUS
 62
     7
 10
362.966229
 20
717.603256
 11
363.259477
 21
716.829385
  0
LINE
  8
CSLAYER1
  6
CONTINUOUS
 62
     7
 10
363.259477
 20
716.829385
 11
363.358227
 21
716.031265
  0
LINE
  8
CSLAYER1
  6
CONTINUOUS
 62
     7
 10
363.358227
 20
716.031265
 11
363.358227
 21
711.435071
  0
LINE
  8
CSLAYER1
  6
CONTINUOUS
 62
     7
 10
348.608227
 20
949.859266
 11
365.108227
 21
949.859266
  0
LINE
  8
CSLAYER1
  6
CONTINUOUS
 62
     7
 10
348.608227
 20
967.859266
 11
365.108227
 21
967.859266
  0
LINE
  8
CSLAYER1
  6
CONTINUOUS
 62
     7
 10
350.858227
 20
967.859266
 11
350.858227
 21
1013.426666
  0
LINE
  8
CSLAYER1
  6
CONTINUOUS
 62
     7
 10
348.608227
 20
949.859266
 11
348.108227
 21
950.359266
  0
LINE
  8
CSLAYER1
  6
CONTINUOUS
 62
     7
 10
348.108227
 20
967.359266
 11
348.608227
 21
967.859266
  0
LINE
  8
CSLAYER1
  6
CONTINUOUS
 62
     7
 10
348.108227
 20
950.359266
 11
365.608227
 21
950.359266
  0
LINE
  8
CSLAYER1
  6
CONTINUOUS
 62
     7
 10
348.108227
 20
967.359266
 11
365.608227
 21
967.359266
  0
LINE
  8
CSLAYER1
  6
CONTINUOUS
 62
     7
 10
362.858227
 20
967.859266
 11
362.858227
 21
1013.426666
  0
LINE
  8
CSLAYER1
  6
CONTINUOUS
 62
     7
 10
362.058227
 20
994.859266
 11
362.058227
 21
1015.542761
  0
LINE
  8
CSLAYER1
  6
CONTINUOUS
 62
     7
 10
365.108227
 20
949.859266
 11
365.608227
 21
950.359266
  0
LINE
  8
CSLAYER1
  6
CONTINUOUS
 62
     7
 10
365.608227
 20
967.359266
 11
365.108227
 21
967.859266
  0
POINT
  8
CSLAYER1
 62
     7
 10
356.858227
 20
958.859266
  0
LINE
  8
CSLAYER1
  6
CONTINUOUS
 62
     7
 10
368.008227
 20
966.659266
 11
368.008227
 21
932.009266
  0
LINE
  8
CSLAYER1
  6
CONTINUOUS
 62
     7
 10
371.608227
 20
961.839266
 11
371.608227
 21
955.879266
  0
LINE
  8
CSLAYER1
  6
CONTINUOUS
 62
     7
 10
344.008227
 20
961.839266
 11
344.008227
 21
955.879266
  0
LINE
  8
CSLAYER1
  6
CONTINUOUS
 62
     7
 10
369.708227
 20
942.789266
 11
369.708227
 21
936.829266
  0
LINE
  8
CSLAYER1
  6
CONTINUOUS
 62
     7
 10
365.608227
 20
966.659266
 11
368.008227
 21
966.659266
  0
LINE
  8
CSLAYER1
  6
CONTINUOUS
 62
     7
 10
365.608227
 20
932.009266
 11
368.008227
 21
932.009266
  0
LINE
  8
CSLAYER1
  6
CONTINUOUS
 62
     7
 10
368.008227
 20
942.789266
 11
369.708227
 21
942.789266
  0
LINE
  8
CSLAYER1
  6
CONTINUOUS
 62
     7
 10
368.008227
 20
936.829266
 11
369.708227
 21
936.829266
  0
LINE
  8
CSLAYER1
  6
CONTINUOUS
 62
     7
 10
368.008227
 20
961.839266
 11
371.608227
 21
961.839266
  0
LINE
  8
CSLAYER1
  6
CONTINUOUS
 62
     7
 10
368.008227
 20
955.879266
 11
371.608227
 21
955.879266
  0
LINE
  8
CSLAYER1
  6
CONTINUOUS
 62
     7
 10
345.708227
 20
966.659266
 11
345.708227
 21
932.009266
  0
LINE
  8
CSLAYER1
  6
CONTINUOUS
 62
     7
 10
344.008227
 20
942.789266
 11
344.008227
 21
936.829266
  0
LINE
  8
CSLAYER1
  6
CONTINUOUS
 62
     7
 10
348.108227
 20
966.659266
 11
345.708227
 21
966.659266
  0
LINE
  8
CSLAYER1
  6
CONTINUOUS
 62
     7
 10
348.108227
 20
932.009266
 11
345.708227
 21
932.009266
  0
LINE
  8
CSLAYER1
  6
CONTINUOUS
 62
     7
 10
345.708227
 20
942.789266
 11
344.008227
 21
942.789266
  0
LINE
  8
CSLAYER1
  6
CONTINUOUS
 62
     7
 10
345.708227
 20
936.829266
 11
344.008227
 21
936.829266
  0
LINE
  8
CSLAYER1
  6
CONTINUOUS
 62
     7
 10
345.708227
 20
961.839266
 11
344.008227
 21
961.839266
  0
LINE
  8
CSLAYER1
  6
CONTINUOUS
 62
     7
 10
345.708227
 20
955.879266
 11
344.008227
 21
955.879266
  0
LINE
  8
CSLAYER1
  6
CONTINUOUS
 62
     7
 10
363.208227
 20
911.709266
 11
365.608227
 21
911.709266
  0
LINE
  8
CSLAYER1
  6
CONTINUOUS
 62
     7
 10
363.208227
 20
926.714266
 11
350.508227
 21
926.714266
  0
LINE
  8
CSLAYER1
  6
CONTINUOUS
 62
     7
 10
363.208227
 20
914.804266
 11
350.508227
 21
914.804266
  0
LINE
  8
CSLAYER1
  6
CONTINUOUS
 62
     7
 10
350.508227
 20
911.709266
 11
348.108227
 21
911.709266
  0
LINE
  8
CSLAYER1
  6
CONTINUOUS
 62
     7
 10
365.608227
 20
967.359266
 11
365.608227
 21
788.059674
  0
LINE
  8
CSLAYER1
  6
CONTINUOUS
 62
     7
 10
348.108227
 20
967.359266
 11
348.108227
 21
788.059674
  0
LINE
  8
CSLAYER1
  6
CONTINUOUS
 62
     7
 10
350.508227
 20
948.859266
 11
350.508227
 21
911.709266
  0
LINE
  8
CSLAYER1
  6
CONTINUOUS
 62
     7
 10
350.508227
 20
948.859266
 11
348.108227
 21
948.859266
  0
LINE
  8
CSLAYER1
  6
CONTINUOUS
 62
     7
 10
350.508227
 20
945.764266
 11
363.208227
 21
945.764266
  0
LINE
  8
CSLAYER1
  6
CONTINUOUS
 62
     7
 10
350.508227
 20
933.854266
 11
363.208227
 21
933.854266
  0
LINE
  8
CSLAYER1
  6
CONTINUOUS
 62
     7
 10
363.208227
 20
948.859266
 11
365.608227
 21
948.859266
  0
LINE
  8
CSLAYER1
  6
CONTINUOUS
 62
     7
 10
363.208227
 20
948.859266
 11
363.208227
 21
911.709266
  0
LINE
  8
CSLAYER1
  6
CONTINUOUS
 62
     7
 10
351.658227
 20
994.859266
 11
351.658227
 21
1015.542761
  0
LINE
  8
CSLAYER1
  6
CENTER
 62
     5
 10
342.055810
 20
958.859266
 11
372.992088
 21
958.859266
  0
LINE
  8
CSLAYER1
  6
CENTER
 62
     5
 10
342.496184
 20
939.809266
 11
371.230592
 21
939.809266
  0
LINE
  8
CSLAYER1
  6
CONTINUOUS
 62
     7
 10
337.858227
 20
1040.273710
 11
369.858227
 21
1040.273710
  0
LINE
  8
CSLAYER1
  6
CONTINUOUS
 62
     7
 10
369.858227
 20
1000.873710
 11
369.858227
 21
1047.673710
  0
LINE
  8
CSLAYER1
  6
CONTINUOUS
 62
     7
 10
369.858227
 20
1047.673710
 11
371.858227
 21
1049.673710
  0
LINE
  8
CSLAYER1
  6
CONTINUOUS
 62
     7
 10
371.858227
 20
998.873710
 11
371.858227
 21
1049.673710
  0
LINE
  8
CSLAYER1
  6
CONTINUOUS
 62
     7
 10
319.858227
 20
1045.273710
 11
320.858227
 21
1045.273710
  0
LINE
  8
CSLAYER1
  6
CONTINUOUS
 62
     7
 10
331.858227
 20
1044.273710
 11
331.858227
 21
1004.273710
  0
LINE
  8
CSLAYER1
  6
CONTINUOUS
 62
     7
 10
318.858227
 20
1044.273710
 11
318.858227
 21
1004.273710
  0
LINE
  8
CSLAYER1
  6
CONTINUOUS
 62
     7
 10
315.358227
 20
1030.773710
 11
315.358227
 21
1017.773710
  0
LINE
  8
CSLAYER1
  6
CONTINUOUS
 62
     7
 10
317.708227
 20
1033.273710
 11
317.708227
 21
1015.273710
  0
LINE
  8
CSLAYER1
  6
CONTINUOUS
 62
     7
 10
317.708227
 20
1031.773710
 11
316.358227
 21
1031.773710
  0
LINE
  8
CSLAYER1
  6
CONTINUOUS
 62
     7
 10
316.358227
 20
1031.773710
 11
315.358227
 21
1030.773710
  0
LINE
  8
CSLAYER1
  6
CONTINUOUS
 62
     7
 10
316.358227
 20
1031.773710
 11
316.358227
 21
1016.773710
  0
LINE
  8
CSLAYER1
  6
CONTINUOUS
 62
     7
 10
317.708227
 20
1033.273710
 11
318.858227
 21
1033.273710
  0
LINE
  8
CSLAYER1
  6
CONTINUOUS
 62
     7
 10
331.858227
 20
1034.273710
 11
337.858227
 21
1040.273710
  0
LINE
  8
CSLAYER1
  6
CONTINUOUS
 62
     7
 10
337.858227
 20
1040.273710
 11
337.858227
 21
1008.273710
  0
ARC
  8
CSLAYER1
  6
CONTINUOUS
 62
     7
 10
319.858227
 20
1044.273710
 40
1.000000
 50
90.000000
 51
180.000000
  0
ARC
  8
CSLAYER1
  6
CONTINUOUS
 62
     7
 10
330.858227
 20
1044.273710
 40
1.000000
 50
0.000000
 51
90.000000
  0
LINE
  8
CSLAYER1
  6
CONTINUOUS
 62
     7
 10
337.858227
 20
1008.273710
 11
350.858227
 21
1008.273710
  0
LINE
  8
CSLAYER1
  6
CONTINUOUS
 62
     7
 10
319.858227
 20
1003.273710
 11
320.858227
 21
1003.273710
  0
LINE
  8
CSLAYER1
  6
CONTINUOUS
 62
     7
 10
317.708227
 20
1016.773710
 11
316.358227
 21
1016.773710
  0
LINE
  8
CSLAYER1
  6
CONTINUOUS
 62
     7
 10
316.358227
 20
1016.773710
 11
315.358227
 21
1017.773710
  0
LINE
  8
CSLAYER1
  6
CONTINUOUS
 62
     7
 10
317.708227
 20
1015.273710
 11
318.858227
 21
1015.273710
  0
LINE
  8
CSLAYER1
  6
CONTINUOUS
 62
     7
 10
331.858227
 20
1014.273710
 11
337.858227
 21
1008.273710
  0
ARC
  8
CSLAYER1
  6
CONTINUOUS
 62
     7
 10
319.858227
 20
1004.273710
 40
1.000000
 50
180.000000
 51
270.000000
  0
ARC
  8
CSLAYER1
  6
CONTINUOUS
 62
     7
 10
330.858227
 20
1004.273710
 40
1.000000
 50
270.000000
 51
360.000000
  0
LINE
  8
CSLAYER1
  6
CONTINUOUS
 62
     7
 10
369.858227
 20
1000.873710
 11
371.858227
 21
998.873710
  0
LINE
  8
CSLAYER1
  6
CONTINUOUS
 62
     7
 10
329.858227
 20
1045.273710
 11
330.858227
 21
1045.273710
  0
LINE
  8
CSLAYER1
  6
CONTINUOUS
 62
     7
 10
329.858227
 20
1003.273710
 11
330.858227
 21
1003.273710
  0
LINE
  8
CSLAYER1
  6
CONTINUOUS
 62
     7
 10
371.858227
 20
1049.673710
 11
741.858227
 21
1049.673710
  0
LINE
  8
CSLAYER1
  6
CONTINUOUS
 62
     7
 10
371.858227
 20
998.873710
 11
535.508227
 21
998.873710
  0
LINE
  8
CSLAYER1
  6
CONTINUOUS
 62
     7
 10
362.858227
 20
1013.426666
 11
362.767074
 21
1014.163393
  0
LINE
  8
CSLAYER1
  6
CONTINUOUS
 62
     7
 10
362.767074
 20
1014.163393
 11
362.496383
 21
1014.877735
  0
LINE
  8
CSLAYER1
  6
CONTINUOUS
 62
     7
 10
362.496383
 20
1014.877735
 11
362.054380
 21
1015.547987
  0
LINE
  8
CSLAYER1
  6
CONTINUOUS
 62
     7
 10
362.054380
 20
1015.547987
 11
361.454494
 21
1016.153783
  0
LINE
  8
CSLAYER1
  6
CONTINUOUS
 62
     7
 10
361.454494
 20
1016.153783
 11
360.714953
 21
1016.676718
  0
LINE
  8
CSLAYER1
  6
CONTINUOUS
 62
     7
 10
360.714953
 20
1016.676718
 11
359.858227
 21
1017.100901
  0
LINE
  8
CSLAYER1
  6
CONTINUOUS
 62
     7
 10
359.858227
 20
1017.100901
 11
358.910348
 21
1017.413445
  0
LINE
  8
CSLAYER1
  6
CONTINUOUS
 62
     7
 10
358.910348
 20
1017.413445
 11
357.900116
 21
1017.604852
  0
LINE
  8
CSLAYER1
  6
CONTINUOUS
 62
     7
 10
357.900116
 20
1017.604852
 11
356.858227
 21
1017.669307
  0
LINE
  8
CSLAYER1
  6
CONTINUOUS
 62
     7
 10
356.858227
 20
1017.669307
 11
355.816338
 21
1017.604852
  0
LINE
  8
CSLAYER1
  6
CONTINUOUS
 62
     7
 10
355.816338
 20
1017.604852
 11
354.806106
 21
1017.413445
  0
LINE
  8
CSLAYER1
  6
CONTINUOUS
 62
     7
 10
354.806106
 20
1017.413445
 11
353.858227
 21
1017.100901
  0
LINE
  8
CSLAYER1
  6
CONTINUOUS
 62
     7
 10
353.858227
 20
1017.100901
 11
353.001501
 21
1016.676718
  0
LINE
  8
CSLAYER1
  6
CONTINUOUS
 62
     7
 10
353.001501
 20
1016.676718
 11
352.261960
 21
1016.153783
  0
LINE
  8
CSLAYER1
  6
CONTINUOUS
 62
     7
 10
352.261960
 20
1016.153783
 11
351.662075
 21
1015.547987
  0
LINE
  8
CSLAYER1
  6
CONTINUOUS
 62
     7
 10
351.662075
 20
1015.547987
 11
351.220071
 21
1014.877735
  0
LINE
  8
CSLAYER1
  6
CONTINUOUS
 62
     7
 10
351.220071
 20
1014.877735
 11
350.949381
 21
1014.163393
  0
LINE
  8
CSLAYER1
  6
CONTINUOUS
 62
     7
 10
350.949381
 20
1014.163393
 11
350.858227
 21
1013.426666
  0
LINE
  8
CSLAYER1
  6
CONTINUOUS
 62
     7
 10
350.858227
 20
1043.792625
 11
350.858227
 21
1053.502443
  0
LINE
  8
CSLAYER1
  6
CONTINUOUS
 62
     7
 10
362.858227
 20
1043.792625
 11
362.858227
 21
1053.502443
  0
LINE
  8
CSLAYER1
  6
CONTINUOUS
 62
     7
 10
351.658227
 20
1044.087102
 11
351.658227
 21
1053.502443
  0
LINE
  8
CSLAYER1
  6
CONTINUOUS
 62
     7
 10
362.058227
 20
1044.087102
 11
362.058227
 21
1053.502443
  0
LINE
  8
CSLAYER1
  6
CONTINUOUS
 62
     7
 10
368.008227
 20
788.059674
 11
368.008227
 21
852.359266
  0
LINE
  8
CSLAYER1
  6
CONTINUOUS
 62
     7
 10
369.708227
 20
798.839674
 11
369.708227
 21
792.879674
  0
LINE
  8
CSLAYER1
  6
CONTINUOUS
 62
     7
 10
365.608227
 20
788.059674
 11
368.008227
 21
788.059674
  0
LINE
  8
CSLAYER1
  6
CONTINUOUS
 62
     7
 10
368.008227
 20
798.839674
 11
369.708227
 21
798.839674
  0
LINE
  8
CSLAYER1
  6
CONTINUOUS
 62
     7
 10
368.008227
 20
792.879674
 11
369.708227
 21
792.879674
  0
LINE
  8
CSLAYER1
  6
CONTINUOUS
 62
     7
 10
345.708227
 20
788.059674
 11
345.708227
 21
852.359266
  0
LINE
  8
CSLAYER1
  6
CONTINUOUS
 62
     7
 10
344.008227
 20
798.839674
 11
344.008227
 21
792.879674
  0
LINE
  8
CSLAYER1
  6
CONTINUOUS
 62
     7
 10
348.108227
 20
788.059674
 11
345.708227
 21
788.059674
  0
LINE
  8
CSLAYER1
  6
CONTINUOUS
 62
     7
 10
345.708227
 20
798.839674
 11
344.008227
 21
798.839674
  0
LINE
  8
CSLAYER1
  6
CONTINUOUS
 62
     7
 10
345.708227
 20
792.879674
 11
344.008227
 21
792.879674
  0
LINE
  8
CSLAYER1
  6
CENTER
 62
     5
 10
342.496184
 20
795.859674
 11
371.230592
 21
795.859674
  0
LINE
  8
CSLAYER1
  6
CONTINUOUS
 62
     7
 10
348.108227
 20
802.859674
 11
350.858227
 21
802.859674
  0
LINE
  8
CSLAYER1
  6
CONTINUOUS
 62
     7
 10
348.108227
 20
788.859674
 11
350.858227
 21
788.859674
  0
LINE
  8
CSLAYER1
  6
CONTINUOUS
 62
     7
 10
362.858227
 20
802.859674
 11
365.608227
 21
802.859674
  0
LINE
  8
CSLAYER1
  6
CONTINUOUS
 62
     7
 10
362.858227
 20
788.859674
 11
365.608227
 21
788.859674
  0
POINT
  8
CSLAYER1
 62
     7
 10
356.858227
 20
920.759266
  0
LINE
  8
CSLAYER1
  6
CONTINUOUS
 62
     7
 10
368.008227
 20
928.559266
 11
368.008227
 21
893.909266
  0
LINE
  8
CSLAYER1
  6
CONTINUOUS
 62
     7
 10
371.608227
 20
923.739266
 11
371.608227
 21
917.779266
  0
LINE
  8
CSLAYER1
  6
CONTINUOUS
 62
     7
 10
344.008227
 20
923.739266
 11
344.008227
 21
917.779266
  0
LINE
  8
CSLAYER1
  6
CONTINUOUS
 62
     7
 10
369.708227
 20
904.689266
 11
369.708227
 21
898.729266
  0
LINE
  8
CSLAYER1
  6
CONTINUOUS
 62
     7
 10
365.608227
 20
928.559266
 11
368.008227
 21
928.559266
  0
LINE
  8
CSLAYER1
  6
CONTINUOUS
 62
     7
 10
365.608227
 20
893.909266
 11
368.008227
 21
893.909266
  0
LINE
  8
CSLAYER1
  6
CONTINUOUS
 62
     7
 10
368.008227
 20
904.689266
 11
369.708227
 21
904.689266
  0
LINE
  8
CSLAYER1
  6
CONTINUOUS
 62
     7
 10
368.008227
 20
898.729266
 11
369.708227
 21
898.729266
  0
LINE
  8
CSLAYER1
  6
CONTINUOUS
 62
     7
 10
368.008227
 20
923.739266
 11
371.608227
 21
923.739266
  0
LINE
  8
CSLAYER1
  6
CONTINUOUS
 62
     7
 10
368.008227
 20
917.779266
 11
371.608227
 21
917.779266
  0
LINE
  8
CSLAYER1
  6
CONTINUOUS
 62
     7
 10
345.708227
 20
928.559266
 11
345.708227
 21
893.909266
  0
LINE
  8
CSLAYER1
  6
CONTINUOUS
 62
     7
 10
344.008227
 20
904.689266
 11
344.008227
 21
898.729266
  0
LINE
  8
CSLAYER1
  6
CONTINUOUS
 62
     7
 10
348.108227
 20
928.559266
 11
345.708227
 21
928.559266
  0
LINE
  8
CSLAYER1
  6
CONTINUOUS
 62
     7
 10
348.108227
 20
893.909266
 11
345.708227
 21
893.909266
  0
LINE
  8
CSLAYER1
  6
CONTINUOUS
 62
     7
 10
345.708227
 20
904.689266
 11
344.008227
 21
904.689266
  0
LINE
  8
CSLAYER1
  6
CONTINUOUS
 62
     7
 10
345.708227
 20
898.729266
 11
344.008227
 21
898.729266
  0
LINE
  8
CSLAYER1
  6
CONTINUOUS
 62
     7
 10
345.708227
 20
923.739266
 11
344.008227
 21
923.739266
  0
LINE
  8
CSLAYER1
  6
CONTINUOUS
 62
     7
 10
345.708227
 20
917.779266
 11
344.008227
 21
917.779266
  0
LINE
  8
CSLAYER1
  6
CONTINUOUS
 62
     7
 10
363.208227
 20
873.609266
 11
365.608227
 21
873.609266
  0
LINE
  8
CSLAYER1
  6
CONTINUOUS
 62
     7
 10
363.208227
 20
888.614266
 11
350.508227
 21
888.614266
  0
LINE
  8
CSLAYER1
  6
CONTINUOUS
 62
     7
 10
363.208227
 20
876.704266
 11
350.508227
 21
876.704266
  0
LINE
  8
CSLAYER1
  6
CONTINUOUS
 62
     7
 10
350.508227
 20
873.609266
 11
348.108227
 21
873.609266
  0
LINE
  8
CSLAYER1
  6
CONTINUOUS
 62
     7
 10
350.508227
 20
910.759266
 11
350.508227
 21
873.609266
  0
LINE
  8
CSLAYER1
  6
CONTINUOUS
 62
     7
 10
350.508227
 20
910.759266
 11
348.108227
 21
910.759266
  0
LINE
  8
CSLAYER1
  6
CONTINUOUS
 62
     7
 10
350.508227
 20
907.664266
 11
363.208227
 21
907.664266
  0
LINE
  8
CSLAYER1
  6
CONTINUOUS
 62
     7
 10
350.508227
 20
895.754266
 11
363.208227
 21
895.754266
  0
LINE
  8
CSLAYER1
  6
CONTINUOUS
 62
     7
 10
363.208227
 20
910.759266
 11
365.608227
 21
910.759266
  0
LINE
  8
CSLAYER1
  6
CONTINUOUS
 62
     7
 10
363.208227
 20
910.759266
 11
363.208227
 21
873.609266
  0
LINE
  8
CSLAYER1
  6
CENTER
 62
     5
 10
342.496184
 20
882.659266
 11
371.230592
 21
882.659266
  0
LINE
  8
CSLAYER1
  6
CENTER
 62
     5
 10
342.055810
 20
920.759266
 11
372.992088
 21
920.759266
  0
LINE
  8
CSLAYER1
  6
CENTER
 62
     5
 10
342.496184
 20
901.709266
 11
371.230592
 21
901.709266
  0
POINT
  8
CSLAYER1
 62
     7
 10
356.858227
 20
882.659266
  0
LINE
  8
CSLAYER1
  6
CONTINUOUS
 62
     7
 10
368.008227
 20
890.459266
 11
368.008227
 21
855.809266
  0
LINE
  8
CSLAYER1
  6
CONTINUOUS
 62
     7
 10
371.608227
 20
885.639266
 11
371.608227
 21
879.679266
  0
LINE
  8
CSLAYER1
  6
CONTINUOUS
 62
     7
 10
344.008227
 20
885.639266
 11
344.008227
 21
879.679266
  0
LINE
  8
CSLAYER1
  6
CONTINUOUS
 62
     7
 10
369.708227
 20
866.589266
 11
369.708227
 21
860.629266
  0
LINE
  8
CSLAYER1
  6
CONTINUOUS
 62
     7
 10
365.608227
 20
890.459266
 11
368.008227
 21
890.459266
  0
LINE
  8
CSLAYER1
  6
CONTINUOUS
 62
     7
 10
365.608227
 20
855.809266
 11
368.008227
 21
855.809266
  0
LINE
  8
CSLAYER1
  6
CONTINUOUS
 62
     7
 10
368.008227
 20
866.589266
 11
369.708227
 21
866.589266
  0
LINE
  8
CSLAYER1
  6
CONTINUOUS
 62
     7
 10
368.008227
 20
860.629266
 11
369.708227
 21
860.629266
  0
LINE
  8
CSLAYER1
  6
CONTINUOUS
 62
     7
 10
368.008227
 20
885.639266
 11
371.608227
 21
885.639266
  0
LINE
  8
CSLAYER1
  6
CONTINUOUS
 62
     7
 10
368.008227
 20
879.679266
 11
371.608227
 21
879.679266
  0
LINE
  8
CSLAYER1
  6
CONTINUOUS
 62
     7
 10
345.708227
 20
890.459266
 11
345.708227
 21
855.809266
  0
LINE
  8
CSLAYER1
  6
CONTINUOUS
 62
     7
 10
344.008227
 20
866.589266
 11
344.008227
 21
860.629266
  0
LINE
  8
CSLAYER1
  6
CONTINUOUS
 62
     7
 10
348.108227
 20
890.459266
 11
345.708227
 21
890.459266
  0
LINE
  8
CSLAYER1
  6
CONTINUOUS
 62
     7
 10
348.108227
 20
855.809266
 11
345.708227
 21
855.809266
  0
LINE
  8
CSLAYER1
  6
CONTINUOUS
 62
     7
 10
345.708227
 20
866.589266
 11
344.008227
 21
866.589266
  0
LINE
  8
CSLAYER1
  6
CONTINUOUS
 62
     7
 10
345.708227
 20
860.629266
 11
344.008227
 21
860.629266
  0
LINE
  8
CSLAYER1
  6
CONTINUOUS
 62
     7
 10
345.708227
 20
885.639266
 11
344.008227
 21
885.639266
  0
LINE
  8
CSLAYER1
  6
CONTINUOUS
 62
     7
 10
345.708227
 20
879.679266
 11
344.008227
 21
879.679266
  0
LINE
  8
CSLAYER1
  6
CONTINUOUS
 62
     7
 10
363.208227
 20
835.509266
 11
365.608227
 21
835.509266
  0
LINE
  8
CSLAYER1
  6
CONTINUOUS
 62
     7
 10
363.208227
 20
850.514266
 11
350.508227
 21
850.514266
  0
LINE
  8
CSLAYER1
  6
CONTINUOUS
 62
     7
 10
363.208227
 20
838.604266
 11
350.508227
 21
838.604266
  0
LINE
  8
CSLAYER1
  6
CONTINUOUS
 62
     7
 10
350.508227
 20
835.509266
 11
348.108227
 21
835.509266
  0
LINE
  8
CSLAYER1
  6
CONTINUOUS
 62
     7
 10
350.508227
 20
872.659266
 11
350.508227
 21
835.509266
  0
LINE
  8
CSLAYER1
  6
CONTINUOUS
 62
     7
 10
350.508227
 20
872.659266
 11
348.108227
 21
872.659266
  0
LINE
  8
CSLAYER1
  6
CONTINUOUS
 62
     7
 10
350.508227
 20
869.564266
 11
363.208227
 21
869.564266
  0
LINE
  8
CSLAYER1
  6
CONTINUOUS
 62
     7
 10
350.508227
 20
857.654266
 11
363.208227
 21
857.654266
  0
LINE
  8
CSLAYER1
  6
CONTINUOUS
 62
     7
 10
363.208227
 20
872.659266
 11
365.608227
 21
872.659266
  0
LINE
  8
CSLAYER1
  6
CONTINUOUS
 62
     7
 10
363.208227
 20
872.659266
 11
363.208227
 21
835.509266
  0
LINE
  8
CSLAYER1
  6
CENTER
 62
     5
 10
342.496184
 20
863.609266
 11
371.230592
 21
863.609266
  0
POINT
  8
CSLAYER1
 62
     7
 10
356.858227
 20
844.559266
  0
LINE
  8
CSLAYER1
  6
CENTER
 62
     5
 10
342.055810
 20
844.559266
 11
372.992088
 21
844.559266
  0
LINE
  8
CSLAYER1
  6
CONTINUOUS
 62
     7
 10
371.608227
 20
847.539266
 11
371.608227
 21
841.579266
  0
LINE
  8
CSLAYER1
  6
CONTINUOUS
 62
     7
 10
344.008227
 20
847.539266
 11
344.008227
 21
841.579266
  0
LINE
  8
CSLAYER1
  6
CONTINUOUS
 62
     7
 10
369.708227
 20
828.489266
 11
369.708227
 21
822.529266
  0
LINE
  8
CSLAYER1
  6
CONTINUOUS
 62
     7
 10
365.608227
 20
852.359266
 11
368.008227
 21
852.359266
  0
LINE
  8
CSLAYER1
  6
CONTINUOUS
 62
     7
 10
365.608227
 20
817.709266
 11
368.008227
 21
817.709266
  0
LINE
  8
CSLAYER1
  6
CONTINUOUS
 62
     7
 10
368.008227
 20
828.489266
 11
369.708227
 21
828.489266
  0
LINE
  8
CSLAYER1
  6
CONTINUOUS
 62
     7
 10
368.008227
 20
822.529266
 11
369.708227
 21
822.529266
  0
LINE
  8
CSLAYER1
  6
CONTINUOUS
 62
     7
 10
368.008227
 20
847.539266
 11
371.608227
 21
847.539266
  0
LINE
  8
CSLAYER1
  6
CONTINUOUS
 62
     7
 10
368.008227
 20
841.579266
 11
371.608227
 21
841.579266
  0
LINE
  8
CSLAYER1
  6
CONTINUOUS
 62
     7
 10
344.008227
 20
828.489266
 11
344.008227
 21
822.529266
  0
LINE
  8
CSLAYER1
  6
CONTINUOUS
 62
     7
 10
348.108227
 20
852.359266
 11
345.708227
 21
852.359266
  0
LINE
  8
CSLAYER1
  6
CONTINUOUS
 62
     7
 10
348.108227
 20
817.709266
 11
345.708227
 21
817.709266
  0
LINE
  8
CSLAYER1
  6
CONTINUOUS
 62
     7
 10
345.708227
 20
828.489266
 11
344.008227
 21
828.489266
  0
LINE
  8
CSLAYER1
  6
CONTINUOUS
 62
     7
 10
345.708227
 20
822.529266
 11
344.008227
 21
822.529266
  0
LINE
  8
CSLAYER1
  6
CONTINUOUS
 62
     7
 10
345.708227
 20
847.539266
 11
344.008227
 21
847.539266
  0
LINE
  8
CSLAYER1
  6
CONTINUOUS
 62
     7
 10
345.708227
 20
841.579266
 11
344.008227
 21
841.579266
  0
LINE
  8
CSLAYER1
  6
CONTINUOUS
 62
     7
 10
363.208227
 20
797.409266
 11
365.608227
 21
797.409266
  0
LINE
  8
CSLAYER1
  6
CONTINUOUS
 62
     7
 10
363.208227
 20
812.414266
 11
350.508227
 21
812.414266
  0
LINE
  8
CSLAYER1
  6
CONTINUOUS
 62
     7
 10
363.208227
 20
800.504266
 11
350.508227
 21
800.504266
  0
LINE
  8
CSLAYER1
  6
CONTINUOUS
 62
     7
 10
350.508227
 20
797.409266
 11
348.108227
 21
797.409266
  0
LINE
  8
CSLAYER1
  6
CONTINUOUS
 62
     7
 10
350.508227
 20
834.559266
 11
350.508227
 21
797.409266
  0
LINE
  8
CSLAYER1
  6
CONTINUOUS
 62
     7
 10
350.508227
 20
834.559266
 11
348.108227
 21
834.559266
  0
LINE
  8
CSLAYER1
  6
CONTINUOUS
 62
     7
 10
350.508227
 20
831.464266
 11
363.208227
 21
831.464266
  0
LINE
  8
CSLAYER1
  6
CONTINUOUS
 62
     7
 10
350.508227
 20
819.554266
 11
363.208227
 21
819.554266
  0
LINE
  8
CSLAYER1
  6
CONTINUOUS
 62
     7
 10
363.208227
 20
834.559266
 11
365.608227
 21
834.559266
  0
LINE
  8
CSLAYER1
  6
CONTINUOUS
 62
     7
 10
363.208227
 20
834.559266
 11
363.208227
 21
797.409266
  0
LINE
  8
CSLAYER1
  6
CENTER
 62
     5
 10
342.496184
 20
825.509266
 11
371.230592
 21
825.509266
  0
LINE
  8
CSLAYER1
  6
CENTER
 62
     5
 10
342.496184
 20
806.459266
 11
371.230592
 21
806.459266
  0
POINT
  8
CSLAYER1
 62
     7
 10
356.858227
 20
806.459266
  0
LINE
  8
CSLAYER1
  6
CONTINUOUS
 62
     7
 10
367.622703
 20
1040.273710
 11
366.688052
 21
1041.311113
  0
LINE
  8
CSLAYER1
  6
CONTINUOUS
 62
     7
 10
366.688052
 20
1041.311113
 11
366.050760
 21
1041.898389
  0
LINE
  8
CSLAYER1
  6
CONTINUOUS
 62
     7
 10
366.050760
 20
1041.898389
 11
365.343508
 21
1042.444155
  0
LINE
  8
CSLAYER1
  6
CONTINUOUS
 62
     7
 10
365.343508
 20
1042.444155
 11
364.571678
 21
1042.944258
  0
LINE
  8
CSLAYER1
  6
CONTINUOUS
 62
     7
 10
364.571678
 20
1042.944258
 11
363.741144
 21
1043.394891
  0
LINE
  8
CSLAYER1
  6
CONTINUOUS
 62
     7
 10
363.741144
 20
1043.394891
 11
362.858227
 21
1043.792625
  0
LINE
  8
CSLAYER1
  6
CONTINUOUS
 62
     7
 10
362.858227
 20
1043.792625
 11
361.929646
 21
1044.134432
  0
LINE
  8
CSLAYER1
  6
CONTINUOUS
 62
     7
 10
361.929646
 20
1044.134432
 11
360.962469
 21
1044.417712
  0
LINE
  8
CSLAYER1
  6
CONTINUOUS
 62
     7
 10
360.962469
 20
1044.417712
 11
359.964056
 21
1044.640308
  0
LINE
  8
CSLAYER1
  6
CONTINUOUS
 62
     7
 10
359.964056
 20
1044.640308
 11
358.942005
 21
1044.800526
  0
LINE
  8
CSLAYER1
  6
CONTINUOUS
 62
     7
 10
358.942005
 20
1044.800526
 11
357.904096
 21
1044.897148
  0
LINE
  8
CSLAYER1
  6
CONTINUOUS
 62
     7
 10
357.904096
 20
1044.897148
 11
356.858227
 21
1044.929437
  0
LINE
  8
CSLAYER1
  6
CONTINUOUS
 62
     7
 10
356.858227
 20
1044.929437
 11
355.812358
 21
1044.897148
  0
LINE
  8
CSLAYER1
  6
CONTINUOUS
 62
     7
 10
355.812358
 20
1044.897148
 11
354.774449
 21
1044.800526
  0
LINE
  8
CSLAYER1
  6
CONTINUOUS
 62
     7
 10
354.774449
 20
1044.800526
 11
353.752399
 21
1044.640308
  0
LINE
  8
CSLAYER1
  6
CONTINUOUS
 62
     7
 10
353.752399
 20
1044.640308
 11
352.753985
 21
1044.417712
  0
LINE
  8
CSLAYER1
  6
CONTINUOUS
 62
     7
 10
352.753985
 20
1044.417712
 11
351.786808
 21
1044.134432
  0
LINE
  8
CSLAYER1
  6
CONTINUOUS
 62
     7
 10
351.786808
 20
1044.134432
 11
350.858227
 21
1043.792625
  0
LINE
  8
CSLAYER1
  6
CONTINUOUS
 62
     7
 10
350.858227
 20
1043.792625
 11
349.975310
 21
1043.394891
  0
LINE
  8
CSLAYER1
  6
CONTINUOUS
 62
     7
 10
349.975310
 20
1043.394891
 11
349.144776
 21
1042.944258
  0
LINE
  8
CSLAYER1
  6
CONTINUOUS
 62
     7
 10
349.144776
 20
1042.944258
 11
348.372946
 21
1042.444155
  0
LINE
  8
CSLAYER1
  6
CONTINUOUS
 62
     7
 10
348.372946
 20
1042.444155
 11
347.665694
 21
1041.898389
  0
LINE
  8
CSLAYER1
  6
CONTINUOUS
 62
     7
 10
347.665694
 20
1041.898389
 11
347.028403
 21
1041.311113
  0
LINE
  8
CSLAYER1
  6
CONTINUOUS
 62
     7
 10
347.028403
 20
1041.311113
 11
346.093751
 21
1040.273710
  0
LINE
  8
CSLAYER1
  6
CONTINUOUS
 62
     7
 10
362.858227
 20
1008.273710
 11
369.858227
 21
1008.273710
  0
LINE
  8
CSLAYER1
  6
CONTINUOUS
 62
     7
 10
762.858227
 20
967.859266
 11
762.858227
 21
1013.426666
  0
LINE
  8
CSLAYER1
  6
CONTINUOUS
 62
     7
 10
750.858227
 20
967.859266
 11
750.858227
 21
1013.426666
  0
LINE
  8
CSLAYER1
  6
CONTINUOUS
 62
     7
 10
751.658227
 20
994.859266
 11
751.658227
 21
1015.542761
  0
LINE
  8
CSLAYER1
  6
CONTINUOUS
 62
     7
 10
762.058227
 20
994.859266
 11
762.058227
 21
1015.542761
  0
LINE
  8
CSLAYER1
  6
CONTINUOUS
 62
     7
 10
775.858227
 20
1040.273710
 11
743.858227
 21
1040.273710
  0
LINE
  8
CSLAYER1
  6
CONTINUOUS
 62
     7
 10
743.858227
 20
1000.873710
 11
743.858227
 21
1047.673710
  0
LINE
  8
CSLAYER1
  6
CONTINUOUS
 62
     7
 10
743.858227
 20
1047.673710
 11
741.858227
 21
1049.673710
  0
LINE
  8
CSLAYER1
  6
CONTINUOUS
 62
     7
 10
741.858227
 20
998.873710
 11
741.858227
 21
1049.673710
  0
LINE
  8
CSLAYER1
  6
CONTINUOUS
 62
     7
 10
781.858227
 20
1044.273710
 11
781.858227
 21
1004.273710
  0
LINE
  8
CSLAYER1
  6
CONTINUOUS
 62
     7
 10
794.858227
 20
1044.273710
 11
794.858227
 21
1004.273710
  0
LINE
  8
CSLAYER1
  6
CONTINUOUS
 62
     7
 10
798.358227
 20
1030.773710
 11
798.358227
 21
1017.773710
  0
LINE
  8
CSLAYER1
  6
CONTINUOUS
 62
     7
 10
796.008227
 20
1033.273710
 11
796.008227
 21
1015.273710
  0
LINE
  8
CSLAYER1
  6
CONTINUOUS
 62
     7
 10
796.008227
 20
1031.773710
 11
797.358227
 21
1031.773710
  0
LINE
  8
CSLAYER1
  6
CONTINUOUS
 62
     7
 10
797.358227
 20
1031.773710
 11
798.358227
 21
1030.773710
  0
LINE
  8
CSLAYER1
  6
CONTINUOUS
 62
     7
 10
797.358227
 20
1031.773710
 11
797.358227
 21
1016.773710
  0
LINE
  8
CSLAYER1
  6
CONTINUOUS
 62
     7
 10
796.008227
 20
1033.273710
 11
794.858227
 21
1033.273710
  0
LINE
  8
CSLAYER1
  6
CONTINUOUS
 62
     7
 10
781.858227
 20
1034.273710
 11
775.858227
 21
1040.273710
  0
LINE
  8
CSLAYER1
  6
CONTINUOUS
 62
     7
 10
775.858227
 20
1040.273710
 11
775.858227
 21
1008.273710
  0
LINE
  8
CSLAYER1
  6
CONTINUOUS
 62
     7
 10
775.858227
 20
1008.273710
 11
762.858227
 21
1008.273710
  0
LINE
  8
CSLAYER1
  6
CONTINUOUS
 62
     7
 10
793.858227
 20
1003.273710
 11
792.858227
 21
1003.273710
  0
LINE
  8
CSLAYER1
  6
CONTINUOUS
 62
     7
 10
796.008227
 20
1016.773710
 11
797.358227
 21
1016.773710
  0
LINE
  8
CSLAYER1
  6
CONTINUOUS
 62
     7
 10
797.358227
 20
1016.773710
 11
798.358227
 21
1017.773710
  0
LINE
  8
CSLAYER1
  6
CONTINUOUS
 62
     7
 10
796.008227
 20
1015.273710
 11
794.858227
 21
1015.273710
  0
LINE
  8
CSLAYER1
  6
CONTINUOUS
 62
     7
 10
781.858227
 20
1014.273710
 11
775.858227
 21
1008.273710
  0
ARC
  8
CSLAYER1
  6
CONTINUOUS
 62
     7
 10
793.858227
 20
1004.273710
 40
1.000000
 50
270.000000
 51
360.000000
  0
ARC
  8
CSLAYER1
  6
CONTINUOUS
 62
     7
 10
782.858227
 20
1004.273710
 40
1.000000
 50
180.000000
 51
270.000000
  0
LINE
  8
CSLAYER1
  6
CONTINUOUS
 62
     7
 10
743.858227
 20
1000.873710
 11
741.858227
 21
998.873710
  0
LINE
  8
CSLAYER1
  6
CONTINUOUS
 62
     7
 10
783.858227
 20
1003.273710
 11
782.858227
 21
1003.273710
  0
LINE
  8
CSLAYER1
  6
CONTINUOUS
 62
     7
 10
750.858227
 20
1013.426666
 11
750.949381
 21
1014.163393
  0
LINE
  8
CSLAYER1
  6
CONTINUOUS
 62
     7
 10
750.949381
 20
1014.163393
 11
751.220071
 21
1014.877735
  0
LINE
  8
CSLAYER1
  6
CONTINUOUS
 62
     7
 10
751.220071
 20
1014.877735
 11
751.662075
 21
1015.547987
  0
LINE
  8
CSLAYER1
  6
CONTINUOUS
 62
     7
 10
751.662075
 20
1015.547987
 11
752.261960
 21
1016.153783
  0
LINE
  8
CSLAYER1
  6
CONTINUOUS
 62
     7
 10
752.261960
 20
1016.153783
 11
753.001501
 21
1016.676718
  0
LINE
  8
CSLAYER1
  6
CONTINUOUS
 62
     7
 10
753.001501
 20
1016.676718
 11
753.858227
 21
1017.100901
  0
LINE
  8
CSLAYER1
  6
CONTINUOUS
 62
     7
 10
753.858227
 20
1017.100901
 11
754.806106
 21
1017.413445
  0
LINE
  8
CSLAYER1
  6
CONTINUOUS
 62
     7
 10
754.806106
 20
1017.413445
 11
755.816338
 21
1017.604852
  0
LINE
  8
CSLAYER1
  6
CONTINUOUS
 62
     7
 10
755.816338
 20
1017.604852
 11
756.858227
 21
1017.669307
  0
LINE
  8
CSLAYER1
  6
CONTINUOUS
 62
     7
 10
756.858227
 20
1017.669307
 11
757.900116
 21
1017.604852
  0
LINE
  8
CSLAYER1
  6
CONTINUOUS
 62
     7
 10
757.900116
 20
1017.604852
 11
758.910348
 21
1017.413445
  0
LINE
  8
CSLAYER1
  6
CONTINUOUS
 62
     7
 10
758.910348
 20
1017.413445
 11
759.858227
 21
1017.100901
  0
LINE
  8
CSLAYER1
  6
CONTINUOUS
 62
     7
 10
759.858227
 20
1017.100901
 11
760.714953
 21
1016.676718
  0
LINE
  8
CSLAYER1
  6
CONTINUOUS
 62
     7
 10
760.714953
 20
1016.676718
 11
761.454494
 21
1016.153783
  0
LINE
  8
CSLAYER1
  6
CONTINUOUS
 62
     7
 10
761.454494
 20
1016.153783
 11
762.054380
 21
1015.547987
  0
LINE
  8
CSLAYER1
  6
CONTINUOUS
 62
     7
 10
762.054380
 20
1015.547987
 11
762.496383
 21
1014.877735
  0
LINE
  8
CSLAYER1
  6
CONTINUOUS
 62
     7
 10
762.496383
 20
1014.877735
 11
762.767074
 21
1014.163393
  0
LINE
  8
CSLAYER1
  6
CONTINUOUS
 62
     7
 10
762.767074
 20
1014.163393
 11
762.858227
 21
1013.426666
  0
LINE
  8
CSLAYER1
  6
CONTINUOUS
 62
     7
 10
762.858227
 20
1043.792625
 11
762.858227
 21
1053.502443
  0
LINE
  8
CSLAYER1
  6
CONTINUOUS
 62
     7
 10
750.858227
 20
1043.792625
 11
750.858227
 21
1053.502443
  0
LINE
  8
CSLAYER1
  6
CONTINUOUS
 62
     7
 10
762.058227
 20
1044.087102
 11
762.058227
 21
1053.502443
  0
LINE
  8
CSLAYER1
  6
CONTINUOUS
 62
     7
 10
751.658227
 20
1044.087102
 11
751.658227
 21
1053.502443
  0
LINE
  8
CSLAYER1
  6
CONTINUOUS
 62
     7
 10
746.093751
 20
1040.273710
 11
747.028403
 21
1041.311113
  0
LINE
  8
CSLAYER1
  6
CONTINUOUS
 62
     7
 10
747.028403
 20
1041.311113
 11
747.665694
 21
1041.898389
  0
LINE
  8
CSLAYER1
  6
CONTINUOUS
 62
     7
 10
747.665694
 20
1041.898389
 11
748.372946
 21
1042.444155
  0
LINE
  8
CSLAYER1
  6
CONTINUOUS
 62
     7
 10
748.372946
 20
1042.444155
 11
749.144776
 21
1042.944258
  0
LINE
  8
CSLAYER1
  6
CONTINUOUS
 62
     7
 10
749.144776
 20
1042.944258
 11
749.975310
 21
1043.394891
  0
LINE
  8
CSLAYER1
  6
CONTINUOUS
 62
     7
 10
749.975310
 20
1043.394891
 11
750.858227
 21
1043.792625
  0
LINE
  8
CSLAYER1
  6
CONTINUOUS
 62
     7
 10
750.858227
 20
1043.792625
 11
751.786808
 21
1044.134432
  0
LINE
  8
CSLAYER1
  6
CONTINUOUS
 62
     7
 10
751.786808
 20
1044.134432
 11
752.753985
 21
1044.417712
  0
LINE
  8
CSLAYER1
  6
CONTINUOUS
 62
     7
 10
752.753985
 20
1044.417712
 11
753.752399
 21
1044.640308
  0
LINE
  8
CSLAYER1
  6
CONTINUOUS
 62
     7
 10
753.752399
 20
1044.640308
 11
754.774449
 21
1044.800526
  0
LINE
  8
CSLAYER1
  6
CONTINUOUS
 62
     7
 10
754.774449
 20
1044.800526
 11
755.812358
 21
1044.897148
  0
LINE
  8
CSLAYER1
  6
CONTINUOUS
 62
     7
 10
755.812358
 20
1044.897148
 11
756.858227
 21
1044.929437
  0
LINE
  8
CSLAYER1
  6
CONTINUOUS
 62
     7
 10
756.858227
 20
1044.929437
 11
757.904096
 21
1044.897148
  0
LINE
  8
CSLAYER1
  6
CONTINUOUS
 62
     7
 10
757.904096
 20
1044.897148
 11
758.942005
 21
1044.800526
  0
LINE
  8
CSLAYER1
  6
CONTINUOUS
 62
     7
 10
758.942005
 20
1044.800526
 11
759.964056
 21
1044.640308
  0
LINE
  8
CSLAYER1
  6
CONTINUOUS
 62
     7
 10
759.964056
 20
1044.640308
 11
760.962469
 21
1044.417712
  0
LINE
  8
CSLAYER1
  6
CONTINUOUS
 62
     7
 10
760.962469
 20
1044.417712
 11
761.929646
 21
1044.134432
  0
LINE
  8
CSLAYER1
  6
CONTINUOUS
 62
     7
 10
761.929646
 20
1044.134432
 11
762.858227
 21
1043.792625
  0
LINE
  8
CSLAYER1
  6
CONTINUOUS
 62
     7
 10
762.858227
 20
1043.792625
 11
763.741144
 21
1043.394891
  0
LINE
  8
CSLAYER1
  6
CONTINUOUS
 62
     7
 10
763.741144
 20
1043.394891
 11
764.571678
 21
1042.944258
  0
LINE
  8
CSLAYER1
  6
CONTINUOUS
 62
     7
 10
764.571678
 20
1042.944258
 11
765.343508
 21
1042.444155
  0
LINE
  8
CSLAYER1
  6
CONTINUOUS
 62
     7
 10
765.343508
 20
1042.444155
 11
766.050760
 21
1041.898389
  0
LINE
  8
CSLAYER1
  6
CONTINUOUS
 62
     7
 10
766.050760
 20
1041.898389
 11
766.688052
 21
1041.311113
  0
LINE
  8
CSLAYER1
  6
CONTINUOUS
 62
     7
 10
766.688052
 20
1041.311113
 11
767.622703
 21
1040.273710
  0
LINE
  8
CSLAYER1
  6
CONTINUOUS
 62
     7
 10
750.858227
 20
1008.273710
 11
743.858227
 21
1008.273710
  0
LINE
  8
CSLAYER1
  6
CONTINUOUS
 62
     7
 10
741.858227
 20
998.873710
 11
578.208227
 21
998.873710
  0
LINE
  8
CSLAYER1
  6
CONTINUOUS
 62
     7
 10
765.108227
 20
949.859266
 11
748.608227
 21
949.859266
  0
LINE
  8
CSLAYER1
  6
CONTINUOUS
 62
     7
 10
765.108227
 20
967.859266
 11
748.608227
 21
967.859266
  0
LINE
  8
CSLAYER1
  6
CONTINUOUS
 62
     7
 10
765.108227
 20
949.859266
 11
765.608227
 21
950.359266
  0
LINE
  8
CSLAYER1
  6
CONTINUOUS
 62
     7
 10
765.608227
 20
967.359266
 11
765.108227
 21
967.859266
  0
LINE
  8
CSLAYER1
  6
CONTINUOUS
 62
     7
 10
765.608227
 20
950.359266
 11
748.108227
 21
950.359266
  0
LINE
  8
CSLAYER1
  6
CONTINUOUS
 62
     7
 10
765.608227
 20
967.359266
 11
748.108227
 21
967.359266
  0
LINE
  8
CSLAYER1
  6
CONTINUOUS
 62
     7
 10
748.608227
 20
949.859266
 11
748.108227
 21
950.359266
  0
LINE
  8
CSLAYER1
  6
CONTINUOUS
 62
     7
 10
748.108227
 20
967.359266
 11
748.608227
 21
967.859266
  0
POINT
  8
CSLAYER1
 62
     7
 10
756.858227
 20
958.859266
  0
LINE
  8
CSLAYER1
  6
CONTINUOUS
 62
     7
 10
745.708227
 20
966.659266
 11
745.708227
 21
932.009266
  0
LINE
  8
CSLAYER1
  6
CONTINUOUS
 62
     7
 10
742.108227
 20
961.839266
 11
742.108227
 21
955.879266
  0
LINE
  8
CSLAYER1
  6
CONTINUOUS
 62
     7
 10
769.708227
 20
961.839266
 11
769.708227
 21
955.879266
  0
LINE
  8
CSLAYER1
  6
CONTINUOUS
 62
     7
 10
744.008227
 20
942.789266
 11
744.008227
 21
936.829266
  0
LINE
  8
CSLAYER1
  6
CONTINUOUS
 62
     7
 10
748.108227
 20
966.659266
 11
745.708227
 21
966.659266
  0
LINE
  8
CSLAYER1
  6
CONTINUOUS
 62
     7
 10
748.108227
 20
932.009266
 11
745.708227
 21
932.009266
  0
LINE
  8
CSLAYER1
  6
CONTINUOUS
 62
     7
 10
745.708227
 20
942.789266
 11
744.008227
 21
942.789266
  0
LINE
  8
CSLAYER1
  6
CONTINUOUS
 62
     7
 10
745.708227
 20
936.829266
 11
744.008227
 21
936.829266
  0
LINE
  8
CSLAYER1
  6
CONTINUOUS
 62
     7
 10
745.708227
 20
961.839266
 11
742.108227
 21
961.839266
  0
LINE
  8
CSLAYER1
  6
CONTINUOUS
 62
     7
 10
745.708227
 20
955.879266
 11
742.108227
 21
955.879266
  0
LINE
  8
CSLAYER1
  6
CONTINUOUS
 62
     7
 10
768.008227
 20
966.659266
 11
768.008227
 21
932.009266
  0
LINE
  8
CSLAYER1
  6
CONTINUOUS
 62
     7
 10
769.708227
 20
942.789266
 11
769.708227
 21
936.829266
  0
LINE
  8
CSLAYER1
  6
CONTINUOUS
 62
     7
 10
765.608227
 20
966.659266
 11
768.008227
 21
966.659266
  0
LINE
  8
CSLAYER1
  6
CONTINUOUS
 62
     7
 10
765.608227
 20
932.009266
 11
768.008227
 21
932.009266
  0
LINE
  8
CSLAYER1
  6
CONTINUOUS
 62
     7
 10
768.008227
 20
942.789266
 11
769.708227
 21
942.789266
  0
LINE
  8
CSLAYER1
  6
CONTINUOUS
 62
     7
 10
768.008227
 20
936.829266
 11
769.708227
 21
936.829266
  0
LINE
  8
CSLAYER1
  6
CONTINUOUS
 62
     7
 10
768.008227
 20
961.839266
 11
769.708227
 21
961.839266
  0
LINE
  8
CSLAYER1
  6
CONTINUOUS
 62
     7
 10
768.008227
 20
955.879266
 11
769.708227
 21
955.879266
  0
LINE
  8
CSLAYER1
  6
CONTINUOUS
 62
     7
 10
750.508227
 20
911.709266
 11
748.108227
 21
911.709266
  0
LINE
  8
CSLAYER1
  6
CONTINUOUS
 62
     7
 10
750.508227
 20
926.714266
 11
763.208227
 21
926.714266
  0
LINE
  8
CSLAYER1
  6
CONTINUOUS
 62
     7
 10
750.508227
 20
914.804266
 11
763.208227
 21
914.804266
  0
LINE
  8
CSLAYER1
  6
CONTINUOUS
 62
     7
 10
763.208227
 20
911.709266
 11
765.608227
 21
911.709266
  0
LINE
  8
CSLAYER1
  6
CONTINUOUS
 62
     7
 10
748.108227
 20
967.359266
 11
748.108227
 21
788.059674
  0
LINE
  8
CSLAYER1
  6
CONTINUOUS
 62
     7
 10
765.608227
 20
967.359266
 11
765.608227
 21
788.059674
  0
LINE
  8
CSLAYER1
  6
CONTINUOUS
 62
     7
 10
763.208227
 20
948.859266
 11
763.208227
 21
911.709266
  0
LINE
  8
CSLAYER1
  6
CONTINUOUS
 62
     7
 10
763.208227
 20
948.859266
 11
765.608227
 21
948.859266
  0
LINE
  8
CSLAYER1
  6
CONTINUOUS
 62
     7
 10
763.208227
 20
945.764266
 11
750.508227
 21
945.764266
  0
LINE
  8
CSLAYER1
  6
CONTINUOUS
 62
     7
 10
763.208227
 20
933.854266
 11
750.508227
 21
933.854266
  0
LINE
  8
CSLAYER1
  6
CONTINUOUS
 62
     7
 10
750.508227
 20
948.859266
 11
748.108227
 21
948.859266
  0
LINE
  8
CSLAYER1
  6
CONTINUOUS
 62
     7
 10
750.508227
 20
948.859266
 11
750.508227
 21
911.709266
  0
LINE
  8
CSLAYER1
  6
CENTER
 62
     5
 10
771.660644
 20
958.859266
 11
740.724366
 21
958.859266
  0
LINE
  8
CSLAYER1
  6
CENTER
 62
     5
 10
771.220270
 20
939.809266
 11
742.485863
 21
939.809266
  0
LINE
  8
CSLAYER1
  6
CONTINUOUS
 62
     7
 10
745.708227
 20
788.059674
 11
745.708227
 21
852.359266
  0
LINE
  8
CSLAYER1
  6
CONTINUOUS
 62
     7
 10
744.008227
 20
798.839674
 11
744.008227
 21
792.879674
  0
LINE
  8
CSLAYER1
  6
CONTINUOUS
 62
     7
 10
748.108227
 20
788.059674
 11
745.708227
 21
788.059674
  0
LINE
  8
CSLAYER1
  6
CONTINUOUS
 62
     7
 10
745.708227
 20
798.839674
 11
744.008227
 21
798.839674
  0
LINE
  8
CSLAYER1
  6
CONTINUOUS
 62
     7
 10
745.708227
 20
792.879674
 11
744.008227
 21
792.879674
  0
LINE
  8
CSLAYER1
  6
CONTINUOUS
 62
     7
 10
768.008227
 20
788.059674
 11
768.008227
 21
852.359266
  0
LINE
  8
CSLAYER1
  6
CONTINUOUS
 62
     7
 10
769.708227
 20
798.839674
 11
769.708227
 21
792.879674
  0
LINE
  8
CSLAYER1
  6
CONTINUOUS
 62
     7
 10
765.608227
 20
788.059674
 11
768.008227
 21
788.059674
  0
LINE
  8
CSLAYER1
  6
CONTINUOUS
 62
     7
 10
768.008227
 20
798.839674
 11
769.708227
 21
798.839674
  0
LINE
  8
CSLAYER1
  6
CONTINUOUS
 62
     7
 10
768.008227
 20
792.879674
 11
769.708227
 21
792.879674
  0
LINE
  8
CSLAYER1
  6
CENTER
 62
     5
 10
771.220270
 20
795.859674
 11
742.485863
 21
795.859674
  0
LINE
  8
CSLAYER1
  6
CONTINUOUS
 62
     7
 10
765.608227
 20
802.859674
 11
761.358227
 21
802.859674
  0
LINE
  8
CSLAYER1
  6
CONTINUOUS
 62
     7
 10
765.608227
 20
788.859674
 11
761.358227
 21
788.859674
  0
LINE
  8
CSLAYER1
  6
CONTINUOUS
 62
     7
 10
752.358227
 20
802.859674
 11
748.108227
 21
802.859674
  0
LINE
  8
CSLAYER1
  6
CONTINUOUS
 62
     7
 10
752.358227
 20
788.859674
 11
748.108227
 21
788.859674
  0
POINT
  8
CSLAYER1
 62
     7
 10
756.858227
 20
920.759266
  0
LINE
  8
CSLAYER1
  6
CONTINUOUS
 62
     7
 10
745.708227
 20
928.559266
 11
745.708227
 21
893.909266
  0
LINE
  8
CSLAYER1
  6
CONTINUOUS
 62
     7
 10
742.108227
 20
923.739266
 11
742.108227
 21
917.779266
  0
LINE
  8
CSLAYER1
  6
CONTINUOUS
 62
     7
 10
769.708227
 20
923.739266
 11
769.708227
 21
917.779266
  0
LINE
  8
CSLAYER1
  6
CONTINUOUS
 62
     7
 10
744.008227
 20
904.689266
 11
744.008227
 21
898.729266
  0
LINE
  8
CSLAYER1
  6
CONTINUOUS
 62
     7
 10
748.108227
 20
928.559266
 11
745.708227
 21
928.559266
  0
LINE
  8
CSLAYER1
  6
CONTINUOUS
 62
     7
 10
748.108227
 20
893.909266
 11
745.708227
 21
893.909266
  0
LINE
  8
CSLAYER1
  6
CONTINUOUS
 62
     7
 10
745.708227
 20
904.689266
 11
744.008227
 21
904.689266
  0
LINE
  8
CSLAYER1
  6
CONTINUOUS
 62
     7
 10
745.708227
 20
898.729266
 11
744.008227
 21
898.729266
  0
LINE
  8
CSLAYER1
  6
CONTINUOUS
 62
     7
 10
745.708227
 20
923.739266
 11
742.108227
 21
923.739266
  0
LINE
  8
CSLAYER1
  6
CONTINUOUS
 62
     7
 10
745.708227
 20
917.779266
 11
742.108227
 21
917.779266
  0
LINE
  8
CSLAYER1
  6
CONTINUOUS
 62
     7
 10
768.008227
 20
928.559266
 11
768.008227
 21
893.909266
  0
LINE
  8
CSLAYER1
  6
CONTINUOUS
 62
     7
 10
769.708227
 20
904.689266
 11
769.708227
 21
898.729266
  0
LINE
  8
CSLAYER1
  6
CONTINUOUS
 62
     7
 10
765.608227
 20
928.559266
 11
768.008227
 21
928.559266
  0
LINE
  8
CSLAYER1
  6
CONTINUOUS
 62
     7
 10
765.608227
 20
893.909266
 11
768.008227
 21
893.909266
  0
LINE
  8
CSLAYER1
  6
CONTINUOUS
 62
     7
 10
768.008227
 20
904.689266
 11
769.708227
 21
904.689266
  0
LINE
  8
CSLAYER1
  6
CONTINUOUS
 62
     7
 10
768.008227
 20
898.729266
 11
769.708227
 21
898.729266
  0
LINE
  8
CSLAYER1
  6
CONTINUOUS
 62
     7
 10
768.008227
 20
923.739266
 11
769.708227
 21
923.739266
  0
LINE
  8
CSLAYER1
  6
CONTINUOUS
 62
     7
 10
768.008227
 20
917.779266
 11
769.708227
 21
917.779266
  0
LINE
  8
CSLAYER1
  6
CONTINUOUS
 62
     7
 10
750.508227
 20
873.609266
 11
748.108227
 21
873.609266
  0
LINE
  8
CSLAYER1
  6
CONTINUOUS
 62
     7
 10
750.508227
 20
888.614266
 11
763.208227
 21
888.614266
  0
LINE
  8
CSLAYER1
  6
CONTINUOUS
 62
     7
 10
750.508227
 20
876.704266
 11
763.208227
 21
876.704266
  0
LINE
  8
CSLAYER1
  6
CONTINUOUS
 62
     7
 10
763.208227
 20
873.609266
 11
765.608227
 21
873.609266
  0
LINE
  8
CSLAYER1
  6
CONTINUOUS
 62
     7
 10
763.208227
 20
910.759266
 11
763.208227
 21
873.609266
  0
LINE
  8
CSLAYER1
  6
CONTINUOUS
 62
     7
 10
763.208227
 20
910.759266
 11
765.608227
 21
910.759266
  0
LINE
  8
CSLAYER1
  6
CONTINUOUS
 62
     7
 10
763.208227
 20
907.664266
 11
750.508227
 21
907.664266
  0
LINE
  8
CSLAYER1
  6
CONTINUOUS
 62
     7
 10
763.208227
 20
895.754266
 11
750.508227
 21
895.754266
  0
LINE
  8
CSLAYER1
  6
CONTINUOUS
 62
     7
 10
750.508227
 20
910.759266
 11
748.108227
 21
910.759266
  0
LINE
  8
CSLAYER1
  6
CONTINUOUS
 62
     7
 10
750.508227
 20
910.759266
 11
750.508227
 21
873.609266
  0
LINE
  8
CSLAYER1
  6
CENTER
 62
     5
 10
771.220270
 20
882.659266
 11
742.485863
 21
882.659266
  0
LINE
  8
CSLAYER1
  6
CENTER
 62
     5
 10
771.660644
 20
920.759266
 11
740.724366
 21
920.759266
  0
LINE
  8
CSLAYER1
  6
CENTER
 62
     5
 10
771.220270
 20
901.709266
 11
742.485863
 21
901.709266
  0
POINT
  8
CSLAYER1
 62
     7
 10
756.858227
 20
882.659266
  0
LINE
  8
CSLAYER1
  6
CONTINUOUS
 62
     7
 10
745.708227
 20
890.459266
 11
745.708227
 21
855.809266
  0
LINE
  8
CSLAYER1
  6
CONTINUOUS
 62
     7
 10
742.108227
 20
885.639266
 11
742.108227
 21
879.679266
  0
LINE
  8
CSLAYER1
  6
CONTINUOUS
 62
     7
 10
769.708227
 20
885.639266
 11
769.708227
 21
879.679266
  0
LINE
  8
CSLAYER1
  6
CONTINUOUS
 62
     7
 10
744.008227
 20
866.589266
 11
744.008227
 21
860.629266
  0
LINE
  8
CSLAYER1
  6
CONTINUOUS
 62
     7
 10
748.108227
 20
890.459266
 11
745.708227
 21
890.459266
  0
LINE
  8
CSLAYER1
  6
CONTINUOUS
 62
     7
 10
748.108227
 20
855.809266
 11
745.708227
 21
855.809266
  0
LINE
  8
CSLAYER1
  6
CONTINUOUS
 62
     7
 10
745.708227
 20
866.589266
 11
744.008227
 21
866.589266
  0
LINE
  8
CSLAYER1
  6
CONTINUOUS
 62
     7
 10
745.708227
 20
860.629266
 11
744.008227
 21
860.629266
  0
LINE
  8
CSLAYER1
  6
CONTINUOUS
 62
     7
 10
745.708227
 20
885.639266
 11
742.108227
 21
885.639266
  0
LINE
  8
CSLAYER1
  6
CONTINUOUS
 62
     7
 10
745.708227
 20
879.679266
 11
742.108227
 21
879.679266
  0
LINE
  8
CSLAYER1
  6
CONTINUOUS
 62
     7
 10
768.008227
 20
890.459266
 11
768.008227
 21
855.809266
  0
LINE
  8
CSLAYER1
  6
CONTINUOUS
 62
     7
 10
769.708227
 20
866.589266
 11
769.708227
 21
860.629266
  0
LINE
  8
CSLAYER1
  6
CONTINUOUS
 62
     7
 10
765.608227
 20
890.459266
 11
768.008227
 21
890.459266
  0
LINE
  8
CSLAYER1
  6
CONTINUOUS
 62
     7
 10
765.608227
 20
855.809266
 11
768.008227
 21
855.809266
  0
LINE
  8
CSLAYER1
  6
CONTINUOUS
 62
     7
 10
768.008227
 20
866.589266
 11
769.708227
 21
866.589266
  0
LINE
  8
CSLAYER1
  6
CONTINUOUS
 62
     7
 10
768.008227
 20
860.629266
 11
769.708227
 21
860.629266
  0
LINE
  8
CSLAYER1
  6
CONTINUOUS
 62
     7
 10
768.008227
 20
885.639266
 11
769.708227
 21
885.639266
  0
LINE
  8
CSLAYER1
  6
CONTINUOUS
 62
     7
 10
768.008227
 20
879.679266
 11
769.708227
 21
879.679266
  0
LINE
  8
CSLAYER1
  6
CONTINUOUS
 62
     7
 10
750.508227
 20
835.509266
 11
748.108227
 21
835.509266
  0
LINE
  8
CSLAYER1
  6
CONTINUOUS
 62
     7
 10
750.508227
 20
850.514266
 11
763.208227
 21
850.514266
  0
LINE
  8
CSLAYER1
  6
CONTINUOUS
 62
     7
 10
750.508227
 20
838.604266
 11
763.208227
 21
838.604266
  0
LINE
  8
CSLAYER1
  6
CONTINUOUS
 62
     7
 10
763.208227
 20
835.509266
 11
765.608227
 21
835.509266
  0
LINE
  8
CSLAYER1
  6
CONTINUOUS
 62
     7
 10
763.208227
 20
872.659266
 11
763.208227
 21
835.509266
  0
LINE
  8
CSLAYER1
  6
CONTINUOUS
 62
     7
 10
763.208227
 20
872.659266
 11
765.608227
 21
872.659266
  0
LINE
  8
CSLAYER1
  6
CONTINUOUS
 62
     7
 10
763.208227
 20
869.564266
 11
750.508227
 21
869.564266
  0
LINE
  8
CSLAYER1
  6
CONTINUOUS
 62
     7
 10
763.208227
 20
857.654266
 11
750.508227
 21
857.654266
  0
LINE
  8
CSLAYER1
  6
CONTINUOUS
 62
     7
 10
750.508227
 20
872.659266
 11
748.108227
 21
872.659266
  0
LINE
  8
CSLAYER1
  6
CONTINUOUS
 62
     7
 10
750.508227
 20
872.659266
 11
750.508227
 21
835.509266
  0
LINE
  8
CSLAYER1
  6
CENTER
 62
     5
 10
771.220270
 20
863.609266
 11
742.485863
 21
863.609266
  0
POINT
  8
CSLAYER1
 62
     7
 10
756.858227
 20
844.559266
  0
LINE
  8
CSLAYER1
  6
CENTER
 62
     5
 10
771.660644
 20
844.559266
 11
740.724366
 21
844.559266
  0
LINE
  8
CSLAYER1
  6
CONTINUOUS
 62
     7
 10
742.108227
 20
847.539266
 11
742.108227
 21
841.579266
  0
LINE
  8
CSLAYER1
  6
CONTINUOUS
 62
     7
 10
769.708227
 20
847.539266
 11
769.708227
 21
841.579266
  0
LINE
  8
CSLAYER1
  6
CONTINUOUS
 62
     7
 10
744.008227
 20
828.489266
 11
744.008227
 21
822.529266
  0
LINE
  8
CSLAYER1
  6
CONTINUOUS
 62
     7
 10
748.108227
 20
852.359266
 11
745.708227
 21
852.359266
  0
LINE
  8
CSLAYER1
  6
CONTINUOUS
 62
     7
 10
748.108227
 20
817.709266
 11
745.708227
 21
817.709266
  0
LINE
  8
CSLAYER1
  6
CONTINUOUS
 62
     7
 10
745.708227
 20
828.489266
 11
744.008227
 21
828.489266
  0
LINE
  8
CSLAYER1
  6
CONTINUOUS
 62
     7
 10
745.708227
 20
822.529266
 11
744.008227
 21
822.529266
  0
LINE
  8
CSLAYER1
  6
CONTINUOUS
 62
     7
 10
745.708227
 20
847.539266
 11
742.108227
 21
847.539266
  0
LINE
  8
CSLAYER1
  6
CONTINUOUS
 62
     7
 10
745.708227
 20
841.579266
 11
742.108227
 21
841.579266
  0
LINE
  8
CSLAYER1
  6
CONTINUOUS
 62
     7
 10
769.708227
 20
828.489266
 11
769.708227
 21
822.529266
  0
LINE
  8
CSLAYER1
  6
CONTINUOUS
 62
     7
 10
765.608227
 20
852.359266
 11
768.008227
 21
852.359266
  0
LINE
  8
CSLAYER1
  6
CONTINUOUS
 62
     7
 10
765.608227
 20
817.709266
 11
768.008227
 21
817.709266
  0
LINE
  8
CSLAYER1
  6
CONTINUOUS
 62
     7
 10
768.008227
 20
828.489266
 11
769.708227
 21
828.489266
  0
LINE
  8
CSLAYER1
  6
CONTINUOUS
 62
     7
 10
768.008227
 20
822.529266
 11
769.708227
 21
822.529266
  0
LINE
  8
CSLAYER1
  6
CONTINUOUS
 62
     7
 10
768.008227
 20
847.539266
 11
769.708227
 21
847.539266
  0
LINE
  8
CSLAYER1
  6
CONTINUOUS
 62
     7
 10
768.008227
 20
841.579266
 11
769.708227
 21
841.579266
  0
LINE
  8
CSLAYER1
  6
CONTINUOUS
 62
     7
 10
750.508227
 20
797.409266
 11
748.108227
 21
797.409266
  0
LINE
  8
CSLAYER1
  6
CONTINUOUS
 62
     7
 10
750.508227
 20
812.414266
 11
763.208227
 21
812.414266
  0
LINE
  8
CSLAYER1
  6
CONTINUOUS
 62
     7
 10
763.208227
 20
797.409266
 11
765.608227
 21
797.409266
  0
LINE
  8
CSLAYER1
  6
CONTINUOUS
 62
     7
 10
750.508227
 20
800.504266
 11
763.208227
 21
800.504266
  0
LINE
  8
CSLAYER1
  6
CONTINUOUS
 62
     7
 10
763.208227
 20
834.559266
 11
763.208227
 21
797.409266
  0
LINE
  8
CSLAYER1
  6
CONTINUOUS
 62
     7
 10
763.208227
 20
834.559266
 11
765.608227
 21
834.559266
  0
LINE
  8
CSLAYER1
  6
CONTINUOUS
 62
     7
 10
763.208227
 20
831.464266
 11
750.508227
 21
831.464266
  0
LINE
  8
CSLAYER1
  6
CONTINUOUS
 62
     7
 10
763.208227
 20
819.554266
 11
750.508227
 21
819.554266
  0
LINE
  8
CSLAYER1
  6
CONTINUOUS
 62
     7
 10
750.508227
 20
834.559266
 11
748.108227
 21
834.559266
  0
LINE
  8
CSLAYER1
  6
CONTINUOUS
 62
     7
 10
750.508227
 20
834.559266
 11
750.508227
 21
797.409266
  0
LINE
  8
CSLAYER1
  6
CENTER
 62
     5
 10
771.220270
 20
825.509266
 11
742.485863
 21
825.509266
  0
LINE
  8
CSLAYER1
  6
CENTER
 62
     5
 10
771.220270
 20
806.459266
 11
742.485863
 21
806.459266
  0
POINT
  8
CSLAYER1
 62
     7
 10
756.858227
 20
806.459266
  0
INSERT
  8
CSLAYER1
  2
BLKF0005
 10
0.0
 20
0.0
 30
0.0
  0
INSERT
  8
CSLAYER1
  2
BLKF0006
 10
0.0
 20
0.0
 30
0.0
  0
DIMENSION
  8
CSLAYER1
 62
     7
  2
*D0000
 10
2271.043345
 20
584.766419
 11
2261.042969
 21
507.266541
 13
2127.303653
 23
429.766419
 14
2127.103653
 24
584.766419
 50
90.000000
  0
DIMENSION
  8
CSLAYER1
 62
     7
  2
*D0001
 10
2271.043345
 20
1142.852443
 11
2261.042969
 21
863.809509
 13
2127.103653
 23
584.766419
 14
2127.103653
 24
1142.852443
 50
90.000000
 70
1
  0
DIMENSION
  8
CSLAYER1
 62
     7
  2
*D0002
 10
2373.636552
 20
429.766419
 11
2363.636230
 21
786.309509
 13
2373.636552
 23
1142.852443
 14
2373.636552
 24
429.766419
 50
90.000000
 70
1
  0
TEXT
  8
CSLAYER1
 62
     5
 10
966.493286
 20
823.412048
 40
40.000000
 41
0.782609
  1
ギヤードモ－ター
 50
0.000000
 51
0.000000
  7
EASYDRAW_FONT
 72
     5
 11
1206.493286
 21
823.412048
  0
LINE
  8
CSLAYER1
  6
CONTINUOUS
 62
     5
 10
1198.796324
 20
818.655607
 11
960.775565
 21
818.655607
  0
LINE
  8
CSLAYER1
  6
CONTINUOUS
 62
     5
 10
1334.770552
 20
676.657204
 11
1198.796324
 21
818.655607
  0
LINE
  8
CSLAYER1
  6
CONTINUOUS
 62
     5
 10
1334.770552
 20
676.657204
 11
1309.120890
 21
692.216601
  0
LINE
  8
CSLAYER1
  6
CONTINUOUS
 62
     5
 10
1334.770552
 20
676.657204
 11
1320.336992
 21
702.956868
  0
TEXT
  8
CSLAYER1
 62
     5
 10
947.184814
 20
715.810486
 40
40.000000
 41
0.803571
  1
上限・下限
 50
0.000000
 51
0.000000
  7
EASYDRAW_FONT
 72
     5
 11
1097.184814
 21
715.810486
  0
TEXT
  8
CSLAYER1
 62
     5
 10
943.301514
 20
666.640564
 40
40.000000
 41
0.782609
  1
リミットスイッチ
 50
0.000000
 51
0.000000
  7
EASYDRAW_FONT
 72
     5
 11
1183.301514
 21
666.640564
  0
LINE
  8
CSLAYER1
  6
CONTINUOUS
 62
     5
 10
942.096316
 20
660.283801
 11
1188.672404
 21
660.283801
  0
LINE
  8
CSLAYER1
  6
CONTINUOUS
 62
     5
 10
767.858227
 20
534.475045
 11
942.096316
 21
660.283801
  0
LINE
  8
CSLAYER1
  6
CONTINUOUS
 62
     5
 10
767.858227
 20
534.475045
 11
786.806444
 21
557.733701
  0
LINE
  8
CSLAYER1
  6
CONTINUOUS
 62
     5
 10
767.858227
 20
534.475045
 11
795.897192
 21
545.143524
  0
DIMENSION
  8
CSLAYER1
 62
     7
  2
*D0003
 10
2127.103653
 20
1345.994217
 11
1677.103760
 21
1355.994263
 13
1227.103653
 23
1448.158490
 14
2127.103653
 24
1448.158490
 52
270.000000
 70
1
  0
DIMENSION
  8
CSLAYER1
 62
     7
  2
*D0004
 10
2127.303653
 20
314.668710
 11
1677.303711
 21
324.668610
 13
1227.303653
 23
429.766419
 14
2127.303653
 24
429.766419
 52
270.000000
 70
1
  0
LINE
  8
CSLAYER1
  6
CONTINUOUS
 62
     4
 10
292.858227
 20
1080.652443
 11
303.858227
 21
1080.652443
  0
LINE
  8
CSLAYER1
  6
CONTINUOUS
 62
     3
 10
303.858227
 20
1080.652443
 11
303.858227
 21
1097.852443
  0
INSERT
  8
CSLAYER1
  2
BLKF0007
 10
0.0
 20
0.0
 30
0.0
  0
LINE
  8
CSLAYER1
  6
CONTINUOUS
 62
     3
 10
783.858227
 20
1075.952283
 11
329.858227
 21
1075.952283
  0
LINE
  8
CSLAYER1
  6
CONTINUOUS
 62
     3
 10
283.858227
 20
1045.652443
 11
283.858227
 21
1097.852443
  0
LINE
  8
CSLAYER1
  6
CONTINUOUS
 62
     3
 10
292.858227
 20
1045.652443
 11
292.858227
 21
1097.852443
  0
LINE
  8
CSLAYER1
  6
CONTINUOUS
 62
     3
 10
156.858227
 20
1097.852443
 11
956.858227
 21
1097.852443
  0
LINE
  8
CSLAYER1
  6
CONTINUOUS
 62
     3
 10
283.858227
 20
1045.652443
 11
292.858227
 21
1045.652443
  0
LINE
  8
CSLAYER1
  6
CENTER
 62
     5
 10
272.858227
 20
1062.152443
 11
840.858227
 21
1062.152443
  0
LINE
  8
CSLAYER1
  6
CONTINUOUS
 62
     3
 10
300.858227
 20
1078.152443
 11
309.858227
 21
1078.152443
  0
LINE
  8
CSLAYER1
  6
CONTINUOUS
 62
     3
 10
320.858227
 20
1078.152443
 11
329.858227
 21
1078.152443
  0
LINE
  8
CSLAYER1
  6
CONTINUOUS
 62
     3
 10
280.858227
 20
1051.182788
 11
280.858227
 21
1073.122098
  0
LINE
  8
CSLAYER1
  6
CONTINUOUS
 62
     3
 10
283.858227
 20
1072.902443
 11
280.858227
 21
1072.902443
  0
LINE
  8
CSLAYER1
  6
CONTINUOUS
 62
     3
 10
283.858227
 20
1051.402443
 11
280.858227
 21
1051.402443
  0
LINE
  8
CSLAYER1
  6
CONTINUOUS
 62
     3
 10
283.858227
 20
1060.640247
 11
280.858227
 21
1064.140247
  0
LINE
  8
CSLAYER1
  6
CONTINUOUS
 62
     3
 10
293.858227
 20
1070.302443
 11
293.858227
 21
1054.002443
  0
LINE
  8
CSLAYER1
  6
CONTINUOUS
 62
     3
 10
294.358227
 20
1070.802443
 11
293.858227
 21
1070.302443
  0
LINE
  8
CSLAYER1
  6
CONTINUOUS
 62
     3
 10
293.858227
 20
1054.002443
 11
294.358227
 21
1053.502443
  0
LINE
  8
CSLAYER1
  6
CONTINUOUS
 62
     3
 10
272.858227
 20
1071.152443
 11
272.858227
 21
1053.152443
  0
LINE
  8
CSLAYER1
  6
CONTINUOUS
 62
     3
 10
280.858227
 20
1067.637271
 11
273.995408
 21
1067.637271
  0
LINE
  8
CSLAYER1
  6
CONTINUOUS
 62
     3
 10
280.858227
 20
1073.122098
 11
273.995408
 21
1073.122098
  0
LINE
  8
CSLAYER1
  6
CONTINUOUS
 62
     3
 10
272.858227
 20
1071.152443
 11
273.995408
 21
1073.122098
  0
ARC
  8
CSLAYER1
  6
CONTINUOUS
 62
     3
 10
276.638272
 20
1070.379685
 40
3.808617
 50
185.661633
 51
226.059028
  0
ARC
  8
CSLAYER1
  6
CONTINUOUS
 62
     3
 10
286.653971
 20
1062.152443
 40
13.795744
 50
156.573402
 51
203.426598
  0
LINE
  8
CSLAYER1
  6
CONTINUOUS
 62
     3
 10
280.858227
 20
1056.667616
 11
273.995408
 21
1056.667616
  0
LINE
  8
CSLAYER1
  6
CONTINUOUS
 62
     3
 10
280.858227
 20
1051.182788
 11
273.995408
 21
1051.182788
  0
LINE
  8
CSLAYER1
  6
CONTINUOUS
 62
     3
 10
272.858227
 20
1053.152443
 11
273.995408
 21
1051.182788
  0
ARC
  8
CSLAYER1
  6
CONTINUOUS
 62
     3
 10
276.638272
 20
1053.925202
 40
3.808617
 50
133.940972
 51
174.338367
  0
LINE
  8
CSLAYER1
  6
CONTINUOUS
 62
     3
 10
293.858227
 20
1056.702443
 11
292.858227
 21
1056.702443
  0
LINE
  8
CSLAYER1
  6
CONTINUOUS
 62
     3
 10
293.858227
 20
1067.602443
 11
292.858227
 21
1067.602443
  0
LINE
  8
CSLAYER1
  6
CONTINUOUS
 62
     3
 10
294.358227
 20
1053.502443
 11
294.358227
 21
1070.802443
  0
LINE
  8
CSLAYER1
  6
CONTINUOUS
 62
     3
 10
294.358227
 20
1053.502443
 11
300.858227
 21
1053.502443
  0
LINE
  8
CSLAYER1
  6
CONTINUOUS
 62
     3
 10
309.858227
 20
1070.802443
 11
803.858227
 21
1070.802443
  0
LINE
  8
CSLAYER1
  6
CONTINUOUS
 62
     3
 10
300.858227
 20
1070.802443
 11
294.358227
 21
1070.802443
  0
LINE
  8
CSLAYER1
  6
CONTINUOUS
 62
     3
 10
309.858227
 20
1053.502443
 11
803.858227
 21
1053.502443
  0
LINE
  8
CSLAYER1
  6
CONTINUOUS
 62
     3
 10
320.858227
 20
1070.802443
 11
320.858227
 21
1078.152443
  0
LINE
  8
CSLAYER1
  6
CONTINUOUS
 62
     3
 10
329.858227
 20
1070.802443
 11
329.858227
 21
1078.152443
  0
LINE
  8
CSLAYER1
  6
CONTINUOUS
 62
     7
 10
793.858227
 20
1045.273710
 11
792.858227
 21
1045.273710
  0
ARC
  8
CSLAYER1
  6
CONTINUOUS
 62
     7
 10
793.858227
 20
1044.273710
 40
1.000000
 50
0.000000
 51
90.000000
  0
ARC
  8
CSLAYER1
  6
CONTINUOUS
 62
     7
 10
782.858227
 20
1044.273710
 40
1.000000
 50
90.000000
 51
180.000000
  0
LINE
  8
CSLAYER1
  6
CONTINUOUS
 62
     7
 10
783.858227
 20
1045.273710
 11
782.858227
 21
1045.273710
  0
LINE
  8
CSLAYER1
  6
CONTINUOUS
 62
     4
 10
820.858227
 20
1080.652443
 11
809.858227
 21
1080.652443
  0
LINE
  8
CSLAYER1
  6
CONTINUOUS
 62
     3
 10
809.858227
 20
1080.652443
 11
809.858227
 21
1097.852443
  0
INSERT
  8
CSLAYER1
  2
BLKF0008
 10
0.0
 20
0.0
 30
0.0
  0
LINE
  8
CSLAYER1
  6
CONTINUOUS
 62
     3
 10
829.858227
 20
1045.652443
 11
829.858227
 21
1097.852443
  0
LINE
  8
CSLAYER1
  6
CONTINUOUS
 62
     3
 10
820.858227
 20
1045.652443
 11
820.858227
 21
1097.852443
  0
LINE
  8
CSLAYER1
  6
CONTINUOUS
 62
     3
 10
829.858227
 20
1045.652443
 11
820.858227
 21
1045.652443
  0
LINE
  8
CSLAYER1
  6
CONTINUOUS
 62
     3
 10
812.858227
 20
1078.152443
 11
803.858227
 21
1078.152443
  0
LINE
  8
CSLAYER1
  6
CONTINUOUS
 62
     3
 10
792.858227
 20
1078.152443
 11
783.858227
 21
1078.152443
  0
LINE
  8
CSLAYER1
  6
CONTINUOUS
 62
     3
 10
832.858227
 20
1051.182788
 11
832.858227
 21
1073.122098
  0
LINE
  8
CSLAYER1
  6
CONTINUOUS
 62
     3
 10
829.858227
 20
1072.902443
 11
832.858227
 21
1072.902443
  0
LINE
  8
CSLAYER1
  6
CONTINUOUS
 62
     3
 10
829.858227
 20
1051.402443
 11
832.858227
 21
1051.402443
  0
LINE
  8
CSLAYER1
  6
CONTINUOUS
 62
     3
 10
829.858227
 20
1060.640247
 11
832.858227
 21
1064.140247
  0
LINE
  8
CSLAYER1
  6
CONTINUOUS
 62
     3
 10
819.858227
 20
1070.302443
 11
819.858227
 21
1054.002443
  0
LINE
  8
CSLAYER1
  6
CONTINUOUS
 62
     3
 10
819.358227
 20
1070.802443
 11
819.858227
 21
1070.302443
  0
LINE
  8
CSLAYER1
  6
CONTINUOUS
 62
     3
 10
819.858227
 20
1054.002443
 11
819.358227
 21
1053.502443
  0
LINE
  8
CSLAYER1
  6
CONTINUOUS
 62
     3
 10
840.858227
 20
1071.152443
 11
840.858227
 21
1053.152443
  0
LINE
  8
CSLAYER1
  6
CONTINUOUS
 62
     3
 10
832.858227
 20
1067.637271
 11
839.721046
 21
1067.637271
  0
LINE
  8
CSLAYER1
  6
CONTINUOUS
 62
     3
 10
832.858227
 20
1073.122098
 11
839.721046
 21
1073.122098
  0
LINE
  8
CSLAYER1
  6
CONTINUOUS
 62
     3
 10
840.858227
 20
1071.152443
 11
839.721046
 21
1073.122098
  0
ARC
  8
CSLAYER1
  6
CONTINUOUS
 62
     3
 10
837.078183
 20
1070.379685
 40
3.808617
 50
313.940972
 51
354.338367
  0
ARC
  8
CSLAYER1
  6
CONTINUOUS
 62
     3
 10
827.062483
 20
1062.152443
 40
13.795744
 50
-23.426598
 51
23.426598
  0
LINE
  8
CSLAYER1
  6
CONTINUOUS
 62
     3
 10
832.858227
 20
1056.667616
 11
839.721046
 21
1056.667616
  0
LINE
  8
CSLAYER1
  6
CONTINUOUS
 62
     3
 10
832.858227
 20
1051.182788
 11
839.721046
 21
1051.182788
  0
LINE
  8
CSLAYER1
  6
CONTINUOUS
 62
     3
 10
840.858227
 20
1053.152443
 11
839.721046
 21
1051.182788
  0
ARC
  8
CSLAYER1
  6
CONTINUOUS
 62
     3
 10
837.078183
 20
1053.925202
 40
3.808617
 50
5.661633
 51
46.059028
  0
LINE
  8
CSLAYER1
  6
CONTINUOUS
 62
     3
 10
819.858227
 20
1056.702443
 11
820.858227
 21
1056.702443
  0
LINE
  8
CSLAYER1
  6
CONTINUOUS
 62
     3
 10
819.858227
 20
1067.602443
 11
820.858227
 21
1067.602443
  0
LINE
  8
CSLAYER1
  6
CONTINUOUS
 62
     3
 10
819.358227
 20
1053.502443
 11
819.358227
 21
1070.802443
  0
LINE
  8
CSLAYER1
  6
CONTINUOUS
 62
     3
 10
819.358227
 20
1053.502443
 11
812.858227
 21
1053.502443
  0
LINE
  8
CSLAYER1
  6
CONTINUOUS
 62
     3
 10
812.858227
 20
1070.802443
 11
819.358227
 21
1070.802443
  0
LINE
  8
CSLAYER1
  6
CONTINUOUS
 62
     3
 10
792.858227
 20
1070.802443
 11
792.858227
 21
1078.152443
  0
LINE
  8
CSLAYER1
  6
CONTINUOUS
 62
     3
 10
783.858227
 20
1070.802443
 11
783.858227
 21
1078.152443
  0
LINE
  8
CSLAYER1
  6
CONTINUOUS
 62
     3
 10
567.277118
 20
714.902338
 11
567.418553
 21
714.902338
  0
LINE
  8
CSLAYER1
  6
CONTINUOUS
 62
     3
 10
565.185505
 20
707.945254
 11
565.185505
 21
625.694290
  0
LINE
  8
CSLAYER1
  6
CONTINUOUS
 62
     3
 10
569.568123
 20
707.391399
 11
569.568123
 21
625.162547
  0
LINE
  8
CSLAYER1
  6
CONTINUOUS
 62
     3
 10
585.220329
 20
703.313937
 11
585.220329
 21
621.230755
  0
LINE
  8
CSLAYER1
  6
CONTINUOUS
 62
     3
 10
589.602947
 20
701.474600
 11
589.602947
 21
619.473798
  0
LINE
  8
CSLAYER1
  6
CONTINUOUS
 62
     3
 10
599.284634
 20
695.968687
 11
599.284634
 21
614.208994
  0
LINE
  8
CSLAYER1
  6
CONTINUOUS
 62
     3
 10
602.820894
 20
693.239855
 11
602.820894
 21
611.655140
  0
LINE
  8
CSLAYER1
  6
CONTINUOUS
 62
     3
 10
611.236694
 20
683.898861
 11
611.236694
 21
603.282657
  0
LINE
  8
CSLAYER1
  6
CONTINUOUS
 62
     3
 10
548.530949
 20
707.945254
 11
548.530949
 21
625.694290
  0
LINE
  8
CSLAYER1
  6
CONTINUOUS
 62
     3
 10
544.148331
 20
707.391399
 11
544.148331
 21
625.162547
  0
LINE
  8
CSLAYER1
  6
CONTINUOUS
 62
     3
 10
528.496125
 20
703.313937
 11
528.496125
 21
621.230755
  0
LINE
  8
CSLAYER1
  6
CONTINUOUS
 62
     3
 10
524.113507
 20
701.474600
 11
524.113507
 21
619.473798
  0
LINE
  8
CSLAYER1
  6
CONTINUOUS
 62
     3
 10
514.431820
 20
695.968687
 11
514.431820
 21
614.208994
  0
LINE
  8
CSLAYER1
  6
CONTINUOUS
 62
     3
 10
510.895560
 20
693.239855
 11
510.895560
 21
611.655140
  0
LINE
  8
CSLAYER1
  6
CONTINUOUS
 62
     3
 10
502.479760
 20
683.898861
 11
502.479760
 21
603.282657
  0
LINE
  8
CSLAYER1
  6
CONTINUOUS
 62
     3
 10
364.858227
 20
479.766419
 11
364.858227
 21
606.940922
  0
LINE
  8
CSLAYER1
  6
CONTINUOUS
 62
     7
 10
641.858227
 20
654.412469
 11
641.858227
 21
559.877846
  0
LINE
  8
CSLAYER1
  6
CONTINUOUS
 62
     7
 10
620.858227
 20
657.412469
 11
620.858227
 21
556.877846
  0
LINE
  8
CSLAYER1
  6
CONTINUOUS
 62
     7
 10
620.858227
 20
556.877846
 11
638.858227
 21
556.877846
  0
LINE
  8
CSLAYER1
  6
CONTINUOUS
 62
     7
 10
620.858227
 20
598.270863
 11
640.076822
 21
598.270863
  0
LINE
  8
CSLAYER1
  6
CONTINUOUS
 62
     7
 10
620.858227
 20
657.412469
 11
638.858227
 21
657.412469
  0
ARC
  8
CSLAYER1
  6
CONTINUOUS
 62
     7
 10
638.858227
 20
654.412469
 40
3.000000
 50
0.000000
 51
90.000000
  0
ARC
  8
CSLAYER1
  6
CONTINUOUS
 62
     7
 10
638.858227
 20
559.877846
 40
3.000000
 50
270.000000
 51
360.000000
  0
LINE
  8
CSLAYER1
  6
CONTINUOUS
 62
     3
 10
748.358227
 20
500.766419
 11
748.358227
 21
606.940922
  0
LINE
  8
CSLAYER1
  6
CONTINUOUS
 62
     3
 10
329.858227
 20
606.940922
 11
496.858227
 21
606.940922
  0
LINE
  8
CSLAYER1
  6
CONTINUOUS
 62
     3
 10
329.858227
 20
659.141106
 11
496.858227
 21
659.141106
  0
LINE
  8
CSLAYER1
  6
CONTINUOUS
 62
     3
 10
329.858227
 20
670.629736
 11
496.858227
 21
670.629736
  0
LINE
  8
CSLAYER1
  6
CONTINUOUS
 62
     3
 10
616.858227
 20
670.629736
 11
783.858227
 21
670.629736
  0
LINE
  8
CSLAYER1
  6
CONTINUOUS
 62
     3
 10
616.858227
 20
606.940922
 11
620.858227
 21
606.940922
  0
LINE
  8
CSLAYER1
  6
CONTINUOUS
 62
     3
 10
641.858227
 20
606.940922
 11
783.858227
 21
606.940922
  0
LINE
  8
CSLAYER1
  6
CONTINUOUS
 62
     3
 10
2550.070973
 20
2144.780529
 11
2556.213080
 21
2166.368230
  0
LINE
  8
CSLAYER1
  6
CONTINUOUS
 62
     3
 10
2550.883899
 20
2143.786953
 11
2563.077788
 21
2160.858398
  0
LINE
  8
CSLAYER1
  6
CONTINUOUS
 62
     3
 10
2552.058125
 20
2142.432076
 11
2569.581196
 21
2153.903365
  0
LINE
  8
CSLAYER1
  6
CONTINUOUS
 62
     3
 10
2552.871051
 20
2141.167525
 11
2574.187777
 21
2145.683780
  0
TEXT
  8
CSLAYER1
 62
     4
 10
2706.461969
 20
949.563648
 40
45.879784
 41
0.605080
  1
最大使用頻度８０回／時間・最大起動頻度１０回／分
 50
0.000000
 51
0.000000
  7
EASYDRAW_FONT
 72
     5
 11
3363.470648
 21
949.563648
  0
LINE
  8
CSLAYER1
  6
CONTINUOUS
 62
     5
 10
3411.668952
 20
1260.828638
 11
2690.796434
 21
1260.828638
  0
TEXT
  8
CSLAYER1
 62
     3
 10
2937.164307
 20
1273.792236
 40
40.000000
 41
0.825000
  1
マグネットスイッチ制御
 50
0.000000
 51
0.000000
  7
EASYDRAW_FONT
 72
     5
 11
3289.164307
 21
1273.792236
  0
TEXT
  8
CSLAYER1
 62
     3
 10
2704.237305
 20
1270.573364
 40
40.000000
 41
0.872727
  1
制御方式
 50
0.000000
 51
0.000000
  7
EASYDRAW_FONT
 72
     5
 11
2832.237305
 21
1270.573364
  0
LINE
  8
CSLAYER1
  6
CONTINUOUS
 62
     3
 10
616.858227
 20
659.141106
 11
783.858227
 21
659.141106
  0
LINE
  8
CSLAYER1
  6
CONTINUOUS
 62
     7
 10
617.858227
 20
782.600805
 11
782.858227
 21
754.643179
  0
LINE
  8
CSLAYER1
  6
CONTINUOUS
 62
     7
 10
782.858227
 20
700.305100
 11
617.858227
 21
672.347475
  0
LINE
  8
CSLAYER1
  6
CONTINUOUS
 62
     7
 10
617.858227
 20
759.715055
 11
782.858227
 21
731.757429
  0
LINE
  8
CSLAYER1
  6
CONTINUOUS
 62
     7
 10
495.858227
 20
782.600805
 11
330.858227
 21
754.643179
  0
LINE
  8
CSLAYER1
  6
CONTINUOUS
 62
     7
 10
495.858227
 20
759.715055
 11
330.858227
 21
731.757429
  0
LINE
  8
CSLAYER1
  6
CONTINUOUS
 62
     7
 10
330.858227
 20
700.305100
 11
495.858227
 21
672.347475
  0
LINE
  8
CSLAYER1
  6
CONTINUOUS
 62
     3
 10
366.358227
 20
769.709431
 11
366.358227
 21
760.658305
  0
LINE
  8
CSLAYER1
  6
CONTINUOUS
 62
     3
 10
747.358227
 20
769.709431
 11
747.358227
 21
760.658305
  0
LINE
  8
CSLAYER1
  6
CONTINUOUS
 62
     4
 10
617.944579
 20
534.066419
 11
648.358227
 21
534.066419
  0
LINE
  8
CSLAYER1
  6
CONTINUOUS
 62
     4
 10
615.802901
 20
528.066419
 11
648.358227
 21
528.066419
  0
LINE
  8
CSLAYER1
  6
CONTINUOUS
 62
     4
 10
648.358227
 20
528.066419
 11
648.358227
 21
534.066419
  0
LINE
  8
CSLAYER1
  6
CONTINUOUS
 62
     4
 10
646.858227
 20
479.766419
 11
646.858227
 21
528.066419
  0
DIMENSION
  8
CSLAYER1
 62
     7
  2
*D0005
 10
856.858227
 20
314.668710
 11
556.858215
 21
324.668610
 13
256.858227
 23
429.766419
 14
856.858227
 24
429.766419
 52
270.000000
 70
1
  0
DIMENSION
  8
CSLAYER1
 62
     7
  2
*D0006
 10
1134.515348
 20
2248.158490
 11
1124.515381
 21
1848.158447
 13
1227.103653
 23
1448.158490
 14
1227.103653
 24
2248.158490
 50
90.000000
 70
1
  0
LINE
  8
CSLAYER1
  6
CONTINUOUS
 62
     4
 10
465.358227
 20
528.066419
 11
465.358227
 21
534.066419
  0
LINE
  8
CSLAYER1
  6
CONTINUOUS
 62
     4
 10
466.858227
 20
479.766419
 11
466.858227
 21
528.066419
  0
LINE
  8
CSLAYER1
  6
CONTINUOUS
 62
     4
 10
497.913553
 20
528.066419
 11
465.358227
 21
528.066419
  0
LINE
  8
CSLAYER1
  6
CONTINUOUS
 62
     4
 10
495.771876
 20
534.066419
 11
465.358227
 21
534.066419
  0
INSERT
  8
CSLAYER1
  2
BLKF0009
 10
0.0
 20
0.0
 30
0.0
  0
INSERT
  8
CSLAYER1
  2
BLKF0010
 10
0.0
 20
0.0
 30
0.0
  0
LINE
  8
CSLAYER1
  6
CONTINUOUS
 62
     7
 10
1308.830382
 20
479.766419
 11
1327.303653
 21
498.546512
  0
LINE
  8
CSLAYER1
  6
CONTINUOUS
 62
     4
 10
1365.303653
 20
500.766419
 11
1350.569374
 21
500.766419
  0
LINE
  8
CSLAYER1
  6
CONTINUOUS
 62
     4
 10
1380.303653
 20
485.766419
 11
1380.303653
 21
479.766419
  0
LINE
  8
CSLAYER1
  6
CONTINUOUS
 62
     4
 10
1365.303653
 20
500.766419
 11
1380.303653
 21
485.766419
  0
LINE
  8
CSLAYER1
  6
CONTINUOUS
 62
     3
 10
1326.021639
 20
497.243205
 11
1327.303653
 21
497.161413
  0
LINE
  8
CSLAYER1
  6
CONTINUOUS
 62
     3
 10
1350.859323
 20
522.493418
 11
1350.041402
 21
509.673174
  0
LINE
  8
CSLAYER1
  6
CONTINUOUS
 62
     3
 10
1347.677996
 20
496.352082
 11
1347.158280
 21
495.894704
  0
LINE
  8
CSLAYER1
  6
CONTINUOUS
 62
     3
 10
1357.600239
 20
529.346294
 11
1349.619271
 21
496.904329
  0
LINE
  8
CSLAYER1
  6
CONTINUOUS
 62
     3
 10
1356.226981
 20
527.950227
 11
1351.634287
 21
509.281312
  0
LINE
  8
CSLAYER1
  6
CONTINUOUS
 62
     3
 10
1348.409338
 20
496.172166
 11
1347.303653
 21
496.444173
  0
LINE
  8
CSLAYER1
  6
CONTINUOUS
 62
     3
 10
1351.634287
 20
509.281312
 11
1347.303653
 21
510.346681
  0
ARC
  8
CSLAYER1
  6
CONTINUOUS
 62
     3
 10
1348.648223
 20
497.143214
 40
1.000000
 50
256.179252
 51
346.179252
  0
LINE
  8
CSLAYER1
  6
CONTINUOUS
 62
     3
 10
1353.425925
 20
516.564171
 11
1350.526548
 21
517.277440
  0
LINE
  8
CSLAYER1
  6
CONTINUOUS
 62
     3
 10
1353.664810
 20
517.535219
 11
1350.591234
 21
518.291342
  0
LINE
  8
CSLAYER1
  6
CONTINUOUS
 62
     3
 10
1347.644729
 20
519.225433
 11
1347.303653
 21
513.879339
  0
LINE
  8
CSLAYER1
  6
CONTINUOUS
 62
     3
 10
1322.133723
 20
493.290715
 11
1327.303653
 21
487.416156
  0
LINE
  8
CSLAYER1
  6
CENTER
 62
     5
 10
1337.303653
 20
479.766419
 11
1337.303653
 21
584.766419
  0
LINE
  8
CSLAYER1
  6
CONTINUOUS
 62
     7
 10
1347.303653
 20
479.766419
 11
1347.303653
 21
557.766419
  0
LINE
  8
CSLAYER1
  6
CONTINUOUS
 62
     7
 10
1327.303653
 20
557.766419
 11
1347.303653
 21
557.766419
  0
LINE
  8
CSLAYER1
  6
CONTINUOUS
 62
     7
 10
1327.303653
 20
479.766419
 11
1327.303653
 21
557.766419
  0
INSERT
  8
CSLAYER1
  2
BLKF0011
 10
0.0
 20
0.0
 30
0.0
  0
INSERT
  8
CSLAYER1
  2
BLKF0012
 10
0.0
 20
0.0
 30
0.0
  0
LINE
  8
CSLAYER1
  6
CONTINUOUS
 62
     3
 10
1342.303653
 20
565.766419
 11
1342.303653
 21
573.566419
  0
LINE
  8
CSLAYER1
  6
CONTINUOUS
 62
     4
 10
1341.303653
 20
565.766419
 11
1341.303653
 21
573.566419
  0
LINE
  8
CSLAYER1
  6
CONTINUOUS
 62
     3
 10
1332.303653
 20
565.766419
 11
1332.303653
 21
573.566419
  0
LINE
  8
CSLAYER1
  6
CONTINUOUS
 62
     4
 10
1333.303653
 20
565.766419
 11
1333.303653
 21
573.566419
  0
LINE
  8
CSLAYER1
  6
CONTINUOUS
 62
     5
 10
3411.668952
 20
748.828651
 11
2690.796434
 21
748.828651
  0
TEXT
  8
CSLAYER1
 62
     3
 10
3020.655762
 20
759.500061
 40
40.000000
 41
0.926087
  1
　１０Ｒ４／１３
 50
0.000000
 51
0.000000
  7
EASYDRAW_FONT
 72
     5
 11
3304.655762
 21
759.500061
  0
TEXT
  8
CSLAYER1
 62
     3
 10
2705.551270
 20
1782.668091
 40
40.000000
 41
1.036364
  1
積載荷重
 50
0.000000
 51
0.000000
  7
EASYDRAW_FONT
 72
     5
 11
2857.551270
 21
1782.668091
  0
LINE
  8
CSLAYER1
  6
CONTINUOUS
 62
     5
 10
2682.623549
 20
2291.633615
 11
2569.581196
 21
2153.903365
  0
LINE
  8
CSLAYER1
  6
CONTINUOUS
 62
     5
 10
2569.581196
 20
2153.903365
 11
2581.963599
 21
2181.228739
  0
LINE
  8
CSLAYER1
  6
CONTINUOUS
 62
     5
 10
2569.581196
 20
2153.903365
 11
2593.967359
 21
2171.376632
  0
LINE
  8
CSLAYER1
  6
CONTINUOUS
 62
     5
 10
2758.621672
 20
2145.326699
 11
2658.014355
 21
1979.795181
  0
LINE
  8
CSLAYER1
  6
CONTINUOUS
 62
     5
 10
2658.014355
 20
1979.795181
 11
2666.429603
 21
2008.590729
  0
LINE
  8
CSLAYER1
  6
CONTINUOUS
 62
     5
 10
2658.014355
 20
1979.795181
 11
2679.699948
 21
2000.525234
  0
TEXT
  8
CSLAYER1
 62
     5
 10
2769.692871
 20
2055.516113
 40
40.000000
 41
1.020000
  1
コード長サ２ｍ
 50
360.000000
 51
0.000000
  7
EASYDRAW_FONT
 72
     5
 11
3041.692871
 21
2055.516113
  0
INSERT
  8
CSLAYER1
  2
BLKF0013
 10
0.0
 20
0.0
 30
0.0
  0
ENDSEC
  0
EOF
