  0
SECTION
  2
HEADER
  9
$ACADVER
  1
AC1006
  9
$INSBASE
 10
-1070.203583
 20
2519.771987
 30
0.0
  9
$EXTMIN
 10
-1070.203583
 20
2519.771987
  9
$EXTMAX
 10
2569.796417
 20
5089.771987
  9
$LIMMIN
 10
-1070.203583
 20
2519.771987
  9
$LIMMAX
 10
2569.796417
 20
5089.771987
  9
$VIEWCTR
 10
749.796417
 20
3804.771987
  9
$VIEWSIZE
 40
2570.000000
  9
$SNAPMODE
 70
     0
  9
$SNAPUNIT
 10
1.0
 20
1.0
  9
$SNAPBASE
 10
0.0
 20
0.0
  9
$SNAPANG
 50
0.0
  9
$SNAPSTYLE
 70
     0
  9
$SNAPISOPAIR
 70
     0
  9
$GRIDMODE
 70
     0
  9
$GRIDUNIT
 10
0.0
 20
0.0
  9
$ORTHOMODE
 70
     0
  9
$REGENMODE
 70
     1
  9
$FILLMODE
 70
     1
  9
$QTEXTMODE
 70
     0
  9
$DRAGMODE
 70
     2
  9
$LTSCALE
 40
15.000000
  9
$OSMODE
 70
     0
  9
$ATTMODE
 70
     1
  9
$TEXTSIZE
 40
0.2
  9
$TRACEWID
 40
0.05
  9
$TEXTSTYLE
  7
STANDARD
  9
$CLAYER
  8
CSLAYER1
  9
$CELTYPE
  6
BYLAYER
  9
$CECOLOR
 62
   256
  9
$DIMSCALE
 40
1.0
  9
$DIMASZ
 40
0.18
  9
$DIMEXO
 40
0.0625
  9
$DIMDLI
 40
0.38
  9
$DIMRND
 40
0.0
  9
$DIMDLE
 40
0.0
  9
$DIMEXE
 40
0.18
  9
$DIMTP
 40
0.0
  9
$DIMTM
 40
0.0
  9
$DIMTXT
 40
0.18
  9
$DIMCEN
 40
0.09
  9
$DIMTSZ
 40
0.0
  9
$DIMTOL
 70
     0
  9
$DIMLIM
 70
     0
  9
$DIMTIH
 70
     1
  9
$DIMTOH
 70
     1
  9
$DIMSE1
 70
     0
  9
$DIMSE2
 70
     0
  9
$DIMTAD
 70
     0
  9
$DIMZIN
 70
     0
  9
$DIMBLK
  1

  9
$LUNITS
 70
     2
  9
$LUPREC
 70
     4
  9
$AXISMODE
 70
     0
  9
$AXISUNIT
 10
0.0
 20
0.0
  9
$SKETCHINC
 40
0.1
  9
$FILLETRAD
 40
0.0
  9
$AUNITS
 70
     0
  9
$AUPREC
 70
     0
  9
$MENU
  1
ACAD
  9
$ELEVATION
 40
0.0
  9
$THICKNESS
 40
0.0
  9
$VIEWDIR
 10
0.0
 20
0.0
 30
1.0
  9
$LIMCHECK
 70
     0
  9
$BLIPMODE
 70
     1
  9
$CHAMFERA
 40
0.0
  9
$CHAMFERB
 40
0.0
  9
$FASTZOOM
 70
     1
  9
$SKPOLY
 70
     0
  9
$TDCREATE
 40
2457497.000000
  9
$TDUPDATE
 40
2457497.000000
  9
$TDINDWG
 40
0.0
  9
$TDUSRTIMER
 40
0.0
  9
$USRTIMER
 70
     1
  9
$ANGBASE
 50
0.0
  9
$ANGDIR
 70
     0
  9
$PDMODE
 70
     0
  9
$PDSIZE
 40
0.0
  9
$PLINEWID
 40
0.0
  9
$COORDS
 70
     0
  9
$USERI1
 70
     0
  9
$USERI2
 70
     0
  9
$USERI3
 70
     0
  9
$USERI4
 70
     0
  9
$USERI5
 70
     0
  9
$USERR1
 40
0.0
  9
$USERR2
 40
0.0
  9
$USERR3
 40
0.0
  9
$USERR4
 40
0.0
  9
$USERR5
 40
0.0
  0
ENDSEC
  0
SECTION
  2
TABLES
  0
TABLE
  2
LTYPE
 70
     9
  0
LTYPE
  2
CONTINUOUS
 70
    64
  3
Solid line
 72
    65
 73
     0
 40
0.0
  0
LTYPE
  2
DASHED
 70
    64
  3
__ __ __ __ __ __ __ __ __ __ __ __ __ __ __
 72
    65
 73
     2
 40
0.75
 49
0.5
 49
-0.25
  0
LTYPE
  2
HIDDEN
 70
    64
  3
_ _ _ _ _ _ _ _ _ _ _ _ _ _ _ _ _ _ _ _ _ _ _
 72
    65
 73
     2
 40
0.375
 49
0.25
 49
-0.125
  0
LTYPE
  2
DOT
 70
    64
  3
...............................................
 72
    65
 73
     2
 40
0.25
 49
0.0
 49
-0.25
  0
LTYPE
  2
DASHDOT
 70
    64
  3
__ . __ . __ . __ . __ . __ . __ . __ . __ . __
 72
    65
 73
     4
 40
1.0
 49
0.5
 49
-0.25
 49
0.0
 49
-0.25
  0
LTYPE
  2
DIVIDE
 70
    64
  3
__ . . __ . . __ . . __ . . __ . . __ . . __
 72
    65
 73
     6
 40
1.25
 49
0.5
 49
-0.25
 49
0.0
 49
-0.25
 49
0.0
 49
-0.25
  0
LTYPE
  2
CENTER
 70
    64
  3
____ _ ____ _ ____ _ ____ _ ____ _ ____ _ ____ 
 72
    65
 73
     4
 40
2.0
 49
1.25
 49
-0.25
 49
0.25
 49
-0.25
  0
LTYPE
  2
PHANTOM
 70
    64
  3
______  __  __  ______  __  __  ______  __  __ 
 72
    65
 73
     6
 40
2.5
 49
1.25
 49
-0.25
 49
0.25
 49
-0.25
 49
0.25
 49
-0.25
  0
LTYPE
  2
BORDER
 70
    64
  3
__ __ . __ __ . __ __ . __ __ . __ __ . __ __ .
 72
    65
 73
     6
 40
1.75
 49
0.5
 49
-0.25
 49
0.5
 49
-0.25
 49
0.0
 49
-0.25
  0
ENDTAB
  0
TABLE
  2
LAYER
 70
    16
  0
LAYER
  2
CSLAYER1
 70
    64
 62
     7
  6
CONTINUOUS
  0
LAYER
  2
CSLAYER2
 70
    64
 62
     7
  6
CONTINUOUS
  0
LAYER
  2
CSLAYER3
 70
    64
 62
     7
  6
CONTINUOUS
  0
LAYER
  2
CSLAYER4
 70
    64
 62
     7
  6
CONTINUOUS
  0
LAYER
  2
CSLAYER5
 70
    64
 62
     7
  6
CONTINUOUS
  0
LAYER
  2
CSLAYER6
 70
    64
 62
     7
  6
CONTINUOUS
  0
LAYER
  2
CSLAYER7
 70
    64
 62
     7
  6
CONTINUOUS
  0
LAYER
  2
CSLAYER8
 70
    64
 62
     7
  6
CONTINUOUS
  0
LAYER
  2
CSLAYER9
 70
    64
 62
     7
  6
CONTINUOUS
  0
LAYER
  2
CSLAYER10
 70
    64
 62
     7
  6
CONTINUOUS
  0
LAYER
  2
CSLAYER11
 70
    64
 62
     7
  6
CONTINUOUS
  0
LAYER
  2
CSLAYER12
 70
    64
 62
     7
  6
CONTINUOUS
  0
LAYER
  2
CSLAYER13
 70
    64
 62
     7
  6
CONTINUOUS
  0
LAYER
  2
CSLAYER14
 70
    64
 62
     7
  6
CONTINUOUS
  0
LAYER
  2
CSLAYER15
 70
    64
 62
     7
  6
CONTINUOUS
  0
LAYER
  2
CSLAYER16
 70
    64
 62
     7
  6
CONTINUOUS
  0
ENDTAB
  0
TABLE
  2
STYLE
 70
     1
  0
STYLE
  2
EASYDRAW_FONT
 70
     0
 40
1.0
 41
1.0
 50
0.0
 71
     0
 42
1.0
  3
monotxt
  4
bigfont
  0
ENDTAB
  0
TABLE
  2
VIEW
 70
     0
  0
ENDTAB
  0
ENDSEC
  0
SECTION
  2
BLOCKS
  0
BLOCK
  8
CSLAYER1
  2
*D0000
 70
    65
 10
0.0
 20
0.0
 30
0.0
  0
TEXT
  8
CSLAYER1
 62
     7
 10
2446.818604
 20
449.757996
 40
40.000000
 41
0.843750
  1
155
 50
90.000000
 51
0.000000
  7
EASYDRAW_FONT
 72
     5
 11
2446.818604
 21
539.757996
  0
LINE
  8
CSLAYER1
  6
CONTINUOUS
 62
     5
 10
2303.775454
 20
417.257879
 11
2525.003614
 21
417.257879
  0
LINE
  8
CSLAYER1
  6
CONTINUOUS
 62
     5
 10
2307.575454
 20
572.257879
 11
2466.818426
 21
572.257879
  0
LINE
  8
CSLAYER1
  6
CONTINUOUS
 62
     5
 10
2456.818426
 20
417.257879
 11
2456.818426
 21
572.257879
  0
LINE
  8
CSLAYER1
  6
CONTINUOUS
 62
     5
 10
2456.818426
 20
417.257879
 11
2449.053855
 21
446.235654
  0
LINE
  8
CSLAYER1
  6
CONTINUOUS
 62
     5
 10
2456.818426
 20
417.257879
 11
2464.582997
 21
446.235654
  0
LINE
  8
CSLAYER1
  6
CONTINUOUS
 62
     5
 10
2456.818426
 20
572.257879
 11
2449.053855
 21
543.280105
  0
LINE
  8
CSLAYER1
  6
CONTINUOUS
 62
     5
 10
2456.818426
 20
572.257879
 11
2464.582997
 21
543.280105
  0
ENDBLK
  8
0
  0
BLOCK
  8
CSLAYER1
  2
*D0001
 70
    65
 10
0.0
 20
0.0
 30
0.0
  0
TEXT
  8
CSLAYER1
 62
     7
 10
2446.818604
 20
929.727417
 40
40.000000
 41
0.843750
  1
790
 50
90.000000
 51
0.000000
  7
EASYDRAW_FONT
 72
     5
 11
2446.818604
 21
1019.727417
  0
LINE
  8
CSLAYER1
  6
CONTINUOUS
 62
     5
 10
2307.575454
 20
1377.197328
 11
2525.003614
 21
1377.197328
  0
LINE
  8
CSLAYER1
  6
CONTINUOUS
 62
     5
 10
2456.818426
 20
572.257879
 11
2456.818426
 21
1377.197328
  0
LINE
  8
CSLAYER1
  6
CONTINUOUS
 62
     5
 10
2456.818426
 20
572.257879
 11
2449.053855
 21
601.235654
  0
LINE
  8
CSLAYER1
  6
CONTINUOUS
 62
     5
 10
2456.818426
 20
572.257879
 11
2464.582997
 21
601.235654
  0
LINE
  8
CSLAYER1
  6
CONTINUOUS
 62
     5
 10
2456.818426
 20
1377.197328
 11
2449.053855
 21
1348.219554
  0
LINE
  8
CSLAYER1
  6
CONTINUOUS
 62
     5
 10
2456.818426
 20
1377.197328
 11
2464.582997
 21
1348.219554
  0
ENDBLK
  8
0
  0
BLOCK
  8
CSLAYER1
  2
*D0002
 70
    65
 10
0.0
 20
0.0
 30
0.0
  0
TEXT
  8
CSLAYER1
 62
     7
 10
1716.775513
 20
1467.451782
 40
40.000000
 41
0.818182
  1
1200
 50
0.000000
 51
0.000000
  7
EASYDRAW_FONT
 72
     5
 11
1836.775513
 21
1467.451782
  0
LINE
  8
CSLAYER1
  6
CONTINUOUS
 62
     5
 10
1176.775454
 20
1387.197328
 11
1176.775454
 21
1467.451704
  0
LINE
  8
CSLAYER1
  6
CONTINUOUS
 62
     5
 10
2376.775454
 20
1387.197328
 11
2376.775454
 21
1467.451704
  0
LINE
  8
CSLAYER1
  6
CONTINUOUS
 62
     5
 10
1176.775454
 20
1457.451704
 11
2376.775454
 21
1457.451704
  0
LINE
  8
CSLAYER1
  6
CONTINUOUS
 62
     5
 10
1176.775454
 20
1457.451704
 11
1205.753228
 21
1465.216275
  0
LINE
  8
CSLAYER1
  6
CONTINUOUS
 62
     5
 10
1176.775454
 20
1457.451704
 11
1205.753228
 21
1449.687133
  0
LINE
  8
CSLAYER1
  6
CONTINUOUS
 62
     5
 10
2376.775454
 20
1457.451704
 11
2347.797679
 21
1465.216275
  0
LINE
  8
CSLAYER1
  6
CONTINUOUS
 62
     5
 10
2376.775454
 20
1457.451704
 11
2347.797679
 21
1449.687133
  0
ENDBLK
  8
0
  0
BLOCK
  8
CSLAYER1
  2
*D0003
 70
    65
 10
0.0
 20
0.0
 30
0.0
  0
TEXT
  8
CSLAYER1
 62
     7
 10
1074.399170
 20
1857.339966
 40
40.000000
 41
0.843750
  1
750
 50
90.000000
 51
0.000000
  7
EASYDRAW_FONT
 72
     5
 11
1074.399170
 21
1947.339966
  0
LINE
  8
CSLAYER1
  6
CONTINUOUS
 62
     5
 10
1170.775454
 20
1527.340004
 11
1074.399131
 21
1527.340004
  0
LINE
  8
CSLAYER1
  6
CONTINUOUS
 62
     5
 10
1170.775454
 20
2277.340004
 11
1074.399131
 21
2277.340004
  0
LINE
  8
CSLAYER1
  6
CONTINUOUS
 62
     5
 10
1084.399131
 20
1527.340004
 11
1084.399131
 21
2277.340004
  0
LINE
  8
CSLAYER1
  6
CONTINUOUS
 62
     5
 10
1084.399131
 20
1527.340004
 11
1076.634560
 21
1556.317779
  0
LINE
  8
CSLAYER1
  6
CONTINUOUS
 62
     5
 10
1084.399131
 20
1527.340004
 11
1092.163702
 21
1556.317779
  0
LINE
  8
CSLAYER1
  6
CONTINUOUS
 62
     5
 10
1084.399131
 20
2277.340004
 11
1076.634560
 21
2248.362230
  0
LINE
  8
CSLAYER1
  6
CONTINUOUS
 62
     5
 10
1084.399131
 20
2277.340004
 11
1092.163702
 21
2248.362230
  0
ENDBLK
  8
0
  0
BLOCK
  8
CSLAYER1
  2
*D0004
 70
    65
 10
0.0
 20
0.0
 30
0.0
  0
TEXT
  8
CSLAYER1
 62
     7
 10
1182.275513
 20
331.996735
 40
40.000000
 41
0.900000
  1
63
 50
0.000000
 51
0.000000
  7
EASYDRAW_FONT
 72
     5
 11
1242.275513
 21
331.996735
  0
LINE
  8
CSLAYER1
  6
CONTINUOUS
 62
     5
 10
1180.775454
 20
517.257879
 11
1180.775454
 21
234.908481
  0
LINE
  8
CSLAYER1
  6
CONTINUOUS
 62
     5
 10
1243.775454
 20
407.257879
 11
1243.775454
 21
311.996641
  0
LINE
  8
CSLAYER1
  6
CONTINUOUS
 62
     5
 10
1180.775454
 20
321.996641
 11
1243.775454
 21
321.996641
  0
LINE
  8
CSLAYER1
  6
CONTINUOUS
 62
     5
 10
1180.775454
 20
321.996641
 11
1209.753228
 21
329.761213
  0
LINE
  8
CSLAYER1
  6
CONTINUOUS
 62
     5
 10
1180.775454
 20
321.996641
 11
1209.753228
 21
314.232070
  0
LINE
  8
CSLAYER1
  6
CONTINUOUS
 62
     5
 10
1243.775454
 20
321.996641
 11
1214.797679
 21
329.761213
  0
LINE
  8
CSLAYER1
  6
CONTINUOUS
 62
     5
 10
1243.775454
 20
321.996641
 11
1214.797679
 21
314.232070
  0
ENDBLK
  8
0
  0
BLOCK
  8
CSLAYER1
  2
*D0005
 70
    65
 10
0.0
 20
0.0
 30
0.0
  0
TEXT
  8
CSLAYER1
 62
     7
 10
1708.775513
 20
331.996735
 40
40.000000
 41
0.818182
  1
1050
 50
0.000000
 51
0.000000
  7
EASYDRAW_FONT
 72
     5
 11
1828.775513
 21
331.996735
  0
LINE
  8
CSLAYER1
  6
CONTINUOUS
 62
     5
 10
2293.775454
 20
407.257879
 11
2293.775454
 21
311.996641
  0
LINE
  8
CSLAYER1
  6
CONTINUOUS
 62
     5
 10
1243.775454
 20
321.996641
 11
2293.775454
 21
321.996641
  0
LINE
  8
CSLAYER1
  6
CONTINUOUS
 62
     5
 10
1243.775454
 20
321.996641
 11
1272.753228
 21
329.761213
  0
LINE
  8
CSLAYER1
  6
CONTINUOUS
 62
     5
 10
1243.775454
 20
321.996641
 11
1272.753228
 21
314.232070
  0
LINE
  8
CSLAYER1
  6
CONTINUOUS
 62
     5
 10
2293.775454
 20
321.996641
 11
2264.797679
 21
329.761213
  0
LINE
  8
CSLAYER1
  6
CONTINUOUS
 62
     5
 10
2293.775454
 20
321.996641
 11
2264.797679
 21
314.232070
  0
ENDBLK
  8
0
  0
BLOCK
  8
CSLAYER1
  2
*D0006
 70
    65
 10
0.0
 20
0.0
 30
0.0
  0
TEXT
  8
CSLAYER1
 62
     7
 10
2307.275635
 20
331.996735
 40
40.000000
 41
0.900000
  1
87
 50
0.000000
 51
0.000000
  7
EASYDRAW_FONT
 72
     5
 11
2367.275635
 21
331.996735
  0
LINE
  8
CSLAYER1
  6
CONTINUOUS
 62
     5
 10
2380.775454
 20
517.257879
 11
2380.775454
 21
234.908481
  0
LINE
  8
CSLAYER1
  6
CONTINUOUS
 62
     5
 10
2293.775454
 20
321.996641
 11
2380.775454
 21
321.996641
  0
LINE
  8
CSLAYER1
  6
CONTINUOUS
 62
     5
 10
2293.775454
 20
321.996641
 11
2322.753228
 21
329.761213
  0
LINE
  8
CSLAYER1
  6
CONTINUOUS
 62
     5
 10
2293.775454
 20
321.996641
 11
2322.753228
 21
314.232070
  0
LINE
  8
CSLAYER1
  6
CONTINUOUS
 62
     5
 10
2380.775454
 20
321.996641
 11
2351.797679
 21
329.761213
  0
LINE
  8
CSLAYER1
  6
CONTINUOUS
 62
     5
 10
2380.775454
 20
321.996641
 11
2351.797679
 21
314.232070
  0
ENDBLK
  8
0
  0
BLOCK
  8
CSLAYER1
  2
*D0007
 70
    65
 10
0.0
 20
0.0
 30
0.0
  0
TEXT
  8
CSLAYER1
 62
     7
 10
1720.775513
 20
254.908356
 40
40.000000
 41
0.818182
  1
1200
 50
0.000000
 51
0.000000
  7
EASYDRAW_FONT
 72
     5
 11
1840.775513
 21
254.908356
  0
LINE
  8
CSLAYER1
  6
CONTINUOUS
 62
     5
 10
1180.775454
 20
244.908481
 11
2380.775454
 21
244.908481
  0
LINE
  8
CSLAYER1
  6
CONTINUOUS
 62
     5
 10
1180.775454
 20
244.908481
 11
1209.753228
 21
252.673052
  0
LINE
  8
CSLAYER1
  6
CONTINUOUS
 62
     5
 10
1180.775454
 20
244.908481
 11
1209.753228
 21
237.143910
  0
LINE
  8
CSLAYER1
  6
CONTINUOUS
 62
     5
 10
2380.775454
 20
244.908481
 11
2351.797679
 21
252.673052
  0
LINE
  8
CSLAYER1
  6
CONTINUOUS
 62
     5
 10
2380.775454
 20
244.908481
 11
2351.797679
 21
237.143910
  0
ENDBLK
  8
0
  0
BLOCK
  8
CSLAYER1
  2
*D0008
 70
    65
 10
0.0
 20
0.0
 30
0.0
  0
TEXT
  8
CSLAYER1
 62
     7
 10
474.378784
 20
331.996735
 40
40.000000
 41
0.843750
  1
600
 50
0.000000
 51
0.000000
  7
EASYDRAW_FONT
 72
     5
 11
564.378784
 21
331.996735
  0
LINE
  8
CSLAYER1
  6
CONTINUOUS
 62
     5
 10
819.378809
 20
407.257879
 11
819.378809
 21
311.996641
  0
LINE
  8
CSLAYER1
  6
CONTINUOUS
 62
     5
 10
219.378809
 20
321.996641
 11
819.378809
 21
321.996641
  0
LINE
  8
CSLAYER1
  6
CONTINUOUS
 62
     5
 10
219.378809
 20
321.996641
 11
248.356583
 21
329.761213
  0
LINE
  8
CSLAYER1
  6
CONTINUOUS
 62
     5
 10
219.378809
 20
321.996641
 11
248.356583
 21
314.232070
  0
LINE
  8
CSLAYER1
  6
CONTINUOUS
 62
     5
 10
819.378809
 20
321.996641
 11
790.401034
 21
329.761213
  0
LINE
  8
CSLAYER1
  6
CONTINUOUS
 62
     5
 10
819.378809
 20
321.996641
 11
790.401034
 21
314.232070
  0
ENDBLK
  8
0
  0
BLOCK
  8
CSLAYER1
  2
*D0009
 70
    65
 10
0.0
 20
0.0
 30
0.0
  0
TEXT
  8
CSLAYER1
 62
     7
 10
474.378784
 20
254.908356
 40
40.000000
 41
0.843750
  1
700
 50
0.000000
 51
0.000000
  7
EASYDRAW_FONT
 72
     5
 11
564.378784
 21
254.908356
  0
LINE
  8
CSLAYER1
  6
CONTINUOUS
 62
     5
 10
169.378809
 20
451.257879
 11
169.378809
 21
234.908481
  0
LINE
  8
CSLAYER1
  6
CONTINUOUS
 62
     5
 10
869.378809
 20
451.257879
 11
869.378809
 21
234.908481
  0
LINE
  8
CSLAYER1
  6
CONTINUOUS
 62
     5
 10
169.378809
 20
244.908481
 11
869.378809
 21
244.908481
  0
LINE
  8
CSLAYER1
  6
CONTINUOUS
 62
     5
 10
169.378809
 20
244.908481
 11
198.356583
 21
252.673052
  0
LINE
  8
CSLAYER1
  6
CONTINUOUS
 62
     5
 10
169.378809
 20
244.908481
 11
198.356583
 21
237.143910
  0
LINE
  8
CSLAYER1
  6
CONTINUOUS
 62
     5
 10
869.378809
 20
244.908481
 11
840.401034
 21
252.673052
  0
LINE
  8
CSLAYER1
  6
CONTINUOUS
 62
     5
 10
869.378809
 20
244.908481
 11
840.401034
 21
237.143910
  0
ENDBLK
  8
0
  0
BLOCK
  8
CSLAYER1
  2
EASYDRAWDIM0000
 70
   64
 10
0.0
 20
0.0
 30
0.0
  0
LINE
  8
CSLAYER1
  6
CONTINUOUS
 62
     5
 10
219.378809
 20
407.257879
 11
219.378809
 21
311.996641
  0
LINE
  8
CSLAYER1
  6
CONTINUOUS
 62
     5
 10
219.378809
 20
321.996641
 11
819.378809
 21
321.996641
  0
LINE
  8
CSLAYER1
  6
CONTINUOUS
 62
     5
 10
219.378809
 20
321.996641
 11
248.356583
 21
329.761213
  0
LINE
  8
CSLAYER1
  6
CONTINUOUS
 62
     5
 10
219.378809
 20
321.996641
 11
248.356583
 21
314.232070
  0
LINE
  8
CSLAYER1
  6
CONTINUOUS
 62
     5
 10
819.378809
 20
321.996641
 11
790.401034
 21
329.761213
  0
LINE
  8
CSLAYER1
  6
CONTINUOUS
 62
     5
 10
819.378809
 20
321.996641
 11
790.401034
 21
314.232070
  0
ENDBLK
  8
0
  0
BLOCK
  8
CSLAYER1
  2
*D0010
 70
    65
 10
0.0
 20
0.0
 30
0.0
  0
LINE
  8
CSLAYER1
  6
CONTINUOUS
 62
     5
 10
2515.003614
 20
417.257879
 11
2515.003614
 21
1377.197328
  0
LINE
  8
CSLAYER1
  6
CONTINUOUS
 62
     5
 10
2515.003614
 20
417.257879
 11
2507.239042
 21
446.235654
  0
LINE
  8
CSLAYER1
  6
CONTINUOUS
 62
     5
 10
2515.003614
 20
417.257879
 11
2522.768185
 21
446.235654
  0
LINE
  8
CSLAYER1
  6
CONTINUOUS
 62
     5
 10
2515.003614
 20
1377.197328
 11
2507.239042
 21
1348.219554
  0
LINE
  8
CSLAYER1
  6
CONTINUOUS
 62
     5
 10
2515.003614
 20
1377.197328
 11
2522.768185
 21
1348.219554
  0
TEXT
  8
CSLAYER1
 62
     3
 10
2505.003662
 20
852.227600
 40
40.000000
 41
0.843750
  1
945
 50
90.000000
 51
0.000000
  7
EASYDRAW_FONT
 72
     5
 11
2505.003662
 21
942.227600
  0
ENDBLK
  8
0
  0
BLOCK
  8
CSLAYER1
  2
BLKF0000
 70
   64
 10
0.0
 20
0.0
 30
0.0
  0
ARC
  8
CSLAYER1
  6
CONTINUOUS
 62
     5
 10
2781.909508
 20
79.335220
 40
3.549225
 50
6.429109
 51
73.182034
  0
ARC
  8
CSLAYER1
  6
CONTINUOUS
 62
     5
 10
2778.448538
 20
78.176827
 40
6.907754
 50
310.517970
 51
330.092764
  0
ARC
  8
CSLAYER1
  6
CONTINUOUS
 62
     5
 10
2778.387888
 20
78.542345
 40
7.148321
 50
-32.205059
 51
9.585194
  0
ARC
  8
CSLAYER1
  6
CONTINUOUS
 62
     5
 10
2781.680616
 20
75.781346
 40
4.767514
 50
180.000000
 51
218.514150
  0
ARC
  8
CSLAYER1
  6
CONTINUOUS
 62
     5
 10
2780.393895
 20
75.104206
 40
3.348282
 50
222.781148
 51
319.406906
  0
ARC
  8
CSLAYER1
  6
CONTINUOUS
 62
     5
 10
2783.459537
 20
76.194099
 40
6.559434
 50
94.574282
 51
183.607718
  0
LINE
  8
CSLAYER1
  6
CONTINUOUS
 62
     5
 10
2796.903443
 20
71.077266
 11
2796.046407
 21
68.038683
  0
LINE
  8
CSLAYER1
  6
CONTINUOUS
 62
     5
 10
2798.695428
 20
90.944924
 11
2796.591794
 21
93.671857
  0
LINE
  8
CSLAYER1
  6
CONTINUOUS
 62
     5
 10
2796.591794
 20
93.671857
 11
2789.838440
 21
97.429769
  0
LINE
  8
CSLAYER1
  6
CONTINUOUS
 62
     5
 10
2789.838440
 20
97.429769
 11
2782.936412
 21
98.232640
  0
LINE
  8
CSLAYER1
  6
CONTINUOUS
 62
     5
 10
2764.647187
 20
84.853966
 11
2766.793881
 21
89.818197
  0
LINE
  8
CSLAYER1
  6
CONTINUOUS
 62
     5
 10
2766.756884
 20
89.732640
 11
2768.940576
 21
92.367396
  0
LINE
  8
CSLAYER1
  6
CONTINUOUS
 62
     5
 10
2768.940576
 20
92.367396
 11
2772.244998
 21
94.732640
  0
LINE
  8
CSLAYER1
  6
CONTINUOUS
 62
     5
 10
2782.936412
 20
98.232640
 11
2781.418237
 21
97.465795
  0
LINE
  8
CSLAYER1
  6
CONTINUOUS
 62
     5
 10
2781.418237
 20
97.465795
 11
2777.929858
 21
97.465795
  0
LINE
  8
CSLAYER1
  6
CONTINUOUS
 62
     5
 10
2777.929858
 20
97.465795
 11
2774.374396
 21
95.520354
  0
LINE
  8
CSLAYER1
  6
CONTINUOUS
 62
     5
 10
2774.374396
 20
95.520354
 11
2772.244998
 21
94.732640
  0
LINE
  8
CSLAYER1
  6
CONTINUOUS
 62
     5
 10
2764.647187
 20
84.853966
 11
2763.129640
 21
77.305363
  0
LINE
  8
CSLAYER1
  6
CONTINUOUS
 62
     5
 10
2763.129640
 20
77.305363
 11
2762.936412
 21
74.732640
  0
LINE
  8
CSLAYER1
  6
CONTINUOUS
 62
     5
 10
2765.645795
 20
66.892857
 11
2762.936412
 21
72.988969
  0
LINE
  8
CSLAYER1
  6
CONTINUOUS
 62
     5
 10
2762.936412
 20
72.988969
 11
2762.936412
 21
74.732640
  0
LINE
  8
CSLAYER1
  6
CONTINUOUS
 62
     5
 10
2796.046407
 20
68.038683
 11
2794.360620
 21
65.035677
  0
LINE
  8
CSLAYER1
  6
CONTINUOUS
 62
     5
 10
2794.360620
 20
65.035677
 11
2792.936412
 21
63.716966
  0
ARC
  8
CSLAYER1
  6
CONTINUOUS
 62
     5
 10
2780.744468
 20
75.269400
 40
17.266626
 50
208.054813
 51
260.640470
  0
ARC
  8
CSLAYER1
  6
CONTINUOUS
 62
     5
 10
2775.551072
 20
88.011870
 40
29.874611
 50
274.579659
 51
305.587364
  0
ARC
  8
CSLAYER1
  6
CONTINUOUS
 62
     5
 10
2786.523421
 20
82.028147
 40
15.088627
 50
313.467013
 51
331.085078
  0
LINE
  8
CSLAYER1
  6
CONTINUOUS
 62
     5
 10
2801.314754
 20
78.246061
 11
2801.612048
 21
82.028147
  0
LINE
  8
CSLAYER1
  6
CONTINUOUS
 62
     5
 10
2801.612048
 20
82.028147
 11
2800.320051
 21
88.137130
  0
LINE
  8
CSLAYER1
  6
CONTINUOUS
 62
     5
 10
2801.314754
 20
78.246061
 11
2799.731079
 21
74.732640
  0
ARC
  8
CSLAYER1
  6
CONTINUOUS
 62
     5
 10
2786.523421
 20
82.028147
 40
15.088627
 50
23.883193
 51
36.225170
  0
LINE
  8
CSLAYER1
  6
CONTINUOUS
 62
     5
 10
2746.936412
 20
109.732640
 11
2747.936412
 21
110.825284
  0
LINE
  8
CSLAYER1
  6
CONTINUOUS
 62
     5
 10
2746.936412
 20
109.732640
 11
2748.513370
 21
108.287607
  0
LINE
  8
CSLAYER1
  6
CONTINUOUS
 62
     5
 10
2750.052583
 20
106.178315
 11
2750.078851
 21
104.010196
  0
LINE
  8
CSLAYER1
  6
CONTINUOUS
 62
     5
 10
2750.078851
 20
104.010196
 11
2750.286249
 21
103.249737
  0
LINE
  8
CSLAYER1
  6
CONTINUOUS
 62
     5
 10
2750.286249
 20
103.249737
 11
2750.873877
 21
102.523844
  0
LINE
  8
CSLAYER1
  6
CONTINUOUS
 62
     5
 10
2750.873877
 20
102.523844
 11
2751.461504
 21
102.592977
  0
LINE
  8
CSLAYER1
  6
CONTINUOUS
 62
     5
 10
2751.461504
 20
102.592977
 11
2752.083698
 21
102.765808
  0
LINE
  8
CSLAYER1
  6
CONTINUOUS
 62
     5
 10
2752.083698
 20
102.765808
 11
2752.498494
 21
102.592977
  0
LINE
  8
CSLAYER1
  6
CONTINUOUS
 62
     5
 10
2752.498494
 20
102.592977
 11
2753.397219
 21
102.143614
  0
LINE
  8
CSLAYER1
  6
CONTINUOUS
 62
     5
 10
2753.397219
 20
102.143614
 11
2754.173270
 21
101.732640
  0
LINE
  8
CSLAYER1
  6
CONTINUOUS
 62
     5
 10
2754.173270
 20
101.732640
 11
2754.676173
 21
101.763385
  0
LINE
  8
CSLAYER1
  6
CONTINUOUS
 62
     5
 10
2754.676173
 20
101.763385
 11
2757.484045
 21
103.209864
  0
LINE
  8
CSLAYER1
  6
CONTINUOUS
 62
     5
 10
2747.936412
 20
110.825284
 11
2748.269264
 21
112.298991
  0
LINE
  8
CSLAYER1
  6
CONTINUOUS
 62
     5
 10
2748.269264
 20
112.298991
 11
2749.722669
 21
112.449344
  0
LINE
  8
CSLAYER1
  6
CONTINUOUS
 62
     5
 10
2751.216428
 20
115.217802
 11
2752.970601
 21
115.374892
  0
LINE
  8
CSLAYER1
  6
CONTINUOUS
 62
     5
 10
2752.970601
 20
115.374892
 11
2756.505128
 21
116.212706
  0
LINE
  8
CSLAYER1
  6
CONTINUOUS
 62
     5
 10
2756.505128
 20
116.212706
 11
2757.936412
 21
116.544345
  0
LINE
  8
CSLAYER1
  6
CONTINUOUS
 62
     5
 10
2751.216428
 20
115.217802
 11
2749.283537
 21
115.376670
  0
LINE
  8
CSLAYER1
  6
CONTINUOUS
 62
     5
 10
2748.547414
 20
114.507983
 11
2748.640939
 21
114.136822
  0
LINE
  8
CSLAYER1
  6
CONTINUOUS
 62
     5
 10
2748.640939
 20
114.136822
 11
2749.132533
 21
113.599141
  0
LINE
  8
CSLAYER1
  6
CONTINUOUS
 62
     5
 10
2749.132533
 20
113.599141
 11
2749.808475
 21
113.092184
  0
LINE
  8
CSLAYER1
  6
CONTINUOUS
 62
     5
 10
2749.808475
 20
113.092184
 11
2749.931800
 21
112.927751
  0
LINE
  8
CSLAYER1
  6
CONTINUOUS
 62
     5
 10
2748.513370
 20
108.287607
 11
2750.052583
 21
106.178315
  0
ARC
  8
CSLAYER1
  6
CONTINUOUS
 62
     5
 10
2792.923113
 20
-61.926013
 40
180.727463
 50
80.438896
 51
96.353582
  0
ARC
  8
CSLAYER1
  6
CONTINUOUS
 62
     5
 10
2768.024200
 20
83.321887
 40
34.720242
 50
81.866516
 51
106.890578
  0
LINE
  8
CSLAYER1
  6
CONTINUOUS
 62
     5
 10
2827.130674
 20
115.499310
 11
2829.377756
 21
114.477909
  0
LINE
  8
CSLAYER1
  6
CONTINUOUS
 62
     5
 10
2832.952661
 20
112.894737
 11
2829.377756
 21
114.477909
  0
LINE
  8
CSLAYER1
  6
CONTINUOUS
 62
     5
 10
2827.130674
 20
115.499310
 11
2822.936412
 21
116.291881
  0
LINE
  8
CSLAYER1
  6
CONTINUOUS
 62
     5
 10
2832.936412
 20
112.901933
 11
2834.807988
 21
111.333456
  0
LINE
  8
CSLAYER1
  6
CONTINUOUS
 62
     5
 10
2816.179668
 20
113.938783
 11
2817.078943
 21
115.391458
  0
LINE
  8
CSLAYER1
  6
CONTINUOUS
 62
     5
 10
2817.078943
 20
115.391458
 11
2821.754542
 21
114.271949
  0
LINE
  8
CSLAYER1
  6
CONTINUOUS
 62
     5
 10
2821.754542
 20
114.271949
 11
2838.496928
 21
109.732640
  0
LINE
  8
CSLAYER1
  6
CONTINUOUS
 62
     5
 10
2841.436412
 20
109.732640
 11
2834.807988
 21
111.333456
  0
LINE
  8
CSLAYER1
  6
CONTINUOUS
 62
     5
 10
2838.496928
 20
109.732640
 11
2841.436412
 21
109.732640
  0
LINE
  8
CSLAYER1
  6
CONTINUOUS
 62
     5
 10
2782.936412
 20
114.197581
 11
2802.936412
 21
114.732640
  0
LINE
  8
CSLAYER1
  6
CONTINUOUS
 62
     5
 10
2802.936412
 20
114.732640
 11
2816.179668
 21
113.938783
  0
LINE
  8
CSLAYER1
  6
CONTINUOUS
 62
     5
 10
2817.782649
 20
111.878304
 11
2802.936412
 21
113.232640
  0
LINE
  8
CSLAYER1
  6
CONTINUOUS
 62
     5
 10
2802.936412
 20
113.232640
 11
2787.887203
 21
113.641292
  0
LINE
  8
CSLAYER1
  6
CONTINUOUS
 62
     5
 10
2787.936412
 20
113.639956
 11
2782.936412
 21
113.735249
  0
LINE
  8
CSLAYER1
  6
CONTINUOUS
 62
     5
 10
2782.936412
 20
114.197581
 11
2782.936412
 21
113.735249
  0
LINE
  8
CSLAYER1
  6
CONTINUOUS
 62
     5
 10
2840.436412
 20
106.232640
 11
2831.593854
 21
108.543302
  0
LINE
  8
CSLAYER1
  6
CONTINUOUS
 62
     5
 10
2817.782649
 20
111.878304
 11
2827.936412
 21
109.905920
  0
LINE
  8
CSLAYER1
  6
CONTINUOUS
 62
     5
 10
2827.936412
 20
109.905920
 11
2831.593854
 21
108.543302
  0
LINE
  8
CSLAYER1
  6
CONTINUOUS
 62
     5
 10
2840.436412
 20
106.232640
 11
2840.143795
 21
105.393534
  0
LINE
  8
CSLAYER1
  6
CONTINUOUS
 62
     5
 10
2849.936412
 20
100.732640
 11
2849.630385
 21
101.961621
  0
LINE
  8
CSLAYER1
  6
CONTINUOUS
 62
     5
 10
2840.143795
 20
105.393534
 11
2849.630385
 21
101.961621
  0
LINE
  8
CSLAYER1
  6
CONTINUOUS
 62
     5
 10
2786.436412
 20
106.232640
 11
2788.859450
 21
106.232640
  0
LINE
  8
CSLAYER1
  6
CONTINUOUS
 62
     5
 10
2808.936412
 20
106.665135
 11
2808.936412
 21
106.232640
  0
LINE
  8
CSLAYER1
  6
CONTINUOUS
 62
     5
 10
2807.936412
 20
107.199576
 11
2806.225133
 21
107.836755
  0
LINE
  8
CSLAYER1
  6
CONTINUOUS
 62
     5
 10
2806.225133
 20
107.836755
 11
2805.115077
 21
107.887212
  0
LINE
  8
CSLAYER1
  6
CONTINUOUS
 62
     5
 10
2805.115077
 20
107.887212
 11
2804.635735
 21
107.634926
  0
LINE
  8
CSLAYER1
  6
CONTINUOUS
 62
     5
 10
2804.635735
 20
107.634926
 11
2804.534821
 21
107.231270
  0
LINE
  8
CSLAYER1
  6
CONTINUOUS
 62
     5
 10
2804.534821
 20
107.231270
 11
2804.988934
 21
106.928527
  0
LINE
  8
CSLAYER1
  6
CONTINUOUS
 62
     5
 10
2804.988934
 20
106.928527
 11
2806.628790
 21
106.777156
  0
LINE
  8
CSLAYER1
  6
CONTINUOUS
 62
     5
 10
2806.628790
 20
106.777156
 11
2808.936412
 21
106.665135
  0
LINE
  8
CSLAYER1
  6
CONTINUOUS
 62
     5
 10
2849.936412
 20
100.732640
 11
2846.960870
 21
101.919221
  0
LINE
  8
CSLAYER1
  6
CONTINUOUS
 62
     5
 10
2846.960870
 20
101.919221
 11
2836.905180
 21
103.762097
  0
LINE
  8
CSLAYER1
  6
CONTINUOUS
 62
     5
 10
2836.905180
 20
103.762097
 11
2831.879400
 21
104.921892
  0
LINE
  8
CSLAYER1
  6
CONTINUOUS
 62
     5
 10
2809.470633
 20
107.232640
 11
2821.236299
 21
107.232640
  0
LINE
  8
CSLAYER1
  6
CONTINUOUS
 62
     5
 10
2807.936412
 20
107.199576
 11
2808.461072
 21
106.891109
  0
LINE
  8
CSLAYER1
  6
CONTINUOUS
 62
     5
 10
2808.461072
 20
106.891109
 11
2808.757884
 21
106.802065
  0
LINE
  8
CSLAYER1
  6
CONTINUOUS
 62
     5
 10
2808.757884
 20
106.802065
 11
2808.936412
 21
106.827236
  0
LINE
  8
CSLAYER1
  6
CONTINUOUS
 62
     5
 10
2808.936412
 20
106.827236
 11
2809.470633
 21
107.232640
  0
LINE
  8
CSLAYER1
  6
CONTINUOUS
 62
     5
 10
2821.236299
 20
107.232640
 11
2825.686568
 21
106.203814
  0
LINE
  8
CSLAYER1
  6
CONTINUOUS
 62
     5
 10
2825.686568
 20
106.203814
 11
2829.839760
 21
105.038665
  0
LINE
  8
CSLAYER1
  6
CONTINUOUS
 62
     5
 10
2829.839760
 20
105.038665
 11
2831.879400
 21
104.921892
  0
LINE
  8
CSLAYER1
  6
CONTINUOUS
 62
     5
 10
2785.436412
 20
105.232640
 11
2785.436412
 21
104.732640
  0
LINE
  8
CSLAYER1
  6
CONTINUOUS
 62
     5
 10
2782.936412
 20
104.732640
 11
2785.436412
 21
104.732640
  0
ARC
  8
CSLAYER1
  6
CONTINUOUS
 62
     5
 10
2786.436412
 20
105.232640
 40
1.000000
 50
90.000000
 51
180.000000
  0
LINE
  8
CSLAYER1
  6
CONTINUOUS
 62
     5
 10
2788.859450
 20
106.232640
 11
2789.557007
 21
105.660643
  0
LINE
  8
CSLAYER1
  6
CONTINUOUS
 62
     5
 10
2790.159375
 20
105.636683
 11
2791.016972
 21
106.232640
  0
LINE
  8
CSLAYER1
  6
CONTINUOUS
 62
     5
 10
2792.595368
 20
106.232640
 11
2794.262494
 21
105.574564
  0
LINE
  8
CSLAYER1
  6
CONTINUOUS
 62
     5
 10
2794.686203
 20
105.601076
 11
2795.839690
 21
106.232640
  0
LINE
  8
CSLAYER1
  6
CONTINUOUS
 62
     5
 10
2791.016972
 20
106.232640
 11
2792.595368
 21
106.232640
  0
LINE
  8
CSLAYER1
  6
CONTINUOUS
 62
     5
 10
2795.839690
 20
106.232640
 11
2808.936412
 21
106.232640
  0
LINE
  8
CSLAYER1
  6
CONTINUOUS
 62
     5
 10
2761.485395
 20
103.123813
 11
2782.936412
 21
104.732640
  0
LINE
  8
CSLAYER1
  6
CONTINUOUS
 62
     5
 10
2757.484045
 20
103.209864
 11
2761.485395
 21
103.123813
  0
ARC
  8
CSLAYER1
  6
CONTINUOUS
 62
     5
 10
2789.874047
 20
106.047277
 40
0.500000
 50
230.648247
 51
304.796026
  0
ARC
  8
CSLAYER1
  6
CONTINUOUS
 62
     5
 10
2794.446077
 20
106.039642
 40
0.500000
 50
248.459024
 51
298.701829
  0
ARC
  8
CSLAYER1
  6
CONTINUOUS
 62
     5
 10
2749.691800
 20
112.747751
 40
0.300000
 50
-84.093859
 51
36.869898
  0
ARC
  8
CSLAYER1
  6
CONTINUOUS
 62
     5
 10
2749.226196
 20
114.679023
 40
0.700000
 50
85.301319
 51
194.142980
  0
LINE
  8
CSLAYER1
  6
CONTINUOUS
 62
     3
 10
2781.418237
 20
97.465795
 11
2789.528732
 21
97.465795
  0
LINE
  8
CSLAYER1
  6
CONTINUOUS
 62
     3
 10
2775.005720
 20
95.865795
 11
2792.649061
 21
95.865795
  0
LINE
  8
CSLAYER1
  6
CONTINUOUS
 62
     3
 10
2771.592781
 20
94.265795
 11
2795.524426
 21
94.265795
  0
LINE
  8
CSLAYER1
  6
CONTINUOUS
 62
     3
 10
2769.357462
 20
92.665795
 11
2797.367899
 21
92.665795
  0
LINE
  8
CSLAYER1
  6
CONTINUOUS
 62
     3
 10
2767.861806
 20
91.065795
 11
2798.602184
 21
91.065795
  0
LINE
  8
CSLAYER1
  6
CONTINUOUS
 62
     3
 10
2766.641492
 20
89.465795
 11
2799.651561
 21
89.465795
  0
LINE
  8
CSLAYER1
  6
CONTINUOUS
 62
     3
 10
2765.949600
 20
87.865795
 11
2800.377436
 21
87.865795
  0
LINE
  8
CSLAYER1
  6
CONTINUOUS
 62
     3
 10
2765.257708
 20
86.265795
 11
2800.715822
 21
86.265795
  0
LINE
  8
CSLAYER1
  6
CONTINUOUS
 62
     3
 10
2764.609358
 20
84.665795
 11
2801.054208
 21
84.665795
  0
LINE
  8
CSLAYER1
  6
CONTINUOUS
 62
     3
 10
2764.287699
 20
83.065795
 11
2801.392594
 21
83.065795
  0
LINE
  8
CSLAYER1
  6
CONTINUOUS
 62
     3
 10
2763.966040
 20
81.465795
 11
2779.556283
 21
81.465795
  0
LINE
  8
CSLAYER1
  6
CONTINUOUS
 62
     3
 10
2763.644381
 20
79.865795
 11
2778.024022
 21
79.865795
  0
LINE
  8
CSLAYER1
  6
CONTINUOUS
 62
     3
 10
2763.322722
 20
78.265795
 11
2777.235852
 21
78.265795
  0
LINE
  8
CSLAYER1
  6
CONTINUOUS
 62
     3
 10
2763.081604
 20
76.665795
 11
2776.917085
 21
76.665795
  0
LINE
  8
CSLAYER1
  6
CONTINUOUS
 62
     3
 10
2762.961434
 20
75.065795
 11
2776.967106
 21
75.065795
  0
LINE
  8
CSLAYER1
  6
CONTINUOUS
 62
     3
 10
2762.936412
 20
73.465795
 11
2777.513193
 21
73.465795
  0
LINE
  8
CSLAYER1
  6
CONTINUOUS
 62
     3
 10
2763.435600
 20
71.865795
 11
2779.543195
 21
71.865795
  0
LINE
  8
CSLAYER1
  6
CONTINUOUS
 62
     3
 10
2764.146711
 20
70.265795
 11
2796.674567
 21
70.265795
  0
LINE
  8
CSLAYER1
  6
CONTINUOUS
 62
     3
 10
2764.857823
 20
68.665795
 11
2796.223285
 21
68.665795
  0
LINE
  8
CSLAYER1
  6
CONTINUOUS
 62
     3
 10
2765.568934
 20
67.065795
 11
2795.500261
 21
67.065795
  0
LINE
  8
CSLAYER1
  6
CONTINUOUS
 62
     3
 10
2766.530893
 20
65.465795
 11
2794.602074
 21
65.465795
  0
LINE
  8
CSLAYER1
  6
CONTINUOUS
 62
     3
 10
2767.779354
 20
63.865795
 11
2793.097148
 21
63.865795
  0
LINE
  8
CSLAYER1
  6
CONTINUOUS
 62
     3
 10
2769.384774
 20
62.265795
 11
2790.704687
 21
62.265795
  0
LINE
  8
CSLAYER1
  6
CONTINUOUS
 62
     3
 10
2771.531916
 20
60.665795
 11
2787.579564
 21
60.665795
  0
LINE
  8
CSLAYER1
  6
CONTINUOUS
 62
     3
 10
2774.779606
 20
59.065795
 11
2782.941415
 21
59.065795
  0
LINE
  8
CSLAYER1
  6
CONTINUOUS
 62
     3
 10
2784.748107
 20
81.465795
 11
2801.567844
 21
81.465795
  0
LINE
  8
CSLAYER1
  6
CONTINUOUS
 62
     3
 10
2785.418851
 20
79.865795
 11
2801.442074
 21
79.865795
  0
LINE
  8
CSLAYER1
  6
CONTINUOUS
 62
     3
 10
2785.530858
 20
78.265795
 11
2801.316305
 21
78.265795
  0
LINE
  8
CSLAYER1
  6
CONTINUOUS
 62
     3
 10
2785.285501
 20
76.665795
 11
2800.602449
 21
76.665795
  0
LINE
  8
CSLAYER1
  6
CONTINUOUS
 62
     3
 10
2784.633855
 20
75.065795
 11
2799.881249
 21
75.065795
  0
LINE
  8
CSLAYER1
  6
CONTINUOUS
 62
     3
 10
2783.500592
 20
73.465795
 11
2798.947301
 21
73.465795
  0
LINE
  8
CSLAYER1
  6
CONTINUOUS
 62
     3
 10
2781.244595
 20
71.865795
 11
2797.676594
 21
71.865795
  0
TEXT
  8
CSLAYER1
 62
     5
 10
2802.108183
 20
79.476970
 40
4.713448
 41
1.951056
  1
M
 50
0.000000
 51
0.000000
  7
EASYDRAW_FONT
 72
     5
 11
2808.238985
 21
79.476970
  0
TEXT
  8
CSLAYER1
 62
     5
 10
2811.759570
 20
79.418700
 40
4.626621
 41
0.778201
  1
T
 50
0.000000
 51
0.000000
  7
EASYDRAW_FONT
 72
     5
 11
2814.159863
 21
79.418700
  0
TEXT
  8
CSLAYER1
 62
     5
 10
2814.525133
 20
79.453499
 40
4.696183
 41
1.055553
  1
E
 50
0.000000
 51
0.000000
  7
EASYDRAW_FONT
 72
     5
 11
2817.829848
 21
79.453499
  0
TEXT
  8
CSLAYER1
 62
     5
 10
2817.641314
 20
81.069343
 40
0.348283
 41
9.375319
  1
-
 50
0.000000
 51
0.000000
  7
EASYDRAW_FONT
 72
     5
 11
2819.818159
 21
81.069343
  0
TEXT
  8
CSLAYER1
 62
     5
 10
2819.455523
 20
79.422152
 40
4.861659
 41
1.298502
  1
H
 50
0.000000
 51
0.000000
  7
EASYDRAW_FONT
 72
     5
 11
2823.664106
 21
79.422152
  0
TEXT
  8
CSLAYER1
 62
     5
 10
2823.531538
 20
79.452530
 40
4.843139
 41
1.269236
  1
A
 50
0.000000
 51
0.000000
  7
EASYDRAW_FONT
 72
     5
 11
2827.629595
 21
79.452530
  0
TEXT
  8
CSLAYER1
 62
     5
 10
2827.237694
 20
79.411004
 40
4.825362
 41
1.490144
  1
N
 50
0.000000
 51
0.000000
  7
EASYDRAW_FONT
 72
     5
 11
2832.031349
 21
79.411004
  0
TEXT
  8
CSLAYER1
 62
     5
 10
2808.029152
 20
79.388431
 40
4.982325
 41
1.177443
  1
A
 50
0.000000
 51
0.000000
  7
EASYDRAW_FONT
 72
     5
 11
2811.940086
 21
79.388431
  0
TEXT
  8
CSLAYER1
 62
     5
 10
2802.475197
 20
72.393191
 40
4.982325
 41
1.177443
  1
A
 50
0.000000
 51
0.000000
  7
EASYDRAW_FONT
 72
     5
 11
2806.386131
 21
72.393191
  0
TEXT
  8
CSLAYER1
 62
     5
 10
2815.259621
 20
72.421512
 40
4.982325
 41
1.177443
  1
A
 50
0.000000
 51
0.000000
  7
EASYDRAW_FONT
 72
     5
 11
2819.170555
 21
72.421512
  0
TEXT
  8
CSLAYER1
 62
     5
 10
2819.020165
 20
72.478509
 40
4.825362
 41
1.490144
  1
N
 50
0.000000
 51
0.000000
  7
EASYDRAW_FONT
 72
     5
 11
2823.813819
 21
72.478509
  0
TEXT
  8
CSLAYER1
 62
     5
 10
2827.922501
 20
72.486903
 40
4.841775
 41
1.184218
  1
E
 50
0.000000
 51
0.000000
  7
EASYDRAW_FONT
 72
     5
 11
2831.744980
 21
72.486903
  0
TEXT
  8
CSLAYER1
 62
     5
 10
2806.755750
 20
72.391867
 40
4.947865
 41
1.093992
  1
D
 50
0.000000
 51
0.000000
  7
EASYDRAW_FONT
 72
     5
 11
2810.364367
 21
72.391867
  0
TEXT
  8
CSLAYER1
 62
     5
 10
2811.158109
 20
72.386482
 40
4.924210
 41
1.228195
  1
V
 50
0.000000
 51
0.000000
  7
EASYDRAW_FONT
 72
     5
 11
2815.190036
 21
72.386482
  0
TEXT
  8
CSLAYER1
 62
     5
 10
2823.383310
 20
72.407213
 40
5.032894
 41
1.481023
  1
C
 50
0.000000
 51
0.000000
  7
EASYDRAW_FONT
 72
     5
 11
2828.352530
 21
72.407213
  0
LINE
  8
CSLAYER1
  6
CONTINUOUS
 62
     5
 10
2814.013749
 20
83.467612
 11
2813.001687
 21
83.467612
  0
LINE
  8
CSLAYER1
  6
CONTINUOUS
 62
     3
 10
2763.111987
 20
117.692883
 11
2812.909813
 21
117.692883
  0
LINE
  8
CSLAYER1
  6
CONTINUOUS
 62
     3
 10
2755.999623
 20
116.092883
 11
2823.989505
 21
116.092883
  0
LINE
  8
CSLAYER1
  6
CONTINUOUS
 62
     3
 10
2748.551219
 20
114.492883
 11
2793.974529
 21
114.492883
  0
LINE
  8
CSLAYER1
  6
CONTINUOUS
 62
     3
 10
2806.936079
 20
114.492883
 11
2816.522682
 21
114.492883
  0
LINE
  8
CSLAYER1
  6
CONTINUOUS
 62
     3
 10
2820.831816
 20
114.492883
 11
2829.344813
 21
114.492883
  0
LINE
  8
CSLAYER1
  6
CONTINUOUS
 62
     3
 10
2749.954358
 20
112.892883
 11
2806.660827
 21
112.892883
  0
LINE
  8
CSLAYER1
  6
CONTINUOUS
 62
     3
 10
2826.840965
 20
112.892883
 11
2832.947211
 21
112.892883
  0
LINE
  8
CSLAYER1
  6
CONTINUOUS
 62
     3
 10
2748.042024
 20
111.292883
 11
2820.796375
 21
111.292883
  0
LINE
  8
CSLAYER1
  6
CONTINUOUS
 62
     3
 10
2832.742264
 20
111.292883
 11
2834.975986
 21
111.292883
  0
LINE
  8
CSLAYER1
  6
CONTINUOUS
 62
     3
 10
2746.979799
 20
109.692883
 11
2828.508231
 21
109.692883
  0
LINE
  8
CSLAYER1
  6
CONTINUOUS
 62
     3
 10
2748.655466
 20
108.092883
 11
2833.317540
 21
108.092883
  0
LINE
  8
CSLAYER1
  6
CONTINUOUS
 62
     3
 10
2749.823033
 20
106.492883
 11
2808.936412
 21
106.492883
  0
LINE
  8
CSLAYER1
  6
CONTINUOUS
 62
     3
 10
2824.436177
 20
106.492883
 11
2839.440500
 21
106.492883
  0
LINE
  8
CSLAYER1
  6
CONTINUOUS
 62
     3
 10
2750.068157
 20
104.892883
 11
2785.436412
 21
104.892883
  0
LINE
  8
CSLAYER1
  6
CONTINUOUS
 62
     3
 10
2832.005106
 20
104.892883
 11
2841.527709
 21
104.892883
  0
LINE
  8
CSLAYER1
  6
CONTINUOUS
 62
     3
 10
2750.274482
 20
103.292883
 11
2763.739655
 21
103.292883
  0
LINE
  8
CSLAYER1
  6
CONTINUOUS
 62
     3
 10
2839.465455
 20
103.292883
 11
2845.950473
 21
103.292883
  0
LINE
  8
CSLAYER1
  6
CONTINUOUS
 62
     3
 10
2847.528449
 20
101.692883
 11
2849.697303
 21
101.692883
  0
ENDBLK
  8
0
  0
BLOCK
  8
CSLAYER1
  2
BLKF0001
 70
   64
 10
0.0
 20
0.0
 30
0.0
  0
LINE
  8
CSLAYER1
  6
CONTINUOUS
 62
     3
 10
1180.775454
 20
1377.197328
 11
1180.775454
 21
1332.197328
  0
LINE
  8
CSLAYER1
  6
CONTINUOUS
 62
     3
 10
2380.775454
 20
1377.197328
 11
2380.775454
 21
1332.197328
  0
LINE
  8
CSLAYER1
  6
CONTINUOUS
 62
     3
 10
1180.775454
 20
1377.197328
 11
2380.775454
 21
1377.197328
  0
LINE
  8
CSLAYER1
  6
CONTINUOUS
 62
     3
 10
1180.775454
 20
1332.197328
 11
2380.775454
 21
1332.197328
  0
ENDBLK
  8
0
  0
BLOCK
  8
CSLAYER1
  2
BLKF0002
 70
   64
 10
0.0
 20
0.0
 30
0.0
  0
LINE
  8
CSLAYER1
  6
PHANTOM
 62
     5
 10
1180.775454
 20
572.257879
 11
1180.775454
 21
527.257879
  0
LINE
  8
CSLAYER1
  6
PHANTOM
 62
     5
 10
2380.775454
 20
572.257879
 11
2380.775454
 21
527.257879
  0
LINE
  8
CSLAYER1
  6
PHANTOM
 62
     5
 10
1180.775454
 20
572.257879
 11
2380.775454
 21
572.257879
  0
LINE
  8
CSLAYER1
  6
PHANTOM
 62
     5
 10
1180.775454
 20
527.257879
 11
2380.775454
 21
527.257879
  0
ENDBLK
  8
0
  0
BLOCK
  8
CSLAYER1
  2
BLKF0003
 70
   64
 10
0.0
 20
0.0
 30
0.0
  0
LINE
  8
CSLAYER1
  6
DASHED
 62
     5
 10
800.178809
 20
467.257879
 11
800.178809
 21
572.257879
  0
LINE
  8
CSLAYER1
  6
DASHED
 62
     5
 10
790.178809
 20
467.257879
 11
790.178809
 21
545.257879
  0
LINE
  8
CSLAYER1
  6
DASHED
 62
     5
 10
810.178809
 20
545.257879
 11
790.178809
 21
545.257879
  0
LINE
  8
CSLAYER1
  6
DASHED
 62
     5
 10
810.178809
 20
467.257879
 11
810.178809
 21
545.257879
  0
LINE
  8
CSLAYER1
  6
DASHED
 62
     5
 10
809.993763
 20
545.257879
 11
790.363854
 21
545.257879
  0
LINE
  8
CSLAYER1
  6
DASHED
 62
     5
 10
790.363854
 20
545.257879
 11
790.363854
 21
552.354352
  0
LINE
  8
CSLAYER1
  6
DASHED
 62
     5
 10
790.363854
 20
552.354352
 11
791.928809
 21
553.257879
  0
LINE
  8
CSLAYER1
  6
DASHED
 62
     5
 10
791.928809
 20
553.257879
 11
808.428809
 21
553.257879
  0
LINE
  8
CSLAYER1
  6
DASHED
 62
     5
 10
808.428809
 20
553.257879
 11
809.993763
 21
552.354352
  0
LINE
  8
CSLAYER1
  6
DASHED
 62
     5
 10
809.993763
 20
552.354352
 11
809.993763
 21
545.257879
  0
LINE
  8
CSLAYER1
  6
DASHED
 62
     5
 10
805.086286
 20
545.257879
 11
805.086286
 21
552.354352
  0
LINE
  8
CSLAYER1
  6
DASHED
 62
     5
 10
795.271331
 20
552.354352
 11
795.271331
 21
545.257879
  0
ARC
  8
CSLAYER1
  6
DASHED
 62
     5
 10
792.817593
 20
549.474265
 40
3.783614
 50
49.570103
 51
90.000000
  0
ARC
  8
CSLAYER1
  6
DASHED
 62
     5
 10
800.178809
 20
539.478714
 40
13.779165
 50
69.135936
 51
110.864064
  0
ARC
  8
CSLAYER1
  6
DASHED
 62
     5
 10
807.540024
 20
549.474265
 40
3.783614
 50
90.000000
 51
130.429897
  0
POINT
  8
CSLAYER1
 62
     5
 10
800.178809
 20
545.257879
  0
LINE
  8
CSLAYER1
  6
DASHED
 62
     5
 10
809.993763
 20
561.057879
 11
790.363854
 21
561.057879
  0
LINE
  8
CSLAYER1
  6
DASHED
 62
     5
 10
790.363854
 20
561.057879
 11
790.363854
 21
568.154352
  0
LINE
  8
CSLAYER1
  6
DASHED
 62
     5
 10
790.363854
 20
568.154352
 11
791.928809
 21
569.057879
  0
LINE
  8
CSLAYER1
  6
DASHED
 62
     5
 10
791.928809
 20
569.057879
 11
808.428809
 21
569.057879
  0
LINE
  8
CSLAYER1
  6
DASHED
 62
     5
 10
808.428809
 20
569.057879
 11
809.993763
 21
568.154352
  0
LINE
  8
CSLAYER1
  6
DASHED
 62
     5
 10
809.993763
 20
568.154352
 11
809.993763
 21
561.057879
  0
LINE
  8
CSLAYER1
  6
DASHED
 62
     5
 10
805.086286
 20
561.057879
 11
805.086286
 21
568.154352
  0
LINE
  8
CSLAYER1
  6
DASHED
 62
     5
 10
795.271331
 20
568.154352
 11
795.271331
 21
561.057879
  0
ARC
  8
CSLAYER1
  6
DASHED
 62
     5
 10
792.817593
 20
565.274265
 40
3.783614
 50
49.570103
 51
90.000000
  0
ARC
  8
CSLAYER1
  6
DASHED
 62
     5
 10
800.178809
 20
555.278714
 40
13.779165
 50
69.135936
 51
110.864064
  0
ARC
  8
CSLAYER1
  6
DASHED
 62
     5
 10
807.540024
 20
565.274265
 40
3.783614
 50
90.000000
 51
130.429897
  0
POINT
  8
CSLAYER1
 62
     5
 10
800.178809
 20
561.057879
  0
LINE
  8
CSLAYER1
  6
DASHED
 62
     5
 10
795.178809
 20
553.257879
 11
795.178809
 21
561.057879
  0
LINE
  8
CSLAYER1
  6
DASHED
 62
     5
 10
796.178809
 20
553.257879
 11
796.178809
 21
561.057879
  0
LINE
  8
CSLAYER1
  6
DASHED
 62
     5
 10
805.178809
 20
553.257879
 11
805.178809
 21
561.057879
  0
LINE
  8
CSLAYER1
  6
DASHED
 62
     5
 10
804.178809
 20
553.257879
 11
804.178809
 21
561.057879
  0
ENDBLK
  8
0
  0
BLOCK
  8
CSLAYER1
  2
BLKF0004
 70
   64
 10
0.0
 20
0.0
 30
0.0
  0
LINE
  8
CSLAYER1
  6
DASHED
 62
     5
 10
238.578809
 20
467.257879
 11
238.578809
 21
572.257879
  0
LINE
  8
CSLAYER1
  6
DASHED
 62
     5
 10
248.578809
 20
467.257879
 11
248.578809
 21
545.257879
  0
LINE
  8
CSLAYER1
  6
DASHED
 62
     5
 10
228.578809
 20
545.257879
 11
248.578809
 21
545.257879
  0
LINE
  8
CSLAYER1
  6
DASHED
 62
     5
 10
228.578809
 20
467.257879
 11
228.578809
 21
545.257879
  0
LINE
  8
CSLAYER1
  6
DASHED
 62
     5
 10
228.763854
 20
545.257879
 11
248.393763
 21
545.257879
  0
LINE
  8
CSLAYER1
  6
DASHED
 62
     5
 10
248.393763
 20
545.257879
 11
248.393763
 21
552.354352
  0
LINE
  8
CSLAYER1
  6
DASHED
 62
     5
 10
248.393763
 20
552.354352
 11
246.828809
 21
553.257879
  0
LINE
  8
CSLAYER1
  6
DASHED
 62
     5
 10
246.828809
 20
553.257879
 11
230.328809
 21
553.257879
  0
LINE
  8
CSLAYER1
  6
DASHED
 62
     5
 10
230.328809
 20
553.257879
 11
228.763854
 21
552.354352
  0
LINE
  8
CSLAYER1
  6
DASHED
 62
     5
 10
228.763854
 20
552.354352
 11
228.763854
 21
545.257879
  0
LINE
  8
CSLAYER1
  6
DASHED
 62
     5
 10
233.671331
 20
545.257879
 11
233.671331
 21
552.354352
  0
LINE
  8
CSLAYER1
  6
DASHED
 62
     5
 10
243.486286
 20
552.354352
 11
243.486286
 21
545.257879
  0
ARC
  8
CSLAYER1
  6
DASHED
 62
     5
 10
245.940024
 20
549.474265
 40
3.783614
 50
90.000000
 51
130.429897
  0
ARC
  8
CSLAYER1
  6
DASHED
 62
     5
 10
238.578809
 20
539.478714
 40
13.779165
 50
69.135936
 51
110.864064
  0
ARC
  8
CSLAYER1
  6
DASHED
 62
     5
 10
231.217593
 20
549.474265
 40
3.783614
 50
49.570103
 51
90.000000
  0
POINT
  8
CSLAYER1
 62
     5
 10
238.578809
 20
545.257879
  0
LINE
  8
CSLAYER1
  6
DASHED
 62
     5
 10
228.763854
 20
561.057879
 11
248.393763
 21
561.057879
  0
LINE
  8
CSLAYER1
  6
DASHED
 62
     5
 10
248.393763
 20
561.057879
 11
248.393763
 21
568.154352
  0
LINE
  8
CSLAYER1
  6
DASHED
 62
     5
 10
248.393763
 20
568.154352
 11
246.828809
 21
569.057879
  0
LINE
  8
CSLAYER1
  6
DASHED
 62
     5
 10
246.828809
 20
569.057879
 11
230.328809
 21
569.057879
  0
LINE
  8
CSLAYER1
  6
DASHED
 62
     5
 10
230.328809
 20
569.057879
 11
228.763854
 21
568.154352
  0
LINE
  8
CSLAYER1
  6
DASHED
 62
     5
 10
228.763854
 20
568.154352
 11
228.763854
 21
561.057879
  0
LINE
  8
CSLAYER1
  6
DASHED
 62
     5
 10
233.671331
 20
561.057879
 11
233.671331
 21
568.154352
  0
LINE
  8
CSLAYER1
  6
DASHED
 62
     5
 10
243.486286
 20
568.154352
 11
243.486286
 21
561.057879
  0
ARC
  8
CSLAYER1
  6
DASHED
 62
     5
 10
245.940024
 20
565.274265
 40
3.783614
 50
90.000000
 51
130.429897
  0
ARC
  8
CSLAYER1
  6
DASHED
 62
     5
 10
238.578809
 20
555.278714
 40
13.779165
 50
69.135936
 51
110.864064
  0
ARC
  8
CSLAYER1
  6
DASHED
 62
     5
 10
231.217593
 20
565.274265
 40
3.783614
 50
49.570103
 51
90.000000
  0
POINT
  8
CSLAYER1
 62
     5
 10
238.578809
 20
561.057879
  0
LINE
  8
CSLAYER1
  6
DASHED
 62
     5
 10
243.578809
 20
553.257879
 11
243.578809
 21
561.057879
  0
LINE
  8
CSLAYER1
  6
DASHED
 62
     5
 10
242.578809
 20
553.257879
 11
242.578809
 21
561.057879
  0
LINE
  8
CSLAYER1
  6
DASHED
 62
     5
 10
233.578809
 20
553.257879
 11
233.578809
 21
561.057879
  0
LINE
  8
CSLAYER1
  6
DASHED
 62
     5
 10
234.578809
 20
553.257879
 11
234.578809
 21
561.057879
  0
ENDBLK
  8
0
  0
BLOCK
  8
CSLAYER1
  2
BLKF0005
 70
   64
 10
0.0
 20
0.0
 30
0.0
  0
LINE
  8
CSLAYER1
  6
DASHED
 62
     5
 10
1387.944288
 20
585.831061
 11
1384.458670
 21
587.907415
  0
LINE
  8
CSLAYER1
  6
DASHED
 62
     5
 10
1383.740144
 20
586.589465
 11
1387.176631
 21
584.542379
  0
LINE
  8
CSLAYER1
  6
DASHED
 62
     5
 10
1355.573327
 20
537.603355
 11
1354.538472
 21
538.219810
  0
LINE
  8
CSLAYER1
  6
DASHED
 62
     5
 10
1363.775454
 20
545.258346
 11
1387.944288
 21
585.831061
  0
LINE
  8
CSLAYER1
  6
DASHED
 62
     5
 10
1383.740144
 20
586.589465
 11
1387.176631
 21
584.542379
  0
LINE
  8
CSLAYER1
  6
DASHED
 62
     5
 10
1353.775454
 20
467.257879
 11
1353.775454
 21
572.257879
  0
LINE
  8
CSLAYER1
  6
DASHED
 62
     5
 10
1363.775454
 20
467.257879
 11
1363.775454
 21
545.257879
  0
LINE
  8
CSLAYER1
  6
DASHED
 62
     5
 10
1343.775454
 20
545.257879
 11
1363.775454
 21
545.257879
  0
LINE
  8
CSLAYER1
  6
DASHED
 62
     5
 10
1343.775454
 20
467.257879
 11
1343.775454
 21
545.257879
  0
LINE
  8
CSLAYER1
  6
DASHED
 62
     5
 10
1343.960499
 20
545.257879
 11
1363.590408
 21
545.257879
  0
LINE
  8
CSLAYER1
  6
DASHED
 62
     5
 10
1363.590408
 20
545.257879
 11
1363.590408
 21
552.354352
  0
LINE
  8
CSLAYER1
  6
DASHED
 62
     5
 10
1363.590408
 20
552.354352
 11
1362.025454
 21
553.257879
  0
LINE
  8
CSLAYER1
  6
DASHED
 62
     5
 10
1362.025454
 20
553.257879
 11
1345.525454
 21
553.257879
  0
LINE
  8
CSLAYER1
  6
DASHED
 62
     5
 10
1345.525454
 20
553.257879
 11
1343.960499
 21
552.354352
  0
LINE
  8
CSLAYER1
  6
DASHED
 62
     5
 10
1343.960499
 20
552.354352
 11
1343.960499
 21
545.257879
  0
LINE
  8
CSLAYER1
  6
DASHED
 62
     5
 10
1348.867976
 20
545.257879
 11
1348.867976
 21
552.354352
  0
LINE
  8
CSLAYER1
  6
DASHED
 62
     5
 10
1358.682931
 20
552.354352
 11
1358.682931
 21
545.257879
  0
ARC
  8
CSLAYER1
  6
DASHED
 62
     5
 10
1361.136670
 20
549.474265
 40
3.783614
 50
90.000000
 51
130.429897
  0
ARC
  8
CSLAYER1
  6
DASHED
 62
     5
 10
1353.775454
 20
539.478714
 40
13.779165
 50
69.135936
 51
110.864064
  0
ARC
  8
CSLAYER1
  6
DASHED
 62
     5
 10
1346.414238
 20
549.474265
 40
3.783614
 50
49.570103
 51
90.000000
  0
POINT
  8
CSLAYER1
 62
     5
 10
1353.775454
 20
545.257879
  0
LINE
  8
CSLAYER1
  6
DASHED
 62
     5
 10
1343.960499
 20
561.057879
 11
1363.590408
 21
561.057879
  0
LINE
  8
CSLAYER1
  6
DASHED
 62
     5
 10
1363.590408
 20
561.057879
 11
1363.590408
 21
568.154352
  0
LINE
  8
CSLAYER1
  6
DASHED
 62
     5
 10
1363.590408
 20
568.154352
 11
1362.025454
 21
569.057879
  0
LINE
  8
CSLAYER1
  6
DASHED
 62
     5
 10
1362.025454
 20
569.057879
 11
1345.525454
 21
569.057879
  0
LINE
  8
CSLAYER1
  6
DASHED
 62
     5
 10
1345.525454
 20
569.057879
 11
1343.960499
 21
568.154352
  0
LINE
  8
CSLAYER1
  6
DASHED
 62
     5
 10
1343.960499
 20
568.154352
 11
1343.960499
 21
561.057879
  0
LINE
  8
CSLAYER1
  6
DASHED
 62
     5
 10
1348.867976
 20
561.057879
 11
1348.867976
 21
568.154352
  0
LINE
  8
CSLAYER1
  6
DASHED
 62
     5
 10
1358.682931
 20
568.154352
 11
1358.682931
 21
561.057879
  0
ARC
  8
CSLAYER1
  6
DASHED
 62
     5
 10
1361.136670
 20
565.274265
 40
3.783614
 50
90.000000
 51
130.429897
  0
ARC
  8
CSLAYER1
  6
DASHED
 62
     5
 10
1353.775454
 20
555.278714
 40
13.779165
 50
69.135936
 51
110.864064
  0
ARC
  8
CSLAYER1
  6
DASHED
 62
     5
 10
1346.414238
 20
565.274265
 40
3.783614
 50
49.570103
 51
90.000000
  0
POINT
  8
CSLAYER1
 62
     5
 10
1353.775454
 20
561.057879
  0
LINE
  8
CSLAYER1
  6
DASHED
 62
     5
 10
1358.775454
 20
553.257879
 11
1358.775454
 21
561.057879
  0
LINE
  8
CSLAYER1
  6
DASHED
 62
     5
 10
1357.775454
 20
553.257879
 11
1357.775454
 21
561.057879
  0
LINE
  8
CSLAYER1
  6
DASHED
 62
     5
 10
1348.775454
 20
553.257879
 11
1348.775454
 21
561.057879
  0
LINE
  8
CSLAYER1
  6
DASHED
 62
     5
 10
1349.775454
 20
553.257879
 11
1349.775454
 21
561.057879
  0
LINE
  8
CSLAYER1
  6
DASHED
 62
     5
 10
1343.775454
 20
520.345977
 11
1311.807594
 21
467.257879
  0
LINE
  8
CSLAYER1
  6
DASHED
 62
     5
 10
1381.775454
 20
488.257879
 11
1363.775454
 21
488.257879
  0
LINE
  8
CSLAYER1
  6
DASHED
 62
     5
 10
1396.775454
 20
473.257879
 11
1396.775454
 21
467.257879
  0
LINE
  8
CSLAYER1
  6
DASHED
 62
     5
 10
1381.775454
 20
488.257879
 11
1396.775454
 21
473.257879
  0
LINE
  8
CSLAYER1
  6
DASHED
 62
     5
 10
1330.316350
 20
497.994833
 11
1335.349329
 21
482.085011
  0
LINE
  8
CSLAYER1
  6
DASHED
 62
     5
 10
1337.859415
 20
480.781374
 11
1343.775454
 21
482.652878
  0
CIRCLE
  8
CSLAYER1
  6
DASHED
 62
     5
 10
1340.562032
 20
485.831707
 40
2.250000
  0
LINE
  8
CSLAYER1
  6
DASHED
 62
     5
 10
1335.349329
 20
482.085011
 11
1337.859415
 21
480.781374
  0
LINE
  8
CSLAYER1
  6
DASHED
 62
     5
 10
1330.385111
 20
498.109023
 11
1336.952733
 21
477.348018
  0
CIRCLE
  8
CSLAYER1
  6
DASHED
 62
     5
 10
1340.562032
 20
485.831707
 40
2.000000
  0
LINE
  8
CSLAYER1
  6
DASHED
 62
     5
 10
1336.952733
 20
477.348018
 11
1343.775454
 21
473.804574
  0
LINE
  8
CSLAYER1
  6
DASHED
 62
     5
 10
1333.396578
 20
488.257879
 11
1324.453085
 21
488.257879
  0
ENDBLK
  8
0
  0
BLOCK
  8
CSLAYER1
  2
BLKF0006
 70
   64
 10
0.0
 20
0.0
 30
0.0
  0
LINE
  8
CSLAYER1
  6
CONTINUOUS
 62
     3
 10
2738.486156
 20
1923.358881
 11
2738.486156
 21
1985.358881
  0
LINE
  8
CSLAYER1
  6
CONTINUOUS
 62
     3
 10
2740.986156
 20
1920.858881
 11
2825.986156
 21
1920.858881
  0
LINE
  8
CSLAYER1
  6
CENTER
 62
     5
 10
2680.136517
 20
1993.358881
 11
2738.486156
 21
1993.358881
  0
LINE
  8
CSLAYER1
  6
CONTINUOUS
 62
     2
 10
2740.986156
 20
1977.358881
 11
2825.986156
 21
1977.358881
  0
LINE
  8
CSLAYER1
  6
CONTINUOUS
 62
     3
 10
2740.986156
 20
1925.858881
 11
2740.986156
 21
1970.858881
  0
LINE
  8
CSLAYER1
  6
CONTINUOUS
 62
     3
 10
2828.486156
 20
1923.358881
 11
2828.486156
 21
1993.358881
  0
LINE
  8
CSLAYER1
  6
CONTINUOUS
 62
     3
 10
2743.486156
 20
1923.358881
 11
2820.486156
 21
1923.358881
  0
LINE
  8
CSLAYER1
  6
CONTINUOUS
 62
     3
 10
2743.486156
 20
1973.358881
 11
2820.486156
 21
1973.358881
  0
ARC
  8
CSLAYER1
  6
CONTINUOUS
 62
     3
 10
2766.417974
 20
1948.358881
 40
59.568182
 50
-24.814837
 51
24.814837
  0
ARC
  8
CSLAYER1
  6
CONTINUOUS
 62
     3
 10
2743.486156
 20
1925.858881
 40
2.500000
 50
180.000000
 51
270.000000
  0
ARC
  8
CSLAYER1
  6
CONTINUOUS
 62
     3
 10
2743.486156
 20
1970.858881
 40
2.500000
 50
90.000000
 51
180.000000
  0
ARC
  8
CSLAYER1
  6
CONTINUOUS
 62
     3
 10
2740.986156
 20
1923.358881
 40
2.500000
 50
180.000000
 51
270.000000
  0
ARC
  8
CSLAYER1
  6
CONTINUOUS
 62
     3
 10
2825.986156
 20
1923.358881
 40
2.500000
 50
270.000000
 51
360.000000
  0
ARC
  8
CSLAYER1
  6
CONTINUOUS
 62
     2
 10
2825.986156
 20
1979.858881
 40
2.500000
 50
270.000000
 51
360.000000
  0
ARC
  8
CSLAYER1
  6
CONTINUOUS
 62
     2
 10
2740.986156
 20
1979.858881
 40
2.500000
 50
180.000000
 51
270.000000
  0
LINE
  8
CSLAYER1
  6
CONTINUOUS
 62
     3
 10
2738.486156
 20
2063.358881
 11
2738.486156
 21
2001.358881
  0
LINE
  8
CSLAYER1
  6
CONTINUOUS
 62
     3
 10
2740.986156
 20
2065.858881
 11
2825.986156
 21
2065.858881
  0
LINE
  8
CSLAYER1
  6
CONTINUOUS
 62
     2
 10
2740.986156
 20
2009.358881
 11
2825.986156
 21
2009.358881
  0
LINE
  8
CSLAYER1
  6
CONTINUOUS
 62
     3
 10
2828.486156
 20
2063.358881
 11
2828.486156
 21
1993.358881
  0
ARC
  8
CSLAYER1
  6
CONTINUOUS
 62
     3
 10
2740.986156
 20
2063.358881
 40
2.500000
 50
90.000000
 51
180.000000
  0
ARC
  8
CSLAYER1
  6
CONTINUOUS
 62
     3
 10
2825.986156
 20
2063.358881
 40
2.500000
 50
-0.000000
 51
90.000000
  0
ARC
  8
CSLAYER1
  6
CONTINUOUS
 62
     2
 10
2825.986156
 20
2006.858881
 40
2.500000
 50
-0.000000
 51
90.000000
  0
ARC
  8
CSLAYER1
  6
CONTINUOUS
 62
     2
 10
2740.986156
 20
2006.858881
 40
2.500000
 50
90.000000
 51
180.000000
  0
LINE
  8
CSLAYER1
  6
CONTINUOUS
 62
     3
 10
2740.986156
 20
2060.858881
 11
2740.986156
 21
2015.858881
  0
LINE
  8
CSLAYER1
  6
CONTINUOUS
 62
     3
 10
2743.486156
 20
2063.358881
 11
2820.486156
 21
2063.358881
  0
LINE
  8
CSLAYER1
  6
CONTINUOUS
 62
     3
 10
2743.486156
 20
2013.358881
 11
2820.486156
 21
2013.358881
  0
ARC
  8
CSLAYER1
  6
CONTINUOUS
 62
     3
 10
2766.417974
 20
2038.358881
 40
59.568182
 50
-24.814837
 51
24.814837
  0
ARC
  8
CSLAYER1
  6
CONTINUOUS
 62
     3
 10
2743.486156
 20
2060.858881
 40
2.500000
 50
90.000000
 51
180.000000
  0
ARC
  8
CSLAYER1
  6
CONTINUOUS
 62
     3
 10
2743.486156
 20
2015.858881
 40
2.500000
 50
180.000000
 51
270.000000
  0
LINE
  8
CSLAYER1
  6
CONTINUOUS
 62
     3
 10
2731.486156
 20
2000.358881
 11
2731.486156
 21
1996.858881
  0
LINE
  8
CSLAYER1
  6
CONTINUOUS
 62
     3
 10
2680.136517
 20
1996.858881
 11
2731.486156
 21
1996.858881
  0
LINE
  8
CSLAYER1
  6
CONTINUOUS
 62
     3
 10
2732.486156
 20
2001.358881
 11
2738.486156
 21
2001.358881
  0
LINE
  8
CSLAYER1
  6
CONTINUOUS
 62
     3
 10
2732.486156
 20
1985.358881
 11
2738.486156
 21
1985.358881
  0
LINE
  8
CSLAYER1
  6
CONTINUOUS
 62
     3
 10
2680.136517
 20
1989.858881
 11
2731.486156
 21
1989.858881
  0
ARC
  8
CSLAYER1
  6
CONTINUOUS
 62
     3
 10
2732.486156
 20
1986.358881
 40
1.000000
 50
180.000000
 51
270.000000
  0
ARC
  8
CSLAYER1
  6
CONTINUOUS
 62
     3
 10
2732.486156
 20
2000.358881
 40
1.000000
 50
90.000000
 51
180.000000
  0
LINE
  8
CSLAYER1
  6
CONTINUOUS
 62
     3
 10
2731.486156
 20
1989.858881
 11
2731.486156
 21
1986.358881
  0
LINE
  8
CSLAYER1
  6
CONTINUOUS
 62
     2
 10
2731.486156
 20
1996.858881
 11
2731.486156
 21
1989.858881
  0
LINE
  8
CSLAYER1
  6
CONTINUOUS
 62
     2
 10
2738.486156
 20
1985.358881
 11
2738.486156
 21
1993.358881
  0
LINE
  8
CSLAYER1
  6
CONTINUOUS
 62
     2
 10
2738.486156
 20
2001.358881
 11
2738.486156
 21
1993.358881
  0
LINE
  8
CSLAYER1
  6
CONTINUOUS
 62
     2
 10
2757.979168
 20
1981.196221
 11
2748.844168
 21
1981.196221
  0
LINE
  8
CSLAYER1
  6
CONTINUOUS
 62
     2
 10
2757.979168
 20
2004.821221
 11
2748.844168
 21
2004.821221
  0
LINE
  8
CSLAYER1
  6
CONTINUOUS
 62
     2
 10
2747.584168
 20
1982.456221
 11
2747.584168
 21
2003.561221
  0
LINE
  8
CSLAYER1
  6
CONTINUOUS
 62
     2
 10
2759.239168
 20
1982.456221
 11
2759.239168
 21
2003.561221
  0
LINE
  8
CSLAYER1
  6
CONTINUOUS
 62
     2
 10
2757.349168
 20
2002.931221
 11
2749.316668
 21
2002.931221
  0
LINE
  8
CSLAYER1
  6
CONTINUOUS
 62
     2
 10
2757.349168
 20
1999.781221
 11
2756.404168
 21
1999.781221
  0
LINE
  8
CSLAYER1
  6
CONTINUOUS
 62
     2
 10
2757.349168
 20
1991.118721
 11
2756.404168
 21
1991.118721
  0
LINE
  8
CSLAYER1
  6
CONTINUOUS
 62
     2
 10
2757.349168
 20
1986.551221
 11
2752.309168
 21
1986.551221
  0
LINE
  8
CSLAYER1
  6
CONTINUOUS
 62
     2
 10
2758.451668
 20
1987.653721
 11
2758.451668
 21
1990.016221
  0
LINE
  8
CSLAYER1
  6
CONTINUOUS
 62
     2
 10
2751.206668
 20
1987.653721
 11
2751.206668
 21
1990.016221
  0
LINE
  8
CSLAYER1
  6
CONTINUOUS
 62
     2
 10
2748.214168
 20
2000.883721
 11
2748.214168
 21
2001.828721
  0
LINE
  8
CSLAYER1
  6
CONTINUOUS
 62
     2
 10
2755.459168
 20
1992.063721
 11
2755.459168
 21
1998.836221
  0
LINE
  8
CSLAYER1
  6
CONTINUOUS
 62
     2
 10
2754.671668
 20
1992.063721
 11
2754.671668
 21
1998.836221
  0
ARC
  8
CSLAYER1
  6
CONTINUOUS
 62
     2
 10
2757.349168
 20
1987.653721
 40
1.102500
 50
270.000000
 51
360.000000
  0
ARC
  8
CSLAYER1
  6
CONTINUOUS
 62
     2
 10
2752.309168
 20
1987.653721
 40
1.102500
 50
180.000000
 51
270.000000
  0
ARC
  8
CSLAYER1
  6
CONTINUOUS
 62
     2
 10
2752.309168
 20
1990.016221
 40
1.102500
 50
90.000000
 51
180.000000
  0
ARC
  8
CSLAYER1
  6
CONTINUOUS
 62
     2
 10
2757.349168
 20
1990.016221
 40
1.102500
 50
-0.000000
 51
90.000000
  0
ARC
  8
CSLAYER1
  6
CONTINUOUS
 62
     2
 10
2749.316668
 20
2000.883721
 40
1.102500
 50
180.000000
 51
270.000000
  0
ARC
  8
CSLAYER1
  6
CONTINUOUS
 62
     2
 10
2749.316668
 20
2001.828721
 40
1.102500
 50
90.000000
 51
180.000000
  0
ARC
  8
CSLAYER1
  6
CONTINUOUS
 62
     2
 10
2757.349168
 20
2001.828721
 40
1.102500
 50
-0.000000
 51
90.000000
  0
ARC
  8
CSLAYER1
  6
CONTINUOUS
 62
     2
 10
2757.349168
 20
2000.883721
 40
1.102500
 50
270.000000
 51
360.000000
  0
LINE
  8
CSLAYER1
  6
CONTINUOUS
 62
     2
 10
2753.726668
 20
1991.118721
 11
2752.309168
 21
1991.118721
  0
LINE
  8
CSLAYER1
  6
CONTINUOUS
 62
     2
 10
2753.726668
 20
1999.781221
 11
2749.316668
 21
1999.781221
  0
ARC
  8
CSLAYER1
  6
CONTINUOUS
 62
     2
 10
2756.404168
 20
1992.063721
 40
0.945000
 50
180.000000
 51
270.000000
  0
ARC
  8
CSLAYER1
  6
CONTINUOUS
 62
     2
 10
2753.726668
 20
1992.063721
 40
0.945000
 50
270.000000
 51
360.000000
  0
ARC
  8
CSLAYER1
  6
CONTINUOUS
 62
     2
 10
2753.726668
 20
1998.836221
 40
0.945000
 50
-0.000000
 51
90.000000
  0
ARC
  8
CSLAYER1
  6
CONTINUOUS
 62
     2
 10
2757.979168
 20
1982.456221
 40
1.260000
 50
270.000000
 51
360.000000
  0
ARC
  8
CSLAYER1
  6
CONTINUOUS
 62
     2
 10
2748.844168
 20
1982.456221
 40
1.260000
 50
180.000000
 51
270.000000
  0
ARC
  8
CSLAYER1
  6
CONTINUOUS
 62
     2
 10
2748.844168
 20
2003.561221
 40
1.260000
 50
90.000000
 51
180.000000
  0
ARC
  8
CSLAYER1
  6
CONTINUOUS
 62
     2
 10
2757.979168
 20
2003.561221
 40
1.260000
 50
-0.000000
 51
90.000000
  0
ARC
  8
CSLAYER1
  6
CONTINUOUS
 62
     2
 10
2756.404168
 20
1998.836221
 40
0.945000
 50
90.000000
 51
180.000000
  0
LINE
  8
CSLAYER1
  6
CONTINUOUS
 62
     2
 10
2758.451668
 20
2000.883721
 11
2758.451668
 21
2001.828721
  0
CIRCLE
  8
CSLAYER1
  6
CONTINUOUS
 62
     2
 10
2772.986156
 20
1943.358881
 40
2.500000
  0
CIRCLE
  8
CSLAYER1
  6
CONTINUOUS
 62
     2
 10
2772.986156
 20
1933.358881
 40
2.500000
  0
CIRCLE
  8
CSLAYER1
  6
CONTINUOUS
 62
     2
 10
2782.986156
 20
1933.358881
 40
2.500000
  0
CIRCLE
  8
CSLAYER1
  6
CONTINUOUS
 62
     2
 10
2782.986156
 20
1943.358881
 40
2.500000
  0
CIRCLE
  8
CSLAYER1
  6
CONTINUOUS
 62
     2
 10
2792.986156
 20
1943.358881
 40
2.500000
  0
CIRCLE
  8
CSLAYER1
  6
CONTINUOUS
 62
     2
 10
2792.986156
 20
1933.358881
 40
2.500000
  0
CIRCLE
  8
CSLAYER1
  6
CONTINUOUS
 62
     2
 10
2802.986156
 20
1933.358881
 40
2.500000
  0
CIRCLE
  8
CSLAYER1
  6
CONTINUOUS
 62
     2
 10
2802.986156
 20
1943.358881
 40
2.500000
  0
CIRCLE
  8
CSLAYER1
  6
CONTINUOUS
 62
     2
 10
2812.986156
 20
1943.358881
 40
2.500000
  0
CIRCLE
  8
CSLAYER1
  6
CONTINUOUS
 62
     2
 10
2812.986156
 20
1933.358881
 40
2.500000
  0
CIRCLE
  8
CSLAYER1
  6
CONTINUOUS
 62
     2
 10
2772.986156
 20
1953.358881
 40
2.500000
  0
CIRCLE
  8
CSLAYER1
  6
CONTINUOUS
 62
     2
 10
2772.986156
 20
1963.358881
 40
2.500000
  0
CIRCLE
  8
CSLAYER1
  6
CONTINUOUS
 62
     2
 10
2782.986156
 20
1963.358881
 40
2.500000
  0
CIRCLE
  8
CSLAYER1
  6
CONTINUOUS
 62
     2
 10
2782.986156
 20
1953.358881
 40
2.500000
  0
CIRCLE
  8
CSLAYER1
  6
CONTINUOUS
 62
     2
 10
2792.986156
 20
1953.358881
 40
2.500000
  0
CIRCLE
  8
CSLAYER1
  6
CONTINUOUS
 62
     2
 10
2792.986156
 20
1963.358881
 40
2.500000
  0
CIRCLE
  8
CSLAYER1
  6
CONTINUOUS
 62
     2
 10
2802.986156
 20
1963.358881
 40
2.500000
  0
CIRCLE
  8
CSLAYER1
  6
CONTINUOUS
 62
     2
 10
2802.986156
 20
1953.358881
 40
2.500000
  0
CIRCLE
  8
CSLAYER1
  6
CONTINUOUS
 62
     2
 10
2812.986156
 20
1953.358881
 40
2.500000
  0
CIRCLE
  8
CSLAYER1
  6
CONTINUOUS
 62
     2
 10
2812.986156
 20
1963.358881
 40
2.500000
  0
CIRCLE
  8
CSLAYER1
  6
CONTINUOUS
 62
     2
 10
2772.986156
 20
2043.358881
 40
2.500000
  0
CIRCLE
  8
CSLAYER1
  6
CONTINUOUS
 62
     2
 10
2772.986156
 20
2053.358881
 40
2.500000
  0
CIRCLE
  8
CSLAYER1
  6
CONTINUOUS
 62
     2
 10
2782.986156
 20
2053.358881
 40
2.500000
  0
CIRCLE
  8
CSLAYER1
  6
CONTINUOUS
 62
     2
 10
2782.986156
 20
2043.358881
 40
2.500000
  0
CIRCLE
  8
CSLAYER1
  6
CONTINUOUS
 62
     2
 10
2792.986156
 20
2043.358881
 40
2.500000
  0
CIRCLE
  8
CSLAYER1
  6
CONTINUOUS
 62
     2
 10
2792.986156
 20
2053.358881
 40
2.500000
  0
CIRCLE
  8
CSLAYER1
  6
CONTINUOUS
 62
     2
 10
2802.986156
 20
2053.358881
 40
2.500000
  0
CIRCLE
  8
CSLAYER1
  6
CONTINUOUS
 62
     2
 10
2802.986156
 20
2043.358881
 40
2.500000
  0
CIRCLE
  8
CSLAYER1
  6
CONTINUOUS
 62
     2
 10
2812.986156
 20
2043.358881
 40
2.500000
  0
CIRCLE
  8
CSLAYER1
  6
CONTINUOUS
 62
     2
 10
2812.986156
 20
2053.358881
 40
2.500000
  0
CIRCLE
  8
CSLAYER1
  6
CONTINUOUS
 62
     2
 10
2772.986156
 20
2033.358881
 40
2.500000
  0
CIRCLE
  8
CSLAYER1
  6
CONTINUOUS
 62
     2
 10
2772.986156
 20
2023.358881
 40
2.500000
  0
CIRCLE
  8
CSLAYER1
  6
CONTINUOUS
 62
     2
 10
2782.986156
 20
2023.358881
 40
2.500000
  0
CIRCLE
  8
CSLAYER1
  6
CONTINUOUS
 62
     2
 10
2782.986156
 20
2033.358881
 40
2.500000
  0
CIRCLE
  8
CSLAYER1
  6
CONTINUOUS
 62
     2
 10
2792.986156
 20
2033.358881
 40
2.500000
  0
CIRCLE
  8
CSLAYER1
  6
CONTINUOUS
 62
     2
 10
2792.986156
 20
2023.358881
 40
2.500000
  0
CIRCLE
  8
CSLAYER1
  6
CONTINUOUS
 62
     2
 10
2802.986156
 20
2023.358881
 40
2.500000
  0
CIRCLE
  8
CSLAYER1
  6
CONTINUOUS
 62
     2
 10
2802.986156
 20
2033.358881
 40
2.500000
  0
CIRCLE
  8
CSLAYER1
  6
CONTINUOUS
 62
     2
 10
2812.986156
 20
2033.358881
 40
2.500000
  0
CIRCLE
  8
CSLAYER1
  6
CONTINUOUS
 62
     2
 10
2812.986156
 20
2023.358881
 40
2.500000
  0
LINE
  8
CSLAYER1
  6
CONTINUOUS
 62
     2
 10
2746.986156
 20
2020.858881
 11
2746.986156
 21
2055.858881
  0
LINE
  8
CSLAYER1
  6
CONTINUOUS
 62
     2
 10
2762.986156
 20
2020.858881
 11
2762.986156
 21
2055.858881
  0
LINE
  8
CSLAYER1
  6
CONTINUOUS
 62
     2
 10
2748.486156
 20
2019.358881
 11
2761.486156
 21
2019.358881
  0
LINE
  8
CSLAYER1
  6
CONTINUOUS
 62
     2
 10
2747.986156
 20
2020.858881
 11
2747.986156
 21
2055.858881
  0
LINE
  8
CSLAYER1
  6
CONTINUOUS
 62
     2
 10
2761.986156
 20
2020.858881
 11
2761.986156
 21
2055.858881
  0
LINE
  8
CSLAYER1
  6
CONTINUOUS
 62
     2
 10
2748.486156
 20
2020.358881
 11
2761.486156
 21
2020.358881
  0
LINE
  8
CSLAYER1
  6
CONTINUOUS
 62
     2
 10
2748.486156
 20
2057.358881
 11
2761.486156
 21
2057.358881
  0
LINE
  8
CSLAYER1
  6
CONTINUOUS
 62
     2
 10
2748.486156
 20
2056.358881
 11
2761.486156
 21
2056.358881
  0
ARC
  8
CSLAYER1
  6
CONTINUOUS
 62
     2
 10
2748.486156
 20
2020.858881
 40
0.500000
 50
180.000000
 51
270.000000
  0
ARC
  8
CSLAYER1
  6
CONTINUOUS
 62
     2
 10
2761.486156
 20
2020.858881
 40
0.500000
 50
270.000000
 51
360.000000
  0
ARC
  8
CSLAYER1
  6
CONTINUOUS
 62
     2
 10
2748.486156
 20
2055.858881
 40
0.500000
 50
90.000000
 51
180.000000
  0
ARC
  8
CSLAYER1
  6
CONTINUOUS
 62
     2
 10
2761.486156
 20
2055.858881
 40
0.500000
 50
-0.000000
 51
90.000000
  0
ARC
  8
CSLAYER1
  6
CONTINUOUS
 62
     2
 10
2748.486156
 20
2020.858881
 40
1.500000
 50
180.000000
 51
270.000000
  0
ARC
  8
CSLAYER1
  6
CONTINUOUS
 62
     2
 10
2761.486156
 20
2020.858881
 40
1.500000
 50
270.000000
 51
360.000000
  0
ARC
  8
CSLAYER1
  6
CONTINUOUS
 62
     2
 10
2748.486156
 20
2055.858881
 40
1.500000
 50
90.000000
 51
180.000000
  0
ARC
  8
CSLAYER1
  6
CONTINUOUS
 62
     2
 10
2761.486156
 20
2055.858881
 40
1.500000
 50
-0.000000
 51
90.000000
  0
LINE
  8
CSLAYER1
  6
CONTINUOUS
 62
     2
 10
2751.986156
 20
2029.358881
 11
2751.986156
 21
2047.358881
  0
LINE
  8
CSLAYER1
  6
CONTINUOUS
 62
     2
 10
2748.908084
 20
2038.358881
 11
2751.986156
 21
2047.358881
  0
LINE
  8
CSLAYER1
  6
CONTINUOUS
 62
     2
 10
2748.908084
 20
2038.358881
 11
2751.986156
 21
2029.358881
  0
TEXT
  8
CSLAYER1
 62
     2
 10
2760.280099
 20
2029.378975
 40
7.066058
 41
1.574983
  1
UP
 50
90.000000
 51
0.000000
  7
EASYDRAW_FONT
 72
     5
 11
2760.280099
 21
2047.927178
  0
LINE
  8
CSLAYER1
  6
CONTINUOUS
 62
     2
 10
2746.986156
 20
1965.858881
 11
2746.986156
 21
1930.858881
  0
LINE
  8
CSLAYER1
  6
CONTINUOUS
 62
     2
 10
2762.986156
 20
1965.858881
 11
2762.986156
 21
1930.858881
  0
LINE
  8
CSLAYER1
  6
CONTINUOUS
 62
     2
 10
2748.486156
 20
1967.358881
 11
2761.486156
 21
1967.358881
  0
LINE
  8
CSLAYER1
  6
CONTINUOUS
 62
     2
 10
2747.986156
 20
1965.858881
 11
2747.986156
 21
1930.858881
  0
LINE
  8
CSLAYER1
  6
CONTINUOUS
 62
     2
 10
2761.986156
 20
1965.858881
 11
2761.986156
 21
1930.858881
  0
LINE
  8
CSLAYER1
  6
CONTINUOUS
 62
     2
 10
2748.486156
 20
1966.358881
 11
2761.486156
 21
1966.358881
  0
LINE
  8
CSLAYER1
  6
CONTINUOUS
 62
     2
 10
2748.486156
 20
1929.358881
 11
2761.486156
 21
1929.358881
  0
LINE
  8
CSLAYER1
  6
CONTINUOUS
 62
     2
 10
2748.486156
 20
1930.358881
 11
2761.486156
 21
1930.358881
  0
ARC
  8
CSLAYER1
  6
CONTINUOUS
 62
     2
 10
2748.486156
 20
1965.858881
 40
0.500000
 50
90.000000
 51
180.000000
  0
ARC
  8
CSLAYER1
  6
CONTINUOUS
 62
     2
 10
2761.486156
 20
1965.858881
 40
0.500000
 50
-0.000000
 51
90.000000
  0
ARC
  8
CSLAYER1
  6
CONTINUOUS
 62
     2
 10
2748.486156
 20
1930.858881
 40
0.500000
 50
180.000000
 51
270.000000
  0
ARC
  8
CSLAYER1
  6
CONTINUOUS
 62
     2
 10
2761.486156
 20
1930.858881
 40
0.500000
 50
270.000000
 51
360.000000
  0
ARC
  8
CSLAYER1
  6
CONTINUOUS
 62
     2
 10
2748.486156
 20
1965.858881
 40
1.500000
 50
90.000000
 51
180.000000
  0
ARC
  8
CSLAYER1
  6
CONTINUOUS
 62
     2
 10
2761.486156
 20
1965.858881
 40
1.500000
 50
-0.000000
 51
90.000000
  0
ARC
  8
CSLAYER1
  6
CONTINUOUS
 62
     2
 10
2748.486156
 20
1930.858881
 40
1.500000
 50
180.000000
 51
270.000000
  0
ARC
  8
CSLAYER1
  6
CONTINUOUS
 62
     2
 10
2761.486156
 20
1930.858881
 40
1.500000
 50
270.000000
 51
360.000000
  0
LINE
  8
CSLAYER1
  6
CONTINUOUS
 62
     2
 10
2757.459086
 20
1957.358881
 11
2757.459086
 21
1939.358881
  0
LINE
  8
CSLAYER1
  6
CONTINUOUS
 62
     2
 10
2760.537158
 20
1948.358881
 11
2757.459086
 21
1939.358881
  0
LINE
  8
CSLAYER1
  6
CONTINUOUS
 62
     2
 10
2760.537158
 20
1948.358881
 11
2757.459086
 21
1957.358881
  0
TEXT
  8
CSLAYER1
 62
     2
 10
2755.849014
 20
1933.661162
 40
6.383575
 41
1.255870
  1
DOWN
 50
90.000000
 51
0.000000
  7
EASYDRAW_FONT
 72
     5
 11
2755.849014
 21
1963.056611
  0
ENDBLK
  8
0
  0
ENDSEC
  0
SECTION
  2
ENTITIES
  0
LINE
  8
CSLAYER1
  6
CONTINUOUS
 62
     3
 10
118.051807
 20
2400.454119
 11
118.051807
 21
51.907189
  0
LINE
  8
CSLAYER1
  6
CONTINUOUS
 62
     3
 10
3440.625117
 20
2400.454119
 11
118.051807
 21
2400.454119
  0
LINE
  8
CSLAYER1
  6
CONTINUOUS
 62
     3
 10
3440.625117
 20
2400.454119
 11
3440.625117
 21
51.907189
  0
LINE
  8
CSLAYER1
  6
CONTINUOUS
 62
     3
 10
3440.625117
 20
51.907189
 11
118.051807
 21
51.907189
  0
LINE
  8
CSLAYER1
  6
CONTINUOUS
 62
     5
 10
68.051807
 20
1211.907189
 11
18.051807
 21
1211.907189
  0
LINE
  8
CSLAYER1
  6
CONTINUOUS
 62
     5
 10
2640.625117
 20
491.907189
 11
3440.625117
 21
491.907189
  0
LINE
  8
CSLAYER1
  6
CONTINUOUS
 62
     5
 10
2640.625117
 20
131.907189
 11
3440.625117
 21
131.907189
  0
LINE
  8
CSLAYER1
  6
CONTINUOUS
 62
     5
 10
2640.625117
 20
291.907189
 11
3440.625117
 21
291.907189
  0
LINE
  8
CSLAYER1
  6
CONTINUOUS
 62
     5
 10
2640.625117
 20
351.907189
 11
3440.625117
 21
351.907189
  0
LINE
  8
CSLAYER1
  6
CONTINUOUS
 62
     5
 10
2640.625117
 20
411.907189
 11
3440.625117
 21
411.907189
  0
LINE
  8
CSLAYER1
  6
CONTINUOUS
 62
     5
 10
2640.625117
 20
571.907189
 11
3440.625117
 21
571.907189
  0
LINE
  8
CSLAYER1
  6
CONTINUOUS
 62
     5
 10
2640.625117
 20
651.907189
 11
2640.625117
 21
51.907189
  0
LINE
  8
CSLAYER1
  6
CONTINUOUS
 62
     5
 10
2840.625117
 20
651.907189
 11
2840.625117
 21
411.907189
  0
LINE
  8
CSLAYER1
  6
CONTINUOUS
 62
     5
 10
2640.625117
 20
651.907189
 11
3440.625117
 21
651.907189
  0
LINE
  8
CSLAYER1
  6
CONTINUOUS
 62
     5
 10
3140.625117
 20
411.907189
 11
3140.625117
 21
131.907189
  0
TEXT
  8
CSLAYER1
 62
     3
 10
2860.316219
 20
60.469913
 40
59.380363
 41
1.003345
  1
東正車輌株式会社
 50
0.000000
 51
0.000000
  7
EASYDRAW_FONT
 72
     5
 11
3317.088566
 21
60.469913
  0
LINE
  8
CSLAYER1
  6
CONTINUOUS
 62
     5
 10
2890.625117
 20
351.907189
 11
2890.625117
 21
131.907189
  0
TEXT
  8
CSLAYER1
 62
     5
 10
2670.625000
 20
586.907166
 40
50.000000
 41
1.050000
  1
品　名
 50
0.000000
 51
0.000000
  7
EASYDRAW_FONT
 72
     5
 11
2810.625000
 21
586.907166
  0
TEXT
  8
CSLAYER1
 62
     5
 10
2670.625000
 20
506.907166
 40
50.000000
 41
1.050000
  1
型　式
 50
0.000000
 51
0.000000
  7
EASYDRAW_FONT
 72
     5
 11
2810.625000
 21
506.907166
  0
TEXT
  8
CSLAYER1
 62
     5
 10
2645.625000
 20
426.907196
 40
50.000000
 41
1.036364
  1
図面番号
 50
0.000000
 51
0.000000
  7
EASYDRAW_FONT
 72
     5
 11
2835.625000
 21
426.907196
  0
TEXT
  8
CSLAYER1
 62
     5
 10
3220.625000
 20
356.907196
 40
50.000000
 41
1.050000
  1
Ｂ－４
 50
0.000000
 51
0.000000
  7
EASYDRAW_FONT
 72
     5
 11
3360.625000
 21
356.907196
  0
TEXT
  8
CSLAYER1
 62
     5
 10
2695.625000
 20
296.907196
 40
50.000000
 41
1.050000
  1
検　図
 50
0.000000
 51
0.000000
  7
EASYDRAW_FONT
 72
     5
 11
2835.625000
 21
296.907196
  0
TEXT
  8
CSLAYER1
 62
     5
 10
2945.625000
 20
296.907196
 40
50.000000
 41
1.050000
  1
作　図
 50
0.000000
 51
0.000000
  7
EASYDRAW_FONT
 72
     5
 11
3085.625000
 21
296.907196
  0
TEXT
  8
CSLAYER1
 62
     5
 10
3220.625000
 20
296.907196
 40
50.000000
 41
1.050000
  1
尺　度
 50
0.000000
 51
0.000000
  7
EASYDRAW_FONT
 72
     5
 11
3360.625000
 21
296.907196
  0
TEXT
  8
CSLAYER1
 62
     5
 10
3321.363770
 20
146.392456
 40
50.000000
 41
1.080000
  1
１０
 50
0.000000
 51
0.000000
  7
EASYDRAW_FONT
 72
     5
 11
3411.363770
 21
146.392456
  0
TEXT
  8
CSLAYER1
 62
     5
 10
3301.044189
 20
194.097153
 40
50.000000
 41
1.200000
  1
／
 50
0.000000
 51
0.000000
  7
EASYDRAW_FONT
 72
     5
 11
3341.044189
 21
194.097153
  0
TEXT
  8
CSLAYER1
 62
     5
 10
3270.831299
 20
229.080597
 40
50.000000
 41
1.200000
  1
１
 50
0.000000
 51
0.000000
  7
EASYDRAW_FONT
 72
     5
 11
3310.831299
 21
229.080597
  0
TEXT
  8
CSLAYER1
 62
     3
 10
2980.625000
 20
586.907166
 40
50.000000
 41
0.834783
  1
ゴールドリフター
 50
0.000000
 51
0.000000
  7
EASYDRAW_FONT
 72
     5
 11
3300.625000
 21
586.907166
  0
TEXT
  8
CSLAYER1
 62
     3
 10
2880.625000
 20
506.907166
 40
50.000000
 41
0.821053
  1
ＧＬＩ－３００－０７１２Ｊ
 50
0.000000
 51
0.000000
  7
EASYDRAW_FONT
 72
     5
 11
3400.625000
 21
506.907166
  0
TEXT
  8
CSLAYER1
 62
     3
 10
3040.625000
 20
426.907196
 40
50.000000
 41
0.857143
  1
GI-12
 50
0.000000
 51
0.000000
  7
EASYDRAW_FONT
 72
     5
 11
3240.625000
 21
426.907196
  0
INSERT
  8
CSLAYER1
  2
BLKF0000
 10
0.0
 20
0.0
 30
0.0
  0
TEXT
  8
CSLAYER1
 62
     5
 10
2989.239731
 20
1707.616099
 40
30.726297
 41
0.846359
  1
GLI-300-0712J
 50
0.000000
 51
0.000000
  7
EASYDRAW_FONT
 72
     5
 11
3318.642593
 21
1707.616099
  0
LINE
  8
CSLAYER1
  6
CONTINUOUS
 62
     5
 10
3342.311850
 20
1700.700814
 11
2729.570211
 21
1700.700814
  0
LINE
  8
CSLAYER1
  6
CONTINUOUS
 62
     5
 10
3342.311850
 20
1646.300816
 11
2729.570211
 21
1646.300816
  0
LINE
  8
CSLAYER1
  6
CONTINUOUS
 62
     5
 10
3342.311850
 20
1591.900817
 11
2729.570211
 21
1591.900817
  0
LINE
  8
CSLAYER1
  6
CONTINUOUS
 62
     5
 10
3342.311850
 20
1537.500818
 11
2730.311866
 21
1537.500818
  0
LINE
  8
CSLAYER1
  6
CONTINUOUS
 62
     5
 10
3342.311850
 20
1483.100820
 11
2729.570211
 21
1483.100820
  0
LINE
  8
CSLAYER1
  6
CONTINUOUS
 62
     5
 10
3342.311850
 20
1428.700821
 11
2729.570211
 21
1428.700821
  0
LINE
  8
CSLAYER1
  6
CONTINUOUS
 62
     5
 10
3342.311850
 20
1374.300823
 11
2729.570211
 21
1374.300823
  0
LINE
  8
CSLAYER1
  6
CONTINUOUS
 62
     5
 10
3342.311850
 20
1319.900824
 11
2729.570211
 21
1319.900824
  0
LINE
  8
CSLAYER1
  6
CONTINUOUS
 62
     5
 10
3342.311850
 20
1211.100827
 11
2729.570211
 21
1211.100827
  0
LINE
  8
CSLAYER1
  6
CONTINUOUS
 62
     5
 10
3342.311850
 20
1156.700828
 11
2729.570211
 21
1156.700828
  0
LINE
  8
CSLAYER1
  6
CONTINUOUS
 62
     5
 10
3342.311850
 20
1102.300829
 11
2729.570211
 21
1102.300829
  0
TEXT
  8
CSLAYER1
 62
     3
 10
2896.853270
 20
1769.146729
 40
34.000000
 41
0.857143
  1
仕   様
 50
0.000000
 51
0.000000
  7
EASYDRAW_FONT
 72
     5
 11
3032.853273
 21
1769.146729
  0
TEXT
  8
CSLAYER1
 62
     3
 10
2738.715916
 20
1707.690186
 40
34.000000
 41
0.847059
  1
型    式
 50
0.000000
 51
0.000000
  7
EASYDRAW_FONT
 72
     5
 11
2901.915920
 21
1707.690186
  0
TEXT
  8
CSLAYER1
 62
     3
 10
2737.169285
 20
1603.573975
 40
34.000000
 41
0.847059
  1
テーブル寸法
 50
0.000000
 51
0.000000
  7
EASYDRAW_FONT
 72
     5
 11
2900.369289
 21
1603.573975
  0
TEXT
  8
CSLAYER1
 62
     3
 10
2738.715916
 20
1549.969482
 40
34.000000
 41
0.847059
  1
テーブル高サ
 50
0.000000
 51
0.000000
  7
EASYDRAW_FONT
 72
     5
 11
2901.915920
 21
1549.969482
  0
TEXT
  8
CSLAYER1
 62
     3
 10
2739.945555
 20
1494.819092
 40
34.000000
 41
0.857143
  1
ストローク
 50
0.000000
 51
0.000000
  7
EASYDRAW_FONT
 72
     5
 11
2875.945559
 21
1494.819092
  0
TEXT
  8
CSLAYER1
 62
     3
 10
2739.430418
 20
1439.668701
 40
34.000000
 41
0.857143
  1
全   長
 50
0.000000
 51
0.000000
  7
EASYDRAW_FONT
 72
     5
 11
2875.430422
 21
1439.668701
  0
TEXT
  8
CSLAYER1
 62
     3
 10
2741.360838
 20
1383.695557
 40
34.000000
 41
0.857143
  1
全   巾
 50
0.000000
 51
0.000000
  7
EASYDRAW_FONT
 72
     5
 11
2877.360842
 21
1383.695557
  0
TEXT
  8
CSLAYER1
 62
     3
 10
2740.036863
 20
1329.393311
 40
34.000000
 41
0.857143
  1
全   高
 50
0.000000
 51
0.000000
  7
EASYDRAW_FONT
 72
     5
 11
2876.036867
 21
1329.393311
  0
TEXT
  8
CSLAYER1
 62
     3
 10
2740.036863
 20
1276.415527
 40
34.000000
 41
0.857143
  1
リフト方式
 50
0.000000
 51
0.000000
  7
EASYDRAW_FONT
 72
     5
 11
2876.036867
 21
1276.415527
  0
TEXT
  8
CSLAYER1
 62
     3
 10
2739.067528
 20
1110.761108
 40
34.000000
 41
0.872727
  1
モーター
 50
0.000000
 51
0.000000
  7
EASYDRAW_FONT
 72
     5
 11
2847.867531
 21
1110.761108
  0
LINE
  8
CSLAYER1
  6
CONTINUOUS
 62
     5
 10
3342.311850
 20
1047.900831
 11
2729.570211
 21
1047.900831
  0
LINE
  8
CSLAYER1
  6
CONTINUOUS
 62
     5
 10
3342.311850
 20
939.100833
 11
2727.752484
 21
939.100833
  0
LINE
  8
CSLAYER1
  6
CONTINUOUS
 62
     5
 10
3342.311850
 20
884.700835
 11
2729.570211
 21
884.700835
  0
LINE
  8
CSLAYER1
  6
CONTINUOUS
 62
     5
 10
3342.311850
 20
830.300836
 11
2729.570211
 21
830.300836
  0
LINE
  8
CSLAYER1
  6
CONTINUOUS
 62
     5
 10
3342.311850
 20
775.900838
 11
2729.570211
 21
775.900838
  0
TEXT
  8
CSLAYER1
 62
     3
 10
2741.261717
 20
839.754272
 40
34.000000
 41
0.857143
  1
自  　重
 50
0.000000
 51
0.000000
  7
EASYDRAW_FONT
 72
     5
 11
2877.261721
 21
839.754272
  0
TEXT
  8
CSLAYER1
 62
     3
 10
2738.630222
 20
785.915649
 40
34.000000
 41
0.847059
  1
塗　装　色 
 50
0.000000
 51
0.000000
  7
EASYDRAW_FONT
 72
     5
 11
2901.830227
 21
785.915649
  0
TEXT
  8
CSLAYER1
 62
     3
 10
3124.124901
 20
1655.422607
 40
34.000000
 41
0.872727
  1
 300
 50
0.000000
 51
0.000000
  7
EASYDRAW_FONT
 72
     5
 11
3232.924904
 21
1655.422607
  0
TEXT
  8
CSLAYER1
 62
     3
 10
3282.358105
 20
1652.300049
 40
34.000000
 41
0.960000
  1
Ｋｇ
 50
0.000000
 51
0.000000
  7
EASYDRAW_FONT
 72
     5
 11
3336.758106
 21
1652.300049
  0
TEXT
  8
CSLAYER1
 62
     3
 10
2960.909420
 20
1600.555908
 40
34.000000
 41
0.827586
  1
1200L×750W
 50
0.000000
 51
0.000000
  7
EASYDRAW_FONT
 72
     5
 11
3232.909428
 21
1600.555908
  0
TEXT
  8
CSLAYER1
 62
     3
 10
3038.778025
 20
1547.441162
 40
34.000000
 41
0.840000
  1
155～945
 50
0.000000
 51
0.000000
  7
EASYDRAW_FONT
 72
     5
 11
3229.178030
 21
1547.441162
  0
TEXT
  8
CSLAYER1
 62
     3
 10
3146.087450
 20
1493.317139
 40
34.000000
 41
0.900000
  1
790
 50
0.000000
 51
0.000000
  7
EASYDRAW_FONT
 72
     5
 11
3227.687452
 21
1493.317139
  0
TEXT
  8
CSLAYER1
 62
     3
 10
3118.985985
 20
1435.836670
 40
34.000000
 41
0.872727
  1
1200
 50
0.000000
 51
0.000000
  7
EASYDRAW_FONT
 72
     5
 11
3227.785988
 21
1435.836670
  0
TEXT
  8
CSLAYER1
 62
     3
 10
3147.888720
 20
1384.440674
 40
34.000000
 41
0.900000
  1
750
 50
0.000000
 51
0.000000
  7
EASYDRAW_FONT
 72
     5
 11
3229.488722
 21
1384.440674
  0
TEXT
  8
CSLAYER1
 62
     3
 10
2970.418209
 20
1277.227051
 40
34.000000
 41
0.827586
  1
電 動 ボールネジ式
 50
0.000000
 51
0.000000
  7
EASYDRAW_FONT
 72
     5
 11
3242.418217
 21
1277.227051
  0
TEXT
  8
CSLAYER1
 62
     3
 10
2908.307953
 20
1111.540649
 40
34.000000
 41
0.817021
  1
ＡＣ２００Ｖ，３相, 0.2ＫＷ
 50
0.000000
 51
0.000000
  7
EASYDRAW_FONT
 72
     5
 11
3343.507965
 21
1111.540649
  0
TEXT
  8
CSLAYER1
 62
     3
 10
3046.843699
 20
1057.273560
 40
34.000000
 41
0.840000
  1
長サ  ４ ｍ
 50
0.000000
 51
0.000000
  7
EASYDRAW_FONT
 72
     5
 11
3237.243704
 21
1057.273560
  0
TEXT
  8
CSLAYER1
 62
     3
 10
3128.987497
 20
841.368774
 40
34.000000
 41
0.840000
  1
141 　Ｋｇ
 50
0.000000
 51
0.000000
  7
EASYDRAW_FONT
 72
     5
 11
3319.387503
 21
841.368774
  0
TEXT
  8
CSLAYER1
 62
     3
 10
3146.181444
 20
1329.478760
 40
34.000000
 41
0.900000
  1
155
 50
0.000000
 51
0.000000
  7
EASYDRAW_FONT
 72
     5
 11
3227.781446
 21
1329.478760
  0
TEXT
  8
CSLAYER1
 62
     3
 10
3280.221142
 20
1597.812256
 40
34.000000
 41
0.960000
  1
mm
 50
0.000000
 51
0.000000
  7
EASYDRAW_FONT
 72
     5
 11
3334.621143
 21
1597.812256
  0
TEXT
  8
CSLAYER1
 62
     3
 10
3280.221142
 20
1546.529053
 40
34.000000
 41
0.960000
  1
mm
 50
0.000000
 51
0.000000
  7
EASYDRAW_FONT
 72
     5
 11
3334.621143
 21
1546.529053
  0
TEXT
  8
CSLAYER1
 62
     3
 10
3277.016064
 20
1492.040771
 40
34.000000
 41
0.960000
  1
mm
 50
0.000000
 51
0.000000
  7
EASYDRAW_FONT
 72
     5
 11
3331.416065
 21
1492.040771
  0
TEXT
  8
CSLAYER1
 62
     3
 10
3277.016064
 20
1434.346924
 40
34.000000
 41
0.960000
  1
mm
 50
0.000000
 51
0.000000
  7
EASYDRAW_FONT
 72
     5
 11
3331.416065
 21
1434.346924
  0
TEXT
  8
CSLAYER1
 62
     3
 10
3274.879589
 20
1383.064209
 40
34.000000
 41
0.960000
  1
mm
 50
0.000000
 51
0.000000
  7
EASYDRAW_FONT
 72
     5
 11
3329.279591
 21
1383.064209
  0
TEXT
  8
CSLAYER1
 62
     3
 10
3274.879589
 20
1328.574951
 40
34.000000
 41
0.960000
  1
mm
 50
0.000000
 51
0.000000
  7
EASYDRAW_FONT
 72
     5
 11
3329.279591
 21
1328.574951
  0
LINE
  8
CSLAYER1
  6
CONTINUOUS
 62
     5
 10
3056.698287
 20
1755.700814
 11
2879.570211
 21
1755.700814
  0
LINE
  8
CSLAYER1
  6
CONTINUOUS
 62
     5
 10
3056.698287
 20
1762.500814
 11
2879.570211
 21
1762.500814
  0
TEXT
  8
CSLAYER1
 62
     3
 10
2742.112156
 20
1165.064087
 40
34.000000
 41
1.036364
  1
操作方式
 50
0.000000
 51
0.000000
  7
EASYDRAW_FONT
 72
     5
 11
2871.312160
 21
1165.064087
  0
LINE
  8
CSLAYER1
  6
CONTINUOUS
 62
     5
 10
3342.311850
 20
993.500832
 11
2729.570211
 21
993.500832
  0
TEXT
  8
CSLAYER1
 62
     3
 10
2739.846238
 20
1056.941528
 40
34.000000
 41
0.942857
  1
電源コード
 50
0.000000
 51
0.000000
  7
EASYDRAW_FONT
 72
     5
 11
2889.446242
 21
1056.941528
  0
TEXT
  8
CSLAYER1
 62
     3
 10
2973.162886
 20
785.223267
 40
34.000000
 41
0.920690
  1
　　　１０Ｒ４／１３
 50
0.000000
 51
0.000000
  7
EASYDRAW_FONT
 72
     5
 11
3275.762895
 21
785.223267
  0
TEXT
  8
CSLAYER1
 62
     3
 10
3005.419772
 20
1166.060669
 40
34.000000
 41
1.020000
  1
フットスイッチ
 50
0.000000
 51
0.000000
  7
EASYDRAW_FONT
 72
     5
 11
3236.619779
 21
1166.060669
  0
LINE
  8
CSLAYER1
  6
CONTINUOUS
 62
     3
 10
2622.554956
 20
417.257879
 11
128.186506
 21
417.257879
  0
TEXT
  8
CSLAYER1
 62
     4
 10
2740.210768
 20
998.188173
 40
40.570675
 41
0.593339
  1
昇降時間 ２８秒（50HZ） ２４秒(60HZ)
 50
0.000000
 51
0.000000
  7
EASYDRAW_FONT
 72
     5
 11
3309.919114
 21
998.188173
  0
TEXT
  8
CSLAYER1
 62
     4
 10
2740.968108
 20
892.862915
 40
34.000000
 41
0.912766
  1
上昇端、下降端リミットスイッチ付
 50
0.000000
 51
0.000000
  7
EASYDRAW_FONT
 72
     5
 11
3227.168122
 21
892.862915
  0
TEXT
  8
CSLAYER1
 62
     5
 10
2557.230385
 20
417.257874
 40
29.942631
 41
0.818121
  1
Ｆ.Ｌ
 50
0.000000
 51
0.000000
  7
EASYDRAW_FONT
 72
     5
 11
2622.554932
 21
417.257874
  0
LINE
  8
CSLAYER1
  6
CONTINUOUS
 62
     3
 10
2380.775454
 20
1833.698603
 11
2390.756512
 21
1833.698603
  0
LINE
  8
CSLAYER1
  6
CONTINUOUS
 62
     3
 10
2380.775454
 20
1840.698603
 11
2390.756512
 21
1840.698603
  0
TEXT
  8
CSLAYER1
 62
     5
 10
2953.322021
 20
2052.987549
 40
40.000000
 41
1.020000
  1
ＵＰ・ＤＯＷＮ
 50
360.000000
 51
0.000000
  7
EASYDRAW_FONT
 72
     5
 11
3225.322021
 21
2052.987549
  0
TEXT
  8
CSLAYER1
 62
     5
 10
2953.322021
 20
2104.764404
 40
40.000000
 41
1.020000
  1
フットスイッチ
 50
360.000000
 51
0.000000
  7
EASYDRAW_FONT
 72
     5
 11
3225.322021
 21
2104.764404
  0
TEXT
  8
CSLAYER1
 62
     5
 10
2891.992920
 20
2198.950439
 40
40.000000
 41
1.036364
  1
長サ４ｍ
 50
360.000000
 51
0.000000
  7
EASYDRAW_FONT
 72
     5
 11
3043.992920
 21
2198.950439
  0
TEXT
  8
CSLAYER1
 62
     5
 10
2879.058594
 20
2250.933838
 40
40.000000
 41
1.028571
  1
電源コード
 50
360.000000
 51
0.000000
  7
EASYDRAW_FONT
 72
     5
 11
3071.058594
 21
2250.933838
  0
LINE
  8
CSLAYER1
  6
CONTINUOUS
 62
     3
 10
2617.423771
 20
1996.858881
 11
2731.486156
 21
1996.858881
  0
LINE
  8
CSLAYER1
  6
CONTINUOUS
 62
     3
 10
2617.423771
 20
1989.858881
 11
2731.486156
 21
1989.858881
  0
ARC
  8
CSLAYER1
  6
CONTINUOUS
 62
     3
 10
2617.423771
 20
1949.858881
 40
40.000000
 50
-270.000000
 51
63.051119
  0
ARC
  8
CSLAYER1
  6
CONTINUOUS
 62
     3
 10
2617.423771
 20
1949.858881
 40
47.000000
 50
-270.000000
 51
50.026912
  0
LINE
  8
CSLAYER1
  6
CONTINUOUS
 62
     3
 10
2426.286724
 20
1914.766804
 11
2524.735774
 21
2042.214565
  0
LINE
  8
CSLAYER1
  6
CONTINUOUS
 62
     3
 10
2431.826420
 20
1910.487579
 11
2538.042500
 21
2047.990190
  0
LINE
  8
CSLAYER1
  6
CONTINUOUS
 62
     3
 10
2458.579040
 20
1867.213199
 11
2571.453462
 21
1971.389380
  0
LINE
  8
CSLAYER1
  6
CONTINUOUS
 62
     3
 10
2463.326617
 20
1862.069221
 11
2565.979652
 21
1956.811687
  0
ARC
  8
CSLAYER1
  6
CONTINUOUS
 62
     3
 10
2514.664254
 20
2094.608818
 40
47.000000
 50
-10.756396
 51
307.198537
  0
ARC
  8
CSLAYER1
  6
CONTINUOUS
 62
     3
 10
2514.664254
 20
2094.608818
 40
40.000000
 50
-23.471057
 51
307.198537
  0
LINE
  8
CSLAYER1
  6
CONTINUOUS
 62
     3
 10
2724.056420
 20
2194.532894
 11
2719.824369
 21
2200.108712
  0
LINE
  8
CSLAYER1
  6
CONTINUOUS
 62
     3
 10
2719.824369
 20
2200.108712
 11
2538.847405
 21
2062.747004
  0
LINE
  8
CSLAYER1
  6
CONTINUOUS
 62
     3
 10
2724.056420
 20
2194.532894
 11
2543.079457
 21
2057.171186
  0
ARC
  8
CSLAYER1
  6
CONTINUOUS
 62
     3
 10
2347.148218
 20
1975.898603
 40
100.000000
 50
289.649928
 51
322.315137
  0
ARC
  8
CSLAYER1
  6
CONTINUOUS
 62
     3
 10
2347.148218
 20
1975.898603
 40
107.000000
 50
288.316945
 51
322.315137
  0
ARC
  8
CSLAYER1
  6
CONTINUOUS
 62
     3
 10
2390.756512
 20
1940.698603
 40
100.000000
 50
270.000000
 51
312.705116
  0
ARC
  8
CSLAYER1
  6
CONTINUOUS
 62
     3
 10
2390.756512
 20
1940.698603
 40
107.000000
 50
270.000000
 51
312.705116
  0
LINE
  8
CSLAYER1
  6
CONTINUOUS
 62
     5
 10
2762.939975
 20
2213.102744
 11
2866.252347
 21
2244.944822
  0
LINE
  8
CSLAYER1
  6
CONTINUOUS
 62
     5
 10
2762.939975
 20
2213.102744
 11
2788.345307
 21
2229.057965
  0
LINE
  8
CSLAYER1
  6
CONTINUOUS
 62
     5
 10
2762.939975
 20
2213.102744
 11
2792.919249
 21
2214.217704
  0
LINE
  8
CSLAYER1
  6
CONTINUOUS
 62
     5
 10
2866.252347
 20
2244.944822
 11
3082.312820
 21
2244.944822
  0
LINE
  8
CSLAYER1
  6
CONTINUOUS
 62
     5
 10
2942.250469
 20
2098.637906
 11
3231.495266
 21
2098.637906
  0
LINE
  8
CSLAYER1
  6
CONTINUOUS
 62
     5
 10
2879.835795
 20
2063.162736
 11
2942.250469
 21
2098.637906
  0
LINE
  8
CSLAYER1
  6
CONTINUOUS
 62
     5
 10
2879.835795
 20
2063.162736
 11
2901.191805
 21
2084.232165
  0
LINE
  8
CSLAYER1
  6
CONTINUOUS
 62
     5
 10
2879.835795
 20
2063.162736
 11
2908.865357
 21
2070.731391
  0
LINE
  8
CSLAYER1
  6
CENTER
 62
     5
 10
1161.879044
 20
1902.340004
 11
2380.775454
 21
1902.340004
  0
LINE
  8
CSLAYER1
  6
CENTER
 62
     5
 10
1261.775454
 20
441.757879
 11
1296.914486
 21
441.757879
  0
LINE
  8
CSLAYER1
  6
CENTER
 62
     5
 10
1277.775454
 20
457.314142
 11
1277.775454
 21
425.757879
  0
LINE
  8
CSLAYER1
  6
CENTER
 62
     5
 10
519.378809
 20
1397.932438
 11
519.378809
 21
397.561218
  0
LINE
  8
CSLAYER1
  6
CONTINUOUS
 62
     3
 10
2370.775454
 20
467.257879
 11
1190.775454
 21
467.257879
  0
LINE
  8
CSLAYER1
  6
CONTINUOUS
 62
     3
 10
144.378809
 20
1377.197328
 11
894.378809
 21
1377.197328
  0
LINE
  8
CSLAYER1
  6
CONTINUOUS
 62
     3
 10
144.378809
 20
1332.197328
 11
894.378809
 21
1332.197328
  0
LINE
  8
CSLAYER1
  6
CONTINUOUS
 62
     3
 10
169.378809
 20
467.257879
 11
869.378809
 21
467.257879
  0
LINE
  8
CSLAYER1
  6
CONTINUOUS
 62
     3
 10
219.378809
 20
417.257879
 11
219.378809
 21
467.257879
  0
LINE
  8
CSLAYER1
  6
CONTINUOUS
 62
     3
 10
819.378809
 20
417.257879
 11
819.378809
 21
467.257879
  0
POINT
  8
CSLAYER1
 62
     7
 10
1781.295698
 20
441.757879
  0
LINE
  8
CSLAYER1
  6
CENTER
 62
     5
 10
2325.977120
 20
497.557879
 11
2270.401537
 21
497.557879
  0
LINE
  8
CSLAYER1
  6
DASHED
 62
     5
 10
2323.420445
 20
501.357879
 11
2302.975454
 21
501.357879
  0
LINE
  8
CSLAYER1
  6
DASHED
 62
     5
 10
2326.261195
 20
493.757879
 11
2302.975454
 21
493.757879
  0
LINE
  8
CSLAYER1
  6
CONTINUOUS
 62
     4
 10
1243.775454
 20
461.257879
 11
1243.775454
 21
417.257879
  0
LINE
  8
CSLAYER1
  6
CONTINUOUS
 62
     4
 10
2293.775454
 20
461.257879
 11
2293.775454
 21
417.257879
  0
CIRCLE
  8
CSLAYER1
  6
DASHED
 62
     5
 10
1781.295698
 20
441.757879
 40
18.500000
  0
LINE
  8
CSLAYER1
  6
CENTER
 62
     5
 10
1781.215478
 20
462.073551
 11
1781.372790
 21
422.234289
  0
LINE
  8
CSLAYER1
  6
CENTER
 62
     5
 10
1759.008333
 20
441.669874
 11
1802.769133
 21
441.842671
  0
CIRCLE
  8
CSLAYER1
  6
DASHED
 62
     5
 10
1781.295698
 20
441.757879
 40
6.000000
  0
CIRCLE
  8
CSLAYER1
  6
DASHED
 62
     5
 10
1781.295698
 20
441.757879
 40
8.000000
  0
POINT
  8
CSLAYER1
 62
     5
 10
1781.295698
 20
441.757879
  0
LINE
  8
CSLAYER1
  6
CONTINUOUS
 62
     5
 10
1343.719793
 20
743.263186
 11
1181.611122
 21
912.553887
  0
LINE
  8
CSLAYER1
  6
CONTINUOUS
 62
     5
 10
1343.719793
 20
743.263186
 11
1318.070131
 21
758.822583
  0
LINE
  8
CSLAYER1
  6
CONTINUOUS
 62
     5
 10
1343.719793
 20
743.263186
 11
1329.286233
 21
769.562850
  0
LINE
  8
CSLAYER1
  6
CONTINUOUS
 62
     5
 10
730.378809
 20
521.966505
 11
918.979777
 21
658.145989
  0
LINE
  8
CSLAYER1
  6
CONTINUOUS
 62
     5
 10
730.378809
 20
521.966505
 11
749.327026
 21
545.225161
  0
LINE
  8
CSLAYER1
  6
CONTINUOUS
 62
     5
 10
730.378809
 20
521.966505
 11
758.417774
 21
532.634984
  0
DIMENSION
  8
CSLAYER1
 62
     7
  2
*D0000
 10
2456.818426
 20
572.257879
 11
2446.818604
 21
494.757996
 13
2293.775454
 23
417.257879
 14
2297.575454
 24
572.257879
 50
90.000000
  0
DIMENSION
  8
CSLAYER1
 62
     7
  2
*D0001
 10
2456.818426
 20
1377.197328
 11
2446.818604
 21
974.727417
 13
2297.575454
 23
572.257879
 14
2297.575454
 24
1377.197328
 50
90.000000
 70
1
  0
LINE
  8
CSLAYER1
  6
CONTINUOUS
 62
     3
 10
1240.775454
 20
589.376397
 11
1190.775454
 21
619.738741
  0
LINE
  8
CSLAYER1
  6
CONTINUOUS
 62
     3
 10
1190.775454
 20
619.738741
 11
1240.775454
 21
650.101084
  0
LINE
  8
CSLAYER1
  6
CONTINUOUS
 62
     3
 10
1240.775454
 20
650.101084
 11
1190.775454
 21
680.463428
  0
LINE
  8
CSLAYER1
  6
CONTINUOUS
 62
     3
 10
1190.775454
 20
680.463428
 11
1240.775454
 21
710.825771
  0
LINE
  8
CSLAYER1
  6
CONTINUOUS
 62
     3
 10
1240.775454
 20
710.825771
 11
1190.775454
 21
741.188115
  0
LINE
  8
CSLAYER1
  6
CONTINUOUS
 62
     3
 10
1190.775454
 20
741.188115
 11
1240.775454
 21
771.550458
  0
LINE
  8
CSLAYER1
  6
CONTINUOUS
 62
     3
 10
1240.775454
 20
771.550458
 11
1190.775454
 21
801.912802
  0
LINE
  8
CSLAYER1
  6
CONTINUOUS
 62
     3
 10
1190.775454
 20
801.912802
 11
1240.775454
 21
832.275145
  0
LINE
  8
CSLAYER1
  6
CONTINUOUS
 62
     3
 10
1240.775454
 20
832.275145
 11
1190.775454
 21
862.637489
  0
LINE
  8
CSLAYER1
  6
CONTINUOUS
 62
     3
 10
1190.775454
 20
862.637489
 11
1240.775454
 21
892.999832
  0
LINE
  8
CSLAYER1
  6
CONTINUOUS
 62
     3
 10
1240.775454
 20
892.999832
 11
1190.775454
 21
923.362176
  0
LINE
  8
CSLAYER1
  6
CONTINUOUS
 62
     3
 10
1190.775454
 20
923.362176
 11
1240.775454
 21
953.724519
  0
LINE
  8
CSLAYER1
  6
CONTINUOUS
 62
     3
 10
1240.775454
 20
953.724519
 11
1190.775454
 21
984.086863
  0
LINE
  8
CSLAYER1
  6
CONTINUOUS
 62
     3
 10
1190.775454
 20
984.086863
 11
1240.775454
 21
1014.449206
  0
LINE
  8
CSLAYER1
  6
CONTINUOUS
 62
     3
 10
1240.775454
 20
1014.449206
 11
1190.775454
 21
1044.811550
  0
LINE
  8
CSLAYER1
  6
CONTINUOUS
 62
     3
 10
1190.775454
 20
1044.811550
 11
1240.775454
 21
1075.173893
  0
LINE
  8
CSLAYER1
  6
CONTINUOUS
 62
     3
 10
1240.775454
 20
1075.173893
 11
1190.775454
 21
1105.536237
  0
LINE
  8
CSLAYER1
  6
CONTINUOUS
 62
     3
 10
1190.775454
 20
1105.536237
 11
1240.775454
 21
1135.898580
  0
LINE
  8
CSLAYER1
  6
CONTINUOUS
 62
     3
 10
1240.775454
 20
1135.898580
 11
1190.775454
 21
1166.260924
  0
LINE
  8
CSLAYER1
  6
CONTINUOUS
 62
     3
 10
1190.775454
 20
1166.260924
 11
1240.775454
 21
1196.623267
  0
LINE
  8
CSLAYER1
  6
CONTINUOUS
 62
     3
 10
1240.775454
 20
1196.623267
 11
1190.775454
 21
1226.985611
  0
LINE
  8
CSLAYER1
  6
CONTINUOUS
 62
     3
 10
1190.775454
 20
1226.985611
 11
1240.775454
 21
1257.347954
  0
LINE
  8
CSLAYER1
  6
CONTINUOUS
 62
     3
 10
1240.775454
 20
1257.347954
 11
1190.775454
 21
1287.710298
  0
LINE
  8
CSLAYER1
  6
CONTINUOUS
 62
     3
 10
1190.775454
 20
1287.710298
 11
1240.775454
 21
1318.072641
  0
LINE
  8
CSLAYER1
  6
CONTINUOUS
 62
     3
 10
1240.775454
 20
1318.072641
 11
1217.515248
 21
1332.197328
  0
LINE
  8
CSLAYER1
  6
CONTINUOUS
 62
     5
 10
918.979777
 20
658.145989
 11
1170.460987
 21
658.145989
  0
LINE
  8
CSLAYER1
  6
CONTINUOUS
 62
     5
 10
1190.775454
 20
1044.811550
 11
1132.482061
 21
1144.650663
  0
LINE
  8
CSLAYER1
  6
CONTINUOUS
 62
     5
 10
1190.775454
 20
1044.811550
 11
1169.459015
 21
1065.921014
  0
LINE
  8
CSLAYER1
  6
CONTINUOUS
 62
     5
 10
1190.775454
 20
1044.811550
 11
1182.869609
 21
1073.751101
  0
LINE
  8
CSLAYER1
  6
CONTINUOUS
 62
     5
 10
1132.482061
 20
1144.650663
 11
894.378809
 21
1144.650663
  0
TEXT
  8
CSLAYER1
 62
     5
 10
943.005493
 20
1154.650513
 40
40.000000
 41
0.794118
  1
４面ジャバラ
 50
0.000000
 51
0.000000
  7
EASYDRAW_FONT
 72
     5
 11
1123.005493
 21
1154.650513
  0
LINE
  8
CSLAYER1
  6
CONTINUOUS
 62
     5
 10
1149.222331
 20
944.615673
 11
911.201573
 21
944.615673
  0
TEXT
  8
CSLAYER1
 62
     5
 10
916.919189
 20
949.372192
 40
40.000000
 41
0.782609
  1
ギヤードモ－ター
 50
0.000000
 51
0.000000
  7
EASYDRAW_FONT
 72
     5
 11
1156.919189
 21
949.372192
  0
LINE
  8
CSLAYER1
  6
CONTINUOUS
 62
     5
 10
1338.203637
 20
747.261778
 11
1149.222331
 21
944.615673
  0
LINE
  8
CSLAYER1
  6
CONTINUOUS
 62
     5
 10
1338.203637
 20
747.261778
 11
1312.553975
 21
762.821175
  0
LINE
  8
CSLAYER1
  6
CONTINUOUS
 62
     5
 10
1338.203637
 20
747.261778
 11
1323.770076
 21
773.561442
  0
TEXT
  8
CSLAYER1
 62
     5
 10
960.035034
 20
715.671814
 40
40.000000
 41
0.803571
  1
上限・下限
 50
0.000000
 51
0.000000
  7
EASYDRAW_FONT
 72
     5
 11
1110.035034
 21
715.671814
  0
TEXT
  8
CSLAYER1
 62
     5
 10
925.090088
 20
664.502869
 40
40.000000
 41
0.782609
  1
リミットスイッチ
 50
0.000000
 51
0.000000
  7
EASYDRAW_FONT
 72
     5
 11
1165.090088
 21
664.502869
  0
LINE
  8
CSLAYER1
  6
CONTINUOUS
 62
     3
 10
1240.775454
 20
467.927023
 11
1190.775454
 21
498.289367
  0
LINE
  8
CSLAYER1
  6
CONTINUOUS
 62
     3
 10
1190.775454
 20
498.289367
 11
1240.775454
 21
528.651710
  0
LINE
  8
CSLAYER1
  6
CONTINUOUS
 62
     3
 10
1240.775454
 20
528.651710
 11
1190.775454
 21
559.014054
  0
LINE
  8
CSLAYER1
  6
CONTINUOUS
 62
     3
 10
1190.775454
 20
559.014054
 11
1240.775454
 21
589.376397
  0
LINE
  8
CSLAYER1
  6
CONTINUOUS
 62
     3
 10
2320.775454
 20
589.376397
 11
2370.775454
 21
619.738741
  0
LINE
  8
CSLAYER1
  6
CONTINUOUS
 62
     3
 10
2370.775454
 20
619.738741
 11
2320.775454
 21
650.101084
  0
LINE
  8
CSLAYER1
  6
CONTINUOUS
 62
     3
 10
2320.775454
 20
650.101084
 11
2370.775454
 21
680.463428
  0
LINE
  8
CSLAYER1
  6
CONTINUOUS
 62
     3
 10
2370.775454
 20
680.463428
 11
2320.775454
 21
710.825771
  0
LINE
  8
CSLAYER1
  6
CONTINUOUS
 62
     3
 10
2320.775454
 20
710.825771
 11
2370.775454
 21
741.188115
  0
LINE
  8
CSLAYER1
  6
CONTINUOUS
 62
     3
 10
2370.775454
 20
741.188115
 11
2320.775454
 21
771.550458
  0
LINE
  8
CSLAYER1
  6
CONTINUOUS
 62
     3
 10
2320.775454
 20
771.550458
 11
2370.775454
 21
801.912802
  0
LINE
  8
CSLAYER1
  6
CONTINUOUS
 62
     3
 10
2370.775454
 20
801.912802
 11
2320.775454
 21
832.275145
  0
LINE
  8
CSLAYER1
  6
CONTINUOUS
 62
     3
 10
2320.775454
 20
832.275145
 11
2370.775454
 21
862.637489
  0
LINE
  8
CSLAYER1
  6
CONTINUOUS
 62
     3
 10
2370.775454
 20
862.637489
 11
2320.775454
 21
892.999832
  0
LINE
  8
CSLAYER1
  6
CONTINUOUS
 62
     3
 10
2320.775454
 20
892.999832
 11
2370.775454
 21
923.362176
  0
LINE
  8
CSLAYER1
  6
CONTINUOUS
 62
     3
 10
2370.775454
 20
923.362176
 11
2320.775454
 21
953.724519
  0
LINE
  8
CSLAYER1
  6
CONTINUOUS
 62
     3
 10
2320.775454
 20
953.724519
 11
2370.775454
 21
984.086863
  0
LINE
  8
CSLAYER1
  6
CONTINUOUS
 62
     3
 10
2370.775454
 20
984.086863
 11
2320.775454
 21
1014.449206
  0
LINE
  8
CSLAYER1
  6
CONTINUOUS
 62
     3
 10
2320.775454
 20
1014.449206
 11
2370.775454
 21
1044.811550
  0
LINE
  8
CSLAYER1
  6
CONTINUOUS
 62
     3
 10
2370.775454
 20
1044.811550
 11
2320.775454
 21
1075.173893
  0
LINE
  8
CSLAYER1
  6
CONTINUOUS
 62
     3
 10
2320.775454
 20
1075.173893
 11
2370.775454
 21
1105.536237
  0
LINE
  8
CSLAYER1
  6
CONTINUOUS
 62
     3
 10
2370.775454
 20
1105.536237
 11
2320.775454
 21
1135.898580
  0
LINE
  8
CSLAYER1
  6
CONTINUOUS
 62
     3
 10
2320.775454
 20
1135.898580
 11
2370.775454
 21
1166.260924
  0
LINE
  8
CSLAYER1
  6
CONTINUOUS
 62
     3
 10
2370.775454
 20
1166.260924
 11
2320.775454
 21
1196.623267
  0
LINE
  8
CSLAYER1
  6
CONTINUOUS
 62
     3
 10
2320.775454
 20
1196.623267
 11
2370.775454
 21
1226.985611
  0
LINE
  8
CSLAYER1
  6
CONTINUOUS
 62
     3
 10
2370.775454
 20
1226.985611
 11
2320.775454
 21
1257.347954
  0
LINE
  8
CSLAYER1
  6
CONTINUOUS
 62
     3
 10
2320.775454
 20
1257.347954
 11
2370.775454
 21
1287.710298
  0
LINE
  8
CSLAYER1
  6
CONTINUOUS
 62
     3
 10
2370.775454
 20
1287.710298
 11
2320.775454
 21
1318.072641
  0
LINE
  8
CSLAYER1
  6
CONTINUOUS
 62
     3
 10
2320.775454
 20
467.927023
 11
2370.775454
 21
498.289367
  0
LINE
  8
CSLAYER1
  6
CONTINUOUS
 62
     3
 10
2370.775454
 20
498.289367
 11
2320.775454
 21
528.651710
  0
LINE
  8
CSLAYER1
  6
CONTINUOUS
 62
     3
 10
2320.775454
 20
528.651710
 11
2370.775454
 21
559.014054
  0
LINE
  8
CSLAYER1
  6
CONTINUOUS
 62
     3
 10
2370.775454
 20
559.014054
 11
2320.775454
 21
589.376397
  0
LINE
  8
CSLAYER1
  6
CONTINUOUS
 62
     3
 10
2370.775454
 20
467.257879
 11
2370.775454
 21
461.257879
  0
LINE
  8
CSLAYER1
  6
CONTINUOUS
 62
     3
 10
1190.775454
 20
461.257879
 11
2370.775454
 21
461.257879
  0
LINE
  8
CSLAYER1
  6
CONTINUOUS
 62
     3
 10
1190.775454
 20
467.257879
 11
1190.775454
 21
461.257879
  0
LINE
  8
CSLAYER1
  6
CONTINUOUS
 62
     3
 10
894.378809
 20
1377.197328
 11
894.378809
 21
1332.197328
  0
LINE
  8
CSLAYER1
  6
CONTINUOUS
 62
     3
 10
869.378809
 20
467.257879
 11
869.378809
 21
461.257879
  0
LINE
  8
CSLAYER1
  6
CONTINUOUS
 62
     3
 10
834.378809
 20
589.376397
 11
884.378809
 21
619.738741
  0
LINE
  8
CSLAYER1
  6
CONTINUOUS
 62
     3
 10
884.378809
 20
619.738741
 11
834.378809
 21
650.101084
  0
LINE
  8
CSLAYER1
  6
CONTINUOUS
 62
     3
 10
834.378809
 20
650.101084
 11
884.378809
 21
680.463428
  0
LINE
  8
CSLAYER1
  6
CONTINUOUS
 62
     3
 10
884.378809
 20
680.463428
 11
834.378809
 21
710.825771
  0
LINE
  8
CSLAYER1
  6
CONTINUOUS
 62
     3
 10
834.378809
 20
710.825771
 11
884.378809
 21
741.188115
  0
LINE
  8
CSLAYER1
  6
CONTINUOUS
 62
     3
 10
884.378809
 20
741.188115
 11
834.378809
 21
771.550458
  0
LINE
  8
CSLAYER1
  6
CONTINUOUS
 62
     3
 10
834.378809
 20
771.550458
 11
884.378809
 21
801.912802
  0
LINE
  8
CSLAYER1
  6
CONTINUOUS
 62
     3
 10
884.378809
 20
801.912802
 11
834.378809
 21
832.275145
  0
LINE
  8
CSLAYER1
  6
CONTINUOUS
 62
     3
 10
834.378809
 20
832.275145
 11
884.378809
 21
862.637489
  0
LINE
  8
CSLAYER1
  6
CONTINUOUS
 62
     3
 10
884.378809
 20
862.637489
 11
834.378809
 21
892.999832
  0
LINE
  8
CSLAYER1
  6
CONTINUOUS
 62
     3
 10
834.378809
 20
892.999832
 11
884.378809
 21
923.362176
  0
LINE
  8
CSLAYER1
  6
CONTINUOUS
 62
     3
 10
884.378809
 20
923.362176
 11
834.378809
 21
953.724519
  0
LINE
  8
CSLAYER1
  6
CONTINUOUS
 62
     3
 10
834.378809
 20
953.724519
 11
884.378809
 21
984.086863
  0
LINE
  8
CSLAYER1
  6
CONTINUOUS
 62
     3
 10
884.378809
 20
984.086863
 11
834.378809
 21
1014.449206
  0
LINE
  8
CSLAYER1
  6
CONTINUOUS
 62
     3
 10
834.378809
 20
1014.449206
 11
884.378809
 21
1044.811550
  0
LINE
  8
CSLAYER1
  6
CONTINUOUS
 62
     3
 10
884.378809
 20
1044.811550
 11
834.378809
 21
1075.173893
  0
LINE
  8
CSLAYER1
  6
CONTINUOUS
 62
     3
 10
834.378809
 20
1075.173893
 11
884.378809
 21
1105.536237
  0
LINE
  8
CSLAYER1
  6
CONTINUOUS
 62
     3
 10
884.378809
 20
1105.536237
 11
834.378809
 21
1135.898580
  0
LINE
  8
CSLAYER1
  6
CONTINUOUS
 62
     3
 10
834.378809
 20
1135.898580
 11
884.378809
 21
1166.260924
  0
LINE
  8
CSLAYER1
  6
CONTINUOUS
 62
     3
 10
884.378809
 20
1166.260924
 11
834.378809
 21
1196.623267
  0
LINE
  8
CSLAYER1
  6
CONTINUOUS
 62
     3
 10
834.378809
 20
1196.623267
 11
884.378809
 21
1226.985611
  0
LINE
  8
CSLAYER1
  6
CONTINUOUS
 62
     3
 10
884.378809
 20
1226.985611
 11
834.378809
 21
1257.347954
  0
LINE
  8
CSLAYER1
  6
CONTINUOUS
 62
     3
 10
834.378809
 20
1257.347954
 11
884.378809
 21
1287.710298
  0
LINE
  8
CSLAYER1
  6
CONTINUOUS
 62
     3
 10
884.378809
 20
1287.710298
 11
834.378809
 21
1318.072641
  0
LINE
  8
CSLAYER1
  6
CONTINUOUS
 62
     3
 10
834.378809
 20
1318.072641
 11
857.639014
 21
1332.197328
  0
LINE
  8
CSLAYER1
  6
CONTINUOUS
 62
     3
 10
834.378809
 20
467.927023
 11
884.378809
 21
498.289367
  0
LINE
  8
CSLAYER1
  6
CONTINUOUS
 62
     3
 10
884.378809
 20
498.289367
 11
834.378809
 21
528.651710
  0
LINE
  8
CSLAYER1
  6
CONTINUOUS
 62
     3
 10
834.378809
 20
528.651710
 11
884.378809
 21
559.014054
  0
LINE
  8
CSLAYER1
  6
CONTINUOUS
 62
     3
 10
884.378809
 20
559.014054
 11
834.378809
 21
589.376397
  0
LINE
  8
CSLAYER1
  6
CONTINUOUS
 62
     3
 10
819.378809
 20
461.257879
 11
869.378809
 21
461.257879
  0
LINE
  8
CSLAYER1
  6
CONTINUOUS
 62
     3
 10
144.378809
 20
1377.197328
 11
144.378809
 21
1332.197328
  0
LINE
  8
CSLAYER1
  6
CONTINUOUS
 62
     3
 10
169.378809
 20
467.257879
 11
169.378809
 21
461.257879
  0
LINE
  8
CSLAYER1
  6
CONTINUOUS
 62
     3
 10
204.378809
 20
589.376397
 11
154.378809
 21
619.738741
  0
LINE
  8
CSLAYER1
  6
CONTINUOUS
 62
     3
 10
154.378809
 20
619.738741
 11
204.378809
 21
650.101084
  0
LINE
  8
CSLAYER1
  6
CONTINUOUS
 62
     3
 10
204.378809
 20
650.101084
 11
154.378809
 21
680.463428
  0
LINE
  8
CSLAYER1
  6
CONTINUOUS
 62
     3
 10
154.378809
 20
680.463428
 11
204.378809
 21
710.825771
  0
LINE
  8
CSLAYER1
  6
CONTINUOUS
 62
     3
 10
204.378809
 20
710.825771
 11
154.378809
 21
741.188115
  0
LINE
  8
CSLAYER1
  6
CONTINUOUS
 62
     3
 10
154.378809
 20
741.188115
 11
204.378809
 21
771.550458
  0
LINE
  8
CSLAYER1
  6
CONTINUOUS
 62
     3
 10
204.378809
 20
771.550458
 11
154.378809
 21
801.912802
  0
LINE
  8
CSLAYER1
  6
CONTINUOUS
 62
     3
 10
154.378809
 20
801.912802
 11
204.378809
 21
832.275145
  0
LINE
  8
CSLAYER1
  6
CONTINUOUS
 62
     3
 10
204.378809
 20
832.275145
 11
154.378809
 21
862.637489
  0
LINE
  8
CSLAYER1
  6
CONTINUOUS
 62
     3
 10
154.378809
 20
862.637489
 11
204.378809
 21
892.999832
  0
LINE
  8
CSLAYER1
  6
CONTINUOUS
 62
     3
 10
204.378809
 20
892.999832
 11
154.378809
 21
923.362176
  0
LINE
  8
CSLAYER1
  6
CONTINUOUS
 62
     3
 10
154.378809
 20
923.362176
 11
204.378809
 21
953.724519
  0
LINE
  8
CSLAYER1
  6
CONTINUOUS
 62
     3
 10
204.378809
 20
953.724519
 11
154.378809
 21
984.086863
  0
LINE
  8
CSLAYER1
  6
CONTINUOUS
 62
     3
 10
154.378809
 20
984.086863
 11
204.378809
 21
1014.449206
  0
LINE
  8
CSLAYER1
  6
CONTINUOUS
 62
     3
 10
204.378809
 20
1014.449206
 11
154.378809
 21
1044.811550
  0
LINE
  8
CSLAYER1
  6
CONTINUOUS
 62
     3
 10
154.378809
 20
1044.811550
 11
204.378809
 21
1075.173893
  0
LINE
  8
CSLAYER1
  6
CONTINUOUS
 62
     3
 10
204.378809
 20
1075.173893
 11
154.378809
 21
1105.536237
  0
LINE
  8
CSLAYER1
  6
CONTINUOUS
 62
     3
 10
154.378809
 20
1105.536237
 11
204.378809
 21
1135.898580
  0
LINE
  8
CSLAYER1
  6
CONTINUOUS
 62
     3
 10
204.378809
 20
1135.898580
 11
154.378809
 21
1166.260924
  0
LINE
  8
CSLAYER1
  6
CONTINUOUS
 62
     3
 10
154.378809
 20
1166.260924
 11
204.378809
 21
1196.623267
  0
LINE
  8
CSLAYER1
  6
CONTINUOUS
 62
     3
 10
204.378809
 20
1196.623267
 11
154.378809
 21
1226.985611
  0
LINE
  8
CSLAYER1
  6
CONTINUOUS
 62
     3
 10
154.378809
 20
1226.985611
 11
204.378809
 21
1257.347954
  0
LINE
  8
CSLAYER1
  6
CONTINUOUS
 62
     3
 10
204.378809
 20
1257.347954
 11
154.378809
 21
1287.710298
  0
LINE
  8
CSLAYER1
  6
CONTINUOUS
 62
     3
 10
154.378809
 20
1287.710298
 11
204.378809
 21
1318.072641
  0
LINE
  8
CSLAYER1
  6
CONTINUOUS
 62
     3
 10
204.378809
 20
1318.072641
 11
181.118603
 21
1332.197328
  0
LINE
  8
CSLAYER1
  6
CONTINUOUS
 62
     3
 10
204.378809
 20
467.927023
 11
154.378809
 21
498.289367
  0
LINE
  8
CSLAYER1
  6
CONTINUOUS
 62
     3
 10
154.378809
 20
498.289367
 11
204.378809
 21
528.651710
  0
LINE
  8
CSLAYER1
  6
CONTINUOUS
 62
     3
 10
204.378809
 20
528.651710
 11
154.378809
 21
559.014054
  0
LINE
  8
CSLAYER1
  6
CONTINUOUS
 62
     3
 10
154.378809
 20
559.014054
 11
204.378809
 21
589.376397
  0
LINE
  8
CSLAYER1
  6
CONTINUOUS
 62
     3
 10
219.378809
 20
461.257879
 11
169.378809
 21
461.257879
  0
INSERT
  8
CSLAYER1
  2
BLKF0001
 10
0.0
 20
0.0
 30
0.0
  0
INSERT
  8
CSLAYER1
  2
BLKF0002
 10
0.0
 20
0.0
 30
0.0
  0
LINE
  8
CSLAYER1
  6
CONTINUOUS
 62
     3
 10
1180.775454
 20
1527.340004
 11
1180.775454
 21
2277.340004
  0
LINE
  8
CSLAYER1
  6
CONTINUOUS
 62
     3
 10
2380.775454
 20
1527.340004
 11
2380.775454
 21
2277.340004
  0
LINE
  8
CSLAYER1
  6
CONTINUOUS
 62
     3
 10
1180.775454
 20
2277.340004
 11
2380.775454
 21
2277.340004
  0
LINE
  8
CSLAYER1
  6
CONTINUOUS
 62
     3
 10
1180.775454
 20
1527.340004
 11
2380.775454
 21
1527.340004
  0
DIMENSION
  8
CSLAYER1
 62
     7
  2
*D0002
 10
2376.775454
 20
1457.451704
 11
1776.775513
 21
1467.451782
 13
1176.775454
 23
1377.197328
 14
2376.775454
 24
1377.197328
 70
1
  0
DIMENSION
  8
CSLAYER1
 62
     7
  2
*D0003
 10
1084.399131
 20
2277.340004
 11
1074.399170
 21
1902.339966
 13
1180.775454
 23
1527.340004
 14
1180.775454
 24
2277.340004
 50
90.000000
 70
1
  0
DIMENSION
  8
CSLAYER1
 62
     7
  2
*D0004
 10
1243.775454
 20
321.996641
 11
1212.275513
 21
331.996735
 13
1180.775454
 23
527.257879
 14
1243.775454
 24
417.257879
 52
270.000000
  0
DIMENSION
  8
CSLAYER1
 62
     7
  2
*D0005
 10
2293.775454
 20
321.996641
 11
1768.775513
 21
331.996735
 13
1243.775454
 23
417.257879
 14
2293.775454
 24
417.257879
 52
270.000000
 70
1
  0
DIMENSION
  8
CSLAYER1
 62
     7
  2
*D0006
 10
2380.775454
 20
321.996641
 11
2337.275635
 21
331.996735
 13
2293.775454
 23
527.257879
 14
2380.775454
 24
527.257879
 52
270.000000
 70
1
  0
DIMENSION
  8
CSLAYER1
 62
     7
  2
*D0007
 10
1180.775454
 20
244.908481
 11
1780.775513
 21
254.908356
 13
2380.775454
 23
244.908481
 14
1180.775454
 24
244.908481
 52
0.000000
 70
1
  0
DIMENSION
  8
CSLAYER1
 62
     7
  2
*D0008
 10
819.378809
 20
321.996641
 11
519.378784
 21
331.996735
 13
219.378809
 23
417.257879
 14
819.378809
 24
417.257879
 52
270.000000
 70
1
  0
LINE
  8
CSLAYER1
  6
CONTINUOUS
 62
     3
 10
2720.559417
 20
2199.140270
 11
2729.243629
 21
2215.859406
  0
LINE
  8
CSLAYER1
  6
CONTINUOUS
 62
     3
 10
2721.504626
 20
2197.894937
 11
2734.355106
 21
2210.098852
  0
LINE
  8
CSLAYER1
  6
CONTINUOUS
 62
     3
 10
2722.536382
 20
2196.535578
 11
2738.574103
 21
2206.528932
  0
LINE
  8
CSLAYER1
  6
CONTINUOUS
 62
     3
 10
2723.391081
 20
2195.409494
 11
2742.549697
 21
2202.472204
  0
TEXT
  8
CSLAYER1
 62
     4
 10
2741.396822
 20
945.952553
 40
42.311935
 41
0.564209
  1
最大使用頻度８０回／時間・最大起動頻度１０回／分
 50
0.000000
 51
0.000000
  7
EASYDRAW_FONT
 72
     5
 11
3306.385404
 21
945.952553
  0
DIMENSION
  8
CSLAYER1
 62
     7
  2
*D0009
 10
869.378809
 20
244.908481
 11
519.378784
 21
254.908356
 13
169.378809
 23
461.257879
 14
869.378809
 24
461.257879
 52
270.000000
 70
1
  0
INSERT
  8
CSLAYER1
  2
EASYDRAWDIM0000
 10
0.0
 20
0.0
 30
0.0
  0
LINE
  8
CSLAYER1
  6
DASHED
 62
     5
 10
263.378809
 20
467.257879
 11
263.378809
 21
1312.497328
  0
LINE
  8
CSLAYER1
  6
DASHED
 62
     5
 10
272.378809
 20
467.257879
 11
272.378809
 21
1312.497328
  0
LINE
  8
CSLAYER1
  6
DASHED
 62
     5
 10
283.378809
 20
467.257879
 11
283.378809
 21
1287.847328
  0
LINE
  8
CSLAYER1
  6
DASHED
 62
     5
 10
292.378809
 20
467.257879
 11
292.378809
 21
1287.847328
  0
LINE
  8
CSLAYER1
  6
DASHED
 62
     5
 10
235.378809
 20
1296.497328
 11
803.378809
 21
1296.497328
  0
LINE
  8
CSLAYER1
  6
DASHED
 62
     5
 10
272.378809
 20
1305.147328
 11
766.378809
 21
1305.147328
  0
LINE
  8
CSLAYER1
  6
DASHED
 62
     5
 10
775.378809
 20
467.257879
 11
775.378809
 21
1312.497328
  0
LINE
  8
CSLAYER1
  6
DASHED
 62
     5
 10
766.378809
 20
467.257879
 11
766.378809
 21
1312.497328
  0
LINE
  8
CSLAYER1
  6
DASHED
 62
     5
 10
755.378809
 20
467.257879
 11
755.378809
 21
1287.847328
  0
LINE
  8
CSLAYER1
  6
DASHED
 62
     5
 10
746.378809
 20
467.257879
 11
746.378809
 21
1287.847328
  0
LINE
  8
CSLAYER1
  6
DASHED
 62
     5
 10
766.378809
 20
1287.847328
 11
272.378809
 21
1287.847328
  0
LINE
  8
CSLAYER1
  6
DASHED
 62
     5
 10
778.578809
 20
854.127604
 11
778.578809
 21
884.127604
  0
LINE
  8
CSLAYER1
  6
DASHED
 62
     5
 10
775.378809
 20
884.127604
 11
778.578809
 21
884.127604
  0
LINE
  8
CSLAYER1
  6
DASHED
 62
     5
 10
775.378809
 20
854.127604
 11
778.578809
 21
854.127604
  0
LINE
  8
CSLAYER1
  6
DASHED
 62
     5
 10
782.578809
 20
855.127604
 11
782.578809
 21
883.127604
  0
LINE
  8
CSLAYER1
  6
DASHED
 62
     5
 10
778.578809
 20
855.127604
 11
782.578809
 21
855.127604
  0
LINE
  8
CSLAYER1
  6
DASHED
 62
     5
 10
778.578809
 20
883.127604
 11
782.578809
 21
883.127604
  0
LINE
  8
CSLAYER1
  6
DASHED
 62
     5
 10
792.578809
 20
857.127604
 11
792.578809
 21
881.127604
  0
LINE
  8
CSLAYER1
  6
DASHED
 62
     5
 10
794.378809
 20
876.127604
 11
794.378809
 21
862.127604
  0
LINE
  8
CSLAYER1
  6
DASHED
 62
     5
 10
793.378809
 20
861.127604
 11
792.578809
 21
861.127604
  0
LINE
  8
CSLAYER1
  6
DASHED
 62
     5
 10
794.378809
 20
862.127604
 11
792.578809
 21
862.127604
  0
LINE
  8
CSLAYER1
  6
DASHED
 62
     5
 10
793.378809
 20
861.127604
 11
794.378809
 21
862.127604
  0
LINE
  8
CSLAYER1
  6
DASHED
 62
     5
 10
793.378809
 20
861.127604
 11
793.378809
 21
877.127604
  0
LINE
  8
CSLAYER1
  6
DASHED
 62
     5
 10
782.578809
 20
855.271197
 11
791.507012
 21
855.271197
  0
LINE
  8
CSLAYER1
  6
DASHED
 62
     5
 10
782.578809
 20
862.199401
 11
791.507012
 21
862.199401
  0
LINE
  8
CSLAYER1
  6
DASHED
 62
     5
 10
792.578809
 20
857.127604
 11
791.507012
 21
855.271197
  0
ARC
  8
CSLAYER1
  6
DASHED
 62
     5
 10
769.650605
 20
869.127604
 40
22.928203
 50
-17.587954
 51
17.587954
  0
ARC
  8
CSLAYER1
  6
DASHED
 62
     5
 10
786.734938
 20
858.735299
 40
5.896837
 50
-24.023685
 51
35.976315
  0
LINE
  8
CSLAYER1
  6
DASHED
 62
     5
 10
793.378809
 20
877.127604
 11
792.578809
 21
877.127604
  0
LINE
  8
CSLAYER1
  6
DASHED
 62
     5
 10
794.378809
 20
876.127604
 11
792.578809
 21
876.127604
  0
LINE
  8
CSLAYER1
  6
DASHED
 62
     5
 10
793.378809
 20
877.127604
 11
794.378809
 21
876.127604
  0
LINE
  8
CSLAYER1
  6
DASHED
 62
     5
 10
782.578809
 20
882.984010
 11
791.507012
 21
882.984010
  0
LINE
  8
CSLAYER1
  6
DASHED
 62
     5
 10
782.578809
 20
876.055807
 11
791.507012
 21
876.055807
  0
LINE
  8
CSLAYER1
  6
DASHED
 62
     5
 10
792.578809
 20
881.127604
 11
791.507012
 21
882.984010
  0
ARC
  8
CSLAYER1
  6
DASHED
 62
     5
 10
786.734938
 20
879.519909
 40
5.896837
 50
-35.976315
 51
24.023685
  0
LINE
  8
CSLAYER1
  6
DASHED
 62
     5
 10
778.578809
 20
871.928386
 11
782.578809
 21
866.528386
  0
POINT
  8
CSLAYER1
 62
     5
 10
775.378809
 20
869.127604
  0
LINE
  8
CSLAYER1
  6
DASHED
 62
     5
 10
717.628809
 20
546.231307
 11
727.128809
 21
546.231307
  0
LINE
  8
CSLAYER1
  6
DASHED
 62
     5
 10
711.378809
 20
521.966505
 11
730.378809
 21
521.966505
  0
LINE
  8
CSLAYER1
  6
DASHED
 62
     5
 10
714.378809
 20
471.431257
 11
730.378809
 21
471.431257
  0
LINE
  8
CSLAYER1
  6
DASHED
 62
     5
 10
609.378809
 20
488.257879
 11
611.378809
 21
488.257879
  0
LINE
  8
CSLAYER1
  6
DASHED
 62
     5
 10
716.378809
 20
556.349740
 11
746.378809
 21
556.349740
  0
LINE
  8
CSLAYER1
  6
DASHED
 62
     5
 10
716.378809
 20
546.349740
 11
718.378809
 21
546.349740
  0
LINE
  8
CSLAYER1
  6
DASHED
 62
     5
 10
730.378809
 20
471.431257
 11
730.378809
 21
490.654885
  0
LINE
  8
CSLAYER1
  6
DASHED
 62
     5
 10
714.378809
 20
467.257879
 11
714.378809
 21
521.966505
  0
LINE
  8
CSLAYER1
  6
DASHED
 62
     5
 10
711.378809
 20
467.257879
 11
711.378809
 21
521.966505
  0
LINE
  8
CSLAYER1
  6
DASHED
 62
     5
 10
714.378809
 20
483.386164
 11
730.378809
 21
483.386164
  0
LINE
  8
CSLAYER1
  6
DASHED
 62
     5
 10
717.628809
 20
546.231307
 11
714.378809
 21
521.966505
  0
LINE
  8
CSLAYER1
  6
DASHED
 62
     5
 10
727.128809
 20
546.231307
 11
730.378809
 21
521.966505
  0
LINE
  8
CSLAYER1
  6
DASHED
 62
     5
 10
716.378809
 20
500.654885
 11
746.378809
 21
500.654885
  0
LINE
  8
CSLAYER1
  6
DASHED
 62
     5
 10
716.378809
 20
495.654885
 11
746.378809
 21
495.654885
  0
LINE
  8
CSLAYER1
  6
DASHED
 62
     5
 10
716.378809
 20
490.654885
 11
746.378809
 21
490.654885
  0
LINE
  8
CSLAYER1
  6
DASHED
 62
     5
 10
716.378809
 20
490.654885
 11
716.378809
 21
500.654885
  0
LINE
  8
CSLAYER1
  6
DASHED
 62
     5
 10
730.378809
 20
500.654885
 11
730.378809
 21
521.966505
  0
LINE
  8
CSLAYER1
  6
DASHED
 62
     5
 10
244.878809
 20
1278.497328
 11
244.878809
 21
1285.747328
  0
LINE
  8
CSLAYER1
  6
DASHED
 62
     5
 10
268.878809
 20
1312.497328
 11
268.878809
 21
1314.497328
  0
LINE
  8
CSLAYER1
  6
DASHED
 62
     5
 10
268.378809
 20
1314.997328
 11
257.378809
 21
1314.997328
  0
LINE
  8
CSLAYER1
  6
DASHED
 62
     5
 10
256.878809
 20
1278.497328
 11
256.878809
 21
1314.497328
  0
LINE
  8
CSLAYER1
  6
DASHED
 62
     5
 10
263.378809
 20
1277.997328
 11
257.378809
 21
1277.997328
  0
LINE
  8
CSLAYER1
  6
DASHED
 62
     5
 10
256.378809
 20
1277.997328
 11
245.378809
 21
1277.997328
  0
LINE
  8
CSLAYER1
  6
DASHED
 62
     5
 10
256.378809
 20
1314.997328
 11
255.378809
 21
1314.997328
  0
ARC
  8
CSLAYER1
  6
DASHED
 62
     5
 10
257.378809
 20
1278.497328
 40
0.500000
 50
180.000000
 51
270.000000
  0
ARC
  8
CSLAYER1
  6
DASHED
 62
     5
 10
268.378809
 20
1314.497328
 40
0.500000
 50
0.000000
 51
90.000000
  0
ARC
  8
CSLAYER1
  6
DASHED
 62
     5
 10
257.378809
 20
1314.497328
 40
0.500000
 50
90.000000
 51
180.000000
  0
ARC
  8
CSLAYER1
  6
DASHED
 62
     5
 10
256.378809
 20
1314.497328
 40
0.500000
 50
0.000000
 51
90.000000
  0
ARC
  8
CSLAYER1
  6
DASHED
 62
     5
 10
245.378809
 20
1314.497328
 40
0.500000
 50
90.000000
 51
180.000000
  0
ARC
  8
CSLAYER1
  6
DASHED
 62
     5
 10
245.378809
 20
1278.497328
 40
0.500000
 50
180.000000
 51
270.000000
  0
LINE
  8
CSLAYER1
  6
DASHED
 62
     5
 10
272.378809
 20
1285.497328
 11
283.378809
 21
1285.497328
  0
LINE
  8
CSLAYER1
  6
DASHED
 62
     5
 10
272.378809
 20
1307.497328
 11
283.378809
 21
1307.497328
  0
ARC
  8
CSLAYER1
  6
DASHED
 62
     5
 10
256.378809
 20
1278.497328
 40
0.500000
 50
270.000000
 51
360.000000
  0
LINE
  8
CSLAYER1
  6
DASHED
 62
     5
 10
244.878809
 20
1307.247328
 11
244.878809
 21
1314.497328
  0
LINE
  8
CSLAYER1
  6
DASHED
 62
     5
 10
246.378809
 20
1314.997328
 11
245.378809
 21
1314.997328
  0
LINE
  8
CSLAYER1
  6
DASHED
 62
     5
 10
292.378809
 20
1310.297168
 11
746.378809
 21
1310.297168
  0
LINE
  8
CSLAYER1
  6
DASHED
 62
     5
 10
793.878809
 20
1278.497328
 11
793.878809
 21
1285.747328
  0
LINE
  8
CSLAYER1
  6
DASHED
 62
     5
 10
769.878809
 20
1312.497328
 11
769.878809
 21
1314.497328
  0
LINE
  8
CSLAYER1
  6
DASHED
 62
     5
 10
770.378809
 20
1314.997328
 11
781.378809
 21
1314.997328
  0
LINE
  8
CSLAYER1
  6
DASHED
 62
     5
 10
781.878809
 20
1278.497328
 11
781.878809
 21
1314.497328
  0
LINE
  8
CSLAYER1
  6
DASHED
 62
     5
 10
775.378809
 20
1277.997328
 11
781.378809
 21
1277.997328
  0
LINE
  8
CSLAYER1
  6
DASHED
 62
     5
 10
782.378809
 20
1277.997328
 11
793.378809
 21
1277.997328
  0
LINE
  8
CSLAYER1
  6
DASHED
 62
     5
 10
782.378809
 20
1314.997328
 11
783.378809
 21
1314.997328
  0
ARC
  8
CSLAYER1
  6
DASHED
 62
     5
 10
781.378809
 20
1278.497328
 40
0.500000
 50
270.000000
 51
360.000000
  0
ARC
  8
CSLAYER1
  6
DASHED
 62
     5
 10
770.378809
 20
1314.497328
 40
0.500000
 50
90.000000
 51
180.000000
  0
ARC
  8
CSLAYER1
  6
DASHED
 62
     5
 10
781.378809
 20
1314.497328
 40
0.500000
 50
0.000000
 51
90.000000
  0
ARC
  8
CSLAYER1
  6
DASHED
 62
     5
 10
782.378809
 20
1314.497328
 40
0.500000
 50
90.000000
 51
180.000000
  0
ARC
  8
CSLAYER1
  6
DASHED
 62
     5
 10
793.378809
 20
1314.497328
 40
0.500000
 50
0.000000
 51
90.000000
  0
ARC
  8
CSLAYER1
  6
DASHED
 62
     5
 10
793.378809
 20
1278.497328
 40
0.500000
 50
270.000000
 51
360.000000
  0
LINE
  8
CSLAYER1
  6
DASHED
 62
     5
 10
766.378809
 20
1285.497328
 11
755.378809
 21
1285.497328
  0
LINE
  8
CSLAYER1
  6
DASHED
 62
     5
 10
766.378809
 20
1307.497328
 11
755.378809
 21
1307.497328
  0
ARC
  8
CSLAYER1
  6
DASHED
 62
     5
 10
782.378809
 20
1278.497328
 40
0.500000
 50
180.000000
 51
270.000000
  0
LINE
  8
CSLAYER1
  6
DASHED
 62
     5
 10
793.878809
 20
1307.247328
 11
793.878809
 21
1314.497328
  0
LINE
  8
CSLAYER1
  6
DASHED
 62
     5
 10
792.378809
 20
1314.997328
 11
793.378809
 21
1314.997328
  0
LINE
  8
CSLAYER1
  6
DASHED
 62
     5
 10
276.378809
 20
808.285879
 11
327.398612
 21
808.285879
  0
LINE
  8
CSLAYER1
  6
DASHED
 62
     5
 10
319.378809
 20
992.285977
 11
319.378809
 21
1284.838403
  0
LINE
  8
CSLAYER1
  6
DASHED
 62
     5
 10
719.378809
 20
992.285977
 11
719.378809
 21
1284.981935
  0
LINE
  8
CSLAYER1
  6
DASHED
 62
     5
 10
313.378809
 20
1220.702459
 11
313.378809
 21
1239.886415
  0
LINE
  8
CSLAYER1
  6
DASHED
 62
     5
 10
325.378809
 20
1220.702459
 11
325.378809
 21
1239.886415
  0
LINE
  8
CSLAYER1
  6
DASHED
 62
     5
 10
324.578809
 20
1220.702459
 11
324.578809
 21
1242.002509
  0
LINE
  8
CSLAYER1
  6
DASHED
 62
     5
 10
314.178809
 20
1220.702459
 11
314.178809
 21
1242.002509
  0
LINE
  8
CSLAYER1
  6
DASHED
 62
     5
 10
300.378809
 20
1266.733458
 11
332.378809
 21
1266.733458
  0
LINE
  8
CSLAYER1
  6
DASHED
 62
     5
 10
332.378809
 20
1227.333458
 11
332.378809
 21
1274.133458
  0
LINE
  8
CSLAYER1
  6
DASHED
 62
     5
 10
332.378809
 20
1274.133458
 11
334.378809
 21
1276.133458
  0
LINE
  8
CSLAYER1
  6
DASHED
 62
     5
 10
334.378809
 20
1225.333458
 11
334.378809
 21
1276.133458
  0
LINE
  8
CSLAYER1
  6
DASHED
 62
     5
 10
282.378809
 20
1271.733458
 11
283.378809
 21
1271.733458
  0
LINE
  8
CSLAYER1
  6
DASHED
 62
     5
 10
294.378809
 20
1270.733458
 11
294.378809
 21
1230.733458
  0
LINE
  8
CSLAYER1
  6
DASHED
 62
     5
 10
281.378809
 20
1270.733458
 11
281.378809
 21
1230.733458
  0
LINE
  8
CSLAYER1
  6
DASHED
 62
     5
 10
277.878809
 20
1257.233458
 11
277.878809
 21
1244.233458
  0
LINE
  8
CSLAYER1
  6
DASHED
 62
     5
 10
280.228809
 20
1259.733458
 11
280.228809
 21
1241.733458
  0
LINE
  8
CSLAYER1
  6
DASHED
 62
     5
 10
280.228809
 20
1258.233458
 11
278.878809
 21
1258.233458
  0
LINE
  8
CSLAYER1
  6
DASHED
 62
     5
 10
278.878809
 20
1258.233458
 11
277.878809
 21
1257.233458
  0
LINE
  8
CSLAYER1
  6
DASHED
 62
     5
 10
278.878809
 20
1258.233458
 11
278.878809
 21
1243.233458
  0
LINE
  8
CSLAYER1
  6
DASHED
 62
     5
 10
280.228809
 20
1259.733458
 11
281.378809
 21
1259.733458
  0
LINE
  8
CSLAYER1
  6
DASHED
 62
     5
 10
294.378809
 20
1260.733458
 11
300.378809
 21
1266.733458
  0
LINE
  8
CSLAYER1
  6
DASHED
 62
     5
 10
300.378809
 20
1266.733458
 11
300.378809
 21
1234.733458
  0
ARC
  8
CSLAYER1
  6
DASHED
 62
     5
 10
282.378809
 20
1270.733458
 40
1.000000
 50
90.000000
 51
180.000000
  0
ARC
  8
CSLAYER1
  6
DASHED
 62
     5
 10
293.378809
 20
1270.733458
 40
1.000000
 50
0.000000
 51
90.000000
  0
LINE
  8
CSLAYER1
  6
DASHED
 62
     5
 10
300.378809
 20
1234.733458
 11
313.378809
 21
1234.733458
  0
LINE
  8
CSLAYER1
  6
DASHED
 62
     5
 10
282.378809
 20
1229.733458
 11
283.378809
 21
1229.733458
  0
LINE
  8
CSLAYER1
  6
DASHED
 62
     5
 10
280.228809
 20
1243.233458
 11
278.878809
 21
1243.233458
  0
LINE
  8
CSLAYER1
  6
DASHED
 62
     5
 10
278.878809
 20
1243.233458
 11
277.878809
 21
1244.233458
  0
LINE
  8
CSLAYER1
  6
DASHED
 62
     5
 10
280.228809
 20
1241.733458
 11
281.378809
 21
1241.733458
  0
LINE
  8
CSLAYER1
  6
DASHED
 62
     5
 10
294.378809
 20
1240.733458
 11
300.378809
 21
1234.733458
  0
ARC
  8
CSLAYER1
  6
DASHED
 62
     5
 10
282.378809
 20
1230.733458
 40
1.000000
 50
180.000000
 51
270.000000
  0
ARC
  8
CSLAYER1
  6
DASHED
 62
     5
 10
293.378809
 20
1230.733458
 40
1.000000
 50
270.000000
 51
360.000000
  0
LINE
  8
CSLAYER1
  6
DASHED
 62
     5
 10
332.378809
 20
1227.333458
 11
334.378809
 21
1225.333458
  0
LINE
  8
CSLAYER1
  6
DASHED
 62
     5
 10
292.378809
 20
1271.733458
 11
293.378809
 21
1271.733458
  0
LINE
  8
CSLAYER1
  6
DASHED
 62
     5
 10
292.378809
 20
1229.733458
 11
293.378809
 21
1229.733458
  0
LINE
  8
CSLAYER1
  6
DASHED
 62
     5
 10
334.378809
 20
1276.133458
 11
704.378809
 21
1276.133458
  0
LINE
  8
CSLAYER1
  6
DASHED
 62
     5
 10
334.378809
 20
1225.333458
 11
498.028809
 21
1225.333458
  0
LINE
  8
CSLAYER1
  6
DASHED
 62
     5
 10
325.378809
 20
1280.394105
 11
325.287655
 21
1281.130832
  0
LINE
  8
CSLAYER1
  6
DASHED
 62
     5
 10
325.287655
 20
1281.130832
 11
325.016964
 21
1281.845174
  0
LINE
  8
CSLAYER1
  6
DASHED
 62
     5
 10
325.016964
 20
1281.845174
 11
324.574961
 21
1282.515425
  0
LINE
  8
CSLAYER1
  6
DASHED
 62
     5
 10
324.574961
 20
1282.515425
 11
323.975075
 21
1283.121222
  0
LINE
  8
CSLAYER1
  6
DASHED
 62
     5
 10
323.975075
 20
1283.121222
 11
323.235534
 21
1283.644156
  0
LINE
  8
CSLAYER1
  6
DASHED
 62
     5
 10
323.235534
 20
1283.644156
 11
322.378809
 21
1284.068340
  0
LINE
  8
CSLAYER1
  6
DASHED
 62
     5
 10
322.378809
 20
1284.068340
 11
321.430929
 21
1284.380883
  0
LINE
  8
CSLAYER1
  6
DASHED
 62
     5
 10
321.430929
 20
1284.380883
 11
320.420698
 21
1284.572290
  0
LINE
  8
CSLAYER1
  6
DASHED
 62
     5
 10
320.420698
 20
1284.572290
 11
319.378809
 21
1284.636746
  0
LINE
  8
CSLAYER1
  6
DASHED
 62
     5
 10
319.378809
 20
1284.636746
 11
318.336919
 21
1284.572290
  0
LINE
  8
CSLAYER1
  6
DASHED
 62
     5
 10
318.336919
 20
1284.572290
 11
317.326688
 21
1284.380883
  0
LINE
  8
CSLAYER1
  6
DASHED
 62
     5
 10
317.326688
 20
1284.380883
 11
316.378809
 21
1284.068340
  0
LINE
  8
CSLAYER1
  6
DASHED
 62
     5
 10
316.378809
 20
1284.068340
 11
315.522083
 21
1283.644156
  0
LINE
  8
CSLAYER1
  6
DASHED
 62
     5
 10
315.522083
 20
1283.644156
 11
314.782542
 21
1283.121222
  0
LINE
  8
CSLAYER1
  6
DASHED
 62
     5
 10
314.782542
 20
1283.121222
 11
314.182656
 21
1282.515425
  0
LINE
  8
CSLAYER1
  6
DASHED
 62
     5
 10
314.182656
 20
1282.515425
 11
313.740653
 21
1281.845174
  0
LINE
  8
CSLAYER1
  6
DASHED
 62
     5
 10
313.740653
 20
1281.845174
 11
313.469962
 21
1281.130832
  0
LINE
  8
CSLAYER1
  6
DASHED
 62
     5
 10
313.469962
 20
1281.130832
 11
313.378809
 21
1280.394105
  0
LINE
  8
CSLAYER1
  6
DASHED
 62
     5
 10
325.378809
 20
1239.886415
 11
325.287655
 21
1240.623141
  0
LINE
  8
CSLAYER1
  6
DASHED
 62
     5
 10
325.287655
 20
1240.623141
 11
325.016964
 21
1241.337483
  0
LINE
  8
CSLAYER1
  6
DASHED
 62
     5
 10
325.016964
 20
1241.337483
 11
324.574961
 21
1242.007735
  0
LINE
  8
CSLAYER1
  6
DASHED
 62
     5
 10
324.574961
 20
1242.007735
 11
323.975075
 21
1242.613531
  0
LINE
  8
CSLAYER1
  6
DASHED
 62
     5
 10
323.975075
 20
1242.613531
 11
323.235534
 21
1243.136466
  0
LINE
  8
CSLAYER1
  6
DASHED
 62
     5
 10
323.235534
 20
1243.136466
 11
322.378809
 21
1243.560649
  0
LINE
  8
CSLAYER1
  6
DASHED
 62
     5
 10
322.378809
 20
1243.560649
 11
321.430929
 21
1243.873193
  0
LINE
  8
CSLAYER1
  6
DASHED
 62
     5
 10
321.430929
 20
1243.873193
 11
320.420698
 21
1244.064600
  0
LINE
  8
CSLAYER1
  6
DASHED
 62
     5
 10
320.420698
 20
1244.064600
 11
319.378809
 21
1244.129055
  0
LINE
  8
CSLAYER1
  6
DASHED
 62
     5
 10
319.378809
 20
1244.129055
 11
318.336919
 21
1244.064600
  0
LINE
  8
CSLAYER1
  6
DASHED
 62
     5
 10
318.336919
 20
1244.064600
 11
317.326688
 21
1243.873193
  0
LINE
  8
CSLAYER1
  6
DASHED
 62
     5
 10
317.326688
 20
1243.873193
 11
316.378809
 21
1243.560649
  0
LINE
  8
CSLAYER1
  6
DASHED
 62
     5
 10
316.378809
 20
1243.560649
 11
315.522083
 21
1243.136466
  0
LINE
  8
CSLAYER1
  6
DASHED
 62
     5
 10
315.522083
 20
1243.136466
 11
314.782542
 21
1242.613531
  0
LINE
  8
CSLAYER1
  6
DASHED
 62
     5
 10
314.782542
 20
1242.613531
 11
314.182656
 21
1242.007735
  0
LINE
  8
CSLAYER1
  6
DASHED
 62
     5
 10
314.182656
 20
1242.007735
 11
313.740653
 21
1241.337483
  0
LINE
  8
CSLAYER1
  6
DASHED
 62
     5
 10
313.740653
 20
1241.337483
 11
313.469962
 21
1240.623141
  0
LINE
  8
CSLAYER1
  6
DASHED
 62
     5
 10
313.469962
 20
1240.623141
 11
313.378809
 21
1239.886415
  0
LINE
  8
CSLAYER1
  6
DASHED
 62
     5
 10
313.378809
 20
1270.252373
 11
313.378809
 21
1280.394105
  0
LINE
  8
CSLAYER1
  6
DASHED
 62
     5
 10
325.378809
 20
1270.252373
 11
325.378809
 21
1280.394105
  0
LINE
  8
CSLAYER1
  6
DASHED
 62
     5
 10
314.178809
 20
1270.546850
 11
314.178809
 21
1282.827806
  0
LINE
  8
CSLAYER1
  6
DASHED
 62
     5
 10
324.578809
 20
1270.546850
 11
324.578809
 21
1282.827806
  0
LINE
  8
CSLAYER1
  6
DASHED
 62
     5
 10
330.143285
 20
1266.733458
 11
329.208633
 21
1267.770861
  0
LINE
  8
CSLAYER1
  6
DASHED
 62
     5
 10
329.208633
 20
1267.770861
 11
328.571342
 21
1268.358137
  0
LINE
  8
CSLAYER1
  6
DASHED
 62
     5
 10
328.571342
 20
1268.358137
 11
327.864090
 21
1268.903903
  0
LINE
  8
CSLAYER1
  6
DASHED
 62
     5
 10
327.864090
 20
1268.903903
 11
327.092260
 21
1269.404006
  0
LINE
  8
CSLAYER1
  6
DASHED
 62
     5
 10
327.092260
 20
1269.404006
 11
326.261726
 21
1269.854639
  0
LINE
  8
CSLAYER1
  6
DASHED
 62
     5
 10
326.261726
 20
1269.854639
 11
325.378809
 21
1270.252373
  0
LINE
  8
CSLAYER1
  6
DASHED
 62
     5
 10
325.378809
 20
1270.252373
 11
324.450228
 21
1270.594180
  0
LINE
  8
CSLAYER1
  6
DASHED
 62
     5
 10
324.450228
 20
1270.594180
 11
323.483050
 21
1270.877460
  0
LINE
  8
CSLAYER1
  6
DASHED
 62
     5
 10
323.483050
 20
1270.877460
 11
322.484637
 21
1271.100056
  0
LINE
  8
CSLAYER1
  6
DASHED
 62
     5
 10
322.484637
 20
1271.100056
 11
321.462587
 21
1271.260274
  0
LINE
  8
CSLAYER1
  6
DASHED
 62
     5
 10
321.462587
 20
1271.260274
 11
320.424677
 21
1271.356896
  0
LINE
  8
CSLAYER1
  6
DASHED
 62
     5
 10
320.424677
 20
1271.356896
 11
319.378809
 21
1271.389185
  0
LINE
  8
CSLAYER1
  6
DASHED
 62
     5
 10
319.378809
 20
1271.389185
 11
318.332940
 21
1271.356896
  0
LINE
  8
CSLAYER1
  6
DASHED
 62
     5
 10
318.332940
 20
1271.356896
 11
317.295030
 21
1271.260274
  0
LINE
  8
CSLAYER1
  6
DASHED
 62
     5
 10
317.295030
 20
1271.260274
 11
316.272980
 21
1271.100056
  0
LINE
  8
CSLAYER1
  6
DASHED
 62
     5
 10
316.272980
 20
1271.100056
 11
315.274567
 21
1270.877460
  0
LINE
  8
CSLAYER1
  6
DASHED
 62
     5
 10
315.274567
 20
1270.877460
 11
314.307389
 21
1270.594180
  0
LINE
  8
CSLAYER1
  6
DASHED
 62
     5
 10
314.307389
 20
1270.594180
 11
313.378809
 21
1270.252373
  0
LINE
  8
CSLAYER1
  6
DASHED
 62
     5
 10
313.378809
 20
1270.252373
 11
312.495891
 21
1269.854639
  0
LINE
  8
CSLAYER1
  6
DASHED
 62
     5
 10
312.495891
 20
1269.854639
 11
311.665357
 21
1269.404006
  0
LINE
  8
CSLAYER1
  6
DASHED
 62
     5
 10
311.665357
 20
1269.404006
 11
310.893527
 21
1268.903903
  0
LINE
  8
CSLAYER1
  6
DASHED
 62
     5
 10
310.893527
 20
1268.903903
 11
310.186275
 21
1268.358137
  0
LINE
  8
CSLAYER1
  6
DASHED
 62
     5
 10
310.186275
 20
1268.358137
 11
309.548984
 21
1267.770861
  0
LINE
  8
CSLAYER1
  6
DASHED
 62
     5
 10
309.548984
 20
1267.770861
 11
308.614333
 21
1266.733458
  0
LINE
  8
CSLAYER1
  6
DASHED
 62
     5
 10
325.378809
 20
1234.733458
 11
332.378809
 21
1234.733458
  0
LINE
  8
CSLAYER1
  6
DASHED
 62
     5
 10
725.378809
 20
1220.702459
 11
725.378809
 21
1239.886415
  0
LINE
  8
CSLAYER1
  6
DASHED
 62
     5
 10
713.378809
 20
1220.702459
 11
713.378809
 21
1239.886415
  0
LINE
  8
CSLAYER1
  6
DASHED
 62
     5
 10
714.178809
 20
1220.702459
 11
714.178809
 21
1242.002509
  0
LINE
  8
CSLAYER1
  6
DASHED
 62
     5
 10
724.578809
 20
1220.702459
 11
724.578809
 21
1242.002509
  0
LINE
  8
CSLAYER1
  6
DASHED
 62
     5
 10
738.378809
 20
1266.733458
 11
706.378809
 21
1266.733458
  0
LINE
  8
CSLAYER1
  6
DASHED
 62
     5
 10
706.378809
 20
1227.333458
 11
706.378809
 21
1274.133458
  0
LINE
  8
CSLAYER1
  6
DASHED
 62
     5
 10
706.378809
 20
1274.133458
 11
704.378809
 21
1276.133458
  0
LINE
  8
CSLAYER1
  6
DASHED
 62
     5
 10
704.378809
 20
1225.333458
 11
704.378809
 21
1276.133458
  0
LINE
  8
CSLAYER1
  6
DASHED
 62
     5
 10
756.378809
 20
1271.733458
 11
755.378809
 21
1271.733458
  0
LINE
  8
CSLAYER1
  6
DASHED
 62
     5
 10
744.378809
 20
1270.733458
 11
744.378809
 21
1230.733458
  0
LINE
  8
CSLAYER1
  6
DASHED
 62
     5
 10
757.378809
 20
1270.733458
 11
757.378809
 21
1230.733458
  0
LINE
  8
CSLAYER1
  6
DASHED
 62
     5
 10
760.878809
 20
1257.233458
 11
760.878809
 21
1244.233458
  0
LINE
  8
CSLAYER1
  6
DASHED
 62
     5
 10
758.528809
 20
1259.733458
 11
758.528809
 21
1241.733458
  0
LINE
  8
CSLAYER1
  6
DASHED
 62
     5
 10
758.528809
 20
1258.233458
 11
759.878809
 21
1258.233458
  0
LINE
  8
CSLAYER1
  6
DASHED
 62
     5
 10
759.878809
 20
1258.233458
 11
760.878809
 21
1257.233458
  0
LINE
  8
CSLAYER1
  6
DASHED
 62
     5
 10
759.878809
 20
1258.233458
 11
759.878809
 21
1243.233458
  0
LINE
  8
CSLAYER1
  6
DASHED
 62
     5
 10
758.528809
 20
1259.733458
 11
757.378809
 21
1259.733458
  0
LINE
  8
CSLAYER1
  6
DASHED
 62
     5
 10
744.378809
 20
1260.733458
 11
738.378809
 21
1266.733458
  0
LINE
  8
CSLAYER1
  6
DASHED
 62
     5
 10
738.378809
 20
1266.733458
 11
738.378809
 21
1234.733458
  0
ARC
  8
CSLAYER1
  6
DASHED
 62
     5
 10
756.378809
 20
1270.733458
 40
1.000000
 50
0.000000
 51
90.000000
  0
ARC
  8
CSLAYER1
  6
DASHED
 62
     5
 10
745.378809
 20
1270.733458
 40
1.000000
 50
90.000000
 51
180.000000
  0
LINE
  8
CSLAYER1
  6
DASHED
 62
     5
 10
738.378809
 20
1234.733458
 11
725.378809
 21
1234.733458
  0
LINE
  8
CSLAYER1
  6
DASHED
 62
     5
 10
756.378809
 20
1229.733458
 11
755.378809
 21
1229.733458
  0
LINE
  8
CSLAYER1
  6
DASHED
 62
     5
 10
758.528809
 20
1243.233458
 11
759.878809
 21
1243.233458
  0
LINE
  8
CSLAYER1
  6
DASHED
 62
     5
 10
759.878809
 20
1243.233458
 11
760.878809
 21
1244.233458
  0
LINE
  8
CSLAYER1
  6
DASHED
 62
     5
 10
758.528809
 20
1241.733458
 11
757.378809
 21
1241.733458
  0
LINE
  8
CSLAYER1
  6
DASHED
 62
     5
 10
744.378809
 20
1240.733458
 11
738.378809
 21
1234.733458
  0
ARC
  8
CSLAYER1
  6
DASHED
 62
     5
 10
756.378809
 20
1230.733458
 40
1.000000
 50
270.000000
 51
360.000000
  0
ARC
  8
CSLAYER1
  6
DASHED
 62
     5
 10
745.378809
 20
1230.733458
 40
1.000000
 50
180.000000
 51
270.000000
  0
LINE
  8
CSLAYER1
  6
DASHED
 62
     5
 10
706.378809
 20
1227.333458
 11
704.378809
 21
1225.333458
  0
LINE
  8
CSLAYER1
  6
DASHED
 62
     5
 10
746.378809
 20
1271.733458
 11
745.378809
 21
1271.733458
  0
LINE
  8
CSLAYER1
  6
DASHED
 62
     5
 10
746.378809
 20
1229.733458
 11
745.378809
 21
1229.733458
  0
LINE
  8
CSLAYER1
  6
DASHED
 62
     5
 10
713.378809
 20
1280.394105
 11
713.469962
 21
1281.130832
  0
LINE
  8
CSLAYER1
  6
DASHED
 62
     5
 10
713.469962
 20
1281.130832
 11
713.740653
 21
1281.845174
  0
LINE
  8
CSLAYER1
  6
DASHED
 62
     5
 10
713.740653
 20
1281.845174
 11
714.182656
 21
1282.515425
  0
LINE
  8
CSLAYER1
  6
DASHED
 62
     5
 10
714.182656
 20
1282.515425
 11
714.782542
 21
1283.121222
  0
LINE
  8
CSLAYER1
  6
DASHED
 62
     5
 10
714.782542
 20
1283.121222
 11
715.522083
 21
1283.644156
  0
LINE
  8
CSLAYER1
  6
DASHED
 62
     5
 10
715.522083
 20
1283.644156
 11
716.378809
 21
1284.068340
  0
LINE
  8
CSLAYER1
  6
DASHED
 62
     5
 10
716.378809
 20
1284.068340
 11
717.326688
 21
1284.380883
  0
LINE
  8
CSLAYER1
  6
DASHED
 62
     5
 10
717.326688
 20
1284.380883
 11
718.336919
 21
1284.572290
  0
LINE
  8
CSLAYER1
  6
DASHED
 62
     5
 10
718.336919
 20
1284.572290
 11
719.378809
 21
1284.636746
  0
LINE
  8
CSLAYER1
  6
DASHED
 62
     5
 10
719.378809
 20
1284.636746
 11
720.420698
 21
1284.572290
  0
LINE
  8
CSLAYER1
  6
DASHED
 62
     5
 10
720.420698
 20
1284.572290
 11
721.430929
 21
1284.380883
  0
LINE
  8
CSLAYER1
  6
DASHED
 62
     5
 10
721.430929
 20
1284.380883
 11
722.378809
 21
1284.068340
  0
LINE
  8
CSLAYER1
  6
DASHED
 62
     5
 10
722.378809
 20
1284.068340
 11
723.235534
 21
1283.644156
  0
LINE
  8
CSLAYER1
  6
DASHED
 62
     5
 10
723.235534
 20
1283.644156
 11
723.975075
 21
1283.121222
  0
LINE
  8
CSLAYER1
  6
DASHED
 62
     5
 10
723.975075
 20
1283.121222
 11
724.574961
 21
1282.515425
  0
LINE
  8
CSLAYER1
  6
DASHED
 62
     5
 10
724.574961
 20
1282.515425
 11
725.016964
 21
1281.845174
  0
LINE
  8
CSLAYER1
  6
DASHED
 62
     5
 10
725.016964
 20
1281.845174
 11
725.287655
 21
1281.130832
  0
LINE
  8
CSLAYER1
  6
DASHED
 62
     5
 10
725.287655
 20
1281.130832
 11
725.378809
 21
1280.394105
  0
LINE
  8
CSLAYER1
  6
DASHED
 62
     5
 10
713.378809
 20
1239.886415
 11
713.469962
 21
1240.623141
  0
LINE
  8
CSLAYER1
  6
DASHED
 62
     5
 10
713.469962
 20
1240.623141
 11
713.740653
 21
1241.337483
  0
LINE
  8
CSLAYER1
  6
DASHED
 62
     5
 10
713.740653
 20
1241.337483
 11
714.182656
 21
1242.007735
  0
LINE
  8
CSLAYER1
  6
DASHED
 62
     5
 10
714.182656
 20
1242.007735
 11
714.782542
 21
1242.613531
  0
LINE
  8
CSLAYER1
  6
DASHED
 62
     5
 10
714.782542
 20
1242.613531
 11
715.522083
 21
1243.136466
  0
LINE
  8
CSLAYER1
  6
DASHED
 62
     5
 10
715.522083
 20
1243.136466
 11
716.378809
 21
1243.560649
  0
LINE
  8
CSLAYER1
  6
DASHED
 62
     5
 10
716.378809
 20
1243.560649
 11
717.326688
 21
1243.873193
  0
LINE
  8
CSLAYER1
  6
DASHED
 62
     5
 10
717.326688
 20
1243.873193
 11
718.336919
 21
1244.064600
  0
LINE
  8
CSLAYER1
  6
DASHED
 62
     5
 10
718.336919
 20
1244.064600
 11
719.378809
 21
1244.129055
  0
LINE
  8
CSLAYER1
  6
DASHED
 62
     5
 10
719.378809
 20
1244.129055
 11
720.420698
 21
1244.064600
  0
LINE
  8
CSLAYER1
  6
DASHED
 62
     5
 10
720.420698
 20
1244.064600
 11
721.430929
 21
1243.873193
  0
LINE
  8
CSLAYER1
  6
DASHED
 62
     5
 10
721.430929
 20
1243.873193
 11
722.378809
 21
1243.560649
  0
LINE
  8
CSLAYER1
  6
DASHED
 62
     5
 10
722.378809
 20
1243.560649
 11
723.235534
 21
1243.136466
  0
LINE
  8
CSLAYER1
  6
DASHED
 62
     5
 10
723.235534
 20
1243.136466
 11
723.975075
 21
1242.613531
  0
LINE
  8
CSLAYER1
  6
DASHED
 62
     5
 10
723.975075
 20
1242.613531
 11
724.574961
 21
1242.007735
  0
LINE
  8
CSLAYER1
  6
DASHED
 62
     5
 10
724.574961
 20
1242.007735
 11
725.016964
 21
1241.337483
  0
LINE
  8
CSLAYER1
  6
DASHED
 62
     5
 10
725.016964
 20
1241.337483
 11
725.287655
 21
1240.623141
  0
LINE
  8
CSLAYER1
  6
DASHED
 62
     5
 10
725.287655
 20
1240.623141
 11
725.378809
 21
1239.886415
  0
LINE
  8
CSLAYER1
  6
DASHED
 62
     5
 10
725.378809
 20
1270.252373
 11
725.378809
 21
1280.394105
  0
LINE
  8
CSLAYER1
  6
DASHED
 62
     5
 10
713.378809
 20
1270.252373
 11
713.378809
 21
1280.394105
  0
LINE
  8
CSLAYER1
  6
DASHED
 62
     5
 10
724.578809
 20
1270.546850
 11
724.578809
 21
1282.827806
  0
LINE
  8
CSLAYER1
  6
DASHED
 62
     5
 10
714.178809
 20
1270.546850
 11
714.178809
 21
1282.827806
  0
LINE
  8
CSLAYER1
  6
DASHED
 62
     5
 10
708.614333
 20
1266.733458
 11
709.548984
 21
1267.770861
  0
LINE
  8
CSLAYER1
  6
DASHED
 62
     5
 10
709.548984
 20
1267.770861
 11
710.186275
 21
1268.358137
  0
LINE
  8
CSLAYER1
  6
DASHED
 62
     5
 10
710.186275
 20
1268.358137
 11
710.893527
 21
1268.903903
  0
LINE
  8
CSLAYER1
  6
DASHED
 62
     5
 10
710.893527
 20
1268.903903
 11
711.665357
 21
1269.404006
  0
LINE
  8
CSLAYER1
  6
DASHED
 62
     5
 10
711.665357
 20
1269.404006
 11
712.495891
 21
1269.854639
  0
LINE
  8
CSLAYER1
  6
DASHED
 62
     5
 10
712.495891
 20
1269.854639
 11
713.378809
 21
1270.252373
  0
LINE
  8
CSLAYER1
  6
DASHED
 62
     5
 10
713.378809
 20
1270.252373
 11
714.307389
 21
1270.594180
  0
LINE
  8
CSLAYER1
  6
DASHED
 62
     5
 10
714.307389
 20
1270.594180
 11
715.274567
 21
1270.877460
  0
LINE
  8
CSLAYER1
  6
DASHED
 62
     5
 10
715.274567
 20
1270.877460
 11
716.272980
 21
1271.100056
  0
LINE
  8
CSLAYER1
  6
DASHED
 62
     5
 10
716.272980
 20
1271.100056
 11
717.295030
 21
1271.260274
  0
LINE
  8
CSLAYER1
  6
DASHED
 62
     5
 10
717.295030
 20
1271.260274
 11
718.332940
 21
1271.356896
  0
LINE
  8
CSLAYER1
  6
DASHED
 62
     5
 10
718.332940
 20
1271.356896
 11
719.378809
 21
1271.389185
  0
LINE
  8
CSLAYER1
  6
DASHED
 62
     5
 10
719.378809
 20
1271.389185
 11
720.424677
 21
1271.356896
  0
LINE
  8
CSLAYER1
  6
DASHED
 62
     5
 10
720.424677
 20
1271.356896
 11
721.462587
 21
1271.260274
  0
LINE
  8
CSLAYER1
  6
DASHED
 62
     5
 10
721.462587
 20
1271.260274
 11
722.484637
 21
1271.100056
  0
LINE
  8
CSLAYER1
  6
DASHED
 62
     5
 10
722.484637
 20
1271.100056
 11
723.483050
 21
1270.877460
  0
LINE
  8
CSLAYER1
  6
DASHED
 62
     5
 10
723.483050
 20
1270.877460
 11
724.450228
 21
1270.594180
  0
LINE
  8
CSLAYER1
  6
DASHED
 62
     5
 10
724.450228
 20
1270.594180
 11
725.378809
 21
1270.252373
  0
LINE
  8
CSLAYER1
  6
DASHED
 62
     5
 10
725.378809
 20
1270.252373
 11
726.261726
 21
1269.854639
  0
LINE
  8
CSLAYER1
  6
DASHED
 62
     5
 10
726.261726
 20
1269.854639
 11
727.092260
 21
1269.404006
  0
LINE
  8
CSLAYER1
  6
DASHED
 62
     5
 10
727.092260
 20
1269.404006
 11
727.864090
 21
1268.903903
  0
LINE
  8
CSLAYER1
  6
DASHED
 62
     5
 10
727.864090
 20
1268.903903
 11
728.571342
 21
1268.358137
  0
LINE
  8
CSLAYER1
  6
DASHED
 62
     5
 10
728.571342
 20
1268.358137
 11
729.208633
 21
1267.770861
  0
LINE
  8
CSLAYER1
  6
DASHED
 62
     5
 10
729.208633
 20
1267.770861
 11
730.143285
 21
1266.733458
  0
LINE
  8
CSLAYER1
  6
DASHED
 62
     5
 10
713.378809
 20
1234.733458
 11
706.378809
 21
1234.733458
  0
LINE
  8
CSLAYER1
  6
DASHED
 62
     5
 10
704.378809
 20
1225.333458
 11
540.728809
 21
1225.333458
  0
LINE
  8
CSLAYER1
  6
DASHED
 62
     5
 10
727.628809
 20
1059.787266
 11
711.128809
 21
1059.787266
  0
LINE
  8
CSLAYER1
  6
DASHED
 62
     5
 10
727.628809
 20
1077.787266
 11
711.128809
 21
1077.787266
  0
LINE
  8
CSLAYER1
  6
DASHED
 62
     5
 10
727.628809
 20
1059.787266
 11
728.128809
 21
1060.287266
  0
LINE
  8
CSLAYER1
  6
DASHED
 62
     5
 10
728.128809
 20
1077.287266
 11
727.628809
 21
1077.787266
  0
LINE
  8
CSLAYER1
  6
DASHED
 62
     5
 10
728.128809
 20
1060.287266
 11
710.628809
 21
1060.287266
  0
LINE
  8
CSLAYER1
  6
DASHED
 62
     5
 10
728.128809
 20
1077.287266
 11
710.628809
 21
1077.287266
  0
LINE
  8
CSLAYER1
  6
DASHED
 62
     5
 10
711.128809
 20
1059.787266
 11
710.628809
 21
1060.287266
  0
LINE
  8
CSLAYER1
  6
DASHED
 62
     5
 10
710.628809
 20
1077.287266
 11
711.128809
 21
1077.787266
  0
POINT
  8
CSLAYER1
 62
     5
 10
719.378809
 20
1068.787266
  0
LINE
  8
CSLAYER1
  6
DASHED
 62
     5
 10
708.228809
 20
1076.587266
 11
708.228809
 21
1041.937266
  0
LINE
  8
CSLAYER1
  6
DASHED
 62
     5
 10
704.628809
 20
1071.767266
 11
704.628809
 21
1065.807266
  0
LINE
  8
CSLAYER1
  6
DASHED
 62
     5
 10
732.228809
 20
1071.767266
 11
732.228809
 21
1065.807266
  0
LINE
  8
CSLAYER1
  6
DASHED
 62
     5
 10
706.528809
 20
1052.717266
 11
706.528809
 21
1046.757266
  0
LINE
  8
CSLAYER1
  6
DASHED
 62
     5
 10
710.628809
 20
1076.587266
 11
708.228809
 21
1076.587266
  0
LINE
  8
CSLAYER1
  6
DASHED
 62
     5
 10
710.628809
 20
1041.937266
 11
708.228809
 21
1041.937266
  0
LINE
  8
CSLAYER1
  6
DASHED
 62
     5
 10
708.228809
 20
1052.717266
 11
706.528809
 21
1052.717266
  0
LINE
  8
CSLAYER1
  6
DASHED
 62
     5
 10
708.228809
 20
1046.757266
 11
706.528809
 21
1046.757266
  0
LINE
  8
CSLAYER1
  6
DASHED
 62
     5
 10
708.228809
 20
1071.767266
 11
704.628809
 21
1071.767266
  0
LINE
  8
CSLAYER1
  6
DASHED
 62
     5
 10
708.228809
 20
1065.807266
 11
704.628809
 21
1065.807266
  0
LINE
  8
CSLAYER1
  6
DASHED
 62
     5
 10
730.528809
 20
1076.587266
 11
730.528809
 21
1041.937266
  0
LINE
  8
CSLAYER1
  6
DASHED
 62
     5
 10
732.228809
 20
1052.717266
 11
732.228809
 21
1046.757266
  0
LINE
  8
CSLAYER1
  6
DASHED
 62
     5
 10
728.128809
 20
1076.587266
 11
730.528809
 21
1076.587266
  0
LINE
  8
CSLAYER1
  6
DASHED
 62
     5
 10
728.128809
 20
1041.937266
 11
730.528809
 21
1041.937266
  0
LINE
  8
CSLAYER1
  6
DASHED
 62
     5
 10
730.528809
 20
1052.717266
 11
732.228809
 21
1052.717266
  0
LINE
  8
CSLAYER1
  6
DASHED
 62
     5
 10
730.528809
 20
1046.757266
 11
732.228809
 21
1046.757266
  0
LINE
  8
CSLAYER1
  6
DASHED
 62
     5
 10
730.528809
 20
1071.767266
 11
732.228809
 21
1071.767266
  0
LINE
  8
CSLAYER1
  6
DASHED
 62
     5
 10
730.528809
 20
1065.807266
 11
732.228809
 21
1065.807266
  0
LINE
  8
CSLAYER1
  6
DASHED
 62
     5
 10
713.028809
 20
1021.637266
 11
710.628809
 21
1021.637266
  0
LINE
  8
CSLAYER1
  6
DASHED
 62
     5
 10
713.028809
 20
1036.642266
 11
725.728809
 21
1036.642266
  0
LINE
  8
CSLAYER1
  6
DASHED
 62
     5
 10
713.028809
 20
1024.732266
 11
725.728809
 21
1024.732266
  0
LINE
  8
CSLAYER1
  6
DASHED
 62
     5
 10
725.728809
 20
1021.637266
 11
728.128809
 21
1021.637266
  0
LINE
  8
CSLAYER1
  6
DASHED
 62
     5
 10
710.628809
 20
1077.287266
 11
710.628809
 21
897.987674
  0
LINE
  8
CSLAYER1
  6
DASHED
 62
     5
 10
728.128809
 20
1077.287266
 11
728.128809
 21
897.987674
  0
LINE
  8
CSLAYER1
  6
DASHED
 62
     5
 10
725.728809
 20
1058.787266
 11
725.728809
 21
1021.637266
  0
LINE
  8
CSLAYER1
  6
DASHED
 62
     5
 10
725.728809
 20
1058.787266
 11
728.128809
 21
1058.787266
  0
LINE
  8
CSLAYER1
  6
DASHED
 62
     5
 10
725.728809
 20
1055.692266
 11
713.028809
 21
1055.692266
  0
LINE
  8
CSLAYER1
  6
DASHED
 62
     5
 10
725.728809
 20
1043.782266
 11
713.028809
 21
1043.782266
  0
LINE
  8
CSLAYER1
  6
DASHED
 62
     5
 10
713.028809
 20
1058.787266
 11
710.628809
 21
1058.787266
  0
LINE
  8
CSLAYER1
  6
DASHED
 62
     5
 10
713.028809
 20
1058.787266
 11
713.028809
 21
1021.637266
  0
LINE
  8
CSLAYER1
  6
DASHED
 62
     5
 10
734.181226
 20
1068.787266
 11
703.244948
 21
1068.787266
  0
LINE
  8
CSLAYER1
  6
DASHED
 62
     5
 10
733.740852
 20
1049.737266
 11
705.006444
 21
1049.737266
  0
LINE
  8
CSLAYER1
  6
DASHED
 62
     5
 10
708.228809
 20
897.987674
 11
708.228809
 21
962.287266
  0
LINE
  8
CSLAYER1
  6
DASHED
 62
     5
 10
706.528809
 20
908.767674
 11
706.528809
 21
902.807674
  0
LINE
  8
CSLAYER1
  6
DASHED
 62
     5
 10
710.628809
 20
897.987674
 11
708.228809
 21
897.987674
  0
LINE
  8
CSLAYER1
  6
DASHED
 62
     5
 10
708.228809
 20
908.767674
 11
706.528809
 21
908.767674
  0
LINE
  8
CSLAYER1
  6
DASHED
 62
     5
 10
708.228809
 20
902.807674
 11
706.528809
 21
902.807674
  0
LINE
  8
CSLAYER1
  6
DASHED
 62
     5
 10
730.528809
 20
897.987674
 11
730.528809
 21
962.287266
  0
LINE
  8
CSLAYER1
  6
DASHED
 62
     5
 10
732.228809
 20
908.767674
 11
732.228809
 21
902.807674
  0
LINE
  8
CSLAYER1
  6
DASHED
 62
     5
 10
728.128809
 20
897.987674
 11
730.528809
 21
897.987674
  0
LINE
  8
CSLAYER1
  6
DASHED
 62
     5
 10
730.528809
 20
908.767674
 11
732.228809
 21
908.767674
  0
LINE
  8
CSLAYER1
  6
DASHED
 62
     5
 10
730.528809
 20
902.807674
 11
732.228809
 21
902.807674
  0
LINE
  8
CSLAYER1
  6
DASHED
 62
     5
 10
733.740852
 20
905.787674
 11
705.006444
 21
905.787674
  0
LINE
  8
CSLAYER1
  6
DASHED
 62
     5
 10
728.128809
 20
898.787674
 11
723.878809
 21
898.787674
  0
POINT
  8
CSLAYER1
 62
     5
 10
719.378809
 20
1030.687266
  0
LINE
  8
CSLAYER1
  6
DASHED
 62
     5
 10
708.228809
 20
1038.487266
 11
708.228809
 21
1003.837266
  0
LINE
  8
CSLAYER1
  6
DASHED
 62
     5
 10
704.628809
 20
1033.667266
 11
704.628809
 21
1027.707266
  0
LINE
  8
CSLAYER1
  6
DASHED
 62
     5
 10
732.228809
 20
1033.667266
 11
732.228809
 21
1027.707266
  0
LINE
  8
CSLAYER1
  6
DASHED
 62
     5
 10
706.528809
 20
1014.617266
 11
706.528809
 21
1008.657266
  0
LINE
  8
CSLAYER1
  6
DASHED
 62
     5
 10
710.628809
 20
1038.487266
 11
708.228809
 21
1038.487266
  0
LINE
  8
CSLAYER1
  6
DASHED
 62
     5
 10
710.628809
 20
1003.837266
 11
708.228809
 21
1003.837266
  0
LINE
  8
CSLAYER1
  6
DASHED
 62
     5
 10
708.228809
 20
1014.617266
 11
706.528809
 21
1014.617266
  0
LINE
  8
CSLAYER1
  6
DASHED
 62
     5
 10
708.228809
 20
1008.657266
 11
706.528809
 21
1008.657266
  0
LINE
  8
CSLAYER1
  6
DASHED
 62
     5
 10
708.228809
 20
1033.667266
 11
704.628809
 21
1033.667266
  0
LINE
  8
CSLAYER1
  6
DASHED
 62
     5
 10
708.228809
 20
1027.707266
 11
704.628809
 21
1027.707266
  0
LINE
  8
CSLAYER1
  6
DASHED
 62
     5
 10
730.528809
 20
1038.487266
 11
730.528809
 21
1003.837266
  0
LINE
  8
CSLAYER1
  6
DASHED
 62
     5
 10
732.228809
 20
1014.617266
 11
732.228809
 21
1008.657266
  0
LINE
  8
CSLAYER1
  6
DASHED
 62
     5
 10
728.128809
 20
1038.487266
 11
730.528809
 21
1038.487266
  0
LINE
  8
CSLAYER1
  6
DASHED
 62
     5
 10
728.128809
 20
1003.837266
 11
730.528809
 21
1003.837266
  0
LINE
  8
CSLAYER1
  6
DASHED
 62
     5
 10
730.528809
 20
1014.617266
 11
732.228809
 21
1014.617266
  0
LINE
  8
CSLAYER1
  6
DASHED
 62
     5
 10
730.528809
 20
1008.657266
 11
732.228809
 21
1008.657266
  0
LINE
  8
CSLAYER1
  6
DASHED
 62
     5
 10
730.528809
 20
1033.667266
 11
732.228809
 21
1033.667266
  0
LINE
  8
CSLAYER1
  6
DASHED
 62
     5
 10
730.528809
 20
1027.707266
 11
732.228809
 21
1027.707266
  0
LINE
  8
CSLAYER1
  6
DASHED
 62
     5
 10
713.028809
 20
983.537266
 11
710.628809
 21
983.537266
  0
LINE
  8
CSLAYER1
  6
DASHED
 62
     5
 10
713.028809
 20
998.542266
 11
725.728809
 21
998.542266
  0
LINE
  8
CSLAYER1
  6
DASHED
 62
     5
 10
713.028809
 20
986.632266
 11
725.728809
 21
986.632266
  0
LINE
  8
CSLAYER1
  6
DASHED
 62
     5
 10
725.728809
 20
983.537266
 11
728.128809
 21
983.537266
  0
LINE
  8
CSLAYER1
  6
DASHED
 62
     5
 10
725.728809
 20
1020.687266
 11
725.728809
 21
983.537266
  0
LINE
  8
CSLAYER1
  6
DASHED
 62
     5
 10
725.728809
 20
1020.687266
 11
728.128809
 21
1020.687266
  0
LINE
  8
CSLAYER1
  6
DASHED
 62
     5
 10
725.728809
 20
1017.592266
 11
713.028809
 21
1017.592266
  0
LINE
  8
CSLAYER1
  6
DASHED
 62
     5
 10
725.728809
 20
1005.682266
 11
713.028809
 21
1005.682266
  0
LINE
  8
CSLAYER1
  6
DASHED
 62
     5
 10
713.028809
 20
1020.687266
 11
710.628809
 21
1020.687266
  0
LINE
  8
CSLAYER1
  6
DASHED
 62
     5
 10
713.028809
 20
1020.687266
 11
713.028809
 21
983.537266
  0
LINE
  8
CSLAYER1
  6
DASHED
 62
     5
 10
733.740852
 20
992.587266
 11
705.006444
 21
992.587266
  0
LINE
  8
CSLAYER1
  6
DASHED
 62
     5
 10
734.181226
 20
1030.687266
 11
703.244948
 21
1030.687266
  0
LINE
  8
CSLAYER1
  6
DASHED
 62
     5
 10
733.740852
 20
1011.637266
 11
705.006444
 21
1011.637266
  0
POINT
  8
CSLAYER1
 62
     5
 10
719.378809
 20
992.587266
  0
LINE
  8
CSLAYER1
  6
DASHED
 62
     5
 10
708.228809
 20
1000.387266
 11
708.228809
 21
965.737266
  0
LINE
  8
CSLAYER1
  6
DASHED
 62
     5
 10
704.628809
 20
995.567266
 11
704.628809
 21
989.607266
  0
LINE
  8
CSLAYER1
  6
DASHED
 62
     5
 10
732.228809
 20
995.567266
 11
732.228809
 21
989.607266
  0
LINE
  8
CSLAYER1
  6
DASHED
 62
     5
 10
706.528809
 20
976.517266
 11
706.528809
 21
970.557266
  0
LINE
  8
CSLAYER1
  6
DASHED
 62
     5
 10
710.628809
 20
1000.387266
 11
708.228809
 21
1000.387266
  0
LINE
  8
CSLAYER1
  6
DASHED
 62
     5
 10
710.628809
 20
965.737266
 11
708.228809
 21
965.737266
  0
LINE
  8
CSLAYER1
  6
DASHED
 62
     5
 10
708.228809
 20
976.517266
 11
706.528809
 21
976.517266
  0
LINE
  8
CSLAYER1
  6
DASHED
 62
     5
 10
708.228809
 20
970.557266
 11
706.528809
 21
970.557266
  0
LINE
  8
CSLAYER1
  6
DASHED
 62
     5
 10
708.228809
 20
995.567266
 11
704.628809
 21
995.567266
  0
LINE
  8
CSLAYER1
  6
DASHED
 62
     5
 10
708.228809
 20
989.607266
 11
704.628809
 21
989.607266
  0
LINE
  8
CSLAYER1
  6
DASHED
 62
     5
 10
730.528809
 20
1000.387266
 11
730.528809
 21
965.737266
  0
LINE
  8
CSLAYER1
  6
DASHED
 62
     5
 10
732.228809
 20
976.517266
 11
732.228809
 21
970.557266
  0
LINE
  8
CSLAYER1
  6
DASHED
 62
     5
 10
728.128809
 20
1000.387266
 11
730.528809
 21
1000.387266
  0
LINE
  8
CSLAYER1
  6
DASHED
 62
     5
 10
728.128809
 20
965.737266
 11
730.528809
 21
965.737266
  0
LINE
  8
CSLAYER1
  6
DASHED
 62
     5
 10
730.528809
 20
976.517266
 11
732.228809
 21
976.517266
  0
LINE
  8
CSLAYER1
  6
DASHED
 62
     5
 10
730.528809
 20
970.557266
 11
732.228809
 21
970.557266
  0
LINE
  8
CSLAYER1
  6
DASHED
 62
     5
 10
730.528809
 20
995.567266
 11
732.228809
 21
995.567266
  0
LINE
  8
CSLAYER1
  6
DASHED
 62
     5
 10
730.528809
 20
989.607266
 11
732.228809
 21
989.607266
  0
LINE
  8
CSLAYER1
  6
DASHED
 62
     5
 10
713.028809
 20
945.437266
 11
710.628809
 21
945.437266
  0
LINE
  8
CSLAYER1
  6
DASHED
 62
     5
 10
713.028809
 20
960.442266
 11
725.728809
 21
960.442266
  0
LINE
  8
CSLAYER1
  6
DASHED
 62
     5
 10
713.028809
 20
948.532266
 11
725.728809
 21
948.532266
  0
LINE
  8
CSLAYER1
  6
DASHED
 62
     5
 10
725.728809
 20
945.437266
 11
728.128809
 21
945.437266
  0
LINE
  8
CSLAYER1
  6
DASHED
 62
     5
 10
725.728809
 20
982.587266
 11
725.728809
 21
945.437266
  0
LINE
  8
CSLAYER1
  6
DASHED
 62
     5
 10
725.728809
 20
982.587266
 11
728.128809
 21
982.587266
  0
LINE
  8
CSLAYER1
  6
DASHED
 62
     5
 10
725.728809
 20
979.492266
 11
713.028809
 21
979.492266
  0
LINE
  8
CSLAYER1
  6
DASHED
 62
     5
 10
725.728809
 20
967.582266
 11
713.028809
 21
967.582266
  0
LINE
  8
CSLAYER1
  6
DASHED
 62
     5
 10
713.028809
 20
982.587266
 11
710.628809
 21
982.587266
  0
LINE
  8
CSLAYER1
  6
DASHED
 62
     5
 10
713.028809
 20
982.587266
 11
713.028809
 21
945.437266
  0
LINE
  8
CSLAYER1
  6
DASHED
 62
     5
 10
733.740852
 20
973.537266
 11
705.006444
 21
973.537266
  0
POINT
  8
CSLAYER1
 62
     5
 10
719.378809
 20
954.487266
  0
LINE
  8
CSLAYER1
  6
DASHED
 62
     5
 10
734.181226
 20
954.487266
 11
703.244948
 21
954.487266
  0
LINE
  8
CSLAYER1
  6
DASHED
 62
     5
 10
704.628809
 20
957.467266
 11
704.628809
 21
951.507266
  0
LINE
  8
CSLAYER1
  6
DASHED
 62
     5
 10
732.228809
 20
957.467266
 11
732.228809
 21
951.507266
  0
LINE
  8
CSLAYER1
  6
DASHED
 62
     5
 10
706.528809
 20
938.417266
 11
706.528809
 21
932.457266
  0
LINE
  8
CSLAYER1
  6
DASHED
 62
     5
 10
710.628809
 20
962.287266
 11
708.228809
 21
962.287266
  0
LINE
  8
CSLAYER1
  6
DASHED
 62
     5
 10
710.628809
 20
927.637266
 11
708.228809
 21
927.637266
  0
LINE
  8
CSLAYER1
  6
DASHED
 62
     5
 10
708.228809
 20
938.417266
 11
706.528809
 21
938.417266
  0
LINE
  8
CSLAYER1
  6
DASHED
 62
     5
 10
708.228809
 20
932.457266
 11
706.528809
 21
932.457266
  0
LINE
  8
CSLAYER1
  6
DASHED
 62
     5
 10
708.228809
 20
957.467266
 11
704.628809
 21
957.467266
  0
LINE
  8
CSLAYER1
  6
DASHED
 62
     5
 10
708.228809
 20
951.507266
 11
704.628809
 21
951.507266
  0
LINE
  8
CSLAYER1
  6
DASHED
 62
     5
 10
732.228809
 20
938.417266
 11
732.228809
 21
932.457266
  0
LINE
  8
CSLAYER1
  6
DASHED
 62
     5
 10
728.128809
 20
962.287266
 11
730.528809
 21
962.287266
  0
LINE
  8
CSLAYER1
  6
DASHED
 62
     5
 10
728.128809
 20
927.637266
 11
730.528809
 21
927.637266
  0
LINE
  8
CSLAYER1
  6
DASHED
 62
     5
 10
730.528809
 20
938.417266
 11
732.228809
 21
938.417266
  0
LINE
  8
CSLAYER1
  6
DASHED
 62
     5
 10
730.528809
 20
932.457266
 11
732.228809
 21
932.457266
  0
LINE
  8
CSLAYER1
  6
DASHED
 62
     5
 10
730.528809
 20
957.467266
 11
732.228809
 21
957.467266
  0
LINE
  8
CSLAYER1
  6
DASHED
 62
     5
 10
730.528809
 20
951.507266
 11
732.228809
 21
951.507266
  0
LINE
  8
CSLAYER1
  6
DASHED
 62
     5
 10
713.028809
 20
907.337266
 11
710.628809
 21
907.337266
  0
LINE
  8
CSLAYER1
  6
DASHED
 62
     5
 10
713.028809
 20
922.342266
 11
725.728809
 21
922.342266
  0
LINE
  8
CSLAYER1
  6
DASHED
 62
     5
 10
725.728809
 20
907.337266
 11
728.128809
 21
907.337266
  0
LINE
  8
CSLAYER1
  6
DASHED
 62
     5
 10
725.728809
 20
944.487266
 11
725.728809
 21
907.337266
  0
LINE
  8
CSLAYER1
  6
DASHED
 62
     5
 10
725.728809
 20
944.487266
 11
728.128809
 21
944.487266
  0
LINE
  8
CSLAYER1
  6
DASHED
 62
     5
 10
725.728809
 20
941.392266
 11
713.028809
 21
941.392266
  0
LINE
  8
CSLAYER1
  6
DASHED
 62
     5
 10
725.728809
 20
929.482266
 11
713.028809
 21
929.482266
  0
LINE
  8
CSLAYER1
  6
DASHED
 62
     5
 10
713.028809
 20
944.487266
 11
710.628809
 21
944.487266
  0
LINE
  8
CSLAYER1
  6
DASHED
 62
     5
 10
713.028809
 20
944.487266
 11
713.028809
 21
907.337266
  0
LINE
  8
CSLAYER1
  6
DASHED
 62
     5
 10
733.740852
 20
935.437266
 11
705.006444
 21
935.437266
  0
LINE
  8
CSLAYER1
  6
DASHED
 62
     5
 10
733.740852
 20
916.387266
 11
705.006444
 21
916.387266
  0
LINE
  8
CSLAYER1
  6
DASHED
 62
     5
 10
723.878809
 20
881.627604
 11
724.878809
 21
881.627604
  0
LINE
  8
CSLAYER1
  6
DASHED
 62
     5
 10
708.878809
 20
879.627604
 11
708.878809
 21
858.627604
  0
LINE
  8
CSLAYER1
  6
DASHED
 62
     5
 10
724.878809
 20
885.627604
 11
724.878809
 21
852.627604
  0
LINE
  8
CSLAYER1
  6
DASHED
 62
     5
 10
708.878809
 20
879.627604
 11
709.878809
 21
880.627604
  0
LINE
  8
CSLAYER1
  6
DASHED
 62
     5
 10
709.878809
 20
880.627604
 11
709.878809
 21
857.627604
  0
LINE
  8
CSLAYER1
  6
DASHED
 62
     5
 10
765.378809
 20
887.177604
 11
765.378809
 21
851.077604
  0
LINE
  8
CSLAYER1
  6
DASHED
 62
     5
 10
755.378809
 20
888.177604
 11
764.378809
 21
888.177604
  0
LINE
  8
CSLAYER1
  6
DASHED
 62
     5
 10
725.878809
 20
886.627604
 11
746.378809
 21
886.627604
  0
LINE
  8
CSLAYER1
  6
DASHED
 62
     5
 10
765.378809
 20
887.177604
 11
764.378809
 21
888.177604
  0
LINE
  8
CSLAYER1
  6
DASHED
 62
     5
 10
724.878809
 20
885.627604
 11
725.878809
 21
886.627604
  0
LINE
  8
CSLAYER1
  6
DASHED
 62
     5
 10
708.878809
 20
869.127604
 11
794.378809
 21
869.127604
  0
LINE
  8
CSLAYER1
  6
DASHED
 62
     5
 10
723.878809
 20
922.342266
 11
723.878809
 21
836.214102
  0
LINE
  8
CSLAYER1
  6
DASHED
 62
     5
 10
714.878809
 20
922.342266
 11
714.878809
 21
837.330694
  0
LINE
  8
CSLAYER1
  6
DASHED
 62
     5
 10
714.878809
 20
917.787428
 11
723.878809
 21
917.787428
  0
LINE
  8
CSLAYER1
  6
DASHED
 62
     5
 10
713.028809
 20
912.787674
 11
714.878809
 21
912.787674
  0
LINE
  8
CSLAYER1
  6
DASHED
 62
     5
 10
765.378809
 20
881.627604
 11
766.378809
 21
881.627604
  0
LINE
  8
CSLAYER1
  6
DASHED
 62
     5
 10
764.378809
 20
888.177604
 11
764.378809
 21
850.077604
  0
LINE
  8
CSLAYER1
  6
DASHED
 62
     5
 10
725.878809
 20
886.627604
 11
725.878809
 21
869.191966
  0
LINE
  8
CSLAYER1
  6
DASHED
 62
     5
 10
723.878809
 20
856.627604
 11
724.878809
 21
856.627604
  0
LINE
  8
CSLAYER1
  6
DASHED
 62
     5
 10
708.878809
 20
858.627604
 11
709.878809
 21
857.627604
  0
LINE
  8
CSLAYER1
  6
DASHED
 62
     5
 10
755.378809
 20
850.077604
 11
764.378809
 21
850.077604
  0
LINE
  8
CSLAYER1
  6
DASHED
 62
     5
 10
725.878809
 20
851.627604
 11
746.378809
 21
851.627604
  0
LINE
  8
CSLAYER1
  6
DASHED
 62
     5
 10
765.378809
 20
851.077604
 11
764.378809
 21
850.077604
  0
LINE
  8
CSLAYER1
  6
DASHED
 62
     5
 10
724.878809
 20
852.627604
 11
725.878809
 21
851.627604
  0
LINE
  8
CSLAYER1
  6
DASHED
 62
     5
 10
765.378809
 20
856.627604
 11
766.378809
 21
856.627604
  0
LINE
  8
CSLAYER1
  6
DASHED
 62
     5
 10
725.878809
 20
851.627604
 11
725.878809
 21
869.063242
  0
LINE
  8
CSLAYER1
  6
DASHED
 62
     5
 10
311.128809
 20
1202.702459
 11
327.628809
 21
1202.702459
  0
LINE
  8
CSLAYER1
  6
DASHED
 62
     5
 10
311.128809
 20
1220.702459
 11
327.628809
 21
1220.702459
  0
LINE
  8
CSLAYER1
  6
DASHED
 62
     5
 10
311.128809
 20
1202.702459
 11
310.628809
 21
1203.202459
  0
LINE
  8
CSLAYER1
  6
DASHED
 62
     5
 10
310.628809
 20
1220.202459
 11
311.128809
 21
1220.702459
  0
LINE
  8
CSLAYER1
  6
DASHED
 62
     5
 10
310.628809
 20
1203.202459
 11
328.128809
 21
1203.202459
  0
LINE
  8
CSLAYER1
  6
DASHED
 62
     5
 10
310.628809
 20
1220.202459
 11
328.128809
 21
1220.202459
  0
LINE
  8
CSLAYER1
  6
DASHED
 62
     5
 10
327.628809
 20
1202.702459
 11
328.128809
 21
1203.202459
  0
LINE
  8
CSLAYER1
  6
DASHED
 62
     5
 10
328.128809
 20
1220.202459
 11
327.628809
 21
1220.702459
  0
POINT
  8
CSLAYER1
 62
     5
 10
319.378809
 20
1211.702459
  0
LINE
  8
CSLAYER1
  6
DASHED
 62
     5
 10
330.528809
 20
1219.502459
 11
330.528809
 21
1184.852459
  0
LINE
  8
CSLAYER1
  6
DASHED
 62
     5
 10
334.128809
 20
1214.682459
 11
334.128809
 21
1208.722459
  0
LINE
  8
CSLAYER1
  6
DASHED
 62
     5
 10
306.528809
 20
1214.682459
 11
306.528809
 21
1208.722459
  0
LINE
  8
CSLAYER1
  6
DASHED
 62
     5
 10
332.228809
 20
1195.632459
 11
332.228809
 21
1189.672459
  0
LINE
  8
CSLAYER1
  6
DASHED
 62
     5
 10
328.128809
 20
1219.502459
 11
330.528809
 21
1219.502459
  0
LINE
  8
CSLAYER1
  6
DASHED
 62
     5
 10
328.128809
 20
1184.852459
 11
330.528809
 21
1184.852459
  0
LINE
  8
CSLAYER1
  6
DASHED
 62
     5
 10
330.528809
 20
1195.632459
 11
332.228809
 21
1195.632459
  0
LINE
  8
CSLAYER1
  6
DASHED
 62
     5
 10
330.528809
 20
1189.672459
 11
332.228809
 21
1189.672459
  0
LINE
  8
CSLAYER1
  6
DASHED
 62
     5
 10
330.528809
 20
1214.682459
 11
334.128809
 21
1214.682459
  0
LINE
  8
CSLAYER1
  6
DASHED
 62
     5
 10
330.528809
 20
1208.722459
 11
334.128809
 21
1208.722459
  0
LINE
  8
CSLAYER1
  6
DASHED
 62
     5
 10
308.228809
 20
1219.502459
 11
308.228809
 21
1184.852459
  0
LINE
  8
CSLAYER1
  6
DASHED
 62
     5
 10
306.528809
 20
1195.632459
 11
306.528809
 21
1189.672459
  0
LINE
  8
CSLAYER1
  6
DASHED
 62
     5
 10
310.628809
 20
1219.502459
 11
308.228809
 21
1219.502459
  0
LINE
  8
CSLAYER1
  6
DASHED
 62
     5
 10
310.628809
 20
1184.852459
 11
308.228809
 21
1184.852459
  0
LINE
  8
CSLAYER1
  6
DASHED
 62
     5
 10
308.228809
 20
1195.632459
 11
306.528809
 21
1195.632459
  0
LINE
  8
CSLAYER1
  6
DASHED
 62
     5
 10
308.228809
 20
1189.672459
 11
306.528809
 21
1189.672459
  0
LINE
  8
CSLAYER1
  6
DASHED
 62
     5
 10
308.228809
 20
1214.682459
 11
306.528809
 21
1214.682459
  0
LINE
  8
CSLAYER1
  6
DASHED
 62
     5
 10
308.228809
 20
1208.722459
 11
306.528809
 21
1208.722459
  0
LINE
  8
CSLAYER1
  6
DASHED
 62
     5
 10
325.728809
 20
1164.552459
 11
328.128809
 21
1164.552459
  0
LINE
  8
CSLAYER1
  6
DASHED
 62
     5
 10
325.728809
 20
1179.557459
 11
313.028809
 21
1179.557459
  0
LINE
  8
CSLAYER1
  6
DASHED
 62
     5
 10
325.728809
 20
1167.647459
 11
313.028809
 21
1167.647459
  0
LINE
  8
CSLAYER1
  6
DASHED
 62
     5
 10
313.028809
 20
1164.552459
 11
310.628809
 21
1164.552459
  0
LINE
  8
CSLAYER1
  6
DASHED
 62
     5
 10
328.128809
 20
1220.202459
 11
328.128809
 21
1088.352459
  0
LINE
  8
CSLAYER1
  6
DASHED
 62
     5
 10
310.628809
 20
1220.202459
 11
310.628809
 21
1088.352459
  0
LINE
  8
CSLAYER1
  6
DASHED
 62
     5
 10
313.028809
 20
1201.702459
 11
313.028809
 21
1164.552459
  0
LINE
  8
CSLAYER1
  6
DASHED
 62
     5
 10
313.028809
 20
1201.702459
 11
310.628809
 21
1201.702459
  0
LINE
  8
CSLAYER1
  6
DASHED
 62
     5
 10
313.028809
 20
1198.607459
 11
325.728809
 21
1198.607459
  0
LINE
  8
CSLAYER1
  6
DASHED
 62
     5
 10
313.028809
 20
1186.697459
 11
325.728809
 21
1186.697459
  0
LINE
  8
CSLAYER1
  6
DASHED
 62
     5
 10
325.728809
 20
1201.702459
 11
328.128809
 21
1201.702459
  0
LINE
  8
CSLAYER1
  6
DASHED
 62
     5
 10
325.728809
 20
1201.702459
 11
325.728809
 21
1164.552459
  0
LINE
  8
CSLAYER1
  6
DASHED
 62
     5
 10
304.576391
 20
1211.702459
 11
335.512669
 21
1211.702459
  0
LINE
  8
CSLAYER1
  6
DASHED
 62
     5
 10
305.016765
 20
1192.652459
 11
333.751173
 21
1192.652459
  0
POINT
  8
CSLAYER1
 62
     5
 10
319.378809
 20
1173.602459
  0
LINE
  8
CSLAYER1
  6
DASHED
 62
     5
 10
330.528809
 20
1181.402459
 11
330.528809
 21
1146.752459
  0
LINE
  8
CSLAYER1
  6
DASHED
 62
     5
 10
334.128809
 20
1176.582459
 11
334.128809
 21
1170.622459
  0
LINE
  8
CSLAYER1
  6
DASHED
 62
     5
 10
306.528809
 20
1176.582459
 11
306.528809
 21
1170.622459
  0
LINE
  8
CSLAYER1
  6
DASHED
 62
     5
 10
332.228809
 20
1157.532459
 11
332.228809
 21
1151.572459
  0
LINE
  8
CSLAYER1
  6
DASHED
 62
     5
 10
328.128809
 20
1181.402459
 11
330.528809
 21
1181.402459
  0
LINE
  8
CSLAYER1
  6
DASHED
 62
     5
 10
328.128809
 20
1146.752459
 11
330.528809
 21
1146.752459
  0
LINE
  8
CSLAYER1
  6
DASHED
 62
     5
 10
330.528809
 20
1157.532459
 11
332.228809
 21
1157.532459
  0
LINE
  8
CSLAYER1
  6
DASHED
 62
     5
 10
330.528809
 20
1151.572459
 11
332.228809
 21
1151.572459
  0
LINE
  8
CSLAYER1
  6
DASHED
 62
     5
 10
330.528809
 20
1176.582459
 11
334.128809
 21
1176.582459
  0
LINE
  8
CSLAYER1
  6
DASHED
 62
     5
 10
330.528809
 20
1170.622459
 11
334.128809
 21
1170.622459
  0
LINE
  8
CSLAYER1
  6
DASHED
 62
     5
 10
308.228809
 20
1181.402459
 11
308.228809
 21
1146.752459
  0
LINE
  8
CSLAYER1
  6
DASHED
 62
     5
 10
306.528809
 20
1157.532459
 11
306.528809
 21
1151.572459
  0
LINE
  8
CSLAYER1
  6
DASHED
 62
     5
 10
310.628809
 20
1181.402459
 11
308.228809
 21
1181.402459
  0
LINE
  8
CSLAYER1
  6
DASHED
 62
     5
 10
310.628809
 20
1146.752459
 11
308.228809
 21
1146.752459
  0
LINE
  8
CSLAYER1
  6
DASHED
 62
     5
 10
308.228809
 20
1157.532459
 11
306.528809
 21
1157.532459
  0
LINE
  8
CSLAYER1
  6
DASHED
 62
     5
 10
308.228809
 20
1151.572459
 11
306.528809
 21
1151.572459
  0
LINE
  8
CSLAYER1
  6
DASHED
 62
     5
 10
308.228809
 20
1176.582459
 11
306.528809
 21
1176.582459
  0
LINE
  8
CSLAYER1
  6
DASHED
 62
     5
 10
308.228809
 20
1170.622459
 11
306.528809
 21
1170.622459
  0
LINE
  8
CSLAYER1
  6
DASHED
 62
     5
 10
325.728809
 20
1126.452459
 11
328.128809
 21
1126.452459
  0
LINE
  8
CSLAYER1
  6
DASHED
 62
     5
 10
325.728809
 20
1141.457459
 11
313.028809
 21
1141.457459
  0
LINE
  8
CSLAYER1
  6
DASHED
 62
     5
 10
325.728809
 20
1129.547459
 11
313.028809
 21
1129.547459
  0
LINE
  8
CSLAYER1
  6
DASHED
 62
     5
 10
313.028809
 20
1126.452459
 11
310.628809
 21
1126.452459
  0
LINE
  8
CSLAYER1
  6
DASHED
 62
     5
 10
313.028809
 20
1163.602459
 11
313.028809
 21
1126.452459
  0
LINE
  8
CSLAYER1
  6
DASHED
 62
     5
 10
313.028809
 20
1163.602459
 11
310.628809
 21
1163.602459
  0
LINE
  8
CSLAYER1
  6
DASHED
 62
     5
 10
313.028809
 20
1160.507459
 11
325.728809
 21
1160.507459
  0
LINE
  8
CSLAYER1
  6
DASHED
 62
     5
 10
313.028809
 20
1148.597459
 11
325.728809
 21
1148.597459
  0
LINE
  8
CSLAYER1
  6
DASHED
 62
     5
 10
325.728809
 20
1163.602459
 11
328.128809
 21
1163.602459
  0
LINE
  8
CSLAYER1
  6
DASHED
 62
     5
 10
325.728809
 20
1163.602459
 11
325.728809
 21
1126.452459
  0
LINE
  8
CSLAYER1
  6
DASHED
 62
     5
 10
305.016765
 20
1135.502459
 11
333.751173
 21
1135.502459
  0
LINE
  8
CSLAYER1
  6
DASHED
 62
     5
 10
304.576391
 20
1173.602459
 11
335.512669
 21
1173.602459
  0
LINE
  8
CSLAYER1
  6
DASHED
 62
     5
 10
305.016765
 20
1154.552459
 11
333.751173
 21
1154.552459
  0
POINT
  8
CSLAYER1
 62
     5
 10
319.378809
 20
1135.502459
  0
LINE
  8
CSLAYER1
  6
DASHED
 62
     5
 10
330.528809
 20
1143.302459
 11
330.528809
 21
1108.652459
  0
LINE
  8
CSLAYER1
  6
DASHED
 62
     5
 10
334.128809
 20
1138.482459
 11
334.128809
 21
1132.522459
  0
LINE
  8
CSLAYER1
  6
DASHED
 62
     5
 10
306.528809
 20
1138.482459
 11
306.528809
 21
1132.522459
  0
LINE
  8
CSLAYER1
  6
DASHED
 62
     5
 10
332.228809
 20
1119.432459
 11
332.228809
 21
1113.472459
  0
LINE
  8
CSLAYER1
  6
DASHED
 62
     5
 10
328.128809
 20
1143.302459
 11
330.528809
 21
1143.302459
  0
LINE
  8
CSLAYER1
  6
DASHED
 62
     5
 10
328.128809
 20
1108.652459
 11
330.528809
 21
1108.652459
  0
LINE
  8
CSLAYER1
  6
DASHED
 62
     5
 10
330.528809
 20
1119.432459
 11
332.228809
 21
1119.432459
  0
LINE
  8
CSLAYER1
  6
DASHED
 62
     5
 10
330.528809
 20
1113.472459
 11
332.228809
 21
1113.472459
  0
LINE
  8
CSLAYER1
  6
DASHED
 62
     5
 10
330.528809
 20
1138.482459
 11
334.128809
 21
1138.482459
  0
LINE
  8
CSLAYER1
  6
DASHED
 62
     5
 10
330.528809
 20
1132.522459
 11
334.128809
 21
1132.522459
  0
LINE
  8
CSLAYER1
  6
DASHED
 62
     5
 10
308.228809
 20
1143.302459
 11
308.228809
 21
1108.652459
  0
LINE
  8
CSLAYER1
  6
DASHED
 62
     5
 10
306.528809
 20
1119.432459
 11
306.528809
 21
1113.472459
  0
LINE
  8
CSLAYER1
  6
DASHED
 62
     5
 10
310.628809
 20
1143.302459
 11
308.228809
 21
1143.302459
  0
LINE
  8
CSLAYER1
  6
DASHED
 62
     5
 10
310.628809
 20
1108.652459
 11
308.228809
 21
1108.652459
  0
LINE
  8
CSLAYER1
  6
DASHED
 62
     5
 10
308.228809
 20
1119.432459
 11
306.528809
 21
1119.432459
  0
LINE
  8
CSLAYER1
  6
DASHED
 62
     5
 10
308.228809
 20
1113.472459
 11
306.528809
 21
1113.472459
  0
LINE
  8
CSLAYER1
  6
DASHED
 62
     5
 10
308.228809
 20
1138.482459
 11
306.528809
 21
1138.482459
  0
LINE
  8
CSLAYER1
  6
DASHED
 62
     5
 10
308.228809
 20
1132.522459
 11
306.528809
 21
1132.522459
  0
LINE
  8
CSLAYER1
  6
DASHED
 62
     5
 10
325.728809
 20
1088.352459
 11
328.128809
 21
1088.352459
  0
LINE
  8
CSLAYER1
  6
DASHED
 62
     5
 10
325.728809
 20
1103.357459
 11
313.028809
 21
1103.357459
  0
LINE
  8
CSLAYER1
  6
DASHED
 62
     5
 10
325.728809
 20
1091.447459
 11
313.028809
 21
1091.447459
  0
LINE
  8
CSLAYER1
  6
DASHED
 62
     5
 10
313.028809
 20
1088.352459
 11
310.628809
 21
1088.352459
  0
LINE
  8
CSLAYER1
  6
DASHED
 62
     5
 10
313.028809
 20
1125.502459
 11
313.028809
 21
1088.352459
  0
LINE
  8
CSLAYER1
  6
DASHED
 62
     5
 10
313.028809
 20
1125.502459
 11
310.628809
 21
1125.502459
  0
LINE
  8
CSLAYER1
  6
DASHED
 62
     5
 10
313.028809
 20
1122.407459
 11
325.728809
 21
1122.407459
  0
LINE
  8
CSLAYER1
  6
DASHED
 62
     5
 10
313.028809
 20
1110.497459
 11
325.728809
 21
1110.497459
  0
LINE
  8
CSLAYER1
  6
DASHED
 62
     5
 10
325.728809
 20
1125.502459
 11
328.128809
 21
1125.502459
  0
LINE
  8
CSLAYER1
  6
DASHED
 62
     5
 10
325.728809
 20
1125.502459
 11
325.728809
 21
1088.352459
  0
LINE
  8
CSLAYER1
  6
DASHED
 62
     5
 10
305.016765
 20
1116.452459
 11
333.751173
 21
1116.452459
  0
POINT
  8
CSLAYER1
 62
     5
 10
319.378809
 20
1097.402459
  0
LINE
  8
CSLAYER1
  6
DASHED
 62
     5
 10
304.576391
 20
1097.402459
 11
335.512669
 21
1097.402459
  0
LINE
  8
CSLAYER1
  6
DASHED
 62
     5
 10
334.128809
 20
1100.382459
 11
334.128809
 21
1094.422459
  0
LINE
  8
CSLAYER1
  6
DASHED
 62
     5
 10
306.528809
 20
1100.382459
 11
306.528809
 21
1094.422459
  0
LINE
  8
CSLAYER1
  6
DASHED
 62
     5
 10
328.128809
 20
1105.202459
 11
330.528809
 21
1105.202459
  0
LINE
  8
CSLAYER1
  6
DASHED
 62
     5
 10
330.528809
 20
1100.382459
 11
334.128809
 21
1100.382459
  0
LINE
  8
CSLAYER1
  6
DASHED
 62
     5
 10
330.528809
 20
1094.422459
 11
334.128809
 21
1094.422459
  0
LINE
  8
CSLAYER1
  6
DASHED
 62
     5
 10
310.628809
 20
1105.202459
 11
308.228809
 21
1105.202459
  0
LINE
  8
CSLAYER1
  6
DASHED
 62
     5
 10
308.228809
 20
1100.382459
 11
306.528809
 21
1100.382459
  0
LINE
  8
CSLAYER1
  6
DASHED
 62
     5
 10
308.228809
 20
1094.422459
 11
306.528809
 21
1094.422459
  0
LINE
  8
CSLAYER1
  6
DASHED
 62
     5
 10
313.028809
 20
1087.402459
 11
310.628809
 21
1087.402459
  0
LINE
  8
CSLAYER1
  6
DASHED
 62
     5
 10
325.728809
 20
1087.402459
 11
328.128809
 21
1087.402459
  0
LINE
  8
CSLAYER1
  6
DASHED
 62
     5
 10
727.628809
 20
1202.702459
 11
711.128809
 21
1202.702459
  0
LINE
  8
CSLAYER1
  6
DASHED
 62
     5
 10
727.628809
 20
1220.702459
 11
711.128809
 21
1220.702459
  0
LINE
  8
CSLAYER1
  6
DASHED
 62
     5
 10
727.628809
 20
1202.702459
 11
728.128809
 21
1203.202459
  0
LINE
  8
CSLAYER1
  6
DASHED
 62
     5
 10
728.128809
 20
1220.202459
 11
727.628809
 21
1220.702459
  0
LINE
  8
CSLAYER1
  6
DASHED
 62
     5
 10
728.128809
 20
1203.202459
 11
710.628809
 21
1203.202459
  0
LINE
  8
CSLAYER1
  6
DASHED
 62
     5
 10
728.128809
 20
1220.202459
 11
710.628809
 21
1220.202459
  0
LINE
  8
CSLAYER1
  6
DASHED
 62
     5
 10
711.128809
 20
1202.702459
 11
710.628809
 21
1203.202459
  0
LINE
  8
CSLAYER1
  6
DASHED
 62
     5
 10
710.628809
 20
1220.202459
 11
711.128809
 21
1220.702459
  0
POINT
  8
CSLAYER1
 62
     5
 10
719.378809
 20
1211.702459
  0
LINE
  8
CSLAYER1
  6
DASHED
 62
     5
 10
708.228809
 20
1219.502459
 11
708.228809
 21
1184.852459
  0
LINE
  8
CSLAYER1
  6
DASHED
 62
     5
 10
704.628809
 20
1214.682459
 11
704.628809
 21
1208.722459
  0
LINE
  8
CSLAYER1
  6
DASHED
 62
     5
 10
732.228809
 20
1214.682459
 11
732.228809
 21
1208.722459
  0
LINE
  8
CSLAYER1
  6
DASHED
 62
     5
 10
706.528809
 20
1195.632459
 11
706.528809
 21
1189.672459
  0
LINE
  8
CSLAYER1
  6
DASHED
 62
     5
 10
710.628809
 20
1219.502459
 11
708.228809
 21
1219.502459
  0
LINE
  8
CSLAYER1
  6
DASHED
 62
     5
 10
710.628809
 20
1184.852459
 11
708.228809
 21
1184.852459
  0
LINE
  8
CSLAYER1
  6
DASHED
 62
     5
 10
708.228809
 20
1195.632459
 11
706.528809
 21
1195.632459
  0
LINE
  8
CSLAYER1
  6
DASHED
 62
     5
 10
708.228809
 20
1189.672459
 11
706.528809
 21
1189.672459
  0
LINE
  8
CSLAYER1
  6
DASHED
 62
     5
 10
708.228809
 20
1214.682459
 11
704.628809
 21
1214.682459
  0
LINE
  8
CSLAYER1
  6
DASHED
 62
     5
 10
708.228809
 20
1208.722459
 11
704.628809
 21
1208.722459
  0
LINE
  8
CSLAYER1
  6
DASHED
 62
     5
 10
730.528809
 20
1219.502459
 11
730.528809
 21
1184.852459
  0
LINE
  8
CSLAYER1
  6
DASHED
 62
     5
 10
732.228809
 20
1195.632459
 11
732.228809
 21
1189.672459
  0
LINE
  8
CSLAYER1
  6
DASHED
 62
     5
 10
728.128809
 20
1219.502459
 11
730.528809
 21
1219.502459
  0
LINE
  8
CSLAYER1
  6
DASHED
 62
     5
 10
728.128809
 20
1184.852459
 11
730.528809
 21
1184.852459
  0
LINE
  8
CSLAYER1
  6
DASHED
 62
     5
 10
730.528809
 20
1195.632459
 11
732.228809
 21
1195.632459
  0
LINE
  8
CSLAYER1
  6
DASHED
 62
     5
 10
730.528809
 20
1189.672459
 11
732.228809
 21
1189.672459
  0
LINE
  8
CSLAYER1
  6
DASHED
 62
     5
 10
730.528809
 20
1214.682459
 11
732.228809
 21
1214.682459
  0
LINE
  8
CSLAYER1
  6
DASHED
 62
     5
 10
730.528809
 20
1208.722459
 11
732.228809
 21
1208.722459
  0
LINE
  8
CSLAYER1
  6
DASHED
 62
     5
 10
713.028809
 20
1164.552459
 11
710.628809
 21
1164.552459
  0
LINE
  8
CSLAYER1
  6
DASHED
 62
     5
 10
713.028809
 20
1179.557459
 11
725.728809
 21
1179.557459
  0
LINE
  8
CSLAYER1
  6
DASHED
 62
     5
 10
713.028809
 20
1167.647459
 11
725.728809
 21
1167.647459
  0
LINE
  8
CSLAYER1
  6
DASHED
 62
     5
 10
725.728809
 20
1164.552459
 11
728.128809
 21
1164.552459
  0
LINE
  8
CSLAYER1
  6
DASHED
 62
     5
 10
710.628809
 20
1220.202459
 11
710.628809
 21
1088.352459
  0
LINE
  8
CSLAYER1
  6
DASHED
 62
     5
 10
728.128809
 20
1220.202459
 11
728.128809
 21
1088.352459
  0
LINE
  8
CSLAYER1
  6
DASHED
 62
     5
 10
725.728809
 20
1201.702459
 11
725.728809
 21
1164.552459
  0
LINE
  8
CSLAYER1
  6
DASHED
 62
     5
 10
725.728809
 20
1201.702459
 11
728.128809
 21
1201.702459
  0
LINE
  8
CSLAYER1
  6
DASHED
 62
     5
 10
725.728809
 20
1198.607459
 11
713.028809
 21
1198.607459
  0
LINE
  8
CSLAYER1
  6
DASHED
 62
     5
 10
725.728809
 20
1186.697459
 11
713.028809
 21
1186.697459
  0
LINE
  8
CSLAYER1
  6
DASHED
 62
     5
 10
713.028809
 20
1201.702459
 11
710.628809
 21
1201.702459
  0
LINE
  8
CSLAYER1
  6
DASHED
 62
     5
 10
713.028809
 20
1201.702459
 11
713.028809
 21
1164.552459
  0
LINE
  8
CSLAYER1
  6
DASHED
 62
     5
 10
734.181226
 20
1211.702459
 11
703.244948
 21
1211.702459
  0
LINE
  8
CSLAYER1
  6
DASHED
 62
     5
 10
733.740852
 20
1192.652459
 11
705.006444
 21
1192.652459
  0
POINT
  8
CSLAYER1
 62
     5
 10
719.378809
 20
1173.602459
  0
LINE
  8
CSLAYER1
  6
DASHED
 62
     5
 10
708.228809
 20
1181.402459
 11
708.228809
 21
1146.752459
  0
LINE
  8
CSLAYER1
  6
DASHED
 62
     5
 10
704.628809
 20
1176.582459
 11
704.628809
 21
1170.622459
  0
LINE
  8
CSLAYER1
  6
DASHED
 62
     5
 10
732.228809
 20
1176.582459
 11
732.228809
 21
1170.622459
  0
LINE
  8
CSLAYER1
  6
DASHED
 62
     5
 10
706.528809
 20
1157.532459
 11
706.528809
 21
1151.572459
  0
LINE
  8
CSLAYER1
  6
DASHED
 62
     5
 10
710.628809
 20
1181.402459
 11
708.228809
 21
1181.402459
  0
LINE
  8
CSLAYER1
  6
DASHED
 62
     5
 10
710.628809
 20
1146.752459
 11
708.228809
 21
1146.752459
  0
LINE
  8
CSLAYER1
  6
DASHED
 62
     5
 10
708.228809
 20
1157.532459
 11
706.528809
 21
1157.532459
  0
LINE
  8
CSLAYER1
  6
DASHED
 62
     5
 10
708.228809
 20
1151.572459
 11
706.528809
 21
1151.572459
  0
LINE
  8
CSLAYER1
  6
DASHED
 62
     5
 10
708.228809
 20
1176.582459
 11
704.628809
 21
1176.582459
  0
LINE
  8
CSLAYER1
  6
DASHED
 62
     5
 10
708.228809
 20
1170.622459
 11
704.628809
 21
1170.622459
  0
LINE
  8
CSLAYER1
  6
DASHED
 62
     5
 10
730.528809
 20
1181.402459
 11
730.528809
 21
1146.752459
  0
LINE
  8
CSLAYER1
  6
DASHED
 62
     5
 10
732.228809
 20
1157.532459
 11
732.228809
 21
1151.572459
  0
LINE
  8
CSLAYER1
  6
DASHED
 62
     5
 10
728.128809
 20
1181.402459
 11
730.528809
 21
1181.402459
  0
LINE
  8
CSLAYER1
  6
DASHED
 62
     5
 10
728.128809
 20
1146.752459
 11
730.528809
 21
1146.752459
  0
LINE
  8
CSLAYER1
  6
DASHED
 62
     5
 10
730.528809
 20
1157.532459
 11
732.228809
 21
1157.532459
  0
LINE
  8
CSLAYER1
  6
DASHED
 62
     5
 10
730.528809
 20
1151.572459
 11
732.228809
 21
1151.572459
  0
LINE
  8
CSLAYER1
  6
DASHED
 62
     5
 10
730.528809
 20
1176.582459
 11
732.228809
 21
1176.582459
  0
LINE
  8
CSLAYER1
  6
DASHED
 62
     5
 10
730.528809
 20
1170.622459
 11
732.228809
 21
1170.622459
  0
LINE
  8
CSLAYER1
  6
DASHED
 62
     5
 10
713.028809
 20
1126.452459
 11
710.628809
 21
1126.452459
  0
LINE
  8
CSLAYER1
  6
DASHED
 62
     5
 10
713.028809
 20
1141.457459
 11
725.728809
 21
1141.457459
  0
LINE
  8
CSLAYER1
  6
DASHED
 62
     5
 10
713.028809
 20
1129.547459
 11
725.728809
 21
1129.547459
  0
LINE
  8
CSLAYER1
  6
DASHED
 62
     5
 10
725.728809
 20
1126.452459
 11
728.128809
 21
1126.452459
  0
LINE
  8
CSLAYER1
  6
DASHED
 62
     5
 10
725.728809
 20
1163.602459
 11
725.728809
 21
1126.452459
  0
LINE
  8
CSLAYER1
  6
DASHED
 62
     5
 10
725.728809
 20
1163.602459
 11
728.128809
 21
1163.602459
  0
LINE
  8
CSLAYER1
  6
DASHED
 62
     5
 10
725.728809
 20
1160.507459
 11
713.028809
 21
1160.507459
  0
LINE
  8
CSLAYER1
  6
DASHED
 62
     5
 10
725.728809
 20
1148.597459
 11
713.028809
 21
1148.597459
  0
LINE
  8
CSLAYER1
  6
DASHED
 62
     5
 10
713.028809
 20
1163.602459
 11
710.628809
 21
1163.602459
  0
LINE
  8
CSLAYER1
  6
DASHED
 62
     5
 10
713.028809
 20
1163.602459
 11
713.028809
 21
1126.452459
  0
LINE
  8
CSLAYER1
  6
DASHED
 62
     5
 10
733.740852
 20
1135.502459
 11
705.006444
 21
1135.502459
  0
LINE
  8
CSLAYER1
  6
DASHED
 62
     5
 10
734.181226
 20
1173.602459
 11
703.244948
 21
1173.602459
  0
LINE
  8
CSLAYER1
  6
DASHED
 62
     5
 10
733.740852
 20
1154.552459
 11
705.006444
 21
1154.552459
  0
POINT
  8
CSLAYER1
 62
     5
 10
719.378809
 20
1135.502459
  0
LINE
  8
CSLAYER1
  6
DASHED
 62
     5
 10
708.228809
 20
1143.302459
 11
708.228809
 21
1108.652459
  0
LINE
  8
CSLAYER1
  6
DASHED
 62
     5
 10
704.628809
 20
1138.482459
 11
704.628809
 21
1132.522459
  0
LINE
  8
CSLAYER1
  6
DASHED
 62
     5
 10
732.228809
 20
1138.482459
 11
732.228809
 21
1132.522459
  0
LINE
  8
CSLAYER1
  6
DASHED
 62
     5
 10
706.528809
 20
1119.432459
 11
706.528809
 21
1113.472459
  0
LINE
  8
CSLAYER1
  6
DASHED
 62
     5
 10
710.628809
 20
1143.302459
 11
708.228809
 21
1143.302459
  0
LINE
  8
CSLAYER1
  6
DASHED
 62
     5
 10
710.628809
 20
1108.652459
 11
708.228809
 21
1108.652459
  0
LINE
  8
CSLAYER1
  6
DASHED
 62
     5
 10
708.228809
 20
1119.432459
 11
706.528809
 21
1119.432459
  0
LINE
  8
CSLAYER1
  6
DASHED
 62
     5
 10
708.228809
 20
1113.472459
 11
706.528809
 21
1113.472459
  0
LINE
  8
CSLAYER1
  6
DASHED
 62
     5
 10
708.228809
 20
1138.482459
 11
704.628809
 21
1138.482459
  0
LINE
  8
CSLAYER1
  6
DASHED
 62
     5
 10
708.228809
 20
1132.522459
 11
704.628809
 21
1132.522459
  0
LINE
  8
CSLAYER1
  6
DASHED
 62
     5
 10
730.528809
 20
1143.302459
 11
730.528809
 21
1108.652459
  0
LINE
  8
CSLAYER1
  6
DASHED
 62
     5
 10
732.228809
 20
1119.432459
 11
732.228809
 21
1113.472459
  0
LINE
  8
CSLAYER1
  6
DASHED
 62
     5
 10
728.128809
 20
1143.302459
 11
730.528809
 21
1143.302459
  0
LINE
  8
CSLAYER1
  6
DASHED
 62
     5
 10
728.128809
 20
1108.652459
 11
730.528809
 21
1108.652459
  0
LINE
  8
CSLAYER1
  6
DASHED
 62
     5
 10
730.528809
 20
1119.432459
 11
732.228809
 21
1119.432459
  0
LINE
  8
CSLAYER1
  6
DASHED
 62
     5
 10
730.528809
 20
1113.472459
 11
732.228809
 21
1113.472459
  0
LINE
  8
CSLAYER1
  6
DASHED
 62
     5
 10
730.528809
 20
1138.482459
 11
732.228809
 21
1138.482459
  0
LINE
  8
CSLAYER1
  6
DASHED
 62
     5
 10
730.528809
 20
1132.522459
 11
732.228809
 21
1132.522459
  0
LINE
  8
CSLAYER1
  6
DASHED
 62
     5
 10
713.028809
 20
1088.352459
 11
710.628809
 21
1088.352459
  0
LINE
  8
CSLAYER1
  6
DASHED
 62
     5
 10
713.028809
 20
1103.357459
 11
725.728809
 21
1103.357459
  0
LINE
  8
CSLAYER1
  6
DASHED
 62
     5
 10
713.028809
 20
1091.447459
 11
725.728809
 21
1091.447459
  0
LINE
  8
CSLAYER1
  6
DASHED
 62
     5
 10
725.728809
 20
1088.352459
 11
728.128809
 21
1088.352459
  0
LINE
  8
CSLAYER1
  6
DASHED
 62
     5
 10
725.728809
 20
1125.502459
 11
725.728809
 21
1088.352459
  0
LINE
  8
CSLAYER1
  6
DASHED
 62
     5
 10
725.728809
 20
1125.502459
 11
728.128809
 21
1125.502459
  0
LINE
  8
CSLAYER1
  6
DASHED
 62
     5
 10
725.728809
 20
1122.407459
 11
713.028809
 21
1122.407459
  0
LINE
  8
CSLAYER1
  6
DASHED
 62
     5
 10
725.728809
 20
1110.497459
 11
713.028809
 21
1110.497459
  0
LINE
  8
CSLAYER1
  6
DASHED
 62
     5
 10
713.028809
 20
1125.502459
 11
710.628809
 21
1125.502459
  0
LINE
  8
CSLAYER1
  6
DASHED
 62
     5
 10
713.028809
 20
1125.502459
 11
713.028809
 21
1088.352459
  0
LINE
  8
CSLAYER1
  6
DASHED
 62
     5
 10
733.740852
 20
1116.452459
 11
705.006444
 21
1116.452459
  0
POINT
  8
CSLAYER1
 62
     5
 10
719.378809
 20
1097.402459
  0
LINE
  8
CSLAYER1
  6
DASHED
 62
     5
 10
734.181226
 20
1097.402459
 11
703.244948
 21
1097.402459
  0
LINE
  8
CSLAYER1
  6
DASHED
 62
     5
 10
704.628809
 20
1100.382459
 11
704.628809
 21
1094.422459
  0
LINE
  8
CSLAYER1
  6
DASHED
 62
     5
 10
732.228809
 20
1100.382459
 11
732.228809
 21
1094.422459
  0
LINE
  8
CSLAYER1
  6
DASHED
 62
     5
 10
710.628809
 20
1105.202459
 11
708.228809
 21
1105.202459
  0
LINE
  8
CSLAYER1
  6
DASHED
 62
     5
 10
708.228809
 20
1081.332459
 11
706.528809
 21
1081.332459
  0
LINE
  8
CSLAYER1
  6
DASHED
 62
     5
 10
708.228809
 20
1100.382459
 11
704.628809
 21
1100.382459
  0
LINE
  8
CSLAYER1
  6
DASHED
 62
     5
 10
708.228809
 20
1094.422459
 11
704.628809
 21
1094.422459
  0
LINE
  8
CSLAYER1
  6
DASHED
 62
     5
 10
728.128809
 20
1105.202459
 11
730.528809
 21
1105.202459
  0
LINE
  8
CSLAYER1
  6
DASHED
 62
     5
 10
730.528809
 20
1081.332459
 11
732.228809
 21
1081.332459
  0
LINE
  8
CSLAYER1
  6
DASHED
 62
     5
 10
730.528809
 20
1100.382459
 11
732.228809
 21
1100.382459
  0
LINE
  8
CSLAYER1
  6
DASHED
 62
     5
 10
730.528809
 20
1094.422459
 11
732.228809
 21
1094.422459
  0
LINE
  8
CSLAYER1
  6
DASHED
 62
     5
 10
725.728809
 20
1087.402459
 11
728.128809
 21
1087.402459
  0
LINE
  8
CSLAYER1
  6
DASHED
 62
     5
 10
725.728809
 20
1084.307459
 11
713.028809
 21
1084.307459
  0
LINE
  8
CSLAYER1
  6
DASHED
 62
     5
 10
713.028809
 20
1087.402459
 11
710.628809
 21
1087.402459
  0
LINE
  8
CSLAYER1
  6
DASHED
 62
     5
 10
714.346972
 20
551.349740
 11
746.378809
 21
551.349740
  0
LINE
  8
CSLAYER1
  6
DASHED
 62
     5
 10
716.378809
 20
546.349740
 11
716.378809
 21
556.349740
  0
LINE
  8
CSLAYER1
  6
DASHED
 62
     5
 10
719.378809
 20
553.129554
 11
725.378809
 21
553.129554
  0
LINE
  8
CSLAYER1
  6
DASHED
 62
     5
 10
726.378809
 20
552.129554
 11
726.378809
 21
546.231307
  0
LINE
  8
CSLAYER1
  6
DASHED
 62
     5
 10
718.378809
 20
552.129554
 11
718.378809
 21
546.231307
  0
ARC
  8
CSLAYER1
  6
DASHED
 62
     5
 10
719.378809
 20
552.129554
 40
1.000000
 50
90.000000
 51
180.000000
  0
ARC
  8
CSLAYER1
  6
DASHED
 62
     5
 10
725.378809
 20
552.129554
 40
1.000000
 50
0.000000
 51
90.000000
  0
LINE
  8
CSLAYER1
  6
DASHED
 62
     5
 10
726.378809
 20
546.349740
 11
746.378809
 21
546.349740
  0
LINE
  8
CSLAYER1
  6
DASHED
 62
     5
 10
272.378809
 20
693.633891
 11
283.378809
 21
693.633891
  0
LINE
  8
CSLAYER1
  6
DASHED
 62
     5
 10
272.378809
 20
702.162925
 11
283.378809
 21
702.162925
  0
LINE
  8
CSLAYER1
  6
DASHED
 62
     5
 10
686.378809
 20
567.633891
 11
686.378809
 21
630.178301
  0
LINE
  8
CSLAYER1
  6
DASHED
 62
     5
 10
686.378809
 20
567.633891
 11
716.465649
 21
537.547050
  0
LINE
  8
CSLAYER1
  6
DASHED
 62
     5
 10
755.378809
 20
702.162925
 11
766.378809
 21
702.162925
  0
LINE
  8
CSLAYER1
  6
DASHED
 62
     5
 10
755.378809
 20
693.633891
 11
766.378809
 21
693.633891
  0
LINE
  8
CSLAYER1
  6
DASHED
 62
     5
 10
352.378809
 20
567.633891
 11
352.378809
 21
630.178301
  0
LINE
  8
CSLAYER1
  6
DASHED
 62
     5
 10
352.378809
 20
567.633891
 11
312.378809
 21
527.633891
  0
LINE
  8
CSLAYER1
  6
DASHED
 62
     5
 10
312.378809
 20
467.257879
 11
312.378809
 21
527.633891
  0
LINE
  8
CSLAYER1
  6
DASHED
 62
     5
 10
292.378809
 20
702.162925
 11
459.378809
 21
702.162925
  0
LINE
  8
CSLAYER1
  6
DASHED
 62
     5
 10
292.378809
 20
693.633891
 11
459.378809
 21
693.633891
  0
LINE
  8
CSLAYER1
  6
DASHED
 62
     5
 10
581.378809
 20
630.178301
 11
686.378809
 21
630.178301
  0
LINE
  8
CSLAYER1
  6
DASHED
 62
     5
 10
579.378809
 20
702.162925
 11
583.378809
 21
702.162925
  0
LINE
  8
CSLAYER1
  6
DASHED
 62
     5
 10
579.378809
 20
693.633891
 11
583.378809
 21
693.633891
  0
LINE
  8
CSLAYER1
  6
DASHED
 62
     5
 10
709.878809
 20
880.627604
 11
714.878809
 21
880.627604
  0
LINE
  8
CSLAYER1
  6
DASHED
 62
     5
 10
709.878809
 20
857.627604
 11
714.878809
 21
857.627604
  0
LINE
  8
CSLAYER1
  6
DASHED
 62
     5
 10
723.878809
 20
912.787674
 11
725.728809
 21
912.787674
  0
LINE
  8
CSLAYER1
  6
DASHED
 62
     5
 10
714.878809
 20
898.787674
 11
710.628809
 21
898.787674
  0
LINE
  8
CSLAYER1
  6
DASHED
 62
     5
 10
260.178809
 20
854.127604
 11
260.178809
 21
884.127604
  0
LINE
  8
CSLAYER1
  6
DASHED
 62
     5
 10
263.378809
 20
884.127604
 11
260.178809
 21
884.127604
  0
LINE
  8
CSLAYER1
  6
DASHED
 62
     5
 10
263.378809
 20
854.127604
 11
260.178809
 21
854.127604
  0
LINE
  8
CSLAYER1
  6
DASHED
 62
     5
 10
256.178809
 20
855.127604
 11
256.178809
 21
883.127604
  0
LINE
  8
CSLAYER1
  6
DASHED
 62
     5
 10
260.178809
 20
855.127604
 11
256.178809
 21
855.127604
  0
LINE
  8
CSLAYER1
  6
DASHED
 62
     5
 10
260.178809
 20
883.127604
 11
256.178809
 21
883.127604
  0
LINE
  8
CSLAYER1
  6
DASHED
 62
     5
 10
246.178809
 20
857.127604
 11
246.178809
 21
881.127604
  0
LINE
  8
CSLAYER1
  6
DASHED
 62
     5
 10
244.378809
 20
876.127604
 11
244.378809
 21
862.127604
  0
LINE
  8
CSLAYER1
  6
DASHED
 62
     5
 10
245.378809
 20
861.127604
 11
246.178809
 21
861.127604
  0
LINE
  8
CSLAYER1
  6
DASHED
 62
     5
 10
244.378809
 20
862.127604
 11
246.178809
 21
862.127604
  0
LINE
  8
CSLAYER1
  6
DASHED
 62
     5
 10
245.378809
 20
861.127604
 11
244.378809
 21
862.127604
  0
LINE
  8
CSLAYER1
  6
DASHED
 62
     5
 10
245.378809
 20
861.127604
 11
245.378809
 21
877.127604
  0
LINE
  8
CSLAYER1
  6
DASHED
 62
     5
 10
256.178809
 20
855.271197
 11
247.250605
 21
855.271197
  0
LINE
  8
CSLAYER1
  6
DASHED
 62
     5
 10
256.178809
 20
862.199401
 11
247.250605
 21
862.199401
  0
LINE
  8
CSLAYER1
  6
DASHED
 62
     5
 10
246.178809
 20
857.127604
 11
247.250605
 21
855.271197
  0
ARC
  8
CSLAYER1
  6
DASHED
 62
     5
 10
269.107012
 20
869.127604
 40
22.928203
 50
162.412046
 51
197.587954
  0
ARC
  8
CSLAYER1
  6
DASHED
 62
     5
 10
252.022679
 20
858.735299
 40
5.896837
 50
144.023685
 51
204.023685
  0
LINE
  8
CSLAYER1
  6
DASHED
 62
     5
 10
245.378809
 20
877.127604
 11
246.178809
 21
877.127604
  0
LINE
  8
CSLAYER1
  6
DASHED
 62
     5
 10
244.378809
 20
876.127604
 11
246.178809
 21
876.127604
  0
LINE
  8
CSLAYER1
  6
DASHED
 62
     5
 10
245.378809
 20
877.127604
 11
244.378809
 21
876.127604
  0
LINE
  8
CSLAYER1
  6
DASHED
 62
     5
 10
256.178809
 20
882.984010
 11
247.250605
 21
882.984010
  0
LINE
  8
CSLAYER1
  6
DASHED
 62
     5
 10
256.178809
 20
876.055807
 11
247.250605
 21
876.055807
  0
LINE
  8
CSLAYER1
  6
DASHED
 62
     5
 10
246.178809
 20
881.127604
 11
247.250605
 21
882.984010
  0
ARC
  8
CSLAYER1
  6
DASHED
 62
     5
 10
252.022679
 20
879.519909
 40
5.896837
 50
155.976315
 51
215.976315
  0
LINE
  8
CSLAYER1
  6
DASHED
 62
     5
 10
260.178809
 20
871.928386
 11
256.178809
 21
866.528386
  0
POINT
  8
CSLAYER1
 62
     5
 10
263.378809
 20
869.127604
  0
LINE
  8
CSLAYER1
  6
DASHED
 62
     5
 10
311.128809
 20
1059.787266
 11
327.628809
 21
1059.787266
  0
LINE
  8
CSLAYER1
  6
DASHED
 62
     5
 10
311.128809
 20
1077.787266
 11
327.628809
 21
1077.787266
  0
LINE
  8
CSLAYER1
  6
DASHED
 62
     5
 10
311.128809
 20
1059.787266
 11
310.628809
 21
1060.287266
  0
LINE
  8
CSLAYER1
  6
DASHED
 62
     5
 10
310.628809
 20
1077.287266
 11
311.128809
 21
1077.787266
  0
LINE
  8
CSLAYER1
  6
DASHED
 62
     5
 10
310.628809
 20
1060.287266
 11
328.128809
 21
1060.287266
  0
LINE
  8
CSLAYER1
  6
DASHED
 62
     5
 10
310.628809
 20
1077.287266
 11
328.128809
 21
1077.287266
  0
LINE
  8
CSLAYER1
  6
DASHED
 62
     5
 10
327.628809
 20
1059.787266
 11
328.128809
 21
1060.287266
  0
LINE
  8
CSLAYER1
  6
DASHED
 62
     5
 10
328.128809
 20
1077.287266
 11
327.628809
 21
1077.787266
  0
POINT
  8
CSLAYER1
 62
     5
 10
319.378809
 20
1068.787266
  0
LINE
  8
CSLAYER1
  6
DASHED
 62
     5
 10
330.528809
 20
1076.587266
 11
330.528809
 21
1041.937266
  0
LINE
  8
CSLAYER1
  6
DASHED
 62
     5
 10
334.128809
 20
1071.767266
 11
334.128809
 21
1065.807266
  0
LINE
  8
CSLAYER1
  6
DASHED
 62
     5
 10
306.528809
 20
1071.767266
 11
306.528809
 21
1065.807266
  0
LINE
  8
CSLAYER1
  6
DASHED
 62
     5
 10
332.228809
 20
1052.717266
 11
332.228809
 21
1046.757266
  0
LINE
  8
CSLAYER1
  6
DASHED
 62
     5
 10
328.128809
 20
1076.587266
 11
330.528809
 21
1076.587266
  0
LINE
  8
CSLAYER1
  6
DASHED
 62
     5
 10
328.128809
 20
1041.937266
 11
330.528809
 21
1041.937266
  0
LINE
  8
CSLAYER1
  6
DASHED
 62
     5
 10
330.528809
 20
1052.717266
 11
332.228809
 21
1052.717266
  0
LINE
  8
CSLAYER1
  6
DASHED
 62
     5
 10
330.528809
 20
1046.757266
 11
332.228809
 21
1046.757266
  0
LINE
  8
CSLAYER1
  6
DASHED
 62
     5
 10
330.528809
 20
1071.767266
 11
334.128809
 21
1071.767266
  0
LINE
  8
CSLAYER1
  6
DASHED
 62
     5
 10
330.528809
 20
1065.807266
 11
334.128809
 21
1065.807266
  0
LINE
  8
CSLAYER1
  6
DASHED
 62
     5
 10
308.228809
 20
1076.587266
 11
308.228809
 21
1041.937266
  0
LINE
  8
CSLAYER1
  6
DASHED
 62
     5
 10
306.528809
 20
1052.717266
 11
306.528809
 21
1046.757266
  0
LINE
  8
CSLAYER1
  6
DASHED
 62
     5
 10
310.628809
 20
1076.587266
 11
308.228809
 21
1076.587266
  0
LINE
  8
CSLAYER1
  6
DASHED
 62
     5
 10
310.628809
 20
1041.937266
 11
308.228809
 21
1041.937266
  0
LINE
  8
CSLAYER1
  6
DASHED
 62
     5
 10
308.228809
 20
1052.717266
 11
306.528809
 21
1052.717266
  0
LINE
  8
CSLAYER1
  6
DASHED
 62
     5
 10
308.228809
 20
1046.757266
 11
306.528809
 21
1046.757266
  0
LINE
  8
CSLAYER1
  6
DASHED
 62
     5
 10
308.228809
 20
1071.767266
 11
306.528809
 21
1071.767266
  0
LINE
  8
CSLAYER1
  6
DASHED
 62
     5
 10
308.228809
 20
1065.807266
 11
306.528809
 21
1065.807266
  0
LINE
  8
CSLAYER1
  6
DASHED
 62
     5
 10
325.728809
 20
1021.637266
 11
328.128809
 21
1021.637266
  0
LINE
  8
CSLAYER1
  6
DASHED
 62
     5
 10
325.728809
 20
1036.642266
 11
313.028809
 21
1036.642266
  0
LINE
  8
CSLAYER1
  6
DASHED
 62
     5
 10
325.728809
 20
1024.732266
 11
313.028809
 21
1024.732266
  0
LINE
  8
CSLAYER1
  6
DASHED
 62
     5
 10
313.028809
 20
1021.637266
 11
310.628809
 21
1021.637266
  0
LINE
  8
CSLAYER1
  6
DASHED
 62
     5
 10
328.128809
 20
1077.287266
 11
328.128809
 21
897.987674
  0
LINE
  8
CSLAYER1
  6
DASHED
 62
     5
 10
310.628809
 20
1077.287266
 11
310.628809
 21
897.987674
  0
LINE
  8
CSLAYER1
  6
DASHED
 62
     5
 10
313.028809
 20
1058.787266
 11
313.028809
 21
1021.637266
  0
LINE
  8
CSLAYER1
  6
DASHED
 62
     5
 10
313.028809
 20
1058.787266
 11
310.628809
 21
1058.787266
  0
LINE
  8
CSLAYER1
  6
DASHED
 62
     5
 10
313.028809
 20
1055.692266
 11
325.728809
 21
1055.692266
  0
LINE
  8
CSLAYER1
  6
DASHED
 62
     5
 10
313.028809
 20
1043.782266
 11
325.728809
 21
1043.782266
  0
LINE
  8
CSLAYER1
  6
DASHED
 62
     5
 10
325.728809
 20
1058.787266
 11
328.128809
 21
1058.787266
  0
LINE
  8
CSLAYER1
  6
DASHED
 62
     5
 10
325.728809
 20
1058.787266
 11
325.728809
 21
1021.637266
  0
LINE
  8
CSLAYER1
  6
DASHED
 62
     5
 10
304.576391
 20
1068.787266
 11
335.512669
 21
1068.787266
  0
LINE
  8
CSLAYER1
  6
DASHED
 62
     5
 10
305.016765
 20
1049.737266
 11
333.751173
 21
1049.737266
  0
LINE
  8
CSLAYER1
  6
DASHED
 62
     5
 10
330.528809
 20
897.987674
 11
330.528809
 21
962.287266
  0
LINE
  8
CSLAYER1
  6
DASHED
 62
     5
 10
332.228809
 20
908.767674
 11
332.228809
 21
902.807674
  0
LINE
  8
CSLAYER1
  6
DASHED
 62
     5
 10
328.128809
 20
897.987674
 11
330.528809
 21
897.987674
  0
LINE
  8
CSLAYER1
  6
DASHED
 62
     5
 10
330.528809
 20
908.767674
 11
332.228809
 21
908.767674
  0
LINE
  8
CSLAYER1
  6
DASHED
 62
     5
 10
330.528809
 20
902.807674
 11
332.228809
 21
902.807674
  0
LINE
  8
CSLAYER1
  6
DASHED
 62
     5
 10
308.228809
 20
897.987674
 11
308.228809
 21
962.287266
  0
LINE
  8
CSLAYER1
  6
DASHED
 62
     5
 10
306.528809
 20
908.767674
 11
306.528809
 21
902.807674
  0
LINE
  8
CSLAYER1
  6
DASHED
 62
     5
 10
310.628809
 20
897.987674
 11
308.228809
 21
897.987674
  0
LINE
  8
CSLAYER1
  6
DASHED
 62
     5
 10
308.228809
 20
908.767674
 11
306.528809
 21
908.767674
  0
LINE
  8
CSLAYER1
  6
DASHED
 62
     5
 10
308.228809
 20
902.807674
 11
306.528809
 21
902.807674
  0
LINE
  8
CSLAYER1
  6
DASHED
 62
     5
 10
305.016765
 20
905.787674
 11
333.751173
 21
905.787674
  0
LINE
  8
CSLAYER1
  6
DASHED
 62
     5
 10
310.628809
 20
898.787674
 11
314.878809
 21
898.787674
  0
POINT
  8
CSLAYER1
 62
     5
 10
319.378809
 20
1030.687266
  0
LINE
  8
CSLAYER1
  6
DASHED
 62
     5
 10
330.528809
 20
1038.487266
 11
330.528809
 21
1003.837266
  0
LINE
  8
CSLAYER1
  6
DASHED
 62
     5
 10
334.128809
 20
1033.667266
 11
334.128809
 21
1027.707266
  0
LINE
  8
CSLAYER1
  6
DASHED
 62
     5
 10
306.528809
 20
1033.667266
 11
306.528809
 21
1027.707266
  0
LINE
  8
CSLAYER1
  6
DASHED
 62
     5
 10
332.228809
 20
1014.617266
 11
332.228809
 21
1008.657266
  0
LINE
  8
CSLAYER1
  6
DASHED
 62
     5
 10
328.128809
 20
1038.487266
 11
330.528809
 21
1038.487266
  0
LINE
  8
CSLAYER1
  6
DASHED
 62
     5
 10
328.128809
 20
1003.837266
 11
330.528809
 21
1003.837266
  0
LINE
  8
CSLAYER1
  6
DASHED
 62
     5
 10
330.528809
 20
1014.617266
 11
332.228809
 21
1014.617266
  0
LINE
  8
CSLAYER1
  6
DASHED
 62
     5
 10
330.528809
 20
1008.657266
 11
332.228809
 21
1008.657266
  0
LINE
  8
CSLAYER1
  6
DASHED
 62
     5
 10
330.528809
 20
1033.667266
 11
334.128809
 21
1033.667266
  0
LINE
  8
CSLAYER1
  6
DASHED
 62
     5
 10
330.528809
 20
1027.707266
 11
334.128809
 21
1027.707266
  0
LINE
  8
CSLAYER1
  6
DASHED
 62
     5
 10
308.228809
 20
1038.487266
 11
308.228809
 21
1003.837266
  0
LINE
  8
CSLAYER1
  6
DASHED
 62
     5
 10
306.528809
 20
1014.617266
 11
306.528809
 21
1008.657266
  0
LINE
  8
CSLAYER1
  6
DASHED
 62
     5
 10
310.628809
 20
1038.487266
 11
308.228809
 21
1038.487266
  0
LINE
  8
CSLAYER1
  6
DASHED
 62
     5
 10
310.628809
 20
1003.837266
 11
308.228809
 21
1003.837266
  0
LINE
  8
CSLAYER1
  6
DASHED
 62
     5
 10
308.228809
 20
1014.617266
 11
306.528809
 21
1014.617266
  0
LINE
  8
CSLAYER1
  6
DASHED
 62
     5
 10
308.228809
 20
1008.657266
 11
306.528809
 21
1008.657266
  0
LINE
  8
CSLAYER1
  6
DASHED
 62
     5
 10
308.228809
 20
1033.667266
 11
306.528809
 21
1033.667266
  0
LINE
  8
CSLAYER1
  6
DASHED
 62
     5
 10
308.228809
 20
1027.707266
 11
306.528809
 21
1027.707266
  0
LINE
  8
CSLAYER1
  6
DASHED
 62
     5
 10
325.728809
 20
983.537266
 11
328.128809
 21
983.537266
  0
LINE
  8
CSLAYER1
  6
DASHED
 62
     5
 10
325.728809
 20
998.542266
 11
313.028809
 21
998.542266
  0
LINE
  8
CSLAYER1
  6
DASHED
 62
     5
 10
325.728809
 20
986.632266
 11
313.028809
 21
986.632266
  0
LINE
  8
CSLAYER1
  6
DASHED
 62
     5
 10
313.028809
 20
983.537266
 11
310.628809
 21
983.537266
  0
LINE
  8
CSLAYER1
  6
DASHED
 62
     5
 10
313.028809
 20
1020.687266
 11
313.028809
 21
983.537266
  0
LINE
  8
CSLAYER1
  6
DASHED
 62
     5
 10
313.028809
 20
1020.687266
 11
310.628809
 21
1020.687266
  0
LINE
  8
CSLAYER1
  6
DASHED
 62
     5
 10
313.028809
 20
1017.592266
 11
325.728809
 21
1017.592266
  0
LINE
  8
CSLAYER1
  6
DASHED
 62
     5
 10
313.028809
 20
1005.682266
 11
325.728809
 21
1005.682266
  0
LINE
  8
CSLAYER1
  6
DASHED
 62
     5
 10
325.728809
 20
1020.687266
 11
328.128809
 21
1020.687266
  0
LINE
  8
CSLAYER1
  6
DASHED
 62
     5
 10
325.728809
 20
1020.687266
 11
325.728809
 21
983.537266
  0
LINE
  8
CSLAYER1
  6
DASHED
 62
     5
 10
305.016765
 20
992.587266
 11
333.751173
 21
992.587266
  0
LINE
  8
CSLAYER1
  6
DASHED
 62
     5
 10
304.576391
 20
1030.687266
 11
335.512669
 21
1030.687266
  0
LINE
  8
CSLAYER1
  6
DASHED
 62
     5
 10
305.016765
 20
1011.637266
 11
333.751173
 21
1011.637266
  0
POINT
  8
CSLAYER1
 62
     5
 10
319.378809
 20
992.587266
  0
LINE
  8
CSLAYER1
  6
DASHED
 62
     5
 10
330.528809
 20
1000.387266
 11
330.528809
 21
965.737266
  0
LINE
  8
CSLAYER1
  6
DASHED
 62
     5
 10
334.128809
 20
995.567266
 11
334.128809
 21
989.607266
  0
LINE
  8
CSLAYER1
  6
DASHED
 62
     5
 10
306.528809
 20
995.567266
 11
306.528809
 21
989.607266
  0
LINE
  8
CSLAYER1
  6
DASHED
 62
     5
 10
332.228809
 20
976.517266
 11
332.228809
 21
970.557266
  0
LINE
  8
CSLAYER1
  6
DASHED
 62
     5
 10
328.128809
 20
1000.387266
 11
330.528809
 21
1000.387266
  0
LINE
  8
CSLAYER1
  6
DASHED
 62
     5
 10
328.128809
 20
965.737266
 11
330.528809
 21
965.737266
  0
LINE
  8
CSLAYER1
  6
DASHED
 62
     5
 10
330.528809
 20
976.517266
 11
332.228809
 21
976.517266
  0
LINE
  8
CSLAYER1
  6
DASHED
 62
     5
 10
330.528809
 20
970.557266
 11
332.228809
 21
970.557266
  0
LINE
  8
CSLAYER1
  6
DASHED
 62
     5
 10
330.528809
 20
995.567266
 11
334.128809
 21
995.567266
  0
LINE
  8
CSLAYER1
  6
DASHED
 62
     5
 10
330.528809
 20
989.607266
 11
334.128809
 21
989.607266
  0
LINE
  8
CSLAYER1
  6
DASHED
 62
     5
 10
308.228809
 20
1000.387266
 11
308.228809
 21
965.737266
  0
LINE
  8
CSLAYER1
  6
DASHED
 62
     5
 10
306.528809
 20
976.517266
 11
306.528809
 21
970.557266
  0
LINE
  8
CSLAYER1
  6
DASHED
 62
     5
 10
310.628809
 20
1000.387266
 11
308.228809
 21
1000.387266
  0
LINE
  8
CSLAYER1
  6
DASHED
 62
     5
 10
310.628809
 20
965.737266
 11
308.228809
 21
965.737266
  0
LINE
  8
CSLAYER1
  6
DASHED
 62
     5
 10
308.228809
 20
976.517266
 11
306.528809
 21
976.517266
  0
LINE
  8
CSLAYER1
  6
DASHED
 62
     5
 10
308.228809
 20
970.557266
 11
306.528809
 21
970.557266
  0
LINE
  8
CSLAYER1
  6
DASHED
 62
     5
 10
308.228809
 20
995.567266
 11
306.528809
 21
995.567266
  0
LINE
  8
CSLAYER1
  6
DASHED
 62
     5
 10
308.228809
 20
989.607266
 11
306.528809
 21
989.607266
  0
LINE
  8
CSLAYER1
  6
DASHED
 62
     5
 10
325.728809
 20
945.437266
 11
328.128809
 21
945.437266
  0
LINE
  8
CSLAYER1
  6
DASHED
 62
     5
 10
325.728809
 20
960.442266
 11
313.028809
 21
960.442266
  0
LINE
  8
CSLAYER1
  6
DASHED
 62
     5
 10
325.728809
 20
948.532266
 11
313.028809
 21
948.532266
  0
LINE
  8
CSLAYER1
  6
DASHED
 62
     5
 10
313.028809
 20
945.437266
 11
310.628809
 21
945.437266
  0
LINE
  8
CSLAYER1
  6
DASHED
 62
     5
 10
313.028809
 20
982.587266
 11
313.028809
 21
945.437266
  0
LINE
  8
CSLAYER1
  6
DASHED
 62
     5
 10
313.028809
 20
982.587266
 11
310.628809
 21
982.587266
  0
LINE
  8
CSLAYER1
  6
DASHED
 62
     5
 10
313.028809
 20
979.492266
 11
325.728809
 21
979.492266
  0
LINE
  8
CSLAYER1
  6
DASHED
 62
     5
 10
313.028809
 20
967.582266
 11
325.728809
 21
967.582266
  0
LINE
  8
CSLAYER1
  6
DASHED
 62
     5
 10
325.728809
 20
982.587266
 11
328.128809
 21
982.587266
  0
LINE
  8
CSLAYER1
  6
DASHED
 62
     5
 10
325.728809
 20
982.587266
 11
325.728809
 21
945.437266
  0
LINE
  8
CSLAYER1
  6
DASHED
 62
     5
 10
305.016765
 20
973.537266
 11
333.751173
 21
973.537266
  0
POINT
  8
CSLAYER1
 62
     5
 10
319.378809
 20
954.487266
  0
LINE
  8
CSLAYER1
  6
DASHED
 62
     5
 10
304.576391
 20
954.487266
 11
335.512669
 21
954.487266
  0
LINE
  8
CSLAYER1
  6
DASHED
 62
     5
 10
334.128809
 20
957.467266
 11
334.128809
 21
951.507266
  0
LINE
  8
CSLAYER1
  6
DASHED
 62
     5
 10
306.528809
 20
957.467266
 11
306.528809
 21
951.507266
  0
LINE
  8
CSLAYER1
  6
DASHED
 62
     5
 10
332.228809
 20
938.417266
 11
332.228809
 21
932.457266
  0
LINE
  8
CSLAYER1
  6
DASHED
 62
     5
 10
328.128809
 20
962.287266
 11
330.528809
 21
962.287266
  0
LINE
  8
CSLAYER1
  6
DASHED
 62
     5
 10
328.128809
 20
927.637266
 11
330.528809
 21
927.637266
  0
LINE
  8
CSLAYER1
  6
DASHED
 62
     5
 10
330.528809
 20
938.417266
 11
332.228809
 21
938.417266
  0
LINE
  8
CSLAYER1
  6
DASHED
 62
     5
 10
330.528809
 20
932.457266
 11
332.228809
 21
932.457266
  0
LINE
  8
CSLAYER1
  6
DASHED
 62
     5
 10
330.528809
 20
957.467266
 11
334.128809
 21
957.467266
  0
LINE
  8
CSLAYER1
  6
DASHED
 62
     5
 10
330.528809
 20
951.507266
 11
334.128809
 21
951.507266
  0
LINE
  8
CSLAYER1
  6
DASHED
 62
     5
 10
306.528809
 20
938.417266
 11
306.528809
 21
932.457266
  0
LINE
  8
CSLAYER1
  6
DASHED
 62
     5
 10
310.628809
 20
962.287266
 11
308.228809
 21
962.287266
  0
LINE
  8
CSLAYER1
  6
DASHED
 62
     5
 10
310.628809
 20
927.637266
 11
308.228809
 21
927.637266
  0
LINE
  8
CSLAYER1
  6
DASHED
 62
     5
 10
308.228809
 20
938.417266
 11
306.528809
 21
938.417266
  0
LINE
  8
CSLAYER1
  6
DASHED
 62
     5
 10
308.228809
 20
932.457266
 11
306.528809
 21
932.457266
  0
LINE
  8
CSLAYER1
  6
DASHED
 62
     5
 10
308.228809
 20
957.467266
 11
306.528809
 21
957.467266
  0
LINE
  8
CSLAYER1
  6
DASHED
 62
     5
 10
308.228809
 20
951.507266
 11
306.528809
 21
951.507266
  0
LINE
  8
CSLAYER1
  6
DASHED
 62
     5
 10
325.728809
 20
907.337266
 11
328.128809
 21
907.337266
  0
LINE
  8
CSLAYER1
  6
DASHED
 62
     5
 10
325.728809
 20
922.342266
 11
313.028809
 21
922.342266
  0
LINE
  8
CSLAYER1
  6
DASHED
 62
     5
 10
313.028809
 20
907.337266
 11
310.628809
 21
907.337266
  0
LINE
  8
CSLAYER1
  6
DASHED
 62
     5
 10
313.028809
 20
944.487266
 11
313.028809
 21
907.337266
  0
LINE
  8
CSLAYER1
  6
DASHED
 62
     5
 10
313.028809
 20
944.487266
 11
310.628809
 21
944.487266
  0
LINE
  8
CSLAYER1
  6
DASHED
 62
     5
 10
313.028809
 20
941.392266
 11
325.728809
 21
941.392266
  0
LINE
  8
CSLAYER1
  6
DASHED
 62
     5
 10
313.028809
 20
929.482266
 11
325.728809
 21
929.482266
  0
LINE
  8
CSLAYER1
  6
DASHED
 62
     5
 10
325.728809
 20
944.487266
 11
328.128809
 21
944.487266
  0
LINE
  8
CSLAYER1
  6
DASHED
 62
     5
 10
325.728809
 20
944.487266
 11
325.728809
 21
907.337266
  0
LINE
  8
CSLAYER1
  6
DASHED
 62
     5
 10
305.016765
 20
935.437266
 11
333.751173
 21
935.437266
  0
LINE
  8
CSLAYER1
  6
DASHED
 62
     5
 10
305.016765
 20
916.387266
 11
333.751173
 21
916.387266
  0
LINE
  8
CSLAYER1
  6
DASHED
 62
     5
 10
314.878809
 20
881.627604
 11
313.878809
 21
881.627604
  0
LINE
  8
CSLAYER1
  6
DASHED
 62
     5
 10
329.878809
 20
879.627604
 11
329.878809
 21
858.627604
  0
LINE
  8
CSLAYER1
  6
DASHED
 62
     5
 10
313.878809
 20
885.627604
 11
313.878809
 21
852.627604
  0
LINE
  8
CSLAYER1
  6
DASHED
 62
     5
 10
329.878809
 20
879.627604
 11
328.878809
 21
880.627604
  0
LINE
  8
CSLAYER1
  6
DASHED
 62
     5
 10
328.878809
 20
880.627604
 11
328.878809
 21
857.627604
  0
LINE
  8
CSLAYER1
  6
DASHED
 62
     5
 10
273.378809
 20
887.177604
 11
273.378809
 21
851.077604
  0
LINE
  8
CSLAYER1
  6
DASHED
 62
     5
 10
283.378809
 20
888.177604
 11
274.378809
 21
888.177604
  0
LINE
  8
CSLAYER1
  6
DASHED
 62
     5
 10
312.878809
 20
886.627604
 11
292.378809
 21
886.627604
  0
LINE
  8
CSLAYER1
  6
DASHED
 62
     5
 10
273.378809
 20
887.177604
 11
274.378809
 21
888.177604
  0
LINE
  8
CSLAYER1
  6
DASHED
 62
     5
 10
313.878809
 20
885.627604
 11
312.878809
 21
886.627604
  0
LINE
  8
CSLAYER1
  6
DASHED
 62
     5
 10
329.878809
 20
869.127604
 11
244.378809
 21
869.127604
  0
LINE
  8
CSLAYER1
  6
DASHED
 62
     5
 10
314.878809
 20
922.342266
 11
314.878809
 21
836.214102
  0
LINE
  8
CSLAYER1
  6
DASHED
 62
     5
 10
323.878809
 20
922.342266
 11
323.878809
 21
837.330694
  0
LINE
  8
CSLAYER1
  6
DASHED
 62
     5
 10
323.878809
 20
917.787428
 11
314.878809
 21
917.787428
  0
LINE
  8
CSLAYER1
  6
DASHED
 62
     5
 10
325.728809
 20
912.787674
 11
323.878809
 21
912.787674
  0
LINE
  8
CSLAYER1
  6
DASHED
 62
     5
 10
273.378809
 20
881.627604
 11
272.378809
 21
881.627604
  0
LINE
  8
CSLAYER1
  6
DASHED
 62
     5
 10
274.378809
 20
888.177604
 11
274.378809
 21
850.077604
  0
LINE
  8
CSLAYER1
  6
DASHED
 62
     5
 10
312.878809
 20
886.627604
 11
312.878809
 21
869.191966
  0
LINE
  8
CSLAYER1
  6
DASHED
 62
     5
 10
314.878809
 20
856.627604
 11
313.878809
 21
856.627604
  0
LINE
  8
CSLAYER1
  6
DASHED
 62
     5
 10
329.878809
 20
858.627604
 11
328.878809
 21
857.627604
  0
LINE
  8
CSLAYER1
  6
DASHED
 62
     5
 10
283.378809
 20
850.077604
 11
274.378809
 21
850.077604
  0
LINE
  8
CSLAYER1
  6
DASHED
 62
     5
 10
312.878809
 20
851.627604
 11
292.378809
 21
851.627604
  0
LINE
  8
CSLAYER1
  6
DASHED
 62
     5
 10
273.378809
 20
851.077604
 11
274.378809
 21
850.077604
  0
LINE
  8
CSLAYER1
  6
DASHED
 62
     5
 10
313.878809
 20
852.627604
 11
312.878809
 21
851.627604
  0
LINE
  8
CSLAYER1
  6
DASHED
 62
     5
 10
273.378809
 20
856.627604
 11
272.378809
 21
856.627604
  0
LINE
  8
CSLAYER1
  6
DASHED
 62
     5
 10
312.878809
 20
851.627604
 11
312.878809
 21
869.063242
  0
LINE
  8
CSLAYER1
  6
DASHED
 62
     5
 10
330.528809
 20
1081.332459
 11
332.228809
 21
1081.332459
  0
LINE
  8
CSLAYER1
  6
DASHED
 62
     5
 10
308.228809
 20
1081.332459
 11
306.528809
 21
1081.332459
  0
LINE
  8
CSLAYER1
  6
DASHED
 62
     5
 10
313.028809
 20
1084.307459
 11
325.728809
 21
1084.307459
  0
LINE
  8
CSLAYER1
  6
DASHED
 62
     5
 10
328.878809
 20
880.627604
 11
323.878809
 21
880.627604
  0
LINE
  8
CSLAYER1
  6
DASHED
 62
     5
 10
328.878809
 20
857.627604
 11
323.878809
 21
857.627604
  0
LINE
  8
CSLAYER1
  6
DASHED
 62
     5
 10
314.878809
 20
912.787674
 11
313.028809
 21
912.787674
  0
LINE
  8
CSLAYER1
  6
DASHED
 62
     5
 10
323.878809
 20
898.787674
 11
328.128809
 21
898.787674
  0
LINE
  8
CSLAYER1
  6
DASHED
 62
     5
 10
427.878809
 20
521.557879
 11
610.878809
 21
521.557879
  0
LINE
  8
CSLAYER1
  6
DASHED
 62
     5
 10
427.878809
 20
515.557879
 11
610.878809
 21
515.557879
  0
LINE
  8
CSLAYER1
  6
DASHED
 62
     5
 10
427.878809
 20
515.557879
 11
427.878809
 21
521.557879
  0
LINE
  8
CSLAYER1
  6
DASHED
 62
     5
 10
429.378809
 20
467.257879
 11
429.378809
 21
515.557879
  0
LINE
  8
CSLAYER1
  6
DASHED
 62
     5
 10
610.878809
 20
515.557879
 11
610.878809
 21
521.557879
  0
LINE
  8
CSLAYER1
  6
DASHED
 62
     5
 10
609.378809
 20
467.257879
 11
609.378809
 21
515.557879
  0
LINE
  8
CSLAYER1
  6
DASHED
 62
     5
 10
714.878809
 20
773.419512
 11
714.878809
 21
702.162925
  0
LINE
  8
CSLAYER1
  6
DASHED
 62
     5
 10
723.878809
 20
776.253940
 11
723.878809
 21
702.162925
  0
LINE
  8
CSLAYER1
  6
DASHED
 62
     5
 10
246.378809
 20
1279.997328
 11
246.378809
 21
1332.197328
  0
LINE
  8
CSLAYER1
  6
DASHED
 62
     5
 10
255.378809
 20
1279.997328
 11
255.378809
 21
1332.197328
  0
LINE
  8
CSLAYER1
  6
DASHED
 62
     5
 10
246.378809
 20
1279.997328
 11
255.378809
 21
1279.997328
  0
LINE
  8
CSLAYER1
  6
DASHED
 62
     5
 10
263.378809
 20
1312.497328
 11
272.378809
 21
1312.497328
  0
LINE
  8
CSLAYER1
  6
DASHED
 62
     5
 10
283.378809
 20
1312.497328
 11
292.378809
 21
1312.497328
  0
LINE
  8
CSLAYER1
  6
DASHED
 62
     5
 10
243.378809
 20
1285.527673
 11
243.378809
 21
1307.466983
  0
LINE
  8
CSLAYER1
  6
DASHED
 62
     5
 10
246.378809
 20
1307.247328
 11
243.378809
 21
1307.247328
  0
LINE
  8
CSLAYER1
  6
DASHED
 62
     5
 10
246.378809
 20
1285.747328
 11
243.378809
 21
1285.747328
  0
LINE
  8
CSLAYER1
  6
DASHED
 62
     5
 10
246.378809
 20
1294.985132
 11
243.378809
 21
1298.485132
  0
LINE
  8
CSLAYER1
  6
DASHED
 62
     5
 10
256.378809
 20
1304.647328
 11
256.378809
 21
1288.347328
  0
LINE
  8
CSLAYER1
  6
DASHED
 62
     5
 10
256.878809
 20
1305.147328
 11
256.378809
 21
1304.647328
  0
LINE
  8
CSLAYER1
  6
DASHED
 62
     5
 10
256.378809
 20
1288.347328
 11
256.878809
 21
1287.847328
  0
LINE
  8
CSLAYER1
  6
DASHED
 62
     5
 10
235.378809
 20
1305.497328
 11
235.378809
 21
1287.497328
  0
LINE
  8
CSLAYER1
  6
DASHED
 62
     5
 10
243.378809
 20
1301.982156
 11
236.515989
 21
1301.982156
  0
LINE
  8
CSLAYER1
  6
DASHED
 62
     5
 10
243.378809
 20
1307.466983
 11
236.515989
 21
1307.466983
  0
LINE
  8
CSLAYER1
  6
DASHED
 62
     5
 10
235.378809
 20
1305.497328
 11
236.515989
 21
1307.466983
  0
ARC
  8
CSLAYER1
  6
DASHED
 62
     5
 10
239.158853
 20
1304.724570
 40
3.808617
 50
185.661633
 51
226.059028
  0
ARC
  8
CSLAYER1
  6
DASHED
 62
     5
 10
249.174553
 20
1296.497328
 40
13.795744
 50
156.573402
 51
203.426598
  0
LINE
  8
CSLAYER1
  6
DASHED
 62
     5
 10
243.378809
 20
1291.012501
 11
236.515989
 21
1291.012501
  0
LINE
  8
CSLAYER1
  6
DASHED
 62
     5
 10
243.378809
 20
1285.527673
 11
236.515989
 21
1285.527673
  0
LINE
  8
CSLAYER1
  6
DASHED
 62
     5
 10
235.378809
 20
1287.497328
 11
236.515989
 21
1285.527673
  0
ARC
  8
CSLAYER1
  6
DASHED
 62
     5
 10
239.158853
 20
1288.270087
 40
3.808617
 50
133.940972
 51
174.338367
  0
LINE
  8
CSLAYER1
  6
DASHED
 62
     5
 10
256.378809
 20
1291.047328
 11
255.378809
 21
1291.047328
  0
LINE
  8
CSLAYER1
  6
DASHED
 62
     5
 10
256.378809
 20
1301.947328
 11
255.378809
 21
1301.947328
  0
LINE
  8
CSLAYER1
  6
DASHED
 62
     5
 10
256.878809
 20
1287.847328
 11
263.378809
 21
1287.847328
  0
LINE
  8
CSLAYER1
  6
DASHED
 62
     5
 10
263.378809
 20
1305.147328
 11
256.878809
 21
1305.147328
  0
LINE
  8
CSLAYER1
  6
DASHED
 62
     5
 10
283.378809
 20
1305.147328
 11
283.378809
 21
1312.497328
  0
LINE
  8
CSLAYER1
  6
DASHED
 62
     5
 10
292.378809
 20
1305.147328
 11
292.378809
 21
1312.497328
  0
LINE
  8
CSLAYER1
  6
DASHED
 62
     5
 10
266.378809
 20
1314.997328
 11
266.378809
 21
1332.197328
  0
LINE
  8
CSLAYER1
  6
DASHED
 62
     5
 10
755.378809
 20
1312.497328
 11
746.378809
 21
1312.497328
  0
LINE
  8
CSLAYER1
  6
DASHED
 62
     5
 10
755.378809
 20
1305.147328
 11
755.378809
 21
1312.497328
  0
LINE
  8
CSLAYER1
  6
DASHED
 62
     5
 10
746.378809
 20
1305.147328
 11
746.378809
 21
1312.497328
  0
LINE
  8
CSLAYER1
  6
DASHED
 62
     5
 10
792.378809
 20
1279.997328
 11
792.378809
 21
1332.197328
  0
LINE
  8
CSLAYER1
  6
DASHED
 62
     5
 10
783.378809
 20
1279.997328
 11
783.378809
 21
1332.197328
  0
LINE
  8
CSLAYER1
  6
DASHED
 62
     5
 10
792.378809
 20
1279.997328
 11
783.378809
 21
1279.997328
  0
LINE
  8
CSLAYER1
  6
DASHED
 62
     5
 10
775.378809
 20
1312.497328
 11
766.378809
 21
1312.497328
  0
LINE
  8
CSLAYER1
  6
DASHED
 62
     5
 10
795.378809
 20
1285.527673
 11
795.378809
 21
1307.466983
  0
LINE
  8
CSLAYER1
  6
DASHED
 62
     5
 10
792.378809
 20
1307.247328
 11
795.378809
 21
1307.247328
  0
LINE
  8
CSLAYER1
  6
DASHED
 62
     5
 10
792.378809
 20
1285.747328
 11
795.378809
 21
1285.747328
  0
LINE
  8
CSLAYER1
  6
DASHED
 62
     5
 10
792.378809
 20
1294.985132
 11
795.378809
 21
1298.485132
  0
LINE
  8
CSLAYER1
  6
DASHED
 62
     5
 10
782.378809
 20
1304.647328
 11
782.378809
 21
1288.347328
  0
LINE
  8
CSLAYER1
  6
DASHED
 62
     5
 10
781.878809
 20
1305.147328
 11
782.378809
 21
1304.647328
  0
LINE
  8
CSLAYER1
  6
DASHED
 62
     5
 10
782.378809
 20
1288.347328
 11
781.878809
 21
1287.847328
  0
LINE
  8
CSLAYER1
  6
DASHED
 62
     5
 10
803.378809
 20
1305.497328
 11
803.378809
 21
1287.497328
  0
LINE
  8
CSLAYER1
  6
DASHED
 62
     5
 10
795.378809
 20
1301.982156
 11
802.241628
 21
1301.982156
  0
LINE
  8
CSLAYER1
  6
DASHED
 62
     5
 10
795.378809
 20
1307.466983
 11
802.241628
 21
1307.466983
  0
LINE
  8
CSLAYER1
  6
DASHED
 62
     5
 10
803.378809
 20
1305.497328
 11
802.241628
 21
1307.466983
  0
ARC
  8
CSLAYER1
  6
DASHED
 62
     5
 10
799.598764
 20
1304.724570
 40
3.808617
 50
313.940972
 51
354.338367
  0
ARC
  8
CSLAYER1
  6
DASHED
 62
     5
 10
789.583064
 20
1296.497328
 40
13.795744
 50
-23.426598
 51
23.426598
  0
LINE
  8
CSLAYER1
  6
DASHED
 62
     5
 10
795.378809
 20
1291.012501
 11
802.241628
 21
1291.012501
  0
LINE
  8
CSLAYER1
  6
DASHED
 62
     5
 10
795.378809
 20
1285.527673
 11
802.241628
 21
1285.527673
  0
LINE
  8
CSLAYER1
  6
DASHED
 62
     5
 10
803.378809
 20
1287.497328
 11
802.241628
 21
1285.527673
  0
ARC
  8
CSLAYER1
  6
DASHED
 62
     5
 10
799.598764
 20
1288.270087
 40
3.808617
 50
5.661633
 51
46.059028
  0
LINE
  8
CSLAYER1
  6
DASHED
 62
     5
 10
782.378809
 20
1291.047328
 11
783.378809
 21
1291.047328
  0
LINE
  8
CSLAYER1
  6
DASHED
 62
     5
 10
782.378809
 20
1301.947328
 11
783.378809
 21
1301.947328
  0
LINE
  8
CSLAYER1
  6
DASHED
 62
     5
 10
781.878809
 20
1287.847328
 11
775.378809
 21
1287.847328
  0
LINE
  8
CSLAYER1
  6
DASHED
 62
     5
 10
775.378809
 20
1305.147328
 11
781.878809
 21
1305.147328
  0
LINE
  8
CSLAYER1
  6
DASHED
 62
     5
 10
772.378809
 20
1314.997328
 11
772.378809
 21
1332.197328
  0
LINE
  8
CSLAYER1
  6
DASHED
 62
     5
 10
277.878809
 20
1250.733458
 11
760.878809
 21
1250.733458
  0
LINE
  8
CSLAYER1
  6
DASHED
 62
     5
 10
756.378809
 20
821.785879
 11
756.378809
 21
794.785879
  0
LINE
  8
CSLAYER1
  6
DASHED
 62
     5
 10
762.378809
 20
821.285879
 11
762.378809
 21
795.285879
  0
LINE
  8
CSLAYER1
  6
DASHED
 62
     5
 10
756.378809
 20
818.285879
 11
755.378809
 21
818.285879
  0
LINE
  8
CSLAYER1
  6
DASHED
 62
     5
 10
761.378809
 20
822.285879
 11
756.878809
 21
822.285879
  0
LINE
  8
CSLAYER1
  6
DASHED
 62
     5
 10
762.378809
 20
821.285879
 11
761.378809
 21
822.285879
  0
LINE
  8
CSLAYER1
  6
DASHED
 62
     5
 10
756.878809
 20
822.285879
 11
756.378809
 21
821.785879
  0
LINE
  8
CSLAYER1
  6
DASHED
 62
     5
 10
761.378809
 20
822.285879
 11
761.378809
 21
794.285879
  0
LINE
  8
CSLAYER1
  6
DASHED
 62
     5
 10
756.878809
 20
822.285879
 11
756.878809
 21
794.285879
  0
LINE
  8
CSLAYER1
  6
DASHED
 62
     5
 10
761.378809
 20
794.285879
 11
756.878809
 21
794.285879
  0
LINE
  8
CSLAYER1
  6
DASHED
 62
     5
 10
762.378809
 20
795.285879
 11
761.378809
 21
794.285879
  0
LINE
  8
CSLAYER1
  6
DASHED
 62
     5
 10
756.878809
 20
794.285879
 11
756.378809
 21
794.785879
  0
LINE
  8
CSLAYER1
  6
DASHED
 62
     5
 10
756.378809
 20
798.285879
 11
755.378809
 21
798.285879
  0
LINE
  8
CSLAYER1
  6
DASHED
 62
     5
 10
540.728809
 20
1250.733458
 11
540.728809
 21
1108.830296
  0
LINE
  8
CSLAYER1
  6
DASHED
 62
     5
 10
557.528809
 20
1092.655100
 11
557.528809
 21
877.124261
  0
LINE
  8
CSLAYER1
  6
DASHED
 62
     5
 10
498.028809
 20
1250.733458
 11
498.028809
 21
1108.830296
  0
LINE
  8
CSLAYER1
  6
DASHED
 62
     5
 10
481.228809
 20
1092.655100
 11
481.228809
 21
877.124261
  0
LINE
  8
CSLAYER1
  6
DASHED
 62
     5
 10
745.378809
 20
833.546686
 11
745.378809
 21
783.025073
  0
LINE
  8
CSLAYER1
  6
DASHED
 62
     5
 10
580.378809
 20
854.017552
 11
580.378809
 21
826.525663
  0
LINE
  8
CSLAYER1
  6
DASHED
 62
     5
 10
725.878809
 20
792.246810
 11
725.780059
 21
793.044931
  0
LINE
  8
CSLAYER1
  6
DASHED
 62
     5
 10
725.780059
 20
793.044931
 11
725.486811
 21
793.818801
  0
LINE
  8
CSLAYER1
  6
DASHED
 62
     5
 10
725.486811
 20
793.818801
 11
725.007974
 21
794.544907
  0
LINE
  8
CSLAYER1
  6
DASHED
 62
     5
 10
725.007974
 20
794.544907
 11
724.358097
 21
795.201187
  0
LINE
  8
CSLAYER1
  6
DASHED
 62
     5
 10
724.358097
 20
795.201187
 11
723.556928
 21
795.767699
  0
LINE
  8
CSLAYER1
  6
DASHED
 62
     5
 10
723.556928
 20
795.767699
 11
722.628809
 21
796.227231
  0
LINE
  8
CSLAYER1
  6
DASHED
 62
     5
 10
722.628809
 20
796.227231
 11
721.601939
 21
796.565820
  0
LINE
  8
CSLAYER1
  6
DASHED
 62
     5
 10
721.601939
 20
796.565820
 11
720.507522
 21
796.773178
  0
LINE
  8
CSLAYER1
  6
DASHED
 62
     5
 10
720.507522
 20
796.773178
 11
719.378809
 21
796.843004
  0
LINE
  8
CSLAYER1
  6
DASHED
 62
     5
 10
719.378809
 20
796.843004
 11
718.250095
 21
796.773178
  0
LINE
  8
CSLAYER1
  6
DASHED
 62
     5
 10
718.250095
 20
796.773178
 11
717.155678
 21
796.565820
  0
LINE
  8
CSLAYER1
  6
DASHED
 62
     5
 10
717.155678
 20
796.565820
 11
716.128809
 21
796.227231
  0
LINE
  8
CSLAYER1
  6
DASHED
 62
     5
 10
716.128809
 20
796.227231
 11
715.200689
 21
795.767699
  0
LINE
  8
CSLAYER1
  6
DASHED
 62
     5
 10
715.200689
 20
795.767699
 11
714.399520
 21
795.201187
  0
LINE
  8
CSLAYER1
  6
DASHED
 62
     5
 10
714.399520
 20
795.201187
 11
713.749643
 21
794.544907
  0
LINE
  8
CSLAYER1
  6
DASHED
 62
     5
 10
713.749643
 20
794.544907
 11
713.270807
 21
793.818801
  0
LINE
  8
CSLAYER1
  6
DASHED
 62
     5
 10
713.270807
 20
793.818801
 11
712.977558
 21
793.044931
  0
LINE
  8
CSLAYER1
  6
DASHED
 62
     5
 10
712.977558
 20
793.044931
 11
712.878809
 21
792.246810
  0
LINE
  8
CSLAYER1
  6
DASHED
 62
     5
 10
712.878809
 20
792.246810
 11
712.977558
 21
791.448689
  0
LINE
  8
CSLAYER1
  6
DASHED
 62
     5
 10
712.977558
 20
791.448689
 11
713.270807
 21
790.674819
  0
LINE
  8
CSLAYER1
  6
DASHED
 62
     5
 10
713.270807
 20
790.674819
 11
713.749643
 21
789.948713
  0
LINE
  8
CSLAYER1
  6
DASHED
 62
     5
 10
713.749643
 20
789.948713
 11
714.399520
 21
789.292434
  0
LINE
  8
CSLAYER1
  6
DASHED
 62
     5
 10
714.399520
 20
789.292434
 11
715.200689
 21
788.725921
  0
LINE
  8
CSLAYER1
  6
DASHED
 62
     5
 10
715.200689
 20
788.725921
 11
716.128809
 21
788.266389
  0
LINE
  8
CSLAYER1
  6
DASHED
 62
     5
 10
716.128809
 20
788.266389
 11
717.155678
 21
787.927800
  0
LINE
  8
CSLAYER1
  6
DASHED
 62
     5
 10
717.155678
 20
787.927800
 11
718.250095
 21
787.720443
  0
LINE
  8
CSLAYER1
  6
DASHED
 62
     5
 10
718.250095
 20
787.720443
 11
719.378809
 21
787.650616
  0
LINE
  8
CSLAYER1
  6
DASHED
 62
     5
 10
719.378809
 20
787.650616
 11
720.507522
 21
787.720443
  0
LINE
  8
CSLAYER1
  6
DASHED
 62
     5
 10
720.507522
 20
787.720443
 11
721.601939
 21
787.927800
  0
LINE
  8
CSLAYER1
  6
DASHED
 62
     5
 10
721.601939
 20
787.927800
 11
722.628809
 21
788.266389
  0
LINE
  8
CSLAYER1
  6
DASHED
 62
     5
 10
722.628809
 20
788.266389
 11
723.556928
 21
788.725921
  0
LINE
  8
CSLAYER1
  6
DASHED
 62
     5
 10
723.556928
 20
788.725921
 11
724.358097
 21
789.292434
  0
LINE
  8
CSLAYER1
  6
DASHED
 62
     5
 10
724.358097
 20
789.292434
 11
725.007974
 21
789.948713
  0
LINE
  8
CSLAYER1
  6
DASHED
 62
     5
 10
725.007974
 20
789.948713
 11
725.486811
 21
790.674819
  0
LINE
  8
CSLAYER1
  6
DASHED
 62
     5
 10
725.486811
 20
790.674819
 11
725.780059
 21
791.448689
  0
LINE
  8
CSLAYER1
  6
DASHED
 62
     5
 10
725.780059
 20
791.448689
 11
725.878809
 21
792.246810
  0
LINE
  8
CSLAYER1
  6
DASHED
 62
     5
 10
725.878809
 20
796.843004
 11
725.878809
 21
792.246810
  0
LINE
  8
CSLAYER1
  6
DASHED
 62
     5
 10
725.878809
 20
796.843004
 11
725.780059
 21
797.641125
  0
LINE
  8
CSLAYER1
  6
DASHED
 62
     5
 10
725.780059
 20
797.641125
 11
725.486811
 21
798.414995
  0
LINE
  8
CSLAYER1
  6
DASHED
 62
     5
 10
725.486811
 20
798.414995
 11
725.007974
 21
799.141101
  0
LINE
  8
CSLAYER1
  6
DASHED
 62
     5
 10
725.007974
 20
799.141101
 11
724.358097
 21
799.797381
  0
LINE
  8
CSLAYER1
  6
DASHED
 62
     5
 10
724.358097
 20
799.797381
 11
723.556928
 21
800.363893
  0
LINE
  8
CSLAYER1
  6
DASHED
 62
     5
 10
723.556928
 20
800.363893
 11
722.628809
 21
800.823425
  0
LINE
  8
CSLAYER1
  6
DASHED
 62
     5
 10
722.628809
 20
800.823425
 11
721.601939
 21
801.162014
  0
LINE
  8
CSLAYER1
  6
DASHED
 62
     5
 10
721.601939
 20
801.162014
 11
720.507522
 21
801.369372
  0
LINE
  8
CSLAYER1
  6
DASHED
 62
     5
 10
720.507522
 20
801.369372
 11
719.378809
 21
801.439198
  0
LINE
  8
CSLAYER1
  6
DASHED
 62
     5
 10
719.378809
 20
801.439198
 11
718.250095
 21
801.369372
  0
LINE
  8
CSLAYER1
  6
DASHED
 62
     5
 10
718.250095
 20
801.369372
 11
717.155678
 21
801.162014
  0
LINE
  8
CSLAYER1
  6
DASHED
 62
     5
 10
717.155678
 20
801.162014
 11
716.128809
 21
800.823425
  0
LINE
  8
CSLAYER1
  6
DASHED
 62
     5
 10
716.128809
 20
800.823425
 11
715.200689
 21
800.363893
  0
LINE
  8
CSLAYER1
  6
DASHED
 62
     5
 10
715.200689
 20
800.363893
 11
714.399520
 21
799.797381
  0
LINE
  8
CSLAYER1
  6
DASHED
 62
     5
 10
714.399520
 20
799.797381
 11
713.749643
 21
799.141101
  0
LINE
  8
CSLAYER1
  6
DASHED
 62
     5
 10
713.749643
 20
799.141101
 11
713.270807
 21
798.414995
  0
LINE
  8
CSLAYER1
  6
DASHED
 62
     5
 10
713.270807
 20
798.414995
 11
712.977558
 21
797.641125
  0
LINE
  8
CSLAYER1
  6
DASHED
 62
     5
 10
712.977558
 20
797.641125
 11
712.878809
 21
796.843004
  0
LINE
  8
CSLAYER1
  6
DASHED
 62
     5
 10
712.878809
 20
796.843004
 11
712.878809
 21
792.246810
  0
LINE
  8
CSLAYER1
  6
DASHED
 62
     5
 10
458.378809
 20
854.017552
 11
580.378809
 21
854.017552
  0
LINE
  8
CSLAYER1
  6
DASHED
 62
     5
 10
563.378809
 20
578.041314
 11
563.211375
 21
580.004923
  0
LINE
  8
CSLAYER1
  6
DASHED
 62
     5
 10
563.211375
 20
580.004923
 11
562.710350
 21
581.953587
  0
LINE
  8
CSLAYER1
  6
DASHED
 62
     5
 10
562.710350
 20
581.953587
 11
561.879545
 21
583.872477
  0
LINE
  8
CSLAYER1
  6
DASHED
 62
     5
 10
561.879545
 20
583.872477
 11
560.725284
 21
585.746989
  0
LINE
  8
CSLAYER1
  6
DASHED
 62
     5
 10
560.725284
 20
585.746989
 11
559.256351
 21
587.562855
  0
LINE
  8
CSLAYER1
  6
DASHED
 62
     5
 10
559.256351
 20
587.562855
 11
557.483926
 21
589.306257
  0
LINE
  8
CSLAYER1
  6
DASHED
 62
     5
 10
557.483926
 20
589.306257
 11
555.421499
 21
590.963926
  0
LINE
  8
CSLAYER1
  6
DASHED
 62
     5
 10
555.421499
 20
590.963926
 11
553.084764
 21
592.523245
  0
LINE
  8
CSLAYER1
  6
DASHED
 62
     5
 10
553.084764
 20
592.523245
 11
550.491507
 21
593.972349
  0
LINE
  8
CSLAYER1
  6
DASHED
 62
     5
 10
550.491507
 20
593.972349
 11
547.661463
 21
595.300208
  0
LINE
  8
CSLAYER1
  6
DASHED
 62
     5
 10
547.661463
 20
595.300208
 11
544.616172
 21
596.496716
  0
LINE
  8
CSLAYER1
  6
DASHED
 62
     5
 10
544.616172
 20
596.496716
 11
541.378809
 21
597.552767
  0
LINE
  8
CSLAYER1
  6
DASHED
 62
     5
 10
541.378809
 20
597.552767
 11
537.974012
 21
598.460325
  0
LINE
  8
CSLAYER1
  6
DASHED
 62
     5
 10
537.974012
 20
598.460325
 11
534.427695
 21
599.212481
  0
LINE
  8
CSLAYER1
  6
DASHED
 62
     5
 10
534.427695
 20
599.212481
 11
530.766847
 21
599.803513
  0
LINE
  8
CSLAYER1
  6
DASHED
 62
     5
 10
530.766847
 20
599.803513
 11
527.019328
 21
600.228920
  0
LINE
  8
CSLAYER1
  6
DASHED
 62
     5
 10
527.019328
 20
600.228920
 11
523.213661
 21
600.485467
  0
LINE
  8
CSLAYER1
  6
DASHED
 62
     5
 10
523.213661
 20
600.485467
 11
519.378809
 21
600.571200
  0
LINE
  8
CSLAYER1
  6
DASHED
 62
     5
 10
519.378809
 20
600.571200
 11
515.543956
 21
600.485467
  0
LINE
  8
CSLAYER1
  6
DASHED
 62
     5
 10
515.543956
 20
600.485467
 11
511.738289
 21
600.228920
  0
LINE
  8
CSLAYER1
  6
DASHED
 62
     5
 10
511.738289
 20
600.228920
 11
507.990771
 21
599.803513
  0
LINE
  8
CSLAYER1
  6
DASHED
 62
     5
 10
507.990771
 20
599.803513
 11
504.329922
 21
599.212481
  0
LINE
  8
CSLAYER1
  6
DASHED
 62
     5
 10
504.329922
 20
599.212481
 11
500.783605
 21
598.460325
  0
LINE
  8
CSLAYER1
  6
DASHED
 62
     5
 10
500.783605
 20
598.460325
 11
497.378809
 21
597.552767
  0
LINE
  8
CSLAYER1
  6
DASHED
 62
     5
 10
497.378809
 20
597.552767
 11
494.141445
 21
596.496716
  0
LINE
  8
CSLAYER1
  6
DASHED
 62
     5
 10
494.141445
 20
596.496716
 11
491.096154
 21
595.300208
  0
LINE
  8
CSLAYER1
  6
DASHED
 62
     5
 10
491.096154
 20
595.300208
 11
488.266110
 21
593.972349
  0
LINE
  8
CSLAYER1
  6
DASHED
 62
     5
 10
488.266110
 20
593.972349
 11
485.672853
 21
592.523245
  0
LINE
  8
CSLAYER1
  6
DASHED
 62
     5
 10
485.672853
 20
592.523245
 11
483.336119
 21
590.963926
  0
LINE
  8
CSLAYER1
  6
DASHED
 62
     5
 10
483.336119
 20
590.963926
 11
481.273691
 21
589.306257
  0
LINE
  8
CSLAYER1
  6
DASHED
 62
     5
 10
481.273691
 20
589.306257
 11
479.501266
 21
587.562855
  0
LINE
  8
CSLAYER1
  6
DASHED
 62
     5
 10
479.501266
 20
587.562855
 11
478.032333
 21
585.746989
  0
LINE
  8
CSLAYER1
  6
DASHED
 62
     5
 10
478.032333
 20
585.746989
 11
476.878072
 21
583.872477
  0
LINE
  8
CSLAYER1
  6
DASHED
 62
     5
 10
476.878072
 20
583.872477
 11
476.047267
 21
581.953587
  0
LINE
  8
CSLAYER1
  6
DASHED
 62
     5
 10
476.047267
 20
581.953587
 11
475.546242
 21
580.004923
  0
LINE
  8
CSLAYER1
  6
DASHED
 62
     5
 10
475.546242
 20
580.004923
 11
475.378809
 21
578.041314
  0
LINE
  8
CSLAYER1
  6
DASHED
 62
     5
 10
475.378809
 20
578.041314
 11
475.546242
 21
576.077705
  0
LINE
  8
CSLAYER1
  6
DASHED
 62
     5
 10
475.546242
 20
576.077705
 11
476.047267
 21
574.129040
  0
LINE
  8
CSLAYER1
  6
DASHED
 62
     5
 10
476.047267
 20
574.129040
 11
476.878072
 21
572.210150
  0
LINE
  8
CSLAYER1
  6
DASHED
 62
     5
 10
476.878072
 20
572.210150
 11
478.032333
 21
570.335639
  0
LINE
  8
CSLAYER1
  6
DASHED
 62
     5
 10
478.032333
 20
570.335639
 11
479.501266
 21
568.519773
  0
LINE
  8
CSLAYER1
  6
DASHED
 62
     5
 10
479.501266
 20
568.519773
 11
481.273691
 21
566.776371
  0
LINE
  8
CSLAYER1
  6
DASHED
 62
     5
 10
481.273691
 20
566.776371
 11
483.336119
 21
565.118702
  0
LINE
  8
CSLAYER1
  6
DASHED
 62
     5
 10
483.336119
 20
565.118702
 11
485.672853
 21
563.559382
  0
LINE
  8
CSLAYER1
  6
DASHED
 62
     5
 10
485.672853
 20
563.559382
 11
488.266110
 21
562.110279
  0
LINE
  8
CSLAYER1
  6
DASHED
 62
     5
 10
488.266110
 20
562.110279
 11
491.096154
 21
560.782420
  0
LINE
  8
CSLAYER1
  6
DASHED
 62
     5
 10
491.096154
 20
560.782420
 11
494.141445
 21
559.585912
  0
LINE
  8
CSLAYER1
  6
DASHED
 62
     5
 10
494.141445
 20
559.585912
 11
497.378809
 21
558.529860
  0
LINE
  8
CSLAYER1
  6
DASHED
 62
     5
 10
497.378809
 20
558.529860
 11
500.783605
 21
557.622303
  0
LINE
  8
CSLAYER1
  6
DASHED
 62
     5
 10
500.783605
 20
557.622303
 11
504.329922
 21
556.870146
  0
LINE
  8
CSLAYER1
  6
DASHED
 62
     5
 10
504.329922
 20
556.870146
 11
507.990771
 21
556.279115
  0
LINE
  8
CSLAYER1
  6
DASHED
 62
     5
 10
507.990771
 20
556.279115
 11
511.738289
 21
555.853707
  0
LINE
  8
CSLAYER1
  6
DASHED
 62
     5
 10
511.738289
 20
555.853707
 11
515.543956
 21
555.597161
  0
LINE
  8
CSLAYER1
  6
DASHED
 62
     5
 10
515.543956
 20
555.597161
 11
519.378809
 21
555.511428
  0
LINE
  8
CSLAYER1
  6
DASHED
 62
     5
 10
519.378809
 20
555.511428
 11
523.213661
 21
555.597161
  0
LINE
  8
CSLAYER1
  6
DASHED
 62
     5
 10
523.213661
 20
555.597161
 11
527.019328
 21
555.853707
  0
LINE
  8
CSLAYER1
  6
DASHED
 62
     5
 10
527.019328
 20
555.853707
 11
530.766847
 21
556.279115
  0
LINE
  8
CSLAYER1
  6
DASHED
 62
     5
 10
530.766847
 20
556.279115
 11
534.427695
 21
556.870146
  0
LINE
  8
CSLAYER1
  6
DASHED
 62
     5
 10
534.427695
 20
556.870146
 11
537.974012
 21
557.622303
  0
LINE
  8
CSLAYER1
  6
DASHED
 62
     5
 10
537.974012
 20
557.622303
 11
541.378809
 21
558.529860
  0
LINE
  8
CSLAYER1
  6
DASHED
 62
     5
 10
541.378809
 20
558.529860
 11
544.616172
 21
559.585912
  0
LINE
  8
CSLAYER1
  6
DASHED
 62
     5
 10
544.616172
 20
559.585912
 11
547.661463
 21
560.782420
  0
LINE
  8
CSLAYER1
  6
DASHED
 62
     5
 10
547.661463
 20
560.782420
 11
550.491507
 21
562.110279
  0
LINE
  8
CSLAYER1
  6
DASHED
 62
     5
 10
550.491507
 20
562.110279
 11
553.084764
 21
563.559382
  0
LINE
  8
CSLAYER1
  6
DASHED
 62
     5
 10
553.084764
 20
563.559382
 11
555.421499
 21
565.118702
  0
LINE
  8
CSLAYER1
  6
DASHED
 62
     5
 10
555.421499
 20
565.118702
 11
557.483926
 21
566.776371
  0
LINE
  8
CSLAYER1
  6
DASHED
 62
     5
 10
557.483926
 20
566.776371
 11
559.256351
 21
568.519773
  0
LINE
  8
CSLAYER1
  6
DASHED
 62
     5
 10
559.256351
 20
568.519773
 11
560.725284
 21
570.335639
  0
LINE
  8
CSLAYER1
  6
DASHED
 62
     5
 10
560.725284
 20
570.335639
 11
561.879545
 21
572.210150
  0
LINE
  8
CSLAYER1
  6
DASHED
 62
     5
 10
561.879545
 20
572.210150
 11
562.710350
 21
574.129040
  0
LINE
  8
CSLAYER1
  6
DASHED
 62
     5
 10
562.710350
 20
574.129040
 11
563.211375
 21
576.077705
  0
LINE
  8
CSLAYER1
  6
DASHED
 62
     5
 10
563.211375
 20
576.077705
 11
563.378809
 21
578.041314
  0
LINE
  8
CSLAYER1
  6
DASHED
 62
     5
 10
581.378809
 20
584.914286
 11
581.142880
 21
587.681189
  0
LINE
  8
CSLAYER1
  6
DASHED
 62
     5
 10
581.142880
 20
587.681189
 11
580.436889
 21
590.427035
  0
LINE
  8
CSLAYER1
  6
DASHED
 62
     5
 10
580.436889
 20
590.427035
 11
579.266210
 21
593.130926
  0
LINE
  8
CSLAYER1
  6
DASHED
 62
     5
 10
579.266210
 20
593.130926
 11
577.639751
 21
595.772282
  0
LINE
  8
CSLAYER1
  6
DASHED
 62
     5
 10
577.639751
 20
595.772282
 11
575.569891
 21
598.331003
  0
LINE
  8
CSLAYER1
  6
DASHED
 62
     5
 10
575.569891
 20
598.331003
 11
573.072384
 21
600.787615
  0
LINE
  8
CSLAYER1
  6
DASHED
 62
     5
 10
573.072384
 20
600.787615
 11
570.166235
 21
603.123421
  0
LINE
  8
CSLAYER1
  6
DASHED
 62
     5
 10
570.166235
 20
603.123421
 11
566.873564
 21
605.320644
  0
LINE
  8
CSLAYER1
  6
DASHED
 62
     5
 10
566.873564
 20
605.320644
 11
563.219429
 21
607.362563
  0
LINE
  8
CSLAYER1
  6
DASHED
 62
     5
 10
563.219429
 20
607.362563
 11
559.231640
 21
609.233637
  0
LINE
  8
CSLAYER1
  6
DASHED
 62
     5
 10
559.231640
 20
609.233637
 11
554.940548
 21
610.919625
  0
LINE
  8
CSLAYER1
  6
DASHED
 62
     5
 10
554.940548
 20
610.919625
 11
550.378809
 21
612.407698
  0
LINE
  8
CSLAYER1
  6
DASHED
 62
     5
 10
550.378809
 20
612.407698
 11
545.581141
 21
613.686529
  0
LINE
  8
CSLAYER1
  6
DASHED
 62
     5
 10
545.581141
 20
613.686529
 11
540.584057
 21
614.746386
  0
LINE
  8
CSLAYER1
  6
DASHED
 62
     5
 10
540.584057
 20
614.746386
 11
535.425589
 21
615.579202
  0
LINE
  8
CSLAYER1
  6
DASHED
 62
     5
 10
535.425589
 20
615.579202
 11
530.144996
 21
616.178640
  0
LINE
  8
CSLAYER1
  6
DASHED
 62
     5
 10
530.144996
 20
616.178640
 11
524.782465
 21
616.540138
  0
LINE
  8
CSLAYER1
  6
DASHED
 62
     5
 10
524.782465
 20
616.540138
 11
519.378809
 21
616.660944
  0
LINE
  8
CSLAYER1
  6
DASHED
 62
     5
 10
519.378809
 20
616.660944
 11
513.975153
 21
616.540138
  0
LINE
  8
CSLAYER1
  6
DASHED
 62
     5
 10
513.975153
 20
616.540138
 11
508.612622
 21
616.178640
  0
LINE
  8
CSLAYER1
  6
DASHED
 62
     5
 10
508.612622
 20
616.178640
 11
503.332028
 21
615.579202
  0
LINE
  8
CSLAYER1
  6
DASHED
 62
     5
 10
503.332028
 20
615.579202
 11
498.173560
 21
614.746386
  0
LINE
  8
CSLAYER1
  6
DASHED
 62
     5
 10
498.173560
 20
614.746386
 11
493.176476
 21
613.686529
  0
LINE
  8
CSLAYER1
  6
DASHED
 62
     5
 10
493.176476
 20
613.686529
 11
488.378809
 21
612.407698
  0
LINE
  8
CSLAYER1
  6
DASHED
 62
     5
 10
488.378809
 20
612.407698
 11
483.817070
 21
610.919625
  0
LINE
  8
CSLAYER1
  6
DASHED
 62
     5
 10
483.817070
 20
610.919625
 11
479.525977
 21
609.233637
  0
LINE
  8
CSLAYER1
  6
DASHED
 62
     5
 10
479.525977
 20
609.233637
 11
475.538188
 21
607.362563
  0
LINE
  8
CSLAYER1
  6
DASHED
 62
     5
 10
475.538188
 20
607.362563
 11
471.884053
 21
605.320644
  0
LINE
  8
CSLAYER1
  6
DASHED
 62
     5
 10
471.884053
 20
605.320644
 11
468.591382
 21
603.123421
  0
LINE
  8
CSLAYER1
  6
DASHED
 62
     5
 10
468.591382
 20
603.123421
 11
465.685234
 21
600.787615
  0
LINE
  8
CSLAYER1
  6
DASHED
 62
     5
 10
465.685234
 20
600.787615
 11
463.187726
 21
598.331003
  0
LINE
  8
CSLAYER1
  6
DASHED
 62
     5
 10
463.187726
 20
598.331003
 11
461.117866
 21
595.772282
  0
LINE
  8
CSLAYER1
  6
DASHED
 62
     5
 10
461.117866
 20
595.772282
 11
459.491407
 21
593.130926
  0
LINE
  8
CSLAYER1
  6
DASHED
 62
     5
 10
459.491407
 20
593.130926
 11
458.320728
 21
590.427035
  0
LINE
  8
CSLAYER1
  6
DASHED
 62
     5
 10
458.320728
 20
590.427035
 11
457.614737
 21
587.681189
  0
LINE
  8
CSLAYER1
  6
DASHED
 62
     5
 10
457.614737
 20
587.681189
 11
457.378809
 21
584.914286
  0
LINE
  8
CSLAYER1
  6
DASHED
 62
     5
 10
457.378809
 20
584.914286
 11
457.614737
 21
582.147382
  0
LINE
  8
CSLAYER1
  6
DASHED
 62
     5
 10
457.614737
 20
582.147382
 11
458.320728
 21
579.401537
  0
LINE
  8
CSLAYER1
  6
DASHED
 62
     5
 10
458.320728
 20
579.401537
 11
459.491407
 21
576.697646
  0
LINE
  8
CSLAYER1
  6
DASHED
 62
     5
 10
459.491407
 20
576.697646
 11
461.117866
 21
574.056290
  0
LINE
  8
CSLAYER1
  6
DASHED
 62
     5
 10
461.117866
 20
574.056290
 11
463.187726
 21
571.497569
  0
LINE
  8
CSLAYER1
  6
DASHED
 62
     5
 10
463.187726
 20
571.497569
 11
465.685234
 21
569.040957
  0
LINE
  8
CSLAYER1
  6
DASHED
 62
     5
 10
465.685234
 20
569.040957
 11
468.591382
 21
566.705151
  0
LINE
  8
CSLAYER1
  6
DASHED
 62
     5
 10
468.591382
 20
566.705151
 11
471.884053
 21
564.507928
  0
LINE
  8
CSLAYER1
  6
DASHED
 62
     5
 10
471.884053
 20
564.507928
 11
475.538188
 21
562.466009
  0
LINE
  8
CSLAYER1
  6
DASHED
 62
     5
 10
475.538188
 20
562.466009
 11
479.525977
 21
560.594935
  0
LINE
  8
CSLAYER1
  6
DASHED
 62
     5
 10
479.525977
 20
560.594935
 11
483.817070
 21
558.908946
  0
LINE
  8
CSLAYER1
  6
DASHED
 62
     5
 10
483.817070
 20
558.908946
 11
488.378809
 21
557.420874
  0
LINE
  8
CSLAYER1
  6
DASHED
 62
     5
 10
488.378809
 20
557.420874
 11
493.176476
 21
556.142043
  0
LINE
  8
CSLAYER1
  6
DASHED
 62
     5
 10
493.176476
 20
556.142043
 11
498.173560
 21
555.082186
  0
LINE
  8
CSLAYER1
  6
DASHED
 62
     5
 10
498.173560
 20
555.082186
 11
503.332028
 21
554.249369
  0
LINE
  8
CSLAYER1
  6
DASHED
 62
     5
 10
503.332028
 20
554.249369
 11
508.612622
 21
553.649931
  0
LINE
  8
CSLAYER1
  6
DASHED
 62
     5
 10
508.612622
 20
553.649931
 11
513.975153
 21
553.288434
  0
LINE
  8
CSLAYER1
  6
DASHED
 62
     5
 10
513.975153
 20
553.288434
 11
519.378809
 21
553.167628
  0
LINE
  8
CSLAYER1
  6
DASHED
 62
     5
 10
519.378809
 20
553.167628
 11
524.782465
 21
553.288434
  0
LINE
  8
CSLAYER1
  6
DASHED
 62
     5
 10
524.782465
 20
553.288434
 11
530.144996
 21
553.649931
  0
LINE
  8
CSLAYER1
  6
DASHED
 62
     5
 10
530.144996
 20
553.649931
 11
535.425589
 21
554.249369
  0
LINE
  8
CSLAYER1
  6
DASHED
 62
     5
 10
535.425589
 20
554.249369
 11
540.584057
 21
555.082186
  0
LINE
  8
CSLAYER1
  6
DASHED
 62
     5
 10
540.584057
 20
555.082186
 11
545.581141
 21
556.142043
  0
LINE
  8
CSLAYER1
  6
DASHED
 62
     5
 10
545.581141
 20
556.142043
 11
550.378809
 21
557.420874
  0
LINE
  8
CSLAYER1
  6
DASHED
 62
     5
 10
550.378809
 20
557.420874
 11
554.940548
 21
558.908946
  0
LINE
  8
CSLAYER1
  6
DASHED
 62
     5
 10
554.940548
 20
558.908946
 11
559.231640
 21
560.594935
  0
LINE
  8
CSLAYER1
  6
DASHED
 62
     5
 10
559.231640
 20
560.594935
 11
563.219429
 21
562.466009
  0
LINE
  8
CSLAYER1
  6
DASHED
 62
     5
 10
563.219429
 20
562.466009
 11
566.873564
 21
564.507928
  0
LINE
  8
CSLAYER1
  6
DASHED
 62
     5
 10
566.873564
 20
564.507928
 11
570.166235
 21
566.705151
  0
LINE
  8
CSLAYER1
  6
DASHED
 62
     5
 10
570.166235
 20
566.705151
 11
573.072384
 21
569.040957
  0
LINE
  8
CSLAYER1
  6
DASHED
 62
     5
 10
573.072384
 20
569.040957
 11
575.569891
 21
571.497569
  0
LINE
  8
CSLAYER1
  6
DASHED
 62
     5
 10
575.569891
 20
571.497569
 11
577.639751
 21
574.056290
  0
LINE
  8
CSLAYER1
  6
DASHED
 62
     5
 10
577.639751
 20
574.056290
 11
579.266210
 21
576.697646
  0
LINE
  8
CSLAYER1
  6
DASHED
 62
     5
 10
579.266210
 20
576.697646
 11
580.436889
 21
579.401537
  0
LINE
  8
CSLAYER1
  6
DASHED
 62
     5
 10
580.436889
 20
579.401537
 11
581.142880
 21
582.147382
  0
LINE
  8
CSLAYER1
  6
DASHED
 62
     5
 10
581.142880
 20
582.147382
 11
581.378809
 21
584.914286
  0
LINE
  8
CSLAYER1
  6
DASHED
 62
     5
 10
566.378809
 20
822.687376
 11
472.378809
 21
822.687376
  0
LINE
  8
CSLAYER1
  6
DASHED
 62
     5
 10
566.378809
 20
811.518796
 11
472.378809
 21
811.518796
  0
LINE
  8
CSLAYER1
  6
DASHED
 62
     5
 10
574.378809
 20
814.687376
 11
574.378809
 21
755.208237
  0
LINE
  8
CSLAYER1
  6
DASHED
 62
     5
 10
565.340749
 20
793.430515
 11
565.340749
 21
811.518796
  0
LINE
  8
CSLAYER1
  6
DASHED
 62
     5
 10
569.340749
 20
796.583916
 11
569.099520
 21
797.284432
  0
LINE
  8
CSLAYER1
  6
DASHED
 62
     5
 10
569.099520
 20
797.284432
 11
568.404927
 21
797.900455
  0
LINE
  8
CSLAYER1
  6
DASHED
 62
     5
 10
568.404927
 20
797.900455
 11
567.340749
 21
798.357684
  0
LINE
  8
CSLAYER1
  6
DASHED
 62
     5
 10
567.340749
 20
798.357684
 11
566.035342
 21
798.600971
  0
LINE
  8
CSLAYER1
  6
DASHED
 62
     5
 10
566.035342
 20
798.600971
 11
564.646157
 21
798.600971
  0
LINE
  8
CSLAYER1
  6
DASHED
 62
     5
 10
564.646157
 20
798.600971
 11
563.340749
 21
798.357684
  0
LINE
  8
CSLAYER1
  6
DASHED
 62
     5
 10
563.340749
 20
798.357684
 11
562.276572
 21
797.900455
  0
LINE
  8
CSLAYER1
  6
DASHED
 62
     5
 10
562.276572
 20
797.900455
 11
561.581979
 21
797.284432
  0
LINE
  8
CSLAYER1
  6
DASHED
 62
     5
 10
561.581979
 20
797.284432
 11
561.340749
 21
796.583916
  0
LINE
  8
CSLAYER1
  6
DASHED
 62
     5
 10
561.340749
 20
796.583916
 11
561.581979
 21
795.883400
  0
LINE
  8
CSLAYER1
  6
DASHED
 62
     5
 10
561.581979
 20
795.883400
 11
562.276572
 21
795.267376
  0
LINE
  8
CSLAYER1
  6
DASHED
 62
     5
 10
562.276572
 20
795.267376
 11
563.340749
 21
794.810147
  0
LINE
  8
CSLAYER1
  6
DASHED
 62
     5
 10
563.340749
 20
794.810147
 11
564.646157
 21
794.566861
  0
LINE
  8
CSLAYER1
  6
DASHED
 62
     5
 10
564.646157
 20
794.566861
 11
566.035342
 21
794.566861
  0
LINE
  8
CSLAYER1
  6
DASHED
 62
     5
 10
566.035342
 20
794.566861
 11
567.340749
 21
794.810147
  0
LINE
  8
CSLAYER1
  6
DASHED
 62
     5
 10
567.340749
 20
794.810147
 11
568.404927
 21
795.267376
  0
LINE
  8
CSLAYER1
  6
DASHED
 62
     5
 10
568.404927
 20
795.267376
 11
569.099520
 21
795.883400
  0
LINE
  8
CSLAYER1
  6
DASHED
 62
     5
 10
569.099520
 20
795.883400
 11
569.340749
 21
796.583916
  0
LINE
  8
CSLAYER1
  6
DASHED
 62
     5
 10
572.840749
 20
806.893374
 11
572.840749
 21
799.590841
  0
LINE
  8
CSLAYER1
  6
DASHED
 62
     5
 10
569.340749
 20
799.590841
 11
569.340749
 21
796.583916
  0
LINE
  8
CSLAYER1
  6
DASHED
 62
     5
 10
572.840749
 20
806.893374
 11
572.726807
 21
807.560239
  0
LINE
  8
CSLAYER1
  6
DASHED
 62
     5
 10
572.726807
 20
807.560239
 11
572.388444
 21
808.206841
  0
LINE
  8
CSLAYER1
  6
DASHED
 62
     5
 10
572.388444
 20
808.206841
 11
571.835940
 21
808.813535
  0
LINE
  8
CSLAYER1
  6
DASHED
 62
     5
 10
571.835940
 20
808.813535
 11
571.086083
 21
809.361885
  0
LINE
  8
CSLAYER1
  6
DASHED
 62
     5
 10
571.086083
 20
809.361885
 11
570.161656
 21
809.835231
  0
LINE
  8
CSLAYER1
  6
DASHED
 62
     5
 10
570.161656
 20
809.835231
 11
569.090749
 21
810.219190
  0
LINE
  8
CSLAYER1
  6
DASHED
 62
     5
 10
569.090749
 20
810.219190
 11
567.905900
 21
810.502096
  0
LINE
  8
CSLAYER1
  6
DASHED
 62
     5
 10
567.905900
 20
810.502096
 11
566.643111
 21
810.675352
  0
LINE
  8
CSLAYER1
  6
DASHED
 62
     5
 10
566.643111
 20
810.675352
 11
565.340749
 21
810.733695
  0
LINE
  8
CSLAYER1
  6
DASHED
 62
     5
 10
565.340749
 20
810.733695
 11
564.038388
 21
810.675352
  0
LINE
  8
CSLAYER1
  6
DASHED
 62
     5
 10
564.038388
 20
810.675352
 11
562.775598
 21
810.502096
  0
LINE
  8
CSLAYER1
  6
DASHED
 62
     5
 10
562.775598
 20
810.502096
 11
561.590749
 21
810.219190
  0
LINE
  8
CSLAYER1
  6
DASHED
 62
     5
 10
561.590749
 20
810.219190
 11
560.519842
 21
809.835231
  0
LINE
  8
CSLAYER1
  6
DASHED
 62
     5
 10
560.519842
 20
809.835231
 11
559.595416
 21
809.361885
  0
LINE
  8
CSLAYER1
  6
DASHED
 62
     5
 10
559.595416
 20
809.361885
 11
558.845559
 21
808.813535
  0
LINE
  8
CSLAYER1
  6
DASHED
 62
     5
 10
558.845559
 20
808.813535
 11
558.293055
 21
808.206841
  0
LINE
  8
CSLAYER1
  6
DASHED
 62
     5
 10
558.293055
 20
808.206841
 11
557.954691
 21
807.560239
  0
LINE
  8
CSLAYER1
  6
DASHED
 62
     5
 10
557.954691
 20
807.560239
 11
557.840749
 21
806.893374
  0
LINE
  8
CSLAYER1
  6
DASHED
 62
     5
 10
569.340749
 20
799.590841
 11
569.099520
 21
800.291357
  0
LINE
  8
CSLAYER1
  6
DASHED
 62
     5
 10
569.099520
 20
800.291357
 11
568.404927
 21
800.907380
  0
LINE
  8
CSLAYER1
  6
DASHED
 62
     5
 10
568.404927
 20
800.907380
 11
567.340749
 21
801.364609
  0
LINE
  8
CSLAYER1
  6
DASHED
 62
     5
 10
567.340749
 20
801.364609
 11
566.035342
 21
801.607896
  0
LINE
  8
CSLAYER1
  6
DASHED
 62
     5
 10
566.035342
 20
801.607896
 11
564.646157
 21
801.607896
  0
LINE
  8
CSLAYER1
  6
DASHED
 62
     5
 10
564.646157
 20
801.607896
 11
563.340749
 21
801.364609
  0
LINE
  8
CSLAYER1
  6
DASHED
 62
     5
 10
563.340749
 20
801.364609
 11
562.276572
 21
800.907380
  0
LINE
  8
CSLAYER1
  6
DASHED
 62
     5
 10
562.276572
 20
800.907380
 11
561.581979
 21
800.291357
  0
LINE
  8
CSLAYER1
  6
DASHED
 62
     5
 10
561.581979
 20
800.291357
 11
561.340749
 21
799.590841
  0
LINE
  8
CSLAYER1
  6
DASHED
 62
     5
 10
572.840749
 20
799.590841
 11
572.726807
 21
800.257706
  0
LINE
  8
CSLAYER1
  6
DASHED
 62
     5
 10
572.726807
 20
800.257706
 11
572.388444
 21
800.904308
  0
LINE
  8
CSLAYER1
  6
DASHED
 62
     5
 10
572.388444
 20
800.904308
 11
571.835940
 21
801.511002
  0
LINE
  8
CSLAYER1
  6
DASHED
 62
     5
 10
571.835940
 20
801.511002
 11
571.086083
 21
802.059352
  0
LINE
  8
CSLAYER1
  6
DASHED
 62
     5
 10
571.086083
 20
802.059352
 11
570.161656
 21
802.532698
  0
LINE
  8
CSLAYER1
  6
DASHED
 62
     5
 10
570.161656
 20
802.532698
 11
569.090749
 21
802.916657
  0
LINE
  8
CSLAYER1
  6
DASHED
 62
     5
 10
569.090749
 20
802.916657
 11
567.905900
 21
803.199563
  0
LINE
  8
CSLAYER1
  6
DASHED
 62
     5
 10
567.905900
 20
803.199563
 11
566.643111
 21
803.372819
  0
LINE
  8
CSLAYER1
  6
DASHED
 62
     5
 10
566.643111
 20
803.372819
 11
565.340749
 21
803.431162
  0
LINE
  8
CSLAYER1
  6
DASHED
 62
     5
 10
565.340749
 20
803.431162
 11
564.038388
 21
803.372819
  0
LINE
  8
CSLAYER1
  6
DASHED
 62
     5
 10
564.038388
 20
803.372819
 11
562.775598
 21
803.199563
  0
LINE
  8
CSLAYER1
  6
DASHED
 62
     5
 10
562.775598
 20
803.199563
 11
561.590749
 21
802.916657
  0
LINE
  8
CSLAYER1
  6
DASHED
 62
     5
 10
561.590749
 20
802.916657
 11
560.519842
 21
802.532698
  0
LINE
  8
CSLAYER1
  6
DASHED
 62
     5
 10
560.519842
 20
802.532698
 11
559.595416
 21
802.059352
  0
LINE
  8
CSLAYER1
  6
DASHED
 62
     5
 10
559.595416
 20
802.059352
 11
558.845559
 21
801.511002
  0
LINE
  8
CSLAYER1
  6
DASHED
 62
     5
 10
558.845559
 20
801.511002
 11
558.293055
 21
800.904308
  0
LINE
  8
CSLAYER1
  6
DASHED
 62
     5
 10
558.293055
 20
800.904308
 11
557.954691
 21
800.257706
  0
LINE
  8
CSLAYER1
  6
DASHED
 62
     5
 10
557.954691
 20
800.257706
 11
557.840749
 21
799.590841
  0
LINE
  8
CSLAYER1
  6
DASHED
 62
     5
 10
557.840749
 20
799.590841
 11
557.954691
 21
798.923976
  0
LINE
  8
CSLAYER1
  6
DASHED
 62
     5
 10
557.954691
 20
798.923976
 11
558.293055
 21
798.277374
  0
LINE
  8
CSLAYER1
  6
DASHED
 62
     5
 10
558.293055
 20
798.277374
 11
558.845559
 21
797.670680
  0
LINE
  8
CSLAYER1
  6
DASHED
 62
     5
 10
558.845559
 20
797.670680
 11
559.595416
 21
797.122330
  0
LINE
  8
CSLAYER1
  6
DASHED
 62
     5
 10
559.595416
 20
797.122330
 11
560.519842
 21
796.648984
  0
LINE
  8
CSLAYER1
  6
DASHED
 62
     5
 10
560.519842
 20
796.648984
 11
561.373874
 21
796.335771
  0
LINE
  8
CSLAYER1
  6
DASHED
 62
     5
 10
569.307624
 20
796.335771
 11
570.161656
 21
796.648984
  0
LINE
  8
CSLAYER1
  6
DASHED
 62
     5
 10
570.161656
 20
796.648984
 11
571.086083
 21
797.122330
  0
LINE
  8
CSLAYER1
  6
DASHED
 62
     5
 10
571.086083
 20
797.122330
 11
571.835940
 21
797.670680
  0
LINE
  8
CSLAYER1
  6
DASHED
 62
     5
 10
571.835940
 20
797.670680
 11
572.388444
 21
798.277374
  0
LINE
  8
CSLAYER1
  6
DASHED
 62
     5
 10
572.388444
 20
798.277374
 11
572.726807
 21
798.923976
  0
LINE
  8
CSLAYER1
  6
DASHED
 62
     5
 10
572.726807
 20
798.923976
 11
572.840749
 21
799.590841
  0
LINE
  8
CSLAYER1
  6
DASHED
 62
     5
 10
569.642573
 20
810.039181
 11
569.642573
 21
802.736648
  0
LINE
  8
CSLAYER1
  6
DASHED
 62
     5
 10
561.038926
 20
810.039181
 11
561.038926
 21
802.736648
  0
LINE
  8
CSLAYER1
  6
DASHED
 62
     5
 10
557.840749
 20
806.893374
 11
557.840749
 21
799.590841
  0
LINE
  8
CSLAYER1
  6
DASHED
 62
     5
 10
561.340749
 20
799.590841
 11
561.340749
 21
796.583916
  0
LINE
  8
CSLAYER1
  6
DASHED
 62
     5
 10
580.378809
 20
826.525663
 11
458.378809
 21
826.525663
  0
ARC
  8
CSLAYER1
  6
DASHED
 62
     5
 10
566.378809
 20
814.687376
 40
8.000000
 50
0.000000
 51
90.000000
  0
ARC
  8
CSLAYER1
  6
DASHED
 62
     5
 10
566.378809
 20
803.518796
 40
8.000000
 50
0.000000
 51
90.000000
  0
LINE
  8
CSLAYER1
  6
DASHED
 62
     5
 10
573.378809
 20
783.371355
 11
573.378809
 21
756.348834
  0
LINE
  8
CSLAYER1
  6
DASHED
 62
     5
 10
579.378809
 20
742.992644
 11
579.378809
 21
641.840785
  0
LINE
  8
CSLAYER1
  6
DASHED
 62
     5
 10
581.378809
 20
633.884212
 11
581.378809
 21
584.914286
  0
LINE
  8
CSLAYER1
  6
DASHED
 62
     5
 10
573.378809
 20
783.371355
 11
573.173322
 21
785.781239
  0
LINE
  8
CSLAYER1
  6
DASHED
 62
     5
 10
573.173322
 20
785.781239
 11
572.558427
 21
788.172782
  0
LINE
  8
CSLAYER1
  6
DASHED
 62
     5
 10
572.558427
 20
788.172782
 11
571.538803
 21
790.527783
  0
LINE
  8
CSLAYER1
  6
DASHED
 62
     5
 10
571.538803
 20
790.527783
 11
570.122210
 21
792.828320
  0
LINE
  8
CSLAYER1
  6
DASHED
 62
     5
 10
570.122210
 20
792.828320
 11
568.231909
 21
795.165074
  0
LINE
  8
CSLAYER1
  6
DASHED
 62
     5
 10
557.840749
 20
802.767637
 11
557.562575
 21
802.923080
  0
LINE
  8
CSLAYER1
  6
DASHED
 62
     5
 10
557.562575
 20
802.923080
 11
554.089339
 21
804.552725
  0
LINE
  8
CSLAYER1
  6
DASHED
 62
     5
 10
554.089339
 20
804.552725
 11
550.351936
 21
806.021167
  0
LINE
  8
CSLAYER1
  6
DASHED
 62
     5
 10
550.351936
 20
806.021167
 11
546.378809
 21
807.317230
  0
LINE
  8
CSLAYER1
  6
DASHED
 62
     5
 10
546.378809
 20
807.317230
 11
542.200195
 21
808.431051
  0
LINE
  8
CSLAYER1
  6
DASHED
 62
     5
 10
542.200195
 20
808.431051
 11
537.847896
 21
809.354152
  0
LINE
  8
CSLAYER1
  6
DASHED
 62
     5
 10
537.847896
 20
809.354152
 11
533.355037
 21
810.079508
  0
LINE
  8
CSLAYER1
  6
DASHED
 62
     5
 10
533.355037
 20
810.079508
 11
528.755810
 21
810.601600
  0
LINE
  8
CSLAYER1
  6
DASHED
 62
     5
 10
528.755810
 20
810.601600
 11
524.085219
 21
810.916452
  0
LINE
  8
CSLAYER1
  6
DASHED
 62
     5
 10
524.085219
 20
810.916452
 11
519.378809
 21
811.021670
  0
LINE
  8
CSLAYER1
  6
DASHED
 62
     5
 10
573.378809
 20
758.456831
 11
573.173322
 21
760.866715
  0
LINE
  8
CSLAYER1
  6
DASHED
 62
     5
 10
573.173322
 20
760.866715
 11
572.558427
 21
763.258258
  0
LINE
  8
CSLAYER1
  6
DASHED
 62
     5
 10
572.558427
 20
763.258258
 11
571.538803
 21
765.613260
  0
LINE
  8
CSLAYER1
  6
DASHED
 62
     5
 10
571.538803
 20
765.613260
 11
570.122210
 21
767.913796
  0
LINE
  8
CSLAYER1
  6
DASHED
 62
     5
 10
570.122210
 20
767.913796
 11
568.319429
 21
770.142359
  0
LINE
  8
CSLAYER1
  6
DASHED
 62
     5
 10
568.319429
 20
770.142359
 11
566.144180
 21
772.281989
  0
LINE
  8
CSLAYER1
  6
DASHED
 62
     5
 10
566.144180
 20
772.281989
 11
563.613019
 21
774.316400
  0
LINE
  8
CSLAYER1
  6
DASHED
 62
     5
 10
563.613019
 20
774.316400
 11
560.745208
 21
776.230111
  0
LINE
  8
CSLAYER1
  6
DASHED
 62
     5
 10
560.745208
 20
776.230111
 11
557.562575
 21
778.008556
  0
LINE
  8
CSLAYER1
  6
DASHED
 62
     5
 10
557.562575
 20
778.008556
 11
554.089339
 21
779.638201
  0
LINE
  8
CSLAYER1
  6
DASHED
 62
     5
 10
554.089339
 20
779.638201
 11
550.351936
 21
781.106643
  0
LINE
  8
CSLAYER1
  6
DASHED
 62
     5
 10
550.351936
 20
781.106643
 11
546.378809
 21
782.402706
  0
LINE
  8
CSLAYER1
  6
DASHED
 62
     5
 10
546.378809
 20
782.402706
 11
542.200195
 21
783.516527
  0
LINE
  8
CSLAYER1
  6
DASHED
 62
     5
 10
542.200195
 20
783.516527
 11
537.847896
 21
784.439628
  0
LINE
  8
CSLAYER1
  6
DASHED
 62
     5
 10
537.847896
 20
784.439628
 11
533.355037
 21
785.164985
  0
LINE
  8
CSLAYER1
  6
DASHED
 62
     5
 10
533.355037
 20
785.164985
 11
528.755810
 21
785.687076
  0
LINE
  8
CSLAYER1
  6
DASHED
 62
     5
 10
528.755810
 20
785.687076
 11
524.085219
 21
786.001928
  0
LINE
  8
CSLAYER1
  6
DASHED
 62
     5
 10
524.085219
 20
786.001928
 11
519.378809
 21
786.107146
  0
LINE
  8
CSLAYER1
  6
DASHED
 62
     5
 10
579.378809
 20
742.992644
 11
579.150490
 21
745.670293
  0
LINE
  8
CSLAYER1
  6
DASHED
 62
     5
 10
579.150490
 20
745.670293
 11
578.467274
 21
748.327563
  0
LINE
  8
CSLAYER1
  6
DASHED
 62
     5
 10
578.467274
 20
748.327563
 11
577.334358
 21
750.944231
  0
LINE
  8
CSLAYER1
  6
DASHED
 62
     5
 10
577.334358
 20
750.944231
 11
575.760366
 21
753.500383
  0
LINE
  8
CSLAYER1
  6
DASHED
 62
     5
 10
575.760366
 20
753.500383
 11
573.757276
 21
755.976564
  0
LINE
  8
CSLAYER1
  6
DASHED
 62
     5
 10
573.757276
 20
755.976564
 11
571.340333
 21
758.353930
  0
LINE
  8
CSLAYER1
  6
DASHED
 62
     5
 10
571.340333
 20
758.353930
 11
568.527931
 21
760.614388
  0
LINE
  8
CSLAYER1
  6
DASHED
 62
     5
 10
568.527931
 20
760.614388
 11
565.341475
 21
762.740733
  0
LINE
  8
CSLAYER1
  6
DASHED
 62
     5
 10
565.341475
 20
762.740733
 11
561.805215
 21
764.716783
  0
LINE
  8
CSLAYER1
  6
DASHED
 62
     5
 10
561.805215
 20
764.716783
 11
557.946065
 21
766.527500
  0
LINE
  8
CSLAYER1
  6
DASHED
 62
     5
 10
557.946065
 20
766.527500
 11
553.793395
 21
768.159102
  0
LINE
  8
CSLAYER1
  6
DASHED
 62
     5
 10
553.793395
 20
768.159102
 11
549.378809
 21
769.599172
  0
LINE
  8
CSLAYER1
  6
DASHED
 62
     5
 10
549.378809
 20
769.599172
 11
544.735904
 21
770.836750
  0
LINE
  8
CSLAYER1
  6
DASHED
 62
     5
 10
544.735904
 20
770.836750
 11
539.900017
 21
771.862418
  0
LINE
  8
CSLAYER1
  6
DASHED
 62
     5
 10
539.900017
 20
771.862418
 11
534.907951
 21
772.668370
  0
LINE
  8
CSLAYER1
  6
DASHED
 62
     5
 10
534.907951
 20
772.668370
 11
529.797699
 21
773.248471
  0
LINE
  8
CSLAYER1
  6
DASHED
 62
     5
 10
529.797699
 20
773.248471
 11
524.608153
 21
773.598307
  0
LINE
  8
CSLAYER1
  6
DASHED
 62
     5
 10
524.608153
 20
773.598307
 11
519.378809
 21
773.715216
  0
LINE
  8
CSLAYER1
  6
DASHED
 62
     5
 10
579.378809
 20
734.401429
 11
579.150490
 21
737.079078
  0
LINE
  8
CSLAYER1
  6
DASHED
 62
     5
 10
579.150490
 20
737.079078
 11
578.467274
 21
739.736348
  0
LINE
  8
CSLAYER1
  6
DASHED
 62
     5
 10
578.467274
 20
739.736348
 11
577.334358
 21
742.353016
  0
LINE
  8
CSLAYER1
  6
DASHED
 62
     5
 10
577.334358
 20
742.353016
 11
575.760366
 21
744.909168
  0
LINE
  8
CSLAYER1
  6
DASHED
 62
     5
 10
575.760366
 20
744.909168
 11
573.757276
 21
747.385349
  0
LINE
  8
CSLAYER1
  6
DASHED
 62
     5
 10
573.757276
 20
747.385349
 11
571.340333
 21
749.762715
  0
LINE
  8
CSLAYER1
  6
DASHED
 62
     5
 10
571.340333
 20
749.762715
 11
568.527931
 21
752.023172
  0
LINE
  8
CSLAYER1
  6
DASHED
 62
     5
 10
568.527931
 20
752.023172
 11
565.341475
 21
754.149518
  0
LINE
  8
CSLAYER1
  6
DASHED
 62
     5
 10
565.341475
 20
754.149518
 11
561.805215
 21
756.125568
  0
LINE
  8
CSLAYER1
  6
DASHED
 62
     5
 10
561.805215
 20
756.125568
 11
557.946065
 21
757.936285
  0
LINE
  8
CSLAYER1
  6
DASHED
 62
     5
 10
557.946065
 20
757.936285
 11
553.793395
 21
759.567887
  0
LINE
  8
CSLAYER1
  6
DASHED
 62
     5
 10
553.793395
 20
759.567887
 11
549.378809
 21
761.007957
  0
LINE
  8
CSLAYER1
  6
DASHED
 62
     5
 10
549.378809
 20
761.007957
 11
544.735904
 21
762.245535
  0
LINE
  8
CSLAYER1
  6
DASHED
 62
     5
 10
544.735904
 20
762.245535
 11
539.900017
 21
763.271203
  0
LINE
  8
CSLAYER1
  6
DASHED
 62
     5
 10
539.900017
 20
763.271203
 11
534.907951
 21
764.077155
  0
LINE
  8
CSLAYER1
  6
DASHED
 62
     5
 10
534.907951
 20
764.077155
 11
529.797699
 21
764.657256
  0
LINE
  8
CSLAYER1
  6
DASHED
 62
     5
 10
529.797699
 20
764.657256
 11
524.608153
 21
765.007092
  0
LINE
  8
CSLAYER1
  6
DASHED
 62
     5
 10
524.608153
 20
765.007092
 11
519.378809
 21
765.124001
  0
LINE
  8
CSLAYER1
  6
DASHED
 62
     5
 10
581.378809
 20
633.884212
 11
581.142880
 21
636.651116
  0
LINE
  8
CSLAYER1
  6
DASHED
 62
     5
 10
581.142880
 20
636.651116
 11
580.436889
 21
639.396961
  0
LINE
  8
CSLAYER1
  6
DASHED
 62
     5
 10
580.436889
 20
639.396961
 11
579.266210
 21
642.100852
  0
LINE
  8
CSLAYER1
  6
DASHED
 62
     5
 10
579.266210
 20
642.100852
 11
577.639751
 21
644.742209
  0
LINE
  8
CSLAYER1
  6
DASHED
 62
     5
 10
577.639751
 20
644.742209
 11
575.569891
 21
647.300929
  0
LINE
  8
CSLAYER1
  6
DASHED
 62
     5
 10
575.569891
 20
647.300929
 11
573.072384
 21
649.757541
  0
LINE
  8
CSLAYER1
  6
DASHED
 62
     5
 10
573.072384
 20
649.757541
 11
570.166235
 21
652.093347
  0
LINE
  8
CSLAYER1
  6
DASHED
 62
     5
 10
570.166235
 20
652.093347
 11
566.873564
 21
654.290570
  0
LINE
  8
CSLAYER1
  6
DASHED
 62
     5
 10
566.873564
 20
654.290570
 11
563.219429
 21
656.332489
  0
LINE
  8
CSLAYER1
  6
DASHED
 62
     5
 10
563.219429
 20
656.332489
 11
559.231640
 21
658.203563
  0
LINE
  8
CSLAYER1
  6
DASHED
 62
     5
 10
559.231640
 20
658.203563
 11
554.940548
 21
659.889552
  0
LINE
  8
CSLAYER1
  6
DASHED
 62
     5
 10
554.940548
 20
659.889552
 11
550.378809
 21
661.377624
  0
LINE
  8
CSLAYER1
  6
DASHED
 62
     5
 10
550.378809
 20
661.377624
 11
545.581141
 21
662.656455
  0
LINE
  8
CSLAYER1
  6
DASHED
 62
     5
 10
545.581141
 20
662.656455
 11
540.584057
 21
663.716312
  0
LINE
  8
CSLAYER1
  6
DASHED
 62
     5
 10
540.584057
 20
663.716312
 11
535.425589
 21
664.549129
  0
LINE
  8
CSLAYER1
  6
DASHED
 62
     5
 10
535.425589
 20
664.549129
 11
530.144996
 21
665.148567
  0
LINE
  8
CSLAYER1
  6
DASHED
 62
     5
 10
530.144996
 20
665.148567
 11
524.782465
 21
665.510064
  0
LINE
  8
CSLAYER1
  6
DASHED
 62
     5
 10
524.782465
 20
665.510064
 11
519.378809
 21
665.630870
  0
LINE
  8
CSLAYER1
  6
DASHED
 62
     5
 10
282.378809
 20
821.785879
 11
282.378809
 21
794.785879
  0
LINE
  8
CSLAYER1
  6
DASHED
 62
     5
 10
276.378809
 20
821.285879
 11
276.378809
 21
795.285879
  0
LINE
  8
CSLAYER1
  6
DASHED
 62
     5
 10
282.378809
 20
818.285879
 11
283.378809
 21
818.285879
  0
LINE
  8
CSLAYER1
  6
DASHED
 62
     5
 10
277.378809
 20
822.285879
 11
281.878809
 21
822.285879
  0
LINE
  8
CSLAYER1
  6
DASHED
 62
     5
 10
276.378809
 20
821.285879
 11
277.378809
 21
822.285879
  0
LINE
  8
CSLAYER1
  6
DASHED
 62
     5
 10
281.878809
 20
822.285879
 11
282.378809
 21
821.785879
  0
LINE
  8
CSLAYER1
  6
DASHED
 62
     5
 10
277.378809
 20
822.285879
 11
277.378809
 21
794.285879
  0
LINE
  8
CSLAYER1
  6
DASHED
 62
     5
 10
281.878809
 20
822.285879
 11
281.878809
 21
794.285879
  0
LINE
  8
CSLAYER1
  6
DASHED
 62
     5
 10
277.378809
 20
794.285879
 11
281.878809
 21
794.285879
  0
LINE
  8
CSLAYER1
  6
DASHED
 62
     5
 10
276.378809
 20
795.285879
 11
277.378809
 21
794.285879
  0
LINE
  8
CSLAYER1
  6
DASHED
 62
     5
 10
281.878809
 20
794.285879
 11
282.378809
 21
794.785879
  0
LINE
  8
CSLAYER1
  6
DASHED
 62
     5
 10
282.378809
 20
798.285879
 11
283.378809
 21
798.285879
  0
LINE
  8
CSLAYER1
  6
DASHED
 62
     5
 10
293.378809
 20
833.546686
 11
293.378809
 21
783.025073
  0
LINE
  8
CSLAYER1
  6
DASHED
 62
     5
 10
458.378809
 20
854.017552
 11
458.378809
 21
826.525663
  0
LINE
  8
CSLAYER1
  6
DASHED
 62
     5
 10
312.878809
 20
792.246810
 11
312.977558
 21
793.044931
  0
LINE
  8
CSLAYER1
  6
DASHED
 62
     5
 10
312.977558
 20
793.044931
 11
313.270807
 21
793.818801
  0
LINE
  8
CSLAYER1
  6
DASHED
 62
     5
 10
313.270807
 20
793.818801
 11
313.749643
 21
794.544907
  0
LINE
  8
CSLAYER1
  6
DASHED
 62
     5
 10
313.749643
 20
794.544907
 11
314.399520
 21
795.201187
  0
LINE
  8
CSLAYER1
  6
DASHED
 62
     5
 10
314.399520
 20
795.201187
 11
315.200689
 21
795.767699
  0
LINE
  8
CSLAYER1
  6
DASHED
 62
     5
 10
315.200689
 20
795.767699
 11
316.128809
 21
796.227231
  0
LINE
  8
CSLAYER1
  6
DASHED
 62
     5
 10
316.128809
 20
796.227231
 11
317.155678
 21
796.565820
  0
LINE
  8
CSLAYER1
  6
DASHED
 62
     5
 10
317.155678
 20
796.565820
 11
318.250095
 21
796.773178
  0
LINE
  8
CSLAYER1
  6
DASHED
 62
     5
 10
318.250095
 20
796.773178
 11
319.378809
 21
796.843004
  0
LINE
  8
CSLAYER1
  6
DASHED
 62
     5
 10
319.378809
 20
796.843004
 11
320.507522
 21
796.773178
  0
LINE
  8
CSLAYER1
  6
DASHED
 62
     5
 10
320.507522
 20
796.773178
 11
321.601939
 21
796.565820
  0
LINE
  8
CSLAYER1
  6
DASHED
 62
     5
 10
321.601939
 20
796.565820
 11
322.628809
 21
796.227231
  0
LINE
  8
CSLAYER1
  6
DASHED
 62
     5
 10
322.628809
 20
796.227231
 11
323.556928
 21
795.767699
  0
LINE
  8
CSLAYER1
  6
DASHED
 62
     5
 10
323.556928
 20
795.767699
 11
324.358097
 21
795.201187
  0
LINE
  8
CSLAYER1
  6
DASHED
 62
     5
 10
324.358097
 20
795.201187
 11
325.007974
 21
794.544907
  0
LINE
  8
CSLAYER1
  6
DASHED
 62
     5
 10
325.007974
 20
794.544907
 11
325.486811
 21
793.818801
  0
LINE
  8
CSLAYER1
  6
DASHED
 62
     5
 10
325.486811
 20
793.818801
 11
325.780059
 21
793.044931
  0
LINE
  8
CSLAYER1
  6
DASHED
 62
     5
 10
325.780059
 20
793.044931
 11
325.878809
 21
792.246810
  0
LINE
  8
CSLAYER1
  6
DASHED
 62
     5
 10
325.878809
 20
792.246810
 11
325.780059
 21
791.448689
  0
LINE
  8
CSLAYER1
  6
DASHED
 62
     5
 10
325.780059
 20
791.448689
 11
325.486811
 21
790.674819
  0
LINE
  8
CSLAYER1
  6
DASHED
 62
     5
 10
325.486811
 20
790.674819
 11
325.007974
 21
789.948713
  0
LINE
  8
CSLAYER1
  6
DASHED
 62
     5
 10
325.007974
 20
789.948713
 11
324.358097
 21
789.292434
  0
LINE
  8
CSLAYER1
  6
DASHED
 62
     5
 10
324.358097
 20
789.292434
 11
323.556928
 21
788.725921
  0
LINE
  8
CSLAYER1
  6
DASHED
 62
     5
 10
323.556928
 20
788.725921
 11
322.628809
 21
788.266389
  0
LINE
  8
CSLAYER1
  6
DASHED
 62
     5
 10
322.628809
 20
788.266389
 11
321.601939
 21
787.927800
  0
LINE
  8
CSLAYER1
  6
DASHED
 62
     5
 10
321.601939
 20
787.927800
 11
320.507522
 21
787.720443
  0
LINE
  8
CSLAYER1
  6
DASHED
 62
     5
 10
320.507522
 20
787.720443
 11
319.378809
 21
787.650616
  0
LINE
  8
CSLAYER1
  6
DASHED
 62
     5
 10
319.378809
 20
787.650616
 11
318.250095
 21
787.720443
  0
LINE
  8
CSLAYER1
  6
DASHED
 62
     5
 10
318.250095
 20
787.720443
 11
317.155678
 21
787.927800
  0
LINE
  8
CSLAYER1
  6
DASHED
 62
     5
 10
317.155678
 20
787.927800
 11
316.128809
 21
788.266389
  0
LINE
  8
CSLAYER1
  6
DASHED
 62
     5
 10
316.128809
 20
788.266389
 11
315.200689
 21
788.725921
  0
LINE
  8
CSLAYER1
  6
DASHED
 62
     5
 10
315.200689
 20
788.725921
 11
314.399520
 21
789.292434
  0
LINE
  8
CSLAYER1
  6
DASHED
 62
     5
 10
314.399520
 20
789.292434
 11
313.749643
 21
789.948713
  0
LINE
  8
CSLAYER1
  6
DASHED
 62
     5
 10
313.749643
 20
789.948713
 11
313.270807
 21
790.674819
  0
LINE
  8
CSLAYER1
  6
DASHED
 62
     5
 10
313.270807
 20
790.674819
 11
312.977558
 21
791.448689
  0
LINE
  8
CSLAYER1
  6
DASHED
 62
     5
 10
312.977558
 20
791.448689
 11
312.878809
 21
792.246810
  0
LINE
  8
CSLAYER1
  6
DASHED
 62
     5
 10
312.878809
 20
796.843004
 11
312.878809
 21
792.246810
  0
LINE
  8
CSLAYER1
  6
DASHED
 62
     5
 10
312.878809
 20
796.843004
 11
312.977558
 21
797.641125
  0
LINE
  8
CSLAYER1
  6
DASHED
 62
     5
 10
312.977558
 20
797.641125
 11
313.270807
 21
798.414995
  0
LINE
  8
CSLAYER1
  6
DASHED
 62
     5
 10
313.270807
 20
798.414995
 11
313.749643
 21
799.141101
  0
LINE
  8
CSLAYER1
  6
DASHED
 62
     5
 10
313.749643
 20
799.141101
 11
314.399520
 21
799.797381
  0
LINE
  8
CSLAYER1
  6
DASHED
 62
     5
 10
314.399520
 20
799.797381
 11
315.200689
 21
800.363893
  0
LINE
  8
CSLAYER1
  6
DASHED
 62
     5
 10
315.200689
 20
800.363893
 11
316.128809
 21
800.823425
  0
LINE
  8
CSLAYER1
  6
DASHED
 62
     5
 10
316.128809
 20
800.823425
 11
317.155678
 21
801.162014
  0
LINE
  8
CSLAYER1
  6
DASHED
 62
     5
 10
317.155678
 20
801.162014
 11
318.250095
 21
801.369372
  0
LINE
  8
CSLAYER1
  6
DASHED
 62
     5
 10
318.250095
 20
801.369372
 11
319.378809
 21
801.439198
  0
LINE
  8
CSLAYER1
  6
DASHED
 62
     5
 10
319.378809
 20
801.439198
 11
320.507522
 21
801.369372
  0
LINE
  8
CSLAYER1
  6
DASHED
 62
     5
 10
320.507522
 20
801.369372
 11
321.601939
 21
801.162014
  0
LINE
  8
CSLAYER1
  6
DASHED
 62
     5
 10
321.601939
 20
801.162014
 11
322.628809
 21
800.823425
  0
LINE
  8
CSLAYER1
  6
DASHED
 62
     5
 10
322.628809
 20
800.823425
 11
323.556928
 21
800.363893
  0
LINE
  8
CSLAYER1
  6
DASHED
 62
     5
 10
323.556928
 20
800.363893
 11
324.358097
 21
799.797381
  0
LINE
  8
CSLAYER1
  6
DASHED
 62
     5
 10
324.358097
 20
799.797381
 11
325.007974
 21
799.141101
  0
LINE
  8
CSLAYER1
  6
DASHED
 62
     5
 10
325.007974
 20
799.141101
 11
325.486811
 21
798.414995
  0
LINE
  8
CSLAYER1
  6
DASHED
 62
     5
 10
325.486811
 20
798.414995
 11
325.780059
 21
797.641125
  0
LINE
  8
CSLAYER1
  6
DASHED
 62
     5
 10
325.780059
 20
797.641125
 11
325.878809
 21
796.843004
  0
LINE
  8
CSLAYER1
  6
DASHED
 62
     5
 10
325.878809
 20
796.843004
 11
325.878809
 21
792.246810
  0
LINE
  8
CSLAYER1
  6
DASHED
 62
     5
 10
464.378809
 20
814.687376
 11
464.378809
 21
755.208237
  0
LINE
  8
CSLAYER1
  6
DASHED
 62
     5
 10
473.416868
 20
793.430515
 11
473.416868
 21
811.518796
  0
LINE
  8
CSLAYER1
  6
DASHED
 62
     5
 10
469.416868
 20
796.583916
 11
469.658097
 21
797.284432
  0
LINE
  8
CSLAYER1
  6
DASHED
 62
     5
 10
469.658097
 20
797.284432
 11
470.352690
 21
797.900455
  0
LINE
  8
CSLAYER1
  6
DASHED
 62
     5
 10
470.352690
 20
797.900455
 11
471.416868
 21
798.357684
  0
LINE
  8
CSLAYER1
  6
DASHED
 62
     5
 10
471.416868
 20
798.357684
 11
472.722275
 21
798.600971
  0
LINE
  8
CSLAYER1
  6
DASHED
 62
     5
 10
472.722275
 20
798.600971
 11
474.111460
 21
798.600971
  0
LINE
  8
CSLAYER1
  6
DASHED
 62
     5
 10
474.111460
 20
798.600971
 11
475.416868
 21
798.357684
  0
LINE
  8
CSLAYER1
  6
DASHED
 62
     5
 10
475.416868
 20
798.357684
 11
476.481046
 21
797.900455
  0
LINE
  8
CSLAYER1
  6
DASHED
 62
     5
 10
476.481046
 20
797.900455
 11
477.175638
 21
797.284432
  0
LINE
  8
CSLAYER1
  6
DASHED
 62
     5
 10
477.175638
 20
797.284432
 11
477.416868
 21
796.583916
  0
LINE
  8
CSLAYER1
  6
DASHED
 62
     5
 10
477.416868
 20
796.583916
 11
477.175638
 21
795.883400
  0
LINE
  8
CSLAYER1
  6
DASHED
 62
     5
 10
477.175638
 20
795.883400
 11
476.481046
 21
795.267376
  0
LINE
  8
CSLAYER1
  6
DASHED
 62
     5
 10
476.481046
 20
795.267376
 11
475.416868
 21
794.810147
  0
LINE
  8
CSLAYER1
  6
DASHED
 62
     5
 10
475.416868
 20
794.810147
 11
474.111460
 21
794.566861
  0
LINE
  8
CSLAYER1
  6
DASHED
 62
     5
 10
474.111460
 20
794.566861
 11
472.722275
 21
794.566861
  0
LINE
  8
CSLAYER1
  6
DASHED
 62
     5
 10
472.722275
 20
794.566861
 11
471.416868
 21
794.810147
  0
LINE
  8
CSLAYER1
  6
DASHED
 62
     5
 10
471.416868
 20
794.810147
 11
470.352690
 21
795.267376
  0
LINE
  8
CSLAYER1
  6
DASHED
 62
     5
 10
470.352690
 20
795.267376
 11
469.658097
 21
795.883400
  0
LINE
  8
CSLAYER1
  6
DASHED
 62
     5
 10
469.658097
 20
795.883400
 11
469.416868
 21
796.583916
  0
LINE
  8
CSLAYER1
  6
DASHED
 62
     5
 10
465.916868
 20
806.893374
 11
465.916868
 21
799.590841
  0
LINE
  8
CSLAYER1
  6
DASHED
 62
     5
 10
469.416868
 20
799.590841
 11
469.416868
 21
796.583916
  0
LINE
  8
CSLAYER1
  6
DASHED
 62
     5
 10
465.916868
 20
806.893374
 11
466.030810
 21
807.560239
  0
LINE
  8
CSLAYER1
  6
DASHED
 62
     5
 10
466.030810
 20
807.560239
 11
466.369173
 21
808.206841
  0
LINE
  8
CSLAYER1
  6
DASHED
 62
     5
 10
466.369173
 20
808.206841
 11
466.921677
 21
808.813535
  0
LINE
  8
CSLAYER1
  6
DASHED
 62
     5
 10
466.921677
 20
808.813535
 11
467.671534
 21
809.361885
  0
LINE
  8
CSLAYER1
  6
DASHED
 62
     5
 10
467.671534
 20
809.361885
 11
468.595961
 21
809.835231
  0
LINE
  8
CSLAYER1
  6
DASHED
 62
     5
 10
468.595961
 20
809.835231
 11
469.666868
 21
810.219190
  0
LINE
  8
CSLAYER1
  6
DASHED
 62
     5
 10
469.666868
 20
810.219190
 11
470.851717
 21
810.502096
  0
LINE
  8
CSLAYER1
  6
DASHED
 62
     5
 10
470.851717
 20
810.502096
 11
472.114506
 21
810.675352
  0
LINE
  8
CSLAYER1
  6
DASHED
 62
     5
 10
472.114506
 20
810.675352
 11
473.416868
 21
810.733695
  0
LINE
  8
CSLAYER1
  6
DASHED
 62
     5
 10
473.416868
 20
810.733695
 11
474.719229
 21
810.675352
  0
LINE
  8
CSLAYER1
  6
DASHED
 62
     5
 10
474.719229
 20
810.675352
 11
475.982019
 21
810.502096
  0
LINE
  8
CSLAYER1
  6
DASHED
 62
     5
 10
475.982019
 20
810.502096
 11
477.166868
 21
810.219190
  0
LINE
  8
CSLAYER1
  6
DASHED
 62
     5
 10
477.166868
 20
810.219190
 11
478.237775
 21
809.835231
  0
LINE
  8
CSLAYER1
  6
DASHED
 62
     5
 10
478.237775
 20
809.835231
 11
479.162201
 21
809.361885
  0
LINE
  8
CSLAYER1
  6
DASHED
 62
     5
 10
479.162201
 20
809.361885
 11
479.912058
 21
808.813535
  0
LINE
  8
CSLAYER1
  6
DASHED
 62
     5
 10
479.912058
 20
808.813535
 11
480.464562
 21
808.206841
  0
LINE
  8
CSLAYER1
  6
DASHED
 62
     5
 10
480.464562
 20
808.206841
 11
480.802926
 21
807.560239
  0
LINE
  8
CSLAYER1
  6
DASHED
 62
     5
 10
480.802926
 20
807.560239
 11
480.916868
 21
806.893374
  0
LINE
  8
CSLAYER1
  6
DASHED
 62
     5
 10
469.416868
 20
799.590841
 11
469.658097
 21
800.291357
  0
LINE
  8
CSLAYER1
  6
DASHED
 62
     5
 10
469.658097
 20
800.291357
 11
470.352690
 21
800.907380
  0
LINE
  8
CSLAYER1
  6
DASHED
 62
     5
 10
470.352690
 20
800.907380
 11
471.416868
 21
801.364609
  0
LINE
  8
CSLAYER1
  6
DASHED
 62
     5
 10
471.416868
 20
801.364609
 11
472.722275
 21
801.607896
  0
LINE
  8
CSLAYER1
  6
DASHED
 62
     5
 10
472.722275
 20
801.607896
 11
474.111460
 21
801.607896
  0
LINE
  8
CSLAYER1
  6
DASHED
 62
     5
 10
474.111460
 20
801.607896
 11
475.416868
 21
801.364609
  0
LINE
  8
CSLAYER1
  6
DASHED
 62
     5
 10
475.416868
 20
801.364609
 11
476.481046
 21
800.907380
  0
LINE
  8
CSLAYER1
  6
DASHED
 62
     5
 10
476.481046
 20
800.907380
 11
477.175638
 21
800.291357
  0
LINE
  8
CSLAYER1
  6
DASHED
 62
     5
 10
477.175638
 20
800.291357
 11
477.416868
 21
799.590841
  0
LINE
  8
CSLAYER1
  6
DASHED
 62
     5
 10
465.916868
 20
799.590841
 11
466.030810
 21
800.257706
  0
LINE
  8
CSLAYER1
  6
DASHED
 62
     5
 10
466.030810
 20
800.257706
 11
466.369173
 21
800.904308
  0
LINE
  8
CSLAYER1
  6
DASHED
 62
     5
 10
466.369173
 20
800.904308
 11
466.921677
 21
801.511002
  0
LINE
  8
CSLAYER1
  6
DASHED
 62
     5
 10
466.921677
 20
801.511002
 11
467.671534
 21
802.059352
  0
LINE
  8
CSLAYER1
  6
DASHED
 62
     5
 10
467.671534
 20
802.059352
 11
468.595961
 21
802.532698
  0
LINE
  8
CSLAYER1
  6
DASHED
 62
     5
 10
468.595961
 20
802.532698
 11
469.666868
 21
802.916657
  0
LINE
  8
CSLAYER1
  6
DASHED
 62
     5
 10
469.666868
 20
802.916657
 11
470.851717
 21
803.199563
  0
LINE
  8
CSLAYER1
  6
DASHED
 62
     5
 10
470.851717
 20
803.199563
 11
472.114506
 21
803.372819
  0
LINE
  8
CSLAYER1
  6
DASHED
 62
     5
 10
472.114506
 20
803.372819
 11
473.416868
 21
803.431162
  0
LINE
  8
CSLAYER1
  6
DASHED
 62
     5
 10
473.416868
 20
803.431162
 11
474.719229
 21
803.372819
  0
LINE
  8
CSLAYER1
  6
DASHED
 62
     5
 10
474.719229
 20
803.372819
 11
475.982019
 21
803.199563
  0
LINE
  8
CSLAYER1
  6
DASHED
 62
     5
 10
475.982019
 20
803.199563
 11
477.166868
 21
802.916657
  0
LINE
  8
CSLAYER1
  6
DASHED
 62
     5
 10
477.166868
 20
802.916657
 11
478.237775
 21
802.532698
  0
LINE
  8
CSLAYER1
  6
DASHED
 62
     5
 10
478.237775
 20
802.532698
 11
479.162201
 21
802.059352
  0
LINE
  8
CSLAYER1
  6
DASHED
 62
     5
 10
479.162201
 20
802.059352
 11
479.912058
 21
801.511002
  0
LINE
  8
CSLAYER1
  6
DASHED
 62
     5
 10
479.912058
 20
801.511002
 11
480.464562
 21
800.904308
  0
LINE
  8
CSLAYER1
  6
DASHED
 62
     5
 10
480.464562
 20
800.904308
 11
480.802926
 21
800.257706
  0
LINE
  8
CSLAYER1
  6
DASHED
 62
     5
 10
480.802926
 20
800.257706
 11
480.916868
 21
799.590841
  0
LINE
  8
CSLAYER1
  6
DASHED
 62
     5
 10
480.916868
 20
799.590841
 11
480.802926
 21
798.923976
  0
LINE
  8
CSLAYER1
  6
DASHED
 62
     5
 10
480.802926
 20
798.923976
 11
480.464562
 21
798.277374
  0
LINE
  8
CSLAYER1
  6
DASHED
 62
     5
 10
480.464562
 20
798.277374
 11
479.912058
 21
797.670680
  0
LINE
  8
CSLAYER1
  6
DASHED
 62
     5
 10
479.912058
 20
797.670680
 11
479.162201
 21
797.122330
  0
LINE
  8
CSLAYER1
  6
DASHED
 62
     5
 10
479.162201
 20
797.122330
 11
478.237775
 21
796.648984
  0
LINE
  8
CSLAYER1
  6
DASHED
 62
     5
 10
478.237775
 20
796.648984
 11
477.383743
 21
796.335771
  0
LINE
  8
CSLAYER1
  6
DASHED
 62
     5
 10
469.449993
 20
796.335771
 11
468.595961
 21
796.648984
  0
LINE
  8
CSLAYER1
  6
DASHED
 62
     5
 10
468.595961
 20
796.648984
 11
467.671534
 21
797.122330
  0
LINE
  8
CSLAYER1
  6
DASHED
 62
     5
 10
467.671534
 20
797.122330
 11
466.921677
 21
797.670680
  0
LINE
  8
CSLAYER1
  6
DASHED
 62
     5
 10
466.921677
 20
797.670680
 11
466.369173
 21
798.277374
  0
LINE
  8
CSLAYER1
  6
DASHED
 62
     5
 10
466.369173
 20
798.277374
 11
466.030810
 21
798.923976
  0
LINE
  8
CSLAYER1
  6
DASHED
 62
     5
 10
466.030810
 20
798.923976
 11
465.916868
 21
799.590841
  0
LINE
  8
CSLAYER1
  6
DASHED
 62
     5
 10
469.115045
 20
810.039181
 11
469.115045
 21
802.736648
  0
LINE
  8
CSLAYER1
  6
DASHED
 62
     5
 10
477.718691
 20
810.039181
 11
477.718691
 21
802.736648
  0
LINE
  8
CSLAYER1
  6
DASHED
 62
     5
 10
480.916868
 20
806.893374
 11
480.916868
 21
799.590841
  0
LINE
  8
CSLAYER1
  6
DASHED
 62
     5
 10
477.416868
 20
799.590841
 11
477.416868
 21
796.583916
  0
ARC
  8
CSLAYER1
  6
DASHED
 62
     5
 10
472.378809
 20
814.687376
 40
8.000000
 50
90.000000
 51
180.000000
  0
ARC
  8
CSLAYER1
  6
DASHED
 62
     5
 10
472.378809
 20
803.518796
 40
8.000000
 50
90.000000
 51
180.000000
  0
LINE
  8
CSLAYER1
  6
DASHED
 62
     5
 10
465.378809
 20
783.371355
 11
465.378809
 21
756.348834
  0
LINE
  8
CSLAYER1
  6
DASHED
 62
     5
 10
459.378809
 20
742.992644
 11
459.378809
 21
641.840785
  0
LINE
  8
CSLAYER1
  6
DASHED
 62
     5
 10
457.378809
 20
633.884212
 11
457.378809
 21
584.914286
  0
LINE
  8
CSLAYER1
  6
DASHED
 62
     5
 10
465.378809
 20
783.371355
 11
465.584295
 21
785.781239
  0
LINE
  8
CSLAYER1
  6
DASHED
 62
     5
 10
465.584295
 20
785.781239
 11
466.199190
 21
788.172782
  0
LINE
  8
CSLAYER1
  6
DASHED
 62
     5
 10
466.199190
 20
788.172782
 11
467.218814
 21
790.527783
  0
LINE
  8
CSLAYER1
  6
DASHED
 62
     5
 10
467.218814
 20
790.527783
 11
468.635407
 21
792.828320
  0
LINE
  8
CSLAYER1
  6
DASHED
 62
     5
 10
468.635407
 20
792.828320
 11
470.525708
 21
795.165074
  0
LINE
  8
CSLAYER1
  6
DASHED
 62
     5
 10
480.916868
 20
802.767637
 11
481.195042
 21
802.923080
  0
LINE
  8
CSLAYER1
  6
DASHED
 62
     5
 10
481.195042
 20
802.923080
 11
484.668278
 21
804.552725
  0
LINE
  8
CSLAYER1
  6
DASHED
 62
     5
 10
484.668278
 20
804.552725
 11
488.405681
 21
806.021167
  0
LINE
  8
CSLAYER1
  6
DASHED
 62
     5
 10
488.405681
 20
806.021167
 11
492.378809
 21
807.317230
  0
LINE
  8
CSLAYER1
  6
DASHED
 62
     5
 10
492.378809
 20
807.317230
 11
496.557422
 21
808.431051
  0
LINE
  8
CSLAYER1
  6
DASHED
 62
     5
 10
496.557422
 20
808.431051
 11
500.909721
 21
809.354152
  0
LINE
  8
CSLAYER1
  6
DASHED
 62
     5
 10
500.909721
 20
809.354152
 11
505.402580
 21
810.079508
  0
LINE
  8
CSLAYER1
  6
DASHED
 62
     5
 10
505.402580
 20
810.079508
 11
510.001807
 21
810.601600
  0
LINE
  8
CSLAYER1
  6
DASHED
 62
     5
 10
510.001807
 20
810.601600
 11
514.672398
 21
810.916452
  0
LINE
  8
CSLAYER1
  6
DASHED
 62
     5
 10
514.672398
 20
810.916452
 11
519.378809
 21
811.021670
  0
LINE
  8
CSLAYER1
  6
DASHED
 62
     5
 10
465.378809
 20
758.456831
 11
465.584295
 21
760.866715
  0
LINE
  8
CSLAYER1
  6
DASHED
 62
     5
 10
465.584295
 20
760.866715
 11
466.199190
 21
763.258258
  0
LINE
  8
CSLAYER1
  6
DASHED
 62
     5
 10
466.199190
 20
763.258258
 11
467.218814
 21
765.613260
  0
LINE
  8
CSLAYER1
  6
DASHED
 62
     5
 10
467.218814
 20
765.613260
 11
468.635407
 21
767.913796
  0
LINE
  8
CSLAYER1
  6
DASHED
 62
     5
 10
468.635407
 20
767.913796
 11
470.438188
 21
770.142359
  0
LINE
  8
CSLAYER1
  6
DASHED
 62
     5
 10
470.438188
 20
770.142359
 11
472.613437
 21
772.281989
  0
LINE
  8
CSLAYER1
  6
DASHED
 62
     5
 10
472.613437
 20
772.281989
 11
475.144598
 21
774.316400
  0
LINE
  8
CSLAYER1
  6
DASHED
 62
     5
 10
475.144598
 20
774.316400
 11
478.012409
 21
776.230111
  0
LINE
  8
CSLAYER1
  6
DASHED
 62
     5
 10
478.012409
 20
776.230111
 11
481.195042
 21
778.008556
  0
LINE
  8
CSLAYER1
  6
DASHED
 62
     5
 10
481.195042
 20
778.008556
 11
484.668278
 21
779.638201
  0
LINE
  8
CSLAYER1
  6
DASHED
 62
     5
 10
484.668278
 20
779.638201
 11
488.405681
 21
781.106643
  0
LINE
  8
CSLAYER1
  6
DASHED
 62
     5
 10
488.405681
 20
781.106643
 11
492.378809
 21
782.402706
  0
LINE
  8
CSLAYER1
  6
DASHED
 62
     5
 10
492.378809
 20
782.402706
 11
496.557422
 21
783.516527
  0
LINE
  8
CSLAYER1
  6
DASHED
 62
     5
 10
496.557422
 20
783.516527
 11
500.909721
 21
784.439628
  0
LINE
  8
CSLAYER1
  6
DASHED
 62
     5
 10
500.909721
 20
784.439628
 11
505.402580
 21
785.164985
  0
LINE
  8
CSLAYER1
  6
DASHED
 62
     5
 10
505.402580
 20
785.164985
 11
510.001807
 21
785.687076
  0
LINE
  8
CSLAYER1
  6
DASHED
 62
     5
 10
510.001807
 20
785.687076
 11
514.672398
 21
786.001928
  0
LINE
  8
CSLAYER1
  6
DASHED
 62
     5
 10
514.672398
 20
786.001928
 11
519.378809
 21
786.107146
  0
LINE
  8
CSLAYER1
  6
DASHED
 62
     5
 10
459.378809
 20
742.992644
 11
459.607127
 21
745.670293
  0
LINE
  8
CSLAYER1
  6
DASHED
 62
     5
 10
459.607127
 20
745.670293
 11
460.290343
 21
748.327563
  0
LINE
  8
CSLAYER1
  6
DASHED
 62
     5
 10
460.290343
 20
748.327563
 11
461.423259
 21
750.944231
  0
LINE
  8
CSLAYER1
  6
DASHED
 62
     5
 10
461.423259
 20
750.944231
 11
462.997251
 21
753.500383
  0
LINE
  8
CSLAYER1
  6
DASHED
 62
     5
 10
462.997251
 20
753.500383
 11
465.000341
 21
755.976564
  0
LINE
  8
CSLAYER1
  6
DASHED
 62
     5
 10
465.000341
 20
755.976564
 11
467.417284
 21
758.353930
  0
LINE
  8
CSLAYER1
  6
DASHED
 62
     5
 10
467.417284
 20
758.353930
 11
470.229686
 21
760.614388
  0
LINE
  8
CSLAYER1
  6
DASHED
 62
     5
 10
470.229686
 20
760.614388
 11
473.416142
 21
762.740733
  0
LINE
  8
CSLAYER1
  6
DASHED
 62
     5
 10
473.416142
 20
762.740733
 11
476.952402
 21
764.716783
  0
LINE
  8
CSLAYER1
  6
DASHED
 62
     5
 10
476.952402
 20
764.716783
 11
480.811552
 21
766.527500
  0
LINE
  8
CSLAYER1
  6
DASHED
 62
     5
 10
480.811552
 20
766.527500
 11
484.964222
 21
768.159102
  0
LINE
  8
CSLAYER1
  6
DASHED
 62
     5
 10
484.964222
 20
768.159102
 11
489.378809
 21
769.599172
  0
LINE
  8
CSLAYER1
  6
DASHED
 62
     5
 10
489.378809
 20
769.599172
 11
494.021713
 21
770.836750
  0
LINE
  8
CSLAYER1
  6
DASHED
 62
     5
 10
494.021713
 20
770.836750
 11
498.857600
 21
771.862418
  0
LINE
  8
CSLAYER1
  6
DASHED
 62
     5
 10
498.857600
 20
771.862418
 11
503.849666
 21
772.668370
  0
LINE
  8
CSLAYER1
  6
DASHED
 62
     5
 10
503.849666
 20
772.668370
 11
508.959918
 21
773.248471
  0
LINE
  8
CSLAYER1
  6
DASHED
 62
     5
 10
508.959918
 20
773.248471
 11
514.149464
 21
773.598307
  0
LINE
  8
CSLAYER1
  6
DASHED
 62
     5
 10
514.149464
 20
773.598307
 11
519.378809
 21
773.715216
  0
LINE
  8
CSLAYER1
  6
DASHED
 62
     5
 10
459.378809
 20
734.401429
 11
459.607127
 21
737.079078
  0
LINE
  8
CSLAYER1
  6
DASHED
 62
     5
 10
459.607127
 20
737.079078
 11
460.290343
 21
739.736348
  0
LINE
  8
CSLAYER1
  6
DASHED
 62
     5
 10
460.290343
 20
739.736348
 11
461.423259
 21
742.353016
  0
LINE
  8
CSLAYER1
  6
DASHED
 62
     5
 10
461.423259
 20
742.353016
 11
462.997251
 21
744.909168
  0
LINE
  8
CSLAYER1
  6
DASHED
 62
     5
 10
462.997251
 20
744.909168
 11
465.000341
 21
747.385349
  0
LINE
  8
CSLAYER1
  6
DASHED
 62
     5
 10
465.000341
 20
747.385349
 11
467.417284
 21
749.762715
  0
LINE
  8
CSLAYER1
  6
DASHED
 62
     5
 10
467.417284
 20
749.762715
 11
470.229686
 21
752.023172
  0
LINE
  8
CSLAYER1
  6
DASHED
 62
     5
 10
470.229686
 20
752.023172
 11
473.416142
 21
754.149518
  0
LINE
  8
CSLAYER1
  6
DASHED
 62
     5
 10
473.416142
 20
754.149518
 11
476.952402
 21
756.125568
  0
LINE
  8
CSLAYER1
  6
DASHED
 62
     5
 10
476.952402
 20
756.125568
 11
480.811552
 21
757.936285
  0
LINE
  8
CSLAYER1
  6
DASHED
 62
     5
 10
480.811552
 20
757.936285
 11
484.964222
 21
759.567887
  0
LINE
  8
CSLAYER1
  6
DASHED
 62
     5
 10
484.964222
 20
759.567887
 11
489.378809
 21
761.007957
  0
LINE
  8
CSLAYER1
  6
DASHED
 62
     5
 10
489.378809
 20
761.007957
 11
494.021713
 21
762.245535
  0
LINE
  8
CSLAYER1
  6
DASHED
 62
     5
 10
494.021713
 20
762.245535
 11
498.857600
 21
763.271203
  0
LINE
  8
CSLAYER1
  6
DASHED
 62
     5
 10
498.857600
 20
763.271203
 11
503.849666
 21
764.077155
  0
LINE
  8
CSLAYER1
  6
DASHED
 62
     5
 10
503.849666
 20
764.077155
 11
508.959918
 21
764.657256
  0
LINE
  8
CSLAYER1
  6
DASHED
 62
     5
 10
508.959918
 20
764.657256
 11
514.149464
 21
765.007092
  0
LINE
  8
CSLAYER1
  6
DASHED
 62
     5
 10
514.149464
 20
765.007092
 11
519.378809
 21
765.124001
  0
LINE
  8
CSLAYER1
  6
DASHED
 62
     5
 10
457.378809
 20
633.884212
 11
457.614737
 21
636.651116
  0
LINE
  8
CSLAYER1
  6
DASHED
 62
     5
 10
457.614737
 20
636.651116
 11
458.320728
 21
639.396961
  0
LINE
  8
CSLAYER1
  6
DASHED
 62
     5
 10
458.320728
 20
639.396961
 11
459.491407
 21
642.100852
  0
LINE
  8
CSLAYER1
  6
DASHED
 62
     5
 10
459.491407
 20
642.100852
 11
461.117866
 21
644.742209
  0
LINE
  8
CSLAYER1
  6
DASHED
 62
     5
 10
461.117866
 20
644.742209
 11
463.187726
 21
647.300929
  0
LINE
  8
CSLAYER1
  6
DASHED
 62
     5
 10
463.187726
 20
647.300929
 11
465.685234
 21
649.757541
  0
LINE
  8
CSLAYER1
  6
DASHED
 62
     5
 10
465.685234
 20
649.757541
 11
468.591382
 21
652.093347
  0
LINE
  8
CSLAYER1
  6
DASHED
 62
     5
 10
468.591382
 20
652.093347
 11
471.884053
 21
654.290570
  0
LINE
  8
CSLAYER1
  6
DASHED
 62
     5
 10
471.884053
 20
654.290570
 11
475.538188
 21
656.332489
  0
LINE
  8
CSLAYER1
  6
DASHED
 62
     5
 10
475.538188
 20
656.332489
 11
479.525977
 21
658.203563
  0
LINE
  8
CSLAYER1
  6
DASHED
 62
     5
 10
479.525977
 20
658.203563
 11
483.817070
 21
659.889552
  0
LINE
  8
CSLAYER1
  6
DASHED
 62
     5
 10
483.817070
 20
659.889552
 11
488.378809
 21
661.377624
  0
LINE
  8
CSLAYER1
  6
DASHED
 62
     5
 10
488.378809
 20
661.377624
 11
493.176476
 21
662.656455
  0
LINE
  8
CSLAYER1
  6
DASHED
 62
     5
 10
493.176476
 20
662.656455
 11
498.173560
 21
663.716312
  0
LINE
  8
CSLAYER1
  6
DASHED
 62
     5
 10
498.173560
 20
663.716312
 11
503.332028
 21
664.549129
  0
LINE
  8
CSLAYER1
  6
DASHED
 62
     5
 10
503.332028
 20
664.549129
 11
508.612622
 21
665.148567
  0
LINE
  8
CSLAYER1
  6
DASHED
 62
     5
 10
508.612622
 20
665.148567
 11
513.975153
 21
665.510064
  0
LINE
  8
CSLAYER1
  6
DASHED
 62
     5
 10
513.975153
 20
665.510064
 11
519.378809
 21
665.630870
  0
LINE
  8
CSLAYER1
  6
DASHED
 62
     5
 10
531.163761
 20
665.032919
 11
531.163761
 21
764.502185
  0
LINE
  8
CSLAYER1
  6
DASHED
 62
     5
 10
540.352400
 20
663.765445
 11
540.352400
 21
763.175255
  0
LINE
  8
CSLAYER1
  6
DASHED
 62
     5
 10
545.188526
 20
662.761108
 11
545.188526
 21
762.124888
  0
LINE
  8
CSLAYER1
  6
DASHED
 62
     5
 10
553.893553
 20
660.231089
 11
553.893553
 21
759.535214
  0
LINE
  8
CSLAYER1
  6
DASHED
 62
     5
 10
556.795228
 20
659.160840
 11
556.795228
 21
758.476258
  0
LINE
  8
CSLAYER1
  6
DASHED
 62
     5
 10
564.049417
 20
655.868694
 11
564.049417
 21
754.871515
  0
LINE
  8
CSLAYER1
  6
DASHED
 62
     5
 10
567.434705
 20
653.977006
 11
567.434705
 21
752.752690
  0
LINE
  8
CSLAYER1
  6
DASHED
 62
     5
 10
573.238056
 20
649.594581
 11
573.238056
 21
748.027198
  0
LINE
  8
CSLAYER1
  6
DASHED
 62
     5
 10
507.593856
 20
665.032919
 11
507.593856
 21
764.502185
  0
LINE
  8
CSLAYER1
  6
DASHED
 62
     5
 10
498.405217
 20
663.765445
 11
498.405217
 21
763.175255
  0
LINE
  8
CSLAYER1
  6
DASHED
 62
     5
 10
493.569091
 20
662.761108
 11
493.569091
 21
762.124888
  0
LINE
  8
CSLAYER1
  6
DASHED
 62
     5
 10
484.864064
 20
660.231089
 11
484.864064
 21
759.535214
  0
LINE
  8
CSLAYER1
  6
DASHED
 62
     5
 10
481.962389
 20
659.160840
 11
481.962389
 21
758.476258
  0
LINE
  8
CSLAYER1
  6
DASHED
 62
     5
 10
474.708200
 20
655.868694
 11
474.708200
 21
754.871515
  0
LINE
  8
CSLAYER1
  6
DASHED
 62
     5
 10
471.322912
 20
653.977006
 11
471.322912
 21
752.752690
  0
LINE
  8
CSLAYER1
  6
DASHED
 62
     5
 10
465.519561
 20
649.594581
 11
465.519561
 21
748.027198
  0
LINE
  8
CSLAYER1
  6
DASHED
 62
     5
 10
561.878809
 20
867.565264
 11
561.878809
 21
854.017552
  0
LINE
  8
CSLAYER1
  6
DASHED
 62
     5
 10
476.878809
 20
867.565264
 11
476.878809
 21
854.017552
  0
LINE
  8
CSLAYER1
  6
DASHED
 62
     5
 10
561.878809
 20
867.565264
 11
561.717083
 21
869.461931
  0
LINE
  8
CSLAYER1
  6
DASHED
 62
     5
 10
561.717083
 20
869.461931
 11
561.233138
 21
871.344164
  0
LINE
  8
CSLAYER1
  6
DASHED
 62
     5
 10
561.233138
 20
871.344164
 11
560.430656
 21
873.197637
  0
LINE
  8
CSLAYER1
  6
DASHED
 62
     5
 10
560.430656
 20
873.197637
 11
559.315745
 21
875.008245
  0
LINE
  8
CSLAYER1
  6
DASHED
 62
     5
 10
559.315745
 20
875.008245
 11
557.896890
 21
876.762207
  0
LINE
  8
CSLAYER1
  6
DASHED
 62
     5
 10
557.896890
 20
876.762207
 11
556.184888
 21
878.446174
  0
LINE
  8
CSLAYER1
  6
DASHED
 62
     5
 10
556.184888
 20
878.446174
 11
554.192770
 21
880.047332
  0
LINE
  8
CSLAYER1
  6
DASHED
 62
     5
 10
554.192770
 20
880.047332
 11
551.935697
 21
881.553493
  0
LINE
  8
CSLAYER1
  6
DASHED
 62
     5
 10
551.935697
 20
881.553493
 11
549.430847
 21
882.953195
  0
LINE
  8
CSLAYER1
  6
DASHED
 62
     5
 10
549.430847
 20
882.953195
 11
546.697282
 21
884.235786
  0
LINE
  8
CSLAYER1
  6
DASHED
 62
     5
 10
546.697282
 20
884.235786
 11
543.755807
 21
885.391504
  0
LINE
  8
CSLAYER1
  6
DASHED
 62
     5
 10
543.755807
 20
885.391504
 11
540.628809
 21
886.411554
  0
LINE
  8
CSLAYER1
  6
DASHED
 62
     5
 10
540.628809
 20
886.411554
 11
537.340085
 21
887.288172
  0
LINE
  8
CSLAYER1
  6
DASHED
 62
     5
 10
537.340085
 20
887.288172
 11
533.914665
 21
888.014687
  0
LINE
  8
CSLAYER1
  6
DASHED
 62
     5
 10
533.914665
 20
888.014687
 11
530.378618
 21
888.585569
  0
LINE
  8
CSLAYER1
  6
DASHED
 62
     5
 10
530.378618
 20
888.585569
 11
526.758856
 21
888.996474
  0
LINE
  8
CSLAYER1
  6
DASHED
 62
     5
 10
526.758856
 20
888.996474
 11
523.082928
 21
889.244275
  0
LINE
  8
CSLAYER1
  6
DASHED
 62
     5
 10
523.082928
 20
889.244275
 11
519.378809
 21
889.327085
  0
LINE
  8
CSLAYER1
  6
DASHED
 62
     5
 10
519.378809
 20
889.327085
 11
515.674689
 21
889.244275
  0
LINE
  8
CSLAYER1
  6
DASHED
 62
     5
 10
515.674689
 20
889.244275
 11
511.998761
 21
888.996474
  0
LINE
  8
CSLAYER1
  6
DASHED
 62
     5
 10
511.998761
 20
888.996474
 11
508.378999
 21
888.585569
  0
LINE
  8
CSLAYER1
  6
DASHED
 62
     5
 10
508.378999
 20
888.585569
 11
504.842952
 21
888.014687
  0
LINE
  8
CSLAYER1
  6
DASHED
 62
     5
 10
504.842952
 20
888.014687
 11
501.417532
 21
887.288172
  0
LINE
  8
CSLAYER1
  6
DASHED
 62
     5
 10
501.417532
 20
887.288172
 11
498.128809
 21
886.411554
  0
LINE
  8
CSLAYER1
  6
DASHED
 62
     5
 10
498.128809
 20
886.411554
 11
495.001810
 21
885.391504
  0
LINE
  8
CSLAYER1
  6
DASHED
 62
     5
 10
495.001810
 20
885.391504
 11
492.060335
 21
884.235786
  0
LINE
  8
CSLAYER1
  6
DASHED
 62
     5
 10
492.060335
 20
884.235786
 11
489.326770
 21
882.953195
  0
LINE
  8
CSLAYER1
  6
DASHED
 62
     5
 10
489.326770
 20
882.953195
 11
486.821920
 21
881.553493
  0
LINE
  8
CSLAYER1
  6
DASHED
 62
     5
 10
486.821920
 20
881.553493
 11
484.564847
 21
880.047332
  0
LINE
  8
CSLAYER1
  6
DASHED
 62
     5
 10
484.564847
 20
880.047332
 11
482.572729
 21
878.446174
  0
LINE
  8
CSLAYER1
  6
DASHED
 62
     5
 10
482.572729
 20
878.446174
 11
480.860728
 21
876.762207
  0
LINE
  8
CSLAYER1
  6
DASHED
 62
     5
 10
480.860728
 20
876.762207
 11
479.441872
 21
875.008245
  0
LINE
  8
CSLAYER1
  6
DASHED
 62
     5
 10
479.441872
 20
875.008245
 11
478.326961
 21
873.197637
  0
LINE
  8
CSLAYER1
  6
DASHED
 62
     5
 10
478.326961
 20
873.197637
 11
477.524479
 21
871.344164
  0
LINE
  8
CSLAYER1
  6
DASHED
 62
     5
 10
477.524479
 20
871.344164
 11
477.040534
 21
869.461931
  0
LINE
  8
CSLAYER1
  6
DASHED
 62
     5
 10
477.040534
 20
869.461931
 11
476.878809
 21
867.565264
  0
LINE
  8
CSLAYER1
  6
DASHED
 62
     5
 10
540.728809
 20
1250.733458
 11
540.647565
 21
1251.686255
  0
LINE
  8
CSLAYER1
  6
DASHED
 62
     5
 10
540.647565
 20
1251.686255
 11
540.404454
 21
1252.631800
  0
LINE
  8
CSLAYER1
  6
DASHED
 62
     5
 10
540.404454
 20
1252.631800
 11
540.001325
 21
1253.562898
  0
LINE
  8
CSLAYER1
  6
DASHED
 62
     5
 10
540.001325
 20
1253.562898
 11
539.441246
 21
1254.472462
  0
LINE
  8
CSLAYER1
  6
DASHED
 62
     5
 10
539.441246
 20
1254.472462
 11
538.728480
 21
1255.353570
  0
LINE
  8
CSLAYER1
  6
DASHED
 62
     5
 10
538.728480
 20
1255.353570
 11
537.868451
 21
1256.199516
  0
LINE
  8
CSLAYER1
  6
DASHED
 62
     5
 10
537.868451
 20
1256.199516
 11
536.867705
 21
1257.003862
  0
LINE
  8
CSLAYER1
  6
DASHED
 62
     5
 10
536.867705
 20
1257.003862
 11
535.733857
 21
1257.760486
  0
LINE
  8
CSLAYER1
  6
DASHED
 62
     5
 10
535.733857
 20
1257.760486
 11
534.475538
 21
1258.463631
  0
LINE
  8
CSLAYER1
  6
DASHED
 62
     5
 10
534.475538
 20
1258.463631
 11
533.102324
 21
1259.107944
  0
LINE
  8
CSLAYER1
  6
DASHED
 62
     5
 10
533.102324
 20
1259.107944
 11
531.624665
 21
1259.688523
  0
LINE
  8
CSLAYER1
  6
DASHED
 62
     5
 10
531.624665
 20
1259.688523
 11
530.053809
 21
1260.200948
  0
LINE
  8
CSLAYER1
  6
DASHED
 62
     5
 10
530.053809
 20
1260.200948
 11
528.401708
 21
1260.641319
  0
LINE
  8
CSLAYER1
  6
DASHED
 62
     5
 10
528.401708
 20
1260.641319
 11
526.680939
 21
1261.006286
  0
LINE
  8
CSLAYER1
  6
DASHED
 62
     5
 10
526.680939
 20
1261.006286
 11
524.904595
 21
1261.293071
  0
LINE
  8
CSLAYER1
  6
DASHED
 62
     5
 10
524.904595
 20
1261.293071
 11
523.086197
 21
1261.499490
  0
LINE
  8
CSLAYER1
  6
DASHED
 62
     5
 10
523.086197
 20
1261.499490
 11
521.239584
 21
1261.623973
  0
LINE
  8
CSLAYER1
  6
DASHED
 62
     5
 10
521.239584
 20
1261.623973
 11
519.378809
 21
1261.665573
  0
LINE
  8
CSLAYER1
  6
DASHED
 62
     5
 10
519.378809
 20
1261.665573
 11
517.518033
 21
1261.623973
  0
LINE
  8
CSLAYER1
  6
DASHED
 62
     5
 10
517.518033
 20
1261.623973
 11
515.671420
 21
1261.499490
  0
LINE
  8
CSLAYER1
  6
DASHED
 62
     5
 10
515.671420
 20
1261.499490
 11
513.853022
 21
1261.293071
  0
LINE
  8
CSLAYER1
  6
DASHED
 62
     5
 10
513.853022
 20
1261.293071
 11
512.076679
 21
1261.006286
  0
LINE
  8
CSLAYER1
  6
DASHED
 62
     5
 10
512.076679
 20
1261.006286
 11
510.355909
 21
1260.641319
  0
LINE
  8
CSLAYER1
  6
DASHED
 62
     5
 10
510.355909
 20
1260.641319
 11
508.703809
 21
1260.200948
  0
LINE
  8
CSLAYER1
  6
DASHED
 62
     5
 10
508.703809
 20
1260.200948
 11
507.132952
 21
1259.688523
  0
LINE
  8
CSLAYER1
  6
DASHED
 62
     5
 10
507.132952
 20
1259.688523
 11
505.655293
 21
1259.107944
  0
LINE
  8
CSLAYER1
  6
DASHED
 62
     5
 10
505.655293
 20
1259.107944
 11
504.282079
 21
1258.463631
  0
LINE
  8
CSLAYER1
  6
DASHED
 62
     5
 10
504.282079
 20
1258.463631
 11
503.023760
 21
1257.760486
  0
LINE
  8
CSLAYER1
  6
DASHED
 62
     5
 10
503.023760
 20
1257.760486
 11
501.889912
 21
1257.003862
  0
LINE
  8
CSLAYER1
  6
DASHED
 62
     5
 10
501.889912
 20
1257.003862
 11
500.889166
 21
1256.199516
  0
LINE
  8
CSLAYER1
  6
DASHED
 62
     5
 10
500.889166
 20
1256.199516
 11
500.029137
 21
1255.353570
  0
LINE
  8
CSLAYER1
  6
DASHED
 62
     5
 10
500.029137
 20
1255.353570
 11
499.316371
 21
1254.472462
  0
LINE
  8
CSLAYER1
  6
DASHED
 62
     5
 10
499.316371
 20
1254.472462
 11
498.756292
 21
1253.562898
  0
LINE
  8
CSLAYER1
  6
DASHED
 62
     5
 10
498.756292
 20
1253.562898
 11
498.353163
 21
1252.631800
  0
LINE
  8
CSLAYER1
  6
DASHED
 62
     5
 10
498.353163
 20
1252.631800
 11
498.110052
 21
1251.686255
  0
LINE
  8
CSLAYER1
  6
DASHED
 62
     5
 10
498.110052
 20
1251.686255
 11
498.028809
 21
1250.733458
  0
LINE
  8
CSLAYER1
  6
DASHED
 62
     5
 10
557.528809
 20
1092.655100
 11
557.383636
 21
1094.357638
  0
LINE
  8
CSLAYER1
  6
DASHED
 62
     5
 10
557.383636
 20
1094.357638
 11
556.949224
 21
1096.047219
  0
LINE
  8
CSLAYER1
  6
DASHED
 62
     5
 10
556.949224
 20
1096.047219
 11
556.228879
 21
1097.710984
  0
LINE
  8
CSLAYER1
  6
DASHED
 62
     5
 10
556.228879
 20
1097.710984
 11
555.228082
 21
1099.336270
  0
LINE
  8
CSLAYER1
  6
DASHED
 62
     5
 10
555.228082
 20
1099.336270
 11
553.954451
 21
1100.910709
  0
LINE
  8
CSLAYER1
  6
DASHED
 62
     5
 10
553.954451
 20
1100.910709
 11
552.417678
 21
1102.422318
  0
LINE
  8
CSLAYER1
  6
DASHED
 62
     5
 10
552.417678
 20
1102.422318
 11
550.629459
 21
1103.859592
  0
LINE
  8
CSLAYER1
  6
DASHED
 62
     5
 10
550.629459
 20
1103.859592
 11
548.603404
 21
1105.211593
  0
LINE
  8
CSLAYER1
  6
DASHED
 62
     5
 10
548.603404
 20
1105.211593
 11
546.354932
 21
1106.468032
  0
LINE
  8
CSLAYER1
  6
DASHED
 62
     5
 10
546.354932
 20
1106.468032
 11
543.901156
 21
1107.619345
  0
LINE
  8
CSLAYER1
  6
DASHED
 62
     5
 10
543.901156
 20
1107.619345
 11
541.260750
 21
1108.656772
  0
LINE
  8
CSLAYER1
  6
DASHED
 62
     5
 10
541.260750
 20
1108.656772
 11
538.453809
 21
1109.572417
  0
LINE
  8
CSLAYER1
  6
DASHED
 62
     5
 10
538.453809
 20
1109.572417
 11
535.501695
 21
1110.359311
  0
LINE
  8
CSLAYER1
  6
DASHED
 62
     5
 10
535.501695
 20
1110.359311
 11
532.426877
 21
1111.011465
  0
LINE
  8
CSLAYER1
  6
DASHED
 62
     5
 10
532.426877
 20
1111.011465
 11
529.252755
 21
1111.523915
  0
LINE
  8
CSLAYER1
  6
DASHED
 62
     5
 10
529.252755
 20
1111.523915
 11
526.003487
 21
1111.892763
  0
LINE
  8
CSLAYER1
  6
DASHED
 62
     5
 10
526.003487
 20
1111.892763
 11
522.703800
 21
1112.115201
  0
LINE
  8
CSLAYER1
  6
DASHED
 62
     5
 10
522.703800
 20
1112.115201
 11
519.378809
 21
1112.189535
  0
LINE
  8
CSLAYER1
  6
DASHED
 62
     5
 10
519.378809
 20
1112.189535
 11
516.053817
 21
1112.115201
  0
LINE
  8
CSLAYER1
  6
DASHED
 62
     5
 10
516.053817
 20
1112.115201
 11
512.754131
 21
1111.892763
  0
LINE
  8
CSLAYER1
  6
DASHED
 62
     5
 10
512.754131
 20
1111.892763
 11
509.504862
 21
1111.523915
  0
LINE
  8
CSLAYER1
  6
DASHED
 62
     5
 10
509.504862
 20
1111.523915
 11
506.330740
 21
1111.011465
  0
LINE
  8
CSLAYER1
  6
DASHED
 62
     5
 10
506.330740
 20
1111.011465
 11
503.255922
 21
1110.359311
  0
LINE
  8
CSLAYER1
  6
DASHED
 62
     5
 10
503.255922
 20
1110.359311
 11
500.303809
 21
1109.572417
  0
LINE
  8
CSLAYER1
  6
DASHED
 62
     5
 10
500.303809
 20
1109.572417
 11
497.496868
 21
1108.656772
  0
LINE
  8
CSLAYER1
  6
DASHED
 62
     5
 10
497.496868
 20
1108.656772
 11
494.856461
 21
1107.619345
  0
LINE
  8
CSLAYER1
  6
DASHED
 62
     5
 10
494.856461
 20
1107.619345
 11
492.402685
 21
1106.468032
  0
LINE
  8
CSLAYER1
  6
DASHED
 62
     5
 10
492.402685
 20
1106.468032
 11
490.154213
 21
1105.211593
  0
LINE
  8
CSLAYER1
  6
DASHED
 62
     5
 10
490.154213
 20
1105.211593
 11
488.128158
 21
1103.859592
  0
LINE
  8
CSLAYER1
  6
DASHED
 62
     5
 10
488.128158
 20
1103.859592
 11
486.339939
 21
1102.422318
  0
LINE
  8
CSLAYER1
  6
DASHED
 62
     5
 10
486.339939
 20
1102.422318
 11
484.803166
 21
1100.910709
  0
LINE
  8
CSLAYER1
  6
DASHED
 62
     5
 10
484.803166
 20
1100.910709
 11
483.529535
 21
1099.336270
  0
LINE
  8
CSLAYER1
  6
DASHED
 62
     5
 10
483.529535
 20
1099.336270
 11
482.528738
 21
1097.710984
  0
LINE
  8
CSLAYER1
  6
DASHED
 62
     5
 10
482.528738
 20
1097.710984
 11
481.808393
 21
1096.047219
  0
LINE
  8
CSLAYER1
  6
DASHED
 62
     5
 10
481.808393
 20
1096.047219
 11
481.373981
 21
1094.357638
  0
LINE
  8
CSLAYER1
  6
DASHED
 62
     5
 10
481.373981
 20
1094.357638
 11
481.228809
 21
1092.655100
  0
LINE
  8
CSLAYER1
  6
DASHED
 62
     5
 10
580.378809
 20
762.554207
 11
574.378809
 21
762.554207
  0
LINE
  8
CSLAYER1
  6
DASHED
 62
     5
 10
458.378809
 20
762.554207
 11
464.378809
 21
762.554207
  0
LINE
  8
CSLAYER1
  6
DASHED
 62
     5
 10
706.136435
 20
808.285879
 11
762.378809
 21
808.285879
  0
LINE
  8
CSLAYER1
  6
DASHED
 62
     5
 10
526.878809
 20
983.310962
 11
526.764867
 21
983.977826
  0
LINE
  8
CSLAYER1
  6
DASHED
 62
     5
 10
526.764867
 20
983.977826
 11
526.426503
 21
984.624429
  0
LINE
  8
CSLAYER1
  6
DASHED
 62
     5
 10
526.426503
 20
984.624429
 11
525.873999
 21
985.231122
  0
LINE
  8
CSLAYER1
  6
DASHED
 62
     5
 10
525.873999
 20
985.231122
 11
525.124142
 21
985.779473
  0
LINE
  8
CSLAYER1
  6
DASHED
 62
     5
 10
525.124142
 20
985.779473
 11
524.199716
 21
986.252819
  0
LINE
  8
CSLAYER1
  6
DASHED
 62
     5
 10
524.199716
 20
986.252819
 11
523.128809
 21
986.636778
  0
LINE
  8
CSLAYER1
  6
DASHED
 62
     5
 10
523.128809
 20
986.636778
 11
521.943960
 21
986.919683
  0
LINE
  8
CSLAYER1
  6
DASHED
 62
     5
 10
521.943960
 20
986.919683
 11
520.681170
 21
987.092940
  0
LINE
  8
CSLAYER1
  6
DASHED
 62
     5
 10
520.681170
 20
987.092940
 11
519.378809
 21
987.151283
  0
LINE
  8
CSLAYER1
  6
DASHED
 62
     5
 10
519.378809
 20
987.151283
 11
518.076447
 21
987.092940
  0
LINE
  8
CSLAYER1
  6
DASHED
 62
     5
 10
518.076447
 20
987.092940
 11
516.813657
 21
986.919683
  0
LINE
  8
CSLAYER1
  6
DASHED
 62
     5
 10
516.813657
 20
986.919683
 11
515.628809
 21
986.636778
  0
LINE
  8
CSLAYER1
  6
DASHED
 62
     5
 10
515.628809
 20
986.636778
 11
514.557901
 21
986.252819
  0
LINE
  8
CSLAYER1
  6
DASHED
 62
     5
 10
514.557901
 20
986.252819
 11
513.633475
 21
985.779473
  0
LINE
  8
CSLAYER1
  6
DASHED
 62
     5
 10
513.633475
 20
985.779473
 11
512.883618
 21
985.231122
  0
LINE
  8
CSLAYER1
  6
DASHED
 62
     5
 10
512.883618
 20
985.231122
 11
512.331114
 21
984.624429
  0
LINE
  8
CSLAYER1
  6
DASHED
 62
     5
 10
512.331114
 20
984.624429
 11
511.992750
 21
983.977826
  0
LINE
  8
CSLAYER1
  6
DASHED
 62
     5
 10
511.992750
 20
983.977826
 11
511.878809
 21
983.310962
  0
LINE
  8
CSLAYER1
  6
DASHED
 62
     5
 10
511.878809
 20
983.310962
 11
511.992750
 21
982.644097
  0
LINE
  8
CSLAYER1
  6
DASHED
 62
     5
 10
511.992750
 20
982.644097
 11
512.331114
 21
981.997494
  0
LINE
  8
CSLAYER1
  6
DASHED
 62
     5
 10
512.331114
 20
981.997494
 11
512.883618
 21
981.390801
  0
LINE
  8
CSLAYER1
  6
DASHED
 62
     5
 10
512.883618
 20
981.390801
 11
513.633475
 21
980.842451
  0
LINE
  8
CSLAYER1
  6
DASHED
 62
     5
 10
513.633475
 20
980.842451
 11
514.557901
 21
980.369105
  0
LINE
  8
CSLAYER1
  6
DASHED
 62
     5
 10
514.557901
 20
980.369105
 11
515.628809
 21
979.985146
  0
LINE
  8
CSLAYER1
  6
DASHED
 62
     5
 10
515.628809
 20
979.985146
 11
516.813657
 21
979.702240
  0
LINE
  8
CSLAYER1
  6
DASHED
 62
     5
 10
516.813657
 20
979.702240
 11
518.076447
 21
979.528983
  0
LINE
  8
CSLAYER1
  6
DASHED
 62
     5
 10
518.076447
 20
979.528983
 11
519.378809
 21
979.470640
  0
LINE
  8
CSLAYER1
  6
DASHED
 62
     5
 10
519.378809
 20
979.470640
 11
520.681170
 21
979.528983
  0
LINE
  8
CSLAYER1
  6
DASHED
 62
     5
 10
520.681170
 20
979.528983
 11
521.943960
 21
979.702240
  0
LINE
  8
CSLAYER1
  6
DASHED
 62
     5
 10
521.943960
 20
979.702240
 11
523.128809
 21
979.985146
  0
LINE
  8
CSLAYER1
  6
DASHED
 62
     5
 10
523.128809
 20
979.985146
 11
524.199716
 21
980.369105
  0
LINE
  8
CSLAYER1
  6
DASHED
 62
     5
 10
524.199716
 20
980.369105
 11
525.124142
 21
980.842451
  0
LINE
  8
CSLAYER1
  6
DASHED
 62
     5
 10
525.124142
 20
980.842451
 11
525.873999
 21
981.390801
  0
LINE
  8
CSLAYER1
  6
DASHED
 62
     5
 10
525.873999
 20
981.390801
 11
526.426503
 21
981.997494
  0
LINE
  8
CSLAYER1
  6
DASHED
 62
     5
 10
526.426503
 20
981.997494
 11
526.764867
 21
982.644097
  0
LINE
  8
CSLAYER1
  6
DASHED
 62
     5
 10
526.764867
 20
982.644097
 11
526.878809
 21
983.310962
  0
LINE
  8
CSLAYER1
  6
DASHED
 62
     5
 10
293.378809
 20
833.546686
 11
458.378809
 21
854.017552
  0
LINE
  8
CSLAYER1
  6
DASHED
 62
     5
 10
458.378809
 20
826.525663
 11
293.378809
 21
806.054797
  0
LINE
  8
CSLAYER1
  6
DASHED
 62
     5
 10
293.378809
 20
783.025073
 11
458.378809
 21
762.554207
  0
LINE
  8
CSLAYER1
  6
DASHED
 62
     5
 10
745.378809
 20
833.546686
 11
580.378809
 21
854.017552
  0
LINE
  8
CSLAYER1
  6
DASHED
 62
     5
 10
580.378809
 20
826.525663
 11
745.378809
 21
806.054797
  0
LINE
  8
CSLAYER1
  6
DASHED
 62
     5
 10
745.378809
 20
783.025073
 11
580.378809
 21
762.554207
  0
LINE
  8
CSLAYER1
  6
DASHED
 62
     5
 10
457.378809
 20
630.178301
 11
352.378809
 21
630.178301
  0
LINE
  8
CSLAYER1
  6
DASHED
 62
     5
 10
323.878809
 20
779.241064
 11
323.878809
 21
702.162925
  0
LINE
  8
CSLAYER1
  6
DASHED
 62
     5
 10
314.878809
 20
780.357657
 11
314.878809
 21
702.162925
  0
DIMENSION
  8
CSLAYER1
 62
     3
  2
*D0010
 10
2515.003614
 20
417.257879
 11
2505.003662
 21
897.227600
 13
2515.003614
 23
1377.197328
 14
2515.003614
 24
417.257879
 50
90.000000
 70
1
  0
INSERT
  8
CSLAYER1
  2
BLKF0003
 10
0.0
 20
0.0
 30
0.0
  0
INSERT
  8
CSLAYER1
  2
BLKF0004
 10
0.0
 20
0.0
 30
0.0
  0
CIRCLE
  8
CSLAYER1
  6
DASHED
 62
     5
 10
1777.295698
 20
1296.497328
 40
18.500000
  0
LINE
  8
CSLAYER1
  6
DASHED
 62
     5
 10
1777.215478
 20
1316.812999
 11
1777.372790
 21
1276.973738
  0
LINE
  8
CSLAYER1
  6
DASHED
 62
     5
 10
1755.008333
 20
1296.409323
 11
1798.769133
 21
1296.582120
  0
POINT
  8
CSLAYER1
 62
     5
 10
1777.295698
 20
1296.497328
  0
CIRCLE
  8
CSLAYER1
  6
DASHED
 62
     5
 10
1777.295698
 20
1296.497328
 40
6.000000
  0
CIRCLE
  8
CSLAYER1
  6
DASHED
 62
     5
 10
1777.295698
 20
1296.497328
 40
8.000000
  0
LINE
  8
CSLAYER1
  6
DASHED
 62
     5
 10
1713.579667
 20
1332.197328
 11
1498.857166
 21
975.613892
  0
ARC
  8
CSLAYER1
  6
DASHED
 62
     5
 10
1714.484906
 20
1256.160158
 40
22.000000
 50
-25.860502
 51
154.139498
  0
LINE
  8
CSLAYER1
  6
DASHED
 62
     5
 10
1694.688015
 20
1265.756152
 11
1622.421274
 21
1116.667192
  0
LINE
  8
CSLAYER1
  6
DASHED
 62
     5
 10
1662.015056
 20
1097.475203
 11
1734.281797
 21
1246.564164
  0
ARC
  8
CSLAYER1
  6
DASHED
 62
     5
 10
1642.218165
 20
1107.071197
 40
22.000000
 50
154.139498
 51
334.139498
  0
ARC
  8
CSLAYER1
  6
DASHED
 62
     5
 10
1642.218165
 20
1107.071197
 40
45.000000
 50
290.002628
 51
331.668225
  0
LINE
  8
CSLAYER1
  6
DASHED
 62
     5
 10
1657.611011
 20
1064.785735
 11
1613.741284
 21
991.932551
  0
LINE
  8
CSLAYER1
  6
DASHED
 62
     5
 10
1613.741284
 20
991.932551
 11
1592.748299
 21
933.807966
  0
LINE
  8
CSLAYER1
  6
DASHED
 62
     5
 10
1592.748299
 20
933.807966
 11
1559.736693
 21
878.986549
  0
LINE
  8
CSLAYER1
  6
DASHED
 62
     5
 10
1407.844100
 20
824.471131
 11
1263.319897
 21
532.124155
  0
LINE
  8
CSLAYER1
  6
DASHED
 62
     5
 10
1263.319897
 20
532.124155
 11
1262.209590
 21
467.257879
  0
POINT
  8
CSLAYER1
 62
     5
 10
1527.535576
 20
869.127604
  0
POINT
  8
CSLAYER1
 62
     5
 10
1448.292062
 20
808.285879
  0
LINE
  8
CSLAYER1
  6
DASHED
 62
     5
 10
1786.971694
 20
1280.729478
 11
1681.827809
 21
1085.715258
  0
LINE
  8
CSLAYER1
  6
DASHED
 62
     5
 10
1790.569963
 20
512.610420
 11
1296.775454
 21
1296.355852
  0
LINE
  8
CSLAYER1
  6
DASHED
 62
     5
 10
1264.501189
 20
1225.644787
 11
1742.318699
 21
467.257879
  0
LINE
  8
CSLAYER1
  6
DASHED
 62
     5
 10
1792.322342
 20
467.257879
 11
1790.569963
 21
512.610420
  0
LINE
  8
CSLAYER1
  6
DASHED
 62
     5
 10
1264.501189
 20
1225.644787
 11
1262.401059
 21
1279.997328
  0
POINT
  8
CSLAYER1
 62
     5
 10
1666.113808
 20
1179.664532
  0
POINT
  8
CSLAYER1
 62
     5
 10
1655.803846
 20
1163.645568
  0
POINT
  8
CSLAYER1
 62
     5
 10
1645.493885
 20
1147.626605
  0
ARC
  8
CSLAYER1
  6
DASHED
 62
     5
 10
1645.493885
 20
1147.626605
 40
9.050000
 50
190.817305
 51
205.398074
  0
ARC
  8
CSLAYER1
  6
DASHED
 62
     5
 10
1655.803846
 20
1163.645568
 40
9.050000
 50
-64.517694
 51
25.398074
  0
CIRCLE
  8
CSLAYER1
  6
DASHED
 62
     5
 10
1645.493885
 20
1147.626605
 40
2.980000
  0
CIRCLE
  8
CSLAYER1
  6
DASHED
 62
     5
 10
1655.803846
 20
1163.645568
 40
2.980000
  0
ARC
  8
CSLAYER1
  6
DASHED
 62
     5
 10
1663.591051
 20
1147.306369
 40
9.050000
 50
115.482306
 51
178.986237
  0
ARC
  8
CSLAYER1
  6
DASHED
 62
     5
 10
1637.706679
 20
1163.965804
 40
9.050000
 50
295.482306
 51
358.986237
  0
ARC
  8
CSLAYER1
  6
DASHED
 62
     5
 10
1655.803846
 20
1163.645568
 40
7.800000
 50
-250.137230
 51
4.605772
  0
ARC
  8
CSLAYER1
  6
DASHED
 62
     5
 10
1666.113808
 20
1179.664532
 40
7.800000
 50
-70.396959
 51
184.865501
  0
CIRCLE
  8
CSLAYER1
  6
DASHED
 62
     5
 10
1666.113808
 20
1179.664532
 40
2.980000
  0
ARC
  8
CSLAYER1
  6
DASHED
 62
     5
 10
1671.347632
 20
1164.968713
 40
7.800000
 50
109.603041
 51
184.865501
  0
ARC
  8
CSLAYER1
  6
DASHED
 62
     5
 10
1650.570022
 20
1178.341387
 40
7.800000
 50
-70.396959
 51
4.865501
  0
ARC
  8
CSLAYER1
  6
DASHED
 62
     5
 10
1655.803846
 20
1163.645568
 40
9.050000
 50
89.070468
 51
178.986237
  0
ARC
  8
CSLAYER1
  6
DASHED
 62
     5
 10
1645.493885
 20
1147.626605
 40
9.050000
 50
269.070468
 51
358.986237
  0
POINT
  8
CSLAYER1
 62
     5
 10
1686.733731
 20
1211.702459
  0
POINT
  8
CSLAYER1
 62
     5
 10
1676.423769
 20
1195.683495
  0
ARC
  8
CSLAYER1
  6
DASHED
 62
     5
 10
1666.113808
 20
1179.664532
 40
9.050000
 50
115.482306
 51
205.398074
  0
ARC
  8
CSLAYER1
  6
DASHED
 62
     5
 10
1676.423769
 20
1195.683495
 40
9.050000
 50
-64.517694
 51
25.398074
  0
CIRCLE
  8
CSLAYER1
  6
DASHED
 62
     5
 10
1676.423769
 20
1195.683495
 40
2.980000
  0
ARC
  8
CSLAYER1
  6
DASHED
 62
     5
 10
1684.210975
 20
1179.344296
 40
9.050000
 50
115.482306
 51
178.986237
  0
ARC
  8
CSLAYER1
  6
DASHED
 62
     5
 10
1658.326602
 20
1196.003731
 40
9.050000
 50
295.482306
 51
358.986237
  0
ARC
  8
CSLAYER1
  6
DASHED
 62
     5
 10
1676.423769
 20
1195.683495
 40
7.800000
 50
-250.137230
 51
4.605772
  0
ARC
  8
CSLAYER1
  6
DASHED
 62
     5
 10
1686.733731
 20
1211.702459
 40
7.800000
 50
-70.396959
 51
184.865501
  0
CIRCLE
  8
CSLAYER1
  6
DASHED
 62
     5
 10
1686.733731
 20
1211.702459
 40
2.980000
  0
ARC
  8
CSLAYER1
  6
DASHED
 62
     5
 10
1691.967555
 20
1197.006640
 40
7.800000
 50
109.603041
 51
184.865501
  0
ARC
  8
CSLAYER1
  6
DASHED
 62
     5
 10
1671.189945
 20
1210.379314
 40
7.800000
 50
-70.396959
 51
4.865501
  0
ARC
  8
CSLAYER1
  6
DASHED
 62
     5
 10
1676.423769
 20
1195.683495
 40
9.050000
 50
89.070468
 51
178.986237
  0
ARC
  8
CSLAYER1
  6
DASHED
 62
     5
 10
1666.113808
 20
1179.664532
 40
9.050000
 50
269.070468
 51
358.986237
  0
POINT
  8
CSLAYER1
 62
     5
 10
1635.183923
 20
1131.607641
  0
POINT
  8
CSLAYER1
 62
     5
 10
1624.873961
 20
1115.588678
  0
ARC
  8
CSLAYER1
  6
DASHED
 62
     5
 10
1635.183923
 20
1131.607641
 40
9.050000
 50
-64.517694
 51
25.398074
  0
ARC
  8
CSLAYER1
  6
DASHED
 62
     5
 10
1624.873961
 20
1115.588678
 40
2.980000
 50
-178.226356
 51
128.099773
  0
CIRCLE
  8
CSLAYER1
  6
DASHED
 62
     5
 10
1635.183923
 20
1131.607641
 40
2.980000
  0
ARC
  8
CSLAYER1
  6
DASHED
 62
     5
 10
1642.971128
 20
1115.268442
 40
9.050000
 50
115.482306
 51
178.986237
  0
ARC
  8
CSLAYER1
  6
DASHED
 62
     5
 10
1635.183923
 20
1131.607641
 40
7.800000
 50
-155.421662
 51
4.605772
  0
ARC
  8
CSLAYER1
  6
DASHED
 62
     5
 10
1645.493885
 20
1147.626605
 40
7.800000
 50
-70.396959
 51
132.657684
  0
ARC
  8
CSLAYER1
  6
DASHED
 62
     5
 10
1650.727709
 20
1132.930786
 40
7.800000
 50
109.603041
 51
184.865501
  0
ARC
  8
CSLAYER1
  6
DASHED
 62
     5
 10
1629.950098
 20
1146.303460
 40
7.800000
 50
-63.795649
 51
4.865501
  0
ARC
  8
CSLAYER1
  6
DASHED
 62
     5
 10
1635.183923
 20
1131.607641
 40
9.050000
 50
89.070468
 51
97.433253
  0
ARC
  8
CSLAYER1
  6
DASHED
 62
     5
 10
1624.873961
 20
1115.588678
 40
9.050000
 50
269.070468
 51
358.986237
  0
ARC
  8
CSLAYER1
  6
DASHED
 62
     5
 10
1614.564000
 20
1099.569714
 40
9.050000
 50
-20.945509
 51
25.398074
  0
ARC
  8
CSLAYER1
  6
DASHED
 62
     5
 10
1614.564000
 20
1099.569714
 40
7.800000
 50
-11.938802
 51
4.605772
  0
ARC
  8
CSLAYER1
  6
DASHED
 62
     5
 10
1624.873961
 20
1115.588678
 40
7.800000
 50
-70.396959
 51
84.215676
  0
ARC
  8
CSLAYER1
  6
DASHED
 62
     5
 10
1630.107786
 20
1100.892859
 40
7.800000
 50
109.603041
 51
184.865501
  0
LINE
  8
CSLAYER1
  6
DASHED
 62
     5
 10
1674.925536
 20
1208.599389
 11
1688.800229
 21
1199.669501
  0
LINE
  8
CSLAYER1
  6
DASHED
 62
     5
 10
1684.667232
 20
1223.735417
 11
1698.541925
 21
1214.805529
  0
LINE
  8
CSLAYER1
  6
DASHED
 62
     5
 10
1721.608445
 20
1276.974941
 11
1720.501616
 21
1275.255219
  0
LINE
  8
CSLAYER1
  6
DASHED
 62
     5
 10
1674.775694
 20
1209.290437
 11
1683.976185
 21
1223.585575
  0
LINE
  8
CSLAYER1
  6
DASHED
 62
     5
 10
1721.174328
 20
1274.822255
 11
1722.379562
 21
1276.694870
  0
LINE
  8
CSLAYER1
  6
DASHED
 62
     5
 10
1674.925536
 20
1208.599389
 11
1674.775694
 21
1209.290437
  0
LINE
  8
CSLAYER1
  6
DASHED
 62
     5
 10
1683.976185
 20
1223.585575
 11
1684.667232
 21
1223.735417
  0
LINE
  8
CSLAYER1
  6
DASHED
 62
     5
 10
1674.775694
 20
1209.290437
 11
1689.491277
 21
1199.819343
  0
LINE
  8
CSLAYER1
  6
DASHED
 62
     5
 10
1683.976185
 20
1223.585575
 11
1698.691768
 21
1214.114481
  0
CIRCLE
  8
CSLAYER1
  6
DASHED
 62
     5
 10
1686.733731
 20
1211.702459
 40
3.050000
  0
LINE
  8
CSLAYER1
  6
DASHED
 62
     5
 10
1696.649922
 20
1216.023241
 11
1703.542227
 21
1226.732068
  0
LINE
  8
CSLAYER1
  6
DASHED
 62
     5
 10
1689.491277
 20
1199.819343
 11
1698.691768
 21
1214.114481
  0
LINE
  8
CSLAYER1
  6
DASHED
 62
     5
 10
1729.919589
 20
1269.193719
 11
1730.933799
 21
1270.769535
  0
LINE
  8
CSLAYER1
  6
DASHED
 62
     5
 10
1688.800229
 20
1199.669501
 11
1689.491277
 21
1199.819343
  0
LINE
  8
CSLAYER1
  6
DASHED
 62
     5
 10
1698.691768
 20
1214.114481
 11
1698.541925
 21
1214.805529
  0
LINE
  8
CSLAYER1
  6
DASHED
 62
     5
 10
1711.667836
 20
1272.616218
 11
1713.096533
 21
1271.696694
  0
LINE
  8
CSLAYER1
  6
DASHED
 62
     5
 10
1717.558499
 20
1277.149438
 11
1733.535418
 21
1266.866537
  0
LINE
  8
CSLAYER1
  6
DASHED
 62
     5
 10
1712.534243
 20
1272.058590
 11
1715.863464
 21
1277.231323
  0
LINE
  8
CSLAYER1
  6
DASHED
 62
     5
 10
1718.213141
 20
1270.747634
 11
1720.475604
 21
1274.262905
  0
LINE
  8
CSLAYER1
  6
DASHED
 62
     5
 10
1717.558499
 20
1277.149438
 11
1715.863464
 21
1277.231323
  0
ARC
  8
CSLAYER1
  6
DASHED
 62
     5
 10
1715.723273
 20
1256.744569
 40
18.151494
 50
39.646317
 51
74.822225
  0
ARC
  8
CSLAYER1
  6
DASHED
 62
     5
 10
1716.025980
 20
1272.416596
 40
4.817468
 50
22.535318
 51
82.535318
  0
LINE
  8
CSLAYER1
  6
DASHED
 62
     5
 10
1717.558499
 20
1277.149438
 11
1718.024539
 21
1277.873541
  0
LINE
  8
CSLAYER1
  6
DASHED
 62
     5
 10
1731.849207
 20
1259.627290
 11
1730.420510
 21
1260.546814
  0
LINE
  8
CSLAYER1
  6
DASHED
 62
     5
 10
1730.982800
 20
1260.184918
 11
1734.312021
 21
1265.357651
  0
LINE
  8
CSLAYER1
  6
DASHED
 62
     5
 10
1727.437419
 20
1264.810798
 11
1729.699882
 21
1268.326069
  0
LINE
  8
CSLAYER1
  6
DASHED
 62
     5
 10
1733.535418
 20
1266.866537
 11
1734.312021
 21
1265.357651
  0
ARC
  8
CSLAYER1
  6
DASHED
 62
     5
 10
1729.862398
 20
1263.511342
 40
4.817468
 50
31.933225
 51
91.933225
  0
LINE
  8
CSLAYER1
  6
DASHED
 62
     5
 10
1711.090742
 20
1271.719566
 11
1711.667836
 21
1272.616218
  0
LINE
  8
CSLAYER1
  6
DASHED
 62
     5
 10
1731.272113
 20
1258.730638
 11
1731.849207
 21
1259.627290
  0
POINT
  8
CSLAYER1
 62
     5
 10
1711.854464
 20
1250.733458
  0
CIRCLE
  8
CSLAYER1
  6
DASHED
 62
     5
 10
1448.292062
 20
808.285879
 40
10.000000
  0
LINE
  8
CSLAYER1
  6
DASHED
 62
     5
 10
1493.798810
 20
762.554207
 11
1490.726959
 21
764.384083
  0
LINE
  8
CSLAYER1
  6
DASHED
 62
     5
 10
1682.532155
 20
1238.635433
 11
1698.855464
 21
1228.911772
  0
LINE
  8
CSLAYER1
  6
DASHED
 62
     5
 10
1386.408621
 20
826.525663
 11
1402.785313
 21
854.017552
  0
LINE
  8
CSLAYER1
  6
DASHED
 62
     5
 10
1402.785313
 20
854.017552
 11
1419.603265
 21
843.999236
  0
LINE
  8
CSLAYER1
  6
DASHED
 62
     5
 10
1493.798810
 20
762.554207
 11
1510.175503
 21
790.046095
  0
LINE
  8
CSLAYER1
  6
DASHED
 62
     5
 10
1507.234654
 20
791.797934
 11
1510.175503
 21
790.046095
  0
LINE
  8
CSLAYER1
  6
DASHED
 62
     5
 10
1713.171973
 20
1213.865258
 11
1715.526122
 21
1217.817217
  0
LINE
  8
CSLAYER1
  6
DASHED
 62
     5
 10
1681.403364
 20
1238.349426
 11
1682.532155
 21
1238.635433
  0
LINE
  8
CSLAYER1
  6
DASHED
 62
     5
 10
1715.526122
 20
1217.817217
 11
1715.178772
 21
1219.188110
  0
LINE
  8
CSLAYER1
  6
DASHED
 62
     5
 10
1414.223970
 20
853.605526
 11
1422.440525
 21
848.710992
  0
LINE
  8
CSLAYER1
  6
DASHED
 62
     5
 10
1413.062965
 20
853.621371
 11
1410.545333
 21
849.394971
  0
LINE
  8
CSLAYER1
  6
DASHED
 62
     5
 10
1416.287056
 20
851.700806
 11
1413.769425
 21
847.474407
  0
LINE
  8
CSLAYER1
  6
DASHED
 62
     5
 10
1414.223970
 20
853.605526
 11
1413.062965
 21
853.621371
  0
ARC
  8
CSLAYER1
  6
DASHED
 62
     5
 10
1413.311178
 20
850.371595
 40
3.259241
 50
23.846471
 51
84.783988
  0
ARC
  8
CSLAYER1
  6
DASHED
 62
     5
 10
1413.452341
 20
839.609199
 40
12.419443
 50
44.944341
 51
76.806043
  0
LINE
  8
CSLAYER1
  6
DASHED
 62
     5
 10
1684.399219
 20
1237.523238
 11
1688.579369
 21
1240.563407
  0
LINE
  8
CSLAYER1
  6
DASHED
 62
     5
 10
1688.516040
 20
1240.517349
 11
1689.733322
 21
1234.345757
  0
LINE
  8
CSLAYER1
  6
DASHED
 62
     5
 10
1689.733322
 20
1234.345757
 11
1691.201923
 21
1235.947229
  0
LINE
  8
CSLAYER1
  6
DASHED
 62
     5
 10
1689.733322
 20
1234.345757
 11
1688.223504
 21
1240.304591
  0
LINE
  8
CSLAYER1
  6
DASHED
 62
     5
 10
1689.490326
 20
1234.490508
 11
1688.049288
 21
1240.177886
  0
LINE
  8
CSLAYER1
  6
DASHED
 62
     5
 10
1689.247330
 20
1234.635258
 11
1687.875071
 21
1240.051181
  0
LINE
  8
CSLAYER1
  6
DASHED
 62
     5
 10
1689.004334
 20
1234.780009
 11
1687.700855
 21
1239.924476
  0
LINE
  8
CSLAYER1
  6
DASHED
 62
     5
 10
1688.761337
 20
1234.924760
 11
1687.526639
 21
1239.797770
  0
LINE
  8
CSLAYER1
  6
DASHED
 62
     5
 10
1688.518341
 20
1235.069511
 11
1687.352423
 21
1239.671065
  0
LINE
  8
CSLAYER1
  6
DASHED
 62
     5
 10
1688.275345
 20
1235.214262
 11
1687.178207
 21
1239.544360
  0
LINE
  8
CSLAYER1
  6
DASHED
 62
     5
 10
1688.032349
 20
1235.359013
 11
1687.003991
 21
1239.417655
  0
LINE
  8
CSLAYER1
  6
DASHED
 62
     5
 10
1687.789352
 20
1235.503764
 11
1686.829775
 21
1239.290950
  0
LINE
  8
CSLAYER1
  6
DASHED
 62
     5
 10
1687.546356
 20
1235.648515
 11
1686.655558
 21
1239.164245
  0
LINE
  8
CSLAYER1
  6
DASHED
 62
     5
 10
1687.303360
 20
1235.793266
 11
1686.481342
 21
1239.037540
  0
LINE
  8
CSLAYER1
  6
DASHED
 62
     5
 10
1687.060364
 20
1235.938016
 11
1686.307126
 21
1238.910835
  0
LINE
  8
CSLAYER1
  6
DASHED
 62
     5
 10
1686.817367
 20
1236.082767
 11
1686.132910
 21
1238.784129
  0
LINE
  8
CSLAYER1
  6
DASHED
 62
     5
 10
1686.574371
 20
1236.227518
 11
1685.958694
 21
1238.657424
  0
LINE
  8
CSLAYER1
  6
DASHED
 62
     5
 10
1686.331375
 20
1236.372269
 11
1685.784478
 21
1238.530719
  0
LINE
  8
CSLAYER1
  6
DASHED
 62
     5
 10
1686.088379
 20
1236.517020
 11
1685.610262
 21
1238.404014
  0
LINE
  8
CSLAYER1
  6
DASHED
 62
     5
 10
1685.845382
 20
1236.661771
 11
1685.436046
 21
1238.277309
  0
LINE
  8
CSLAYER1
  6
DASHED
 62
     5
 10
1685.602386
 20
1236.806522
 11
1685.261829
 21
1238.150604
  0
LINE
  8
CSLAYER1
  6
DASHED
 62
     5
 10
1685.359390
 20
1236.951273
 11
1685.087613
 21
1238.023899
  0
LINE
  8
CSLAYER1
  6
DASHED
 62
     5
 10
1685.116393
 20
1237.096023
 11
1684.913397
 21
1237.897193
  0
LINE
  8
CSLAYER1
  6
DASHED
 62
     5
 10
1684.873397
 20
1237.240774
 11
1684.739181
 21
1237.770488
  0
LINE
  8
CSLAYER1
  6
DASHED
 62
     5
 10
1684.630401
 20
1237.385525
 11
1684.564965
 21
1237.643783
  0
LINE
  8
CSLAYER1
  6
DASHED
 62
     5
 10
1689.894977
 20
1234.522037
 11
1688.397720
 21
1240.431296
  0
LINE
  8
CSLAYER1
  6
DASHED
 62
     5
 10
1690.056632
 20
1234.698318
 11
1688.571936
 21
1240.558001
  0
LINE
  8
CSLAYER1
  6
DASHED
 62
     5
 10
1690.218287
 20
1234.874599
 11
1689.017159
 21
1239.615116
  0
LINE
  8
CSLAYER1
  6
DASHED
 62
     5
 10
1690.379942
 20
1235.050879
 11
1689.427909
 21
1238.808290
  0
LINE
  8
CSLAYER1
  6
DASHED
 62
     5
 10
1690.541597
 20
1235.227160
 11
1689.809375
 21
1238.117039
  0
LINE
  8
CSLAYER1
  6
DASHED
 62
     5
 10
1690.703252
 20
1235.403441
 11
1690.170529
 21
1237.505950
  0
LINE
  8
CSLAYER1
  6
DASHED
 62
     5
 10
1690.864907
 20
1235.579721
 11
1690.516493
 21
1236.954816
  0
LINE
  8
CSLAYER1
  6
DASHED
 62
     5
 10
1691.026562
 20
1235.756002
 11
1690.850516
 21
1236.450804
  0
LINE
  8
CSLAYER1
  6
DASHED
 62
     5
 10
1691.188217
 20
1235.932283
 11
1691.174819
 21
1235.985160
  0
ARC
  8
CSLAYER1
  6
DASHED
 62
     5
 10
1711.854464
 20
1250.733458
 40
25.400000
 50
82.820958
 51
113.991143
  0
LINE
  8
CSLAYER1
  6
DASHED
 62
     5
 10
1713.311708
 20
1220.300305
 11
1713.994573
 21
1225.423778
  0
LINE
  8
CSLAYER1
  6
DASHED
 62
     5
 10
1713.984228
 20
1225.346158
 11
1707.977605
 21
1223.477787
  0
LINE
  8
CSLAYER1
  6
DASHED
 62
     5
 10
1707.977605
 20
1223.477787
 11
1708.686539
 21
1225.531787
  0
LINE
  8
CSLAYER1
  6
DASHED
 62
     5
 10
1707.977605
 20
1223.477787
 11
1713.936439
 21
1224.987606
  0
LINE
  8
CSLAYER1
  6
DASHED
 62
     5
 10
1708.220601
 20
1223.333036
 11
1713.907980
 21
1224.774075
  0
LINE
  8
CSLAYER1
  6
DASHED
 62
     5
 10
1708.463597
 20
1223.188285
 11
1713.879520
 21
1224.560544
  0
LINE
  8
CSLAYER1
  6
DASHED
 62
     5
 10
1708.706594
 20
1223.043534
 11
1713.851060
 21
1224.347013
  0
LINE
  8
CSLAYER1
  6
DASHED
 62
     5
 10
1708.949590
 20
1222.898783
 11
1713.822600
 21
1224.133482
  0
LINE
  8
CSLAYER1
  6
DASHED
 62
     5
 10
1709.192586
 20
1222.754032
 11
1713.794140
 21
1223.919951
  0
LINE
  8
CSLAYER1
  6
DASHED
 62
     5
 10
1709.435583
 20
1222.609282
 11
1713.765681
 21
1223.706420
  0
LINE
  8
CSLAYER1
  6
DASHED
 62
     5
 10
1709.678579
 20
1222.464531
 11
1713.737221
 21
1223.492889
  0
LINE
  8
CSLAYER1
  6
DASHED
 62
     5
 10
1709.921575
 20
1222.319780
 11
1713.708761
 21
1223.279358
  0
LINE
  8
CSLAYER1
  6
DASHED
 62
     5
 10
1710.164571
 20
1222.175029
 11
1713.680301
 21
1223.065827
  0
LINE
  8
CSLAYER1
  6
DASHED
 62
     5
 10
1710.407568
 20
1222.030278
 11
1713.651842
 21
1222.852296
  0
LINE
  8
CSLAYER1
  6
DASHED
 62
     5
 10
1710.650564
 20
1221.885527
 11
1713.623382
 21
1222.638765
  0
LINE
  8
CSLAYER1
  6
DASHED
 62
     5
 10
1710.893560
 20
1221.740776
 11
1713.594922
 21
1222.425233
  0
LINE
  8
CSLAYER1
  6
DASHED
 62
     5
 10
1711.136556
 20
1221.596025
 11
1713.566462
 21
1222.211702
  0
LINE
  8
CSLAYER1
  6
DASHED
 62
     5
 10
1711.379553
 20
1221.451274
 11
1713.538003
 21
1221.998171
  0
LINE
  8
CSLAYER1
  6
DASHED
 62
     5
 10
1711.622549
 20
1221.306524
 11
1713.509543
 21
1221.784640
  0
LINE
  8
CSLAYER1
  6
DASHED
 62
     5
 10
1711.865545
 20
1221.161773
 11
1713.481083
 21
1221.571109
  0
LINE
  8
CSLAYER1
  6
DASHED
 62
     5
 10
1712.108541
 20
1221.017022
 11
1713.452623
 21
1221.357578
  0
LINE
  8
CSLAYER1
  6
DASHED
 62
     5
 10
1712.351538
 20
1220.872271
 11
1713.424164
 21
1221.144047
  0
LINE
  8
CSLAYER1
  6
DASHED
 62
     5
 10
1712.594534
 20
1220.727520
 11
1713.395704
 21
1220.930516
  0
LINE
  8
CSLAYER1
  6
DASHED
 62
     5
 10
1712.837530
 20
1220.582769
 11
1713.367244
 21
1220.716985
  0
LINE
  8
CSLAYER1
  6
DASHED
 62
     5
 10
1713.080526
 20
1220.438018
 11
1713.338784
 21
1220.503454
  0
LINE
  8
CSLAYER1
  6
DASHED
 62
     5
 10
1708.055640
 20
1223.703879
 11
1713.964899
 21
1225.201137
  0
LINE
  8
CSLAYER1
  6
DASHED
 62
     5
 10
1708.133676
 20
1223.929971
 11
1713.993359
 21
1225.414668
  0
LINE
  8
CSLAYER1
  6
DASHED
 62
     5
 10
1708.211711
 20
1224.156063
 11
1712.952229
 21
1225.357191
  0
LINE
  8
CSLAYER1
  6
DASHED
 62
     5
 10
1708.289746
 20
1224.382156
 11
1712.047157
 21
1225.334189
  0
LINE
  8
CSLAYER1
  6
DASHED
 62
     5
 10
1708.367781
 20
1224.608248
 11
1711.257660
 21
1225.340470
  0
LINE
  8
CSLAYER1
  6
DASHED
 62
     5
 10
1708.445817
 20
1224.834340
 11
1710.548326
 21
1225.367063
  0
LINE
  8
CSLAYER1
  6
DASHED
 62
     5
 10
1708.523852
 20
1225.060432
 11
1709.898946
 21
1225.408847
  0
LINE
  8
CSLAYER1
  6
DASHED
 62
     5
 10
1708.601887
 20
1225.286525
 11
1709.296690
 21
1225.462570
  0
LINE
  8
CSLAYER1
  6
DASHED
 62
     5
 10
1708.679923
 20
1225.512617
 11
1708.732800
 21
1225.526015
  0
LINE
  8
CSLAYER1
  6
DASHED
 62
     5
 10
1386.199000
 20
811.518796
 11
1392.852032
 21
822.687376
  0
LINE
  8
CSLAYER1
  6
DASHED
 62
     5
 10
1251.730464
 20
599.461698
 11
1286.399315
 21
578.809748
  0
LINE
  8
CSLAYER1
  6
DASHED
 62
     5
 10
1352.732408
 20
765.107728
 11
1372.635988
 21
753.251329
  0
LINE
  8
CSLAYER1
  6
DASHED
 62
     5
 10
1386.408621
 20
826.525663
 11
1403.752313
 21
816.194168
  0
LINE
  8
CSLAYER1
  6
DASHED
 62
     5
 10
1251.730464
 20
599.461698
 11
1281.413220
 21
649.290746
  0
LINE
  8
CSLAYER1
  6
DASHED
 62
     5
 10
1283.131463
 20
648.267203
 11
1356.826582
 21
771.980700
  0
LINE
  8
CSLAYER1
  6
DASHED
 62
     5
 10
1364.540169
 20
773.205678
 11
1387.058122
 21
811.007025
  0
LINE
  8
CSLAYER1
  6
DASHED
 62
     5
 10
1251.730464
 20
599.461698
 11
1263.100478
 21
583.376836
  0
LINE
  8
CSLAYER1
  6
DASHED
 62
     5
 10
1282.843163
 20
571.616281
 11
1263.100478
 21
583.376836
  0
LINE
  8
CSLAYER1
  6
DASHED
 62
     5
 10
1358.261532
 20
536.002013
 11
1387.944288
 21
585.831061
  0
LINE
  8
CSLAYER1
  6
DASHED
 62
     5
 10
1386.226045
 20
586.854604
 11
1459.921163
 21
710.568102
  0
LINE
  8
CSLAYER1
  6
DASHED
 62
     5
 10
1386.199000
 20
811.518796
 11
1397.973567
 21
804.504784
  0
LINE
  8
CSLAYER1
  6
DASHED
 62
     5
 10
1372.216744
 20
786.092501
 11
1385.082518
 21
778.428465
  0
LINE
  8
CSLAYER1
  6
DASHED
 62
     5
 10
1359.568368
 20
772.675400
 11
1377.081177
 21
762.243163
  0
ARC
  8
CSLAYER1
  6
DASHED
 62
     5
 10
1361.962805
 20
774.740993
 40
3.000000
 50
239.218089
 51
329.218089
  0
LINE
  8
CSLAYER1
  6
DASHED
 62
     5
 10
1307.186866
 20
633.937596
 11
1345.193767
 21
697.740557
  0
LINE
  8
CSLAYER1
  6
DASHED
 62
     5
 10
1290.004436
 20
644.173029
 11
1359.605381
 21
761.013555
  0
LINE
  8
CSLAYER1
  6
DASHED
 62
     5
 10
1288.286193
 20
645.196573
 11
1357.887138
 21
762.037098
  0
ARC
  8
CSLAYER1
  6
DASHED
 62
     5
 10
1358.544825
 20
770.957157
 40
2.000000
 50
59.218089
 51
149.218089
  0
ARC
  8
CSLAYER1
  6
DASHED
 62
     5
 10
1458.202920
 20
711.591645
 40
2.000000
 50
-30.781911
 51
59.218089
  0
LINE
  8
CSLAYER1
  6
DASHED
 62
     5
 10
1386.325013
 20
809.115773
 11
1397.084529
 21
802.706417
  0
LINE
  8
CSLAYER1
  6
DASHED
 62
     5
 10
1386.325013
 20
809.115773
 11
1387.348556
 21
810.834016
  0
LINE
  8
CSLAYER1
  6
DASHED
 62
     5
 10
1384.029443
 20
802.917357
 11
1394.195156
 21
796.861725
  0
LINE
  8
CSLAYER1
  6
DASHED
 62
     5
 10
1384.029443
 20
802.917357
 11
1383.462662
 21
803.930739
  0
LINE
  8
CSLAYER1
  6
DASHED
 62
     5
 10
1386.492066
 20
809.016260
 11
1383.462662
 21
803.930739
  0
ARC
  8
CSLAYER1
  6
DASHED
 62
     5
 10
1386.455178
 20
805.287879
 40
3.285875
 50
214.531594
 51
274.182472
  0
ARC
  8
CSLAYER1
  6
DASHED
 62
     5
 10
1395.969652
 20
810.260652
 40
12.419443
 50
221.630135
 51
256.806043
  0
LINE
  8
CSLAYER1
  6
DASHED
 62
     5
 10
1389.716157
 20
807.095696
 11
1386.686754
 21
802.010174
  0
LINE
  8
CSLAYER1
  6
DASHED
 62
     5
 10
1384.987431
 20
798.272762
 11
1390.657633
 21
794.895069
  0
LINE
  8
CSLAYER1
  6
DASHED
 62
     5
 10
1384.744286
 20
799.232387
 11
1386.177246
 21
801.637928
  0
LINE
  8
CSLAYER1
  6
DASHED
 62
     5
 10
1384.987431
 20
798.272762
 11
1386.778631
 21
801.279687
  0
LINE
  8
CSLAYER1
  6
DASHED
 62
     5
 10
1384.744286
 20
799.232387
 11
1384.987431
 21
798.272762
  0
LINE
  8
CSLAYER1
  6
DASHED
 62
     5
 10
1384.744286
 20
799.232387
 11
1391.617258
 21
795.138214
  0
ARC
  8
CSLAYER1
  6
DASHED
 62
     5
 10
1396.127451
 20
799.526185
 40
3.285875
 50
204.253706
 51
234.033690
  0
LINE
  8
CSLAYER1
  6
DASHED
 62
     5
 10
1396.164339
 20
803.254566
 11
1393.134936
 21
798.169045
  0
LINE
  8
CSLAYER1
  6
DASHED
 62
     5
 10
1391.617258
 20
795.138214
 11
1393.050218
 21
797.543754
  0
LINE
  8
CSLAYER1
  6
DASHED
 62
     5
 10
1390.657633
 20
794.895069
 11
1392.448833
 21
797.901994
  0
LINE
  8
CSLAYER1
  6
DASHED
 62
     5
 10
1391.617258
 20
795.138214
 11
1390.657633
 21
794.895069
  0
LINE
  8
CSLAYER1
  6
DASHED
 62
     5
 10
1392.596108
 20
807.708092
 11
1394.779249
 21
804.079653
  0
LINE
  8
CSLAYER1
  6
DASHED
 62
     5
 10
1387.944288
 20
585.831061
 11
1384.458670
 21
587.907415
  0
LINE
  8
CSLAYER1
  6
DASHED
 62
     5
 10
1395.767846
 20
579.424662
 11
1420.332885
 21
620.662495
  0
LINE
  8
CSLAYER1
  6
DASHED
 62
     5
 10
1408.305184
 20
627.827298
 11
1420.332885
 21
620.662495
  0
LINE
  8
CSLAYER1
  6
DASHED
 62
     5
 10
1383.740144
 20
586.589465
 11
1395.767846
 21
579.424662
  0
LINE
  8
CSLAYER1
  6
DASHED
 62
     5
 10
1371.457625
 20
565.970549
 11
1441.570341
 21
683.670196
  0
LINE
  8
CSLAYER1
  6
DASHED
 62
     5
 10
1679.312189
 20
1234.035254
 11
1689.909216
 21
1227.722692
  0
LINE
  8
CSLAYER1
  6
DASHED
 62
     5
 10
1638.238030
 20
1085.434226
 11
1713.820015
 21
1212.315245
  0
LINE
  8
CSLAYER1
  6
DASHED
 62
     5
 10
1713.820015
 20
1212.315245
 11
1713.472665
 21
1213.686138
  0
ARC
  8
CSLAYER1
  6
DASHED
 62
     5
 10
1711.854464
 20
1250.733458
 40
25.400000
 50
184.126165
 51
304.152831
  0
ARC
  8
CSLAYER1
  6
DASHED
 62
     5
 10
1711.854464
 20
1250.733458
 40
25.400000
 50
14.287854
 51
31.647585
  0
CIRCLE
  8
CSLAYER1
  6
DASHED
 62
     5
 10
1711.854464
 20
1250.733458
 40
7.500000
  0
CIRCLE
  8
CSLAYER1
  6
DASHED
 62
     5
 10
1711.854464
 20
1250.733458
 40
21.000000
  0
LINE
  8
CSLAYER1
  6
DASHED
 62
     5
 10
1693.451542
 20
1233.226532
 11
1686.559236
 21
1222.517705
  0
LINE
  8
CSLAYER1
  6
DASHED
 62
     5
 10
1730.592301
 20
1268.760755
 11
1731.476521
 21
1270.134599
  0
LINE
  8
CSLAYER1
  6
DASHED
 62
     5
 10
1700.224857
 20
1221.577749
 11
1713.472665
 21
1213.686138
  0
LINE
  8
CSLAYER1
  6
DASHED
 62
     5
 10
1703.257425
 20
1226.289560
 11
1715.178772
 21
1219.188110
  0
ARC
  8
CSLAYER1
  6
DASHED
 62
     5
 10
1645.493885
 20
1147.626605
 40
7.800000
 50
175.621312
 51
184.865501
  0
ARC
  8
CSLAYER1
  6
DASHED
 62
     5
 10
1545.188456
 20
875.564073
 40
65.255313
 50
16.993569
 51
49.509754
  0
LINE
  8
CSLAYER1
  6
DASHED
 62
     5
 10
1661.962576
 20
716.734707
 11
1607.594563
 21
894.635876
  0
LINE
  8
CSLAYER1
  6
DASHED
 62
     5
 10
1522.193074
 20
816.638948
 11
1363.218142
 21
552.633887
  0
LINE
  8
CSLAYER1
  6
DASHED
 62
     5
 10
1461.313546
 20
913.266292
 11
1407.844100
 21
824.471131
  0
LINE
  8
CSLAYER1
  6
DASHED
 62
     5
 10
1312.181413
 20
630.962386
 11
1281.413220
 21
649.290746
  0
LINE
  8
CSLAYER1
  6
DASHED
 62
     5
 10
2272.975454
 20
515.557879
 11
2272.975454
 21
467.257879
  0
LINE
  8
CSLAYER1
  6
DASHED
 62
     5
 10
2302.975454
 20
506.057879
 11
2302.975454
 21
489.057879
  0
LINE
  8
CSLAYER1
  6
DASHED
 62
     5
 10
2299.005887
 20
510.548260
 11
2284.378017
 21
510.548260
  0
LINE
  8
CSLAYER1
  6
DASHED
 62
     5
 10
2299.866359
 20
509.057879
 11
2299.866359
 21
486.057879
  0
LINE
  8
CSLAYER1
  6
DASHED
 62
     5
 10
2283.517545
 20
509.057879
 11
2283.517545
 21
486.057879
  0
LINE
  8
CSLAYER1
  6
DASHED
 62
     5
 10
2299.866359
 20
509.057879
 11
2299.005887
 21
510.548260
  0
LINE
  8
CSLAYER1
  6
DASHED
 62
     5
 10
2283.517545
 20
509.057879
 11
2284.378017
 21
510.548260
  0
LINE
  8
CSLAYER1
  6
DASHED
 62
     5
 10
2299.005887
 20
504.197407
 11
2284.378017
 21
504.197407
  0
ARC
  8
CSLAYER1
  6
DASHED
 62
     5
 10
2273.820334
 20
497.557879
 40
26.046025
 50
-14.768561
 51
14.768561
  0
ARC
  8
CSLAYER1
  6
DASHED
 62
     5
 10
2293.734766
 20
507.372834
 40
6.153702
 50
-31.065581
 51
23.174644
  0
ARC
  8
CSLAYER1
  6
DASHED
 62
     5
 10
2289.649138
 20
507.372834
 40
6.153702
 50
156.825356
 51
211.065581
  0
ARC
  8
CSLAYER1
  6
DASHED
 62
     5
 10
2309.563570
 20
497.557879
 40
26.046025
 50
165.231439
 51
194.768561
  0
LINE
  8
CSLAYER1
  6
DASHED
 62
     5
 10
2299.975454
 20
509.057879
 11
2299.866359
 21
509.057879
  0
ARC
  8
CSLAYER1
  6
DASHED
 62
     5
 10
2299.975454
 20
506.057879
 40
3.000000
 50
0.000000
 51
90.000000
  0
LINE
  8
CSLAYER1
  6
DASHED
 62
     5
 10
2279.975454
 20
509.057879
 11
2279.975454
 21
486.057879
  0
LINE
  8
CSLAYER1
  6
DASHED
 62
     5
 10
2279.975454
 20
509.057879
 11
2279.114982
 21
510.548260
  0
ARC
  8
CSLAYER1
  6
DASHED
 62
     5
 10
2253.929429
 20
497.557879
 40
26.046025
 50
-14.768561
 51
14.768561
  0
ARC
  8
CSLAYER1
  6
DASHED
 62
     5
 10
2273.843860
 20
507.372834
 40
6.153702
 50
-31.065581
 51
23.174644
  0
LINE
  8
CSLAYER1
  6
DASHED
 62
     5
 10
2279.114982
 20
504.197407
 11
2274.975454
 21
504.197407
  0
LINE
  8
CSLAYER1
  6
DASHED
 62
     5
 10
2279.114982
 20
510.548260
 11
2274.975454
 21
510.548260
  0
LINE
  8
CSLAYER1
  6
DASHED
 62
     5
 10
2283.517545
 20
507.894004
 11
2279.975454
 21
507.894004
  0
LINE
  8
CSLAYER1
  6
DASHED
 62
     5
 10
2283.517545
 20
507.247626
 11
2281.911183
 21
507.247626
  0
LINE
  8
CSLAYER1
  6
DASHED
 62
     5
 10
2281.911183
 20
507.894004
 11
2281.911183
 21
487.221755
  0
LINE
  8
CSLAYER1
  6
DASHED
 62
     5
 10
2281.911183
 20
507.247626
 11
2280.776331
 21
507.894004
  0
LINE
  8
CSLAYER1
  6
DASHED
 62
     5
 10
2299.005887
 20
484.567498
 11
2284.378017
 21
484.567498
  0
LINE
  8
CSLAYER1
  6
DASHED
 62
     5
 10
2299.866359
 20
486.057879
 11
2299.005887
 21
484.567498
  0
LINE
  8
CSLAYER1
  6
DASHED
 62
     5
 10
2283.517545
 20
486.057879
 11
2284.378017
 21
484.567498
  0
LINE
  8
CSLAYER1
  6
DASHED
 62
     5
 10
2299.005887
 20
490.918351
 11
2284.378017
 21
490.918351
  0
ARC
  8
CSLAYER1
  6
DASHED
 62
     5
 10
2293.734766
 20
487.742925
 40
6.153702
 50
-23.174644
 51
31.065581
  0
ARC
  8
CSLAYER1
  6
DASHED
 62
     5
 10
2289.649138
 20
487.742925
 40
6.153702
 50
148.934419
 51
203.174644
  0
LINE
  8
CSLAYER1
  6
DASHED
 62
     5
 10
2299.975454
 20
486.057879
 11
2299.866359
 21
486.057879
  0
ARC
  8
CSLAYER1
  6
DASHED
 62
     5
 10
2299.975454
 20
489.057879
 40
3.000000
 50
270.000000
 51
360.000000
  0
LINE
  8
CSLAYER1
  6
DASHED
 62
     5
 10
2279.975454
 20
486.057879
 11
2279.114982
 21
484.567498
  0
ARC
  8
CSLAYER1
  6
DASHED
 62
     5
 10
2273.843860
 20
487.742925
 40
6.153702
 50
-23.174644
 51
31.065581
  0
LINE
  8
CSLAYER1
  6
DASHED
 62
     5
 10
2279.114982
 20
490.918351
 11
2274.975454
 21
490.918351
  0
LINE
  8
CSLAYER1
  6
DASHED
 62
     5
 10
2279.114982
 20
484.567498
 11
2274.975454
 21
484.567498
  0
LINE
  8
CSLAYER1
  6
DASHED
 62
     5
 10
2283.517545
 20
487.221755
 11
2279.975454
 21
487.221755
  0
LINE
  8
CSLAYER1
  6
DASHED
 62
     5
 10
2283.517545
 20
487.868133
 11
2281.911183
 21
487.868133
  0
LINE
  8
CSLAYER1
  6
DASHED
 62
     5
 10
2281.911183
 20
487.868133
 11
2280.776331
 21
487.221755
  0
ARC
  8
CSLAYER1
  6
DASHED
 62
     5
 10
2273.975454
 20
509.007879
 40
1.000000
 50
0.000000
 51
180.000000
  0
POINT
  8
CSLAYER1
 62
     5
 10
2273.975454
 20
509.007879
  0
ARC
  8
CSLAYER1
  6
DASHED
 62
     5
 10
2273.975454
 20
486.107879
 40
1.000000
 50
180.000000
 51
360.000000
  0
POINT
  8
CSLAYER1
 62
     5
 10
2273.975454
 20
486.107879
  0
LINE
  8
CSLAYER1
  6
DASHED
 62
     5
 10
2274.975454
 20
510.548260
 11
2274.975454
 21
484.567498
  0
LINE
  8
CSLAYER1
  6
DASHED
 62
     5
 10
2133.575454
 20
515.557879
 11
2133.575454
 21
467.257879
  0
LINE
  8
CSLAYER1
  6
DASHED
 62
     5
 10
2132.275454
 20
521.557879
 11
2274.275454
 21
521.557879
  0
LINE
  8
CSLAYER1
  6
DASHED
 62
     5
 10
2132.275454
 20
515.557879
 11
2274.275454
 21
515.557879
  0
LINE
  8
CSLAYER1
  6
DASHED
 62
     5
 10
2132.275454
 20
521.557879
 11
2132.275454
 21
515.557879
  0
LINE
  8
CSLAYER1
  6
DASHED
 62
     5
 10
2274.275454
 20
521.557879
 11
2274.275454
 21
515.557879
  0
LINE
  8
CSLAYER1
  6
DASHED
 62
     5
 10
2203.275454
 20
525.346381
 11
2203.275454
 21
515.577771
  0
LINE
  8
CSLAYER1
  6
DASHED
 62
     5
 10
2199.775454
 20
524.557879
 11
2199.775454
 21
522.357879
  0
LINE
  8
CSLAYER1
  6
DASHED
 62
     5
 10
2206.775454
 20
524.557879
 11
2206.775454
 21
522.357879
  0
LINE
  8
CSLAYER1
  6
DASHED
 62
     5
 10
2206.775454
 20
523.357879
 11
2199.775454
 21
523.357879
  0
LINE
  8
CSLAYER1
  6
DASHED
 62
     5
 10
2205.375454
 20
525.957879
 11
2201.175454
 21
525.957879
  0
LINE
  8
CSLAYER1
  6
DASHED
 62
     5
 10
2207.775454
 20
522.357879
 11
2207.775454
 21
521.557879
  0
LINE
  8
CSLAYER1
  6
DASHED
 62
     5
 10
2198.775454
 20
522.357879
 11
2198.775454
 21
521.557879
  0
LINE
  8
CSLAYER1
  6
DASHED
 62
     5
 10
2207.775454
 20
522.357879
 11
2198.775454
 21
522.357879
  0
ARC
  8
CSLAYER1
  6
DASHED
 62
     5
 10
2205.375454
 20
524.557879
 40
1.400000
 50
0.000000
 51
90.000000
  0
ARC
  8
CSLAYER1
  6
DASHED
 62
     5
 10
2201.175454
 20
524.557879
 40
1.400000
 50
90.000000
 51
180.000000
  0
LINE
  8
CSLAYER1
  6
DASHED
 62
     5
 10
2204.315406
 20
522.357879
 11
2201.930203
 21
523.357879
  0
LINE
  8
CSLAYER1
  6
DASHED
 62
     5
 10
1433.576077
 20
808.285879
 11
1463.681978
 21
808.285879
  0
LINE
  8
CSLAYER1
  6
DASHED
 62
     5
 10
1448.292062
 20
824.757352
 11
1448.292062
 21
792.142625
  0
LINE
  8
CSLAYER1
  6
DASHED
 62
     5
 10
1522.623950
 20
857.319554
 11
1522.607711
 21
858.733674
  0
CIRCLE
  8
CSLAYER1
  6
DASHED
 62
     5
 10
1527.535576
 20
869.127604
 40
12.000000
  0
LINE
  8
CSLAYER1
  6
DASHED
 62
     5
 10
1534.463779
 20
881.127604
 11
1520.607372
 21
881.127604
  0
LINE
  8
CSLAYER1
  6
DASHED
 62
     5
 10
1520.607372
 20
881.127604
 11
1513.679169
 21
869.127604
  0
LINE
  8
CSLAYER1
  6
DASHED
 62
     5
 10
1513.679169
 20
869.127604
 11
1520.607372
 21
857.127604
  0
LINE
  8
CSLAYER1
  6
DASHED
 62
     5
 10
1520.607372
 20
857.127604
 11
1534.463779
 21
857.127604
  0
LINE
  8
CSLAYER1
  6
DASHED
 62
     5
 10
1534.463779
 20
857.127604
 11
1541.391982
 21
869.127604
  0
LINE
  8
CSLAYER1
  6
DASHED
 62
     5
 10
1541.391982
 20
869.127604
 11
1534.463779
 21
881.127604
  0
CIRCLE
  8
CSLAYER1
  6
DASHED
 62
     5
 10
1527.535576
 20
869.127604
 40
8.000000
  0
CIRCLE
  8
CSLAYER1
  6
DASHED
 62
     5
 10
1527.535576
 20
869.127604
 40
7.000000
  0
CIRCLE
  8
CSLAYER1
  6
DASHED
 62
     5
 10
1527.535576
 20
869.127604
 40
15.000000
  0
LINE
  8
CSLAYER1
  6
DASHED
 62
     5
 10
1509.175580
 20
869.127604
 11
1549.297222
 21
869.127604
  0
LINE
  8
CSLAYER1
  6
DASHED
 62
     5
 10
1527.535576
 20
888.597539
 11
1527.535576
 21
848.379450
  0
LINE
  8
CSLAYER1
  6
DASHED
 62
     5
 10
2290.375454
 20
1332.197328
 11
2290.375454
 21
1314.997328
  0
LINE
  8
CSLAYER1
  6
DASHED
 62
     5
 10
1740.375454
 20
1314.997328
 11
2290.375454
 21
1314.997328
  0
LINE
  8
CSLAYER1
  6
DASHED
 62
     5
 10
1740.375454
 20
1332.197328
 11
1740.375454
 21
1314.997328
  0
POINT
  8
CSLAYER1
 62
     5
 10
1277.775454
 20
1296.497328
  0
CIRCLE
  8
CSLAYER1
  6
DASHED
 62
     5
 10
1277.775454
 20
1296.497328
 40
9.500000
  0
LINE
  8
CSLAYER1
  6
DASHED
 62
     5
 10
1283.260281
 20
1305.997328
 11
1272.290626
 21
1305.997328
  0
LINE
  8
CSLAYER1
  6
DASHED
 62
     5
 10
1272.290626
 20
1305.997328
 11
1266.805799
 21
1296.497328
  0
LINE
  8
CSLAYER1
  6
DASHED
 62
     5
 10
1266.805799
 20
1296.497328
 11
1272.290626
 21
1286.997328
  0
LINE
  8
CSLAYER1
  6
DASHED
 62
     5
 10
1272.290626
 20
1286.997328
 11
1283.260281
 21
1286.997328
  0
LINE
  8
CSLAYER1
  6
DASHED
 62
     5
 10
1283.260281
 20
1286.997328
 11
1288.745109
 21
1296.497328
  0
LINE
  8
CSLAYER1
  6
DASHED
 62
     5
 10
1288.745109
 20
1296.497328
 11
1283.260281
 21
1305.997328
  0
LINE
  8
CSLAYER1
  6
DASHED
 62
     5
 10
1246.775454
 20
1332.197328
 11
1246.775454
 21
1289.997328
  0
LINE
  8
CSLAYER1
  6
DASHED
 62
     5
 10
1286.775454
 20
1279.997328
 11
1256.775454
 21
1279.997328
  0
LINE
  8
CSLAYER1
  6
DASHED
 62
     5
 10
1296.775454
 20
1332.197328
 11
1296.775454
 21
1289.997328
  0
ARC
  8
CSLAYER1
  6
DASHED
 62
     5
 10
1286.775454
 20
1289.997328
 40
10.000000
 50
270.000000
 51
360.000000
  0
ARC
  8
CSLAYER1
  6
DASHED
 62
     5
 10
1256.775454
 20
1289.997328
 40
10.000000
 50
180.000000
 51
270.000000
  0
LINE
  8
CSLAYER1
  6
DASHED
 62
     5
 10
1277.775454
 20
1311.104500
 11
1277.775454
 21
1281.642575
  0
LINE
  8
CSLAYER1
  6
DASHED
 62
     5
 10
1259.498498
 20
1296.497328
 11
1293.790246
 21
1296.497328
  0
LINE
  8
CSLAYER1
  6
DASHED
 62
     5
 10
2316.775454
 20
1318.072641
 11
2340.035659
 21
1332.197328
  0
INSERT
  8
CSLAYER1
  2
BLKF0005
 10
0.0
 20
0.0
 30
0.0
  0
LINE
  8
CSLAYER1
  6
DASHED
 62
     5
 10
604.378809
 20
735.224208
 11
604.378809
 21
640.689585
  0
LINE
  8
CSLAYER1
  6
DASHED
 62
     5
 10
583.378809
 20
738.224208
 11
583.378809
 21
637.689585
  0
LINE
  8
CSLAYER1
  6
DASHED
 62
     5
 10
583.378809
 20
637.689585
 11
601.378809
 21
637.689585
  0
LINE
  8
CSLAYER1
  6
DASHED
 62
     5
 10
583.378809
 20
679.082603
 11
602.597404
 21
679.082603
  0
LINE
  8
CSLAYER1
  6
DASHED
 62
     5
 10
583.378809
 20
738.224208
 11
601.378809
 21
738.224208
  0
ARC
  8
CSLAYER1
  6
DASHED
 62
     5
 10
601.378809
 20
735.224208
 40
3.000000
 50
0.000000
 51
90.000000
  0
ARC
  8
CSLAYER1
  6
DASHED
 62
     5
 10
601.378809
 20
640.689585
 40
3.000000
 50
270.000000
 51
360.000000
  0
LINE
  8
CSLAYER1
  6
DASHED
 62
     5
 10
604.378809
 20
693.633891
 11
746.378809
 21
693.633891
  0
LINE
  8
CSLAYER1
  6
DASHED
 62
     5
 10
604.378809
 20
702.162925
 11
746.378809
 21
702.162925
  0
TEXT
  8
CSLAYER1
 62
     5
 10
2953.322021
 20
2002.734863
 40
40.000000
 41
1.020000
  1
コード長サ２ｍ
 50
360.000000
 51
0.000000
  7
EASYDRAW_FONT
 72
     5
 11
3225.322021
 21
2002.734863
  0
TEXT
  8
CSLAYER1
 62
     5
 10
910.838028
 20
1092.502197
 40
44.482590
 41
0.304447
  1
ポリエステル地に樹脂コーティング
 50
0.000000
 51
0.000000
  7
EASYDRAW_FONT
 72
     5
 11
1123.005493
 21
1092.502197
  0
TEXT
  8
CSLAYER1
 62
     3
 10
2742.112156
 20
1654.664063
 40
34.000000
 41
1.036364
  1
積載荷重
 50
0.000000
 51
0.000000
  7
EASYDRAW_FONT
 72
     5
 11
2871.312160
 21
1654.664063
  0
TEXT
  8
CSLAYER1
 62
     5
 10
2690.624756
 20
356.907196
 40
50.000000
 41
0.827586
  1
平成２８年４月１６日
 50
0.000000
 51
0.000000
  7
EASYDRAW_FONT
 72
     5
 11
3090.624756
 21
356.907196
  0
TEXT
  8
CSLAYER1
 62
     4
 10
2958.183350
 20
1220.051514
 40
34.000000
 41
0.818934
  1
マグネットスイッチ制御
 50
0.000000
 51
0.000000
  7
EASYDRAW_FONT
 72
     5
 11
3255.183350
 21
1220.051514
  0
TEXT
  8
CSLAYER1
 62
     4
 10
2744.296143
 20
1218.062256
 40
34.000000
 41
0.866310
  1
制御方式
 50
0.000000
 51
0.000000
  7
EASYDRAW_FONT
 72
     5
 11
2852.296143
 21
1218.062256
  0
LINE
  8
CSLAYER1
  6
CONTINUOUS
 62
     5
 10
3342.311850
 20
1265.500825
 11
2729.570211
 21
1265.500825
  0
INSERT
  8
CSLAYER1
  2
BLKF0006
 10
0.0
 20
0.0
 30
0.0
  0
ENDSEC
  0
EOF
