  0
SECTION
  2
HEADER
  9
$ACADVER
  1
AC1006
  9
$INSBASE
 10
1215.171010
 20
1762.166124
 30
0.0
  9
$EXTMIN
 10
1215.171010
 20
1762.166124
  9
$EXTMAX
 10
4855.171010
 20
4332.166124
  9
$LIMMIN
 10
1215.171010
 20
1762.166124
  9
$LIMMAX
 10
4855.171010
 20
4332.166124
  9
$VIEWCTR
 10
3035.171010
 20
3047.166124
  9
$VIEWSIZE
 40
2570.000000
  9
$SNAPMODE
 70
     0
  9
$SNAPUNIT
 10
1.0
 20
1.0
  9
$SNAPBASE
 10
0.0
 20
0.0
  9
$SNAPANG
 50
0.0
  9
$SNAPSTYLE
 70
     0
  9
$SNAPISOPAIR
 70
     0
  9
$GRIDMODE
 70
     0
  9
$GRIDUNIT
 10
0.0
 20
0.0
  9
$ORTHOMODE
 70
     0
  9
$REGENMODE
 70
     1
  9
$FILLMODE
 70
     1
  9
$QTEXTMODE
 70
     0
  9
$DRAGMODE
 70
     2
  9
$LTSCALE
 40
15.000000
  9
$OSMODE
 70
     0
  9
$ATTMODE
 70
     1
  9
$TEXTSIZE
 40
0.2
  9
$TRACEWID
 40
0.05
  9
$TEXTSTYLE
  7
STANDARD
  9
$CLAYER
  8
CSLAYER1
  9
$CELTYPE
  6
BYLAYER
  9
$CECOLOR
 62
   256
  9
$DIMSCALE
 40
1.0
  9
$DIMASZ
 40
0.18
  9
$DIMEXO
 40
0.0625
  9
$DIMDLI
 40
0.38
  9
$DIMRND
 40
0.0
  9
$DIMDLE
 40
0.0
  9
$DIMEXE
 40
0.18
  9
$DIMTP
 40
0.0
  9
$DIMTM
 40
0.0
  9
$DIMTXT
 40
0.18
  9
$DIMCEN
 40
0.09
  9
$DIMTSZ
 40
0.0
  9
$DIMTOL
 70
     0
  9
$DIMLIM
 70
     0
  9
$DIMTIH
 70
     1
  9
$DIMTOH
 70
     1
  9
$DIMSE1
 70
     0
  9
$DIMSE2
 70
     0
  9
$DIMTAD
 70
     0
  9
$DIMZIN
 70
     0
  9
$DIMBLK
  1

  9
$LUNITS
 70
     2
  9
$LUPREC
 70
     4
  9
$AXISMODE
 70
     0
  9
$AXISUNIT
 10
0.0
 20
0.0
  9
$SKETCHINC
 40
0.1
  9
$FILLETRAD
 40
0.0
  9
$AUNITS
 70
     0
  9
$AUPREC
 70
     0
  9
$MENU
  1
ACAD
  9
$ELEVATION
 40
0.0
  9
$THICKNESS
 40
0.0
  9
$VIEWDIR
 10
0.0
 20
0.0
 30
1.0
  9
$LIMCHECK
 70
     0
  9
$BLIPMODE
 70
     1
  9
$CHAMFERA
 40
0.0
  9
$CHAMFERB
 40
0.0
  9
$FASTZOOM
 70
     1
  9
$SKPOLY
 70
     0
  9
$TDCREATE
 40
2457497.000000
  9
$TDUPDATE
 40
2457497.000000
  9
$TDINDWG
 40
0.0
  9
$TDUSRTIMER
 40
0.0
  9
$USRTIMER
 70
     1
  9
$ANGBASE
 50
0.0
  9
$ANGDIR
 70
     0
  9
$PDMODE
 70
     0
  9
$PDSIZE
 40
0.0
  9
$PLINEWID
 40
0.0
  9
$COORDS
 70
     0
  9
$USERI1
 70
     0
  9
$USERI2
 70
     0
  9
$USERI3
 70
     0
  9
$USERI4
 70
     0
  9
$USERI5
 70
     0
  9
$USERR1
 40
0.0
  9
$USERR2
 40
0.0
  9
$USERR3
 40
0.0
  9
$USERR4
 40
0.0
  9
$USERR5
 40
0.0
  0
ENDSEC
  0
SECTION
  2
TABLES
  0
TABLE
  2
LTYPE
 70
     9
  0
LTYPE
  2
CONTINUOUS
 70
    64
  3
Solid line
 72
    65
 73
     0
 40
0.0
  0
LTYPE
  2
DASHED
 70
    64
  3
__ __ __ __ __ __ __ __ __ __ __ __ __ __ __
 72
    65
 73
     2
 40
0.75
 49
0.5
 49
-0.25
  0
LTYPE
  2
HIDDEN
 70
    64
  3
_ _ _ _ _ _ _ _ _ _ _ _ _ _ _ _ _ _ _ _ _ _ _
 72
    65
 73
     2
 40
0.375
 49
0.25
 49
-0.125
  0
LTYPE
  2
DOT
 70
    64
  3
...............................................
 72
    65
 73
     2
 40
0.25
 49
0.0
 49
-0.25
  0
LTYPE
  2
DASHDOT
 70
    64
  3
__ . __ . __ . __ . __ . __ . __ . __ . __ . __
 72
    65
 73
     4
 40
1.0
 49
0.5
 49
-0.25
 49
0.0
 49
-0.25
  0
LTYPE
  2
DIVIDE
 70
    64
  3
__ . . __ . . __ . . __ . . __ . . __ . . __
 72
    65
 73
     6
 40
1.25
 49
0.5
 49
-0.25
 49
0.0
 49
-0.25
 49
0.0
 49
-0.25
  0
LTYPE
  2
CENTER
 70
    64
  3
____ _ ____ _ ____ _ ____ _ ____ _ ____ _ ____ 
 72
    65
 73
     4
 40
2.0
 49
1.25
 49
-0.25
 49
0.25
 49
-0.25
  0
LTYPE
  2
PHANTOM
 70
    64
  3
______  __  __  ______  __  __  ______  __  __ 
 72
    65
 73
     6
 40
2.5
 49
1.25
 49
-0.25
 49
0.25
 49
-0.25
 49
0.25
 49
-0.25
  0
LTYPE
  2
BORDER
 70
    64
  3
__ __ . __ __ . __ __ . __ __ . __ __ . __ __ .
 72
    65
 73
     6
 40
1.75
 49
0.5
 49
-0.25
 49
0.5
 49
-0.25
 49
0.0
 49
-0.25
  0
ENDTAB
  0
TABLE
  2
LAYER
 70
    16
  0
LAYER
  2
CSLAYER1
 70
    64
 62
     7
  6
CONTINUOUS
  0
LAYER
  2
CSLAYER2
 70
    64
 62
     7
  6
CONTINUOUS
  0
LAYER
  2
CSLAYER3
 70
    64
 62
     7
  6
CONTINUOUS
  0
LAYER
  2
CSLAYER4
 70
    64
 62
     7
  6
CONTINUOUS
  0
LAYER
  2
CSLAYER5
 70
    64
 62
     7
  6
CONTINUOUS
  0
LAYER
  2
CSLAYER6
 70
    64
 62
     7
  6
CONTINUOUS
  0
LAYER
  2
CSLAYER7
 70
    64
 62
     7
  6
CONTINUOUS
  0
LAYER
  2
CSLAYER8
 70
    64
 62
     7
  6
CONTINUOUS
  0
LAYER
  2
CSLAYER9
 70
    64
 62
     7
  6
CONTINUOUS
  0
LAYER
  2
CSLAYER10
 70
    64
 62
     7
  6
CONTINUOUS
  0
LAYER
  2
CSLAYER11
 70
    64
 62
     7
  6
CONTINUOUS
  0
LAYER
  2
CSLAYER12
 70
    64
 62
     7
  6
CONTINUOUS
  0
LAYER
  2
CSLAYER13
 70
    64
 62
     7
  6
CONTINUOUS
  0
LAYER
  2
CSLAYER14
 70
    64
 62
     7
  6
CONTINUOUS
  0
LAYER
  2
CSLAYER15
 70
    64
 62
     7
  6
CONTINUOUS
  0
LAYER
  2
CSLAYER16
 70
    64
 62
     7
  6
CONTINUOUS
  0
ENDTAB
  0
TABLE
  2
STYLE
 70
     1
  0
STYLE
  2
EASYDRAW_FONT
 70
     0
 40
1.0
 41
1.0
 50
0.0
 71
     0
 42
1.0
  3
monotxt
  4
bigfont
  0
ENDTAB
  0
TABLE
  2
VIEW
 70
     0
  0
ENDTAB
  0
ENDSEC
  0
SECTION
  2
BLOCKS
  0
BLOCK
  8
CSLAYER1
  2
*D0000
 70
    65
 10
0.0
 20
0.0
 30
0.0
  0
TEXT
  8
CSLAYER1
 62
     7
 10
2273.399658
 20
471.727905
 40
40.000000
 41
0.843750
  1
155
 50
90.000000
 51
0.000000
  7
EASYDRAW_FONT
 72
     5
 11
2273.399658
 21
561.727905
  0
LINE
  8
CSLAYER1
  6
CONTINUOUS
 62
     5
 10
2149.659898
 20
439.227802
 11
2395.992797
 21
439.227802
  0
LINE
  8
CSLAYER1
  6
CONTINUOUS
 62
     5
 10
2149.459898
 20
594.227802
 11
2293.399590
 21
594.227802
  0
LINE
  8
CSLAYER1
  6
CONTINUOUS
 62
     5
 10
2283.399590
 20
439.227802
 11
2283.399590
 21
594.227802
  0
LINE
  8
CSLAYER1
  6
CONTINUOUS
 62
     5
 10
2283.399590
 20
439.227802
 11
2275.635018
 21
468.205577
  0
LINE
  8
CSLAYER1
  6
CONTINUOUS
 62
     5
 10
2283.399590
 20
439.227802
 11
2291.164161
 21
468.205577
  0
LINE
  8
CSLAYER1
  6
CONTINUOUS
 62
     5
 10
2283.399590
 20
594.227802
 11
2275.635018
 21
565.250028
  0
LINE
  8
CSLAYER1
  6
CONTINUOUS
 62
     5
 10
2283.399590
 20
594.227802
 11
2291.164161
 21
565.250028
  0
ENDBLK
  8
0
  0
BLOCK
  8
CSLAYER1
  2
*D0001
 70
    65
 10
0.0
 20
0.0
 30
0.0
  0
TEXT
  8
CSLAYER1
 62
     7
 10
2273.399658
 20
828.270874
 40
40.000000
 41
0.843750
  1
545
 50
90.000000
 51
0.000000
  7
EASYDRAW_FONT
 72
     5
 11
2273.399658
 21
918.270874
  0
LINE
  8
CSLAYER1
  6
CONTINUOUS
 62
     5
 10
2149.459898
 20
1152.313826
 11
2395.992797
 21
1152.313826
  0
LINE
  8
CSLAYER1
  6
CONTINUOUS
 62
     5
 10
2283.399590
 20
594.227802
 11
2283.399590
 21
1152.313826
  0
LINE
  8
CSLAYER1
  6
CONTINUOUS
 62
     5
 10
2283.399590
 20
594.227802
 11
2275.635018
 21
623.205577
  0
LINE
  8
CSLAYER1
  6
CONTINUOUS
 62
     5
 10
2283.399590
 20
594.227802
 11
2291.164161
 21
623.205577
  0
LINE
  8
CSLAYER1
  6
CONTINUOUS
 62
     5
 10
2283.399590
 20
1152.313826
 11
2275.635018
 21
1123.336052
  0
LINE
  8
CSLAYER1
  6
CONTINUOUS
 62
     5
 10
2283.399590
 20
1152.313826
 11
2291.164161
 21
1123.336052
  0
ENDBLK
  8
0
  0
BLOCK
  8
CSLAYER1
  2
*D0002
 70
    65
 10
0.0
 20
0.0
 30
0.0
  0
TEXT
  8
CSLAYER1
 62
     7
 10
2375.992920
 20
750.770874
 40
40.000000
 41
0.843750
  1
700
 50
90.000000
 51
0.000000
  7
EASYDRAW_FONT
 72
     5
 11
2375.992920
 21
840.770874
  0
LINE
  8
CSLAYER1
  6
CONTINUOUS
 62
     5
 10
2385.992797
 20
439.227802
 11
2385.992797
 21
1152.313826
  0
LINE
  8
CSLAYER1
  6
CONTINUOUS
 62
     5
 10
2385.992797
 20
439.227802
 11
2378.228225
 21
468.205577
  0
LINE
  8
CSLAYER1
  6
CONTINUOUS
 62
     5
 10
2385.992797
 20
439.227802
 11
2393.757368
 21
468.205577
  0
LINE
  8
CSLAYER1
  6
CONTINUOUS
 62
     5
 10
2385.992797
 20
1152.313826
 11
2378.228225
 21
1123.336052
  0
LINE
  8
CSLAYER1
  6
CONTINUOUS
 62
     5
 10
2385.992797
 20
1152.313826
 11
2393.757368
 21
1123.336052
  0
ENDBLK
  8
0
  0
BLOCK
  8
CSLAYER1
  2
*D0003
 70
    65
 10
0.0
 20
0.0
 30
0.0
  0
TEXT
  8
CSLAYER1
 62
     7
 10
1644.459961
 20
1515.455688
 40
40.000000
 41
0.843750
  1
900
 50
0.000000
 51
0.000000
  7
EASYDRAW_FONT
 72
     5
 11
1734.459961
 21
1515.455688
  0
LINE
  8
CSLAYER1
  6
CONTINUOUS
 62
     5
 10
1239.459898
 20
1597.619873
 11
1239.459898
 21
1495.455600
  0
LINE
  8
CSLAYER1
  6
CONTINUOUS
 62
     5
 10
2139.459898
 20
1597.619873
 11
2139.459898
 21
1495.455600
  0
LINE
  8
CSLAYER1
  6
CONTINUOUS
 62
     5
 10
1239.459898
 20
1505.455600
 11
2139.459898
 21
1505.455600
  0
LINE
  8
CSLAYER1
  6
CONTINUOUS
 62
     5
 10
1239.459898
 20
1505.455600
 11
1268.437672
 21
1513.220172
  0
LINE
  8
CSLAYER1
  6
CONTINUOUS
 62
     5
 10
1239.459898
 20
1505.455600
 11
1268.437672
 21
1497.691029
  0
LINE
  8
CSLAYER1
  6
CONTINUOUS
 62
     5
 10
2139.459898
 20
1505.455600
 11
2110.482123
 21
1513.220172
  0
LINE
  8
CSLAYER1
  6
CONTINUOUS
 62
     5
 10
2139.459898
 20
1505.455600
 11
2110.482123
 21
1497.691029
  0
ENDBLK
  8
0
  0
BLOCK
  8
CSLAYER1
  2
*D0004
 70
    65
 10
0.0
 20
0.0
 30
0.0
  0
TEXT
  8
CSLAYER1
 62
     7
 10
1644.659912
 20
334.130035
 40
40.000000
 41
0.843750
  1
900
 50
0.000000
 51
0.000000
  7
EASYDRAW_FONT
 72
     5
 11
1734.659912
 21
334.130035
  0
LINE
  8
CSLAYER1
  6
CONTINUOUS
 62
     5
 10
1239.659898
 20
429.227802
 11
1239.659898
 21
314.130093
  0
LINE
  8
CSLAYER1
  6
CONTINUOUS
 62
     5
 10
2139.659898
 20
429.227802
 11
2139.659898
 21
314.130093
  0
LINE
  8
CSLAYER1
  6
CONTINUOUS
 62
     5
 10
1239.659898
 20
324.130093
 11
2139.659898
 21
324.130093
  0
LINE
  8
CSLAYER1
  6
CONTINUOUS
 62
     5
 10
1239.659898
 20
324.130093
 11
1268.637672
 21
331.894664
  0
LINE
  8
CSLAYER1
  6
CONTINUOUS
 62
     5
 10
1239.659898
 20
324.130093
 11
1268.637672
 21
316.365522
  0
LINE
  8
CSLAYER1
  6
CONTINUOUS
 62
     5
 10
2139.659898
 20
324.130093
 11
2110.682123
 21
331.894664
  0
LINE
  8
CSLAYER1
  6
CONTINUOUS
 62
     5
 10
2139.659898
 20
324.130093
 11
2110.682123
 21
316.365522
  0
ENDBLK
  8
0
  0
BLOCK
  8
CSLAYER1
  2
*D0005
 70
    65
 10
0.0
 20
0.0
 30
0.0
  0
TEXT
  8
CSLAYER1
 62
     7
 10
524.214478
 20
334.130035
 40
40.000000
 41
0.843750
  1
600
 50
0.000000
 51
0.000000
  7
EASYDRAW_FONT
 72
     5
 11
614.214478
 21
334.130035
  0
LINE
  8
CSLAYER1
  6
CONTINUOUS
 62
     5
 10
269.214472
 20
429.227802
 11
269.214472
 21
314.130093
  0
LINE
  8
CSLAYER1
  6
CONTINUOUS
 62
     5
 10
869.214472
 20
429.227802
 11
869.214472
 21
314.130093
  0
LINE
  8
CSLAYER1
  6
CONTINUOUS
 62
     5
 10
269.214472
 20
324.130093
 11
869.214472
 21
324.130093
  0
LINE
  8
CSLAYER1
  6
CONTINUOUS
 62
     5
 10
269.214472
 20
324.130093
 11
298.192247
 21
331.894664
  0
LINE
  8
CSLAYER1
  6
CONTINUOUS
 62
     5
 10
269.214472
 20
324.130093
 11
298.192247
 21
316.365522
  0
LINE
  8
CSLAYER1
  6
CONTINUOUS
 62
     5
 10
869.214472
 20
324.130093
 11
840.236697
 21
331.894664
  0
LINE
  8
CSLAYER1
  6
CONTINUOUS
 62
     5
 10
869.214472
 20
324.130093
 11
840.236697
 21
316.365522
  0
ENDBLK
  8
0
  0
BLOCK
  8
CSLAYER1
  2
*D0006
 70
    65
 10
0.0
 20
0.0
 30
0.0
  0
TEXT
  8
CSLAYER1
 62
     7
 10
1135.623291
 20
1862.619873
 40
40.000000
 41
0.843750
  1
600
 50
90.000000
 51
0.000000
  7
EASYDRAW_FONT
 72
     5
 11
1135.623291
 21
1952.619873
  0
LINE
  8
CSLAYER1
  6
CONTINUOUS
 62
     5
 10
1229.459898
 20
1607.619873
 11
1135.623239
 21
1607.619873
  0
LINE
  8
CSLAYER1
  6
CONTINUOUS
 62
     5
 10
1229.459898
 20
2207.619873
 11
1135.623239
 21
2207.619873
  0
LINE
  8
CSLAYER1
  6
CONTINUOUS
 62
     5
 10
1145.623239
 20
1607.619873
 11
1145.623239
 21
2207.619873
  0
LINE
  8
CSLAYER1
  6
CONTINUOUS
 62
     5
 10
1145.623239
 20
1607.619873
 11
1137.858668
 21
1636.597648
  0
LINE
  8
CSLAYER1
  6
CONTINUOUS
 62
     5
 10
1145.623239
 20
1607.619873
 11
1153.387811
 21
1636.597648
  0
LINE
  8
CSLAYER1
  6
CONTINUOUS
 62
     5
 10
1145.623239
 20
2207.619873
 11
1137.858668
 21
2178.642098
  0
LINE
  8
CSLAYER1
  6
CONTINUOUS
 62
     5
 10
1145.623239
 20
2207.619873
 11
1153.387811
 21
2178.642098
  0
ENDBLK
  8
0
  0
BLOCK
  8
CSLAYER1
  2
BLKF0000
 70
   64
 10
0.0
 20
0.0
 30
0.0
  0
ARC
  8
CSLAYER1
  6
CONTINUOUS
 62
     5
 10
2781.909508
 20
79.335220
 40
3.549225
 50
6.429109
 51
73.182034
  0
ARC
  8
CSLAYER1
  6
CONTINUOUS
 62
     5
 10
2778.448538
 20
78.176827
 40
6.907754
 50
310.517970
 51
330.092764
  0
ARC
  8
CSLAYER1
  6
CONTINUOUS
 62
     5
 10
2778.387888
 20
78.542345
 40
7.148321
 50
-32.205059
 51
9.585194
  0
ARC
  8
CSLAYER1
  6
CONTINUOUS
 62
     5
 10
2781.680616
 20
75.781346
 40
4.767514
 50
180.000000
 51
218.514150
  0
ARC
  8
CSLAYER1
  6
CONTINUOUS
 62
     5
 10
2780.393895
 20
75.104206
 40
3.348282
 50
222.781148
 51
319.406906
  0
ARC
  8
CSLAYER1
  6
CONTINUOUS
 62
     5
 10
2783.459537
 20
76.194099
 40
6.559434
 50
94.574282
 51
183.607718
  0
LINE
  8
CSLAYER1
  6
CONTINUOUS
 62
     5
 10
2796.903443
 20
71.077266
 11
2796.046407
 21
68.038683
  0
LINE
  8
CSLAYER1
  6
CONTINUOUS
 62
     5
 10
2798.695428
 20
90.944924
 11
2796.591794
 21
93.671857
  0
LINE
  8
CSLAYER1
  6
CONTINUOUS
 62
     5
 10
2796.591794
 20
93.671857
 11
2789.838440
 21
97.429769
  0
LINE
  8
CSLAYER1
  6
CONTINUOUS
 62
     5
 10
2789.838440
 20
97.429769
 11
2782.936412
 21
98.232640
  0
LINE
  8
CSLAYER1
  6
CONTINUOUS
 62
     5
 10
2764.647187
 20
84.853966
 11
2766.793881
 21
89.818197
  0
LINE
  8
CSLAYER1
  6
CONTINUOUS
 62
     5
 10
2766.756884
 20
89.732640
 11
2768.940576
 21
92.367396
  0
LINE
  8
CSLAYER1
  6
CONTINUOUS
 62
     5
 10
2768.940576
 20
92.367396
 11
2772.244998
 21
94.732640
  0
LINE
  8
CSLAYER1
  6
CONTINUOUS
 62
     5
 10
2782.936412
 20
98.232640
 11
2781.418237
 21
97.465795
  0
LINE
  8
CSLAYER1
  6
CONTINUOUS
 62
     5
 10
2781.418237
 20
97.465795
 11
2777.929858
 21
97.465795
  0
LINE
  8
CSLAYER1
  6
CONTINUOUS
 62
     5
 10
2777.929858
 20
97.465795
 11
2774.374396
 21
95.520354
  0
LINE
  8
CSLAYER1
  6
CONTINUOUS
 62
     5
 10
2774.374396
 20
95.520354
 11
2772.244998
 21
94.732640
  0
LINE
  8
CSLAYER1
  6
CONTINUOUS
 62
     5
 10
2764.647187
 20
84.853966
 11
2763.129640
 21
77.305363
  0
LINE
  8
CSLAYER1
  6
CONTINUOUS
 62
     5
 10
2763.129640
 20
77.305363
 11
2762.936412
 21
74.732640
  0
LINE
  8
CSLAYER1
  6
CONTINUOUS
 62
     5
 10
2765.645795
 20
66.892857
 11
2762.936412
 21
72.988969
  0
LINE
  8
CSLAYER1
  6
CONTINUOUS
 62
     5
 10
2762.936412
 20
72.988969
 11
2762.936412
 21
74.732640
  0
LINE
  8
CSLAYER1
  6
CONTINUOUS
 62
     5
 10
2796.046407
 20
68.038683
 11
2794.360620
 21
65.035677
  0
LINE
  8
CSLAYER1
  6
CONTINUOUS
 62
     5
 10
2794.360620
 20
65.035677
 11
2792.936412
 21
63.716966
  0
ARC
  8
CSLAYER1
  6
CONTINUOUS
 62
     5
 10
2780.744468
 20
75.269400
 40
17.266626
 50
208.054813
 51
260.640470
  0
ARC
  8
CSLAYER1
  6
CONTINUOUS
 62
     5
 10
2775.551072
 20
88.011870
 40
29.874611
 50
274.579659
 51
305.587364
  0
ARC
  8
CSLAYER1
  6
CONTINUOUS
 62
     5
 10
2786.523421
 20
82.028147
 40
15.088627
 50
313.467013
 51
331.085078
  0
LINE
  8
CSLAYER1
  6
CONTINUOUS
 62
     5
 10
2801.314754
 20
78.246061
 11
2801.612048
 21
82.028147
  0
LINE
  8
CSLAYER1
  6
CONTINUOUS
 62
     5
 10
2801.612048
 20
82.028147
 11
2800.320051
 21
88.137130
  0
LINE
  8
CSLAYER1
  6
CONTINUOUS
 62
     5
 10
2801.314754
 20
78.246061
 11
2799.731079
 21
74.732640
  0
ARC
  8
CSLAYER1
  6
CONTINUOUS
 62
     5
 10
2786.523421
 20
82.028147
 40
15.088627
 50
23.883193
 51
36.225170
  0
LINE
  8
CSLAYER1
  6
CONTINUOUS
 62
     5
 10
2746.936412
 20
109.732640
 11
2747.936412
 21
110.825284
  0
LINE
  8
CSLAYER1
  6
CONTINUOUS
 62
     5
 10
2746.936412
 20
109.732640
 11
2748.513370
 21
108.287607
  0
LINE
  8
CSLAYER1
  6
CONTINUOUS
 62
     5
 10
2750.052583
 20
106.178315
 11
2750.078851
 21
104.010196
  0
LINE
  8
CSLAYER1
  6
CONTINUOUS
 62
     5
 10
2750.078851
 20
104.010196
 11
2750.286249
 21
103.249737
  0
LINE
  8
CSLAYER1
  6
CONTINUOUS
 62
     5
 10
2750.286249
 20
103.249737
 11
2750.873877
 21
102.523844
  0
LINE
  8
CSLAYER1
  6
CONTINUOUS
 62
     5
 10
2750.873877
 20
102.523844
 11
2751.461504
 21
102.592977
  0
LINE
  8
CSLAYER1
  6
CONTINUOUS
 62
     5
 10
2751.461504
 20
102.592977
 11
2752.083698
 21
102.765808
  0
LINE
  8
CSLAYER1
  6
CONTINUOUS
 62
     5
 10
2752.083698
 20
102.765808
 11
2752.498494
 21
102.592977
  0
LINE
  8
CSLAYER1
  6
CONTINUOUS
 62
     5
 10
2752.498494
 20
102.592977
 11
2753.397219
 21
102.143614
  0
LINE
  8
CSLAYER1
  6
CONTINUOUS
 62
     5
 10
2753.397219
 20
102.143614
 11
2754.173270
 21
101.732640
  0
LINE
  8
CSLAYER1
  6
CONTINUOUS
 62
     5
 10
2754.173270
 20
101.732640
 11
2754.676173
 21
101.763385
  0
LINE
  8
CSLAYER1
  6
CONTINUOUS
 62
     5
 10
2754.676173
 20
101.763385
 11
2757.484045
 21
103.209864
  0
LINE
  8
CSLAYER1
  6
CONTINUOUS
 62
     5
 10
2747.936412
 20
110.825284
 11
2748.269264
 21
112.298991
  0
LINE
  8
CSLAYER1
  6
CONTINUOUS
 62
     5
 10
2748.269264
 20
112.298991
 11
2749.722669
 21
112.449344
  0
LINE
  8
CSLAYER1
  6
CONTINUOUS
 62
     5
 10
2751.216428
 20
115.217802
 11
2752.970601
 21
115.374892
  0
LINE
  8
CSLAYER1
  6
CONTINUOUS
 62
     5
 10
2752.970601
 20
115.374892
 11
2756.505128
 21
116.212706
  0
LINE
  8
CSLAYER1
  6
CONTINUOUS
 62
     5
 10
2756.505128
 20
116.212706
 11
2757.936412
 21
116.544345
  0
LINE
  8
CSLAYER1
  6
CONTINUOUS
 62
     5
 10
2751.216428
 20
115.217802
 11
2749.283537
 21
115.376670
  0
LINE
  8
CSLAYER1
  6
CONTINUOUS
 62
     5
 10
2748.547414
 20
114.507983
 11
2748.640939
 21
114.136822
  0
LINE
  8
CSLAYER1
  6
CONTINUOUS
 62
     5
 10
2748.640939
 20
114.136822
 11
2749.132533
 21
113.599141
  0
LINE
  8
CSLAYER1
  6
CONTINUOUS
 62
     5
 10
2749.132533
 20
113.599141
 11
2749.808475
 21
113.092184
  0
LINE
  8
CSLAYER1
  6
CONTINUOUS
 62
     5
 10
2749.808475
 20
113.092184
 11
2749.931800
 21
112.927751
  0
LINE
  8
CSLAYER1
  6
CONTINUOUS
 62
     5
 10
2748.513370
 20
108.287607
 11
2750.052583
 21
106.178315
  0
ARC
  8
CSLAYER1
  6
CONTINUOUS
 62
     5
 10
2792.923113
 20
-61.926013
 40
180.727463
 50
80.438896
 51
96.353582
  0
ARC
  8
CSLAYER1
  6
CONTINUOUS
 62
     5
 10
2768.024200
 20
83.321887
 40
34.720242
 50
81.866516
 51
106.890578
  0
LINE
  8
CSLAYER1
  6
CONTINUOUS
 62
     5
 10
2827.130674
 20
115.499310
 11
2829.377756
 21
114.477909
  0
LINE
  8
CSLAYER1
  6
CONTINUOUS
 62
     5
 10
2832.952661
 20
112.894737
 11
2829.377756
 21
114.477909
  0
LINE
  8
CSLAYER1
  6
CONTINUOUS
 62
     5
 10
2827.130674
 20
115.499310
 11
2822.936412
 21
116.291881
  0
LINE
  8
CSLAYER1
  6
CONTINUOUS
 62
     5
 10
2832.936412
 20
112.901933
 11
2834.807988
 21
111.333456
  0
LINE
  8
CSLAYER1
  6
CONTINUOUS
 62
     5
 10
2816.179668
 20
113.938783
 11
2817.078943
 21
115.391458
  0
LINE
  8
CSLAYER1
  6
CONTINUOUS
 62
     5
 10
2817.078943
 20
115.391458
 11
2821.754542
 21
114.271949
  0
LINE
  8
CSLAYER1
  6
CONTINUOUS
 62
     5
 10
2821.754542
 20
114.271949
 11
2838.496928
 21
109.732640
  0
LINE
  8
CSLAYER1
  6
CONTINUOUS
 62
     5
 10
2841.436412
 20
109.732640
 11
2834.807988
 21
111.333456
  0
LINE
  8
CSLAYER1
  6
CONTINUOUS
 62
     5
 10
2838.496928
 20
109.732640
 11
2841.436412
 21
109.732640
  0
LINE
  8
CSLAYER1
  6
CONTINUOUS
 62
     5
 10
2782.936412
 20
114.197581
 11
2802.936412
 21
114.732640
  0
LINE
  8
CSLAYER1
  6
CONTINUOUS
 62
     5
 10
2802.936412
 20
114.732640
 11
2816.179668
 21
113.938783
  0
LINE
  8
CSLAYER1
  6
CONTINUOUS
 62
     5
 10
2817.782649
 20
111.878304
 11
2802.936412
 21
113.232640
  0
LINE
  8
CSLAYER1
  6
CONTINUOUS
 62
     5
 10
2802.936412
 20
113.232640
 11
2787.887203
 21
113.641292
  0
LINE
  8
CSLAYER1
  6
CONTINUOUS
 62
     5
 10
2787.936412
 20
113.639956
 11
2782.936412
 21
113.735249
  0
LINE
  8
CSLAYER1
  6
CONTINUOUS
 62
     5
 10
2782.936412
 20
114.197581
 11
2782.936412
 21
113.735249
  0
LINE
  8
CSLAYER1
  6
CONTINUOUS
 62
     5
 10
2840.436412
 20
106.232640
 11
2831.593854
 21
108.543302
  0
LINE
  8
CSLAYER1
  6
CONTINUOUS
 62
     5
 10
2817.782649
 20
111.878304
 11
2827.936412
 21
109.905920
  0
LINE
  8
CSLAYER1
  6
CONTINUOUS
 62
     5
 10
2827.936412
 20
109.905920
 11
2831.593854
 21
108.543302
  0
LINE
  8
CSLAYER1
  6
CONTINUOUS
 62
     5
 10
2840.436412
 20
106.232640
 11
2840.143795
 21
105.393534
  0
LINE
  8
CSLAYER1
  6
CONTINUOUS
 62
     5
 10
2849.936412
 20
100.732640
 11
2849.630385
 21
101.961621
  0
LINE
  8
CSLAYER1
  6
CONTINUOUS
 62
     5
 10
2840.143795
 20
105.393534
 11
2849.630385
 21
101.961621
  0
LINE
  8
CSLAYER1
  6
CONTINUOUS
 62
     5
 10
2786.436412
 20
106.232640
 11
2788.859450
 21
106.232640
  0
LINE
  8
CSLAYER1
  6
CONTINUOUS
 62
     5
 10
2808.936412
 20
106.665135
 11
2808.936412
 21
106.232640
  0
LINE
  8
CSLAYER1
  6
CONTINUOUS
 62
     5
 10
2807.936412
 20
107.199576
 11
2806.225133
 21
107.836755
  0
LINE
  8
CSLAYER1
  6
CONTINUOUS
 62
     5
 10
2806.225133
 20
107.836755
 11
2805.115077
 21
107.887212
  0
LINE
  8
CSLAYER1
  6
CONTINUOUS
 62
     5
 10
2805.115077
 20
107.887212
 11
2804.635735
 21
107.634926
  0
LINE
  8
CSLAYER1
  6
CONTINUOUS
 62
     5
 10
2804.635735
 20
107.634926
 11
2804.534821
 21
107.231270
  0
LINE
  8
CSLAYER1
  6
CONTINUOUS
 62
     5
 10
2804.534821
 20
107.231270
 11
2804.988934
 21
106.928527
  0
LINE
  8
CSLAYER1
  6
CONTINUOUS
 62
     5
 10
2804.988934
 20
106.928527
 11
2806.628790
 21
106.777156
  0
LINE
  8
CSLAYER1
  6
CONTINUOUS
 62
     5
 10
2806.628790
 20
106.777156
 11
2808.936412
 21
106.665135
  0
LINE
  8
CSLAYER1
  6
CONTINUOUS
 62
     5
 10
2849.936412
 20
100.732640
 11
2846.960870
 21
101.919221
  0
LINE
  8
CSLAYER1
  6
CONTINUOUS
 62
     5
 10
2846.960870
 20
101.919221
 11
2836.905180
 21
103.762097
  0
LINE
  8
CSLAYER1
  6
CONTINUOUS
 62
     5
 10
2836.905180
 20
103.762097
 11
2831.879400
 21
104.921892
  0
LINE
  8
CSLAYER1
  6
CONTINUOUS
 62
     5
 10
2809.470633
 20
107.232640
 11
2821.236299
 21
107.232640
  0
LINE
  8
CSLAYER1
  6
CONTINUOUS
 62
     5
 10
2807.936412
 20
107.199576
 11
2808.461072
 21
106.891109
  0
LINE
  8
CSLAYER1
  6
CONTINUOUS
 62
     5
 10
2808.461072
 20
106.891109
 11
2808.757884
 21
106.802065
  0
LINE
  8
CSLAYER1
  6
CONTINUOUS
 62
     5
 10
2808.757884
 20
106.802065
 11
2808.936412
 21
106.827236
  0
LINE
  8
CSLAYER1
  6
CONTINUOUS
 62
     5
 10
2808.936412
 20
106.827236
 11
2809.470633
 21
107.232640
  0
LINE
  8
CSLAYER1
  6
CONTINUOUS
 62
     5
 10
2821.236299
 20
107.232640
 11
2825.686568
 21
106.203814
  0
LINE
  8
CSLAYER1
  6
CONTINUOUS
 62
     5
 10
2825.686568
 20
106.203814
 11
2829.839760
 21
105.038665
  0
LINE
  8
CSLAYER1
  6
CONTINUOUS
 62
     5
 10
2829.839760
 20
105.038665
 11
2831.879400
 21
104.921892
  0
LINE
  8
CSLAYER1
  6
CONTINUOUS
 62
     5
 10
2785.436412
 20
105.232640
 11
2785.436412
 21
104.732640
  0
LINE
  8
CSLAYER1
  6
CONTINUOUS
 62
     5
 10
2782.936412
 20
104.732640
 11
2785.436412
 21
104.732640
  0
ARC
  8
CSLAYER1
  6
CONTINUOUS
 62
     5
 10
2786.436412
 20
105.232640
 40
1.000000
 50
90.000000
 51
180.000000
  0
LINE
  8
CSLAYER1
  6
CONTINUOUS
 62
     5
 10
2788.859450
 20
106.232640
 11
2789.557007
 21
105.660643
  0
LINE
  8
CSLAYER1
  6
CONTINUOUS
 62
     5
 10
2790.159375
 20
105.636683
 11
2791.016972
 21
106.232640
  0
LINE
  8
CSLAYER1
  6
CONTINUOUS
 62
     5
 10
2792.595368
 20
106.232640
 11
2794.262494
 21
105.574564
  0
LINE
  8
CSLAYER1
  6
CONTINUOUS
 62
     5
 10
2794.686203
 20
105.601076
 11
2795.839690
 21
106.232640
  0
LINE
  8
CSLAYER1
  6
CONTINUOUS
 62
     5
 10
2791.016972
 20
106.232640
 11
2792.595368
 21
106.232640
  0
LINE
  8
CSLAYER1
  6
CONTINUOUS
 62
     5
 10
2795.839690
 20
106.232640
 11
2808.936412
 21
106.232640
  0
LINE
  8
CSLAYER1
  6
CONTINUOUS
 62
     5
 10
2761.485395
 20
103.123813
 11
2782.936412
 21
104.732640
  0
LINE
  8
CSLAYER1
  6
CONTINUOUS
 62
     5
 10
2757.484045
 20
103.209864
 11
2761.485395
 21
103.123813
  0
ARC
  8
CSLAYER1
  6
CONTINUOUS
 62
     5
 10
2789.874047
 20
106.047277
 40
0.500000
 50
230.648247
 51
304.796026
  0
ARC
  8
CSLAYER1
  6
CONTINUOUS
 62
     5
 10
2794.446077
 20
106.039642
 40
0.500000
 50
248.459024
 51
298.701829
  0
ARC
  8
CSLAYER1
  6
CONTINUOUS
 62
     5
 10
2749.691800
 20
112.747751
 40
0.300000
 50
-84.093859
 51
36.869898
  0
ARC
  8
CSLAYER1
  6
CONTINUOUS
 62
     5
 10
2749.226196
 20
114.679023
 40
0.700000
 50
85.301319
 51
194.142980
  0
LINE
  8
CSLAYER1
  6
CONTINUOUS
 62
     3
 10
2781.418237
 20
97.465795
 11
2789.528732
 21
97.465795
  0
LINE
  8
CSLAYER1
  6
CONTINUOUS
 62
     3
 10
2775.005720
 20
95.865795
 11
2792.649061
 21
95.865795
  0
LINE
  8
CSLAYER1
  6
CONTINUOUS
 62
     3
 10
2771.592781
 20
94.265795
 11
2795.524426
 21
94.265795
  0
LINE
  8
CSLAYER1
  6
CONTINUOUS
 62
     3
 10
2769.357462
 20
92.665795
 11
2797.367899
 21
92.665795
  0
LINE
  8
CSLAYER1
  6
CONTINUOUS
 62
     3
 10
2767.861806
 20
91.065795
 11
2798.602184
 21
91.065795
  0
LINE
  8
CSLAYER1
  6
CONTINUOUS
 62
     3
 10
2766.641492
 20
89.465795
 11
2799.651561
 21
89.465795
  0
LINE
  8
CSLAYER1
  6
CONTINUOUS
 62
     3
 10
2765.949600
 20
87.865795
 11
2800.377436
 21
87.865795
  0
LINE
  8
CSLAYER1
  6
CONTINUOUS
 62
     3
 10
2765.257708
 20
86.265795
 11
2800.715822
 21
86.265795
  0
LINE
  8
CSLAYER1
  6
CONTINUOUS
 62
     3
 10
2764.609358
 20
84.665795
 11
2801.054208
 21
84.665795
  0
LINE
  8
CSLAYER1
  6
CONTINUOUS
 62
     3
 10
2764.287699
 20
83.065795
 11
2801.392594
 21
83.065795
  0
LINE
  8
CSLAYER1
  6
CONTINUOUS
 62
     3
 10
2763.966040
 20
81.465795
 11
2779.556283
 21
81.465795
  0
LINE
  8
CSLAYER1
  6
CONTINUOUS
 62
     3
 10
2763.644381
 20
79.865795
 11
2778.024022
 21
79.865795
  0
LINE
  8
CSLAYER1
  6
CONTINUOUS
 62
     3
 10
2763.322722
 20
78.265795
 11
2777.235852
 21
78.265795
  0
LINE
  8
CSLAYER1
  6
CONTINUOUS
 62
     3
 10
2763.081604
 20
76.665795
 11
2776.917085
 21
76.665795
  0
LINE
  8
CSLAYER1
  6
CONTINUOUS
 62
     3
 10
2762.961434
 20
75.065795
 11
2776.967106
 21
75.065795
  0
LINE
  8
CSLAYER1
  6
CONTINUOUS
 62
     3
 10
2762.936412
 20
73.465795
 11
2777.513193
 21
73.465795
  0
LINE
  8
CSLAYER1
  6
CONTINUOUS
 62
     3
 10
2763.435600
 20
71.865795
 11
2779.543195
 21
71.865795
  0
LINE
  8
CSLAYER1
  6
CONTINUOUS
 62
     3
 10
2764.146711
 20
70.265795
 11
2796.674567
 21
70.265795
  0
LINE
  8
CSLAYER1
  6
CONTINUOUS
 62
     3
 10
2764.857823
 20
68.665795
 11
2796.223285
 21
68.665795
  0
LINE
  8
CSLAYER1
  6
CONTINUOUS
 62
     3
 10
2765.568934
 20
67.065795
 11
2795.500261
 21
67.065795
  0
LINE
  8
CSLAYER1
  6
CONTINUOUS
 62
     3
 10
2766.530893
 20
65.465795
 11
2794.602074
 21
65.465795
  0
LINE
  8
CSLAYER1
  6
CONTINUOUS
 62
     3
 10
2767.779354
 20
63.865795
 11
2793.097148
 21
63.865795
  0
LINE
  8
CSLAYER1
  6
CONTINUOUS
 62
     3
 10
2769.384774
 20
62.265795
 11
2790.704687
 21
62.265795
  0
LINE
  8
CSLAYER1
  6
CONTINUOUS
 62
     3
 10
2771.531916
 20
60.665795
 11
2787.579564
 21
60.665795
  0
LINE
  8
CSLAYER1
  6
CONTINUOUS
 62
     3
 10
2774.779606
 20
59.065795
 11
2782.941415
 21
59.065795
  0
LINE
  8
CSLAYER1
  6
CONTINUOUS
 62
     3
 10
2784.748107
 20
81.465795
 11
2801.567844
 21
81.465795
  0
LINE
  8
CSLAYER1
  6
CONTINUOUS
 62
     3
 10
2785.418851
 20
79.865795
 11
2801.442074
 21
79.865795
  0
LINE
  8
CSLAYER1
  6
CONTINUOUS
 62
     3
 10
2785.530858
 20
78.265795
 11
2801.316305
 21
78.265795
  0
LINE
  8
CSLAYER1
  6
CONTINUOUS
 62
     3
 10
2785.285501
 20
76.665795
 11
2800.602449
 21
76.665795
  0
LINE
  8
CSLAYER1
  6
CONTINUOUS
 62
     3
 10
2784.633855
 20
75.065795
 11
2799.881249
 21
75.065795
  0
LINE
  8
CSLAYER1
  6
CONTINUOUS
 62
     3
 10
2783.500592
 20
73.465795
 11
2798.947301
 21
73.465795
  0
LINE
  8
CSLAYER1
  6
CONTINUOUS
 62
     3
 10
2781.244595
 20
71.865795
 11
2797.676594
 21
71.865795
  0
TEXT
  8
CSLAYER1
 62
     5
 10
2802.108183
 20
79.476970
 40
4.713448
 41
1.951056
  1
M
 50
0.000000
 51
0.000000
  7
EASYDRAW_FONT
 72
     5
 11
2808.238985
 21
79.476970
  0
TEXT
  8
CSLAYER1
 62
     5
 10
2811.759570
 20
79.418700
 40
4.626621
 41
0.778201
  1
T
 50
0.000000
 51
0.000000
  7
EASYDRAW_FONT
 72
     5
 11
2814.159863
 21
79.418700
  0
TEXT
  8
CSLAYER1
 62
     5
 10
2814.525133
 20
79.453499
 40
4.696183
 41
1.055553
  1
E
 50
0.000000
 51
0.000000
  7
EASYDRAW_FONT
 72
     5
 11
2817.829848
 21
79.453499
  0
TEXT
  8
CSLAYER1
 62
     5
 10
2817.641314
 20
81.069343
 40
0.348283
 41
9.375319
  1
-
 50
0.000000
 51
0.000000
  7
EASYDRAW_FONT
 72
     5
 11
2819.818159
 21
81.069343
  0
TEXT
  8
CSLAYER1
 62
     5
 10
2819.455523
 20
79.422152
 40
4.861659
 41
1.298502
  1
H
 50
0.000000
 51
0.000000
  7
EASYDRAW_FONT
 72
     5
 11
2823.664106
 21
79.422152
  0
TEXT
  8
CSLAYER1
 62
     5
 10
2823.531538
 20
79.452530
 40
4.843139
 41
1.269236
  1
A
 50
0.000000
 51
0.000000
  7
EASYDRAW_FONT
 72
     5
 11
2827.629595
 21
79.452530
  0
TEXT
  8
CSLAYER1
 62
     5
 10
2827.237694
 20
79.411004
 40
4.825362
 41
1.490144
  1
N
 50
0.000000
 51
0.000000
  7
EASYDRAW_FONT
 72
     5
 11
2832.031349
 21
79.411004
  0
TEXT
  8
CSLAYER1
 62
     5
 10
2808.029152
 20
79.388431
 40
4.982325
 41
1.177443
  1
A
 50
0.000000
 51
0.000000
  7
EASYDRAW_FONT
 72
     5
 11
2811.940086
 21
79.388431
  0
TEXT
  8
CSLAYER1
 62
     5
 10
2802.475197
 20
72.393191
 40
4.982325
 41
1.177443
  1
A
 50
0.000000
 51
0.000000
  7
EASYDRAW_FONT
 72
     5
 11
2806.386131
 21
72.393191
  0
TEXT
  8
CSLAYER1
 62
     5
 10
2815.259621
 20
72.421512
 40
4.982325
 41
1.177443
  1
A
 50
0.000000
 51
0.000000
  7
EASYDRAW_FONT
 72
     5
 11
2819.170555
 21
72.421512
  0
TEXT
  8
CSLAYER1
 62
     5
 10
2819.020165
 20
72.478509
 40
4.825362
 41
1.490144
  1
N
 50
0.000000
 51
0.000000
  7
EASYDRAW_FONT
 72
     5
 11
2823.813819
 21
72.478509
  0
TEXT
  8
CSLAYER1
 62
     5
 10
2827.922501
 20
72.486903
 40
4.841775
 41
1.184218
  1
E
 50
0.000000
 51
0.000000
  7
EASYDRAW_FONT
 72
     5
 11
2831.744980
 21
72.486903
  0
TEXT
  8
CSLAYER1
 62
     5
 10
2806.755750
 20
72.391867
 40
4.947865
 41
1.093992
  1
D
 50
0.000000
 51
0.000000
  7
EASYDRAW_FONT
 72
     5
 11
2810.364367
 21
72.391867
  0
TEXT
  8
CSLAYER1
 62
     5
 10
2811.158109
 20
72.386482
 40
4.924210
 41
1.228195
  1
V
 50
0.000000
 51
0.000000
  7
EASYDRAW_FONT
 72
     5
 11
2815.190036
 21
72.386482
  0
TEXT
  8
CSLAYER1
 62
     5
 10
2823.383310
 20
72.407213
 40
5.032894
 41
1.481023
  1
C
 50
0.000000
 51
0.000000
  7
EASYDRAW_FONT
 72
     5
 11
2828.352530
 21
72.407213
  0
LINE
  8
CSLAYER1
  6
CONTINUOUS
 62
     5
 10
2814.013749
 20
83.467612
 11
2813.001687
 21
83.467612
  0
LINE
  8
CSLAYER1
  6
CONTINUOUS
 62
     3
 10
2763.111987
 20
117.692883
 11
2812.909813
 21
117.692883
  0
LINE
  8
CSLAYER1
  6
CONTINUOUS
 62
     3
 10
2755.999623
 20
116.092883
 11
2823.989505
 21
116.092883
  0
LINE
  8
CSLAYER1
  6
CONTINUOUS
 62
     3
 10
2748.551219
 20
114.492883
 11
2793.974529
 21
114.492883
  0
LINE
  8
CSLAYER1
  6
CONTINUOUS
 62
     3
 10
2806.936079
 20
114.492883
 11
2816.522682
 21
114.492883
  0
LINE
  8
CSLAYER1
  6
CONTINUOUS
 62
     3
 10
2820.831816
 20
114.492883
 11
2829.344813
 21
114.492883
  0
LINE
  8
CSLAYER1
  6
CONTINUOUS
 62
     3
 10
2749.954358
 20
112.892883
 11
2806.660827
 21
112.892883
  0
LINE
  8
CSLAYER1
  6
CONTINUOUS
 62
     3
 10
2826.840965
 20
112.892883
 11
2832.947211
 21
112.892883
  0
LINE
  8
CSLAYER1
  6
CONTINUOUS
 62
     3
 10
2748.042024
 20
111.292883
 11
2820.796375
 21
111.292883
  0
LINE
  8
CSLAYER1
  6
CONTINUOUS
 62
     3
 10
2832.742264
 20
111.292883
 11
2834.975986
 21
111.292883
  0
LINE
  8
CSLAYER1
  6
CONTINUOUS
 62
     3
 10
2746.979799
 20
109.692883
 11
2828.508231
 21
109.692883
  0
LINE
  8
CSLAYER1
  6
CONTINUOUS
 62
     3
 10
2748.655466
 20
108.092883
 11
2833.317540
 21
108.092883
  0
LINE
  8
CSLAYER1
  6
CONTINUOUS
 62
     3
 10
2749.823033
 20
106.492883
 11
2808.936412
 21
106.492883
  0
LINE
  8
CSLAYER1
  6
CONTINUOUS
 62
     3
 10
2824.436177
 20
106.492883
 11
2839.440500
 21
106.492883
  0
LINE
  8
CSLAYER1
  6
CONTINUOUS
 62
     3
 10
2750.068157
 20
104.892883
 11
2785.436412
 21
104.892883
  0
LINE
  8
CSLAYER1
  6
CONTINUOUS
 62
     3
 10
2832.005106
 20
104.892883
 11
2841.527709
 21
104.892883
  0
LINE
  8
CSLAYER1
  6
CONTINUOUS
 62
     3
 10
2750.274482
 20
103.292883
 11
2763.739655
 21
103.292883
  0
LINE
  8
CSLAYER1
  6
CONTINUOUS
 62
     3
 10
2839.465455
 20
103.292883
 11
2845.950473
 21
103.292883
  0
LINE
  8
CSLAYER1
  6
CONTINUOUS
 62
     3
 10
2847.528449
 20
101.692883
 11
2849.697303
 21
101.692883
  0
ENDBLK
  8
0
  0
BLOCK
  8
CSLAYER1
  2
BLKF0001
 70
   64
 10
0.0
 20
0.0
 30
0.0
  0
CIRCLE
  8
CSLAYER1
  6
CONTINUOUS
 62
     4
 10
1563.519597
 20
767.670814
 40
12.000000
  0
LINE
  8
CSLAYER1
  6
CONTINUOUS
 62
     4
 10
1570.447801
 20
779.670814
 11
1556.591394
 21
779.670814
  0
LINE
  8
CSLAYER1
  6
CONTINUOUS
 62
     4
 10
1556.591394
 20
779.670814
 11
1549.663191
 21
767.670814
  0
LINE
  8
CSLAYER1
  6
CONTINUOUS
 62
     4
 10
1549.663191
 20
767.670814
 11
1556.591394
 21
755.670814
  0
LINE
  8
CSLAYER1
  6
CONTINUOUS
 62
     4
 10
1556.591394
 20
755.670814
 11
1570.447801
 21
755.670814
  0
LINE
  8
CSLAYER1
  6
CONTINUOUS
 62
     4
 10
1570.447801
 20
755.670814
 11
1577.376004
 21
767.670814
  0
LINE
  8
CSLAYER1
  6
CONTINUOUS
 62
     4
 10
1577.376004
 20
767.670814
 11
1570.447801
 21
779.670814
  0
CIRCLE
  8
CSLAYER1
  6
CONTINUOUS
 62
     5
 10
1563.519597
 20
767.670814
 40
8.000000
  0
CIRCLE
  8
CSLAYER1
  6
CONTINUOUS
 62
     4
 10
1563.519597
 20
767.670814
 40
7.000000
  0
POINT
  8
CSLAYER1
 62
     4
 10
1563.519597
 20
767.670814
  0
ENDBLK
  8
0
  0
BLOCK
  8
CSLAYER1
  2
BLKF0002
 70
   64
 10
0.0
 20
0.0
 30
0.0
  0
LINE
  8
CSLAYER1
  6
CONTINUOUS
 62
     5
 10
828.414472
 20
752.670814
 11
828.414472
 21
782.670814
  0
LINE
  8
CSLAYER1
  6
CONTINUOUS
 62
     4
 10
825.214472
 20
782.670814
 11
828.414472
 21
782.670814
  0
LINE
  8
CSLAYER1
  6
CONTINUOUS
 62
     4
 10
825.214472
 20
752.670814
 11
828.414472
 21
752.670814
  0
LINE
  8
CSLAYER1
  6
CONTINUOUS
 62
     4
 10
825.214472
 20
782.670814
 11
825.214472
 21
752.670814
  0
LINE
  8
CSLAYER1
  6
CONTINUOUS
 62
     4
 10
832.414472
 20
753.670814
 11
832.414472
 21
781.670814
  0
LINE
  8
CSLAYER1
  6
CONTINUOUS
 62
     4
 10
828.414472
 20
753.670814
 11
832.414472
 21
753.670814
  0
LINE
  8
CSLAYER1
  6
CONTINUOUS
 62
     4
 10
828.414472
 20
781.670814
 11
832.414472
 21
781.670814
  0
LINE
  8
CSLAYER1
  6
CONTINUOUS
 62
     4
 10
842.414472
 20
755.670814
 11
842.414472
 21
779.670814
  0
LINE
  8
CSLAYER1
  6
CONTINUOUS
 62
     4
 10
825.214472
 20
782.670814
 11
825.214472
 21
752.670814
  0
LINE
  8
CSLAYER1
  6
CONTINUOUS
 62
     4
 10
828.414472
 20
782.670814
 11
828.414472
 21
752.670814
  0
LINE
  8
CSLAYER1
  6
CONTINUOUS
 62
     4
 10
844.214472
 20
774.670814
 11
844.214472
 21
760.670814
  0
LINE
  8
CSLAYER1
  6
CONTINUOUS
 62
     4
 10
843.214472
 20
759.670814
 11
842.414472
 21
759.670814
  0
LINE
  8
CSLAYER1
  6
CONTINUOUS
 62
     5
 10
844.214472
 20
760.670814
 11
842.414472
 21
760.670814
  0
LINE
  8
CSLAYER1
  6
CONTINUOUS
 62
     4
 10
843.214472
 20
759.670814
 11
844.214472
 21
760.670814
  0
LINE
  8
CSLAYER1
  6
CONTINUOUS
 62
     4
 10
843.214472
 20
759.670814
 11
843.214472
 21
775.670814
  0
LINE
  8
CSLAYER1
  6
CONTINUOUS
 62
     4
 10
832.414472
 20
753.814408
 11
841.342675
 21
753.814408
  0
LINE
  8
CSLAYER1
  6
CONTINUOUS
 62
     4
 10
832.414472
 20
760.742611
 11
841.342675
 21
760.742611
  0
LINE
  8
CSLAYER1
  6
CONTINUOUS
 62
     4
 10
842.414472
 20
755.670814
 11
841.342675
 21
753.814408
  0
ARC
  8
CSLAYER1
  6
CONTINUOUS
 62
     4
 10
819.486269
 20
767.670814
 40
22.928203
 50
342.412046
 51
360.000000
  0
ARC
  8
CSLAYER1
  6
CONTINUOUS
 62
     4
 10
836.570601
 20
757.278510
 40
5.896837
 50
-24.023685
 51
35.976315
  0
LINE
  8
CSLAYER1
  6
CONTINUOUS
 62
     4
 10
842.414472
 20
779.670814
 11
842.414472
 21
755.670814
  0
LINE
  8
CSLAYER1
  6
CONTINUOUS
 62
     3
 10
844.214472
 20
760.670814
 11
844.214472
 21
774.670814
  0
LINE
  8
CSLAYER1
  6
CONTINUOUS
 62
     4
 10
843.214472
 20
775.670814
 11
842.414472
 21
775.670814
  0
LINE
  8
CSLAYER1
  6
CONTINUOUS
 62
     5
 10
844.214472
 20
774.670814
 11
842.414472
 21
774.670814
  0
LINE
  8
CSLAYER1
  6
CONTINUOUS
 62
     4
 10
843.214472
 20
775.670814
 11
844.214472
 21
774.670814
  0
LINE
  8
CSLAYER1
  6
CONTINUOUS
 62
     3
 10
843.214472
 20
775.670814
 11
843.214472
 21
759.670814
  0
LINE
  8
CSLAYER1
  6
CONTINUOUS
 62
     4
 10
832.414472
 20
781.527221
 11
841.342675
 21
781.527221
  0
LINE
  8
CSLAYER1
  6
CONTINUOUS
 62
     4
 10
832.414472
 20
774.599018
 11
841.342675
 21
774.599018
  0
LINE
  8
CSLAYER1
  6
CONTINUOUS
 62
     4
 10
842.414472
 20
779.670814
 11
841.342675
 21
781.527221
  0
ARC
  8
CSLAYER1
  6
CONTINUOUS
 62
     4
 10
819.486269
 20
767.670814
 40
22.928203
 50
0.000000
 51
17.587954
  0
ARC
  8
CSLAYER1
  6
CONTINUOUS
 62
     4
 10
836.570601
 20
778.063119
 40
5.896837
 50
-35.976315
 51
24.023685
  0
LINE
  8
CSLAYER1
  6
CONTINUOUS
 62
     4
 10
828.414472
 20
770.471597
 11
832.414472
 21
765.071597
  0
POINT
  8
CSLAYER1
 62
     7
 10
825.214472
 20
767.670814
  0
ENDBLK
  8
0
  0
BLOCK
  8
CSLAYER1
  2
BLKF0003
 70
   64
 10
0.0
 20
0.0
 30
0.0
  0
LINE
  8
CSLAYER1
  6
CONTINUOUS
 62
     5
 10
310.014472
 20
752.670814
 11
310.014472
 21
782.670814
  0
LINE
  8
CSLAYER1
  6
CONTINUOUS
 62
     4
 10
313.214472
 20
782.670814
 11
310.014472
 21
782.670814
  0
LINE
  8
CSLAYER1
  6
CONTINUOUS
 62
     4
 10
313.214472
 20
752.670814
 11
310.014472
 21
752.670814
  0
LINE
  8
CSLAYER1
  6
CONTINUOUS
 62
     4
 10
313.214472
 20
782.670814
 11
313.214472
 21
752.670814
  0
LINE
  8
CSLAYER1
  6
CONTINUOUS
 62
     4
 10
306.014472
 20
753.670814
 11
306.014472
 21
781.670814
  0
LINE
  8
CSLAYER1
  6
CONTINUOUS
 62
     4
 10
310.014472
 20
753.670814
 11
306.014472
 21
753.670814
  0
LINE
  8
CSLAYER1
  6
CONTINUOUS
 62
     4
 10
310.014472
 20
781.670814
 11
306.014472
 21
781.670814
  0
LINE
  8
CSLAYER1
  6
CONTINUOUS
 62
     4
 10
296.014472
 20
755.670814
 11
296.014472
 21
779.670814
  0
LINE
  8
CSLAYER1
  6
CONTINUOUS
 62
     4
 10
313.214472
 20
782.670814
 11
313.214472
 21
752.670814
  0
LINE
  8
CSLAYER1
  6
CONTINUOUS
 62
     4
 10
310.014472
 20
782.670814
 11
310.014472
 21
752.670814
  0
LINE
  8
CSLAYER1
  6
CONTINUOUS
 62
     4
 10
294.214472
 20
774.670814
 11
294.214472
 21
760.670814
  0
LINE
  8
CSLAYER1
  6
CONTINUOUS
 62
     4
 10
295.214472
 20
759.670814
 11
296.014472
 21
759.670814
  0
LINE
  8
CSLAYER1
  6
CONTINUOUS
 62
     5
 10
294.214472
 20
760.670814
 11
296.014472
 21
760.670814
  0
LINE
  8
CSLAYER1
  6
CONTINUOUS
 62
     4
 10
295.214472
 20
759.670814
 11
294.214472
 21
760.670814
  0
LINE
  8
CSLAYER1
  6
CONTINUOUS
 62
     4
 10
295.214472
 20
759.670814
 11
295.214472
 21
775.670814
  0
LINE
  8
CSLAYER1
  6
CONTINUOUS
 62
     4
 10
306.014472
 20
753.814408
 11
297.086269
 21
753.814408
  0
LINE
  8
CSLAYER1
  6
CONTINUOUS
 62
     4
 10
306.014472
 20
760.742611
 11
297.086269
 21
760.742611
  0
LINE
  8
CSLAYER1
  6
CONTINUOUS
 62
     4
 10
296.014472
 20
755.670814
 11
297.086269
 21
753.814408
  0
ARC
  8
CSLAYER1
  6
CONTINUOUS
 62
     4
 10
318.942675
 20
767.670814
 40
22.928203
 50
180.000000
 51
197.587954
  0
ARC
  8
CSLAYER1
  6
CONTINUOUS
 62
     4
 10
301.858343
 20
757.278510
 40
5.896837
 50
144.023685
 51
204.023685
  0
LINE
  8
CSLAYER1
  6
CONTINUOUS
 62
     4
 10
296.014472
 20
779.670814
 11
296.014472
 21
755.670814
  0
LINE
  8
CSLAYER1
  6
CONTINUOUS
 62
     3
 10
294.214472
 20
760.670814
 11
294.214472
 21
774.670814
  0
LINE
  8
CSLAYER1
  6
CONTINUOUS
 62
     4
 10
295.214472
 20
775.670814
 11
296.014472
 21
775.670814
  0
LINE
  8
CSLAYER1
  6
CONTINUOUS
 62
     5
 10
294.214472
 20
774.670814
 11
296.014472
 21
774.670814
  0
LINE
  8
CSLAYER1
  6
CONTINUOUS
 62
     4
 10
295.214472
 20
775.670814
 11
294.214472
 21
774.670814
  0
LINE
  8
CSLAYER1
  6
CONTINUOUS
 62
     3
 10
295.214472
 20
775.670814
 11
295.214472
 21
759.670814
  0
LINE
  8
CSLAYER1
  6
CONTINUOUS
 62
     4
 10
306.014472
 20
781.527221
 11
297.086269
 21
781.527221
  0
LINE
  8
CSLAYER1
  6
CONTINUOUS
 62
     4
 10
306.014472
 20
774.599018
 11
297.086269
 21
774.599018
  0
LINE
  8
CSLAYER1
  6
CONTINUOUS
 62
     4
 10
296.014472
 20
779.670814
 11
297.086269
 21
781.527221
  0
ARC
  8
CSLAYER1
  6
CONTINUOUS
 62
     4
 10
318.942675
 20
767.670814
 40
22.928203
 50
162.412046
 51
180.000000
  0
ARC
  8
CSLAYER1
  6
CONTINUOUS
 62
     4
 10
301.858343
 20
778.063119
 40
5.896837
 50
155.976315
 51
215.976315
  0
LINE
  8
CSLAYER1
  6
CONTINUOUS
 62
     4
 10
310.014472
 20
770.471597
 11
306.014472
 21
765.071597
  0
POINT
  8
CSLAYER1
 62
     7
 10
313.214472
 20
767.670814
  0
ENDBLK
  8
0
  0
BLOCK
  8
CSLAYER1
  2
BLKF0004
 70
   64
 10
0.0
 20
0.0
 30
0.0
  0
LINE
  8
CSLAYER1
  6
CONTINUOUS
 62
     3
 10
2148.088883
 20
1886.119873
 11
2148.088883
 21
1877.619873
  0
LINE
  8
CSLAYER1
  6
CONTINUOUS
 62
     3
 10
2144.119317
 20
1890.610254
 11
2139.459898
 21
1890.610254
  0
LINE
  8
CSLAYER1
  6
CONTINUOUS
 62
     3
 10
2144.979788
 20
1889.119873
 11
2144.979788
 21
1877.619873
  0
LINE
  8
CSLAYER1
  6
CONTINUOUS
 62
     3
 10
2144.979788
 20
1889.119873
 11
2144.119317
 21
1890.610254
  0
LINE
  8
CSLAYER1
  6
CONTINUOUS
 62
     3
 10
2144.119317
 20
1884.259401
 11
2139.459898
 21
1884.259401
  0
ARC
  8
CSLAYER1
  6
CONTINUOUS
 62
     3
 10
2118.933764
 20
1877.619873
 40
26.046025
 50
0.000000
 51
14.768561
  0
ARC
  8
CSLAYER1
  6
CONTINUOUS
 62
     3
 10
2138.848195
 20
1887.434828
 40
6.153702
 50
-31.065581
 51
23.174644
  0
LINE
  8
CSLAYER1
  6
CONTINUOUS
 62
     3
 10
2145.088883
 20
1889.119873
 11
2144.979788
 21
1889.119873
  0
ARC
  8
CSLAYER1
  6
CONTINUOUS
 62
     3
 10
2145.088883
 20
1886.119873
 40
3.000000
 50
0.000000
 51
90.000000
  0
LINE
  8
CSLAYER1
  6
CONTINUOUS
 62
     3
 10
2148.088883
 20
1869.119873
 11
2148.088883
 21
1877.619873
  0
LINE
  8
CSLAYER1
  6
CONTINUOUS
 62
     3
 10
2144.119317
 20
1864.629492
 11
2139.459898
 21
1864.629492
  0
LINE
  8
CSLAYER1
  6
CONTINUOUS
 62
     3
 10
2144.979788
 20
1866.119873
 11
2144.979788
 21
1877.619873
  0
LINE
  8
CSLAYER1
  6
CONTINUOUS
 62
     3
 10
2144.979788
 20
1866.119873
 11
2144.119317
 21
1864.629492
  0
LINE
  8
CSLAYER1
  6
CONTINUOUS
 62
     3
 10
2144.119317
 20
1870.980345
 11
2139.459898
 21
1870.980345
  0
ARC
  8
CSLAYER1
  6
CONTINUOUS
 62
     3
 10
2118.933764
 20
1877.619873
 40
26.046025
 50
-14.768561
 51
0.000000
  0
ARC
  8
CSLAYER1
  6
CONTINUOUS
 62
     3
 10
2138.848195
 20
1867.804918
 40
6.153702
 50
-23.174644
 51
31.065581
  0
LINE
  8
CSLAYER1
  6
CONTINUOUS
 62
     3
 10
2145.088883
 20
1866.119873
 11
2144.979788
 21
1866.119873
  0
ARC
  8
CSLAYER1
  6
CONTINUOUS
 62
     3
 10
2145.088883
 20
1869.119873
 40
3.000000
 50
270.000000
 51
360.000000
  0
LINE
  8
CSLAYER1
  6
CENTER
 62
     5
 10
2154.960661
 20
1877.619873
 11
2139.459898
 21
1877.619873
  0
LINE
  8
CSLAYER1
  6
CONTINUOUS
 62
     3
 10
2148.088883
 20
1851.119873
 11
2148.088883
 21
1842.619873
  0
LINE
  8
CSLAYER1
  6
CONTINUOUS
 62
     3
 10
2144.119317
 20
1855.610254
 11
2139.459898
 21
1855.610254
  0
LINE
  8
CSLAYER1
  6
CONTINUOUS
 62
     3
 10
2144.979788
 20
1854.119873
 11
2144.979788
 21
1842.619873
  0
LINE
  8
CSLAYER1
  6
CONTINUOUS
 62
     3
 10
2144.979788
 20
1854.119873
 11
2144.119317
 21
1855.610254
  0
LINE
  8
CSLAYER1
  6
CONTINUOUS
 62
     3
 10
2144.119317
 20
1849.259401
 11
2139.459898
 21
1849.259401
  0
ARC
  8
CSLAYER1
  6
CONTINUOUS
 62
     3
 10
2118.933764
 20
1842.619873
 40
26.046025
 50
0.000000
 51
14.768561
  0
ARC
  8
CSLAYER1
  6
CONTINUOUS
 62
     3
 10
2138.848195
 20
1852.434828
 40
6.153702
 50
-31.065581
 51
23.174644
  0
LINE
  8
CSLAYER1
  6
CONTINUOUS
 62
     3
 10
2145.088883
 20
1854.119873
 11
2144.979788
 21
1854.119873
  0
ARC
  8
CSLAYER1
  6
CONTINUOUS
 62
     3
 10
2145.088883
 20
1851.119873
 40
3.000000
 50
0.000000
 51
90.000000
  0
LINE
  8
CSLAYER1
  6
CONTINUOUS
 62
     3
 10
2148.088883
 20
1834.119873
 11
2148.088883
 21
1842.619873
  0
LINE
  8
CSLAYER1
  6
CONTINUOUS
 62
     3
 10
2144.119317
 20
1829.629492
 11
2139.459898
 21
1829.629492
  0
LINE
  8
CSLAYER1
  6
CONTINUOUS
 62
     3
 10
2144.979788
 20
1831.119873
 11
2144.979788
 21
1842.619873
  0
LINE
  8
CSLAYER1
  6
CONTINUOUS
 62
     3
 10
2144.979788
 20
1831.119873
 11
2144.119317
 21
1829.629492
  0
LINE
  8
CSLAYER1
  6
CONTINUOUS
 62
     3
 10
2144.119317
 20
1835.980345
 11
2139.459898
 21
1835.980345
  0
ARC
  8
CSLAYER1
  6
CONTINUOUS
 62
     3
 10
2118.933764
 20
1842.619873
 40
26.046025
 50
-14.768561
 51
0.000000
  0
ARC
  8
CSLAYER1
  6
CONTINUOUS
 62
     3
 10
2138.848195
 20
1832.804918
 40
6.153702
 50
-23.174644
 51
31.065581
  0
LINE
  8
CSLAYER1
  6
CONTINUOUS
 62
     3
 10
2145.088883
 20
1831.119873
 11
2144.979788
 21
1831.119873
  0
ARC
  8
CSLAYER1
  6
CONTINUOUS
 62
     3
 10
2145.088883
 20
1834.119873
 40
3.000000
 50
270.000000
 51
360.000000
  0
LINE
  8
CSLAYER1
  6
CENTER
 62
     5
 10
2153.621031
 20
1842.619873
 11
2139.459898
 21
1842.619873
  0
ENDBLK
  8
0
  0
BLOCK
  8
CSLAYER1
  2
BLKF0005
 70
   64
 10
0.0
 20
0.0
 30
0.0
  0
LINE
  8
CSLAYER1
  6
CONTINUOUS
 62
     3
 10
1736.259898
 20
1107.313826
 11
1736.259898
 21
1093.113826
  0
LINE
  8
CSLAYER1
  6
CONTINUOUS
 62
     3
 10
1739.259898
 20
1090.113826
 11
2133.259898
 21
1090.113826
  0
LINE
  8
CSLAYER1
  6
CONTINUOUS
 62
     3
 10
2136.259898
 20
1107.313826
 11
2136.259898
 21
1093.113826
  0
LINE
  8
CSLAYER1
  6
CONTINUOUS
 62
     3
 10
2139.459898
 20
1152.313826
 11
2139.459898
 21
1107.313826
  0
LINE
  8
CSLAYER1
  6
CONTINUOUS
 62
     3
 10
1736.259898
 20
1093.113826
 11
1739.259898
 21
1090.113826
  0
LINE
  8
CSLAYER1
  6
CONTINUOUS
 62
     3
 10
2133.259898
 20
1090.113826
 11
2136.259898
 21
1093.113826
  0
LINE
  8
CSLAYER1
  6
CONTINUOUS
 62
     3
 10
1239.459898
 20
1152.313826
 11
2139.459898
 21
1152.313826
  0
LINE
  8
CSLAYER1
  6
CONTINUOUS
 62
     3
 10
1239.659898
 20
1107.313826
 11
2139.459898
 21
1107.313826
  0
POINT
  8
CSLAYER1
 62
     3
 10
1273.659898
 20
1071.613826
  0
CIRCLE
  8
CSLAYER1
  6
CONTINUOUS
 62
     3
 10
1273.659898
 20
1071.613826
 40
9.500000
  0
LINE
  8
CSLAYER1
  6
CONTINUOUS
 62
     3
 10
1279.144725
 20
1081.113826
 11
1268.175070
 21
1081.113826
  0
LINE
  8
CSLAYER1
  6
CONTINUOUS
 62
     3
 10
1268.175070
 20
1081.113826
 11
1262.690243
 21
1071.613826
  0
LINE
  8
CSLAYER1
  6
CONTINUOUS
 62
     3
 10
1262.690243
 20
1071.613826
 11
1268.175070
 21
1062.113826
  0
LINE
  8
CSLAYER1
  6
CONTINUOUS
 62
     3
 10
1268.175070
 20
1062.113826
 11
1279.144725
 21
1062.113826
  0
LINE
  8
CSLAYER1
  6
CONTINUOUS
 62
     3
 10
1279.144725
 20
1062.113826
 11
1284.629553
 21
1071.613826
  0
LINE
  8
CSLAYER1
  6
CONTINUOUS
 62
     3
 10
1284.629553
 20
1071.613826
 11
1279.144725
 21
1081.113826
  0
CIRCLE
  8
CSLAYER1
  6
CONTINUOUS
 62
     3
 10
1273.659898
 20
1071.613826
 40
8.650000
  0
CIRCLE
  8
CSLAYER1
  6
CONTINUOUS
 62
     3
 10
1273.659898
 20
1071.613826
 40
5.000000
  0
CIRCLE
  8
CSLAYER1
  6
CONTINUOUS
 62
     3
 10
1273.659898
 20
1071.613826
 40
9.500000
  0
LINE
  8
CSLAYER1
  6
CONTINUOUS
 62
     3
 10
1242.659898
 20
1107.313826
 11
1242.659898
 21
1065.113826
  0
LINE
  8
CSLAYER1
  6
CONTINUOUS
 62
     3
 10
1282.659898
 20
1055.113826
 11
1252.659898
 21
1055.113826
  0
LINE
  8
CSLAYER1
  6
CONTINUOUS
 62
     3
 10
1292.659898
 20
1107.313826
 11
1292.659898
 21
1065.113826
  0
LINE
  8
CSLAYER1
  6
CONTINUOUS
 62
     3
 10
1242.659898
 20
1107.313826
 11
1239.459898
 21
1107.313826
  0
LINE
  8
CSLAYER1
  6
CONTINUOUS
 62
     3
 10
1239.459898
 20
1152.313826
 11
1239.459898
 21
1107.313826
  0
ARC
  8
CSLAYER1
  6
CONTINUOUS
 62
     3
 10
1252.659898
 20
1065.113826
 40
10.000000
 50
180.000000
 51
270.000000
  0
ARC
  8
CSLAYER1
  6
CONTINUOUS
 62
     3
 10
1282.659898
 20
1065.113826
 40
10.000000
 50
270.000000
 51
360.000000
  0
POINT
  8
CSLAYER1
 62
     7
 10
1273.659898
 20
1071.613826
  0
ENDBLK
  8
0
  0
BLOCK
  8
CSLAYER1
  2
BLKF0006
 70
   64
 10
0.0
 20
0.0
 30
0.0
  0
LINE
  8
CSLAYER1
  6
PHANTOM
 62
     5
 10
1736.259898
 20
549.227802
 11
1736.259898
 21
535.027802
  0
LINE
  8
CSLAYER1
  6
PHANTOM
 62
     5
 10
1739.259898
 20
532.027802
 11
2133.259898
 21
532.027802
  0
LINE
  8
CSLAYER1
  6
PHANTOM
 62
     5
 10
2136.259898
 20
549.227802
 11
2136.259898
 21
535.027802
  0
LINE
  8
CSLAYER1
  6
PHANTOM
 62
     5
 10
2139.459898
 20
594.227802
 11
2139.459898
 21
549.227802
  0
LINE
  8
CSLAYER1
  6
PHANTOM
 62
     5
 10
1736.259898
 20
535.027802
 11
1739.259898
 21
532.027802
  0
LINE
  8
CSLAYER1
  6
PHANTOM
 62
     5
 10
2133.259898
 20
532.027802
 11
2136.259898
 21
535.027802
  0
LINE
  8
CSLAYER1
  6
PHANTOM
 62
     5
 10
1239.459898
 20
594.227802
 11
2139.459898
 21
594.227802
  0
LINE
  8
CSLAYER1
  6
PHANTOM
 62
     5
 10
1239.659898
 20
549.227802
 11
2139.459898
 21
549.227802
  0
POINT
  8
CSLAYER1
 62
     5
 10
1273.659898
 20
513.527802
  0
CIRCLE
  8
CSLAYER1
  6
PHANTOM
 62
     5
 10
1273.659898
 20
513.527802
 40
9.500000
  0
LINE
  8
CSLAYER1
  6
PHANTOM
 62
     5
 10
1279.144725
 20
523.027802
 11
1268.175070
 21
523.027802
  0
LINE
  8
CSLAYER1
  6
PHANTOM
 62
     5
 10
1268.175070
 20
523.027802
 11
1262.690243
 21
513.527802
  0
LINE
  8
CSLAYER1
  6
PHANTOM
 62
     5
 10
1262.690243
 20
513.527802
 11
1268.175070
 21
504.027802
  0
LINE
  8
CSLAYER1
  6
PHANTOM
 62
     5
 10
1268.175070
 20
504.027802
 11
1279.144725
 21
504.027802
  0
LINE
  8
CSLAYER1
  6
PHANTOM
 62
     5
 10
1279.144725
 20
504.027802
 11
1284.629553
 21
513.527802
  0
LINE
  8
CSLAYER1
  6
PHANTOM
 62
     5
 10
1284.629553
 20
513.527802
 11
1279.144725
 21
523.027802
  0
CIRCLE
  8
CSLAYER1
  6
PHANTOM
 62
     5
 10
1273.659898
 20
513.527802
 40
8.650000
  0
CIRCLE
  8
CSLAYER1
  6
PHANTOM
 62
     5
 10
1273.659898
 20
513.527802
 40
5.000000
  0
CIRCLE
  8
CSLAYER1
  6
PHANTOM
 62
     5
 10
1273.659898
 20
513.527802
 40
9.500000
  0
LINE
  8
CSLAYER1
  6
PHANTOM
 62
     5
 10
1242.659898
 20
549.227802
 11
1242.659898
 21
507.027802
  0
LINE
  8
CSLAYER1
  6
PHANTOM
 62
     5
 10
1282.659898
 20
497.027802
 11
1252.659898
 21
497.027802
  0
LINE
  8
CSLAYER1
  6
PHANTOM
 62
     5
 10
1292.659898
 20
549.227802
 11
1292.659898
 21
507.027802
  0
LINE
  8
CSLAYER1
  6
PHANTOM
 62
     5
 10
1242.659898
 20
549.227802
 11
1239.459898
 21
549.227802
  0
LINE
  8
CSLAYER1
  6
PHANTOM
 62
     5
 10
1239.459898
 20
594.227802
 11
1239.459898
 21
549.227802
  0
ARC
  8
CSLAYER1
  6
PHANTOM
 62
     5
 10
1252.659898
 20
507.027802
 40
10.000000
 50
180.000000
 51
270.000000
  0
ARC
  8
CSLAYER1
  6
PHANTOM
 62
     5
 10
1282.659898
 20
507.027802
 40
10.000000
 50
270.000000
 51
360.000000
  0
POINT
  8
CSLAYER1
 62
     5
 10
1273.659898
 20
513.527802
  0
ENDBLK
  8
0
  0
BLOCK
  8
CSLAYER1
  2
BLKF0007
 70
   64
 10
0.0
 20
0.0
 30
0.0
  0
LINE
  8
CSLAYER1
  6
CONTINUOUS
 62
     3
 10
294.714472
 20
1053.613826
 11
294.714472
 21
1060.863826
  0
LINE
  8
CSLAYER1
  6
CONTINUOUS
 62
     3
 10
306.714472
 20
1080.263826
 11
306.714472
 21
1089.613826
  0
LINE
  8
CSLAYER1
  6
CONTINUOUS
 62
     3
 10
318.714472
 20
1087.613826
 11
318.714472
 21
1089.613826
  0
LINE
  8
CSLAYER1
  6
CONTINUOUS
 62
     3
 10
318.214472
 20
1090.113826
 11
307.214472
 21
1090.113826
  0
LINE
  8
CSLAYER1
  6
CONTINUOUS
 62
     3
 10
306.714472
 20
1062.963826
 11
306.714472
 21
1053.613826
  0
LINE
  8
CSLAYER1
  6
CONTINUOUS
 62
     3
 10
313.214472
 20
1053.113826
 11
307.214472
 21
1053.113826
  0
LINE
  8
CSLAYER1
  6
CONTINUOUS
 62
     3
 10
306.714472
 20
1053.113826
 11
294.714472
 21
1053.113826
  0
LINE
  8
CSLAYER1
  6
CONTINUOUS
 62
     3
 10
306.214472
 20
1090.113826
 11
305.214472
 21
1090.113826
  0
ARC
  8
CSLAYER1
  6
CONTINUOUS
 62
     3
 10
307.214472
 20
1053.613826
 40
0.500000
 50
180.000000
 51
270.000000
  0
ARC
  8
CSLAYER1
  6
CONTINUOUS
 62
     3
 10
318.214472
 20
1089.613826
 40
0.500000
 50
0.000000
 51
90.000000
  0
ARC
  8
CSLAYER1
  6
CONTINUOUS
 62
     3
 10
307.214472
 20
1089.613826
 40
0.500000
 50
90.000000
 51
180.000000
  0
ARC
  8
CSLAYER1
  6
CONTINUOUS
 62
     3
 10
306.214472
 20
1089.613826
 40
0.500000
 50
0.000000
 51
90.000000
  0
ARC
  8
CSLAYER1
  6
CONTINUOUS
 62
     3
 10
295.214472
 20
1089.613826
 40
0.500000
 50
90.000000
 51
180.000000
  0
ARC
  8
CSLAYER1
  6
CONTINUOUS
 62
     3
 10
295.214472
 20
1053.613826
 40
0.500000
 50
180.000000
 51
270.000000
  0
LINE
  8
CSLAYER1
  6
CONTINUOUS
 62
     3
 10
322.214472
 20
1060.613826
 11
333.214472
 21
1060.613826
  0
LINE
  8
CSLAYER1
  6
CONTINUOUS
 62
     3
 10
322.214472
 20
1082.613826
 11
333.214472
 21
1082.613826
  0
ARC
  8
CSLAYER1
  6
CONTINUOUS
 62
     3
 10
306.214472
 20
1053.613826
 40
0.500000
 50
270.000000
 51
360.000000
  0
LINE
  8
CSLAYER1
  6
CONTINUOUS
 62
     3
 10
294.714472
 20
1082.363826
 11
294.714472
 21
1089.613826
  0
LINE
  8
CSLAYER1
  6
CONTINUOUS
 62
     3
 10
296.214472
 20
1090.113826
 11
295.214472
 21
1090.113826
  0
ENDBLK
  8
0
  0
BLOCK
  8
CSLAYER1
  2
BLKF0008
 70
   64
 10
0.0
 20
0.0
 30
0.0
  0
LINE
  8
CSLAYER1
  6
CONTINUOUS
 62
     3
 10
843.714472
 20
1053.613826
 11
843.714472
 21
1060.863826
  0
LINE
  8
CSLAYER1
  6
CONTINUOUS
 62
     3
 10
831.714472
 20
1080.263826
 11
831.714472
 21
1089.613826
  0
LINE
  8
CSLAYER1
  6
CONTINUOUS
 62
     3
 10
819.714472
 20
1087.613826
 11
819.714472
 21
1089.613826
  0
LINE
  8
CSLAYER1
  6
CONTINUOUS
 62
     3
 10
820.214472
 20
1090.113826
 11
831.214472
 21
1090.113826
  0
LINE
  8
CSLAYER1
  6
CONTINUOUS
 62
     3
 10
831.714472
 20
1062.963826
 11
831.714472
 21
1053.613826
  0
LINE
  8
CSLAYER1
  6
CONTINUOUS
 62
     3
 10
825.214472
 20
1053.113826
 11
831.214472
 21
1053.113826
  0
LINE
  8
CSLAYER1
  6
CONTINUOUS
 62
     3
 10
831.714472
 20
1053.113826
 11
843.714472
 21
1053.113826
  0
LINE
  8
CSLAYER1
  6
CONTINUOUS
 62
     3
 10
832.214472
 20
1090.113826
 11
833.214472
 21
1090.113826
  0
ARC
  8
CSLAYER1
  6
CONTINUOUS
 62
     3
 10
831.214472
 20
1053.613826
 40
0.500000
 50
270.000000
 51
360.000000
  0
ARC
  8
CSLAYER1
  6
CONTINUOUS
 62
     3
 10
820.214472
 20
1089.613826
 40
0.500000
 50
90.000000
 51
180.000000
  0
ARC
  8
CSLAYER1
  6
CONTINUOUS
 62
     3
 10
831.214472
 20
1089.613826
 40
0.500000
 50
0.000000
 51
90.000000
  0
ARC
  8
CSLAYER1
  6
CONTINUOUS
 62
     3
 10
832.214472
 20
1089.613826
 40
0.500000
 50
90.000000
 51
180.000000
  0
ARC
  8
CSLAYER1
  6
CONTINUOUS
 62
     3
 10
843.214472
 20
1089.613826
 40
0.500000
 50
0.000000
 51
90.000000
  0
ARC
  8
CSLAYER1
  6
CONTINUOUS
 62
     3
 10
843.214472
 20
1053.613826
 40
0.500000
 50
270.000000
 51
360.000000
  0
LINE
  8
CSLAYER1
  6
CONTINUOUS
 62
     3
 10
816.214472
 20
1060.613826
 11
805.214472
 21
1060.613826
  0
LINE
  8
CSLAYER1
  6
CONTINUOUS
 62
     3
 10
816.214472
 20
1082.613826
 11
805.214472
 21
1082.613826
  0
ARC
  8
CSLAYER1
  6
CONTINUOUS
 62
     3
 10
832.214472
 20
1053.613826
 40
0.500000
 50
180.000000
 51
270.000000
  0
LINE
  8
CSLAYER1
  6
CONTINUOUS
 62
     3
 10
843.714472
 20
1082.363826
 11
843.714472
 21
1089.613826
  0
LINE
  8
CSLAYER1
  6
CONTINUOUS
 62
     3
 10
842.214472
 20
1090.113826
 11
843.214472
 21
1090.113826
  0
ENDBLK
  8
0
  0
BLOCK
  8
CSLAYER1
  2
BLKF0009
 70
   64
 10
0.0
 20
0.0
 30
0.0
  0
LINE
  8
CSLAYER1
  6
CENTER
 62
     5
 10
850.014472
 20
489.227802
 11
850.014472
 21
594.227802
  0
LINE
  8
CSLAYER1
  6
CONTINUOUS
 62
     7
 10
840.014472
 20
489.227802
 11
840.014472
 21
567.227802
  0
LINE
  8
CSLAYER1
  6
CONTINUOUS
 62
     7
 10
860.014472
 20
567.227802
 11
840.014472
 21
567.227802
  0
LINE
  8
CSLAYER1
  6
CONTINUOUS
 62
     7
 10
860.014472
 20
489.227802
 11
860.014472
 21
567.227802
  0
LINE
  8
CSLAYER1
  6
CONTINUOUS
 62
     3
 10
859.829427
 20
567.227802
 11
840.199518
 21
567.227802
  0
LINE
  8
CSLAYER1
  6
CONTINUOUS
 62
     3
 10
840.199518
 20
567.227802
 11
840.199518
 21
574.324276
  0
LINE
  8
CSLAYER1
  6
CONTINUOUS
 62
     3
 10
840.199518
 20
574.324276
 11
841.764472
 21
575.227802
  0
LINE
  8
CSLAYER1
  6
CONTINUOUS
 62
     3
 10
841.764472
 20
575.227802
 11
858.264472
 21
575.227802
  0
LINE
  8
CSLAYER1
  6
CONTINUOUS
 62
     3
 10
858.264472
 20
575.227802
 11
859.829427
 21
574.324276
  0
LINE
  8
CSLAYER1
  6
CONTINUOUS
 62
     3
 10
859.829427
 20
574.324276
 11
859.829427
 21
567.227802
  0
LINE
  8
CSLAYER1
  6
CONTINUOUS
 62
     3
 10
854.921949
 20
567.227802
 11
854.921949
 21
574.324276
  0
LINE
  8
CSLAYER1
  6
CONTINUOUS
 62
     3
 10
845.106995
 20
574.324276
 11
845.106995
 21
567.227802
  0
ARC
  8
CSLAYER1
  6
CONTINUOUS
 62
     3
 10
842.653256
 20
571.444189
 40
3.783614
 50
49.570103
 51
90.000000
  0
ARC
  8
CSLAYER1
  6
CONTINUOUS
 62
     3
 10
850.014472
 20
561.448637
 40
13.779165
 50
69.135936
 51
110.864064
  0
ARC
  8
CSLAYER1
  6
CONTINUOUS
 62
     3
 10
857.375688
 20
571.444189
 40
3.783614
 50
90.000000
 51
130.429897
  0
POINT
  8
CSLAYER1
 62
     3
 10
850.014472
 20
567.227802
  0
LINE
  8
CSLAYER1
  6
CONTINUOUS
 62
     3
 10
859.829427
 20
583.027802
 11
840.199518
 21
583.027802
  0
LINE
  8
CSLAYER1
  6
CONTINUOUS
 62
     3
 10
840.199518
 20
583.027802
 11
840.199518
 21
590.124276
  0
LINE
  8
CSLAYER1
  6
CONTINUOUS
 62
     3
 10
840.199518
 20
590.124276
 11
841.764472
 21
591.027802
  0
LINE
  8
CSLAYER1
  6
CONTINUOUS
 62
     3
 10
841.764472
 20
591.027802
 11
858.264472
 21
591.027802
  0
LINE
  8
CSLAYER1
  6
CONTINUOUS
 62
     3
 10
858.264472
 20
591.027802
 11
859.829427
 21
590.124276
  0
LINE
  8
CSLAYER1
  6
CONTINUOUS
 62
     3
 10
859.829427
 20
590.124276
 11
859.829427
 21
583.027802
  0
LINE
  8
CSLAYER1
  6
CONTINUOUS
 62
     3
 10
854.921949
 20
583.027802
 11
854.921949
 21
590.124276
  0
LINE
  8
CSLAYER1
  6
CONTINUOUS
 62
     3
 10
845.106995
 20
590.124276
 11
845.106995
 21
583.027802
  0
ARC
  8
CSLAYER1
  6
CONTINUOUS
 62
     3
 10
842.653256
 20
587.244189
 40
3.783614
 50
49.570103
 51
90.000000
  0
ARC
  8
CSLAYER1
  6
CONTINUOUS
 62
     3
 10
850.014472
 20
577.248637
 40
13.779165
 50
69.135936
 51
110.864064
  0
ARC
  8
CSLAYER1
  6
CONTINUOUS
 62
     3
 10
857.375688
 20
587.244189
 40
3.783614
 50
90.000000
 51
130.429897
  0
POINT
  8
CSLAYER1
 62
     3
 10
850.014472
 20
583.027802
  0
LINE
  8
CSLAYER1
  6
CONTINUOUS
 62
     3
 10
845.014472
 20
575.227802
 11
845.014472
 21
583.027802
  0
LINE
  8
CSLAYER1
  6
CONTINUOUS
 62
     4
 10
846.014472
 20
575.227802
 11
846.014472
 21
583.027802
  0
LINE
  8
CSLAYER1
  6
CONTINUOUS
 62
     3
 10
855.014472
 20
575.227802
 11
855.014472
 21
583.027802
  0
LINE
  8
CSLAYER1
  6
CONTINUOUS
 62
     4
 10
854.014472
 20
575.227802
 11
854.014472
 21
583.027802
  0
ENDBLK
  8
0
  0
BLOCK
  8
CSLAYER1
  2
BLKF0010
 70
   64
 10
0.0
 20
0.0
 30
0.0
  0
LINE
  8
CSLAYER1
  6
CENTER
 62
     5
 10
288.414472
 20
489.227802
 11
288.414472
 21
594.227802
  0
LINE
  8
CSLAYER1
  6
CONTINUOUS
 62
     7
 10
298.414472
 20
489.227802
 11
298.414472
 21
567.227802
  0
LINE
  8
CSLAYER1
  6
CONTINUOUS
 62
     7
 10
278.414472
 20
567.227802
 11
298.414472
 21
567.227802
  0
LINE
  8
CSLAYER1
  6
CONTINUOUS
 62
     7
 10
278.414472
 20
489.227802
 11
278.414472
 21
567.227802
  0
LINE
  8
CSLAYER1
  6
CONTINUOUS
 62
     3
 10
278.599518
 20
567.227802
 11
298.229427
 21
567.227802
  0
LINE
  8
CSLAYER1
  6
CONTINUOUS
 62
     3
 10
298.229427
 20
567.227802
 11
298.229427
 21
574.324276
  0
LINE
  8
CSLAYER1
  6
CONTINUOUS
 62
     3
 10
298.229427
 20
574.324276
 11
296.664472
 21
575.227802
  0
LINE
  8
CSLAYER1
  6
CONTINUOUS
 62
     3
 10
296.664472
 20
575.227802
 11
280.164472
 21
575.227802
  0
LINE
  8
CSLAYER1
  6
CONTINUOUS
 62
     3
 10
280.164472
 20
575.227802
 11
278.599518
 21
574.324276
  0
LINE
  8
CSLAYER1
  6
CONTINUOUS
 62
     3
 10
278.599518
 20
574.324276
 11
278.599518
 21
567.227802
  0
LINE
  8
CSLAYER1
  6
CONTINUOUS
 62
     3
 10
283.506995
 20
567.227802
 11
283.506995
 21
574.324276
  0
LINE
  8
CSLAYER1
  6
CONTINUOUS
 62
     3
 10
293.321949
 20
574.324276
 11
293.321949
 21
567.227802
  0
ARC
  8
CSLAYER1
  6
CONTINUOUS
 62
     3
 10
295.775688
 20
571.444189
 40
3.783614
 50
90.000000
 51
130.429897
  0
ARC
  8
CSLAYER1
  6
CONTINUOUS
 62
     3
 10
288.414472
 20
561.448637
 40
13.779165
 50
69.135936
 51
110.864064
  0
ARC
  8
CSLAYER1
  6
CONTINUOUS
 62
     3
 10
281.053256
 20
571.444189
 40
3.783614
 50
49.570103
 51
90.000000
  0
POINT
  8
CSLAYER1
 62
     3
 10
288.414472
 20
567.227802
  0
LINE
  8
CSLAYER1
  6
CONTINUOUS
 62
     3
 10
278.599518
 20
583.027802
 11
298.229427
 21
583.027802
  0
LINE
  8
CSLAYER1
  6
CONTINUOUS
 62
     3
 10
298.229427
 20
583.027802
 11
298.229427
 21
590.124276
  0
LINE
  8
CSLAYER1
  6
CONTINUOUS
 62
     3
 10
298.229427
 20
590.124276
 11
296.664472
 21
591.027802
  0
LINE
  8
CSLAYER1
  6
CONTINUOUS
 62
     3
 10
296.664472
 20
591.027802
 11
280.164472
 21
591.027802
  0
LINE
  8
CSLAYER1
  6
CONTINUOUS
 62
     3
 10
280.164472
 20
591.027802
 11
278.599518
 21
590.124276
  0
LINE
  8
CSLAYER1
  6
CONTINUOUS
 62
     3
 10
278.599518
 20
590.124276
 11
278.599518
 21
583.027802
  0
LINE
  8
CSLAYER1
  6
CONTINUOUS
 62
     3
 10
283.506995
 20
583.027802
 11
283.506995
 21
590.124276
  0
LINE
  8
CSLAYER1
  6
CONTINUOUS
 62
     3
 10
293.321949
 20
590.124276
 11
293.321949
 21
583.027802
  0
ARC
  8
CSLAYER1
  6
CONTINUOUS
 62
     3
 10
295.775688
 20
587.244189
 40
3.783614
 50
90.000000
 51
130.429897
  0
ARC
  8
CSLAYER1
  6
CONTINUOUS
 62
     3
 10
288.414472
 20
577.248637
 40
13.779165
 50
69.135936
 51
110.864064
  0
ARC
  8
CSLAYER1
  6
CONTINUOUS
 62
     3
 10
281.053256
 20
587.244189
 40
3.783614
 50
49.570103
 51
90.000000
  0
POINT
  8
CSLAYER1
 62
     3
 10
288.414472
 20
583.027802
  0
LINE
  8
CSLAYER1
  6
CONTINUOUS
 62
     3
 10
293.414472
 20
575.227802
 11
293.414472
 21
583.027802
  0
LINE
  8
CSLAYER1
  6
CONTINUOUS
 62
     4
 10
292.414472
 20
575.227802
 11
292.414472
 21
583.027802
  0
LINE
  8
CSLAYER1
  6
CONTINUOUS
 62
     3
 10
283.414472
 20
575.227802
 11
283.414472
 21
583.027802
  0
LINE
  8
CSLAYER1
  6
CONTINUOUS
 62
     4
 10
284.414472
 20
575.227802
 11
284.414472
 21
583.027802
  0
ENDBLK
  8
0
  0
BLOCK
  8
CSLAYER1
  2
BLKF0011
 70
   64
 10
0.0
 20
0.0
 30
0.0
  0
LINE
  8
CSLAYER1
  6
CONTINUOUS
 62
     3
 10
1339.844943
 20
567.227802
 11
1359.474852
 21
567.227802
  0
LINE
  8
CSLAYER1
  6
CONTINUOUS
 62
     3
 10
1359.474852
 20
567.227802
 11
1359.474852
 21
574.324276
  0
LINE
  8
CSLAYER1
  6
CONTINUOUS
 62
     3
 10
1359.474852
 20
574.324276
 11
1357.909898
 21
575.227802
  0
LINE
  8
CSLAYER1
  6
CONTINUOUS
 62
     3
 10
1357.909898
 20
575.227802
 11
1341.409898
 21
575.227802
  0
LINE
  8
CSLAYER1
  6
CONTINUOUS
 62
     3
 10
1341.409898
 20
575.227802
 11
1339.844943
 21
574.324276
  0
LINE
  8
CSLAYER1
  6
CONTINUOUS
 62
     3
 10
1339.844943
 20
574.324276
 11
1339.844943
 21
567.227802
  0
LINE
  8
CSLAYER1
  6
CONTINUOUS
 62
     3
 10
1344.752420
 20
567.227802
 11
1344.752420
 21
574.324276
  0
LINE
  8
CSLAYER1
  6
CONTINUOUS
 62
     3
 10
1354.567375
 20
574.324276
 11
1354.567375
 21
567.227802
  0
ARC
  8
CSLAYER1
  6
CONTINUOUS
 62
     3
 10
1357.021114
 20
571.444189
 40
3.783614
 50
90.000000
 51
130.429897
  0
ARC
  8
CSLAYER1
  6
CONTINUOUS
 62
     3
 10
1349.659898
 20
561.448637
 40
13.779165
 50
69.135936
 51
110.864064
  0
ARC
  8
CSLAYER1
  6
CONTINUOUS
 62
     3
 10
1342.298682
 20
571.444189
 40
3.783614
 50
49.570103
 51
90.000000
  0
POINT
  8
CSLAYER1
 62
     3
 10
1349.659898
 20
567.227802
  0
ENDBLK
  8
0
  0
BLOCK
  8
CSLAYER1
  2
BLKF0012
 70
   64
 10
0.0
 20
0.0
 30
0.0
  0
LINE
  8
CSLAYER1
  6
CONTINUOUS
 62
     3
 10
1339.844943
 20
583.027802
 11
1359.474852
 21
583.027802
  0
LINE
  8
CSLAYER1
  6
CONTINUOUS
 62
     3
 10
1359.474852
 20
583.027802
 11
1359.474852
 21
590.124276
  0
LINE
  8
CSLAYER1
  6
CONTINUOUS
 62
     3
 10
1359.474852
 20
590.124276
 11
1357.909898
 21
591.027802
  0
LINE
  8
CSLAYER1
  6
CONTINUOUS
 62
     3
 10
1357.909898
 20
591.027802
 11
1341.409898
 21
591.027802
  0
LINE
  8
CSLAYER1
  6
CONTINUOUS
 62
     3
 10
1341.409898
 20
591.027802
 11
1339.844943
 21
590.124276
  0
LINE
  8
CSLAYER1
  6
CONTINUOUS
 62
     3
 10
1339.844943
 20
590.124276
 11
1339.844943
 21
583.027802
  0
LINE
  8
CSLAYER1
  6
CONTINUOUS
 62
     3
 10
1344.752420
 20
583.027802
 11
1344.752420
 21
590.124276
  0
LINE
  8
CSLAYER1
  6
CONTINUOUS
 62
     3
 10
1354.567375
 20
590.124276
 11
1354.567375
 21
583.027802
  0
ARC
  8
CSLAYER1
  6
CONTINUOUS
 62
     3
 10
1357.021114
 20
587.244189
 40
3.783614
 50
90.000000
 51
130.429897
  0
ARC
  8
CSLAYER1
  6
CONTINUOUS
 62
     3
 10
1349.659898
 20
577.248637
 40
13.779165
 50
69.135936
 51
110.864064
  0
ARC
  8
CSLAYER1
  6
CONTINUOUS
 62
     3
 10
1342.298682
 20
587.244189
 40
3.783614
 50
49.570103
 51
90.000000
  0
POINT
  8
CSLAYER1
 62
     3
 10
1349.659898
 20
583.027802
  0
ENDBLK
  8
0
  0
BLOCK
  8
CSLAYER1
  2
BLKF0013
 70
   64
 10
0.0
 20
0.0
 30
0.0
  0
LINE
  8
CSLAYER1
  6
CONTINUOUS
 62
     3
 10
2580.370600
 20
1928.638749
 11
2580.370600
 21
1990.638749
  0
LINE
  8
CSLAYER1
  6
CONTINUOUS
 62
     3
 10
2582.870600
 20
1926.138749
 11
2667.870600
 21
1926.138749
  0
LINE
  8
CSLAYER1
  6
CENTER
 62
     5
 10
2522.020961
 20
1998.638749
 11
2580.370600
 21
1998.638749
  0
LINE
  8
CSLAYER1
  6
CONTINUOUS
 62
     2
 10
2582.870600
 20
1982.638749
 11
2667.870600
 21
1982.638749
  0
LINE
  8
CSLAYER1
  6
CONTINUOUS
 62
     3
 10
2582.870600
 20
1931.138749
 11
2582.870600
 21
1976.138749
  0
LINE
  8
CSLAYER1
  6
CONTINUOUS
 62
     3
 10
2670.370600
 20
1928.638749
 11
2670.370600
 21
1998.638749
  0
LINE
  8
CSLAYER1
  6
CONTINUOUS
 62
     3
 10
2585.370600
 20
1928.638749
 11
2662.370600
 21
1928.638749
  0
LINE
  8
CSLAYER1
  6
CONTINUOUS
 62
     3
 10
2585.370600
 20
1978.638749
 11
2662.370600
 21
1978.638749
  0
ARC
  8
CSLAYER1
  6
CONTINUOUS
 62
     3
 10
2608.302418
 20
1953.638749
 40
59.568182
 50
-24.814837
 51
24.814837
  0
ARC
  8
CSLAYER1
  6
CONTINUOUS
 62
     3
 10
2585.370600
 20
1931.138749
 40
2.500000
 50
180.000000
 51
270.000000
  0
ARC
  8
CSLAYER1
  6
CONTINUOUS
 62
     3
 10
2585.370600
 20
1976.138749
 40
2.500000
 50
90.000000
 51
180.000000
  0
ARC
  8
CSLAYER1
  6
CONTINUOUS
 62
     3
 10
2582.870600
 20
1928.638749
 40
2.500000
 50
180.000000
 51
270.000000
  0
ARC
  8
CSLAYER1
  6
CONTINUOUS
 62
     3
 10
2667.870600
 20
1928.638749
 40
2.500000
 50
-90.000000
 51
0.000000
  0
ARC
  8
CSLAYER1
  6
CONTINUOUS
 62
     2
 10
2667.870600
 20
1985.138749
 40
2.500000
 50
-90.000000
 51
0.000000
  0
ARC
  8
CSLAYER1
  6
CONTINUOUS
 62
     2
 10
2582.870600
 20
1985.138749
 40
2.500000
 50
180.000000
 51
270.000000
  0
LINE
  8
CSLAYER1
  6
CONTINUOUS
 62
     3
 10
2580.370600
 20
2068.638749
 11
2580.370600
 21
2006.638749
  0
LINE
  8
CSLAYER1
  6
CONTINUOUS
 62
     3
 10
2582.870600
 20
2071.138749
 11
2667.870600
 21
2071.138749
  0
LINE
  8
CSLAYER1
  6
CONTINUOUS
 62
     2
 10
2582.870600
 20
2014.638749
 11
2667.870600
 21
2014.638749
  0
LINE
  8
CSLAYER1
  6
CONTINUOUS
 62
     3
 10
2670.370600
 20
2068.638749
 11
2670.370600
 21
1998.638749
  0
ARC
  8
CSLAYER1
  6
CONTINUOUS
 62
     3
 10
2582.870600
 20
2068.638749
 40
2.500000
 50
90.000000
 51
180.000000
  0
ARC
  8
CSLAYER1
  6
CONTINUOUS
 62
     3
 10
2667.870600
 20
2068.638749
 40
2.500000
 50
0.000000
 51
90.000000
  0
ARC
  8
CSLAYER1
  6
CONTINUOUS
 62
     2
 10
2667.870600
 20
2012.138749
 40
2.500000
 50
0.000000
 51
90.000000
  0
ARC
  8
CSLAYER1
  6
CONTINUOUS
 62
     2
 10
2582.870600
 20
2012.138749
 40
2.500000
 50
90.000000
 51
180.000000
  0
LINE
  8
CSLAYER1
  6
CONTINUOUS
 62
     3
 10
2582.870600
 20
2066.138749
 11
2582.870600
 21
2021.138749
  0
LINE
  8
CSLAYER1
  6
CONTINUOUS
 62
     3
 10
2585.370600
 20
2068.638749
 11
2662.370600
 21
2068.638749
  0
LINE
  8
CSLAYER1
  6
CONTINUOUS
 62
     3
 10
2585.370600
 20
2018.638749
 11
2662.370600
 21
2018.638749
  0
ARC
  8
CSLAYER1
  6
CONTINUOUS
 62
     3
 10
2608.302418
 20
2043.638749
 40
59.568182
 50
-24.814837
 51
24.814837
  0
ARC
  8
CSLAYER1
  6
CONTINUOUS
 62
     3
 10
2585.370600
 20
2066.138749
 40
2.500000
 50
90.000000
 51
180.000000
  0
ARC
  8
CSLAYER1
  6
CONTINUOUS
 62
     3
 10
2585.370600
 20
2021.138749
 40
2.500000
 50
180.000000
 51
270.000000
  0
LINE
  8
CSLAYER1
  6
CONTINUOUS
 62
     3
 10
2573.370600
 20
2005.638749
 11
2573.370600
 21
2002.138749
  0
LINE
  8
CSLAYER1
  6
CONTINUOUS
 62
     3
 10
2522.020961
 20
2002.138749
 11
2573.370600
 21
2002.138749
  0
LINE
  8
CSLAYER1
  6
CONTINUOUS
 62
     3
 10
2574.370600
 20
2006.638749
 11
2580.370600
 21
2006.638749
  0
LINE
  8
CSLAYER1
  6
CONTINUOUS
 62
     3
 10
2574.370600
 20
1990.638749
 11
2580.370600
 21
1990.638749
  0
LINE
  8
CSLAYER1
  6
CONTINUOUS
 62
     3
 10
2522.020961
 20
1995.138749
 11
2573.370600
 21
1995.138749
  0
ARC
  8
CSLAYER1
  6
CONTINUOUS
 62
     3
 10
2574.370600
 20
1991.638749
 40
1.000000
 50
180.000000
 51
270.000000
  0
ARC
  8
CSLAYER1
  6
CONTINUOUS
 62
     3
 10
2574.370600
 20
2005.638749
 40
1.000000
 50
90.000000
 51
180.000000
  0
LINE
  8
CSLAYER1
  6
CONTINUOUS
 62
     3
 10
2573.370600
 20
1995.138749
 11
2573.370600
 21
1991.638749
  0
LINE
  8
CSLAYER1
  6
CONTINUOUS
 62
     2
 10
2573.370600
 20
2002.138749
 11
2573.370600
 21
1995.138749
  0
LINE
  8
CSLAYER1
  6
CONTINUOUS
 62
     2
 10
2580.370600
 20
1990.638749
 11
2580.370600
 21
1998.638749
  0
LINE
  8
CSLAYER1
  6
CONTINUOUS
 62
     2
 10
2580.370600
 20
2006.638749
 11
2580.370600
 21
1998.638749
  0
LINE
  8
CSLAYER1
  6
CONTINUOUS
 62
     2
 10
2599.863612
 20
1986.476090
 11
2590.728612
 21
1986.476090
  0
LINE
  8
CSLAYER1
  6
CONTINUOUS
 62
     2
 10
2599.863612
 20
2010.101090
 11
2590.728612
 21
2010.101090
  0
LINE
  8
CSLAYER1
  6
CONTINUOUS
 62
     2
 10
2589.468612
 20
1987.736090
 11
2589.468612
 21
2008.841090
  0
LINE
  8
CSLAYER1
  6
CONTINUOUS
 62
     2
 10
2601.123612
 20
1987.736090
 11
2601.123612
 21
2008.841090
  0
LINE
  8
CSLAYER1
  6
CONTINUOUS
 62
     2
 10
2599.233612
 20
2008.211090
 11
2591.201112
 21
2008.211090
  0
LINE
  8
CSLAYER1
  6
CONTINUOUS
 62
     2
 10
2599.233612
 20
2005.061090
 11
2598.288612
 21
2005.061090
  0
LINE
  8
CSLAYER1
  6
CONTINUOUS
 62
     2
 10
2599.233612
 20
1996.398590
 11
2598.288612
 21
1996.398590
  0
LINE
  8
CSLAYER1
  6
CONTINUOUS
 62
     2
 10
2599.233612
 20
1991.831090
 11
2594.193612
 21
1991.831090
  0
LINE
  8
CSLAYER1
  6
CONTINUOUS
 62
     2
 10
2600.336112
 20
1992.933590
 11
2600.336112
 21
1995.296090
  0
LINE
  8
CSLAYER1
  6
CONTINUOUS
 62
     2
 10
2593.091112
 20
1992.933590
 11
2593.091112
 21
1995.296090
  0
LINE
  8
CSLAYER1
  6
CONTINUOUS
 62
     2
 10
2590.098612
 20
2006.163590
 11
2590.098612
 21
2007.108590
  0
LINE
  8
CSLAYER1
  6
CONTINUOUS
 62
     2
 10
2597.343612
 20
1997.343590
 11
2597.343612
 21
2004.116090
  0
LINE
  8
CSLAYER1
  6
CONTINUOUS
 62
     2
 10
2596.556112
 20
1997.343590
 11
2596.556112
 21
2004.116090
  0
ARC
  8
CSLAYER1
  6
CONTINUOUS
 62
     2
 10
2599.233612
 20
1992.933590
 40
1.102500
 50
-90.000000
 51
0.000000
  0
ARC
  8
CSLAYER1
  6
CONTINUOUS
 62
     2
 10
2594.193612
 20
1992.933590
 40
1.102500
 50
180.000000
 51
270.000000
  0
ARC
  8
CSLAYER1
  6
CONTINUOUS
 62
     2
 10
2594.193612
 20
1995.296090
 40
1.102500
 50
90.000000
 51
180.000000
  0
ARC
  8
CSLAYER1
  6
CONTINUOUS
 62
     2
 10
2599.233612
 20
1995.296090
 40
1.102500
 50
0.000000
 51
90.000000
  0
ARC
  8
CSLAYER1
  6
CONTINUOUS
 62
     2
 10
2591.201112
 20
2006.163590
 40
1.102500
 50
180.000000
 51
270.000000
  0
ARC
  8
CSLAYER1
  6
CONTINUOUS
 62
     2
 10
2591.201112
 20
2007.108590
 40
1.102500
 50
90.000000
 51
180.000000
  0
ARC
  8
CSLAYER1
  6
CONTINUOUS
 62
     2
 10
2599.233612
 20
2007.108590
 40
1.102500
 50
0.000000
 51
90.000000
  0
ARC
  8
CSLAYER1
  6
CONTINUOUS
 62
     2
 10
2599.233612
 20
2006.163590
 40
1.102500
 50
-90.000000
 51
0.000000
  0
LINE
  8
CSLAYER1
  6
CONTINUOUS
 62
     2
 10
2595.611112
 20
1996.398590
 11
2594.193612
 21
1996.398590
  0
LINE
  8
CSLAYER1
  6
CONTINUOUS
 62
     2
 10
2595.611112
 20
2005.061090
 11
2591.201112
 21
2005.061090
  0
ARC
  8
CSLAYER1
  6
CONTINUOUS
 62
     2
 10
2598.288612
 20
1997.343590
 40
0.945000
 50
180.000000
 51
270.000000
  0
ARC
  8
CSLAYER1
  6
CONTINUOUS
 62
     2
 10
2595.611112
 20
1997.343590
 40
0.945000
 50
-90.000000
 51
0.000000
  0
ARC
  8
CSLAYER1
  6
CONTINUOUS
 62
     2
 10
2595.611112
 20
2004.116090
 40
0.945000
 50
0.000000
 51
90.000000
  0
ARC
  8
CSLAYER1
  6
CONTINUOUS
 62
     2
 10
2599.863612
 20
1987.736090
 40
1.260000
 50
-90.000000
 51
0.000000
  0
ARC
  8
CSLAYER1
  6
CONTINUOUS
 62
     2
 10
2590.728612
 20
1987.736090
 40
1.260000
 50
180.000000
 51
270.000000
  0
ARC
  8
CSLAYER1
  6
CONTINUOUS
 62
     2
 10
2590.728612
 20
2008.841090
 40
1.260000
 50
90.000000
 51
180.000000
  0
ARC
  8
CSLAYER1
  6
CONTINUOUS
 62
     2
 10
2599.863612
 20
2008.841090
 40
1.260000
 50
0.000000
 51
90.000000
  0
ARC
  8
CSLAYER1
  6
CONTINUOUS
 62
     2
 10
2598.288612
 20
2004.116090
 40
0.945000
 50
90.000000
 51
180.000000
  0
LINE
  8
CSLAYER1
  6
CONTINUOUS
 62
     2
 10
2600.336112
 20
2006.163590
 11
2600.336112
 21
2007.108590
  0
CIRCLE
  8
CSLAYER1
  6
CONTINUOUS
 62
     2
 10
2614.870600
 20
1948.638749
 40
2.500000
  0
CIRCLE
  8
CSLAYER1
  6
CONTINUOUS
 62
     2
 10
2614.870600
 20
1938.638749
 40
2.500000
  0
CIRCLE
  8
CSLAYER1
  6
CONTINUOUS
 62
     2
 10
2624.870600
 20
1938.638749
 40
2.500000
  0
CIRCLE
  8
CSLAYER1
  6
CONTINUOUS
 62
     2
 10
2624.870600
 20
1948.638749
 40
2.500000
  0
CIRCLE
  8
CSLAYER1
  6
CONTINUOUS
 62
     2
 10
2634.870600
 20
1948.638749
 40
2.500000
  0
CIRCLE
  8
CSLAYER1
  6
CONTINUOUS
 62
     2
 10
2634.870600
 20
1938.638749
 40
2.500000
  0
CIRCLE
  8
CSLAYER1
  6
CONTINUOUS
 62
     2
 10
2644.870600
 20
1938.638749
 40
2.500000
  0
CIRCLE
  8
CSLAYER1
  6
CONTINUOUS
 62
     2
 10
2644.870600
 20
1948.638749
 40
2.500000
  0
CIRCLE
  8
CSLAYER1
  6
CONTINUOUS
 62
     2
 10
2654.870600
 20
1948.638749
 40
2.500000
  0
CIRCLE
  8
CSLAYER1
  6
CONTINUOUS
 62
     2
 10
2654.870600
 20
1938.638749
 40
2.500000
  0
CIRCLE
  8
CSLAYER1
  6
CONTINUOUS
 62
     2
 10
2614.870600
 20
1958.638749
 40
2.500000
  0
CIRCLE
  8
CSLAYER1
  6
CONTINUOUS
 62
     2
 10
2614.870600
 20
1968.638749
 40
2.500000
  0
CIRCLE
  8
CSLAYER1
  6
CONTINUOUS
 62
     2
 10
2624.870600
 20
1968.638749
 40
2.500000
  0
CIRCLE
  8
CSLAYER1
  6
CONTINUOUS
 62
     2
 10
2624.870600
 20
1958.638749
 40
2.500000
  0
CIRCLE
  8
CSLAYER1
  6
CONTINUOUS
 62
     2
 10
2634.870600
 20
1958.638749
 40
2.500000
  0
CIRCLE
  8
CSLAYER1
  6
CONTINUOUS
 62
     2
 10
2634.870600
 20
1968.638749
 40
2.500000
  0
CIRCLE
  8
CSLAYER1
  6
CONTINUOUS
 62
     2
 10
2644.870600
 20
1968.638749
 40
2.500000
  0
CIRCLE
  8
CSLAYER1
  6
CONTINUOUS
 62
     2
 10
2644.870600
 20
1958.638749
 40
2.500000
  0
CIRCLE
  8
CSLAYER1
  6
CONTINUOUS
 62
     2
 10
2654.870600
 20
1958.638749
 40
2.500000
  0
CIRCLE
  8
CSLAYER1
  6
CONTINUOUS
 62
     2
 10
2654.870600
 20
1968.638749
 40
2.500000
  0
CIRCLE
  8
CSLAYER1
  6
CONTINUOUS
 62
     2
 10
2614.870600
 20
2048.638749
 40
2.500000
  0
CIRCLE
  8
CSLAYER1
  6
CONTINUOUS
 62
     2
 10
2614.870600
 20
2058.638749
 40
2.500000
  0
CIRCLE
  8
CSLAYER1
  6
CONTINUOUS
 62
     2
 10
2624.870600
 20
2058.638749
 40
2.500000
  0
CIRCLE
  8
CSLAYER1
  6
CONTINUOUS
 62
     2
 10
2624.870600
 20
2048.638749
 40
2.500000
  0
CIRCLE
  8
CSLAYER1
  6
CONTINUOUS
 62
     2
 10
2634.870600
 20
2048.638749
 40
2.500000
  0
CIRCLE
  8
CSLAYER1
  6
CONTINUOUS
 62
     2
 10
2634.870600
 20
2058.638749
 40
2.500000
  0
CIRCLE
  8
CSLAYER1
  6
CONTINUOUS
 62
     2
 10
2644.870600
 20
2058.638749
 40
2.500000
  0
CIRCLE
  8
CSLAYER1
  6
CONTINUOUS
 62
     2
 10
2644.870600
 20
2048.638749
 40
2.500000
  0
CIRCLE
  8
CSLAYER1
  6
CONTINUOUS
 62
     2
 10
2654.870600
 20
2048.638749
 40
2.500000
  0
CIRCLE
  8
CSLAYER1
  6
CONTINUOUS
 62
     2
 10
2654.870600
 20
2058.638749
 40
2.500000
  0
CIRCLE
  8
CSLAYER1
  6
CONTINUOUS
 62
     2
 10
2614.870600
 20
2038.638749
 40
2.500000
  0
CIRCLE
  8
CSLAYER1
  6
CONTINUOUS
 62
     2
 10
2614.870600
 20
2028.638749
 40
2.500000
  0
CIRCLE
  8
CSLAYER1
  6
CONTINUOUS
 62
     2
 10
2624.870600
 20
2028.638749
 40
2.500000
  0
CIRCLE
  8
CSLAYER1
  6
CONTINUOUS
 62
     2
 10
2624.870600
 20
2038.638749
 40
2.500000
  0
CIRCLE
  8
CSLAYER1
  6
CONTINUOUS
 62
     2
 10
2634.870600
 20
2038.638749
 40
2.500000
  0
CIRCLE
  8
CSLAYER1
  6
CONTINUOUS
 62
     2
 10
2634.870600
 20
2028.638749
 40
2.500000
  0
CIRCLE
  8
CSLAYER1
  6
CONTINUOUS
 62
     2
 10
2644.870600
 20
2028.638749
 40
2.500000
  0
CIRCLE
  8
CSLAYER1
  6
CONTINUOUS
 62
     2
 10
2644.870600
 20
2038.638749
 40
2.500000
  0
CIRCLE
  8
CSLAYER1
  6
CONTINUOUS
 62
     2
 10
2654.870600
 20
2038.638749
 40
2.500000
  0
CIRCLE
  8
CSLAYER1
  6
CONTINUOUS
 62
     2
 10
2654.870600
 20
2028.638749
 40
2.500000
  0
LINE
  8
CSLAYER1
  6
CONTINUOUS
 62
     2
 10
2588.870600
 20
2026.138749
 11
2588.870600
 21
2061.138749
  0
LINE
  8
CSLAYER1
  6
CONTINUOUS
 62
     2
 10
2604.870600
 20
2026.138749
 11
2604.870600
 21
2061.138749
  0
LINE
  8
CSLAYER1
  6
CONTINUOUS
 62
     2
 10
2590.370600
 20
2024.638749
 11
2603.370600
 21
2024.638749
  0
LINE
  8
CSLAYER1
  6
CONTINUOUS
 62
     2
 10
2589.870600
 20
2026.138749
 11
2589.870600
 21
2061.138749
  0
LINE
  8
CSLAYER1
  6
CONTINUOUS
 62
     2
 10
2603.870600
 20
2026.138749
 11
2603.870600
 21
2061.138749
  0
LINE
  8
CSLAYER1
  6
CONTINUOUS
 62
     2
 10
2590.370600
 20
2025.638749
 11
2603.370600
 21
2025.638749
  0
LINE
  8
CSLAYER1
  6
CONTINUOUS
 62
     2
 10
2590.370600
 20
2062.638749
 11
2603.370600
 21
2062.638749
  0
LINE
  8
CSLAYER1
  6
CONTINUOUS
 62
     2
 10
2590.370600
 20
2061.638749
 11
2603.370600
 21
2061.638749
  0
ARC
  8
CSLAYER1
  6
CONTINUOUS
 62
     2
 10
2590.370600
 20
2026.138749
 40
0.500000
 50
180.000000
 51
270.000000
  0
ARC
  8
CSLAYER1
  6
CONTINUOUS
 62
     2
 10
2603.370600
 20
2026.138749
 40
0.500000
 50
-90.000000
 51
0.000000
  0
ARC
  8
CSLAYER1
  6
CONTINUOUS
 62
     2
 10
2590.370600
 20
2061.138749
 40
0.500000
 50
90.000000
 51
180.000000
  0
ARC
  8
CSLAYER1
  6
CONTINUOUS
 62
     2
 10
2603.370600
 20
2061.138749
 40
0.500000
 50
0.000000
 51
90.000000
  0
ARC
  8
CSLAYER1
  6
CONTINUOUS
 62
     2
 10
2590.370600
 20
2026.138749
 40
1.500000
 50
180.000000
 51
270.000000
  0
ARC
  8
CSLAYER1
  6
CONTINUOUS
 62
     2
 10
2603.370600
 20
2026.138749
 40
1.500000
 50
-90.000000
 51
0.000000
  0
ARC
  8
CSLAYER1
  6
CONTINUOUS
 62
     2
 10
2590.370600
 20
2061.138749
 40
1.500000
 50
90.000000
 51
180.000000
  0
ARC
  8
CSLAYER1
  6
CONTINUOUS
 62
     2
 10
2603.370600
 20
2061.138749
 40
1.500000
 50
0.000000
 51
90.000000
  0
LINE
  8
CSLAYER1
  6
CONTINUOUS
 62
     2
 10
2593.870600
 20
2034.638749
 11
2593.870600
 21
2052.638749
  0
LINE
  8
CSLAYER1
  6
CONTINUOUS
 62
     2
 10
2590.792528
 20
2043.638749
 11
2593.870600
 21
2052.638749
  0
LINE
  8
CSLAYER1
  6
CONTINUOUS
 62
     2
 10
2590.792528
 20
2043.638749
 11
2593.870600
 21
2034.638749
  0
TEXT
  8
CSLAYER1
 62
     2
 10
2602.164374
 20
2034.658759
 40
7.066058
 41
1.574983
  1
UP
 50
89.999985
 51
0.000000
  7
EASYDRAW_FONT
 72
     5
 11
2602.164379
 21
2053.206962
  0
LINE
  8
CSLAYER1
  6
CONTINUOUS
 62
     2
 10
2588.870600
 20
1971.138749
 11
2588.870600
 21
1936.138749
  0
LINE
  8
CSLAYER1
  6
CONTINUOUS
 62
     2
 10
2604.870600
 20
1971.138749
 11
2604.870600
 21
1936.138749
  0
LINE
  8
CSLAYER1
  6
CONTINUOUS
 62
     2
 10
2590.370600
 20
1972.638749
 11
2603.370600
 21
1972.638749
  0
LINE
  8
CSLAYER1
  6
CONTINUOUS
 62
     2
 10
2589.870600
 20
1971.138749
 11
2589.870600
 21
1936.138749
  0
LINE
  8
CSLAYER1
  6
CONTINUOUS
 62
     2
 10
2603.870600
 20
1971.138749
 11
2603.870600
 21
1936.138749
  0
LINE
  8
CSLAYER1
  6
CONTINUOUS
 62
     2
 10
2590.370600
 20
1971.638749
 11
2603.370600
 21
1971.638749
  0
LINE
  8
CSLAYER1
  6
CONTINUOUS
 62
     2
 10
2590.370600
 20
1934.638749
 11
2603.370600
 21
1934.638749
  0
LINE
  8
CSLAYER1
  6
CONTINUOUS
 62
     2
 10
2590.370600
 20
1935.638749
 11
2603.370600
 21
1935.638749
  0
ARC
  8
CSLAYER1
  6
CONTINUOUS
 62
     2
 10
2590.370600
 20
1971.138749
 40
0.500000
 50
90.000000
 51
180.000000
  0
ARC
  8
CSLAYER1
  6
CONTINUOUS
 62
     2
 10
2603.370600
 20
1971.138749
 40
0.500000
 50
0.000000
 51
90.000000
  0
ARC
  8
CSLAYER1
  6
CONTINUOUS
 62
     2
 10
2590.370600
 20
1936.138749
 40
0.500000
 50
180.000000
 51
270.000000
  0
ARC
  8
CSLAYER1
  6
CONTINUOUS
 62
     2
 10
2603.370600
 20
1936.138749
 40
0.500000
 50
-90.000000
 51
0.000000
  0
ARC
  8
CSLAYER1
  6
CONTINUOUS
 62
     2
 10
2590.370600
 20
1971.138749
 40
1.500000
 50
90.000000
 51
180.000000
  0
ARC
  8
CSLAYER1
  6
CONTINUOUS
 62
     2
 10
2603.370600
 20
1971.138749
 40
1.500000
 50
0.000000
 51
90.000000
  0
ARC
  8
CSLAYER1
  6
CONTINUOUS
 62
     2
 10
2590.370600
 20
1936.138749
 40
1.500000
 50
180.000000
 51
270.000000
  0
ARC
  8
CSLAYER1
  6
CONTINUOUS
 62
     2
 10
2603.370600
 20
1936.138749
 40
1.500000
 50
-90.000000
 51
0.000000
  0
LINE
  8
CSLAYER1
  6
CONTINUOUS
 62
     2
 10
2599.343530
 20
1962.638749
 11
2599.343530
 21
1944.638749
  0
LINE
  8
CSLAYER1
  6
CONTINUOUS
 62
     2
 10
2602.421602
 20
1953.638749
 11
2599.343530
 21
1944.638749
  0
LINE
  8
CSLAYER1
  6
CONTINUOUS
 62
     2
 10
2602.421602
 20
1953.638749
 11
2599.343530
 21
1962.638749
  0
TEXT
  8
CSLAYER1
 62
     2
 10
2597.733532
 20
1938.940946
 40
6.383575
 41
1.255870
  1
DOWN
 50
89.999985
 51
0.000000
  7
EASYDRAW_FONT
 72
     5
 11
2597.733539
 21
1968.336396
  0
ENDBLK
  8
0
  0
ENDSEC
  0
SECTION
  2
ENTITIES
  0
LINE
  8
CSLAYER1
  6
CONTINUOUS
 62
     3
 10
118.051807
 20
2400.454119
 11
118.051807
 21
51.907189
  0
LINE
  8
CSLAYER1
  6
CONTINUOUS
 62
     3
 10
3440.625117
 20
2400.454119
 11
118.051807
 21
2400.454119
  0
LINE
  8
CSLAYER1
  6
CONTINUOUS
 62
     3
 10
3440.625117
 20
2400.454119
 11
3440.625117
 21
51.907189
  0
LINE
  8
CSLAYER1
  6
CONTINUOUS
 62
     3
 10
3440.625117
 20
51.907189
 11
118.051807
 21
51.907189
  0
LINE
  8
CSLAYER1
  6
CONTINUOUS
 62
     5
 10
68.051807
 20
1211.907189
 11
18.051807
 21
1211.907189
  0
LINE
  8
CSLAYER1
  6
CONTINUOUS
 62
     5
 10
2640.625117
 20
491.907189
 11
3440.625117
 21
491.907189
  0
LINE
  8
CSLAYER1
  6
CONTINUOUS
 62
     5
 10
2640.625117
 20
131.907189
 11
3440.625117
 21
131.907189
  0
LINE
  8
CSLAYER1
  6
CONTINUOUS
 62
     5
 10
2640.625117
 20
291.907189
 11
3440.625117
 21
291.907189
  0
LINE
  8
CSLAYER1
  6
CONTINUOUS
 62
     5
 10
2640.625117
 20
351.907189
 11
3440.625117
 21
351.907189
  0
LINE
  8
CSLAYER1
  6
CONTINUOUS
 62
     5
 10
2640.625117
 20
411.907189
 11
3440.625117
 21
411.907189
  0
LINE
  8
CSLAYER1
  6
CONTINUOUS
 62
     5
 10
2640.625117
 20
571.907189
 11
3440.625117
 21
571.907189
  0
LINE
  8
CSLAYER1
  6
CONTINUOUS
 62
     5
 10
2640.625117
 20
651.907189
 11
2640.625117
 21
51.907189
  0
LINE
  8
CSLAYER1
  6
CONTINUOUS
 62
     5
 10
2840.625117
 20
651.907189
 11
2840.625117
 21
411.907189
  0
LINE
  8
CSLAYER1
  6
CONTINUOUS
 62
     5
 10
2640.625117
 20
651.907189
 11
3440.625117
 21
651.907189
  0
LINE
  8
CSLAYER1
  6
CONTINUOUS
 62
     5
 10
3140.625117
 20
411.907189
 11
3140.625117
 21
131.907189
  0
TEXT
  8
CSLAYER1
 62
     3
 10
2860.316219
 20
60.469913
 40
59.380363
 41
1.003345
  1
東正車輌株式会社
 50
0.000000
 51
0.000000
  7
EASYDRAW_FONT
 72
     5
 11
3317.088566
 21
60.469913
  0
LINE
  8
CSLAYER1
  6
CONTINUOUS
 62
     5
 10
2890.625117
 20
351.907189
 11
2890.625117
 21
131.907189
  0
TEXT
  8
CSLAYER1
 62
     5
 10
2670.625000
 20
586.907166
 40
50.000000
 41
1.050000
  1
品　名
 50
0.000000
 51
0.000000
  7
EASYDRAW_FONT
 72
     5
 11
2810.625000
 21
586.907166
  0
TEXT
  8
CSLAYER1
 62
     5
 10
2670.625000
 20
506.907166
 40
50.000000
 41
1.050000
  1
型　式
 50
0.000000
 51
0.000000
  7
EASYDRAW_FONT
 72
     5
 11
2810.625000
 21
506.907166
  0
TEXT
  8
CSLAYER1
 62
     5
 10
2645.625000
 20
426.907196
 40
50.000000
 41
1.036364
  1
図面番号
 50
0.000000
 51
0.000000
  7
EASYDRAW_FONT
 72
     5
 11
2835.625000
 21
426.907196
  0
TEXT
  8
CSLAYER1
 62
     5
 10
2690.625000
 20
356.907196
 40
50.000000
 41
0.827586
  1
平成２８年４月１６日
 50
0.000000
 51
0.000000
  7
EASYDRAW_FONT
 72
     5
 11
3090.625000
 21
356.907196
  0
TEXT
  8
CSLAYER1
 62
     5
 10
3220.625000
 20
356.907196
 40
50.000000
 41
1.050000
  1
Ｂ－４
 50
0.000000
 51
0.000000
  7
EASYDRAW_FONT
 72
     5
 11
3360.625000
 21
356.907196
  0
TEXT
  8
CSLAYER1
 62
     5
 10
2695.625000
 20
296.907196
 40
50.000000
 41
1.050000
  1
検　図
 50
0.000000
 51
0.000000
  7
EASYDRAW_FONT
 72
     5
 11
2835.625000
 21
296.907196
  0
TEXT
  8
CSLAYER1
 62
     5
 10
2945.625000
 20
296.907196
 40
50.000000
 41
1.050000
  1
作　図
 50
0.000000
 51
0.000000
  7
EASYDRAW_FONT
 72
     5
 11
3085.625000
 21
296.907196
  0
TEXT
  8
CSLAYER1
 62
     5
 10
3220.625000
 20
296.907196
 40
50.000000
 41
1.050000
  1
尺　度
 50
0.000000
 51
0.000000
  7
EASYDRAW_FONT
 72
     5
 11
3360.625000
 21
296.907196
  0
TEXT
  8
CSLAYER1
 62
     5
 10
3321.363770
 20
146.392456
 40
50.000000
 41
1.080000
  1
１０
 50
0.000000
 51
0.000000
  7
EASYDRAW_FONT
 72
     5
 11
3411.363770
 21
146.392456
  0
TEXT
  8
CSLAYER1
 62
     5
 10
3301.044189
 20
194.097153
 40
50.000000
 41
1.200000
  1
／
 50
0.000000
 51
0.000000
  7
EASYDRAW_FONT
 72
     5
 11
3341.044189
 21
194.097153
  0
TEXT
  8
CSLAYER1
 62
     5
 10
3270.831299
 20
229.080597
 40
50.000000
 41
1.200000
  1
１
 50
0.000000
 51
0.000000
  7
EASYDRAW_FONT
 72
     5
 11
3310.831299
 21
229.080597
  0
TEXT
  8
CSLAYER1
 62
     3
 10
2980.625000
 20
586.907166
 40
50.000000
 41
0.834783
  1
ゴールドリフター
 50
0.000000
 51
0.000000
  7
EASYDRAW_FONT
 72
     5
 11
3300.625000
 21
586.907166
  0
TEXT
  8
CSLAYER1
 62
     3
 10
2900.625000
 20
506.907166
 40
50.000000
 41
0.822857
  1
ＧＬＩ－３００－０６０９
 50
0.000000
 51
0.000000
  7
EASYDRAW_FONT
 72
     5
 11
3380.625000
 21
506.907166
  0
TEXT
  8
CSLAYER1
 62
     3
 10
3040.625000
 20
426.907196
 40
50.000000
 41
0.857143
  1
GI-03
 50
0.000000
 51
0.000000
  7
EASYDRAW_FONT
 72
     5
 11
3240.625000
 21
426.907196
  0
INSERT
  8
CSLAYER1
  2
BLKF0000
 10
0.0
 20
0.0
 30
0.0
  0
LINE
  8
CSLAYER1
  6
CONTINUOUS
 62
     5
 10
3424.025197
 20
1846.290007
 11
2703.152679
 21
1846.290007
  0
LINE
  8
CSLAYER1
  6
CONTINUOUS
 62
     5
 10
3424.025197
 20
1782.290008
 11
2703.152679
 21
1782.290008
  0
LINE
  8
CSLAYER1
  6
CONTINUOUS
 62
     5
 10
3424.025197
 20
1718.290010
 11
2703.152679
 21
1718.290010
  0
LINE
  8
CSLAYER1
  6
CONTINUOUS
 62
     5
 10
3424.025197
 20
1654.290011
 11
2704.025215
 21
1654.290011
  0
LINE
  8
CSLAYER1
  6
CONTINUOUS
 62
     5
 10
3424.025197
 20
1590.290013
 11
2703.152679
 21
1590.290013
  0
LINE
  8
CSLAYER1
  6
CONTINUOUS
 62
     5
 10
3424.025197
 20
1526.290015
 11
2703.152679
 21
1526.290015
  0
LINE
  8
CSLAYER1
  6
CONTINUOUS
 62
     5
 10
3424.025197
 20
1462.290016
 11
2703.152679
 21
1462.290016
  0
LINE
  8
CSLAYER1
  6
CONTINUOUS
 62
     5
 10
3424.025197
 20
1398.290018
 11
2703.152679
 21
1398.290018
  0
LINE
  8
CSLAYER1
  6
CONTINUOUS
 62
     5
 10
3424.025197
 20
1334.290019
 11
2703.152679
 21
1334.290019
  0
LINE
  8
CSLAYER1
  6
CONTINUOUS
 62
     5
 10
3424.025197
 20
1206.290023
 11
2703.152679
 21
1206.290023
  0
LINE
  8
CSLAYER1
  6
CONTINUOUS
 62
     5
 10
3424.025197
 20
1142.290024
 11
2703.152679
 21
1142.290024
  0
TEXT
  8
CSLAYER1
 62
     3
 10
2898.876709
 20
1926.109131
 40
40.000000
 41
0.857143
  1
仕   様
 50
0.000000
 51
0.000000
  7
EASYDRAW_FONT
 72
     5
 11
3058.876709
 21
1926.109131
  0
TEXT
  8
CSLAYER1
 62
     3
 10
2713.912354
 20
1854.512939
 40
40.000000
 41
0.847059
  1
型    式
 50
0.000000
 51
0.000000
  7
EASYDRAW_FONT
 72
     5
 11
2905.912354
 21
1854.512939
  0
TEXT
  8
CSLAYER1
 62
     3
 10
2712.092773
 20
1732.023071
 40
40.000000
 41
0.847059
  1
テーブル寸法
 50
0.000000
 51
0.000000
  7
EASYDRAW_FONT
 72
     5
 11
2904.092773
 21
1732.023071
  0
TEXT
  8
CSLAYER1
 62
     3
 10
2713.912354
 20
1668.959106
 40
40.000000
 41
0.847059
  1
テーブル高サ
 50
0.000000
 51
0.000000
  7
EASYDRAW_FONT
 72
     5
 11
2905.912354
 21
1668.959106
  0
TEXT
  8
CSLAYER1
 62
     3
 10
2715.359131
 20
1604.076294
 40
40.000000
 41
0.857143
  1
ストローク
 50
0.000000
 51
0.000000
  7
EASYDRAW_FONT
 72
     5
 11
2875.359131
 21
1604.076294
  0
TEXT
  8
CSLAYER1
 62
     3
 10
2714.752930
 20
1539.193481
 40
40.000000
 41
0.857143
  1
全   長
 50
0.000000
 51
0.000000
  7
EASYDRAW_FONT
 72
     5
 11
2874.752930
 21
1539.193481
  0
TEXT
  8
CSLAYER1
 62
     3
 10
2717.024170
 20
1473.342407
 40
40.000000
 41
0.857143
  1
全   巾
 50
0.000000
 51
0.000000
  7
EASYDRAW_FONT
 72
     5
 11
2877.024170
 21
1473.342407
  0
TEXT
  8
CSLAYER1
 62
     3
 10
2715.466309
 20
1409.457642
 40
40.000000
 41
0.857143
  1
全   高
 50
0.000000
 51
0.000000
  7
EASYDRAW_FONT
 72
     5
 11
2875.466309
 21
1409.457642
  0
TEXT
  8
CSLAYER1
 62
     3
 10
2715.466309
 20
1347.130981
 40
40.000000
 41
0.857143
  1
リフト方式
 50
0.000000
 51
0.000000
  7
EASYDRAW_FONT
 72
     5
 11
2875.466309
 21
1347.130981
  0
TEXT
  8
CSLAYER1
 62
     3
 10
2714.325928
 20
1152.243286
 40
40.000000
 41
0.872727
  1
モーター
 50
0.000000
 51
0.000000
  7
EASYDRAW_FONT
 72
     5
 11
2842.325928
 21
1152.243286
  0
LINE
  8
CSLAYER1
  6
CONTINUOUS
 62
     5
 10
3424.025197
 20
1078.290026
 11
2703.152679
 21
1078.290026
  0
LINE
  8
CSLAYER1
  6
CONTINUOUS
 62
     5
 10
3424.025197
 20
950.290029
 11
2701.014177
 21
950.290029
  0
LINE
  8
CSLAYER1
  6
CONTINUOUS
 62
     5
 10
3424.025197
 20
886.290031
 11
2703.152679
 21
886.290031
  0
LINE
  8
CSLAYER1
  6
CONTINUOUS
 62
     5
 10
3424.025197
 20
822.290032
 11
2703.152679
 21
822.290032
  0
TEXT
  8
CSLAYER1
 62
     3
 10
2716.907471
 20
833.411682
 40
40.000000
 41
0.857143
  1
自  　重
 50
0.000000
 51
0.000000
  7
EASYDRAW_FONT
 72
     5
 11
2876.907471
 21
833.411682
  0
TEXT
  8
CSLAYER1
 62
     3
 10
2713.811523
 20
770.072327
 40
40.000000
 41
0.847059
  1
塗　装　色 
 50
0.000000
 51
0.000000
  7
EASYDRAW_FONT
 72
     5
 11
2905.811523
 21
770.072327
  0
TEXT
  8
CSLAYER1
 62
     3
 10
3167.334717
 20
1793.021240
 40
40.000000
 41
0.872727
  1
 300
 50
0.000000
 51
0.000000
  7
EASYDRAW_FONT
 72
     5
 11
3295.334717
 21
1793.021240
  0
TEXT
  8
CSLAYER1
 62
     3
 10
3353.491455
 20
1789.347900
 40
40.000000
 41
0.960000
  1
Ｋｇ
 50
0.000000
 51
0.000000
  7
EASYDRAW_FONT
 72
     5
 11
3417.491455
 21
1789.347900
  0
TEXT
  8
CSLAYER1
 62
     3
 10
3006.218994
 20
1728.518188
 40
40.000000
 41
0.830769
  1
900L×600W
 50
0.000000
 51
0.000000
  7
EASYDRAW_FONT
 72
     5
 11
3294.218994
 21
1728.518188
  0
TEXT
  8
CSLAYER1
 62
     3
 10
3066.926514
 20
1665.984497
 40
40.000000
 41
0.840000
  1
155～700
 50
0.000000
 51
0.000000
  7
EASYDRAW_FONT
 72
     5
 11
3290.926514
 21
1665.984497
  0
TEXT
  8
CSLAYER1
 62
     3
 10
3193.173096
 20
1602.309204
 40
40.000000
 41
0.900000
  1
545
 50
0.000000
 51
0.000000
  7
EASYDRAW_FONT
 72
     5
 11
3289.173096
 21
1602.309204
  0
TEXT
  8
CSLAYER1
 62
     3
 10
3197.311768
 20
1537.523560
 40
40.000000
 41
0.900000
  1
900
 50
0.000000
 51
0.000000
  7
EASYDRAW_FONT
 72
     5
 11
3293.311768
 21
1537.523560
  0
TEXT
  8
CSLAYER1
 62
     3
 10
3195.292236
 20
1474.219360
 40
40.000000
 41
0.900000
  1
600
 50
0.000000
 51
0.000000
  7
EASYDRAW_FONT
 72
     5
 11
3291.292236
 21
1474.219360
  0
TEXT
  8
CSLAYER1
 62
     3
 10
2948.206299
 20
1346.547974
 40
40.000000
 41
0.827586
  1
電 動 ボールネジ式
 50
0.000000
 51
0.000000
  7
EASYDRAW_FONT
 72
     5
 11
3268.206299
 21
1346.547974
  0
TEXT
  8
CSLAYER1
 62
     3
 10
2945.432373
 20
1153.160278
 40
40.000000
 41
0.819512
  1
３相ＡＣ２００Ｖ、0.2ＫＷ
 50
0.000000
 51
0.000000
  7
EASYDRAW_FONT
 72
     5
 11
3393.432373
 21
1153.160278
  0
TEXT
  8
CSLAYER1
 62
     3
 10
3076.415771
 20
1089.317017
 40
40.000000
 41
0.840000
  1
長サ  ４ ｍ
 50
0.000000
 51
0.000000
  7
EASYDRAW_FONT
 72
     5
 11
3300.415771
 21
1089.317017
  0
TEXT
  8
CSLAYER1
 62
     3
 10
3189.055420
 20
835.311096
 40
40.000000
 41
0.847059
  1
１０５　Ｋｇ
 50
0.000000
 51
0.000000
  7
EASYDRAW_FONT
 72
     5
 11
3381.055420
 21
835.311096
  0
TEXT
  8
CSLAYER1
 62
     3
 10
3193.283447
 20
1409.558228
 40
40.000000
 41
0.900000
  1
155
 50
0.000000
 51
0.000000
  7
EASYDRAW_FONT
 72
     5
 11
3289.283447
 21
1409.558228
  0
TEXT
  8
CSLAYER1
 62
     3
 10
3350.977295
 20
1725.244751
 40
40.000000
 41
0.960000
  1
mm
 50
0.000000
 51
0.000000
  7
EASYDRAW_FONT
 72
     5
 11
3414.977295
 21
1725.244751
  0
TEXT
  8
CSLAYER1
 62
     3
 10
3350.977295
 20
1664.911255
 40
40.000000
 41
0.960000
  1
mm
 50
0.000000
 51
0.000000
  7
EASYDRAW_FONT
 72
     5
 11
3414.977295
 21
1664.911255
  0
TEXT
  8
CSLAYER1
 62
     3
 10
3347.206543
 20
1600.807251
 40
40.000000
 41
0.960000
  1
mm
 50
0.000000
 51
0.000000
  7
EASYDRAW_FONT
 72
     5
 11
3411.206543
 21
1600.807251
  0
TEXT
  8
CSLAYER1
 62
     3
 10
3347.206543
 20
1532.932251
 40
40.000000
 41
0.960000
  1
mm
 50
0.000000
 51
0.000000
  7
EASYDRAW_FONT
 72
     5
 11
3411.206543
 21
1532.932251
  0
TEXT
  8
CSLAYER1
 62
     3
 10
3344.693115
 20
1472.599731
 40
40.000000
 41
0.960000
  1
mm
 50
0.000000
 51
0.000000
  7
EASYDRAW_FONT
 72
     5
 11
3408.693115
 21
1472.599731
  0
TEXT
  8
CSLAYER1
 62
     3
 10
3344.693115
 20
1408.494751
 40
40.000000
 41
0.960000
  1
mm
 50
0.000000
 51
0.000000
  7
EASYDRAW_FONT
 72
     5
 11
3408.693115
 21
1408.494751
  0
LINE
  8
CSLAYER1
  6
CONTINUOUS
 62
     5
 10
3086.929617
 20
1910.290005
 11
2878.543645
 21
1910.290005
  0
LINE
  8
CSLAYER1
  6
CONTINUOUS
 62
     5
 10
3086.929617
 20
1918.290005
 11
2878.543645
 21
1918.290005
  0
TEXT
  8
CSLAYER1
 62
     3
 10
2717.907959
 20
1216.129517
 40
40.000000
 41
1.036364
  1
操作方式
 50
0.000000
 51
0.000000
  7
EASYDRAW_FONT
 72
     5
 11
2869.907959
 21
1216.129517
  0
LINE
  8
CSLAYER1
  6
CONTINUOUS
 62
     5
 10
3424.025197
 20
1014.290027
 11
2703.152679
 21
1014.290027
  0
TEXT
  8
CSLAYER1
 62
     3
 10
2715.242188
 20
1088.926392
 40
40.000000
 41
0.942857
  1
電源コード
 50
0.000000
 51
0.000000
  7
EASYDRAW_FONT
 72
     5
 11
2891.242188
 21
1088.926392
  0
TEXT
  8
CSLAYER2
 62
     5
 10
2967.744170
 20
1851.923510
 40
36.148586
 41
0.847115
  1
GLI-300-0609
 50
0.000000
 51
0.000000
  7
EASYDRAW_FONT
 72
     5
 11
3325.000947
 21
1851.923510
  0
TEXT
  8
CSLAYER1
 62
     3
 10
2945.882568
 20
1215.860962
 40
40.000000
 41
1.020000
  1
フットスイッチ
 50
0.000000
 51
0.000000
  7
EASYDRAW_FONT
 72
     5
 11
3217.882568
 21
1215.860962
  0
LINE
  8
CSLAYER1
  6
CONTINUOUS
 62
     3
 10
2604.465052
 20
439.227802
 11
148.280027
 21
439.227802
  0
TEXT
  8
CSLAYER1
 62
     4
 10
2715.671158
 20
1019.804941
 40
47.730206
 41
0.593339
  1
昇降時間 １９秒（50HZ） １６秒(60HZ)
 50
0.000000
 51
0.000000
  7
EASYDRAW_FONT
 72
     5
 11
3385.916244
 21
1019.804941
  0
TEXT
  8
CSLAYER1
 62
     4
 10
2716.971924
 20
894.361389
 40
40.000000
 41
0.912766
  1
上昇端、下降端リミットスイッチ付
 50
0.000000
 51
0.000000
  7
EASYDRAW_FONT
 72
     5
 11
3288.971924
 21
894.361389
  0
TEXT
  8
CSLAYER1
 62
     5
 10
2529.974770
 20
443.319977
 40
29.942631
 41
0.818121
  1
Ｆ.Ｌ
 50
0.000000
 51
0.000000
  7
EASYDRAW_FONT
 72
     5
 11
2595.299316
 21
443.319977
  0
LINE
  8
CSLAYER1
  6
CONTINUOUS
 62
     3
 10
2148.106123
 20
1838.978471
 11
2232.640956
 21
1838.978471
  0
LINE
  8
CSLAYER1
  6
CONTINUOUS
 62
     3
 10
2148.106123
 20
1845.978471
 11
2232.640956
 21
1845.978471
  0
LINE
  8
CSLAYER1
  6
CONTINUOUS
 62
     3
 10
2148.106123
 20
1881.178471
 11
2189.032662
 21
1881.178471
  0
LINE
  8
CSLAYER1
  6
CONTINUOUS
 62
     3
 10
2148.106123
 20
1874.178471
 11
2189.032662
 21
1874.178471
  0
TEXT
  8
CSLAYER1
 62
     5
 10
2795.206543
 20
2058.267334
 40
40.000000
 41
1.020000
  1
ＵＰ・ＤＯＷＮ
 50
360.000000
 51
0.000000
  7
EASYDRAW_FONT
 72
     5
 11
3067.206543
 21
2058.267334
  0
TEXT
  8
CSLAYER1
 62
     5
 10
2795.206543
 20
2110.044189
 40
40.000000
 41
1.020000
  1
フットスイッチ
 50
360.000000
 51
0.000000
  7
EASYDRAW_FONT
 72
     5
 11
3067.206543
 21
2110.044189
  0
TEXT
  8
CSLAYER1
 62
     5
 10
2766.714600
 20
2188.315186
 40
40.000000
 41
1.036364
  1
長サ４ｍ
 50
360.000000
 51
0.000000
  7
EASYDRAW_FONT
 72
     5
 11
2918.714600
 21
2188.315186
  0
TEXT
  8
CSLAYER1
 62
     5
 10
2753.780273
 20
2240.298584
 40
40.000000
 41
1.028571
  1
電源コード
 50
360.000000
 51
0.000000
  7
EASYDRAW_FONT
 72
     5
 11
2945.780273
 21
2240.298584
  0
LINE
  8
CSLAYER1
  6
CONTINUOUS
 62
     3
 10
2459.308215
 20
2002.138749
 11
2573.370600
 21
2002.138749
  0
LINE
  8
CSLAYER1
  6
CONTINUOUS
 62
     3
 10
2459.308215
 20
1995.138749
 11
2573.370600
 21
1995.138749
  0
ARC
  8
CSLAYER1
  6
CONTINUOUS
 62
     3
 10
2459.308215
 20
1955.138749
 40
40.000000
 50
-270.000000
 51
63.051119
  0
ARC
  8
CSLAYER1
  6
CONTINUOUS
 62
     3
 10
2459.308215
 20
1955.138749
 40
47.000000
 50
-270.000000
 51
50.026912
  0
LINE
  8
CSLAYER1
  6
CONTINUOUS
 62
     3
 10
2268.171168
 20
1920.046673
 11
2366.620218
 21
2047.494433
  0
LINE
  8
CSLAYER1
  6
CONTINUOUS
 62
     3
 10
2273.710864
 20
1915.767447
 11
2379.926944
 21
2053.270059
  0
LINE
  8
CSLAYER1
  6
CONTINUOUS
 62
     3
 10
2300.463484
 20
1872.493068
 11
2413.337906
 21
1976.669248
  0
LINE
  8
CSLAYER1
  6
CONTINUOUS
 62
     3
 10
2305.211061
 20
1867.349089
 11
2407.864096
 21
1962.091556
  0
ARC
  8
CSLAYER1
  6
CONTINUOUS
 62
     3
 10
2356.548698
 20
2099.888687
 40
47.000000
 50
-29.129616
 51
288.825317
  0
ARC
  8
CSLAYER1
  6
CONTINUOUS
 62
     3
 10
2356.548698
 20
2099.888687
 40
40.000000
 50
-41.844277
 51
288.825317
  0
LINE
  8
CSLAYER1
  6
CONTINUOUS
 62
     3
 10
2586.763391
 20
2128.717415
 11
2584.504603
 21
2135.342962
  0
LINE
  8
CSLAYER1
  6
CONTINUOUS
 62
     3
 10
2584.504603
 20
2135.342962
 11
2369.456056
 21
2062.028416
  0
LINE
  8
CSLAYER1
  6
CONTINUOUS
 62
     3
 10
2586.763391
 20
2128.717415
 11
2371.714844
 21
2055.402868
  0
ARC
  8
CSLAYER1
  6
CONTINUOUS
 62
     3
 10
2189.032662
 20
1981.178471
 40
100.000000
 50
270.000000
 51
322.315137
  0
ARC
  8
CSLAYER1
  6
CONTINUOUS
 62
     3
 10
2189.032662
 20
1981.178471
 40
107.000000
 50
270.000000
 51
322.315137
  0
ARC
  8
CSLAYER1
  6
CONTINUOUS
 62
     3
 10
2232.640956
 20
1945.978471
 40
100.000000
 50
270.000000
 51
312.705116
  0
ARC
  8
CSLAYER1
  6
CONTINUOUS
 62
     3
 10
2232.640956
 20
1945.978471
 40
107.000000
 50
270.000000
 51
312.705116
  0
LINE
  8
CSLAYER1
  6
CONTINUOUS
 62
     5
 10
2611.239733
 20
2150.970257
 11
2740.974056
 21
2234.309550
  0
LINE
  8
CSLAYER1
  6
CONTINUOUS
 62
     5
 10
2611.239733
 20
2150.970257
 11
2631.423891
 21
2173.164845
  0
LINE
  8
CSLAYER1
  6
CONTINUOUS
 62
     5
 10
2611.239733
 20
2150.970257
 11
2639.817021
 21
2160.099255
  0
LINE
  8
CSLAYER1
  6
CONTINUOUS
 62
     5
 10
2740.974056
 20
2234.309550
 11
2957.034529
 21
2234.309550
  0
LINE
  8
CSLAYER1
  6
CONTINUOUS
 62
     5
 10
2784.134913
 20
2103.917775
 11
3073.379710
 21
2103.917775
  0
LINE
  8
CSLAYER1
  6
CONTINUOUS
 62
     5
 10
2670.370600
 20
2039.256564
 11
2784.134913
 21
2103.917775
  0
LINE
  8
CSLAYER1
  6
CONTINUOUS
 62
     5
 10
2670.370600
 20
2039.256564
 11
2691.726610
 21
2060.325993
  0
LINE
  8
CSLAYER1
  6
CONTINUOUS
 62
     5
 10
2670.370600
 20
2039.256564
 11
2699.400162
 21
2046.825220
  0
CIRCLE
  8
CSLAYER1
  6
DASHED
 62
     5
 10
1854.549965
 20
463.727802
 40
6.000000
  0
CIRCLE
  8
CSLAYER1
  6
DASHED
 62
     5
 10
1854.549965
 20
463.727802
 40
18.500000
  0
POINT
  8
CSLAYER1
 62
     5
 10
1708.003823
 20
975.873657
  0
ARC
  8
CSLAYER1
  6
CONTINUOUS
 62
     4
 10
1708.003823
 20
975.873657
 40
9.050000
 50
254.519091
 51
344.434860
  0
CIRCLE
  8
CSLAYER1
  6
CONTINUOUS
 62
     4
 10
1853.379297
 20
1071.613826
 40
18.500000
  0
LINE
  8
CSLAYER1
  6
CENTER
 62
     5
 10
1853.299077
 20
1091.929498
 11
1853.456389
 21
1052.090236
  0
LINE
  8
CSLAYER1
  6
CENTER
 62
     5
 10
1831.091932
 20
1071.525821
 11
1874.852732
 21
1071.698618
  0
LINE
  8
CSLAYER1
  6
CENTER
 62
     5
 10
1237.144851
 20
1907.619873
 11
2139.659898
 21
1907.619873
  0
LINE
  8
CSLAYER1
  6
CONTINUOUS
 62
     3
 10
1239.459898
 20
2207.619873
 11
2139.459898
 21
2207.619873
  0
LINE
  8
CSLAYER1
  6
CONTINUOUS
 62
     3
 10
1239.459898
 20
2207.619873
 11
1239.459898
 21
1607.619873
  0
LINE
  8
CSLAYER1
  6
CONTINUOUS
 62
     3
 10
2139.459898
 20
2207.619873
 11
2139.459898
 21
1607.619873
  0
CIRCLE
  8
CSLAYER1
  6
CONTINUOUS
 62
     7
 10
1480.684871
 20
736.935523
 40
10.000000
  0
POINT
  8
CSLAYER1
 62
     7
 10
1480.684871
 20
736.935523
  0
LINE
  8
CSLAYER1
  6
CONTINUOUS
 62
     7
 10
1280.651291
 20
554.969684
 11
1263.708782
 21
489.227802
  0
LINE
  8
CSLAYER1
  6
CONTINUOUS
 62
     7
 10
1359.659898
 20
528.340074
 11
1556.884381
 21
728.840253
  0
LINE
  8
CSLAYER1
  6
CONTINUOUS
 62
     7
 10
1436.717618
 20
752.130281
 11
1280.651291
 21
554.969684
  0
LINE
  8
CSLAYER1
  6
CONTINUOUS
 62
     7
 10
1436.717618
 20
752.130281
 11
1483.642384
 21
799.834419
  0
LINE
  8
CSLAYER1
  6
CONTINUOUS
 62
     7
 10
1627.105851
 20
817.340105
 11
1607.610359
 21
780.408738
  0
LINE
  8
CSLAYER1
  6
CONTINUOUS
 62
     7
 10
1627.105851
 20
817.340105
 11
1710.089651
 21
901.702180
  0
ARC
  8
CSLAYER1
  6
CONTINUOUS
 62
     7
 10
1773.787923
 20
1037.758728
 40
22.000000
 50
-37.096710
 51
142.903290
  0
LINE
  8
CSLAYER1
  6
CONTINUOUS
 62
     7
 10
1756.240315
 20
1051.028296
 11
1686.289103
 21
958.525172
  0
LINE
  8
CSLAYER1
  6
CONTINUOUS
 62
     7
 10
1791.335532
 20
1024.489160
 11
1721.384320
 21
931.986036
  0
ARC
  8
CSLAYER1
  6
CONTINUOUS
 62
     7
 10
1703.836711
 20
945.255604
 40
22.000000
 50
142.903290
 51
322.903290
  0
POINT
  8
CSLAYER1
 62
     7
 10
1563.519597
 20
767.670814
  0
POINT
  8
CSLAYER1
 62
     7
 10
1853.379297
 20
1071.613826
  0
ARC
  8
CSLAYER1
  6
CONTINUOUS
 62
     7
 10
1703.836711
 20
945.255604
 40
44.000000
 50
278.170092
 51
318.419183
  0
LINE
  8
CSLAYER1
  6
CONTINUOUS
 62
     7
 10
1736.749606
 20
916.053869
 11
1859.184007
 21
1054.048083
  0
LINE
  8
CSLAYER1
  6
CONTINUOUS
 62
     7
 10
1692.588959
 20
692.957768
 11
1621.317444
 21
805.402613
  0
ARC
  8
CSLAYER1
  6
CONTINUOUS
 62
     7
 10
1675.696412
 20
682.250675
 40
20.000000
 50
7.890398
 51
32.367967
  0
POINT
  8
CSLAYER1
 62
     5
 10
1563.519597
 20
767.670814
  0
LINE
  8
CSLAYER1
  6
CONTINUOUS
 62
     7
 10
1849.520322
 20
535.709724
 11
1292.659898
 21
1075.479845
  0
LINE
  8
CSLAYER1
  6
CONTINUOUS
 62
     7
 10
1277.518873
 20
999.631905
 11
1804.083486
 21
489.227802
  0
LINE
  8
CSLAYER1
  6
CONTINUOUS
 62
     7
 10
1862.754772
 20
489.227802
 11
1849.520322
 21
535.709724
  0
LINE
  8
CSLAYER1
  6
CONTINUOUS
 62
     7
 10
1277.518873
 20
999.631905
 11
1261.721920
 21
1055.113826
  0
LINE
  8
CSLAYER1
  6
CONTINUOUS
 62
     3
 10
2118.859898
 20
537.527802
 11
2118.859898
 21
489.227802
  0
LINE
  8
CSLAYER1
  6
CONTINUOUS
 62
     3
 10
2148.859898
 20
528.027802
 11
2148.859898
 21
511.027802
  0
LINE
  8
CSLAYER1
  6
CONTINUOUS
 62
     3
 10
2144.890331
 20
532.518184
 11
2130.262461
 21
532.518184
  0
LINE
  8
CSLAYER1
  6
CONTINUOUS
 62
     3
 10
2145.750803
 20
531.027802
 11
2145.750803
 21
508.027802
  0
LINE
  8
CSLAYER1
  6
CONTINUOUS
 62
     3
 10
2129.401989
 20
531.027802
 11
2129.401989
 21
508.027802
  0
LINE
  8
CSLAYER1
  6
CONTINUOUS
 62
     3
 10
2145.750803
 20
531.027802
 11
2144.890331
 21
532.518184
  0
LINE
  8
CSLAYER1
  6
CONTINUOUS
 62
     3
 10
2129.401989
 20
531.027802
 11
2130.262461
 21
532.518184
  0
LINE
  8
CSLAYER1
  6
CONTINUOUS
 62
     3
 10
2144.890331
 20
526.167331
 11
2130.262461
 21
526.167331
  0
ARC
  8
CSLAYER1
  6
CONTINUOUS
 62
     3
 10
2119.704778
 20
519.527802
 40
26.046025
 50
-14.768561
 51
14.768561
  0
ARC
  8
CSLAYER1
  6
CONTINUOUS
 62
     3
 10
2139.619210
 20
529.342757
 40
6.153702
 50
-31.065581
 51
23.174644
  0
ARC
  8
CSLAYER1
  6
CONTINUOUS
 62
     3
 10
2135.533582
 20
529.342757
 40
6.153702
 50
156.825356
 51
211.065581
  0
ARC
  8
CSLAYER1
  6
CONTINUOUS
 62
     3
 10
2155.448014
 20
519.527802
 40
26.046025
 50
165.231439
 51
194.768561
  0
LINE
  8
CSLAYER1
  6
CONTINUOUS
 62
     3
 10
2145.859898
 20
531.027802
 11
2145.750803
 21
531.027802
  0
ARC
  8
CSLAYER1
  6
CONTINUOUS
 62
     3
 10
2145.859898
 20
528.027802
 40
3.000000
 50
0.000000
 51
90.000000
  0
LINE
  8
CSLAYER1
  6
CONTINUOUS
 62
     3
 10
2125.859898
 20
531.027802
 11
2125.859898
 21
508.027802
  0
LINE
  8
CSLAYER1
  6
CONTINUOUS
 62
     3
 10
2125.859898
 20
531.027802
 11
2124.999426
 21
532.518184
  0
ARC
  8
CSLAYER1
  6
CONTINUOUS
 62
     3
 10
2099.813873
 20
519.527802
 40
26.046025
 50
-14.768561
 51
14.768561
  0
ARC
  8
CSLAYER1
  6
CONTINUOUS
 62
     3
 10
2119.728304
 20
529.342757
 40
6.153702
 50
-31.065581
 51
23.174644
  0
LINE
  8
CSLAYER1
  6
CONTINUOUS
 62
     3
 10
2124.999426
 20
526.167331
 11
2120.859898
 21
526.167331
  0
LINE
  8
CSLAYER1
  6
CONTINUOUS
 62
     3
 10
2124.999426
 20
532.518184
 11
2120.859898
 21
532.518184
  0
LINE
  8
CSLAYER1
  6
CONTINUOUS
 62
     3
 10
2129.401989
 20
529.863927
 11
2125.859898
 21
529.863927
  0
LINE
  8
CSLAYER1
  6
CONTINUOUS
 62
     3
 10
2129.401989
 20
529.217549
 11
2127.795627
 21
529.217549
  0
LINE
  8
CSLAYER1
  6
CONTINUOUS
 62
     3
 10
2127.795627
 20
529.863927
 11
2127.795627
 21
509.191678
  0
LINE
  8
CSLAYER1
  6
CONTINUOUS
 62
     3
 10
2127.795627
 20
529.217549
 11
2126.660775
 21
529.863927
  0
LINE
  8
CSLAYER1
  6
CONTINUOUS
 62
     3
 10
2144.890331
 20
506.537421
 11
2130.262461
 21
506.537421
  0
LINE
  8
CSLAYER1
  6
CONTINUOUS
 62
     3
 10
2145.750803
 20
508.027802
 11
2144.890331
 21
506.537421
  0
LINE
  8
CSLAYER1
  6
CONTINUOUS
 62
     3
 10
2129.401989
 20
508.027802
 11
2130.262461
 21
506.537421
  0
LINE
  8
CSLAYER1
  6
CONTINUOUS
 62
     3
 10
2144.890331
 20
512.888274
 11
2130.262461
 21
512.888274
  0
ARC
  8
CSLAYER1
  6
CONTINUOUS
 62
     3
 10
2139.619210
 20
509.712848
 40
6.153702
 50
-23.174644
 51
31.065581
  0
ARC
  8
CSLAYER1
  6
CONTINUOUS
 62
     3
 10
2135.533582
 20
509.712848
 40
6.153702
 50
148.934419
 51
203.174644
  0
LINE
  8
CSLAYER1
  6
CONTINUOUS
 62
     3
 10
2145.859898
 20
508.027802
 11
2145.750803
 21
508.027802
  0
ARC
  8
CSLAYER1
  6
CONTINUOUS
 62
     3
 10
2145.859898
 20
511.027802
 40
3.000000
 50
270.000000
 51
360.000000
  0
LINE
  8
CSLAYER1
  6
CONTINUOUS
 62
     3
 10
2125.859898
 20
508.027802
 11
2124.999426
 21
506.537421
  0
ARC
  8
CSLAYER1
  6
CONTINUOUS
 62
     3
 10
2119.728304
 20
509.712848
 40
6.153702
 50
-23.174644
 51
31.065581
  0
LINE
  8
CSLAYER1
  6
CONTINUOUS
 62
     3
 10
2124.999426
 20
512.888274
 11
2120.859898
 21
512.888274
  0
LINE
  8
CSLAYER1
  6
CONTINUOUS
 62
     3
 10
2124.999426
 20
506.537421
 11
2120.859898
 21
506.537421
  0
LINE
  8
CSLAYER1
  6
CONTINUOUS
 62
     3
 10
2129.401989
 20
509.191678
 11
2125.859898
 21
509.191678
  0
LINE
  8
CSLAYER1
  6
CONTINUOUS
 62
     3
 10
2129.401989
 20
509.838056
 11
2127.795627
 21
509.838056
  0
LINE
  8
CSLAYER1
  6
CONTINUOUS
 62
     3
 10
2127.795627
 20
509.838056
 11
2126.660775
 21
509.191678
  0
ARC
  8
CSLAYER1
  6
CONTINUOUS
 62
     3
 10
2119.859898
 20
530.977802
 40
1.000000
 50
0.000000
 51
180.000000
  0
POINT
  8
CSLAYER1
 62
     3
 10
2119.859898
 20
530.977802
  0
ARC
  8
CSLAYER1
  6
CONTINUOUS
 62
     3
 10
2119.859898
 20
508.077802
 40
1.000000
 50
180.000000
 51
360.000000
  0
POINT
  8
CSLAYER1
 62
     3
 10
2119.859898
 20
508.077802
  0
LINE
  8
CSLAYER1
  6
CONTINUOUS
 62
     3
 10
2120.859898
 20
532.518184
 11
2120.859898
 21
506.537421
  0
LINE
  8
CSLAYER1
  6
CENTER
 62
     5
 10
2206.614773
 20
519.527802
 11
2116.285981
 21
519.527802
  0
LINE
  8
CSLAYER1
  6
CONTINUOUS
 62
     3
 10
2203.436619
 20
523.327802
 11
2148.859898
 21
523.327802
  0
LINE
  8
CSLAYER1
  6
CONTINUOUS
 62
     3
 10
2200.712488
 20
515.727802
 11
2148.859898
 21
515.727802
  0
LINE
  8
CSLAYER1
  6
CONTINUOUS
 62
     3
 10
1979.459898
 20
537.527802
 11
1979.459898
 21
489.227802
  0
LINE
  8
CSLAYER1
  6
CONTINUOUS
 62
     3
 10
1978.159898
 20
543.527802
 11
2120.159898
 21
543.527802
  0
LINE
  8
CSLAYER1
  6
CONTINUOUS
 62
     3
 10
1978.159898
 20
537.527802
 11
2120.159898
 21
537.527802
  0
LINE
  8
CSLAYER1
  6
CONTINUOUS
 62
     3
 10
1978.159898
 20
543.527802
 11
1978.159898
 21
537.527802
  0
LINE
  8
CSLAYER1
  6
CONTINUOUS
 62
     3
 10
2120.159898
 20
543.527802
 11
2120.159898
 21
537.527802
  0
LINE
  8
CSLAYER1
  6
CENTER
 62
     5
 10
2049.159898
 20
547.316304
 11
2049.159898
 21
537.547694
  0
LINE
  8
CSLAYER1
  6
CONTINUOUS
 62
     3
 10
2045.659898
 20
546.527802
 11
2045.659898
 21
544.327802
  0
LINE
  8
CSLAYER1
  6
CONTINUOUS
 62
     3
 10
2052.659898
 20
546.527802
 11
2052.659898
 21
544.327802
  0
LINE
  8
CSLAYER1
  6
CONTINUOUS
 62
     3
 10
2052.659898
 20
545.327802
 11
2045.659898
 21
545.327802
  0
LINE
  8
CSLAYER1
  6
CONTINUOUS
 62
     3
 10
2051.259898
 20
547.927802
 11
2047.059898
 21
547.927802
  0
LINE
  8
CSLAYER1
  6
CONTINUOUS
 62
     3
 10
2053.659898
 20
544.327802
 11
2053.659898
 21
543.527802
  0
LINE
  8
CSLAYER1
  6
CONTINUOUS
 62
     3
 10
2044.659898
 20
544.327802
 11
2044.659898
 21
543.527802
  0
LINE
  8
CSLAYER1
  6
CONTINUOUS
 62
     3
 10
2053.659898
 20
544.327802
 11
2044.659898
 21
544.327802
  0
ARC
  8
CSLAYER1
  6
CONTINUOUS
 62
     3
 10
2051.259898
 20
546.527802
 40
1.400000
 50
0.000000
 51
90.000000
  0
ARC
  8
CSLAYER1
  6
CONTINUOUS
 62
     3
 10
2047.059898
 20
546.527802
 40
1.400000
 50
90.000000
 51
180.000000
  0
LINE
  8
CSLAYER1
  6
CONTINUOUS
 62
     3
 10
2050.199850
 20
544.327802
 11
2047.814647
 21
545.327802
  0
LINE
  8
CSLAYER1
  6
CONTINUOUS
 62
     3
 10
1239.659898
 20
489.227802
 11
2139.659898
 21
489.227802
  0
LINE
  8
CSLAYER1
  6
CONTINUOUS
 62
     3
 10
1239.659898
 20
489.227802
 11
1239.659898
 21
439.227802
  0
LINE
  8
CSLAYER1
  6
CONTINUOUS
 62
     3
 10
2139.659898
 20
489.227802
 11
2139.659898
 21
439.227802
  0
CIRCLE
  8
CSLAYER1
  6
CONTINUOUS
 62
     4
 10
1480.684871
 20
736.935523
 40
10.000000
  0
POINT
  8
CSLAYER1
 62
     4
 10
1480.684871
 20
736.935523
  0
LINE
  8
CSLAYER1
  6
CENTER
 62
     5
 10
1470.363407
 20
747.022625
 11
1491.006335
 21
726.848421
  0
LINE
  8
CSLAYER1
  6
CONTINUOUS
 62
     4
 10
1558.607971
 20
755.862764
 11
1558.591732
 21
757.276885
  0
LINE
  8
CSLAYER1
  6
CONTINUOUS
 62
     4
 10
1465.316958
 20
782.016863
 11
1483.173818
 21
800.288605
  0
LINE
  8
CSLAYER1
  6
CENTER
 62
     5
 10
1415.239053
 20
735.728583
 11
1465.901816
 21
787.568435
  0
LINE
  8
CSLAYER1
  6
CONTINUOUS
 62
     4
 10
1424.803091
 20
769.176438
 11
1439.426960
 21
754.884622
  0
LINE
  8
CSLAYER1
  6
CONTINUOUS
 62
     4
 10
1514.200552
 20
681.808858
 11
1512.375672
 21
683.592301
  0
LINE
  8
CSLAYER1
  6
CONTINUOUS
 62
     4
 10
1739.403729
 20
1028.849401
 11
1747.751195
 21
1020.691476
  0
LINE
  8
CSLAYER1
  6
CONTINUOUS
 62
     4
 10
1734.774482
 20
1025.543336
 11
1737.989609
 21
1028.833162
  0
LINE
  8
CSLAYER1
  6
CONTINUOUS
 62
     4
 10
1424.803091
 20
769.176438
 11
1447.169191
 21
792.062188
  0
LINE
  8
CSLAYER1
  6
CONTINUOUS
 62
     4
 10
1447.169191
 20
792.062188
 11
1461.867372
 21
777.697747
  0
LINE
  8
CSLAYER1
  6
CONTINUOUS
 62
     4
 10
1514.200552
 20
681.808858
 11
1536.566652
 21
704.694608
  0
LINE
  8
CSLAYER1
  6
CONTINUOUS
 62
     4
 10
1534.816085
 20
706.405426
 11
1536.566652
 21
704.694608
  0
LINE
  8
CSLAYER1
  6
CONTINUOUS
 62
     4
 10
1763.381670
 20
997.585710
 11
1766.596797
 21
1000.875537
  0
LINE
  8
CSLAYER1
  6
CONTINUOUS
 62
     4
 10
1737.989609
 20
1028.833162
 11
1739.403729
 21
1028.849401
  0
LINE
  8
CSLAYER1
  6
CONTINUOUS
 62
     4
 10
1766.596797
 20
1000.875537
 11
1766.580557
 21
1002.289657
  0
LINE
  8
CSLAYER1
  6
CONTINUOUS
 62
     4
 10
1458.192380
 20
788.979668
 11
1465.724318
 21
781.618753
  0
LINE
  8
CSLAYER1
  6
CONTINUOUS
 62
     4
 10
1457.067454
 20
789.267288
 11
1453.629056
 21
785.749002
  0
LINE
  8
CSLAYER1
  6
CONTINUOUS
 62
     4
 10
1459.751364
 20
786.644320
 11
1456.312965
 21
783.126034
  0
LINE
  8
CSLAYER1
  6
CONTINUOUS
 62
     4
 10
1458.192380
 20
788.979668
 11
1457.067454
 21
789.267288
  0
ARC
  8
CSLAYER1
  6
CONTINUOUS
 62
     4
 10
1456.546786
 20
786.049905
 40
3.259241
 50
10.286309
 51
71.223826
  0
ARC
  8
CSLAYER1
  6
CONTINUOUS
 62
     4
 10
1454.160595
 20
775.554421
 40
12.419443
 50
28.069973
 51
63.245881
  0
LINE
  8
CSLAYER1
  6
CONTINUOUS
 62
     4
 10
1465.119184
 20
781.398384
 11
1461.680785
 21
777.880098
  0
ARC
  8
CSLAYER1
  6
CONTINUOUS
 62
     4
 10
1464.598515
 20
778.181000
 40
3.259241
 50
75.037263
 51
81.029545
  0
LINE
  8
CSLAYER1
  6
CONTINUOUS
 62
     4
 10
1740.957976
 20
1027.330446
 11
1745.734417
 21
1029.305764
  0
LINE
  8
CSLAYER1
  6
CONTINUOUS
 62
     4
 10
1745.662055
 20
1029.275838
 11
1745.398375
 21
1022.990872
  0
LINE
  8
CSLAYER1
  6
CONTINUOUS
 62
     4
 10
1745.398375
 20
1022.990872
 11
1747.201528
 21
1024.203365
  0
LINE
  8
CSLAYER1
  6
CONTINUOUS
 62
     4
 10
1745.398375
 20
1022.990872
 11
1745.327789
 21
1029.137601
  0
LINE
  8
CSLAYER1
  6
CONTINUOUS
 62
     4
 10
1745.196091
 20
1023.188562
 11
1745.128721
 21
1029.055276
  0
LINE
  8
CSLAYER1
  6
CONTINUOUS
 62
     4
 10
1744.993808
 20
1023.386252
 11
1744.929653
 21
1028.972950
  0
LINE
  8
CSLAYER1
  6
CONTINUOUS
 62
     4
 10
1744.791525
 20
1023.583943
 11
1744.730585
 21
1028.890625
  0
LINE
  8
CSLAYER1
  6
CONTINUOUS
 62
     4
 10
1744.589241
 20
1023.781633
 11
1744.531517
 21
1028.808300
  0
LINE
  8
CSLAYER1
  6
CONTINUOUS
 62
     4
 10
1744.386958
 20
1023.979323
 11
1744.332450
 21
1028.725974
  0
LINE
  8
CSLAYER1
  6
CONTINUOUS
 62
     4
 10
1744.184674
 20
1024.177013
 11
1744.133382
 21
1028.643649
  0
LINE
  8
CSLAYER1
  6
CONTINUOUS
 62
     4
 10
1743.982391
 20
1024.374704
 11
1743.934314
 21
1028.561323
  0
LINE
  8
CSLAYER1
  6
CONTINUOUS
 62
     4
 10
1743.780108
 20
1024.572394
 11
1743.735246
 21
1028.478998
  0
LINE
  8
CSLAYER1
  6
CONTINUOUS
 62
     4
 10
1743.577824
 20
1024.770084
 11
1743.536178
 21
1028.396673
  0
LINE
  8
CSLAYER1
  6
CONTINUOUS
 62
     4
 10
1743.375541
 20
1024.967775
 11
1743.337111
 21
1028.314347
  0
LINE
  8
CSLAYER1
  6
CONTINUOUS
 62
     4
 10
1743.173258
 20
1025.165465
 11
1743.138043
 21
1028.232022
  0
LINE
  8
CSLAYER1
  6
CONTINUOUS
 62
     4
 10
1742.970974
 20
1025.363155
 11
1742.938975
 21
1028.149697
  0
LINE
  8
CSLAYER1
  6
CONTINUOUS
 62
     4
 10
1742.768691
 20
1025.560845
 11
1742.739907
 21
1028.067371
  0
LINE
  8
CSLAYER1
  6
CONTINUOUS
 62
     4
 10
1742.566408
 20
1025.758536
 11
1742.540839
 21
1027.985046
  0
LINE
  8
CSLAYER1
  6
CONTINUOUS
 62
     4
 10
1742.364124
 20
1025.956226
 11
1742.341772
 21
1027.902721
  0
LINE
  8
CSLAYER1
  6
CONTINUOUS
 62
     4
 10
1742.161841
 20
1026.153916
 11
1742.142704
 21
1027.820395
  0
LINE
  8
CSLAYER1
  6
CONTINUOUS
 62
     4
 10
1741.959557
 20
1026.351606
 11
1741.943636
 21
1027.738070
  0
LINE
  8
CSLAYER1
  6
CONTINUOUS
 62
     4
 10
1741.757274
 20
1026.549297
 11
1741.744568
 21
1027.655745
  0
LINE
  8
CSLAYER1
  6
CONTINUOUS
 62
     4
 10
1741.554991
 20
1026.746987
 11
1741.545500
 21
1027.573419
  0
LINE
  8
CSLAYER1
  6
CONTINUOUS
 62
     4
 10
1741.352707
 20
1026.944677
 11
1741.346433
 21
1027.491094
  0
LINE
  8
CSLAYER1
  6
CONTINUOUS
 62
     4
 10
1741.150424
 20
1027.142367
 11
1741.147365
 21
1027.408769
  0
LINE
  8
CSLAYER1
  6
CONTINUOUS
 62
     4
 10
1745.596855
 20
1023.124336
 11
1745.526856
 21
1029.219926
  0
LINE
  8
CSLAYER1
  6
CONTINUOUS
 62
     4
 10
1745.795336
 20
1023.257800
 11
1745.725924
 21
1029.302252
  0
LINE
  8
CSLAYER1
  6
CONTINUOUS
 62
     4
 10
1745.993816
 20
1023.391264
 11
1745.937662
 21
1028.281260
  0
LINE
  8
CSLAYER1
  6
CONTINUOUS
 62
     4
 10
1746.192297
 20
1023.524728
 11
1746.147788
 21
1027.400618
  0
LINE
  8
CSLAYER1
  6
CONTINUOUS
 62
     4
 10
1746.390777
 20
1023.658192
 11
1746.356545
 21
1026.639195
  0
LINE
  8
CSLAYER1
  6
CONTINUOUS
 62
     4
 10
1746.589258
 20
1023.791656
 11
1746.564352
 21
1025.960462
  0
LINE
  8
CSLAYER1
  6
CONTINUOUS
 62
     4
 10
1746.787738
 20
1023.925121
 11
1746.771450
 21
1025.343574
  0
LINE
  8
CSLAYER1
  6
CONTINUOUS
 62
     4
 10
1746.986219
 20
1024.058585
 11
1746.977989
 21
1024.775296
  0
LINE
  8
CSLAYER1
  6
CONTINUOUS
 62
     4
 10
1747.184700
 20
1024.192049
 11
1747.184073
 21
1024.246593
  0
ARC
  8
CSLAYER1
  6
CONTINUOUS
 62
     4
 10
1770.745236
 20
1033.735093
 40
25.400000
 50
236.346470
 51
292.916623
  0
LINE
  8
CSLAYER1
  6
CONTINUOUS
 62
     4
 10
1765.026311
 20
1003.808612
 11
1766.891422
 21
1008.629155
  0
LINE
  8
CSLAYER1
  6
CONTINUOUS
 62
     4
 10
1766.863166
 20
1008.556125
 11
1760.585912
 21
1008.148186
  0
LINE
  8
CSLAYER1
  6
CONTINUOUS
 62
     4
 10
1760.585912
 20
1008.148186
 11
1761.756678
 21
1009.978708
  0
LINE
  8
CSLAYER1
  6
CONTINUOUS
 62
     4
 10
1760.585912
 20
1008.148186
 11
1766.732641
 21
1008.218772
  0
LINE
  8
CSLAYER1
  6
CONTINUOUS
 62
     4
 10
1760.788196
 20
1007.950496
 11
1766.654909
 21
1008.017866
  0
LINE
  8
CSLAYER1
  6
CONTINUOUS
 62
     4
 10
1760.990479
 20
1007.752806
 11
1766.577177
 21
1007.816961
  0
LINE
  8
CSLAYER1
  6
CONTINUOUS
 62
     4
 10
1761.192762
 20
1007.555116
 11
1766.499444
 21
1007.616055
  0
LINE
  8
CSLAYER1
  6
CONTINUOUS
 62
     4
 10
1761.395046
 20
1007.357425
 11
1766.421712
 21
1007.415149
  0
LINE
  8
CSLAYER1
  6
CONTINUOUS
 62
     4
 10
1761.597329
 20
1007.159735
 11
1766.343980
 21
1007.214243
  0
LINE
  8
CSLAYER1
  6
CONTINUOUS
 62
     4
 10
1761.799612
 20
1006.962045
 11
1766.266248
 21
1007.013337
  0
LINE
  8
CSLAYER1
  6
CONTINUOUS
 62
     4
 10
1762.001896
 20
1006.764354
 11
1766.188516
 21
1006.812432
  0
LINE
  8
CSLAYER1
  6
CONTINUOUS
 62
     4
 10
1762.204179
 20
1006.566664
 11
1766.110783
 21
1006.611526
  0
LINE
  8
CSLAYER1
  6
CONTINUOUS
 62
     4
 10
1762.406462
 20
1006.368974
 11
1766.033051
 21
1006.410620
  0
LINE
  8
CSLAYER1
  6
CONTINUOUS
 62
     4
 10
1762.608746
 20
1006.171284
 11
1765.955319
 21
1006.209714
  0
LINE
  8
CSLAYER1
  6
CONTINUOUS
 62
     4
 10
1762.811029
 20
1005.973593
 11
1765.877587
 21
1006.008808
  0
LINE
  8
CSLAYER1
  6
CONTINUOUS
 62
     4
 10
1763.013313
 20
1005.775903
 11
1765.799854
 21
1005.807902
  0
LINE
  8
CSLAYER1
  6
CONTINUOUS
 62
     4
 10
1763.215596
 20
1005.578213
 11
1765.722122
 21
1005.606997
  0
LINE
  8
CSLAYER1
  6
CONTINUOUS
 62
     4
 10
1763.417879
 20
1005.380523
 11
1765.644390
 21
1005.406091
  0
LINE
  8
CSLAYER1
  6
CONTINUOUS
 62
     4
 10
1763.620163
 20
1005.182832
 11
1765.566658
 21
1005.205185
  0
LINE
  8
CSLAYER1
  6
CONTINUOUS
 62
     4
 10
1763.822446
 20
1004.985142
 11
1765.488925
 21
1005.004279
  0
LINE
  8
CSLAYER1
  6
CONTINUOUS
 62
     4
 10
1764.024729
 20
1004.787452
 11
1765.411193
 21
1004.803373
  0
LINE
  8
CSLAYER1
  6
CONTINUOUS
 62
     4
 10
1764.227013
 20
1004.589762
 11
1765.333461
 21
1004.602467
  0
LINE
  8
CSLAYER1
  6
CONTINUOUS
 62
     4
 10
1764.429296
 20
1004.392071
 11
1765.255729
 21
1004.401562
  0
LINE
  8
CSLAYER1
  6
CONTINUOUS
 62
     4
 10
1764.631579
 20
1004.194381
 11
1765.177996
 21
1004.200656
  0
LINE
  8
CSLAYER1
  6
CONTINUOUS
 62
     4
 10
1764.833863
 20
1003.996691
 11
1765.100264
 21
1003.999750
  0
LINE
  8
CSLAYER1
  6
CONTINUOUS
 62
     4
 10
1760.714783
 20
1008.349679
 11
1766.810373
 21
1008.419678
  0
LINE
  8
CSLAYER1
  6
CONTINUOUS
 62
     4
 10
1760.843654
 20
1008.551172
 11
1766.888106
 21
1008.620584
  0
LINE
  8
CSLAYER1
  6
CONTINUOUS
 62
     4
 10
1760.972525
 20
1008.752666
 11
1765.862522
 21
1008.808820
  0
LINE
  8
CSLAYER1
  6
CONTINUOUS
 62
     4
 10
1761.101396
 20
1008.954159
 11
1764.977286
 21
1008.998667
  0
LINE
  8
CSLAYER1
  6
CONTINUOUS
 62
     4
 10
1761.230267
 20
1009.155652
 11
1764.211270
 21
1009.189884
  0
LINE
  8
CSLAYER1
  6
CONTINUOUS
 62
     4
 10
1761.359138
 20
1009.357145
 11
1763.527944
 21
1009.382050
  0
LINE
  8
CSLAYER1
  6
CONTINUOUS
 62
     4
 10
1761.488009
 20
1009.558638
 11
1762.906463
 21
1009.574927
  0
LINE
  8
CSLAYER1
  6
CONTINUOUS
 62
     4
 10
1761.616880
 20
1009.760131
 11
1762.333591
 21
1009.768361
  0
LINE
  8
CSLAYER1
  6
CONTINUOUS
 62
     4
 10
1761.745751
 20
1009.961624
 11
1761.800296
 21
1009.962250
  0
LINE
  8
CSLAYER1
  6
CENTER
 62
     5
 10
1755.726462
 20
1048.412847
 11
1785.764009
 21
1019.057340
  0
LINE
  8
CSLAYER1
  6
CONTINUOUS
 62
     4
 10
1421.080710
 20
754.637047
 11
1430.166938
 21
763.934383
  0
LINE
  8
CSLAYER1
  6
CONTINUOUS
 62
     4
 10
1240.640352
 20
580.019530
 11
1277.758373
 21
543.744320
  0
LINE
  8
CSLAYER1
  6
CONTINUOUS
 62
     4
 10
1377.665195
 20
717.366508
 11
1395.445162
 21
699.990257
  0
LINE
  8
CSLAYER1
  6
CONTINUOUS
 62
     4
 10
1240.640352
 20
580.019530
 11
1281.178909
 21
621.499952
  0
LINE
  8
CSLAYER1
  6
CONTINUOUS
 62
     4
 10
1282.609269
 20
620.102070
 11
1383.256720
 21
723.087945
  0
LINE
  8
CSLAYER1
  6
CONTINUOUS
 62
     4
 10
1391.042502
 20
722.470200
 11
1421.795890
 21
753.938106
  0
LINE
  8
CSLAYER1
  6
CONTINUOUS
 62
     4
 10
1240.640352
 20
580.019530
 11
1247.922061
 21
561.717161
  0
LINE
  8
CSLAYER1
  6
CONTINUOUS
 62
     4
 10
1275.455583
 20
534.808822
 11
1247.922061
 21
561.717161
  0
LINE
  8
CSLAYER1
  6
CONTINUOUS
 62
     4
 10
1421.080710
 20
754.637047
 11
1431.015998
 21
744.927351
  0
LINE
  8
CSLAYER1
  6
CONTINUOUS
 62
     4
 10
1401.526611
 20
733.197895
 11
1412.918556
 21
722.064619
  0
LINE
  8
CSLAYER1
  6
CONTINUOUS
 62
     4
 10
1386.084961
 20
723.120423
 11
1401.685660
 21
707.873958
  0
ARC
  8
CSLAYER1
  6
CONTINUOUS
 62
     4
 10
1388.896963
 20
724.567022
 40
3.000000
 50
225.657927
 51
315.657927
  0
LINE
  8
CSLAYER1
  6
CONTINUOUS
 62
     4
 10
1307.640558
 20
595.639148
 11
1335.021442
 21
623.656194
  0
LINE
  8
CSLAYER1
  6
CONTINUOUS
 62
     4
 10
1302.634300
 20
600.531732
 11
1376.737522
 21
676.356654
  0
LINE
  8
CSLAYER1
  6
CONTINUOUS
 62
     4
 10
1288.330706
 20
614.510545
 11
1383.386633
 21
711.774983
  0
LINE
  8
CSLAYER1
  6
CONTINUOUS
 62
     4
 10
1286.900347
 20
615.908426
 11
1381.956273
 21
713.172864
  0
ARC
  8
CSLAYER1
  6
CONTINUOUS
 62
     4
 10
1384.687080
 20
721.690064
 40
2.000000
 50
45.657927
 51
135.657927
  0
LINE
  8
CSLAYER1
  6
CONTINUOUS
 62
     4
 10
1420.639781
 20
752.271463
 11
1429.767899
 21
743.350611
  0
LINE
  8
CSLAYER1
  6
CONTINUOUS
 62
     4
 10
1420.639781
 20
752.271463
 11
1422.037663
 21
753.701823
  0
LINE
  8
CSLAYER1
  6
CONTINUOUS
 62
     4
 10
1416.954883
 20
746.784067
 11
1425.711576
 21
738.226206
  0
LINE
  8
CSLAYER1
  6
CONTINUOUS
 62
     4
 10
1416.954883
 20
746.784067
 11
1416.641506
 21
747.902091
  0
LINE
  8
CSLAYER1
  6
CONTINUOUS
 62
     4
 10
1420.778846
 20
752.135557
 11
1416.641506
 21
747.902091
  0
ARC
  8
CSLAYER1
  6
CONTINUOUS
 62
     4
 10
1419.868806
 20
748.519756
 40
3.285875
 50
200.971432
 51
260.622310
  0
ARC
  8
CSLAYER1
  6
CONTINUOUS
 62
     4
 10
1430.284005
 20
751.123086
 40
12.419443
 50
208.069973
 51
243.245881
  0
LINE
  8
CSLAYER1
  6
CONTINUOUS
 62
     4
 10
1423.462755
 20
749.512589
 11
1419.325416
 21
745.279123
  0
LINE
  8
CSLAYER1
  6
CONTINUOUS
 62
     4
 10
1416.797166
 20
742.044328
 11
1421.517352
 21
737.431320
  0
LINE
  8
CSLAYER1
  6
CONTINUOUS
 62
     4
 10
1416.785798
 20
743.034212
 11
1418.742832
 21
745.036715
  0
LINE
  8
CSLAYER1
  6
CONTINUOUS
 62
     4
 10
1416.797166
 20
742.044328
 11
1419.243458
 21
744.547457
  0
LINE
  8
CSLAYER1
  6
CONTINUOUS
 62
     4
 10
1416.785798
 20
743.034212
 11
1416.797166
 21
742.044328
  0
LINE
  8
CSLAYER1
  6
CONTINUOUS
 62
     4
 10
1416.785798
 20
743.034212
 11
1422.507236
 21
737.442687
  0
ARC
  8
CSLAYER1
  6
CONTINUOUS
 62
     4
 10
1427.920535
 20
740.650852
 40
3.285875
 50
190.693544
 51
227.672202
  0
LINE
  8
CSLAYER1
  6
CONTINUOUS
 62
     4
 10
1428.830575
 20
744.266652
 11
1424.693235
 21
740.033187
  0
LINE
  8
CSLAYER1
  6
CONTINUOUS
 62
     4
 10
1422.507236
 20
737.442687
 11
1424.464270
 21
739.445190
  0
LINE
  8
CSLAYER1
  6
CONTINUOUS
 62
     4
 10
1421.517352
 20
737.431320
 11
1423.963644
 21
739.934449
  0
LINE
  8
CSLAYER1
  6
CONTINUOUS
 62
     4
 10
1422.507236
 20
737.442687
 11
1421.517352
 21
737.431320
  0
LINE
  8
CSLAYER1
  6
CONTINUOUS
 62
     4
 10
1426.406012
 20
749.432663
 11
1427.677549
 21
745.393497
  0
LINE
  8
CSLAYER1
  6
CONTINUOUS
 62
     4
 10
1734.524169
 20
1025.787965
 11
1743.628983
 21
1016.889887
  0
LINE
  8
CSLAYER1
  6
CONTINUOUS
 62
     4
 10
1733.110049
 20
1025.771726
 11
1734.524169
 21
1025.787965
  0
LINE
  8
CSLAYER1
  6
CONTINUOUS
 62
     4
 10
1694.609469
 20
925.284175
 11
1763.648222
 21
995.926961
  0
LINE
  8
CSLAYER1
  6
CONTINUOUS
 62
     4
 10
1763.648222
 20
995.926961
 11
1763.631982
 21
997.341081
  0
POINT
  8
CSLAYER1
 62
     5
 10
1736.011782
 20
1001.703179
  0
POINT
  8
CSLAYER1
 62
     5
 10
1722.007803
 20
988.788418
  0
ARC
  8
CSLAYER1
  6
CONTINUOUS
 62
     4
 10
1722.007803
 20
988.788418
 40
9.050000
 50
-79.069071
 51
10.846697
  0
CIRCLE
  8
CSLAYER1
  6
CONTINUOUS
 62
     4
 10
1722.007803
 20
988.788418
 40
2.980000
  0
ARC
  8
CSLAYER1
  6
CONTINUOUS
 62
     4
 10
1725.440024
 20
971.016815
 40
9.050000
 50
100.930929
 51
164.434860
  0
ARC
  8
CSLAYER1
  6
CONTINUOUS
 62
     4
 10
1704.571602
 20
993.645259
 40
9.050000
 50
279.735496
 51
344.434860
  0
ARC
  8
CSLAYER1
  6
CONTINUOUS
 62
     4
 10
1722.007803
 20
988.788418
 40
7.800000
 50
95.311393
 51
350.054395
  0
ARC
  8
CSLAYER1
  6
CONTINUOUS
 62
     4
 10
1736.011782
 20
1001.703179
 40
7.800000
 50
-84.948336
 51
170.314124
  0
CIRCLE
  8
CSLAYER1
  6
CONTINUOUS
 62
     5
 10
1722.007803
 20
988.788418
 40
2.980000
  0
CIRCLE
  8
CSLAYER1
  6
CONTINUOUS
 62
     5
 10
1736.011782
 20
1001.703179
 40
2.980000
  0
ARC
  8
CSLAYER1
  6
CONTINUOUS
 62
     4
 10
1737.385424
 20
986.163774
 40
7.800000
 50
95.051664
 51
170.314124
  0
ARC
  8
CSLAYER1
  6
CONTINUOUS
 62
     4
 10
1720.634160
 20
1004.327823
 40
7.800000
 50
275.051664
 51
350.314124
  0
ARC
  8
CSLAYER1
  6
CONTINUOUS
 62
     4
 10
1722.007803
 20
988.788418
 40
9.050000
 50
74.519091
 51
164.434860
  0
LINE
  8
CSLAYER1
  6
CONTINUOUS
 62
     3
 10
1723.802722
 20
1001.666433
 11
1726.296039
 21
998.962832
  0
LINE
  8
CSLAYER1
  6
CONTINUOUS
 62
     3
 10
1737.034828
 20
1013.869357
 11
1748.220842
 21
1001.739926
  0
LINE
  8
CSLAYER1
  6
CONTINUOUS
 62
     3
 10
1738.560194
 20
1012.215343
 11
1751.883649
 21
1024.502511
  0
LINE
  8
CSLAYER1
  6
CONTINUOUS
 62
     3
 10
1723.831310
 20
1002.372961
 11
1736.328300
 21
1013.897945
  0
LINE
  8
CSLAYER1
  6
CONTINUOUS
 62
     1
 10
1723.802722
 20
1001.666433
 11
1723.831310
 21
1002.372961
  0
LINE
  8
CSLAYER1
  6
CONTINUOUS
 62
     1
 10
1736.328300
 20
1013.897945
 11
1737.034828
 21
1013.869357
  0
LINE
  8
CSLAYER1
  6
CONTINUOUS
 62
     3
 10
1723.831310
 20
1002.372961
 11
1726.629733
 21
999.338523
  0
LINE
  8
CSLAYER1
  6
CONTINUOUS
 62
     3
 10
1736.328300
 20
1013.897945
 11
1748.192254
 21
1001.033397
  0
CIRCLE
  8
CSLAYER1
  6
CONTINUOUS
 62
     4
 10
1736.011782
 20
1001.703179
 40
3.050000
  0
LINE
  8
CSLAYER1
  6
CONTINUOUS
 62
     3
 10
1734.988736
 20
989.537002
 11
1732.495418
 21
992.240603
  0
LINE
  8
CSLAYER1
  6
CONTINUOUS
 62
     3
 10
1746.695477
 20
1003.393939
 11
1760.018932
 21
1015.681107
  0
LINE
  8
CSLAYER1
  6
CONTINUOUS
 62
     3
 10
1735.695264
 20
989.508413
 11
1748.192254
 21
1001.033397
  0
LINE
  8
CSLAYER1
  6
CONTINUOUS
 62
     1
 10
1734.988736
 20
989.537002
 11
1735.695264
 21
989.508413
  0
LINE
  8
CSLAYER1
  6
CONTINUOUS
 62
     1
 10
1748.192254
 20
1001.033397
 11
1748.220842
 21
1001.739926
  0
LINE
  8
CSLAYER1
  6
CONTINUOUS
 62
     3
 10
1735.695264
 20
989.508413
 11
1732.896842
 21
992.542852
  0
LINE
  8
CSLAYER1
  6
CONTINUOUS
 62
     4
 10
1776.062595
 20
1054.962804
 11
1777.214435
 21
1053.713818
  0
LINE
  8
CSLAYER1
  6
CONTINUOUS
 62
     4
 10
1782.903264
 20
1057.870593
 11
1794.427871
 21
1045.374012
  0
LINE
  8
CSLAYER1
  6
CONTINUOUS
 62
     4
 10
1776.761107
 20
1054.205380
 11
1781.283175
 21
1058.375725
  0
LINE
  8
CSLAYER1
  6
CONTINUOUS
 62
     4
 10
1781.928466
 20
1051.509664
 11
1785.001560
 21
1054.343735
  0
LINE
  8
CSLAYER1
  6
CONTINUOUS
 62
     1
 10
1782.903264
 20
1057.870593
 11
1781.283175
 21
1058.375725
  0
ARC
  8
CSLAYER1
  6
CONTINUOUS
 62
     4
 10
1776.000224
 20
1038.581353
 40
18.151494
 50
25.094940
 51
60.270848
  0
ARC
  8
CSLAYER1
  6
CONTINUOUS
 62
     4
 10
1780.230787
 20
1053.674610
 40
4.817468
 50
7.983941
 51
67.983941
  0
LINE
  8
CSLAYER1
  6
CONTINUOUS
 62
     4
 10
1792.333160
 20
1037.319995
 11
1791.181320
 21
1038.568980
  0
LINE
  8
CSLAYER1
  6
CONTINUOUS
 62
     4
 10
1791.634648
 20
1038.077419
 11
1795.450588
 21
1041.596559
  0
LINE
  8
CSLAYER1
  6
CONTINUOUS
 62
     4
 10
1789.365237
 20
1043.445683
 11
1792.438331
 21
1046.279755
  0
ARC
  8
CSLAYER1
  6
CONTINUOUS
 62
     4
 10
1791.385943
 20
1041.578640
 40
4.817468
 50
50.361173
 51
77.381848
  0
LINE
  8
CSLAYER1
  6
CONTINUOUS
 62
     4
 10
1775.278730
 20
1054.239908
 11
1776.062595
 21
1054.962804
  0
LINE
  8
CSLAYER1
  6
CONTINUOUS
 62
     4
 10
1791.549296
 20
1036.597099
 11
1792.333160
 21
1037.319995
  0
POINT
  8
CSLAYER1
 62
     5
 10
1693.999844
 20
962.958895
  0
ARC
  8
CSLAYER1
  6
CONTINUOUS
 62
     4
 10
1693.999844
 20
962.958895
 40
9.050000
 50
-79.069071
 51
10.846697
  0
ARC
  8
CSLAYER1
  6
CONTINUOUS
 62
     4
 10
1679.995864
 20
950.044134
 40
2.980000
 50
-48.059858
 51
25.345910
  0
CIRCLE
  8
CSLAYER1
  6
CONTINUOUS
 62
     4
 10
1693.999844
 20
962.958895
 40
2.980000
  0
ARC
  8
CSLAYER1
  6
CONTINUOUS
 62
     4
 10
1697.432065
 20
945.187293
 40
9.050000
 50
100.930929
 51
164.434860
  0
ARC
  8
CSLAYER1
  6
CONTINUOUS
 62
     4
 10
1693.999844
 20
962.958895
 40
7.800000
 50
206.439126
 51
350.054395
  0
ARC
  8
CSLAYER1
  6
CONTINUOUS
 62
     4
 10
1708.003823
 20
975.873657
 40
7.800000
 50
-84.948336
 51
114.423945
  0
CIRCLE
  8
CSLAYER1
  6
CONTINUOUS
 62
     5
 10
1693.999844
 20
962.958895
 40
2.980000
  0
CIRCLE
  8
CSLAYER1
  6
CONTINUOUS
 62
     4
 10
1708.003823
 20
975.873657
 40
2.980000
  0
ARC
  8
CSLAYER1
  6
CONTINUOUS
 62
     4
 10
1709.377465
 20
960.334252
 40
7.800000
 50
95.051664
 51
170.314124
  0
ARC
  8
CSLAYER1
  6
CONTINUOUS
 62
     4
 10
1679.995864
 20
950.044134
 40
9.050000
 50
284.104726
 51
344.434860
  0
CIRCLE
  8
CSLAYER1
  6
CONTINUOUS
 62
     5
 10
1708.003823
 20
975.873657
 40
2.980000
  0
ARC
  8
CSLAYER1
  6
CONTINUOUS
 62
     4
 10
1679.995864
 20
950.044134
 40
7.800000
 50
-75.043641
 51
53.607296
  0
CIRCLE
  8
CSLAYER1
  6
CONTINUOUS
 62
     4
 10
1853.379297
 20
1071.613826
 40
6.000000
  0
CIRCLE
  8
CSLAYER1
  6
CONTINUOUS
 62
     4
 10
1853.379297
 20
1071.613826
 40
8.000000
  0
CIRCLE
  8
CSLAYER1
  6
CONTINUOUS
 62
     3
 10
1770.745236
 20
1033.735093
 40
7.500000
  0
CIRCLE
  8
CSLAYER1
  6
CONTINUOUS
 62
     3
 10
1770.745236
 20
1033.735093
 40
21.000000
  0
LINE
  8
CSLAYER1
  6
CONTINUOUS
 62
     4
 10
1752.222722
 20
1008.491280
 11
1763.631982
 21
997.341081
  0
LINE
  8
CSLAYER1
  6
CONTINUOUS
 62
     4
 10
1756.344933
 20
1012.292869
 11
1766.580557
 21
1002.289657
  0
ARC
  8
CSLAYER1
  6
CONTINUOUS
 62
     4
 10
1770.745236
 20
1033.735093
 40
25.400000
 50
68.269581
 51
96.168761
  0
ARC
  8
CSLAYER1
  6
CONTINUOUS
 62
     4
 10
1770.745236
 20
1033.735093
 40
25.400000
 50
172.889958
 51
209.019318
  0
ARC
  8
CSLAYER1
  6
CONTINUOUS
 62
     4
 10
1770.745236
 20
1033.735093
 40
25.400000
 50
9.637820
 51
17.096207
  0
LINE
  8
CSLAYER1
  6
CONTINUOUS
 62
     7
 10
1529.225463
 20
846.174586
 11
1769.179316
 21
1090.113826
  0
LINE
  8
CSLAYER1
  6
CONTINUOUS
 62
     7
 10
1602.467459
 20
775.180420
 11
1607.610359
 21
780.408738
  0
LINE
  8
CSLAYER1
  6
CONTINUOUS
 62
     4
 10
1281.178909
 20
621.499952
 11
1310.574396
 21
592.771927
  0
LINE
  8
CSLAYER1
  6
CENTER
 62
     5
 10
1257.659898
 20
463.727802
 11
1292.798930
 21
463.727802
  0
LINE
  8
CSLAYER1
  6
CENTER
 62
     5
 10
1273.659898
 20
479.284065
 11
1273.659898
 21
447.727802
  0
LINE
  8
CSLAYER1
  6
CENTER
 62
     5
 10
1825.469765
 20
463.727802
 11
1880.070616
 21
463.727802
  0
LINE
  8
CSLAYER1
  6
CENTER
 62
     5
 10
1854.549965
 20
487.445042
 11
1854.549965
 21
441.316737
  0
INSERT
  8
CSLAYER1
  2
BLKF0001
 10
0.0
 20
0.0
 30
0.0
  0
CIRCLE
  8
CSLAYER1
  6
CONTINUOUS
 62
     4
 10
1563.519597
 20
767.670814
 40
15.000000
  0
LINE
  8
CSLAYER1
  6
CONTINUOUS
 62
     3
 10
269.214472
 20
1107.313826
 11
269.214472
 21
1152.313826
  0
LINE
  8
CSLAYER1
  6
CONTINUOUS
 62
     3
 10
313.214472
 20
489.227802
 11
313.214472
 21
1087.613826
  0
LINE
  8
CSLAYER1
  6
CONTINUOUS
 62
     3
 10
322.214472
 20
489.227802
 11
322.214472
 21
1087.613826
  0
LINE
  8
CSLAYER1
  6
CONTINUOUS
 62
     3
 10
333.214472
 20
489.227802
 11
333.214472
 21
1062.963826
  0
LINE
  8
CSLAYER1
  6
CONTINUOUS
 62
     3
 10
342.214472
 20
489.227802
 11
342.214472
 21
1062.963826
  0
LINE
  8
CSLAYER1
  6
CONTINUOUS
 62
     3
 10
269.214472
 20
1152.313826
 11
869.214472
 21
1152.313826
  0
LINE
  8
CSLAYER1
  6
CENTER
 62
     5
 10
327.714472
 20
1033.735093
 11
810.714472
 21
1033.735093
  0
LINE
  8
CSLAYER1
  6
CONTINUOUS
 62
     3
 10
269.214472
 20
489.227802
 11
869.214472
 21
489.227802
  0
LINE
  8
CSLAYER1
  6
CONTINUOUS
 62
     3
 10
269.214472
 20
439.227802
 11
269.214472
 21
489.227802
  0
LINE
  8
CSLAYER1
  6
CONTINUOUS
 62
     3
 10
869.214472
 20
1107.313826
 11
869.214472
 21
1152.313826
  0
LINE
  8
CSLAYER1
  6
CONTINUOUS
 62
     3
 10
825.214472
 20
489.227802
 11
825.214472
 21
1087.613826
  0
LINE
  8
CSLAYER1
  6
CONTINUOUS
 62
     3
 10
816.214472
 20
489.227802
 11
816.214472
 21
1087.613826
  0
LINE
  8
CSLAYER1
  6
CONTINUOUS
 62
     3
 10
805.214472
 20
489.227802
 11
805.214472
 21
1062.963826
  0
LINE
  8
CSLAYER1
  6
CONTINUOUS
 62
     3
 10
796.214472
 20
489.227802
 11
796.214472
 21
1062.963826
  0
LINE
  8
CSLAYER1
  6
CONTINUOUS
 62
     4
 10
806.214472
 20
750.435523
 11
806.214472
 21
723.435523
  0
LINE
  8
CSLAYER1
  6
CONTINUOUS
 62
     4
 10
812.214472
 20
749.935523
 11
812.214472
 21
723.935523
  0
LINE
  8
CSLAYER1
  6
CONTINUOUS
 62
     4
 10
811.214472
 20
750.935523
 11
806.714472
 21
750.935523
  0
LINE
  8
CSLAYER1
  6
CONTINUOUS
 62
     4
 10
812.214472
 20
749.935523
 11
811.214472
 21
750.935523
  0
LINE
  8
CSLAYER1
  6
CONTINUOUS
 62
     4
 10
806.714472
 20
750.935523
 11
806.214472
 21
750.435523
  0
LINE
  8
CSLAYER1
  6
CONTINUOUS
 62
     4
 10
811.214472
 20
750.935523
 11
811.214472
 21
722.935523
  0
LINE
  8
CSLAYER1
  6
CONTINUOUS
 62
     4
 10
806.714472
 20
750.935523
 11
806.714472
 21
722.935523
  0
LINE
  8
CSLAYER1
  6
CONTINUOUS
 62
     4
 10
811.214472
 20
722.935523
 11
806.714472
 21
722.935523
  0
LINE
  8
CSLAYER1
  6
CONTINUOUS
 62
     4
 10
812.214472
 20
723.935523
 11
811.214472
 21
722.935523
  0
LINE
  8
CSLAYER1
  6
CONTINUOUS
 62
     4
 10
806.714472
 20
722.935523
 11
806.214472
 21
723.435523
  0
LINE
  8
CSLAYER1
  6
CONTINUOUS
 62
     4
 10
806.214472
 20
726.935523
 11
805.214472
 21
726.935523
  0
LINE
  8
CSLAYER1
  6
CENTER
 62
     5
 10
844.214472
 20
767.670814
 11
774.167204
 21
767.670814
  0
INSERT
  8
CSLAYER1
  2
BLKF0002
 10
0.0
 20
0.0
 30
0.0
  0
LINE
  8
CSLAYER1
  6
CONTINUOUS
 62
     3
 10
869.214472
 20
439.227802
 11
869.214472
 21
489.227802
  0
LINE
  8
CSLAYER1
  6
CONTINUOUS
 62
     7
 10
767.464472
 20
568.201230
 11
776.964472
 21
568.201230
  0
LINE
  8
CSLAYER1
  6
CONTINUOUS
 62
     7
 10
761.214472
 20
543.936429
 11
780.214472
 21
543.936429
  0
LINE
  8
CSLAYER1
  6
CONTINUOUS
 62
     7
 10
764.214472
 20
493.401180
 11
780.214472
 21
493.401180
  0
LINE
  8
CSLAYER1
  6
CONTINUOUS
 62
     7
 10
758.014472
 20
510.227802
 11
761.214472
 21
510.227802
  0
LINE
  8
CSLAYER1
  6
CONTINUOUS
 62
     4
 10
778.473285
 20
556.936295
 11
796.214472
 21
556.936295
  0
LINE
  8
CSLAYER1
  6
CONTINUOUS
 62
     4
 10
779.812673
 20
546.936295
 11
796.214472
 21
546.936295
  0
LINE
  8
CSLAYER1
  6
CONTINUOUS
 62
     7
 10
780.214472
 20
493.401180
 11
780.214472
 21
512.624808
  0
LINE
  8
CSLAYER1
  6
CONTINUOUS
 62
     7
 10
764.214472
 20
489.227802
 11
764.214472
 21
543.936429
  0
LINE
  8
CSLAYER1
  6
CONTINUOUS
 62
     7
 10
761.214472
 20
489.227802
 11
761.214472
 21
543.936429
  0
LINE
  8
CSLAYER1
  6
CONTINUOUS
 62
     7
 10
758.014472
 20
489.227802
 11
758.014472
 21
510.227802
  0
LINE
  8
CSLAYER1
  6
CONTINUOUS
 62
     7
 10
764.214472
 20
505.356087
 11
780.214472
 21
505.356087
  0
LINE
  8
CSLAYER1
  6
CONTINUOUS
 62
     7
 10
767.464472
 20
568.201230
 11
764.214472
 21
543.936429
  0
LINE
  8
CSLAYER1
  6
CONTINUOUS
 62
     7
 10
776.964472
 20
568.201230
 11
780.214472
 21
543.936429
  0
LINE
  8
CSLAYER1
  6
CONTINUOUS
 62
     7
 10
766.214472
 20
522.624808
 11
796.214472
 21
522.624808
  0
LINE
  8
CSLAYER1
  6
CENTER
 62
     5
 10
766.214472
 20
517.624808
 11
796.214472
 21
517.624808
  0
LINE
  8
CSLAYER1
  6
CONTINUOUS
 62
     7
 10
766.214472
 20
512.624808
 11
796.214472
 21
512.624808
  0
LINE
  8
CSLAYER1
  6
CONTINUOUS
 62
     7
 10
766.214472
 20
512.624808
 11
766.214472
 21
522.624808
  0
LINE
  8
CSLAYER1
  6
CONTINUOUS
 62
     7
 10
780.214472
 20
522.624808
 11
780.214472
 21
543.936429
  0
LINE
  8
CSLAYER1
  6
CONTINUOUS
 62
     3
 10
773.714472
 20
780.170814
 11
774.714472
 21
780.170814
  0
LINE
  8
CSLAYER1
  6
CONTINUOUS
 62
     3
 10
759.714472
 20
779.170814
 11
764.714472
 21
779.170814
  0
LINE
  8
CSLAYER1
  6
CONTINUOUS
 62
     3
 10
774.714472
 20
767.578085
 11
774.714472
 21
784.170814
  0
LINE
  8
CSLAYER1
  6
CONTINUOUS
 62
     3
 10
815.214472
 20
785.720814
 11
815.214472
 21
749.620814
  0
LINE
  8
CSLAYER1
  6
CONTINUOUS
 62
     3
 10
805.214472
 20
786.720814
 11
814.214472
 21
786.720814
  0
LINE
  8
CSLAYER1
  6
CONTINUOUS
 62
     3
 10
775.714472
 20
785.170814
 11
796.214472
 21
785.170814
  0
LINE
  8
CSLAYER1
  6
CONTINUOUS
 62
     3
 10
815.214472
 20
785.720814
 11
814.214472
 21
786.720814
  0
LINE
  8
CSLAYER1
  6
CONTINUOUS
 62
     3
 10
774.714472
 20
784.170814
 11
775.714472
 21
785.170814
  0
LINE
  8
CSLAYER1
  6
CONTINUOUS
 62
     3
 10
810.214472
 20
786.720814
 11
805.214472
 21
791.720814
  0
LINE
  8
CSLAYER1
  6
CONTINUOUS
 62
     3
 10
805.214472
 20
791.437972
 11
809.931629
 21
786.720814
  0
LINE
  8
CSLAYER1
  6
CONTINUOUS
 62
     3
 10
805.214472
 20
791.155129
 11
809.648787
 21
786.720814
  0
LINE
  8
CSLAYER1
  6
CONTINUOUS
 62
     3
 10
805.214472
 20
790.872286
 11
809.365944
 21
786.720814
  0
LINE
  8
CSLAYER1
  6
CONTINUOUS
 62
     3
 10
805.214472
 20
790.589444
 11
809.083101
 21
786.720814
  0
LINE
  8
CSLAYER1
  6
CONTINUOUS
 62
     3
 10
805.214472
 20
790.306601
 11
808.800259
 21
786.720814
  0
LINE
  8
CSLAYER1
  6
CONTINUOUS
 62
     3
 10
805.214472
 20
790.023758
 11
808.517416
 21
786.720814
  0
LINE
  8
CSLAYER1
  6
CONTINUOUS
 62
     3
 10
805.214472
 20
789.740915
 11
808.234573
 21
786.720814
  0
LINE
  8
CSLAYER1
  6
CONTINUOUS
 62
     3
 10
805.214472
 20
789.458073
 11
807.951730
 21
786.720814
  0
LINE
  8
CSLAYER1
  6
CONTINUOUS
 62
     3
 10
805.214472
 20
789.175230
 11
807.668888
 21
786.720814
  0
LINE
  8
CSLAYER1
  6
CONTINUOUS
 62
     3
 10
805.214472
 20
788.892387
 11
807.386045
 21
786.720814
  0
LINE
  8
CSLAYER1
  6
CONTINUOUS
 62
     3
 10
805.214472
 20
788.609545
 11
807.103202
 21
786.720814
  0
LINE
  8
CSLAYER1
  6
CONTINUOUS
 62
     3
 10
805.214472
 20
788.326702
 11
806.820360
 21
786.720814
  0
LINE
  8
CSLAYER1
  6
CONTINUOUS
 62
     3
 10
805.214472
 20
788.043859
 11
806.537517
 21
786.720814
  0
LINE
  8
CSLAYER1
  6
CONTINUOUS
 62
     3
 10
805.214472
 20
787.761016
 11
806.254674
 21
786.720814
  0
LINE
  8
CSLAYER1
  6
CONTINUOUS
 62
     3
 10
805.214472
 20
787.478174
 11
805.971831
 21
786.720814
  0
LINE
  8
CSLAYER1
  6
CONTINUOUS
 62
     3
 10
805.214472
 20
787.195331
 11
805.688989
 21
786.720814
  0
LINE
  8
CSLAYER1
  6
CONTINUOUS
 62
     3
 10
805.214472
 20
786.912488
 11
805.406146
 21
786.720814
  0
LINE
  8
CSLAYER1
  6
CONTINUOUS
 62
     3
 10
796.214472
 20
790.170814
 11
791.214472
 21
785.170814
  0
LINE
  8
CSLAYER1
  6
CONTINUOUS
 62
     3
 10
791.497315
 20
785.170814
 11
796.214472
 21
789.887972
  0
LINE
  8
CSLAYER1
  6
CONTINUOUS
 62
     3
 10
791.780158
 20
785.170814
 11
796.214472
 21
789.605129
  0
LINE
  8
CSLAYER1
  6
CONTINUOUS
 62
     3
 10
792.063000
 20
785.170814
 11
796.214472
 21
789.322286
  0
LINE
  8
CSLAYER1
  6
CONTINUOUS
 62
     3
 10
792.345843
 20
785.170814
 11
796.214472
 21
789.039444
  0
LINE
  8
CSLAYER1
  6
CONTINUOUS
 62
     3
 10
792.628686
 20
785.170814
 11
796.214472
 21
788.756601
  0
LINE
  8
CSLAYER1
  6
CONTINUOUS
 62
     3
 10
792.911528
 20
785.170814
 11
796.214472
 21
788.473758
  0
LINE
  8
CSLAYER1
  6
CONTINUOUS
 62
     3
 10
793.194371
 20
785.170814
 11
796.214472
 21
788.190915
  0
LINE
  8
CSLAYER1
  6
CONTINUOUS
 62
     3
 10
793.477214
 20
785.170814
 11
796.214472
 21
787.908073
  0
LINE
  8
CSLAYER1
  6
CONTINUOUS
 62
     3
 10
793.760057
 20
785.170814
 11
796.214472
 21
787.625230
  0
LINE
  8
CSLAYER1
  6
CONTINUOUS
 62
     3
 10
794.042899
 20
785.170814
 11
796.214472
 21
787.342387
  0
LINE
  8
CSLAYER1
  6
CONTINUOUS
 62
     3
 10
794.325742
 20
785.170814
 11
796.214472
 21
787.059545
  0
LINE
  8
CSLAYER1
  6
CONTINUOUS
 62
     3
 10
794.608585
 20
785.170814
 11
796.214472
 21
786.776702
  0
LINE
  8
CSLAYER1
  6
CONTINUOUS
 62
     3
 10
794.891427
 20
785.170814
 11
796.214472
 21
786.493859
  0
LINE
  8
CSLAYER1
  6
CONTINUOUS
 62
     3
 10
795.174270
 20
785.170814
 11
796.214472
 21
786.211016
  0
LINE
  8
CSLAYER1
  6
CONTINUOUS
 62
     3
 10
795.457113
 20
785.170814
 11
796.214472
 21
785.928174
  0
LINE
  8
CSLAYER1
  6
CONTINUOUS
 62
     3
 10
795.739956
 20
785.170814
 11
796.214472
 21
785.645331
  0
LINE
  8
CSLAYER1
  6
CONTINUOUS
 62
     3
 10
796.022798
 20
785.170814
 11
796.214472
 21
785.362488
  0
LINE
  8
CSLAYER1
  6
CONTINUOUS
 62
     5
 10
825.016683
 20
782.670814
 11
828.016683
 21
782.670814
  0
LINE
  8
CSLAYER1
  6
CONTINUOUS
 62
     3
 10
764.714472
 20
769.272487
 11
764.714472
 21
821.875649
  0
LINE
  8
CSLAYER1
  6
CONTINUOUS
 62
     3
 10
773.714472
 20
767.747525
 11
773.714472
 21
821.875649
  0
LINE
  8
CSLAYER1
  6
CONTINUOUS
 62
     3
 10
815.214472
 20
780.170814
 11
816.214472
 21
780.170814
  0
LINE
  8
CSLAYER1
  6
CONTINUOUS
 62
     3
 10
812.214472
 20
748.620814
 11
814.214472
 21
748.620814
  0
LINE
  8
CSLAYER1
  6
CONTINUOUS
 62
     3
 10
815.214472
 20
749.620814
 11
814.214472
 21
748.620814
  0
LINE
  8
CSLAYER1
  6
CONTINUOUS
 62
     3
 10
815.214472
 20
755.170814
 11
816.214472
 21
755.170814
  0
LINE
  8
CSLAYER1
  6
CENTER
 62
     5
 10
789.620572
 20
736.935523
 11
812.214472
 21
736.935523
  0
LINE
  8
CSLAYER1
  6
CONTINUOUS
 62
     4
 10
806.214472
 20
746.935523
 11
805.214472
 21
746.935523
  0
LINE
  8
CSLAYER1
  6
CONTINUOUS
 62
     4
 10
332.214472
 20
750.435523
 11
332.214472
 21
723.435523
  0
LINE
  8
CSLAYER1
  6
CONTINUOUS
 62
     4
 10
326.214472
 20
749.935523
 11
326.214472
 21
723.935523
  0
LINE
  8
CSLAYER1
  6
CONTINUOUS
 62
     4
 10
327.214472
 20
750.935523
 11
331.714472
 21
750.935523
  0
LINE
  8
CSLAYER1
  6
CONTINUOUS
 62
     4
 10
326.214472
 20
749.935523
 11
327.214472
 21
750.935523
  0
LINE
  8
CSLAYER1
  6
CONTINUOUS
 62
     4
 10
331.714472
 20
750.935523
 11
332.214472
 21
750.435523
  0
LINE
  8
CSLAYER1
  6
CONTINUOUS
 62
     4
 10
327.214472
 20
750.935523
 11
327.214472
 21
722.935523
  0
LINE
  8
CSLAYER1
  6
CONTINUOUS
 62
     4
 10
331.714472
 20
750.935523
 11
331.714472
 21
722.935523
  0
LINE
  8
CSLAYER1
  6
CONTINUOUS
 62
     4
 10
327.214472
 20
722.935523
 11
331.714472
 21
722.935523
  0
LINE
  8
CSLAYER1
  6
CONTINUOUS
 62
     4
 10
326.214472
 20
723.935523
 11
327.214472
 21
722.935523
  0
LINE
  8
CSLAYER1
  6
CONTINUOUS
 62
     4
 10
331.714472
 20
722.935523
 11
332.214472
 21
723.435523
  0
LINE
  8
CSLAYER1
  6
CONTINUOUS
 62
     4
 10
332.214472
 20
726.935523
 11
333.214472
 21
726.935523
  0
LINE
  8
CSLAYER1
  6
CENTER
 62
     5
 10
294.214472
 20
767.670814
 11
364.261740
 21
767.670814
  0
INSERT
  8
CSLAYER1
  2
BLKF0003
 10
0.0
 20
0.0
 30
0.0
  0
LINE
  8
CSLAYER1
  6
CONTINUOUS
 62
     3
 10
364.714472
 20
780.170814
 11
363.714472
 21
780.170814
  0
LINE
  8
CSLAYER1
  6
CONTINUOUS
 62
     3
 10
378.714472
 20
779.170814
 11
373.714472
 21
779.170814
  0
LINE
  8
CSLAYER1
  6
CONTINUOUS
 62
     3
 10
363.714472
 20
767.578085
 11
363.714472
 21
784.170814
  0
LINE
  8
CSLAYER1
  6
CONTINUOUS
 62
     3
 10
323.214472
 20
785.720814
 11
323.214472
 21
749.620814
  0
LINE
  8
CSLAYER1
  6
CONTINUOUS
 62
     3
 10
333.214472
 20
786.720814
 11
324.214472
 21
786.720814
  0
LINE
  8
CSLAYER1
  6
CONTINUOUS
 62
     3
 10
362.714472
 20
785.170814
 11
342.214472
 21
785.170814
  0
LINE
  8
CSLAYER1
  6
CONTINUOUS
 62
     3
 10
323.214472
 20
785.720814
 11
324.214472
 21
786.720814
  0
LINE
  8
CSLAYER1
  6
CONTINUOUS
 62
     3
 10
363.714472
 20
784.170814
 11
362.714472
 21
785.170814
  0
LINE
  8
CSLAYER1
  6
CONTINUOUS
 62
     5
 10
313.412261
 20
782.670814
 11
310.412261
 21
782.670814
  0
LINE
  8
CSLAYER1
  6
CONTINUOUS
 62
     3
 10
328.214472
 20
786.720814
 11
333.214472
 21
791.720814
  0
LINE
  8
CSLAYER1
  6
CONTINUOUS
 62
     3
 10
333.214472
 20
791.437972
 11
328.497315
 21
786.720814
  0
LINE
  8
CSLAYER1
  6
CONTINUOUS
 62
     3
 10
333.214472
 20
791.155129
 11
328.780158
 21
786.720814
  0
LINE
  8
CSLAYER1
  6
CONTINUOUS
 62
     3
 10
333.214472
 20
790.872286
 11
329.063000
 21
786.720814
  0
LINE
  8
CSLAYER1
  6
CONTINUOUS
 62
     3
 10
333.214472
 20
790.589444
 11
329.345843
 21
786.720814
  0
LINE
  8
CSLAYER1
  6
CONTINUOUS
 62
     3
 10
333.214472
 20
790.306601
 11
329.628686
 21
786.720814
  0
LINE
  8
CSLAYER1
  6
CONTINUOUS
 62
     3
 10
333.214472
 20
790.023758
 11
329.911528
 21
786.720814
  0
LINE
  8
CSLAYER1
  6
CONTINUOUS
 62
     3
 10
333.214472
 20
789.740915
 11
330.194371
 21
786.720814
  0
LINE
  8
CSLAYER1
  6
CONTINUOUS
 62
     3
 10
333.214472
 20
789.458073
 11
330.477214
 21
786.720814
  0
LINE
  8
CSLAYER1
  6
CONTINUOUS
 62
     3
 10
333.214472
 20
789.175230
 11
330.760057
 21
786.720814
  0
LINE
  8
CSLAYER1
  6
CONTINUOUS
 62
     3
 10
333.214472
 20
788.892387
 11
331.042899
 21
786.720814
  0
LINE
  8
CSLAYER1
  6
CONTINUOUS
 62
     3
 10
333.214472
 20
788.609545
 11
331.325742
 21
786.720814
  0
LINE
  8
CSLAYER1
  6
CONTINUOUS
 62
     3
 10
333.214472
 20
788.326702
 11
331.608585
 21
786.720814
  0
LINE
  8
CSLAYER1
  6
CONTINUOUS
 62
     3
 10
333.214472
 20
788.043859
 11
331.891427
 21
786.720814
  0
LINE
  8
CSLAYER1
  6
CONTINUOUS
 62
     3
 10
333.214472
 20
787.761016
 11
332.174270
 21
786.720814
  0
LINE
  8
CSLAYER1
  6
CONTINUOUS
 62
     3
 10
333.214472
 20
787.478174
 11
332.457113
 21
786.720814
  0
LINE
  8
CSLAYER1
  6
CONTINUOUS
 62
     3
 10
333.214472
 20
787.195331
 11
332.739956
 21
786.720814
  0
LINE
  8
CSLAYER1
  6
CONTINUOUS
 62
     3
 10
333.214472
 20
786.912488
 11
333.022798
 21
786.720814
  0
LINE
  8
CSLAYER1
  6
CONTINUOUS
 62
     3
 10
342.214472
 20
790.170814
 11
347.214472
 21
785.170814
  0
LINE
  8
CSLAYER1
  6
CONTINUOUS
 62
     3
 10
346.931629
 20
785.170814
 11
342.214472
 21
789.887972
  0
LINE
  8
CSLAYER1
  6
CONTINUOUS
 62
     3
 10
346.648787
 20
785.170814
 11
342.214472
 21
789.605129
  0
LINE
  8
CSLAYER1
  6
CONTINUOUS
 62
     3
 10
346.365944
 20
785.170814
 11
342.214472
 21
789.322286
  0
LINE
  8
CSLAYER1
  6
CONTINUOUS
 62
     3
 10
346.083101
 20
785.170814
 11
342.214472
 21
789.039444
  0
LINE
  8
CSLAYER1
  6
CONTINUOUS
 62
     3
 10
345.800259
 20
785.170814
 11
342.214472
 21
788.756601
  0
LINE
  8
CSLAYER1
  6
CONTINUOUS
 62
     3
 10
345.517416
 20
785.170814
 11
342.214472
 21
788.473758
  0
LINE
  8
CSLAYER1
  6
CONTINUOUS
 62
     3
 10
345.234573
 20
785.170814
 11
342.214472
 21
788.190915
  0
LINE
  8
CSLAYER1
  6
CONTINUOUS
 62
     3
 10
344.951730
 20
785.170814
 11
342.214472
 21
787.908073
  0
LINE
  8
CSLAYER1
  6
CONTINUOUS
 62
     3
 10
344.668888
 20
785.170814
 11
342.214472
 21
787.625230
  0
LINE
  8
CSLAYER1
  6
CONTINUOUS
 62
     3
 10
344.386045
 20
785.170814
 11
342.214472
 21
787.342387
  0
LINE
  8
CSLAYER1
  6
CONTINUOUS
 62
     3
 10
344.103202
 20
785.170814
 11
342.214472
 21
787.059545
  0
LINE
  8
CSLAYER1
  6
CONTINUOUS
 62
     3
 10
343.820360
 20
785.170814
 11
342.214472
 21
786.776702
  0
LINE
  8
CSLAYER1
  6
CONTINUOUS
 62
     3
 10
343.537517
 20
785.170814
 11
342.214472
 21
786.493859
  0
LINE
  8
CSLAYER1
  6
CONTINUOUS
 62
     3
 10
343.254674
 20
785.170814
 11
342.214472
 21
786.211016
  0
LINE
  8
CSLAYER1
  6
CONTINUOUS
 62
     3
 10
342.971831
 20
785.170814
 11
342.214472
 21
785.928174
  0
LINE
  8
CSLAYER1
  6
CONTINUOUS
 62
     3
 10
342.688989
 20
785.170814
 11
342.214472
 21
785.645331
  0
LINE
  8
CSLAYER1
  6
CONTINUOUS
 62
     3
 10
342.406146
 20
785.170814
 11
342.214472
 21
785.362488
  0
LINE
  8
CSLAYER1
  6
CONTINUOUS
 62
     3
 10
323.214472
 20
780.170814
 11
322.214472
 21
780.170814
  0
LINE
  8
CSLAYER1
  6
CONTINUOUS
 62
     3
 10
326.214472
 20
748.620814
 11
324.214472
 21
748.620814
  0
LINE
  8
CSLAYER1
  6
CONTINUOUS
 62
     3
 10
323.214472
 20
749.620814
 11
324.214472
 21
748.620814
  0
LINE
  8
CSLAYER1
  6
CONTINUOUS
 62
     3
 10
323.214472
 20
755.170814
 11
322.214472
 21
755.170814
  0
LINE
  8
CSLAYER1
  6
CENTER
 62
     5
 10
348.808372
 20
736.935523
 11
326.214472
 21
736.935523
  0
LINE
  8
CSLAYER1
  6
CONTINUOUS
 62
     4
 10
332.214472
 20
746.935523
 11
333.214472
 21
746.935523
  0
LINE
  8
CSLAYER1
  6
CONTINUOUS
 62
     3
 10
373.714472
 20
769.272487
 11
373.714472
 21
821.875649
  0
LINE
  8
CSLAYER1
  6
CONTINUOUS
 62
     3
 10
364.714472
 20
767.747525
 11
364.714472
 21
821.875649
  0
INSERT
  8
CSLAYER1
  2
BLKF0004
 10
0.0
 20
0.0
 30
0.0
  0
LINE
  8
CSLAYER1
  6
CONTINUOUS
 62
     3
 10
1239.459898
 20
1607.619873
 11
2139.459898
 21
1607.619873
  0
LINE
  8
CSLAYER1
  6
CENTER
 62
     5
 10
569.214472
 20
1152.313826
 11
569.214472
 21
439.227802
  0
LINE
  8
CSLAYER1
  6
CENTER
 62
     5
 10
369.214472
 20
768.510006
 11
369.214472
 21
1072.260237
  0
LINE
  8
CSLAYER1
  6
CENTER
 62
     5
 10
769.214472
 20
768.510006
 11
769.214472
 21
1072.260237
  0
LINE
  8
CSLAYER1
  6
CONTINUOUS
 62
     7
 10
508.214472
 20
792.062188
 11
630.214472
 21
792.062188
  0
LINE
  8
CSLAYER1
  6
CONTINUOUS
 62
     7
 10
508.214472
 20
769.176438
 11
630.214472
 21
769.176438
  0
LINE
  8
CSLAYER1
  6
CONTINUOUS
 62
     7
 10
631.214472
 20
550.988804
 11
630.978543
 21
554.809766
  0
LINE
  8
CSLAYER1
  6
CONTINUOUS
 62
     7
 10
630.978543
 20
554.809766
 11
630.272553
 21
558.601648
  0
LINE
  8
CSLAYER1
  6
CONTINUOUS
 62
     7
 10
630.272553
 20
558.601648
 11
629.101873
 21
562.335591
  0
LINE
  8
CSLAYER1
  6
CONTINUOUS
 62
     7
 10
629.101873
 20
562.335591
 11
627.475415
 21
565.983179
  0
LINE
  8
CSLAYER1
  6
CONTINUOUS
 62
     7
 10
627.475415
 20
565.983179
 11
625.405555
 21
569.516651
  0
LINE
  8
CSLAYER1
  6
CONTINUOUS
 62
     7
 10
625.405555
 20
569.516651
 11
622.908047
 21
572.909114
  0
LINE
  8
CSLAYER1
  6
CONTINUOUS
 62
     7
 10
622.908047
 20
572.909114
 11
620.001899
 21
576.134751
  0
LINE
  8
CSLAYER1
  6
CONTINUOUS
 62
     7
 10
620.001899
 20
576.134751
 11
616.709228
 21
579.169012
  0
LINE
  8
CSLAYER1
  6
CONTINUOUS
 62
     7
 10
616.709228
 20
579.169012
 11
613.055093
 21
581.988804
  0
LINE
  8
CSLAYER1
  6
CONTINUOUS
 62
     7
 10
613.055093
 20
581.988804
 11
609.067304
 21
584.572668
  0
LINE
  8
CSLAYER1
  6
CONTINUOUS
 62
     7
 10
609.067304
 20
584.572668
 11
604.776211
 21
586.900938
  0
LINE
  8
CSLAYER1
  6
CONTINUOUS
 62
     7
 10
604.776211
 20
586.900938
 11
600.214472
 21
588.955895
  0
LINE
  8
CSLAYER1
  6
CONTINUOUS
 62
     7
 10
600.214472
 20
588.955895
 11
595.416804
 21
590.721900
  0
LINE
  8
CSLAYER1
  6
CONTINUOUS
 62
     7
 10
595.416804
 20
590.721900
 11
590.419721
 21
592.185511
  0
LINE
  8
CSLAYER1
  6
CONTINUOUS
 62
     7
 10
590.419721
 20
592.185511
 11
585.261253
 21
593.335591
  0
LINE
  8
CSLAYER1
  6
CONTINUOUS
 62
     7
 10
585.261253
 20
593.335591
 11
579.980659
 21
594.163387
  0
LINE
  8
CSLAYER1
  6
CONTINUOUS
 62
     7
 10
579.980659
 20
594.163387
 11
574.618128
 21
594.662598
  0
LINE
  8
CSLAYER1
  6
CONTINUOUS
 62
     7
 10
574.618128
 20
594.662598
 11
569.214472
 21
594.829424
  0
LINE
  8
CSLAYER1
  6
CONTINUOUS
 62
     7
 10
569.214472
 20
594.829424
 11
563.810816
 21
594.662598
  0
LINE
  8
CSLAYER1
  6
CONTINUOUS
 62
     7
 10
563.810816
 20
594.662598
 11
558.448285
 21
594.163387
  0
LINE
  8
CSLAYER1
  6
CONTINUOUS
 62
     7
 10
558.448285
 20
594.163387
 11
553.167691
 21
593.335591
  0
LINE
  8
CSLAYER1
  6
CONTINUOUS
 62
     7
 10
553.167691
 20
593.335591
 11
548.009223
 21
592.185511
  0
LINE
  8
CSLAYER1
  6
CONTINUOUS
 62
     7
 10
548.009223
 20
592.185511
 11
543.012140
 21
590.721900
  0
LINE
  8
CSLAYER1
  6
CONTINUOUS
 62
     7
 10
543.012140
 20
590.721900
 11
538.214472
 21
588.955895
  0
LINE
  8
CSLAYER1
  6
CONTINUOUS
 62
     7
 10
538.214472
 20
588.955895
 11
533.652733
 21
586.900938
  0
LINE
  8
CSLAYER1
  6
CONTINUOUS
 62
     7
 10
533.652733
 20
586.900938
 11
529.361640
 21
584.572668
  0
LINE
  8
CSLAYER1
  6
CONTINUOUS
 62
     7
 10
529.361640
 20
584.572668
 11
525.373852
 21
581.988804
  0
LINE
  8
CSLAYER1
  6
CONTINUOUS
 62
     7
 10
525.373852
 20
581.988804
 11
521.719717
 21
579.169012
  0
LINE
  8
CSLAYER1
  6
CONTINUOUS
 62
     7
 10
521.719717
 20
579.169012
 11
518.427045
 21
576.134751
  0
LINE
  8
CSLAYER1
  6
CONTINUOUS
 62
     7
 10
518.427045
 20
576.134751
 11
515.520897
 21
572.909114
  0
LINE
  8
CSLAYER1
  6
CONTINUOUS
 62
     7
 10
515.520897
 20
572.909114
 11
513.023389
 21
569.516651
  0
LINE
  8
CSLAYER1
  6
CONTINUOUS
 62
     7
 10
513.023389
 20
569.516651
 11
510.953530
 21
565.983179
  0
LINE
  8
CSLAYER1
  6
CONTINUOUS
 62
     7
 10
510.953530
 20
565.983179
 11
509.327071
 21
562.335591
  0
LINE
  8
CSLAYER1
  6
CONTINUOUS
 62
     7
 10
509.327071
 20
562.335591
 11
508.156391
 21
558.601648
  0
LINE
  8
CSLAYER1
  6
CONTINUOUS
 62
     7
 10
508.156391
 20
558.601648
 11
507.450401
 21
554.809766
  0
LINE
  8
CSLAYER1
  6
CONTINUOUS
 62
     7
 10
507.450401
 20
554.809766
 11
507.214472
 21
550.988804
  0
LINE
  8
CSLAYER1
  6
CONTINUOUS
 62
     7
 10
507.214472
 20
550.988804
 11
507.450401
 21
547.167842
  0
LINE
  8
CSLAYER1
  6
CONTINUOUS
 62
     7
 10
507.450401
 20
547.167842
 11
508.156391
 21
543.375960
  0
LINE
  8
CSLAYER1
  6
CONTINUOUS
 62
     7
 10
508.156391
 20
543.375960
 11
509.327071
 21
539.642016
  0
LINE
  8
CSLAYER1
  6
CONTINUOUS
 62
     7
 10
509.327071
 20
539.642016
 11
510.953530
 21
535.994429
  0
LINE
  8
CSLAYER1
  6
CONTINUOUS
 62
     7
 10
510.953530
 20
535.994429
 11
513.023389
 21
532.460957
  0
LINE
  8
CSLAYER1
  6
CONTINUOUS
 62
     7
 10
513.023389
 20
532.460957
 11
515.520897
 21
529.068494
  0
LINE
  8
CSLAYER1
  6
CONTINUOUS
 62
     7
 10
515.520897
 20
529.068494
 11
518.427045
 21
525.842857
  0
LINE
  8
CSLAYER1
  6
CONTINUOUS
 62
     7
 10
518.427045
 20
525.842857
 11
521.719717
 21
522.808596
  0
LINE
  8
CSLAYER1
  6
CONTINUOUS
 62
     7
 10
521.719717
 20
522.808596
 11
525.373852
 21
519.988804
  0
LINE
  8
CSLAYER1
  6
CONTINUOUS
 62
     7
 10
525.373852
 20
519.988804
 11
529.361640
 21
517.404940
  0
LINE
  8
CSLAYER1
  6
CONTINUOUS
 62
     7
 10
529.361640
 20
517.404940
 11
533.652733
 21
515.076670
  0
LINE
  8
CSLAYER1
  6
CONTINUOUS
 62
     7
 10
533.652733
 20
515.076670
 11
538.214472
 21
513.021713
  0
LINE
  8
CSLAYER1
  6
CONTINUOUS
 62
     7
 10
538.214472
 20
513.021713
 11
543.012140
 21
511.255708
  0
LINE
  8
CSLAYER1
  6
CONTINUOUS
 62
     7
 10
543.012140
 20
511.255708
 11
548.009223
 21
509.792096
  0
LINE
  8
CSLAYER1
  6
CONTINUOUS
 62
     7
 10
548.009223
 20
509.792096
 11
553.167691
 21
508.642016
  0
LINE
  8
CSLAYER1
  6
CONTINUOUS
 62
     7
 10
553.167691
 20
508.642016
 11
558.448285
 21
507.814221
  0
LINE
  8
CSLAYER1
  6
CONTINUOUS
 62
     7
 10
558.448285
 20
507.814221
 11
563.810816
 21
507.315010
  0
LINE
  8
CSLAYER1
  6
CONTINUOUS
 62
     7
 10
563.810816
 20
507.315010
 11
569.214472
 21
507.148183
  0
LINE
  8
CSLAYER1
  6
CONTINUOUS
 62
     7
 10
569.214472
 20
507.148183
 11
574.618128
 21
507.315010
  0
LINE
  8
CSLAYER1
  6
CONTINUOUS
 62
     7
 10
574.618128
 20
507.315010
 11
579.980659
 21
507.814221
  0
LINE
  8
CSLAYER1
  6
CONTINUOUS
 62
     7
 10
579.980659
 20
507.814221
 11
585.261253
 21
508.642016
  0
LINE
  8
CSLAYER1
  6
CONTINUOUS
 62
     7
 10
585.261253
 20
508.642016
 11
590.419721
 21
509.792096
  0
LINE
  8
CSLAYER1
  6
CONTINUOUS
 62
     7
 10
590.419721
 20
509.792096
 11
595.416804
 21
511.255708
  0
LINE
  8
CSLAYER1
  6
CONTINUOUS
 62
     7
 10
595.416804
 20
511.255708
 11
600.214472
 21
513.021713
  0
LINE
  8
CSLAYER1
  6
CONTINUOUS
 62
     7
 10
600.214472
 20
513.021713
 11
604.776211
 21
515.076670
  0
LINE
  8
CSLAYER1
  6
CONTINUOUS
 62
     7
 10
604.776211
 20
515.076670
 11
609.067304
 21
517.404940
  0
LINE
  8
CSLAYER1
  6
CONTINUOUS
 62
     7
 10
609.067304
 20
517.404940
 11
613.055093
 21
519.988804
  0
LINE
  8
CSLAYER1
  6
CONTINUOUS
 62
     7
 10
613.055093
 20
519.988804
 11
616.709228
 21
522.808596
  0
LINE
  8
CSLAYER1
  6
CONTINUOUS
 62
     7
 10
616.709228
 20
522.808596
 11
620.001899
 21
525.842857
  0
LINE
  8
CSLAYER1
  6
CONTINUOUS
 62
     7
 10
620.001899
 20
525.842857
 11
622.908047
 21
529.068494
  0
LINE
  8
CSLAYER1
  6
CONTINUOUS
 62
     7
 10
622.908047
 20
529.068494
 11
625.405555
 21
532.460957
  0
LINE
  8
CSLAYER1
  6
CONTINUOUS
 62
     7
 10
625.405555
 20
532.460957
 11
627.475415
 21
535.994429
  0
LINE
  8
CSLAYER1
  6
CONTINUOUS
 62
     7
 10
627.475415
 20
535.994429
 11
629.101873
 21
539.642016
  0
LINE
  8
CSLAYER1
  6
CONTINUOUS
 62
     7
 10
629.101873
 20
539.642016
 11
630.272553
 21
543.375960
  0
LINE
  8
CSLAYER1
  6
CONTINUOUS
 62
     7
 10
630.272553
 20
543.375960
 11
630.978543
 21
547.167842
  0
LINE
  8
CSLAYER1
  6
CONTINUOUS
 62
     7
 10
630.978543
 20
547.167842
 11
631.214472
 21
550.988804
  0
LINE
  8
CSLAYER1
  6
CONTINUOUS
 62
     7
 10
613.214472
 20
545.267366
 11
613.047039
 21
547.979017
  0
LINE
  8
CSLAYER1
  6
CONTINUOUS
 62
     7
 10
613.047039
 20
547.979017
 11
612.546013
 21
550.670030
  0
LINE
  8
CSLAYER1
  6
CONTINUOUS
 62
     7
 10
612.546013
 20
550.670030
 11
611.715208
 21
553.319925
  0
LINE
  8
CSLAYER1
  6
CONTINUOUS
 62
     7
 10
611.715208
 20
553.319925
 11
610.560947
 21
555.908536
  0
LINE
  8
CSLAYER1
  6
CONTINUOUS
 62
     7
 10
610.560947
 20
555.908536
 11
609.092015
 21
558.416161
  0
LINE
  8
CSLAYER1
  6
CONTINUOUS
 62
     7
 10
609.092015
 20
558.416161
 11
607.319590
 21
560.823716
  0
LINE
  8
CSLAYER1
  6
CONTINUOUS
 62
     7
 10
607.319590
 20
560.823716
 11
605.257162
 21
563.112877
  0
LINE
  8
CSLAYER1
  6
CONTINUOUS
 62
     7
 10
605.257162
 20
563.112877
 11
602.920428
 21
565.266223
  0
LINE
  8
CSLAYER1
  6
CONTINUOUS
 62
     7
 10
602.920428
 20
565.266223
 11
600.327170
 21
567.267366
  0
LINE
  8
CSLAYER1
  6
CONTINUOUS
 62
     7
 10
600.327170
 20
567.267366
 11
597.497127
 21
569.101076
  0
LINE
  8
CSLAYER1
  6
CONTINUOUS
 62
     7
 10
597.497127
 20
569.101076
 11
594.451835
 21
570.753397
  0
LINE
  8
CSLAYER1
  6
CONTINUOUS
 62
     7
 10
594.451835
 20
570.753397
 11
591.214472
 21
572.211754
  0
LINE
  8
CSLAYER1
  6
CONTINUOUS
 62
     7
 10
591.214472
 20
572.211754
 11
587.809676
 21
573.465047
  0
LINE
  8
CSLAYER1
  6
CONTINUOUS
 62
     7
 10
587.809676
 20
573.465047
 11
584.263358
 21
574.503739
  0
LINE
  8
CSLAYER1
  6
CONTINUOUS
 62
     7
 10
584.263358
 20
574.503739
 11
580.602510
 21
575.319925
  0
LINE
  8
CSLAYER1
  6
CONTINUOUS
 62
     7
 10
580.602510
 20
575.319925
 11
576.854992
 21
575.907393
  0
LINE
  8
CSLAYER1
  6
CONTINUOUS
 62
     7
 10
576.854992
 20
575.907393
 11
573.049325
 21
576.261672
  0
LINE
  8
CSLAYER1
  6
CONTINUOUS
 62
     7
 10
573.049325
 20
576.261672
 11
569.214472
 21
576.380065
  0
LINE
  8
CSLAYER1
  6
CONTINUOUS
 62
     7
 10
569.214472
 20
576.380065
 11
565.379619
 21
576.261672
  0
LINE
  8
CSLAYER1
  6
CONTINUOUS
 62
     7
 10
565.379619
 20
576.261672
 11
561.573952
 21
575.907393
  0
LINE
  8
CSLAYER1
  6
CONTINUOUS
 62
     7
 10
561.573952
 20
575.907393
 11
557.826434
 21
575.319925
  0
LINE
  8
CSLAYER1
  6
CONTINUOUS
 62
     7
 10
557.826434
 20
575.319925
 11
554.165586
 21
574.503739
  0
LINE
  8
CSLAYER1
  6
CONTINUOUS
 62
     7
 10
554.165586
 20
574.503739
 11
550.619269
 21
573.465047
  0
LINE
  8
CSLAYER1
  6
CONTINUOUS
 62
     7
 10
550.619269
 20
573.465047
 11
547.214472
 21
572.211754
  0
LINE
  8
CSLAYER1
  6
CONTINUOUS
 62
     7
 10
547.214472
 20
572.211754
 11
543.977109
 21
570.753397
  0
LINE
  8
CSLAYER1
  6
CONTINUOUS
 62
     7
 10
543.977109
 20
570.753397
 11
540.931817
 21
569.101076
  0
LINE
  8
CSLAYER1
  6
CONTINUOUS
 62
     7
 10
540.931817
 20
569.101076
 11
538.101774
 21
567.267366
  0
LINE
  8
CSLAYER1
  6
CONTINUOUS
 62
     7
 10
538.101774
 20
567.267366
 11
535.508517
 21
565.266223
  0
LINE
  8
CSLAYER1
  6
CONTINUOUS
 62
     7
 10
535.508517
 20
565.266223
 11
533.171782
 21
563.112877
  0
LINE
  8
CSLAYER1
  6
CONTINUOUS
 62
     7
 10
533.171782
 20
563.112877
 11
531.109354
 21
560.823716
  0
LINE
  8
CSLAYER1
  6
CONTINUOUS
 62
     7
 10
531.109354
 20
560.823716
 11
529.336929
 21
558.416161
  0
LINE
  8
CSLAYER1
  6
CONTINUOUS
 62
     7
 10
529.336929
 20
558.416161
 11
527.867997
 21
555.908536
  0
LINE
  8
CSLAYER1
  6
CONTINUOUS
 62
     7
 10
527.867997
 20
555.908536
 11
526.713736
 21
553.319925
  0
LINE
  8
CSLAYER1
  6
CONTINUOUS
 62
     7
 10
526.713736
 20
553.319925
 11
525.882931
 21
550.670030
  0
LINE
  8
CSLAYER1
  6
CONTINUOUS
 62
     7
 10
525.882931
 20
550.670030
 11
525.381905
 21
547.979017
  0
LINE
  8
CSLAYER1
  6
CONTINUOUS
 62
     7
 10
525.381905
 20
547.979017
 11
525.214472
 21
545.267366
  0
LINE
  8
CSLAYER1
  6
CONTINUOUS
 62
     7
 10
525.214472
 20
545.267366
 11
525.381905
 21
542.555716
  0
LINE
  8
CSLAYER1
  6
CONTINUOUS
 62
     7
 10
525.381905
 20
542.555716
 11
525.882931
 21
539.864703
  0
LINE
  8
CSLAYER1
  6
CONTINUOUS
 62
     7
 10
525.882931
 20
539.864703
 11
526.713736
 21
537.214808
  0
LINE
  8
CSLAYER1
  6
CONTINUOUS
 62
     7
 10
526.713736
 20
537.214808
 11
527.867997
 21
534.626197
  0
LINE
  8
CSLAYER1
  6
CONTINUOUS
 62
     7
 10
527.867997
 20
534.626197
 11
529.336929
 21
532.118572
  0
LINE
  8
CSLAYER1
  6
CONTINUOUS
 62
     7
 10
529.336929
 20
532.118572
 11
531.109354
 21
529.711017
  0
LINE
  8
CSLAYER1
  6
CONTINUOUS
 62
     7
 10
531.109354
 20
529.711017
 11
533.171782
 21
527.421856
  0
LINE
  8
CSLAYER1
  6
CONTINUOUS
 62
     7
 10
533.171782
 20
527.421856
 11
535.508517
 21
525.268509
  0
LINE
  8
CSLAYER1
  6
CONTINUOUS
 62
     7
 10
535.508517
 20
525.268509
 11
538.101774
 21
523.267366
  0
LINE
  8
CSLAYER1
  6
CONTINUOUS
 62
     7
 10
538.101774
 20
523.267366
 11
540.931817
 21
521.433657
  0
LINE
  8
CSLAYER1
  6
CONTINUOUS
 62
     7
 10
540.931817
 20
521.433657
 11
543.977109
 21
519.781336
  0
LINE
  8
CSLAYER1
  6
CONTINUOUS
 62
     7
 10
543.977109
 20
519.781336
 11
547.214472
 21
518.322979
  0
LINE
  8
CSLAYER1
  6
CONTINUOUS
 62
     7
 10
547.214472
 20
518.322979
 11
550.619269
 21
517.069686
  0
LINE
  8
CSLAYER1
  6
CONTINUOUS
 62
     7
 10
550.619269
 20
517.069686
 11
554.165586
 21
516.030993
  0
LINE
  8
CSLAYER1
  6
CONTINUOUS
 62
     7
 10
554.165586
 20
516.030993
 11
557.826434
 21
515.214808
  0
LINE
  8
CSLAYER1
  6
CONTINUOUS
 62
     7
 10
557.826434
 20
515.214808
 11
561.573952
 21
514.627340
  0
LINE
  8
CSLAYER1
  6
CONTINUOUS
 62
     7
 10
561.573952
 20
514.627340
 11
565.379619
 21
514.273061
  0
LINE
  8
CSLAYER1
  6
CONTINUOUS
 62
     7
 10
565.379619
 20
514.273061
 11
569.214472
 21
514.154668
  0
LINE
  8
CSLAYER1
  6
CONTINUOUS
 62
     7
 10
569.214472
 20
514.154668
 11
573.049325
 21
514.273061
  0
LINE
  8
CSLAYER1
  6
CONTINUOUS
 62
     7
 10
573.049325
 20
514.273061
 11
576.854992
 21
514.627340
  0
LINE
  8
CSLAYER1
  6
CONTINUOUS
 62
     7
 10
576.854992
 20
514.627340
 11
580.602510
 21
515.214808
  0
LINE
  8
CSLAYER1
  6
CONTINUOUS
 62
     7
 10
580.602510
 20
515.214808
 11
584.263358
 21
516.030993
  0
LINE
  8
CSLAYER1
  6
CONTINUOUS
 62
     7
 10
584.263358
 20
516.030993
 11
587.809676
 21
517.069686
  0
LINE
  8
CSLAYER1
  6
CONTINUOUS
 62
     7
 10
587.809676
 20
517.069686
 11
591.214472
 21
518.322979
  0
LINE
  8
CSLAYER1
  6
CONTINUOUS
 62
     7
 10
591.214472
 20
518.322979
 11
594.451835
 21
519.781336
  0
LINE
  8
CSLAYER1
  6
CONTINUOUS
 62
     7
 10
594.451835
 20
519.781336
 11
597.497127
 21
521.433657
  0
LINE
  8
CSLAYER1
  6
CONTINUOUS
 62
     7
 10
597.497127
 20
521.433657
 11
600.327170
 21
523.267366
  0
LINE
  8
CSLAYER1
  6
CONTINUOUS
 62
     7
 10
600.327170
 20
523.267366
 11
602.920428
 21
525.268509
  0
LINE
  8
CSLAYER1
  6
CONTINUOUS
 62
     7
 10
602.920428
 20
525.268509
 11
605.257162
 21
527.421856
  0
LINE
  8
CSLAYER1
  6
CONTINUOUS
 62
     7
 10
605.257162
 20
527.421856
 11
607.319590
 21
529.711017
  0
LINE
  8
CSLAYER1
  6
CONTINUOUS
 62
     7
 10
607.319590
 20
529.711017
 11
609.092015
 21
532.118572
  0
LINE
  8
CSLAYER1
  6
CONTINUOUS
 62
     7
 10
609.092015
 20
532.118572
 11
610.560947
 21
534.626197
  0
LINE
  8
CSLAYER1
  6
CONTINUOUS
 62
     7
 10
610.560947
 20
534.626197
 11
611.715208
 21
537.214808
  0
LINE
  8
CSLAYER1
  6
CONTINUOUS
 62
     7
 10
611.715208
 20
537.214808
 11
612.546013
 21
539.864703
  0
LINE
  8
CSLAYER1
  6
CONTINUOUS
 62
     7
 10
612.546013
 20
539.864703
 11
613.047039
 21
542.555716
  0
LINE
  8
CSLAYER1
  6
CONTINUOUS
 62
     7
 10
613.047039
 20
542.555716
 11
613.214472
 21
545.267366
  0
LINE
  8
CSLAYER1
  6
CONTINUOUS
 62
     7
 10
624.214472
 20
757.275216
 11
624.214472
 21
699.451018
  0
LINE
  8
CSLAYER1
  6
CONTINUOUS
 62
     7
 10
514.214472
 20
757.275216
 11
514.214472
 21
699.451018
  0
LINE
  8
CSLAYER1
  6
CONTINUOUS
 62
     7
 10
524.214472
 20
763.934383
 11
614.214472
 21
763.934383
  0
LINE
  8
CSLAYER1
  6
CONTINUOUS
 62
     7
 10
524.214472
 20
754.637047
 11
614.214472
 21
754.637047
  0
LINE
  8
CSLAYER1
  6
CONTINUOUS
 62
     7
 10
631.214472
 20
591.754046
 11
631.214472
 21
550.988804
  0
LINE
  8
CSLAYER1
  6
CONTINUOUS
 62
     7
 10
507.214472
 20
591.754046
 11
507.214472
 21
550.988804
  0
LINE
  8
CSLAYER1
  6
CONTINUOUS
 62
     7
 10
629.214472
 20
682.581866
 11
629.214472
 21
602.848313
  0
LINE
  8
CSLAYER1
  6
CONTINUOUS
 62
     7
 10
624.214472
 20
756.863315
 11
624.176419
 21
757.479599
  0
LINE
  8
CSLAYER1
  6
CONTINUOUS
 62
     7
 10
624.176419
 20
757.479599
 11
624.062550
 21
758.091193
  0
LINE
  8
CSLAYER1
  6
CONTINUOUS
 62
     7
 10
624.062550
 20
758.091193
 11
623.873730
 21
758.693442
  0
LINE
  8
CSLAYER1
  6
CONTINUOUS
 62
     7
 10
623.873730
 20
758.693442
 11
623.611398
 21
759.281763
  0
LINE
  8
CSLAYER1
  6
CONTINUOUS
 62
     7
 10
623.611398
 20
759.281763
 11
623.277550
 21
759.851677
  0
LINE
  8
CSLAYER1
  6
CONTINUOUS
 62
     7
 10
623.277550
 20
759.851677
 11
622.874726
 21
760.398849
  0
LINE
  8
CSLAYER1
  6
CONTINUOUS
 62
     7
 10
622.874726
 20
760.398849
 11
622.405993
 21
760.919113
  0
LINE
  8
CSLAYER1
  6
CONTINUOUS
 62
     7
 10
622.405993
 20
760.919113
 11
621.874917
 21
761.408510
  0
LINE
  8
CSLAYER1
  6
CONTINUOUS
 62
     7
 10
621.874917
 20
761.408510
 11
621.285540
 21
761.863315
  0
LINE
  8
CSLAYER1
  6
CONTINUOUS
 62
     7
 10
621.285540
 20
761.863315
 11
620.642348
 21
762.280067
  0
LINE
  8
CSLAYER1
  6
CONTINUOUS
 62
     7
 10
620.642348
 20
762.280067
 11
619.950236
 21
762.655595
  0
LINE
  8
CSLAYER1
  6
CONTINUOUS
 62
     7
 10
619.950236
 20
762.655595
 11
619.214472
 21
762.987039
  0
LINE
  8
CSLAYER1
  6
CONTINUOUS
 62
     7
 10
619.214472
 20
762.987039
 11
618.440655
 21
763.271879
  0
LINE
  8
CSLAYER1
  6
CONTINUOUS
 62
     7
 10
618.440655
 20
763.271879
 11
617.634674
 21
763.507945
  0
LINE
  8
CSLAYER1
  6
CONTINUOUS
 62
     7
 10
617.634674
 20
763.507945
 11
616.802663
 21
763.693442
  0
LINE
  8
CSLAYER1
  6
CONTINUOUS
 62
     7
 10
616.802663
 20
763.693442
 11
615.950954
 21
763.826957
  0
LINE
  8
CSLAYER1
  6
CONTINUOUS
 62
     7
 10
615.950954
 20
763.826957
 11
615.086030
 21
763.907475
  0
LINE
  8
CSLAYER1
  6
CONTINUOUS
 62
     7
 10
615.086030
 20
763.907475
 11
614.214472
 21
763.934383
  0
LINE
  8
CSLAYER1
  6
CONTINUOUS
 62
     7
 10
624.214472
 20
747.565979
 11
624.176419
 21
748.182263
  0
LINE
  8
CSLAYER1
  6
CONTINUOUS
 62
     7
 10
624.176419
 20
748.182263
 11
624.062550
 21
748.793857
  0
LINE
  8
CSLAYER1
  6
CONTINUOUS
 62
     7
 10
624.062550
 20
748.793857
 11
623.873730
 21
749.396106
  0
LINE
  8
CSLAYER1
  6
CONTINUOUS
 62
     7
 10
623.873730
 20
749.396106
 11
623.611398
 21
749.984427
  0
LINE
  8
CSLAYER1
  6
CONTINUOUS
 62
     7
 10
623.611398
 20
749.984427
 11
623.277550
 21
750.554341
  0
LINE
  8
CSLAYER1
  6
CONTINUOUS
 62
     7
 10
623.277550
 20
750.554341
 11
622.874726
 21
751.101513
  0
LINE
  8
CSLAYER1
  6
CONTINUOUS
 62
     7
 10
622.874726
 20
751.101513
 11
622.405993
 21
751.621777
  0
LINE
  8
CSLAYER1
  6
CONTINUOUS
 62
     7
 10
622.405993
 20
751.621777
 11
621.874917
 21
752.111174
  0
LINE
  8
CSLAYER1
  6
CONTINUOUS
 62
     7
 10
621.874917
 20
752.111174
 11
621.285540
 21
752.565979
  0
LINE
  8
CSLAYER1
  6
CONTINUOUS
 62
     7
 10
621.285540
 20
752.565979
 11
620.642348
 21
752.982731
  0
LINE
  8
CSLAYER1
  6
CONTINUOUS
 62
     7
 10
620.642348
 20
752.982731
 11
619.950236
 21
753.358259
  0
LINE
  8
CSLAYER1
  6
CONTINUOUS
 62
     7
 10
619.950236
 20
753.358259
 11
619.214472
 21
753.689703
  0
LINE
  8
CSLAYER1
  6
CONTINUOUS
 62
     7
 10
619.214472
 20
753.689703
 11
618.440655
 21
753.974543
  0
LINE
  8
CSLAYER1
  6
CONTINUOUS
 62
     7
 10
618.440655
 20
753.974543
 11
617.634674
 21
754.210609
  0
LINE
  8
CSLAYER1
  6
CONTINUOUS
 62
     7
 10
617.634674
 20
754.210609
 11
616.802663
 21
754.396106
  0
LINE
  8
CSLAYER1
  6
CONTINUOUS
 62
     7
 10
616.802663
 20
754.396106
 11
615.950954
 21
754.529621
  0
LINE
  8
CSLAYER1
  6
CONTINUOUS
 62
     7
 10
615.950954
 20
754.529621
 11
615.086030
 21
754.610139
  0
LINE
  8
CSLAYER1
  6
CONTINUOUS
 62
     7
 10
615.086030
 20
754.610139
 11
614.214472
 21
754.637047
  0
LINE
  8
CSLAYER1
  6
CONTINUOUS
 62
     7
 10
514.214472
 20
756.863315
 11
514.252525
 21
757.479599
  0
LINE
  8
CSLAYER1
  6
CONTINUOUS
 62
     7
 10
514.252525
 20
757.479599
 11
514.366395
 21
758.091193
  0
LINE
  8
CSLAYER1
  6
CONTINUOUS
 62
     7
 10
514.366395
 20
758.091193
 11
514.555214
 21
758.693442
  0
LINE
  8
CSLAYER1
  6
CONTINUOUS
 62
     7
 10
514.555214
 20
758.693442
 11
514.817546
 21
759.281763
  0
LINE
  8
CSLAYER1
  6
CONTINUOUS
 62
     7
 10
514.817546
 20
759.281763
 11
515.151394
 21
759.851677
  0
LINE
  8
CSLAYER1
  6
CONTINUOUS
 62
     7
 10
515.151394
 20
759.851677
 11
515.554218
 21
760.398849
  0
LINE
  8
CSLAYER1
  6
CONTINUOUS
 62
     7
 10
515.554218
 20
760.398849
 11
516.022952
 21
760.919113
  0
LINE
  8
CSLAYER1
  6
CONTINUOUS
 62
     7
 10
516.022952
 20
760.919113
 11
516.554028
 21
761.408510
  0
LINE
  8
CSLAYER1
  6
CONTINUOUS
 62
     7
 10
516.554028
 20
761.408510
 11
517.143404
 21
761.863315
  0
LINE
  8
CSLAYER1
  6
CONTINUOUS
 62
     7
 10
517.143404
 20
761.863315
 11
517.786596
 21
762.280067
  0
LINE
  8
CSLAYER1
  6
CONTINUOUS
 62
     7
 10
517.786596
 20
762.280067
 11
518.478708
 21
762.655595
  0
LINE
  8
CSLAYER1
  6
CONTINUOUS
 62
     7
 10
518.478708
 20
762.655595
 11
519.214472
 21
762.987039
  0
LINE
  8
CSLAYER1
  6
CONTINUOUS
 62
     7
 10
519.214472
 20
762.987039
 11
519.988289
 21
763.271879
  0
LINE
  8
CSLAYER1
  6
CONTINUOUS
 62
     7
 10
519.988289
 20
763.271879
 11
520.794271
 21
763.507945
  0
LINE
  8
CSLAYER1
  6
CONTINUOUS
 62
     7
 10
520.794271
 20
763.507945
 11
521.626282
 21
763.693442
  0
LINE
  8
CSLAYER1
  6
CONTINUOUS
 62
     7
 10
521.626282
 20
763.693442
 11
522.477990
 21
763.826957
  0
LINE
  8
CSLAYER1
  6
CONTINUOUS
 62
     7
 10
522.477990
 20
763.826957
 11
523.342915
 21
763.907475
  0
LINE
  8
CSLAYER1
  6
CONTINUOUS
 62
     7
 10
523.342915
 20
763.907475
 11
524.214472
 21
763.934383
  0
LINE
  8
CSLAYER1
  6
CONTINUOUS
 62
     7
 10
514.214472
 20
747.565979
 11
514.252525
 21
748.182263
  0
LINE
  8
CSLAYER1
  6
CONTINUOUS
 62
     7
 10
514.252525
 20
748.182263
 11
514.366395
 21
748.793857
  0
LINE
  8
CSLAYER1
  6
CONTINUOUS
 62
     7
 10
514.366395
 20
748.793857
 11
514.555214
 21
749.396106
  0
LINE
  8
CSLAYER1
  6
CONTINUOUS
 62
     7
 10
514.555214
 20
749.396106
 11
514.817546
 21
749.984427
  0
LINE
  8
CSLAYER1
  6
CONTINUOUS
 62
     7
 10
514.817546
 20
749.984427
 11
515.151394
 21
750.554341
  0
LINE
  8
CSLAYER1
  6
CONTINUOUS
 62
     7
 10
515.151394
 20
750.554341
 11
515.554218
 21
751.101513
  0
LINE
  8
CSLAYER1
  6
CONTINUOUS
 62
     7
 10
515.554218
 20
751.101513
 11
516.022952
 21
751.621777
  0
LINE
  8
CSLAYER1
  6
CONTINUOUS
 62
     7
 10
516.022952
 20
751.621777
 11
516.554028
 21
752.111174
  0
LINE
  8
CSLAYER1
  6
CONTINUOUS
 62
     7
 10
516.554028
 20
752.111174
 11
517.143404
 21
752.565979
  0
LINE
  8
CSLAYER1
  6
CONTINUOUS
 62
     7
 10
517.143404
 20
752.565979
 11
517.786596
 21
752.982731
  0
LINE
  8
CSLAYER1
  6
CONTINUOUS
 62
     7
 10
517.786596
 20
752.982731
 11
518.478708
 21
753.358259
  0
LINE
  8
CSLAYER1
  6
CONTINUOUS
 62
     7
 10
518.478708
 20
753.358259
 11
519.214472
 21
753.689703
  0
LINE
  8
CSLAYER1
  6
CONTINUOUS
 62
     7
 10
519.214472
 20
753.689703
 11
519.988289
 21
753.974543
  0
LINE
  8
CSLAYER1
  6
CONTINUOUS
 62
     7
 10
519.988289
 20
753.974543
 11
520.794271
 21
754.210609
  0
LINE
  8
CSLAYER1
  6
CONTINUOUS
 62
     7
 10
520.794271
 20
754.210609
 11
521.626282
 21
754.396106
  0
LINE
  8
CSLAYER1
  6
CONTINUOUS
 62
     7
 10
521.626282
 20
754.396106
 11
522.477990
 21
754.529621
  0
LINE
  8
CSLAYER1
  6
CONTINUOUS
 62
     7
 10
522.477990
 20
754.529621
 11
523.342915
 21
754.610139
  0
LINE
  8
CSLAYER1
  6
CONTINUOUS
 62
     7
 10
523.342915
 20
754.610139
 11
524.214472
 21
754.637047
  0
LINE
  8
CSLAYER1
  6
CONTINUOUS
 62
     7
 10
509.214472
 20
682.581866
 11
509.214472
 21
602.741694
  0
LINE
  8
CSLAYER1
  6
CONTINUOUS
 62
     7
 10
623.214472
 20
716.195312
 11
623.214472
 21
701.026128
  0
LINE
  8
CSLAYER1
  6
CONTINUOUS
 62
     7
 10
623.214472
 20
716.195312
 11
623.008986
 21
719.523246
  0
LINE
  8
CSLAYER1
  6
CONTINUOUS
 62
     7
 10
623.008986
 20
719.523246
 11
622.394091
 21
722.825853
  0
LINE
  8
CSLAYER1
  6
CONTINUOUS
 62
     7
 10
622.394091
 20
722.825853
 11
621.374467
 21
726.077998
  0
LINE
  8
CSLAYER1
  6
CONTINUOUS
 62
     7
 10
621.374467
 20
726.077998
 11
619.957874
 21
729.254929
  0
LINE
  8
CSLAYER1
  6
CONTINUOUS
 62
     7
 10
619.957874
 20
729.254929
 11
618.155093
 21
732.332469
  0
LINE
  8
CSLAYER1
  6
CONTINUOUS
 62
     7
 10
618.155093
 20
732.332469
 11
615.979844
 21
735.287195
  0
LINE
  8
CSLAYER1
  6
CONTINUOUS
 62
     7
 10
615.979844
 20
735.287195
 11
614.512834
 21
736.915481
  0
LINE
  8
CSLAYER1
  6
CONTINUOUS
 62
     7
 10
606.714472
 20
743.638354
 11
603.925003
 21
745.445774
  0
LINE
  8
CSLAYER1
  6
CONTINUOUS
 62
     7
 10
603.925003
 20
745.445774
 11
600.187600
 21
747.473622
  0
LINE
  8
CSLAYER1
  6
CONTINUOUS
 62
     7
 10
600.187600
 20
747.473622
 11
596.214472
 21
749.263423
  0
LINE
  8
CSLAYER1
  6
CONTINUOUS
 62
     7
 10
596.214472
 20
749.263423
 11
592.035858
 21
750.801556
  0
LINE
  8
CSLAYER1
  6
CONTINUOUS
 62
     7
 10
592.035858
 20
750.801556
 11
587.683560
 21
752.076315
  0
LINE
  8
CSLAYER1
  6
CONTINUOUS
 62
     7
 10
587.683560
 20
752.076315
 11
583.190701
 21
753.077998
  0
LINE
  8
CSLAYER1
  6
CONTINUOUS
 62
     7
 10
583.190701
 20
753.077998
 11
578.591474
 21
753.798981
  0
LINE
  8
CSLAYER1
  6
CONTINUOUS
 62
     7
 10
578.591474
 20
753.798981
 11
573.920882
 21
754.233777
  0
LINE
  8
CSLAYER1
  6
CONTINUOUS
 62
     7
 10
573.920882
 20
754.233777
 11
569.214472
 21
754.379078
  0
LINE
  8
CSLAYER1
  6
CONTINUOUS
 62
     7
 10
569.214472
 20
754.379078
 11
564.508062
 21
754.233777
  0
LINE
  8
CSLAYER1
  6
CONTINUOUS
 62
     7
 10
564.508062
 20
754.233777
 11
559.837471
 21
753.798981
  0
LINE
  8
CSLAYER1
  6
CONTINUOUS
 62
     7
 10
559.837471
 20
753.798981
 11
555.238244
 21
753.077998
  0
LINE
  8
CSLAYER1
  6
CONTINUOUS
 62
     7
 10
555.238244
 20
753.077998
 11
550.745384
 21
752.076315
  0
LINE
  8
CSLAYER1
  6
CONTINUOUS
 62
     7
 10
550.745384
 20
752.076315
 11
546.393086
 21
750.801556
  0
LINE
  8
CSLAYER1
  6
CONTINUOUS
 62
     7
 10
546.393086
 20
750.801556
 11
542.214472
 21
749.263423
  0
LINE
  8
CSLAYER1
  6
CONTINUOUS
 62
     7
 10
542.214472
 20
749.263423
 11
538.241345
 21
747.473622
  0
LINE
  8
CSLAYER1
  6
CONTINUOUS
 62
     7
 10
538.241345
 20
747.473622
 11
534.503941
 21
745.445774
  0
LINE
  8
CSLAYER1
  6
CONTINUOUS
 62
     7
 10
534.503941
 20
745.445774
 11
531.714472
 21
743.638354
  0
LINE
  8
CSLAYER1
  6
CONTINUOUS
 62
     7
 10
523.901935
 20
736.899748
 11
522.449100
 21
735.287195
  0
LINE
  8
CSLAYER1
  6
CONTINUOUS
 62
     7
 10
522.449100
 20
735.287195
 11
520.273852
 21
732.332469
  0
LINE
  8
CSLAYER1
  6
CONTINUOUS
 62
     7
 10
520.273852
 20
732.332469
 11
518.471071
 21
729.254929
  0
LINE
  8
CSLAYER1
  6
CONTINUOUS
 62
     7
 10
518.471071
 20
729.254929
 11
517.054477
 21
726.077998
  0
LINE
  8
CSLAYER1
  6
CONTINUOUS
 62
     7
 10
517.054477
 20
726.077998
 11
516.034853
 21
722.825853
  0
LINE
  8
CSLAYER1
  6
CONTINUOUS
 62
     7
 10
516.034853
 20
722.825853
 11
515.419958
 21
719.523246
  0
LINE
  8
CSLAYER1
  6
CONTINUOUS
 62
     7
 10
515.419958
 20
719.523246
 11
515.214472
 21
716.195312
  0
LINE
  8
CSLAYER1
  6
CONTINUOUS
 62
     7
 10
515.214472
 20
716.195312
 11
515.214472
 21
701.026128
  0
LINE
  8
CSLAYER1
  6
CONTINUOUS
 62
     7
 10
622.364142
 20
702.181164
 11
621.374467
 21
705.337787
  0
LINE
  8
CSLAYER1
  6
CONTINUOUS
 62
     7
 10
621.374467
 20
705.337787
 11
619.957874
 21
708.514718
  0
LINE
  8
CSLAYER1
  6
CONTINUOUS
 62
     7
 10
619.957874
 20
708.514718
 11
618.155093
 21
711.592258
  0
LINE
  8
CSLAYER1
  6
CONTINUOUS
 62
     7
 10
618.155093
 20
711.592258
 11
615.979844
 21
714.546984
  0
LINE
  8
CSLAYER1
  6
CONTINUOUS
 62
     7
 10
615.979844
 20
714.546984
 11
613.448683
 21
717.356409
  0
LINE
  8
CSLAYER1
  6
CONTINUOUS
 62
     7
 10
613.448683
 20
717.356409
 11
610.580872
 21
719.999153
  0
LINE
  8
CSLAYER1
  6
CONTINUOUS
 62
     7
 10
610.580872
 20
719.999153
 11
607.398238
 21
722.455101
  0
LINE
  8
CSLAYER1
  6
CONTINUOUS
 62
     7
 10
607.398238
 20
722.455101
 11
603.925003
 21
724.705563
  0
LINE
  8
CSLAYER1
  6
CONTINUOUS
 62
     7
 10
603.925003
 20
724.705563
 11
600.187600
 21
726.733411
  0
LINE
  8
CSLAYER1
  6
CONTINUOUS
 62
     7
 10
600.187600
 20
726.733411
 11
596.214472
 21
728.523212
  0
LINE
  8
CSLAYER1
  6
CONTINUOUS
 62
     7
 10
596.214472
 20
728.523212
 11
592.035858
 21
730.061345
  0
LINE
  8
CSLAYER1
  6
CONTINUOUS
 62
     7
 10
592.035858
 20
730.061345
 11
587.683560
 21
731.336104
  0
LINE
  8
CSLAYER1
  6
CONTINUOUS
 62
     7
 10
587.683560
 20
731.336104
 11
583.190701
 21
732.337787
  0
LINE
  8
CSLAYER1
  6
CONTINUOUS
 62
     7
 10
583.190701
 20
732.337787
 11
578.591474
 21
733.058770
  0
LINE
  8
CSLAYER1
  6
CONTINUOUS
 62
     7
 10
578.591474
 20
733.058770
 11
573.920882
 21
733.493566
  0
LINE
  8
CSLAYER1
  6
CONTINUOUS
 62
     7
 10
573.920882
 20
733.493566
 11
569.214472
 21
733.638867
  0
LINE
  8
CSLAYER1
  6
CONTINUOUS
 62
     7
 10
569.214472
 20
733.638867
 11
564.508062
 21
733.493566
  0
LINE
  8
CSLAYER1
  6
CONTINUOUS
 62
     7
 10
564.508062
 20
733.493566
 11
559.837471
 21
733.058770
  0
LINE
  8
CSLAYER1
  6
CONTINUOUS
 62
     7
 10
559.837471
 20
733.058770
 11
555.238244
 21
732.337787
  0
LINE
  8
CSLAYER1
  6
CONTINUOUS
 62
     7
 10
555.238244
 20
732.337787
 11
550.745384
 21
731.336104
  0
LINE
  8
CSLAYER1
  6
CONTINUOUS
 62
     7
 10
550.745384
 20
731.336104
 11
546.393086
 21
730.061345
  0
LINE
  8
CSLAYER1
  6
CONTINUOUS
 62
     7
 10
546.393086
 20
730.061345
 11
542.214472
 21
728.523212
  0
LINE
  8
CSLAYER1
  6
CONTINUOUS
 62
     7
 10
542.214472
 20
728.523212
 11
538.241345
 21
726.733411
  0
LINE
  8
CSLAYER1
  6
CONTINUOUS
 62
     7
 10
538.241345
 20
726.733411
 11
534.503941
 21
724.705563
  0
LINE
  8
CSLAYER1
  6
CONTINUOUS
 62
     7
 10
534.503941
 20
724.705563
 11
531.030706
 21
722.455101
  0
LINE
  8
CSLAYER1
  6
CONTINUOUS
 62
     7
 10
531.030706
 20
722.455101
 11
527.848072
 21
719.999153
  0
LINE
  8
CSLAYER1
  6
CONTINUOUS
 62
     7
 10
527.848072
 20
719.999153
 11
524.980262
 21
717.356409
  0
LINE
  8
CSLAYER1
  6
CONTINUOUS
 62
     7
 10
524.980262
 20
717.356409
 11
522.449100
 21
714.546984
  0
LINE
  8
CSLAYER1
  6
CONTINUOUS
 62
     7
 10
522.449100
 20
714.546984
 11
520.273852
 21
711.592258
  0
LINE
  8
CSLAYER1
  6
CONTINUOUS
 62
     7
 10
520.273852
 20
711.592258
 11
518.471071
 21
708.514718
  0
LINE
  8
CSLAYER1
  6
CONTINUOUS
 62
     7
 10
518.471071
 20
708.514718
 11
517.054477
 21
705.337787
  0
LINE
  8
CSLAYER1
  6
CONTINUOUS
 62
     7
 10
517.054477
 20
705.337787
 11
516.064802
 21
702.181164
  0
LINE
  8
CSLAYER1
  6
CONTINUOUS
 62
     7
 10
629.214472
 20
682.581866
 11
628.986154
 21
686.279571
  0
LINE
  8
CSLAYER1
  6
CONTINUOUS
 62
     7
 10
628.986154
 20
686.279571
 11
628.302937
 21
689.949135
  0
LINE
  8
CSLAYER1
  6
CONTINUOUS
 62
     7
 10
628.302937
 20
689.949135
 11
627.170022
 21
693.562629
  0
LINE
  8
CSLAYER1
  6
CONTINUOUS
 62
     7
 10
627.170022
 20
693.562629
 11
625.596029
 21
697.092552
  0
LINE
  8
CSLAYER1
  6
CONTINUOUS
 62
     7
 10
625.596029
 20
697.092552
 11
623.592939
 21
700.512041
  0
LINE
  8
CSLAYER1
  6
CONTINUOUS
 62
     7
 10
623.592939
 20
700.512041
 11
621.175996
 21
703.795070
  0
LINE
  8
CSLAYER1
  6
CONTINUOUS
 62
     7
 10
621.175996
 20
703.795070
 11
618.363595
 21
706.916654
  0
LINE
  8
CSLAYER1
  6
CONTINUOUS
 62
     7
 10
618.363595
 20
706.916654
 11
615.177139
 21
709.853035
  0
LINE
  8
CSLAYER1
  6
CONTINUOUS
 62
     7
 10
615.177139
 20
709.853035
 11
611.640879
 21
712.581866
  0
LINE
  8
CSLAYER1
  6
CONTINUOUS
 62
     7
 10
611.640879
 20
712.581866
 11
607.781729
 21
715.082380
  0
LINE
  8
CSLAYER1
  6
CONTINUOUS
 62
     7
 10
607.781729
 20
715.082380
 11
603.629058
 21
717.335544
  0
LINE
  8
CSLAYER1
  6
CONTINUOUS
 62
     7
 10
603.629058
 20
717.335544
 11
599.214472
 21
719.324213
  0
LINE
  8
CSLAYER1
  6
CONTINUOUS
 62
     7
 10
599.214472
 20
719.324213
 11
594.571568
 21
721.033249
  0
LINE
  8
CSLAYER1
  6
CONTINUOUS
 62
     7
 10
594.571568
 20
721.033249
 11
589.735681
 21
722.449648
  0
LINE
  8
CSLAYER1
  6
CONTINUOUS
 62
     7
 10
589.735681
 20
722.449648
 11
584.743615
 21
723.562629
  0
LINE
  8
CSLAYER1
  6
CONTINUOUS
 62
     7
 10
584.743615
 20
723.562629
 11
579.633363
 21
724.363721
  0
LINE
  8
CSLAYER1
  6
CONTINUOUS
 62
     7
 10
579.633363
 20
724.363721
 11
574.443817
 21
724.846828
  0
LINE
  8
CSLAYER1
  6
CONTINUOUS
 62
     7
 10
574.443817
 20
724.846828
 11
569.214472
 21
725.008273
  0
LINE
  8
CSLAYER1
  6
CONTINUOUS
 62
     7
 10
569.214472
 20
725.008273
 11
563.985128
 21
724.846828
  0
LINE
  8
CSLAYER1
  6
CONTINUOUS
 62
     7
 10
563.985128
 20
724.846828
 11
558.795581
 21
724.363721
  0
LINE
  8
CSLAYER1
  6
CONTINUOUS
 62
     7
 10
558.795581
 20
724.363721
 11
553.685329
 21
723.562629
  0
LINE
  8
CSLAYER1
  6
CONTINUOUS
 62
     7
 10
553.685329
 20
723.562629
 11
548.693264
 21
722.449648
  0
LINE
  8
CSLAYER1
  6
CONTINUOUS
 62
     7
 10
548.693264
 20
722.449648
 11
543.857376
 21
721.033249
  0
LINE
  8
CSLAYER1
  6
CONTINUOUS
 62
     7
 10
543.857376
 20
721.033249
 11
539.214472
 21
719.324213
  0
LINE
  8
CSLAYER1
  6
CONTINUOUS
 62
     7
 10
539.214472
 20
719.324213
 11
534.799886
 21
717.335544
  0
LINE
  8
CSLAYER1
  6
CONTINUOUS
 62
     7
 10
534.799886
 20
717.335544
 11
530.647216
 21
715.082380
  0
LINE
  8
CSLAYER1
  6
CONTINUOUS
 62
     7
 10
530.647216
 20
715.082380
 11
526.788065
 21
712.581866
  0
LINE
  8
CSLAYER1
  6
CONTINUOUS
 62
     7
 10
526.788065
 20
712.581866
 11
523.251806
 21
709.853035
  0
LINE
  8
CSLAYER1
  6
CONTINUOUS
 62
     7
 10
523.251806
 20
709.853035
 11
520.065349
 21
706.916654
  0
LINE
  8
CSLAYER1
  6
CONTINUOUS
 62
     7
 10
520.065349
 20
706.916654
 11
517.252948
 21
703.795070
  0
LINE
  8
CSLAYER1
  6
CONTINUOUS
 62
     7
 10
517.252948
 20
703.795070
 11
514.836005
 21
700.512041
  0
LINE
  8
CSLAYER1
  6
CONTINUOUS
 62
     7
 10
514.836005
 20
700.512041
 11
512.832915
 21
697.092552
  0
LINE
  8
CSLAYER1
  6
CONTINUOUS
 62
     7
 10
512.832915
 20
697.092552
 11
511.258923
 21
693.562629
  0
LINE
  8
CSLAYER1
  6
CONTINUOUS
 62
     7
 10
511.258923
 20
693.562629
 11
510.126007
 21
689.949135
  0
LINE
  8
CSLAYER1
  6
CONTINUOUS
 62
     7
 10
510.126007
 20
689.949135
 11
509.442790
 21
686.279571
  0
LINE
  8
CSLAYER1
  6
CONTINUOUS
 62
     7
 10
509.442790
 20
686.279571
 11
509.214472
 21
682.581866
  0
LINE
  8
CSLAYER1
  6
CONTINUOUS
 62
     7
 10
629.214472
 20
675.430070
 11
628.986154
 21
679.127775
  0
LINE
  8
CSLAYER1
  6
CONTINUOUS
 62
     7
 10
628.986154
 20
679.127775
 11
628.302937
 21
682.797338
  0
LINE
  8
CSLAYER1
  6
CONTINUOUS
 62
     7
 10
628.302937
 20
682.797338
 11
627.170022
 21
686.410832
  0
LINE
  8
CSLAYER1
  6
CONTINUOUS
 62
     7
 10
627.170022
 20
686.410832
 11
625.596029
 21
689.940755
  0
LINE
  8
CSLAYER1
  6
CONTINUOUS
 62
     7
 10
625.596029
 20
689.940755
 11
623.592939
 21
693.360244
  0
LINE
  8
CSLAYER1
  6
CONTINUOUS
 62
     7
 10
623.592939
 20
693.360244
 11
621.175996
 21
696.643273
  0
LINE
  8
CSLAYER1
  6
CONTINUOUS
 62
     7
 10
621.175996
 20
696.643273
 11
618.363595
 21
699.764857
  0
LINE
  8
CSLAYER1
  6
CONTINUOUS
 62
     7
 10
618.363595
 20
699.764857
 11
615.177139
 21
702.701238
  0
LINE
  8
CSLAYER1
  6
CONTINUOUS
 62
     7
 10
615.177139
 20
702.701238
 11
611.640879
 21
705.430070
  0
LINE
  8
CSLAYER1
  6
CONTINUOUS
 62
     7
 10
611.640879
 20
705.430070
 11
607.781729
 21
707.930583
  0
LINE
  8
CSLAYER1
  6
CONTINUOUS
 62
     7
 10
607.781729
 20
707.930583
 11
603.629058
 21
710.183748
  0
LINE
  8
CSLAYER1
  6
CONTINUOUS
 62
     7
 10
603.629058
 20
710.183748
 11
599.214472
 21
712.172416
  0
LINE
  8
CSLAYER1
  6
CONTINUOUS
 62
     7
 10
599.214472
 20
712.172416
 11
594.571568
 21
713.881453
  0
LINE
  8
CSLAYER1
  6
CONTINUOUS
 62
     7
 10
594.571568
 20
713.881453
 11
589.735681
 21
715.297851
  0
LINE
  8
CSLAYER1
  6
CONTINUOUS
 62
     7
 10
589.735681
 20
715.297851
 11
584.743615
 21
716.410832
  0
LINE
  8
CSLAYER1
  6
CONTINUOUS
 62
     7
 10
584.743615
 20
716.410832
 11
579.633363
 21
717.211924
  0
LINE
  8
CSLAYER1
  6
CONTINUOUS
 62
     7
 10
579.633363
 20
717.211924
 11
574.443817
 21
717.695031
  0
LINE
  8
CSLAYER1
  6
CONTINUOUS
 62
     7
 10
574.443817
 20
717.695031
 11
569.214472
 21
717.856476
  0
LINE
  8
CSLAYER1
  6
CONTINUOUS
 62
     7
 10
569.214472
 20
717.856476
 11
563.985128
 21
717.695031
  0
LINE
  8
CSLAYER1
  6
CONTINUOUS
 62
     7
 10
563.985128
 20
717.695031
 11
558.795581
 21
717.211924
  0
LINE
  8
CSLAYER1
  6
CONTINUOUS
 62
     7
 10
558.795581
 20
717.211924
 11
553.685329
 21
716.410832
  0
LINE
  8
CSLAYER1
  6
CONTINUOUS
 62
     7
 10
553.685329
 20
716.410832
 11
548.693264
 21
715.297851
  0
LINE
  8
CSLAYER1
  6
CONTINUOUS
 62
     7
 10
548.693264
 20
715.297851
 11
543.857376
 21
713.881453
  0
LINE
  8
CSLAYER1
  6
CONTINUOUS
 62
     7
 10
543.857376
 20
713.881453
 11
539.214472
 21
712.172416
  0
LINE
  8
CSLAYER1
  6
CONTINUOUS
 62
     7
 10
539.214472
 20
712.172416
 11
534.799886
 21
710.183748
  0
LINE
  8
CSLAYER1
  6
CONTINUOUS
 62
     7
 10
534.799886
 20
710.183748
 11
530.647216
 21
707.930583
  0
LINE
  8
CSLAYER1
  6
CONTINUOUS
 62
     7
 10
530.647216
 20
707.930583
 11
526.788065
 21
705.430070
  0
LINE
  8
CSLAYER1
  6
CONTINUOUS
 62
     7
 10
526.788065
 20
705.430070
 11
523.251806
 21
702.701238
  0
LINE
  8
CSLAYER1
  6
CONTINUOUS
 62
     7
 10
523.251806
 20
702.701238
 11
520.065349
 21
699.764857
  0
LINE
  8
CSLAYER1
  6
CONTINUOUS
 62
     7
 10
520.065349
 20
699.764857
 11
517.252948
 21
696.643273
  0
LINE
  8
CSLAYER1
  6
CONTINUOUS
 62
     7
 10
517.252948
 20
696.643273
 11
514.836005
 21
693.360244
  0
LINE
  8
CSLAYER1
  6
CONTINUOUS
 62
     7
 10
514.836005
 20
693.360244
 11
512.832915
 21
689.940755
  0
LINE
  8
CSLAYER1
  6
CONTINUOUS
 62
     7
 10
512.832915
 20
689.940755
 11
511.258923
 21
686.410832
  0
LINE
  8
CSLAYER1
  6
CONTINUOUS
 62
     7
 10
511.258923
 20
686.410832
 11
510.126007
 21
682.797338
  0
LINE
  8
CSLAYER1
  6
CONTINUOUS
 62
     7
 10
510.126007
 20
682.797338
 11
509.442790
 21
679.127775
  0
LINE
  8
CSLAYER1
  6
CONTINUOUS
 62
     7
 10
509.442790
 20
679.127775
 11
509.214472
 21
675.430070
  0
LINE
  8
CSLAYER1
  6
CONTINUOUS
 62
     7
 10
631.214472
 20
591.754046
 11
630.978543
 21
595.575008
  0
LINE
  8
CSLAYER1
  6
CONTINUOUS
 62
     7
 10
630.978543
 20
595.575008
 11
630.272553
 21
599.366890
  0
LINE
  8
CSLAYER1
  6
CONTINUOUS
 62
     7
 10
630.272553
 20
599.366890
 11
629.101873
 21
603.100834
  0
LINE
  8
CSLAYER1
  6
CONTINUOUS
 62
     7
 10
629.101873
 20
603.100834
 11
627.475415
 21
606.748421
  0
LINE
  8
CSLAYER1
  6
CONTINUOUS
 62
     7
 10
627.475415
 20
606.748421
 11
625.405555
 21
610.281893
  0
LINE
  8
CSLAYER1
  6
CONTINUOUS
 62
     7
 10
625.405555
 20
610.281893
 11
622.908047
 21
613.674356
  0
LINE
  8
CSLAYER1
  6
CONTINUOUS
 62
     7
 10
622.908047
 20
613.674356
 11
620.001899
 21
616.899993
  0
LINE
  8
CSLAYER1
  6
CONTINUOUS
 62
     7
 10
620.001899
 20
616.899993
 11
616.709228
 21
619.934254
  0
LINE
  8
CSLAYER1
  6
CONTINUOUS
 62
     7
 10
616.709228
 20
619.934254
 11
613.055093
 21
622.754046
  0
LINE
  8
CSLAYER1
  6
CONTINUOUS
 62
     7
 10
613.055093
 20
622.754046
 11
609.067304
 21
625.337910
  0
LINE
  8
CSLAYER1
  6
CONTINUOUS
 62
     7
 10
609.067304
 20
625.337910
 11
604.776211
 21
627.666180
  0
LINE
  8
CSLAYER1
  6
CONTINUOUS
 62
     7
 10
604.776211
 20
627.666180
 11
600.214472
 21
629.721137
  0
LINE
  8
CSLAYER1
  6
CONTINUOUS
 62
     7
 10
600.214472
 20
629.721137
 11
595.416804
 21
631.487142
  0
LINE
  8
CSLAYER1
  6
CONTINUOUS
 62
     7
 10
595.416804
 20
631.487142
 11
590.419721
 21
632.950754
  0
LINE
  8
CSLAYER1
  6
CONTINUOUS
 62
     7
 10
590.419721
 20
632.950754
 11
585.261253
 21
634.100834
  0
LINE
  8
CSLAYER1
  6
CONTINUOUS
 62
     7
 10
585.261253
 20
634.100834
 11
579.980659
 21
634.928629
  0
LINE
  8
CSLAYER1
  6
CONTINUOUS
 62
     7
 10
579.980659
 20
634.928629
 11
574.618128
 21
635.427840
  0
LINE
  8
CSLAYER1
  6
CONTINUOUS
 62
     7
 10
574.618128
 20
635.427840
 11
569.214472
 21
635.594667
  0
LINE
  8
CSLAYER1
  6
CONTINUOUS
 62
     7
 10
569.214472
 20
635.594667
 11
563.810816
 21
635.427840
  0
LINE
  8
CSLAYER1
  6
CONTINUOUS
 62
     7
 10
563.810816
 20
635.427840
 11
558.448285
 21
634.928629
  0
LINE
  8
CSLAYER1
  6
CONTINUOUS
 62
     7
 10
558.448285
 20
634.928629
 11
553.167691
 21
634.100834
  0
LINE
  8
CSLAYER1
  6
CONTINUOUS
 62
     7
 10
553.167691
 20
634.100834
 11
548.009223
 21
632.950754
  0
LINE
  8
CSLAYER1
  6
CONTINUOUS
 62
     7
 10
548.009223
 20
632.950754
 11
543.012140
 21
631.487142
  0
LINE
  8
CSLAYER1
  6
CONTINUOUS
 62
     7
 10
543.012140
 20
631.487142
 11
538.214472
 21
629.721137
  0
LINE
  8
CSLAYER1
  6
CONTINUOUS
 62
     7
 10
538.214472
 20
629.721137
 11
533.652733
 21
627.666180
  0
LINE
  8
CSLAYER1
  6
CONTINUOUS
 62
     7
 10
533.652733
 20
627.666180
 11
529.361640
 21
625.337910
  0
LINE
  8
CSLAYER1
  6
CONTINUOUS
 62
     7
 10
529.361640
 20
625.337910
 11
525.373852
 21
622.754046
  0
LINE
  8
CSLAYER1
  6
CONTINUOUS
 62
     7
 10
525.373852
 20
622.754046
 11
521.719717
 21
619.934254
  0
LINE
  8
CSLAYER1
  6
CONTINUOUS
 62
     7
 10
521.719717
 20
619.934254
 11
518.427045
 21
616.899993
  0
LINE
  8
CSLAYER1
  6
CONTINUOUS
 62
     7
 10
518.427045
 20
616.899993
 11
515.520897
 21
613.674356
  0
LINE
  8
CSLAYER1
  6
CONTINUOUS
 62
     7
 10
515.520897
 20
613.674356
 11
513.023389
 21
610.281893
  0
LINE
  8
CSLAYER1
  6
CONTINUOUS
 62
     7
 10
513.023389
 20
610.281893
 11
510.953530
 21
606.748421
  0
LINE
  8
CSLAYER1
  6
CONTINUOUS
 62
     7
 10
510.953530
 20
606.748421
 11
509.327071
 21
603.100834
  0
LINE
  8
CSLAYER1
  6
CONTINUOUS
 62
     7
 10
509.327071
 20
603.100834
 11
508.156391
 21
599.366890
  0
LINE
  8
CSLAYER1
  6
CONTINUOUS
 62
     7
 10
508.156391
 20
599.366890
 11
507.450401
 21
595.575008
  0
LINE
  8
CSLAYER1
  6
CONTINUOUS
 62
     7
 10
507.450401
 20
595.575008
 11
507.214472
 21
591.754046
  0
LINE
  8
CSLAYER1
  6
CONTINUOUS
 62
     7
 10
618.214472
 20
739.737824
 11
618.078175
 21
740.469875
  0
LINE
  8
CSLAYER1
  6
CONTINUOUS
 62
     7
 10
618.078175
 20
740.469875
 11
617.678574
 21
741.152037
  0
LINE
  8
CSLAYER1
  6
CONTINUOUS
 62
     7
 10
617.678574
 20
741.152037
 11
617.042899
 21
741.737824
  0
LINE
  8
CSLAYER1
  6
CONTINUOUS
 62
     7
 10
617.042899
 20
741.737824
 11
616.214472
 21
742.187313
  0
LINE
  8
CSLAYER1
  6
CONTINUOUS
 62
     7
 10
616.214472
 20
742.187313
 11
615.249748
 21
742.469875
  0
LINE
  8
CSLAYER1
  6
CONTINUOUS
 62
     7
 10
615.249748
 20
742.469875
 11
614.214472
 21
742.566251
  0
LINE
  8
CSLAYER1
  6
CONTINUOUS
 62
     7
 10
614.214472
 20
742.566251
 11
613.179196
 21
742.469875
  0
LINE
  8
CSLAYER1
  6
CONTINUOUS
 62
     7
 10
613.179196
 20
742.469875
 11
612.214472
 21
742.187313
  0
LINE
  8
CSLAYER1
  6
CONTINUOUS
 62
     7
 10
612.214472
 20
742.187313
 11
611.386045
 21
741.737824
  0
LINE
  8
CSLAYER1
  6
CONTINUOUS
 62
     7
 10
611.386045
 20
741.737824
 11
610.750370
 21
741.152037
  0
LINE
  8
CSLAYER1
  6
CONTINUOUS
 62
     7
 10
610.750370
 20
741.152037
 11
610.350769
 21
740.469875
  0
LINE
  8
CSLAYER1
  6
CONTINUOUS
 62
     7
 10
610.350769
 20
740.469875
 11
610.214472
 21
739.737824
  0
LINE
  8
CSLAYER1
  6
CONTINUOUS
 62
     7
 10
610.214472
 20
739.737824
 11
610.350769
 21
739.005773
  0
LINE
  8
CSLAYER1
  6
CONTINUOUS
 62
     7
 10
610.350769
 20
739.005773
 11
610.750370
 21
738.323610
  0
LINE
  8
CSLAYER1
  6
CONTINUOUS
 62
     7
 10
610.750370
 20
738.323610
 11
611.386045
 21
737.737824
  0
LINE
  8
CSLAYER1
  6
CONTINUOUS
 62
     7
 10
611.386045
 20
737.737824
 11
612.214472
 21
737.288334
  0
LINE
  8
CSLAYER1
  6
CONTINUOUS
 62
     7
 10
612.214472
 20
737.288334
 11
613.179196
 21
737.005773
  0
LINE
  8
CSLAYER1
  6
CONTINUOUS
 62
     7
 10
614.214472
 20
736.909397
 11
615.516833
 21
737.018221
  0
LINE
  8
CSLAYER1
  6
CONTINUOUS
 62
     7
 10
615.249748
 20
737.005773
 11
616.214472
 21
737.288334
  0
LINE
  8
CSLAYER1
  6
CONTINUOUS
 62
     7
 10
616.214472
 20
737.288334
 11
617.042899
 21
737.737824
  0
LINE
  8
CSLAYER1
  6
CONTINUOUS
 62
     7
 10
617.042899
 20
737.737824
 11
617.678574
 21
738.323610
  0
LINE
  8
CSLAYER1
  6
CONTINUOUS
 62
     7
 10
617.678574
 20
738.323610
 11
618.078175
 21
739.005773
  0
LINE
  8
CSLAYER1
  6
CONTINUOUS
 62
     7
 10
618.078175
 20
739.005773
 11
618.214472
 21
739.737824
  0
LINE
  8
CSLAYER1
  6
CONTINUOUS
 62
     7
 10
621.714472
 20
742.240953
 11
621.600530
 21
743.161861
  0
LINE
  8
CSLAYER1
  6
CONTINUOUS
 62
     7
 10
621.600530
 20
743.161861
 11
621.262167
 21
744.054788
  0
LINE
  8
CSLAYER1
  6
CONTINUOUS
 62
     7
 10
621.262167
 20
744.054788
 11
620.709663
 21
744.892603
  0
LINE
  8
CSLAYER1
  6
CONTINUOUS
 62
     7
 10
620.709663
 20
744.892603
 11
619.959805
 21
745.649849
  0
LINE
  8
CSLAYER1
  6
CONTINUOUS
 62
     7
 10
619.959805
 20
745.649849
 11
619.035379
 21
746.303517
  0
LINE
  8
CSLAYER1
  6
CONTINUOUS
 62
     7
 10
619.035379
 20
746.303517
 11
617.964472
 21
746.833746
  0
LINE
  8
CSLAYER1
  6
CONTINUOUS
 62
     7
 10
617.964472
 20
746.833746
 11
616.779623
 21
747.224425
  0
LINE
  8
CSLAYER1
  6
CONTINUOUS
 62
     7
 10
616.779623
 20
747.224425
 11
615.516833
 21
747.463684
  0
LINE
  8
CSLAYER1
  6
CONTINUOUS
 62
     7
 10
615.516833
 20
747.463684
 11
614.214472
 21
747.544253
  0
LINE
  8
CSLAYER1
  6
CONTINUOUS
 62
     7
 10
614.214472
 20
747.544253
 11
612.912111
 21
747.463684
  0
LINE
  8
CSLAYER1
  6
CONTINUOUS
 62
     7
 10
612.912111
 20
747.463684
 11
611.649321
 21
747.224425
  0
LINE
  8
CSLAYER1
  6
CONTINUOUS
 62
     7
 10
611.649321
 20
747.224425
 11
610.464472
 21
746.833746
  0
LINE
  8
CSLAYER1
  6
CONTINUOUS
 62
     7
 10
610.464472
 20
746.833746
 11
609.393565
 21
746.303517
  0
LINE
  8
CSLAYER1
  6
CONTINUOUS
 62
     7
 10
609.393565
 20
746.303517
 11
608.469139
 21
745.649849
  0
LINE
  8
CSLAYER1
  6
CONTINUOUS
 62
     7
 10
608.469139
 20
745.649849
 11
607.719282
 21
744.892603
  0
LINE
  8
CSLAYER1
  6
CONTINUOUS
 62
     7
 10
607.719282
 20
744.892603
 11
607.166777
 21
744.054788
  0
LINE
  8
CSLAYER1
  6
CONTINUOUS
 62
     7
 10
607.166777
 20
744.054788
 11
606.828414
 21
743.161861
  0
LINE
  8
CSLAYER1
  6
CONTINUOUS
 62
     7
 10
606.828414
 20
743.161861
 11
606.714472
 21
742.240953
  0
LINE
  8
CSLAYER1
  6
CONTINUOUS
 62
     7
 10
606.714472
 20
742.240953
 11
606.828414
 21
741.320044
  0
LINE
  8
CSLAYER1
  6
CONTINUOUS
 62
     7
 10
606.828414
 20
741.320044
 11
607.166777
 21
740.427117
  0
LINE
  8
CSLAYER1
  6
CONTINUOUS
 62
     7
 10
607.166777
 20
740.427117
 11
607.719282
 21
739.589302
  0
LINE
  8
CSLAYER1
  6
CONTINUOUS
 62
     7
 10
607.719282
 20
739.589302
 11
608.469139
 21
738.832057
  0
LINE
  8
CSLAYER1
  6
CONTINUOUS
 62
     7
 10
608.469139
 20
738.832057
 11
609.393565
 21
738.178388
  0
LINE
  8
CSLAYER1
  6
CONTINUOUS
 62
     7
 10
609.393565
 20
738.178388
 11
610.464472
 21
737.648159
  0
LINE
  8
CSLAYER1
  6
CONTINUOUS
 62
     7
 10
610.464472
 20
737.648159
 11
611.649321
 21
737.257480
  0
LINE
  8
CSLAYER1
  6
CONTINUOUS
 62
     7
 10
611.649321
 20
737.257480
 11
612.912111
 21
737.018221
  0
LINE
  8
CSLAYER1
  6
CONTINUOUS
 62
     7
 10
614.214472
 20
736.909397
 11
612.912111
 21
737.018221
  0
LINE
  8
CSLAYER1
  6
CONTINUOUS
 62
     7
 10
615.516833
 20
737.018221
 11
616.779623
 21
737.257480
  0
LINE
  8
CSLAYER1
  6
CONTINUOUS
 62
     7
 10
616.779623
 20
737.257480
 11
617.964472
 21
737.648159
  0
LINE
  8
CSLAYER1
  6
CONTINUOUS
 62
     7
 10
617.964472
 20
737.648159
 11
619.035379
 21
738.178388
  0
LINE
  8
CSLAYER1
  6
CONTINUOUS
 62
     7
 10
619.035379
 20
738.178388
 11
619.959805
 21
738.832057
  0
LINE
  8
CSLAYER1
  6
CONTINUOUS
 62
     7
 10
619.959805
 20
738.832057
 11
620.709663
 21
739.589302
  0
LINE
  8
CSLAYER1
  6
CONTINUOUS
 62
     7
 10
620.709663
 20
739.589302
 11
621.262167
 21
740.427117
  0
LINE
  8
CSLAYER1
  6
CONTINUOUS
 62
     7
 10
621.262167
 20
740.427117
 11
621.600530
 21
741.320044
  0
LINE
  8
CSLAYER1
  6
CONTINUOUS
 62
     7
 10
621.600530
 20
741.320044
 11
621.714472
 21
742.240953
  0
LINE
  8
CSLAYER1
  6
CONTINUOUS
 62
     7
 10
621.714472
 20
748.319980
 11
621.714472
 21
742.240953
  0
LINE
  8
CSLAYER1
  6
CONTINUOUS
 62
     7
 10
618.214472
 20
742.240953
 11
618.214472
 21
739.737824
  0
LINE
  8
CSLAYER1
  6
CONTINUOUS
 62
     7
 10
621.714472
 20
748.319980
 11
621.600530
 21
749.240888
  0
LINE
  8
CSLAYER1
  6
CONTINUOUS
 62
     7
 10
621.600530
 20
749.240888
 11
621.262167
 21
750.133816
  0
LINE
  8
CSLAYER1
  6
CONTINUOUS
 62
     7
 10
621.262167
 20
750.133816
 11
620.709663
 21
750.971630
  0
LINE
  8
CSLAYER1
  6
CONTINUOUS
 62
     7
 10
620.709663
 20
750.971630
 11
619.959805
 21
751.728876
  0
LINE
  8
CSLAYER1
  6
CONTINUOUS
 62
     7
 10
619.959805
 20
751.728876
 11
619.035379
 21
752.382544
  0
LINE
  8
CSLAYER1
  6
CONTINUOUS
 62
     7
 10
619.035379
 20
752.382544
 11
617.964472
 21
752.912773
  0
LINE
  8
CSLAYER1
  6
CONTINUOUS
 62
     7
 10
617.964472
 20
752.912773
 11
616.779623
 21
753.303453
  0
LINE
  8
CSLAYER1
  6
CONTINUOUS
 62
     7
 10
616.779623
 20
753.303453
 11
615.516833
 21
753.542712
  0
LINE
  8
CSLAYER1
  6
CONTINUOUS
 62
     7
 10
615.516833
 20
753.542712
 11
614.214472
 21
753.623281
  0
LINE
  8
CSLAYER1
  6
CONTINUOUS
 62
     7
 10
614.214472
 20
753.623281
 11
612.912111
 21
753.542712
  0
LINE
  8
CSLAYER1
  6
CONTINUOUS
 62
     7
 10
612.912111
 20
753.542712
 11
611.649321
 21
753.303453
  0
LINE
  8
CSLAYER1
  6
CONTINUOUS
 62
     7
 10
611.649321
 20
753.303453
 11
610.464472
 21
752.912773
  0
LINE
  8
CSLAYER1
  6
CONTINUOUS
 62
     7
 10
610.464472
 20
752.912773
 11
609.393565
 21
752.382544
  0
LINE
  8
CSLAYER1
  6
CONTINUOUS
 62
     7
 10
609.393565
 20
752.382544
 11
608.469139
 21
751.728876
  0
LINE
  8
CSLAYER1
  6
CONTINUOUS
 62
     7
 10
608.469139
 20
751.728876
 11
607.719282
 21
750.971630
  0
LINE
  8
CSLAYER1
  6
CONTINUOUS
 62
     7
 10
607.719282
 20
750.971630
 11
607.166777
 21
750.133816
  0
LINE
  8
CSLAYER1
  6
CONTINUOUS
 62
     7
 10
607.166777
 20
750.133816
 11
606.828414
 21
749.240888
  0
LINE
  8
CSLAYER1
  6
CONTINUOUS
 62
     7
 10
606.828414
 20
749.240888
 11
606.714472
 21
748.319980
  0
LINE
  8
CSLAYER1
  6
CONTINUOUS
 62
     7
 10
618.214472
 20
742.240953
 11
618.078175
 21
742.973003
  0
LINE
  8
CSLAYER1
  6
CONTINUOUS
 62
     7
 10
618.078175
 20
742.973003
 11
617.678574
 21
743.655166
  0
LINE
  8
CSLAYER1
  6
CONTINUOUS
 62
     7
 10
617.678574
 20
743.655166
 11
617.042899
 21
744.240953
  0
LINE
  8
CSLAYER1
  6
CONTINUOUS
 62
     7
 10
617.042899
 20
744.240953
 11
616.214472
 21
744.690442
  0
LINE
  8
CSLAYER1
  6
CONTINUOUS
 62
     7
 10
616.214472
 20
744.690442
 11
615.249748
 21
744.973003
  0
LINE
  8
CSLAYER1
  6
CONTINUOUS
 62
     7
 10
615.249748
 20
744.973003
 11
614.214472
 21
745.069380
  0
LINE
  8
CSLAYER1
  6
CONTINUOUS
 62
     7
 10
614.214472
 20
745.069380
 11
613.179196
 21
744.973003
  0
LINE
  8
CSLAYER1
  6
CONTINUOUS
 62
     7
 10
613.179196
 20
744.973003
 11
612.214472
 21
744.690442
  0
LINE
  8
CSLAYER1
  6
CONTINUOUS
 62
     7
 10
612.214472
 20
744.690442
 11
611.386045
 21
744.240953
  0
LINE
  8
CSLAYER1
  6
CONTINUOUS
 62
     7
 10
611.386045
 20
744.240953
 11
610.750370
 21
743.655166
  0
LINE
  8
CSLAYER1
  6
CONTINUOUS
 62
     7
 10
610.750370
 20
743.655166
 11
610.350769
 21
742.973003
  0
LINE
  8
CSLAYER1
  6
CONTINUOUS
 62
     7
 10
610.350769
 20
742.973003
 11
610.214472
 21
742.240953
  0
LINE
  8
CSLAYER1
  6
CONTINUOUS
 62
     7
 10
617.987710
 20
752.902305
 11
617.987710
 21
746.825192
  0
LINE
  8
CSLAYER1
  6
CONTINUOUS
 62
     7
 10
610.441234
 20
752.902305
 11
610.441234
 21
746.825192
  0
LINE
  8
CSLAYER1
  6
CONTINUOUS
 62
     7
 10
606.714472
 20
748.319980
 11
606.714472
 21
742.240953
  0
LINE
  8
CSLAYER1
  6
CONTINUOUS
 62
     7
 10
610.214472
 20
742.240953
 11
610.214472
 21
739.737824
  0
LINE
  8
CSLAYER1
  6
CONTINUOUS
 62
     7
 10
520.214472
 20
739.737824
 11
520.350769
 21
740.469875
  0
LINE
  8
CSLAYER1
  6
CONTINUOUS
 62
     7
 10
520.350769
 20
740.469875
 11
520.750370
 21
741.152037
  0
LINE
  8
CSLAYER1
  6
CONTINUOUS
 62
     7
 10
520.750370
 20
741.152037
 11
521.386045
 21
741.737824
  0
LINE
  8
CSLAYER1
  6
CONTINUOUS
 62
     7
 10
521.386045
 20
741.737824
 11
522.214472
 21
742.187313
  0
LINE
  8
CSLAYER1
  6
CONTINUOUS
 62
     7
 10
522.214472
 20
742.187313
 11
523.179196
 21
742.469875
  0
LINE
  8
CSLAYER1
  6
CONTINUOUS
 62
     7
 10
523.179196
 20
742.469875
 11
524.214472
 21
742.566251
  0
LINE
  8
CSLAYER1
  6
CONTINUOUS
 62
     7
 10
524.214472
 20
742.566251
 11
525.249748
 21
742.469875
  0
LINE
  8
CSLAYER1
  6
CONTINUOUS
 62
     7
 10
525.249748
 20
742.469875
 11
526.214472
 21
742.187313
  0
LINE
  8
CSLAYER1
  6
CONTINUOUS
 62
     7
 10
526.214472
 20
742.187313
 11
527.042899
 21
741.737824
  0
LINE
  8
CSLAYER1
  6
CONTINUOUS
 62
     7
 10
527.042899
 20
741.737824
 11
527.678574
 21
741.152037
  0
LINE
  8
CSLAYER1
  6
CONTINUOUS
 62
     7
 10
527.678574
 20
741.152037
 11
528.078175
 21
740.469875
  0
LINE
  8
CSLAYER1
  6
CONTINUOUS
 62
     7
 10
528.078175
 20
740.469875
 11
528.214472
 21
739.737824
  0
LINE
  8
CSLAYER1
  6
CONTINUOUS
 62
     7
 10
528.214472
 20
739.737824
 11
528.078175
 21
739.005773
  0
LINE
  8
CSLAYER1
  6
CONTINUOUS
 62
     7
 10
528.078175
 20
739.005773
 11
527.678574
 21
738.323610
  0
LINE
  8
CSLAYER1
  6
CONTINUOUS
 62
     7
 10
527.678574
 20
738.323610
 11
527.042899
 21
737.737824
  0
LINE
  8
CSLAYER1
  6
CONTINUOUS
 62
     7
 10
527.042899
 20
737.737824
 11
526.214472
 21
737.288334
  0
LINE
  8
CSLAYER1
  6
CONTINUOUS
 62
     7
 10
526.214472
 20
737.288334
 11
525.249748
 21
737.005773
  0
LINE
  8
CSLAYER1
  6
CONTINUOUS
 62
     7
 10
524.214472
 20
736.909397
 11
522.912111
 21
737.018221
  0
LINE
  8
CSLAYER1
  6
CONTINUOUS
 62
     7
 10
523.179196
 20
737.005773
 11
522.214472
 21
737.288334
  0
LINE
  8
CSLAYER1
  6
CONTINUOUS
 62
     7
 10
522.214472
 20
737.288334
 11
521.386045
 21
737.737824
  0
LINE
  8
CSLAYER1
  6
CONTINUOUS
 62
     7
 10
521.386045
 20
737.737824
 11
520.750370
 21
738.323610
  0
LINE
  8
CSLAYER1
  6
CONTINUOUS
 62
     7
 10
520.750370
 20
738.323610
 11
520.350769
 21
739.005773
  0
LINE
  8
CSLAYER1
  6
CONTINUOUS
 62
     7
 10
520.350769
 20
739.005773
 11
520.214472
 21
739.737824
  0
LINE
  8
CSLAYER1
  6
CONTINUOUS
 62
     7
 10
516.714472
 20
742.240953
 11
516.828414
 21
743.161861
  0
LINE
  8
CSLAYER1
  6
CONTINUOUS
 62
     7
 10
516.828414
 20
743.161861
 11
517.166777
 21
744.054788
  0
LINE
  8
CSLAYER1
  6
CONTINUOUS
 62
     7
 10
517.166777
 20
744.054788
 11
517.719282
 21
744.892603
  0
LINE
  8
CSLAYER1
  6
CONTINUOUS
 62
     7
 10
517.719282
 20
744.892603
 11
518.469139
 21
745.649849
  0
LINE
  8
CSLAYER1
  6
CONTINUOUS
 62
     7
 10
518.469139
 20
745.649849
 11
519.393565
 21
746.303517
  0
LINE
  8
CSLAYER1
  6
CONTINUOUS
 62
     7
 10
519.393565
 20
746.303517
 11
520.464472
 21
746.833746
  0
LINE
  8
CSLAYER1
  6
CONTINUOUS
 62
     7
 10
520.464472
 20
746.833746
 11
521.649321
 21
747.224425
  0
LINE
  8
CSLAYER1
  6
CONTINUOUS
 62
     7
 10
521.649321
 20
747.224425
 11
522.912111
 21
747.463684
  0
LINE
  8
CSLAYER1
  6
CONTINUOUS
 62
     7
 10
522.912111
 20
747.463684
 11
524.214472
 21
747.544253
  0
LINE
  8
CSLAYER1
  6
CONTINUOUS
 62
     7
 10
524.214472
 20
747.544253
 11
525.516833
 21
747.463684
  0
LINE
  8
CSLAYER1
  6
CONTINUOUS
 62
     7
 10
525.516833
 20
747.463684
 11
526.779623
 21
747.224425
  0
LINE
  8
CSLAYER1
  6
CONTINUOUS
 62
     7
 10
526.779623
 20
747.224425
 11
527.964472
 21
746.833746
  0
LINE
  8
CSLAYER1
  6
CONTINUOUS
 62
     7
 10
527.964472
 20
746.833746
 11
529.035379
 21
746.303517
  0
LINE
  8
CSLAYER1
  6
CONTINUOUS
 62
     7
 10
529.035379
 20
746.303517
 11
529.959805
 21
745.649849
  0
LINE
  8
CSLAYER1
  6
CONTINUOUS
 62
     7
 10
529.959805
 20
745.649849
 11
530.709663
 21
744.892603
  0
LINE
  8
CSLAYER1
  6
CONTINUOUS
 62
     7
 10
530.709663
 20
744.892603
 11
531.262167
 21
744.054788
  0
LINE
  8
CSLAYER1
  6
CONTINUOUS
 62
     7
 10
531.262167
 20
744.054788
 11
531.600530
 21
743.161861
  0
LINE
  8
CSLAYER1
  6
CONTINUOUS
 62
     7
 10
531.600530
 20
743.161861
 11
531.714472
 21
742.240953
  0
LINE
  8
CSLAYER1
  6
CONTINUOUS
 62
     7
 10
531.714472
 20
742.240953
 11
531.600530
 21
741.320044
  0
LINE
  8
CSLAYER1
  6
CONTINUOUS
 62
     7
 10
531.600530
 20
741.320044
 11
531.262167
 21
740.427117
  0
LINE
  8
CSLAYER1
  6
CONTINUOUS
 62
     7
 10
531.262167
 20
740.427117
 11
530.709663
 21
739.589302
  0
LINE
  8
CSLAYER1
  6
CONTINUOUS
 62
     7
 10
530.709663
 20
739.589302
 11
529.959805
 21
738.832057
  0
LINE
  8
CSLAYER1
  6
CONTINUOUS
 62
     7
 10
529.959805
 20
738.832057
 11
529.035379
 21
738.178388
  0
LINE
  8
CSLAYER1
  6
CONTINUOUS
 62
     7
 10
529.035379
 20
738.178388
 11
527.964472
 21
737.648159
  0
LINE
  8
CSLAYER1
  6
CONTINUOUS
 62
     7
 10
527.964472
 20
737.648159
 11
526.779623
 21
737.257480
  0
LINE
  8
CSLAYER1
  6
CONTINUOUS
 62
     7
 10
526.779623
 20
737.257480
 11
525.516833
 21
737.018221
  0
LINE
  8
CSLAYER1
  6
CONTINUOUS
 62
     7
 10
524.214472
 20
736.909397
 11
525.516833
 21
737.018221
  0
LINE
  8
CSLAYER1
  6
CONTINUOUS
 62
     7
 10
522.912111
 20
737.018221
 11
521.649321
 21
737.257480
  0
LINE
  8
CSLAYER1
  6
CONTINUOUS
 62
     7
 10
521.649321
 20
737.257480
 11
520.464472
 21
737.648159
  0
LINE
  8
CSLAYER1
  6
CONTINUOUS
 62
     7
 10
520.464472
 20
737.648159
 11
519.393565
 21
738.178388
  0
LINE
  8
CSLAYER1
  6
CONTINUOUS
 62
     7
 10
519.393565
 20
738.178388
 11
518.469139
 21
738.832057
  0
LINE
  8
CSLAYER1
  6
CONTINUOUS
 62
     7
 10
518.469139
 20
738.832057
 11
517.719282
 21
739.589302
  0
LINE
  8
CSLAYER1
  6
CONTINUOUS
 62
     7
 10
517.719282
 20
739.589302
 11
517.166777
 21
740.427117
  0
LINE
  8
CSLAYER1
  6
CONTINUOUS
 62
     7
 10
517.166777
 20
740.427117
 11
516.828414
 21
741.320044
  0
LINE
  8
CSLAYER1
  6
CONTINUOUS
 62
     7
 10
516.828414
 20
741.320044
 11
516.714472
 21
742.240953
  0
LINE
  8
CSLAYER1
  6
CONTINUOUS
 62
     7
 10
516.714472
 20
748.319980
 11
516.714472
 21
742.240953
  0
LINE
  8
CSLAYER1
  6
CONTINUOUS
 62
     7
 10
520.214472
 20
742.240953
 11
520.214472
 21
739.737824
  0
LINE
  8
CSLAYER1
  6
CONTINUOUS
 62
     7
 10
516.714472
 20
748.319980
 11
516.828414
 21
749.240888
  0
LINE
  8
CSLAYER1
  6
CONTINUOUS
 62
     7
 10
516.828414
 20
749.240888
 11
517.166777
 21
750.133816
  0
LINE
  8
CSLAYER1
  6
CONTINUOUS
 62
     7
 10
517.166777
 20
750.133816
 11
517.719282
 21
750.971630
  0
LINE
  8
CSLAYER1
  6
CONTINUOUS
 62
     7
 10
517.719282
 20
750.971630
 11
518.469139
 21
751.728876
  0
LINE
  8
CSLAYER1
  6
CONTINUOUS
 62
     7
 10
518.469139
 20
751.728876
 11
519.393565
 21
752.382544
  0
LINE
  8
CSLAYER1
  6
CONTINUOUS
 62
     7
 10
519.393565
 20
752.382544
 11
520.464472
 21
752.912773
  0
LINE
  8
CSLAYER1
  6
CONTINUOUS
 62
     7
 10
520.464472
 20
752.912773
 11
521.649321
 21
753.303453
  0
LINE
  8
CSLAYER1
  6
CONTINUOUS
 62
     7
 10
521.649321
 20
753.303453
 11
522.912111
 21
753.542712
  0
LINE
  8
CSLAYER1
  6
CONTINUOUS
 62
     7
 10
522.912111
 20
753.542712
 11
524.214472
 21
753.623281
  0
LINE
  8
CSLAYER1
  6
CONTINUOUS
 62
     7
 10
524.214472
 20
753.623281
 11
525.516833
 21
753.542712
  0
LINE
  8
CSLAYER1
  6
CONTINUOUS
 62
     7
 10
525.516833
 20
753.542712
 11
526.779623
 21
753.303453
  0
LINE
  8
CSLAYER1
  6
CONTINUOUS
 62
     7
 10
526.779623
 20
753.303453
 11
527.964472
 21
752.912773
  0
LINE
  8
CSLAYER1
  6
CONTINUOUS
 62
     7
 10
527.964472
 20
752.912773
 11
529.035379
 21
752.382544
  0
LINE
  8
CSLAYER1
  6
CONTINUOUS
 62
     7
 10
529.035379
 20
752.382544
 11
529.959805
 21
751.728876
  0
LINE
  8
CSLAYER1
  6
CONTINUOUS
 62
     7
 10
529.959805
 20
751.728876
 11
530.709663
 21
750.971630
  0
LINE
  8
CSLAYER1
  6
CONTINUOUS
 62
     7
 10
530.709663
 20
750.971630
 11
531.262167
 21
750.133816
  0
LINE
  8
CSLAYER1
  6
CONTINUOUS
 62
     7
 10
531.262167
 20
750.133816
 11
531.600530
 21
749.240888
  0
LINE
  8
CSLAYER1
  6
CONTINUOUS
 62
     7
 10
531.600530
 20
749.240888
 11
531.714472
 21
748.319980
  0
LINE
  8
CSLAYER1
  6
CONTINUOUS
 62
     7
 10
520.214472
 20
742.240953
 11
520.350769
 21
742.973003
  0
LINE
  8
CSLAYER1
  6
CONTINUOUS
 62
     7
 10
520.350769
 20
742.973003
 11
520.750370
 21
743.655166
  0
LINE
  8
CSLAYER1
  6
CONTINUOUS
 62
     7
 10
520.750370
 20
743.655166
 11
521.386045
 21
744.240953
  0
LINE
  8
CSLAYER1
  6
CONTINUOUS
 62
     7
 10
521.386045
 20
744.240953
 11
522.214472
 21
744.690442
  0
LINE
  8
CSLAYER1
  6
CONTINUOUS
 62
     7
 10
522.214472
 20
744.690442
 11
523.179196
 21
744.973003
  0
LINE
  8
CSLAYER1
  6
CONTINUOUS
 62
     7
 10
523.179196
 20
744.973003
 11
524.214472
 21
745.069380
  0
LINE
  8
CSLAYER1
  6
CONTINUOUS
 62
     7
 10
524.214472
 20
745.069380
 11
525.249748
 21
744.973003
  0
LINE
  8
CSLAYER1
  6
CONTINUOUS
 62
     7
 10
525.249748
 20
744.973003
 11
526.214472
 21
744.690442
  0
LINE
  8
CSLAYER1
  6
CONTINUOUS
 62
     7
 10
526.214472
 20
744.690442
 11
527.042899
 21
744.240953
  0
LINE
  8
CSLAYER1
  6
CONTINUOUS
 62
     7
 10
527.042899
 20
744.240953
 11
527.678574
 21
743.655166
  0
LINE
  8
CSLAYER1
  6
CONTINUOUS
 62
     7
 10
527.678574
 20
743.655166
 11
528.078175
 21
742.973003
  0
LINE
  8
CSLAYER1
  6
CONTINUOUS
 62
     7
 10
528.078175
 20
742.973003
 11
528.214472
 21
742.240953
  0
LINE
  8
CSLAYER1
  6
CONTINUOUS
 62
     7
 10
520.441234
 20
752.902305
 11
520.441234
 21
746.825192
  0
LINE
  8
CSLAYER1
  6
CONTINUOUS
 62
     7
 10
527.987710
 20
752.902305
 11
527.987710
 21
746.825192
  0
LINE
  8
CSLAYER1
  6
CONTINUOUS
 62
     7
 10
531.714472
 20
748.319980
 11
531.714472
 21
742.240953
  0
LINE
  8
CSLAYER1
  6
CONTINUOUS
 62
     7
 10
528.214472
 20
742.240953
 11
528.214472
 21
739.737824
  0
LINE
  8
CSLAYER1
  6
CONTINUOUS
 62
     7
 10
590.564472
 20
1033.735093
 11
590.564472
 21
960.287184
  0
LINE
  8
CSLAYER1
  6
CONTINUOUS
 62
     7
 10
607.364472
 20
937.901015
 11
607.364472
 21
792.062188
  0
LINE
  8
CSLAYER1
  6
CONTINUOUS
 62
     7
 10
590.564472
 20
1032.419326
 11
590.483229
 21
1033.735093
  0
LINE
  8
CSLAYER1
  6
CONTINUOUS
 62
     7
 10
590.483229
 20
1033.735093
 11
590.240118
 21
1035.040846
  0
LINE
  8
CSLAYER1
  6
CONTINUOUS
 62
     7
 10
590.240118
 20
1035.040846
 11
589.836989
 21
1036.326648
  0
LINE
  8
CSLAYER1
  6
CONTINUOUS
 62
     7
 10
589.836989
 20
1036.326648
 11
589.276910
 21
1037.582712
  0
LINE
  8
CSLAYER1
  6
CONTINUOUS
 62
     7
 10
589.276910
 20
1037.582712
 11
588.564143
 21
1038.799480
  0
LINE
  8
CSLAYER1
  6
CONTINUOUS
 62
     7
 10
588.564143
 20
1038.799480
 11
587.704114
 21
1039.967691
  0
LINE
  8
CSLAYER1
  6
CONTINUOUS
 62
     7
 10
587.704114
 20
1039.967691
 11
586.703368
 21
1041.078455
  0
LINE
  8
CSLAYER1
  6
CONTINUOUS
 62
     7
 10
586.703368
 20
1041.078455
 11
585.569521
 21
1042.123317
  0
LINE
  8
CSLAYER1
  6
CONTINUOUS
 62
     7
 10
585.569521
 20
1042.123317
 11
584.311202
 21
1043.094326
  0
LINE
  8
CSLAYER1
  6
CONTINUOUS
 62
     7
 10
584.311202
 20
1043.094326
 11
582.937988
 21
1043.984092
  0
LINE
  8
CSLAYER1
  6
CONTINUOUS
 62
     7
 10
582.937988
 20
1043.984092
 11
581.460329
 21
1044.785844
  0
LINE
  8
CSLAYER1
  6
CONTINUOUS
 62
     7
 10
581.460329
 20
1044.785844
 11
579.889472
 21
1045.493478
  0
LINE
  8
CSLAYER1
  6
CONTINUOUS
 62
     7
 10
579.889472
 20
1045.493478
 11
578.237372
 21
1046.101610
  0
LINE
  8
CSLAYER1
  6
CONTINUOUS
 62
     7
 10
578.237372
 20
1046.101610
 11
576.516602
 21
1046.605612
  0
LINE
  8
CSLAYER1
  6
CONTINUOUS
 62
     7
 10
576.516602
 20
1046.605612
 11
574.740259
 21
1047.001648
  0
LINE
  8
CSLAYER1
  6
CONTINUOUS
 62
     7
 10
574.740259
 20
1047.001648
 11
572.921861
 21
1047.286703
  0
LINE
  8
CSLAYER1
  6
CONTINUOUS
 62
     7
 10
572.921861
 20
1047.286703
 11
571.075247
 21
1047.458609
  0
LINE
  8
CSLAYER1
  6
CONTINUOUS
 62
     7
 10
571.075247
 20
1047.458609
 11
569.214472
 21
1047.516056
  0
LINE
  8
CSLAYER1
  6
CONTINUOUS
 62
     7
 10
569.214472
 20
1047.516056
 11
567.353697
 21
1047.458609
  0
LINE
  8
CSLAYER1
  6
CONTINUOUS
 62
     7
 10
567.353697
 20
1047.458609
 11
565.507084
 21
1047.286703
  0
LINE
  8
CSLAYER1
  6
CONTINUOUS
 62
     7
 10
565.507084
 20
1047.286703
 11
563.688685
 21
1047.001648
  0
LINE
  8
CSLAYER1
  6
CONTINUOUS
 62
     7
 10
563.688685
 20
1047.001648
 11
561.912342
 21
1046.605612
  0
LINE
  8
CSLAYER1
  6
CONTINUOUS
 62
     7
 10
561.912342
 20
1046.605612
 11
560.191572
 21
1046.101610
  0
LINE
  8
CSLAYER1
  6
CONTINUOUS
 62
     7
 10
560.191572
 20
1046.101610
 11
558.539472
 21
1045.493478
  0
LINE
  8
CSLAYER1
  6
CONTINUOUS
 62
     7
 10
558.539472
 20
1045.493478
 11
556.968615
 21
1044.785844
  0
LINE
  8
CSLAYER1
  6
CONTINUOUS
 62
     7
 10
556.968615
 20
1044.785844
 11
555.490957
 21
1043.984092
  0
LINE
  8
CSLAYER1
  6
CONTINUOUS
 62
     7
 10
555.490957
 20
1043.984092
 11
554.117742
 21
1043.094326
  0
LINE
  8
CSLAYER1
  6
CONTINUOUS
 62
     7
 10
554.117742
 20
1043.094326
 11
552.859423
 21
1042.123317
  0
LINE
  8
CSLAYER1
  6
CONTINUOUS
 62
     7
 10
552.859423
 20
1042.123317
 11
551.725576
 21
1041.078455
  0
LINE
  8
CSLAYER1
  6
CONTINUOUS
 62
     7
 10
551.725576
 20
1041.078455
 11
550.724830
 21
1039.967691
  0
LINE
  8
CSLAYER1
  6
CONTINUOUS
 62
     7
 10
550.724830
 20
1039.967691
 11
549.864801
 21
1038.799480
  0
LINE
  8
CSLAYER1
  6
CONTINUOUS
 62
     7
 10
549.864801
 20
1038.799480
 11
549.152035
 21
1037.582712
  0
LINE
  8
CSLAYER1
  6
CONTINUOUS
 62
     7
 10
549.152035
 20
1037.582712
 11
548.591956
 21
1036.326648
  0
LINE
  8
CSLAYER1
  6
CONTINUOUS
 62
     7
 10
548.591956
 20
1036.326648
 11
548.188827
 21
1035.040846
  0
LINE
  8
CSLAYER1
  6
CONTINUOUS
 62
     7
 10
548.188827
 20
1035.040846
 11
547.945715
 21
1033.735093
  0
LINE
  8
CSLAYER1
  6
CONTINUOUS
 62
     7
 10
547.945715
 20
1033.735093
 11
547.864472
 21
1032.419326
  0
LINE
  8
CSLAYER1
  6
CONTINUOUS
 62
     7
 10
607.364472
 20
937.901015
 11
607.219300
 21
940.252139
  0
LINE
  8
CSLAYER1
  6
CONTINUOUS
 62
     7
 10
607.219300
 20
940.252139
 11
606.784888
 21
942.585370
  0
LINE
  8
CSLAYER1
  6
CONTINUOUS
 62
     7
 10
606.784888
 20
942.585370
 11
606.064542
 21
944.882950
  0
LINE
  8
CSLAYER1
  6
CONTINUOUS
 62
     7
 10
606.064542
 20
944.882950
 11
605.063746
 21
947.127393
  0
LINE
  8
CSLAYER1
  6
CONTINUOUS
 62
     7
 10
605.063746
 20
947.127393
 11
603.790114
 21
949.301618
  0
LINE
  8
CSLAYER1
  6
CONTINUOUS
 62
     7
 10
603.790114
 20
949.301618
 11
602.253341
 21
951.389077
  0
LINE
  8
CSLAYER1
  6
CONTINUOUS
 62
     7
 10
602.253341
 20
951.389077
 11
600.465123
 21
953.373884
  0
LINE
  8
CSLAYER1
  6
CONTINUOUS
 62
     7
 10
600.465123
 20
953.373884
 11
598.439068
 21
955.240933
  0
LINE
  8
CSLAYER1
  6
CONTINUOUS
 62
     7
 10
598.439068
 20
955.240933
 11
596.190596
 21
956.976015
  0
LINE
  8
CSLAYER1
  6
CONTINUOUS
 62
     7
 10
596.190596
 20
956.976015
 11
593.736819
 21
958.565925
  0
LINE
  8
CSLAYER1
  6
CONTINUOUS
 62
     7
 10
593.736819
 20
958.565925
 11
591.096413
 21
959.998562
  0
LINE
  8
CSLAYER1
  6
CONTINUOUS
 62
     7
 10
591.096413
 20
959.998562
 11
588.289472
 21
961.263023
  0
LINE
  8
CSLAYER1
  6
CONTINUOUS
 62
     7
 10
588.289472
 20
961.263023
 11
585.337359
 21
962.349686
  0
LINE
  8
CSLAYER1
  6
CONTINUOUS
 62
     7
 10
585.337359
 20
962.349686
 11
582.262541
 21
963.250279
  0
LINE
  8
CSLAYER1
  6
CONTINUOUS
 62
     7
 10
582.262541
 20
963.250279
 11
579.088419
 21
963.957950
  0
LINE
  8
CSLAYER1
  6
CONTINUOUS
 62
     7
 10
579.088419
 20
963.957950
 11
575.839150
 21
964.467311
  0
LINE
  8
CSLAYER1
  6
CONTINUOUS
 62
     7
 10
575.839150
 20
964.467311
 11
572.539464
 21
964.774486
  0
LINE
  8
CSLAYER1
  6
CONTINUOUS
 62
     7
 10
572.539464
 20
964.774486
 11
569.214472
 21
964.877139
  0
LINE
  8
CSLAYER1
  6
CONTINUOUS
 62
     7
 10
569.214472
 20
964.877139
 11
565.889481
 21
964.774486
  0
LINE
  8
CSLAYER1
  6
CONTINUOUS
 62
     7
 10
565.889481
 20
964.774486
 11
562.589794
 21
964.467311
  0
LINE
  8
CSLAYER1
  6
CONTINUOUS
 62
     7
 10
562.589794
 20
964.467311
 11
559.340526
 21
963.957950
  0
LINE
  8
CSLAYER1
  6
CONTINUOUS
 62
     7
 10
559.340526
 20
963.957950
 11
556.166404
 21
963.250279
  0
LINE
  8
CSLAYER1
  6
CONTINUOUS
 62
     7
 10
556.166404
 20
963.250279
 11
553.091585
 21
962.349686
  0
LINE
  8
CSLAYER1
  6
CONTINUOUS
 62
     7
 10
553.091585
 20
962.349686
 11
550.139472
 21
961.263023
  0
LINE
  8
CSLAYER1
  6
CONTINUOUS
 62
     7
 10
550.139472
 20
961.263023
 11
547.332531
 21
959.998562
  0
LINE
  8
CSLAYER1
  6
CONTINUOUS
 62
     7
 10
547.332531
 20
959.998562
 11
544.692125
 21
958.565925
  0
LINE
  8
CSLAYER1
  6
CONTINUOUS
 62
     7
 10
544.692125
 20
958.565925
 11
542.238348
 21
956.976015
  0
LINE
  8
CSLAYER1
  6
CONTINUOUS
 62
     7
 10
542.238348
 20
956.976015
 11
539.989877
 21
955.240933
  0
LINE
  8
CSLAYER1
  6
CONTINUOUS
 62
     7
 10
539.989877
 20
955.240933
 11
537.963822
 21
953.373884
  0
LINE
  8
CSLAYER1
  6
CONTINUOUS
 62
     7
 10
537.963822
 20
953.373884
 11
536.175603
 21
951.389077
  0
LINE
  8
CSLAYER1
  6
CONTINUOUS
 62
     7
 10
536.175603
 20
951.389077
 11
534.638830
 21
949.301618
  0
LINE
  8
CSLAYER1
  6
CONTINUOUS
 62
     7
 10
534.638830
 20
949.301618
 11
533.365199
 21
947.127393
  0
LINE
  8
CSLAYER1
  6
CONTINUOUS
 62
     7
 10
533.365199
 20
947.127393
 11
532.364402
 21
944.882950
  0
LINE
  8
CSLAYER1
  6
CONTINUOUS
 62
     7
 10
532.364402
 20
944.882950
 11
531.644056
 21
942.585370
  0
LINE
  8
CSLAYER1
  6
CONTINUOUS
 62
     7
 10
531.644056
 20
942.585370
 11
531.209644
 21
940.252139
  0
LINE
  8
CSLAYER1
  6
CONTINUOUS
 62
     7
 10
531.209644
 20
940.252139
 11
531.064472
 21
937.901015
  0
LINE
  8
CSLAYER1
  6
CONTINUOUS
 62
     7
 10
547.864472
 20
1033.735093
 11
547.864472
 21
960.287184
  0
LINE
  8
CSLAYER1
  6
CONTINUOUS
 62
     7
 10
531.064472
 20
937.901015
 11
531.064472
 21
792.062188
  0
LINE
  8
CSLAYER1
  6
CONTINUOUS
 62
     7
 10
629.214472
 20
681.808858
 11
630.214472
 21
681.808858
  0
LINE
  8
CSLAYER1
  6
CONTINUOUS
 62
     7
 10
795.214472
 20
764.104562
 11
795.214472
 21
709.766483
  0
LINE
  8
CSLAYER1
  6
CONTINUOUS
 62
     7
 10
630.214472
 20
792.062188
 11
630.214472
 21
769.176438
  0
LINE
  8
CSLAYER1
  6
CONTINUOUS
 62
     7
 10
343.214472
 20
764.104562
 11
343.214472
 21
709.766483
  0
LINE
  8
CSLAYER1
  6
CONTINUOUS
 62
     7
 10
508.214472
 20
792.062188
 11
508.214472
 21
769.176438
  0
POINT
  8
CSLAYER1
 62
     7
 10
569.214472
 20
736.935523
  0
LINE
  8
CSLAYER1
  6
CONTINUOUS
 62
     7
 10
775.714472
 20
720.896454
 11
775.615723
 21
721.694574
  0
LINE
  8
CSLAYER1
  6
CONTINUOUS
 62
     7
 10
775.615723
 20
721.694574
 11
775.322474
 21
722.468445
  0
LINE
  8
CSLAYER1
  6
CONTINUOUS
 62
     7
 10
775.322474
 20
722.468445
 11
774.843637
 21
723.194551
  0
LINE
  8
CSLAYER1
  6
CONTINUOUS
 62
     7
 10
774.843637
 20
723.194551
 11
774.193761
 21
723.850830
  0
LINE
  8
CSLAYER1
  6
CONTINUOUS
 62
     7
 10
774.193761
 20
723.850830
 11
773.392592
 21
724.417343
  0
LINE
  8
CSLAYER1
  6
CONTINUOUS
 62
     7
 10
773.392592
 20
724.417343
 11
772.464472
 21
724.876874
  0
LINE
  8
CSLAYER1
  6
CONTINUOUS
 62
     7
 10
772.464472
 20
724.876874
 11
771.437603
 21
725.215463
  0
LINE
  8
CSLAYER1
  6
CONTINUOUS
 62
     7
 10
771.437603
 20
725.215463
 11
770.343185
 21
725.422821
  0
LINE
  8
CSLAYER1
  6
CONTINUOUS
 62
     7
 10
770.343185
 20
725.422821
 11
769.214472
 21
725.492648
  0
LINE
  8
CSLAYER1
  6
CONTINUOUS
 62
     7
 10
769.214472
 20
725.492648
 11
768.085759
 21
725.422821
  0
LINE
  8
CSLAYER1
  6
CONTINUOUS
 62
     7
 10
768.085759
 20
725.422821
 11
766.991341
 21
725.215463
  0
LINE
  8
CSLAYER1
  6
CONTINUOUS
 62
     7
 10
766.991341
 20
725.215463
 11
765.964472
 21
724.876874
  0
LINE
  8
CSLAYER1
  6
CONTINUOUS
 62
     7
 10
765.964472
 20
724.876874
 11
765.036353
 21
724.417343
  0
LINE
  8
CSLAYER1
  6
CONTINUOUS
 62
     7
 10
765.036353
 20
724.417343
 11
764.235183
 21
723.850830
  0
LINE
  8
CSLAYER1
  6
CONTINUOUS
 62
     7
 10
764.235183
 20
723.850830
 11
763.585307
 21
723.194551
  0
LINE
  8
CSLAYER1
  6
CONTINUOUS
 62
     7
 10
763.585307
 20
723.194551
 11
763.106470
 21
722.468445
  0
LINE
  8
CSLAYER1
  6
CONTINUOUS
 62
     7
 10
763.106470
 20
722.468445
 11
762.813222
 21
721.694574
  0
LINE
  8
CSLAYER1
  6
CONTINUOUS
 62
     7
 10
762.813222
 20
721.694574
 11
762.714472
 21
720.896454
  0
LINE
  8
CSLAYER1
  6
CONTINUOUS
 62
     7
 10
762.714472
 20
720.896454
 11
762.813222
 21
720.098333
  0
LINE
  8
CSLAYER1
  6
CONTINUOUS
 62
     7
 10
762.813222
 20
720.098333
 11
763.106470
 21
719.324463
  0
LINE
  8
CSLAYER1
  6
CONTINUOUS
 62
     7
 10
763.106470
 20
719.324463
 11
763.585307
 21
718.598357
  0
LINE
  8
CSLAYER1
  6
CONTINUOUS
 62
     7
 10
763.585307
 20
718.598357
 11
764.235183
 21
717.942077
  0
LINE
  8
CSLAYER1
  6
CONTINUOUS
 62
     7
 10
764.235183
 20
717.942077
 11
765.036353
 21
717.375565
  0
LINE
  8
CSLAYER1
  6
CONTINUOUS
 62
     7
 10
765.036353
 20
717.375565
 11
765.964472
 21
716.916033
  0
LINE
  8
CSLAYER1
  6
CONTINUOUS
 62
     7
 10
765.964472
 20
716.916033
 11
766.991341
 21
716.577444
  0
LINE
  8
CSLAYER1
  6
CONTINUOUS
 62
     7
 10
766.991341
 20
716.577444
 11
768.085759
 21
716.370086
  0
LINE
  8
CSLAYER1
  6
CONTINUOUS
 62
     7
 10
768.085759
 20
716.370086
 11
769.214472
 21
716.300260
  0
LINE
  8
CSLAYER1
  6
CONTINUOUS
 62
     7
 10
769.214472
 20
716.300260
 11
770.343185
 21
716.370086
  0
LINE
  8
CSLAYER1
  6
CONTINUOUS
 62
     7
 10
770.343185
 20
716.370086
 11
771.437603
 21
716.577444
  0
LINE
  8
CSLAYER1
  6
CONTINUOUS
 62
     7
 10
771.437603
 20
716.577444
 11
772.464472
 21
716.916033
  0
LINE
  8
CSLAYER1
  6
CONTINUOUS
 62
     7
 10
772.464472
 20
716.916033
 11
773.392592
 21
717.375565
  0
LINE
  8
CSLAYER1
  6
CONTINUOUS
 62
     7
 10
773.392592
 20
717.375565
 11
774.193761
 21
717.942077
  0
LINE
  8
CSLAYER1
  6
CONTINUOUS
 62
     7
 10
774.193761
 20
717.942077
 11
774.843637
 21
718.598357
  0
LINE
  8
CSLAYER1
  6
CONTINUOUS
 62
     7
 10
774.843637
 20
718.598357
 11
775.322474
 21
719.324463
  0
LINE
  8
CSLAYER1
  6
CONTINUOUS
 62
     7
 10
775.322474
 20
719.324463
 11
775.615723
 21
720.098333
  0
LINE
  8
CSLAYER1
  6
CONTINUOUS
 62
     7
 10
775.615723
 20
720.098333
 11
775.714472
 21
720.896454
  0
LINE
  8
CSLAYER1
  6
CONTINUOUS
 62
     7
 10
775.714472
 20
725.492648
 11
775.714472
 21
720.896454
  0
LINE
  8
CSLAYER1
  6
CONTINUOUS
 62
     7
 10
775.714472
 20
725.492648
 11
775.615723
 21
726.290768
  0
LINE
  8
CSLAYER1
  6
CONTINUOUS
 62
     7
 10
775.615723
 20
726.290768
 11
775.322474
 21
727.064639
  0
LINE
  8
CSLAYER1
  6
CONTINUOUS
 62
     7
 10
775.322474
 20
727.064639
 11
774.843637
 21
727.790745
  0
LINE
  8
CSLAYER1
  6
CONTINUOUS
 62
     7
 10
774.843637
 20
727.790745
 11
774.193761
 21
728.447024
  0
LINE
  8
CSLAYER1
  6
CONTINUOUS
 62
     7
 10
774.193761
 20
728.447024
 11
773.392592
 21
729.013537
  0
LINE
  8
CSLAYER1
  6
CONTINUOUS
 62
     7
 10
773.392592
 20
729.013537
 11
772.464472
 21
729.473069
  0
LINE
  8
CSLAYER1
  6
CONTINUOUS
 62
     7
 10
772.464472
 20
729.473069
 11
771.437603
 21
729.811657
  0
LINE
  8
CSLAYER1
  6
CONTINUOUS
 62
     7
 10
771.437603
 20
729.811657
 11
770.343185
 21
730.019015
  0
LINE
  8
CSLAYER1
  6
CONTINUOUS
 62
     7
 10
770.343185
 20
730.019015
 11
769.214472
 21
730.088842
  0
LINE
  8
CSLAYER1
  6
CONTINUOUS
 62
     7
 10
769.214472
 20
730.088842
 11
768.085759
 21
730.019015
  0
LINE
  8
CSLAYER1
  6
CONTINUOUS
 62
     7
 10
768.085759
 20
730.019015
 11
766.991341
 21
729.811657
  0
LINE
  8
CSLAYER1
  6
CONTINUOUS
 62
     7
 10
766.991341
 20
729.811657
 11
765.964472
 21
729.473069
  0
LINE
  8
CSLAYER1
  6
CONTINUOUS
 62
     7
 10
765.964472
 20
729.473069
 11
765.036353
 21
729.013537
  0
LINE
  8
CSLAYER1
  6
CONTINUOUS
 62
     7
 10
765.036353
 20
729.013537
 11
764.235183
 21
728.447024
  0
LINE
  8
CSLAYER1
  6
CONTINUOUS
 62
     7
 10
764.235183
 20
728.447024
 11
763.585307
 21
727.790745
  0
LINE
  8
CSLAYER1
  6
CONTINUOUS
 62
     7
 10
763.585307
 20
727.790745
 11
763.106470
 21
727.064639
  0
LINE
  8
CSLAYER1
  6
CONTINUOUS
 62
     7
 10
763.106470
 20
727.064639
 11
762.813222
 21
726.290768
  0
LINE
  8
CSLAYER1
  6
CONTINUOUS
 62
     7
 10
762.813222
 20
726.290768
 11
762.714472
 21
725.492648
  0
LINE
  8
CSLAYER1
  6
CONTINUOUS
 62
     7
 10
762.714472
 20
725.492648
 11
762.714472
 21
720.896454
  0
LINE
  8
CSLAYER1
  6
CONTINUOUS
 62
     7
 10
362.714472
 20
720.896454
 11
362.813222
 21
721.694574
  0
LINE
  8
CSLAYER1
  6
CONTINUOUS
 62
     7
 10
362.813222
 20
721.694574
 11
363.106470
 21
722.468445
  0
LINE
  8
CSLAYER1
  6
CONTINUOUS
 62
     7
 10
363.106470
 20
722.468445
 11
363.585307
 21
723.194551
  0
LINE
  8
CSLAYER1
  6
CONTINUOUS
 62
     7
 10
363.585307
 20
723.194551
 11
364.235183
 21
723.850830
  0
LINE
  8
CSLAYER1
  6
CONTINUOUS
 62
     7
 10
364.235183
 20
723.850830
 11
365.036353
 21
724.417343
  0
LINE
  8
CSLAYER1
  6
CONTINUOUS
 62
     7
 10
365.036353
 20
724.417343
 11
365.964472
 21
724.876874
  0
LINE
  8
CSLAYER1
  6
CONTINUOUS
 62
     7
 10
365.964472
 20
724.876874
 11
366.991341
 21
725.215463
  0
LINE
  8
CSLAYER1
  6
CONTINUOUS
 62
     7
 10
366.991341
 20
725.215463
 11
368.085759
 21
725.422821
  0
LINE
  8
CSLAYER1
  6
CONTINUOUS
 62
     7
 10
368.085759
 20
725.422821
 11
369.214472
 21
725.492648
  0
LINE
  8
CSLAYER1
  6
CONTINUOUS
 62
     7
 10
369.214472
 20
725.492648
 11
370.343185
 21
725.422821
  0
LINE
  8
CSLAYER1
  6
CONTINUOUS
 62
     7
 10
370.343185
 20
725.422821
 11
371.437603
 21
725.215463
  0
LINE
  8
CSLAYER1
  6
CONTINUOUS
 62
     7
 10
371.437603
 20
725.215463
 11
372.464472
 21
724.876874
  0
LINE
  8
CSLAYER1
  6
CONTINUOUS
 62
     7
 10
372.464472
 20
724.876874
 11
373.392592
 21
724.417343
  0
LINE
  8
CSLAYER1
  6
CONTINUOUS
 62
     7
 10
373.392592
 20
724.417343
 11
374.193761
 21
723.850830
  0
LINE
  8
CSLAYER1
  6
CONTINUOUS
 62
     7
 10
374.193761
 20
723.850830
 11
374.843637
 21
723.194551
  0
LINE
  8
CSLAYER1
  6
CONTINUOUS
 62
     7
 10
374.843637
 20
723.194551
 11
375.322474
 21
722.468445
  0
LINE
  8
CSLAYER1
  6
CONTINUOUS
 62
     7
 10
375.322474
 20
722.468445
 11
375.615723
 21
721.694574
  0
LINE
  8
CSLAYER1
  6
CONTINUOUS
 62
     7
 10
375.615723
 20
721.694574
 11
375.714472
 21
720.896454
  0
LINE
  8
CSLAYER1
  6
CONTINUOUS
 62
     7
 10
375.714472
 20
720.896454
 11
375.615723
 21
720.098333
  0
LINE
  8
CSLAYER1
  6
CONTINUOUS
 62
     7
 10
375.615723
 20
720.098333
 11
375.322474
 21
719.324463
  0
LINE
  8
CSLAYER1
  6
CONTINUOUS
 62
     7
 10
375.322474
 20
719.324463
 11
374.843637
 21
718.598357
  0
LINE
  8
CSLAYER1
  6
CONTINUOUS
 62
     7
 10
374.843637
 20
718.598357
 11
374.193761
 21
717.942077
  0
LINE
  8
CSLAYER1
  6
CONTINUOUS
 62
     7
 10
374.193761
 20
717.942077
 11
373.392592
 21
717.375565
  0
LINE
  8
CSLAYER1
  6
CONTINUOUS
 62
     7
 10
373.392592
 20
717.375565
 11
372.464472
 21
716.916033
  0
LINE
  8
CSLAYER1
  6
CONTINUOUS
 62
     7
 10
372.464472
 20
716.916033
 11
371.437603
 21
716.577444
  0
LINE
  8
CSLAYER1
  6
CONTINUOUS
 62
     7
 10
371.437603
 20
716.577444
 11
370.343185
 21
716.370086
  0
LINE
  8
CSLAYER1
  6
CONTINUOUS
 62
     7
 10
370.343185
 20
716.370086
 11
369.214472
 21
716.300260
  0
LINE
  8
CSLAYER1
  6
CONTINUOUS
 62
     7
 10
369.214472
 20
716.300260
 11
368.085759
 21
716.370086
  0
LINE
  8
CSLAYER1
  6
CONTINUOUS
 62
     7
 10
368.085759
 20
716.370086
 11
366.991341
 21
716.577444
  0
LINE
  8
CSLAYER1
  6
CONTINUOUS
 62
     7
 10
366.991341
 20
716.577444
 11
365.964472
 21
716.916033
  0
LINE
  8
CSLAYER1
  6
CONTINUOUS
 62
     7
 10
365.964472
 20
716.916033
 11
365.036353
 21
717.375565
  0
LINE
  8
CSLAYER1
  6
CONTINUOUS
 62
     7
 10
365.036353
 20
717.375565
 11
364.235183
 21
717.942077
  0
LINE
  8
CSLAYER1
  6
CONTINUOUS
 62
     7
 10
364.235183
 20
717.942077
 11
363.585307
 21
718.598357
  0
LINE
  8
CSLAYER1
  6
CONTINUOUS
 62
     7
 10
363.585307
 20
718.598357
 11
363.106470
 21
719.324463
  0
LINE
  8
CSLAYER1
  6
CONTINUOUS
 62
     7
 10
363.106470
 20
719.324463
 11
362.813222
 21
720.098333
  0
LINE
  8
CSLAYER1
  6
CONTINUOUS
 62
     7
 10
362.813222
 20
720.098333
 11
362.714472
 21
720.896454
  0
LINE
  8
CSLAYER1
  6
CONTINUOUS
 62
     7
 10
362.714472
 20
725.492648
 11
362.714472
 21
720.896454
  0
LINE
  8
CSLAYER1
  6
CONTINUOUS
 62
     7
 10
362.714472
 20
725.492648
 11
362.813222
 21
726.290768
  0
LINE
  8
CSLAYER1
  6
CONTINUOUS
 62
     7
 10
362.813222
 20
726.290768
 11
363.106470
 21
727.064639
  0
LINE
  8
CSLAYER1
  6
CONTINUOUS
 62
     7
 10
363.106470
 20
727.064639
 11
363.585307
 21
727.790745
  0
LINE
  8
CSLAYER1
  6
CONTINUOUS
 62
     7
 10
363.585307
 20
727.790745
 11
364.235183
 21
728.447024
  0
LINE
  8
CSLAYER1
  6
CONTINUOUS
 62
     7
 10
364.235183
 20
728.447024
 11
365.036353
 21
729.013537
  0
LINE
  8
CSLAYER1
  6
CONTINUOUS
 62
     7
 10
365.036353
 20
729.013537
 11
365.964472
 21
729.473069
  0
LINE
  8
CSLAYER1
  6
CONTINUOUS
 62
     7
 10
365.964472
 20
729.473069
 11
366.991341
 21
729.811657
  0
LINE
  8
CSLAYER1
  6
CONTINUOUS
 62
     7
 10
366.991341
 20
729.811657
 11
368.085759
 21
730.019015
  0
LINE
  8
CSLAYER1
  6
CONTINUOUS
 62
     7
 10
368.085759
 20
730.019015
 11
369.214472
 21
730.088842
  0
LINE
  8
CSLAYER1
  6
CONTINUOUS
 62
     7
 10
369.214472
 20
730.088842
 11
370.343185
 21
730.019015
  0
LINE
  8
CSLAYER1
  6
CONTINUOUS
 62
     7
 10
370.343185
 20
730.019015
 11
371.437603
 21
729.811657
  0
LINE
  8
CSLAYER1
  6
CONTINUOUS
 62
     7
 10
371.437603
 20
729.811657
 11
372.464472
 21
729.473069
  0
LINE
  8
CSLAYER1
  6
CONTINUOUS
 62
     7
 10
372.464472
 20
729.473069
 11
373.392592
 21
729.013537
  0
LINE
  8
CSLAYER1
  6
CONTINUOUS
 62
     7
 10
373.392592
 20
729.013537
 11
374.193761
 21
728.447024
  0
LINE
  8
CSLAYER1
  6
CONTINUOUS
 62
     7
 10
374.193761
 20
728.447024
 11
374.843637
 21
727.790745
  0
LINE
  8
CSLAYER1
  6
CONTINUOUS
 62
     7
 10
374.843637
 20
727.790745
 11
375.322474
 21
727.064639
  0
LINE
  8
CSLAYER1
  6
CONTINUOUS
 62
     7
 10
375.322474
 20
727.064639
 11
375.615723
 21
726.290768
  0
LINE
  8
CSLAYER1
  6
CONTINUOUS
 62
     7
 10
375.615723
 20
726.290768
 11
375.714472
 21
725.492648
  0
LINE
  8
CSLAYER1
  6
CONTINUOUS
 62
     7
 10
375.714472
 20
725.492648
 11
375.714472
 21
720.896454
  0
LINE
  8
CSLAYER1
  6
CONTINUOUS
 62
     7
 10
360.964472
 20
959.320649
 11
377.464472
 21
959.320649
  0
LINE
  8
CSLAYER1
  6
CONTINUOUS
 62
     7
 10
360.964472
 20
977.320649
 11
377.464472
 21
977.320649
  0
LINE
  8
CSLAYER1
  6
CONTINUOUS
 62
     7
 10
363.214472
 20
977.320649
 11
363.214472
 21
1022.888050
  0
LINE
  8
CSLAYER1
  6
CONTINUOUS
 62
     7
 10
360.964472
 20
959.320649
 11
360.464472
 21
959.820649
  0
LINE
  8
CSLAYER1
  6
CONTINUOUS
 62
     7
 10
360.464472
 20
976.820649
 11
360.964472
 21
977.320649
  0
LINE
  8
CSLAYER1
  6
CONTINUOUS
 62
     7
 10
360.464472
 20
959.820649
 11
377.964472
 21
959.820649
  0
LINE
  8
CSLAYER1
  6
CONTINUOUS
 62
     7
 10
360.464472
 20
976.820649
 11
377.964472
 21
976.820649
  0
LINE
  8
CSLAYER1
  6
CONTINUOUS
 62
     7
 10
375.214472
 20
977.320649
 11
375.214472
 21
1022.888050
  0
LINE
  8
CSLAYER1
  6
CONTINUOUS
 62
     7
 10
374.414472
 20
1004.320649
 11
374.414472
 21
1025.004144
  0
LINE
  8
CSLAYER1
  6
CONTINUOUS
 62
     7
 10
377.464472
 20
959.320649
 11
377.964472
 21
959.820649
  0
LINE
  8
CSLAYER1
  6
CONTINUOUS
 62
     7
 10
377.964472
 20
976.820649
 11
377.464472
 21
977.320649
  0
POINT
  8
CSLAYER1
 62
     7
 10
369.214472
 20
968.320649
  0
LINE
  8
CSLAYER1
  6
CONTINUOUS
 62
     7
 10
380.364472
 20
976.120649
 11
380.364472
 21
941.470649
  0
LINE
  8
CSLAYER1
  6
CONTINUOUS
 62
     7
 10
383.964472
 20
971.300649
 11
383.964472
 21
965.340649
  0
LINE
  8
CSLAYER1
  6
CONTINUOUS
 62
     7
 10
356.364472
 20
971.300649
 11
356.364472
 21
965.340649
  0
LINE
  8
CSLAYER1
  6
CONTINUOUS
 62
     7
 10
382.064472
 20
952.250649
 11
382.064472
 21
946.290649
  0
LINE
  8
CSLAYER1
  6
CONTINUOUS
 62
     7
 10
377.964472
 20
976.120649
 11
380.364472
 21
976.120649
  0
LINE
  8
CSLAYER1
  6
CONTINUOUS
 62
     7
 10
377.964472
 20
941.470649
 11
380.364472
 21
941.470649
  0
LINE
  8
CSLAYER1
  6
CONTINUOUS
 62
     7
 10
380.364472
 20
952.250649
 11
382.064472
 21
952.250649
  0
LINE
  8
CSLAYER1
  6
CONTINUOUS
 62
     7
 10
380.364472
 20
946.290649
 11
382.064472
 21
946.290649
  0
LINE
  8
CSLAYER1
  6
CONTINUOUS
 62
     7
 10
380.364472
 20
971.300649
 11
383.964472
 21
971.300649
  0
LINE
  8
CSLAYER1
  6
CONTINUOUS
 62
     7
 10
380.364472
 20
965.340649
 11
383.964472
 21
965.340649
  0
LINE
  8
CSLAYER1
  6
CONTINUOUS
 62
     7
 10
358.064472
 20
976.120649
 11
358.064472
 21
941.470649
  0
LINE
  8
CSLAYER1
  6
CONTINUOUS
 62
     7
 10
356.364472
 20
952.250649
 11
356.364472
 21
946.290649
  0
LINE
  8
CSLAYER1
  6
CONTINUOUS
 62
     7
 10
360.464472
 20
976.120649
 11
358.064472
 21
976.120649
  0
LINE
  8
CSLAYER1
  6
CONTINUOUS
 62
     7
 10
360.464472
 20
941.470649
 11
358.064472
 21
941.470649
  0
LINE
  8
CSLAYER1
  6
CONTINUOUS
 62
     7
 10
358.064472
 20
952.250649
 11
356.364472
 21
952.250649
  0
LINE
  8
CSLAYER1
  6
CONTINUOUS
 62
     7
 10
358.064472
 20
946.290649
 11
356.364472
 21
946.290649
  0
LINE
  8
CSLAYER1
  6
CONTINUOUS
 62
     7
 10
358.064472
 20
971.300649
 11
356.364472
 21
971.300649
  0
LINE
  8
CSLAYER1
  6
CONTINUOUS
 62
     7
 10
358.064472
 20
965.340649
 11
356.364472
 21
965.340649
  0
LINE
  8
CSLAYER1
  6
CONTINUOUS
 62
     7
 10
375.564472
 20
921.170649
 11
377.964472
 21
921.170649
  0
LINE
  8
CSLAYER1
  6
CONTINUOUS
 62
     7
 10
375.564472
 20
936.175649
 11
362.864472
 21
936.175649
  0
LINE
  8
CSLAYER1
  6
CONTINUOUS
 62
     7
 10
375.564472
 20
924.265649
 11
362.864472
 21
924.265649
  0
LINE
  8
CSLAYER1
  6
CONTINUOUS
 62
     7
 10
362.864472
 20
921.170649
 11
360.464472
 21
921.170649
  0
LINE
  8
CSLAYER1
  6
CONTINUOUS
 62
     7
 10
377.964472
 20
976.820649
 11
377.964472
 21
797.521057
  0
LINE
  8
CSLAYER1
  6
CONTINUOUS
 62
     7
 10
360.464472
 20
976.820649
 11
360.464472
 21
797.521057
  0
LINE
  8
CSLAYER1
  6
CONTINUOUS
 62
     7
 10
362.864472
 20
958.320649
 11
362.864472
 21
921.170649
  0
LINE
  8
CSLAYER1
  6
CONTINUOUS
 62
     7
 10
362.864472
 20
958.320649
 11
360.464472
 21
958.320649
  0
LINE
  8
CSLAYER1
  6
CONTINUOUS
 62
     7
 10
362.864472
 20
955.225649
 11
375.564472
 21
955.225649
  0
LINE
  8
CSLAYER1
  6
CONTINUOUS
 62
     7
 10
362.864472
 20
943.315649
 11
375.564472
 21
943.315649
  0
LINE
  8
CSLAYER1
  6
CONTINUOUS
 62
     7
 10
375.564472
 20
958.320649
 11
377.964472
 21
958.320649
  0
LINE
  8
CSLAYER1
  6
CONTINUOUS
 62
     7
 10
375.564472
 20
958.320649
 11
375.564472
 21
921.170649
  0
LINE
  8
CSLAYER1
  6
CONTINUOUS
 62
     7
 10
364.014472
 20
1004.320649
 11
364.014472
 21
1025.004144
  0
LINE
  8
CSLAYER1
  6
CENTER
 62
     5
 10
354.412055
 20
968.320649
 11
385.348333
 21
968.320649
  0
LINE
  8
CSLAYER1
  6
CENTER
 62
     5
 10
354.852429
 20
949.270649
 11
383.586837
 21
949.270649
  0
LINE
  8
CSLAYER1
  6
CONTINUOUS
 62
     7
 10
350.214472
 20
1049.735093
 11
382.214472
 21
1049.735093
  0
LINE
  8
CSLAYER1
  6
CONTINUOUS
 62
     7
 10
382.214472
 20
1010.335093
 11
382.214472
 21
1057.135093
  0
LINE
  8
CSLAYER1
  6
CONTINUOUS
 62
     7
 10
382.214472
 20
1057.135093
 11
384.214472
 21
1059.135093
  0
LINE
  8
CSLAYER1
  6
CONTINUOUS
 62
     7
 10
384.214472
 20
1008.335093
 11
384.214472
 21
1059.135093
  0
LINE
  8
CSLAYER1
  6
CONTINUOUS
 62
     7
 10
332.214472
 20
1054.735093
 11
333.214472
 21
1054.735093
  0
LINE
  8
CSLAYER1
  6
CONTINUOUS
 62
     7
 10
344.214472
 20
1053.735093
 11
344.214472
 21
1013.735093
  0
LINE
  8
CSLAYER1
  6
CONTINUOUS
 62
     7
 10
331.214472
 20
1053.735093
 11
331.214472
 21
1013.735093
  0
LINE
  8
CSLAYER1
  6
CONTINUOUS
 62
     7
 10
327.714472
 20
1040.235093
 11
327.714472
 21
1027.235093
  0
LINE
  8
CSLAYER1
  6
CONTINUOUS
 62
     7
 10
330.064472
 20
1042.735093
 11
330.064472
 21
1024.735093
  0
LINE
  8
CSLAYER1
  6
CONTINUOUS
 62
     7
 10
330.064472
 20
1041.235093
 11
328.714472
 21
1041.235093
  0
LINE
  8
CSLAYER1
  6
CONTINUOUS
 62
     7
 10
328.714472
 20
1041.235093
 11
327.714472
 21
1040.235093
  0
LINE
  8
CSLAYER1
  6
CONTINUOUS
 62
     7
 10
328.714472
 20
1041.235093
 11
328.714472
 21
1026.235093
  0
LINE
  8
CSLAYER1
  6
CONTINUOUS
 62
     7
 10
330.064472
 20
1042.735093
 11
331.214472
 21
1042.735093
  0
LINE
  8
CSLAYER1
  6
CONTINUOUS
 62
     7
 10
344.214472
 20
1043.735093
 11
350.214472
 21
1049.735093
  0
LINE
  8
CSLAYER1
  6
CONTINUOUS
 62
     7
 10
350.214472
 20
1049.735093
 11
350.214472
 21
1017.735093
  0
ARC
  8
CSLAYER1
  6
CONTINUOUS
 62
     7
 10
332.214472
 20
1053.735093
 40
1.000000
 50
90.000000
 51
180.000000
  0
ARC
  8
CSLAYER1
  6
CONTINUOUS
 62
     7
 10
343.214472
 20
1053.735093
 40
1.000000
 50
0.000000
 51
90.000000
  0
LINE
  8
CSLAYER1
  6
CONTINUOUS
 62
     7
 10
350.214472
 20
1017.735093
 11
363.214472
 21
1017.735093
  0
LINE
  8
CSLAYER1
  6
CONTINUOUS
 62
     7
 10
332.214472
 20
1012.735093
 11
333.214472
 21
1012.735093
  0
LINE
  8
CSLAYER1
  6
CONTINUOUS
 62
     7
 10
330.064472
 20
1026.235093
 11
328.714472
 21
1026.235093
  0
LINE
  8
CSLAYER1
  6
CONTINUOUS
 62
     7
 10
328.714472
 20
1026.235093
 11
327.714472
 21
1027.235093
  0
LINE
  8
CSLAYER1
  6
CONTINUOUS
 62
     7
 10
330.064472
 20
1024.735093
 11
331.214472
 21
1024.735093
  0
LINE
  8
CSLAYER1
  6
CONTINUOUS
 62
     7
 10
344.214472
 20
1023.735093
 11
350.214472
 21
1017.735093
  0
ARC
  8
CSLAYER1
  6
CONTINUOUS
 62
     7
 10
332.214472
 20
1013.735093
 40
1.000000
 50
180.000000
 51
270.000000
  0
ARC
  8
CSLAYER1
  6
CONTINUOUS
 62
     7
 10
343.214472
 20
1013.735093
 40
1.000000
 50
270.000000
 51
360.000000
  0
LINE
  8
CSLAYER1
  6
CONTINUOUS
 62
     7
 10
382.214472
 20
1010.335093
 11
384.214472
 21
1008.335093
  0
LINE
  8
CSLAYER1
  6
CONTINUOUS
 62
     7
 10
342.214472
 20
1054.735093
 11
343.214472
 21
1054.735093
  0
LINE
  8
CSLAYER1
  6
CONTINUOUS
 62
     7
 10
342.214472
 20
1012.735093
 11
343.214472
 21
1012.735093
  0
LINE
  8
CSLAYER1
  6
CONTINUOUS
 62
     7
 10
384.214472
 20
1059.135093
 11
754.214472
 21
1059.135093
  0
LINE
  8
CSLAYER1
  6
CONTINUOUS
 62
     7
 10
384.214472
 20
1008.335093
 11
547.864472
 21
1008.335093
  0
LINE
  8
CSLAYER1
  6
CONTINUOUS
 62
     7
 10
375.214472
 20
1022.888050
 11
375.123319
 21
1023.624776
  0
LINE
  8
CSLAYER1
  6
CONTINUOUS
 62
     7
 10
375.123319
 20
1023.624776
 11
374.852628
 21
1024.339118
  0
LINE
  8
CSLAYER1
  6
CONTINUOUS
 62
     7
 10
374.852628
 20
1024.339118
 11
374.410625
 21
1025.009370
  0
LINE
  8
CSLAYER1
  6
CONTINUOUS
 62
     7
 10
374.410625
 20
1025.009370
 11
373.810739
 21
1025.615166
  0
LINE
  8
CSLAYER1
  6
CONTINUOUS
 62
     7
 10
373.810739
 20
1025.615166
 11
373.071198
 21
1026.138101
  0
LINE
  8
CSLAYER1
  6
CONTINUOUS
 62
     7
 10
373.071198
 20
1026.138101
 11
372.214472
 21
1026.562284
  0
LINE
  8
CSLAYER1
  6
CONTINUOUS
 62
     7
 10
372.214472
 20
1026.562284
 11
371.266593
 21
1026.874828
  0
LINE
  8
CSLAYER1
  6
CONTINUOUS
 62
     7
 10
371.266593
 20
1026.874828
 11
370.256361
 21
1027.066235
  0
LINE
  8
CSLAYER1
  6
CONTINUOUS
 62
     7
 10
370.256361
 20
1027.066235
 11
369.214472
 21
1027.130690
  0
LINE
  8
CSLAYER1
  6
CONTINUOUS
 62
     7
 10
369.214472
 20
1027.130690
 11
368.172583
 21
1027.066235
  0
LINE
  8
CSLAYER1
  6
CONTINUOUS
 62
     7
 10
368.172583
 20
1027.066235
 11
367.162351
 21
1026.874828
  0
LINE
  8
CSLAYER1
  6
CONTINUOUS
 62
     7
 10
367.162351
 20
1026.874828
 11
366.214472
 21
1026.562284
  0
LINE
  8
CSLAYER1
  6
CONTINUOUS
 62
     7
 10
366.214472
 20
1026.562284
 11
365.357746
 21
1026.138101
  0
LINE
  8
CSLAYER1
  6
CONTINUOUS
 62
     7
 10
365.357746
 20
1026.138101
 11
364.618205
 21
1025.615166
  0
LINE
  8
CSLAYER1
  6
CONTINUOUS
 62
     7
 10
364.618205
 20
1025.615166
 11
364.018320
 21
1025.009370
  0
LINE
  8
CSLAYER1
  6
CONTINUOUS
 62
     7
 10
364.018320
 20
1025.009370
 11
363.576316
 21
1024.339118
  0
LINE
  8
CSLAYER1
  6
CONTINUOUS
 62
     7
 10
363.576316
 20
1024.339118
 11
363.305626
 21
1023.624776
  0
LINE
  8
CSLAYER1
  6
CONTINUOUS
 62
     7
 10
363.305626
 20
1023.624776
 11
363.214472
 21
1022.888050
  0
LINE
  8
CSLAYER1
  6
CONTINUOUS
 62
     7
 10
363.214472
 20
1053.254008
 11
363.214472
 21
1062.963826
  0
LINE
  8
CSLAYER1
  6
CONTINUOUS
 62
     7
 10
375.214472
 20
1053.254008
 11
375.214472
 21
1062.963826
  0
LINE
  8
CSLAYER1
  6
CONTINUOUS
 62
     7
 10
364.014472
 20
1053.548485
 11
364.014472
 21
1062.963826
  0
LINE
  8
CSLAYER1
  6
CONTINUOUS
 62
     7
 10
374.414472
 20
1053.548485
 11
374.414472
 21
1062.963826
  0
LINE
  8
CSLAYER1
  6
CONTINUOUS
 62
     7
 10
380.364472
 20
797.521057
 11
380.364472
 21
861.820649
  0
LINE
  8
CSLAYER1
  6
CONTINUOUS
 62
     7
 10
382.064472
 20
808.301057
 11
382.064472
 21
802.341057
  0
LINE
  8
CSLAYER1
  6
CONTINUOUS
 62
     7
 10
377.964472
 20
797.521057
 11
380.364472
 21
797.521057
  0
LINE
  8
CSLAYER1
  6
CONTINUOUS
 62
     7
 10
380.364472
 20
808.301057
 11
382.064472
 21
808.301057
  0
LINE
  8
CSLAYER1
  6
CONTINUOUS
 62
     7
 10
380.364472
 20
802.341057
 11
382.064472
 21
802.341057
  0
LINE
  8
CSLAYER1
  6
CONTINUOUS
 62
     7
 10
358.064472
 20
797.521057
 11
358.064472
 21
861.820649
  0
LINE
  8
CSLAYER1
  6
CONTINUOUS
 62
     7
 10
356.364472
 20
808.301057
 11
356.364472
 21
802.341057
  0
LINE
  8
CSLAYER1
  6
CONTINUOUS
 62
     7
 10
360.464472
 20
797.521057
 11
358.064472
 21
797.521057
  0
LINE
  8
CSLAYER1
  6
CONTINUOUS
 62
     7
 10
358.064472
 20
808.301057
 11
356.364472
 21
808.301057
  0
LINE
  8
CSLAYER1
  6
CONTINUOUS
 62
     7
 10
358.064472
 20
802.341057
 11
356.364472
 21
802.341057
  0
LINE
  8
CSLAYER1
  6
CENTER
 62
     5
 10
354.852429
 20
805.321057
 11
383.586837
 21
805.321057
  0
LINE
  8
CSLAYER1
  6
CONTINUOUS
 62
     7
 10
360.464472
 20
812.321057
 11
363.214472
 21
812.321057
  0
LINE
  8
CSLAYER1
  6
CONTINUOUS
 62
     7
 10
360.464472
 20
798.321057
 11
363.214472
 21
798.321057
  0
LINE
  8
CSLAYER1
  6
CONTINUOUS
 62
     7
 10
375.214472
 20
812.321057
 11
377.964472
 21
812.321057
  0
LINE
  8
CSLAYER1
  6
CONTINUOUS
 62
     7
 10
375.214472
 20
798.321057
 11
377.964472
 21
798.321057
  0
POINT
  8
CSLAYER1
 62
     7
 10
369.214472
 20
930.220649
  0
LINE
  8
CSLAYER1
  6
CONTINUOUS
 62
     7
 10
380.364472
 20
938.020649
 11
380.364472
 21
903.370649
  0
LINE
  8
CSLAYER1
  6
CONTINUOUS
 62
     7
 10
383.964472
 20
933.200649
 11
383.964472
 21
927.240649
  0
LINE
  8
CSLAYER1
  6
CONTINUOUS
 62
     7
 10
356.364472
 20
933.200649
 11
356.364472
 21
927.240649
  0
LINE
  8
CSLAYER1
  6
CONTINUOUS
 62
     7
 10
382.064472
 20
914.150649
 11
382.064472
 21
908.190649
  0
LINE
  8
CSLAYER1
  6
CONTINUOUS
 62
     7
 10
377.964472
 20
938.020649
 11
380.364472
 21
938.020649
  0
LINE
  8
CSLAYER1
  6
CONTINUOUS
 62
     7
 10
377.964472
 20
903.370649
 11
380.364472
 21
903.370649
  0
LINE
  8
CSLAYER1
  6
CONTINUOUS
 62
     7
 10
380.364472
 20
914.150649
 11
382.064472
 21
914.150649
  0
LINE
  8
CSLAYER1
  6
CONTINUOUS
 62
     7
 10
380.364472
 20
908.190649
 11
382.064472
 21
908.190649
  0
LINE
  8
CSLAYER1
  6
CONTINUOUS
 62
     7
 10
380.364472
 20
933.200649
 11
383.964472
 21
933.200649
  0
LINE
  8
CSLAYER1
  6
CONTINUOUS
 62
     7
 10
380.364472
 20
927.240649
 11
383.964472
 21
927.240649
  0
LINE
  8
CSLAYER1
  6
CONTINUOUS
 62
     7
 10
358.064472
 20
938.020649
 11
358.064472
 21
903.370649
  0
LINE
  8
CSLAYER1
  6
CONTINUOUS
 62
     7
 10
356.364472
 20
914.150649
 11
356.364472
 21
908.190649
  0
LINE
  8
CSLAYER1
  6
CONTINUOUS
 62
     7
 10
360.464472
 20
938.020649
 11
358.064472
 21
938.020649
  0
LINE
  8
CSLAYER1
  6
CONTINUOUS
 62
     7
 10
360.464472
 20
903.370649
 11
358.064472
 21
903.370649
  0
LINE
  8
CSLAYER1
  6
CONTINUOUS
 62
     7
 10
358.064472
 20
914.150649
 11
356.364472
 21
914.150649
  0
LINE
  8
CSLAYER1
  6
CONTINUOUS
 62
     7
 10
358.064472
 20
908.190649
 11
356.364472
 21
908.190649
  0
LINE
  8
CSLAYER1
  6
CONTINUOUS
 62
     7
 10
358.064472
 20
933.200649
 11
356.364472
 21
933.200649
  0
LINE
  8
CSLAYER1
  6
CONTINUOUS
 62
     7
 10
358.064472
 20
927.240649
 11
356.364472
 21
927.240649
  0
LINE
  8
CSLAYER1
  6
CONTINUOUS
 62
     7
 10
375.564472
 20
883.070649
 11
377.964472
 21
883.070649
  0
LINE
  8
CSLAYER1
  6
CONTINUOUS
 62
     7
 10
375.564472
 20
898.075649
 11
362.864472
 21
898.075649
  0
LINE
  8
CSLAYER1
  6
CONTINUOUS
 62
     7
 10
375.564472
 20
886.165649
 11
362.864472
 21
886.165649
  0
LINE
  8
CSLAYER1
  6
CONTINUOUS
 62
     7
 10
362.864472
 20
883.070649
 11
360.464472
 21
883.070649
  0
LINE
  8
CSLAYER1
  6
CONTINUOUS
 62
     7
 10
362.864472
 20
920.220649
 11
362.864472
 21
883.070649
  0
LINE
  8
CSLAYER1
  6
CONTINUOUS
 62
     7
 10
362.864472
 20
920.220649
 11
360.464472
 21
920.220649
  0
LINE
  8
CSLAYER1
  6
CONTINUOUS
 62
     7
 10
362.864472
 20
917.125649
 11
375.564472
 21
917.125649
  0
LINE
  8
CSLAYER1
  6
CONTINUOUS
 62
     7
 10
362.864472
 20
905.215649
 11
375.564472
 21
905.215649
  0
LINE
  8
CSLAYER1
  6
CONTINUOUS
 62
     7
 10
375.564472
 20
920.220649
 11
377.964472
 21
920.220649
  0
LINE
  8
CSLAYER1
  6
CONTINUOUS
 62
     7
 10
375.564472
 20
920.220649
 11
375.564472
 21
883.070649
  0
LINE
  8
CSLAYER1
  6
CENTER
 62
     5
 10
354.852429
 20
892.120649
 11
383.586837
 21
892.120649
  0
LINE
  8
CSLAYER1
  6
CENTER
 62
     5
 10
354.412055
 20
930.220649
 11
385.348333
 21
930.220649
  0
LINE
  8
CSLAYER1
  6
CENTER
 62
     5
 10
354.852429
 20
911.170649
 11
383.586837
 21
911.170649
  0
POINT
  8
CSLAYER1
 62
     7
 10
369.214472
 20
892.120649
  0
LINE
  8
CSLAYER1
  6
CONTINUOUS
 62
     7
 10
380.364472
 20
899.920649
 11
380.364472
 21
865.270649
  0
LINE
  8
CSLAYER1
  6
CONTINUOUS
 62
     7
 10
383.964472
 20
895.100649
 11
383.964472
 21
889.140649
  0
LINE
  8
CSLAYER1
  6
CONTINUOUS
 62
     7
 10
356.364472
 20
895.100649
 11
356.364472
 21
889.140649
  0
LINE
  8
CSLAYER1
  6
CONTINUOUS
 62
     7
 10
382.064472
 20
876.050649
 11
382.064472
 21
870.090649
  0
LINE
  8
CSLAYER1
  6
CONTINUOUS
 62
     7
 10
377.964472
 20
899.920649
 11
380.364472
 21
899.920649
  0
LINE
  8
CSLAYER1
  6
CONTINUOUS
 62
     7
 10
377.964472
 20
865.270649
 11
380.364472
 21
865.270649
  0
LINE
  8
CSLAYER1
  6
CONTINUOUS
 62
     7
 10
380.364472
 20
876.050649
 11
382.064472
 21
876.050649
  0
LINE
  8
CSLAYER1
  6
CONTINUOUS
 62
     7
 10
380.364472
 20
870.090649
 11
382.064472
 21
870.090649
  0
LINE
  8
CSLAYER1
  6
CONTINUOUS
 62
     7
 10
380.364472
 20
895.100649
 11
383.964472
 21
895.100649
  0
LINE
  8
CSLAYER1
  6
CONTINUOUS
 62
     7
 10
380.364472
 20
889.140649
 11
383.964472
 21
889.140649
  0
LINE
  8
CSLAYER1
  6
CONTINUOUS
 62
     7
 10
358.064472
 20
899.920649
 11
358.064472
 21
865.270649
  0
LINE
  8
CSLAYER1
  6
CONTINUOUS
 62
     7
 10
356.364472
 20
876.050649
 11
356.364472
 21
870.090649
  0
LINE
  8
CSLAYER1
  6
CONTINUOUS
 62
     7
 10
360.464472
 20
899.920649
 11
358.064472
 21
899.920649
  0
LINE
  8
CSLAYER1
  6
CONTINUOUS
 62
     7
 10
360.464472
 20
865.270649
 11
358.064472
 21
865.270649
  0
LINE
  8
CSLAYER1
  6
CONTINUOUS
 62
     7
 10
358.064472
 20
876.050649
 11
356.364472
 21
876.050649
  0
LINE
  8
CSLAYER1
  6
CONTINUOUS
 62
     7
 10
358.064472
 20
870.090649
 11
356.364472
 21
870.090649
  0
LINE
  8
CSLAYER1
  6
CONTINUOUS
 62
     7
 10
358.064472
 20
895.100649
 11
356.364472
 21
895.100649
  0
LINE
  8
CSLAYER1
  6
CONTINUOUS
 62
     7
 10
358.064472
 20
889.140649
 11
356.364472
 21
889.140649
  0
LINE
  8
CSLAYER1
  6
CONTINUOUS
 62
     7
 10
375.564472
 20
844.970649
 11
377.964472
 21
844.970649
  0
LINE
  8
CSLAYER1
  6
CONTINUOUS
 62
     7
 10
375.564472
 20
859.975649
 11
362.864472
 21
859.975649
  0
LINE
  8
CSLAYER1
  6
CONTINUOUS
 62
     7
 10
375.564472
 20
848.065649
 11
362.864472
 21
848.065649
  0
LINE
  8
CSLAYER1
  6
CONTINUOUS
 62
     7
 10
362.864472
 20
844.970649
 11
360.464472
 21
844.970649
  0
LINE
  8
CSLAYER1
  6
CONTINUOUS
 62
     7
 10
362.864472
 20
882.120649
 11
362.864472
 21
844.970649
  0
LINE
  8
CSLAYER1
  6
CONTINUOUS
 62
     7
 10
362.864472
 20
882.120649
 11
360.464472
 21
882.120649
  0
LINE
  8
CSLAYER1
  6
CONTINUOUS
 62
     7
 10
362.864472
 20
879.025649
 11
375.564472
 21
879.025649
  0
LINE
  8
CSLAYER1
  6
CONTINUOUS
 62
     7
 10
362.864472
 20
867.115649
 11
375.564472
 21
867.115649
  0
LINE
  8
CSLAYER1
  6
CONTINUOUS
 62
     7
 10
375.564472
 20
882.120649
 11
377.964472
 21
882.120649
  0
LINE
  8
CSLAYER1
  6
CONTINUOUS
 62
     7
 10
375.564472
 20
882.120649
 11
375.564472
 21
844.970649
  0
LINE
  8
CSLAYER1
  6
CENTER
 62
     5
 10
354.852429
 20
873.070649
 11
383.586837
 21
873.070649
  0
POINT
  8
CSLAYER1
 62
     7
 10
369.214472
 20
854.020649
  0
LINE
  8
CSLAYER1
  6
CENTER
 62
     5
 10
354.412055
 20
854.020649
 11
385.348333
 21
854.020649
  0
LINE
  8
CSLAYER1
  6
CONTINUOUS
 62
     7
 10
383.964472
 20
857.000649
 11
383.964472
 21
851.040649
  0
LINE
  8
CSLAYER1
  6
CONTINUOUS
 62
     7
 10
356.364472
 20
857.000649
 11
356.364472
 21
851.040649
  0
LINE
  8
CSLAYER1
  6
CONTINUOUS
 62
     7
 10
382.064472
 20
837.950649
 11
382.064472
 21
831.990649
  0
LINE
  8
CSLAYER1
  6
CONTINUOUS
 62
     7
 10
377.964472
 20
861.820649
 11
380.364472
 21
861.820649
  0
LINE
  8
CSLAYER1
  6
CONTINUOUS
 62
     7
 10
377.964472
 20
827.170649
 11
380.364472
 21
827.170649
  0
LINE
  8
CSLAYER1
  6
CONTINUOUS
 62
     7
 10
380.364472
 20
837.950649
 11
382.064472
 21
837.950649
  0
LINE
  8
CSLAYER1
  6
CONTINUOUS
 62
     7
 10
380.364472
 20
831.990649
 11
382.064472
 21
831.990649
  0
LINE
  8
CSLAYER1
  6
CONTINUOUS
 62
     7
 10
380.364472
 20
857.000649
 11
383.964472
 21
857.000649
  0
LINE
  8
CSLAYER1
  6
CONTINUOUS
 62
     7
 10
380.364472
 20
851.040649
 11
383.964472
 21
851.040649
  0
LINE
  8
CSLAYER1
  6
CONTINUOUS
 62
     7
 10
356.364472
 20
837.950649
 11
356.364472
 21
831.990649
  0
LINE
  8
CSLAYER1
  6
CONTINUOUS
 62
     7
 10
360.464472
 20
861.820649
 11
358.064472
 21
861.820649
  0
LINE
  8
CSLAYER1
  6
CONTINUOUS
 62
     7
 10
360.464472
 20
827.170649
 11
358.064472
 21
827.170649
  0
LINE
  8
CSLAYER1
  6
CONTINUOUS
 62
     7
 10
358.064472
 20
837.950649
 11
356.364472
 21
837.950649
  0
LINE
  8
CSLAYER1
  6
CONTINUOUS
 62
     7
 10
358.064472
 20
831.990649
 11
356.364472
 21
831.990649
  0
LINE
  8
CSLAYER1
  6
CONTINUOUS
 62
     7
 10
358.064472
 20
857.000649
 11
356.364472
 21
857.000649
  0
LINE
  8
CSLAYER1
  6
CONTINUOUS
 62
     7
 10
358.064472
 20
851.040649
 11
356.364472
 21
851.040649
  0
LINE
  8
CSLAYER1
  6
CONTINUOUS
 62
     7
 10
375.564472
 20
806.870649
 11
377.964472
 21
806.870649
  0
LINE
  8
CSLAYER1
  6
CONTINUOUS
 62
     7
 10
375.564472
 20
821.875649
 11
362.864472
 21
821.875649
  0
LINE
  8
CSLAYER1
  6
CONTINUOUS
 62
     7
 10
375.564472
 20
809.965649
 11
362.864472
 21
809.965649
  0
LINE
  8
CSLAYER1
  6
CONTINUOUS
 62
     7
 10
362.864472
 20
806.870649
 11
360.464472
 21
806.870649
  0
LINE
  8
CSLAYER1
  6
CONTINUOUS
 62
     7
 10
362.864472
 20
844.020649
 11
362.864472
 21
806.870649
  0
LINE
  8
CSLAYER1
  6
CONTINUOUS
 62
     7
 10
362.864472
 20
844.020649
 11
360.464472
 21
844.020649
  0
LINE
  8
CSLAYER1
  6
CONTINUOUS
 62
     7
 10
362.864472
 20
840.925649
 11
375.564472
 21
840.925649
  0
LINE
  8
CSLAYER1
  6
CONTINUOUS
 62
     7
 10
362.864472
 20
829.015649
 11
375.564472
 21
829.015649
  0
LINE
  8
CSLAYER1
  6
CONTINUOUS
 62
     7
 10
375.564472
 20
844.020649
 11
377.964472
 21
844.020649
  0
LINE
  8
CSLAYER1
  6
CONTINUOUS
 62
     7
 10
375.564472
 20
844.020649
 11
375.564472
 21
806.870649
  0
LINE
  8
CSLAYER1
  6
CENTER
 62
     5
 10
354.852429
 20
834.970649
 11
383.586837
 21
834.970649
  0
LINE
  8
CSLAYER1
  6
CENTER
 62
     5
 10
354.852429
 20
815.920649
 11
383.586837
 21
815.920649
  0
POINT
  8
CSLAYER1
 62
     7
 10
369.214472
 20
815.920649
  0
LINE
  8
CSLAYER1
  6
CONTINUOUS
 62
     7
 10
379.978948
 20
1049.735093
 11
379.044297
 21
1050.772496
  0
LINE
  8
CSLAYER1
  6
CONTINUOUS
 62
     7
 10
379.044297
 20
1050.772496
 11
378.407005
 21
1051.359772
  0
LINE
  8
CSLAYER1
  6
CONTINUOUS
 62
     7
 10
378.407005
 20
1051.359772
 11
377.699753
 21
1051.905538
  0
LINE
  8
CSLAYER1
  6
CONTINUOUS
 62
     7
 10
377.699753
 20
1051.905538
 11
376.927923
 21
1052.405641
  0
LINE
  8
CSLAYER1
  6
CONTINUOUS
 62
     7
 10
376.927923
 20
1052.405641
 11
376.097389
 21
1052.856274
  0
LINE
  8
CSLAYER1
  6
CONTINUOUS
 62
     7
 10
376.097389
 20
1052.856274
 11
375.214472
 21
1053.254008
  0
LINE
  8
CSLAYER1
  6
CONTINUOUS
 62
     7
 10
375.214472
 20
1053.254008
 11
374.285891
 21
1053.595815
  0
LINE
  8
CSLAYER1
  6
CONTINUOUS
 62
     7
 10
374.285891
 20
1053.595815
 11
373.318714
 21
1053.879095
  0
LINE
  8
CSLAYER1
  6
CONTINUOUS
 62
     7
 10
373.318714
 20
1053.879095
 11
372.320301
 21
1054.101691
  0
LINE
  8
CSLAYER1
  6
CONTINUOUS
 62
     7
 10
372.320301
 20
1054.101691
 11
371.298250
 21
1054.261909
  0
LINE
  8
CSLAYER1
  6
CONTINUOUS
 62
     7
 10
371.298250
 20
1054.261909
 11
370.260341
 21
1054.358531
  0
LINE
  8
CSLAYER1
  6
CONTINUOUS
 62
     7
 10
370.260341
 20
1054.358531
 11
369.214472
 21
1054.390820
  0
LINE
  8
CSLAYER1
  6
CONTINUOUS
 62
     7
 10
369.214472
 20
1054.390820
 11
368.168603
 21
1054.358531
  0
LINE
  8
CSLAYER1
  6
CONTINUOUS
 62
     7
 10
368.168603
 20
1054.358531
 11
367.130694
 21
1054.261909
  0
LINE
  8
CSLAYER1
  6
CONTINUOUS
 62
     7
 10
367.130694
 20
1054.261909
 11
366.108644
 21
1054.101691
  0
LINE
  8
CSLAYER1
  6
CONTINUOUS
 62
     7
 10
366.108644
 20
1054.101691
 11
365.110230
 21
1053.879095
  0
LINE
  8
CSLAYER1
  6
CONTINUOUS
 62
     7
 10
365.110230
 20
1053.879095
 11
364.143053
 21
1053.595815
  0
LINE
  8
CSLAYER1
  6
CONTINUOUS
 62
     7
 10
364.143053
 20
1053.595815
 11
363.214472
 21
1053.254008
  0
LINE
  8
CSLAYER1
  6
CONTINUOUS
 62
     7
 10
363.214472
 20
1053.254008
 11
362.331555
 21
1052.856274
  0
LINE
  8
CSLAYER1
  6
CONTINUOUS
 62
     7
 10
362.331555
 20
1052.856274
 11
361.501021
 21
1052.405641
  0
LINE
  8
CSLAYER1
  6
CONTINUOUS
 62
     7
 10
361.501021
 20
1052.405641
 11
360.729191
 21
1051.905538
  0
LINE
  8
CSLAYER1
  6
CONTINUOUS
 62
     7
 10
360.729191
 20
1051.905538
 11
360.021939
 21
1051.359772
  0
LINE
  8
CSLAYER1
  6
CONTINUOUS
 62
     7
 10
360.021939
 20
1051.359772
 11
359.384648
 21
1050.772496
  0
LINE
  8
CSLAYER1
  6
CONTINUOUS
 62
     7
 10
359.384648
 20
1050.772496
 11
358.449996
 21
1049.735093
  0
LINE
  8
CSLAYER1
  6
CONTINUOUS
 62
     7
 10
375.214472
 20
1017.735093
 11
382.214472
 21
1017.735093
  0
LINE
  8
CSLAYER1
  6
CONTINUOUS
 62
     7
 10
775.214472
 20
977.320649
 11
775.214472
 21
1022.888050
  0
LINE
  8
CSLAYER1
  6
CONTINUOUS
 62
     7
 10
763.214472
 20
977.320649
 11
763.214472
 21
1022.888050
  0
LINE
  8
CSLAYER1
  6
CONTINUOUS
 62
     7
 10
764.014472
 20
1004.320649
 11
764.014472
 21
1025.004144
  0
LINE
  8
CSLAYER1
  6
CONTINUOUS
 62
     7
 10
774.414472
 20
1004.320649
 11
774.414472
 21
1025.004144
  0
LINE
  8
CSLAYER1
  6
CONTINUOUS
 62
     7
 10
788.214472
 20
1049.735093
 11
756.214472
 21
1049.735093
  0
LINE
  8
CSLAYER1
  6
CONTINUOUS
 62
     7
 10
756.214472
 20
1010.335093
 11
756.214472
 21
1057.135093
  0
LINE
  8
CSLAYER1
  6
CONTINUOUS
 62
     7
 10
756.214472
 20
1057.135093
 11
754.214472
 21
1059.135093
  0
LINE
  8
CSLAYER1
  6
CONTINUOUS
 62
     7
 10
754.214472
 20
1008.335093
 11
754.214472
 21
1059.135093
  0
LINE
  8
CSLAYER1
  6
CONTINUOUS
 62
     7
 10
794.214472
 20
1053.735093
 11
794.214472
 21
1013.735093
  0
LINE
  8
CSLAYER1
  6
CONTINUOUS
 62
     7
 10
807.214472
 20
1053.735093
 11
807.214472
 21
1013.735093
  0
LINE
  8
CSLAYER1
  6
CONTINUOUS
 62
     7
 10
810.714472
 20
1040.235093
 11
810.714472
 21
1027.235093
  0
LINE
  8
CSLAYER1
  6
CONTINUOUS
 62
     7
 10
808.364472
 20
1042.735093
 11
808.364472
 21
1024.735093
  0
LINE
  8
CSLAYER1
  6
CONTINUOUS
 62
     7
 10
808.364472
 20
1041.235093
 11
809.714472
 21
1041.235093
  0
LINE
  8
CSLAYER1
  6
CONTINUOUS
 62
     7
 10
809.714472
 20
1041.235093
 11
810.714472
 21
1040.235093
  0
LINE
  8
CSLAYER1
  6
CONTINUOUS
 62
     7
 10
809.714472
 20
1041.235093
 11
809.714472
 21
1026.235093
  0
LINE
  8
CSLAYER1
  6
CONTINUOUS
 62
     7
 10
808.364472
 20
1042.735093
 11
807.214472
 21
1042.735093
  0
LINE
  8
CSLAYER1
  6
CONTINUOUS
 62
     7
 10
794.214472
 20
1043.735093
 11
788.214472
 21
1049.735093
  0
LINE
  8
CSLAYER1
  6
CONTINUOUS
 62
     7
 10
788.214472
 20
1049.735093
 11
788.214472
 21
1017.735093
  0
LINE
  8
CSLAYER1
  6
CONTINUOUS
 62
     7
 10
788.214472
 20
1017.735093
 11
775.214472
 21
1017.735093
  0
LINE
  8
CSLAYER1
  6
CONTINUOUS
 62
     7
 10
806.214472
 20
1012.735093
 11
805.214472
 21
1012.735093
  0
LINE
  8
CSLAYER1
  6
CONTINUOUS
 62
     7
 10
808.364472
 20
1026.235093
 11
809.714472
 21
1026.235093
  0
LINE
  8
CSLAYER1
  6
CONTINUOUS
 62
     7
 10
809.714472
 20
1026.235093
 11
810.714472
 21
1027.235093
  0
LINE
  8
CSLAYER1
  6
CONTINUOUS
 62
     7
 10
808.364472
 20
1024.735093
 11
807.214472
 21
1024.735093
  0
LINE
  8
CSLAYER1
  6
CONTINUOUS
 62
     7
 10
794.214472
 20
1023.735093
 11
788.214472
 21
1017.735093
  0
ARC
  8
CSLAYER1
  6
CONTINUOUS
 62
     7
 10
806.214472
 20
1013.735093
 40
1.000000
 50
270.000000
 51
360.000000
  0
ARC
  8
CSLAYER1
  6
CONTINUOUS
 62
     7
 10
795.214472
 20
1013.735093
 40
1.000000
 50
180.000000
 51
270.000000
  0
LINE
  8
CSLAYER1
  6
CONTINUOUS
 62
     7
 10
756.214472
 20
1010.335093
 11
754.214472
 21
1008.335093
  0
LINE
  8
CSLAYER1
  6
CONTINUOUS
 62
     7
 10
796.214472
 20
1012.735093
 11
795.214472
 21
1012.735093
  0
LINE
  8
CSLAYER1
  6
CONTINUOUS
 62
     7
 10
763.214472
 20
1022.888050
 11
763.305626
 21
1023.624776
  0
LINE
  8
CSLAYER1
  6
CONTINUOUS
 62
     7
 10
763.305626
 20
1023.624776
 11
763.576316
 21
1024.339118
  0
LINE
  8
CSLAYER1
  6
CONTINUOUS
 62
     7
 10
763.576316
 20
1024.339118
 11
764.018320
 21
1025.009370
  0
LINE
  8
CSLAYER1
  6
CONTINUOUS
 62
     7
 10
764.018320
 20
1025.009370
 11
764.618205
 21
1025.615166
  0
LINE
  8
CSLAYER1
  6
CONTINUOUS
 62
     7
 10
764.618205
 20
1025.615166
 11
765.357746
 21
1026.138101
  0
LINE
  8
CSLAYER1
  6
CONTINUOUS
 62
     7
 10
765.357746
 20
1026.138101
 11
766.214472
 21
1026.562284
  0
LINE
  8
CSLAYER1
  6
CONTINUOUS
 62
     7
 10
766.214472
 20
1026.562284
 11
767.162351
 21
1026.874828
  0
LINE
  8
CSLAYER1
  6
CONTINUOUS
 62
     7
 10
767.162351
 20
1026.874828
 11
768.172583
 21
1027.066235
  0
LINE
  8
CSLAYER1
  6
CONTINUOUS
 62
     7
 10
768.172583
 20
1027.066235
 11
769.214472
 21
1027.130690
  0
LINE
  8
CSLAYER1
  6
CONTINUOUS
 62
     7
 10
769.214472
 20
1027.130690
 11
770.256361
 21
1027.066235
  0
LINE
  8
CSLAYER1
  6
CONTINUOUS
 62
     7
 10
770.256361
 20
1027.066235
 11
771.266593
 21
1026.874828
  0
LINE
  8
CSLAYER1
  6
CONTINUOUS
 62
     7
 10
771.266593
 20
1026.874828
 11
772.214472
 21
1026.562284
  0
LINE
  8
CSLAYER1
  6
CONTINUOUS
 62
     7
 10
772.214472
 20
1026.562284
 11
773.071198
 21
1026.138101
  0
LINE
  8
CSLAYER1
  6
CONTINUOUS
 62
     7
 10
773.071198
 20
1026.138101
 11
773.810739
 21
1025.615166
  0
LINE
  8
CSLAYER1
  6
CONTINUOUS
 62
     7
 10
773.810739
 20
1025.615166
 11
774.410625
 21
1025.009370
  0
LINE
  8
CSLAYER1
  6
CONTINUOUS
 62
     7
 10
774.410625
 20
1025.009370
 11
774.852628
 21
1024.339118
  0
LINE
  8
CSLAYER1
  6
CONTINUOUS
 62
     7
 10
774.852628
 20
1024.339118
 11
775.123319
 21
1023.624776
  0
LINE
  8
CSLAYER1
  6
CONTINUOUS
 62
     7
 10
775.123319
 20
1023.624776
 11
775.214472
 21
1022.888050
  0
LINE
  8
CSLAYER1
  6
CONTINUOUS
 62
     7
 10
775.214472
 20
1053.254008
 11
775.214472
 21
1062.963826
  0
LINE
  8
CSLAYER1
  6
CONTINUOUS
 62
     7
 10
763.214472
 20
1053.254008
 11
763.214472
 21
1062.963826
  0
LINE
  8
CSLAYER1
  6
CONTINUOUS
 62
     7
 10
774.414472
 20
1053.548485
 11
774.414472
 21
1062.963826
  0
LINE
  8
CSLAYER1
  6
CONTINUOUS
 62
     7
 10
764.014472
 20
1053.548485
 11
764.014472
 21
1062.963826
  0
LINE
  8
CSLAYER1
  6
CONTINUOUS
 62
     7
 10
758.449996
 20
1049.735093
 11
759.384648
 21
1050.772496
  0
LINE
  8
CSLAYER1
  6
CONTINUOUS
 62
     7
 10
759.384648
 20
1050.772496
 11
760.021939
 21
1051.359772
  0
LINE
  8
CSLAYER1
  6
CONTINUOUS
 62
     7
 10
760.021939
 20
1051.359772
 11
760.729191
 21
1051.905538
  0
LINE
  8
CSLAYER1
  6
CONTINUOUS
 62
     7
 10
760.729191
 20
1051.905538
 11
761.501021
 21
1052.405641
  0
LINE
  8
CSLAYER1
  6
CONTINUOUS
 62
     7
 10
761.501021
 20
1052.405641
 11
762.331555
 21
1052.856274
  0
LINE
  8
CSLAYER1
  6
CONTINUOUS
 62
     7
 10
762.331555
 20
1052.856274
 11
763.214472
 21
1053.254008
  0
LINE
  8
CSLAYER1
  6
CONTINUOUS
 62
     7
 10
763.214472
 20
1053.254008
 11
764.143053
 21
1053.595815
  0
LINE
  8
CSLAYER1
  6
CONTINUOUS
 62
     7
 10
764.143053
 20
1053.595815
 11
765.110230
 21
1053.879095
  0
LINE
  8
CSLAYER1
  6
CONTINUOUS
 62
     7
 10
765.110230
 20
1053.879095
 11
766.108644
 21
1054.101691
  0
LINE
  8
CSLAYER1
  6
CONTINUOUS
 62
     7
 10
766.108644
 20
1054.101691
 11
767.130694
 21
1054.261909
  0
LINE
  8
CSLAYER1
  6
CONTINUOUS
 62
     7
 10
767.130694
 20
1054.261909
 11
768.168603
 21
1054.358531
  0
LINE
  8
CSLAYER1
  6
CONTINUOUS
 62
     7
 10
768.168603
 20
1054.358531
 11
769.214472
 21
1054.390820
  0
LINE
  8
CSLAYER1
  6
CONTINUOUS
 62
     7
 10
769.214472
 20
1054.390820
 11
770.260341
 21
1054.358531
  0
LINE
  8
CSLAYER1
  6
CONTINUOUS
 62
     7
 10
770.260341
 20
1054.358531
 11
771.298250
 21
1054.261909
  0
LINE
  8
CSLAYER1
  6
CONTINUOUS
 62
     7
 10
771.298250
 20
1054.261909
 11
772.320301
 21
1054.101691
  0
LINE
  8
CSLAYER1
  6
CONTINUOUS
 62
     7
 10
772.320301
 20
1054.101691
 11
773.318714
 21
1053.879095
  0
LINE
  8
CSLAYER1
  6
CONTINUOUS
 62
     7
 10
773.318714
 20
1053.879095
 11
774.285891
 21
1053.595815
  0
LINE
  8
CSLAYER1
  6
CONTINUOUS
 62
     7
 10
774.285891
 20
1053.595815
 11
775.214472
 21
1053.254008
  0
LINE
  8
CSLAYER1
  6
CONTINUOUS
 62
     7
 10
775.214472
 20
1053.254008
 11
776.097389
 21
1052.856274
  0
LINE
  8
CSLAYER1
  6
CONTINUOUS
 62
     7
 10
776.097389
 20
1052.856274
 11
776.927923
 21
1052.405641
  0
LINE
  8
CSLAYER1
  6
CONTINUOUS
 62
     7
 10
776.927923
 20
1052.405641
 11
777.699753
 21
1051.905538
  0
LINE
  8
CSLAYER1
  6
CONTINUOUS
 62
     7
 10
777.699753
 20
1051.905538
 11
778.407005
 21
1051.359772
  0
LINE
  8
CSLAYER1
  6
CONTINUOUS
 62
     7
 10
778.407005
 20
1051.359772
 11
779.044297
 21
1050.772496
  0
LINE
  8
CSLAYER1
  6
CONTINUOUS
 62
     7
 10
779.044297
 20
1050.772496
 11
779.978948
 21
1049.735093
  0
LINE
  8
CSLAYER1
  6
CONTINUOUS
 62
     7
 10
763.214472
 20
1017.735093
 11
756.214472
 21
1017.735093
  0
LINE
  8
CSLAYER1
  6
CONTINUOUS
 62
     7
 10
754.214472
 20
1008.335093
 11
590.564472
 21
1008.335093
  0
LINE
  8
CSLAYER1
  6
CONTINUOUS
 62
     7
 10
777.464472
 20
959.320649
 11
760.964472
 21
959.320649
  0
LINE
  8
CSLAYER1
  6
CONTINUOUS
 62
     7
 10
777.464472
 20
977.320649
 11
760.964472
 21
977.320649
  0
LINE
  8
CSLAYER1
  6
CONTINUOUS
 62
     7
 10
777.464472
 20
959.320649
 11
777.964472
 21
959.820649
  0
LINE
  8
CSLAYER1
  6
CONTINUOUS
 62
     7
 10
777.964472
 20
976.820649
 11
777.464472
 21
977.320649
  0
LINE
  8
CSLAYER1
  6
CONTINUOUS
 62
     7
 10
777.964472
 20
959.820649
 11
760.464472
 21
959.820649
  0
LINE
  8
CSLAYER1
  6
CONTINUOUS
 62
     7
 10
777.964472
 20
976.820649
 11
760.464472
 21
976.820649
  0
LINE
  8
CSLAYER1
  6
CONTINUOUS
 62
     7
 10
760.964472
 20
959.320649
 11
760.464472
 21
959.820649
  0
LINE
  8
CSLAYER1
  6
CONTINUOUS
 62
     7
 10
760.464472
 20
976.820649
 11
760.964472
 21
977.320649
  0
POINT
  8
CSLAYER1
 62
     7
 10
769.214472
 20
968.320649
  0
LINE
  8
CSLAYER1
  6
CONTINUOUS
 62
     7
 10
758.064472
 20
976.120649
 11
758.064472
 21
941.470649
  0
LINE
  8
CSLAYER1
  6
CONTINUOUS
 62
     7
 10
754.464472
 20
971.300649
 11
754.464472
 21
965.340649
  0
LINE
  8
CSLAYER1
  6
CONTINUOUS
 62
     7
 10
782.064472
 20
971.300649
 11
782.064472
 21
965.340649
  0
LINE
  8
CSLAYER1
  6
CONTINUOUS
 62
     7
 10
756.364472
 20
952.250649
 11
756.364472
 21
946.290649
  0
LINE
  8
CSLAYER1
  6
CONTINUOUS
 62
     7
 10
760.464472
 20
976.120649
 11
758.064472
 21
976.120649
  0
LINE
  8
CSLAYER1
  6
CONTINUOUS
 62
     7
 10
760.464472
 20
941.470649
 11
758.064472
 21
941.470649
  0
LINE
  8
CSLAYER1
  6
CONTINUOUS
 62
     7
 10
758.064472
 20
952.250649
 11
756.364472
 21
952.250649
  0
LINE
  8
CSLAYER1
  6
CONTINUOUS
 62
     7
 10
758.064472
 20
946.290649
 11
756.364472
 21
946.290649
  0
LINE
  8
CSLAYER1
  6
CONTINUOUS
 62
     7
 10
758.064472
 20
971.300649
 11
754.464472
 21
971.300649
  0
LINE
  8
CSLAYER1
  6
CONTINUOUS
 62
     7
 10
758.064472
 20
965.340649
 11
754.464472
 21
965.340649
  0
LINE
  8
CSLAYER1
  6
CONTINUOUS
 62
     7
 10
780.364472
 20
976.120649
 11
780.364472
 21
941.470649
  0
LINE
  8
CSLAYER1
  6
CONTINUOUS
 62
     7
 10
782.064472
 20
952.250649
 11
782.064472
 21
946.290649
  0
LINE
  8
CSLAYER1
  6
CONTINUOUS
 62
     7
 10
777.964472
 20
976.120649
 11
780.364472
 21
976.120649
  0
LINE
  8
CSLAYER1
  6
CONTINUOUS
 62
     7
 10
777.964472
 20
941.470649
 11
780.364472
 21
941.470649
  0
LINE
  8
CSLAYER1
  6
CONTINUOUS
 62
     7
 10
780.364472
 20
952.250649
 11
782.064472
 21
952.250649
  0
LINE
  8
CSLAYER1
  6
CONTINUOUS
 62
     7
 10
780.364472
 20
946.290649
 11
782.064472
 21
946.290649
  0
LINE
  8
CSLAYER1
  6
CONTINUOUS
 62
     7
 10
780.364472
 20
971.300649
 11
782.064472
 21
971.300649
  0
LINE
  8
CSLAYER1
  6
CONTINUOUS
 62
     7
 10
780.364472
 20
965.340649
 11
782.064472
 21
965.340649
  0
LINE
  8
CSLAYER1
  6
CONTINUOUS
 62
     7
 10
762.864472
 20
921.170649
 11
760.464472
 21
921.170649
  0
LINE
  8
CSLAYER1
  6
CONTINUOUS
 62
     7
 10
762.864472
 20
936.175649
 11
775.564472
 21
936.175649
  0
LINE
  8
CSLAYER1
  6
CONTINUOUS
 62
     7
 10
762.864472
 20
924.265649
 11
775.564472
 21
924.265649
  0
LINE
  8
CSLAYER1
  6
CONTINUOUS
 62
     7
 10
775.564472
 20
921.170649
 11
777.964472
 21
921.170649
  0
LINE
  8
CSLAYER1
  6
CONTINUOUS
 62
     7
 10
760.464472
 20
976.820649
 11
760.464472
 21
797.521057
  0
LINE
  8
CSLAYER1
  6
CONTINUOUS
 62
     7
 10
777.964472
 20
976.820649
 11
777.964472
 21
797.521057
  0
LINE
  8
CSLAYER1
  6
CONTINUOUS
 62
     7
 10
775.564472
 20
958.320649
 11
775.564472
 21
921.170649
  0
LINE
  8
CSLAYER1
  6
CONTINUOUS
 62
     7
 10
775.564472
 20
958.320649
 11
777.964472
 21
958.320649
  0
LINE
  8
CSLAYER1
  6
CONTINUOUS
 62
     7
 10
775.564472
 20
955.225649
 11
762.864472
 21
955.225649
  0
LINE
  8
CSLAYER1
  6
CONTINUOUS
 62
     7
 10
775.564472
 20
943.315649
 11
762.864472
 21
943.315649
  0
LINE
  8
CSLAYER1
  6
CONTINUOUS
 62
     7
 10
762.864472
 20
958.320649
 11
760.464472
 21
958.320649
  0
LINE
  8
CSLAYER1
  6
CONTINUOUS
 62
     7
 10
762.864472
 20
958.320649
 11
762.864472
 21
921.170649
  0
LINE
  8
CSLAYER1
  6
CENTER
 62
     5
 10
784.016889
 20
968.320649
 11
753.080611
 21
968.320649
  0
LINE
  8
CSLAYER1
  6
CENTER
 62
     5
 10
783.576515
 20
949.270649
 11
754.842108
 21
949.270649
  0
LINE
  8
CSLAYER1
  6
CONTINUOUS
 62
     7
 10
758.064472
 20
797.521057
 11
758.064472
 21
861.820649
  0
LINE
  8
CSLAYER1
  6
CONTINUOUS
 62
     7
 10
756.364472
 20
808.301057
 11
756.364472
 21
802.341057
  0
LINE
  8
CSLAYER1
  6
CONTINUOUS
 62
     7
 10
760.464472
 20
797.521057
 11
758.064472
 21
797.521057
  0
LINE
  8
CSLAYER1
  6
CONTINUOUS
 62
     7
 10
758.064472
 20
808.301057
 11
756.364472
 21
808.301057
  0
LINE
  8
CSLAYER1
  6
CONTINUOUS
 62
     7
 10
758.064472
 20
802.341057
 11
756.364472
 21
802.341057
  0
LINE
  8
CSLAYER1
  6
CONTINUOUS
 62
     7
 10
780.364472
 20
797.521057
 11
780.364472
 21
861.820649
  0
LINE
  8
CSLAYER1
  6
CONTINUOUS
 62
     7
 10
782.064472
 20
808.301057
 11
782.064472
 21
802.341057
  0
LINE
  8
CSLAYER1
  6
CONTINUOUS
 62
     7
 10
777.964472
 20
797.521057
 11
780.364472
 21
797.521057
  0
LINE
  8
CSLAYER1
  6
CONTINUOUS
 62
     7
 10
780.364472
 20
808.301057
 11
782.064472
 21
808.301057
  0
LINE
  8
CSLAYER1
  6
CONTINUOUS
 62
     7
 10
780.364472
 20
802.341057
 11
782.064472
 21
802.341057
  0
LINE
  8
CSLAYER1
  6
CENTER
 62
     5
 10
783.576515
 20
805.321057
 11
754.842108
 21
805.321057
  0
LINE
  8
CSLAYER1
  6
CONTINUOUS
 62
     7
 10
777.964472
 20
812.321057
 11
773.714472
 21
812.321057
  0
LINE
  8
CSLAYER1
  6
CONTINUOUS
 62
     7
 10
777.964472
 20
798.321057
 11
773.714472
 21
798.321057
  0
LINE
  8
CSLAYER1
  6
CONTINUOUS
 62
     7
 10
764.714472
 20
812.321057
 11
760.464472
 21
812.321057
  0
LINE
  8
CSLAYER1
  6
CONTINUOUS
 62
     7
 10
764.714472
 20
798.321057
 11
760.464472
 21
798.321057
  0
POINT
  8
CSLAYER1
 62
     7
 10
769.214472
 20
930.220649
  0
LINE
  8
CSLAYER1
  6
CONTINUOUS
 62
     7
 10
758.064472
 20
938.020649
 11
758.064472
 21
903.370649
  0
LINE
  8
CSLAYER1
  6
CONTINUOUS
 62
     7
 10
754.464472
 20
933.200649
 11
754.464472
 21
927.240649
  0
LINE
  8
CSLAYER1
  6
CONTINUOUS
 62
     7
 10
782.064472
 20
933.200649
 11
782.064472
 21
927.240649
  0
LINE
  8
CSLAYER1
  6
CONTINUOUS
 62
     7
 10
756.364472
 20
914.150649
 11
756.364472
 21
908.190649
  0
LINE
  8
CSLAYER1
  6
CONTINUOUS
 62
     7
 10
760.464472
 20
938.020649
 11
758.064472
 21
938.020649
  0
LINE
  8
CSLAYER1
  6
CONTINUOUS
 62
     7
 10
760.464472
 20
903.370649
 11
758.064472
 21
903.370649
  0
LINE
  8
CSLAYER1
  6
CONTINUOUS
 62
     7
 10
758.064472
 20
914.150649
 11
756.364472
 21
914.150649
  0
LINE
  8
CSLAYER1
  6
CONTINUOUS
 62
     7
 10
758.064472
 20
908.190649
 11
756.364472
 21
908.190649
  0
LINE
  8
CSLAYER1
  6
CONTINUOUS
 62
     7
 10
758.064472
 20
933.200649
 11
754.464472
 21
933.200649
  0
LINE
  8
CSLAYER1
  6
CONTINUOUS
 62
     7
 10
758.064472
 20
927.240649
 11
754.464472
 21
927.240649
  0
LINE
  8
CSLAYER1
  6
CONTINUOUS
 62
     7
 10
780.364472
 20
938.020649
 11
780.364472
 21
903.370649
  0
LINE
  8
CSLAYER1
  6
CONTINUOUS
 62
     7
 10
782.064472
 20
914.150649
 11
782.064472
 21
908.190649
  0
LINE
  8
CSLAYER1
  6
CONTINUOUS
 62
     7
 10
777.964472
 20
938.020649
 11
780.364472
 21
938.020649
  0
LINE
  8
CSLAYER1
  6
CONTINUOUS
 62
     7
 10
777.964472
 20
903.370649
 11
780.364472
 21
903.370649
  0
LINE
  8
CSLAYER1
  6
CONTINUOUS
 62
     7
 10
780.364472
 20
914.150649
 11
782.064472
 21
914.150649
  0
LINE
  8
CSLAYER1
  6
CONTINUOUS
 62
     7
 10
780.364472
 20
908.190649
 11
782.064472
 21
908.190649
  0
LINE
  8
CSLAYER1
  6
CONTINUOUS
 62
     7
 10
780.364472
 20
933.200649
 11
782.064472
 21
933.200649
  0
LINE
  8
CSLAYER1
  6
CONTINUOUS
 62
     7
 10
780.364472
 20
927.240649
 11
782.064472
 21
927.240649
  0
LINE
  8
CSLAYER1
  6
CONTINUOUS
 62
     7
 10
762.864472
 20
883.070649
 11
760.464472
 21
883.070649
  0
LINE
  8
CSLAYER1
  6
CONTINUOUS
 62
     7
 10
762.864472
 20
898.075649
 11
775.564472
 21
898.075649
  0
LINE
  8
CSLAYER1
  6
CONTINUOUS
 62
     7
 10
762.864472
 20
886.165649
 11
775.564472
 21
886.165649
  0
LINE
  8
CSLAYER1
  6
CONTINUOUS
 62
     7
 10
775.564472
 20
883.070649
 11
777.964472
 21
883.070649
  0
LINE
  8
CSLAYER1
  6
CONTINUOUS
 62
     7
 10
775.564472
 20
920.220649
 11
775.564472
 21
883.070649
  0
LINE
  8
CSLAYER1
  6
CONTINUOUS
 62
     7
 10
775.564472
 20
920.220649
 11
777.964472
 21
920.220649
  0
LINE
  8
CSLAYER1
  6
CONTINUOUS
 62
     7
 10
775.564472
 20
917.125649
 11
762.864472
 21
917.125649
  0
LINE
  8
CSLAYER1
  6
CONTINUOUS
 62
     7
 10
775.564472
 20
905.215649
 11
762.864472
 21
905.215649
  0
LINE
  8
CSLAYER1
  6
CONTINUOUS
 62
     7
 10
762.864472
 20
920.220649
 11
760.464472
 21
920.220649
  0
LINE
  8
CSLAYER1
  6
CONTINUOUS
 62
     7
 10
762.864472
 20
920.220649
 11
762.864472
 21
883.070649
  0
LINE
  8
CSLAYER1
  6
CENTER
 62
     5
 10
783.576515
 20
892.120649
 11
754.842108
 21
892.120649
  0
LINE
  8
CSLAYER1
  6
CENTER
 62
     5
 10
784.016889
 20
930.220649
 11
753.080611
 21
930.220649
  0
LINE
  8
CSLAYER1
  6
CENTER
 62
     5
 10
783.576515
 20
911.170649
 11
754.842108
 21
911.170649
  0
POINT
  8
CSLAYER1
 62
     7
 10
769.214472
 20
892.120649
  0
LINE
  8
CSLAYER1
  6
CONTINUOUS
 62
     7
 10
758.064472
 20
899.920649
 11
758.064472
 21
865.270649
  0
LINE
  8
CSLAYER1
  6
CONTINUOUS
 62
     7
 10
754.464472
 20
895.100649
 11
754.464472
 21
889.140649
  0
LINE
  8
CSLAYER1
  6
CONTINUOUS
 62
     7
 10
782.064472
 20
895.100649
 11
782.064472
 21
889.140649
  0
LINE
  8
CSLAYER1
  6
CONTINUOUS
 62
     7
 10
756.364472
 20
876.050649
 11
756.364472
 21
870.090649
  0
LINE
  8
CSLAYER1
  6
CONTINUOUS
 62
     7
 10
760.464472
 20
899.920649
 11
758.064472
 21
899.920649
  0
LINE
  8
CSLAYER1
  6
CONTINUOUS
 62
     7
 10
760.464472
 20
865.270649
 11
758.064472
 21
865.270649
  0
LINE
  8
CSLAYER1
  6
CONTINUOUS
 62
     7
 10
758.064472
 20
876.050649
 11
756.364472
 21
876.050649
  0
LINE
  8
CSLAYER1
  6
CONTINUOUS
 62
     7
 10
758.064472
 20
870.090649
 11
756.364472
 21
870.090649
  0
LINE
  8
CSLAYER1
  6
CONTINUOUS
 62
     7
 10
758.064472
 20
895.100649
 11
754.464472
 21
895.100649
  0
LINE
  8
CSLAYER1
  6
CONTINUOUS
 62
     7
 10
758.064472
 20
889.140649
 11
754.464472
 21
889.140649
  0
LINE
  8
CSLAYER1
  6
CONTINUOUS
 62
     7
 10
780.364472
 20
899.920649
 11
780.364472
 21
865.270649
  0
LINE
  8
CSLAYER1
  6
CONTINUOUS
 62
     7
 10
782.064472
 20
876.050649
 11
782.064472
 21
870.090649
  0
LINE
  8
CSLAYER1
  6
CONTINUOUS
 62
     7
 10
777.964472
 20
899.920649
 11
780.364472
 21
899.920649
  0
LINE
  8
CSLAYER1
  6
CONTINUOUS
 62
     7
 10
777.964472
 20
865.270649
 11
780.364472
 21
865.270649
  0
LINE
  8
CSLAYER1
  6
CONTINUOUS
 62
     7
 10
780.364472
 20
876.050649
 11
782.064472
 21
876.050649
  0
LINE
  8
CSLAYER1
  6
CONTINUOUS
 62
     7
 10
780.364472
 20
870.090649
 11
782.064472
 21
870.090649
  0
LINE
  8
CSLAYER1
  6
CONTINUOUS
 62
     7
 10
780.364472
 20
895.100649
 11
782.064472
 21
895.100649
  0
LINE
  8
CSLAYER1
  6
CONTINUOUS
 62
     7
 10
780.364472
 20
889.140649
 11
782.064472
 21
889.140649
  0
LINE
  8
CSLAYER1
  6
CONTINUOUS
 62
     7
 10
762.864472
 20
844.970649
 11
760.464472
 21
844.970649
  0
LINE
  8
CSLAYER1
  6
CONTINUOUS
 62
     7
 10
762.864472
 20
859.975649
 11
775.564472
 21
859.975649
  0
LINE
  8
CSLAYER1
  6
CONTINUOUS
 62
     7
 10
762.864472
 20
848.065649
 11
775.564472
 21
848.065649
  0
LINE
  8
CSLAYER1
  6
CONTINUOUS
 62
     7
 10
775.564472
 20
844.970649
 11
777.964472
 21
844.970649
  0
LINE
  8
CSLAYER1
  6
CONTINUOUS
 62
     7
 10
775.564472
 20
882.120649
 11
775.564472
 21
844.970649
  0
LINE
  8
CSLAYER1
  6
CONTINUOUS
 62
     7
 10
775.564472
 20
882.120649
 11
777.964472
 21
882.120649
  0
LINE
  8
CSLAYER1
  6
CONTINUOUS
 62
     7
 10
775.564472
 20
879.025649
 11
762.864472
 21
879.025649
  0
LINE
  8
CSLAYER1
  6
CONTINUOUS
 62
     7
 10
775.564472
 20
867.115649
 11
762.864472
 21
867.115649
  0
LINE
  8
CSLAYER1
  6
CONTINUOUS
 62
     7
 10
762.864472
 20
882.120649
 11
760.464472
 21
882.120649
  0
LINE
  8
CSLAYER1
  6
CONTINUOUS
 62
     7
 10
762.864472
 20
882.120649
 11
762.864472
 21
844.970649
  0
LINE
  8
CSLAYER1
  6
CENTER
 62
     5
 10
783.576515
 20
873.070649
 11
754.842108
 21
873.070649
  0
POINT
  8
CSLAYER1
 62
     7
 10
769.214472
 20
854.020649
  0
LINE
  8
CSLAYER1
  6
CENTER
 62
     5
 10
784.016889
 20
854.020649
 11
753.080611
 21
854.020649
  0
LINE
  8
CSLAYER1
  6
CONTINUOUS
 62
     7
 10
754.464472
 20
857.000649
 11
754.464472
 21
851.040649
  0
LINE
  8
CSLAYER1
  6
CONTINUOUS
 62
     7
 10
782.064472
 20
857.000649
 11
782.064472
 21
851.040649
  0
LINE
  8
CSLAYER1
  6
CONTINUOUS
 62
     7
 10
756.364472
 20
837.950649
 11
756.364472
 21
831.990649
  0
LINE
  8
CSLAYER1
  6
CONTINUOUS
 62
     7
 10
760.464472
 20
861.820649
 11
758.064472
 21
861.820649
  0
LINE
  8
CSLAYER1
  6
CONTINUOUS
 62
     7
 10
760.464472
 20
827.170649
 11
758.064472
 21
827.170649
  0
LINE
  8
CSLAYER1
  6
CONTINUOUS
 62
     7
 10
758.064472
 20
837.950649
 11
756.364472
 21
837.950649
  0
LINE
  8
CSLAYER1
  6
CONTINUOUS
 62
     7
 10
758.064472
 20
831.990649
 11
756.364472
 21
831.990649
  0
LINE
  8
CSLAYER1
  6
CONTINUOUS
 62
     7
 10
758.064472
 20
857.000649
 11
754.464472
 21
857.000649
  0
LINE
  8
CSLAYER1
  6
CONTINUOUS
 62
     7
 10
758.064472
 20
851.040649
 11
754.464472
 21
851.040649
  0
LINE
  8
CSLAYER1
  6
CONTINUOUS
 62
     7
 10
782.064472
 20
837.950649
 11
782.064472
 21
831.990649
  0
LINE
  8
CSLAYER1
  6
CONTINUOUS
 62
     7
 10
777.964472
 20
861.820649
 11
780.364472
 21
861.820649
  0
LINE
  8
CSLAYER1
  6
CONTINUOUS
 62
     7
 10
777.964472
 20
827.170649
 11
780.364472
 21
827.170649
  0
LINE
  8
CSLAYER1
  6
CONTINUOUS
 62
     7
 10
780.364472
 20
837.950649
 11
782.064472
 21
837.950649
  0
LINE
  8
CSLAYER1
  6
CONTINUOUS
 62
     7
 10
780.364472
 20
831.990649
 11
782.064472
 21
831.990649
  0
LINE
  8
CSLAYER1
  6
CONTINUOUS
 62
     7
 10
780.364472
 20
857.000649
 11
782.064472
 21
857.000649
  0
LINE
  8
CSLAYER1
  6
CONTINUOUS
 62
     7
 10
780.364472
 20
851.040649
 11
782.064472
 21
851.040649
  0
LINE
  8
CSLAYER1
  6
CONTINUOUS
 62
     7
 10
762.864472
 20
806.870649
 11
760.464472
 21
806.870649
  0
LINE
  8
CSLAYER1
  6
CONTINUOUS
 62
     7
 10
762.864472
 20
821.875649
 11
775.564472
 21
821.875649
  0
LINE
  8
CSLAYER1
  6
CONTINUOUS
 62
     7
 10
775.564472
 20
806.870649
 11
777.964472
 21
806.870649
  0
LINE
  8
CSLAYER1
  6
CONTINUOUS
 62
     7
 10
762.864472
 20
809.965649
 11
775.564472
 21
809.965649
  0
LINE
  8
CSLAYER1
  6
CONTINUOUS
 62
     7
 10
775.564472
 20
844.020649
 11
775.564472
 21
806.870649
  0
LINE
  8
CSLAYER1
  6
CONTINUOUS
 62
     7
 10
775.564472
 20
844.020649
 11
777.964472
 21
844.020649
  0
LINE
  8
CSLAYER1
  6
CONTINUOUS
 62
     7
 10
775.564472
 20
840.925649
 11
762.864472
 21
840.925649
  0
LINE
  8
CSLAYER1
  6
CONTINUOUS
 62
     7
 10
775.564472
 20
829.015649
 11
762.864472
 21
829.015649
  0
LINE
  8
CSLAYER1
  6
CONTINUOUS
 62
     7
 10
762.864472
 20
844.020649
 11
760.464472
 21
844.020649
  0
LINE
  8
CSLAYER1
  6
CONTINUOUS
 62
     7
 10
762.864472
 20
844.020649
 11
762.864472
 21
806.870649
  0
LINE
  8
CSLAYER1
  6
CENTER
 62
     5
 10
783.576515
 20
834.970649
 11
754.842108
 21
834.970649
  0
LINE
  8
CSLAYER1
  6
CENTER
 62
     5
 10
783.576515
 20
815.920649
 11
754.842108
 21
815.920649
  0
POINT
  8
CSLAYER1
 62
     7
 10
769.214472
 20
815.920649
  0
INSERT
  8
CSLAYER1
  2
BLKF0005
 10
0.0
 20
0.0
 30
0.0
  0
INSERT
  8
CSLAYER1
  2
BLKF0006
 10
0.0
 20
0.0
 30
0.0
  0
DIMENSION
  8
CSLAYER1
 62
     7
  2
*D0000
 10
2283.399590
 20
594.227802
 11
2273.399658
 21
516.727905
 13
2139.659898
 23
439.227802
 14
2139.459898
 24
594.227802
 50
90.000000
  0
DIMENSION
  8
CSLAYER1
 62
     7
  2
*D0001
 10
2283.399590
 20
1152.313826
 11
2273.399658
 21
873.270874
 13
2139.459898
 23
594.227802
 14
2139.459898
 24
1152.313826
 50
90.000000
 70
1
  0
DIMENSION
  8
CSLAYER1
 62
     7
  2
*D0002
 10
2385.992797
 20
439.227802
 11
2375.992920
 21
795.770874
 13
2385.992797
 23
1152.313826
 14
2385.992797
 24
439.227802
 50
90.000000
 70
1
  0
TEXT
  8
CSLAYER1
 62
     5
 10
978.849487
 20
832.873413
 40
40.000000
 41
0.782609
  1
ギヤードモ－ター
 50
0.000000
 51
0.000000
  7
EASYDRAW_FONT
 72
     5
 11
1218.849487
 21
832.873413
  0
LINE
  8
CSLAYER1
  6
CONTINUOUS
 62
     5
 10
1211.152569
 20
828.116990
 11
973.131811
 21
828.116990
  0
LINE
  8
CSLAYER1
  6
CONTINUOUS
 62
     5
 10
1347.126797
 20
686.118587
 11
1211.152569
 21
828.116990
  0
LINE
  8
CSLAYER1
  6
CONTINUOUS
 62
     5
 10
1347.126797
 20
686.118587
 11
1321.477135
 21
701.677984
  0
LINE
  8
CSLAYER1
  6
CONTINUOUS
 62
     5
 10
1347.126797
 20
686.118587
 11
1332.693237
 21
712.418251
  0
TEXT
  8
CSLAYER1
 62
     5
 10
959.541016
 20
725.271851
 40
40.000000
 41
0.803571
  1
上限・下限
 50
0.000000
 51
0.000000
  7
EASYDRAW_FONT
 72
     5
 11
1109.541016
 21
725.271851
  0
TEXT
  8
CSLAYER1
 62
     5
 10
955.657715
 20
676.101929
 40
40.000000
 41
0.782609
  1
リミットスイッチ
 50
0.000000
 51
0.000000
  7
EASYDRAW_FONT
 72
     5
 11
1195.657715
 21
676.101929
  0
LINE
  8
CSLAYER1
  6
CONTINUOUS
 62
     5
 10
954.452561
 20
669.745184
 11
1201.028649
 21
669.745184
  0
LINE
  8
CSLAYER1
  6
CONTINUOUS
 62
     5
 10
780.214472
 20
543.936429
 11
954.452561
 21
669.745184
  0
LINE
  8
CSLAYER1
  6
CONTINUOUS
 62
     5
 10
780.214472
 20
543.936429
 11
799.162689
 21
567.195084
  0
LINE
  8
CSLAYER1
  6
CONTINUOUS
 62
     5
 10
780.214472
 20
543.936429
 11
808.253437
 21
554.604907
  0
DIMENSION
  8
CSLAYER1
 62
     7
  2
*D0003
 10
2139.459898
 20
1505.455600
 11
1689.459961
 21
1515.455688
 13
1239.459898
 23
1607.619873
 14
2139.459898
 24
1607.619873
 52
270.000000
 70
1
  0
DIMENSION
  8
CSLAYER1
 62
     7
  2
*D0004
 10
2139.659898
 20
324.130093
 11
1689.659912
 21
334.130035
 13
1239.659898
 23
439.227802
 14
2139.659898
 24
439.227802
 52
270.000000
 70
1
  0
LINE
  8
CSLAYER1
  6
CONTINUOUS
 62
     4
 10
305.214472
 20
1090.113826
 11
316.214472
 21
1090.113826
  0
LINE
  8
CSLAYER1
  6
CONTINUOUS
 62
     3
 10
316.214472
 20
1090.113826
 11
316.214472
 21
1107.313826
  0
INSERT
  8
CSLAYER1
  2
BLKF0007
 10
0.0
 20
0.0
 30
0.0
  0
LINE
  8
CSLAYER1
  6
CONTINUOUS
 62
     3
 10
796.214472
 20
1085.413666
 11
342.214472
 21
1085.413666
  0
LINE
  8
CSLAYER1
  6
CONTINUOUS
 62
     3
 10
296.214472
 20
1055.113826
 11
296.214472
 21
1107.313826
  0
LINE
  8
CSLAYER1
  6
CONTINUOUS
 62
     3
 10
305.214472
 20
1055.113826
 11
305.214472
 21
1107.313826
  0
LINE
  8
CSLAYER1
  6
CONTINUOUS
 62
     3
 10
269.214472
 20
1107.313826
 11
869.214472
 21
1107.313826
  0
LINE
  8
CSLAYER1
  6
CONTINUOUS
 62
     3
 10
296.214472
 20
1055.113826
 11
305.214472
 21
1055.113826
  0
LINE
  8
CSLAYER1
  6
CENTER
 62
     5
 10
285.214472
 20
1071.613826
 11
853.214472
 21
1071.613826
  0
LINE
  8
CSLAYER1
  6
CONTINUOUS
 62
     3
 10
313.214472
 20
1087.613826
 11
322.214472
 21
1087.613826
  0
LINE
  8
CSLAYER1
  6
CONTINUOUS
 62
     3
 10
333.214472
 20
1087.613826
 11
342.214472
 21
1087.613826
  0
LINE
  8
CSLAYER1
  6
CONTINUOUS
 62
     3
 10
293.214472
 20
1060.644171
 11
293.214472
 21
1082.583481
  0
LINE
  8
CSLAYER1
  6
CONTINUOUS
 62
     3
 10
296.214472
 20
1082.363826
 11
293.214472
 21
1082.363826
  0
LINE
  8
CSLAYER1
  6
CONTINUOUS
 62
     3
 10
296.214472
 20
1060.863826
 11
293.214472
 21
1060.863826
  0
LINE
  8
CSLAYER1
  6
CONTINUOUS
 62
     3
 10
296.214472
 20
1070.101630
 11
293.214472
 21
1073.601630
  0
LINE
  8
CSLAYER1
  6
CONTINUOUS
 62
     3
 10
306.214472
 20
1079.763826
 11
306.214472
 21
1063.463826
  0
LINE
  8
CSLAYER1
  6
CONTINUOUS
 62
     3
 10
306.714472
 20
1080.263826
 11
306.214472
 21
1079.763826
  0
LINE
  8
CSLAYER1
  6
CONTINUOUS
 62
     3
 10
306.214472
 20
1063.463826
 11
306.714472
 21
1062.963826
  0
LINE
  8
CSLAYER1
  6
CONTINUOUS
 62
     3
 10
285.214472
 20
1080.613826
 11
285.214472
 21
1062.613826
  0
LINE
  8
CSLAYER1
  6
CONTINUOUS
 62
     3
 10
293.214472
 20
1077.098654
 11
286.351653
 21
1077.098654
  0
LINE
  8
CSLAYER1
  6
CONTINUOUS
 62
     3
 10
293.214472
 20
1082.583481
 11
286.351653
 21
1082.583481
  0
LINE
  8
CSLAYER1
  6
CONTINUOUS
 62
     3
 10
285.214472
 20
1080.613826
 11
286.351653
 21
1082.583481
  0
ARC
  8
CSLAYER1
  6
CONTINUOUS
 62
     3
 10
288.994517
 20
1079.841068
 40
3.808617
 50
185.661633
 51
226.059028
  0
ARC
  8
CSLAYER1
  6
CONTINUOUS
 62
     3
 10
299.010216
 20
1071.613826
 40
13.795744
 50
156.573402
 51
203.426598
  0
LINE
  8
CSLAYER1
  6
CONTINUOUS
 62
     3
 10
293.214472
 20
1066.128999
 11
286.351653
 21
1066.128999
  0
LINE
  8
CSLAYER1
  6
CONTINUOUS
 62
     3
 10
293.214472
 20
1060.644171
 11
286.351653
 21
1060.644171
  0
LINE
  8
CSLAYER1
  6
CONTINUOUS
 62
     3
 10
285.214472
 20
1062.613826
 11
286.351653
 21
1060.644171
  0
ARC
  8
CSLAYER1
  6
CONTINUOUS
 62
     3
 10
288.994517
 20
1063.386585
 40
3.808617
 50
133.940972
 51
174.338367
  0
LINE
  8
CSLAYER1
  6
CONTINUOUS
 62
     3
 10
306.214472
 20
1066.163826
 11
305.214472
 21
1066.163826
  0
LINE
  8
CSLAYER1
  6
CONTINUOUS
 62
     3
 10
306.214472
 20
1077.063826
 11
305.214472
 21
1077.063826
  0
LINE
  8
CSLAYER1
  6
CONTINUOUS
 62
     3
 10
306.714472
 20
1062.963826
 11
306.714472
 21
1080.263826
  0
LINE
  8
CSLAYER1
  6
CONTINUOUS
 62
     3
 10
306.714472
 20
1062.963826
 11
313.214472
 21
1062.963826
  0
LINE
  8
CSLAYER1
  6
CONTINUOUS
 62
     3
 10
322.214472
 20
1080.263826
 11
816.214472
 21
1080.263826
  0
LINE
  8
CSLAYER1
  6
CONTINUOUS
 62
     3
 10
313.214472
 20
1080.263826
 11
306.714472
 21
1080.263826
  0
LINE
  8
CSLAYER1
  6
CONTINUOUS
 62
     3
 10
322.214472
 20
1062.963826
 11
816.214472
 21
1062.963826
  0
LINE
  8
CSLAYER1
  6
CONTINUOUS
 62
     3
 10
333.214472
 20
1080.263826
 11
333.214472
 21
1087.613826
  0
LINE
  8
CSLAYER1
  6
CONTINUOUS
 62
     3
 10
342.214472
 20
1080.263826
 11
342.214472
 21
1087.613826
  0
LINE
  8
CSLAYER1
  6
CONTINUOUS
 62
     7
 10
806.214472
 20
1054.735093
 11
805.214472
 21
1054.735093
  0
ARC
  8
CSLAYER1
  6
CONTINUOUS
 62
     7
 10
806.214472
 20
1053.735093
 40
1.000000
 50
0.000000
 51
90.000000
  0
ARC
  8
CSLAYER1
  6
CONTINUOUS
 62
     7
 10
795.214472
 20
1053.735093
 40
1.000000
 50
90.000000
 51
180.000000
  0
LINE
  8
CSLAYER1
  6
CONTINUOUS
 62
     7
 10
796.214472
 20
1054.735093
 11
795.214472
 21
1054.735093
  0
LINE
  8
CSLAYER1
  6
CONTINUOUS
 62
     4
 10
833.214472
 20
1090.113826
 11
822.214472
 21
1090.113826
  0
LINE
  8
CSLAYER1
  6
CONTINUOUS
 62
     3
 10
822.214472
 20
1090.113826
 11
822.214472
 21
1107.313826
  0
INSERT
  8
CSLAYER1
  2
BLKF0008
 10
0.0
 20
0.0
 30
0.0
  0
LINE
  8
CSLAYER1
  6
CONTINUOUS
 62
     3
 10
842.214472
 20
1055.113826
 11
842.214472
 21
1107.313826
  0
LINE
  8
CSLAYER1
  6
CONTINUOUS
 62
     3
 10
833.214472
 20
1055.113826
 11
833.214472
 21
1107.313826
  0
LINE
  8
CSLAYER1
  6
CONTINUOUS
 62
     3
 10
842.214472
 20
1055.113826
 11
833.214472
 21
1055.113826
  0
LINE
  8
CSLAYER1
  6
CONTINUOUS
 62
     3
 10
825.214472
 20
1087.613826
 11
816.214472
 21
1087.613826
  0
LINE
  8
CSLAYER1
  6
CONTINUOUS
 62
     3
 10
805.214472
 20
1087.613826
 11
796.214472
 21
1087.613826
  0
LINE
  8
CSLAYER1
  6
CONTINUOUS
 62
     3
 10
845.214472
 20
1060.644171
 11
845.214472
 21
1082.583481
  0
LINE
  8
CSLAYER1
  6
CONTINUOUS
 62
     3
 10
842.214472
 20
1082.363826
 11
845.214472
 21
1082.363826
  0
LINE
  8
CSLAYER1
  6
CONTINUOUS
 62
     3
 10
842.214472
 20
1060.863826
 11
845.214472
 21
1060.863826
  0
LINE
  8
CSLAYER1
  6
CONTINUOUS
 62
     3
 10
842.214472
 20
1070.101630
 11
845.214472
 21
1073.601630
  0
LINE
  8
CSLAYER1
  6
CONTINUOUS
 62
     3
 10
832.214472
 20
1079.763826
 11
832.214472
 21
1063.463826
  0
LINE
  8
CSLAYER1
  6
CONTINUOUS
 62
     3
 10
831.714472
 20
1080.263826
 11
832.214472
 21
1079.763826
  0
LINE
  8
CSLAYER1
  6
CONTINUOUS
 62
     3
 10
832.214472
 20
1063.463826
 11
831.714472
 21
1062.963826
  0
LINE
  8
CSLAYER1
  6
CONTINUOUS
 62
     3
 10
853.214472
 20
1080.613826
 11
853.214472
 21
1062.613826
  0
LINE
  8
CSLAYER1
  6
CONTINUOUS
 62
     3
 10
845.214472
 20
1077.098654
 11
852.077291
 21
1077.098654
  0
LINE
  8
CSLAYER1
  6
CONTINUOUS
 62
     3
 10
845.214472
 20
1082.583481
 11
852.077291
 21
1082.583481
  0
LINE
  8
CSLAYER1
  6
CONTINUOUS
 62
     3
 10
853.214472
 20
1080.613826
 11
852.077291
 21
1082.583481
  0
ARC
  8
CSLAYER1
  6
CONTINUOUS
 62
     3
 10
849.434428
 20
1079.841068
 40
3.808617
 50
313.940972
 51
354.338367
  0
ARC
  8
CSLAYER1
  6
CONTINUOUS
 62
     3
 10
839.418728
 20
1071.613826
 40
13.795744
 50
-23.426598
 51
23.426598
  0
LINE
  8
CSLAYER1
  6
CONTINUOUS
 62
     3
 10
845.214472
 20
1066.128999
 11
852.077291
 21
1066.128999
  0
LINE
  8
CSLAYER1
  6
CONTINUOUS
 62
     3
 10
845.214472
 20
1060.644171
 11
852.077291
 21
1060.644171
  0
LINE
  8
CSLAYER1
  6
CONTINUOUS
 62
     3
 10
853.214472
 20
1062.613826
 11
852.077291
 21
1060.644171
  0
ARC
  8
CSLAYER1
  6
CONTINUOUS
 62
     3
 10
849.434428
 20
1063.386585
 40
3.808617
 50
5.661633
 51
46.059028
  0
LINE
  8
CSLAYER1
  6
CONTINUOUS
 62
     3
 10
832.214472
 20
1066.163826
 11
833.214472
 21
1066.163826
  0
LINE
  8
CSLAYER1
  6
CONTINUOUS
 62
     3
 10
832.214472
 20
1077.063826
 11
833.214472
 21
1077.063826
  0
LINE
  8
CSLAYER1
  6
CONTINUOUS
 62
     3
 10
831.714472
 20
1062.963826
 11
831.714472
 21
1080.263826
  0
LINE
  8
CSLAYER1
  6
CONTINUOUS
 62
     3
 10
831.714472
 20
1062.963826
 11
825.214472
 21
1062.963826
  0
LINE
  8
CSLAYER1
  6
CONTINUOUS
 62
     3
 10
825.214472
 20
1080.263826
 11
831.714472
 21
1080.263826
  0
LINE
  8
CSLAYER1
  6
CONTINUOUS
 62
     3
 10
805.214472
 20
1080.263826
 11
805.214472
 21
1087.613826
  0
LINE
  8
CSLAYER1
  6
CONTINUOUS
 62
     3
 10
796.214472
 20
1080.263826
 11
796.214472
 21
1087.613826
  0
LINE
  8
CSLAYER1
  6
CONTINUOUS
 62
     3
 10
579.633363
 20
724.363721
 11
579.774798
 21
724.363721
  0
LINE
  8
CSLAYER1
  6
CONTINUOUS
 62
     3
 10
577.541750
 20
717.406637
 11
577.541750
 21
635.155673
  0
LINE
  8
CSLAYER1
  6
CONTINUOUS
 62
     3
 10
581.924368
 20
716.852782
 11
581.924368
 21
634.623930
  0
LINE
  8
CSLAYER1
  6
CONTINUOUS
 62
     3
 10
597.576574
 20
712.775320
 11
597.576574
 21
630.692138
  0
LINE
  8
CSLAYER1
  6
CONTINUOUS
 62
     3
 10
601.959192
 20
710.935983
 11
601.959192
 21
628.935181
  0
LINE
  8
CSLAYER1
  6
CONTINUOUS
 62
     3
 10
611.640879
 20
705.430070
 11
611.640879
 21
623.670377
  0
LINE
  8
CSLAYER1
  6
CONTINUOUS
 62
     3
 10
615.177139
 20
702.701238
 11
615.177139
 21
621.116523
  0
LINE
  8
CSLAYER1
  6
CONTINUOUS
 62
     3
 10
623.592939
 20
693.360244
 11
623.592939
 21
612.744040
  0
LINE
  8
CSLAYER1
  6
CONTINUOUS
 62
     3
 10
560.887194
 20
717.406637
 11
560.887194
 21
635.155673
  0
LINE
  8
CSLAYER1
  6
CONTINUOUS
 62
     3
 10
556.504576
 20
716.852782
 11
556.504576
 21
634.623930
  0
LINE
  8
CSLAYER1
  6
CONTINUOUS
 62
     3
 10
540.852370
 20
712.775320
 11
540.852370
 21
630.692138
  0
LINE
  8
CSLAYER1
  6
CONTINUOUS
 62
     3
 10
536.469752
 20
710.935983
 11
536.469752
 21
628.935181
  0
LINE
  8
CSLAYER1
  6
CONTINUOUS
 62
     3
 10
526.788065
 20
705.430070
 11
526.788065
 21
623.670377
  0
LINE
  8
CSLAYER1
  6
CONTINUOUS
 62
     3
 10
523.251806
 20
702.701238
 11
523.251806
 21
621.116523
  0
LINE
  8
CSLAYER1
  6
CONTINUOUS
 62
     3
 10
514.836005
 20
693.360244
 11
514.836005
 21
612.744040
  0
LINE
  8
CSLAYER1
  6
CONTINUOUS
 62
     3
 10
377.214472
 20
489.227802
 11
377.214472
 21
616.402305
  0
LINE
  8
CSLAYER1
  6
CONTINUOUS
 62
     7
 10
654.214472
 20
663.873852
 11
654.214472
 21
569.339229
  0
LINE
  8
CSLAYER1
  6
CONTINUOUS
 62
     7
 10
633.214472
 20
666.873852
 11
633.214472
 21
566.339229
  0
LINE
  8
CSLAYER1
  6
CONTINUOUS
 62
     7
 10
633.214472
 20
566.339229
 11
651.214472
 21
566.339229
  0
LINE
  8
CSLAYER1
  6
CONTINUOUS
 62
     7
 10
633.214472
 20
607.732246
 11
652.433067
 21
607.732246
  0
LINE
  8
CSLAYER1
  6
CONTINUOUS
 62
     7
 10
633.214472
 20
666.873852
 11
651.214472
 21
666.873852
  0
ARC
  8
CSLAYER1
  6
CONTINUOUS
 62
     7
 10
651.214472
 20
663.873852
 40
3.000000
 50
0.000000
 51
90.000000
  0
ARC
  8
CSLAYER1
  6
CONTINUOUS
 62
     7
 10
651.214472
 20
569.339229
 40
3.000000
 50
270.000000
 51
360.000000
  0
LINE
  8
CSLAYER1
  6
CONTINUOUS
 62
     3
 10
760.714472
 20
510.227802
 11
760.714472
 21
616.402305
  0
LINE
  8
CSLAYER1
  6
CONTINUOUS
 62
     3
 10
342.214472
 20
616.402305
 11
509.214472
 21
616.402305
  0
LINE
  8
CSLAYER1
  6
CONTINUOUS
 62
     3
 10
342.214472
 20
668.602489
 11
509.214472
 21
668.602489
  0
LINE
  8
CSLAYER1
  6
CONTINUOUS
 62
     3
 10
342.214472
 20
680.091119
 11
509.214472
 21
680.091119
  0
LINE
  8
CSLAYER1
  6
CONTINUOUS
 62
     3
 10
629.214472
 20
680.091119
 11
796.214472
 21
680.091119
  0
LINE
  8
CSLAYER1
  6
CONTINUOUS
 62
     3
 10
629.214472
 20
616.402305
 11
633.214472
 21
616.402305
  0
LINE
  8
CSLAYER1
  6
CONTINUOUS
 62
     3
 10
654.214472
 20
616.402305
 11
796.214472
 21
616.402305
  0
LINE
  8
CSLAYER1
  6
CONTINUOUS
 62
     3
 10
2584.824950
 20
2134.028302
 11
2597.458516
 21
2152.579510
  0
LINE
  8
CSLAYER1
  6
CONTINUOUS
 62
     3
 10
2585.283255
 20
2132.829136
 11
2602.236556
 21
2145.186757
  0
LINE
  8
CSLAYER1
  6
CONTINUOUS
 62
     3
 10
2585.970559
 20
2131.173204
 11
2606.216177
 21
2136.536357
  0
LINE
  8
CSLAYER1
  6
CONTINUOUS
 62
     3
 10
2586.343451
 20
2129.716876
 11
2607.997072
 21
2127.283759
  0
TEXT
  8
CSLAYER1
 62
     4
 10
2718.818659
 20
959.025013
 40
45.879784
 41
0.605080
  1
最大使用頻度８０回／時間・最大起動頻度１０回／分
 50
0.000000
 51
0.000000
  7
EASYDRAW_FONT
 72
     5
 11
3375.827338
 21
959.025013
  0
LINE
  8
CSLAYER1
  6
CONTINUOUS
 62
     5
 10
3424.025197
 20
1270.290021
 11
2703.152679
 21
1270.290021
  0
TEXT
  8
CSLAYER1
 62
     3
 10
2942.913086
 20
1284.687378
 40
40.000000
 41
0.825000
  1
マグネットスイッチ制御
 50
0.000000
 51
0.000000
  7
EASYDRAW_FONT
 72
     5
 11
3294.913086
 21
1284.687378
  0
TEXT
  8
CSLAYER1
 62
     3
 10
2716.593994
 20
1280.034790
 40
40.000000
 41
0.872727
  1
制御方式
 50
0.000000
 51
0.000000
  7
EASYDRAW_FONT
 72
     5
 11
2844.593994
 21
1280.034790
  0
LINE
  8
CSLAYER1
  6
CONTINUOUS
 62
     3
 10
629.214472
 20
668.602489
 11
796.214472
 21
668.602489
  0
LINE
  8
CSLAYER1
  6
CONTINUOUS
 62
     7
 10
630.214472
 20
792.062188
 11
795.214472
 21
764.104562
  0
LINE
  8
CSLAYER1
  6
CONTINUOUS
 62
     7
 10
795.214472
 20
709.766483
 11
630.214472
 21
681.808858
  0
LINE
  8
CSLAYER1
  6
CONTINUOUS
 62
     7
 10
630.214472
 20
769.176438
 11
795.214472
 21
741.218812
  0
LINE
  8
CSLAYER1
  6
CONTINUOUS
 62
     7
 10
508.214472
 20
792.062188
 11
343.214472
 21
764.104562
  0
LINE
  8
CSLAYER1
  6
CONTINUOUS
 62
     7
 10
508.214472
 20
769.176438
 11
343.214472
 21
741.218812
  0
LINE
  8
CSLAYER1
  6
CONTINUOUS
 62
     7
 10
343.214472
 20
709.766483
 11
508.214472
 21
681.808858
  0
LINE
  8
CSLAYER1
  6
CONTINUOUS
 62
     3
 10
378.714472
 20
779.170814
 11
378.714472
 21
770.119688
  0
LINE
  8
CSLAYER1
  6
CONTINUOUS
 62
     3
 10
759.714472
 20
779.170814
 11
759.714472
 21
770.119688
  0
LINE
  8
CSLAYER1
  6
CONTINUOUS
 62
     4
 10
630.300824
 20
543.527802
 11
660.714472
 21
543.527802
  0
LINE
  8
CSLAYER1
  6
CONTINUOUS
 62
     4
 10
628.159146
 20
537.527802
 11
660.714472
 21
537.527802
  0
LINE
  8
CSLAYER1
  6
CONTINUOUS
 62
     4
 10
660.714472
 20
537.527802
 11
660.714472
 21
543.527802
  0
LINE
  8
CSLAYER1
  6
CONTINUOUS
 62
     4
 10
659.214472
 20
489.227802
 11
659.214472
 21
537.527802
  0
DIMENSION
  8
CSLAYER1
 62
     7
  2
*D0005
 10
869.214472
 20
324.130093
 11
569.214478
 21
334.130035
 13
269.214472
 23
439.227802
 14
869.214472
 24
439.227802
 52
270.000000
 70
1
  0
DIMENSION
  8
CSLAYER1
 62
     7
  2
*D0006
 10
1145.623239
 20
2207.619873
 11
1135.623291
 21
1907.619873
 13
1239.459898
 23
1607.619873
 14
1239.459898
 24
2207.619873
 50
90.000000
 70
1
  0
LINE
  8
CSLAYER1
  6
CONTINUOUS
 62
     4
 10
477.714472
 20
537.527802
 11
477.714472
 21
543.527802
  0
LINE
  8
CSLAYER1
  6
CONTINUOUS
 62
     4
 10
479.214472
 20
489.227802
 11
479.214472
 21
537.527802
  0
LINE
  8
CSLAYER1
  6
CONTINUOUS
 62
     4
 10
510.269799
 20
537.527802
 11
477.714472
 21
537.527802
  0
LINE
  8
CSLAYER1
  6
CONTINUOUS
 62
     4
 10
508.128121
 20
543.527802
 11
477.714472
 21
543.527802
  0
INSERT
  8
CSLAYER1
  2
BLKF0009
 10
0.0
 20
0.0
 30
0.0
  0
INSERT
  8
CSLAYER1
  2
BLKF0010
 10
0.0
 20
0.0
 30
0.0
  0
LINE
  8
CSLAYER1
  6
CONTINUOUS
 62
     7
 10
1321.186627
 20
489.227802
 11
1339.659898
 21
508.007895
  0
LINE
  8
CSLAYER1
  6
CONTINUOUS
 62
     4
 10
1377.659898
 20
510.227802
 11
1362.925619
 21
510.227802
  0
LINE
  8
CSLAYER1
  6
CONTINUOUS
 62
     4
 10
1392.659898
 20
495.227802
 11
1392.659898
 21
489.227802
  0
LINE
  8
CSLAYER1
  6
CONTINUOUS
 62
     4
 10
1377.659898
 20
510.227802
 11
1392.659898
 21
495.227802
  0
LINE
  8
CSLAYER1
  6
CONTINUOUS
 62
     3
 10
1338.377884
 20
506.704588
 11
1339.659898
 21
506.622796
  0
LINE
  8
CSLAYER1
  6
CONTINUOUS
 62
     3
 10
1363.215568
 20
531.954801
 11
1362.397647
 21
519.134557
  0
LINE
  8
CSLAYER1
  6
CONTINUOUS
 62
     3
 10
1360.034241
 20
505.813465
 11
1359.514525
 21
505.356087
  0
LINE
  8
CSLAYER1
  6
CONTINUOUS
 62
     3
 10
1369.956484
 20
538.807677
 11
1361.975516
 21
506.365712
  0
LINE
  8
CSLAYER1
  6
CONTINUOUS
 62
     3
 10
1368.583226
 20
537.411610
 11
1363.990532
 21
518.742695
  0
LINE
  8
CSLAYER1
  6
CONTINUOUS
 62
     3
 10
1360.765583
 20
505.633550
 11
1359.659898
 21
505.905556
  0
LINE
  8
CSLAYER1
  6
CONTINUOUS
 62
     3
 10
1363.990532
 20
518.742695
 11
1359.659898
 21
519.808064
  0
ARC
  8
CSLAYER1
  6
CONTINUOUS
 62
     3
 10
1361.004468
 20
506.604597
 40
1.000000
 50
256.179252
 51
346.179252
  0
LINE
  8
CSLAYER1
  6
CONTINUOUS
 62
     3
 10
1365.782170
 20
526.025554
 11
1362.882793
 21
526.738823
  0
LINE
  8
CSLAYER1
  6
CONTINUOUS
 62
     3
 10
1366.021055
 20
526.996602
 11
1362.947479
 21
527.752725
  0
LINE
  8
CSLAYER1
  6
CONTINUOUS
 62
     3
 10
1360.000974
 20
528.686816
 11
1359.659898
 21
523.340722
  0
LINE
  8
CSLAYER1
  6
CONTINUOUS
 62
     3
 10
1334.489968
 20
502.752098
 11
1339.659898
 21
496.877539
  0
LINE
  8
CSLAYER1
  6
CENTER
 62
     5
 10
1349.659898
 20
489.227802
 11
1349.659898
 21
594.227802
  0
LINE
  8
CSLAYER1
  6
CONTINUOUS
 62
     7
 10
1359.659898
 20
489.227802
 11
1359.659898
 21
567.227802
  0
LINE
  8
CSLAYER1
  6
CONTINUOUS
 62
     7
 10
1339.659898
 20
567.227802
 11
1359.659898
 21
567.227802
  0
LINE
  8
CSLAYER1
  6
CONTINUOUS
 62
     7
 10
1339.659898
 20
489.227802
 11
1339.659898
 21
567.227802
  0
INSERT
  8
CSLAYER1
  2
BLKF0011
 10
0.0
 20
0.0
 30
0.0
  0
INSERT
  8
CSLAYER1
  2
BLKF0012
 10
0.0
 20
0.0
 30
0.0
  0
LINE
  8
CSLAYER1
  6
CONTINUOUS
 62
     3
 10
1354.659898
 20
575.227802
 11
1354.659898
 21
583.027802
  0
LINE
  8
CSLAYER1
  6
CONTINUOUS
 62
     4
 10
1353.659898
 20
575.227802
 11
1353.659898
 21
583.027802
  0
LINE
  8
CSLAYER1
  6
CONTINUOUS
 62
     3
 10
1344.659898
 20
575.227802
 11
1344.659898
 21
583.027802
  0
LINE
  8
CSLAYER1
  6
CONTINUOUS
 62
     4
 10
1345.659898
 20
575.227802
 11
1345.659898
 21
583.027802
  0
TEXT
  8
CSLAYER1
 62
     5
 10
2795.206543
 20
2012.130493
 40
40.000000
 41
1.020000
  1
コード長サ２ｍ
 50
360.000000
 51
0.000000
  7
EASYDRAW_FONT
 72
     5
 11
3067.206543
 21
2012.130493
  0
LINE
  8
CSLAYER1
  6
CONTINUOUS
 62
     5
 10
3424.025197
 20
758.290034
 11
2703.152679
 21
758.290034
  0
TEXT
  8
CSLAYER1
 62
     3
 10
3033.011963
 20
768.961487
 40
40.000000
 41
0.926087
  1
　１０Ｒ４／１３
 50
0.000000
 51
0.000000
  7
EASYDRAW_FONT
 72
     5
 11
3317.011963
 21
768.961487
  0
TEXT
  8
CSLAYER1
 62
     3
 10
2717.907959
 20
1792.129517
 40
40.000000
 41
1.036364
  1
積載荷重
 50
0.000000
 51
0.000000
  7
EASYDRAW_FONT
 72
     5
 11
2869.907959
 21
1792.129517
  0
INSERT
  8
CSLAYER1
  2
BLKF0013
 10
0.0
 20
0.0
 30
0.0
  0
ENDSEC
  0
EOF
