  0
SECTION
  2
HEADER
  9
$ACADVER
  1
AC1006
  9
$INSBASE
 10
1181.685668
 20
1854.250814
 30
0.0
  9
$EXTMIN
 10
1181.685668
 20
1854.250814
  9
$EXTMAX
 10
4821.685668
 20
4424.250814
  9
$LIMMIN
 10
1181.685668
 20
1854.250814
  9
$LIMMAX
 10
4821.685668
 20
4424.250814
  9
$VIEWCTR
 10
3001.685668
 20
3139.250814
  9
$VIEWSIZE
 40
2570.000000
  9
$SNAPMODE
 70
     0
  9
$SNAPUNIT
 10
1.0
 20
1.0
  9
$SNAPBASE
 10
0.0
 20
0.0
  9
$SNAPANG
 50
0.0
  9
$SNAPSTYLE
 70
     0
  9
$SNAPISOPAIR
 70
     0
  9
$GRIDMODE
 70
     0
  9
$GRIDUNIT
 10
0.0
 20
0.0
  9
$ORTHOMODE
 70
     0
  9
$REGENMODE
 70
     1
  9
$FILLMODE
 70
     1
  9
$QTEXTMODE
 70
     0
  9
$DRAGMODE
 70
     2
  9
$LTSCALE
 40
15.000000
  9
$OSMODE
 70
     0
  9
$ATTMODE
 70
     1
  9
$TEXTSIZE
 40
0.2
  9
$TRACEWID
 40
0.05
  9
$TEXTSTYLE
  7
STANDARD
  9
$CLAYER
  8
CSLAYER1
  9
$CELTYPE
  6
BYLAYER
  9
$CECOLOR
 62
   256
  9
$DIMSCALE
 40
1.0
  9
$DIMASZ
 40
0.18
  9
$DIMEXO
 40
0.0625
  9
$DIMDLI
 40
0.38
  9
$DIMRND
 40
0.0
  9
$DIMDLE
 40
0.0
  9
$DIMEXE
 40
0.18
  9
$DIMTP
 40
0.0
  9
$DIMTM
 40
0.0
  9
$DIMTXT
 40
0.18
  9
$DIMCEN
 40
0.09
  9
$DIMTSZ
 40
0.0
  9
$DIMTOL
 70
     0
  9
$DIMLIM
 70
     0
  9
$DIMTIH
 70
     1
  9
$DIMTOH
 70
     1
  9
$DIMSE1
 70
     0
  9
$DIMSE2
 70
     0
  9
$DIMTAD
 70
     0
  9
$DIMZIN
 70
     0
  9
$DIMBLK
  1

  9
$LUNITS
 70
     2
  9
$LUPREC
 70
     4
  9
$AXISMODE
 70
     0
  9
$AXISUNIT
 10
0.0
 20
0.0
  9
$SKETCHINC
 40
0.1
  9
$FILLETRAD
 40
0.0
  9
$AUNITS
 70
     0
  9
$AUPREC
 70
     0
  9
$MENU
  1
ACAD
  9
$ELEVATION
 40
0.0
  9
$THICKNESS
 40
0.0
  9
$VIEWDIR
 10
0.0
 20
0.0
 30
1.0
  9
$LIMCHECK
 70
     0
  9
$BLIPMODE
 70
     1
  9
$CHAMFERA
 40
0.0
  9
$CHAMFERB
 40
0.0
  9
$FASTZOOM
 70
     1
  9
$SKPOLY
 70
     0
  9
$TDCREATE
 40
2457497.000000
  9
$TDUPDATE
 40
2457497.000000
  9
$TDINDWG
 40
0.0
  9
$TDUSRTIMER
 40
0.0
  9
$USRTIMER
 70
     1
  9
$ANGBASE
 50
0.0
  9
$ANGDIR
 70
     0
  9
$PDMODE
 70
     0
  9
$PDSIZE
 40
0.0
  9
$PLINEWID
 40
0.0
  9
$COORDS
 70
     0
  9
$USERI1
 70
     0
  9
$USERI2
 70
     0
  9
$USERI3
 70
     0
  9
$USERI4
 70
     0
  9
$USERI5
 70
     0
  9
$USERR1
 40
0.0
  9
$USERR2
 40
0.0
  9
$USERR3
 40
0.0
  9
$USERR4
 40
0.0
  9
$USERR5
 40
0.0
  0
ENDSEC
  0
SECTION
  2
TABLES
  0
TABLE
  2
LTYPE
 70
     9
  0
LTYPE
  2
CONTINUOUS
 70
    64
  3
Solid line
 72
    65
 73
     0
 40
0.0
  0
LTYPE
  2
DASHED
 70
    64
  3
__ __ __ __ __ __ __ __ __ __ __ __ __ __ __
 72
    65
 73
     2
 40
0.75
 49
0.5
 49
-0.25
  0
LTYPE
  2
HIDDEN
 70
    64
  3
_ _ _ _ _ _ _ _ _ _ _ _ _ _ _ _ _ _ _ _ _ _ _
 72
    65
 73
     2
 40
0.375
 49
0.25
 49
-0.125
  0
LTYPE
  2
DOT
 70
    64
  3
...............................................
 72
    65
 73
     2
 40
0.25
 49
0.0
 49
-0.25
  0
LTYPE
  2
DASHDOT
 70
    64
  3
__ . __ . __ . __ . __ . __ . __ . __ . __ . __
 72
    65
 73
     4
 40
1.0
 49
0.5
 49
-0.25
 49
0.0
 49
-0.25
  0
LTYPE
  2
DIVIDE
 70
    64
  3
__ . . __ . . __ . . __ . . __ . . __ . . __
 72
    65
 73
     6
 40
1.25
 49
0.5
 49
-0.25
 49
0.0
 49
-0.25
 49
0.0
 49
-0.25
  0
LTYPE
  2
CENTER
 70
    64
  3
____ _ ____ _ ____ _ ____ _ ____ _ ____ _ ____ 
 72
    65
 73
     4
 40
2.0
 49
1.25
 49
-0.25
 49
0.25
 49
-0.25
  0
LTYPE
  2
PHANTOM
 70
    64
  3
______  __  __  ______  __  __  ______  __  __ 
 72
    65
 73
     6
 40
2.5
 49
1.25
 49
-0.25
 49
0.25
 49
-0.25
 49
0.25
 49
-0.25
  0
LTYPE
  2
BORDER
 70
    64
  3
__ __ . __ __ . __ __ . __ __ . __ __ . __ __ .
 72
    65
 73
     6
 40
1.75
 49
0.5
 49
-0.25
 49
0.5
 49
-0.25
 49
0.0
 49
-0.25
  0
ENDTAB
  0
TABLE
  2
LAYER
 70
    16
  0
LAYER
  2
CSLAYER1
 70
    64
 62
     7
  6
CONTINUOUS
  0
LAYER
  2
CSLAYER2
 70
    64
 62
     7
  6
CONTINUOUS
  0
LAYER
  2
CSLAYER3
 70
    64
 62
     7
  6
CONTINUOUS
  0
LAYER
  2
CSLAYER4
 70
    64
 62
     7
  6
CONTINUOUS
  0
LAYER
  2
CSLAYER5
 70
    64
 62
     7
  6
CONTINUOUS
  0
LAYER
  2
CSLAYER6
 70
    64
 62
     7
  6
CONTINUOUS
  0
LAYER
  2
CSLAYER7
 70
    64
 62
     7
  6
CONTINUOUS
  0
LAYER
  2
CSLAYER8
 70
    64
 62
     7
  6
CONTINUOUS
  0
LAYER
  2
CSLAYER9
 70
    64
 62
     7
  6
CONTINUOUS
  0
LAYER
  2
CSLAYER10
 70
    64
 62
     7
  6
CONTINUOUS
  0
LAYER
  2
CSLAYER11
 70
    64
 62
     7
  6
CONTINUOUS
  0
LAYER
  2
CSLAYER12
 70
    64
 62
     7
  6
CONTINUOUS
  0
LAYER
  2
CSLAYER13
 70
    64
 62
     7
  6
CONTINUOUS
  0
LAYER
  2
CSLAYER14
 70
    64
 62
     7
  6
CONTINUOUS
  0
LAYER
  2
CSLAYER15
 70
    64
 62
     7
  6
CONTINUOUS
  0
LAYER
  2
CSLAYER16
 70
    64
 62
     7
  6
CONTINUOUS
  0
ENDTAB
  0
TABLE
  2
STYLE
 70
     1
  0
STYLE
  2
EASYDRAW_FONT
 70
     0
 40
1.0
 41
1.0
 50
0.0
 71
     0
 42
1.0
  3
monotxt
  4
bigfont
  0
ENDTAB
  0
TABLE
  2
VIEW
 70
     0
  0
ENDTAB
  0
ENDSEC
  0
SECTION
  2
BLOCKS
  0
BLOCK
  8
CSLAYER1
  2
*D0000
 70
    65
 10
0.0
 20
0.0
 30
0.0
  0
TEXT
  8
CSLAYER1
 62
     7
 10
2169.537842
 20
422.035187
 40
40.000000
 41
0.843750
  1
155
 50
90.000000
 51
0.000000
  7
EASYDRAW_FONT
 72
     5
 11
2169.537842
 21
512.035187
  0
LINE
  8
CSLAYER1
  6
CONTINUOUS
 62
     5
 10
2045.798115
 20
389.535046
 11
2292.131014
 21
389.535046
  0
LINE
  8
CSLAYER1
  6
CONTINUOUS
 62
     5
 10
2045.598115
 20
544.535046
 11
2189.537807
 21
544.535046
  0
LINE
  8
CSLAYER1
  6
CONTINUOUS
 62
     5
 10
2179.537807
 20
389.535046
 11
2179.537807
 21
544.535046
  0
LINE
  8
CSLAYER1
  6
CONTINUOUS
 62
     5
 10
2179.537807
 20
389.535046
 11
2171.773235
 21
418.512821
  0
LINE
  8
CSLAYER1
  6
CONTINUOUS
 62
     5
 10
2179.537807
 20
389.535046
 11
2187.302378
 21
418.512821
  0
LINE
  8
CSLAYER1
  6
CONTINUOUS
 62
     5
 10
2179.537807
 20
544.535046
 11
2171.773235
 21
515.557271
  0
LINE
  8
CSLAYER1
  6
CONTINUOUS
 62
     5
 10
2179.537807
 20
544.535046
 11
2187.302378
 21
515.557271
  0
ENDBLK
  8
0
  0
BLOCK
  8
CSLAYER1
  2
*D0001
 70
    65
 10
0.0
 20
0.0
 30
0.0
  0
TEXT
  8
CSLAYER1
 62
     7
 10
2169.537842
 20
778.578125
 40
40.000000
 41
0.843750
  1
545
 50
90.000000
 51
0.000000
  7
EASYDRAW_FONT
 72
     5
 11
2169.537842
 21
868.578125
  0
LINE
  8
CSLAYER1
  6
CONTINUOUS
 62
     5
 10
2045.598115
 20
1102.621070
 11
2292.131014
 21
1102.621070
  0
LINE
  8
CSLAYER1
  6
CONTINUOUS
 62
     5
 10
2179.537807
 20
544.535046
 11
2179.537807
 21
1102.621070
  0
LINE
  8
CSLAYER1
  6
CONTINUOUS
 62
     5
 10
2179.537807
 20
544.535046
 11
2171.773235
 21
573.512821
  0
LINE
  8
CSLAYER1
  6
CONTINUOUS
 62
     5
 10
2179.537807
 20
544.535046
 11
2187.302378
 21
573.512821
  0
LINE
  8
CSLAYER1
  6
CONTINUOUS
 62
     5
 10
2179.537807
 20
1102.621070
 11
2171.773235
 21
1073.643295
  0
LINE
  8
CSLAYER1
  6
CONTINUOUS
 62
     5
 10
2179.537807
 20
1102.621070
 11
2187.302378
 21
1073.643295
  0
ENDBLK
  8
0
  0
BLOCK
  8
CSLAYER1
  2
*D0002
 70
    65
 10
0.0
 20
0.0
 30
0.0
  0
TEXT
  8
CSLAYER1
 62
     7
 10
2272.131104
 20
701.078125
 40
40.000000
 41
0.843750
  1
700
 50
90.000000
 51
0.000000
  7
EASYDRAW_FONT
 72
     5
 11
2272.131104
 21
791.078125
  0
LINE
  8
CSLAYER1
  6
CONTINUOUS
 62
     5
 10
2282.131014
 20
389.535046
 11
2282.131014
 21
1102.621070
  0
LINE
  8
CSLAYER1
  6
CONTINUOUS
 62
     5
 10
2282.131014
 20
389.535046
 11
2274.366443
 21
418.512821
  0
LINE
  8
CSLAYER1
  6
CONTINUOUS
 62
     5
 10
2282.131014
 20
389.535046
 11
2289.895585
 21
418.512821
  0
LINE
  8
CSLAYER1
  6
CONTINUOUS
 62
     5
 10
2282.131014
 20
1102.621070
 11
2274.366443
 21
1073.643295
  0
LINE
  8
CSLAYER1
  6
CONTINUOUS
 62
     5
 10
2282.131014
 20
1102.621070
 11
2289.895585
 21
1073.643295
  0
ENDBLK
  8
0
  0
BLOCK
  8
CSLAYER1
  2
*D0003
 70
    65
 10
0.0
 20
0.0
 30
0.0
  0
TEXT
  8
CSLAYER1
 62
     7
 10
1540.798096
 20
284.437286
 40
40.000000
 41
0.843750
  1
900
 50
0.000000
 51
0.000000
  7
EASYDRAW_FONT
 72
     5
 11
1630.798096
 21
284.437286
  0
LINE
  8
CSLAYER1
  6
CONTINUOUS
 62
     5
 10
1135.798115
 20
379.535046
 11
1135.798115
 21
264.437337
  0
LINE
  8
CSLAYER1
  6
CONTINUOUS
 62
     5
 10
2035.798115
 20
379.535046
 11
2035.798115
 21
264.437337
  0
LINE
  8
CSLAYER1
  6
CONTINUOUS
 62
     5
 10
1135.798115
 20
274.437337
 11
2035.798115
 21
274.437337
  0
LINE
  8
CSLAYER1
  6
CONTINUOUS
 62
     5
 10
1135.798115
 20
274.437337
 11
1164.775890
 21
282.201908
  0
LINE
  8
CSLAYER1
  6
CONTINUOUS
 62
     5
 10
1135.798115
 20
274.437337
 11
1164.775890
 21
266.672765
  0
LINE
  8
CSLAYER1
  6
CONTINUOUS
 62
     5
 10
2035.798115
 20
274.437337
 11
2006.820340
 21
282.201908
  0
LINE
  8
CSLAYER1
  6
CONTINUOUS
 62
     5
 10
2035.798115
 20
274.437337
 11
2006.820340
 21
266.672765
  0
ENDBLK
  8
0
  0
BLOCK
  8
CSLAYER1
  2
*D0004
 70
    65
 10
0.0
 20
0.0
 30
0.0
  0
TEXT
  8
CSLAYER1
 62
     7
 10
420.352692
 20
284.437286
 40
40.000000
 41
0.843750
  1
400
 50
0.000000
 51
0.000000
  7
EASYDRAW_FONT
 72
     5
 11
510.352692
 21
284.437286
  0
LINE
  8
CSLAYER1
  6
CONTINUOUS
 62
     5
 10
265.352689
 20
379.535046
 11
265.352689
 21
264.437337
  0
LINE
  8
CSLAYER1
  6
CONTINUOUS
 62
     5
 10
665.352689
 20
379.535046
 11
665.352689
 21
264.437337
  0
LINE
  8
CSLAYER1
  6
CONTINUOUS
 62
     5
 10
265.352689
 20
274.437337
 11
665.352689
 21
274.437337
  0
LINE
  8
CSLAYER1
  6
CONTINUOUS
 62
     5
 10
265.352689
 20
274.437337
 11
294.330464
 21
282.201908
  0
LINE
  8
CSLAYER1
  6
CONTINUOUS
 62
     5
 10
265.352689
 20
274.437337
 11
294.330464
 21
266.672765
  0
LINE
  8
CSLAYER1
  6
CONTINUOUS
 62
     5
 10
665.352689
 20
274.437337
 11
636.374915
 21
282.201908
  0
LINE
  8
CSLAYER1
  6
CONTINUOUS
 62
     5
 10
665.352689
 20
274.437337
 11
636.374915
 21
266.672765
  0
ENDBLK
  8
0
  0
BLOCK
  8
CSLAYER1
  2
*D0005
 70
    65
 10
0.0
 20
0.0
 30
0.0
  0
TEXT
  8
CSLAYER1
 62
     7
 10
1028.309692
 20
1812.927002
 40
40.000000
 41
0.843750
  1
500
 50
90.000000
 51
0.000000
  7
EASYDRAW_FONT
 72
     5
 11
1028.309692
 21
1902.927002
  0
LINE
  8
CSLAYER1
  6
CONTINUOUS
 62
     5
 10
1125.598115
 20
1607.927116
 11
1028.309753
 21
1607.927116
  0
LINE
  8
CSLAYER1
  6
CONTINUOUS
 62
     5
 10
1125.598115
 20
2107.927116
 11
1028.309753
 21
2107.927116
  0
LINE
  8
CSLAYER1
  6
CONTINUOUS
 62
     5
 10
1038.309753
 20
1607.927116
 11
1038.309753
 21
2107.927116
  0
LINE
  8
CSLAYER1
  6
CONTINUOUS
 62
     5
 10
1038.309753
 20
1607.927116
 11
1030.545181
 21
1636.904891
  0
LINE
  8
CSLAYER1
  6
CONTINUOUS
 62
     5
 10
1038.309753
 20
1607.927116
 11
1046.074324
 21
1636.904891
  0
LINE
  8
CSLAYER1
  6
CONTINUOUS
 62
     5
 10
1038.309753
 20
2107.927116
 11
1030.545181
 21
2078.949342
  0
LINE
  8
CSLAYER1
  6
CONTINUOUS
 62
     5
 10
1038.309753
 20
2107.927116
 11
1046.074324
 21
2078.949342
  0
ENDBLK
  8
0
  0
BLOCK
  8
CSLAYER1
  2
*D0006
 70
    65
 10
0.0
 20
0.0
 30
0.0
  0
TEXT
  8
CSLAYER1
 62
     7
 10
1540.598022
 20
1513.849365
 40
40.000000
 41
0.843750
  1
900
 50
0.000000
 51
0.000000
  7
EASYDRAW_FONT
 72
     5
 11
1630.598022
 21
1513.849365
  0
LINE
  8
CSLAYER1
  6
CONTINUOUS
 62
     5
 10
1135.598115
 20
1597.927116
 11
1135.598115
 21
1493.849271
  0
LINE
  8
CSLAYER1
  6
CONTINUOUS
 62
     5
 10
2035.598115
 20
1597.927116
 11
2035.598115
 21
1493.849271
  0
LINE
  8
CSLAYER1
  6
CONTINUOUS
 62
     5
 10
1135.598115
 20
1503.849271
 11
2035.598115
 21
1503.849271
  0
LINE
  8
CSLAYER1
  6
CONTINUOUS
 62
     5
 10
1135.598115
 20
1503.849271
 11
1164.575890
 21
1511.613842
  0
LINE
  8
CSLAYER1
  6
CONTINUOUS
 62
     5
 10
1135.598115
 20
1503.849271
 11
1164.575890
 21
1496.084699
  0
LINE
  8
CSLAYER1
  6
CONTINUOUS
 62
     5
 10
2035.598115
 20
1503.849271
 11
2006.620340
 21
1511.613842
  0
LINE
  8
CSLAYER1
  6
CONTINUOUS
 62
     5
 10
2035.598115
 20
1503.849271
 11
2006.620340
 21
1496.084699
  0
ENDBLK
  8
0
  0
BLOCK
  8
CSLAYER1
  2
BLKF0000
 70
   64
 10
0.0
 20
0.0
 30
0.0
  0
ARC
  8
CSLAYER1
  6
CONTINUOUS
 62
     5
 10
2781.909508
 20
79.335220
 40
3.549225
 50
6.429109
 51
73.182034
  0
ARC
  8
CSLAYER1
  6
CONTINUOUS
 62
     5
 10
2778.448538
 20
78.176827
 40
6.907754
 50
310.517970
 51
330.092764
  0
ARC
  8
CSLAYER1
  6
CONTINUOUS
 62
     5
 10
2778.387888
 20
78.542345
 40
7.148321
 50
-32.205059
 51
9.585194
  0
ARC
  8
CSLAYER1
  6
CONTINUOUS
 62
     5
 10
2781.680616
 20
75.781346
 40
4.767514
 50
180.000000
 51
218.514150
  0
ARC
  8
CSLAYER1
  6
CONTINUOUS
 62
     5
 10
2780.393895
 20
75.104206
 40
3.348282
 50
222.781148
 51
319.406906
  0
ARC
  8
CSLAYER1
  6
CONTINUOUS
 62
     5
 10
2783.459537
 20
76.194099
 40
6.559434
 50
94.574282
 51
183.607718
  0
LINE
  8
CSLAYER1
  6
CONTINUOUS
 62
     5
 10
2796.903443
 20
71.077266
 11
2796.046407
 21
68.038683
  0
LINE
  8
CSLAYER1
  6
CONTINUOUS
 62
     5
 10
2798.695428
 20
90.944924
 11
2796.591794
 21
93.671857
  0
LINE
  8
CSLAYER1
  6
CONTINUOUS
 62
     5
 10
2796.591794
 20
93.671857
 11
2789.838440
 21
97.429769
  0
LINE
  8
CSLAYER1
  6
CONTINUOUS
 62
     5
 10
2789.838440
 20
97.429769
 11
2782.936412
 21
98.232640
  0
LINE
  8
CSLAYER1
  6
CONTINUOUS
 62
     5
 10
2764.647187
 20
84.853966
 11
2766.793881
 21
89.818197
  0
LINE
  8
CSLAYER1
  6
CONTINUOUS
 62
     5
 10
2766.756884
 20
89.732640
 11
2768.940576
 21
92.367396
  0
LINE
  8
CSLAYER1
  6
CONTINUOUS
 62
     5
 10
2768.940576
 20
92.367396
 11
2772.244998
 21
94.732640
  0
LINE
  8
CSLAYER1
  6
CONTINUOUS
 62
     5
 10
2782.936412
 20
98.232640
 11
2781.418237
 21
97.465795
  0
LINE
  8
CSLAYER1
  6
CONTINUOUS
 62
     5
 10
2781.418237
 20
97.465795
 11
2777.929858
 21
97.465795
  0
LINE
  8
CSLAYER1
  6
CONTINUOUS
 62
     5
 10
2777.929858
 20
97.465795
 11
2774.374396
 21
95.520354
  0
LINE
  8
CSLAYER1
  6
CONTINUOUS
 62
     5
 10
2774.374396
 20
95.520354
 11
2772.244998
 21
94.732640
  0
LINE
  8
CSLAYER1
  6
CONTINUOUS
 62
     5
 10
2764.647187
 20
84.853966
 11
2763.129640
 21
77.305363
  0
LINE
  8
CSLAYER1
  6
CONTINUOUS
 62
     5
 10
2763.129640
 20
77.305363
 11
2762.936412
 21
74.732640
  0
LINE
  8
CSLAYER1
  6
CONTINUOUS
 62
     5
 10
2765.645795
 20
66.892857
 11
2762.936412
 21
72.988969
  0
LINE
  8
CSLAYER1
  6
CONTINUOUS
 62
     5
 10
2762.936412
 20
72.988969
 11
2762.936412
 21
74.732640
  0
LINE
  8
CSLAYER1
  6
CONTINUOUS
 62
     5
 10
2796.046407
 20
68.038683
 11
2794.360620
 21
65.035677
  0
LINE
  8
CSLAYER1
  6
CONTINUOUS
 62
     5
 10
2794.360620
 20
65.035677
 11
2792.936412
 21
63.716966
  0
ARC
  8
CSLAYER1
  6
CONTINUOUS
 62
     5
 10
2780.744468
 20
75.269400
 40
17.266626
 50
208.054813
 51
260.640470
  0
ARC
  8
CSLAYER1
  6
CONTINUOUS
 62
     5
 10
2775.551072
 20
88.011870
 40
29.874611
 50
274.579659
 51
305.587364
  0
ARC
  8
CSLAYER1
  6
CONTINUOUS
 62
     5
 10
2786.523421
 20
82.028147
 40
15.088627
 50
313.467013
 51
331.085078
  0
LINE
  8
CSLAYER1
  6
CONTINUOUS
 62
     5
 10
2801.314754
 20
78.246061
 11
2801.612048
 21
82.028147
  0
LINE
  8
CSLAYER1
  6
CONTINUOUS
 62
     5
 10
2801.612048
 20
82.028147
 11
2800.320051
 21
88.137130
  0
LINE
  8
CSLAYER1
  6
CONTINUOUS
 62
     5
 10
2801.314754
 20
78.246061
 11
2799.731079
 21
74.732640
  0
ARC
  8
CSLAYER1
  6
CONTINUOUS
 62
     5
 10
2786.523421
 20
82.028147
 40
15.088627
 50
23.883193
 51
36.225170
  0
LINE
  8
CSLAYER1
  6
CONTINUOUS
 62
     5
 10
2746.936412
 20
109.732640
 11
2747.936412
 21
110.825284
  0
LINE
  8
CSLAYER1
  6
CONTINUOUS
 62
     5
 10
2746.936412
 20
109.732640
 11
2748.513370
 21
108.287607
  0
LINE
  8
CSLAYER1
  6
CONTINUOUS
 62
     5
 10
2750.052583
 20
106.178315
 11
2750.078851
 21
104.010196
  0
LINE
  8
CSLAYER1
  6
CONTINUOUS
 62
     5
 10
2750.078851
 20
104.010196
 11
2750.286249
 21
103.249737
  0
LINE
  8
CSLAYER1
  6
CONTINUOUS
 62
     5
 10
2750.286249
 20
103.249737
 11
2750.873877
 21
102.523844
  0
LINE
  8
CSLAYER1
  6
CONTINUOUS
 62
     5
 10
2750.873877
 20
102.523844
 11
2751.461504
 21
102.592977
  0
LINE
  8
CSLAYER1
  6
CONTINUOUS
 62
     5
 10
2751.461504
 20
102.592977
 11
2752.083698
 21
102.765808
  0
LINE
  8
CSLAYER1
  6
CONTINUOUS
 62
     5
 10
2752.083698
 20
102.765808
 11
2752.498494
 21
102.592977
  0
LINE
  8
CSLAYER1
  6
CONTINUOUS
 62
     5
 10
2752.498494
 20
102.592977
 11
2753.397219
 21
102.143614
  0
LINE
  8
CSLAYER1
  6
CONTINUOUS
 62
     5
 10
2753.397219
 20
102.143614
 11
2754.173270
 21
101.732640
  0
LINE
  8
CSLAYER1
  6
CONTINUOUS
 62
     5
 10
2754.173270
 20
101.732640
 11
2754.676173
 21
101.763385
  0
LINE
  8
CSLAYER1
  6
CONTINUOUS
 62
     5
 10
2754.676173
 20
101.763385
 11
2757.484045
 21
103.209864
  0
LINE
  8
CSLAYER1
  6
CONTINUOUS
 62
     5
 10
2747.936412
 20
110.825284
 11
2748.269264
 21
112.298991
  0
LINE
  8
CSLAYER1
  6
CONTINUOUS
 62
     5
 10
2748.269264
 20
112.298991
 11
2749.722669
 21
112.449344
  0
LINE
  8
CSLAYER1
  6
CONTINUOUS
 62
     5
 10
2751.216428
 20
115.217802
 11
2752.970601
 21
115.374892
  0
LINE
  8
CSLAYER1
  6
CONTINUOUS
 62
     5
 10
2752.970601
 20
115.374892
 11
2756.505128
 21
116.212706
  0
LINE
  8
CSLAYER1
  6
CONTINUOUS
 62
     5
 10
2756.505128
 20
116.212706
 11
2757.936412
 21
116.544345
  0
LINE
  8
CSLAYER1
  6
CONTINUOUS
 62
     5
 10
2751.216428
 20
115.217802
 11
2749.283537
 21
115.376670
  0
LINE
  8
CSLAYER1
  6
CONTINUOUS
 62
     5
 10
2748.547414
 20
114.507983
 11
2748.640939
 21
114.136822
  0
LINE
  8
CSLAYER1
  6
CONTINUOUS
 62
     5
 10
2748.640939
 20
114.136822
 11
2749.132533
 21
113.599141
  0
LINE
  8
CSLAYER1
  6
CONTINUOUS
 62
     5
 10
2749.132533
 20
113.599141
 11
2749.808475
 21
113.092184
  0
LINE
  8
CSLAYER1
  6
CONTINUOUS
 62
     5
 10
2749.808475
 20
113.092184
 11
2749.931800
 21
112.927751
  0
LINE
  8
CSLAYER1
  6
CONTINUOUS
 62
     5
 10
2748.513370
 20
108.287607
 11
2750.052583
 21
106.178315
  0
ARC
  8
CSLAYER1
  6
CONTINUOUS
 62
     5
 10
2792.923113
 20
-61.926013
 40
180.727463
 50
80.438896
 51
96.353582
  0
ARC
  8
CSLAYER1
  6
CONTINUOUS
 62
     5
 10
2768.024200
 20
83.321887
 40
34.720242
 50
81.866516
 51
106.890578
  0
LINE
  8
CSLAYER1
  6
CONTINUOUS
 62
     5
 10
2827.130674
 20
115.499310
 11
2829.377756
 21
114.477909
  0
LINE
  8
CSLAYER1
  6
CONTINUOUS
 62
     5
 10
2832.952661
 20
112.894737
 11
2829.377756
 21
114.477909
  0
LINE
  8
CSLAYER1
  6
CONTINUOUS
 62
     5
 10
2827.130674
 20
115.499310
 11
2822.936412
 21
116.291881
  0
LINE
  8
CSLAYER1
  6
CONTINUOUS
 62
     5
 10
2832.936412
 20
112.901933
 11
2834.807988
 21
111.333456
  0
LINE
  8
CSLAYER1
  6
CONTINUOUS
 62
     5
 10
2816.179668
 20
113.938783
 11
2817.078943
 21
115.391458
  0
LINE
  8
CSLAYER1
  6
CONTINUOUS
 62
     5
 10
2817.078943
 20
115.391458
 11
2821.754542
 21
114.271949
  0
LINE
  8
CSLAYER1
  6
CONTINUOUS
 62
     5
 10
2821.754542
 20
114.271949
 11
2838.496928
 21
109.732640
  0
LINE
  8
CSLAYER1
  6
CONTINUOUS
 62
     5
 10
2841.436412
 20
109.732640
 11
2834.807988
 21
111.333456
  0
LINE
  8
CSLAYER1
  6
CONTINUOUS
 62
     5
 10
2838.496928
 20
109.732640
 11
2841.436412
 21
109.732640
  0
LINE
  8
CSLAYER1
  6
CONTINUOUS
 62
     5
 10
2782.936412
 20
114.197581
 11
2802.936412
 21
114.732640
  0
LINE
  8
CSLAYER1
  6
CONTINUOUS
 62
     5
 10
2802.936412
 20
114.732640
 11
2816.179668
 21
113.938783
  0
LINE
  8
CSLAYER1
  6
CONTINUOUS
 62
     5
 10
2817.782649
 20
111.878304
 11
2802.936412
 21
113.232640
  0
LINE
  8
CSLAYER1
  6
CONTINUOUS
 62
     5
 10
2802.936412
 20
113.232640
 11
2787.887203
 21
113.641292
  0
LINE
  8
CSLAYER1
  6
CONTINUOUS
 62
     5
 10
2787.936412
 20
113.639956
 11
2782.936412
 21
113.735249
  0
LINE
  8
CSLAYER1
  6
CONTINUOUS
 62
     5
 10
2782.936412
 20
114.197581
 11
2782.936412
 21
113.735249
  0
LINE
  8
CSLAYER1
  6
CONTINUOUS
 62
     5
 10
2840.436412
 20
106.232640
 11
2831.593854
 21
108.543302
  0
LINE
  8
CSLAYER1
  6
CONTINUOUS
 62
     5
 10
2817.782649
 20
111.878304
 11
2827.936412
 21
109.905920
  0
LINE
  8
CSLAYER1
  6
CONTINUOUS
 62
     5
 10
2827.936412
 20
109.905920
 11
2831.593854
 21
108.543302
  0
LINE
  8
CSLAYER1
  6
CONTINUOUS
 62
     5
 10
2840.436412
 20
106.232640
 11
2840.143795
 21
105.393534
  0
LINE
  8
CSLAYER1
  6
CONTINUOUS
 62
     5
 10
2849.936412
 20
100.732640
 11
2849.630385
 21
101.961621
  0
LINE
  8
CSLAYER1
  6
CONTINUOUS
 62
     5
 10
2840.143795
 20
105.393534
 11
2849.630385
 21
101.961621
  0
LINE
  8
CSLAYER1
  6
CONTINUOUS
 62
     5
 10
2786.436412
 20
106.232640
 11
2788.859450
 21
106.232640
  0
LINE
  8
CSLAYER1
  6
CONTINUOUS
 62
     5
 10
2808.936412
 20
106.665135
 11
2808.936412
 21
106.232640
  0
LINE
  8
CSLAYER1
  6
CONTINUOUS
 62
     5
 10
2807.936412
 20
107.199576
 11
2806.225133
 21
107.836755
  0
LINE
  8
CSLAYER1
  6
CONTINUOUS
 62
     5
 10
2806.225133
 20
107.836755
 11
2805.115077
 21
107.887212
  0
LINE
  8
CSLAYER1
  6
CONTINUOUS
 62
     5
 10
2805.115077
 20
107.887212
 11
2804.635735
 21
107.634926
  0
LINE
  8
CSLAYER1
  6
CONTINUOUS
 62
     5
 10
2804.635735
 20
107.634926
 11
2804.534821
 21
107.231270
  0
LINE
  8
CSLAYER1
  6
CONTINUOUS
 62
     5
 10
2804.534821
 20
107.231270
 11
2804.988934
 21
106.928527
  0
LINE
  8
CSLAYER1
  6
CONTINUOUS
 62
     5
 10
2804.988934
 20
106.928527
 11
2806.628790
 21
106.777156
  0
LINE
  8
CSLAYER1
  6
CONTINUOUS
 62
     5
 10
2806.628790
 20
106.777156
 11
2808.936412
 21
106.665135
  0
LINE
  8
CSLAYER1
  6
CONTINUOUS
 62
     5
 10
2849.936412
 20
100.732640
 11
2846.960870
 21
101.919221
  0
LINE
  8
CSLAYER1
  6
CONTINUOUS
 62
     5
 10
2846.960870
 20
101.919221
 11
2836.905180
 21
103.762097
  0
LINE
  8
CSLAYER1
  6
CONTINUOUS
 62
     5
 10
2836.905180
 20
103.762097
 11
2831.879400
 21
104.921892
  0
LINE
  8
CSLAYER1
  6
CONTINUOUS
 62
     5
 10
2809.470633
 20
107.232640
 11
2821.236299
 21
107.232640
  0
LINE
  8
CSLAYER1
  6
CONTINUOUS
 62
     5
 10
2807.936412
 20
107.199576
 11
2808.461072
 21
106.891109
  0
LINE
  8
CSLAYER1
  6
CONTINUOUS
 62
     5
 10
2808.461072
 20
106.891109
 11
2808.757884
 21
106.802065
  0
LINE
  8
CSLAYER1
  6
CONTINUOUS
 62
     5
 10
2808.757884
 20
106.802065
 11
2808.936412
 21
106.827236
  0
LINE
  8
CSLAYER1
  6
CONTINUOUS
 62
     5
 10
2808.936412
 20
106.827236
 11
2809.470633
 21
107.232640
  0
LINE
  8
CSLAYER1
  6
CONTINUOUS
 62
     5
 10
2821.236299
 20
107.232640
 11
2825.686568
 21
106.203814
  0
LINE
  8
CSLAYER1
  6
CONTINUOUS
 62
     5
 10
2825.686568
 20
106.203814
 11
2829.839760
 21
105.038665
  0
LINE
  8
CSLAYER1
  6
CONTINUOUS
 62
     5
 10
2829.839760
 20
105.038665
 11
2831.879400
 21
104.921892
  0
LINE
  8
CSLAYER1
  6
CONTINUOUS
 62
     5
 10
2785.436412
 20
105.232640
 11
2785.436412
 21
104.732640
  0
LINE
  8
CSLAYER1
  6
CONTINUOUS
 62
     5
 10
2782.936412
 20
104.732640
 11
2785.436412
 21
104.732640
  0
ARC
  8
CSLAYER1
  6
CONTINUOUS
 62
     5
 10
2786.436412
 20
105.232640
 40
1.000000
 50
90.000000
 51
180.000000
  0
LINE
  8
CSLAYER1
  6
CONTINUOUS
 62
     5
 10
2788.859450
 20
106.232640
 11
2789.557007
 21
105.660643
  0
LINE
  8
CSLAYER1
  6
CONTINUOUS
 62
     5
 10
2790.159375
 20
105.636683
 11
2791.016972
 21
106.232640
  0
LINE
  8
CSLAYER1
  6
CONTINUOUS
 62
     5
 10
2792.595368
 20
106.232640
 11
2794.262494
 21
105.574564
  0
LINE
  8
CSLAYER1
  6
CONTINUOUS
 62
     5
 10
2794.686203
 20
105.601076
 11
2795.839690
 21
106.232640
  0
LINE
  8
CSLAYER1
  6
CONTINUOUS
 62
     5
 10
2791.016972
 20
106.232640
 11
2792.595368
 21
106.232640
  0
LINE
  8
CSLAYER1
  6
CONTINUOUS
 62
     5
 10
2795.839690
 20
106.232640
 11
2808.936412
 21
106.232640
  0
LINE
  8
CSLAYER1
  6
CONTINUOUS
 62
     5
 10
2761.485395
 20
103.123813
 11
2782.936412
 21
104.732640
  0
LINE
  8
CSLAYER1
  6
CONTINUOUS
 62
     5
 10
2757.484045
 20
103.209864
 11
2761.485395
 21
103.123813
  0
ARC
  8
CSLAYER1
  6
CONTINUOUS
 62
     5
 10
2789.874047
 20
106.047277
 40
0.500000
 50
230.648247
 51
304.796026
  0
ARC
  8
CSLAYER1
  6
CONTINUOUS
 62
     5
 10
2794.446077
 20
106.039642
 40
0.500000
 50
248.459024
 51
298.701829
  0
ARC
  8
CSLAYER1
  6
CONTINUOUS
 62
     5
 10
2749.691800
 20
112.747751
 40
0.300000
 50
-84.093859
 51
36.869898
  0
ARC
  8
CSLAYER1
  6
CONTINUOUS
 62
     5
 10
2749.226196
 20
114.679023
 40
0.700000
 50
85.301319
 51
194.142980
  0
LINE
  8
CSLAYER1
  6
CONTINUOUS
 62
     3
 10
2781.418237
 20
97.465795
 11
2789.528732
 21
97.465795
  0
LINE
  8
CSLAYER1
  6
CONTINUOUS
 62
     3
 10
2775.005720
 20
95.865795
 11
2792.649061
 21
95.865795
  0
LINE
  8
CSLAYER1
  6
CONTINUOUS
 62
     3
 10
2771.592781
 20
94.265795
 11
2795.524426
 21
94.265795
  0
LINE
  8
CSLAYER1
  6
CONTINUOUS
 62
     3
 10
2769.357462
 20
92.665795
 11
2797.367899
 21
92.665795
  0
LINE
  8
CSLAYER1
  6
CONTINUOUS
 62
     3
 10
2767.861806
 20
91.065795
 11
2798.602184
 21
91.065795
  0
LINE
  8
CSLAYER1
  6
CONTINUOUS
 62
     3
 10
2766.641492
 20
89.465795
 11
2799.651561
 21
89.465795
  0
LINE
  8
CSLAYER1
  6
CONTINUOUS
 62
     3
 10
2765.949600
 20
87.865795
 11
2800.377436
 21
87.865795
  0
LINE
  8
CSLAYER1
  6
CONTINUOUS
 62
     3
 10
2765.257708
 20
86.265795
 11
2800.715822
 21
86.265795
  0
LINE
  8
CSLAYER1
  6
CONTINUOUS
 62
     3
 10
2764.609358
 20
84.665795
 11
2801.054208
 21
84.665795
  0
LINE
  8
CSLAYER1
  6
CONTINUOUS
 62
     3
 10
2764.287699
 20
83.065795
 11
2801.392594
 21
83.065795
  0
LINE
  8
CSLAYER1
  6
CONTINUOUS
 62
     3
 10
2763.966040
 20
81.465795
 11
2779.556283
 21
81.465795
  0
LINE
  8
CSLAYER1
  6
CONTINUOUS
 62
     3
 10
2763.644381
 20
79.865795
 11
2778.024022
 21
79.865795
  0
LINE
  8
CSLAYER1
  6
CONTINUOUS
 62
     3
 10
2763.322722
 20
78.265795
 11
2777.235852
 21
78.265795
  0
LINE
  8
CSLAYER1
  6
CONTINUOUS
 62
     3
 10
2763.081604
 20
76.665795
 11
2776.917085
 21
76.665795
  0
LINE
  8
CSLAYER1
  6
CONTINUOUS
 62
     3
 10
2762.961434
 20
75.065795
 11
2776.967106
 21
75.065795
  0
LINE
  8
CSLAYER1
  6
CONTINUOUS
 62
     3
 10
2762.936412
 20
73.465795
 11
2777.513193
 21
73.465795
  0
LINE
  8
CSLAYER1
  6
CONTINUOUS
 62
     3
 10
2763.435600
 20
71.865795
 11
2779.543195
 21
71.865795
  0
LINE
  8
CSLAYER1
  6
CONTINUOUS
 62
     3
 10
2764.146711
 20
70.265795
 11
2796.674567
 21
70.265795
  0
LINE
  8
CSLAYER1
  6
CONTINUOUS
 62
     3
 10
2764.857823
 20
68.665795
 11
2796.223285
 21
68.665795
  0
LINE
  8
CSLAYER1
  6
CONTINUOUS
 62
     3
 10
2765.568934
 20
67.065795
 11
2795.500261
 21
67.065795
  0
LINE
  8
CSLAYER1
  6
CONTINUOUS
 62
     3
 10
2766.530893
 20
65.465795
 11
2794.602074
 21
65.465795
  0
LINE
  8
CSLAYER1
  6
CONTINUOUS
 62
     3
 10
2767.779354
 20
63.865795
 11
2793.097148
 21
63.865795
  0
LINE
  8
CSLAYER1
  6
CONTINUOUS
 62
     3
 10
2769.384774
 20
62.265795
 11
2790.704687
 21
62.265795
  0
LINE
  8
CSLAYER1
  6
CONTINUOUS
 62
     3
 10
2771.531916
 20
60.665795
 11
2787.579564
 21
60.665795
  0
LINE
  8
CSLAYER1
  6
CONTINUOUS
 62
     3
 10
2774.779606
 20
59.065795
 11
2782.941415
 21
59.065795
  0
LINE
  8
CSLAYER1
  6
CONTINUOUS
 62
     3
 10
2784.748107
 20
81.465795
 11
2801.567844
 21
81.465795
  0
LINE
  8
CSLAYER1
  6
CONTINUOUS
 62
     3
 10
2785.418851
 20
79.865795
 11
2801.442074
 21
79.865795
  0
LINE
  8
CSLAYER1
  6
CONTINUOUS
 62
     3
 10
2785.530858
 20
78.265795
 11
2801.316305
 21
78.265795
  0
LINE
  8
CSLAYER1
  6
CONTINUOUS
 62
     3
 10
2785.285501
 20
76.665795
 11
2800.602449
 21
76.665795
  0
LINE
  8
CSLAYER1
  6
CONTINUOUS
 62
     3
 10
2784.633855
 20
75.065795
 11
2799.881249
 21
75.065795
  0
LINE
  8
CSLAYER1
  6
CONTINUOUS
 62
     3
 10
2783.500592
 20
73.465795
 11
2798.947301
 21
73.465795
  0
LINE
  8
CSLAYER1
  6
CONTINUOUS
 62
     3
 10
2781.244595
 20
71.865795
 11
2797.676594
 21
71.865795
  0
TEXT
  8
CSLAYER1
 62
     5
 10
2802.108183
 20
79.476970
 40
4.713448
 41
1.951056
  1
M
 50
0.000000
 51
0.000000
  7
EASYDRAW_FONT
 72
     5
 11
2808.238985
 21
79.476970
  0
TEXT
  8
CSLAYER1
 62
     5
 10
2811.759570
 20
79.418700
 40
4.626621
 41
0.778201
  1
T
 50
0.000000
 51
0.000000
  7
EASYDRAW_FONT
 72
     5
 11
2814.159863
 21
79.418700
  0
TEXT
  8
CSLAYER1
 62
     5
 10
2814.525133
 20
79.453499
 40
4.696183
 41
1.055553
  1
E
 50
0.000000
 51
0.000000
  7
EASYDRAW_FONT
 72
     5
 11
2817.829848
 21
79.453499
  0
TEXT
  8
CSLAYER1
 62
     5
 10
2817.641314
 20
81.069343
 40
0.348283
 41
9.375319
  1
-
 50
0.000000
 51
0.000000
  7
EASYDRAW_FONT
 72
     5
 11
2819.818159
 21
81.069343
  0
TEXT
  8
CSLAYER1
 62
     5
 10
2819.455523
 20
79.422152
 40
4.861659
 41
1.298502
  1
H
 50
0.000000
 51
0.000000
  7
EASYDRAW_FONT
 72
     5
 11
2823.664106
 21
79.422152
  0
TEXT
  8
CSLAYER1
 62
     5
 10
2823.531538
 20
79.452530
 40
4.843139
 41
1.269236
  1
A
 50
0.000000
 51
0.000000
  7
EASYDRAW_FONT
 72
     5
 11
2827.629595
 21
79.452530
  0
TEXT
  8
CSLAYER1
 62
     5
 10
2827.237694
 20
79.411004
 40
4.825362
 41
1.490144
  1
N
 50
0.000000
 51
0.000000
  7
EASYDRAW_FONT
 72
     5
 11
2832.031349
 21
79.411004
  0
TEXT
  8
CSLAYER1
 62
     5
 10
2808.029152
 20
79.388431
 40
4.982325
 41
1.177443
  1
A
 50
0.000000
 51
0.000000
  7
EASYDRAW_FONT
 72
     5
 11
2811.940086
 21
79.388431
  0
TEXT
  8
CSLAYER1
 62
     5
 10
2802.475197
 20
72.393191
 40
4.982325
 41
1.177443
  1
A
 50
0.000000
 51
0.000000
  7
EASYDRAW_FONT
 72
     5
 11
2806.386131
 21
72.393191
  0
TEXT
  8
CSLAYER1
 62
     5
 10
2815.259621
 20
72.421512
 40
4.982325
 41
1.177443
  1
A
 50
0.000000
 51
0.000000
  7
EASYDRAW_FONT
 72
     5
 11
2819.170555
 21
72.421512
  0
TEXT
  8
CSLAYER1
 62
     5
 10
2819.020165
 20
72.478509
 40
4.825362
 41
1.490144
  1
N
 50
0.000000
 51
0.000000
  7
EASYDRAW_FONT
 72
     5
 11
2823.813819
 21
72.478509
  0
TEXT
  8
CSLAYER1
 62
     5
 10
2827.922501
 20
72.486903
 40
4.841775
 41
1.184218
  1
E
 50
0.000000
 51
0.000000
  7
EASYDRAW_FONT
 72
     5
 11
2831.744980
 21
72.486903
  0
TEXT
  8
CSLAYER1
 62
     5
 10
2806.755750
 20
72.391867
 40
4.947865
 41
1.093992
  1
D
 50
0.000000
 51
0.000000
  7
EASYDRAW_FONT
 72
     5
 11
2810.364367
 21
72.391867
  0
TEXT
  8
CSLAYER1
 62
     5
 10
2811.158109
 20
72.386482
 40
4.924210
 41
1.228195
  1
V
 50
0.000000
 51
0.000000
  7
EASYDRAW_FONT
 72
     5
 11
2815.190036
 21
72.386482
  0
TEXT
  8
CSLAYER1
 62
     5
 10
2823.383310
 20
72.407213
 40
5.032894
 41
1.481023
  1
C
 50
0.000000
 51
0.000000
  7
EASYDRAW_FONT
 72
     5
 11
2828.352530
 21
72.407213
  0
LINE
  8
CSLAYER1
  6
CONTINUOUS
 62
     5
 10
2814.013749
 20
83.467612
 11
2813.001687
 21
83.467612
  0
LINE
  8
CSLAYER1
  6
CONTINUOUS
 62
     3
 10
2763.111987
 20
117.692883
 11
2812.909813
 21
117.692883
  0
LINE
  8
CSLAYER1
  6
CONTINUOUS
 62
     3
 10
2755.999623
 20
116.092883
 11
2823.989505
 21
116.092883
  0
LINE
  8
CSLAYER1
  6
CONTINUOUS
 62
     3
 10
2748.551219
 20
114.492883
 11
2793.974529
 21
114.492883
  0
LINE
  8
CSLAYER1
  6
CONTINUOUS
 62
     3
 10
2806.936079
 20
114.492883
 11
2816.522682
 21
114.492883
  0
LINE
  8
CSLAYER1
  6
CONTINUOUS
 62
     3
 10
2820.831816
 20
114.492883
 11
2829.344813
 21
114.492883
  0
LINE
  8
CSLAYER1
  6
CONTINUOUS
 62
     3
 10
2749.954358
 20
112.892883
 11
2806.660827
 21
112.892883
  0
LINE
  8
CSLAYER1
  6
CONTINUOUS
 62
     3
 10
2826.840965
 20
112.892883
 11
2832.947211
 21
112.892883
  0
LINE
  8
CSLAYER1
  6
CONTINUOUS
 62
     3
 10
2748.042024
 20
111.292883
 11
2820.796375
 21
111.292883
  0
LINE
  8
CSLAYER1
  6
CONTINUOUS
 62
     3
 10
2832.742264
 20
111.292883
 11
2834.975986
 21
111.292883
  0
LINE
  8
CSLAYER1
  6
CONTINUOUS
 62
     3
 10
2746.979799
 20
109.692883
 11
2828.508231
 21
109.692883
  0
LINE
  8
CSLAYER1
  6
CONTINUOUS
 62
     3
 10
2748.655466
 20
108.092883
 11
2833.317540
 21
108.092883
  0
LINE
  8
CSLAYER1
  6
CONTINUOUS
 62
     3
 10
2749.823033
 20
106.492883
 11
2808.936412
 21
106.492883
  0
LINE
  8
CSLAYER1
  6
CONTINUOUS
 62
     3
 10
2824.436177
 20
106.492883
 11
2839.440500
 21
106.492883
  0
LINE
  8
CSLAYER1
  6
CONTINUOUS
 62
     3
 10
2750.068157
 20
104.892883
 11
2785.436412
 21
104.892883
  0
LINE
  8
CSLAYER1
  6
CONTINUOUS
 62
     3
 10
2832.005106
 20
104.892883
 11
2841.527709
 21
104.892883
  0
LINE
  8
CSLAYER1
  6
CONTINUOUS
 62
     3
 10
2750.274482
 20
103.292883
 11
2763.739655
 21
103.292883
  0
LINE
  8
CSLAYER1
  6
CONTINUOUS
 62
     3
 10
2839.465455
 20
103.292883
 11
2845.950473
 21
103.292883
  0
LINE
  8
CSLAYER1
  6
CONTINUOUS
 62
     3
 10
2847.528449
 20
101.692883
 11
2849.697303
 21
101.692883
  0
ENDBLK
  8
0
  0
BLOCK
  8
CSLAYER1
  2
BLKF0001
 70
   64
 10
0.0
 20
0.0
 30
0.0
  0
CIRCLE
  8
CSLAYER1
  6
CONTINUOUS
 62
     4
 10
1459.657814
 20
717.978058
 40
12.000000
  0
LINE
  8
CSLAYER1
  6
CONTINUOUS
 62
     4
 10
1466.586018
 20
729.978058
 11
1452.729611
 21
729.978058
  0
LINE
  8
CSLAYER1
  6
CONTINUOUS
 62
     4
 10
1452.729611
 20
729.978058
 11
1445.801408
 21
717.978058
  0
LINE
  8
CSLAYER1
  6
CONTINUOUS
 62
     4
 10
1445.801408
 20
717.978058
 11
1452.729611
 21
705.978058
  0
LINE
  8
CSLAYER1
  6
CONTINUOUS
 62
     4
 10
1452.729611
 20
705.978058
 11
1466.586018
 21
705.978058
  0
LINE
  8
CSLAYER1
  6
CONTINUOUS
 62
     4
 10
1466.586018
 20
705.978058
 11
1473.514221
 21
717.978058
  0
LINE
  8
CSLAYER1
  6
CONTINUOUS
 62
     4
 10
1473.514221
 20
717.978058
 11
1466.586018
 21
729.978058
  0
CIRCLE
  8
CSLAYER1
  6
CONTINUOUS
 62
     5
 10
1459.657814
 20
717.978058
 40
8.000000
  0
CIRCLE
  8
CSLAYER1
  6
CONTINUOUS
 62
     4
 10
1459.657814
 20
717.978058
 40
7.000000
  0
POINT
  8
CSLAYER1
 62
     4
 10
1459.657814
 20
717.978058
  0
ENDBLK
  8
0
  0
BLOCK
  8
CSLAYER1
  2
BLKF0002
 70
   64
 10
0.0
 20
0.0
 30
0.0
  0
LINE
  8
CSLAYER1
  6
CONTINUOUS
 62
     5
 10
624.552689
 20
702.978058
 11
624.552689
 21
732.978058
  0
LINE
  8
CSLAYER1
  6
CONTINUOUS
 62
     4
 10
621.352689
 20
732.978058
 11
624.552689
 21
732.978058
  0
LINE
  8
CSLAYER1
  6
CONTINUOUS
 62
     4
 10
621.352689
 20
702.978058
 11
624.552689
 21
702.978058
  0
LINE
  8
CSLAYER1
  6
CONTINUOUS
 62
     4
 10
621.352689
 20
732.978058
 11
621.352689
 21
702.978058
  0
LINE
  8
CSLAYER1
  6
CONTINUOUS
 62
     4
 10
628.552689
 20
703.978058
 11
628.552689
 21
731.978058
  0
LINE
  8
CSLAYER1
  6
CONTINUOUS
 62
     4
 10
624.552689
 20
703.978058
 11
628.552689
 21
703.978058
  0
LINE
  8
CSLAYER1
  6
CONTINUOUS
 62
     4
 10
624.552689
 20
731.978058
 11
628.552689
 21
731.978058
  0
LINE
  8
CSLAYER1
  6
CONTINUOUS
 62
     4
 10
638.552689
 20
705.978058
 11
638.552689
 21
729.978058
  0
LINE
  8
CSLAYER1
  6
CONTINUOUS
 62
     4
 10
621.352689
 20
732.978058
 11
621.352689
 21
702.978058
  0
LINE
  8
CSLAYER1
  6
CONTINUOUS
 62
     4
 10
624.552689
 20
732.978058
 11
624.552689
 21
702.978058
  0
LINE
  8
CSLAYER1
  6
CONTINUOUS
 62
     4
 10
640.352689
 20
724.978058
 11
640.352689
 21
710.978058
  0
LINE
  8
CSLAYER1
  6
CONTINUOUS
 62
     4
 10
639.352689
 20
709.978058
 11
638.552689
 21
709.978058
  0
LINE
  8
CSLAYER1
  6
CONTINUOUS
 62
     5
 10
640.352689
 20
710.978058
 11
638.552689
 21
710.978058
  0
LINE
  8
CSLAYER1
  6
CONTINUOUS
 62
     4
 10
639.352689
 20
709.978058
 11
640.352689
 21
710.978058
  0
LINE
  8
CSLAYER1
  6
CONTINUOUS
 62
     4
 10
639.352689
 20
709.978058
 11
639.352689
 21
725.978058
  0
LINE
  8
CSLAYER1
  6
CONTINUOUS
 62
     4
 10
628.552689
 20
704.121651
 11
637.480893
 21
704.121651
  0
LINE
  8
CSLAYER1
  6
CONTINUOUS
 62
     4
 10
628.552689
 20
711.049855
 11
637.480893
 21
711.049855
  0
LINE
  8
CSLAYER1
  6
CONTINUOUS
 62
     4
 10
638.552689
 20
705.978058
 11
637.480893
 21
704.121651
  0
ARC
  8
CSLAYER1
  6
CONTINUOUS
 62
     4
 10
615.624486
 20
717.978058
 40
22.928203
 50
342.412046
 51
360.000000
  0
ARC
  8
CSLAYER1
  6
CONTINUOUS
 62
     4
 10
632.708819
 20
707.585753
 40
5.896837
 50
-24.023685
 51
35.976315
  0
LINE
  8
CSLAYER1
  6
CONTINUOUS
 62
     4
 10
638.552689
 20
729.978058
 11
638.552689
 21
705.978058
  0
LINE
  8
CSLAYER1
  6
CONTINUOUS
 62
     3
 10
640.352689
 20
710.978058
 11
640.352689
 21
724.978058
  0
LINE
  8
CSLAYER1
  6
CONTINUOUS
 62
     4
 10
639.352689
 20
725.978058
 11
638.552689
 21
725.978058
  0
LINE
  8
CSLAYER1
  6
CONTINUOUS
 62
     5
 10
640.352689
 20
724.978058
 11
638.552689
 21
724.978058
  0
LINE
  8
CSLAYER1
  6
CONTINUOUS
 62
     4
 10
639.352689
 20
725.978058
 11
640.352689
 21
724.978058
  0
LINE
  8
CSLAYER1
  6
CONTINUOUS
 62
     3
 10
639.352689
 20
725.978058
 11
639.352689
 21
709.978058
  0
LINE
  8
CSLAYER1
  6
CONTINUOUS
 62
     4
 10
628.552689
 20
731.834464
 11
637.480893
 21
731.834464
  0
LINE
  8
CSLAYER1
  6
CONTINUOUS
 62
     4
 10
628.552689
 20
724.906261
 11
637.480893
 21
724.906261
  0
LINE
  8
CSLAYER1
  6
CONTINUOUS
 62
     4
 10
638.552689
 20
729.978058
 11
637.480893
 21
731.834464
  0
ARC
  8
CSLAYER1
  6
CONTINUOUS
 62
     4
 10
615.624486
 20
717.978058
 40
22.928203
 50
0.000000
 51
17.587954
  0
ARC
  8
CSLAYER1
  6
CONTINUOUS
 62
     4
 10
632.708819
 20
728.370363
 40
5.896837
 50
-35.976315
 51
24.023685
  0
LINE
  8
CSLAYER1
  6
CONTINUOUS
 62
     4
 10
624.552689
 20
720.778840
 11
628.552689
 21
715.378840
  0
POINT
  8
CSLAYER1
 62
     7
 10
621.352689
 20
717.978058
  0
ENDBLK
  8
0
  0
BLOCK
  8
CSLAYER1
  2
BLKF0003
 70
   64
 10
0.0
 20
0.0
 30
0.0
  0
LINE
  8
CSLAYER1
  6
CONTINUOUS
 62
     5
 10
306.152689
 20
702.978058
 11
306.152689
 21
732.978058
  0
LINE
  8
CSLAYER1
  6
CONTINUOUS
 62
     4
 10
309.352689
 20
732.978058
 11
306.152689
 21
732.978058
  0
LINE
  8
CSLAYER1
  6
CONTINUOUS
 62
     4
 10
309.352689
 20
702.978058
 11
306.152689
 21
702.978058
  0
LINE
  8
CSLAYER1
  6
CONTINUOUS
 62
     4
 10
309.352689
 20
732.978058
 11
309.352689
 21
702.978058
  0
LINE
  8
CSLAYER1
  6
CONTINUOUS
 62
     4
 10
302.152689
 20
703.978058
 11
302.152689
 21
731.978058
  0
LINE
  8
CSLAYER1
  6
CONTINUOUS
 62
     4
 10
306.152689
 20
703.978058
 11
302.152689
 21
703.978058
  0
LINE
  8
CSLAYER1
  6
CONTINUOUS
 62
     4
 10
306.152689
 20
731.978058
 11
302.152689
 21
731.978058
  0
LINE
  8
CSLAYER1
  6
CONTINUOUS
 62
     4
 10
292.152689
 20
705.978058
 11
292.152689
 21
729.978058
  0
LINE
  8
CSLAYER1
  6
CONTINUOUS
 62
     4
 10
309.352689
 20
732.978058
 11
309.352689
 21
702.978058
  0
LINE
  8
CSLAYER1
  6
CONTINUOUS
 62
     4
 10
306.152689
 20
732.978058
 11
306.152689
 21
702.978058
  0
LINE
  8
CSLAYER1
  6
CONTINUOUS
 62
     4
 10
290.352689
 20
724.978058
 11
290.352689
 21
710.978058
  0
LINE
  8
CSLAYER1
  6
CONTINUOUS
 62
     4
 10
291.352689
 20
709.978058
 11
292.152689
 21
709.978058
  0
LINE
  8
CSLAYER1
  6
CONTINUOUS
 62
     5
 10
290.352689
 20
710.978058
 11
292.152689
 21
710.978058
  0
LINE
  8
CSLAYER1
  6
CONTINUOUS
 62
     4
 10
291.352689
 20
709.978058
 11
290.352689
 21
710.978058
  0
LINE
  8
CSLAYER1
  6
CONTINUOUS
 62
     4
 10
291.352689
 20
709.978058
 11
291.352689
 21
725.978058
  0
LINE
  8
CSLAYER1
  6
CONTINUOUS
 62
     4
 10
302.152689
 20
704.121651
 11
293.224486
 21
704.121651
  0
LINE
  8
CSLAYER1
  6
CONTINUOUS
 62
     4
 10
302.152689
 20
711.049855
 11
293.224486
 21
711.049855
  0
LINE
  8
CSLAYER1
  6
CONTINUOUS
 62
     4
 10
292.152689
 20
705.978058
 11
293.224486
 21
704.121651
  0
ARC
  8
CSLAYER1
  6
CONTINUOUS
 62
     4
 10
315.080893
 20
717.978058
 40
22.928203
 50
180.000000
 51
197.587954
  0
ARC
  8
CSLAYER1
  6
CONTINUOUS
 62
     4
 10
297.996560
 20
707.585753
 40
5.896837
 50
144.023685
 51
204.023685
  0
LINE
  8
CSLAYER1
  6
CONTINUOUS
 62
     4
 10
292.152689
 20
729.978058
 11
292.152689
 21
705.978058
  0
LINE
  8
CSLAYER1
  6
CONTINUOUS
 62
     3
 10
290.352689
 20
710.978058
 11
290.352689
 21
724.978058
  0
LINE
  8
CSLAYER1
  6
CONTINUOUS
 62
     4
 10
291.352689
 20
725.978058
 11
292.152689
 21
725.978058
  0
LINE
  8
CSLAYER1
  6
CONTINUOUS
 62
     5
 10
290.352689
 20
724.978058
 11
292.152689
 21
724.978058
  0
LINE
  8
CSLAYER1
  6
CONTINUOUS
 62
     4
 10
291.352689
 20
725.978058
 11
290.352689
 21
724.978058
  0
LINE
  8
CSLAYER1
  6
CONTINUOUS
 62
     3
 10
291.352689
 20
725.978058
 11
291.352689
 21
709.978058
  0
LINE
  8
CSLAYER1
  6
CONTINUOUS
 62
     4
 10
302.152689
 20
731.834464
 11
293.224486
 21
731.834464
  0
LINE
  8
CSLAYER1
  6
CONTINUOUS
 62
     4
 10
302.152689
 20
724.906261
 11
293.224486
 21
724.906261
  0
LINE
  8
CSLAYER1
  6
CONTINUOUS
 62
     4
 10
292.152689
 20
729.978058
 11
293.224486
 21
731.834464
  0
ARC
  8
CSLAYER1
  6
CONTINUOUS
 62
     4
 10
315.080893
 20
717.978058
 40
22.928203
 50
162.412046
 51
180.000000
  0
ARC
  8
CSLAYER1
  6
CONTINUOUS
 62
     4
 10
297.996560
 20
728.370363
 40
5.896837
 50
155.976315
 51
215.976315
  0
LINE
  8
CSLAYER1
  6
CONTINUOUS
 62
     4
 10
306.152689
 20
720.778840
 11
302.152689
 21
715.378840
  0
POINT
  8
CSLAYER1
 62
     7
 10
309.352689
 20
717.978058
  0
ENDBLK
  8
0
  0
BLOCK
  8
CSLAYER1
  2
BLKF0004
 70
   64
 10
0.0
 20
0.0
 30
0.0
  0
LINE
  8
CSLAYER1
  6
CONTINUOUS
 62
     3
 10
2044.227100
 20
1936.427116
 11
2044.227100
 21
1927.927116
  0
LINE
  8
CSLAYER1
  6
CONTINUOUS
 62
     3
 10
2040.257534
 20
1940.917497
 11
2035.598115
 21
1940.917497
  0
LINE
  8
CSLAYER1
  6
CONTINUOUS
 62
     3
 10
2041.118006
 20
1939.427116
 11
2041.118006
 21
1927.927116
  0
LINE
  8
CSLAYER1
  6
CONTINUOUS
 62
     3
 10
2041.118006
 20
1939.427116
 11
2040.257534
 21
1940.917497
  0
LINE
  8
CSLAYER1
  6
CONTINUOUS
 62
     3
 10
2040.257534
 20
1934.566645
 11
2035.598115
 21
1934.566645
  0
ARC
  8
CSLAYER1
  6
CONTINUOUS
 62
     3
 10
2015.071981
 20
1927.927116
 40
26.046025
 50
0.000000
 51
14.768561
  0
ARC
  8
CSLAYER1
  6
CONTINUOUS
 62
     3
 10
2034.986412
 20
1937.742071
 40
6.153702
 50
-31.065581
 51
23.174644
  0
LINE
  8
CSLAYER1
  6
CONTINUOUS
 62
     3
 10
2041.227100
 20
1939.427116
 11
2041.118006
 21
1939.427116
  0
ARC
  8
CSLAYER1
  6
CONTINUOUS
 62
     3
 10
2041.227100
 20
1936.427116
 40
3.000000
 50
0.000000
 51
90.000000
  0
LINE
  8
CSLAYER1
  6
CONTINUOUS
 62
     3
 10
2044.227100
 20
1919.427116
 11
2044.227100
 21
1927.927116
  0
LINE
  8
CSLAYER1
  6
CONTINUOUS
 62
     3
 10
2040.257534
 20
1914.936735
 11
2035.598115
 21
1914.936735
  0
LINE
  8
CSLAYER1
  6
CONTINUOUS
 62
     3
 10
2041.118006
 20
1916.427116
 11
2041.118006
 21
1927.927116
  0
LINE
  8
CSLAYER1
  6
CONTINUOUS
 62
     3
 10
2041.118006
 20
1916.427116
 11
2040.257534
 21
1914.936735
  0
LINE
  8
CSLAYER1
  6
CONTINUOUS
 62
     3
 10
2040.257534
 20
1921.287588
 11
2035.598115
 21
1921.287588
  0
ARC
  8
CSLAYER1
  6
CONTINUOUS
 62
     3
 10
2015.071981
 20
1927.927116
 40
26.046025
 50
-14.768561
 51
0.000000
  0
ARC
  8
CSLAYER1
  6
CONTINUOUS
 62
     3
 10
2034.986412
 20
1918.112162
 40
6.153702
 50
-23.174644
 51
31.065581
  0
LINE
  8
CSLAYER1
  6
CONTINUOUS
 62
     3
 10
2041.227100
 20
1916.427116
 11
2041.118006
 21
1916.427116
  0
ARC
  8
CSLAYER1
  6
CONTINUOUS
 62
     3
 10
2041.227100
 20
1919.427116
 40
3.000000
 50
270.000000
 51
360.000000
  0
LINE
  8
CSLAYER1
  6
CENTER
 62
     5
 10
2051.098878
 20
1927.927116
 11
2035.598115
 21
1927.927116
  0
LINE
  8
CSLAYER1
  6
CONTINUOUS
 62
     3
 10
2044.227100
 20
1901.427116
 11
2044.227100
 21
1892.927116
  0
LINE
  8
CSLAYER1
  6
CONTINUOUS
 62
     3
 10
2040.257534
 20
1905.917497
 11
2035.598115
 21
1905.917497
  0
LINE
  8
CSLAYER1
  6
CONTINUOUS
 62
     3
 10
2041.118006
 20
1904.427116
 11
2041.118006
 21
1892.927116
  0
LINE
  8
CSLAYER1
  6
CONTINUOUS
 62
     3
 10
2041.118006
 20
1904.427116
 11
2040.257534
 21
1905.917497
  0
LINE
  8
CSLAYER1
  6
CONTINUOUS
 62
     3
 10
2040.257534
 20
1899.566645
 11
2035.598115
 21
1899.566645
  0
ARC
  8
CSLAYER1
  6
CONTINUOUS
 62
     3
 10
2015.071981
 20
1892.927116
 40
26.046025
 50
0.000000
 51
14.768561
  0
ARC
  8
CSLAYER1
  6
CONTINUOUS
 62
     3
 10
2034.986412
 20
1902.742071
 40
6.153702
 50
-31.065581
 51
23.174644
  0
LINE
  8
CSLAYER1
  6
CONTINUOUS
 62
     3
 10
2041.227100
 20
1904.427116
 11
2041.118006
 21
1904.427116
  0
ARC
  8
CSLAYER1
  6
CONTINUOUS
 62
     3
 10
2041.227100
 20
1901.427116
 40
3.000000
 50
0.000000
 51
90.000000
  0
LINE
  8
CSLAYER1
  6
CONTINUOUS
 62
     3
 10
2044.227100
 20
1884.427116
 11
2044.227100
 21
1892.927116
  0
LINE
  8
CSLAYER1
  6
CONTINUOUS
 62
     3
 10
2040.257534
 20
1879.936735
 11
2035.598115
 21
1879.936735
  0
LINE
  8
CSLAYER1
  6
CONTINUOUS
 62
     3
 10
2041.118006
 20
1881.427116
 11
2041.118006
 21
1892.927116
  0
LINE
  8
CSLAYER1
  6
CONTINUOUS
 62
     3
 10
2041.118006
 20
1881.427116
 11
2040.257534
 21
1879.936735
  0
LINE
  8
CSLAYER1
  6
CONTINUOUS
 62
     3
 10
2040.257534
 20
1886.287588
 11
2035.598115
 21
1886.287588
  0
ARC
  8
CSLAYER1
  6
CONTINUOUS
 62
     3
 10
2015.071981
 20
1892.927116
 40
26.046025
 50
-14.768561
 51
0.000000
  0
ARC
  8
CSLAYER1
  6
CONTINUOUS
 62
     3
 10
2034.986412
 20
1883.112162
 40
6.153702
 50
-23.174644
 51
31.065581
  0
LINE
  8
CSLAYER1
  6
CONTINUOUS
 62
     3
 10
2041.227100
 20
1881.427116
 11
2041.118006
 21
1881.427116
  0
ARC
  8
CSLAYER1
  6
CONTINUOUS
 62
     3
 10
2041.227100
 20
1884.427116
 40
3.000000
 50
270.000000
 51
360.000000
  0
LINE
  8
CSLAYER1
  6
CENTER
 62
     5
 10
2049.759248
 20
1892.927116
 11
2035.598115
 21
1892.927116
  0
ENDBLK
  8
0
  0
BLOCK
  8
CSLAYER1
  2
BLKF0005
 70
   64
 10
0.0
 20
0.0
 30
0.0
  0
LINE
  8
CSLAYER1
  6
CONTINUOUS
 62
     3
 10
1632.398115
 20
1057.621070
 11
1632.398115
 21
1043.421070
  0
LINE
  8
CSLAYER1
  6
CONTINUOUS
 62
     3
 10
1635.398115
 20
1040.421070
 11
2029.398115
 21
1040.421070
  0
LINE
  8
CSLAYER1
  6
CONTINUOUS
 62
     3
 10
2032.398115
 20
1057.621070
 11
2032.398115
 21
1043.421070
  0
LINE
  8
CSLAYER1
  6
CONTINUOUS
 62
     3
 10
2035.598115
 20
1102.621070
 11
2035.598115
 21
1057.621070
  0
LINE
  8
CSLAYER1
  6
CONTINUOUS
 62
     3
 10
1632.398115
 20
1043.421070
 11
1635.398115
 21
1040.421070
  0
LINE
  8
CSLAYER1
  6
CONTINUOUS
 62
     3
 10
2029.398115
 20
1040.421070
 11
2032.398115
 21
1043.421070
  0
LINE
  8
CSLAYER1
  6
CONTINUOUS
 62
     3
 10
1135.598115
 20
1102.621070
 11
2035.598115
 21
1102.621070
  0
LINE
  8
CSLAYER1
  6
CONTINUOUS
 62
     3
 10
1135.798115
 20
1057.621070
 11
2035.598115
 21
1057.621070
  0
POINT
  8
CSLAYER1
 62
     3
 10
1169.798115
 20
1021.921070
  0
CIRCLE
  8
CSLAYER1
  6
CONTINUOUS
 62
     3
 10
1169.798115
 20
1021.921070
 40
9.500000
  0
LINE
  8
CSLAYER1
  6
CONTINUOUS
 62
     3
 10
1175.282942
 20
1031.421070
 11
1164.313287
 21
1031.421070
  0
LINE
  8
CSLAYER1
  6
CONTINUOUS
 62
     3
 10
1164.313287
 20
1031.421070
 11
1158.828460
 21
1021.921070
  0
LINE
  8
CSLAYER1
  6
CONTINUOUS
 62
     3
 10
1158.828460
 20
1021.921070
 11
1164.313287
 21
1012.421070
  0
LINE
  8
CSLAYER1
  6
CONTINUOUS
 62
     3
 10
1164.313287
 20
1012.421070
 11
1175.282942
 21
1012.421070
  0
LINE
  8
CSLAYER1
  6
CONTINUOUS
 62
     3
 10
1175.282942
 20
1012.421070
 11
1180.767770
 21
1021.921070
  0
LINE
  8
CSLAYER1
  6
CONTINUOUS
 62
     3
 10
1180.767770
 20
1021.921070
 11
1175.282942
 21
1031.421070
  0
CIRCLE
  8
CSLAYER1
  6
CONTINUOUS
 62
     3
 10
1169.798115
 20
1021.921070
 40
8.650000
  0
CIRCLE
  8
CSLAYER1
  6
CONTINUOUS
 62
     3
 10
1169.798115
 20
1021.921070
 40
5.000000
  0
CIRCLE
  8
CSLAYER1
  6
CONTINUOUS
 62
     3
 10
1169.798115
 20
1021.921070
 40
9.500000
  0
LINE
  8
CSLAYER1
  6
CONTINUOUS
 62
     3
 10
1138.798115
 20
1057.621070
 11
1138.798115
 21
1015.421070
  0
LINE
  8
CSLAYER1
  6
CONTINUOUS
 62
     3
 10
1178.798115
 20
1005.421070
 11
1148.798115
 21
1005.421070
  0
LINE
  8
CSLAYER1
  6
CONTINUOUS
 62
     3
 10
1188.798115
 20
1057.621070
 11
1188.798115
 21
1015.421070
  0
LINE
  8
CSLAYER1
  6
CONTINUOUS
 62
     3
 10
1138.798115
 20
1057.621070
 11
1135.598115
 21
1057.621070
  0
LINE
  8
CSLAYER1
  6
CONTINUOUS
 62
     3
 10
1135.598115
 20
1102.621070
 11
1135.598115
 21
1057.621070
  0
ARC
  8
CSLAYER1
  6
CONTINUOUS
 62
     3
 10
1148.798115
 20
1015.421070
 40
10.000000
 50
180.000000
 51
270.000000
  0
ARC
  8
CSLAYER1
  6
CONTINUOUS
 62
     3
 10
1178.798115
 20
1015.421070
 40
10.000000
 50
270.000000
 51
360.000000
  0
POINT
  8
CSLAYER1
 62
     7
 10
1169.798115
 20
1021.921070
  0
ENDBLK
  8
0
  0
BLOCK
  8
CSLAYER1
  2
BLKF0006
 70
   64
 10
0.0
 20
0.0
 30
0.0
  0
LINE
  8
CSLAYER1
  6
PHANTOM
 62
     5
 10
1632.398115
 20
499.535046
 11
1632.398115
 21
485.335046
  0
LINE
  8
CSLAYER1
  6
PHANTOM
 62
     5
 10
1635.398115
 20
482.335046
 11
2029.398115
 21
482.335046
  0
LINE
  8
CSLAYER1
  6
PHANTOM
 62
     5
 10
2032.398115
 20
499.535046
 11
2032.398115
 21
485.335046
  0
LINE
  8
CSLAYER1
  6
PHANTOM
 62
     5
 10
2035.598115
 20
544.535046
 11
2035.598115
 21
499.535046
  0
LINE
  8
CSLAYER1
  6
PHANTOM
 62
     5
 10
1632.398115
 20
485.335046
 11
1635.398115
 21
482.335046
  0
LINE
  8
CSLAYER1
  6
PHANTOM
 62
     5
 10
2029.398115
 20
482.335046
 11
2032.398115
 21
485.335046
  0
LINE
  8
CSLAYER1
  6
PHANTOM
 62
     5
 10
1135.598115
 20
544.535046
 11
2035.598115
 21
544.535046
  0
LINE
  8
CSLAYER1
  6
PHANTOM
 62
     5
 10
1135.798115
 20
499.535046
 11
2035.598115
 21
499.535046
  0
POINT
  8
CSLAYER1
 62
     5
 10
1169.798115
 20
463.835046
  0
CIRCLE
  8
CSLAYER1
  6
PHANTOM
 62
     5
 10
1169.798115
 20
463.835046
 40
9.500000
  0
LINE
  8
CSLAYER1
  6
PHANTOM
 62
     5
 10
1175.282942
 20
473.335046
 11
1164.313287
 21
473.335046
  0
LINE
  8
CSLAYER1
  6
PHANTOM
 62
     5
 10
1164.313287
 20
473.335046
 11
1158.828460
 21
463.835046
  0
LINE
  8
CSLAYER1
  6
PHANTOM
 62
     5
 10
1158.828460
 20
463.835046
 11
1164.313287
 21
454.335046
  0
LINE
  8
CSLAYER1
  6
PHANTOM
 62
     5
 10
1164.313287
 20
454.335046
 11
1175.282942
 21
454.335046
  0
LINE
  8
CSLAYER1
  6
PHANTOM
 62
     5
 10
1175.282942
 20
454.335046
 11
1180.767770
 21
463.835046
  0
LINE
  8
CSLAYER1
  6
PHANTOM
 62
     5
 10
1180.767770
 20
463.835046
 11
1175.282942
 21
473.335046
  0
CIRCLE
  8
CSLAYER1
  6
PHANTOM
 62
     5
 10
1169.798115
 20
463.835046
 40
8.650000
  0
CIRCLE
  8
CSLAYER1
  6
PHANTOM
 62
     5
 10
1169.798115
 20
463.835046
 40
5.000000
  0
CIRCLE
  8
CSLAYER1
  6
PHANTOM
 62
     5
 10
1169.798115
 20
463.835046
 40
9.500000
  0
LINE
  8
CSLAYER1
  6
PHANTOM
 62
     5
 10
1138.798115
 20
499.535046
 11
1138.798115
 21
457.335046
  0
LINE
  8
CSLAYER1
  6
PHANTOM
 62
     5
 10
1178.798115
 20
447.335046
 11
1148.798115
 21
447.335046
  0
LINE
  8
CSLAYER1
  6
PHANTOM
 62
     5
 10
1188.798115
 20
499.535046
 11
1188.798115
 21
457.335046
  0
LINE
  8
CSLAYER1
  6
PHANTOM
 62
     5
 10
1138.798115
 20
499.535046
 11
1135.598115
 21
499.535046
  0
LINE
  8
CSLAYER1
  6
PHANTOM
 62
     5
 10
1135.598115
 20
544.535046
 11
1135.598115
 21
499.535046
  0
ARC
  8
CSLAYER1
  6
PHANTOM
 62
     5
 10
1148.798115
 20
457.335046
 40
10.000000
 50
180.000000
 51
270.000000
  0
ARC
  8
CSLAYER1
  6
PHANTOM
 62
     5
 10
1178.798115
 20
457.335046
 40
10.000000
 50
270.000000
 51
360.000000
  0
POINT
  8
CSLAYER1
 62
     5
 10
1169.798115
 20
463.835046
  0
ENDBLK
  8
0
  0
BLOCK
  8
CSLAYER1
  2
BLKF0007
 70
   64
 10
0.0
 20
0.0
 30
0.0
  0
LINE
  8
CSLAYER1
  6
CONTINUOUS
 62
     3
 10
290.852689
 20
1003.921070
 11
290.852689
 21
1011.171070
  0
LINE
  8
CSLAYER1
  6
CONTINUOUS
 62
     3
 10
302.852689
 20
1030.571070
 11
302.852689
 21
1039.921070
  0
LINE
  8
CSLAYER1
  6
CONTINUOUS
 62
     3
 10
314.852689
 20
1037.921070
 11
314.852689
 21
1039.921070
  0
LINE
  8
CSLAYER1
  6
CONTINUOUS
 62
     3
 10
314.352689
 20
1040.421070
 11
303.352689
 21
1040.421070
  0
LINE
  8
CSLAYER1
  6
CONTINUOUS
 62
     3
 10
302.852689
 20
1013.271070
 11
302.852689
 21
1003.921070
  0
LINE
  8
CSLAYER1
  6
CONTINUOUS
 62
     3
 10
309.352689
 20
1003.421070
 11
303.352689
 21
1003.421070
  0
LINE
  8
CSLAYER1
  6
CONTINUOUS
 62
     3
 10
302.852689
 20
1003.421070
 11
290.852689
 21
1003.421070
  0
LINE
  8
CSLAYER1
  6
CONTINUOUS
 62
     3
 10
302.352689
 20
1040.421070
 11
301.352689
 21
1040.421070
  0
ARC
  8
CSLAYER1
  6
CONTINUOUS
 62
     3
 10
303.352689
 20
1003.921070
 40
0.500000
 50
180.000000
 51
270.000000
  0
ARC
  8
CSLAYER1
  6
CONTINUOUS
 62
     3
 10
314.352689
 20
1039.921070
 40
0.500000
 50
0.000000
 51
90.000000
  0
ARC
  8
CSLAYER1
  6
CONTINUOUS
 62
     3
 10
303.352689
 20
1039.921070
 40
0.500000
 50
90.000000
 51
180.000000
  0
ARC
  8
CSLAYER1
  6
CONTINUOUS
 62
     3
 10
302.352689
 20
1039.921070
 40
0.500000
 50
0.000000
 51
90.000000
  0
ARC
  8
CSLAYER1
  6
CONTINUOUS
 62
     3
 10
291.352689
 20
1039.921070
 40
0.500000
 50
90.000000
 51
180.000000
  0
ARC
  8
CSLAYER1
  6
CONTINUOUS
 62
     3
 10
291.352689
 20
1003.921070
 40
0.500000
 50
180.000000
 51
270.000000
  0
LINE
  8
CSLAYER1
  6
CONTINUOUS
 62
     3
 10
318.352689
 20
1010.921070
 11
329.352689
 21
1010.921070
  0
LINE
  8
CSLAYER1
  6
CONTINUOUS
 62
     3
 10
318.352689
 20
1032.921070
 11
329.352689
 21
1032.921070
  0
ARC
  8
CSLAYER1
  6
CONTINUOUS
 62
     3
 10
302.352689
 20
1003.921070
 40
0.500000
 50
270.000000
 51
360.000000
  0
LINE
  8
CSLAYER1
  6
CONTINUOUS
 62
     3
 10
290.852689
 20
1032.671070
 11
290.852689
 21
1039.921070
  0
LINE
  8
CSLAYER1
  6
CONTINUOUS
 62
     3
 10
292.352689
 20
1040.421070
 11
291.352689
 21
1040.421070
  0
ENDBLK
  8
0
  0
BLOCK
  8
CSLAYER1
  2
BLKF0008
 70
   64
 10
0.0
 20
0.0
 30
0.0
  0
LINE
  8
CSLAYER1
  6
CONTINUOUS
 62
     3
 10
639.852689
 20
1003.921070
 11
639.852689
 21
1011.171070
  0
LINE
  8
CSLAYER1
  6
CONTINUOUS
 62
     3
 10
627.852689
 20
1030.571070
 11
627.852689
 21
1039.921070
  0
LINE
  8
CSLAYER1
  6
CONTINUOUS
 62
     3
 10
615.852689
 20
1037.921070
 11
615.852689
 21
1039.921070
  0
LINE
  8
CSLAYER1
  6
CONTINUOUS
 62
     3
 10
616.352689
 20
1040.421070
 11
627.352689
 21
1040.421070
  0
LINE
  8
CSLAYER1
  6
CONTINUOUS
 62
     3
 10
627.852689
 20
1013.271070
 11
627.852689
 21
1003.921070
  0
LINE
  8
CSLAYER1
  6
CONTINUOUS
 62
     3
 10
621.352689
 20
1003.421070
 11
627.352689
 21
1003.421070
  0
LINE
  8
CSLAYER1
  6
CONTINUOUS
 62
     3
 10
627.852689
 20
1003.421070
 11
639.852689
 21
1003.421070
  0
LINE
  8
CSLAYER1
  6
CONTINUOUS
 62
     3
 10
628.352689
 20
1040.421070
 11
629.352689
 21
1040.421070
  0
ARC
  8
CSLAYER1
  6
CONTINUOUS
 62
     3
 10
627.352689
 20
1003.921070
 40
0.500000
 50
270.000000
 51
360.000000
  0
ARC
  8
CSLAYER1
  6
CONTINUOUS
 62
     3
 10
616.352689
 20
1039.921070
 40
0.500000
 50
90.000000
 51
180.000000
  0
ARC
  8
CSLAYER1
  6
CONTINUOUS
 62
     3
 10
627.352689
 20
1039.921070
 40
0.500000
 50
0.000000
 51
90.000000
  0
ARC
  8
CSLAYER1
  6
CONTINUOUS
 62
     3
 10
628.352689
 20
1039.921070
 40
0.500000
 50
90.000000
 51
180.000000
  0
ARC
  8
CSLAYER1
  6
CONTINUOUS
 62
     3
 10
639.352689
 20
1039.921070
 40
0.500000
 50
0.000000
 51
90.000000
  0
ARC
  8
CSLAYER1
  6
CONTINUOUS
 62
     3
 10
639.352689
 20
1003.921070
 40
0.500000
 50
270.000000
 51
360.000000
  0
LINE
  8
CSLAYER1
  6
CONTINUOUS
 62
     3
 10
612.352689
 20
1010.921070
 11
601.352689
 21
1010.921070
  0
LINE
  8
CSLAYER1
  6
CONTINUOUS
 62
     3
 10
612.352689
 20
1032.921070
 11
601.352689
 21
1032.921070
  0
ARC
  8
CSLAYER1
  6
CONTINUOUS
 62
     3
 10
628.352689
 20
1003.921070
 40
0.500000
 50
180.000000
 51
270.000000
  0
LINE
  8
CSLAYER1
  6
CONTINUOUS
 62
     3
 10
639.852689
 20
1032.671070
 11
639.852689
 21
1039.921070
  0
LINE
  8
CSLAYER1
  6
CONTINUOUS
 62
     3
 10
638.352689
 20
1040.421070
 11
639.352689
 21
1040.421070
  0
ENDBLK
  8
0
  0
BLOCK
  8
CSLAYER1
  2
BLKF0009
 70
   64
 10
0.0
 20
0.0
 30
0.0
  0
LINE
  8
CSLAYER1
  6
CONTINUOUS
 62
     3
 10
2444.071633
 20
1879.344132
 11
2487.912253
 21
1923.184753
  0
LINE
  8
CSLAYER1
  6
CONTINUOUS
 62
     3
 10
2444.071633
 20
1875.808598
 11
2504.175709
 21
1815.704522
  0
LINE
  8
CSLAYER1
  6
CENTER
 62
     5
 10
2452.309682
 20
1970.101032
 11
2493.569108
 21
1928.841607
  0
LINE
  8
CSLAYER1
  6
CONTINUOUS
 62
     2
 10
2484.023166
 20
1915.760131
 11
2544.127242
 21
1855.656055
  0
LINE
  8
CSLAYER1
  6
CONTINUOUS
 62
     3
 10
2447.607167
 20
1879.344132
 11
2479.426972
 21
1911.163937
  0
LINE
  8
CSLAYER1
  6
CONTINUOUS
 62
     3
 10
2507.711243
 20
1815.704522
 11
2557.208718
 21
1865.201997
  0
LINE
  8
CSLAYER1
  6
CONTINUOUS
 62
     3
 10
2447.607167
 20
1875.808598
 11
2502.054389
 21
1821.361376
  0
LINE
  8
CSLAYER1
  6
CONTINUOUS
 62
     3
 10
2482.962506
 20
1911.163937
 11
2537.409728
 21
1856.716715
  0
ARC
  8
CSLAYER1
  6
CONTINUOUS
 62
     3
 10
2481.500080
 20
1877.271024
 40
59.568182
 50
290.185163
 51
339.814837
  0
ARC
  8
CSLAYER1
  6
CONTINUOUS
 62
     3
 10
2449.374934
 20
1877.576365
 40
2.500000
 50
135.000000
 51
225.000000
  0
ARC
  8
CSLAYER1
  6
CONTINUOUS
 62
     3
 10
2481.194739
 20
1909.396170
 40
2.500000
 50
45.000000
 51
135.000000
  0
ARC
  8
CSLAYER1
  6
CONTINUOUS
 62
     3
 10
2445.839400
 20
1877.576365
 40
2.500000
 50
135.000000
 51
225.000000
  0
ARC
  8
CSLAYER1
  6
CONTINUOUS
 62
     3
 10
2505.943476
 20
1817.472289
 40
2.500000
 50
225.000000
 51
315.000000
  0
ARC
  8
CSLAYER1
  6
CONTINUOUS
 62
     2
 10
2545.895009
 20
1857.423822
 40
2.500000
 50
225.000000
 51
315.000000
  0
ARC
  8
CSLAYER1
  6
CONTINUOUS
 62
     2
 10
2485.790933
 20
1917.527898
 40
2.500000
 50
135.000000
 51
225.000000
  0
LINE
  8
CSLAYER1
  6
CONTINUOUS
 62
     3
 10
2543.066582
 20
1978.339082
 11
2499.225962
 21
1934.498461
  0
LINE
  8
CSLAYER1
  6
CONTINUOUS
 62
     3
 10
2546.602116
 20
1978.339082
 11
2606.706193
 21
1918.235005
  0
LINE
  8
CSLAYER1
  6
CONTINUOUS
 62
     2
 10
2506.650583
 20
1938.387548
 11
2566.754659
 21
1878.283472
  0
LINE
  8
CSLAYER1
  6
CONTINUOUS
 62
     3
 10
2606.706193
 20
1914.699471
 11
2557.208718
 21
1865.201997
  0
ARC
  8
CSLAYER1
  6
CONTINUOUS
 62
     3
 10
2544.834349
 20
1976.571315
 40
2.500000
 50
45.000000
 51
135.000000
  0
ARC
  8
CSLAYER1
  6
CONTINUOUS
 62
     3
 10
2604.938426
 20
1916.467238
 40
2.500000
 50
-45.000000
 51
45.000000
  0
ARC
  8
CSLAYER1
  6
CONTINUOUS
 62
     2
 10
2564.986892
 20
1876.515705
 40
2.500000
 50
-45.000000
 51
45.000000
  0
ARC
  8
CSLAYER1
  6
CONTINUOUS
 62
     2
 10
2504.882816
 20
1936.619782
 40
2.500000
 50
45.000000
 51
135.000000
  0
LINE
  8
CSLAYER1
  6
CONTINUOUS
 62
     3
 10
2543.066582
 20
1974.803548
 11
2511.246777
 21
1942.983743
  0
LINE
  8
CSLAYER1
  6
CONTINUOUS
 62
     3
 10
2546.602116
 20
1974.803548
 11
2601.049338
 21
1920.356326
  0
LINE
  8
CSLAYER1
  6
CONTINUOUS
 62
     3
 10
2511.246777
 20
1939.448209
 11
2565.693999
 21
1885.000986
  0
ARC
  8
CSLAYER1
  6
CONTINUOUS
 62
     3
 10
2545.139691
 20
1940.910634
 40
59.568182
 50
290.185163
 51
339.814837
  0
ARC
  8
CSLAYER1
  6
CONTINUOUS
 62
     3
 10
2544.834349
 20
1973.035781
 40
2.500000
 50
45.000000
 51
135.000000
  0
ARC
  8
CSLAYER1
  6
CONTINUOUS
 62
     3
 10
2513.014544
 20
1941.215976
 40
2.500000
 50
135.000000
 51
225.000000
  0
LINE
  8
CSLAYER1
  6
CONTINUOUS
 62
     3
 10
2493.569108
 20
1938.741102
 11
2491.094234
 21
1936.266228
  0
LINE
  8
CSLAYER1
  6
CONTINUOUS
 62
     3
 10
2454.784556
 20
1972.575906
 11
2491.094234
 21
1936.266228
  0
LINE
  8
CSLAYER1
  6
CONTINUOUS
 62
     3
 10
2494.983321
 20
1938.741102
 11
2499.225962
 21
1934.498461
  0
LINE
  8
CSLAYER1
  6
CONTINUOUS
 62
     3
 10
2483.669613
 20
1927.427393
 11
2487.912253
 21
1923.184753
  0
LINE
  8
CSLAYER1
  6
CONTINUOUS
 62
     3
 10
2449.834809
 20
1967.626159
 11
2486.144486
 21
1931.316481
  0
ARC
  8
CSLAYER1
  6
CONTINUOUS
 62
     3
 10
2484.376719
 20
1928.134500
 40
1.000000
 50
135.000000
 51
225.000000
  0
ARC
  8
CSLAYER1
  6
CONTINUOUS
 62
     3
 10
2494.276214
 20
1938.033995
 40
1.000000
 50
45.000000
 51
135.000000
  0
LINE
  8
CSLAYER1
  6
CONTINUOUS
 62
     3
 10
2486.144486
 20
1931.316481
 11
2483.669613
 21
1928.841607
  0
LINE
  8
CSLAYER1
  6
CONTINUOUS
 62
     2
 10
2491.094234
 20
1936.266228
 11
2486.144486
 21
1931.316481
  0
LINE
  8
CSLAYER1
  6
CONTINUOUS
 62
     2
 10
2487.912253
 20
1923.184753
 11
2493.569108
 21
1928.841607
  0
LINE
  8
CSLAYER1
  6
CONTINUOUS
 62
     2
 10
2499.225962
 20
1934.498461
 11
2493.569108
 21
1928.841607
  0
LINE
  8
CSLAYER1
  6
CONTINUOUS
 62
     2
 10
2498.752449
 20
1906.457667
 11
2492.293029
 21
1912.917088
  0
LINE
  8
CSLAYER1
  6
CONTINUOUS
 62
     2
 10
2515.457847
 20
1923.163065
 11
2508.998426
 21
1929.622485
  0
LINE
  8
CSLAYER1
  6
CONTINUOUS
 62
     2
 10
2492.293029
 20
1914.698997
 11
2507.216517
 21
1929.622485
  0
LINE
  8
CSLAYER1
  6
CONTINUOUS
 62
     2
 10
2500.534358
 20
1906.457667
 11
2515.457847
 21
1921.381156
  0
LINE
  8
CSLAYER1
  6
CONTINUOUS
 62
     2
 10
2513.675938
 20
1922.272110
 11
2507.996103
 21
1927.951946
  0
LINE
  8
CSLAYER1
  6
CONTINUOUS
 62
     2
 10
2511.448551
 20
1920.044724
 11
2510.780336
 21
1920.712940
  0
LINE
  8
CSLAYER1
  6
CONTINUOUS
 62
     2
 10
2505.323239
 20
1913.919412
 11
2504.655023
 21
1914.587628
  0
LINE
  8
CSLAYER1
  6
CONTINUOUS
 62
     2
 10
2502.093529
 20
1910.689701
 11
2498.529711
 21
1914.253520
  0
LINE
  8
CSLAYER1
  6
CONTINUOUS
 62
     2
 10
2503.652699
 20
1910.689701
 11
2505.323239
 21
1912.360241
  0
LINE
  8
CSLAYER1
  6
CONTINUOUS
 62
     2
 10
2498.529711
 20
1915.812690
 11
2500.200250
 21
1917.483230
  0
LINE
  8
CSLAYER1
  6
CONTINUOUS
 62
     2
 10
2505.768716
 20
1927.283730
 11
2506.436932
 21
1927.951946
  0
LINE
  8
CSLAYER1
  6
CONTINUOUS
 62
     2
 10
2504.655023
 20
1915.924059
 11
2509.443904
 21
1920.712940
  0
LINE
  8
CSLAYER1
  6
CONTINUOUS
 62
     2
 10
2504.098176
 20
1916.480906
 11
2508.887057
 21
1921.269787
  0
ARC
  8
CSLAYER1
  6
CONTINUOUS
 62
     2
 10
2502.873114
 20
1911.469287
 40
1.102500
 50
225.000000
 51
315.000000
  0
ARC
  8
CSLAYER1
  6
CONTINUOUS
 62
     2
 10
2499.309296
 20
1915.033105
 40
1.102500
 50
135.000000
 51
225.000000
  0
ARC
  8
CSLAYER1
  6
CONTINUOUS
 62
     2
 10
2500.979836
 20
1916.703645
 40
1.102500
 50
45.000000
 51
135.000000
  0
ARC
  8
CSLAYER1
  6
CONTINUOUS
 62
     2
 10
2504.543654
 20
1913.139826
 40
1.102500
 50
-45.000000
 51
45.000000
  0
ARC
  8
CSLAYER1
  6
CONTINUOUS
 62
     2
 10
2506.548301
 20
1926.504145
 40
1.102500
 50
135.000000
 51
225.000000
  0
ARC
  8
CSLAYER1
  6
CONTINUOUS
 62
     2
 10
2507.216517
 20
1927.172360
 40
1.102500
 50
45.000000
 51
135.000000
  0
ARC
  8
CSLAYER1
  6
CONTINUOUS
 62
     2
 10
2512.896353
 20
1921.492525
 40
1.102500
 50
-45.000000
 51
45.000000
  0
ARC
  8
CSLAYER1
  6
CONTINUOUS
 62
     2
 10
2512.228137
 20
1920.824309
 40
1.102500
 50
225.000000
 51
315.000000
  0
LINE
  8
CSLAYER1
  6
CONTINUOUS
 62
     2
 10
2502.761745
 20
1916.480906
 11
2501.759421
 21
1917.483230
  0
LINE
  8
CSLAYER1
  6
CONTINUOUS
 62
     2
 10
2508.887057
 20
1922.606218
 11
2505.768716
 21
1925.724559
  0
ARC
  8
CSLAYER1
  6
CONTINUOUS
 62
     2
 10
2505.323239
 20
1915.255843
 40
0.945000
 50
135.000000
 51
225.000000
  0
ARC
  8
CSLAYER1
  6
CONTINUOUS
 62
     2
 10
2503.429961
 20
1917.149122
 40
0.945000
 50
225.000000
 51
315.000000
  0
ARC
  8
CSLAYER1
  6
CONTINUOUS
 62
     2
 10
2508.218841
 20
1921.938003
 40
0.945000
 50
-45.000000
 51
45.000000
  0
ARC
  8
CSLAYER1
  6
CONTINUOUS
 62
     2
 10
2499.643404
 20
1907.348622
 40
1.260000
 50
225.000000
 51
315.000000
  0
ARC
  8
CSLAYER1
  6
CONTINUOUS
 62
     2
 10
2493.183983
 20
1913.808042
 40
1.260000
 50
135.000000
 51
225.000000
  0
ARC
  8
CSLAYER1
  6
CONTINUOUS
 62
     2
 10
2508.107472
 20
1928.731531
 40
1.260000
 50
45.000000
 51
135.000000
  0
ARC
  8
CSLAYER1
  6
CONTINUOUS
 62
     2
 10
2514.566892
 20
1922.272110
 40
1.260000
 50
-45.000000
 51
45.000000
  0
ARC
  8
CSLAYER1
  6
CONTINUOUS
 62
     2
 10
2510.112120
 20
1920.044724
 40
0.945000
 50
45.000000
 51
135.000000
  0
LINE
  8
CSLAYER1
  6
CONTINUOUS
 62
     2
 10
2513.007722
 20
1920.044724
 11
2513.675938
 21
1920.712940
  0
CIRCLE
  8
CSLAYER1
  6
CONTINUOUS
 62
     2
 10
2482.608952
 20
1869.091084
 40
2.500000
  0
CIRCLE
  8
CSLAYER1
  6
CONTINUOUS
 62
     2
 10
2475.537885
 20
1862.020016
 40
2.500000
  0
CIRCLE
  8
CSLAYER1
  6
CONTINUOUS
 62
     2
 10
2482.608952
 20
1854.948948
 40
2.500000
  0
CIRCLE
  8
CSLAYER1
  6
CONTINUOUS
 62
     2
 10
2489.680020
 20
1862.020016
 40
2.500000
  0
CIRCLE
  8
CSLAYER1
  6
CONTINUOUS
 62
     2
 10
2496.751088
 20
1854.948948
 40
2.500000
  0
CIRCLE
  8
CSLAYER1
  6
CONTINUOUS
 62
     2
 10
2489.680020
 20
1847.877880
 40
2.500000
  0
CIRCLE
  8
CSLAYER1
  6
CONTINUOUS
 62
     2
 10
2496.751088
 20
1840.806813
 40
2.500000
  0
CIRCLE
  8
CSLAYER1
  6
CONTINUOUS
 62
     2
 10
2503.822156
 20
1847.877880
 40
2.500000
  0
CIRCLE
  8
CSLAYER1
  6
CONTINUOUS
 62
     2
 10
2510.893224
 20
1840.806813
 40
2.500000
  0
CIRCLE
  8
CSLAYER1
  6
CONTINUOUS
 62
     2
 10
2503.822156
 20
1833.735745
 40
2.500000
  0
CIRCLE
  8
CSLAYER1
  6
CONTINUOUS
 62
     2
 10
2489.680020
 20
1876.162152
 40
2.500000
  0
CIRCLE
  8
CSLAYER1
  6
CONTINUOUS
 62
     2
 10
2496.751088
 20
1883.233220
 40
2.500000
  0
CIRCLE
  8
CSLAYER1
  6
CONTINUOUS
 62
     2
 10
2503.822156
 20
1876.162152
 40
2.500000
  0
CIRCLE
  8
CSLAYER1
  6
CONTINUOUS
 62
     2
 10
2496.751088
 20
1869.091084
 40
2.500000
  0
CIRCLE
  8
CSLAYER1
  6
CONTINUOUS
 62
     2
 10
2503.822156
 20
1862.020016
 40
2.500000
  0
CIRCLE
  8
CSLAYER1
  6
CONTINUOUS
 62
     2
 10
2510.893224
 20
1869.091084
 40
2.500000
  0
CIRCLE
  8
CSLAYER1
  6
CONTINUOUS
 62
     2
 10
2517.964292
 20
1862.020016
 40
2.500000
  0
CIRCLE
  8
CSLAYER1
  6
CONTINUOUS
 62
     2
 10
2510.893224
 20
1854.948948
 40
2.500000
  0
CIRCLE
  8
CSLAYER1
  6
CONTINUOUS
 62
     2
 10
2517.964292
 20
1847.877880
 40
2.500000
  0
CIRCLE
  8
CSLAYER1
  6
CONTINUOUS
 62
     2
 10
2525.035359
 20
1854.948948
 40
2.500000
  0
CIRCLE
  8
CSLAYER1
  6
CONTINUOUS
 62
     2
 10
2553.319631
 20
1939.801762
 40
2.500000
  0
CIRCLE
  8
CSLAYER1
  6
CONTINUOUS
 62
     2
 10
2560.390698
 20
1946.872830
 40
2.500000
  0
CIRCLE
  8
CSLAYER1
  6
CONTINUOUS
 62
     2
 10
2567.461766
 20
1939.801762
 40
2.500000
  0
CIRCLE
  8
CSLAYER1
  6
CONTINUOUS
 62
     2
 10
2560.390698
 20
1932.730694
 40
2.500000
  0
CIRCLE
  8
CSLAYER1
  6
CONTINUOUS
 62
     2
 10
2567.461766
 20
1925.659626
 40
2.500000
  0
CIRCLE
  8
CSLAYER1
  6
CONTINUOUS
 62
     2
 10
2574.532834
 20
1932.730694
 40
2.500000
  0
CIRCLE
  8
CSLAYER1
  6
CONTINUOUS
 62
     2
 10
2581.603902
 20
1925.659626
 40
2.500000
  0
CIRCLE
  8
CSLAYER1
  6
CONTINUOUS
 62
     2
 10
2574.532834
 20
1918.588559
 40
2.500000
  0
CIRCLE
  8
CSLAYER1
  6
CONTINUOUS
 62
     2
 10
2581.603902
 20
1911.517491
 40
2.500000
  0
CIRCLE
  8
CSLAYER1
  6
CONTINUOUS
 62
     2
 10
2588.674970
 20
1918.588559
 40
2.500000
  0
CIRCLE
  8
CSLAYER1
  6
CONTINUOUS
 62
     2
 10
2546.248563
 20
1932.730694
 40
2.500000
  0
CIRCLE
  8
CSLAYER1
  6
CONTINUOUS
 62
     2
 10
2539.177495
 20
1925.659626
 40
2.500000
  0
CIRCLE
  8
CSLAYER1
  6
CONTINUOUS
 62
     2
 10
2546.248563
 20
1918.588559
 40
2.500000
  0
CIRCLE
  8
CSLAYER1
  6
CONTINUOUS
 62
     2
 10
2553.319631
 20
1925.659626
 40
2.500000
  0
CIRCLE
  8
CSLAYER1
  6
CONTINUOUS
 62
     2
 10
2560.390698
 20
1918.588559
 40
2.500000
  0
CIRCLE
  8
CSLAYER1
  6
CONTINUOUS
 62
     2
 10
2553.319631
 20
1911.517491
 40
2.500000
  0
CIRCLE
  8
CSLAYER1
  6
CONTINUOUS
 62
     2
 10
2560.390698
 20
1904.446423
 40
2.500000
  0
CIRCLE
  8
CSLAYER1
  6
CONTINUOUS
 62
     2
 10
2567.461766
 20
1911.517491
 40
2.500000
  0
CIRCLE
  8
CSLAYER1
  6
CONTINUOUS
 62
     2
 10
2574.532834
 20
1904.446423
 40
2.500000
  0
CIRCLE
  8
CSLAYER1
  6
CONTINUOUS
 62
     2
 10
2567.461766
 20
1897.375355
 40
2.500000
  0
LINE
  8
CSLAYER1
  6
CONTINUOUS
 62
     2
 10
2519.024952
 20
1942.276636
 11
2543.773689
 21
1967.025373
  0
LINE
  8
CSLAYER1
  6
CONTINUOUS
 62
     2
 10
2530.338660
 20
1930.962927
 11
2555.087398
 21
1955.711665
  0
LINE
  8
CSLAYER1
  6
CONTINUOUS
 62
     2
 10
2519.024952
 20
1940.155315
 11
2528.217340
 21
1930.962927
  0
LINE
  8
CSLAYER1
  6
CONTINUOUS
 62
     2
 10
2519.732058
 20
1941.569529
 11
2544.480796
 21
1966.318266
  0
LINE
  8
CSLAYER1
  6
CONTINUOUS
 62
     2
 10
2529.631553
 20
1931.670034
 11
2554.380291
 21
1956.418771
  0
LINE
  8
CSLAYER1
  6
CONTINUOUS
 62
     2
 10
2519.732058
 20
1940.862422
 11
2528.924447
 21
1931.670034
  0
LINE
  8
CSLAYER1
  6
CONTINUOUS
 62
     2
 10
2545.895009
 20
1967.025373
 11
2555.087398
 21
1957.832985
  0
LINE
  8
CSLAYER1
  6
CONTINUOUS
 62
     2
 10
2545.187903
 20
1966.318266
 11
2554.380291
 21
1957.125878
  0
ARC
  8
CSLAYER1
  6
CONTINUOUS
 62
     2
 10
2520.085612
 20
1941.215976
 40
0.500000
 50
135.000000
 51
225.000000
  0
ARC
  8
CSLAYER1
  6
CONTINUOUS
 62
     2
 10
2529.278000
 20
1932.023587
 40
0.500000
 50
225.000000
 51
315.000000
  0
ARC
  8
CSLAYER1
  6
CONTINUOUS
 62
     2
 10
2544.834349
 20
1965.964713
 40
0.500000
 50
45.000000
 51
135.000000
  0
ARC
  8
CSLAYER1
  6
CONTINUOUS
 62
     2
 10
2554.026737
 20
1956.772325
 40
0.500000
 50
-45.000000
 51
45.000000
  0
ARC
  8
CSLAYER1
  6
CONTINUOUS
 62
     2
 10
2520.085612
 20
1941.215976
 40
1.500000
 50
135.000000
 51
225.000000
  0
ARC
  8
CSLAYER1
  6
CONTINUOUS
 62
     2
 10
2529.278000
 20
1932.023587
 40
1.500000
 50
225.000000
 51
315.000000
  0
ARC
  8
CSLAYER1
  6
CONTINUOUS
 62
     2
 10
2544.834349
 20
1965.964713
 40
1.500000
 50
45.000000
 51
135.000000
  0
ARC
  8
CSLAYER1
  6
CONTINUOUS
 62
     2
 10
2554.026737
 20
1956.772325
 40
1.500000
 50
-45.000000
 51
45.000000
  0
LINE
  8
CSLAYER1
  6
CONTINUOUS
 62
     2
 10
2528.570893
 20
1944.751510
 11
2541.298815
 21
1957.479432
  0
LINE
  8
CSLAYER1
  6
CONTINUOUS
 62
     2
 10
2532.758329
 20
1953.291996
 11
2541.298815
 21
1957.479432
  0
LINE
  8
CSLAYER1
  6
CONTINUOUS
 62
     2
 10
2532.758329
 20
1953.291996
 11
2528.570893
 21
1944.751510
  0
TEXT
  8
CSLAYER1
 62
     2
 10
2534.449724
 20
1938.901023
 40
7.066058
 41
1.574983
  1
UP
 50
44.999989
 51
0.000000
  7
EASYDRAW_FONT
 72
     5
 11
2547.565287
 21
1952.016581
  0
LINE
  8
CSLAYER1
  6
CONTINUOUS
 62
     2
 10
2480.134079
 20
1903.385763
 11
2455.385341
 21
1878.637025
  0
LINE
  8
CSLAYER1
  6
CONTINUOUS
 62
     2
 10
2491.447787
 20
1892.072054
 11
2466.699050
 21
1867.323317
  0
LINE
  8
CSLAYER1
  6
CONTINUOUS
 62
     2
 10
2482.255399
 20
1903.385763
 11
2491.447787
 21
1894.193375
  0
LINE
  8
CSLAYER1
  6
CONTINUOUS
 62
     2
 10
2480.841186
 20
1902.678656
 11
2456.092448
 21
1877.929919
  0
LINE
  8
CSLAYER1
  6
CONTINUOUS
 62
     2
 10
2490.740680
 20
1892.779161
 11
2465.991943
 21
1868.030424
  0
LINE
  8
CSLAYER1
  6
CONTINUOUS
 62
     2
 10
2481.548292
 20
1902.678656
 11
2490.740680
 21
1893.486268
  0
LINE
  8
CSLAYER1
  6
CONTINUOUS
 62
     2
 10
2455.385341
 20
1876.515705
 11
2464.577730
 21
1867.323317
  0
LINE
  8
CSLAYER1
  6
CONTINUOUS
 62
     2
 10
2456.092448
 20
1877.222812
 11
2465.284836
 21
1868.030424
  0
ARC
  8
CSLAYER1
  6
CONTINUOUS
 62
     2
 10
2481.194739
 20
1902.325103
 40
0.500000
 50
45.000000
 51
135.000000
  0
ARC
  8
CSLAYER1
  6
CONTINUOUS
 62
     2
 10
2490.387127
 20
1893.132714
 40
0.500000
 50
-45.000000
 51
45.000000
  0
ARC
  8
CSLAYER1
  6
CONTINUOUS
 62
     2
 10
2456.446002
 20
1877.576365
 40
0.500000
 50
135.000000
 51
225.000000
  0
ARC
  8
CSLAYER1
  6
CONTINUOUS
 62
     2
 10
2465.638390
 20
1868.383977
 40
0.500000
 50
225.000000
 51
315.000000
  0
ARC
  8
CSLAYER1
  6
CONTINUOUS
 62
     2
 10
2481.194739
 20
1902.325103
 40
1.500000
 50
45.000000
 51
135.000000
  0
ARC
  8
CSLAYER1
  6
CONTINUOUS
 62
     2
 10
2490.387127
 20
1893.132714
 40
1.500000
 50
-45.000000
 51
45.000000
  0
ARC
  8
CSLAYER1
  6
CONTINUOUS
 62
     2
 10
2456.446002
 20
1877.576365
 40
1.500000
 50
135.000000
 51
225.000000
  0
ARC
  8
CSLAYER1
  6
CONTINUOUS
 62
     2
 10
2465.638390
 20
1868.383977
 40
1.500000
 50
225.000000
 51
315.000000
  0
LINE
  8
CSLAYER1
  6
CONTINUOUS
 62
     2
 10
2481.529151
 20
1889.969875
 11
2468.801229
 21
1877.241953
  0
LINE
  8
CSLAYER1
  6
CONTINUOUS
 62
     2
 10
2477.341716
 20
1881.429389
 11
2468.801229
 21
1877.241953
  0
LINE
  8
CSLAYER1
  6
CONTINUOUS
 62
     2
 10
2477.341716
 20
1881.429389
 11
2481.529151
 21
1889.969875
  0
TEXT
  8
CSLAYER1
 62
     2
 10
2463.633847
 20
1874.351427
 40
6.383575
 41
1.255870
  1
DOWN
 50
44.999989
 51
0.000000
  7
EASYDRAW_FONT
 72
     5
 11
2484.419572
 21
1895.137144
  0
ENDBLK
  8
0
  0
BLOCK
  8
CSLAYER1
  2
BLKF0010
 70
   64
 10
0.0
 20
0.0
 30
0.0
  0
LINE
  8
CSLAYER1
  6
CONTINUOUS
 62
     3
 10
1235.983160
 20
517.535046
 11
1255.613069
 21
517.535046
  0
LINE
  8
CSLAYER1
  6
CONTINUOUS
 62
     3
 10
1255.613069
 20
517.535046
 11
1255.613069
 21
524.631519
  0
LINE
  8
CSLAYER1
  6
CONTINUOUS
 62
     3
 10
1255.613069
 20
524.631519
 11
1254.048115
 21
525.535046
  0
LINE
  8
CSLAYER1
  6
CONTINUOUS
 62
     3
 10
1254.048115
 20
525.535046
 11
1237.548115
 21
525.535046
  0
LINE
  8
CSLAYER1
  6
CONTINUOUS
 62
     3
 10
1237.548115
 20
525.535046
 11
1235.983160
 21
524.631519
  0
LINE
  8
CSLAYER1
  6
CONTINUOUS
 62
     3
 10
1235.983160
 20
524.631519
 11
1235.983160
 21
517.535046
  0
LINE
  8
CSLAYER1
  6
CONTINUOUS
 62
     3
 10
1240.890638
 20
517.535046
 11
1240.890638
 21
524.631519
  0
LINE
  8
CSLAYER1
  6
CONTINUOUS
 62
     3
 10
1250.705592
 20
524.631519
 11
1250.705592
 21
517.535046
  0
ARC
  8
CSLAYER1
  6
CONTINUOUS
 62
     3
 10
1253.159331
 20
521.751432
 40
3.783614
 50
90.000000
 51
130.429897
  0
ARC
  8
CSLAYER1
  6
CONTINUOUS
 62
     3
 10
1245.798115
 20
511.755881
 40
13.779165
 50
69.135936
 51
110.864064
  0
ARC
  8
CSLAYER1
  6
CONTINUOUS
 62
     3
 10
1238.436899
 20
521.751432
 40
3.783614
 50
49.570103
 51
90.000000
  0
POINT
  8
CSLAYER1
 62
     3
 10
1245.798115
 20
517.535046
  0
ENDBLK
  8
0
  0
BLOCK
  8
CSLAYER1
  2
BLKF0011
 70
   64
 10
0.0
 20
0.0
 30
0.0
  0
LINE
  8
CSLAYER1
  6
CONTINUOUS
 62
     3
 10
1235.983160
 20
533.335046
 11
1255.613069
 21
533.335046
  0
LINE
  8
CSLAYER1
  6
CONTINUOUS
 62
     3
 10
1255.613069
 20
533.335046
 11
1255.613069
 21
540.431519
  0
LINE
  8
CSLAYER1
  6
CONTINUOUS
 62
     3
 10
1255.613069
 20
540.431519
 11
1254.048115
 21
541.335046
  0
LINE
  8
CSLAYER1
  6
CONTINUOUS
 62
     3
 10
1254.048115
 20
541.335046
 11
1237.548115
 21
541.335046
  0
LINE
  8
CSLAYER1
  6
CONTINUOUS
 62
     3
 10
1237.548115
 20
541.335046
 11
1235.983160
 21
540.431519
  0
LINE
  8
CSLAYER1
  6
CONTINUOUS
 62
     3
 10
1235.983160
 20
540.431519
 11
1235.983160
 21
533.335046
  0
LINE
  8
CSLAYER1
  6
CONTINUOUS
 62
     3
 10
1240.890638
 20
533.335046
 11
1240.890638
 21
540.431519
  0
LINE
  8
CSLAYER1
  6
CONTINUOUS
 62
     3
 10
1250.705592
 20
540.431519
 11
1250.705592
 21
533.335046
  0
ARC
  8
CSLAYER1
  6
CONTINUOUS
 62
     3
 10
1253.159331
 20
537.551432
 40
3.783614
 50
90.000000
 51
130.429897
  0
ARC
  8
CSLAYER1
  6
CONTINUOUS
 62
     3
 10
1245.798115
 20
527.555881
 40
13.779165
 50
69.135936
 51
110.864064
  0
ARC
  8
CSLAYER1
  6
CONTINUOUS
 62
     3
 10
1238.436899
 20
537.551432
 40
3.783614
 50
49.570103
 51
90.000000
  0
POINT
  8
CSLAYER1
 62
     3
 10
1245.798115
 20
533.335046
  0
ENDBLK
  8
0
  0
BLOCK
  8
CSLAYER1
  2
BLKF0012
 70
   64
 10
0.0
 20
0.0
 30
0.0
  0
LINE
  8
CSLAYER1
  6
CENTER
 62
     5
 10
646.152689
 20
439.535046
 11
646.152689
 21
544.535046
  0
LINE
  8
CSLAYER1
  6
CONTINUOUS
 62
     7
 10
636.152689
 20
439.535046
 11
636.152689
 21
517.535046
  0
LINE
  8
CSLAYER1
  6
CONTINUOUS
 62
     7
 10
656.152689
 20
517.535046
 11
636.152689
 21
517.535046
  0
LINE
  8
CSLAYER1
  6
CONTINUOUS
 62
     7
 10
656.152689
 20
439.535046
 11
656.152689
 21
517.535046
  0
LINE
  8
CSLAYER1
  6
CONTINUOUS
 62
     3
 10
655.967644
 20
517.535046
 11
636.337735
 21
517.535046
  0
LINE
  8
CSLAYER1
  6
CONTINUOUS
 62
     3
 10
636.337735
 20
517.535046
 11
636.337735
 21
524.631519
  0
LINE
  8
CSLAYER1
  6
CONTINUOUS
 62
     3
 10
636.337735
 20
524.631519
 11
637.902689
 21
525.535046
  0
LINE
  8
CSLAYER1
  6
CONTINUOUS
 62
     3
 10
637.902689
 20
525.535046
 11
654.402689
 21
525.535046
  0
LINE
  8
CSLAYER1
  6
CONTINUOUS
 62
     3
 10
654.402689
 20
525.535046
 11
655.967644
 21
524.631519
  0
LINE
  8
CSLAYER1
  6
CONTINUOUS
 62
     3
 10
655.967644
 20
524.631519
 11
655.967644
 21
517.535046
  0
LINE
  8
CSLAYER1
  6
CONTINUOUS
 62
     3
 10
651.060167
 20
517.535046
 11
651.060167
 21
524.631519
  0
LINE
  8
CSLAYER1
  6
CONTINUOUS
 62
     3
 10
641.245212
 20
524.631519
 11
641.245212
 21
517.535046
  0
ARC
  8
CSLAYER1
  6
CONTINUOUS
 62
     3
 10
638.791473
 20
521.751432
 40
3.783614
 50
49.570103
 51
90.000000
  0
ARC
  8
CSLAYER1
  6
CONTINUOUS
 62
     3
 10
646.152689
 20
511.755881
 40
13.779165
 50
69.135936
 51
110.864064
  0
ARC
  8
CSLAYER1
  6
CONTINUOUS
 62
     3
 10
653.513905
 20
521.751432
 40
3.783614
 50
90.000000
 51
130.429897
  0
POINT
  8
CSLAYER1
 62
     3
 10
646.152689
 20
517.535046
  0
LINE
  8
CSLAYER1
  6
CONTINUOUS
 62
     3
 10
655.967644
 20
533.335046
 11
636.337735
 21
533.335046
  0
LINE
  8
CSLAYER1
  6
CONTINUOUS
 62
     3
 10
636.337735
 20
533.335046
 11
636.337735
 21
540.431519
  0
LINE
  8
CSLAYER1
  6
CONTINUOUS
 62
     3
 10
636.337735
 20
540.431519
 11
637.902689
 21
541.335046
  0
LINE
  8
CSLAYER1
  6
CONTINUOUS
 62
     3
 10
637.902689
 20
541.335046
 11
654.402689
 21
541.335046
  0
LINE
  8
CSLAYER1
  6
CONTINUOUS
 62
     3
 10
654.402689
 20
541.335046
 11
655.967644
 21
540.431519
  0
LINE
  8
CSLAYER1
  6
CONTINUOUS
 62
     3
 10
655.967644
 20
540.431519
 11
655.967644
 21
533.335046
  0
LINE
  8
CSLAYER1
  6
CONTINUOUS
 62
     3
 10
651.060167
 20
533.335046
 11
651.060167
 21
540.431519
  0
LINE
  8
CSLAYER1
  6
CONTINUOUS
 62
     3
 10
641.245212
 20
540.431519
 11
641.245212
 21
533.335046
  0
ARC
  8
CSLAYER1
  6
CONTINUOUS
 62
     3
 10
638.791473
 20
537.551432
 40
3.783614
 50
49.570103
 51
90.000000
  0
ARC
  8
CSLAYER1
  6
CONTINUOUS
 62
     3
 10
646.152689
 20
527.555881
 40
13.779165
 50
69.135936
 51
110.864064
  0
ARC
  8
CSLAYER1
  6
CONTINUOUS
 62
     3
 10
653.513905
 20
537.551432
 40
3.783614
 50
90.000000
 51
130.429897
  0
POINT
  8
CSLAYER1
 62
     3
 10
646.152689
 20
533.335046
  0
LINE
  8
CSLAYER1
  6
CONTINUOUS
 62
     3
 10
641.152689
 20
525.535046
 11
641.152689
 21
533.335046
  0
LINE
  8
CSLAYER1
  6
CONTINUOUS
 62
     4
 10
642.152689
 20
525.535046
 11
642.152689
 21
533.335046
  0
LINE
  8
CSLAYER1
  6
CONTINUOUS
 62
     3
 10
651.152689
 20
525.535046
 11
651.152689
 21
533.335046
  0
LINE
  8
CSLAYER1
  6
CONTINUOUS
 62
     4
 10
650.152689
 20
525.535046
 11
650.152689
 21
533.335046
  0
ENDBLK
  8
0
  0
BLOCK
  8
CSLAYER1
  2
BLKF0013
 70
   64
 10
0.0
 20
0.0
 30
0.0
  0
LINE
  8
CSLAYER1
  6
CENTER
 62
     5
 10
284.552689
 20
439.535046
 11
284.552689
 21
544.535046
  0
LINE
  8
CSLAYER1
  6
CONTINUOUS
 62
     7
 10
294.552689
 20
439.535046
 11
294.552689
 21
517.535046
  0
LINE
  8
CSLAYER1
  6
CONTINUOUS
 62
     7
 10
274.552689
 20
517.535046
 11
294.552689
 21
517.535046
  0
LINE
  8
CSLAYER1
  6
CONTINUOUS
 62
     7
 10
274.552689
 20
439.535046
 11
274.552689
 21
517.535046
  0
LINE
  8
CSLAYER1
  6
CONTINUOUS
 62
     3
 10
274.737735
 20
517.535046
 11
294.367644
 21
517.535046
  0
LINE
  8
CSLAYER1
  6
CONTINUOUS
 62
     3
 10
294.367644
 20
517.535046
 11
294.367644
 21
524.631519
  0
LINE
  8
CSLAYER1
  6
CONTINUOUS
 62
     3
 10
294.367644
 20
524.631519
 11
292.802689
 21
525.535046
  0
LINE
  8
CSLAYER1
  6
CONTINUOUS
 62
     3
 10
292.802689
 20
525.535046
 11
276.302689
 21
525.535046
  0
LINE
  8
CSLAYER1
  6
CONTINUOUS
 62
     3
 10
276.302689
 20
525.535046
 11
274.737735
 21
524.631519
  0
LINE
  8
CSLAYER1
  6
CONTINUOUS
 62
     3
 10
274.737735
 20
524.631519
 11
274.737735
 21
517.535046
  0
LINE
  8
CSLAYER1
  6
CONTINUOUS
 62
     3
 10
279.645212
 20
517.535046
 11
279.645212
 21
524.631519
  0
LINE
  8
CSLAYER1
  6
CONTINUOUS
 62
     3
 10
289.460167
 20
524.631519
 11
289.460167
 21
517.535046
  0
ARC
  8
CSLAYER1
  6
CONTINUOUS
 62
     3
 10
291.913905
 20
521.751432
 40
3.783614
 50
90.000000
 51
130.429897
  0
ARC
  8
CSLAYER1
  6
CONTINUOUS
 62
     3
 10
284.552689
 20
511.755881
 40
13.779165
 50
69.135936
 51
110.864064
  0
ARC
  8
CSLAYER1
  6
CONTINUOUS
 62
     3
 10
277.191473
 20
521.751432
 40
3.783614
 50
49.570103
 51
90.000000
  0
POINT
  8
CSLAYER1
 62
     3
 10
284.552689
 20
517.535046
  0
LINE
  8
CSLAYER1
  6
CONTINUOUS
 62
     3
 10
274.737735
 20
533.335046
 11
294.367644
 21
533.335046
  0
LINE
  8
CSLAYER1
  6
CONTINUOUS
 62
     3
 10
294.367644
 20
533.335046
 11
294.367644
 21
540.431519
  0
LINE
  8
CSLAYER1
  6
CONTINUOUS
 62
     3
 10
294.367644
 20
540.431519
 11
292.802689
 21
541.335046
  0
LINE
  8
CSLAYER1
  6
CONTINUOUS
 62
     3
 10
292.802689
 20
541.335046
 11
276.302689
 21
541.335046
  0
LINE
  8
CSLAYER1
  6
CONTINUOUS
 62
     3
 10
276.302689
 20
541.335046
 11
274.737735
 21
540.431519
  0
LINE
  8
CSLAYER1
  6
CONTINUOUS
 62
     3
 10
274.737735
 20
540.431519
 11
274.737735
 21
533.335046
  0
LINE
  8
CSLAYER1
  6
CONTINUOUS
 62
     3
 10
279.645212
 20
533.335046
 11
279.645212
 21
540.431519
  0
LINE
  8
CSLAYER1
  6
CONTINUOUS
 62
     3
 10
289.460167
 20
540.431519
 11
289.460167
 21
533.335046
  0
ARC
  8
CSLAYER1
  6
CONTINUOUS
 62
     3
 10
291.913905
 20
537.551432
 40
3.783614
 50
90.000000
 51
130.429897
  0
ARC
  8
CSLAYER1
  6
CONTINUOUS
 62
     3
 10
284.552689
 20
527.555881
 40
13.779165
 50
69.135936
 51
110.864064
  0
ARC
  8
CSLAYER1
  6
CONTINUOUS
 62
     3
 10
277.191473
 20
537.551432
 40
3.783614
 50
49.570103
 51
90.000000
  0
POINT
  8
CSLAYER1
 62
     3
 10
284.552689
 20
533.335046
  0
LINE
  8
CSLAYER1
  6
CONTINUOUS
 62
     3
 10
289.552689
 20
525.535046
 11
289.552689
 21
533.335046
  0
LINE
  8
CSLAYER1
  6
CONTINUOUS
 62
     4
 10
288.552689
 20
525.535046
 11
288.552689
 21
533.335046
  0
LINE
  8
CSLAYER1
  6
CONTINUOUS
 62
     3
 10
279.552689
 20
525.535046
 11
279.552689
 21
533.335046
  0
LINE
  8
CSLAYER1
  6
CONTINUOUS
 62
     4
 10
280.552689
 20
525.535046
 11
280.552689
 21
533.335046
  0
ENDBLK
  8
0
  0
ENDSEC
  0
SECTION
  2
ENTITIES
  0
LINE
  8
CSLAYER1
  6
CONTINUOUS
 62
     3
 10
118.051807
 20
2400.454119
 11
118.051807
 21
51.907189
  0
LINE
  8
CSLAYER1
  6
CONTINUOUS
 62
     3
 10
3440.625117
 20
2400.454119
 11
118.051807
 21
2400.454119
  0
LINE
  8
CSLAYER1
  6
CONTINUOUS
 62
     3
 10
3440.625117
 20
2400.454119
 11
3440.625117
 21
51.907189
  0
LINE
  8
CSLAYER1
  6
CONTINUOUS
 62
     3
 10
3440.625117
 20
51.907189
 11
118.051807
 21
51.907189
  0
LINE
  8
CSLAYER1
  6
CONTINUOUS
 62
     5
 10
68.051807
 20
1211.907189
 11
18.051807
 21
1211.907189
  0
LINE
  8
CSLAYER1
  6
CONTINUOUS
 62
     5
 10
2640.625117
 20
491.907189
 11
3440.625117
 21
491.907189
  0
LINE
  8
CSLAYER1
  6
CONTINUOUS
 62
     5
 10
2640.625117
 20
131.907189
 11
3440.625117
 21
131.907189
  0
LINE
  8
CSLAYER1
  6
CONTINUOUS
 62
     5
 10
2640.625117
 20
291.907189
 11
3440.625117
 21
291.907189
  0
LINE
  8
CSLAYER1
  6
CONTINUOUS
 62
     5
 10
2640.625117
 20
351.907189
 11
3440.625117
 21
351.907189
  0
LINE
  8
CSLAYER1
  6
CONTINUOUS
 62
     5
 10
2640.625117
 20
411.907189
 11
3440.625117
 21
411.907189
  0
LINE
  8
CSLAYER1
  6
CONTINUOUS
 62
     5
 10
2640.625117
 20
571.907189
 11
3440.625117
 21
571.907189
  0
LINE
  8
CSLAYER1
  6
CONTINUOUS
 62
     5
 10
2640.625117
 20
651.907189
 11
2640.625117
 21
51.907189
  0
LINE
  8
CSLAYER1
  6
CONTINUOUS
 62
     5
 10
2840.625117
 20
651.907189
 11
2840.625117
 21
411.907189
  0
LINE
  8
CSLAYER1
  6
CONTINUOUS
 62
     5
 10
2640.625117
 20
651.907189
 11
3440.625117
 21
651.907189
  0
LINE
  8
CSLAYER1
  6
CONTINUOUS
 62
     5
 10
3140.625117
 20
411.907189
 11
3140.625117
 21
131.907189
  0
TEXT
  8
CSLAYER1
 62
     3
 10
2860.316219
 20
60.469913
 40
59.380363
 41
1.003345
  1
東正車輌株式会社
 50
0.000000
 51
0.000000
  7
EASYDRAW_FONT
 72
     5
 11
3317.088566
 21
60.469913
  0
LINE
  8
CSLAYER1
  6
CONTINUOUS
 62
     5
 10
2890.625117
 20
351.907189
 11
2890.625117
 21
131.907189
  0
TEXT
  8
CSLAYER1
 62
     5
 10
2670.625000
 20
586.907166
 40
50.000000
 41
1.050000
  1
品　名
 50
0.000000
 51
0.000000
  7
EASYDRAW_FONT
 72
     5
 11
2810.625000
 21
586.907166
  0
TEXT
  8
CSLAYER1
 62
     5
 10
2670.625000
 20
506.907166
 40
50.000000
 41
1.050000
  1
型　式
 50
0.000000
 51
0.000000
  7
EASYDRAW_FONT
 72
     5
 11
2810.625000
 21
506.907166
  0
TEXT
  8
CSLAYER1
 62
     5
 10
2645.625000
 20
426.907196
 40
50.000000
 41
1.036364
  1
図面番号
 50
0.000000
 51
0.000000
  7
EASYDRAW_FONT
 72
     5
 11
2835.625000
 21
426.907196
  0
TEXT
  8
CSLAYER1
 62
     5
 10
2690.625000
 20
356.907196
 40
50.000000
 41
0.827586
  1
平成２８年４月１６日
 50
0.000000
 51
0.000000
  7
EASYDRAW_FONT
 72
     5
 11
3090.625000
 21
356.907196
  0
TEXT
  8
CSLAYER1
 62
     5
 10
3220.625000
 20
356.907196
 40
50.000000
 41
1.050000
  1
Ｂ－４
 50
0.000000
 51
0.000000
  7
EASYDRAW_FONT
 72
     5
 11
3360.625000
 21
356.907196
  0
TEXT
  8
CSLAYER1
 62
     5
 10
2695.625000
 20
296.907196
 40
50.000000
 41
1.050000
  1
検　図
 50
0.000000
 51
0.000000
  7
EASYDRAW_FONT
 72
     5
 11
2835.625000
 21
296.907196
  0
TEXT
  8
CSLAYER1
 62
     5
 10
2945.625000
 20
296.907196
 40
50.000000
 41
1.050000
  1
作　図
 50
0.000000
 51
0.000000
  7
EASYDRAW_FONT
 72
     5
 11
3085.625000
 21
296.907196
  0
TEXT
  8
CSLAYER1
 62
     5
 10
3220.625000
 20
296.907196
 40
50.000000
 41
1.050000
  1
尺　度
 50
0.000000
 51
0.000000
  7
EASYDRAW_FONT
 72
     5
 11
3360.625000
 21
296.907196
  0
TEXT
  8
CSLAYER1
 62
     5
 10
3321.363770
 20
146.392456
 40
50.000000
 41
1.080000
  1
１０
 50
0.000000
 51
0.000000
  7
EASYDRAW_FONT
 72
     5
 11
3411.363770
 21
146.392456
  0
TEXT
  8
CSLAYER1
 62
     5
 10
3301.044189
 20
194.097153
 40
50.000000
 41
1.200000
  1
／
 50
0.000000
 51
0.000000
  7
EASYDRAW_FONT
 72
     5
 11
3341.044189
 21
194.097153
  0
TEXT
  8
CSLAYER1
 62
     5
 10
3270.831299
 20
229.080597
 40
50.000000
 41
1.200000
  1
１
 50
0.000000
 51
0.000000
  7
EASYDRAW_FONT
 72
     5
 11
3310.831299
 21
229.080597
  0
TEXT
  8
CSLAYER1
 62
     3
 10
2980.625000
 20
586.907166
 40
50.000000
 41
0.834783
  1
ゴールドリフター
 50
0.000000
 51
0.000000
  7
EASYDRAW_FONT
 72
     5
 11
3300.625000
 21
586.907166
  0
TEXT
  8
CSLAYER1
 62
     3
 10
2900.625000
 20
506.907166
 40
50.000000
 41
0.822857
  1
ＧＬＩ－３００－０５０９
 50
0.000000
 51
0.000000
  7
EASYDRAW_FONT
 72
     5
 11
3380.625000
 21
506.907166
  0
TEXT
  8
CSLAYER1
 62
     3
 10
3040.625000
 20
426.907196
 40
50.000000
 41
0.857143
  1
GI-02
 50
0.000000
 51
0.000000
  7
EASYDRAW_FONT
 72
     5
 11
3240.625000
 21
426.907196
  0
INSERT
  8
CSLAYER1
  2
BLKF0000
 10
0.0
 20
0.0
 30
0.0
  0
LINE
  8
CSLAYER1
  6
CONTINUOUS
 62
     5
 10
3414.467241
 20
1855.774288
 11
2693.594724
 21
1855.774288
  0
LINE
  8
CSLAYER1
  6
CONTINUOUS
 62
     5
 10
3414.467241
 20
1791.774289
 11
2693.594724
 21
1791.774289
  0
LINE
  8
CSLAYER1
  6
CONTINUOUS
 62
     5
 10
3414.467241
 20
1727.774291
 11
2693.594724
 21
1727.774291
  0
LINE
  8
CSLAYER1
  6
CONTINUOUS
 62
     5
 10
3414.467241
 20
1663.774292
 11
2694.467259
 21
1663.774292
  0
LINE
  8
CSLAYER1
  6
CONTINUOUS
 62
     5
 10
3414.467241
 20
1599.774294
 11
2693.594724
 21
1599.774294
  0
LINE
  8
CSLAYER1
  6
CONTINUOUS
 62
     5
 10
3414.467241
 20
1535.774296
 11
2693.594724
 21
1535.774296
  0
LINE
  8
CSLAYER1
  6
CONTINUOUS
 62
     5
 10
3414.467241
 20
1471.774297
 11
2693.594724
 21
1471.774297
  0
LINE
  8
CSLAYER1
  6
CONTINUOUS
 62
     5
 10
3414.467241
 20
1407.774299
 11
2693.594724
 21
1407.774299
  0
LINE
  8
CSLAYER1
  6
CONTINUOUS
 62
     5
 10
3414.467241
 20
1343.774300
 11
2693.594724
 21
1343.774300
  0
LINE
  8
CSLAYER1
  6
CONTINUOUS
 62
     5
 10
3414.467241
 20
1215.774304
 11
2693.594724
 21
1215.774304
  0
LINE
  8
CSLAYER1
  6
CONTINUOUS
 62
     5
 10
3414.467241
 20
1151.774305
 11
2693.594724
 21
1151.774305
  0
TEXT
  8
CSLAYER1
 62
     3
 10
2889.318604
 20
1935.593140
 40
40.000000
 41
0.857143
  1
仕   様
 50
0.000000
 51
0.000000
  7
EASYDRAW_FONT
 72
     5
 11
3049.318604
 21
1935.593140
  0
TEXT
  8
CSLAYER1
 62
     3
 10
2704.354248
 20
1863.996948
 40
40.000000
 41
0.847059
  1
型    式
 50
0.000000
 51
0.000000
  7
EASYDRAW_FONT
 72
     5
 11
2896.354248
 21
1863.996948
  0
TEXT
  8
CSLAYER1
 62
     3
 10
2702.534668
 20
1741.507568
 40
40.000000
 41
0.847059
  1
テーブル寸法
 50
0.000000
 51
0.000000
  7
EASYDRAW_FONT
 72
     5
 11
2894.534668
 21
1741.507568
  0
TEXT
  8
CSLAYER1
 62
     3
 10
2704.354248
 20
1678.443115
 40
40.000000
 41
0.847059
  1
テーブル高サ
 50
0.000000
 51
0.000000
  7
EASYDRAW_FONT
 72
     5
 11
2896.354248
 21
1678.443115
  0
TEXT
  8
CSLAYER1
 62
     3
 10
2705.801025
 20
1613.560303
 40
40.000000
 41
0.857143
  1
ストローク
 50
0.000000
 51
0.000000
  7
EASYDRAW_FONT
 72
     5
 11
2865.801025
 21
1613.560303
  0
TEXT
  8
CSLAYER1
 62
     3
 10
2705.194824
 20
1548.677490
 40
40.000000
 41
0.857143
  1
全   長
 50
0.000000
 51
0.000000
  7
EASYDRAW_FONT
 72
     5
 11
2865.194824
 21
1548.677490
  0
TEXT
  8
CSLAYER1
 62
     3
 10
2707.466064
 20
1482.826904
 40
40.000000
 41
0.857143
  1
全   巾
 50
0.000000
 51
0.000000
  7
EASYDRAW_FONT
 72
     5
 11
2867.466064
 21
1482.826904
  0
TEXT
  8
CSLAYER1
 62
     3
 10
2705.908203
 20
1418.941650
 40
40.000000
 41
0.857143
  1
全   高
 50
0.000000
 51
0.000000
  7
EASYDRAW_FONT
 72
     5
 11
2865.908203
 21
1418.941650
  0
TEXT
  8
CSLAYER1
 62
     3
 10
2705.908203
 20
1356.614990
 40
40.000000
 41
0.857143
  1
リフト方式
 50
0.000000
 51
0.000000
  7
EASYDRAW_FONT
 72
     5
 11
2865.908203
 21
1356.614990
  0
TEXT
  8
CSLAYER1
 62
     3
 10
2704.767822
 20
1161.727783
 40
40.000000
 41
0.872727
  1
モーター
 50
0.000000
 51
0.000000
  7
EASYDRAW_FONT
 72
     5
 11
2832.767822
 21
1161.727783
  0
LINE
  8
CSLAYER1
  6
CONTINUOUS
 62
     5
 10
3414.467241
 20
1087.774307
 11
2693.594724
 21
1087.774307
  0
LINE
  8
CSLAYER1
  6
CONTINUOUS
 62
     5
 10
3414.467241
 20
959.774310
 11
2691.456222
 21
959.774310
  0
LINE
  8
CSLAYER1
  6
CONTINUOUS
 62
     5
 10
3414.467241
 20
895.774312
 11
2693.594724
 21
895.774312
  0
LINE
  8
CSLAYER1
  6
CONTINUOUS
 62
     5
 10
3414.467241
 20
831.774313
 11
2693.594724
 21
831.774313
  0
TEXT
  8
CSLAYER1
 62
     3
 10
2707.349365
 20
842.896179
 40
40.000000
 41
0.857143
  1
自  　重
 50
0.000000
 51
0.000000
  7
EASYDRAW_FONT
 72
     5
 11
2867.349365
 21
842.896179
  0
TEXT
  8
CSLAYER1
 62
     3
 10
2704.253418
 20
779.556580
 40
40.000000
 41
0.847059
  1
塗　装　色 
 50
0.000000
 51
0.000000
  7
EASYDRAW_FONT
 72
     5
 11
2896.253418
 21
779.556580
  0
TEXT
  8
CSLAYER1
 62
     3
 10
3157.776611
 20
1802.505737
 40
40.000000
 41
0.872727
  1
 300
 50
0.000000
 51
0.000000
  7
EASYDRAW_FONT
 72
     5
 11
3285.776611
 21
1802.505737
  0
TEXT
  8
CSLAYER1
 62
     3
 10
3343.933350
 20
1798.832397
 40
40.000000
 41
0.960000
  1
Ｋｇ
 50
0.000000
 51
0.000000
  7
EASYDRAW_FONT
 72
     5
 11
3407.933350
 21
1798.832397
  0
TEXT
  8
CSLAYER1
 62
     3
 10
2996.660889
 20
1738.002197
 40
40.000000
 41
0.830769
  1
900L×500W
 50
0.000000
 51
0.000000
  7
EASYDRAW_FONT
 72
     5
 11
3284.660889
 21
1738.002197
  0
TEXT
  8
CSLAYER1
 62
     3
 10
3057.368408
 20
1675.468506
 40
40.000000
 41
0.840000
  1
155～700
 50
0.000000
 51
0.000000
  7
EASYDRAW_FONT
 72
     5
 11
3281.368408
 21
1675.468506
  0
TEXT
  8
CSLAYER1
 62
     3
 10
3183.614990
 20
1611.793701
 40
40.000000
 41
0.900000
  1
545
 50
0.000000
 51
0.000000
  7
EASYDRAW_FONT
 72
     5
 11
3279.614990
 21
1611.793701
  0
TEXT
  8
CSLAYER1
 62
     3
 10
3187.753662
 20
1547.007568
 40
40.000000
 41
0.900000
  1
900
 50
0.000000
 51
0.000000
  7
EASYDRAW_FONT
 72
     5
 11
3283.753662
 21
1547.007568
  0
TEXT
  8
CSLAYER1
 62
     3
 10
3185.734131
 20
1483.703857
 40
40.000000
 41
0.900000
  1
500
 50
0.000000
 51
0.000000
  7
EASYDRAW_FONT
 72
     5
 11
3281.734131
 21
1483.703857
  0
TEXT
  8
CSLAYER1
 62
     3
 10
2938.648193
 20
1356.031982
 40
40.000000
 41
0.827586
  1
電 動 ボールネジ式
 50
0.000000
 51
0.000000
  7
EASYDRAW_FONT
 72
     5
 11
3258.648193
 21
1356.031982
  0
TEXT
  8
CSLAYER1
 62
     3
 10
2935.874268
 20
1162.644775
 40
40.000000
 41
0.819512
  1
３相ＡＣ２００Ｖ、0.2ＫＷ
 50
0.000000
 51
0.000000
  7
EASYDRAW_FONT
 72
     5
 11
3383.874268
 21
1162.644775
  0
TEXT
  8
CSLAYER1
 62
     3
 10
3066.857666
 20
1098.801025
 40
40.000000
 41
0.840000
  1
長サ  ４ ｍ
 50
0.000000
 51
0.000000
  7
EASYDRAW_FONT
 72
     5
 11
3290.857666
 21
1098.801025
  0
TEXT
  8
CSLAYER1
 62
     3
 10
3195.497314
 20
844.795349
 40
40.000000
 41
0.857143
  1
９１　Ｋｇ
 50
0.000000
 51
0.000000
  7
EASYDRAW_FONT
 72
     5
 11
3355.497314
 21
844.795349
  0
TEXT
  8
CSLAYER1
 62
     3
 10
3183.725342
 20
1419.042725
 40
40.000000
 41
0.900000
  1
155
 50
0.000000
 51
0.000000
  7
EASYDRAW_FONT
 72
     5
 11
3279.725342
 21
1419.042725
  0
TEXT
  8
CSLAYER1
 62
     3
 10
3341.419189
 20
1734.728760
 40
40.000000
 41
0.960000
  1
mm
 50
0.000000
 51
0.000000
  7
EASYDRAW_FONT
 72
     5
 11
3405.419189
 21
1734.728760
  0
TEXT
  8
CSLAYER1
 62
     3
 10
3341.419189
 20
1674.395752
 40
40.000000
 41
0.960000
  1
mm
 50
0.000000
 51
0.000000
  7
EASYDRAW_FONT
 72
     5
 11
3405.419189
 21
1674.395752
  0
TEXT
  8
CSLAYER1
 62
     3
 10
3337.648438
 20
1610.291748
 40
40.000000
 41
0.960000
  1
mm
 50
0.000000
 51
0.000000
  7
EASYDRAW_FONT
 72
     5
 11
3401.648438
 21
1610.291748
  0
TEXT
  8
CSLAYER1
 62
     3
 10
3337.648438
 20
1542.416748
 40
40.000000
 41
0.960000
  1
mm
 50
0.000000
 51
0.000000
  7
EASYDRAW_FONT
 72
     5
 11
3401.648438
 21
1542.416748
  0
TEXT
  8
CSLAYER1
 62
     3
 10
3335.135010
 20
1482.083740
 40
40.000000
 41
0.960000
  1
mm
 50
0.000000
 51
0.000000
  7
EASYDRAW_FONT
 72
     5
 11
3399.135010
 21
1482.083740
  0
TEXT
  8
CSLAYER1
 62
     3
 10
3335.135010
 20
1417.979248
 40
40.000000
 41
0.960000
  1
mm
 50
0.000000
 51
0.000000
  7
EASYDRAW_FONT
 72
     5
 11
3399.135010
 21
1417.979248
  0
LINE
  8
CSLAYER1
  6
CONTINUOUS
 62
     5
 10
3077.371661
 20
1919.774286
 11
2868.985690
 21
1919.774286
  0
LINE
  8
CSLAYER1
  6
CONTINUOUS
 62
     5
 10
3077.371661
 20
1927.774286
 11
2868.985690
 21
1927.774286
  0
TEXT
  8
CSLAYER1
 62
     3
 10
2708.349854
 20
1225.613525
 40
40.000000
 41
1.036364
  1
操作方式
 50
0.000000
 51
0.000000
  7
EASYDRAW_FONT
 72
     5
 11
2860.349854
 21
1225.613525
  0
LINE
  8
CSLAYER1
  6
CONTINUOUS
 62
     5
 10
3414.467241
 20
1023.774308
 11
2693.594724
 21
1023.774308
  0
TEXT
  8
CSLAYER1
 62
     3
 10
2705.684082
 20
1098.410400
 40
40.000000
 41
0.942857
  1
電源コード
 50
0.000000
 51
0.000000
  7
EASYDRAW_FONT
 72
     5
 11
2881.684082
 21
1098.410400
  0
TEXT
  8
CSLAYER2
 62
     5
 10
2958.186064
 20
1861.407518
 40
36.148586
 41
0.847115
  1
GLI-300-0509
 50
0.000000
 51
0.000000
  7
EASYDRAW_FONT
 72
     5
 11
3315.442842
 21
1861.407518
  0
TEXT
  8
CSLAYER1
 62
     3
 10
2936.324463
 20
1225.345459
 40
40.000000
 41
1.020000
  1
フットスイッチ
 50
0.000000
 51
0.000000
  7
EASYDRAW_FONT
 72
     5
 11
3208.324463
 21
1225.345459
  0
LINE
  8
CSLAYER1
  6
CONTINUOUS
 62
     3
 10
2556.562074
 20
389.535046
 11
158.463013
 21
389.535046
  0
TEXT
  8
CSLAYER1
 62
     4
 10
2706.113053
 20
1029.288950
 40
47.730206
 41
0.593339
  1
昇降時間 １９秒（50HZ） １６秒(60HZ)
 50
0.000000
 51
0.000000
  7
EASYDRAW_FONT
 72
     5
 11
3376.358139
 21
1029.288950
  0
TEXT
  8
CSLAYER1
 62
     4
 10
2707.413818
 20
903.845886
 40
40.000000
 41
0.912766
  1
上昇端、下降端リミットスイッチ付
 50
0.000000
 51
0.000000
  7
EASYDRAW_FONT
 72
     5
 11
3279.413818
 21
903.845886
  0
TEXT
  8
CSLAYER1
 62
     5
 10
2484.446205
 20
395.214386
 40
29.942631
 41
0.818121
  1
Ｆ.Ｌ
 50
0.000000
 51
0.000000
  7
EASYDRAW_FONT
 72
     5
 11
2549.770752
 21
395.214386
  0
LINE
  8
CSLAYER1
  6
CONTINUOUS
 62
     3
 10
2044.244340
 20
1889.285715
 11
2128.779173
 21
1889.285715
  0
LINE
  8
CSLAYER1
  6
CONTINUOUS
 62
     3
 10
2044.244340
 20
1896.285715
 11
2128.779173
 21
1896.285715
  0
LINE
  8
CSLAYER1
  6
CONTINUOUS
 62
     3
 10
2044.244340
 20
1931.485715
 11
2085.170879
 21
1931.485715
  0
LINE
  8
CSLAYER1
  6
CONTINUOUS
 62
     3
 10
2044.244340
 20
1924.485715
 11
2085.170879
 21
1924.485715
  0
TEXT
  8
CSLAYER1
 62
     5
 10
2700.541260
 20
2105.678711
 40
40.000000
 41
1.020000
  1
ＵＰ・ＤＯＷＮ
 50
360.000000
 51
0.000000
  7
EASYDRAW_FONT
 72
     5
 11
2972.541260
 21
2105.678711
  0
TEXT
  8
CSLAYER1
 62
     5
 10
2700.541260
 20
2157.455566
 40
40.000000
 41
1.020000
  1
フットスイッチ
 50
360.000000
 51
0.000000
  7
EASYDRAW_FONT
 72
     5
 11
2972.541260
 21
2157.455566
  0
TEXT
  8
CSLAYER1
 62
     5
 10
2660.116943
 20
2208.553467
 40
40.000000
 41
1.036364
  1
長サ４ｍ
 50
360.000000
 51
0.000000
  7
EASYDRAW_FONT
 72
     5
 11
2812.116943
 21
2208.553467
  0
TEXT
  8
CSLAYER1
 62
     5
 10
2647.182617
 20
2260.536865
 40
40.000000
 41
1.028571
  1
電源コード
 50
360.000000
 51
0.000000
  7
EASYDRAW_FONT
 72
     5
 11
2839.182617
 21
2260.536865
  0
LINE
  8
CSLAYER1
  6
CONTINUOUS
 62
     3
 10
2388.680451
 20
2038.680011
 11
2469.334737
 21
1958.025725
  0
LINE
  8
CSLAYER1
  6
CONTINUOUS
 62
     3
 10
2383.730703
 20
2033.730264
 11
2464.384989
 21
1953.075978
  0
ARC
  8
CSLAYER1
  6
CONTINUOUS
 62
     3
 10
2355.446432
 20
2005.445993
 40
40.000000
 50
-315.000000
 51
18.051119
  0
ARC
  8
CSLAYER1
  6
CONTINUOUS
 62
     3
 10
2355.446432
 20
2005.445993
 40
47.000000
 50
-315.000000
 51
5.026912
  0
LINE
  8
CSLAYER1
  6
CONTINUOUS
 62
     3
 10
2164.309385
 20
1970.353916
 11
2262.758436
 21
2097.801677
  0
LINE
  8
CSLAYER1
  6
CONTINUOUS
 62
     3
 10
2169.849081
 20
1966.074691
 11
2276.065161
 21
2103.577302
  0
LINE
  8
CSLAYER1
  6
CONTINUOUS
 62
     3
 10
2196.601702
 20
1922.800311
 11
2309.476123
 21
2026.976492
  0
LINE
  8
CSLAYER1
  6
CONTINUOUS
 62
     3
 10
2201.349279
 20
1917.656333
 11
2304.002313
 21
2012.398799
  0
ARC
  8
CSLAYER1
  6
CONTINUOUS
 62
     3
 10
2252.686915
 20
2150.195930
 40
47.000000
 50
-50.756396
 51
267.198537
  0
ARC
  8
CSLAYER1
  6
CONTINUOUS
 62
     3
 10
2252.686915
 20
2150.195930
 40
40.000000
 50
-63.471057
 51
267.198537
  0
LINE
  8
CSLAYER1
  6
CONTINUOUS
 62
     3
 10
2477.320579
 20
2092.147523
 11
2477.662706
 21
2099.139158
  0
LINE
  8
CSLAYER1
  6
CONTINUOUS
 62
     3
 10
2477.662706
 20
2099.139158
 11
2250.731904
 21
2110.243735
  0
LINE
  8
CSLAYER1
  6
CONTINUOUS
 62
     3
 10
2477.320579
 20
2092.147523
 11
2250.389777
 21
2103.252100
  0
ARC
  8
CSLAYER1
  6
CONTINUOUS
 62
     3
 10
2085.170879
 20
2031.485715
 40
100.000000
 50
270.000000
 51
322.315137
  0
ARC
  8
CSLAYER1
  6
CONTINUOUS
 62
     3
 10
2085.170879
 20
2031.485715
 40
107.000000
 50
270.000000
 51
322.315137
  0
ARC
  8
CSLAYER1
  6
CONTINUOUS
 62
     3
 10
2128.779173
 20
1996.285715
 40
100.000000
 50
270.000000
 51
312.705116
  0
ARC
  8
CSLAYER1
  6
CONTINUOUS
 62
     3
 10
2128.779173
 20
1996.285715
 40
107.000000
 50
270.000000
 51
312.705116
  0
LINE
  8
CSLAYER1
  6
CONTINUOUS
 62
     5
 10
2634.376249
 20
2254.548030
 11
2850.436722
 21
2254.548030
  0
LINE
  8
CSLAYER1
  6
CONTINUOUS
 62
     5
 10
2689.469692
 20
2151.329258
 11
2978.714489
 21
2151.329258
  0
CIRCLE
  8
CSLAYER1
  6
DASHED
 62
     5
 10
1750.688183
 20
414.035046
 40
6.000000
  0
CIRCLE
  8
CSLAYER1
  6
DASHED
 62
     5
 10
1750.688183
 20
414.035046
 40
18.500000
  0
POINT
  8
CSLAYER1
 62
     5
 10
1604.142040
 20
926.180900
  0
ARC
  8
CSLAYER1
  6
CONTINUOUS
 62
     4
 10
1604.142040
 20
926.180900
 40
9.050000
 50
254.519091
 51
344.434860
  0
CIRCLE
  8
CSLAYER1
  6
CONTINUOUS
 62
     4
 10
1749.517514
 20
1021.921070
 40
18.500000
  0
LINE
  8
CSLAYER1
  6
CENTER
 62
     5
 10
1749.437294
 20
1042.236741
 11
1749.594606
 21
1002.397479
  0
LINE
  8
CSLAYER1
  6
CENTER
 62
     5
 10
1727.230149
 20
1021.833064
 11
1770.990949
 21
1022.005861
  0
LINE
  8
CSLAYER1
  6
CENTER
 62
     5
 10
1133.283068
 20
1857.927116
 11
2035.798115
 21
1857.927116
  0
LINE
  8
CSLAYER1
  6
CONTINUOUS
 62
     3
 10
1135.598115
 20
2107.927116
 11
1135.598115
 21
1607.927116
  0
LINE
  8
CSLAYER1
  6
CONTINUOUS
 62
     3
 10
2035.598115
 20
2107.927116
 11
2035.598115
 21
1607.927116
  0
CIRCLE
  8
CSLAYER1
  6
CONTINUOUS
 62
     7
 10
1376.823088
 20
687.242766
 40
10.000000
  0
POINT
  8
CSLAYER1
 62
     7
 10
1376.823088
 20
687.242766
  0
LINE
  8
CSLAYER1
  6
CONTINUOUS
 62
     7
 10
1176.789508
 20
505.276927
 11
1159.847000
 21
439.535046
  0
LINE
  8
CSLAYER1
  6
CONTINUOUS
 62
     7
 10
1255.798115
 20
478.647318
 11
1453.022598
 21
679.147497
  0
LINE
  8
CSLAYER1
  6
CONTINUOUS
 62
     7
 10
1332.855836
 20
702.437525
 11
1176.789508
 21
505.276927
  0
LINE
  8
CSLAYER1
  6
CONTINUOUS
 62
     7
 10
1332.855836
 20
702.437525
 11
1379.780602
 21
750.141663
  0
LINE
  8
CSLAYER1
  6
CONTINUOUS
 62
     7
 10
1523.244068
 20
767.647348
 11
1503.748577
 21
730.715982
  0
LINE
  8
CSLAYER1
  6
CONTINUOUS
 62
     7
 10
1523.244068
 20
767.647348
 11
1606.227868
 21
852.009424
  0
ARC
  8
CSLAYER1
  6
CONTINUOUS
 62
     7
 10
1669.926141
 20
988.065971
 40
22.000000
 50
-37.096710
 51
142.903290
  0
LINE
  8
CSLAYER1
  6
CONTINUOUS
 62
     7
 10
1652.378532
 20
1001.335539
 11
1582.427320
 21
908.832416
  0
LINE
  8
CSLAYER1
  6
CONTINUOUS
 62
     7
 10
1687.473749
 20
974.796403
 11
1617.522537
 21
882.293280
  0
ARC
  8
CSLAYER1
  6
CONTINUOUS
 62
     7
 10
1599.974928
 20
895.562848
 40
22.000000
 50
142.903290
 51
322.903290
  0
POINT
  8
CSLAYER1
 62
     7
 10
1459.657814
 20
717.978058
  0
POINT
  8
CSLAYER1
 62
     7
 10
1749.517514
 20
1021.921070
  0
ARC
  8
CSLAYER1
  6
CONTINUOUS
 62
     7
 10
1599.974928
 20
895.562848
 40
44.000000
 50
278.170092
 51
318.419183
  0
LINE
  8
CSLAYER1
  6
CONTINUOUS
 62
     7
 10
1632.887823
 20
866.361112
 11
1755.322224
 21
1004.355326
  0
LINE
  8
CSLAYER1
  6
CONTINUOUS
 62
     7
 10
1588.727176
 20
643.265012
 11
1517.455662
 21
755.709856
  0
ARC
  8
CSLAYER1
  6
CONTINUOUS
 62
     7
 10
1571.834629
 20
632.557918
 40
20.000000
 50
7.890398
 51
32.367967
  0
POINT
  8
CSLAYER1
 62
     5
 10
1459.657814
 20
717.978058
  0
LINE
  8
CSLAYER1
  6
CONTINUOUS
 62
     7
 10
1745.658539
 20
486.016967
 11
1188.798115
 21
1025.787088
  0
LINE
  8
CSLAYER1
  6
CONTINUOUS
 62
     7
 10
1173.657090
 20
949.939149
 11
1700.221703
 21
439.535046
  0
LINE
  8
CSLAYER1
  6
CONTINUOUS
 62
     7
 10
1758.892989
 20
439.535046
 11
1745.658539
 21
486.016967
  0
LINE
  8
CSLAYER1
  6
CONTINUOUS
 62
     7
 10
1173.657090
 20
949.939149
 11
1157.860138
 21
1005.421070
  0
LINE
  8
CSLAYER1
  6
CONTINUOUS
 62
     3
 10
2014.998115
 20
487.835046
 11
2014.998115
 21
439.535046
  0
LINE
  8
CSLAYER1
  6
CONTINUOUS
 62
     3
 10
2044.998115
 20
478.335046
 11
2044.998115
 21
461.335046
  0
LINE
  8
CSLAYER1
  6
CONTINUOUS
 62
     3
 10
2041.028548
 20
482.825427
 11
2026.400678
 21
482.825427
  0
LINE
  8
CSLAYER1
  6
CONTINUOUS
 62
     3
 10
2041.889020
 20
481.335046
 11
2041.889020
 21
458.335046
  0
LINE
  8
CSLAYER1
  6
CONTINUOUS
 62
     3
 10
2025.540206
 20
481.335046
 11
2025.540206
 21
458.335046
  0
LINE
  8
CSLAYER1
  6
CONTINUOUS
 62
     3
 10
2041.889020
 20
481.335046
 11
2041.028548
 21
482.825427
  0
LINE
  8
CSLAYER1
  6
CONTINUOUS
 62
     3
 10
2025.540206
 20
481.335046
 11
2026.400678
 21
482.825427
  0
LINE
  8
CSLAYER1
  6
CONTINUOUS
 62
     3
 10
2041.028548
 20
476.474574
 11
2026.400678
 21
476.474574
  0
ARC
  8
CSLAYER1
  6
CONTINUOUS
 62
     3
 10
2015.842995
 20
469.835046
 40
26.046025
 50
-14.768561
 51
14.768561
  0
ARC
  8
CSLAYER1
  6
CONTINUOUS
 62
     3
 10
2035.757427
 20
479.650001
 40
6.153702
 50
-31.065581
 51
23.174644
  0
ARC
  8
CSLAYER1
  6
CONTINUOUS
 62
     3
 10
2031.671799
 20
479.650001
 40
6.153702
 50
156.825356
 51
211.065581
  0
ARC
  8
CSLAYER1
  6
CONTINUOUS
 62
     3
 10
2051.586231
 20
469.835046
 40
26.046025
 50
165.231439
 51
194.768561
  0
LINE
  8
CSLAYER1
  6
CONTINUOUS
 62
     3
 10
2041.998115
 20
481.335046
 11
2041.889020
 21
481.335046
  0
ARC
  8
CSLAYER1
  6
CONTINUOUS
 62
     3
 10
2041.998115
 20
478.335046
 40
3.000000
 50
0.000000
 51
90.000000
  0
LINE
  8
CSLAYER1
  6
CONTINUOUS
 62
     3
 10
2021.998115
 20
481.335046
 11
2021.998115
 21
458.335046
  0
LINE
  8
CSLAYER1
  6
CONTINUOUS
 62
     3
 10
2021.998115
 20
481.335046
 11
2021.137643
 21
482.825427
  0
ARC
  8
CSLAYER1
  6
CONTINUOUS
 62
     3
 10
1995.952090
 20
469.835046
 40
26.046025
 50
-14.768561
 51
14.768561
  0
ARC
  8
CSLAYER1
  6
CONTINUOUS
 62
     3
 10
2015.866522
 20
479.650001
 40
6.153702
 50
-31.065581
 51
23.174644
  0
LINE
  8
CSLAYER1
  6
CONTINUOUS
 62
     3
 10
2021.137643
 20
476.474574
 11
2016.998115
 21
476.474574
  0
LINE
  8
CSLAYER1
  6
CONTINUOUS
 62
     3
 10
2021.137643
 20
482.825427
 11
2016.998115
 21
482.825427
  0
LINE
  8
CSLAYER1
  6
CONTINUOUS
 62
     3
 10
2025.540206
 20
480.171170
 11
2021.998115
 21
480.171170
  0
LINE
  8
CSLAYER1
  6
CONTINUOUS
 62
     3
 10
2025.540206
 20
479.524792
 11
2023.933844
 21
479.524792
  0
LINE
  8
CSLAYER1
  6
CONTINUOUS
 62
     3
 10
2023.933844
 20
480.171170
 11
2023.933844
 21
459.498922
  0
LINE
  8
CSLAYER1
  6
CONTINUOUS
 62
     3
 10
2023.933844
 20
479.524792
 11
2022.798993
 21
480.171170
  0
LINE
  8
CSLAYER1
  6
CONTINUOUS
 62
     3
 10
2041.028548
 20
456.844665
 11
2026.400678
 21
456.844665
  0
LINE
  8
CSLAYER1
  6
CONTINUOUS
 62
     3
 10
2041.889020
 20
458.335046
 11
2041.028548
 21
456.844665
  0
LINE
  8
CSLAYER1
  6
CONTINUOUS
 62
     3
 10
2025.540206
 20
458.335046
 11
2026.400678
 21
456.844665
  0
LINE
  8
CSLAYER1
  6
CONTINUOUS
 62
     3
 10
2041.028548
 20
463.195518
 11
2026.400678
 21
463.195518
  0
ARC
  8
CSLAYER1
  6
CONTINUOUS
 62
     3
 10
2035.757427
 20
460.020091
 40
6.153702
 50
-23.174644
 51
31.065581
  0
ARC
  8
CSLAYER1
  6
CONTINUOUS
 62
     3
 10
2031.671799
 20
460.020091
 40
6.153702
 50
148.934419
 51
203.174644
  0
LINE
  8
CSLAYER1
  6
CONTINUOUS
 62
     3
 10
2041.998115
 20
458.335046
 11
2041.889020
 21
458.335046
  0
ARC
  8
CSLAYER1
  6
CONTINUOUS
 62
     3
 10
2041.998115
 20
461.335046
 40
3.000000
 50
270.000000
 51
360.000000
  0
LINE
  8
CSLAYER1
  6
CONTINUOUS
 62
     3
 10
2021.998115
 20
458.335046
 11
2021.137643
 21
456.844665
  0
ARC
  8
CSLAYER1
  6
CONTINUOUS
 62
     3
 10
2015.866522
 20
460.020091
 40
6.153702
 50
-23.174644
 51
31.065581
  0
LINE
  8
CSLAYER1
  6
CONTINUOUS
 62
     3
 10
2021.137643
 20
463.195518
 11
2016.998115
 21
463.195518
  0
LINE
  8
CSLAYER1
  6
CONTINUOUS
 62
     3
 10
2021.137643
 20
456.844665
 11
2016.998115
 21
456.844665
  0
LINE
  8
CSLAYER1
  6
CONTINUOUS
 62
     3
 10
2025.540206
 20
459.498922
 11
2021.998115
 21
459.498922
  0
LINE
  8
CSLAYER1
  6
CONTINUOUS
 62
     3
 10
2025.540206
 20
460.145299
 11
2023.933844
 21
460.145299
  0
LINE
  8
CSLAYER1
  6
CONTINUOUS
 62
     3
 10
2023.933844
 20
460.145299
 11
2022.798993
 21
459.498922
  0
ARC
  8
CSLAYER1
  6
CONTINUOUS
 62
     3
 10
2015.998115
 20
481.285046
 40
1.000000
 50
0.000000
 51
180.000000
  0
POINT
  8
CSLAYER1
 62
     3
 10
2015.998115
 20
481.285046
  0
ARC
  8
CSLAYER1
  6
CONTINUOUS
 62
     3
 10
2015.998115
 20
458.385046
 40
1.000000
 50
180.000000
 51
360.000000
  0
POINT
  8
CSLAYER1
 62
     3
 10
2015.998115
 20
458.385046
  0
LINE
  8
CSLAYER1
  6
CONTINUOUS
 62
     3
 10
2016.998115
 20
482.825427
 11
2016.998115
 21
456.844665
  0
LINE
  8
CSLAYER1
  6
CENTER
 62
     5
 10
2102.752990
 20
469.835046
 11
2012.424198
 21
469.835046
  0
LINE
  8
CSLAYER1
  6
CONTINUOUS
 62
     3
 10
2099.574837
 20
473.635046
 11
2044.998115
 21
473.635046
  0
LINE
  8
CSLAYER1
  6
CONTINUOUS
 62
     3
 10
2096.850705
 20
466.035046
 11
2044.998115
 21
466.035046
  0
LINE
  8
CSLAYER1
  6
CONTINUOUS
 62
     3
 10
1875.598115
 20
487.835046
 11
1875.598115
 21
439.535046
  0
LINE
  8
CSLAYER1
  6
CONTINUOUS
 62
     3
 10
1874.298115
 20
493.835046
 11
2016.298115
 21
493.835046
  0
LINE
  8
CSLAYER1
  6
CONTINUOUS
 62
     3
 10
1874.298115
 20
487.835046
 11
2016.298115
 21
487.835046
  0
LINE
  8
CSLAYER1
  6
CONTINUOUS
 62
     3
 10
1874.298115
 20
493.835046
 11
1874.298115
 21
487.835046
  0
LINE
  8
CSLAYER1
  6
CONTINUOUS
 62
     3
 10
2016.298115
 20
493.835046
 11
2016.298115
 21
487.835046
  0
LINE
  8
CSLAYER1
  6
CENTER
 62
     5
 10
1945.298115
 20
497.623548
 11
1945.298115
 21
487.854937
  0
LINE
  8
CSLAYER1
  6
CONTINUOUS
 62
     3
 10
1941.798115
 20
496.835046
 11
1941.798115
 21
494.635046
  0
LINE
  8
CSLAYER1
  6
CONTINUOUS
 62
     3
 10
1948.798115
 20
496.835046
 11
1948.798115
 21
494.635046
  0
LINE
  8
CSLAYER1
  6
CONTINUOUS
 62
     3
 10
1948.798115
 20
495.635046
 11
1941.798115
 21
495.635046
  0
LINE
  8
CSLAYER1
  6
CONTINUOUS
 62
     3
 10
1947.398115
 20
498.235046
 11
1943.198115
 21
498.235046
  0
LINE
  8
CSLAYER1
  6
CONTINUOUS
 62
     3
 10
1949.798115
 20
494.635046
 11
1949.798115
 21
493.835046
  0
LINE
  8
CSLAYER1
  6
CONTINUOUS
 62
     3
 10
1940.798115
 20
494.635046
 11
1940.798115
 21
493.835046
  0
LINE
  8
CSLAYER1
  6
CONTINUOUS
 62
     3
 10
1949.798115
 20
494.635046
 11
1940.798115
 21
494.635046
  0
ARC
  8
CSLAYER1
  6
CONTINUOUS
 62
     3
 10
1947.398115
 20
496.835046
 40
1.400000
 50
0.000000
 51
90.000000
  0
ARC
  8
CSLAYER1
  6
CONTINUOUS
 62
     3
 10
1943.198115
 20
496.835046
 40
1.400000
 50
90.000000
 51
180.000000
  0
LINE
  8
CSLAYER1
  6
CONTINUOUS
 62
     3
 10
1946.338067
 20
494.635046
 11
1943.952865
 21
495.635046
  0
LINE
  8
CSLAYER1
  6
CONTINUOUS
 62
     3
 10
1135.798115
 20
439.535046
 11
2035.798115
 21
439.535046
  0
LINE
  8
CSLAYER1
  6
CONTINUOUS
 62
     3
 10
1135.798115
 20
439.535046
 11
1135.798115
 21
389.535046
  0
LINE
  8
CSLAYER1
  6
CONTINUOUS
 62
     3
 10
2035.798115
 20
439.535046
 11
2035.798115
 21
389.535046
  0
CIRCLE
  8
CSLAYER1
  6
CONTINUOUS
 62
     4
 10
1376.823088
 20
687.242766
 40
10.000000
  0
POINT
  8
CSLAYER1
 62
     4
 10
1376.823088
 20
687.242766
  0
LINE
  8
CSLAYER1
  6
CENTER
 62
     5
 10
1366.501624
 20
697.329868
 11
1387.144552
 21
677.155664
  0
LINE
  8
CSLAYER1
  6
CONTINUOUS
 62
     4
 10
1454.746188
 20
706.170008
 11
1454.729949
 21
707.584128
  0
LINE
  8
CSLAYER1
  6
CONTINUOUS
 62
     4
 10
1361.455175
 20
732.324107
 11
1379.312035
 21
750.595849
  0
LINE
  8
CSLAYER1
  6
CENTER
 62
     5
 10
1311.377270
 20
686.035827
 11
1362.040034
 21
737.875679
  0
LINE
  8
CSLAYER1
  6
CONTINUOUS
 62
     4
 10
1320.941308
 20
719.483681
 11
1335.565177
 21
705.191865
  0
LINE
  8
CSLAYER1
  6
CONTINUOUS
 62
     4
 10
1410.338769
 20
632.116101
 11
1408.513890
 21
633.899544
  0
LINE
  8
CSLAYER1
  6
CONTINUOUS
 62
     4
 10
1635.541947
 20
979.156645
 11
1643.889412
 21
970.998719
  0
LINE
  8
CSLAYER1
  6
CONTINUOUS
 62
     4
 10
1630.912699
 20
975.850579
 11
1634.127826
 21
979.140406
  0
LINE
  8
CSLAYER1
  6
CONTINUOUS
 62
     4
 10
1320.941308
 20
719.483681
 11
1343.307408
 21
742.369431
  0
LINE
  8
CSLAYER1
  6
CONTINUOUS
 62
     4
 10
1343.307408
 20
742.369431
 11
1358.005590
 21
728.004990
  0
LINE
  8
CSLAYER1
  6
CONTINUOUS
 62
     4
 10
1410.338769
 20
632.116101
 11
1432.704869
 21
655.001851
  0
LINE
  8
CSLAYER1
  6
CONTINUOUS
 62
     4
 10
1430.954302
 20
656.712669
 11
1432.704869
 21
655.001851
  0
LINE
  8
CSLAYER1
  6
CONTINUOUS
 62
     4
 10
1659.519887
 20
947.892954
 11
1662.735014
 21
951.182780
  0
LINE
  8
CSLAYER1
  6
CONTINUOUS
 62
     4
 10
1634.127826
 20
979.140406
 11
1635.541947
 21
979.156645
  0
LINE
  8
CSLAYER1
  6
CONTINUOUS
 62
     4
 10
1662.735014
 20
951.182780
 11
1662.718775
 21
952.596901
  0
LINE
  8
CSLAYER1
  6
CONTINUOUS
 62
     4
 10
1354.330598
 20
739.286912
 11
1361.862536
 21
731.925996
  0
LINE
  8
CSLAYER1
  6
CONTINUOUS
 62
     4
 10
1353.205672
 20
739.574532
 11
1349.767273
 21
736.056246
  0
LINE
  8
CSLAYER1
  6
CONTINUOUS
 62
     4
 10
1355.889581
 20
736.951564
 11
1352.451182
 21
733.433278
  0
LINE
  8
CSLAYER1
  6
CONTINUOUS
 62
     4
 10
1354.330598
 20
739.286912
 11
1353.205672
 21
739.574532
  0
ARC
  8
CSLAYER1
  6
CONTINUOUS
 62
     4
 10
1352.685003
 20
736.357148
 40
3.259241
 50
10.286309
 51
71.223826
  0
ARC
  8
CSLAYER1
  6
CONTINUOUS
 62
     4
 10
1350.298812
 20
725.861664
 40
12.419443
 50
28.069973
 51
63.245881
  0
LINE
  8
CSLAYER1
  6
CONTINUOUS
 62
     4
 10
1361.257401
 20
731.705627
 11
1357.819002
 21
728.187341
  0
ARC
  8
CSLAYER1
  6
CONTINUOUS
 62
     4
 10
1360.736732
 20
728.488244
 40
3.259241
 50
75.037263
 51
81.029545
  0
LINE
  8
CSLAYER1
  6
CONTINUOUS
 62
     4
 10
1637.096193
 20
977.637690
 11
1641.872634
 21
979.613007
  0
LINE
  8
CSLAYER1
  6
CONTINUOUS
 62
     4
 10
1641.800272
 20
979.583082
 11
1641.536592
 21
973.298115
  0
LINE
  8
CSLAYER1
  6
CONTINUOUS
 62
     4
 10
1641.536592
 20
973.298115
 11
1643.339745
 21
974.510608
  0
LINE
  8
CSLAYER1
  6
CONTINUOUS
 62
     4
 10
1641.536592
 20
973.298115
 11
1641.466006
 21
979.444844
  0
LINE
  8
CSLAYER1
  6
CONTINUOUS
 62
     4
 10
1641.334308
 20
973.495806
 11
1641.266938
 21
979.362519
  0
LINE
  8
CSLAYER1
  6
CONTINUOUS
 62
     4
 10
1641.132025
 20
973.693496
 11
1641.067870
 21
979.280194
  0
LINE
  8
CSLAYER1
  6
CONTINUOUS
 62
     4
 10
1640.929742
 20
973.891186
 11
1640.868802
 21
979.197868
  0
LINE
  8
CSLAYER1
  6
CONTINUOUS
 62
     4
 10
1640.727458
 20
974.088876
 11
1640.669735
 21
979.115543
  0
LINE
  8
CSLAYER1
  6
CONTINUOUS
 62
     4
 10
1640.525175
 20
974.286567
 11
1640.470667
 21
979.033218
  0
LINE
  8
CSLAYER1
  6
CONTINUOUS
 62
     4
 10
1640.322892
 20
974.484257
 11
1640.271599
 21
978.950892
  0
LINE
  8
CSLAYER1
  6
CONTINUOUS
 62
     4
 10
1640.120608
 20
974.681947
 11
1640.072531
 21
978.868567
  0
LINE
  8
CSLAYER1
  6
CONTINUOUS
 62
     4
 10
1639.918325
 20
974.879638
 11
1639.873463
 21
978.786242
  0
LINE
  8
CSLAYER1
  6
CONTINUOUS
 62
     4
 10
1639.716042
 20
975.077328
 11
1639.674396
 21
978.703916
  0
LINE
  8
CSLAYER1
  6
CONTINUOUS
 62
     4
 10
1639.513758
 20
975.275018
 11
1639.475328
 21
978.621591
  0
LINE
  8
CSLAYER1
  6
CONTINUOUS
 62
     4
 10
1639.311475
 20
975.472708
 11
1639.276260
 21
978.539266
  0
LINE
  8
CSLAYER1
  6
CONTINUOUS
 62
     4
 10
1639.109191
 20
975.670399
 11
1639.077192
 21
978.456940
  0
LINE
  8
CSLAYER1
  6
CONTINUOUS
 62
     4
 10
1638.906908
 20
975.868089
 11
1638.878124
 21
978.374615
  0
LINE
  8
CSLAYER1
  6
CONTINUOUS
 62
     4
 10
1638.704625
 20
976.065779
 11
1638.679057
 21
978.292290
  0
LINE
  8
CSLAYER1
  6
CONTINUOUS
 62
     4
 10
1638.502341
 20
976.263469
 11
1638.479989
 21
978.209964
  0
LINE
  8
CSLAYER1
  6
CONTINUOUS
 62
     4
 10
1638.300058
 20
976.461160
 11
1638.280921
 21
978.127639
  0
LINE
  8
CSLAYER1
  6
CONTINUOUS
 62
     4
 10
1638.097775
 20
976.658850
 11
1638.081853
 21
978.045314
  0
LINE
  8
CSLAYER1
  6
CONTINUOUS
 62
     4
 10
1637.895491
 20
976.856540
 11
1637.882785
 21
977.962988
  0
LINE
  8
CSLAYER1
  6
CONTINUOUS
 62
     4
 10
1637.693208
 20
977.054230
 11
1637.683718
 21
977.880663
  0
LINE
  8
CSLAYER1
  6
CONTINUOUS
 62
     4
 10
1637.490925
 20
977.251921
 11
1637.484650
 21
977.798338
  0
LINE
  8
CSLAYER1
  6
CONTINUOUS
 62
     4
 10
1637.288641
 20
977.449611
 11
1637.285582
 21
977.716012
  0
LINE
  8
CSLAYER1
  6
CONTINUOUS
 62
     4
 10
1641.735072
 20
973.431579
 11
1641.665074
 21
979.527170
  0
LINE
  8
CSLAYER1
  6
CONTINUOUS
 62
     4
 10
1641.933553
 20
973.565044
 11
1641.864141
 21
979.609495
  0
LINE
  8
CSLAYER1
  6
CONTINUOUS
 62
     4
 10
1642.132033
 20
973.698508
 11
1642.075879
 21
978.588504
  0
LINE
  8
CSLAYER1
  6
CONTINUOUS
 62
     4
 10
1642.330514
 20
973.831972
 11
1642.286005
 21
977.707862
  0
LINE
  8
CSLAYER1
  6
CONTINUOUS
 62
     4
 10
1642.528995
 20
973.965436
 11
1642.494762
 21
976.946438
  0
LINE
  8
CSLAYER1
  6
CONTINUOUS
 62
     4
 10
1642.727475
 20
974.098900
 11
1642.702570
 21
976.267706
  0
LINE
  8
CSLAYER1
  6
CONTINUOUS
 62
     4
 10
1642.925956
 20
974.232364
 11
1642.909667
 21
975.650818
  0
LINE
  8
CSLAYER1
  6
CONTINUOUS
 62
     4
 10
1643.124436
 20
974.365828
 11
1643.116206
 21
975.082539
  0
LINE
  8
CSLAYER1
  6
CONTINUOUS
 62
     4
 10
1643.322917
 20
974.499292
 11
1643.322290
 21
974.553837
  0
ARC
  8
CSLAYER1
  6
CONTINUOUS
 62
     4
 10
1666.883453
 20
984.042337
 40
25.400000
 50
236.346470
 51
292.916623
  0
LINE
  8
CSLAYER1
  6
CONTINUOUS
 62
     4
 10
1661.164528
 20
954.115856
 11
1663.029639
 21
958.936399
  0
LINE
  8
CSLAYER1
  6
CONTINUOUS
 62
     4
 10
1663.001383
 20
958.863368
 11
1656.724129
 21
958.455430
  0
LINE
  8
CSLAYER1
  6
CONTINUOUS
 62
     4
 10
1656.724129
 20
958.455430
 11
1657.894895
 21
960.285952
  0
LINE
  8
CSLAYER1
  6
CONTINUOUS
 62
     4
 10
1656.724129
 20
958.455430
 11
1662.870858
 21
958.526016
  0
LINE
  8
CSLAYER1
  6
CONTINUOUS
 62
     4
 10
1656.926413
 20
958.257740
 11
1662.793126
 21
958.325110
  0
LINE
  8
CSLAYER1
  6
CONTINUOUS
 62
     4
 10
1657.128696
 20
958.060049
 11
1662.715394
 21
958.124204
  0
LINE
  8
CSLAYER1
  6
CONTINUOUS
 62
     4
 10
1657.330980
 20
957.862359
 11
1662.637662
 21
957.923298
  0
LINE
  8
CSLAYER1
  6
CONTINUOUS
 62
     4
 10
1657.533263
 20
957.664669
 11
1662.559929
 21
957.722392
  0
LINE
  8
CSLAYER1
  6
CONTINUOUS
 62
     4
 10
1657.735546
 20
957.466978
 11
1662.482197
 21
957.521487
  0
LINE
  8
CSLAYER1
  6
CONTINUOUS
 62
     4
 10
1657.937830
 20
957.269288
 11
1662.404465
 21
957.320581
  0
LINE
  8
CSLAYER1
  6
CONTINUOUS
 62
     4
 10
1658.140113
 20
957.071598
 11
1662.326733
 21
957.119675
  0
LINE
  8
CSLAYER1
  6
CONTINUOUS
 62
     4
 10
1658.342396
 20
956.873908
 11
1662.249000
 21
956.918769
  0
LINE
  8
CSLAYER1
  6
CONTINUOUS
 62
     4
 10
1658.544680
 20
956.676217
 11
1662.171268
 21
956.717863
  0
LINE
  8
CSLAYER1
  6
CONTINUOUS
 62
     4
 10
1658.746963
 20
956.478527
 11
1662.093536
 21
956.516958
  0
LINE
  8
CSLAYER1
  6
CONTINUOUS
 62
     4
 10
1658.949246
 20
956.280837
 11
1662.015804
 21
956.316052
  0
LINE
  8
CSLAYER1
  6
CONTINUOUS
 62
     4
 10
1659.151530
 20
956.083147
 11
1661.938072
 21
956.115146
  0
LINE
  8
CSLAYER1
  6
CONTINUOUS
 62
     4
 10
1659.353813
 20
955.885456
 11
1661.860339
 21
955.914240
  0
LINE
  8
CSLAYER1
  6
CONTINUOUS
 62
     4
 10
1659.556097
 20
955.687766
 11
1661.782607
 21
955.713334
  0
LINE
  8
CSLAYER1
  6
CONTINUOUS
 62
     4
 10
1659.758380
 20
955.490076
 11
1661.704875
 21
955.512428
  0
LINE
  8
CSLAYER1
  6
CONTINUOUS
 62
     4
 10
1659.960663
 20
955.292386
 11
1661.627143
 21
955.311523
  0
LINE
  8
CSLAYER1
  6
CONTINUOUS
 62
     4
 10
1660.162947
 20
955.094695
 11
1661.549410
 21
955.110617
  0
LINE
  8
CSLAYER1
  6
CONTINUOUS
 62
     4
 10
1660.365230
 20
954.897005
 11
1661.471678
 21
954.909711
  0
LINE
  8
CSLAYER1
  6
CONTINUOUS
 62
     4
 10
1660.567513
 20
954.699315
 11
1661.393946
 21
954.708805
  0
LINE
  8
CSLAYER1
  6
CONTINUOUS
 62
     4
 10
1660.769797
 20
954.501625
 11
1661.316214
 21
954.507899
  0
LINE
  8
CSLAYER1
  6
CONTINUOUS
 62
     4
 10
1660.972080
 20
954.303934
 11
1661.238481
 21
954.306993
  0
LINE
  8
CSLAYER1
  6
CONTINUOUS
 62
     4
 10
1656.853000
 20
958.656923
 11
1662.948591
 21
958.726922
  0
LINE
  8
CSLAYER1
  6
CONTINUOUS
 62
     4
 10
1656.981871
 20
958.858416
 11
1663.026323
 21
958.927827
  0
LINE
  8
CSLAYER1
  6
CONTINUOUS
 62
     4
 10
1657.110742
 20
959.059909
 11
1662.000739
 21
959.116063
  0
LINE
  8
CSLAYER1
  6
CONTINUOUS
 62
     4
 10
1657.239613
 20
959.261402
 11
1661.115503
 21
959.305911
  0
LINE
  8
CSLAYER1
  6
CONTINUOUS
 62
     4
 10
1657.368484
 20
959.462895
 11
1660.349487
 21
959.497128
  0
LINE
  8
CSLAYER1
  6
CONTINUOUS
 62
     4
 10
1657.497355
 20
959.664388
 11
1659.666161
 21
959.689294
  0
LINE
  8
CSLAYER1
  6
CONTINUOUS
 62
     4
 10
1657.626226
 20
959.865881
 11
1659.044680
 21
959.882170
  0
LINE
  8
CSLAYER1
  6
CONTINUOUS
 62
     4
 10
1657.755097
 20
960.067374
 11
1658.471808
 21
960.075605
  0
LINE
  8
CSLAYER1
  6
CONTINUOUS
 62
     4
 10
1657.883968
 20
960.268868
 11
1657.938513
 21
960.269494
  0
LINE
  8
CSLAYER1
  6
CENTER
 62
     5
 10
1651.864679
 20
998.720090
 11
1681.902226
 21
969.364583
  0
LINE
  8
CSLAYER1
  6
CONTINUOUS
 62
     4
 10
1317.218927
 20
704.944290
 11
1326.305155
 21
714.241626
  0
LINE
  8
CSLAYER1
  6
CONTINUOUS
 62
     4
 10
1136.778569
 20
530.326773
 11
1173.896591
 21
494.051563
  0
LINE
  8
CSLAYER1
  6
CONTINUOUS
 62
     4
 10
1273.803412
 20
667.673751
 11
1291.583380
 21
650.297501
  0
LINE
  8
CSLAYER1
  6
CONTINUOUS
 62
     4
 10
1136.778569
 20
530.326773
 11
1177.317126
 21
571.807195
  0
LINE
  8
CSLAYER1
  6
CONTINUOUS
 62
     4
 10
1178.747486
 20
570.409314
 11
1279.394937
 21
673.395189
  0
LINE
  8
CSLAYER1
  6
CONTINUOUS
 62
     4
 10
1287.180719
 20
672.777443
 11
1317.934107
 21
704.245350
  0
LINE
  8
CSLAYER1
  6
CONTINUOUS
 62
     4
 10
1136.778569
 20
530.326773
 11
1144.060279
 21
512.024404
  0
LINE
  8
CSLAYER1
  6
CONTINUOUS
 62
     4
 10
1171.593801
 20
485.116065
 11
1144.060279
 21
512.024404
  0
LINE
  8
CSLAYER1
  6
CONTINUOUS
 62
     4
 10
1317.218927
 20
704.944290
 11
1327.154216
 21
695.234595
  0
LINE
  8
CSLAYER1
  6
CONTINUOUS
 62
     4
 10
1297.664828
 20
683.505139
 11
1309.056773
 21
672.371863
  0
LINE
  8
CSLAYER1
  6
CONTINUOUS
 62
     4
 10
1282.223178
 20
673.427667
 11
1297.823877
 21
658.181201
  0
ARC
  8
CSLAYER1
  6
CONTINUOUS
 62
     4
 10
1285.035180
 20
674.874265
 40
3.000000
 50
225.657927
 51
315.657927
  0
LINE
  8
CSLAYER1
  6
CONTINUOUS
 62
     4
 10
1203.778775
 20
545.946391
 11
1231.159659
 21
573.963438
  0
LINE
  8
CSLAYER1
  6
CONTINUOUS
 62
     4
 10
1198.772517
 20
550.838976
 11
1272.875739
 21
626.663898
  0
LINE
  8
CSLAYER1
  6
CONTINUOUS
 62
     4
 10
1184.468923
 20
564.817789
 11
1279.524850
 21
662.082226
  0
LINE
  8
CSLAYER1
  6
CONTINUOUS
 62
     4
 10
1183.038564
 20
566.215670
 11
1278.094490
 21
663.480107
  0
ARC
  8
CSLAYER1
  6
CONTINUOUS
 62
     4
 10
1280.825297
 20
671.997308
 40
2.000000
 50
45.657927
 51
135.657927
  0
LINE
  8
CSLAYER1
  6
CONTINUOUS
 62
     4
 10
1316.777999
 20
702.578707
 11
1325.906116
 21
693.657855
  0
LINE
  8
CSLAYER1
  6
CONTINUOUS
 62
     4
 10
1316.777999
 20
702.578707
 11
1318.175880
 21
704.009066
  0
LINE
  8
CSLAYER1
  6
CONTINUOUS
 62
     4
 10
1313.093100
 20
697.091310
 11
1321.849793
 21
688.533449
  0
LINE
  8
CSLAYER1
  6
CONTINUOUS
 62
     4
 10
1313.093100
 20
697.091310
 11
1312.779723
 21
698.209335
  0
LINE
  8
CSLAYER1
  6
CONTINUOUS
 62
     4
 10
1316.917063
 20
702.442800
 11
1312.779723
 21
698.209335
  0
ARC
  8
CSLAYER1
  6
CONTINUOUS
 62
     4
 10
1316.007023
 20
698.827000
 40
3.285875
 50
200.971432
 51
260.622310
  0
ARC
  8
CSLAYER1
  6
CONTINUOUS
 62
     4
 10
1326.422222
 20
701.430330
 40
12.419443
 50
208.069973
 51
243.245881
  0
LINE
  8
CSLAYER1
  6
CONTINUOUS
 62
     4
 10
1319.600973
 20
699.819832
 11
1315.463633
 21
695.586367
  0
LINE
  8
CSLAYER1
  6
CONTINUOUS
 62
     4
 10
1312.935383
 20
692.351571
 11
1317.655569
 21
687.738563
  0
LINE
  8
CSLAYER1
  6
CONTINUOUS
 62
     4
 10
1312.924016
 20
693.341456
 11
1314.881049
 21
695.343959
  0
LINE
  8
CSLAYER1
  6
CONTINUOUS
 62
     4
 10
1312.935383
 20
692.351571
 11
1315.381675
 21
694.854700
  0
LINE
  8
CSLAYER1
  6
CONTINUOUS
 62
     4
 10
1312.924016
 20
693.341456
 11
1312.935383
 21
692.351571
  0
LINE
  8
CSLAYER1
  6
CONTINUOUS
 62
     4
 10
1312.924016
 20
693.341456
 11
1318.645453
 21
687.749930
  0
ARC
  8
CSLAYER1
  6
CONTINUOUS
 62
     4
 10
1324.058752
 20
690.958095
 40
3.285875
 50
190.693544
 51
227.672202
  0
LINE
  8
CSLAYER1
  6
CONTINUOUS
 62
     4
 10
1324.968792
 20
694.573896
 11
1320.831452
 21
690.340430
  0
LINE
  8
CSLAYER1
  6
CONTINUOUS
 62
     4
 10
1318.645453
 20
687.749930
 11
1320.602487
 21
689.752434
  0
LINE
  8
CSLAYER1
  6
CONTINUOUS
 62
     4
 10
1317.655569
 20
687.738563
 11
1320.101861
 21
690.241692
  0
LINE
  8
CSLAYER1
  6
CONTINUOUS
 62
     4
 10
1318.645453
 20
687.749930
 11
1317.655569
 21
687.738563
  0
LINE
  8
CSLAYER1
  6
CONTINUOUS
 62
     4
 10
1322.544229
 20
699.739906
 11
1323.815767
 21
695.700740
  0
LINE
  8
CSLAYER1
  6
CONTINUOUS
 62
     4
 10
1630.662386
 20
976.095208
 11
1639.767201
 21
967.197130
  0
LINE
  8
CSLAYER1
  6
CONTINUOUS
 62
     4
 10
1629.248266
 20
976.078969
 11
1630.662386
 21
976.095208
  0
LINE
  8
CSLAYER1
  6
CONTINUOUS
 62
     4
 10
1590.747686
 20
875.591418
 11
1659.786439
 21
946.234204
  0
LINE
  8
CSLAYER1
  6
CONTINUOUS
 62
     4
 10
1659.786439
 20
946.234204
 11
1659.770200
 21
947.648324
  0
POINT
  8
CSLAYER1
 62
     5
 10
1632.149999
 20
952.010423
  0
POINT
  8
CSLAYER1
 62
     5
 10
1618.146020
 20
939.095661
  0
ARC
  8
CSLAYER1
  6
CONTINUOUS
 62
     4
 10
1618.146020
 20
939.095661
 40
9.050000
 50
-79.069071
 51
10.846697
  0
CIRCLE
  8
CSLAYER1
  6
CONTINUOUS
 62
     4
 10
1618.146020
 20
939.095661
 40
2.980000
  0
ARC
  8
CSLAYER1
  6
CONTINUOUS
 62
     4
 10
1621.578241
 20
921.324059
 40
9.050000
 50
100.930929
 51
164.434860
  0
ARC
  8
CSLAYER1
  6
CONTINUOUS
 62
     4
 10
1600.709819
 20
943.952503
 40
9.050000
 50
279.735496
 51
344.434860
  0
ARC
  8
CSLAYER1
  6
CONTINUOUS
 62
     4
 10
1618.146020
 20
939.095661
 40
7.800000
 50
95.311393
 51
350.054395
  0
ARC
  8
CSLAYER1
  6
CONTINUOUS
 62
     4
 10
1632.149999
 20
952.010423
 40
7.800000
 50
-84.948336
 51
170.314124
  0
CIRCLE
  8
CSLAYER1
  6
CONTINUOUS
 62
     5
 10
1618.146020
 20
939.095661
 40
2.980000
  0
CIRCLE
  8
CSLAYER1
  6
CONTINUOUS
 62
     5
 10
1632.149999
 20
952.010423
 40
2.980000
  0
ARC
  8
CSLAYER1
  6
CONTINUOUS
 62
     4
 10
1633.523641
 20
936.471018
 40
7.800000
 50
95.051664
 51
170.314124
  0
ARC
  8
CSLAYER1
  6
CONTINUOUS
 62
     4
 10
1616.772378
 20
954.635066
 40
7.800000
 50
275.051664
 51
350.314124
  0
ARC
  8
CSLAYER1
  6
CONTINUOUS
 62
     4
 10
1618.146020
 20
939.095661
 40
9.050000
 50
74.519091
 51
164.434860
  0
LINE
  8
CSLAYER1
  6
CONTINUOUS
 62
     3
 10
1619.940939
 20
951.973676
 11
1622.434256
 21
949.270075
  0
LINE
  8
CSLAYER1
  6
CONTINUOUS
 62
     3
 10
1633.173046
 20
964.176600
 11
1644.359059
 21
952.047169
  0
LINE
  8
CSLAYER1
  6
CONTINUOUS
 62
     3
 10
1634.698411
 20
962.522587
 11
1648.021867
 21
974.809755
  0
LINE
  8
CSLAYER1
  6
CONTINUOUS
 62
     3
 10
1619.969527
 20
952.680205
 11
1632.466517
 21
964.205189
  0
LINE
  8
CSLAYER1
  6
CONTINUOUS
 62
     1
 10
1619.940939
 20
951.973676
 11
1619.969527
 21
952.680205
  0
LINE
  8
CSLAYER1
  6
CONTINUOUS
 62
     1
 10
1632.466517
 20
964.205189
 11
1633.173046
 21
964.176600
  0
LINE
  8
CSLAYER1
  6
CONTINUOUS
 62
     3
 10
1619.969527
 20
952.680205
 11
1622.767950
 21
949.645766
  0
LINE
  8
CSLAYER1
  6
CONTINUOUS
 62
     3
 10
1632.466517
 20
964.205189
 11
1644.330471
 21
951.340641
  0
CIRCLE
  8
CSLAYER1
  6
CONTINUOUS
 62
     4
 10
1632.149999
 20
952.010423
 40
3.050000
  0
LINE
  8
CSLAYER1
  6
CONTINUOUS
 62
     3
 10
1631.126953
 20
939.844245
 11
1628.633636
 21
942.547846
  0
LINE
  8
CSLAYER1
  6
CONTINUOUS
 62
     3
 10
1642.833694
 20
953.701183
 11
1656.157149
 21
965.988351
  0
LINE
  8
CSLAYER1
  6
CONTINUOUS
 62
     3
 10
1631.833481
 20
939.815657
 11
1644.330471
 21
951.340641
  0
LINE
  8
CSLAYER1
  6
CONTINUOUS
 62
     1
 10
1631.126953
 20
939.844245
 11
1631.833481
 21
939.815657
  0
LINE
  8
CSLAYER1
  6
CONTINUOUS
 62
     1
 10
1644.330471
 20
951.340641
 11
1644.359059
 21
952.047169
  0
LINE
  8
CSLAYER1
  6
CONTINUOUS
 62
     3
 10
1631.833481
 20
939.815657
 11
1629.035059
 21
942.850095
  0
LINE
  8
CSLAYER1
  6
CONTINUOUS
 62
     4
 10
1672.200812
 20
1005.270047
 11
1673.352652
 21
1004.021062
  0
LINE
  8
CSLAYER1
  6
CONTINUOUS
 62
     4
 10
1679.041481
 20
1008.177836
 11
1690.566089
 21
995.681255
  0
LINE
  8
CSLAYER1
  6
CONTINUOUS
 62
     4
 10
1672.899324
 20
1004.512623
 11
1677.421392
 21
1008.682969
  0
LINE
  8
CSLAYER1
  6
CONTINUOUS
 62
     4
 10
1678.066683
 20
1001.816907
 11
1681.139777
 21
1004.650978
  0
LINE
  8
CSLAYER1
  6
CONTINUOUS
 62
     1
 10
1679.041481
 20
1008.177836
 11
1677.421392
 21
1008.682969
  0
ARC
  8
CSLAYER1
  6
CONTINUOUS
 62
     4
 10
1672.138441
 20
988.888596
 40
18.151494
 50
25.094940
 51
60.270848
  0
ARC
  8
CSLAYER1
  6
CONTINUOUS
 62
     4
 10
1676.369004
 20
1003.981854
 40
4.817468
 50
7.983941
 51
67.983941
  0
LINE
  8
CSLAYER1
  6
CONTINUOUS
 62
     4
 10
1688.471377
 20
987.627238
 11
1687.319537
 21
988.876224
  0
LINE
  8
CSLAYER1
  6
CONTINUOUS
 62
     4
 10
1687.772865
 20
988.384663
 11
1691.588806
 21
991.903802
  0
LINE
  8
CSLAYER1
  6
CONTINUOUS
 62
     4
 10
1685.503454
 20
993.752927
 11
1688.576548
 21
996.586998
  0
ARC
  8
CSLAYER1
  6
CONTINUOUS
 62
     4
 10
1687.524160
 20
991.885883
 40
4.817468
 50
50.361173
 51
77.381848
  0
LINE
  8
CSLAYER1
  6
CONTINUOUS
 62
     4
 10
1671.416948
 20
1004.547151
 11
1672.200812
 21
1005.270047
  0
LINE
  8
CSLAYER1
  6
CONTINUOUS
 62
     4
 10
1687.687513
 20
986.904343
 11
1688.471377
 21
987.627238
  0
POINT
  8
CSLAYER1
 62
     5
 10
1590.138061
 20
913.266139
  0
ARC
  8
CSLAYER1
  6
CONTINUOUS
 62
     4
 10
1590.138061
 20
913.266139
 40
9.050000
 50
-79.069071
 51
10.846697
  0
ARC
  8
CSLAYER1
  6
CONTINUOUS
 62
     4
 10
1576.134082
 20
900.351377
 40
2.980000
 50
-48.059858
 51
25.345910
  0
CIRCLE
  8
CSLAYER1
  6
CONTINUOUS
 62
     4
 10
1590.138061
 20
913.266139
 40
2.980000
  0
ARC
  8
CSLAYER1
  6
CONTINUOUS
 62
     4
 10
1593.570282
 20
895.494536
 40
9.050000
 50
100.930929
 51
164.434860
  0
ARC
  8
CSLAYER1
  6
CONTINUOUS
 62
     4
 10
1590.138061
 20
913.266139
 40
7.800000
 50
206.439126
 51
350.054395
  0
ARC
  8
CSLAYER1
  6
CONTINUOUS
 62
     4
 10
1604.142040
 20
926.180900
 40
7.800000
 50
-84.948336
 51
114.423945
  0
CIRCLE
  8
CSLAYER1
  6
CONTINUOUS
 62
     5
 10
1590.138061
 20
913.266139
 40
2.980000
  0
CIRCLE
  8
CSLAYER1
  6
CONTINUOUS
 62
     4
 10
1604.142040
 20
926.180900
 40
2.980000
  0
ARC
  8
CSLAYER1
  6
CONTINUOUS
 62
     4
 10
1605.515683
 20
910.641495
 40
7.800000
 50
95.051664
 51
170.314124
  0
ARC
  8
CSLAYER1
  6
CONTINUOUS
 62
     4
 10
1576.134082
 20
900.351377
 40
9.050000
 50
284.104726
 51
344.434860
  0
CIRCLE
  8
CSLAYER1
  6
CONTINUOUS
 62
     5
 10
1604.142040
 20
926.180900
 40
2.980000
  0
ARC
  8
CSLAYER1
  6
CONTINUOUS
 62
     4
 10
1576.134082
 20
900.351377
 40
7.800000
 50
-75.043641
 51
53.607296
  0
CIRCLE
  8
CSLAYER1
  6
CONTINUOUS
 62
     4
 10
1749.517514
 20
1021.921070
 40
6.000000
  0
CIRCLE
  8
CSLAYER1
  6
CONTINUOUS
 62
     4
 10
1749.517514
 20
1021.921070
 40
8.000000
  0
CIRCLE
  8
CSLAYER1
  6
CONTINUOUS
 62
     3
 10
1666.883453
 20
984.042337
 40
7.500000
  0
CIRCLE
  8
CSLAYER1
  6
CONTINUOUS
 62
     3
 10
1666.883453
 20
984.042337
 40
21.000000
  0
LINE
  8
CSLAYER1
  6
CONTINUOUS
 62
     4
 10
1648.360939
 20
958.798523
 11
1659.770200
 21
947.648324
  0
LINE
  8
CSLAYER1
  6
CONTINUOUS
 62
     4
 10
1652.483150
 20
962.600112
 11
1662.718775
 21
952.596901
  0
ARC
  8
CSLAYER1
  6
CONTINUOUS
 62
     4
 10
1666.883453
 20
984.042337
 40
25.400000
 50
68.269581
 51
96.168761
  0
ARC
  8
CSLAYER1
  6
CONTINUOUS
 62
     4
 10
1666.883453
 20
984.042337
 40
25.400000
 50
172.889958
 51
209.019318
  0
ARC
  8
CSLAYER1
  6
CONTINUOUS
 62
     4
 10
1666.883453
 20
984.042337
 40
25.400000
 50
9.637820
 51
17.096207
  0
LINE
  8
CSLAYER1
  6
CONTINUOUS
 62
     7
 10
1425.363680
 20
796.481829
 11
1665.317534
 21
1040.421070
  0
LINE
  8
CSLAYER1
  6
CONTINUOUS
 62
     7
 10
1498.605676
 20
725.487663
 11
1503.748577
 21
730.715982
  0
LINE
  8
CSLAYER1
  6
CONTINUOUS
 62
     4
 10
1177.317126
 20
571.807195
 11
1206.712613
 21
543.079170
  0
LINE
  8
CSLAYER1
  6
CENTER
 62
     5
 10
1153.798115
 20
414.035046
 11
1188.937147
 21
414.035046
  0
LINE
  8
CSLAYER1
  6
CENTER
 62
     5
 10
1169.798115
 20
429.591309
 11
1169.798115
 21
398.035046
  0
LINE
  8
CSLAYER1
  6
CENTER
 62
     5
 10
1721.607982
 20
414.035046
 11
1776.208833
 21
414.035046
  0
LINE
  8
CSLAYER1
  6
CENTER
 62
     5
 10
1750.688183
 20
437.752285
 11
1750.688183
 21
391.623980
  0
INSERT
  8
CSLAYER1
  2
BLKF0001
 10
0.0
 20
0.0
 30
0.0
  0
CIRCLE
  8
CSLAYER1
  6
CONTINUOUS
 62
     4
 10
1459.657814
 20
717.978058
 40
15.000000
  0
LINE
  8
CSLAYER1
  6
CONTINUOUS
 62
     3
 10
309.352689
 20
439.535046
 11
309.352689
 21
1037.921070
  0
LINE
  8
CSLAYER1
  6
CONTINUOUS
 62
     3
 10
318.352689
 20
439.535046
 11
318.352689
 21
1037.921070
  0
LINE
  8
CSLAYER1
  6
CONTINUOUS
 62
     3
 10
329.352689
 20
439.535046
 11
329.352689
 21
1013.271070
  0
LINE
  8
CSLAYER1
  6
CONTINUOUS
 62
     3
 10
338.352689
 20
439.535046
 11
338.352689
 21
1013.271070
  0
LINE
  8
CSLAYER1
  6
CONTINUOUS
 62
     3
 10
215.352689
 20
1102.621070
 11
715.352689
 21
1102.621070
  0
LINE
  8
CSLAYER1
  6
CENTER
 62
     5
 10
290.352689
 20
717.978058
 11
347.644037
 21
717.978058
  0
LINE
  8
CSLAYER1
  6
CENTER
 62
     5
 10
318.352689
 20
984.042337
 11
606.852689
 21
984.042337
  0
LINE
  8
CSLAYER1
  6
CONTINUOUS
 62
     3
 10
265.352689
 20
439.535046
 11
665.352689
 21
439.535046
  0
LINE
  8
CSLAYER1
  6
CONTINUOUS
 62
     3
 10
265.352689
 20
389.535046
 11
265.352689
 21
439.535046
  0
LINE
  8
CSLAYER1
  6
CONTINUOUS
 62
     3
 10
621.352689
 20
439.535046
 11
621.352689
 21
1037.921070
  0
LINE
  8
CSLAYER1
  6
CONTINUOUS
 62
     3
 10
612.352689
 20
439.535046
 11
612.352689
 21
1037.921070
  0
LINE
  8
CSLAYER1
  6
CONTINUOUS
 62
     3
 10
601.352689
 20
439.535046
 11
601.352689
 21
1013.271070
  0
LINE
  8
CSLAYER1
  6
CONTINUOUS
 62
     3
 10
592.352689
 20
439.535046
 11
592.352689
 21
1013.271070
  0
LINE
  8
CSLAYER1
  6
CONTINUOUS
 62
     4
 10
602.352689
 20
700.742766
 11
602.352689
 21
673.742766
  0
LINE
  8
CSLAYER1
  6
CONTINUOUS
 62
     4
 10
608.352689
 20
700.242766
 11
608.352689
 21
674.242766
  0
LINE
  8
CSLAYER1
  6
CONTINUOUS
 62
     4
 10
607.352689
 20
701.242766
 11
602.852689
 21
701.242766
  0
LINE
  8
CSLAYER1
  6
CONTINUOUS
 62
     4
 10
608.352689
 20
700.242766
 11
607.352689
 21
701.242766
  0
LINE
  8
CSLAYER1
  6
CONTINUOUS
 62
     4
 10
602.852689
 20
701.242766
 11
602.352689
 21
700.742766
  0
LINE
  8
CSLAYER1
  6
CONTINUOUS
 62
     4
 10
607.352689
 20
701.242766
 11
607.352689
 21
673.242766
  0
LINE
  8
CSLAYER1
  6
CONTINUOUS
 62
     4
 10
602.852689
 20
701.242766
 11
602.852689
 21
673.242766
  0
LINE
  8
CSLAYER1
  6
CONTINUOUS
 62
     4
 10
607.352689
 20
673.242766
 11
602.852689
 21
673.242766
  0
LINE
  8
CSLAYER1
  6
CONTINUOUS
 62
     4
 10
608.352689
 20
674.242766
 11
607.352689
 21
673.242766
  0
LINE
  8
CSLAYER1
  6
CONTINUOUS
 62
     4
 10
602.852689
 20
673.242766
 11
602.352689
 21
673.742766
  0
LINE
  8
CSLAYER1
  6
CONTINUOUS
 62
     4
 10
602.352689
 20
677.242766
 11
601.352689
 21
677.242766
  0
LINE
  8
CSLAYER1
  6
CENTER
 62
     5
 10
640.352689
 20
717.978058
 11
583.061341
 21
717.978058
  0
INSERT
  8
CSLAYER1
  2
BLKF0002
 10
0.0
 20
0.0
 30
0.0
  0
LINE
  8
CSLAYER1
  6
CONTINUOUS
 62
     3
 10
665.352689
 20
389.535046
 11
665.352689
 21
439.535046
  0
LINE
  8
CSLAYER1
  6
CONTINUOUS
 62
     3
 10
373.852689
 20
439.535046
 11
373.852689
 21
468.191940
  0
LINE
  8
CSLAYER1
  6
CONTINUOUS
 62
     7
 10
563.602689
 20
518.508473
 11
573.102689
 21
518.508473
  0
LINE
  8
CSLAYER1
  6
CONTINUOUS
 62
     7
 10
557.352689
 20
494.243672
 11
576.352689
 21
494.243672
  0
LINE
  8
CSLAYER1
  6
CONTINUOUS
 62
     7
 10
560.352689
 20
443.708423
 11
576.352689
 21
443.708423
  0
LINE
  8
CSLAYER1
  6
CONTINUOUS
 62
     7
 10
554.152689
 20
460.535046
 11
557.352689
 21
460.535046
  0
LINE
  8
CSLAYER1
  6
CONTINUOUS
 62
     4
 10
574.611502
 20
507.243539
 11
592.352689
 21
507.243539
  0
LINE
  8
CSLAYER1
  6
CONTINUOUS
 62
     4
 10
575.950891
 20
497.243539
 11
592.352689
 21
497.243539
  0
LINE
  8
CSLAYER1
  6
CONTINUOUS
 62
     7
 10
576.352689
 20
443.708423
 11
576.352689
 21
462.932052
  0
LINE
  8
CSLAYER1
  6
CONTINUOUS
 62
     7
 10
560.352689
 20
439.535046
 11
560.352689
 21
494.243672
  0
LINE
  8
CSLAYER1
  6
CONTINUOUS
 62
     7
 10
557.352689
 20
439.535046
 11
557.352689
 21
494.243672
  0
LINE
  8
CSLAYER1
  6
CONTINUOUS
 62
     7
 10
554.152689
 20
439.535046
 11
554.152689
 21
460.535046
  0
LINE
  8
CSLAYER1
  6
CONTINUOUS
 62
     7
 10
560.352689
 20
455.663330
 11
576.352689
 21
455.663330
  0
LINE
  8
CSLAYER1
  6
CONTINUOUS
 62
     7
 10
563.602689
 20
518.508473
 11
560.352689
 21
494.243672
  0
LINE
  8
CSLAYER1
  6
CONTINUOUS
 62
     7
 10
573.102689
 20
518.508473
 11
576.352689
 21
494.243672
  0
LINE
  8
CSLAYER1
  6
CONTINUOUS
 62
     7
 10
562.352689
 20
472.932052
 11
592.352689
 21
472.932052
  0
LINE
  8
CSLAYER1
  6
CENTER
 62
     5
 10
562.352689
 20
467.932052
 11
592.352689
 21
467.932052
  0
LINE
  8
CSLAYER1
  6
CONTINUOUS
 62
     7
 10
562.352689
 20
462.932052
 11
592.352689
 21
462.932052
  0
LINE
  8
CSLAYER1
  6
CONTINUOUS
 62
     7
 10
562.352689
 20
462.932052
 11
562.352689
 21
472.932052
  0
LINE
  8
CSLAYER1
  6
CONTINUOUS
 62
     7
 10
576.352689
 20
472.932052
 11
576.352689
 21
494.243672
  0
LINE
  8
CSLAYER1
  6
CONTINUOUS
 62
     3
 10
569.852689
 20
730.478058
 11
570.852689
 21
730.478058
  0
LINE
  8
CSLAYER1
  6
CONTINUOUS
 62
     3
 10
555.852689
 20
729.478058
 11
560.852689
 21
729.478058
  0
LINE
  8
CSLAYER1
  6
CONTINUOUS
 62
     3
 10
570.852689
 20
723.229211
 11
570.852689
 21
734.478058
  0
LINE
  8
CSLAYER1
  6
CONTINUOUS
 62
     3
 10
611.352689
 20
736.028058
 11
611.352689
 21
699.928058
  0
LINE
  8
CSLAYER1
  6
CONTINUOUS
 62
     3
 10
601.352689
 20
737.028058
 11
610.352689
 21
737.028058
  0
LINE
  8
CSLAYER1
  6
CONTINUOUS
 62
     3
 10
571.852689
 20
735.478058
 11
592.352689
 21
735.478058
  0
LINE
  8
CSLAYER1
  6
CONTINUOUS
 62
     3
 10
611.352689
 20
736.028058
 11
610.352689
 21
737.028058
  0
LINE
  8
CSLAYER1
  6
CONTINUOUS
 62
     3
 10
570.852689
 20
734.478058
 11
571.852689
 21
735.478058
  0
LINE
  8
CSLAYER1
  6
CONTINUOUS
 62
     3
 10
606.352689
 20
737.028058
 11
601.352689
 21
742.028058
  0
LINE
  8
CSLAYER1
  6
CONTINUOUS
 62
     3
 10
601.352689
 20
741.745215
 11
606.069847
 21
737.028058
  0
LINE
  8
CSLAYER1
  6
CONTINUOUS
 62
     3
 10
601.352689
 20
741.462372
 11
605.787004
 21
737.028058
  0
LINE
  8
CSLAYER1
  6
CONTINUOUS
 62
     3
 10
601.352689
 20
741.179530
 11
605.504161
 21
737.028058
  0
LINE
  8
CSLAYER1
  6
CONTINUOUS
 62
     3
 10
601.352689
 20
740.896687
 11
605.221318
 21
737.028058
  0
LINE
  8
CSLAYER1
  6
CONTINUOUS
 62
     3
 10
601.352689
 20
740.613844
 11
604.938476
 21
737.028058
  0
LINE
  8
CSLAYER1
  6
CONTINUOUS
 62
     3
 10
601.352689
 20
740.331002
 11
604.655633
 21
737.028058
  0
LINE
  8
CSLAYER1
  6
CONTINUOUS
 62
     3
 10
601.352689
 20
740.048159
 11
604.372790
 21
737.028058
  0
LINE
  8
CSLAYER1
  6
CONTINUOUS
 62
     3
 10
601.352689
 20
739.765316
 11
604.089948
 21
737.028058
  0
LINE
  8
CSLAYER1
  6
CONTINUOUS
 62
     3
 10
601.352689
 20
739.482473
 11
603.807105
 21
737.028058
  0
LINE
  8
CSLAYER1
  6
CONTINUOUS
 62
     3
 10
601.352689
 20
739.199631
 11
603.524262
 21
737.028058
  0
LINE
  8
CSLAYER1
  6
CONTINUOUS
 62
     3
 10
601.352689
 20
738.916788
 11
603.241419
 21
737.028058
  0
LINE
  8
CSLAYER1
  6
CONTINUOUS
 62
     3
 10
601.352689
 20
738.633945
 11
602.958577
 21
737.028058
  0
LINE
  8
CSLAYER1
  6
CONTINUOUS
 62
     3
 10
601.352689
 20
738.351103
 11
602.675734
 21
737.028058
  0
LINE
  8
CSLAYER1
  6
CONTINUOUS
 62
     3
 10
601.352689
 20
738.068260
 11
602.392891
 21
737.028058
  0
LINE
  8
CSLAYER1
  6
CONTINUOUS
 62
     3
 10
601.352689
 20
737.785417
 11
602.110049
 21
737.028058
  0
LINE
  8
CSLAYER1
  6
CONTINUOUS
 62
     3
 10
601.352689
 20
737.502575
 11
601.827206
 21
737.028058
  0
LINE
  8
CSLAYER1
  6
CONTINUOUS
 62
     3
 10
601.352689
 20
737.219732
 11
601.544363
 21
737.028058
  0
LINE
  8
CSLAYER1
  6
CONTINUOUS
 62
     3
 10
592.352689
 20
740.478058
 11
587.352689
 21
735.478058
  0
LINE
  8
CSLAYER1
  6
CONTINUOUS
 62
     3
 10
587.635532
 20
735.478058
 11
592.352689
 21
740.195215
  0
LINE
  8
CSLAYER1
  6
CONTINUOUS
 62
     3
 10
587.918375
 20
735.478058
 11
592.352689
 21
739.912372
  0
LINE
  8
CSLAYER1
  6
CONTINUOUS
 62
     3
 10
588.201217
 20
735.478058
 11
592.352689
 21
739.629530
  0
LINE
  8
CSLAYER1
  6
CONTINUOUS
 62
     3
 10
588.484060
 20
735.478058
 11
592.352689
 21
739.346687
  0
LINE
  8
CSLAYER1
  6
CONTINUOUS
 62
     3
 10
588.766903
 20
735.478058
 11
592.352689
 21
739.063844
  0
LINE
  8
CSLAYER1
  6
CONTINUOUS
 62
     3
 10
589.049746
 20
735.478058
 11
592.352689
 21
738.781002
  0
LINE
  8
CSLAYER1
  6
CONTINUOUS
 62
     3
 10
589.332588
 20
735.478058
 11
592.352689
 21
738.498159
  0
LINE
  8
CSLAYER1
  6
CONTINUOUS
 62
     3
 10
589.615431
 20
735.478058
 11
592.352689
 21
738.215316
  0
LINE
  8
CSLAYER1
  6
CONTINUOUS
 62
     3
 10
589.898274
 20
735.478058
 11
592.352689
 21
737.932473
  0
LINE
  8
CSLAYER1
  6
CONTINUOUS
 62
     3
 10
590.181116
 20
735.478058
 11
592.352689
 21
737.649631
  0
LINE
  8
CSLAYER1
  6
CONTINUOUS
 62
     3
 10
590.463959
 20
735.478058
 11
592.352689
 21
737.366788
  0
LINE
  8
CSLAYER1
  6
CONTINUOUS
 62
     3
 10
590.746802
 20
735.478058
 11
592.352689
 21
737.083945
  0
LINE
  8
CSLAYER1
  6
CONTINUOUS
 62
     3
 10
591.029645
 20
735.478058
 11
592.352689
 21
736.801103
  0
LINE
  8
CSLAYER1
  6
CONTINUOUS
 62
     3
 10
591.312487
 20
735.478058
 11
592.352689
 21
736.518260
  0
LINE
  8
CSLAYER1
  6
CONTINUOUS
 62
     3
 10
591.595330
 20
735.478058
 11
592.352689
 21
736.235417
  0
LINE
  8
CSLAYER1
  6
CONTINUOUS
 62
     3
 10
591.878173
 20
735.478058
 11
592.352689
 21
735.952575
  0
LINE
  8
CSLAYER1
  6
CONTINUOUS
 62
     3
 10
592.161015
 20
735.478058
 11
592.352689
 21
735.669732
  0
LINE
  8
CSLAYER1
  6
CONTINUOUS
 62
     3
 10
560.852689
 20
727.530384
 11
560.852689
 21
772.182893
  0
LINE
  8
CSLAYER1
  6
CONTINUOUS
 62
     3
 10
569.852689
 20
723.659328
 11
569.852689
 21
772.182893
  0
LINE
  8
CSLAYER1
  6
CONTINUOUS
 62
     3
 10
611.352689
 20
730.478058
 11
612.352689
 21
730.478058
  0
LINE
  8
CSLAYER1
  6
CONTINUOUS
 62
     3
 10
608.352689
 20
698.928058
 11
610.352689
 21
698.928058
  0
LINE
  8
CSLAYER1
  6
CONTINUOUS
 62
     3
 10
611.352689
 20
699.928058
 11
610.352689
 21
698.928058
  0
LINE
  8
CSLAYER1
  6
CONTINUOUS
 62
     3
 10
611.352689
 20
705.478058
 11
612.352689
 21
705.478058
  0
LINE
  8
CSLAYER1
  6
CENTER
 62
     5
 10
585.758789
 20
687.242766
 11
608.352689
 21
687.242766
  0
LINE
  8
CSLAYER1
  6
CONTINUOUS
 62
     4
 10
602.352689
 20
697.242766
 11
601.352689
 21
697.242766
  0
LINE
  8
CSLAYER1
  6
CONTINUOUS
 62
     4
 10
328.352689
 20
700.742766
 11
328.352689
 21
673.742766
  0
LINE
  8
CSLAYER1
  6
CONTINUOUS
 62
     4
 10
322.352689
 20
700.242766
 11
322.352689
 21
674.242766
  0
LINE
  8
CSLAYER1
  6
CONTINUOUS
 62
     4
 10
323.352689
 20
701.242766
 11
327.852689
 21
701.242766
  0
LINE
  8
CSLAYER1
  6
CONTINUOUS
 62
     4
 10
322.352689
 20
700.242766
 11
323.352689
 21
701.242766
  0
LINE
  8
CSLAYER1
  6
CONTINUOUS
 62
     4
 10
327.852689
 20
701.242766
 11
328.352689
 21
700.742766
  0
LINE
  8
CSLAYER1
  6
CONTINUOUS
 62
     4
 10
323.352689
 20
701.242766
 11
323.352689
 21
673.242766
  0
LINE
  8
CSLAYER1
  6
CONTINUOUS
 62
     4
 10
327.852689
 20
701.242766
 11
327.852689
 21
673.242766
  0
LINE
  8
CSLAYER1
  6
CONTINUOUS
 62
     4
 10
323.352689
 20
673.242766
 11
327.852689
 21
673.242766
  0
LINE
  8
CSLAYER1
  6
CONTINUOUS
 62
     4
 10
322.352689
 20
674.242766
 11
323.352689
 21
673.242766
  0
LINE
  8
CSLAYER1
  6
CONTINUOUS
 62
     4
 10
327.852689
 20
673.242766
 11
328.352689
 21
673.742766
  0
LINE
  8
CSLAYER1
  6
CONTINUOUS
 62
     4
 10
328.352689
 20
677.242766
 11
329.352689
 21
677.242766
  0
INSERT
  8
CSLAYER1
  2
BLKF0003
 10
0.0
 20
0.0
 30
0.0
  0
LINE
  8
CSLAYER1
  6
CONTINUOUS
 62
     3
 10
360.852689
 20
730.478058
 11
359.852689
 21
730.478058
  0
LINE
  8
CSLAYER1
  6
CONTINUOUS
 62
     3
 10
374.852689
 20
729.478058
 11
369.852689
 21
729.478058
  0
LINE
  8
CSLAYER1
  6
CONTINUOUS
 62
     3
 10
359.852689
 20
723.229211
 11
359.852689
 21
734.478058
  0
LINE
  8
CSLAYER1
  6
CONTINUOUS
 62
     3
 10
319.352689
 20
736.028058
 11
319.352689
 21
699.928058
  0
LINE
  8
CSLAYER1
  6
CONTINUOUS
 62
     3
 10
329.352689
 20
737.028058
 11
320.352689
 21
737.028058
  0
LINE
  8
CSLAYER1
  6
CONTINUOUS
 62
     3
 10
358.852689
 20
735.478058
 11
338.352689
 21
735.478058
  0
LINE
  8
CSLAYER1
  6
CONTINUOUS
 62
     3
 10
319.352689
 20
736.028058
 11
320.352689
 21
737.028058
  0
LINE
  8
CSLAYER1
  6
CONTINUOUS
 62
     3
 10
359.852689
 20
734.478058
 11
358.852689
 21
735.478058
  0
LINE
  8
CSLAYER1
  6
CONTINUOUS
 62
     3
 10
324.352689
 20
737.028058
 11
329.352689
 21
742.028058
  0
LINE
  8
CSLAYER1
  6
CONTINUOUS
 62
     3
 10
329.352689
 20
741.745215
 11
324.635532
 21
737.028058
  0
LINE
  8
CSLAYER1
  6
CONTINUOUS
 62
     3
 10
329.352689
 20
741.462372
 11
324.918375
 21
737.028058
  0
LINE
  8
CSLAYER1
  6
CONTINUOUS
 62
     3
 10
329.352689
 20
741.179530
 11
325.201217
 21
737.028058
  0
LINE
  8
CSLAYER1
  6
CONTINUOUS
 62
     3
 10
329.352689
 20
740.896687
 11
325.484060
 21
737.028058
  0
LINE
  8
CSLAYER1
  6
CONTINUOUS
 62
     3
 10
329.352689
 20
740.613844
 11
325.766903
 21
737.028058
  0
LINE
  8
CSLAYER1
  6
CONTINUOUS
 62
     3
 10
329.352689
 20
740.331002
 11
326.049746
 21
737.028058
  0
LINE
  8
CSLAYER1
  6
CONTINUOUS
 62
     3
 10
329.352689
 20
740.048159
 11
326.332588
 21
737.028058
  0
LINE
  8
CSLAYER1
  6
CONTINUOUS
 62
     3
 10
329.352689
 20
739.765316
 11
326.615431
 21
737.028058
  0
LINE
  8
CSLAYER1
  6
CONTINUOUS
 62
     3
 10
329.352689
 20
739.482473
 11
326.898274
 21
737.028058
  0
LINE
  8
CSLAYER1
  6
CONTINUOUS
 62
     3
 10
329.352689
 20
739.199631
 11
327.181116
 21
737.028058
  0
LINE
  8
CSLAYER1
  6
CONTINUOUS
 62
     3
 10
329.352689
 20
738.916788
 11
327.463959
 21
737.028058
  0
LINE
  8
CSLAYER1
  6
CONTINUOUS
 62
     3
 10
329.352689
 20
738.633945
 11
327.746802
 21
737.028058
  0
LINE
  8
CSLAYER1
  6
CONTINUOUS
 62
     3
 10
329.352689
 20
738.351103
 11
328.029645
 21
737.028058
  0
LINE
  8
CSLAYER1
  6
CONTINUOUS
 62
     3
 10
329.352689
 20
738.068260
 11
328.312487
 21
737.028058
  0
LINE
  8
CSLAYER1
  6
CONTINUOUS
 62
     3
 10
329.352689
 20
737.785417
 11
328.595330
 21
737.028058
  0
LINE
  8
CSLAYER1
  6
CONTINUOUS
 62
     3
 10
329.352689
 20
737.502575
 11
328.878173
 21
737.028058
  0
LINE
  8
CSLAYER1
  6
CONTINUOUS
 62
     3
 10
329.352689
 20
737.219732
 11
329.161015
 21
737.028058
  0
LINE
  8
CSLAYER1
  6
CONTINUOUS
 62
     3
 10
338.352689
 20
740.478058
 11
343.352689
 21
735.478058
  0
LINE
  8
CSLAYER1
  6
CONTINUOUS
 62
     3
 10
343.069847
 20
735.478058
 11
338.352689
 21
740.195215
  0
LINE
  8
CSLAYER1
  6
CONTINUOUS
 62
     3
 10
342.787004
 20
735.478058
 11
338.352689
 21
739.912372
  0
LINE
  8
CSLAYER1
  6
CONTINUOUS
 62
     3
 10
342.504161
 20
735.478058
 11
338.352689
 21
739.629530
  0
LINE
  8
CSLAYER1
  6
CONTINUOUS
 62
     3
 10
342.221318
 20
735.478058
 11
338.352689
 21
739.346687
  0
LINE
  8
CSLAYER1
  6
CONTINUOUS
 62
     3
 10
341.938476
 20
735.478058
 11
338.352689
 21
739.063844
  0
LINE
  8
CSLAYER1
  6
CONTINUOUS
 62
     3
 10
341.655633
 20
735.478058
 11
338.352689
 21
738.781002
  0
LINE
  8
CSLAYER1
  6
CONTINUOUS
 62
     3
 10
341.372790
 20
735.478058
 11
338.352689
 21
738.498159
  0
LINE
  8
CSLAYER1
  6
CONTINUOUS
 62
     3
 10
341.089948
 20
735.478058
 11
338.352689
 21
738.215316
  0
LINE
  8
CSLAYER1
  6
CONTINUOUS
 62
     3
 10
340.807105
 20
735.478058
 11
338.352689
 21
737.932473
  0
LINE
  8
CSLAYER1
  6
CONTINUOUS
 62
     3
 10
340.524262
 20
735.478058
 11
338.352689
 21
737.649631
  0
LINE
  8
CSLAYER1
  6
CONTINUOUS
 62
     3
 10
340.241419
 20
735.478058
 11
338.352689
 21
737.366788
  0
LINE
  8
CSLAYER1
  6
CONTINUOUS
 62
     3
 10
339.958577
 20
735.478058
 11
338.352689
 21
737.083945
  0
LINE
  8
CSLAYER1
  6
CONTINUOUS
 62
     3
 10
339.675734
 20
735.478058
 11
338.352689
 21
736.801103
  0
LINE
  8
CSLAYER1
  6
CONTINUOUS
 62
     3
 10
339.392891
 20
735.478058
 11
338.352689
 21
736.518260
  0
LINE
  8
CSLAYER1
  6
CONTINUOUS
 62
     3
 10
339.110049
 20
735.478058
 11
338.352689
 21
736.235417
  0
LINE
  8
CSLAYER1
  6
CONTINUOUS
 62
     3
 10
338.827206
 20
735.478058
 11
338.352689
 21
735.952575
  0
LINE
  8
CSLAYER1
  6
CONTINUOUS
 62
     3
 10
338.544363
 20
735.478058
 11
338.352689
 21
735.669732
  0
LINE
  8
CSLAYER1
  6
CONTINUOUS
 62
     3
 10
319.352689
 20
730.478058
 11
318.352689
 21
730.478058
  0
LINE
  8
CSLAYER1
  6
CONTINUOUS
 62
     3
 10
322.352689
 20
698.928058
 11
320.352689
 21
698.928058
  0
LINE
  8
CSLAYER1
  6
CONTINUOUS
 62
     3
 10
319.352689
 20
699.928058
 11
320.352689
 21
698.928058
  0
LINE
  8
CSLAYER1
  6
CONTINUOUS
 62
     3
 10
319.352689
 20
705.478058
 11
318.352689
 21
705.478058
  0
LINE
  8
CSLAYER1
  6
CENTER
 62
     5
 10
344.946589
 20
687.242766
 11
322.352689
 21
687.242766
  0
LINE
  8
CSLAYER1
  6
CONTINUOUS
 62
     4
 10
328.352689
 20
697.242766
 11
329.352689
 21
697.242766
  0
LINE
  8
CSLAYER1
  6
CONTINUOUS
 62
     3
 10
369.852689
 20
727.530384
 11
369.852689
 21
772.182893
  0
LINE
  8
CSLAYER1
  6
CONTINUOUS
 62
     3
 10
360.852689
 20
723.659328
 11
360.852689
 21
772.182893
  0
INSERT
  8
CSLAYER1
  2
BLKF0004
 10
0.0
 20
0.0
 30
0.0
  0
LINE
  8
CSLAYER1
  6
CENTER
 62
     5
 10
465.352689
 20
1102.621070
 11
465.352689
 21
389.535046
  0
LINE
  8
CSLAYER1
  6
CENTER
 62
     5
 10
365.352689
 20
725.594856
 11
365.352689
 21
1022.567480
  0
LINE
  8
CSLAYER1
  6
CENTER
 62
     5
 10
565.352689
 20
725.594856
 11
565.352689
 21
1022.567480
  0
LINE
  8
CSLAYER1
  6
CONTINUOUS
 62
     7
 10
404.352689
 20
742.369431
 11
526.352689
 21
742.369431
  0
LINE
  8
CSLAYER1
  6
CONTINUOUS
 62
     7
 10
404.352689
 20
719.483681
 11
526.352689
 21
719.483681
  0
LINE
  8
CSLAYER1
  6
CONTINUOUS
 62
     7
 10
527.352689
 20
501.296047
 11
527.116761
 21
505.117009
  0
LINE
  8
CSLAYER1
  6
CONTINUOUS
 62
     7
 10
527.116761
 20
505.117009
 11
526.410770
 21
508.908891
  0
LINE
  8
CSLAYER1
  6
CONTINUOUS
 62
     7
 10
526.410770
 20
508.908891
 11
525.240091
 21
512.642835
  0
LINE
  8
CSLAYER1
  6
CONTINUOUS
 62
     7
 10
525.240091
 20
512.642835
 11
523.613632
 21
516.290423
  0
LINE
  8
CSLAYER1
  6
CONTINUOUS
 62
     7
 10
523.613632
 20
516.290423
 11
521.543772
 21
519.823894
  0
LINE
  8
CSLAYER1
  6
CONTINUOUS
 62
     7
 10
521.543772
 20
519.823894
 11
519.046264
 21
523.216358
  0
LINE
  8
CSLAYER1
  6
CONTINUOUS
 62
     7
 10
519.046264
 20
523.216358
 11
516.140116
 21
526.441994
  0
LINE
  8
CSLAYER1
  6
CONTINUOUS
 62
     7
 10
516.140116
 20
526.441994
 11
512.847445
 21
529.476255
  0
LINE
  8
CSLAYER1
  6
CONTINUOUS
 62
     7
 10
512.847445
 20
529.476255
 11
509.193310
 21
532.296047
  0
LINE
  8
CSLAYER1
  6
CONTINUOUS
 62
     7
 10
509.193310
 20
532.296047
 11
505.205521
 21
534.879911
  0
LINE
  8
CSLAYER1
  6
CONTINUOUS
 62
     7
 10
505.205521
 20
534.879911
 11
500.914428
 21
537.208181
  0
LINE
  8
CSLAYER1
  6
CONTINUOUS
 62
     7
 10
500.914428
 20
537.208181
 11
496.352689
 21
539.263138
  0
LINE
  8
CSLAYER1
  6
CONTINUOUS
 62
     7
 10
496.352689
 20
539.263138
 11
491.555022
 21
541.029143
  0
LINE
  8
CSLAYER1
  6
CONTINUOUS
 62
     7
 10
491.555022
 20
541.029143
 11
486.557938
 21
542.492755
  0
LINE
  8
CSLAYER1
  6
CONTINUOUS
 62
     7
 10
486.557938
 20
542.492755
 11
481.399470
 21
543.642835
  0
LINE
  8
CSLAYER1
  6
CONTINUOUS
 62
     7
 10
481.399470
 20
543.642835
 11
476.118876
 21
544.470630
  0
LINE
  8
CSLAYER1
  6
CONTINUOUS
 62
     7
 10
476.118876
 20
544.470630
 11
470.756345
 21
544.969841
  0
LINE
  8
CSLAYER1
  6
CONTINUOUS
 62
     7
 10
470.756345
 20
544.969841
 11
465.352689
 21
545.136668
  0
LINE
  8
CSLAYER1
  6
CONTINUOUS
 62
     7
 10
465.352689
 20
545.136668
 11
459.949033
 21
544.969841
  0
LINE
  8
CSLAYER1
  6
CONTINUOUS
 62
     7
 10
459.949033
 20
544.969841
 11
454.586502
 21
544.470630
  0
LINE
  8
CSLAYER1
  6
CONTINUOUS
 62
     7
 10
454.586502
 20
544.470630
 11
449.305909
 21
543.642835
  0
LINE
  8
CSLAYER1
  6
CONTINUOUS
 62
     7
 10
449.305909
 20
543.642835
 11
444.147440
 21
542.492755
  0
LINE
  8
CSLAYER1
  6
CONTINUOUS
 62
     7
 10
444.147440
 20
542.492755
 11
439.150357
 21
541.029143
  0
LINE
  8
CSLAYER1
  6
CONTINUOUS
 62
     7
 10
439.150357
 20
541.029143
 11
434.352689
 21
539.263138
  0
LINE
  8
CSLAYER1
  6
CONTINUOUS
 62
     7
 10
434.352689
 20
539.263138
 11
429.790950
 21
537.208181
  0
LINE
  8
CSLAYER1
  6
CONTINUOUS
 62
     7
 10
429.790950
 20
537.208181
 11
425.499858
 21
534.879911
  0
LINE
  8
CSLAYER1
  6
CONTINUOUS
 62
     7
 10
425.499858
 20
534.879911
 11
421.512069
 21
532.296047
  0
LINE
  8
CSLAYER1
  6
CONTINUOUS
 62
     7
 10
421.512069
 20
532.296047
 11
417.857934
 21
529.476255
  0
LINE
  8
CSLAYER1
  6
CONTINUOUS
 62
     7
 10
417.857934
 20
529.476255
 11
414.565263
 21
526.441994
  0
LINE
  8
CSLAYER1
  6
CONTINUOUS
 62
     7
 10
414.565263
 20
526.441994
 11
411.659114
 21
523.216358
  0
LINE
  8
CSLAYER1
  6
CONTINUOUS
 62
     7
 10
411.659114
 20
523.216358
 11
409.161607
 21
519.823894
  0
LINE
  8
CSLAYER1
  6
CONTINUOUS
 62
     7
 10
409.161607
 20
519.823894
 11
407.091747
 21
516.290423
  0
LINE
  8
CSLAYER1
  6
CONTINUOUS
 62
     7
 10
407.091747
 20
516.290423
 11
405.465288
 21
512.642835
  0
LINE
  8
CSLAYER1
  6
CONTINUOUS
 62
     7
 10
405.465288
 20
512.642835
 11
404.294609
 21
508.908891
  0
LINE
  8
CSLAYER1
  6
CONTINUOUS
 62
     7
 10
404.294609
 20
508.908891
 11
403.588618
 21
505.117009
  0
LINE
  8
CSLAYER1
  6
CONTINUOUS
 62
     7
 10
403.588618
 20
505.117009
 11
403.352689
 21
501.296047
  0
LINE
  8
CSLAYER1
  6
CONTINUOUS
 62
     7
 10
403.352689
 20
501.296047
 11
403.588618
 21
497.475086
  0
LINE
  8
CSLAYER1
  6
CONTINUOUS
 62
     7
 10
403.588618
 20
497.475086
 11
404.294609
 21
493.683204
  0
LINE
  8
CSLAYER1
  6
CONTINUOUS
 62
     7
 10
404.294609
 20
493.683204
 11
405.465288
 21
489.949260
  0
LINE
  8
CSLAYER1
  6
CONTINUOUS
 62
     7
 10
405.465288
 20
489.949260
 11
407.091747
 21
486.301672
  0
LINE
  8
CSLAYER1
  6
CONTINUOUS
 62
     7
 10
407.091747
 20
486.301672
 11
409.161607
 21
482.768201
  0
LINE
  8
CSLAYER1
  6
CONTINUOUS
 62
     7
 10
409.161607
 20
482.768201
 11
411.659114
 21
479.375737
  0
LINE
  8
CSLAYER1
  6
CONTINUOUS
 62
     7
 10
411.659114
 20
479.375737
 11
414.565263
 21
476.150101
  0
LINE
  8
CSLAYER1
  6
CONTINUOUS
 62
     7
 10
414.565263
 20
476.150101
 11
417.857934
 21
473.115840
  0
LINE
  8
CSLAYER1
  6
CONTINUOUS
 62
     7
 10
417.857934
 20
473.115840
 11
421.512069
 21
470.296047
  0
LINE
  8
CSLAYER1
  6
CONTINUOUS
 62
     7
 10
421.512069
 20
470.296047
 11
425.499858
 21
467.712184
  0
LINE
  8
CSLAYER1
  6
CONTINUOUS
 62
     7
 10
425.499858
 20
467.712184
 11
429.790950
 21
465.383914
  0
LINE
  8
CSLAYER1
  6
CONTINUOUS
 62
     7
 10
429.790950
 20
465.383914
 11
434.352689
 21
463.328956
  0
LINE
  8
CSLAYER1
  6
CONTINUOUS
 62
     7
 10
434.352689
 20
463.328956
 11
439.150357
 21
461.562952
  0
LINE
  8
CSLAYER1
  6
CONTINUOUS
 62
     7
 10
439.150357
 20
461.562952
 11
444.147440
 21
460.099340
  0
LINE
  8
CSLAYER1
  6
CONTINUOUS
 62
     7
 10
444.147440
 20
460.099340
 11
449.305909
 21
458.949260
  0
LINE
  8
CSLAYER1
  6
CONTINUOUS
 62
     7
 10
449.305909
 20
458.949260
 11
454.586502
 21
458.121464
  0
LINE
  8
CSLAYER1
  6
CONTINUOUS
 62
     7
 10
454.586502
 20
458.121464
 11
459.949033
 21
457.622254
  0
LINE
  8
CSLAYER1
  6
CONTINUOUS
 62
     7
 10
459.949033
 20
457.622254
 11
465.352689
 21
457.455427
  0
LINE
  8
CSLAYER1
  6
CONTINUOUS
 62
     7
 10
465.352689
 20
457.455427
 11
470.756345
 21
457.622254
  0
LINE
  8
CSLAYER1
  6
CONTINUOUS
 62
     7
 10
470.756345
 20
457.622254
 11
476.118876
 21
458.121464
  0
LINE
  8
CSLAYER1
  6
CONTINUOUS
 62
     7
 10
476.118876
 20
458.121464
 11
481.399470
 21
458.949260
  0
LINE
  8
CSLAYER1
  6
CONTINUOUS
 62
     7
 10
481.399470
 20
458.949260
 11
486.557938
 21
460.099340
  0
LINE
  8
CSLAYER1
  6
CONTINUOUS
 62
     7
 10
486.557938
 20
460.099340
 11
491.555022
 21
461.562952
  0
LINE
  8
CSLAYER1
  6
CONTINUOUS
 62
     7
 10
491.555022
 20
461.562952
 11
496.352689
 21
463.328956
  0
LINE
  8
CSLAYER1
  6
CONTINUOUS
 62
     7
 10
496.352689
 20
463.328956
 11
500.914428
 21
465.383914
  0
LINE
  8
CSLAYER1
  6
CONTINUOUS
 62
     7
 10
500.914428
 20
465.383914
 11
505.205521
 21
467.712184
  0
LINE
  8
CSLAYER1
  6
CONTINUOUS
 62
     7
 10
505.205521
 20
467.712184
 11
509.193310
 21
470.296047
  0
LINE
  8
CSLAYER1
  6
CONTINUOUS
 62
     7
 10
509.193310
 20
470.296047
 11
512.847445
 21
473.115840
  0
LINE
  8
CSLAYER1
  6
CONTINUOUS
 62
     7
 10
512.847445
 20
473.115840
 11
516.140116
 21
476.150101
  0
LINE
  8
CSLAYER1
  6
CONTINUOUS
 62
     7
 10
516.140116
 20
476.150101
 11
519.046264
 21
479.375737
  0
LINE
  8
CSLAYER1
  6
CONTINUOUS
 62
     7
 10
519.046264
 20
479.375737
 11
521.543772
 21
482.768201
  0
LINE
  8
CSLAYER1
  6
CONTINUOUS
 62
     7
 10
521.543772
 20
482.768201
 11
523.613632
 21
486.301672
  0
LINE
  8
CSLAYER1
  6
CONTINUOUS
 62
     7
 10
523.613632
 20
486.301672
 11
525.240091
 21
489.949260
  0
LINE
  8
CSLAYER1
  6
CONTINUOUS
 62
     7
 10
525.240091
 20
489.949260
 11
526.410770
 21
493.683204
  0
LINE
  8
CSLAYER1
  6
CONTINUOUS
 62
     7
 10
526.410770
 20
493.683204
 11
527.116761
 21
497.475086
  0
LINE
  8
CSLAYER1
  6
CONTINUOUS
 62
     7
 10
527.116761
 20
497.475086
 11
527.352689
 21
501.296047
  0
LINE
  8
CSLAYER1
  6
CONTINUOUS
 62
     7
 10
509.352689
 20
495.574610
 11
509.185256
 21
498.286260
  0
LINE
  8
CSLAYER1
  6
CONTINUOUS
 62
     7
 10
509.185256
 20
498.286260
 11
508.684230
 21
500.977273
  0
LINE
  8
CSLAYER1
  6
CONTINUOUS
 62
     7
 10
508.684230
 20
500.977273
 11
507.853426
 21
503.627169
  0
LINE
  8
CSLAYER1
  6
CONTINUOUS
 62
     7
 10
507.853426
 20
503.627169
 11
506.699165
 21
506.215779
  0
LINE
  8
CSLAYER1
  6
CONTINUOUS
 62
     7
 10
506.699165
 20
506.215779
 11
505.230232
 21
508.723404
  0
LINE
  8
CSLAYER1
  6
CONTINUOUS
 62
     7
 10
505.230232
 20
508.723404
 11
503.457807
 21
511.130959
  0
LINE
  8
CSLAYER1
  6
CONTINUOUS
 62
     7
 10
503.457807
 20
511.130959
 11
501.395379
 21
513.420121
  0
LINE
  8
CSLAYER1
  6
CONTINUOUS
 62
     7
 10
501.395379
 20
513.420121
 11
499.058645
 21
515.573467
  0
LINE
  8
CSLAYER1
  6
CONTINUOUS
 62
     7
 10
499.058645
 20
515.573467
 11
496.465388
 21
517.574610
  0
LINE
  8
CSLAYER1
  6
CONTINUOUS
 62
     7
 10
496.465388
 20
517.574610
 11
493.635344
 21
519.408320
  0
LINE
  8
CSLAYER1
  6
CONTINUOUS
 62
     7
 10
493.635344
 20
519.408320
 11
490.590053
 21
521.060640
  0
LINE
  8
CSLAYER1
  6
CONTINUOUS
 62
     7
 10
490.590053
 20
521.060640
 11
487.352689
 21
522.518997
  0
LINE
  8
CSLAYER1
  6
CONTINUOUS
 62
     7
 10
487.352689
 20
522.518997
 11
483.947893
 21
523.772291
  0
LINE
  8
CSLAYER1
  6
CONTINUOUS
 62
     7
 10
483.947893
 20
523.772291
 11
480.401576
 21
524.810983
  0
LINE
  8
CSLAYER1
  6
CONTINUOUS
 62
     7
 10
480.401576
 20
524.810983
 11
476.740727
 21
525.627169
  0
LINE
  8
CSLAYER1
  6
CONTINUOUS
 62
     7
 10
476.740727
 20
525.627169
 11
472.993209
 21
526.214636
  0
LINE
  8
CSLAYER1
  6
CONTINUOUS
 62
     7
 10
472.993209
 20
526.214636
 11
469.187542
 21
526.568915
  0
LINE
  8
CSLAYER1
  6
CONTINUOUS
 62
     7
 10
469.187542
 20
526.568915
 11
465.352689
 21
526.687308
  0
LINE
  8
CSLAYER1
  6
CONTINUOUS
 62
     7
 10
465.352689
 20
526.687308
 11
461.517837
 21
526.568915
  0
LINE
  8
CSLAYER1
  6
CONTINUOUS
 62
     7
 10
461.517837
 20
526.568915
 11
457.712169
 21
526.214636
  0
LINE
  8
CSLAYER1
  6
CONTINUOUS
 62
     7
 10
457.712169
 20
526.214636
 11
453.964651
 21
525.627169
  0
LINE
  8
CSLAYER1
  6
CONTINUOUS
 62
     7
 10
453.964651
 20
525.627169
 11
450.303803
 21
524.810983
  0
LINE
  8
CSLAYER1
  6
CONTINUOUS
 62
     7
 10
450.303803
 20
524.810983
 11
446.757486
 21
523.772291
  0
LINE
  8
CSLAYER1
  6
CONTINUOUS
 62
     7
 10
446.757486
 20
523.772291
 11
443.352689
 21
522.518997
  0
LINE
  8
CSLAYER1
  6
CONTINUOUS
 62
     7
 10
443.352689
 20
522.518997
 11
440.115326
 21
521.060640
  0
LINE
  8
CSLAYER1
  6
CONTINUOUS
 62
     7
 10
440.115326
 20
521.060640
 11
437.070034
 21
519.408320
  0
LINE
  8
CSLAYER1
  6
CONTINUOUS
 62
     7
 10
437.070034
 20
519.408320
 11
434.239991
 21
517.574610
  0
LINE
  8
CSLAYER1
  6
CONTINUOUS
 62
     7
 10
434.239991
 20
517.574610
 11
431.646734
 21
515.573467
  0
LINE
  8
CSLAYER1
  6
CONTINUOUS
 62
     7
 10
431.646734
 20
515.573467
 11
429.309999
 21
513.420121
  0
LINE
  8
CSLAYER1
  6
CONTINUOUS
 62
     7
 10
429.309999
 20
513.420121
 11
427.247572
 21
511.130959
  0
LINE
  8
CSLAYER1
  6
CONTINUOUS
 62
     7
 10
427.247572
 20
511.130959
 11
425.475147
 21
508.723404
  0
LINE
  8
CSLAYER1
  6
CONTINUOUS
 62
     7
 10
425.475147
 20
508.723404
 11
424.006214
 21
506.215779
  0
LINE
  8
CSLAYER1
  6
CONTINUOUS
 62
     7
 10
424.006214
 20
506.215779
 11
422.851953
 21
503.627169
  0
LINE
  8
CSLAYER1
  6
CONTINUOUS
 62
     7
 10
422.851953
 20
503.627169
 11
422.021148
 21
500.977273
  0
LINE
  8
CSLAYER1
  6
CONTINUOUS
 62
     7
 10
422.021148
 20
500.977273
 11
421.520123
 21
498.286260
  0
LINE
  8
CSLAYER1
  6
CONTINUOUS
 62
     7
 10
421.520123
 20
498.286260
 11
421.352689
 21
495.574610
  0
LINE
  8
CSLAYER1
  6
CONTINUOUS
 62
     7
 10
421.352689
 20
495.574610
 11
421.520123
 21
492.862960
  0
LINE
  8
CSLAYER1
  6
CONTINUOUS
 62
     7
 10
421.520123
 20
492.862960
 11
422.021148
 21
490.171947
  0
LINE
  8
CSLAYER1
  6
CONTINUOUS
 62
     7
 10
422.021148
 20
490.171947
 11
422.851953
 21
487.522051
  0
LINE
  8
CSLAYER1
  6
CONTINUOUS
 62
     7
 10
422.851953
 20
487.522051
 11
424.006214
 21
484.933440
  0
LINE
  8
CSLAYER1
  6
CONTINUOUS
 62
     7
 10
424.006214
 20
484.933440
 11
425.475147
 21
482.425815
  0
LINE
  8
CSLAYER1
  6
CONTINUOUS
 62
     7
 10
425.475147
 20
482.425815
 11
427.247572
 21
480.018261
  0
LINE
  8
CSLAYER1
  6
CONTINUOUS
 62
     7
 10
427.247572
 20
480.018261
 11
429.309999
 21
477.729099
  0
LINE
  8
CSLAYER1
  6
CONTINUOUS
 62
     7
 10
429.309999
 20
477.729099
 11
431.646734
 21
475.575753
  0
LINE
  8
CSLAYER1
  6
CONTINUOUS
 62
     7
 10
431.646734
 20
475.575753
 11
434.239991
 21
473.574610
  0
LINE
  8
CSLAYER1
  6
CONTINUOUS
 62
     7
 10
434.239991
 20
473.574610
 11
437.070034
 21
471.740900
  0
LINE
  8
CSLAYER1
  6
CONTINUOUS
 62
     7
 10
437.070034
 20
471.740900
 11
440.115326
 21
470.088579
  0
LINE
  8
CSLAYER1
  6
CONTINUOUS
 62
     7
 10
440.115326
 20
470.088579
 11
443.352689
 21
468.630223
  0
LINE
  8
CSLAYER1
  6
CONTINUOUS
 62
     7
 10
443.352689
 20
468.630223
 11
446.757486
 21
467.376929
  0
LINE
  8
CSLAYER1
  6
CONTINUOUS
 62
     7
 10
446.757486
 20
467.376929
 11
450.303803
 21
466.338237
  0
LINE
  8
CSLAYER1
  6
CONTINUOUS
 62
     7
 10
450.303803
 20
466.338237
 11
453.964651
 21
465.522051
  0
LINE
  8
CSLAYER1
  6
CONTINUOUS
 62
     7
 10
453.964651
 20
465.522051
 11
457.712169
 21
464.934583
  0
LINE
  8
CSLAYER1
  6
CONTINUOUS
 62
     7
 10
457.712169
 20
464.934583
 11
461.517837
 21
464.580305
  0
LINE
  8
CSLAYER1
  6
CONTINUOUS
 62
     7
 10
461.517837
 20
464.580305
 11
465.352689
 21
464.461912
  0
LINE
  8
CSLAYER1
  6
CONTINUOUS
 62
     7
 10
465.352689
 20
464.461912
 11
469.187542
 21
464.580305
  0
LINE
  8
CSLAYER1
  6
CONTINUOUS
 62
     7
 10
469.187542
 20
464.580305
 11
472.993209
 21
464.934583
  0
LINE
  8
CSLAYER1
  6
CONTINUOUS
 62
     7
 10
472.993209
 20
464.934583
 11
476.740727
 21
465.522051
  0
LINE
  8
CSLAYER1
  6
CONTINUOUS
 62
     7
 10
476.740727
 20
465.522051
 11
480.401576
 21
466.338237
  0
LINE
  8
CSLAYER1
  6
CONTINUOUS
 62
     7
 10
480.401576
 20
466.338237
 11
483.947893
 21
467.376929
  0
LINE
  8
CSLAYER1
  6
CONTINUOUS
 62
     7
 10
483.947893
 20
467.376929
 11
487.352689
 21
468.630223
  0
LINE
  8
CSLAYER1
  6
CONTINUOUS
 62
     7
 10
487.352689
 20
468.630223
 11
490.590053
 21
470.088579
  0
LINE
  8
CSLAYER1
  6
CONTINUOUS
 62
     7
 10
490.590053
 20
470.088579
 11
493.635344
 21
471.740900
  0
LINE
  8
CSLAYER1
  6
CONTINUOUS
 62
     7
 10
493.635344
 20
471.740900
 11
496.465388
 21
473.574610
  0
LINE
  8
CSLAYER1
  6
CONTINUOUS
 62
     7
 10
496.465388
 20
473.574610
 11
499.058645
 21
475.575753
  0
LINE
  8
CSLAYER1
  6
CONTINUOUS
 62
     7
 10
499.058645
 20
475.575753
 11
501.395379
 21
477.729099
  0
LINE
  8
CSLAYER1
  6
CONTINUOUS
 62
     7
 10
501.395379
 20
477.729099
 11
503.457807
 21
480.018261
  0
LINE
  8
CSLAYER1
  6
CONTINUOUS
 62
     7
 10
503.457807
 20
480.018261
 11
505.230232
 21
482.425815
  0
LINE
  8
CSLAYER1
  6
CONTINUOUS
 62
     7
 10
505.230232
 20
482.425815
 11
506.699165
 21
484.933440
  0
LINE
  8
CSLAYER1
  6
CONTINUOUS
 62
     7
 10
506.699165
 20
484.933440
 11
507.853426
 21
487.522051
  0
LINE
  8
CSLAYER1
  6
CONTINUOUS
 62
     7
 10
507.853426
 20
487.522051
 11
508.684230
 21
490.171947
  0
LINE
  8
CSLAYER1
  6
CONTINUOUS
 62
     7
 10
508.684230
 20
490.171947
 11
509.185256
 21
492.862960
  0
LINE
  8
CSLAYER1
  6
CONTINUOUS
 62
     7
 10
509.185256
 20
492.862960
 11
509.352689
 21
495.574610
  0
LINE
  8
CSLAYER1
  6
CONTINUOUS
 62
     7
 10
520.352689
 20
707.582460
 11
520.352689
 21
649.758261
  0
LINE
  8
CSLAYER1
  6
CONTINUOUS
 62
     7
 10
410.352689
 20
707.582460
 11
410.352689
 21
649.758261
  0
LINE
  8
CSLAYER1
  6
CONTINUOUS
 62
     7
 10
420.352689
 20
714.241626
 11
510.352689
 21
714.241626
  0
LINE
  8
CSLAYER1
  6
CONTINUOUS
 62
     7
 10
420.352689
 20
704.944290
 11
510.352689
 21
704.944290
  0
LINE
  8
CSLAYER1
  6
CONTINUOUS
 62
     7
 10
527.352689
 20
542.061290
 11
527.352689
 21
501.296047
  0
LINE
  8
CSLAYER1
  6
CONTINUOUS
 62
     7
 10
403.352689
 20
542.061290
 11
403.352689
 21
501.296047
  0
LINE
  8
CSLAYER1
  6
CONTINUOUS
 62
     7
 10
525.352689
 20
632.889110
 11
525.352689
 21
553.155557
  0
LINE
  8
CSLAYER1
  6
CONTINUOUS
 62
     7
 10
520.352689
 20
707.170558
 11
520.314636
 21
707.786843
  0
LINE
  8
CSLAYER1
  6
CONTINUOUS
 62
     7
 10
520.314636
 20
707.786843
 11
520.200767
 21
708.398436
  0
LINE
  8
CSLAYER1
  6
CONTINUOUS
 62
     7
 10
520.200767
 20
708.398436
 11
520.011948
 21
709.000685
  0
LINE
  8
CSLAYER1
  6
CONTINUOUS
 62
     7
 10
520.011948
 20
709.000685
 11
519.749616
 21
709.589006
  0
LINE
  8
CSLAYER1
  6
CONTINUOUS
 62
     7
 10
519.749616
 20
709.589006
 11
519.415767
 21
710.158921
  0
LINE
  8
CSLAYER1
  6
CONTINUOUS
 62
     7
 10
519.415767
 20
710.158921
 11
519.012943
 21
710.706092
  0
LINE
  8
CSLAYER1
  6
CONTINUOUS
 62
     7
 10
519.012943
 20
710.706092
 11
518.544210
 21
711.226356
  0
LINE
  8
CSLAYER1
  6
CONTINUOUS
 62
     7
 10
518.544210
 20
711.226356
 11
518.013134
 21
711.715753
  0
LINE
  8
CSLAYER1
  6
CONTINUOUS
 62
     7
 10
518.013134
 20
711.715753
 11
517.423757
 21
712.170558
  0
LINE
  8
CSLAYER1
  6
CONTINUOUS
 62
     7
 10
517.423757
 20
712.170558
 11
516.780565
 21
712.587311
  0
LINE
  8
CSLAYER1
  6
CONTINUOUS
 62
     7
 10
516.780565
 20
712.587311
 11
516.088454
 21
712.962838
  0
LINE
  8
CSLAYER1
  6
CONTINUOUS
 62
     7
 10
516.088454
 20
712.962838
 11
515.352689
 21
713.294283
  0
LINE
  8
CSLAYER1
  6
CONTINUOUS
 62
     7
 10
515.352689
 20
713.294283
 11
514.578872
 21
713.579122
  0
LINE
  8
CSLAYER1
  6
CONTINUOUS
 62
     7
 10
514.578872
 20
713.579122
 11
513.772891
 21
713.815189
  0
LINE
  8
CSLAYER1
  6
CONTINUOUS
 62
     7
 10
513.772891
 20
713.815189
 11
512.940880
 21
714.000685
  0
LINE
  8
CSLAYER1
  6
CONTINUOUS
 62
     7
 10
512.940880
 20
714.000685
 11
512.089171
 21
714.134201
  0
LINE
  8
CSLAYER1
  6
CONTINUOUS
 62
     7
 10
512.089171
 20
714.134201
 11
511.224247
 21
714.214719
  0
LINE
  8
CSLAYER1
  6
CONTINUOUS
 62
     7
 10
511.224247
 20
714.214719
 11
510.352689
 21
714.241626
  0
LINE
  8
CSLAYER1
  6
CONTINUOUS
 62
     7
 10
520.352689
 20
697.873223
 11
520.314636
 21
698.489507
  0
LINE
  8
CSLAYER1
  6
CONTINUOUS
 62
     7
 10
520.314636
 20
698.489507
 11
520.200767
 21
699.101101
  0
LINE
  8
CSLAYER1
  6
CONTINUOUS
 62
     7
 10
520.200767
 20
699.101101
 11
520.011948
 21
699.703350
  0
LINE
  8
CSLAYER1
  6
CONTINUOUS
 62
     7
 10
520.011948
 20
699.703350
 11
519.749616
 21
700.291670
  0
LINE
  8
CSLAYER1
  6
CONTINUOUS
 62
     7
 10
519.749616
 20
700.291670
 11
519.415767
 21
700.861585
  0
LINE
  8
CSLAYER1
  6
CONTINUOUS
 62
     7
 10
519.415767
 20
700.861585
 11
519.012943
 21
701.408756
  0
LINE
  8
CSLAYER1
  6
CONTINUOUS
 62
     7
 10
519.012943
 20
701.408756
 11
518.544210
 21
701.929020
  0
LINE
  8
CSLAYER1
  6
CONTINUOUS
 62
     7
 10
518.544210
 20
701.929020
 11
518.013134
 21
702.418417
  0
LINE
  8
CSLAYER1
  6
CONTINUOUS
 62
     7
 10
518.013134
 20
702.418417
 11
517.423757
 21
702.873223
  0
LINE
  8
CSLAYER1
  6
CONTINUOUS
 62
     7
 10
517.423757
 20
702.873223
 11
516.780565
 21
703.289975
  0
LINE
  8
CSLAYER1
  6
CONTINUOUS
 62
     7
 10
516.780565
 20
703.289975
 11
516.088454
 21
703.665502
  0
LINE
  8
CSLAYER1
  6
CONTINUOUS
 62
     7
 10
516.088454
 20
703.665502
 11
515.352689
 21
703.996947
  0
LINE
  8
CSLAYER1
  6
CONTINUOUS
 62
     7
 10
515.352689
 20
703.996947
 11
514.578872
 21
704.281786
  0
LINE
  8
CSLAYER1
  6
CONTINUOUS
 62
     7
 10
514.578872
 20
704.281786
 11
513.772891
 21
704.517853
  0
LINE
  8
CSLAYER1
  6
CONTINUOUS
 62
     7
 10
513.772891
 20
704.517853
 11
512.940880
 21
704.703350
  0
LINE
  8
CSLAYER1
  6
CONTINUOUS
 62
     7
 10
512.940880
 20
704.703350
 11
512.089171
 21
704.836865
  0
LINE
  8
CSLAYER1
  6
CONTINUOUS
 62
     7
 10
512.089171
 20
704.836865
 11
511.224247
 21
704.917383
  0
LINE
  8
CSLAYER1
  6
CONTINUOUS
 62
     7
 10
511.224247
 20
704.917383
 11
510.352689
 21
704.944290
  0
LINE
  8
CSLAYER1
  6
CONTINUOUS
 62
     7
 10
410.352689
 20
707.170558
 11
410.390742
 21
707.786843
  0
LINE
  8
CSLAYER1
  6
CONTINUOUS
 62
     7
 10
410.390742
 20
707.786843
 11
410.504612
 21
708.398436
  0
LINE
  8
CSLAYER1
  6
CONTINUOUS
 62
     7
 10
410.504612
 20
708.398436
 11
410.693431
 21
709.000685
  0
LINE
  8
CSLAYER1
  6
CONTINUOUS
 62
     7
 10
410.693431
 20
709.000685
 11
410.955763
 21
709.589006
  0
LINE
  8
CSLAYER1
  6
CONTINUOUS
 62
     7
 10
410.955763
 20
709.589006
 11
411.289611
 21
710.158921
  0
LINE
  8
CSLAYER1
  6
CONTINUOUS
 62
     7
 10
411.289611
 20
710.158921
 11
411.692435
 21
710.706092
  0
LINE
  8
CSLAYER1
  6
CONTINUOUS
 62
     7
 10
411.692435
 20
710.706092
 11
412.161169
 21
711.226356
  0
LINE
  8
CSLAYER1
  6
CONTINUOUS
 62
     7
 10
412.161169
 20
711.226356
 11
412.692245
 21
711.715753
  0
LINE
  8
CSLAYER1
  6
CONTINUOUS
 62
     7
 10
412.692245
 20
711.715753
 11
413.281621
 21
712.170558
  0
LINE
  8
CSLAYER1
  6
CONTINUOUS
 62
     7
 10
413.281621
 20
712.170558
 11
413.924813
 21
712.587311
  0
LINE
  8
CSLAYER1
  6
CONTINUOUS
 62
     7
 10
413.924813
 20
712.587311
 11
414.616925
 21
712.962838
  0
LINE
  8
CSLAYER1
  6
CONTINUOUS
 62
     7
 10
414.616925
 20
712.962838
 11
415.352689
 21
713.294283
  0
LINE
  8
CSLAYER1
  6
CONTINUOUS
 62
     7
 10
415.352689
 20
713.294283
 11
416.126507
 21
713.579122
  0
LINE
  8
CSLAYER1
  6
CONTINUOUS
 62
     7
 10
416.126507
 20
713.579122
 11
416.932488
 21
713.815189
  0
LINE
  8
CSLAYER1
  6
CONTINUOUS
 62
     7
 10
416.932488
 20
713.815189
 11
417.764499
 21
714.000685
  0
LINE
  8
CSLAYER1
  6
CONTINUOUS
 62
     7
 10
417.764499
 20
714.000685
 11
418.616208
 21
714.134201
  0
LINE
  8
CSLAYER1
  6
CONTINUOUS
 62
     7
 10
418.616208
 20
714.134201
 11
419.481132
 21
714.214719
  0
LINE
  8
CSLAYER1
  6
CONTINUOUS
 62
     7
 10
419.481132
 20
714.214719
 11
420.352689
 21
714.241626
  0
LINE
  8
CSLAYER1
  6
CONTINUOUS
 62
     7
 10
410.352689
 20
697.873223
 11
410.390742
 21
698.489507
  0
LINE
  8
CSLAYER1
  6
CONTINUOUS
 62
     7
 10
410.390742
 20
698.489507
 11
410.504612
 21
699.101101
  0
LINE
  8
CSLAYER1
  6
CONTINUOUS
 62
     7
 10
410.504612
 20
699.101101
 11
410.693431
 21
699.703350
  0
LINE
  8
CSLAYER1
  6
CONTINUOUS
 62
     7
 10
410.693431
 20
699.703350
 11
410.955763
 21
700.291670
  0
LINE
  8
CSLAYER1
  6
CONTINUOUS
 62
     7
 10
410.955763
 20
700.291670
 11
411.289611
 21
700.861585
  0
LINE
  8
CSLAYER1
  6
CONTINUOUS
 62
     7
 10
411.289611
 20
700.861585
 11
411.692435
 21
701.408756
  0
LINE
  8
CSLAYER1
  6
CONTINUOUS
 62
     7
 10
411.692435
 20
701.408756
 11
412.161169
 21
701.929020
  0
LINE
  8
CSLAYER1
  6
CONTINUOUS
 62
     7
 10
412.161169
 20
701.929020
 11
412.692245
 21
702.418417
  0
LINE
  8
CSLAYER1
  6
CONTINUOUS
 62
     7
 10
412.692245
 20
702.418417
 11
413.281621
 21
702.873223
  0
LINE
  8
CSLAYER1
  6
CONTINUOUS
 62
     7
 10
413.281621
 20
702.873223
 11
413.924813
 21
703.289975
  0
LINE
  8
CSLAYER1
  6
CONTINUOUS
 62
     7
 10
413.924813
 20
703.289975
 11
414.616925
 21
703.665502
  0
LINE
  8
CSLAYER1
  6
CONTINUOUS
 62
     7
 10
414.616925
 20
703.665502
 11
415.352689
 21
703.996947
  0
LINE
  8
CSLAYER1
  6
CONTINUOUS
 62
     7
 10
415.352689
 20
703.996947
 11
416.126507
 21
704.281786
  0
LINE
  8
CSLAYER1
  6
CONTINUOUS
 62
     7
 10
416.126507
 20
704.281786
 11
416.932488
 21
704.517853
  0
LINE
  8
CSLAYER1
  6
CONTINUOUS
 62
     7
 10
416.932488
 20
704.517853
 11
417.764499
 21
704.703350
  0
LINE
  8
CSLAYER1
  6
CONTINUOUS
 62
     7
 10
417.764499
 20
704.703350
 11
418.616208
 21
704.836865
  0
LINE
  8
CSLAYER1
  6
CONTINUOUS
 62
     7
 10
418.616208
 20
704.836865
 11
419.481132
 21
704.917383
  0
LINE
  8
CSLAYER1
  6
CONTINUOUS
 62
     7
 10
419.481132
 20
704.917383
 11
420.352689
 21
704.944290
  0
LINE
  8
CSLAYER1
  6
CONTINUOUS
 62
     7
 10
405.352689
 20
632.889110
 11
405.352689
 21
553.048937
  0
LINE
  8
CSLAYER1
  6
CONTINUOUS
 62
     7
 10
519.352689
 20
666.502555
 11
519.352689
 21
651.333371
  0
LINE
  8
CSLAYER1
  6
CONTINUOUS
 62
     7
 10
519.352689
 20
666.502555
 11
519.147203
 21
669.830490
  0
LINE
  8
CSLAYER1
  6
CONTINUOUS
 62
     7
 10
519.147203
 20
669.830490
 11
518.532308
 21
673.133097
  0
LINE
  8
CSLAYER1
  6
CONTINUOUS
 62
     7
 10
518.532308
 20
673.133097
 11
517.512684
 21
676.385241
  0
LINE
  8
CSLAYER1
  6
CONTINUOUS
 62
     7
 10
517.512684
 20
676.385241
 11
516.096091
 21
679.562172
  0
LINE
  8
CSLAYER1
  6
CONTINUOUS
 62
     7
 10
516.096091
 20
679.562172
 11
514.293310
 21
682.639712
  0
LINE
  8
CSLAYER1
  6
CONTINUOUS
 62
     7
 10
514.293310
 20
682.639712
 11
512.118061
 21
685.594438
  0
LINE
  8
CSLAYER1
  6
CONTINUOUS
 62
     7
 10
512.118061
 20
685.594438
 11
510.651051
 21
687.222724
  0
LINE
  8
CSLAYER1
  6
CONTINUOUS
 62
     7
 10
502.852689
 20
693.945597
 11
500.063220
 21
695.753017
  0
LINE
  8
CSLAYER1
  6
CONTINUOUS
 62
     7
 10
500.063220
 20
695.753017
 11
496.325817
 21
697.780865
  0
LINE
  8
CSLAYER1
  6
CONTINUOUS
 62
     7
 10
496.325817
 20
697.780865
 11
492.352689
 21
699.570667
  0
LINE
  8
CSLAYER1
  6
CONTINUOUS
 62
     7
 10
492.352689
 20
699.570667
 11
488.174075
 21
701.108800
  0
LINE
  8
CSLAYER1
  6
CONTINUOUS
 62
     7
 10
488.174075
 20
701.108800
 11
483.821777
 21
702.383559
  0
LINE
  8
CSLAYER1
  6
CONTINUOUS
 62
     7
 10
483.821777
 20
702.383559
 11
479.328918
 21
703.385241
  0
LINE
  8
CSLAYER1
  6
CONTINUOUS
 62
     7
 10
479.328918
 20
703.385241
 11
474.729691
 21
704.106224
  0
LINE
  8
CSLAYER1
  6
CONTINUOUS
 62
     7
 10
474.729691
 20
704.106224
 11
470.059099
 21
704.541021
  0
LINE
  8
CSLAYER1
  6
CONTINUOUS
 62
     7
 10
470.059099
 20
704.541021
 11
465.352689
 21
704.686321
  0
LINE
  8
CSLAYER1
  6
CONTINUOUS
 62
     7
 10
465.352689
 20
704.686321
 11
460.646279
 21
704.541021
  0
LINE
  8
CSLAYER1
  6
CONTINUOUS
 62
     7
 10
460.646279
 20
704.541021
 11
455.975688
 21
704.106224
  0
LINE
  8
CSLAYER1
  6
CONTINUOUS
 62
     7
 10
455.975688
 20
704.106224
 11
451.376461
 21
703.385241
  0
LINE
  8
CSLAYER1
  6
CONTINUOUS
 62
     7
 10
451.376461
 20
703.385241
 11
446.883602
 21
702.383559
  0
LINE
  8
CSLAYER1
  6
CONTINUOUS
 62
     7
 10
446.883602
 20
702.383559
 11
442.531303
 21
701.108800
  0
LINE
  8
CSLAYER1
  6
CONTINUOUS
 62
     7
 10
442.531303
 20
701.108800
 11
438.352689
 21
699.570667
  0
LINE
  8
CSLAYER1
  6
CONTINUOUS
 62
     7
 10
438.352689
 20
699.570667
 11
434.379562
 21
697.780865
  0
LINE
  8
CSLAYER1
  6
CONTINUOUS
 62
     7
 10
434.379562
 20
697.780865
 11
430.642158
 21
695.753017
  0
LINE
  8
CSLAYER1
  6
CONTINUOUS
 62
     7
 10
430.642158
 20
695.753017
 11
427.852689
 21
693.945597
  0
LINE
  8
CSLAYER1
  6
CONTINUOUS
 62
     7
 10
420.040152
 20
687.206991
 11
418.587318
 21
685.594438
  0
LINE
  8
CSLAYER1
  6
CONTINUOUS
 62
     7
 10
418.587318
 20
685.594438
 11
416.412069
 21
682.639712
  0
LINE
  8
CSLAYER1
  6
CONTINUOUS
 62
     7
 10
416.412069
 20
682.639712
 11
414.609288
 21
679.562172
  0
LINE
  8
CSLAYER1
  6
CONTINUOUS
 62
     7
 10
414.609288
 20
679.562172
 11
413.192695
 21
676.385241
  0
LINE
  8
CSLAYER1
  6
CONTINUOUS
 62
     7
 10
413.192695
 20
676.385241
 11
412.173071
 21
673.133097
  0
LINE
  8
CSLAYER1
  6
CONTINUOUS
 62
     7
 10
412.173071
 20
673.133097
 11
411.558176
 21
669.830490
  0
LINE
  8
CSLAYER1
  6
CONTINUOUS
 62
     7
 10
411.558176
 20
669.830490
 11
411.352689
 21
666.502555
  0
LINE
  8
CSLAYER1
  6
CONTINUOUS
 62
     7
 10
411.352689
 20
666.502555
 11
411.352689
 21
651.333371
  0
LINE
  8
CSLAYER1
  6
CONTINUOUS
 62
     7
 10
518.502360
 20
652.488408
 11
517.512684
 21
655.645030
  0
LINE
  8
CSLAYER1
  6
CONTINUOUS
 62
     7
 10
517.512684
 20
655.645030
 11
516.096091
 21
658.821962
  0
LINE
  8
CSLAYER1
  6
CONTINUOUS
 62
     7
 10
516.096091
 20
658.821962
 11
514.293310
 21
661.899501
  0
LINE
  8
CSLAYER1
  6
CONTINUOUS
 62
     7
 10
514.293310
 20
661.899501
 11
512.118061
 21
664.854227
  0
LINE
  8
CSLAYER1
  6
CONTINUOUS
 62
     7
 10
512.118061
 20
664.854227
 11
509.586900
 21
667.663653
  0
LINE
  8
CSLAYER1
  6
CONTINUOUS
 62
     7
 10
509.586900
 20
667.663653
 11
506.719089
 21
670.306396
  0
LINE
  8
CSLAYER1
  6
CONTINUOUS
 62
     7
 10
506.719089
 20
670.306396
 11
503.536455
 21
672.762344
  0
LINE
  8
CSLAYER1
  6
CONTINUOUS
 62
     7
 10
503.536455
 20
672.762344
 11
500.063220
 21
675.012806
  0
LINE
  8
CSLAYER1
  6
CONTINUOUS
 62
     7
 10
500.063220
 20
675.012806
 11
496.325817
 21
677.040654
  0
LINE
  8
CSLAYER1
  6
CONTINUOUS
 62
     7
 10
496.325817
 20
677.040654
 11
492.352689
 21
678.830456
  0
LINE
  8
CSLAYER1
  6
CONTINUOUS
 62
     7
 10
492.352689
 20
678.830456
 11
488.174075
 21
680.368589
  0
LINE
  8
CSLAYER1
  6
CONTINUOUS
 62
     7
 10
488.174075
 20
680.368589
 11
483.821777
 21
681.643348
  0
LINE
  8
CSLAYER1
  6
CONTINUOUS
 62
     7
 10
483.821777
 20
681.643348
 11
479.328918
 21
682.645030
  0
LINE
  8
CSLAYER1
  6
CONTINUOUS
 62
     7
 10
479.328918
 20
682.645030
 11
474.729691
 21
683.366013
  0
LINE
  8
CSLAYER1
  6
CONTINUOUS
 62
     7
 10
474.729691
 20
683.366013
 11
470.059099
 21
683.800810
  0
LINE
  8
CSLAYER1
  6
CONTINUOUS
 62
     7
 10
470.059099
 20
683.800810
 11
465.352689
 21
683.946111
  0
LINE
  8
CSLAYER1
  6
CONTINUOUS
 62
     7
 10
465.352689
 20
683.946111
 11
460.646279
 21
683.800810
  0
LINE
  8
CSLAYER1
  6
CONTINUOUS
 62
     7
 10
460.646279
 20
683.800810
 11
455.975688
 21
683.366013
  0
LINE
  8
CSLAYER1
  6
CONTINUOUS
 62
     7
 10
455.975688
 20
683.366013
 11
451.376461
 21
682.645030
  0
LINE
  8
CSLAYER1
  6
CONTINUOUS
 62
     7
 10
451.376461
 20
682.645030
 11
446.883602
 21
681.643348
  0
LINE
  8
CSLAYER1
  6
CONTINUOUS
 62
     7
 10
446.883602
 20
681.643348
 11
442.531303
 21
680.368589
  0
LINE
  8
CSLAYER1
  6
CONTINUOUS
 62
     7
 10
442.531303
 20
680.368589
 11
438.352689
 21
678.830456
  0
LINE
  8
CSLAYER1
  6
CONTINUOUS
 62
     7
 10
438.352689
 20
678.830456
 11
434.379562
 21
677.040654
  0
LINE
  8
CSLAYER1
  6
CONTINUOUS
 62
     7
 10
434.379562
 20
677.040654
 11
430.642158
 21
675.012806
  0
LINE
  8
CSLAYER1
  6
CONTINUOUS
 62
     7
 10
430.642158
 20
675.012806
 11
427.168923
 21
672.762344
  0
LINE
  8
CSLAYER1
  6
CONTINUOUS
 62
     7
 10
427.168923
 20
672.762344
 11
423.986289
 21
670.306396
  0
LINE
  8
CSLAYER1
  6
CONTINUOUS
 62
     7
 10
423.986289
 20
670.306396
 11
421.118479
 21
667.663653
  0
LINE
  8
CSLAYER1
  6
CONTINUOUS
 62
     7
 10
421.118479
 20
667.663653
 11
418.587318
 21
664.854227
  0
LINE
  8
CSLAYER1
  6
CONTINUOUS
 62
     7
 10
418.587318
 20
664.854227
 11
416.412069
 21
661.899501
  0
LINE
  8
CSLAYER1
  6
CONTINUOUS
 62
     7
 10
416.412069
 20
661.899501
 11
414.609288
 21
658.821962
  0
LINE
  8
CSLAYER1
  6
CONTINUOUS
 62
     7
 10
414.609288
 20
658.821962
 11
413.192695
 21
655.645030
  0
LINE
  8
CSLAYER1
  6
CONTINUOUS
 62
     7
 10
413.192695
 20
655.645030
 11
412.203019
 21
652.488408
  0
LINE
  8
CSLAYER1
  6
CONTINUOUS
 62
     7
 10
525.352689
 20
632.889110
 11
525.124371
 21
636.586815
  0
LINE
  8
CSLAYER1
  6
CONTINUOUS
 62
     7
 10
525.124371
 20
636.586815
 11
524.441154
 21
640.256378
  0
LINE
  8
CSLAYER1
  6
CONTINUOUS
 62
     7
 10
524.441154
 20
640.256378
 11
523.308239
 21
643.869872
  0
LINE
  8
CSLAYER1
  6
CONTINUOUS
 62
     7
 10
523.308239
 20
643.869872
 11
521.734247
 21
647.399796
  0
LINE
  8
CSLAYER1
  6
CONTINUOUS
 62
     7
 10
521.734247
 20
647.399796
 11
519.731157
 21
650.819284
  0
LINE
  8
CSLAYER1
  6
CONTINUOUS
 62
     7
 10
519.731157
 20
650.819284
 11
517.314214
 21
654.102313
  0
LINE
  8
CSLAYER1
  6
CONTINUOUS
 62
     7
 10
517.314214
 20
654.102313
 11
514.501812
 21
657.223897
  0
LINE
  8
CSLAYER1
  6
CONTINUOUS
 62
     7
 10
514.501812
 20
657.223897
 11
511.315356
 21
660.160279
  0
LINE
  8
CSLAYER1
  6
CONTINUOUS
 62
     7
 10
511.315356
 20
660.160279
 11
507.779096
 21
662.889110
  0
LINE
  8
CSLAYER1
  6
CONTINUOUS
 62
     7
 10
507.779096
 20
662.889110
 11
503.919946
 21
665.389623
  0
LINE
  8
CSLAYER1
  6
CONTINUOUS
 62
     7
 10
503.919946
 20
665.389623
 11
499.767275
 21
667.642788
  0
LINE
  8
CSLAYER1
  6
CONTINUOUS
 62
     7
 10
499.767275
 20
667.642788
 11
495.352689
 21
669.631456
  0
LINE
  8
CSLAYER1
  6
CONTINUOUS
 62
     7
 10
495.352689
 20
669.631456
 11
490.709785
 21
671.340493
  0
LINE
  8
CSLAYER1
  6
CONTINUOUS
 62
     7
 10
490.709785
 20
671.340493
 11
485.873898
 21
672.756891
  0
LINE
  8
CSLAYER1
  6
CONTINUOUS
 62
     7
 10
485.873898
 20
672.756891
 11
480.881832
 21
673.869872
  0
LINE
  8
CSLAYER1
  6
CONTINUOUS
 62
     7
 10
480.881832
 20
673.869872
 11
475.771580
 21
674.670964
  0
LINE
  8
CSLAYER1
  6
CONTINUOUS
 62
     7
 10
475.771580
 20
674.670964
 11
470.582034
 21
675.154072
  0
LINE
  8
CSLAYER1
  6
CONTINUOUS
 62
     7
 10
470.582034
 20
675.154072
 11
465.352689
 21
675.315517
  0
LINE
  8
CSLAYER1
  6
CONTINUOUS
 62
     7
 10
465.352689
 20
675.315517
 11
460.123345
 21
675.154072
  0
LINE
  8
CSLAYER1
  6
CONTINUOUS
 62
     7
 10
460.123345
 20
675.154072
 11
454.933799
 21
674.670964
  0
LINE
  8
CSLAYER1
  6
CONTINUOUS
 62
     7
 10
454.933799
 20
674.670964
 11
449.823547
 21
673.869872
  0
LINE
  8
CSLAYER1
  6
CONTINUOUS
 62
     7
 10
449.823547
 20
673.869872
 11
444.831481
 21
672.756891
  0
LINE
  8
CSLAYER1
  6
CONTINUOUS
 62
     7
 10
444.831481
 20
672.756891
 11
439.995594
 21
671.340493
  0
LINE
  8
CSLAYER1
  6
CONTINUOUS
 62
     7
 10
439.995594
 20
671.340493
 11
435.352689
 21
669.631456
  0
LINE
  8
CSLAYER1
  6
CONTINUOUS
 62
     7
 10
435.352689
 20
669.631456
 11
430.938103
 21
667.642788
  0
LINE
  8
CSLAYER1
  6
CONTINUOUS
 62
     7
 10
430.938103
 20
667.642788
 11
426.785433
 21
665.389623
  0
LINE
  8
CSLAYER1
  6
CONTINUOUS
 62
     7
 10
426.785433
 20
665.389623
 11
422.926282
 21
662.889110
  0
LINE
  8
CSLAYER1
  6
CONTINUOUS
 62
     7
 10
422.926282
 20
662.889110
 11
419.390023
 21
660.160279
  0
LINE
  8
CSLAYER1
  6
CONTINUOUS
 62
     7
 10
419.390023
 20
660.160279
 11
416.203567
 21
657.223897
  0
LINE
  8
CSLAYER1
  6
CONTINUOUS
 62
     7
 10
416.203567
 20
657.223897
 11
413.391165
 21
654.102313
  0
LINE
  8
CSLAYER1
  6
CONTINUOUS
 62
     7
 10
413.391165
 20
654.102313
 11
410.974222
 21
650.819284
  0
LINE
  8
CSLAYER1
  6
CONTINUOUS
 62
     7
 10
410.974222
 20
650.819284
 11
408.971132
 21
647.399796
  0
LINE
  8
CSLAYER1
  6
CONTINUOUS
 62
     7
 10
408.971132
 20
647.399796
 11
407.397140
 21
643.869872
  0
LINE
  8
CSLAYER1
  6
CONTINUOUS
 62
     7
 10
407.397140
 20
643.869872
 11
406.264224
 21
640.256378
  0
LINE
  8
CSLAYER1
  6
CONTINUOUS
 62
     7
 10
406.264224
 20
640.256378
 11
405.581007
 21
636.586815
  0
LINE
  8
CSLAYER1
  6
CONTINUOUS
 62
     7
 10
405.581007
 20
636.586815
 11
405.352689
 21
632.889110
  0
LINE
  8
CSLAYER1
  6
CONTINUOUS
 62
     7
 10
525.352689
 20
625.737313
 11
525.124371
 21
629.435018
  0
LINE
  8
CSLAYER1
  6
CONTINUOUS
 62
     7
 10
525.124371
 20
629.435018
 11
524.441154
 21
633.104581
  0
LINE
  8
CSLAYER1
  6
CONTINUOUS
 62
     7
 10
524.441154
 20
633.104581
 11
523.308239
 21
636.718075
  0
LINE
  8
CSLAYER1
  6
CONTINUOUS
 62
     7
 10
523.308239
 20
636.718075
 11
521.734247
 21
640.247999
  0
LINE
  8
CSLAYER1
  6
CONTINUOUS
 62
     7
 10
521.734247
 20
640.247999
 11
519.731157
 21
643.667487
  0
LINE
  8
CSLAYER1
  6
CONTINUOUS
 62
     7
 10
519.731157
 20
643.667487
 11
517.314214
 21
646.950517
  0
LINE
  8
CSLAYER1
  6
CONTINUOUS
 62
     7
 10
517.314214
 20
646.950517
 11
514.501812
 21
650.072100
  0
LINE
  8
CSLAYER1
  6
CONTINUOUS
 62
     7
 10
514.501812
 20
650.072100
 11
511.315356
 21
653.008482
  0
LINE
  8
CSLAYER1
  6
CONTINUOUS
 62
     7
 10
511.315356
 20
653.008482
 11
507.779096
 21
655.737313
  0
LINE
  8
CSLAYER1
  6
CONTINUOUS
 62
     7
 10
507.779096
 20
655.737313
 11
503.919946
 21
658.237826
  0
LINE
  8
CSLAYER1
  6
CONTINUOUS
 62
     7
 10
503.919946
 20
658.237826
 11
499.767275
 21
660.490991
  0
LINE
  8
CSLAYER1
  6
CONTINUOUS
 62
     7
 10
499.767275
 20
660.490991
 11
495.352689
 21
662.479659
  0
LINE
  8
CSLAYER1
  6
CONTINUOUS
 62
     7
 10
495.352689
 20
662.479659
 11
490.709785
 21
664.188696
  0
LINE
  8
CSLAYER1
  6
CONTINUOUS
 62
     7
 10
490.709785
 20
664.188696
 11
485.873898
 21
665.605095
  0
LINE
  8
CSLAYER1
  6
CONTINUOUS
 62
     7
 10
485.873898
 20
665.605095
 11
480.881832
 21
666.718075
  0
LINE
  8
CSLAYER1
  6
CONTINUOUS
 62
     7
 10
480.881832
 20
666.718075
 11
475.771580
 21
667.519167
  0
LINE
  8
CSLAYER1
  6
CONTINUOUS
 62
     7
 10
475.771580
 20
667.519167
 11
470.582034
 21
668.002275
  0
LINE
  8
CSLAYER1
  6
CONTINUOUS
 62
     7
 10
470.582034
 20
668.002275
 11
465.352689
 21
668.163720
  0
LINE
  8
CSLAYER1
  6
CONTINUOUS
 62
     7
 10
465.352689
 20
668.163720
 11
460.123345
 21
668.002275
  0
LINE
  8
CSLAYER1
  6
CONTINUOUS
 62
     7
 10
460.123345
 20
668.002275
 11
454.933799
 21
667.519167
  0
LINE
  8
CSLAYER1
  6
CONTINUOUS
 62
     7
 10
454.933799
 20
667.519167
 11
449.823547
 21
666.718075
  0
LINE
  8
CSLAYER1
  6
CONTINUOUS
 62
     7
 10
449.823547
 20
666.718075
 11
444.831481
 21
665.605095
  0
LINE
  8
CSLAYER1
  6
CONTINUOUS
 62
     7
 10
444.831481
 20
665.605095
 11
439.995594
 21
664.188696
  0
LINE
  8
CSLAYER1
  6
CONTINUOUS
 62
     7
 10
439.995594
 20
664.188696
 11
435.352689
 21
662.479659
  0
LINE
  8
CSLAYER1
  6
CONTINUOUS
 62
     7
 10
435.352689
 20
662.479659
 11
430.938103
 21
660.490991
  0
LINE
  8
CSLAYER1
  6
CONTINUOUS
 62
     7
 10
430.938103
 20
660.490991
 11
426.785433
 21
658.237826
  0
LINE
  8
CSLAYER1
  6
CONTINUOUS
 62
     7
 10
426.785433
 20
658.237826
 11
422.926282
 21
655.737313
  0
LINE
  8
CSLAYER1
  6
CONTINUOUS
 62
     7
 10
422.926282
 20
655.737313
 11
419.390023
 21
653.008482
  0
LINE
  8
CSLAYER1
  6
CONTINUOUS
 62
     7
 10
419.390023
 20
653.008482
 11
416.203567
 21
650.072100
  0
LINE
  8
CSLAYER1
  6
CONTINUOUS
 62
     7
 10
416.203567
 20
650.072100
 11
413.391165
 21
646.950517
  0
LINE
  8
CSLAYER1
  6
CONTINUOUS
 62
     7
 10
413.391165
 20
646.950517
 11
410.974222
 21
643.667487
  0
LINE
  8
CSLAYER1
  6
CONTINUOUS
 62
     7
 10
410.974222
 20
643.667487
 11
408.971132
 21
640.247999
  0
LINE
  8
CSLAYER1
  6
CONTINUOUS
 62
     7
 10
408.971132
 20
640.247999
 11
407.397140
 21
636.718075
  0
LINE
  8
CSLAYER1
  6
CONTINUOUS
 62
     7
 10
407.397140
 20
636.718075
 11
406.264224
 21
633.104581
  0
LINE
  8
CSLAYER1
  6
CONTINUOUS
 62
     7
 10
406.264224
 20
633.104581
 11
405.581007
 21
629.435018
  0
LINE
  8
CSLAYER1
  6
CONTINUOUS
 62
     7
 10
405.581007
 20
629.435018
 11
405.352689
 21
625.737313
  0
LINE
  8
CSLAYER1
  6
CONTINUOUS
 62
     7
 10
527.352689
 20
542.061290
 11
527.116761
 21
545.882251
  0
LINE
  8
CSLAYER1
  6
CONTINUOUS
 62
     7
 10
527.116761
 20
545.882251
 11
526.410770
 21
549.674133
  0
LINE
  8
CSLAYER1
  6
CONTINUOUS
 62
     7
 10
526.410770
 20
549.674133
 11
525.240091
 21
553.408077
  0
LINE
  8
CSLAYER1
  6
CONTINUOUS
 62
     7
 10
525.240091
 20
553.408077
 11
523.613632
 21
557.055665
  0
LINE
  8
CSLAYER1
  6
CONTINUOUS
 62
     7
 10
523.613632
 20
557.055665
 11
521.543772
 21
560.589136
  0
LINE
  8
CSLAYER1
  6
CONTINUOUS
 62
     7
 10
521.543772
 20
560.589136
 11
519.046264
 21
563.981600
  0
LINE
  8
CSLAYER1
  6
CONTINUOUS
 62
     7
 10
519.046264
 20
563.981600
 11
516.140116
 21
567.207236
  0
LINE
  8
CSLAYER1
  6
CONTINUOUS
 62
     7
 10
516.140116
 20
567.207236
 11
512.847445
 21
570.241497
  0
LINE
  8
CSLAYER1
  6
CONTINUOUS
 62
     7
 10
512.847445
 20
570.241497
 11
509.193310
 21
573.061290
  0
LINE
  8
CSLAYER1
  6
CONTINUOUS
 62
     7
 10
509.193310
 20
573.061290
 11
505.205521
 21
575.645153
  0
LINE
  8
CSLAYER1
  6
CONTINUOUS
 62
     7
 10
505.205521
 20
575.645153
 11
500.914428
 21
577.973423
  0
LINE
  8
CSLAYER1
  6
CONTINUOUS
 62
     7
 10
500.914428
 20
577.973423
 11
496.352689
 21
580.028381
  0
LINE
  8
CSLAYER1
  6
CONTINUOUS
 62
     7
 10
496.352689
 20
580.028381
 11
491.555022
 21
581.794385
  0
LINE
  8
CSLAYER1
  6
CONTINUOUS
 62
     7
 10
491.555022
 20
581.794385
 11
486.557938
 21
583.257997
  0
LINE
  8
CSLAYER1
  6
CONTINUOUS
 62
     7
 10
486.557938
 20
583.257997
 11
481.399470
 21
584.408077
  0
LINE
  8
CSLAYER1
  6
CONTINUOUS
 62
     7
 10
481.399470
 20
584.408077
 11
476.118876
 21
585.235873
  0
LINE
  8
CSLAYER1
  6
CONTINUOUS
 62
     7
 10
476.118876
 20
585.235873
 11
470.756345
 21
585.735083
  0
LINE
  8
CSLAYER1
  6
CONTINUOUS
 62
     7
 10
470.756345
 20
585.735083
 11
465.352689
 21
585.901910
  0
LINE
  8
CSLAYER1
  6
CONTINUOUS
 62
     7
 10
465.352689
 20
585.901910
 11
459.949033
 21
585.735083
  0
LINE
  8
CSLAYER1
  6
CONTINUOUS
 62
     7
 10
459.949033
 20
585.735083
 11
454.586502
 21
585.235873
  0
LINE
  8
CSLAYER1
  6
CONTINUOUS
 62
     7
 10
454.586502
 20
585.235873
 11
449.305909
 21
584.408077
  0
LINE
  8
CSLAYER1
  6
CONTINUOUS
 62
     7
 10
449.305909
 20
584.408077
 11
444.147440
 21
583.257997
  0
LINE
  8
CSLAYER1
  6
CONTINUOUS
 62
     7
 10
444.147440
 20
583.257997
 11
439.150357
 21
581.794385
  0
LINE
  8
CSLAYER1
  6
CONTINUOUS
 62
     7
 10
439.150357
 20
581.794385
 11
434.352689
 21
580.028381
  0
LINE
  8
CSLAYER1
  6
CONTINUOUS
 62
     7
 10
434.352689
 20
580.028381
 11
429.790950
 21
577.973423
  0
LINE
  8
CSLAYER1
  6
CONTINUOUS
 62
     7
 10
429.790950
 20
577.973423
 11
425.499858
 21
575.645153
  0
LINE
  8
CSLAYER1
  6
CONTINUOUS
 62
     7
 10
425.499858
 20
575.645153
 11
421.512069
 21
573.061290
  0
LINE
  8
CSLAYER1
  6
CONTINUOUS
 62
     7
 10
421.512069
 20
573.061290
 11
417.857934
 21
570.241497
  0
LINE
  8
CSLAYER1
  6
CONTINUOUS
 62
     7
 10
417.857934
 20
570.241497
 11
414.565263
 21
567.207236
  0
LINE
  8
CSLAYER1
  6
CONTINUOUS
 62
     7
 10
414.565263
 20
567.207236
 11
411.659114
 21
563.981600
  0
LINE
  8
CSLAYER1
  6
CONTINUOUS
 62
     7
 10
411.659114
 20
563.981600
 11
409.161607
 21
560.589136
  0
LINE
  8
CSLAYER1
  6
CONTINUOUS
 62
     7
 10
409.161607
 20
560.589136
 11
407.091747
 21
557.055665
  0
LINE
  8
CSLAYER1
  6
CONTINUOUS
 62
     7
 10
407.091747
 20
557.055665
 11
405.465288
 21
553.408077
  0
LINE
  8
CSLAYER1
  6
CONTINUOUS
 62
     7
 10
405.465288
 20
553.408077
 11
404.294609
 21
549.674133
  0
LINE
  8
CSLAYER1
  6
CONTINUOUS
 62
     7
 10
404.294609
 20
549.674133
 11
403.588618
 21
545.882251
  0
LINE
  8
CSLAYER1
  6
CONTINUOUS
 62
     7
 10
403.588618
 20
545.882251
 11
403.352689
 21
542.061290
  0
LINE
  8
CSLAYER1
  6
CONTINUOUS
 62
     7
 10
514.352689
 20
690.045067
 11
514.216393
 21
690.777118
  0
LINE
  8
CSLAYER1
  6
CONTINUOUS
 62
     7
 10
514.216393
 20
690.777118
 11
513.816791
 21
691.459281
  0
LINE
  8
CSLAYER1
  6
CONTINUOUS
 62
     7
 10
513.816791
 20
691.459281
 11
513.181116
 21
692.045067
  0
LINE
  8
CSLAYER1
  6
CONTINUOUS
 62
     7
 10
513.181116
 20
692.045067
 11
512.352689
 21
692.494557
  0
LINE
  8
CSLAYER1
  6
CONTINUOUS
 62
     7
 10
512.352689
 20
692.494557
 11
511.387965
 21
692.777118
  0
LINE
  8
CSLAYER1
  6
CONTINUOUS
 62
     7
 10
511.387965
 20
692.777118
 11
510.352689
 21
692.873494
  0
LINE
  8
CSLAYER1
  6
CONTINUOUS
 62
     7
 10
510.352689
 20
692.873494
 11
509.317413
 21
692.777118
  0
LINE
  8
CSLAYER1
  6
CONTINUOUS
 62
     7
 10
509.317413
 20
692.777118
 11
508.352689
 21
692.494557
  0
LINE
  8
CSLAYER1
  6
CONTINUOUS
 62
     7
 10
508.352689
 20
692.494557
 11
507.524262
 21
692.045067
  0
LINE
  8
CSLAYER1
  6
CONTINUOUS
 62
     7
 10
507.524262
 20
692.045067
 11
506.888588
 21
691.459281
  0
LINE
  8
CSLAYER1
  6
CONTINUOUS
 62
     7
 10
506.888588
 20
691.459281
 11
506.488986
 21
690.777118
  0
LINE
  8
CSLAYER1
  6
CONTINUOUS
 62
     7
 10
506.488986
 20
690.777118
 11
506.352689
 21
690.045067
  0
LINE
  8
CSLAYER1
  6
CONTINUOUS
 62
     7
 10
506.352689
 20
690.045067
 11
506.488986
 21
689.313016
  0
LINE
  8
CSLAYER1
  6
CONTINUOUS
 62
     7
 10
506.488986
 20
689.313016
 11
506.888588
 21
688.630854
  0
LINE
  8
CSLAYER1
  6
CONTINUOUS
 62
     7
 10
506.888588
 20
688.630854
 11
507.524262
 21
688.045067
  0
LINE
  8
CSLAYER1
  6
CONTINUOUS
 62
     7
 10
507.524262
 20
688.045067
 11
508.352689
 21
687.595577
  0
LINE
  8
CSLAYER1
  6
CONTINUOUS
 62
     7
 10
508.352689
 20
687.595577
 11
509.317413
 21
687.313016
  0
LINE
  8
CSLAYER1
  6
CONTINUOUS
 62
     7
 10
510.352689
 20
687.216640
 11
511.655051
 21
687.325464
  0
LINE
  8
CSLAYER1
  6
CONTINUOUS
 62
     7
 10
511.387965
 20
687.313016
 11
512.352689
 21
687.595577
  0
LINE
  8
CSLAYER1
  6
CONTINUOUS
 62
     7
 10
512.352689
 20
687.595577
 11
513.181116
 21
688.045067
  0
LINE
  8
CSLAYER1
  6
CONTINUOUS
 62
     7
 10
513.181116
 20
688.045067
 11
513.816791
 21
688.630854
  0
LINE
  8
CSLAYER1
  6
CONTINUOUS
 62
     7
 10
513.816791
 20
688.630854
 11
514.216393
 21
689.313016
  0
LINE
  8
CSLAYER1
  6
CONTINUOUS
 62
     7
 10
514.216393
 20
689.313016
 11
514.352689
 21
690.045067
  0
LINE
  8
CSLAYER1
  6
CONTINUOUS
 62
     7
 10
517.852689
 20
692.548196
 11
517.738747
 21
693.469105
  0
LINE
  8
CSLAYER1
  6
CONTINUOUS
 62
     7
 10
517.738747
 20
693.469105
 11
517.400384
 21
694.362032
  0
LINE
  8
CSLAYER1
  6
CONTINUOUS
 62
     7
 10
517.400384
 20
694.362032
 11
516.847880
 21
695.199847
  0
LINE
  8
CSLAYER1
  6
CONTINUOUS
 62
     7
 10
516.847880
 20
695.199847
 11
516.098023
 21
695.957092
  0
LINE
  8
CSLAYER1
  6
CONTINUOUS
 62
     7
 10
516.098023
 20
695.957092
 11
515.173596
 21
696.610760
  0
LINE
  8
CSLAYER1
  6
CONTINUOUS
 62
     7
 10
515.173596
 20
696.610760
 11
514.102689
 21
697.140989
  0
LINE
  8
CSLAYER1
  6
CONTINUOUS
 62
     7
 10
514.102689
 20
697.140989
 11
512.917840
 21
697.531669
  0
LINE
  8
CSLAYER1
  6
CONTINUOUS
 62
     7
 10
512.917840
 20
697.531669
 11
511.655051
 21
697.770928
  0
LINE
  8
CSLAYER1
  6
CONTINUOUS
 62
     7
 10
511.655051
 20
697.770928
 11
510.352689
 21
697.851497
  0
LINE
  8
CSLAYER1
  6
CONTINUOUS
 62
     7
 10
510.352689
 20
697.851497
 11
509.050328
 21
697.770928
  0
LINE
  8
CSLAYER1
  6
CONTINUOUS
 62
     7
 10
509.050328
 20
697.770928
 11
507.787538
 21
697.531669
  0
LINE
  8
CSLAYER1
  6
CONTINUOUS
 62
     7
 10
507.787538
 20
697.531669
 11
506.602689
 21
697.140989
  0
LINE
  8
CSLAYER1
  6
CONTINUOUS
 62
     7
 10
506.602689
 20
697.140989
 11
505.531782
 21
696.610760
  0
LINE
  8
CSLAYER1
  6
CONTINUOUS
 62
     7
 10
505.531782
 20
696.610760
 11
504.607356
 21
695.957092
  0
LINE
  8
CSLAYER1
  6
CONTINUOUS
 62
     7
 10
504.607356
 20
695.957092
 11
503.857499
 21
695.199847
  0
LINE
  8
CSLAYER1
  6
CONTINUOUS
 62
     7
 10
503.857499
 20
695.199847
 11
503.304995
 21
694.362032
  0
LINE
  8
CSLAYER1
  6
CONTINUOUS
 62
     7
 10
503.304995
 20
694.362032
 11
502.966631
 21
693.469105
  0
LINE
  8
CSLAYER1
  6
CONTINUOUS
 62
     7
 10
502.966631
 20
693.469105
 11
502.852689
 21
692.548196
  0
LINE
  8
CSLAYER1
  6
CONTINUOUS
 62
     7
 10
502.852689
 20
692.548196
 11
502.966631
 21
691.627288
  0
LINE
  8
CSLAYER1
  6
CONTINUOUS
 62
     7
 10
502.966631
 20
691.627288
 11
503.304995
 21
690.734360
  0
LINE
  8
CSLAYER1
  6
CONTINUOUS
 62
     7
 10
503.304995
 20
690.734360
 11
503.857499
 21
689.896546
  0
LINE
  8
CSLAYER1
  6
CONTINUOUS
 62
     7
 10
503.857499
 20
689.896546
 11
504.607356
 21
689.139300
  0
LINE
  8
CSLAYER1
  6
CONTINUOUS
 62
     7
 10
504.607356
 20
689.139300
 11
505.531782
 21
688.485632
  0
LINE
  8
CSLAYER1
  6
CONTINUOUS
 62
     7
 10
505.531782
 20
688.485632
 11
506.602689
 21
687.955403
  0
LINE
  8
CSLAYER1
  6
CONTINUOUS
 62
     7
 10
506.602689
 20
687.955403
 11
507.787538
 21
687.564723
  0
LINE
  8
CSLAYER1
  6
CONTINUOUS
 62
     7
 10
507.787538
 20
687.564723
 11
509.050328
 21
687.325464
  0
LINE
  8
CSLAYER1
  6
CONTINUOUS
 62
     7
 10
510.352689
 20
687.216640
 11
509.050328
 21
687.325464
  0
LINE
  8
CSLAYER1
  6
CONTINUOUS
 62
     7
 10
511.655051
 20
687.325464
 11
512.917840
 21
687.564723
  0
LINE
  8
CSLAYER1
  6
CONTINUOUS
 62
     7
 10
512.917840
 20
687.564723
 11
514.102689
 21
687.955403
  0
LINE
  8
CSLAYER1
  6
CONTINUOUS
 62
     7
 10
514.102689
 20
687.955403
 11
515.173596
 21
688.485632
  0
LINE
  8
CSLAYER1
  6
CONTINUOUS
 62
     7
 10
515.173596
 20
688.485632
 11
516.098023
 21
689.139300
  0
LINE
  8
CSLAYER1
  6
CONTINUOUS
 62
     7
 10
516.098023
 20
689.139300
 11
516.847880
 21
689.896546
  0
LINE
  8
CSLAYER1
  6
CONTINUOUS
 62
     7
 10
516.847880
 20
689.896546
 11
517.400384
 21
690.734360
  0
LINE
  8
CSLAYER1
  6
CONTINUOUS
 62
     7
 10
517.400384
 20
690.734360
 11
517.738747
 21
691.627288
  0
LINE
  8
CSLAYER1
  6
CONTINUOUS
 62
     7
 10
517.738747
 20
691.627288
 11
517.852689
 21
692.548196
  0
LINE
  8
CSLAYER1
  6
CONTINUOUS
 62
     7
 10
517.852689
 20
698.627223
 11
517.852689
 21
692.548196
  0
LINE
  8
CSLAYER1
  6
CONTINUOUS
 62
     7
 10
514.352689
 20
692.548196
 11
514.352689
 21
690.045067
  0
LINE
  8
CSLAYER1
  6
CONTINUOUS
 62
     7
 10
517.852689
 20
698.627223
 11
517.738747
 21
699.548132
  0
LINE
  8
CSLAYER1
  6
CONTINUOUS
 62
     7
 10
517.738747
 20
699.548132
 11
517.400384
 21
700.441059
  0
LINE
  8
CSLAYER1
  6
CONTINUOUS
 62
     7
 10
517.400384
 20
700.441059
 11
516.847880
 21
701.278874
  0
LINE
  8
CSLAYER1
  6
CONTINUOUS
 62
     7
 10
516.847880
 20
701.278874
 11
516.098023
 21
702.036120
  0
LINE
  8
CSLAYER1
  6
CONTINUOUS
 62
     7
 10
516.098023
 20
702.036120
 11
515.173596
 21
702.689788
  0
LINE
  8
CSLAYER1
  6
CONTINUOUS
 62
     7
 10
515.173596
 20
702.689788
 11
514.102689
 21
703.220017
  0
LINE
  8
CSLAYER1
  6
CONTINUOUS
 62
     7
 10
514.102689
 20
703.220017
 11
512.917840
 21
703.610696
  0
LINE
  8
CSLAYER1
  6
CONTINUOUS
 62
     7
 10
512.917840
 20
703.610696
 11
511.655051
 21
703.849955
  0
LINE
  8
CSLAYER1
  6
CONTINUOUS
 62
     7
 10
511.655051
 20
703.849955
 11
510.352689
 21
703.930524
  0
LINE
  8
CSLAYER1
  6
CONTINUOUS
 62
     7
 10
510.352689
 20
703.930524
 11
509.050328
 21
703.849955
  0
LINE
  8
CSLAYER1
  6
CONTINUOUS
 62
     7
 10
509.050328
 20
703.849955
 11
507.787538
 21
703.610696
  0
LINE
  8
CSLAYER1
  6
CONTINUOUS
 62
     7
 10
507.787538
 20
703.610696
 11
506.602689
 21
703.220017
  0
LINE
  8
CSLAYER1
  6
CONTINUOUS
 62
     7
 10
506.602689
 20
703.220017
 11
505.531782
 21
702.689788
  0
LINE
  8
CSLAYER1
  6
CONTINUOUS
 62
     7
 10
505.531782
 20
702.689788
 11
504.607356
 21
702.036120
  0
LINE
  8
CSLAYER1
  6
CONTINUOUS
 62
     7
 10
504.607356
 20
702.036120
 11
503.857499
 21
701.278874
  0
LINE
  8
CSLAYER1
  6
CONTINUOUS
 62
     7
 10
503.857499
 20
701.278874
 11
503.304995
 21
700.441059
  0
LINE
  8
CSLAYER1
  6
CONTINUOUS
 62
     7
 10
503.304995
 20
700.441059
 11
502.966631
 21
699.548132
  0
LINE
  8
CSLAYER1
  6
CONTINUOUS
 62
     7
 10
502.966631
 20
699.548132
 11
502.852689
 21
698.627223
  0
LINE
  8
CSLAYER1
  6
CONTINUOUS
 62
     7
 10
514.352689
 20
692.548196
 11
514.216393
 21
693.280247
  0
LINE
  8
CSLAYER1
  6
CONTINUOUS
 62
     7
 10
514.216393
 20
693.280247
 11
513.816791
 21
693.962410
  0
LINE
  8
CSLAYER1
  6
CONTINUOUS
 62
     7
 10
513.816791
 20
693.962410
 11
513.181116
 21
694.548196
  0
LINE
  8
CSLAYER1
  6
CONTINUOUS
 62
     7
 10
513.181116
 20
694.548196
 11
512.352689
 21
694.997686
  0
LINE
  8
CSLAYER1
  6
CONTINUOUS
 62
     7
 10
512.352689
 20
694.997686
 11
511.387965
 21
695.280247
  0
LINE
  8
CSLAYER1
  6
CONTINUOUS
 62
     7
 10
511.387965
 20
695.280247
 11
510.352689
 21
695.376623
  0
LINE
  8
CSLAYER1
  6
CONTINUOUS
 62
     7
 10
510.352689
 20
695.376623
 11
509.317413
 21
695.280247
  0
LINE
  8
CSLAYER1
  6
CONTINUOUS
 62
     7
 10
509.317413
 20
695.280247
 11
508.352689
 21
694.997686
  0
LINE
  8
CSLAYER1
  6
CONTINUOUS
 62
     7
 10
508.352689
 20
694.997686
 11
507.524262
 21
694.548196
  0
LINE
  8
CSLAYER1
  6
CONTINUOUS
 62
     7
 10
507.524262
 20
694.548196
 11
506.888588
 21
693.962410
  0
LINE
  8
CSLAYER1
  6
CONTINUOUS
 62
     7
 10
506.888588
 20
693.962410
 11
506.488986
 21
693.280247
  0
LINE
  8
CSLAYER1
  6
CONTINUOUS
 62
     7
 10
506.488986
 20
693.280247
 11
506.352689
 21
692.548196
  0
LINE
  8
CSLAYER1
  6
CONTINUOUS
 62
     7
 10
514.125928
 20
703.209548
 11
514.125928
 21
697.132435
  0
LINE
  8
CSLAYER1
  6
CONTINUOUS
 62
     7
 10
506.579451
 20
703.209548
 11
506.579451
 21
697.132435
  0
LINE
  8
CSLAYER1
  6
CONTINUOUS
 62
     7
 10
502.852689
 20
698.627223
 11
502.852689
 21
692.548196
  0
LINE
  8
CSLAYER1
  6
CONTINUOUS
 62
     7
 10
506.352689
 20
692.548196
 11
506.352689
 21
690.045067
  0
LINE
  8
CSLAYER1
  6
CONTINUOUS
 62
     7
 10
416.352689
 20
690.045067
 11
416.488986
 21
690.777118
  0
LINE
  8
CSLAYER1
  6
CONTINUOUS
 62
     7
 10
416.488986
 20
690.777118
 11
416.888588
 21
691.459281
  0
LINE
  8
CSLAYER1
  6
CONTINUOUS
 62
     7
 10
416.888588
 20
691.459281
 11
417.524262
 21
692.045067
  0
LINE
  8
CSLAYER1
  6
CONTINUOUS
 62
     7
 10
417.524262
 20
692.045067
 11
418.352689
 21
692.494557
  0
LINE
  8
CSLAYER1
  6
CONTINUOUS
 62
     7
 10
418.352689
 20
692.494557
 11
419.317413
 21
692.777118
  0
LINE
  8
CSLAYER1
  6
CONTINUOUS
 62
     7
 10
419.317413
 20
692.777118
 11
420.352689
 21
692.873494
  0
LINE
  8
CSLAYER1
  6
CONTINUOUS
 62
     7
 10
420.352689
 20
692.873494
 11
421.387965
 21
692.777118
  0
LINE
  8
CSLAYER1
  6
CONTINUOUS
 62
     7
 10
421.387965
 20
692.777118
 11
422.352689
 21
692.494557
  0
LINE
  8
CSLAYER1
  6
CONTINUOUS
 62
     7
 10
422.352689
 20
692.494557
 11
423.181116
 21
692.045067
  0
LINE
  8
CSLAYER1
  6
CONTINUOUS
 62
     7
 10
423.181116
 20
692.045067
 11
423.816791
 21
691.459281
  0
LINE
  8
CSLAYER1
  6
CONTINUOUS
 62
     7
 10
423.816791
 20
691.459281
 11
424.216393
 21
690.777118
  0
LINE
  8
CSLAYER1
  6
CONTINUOUS
 62
     7
 10
424.216393
 20
690.777118
 11
424.352689
 21
690.045067
  0
LINE
  8
CSLAYER1
  6
CONTINUOUS
 62
     7
 10
424.352689
 20
690.045067
 11
424.216393
 21
689.313016
  0
LINE
  8
CSLAYER1
  6
CONTINUOUS
 62
     7
 10
424.216393
 20
689.313016
 11
423.816791
 21
688.630854
  0
LINE
  8
CSLAYER1
  6
CONTINUOUS
 62
     7
 10
423.816791
 20
688.630854
 11
423.181116
 21
688.045067
  0
LINE
  8
CSLAYER1
  6
CONTINUOUS
 62
     7
 10
423.181116
 20
688.045067
 11
422.352689
 21
687.595577
  0
LINE
  8
CSLAYER1
  6
CONTINUOUS
 62
     7
 10
422.352689
 20
687.595577
 11
421.387965
 21
687.313016
  0
LINE
  8
CSLAYER1
  6
CONTINUOUS
 62
     7
 10
420.352689
 20
687.216640
 11
419.050328
 21
687.325464
  0
LINE
  8
CSLAYER1
  6
CONTINUOUS
 62
     7
 10
419.317413
 20
687.313016
 11
418.352689
 21
687.595577
  0
LINE
  8
CSLAYER1
  6
CONTINUOUS
 62
     7
 10
418.352689
 20
687.595577
 11
417.524262
 21
688.045067
  0
LINE
  8
CSLAYER1
  6
CONTINUOUS
 62
     7
 10
417.524262
 20
688.045067
 11
416.888588
 21
688.630854
  0
LINE
  8
CSLAYER1
  6
CONTINUOUS
 62
     7
 10
416.888588
 20
688.630854
 11
416.488986
 21
689.313016
  0
LINE
  8
CSLAYER1
  6
CONTINUOUS
 62
     7
 10
416.488986
 20
689.313016
 11
416.352689
 21
690.045067
  0
LINE
  8
CSLAYER1
  6
CONTINUOUS
 62
     7
 10
412.852689
 20
692.548196
 11
412.966631
 21
693.469105
  0
LINE
  8
CSLAYER1
  6
CONTINUOUS
 62
     7
 10
412.966631
 20
693.469105
 11
413.304995
 21
694.362032
  0
LINE
  8
CSLAYER1
  6
CONTINUOUS
 62
     7
 10
413.304995
 20
694.362032
 11
413.857499
 21
695.199847
  0
LINE
  8
CSLAYER1
  6
CONTINUOUS
 62
     7
 10
413.857499
 20
695.199847
 11
414.607356
 21
695.957092
  0
LINE
  8
CSLAYER1
  6
CONTINUOUS
 62
     7
 10
414.607356
 20
695.957092
 11
415.531782
 21
696.610760
  0
LINE
  8
CSLAYER1
  6
CONTINUOUS
 62
     7
 10
415.531782
 20
696.610760
 11
416.602689
 21
697.140989
  0
LINE
  8
CSLAYER1
  6
CONTINUOUS
 62
     7
 10
416.602689
 20
697.140989
 11
417.787538
 21
697.531669
  0
LINE
  8
CSLAYER1
  6
CONTINUOUS
 62
     7
 10
417.787538
 20
697.531669
 11
419.050328
 21
697.770928
  0
LINE
  8
CSLAYER1
  6
CONTINUOUS
 62
     7
 10
419.050328
 20
697.770928
 11
420.352689
 21
697.851497
  0
LINE
  8
CSLAYER1
  6
CONTINUOUS
 62
     7
 10
420.352689
 20
697.851497
 11
421.655051
 21
697.770928
  0
LINE
  8
CSLAYER1
  6
CONTINUOUS
 62
     7
 10
421.655051
 20
697.770928
 11
422.917840
 21
697.531669
  0
LINE
  8
CSLAYER1
  6
CONTINUOUS
 62
     7
 10
422.917840
 20
697.531669
 11
424.102689
 21
697.140989
  0
LINE
  8
CSLAYER1
  6
CONTINUOUS
 62
     7
 10
424.102689
 20
697.140989
 11
425.173596
 21
696.610760
  0
LINE
  8
CSLAYER1
  6
CONTINUOUS
 62
     7
 10
425.173596
 20
696.610760
 11
426.098023
 21
695.957092
  0
LINE
  8
CSLAYER1
  6
CONTINUOUS
 62
     7
 10
426.098023
 20
695.957092
 11
426.847880
 21
695.199847
  0
LINE
  8
CSLAYER1
  6
CONTINUOUS
 62
     7
 10
426.847880
 20
695.199847
 11
427.400384
 21
694.362032
  0
LINE
  8
CSLAYER1
  6
CONTINUOUS
 62
     7
 10
427.400384
 20
694.362032
 11
427.738747
 21
693.469105
  0
LINE
  8
CSLAYER1
  6
CONTINUOUS
 62
     7
 10
427.738747
 20
693.469105
 11
427.852689
 21
692.548196
  0
LINE
  8
CSLAYER1
  6
CONTINUOUS
 62
     7
 10
427.852689
 20
692.548196
 11
427.738747
 21
691.627288
  0
LINE
  8
CSLAYER1
  6
CONTINUOUS
 62
     7
 10
427.738747
 20
691.627288
 11
427.400384
 21
690.734360
  0
LINE
  8
CSLAYER1
  6
CONTINUOUS
 62
     7
 10
427.400384
 20
690.734360
 11
426.847880
 21
689.896546
  0
LINE
  8
CSLAYER1
  6
CONTINUOUS
 62
     7
 10
426.847880
 20
689.896546
 11
426.098023
 21
689.139300
  0
LINE
  8
CSLAYER1
  6
CONTINUOUS
 62
     7
 10
426.098023
 20
689.139300
 11
425.173596
 21
688.485632
  0
LINE
  8
CSLAYER1
  6
CONTINUOUS
 62
     7
 10
425.173596
 20
688.485632
 11
424.102689
 21
687.955403
  0
LINE
  8
CSLAYER1
  6
CONTINUOUS
 62
     7
 10
424.102689
 20
687.955403
 11
422.917840
 21
687.564723
  0
LINE
  8
CSLAYER1
  6
CONTINUOUS
 62
     7
 10
422.917840
 20
687.564723
 11
421.655051
 21
687.325464
  0
LINE
  8
CSLAYER1
  6
CONTINUOUS
 62
     7
 10
420.352689
 20
687.216640
 11
421.655051
 21
687.325464
  0
LINE
  8
CSLAYER1
  6
CONTINUOUS
 62
     7
 10
419.050328
 20
687.325464
 11
417.787538
 21
687.564723
  0
LINE
  8
CSLAYER1
  6
CONTINUOUS
 62
     7
 10
417.787538
 20
687.564723
 11
416.602689
 21
687.955403
  0
LINE
  8
CSLAYER1
  6
CONTINUOUS
 62
     7
 10
416.602689
 20
687.955403
 11
415.531782
 21
688.485632
  0
LINE
  8
CSLAYER1
  6
CONTINUOUS
 62
     7
 10
415.531782
 20
688.485632
 11
414.607356
 21
689.139300
  0
LINE
  8
CSLAYER1
  6
CONTINUOUS
 62
     7
 10
414.607356
 20
689.139300
 11
413.857499
 21
689.896546
  0
LINE
  8
CSLAYER1
  6
CONTINUOUS
 62
     7
 10
413.857499
 20
689.896546
 11
413.304995
 21
690.734360
  0
LINE
  8
CSLAYER1
  6
CONTINUOUS
 62
     7
 10
413.304995
 20
690.734360
 11
412.966631
 21
691.627288
  0
LINE
  8
CSLAYER1
  6
CONTINUOUS
 62
     7
 10
412.966631
 20
691.627288
 11
412.852689
 21
692.548196
  0
LINE
  8
CSLAYER1
  6
CONTINUOUS
 62
     7
 10
412.852689
 20
698.627223
 11
412.852689
 21
692.548196
  0
LINE
  8
CSLAYER1
  6
CONTINUOUS
 62
     7
 10
416.352689
 20
692.548196
 11
416.352689
 21
690.045067
  0
LINE
  8
CSLAYER1
  6
CONTINUOUS
 62
     7
 10
412.852689
 20
698.627223
 11
412.966631
 21
699.548132
  0
LINE
  8
CSLAYER1
  6
CONTINUOUS
 62
     7
 10
412.966631
 20
699.548132
 11
413.304995
 21
700.441059
  0
LINE
  8
CSLAYER1
  6
CONTINUOUS
 62
     7
 10
413.304995
 20
700.441059
 11
413.857499
 21
701.278874
  0
LINE
  8
CSLAYER1
  6
CONTINUOUS
 62
     7
 10
413.857499
 20
701.278874
 11
414.607356
 21
702.036120
  0
LINE
  8
CSLAYER1
  6
CONTINUOUS
 62
     7
 10
414.607356
 20
702.036120
 11
415.531782
 21
702.689788
  0
LINE
  8
CSLAYER1
  6
CONTINUOUS
 62
     7
 10
415.531782
 20
702.689788
 11
416.602689
 21
703.220017
  0
LINE
  8
CSLAYER1
  6
CONTINUOUS
 62
     7
 10
416.602689
 20
703.220017
 11
417.787538
 21
703.610696
  0
LINE
  8
CSLAYER1
  6
CONTINUOUS
 62
     7
 10
417.787538
 20
703.610696
 11
419.050328
 21
703.849955
  0
LINE
  8
CSLAYER1
  6
CONTINUOUS
 62
     7
 10
419.050328
 20
703.849955
 11
420.352689
 21
703.930524
  0
LINE
  8
CSLAYER1
  6
CONTINUOUS
 62
     7
 10
420.352689
 20
703.930524
 11
421.655051
 21
703.849955
  0
LINE
  8
CSLAYER1
  6
CONTINUOUS
 62
     7
 10
421.655051
 20
703.849955
 11
422.917840
 21
703.610696
  0
LINE
  8
CSLAYER1
  6
CONTINUOUS
 62
     7
 10
422.917840
 20
703.610696
 11
424.102689
 21
703.220017
  0
LINE
  8
CSLAYER1
  6
CONTINUOUS
 62
     7
 10
424.102689
 20
703.220017
 11
425.173596
 21
702.689788
  0
LINE
  8
CSLAYER1
  6
CONTINUOUS
 62
     7
 10
425.173596
 20
702.689788
 11
426.098023
 21
702.036120
  0
LINE
  8
CSLAYER1
  6
CONTINUOUS
 62
     7
 10
426.098023
 20
702.036120
 11
426.847880
 21
701.278874
  0
LINE
  8
CSLAYER1
  6
CONTINUOUS
 62
     7
 10
426.847880
 20
701.278874
 11
427.400384
 21
700.441059
  0
LINE
  8
CSLAYER1
  6
CONTINUOUS
 62
     7
 10
427.400384
 20
700.441059
 11
427.738747
 21
699.548132
  0
LINE
  8
CSLAYER1
  6
CONTINUOUS
 62
     7
 10
427.738747
 20
699.548132
 11
427.852689
 21
698.627223
  0
LINE
  8
CSLAYER1
  6
CONTINUOUS
 62
     7
 10
416.352689
 20
692.548196
 11
416.488986
 21
693.280247
  0
LINE
  8
CSLAYER1
  6
CONTINUOUS
 62
     7
 10
416.488986
 20
693.280247
 11
416.888588
 21
693.962410
  0
LINE
  8
CSLAYER1
  6
CONTINUOUS
 62
     7
 10
416.888588
 20
693.962410
 11
417.524262
 21
694.548196
  0
LINE
  8
CSLAYER1
  6
CONTINUOUS
 62
     7
 10
417.524262
 20
694.548196
 11
418.352689
 21
694.997686
  0
LINE
  8
CSLAYER1
  6
CONTINUOUS
 62
     7
 10
418.352689
 20
694.997686
 11
419.317413
 21
695.280247
  0
LINE
  8
CSLAYER1
  6
CONTINUOUS
 62
     7
 10
419.317413
 20
695.280247
 11
420.352689
 21
695.376623
  0
LINE
  8
CSLAYER1
  6
CONTINUOUS
 62
     7
 10
420.352689
 20
695.376623
 11
421.387965
 21
695.280247
  0
LINE
  8
CSLAYER1
  6
CONTINUOUS
 62
     7
 10
421.387965
 20
695.280247
 11
422.352689
 21
694.997686
  0
LINE
  8
CSLAYER1
  6
CONTINUOUS
 62
     7
 10
422.352689
 20
694.997686
 11
423.181116
 21
694.548196
  0
LINE
  8
CSLAYER1
  6
CONTINUOUS
 62
     7
 10
423.181116
 20
694.548196
 11
423.816791
 21
693.962410
  0
LINE
  8
CSLAYER1
  6
CONTINUOUS
 62
     7
 10
423.816791
 20
693.962410
 11
424.216393
 21
693.280247
  0
LINE
  8
CSLAYER1
  6
CONTINUOUS
 62
     7
 10
424.216393
 20
693.280247
 11
424.352689
 21
692.548196
  0
LINE
  8
CSLAYER1
  6
CONTINUOUS
 62
     7
 10
416.579451
 20
703.209548
 11
416.579451
 21
697.132435
  0
LINE
  8
CSLAYER1
  6
CONTINUOUS
 62
     7
 10
424.125928
 20
703.209548
 11
424.125928
 21
697.132435
  0
LINE
  8
CSLAYER1
  6
CONTINUOUS
 62
     7
 10
427.852689
 20
698.627223
 11
427.852689
 21
692.548196
  0
LINE
  8
CSLAYER1
  6
CONTINUOUS
 62
     7
 10
424.352689
 20
692.548196
 11
424.352689
 21
690.045067
  0
LINE
  8
CSLAYER1
  6
CONTINUOUS
 62
     7
 10
486.702689
 20
984.042337
 11
486.702689
 21
910.594427
  0
LINE
  8
CSLAYER1
  6
CONTINUOUS
 62
     7
 10
503.502689
 20
888.208259
 11
503.502689
 21
742.369431
  0
LINE
  8
CSLAYER1
  6
CONTINUOUS
 62
     7
 10
486.702689
 20
982.726570
 11
486.621446
 21
984.042337
  0
LINE
  8
CSLAYER1
  6
CONTINUOUS
 62
     7
 10
486.621446
 20
984.042337
 11
486.378335
 21
985.348090
  0
LINE
  8
CSLAYER1
  6
CONTINUOUS
 62
     7
 10
486.378335
 20
985.348090
 11
485.975206
 21
986.633891
  0
LINE
  8
CSLAYER1
  6
CONTINUOUS
 62
     7
 10
485.975206
 20
986.633891
 11
485.415127
 21
987.889956
  0
LINE
  8
CSLAYER1
  6
CONTINUOUS
 62
     7
 10
485.415127
 20
987.889956
 11
484.702361
 21
989.106724
  0
LINE
  8
CSLAYER1
  6
CONTINUOUS
 62
     7
 10
484.702361
 20
989.106724
 11
483.842332
 21
990.274935
  0
LINE
  8
CSLAYER1
  6
CONTINUOUS
 62
     7
 10
483.842332
 20
990.274935
 11
482.841585
 21
991.385698
  0
LINE
  8
CSLAYER1
  6
CONTINUOUS
 62
     7
 10
482.841585
 20
991.385698
 11
481.707738
 21
992.430561
  0
LINE
  8
CSLAYER1
  6
CONTINUOUS
 62
     7
 10
481.707738
 20
992.430561
 11
480.449419
 21
993.401570
  0
LINE
  8
CSLAYER1
  6
CONTINUOUS
 62
     7
 10
480.449419
 20
993.401570
 11
479.076205
 21
994.291336
  0
LINE
  8
CSLAYER1
  6
CONTINUOUS
 62
     7
 10
479.076205
 20
994.291336
 11
477.598546
 21
995.093087
  0
LINE
  8
CSLAYER1
  6
CONTINUOUS
 62
     7
 10
477.598546
 20
995.093087
 11
476.027689
 21
995.800721
  0
LINE
  8
CSLAYER1
  6
CONTINUOUS
 62
     7
 10
476.027689
 20
995.800721
 11
474.375589
 21
996.408854
  0
LINE
  8
CSLAYER1
  6
CONTINUOUS
 62
     7
 10
474.375589
 20
996.408854
 11
472.654819
 21
996.912856
  0
LINE
  8
CSLAYER1
  6
CONTINUOUS
 62
     7
 10
472.654819
 20
996.912856
 11
470.878476
 21
997.308891
  0
LINE
  8
CSLAYER1
  6
CONTINUOUS
 62
     7
 10
470.878476
 20
997.308891
 11
469.060078
 21
997.593947
  0
LINE
  8
CSLAYER1
  6
CONTINUOUS
 62
     7
 10
469.060078
 20
997.593947
 11
467.213464
 21
997.765852
  0
LINE
  8
CSLAYER1
  6
CONTINUOUS
 62
     7
 10
467.213464
 20
997.765852
 11
465.352689
 21
997.823300
  0
LINE
  8
CSLAYER1
  6
CONTINUOUS
 62
     7
 10
465.352689
 20
997.823300
 11
463.491914
 21
997.765852
  0
LINE
  8
CSLAYER1
  6
CONTINUOUS
 62
     7
 10
463.491914
 20
997.765852
 11
461.645301
 21
997.593947
  0
LINE
  8
CSLAYER1
  6
CONTINUOUS
 62
     7
 10
461.645301
 20
997.593947
 11
459.826903
 21
997.308891
  0
LINE
  8
CSLAYER1
  6
CONTINUOUS
 62
     7
 10
459.826903
 20
997.308891
 11
458.050559
 21
996.912856
  0
LINE
  8
CSLAYER1
  6
CONTINUOUS
 62
     7
 10
458.050559
 20
996.912856
 11
456.329789
 21
996.408854
  0
LINE
  8
CSLAYER1
  6
CONTINUOUS
 62
     7
 10
456.329789
 20
996.408854
 11
454.677689
 21
995.800721
  0
LINE
  8
CSLAYER1
  6
CONTINUOUS
 62
     7
 10
454.677689
 20
995.800721
 11
453.106832
 21
995.093087
  0
LINE
  8
CSLAYER1
  6
CONTINUOUS
 62
     7
 10
453.106832
 20
995.093087
 11
451.629174
 21
994.291336
  0
LINE
  8
CSLAYER1
  6
CONTINUOUS
 62
     7
 10
451.629174
 20
994.291336
 11
450.255960
 21
993.401570
  0
LINE
  8
CSLAYER1
  6
CONTINUOUS
 62
     7
 10
450.255960
 20
993.401570
 11
448.997640
 21
992.430561
  0
LINE
  8
CSLAYER1
  6
CONTINUOUS
 62
     7
 10
448.997640
 20
992.430561
 11
447.863793
 21
991.385698
  0
LINE
  8
CSLAYER1
  6
CONTINUOUS
 62
     7
 10
447.863793
 20
991.385698
 11
446.863047
 21
990.274935
  0
LINE
  8
CSLAYER1
  6
CONTINUOUS
 62
     7
 10
446.863047
 20
990.274935
 11
446.003018
 21
989.106724
  0
LINE
  8
CSLAYER1
  6
CONTINUOUS
 62
     7
 10
446.003018
 20
989.106724
 11
445.290252
 21
987.889956
  0
LINE
  8
CSLAYER1
  6
CONTINUOUS
 62
     7
 10
445.290252
 20
987.889956
 11
444.730173
 21
986.633891
  0
LINE
  8
CSLAYER1
  6
CONTINUOUS
 62
     7
 10
444.730173
 20
986.633891
 11
444.327044
 21
985.348090
  0
LINE
  8
CSLAYER1
  6
CONTINUOUS
 62
     7
 10
444.327044
 20
985.348090
 11
444.083933
 21
984.042337
  0
LINE
  8
CSLAYER1
  6
CONTINUOUS
 62
     7
 10
444.083933
 20
984.042337
 11
444.002689
 21
982.726570
  0
LINE
  8
CSLAYER1
  6
CONTINUOUS
 62
     7
 10
503.502689
 20
888.208259
 11
503.357517
 21
890.559383
  0
LINE
  8
CSLAYER1
  6
CONTINUOUS
 62
     7
 10
503.357517
 20
890.559383
 11
502.923105
 21
892.892613
  0
LINE
  8
CSLAYER1
  6
CONTINUOUS
 62
     7
 10
502.923105
 20
892.892613
 11
502.202760
 21
895.190193
  0
LINE
  8
CSLAYER1
  6
CONTINUOUS
 62
     7
 10
502.202760
 20
895.190193
 11
501.201963
 21
897.434636
  0
LINE
  8
CSLAYER1
  6
CONTINUOUS
 62
     7
 10
501.201963
 20
897.434636
 11
499.928331
 21
899.608861
  0
LINE
  8
CSLAYER1
  6
CONTINUOUS
 62
     7
 10
499.928331
 20
899.608861
 11
498.391558
 21
901.696320
  0
LINE
  8
CSLAYER1
  6
CONTINUOUS
 62
     7
 10
498.391558
 20
901.696320
 11
496.603340
 21
903.681127
  0
LINE
  8
CSLAYER1
  6
CONTINUOUS
 62
     7
 10
496.603340
 20
903.681127
 11
494.577285
 21
905.548177
  0
LINE
  8
CSLAYER1
  6
CONTINUOUS
 62
     7
 10
494.577285
 20
905.548177
 11
492.328813
 21
907.283259
  0
LINE
  8
CSLAYER1
  6
CONTINUOUS
 62
     7
 10
492.328813
 20
907.283259
 11
489.875037
 21
908.873168
  0
LINE
  8
CSLAYER1
  6
CONTINUOUS
 62
     7
 10
489.875037
 20
908.873168
 11
487.234630
 21
910.305805
  0
LINE
  8
CSLAYER1
  6
CONTINUOUS
 62
     7
 10
487.234630
 20
910.305805
 11
484.427689
 21
911.570267
  0
LINE
  8
CSLAYER1
  6
CONTINUOUS
 62
     7
 10
484.427689
 20
911.570267
 11
481.475576
 21
912.656929
  0
LINE
  8
CSLAYER1
  6
CONTINUOUS
 62
     7
 10
481.475576
 20
912.656929
 11
478.400758
 21
913.557523
  0
LINE
  8
CSLAYER1
  6
CONTINUOUS
 62
     7
 10
478.400758
 20
913.557523
 11
475.226636
 21
914.265193
  0
LINE
  8
CSLAYER1
  6
CONTINUOUS
 62
     7
 10
475.226636
 20
914.265193
 11
471.977367
 21
914.774554
  0
LINE
  8
CSLAYER1
  6
CONTINUOUS
 62
     7
 10
471.977367
 20
914.774554
 11
468.677681
 21
915.081730
  0
LINE
  8
CSLAYER1
  6
CONTINUOUS
 62
     7
 10
468.677681
 20
915.081730
 11
465.352689
 21
915.184382
  0
LINE
  8
CSLAYER1
  6
CONTINUOUS
 62
     7
 10
465.352689
 20
915.184382
 11
462.027698
 21
915.081730
  0
LINE
  8
CSLAYER1
  6
CONTINUOUS
 62
     7
 10
462.027698
 20
915.081730
 11
458.728011
 21
914.774554
  0
LINE
  8
CSLAYER1
  6
CONTINUOUS
 62
     7
 10
458.728011
 20
914.774554
 11
455.478743
 21
914.265193
  0
LINE
  8
CSLAYER1
  6
CONTINUOUS
 62
     7
 10
455.478743
 20
914.265193
 11
452.304621
 21
913.557523
  0
LINE
  8
CSLAYER1
  6
CONTINUOUS
 62
     7
 10
452.304621
 20
913.557523
 11
449.229803
 21
912.656929
  0
LINE
  8
CSLAYER1
  6
CONTINUOUS
 62
     7
 10
449.229803
 20
912.656929
 11
446.277689
 21
911.570267
  0
LINE
  8
CSLAYER1
  6
CONTINUOUS
 62
     7
 10
446.277689
 20
911.570267
 11
443.470748
 21
910.305805
  0
LINE
  8
CSLAYER1
  6
CONTINUOUS
 62
     7
 10
443.470748
 20
910.305805
 11
440.830342
 21
908.873168
  0
LINE
  8
CSLAYER1
  6
CONTINUOUS
 62
     7
 10
440.830342
 20
908.873168
 11
438.376566
 21
907.283259
  0
LINE
  8
CSLAYER1
  6
CONTINUOUS
 62
     7
 10
438.376566
 20
907.283259
 11
436.128094
 21
905.548177
  0
LINE
  8
CSLAYER1
  6
CONTINUOUS
 62
     7
 10
436.128094
 20
905.548177
 11
434.102039
 21
903.681127
  0
LINE
  8
CSLAYER1
  6
CONTINUOUS
 62
     7
 10
434.102039
 20
903.681127
 11
432.313820
 21
901.696320
  0
LINE
  8
CSLAYER1
  6
CONTINUOUS
 62
     7
 10
432.313820
 20
901.696320
 11
430.777047
 21
899.608861
  0
LINE
  8
CSLAYER1
  6
CONTINUOUS
 62
     7
 10
430.777047
 20
899.608861
 11
429.503416
 21
897.434636
  0
LINE
  8
CSLAYER1
  6
CONTINUOUS
 62
     7
 10
429.503416
 20
897.434636
 11
428.502619
 21
895.190193
  0
LINE
  8
CSLAYER1
  6
CONTINUOUS
 62
     7
 10
428.502619
 20
895.190193
 11
427.782274
 21
892.892613
  0
LINE
  8
CSLAYER1
  6
CONTINUOUS
 62
     7
 10
427.782274
 20
892.892613
 11
427.347862
 21
890.559383
  0
LINE
  8
CSLAYER1
  6
CONTINUOUS
 62
     7
 10
427.347862
 20
890.559383
 11
427.202689
 21
888.208259
  0
LINE
  8
CSLAYER1
  6
CONTINUOUS
 62
     7
 10
444.002689
 20
984.042337
 11
444.002689
 21
910.594427
  0
LINE
  8
CSLAYER1
  6
CONTINUOUS
 62
     7
 10
427.202689
 20
888.208259
 11
427.202689
 21
742.369431
  0
LINE
  8
CSLAYER1
  6
CONTINUOUS
 62
     7
 10
525.352689
 20
632.116101
 11
526.352689
 21
632.116101
  0
LINE
  8
CSLAYER1
  6
CONTINUOUS
 62
     7
 10
591.352689
 20
714.411806
 11
591.352689
 21
660.073727
  0
LINE
  8
CSLAYER1
  6
CONTINUOUS
 62
     7
 10
526.352689
 20
742.369431
 11
591.352689
 21
714.411806
  0
LINE
  8
CSLAYER1
  6
CONTINUOUS
 62
     7
 10
526.352689
 20
719.483681
 11
591.352689
 21
691.526056
  0
LINE
  8
CSLAYER1
  6
CONTINUOUS
 62
     7
 10
591.352689
 20
660.073727
 11
526.352689
 21
632.116101
  0
LINE
  8
CSLAYER1
  6
CONTINUOUS
 62
     7
 10
526.352689
 20
742.369431
 11
526.352689
 21
719.483681
  0
LINE
  8
CSLAYER1
  6
CONTINUOUS
 62
     7
 10
404.352689
 20
742.369431
 11
339.352689
 21
714.411806
  0
LINE
  8
CSLAYER1
  6
CONTINUOUS
 62
     7
 10
404.352689
 20
719.483681
 11
339.352689
 21
691.526056
  0
LINE
  8
CSLAYER1
  6
CONTINUOUS
 62
     7
 10
339.352689
 20
714.411806
 11
339.352689
 21
660.073727
  0
LINE
  8
CSLAYER1
  6
CONTINUOUS
 62
     7
 10
339.352689
 20
660.073727
 11
405.280323
 21
631.717110
  0
LINE
  8
CSLAYER1
  6
CONTINUOUS
 62
     7
 10
404.352689
 20
742.369431
 11
404.352689
 21
719.483681
  0
POINT
  8
CSLAYER1
 62
     7
 10
465.352689
 20
687.242766
  0
LINE
  8
CSLAYER1
  6
CONTINUOUS
 62
     7
 10
571.852689
 20
671.203697
 11
571.753940
 21
672.001818
  0
LINE
  8
CSLAYER1
  6
CONTINUOUS
 62
     7
 10
571.753940
 20
672.001818
 11
571.460691
 21
672.775688
  0
LINE
  8
CSLAYER1
  6
CONTINUOUS
 62
     7
 10
571.460691
 20
672.775688
 11
570.981854
 21
673.501794
  0
LINE
  8
CSLAYER1
  6
CONTINUOUS
 62
     7
 10
570.981854
 20
673.501794
 11
570.331978
 21
674.158074
  0
LINE
  8
CSLAYER1
  6
CONTINUOUS
 62
     7
 10
570.331978
 20
674.158074
 11
569.530809
 21
674.724586
  0
LINE
  8
CSLAYER1
  6
CONTINUOUS
 62
     7
 10
569.530809
 20
674.724586
 11
568.602689
 21
675.184118
  0
LINE
  8
CSLAYER1
  6
CONTINUOUS
 62
     7
 10
568.602689
 20
675.184118
 11
567.575820
 21
675.522707
  0
LINE
  8
CSLAYER1
  6
CONTINUOUS
 62
     7
 10
567.575820
 20
675.522707
 11
566.481402
 21
675.730065
  0
LINE
  8
CSLAYER1
  6
CONTINUOUS
 62
     7
 10
566.481402
 20
675.730065
 11
565.352689
 21
675.799891
  0
LINE
  8
CSLAYER1
  6
CONTINUOUS
 62
     7
 10
565.352689
 20
675.799891
 11
564.223976
 21
675.730065
  0
LINE
  8
CSLAYER1
  6
CONTINUOUS
 62
     7
 10
564.223976
 20
675.730065
 11
563.129558
 21
675.522707
  0
LINE
  8
CSLAYER1
  6
CONTINUOUS
 62
     7
 10
563.129558
 20
675.522707
 11
562.102689
 21
675.184118
  0
LINE
  8
CSLAYER1
  6
CONTINUOUS
 62
     7
 10
562.102689
 20
675.184118
 11
561.174570
 21
674.724586
  0
LINE
  8
CSLAYER1
  6
CONTINUOUS
 62
     7
 10
561.174570
 20
674.724586
 11
560.373400
 21
674.158074
  0
LINE
  8
CSLAYER1
  6
CONTINUOUS
 62
     7
 10
560.373400
 20
674.158074
 11
559.723524
 21
673.501794
  0
LINE
  8
CSLAYER1
  6
CONTINUOUS
 62
     7
 10
559.723524
 20
673.501794
 11
559.244687
 21
672.775688
  0
LINE
  8
CSLAYER1
  6
CONTINUOUS
 62
     7
 10
559.244687
 20
672.775688
 11
558.951439
 21
672.001818
  0
LINE
  8
CSLAYER1
  6
CONTINUOUS
 62
     7
 10
558.951439
 20
672.001818
 11
558.852689
 21
671.203697
  0
LINE
  8
CSLAYER1
  6
CONTINUOUS
 62
     7
 10
558.852689
 20
671.203697
 11
558.951439
 21
670.405576
  0
LINE
  8
CSLAYER1
  6
CONTINUOUS
 62
     7
 10
558.951439
 20
670.405576
 11
559.244687
 21
669.631706
  0
LINE
  8
CSLAYER1
  6
CONTINUOUS
 62
     7
 10
559.244687
 20
669.631706
 11
559.723524
 21
668.905600
  0
LINE
  8
CSLAYER1
  6
CONTINUOUS
 62
     7
 10
559.723524
 20
668.905600
 11
560.373400
 21
668.249321
  0
LINE
  8
CSLAYER1
  6
CONTINUOUS
 62
     7
 10
560.373400
 20
668.249321
 11
561.174570
 21
667.682808
  0
LINE
  8
CSLAYER1
  6
CONTINUOUS
 62
     7
 10
561.174570
 20
667.682808
 11
562.102689
 21
667.223276
  0
LINE
  8
CSLAYER1
  6
CONTINUOUS
 62
     7
 10
562.102689
 20
667.223276
 11
563.129558
 21
666.884687
  0
LINE
  8
CSLAYER1
  6
CONTINUOUS
 62
     7
 10
563.129558
 20
666.884687
 11
564.223976
 21
666.677330
  0
LINE
  8
CSLAYER1
  6
CONTINUOUS
 62
     7
 10
564.223976
 20
666.677330
 11
565.352689
 21
666.607503
  0
LINE
  8
CSLAYER1
  6
CONTINUOUS
 62
     7
 10
565.352689
 20
666.607503
 11
566.481402
 21
666.677330
  0
LINE
  8
CSLAYER1
  6
CONTINUOUS
 62
     7
 10
566.481402
 20
666.677330
 11
567.575820
 21
666.884687
  0
LINE
  8
CSLAYER1
  6
CONTINUOUS
 62
     7
 10
567.575820
 20
666.884687
 11
568.602689
 21
667.223276
  0
LINE
  8
CSLAYER1
  6
CONTINUOUS
 62
     7
 10
568.602689
 20
667.223276
 11
569.530809
 21
667.682808
  0
LINE
  8
CSLAYER1
  6
CONTINUOUS
 62
     7
 10
569.530809
 20
667.682808
 11
570.331978
 21
668.249321
  0
LINE
  8
CSLAYER1
  6
CONTINUOUS
 62
     7
 10
570.331978
 20
668.249321
 11
570.981854
 21
668.905600
  0
LINE
  8
CSLAYER1
  6
CONTINUOUS
 62
     7
 10
570.981854
 20
668.905600
 11
571.460691
 21
669.631706
  0
LINE
  8
CSLAYER1
  6
CONTINUOUS
 62
     7
 10
571.460691
 20
669.631706
 11
571.753940
 21
670.405576
  0
LINE
  8
CSLAYER1
  6
CONTINUOUS
 62
     7
 10
571.753940
 20
670.405576
 11
571.852689
 21
671.203697
  0
LINE
  8
CSLAYER1
  6
CONTINUOUS
 62
     7
 10
571.852689
 20
675.799891
 11
571.852689
 21
671.203697
  0
LINE
  8
CSLAYER1
  6
CONTINUOUS
 62
     7
 10
571.852689
 20
675.799891
 11
571.753940
 21
676.598012
  0
LINE
  8
CSLAYER1
  6
CONTINUOUS
 62
     7
 10
571.753940
 20
676.598012
 11
571.460691
 21
677.371882
  0
LINE
  8
CSLAYER1
  6
CONTINUOUS
 62
     7
 10
571.460691
 20
677.371882
 11
570.981854
 21
678.097988
  0
LINE
  8
CSLAYER1
  6
CONTINUOUS
 62
     7
 10
570.981854
 20
678.097988
 11
570.331978
 21
678.754268
  0
LINE
  8
CSLAYER1
  6
CONTINUOUS
 62
     7
 10
570.331978
 20
678.754268
 11
569.530809
 21
679.320780
  0
LINE
  8
CSLAYER1
  6
CONTINUOUS
 62
     7
 10
569.530809
 20
679.320780
 11
568.602689
 21
679.780312
  0
LINE
  8
CSLAYER1
  6
CONTINUOUS
 62
     7
 10
568.602689
 20
679.780312
 11
567.575820
 21
680.118901
  0
LINE
  8
CSLAYER1
  6
CONTINUOUS
 62
     7
 10
567.575820
 20
680.118901
 11
566.481402
 21
680.326259
  0
LINE
  8
CSLAYER1
  6
CONTINUOUS
 62
     7
 10
566.481402
 20
680.326259
 11
565.352689
 21
680.396085
  0
LINE
  8
CSLAYER1
  6
CONTINUOUS
 62
     7
 10
565.352689
 20
680.396085
 11
564.223976
 21
680.326259
  0
LINE
  8
CSLAYER1
  6
CONTINUOUS
 62
     7
 10
564.223976
 20
680.326259
 11
563.129558
 21
680.118901
  0
LINE
  8
CSLAYER1
  6
CONTINUOUS
 62
     7
 10
563.129558
 20
680.118901
 11
562.102689
 21
679.780312
  0
LINE
  8
CSLAYER1
  6
CONTINUOUS
 62
     7
 10
562.102689
 20
679.780312
 11
561.174570
 21
679.320780
  0
LINE
  8
CSLAYER1
  6
CONTINUOUS
 62
     7
 10
561.174570
 20
679.320780
 11
560.373400
 21
678.754268
  0
LINE
  8
CSLAYER1
  6
CONTINUOUS
 62
     7
 10
560.373400
 20
678.754268
 11
559.723524
 21
678.097988
  0
LINE
  8
CSLAYER1
  6
CONTINUOUS
 62
     7
 10
559.723524
 20
678.097988
 11
559.244687
 21
677.371882
  0
LINE
  8
CSLAYER1
  6
CONTINUOUS
 62
     7
 10
559.244687
 20
677.371882
 11
558.951439
 21
676.598012
  0
LINE
  8
CSLAYER1
  6
CONTINUOUS
 62
     7
 10
558.951439
 20
676.598012
 11
558.852689
 21
675.799891
  0
LINE
  8
CSLAYER1
  6
CONTINUOUS
 62
     7
 10
558.852689
 20
675.799891
 11
558.852689
 21
671.203697
  0
LINE
  8
CSLAYER1
  6
CONTINUOUS
 62
     7
 10
358.852689
 20
671.203697
 11
358.951439
 21
672.001818
  0
LINE
  8
CSLAYER1
  6
CONTINUOUS
 62
     7
 10
358.951439
 20
672.001818
 11
359.244687
 21
672.775688
  0
LINE
  8
CSLAYER1
  6
CONTINUOUS
 62
     7
 10
359.244687
 20
672.775688
 11
359.723524
 21
673.501794
  0
LINE
  8
CSLAYER1
  6
CONTINUOUS
 62
     7
 10
359.723524
 20
673.501794
 11
360.373400
 21
674.158074
  0
LINE
  8
CSLAYER1
  6
CONTINUOUS
 62
     7
 10
360.373400
 20
674.158074
 11
361.174570
 21
674.724586
  0
LINE
  8
CSLAYER1
  6
CONTINUOUS
 62
     7
 10
361.174570
 20
674.724586
 11
362.102689
 21
675.184118
  0
LINE
  8
CSLAYER1
  6
CONTINUOUS
 62
     7
 10
362.102689
 20
675.184118
 11
363.129558
 21
675.522707
  0
LINE
  8
CSLAYER1
  6
CONTINUOUS
 62
     7
 10
363.129558
 20
675.522707
 11
364.223976
 21
675.730065
  0
LINE
  8
CSLAYER1
  6
CONTINUOUS
 62
     7
 10
364.223976
 20
675.730065
 11
365.352689
 21
675.799891
  0
LINE
  8
CSLAYER1
  6
CONTINUOUS
 62
     7
 10
365.352689
 20
675.799891
 11
366.481402
 21
675.730065
  0
LINE
  8
CSLAYER1
  6
CONTINUOUS
 62
     7
 10
366.481402
 20
675.730065
 11
367.575820
 21
675.522707
  0
LINE
  8
CSLAYER1
  6
CONTINUOUS
 62
     7
 10
367.575820
 20
675.522707
 11
368.602689
 21
675.184118
  0
LINE
  8
CSLAYER1
  6
CONTINUOUS
 62
     7
 10
368.602689
 20
675.184118
 11
369.530809
 21
674.724586
  0
LINE
  8
CSLAYER1
  6
CONTINUOUS
 62
     7
 10
369.530809
 20
674.724586
 11
370.331978
 21
674.158074
  0
LINE
  8
CSLAYER1
  6
CONTINUOUS
 62
     7
 10
370.331978
 20
674.158074
 11
370.981854
 21
673.501794
  0
LINE
  8
CSLAYER1
  6
CONTINUOUS
 62
     7
 10
370.981854
 20
673.501794
 11
371.460691
 21
672.775688
  0
LINE
  8
CSLAYER1
  6
CONTINUOUS
 62
     7
 10
371.460691
 20
672.775688
 11
371.753940
 21
672.001818
  0
LINE
  8
CSLAYER1
  6
CONTINUOUS
 62
     7
 10
371.753940
 20
672.001818
 11
371.852689
 21
671.203697
  0
LINE
  8
CSLAYER1
  6
CONTINUOUS
 62
     7
 10
371.852689
 20
671.203697
 11
371.753940
 21
670.405576
  0
LINE
  8
CSLAYER1
  6
CONTINUOUS
 62
     7
 10
371.753940
 20
670.405576
 11
371.460691
 21
669.631706
  0
LINE
  8
CSLAYER1
  6
CONTINUOUS
 62
     7
 10
371.460691
 20
669.631706
 11
370.981854
 21
668.905600
  0
LINE
  8
CSLAYER1
  6
CONTINUOUS
 62
     7
 10
370.981854
 20
668.905600
 11
370.331978
 21
668.249321
  0
LINE
  8
CSLAYER1
  6
CONTINUOUS
 62
     7
 10
370.331978
 20
668.249321
 11
369.530809
 21
667.682808
  0
LINE
  8
CSLAYER1
  6
CONTINUOUS
 62
     7
 10
369.530809
 20
667.682808
 11
368.602689
 21
667.223276
  0
LINE
  8
CSLAYER1
  6
CONTINUOUS
 62
     7
 10
368.602689
 20
667.223276
 11
367.575820
 21
666.884687
  0
LINE
  8
CSLAYER1
  6
CONTINUOUS
 62
     7
 10
367.575820
 20
666.884687
 11
366.481402
 21
666.677330
  0
LINE
  8
CSLAYER1
  6
CONTINUOUS
 62
     7
 10
366.481402
 20
666.677330
 11
365.352689
 21
666.607503
  0
LINE
  8
CSLAYER1
  6
CONTINUOUS
 62
     7
 10
365.352689
 20
666.607503
 11
364.223976
 21
666.677330
  0
LINE
  8
CSLAYER1
  6
CONTINUOUS
 62
     7
 10
364.223976
 20
666.677330
 11
363.129558
 21
666.884687
  0
LINE
  8
CSLAYER1
  6
CONTINUOUS
 62
     7
 10
363.129558
 20
666.884687
 11
362.102689
 21
667.223276
  0
LINE
  8
CSLAYER1
  6
CONTINUOUS
 62
     7
 10
362.102689
 20
667.223276
 11
361.174570
 21
667.682808
  0
LINE
  8
CSLAYER1
  6
CONTINUOUS
 62
     7
 10
361.174570
 20
667.682808
 11
360.373400
 21
668.249321
  0
LINE
  8
CSLAYER1
  6
CONTINUOUS
 62
     7
 10
360.373400
 20
668.249321
 11
359.723524
 21
668.905600
  0
LINE
  8
CSLAYER1
  6
CONTINUOUS
 62
     7
 10
359.723524
 20
668.905600
 11
359.244687
 21
669.631706
  0
LINE
  8
CSLAYER1
  6
CONTINUOUS
 62
     7
 10
359.244687
 20
669.631706
 11
358.951439
 21
670.405576
  0
LINE
  8
CSLAYER1
  6
CONTINUOUS
 62
     7
 10
358.951439
 20
670.405576
 11
358.852689
 21
671.203697
  0
LINE
  8
CSLAYER1
  6
CONTINUOUS
 62
     7
 10
358.852689
 20
675.799891
 11
358.852689
 21
671.203697
  0
LINE
  8
CSLAYER1
  6
CONTINUOUS
 62
     7
 10
358.852689
 20
675.799891
 11
358.951439
 21
676.598012
  0
LINE
  8
CSLAYER1
  6
CONTINUOUS
 62
     7
 10
358.951439
 20
676.598012
 11
359.244687
 21
677.371882
  0
LINE
  8
CSLAYER1
  6
CONTINUOUS
 62
     7
 10
359.244687
 20
677.371882
 11
359.723524
 21
678.097988
  0
LINE
  8
CSLAYER1
  6
CONTINUOUS
 62
     7
 10
359.723524
 20
678.097988
 11
360.373400
 21
678.754268
  0
LINE
  8
CSLAYER1
  6
CONTINUOUS
 62
     7
 10
360.373400
 20
678.754268
 11
361.174570
 21
679.320780
  0
LINE
  8
CSLAYER1
  6
CONTINUOUS
 62
     7
 10
361.174570
 20
679.320780
 11
362.102689
 21
679.780312
  0
LINE
  8
CSLAYER1
  6
CONTINUOUS
 62
     7
 10
362.102689
 20
679.780312
 11
363.129558
 21
680.118901
  0
LINE
  8
CSLAYER1
  6
CONTINUOUS
 62
     7
 10
363.129558
 20
680.118901
 11
364.223976
 21
680.326259
  0
LINE
  8
CSLAYER1
  6
CONTINUOUS
 62
     7
 10
364.223976
 20
680.326259
 11
365.352689
 21
680.396085
  0
LINE
  8
CSLAYER1
  6
CONTINUOUS
 62
     7
 10
365.352689
 20
680.396085
 11
366.481402
 21
680.326259
  0
LINE
  8
CSLAYER1
  6
CONTINUOUS
 62
     7
 10
366.481402
 20
680.326259
 11
367.575820
 21
680.118901
  0
LINE
  8
CSLAYER1
  6
CONTINUOUS
 62
     7
 10
367.575820
 20
680.118901
 11
368.602689
 21
679.780312
  0
LINE
  8
CSLAYER1
  6
CONTINUOUS
 62
     7
 10
368.602689
 20
679.780312
 11
369.530809
 21
679.320780
  0
LINE
  8
CSLAYER1
  6
CONTINUOUS
 62
     7
 10
369.530809
 20
679.320780
 11
370.331978
 21
678.754268
  0
LINE
  8
CSLAYER1
  6
CONTINUOUS
 62
     7
 10
370.331978
 20
678.754268
 11
370.981854
 21
678.097988
  0
LINE
  8
CSLAYER1
  6
CONTINUOUS
 62
     7
 10
370.981854
 20
678.097988
 11
371.460691
 21
677.371882
  0
LINE
  8
CSLAYER1
  6
CONTINUOUS
 62
     7
 10
371.460691
 20
677.371882
 11
371.753940
 21
676.598012
  0
LINE
  8
CSLAYER1
  6
CONTINUOUS
 62
     7
 10
371.753940
 20
676.598012
 11
371.852689
 21
675.799891
  0
LINE
  8
CSLAYER1
  6
CONTINUOUS
 62
     7
 10
371.852689
 20
675.799891
 11
371.852689
 21
671.203697
  0
LINE
  8
CSLAYER1
  6
CONTINUOUS
 62
     7
 10
357.102689
 20
909.627893
 11
373.602689
 21
909.627893
  0
LINE
  8
CSLAYER1
  6
CONTINUOUS
 62
     7
 10
357.102689
 20
927.627893
 11
373.602689
 21
927.627893
  0
LINE
  8
CSLAYER1
  6
CONTINUOUS
 62
     7
 10
359.352689
 20
927.627893
 11
359.352689
 21
973.195293
  0
LINE
  8
CSLAYER1
  6
CONTINUOUS
 62
     7
 10
357.102689
 20
909.627893
 11
356.602689
 21
910.127893
  0
LINE
  8
CSLAYER1
  6
CONTINUOUS
 62
     7
 10
356.602689
 20
927.127893
 11
357.102689
 21
927.627893
  0
LINE
  8
CSLAYER1
  6
CONTINUOUS
 62
     7
 10
356.602689
 20
910.127893
 11
374.102689
 21
910.127893
  0
LINE
  8
CSLAYER1
  6
CONTINUOUS
 62
     7
 10
356.602689
 20
927.127893
 11
374.102689
 21
927.127893
  0
LINE
  8
CSLAYER1
  6
CONTINUOUS
 62
     7
 10
371.352689
 20
927.627893
 11
371.352689
 21
973.195293
  0
LINE
  8
CSLAYER1
  6
CONTINUOUS
 62
     7
 10
370.552689
 20
954.627893
 11
370.552689
 21
975.311387
  0
LINE
  8
CSLAYER1
  6
CONTINUOUS
 62
     7
 10
373.602689
 20
909.627893
 11
374.102689
 21
910.127893
  0
LINE
  8
CSLAYER1
  6
CONTINUOUS
 62
     7
 10
374.102689
 20
927.127893
 11
373.602689
 21
927.627893
  0
POINT
  8
CSLAYER1
 62
     7
 10
365.352689
 20
918.627893
  0
LINE
  8
CSLAYER1
  6
CONTINUOUS
 62
     7
 10
376.502689
 20
926.427893
 11
376.502689
 21
891.777893
  0
LINE
  8
CSLAYER1
  6
CONTINUOUS
 62
     7
 10
380.102689
 20
921.607893
 11
380.102689
 21
915.647893
  0
LINE
  8
CSLAYER1
  6
CONTINUOUS
 62
     7
 10
352.502689
 20
921.607893
 11
352.502689
 21
915.647893
  0
LINE
  8
CSLAYER1
  6
CONTINUOUS
 62
     7
 10
378.202689
 20
902.557893
 11
378.202689
 21
896.597893
  0
LINE
  8
CSLAYER1
  6
CONTINUOUS
 62
     7
 10
374.102689
 20
926.427893
 11
376.502689
 21
926.427893
  0
LINE
  8
CSLAYER1
  6
CONTINUOUS
 62
     7
 10
374.102689
 20
891.777893
 11
376.502689
 21
891.777893
  0
LINE
  8
CSLAYER1
  6
CONTINUOUS
 62
     7
 10
376.502689
 20
902.557893
 11
378.202689
 21
902.557893
  0
LINE
  8
CSLAYER1
  6
CONTINUOUS
 62
     7
 10
376.502689
 20
896.597893
 11
378.202689
 21
896.597893
  0
LINE
  8
CSLAYER1
  6
CONTINUOUS
 62
     7
 10
376.502689
 20
921.607893
 11
380.102689
 21
921.607893
  0
LINE
  8
CSLAYER1
  6
CONTINUOUS
 62
     7
 10
376.502689
 20
915.647893
 11
380.102689
 21
915.647893
  0
LINE
  8
CSLAYER1
  6
CONTINUOUS
 62
     7
 10
354.202689
 20
926.427893
 11
354.202689
 21
891.777893
  0
LINE
  8
CSLAYER1
  6
CONTINUOUS
 62
     7
 10
352.502689
 20
902.557893
 11
352.502689
 21
896.597893
  0
LINE
  8
CSLAYER1
  6
CONTINUOUS
 62
     7
 10
356.602689
 20
926.427893
 11
354.202689
 21
926.427893
  0
LINE
  8
CSLAYER1
  6
CONTINUOUS
 62
     7
 10
356.602689
 20
891.777893
 11
354.202689
 21
891.777893
  0
LINE
  8
CSLAYER1
  6
CONTINUOUS
 62
     7
 10
354.202689
 20
902.557893
 11
352.502689
 21
902.557893
  0
LINE
  8
CSLAYER1
  6
CONTINUOUS
 62
     7
 10
354.202689
 20
896.597893
 11
352.502689
 21
896.597893
  0
LINE
  8
CSLAYER1
  6
CONTINUOUS
 62
     7
 10
354.202689
 20
921.607893
 11
352.502689
 21
921.607893
  0
LINE
  8
CSLAYER1
  6
CONTINUOUS
 62
     7
 10
354.202689
 20
915.647893
 11
352.502689
 21
915.647893
  0
LINE
  8
CSLAYER1
  6
CONTINUOUS
 62
     7
 10
371.702689
 20
871.477893
 11
374.102689
 21
871.477893
  0
LINE
  8
CSLAYER1
  6
CONTINUOUS
 62
     7
 10
371.702689
 20
886.482893
 11
359.002689
 21
886.482893
  0
LINE
  8
CSLAYER1
  6
CONTINUOUS
 62
     7
 10
371.702689
 20
874.572893
 11
359.002689
 21
874.572893
  0
LINE
  8
CSLAYER1
  6
CONTINUOUS
 62
     7
 10
359.002689
 20
871.477893
 11
356.602689
 21
871.477893
  0
LINE
  8
CSLAYER1
  6
CONTINUOUS
 62
     7
 10
374.102689
 20
927.127893
 11
374.102689
 21
747.828301
  0
LINE
  8
CSLAYER1
  6
CONTINUOUS
 62
     7
 10
356.602689
 20
927.127893
 11
356.602689
 21
747.828301
  0
LINE
  8
CSLAYER1
  6
CONTINUOUS
 62
     7
 10
359.002689
 20
908.627893
 11
359.002689
 21
871.477893
  0
LINE
  8
CSLAYER1
  6
CONTINUOUS
 62
     7
 10
359.002689
 20
908.627893
 11
356.602689
 21
908.627893
  0
LINE
  8
CSLAYER1
  6
CONTINUOUS
 62
     7
 10
359.002689
 20
905.532893
 11
371.702689
 21
905.532893
  0
LINE
  8
CSLAYER1
  6
CONTINUOUS
 62
     7
 10
359.002689
 20
893.622893
 11
371.702689
 21
893.622893
  0
LINE
  8
CSLAYER1
  6
CONTINUOUS
 62
     7
 10
371.702689
 20
908.627893
 11
374.102689
 21
908.627893
  0
LINE
  8
CSLAYER1
  6
CONTINUOUS
 62
     7
 10
371.702689
 20
908.627893
 11
371.702689
 21
871.477893
  0
LINE
  8
CSLAYER1
  6
CONTINUOUS
 62
     7
 10
360.152689
 20
954.627893
 11
360.152689
 21
975.311387
  0
LINE
  8
CSLAYER1
  6
CENTER
 62
     5
 10
350.550272
 20
918.627893
 11
381.486550
 21
918.627893
  0
LINE
  8
CSLAYER1
  6
CENTER
 62
     5
 10
350.990646
 20
899.577893
 11
379.725054
 21
899.577893
  0
LINE
  8
CSLAYER1
  6
CONTINUOUS
 62
     7
 10
346.352689
 20
1000.042337
 11
378.352689
 21
1000.042337
  0
LINE
  8
CSLAYER1
  6
CONTINUOUS
 62
     7
 10
378.352689
 20
960.642337
 11
378.352689
 21
1007.442337
  0
LINE
  8
CSLAYER1
  6
CONTINUOUS
 62
     7
 10
378.352689
 20
1007.442337
 11
380.352689
 21
1009.442337
  0
LINE
  8
CSLAYER1
  6
CONTINUOUS
 62
     7
 10
380.352689
 20
958.642337
 11
380.352689
 21
1009.442337
  0
LINE
  8
CSLAYER1
  6
CONTINUOUS
 62
     7
 10
328.352689
 20
1005.042337
 11
329.352689
 21
1005.042337
  0
LINE
  8
CSLAYER1
  6
CONTINUOUS
 62
     7
 10
340.352689
 20
1004.042337
 11
340.352689
 21
964.042337
  0
LINE
  8
CSLAYER1
  6
CONTINUOUS
 62
     7
 10
327.352689
 20
1004.042337
 11
327.352689
 21
964.042337
  0
LINE
  8
CSLAYER1
  6
CONTINUOUS
 62
     7
 10
323.852689
 20
990.542337
 11
323.852689
 21
977.542337
  0
LINE
  8
CSLAYER1
  6
CONTINUOUS
 62
     7
 10
326.202689
 20
993.042337
 11
326.202689
 21
975.042337
  0
LINE
  8
CSLAYER1
  6
CONTINUOUS
 62
     7
 10
326.202689
 20
991.542337
 11
324.852689
 21
991.542337
  0
LINE
  8
CSLAYER1
  6
CONTINUOUS
 62
     7
 10
324.852689
 20
991.542337
 11
323.852689
 21
990.542337
  0
LINE
  8
CSLAYER1
  6
CONTINUOUS
 62
     7
 10
324.852689
 20
991.542337
 11
324.852689
 21
976.542337
  0
LINE
  8
CSLAYER1
  6
CONTINUOUS
 62
     7
 10
326.202689
 20
993.042337
 11
327.352689
 21
993.042337
  0
LINE
  8
CSLAYER1
  6
CONTINUOUS
 62
     7
 10
340.352689
 20
994.042337
 11
346.352689
 21
1000.042337
  0
LINE
  8
CSLAYER1
  6
CONTINUOUS
 62
     7
 10
346.352689
 20
1000.042337
 11
346.352689
 21
968.042337
  0
ARC
  8
CSLAYER1
  6
CONTINUOUS
 62
     7
 10
328.352689
 20
1004.042337
 40
1.000000
 50
90.000000
 51
180.000000
  0
ARC
  8
CSLAYER1
  6
CONTINUOUS
 62
     7
 10
339.352689
 20
1004.042337
 40
1.000000
 50
0.000000
 51
90.000000
  0
LINE
  8
CSLAYER1
  6
CONTINUOUS
 62
     7
 10
346.352689
 20
968.042337
 11
359.352689
 21
968.042337
  0
LINE
  8
CSLAYER1
  6
CONTINUOUS
 62
     7
 10
328.352689
 20
963.042337
 11
329.352689
 21
963.042337
  0
LINE
  8
CSLAYER1
  6
CONTINUOUS
 62
     7
 10
326.202689
 20
976.542337
 11
324.852689
 21
976.542337
  0
LINE
  8
CSLAYER1
  6
CONTINUOUS
 62
     7
 10
324.852689
 20
976.542337
 11
323.852689
 21
977.542337
  0
LINE
  8
CSLAYER1
  6
CONTINUOUS
 62
     7
 10
326.202689
 20
975.042337
 11
327.352689
 21
975.042337
  0
LINE
  8
CSLAYER1
  6
CONTINUOUS
 62
     7
 10
340.352689
 20
974.042337
 11
346.352689
 21
968.042337
  0
ARC
  8
CSLAYER1
  6
CONTINUOUS
 62
     7
 10
328.352689
 20
964.042337
 40
1.000000
 50
180.000000
 51
270.000000
  0
ARC
  8
CSLAYER1
  6
CONTINUOUS
 62
     7
 10
339.352689
 20
964.042337
 40
1.000000
 50
270.000000
 51
360.000000
  0
LINE
  8
CSLAYER1
  6
CONTINUOUS
 62
     7
 10
378.352689
 20
960.642337
 11
380.352689
 21
958.642337
  0
LINE
  8
CSLAYER1
  6
CONTINUOUS
 62
     7
 10
338.352689
 20
1005.042337
 11
339.352689
 21
1005.042337
  0
LINE
  8
CSLAYER1
  6
CONTINUOUS
 62
     7
 10
338.352689
 20
963.042337
 11
339.352689
 21
963.042337
  0
LINE
  8
CSLAYER1
  6
CONTINUOUS
 62
     7
 10
380.352689
 20
1009.442337
 11
550.352689
 21
1009.442337
  0
LINE
  8
CSLAYER1
  6
CONTINUOUS
 62
     7
 10
380.352689
 20
958.642337
 11
444.002689
 21
958.642337
  0
LINE
  8
CSLAYER1
  6
CONTINUOUS
 62
     7
 10
371.352689
 20
973.195293
 11
371.261536
 21
973.932020
  0
LINE
  8
CSLAYER1
  6
CONTINUOUS
 62
     7
 10
371.261536
 20
973.932020
 11
370.990845
 21
974.646362
  0
LINE
  8
CSLAYER1
  6
CONTINUOUS
 62
     7
 10
370.990845
 20
974.646362
 11
370.548842
 21
975.316613
  0
LINE
  8
CSLAYER1
  6
CONTINUOUS
 62
     7
 10
370.548842
 20
975.316613
 11
369.948956
 21
975.922410
  0
LINE
  8
CSLAYER1
  6
CONTINUOUS
 62
     7
 10
369.948956
 20
975.922410
 11
369.209415
 21
976.445344
  0
LINE
  8
CSLAYER1
  6
CONTINUOUS
 62
     7
 10
369.209415
 20
976.445344
 11
368.352689
 21
976.869528
  0
LINE
  8
CSLAYER1
  6
CONTINUOUS
 62
     7
 10
368.352689
 20
976.869528
 11
367.404810
 21
977.182071
  0
LINE
  8
CSLAYER1
  6
CONTINUOUS
 62
     7
 10
367.404810
 20
977.182071
 11
366.394578
 21
977.373478
  0
LINE
  8
CSLAYER1
  6
CONTINUOUS
 62
     7
 10
366.394578
 20
977.373478
 11
365.352689
 21
977.437934
  0
LINE
  8
CSLAYER1
  6
CONTINUOUS
 62
     7
 10
365.352689
 20
977.437934
 11
364.310800
 21
977.373478
  0
LINE
  8
CSLAYER1
  6
CONTINUOUS
 62
     7
 10
364.310800
 20
977.373478
 11
363.300568
 21
977.182071
  0
LINE
  8
CSLAYER1
  6
CONTINUOUS
 62
     7
 10
363.300568
 20
977.182071
 11
362.352689
 21
976.869528
  0
LINE
  8
CSLAYER1
  6
CONTINUOUS
 62
     7
 10
362.352689
 20
976.869528
 11
361.495964
 21
976.445344
  0
LINE
  8
CSLAYER1
  6
CONTINUOUS
 62
     7
 10
361.495964
 20
976.445344
 11
360.756423
 21
975.922410
  0
LINE
  8
CSLAYER1
  6
CONTINUOUS
 62
     7
 10
360.756423
 20
975.922410
 11
360.156537
 21
975.316613
  0
LINE
  8
CSLAYER1
  6
CONTINUOUS
 62
     7
 10
360.156537
 20
975.316613
 11
359.714534
 21
974.646362
  0
LINE
  8
CSLAYER1
  6
CONTINUOUS
 62
     7
 10
359.714534
 20
974.646362
 11
359.443843
 21
973.932020
  0
LINE
  8
CSLAYER1
  6
CONTINUOUS
 62
     7
 10
359.443843
 20
973.932020
 11
359.352689
 21
973.195293
  0
LINE
  8
CSLAYER1
  6
CONTINUOUS
 62
     7
 10
359.352689
 20
1003.561251
 11
359.352689
 21
1013.271070
  0
LINE
  8
CSLAYER1
  6
CONTINUOUS
 62
     7
 10
371.352689
 20
1003.561251
 11
371.352689
 21
1013.271070
  0
LINE
  8
CSLAYER1
  6
CONTINUOUS
 62
     7
 10
360.152689
 20
1003.855728
 11
360.152689
 21
1013.271070
  0
LINE
  8
CSLAYER1
  6
CONTINUOUS
 62
     7
 10
370.552689
 20
1003.855728
 11
370.552689
 21
1013.271070
  0
LINE
  8
CSLAYER1
  6
CONTINUOUS
 62
     7
 10
376.502689
 20
747.828301
 11
376.502689
 21
812.127893
  0
LINE
  8
CSLAYER1
  6
CONTINUOUS
 62
     7
 10
378.202689
 20
758.608301
 11
378.202689
 21
752.648301
  0
LINE
  8
CSLAYER1
  6
CONTINUOUS
 62
     7
 10
374.102689
 20
747.828301
 11
376.502689
 21
747.828301
  0
LINE
  8
CSLAYER1
  6
CONTINUOUS
 62
     7
 10
376.502689
 20
758.608301
 11
378.202689
 21
758.608301
  0
LINE
  8
CSLAYER1
  6
CONTINUOUS
 62
     7
 10
376.502689
 20
752.648301
 11
378.202689
 21
752.648301
  0
LINE
  8
CSLAYER1
  6
CONTINUOUS
 62
     7
 10
354.202689
 20
747.828301
 11
354.202689
 21
812.127893
  0
LINE
  8
CSLAYER1
  6
CONTINUOUS
 62
     7
 10
352.502689
 20
758.608301
 11
352.502689
 21
752.648301
  0
LINE
  8
CSLAYER1
  6
CONTINUOUS
 62
     7
 10
356.602689
 20
747.828301
 11
354.202689
 21
747.828301
  0
LINE
  8
CSLAYER1
  6
CONTINUOUS
 62
     7
 10
354.202689
 20
758.608301
 11
352.502689
 21
758.608301
  0
LINE
  8
CSLAYER1
  6
CONTINUOUS
 62
     7
 10
354.202689
 20
752.648301
 11
352.502689
 21
752.648301
  0
LINE
  8
CSLAYER1
  6
CENTER
 62
     5
 10
350.990646
 20
755.628301
 11
379.725054
 21
755.628301
  0
LINE
  8
CSLAYER1
  6
CONTINUOUS
 62
     7
 10
356.602689
 20
762.628301
 11
359.352689
 21
762.628301
  0
LINE
  8
CSLAYER1
  6
CONTINUOUS
 62
     7
 10
356.602689
 20
748.628301
 11
359.352689
 21
748.628301
  0
LINE
  8
CSLAYER1
  6
CONTINUOUS
 62
     7
 10
371.352689
 20
762.628301
 11
374.102689
 21
762.628301
  0
LINE
  8
CSLAYER1
  6
CONTINUOUS
 62
     7
 10
371.352689
 20
748.628301
 11
374.102689
 21
748.628301
  0
POINT
  8
CSLAYER1
 62
     7
 10
365.352689
 20
880.527893
  0
LINE
  8
CSLAYER1
  6
CONTINUOUS
 62
     7
 10
376.502689
 20
888.327893
 11
376.502689
 21
853.677893
  0
LINE
  8
CSLAYER1
  6
CONTINUOUS
 62
     7
 10
380.102689
 20
883.507893
 11
380.102689
 21
877.547893
  0
LINE
  8
CSLAYER1
  6
CONTINUOUS
 62
     7
 10
352.502689
 20
883.507893
 11
352.502689
 21
877.547893
  0
LINE
  8
CSLAYER1
  6
CONTINUOUS
 62
     7
 10
378.202689
 20
864.457893
 11
378.202689
 21
858.497893
  0
LINE
  8
CSLAYER1
  6
CONTINUOUS
 62
     7
 10
374.102689
 20
888.327893
 11
376.502689
 21
888.327893
  0
LINE
  8
CSLAYER1
  6
CONTINUOUS
 62
     7
 10
374.102689
 20
853.677893
 11
376.502689
 21
853.677893
  0
LINE
  8
CSLAYER1
  6
CONTINUOUS
 62
     7
 10
376.502689
 20
864.457893
 11
378.202689
 21
864.457893
  0
LINE
  8
CSLAYER1
  6
CONTINUOUS
 62
     7
 10
376.502689
 20
858.497893
 11
378.202689
 21
858.497893
  0
LINE
  8
CSLAYER1
  6
CONTINUOUS
 62
     7
 10
376.502689
 20
883.507893
 11
380.102689
 21
883.507893
  0
LINE
  8
CSLAYER1
  6
CONTINUOUS
 62
     7
 10
376.502689
 20
877.547893
 11
380.102689
 21
877.547893
  0
LINE
  8
CSLAYER1
  6
CONTINUOUS
 62
     7
 10
354.202689
 20
888.327893
 11
354.202689
 21
853.677893
  0
LINE
  8
CSLAYER1
  6
CONTINUOUS
 62
     7
 10
352.502689
 20
864.457893
 11
352.502689
 21
858.497893
  0
LINE
  8
CSLAYER1
  6
CONTINUOUS
 62
     7
 10
356.602689
 20
888.327893
 11
354.202689
 21
888.327893
  0
LINE
  8
CSLAYER1
  6
CONTINUOUS
 62
     7
 10
356.602689
 20
853.677893
 11
354.202689
 21
853.677893
  0
LINE
  8
CSLAYER1
  6
CONTINUOUS
 62
     7
 10
354.202689
 20
864.457893
 11
352.502689
 21
864.457893
  0
LINE
  8
CSLAYER1
  6
CONTINUOUS
 62
     7
 10
354.202689
 20
858.497893
 11
352.502689
 21
858.497893
  0
LINE
  8
CSLAYER1
  6
CONTINUOUS
 62
     7
 10
354.202689
 20
883.507893
 11
352.502689
 21
883.507893
  0
LINE
  8
CSLAYER1
  6
CONTINUOUS
 62
     7
 10
354.202689
 20
877.547893
 11
352.502689
 21
877.547893
  0
LINE
  8
CSLAYER1
  6
CONTINUOUS
 62
     7
 10
371.702689
 20
833.377893
 11
374.102689
 21
833.377893
  0
LINE
  8
CSLAYER1
  6
CONTINUOUS
 62
     7
 10
371.702689
 20
848.382893
 11
359.002689
 21
848.382893
  0
LINE
  8
CSLAYER1
  6
CONTINUOUS
 62
     7
 10
371.702689
 20
836.472893
 11
359.002689
 21
836.472893
  0
LINE
  8
CSLAYER1
  6
CONTINUOUS
 62
     7
 10
359.002689
 20
833.377893
 11
356.602689
 21
833.377893
  0
LINE
  8
CSLAYER1
  6
CONTINUOUS
 62
     7
 10
359.002689
 20
870.527893
 11
359.002689
 21
833.377893
  0
LINE
  8
CSLAYER1
  6
CONTINUOUS
 62
     7
 10
359.002689
 20
870.527893
 11
356.602689
 21
870.527893
  0
LINE
  8
CSLAYER1
  6
CONTINUOUS
 62
     7
 10
359.002689
 20
867.432893
 11
371.702689
 21
867.432893
  0
LINE
  8
CSLAYER1
  6
CONTINUOUS
 62
     7
 10
359.002689
 20
855.522893
 11
371.702689
 21
855.522893
  0
LINE
  8
CSLAYER1
  6
CONTINUOUS
 62
     7
 10
371.702689
 20
870.527893
 11
374.102689
 21
870.527893
  0
LINE
  8
CSLAYER1
  6
CONTINUOUS
 62
     7
 10
371.702689
 20
870.527893
 11
371.702689
 21
833.377893
  0
LINE
  8
CSLAYER1
  6
CENTER
 62
     5
 10
350.990646
 20
842.427893
 11
379.725054
 21
842.427893
  0
LINE
  8
CSLAYER1
  6
CENTER
 62
     5
 10
350.550272
 20
880.527893
 11
381.486550
 21
880.527893
  0
LINE
  8
CSLAYER1
  6
CENTER
 62
     5
 10
350.990646
 20
861.477893
 11
379.725054
 21
861.477893
  0
POINT
  8
CSLAYER1
 62
     7
 10
365.352689
 20
842.427893
  0
LINE
  8
CSLAYER1
  6
CONTINUOUS
 62
     7
 10
376.502689
 20
850.227893
 11
376.502689
 21
815.577893
  0
LINE
  8
CSLAYER1
  6
CONTINUOUS
 62
     7
 10
380.102689
 20
845.407893
 11
380.102689
 21
839.447893
  0
LINE
  8
CSLAYER1
  6
CONTINUOUS
 62
     7
 10
352.502689
 20
845.407893
 11
352.502689
 21
839.447893
  0
LINE
  8
CSLAYER1
  6
CONTINUOUS
 62
     7
 10
378.202689
 20
826.357893
 11
378.202689
 21
820.397893
  0
LINE
  8
CSLAYER1
  6
CONTINUOUS
 62
     7
 10
374.102689
 20
850.227893
 11
376.502689
 21
850.227893
  0
LINE
  8
CSLAYER1
  6
CONTINUOUS
 62
     7
 10
374.102689
 20
815.577893
 11
376.502689
 21
815.577893
  0
LINE
  8
CSLAYER1
  6
CONTINUOUS
 62
     7
 10
376.502689
 20
826.357893
 11
378.202689
 21
826.357893
  0
LINE
  8
CSLAYER1
  6
CONTINUOUS
 62
     7
 10
376.502689
 20
820.397893
 11
378.202689
 21
820.397893
  0
LINE
  8
CSLAYER1
  6
CONTINUOUS
 62
     7
 10
376.502689
 20
845.407893
 11
380.102689
 21
845.407893
  0
LINE
  8
CSLAYER1
  6
CONTINUOUS
 62
     7
 10
376.502689
 20
839.447893
 11
380.102689
 21
839.447893
  0
LINE
  8
CSLAYER1
  6
CONTINUOUS
 62
     7
 10
354.202689
 20
850.227893
 11
354.202689
 21
815.577893
  0
LINE
  8
CSLAYER1
  6
CONTINUOUS
 62
     7
 10
352.502689
 20
826.357893
 11
352.502689
 21
820.397893
  0
LINE
  8
CSLAYER1
  6
CONTINUOUS
 62
     7
 10
356.602689
 20
850.227893
 11
354.202689
 21
850.227893
  0
LINE
  8
CSLAYER1
  6
CONTINUOUS
 62
     7
 10
356.602689
 20
815.577893
 11
354.202689
 21
815.577893
  0
LINE
  8
CSLAYER1
  6
CONTINUOUS
 62
     7
 10
354.202689
 20
826.357893
 11
352.502689
 21
826.357893
  0
LINE
  8
CSLAYER1
  6
CONTINUOUS
 62
     7
 10
354.202689
 20
820.397893
 11
352.502689
 21
820.397893
  0
LINE
  8
CSLAYER1
  6
CONTINUOUS
 62
     7
 10
354.202689
 20
845.407893
 11
352.502689
 21
845.407893
  0
LINE
  8
CSLAYER1
  6
CONTINUOUS
 62
     7
 10
354.202689
 20
839.447893
 11
352.502689
 21
839.447893
  0
LINE
  8
CSLAYER1
  6
CONTINUOUS
 62
     7
 10
371.702689
 20
795.277893
 11
374.102689
 21
795.277893
  0
LINE
  8
CSLAYER1
  6
CONTINUOUS
 62
     7
 10
371.702689
 20
810.282893
 11
359.002689
 21
810.282893
  0
LINE
  8
CSLAYER1
  6
CONTINUOUS
 62
     7
 10
371.702689
 20
798.372893
 11
359.002689
 21
798.372893
  0
LINE
  8
CSLAYER1
  6
CONTINUOUS
 62
     7
 10
359.002689
 20
795.277893
 11
356.602689
 21
795.277893
  0
LINE
  8
CSLAYER1
  6
CONTINUOUS
 62
     7
 10
359.002689
 20
832.427893
 11
359.002689
 21
795.277893
  0
LINE
  8
CSLAYER1
  6
CONTINUOUS
 62
     7
 10
359.002689
 20
832.427893
 11
356.602689
 21
832.427893
  0
LINE
  8
CSLAYER1
  6
CONTINUOUS
 62
     7
 10
359.002689
 20
829.332893
 11
371.702689
 21
829.332893
  0
LINE
  8
CSLAYER1
  6
CONTINUOUS
 62
     7
 10
359.002689
 20
817.422893
 11
371.702689
 21
817.422893
  0
LINE
  8
CSLAYER1
  6
CONTINUOUS
 62
     7
 10
371.702689
 20
832.427893
 11
374.102689
 21
832.427893
  0
LINE
  8
CSLAYER1
  6
CONTINUOUS
 62
     7
 10
371.702689
 20
832.427893
 11
371.702689
 21
795.277893
  0
LINE
  8
CSLAYER1
  6
CENTER
 62
     5
 10
350.990646
 20
823.377893
 11
379.725054
 21
823.377893
  0
POINT
  8
CSLAYER1
 62
     7
 10
365.352689
 20
804.327893
  0
LINE
  8
CSLAYER1
  6
CENTER
 62
     5
 10
350.550272
 20
804.327893
 11
381.486550
 21
804.327893
  0
LINE
  8
CSLAYER1
  6
CONTINUOUS
 62
     7
 10
380.102689
 20
807.307893
 11
380.102689
 21
801.347893
  0
LINE
  8
CSLAYER1
  6
CONTINUOUS
 62
     7
 10
352.502689
 20
807.307893
 11
352.502689
 21
801.347893
  0
LINE
  8
CSLAYER1
  6
CONTINUOUS
 62
     7
 10
378.202689
 20
788.257893
 11
378.202689
 21
782.297893
  0
LINE
  8
CSLAYER1
  6
CONTINUOUS
 62
     7
 10
374.102689
 20
812.127893
 11
376.502689
 21
812.127893
  0
LINE
  8
CSLAYER1
  6
CONTINUOUS
 62
     7
 10
374.102689
 20
777.477893
 11
376.502689
 21
777.477893
  0
LINE
  8
CSLAYER1
  6
CONTINUOUS
 62
     7
 10
376.502689
 20
788.257893
 11
378.202689
 21
788.257893
  0
LINE
  8
CSLAYER1
  6
CONTINUOUS
 62
     7
 10
376.502689
 20
782.297893
 11
378.202689
 21
782.297893
  0
LINE
  8
CSLAYER1
  6
CONTINUOUS
 62
     7
 10
376.502689
 20
807.307893
 11
380.102689
 21
807.307893
  0
LINE
  8
CSLAYER1
  6
CONTINUOUS
 62
     7
 10
376.502689
 20
801.347893
 11
380.102689
 21
801.347893
  0
LINE
  8
CSLAYER1
  6
CONTINUOUS
 62
     7
 10
352.502689
 20
788.257893
 11
352.502689
 21
782.297893
  0
LINE
  8
CSLAYER1
  6
CONTINUOUS
 62
     7
 10
356.602689
 20
812.127893
 11
354.202689
 21
812.127893
  0
LINE
  8
CSLAYER1
  6
CONTINUOUS
 62
     7
 10
356.602689
 20
777.477893
 11
354.202689
 21
777.477893
  0
LINE
  8
CSLAYER1
  6
CONTINUOUS
 62
     7
 10
354.202689
 20
788.257893
 11
352.502689
 21
788.257893
  0
LINE
  8
CSLAYER1
  6
CONTINUOUS
 62
     7
 10
354.202689
 20
782.297893
 11
352.502689
 21
782.297893
  0
LINE
  8
CSLAYER1
  6
CONTINUOUS
 62
     7
 10
354.202689
 20
807.307893
 11
352.502689
 21
807.307893
  0
LINE
  8
CSLAYER1
  6
CONTINUOUS
 62
     7
 10
354.202689
 20
801.347893
 11
352.502689
 21
801.347893
  0
LINE
  8
CSLAYER1
  6
CONTINUOUS
 62
     7
 10
371.702689
 20
757.177893
 11
374.102689
 21
757.177893
  0
LINE
  8
CSLAYER1
  6
CONTINUOUS
 62
     7
 10
371.702689
 20
772.182893
 11
359.002689
 21
772.182893
  0
LINE
  8
CSLAYER1
  6
CONTINUOUS
 62
     7
 10
371.702689
 20
760.272893
 11
359.002689
 21
760.272893
  0
LINE
  8
CSLAYER1
  6
CONTINUOUS
 62
     7
 10
359.002689
 20
757.177893
 11
356.602689
 21
757.177893
  0
LINE
  8
CSLAYER1
  6
CONTINUOUS
 62
     7
 10
359.002689
 20
794.327893
 11
359.002689
 21
757.177893
  0
LINE
  8
CSLAYER1
  6
CONTINUOUS
 62
     7
 10
359.002689
 20
794.327893
 11
356.602689
 21
794.327893
  0
LINE
  8
CSLAYER1
  6
CONTINUOUS
 62
     7
 10
359.002689
 20
791.232893
 11
371.702689
 21
791.232893
  0
LINE
  8
CSLAYER1
  6
CONTINUOUS
 62
     7
 10
359.002689
 20
779.322893
 11
371.702689
 21
779.322893
  0
LINE
  8
CSLAYER1
  6
CONTINUOUS
 62
     7
 10
371.702689
 20
794.327893
 11
374.102689
 21
794.327893
  0
LINE
  8
CSLAYER1
  6
CONTINUOUS
 62
     7
 10
371.702689
 20
794.327893
 11
371.702689
 21
757.177893
  0
LINE
  8
CSLAYER1
  6
CENTER
 62
     5
 10
350.990646
 20
785.277893
 11
379.725054
 21
785.277893
  0
LINE
  8
CSLAYER1
  6
CENTER
 62
     5
 10
350.990646
 20
766.227893
 11
379.725054
 21
766.227893
  0
POINT
  8
CSLAYER1
 62
     7
 10
365.352689
 20
766.227893
  0
LINE
  8
CSLAYER1
  6
CONTINUOUS
 62
     7
 10
376.117165
 20
1000.042337
 11
375.182514
 21
1001.079739
  0
LINE
  8
CSLAYER1
  6
CONTINUOUS
 62
     7
 10
375.182514
 20
1001.079739
 11
374.545223
 21
1001.667016
  0
LINE
  8
CSLAYER1
  6
CONTINUOUS
 62
     7
 10
374.545223
 20
1001.667016
 11
373.837971
 21
1002.212782
  0
LINE
  8
CSLAYER1
  6
CONTINUOUS
 62
     7
 10
373.837971
 20
1002.212782
 11
373.066141
 21
1002.712884
  0
LINE
  8
CSLAYER1
  6
CONTINUOUS
 62
     7
 10
373.066141
 20
1002.712884
 11
372.235607
 21
1003.163517
  0
LINE
  8
CSLAYER1
  6
CONTINUOUS
 62
     7
 10
372.235607
 20
1003.163517
 11
371.352689
 21
1003.561251
  0
LINE
  8
CSLAYER1
  6
CONTINUOUS
 62
     7
 10
371.352689
 20
1003.561251
 11
370.424108
 21
1003.903058
  0
LINE
  8
CSLAYER1
  6
CONTINUOUS
 62
     7
 10
370.424108
 20
1003.903058
 11
369.456931
 21
1004.186338
  0
LINE
  8
CSLAYER1
  6
CONTINUOUS
 62
     7
 10
369.456931
 20
1004.186338
 11
368.458518
 21
1004.408934
  0
LINE
  8
CSLAYER1
  6
CONTINUOUS
 62
     7
 10
368.458518
 20
1004.408934
 11
367.436467
 21
1004.569153
  0
LINE
  8
CSLAYER1
  6
CONTINUOUS
 62
     7
 10
367.436467
 20
1004.569153
 11
366.398558
 21
1004.665774
  0
LINE
  8
CSLAYER1
  6
CONTINUOUS
 62
     7
 10
366.398558
 20
1004.665774
 11
365.352689
 21
1004.698063
  0
LINE
  8
CSLAYER1
  6
CONTINUOUS
 62
     7
 10
365.352689
 20
1004.698063
 11
364.306820
 21
1004.665774
  0
LINE
  8
CSLAYER1
  6
CONTINUOUS
 62
     7
 10
364.306820
 20
1004.665774
 11
363.268911
 21
1004.569153
  0
LINE
  8
CSLAYER1
  6
CONTINUOUS
 62
     7
 10
363.268911
 20
1004.569153
 11
362.246861
 21
1004.408934
  0
LINE
  8
CSLAYER1
  6
CONTINUOUS
 62
     7
 10
362.246861
 20
1004.408934
 11
361.248448
 21
1004.186338
  0
LINE
  8
CSLAYER1
  6
CONTINUOUS
 62
     7
 10
361.248448
 20
1004.186338
 11
360.281270
 21
1003.903058
  0
LINE
  8
CSLAYER1
  6
CONTINUOUS
 62
     7
 10
360.281270
 20
1003.903058
 11
359.352689
 21
1003.561251
  0
LINE
  8
CSLAYER1
  6
CONTINUOUS
 62
     7
 10
359.352689
 20
1003.561251
 11
358.469772
 21
1003.163517
  0
LINE
  8
CSLAYER1
  6
CONTINUOUS
 62
     7
 10
358.469772
 20
1003.163517
 11
357.639238
 21
1002.712884
  0
LINE
  8
CSLAYER1
  6
CONTINUOUS
 62
     7
 10
357.639238
 20
1002.712884
 11
356.867408
 21
1002.212782
  0
LINE
  8
CSLAYER1
  6
CONTINUOUS
 62
     7
 10
356.867408
 20
1002.212782
 11
356.160156
 21
1001.667016
  0
LINE
  8
CSLAYER1
  6
CONTINUOUS
 62
     7
 10
356.160156
 20
1001.667016
 11
355.522865
 21
1001.079739
  0
LINE
  8
CSLAYER1
  6
CONTINUOUS
 62
     7
 10
355.522865
 20
1001.079739
 11
354.588213
 21
1000.042337
  0
LINE
  8
CSLAYER1
  6
CONTINUOUS
 62
     7
 10
371.352689
 20
968.042337
 11
378.352689
 21
968.042337
  0
LINE
  8
CSLAYER1
  6
CONTINUOUS
 62
     7
 10
571.352689
 20
927.627893
 11
571.352689
 21
973.195293
  0
LINE
  8
CSLAYER1
  6
CONTINUOUS
 62
     7
 10
559.352689
 20
927.627893
 11
559.352689
 21
973.195293
  0
LINE
  8
CSLAYER1
  6
CONTINUOUS
 62
     7
 10
560.152689
 20
954.627893
 11
560.152689
 21
975.311387
  0
LINE
  8
CSLAYER1
  6
CONTINUOUS
 62
     7
 10
570.552689
 20
954.627893
 11
570.552689
 21
975.311387
  0
LINE
  8
CSLAYER1
  6
CONTINUOUS
 62
     7
 10
584.352689
 20
1000.042337
 11
552.352689
 21
1000.042337
  0
LINE
  8
CSLAYER1
  6
CONTINUOUS
 62
     7
 10
552.352689
 20
960.642337
 11
552.352689
 21
1007.442337
  0
LINE
  8
CSLAYER1
  6
CONTINUOUS
 62
     7
 10
552.352689
 20
1007.442337
 11
550.352689
 21
1009.442337
  0
LINE
  8
CSLAYER1
  6
CONTINUOUS
 62
     7
 10
550.352689
 20
958.642337
 11
550.352689
 21
1009.442337
  0
LINE
  8
CSLAYER1
  6
CONTINUOUS
 62
     7
 10
590.352689
 20
1004.042337
 11
590.352689
 21
964.042337
  0
LINE
  8
CSLAYER1
  6
CONTINUOUS
 62
     7
 10
603.352689
 20
1004.042337
 11
603.352689
 21
964.042337
  0
LINE
  8
CSLAYER1
  6
CONTINUOUS
 62
     7
 10
606.852689
 20
990.542337
 11
606.852689
 21
977.542337
  0
LINE
  8
CSLAYER1
  6
CONTINUOUS
 62
     7
 10
604.502689
 20
993.042337
 11
604.502689
 21
975.042337
  0
LINE
  8
CSLAYER1
  6
CONTINUOUS
 62
     7
 10
604.502689
 20
991.542337
 11
605.852689
 21
991.542337
  0
LINE
  8
CSLAYER1
  6
CONTINUOUS
 62
     7
 10
605.852689
 20
991.542337
 11
606.852689
 21
990.542337
  0
LINE
  8
CSLAYER1
  6
CONTINUOUS
 62
     7
 10
605.852689
 20
991.542337
 11
605.852689
 21
976.542337
  0
LINE
  8
CSLAYER1
  6
CONTINUOUS
 62
     7
 10
604.502689
 20
993.042337
 11
603.352689
 21
993.042337
  0
LINE
  8
CSLAYER1
  6
CONTINUOUS
 62
     7
 10
590.352689
 20
994.042337
 11
584.352689
 21
1000.042337
  0
LINE
  8
CSLAYER1
  6
CONTINUOUS
 62
     7
 10
584.352689
 20
1000.042337
 11
584.352689
 21
968.042337
  0
LINE
  8
CSLAYER1
  6
CONTINUOUS
 62
     7
 10
584.352689
 20
968.042337
 11
571.352689
 21
968.042337
  0
LINE
  8
CSLAYER1
  6
CONTINUOUS
 62
     7
 10
602.352689
 20
963.042337
 11
601.352689
 21
963.042337
  0
LINE
  8
CSLAYER1
  6
CONTINUOUS
 62
     7
 10
604.502689
 20
976.542337
 11
605.852689
 21
976.542337
  0
LINE
  8
CSLAYER1
  6
CONTINUOUS
 62
     7
 10
605.852689
 20
976.542337
 11
606.852689
 21
977.542337
  0
LINE
  8
CSLAYER1
  6
CONTINUOUS
 62
     7
 10
604.502689
 20
975.042337
 11
603.352689
 21
975.042337
  0
LINE
  8
CSLAYER1
  6
CONTINUOUS
 62
     7
 10
590.352689
 20
974.042337
 11
584.352689
 21
968.042337
  0
ARC
  8
CSLAYER1
  6
CONTINUOUS
 62
     7
 10
602.352689
 20
964.042337
 40
1.000000
 50
270.000000
 51
360.000000
  0
ARC
  8
CSLAYER1
  6
CONTINUOUS
 62
     7
 10
591.352689
 20
964.042337
 40
1.000000
 50
180.000000
 51
270.000000
  0
LINE
  8
CSLAYER1
  6
CONTINUOUS
 62
     7
 10
552.352689
 20
960.642337
 11
550.352689
 21
958.642337
  0
LINE
  8
CSLAYER1
  6
CONTINUOUS
 62
     7
 10
592.352689
 20
963.042337
 11
591.352689
 21
963.042337
  0
LINE
  8
CSLAYER1
  6
CONTINUOUS
 62
     7
 10
559.352689
 20
973.195293
 11
559.443843
 21
973.932020
  0
LINE
  8
CSLAYER1
  6
CONTINUOUS
 62
     7
 10
559.443843
 20
973.932020
 11
559.714534
 21
974.646362
  0
LINE
  8
CSLAYER1
  6
CONTINUOUS
 62
     7
 10
559.714534
 20
974.646362
 11
560.156537
 21
975.316613
  0
LINE
  8
CSLAYER1
  6
CONTINUOUS
 62
     7
 10
560.156537
 20
975.316613
 11
560.756423
 21
975.922410
  0
LINE
  8
CSLAYER1
  6
CONTINUOUS
 62
     7
 10
560.756423
 20
975.922410
 11
561.495964
 21
976.445344
  0
LINE
  8
CSLAYER1
  6
CONTINUOUS
 62
     7
 10
561.495964
 20
976.445344
 11
562.352689
 21
976.869528
  0
LINE
  8
CSLAYER1
  6
CONTINUOUS
 62
     7
 10
562.352689
 20
976.869528
 11
563.300568
 21
977.182071
  0
LINE
  8
CSLAYER1
  6
CONTINUOUS
 62
     7
 10
563.300568
 20
977.182071
 11
564.310800
 21
977.373478
  0
LINE
  8
CSLAYER1
  6
CONTINUOUS
 62
     7
 10
564.310800
 20
977.373478
 11
565.352689
 21
977.437934
  0
LINE
  8
CSLAYER1
  6
CONTINUOUS
 62
     7
 10
565.352689
 20
977.437934
 11
566.394578
 21
977.373478
  0
LINE
  8
CSLAYER1
  6
CONTINUOUS
 62
     7
 10
566.394578
 20
977.373478
 11
567.404810
 21
977.182071
  0
LINE
  8
CSLAYER1
  6
CONTINUOUS
 62
     7
 10
567.404810
 20
977.182071
 11
568.352689
 21
976.869528
  0
LINE
  8
CSLAYER1
  6
CONTINUOUS
 62
     7
 10
568.352689
 20
976.869528
 11
569.209415
 21
976.445344
  0
LINE
  8
CSLAYER1
  6
CONTINUOUS
 62
     7
 10
569.209415
 20
976.445344
 11
569.948956
 21
975.922410
  0
LINE
  8
CSLAYER1
  6
CONTINUOUS
 62
     7
 10
569.948956
 20
975.922410
 11
570.548842
 21
975.316613
  0
LINE
  8
CSLAYER1
  6
CONTINUOUS
 62
     7
 10
570.548842
 20
975.316613
 11
570.990845
 21
974.646362
  0
LINE
  8
CSLAYER1
  6
CONTINUOUS
 62
     7
 10
570.990845
 20
974.646362
 11
571.261536
 21
973.932020
  0
LINE
  8
CSLAYER1
  6
CONTINUOUS
 62
     7
 10
571.261536
 20
973.932020
 11
571.352689
 21
973.195293
  0
LINE
  8
CSLAYER1
  6
CONTINUOUS
 62
     7
 10
571.352689
 20
1003.561251
 11
571.352689
 21
1013.271070
  0
LINE
  8
CSLAYER1
  6
CONTINUOUS
 62
     7
 10
559.352689
 20
1003.561251
 11
559.352689
 21
1013.271070
  0
LINE
  8
CSLAYER1
  6
CONTINUOUS
 62
     7
 10
570.552689
 20
1003.855728
 11
570.552689
 21
1013.271070
  0
LINE
  8
CSLAYER1
  6
CONTINUOUS
 62
     7
 10
560.152689
 20
1003.855728
 11
560.152689
 21
1013.271070
  0
LINE
  8
CSLAYER1
  6
CONTINUOUS
 62
     7
 10
554.588213
 20
1000.042337
 11
555.522865
 21
1001.079739
  0
LINE
  8
CSLAYER1
  6
CONTINUOUS
 62
     7
 10
555.522865
 20
1001.079739
 11
556.160156
 21
1001.667016
  0
LINE
  8
CSLAYER1
  6
CONTINUOUS
 62
     7
 10
556.160156
 20
1001.667016
 11
556.867408
 21
1002.212782
  0
LINE
  8
CSLAYER1
  6
CONTINUOUS
 62
     7
 10
556.867408
 20
1002.212782
 11
557.639238
 21
1002.712884
  0
LINE
  8
CSLAYER1
  6
CONTINUOUS
 62
     7
 10
557.639238
 20
1002.712884
 11
558.469772
 21
1003.163517
  0
LINE
  8
CSLAYER1
  6
CONTINUOUS
 62
     7
 10
558.469772
 20
1003.163517
 11
559.352689
 21
1003.561251
  0
LINE
  8
CSLAYER1
  6
CONTINUOUS
 62
     7
 10
559.352689
 20
1003.561251
 11
560.281270
 21
1003.903058
  0
LINE
  8
CSLAYER1
  6
CONTINUOUS
 62
     7
 10
560.281270
 20
1003.903058
 11
561.248448
 21
1004.186338
  0
LINE
  8
CSLAYER1
  6
CONTINUOUS
 62
     7
 10
561.248448
 20
1004.186338
 11
562.246861
 21
1004.408934
  0
LINE
  8
CSLAYER1
  6
CONTINUOUS
 62
     7
 10
562.246861
 20
1004.408934
 11
563.268911
 21
1004.569153
  0
LINE
  8
CSLAYER1
  6
CONTINUOUS
 62
     7
 10
563.268911
 20
1004.569153
 11
564.306820
 21
1004.665774
  0
LINE
  8
CSLAYER1
  6
CONTINUOUS
 62
     7
 10
564.306820
 20
1004.665774
 11
565.352689
 21
1004.698063
  0
LINE
  8
CSLAYER1
  6
CONTINUOUS
 62
     7
 10
565.352689
 20
1004.698063
 11
566.398558
 21
1004.665774
  0
LINE
  8
CSLAYER1
  6
CONTINUOUS
 62
     7
 10
566.398558
 20
1004.665774
 11
567.436467
 21
1004.569153
  0
LINE
  8
CSLAYER1
  6
CONTINUOUS
 62
     7
 10
567.436467
 20
1004.569153
 11
568.458518
 21
1004.408934
  0
LINE
  8
CSLAYER1
  6
CONTINUOUS
 62
     7
 10
568.458518
 20
1004.408934
 11
569.456931
 21
1004.186338
  0
LINE
  8
CSLAYER1
  6
CONTINUOUS
 62
     7
 10
569.456931
 20
1004.186338
 11
570.424108
 21
1003.903058
  0
LINE
  8
CSLAYER1
  6
CONTINUOUS
 62
     7
 10
570.424108
 20
1003.903058
 11
571.352689
 21
1003.561251
  0
LINE
  8
CSLAYER1
  6
CONTINUOUS
 62
     7
 10
571.352689
 20
1003.561251
 11
572.235607
 21
1003.163517
  0
LINE
  8
CSLAYER1
  6
CONTINUOUS
 62
     7
 10
572.235607
 20
1003.163517
 11
573.066141
 21
1002.712884
  0
LINE
  8
CSLAYER1
  6
CONTINUOUS
 62
     7
 10
573.066141
 20
1002.712884
 11
573.837971
 21
1002.212782
  0
LINE
  8
CSLAYER1
  6
CONTINUOUS
 62
     7
 10
573.837971
 20
1002.212782
 11
574.545223
 21
1001.667016
  0
LINE
  8
CSLAYER1
  6
CONTINUOUS
 62
     7
 10
574.545223
 20
1001.667016
 11
575.182514
 21
1001.079739
  0
LINE
  8
CSLAYER1
  6
CONTINUOUS
 62
     7
 10
575.182514
 20
1001.079739
 11
576.117165
 21
1000.042337
  0
LINE
  8
CSLAYER1
  6
CONTINUOUS
 62
     7
 10
559.352689
 20
968.042337
 11
552.352689
 21
968.042337
  0
LINE
  8
CSLAYER1
  6
CONTINUOUS
 62
     7
 10
550.352689
 20
958.642337
 11
486.702689
 21
958.642337
  0
LINE
  8
CSLAYER1
  6
CONTINUOUS
 62
     7
 10
573.602689
 20
909.627893
 11
557.102689
 21
909.627893
  0
LINE
  8
CSLAYER1
  6
CONTINUOUS
 62
     7
 10
573.602689
 20
927.627893
 11
557.102689
 21
927.627893
  0
LINE
  8
CSLAYER1
  6
CONTINUOUS
 62
     7
 10
573.602689
 20
909.627893
 11
574.102689
 21
910.127893
  0
LINE
  8
CSLAYER1
  6
CONTINUOUS
 62
     7
 10
574.102689
 20
927.127893
 11
573.602689
 21
927.627893
  0
LINE
  8
CSLAYER1
  6
CONTINUOUS
 62
     7
 10
574.102689
 20
910.127893
 11
556.602689
 21
910.127893
  0
LINE
  8
CSLAYER1
  6
CONTINUOUS
 62
     7
 10
574.102689
 20
927.127893
 11
556.602689
 21
927.127893
  0
LINE
  8
CSLAYER1
  6
CONTINUOUS
 62
     7
 10
557.102689
 20
909.627893
 11
556.602689
 21
910.127893
  0
LINE
  8
CSLAYER1
  6
CONTINUOUS
 62
     7
 10
556.602689
 20
927.127893
 11
557.102689
 21
927.627893
  0
POINT
  8
CSLAYER1
 62
     7
 10
565.352689
 20
918.627893
  0
LINE
  8
CSLAYER1
  6
CONTINUOUS
 62
     7
 10
554.202689
 20
926.427893
 11
554.202689
 21
891.777893
  0
LINE
  8
CSLAYER1
  6
CONTINUOUS
 62
     7
 10
550.602689
 20
921.607893
 11
550.602689
 21
915.647893
  0
LINE
  8
CSLAYER1
  6
CONTINUOUS
 62
     7
 10
578.202689
 20
921.607893
 11
578.202689
 21
915.647893
  0
LINE
  8
CSLAYER1
  6
CONTINUOUS
 62
     7
 10
552.502689
 20
902.557893
 11
552.502689
 21
896.597893
  0
LINE
  8
CSLAYER1
  6
CONTINUOUS
 62
     7
 10
556.602689
 20
926.427893
 11
554.202689
 21
926.427893
  0
LINE
  8
CSLAYER1
  6
CONTINUOUS
 62
     7
 10
556.602689
 20
891.777893
 11
554.202689
 21
891.777893
  0
LINE
  8
CSLAYER1
  6
CONTINUOUS
 62
     7
 10
554.202689
 20
902.557893
 11
552.502689
 21
902.557893
  0
LINE
  8
CSLAYER1
  6
CONTINUOUS
 62
     7
 10
554.202689
 20
896.597893
 11
552.502689
 21
896.597893
  0
LINE
  8
CSLAYER1
  6
CONTINUOUS
 62
     7
 10
554.202689
 20
921.607893
 11
550.602689
 21
921.607893
  0
LINE
  8
CSLAYER1
  6
CONTINUOUS
 62
     7
 10
554.202689
 20
915.647893
 11
550.602689
 21
915.647893
  0
LINE
  8
CSLAYER1
  6
CONTINUOUS
 62
     7
 10
576.502689
 20
926.427893
 11
576.502689
 21
891.777893
  0
LINE
  8
CSLAYER1
  6
CONTINUOUS
 62
     7
 10
578.202689
 20
902.557893
 11
578.202689
 21
896.597893
  0
LINE
  8
CSLAYER1
  6
CONTINUOUS
 62
     7
 10
574.102689
 20
926.427893
 11
576.502689
 21
926.427893
  0
LINE
  8
CSLAYER1
  6
CONTINUOUS
 62
     7
 10
574.102689
 20
891.777893
 11
576.502689
 21
891.777893
  0
LINE
  8
CSLAYER1
  6
CONTINUOUS
 62
     7
 10
576.502689
 20
902.557893
 11
578.202689
 21
902.557893
  0
LINE
  8
CSLAYER1
  6
CONTINUOUS
 62
     7
 10
576.502689
 20
896.597893
 11
578.202689
 21
896.597893
  0
LINE
  8
CSLAYER1
  6
CONTINUOUS
 62
     7
 10
576.502689
 20
921.607893
 11
578.202689
 21
921.607893
  0
LINE
  8
CSLAYER1
  6
CONTINUOUS
 62
     7
 10
576.502689
 20
915.647893
 11
578.202689
 21
915.647893
  0
LINE
  8
CSLAYER1
  6
CONTINUOUS
 62
     7
 10
559.002689
 20
871.477893
 11
556.602689
 21
871.477893
  0
LINE
  8
CSLAYER1
  6
CONTINUOUS
 62
     7
 10
559.002689
 20
886.482893
 11
571.702689
 21
886.482893
  0
LINE
  8
CSLAYER1
  6
CONTINUOUS
 62
     7
 10
559.002689
 20
874.572893
 11
571.702689
 21
874.572893
  0
LINE
  8
CSLAYER1
  6
CONTINUOUS
 62
     7
 10
571.702689
 20
871.477893
 11
574.102689
 21
871.477893
  0
LINE
  8
CSLAYER1
  6
CONTINUOUS
 62
     7
 10
556.602689
 20
927.127893
 11
556.602689
 21
747.828301
  0
LINE
  8
CSLAYER1
  6
CONTINUOUS
 62
     7
 10
574.102689
 20
927.127893
 11
574.102689
 21
747.828301
  0
LINE
  8
CSLAYER1
  6
CONTINUOUS
 62
     7
 10
571.702689
 20
908.627893
 11
571.702689
 21
871.477893
  0
LINE
  8
CSLAYER1
  6
CONTINUOUS
 62
     7
 10
571.702689
 20
908.627893
 11
574.102689
 21
908.627893
  0
LINE
  8
CSLAYER1
  6
CONTINUOUS
 62
     7
 10
571.702689
 20
905.532893
 11
559.002689
 21
905.532893
  0
LINE
  8
CSLAYER1
  6
CONTINUOUS
 62
     7
 10
571.702689
 20
893.622893
 11
559.002689
 21
893.622893
  0
LINE
  8
CSLAYER1
  6
CONTINUOUS
 62
     7
 10
559.002689
 20
908.627893
 11
556.602689
 21
908.627893
  0
LINE
  8
CSLAYER1
  6
CONTINUOUS
 62
     7
 10
559.002689
 20
908.627893
 11
559.002689
 21
871.477893
  0
LINE
  8
CSLAYER1
  6
CENTER
 62
     5
 10
580.155107
 20
918.627893
 11
549.218829
 21
918.627893
  0
LINE
  8
CSLAYER1
  6
CENTER
 62
     5
 10
579.714732
 20
899.577893
 11
550.980325
 21
899.577893
  0
LINE
  8
CSLAYER1
  6
CONTINUOUS
 62
     7
 10
554.202689
 20
747.828301
 11
554.202689
 21
812.127893
  0
LINE
  8
CSLAYER1
  6
CONTINUOUS
 62
     7
 10
552.502689
 20
758.608301
 11
552.502689
 21
752.648301
  0
LINE
  8
CSLAYER1
  6
CONTINUOUS
 62
     7
 10
556.602689
 20
747.828301
 11
554.202689
 21
747.828301
  0
LINE
  8
CSLAYER1
  6
CONTINUOUS
 62
     7
 10
554.202689
 20
758.608301
 11
552.502689
 21
758.608301
  0
LINE
  8
CSLAYER1
  6
CONTINUOUS
 62
     7
 10
554.202689
 20
752.648301
 11
552.502689
 21
752.648301
  0
LINE
  8
CSLAYER1
  6
CONTINUOUS
 62
     7
 10
576.502689
 20
747.828301
 11
576.502689
 21
812.127893
  0
LINE
  8
CSLAYER1
  6
CONTINUOUS
 62
     7
 10
578.202689
 20
758.608301
 11
578.202689
 21
752.648301
  0
LINE
  8
CSLAYER1
  6
CONTINUOUS
 62
     7
 10
574.102689
 20
747.828301
 11
576.502689
 21
747.828301
  0
LINE
  8
CSLAYER1
  6
CONTINUOUS
 62
     7
 10
576.502689
 20
758.608301
 11
578.202689
 21
758.608301
  0
LINE
  8
CSLAYER1
  6
CONTINUOUS
 62
     7
 10
576.502689
 20
752.648301
 11
578.202689
 21
752.648301
  0
LINE
  8
CSLAYER1
  6
CENTER
 62
     5
 10
579.714732
 20
755.628301
 11
550.980325
 21
755.628301
  0
LINE
  8
CSLAYER1
  6
CONTINUOUS
 62
     7
 10
574.102689
 20
762.628301
 11
569.852689
 21
762.628301
  0
LINE
  8
CSLAYER1
  6
CONTINUOUS
 62
     7
 10
574.102689
 20
748.628301
 11
569.852689
 21
748.628301
  0
LINE
  8
CSLAYER1
  6
CONTINUOUS
 62
     7
 10
560.852689
 20
762.628301
 11
556.602689
 21
762.628301
  0
LINE
  8
CSLAYER1
  6
CONTINUOUS
 62
     7
 10
560.852689
 20
748.628301
 11
556.602689
 21
748.628301
  0
POINT
  8
CSLAYER1
 62
     7
 10
565.352689
 20
880.527893
  0
LINE
  8
CSLAYER1
  6
CONTINUOUS
 62
     7
 10
554.202689
 20
888.327893
 11
554.202689
 21
853.677893
  0
LINE
  8
CSLAYER1
  6
CONTINUOUS
 62
     7
 10
550.602689
 20
883.507893
 11
550.602689
 21
877.547893
  0
LINE
  8
CSLAYER1
  6
CONTINUOUS
 62
     7
 10
578.202689
 20
883.507893
 11
578.202689
 21
877.547893
  0
LINE
  8
CSLAYER1
  6
CONTINUOUS
 62
     7
 10
552.502689
 20
864.457893
 11
552.502689
 21
858.497893
  0
LINE
  8
CSLAYER1
  6
CONTINUOUS
 62
     7
 10
556.602689
 20
888.327893
 11
554.202689
 21
888.327893
  0
LINE
  8
CSLAYER1
  6
CONTINUOUS
 62
     7
 10
556.602689
 20
853.677893
 11
554.202689
 21
853.677893
  0
LINE
  8
CSLAYER1
  6
CONTINUOUS
 62
     7
 10
554.202689
 20
864.457893
 11
552.502689
 21
864.457893
  0
LINE
  8
CSLAYER1
  6
CONTINUOUS
 62
     7
 10
554.202689
 20
858.497893
 11
552.502689
 21
858.497893
  0
LINE
  8
CSLAYER1
  6
CONTINUOUS
 62
     7
 10
554.202689
 20
883.507893
 11
550.602689
 21
883.507893
  0
LINE
  8
CSLAYER1
  6
CONTINUOUS
 62
     7
 10
554.202689
 20
877.547893
 11
550.602689
 21
877.547893
  0
LINE
  8
CSLAYER1
  6
CONTINUOUS
 62
     7
 10
576.502689
 20
888.327893
 11
576.502689
 21
853.677893
  0
LINE
  8
CSLAYER1
  6
CONTINUOUS
 62
     7
 10
578.202689
 20
864.457893
 11
578.202689
 21
858.497893
  0
LINE
  8
CSLAYER1
  6
CONTINUOUS
 62
     7
 10
574.102689
 20
888.327893
 11
576.502689
 21
888.327893
  0
LINE
  8
CSLAYER1
  6
CONTINUOUS
 62
     7
 10
574.102689
 20
853.677893
 11
576.502689
 21
853.677893
  0
LINE
  8
CSLAYER1
  6
CONTINUOUS
 62
     7
 10
576.502689
 20
864.457893
 11
578.202689
 21
864.457893
  0
LINE
  8
CSLAYER1
  6
CONTINUOUS
 62
     7
 10
576.502689
 20
858.497893
 11
578.202689
 21
858.497893
  0
LINE
  8
CSLAYER1
  6
CONTINUOUS
 62
     7
 10
576.502689
 20
883.507893
 11
578.202689
 21
883.507893
  0
LINE
  8
CSLAYER1
  6
CONTINUOUS
 62
     7
 10
576.502689
 20
877.547893
 11
578.202689
 21
877.547893
  0
LINE
  8
CSLAYER1
  6
CONTINUOUS
 62
     7
 10
559.002689
 20
833.377893
 11
556.602689
 21
833.377893
  0
LINE
  8
CSLAYER1
  6
CONTINUOUS
 62
     7
 10
559.002689
 20
848.382893
 11
571.702689
 21
848.382893
  0
LINE
  8
CSLAYER1
  6
CONTINUOUS
 62
     7
 10
559.002689
 20
836.472893
 11
571.702689
 21
836.472893
  0
LINE
  8
CSLAYER1
  6
CONTINUOUS
 62
     7
 10
571.702689
 20
833.377893
 11
574.102689
 21
833.377893
  0
LINE
  8
CSLAYER1
  6
CONTINUOUS
 62
     7
 10
571.702689
 20
870.527893
 11
571.702689
 21
833.377893
  0
LINE
  8
CSLAYER1
  6
CONTINUOUS
 62
     7
 10
571.702689
 20
870.527893
 11
574.102689
 21
870.527893
  0
LINE
  8
CSLAYER1
  6
CONTINUOUS
 62
     7
 10
571.702689
 20
867.432893
 11
559.002689
 21
867.432893
  0
LINE
  8
CSLAYER1
  6
CONTINUOUS
 62
     7
 10
571.702689
 20
855.522893
 11
559.002689
 21
855.522893
  0
LINE
  8
CSLAYER1
  6
CONTINUOUS
 62
     7
 10
559.002689
 20
870.527893
 11
556.602689
 21
870.527893
  0
LINE
  8
CSLAYER1
  6
CONTINUOUS
 62
     7
 10
559.002689
 20
870.527893
 11
559.002689
 21
833.377893
  0
LINE
  8
CSLAYER1
  6
CENTER
 62
     5
 10
579.714732
 20
842.427893
 11
550.980325
 21
842.427893
  0
LINE
  8
CSLAYER1
  6
CENTER
 62
     5
 10
580.155107
 20
880.527893
 11
549.218829
 21
880.527893
  0
LINE
  8
CSLAYER1
  6
CENTER
 62
     5
 10
579.714732
 20
861.477893
 11
550.980325
 21
861.477893
  0
POINT
  8
CSLAYER1
 62
     7
 10
565.352689
 20
842.427893
  0
LINE
  8
CSLAYER1
  6
CONTINUOUS
 62
     7
 10
554.202689
 20
850.227893
 11
554.202689
 21
815.577893
  0
LINE
  8
CSLAYER1
  6
CONTINUOUS
 62
     7
 10
550.602689
 20
845.407893
 11
550.602689
 21
839.447893
  0
LINE
  8
CSLAYER1
  6
CONTINUOUS
 62
     7
 10
578.202689
 20
845.407893
 11
578.202689
 21
839.447893
  0
LINE
  8
CSLAYER1
  6
CONTINUOUS
 62
     7
 10
552.502689
 20
826.357893
 11
552.502689
 21
820.397893
  0
LINE
  8
CSLAYER1
  6
CONTINUOUS
 62
     7
 10
556.602689
 20
850.227893
 11
554.202689
 21
850.227893
  0
LINE
  8
CSLAYER1
  6
CONTINUOUS
 62
     7
 10
556.602689
 20
815.577893
 11
554.202689
 21
815.577893
  0
LINE
  8
CSLAYER1
  6
CONTINUOUS
 62
     7
 10
554.202689
 20
826.357893
 11
552.502689
 21
826.357893
  0
LINE
  8
CSLAYER1
  6
CONTINUOUS
 62
     7
 10
554.202689
 20
820.397893
 11
552.502689
 21
820.397893
  0
LINE
  8
CSLAYER1
  6
CONTINUOUS
 62
     7
 10
554.202689
 20
845.407893
 11
550.602689
 21
845.407893
  0
LINE
  8
CSLAYER1
  6
CONTINUOUS
 62
     7
 10
554.202689
 20
839.447893
 11
550.602689
 21
839.447893
  0
LINE
  8
CSLAYER1
  6
CONTINUOUS
 62
     7
 10
576.502689
 20
850.227893
 11
576.502689
 21
815.577893
  0
LINE
  8
CSLAYER1
  6
CONTINUOUS
 62
     7
 10
578.202689
 20
826.357893
 11
578.202689
 21
820.397893
  0
LINE
  8
CSLAYER1
  6
CONTINUOUS
 62
     7
 10
574.102689
 20
850.227893
 11
576.502689
 21
850.227893
  0
LINE
  8
CSLAYER1
  6
CONTINUOUS
 62
     7
 10
574.102689
 20
815.577893
 11
576.502689
 21
815.577893
  0
LINE
  8
CSLAYER1
  6
CONTINUOUS
 62
     7
 10
576.502689
 20
826.357893
 11
578.202689
 21
826.357893
  0
LINE
  8
CSLAYER1
  6
CONTINUOUS
 62
     7
 10
576.502689
 20
820.397893
 11
578.202689
 21
820.397893
  0
LINE
  8
CSLAYER1
  6
CONTINUOUS
 62
     7
 10
576.502689
 20
845.407893
 11
578.202689
 21
845.407893
  0
LINE
  8
CSLAYER1
  6
CONTINUOUS
 62
     7
 10
576.502689
 20
839.447893
 11
578.202689
 21
839.447893
  0
LINE
  8
CSLAYER1
  6
CONTINUOUS
 62
     7
 10
559.002689
 20
795.277893
 11
556.602689
 21
795.277893
  0
LINE
  8
CSLAYER1
  6
CONTINUOUS
 62
     7
 10
559.002689
 20
810.282893
 11
571.702689
 21
810.282893
  0
LINE
  8
CSLAYER1
  6
CONTINUOUS
 62
     7
 10
559.002689
 20
798.372893
 11
571.702689
 21
798.372893
  0
LINE
  8
CSLAYER1
  6
CONTINUOUS
 62
     7
 10
571.702689
 20
795.277893
 11
574.102689
 21
795.277893
  0
LINE
  8
CSLAYER1
  6
CONTINUOUS
 62
     7
 10
571.702689
 20
832.427893
 11
571.702689
 21
795.277893
  0
LINE
  8
CSLAYER1
  6
CONTINUOUS
 62
     7
 10
571.702689
 20
832.427893
 11
574.102689
 21
832.427893
  0
LINE
  8
CSLAYER1
  6
CONTINUOUS
 62
     7
 10
571.702689
 20
829.332893
 11
559.002689
 21
829.332893
  0
LINE
  8
CSLAYER1
  6
CONTINUOUS
 62
     7
 10
571.702689
 20
817.422893
 11
559.002689
 21
817.422893
  0
LINE
  8
CSLAYER1
  6
CONTINUOUS
 62
     7
 10
559.002689
 20
832.427893
 11
556.602689
 21
832.427893
  0
LINE
  8
CSLAYER1
  6
CONTINUOUS
 62
     7
 10
559.002689
 20
832.427893
 11
559.002689
 21
795.277893
  0
LINE
  8
CSLAYER1
  6
CENTER
 62
     5
 10
579.714732
 20
823.377893
 11
550.980325
 21
823.377893
  0
POINT
  8
CSLAYER1
 62
     7
 10
565.352689
 20
804.327893
  0
LINE
  8
CSLAYER1
  6
CENTER
 62
     5
 10
580.155107
 20
804.327893
 11
549.218829
 21
804.327893
  0
LINE
  8
CSLAYER1
  6
CONTINUOUS
 62
     7
 10
550.602689
 20
807.307893
 11
550.602689
 21
801.347893
  0
LINE
  8
CSLAYER1
  6
CONTINUOUS
 62
     7
 10
578.202689
 20
807.307893
 11
578.202689
 21
801.347893
  0
LINE
  8
CSLAYER1
  6
CONTINUOUS
 62
     7
 10
552.502689
 20
788.257893
 11
552.502689
 21
782.297893
  0
LINE
  8
CSLAYER1
  6
CONTINUOUS
 62
     7
 10
556.602689
 20
812.127893
 11
554.202689
 21
812.127893
  0
LINE
  8
CSLAYER1
  6
CONTINUOUS
 62
     7
 10
556.602689
 20
777.477893
 11
554.202689
 21
777.477893
  0
LINE
  8
CSLAYER1
  6
CONTINUOUS
 62
     7
 10
554.202689
 20
788.257893
 11
552.502689
 21
788.257893
  0
LINE
  8
CSLAYER1
  6
CONTINUOUS
 62
     7
 10
554.202689
 20
782.297893
 11
552.502689
 21
782.297893
  0
LINE
  8
CSLAYER1
  6
CONTINUOUS
 62
     7
 10
554.202689
 20
807.307893
 11
550.602689
 21
807.307893
  0
LINE
  8
CSLAYER1
  6
CONTINUOUS
 62
     7
 10
554.202689
 20
801.347893
 11
550.602689
 21
801.347893
  0
LINE
  8
CSLAYER1
  6
CONTINUOUS
 62
     7
 10
578.202689
 20
788.257893
 11
578.202689
 21
782.297893
  0
LINE
  8
CSLAYER1
  6
CONTINUOUS
 62
     7
 10
574.102689
 20
812.127893
 11
576.502689
 21
812.127893
  0
LINE
  8
CSLAYER1
  6
CONTINUOUS
 62
     7
 10
574.102689
 20
777.477893
 11
576.502689
 21
777.477893
  0
LINE
  8
CSLAYER1
  6
CONTINUOUS
 62
     7
 10
576.502689
 20
788.257893
 11
578.202689
 21
788.257893
  0
LINE
  8
CSLAYER1
  6
CONTINUOUS
 62
     7
 10
576.502689
 20
782.297893
 11
578.202689
 21
782.297893
  0
LINE
  8
CSLAYER1
  6
CONTINUOUS
 62
     7
 10
576.502689
 20
807.307893
 11
578.202689
 21
807.307893
  0
LINE
  8
CSLAYER1
  6
CONTINUOUS
 62
     7
 10
576.502689
 20
801.347893
 11
578.202689
 21
801.347893
  0
LINE
  8
CSLAYER1
  6
CONTINUOUS
 62
     7
 10
559.002689
 20
757.177893
 11
556.602689
 21
757.177893
  0
LINE
  8
CSLAYER1
  6
CONTINUOUS
 62
     7
 10
559.002689
 20
772.182893
 11
571.702689
 21
772.182893
  0
LINE
  8
CSLAYER1
  6
CONTINUOUS
 62
     7
 10
571.702689
 20
757.177893
 11
574.102689
 21
757.177893
  0
LINE
  8
CSLAYER1
  6
CONTINUOUS
 62
     7
 10
559.002689
 20
760.272893
 11
571.702689
 21
760.272893
  0
LINE
  8
CSLAYER1
  6
CONTINUOUS
 62
     7
 10
571.702689
 20
794.327893
 11
571.702689
 21
757.177893
  0
LINE
  8
CSLAYER1
  6
CONTINUOUS
 62
     7
 10
571.702689
 20
794.327893
 11
574.102689
 21
794.327893
  0
LINE
  8
CSLAYER1
  6
CONTINUOUS
 62
     7
 10
571.702689
 20
791.232893
 11
559.002689
 21
791.232893
  0
LINE
  8
CSLAYER1
  6
CONTINUOUS
 62
     7
 10
571.702689
 20
779.322893
 11
559.002689
 21
779.322893
  0
LINE
  8
CSLAYER1
  6
CONTINUOUS
 62
     7
 10
559.002689
 20
794.327893
 11
556.602689
 21
794.327893
  0
LINE
  8
CSLAYER1
  6
CONTINUOUS
 62
     7
 10
559.002689
 20
794.327893
 11
559.002689
 21
757.177893
  0
LINE
  8
CSLAYER1
  6
CENTER
 62
     5
 10
579.714732
 20
785.277893
 11
550.980325
 21
785.277893
  0
LINE
  8
CSLAYER1
  6
CENTER
 62
     5
 10
579.714732
 20
766.227893
 11
550.980325
 21
766.227893
  0
POINT
  8
CSLAYER1
 62
     7
 10
565.352689
 20
766.227893
  0
INSERT
  8
CSLAYER1
  2
BLKF0005
 10
0.0
 20
0.0
 30
0.0
  0
INSERT
  8
CSLAYER1
  2
BLKF0006
 10
0.0
 20
0.0
 30
0.0
  0
DIMENSION
  8
CSLAYER1
 62
     7
  2
*D0000
 10
2179.537807
 20
544.535046
 11
2169.537842
 21
467.035187
 13
2035.798115
 23
389.535046
 14
2035.598115
 24
544.535046
 50
90.000000
  0
DIMENSION
  8
CSLAYER1
 62
     7
  2
*D0001
 10
2179.537807
 20
1102.621070
 11
2169.537842
 21
823.578125
 13
2035.598115
 23
544.535046
 14
2035.598115
 24
1102.621070
 50
90.000000
 70
1
  0
DIMENSION
  8
CSLAYER1
 62
     7
  2
*D0002
 10
2282.131014
 20
389.535046
 11
2272.131104
 21
746.078125
 13
2282.131014
 23
1102.621070
 14
2282.131014
 24
389.535046
 50
90.000000
 70
1
  0
TEXT
  8
CSLAYER1
 62
     5
 10
874.987671
 20
783.180664
 40
40.000000
 41
0.782609
  1
ギヤードモ－ター
 50
0.000000
 51
0.000000
  7
EASYDRAW_FONT
 72
     5
 11
1114.987671
 21
783.180664
  0
LINE
  8
CSLAYER1
  6
CONTINUOUS
 62
     5
 10
1107.290786
 20
778.424233
 11
869.270028
 21
778.424233
  0
LINE
  8
CSLAYER1
  6
CONTINUOUS
 62
     5
 10
1243.265014
 20
636.425830
 11
1107.290786
 21
778.424233
  0
LINE
  8
CSLAYER1
  6
CONTINUOUS
 62
     5
 10
1243.265014
 20
636.425830
 11
1217.615352
 21
651.985227
  0
LINE
  8
CSLAYER1
  6
CONTINUOUS
 62
     5
 10
1243.265014
 20
636.425830
 11
1228.831454
 21
662.725494
  0
TEXT
  8
CSLAYER1
 62
     5
 10
755.679321
 20
675.579102
 40
40.000000
 41
0.803571
  1
上限・下限
 50
0.000000
 51
0.000000
  7
EASYDRAW_FONT
 72
     5
 11
905.679321
 21
675.579102
  0
TEXT
  8
CSLAYER1
 62
     5
 10
751.796021
 20
626.409180
 40
40.000000
 41
0.782609
  1
リミットスイッチ
 50
0.000000
 51
0.000000
  7
EASYDRAW_FONT
 72
     5
 11
991.796021
 21
626.409180
  0
LINE
  8
CSLAYER1
  6
CONTINUOUS
 62
     5
 10
750.590778
 20
620.052427
 11
997.166866
 21
620.052427
  0
LINE
  8
CSLAYER1
  6
CONTINUOUS
 62
     5
 10
576.352689
 20
494.243672
 11
750.590778
 21
620.052427
  0
LINE
  8
CSLAYER1
  6
CONTINUOUS
 62
     5
 10
576.352689
 20
494.243672
 11
595.300907
 21
517.502328
  0
LINE
  8
CSLAYER1
  6
CONTINUOUS
 62
     5
 10
576.352689
 20
494.243672
 11
604.391655
 21
504.912150
  0
DIMENSION
  8
CSLAYER1
 62
     7
  2
*D0003
 10
2035.798115
 20
274.437337
 11
1585.798096
 21
284.437286
 13
1135.798115
 23
389.535046
 14
2035.798115
 24
389.535046
 52
270.000000
 70
1
  0
DIMENSION
  8
CSLAYER1
 62
     7
  2
*D0004
 10
665.352689
 20
274.437337
 11
465.352692
 21
284.437286
 13
265.352689
 23
389.535046
 14
665.352689
 24
389.535046
 52
270.000000
 70
1
  0
LINE
  8
CSLAYER1
  6
CONTINUOUS
 62
     4
 10
301.352689
 20
1040.421070
 11
312.352689
 21
1040.421070
  0
LINE
  8
CSLAYER1
  6
CONTINUOUS
 62
     3
 10
312.352689
 20
1040.421070
 11
312.352689
 21
1057.621070
  0
INSERT
  8
CSLAYER1
  2
BLKF0007
 10
0.0
 20
0.0
 30
0.0
  0
LINE
  8
CSLAYER1
  6
CONTINUOUS
 62
     3
 10
592.352689
 20
1035.720909
 11
338.352689
 21
1035.720909
  0
LINE
  8
CSLAYER1
  6
CONTINUOUS
 62
     3
 10
292.352689
 20
1005.421070
 11
292.352689
 21
1057.621070
  0
LINE
  8
CSLAYER1
  6
CONTINUOUS
 62
     3
 10
301.352689
 20
1005.421070
 11
301.352689
 21
1057.621070
  0
LINE
  8
CSLAYER1
  6
CONTINUOUS
 62
     3
 10
215.352689
 20
1057.621070
 11
715.352689
 21
1057.621070
  0
LINE
  8
CSLAYER1
  6
CONTINUOUS
 62
     3
 10
292.352689
 20
1005.421070
 11
301.352689
 21
1005.421070
  0
LINE
  8
CSLAYER1
  6
CENTER
 62
     5
 10
281.352689
 20
1021.921070
 11
649.352689
 21
1021.921070
  0
LINE
  8
CSLAYER1
  6
CONTINUOUS
 62
     3
 10
309.352689
 20
1037.921070
 11
318.352689
 21
1037.921070
  0
LINE
  8
CSLAYER1
  6
CONTINUOUS
 62
     3
 10
329.352689
 20
1037.921070
 11
338.352689
 21
1037.921070
  0
LINE
  8
CSLAYER1
  6
CONTINUOUS
 62
     3
 10
289.352689
 20
1010.951415
 11
289.352689
 21
1032.890725
  0
LINE
  8
CSLAYER1
  6
CONTINUOUS
 62
     3
 10
292.352689
 20
1032.671070
 11
289.352689
 21
1032.671070
  0
LINE
  8
CSLAYER1
  6
CONTINUOUS
 62
     3
 10
292.352689
 20
1011.171070
 11
289.352689
 21
1011.171070
  0
LINE
  8
CSLAYER1
  6
CONTINUOUS
 62
     3
 10
292.352689
 20
1020.408873
 11
289.352689
 21
1023.908873
  0
LINE
  8
CSLAYER1
  6
CONTINUOUS
 62
     3
 10
302.352689
 20
1030.071070
 11
302.352689
 21
1013.771070
  0
LINE
  8
CSLAYER1
  6
CONTINUOUS
 62
     3
 10
302.852689
 20
1030.571070
 11
302.352689
 21
1030.071070
  0
LINE
  8
CSLAYER1
  6
CONTINUOUS
 62
     3
 10
302.352689
 20
1013.771070
 11
302.852689
 21
1013.271070
  0
LINE
  8
CSLAYER1
  6
CONTINUOUS
 62
     3
 10
281.352689
 20
1030.921070
 11
281.352689
 21
1012.921070
  0
LINE
  8
CSLAYER1
  6
CONTINUOUS
 62
     3
 10
289.352689
 20
1027.405897
 11
282.489870
 21
1027.405897
  0
LINE
  8
CSLAYER1
  6
CONTINUOUS
 62
     3
 10
289.352689
 20
1032.890725
 11
282.489870
 21
1032.890725
  0
LINE
  8
CSLAYER1
  6
CONTINUOUS
 62
     3
 10
281.352689
 20
1030.921070
 11
282.489870
 21
1032.890725
  0
ARC
  8
CSLAYER1
  6
CONTINUOUS
 62
     3
 10
285.132734
 20
1030.148311
 40
3.808617
 50
185.661633
 51
226.059028
  0
ARC
  8
CSLAYER1
  6
CONTINUOUS
 62
     3
 10
295.148433
 20
1021.921070
 40
13.795744
 50
156.573402
 51
203.426598
  0
LINE
  8
CSLAYER1
  6
CONTINUOUS
 62
     3
 10
289.352689
 20
1016.436242
 11
282.489870
 21
1016.436242
  0
LINE
  8
CSLAYER1
  6
CONTINUOUS
 62
     3
 10
289.352689
 20
1010.951415
 11
282.489870
 21
1010.951415
  0
LINE
  8
CSLAYER1
  6
CONTINUOUS
 62
     3
 10
281.352689
 20
1012.921070
 11
282.489870
 21
1010.951415
  0
ARC
  8
CSLAYER1
  6
CONTINUOUS
 62
     3
 10
285.132734
 20
1013.693829
 40
3.808617
 50
133.940972
 51
174.338367
  0
LINE
  8
CSLAYER1
  6
CONTINUOUS
 62
     3
 10
302.352689
 20
1016.471070
 11
301.352689
 21
1016.471070
  0
LINE
  8
CSLAYER1
  6
CONTINUOUS
 62
     3
 10
302.352689
 20
1027.371070
 11
301.352689
 21
1027.371070
  0
LINE
  8
CSLAYER1
  6
CONTINUOUS
 62
     3
 10
302.852689
 20
1013.271070
 11
302.852689
 21
1030.571070
  0
LINE
  8
CSLAYER1
  6
CONTINUOUS
 62
     3
 10
302.852689
 20
1013.271070
 11
309.352689
 21
1013.271070
  0
LINE
  8
CSLAYER1
  6
CONTINUOUS
 62
     3
 10
318.352689
 20
1030.571070
 11
612.352689
 21
1030.571070
  0
LINE
  8
CSLAYER1
  6
CONTINUOUS
 62
     3
 10
309.352689
 20
1030.571070
 11
302.852689
 21
1030.571070
  0
LINE
  8
CSLAYER1
  6
CONTINUOUS
 62
     3
 10
318.352689
 20
1013.271070
 11
612.352689
 21
1013.271070
  0
LINE
  8
CSLAYER1
  6
CONTINUOUS
 62
     3
 10
329.352689
 20
1030.571070
 11
329.352689
 21
1037.921070
  0
LINE
  8
CSLAYER1
  6
CONTINUOUS
 62
     3
 10
338.352689
 20
1030.571070
 11
338.352689
 21
1037.921070
  0
LINE
  8
CSLAYER1
  6
CONTINUOUS
 62
     7
 10
602.352689
 20
1005.042337
 11
601.352689
 21
1005.042337
  0
ARC
  8
CSLAYER1
  6
CONTINUOUS
 62
     7
 10
602.352689
 20
1004.042337
 40
1.000000
 50
0.000000
 51
90.000000
  0
ARC
  8
CSLAYER1
  6
CONTINUOUS
 62
     7
 10
591.352689
 20
1004.042337
 40
1.000000
 50
90.000000
 51
180.000000
  0
LINE
  8
CSLAYER1
  6
CONTINUOUS
 62
     7
 10
592.352689
 20
1005.042337
 11
591.352689
 21
1005.042337
  0
LINE
  8
CSLAYER1
  6
CONTINUOUS
 62
     4
 10
629.352689
 20
1040.421070
 11
618.352689
 21
1040.421070
  0
LINE
  8
CSLAYER1
  6
CONTINUOUS
 62
     3
 10
618.352689
 20
1040.421070
 11
618.352689
 21
1057.621070
  0
INSERT
  8
CSLAYER1
  2
BLKF0008
 10
0.0
 20
0.0
 30
0.0
  0
LINE
  8
CSLAYER1
  6
CONTINUOUS
 62
     3
 10
638.352689
 20
1005.421070
 11
638.352689
 21
1057.621070
  0
LINE
  8
CSLAYER1
  6
CONTINUOUS
 62
     3
 10
629.352689
 20
1005.421070
 11
629.352689
 21
1057.621070
  0
LINE
  8
CSLAYER1
  6
CONTINUOUS
 62
     3
 10
638.352689
 20
1005.421070
 11
629.352689
 21
1005.421070
  0
LINE
  8
CSLAYER1
  6
CONTINUOUS
 62
     3
 10
621.352689
 20
1037.921070
 11
612.352689
 21
1037.921070
  0
LINE
  8
CSLAYER1
  6
CONTINUOUS
 62
     3
 10
601.352689
 20
1037.921070
 11
592.352689
 21
1037.921070
  0
LINE
  8
CSLAYER1
  6
CONTINUOUS
 62
     3
 10
641.352689
 20
1010.951415
 11
641.352689
 21
1032.890725
  0
LINE
  8
CSLAYER1
  6
CONTINUOUS
 62
     3
 10
638.352689
 20
1032.671070
 11
641.352689
 21
1032.671070
  0
LINE
  8
CSLAYER1
  6
CONTINUOUS
 62
     3
 10
638.352689
 20
1011.171070
 11
641.352689
 21
1011.171070
  0
LINE
  8
CSLAYER1
  6
CONTINUOUS
 62
     3
 10
638.352689
 20
1020.408873
 11
641.352689
 21
1023.908873
  0
LINE
  8
CSLAYER1
  6
CONTINUOUS
 62
     3
 10
628.352689
 20
1030.071070
 11
628.352689
 21
1013.771070
  0
LINE
  8
CSLAYER1
  6
CONTINUOUS
 62
     3
 10
627.852689
 20
1030.571070
 11
628.352689
 21
1030.071070
  0
LINE
  8
CSLAYER1
  6
CONTINUOUS
 62
     3
 10
628.352689
 20
1013.771070
 11
627.852689
 21
1013.271070
  0
LINE
  8
CSLAYER1
  6
CONTINUOUS
 62
     3
 10
649.352689
 20
1030.921070
 11
649.352689
 21
1012.921070
  0
LINE
  8
CSLAYER1
  6
CONTINUOUS
 62
     3
 10
641.352689
 20
1027.405897
 11
648.215508
 21
1027.405897
  0
LINE
  8
CSLAYER1
  6
CONTINUOUS
 62
     3
 10
641.352689
 20
1032.890725
 11
648.215508
 21
1032.890725
  0
LINE
  8
CSLAYER1
  6
CONTINUOUS
 62
     3
 10
649.352689
 20
1030.921070
 11
648.215508
 21
1032.890725
  0
ARC
  8
CSLAYER1
  6
CONTINUOUS
 62
     3
 10
645.572645
 20
1030.148311
 40
3.808617
 50
313.940972
 51
354.338367
  0
ARC
  8
CSLAYER1
  6
CONTINUOUS
 62
     3
 10
635.556945
 20
1021.921070
 40
13.795744
 50
-23.426598
 51
23.426598
  0
LINE
  8
CSLAYER1
  6
CONTINUOUS
 62
     3
 10
641.352689
 20
1016.436242
 11
648.215508
 21
1016.436242
  0
LINE
  8
CSLAYER1
  6
CONTINUOUS
 62
     3
 10
641.352689
 20
1010.951415
 11
648.215508
 21
1010.951415
  0
LINE
  8
CSLAYER1
  6
CONTINUOUS
 62
     3
 10
649.352689
 20
1012.921070
 11
648.215508
 21
1010.951415
  0
ARC
  8
CSLAYER1
  6
CONTINUOUS
 62
     3
 10
645.572645
 20
1013.693829
 40
3.808617
 50
5.661633
 51
46.059028
  0
LINE
  8
CSLAYER1
  6
CONTINUOUS
 62
     3
 10
628.352689
 20
1016.471070
 11
629.352689
 21
1016.471070
  0
LINE
  8
CSLAYER1
  6
CONTINUOUS
 62
     3
 10
628.352689
 20
1027.371070
 11
629.352689
 21
1027.371070
  0
LINE
  8
CSLAYER1
  6
CONTINUOUS
 62
     3
 10
627.852689
 20
1013.271070
 11
627.852689
 21
1030.571070
  0
LINE
  8
CSLAYER1
  6
CONTINUOUS
 62
     3
 10
627.852689
 20
1013.271070
 11
621.352689
 21
1013.271070
  0
LINE
  8
CSLAYER1
  6
CONTINUOUS
 62
     3
 10
621.352689
 20
1030.571070
 11
627.852689
 21
1030.571070
  0
LINE
  8
CSLAYER1
  6
CONTINUOUS
 62
     3
 10
601.352689
 20
1030.571070
 11
601.352689
 21
1037.921070
  0
LINE
  8
CSLAYER1
  6
CONTINUOUS
 62
     3
 10
592.352689
 20
1030.571070
 11
592.352689
 21
1037.921070
  0
LINE
  8
CSLAYER1
  6
CONTINUOUS
 62
     3
 10
475.771580
 20
674.670964
 11
475.913015
 21
674.670964
  0
LINE
  8
CSLAYER1
  6
CONTINUOUS
 62
     3
 10
473.679967
 20
667.713881
 11
473.679967
 21
585.462916
  0
LINE
  8
CSLAYER1
  6
CONTINUOUS
 62
     3
 10
478.062585
 20
667.160025
 11
478.062585
 21
584.931173
  0
LINE
  8
CSLAYER1
  6
CONTINUOUS
 62
     3
 10
493.714791
 20
663.082564
 11
493.714791
 21
580.999382
  0
LINE
  8
CSLAYER1
  6
CONTINUOUS
 62
     3
 10
498.097409
 20
661.243227
 11
498.097409
 21
579.242425
  0
LINE
  8
CSLAYER1
  6
CONTINUOUS
 62
     3
 10
507.779096
 20
655.737313
 11
507.779096
 21
573.977621
  0
LINE
  8
CSLAYER1
  6
CONTINUOUS
 62
     3
 10
511.315356
 20
653.008482
 11
511.315356
 21
571.423767
  0
LINE
  8
CSLAYER1
  6
CONTINUOUS
 62
     3
 10
519.731157
 20
643.667487
 11
519.731157
 21
563.051284
  0
LINE
  8
CSLAYER1
  6
CONTINUOUS
 62
     3
 10
457.025411
 20
667.713881
 11
457.025411
 21
585.462916
  0
LINE
  8
CSLAYER1
  6
CONTINUOUS
 62
     3
 10
452.642794
 20
667.160025
 11
452.642794
 21
584.931173
  0
LINE
  8
CSLAYER1
  6
CONTINUOUS
 62
     3
 10
436.990587
 20
663.082564
 11
436.990587
 21
580.999382
  0
LINE
  8
CSLAYER1
  6
CONTINUOUS
 62
     3
 10
432.607969
 20
661.243227
 11
432.607969
 21
579.242425
  0
LINE
  8
CSLAYER1
  6
CONTINUOUS
 62
     3
 10
422.926282
 20
655.737313
 11
422.926282
 21
573.977621
  0
LINE
  8
CSLAYER1
  6
CONTINUOUS
 62
     3
 10
419.390023
 20
653.008482
 11
419.390023
 21
571.423767
  0
LINE
  8
CSLAYER1
  6
CONTINUOUS
 62
     3
 10
410.974222
 20
643.667487
 11
410.974222
 21
563.051284
  0
LINE
  8
CSLAYER1
  6
CONTINUOUS
 62
     3
 10
373.352689
 20
439.535046
 11
373.352689
 21
566.709548
  0
LINE
  8
CSLAYER1
  6
CONTINUOUS
 62
     7
 10
550.352689
 20
614.181095
 11
550.352689
 21
519.646472
  0
LINE
  8
CSLAYER1
  6
CONTINUOUS
 62
     7
 10
529.352689
 20
617.181095
 11
529.352689
 21
516.646472
  0
LINE
  8
CSLAYER1
  6
CONTINUOUS
 62
     7
 10
529.352689
 20
516.646472
 11
547.352689
 21
516.646472
  0
LINE
  8
CSLAYER1
  6
CONTINUOUS
 62
     7
 10
529.352689
 20
558.039490
 11
548.571284
 21
558.039490
  0
LINE
  8
CSLAYER1
  6
CONTINUOUS
 62
     7
 10
529.352689
 20
617.181095
 11
547.352689
 21
617.181095
  0
ARC
  8
CSLAYER1
  6
CONTINUOUS
 62
     7
 10
547.352689
 20
614.181095
 40
3.000000
 50
0.000000
 51
90.000000
  0
ARC
  8
CSLAYER1
  6
CONTINUOUS
 62
     7
 10
547.352689
 20
519.646472
 40
3.000000
 50
270.000000
 51
360.000000
  0
LINE
  8
CSLAYER1
  6
CONTINUOUS
 62
     3
 10
556.852689
 20
460.535046
 11
556.852689
 21
566.709548
  0
LINE
  8
CSLAYER1
  6
CONTINUOUS
 62
     3
 10
338.352689
 20
566.709548
 11
405.352689
 21
566.709548
  0
LINE
  8
CSLAYER1
  6
CONTINUOUS
 62
     3
 10
525.352689
 20
618.909732
 11
592.352689
 21
618.909732
  0
LINE
  8
CSLAYER1
  6
CONTINUOUS
 62
     3
 10
338.352689
 20
630.398363
 11
405.352689
 21
630.398363
  0
LINE
  8
CSLAYER1
  6
CONTINUOUS
 62
     3
 10
525.352689
 20
630.398363
 11
592.352689
 21
630.398363
  0
LINE
  8
CSLAYER1
  6
CONTINUOUS
 62
     3
 10
525.352689
 20
566.709548
 11
529.352689
 21
566.709548
  0
LINE
  8
CSLAYER1
  6
CONTINUOUS
 62
     3
 10
550.352689
 20
566.709548
 11
592.352689
 21
566.709548
  0
LINE
  8
CSLAYER1
  6
CONTINUOUS
 62
     3
 10
373.352689
 20
493.835046
 11
404.266338
 21
493.835046
  0
LINE
  8
CSLAYER1
  6
CONTINUOUS
 62
     3
 10
373.352689
 20
487.835046
 11
406.408016
 21
487.835046
  0
LINE
  8
CSLAYER1
  6
CONTINUOUS
 62
     3
 10
526.439041
 20
493.835046
 11
556.852689
 21
493.835046
  0
LINE
  8
CSLAYER1
  6
CONTINUOUS
 62
     3
 10
524.297363
 20
487.835046
 11
556.852689
 21
487.835046
  0
LINE
  8
CSLAYER1
  6
CONTINUOUS
 62
     3
 10
2477.475972
 20
2097.798977
 11
2496.057405
 21
2110.388045
  0
LINE
  8
CSLAYER1
  6
CONTINUOUS
 62
     3
 10
2477.460051
 20
2096.515315
 11
2497.774426
 21
2101.754720
  0
LINE
  8
CSLAYER1
  6
CONTINUOUS
 62
     3
 10
2477.488662
 20
2094.722641
 11
2498.285716
 21
2092.246545
  0
LINE
  8
CSLAYER1
  6
CONTINUOUS
 62
     3
 10
2477.298562
 20
2093.231400
 11
2496.531114
 21
2082.988925
  0
TEXT
  8
CSLAYER1
 62
     4
 10
2709.260553
 20
968.509266
 40
45.879784
 41
0.605080
  1
最大使用頻度８０回／時間・最大起動頻度１０回／分
 50
0.000000
 51
0.000000
  7
EASYDRAW_FONT
 72
     5
 11
3366.269232
 21
968.509266
  0
LINE
  8
CSLAYER1
  6
CONTINUOUS
 62
     5
 10
3414.467241
 20
1279.774302
 11
2693.594724
 21
1279.774302
  0
TEXT
  8
CSLAYER1
 62
     3
 10
2929.915039
 20
1292.687012
 40
40.000000
 41
0.825000
  1
マグネットスイッチ制御
 50
0.000000
 51
0.000000
  7
EASYDRAW_FONT
 72
     5
 11
3281.915039
 21
1292.687012
  0
TEXT
  8
CSLAYER1
 62
     3
 10
2707.035889
 20
1289.518799
 40
40.000000
 41
0.872727
  1
制御方式
 50
0.000000
 51
0.000000
  7
EASYDRAW_FONT
 72
     5
 11
2835.035889
 21
1289.518799
  0
LINE
  8
CSLAYER1
  6
CONTINUOUS
 62
     3
 10
1135.598115
 20
2107.927116
 11
2035.598115
 21
2107.927116
  0
LINE
  8
CSLAYER1
  6
CONTINUOUS
 62
     3
 10
1135.598115
 20
1607.927116
 11
2035.598115
 21
1607.927116
  0
DIMENSION
  8
CSLAYER1
 62
     7
  2
*D0005
 10
1038.309753
 20
2107.927116
 11
1028.309692
 21
1857.927002
 13
1135.598115
 23
1607.927116
 14
1135.598115
 24
2107.927116
 50
90.000000
 70
1
  0
DIMENSION
  8
CSLAYER1
 62
     7
  2
*D0006
 10
2035.598115
 20
1503.849271
 11
1585.598022
 21
1513.849365
 13
1135.598115
 23
1607.927116
 14
2035.598115
 24
1607.927116
 52
270.000000
 70
1
  0
LINE
  8
CSLAYER1
  6
CONTINUOUS
 62
     3
 10
715.352689
 20
1057.621070
 11
715.352689
 21
1102.621070
  0
LINE
  8
CSLAYER1
  6
CONTINUOUS
 62
     3
 10
215.352689
 20
1057.621070
 11
215.352689
 21
1102.621070
  0
INSERT
  8
CSLAYER1
  2
BLKF0009
 10
0.0
 20
0.0
 30
0.0
  0
LINE
  8
CSLAYER1
  6
CONTINUOUS
 62
     7
 10
1235.798115
 20
517.535046
 11
1255.798115
 21
517.535046
  0
INSERT
  8
CSLAYER1
  2
BLKF0010
 10
0.0
 20
0.0
 30
0.0
  0
INSERT
  8
CSLAYER1
  2
BLKF0011
 10
0.0
 20
0.0
 30
0.0
  0
LINE
  8
CSLAYER1
  6
CONTINUOUS
 62
     3
 10
1250.798115
 20
525.535046
 11
1250.798115
 21
533.335046
  0
LINE
  8
CSLAYER1
  6
CONTINUOUS
 62
     4
 10
1249.798115
 20
525.535046
 11
1249.798115
 21
533.335046
  0
LINE
  8
CSLAYER1
  6
CONTINUOUS
 62
     3
 10
1240.798115
 20
525.535046
 11
1240.798115
 21
533.335046
  0
LINE
  8
CSLAYER1
  6
CONTINUOUS
 62
     4
 10
1241.798115
 20
525.535046
 11
1241.798115
 21
533.335046
  0
LINE
  8
CSLAYER1
  6
CONTINUOUS
 62
     7
 10
1255.798115
 20
439.535046
 11
1255.798115
 21
517.535046
  0
LINE
  8
CSLAYER1
  6
CENTER
 62
     5
 10
1245.798115
 20
439.535046
 11
1245.798115
 21
544.535046
  0
LINE
  8
CSLAYER1
  6
CONTINUOUS
 62
     7
 10
1235.798115
 20
439.535046
 11
1235.798115
 21
517.535046
  0
LINE
  8
CSLAYER1
  6
CONTINUOUS
 62
     4
 10
1273.798115
 20
460.535046
 11
1259.063836
 21
460.535046
  0
LINE
  8
CSLAYER1
  6
CONTINUOUS
 62
     4
 10
1288.798115
 20
445.535046
 11
1288.798115
 21
439.535046
  0
LINE
  8
CSLAYER1
  6
CONTINUOUS
 62
     4
 10
1273.798115
 20
460.535046
 11
1288.798115
 21
445.535046
  0
LINE
  8
CSLAYER1
  6
CONTINUOUS
 62
     3
 10
1234.516101
 20
457.011831
 11
1235.798115
 21
456.930040
  0
LINE
  8
CSLAYER1
  6
CONTINUOUS
 62
     3
 10
1259.353786
 20
482.262045
 11
1258.535864
 21
469.441801
  0
LINE
  8
CSLAYER1
  6
CONTINUOUS
 62
     3
 10
1256.172459
 20
456.120709
 11
1255.652742
 21
455.663330
  0
LINE
  8
CSLAYER1
  6
CONTINUOUS
 62
     3
 10
1266.094702
 20
489.114920
 11
1258.113733
 21
456.672956
  0
LINE
  8
CSLAYER1
  6
CONTINUOUS
 62
     3
 10
1264.721443
 20
487.718853
 11
1260.128749
 21
469.049939
  0
LINE
  8
CSLAYER1
  6
CONTINUOUS
 62
     3
 10
1256.903800
 20
455.940793
 11
1255.798115
 21
456.212800
  0
LINE
  8
CSLAYER1
  6
CONTINUOUS
 62
     3
 10
1260.128749
 20
469.049939
 11
1255.798115
 21
470.115308
  0
ARC
  8
CSLAYER1
  6
CONTINUOUS
 62
     3
 10
1257.142685
 20
456.911841
 40
1.000000
 50
256.179252
 51
346.179252
  0
LINE
  8
CSLAYER1
  6
CONTINUOUS
 62
     3
 10
1261.920387
 20
476.332798
 11
1259.021010
 21
477.046066
  0
LINE
  8
CSLAYER1
  6
CONTINUOUS
 62
     3
 10
1262.159272
 20
477.303845
 11
1259.085696
 21
478.059968
  0
LINE
  8
CSLAYER1
  6
CONTINUOUS
 62
     3
 10
1256.139191
 20
478.994059
 11
1255.798115
 21
473.647966
  0
LINE
  8
CSLAYER1
  6
CONTINUOUS
 62
     3
 10
1230.628185
 20
453.059342
 11
1235.798115
 21
447.184783
  0
LINE
  8
CSLAYER1
  6
CONTINUOUS
 62
     7
 10
1217.324845
 20
439.535046
 11
1235.798115
 21
458.315138
  0
INSERT
  8
CSLAYER1
  2
BLKF0012
 10
0.0
 20
0.0
 30
0.0
  0
INSERT
  8
CSLAYER1
  2
BLKF0013
 10
0.0
 20
0.0
 30
0.0
  0
LINE
  8
CSLAYER1
  6
CONTINUOUS
 62
     5
 10
3414.467241
 20
767.774315
 11
2693.594724
 21
767.774315
  0
TEXT
  8
CSLAYER1
 62
     3
 10
3023.454102
 20
778.445740
 40
40.000000
 41
0.926087
  1
　１０Ｒ４／１３
 50
0.000000
 51
0.000000
  7
EASYDRAW_FONT
 72
     5
 11
3307.454102
 21
778.445740
  0
TEXT
  8
CSLAYER1
 62
     3
 10
2708.349854
 20
1801.613525
 40
40.000000
 41
1.036364
  1
積載荷重
 50
0.000000
 51
0.000000
  7
EASYDRAW_FONT
 72
     5
 11
2860.349854
 21
1801.613525
  0
LINE
  8
CSLAYER1
  6
CONTINUOUS
 62
     5
 10
2634.376249
 20
2254.548030
 11
2502.299279
 21
2103.845115
  0
LINE
  8
CSLAYER1
  6
CONTINUOUS
 62
     5
 10
2502.299279
 20
2103.845115
 11
2515.559263
 21
2130.755574
  0
LINE
  8
CSLAYER1
  6
CONTINUOUS
 62
     5
 10
2502.299279
 20
2103.845115
 11
2527.237992
 21
2120.520264
  0
LINE
  8
CSLAYER1
  6
CONTINUOUS
 62
     5
 10
2689.469692
 20
2151.329258
 11
2558.211532
 21
1966.729666
  0
LINE
  8
CSLAYER1
  6
CONTINUOUS
 62
     5
 10
2558.211532
 20
1966.729666
 11
2568.675782
 21
1994.845488
  0
LINE
  8
CSLAYER1
  6
CONTINUOUS
 62
     5
 10
2558.211532
 20
1966.729666
 11
2581.331750
 21
1985.846557
  0
TEXT
  8
CSLAYER1
 62
     5
 10
2700.541260
 20
2056.236328
 40
40.000000
 41
1.020000
  1
コード長サ２ｍ
 50
360.000000
 51
0.000000
  7
EASYDRAW_FONT
 72
     5
 11
2972.541260
 21
2056.236328
  0
ENDSEC
  0
EOF
