  0
SECTION
  2
HEADER
  9
$ACADVER
  1
AC1006
  9
$INSBASE
 10
1570.952769
 20
1247.328990
 30
0.0
  9
$EXTMIN
 10
1570.952769
 20
1247.328990
  9
$EXTMAX
 10
5210.952769
 20
3817.328990
  9
$LIMMIN
 10
1570.952769
 20
1247.328990
  9
$LIMMAX
 10
5210.952769
 20
3817.328990
  9
$VIEWCTR
 10
3390.952769
 20
2532.328990
  9
$VIEWSIZE
 40
2570.000000
  9
$SNAPMODE
 70
     0
  9
$SNAPUNIT
 10
1.0
 20
1.0
  9
$SNAPBASE
 10
0.0
 20
0.0
  9
$SNAPANG
 50
0.0
  9
$SNAPSTYLE
 70
     0
  9
$SNAPISOPAIR
 70
     0
  9
$GRIDMODE
 70
     0
  9
$GRIDUNIT
 10
0.0
 20
0.0
  9
$ORTHOMODE
 70
     0
  9
$REGENMODE
 70
     1
  9
$FILLMODE
 70
     1
  9
$QTEXTMODE
 70
     0
  9
$DRAGMODE
 70
     2
  9
$LTSCALE
 40
15.000000
  9
$OSMODE
 70
     0
  9
$ATTMODE
 70
     1
  9
$TEXTSIZE
 40
0.2
  9
$TRACEWID
 40
0.05
  9
$TEXTSTYLE
  7
STANDARD
  9
$CLAYER
  8
CSLAYER1
  9
$CELTYPE
  6
BYLAYER
  9
$CECOLOR
 62
   256
  9
$DIMSCALE
 40
1.0
  9
$DIMASZ
 40
0.18
  9
$DIMEXO
 40
0.0625
  9
$DIMDLI
 40
0.38
  9
$DIMRND
 40
0.0
  9
$DIMDLE
 40
0.0
  9
$DIMEXE
 40
0.18
  9
$DIMTP
 40
0.0
  9
$DIMTM
 40
0.0
  9
$DIMTXT
 40
0.18
  9
$DIMCEN
 40
0.09
  9
$DIMTSZ
 40
0.0
  9
$DIMTOL
 70
     0
  9
$DIMLIM
 70
     0
  9
$DIMTIH
 70
     1
  9
$DIMTOH
 70
     1
  9
$DIMSE1
 70
     0
  9
$DIMSE2
 70
     0
  9
$DIMTAD
 70
     0
  9
$DIMZIN
 70
     0
  9
$DIMBLK
  1

  9
$LUNITS
 70
     2
  9
$LUPREC
 70
     4
  9
$AXISMODE
 70
     0
  9
$AXISUNIT
 10
0.0
 20
0.0
  9
$SKETCHINC
 40
0.1
  9
$FILLETRAD
 40
0.0
  9
$AUNITS
 70
     0
  9
$AUPREC
 70
     0
  9
$MENU
  1
ACAD
  9
$ELEVATION
 40
0.0
  9
$THICKNESS
 40
0.0
  9
$VIEWDIR
 10
0.0
 20
0.0
 30
1.0
  9
$LIMCHECK
 70
     0
  9
$BLIPMODE
 70
     1
  9
$CHAMFERA
 40
0.0
  9
$CHAMFERB
 40
0.0
  9
$FASTZOOM
 70
     1
  9
$SKPOLY
 70
     0
  9
$TDCREATE
 40
2457497.000000
  9
$TDUPDATE
 40
2457497.000000
  9
$TDINDWG
 40
0.0
  9
$TDUSRTIMER
 40
0.0
  9
$USRTIMER
 70
     1
  9
$ANGBASE
 50
0.0
  9
$ANGDIR
 70
     0
  9
$PDMODE
 70
     0
  9
$PDSIZE
 40
0.0
  9
$PLINEWID
 40
0.0
  9
$COORDS
 70
     0
  9
$USERI1
 70
     0
  9
$USERI2
 70
     0
  9
$USERI3
 70
     0
  9
$USERI4
 70
     0
  9
$USERI5
 70
     0
  9
$USERR1
 40
0.0
  9
$USERR2
 40
0.0
  9
$USERR3
 40
0.0
  9
$USERR4
 40
0.0
  9
$USERR5
 40
0.0
  0
ENDSEC
  0
SECTION
  2
TABLES
  0
TABLE
  2
LTYPE
 70
     9
  0
LTYPE
  2
CONTINUOUS
 70
    64
  3
Solid line
 72
    65
 73
     0
 40
0.0
  0
LTYPE
  2
DASHED
 70
    64
  3
__ __ __ __ __ __ __ __ __ __ __ __ __ __ __
 72
    65
 73
     2
 40
0.75
 49
0.5
 49
-0.25
  0
LTYPE
  2
HIDDEN
 70
    64
  3
_ _ _ _ _ _ _ _ _ _ _ _ _ _ _ _ _ _ _ _ _ _ _
 72
    65
 73
     2
 40
0.375
 49
0.25
 49
-0.125
  0
LTYPE
  2
DOT
 70
    64
  3
...............................................
 72
    65
 73
     2
 40
0.25
 49
0.0
 49
-0.25
  0
LTYPE
  2
DASHDOT
 70
    64
  3
__ . __ . __ . __ . __ . __ . __ . __ . __ . __
 72
    65
 73
     4
 40
1.0
 49
0.5
 49
-0.25
 49
0.0
 49
-0.25
  0
LTYPE
  2
DIVIDE
 70
    64
  3
__ . . __ . . __ . . __ . . __ . . __ . . __
 72
    65
 73
     6
 40
1.25
 49
0.5
 49
-0.25
 49
0.0
 49
-0.25
 49
0.0
 49
-0.25
  0
LTYPE
  2
CENTER
 70
    64
  3
____ _ ____ _ ____ _ ____ _ ____ _ ____ _ ____ 
 72
    65
 73
     4
 40
2.0
 49
1.25
 49
-0.25
 49
0.25
 49
-0.25
  0
LTYPE
  2
PHANTOM
 70
    64
  3
______  __  __  ______  __  __  ______  __  __ 
 72
    65
 73
     6
 40
2.5
 49
1.25
 49
-0.25
 49
0.25
 49
-0.25
 49
0.25
 49
-0.25
  0
LTYPE
  2
BORDER
 70
    64
  3
__ __ . __ __ . __ __ . __ __ . __ __ . __ __ .
 72
    65
 73
     6
 40
1.75
 49
0.5
 49
-0.25
 49
0.5
 49
-0.25
 49
0.0
 49
-0.25
  0
ENDTAB
  0
TABLE
  2
LAYER
 70
    16
  0
LAYER
  2
CSLAYER1
 70
    64
 62
     7
  6
CONTINUOUS
  0
LAYER
  2
CSLAYER2
 70
    64
 62
     7
  6
CONTINUOUS
  0
LAYER
  2
CSLAYER3
 70
    64
 62
     7
  6
CONTINUOUS
  0
LAYER
  2
CSLAYER4
 70
    64
 62
     7
  6
CONTINUOUS
  0
LAYER
  2
CSLAYER5
 70
    64
 62
     7
  6
CONTINUOUS
  0
LAYER
  2
CSLAYER6
 70
    64
 62
     7
  6
CONTINUOUS
  0
LAYER
  2
CSLAYER7
 70
    64
 62
     7
  6
CONTINUOUS
  0
LAYER
  2
CSLAYER8
 70
    64
 62
     7
  6
CONTINUOUS
  0
LAYER
  2
CSLAYER9
 70
    64
 62
     7
  6
CONTINUOUS
  0
LAYER
  2
CSLAYER10
 70
    64
 62
     7
  6
CONTINUOUS
  0
LAYER
  2
CSLAYER11
 70
    64
 62
     7
  6
CONTINUOUS
  0
LAYER
  2
CSLAYER12
 70
    64
 62
     7
  6
CONTINUOUS
  0
LAYER
  2
CSLAYER13
 70
    64
 62
     7
  6
CONTINUOUS
  0
LAYER
  2
CSLAYER14
 70
    64
 62
     7
  6
CONTINUOUS
  0
LAYER
  2
CSLAYER15
 70
    64
 62
     7
  6
CONTINUOUS
  0
LAYER
  2
CSLAYER16
 70
    64
 62
     7
  6
CONTINUOUS
  0
ENDTAB
  0
TABLE
  2
STYLE
 70
     1
  0
STYLE
  2
EASYDRAW_FONT
 70
     0
 40
1.0
 41
1.0
 50
0.0
 71
     0
 42
1.0
  3
monotxt
  4
bigfont
  0
ENDTAB
  0
TABLE
  2
VIEW
 70
     0
  0
ENDTAB
  0
ENDSEC
  0
SECTION
  2
BLOCKS
  0
BLOCK
  8
CSLAYER1
  2
*D0000
 70
    65
 10
0.0
 20
0.0
 30
0.0
  0
TEXT
  8
CSLAYER1
 62
     7
 10
2066.455078
 20
440.406281
 40
40.000000
 41
0.843750
  1
155
 50
90.000000
 51
0.000000
  7
EASYDRAW_FONT
 72
     5
 11
2066.455078
 21
530.406281
  0
LINE
  8
CSLAYER1
  6
CONTINUOUS
 62
     5
 10
1942.715545
 20
407.906329
 11
2189.048444
 21
407.906329
  0
LINE
  8
CSLAYER1
  6
CONTINUOUS
 62
     5
 10
1942.515545
 20
562.906329
 11
2086.455237
 21
562.906329
  0
LINE
  8
CSLAYER1
  6
CONTINUOUS
 62
     5
 10
2076.455237
 20
407.906329
 11
2076.455237
 21
562.906329
  0
LINE
  8
CSLAYER1
  6
CONTINUOUS
 62
     5
 10
2076.455237
 20
407.906329
 11
2068.690666
 21
436.884104
  0
LINE
  8
CSLAYER1
  6
CONTINUOUS
 62
     5
 10
2076.455237
 20
407.906329
 11
2084.219808
 21
436.884104
  0
LINE
  8
CSLAYER1
  6
CONTINUOUS
 62
     5
 10
2076.455237
 20
562.906329
 11
2068.690666
 21
533.928554
  0
LINE
  8
CSLAYER1
  6
CONTINUOUS
 62
     5
 10
2076.455237
 20
562.906329
 11
2084.219808
 21
533.928554
  0
ENDBLK
  8
0
  0
BLOCK
  8
CSLAYER1
  2
*D0001
 70
    65
 10
0.0
 20
0.0
 30
0.0
  0
TEXT
  8
CSLAYER1
 62
     7
 10
2066.455078
 20
796.949219
 40
40.000000
 41
0.843750
  1
545
 50
90.000000
 51
0.000000
  7
EASYDRAW_FONT
 72
     5
 11
2066.455078
 21
886.949219
  0
LINE
  8
CSLAYER1
  6
CONTINUOUS
 62
     5
 10
1942.515545
 20
1120.992353
 11
2189.048444
 21
1120.992353
  0
LINE
  8
CSLAYER1
  6
CONTINUOUS
 62
     5
 10
2076.455237
 20
562.906329
 11
2076.455237
 21
1120.992353
  0
LINE
  8
CSLAYER1
  6
CONTINUOUS
 62
     5
 10
2076.455237
 20
562.906329
 11
2068.690666
 21
591.884104
  0
LINE
  8
CSLAYER1
  6
CONTINUOUS
 62
     5
 10
2076.455237
 20
562.906329
 11
2084.219808
 21
591.884104
  0
LINE
  8
CSLAYER1
  6
CONTINUOUS
 62
     5
 10
2076.455237
 20
1120.992353
 11
2068.690666
 21
1092.014578
  0
LINE
  8
CSLAYER1
  6
CONTINUOUS
 62
     5
 10
2076.455237
 20
1120.992353
 11
2084.219808
 21
1092.014578
  0
ENDBLK
  8
0
  0
BLOCK
  8
CSLAYER1
  2
*D0002
 70
    65
 10
0.0
 20
0.0
 30
0.0
  0
TEXT
  8
CSLAYER1
 62
     7
 10
2169.048340
 20
719.449219
 40
40.000000
 41
0.843750
  1
700
 50
90.000000
 51
0.000000
  7
EASYDRAW_FONT
 72
     5
 11
2169.048340
 21
809.449219
  0
LINE
  8
CSLAYER1
  6
CONTINUOUS
 62
     5
 10
2179.048444
 20
407.906329
 11
2179.048444
 21
1120.992353
  0
LINE
  8
CSLAYER1
  6
CONTINUOUS
 62
     5
 10
2179.048444
 20
407.906329
 11
2171.283873
 21
436.884104
  0
LINE
  8
CSLAYER1
  6
CONTINUOUS
 62
     5
 10
2179.048444
 20
407.906329
 11
2186.813016
 21
436.884104
  0
LINE
  8
CSLAYER1
  6
CONTINUOUS
 62
     5
 10
2179.048444
 20
1120.992353
 11
2171.283873
 21
1092.014578
  0
LINE
  8
CSLAYER1
  6
CONTINUOUS
 62
     5
 10
2179.048444
 20
1120.992353
 11
2186.813016
 21
1092.014578
  0
ENDBLK
  8
0
  0
BLOCK
  8
CSLAYER1
  2
*D0003
 70
    65
 10
0.0
 20
0.0
 30
0.0
  0
TEXT
  8
CSLAYER1
 62
     7
 10
925.498657
 20
1731.298340
 40
40.000000
 41
0.843750
  1
400
 50
90.000000
 51
0.000000
  7
EASYDRAW_FONT
 72
     5
 11
925.498657
 21
1821.298340
  0
LINE
  8
CSLAYER1
  6
CONTINUOUS
 62
     5
 10
1022.515545
 20
1576.298400
 11
925.498588
 21
1576.298400
  0
LINE
  8
CSLAYER1
  6
CONTINUOUS
 62
     5
 10
1022.515545
 20
1976.298400
 11
925.498588
 21
1976.298400
  0
LINE
  8
CSLAYER1
  6
CONTINUOUS
 62
     5
 10
935.498588
 20
1576.298400
 11
935.498588
 21
1976.298400
  0
LINE
  8
CSLAYER1
  6
CONTINUOUS
 62
     5
 10
935.498588
 20
1576.298400
 11
927.734016
 21
1605.276175
  0
LINE
  8
CSLAYER1
  6
CONTINUOUS
 62
     5
 10
935.498588
 20
1576.298400
 11
943.263159
 21
1605.276175
  0
LINE
  8
CSLAYER1
  6
CONTINUOUS
 62
     5
 10
935.498588
 20
1976.298400
 11
927.734016
 21
1947.320625
  0
LINE
  8
CSLAYER1
  6
CONTINUOUS
 62
     5
 10
935.498588
 20
1976.298400
 11
943.263159
 21
1947.320625
  0
ENDBLK
  8
0
  0
BLOCK
  8
CSLAYER1
  2
*D0004
 70
    65
 10
0.0
 20
0.0
 30
0.0
  0
TEXT
  8
CSLAYER1
 62
     7
 10
1437.515625
 20
1484.134277
 40
40.000000
 41
0.843750
  1
900
 50
0.000000
 51
0.000000
  7
EASYDRAW_FONT
 72
     5
 11
1527.515625
 21
1484.134277
  0
LINE
  8
CSLAYER1
  6
CONTINUOUS
 62
     5
 10
1032.515545
 20
1566.298400
 11
1032.515545
 21
1464.134127
  0
LINE
  8
CSLAYER1
  6
CONTINUOUS
 62
     5
 10
1932.515545
 20
1566.298400
 11
1932.515545
 21
1464.134127
  0
LINE
  8
CSLAYER1
  6
CONTINUOUS
 62
     5
 10
1032.515545
 20
1474.134127
 11
1932.515545
 21
1474.134127
  0
LINE
  8
CSLAYER1
  6
CONTINUOUS
 62
     5
 10
1032.515545
 20
1474.134127
 11
1061.493320
 21
1481.898698
  0
LINE
  8
CSLAYER1
  6
CONTINUOUS
 62
     5
 10
1032.515545
 20
1474.134127
 11
1061.493320
 21
1466.369556
  0
LINE
  8
CSLAYER1
  6
CONTINUOUS
 62
     5
 10
1932.515545
 20
1474.134127
 11
1903.537770
 21
1481.898698
  0
LINE
  8
CSLAYER1
  6
CONTINUOUS
 62
     5
 10
1932.515545
 20
1474.134127
 11
1903.537770
 21
1466.369556
  0
ENDBLK
  8
0
  0
BLOCK
  8
CSLAYER1
  2
*D0005
 70
    65
 10
0.0
 20
0.0
 30
0.0
  0
TEXT
  8
CSLAYER1
 62
     7
 10
1437.715576
 20
302.808624
 40
40.000000
 41
0.843750
  1
900
 50
0.000000
 51
0.000000
  7
EASYDRAW_FONT
 72
     5
 11
1527.715576
 21
302.808624
  0
LINE
  8
CSLAYER1
  6
CONTINUOUS
 62
     5
 10
1032.715545
 20
397.906329
 11
1032.715545
 21
282.808620
  0
LINE
  8
CSLAYER1
  6
CONTINUOUS
 62
     5
 10
1932.715545
 20
397.906329
 11
1932.715545
 21
282.808620
  0
LINE
  8
CSLAYER1
  6
CONTINUOUS
 62
     5
 10
1032.715545
 20
292.808620
 11
1932.715545
 21
292.808620
  0
LINE
  8
CSLAYER1
  6
CONTINUOUS
 62
     5
 10
1032.715545
 20
292.808620
 11
1061.693320
 21
300.573191
  0
LINE
  8
CSLAYER1
  6
CONTINUOUS
 62
     5
 10
1032.715545
 20
292.808620
 11
1061.693320
 21
285.044048
  0
LINE
  8
CSLAYER1
  6
CONTINUOUS
 62
     5
 10
1932.715545
 20
292.808620
 11
1903.737770
 21
300.573191
  0
LINE
  8
CSLAYER1
  6
CONTINUOUS
 62
     5
 10
1932.715545
 20
292.808620
 11
1903.737770
 21
285.044048
  0
ENDBLK
  8
0
  0
BLOCK
  8
CSLAYER1
  2
*D0006
 70
    65
 10
0.0
 20
0.0
 30
0.0
  0
TEXT
  8
CSLAYER1
 62
     7
 10
417.270172
 20
302.808624
 40
40.000000
 41
0.843750
  1
400
 50
0.000000
 51
0.000000
  7
EASYDRAW_FONT
 72
     5
 11
507.270172
 21
302.808624
  0
LINE
  8
CSLAYER1
  6
CONTINUOUS
 62
     5
 10
262.270120
 20
397.906329
 11
262.270120
 21
282.808620
  0
LINE
  8
CSLAYER1
  6
CONTINUOUS
 62
     5
 10
662.270120
 20
397.906329
 11
662.270120
 21
282.808620
  0
LINE
  8
CSLAYER1
  6
CONTINUOUS
 62
     5
 10
262.270120
 20
292.808620
 11
662.270120
 21
292.808620
  0
LINE
  8
CSLAYER1
  6
CONTINUOUS
 62
     5
 10
262.270120
 20
292.808620
 11
291.247894
 21
300.573191
  0
LINE
  8
CSLAYER1
  6
CONTINUOUS
 62
     5
 10
262.270120
 20
292.808620
 11
291.247894
 21
285.044048
  0
LINE
  8
CSLAYER1
  6
CONTINUOUS
 62
     5
 10
662.270120
 20
292.808620
 11
633.292345
 21
300.573191
  0
LINE
  8
CSLAYER1
  6
CONTINUOUS
 62
     5
 10
662.270120
 20
292.808620
 11
633.292345
 21
285.044048
  0
ENDBLK
  8
0
  0
BLOCK
  8
CSLAYER1
  2
BLKF0000
 70
   64
 10
0.0
 20
0.0
 30
0.0
  0
ARC
  8
CSLAYER1
  6
CONTINUOUS
 62
     5
 10
2781.909508
 20
79.335220
 40
3.549225
 50
6.429109
 51
73.182034
  0
ARC
  8
CSLAYER1
  6
CONTINUOUS
 62
     5
 10
2778.448538
 20
78.176827
 40
6.907754
 50
310.517970
 51
330.092764
  0
ARC
  8
CSLAYER1
  6
CONTINUOUS
 62
     5
 10
2778.387888
 20
78.542345
 40
7.148321
 50
-32.205059
 51
9.585194
  0
ARC
  8
CSLAYER1
  6
CONTINUOUS
 62
     5
 10
2781.680616
 20
75.781346
 40
4.767514
 50
180.000000
 51
218.514150
  0
ARC
  8
CSLAYER1
  6
CONTINUOUS
 62
     5
 10
2780.393895
 20
75.104206
 40
3.348282
 50
222.781148
 51
319.406906
  0
ARC
  8
CSLAYER1
  6
CONTINUOUS
 62
     5
 10
2783.459537
 20
76.194099
 40
6.559434
 50
94.574282
 51
183.607718
  0
LINE
  8
CSLAYER1
  6
CONTINUOUS
 62
     5
 10
2796.903443
 20
71.077266
 11
2796.046407
 21
68.038683
  0
LINE
  8
CSLAYER1
  6
CONTINUOUS
 62
     5
 10
2798.695428
 20
90.944924
 11
2796.591794
 21
93.671857
  0
LINE
  8
CSLAYER1
  6
CONTINUOUS
 62
     5
 10
2796.591794
 20
93.671857
 11
2789.838440
 21
97.429769
  0
LINE
  8
CSLAYER1
  6
CONTINUOUS
 62
     5
 10
2789.838440
 20
97.429769
 11
2782.936412
 21
98.232640
  0
LINE
  8
CSLAYER1
  6
CONTINUOUS
 62
     5
 10
2764.647187
 20
84.853966
 11
2766.793881
 21
89.818197
  0
LINE
  8
CSLAYER1
  6
CONTINUOUS
 62
     5
 10
2766.756884
 20
89.732640
 11
2768.940576
 21
92.367396
  0
LINE
  8
CSLAYER1
  6
CONTINUOUS
 62
     5
 10
2768.940576
 20
92.367396
 11
2772.244998
 21
94.732640
  0
LINE
  8
CSLAYER1
  6
CONTINUOUS
 62
     5
 10
2782.936412
 20
98.232640
 11
2781.418237
 21
97.465795
  0
LINE
  8
CSLAYER1
  6
CONTINUOUS
 62
     5
 10
2781.418237
 20
97.465795
 11
2777.929858
 21
97.465795
  0
LINE
  8
CSLAYER1
  6
CONTINUOUS
 62
     5
 10
2777.929858
 20
97.465795
 11
2774.374396
 21
95.520354
  0
LINE
  8
CSLAYER1
  6
CONTINUOUS
 62
     5
 10
2774.374396
 20
95.520354
 11
2772.244998
 21
94.732640
  0
LINE
  8
CSLAYER1
  6
CONTINUOUS
 62
     5
 10
2764.647187
 20
84.853966
 11
2763.129640
 21
77.305363
  0
LINE
  8
CSLAYER1
  6
CONTINUOUS
 62
     5
 10
2763.129640
 20
77.305363
 11
2762.936412
 21
74.732640
  0
LINE
  8
CSLAYER1
  6
CONTINUOUS
 62
     5
 10
2765.645795
 20
66.892857
 11
2762.936412
 21
72.988969
  0
LINE
  8
CSLAYER1
  6
CONTINUOUS
 62
     5
 10
2762.936412
 20
72.988969
 11
2762.936412
 21
74.732640
  0
LINE
  8
CSLAYER1
  6
CONTINUOUS
 62
     5
 10
2796.046407
 20
68.038683
 11
2794.360620
 21
65.035677
  0
LINE
  8
CSLAYER1
  6
CONTINUOUS
 62
     5
 10
2794.360620
 20
65.035677
 11
2792.936412
 21
63.716966
  0
ARC
  8
CSLAYER1
  6
CONTINUOUS
 62
     5
 10
2780.744468
 20
75.269400
 40
17.266626
 50
208.054813
 51
260.640470
  0
ARC
  8
CSLAYER1
  6
CONTINUOUS
 62
     5
 10
2775.551072
 20
88.011870
 40
29.874611
 50
274.579659
 51
305.587364
  0
ARC
  8
CSLAYER1
  6
CONTINUOUS
 62
     5
 10
2786.523421
 20
82.028147
 40
15.088627
 50
313.467013
 51
331.085078
  0
LINE
  8
CSLAYER1
  6
CONTINUOUS
 62
     5
 10
2801.314754
 20
78.246061
 11
2801.612048
 21
82.028147
  0
LINE
  8
CSLAYER1
  6
CONTINUOUS
 62
     5
 10
2801.612048
 20
82.028147
 11
2800.320051
 21
88.137130
  0
LINE
  8
CSLAYER1
  6
CONTINUOUS
 62
     5
 10
2801.314754
 20
78.246061
 11
2799.731079
 21
74.732640
  0
ARC
  8
CSLAYER1
  6
CONTINUOUS
 62
     5
 10
2786.523421
 20
82.028147
 40
15.088627
 50
23.883193
 51
36.225170
  0
LINE
  8
CSLAYER1
  6
CONTINUOUS
 62
     5
 10
2746.936412
 20
109.732640
 11
2747.936412
 21
110.825284
  0
LINE
  8
CSLAYER1
  6
CONTINUOUS
 62
     5
 10
2746.936412
 20
109.732640
 11
2748.513370
 21
108.287607
  0
LINE
  8
CSLAYER1
  6
CONTINUOUS
 62
     5
 10
2750.052583
 20
106.178315
 11
2750.078851
 21
104.010196
  0
LINE
  8
CSLAYER1
  6
CONTINUOUS
 62
     5
 10
2750.078851
 20
104.010196
 11
2750.286249
 21
103.249737
  0
LINE
  8
CSLAYER1
  6
CONTINUOUS
 62
     5
 10
2750.286249
 20
103.249737
 11
2750.873877
 21
102.523844
  0
LINE
  8
CSLAYER1
  6
CONTINUOUS
 62
     5
 10
2750.873877
 20
102.523844
 11
2751.461504
 21
102.592977
  0
LINE
  8
CSLAYER1
  6
CONTINUOUS
 62
     5
 10
2751.461504
 20
102.592977
 11
2752.083698
 21
102.765808
  0
LINE
  8
CSLAYER1
  6
CONTINUOUS
 62
     5
 10
2752.083698
 20
102.765808
 11
2752.498494
 21
102.592977
  0
LINE
  8
CSLAYER1
  6
CONTINUOUS
 62
     5
 10
2752.498494
 20
102.592977
 11
2753.397219
 21
102.143614
  0
LINE
  8
CSLAYER1
  6
CONTINUOUS
 62
     5
 10
2753.397219
 20
102.143614
 11
2754.173270
 21
101.732640
  0
LINE
  8
CSLAYER1
  6
CONTINUOUS
 62
     5
 10
2754.173270
 20
101.732640
 11
2754.676173
 21
101.763385
  0
LINE
  8
CSLAYER1
  6
CONTINUOUS
 62
     5
 10
2754.676173
 20
101.763385
 11
2757.484045
 21
103.209864
  0
LINE
  8
CSLAYER1
  6
CONTINUOUS
 62
     5
 10
2747.936412
 20
110.825284
 11
2748.269264
 21
112.298991
  0
LINE
  8
CSLAYER1
  6
CONTINUOUS
 62
     5
 10
2748.269264
 20
112.298991
 11
2749.722669
 21
112.449344
  0
LINE
  8
CSLAYER1
  6
CONTINUOUS
 62
     5
 10
2751.216428
 20
115.217802
 11
2752.970601
 21
115.374892
  0
LINE
  8
CSLAYER1
  6
CONTINUOUS
 62
     5
 10
2752.970601
 20
115.374892
 11
2756.505128
 21
116.212706
  0
LINE
  8
CSLAYER1
  6
CONTINUOUS
 62
     5
 10
2756.505128
 20
116.212706
 11
2757.936412
 21
116.544345
  0
LINE
  8
CSLAYER1
  6
CONTINUOUS
 62
     5
 10
2751.216428
 20
115.217802
 11
2749.283537
 21
115.376670
  0
LINE
  8
CSLAYER1
  6
CONTINUOUS
 62
     5
 10
2748.547414
 20
114.507983
 11
2748.640939
 21
114.136822
  0
LINE
  8
CSLAYER1
  6
CONTINUOUS
 62
     5
 10
2748.640939
 20
114.136822
 11
2749.132533
 21
113.599141
  0
LINE
  8
CSLAYER1
  6
CONTINUOUS
 62
     5
 10
2749.132533
 20
113.599141
 11
2749.808475
 21
113.092184
  0
LINE
  8
CSLAYER1
  6
CONTINUOUS
 62
     5
 10
2749.808475
 20
113.092184
 11
2749.931800
 21
112.927751
  0
LINE
  8
CSLAYER1
  6
CONTINUOUS
 62
     5
 10
2748.513370
 20
108.287607
 11
2750.052583
 21
106.178315
  0
ARC
  8
CSLAYER1
  6
CONTINUOUS
 62
     5
 10
2792.923113
 20
-61.926013
 40
180.727463
 50
80.438896
 51
96.353582
  0
ARC
  8
CSLAYER1
  6
CONTINUOUS
 62
     5
 10
2768.024200
 20
83.321887
 40
34.720242
 50
81.866516
 51
106.890578
  0
LINE
  8
CSLAYER1
  6
CONTINUOUS
 62
     5
 10
2827.130674
 20
115.499310
 11
2829.377756
 21
114.477909
  0
LINE
  8
CSLAYER1
  6
CONTINUOUS
 62
     5
 10
2832.952661
 20
112.894737
 11
2829.377756
 21
114.477909
  0
LINE
  8
CSLAYER1
  6
CONTINUOUS
 62
     5
 10
2827.130674
 20
115.499310
 11
2822.936412
 21
116.291881
  0
LINE
  8
CSLAYER1
  6
CONTINUOUS
 62
     5
 10
2832.936412
 20
112.901933
 11
2834.807988
 21
111.333456
  0
LINE
  8
CSLAYER1
  6
CONTINUOUS
 62
     5
 10
2816.179668
 20
113.938783
 11
2817.078943
 21
115.391458
  0
LINE
  8
CSLAYER1
  6
CONTINUOUS
 62
     5
 10
2817.078943
 20
115.391458
 11
2821.754542
 21
114.271949
  0
LINE
  8
CSLAYER1
  6
CONTINUOUS
 62
     5
 10
2821.754542
 20
114.271949
 11
2838.496928
 21
109.732640
  0
LINE
  8
CSLAYER1
  6
CONTINUOUS
 62
     5
 10
2841.436412
 20
109.732640
 11
2834.807988
 21
111.333456
  0
LINE
  8
CSLAYER1
  6
CONTINUOUS
 62
     5
 10
2838.496928
 20
109.732640
 11
2841.436412
 21
109.732640
  0
LINE
  8
CSLAYER1
  6
CONTINUOUS
 62
     5
 10
2782.936412
 20
114.197581
 11
2802.936412
 21
114.732640
  0
LINE
  8
CSLAYER1
  6
CONTINUOUS
 62
     5
 10
2802.936412
 20
114.732640
 11
2816.179668
 21
113.938783
  0
LINE
  8
CSLAYER1
  6
CONTINUOUS
 62
     5
 10
2817.782649
 20
111.878304
 11
2802.936412
 21
113.232640
  0
LINE
  8
CSLAYER1
  6
CONTINUOUS
 62
     5
 10
2802.936412
 20
113.232640
 11
2787.887203
 21
113.641292
  0
LINE
  8
CSLAYER1
  6
CONTINUOUS
 62
     5
 10
2787.936412
 20
113.639956
 11
2782.936412
 21
113.735249
  0
LINE
  8
CSLAYER1
  6
CONTINUOUS
 62
     5
 10
2782.936412
 20
114.197581
 11
2782.936412
 21
113.735249
  0
LINE
  8
CSLAYER1
  6
CONTINUOUS
 62
     5
 10
2840.436412
 20
106.232640
 11
2831.593854
 21
108.543302
  0
LINE
  8
CSLAYER1
  6
CONTINUOUS
 62
     5
 10
2817.782649
 20
111.878304
 11
2827.936412
 21
109.905920
  0
LINE
  8
CSLAYER1
  6
CONTINUOUS
 62
     5
 10
2827.936412
 20
109.905920
 11
2831.593854
 21
108.543302
  0
LINE
  8
CSLAYER1
  6
CONTINUOUS
 62
     5
 10
2840.436412
 20
106.232640
 11
2840.143795
 21
105.393534
  0
LINE
  8
CSLAYER1
  6
CONTINUOUS
 62
     5
 10
2849.936412
 20
100.732640
 11
2849.630385
 21
101.961621
  0
LINE
  8
CSLAYER1
  6
CONTINUOUS
 62
     5
 10
2840.143795
 20
105.393534
 11
2849.630385
 21
101.961621
  0
LINE
  8
CSLAYER1
  6
CONTINUOUS
 62
     5
 10
2786.436412
 20
106.232640
 11
2788.859450
 21
106.232640
  0
LINE
  8
CSLAYER1
  6
CONTINUOUS
 62
     5
 10
2808.936412
 20
106.665135
 11
2808.936412
 21
106.232640
  0
LINE
  8
CSLAYER1
  6
CONTINUOUS
 62
     5
 10
2807.936412
 20
107.199576
 11
2806.225133
 21
107.836755
  0
LINE
  8
CSLAYER1
  6
CONTINUOUS
 62
     5
 10
2806.225133
 20
107.836755
 11
2805.115077
 21
107.887212
  0
LINE
  8
CSLAYER1
  6
CONTINUOUS
 62
     5
 10
2805.115077
 20
107.887212
 11
2804.635735
 21
107.634926
  0
LINE
  8
CSLAYER1
  6
CONTINUOUS
 62
     5
 10
2804.635735
 20
107.634926
 11
2804.534821
 21
107.231270
  0
LINE
  8
CSLAYER1
  6
CONTINUOUS
 62
     5
 10
2804.534821
 20
107.231270
 11
2804.988934
 21
106.928527
  0
LINE
  8
CSLAYER1
  6
CONTINUOUS
 62
     5
 10
2804.988934
 20
106.928527
 11
2806.628790
 21
106.777156
  0
LINE
  8
CSLAYER1
  6
CONTINUOUS
 62
     5
 10
2806.628790
 20
106.777156
 11
2808.936412
 21
106.665135
  0
LINE
  8
CSLAYER1
  6
CONTINUOUS
 62
     5
 10
2849.936412
 20
100.732640
 11
2846.960870
 21
101.919221
  0
LINE
  8
CSLAYER1
  6
CONTINUOUS
 62
     5
 10
2846.960870
 20
101.919221
 11
2836.905180
 21
103.762097
  0
LINE
  8
CSLAYER1
  6
CONTINUOUS
 62
     5
 10
2836.905180
 20
103.762097
 11
2831.879400
 21
104.921892
  0
LINE
  8
CSLAYER1
  6
CONTINUOUS
 62
     5
 10
2809.470633
 20
107.232640
 11
2821.236299
 21
107.232640
  0
LINE
  8
CSLAYER1
  6
CONTINUOUS
 62
     5
 10
2807.936412
 20
107.199576
 11
2808.461072
 21
106.891109
  0
LINE
  8
CSLAYER1
  6
CONTINUOUS
 62
     5
 10
2808.461072
 20
106.891109
 11
2808.757884
 21
106.802065
  0
LINE
  8
CSLAYER1
  6
CONTINUOUS
 62
     5
 10
2808.757884
 20
106.802065
 11
2808.936412
 21
106.827236
  0
LINE
  8
CSLAYER1
  6
CONTINUOUS
 62
     5
 10
2808.936412
 20
106.827236
 11
2809.470633
 21
107.232640
  0
LINE
  8
CSLAYER1
  6
CONTINUOUS
 62
     5
 10
2821.236299
 20
107.232640
 11
2825.686568
 21
106.203814
  0
LINE
  8
CSLAYER1
  6
CONTINUOUS
 62
     5
 10
2825.686568
 20
106.203814
 11
2829.839760
 21
105.038665
  0
LINE
  8
CSLAYER1
  6
CONTINUOUS
 62
     5
 10
2829.839760
 20
105.038665
 11
2831.879400
 21
104.921892
  0
LINE
  8
CSLAYER1
  6
CONTINUOUS
 62
     5
 10
2785.436412
 20
105.232640
 11
2785.436412
 21
104.732640
  0
LINE
  8
CSLAYER1
  6
CONTINUOUS
 62
     5
 10
2782.936412
 20
104.732640
 11
2785.436412
 21
104.732640
  0
ARC
  8
CSLAYER1
  6
CONTINUOUS
 62
     5
 10
2786.436412
 20
105.232640
 40
1.000000
 50
90.000000
 51
180.000000
  0
LINE
  8
CSLAYER1
  6
CONTINUOUS
 62
     5
 10
2788.859450
 20
106.232640
 11
2789.557007
 21
105.660643
  0
LINE
  8
CSLAYER1
  6
CONTINUOUS
 62
     5
 10
2790.159375
 20
105.636683
 11
2791.016972
 21
106.232640
  0
LINE
  8
CSLAYER1
  6
CONTINUOUS
 62
     5
 10
2792.595368
 20
106.232640
 11
2794.262494
 21
105.574564
  0
LINE
  8
CSLAYER1
  6
CONTINUOUS
 62
     5
 10
2794.686203
 20
105.601076
 11
2795.839690
 21
106.232640
  0
LINE
  8
CSLAYER1
  6
CONTINUOUS
 62
     5
 10
2791.016972
 20
106.232640
 11
2792.595368
 21
106.232640
  0
LINE
  8
CSLAYER1
  6
CONTINUOUS
 62
     5
 10
2795.839690
 20
106.232640
 11
2808.936412
 21
106.232640
  0
LINE
  8
CSLAYER1
  6
CONTINUOUS
 62
     5
 10
2761.485395
 20
103.123813
 11
2782.936412
 21
104.732640
  0
LINE
  8
CSLAYER1
  6
CONTINUOUS
 62
     5
 10
2757.484045
 20
103.209864
 11
2761.485395
 21
103.123813
  0
ARC
  8
CSLAYER1
  6
CONTINUOUS
 62
     5
 10
2789.874047
 20
106.047277
 40
0.500000
 50
230.648247
 51
304.796026
  0
ARC
  8
CSLAYER1
  6
CONTINUOUS
 62
     5
 10
2794.446077
 20
106.039642
 40
0.500000
 50
248.459024
 51
298.701829
  0
ARC
  8
CSLAYER1
  6
CONTINUOUS
 62
     5
 10
2749.691800
 20
112.747751
 40
0.300000
 50
-84.093859
 51
36.869898
  0
ARC
  8
CSLAYER1
  6
CONTINUOUS
 62
     5
 10
2749.226196
 20
114.679023
 40
0.700000
 50
85.301319
 51
194.142980
  0
LINE
  8
CSLAYER1
  6
CONTINUOUS
 62
     3
 10
2781.418237
 20
97.465795
 11
2789.528732
 21
97.465795
  0
LINE
  8
CSLAYER1
  6
CONTINUOUS
 62
     3
 10
2775.005720
 20
95.865795
 11
2792.649061
 21
95.865795
  0
LINE
  8
CSLAYER1
  6
CONTINUOUS
 62
     3
 10
2771.592781
 20
94.265795
 11
2795.524426
 21
94.265795
  0
LINE
  8
CSLAYER1
  6
CONTINUOUS
 62
     3
 10
2769.357462
 20
92.665795
 11
2797.367899
 21
92.665795
  0
LINE
  8
CSLAYER1
  6
CONTINUOUS
 62
     3
 10
2767.861806
 20
91.065795
 11
2798.602184
 21
91.065795
  0
LINE
  8
CSLAYER1
  6
CONTINUOUS
 62
     3
 10
2766.641492
 20
89.465795
 11
2799.651561
 21
89.465795
  0
LINE
  8
CSLAYER1
  6
CONTINUOUS
 62
     3
 10
2765.949600
 20
87.865795
 11
2800.377436
 21
87.865795
  0
LINE
  8
CSLAYER1
  6
CONTINUOUS
 62
     3
 10
2765.257708
 20
86.265795
 11
2800.715822
 21
86.265795
  0
LINE
  8
CSLAYER1
  6
CONTINUOUS
 62
     3
 10
2764.609358
 20
84.665795
 11
2801.054208
 21
84.665795
  0
LINE
  8
CSLAYER1
  6
CONTINUOUS
 62
     3
 10
2764.287699
 20
83.065795
 11
2801.392594
 21
83.065795
  0
LINE
  8
CSLAYER1
  6
CONTINUOUS
 62
     3
 10
2763.966040
 20
81.465795
 11
2779.556283
 21
81.465795
  0
LINE
  8
CSLAYER1
  6
CONTINUOUS
 62
     3
 10
2763.644381
 20
79.865795
 11
2778.024022
 21
79.865795
  0
LINE
  8
CSLAYER1
  6
CONTINUOUS
 62
     3
 10
2763.322722
 20
78.265795
 11
2777.235852
 21
78.265795
  0
LINE
  8
CSLAYER1
  6
CONTINUOUS
 62
     3
 10
2763.081604
 20
76.665795
 11
2776.917085
 21
76.665795
  0
LINE
  8
CSLAYER1
  6
CONTINUOUS
 62
     3
 10
2762.961434
 20
75.065795
 11
2776.967106
 21
75.065795
  0
LINE
  8
CSLAYER1
  6
CONTINUOUS
 62
     3
 10
2762.936412
 20
73.465795
 11
2777.513193
 21
73.465795
  0
LINE
  8
CSLAYER1
  6
CONTINUOUS
 62
     3
 10
2763.435600
 20
71.865795
 11
2779.543195
 21
71.865795
  0
LINE
  8
CSLAYER1
  6
CONTINUOUS
 62
     3
 10
2764.146711
 20
70.265795
 11
2796.674567
 21
70.265795
  0
LINE
  8
CSLAYER1
  6
CONTINUOUS
 62
     3
 10
2764.857823
 20
68.665795
 11
2796.223285
 21
68.665795
  0
LINE
  8
CSLAYER1
  6
CONTINUOUS
 62
     3
 10
2765.568934
 20
67.065795
 11
2795.500261
 21
67.065795
  0
LINE
  8
CSLAYER1
  6
CONTINUOUS
 62
     3
 10
2766.530893
 20
65.465795
 11
2794.602074
 21
65.465795
  0
LINE
  8
CSLAYER1
  6
CONTINUOUS
 62
     3
 10
2767.779354
 20
63.865795
 11
2793.097148
 21
63.865795
  0
LINE
  8
CSLAYER1
  6
CONTINUOUS
 62
     3
 10
2769.384774
 20
62.265795
 11
2790.704687
 21
62.265795
  0
LINE
  8
CSLAYER1
  6
CONTINUOUS
 62
     3
 10
2771.531916
 20
60.665795
 11
2787.579564
 21
60.665795
  0
LINE
  8
CSLAYER1
  6
CONTINUOUS
 62
     3
 10
2774.779606
 20
59.065795
 11
2782.941415
 21
59.065795
  0
LINE
  8
CSLAYER1
  6
CONTINUOUS
 62
     3
 10
2784.748107
 20
81.465795
 11
2801.567844
 21
81.465795
  0
LINE
  8
CSLAYER1
  6
CONTINUOUS
 62
     3
 10
2785.418851
 20
79.865795
 11
2801.442074
 21
79.865795
  0
LINE
  8
CSLAYER1
  6
CONTINUOUS
 62
     3
 10
2785.530858
 20
78.265795
 11
2801.316305
 21
78.265795
  0
LINE
  8
CSLAYER1
  6
CONTINUOUS
 62
     3
 10
2785.285501
 20
76.665795
 11
2800.602449
 21
76.665795
  0
LINE
  8
CSLAYER1
  6
CONTINUOUS
 62
     3
 10
2784.633855
 20
75.065795
 11
2799.881249
 21
75.065795
  0
LINE
  8
CSLAYER1
  6
CONTINUOUS
 62
     3
 10
2783.500592
 20
73.465795
 11
2798.947301
 21
73.465795
  0
LINE
  8
CSLAYER1
  6
CONTINUOUS
 62
     3
 10
2781.244595
 20
71.865795
 11
2797.676594
 21
71.865795
  0
TEXT
  8
CSLAYER1
 62
     5
 10
2802.108183
 20
79.476970
 40
4.713448
 41
1.951056
  1
M
 50
0.000000
 51
0.000000
  7
EASYDRAW_FONT
 72
     5
 11
2808.238985
 21
79.476970
  0
TEXT
  8
CSLAYER1
 62
     5
 10
2811.759570
 20
79.418700
 40
4.626621
 41
0.778201
  1
T
 50
0.000000
 51
0.000000
  7
EASYDRAW_FONT
 72
     5
 11
2814.159863
 21
79.418700
  0
TEXT
  8
CSLAYER1
 62
     5
 10
2814.525133
 20
79.453499
 40
4.696183
 41
1.055553
  1
E
 50
0.000000
 51
0.000000
  7
EASYDRAW_FONT
 72
     5
 11
2817.829848
 21
79.453499
  0
TEXT
  8
CSLAYER1
 62
     5
 10
2817.641314
 20
81.069343
 40
0.348283
 41
9.375319
  1
-
 50
0.000000
 51
0.000000
  7
EASYDRAW_FONT
 72
     5
 11
2819.818159
 21
81.069343
  0
TEXT
  8
CSLAYER1
 62
     5
 10
2819.455523
 20
79.422152
 40
4.861659
 41
1.298502
  1
H
 50
0.000000
 51
0.000000
  7
EASYDRAW_FONT
 72
     5
 11
2823.664106
 21
79.422152
  0
TEXT
  8
CSLAYER1
 62
     5
 10
2823.531538
 20
79.452530
 40
4.843139
 41
1.269236
  1
A
 50
0.000000
 51
0.000000
  7
EASYDRAW_FONT
 72
     5
 11
2827.629595
 21
79.452530
  0
TEXT
  8
CSLAYER1
 62
     5
 10
2827.237694
 20
79.411004
 40
4.825362
 41
1.490144
  1
N
 50
0.000000
 51
0.000000
  7
EASYDRAW_FONT
 72
     5
 11
2832.031349
 21
79.411004
  0
TEXT
  8
CSLAYER1
 62
     5
 10
2808.029152
 20
79.388431
 40
4.982325
 41
1.177443
  1
A
 50
0.000000
 51
0.000000
  7
EASYDRAW_FONT
 72
     5
 11
2811.940086
 21
79.388431
  0
TEXT
  8
CSLAYER1
 62
     5
 10
2802.475197
 20
72.393191
 40
4.982325
 41
1.177443
  1
A
 50
0.000000
 51
0.000000
  7
EASYDRAW_FONT
 72
     5
 11
2806.386131
 21
72.393191
  0
TEXT
  8
CSLAYER1
 62
     5
 10
2815.259621
 20
72.421512
 40
4.982325
 41
1.177443
  1
A
 50
0.000000
 51
0.000000
  7
EASYDRAW_FONT
 72
     5
 11
2819.170555
 21
72.421512
  0
TEXT
  8
CSLAYER1
 62
     5
 10
2819.020165
 20
72.478509
 40
4.825362
 41
1.490144
  1
N
 50
0.000000
 51
0.000000
  7
EASYDRAW_FONT
 72
     5
 11
2823.813819
 21
72.478509
  0
TEXT
  8
CSLAYER1
 62
     5
 10
2827.922501
 20
72.486903
 40
4.841775
 41
1.184218
  1
E
 50
0.000000
 51
0.000000
  7
EASYDRAW_FONT
 72
     5
 11
2831.744980
 21
72.486903
  0
TEXT
  8
CSLAYER1
 62
     5
 10
2806.755750
 20
72.391867
 40
4.947865
 41
1.093992
  1
D
 50
0.000000
 51
0.000000
  7
EASYDRAW_FONT
 72
     5
 11
2810.364367
 21
72.391867
  0
TEXT
  8
CSLAYER1
 62
     5
 10
2811.158109
 20
72.386482
 40
4.924210
 41
1.228195
  1
V
 50
0.000000
 51
0.000000
  7
EASYDRAW_FONT
 72
     5
 11
2815.190036
 21
72.386482
  0
TEXT
  8
CSLAYER1
 62
     5
 10
2823.383310
 20
72.407213
 40
5.032894
 41
1.481023
  1
C
 50
0.000000
 51
0.000000
  7
EASYDRAW_FONT
 72
     5
 11
2828.352530
 21
72.407213
  0
LINE
  8
CSLAYER1
  6
CONTINUOUS
 62
     5
 10
2814.013749
 20
83.467612
 11
2813.001687
 21
83.467612
  0
LINE
  8
CSLAYER1
  6
CONTINUOUS
 62
     3
 10
2763.111987
 20
117.692883
 11
2812.909813
 21
117.692883
  0
LINE
  8
CSLAYER1
  6
CONTINUOUS
 62
     3
 10
2755.999623
 20
116.092883
 11
2823.989505
 21
116.092883
  0
LINE
  8
CSLAYER1
  6
CONTINUOUS
 62
     3
 10
2748.551219
 20
114.492883
 11
2793.974529
 21
114.492883
  0
LINE
  8
CSLAYER1
  6
CONTINUOUS
 62
     3
 10
2806.936079
 20
114.492883
 11
2816.522682
 21
114.492883
  0
LINE
  8
CSLAYER1
  6
CONTINUOUS
 62
     3
 10
2820.831816
 20
114.492883
 11
2829.344813
 21
114.492883
  0
LINE
  8
CSLAYER1
  6
CONTINUOUS
 62
     3
 10
2749.954358
 20
112.892883
 11
2806.660827
 21
112.892883
  0
LINE
  8
CSLAYER1
  6
CONTINUOUS
 62
     3
 10
2826.840965
 20
112.892883
 11
2832.947211
 21
112.892883
  0
LINE
  8
CSLAYER1
  6
CONTINUOUS
 62
     3
 10
2748.042024
 20
111.292883
 11
2820.796375
 21
111.292883
  0
LINE
  8
CSLAYER1
  6
CONTINUOUS
 62
     3
 10
2832.742264
 20
111.292883
 11
2834.975986
 21
111.292883
  0
LINE
  8
CSLAYER1
  6
CONTINUOUS
 62
     3
 10
2746.979799
 20
109.692883
 11
2828.508231
 21
109.692883
  0
LINE
  8
CSLAYER1
  6
CONTINUOUS
 62
     3
 10
2748.655466
 20
108.092883
 11
2833.317540
 21
108.092883
  0
LINE
  8
CSLAYER1
  6
CONTINUOUS
 62
     3
 10
2749.823033
 20
106.492883
 11
2808.936412
 21
106.492883
  0
LINE
  8
CSLAYER1
  6
CONTINUOUS
 62
     3
 10
2824.436177
 20
106.492883
 11
2839.440500
 21
106.492883
  0
LINE
  8
CSLAYER1
  6
CONTINUOUS
 62
     3
 10
2750.068157
 20
104.892883
 11
2785.436412
 21
104.892883
  0
LINE
  8
CSLAYER1
  6
CONTINUOUS
 62
     3
 10
2832.005106
 20
104.892883
 11
2841.527709
 21
104.892883
  0
LINE
  8
CSLAYER1
  6
CONTINUOUS
 62
     3
 10
2750.274482
 20
103.292883
 11
2763.739655
 21
103.292883
  0
LINE
  8
CSLAYER1
  6
CONTINUOUS
 62
     3
 10
2839.465455
 20
103.292883
 11
2845.950473
 21
103.292883
  0
LINE
  8
CSLAYER1
  6
CONTINUOUS
 62
     3
 10
2847.528449
 20
101.692883
 11
2849.697303
 21
101.692883
  0
ENDBLK
  8
0
  0
BLOCK
  8
CSLAYER1
  2
BLKF0001
 70
   64
 10
0.0
 20
0.0
 30
0.0
  0
CIRCLE
  8
CSLAYER1
  6
CONTINUOUS
 62
     4
 10
1356.575245
 20
736.349341
 40
12.000000
  0
LINE
  8
CSLAYER1
  6
CONTINUOUS
 62
     4
 10
1363.503448
 20
748.349341
 11
1349.647042
 21
748.349341
  0
LINE
  8
CSLAYER1
  6
CONTINUOUS
 62
     4
 10
1349.647042
 20
748.349341
 11
1342.718838
 21
736.349341
  0
LINE
  8
CSLAYER1
  6
CONTINUOUS
 62
     4
 10
1342.718838
 20
736.349341
 11
1349.647042
 21
724.349341
  0
LINE
  8
CSLAYER1
  6
CONTINUOUS
 62
     4
 10
1349.647042
 20
724.349341
 11
1363.503448
 21
724.349341
  0
LINE
  8
CSLAYER1
  6
CONTINUOUS
 62
     4
 10
1363.503448
 20
724.349341
 11
1370.431651
 21
736.349341
  0
LINE
  8
CSLAYER1
  6
CONTINUOUS
 62
     4
 10
1370.431651
 20
736.349341
 11
1363.503448
 21
748.349341
  0
CIRCLE
  8
CSLAYER1
  6
CONTINUOUS
 62
     5
 10
1356.575245
 20
736.349341
 40
8.000000
  0
CIRCLE
  8
CSLAYER1
  6
CONTINUOUS
 62
     4
 10
1356.575245
 20
736.349341
 40
7.000000
  0
POINT
  8
CSLAYER1
 62
     4
 10
1356.575245
 20
736.349341
  0
ENDBLK
  8
0
  0
BLOCK
  8
CSLAYER1
  2
BLKF0002
 70
   64
 10
0.0
 20
0.0
 30
0.0
  0
LINE
  8
CSLAYER1
  6
CONTINUOUS
 62
     5
 10
621.470120
 20
721.349341
 11
621.470120
 21
751.349341
  0
LINE
  8
CSLAYER1
  6
CONTINUOUS
 62
     4
 10
618.270120
 20
751.349341
 11
621.470120
 21
751.349341
  0
LINE
  8
CSLAYER1
  6
CONTINUOUS
 62
     4
 10
618.270120
 20
721.349341
 11
621.470120
 21
721.349341
  0
LINE
  8
CSLAYER1
  6
CONTINUOUS
 62
     4
 10
618.270120
 20
751.349341
 11
618.270120
 21
721.349341
  0
LINE
  8
CSLAYER1
  6
CONTINUOUS
 62
     4
 10
625.470120
 20
722.349341
 11
625.470120
 21
750.349341
  0
LINE
  8
CSLAYER1
  6
CONTINUOUS
 62
     4
 10
621.470120
 20
722.349341
 11
625.470120
 21
722.349341
  0
LINE
  8
CSLAYER1
  6
CONTINUOUS
 62
     4
 10
621.470120
 20
750.349341
 11
625.470120
 21
750.349341
  0
LINE
  8
CSLAYER1
  6
CONTINUOUS
 62
     4
 10
635.470120
 20
724.349341
 11
635.470120
 21
748.349341
  0
LINE
  8
CSLAYER1
  6
CONTINUOUS
 62
     4
 10
618.270120
 20
751.349341
 11
618.270120
 21
721.349341
  0
LINE
  8
CSLAYER1
  6
CONTINUOUS
 62
     4
 10
621.470120
 20
751.349341
 11
621.470120
 21
721.349341
  0
LINE
  8
CSLAYER1
  6
CONTINUOUS
 62
     4
 10
637.270120
 20
743.349341
 11
637.270120
 21
729.349341
  0
LINE
  8
CSLAYER1
  6
CONTINUOUS
 62
     4
 10
636.270120
 20
728.349341
 11
635.470120
 21
728.349341
  0
LINE
  8
CSLAYER1
  6
CONTINUOUS
 62
     5
 10
637.270120
 20
729.349341
 11
635.470120
 21
729.349341
  0
LINE
  8
CSLAYER1
  6
CONTINUOUS
 62
     4
 10
636.270120
 20
728.349341
 11
637.270120
 21
729.349341
  0
LINE
  8
CSLAYER1
  6
CONTINUOUS
 62
     4
 10
636.270120
 20
728.349341
 11
636.270120
 21
744.349341
  0
LINE
  8
CSLAYER1
  6
CONTINUOUS
 62
     4
 10
625.470120
 20
722.492935
 11
634.398323
 21
722.492935
  0
LINE
  8
CSLAYER1
  6
CONTINUOUS
 62
     4
 10
625.470120
 20
729.421138
 11
634.398323
 21
729.421138
  0
LINE
  8
CSLAYER1
  6
CONTINUOUS
 62
     4
 10
635.470120
 20
724.349341
 11
634.398323
 21
722.492935
  0
ARC
  8
CSLAYER1
  6
CONTINUOUS
 62
     4
 10
612.541916
 20
736.349341
 40
22.928203
 50
342.412046
 51
360.000000
  0
ARC
  8
CSLAYER1
  6
CONTINUOUS
 62
     4
 10
629.626249
 20
725.957036
 40
5.896837
 50
-24.023685
 51
35.976315
  0
LINE
  8
CSLAYER1
  6
CONTINUOUS
 62
     4
 10
635.470120
 20
748.349341
 11
635.470120
 21
724.349341
  0
LINE
  8
CSLAYER1
  6
CONTINUOUS
 62
     3
 10
637.270120
 20
729.349341
 11
637.270120
 21
743.349341
  0
LINE
  8
CSLAYER1
  6
CONTINUOUS
 62
     4
 10
636.270120
 20
744.349341
 11
635.470120
 21
744.349341
  0
LINE
  8
CSLAYER1
  6
CONTINUOUS
 62
     5
 10
637.270120
 20
743.349341
 11
635.470120
 21
743.349341
  0
LINE
  8
CSLAYER1
  6
CONTINUOUS
 62
     4
 10
636.270120
 20
744.349341
 11
637.270120
 21
743.349341
  0
LINE
  8
CSLAYER1
  6
CONTINUOUS
 62
     3
 10
636.270120
 20
744.349341
 11
636.270120
 21
728.349341
  0
LINE
  8
CSLAYER1
  6
CONTINUOUS
 62
     4
 10
625.470120
 20
750.205748
 11
634.398323
 21
750.205748
  0
LINE
  8
CSLAYER1
  6
CONTINUOUS
 62
     4
 10
625.470120
 20
743.277544
 11
634.398323
 21
743.277544
  0
LINE
  8
CSLAYER1
  6
CONTINUOUS
 62
     4
 10
635.470120
 20
748.349341
 11
634.398323
 21
750.205748
  0
ARC
  8
CSLAYER1
  6
CONTINUOUS
 62
     4
 10
612.541916
 20
736.349341
 40
22.928203
 50
0.000000
 51
17.587954
  0
ARC
  8
CSLAYER1
  6
CONTINUOUS
 62
     4
 10
629.626249
 20
746.741646
 40
5.896837
 50
-35.976315
 51
24.023685
  0
LINE
  8
CSLAYER1
  6
CONTINUOUS
 62
     4
 10
621.470120
 20
739.150123
 11
625.470120
 21
733.750123
  0
POINT
  8
CSLAYER1
 62
     7
 10
618.270120
 20
736.349341
  0
ENDBLK
  8
0
  0
BLOCK
  8
CSLAYER1
  2
BLKF0003
 70
   64
 10
0.0
 20
0.0
 30
0.0
  0
LINE
  8
CSLAYER1
  6
CONTINUOUS
 62
     5
 10
303.070120
 20
721.349341
 11
303.070120
 21
751.349341
  0
LINE
  8
CSLAYER1
  6
CONTINUOUS
 62
     4
 10
306.270120
 20
751.349341
 11
303.070120
 21
751.349341
  0
LINE
  8
CSLAYER1
  6
CONTINUOUS
 62
     4
 10
306.270120
 20
721.349341
 11
303.070120
 21
721.349341
  0
LINE
  8
CSLAYER1
  6
CONTINUOUS
 62
     4
 10
306.270120
 20
751.349341
 11
306.270120
 21
721.349341
  0
LINE
  8
CSLAYER1
  6
CONTINUOUS
 62
     4
 10
299.070120
 20
722.349341
 11
299.070120
 21
750.349341
  0
LINE
  8
CSLAYER1
  6
CONTINUOUS
 62
     4
 10
303.070120
 20
722.349341
 11
299.070120
 21
722.349341
  0
LINE
  8
CSLAYER1
  6
CONTINUOUS
 62
     4
 10
303.070120
 20
750.349341
 11
299.070120
 21
750.349341
  0
LINE
  8
CSLAYER1
  6
CONTINUOUS
 62
     4
 10
289.070120
 20
724.349341
 11
289.070120
 21
748.349341
  0
LINE
  8
CSLAYER1
  6
CONTINUOUS
 62
     4
 10
306.270120
 20
751.349341
 11
306.270120
 21
721.349341
  0
LINE
  8
CSLAYER1
  6
CONTINUOUS
 62
     4
 10
303.070120
 20
751.349341
 11
303.070120
 21
721.349341
  0
LINE
  8
CSLAYER1
  6
CONTINUOUS
 62
     4
 10
287.270120
 20
743.349341
 11
287.270120
 21
729.349341
  0
LINE
  8
CSLAYER1
  6
CONTINUOUS
 62
     4
 10
288.270120
 20
728.349341
 11
289.070120
 21
728.349341
  0
LINE
  8
CSLAYER1
  6
CONTINUOUS
 62
     5
 10
287.270120
 20
729.349341
 11
289.070120
 21
729.349341
  0
LINE
  8
CSLAYER1
  6
CONTINUOUS
 62
     4
 10
288.270120
 20
728.349341
 11
287.270120
 21
729.349341
  0
LINE
  8
CSLAYER1
  6
CONTINUOUS
 62
     4
 10
288.270120
 20
728.349341
 11
288.270120
 21
744.349341
  0
LINE
  8
CSLAYER1
  6
CONTINUOUS
 62
     4
 10
299.070120
 20
722.492935
 11
290.141916
 21
722.492935
  0
LINE
  8
CSLAYER1
  6
CONTINUOUS
 62
     4
 10
299.070120
 20
729.421138
 11
290.141916
 21
729.421138
  0
LINE
  8
CSLAYER1
  6
CONTINUOUS
 62
     4
 10
289.070120
 20
724.349341
 11
290.141916
 21
722.492935
  0
ARC
  8
CSLAYER1
  6
CONTINUOUS
 62
     4
 10
311.998323
 20
736.349341
 40
22.928203
 50
180.000000
 51
197.587954
  0
ARC
  8
CSLAYER1
  6
CONTINUOUS
 62
     4
 10
294.913990
 20
725.957036
 40
5.896837
 50
144.023685
 51
204.023685
  0
LINE
  8
CSLAYER1
  6
CONTINUOUS
 62
     4
 10
289.070120
 20
748.349341
 11
289.070120
 21
724.349341
  0
LINE
  8
CSLAYER1
  6
CONTINUOUS
 62
     3
 10
287.270120
 20
729.349341
 11
287.270120
 21
743.349341
  0
LINE
  8
CSLAYER1
  6
CONTINUOUS
 62
     4
 10
288.270120
 20
744.349341
 11
289.070120
 21
744.349341
  0
LINE
  8
CSLAYER1
  6
CONTINUOUS
 62
     5
 10
287.270120
 20
743.349341
 11
289.070120
 21
743.349341
  0
LINE
  8
CSLAYER1
  6
CONTINUOUS
 62
     4
 10
288.270120
 20
744.349341
 11
287.270120
 21
743.349341
  0
LINE
  8
CSLAYER1
  6
CONTINUOUS
 62
     3
 10
288.270120
 20
744.349341
 11
288.270120
 21
728.349341
  0
LINE
  8
CSLAYER1
  6
CONTINUOUS
 62
     4
 10
299.070120
 20
750.205748
 11
290.141916
 21
750.205748
  0
LINE
  8
CSLAYER1
  6
CONTINUOUS
 62
     4
 10
299.070120
 20
743.277544
 11
290.141916
 21
743.277544
  0
LINE
  8
CSLAYER1
  6
CONTINUOUS
 62
     4
 10
289.070120
 20
748.349341
 11
290.141916
 21
750.205748
  0
ARC
  8
CSLAYER1
  6
CONTINUOUS
 62
     4
 10
311.998323
 20
736.349341
 40
22.928203
 50
162.412046
 51
180.000000
  0
ARC
  8
CSLAYER1
  6
CONTINUOUS
 62
     4
 10
294.913990
 20
746.741646
 40
5.896837
 50
155.976315
 51
215.976315
  0
LINE
  8
CSLAYER1
  6
CONTINUOUS
 62
     4
 10
303.070120
 20
739.150123
 11
299.070120
 21
733.750123
  0
POINT
  8
CSLAYER1
 62
     7
 10
306.270120
 20
736.349341
  0
ENDBLK
  8
0
  0
BLOCK
  8
CSLAYER1
  2
BLKF0004
 70
   64
 10
0.0
 20
0.0
 30
0.0
  0
LINE
  8
CSLAYER1
  6
CONTINUOUS
 62
     3
 10
1941.144531
 20
1864.808019
 11
1941.144531
 21
1856.308019
  0
LINE
  8
CSLAYER1
  6
CONTINUOUS
 62
     3
 10
1937.174964
 20
1869.298400
 11
1932.515545
 21
1869.298400
  0
LINE
  8
CSLAYER1
  6
CONTINUOUS
 62
     3
 10
1938.035436
 20
1867.808019
 11
1938.035436
 21
1856.308019
  0
LINE
  8
CSLAYER1
  6
CONTINUOUS
 62
     3
 10
1938.035436
 20
1867.808019
 11
1937.174964
 21
1869.298400
  0
LINE
  8
CSLAYER1
  6
CONTINUOUS
 62
     3
 10
1937.174964
 20
1862.947547
 11
1932.515545
 21
1862.947547
  0
ARC
  8
CSLAYER1
  6
CONTINUOUS
 62
     3
 10
1911.989411
 20
1856.308019
 40
26.046025
 50
0.000000
 51
14.768561
  0
ARC
  8
CSLAYER1
  6
CONTINUOUS
 62
     3
 10
1931.903843
 20
1866.122973
 40
6.153702
 50
-31.065581
 51
23.174644
  0
LINE
  8
CSLAYER1
  6
CONTINUOUS
 62
     3
 10
1938.144531
 20
1867.808019
 11
1938.035436
 21
1867.808019
  0
ARC
  8
CSLAYER1
  6
CONTINUOUS
 62
     3
 10
1938.144531
 20
1864.808019
 40
3.000000
 50
0.000000
 51
90.000000
  0
LINE
  8
CSLAYER1
  6
CONTINUOUS
 62
     3
 10
1941.144531
 20
1847.808019
 11
1941.144531
 21
1856.308019
  0
LINE
  8
CSLAYER1
  6
CONTINUOUS
 62
     3
 10
1937.174964
 20
1843.317638
 11
1932.515545
 21
1843.317638
  0
LINE
  8
CSLAYER1
  6
CONTINUOUS
 62
     3
 10
1938.035436
 20
1844.808019
 11
1938.035436
 21
1856.308019
  0
LINE
  8
CSLAYER1
  6
CONTINUOUS
 62
     3
 10
1938.035436
 20
1844.808019
 11
1937.174964
 21
1843.317638
  0
LINE
  8
CSLAYER1
  6
CONTINUOUS
 62
     3
 10
1937.174964
 20
1849.668491
 11
1932.515545
 21
1849.668491
  0
ARC
  8
CSLAYER1
  6
CONTINUOUS
 62
     3
 10
1911.989411
 20
1856.308019
 40
26.046025
 50
-14.768561
 51
0.000000
  0
ARC
  8
CSLAYER1
  6
CONTINUOUS
 62
     3
 10
1931.903843
 20
1846.493064
 40
6.153702
 50
-23.174644
 51
31.065581
  0
LINE
  8
CSLAYER1
  6
CONTINUOUS
 62
     3
 10
1938.144531
 20
1844.808019
 11
1938.035436
 21
1844.808019
  0
ARC
  8
CSLAYER1
  6
CONTINUOUS
 62
     3
 10
1938.144531
 20
1847.808019
 40
3.000000
 50
270.000000
 51
360.000000
  0
LINE
  8
CSLAYER1
  6
CENTER
 62
     5
 10
1948.016309
 20
1856.308019
 11
1932.515545
 21
1856.308019
  0
LINE
  8
CSLAYER1
  6
CONTINUOUS
 62
     3
 10
1941.144531
 20
1829.808019
 11
1941.144531
 21
1821.308019
  0
LINE
  8
CSLAYER1
  6
CONTINUOUS
 62
     3
 10
1937.174964
 20
1834.298400
 11
1932.515545
 21
1834.298400
  0
LINE
  8
CSLAYER1
  6
CONTINUOUS
 62
     3
 10
1938.035436
 20
1832.808019
 11
1938.035436
 21
1821.308019
  0
LINE
  8
CSLAYER1
  6
CONTINUOUS
 62
     3
 10
1938.035436
 20
1832.808019
 11
1937.174964
 21
1834.298400
  0
LINE
  8
CSLAYER1
  6
CONTINUOUS
 62
     3
 10
1937.174964
 20
1827.947547
 11
1932.515545
 21
1827.947547
  0
ARC
  8
CSLAYER1
  6
CONTINUOUS
 62
     3
 10
1911.989411
 20
1821.308019
 40
26.046025
 50
0.000000
 51
14.768561
  0
ARC
  8
CSLAYER1
  6
CONTINUOUS
 62
     3
 10
1931.903843
 20
1831.122973
 40
6.153702
 50
-31.065581
 51
23.174644
  0
LINE
  8
CSLAYER1
  6
CONTINUOUS
 62
     3
 10
1938.144531
 20
1832.808019
 11
1938.035436
 21
1832.808019
  0
ARC
  8
CSLAYER1
  6
CONTINUOUS
 62
     3
 10
1938.144531
 20
1829.808019
 40
3.000000
 50
0.000000
 51
90.000000
  0
LINE
  8
CSLAYER1
  6
CONTINUOUS
 62
     3
 10
1941.144531
 20
1812.808019
 11
1941.144531
 21
1821.308019
  0
LINE
  8
CSLAYER1
  6
CONTINUOUS
 62
     3
 10
1937.174964
 20
1808.317638
 11
1932.515545
 21
1808.317638
  0
LINE
  8
CSLAYER1
  6
CONTINUOUS
 62
     3
 10
1938.035436
 20
1809.808019
 11
1938.035436
 21
1821.308019
  0
LINE
  8
CSLAYER1
  6
CONTINUOUS
 62
     3
 10
1938.035436
 20
1809.808019
 11
1937.174964
 21
1808.317638
  0
LINE
  8
CSLAYER1
  6
CONTINUOUS
 62
     3
 10
1937.174964
 20
1814.668491
 11
1932.515545
 21
1814.668491
  0
ARC
  8
CSLAYER1
  6
CONTINUOUS
 62
     3
 10
1911.989411
 20
1821.308019
 40
26.046025
 50
-14.768561
 51
0.000000
  0
ARC
  8
CSLAYER1
  6
CONTINUOUS
 62
     3
 10
1931.903843
 20
1811.493064
 40
6.153702
 50
-23.174644
 51
31.065581
  0
LINE
  8
CSLAYER1
  6
CONTINUOUS
 62
     3
 10
1938.144531
 20
1809.808019
 11
1938.035436
 21
1809.808019
  0
ARC
  8
CSLAYER1
  6
CONTINUOUS
 62
     3
 10
1938.144531
 20
1812.808019
 40
3.000000
 50
270.000000
 51
360.000000
  0
LINE
  8
CSLAYER1
  6
CENTER
 62
     5
 10
1946.676679
 20
1821.308019
 11
1932.515545
 21
1821.308019
  0
ENDBLK
  8
0
  0
BLOCK
  8
CSLAYER1
  2
BLKF0005
 70
   64
 10
0.0
 20
0.0
 30
0.0
  0
LINE
  8
CSLAYER1
  6
CONTINUOUS
 62
     3
 10
1529.315545
 20
1075.992353
 11
1529.315545
 21
1061.792353
  0
LINE
  8
CSLAYER1
  6
CONTINUOUS
 62
     3
 10
1532.315545
 20
1058.792353
 11
1926.315545
 21
1058.792353
  0
LINE
  8
CSLAYER1
  6
CONTINUOUS
 62
     3
 10
1929.315545
 20
1075.992353
 11
1929.315545
 21
1061.792353
  0
LINE
  8
CSLAYER1
  6
CONTINUOUS
 62
     3
 10
1932.515545
 20
1120.992353
 11
1932.515545
 21
1075.992353
  0
LINE
  8
CSLAYER1
  6
CONTINUOUS
 62
     3
 10
1529.315545
 20
1061.792353
 11
1532.315545
 21
1058.792353
  0
LINE
  8
CSLAYER1
  6
CONTINUOUS
 62
     3
 10
1926.315545
 20
1058.792353
 11
1929.315545
 21
1061.792353
  0
LINE
  8
CSLAYER1
  6
CONTINUOUS
 62
     3
 10
1032.515545
 20
1120.992353
 11
1932.515545
 21
1120.992353
  0
LINE
  8
CSLAYER1
  6
CONTINUOUS
 62
     3
 10
1032.715545
 20
1075.992353
 11
1932.515545
 21
1075.992353
  0
POINT
  8
CSLAYER1
 62
     3
 10
1066.715545
 20
1040.292353
  0
CIRCLE
  8
CSLAYER1
  6
CONTINUOUS
 62
     3
 10
1066.715545
 20
1040.292353
 40
9.500000
  0
LINE
  8
CSLAYER1
  6
CONTINUOUS
 62
     3
 10
1072.200373
 20
1049.792353
 11
1061.230718
 21
1049.792353
  0
LINE
  8
CSLAYER1
  6
CONTINUOUS
 62
     3
 10
1061.230718
 20
1049.792353
 11
1055.745890
 21
1040.292353
  0
LINE
  8
CSLAYER1
  6
CONTINUOUS
 62
     3
 10
1055.745890
 20
1040.292353
 11
1061.230718
 21
1030.792353
  0
LINE
  8
CSLAYER1
  6
CONTINUOUS
 62
     3
 10
1061.230718
 20
1030.792353
 11
1072.200373
 21
1030.792353
  0
LINE
  8
CSLAYER1
  6
CONTINUOUS
 62
     3
 10
1072.200373
 20
1030.792353
 11
1077.685200
 21
1040.292353
  0
LINE
  8
CSLAYER1
  6
CONTINUOUS
 62
     3
 10
1077.685200
 20
1040.292353
 11
1072.200373
 21
1049.792353
  0
CIRCLE
  8
CSLAYER1
  6
CONTINUOUS
 62
     3
 10
1066.715545
 20
1040.292353
 40
8.650000
  0
CIRCLE
  8
CSLAYER1
  6
CONTINUOUS
 62
     3
 10
1066.715545
 20
1040.292353
 40
5.000000
  0
CIRCLE
  8
CSLAYER1
  6
CONTINUOUS
 62
     3
 10
1066.715545
 20
1040.292353
 40
9.500000
  0
LINE
  8
CSLAYER1
  6
CONTINUOUS
 62
     3
 10
1035.715545
 20
1075.992353
 11
1035.715545
 21
1033.792353
  0
LINE
  8
CSLAYER1
  6
CONTINUOUS
 62
     3
 10
1075.715545
 20
1023.792353
 11
1045.715545
 21
1023.792353
  0
LINE
  8
CSLAYER1
  6
CONTINUOUS
 62
     3
 10
1085.715545
 20
1075.992353
 11
1085.715545
 21
1033.792353
  0
LINE
  8
CSLAYER1
  6
CONTINUOUS
 62
     3
 10
1035.715545
 20
1075.992353
 11
1032.515545
 21
1075.992353
  0
LINE
  8
CSLAYER1
  6
CONTINUOUS
 62
     3
 10
1032.515545
 20
1120.992353
 11
1032.515545
 21
1075.992353
  0
ARC
  8
CSLAYER1
  6
CONTINUOUS
 62
     3
 10
1045.715545
 20
1033.792353
 40
10.000000
 50
180.000000
 51
270.000000
  0
ARC
  8
CSLAYER1
  6
CONTINUOUS
 62
     3
 10
1075.715545
 20
1033.792353
 40
10.000000
 50
270.000000
 51
360.000000
  0
POINT
  8
CSLAYER1
 62
     7
 10
1066.715545
 20
1040.292353
  0
ENDBLK
  8
0
  0
BLOCK
  8
CSLAYER1
  2
BLKF0006
 70
   64
 10
0.0
 20
0.0
 30
0.0
  0
LINE
  8
CSLAYER1
  6
PHANTOM
 62
     5
 10
1529.315545
 20
517.906329
 11
1529.315545
 21
503.706329
  0
LINE
  8
CSLAYER1
  6
PHANTOM
 62
     5
 10
1532.315545
 20
500.706329
 11
1926.315545
 21
500.706329
  0
LINE
  8
CSLAYER1
  6
PHANTOM
 62
     5
 10
1929.315545
 20
517.906329
 11
1929.315545
 21
503.706329
  0
LINE
  8
CSLAYER1
  6
PHANTOM
 62
     5
 10
1932.515545
 20
562.906329
 11
1932.515545
 21
517.906329
  0
LINE
  8
CSLAYER1
  6
PHANTOM
 62
     5
 10
1529.315545
 20
503.706329
 11
1532.315545
 21
500.706329
  0
LINE
  8
CSLAYER1
  6
PHANTOM
 62
     5
 10
1926.315545
 20
500.706329
 11
1929.315545
 21
503.706329
  0
LINE
  8
CSLAYER1
  6
PHANTOM
 62
     5
 10
1032.515545
 20
562.906329
 11
1932.515545
 21
562.906329
  0
LINE
  8
CSLAYER1
  6
PHANTOM
 62
     5
 10
1032.715545
 20
517.906329
 11
1932.515545
 21
517.906329
  0
POINT
  8
CSLAYER1
 62
     5
 10
1066.715545
 20
482.206329
  0
CIRCLE
  8
CSLAYER1
  6
PHANTOM
 62
     5
 10
1066.715545
 20
482.206329
 40
9.500000
  0
LINE
  8
CSLAYER1
  6
PHANTOM
 62
     5
 10
1072.200373
 20
491.706329
 11
1061.230718
 21
491.706329
  0
LINE
  8
CSLAYER1
  6
PHANTOM
 62
     5
 10
1061.230718
 20
491.706329
 11
1055.745890
 21
482.206329
  0
LINE
  8
CSLAYER1
  6
PHANTOM
 62
     5
 10
1055.745890
 20
482.206329
 11
1061.230718
 21
472.706329
  0
LINE
  8
CSLAYER1
  6
PHANTOM
 62
     5
 10
1061.230718
 20
472.706329
 11
1072.200373
 21
472.706329
  0
LINE
  8
CSLAYER1
  6
PHANTOM
 62
     5
 10
1072.200373
 20
472.706329
 11
1077.685200
 21
482.206329
  0
LINE
  8
CSLAYER1
  6
PHANTOM
 62
     5
 10
1077.685200
 20
482.206329
 11
1072.200373
 21
491.706329
  0
CIRCLE
  8
CSLAYER1
  6
PHANTOM
 62
     5
 10
1066.715545
 20
482.206329
 40
8.650000
  0
CIRCLE
  8
CSLAYER1
  6
PHANTOM
 62
     5
 10
1066.715545
 20
482.206329
 40
5.000000
  0
CIRCLE
  8
CSLAYER1
  6
PHANTOM
 62
     5
 10
1066.715545
 20
482.206329
 40
9.500000
  0
LINE
  8
CSLAYER1
  6
PHANTOM
 62
     5
 10
1035.715545
 20
517.906329
 11
1035.715545
 21
475.706329
  0
LINE
  8
CSLAYER1
  6
PHANTOM
 62
     5
 10
1075.715545
 20
465.706329
 11
1045.715545
 21
465.706329
  0
LINE
  8
CSLAYER1
  6
PHANTOM
 62
     5
 10
1085.715545
 20
517.906329
 11
1085.715545
 21
475.706329
  0
LINE
  8
CSLAYER1
  6
PHANTOM
 62
     5
 10
1035.715545
 20
517.906329
 11
1032.515545
 21
517.906329
  0
LINE
  8
CSLAYER1
  6
PHANTOM
 62
     5
 10
1032.515545
 20
562.906329
 11
1032.515545
 21
517.906329
  0
ARC
  8
CSLAYER1
  6
PHANTOM
 62
     5
 10
1045.715545
 20
475.706329
 40
10.000000
 50
180.000000
 51
270.000000
  0
ARC
  8
CSLAYER1
  6
PHANTOM
 62
     5
 10
1075.715545
 20
475.706329
 40
10.000000
 50
270.000000
 51
360.000000
  0
POINT
  8
CSLAYER1
 62
     5
 10
1066.715545
 20
482.206329
  0
ENDBLK
  8
0
  0
BLOCK
  8
CSLAYER1
  2
BLKF0007
 70
   64
 10
0.0
 20
0.0
 30
0.0
  0
LINE
  8
CSLAYER1
  6
CONTINUOUS
 62
     3
 10
287.770120
 20
1022.292353
 11
287.770120
 21
1029.542353
  0
LINE
  8
CSLAYER1
  6
CONTINUOUS
 62
     3
 10
299.770120
 20
1048.942353
 11
299.770120
 21
1058.292353
  0
LINE
  8
CSLAYER1
  6
CONTINUOUS
 62
     3
 10
311.770120
 20
1056.292353
 11
311.770120
 21
1058.292353
  0
LINE
  8
CSLAYER1
  6
CONTINUOUS
 62
     3
 10
311.270120
 20
1058.792353
 11
300.270120
 21
1058.792353
  0
LINE
  8
CSLAYER1
  6
CONTINUOUS
 62
     3
 10
299.770120
 20
1031.642353
 11
299.770120
 21
1022.292353
  0
LINE
  8
CSLAYER1
  6
CONTINUOUS
 62
     3
 10
306.270120
 20
1021.792353
 11
300.270120
 21
1021.792353
  0
LINE
  8
CSLAYER1
  6
CONTINUOUS
 62
     3
 10
299.770120
 20
1021.792353
 11
287.770120
 21
1021.792353
  0
LINE
  8
CSLAYER1
  6
CONTINUOUS
 62
     3
 10
299.270120
 20
1058.792353
 11
298.270120
 21
1058.792353
  0
ARC
  8
CSLAYER1
  6
CONTINUOUS
 62
     3
 10
300.270120
 20
1022.292353
 40
0.500000
 50
180.000000
 51
270.000000
  0
ARC
  8
CSLAYER1
  6
CONTINUOUS
 62
     3
 10
311.270120
 20
1058.292353
 40
0.500000
 50
0.000000
 51
90.000000
  0
ARC
  8
CSLAYER1
  6
CONTINUOUS
 62
     3
 10
300.270120
 20
1058.292353
 40
0.500000
 50
90.000000
 51
180.000000
  0
ARC
  8
CSLAYER1
  6
CONTINUOUS
 62
     3
 10
299.270120
 20
1058.292353
 40
0.500000
 50
0.000000
 51
90.000000
  0
ARC
  8
CSLAYER1
  6
CONTINUOUS
 62
     3
 10
288.270120
 20
1058.292353
 40
0.500000
 50
90.000000
 51
180.000000
  0
ARC
  8
CSLAYER1
  6
CONTINUOUS
 62
     3
 10
288.270120
 20
1022.292353
 40
0.500000
 50
180.000000
 51
270.000000
  0
LINE
  8
CSLAYER1
  6
CONTINUOUS
 62
     3
 10
315.270120
 20
1029.292353
 11
326.270120
 21
1029.292353
  0
LINE
  8
CSLAYER1
  6
CONTINUOUS
 62
     3
 10
315.270120
 20
1051.292353
 11
326.270120
 21
1051.292353
  0
ARC
  8
CSLAYER1
  6
CONTINUOUS
 62
     3
 10
299.270120
 20
1022.292353
 40
0.500000
 50
270.000000
 51
360.000000
  0
LINE
  8
CSLAYER1
  6
CONTINUOUS
 62
     3
 10
287.770120
 20
1051.042353
 11
287.770120
 21
1058.292353
  0
LINE
  8
CSLAYER1
  6
CONTINUOUS
 62
     3
 10
289.270120
 20
1058.792353
 11
288.270120
 21
1058.792353
  0
ENDBLK
  8
0
  0
BLOCK
  8
CSLAYER1
  2
BLKF0008
 70
   64
 10
0.0
 20
0.0
 30
0.0
  0
LINE
  8
CSLAYER1
  6
CONTINUOUS
 62
     3
 10
636.770120
 20
1022.292353
 11
636.770120
 21
1029.542353
  0
LINE
  8
CSLAYER1
  6
CONTINUOUS
 62
     3
 10
624.770120
 20
1048.942353
 11
624.770120
 21
1058.292353
  0
LINE
  8
CSLAYER1
  6
CONTINUOUS
 62
     3
 10
612.770120
 20
1056.292353
 11
612.770120
 21
1058.292353
  0
LINE
  8
CSLAYER1
  6
CONTINUOUS
 62
     3
 10
613.270120
 20
1058.792353
 11
624.270120
 21
1058.792353
  0
LINE
  8
CSLAYER1
  6
CONTINUOUS
 62
     3
 10
624.770120
 20
1031.642353
 11
624.770120
 21
1022.292353
  0
LINE
  8
CSLAYER1
  6
CONTINUOUS
 62
     3
 10
618.270120
 20
1021.792353
 11
624.270120
 21
1021.792353
  0
LINE
  8
CSLAYER1
  6
CONTINUOUS
 62
     3
 10
624.770120
 20
1021.792353
 11
636.770120
 21
1021.792353
  0
LINE
  8
CSLAYER1
  6
CONTINUOUS
 62
     3
 10
625.270120
 20
1058.792353
 11
626.270120
 21
1058.792353
  0
ARC
  8
CSLAYER1
  6
CONTINUOUS
 62
     3
 10
624.270120
 20
1022.292353
 40
0.500000
 50
270.000000
 51
360.000000
  0
ARC
  8
CSLAYER1
  6
CONTINUOUS
 62
     3
 10
613.270120
 20
1058.292353
 40
0.500000
 50
90.000000
 51
180.000000
  0
ARC
  8
CSLAYER1
  6
CONTINUOUS
 62
     3
 10
624.270120
 20
1058.292353
 40
0.500000
 50
0.000000
 51
90.000000
  0
ARC
  8
CSLAYER1
  6
CONTINUOUS
 62
     3
 10
625.270120
 20
1058.292353
 40
0.500000
 50
90.000000
 51
180.000000
  0
ARC
  8
CSLAYER1
  6
CONTINUOUS
 62
     3
 10
636.270120
 20
1058.292353
 40
0.500000
 50
0.000000
 51
90.000000
  0
ARC
  8
CSLAYER1
  6
CONTINUOUS
 62
     3
 10
636.270120
 20
1022.292353
 40
0.500000
 50
270.000000
 51
360.000000
  0
LINE
  8
CSLAYER1
  6
CONTINUOUS
 62
     3
 10
609.270120
 20
1029.292353
 11
598.270120
 21
1029.292353
  0
LINE
  8
CSLAYER1
  6
CONTINUOUS
 62
     3
 10
609.270120
 20
1051.292353
 11
598.270120
 21
1051.292353
  0
ARC
  8
CSLAYER1
  6
CONTINUOUS
 62
     3
 10
625.270120
 20
1022.292353
 40
0.500000
 50
180.000000
 51
270.000000
  0
LINE
  8
CSLAYER1
  6
CONTINUOUS
 62
     3
 10
636.770120
 20
1051.042353
 11
636.770120
 21
1058.292353
  0
LINE
  8
CSLAYER1
  6
CONTINUOUS
 62
     3
 10
635.270120
 20
1058.792353
 11
636.270120
 21
1058.792353
  0
ENDBLK
  8
0
  0
BLOCK
  8
CSLAYER1
  2
BLKF0009
 70
   64
 10
0.0
 20
0.0
 30
0.0
  0
LINE
  8
CSLAYER1
  6
CONTINUOUS
 62
     3
 10
1132.900591
 20
535.906329
 11
1152.530500
 21
535.906329
  0
LINE
  8
CSLAYER1
  6
CONTINUOUS
 62
     3
 10
1152.530500
 20
535.906329
 11
1152.530500
 21
543.002802
  0
LINE
  8
CSLAYER1
  6
CONTINUOUS
 62
     3
 10
1152.530500
 20
543.002802
 11
1150.965545
 21
543.906329
  0
LINE
  8
CSLAYER1
  6
CONTINUOUS
 62
     3
 10
1150.965545
 20
543.906329
 11
1134.465545
 21
543.906329
  0
LINE
  8
CSLAYER1
  6
CONTINUOUS
 62
     3
 10
1134.465545
 20
543.906329
 11
1132.900591
 21
543.002802
  0
LINE
  8
CSLAYER1
  6
CONTINUOUS
 62
     3
 10
1132.900591
 20
543.002802
 11
1132.900591
 21
535.906329
  0
LINE
  8
CSLAYER1
  6
CONTINUOUS
 62
     3
 10
1137.808068
 20
535.906329
 11
1137.808068
 21
543.002802
  0
LINE
  8
CSLAYER1
  6
CONTINUOUS
 62
     3
 10
1147.623022
 20
543.002802
 11
1147.623022
 21
535.906329
  0
ARC
  8
CSLAYER1
  6
CONTINUOUS
 62
     3
 10
1150.076761
 20
540.122715
 40
3.783614
 50
90.000000
 51
130.429897
  0
ARC
  8
CSLAYER1
  6
CONTINUOUS
 62
     3
 10
1142.715545
 20
530.127164
 40
13.779165
 50
69.135936
 51
110.864064
  0
ARC
  8
CSLAYER1
  6
CONTINUOUS
 62
     3
 10
1135.354329
 20
540.122715
 40
3.783614
 50
49.570103
 51
90.000000
  0
POINT
  8
CSLAYER1
 62
     3
 10
1142.715545
 20
535.906329
  0
ENDBLK
  8
0
  0
BLOCK
  8
CSLAYER1
  2
BLKF0010
 70
   64
 10
0.0
 20
0.0
 30
0.0
  0
LINE
  8
CSLAYER1
  6
CONTINUOUS
 62
     3
 10
1132.900591
 20
551.706329
 11
1152.530500
 21
551.706329
  0
LINE
  8
CSLAYER1
  6
CONTINUOUS
 62
     3
 10
1152.530500
 20
551.706329
 11
1152.530500
 21
558.802802
  0
LINE
  8
CSLAYER1
  6
CONTINUOUS
 62
     3
 10
1152.530500
 20
558.802802
 11
1150.965545
 21
559.706329
  0
LINE
  8
CSLAYER1
  6
CONTINUOUS
 62
     3
 10
1150.965545
 20
559.706329
 11
1134.465545
 21
559.706329
  0
LINE
  8
CSLAYER1
  6
CONTINUOUS
 62
     3
 10
1134.465545
 20
559.706329
 11
1132.900591
 21
558.802802
  0
LINE
  8
CSLAYER1
  6
CONTINUOUS
 62
     3
 10
1132.900591
 20
558.802802
 11
1132.900591
 21
551.706329
  0
LINE
  8
CSLAYER1
  6
CONTINUOUS
 62
     3
 10
1137.808068
 20
551.706329
 11
1137.808068
 21
558.802802
  0
LINE
  8
CSLAYER1
  6
CONTINUOUS
 62
     3
 10
1147.623022
 20
558.802802
 11
1147.623022
 21
551.706329
  0
ARC
  8
CSLAYER1
  6
CONTINUOUS
 62
     3
 10
1150.076761
 20
555.922715
 40
3.783614
 50
90.000000
 51
130.429897
  0
ARC
  8
CSLAYER1
  6
CONTINUOUS
 62
     3
 10
1142.715545
 20
545.927164
 40
13.779165
 50
69.135936
 51
110.864064
  0
ARC
  8
CSLAYER1
  6
CONTINUOUS
 62
     3
 10
1135.354329
 20
555.922715
 40
3.783614
 50
49.570103
 51
90.000000
  0
POINT
  8
CSLAYER1
 62
     3
 10
1142.715545
 20
551.706329
  0
ENDBLK
  8
0
  0
BLOCK
  8
CSLAYER1
  2
BLKF0011
 70
   64
 10
0.0
 20
0.0
 30
0.0
  0
LINE
  8
CSLAYER1
  6
CENTER
 62
     5
 10
643.070120
 20
457.906329
 11
643.070120
 21
562.906329
  0
LINE
  8
CSLAYER1
  6
CONTINUOUS
 62
     7
 10
633.070120
 20
457.906329
 11
633.070120
 21
535.906329
  0
LINE
  8
CSLAYER1
  6
CONTINUOUS
 62
     7
 10
653.070120
 20
535.906329
 11
633.070120
 21
535.906329
  0
LINE
  8
CSLAYER1
  6
CONTINUOUS
 62
     7
 10
653.070120
 20
457.906329
 11
653.070120
 21
535.906329
  0
LINE
  8
CSLAYER1
  6
CONTINUOUS
 62
     3
 10
652.885074
 20
535.906329
 11
633.255165
 21
535.906329
  0
LINE
  8
CSLAYER1
  6
CONTINUOUS
 62
     3
 10
633.255165
 20
535.906329
 11
633.255165
 21
543.002802
  0
LINE
  8
CSLAYER1
  6
CONTINUOUS
 62
     3
 10
633.255165
 20
543.002802
 11
634.820120
 21
543.906329
  0
LINE
  8
CSLAYER1
  6
CONTINUOUS
 62
     3
 10
634.820120
 20
543.906329
 11
651.320120
 21
543.906329
  0
LINE
  8
CSLAYER1
  6
CONTINUOUS
 62
     3
 10
651.320120
 20
543.906329
 11
652.885074
 21
543.002802
  0
LINE
  8
CSLAYER1
  6
CONTINUOUS
 62
     3
 10
652.885074
 20
543.002802
 11
652.885074
 21
535.906329
  0
LINE
  8
CSLAYER1
  6
CONTINUOUS
 62
     3
 10
647.977597
 20
535.906329
 11
647.977597
 21
543.002802
  0
LINE
  8
CSLAYER1
  6
CONTINUOUS
 62
     3
 10
638.162642
 20
543.002802
 11
638.162642
 21
535.906329
  0
ARC
  8
CSLAYER1
  6
CONTINUOUS
 62
     3
 10
635.708904
 20
540.122715
 40
3.783614
 50
49.570103
 51
90.000000
  0
ARC
  8
CSLAYER1
  6
CONTINUOUS
 62
     3
 10
643.070120
 20
530.127164
 40
13.779165
 50
69.135936
 51
110.864064
  0
ARC
  8
CSLAYER1
  6
CONTINUOUS
 62
     3
 10
650.431336
 20
540.122715
 40
3.783614
 50
90.000000
 51
130.429897
  0
POINT
  8
CSLAYER1
 62
     3
 10
643.070120
 20
535.906329
  0
LINE
  8
CSLAYER1
  6
CONTINUOUS
 62
     3
 10
652.885074
 20
551.706329
 11
633.255165
 21
551.706329
  0
LINE
  8
CSLAYER1
  6
CONTINUOUS
 62
     3
 10
633.255165
 20
551.706329
 11
633.255165
 21
558.802802
  0
LINE
  8
CSLAYER1
  6
CONTINUOUS
 62
     3
 10
633.255165
 20
558.802802
 11
634.820120
 21
559.706329
  0
LINE
  8
CSLAYER1
  6
CONTINUOUS
 62
     3
 10
634.820120
 20
559.706329
 11
651.320120
 21
559.706329
  0
LINE
  8
CSLAYER1
  6
CONTINUOUS
 62
     3
 10
651.320120
 20
559.706329
 11
652.885074
 21
558.802802
  0
LINE
  8
CSLAYER1
  6
CONTINUOUS
 62
     3
 10
652.885074
 20
558.802802
 11
652.885074
 21
551.706329
  0
LINE
  8
CSLAYER1
  6
CONTINUOUS
 62
     3
 10
647.977597
 20
551.706329
 11
647.977597
 21
558.802802
  0
LINE
  8
CSLAYER1
  6
CONTINUOUS
 62
     3
 10
638.162642
 20
558.802802
 11
638.162642
 21
551.706329
  0
ARC
  8
CSLAYER1
  6
CONTINUOUS
 62
     3
 10
635.708904
 20
555.922715
 40
3.783614
 50
49.570103
 51
90.000000
  0
ARC
  8
CSLAYER1
  6
CONTINUOUS
 62
     3
 10
643.070120
 20
545.927164
 40
13.779165
 50
69.135936
 51
110.864064
  0
ARC
  8
CSLAYER1
  6
CONTINUOUS
 62
     3
 10
650.431336
 20
555.922715
 40
3.783614
 50
90.000000
 51
130.429897
  0
POINT
  8
CSLAYER1
 62
     3
 10
643.070120
 20
551.706329
  0
LINE
  8
CSLAYER1
  6
CONTINUOUS
 62
     3
 10
638.070120
 20
543.906329
 11
638.070120
 21
551.706329
  0
LINE
  8
CSLAYER1
  6
CONTINUOUS
 62
     4
 10
639.070120
 20
543.906329
 11
639.070120
 21
551.706329
  0
LINE
  8
CSLAYER1
  6
CONTINUOUS
 62
     3
 10
648.070120
 20
543.906329
 11
648.070120
 21
551.706329
  0
LINE
  8
CSLAYER1
  6
CONTINUOUS
 62
     4
 10
647.070120
 20
543.906329
 11
647.070120
 21
551.706329
  0
ENDBLK
  8
0
  0
BLOCK
  8
CSLAYER1
  2
BLKF0012
 70
   64
 10
0.0
 20
0.0
 30
0.0
  0
LINE
  8
CSLAYER1
  6
CENTER
 62
     5
 10
281.470120
 20
457.906329
 11
281.470120
 21
562.906329
  0
LINE
  8
CSLAYER1
  6
CONTINUOUS
 62
     7
 10
291.470120
 20
457.906329
 11
291.470120
 21
535.906329
  0
LINE
  8
CSLAYER1
  6
CONTINUOUS
 62
     7
 10
271.470120
 20
535.906329
 11
291.470120
 21
535.906329
  0
LINE
  8
CSLAYER1
  6
CONTINUOUS
 62
     7
 10
271.470120
 20
457.906329
 11
271.470120
 21
535.906329
  0
LINE
  8
CSLAYER1
  6
CONTINUOUS
 62
     3
 10
271.655165
 20
535.906329
 11
291.285074
 21
535.906329
  0
LINE
  8
CSLAYER1
  6
CONTINUOUS
 62
     3
 10
291.285074
 20
535.906329
 11
291.285074
 21
543.002802
  0
LINE
  8
CSLAYER1
  6
CONTINUOUS
 62
     3
 10
291.285074
 20
543.002802
 11
289.720120
 21
543.906329
  0
LINE
  8
CSLAYER1
  6
CONTINUOUS
 62
     3
 10
289.720120
 20
543.906329
 11
273.220120
 21
543.906329
  0
LINE
  8
CSLAYER1
  6
CONTINUOUS
 62
     3
 10
273.220120
 20
543.906329
 11
271.655165
 21
543.002802
  0
LINE
  8
CSLAYER1
  6
CONTINUOUS
 62
     3
 10
271.655165
 20
543.002802
 11
271.655165
 21
535.906329
  0
LINE
  8
CSLAYER1
  6
CONTINUOUS
 62
     3
 10
276.562642
 20
535.906329
 11
276.562642
 21
543.002802
  0
LINE
  8
CSLAYER1
  6
CONTINUOUS
 62
     3
 10
286.377597
 20
543.002802
 11
286.377597
 21
535.906329
  0
ARC
  8
CSLAYER1
  6
CONTINUOUS
 62
     3
 10
288.831336
 20
540.122715
 40
3.783614
 50
90.000000
 51
130.429897
  0
ARC
  8
CSLAYER1
  6
CONTINUOUS
 62
     3
 10
281.470120
 20
530.127164
 40
13.779165
 50
69.135936
 51
110.864064
  0
ARC
  8
CSLAYER1
  6
CONTINUOUS
 62
     3
 10
274.108904
 20
540.122715
 40
3.783614
 50
49.570103
 51
90.000000
  0
POINT
  8
CSLAYER1
 62
     3
 10
281.470120
 20
535.906329
  0
LINE
  8
CSLAYER1
  6
CONTINUOUS
 62
     3
 10
271.655165
 20
551.706329
 11
291.285074
 21
551.706329
  0
LINE
  8
CSLAYER1
  6
CONTINUOUS
 62
     3
 10
291.285074
 20
551.706329
 11
291.285074
 21
558.802802
  0
LINE
  8
CSLAYER1
  6
CONTINUOUS
 62
     3
 10
291.285074
 20
558.802802
 11
289.720120
 21
559.706329
  0
LINE
  8
CSLAYER1
  6
CONTINUOUS
 62
     3
 10
289.720120
 20
559.706329
 11
273.220120
 21
559.706329
  0
LINE
  8
CSLAYER1
  6
CONTINUOUS
 62
     3
 10
273.220120
 20
559.706329
 11
271.655165
 21
558.802802
  0
LINE
  8
CSLAYER1
  6
CONTINUOUS
 62
     3
 10
271.655165
 20
558.802802
 11
271.655165
 21
551.706329
  0
LINE
  8
CSLAYER1
  6
CONTINUOUS
 62
     3
 10
276.562642
 20
551.706329
 11
276.562642
 21
558.802802
  0
LINE
  8
CSLAYER1
  6
CONTINUOUS
 62
     3
 10
286.377597
 20
558.802802
 11
286.377597
 21
551.706329
  0
ARC
  8
CSLAYER1
  6
CONTINUOUS
 62
     3
 10
288.831336
 20
555.922715
 40
3.783614
 50
90.000000
 51
130.429897
  0
ARC
  8
CSLAYER1
  6
CONTINUOUS
 62
     3
 10
281.470120
 20
545.927164
 40
13.779165
 50
69.135936
 51
110.864064
  0
ARC
  8
CSLAYER1
  6
CONTINUOUS
 62
     3
 10
274.108904
 20
555.922715
 40
3.783614
 50
49.570103
 51
90.000000
  0
POINT
  8
CSLAYER1
 62
     3
 10
281.470120
 20
551.706329
  0
LINE
  8
CSLAYER1
  6
CONTINUOUS
 62
     3
 10
286.470120
 20
543.906329
 11
286.470120
 21
551.706329
  0
LINE
  8
CSLAYER1
  6
CONTINUOUS
 62
     4
 10
285.470120
 20
543.906329
 11
285.470120
 21
551.706329
  0
LINE
  8
CSLAYER1
  6
CONTINUOUS
 62
     3
 10
276.470120
 20
543.906329
 11
276.470120
 21
551.706329
  0
LINE
  8
CSLAYER1
  6
CONTINUOUS
 62
     4
 10
277.470120
 20
543.906329
 11
277.470120
 21
551.706329
  0
ENDBLK
  8
0
  0
BLOCK
  8
CSLAYER1
  2
BLKF0013
 70
   64
 10
0.0
 20
0.0
 30
0.0
  0
LINE
  8
CSLAYER1
  6
CONTINUOUS
 62
     3
 10
2327.589886
 20
1835.341380
 11
2367.673805
 21
1882.641269
  0
LINE
  8
CSLAYER1
  6
CONTINUOUS
 62
     3
 10
2327.880852
 20
1831.817840
 11
2392.727473
 21
1776.864080
  0
LINE
  8
CSLAYER1
  6
CENTER
 62
     5
 10
2328.330901
 20
1926.468387
 11
2372.845923
 21
1888.744480
  0
LINE
  8
CSLAYER1
  6
CONTINUOUS
 62
     2
 10
2364.408940
 20
1874.921770
 11
2429.255561
 21
1819.968010
  0
LINE
  8
CSLAYER1
  6
CONTINUOUS
 62
     3
 10
2331.113426
 20
1835.632347
 11
2360.206593
 21
1869.962911
  0
LINE
  8
CSLAYER1
  6
CONTINUOUS
 62
     3
 10
2396.251014
 20
1777.155046
 11
2441.507051
 21
1830.558146
  0
LINE
  8
CSLAYER1
  6
CONTINUOUS
 62
     3
 10
2331.404393
 20
1832.108806
 11
2390.147802
 21
1782.327165
  0
LINE
  8
CSLAYER1
  6
CONTINUOUS
 62
     3
 10
2363.730134
 20
1870.253878
 11
2422.473543
 21
1820.472236
  0
ARC
  8
CSLAYER1
  6
CONTINUOUS
 62
     3
 10
2365.061980
 20
1836.355582
 40
59.568182
 50
294.905816
 51
344.535490
  0
ARC
  8
CSLAYER1
  6
CONTINUOUS
 62
     3
 10
2333.020680
 20
1834.016060
 40
2.500000
 50
139.720653
 51
229.720653
  0
ARC
  8
CSLAYER1
  6
CONTINUOUS
 62
     3
 10
2362.113847
 20
1868.346624
 40
2.500000
 50
49.720653
 51
139.720653
  0
ARC
  8
CSLAYER1
  6
CONTINUOUS
 62
     3
 10
2329.497139
 20
1833.725093
 40
2.500000
 50
139.720653
 51
229.720653
  0
ARC
  8
CSLAYER1
  6
CONTINUOUS
 62
     3
 10
2394.343760
 20
1778.771333
 40
2.500000
 50
229.720653
 51
319.720653
  0
ARC
  8
CSLAYER1
  6
CONTINUOUS
 62
     2
 10
2430.871848
 20
1821.875264
 40
2.500000
 50
229.720653
 51
319.720653
  0
ARC
  8
CSLAYER1
  6
CONTINUOUS
 62
     2
 10
2366.025227
 20
1876.829024
 40
2.500000
 50
139.720653
 51
229.720653
  0
LINE
  8
CSLAYER1
  6
CONTINUOUS
 62
     3
 10
2418.101961
 20
1942.147580
 11
2378.018042
 21
1894.847691
  0
LINE
  8
CSLAYER1
  6
CONTINUOUS
 62
     3
 10
2421.625502
 20
1942.438546
 11
2486.472123
 21
1887.484786
  0
LINE
  8
CSLAYER1
  6
CONTINUOUS
 62
     2
 10
2385.097414
 20
1899.334616
 11
2449.944035
 21
1844.380856
  0
LINE
  8
CSLAYER1
  6
CONTINUOUS
 62
     3
 10
2486.763089
 20
1883.961246
 11
2441.507051
 21
1830.558146
  0
ARC
  8
CSLAYER1
  6
CONTINUOUS
 62
     3
 10
2420.009214
 20
1940.531293
 40
2.500000
 50
49.720653
 51
139.720653
  0
ARC
  8
CSLAYER1
  6
CONTINUOUS
 62
     3
 10
2484.855835
 20
1885.577533
 40
2.500000
 50
-40.279347
 51
49.720653
  0
ARC
  8
CSLAYER1
  6
CONTINUOUS
 62
     2
 10
2448.327748
 20
1842.473602
 40
2.500000
 50
-40.279347
 51
49.720653
  0
ARC
  8
CSLAYER1
  6
CONTINUOUS
 62
     2
 10
2383.481127
 20
1897.427362
 40
2.500000
 50
49.720653
 51
139.720653
  0
LINE
  8
CSLAYER1
  6
CONTINUOUS
 62
     3
 10
2418.392927
 20
1938.624039
 11
2389.299760
 21
1904.293475
  0
LINE
  8
CSLAYER1
  6
CONTINUOUS
 62
     3
 10
2421.916468
 20
1938.915006
 11
2480.659878
 21
1889.133364
  0
LINE
  8
CSLAYER1
  6
CONTINUOUS
 62
     3
 10
2389.590727
 20
1900.769934
 11
2448.334136
 21
1850.988293
  0
ARC
  8
CSLAYER1
  6
CONTINUOUS
 62
     3
 10
2423.248314
 20
1905.016710
 40
59.568182
 50
294.905816
 51
344.535490
  0
ARC
  8
CSLAYER1
  6
CONTINUOUS
 62
     3
 10
2420.300181
 20
1937.007752
 40
2.500000
 50
49.720653
 51
139.720653
  0
ARC
  8
CSLAYER1
  6
CONTINUOUS
 62
     3
 10
2391.207014
 20
1902.677188
 40
2.500000
 50
139.720653
 51
229.720653
  0
LINE
  8
CSLAYER1
  6
CONTINUOUS
 62
     3
 10
2372.031217
 20
1898.610394
 11
2369.768415
 21
1895.940239
  0
LINE
  8
CSLAYER1
  6
CONTINUOUS
 62
     3
 10
2330.593703
 20
1929.138542
 11
2369.768415
 21
1895.940239
  0
LINE
  8
CSLAYER1
  6
CONTINUOUS
 62
     3
 10
2373.440633
 20
1898.726780
 11
2378.018042
 21
1894.847691
  0
LINE
  8
CSLAYER1
  6
CONTINUOUS
 62
     3
 10
2363.096396
 20
1886.520358
 11
2367.673805
 21
1882.641269
  0
LINE
  8
CSLAYER1
  6
CONTINUOUS
 62
     3
 10
2326.068099
 20
1923.798232
 11
2365.242811
 21
1890.599929
  0
ARC
  8
CSLAYER1
  6
CONTINUOUS
 62
     3
 10
2363.742911
 20
1887.283259
 40
1.000000
 50
139.720653
 51
229.720653
  0
ARC
  8
CSLAYER1
  6
CONTINUOUS
 62
     3
 10
2372.794118
 20
1897.963879
 40
1.000000
 50
49.720653
 51
139.720653
  0
LINE
  8
CSLAYER1
  6
CONTINUOUS
 62
     3
 10
2365.242811
 20
1890.599929
 11
2362.980009
 21
1887.929774
  0
LINE
  8
CSLAYER1
  6
CONTINUOUS
 62
     2
 10
2369.768415
 20
1895.940239
 11
2365.242811
 21
1890.599929
  0
LINE
  8
CSLAYER1
  6
CONTINUOUS
 62
     2
 10
2367.673805
 20
1882.641269
 11
2372.845923
 21
1888.744480
  0
LINE
  8
CSLAYER1
  6
CONTINUOUS
 62
     2
 10
2378.018042
 20
1894.847691
 11
2372.845923
 21
1888.744480
  0
LINE
  8
CSLAYER1
  6
CONTINUOUS
 62
     2
 10
2379.853830
 20
1866.863049
 11
2372.884725
 21
1872.768962
  0
LINE
  8
CSLAYER1
  6
CONTINUOUS
 62
     2
 10
2395.127742
 20
1884.886595
 11
2388.158638
 21
1890.792508
  0
LINE
  8
CSLAYER1
  6
CONTINUOUS
 62
     2
 10
2372.738078
 20
1874.544826
 11
2386.382773
 21
1890.645861
  0
LINE
  8
CSLAYER1
  6
CONTINUOUS
 62
     2
 10
2381.629694
 20
1867.009696
 11
2395.274390
 21
1883.110731
  0
LINE
  8
CSLAYER1
  6
CONTINUOUS
 62
     2
 10
2393.425202
 20
1883.852016
 11
2387.297196
 21
1889.045146
  0
LINE
  8
CSLAYER1
  6
CONTINUOUS
 62
     2
 10
2391.388680
 20
1881.448876
 11
2390.667738
 21
1882.059833
  0
LINE
  8
CSLAYER1
  6
CONTINUOUS
 62
     2
 10
2385.788245
 20
1874.840243
 11
2385.067303
 21
1875.451199
  0
LINE
  8
CSLAYER1
  6
CONTINUOUS
 62
     2
 10
2382.835289
 20
1871.355690
 11
2378.990266
 21
1874.614125
  0
LINE
  8
CSLAYER1
  6
CONTINUOUS
 62
     2
 10
2384.389170
 20
1871.484007
 11
2385.916561
 21
1873.286361
  0
LINE
  8
CSLAYER1
  6
CONTINUOUS
 62
     2
 10
2378.861949
 20
1876.168007
 11
2380.389341
 21
1877.970361
  0
LINE
  8
CSLAYER1
  6
CONTINUOUS
 62
     2
 10
2385.132358
 20
1888.195888
 11
2385.743314
 21
1888.916830
  0
LINE
  8
CSLAYER1
  6
CONTINUOUS
 62
     2
 10
2384.957318
 20
1876.783098
 11
2389.335840
 21
1881.949847
  0
LINE
  8
CSLAYER1
  6
CONTINUOUS
 62
     2
 10
2384.356533
 20
1877.292228
 11
2388.735055
 21
1882.458978
  0
ARC
  8
CSLAYER1
  6
CONTINUOUS
 62
     2
 10
2383.548071
 20
1872.196789
 40
1.102500
 50
229.720653
 51
319.720653
  0
ARC
  8
CSLAYER1
  6
CONTINUOUS
 62
     2
 10
2379.703048
 20
1875.455224
 40
1.102500
 50
139.720653
 51
229.720653
  0
ARC
  8
CSLAYER1
  6
CONTINUOUS
 62
     2
 10
2381.230439
 20
1877.257579
 40
1.102500
 50
49.720653
 51
139.720653
  0
ARC
  8
CSLAYER1
  6
CONTINUOUS
 62
     2
 10
2385.075463
 20
1873.999144
 40
1.102500
 50
-40.279347
 51
49.720653
  0
ARC
  8
CSLAYER1
  6
CONTINUOUS
 62
     2
 10
2385.973457
 20
1887.483105
 40
1.102500
 50
139.720653
 51
229.720653
  0
ARC
  8
CSLAYER1
  6
CONTINUOUS
 62
     2
 10
2386.584413
 20
1888.204047
 40
1.102500
 50
49.720653
 51
139.720653
  0
ARC
  8
CSLAYER1
  6
CONTINUOUS
 62
     2
 10
2392.712419
 20
1883.010917
 40
1.102500
 50
-40.279347
 51
49.720653
  0
ARC
  8
CSLAYER1
  6
CONTINUOUS
 62
     2
 10
2392.101462
 20
1882.289975
 40
1.102500
 50
229.720653
 51
319.720653
  0
LINE
  8
CSLAYER1
  6
CONTINUOUS
 62
     2
 10
2383.024635
 20
1877.182243
 11
2381.943222
 21
1878.098677
  0
LINE
  8
CSLAYER1
  6
CONTINUOUS
 62
     2
 10
2388.625069
 20
1883.790876
 11
2385.260674
 21
1886.642007
  0
ARC
  8
CSLAYER1
  6
CONTINUOUS
 62
     2
 10
2385.678260
 20
1876.172141
 40
0.945000
 50
139.720653
 51
229.720653
  0
ARC
  8
CSLAYER1
  6
CONTINUOUS
 62
     2
 10
2383.635591
 20
1877.903184
 40
0.945000
 50
229.720653
 51
319.720653
  0
ARC
  8
CSLAYER1
  6
CONTINUOUS
 62
     2
 10
2388.014113
 20
1883.069934
 40
0.945000
 50
-40.279347
 51
49.720653
  0
ARC
  8
CSLAYER1
  6
CONTINUOUS
 62
     2
 10
2380.668438
 20
1867.824305
 40
1.260000
 50
229.720653
 51
319.720653
  0
ARC
  8
CSLAYER1
  6
CONTINUOUS
 62
     2
 10
2373.699334
 20
1873.730218
 40
1.260000
 50
139.720653
 51
229.720653
  0
ARC
  8
CSLAYER1
  6
CONTINUOUS
 62
     2
 10
2387.344029
 20
1889.831252
 40
1.260000
 50
49.720653
 51
139.720653
  0
ARC
  8
CSLAYER1
  6
CONTINUOUS
 62
     2
 10
2394.313134
 20
1883.925339
 40
1.260000
 50
-40.279347
 51
49.720653
  0
ARC
  8
CSLAYER1
  6
CONTINUOUS
 62
     2
 10
2390.056781
 20
1881.338891
 40
0.945000
 50
49.720653
 51
139.720653
  0
LINE
  8
CSLAYER1
  6
CONTINUOUS
 62
     2
 10
2392.942561
 20
1881.577192
 11
2393.553518
 21
1882.298134
  0
CIRCLE
  8
CSLAYER1
  6
CONTINUOUS
 62
     2
 10
2366.840281
 20
1828.294647
 40
2.500000
  0
CIRCLE
  8
CSLAYER1
  6
CONTINUOUS
 62
     2
 10
2360.375133
 20
1820.665633
 40
2.500000
  0
CIRCLE
  8
CSLAYER1
  6
CONTINUOUS
 62
     2
 10
2368.004147
 20
1814.200485
 40
2.500000
  0
CIRCLE
  8
CSLAYER1
  6
CONTINUOUS
 62
     2
 10
2374.469295
 20
1821.829499
 40
2.500000
  0
CIRCLE
  8
CSLAYER1
  6
CONTINUOUS
 62
     2
 10
2382.098310
 20
1815.364351
 40
2.500000
  0
CIRCLE
  8
CSLAYER1
  6
CONTINUOUS
 62
     2
 10
2375.633161
 20
1807.735337
 40
2.500000
  0
CIRCLE
  8
CSLAYER1
  6
CONTINUOUS
 62
     2
 10
2383.262176
 20
1801.270189
 40
2.500000
  0
CIRCLE
  8
CSLAYER1
  6
CONTINUOUS
 62
     2
 10
2389.727324
 20
1808.899203
 40
2.500000
  0
CIRCLE
  8
CSLAYER1
  6
CONTINUOUS
 62
     2
 10
2397.356338
 20
1802.434055
 40
2.500000
  0
CIRCLE
  8
CSLAYER1
  6
CONTINUOUS
 62
     2
 10
2390.891190
 20
1794.805040
 40
2.500000
  0
CIRCLE
  8
CSLAYER1
  6
CONTINUOUS
 62
     2
 10
2373.305429
 20
1835.923662
 40
2.500000
  0
CIRCLE
  8
CSLAYER1
  6
CONTINUOUS
 62
     2
 10
2379.770578
 20
1843.552676
 40
2.500000
  0
CIRCLE
  8
CSLAYER1
  6
CONTINUOUS
 62
     2
 10
2387.399592
 20
1837.087528
 40
2.500000
  0
CIRCLE
  8
CSLAYER1
  6
CONTINUOUS
 62
     2
 10
2380.934444
 20
1829.458513
 40
2.500000
  0
CIRCLE
  8
CSLAYER1
  6
CONTINUOUS
 62
     2
 10
2388.563458
 20
1822.993365
 40
2.500000
  0
CIRCLE
  8
CSLAYER1
  6
CONTINUOUS
 62
     2
 10
2395.028606
 20
1830.622379
 40
2.500000
  0
CIRCLE
  8
CSLAYER1
  6
CONTINUOUS
 62
     2
 10
2402.657620
 20
1824.157231
 40
2.500000
  0
CIRCLE
  8
CSLAYER1
  6
CONTINUOUS
 62
     2
 10
2396.192472
 20
1816.528217
 40
2.500000
  0
CIRCLE
  8
CSLAYER1
  6
CONTINUOUS
 62
     2
 10
2403.821486
 20
1810.063069
 40
2.500000
  0
CIRCLE
  8
CSLAYER1
  6
CONTINUOUS
 62
     2
 10
2410.286635
 20
1817.692083
 40
2.500000
  0
CIRCLE
  8
CSLAYER1
  6
CONTINUOUS
 62
     2
 10
2431.491764
 20
1904.584790
 40
2.500000
  0
CIRCLE
  8
CSLAYER1
  6
CONTINUOUS
 62
     2
 10
2437.956912
 20
1912.213804
 40
2.500000
  0
CIRCLE
  8
CSLAYER1
  6
CONTINUOUS
 62
     2
 10
2445.585926
 20
1905.748656
 40
2.500000
  0
CIRCLE
  8
CSLAYER1
  6
CONTINUOUS
 62
     2
 10
2439.120778
 20
1898.119642
 40
2.500000
  0
CIRCLE
  8
CSLAYER1
  6
CONTINUOUS
 62
     2
 10
2446.749792
 20
1891.654493
 40
2.500000
  0
CIRCLE
  8
CSLAYER1
  6
CONTINUOUS
 62
     2
 10
2453.214940
 20
1899.283508
 40
2.500000
  0
CIRCLE
  8
CSLAYER1
  6
CONTINUOUS
 62
     2
 10
2460.843954
 20
1892.818359
 40
2.500000
  0
CIRCLE
  8
CSLAYER1
  6
CONTINUOUS
 62
     2
 10
2454.378806
 20
1885.189345
 40
2.500000
  0
CIRCLE
  8
CSLAYER1
  6
CONTINUOUS
 62
     2
 10
2462.007820
 20
1878.724197
 40
2.500000
  0
CIRCLE
  8
CSLAYER1
  6
CONTINUOUS
 62
     2
 10
2468.472969
 20
1886.353211
 40
2.500000
  0
CIRCLE
  8
CSLAYER1
  6
CONTINUOUS
 62
     2
 10
2425.026615
 20
1896.955776
 40
2.500000
  0
CIRCLE
  8
CSLAYER1
  6
CONTINUOUS
 62
     2
 10
2418.561467
 20
1889.326761
 40
2.500000
  0
CIRCLE
  8
CSLAYER1
  6
CONTINUOUS
 62
     2
 10
2426.190481
 20
1882.861613
 40
2.500000
  0
CIRCLE
  8
CSLAYER1
  6
CONTINUOUS
 62
     2
 10
2432.655630
 20
1890.490627
 40
2.500000
  0
CIRCLE
  8
CSLAYER1
  6
CONTINUOUS
 62
     2
 10
2440.284644
 20
1884.025479
 40
2.500000
  0
CIRCLE
  8
CSLAYER1
  6
CONTINUOUS
 62
     2
 10
2433.819496
 20
1876.396465
 40
2.500000
  0
CIRCLE
  8
CSLAYER1
  6
CONTINUOUS
 62
     2
 10
2441.448510
 20
1869.931317
 40
2.500000
  0
CIRCLE
  8
CSLAYER1
  6
CONTINUOUS
 62
     2
 10
2447.913658
 20
1877.560331
 40
2.500000
  0
CIRCLE
  8
CSLAYER1
  6
CONTINUOUS
 62
     2
 10
2455.542672
 20
1871.095183
 40
2.500000
  0
CIRCLE
  8
CSLAYER1
  6
CONTINUOUS
 62
     2
 10
2449.077524
 20
1863.466168
 40
2.500000
  0
LINE
  8
CSLAYER1
  6
CONTINUOUS
 62
     2
 10
2397.109743
 20
1904.228893
 11
2419.737762
 21
1930.930443
  0
LINE
  8
CSLAYER1
  6
CONTINUOUS
 62
     2
 10
2409.316166
 20
1893.884656
 11
2431.944185
 21
1920.586206
  0
LINE
  8
CSLAYER1
  6
CONTINUOUS
 62
     2
 10
2397.284323
 20
1902.114769
 11
2407.202041
 21
1893.710076
  0
LINE
  8
CSLAYER1
  6
CONTINUOUS
 62
     2
 10
2397.872644
 20
1903.582378
 11
2420.500663
 21
1930.283928
  0
LINE
  8
CSLAYER1
  6
CONTINUOUS
 62
     2
 10
2408.553264
 20
1894.531171
 11
2431.181283
 21
1921.232721
  0
LINE
  8
CSLAYER1
  6
CONTINUOUS
 62
     2
 10
2397.930838
 20
1902.877670
 11
2407.848556
 21
1894.472978
  0
LINE
  8
CSLAYER1
  6
CONTINUOUS
 62
     2
 10
2421.851886
 20
1931.105023
 11
2431.769605
 21
1922.700330
  0
LINE
  8
CSLAYER1
  6
CONTINUOUS
 62
     2
 10
2421.205371
 20
1930.342122
 11
2431.123090
 21
1921.937429
  0
ARC
  8
CSLAYER1
  6
CONTINUOUS
 62
     2
 10
2398.254095
 20
1903.259121
 40
0.500000
 50
139.720653
 51
229.720653
  0
ARC
  8
CSLAYER1
  6
CONTINUOUS
 62
     2
 10
2408.171814
 20
1894.854428
 40
0.500000
 50
229.720653
 51
319.720653
  0
ARC
  8
CSLAYER1
  6
CONTINUOUS
 62
     2
 10
2420.882114
 20
1929.960671
 40
0.500000
 50
49.720653
 51
139.720653
  0
ARC
  8
CSLAYER1
  6
CONTINUOUS
 62
     2
 10
2430.799832
 20
1921.555978
 40
0.500000
 50
-40.279347
 51
49.720653
  0
ARC
  8
CSLAYER1
  6
CONTINUOUS
 62
     2
 10
2398.254095
 20
1903.259121
 40
1.500000
 50
139.720653
 51
229.720653
  0
ARC
  8
CSLAYER1
  6
CONTINUOUS
 62
     2
 10
2408.171814
 20
1894.854428
 40
1.500000
 50
229.720653
 51
319.720653
  0
ARC
  8
CSLAYER1
  6
CONTINUOUS
 62
     2
 10
2420.882114
 20
1929.960671
 40
1.500000
 50
49.720653
 51
139.720653
  0
ARC
  8
CSLAYER1
  6
CONTINUOUS
 62
     2
 10
2430.799832
 20
1921.555978
 40
1.500000
 50
-40.279347
 51
49.720653
  0
LINE
  8
CSLAYER1
  6
CONTINUOUS
 62
     2
 10
2406.419626
 20
1907.480981
 11
2418.056893
 21
1921.213207
  0
LINE
  8
CSLAYER1
  6
CONTINUOUS
 62
     2
 10
2409.889994
 20
1916.337113
 11
2418.056893
 21
1921.213207
  0
LINE
  8
CSLAYER1
  6
CONTINUOUS
 62
     2
 10
2409.889994
 20
1916.337113
 11
2406.419626
 21
1907.480981
  0
TEXT
  8
CSLAYER1
 62
     2
 10
2412.760054
 20
1902.134150
 40
7.066058
 41
1.574983
  1
UP
 50
49.720642
 51
0.000000
  7
EASYDRAW_FONT
 72
     5
 11
2424.751745
 21
1916.284598
  0
LINE
  8
CSLAYER1
  6
CONTINUOUS
 62
     2
 10
2361.551428
 20
1862.269315
 11
2338.923409
 21
1835.567765
  0
LINE
  8
CSLAYER1
  6
CONTINUOUS
 62
     2
 10
2373.757850
 20
1851.925078
 11
2351.129832
 21
1825.223528
  0
LINE
  8
CSLAYER1
  6
CONTINUOUS
 62
     2
 10
2363.665552
 20
1862.443895
 11
2373.583271
 21
1854.039202
  0
LINE
  8
CSLAYER1
  6
CONTINUOUS
 62
     2
 10
2362.314329
 20
1861.622800
 11
2339.686310
 21
1834.921250
  0
LINE
  8
CSLAYER1
  6
CONTINUOUS
 62
     2
 10
2372.994949
 20
1852.571593
 11
2350.366930
 21
1825.870043
  0
LINE
  8
CSLAYER1
  6
CONTINUOUS
 62
     2
 10
2363.019037
 20
1861.680993
 11
2372.936756
 21
1853.276301
  0
LINE
  8
CSLAYER1
  6
CONTINUOUS
 62
     2
 10
2339.097989
 20
1833.453641
 11
2349.015707
 21
1825.048948
  0
LINE
  8
CSLAYER1
  6
CONTINUOUS
 62
     2
 10
2339.744504
 20
1834.216542
 11
2349.662222
 21
1825.811849
  0
ARC
  8
CSLAYER1
  6
CONTINUOUS
 62
     2
 10
2362.695780
 20
1861.299543
 40
0.500000
 50
49.720653
 51
139.720653
  0
ARC
  8
CSLAYER1
  6
CONTINUOUS
 62
     2
 10
2372.613498
 20
1852.894850
 40
0.500000
 50
-40.279347
 51
49.720653
  0
ARC
  8
CSLAYER1
  6
CONTINUOUS
 62
     2
 10
2340.067761
 20
1834.597993
 40
0.500000
 50
139.720653
 51
229.720653
  0
ARC
  8
CSLAYER1
  6
CONTINUOUS
 62
     2
 10
2349.985479
 20
1826.193300
 40
0.500000
 50
229.720653
 51
319.720653
  0
ARC
  8
CSLAYER1
  6
CONTINUOUS
 62
     2
 10
2362.695780
 20
1861.299543
 40
1.500000
 50
49.720653
 51
139.720653
  0
ARC
  8
CSLAYER1
  6
CONTINUOUS
 62
     2
 10
2372.613498
 20
1852.894850
 40
1.500000
 50
-40.279347
 51
49.720653
  0
ARC
  8
CSLAYER1
  6
CONTINUOUS
 62
     2
 10
2340.067761
 20
1834.597993
 40
1.500000
 50
139.720653
 51
229.720653
  0
ARC
  8
CSLAYER1
  6
CONTINUOUS
 62
     2
 10
2349.985479
 20
1826.193300
 40
1.500000
 50
229.720653
 51
319.720653
  0
LINE
  8
CSLAYER1
  6
CONTINUOUS
 62
     2
 10
2364.045865
 20
1849.013748
 11
2352.408598
 21
1835.281523
  0
LINE
  8
CSLAYER1
  6
CONTINUOUS
 62
     2
 10
2360.575497
 20
1840.157616
 11
2352.408598
 21
1835.281523
  0
LINE
  8
CSLAYER1
  6
CONTINUOUS
 62
     2
 10
2360.575497
 20
1840.157616
 11
2364.045865
 21
1849.013748
  0
TEXT
  8
CSLAYER1
 62
     2
 10
2347.496685
 20
1831.975624
 40
6.383575
 41
1.255870
  1
DOWN
 50
49.720642
 51
0.000000
  7
EASYDRAW_FONT
 72
     5
 11
2366.501283
 21
1854.401450
  0
ENDBLK
  8
0
  0
ENDSEC
  0
SECTION
  2
ENTITIES
  0
LINE
  8
CSLAYER1
  6
CONTINUOUS
 62
     3
 10
118.051807
 20
2400.454119
 11
118.051807
 21
51.907189
  0
LINE
  8
CSLAYER1
  6
CONTINUOUS
 62
     3
 10
3440.625117
 20
2400.454119
 11
118.051807
 21
2400.454119
  0
LINE
  8
CSLAYER1
  6
CONTINUOUS
 62
     3
 10
3440.625117
 20
2400.454119
 11
3440.625117
 21
51.907189
  0
LINE
  8
CSLAYER1
  6
CONTINUOUS
 62
     3
 10
3440.625117
 20
51.907189
 11
118.051807
 21
51.907189
  0
LINE
  8
CSLAYER1
  6
CONTINUOUS
 62
     5
 10
68.051807
 20
1211.907189
 11
18.051807
 21
1211.907189
  0
LINE
  8
CSLAYER1
  6
CONTINUOUS
 62
     5
 10
2640.625117
 20
491.907189
 11
3440.625117
 21
491.907189
  0
LINE
  8
CSLAYER1
  6
CONTINUOUS
 62
     5
 10
2640.625117
 20
131.907189
 11
3440.625117
 21
131.907189
  0
LINE
  8
CSLAYER1
  6
CONTINUOUS
 62
     5
 10
2640.625117
 20
291.907189
 11
3440.625117
 21
291.907189
  0
LINE
  8
CSLAYER1
  6
CONTINUOUS
 62
     5
 10
2640.625117
 20
351.907189
 11
3440.625117
 21
351.907189
  0
LINE
  8
CSLAYER1
  6
CONTINUOUS
 62
     5
 10
2640.625117
 20
411.907189
 11
3440.625117
 21
411.907189
  0
LINE
  8
CSLAYER1
  6
CONTINUOUS
 62
     5
 10
2640.625117
 20
571.907189
 11
3440.625117
 21
571.907189
  0
LINE
  8
CSLAYER1
  6
CONTINUOUS
 62
     5
 10
2640.625117
 20
651.907189
 11
2640.625117
 21
51.907189
  0
LINE
  8
CSLAYER1
  6
CONTINUOUS
 62
     5
 10
2840.625117
 20
651.907189
 11
2840.625117
 21
411.907189
  0
LINE
  8
CSLAYER1
  6
CONTINUOUS
 62
     5
 10
2640.625117
 20
651.907189
 11
3440.625117
 21
651.907189
  0
LINE
  8
CSLAYER1
  6
CONTINUOUS
 62
     5
 10
3140.625117
 20
411.907189
 11
3140.625117
 21
131.907189
  0
TEXT
  8
CSLAYER1
 62
     3
 10
2860.316219
 20
60.469913
 40
59.380363
 41
1.003345
  1
東正車輌株式会社
 50
0.000000
 51
0.000000
  7
EASYDRAW_FONT
 72
     5
 11
3317.088566
 21
60.469913
  0
LINE
  8
CSLAYER1
  6
CONTINUOUS
 62
     5
 10
2890.625117
 20
351.907189
 11
2890.625117
 21
131.907189
  0
TEXT
  8
CSLAYER1
 62
     5
 10
2670.625000
 20
586.907166
 40
50.000000
 41
1.050000
  1
品　名
 50
0.000000
 51
0.000000
  7
EASYDRAW_FONT
 72
     5
 11
2810.625000
 21
586.907166
  0
TEXT
  8
CSLAYER1
 62
     5
 10
2670.625000
 20
506.907166
 40
50.000000
 41
1.050000
  1
型　式
 50
0.000000
 51
0.000000
  7
EASYDRAW_FONT
 72
     5
 11
2810.625000
 21
506.907166
  0
TEXT
  8
CSLAYER1
 62
     5
 10
2645.625000
 20
426.907196
 40
50.000000
 41
1.036364
  1
図面番号
 50
0.000000
 51
0.000000
  7
EASYDRAW_FONT
 72
     5
 11
2835.625000
 21
426.907196
  0
TEXT
  8
CSLAYER1
 62
     5
 10
2690.625000
 20
356.907196
 40
50.000000
 41
0.827586
  1
平成２８年４月１６日
 50
0.000000
 51
0.000000
  7
EASYDRAW_FONT
 72
     5
 11
3090.625000
 21
356.907196
  0
TEXT
  8
CSLAYER1
 62
     5
 10
3220.625000
 20
356.907196
 40
50.000000
 41
1.050000
  1
Ｂ－４
 50
0.000000
 51
0.000000
  7
EASYDRAW_FONT
 72
     5
 11
3360.625000
 21
356.907196
  0
TEXT
  8
CSLAYER1
 62
     5
 10
2695.625000
 20
296.907196
 40
50.000000
 41
1.050000
  1
検　図
 50
0.000000
 51
0.000000
  7
EASYDRAW_FONT
 72
     5
 11
2835.625000
 21
296.907196
  0
TEXT
  8
CSLAYER1
 62
     5
 10
2945.625000
 20
296.907196
 40
50.000000
 41
1.050000
  1
作　図
 50
0.000000
 51
0.000000
  7
EASYDRAW_FONT
 72
     5
 11
3085.625000
 21
296.907196
  0
TEXT
  8
CSLAYER1
 62
     5
 10
3220.625000
 20
296.907196
 40
50.000000
 41
1.050000
  1
尺　度
 50
0.000000
 51
0.000000
  7
EASYDRAW_FONT
 72
     5
 11
3360.625000
 21
296.907196
  0
TEXT
  8
CSLAYER1
 62
     5
 10
3321.363770
 20
146.392456
 40
50.000000
 41
1.080000
  1
１０
 50
0.000000
 51
0.000000
  7
EASYDRAW_FONT
 72
     5
 11
3411.363770
 21
146.392456
  0
TEXT
  8
CSLAYER1
 62
     5
 10
3301.044189
 20
194.097153
 40
50.000000
 41
1.200000
  1
／
 50
0.000000
 51
0.000000
  7
EASYDRAW_FONT
 72
     5
 11
3341.044189
 21
194.097153
  0
TEXT
  8
CSLAYER1
 62
     5
 10
3270.831299
 20
229.080597
 40
50.000000
 41
1.200000
  1
１
 50
0.000000
 51
0.000000
  7
EASYDRAW_FONT
 72
     5
 11
3310.831299
 21
229.080597
  0
TEXT
  8
CSLAYER1
 62
     3
 10
2980.625000
 20
586.907166
 40
50.000000
 41
0.834783
  1
ゴールドリフター
 50
0.000000
 51
0.000000
  7
EASYDRAW_FONT
 72
     5
 11
3300.625000
 21
586.907166
  0
TEXT
  8
CSLAYER1
 62
     3
 10
2900.625000
 20
506.907166
 40
50.000000
 41
0.822857
  1
ＧＬＩ－３００－０４０９
 50
0.000000
 51
0.000000
  7
EASYDRAW_FONT
 72
     5
 11
3380.625000
 21
506.907166
  0
TEXT
  8
CSLAYER1
 62
     3
 10
3040.625000
 20
426.907196
 40
50.000000
 41
0.857143
  1
GI-01
 50
0.000000
 51
0.000000
  7
EASYDRAW_FONT
 72
     5
 11
3240.625000
 21
426.907196
  0
INSERT
  8
CSLAYER1
  2
BLKF0000
 10
0.0
 20
0.0
 30
0.0
  0
LINE
  8
CSLAYER1
  6
CONTINUOUS
 62
     5
 10
3417.080844
 20
1839.968533
 11
2696.208327
 21
1839.968533
  0
LINE
  8
CSLAYER1
  6
CONTINUOUS
 62
     5
 10
3417.080844
 20
1775.968535
 11
2696.208327
 21
1775.968535
  0
LINE
  8
CSLAYER1
  6
CONTINUOUS
 62
     5
 10
3417.080844
 20
1711.968537
 11
2696.208327
 21
1711.968537
  0
LINE
  8
CSLAYER1
  6
CONTINUOUS
 62
     5
 10
3417.080844
 20
1647.968538
 11
2697.080862
 21
1647.968538
  0
LINE
  8
CSLAYER1
  6
CONTINUOUS
 62
     5
 10
3417.080844
 20
1583.968540
 11
2696.208327
 21
1583.968540
  0
LINE
  8
CSLAYER1
  6
CONTINUOUS
 62
     5
 10
3417.080844
 20
1519.968541
 11
2696.208327
 21
1519.968541
  0
LINE
  8
CSLAYER1
  6
CONTINUOUS
 62
     5
 10
3417.080844
 20
1455.968543
 11
2696.208327
 21
1455.968543
  0
LINE
  8
CSLAYER1
  6
CONTINUOUS
 62
     5
 10
3417.080844
 20
1391.968545
 11
2696.208327
 21
1391.968545
  0
LINE
  8
CSLAYER1
  6
CONTINUOUS
 62
     5
 10
3417.080844
 20
1327.968546
 11
2696.208327
 21
1327.968546
  0
LINE
  8
CSLAYER1
  6
CONTINUOUS
 62
     5
 10
3417.080844
 20
1199.968549
 11
2696.208327
 21
1199.968549
  0
LINE
  8
CSLAYER1
  6
CONTINUOUS
 62
     5
 10
3417.080844
 20
1135.968551
 11
2696.208327
 21
1135.968551
  0
TEXT
  8
CSLAYER1
 62
     3
 10
2891.932129
 20
1919.787598
 40
40.000000
 41
0.857143
  1
仕   様
 50
0.000000
 51
0.000000
  7
EASYDRAW_FONT
 72
     5
 11
3051.932129
 21
1919.787598
  0
TEXT
  8
CSLAYER1
 62
     3
 10
2706.967773
 20
1848.191406
 40
40.000000
 41
0.847059
  1
型    式
 50
0.000000
 51
0.000000
  7
EASYDRAW_FONT
 72
     5
 11
2898.967773
 21
1848.191406
  0
TEXT
  8
CSLAYER1
 62
     3
 10
2705.148193
 20
1725.701660
 40
40.000000
 41
0.847059
  1
テーブル寸法
 50
0.000000
 51
0.000000
  7
EASYDRAW_FONT
 72
     5
 11
2897.148193
 21
1725.701660
  0
TEXT
  8
CSLAYER1
 62
     3
 10
2706.967773
 20
1662.637695
 40
40.000000
 41
0.847059
  1
テーブル高サ
 50
0.000000
 51
0.000000
  7
EASYDRAW_FONT
 72
     5
 11
2898.967773
 21
1662.637695
  0
TEXT
  8
CSLAYER1
 62
     3
 10
2708.414551
 20
1597.754883
 40
40.000000
 41
0.857143
  1
ストローク
 50
0.000000
 51
0.000000
  7
EASYDRAW_FONT
 72
     5
 11
2868.414551
 21
1597.754883
  0
TEXT
  8
CSLAYER1
 62
     3
 10
2707.808350
 20
1532.872070
 40
40.000000
 41
0.857143
  1
全   長
 50
0.000000
 51
0.000000
  7
EASYDRAW_FONT
 72
     5
 11
2867.808350
 21
1532.872070
  0
TEXT
  8
CSLAYER1
 62
     3
 10
2710.079590
 20
1467.020996
 40
40.000000
 41
0.857143
  1
全   巾
 50
0.000000
 51
0.000000
  7
EASYDRAW_FONT
 72
     5
 11
2870.079590
 21
1467.020996
  0
TEXT
  8
CSLAYER1
 62
     3
 10
2708.521729
 20
1403.135742
 40
40.000000
 41
0.857143
  1
全   高
 50
0.000000
 51
0.000000
  7
EASYDRAW_FONT
 72
     5
 11
2868.521729
 21
1403.135742
  0
TEXT
  8
CSLAYER1
 62
     3
 10
2708.521729
 20
1340.809570
 40
40.000000
 41
0.857143
  1
リフト方式
 50
0.000000
 51
0.000000
  7
EASYDRAW_FONT
 72
     5
 11
2868.521729
 21
1340.809570
  0
TEXT
  8
CSLAYER1
 62
     3
 10
2707.381348
 20
1145.921875
 40
40.000000
 41
0.872727
  1
モーター
 50
0.000000
 51
0.000000
  7
EASYDRAW_FONT
 72
     5
 11
2835.381348
 21
1145.921875
  0
LINE
  8
CSLAYER1
  6
CONTINUOUS
 62
     5
 10
3417.080844
 20
1071.968553
 11
2696.208327
 21
1071.968553
  0
LINE
  8
CSLAYER1
  6
CONTINUOUS
 62
     5
 10
3417.080844
 20
943.968556
 11
2694.069825
 21
943.968556
  0
LINE
  8
CSLAYER1
  6
CONTINUOUS
 62
     5
 10
3417.080844
 20
879.968558
 11
2696.208327
 21
879.968558
  0
LINE
  8
CSLAYER1
  6
CONTINUOUS
 62
     5
 10
3417.080844
 20
815.968559
 11
2696.208327
 21
815.968559
  0
TEXT
  8
CSLAYER1
 62
     3
 10
2709.962891
 20
827.090332
 40
40.000000
 41
0.857143
  1
自  　重
 50
0.000000
 51
0.000000
  7
EASYDRAW_FONT
 72
     5
 11
2869.962891
 21
827.090332
  0
TEXT
  8
CSLAYER1
 62
     3
 10
2706.866943
 20
763.750977
 40
40.000000
 41
0.847059
  1
塗　装　色 
 50
0.000000
 51
0.000000
  7
EASYDRAW_FONT
 72
     5
 11
2898.866943
 21
763.750977
  0
TEXT
  8
CSLAYER1
 62
     3
 10
3160.390137
 20
1786.699707
 40
40.000000
 41
0.872727
  1
 300
 50
0.000000
 51
0.000000
  7
EASYDRAW_FONT
 72
     5
 11
3288.390137
 21
1786.699707
  0
TEXT
  8
CSLAYER1
 62
     3
 10
3346.546875
 20
1783.026367
 40
40.000000
 41
0.960000
  1
Ｋｇ
 50
0.000000
 51
0.000000
  7
EASYDRAW_FONT
 72
     5
 11
3410.546875
 21
1783.026367
  0
TEXT
  8
CSLAYER1
 62
     3
 10
2999.274414
 20
1722.196777
 40
40.000000
 41
0.830769
  1
900L×400W
 50
0.000000
 51
0.000000
  7
EASYDRAW_FONT
 72
     5
 11
3287.274414
 21
1722.196777
  0
TEXT
  8
CSLAYER1
 62
     3
 10
3059.981934
 20
1659.662598
 40
40.000000
 41
0.840000
  1
155～700
 50
0.000000
 51
0.000000
  7
EASYDRAW_FONT
 72
     5
 11
3283.981934
 21
1659.662598
  0
TEXT
  8
CSLAYER1
 62
     3
 10
3186.228516
 20
1595.987793
 40
40.000000
 41
0.900000
  1
545
 50
0.000000
 51
0.000000
  7
EASYDRAW_FONT
 72
     5
 11
3282.228516
 21
1595.987793
  0
TEXT
  8
CSLAYER1
 62
     3
 10
3190.367188
 20
1531.202148
 40
40.000000
 41
0.900000
  1
900
 50
0.000000
 51
0.000000
  7
EASYDRAW_FONT
 72
     5
 11
3286.367188
 21
1531.202148
  0
TEXT
  8
CSLAYER1
 62
     3
 10
3188.347656
 20
1467.897949
 40
40.000000
 41
0.900000
  1
400
 50
0.000000
 51
0.000000
  7
EASYDRAW_FONT
 72
     5
 11
3284.347656
 21
1467.897949
  0
TEXT
  8
CSLAYER1
 62
     3
 10
2941.261719
 20
1340.226563
 40
40.000000
 41
0.827586
  1
電 動 ボールネジ式
 50
0.000000
 51
0.000000
  7
EASYDRAW_FONT
 72
     5
 11
3261.261719
 21
1340.226563
  0
TEXT
  8
CSLAYER1
 62
     3
 10
2938.487793
 20
1146.838867
 40
40.000000
 41
0.819512
  1
３相ＡＣ２００Ｖ、0.2ＫＷ
 50
0.000000
 51
0.000000
  7
EASYDRAW_FONT
 72
     5
 11
3386.487793
 21
1146.838867
  0
TEXT
  8
CSLAYER1
 62
     3
 10
3069.471191
 20
1082.995117
 40
40.000000
 41
0.840000
  1
長サ  ４ ｍ
 50
0.000000
 51
0.000000
  7
EASYDRAW_FONT
 72
     5
 11
3293.471191
 21
1082.995117
  0
TEXT
  8
CSLAYER1
 62
     3
 10
3198.110840
 20
828.989746
 40
40.000000
 41
0.857143
  1
８８　Ｋｇ
 50
0.000000
 51
0.000000
  7
EASYDRAW_FONT
 72
     5
 11
3358.110840
 21
828.989746
  0
TEXT
  8
CSLAYER1
 62
     3
 10
3186.338867
 20
1403.236816
 40
40.000000
 41
0.900000
  1
155
 50
0.000000
 51
0.000000
  7
EASYDRAW_FONT
 72
     5
 11
3282.338867
 21
1403.236816
  0
TEXT
  8
CSLAYER1
 62
     3
 10
3344.032715
 20
1718.922852
 40
40.000000
 41
0.960000
  1
mm
 50
0.000000
 51
0.000000
  7
EASYDRAW_FONT
 72
     5
 11
3408.032715
 21
1718.922852
  0
TEXT
  8
CSLAYER1
 62
     3
 10
3344.032715
 20
1658.589844
 40
40.000000
 41
0.960000
  1
mm
 50
0.000000
 51
0.000000
  7
EASYDRAW_FONT
 72
     5
 11
3408.032715
 21
1658.589844
  0
TEXT
  8
CSLAYER1
 62
     3
 10
3340.261963
 20
1594.485840
 40
40.000000
 41
0.960000
  1
mm
 50
0.000000
 51
0.000000
  7
EASYDRAW_FONT
 72
     5
 11
3404.261963
 21
1594.485840
  0
TEXT
  8
CSLAYER1
 62
     3
 10
3340.261963
 20
1526.610840
 40
40.000000
 41
0.960000
  1
mm
 50
0.000000
 51
0.000000
  7
EASYDRAW_FONT
 72
     5
 11
3404.261963
 21
1526.610840
  0
TEXT
  8
CSLAYER1
 62
     3
 10
3337.748535
 20
1466.278320
 40
40.000000
 41
0.960000
  1
mm
 50
0.000000
 51
0.000000
  7
EASYDRAW_FONT
 72
     5
 11
3401.748535
 21
1466.278320
  0
TEXT
  8
CSLAYER1
 62
     3
 10
3337.748535
 20
1402.173340
 40
40.000000
 41
0.960000
  1
mm
 50
0.000000
 51
0.000000
  7
EASYDRAW_FONT
 72
     5
 11
3401.748535
 21
1402.173340
  0
LINE
  8
CSLAYER1
  6
CONTINUOUS
 62
     5
 10
3079.985265
 20
1903.968532
 11
2871.599293
 21
1903.968532
  0
LINE
  8
CSLAYER1
  6
CONTINUOUS
 62
     5
 10
3079.985265
 20
1911.968532
 11
2871.599293
 21
1911.968532
  0
TEXT
  8
CSLAYER1
 62
     3
 10
2710.963379
 20
1209.807617
 40
40.000000
 41
1.036364
  1
操作方式
 50
0.000000
 51
0.000000
  7
EASYDRAW_FONT
 72
     5
 11
2862.963379
 21
1209.807617
  0
LINE
  8
CSLAYER1
  6
CONTINUOUS
 62
     5
 10
3417.080844
 20
1007.968554
 11
2696.208327
 21
1007.968554
  0
TEXT
  8
CSLAYER1
 62
     3
 10
2708.297607
 20
1082.604492
 40
40.000000
 41
0.942857
  1
電源コード
 50
0.000000
 51
0.000000
  7
EASYDRAW_FONT
 72
     5
 11
2884.297607
 21
1082.604492
  0
TEXT
  8
CSLAYER2
 62
     5
 10
2960.799590
 20
1845.601488
 40
36.148586
 41
0.847115
  1
GLI-300-0409
 50
0.000000
 51
0.000000
  7
EASYDRAW_FONT
 72
     5
 11
3318.056367
 21
1845.601488
  0
TEXT
  8
CSLAYER1
 62
     3
 10
2938.937988
 20
1209.539551
 40
40.000000
 41
1.020000
  1
フットスイッチ
 50
0.000000
 51
0.000000
  7
EASYDRAW_FONT
 72
     5
 11
3210.937988
 21
1209.539551
  0
LINE
  8
CSLAYER1
  6
CONTINUOUS
 62
     3
 10
2553.479505
 20
407.906329
 11
155.380444
 21
407.906329
  0
TEXT
  8
CSLAYER1
 62
     4
 10
2708.726578
 20
1013.483286
 40
47.730206
 41
0.593339
  1
昇降時間 １９秒（50HZ） １６秒(60HZ)
 50
0.000000
 51
0.000000
  7
EASYDRAW_FONT
 72
     5
 11
3378.971664
 21
1013.483286
  0
TEXT
  8
CSLAYER1
 62
     4
 10
2710.027344
 20
888.040039
 40
40.000000
 41
0.912766
  1
上昇端、下降端リミットスイッチ付
 50
0.000000
 51
0.000000
  7
EASYDRAW_FONT
 72
     5
 11
3282.027344
 21
888.040039
  0
TEXT
  8
CSLAYER1
 62
     5
 10
2381.363441
 20
413.585724
 40
29.942631
 41
0.818121
  1
Ｆ.Ｌ
 50
0.000000
 51
0.000000
  7
EASYDRAW_FONT
 72
     5
 11
2446.687988
 21
413.585724
  0
LINE
  8
CSLAYER1
  6
CONTINUOUS
 62
     3
 10
1941.161770
 20
1817.666617
 11
2025.696603
 21
1817.666617
  0
LINE
  8
CSLAYER1
  6
CONTINUOUS
 62
     3
 10
1941.161770
 20
1824.666617
 11
2025.696603
 21
1824.666617
  0
LINE
  8
CSLAYER1
  6
CONTINUOUS
 62
     3
 10
1941.161770
 20
1859.866617
 11
1982.088309
 21
1859.866617
  0
LINE
  8
CSLAYER1
  6
CONTINUOUS
 62
     3
 10
1941.161770
 20
1852.866617
 11
1982.088309
 21
1852.866617
  0
TEXT
  8
CSLAYER1
 62
     5
 10
2606.825195
 20
2063.344727
 40
40.000000
 41
1.020000
  1
ＵＰ・ＤＯＷＮ
 50
360.000000
 51
0.000000
  7
EASYDRAW_FONT
 72
     5
 11
2878.825195
 21
2063.344727
  0
TEXT
  8
CSLAYER1
 62
     5
 10
2606.825195
 20
2115.121582
 40
40.000000
 41
1.020000
  1
フットスイッチ
 50
360.000000
 51
0.000000
  7
EASYDRAW_FONT
 72
     5
 11
2878.825195
 21
2115.121582
  0
TEXT
  8
CSLAYER1
 62
     5
 10
2571.396973
 20
2191.260742
 40
40.000000
 41
1.036364
  1
長サ４ｍ
 50
360.000000
 51
0.000000
  7
EASYDRAW_FONT
 72
     5
 11
2723.396973
 21
2191.260742
  0
TEXT
  8
CSLAYER1
 62
     5
 10
2558.462646
 20
2243.244141
 40
40.000000
 41
1.028571
  1
電源コード
 50
360.000000
 51
0.000000
  7
EASYDRAW_FONT
 72
     5
 11
2750.462646
 21
2243.244141
  0
LINE
  8
CSLAYER1
  6
CONTINUOUS
 62
     3
 10
2282.750059
 20
1969.683262
 11
2369.768415
 21
1895.940239
  0
LINE
  8
CSLAYER1
  6
CONTINUOUS
 62
     3
 10
2278.224455
 20
1964.342952
 11
2365.242811
 21
1890.599929
  0
ARC
  8
CSLAYER1
  6
CONTINUOUS
 62
     3
 10
2252.363862
 20
1933.826895
 40
40.000000
 50
-310.279347
 51
22.771772
  0
ARC
  8
CSLAYER1
  6
CONTINUOUS
 62
     3
 10
2252.363862
 20
1933.826895
 40
47.000000
 50
-310.279347
 51
9.747565
  0
LINE
  8
CSLAYER1
  6
CONTINUOUS
 62
     3
 10
2061.226816
 20
1898.734819
 11
2159.675866
 21
2026.182579
  0
LINE
  8
CSLAYER1
  6
CONTINUOUS
 62
     3
 10
2066.766511
 20
1894.455593
 11
2172.982591
 21
2031.958204
  0
LINE
  8
CSLAYER1
  6
CONTINUOUS
 62
     3
 10
2093.519132
 20
1851.181213
 11
2206.393553
 21
1955.357394
  0
LINE
  8
CSLAYER1
  6
CONTINUOUS
 62
     3
 10
2098.266709
 20
1846.037235
 11
2200.919744
 21
1940.779702
  0
ARC
  8
CSLAYER1
  6
CONTINUOUS
 62
     3
 10
2149.604346
 20
2078.576832
 40
47.000000
 50
-41.878597
 51
276.076336
  0
ARC
  8
CSLAYER1
  6
CONTINUOUS
 62
     3
 10
2149.604346
 20
2078.576832
 40
40.000000
 50
-54.593258
 51
276.076336
  0
LINE
  8
CSLAYER1
  6
CONTINUOUS
 62
     3
 10
2380.505308
 20
2055.891027
 11
2379.764335
 21
2062.851700
  0
LINE
  8
CSLAYER1
  6
CONTINUOUS
 62
     3
 10
2379.764335
 20
2062.851700
 11
2153.838481
 21
2038.801563
  0
LINE
  8
CSLAYER1
  6
CONTINUOUS
 62
     3
 10
2380.505308
 20
2055.891027
 11
2154.579455
 21
2031.840890
  0
ARC
  8
CSLAYER1
  6
CONTINUOUS
 62
     3
 10
1982.088309
 20
1959.866617
 40
100.000000
 50
270.000000
 51
322.315137
  0
ARC
  8
CSLAYER1
  6
CONTINUOUS
 62
     3
 10
1982.088309
 20
1959.866617
 40
107.000000
 50
270.000000
 51
322.315137
  0
ARC
  8
CSLAYER1
  6
CONTINUOUS
 62
     3
 10
2025.696603
 20
1924.666617
 40
100.000000
 50
270.000000
 51
312.705116
  0
ARC
  8
CSLAYER1
  6
CONTINUOUS
 62
     3
 10
2025.696603
 20
1924.666617
 40
107.000000
 50
270.000000
 51
312.705116
  0
LINE
  8
CSLAYER1
  6
CONTINUOUS
 62
     5
 10
2545.656493
 20
2237.255323
 11
2761.716966
 21
2237.255323
  0
LINE
  8
CSLAYER1
  6
CONTINUOUS
 62
     5
 10
2595.753784
 20
2108.995268
 11
2884.998581
 21
2108.995268
  0
CIRCLE
  8
CSLAYER1
  6
DASHED
 62
     5
 10
1647.605613
 20
432.406329
 40
6.000000
  0
CIRCLE
  8
CSLAYER1
  6
DASHED
 62
     5
 10
1647.605613
 20
432.406329
 40
18.500000
  0
POINT
  8
CSLAYER1
 62
     5
 10
1501.059471
 20
944.552183
  0
ARC
  8
CSLAYER1
  6
CONTINUOUS
 62
     4
 10
1501.059471
 20
944.552183
 40
9.050000
 50
254.519091
 51
344.434860
  0
CIRCLE
  8
CSLAYER1
  6
CONTINUOUS
 62
     4
 10
1646.434944
 20
1040.292353
 40
18.500000
  0
LINE
  8
CSLAYER1
  6
CENTER
 62
     5
 10
1646.354725
 20
1060.608024
 11
1646.512037
 21
1020.768763
  0
LINE
  8
CSLAYER1
  6
CENTER
 62
     5
 10
1624.147579
 20
1040.204348
 11
1667.908379
 21
1040.377145
  0
LINE
  8
CSLAYER1
  6
CENTER
 62
     5
 10
1030.200498
 20
1776.298400
 11
1932.715545
 21
1776.298400
  0
LINE
  8
CSLAYER1
  6
CONTINUOUS
 62
     3
 10
1032.515545
 20
1976.298400
 11
1932.515545
 21
1976.298400
  0
LINE
  8
CSLAYER1
  6
CONTINUOUS
 62
     3
 10
1032.515545
 20
1976.298400
 11
1032.515545
 21
1576.298400
  0
LINE
  8
CSLAYER1
  6
CONTINUOUS
 62
     3
 10
1932.515545
 20
1976.298400
 11
1932.515545
 21
1576.298400
  0
CIRCLE
  8
CSLAYER1
  6
CONTINUOUS
 62
     7
 10
1273.740519
 20
705.614050
 40
10.000000
  0
POINT
  8
CSLAYER1
 62
     7
 10
1273.740519
 20
705.614050
  0
LINE
  8
CSLAYER1
  6
CONTINUOUS
 62
     7
 10
1073.706938
 20
523.648210
 11
1056.764430
 21
457.906329
  0
LINE
  8
CSLAYER1
  6
CONTINUOUS
 62
     7
 10
1152.715545
 20
497.018601
 11
1349.940028
 21
697.518780
  0
LINE
  8
CSLAYER1
  6
CONTINUOUS
 62
     7
 10
1229.773266
 20
720.808808
 11
1073.706938
 21
523.648210
  0
LINE
  8
CSLAYER1
  6
CONTINUOUS
 62
     7
 10
1229.773266
 20
720.808808
 11
1276.698032
 21
768.512946
  0
LINE
  8
CSLAYER1
  6
CONTINUOUS
 62
     7
 10
1420.161498
 20
786.018631
 11
1400.666007
 21
749.087265
  0
LINE
  8
CSLAYER1
  6
CONTINUOUS
 62
     7
 10
1420.161498
 20
786.018631
 11
1503.145298
 21
870.380707
  0
ARC
  8
CSLAYER1
  6
CONTINUOUS
 62
     7
 10
1566.843571
 20
1006.437255
 40
22.000000
 50
-37.096710
 51
142.903290
  0
LINE
  8
CSLAYER1
  6
CONTINUOUS
 62
     7
 10
1549.295962
 20
1019.706823
 11
1479.344750
 21
927.203699
  0
LINE
  8
CSLAYER1
  6
CONTINUOUS
 62
     7
 10
1584.391179
 20
993.167687
 11
1514.439967
 21
900.664563
  0
ARC
  8
CSLAYER1
  6
CONTINUOUS
 62
     7
 10
1496.892359
 20
913.934131
 40
22.000000
 50
142.903290
 51
322.903290
  0
POINT
  8
CSLAYER1
 62
     7
 10
1356.575245
 20
736.349341
  0
POINT
  8
CSLAYER1
 62
     7
 10
1646.434944
 20
1040.292353
  0
ARC
  8
CSLAYER1
  6
CONTINUOUS
 62
     7
 10
1496.892359
 20
913.934131
 40
44.000000
 50
278.170092
 51
318.419183
  0
LINE
  8
CSLAYER1
  6
CONTINUOUS
 62
     7
 10
1529.805253
 20
884.732395
 11
1652.239654
 21
1022.726610
  0
LINE
  8
CSLAYER1
  6
CONTINUOUS
 62
     7
 10
1485.644607
 20
661.636295
 11
1414.373092
 21
774.081139
  0
ARC
  8
CSLAYER1
  6
CONTINUOUS
 62
     7
 10
1468.752060
 20
650.929202
 40
20.000000
 50
7.890398
 51
32.367967
  0
POINT
  8
CSLAYER1
 62
     5
 10
1356.575245
 20
736.349341
  0
LINE
  8
CSLAYER1
  6
CONTINUOUS
 62
     7
 10
1642.575969
 20
504.388250
 11
1085.715545
 21
1044.158371
  0
LINE
  8
CSLAYER1
  6
CONTINUOUS
 62
     7
 10
1070.574520
 20
968.310432
 11
1597.139134
 21
457.906329
  0
LINE
  8
CSLAYER1
  6
CONTINUOUS
 62
     7
 10
1655.810419
 20
457.906329
 11
1642.575969
 21
504.388250
  0
LINE
  8
CSLAYER1
  6
CONTINUOUS
 62
     7
 10
1070.574520
 20
968.310432
 11
1054.777568
 21
1023.792353
  0
LINE
  8
CSLAYER1
  6
CONTINUOUS
 62
     3
 10
1911.915545
 20
506.206329
 11
1911.915545
 21
457.906329
  0
LINE
  8
CSLAYER1
  6
CONTINUOUS
 62
     3
 10
1941.915545
 20
496.706329
 11
1941.915545
 21
479.706329
  0
LINE
  8
CSLAYER1
  6
CONTINUOUS
 62
     3
 10
1937.945979
 20
501.196710
 11
1923.318108
 21
501.196710
  0
LINE
  8
CSLAYER1
  6
CONTINUOUS
 62
     3
 10
1938.806451
 20
499.706329
 11
1938.806451
 21
476.706329
  0
LINE
  8
CSLAYER1
  6
CONTINUOUS
 62
     3
 10
1922.457636
 20
499.706329
 11
1922.457636
 21
476.706329
  0
LINE
  8
CSLAYER1
  6
CONTINUOUS
 62
     3
 10
1938.806451
 20
499.706329
 11
1937.945979
 21
501.196710
  0
LINE
  8
CSLAYER1
  6
CONTINUOUS
 62
     3
 10
1922.457636
 20
499.706329
 11
1923.318108
 21
501.196710
  0
LINE
  8
CSLAYER1
  6
CONTINUOUS
 62
     3
 10
1937.945979
 20
494.845857
 11
1923.318108
 21
494.845857
  0
ARC
  8
CSLAYER1
  6
CONTINUOUS
 62
     3
 10
1912.760426
 20
488.206329
 40
26.046025
 50
-14.768561
 51
14.768561
  0
ARC
  8
CSLAYER1
  6
CONTINUOUS
 62
     3
 10
1932.674857
 20
498.021284
 40
6.153702
 50
-31.065581
 51
23.174644
  0
ARC
  8
CSLAYER1
  6
CONTINUOUS
 62
     3
 10
1928.589230
 20
498.021284
 40
6.153702
 50
156.825356
 51
211.065581
  0
ARC
  8
CSLAYER1
  6
CONTINUOUS
 62
     3
 10
1948.503661
 20
488.206329
 40
26.046025
 50
165.231439
 51
194.768561
  0
LINE
  8
CSLAYER1
  6
CONTINUOUS
 62
     3
 10
1938.915545
 20
499.706329
 11
1938.806451
 21
499.706329
  0
ARC
  8
CSLAYER1
  6
CONTINUOUS
 62
     3
 10
1938.915545
 20
496.706329
 40
3.000000
 50
0.000000
 51
90.000000
  0
LINE
  8
CSLAYER1
  6
CONTINUOUS
 62
     3
 10
1918.915545
 20
499.706329
 11
1918.915545
 21
476.706329
  0
LINE
  8
CSLAYER1
  6
CONTINUOUS
 62
     3
 10
1918.915545
 20
499.706329
 11
1918.055073
 21
501.196710
  0
ARC
  8
CSLAYER1
  6
CONTINUOUS
 62
     3
 10
1892.869520
 20
488.206329
 40
26.046025
 50
-14.768561
 51
14.768561
  0
ARC
  8
CSLAYER1
  6
CONTINUOUS
 62
     3
 10
1912.783952
 20
498.021284
 40
6.153702
 50
-31.065581
 51
23.174644
  0
LINE
  8
CSLAYER1
  6
CONTINUOUS
 62
     3
 10
1918.055073
 20
494.845857
 11
1913.915545
 21
494.845857
  0
LINE
  8
CSLAYER1
  6
CONTINUOUS
 62
     3
 10
1918.055073
 20
501.196710
 11
1913.915545
 21
501.196710
  0
LINE
  8
CSLAYER1
  6
CONTINUOUS
 62
     3
 10
1922.457636
 20
498.542453
 11
1918.915545
 21
498.542453
  0
LINE
  8
CSLAYER1
  6
CONTINUOUS
 62
     3
 10
1922.457636
 20
497.896076
 11
1920.851275
 21
497.896076
  0
LINE
  8
CSLAYER1
  6
CONTINUOUS
 62
     3
 10
1920.851275
 20
498.542453
 11
1920.851275
 21
477.870205
  0
LINE
  8
CSLAYER1
  6
CONTINUOUS
 62
     3
 10
1920.851275
 20
497.896076
 11
1919.716423
 21
498.542453
  0
LINE
  8
CSLAYER1
  6
CONTINUOUS
 62
     3
 10
1937.945979
 20
475.215948
 11
1923.318108
 21
475.215948
  0
LINE
  8
CSLAYER1
  6
CONTINUOUS
 62
     3
 10
1938.806451
 20
476.706329
 11
1937.945979
 21
475.215948
  0
LINE
  8
CSLAYER1
  6
CONTINUOUS
 62
     3
 10
1922.457636
 20
476.706329
 11
1923.318108
 21
475.215948
  0
LINE
  8
CSLAYER1
  6
CONTINUOUS
 62
     3
 10
1937.945979
 20
481.566801
 11
1923.318108
 21
481.566801
  0
ARC
  8
CSLAYER1
  6
CONTINUOUS
 62
     3
 10
1932.674857
 20
478.391375
 40
6.153702
 50
-23.174644
 51
31.065581
  0
ARC
  8
CSLAYER1
  6
CONTINUOUS
 62
     3
 10
1928.589230
 20
478.391375
 40
6.153702
 50
148.934419
 51
203.174644
  0
LINE
  8
CSLAYER1
  6
CONTINUOUS
 62
     3
 10
1938.915545
 20
476.706329
 11
1938.806451
 21
476.706329
  0
ARC
  8
CSLAYER1
  6
CONTINUOUS
 62
     3
 10
1938.915545
 20
479.706329
 40
3.000000
 50
270.000000
 51
360.000000
  0
LINE
  8
CSLAYER1
  6
CONTINUOUS
 62
     3
 10
1918.915545
 20
476.706329
 11
1918.055073
 21
475.215948
  0
ARC
  8
CSLAYER1
  6
CONTINUOUS
 62
     3
 10
1912.783952
 20
478.391375
 40
6.153702
 50
-23.174644
 51
31.065581
  0
LINE
  8
CSLAYER1
  6
CONTINUOUS
 62
     3
 10
1918.055073
 20
481.566801
 11
1913.915545
 21
481.566801
  0
LINE
  8
CSLAYER1
  6
CONTINUOUS
 62
     3
 10
1918.055073
 20
475.215948
 11
1913.915545
 21
475.215948
  0
LINE
  8
CSLAYER1
  6
CONTINUOUS
 62
     3
 10
1922.457636
 20
477.870205
 11
1918.915545
 21
477.870205
  0
LINE
  8
CSLAYER1
  6
CONTINUOUS
 62
     3
 10
1922.457636
 20
478.516583
 11
1920.851275
 21
478.516583
  0
LINE
  8
CSLAYER1
  6
CONTINUOUS
 62
     3
 10
1920.851275
 20
478.516583
 11
1919.716423
 21
477.870205
  0
ARC
  8
CSLAYER1
  6
CONTINUOUS
 62
     3
 10
1912.915545
 20
499.656329
 40
1.000000
 50
0.000000
 51
180.000000
  0
POINT
  8
CSLAYER1
 62
     3
 10
1912.915545
 20
499.656329
  0
ARC
  8
CSLAYER1
  6
CONTINUOUS
 62
     3
 10
1912.915545
 20
476.756329
 40
1.000000
 50
180.000000
 51
360.000000
  0
POINT
  8
CSLAYER1
 62
     3
 10
1912.915545
 20
476.756329
  0
LINE
  8
CSLAYER1
  6
CONTINUOUS
 62
     3
 10
1913.915545
 20
501.196710
 11
1913.915545
 21
475.215948
  0
LINE
  8
CSLAYER1
  6
CENTER
 62
     5
 10
1999.670420
 20
488.206329
 11
1909.341629
 21
488.206329
  0
LINE
  8
CSLAYER1
  6
CONTINUOUS
 62
     3
 10
1996.492267
 20
492.006329
 11
1941.915545
 21
492.006329
  0
LINE
  8
CSLAYER1
  6
CONTINUOUS
 62
     3
 10
1993.768135
 20
484.406329
 11
1941.915545
 21
484.406329
  0
LINE
  8
CSLAYER1
  6
CONTINUOUS
 62
     3
 10
1772.515545
 20
506.206329
 11
1772.515545
 21
457.906329
  0
LINE
  8
CSLAYER1
  6
CONTINUOUS
 62
     3
 10
1771.215545
 20
512.206329
 11
1913.215545
 21
512.206329
  0
LINE
  8
CSLAYER1
  6
CONTINUOUS
 62
     3
 10
1771.215545
 20
506.206329
 11
1913.215545
 21
506.206329
  0
LINE
  8
CSLAYER1
  6
CONTINUOUS
 62
     3
 10
1771.215545
 20
512.206329
 11
1771.215545
 21
506.206329
  0
LINE
  8
CSLAYER1
  6
CONTINUOUS
 62
     3
 10
1913.215545
 20
512.206329
 11
1913.215545
 21
506.206329
  0
LINE
  8
CSLAYER1
  6
CENTER
 62
     5
 10
1842.215545
 20
515.994831
 11
1842.215545
 21
506.226220
  0
LINE
  8
CSLAYER1
  6
CONTINUOUS
 62
     3
 10
1838.715545
 20
515.206329
 11
1838.715545
 21
513.006329
  0
LINE
  8
CSLAYER1
  6
CONTINUOUS
 62
     3
 10
1845.715545
 20
515.206329
 11
1845.715545
 21
513.006329
  0
LINE
  8
CSLAYER1
  6
CONTINUOUS
 62
     3
 10
1845.715545
 20
514.006329
 11
1838.715545
 21
514.006329
  0
LINE
  8
CSLAYER1
  6
CONTINUOUS
 62
     3
 10
1844.315545
 20
516.606329
 11
1840.115545
 21
516.606329
  0
LINE
  8
CSLAYER1
  6
CONTINUOUS
 62
     3
 10
1846.715545
 20
513.006329
 11
1846.715545
 21
512.206329
  0
LINE
  8
CSLAYER1
  6
CONTINUOUS
 62
     3
 10
1837.715545
 20
513.006329
 11
1837.715545
 21
512.206329
  0
LINE
  8
CSLAYER1
  6
CONTINUOUS
 62
     3
 10
1846.715545
 20
513.006329
 11
1837.715545
 21
513.006329
  0
ARC
  8
CSLAYER1
  6
CONTINUOUS
 62
     3
 10
1844.315545
 20
515.206329
 40
1.400000
 50
0.000000
 51
90.000000
  0
ARC
  8
CSLAYER1
  6
CONTINUOUS
 62
     3
 10
1840.115545
 20
515.206329
 40
1.400000
 50
90.000000
 51
180.000000
  0
LINE
  8
CSLAYER1
  6
CONTINUOUS
 62
     3
 10
1843.255497
 20
513.006329
 11
1840.870295
 21
514.006329
  0
LINE
  8
CSLAYER1
  6
CONTINUOUS
 62
     3
 10
1032.715545
 20
457.906329
 11
1932.715545
 21
457.906329
  0
LINE
  8
CSLAYER1
  6
CONTINUOUS
 62
     3
 10
1032.715545
 20
457.906329
 11
1032.715545
 21
407.906329
  0
LINE
  8
CSLAYER1
  6
CONTINUOUS
 62
     3
 10
1932.715545
 20
457.906329
 11
1932.715545
 21
407.906329
  0
CIRCLE
  8
CSLAYER1
  6
CONTINUOUS
 62
     4
 10
1273.740519
 20
705.614050
 40
10.000000
  0
POINT
  8
CSLAYER1
 62
     4
 10
1273.740519
 20
705.614050
  0
LINE
  8
CSLAYER1
  6
CENTER
 62
     5
 10
1263.419055
 20
715.701152
 11
1284.061983
 21
695.526947
  0
LINE
  8
CSLAYER1
  6
CONTINUOUS
 62
     4
 10
1351.663619
 20
724.541291
 11
1351.647380
 21
725.955412
  0
LINE
  8
CSLAYER1
  6
CONTINUOUS
 62
     4
 10
1258.372606
 20
750.695390
 11
1276.229465
 21
768.967132
  0
LINE
  8
CSLAYER1
  6
CENTER
 62
     5
 10
1208.294701
 20
704.407110
 11
1258.957464
 21
756.246962
  0
LINE
  8
CSLAYER1
  6
CONTINUOUS
 62
     4
 10
1217.858738
 20
737.854964
 11
1232.482607
 21
723.563149
  0
LINE
  8
CSLAYER1
  6
CONTINUOUS
 62
     4
 10
1307.256199
 20
650.487385
 11
1305.431320
 21
652.270828
  0
LINE
  8
CSLAYER1
  6
CONTINUOUS
 62
     4
 10
1532.459377
 20
997.527928
 11
1540.806842
 21
989.370002
  0
LINE
  8
CSLAYER1
  6
CONTINUOUS
 62
     4
 10
1527.830130
 20
994.221862
 11
1531.045257
 21
997.511689
  0
LINE
  8
CSLAYER1
  6
CONTINUOUS
 62
     4
 10
1217.858738
 20
737.854964
 11
1240.224838
 21
760.740714
  0
LINE
  8
CSLAYER1
  6
CONTINUOUS
 62
     4
 10
1240.224838
 20
760.740714
 11
1254.923020
 21
746.376274
  0
LINE
  8
CSLAYER1
  6
CONTINUOUS
 62
     4
 10
1307.256199
 20
650.487385
 11
1329.622299
 21
673.373135
  0
LINE
  8
CSLAYER1
  6
CONTINUOUS
 62
     4
 10
1327.871733
 20
675.083953
 11
1329.622299
 21
673.373135
  0
LINE
  8
CSLAYER1
  6
CONTINUOUS
 62
     4
 10
1556.437317
 20
966.264237
 11
1559.652444
 21
969.554064
  0
LINE
  8
CSLAYER1
  6
CONTINUOUS
 62
     4
 10
1531.045257
 20
997.511689
 11
1532.459377
 21
997.527928
  0
LINE
  8
CSLAYER1
  6
CONTINUOUS
 62
     4
 10
1559.652444
 20
969.554064
 11
1559.636205
 21
970.968184
  0
LINE
  8
CSLAYER1
  6
CONTINUOUS
 62
     4
 10
1251.248028
 20
757.658195
 11
1258.779966
 21
750.297279
  0
LINE
  8
CSLAYER1
  6
CONTINUOUS
 62
     4
 10
1250.123102
 20
757.945815
 11
1246.684703
 21
754.427529
  0
LINE
  8
CSLAYER1
  6
CONTINUOUS
 62
     4
 10
1252.807012
 20
755.322847
 11
1249.368613
 21
751.804561
  0
LINE
  8
CSLAYER1
  6
CONTINUOUS
 62
     4
 10
1251.248028
 20
757.658195
 11
1250.123102
 21
757.945815
  0
ARC
  8
CSLAYER1
  6
CONTINUOUS
 62
     4
 10
1249.602433
 20
754.728432
 40
3.259241
 50
10.286309
 51
71.223826
  0
ARC
  8
CSLAYER1
  6
CONTINUOUS
 62
     4
 10
1247.216242
 20
744.232947
 40
12.419443
 50
28.069973
 51
63.245881
  0
LINE
  8
CSLAYER1
  6
CONTINUOUS
 62
     4
 10
1258.174831
 20
750.076911
 11
1254.736432
 21
746.558625
  0
ARC
  8
CSLAYER1
  6
CONTINUOUS
 62
     4
 10
1257.654162
 20
746.859527
 40
3.259241
 50
75.037263
 51
81.029545
  0
LINE
  8
CSLAYER1
  6
CONTINUOUS
 62
     4
 10
1534.013623
 20
996.008973
 11
1538.790065
 21
997.984291
  0
LINE
  8
CSLAYER1
  6
CONTINUOUS
 62
     4
 10
1538.717702
 20
997.954365
 11
1538.454022
 21
991.669399
  0
LINE
  8
CSLAYER1
  6
CONTINUOUS
 62
     4
 10
1538.454022
 20
991.669399
 11
1540.257176
 21
992.881892
  0
LINE
  8
CSLAYER1
  6
CONTINUOUS
 62
     4
 10
1538.454022
 20
991.669399
 11
1538.383436
 21
997.816128
  0
LINE
  8
CSLAYER1
  6
CONTINUOUS
 62
     4
 10
1538.251739
 20
991.867089
 11
1538.184368
 21
997.733802
  0
LINE
  8
CSLAYER1
  6
CONTINUOUS
 62
     4
 10
1538.049455
 20
992.064779
 11
1537.985301
 21
997.651477
  0
LINE
  8
CSLAYER1
  6
CONTINUOUS
 62
     4
 10
1537.847172
 20
992.262470
 11
1537.786233
 21
997.569152
  0
LINE
  8
CSLAYER1
  6
CONTINUOUS
 62
     4
 10
1537.644889
 20
992.460160
 11
1537.587165
 21
997.486826
  0
LINE
  8
CSLAYER1
  6
CONTINUOUS
 62
     4
 10
1537.442605
 20
992.657850
 11
1537.388097
 21
997.404501
  0
LINE
  8
CSLAYER1
  6
CONTINUOUS
 62
     4
 10
1537.240322
 20
992.855540
 11
1537.189029
 21
997.322176
  0
LINE
  8
CSLAYER1
  6
CONTINUOUS
 62
     4
 10
1537.038039
 20
993.053231
 11
1536.989962
 21
997.239850
  0
LINE
  8
CSLAYER1
  6
CONTINUOUS
 62
     4
 10
1536.835755
 20
993.250921
 11
1536.790894
 21
997.157525
  0
LINE
  8
CSLAYER1
  6
CONTINUOUS
 62
     4
 10
1536.633472
 20
993.448611
 11
1536.591826
 21
997.075200
  0
LINE
  8
CSLAYER1
  6
CONTINUOUS
 62
     4
 10
1536.431188
 20
993.646301
 11
1536.392758
 21
996.992874
  0
LINE
  8
CSLAYER1
  6
CONTINUOUS
 62
     4
 10
1536.228905
 20
993.843992
 11
1536.193690
 21
996.910549
  0
LINE
  8
CSLAYER1
  6
CONTINUOUS
 62
     4
 10
1536.026622
 20
994.041682
 11
1535.994623
 21
996.828224
  0
LINE
  8
CSLAYER1
  6
CONTINUOUS
 62
     4
 10
1535.824338
 20
994.239372
 11
1535.795555
 21
996.745898
  0
LINE
  8
CSLAYER1
  6
CONTINUOUS
 62
     4
 10
1535.622055
 20
994.437062
 11
1535.596487
 21
996.663573
  0
LINE
  8
CSLAYER1
  6
CONTINUOUS
 62
     4
 10
1535.419772
 20
994.634753
 11
1535.397419
 21
996.581248
  0
LINE
  8
CSLAYER1
  6
CONTINUOUS
 62
     4
 10
1535.217488
 20
994.832443
 11
1535.198351
 21
996.498922
  0
LINE
  8
CSLAYER1
  6
CONTINUOUS
 62
     4
 10
1535.015205
 20
995.030133
 11
1534.999283
 21
996.416597
  0
LINE
  8
CSLAYER1
  6
CONTINUOUS
 62
     4
 10
1534.812922
 20
995.227823
 11
1534.800216
 21
996.334272
  0
LINE
  8
CSLAYER1
  6
CONTINUOUS
 62
     4
 10
1534.610638
 20
995.425514
 11
1534.601148
 21
996.251946
  0
LINE
  8
CSLAYER1
  6
CONTINUOUS
 62
     4
 10
1534.408355
 20
995.623204
 11
1534.402080
 21
996.169621
  0
LINE
  8
CSLAYER1
  6
CONTINUOUS
 62
     4
 10
1534.206072
 20
995.820894
 11
1534.203012
 21
996.087296
  0
LINE
  8
CSLAYER1
  6
CONTINUOUS
 62
     4
 10
1538.652503
 20
991.802863
 11
1538.582504
 21
997.898453
  0
LINE
  8
CSLAYER1
  6
CONTINUOUS
 62
     4
 10
1538.850983
 20
991.936327
 11
1538.781572
 21
997.980778
  0
LINE
  8
CSLAYER1
  6
CONTINUOUS
 62
     4
 10
1539.049464
 20
992.069791
 11
1538.993310
 21
996.959787
  0
LINE
  8
CSLAYER1
  6
CONTINUOUS
 62
     4
 10
1539.247944
 20
992.203255
 11
1539.203436
 21
996.079145
  0
LINE
  8
CSLAYER1
  6
CONTINUOUS
 62
     4
 10
1539.446425
 20
992.336719
 11
1539.412193
 21
995.317722
  0
LINE
  8
CSLAYER1
  6
CONTINUOUS
 62
     4
 10
1539.644905
 20
992.470183
 11
1539.620000
 21
994.638989
  0
LINE
  8
CSLAYER1
  6
CONTINUOUS
 62
     4
 10
1539.843386
 20
992.603647
 11
1539.827097
 21
994.022101
  0
LINE
  8
CSLAYER1
  6
CONTINUOUS
 62
     4
 10
1540.041867
 20
992.737112
 11
1540.033636
 21
993.453822
  0
LINE
  8
CSLAYER1
  6
CONTINUOUS
 62
     4
 10
1540.240347
 20
992.870576
 11
1540.239721
 21
992.925120
  0
ARC
  8
CSLAYER1
  6
CONTINUOUS
 62
     4
 10
1563.800883
 20
1002.413620
 40
25.400000
 50
236.346470
 51
292.916623
  0
LINE
  8
CSLAYER1
  6
CONTINUOUS
 62
     4
 10
1558.081959
 20
972.487139
 11
1559.947069
 21
977.307682
  0
LINE
  8
CSLAYER1
  6
CONTINUOUS
 62
     4
 10
1559.918813
 20
977.234652
 11
1553.641560
 21
976.826713
  0
LINE
  8
CSLAYER1
  6
CONTINUOUS
 62
     4
 10
1553.641560
 20
976.826713
 11
1554.812325
 21
978.657235
  0
LINE
  8
CSLAYER1
  6
CONTINUOUS
 62
     4
 10
1553.641560
 20
976.826713
 11
1559.788289
 21
976.897299
  0
LINE
  8
CSLAYER1
  6
CONTINUOUS
 62
     4
 10
1553.843843
 20
976.629023
 11
1559.710556
 21
976.696393
  0
LINE
  8
CSLAYER1
  6
CONTINUOUS
 62
     4
 10
1554.046126
 20
976.431333
 11
1559.632824
 21
976.495487
  0
LINE
  8
CSLAYER1
  6
CONTINUOUS
 62
     4
 10
1554.248410
 20
976.233642
 11
1559.555092
 21
976.294582
  0
LINE
  8
CSLAYER1
  6
CONTINUOUS
 62
     4
 10
1554.450693
 20
976.035952
 11
1559.477360
 21
976.093676
  0
LINE
  8
CSLAYER1
  6
CONTINUOUS
 62
     4
 10
1554.652977
 20
975.838262
 11
1559.399628
 21
975.892770
  0
LINE
  8
CSLAYER1
  6
CONTINUOUS
 62
     4
 10
1554.855260
 20
975.640572
 11
1559.321895
 21
975.691864
  0
LINE
  8
CSLAYER1
  6
CONTINUOUS
 62
     4
 10
1555.057543
 20
975.442881
 11
1559.244163
 21
975.490958
  0
LINE
  8
CSLAYER1
  6
CONTINUOUS
 62
     4
 10
1555.259827
 20
975.245191
 11
1559.166431
 21
975.290053
  0
LINE
  8
CSLAYER1
  6
CONTINUOUS
 62
     4
 10
1555.462110
 20
975.047501
 11
1559.088699
 21
975.089147
  0
LINE
  8
CSLAYER1
  6
CONTINUOUS
 62
     4
 10
1555.664393
 20
974.849810
 11
1559.010966
 21
974.888241
  0
LINE
  8
CSLAYER1
  6
CONTINUOUS
 62
     4
 10
1555.866677
 20
974.652120
 11
1558.933234
 21
974.687335
  0
LINE
  8
CSLAYER1
  6
CONTINUOUS
 62
     4
 10
1556.068960
 20
974.454430
 11
1558.855502
 21
974.486429
  0
LINE
  8
CSLAYER1
  6
CONTINUOUS
 62
     4
 10
1556.271243
 20
974.256740
 11
1558.777770
 21
974.285523
  0
LINE
  8
CSLAYER1
  6
CONTINUOUS
 62
     4
 10
1556.473527
 20
974.059049
 11
1558.700037
 21
974.084618
  0
LINE
  8
CSLAYER1
  6
CONTINUOUS
 62
     4
 10
1556.675810
 20
973.861359
 11
1558.622305
 21
973.883712
  0
LINE
  8
CSLAYER1
  6
CONTINUOUS
 62
     4
 10
1556.878094
 20
973.663669
 11
1558.544573
 21
973.682806
  0
LINE
  8
CSLAYER1
  6
CONTINUOUS
 62
     4
 10
1557.080377
 20
973.465979
 11
1558.466841
 21
973.481900
  0
LINE
  8
CSLAYER1
  6
CONTINUOUS
 62
     4
 10
1557.282660
 20
973.268288
 11
1558.389108
 21
973.280994
  0
LINE
  8
CSLAYER1
  6
CONTINUOUS
 62
     4
 10
1557.484944
 20
973.070598
 11
1558.311376
 21
973.080088
  0
LINE
  8
CSLAYER1
  6
CONTINUOUS
 62
     4
 10
1557.687227
 20
972.872908
 11
1558.233644
 21
972.879183
  0
LINE
  8
CSLAYER1
  6
CONTINUOUS
 62
     4
 10
1557.889510
 20
972.675218
 11
1558.155912
 21
972.678277
  0
LINE
  8
CSLAYER1
  6
CONTINUOUS
 62
     4
 10
1553.770431
 20
977.028206
 11
1559.866021
 21
977.098205
  0
LINE
  8
CSLAYER1
  6
CONTINUOUS
 62
     4
 10
1553.899302
 20
977.229699
 11
1559.943753
 21
977.299111
  0
LINE
  8
CSLAYER1
  6
CONTINUOUS
 62
     4
 10
1554.028173
 20
977.431192
 11
1558.918169
 21
977.487347
  0
LINE
  8
CSLAYER1
  6
CONTINUOUS
 62
     4
 10
1554.157044
 20
977.632685
 11
1558.032934
 21
977.677194
  0
LINE
  8
CSLAYER1
  6
CONTINUOUS
 62
     4
 10
1554.285915
 20
977.834179
 11
1557.266917
 21
977.868411
  0
LINE
  8
CSLAYER1
  6
CONTINUOUS
 62
     4
 10
1554.414786
 20
978.035672
 11
1556.583591
 21
978.060577
  0
LINE
  8
CSLAYER1
  6
CONTINUOUS
 62
     4
 10
1554.543657
 20
978.237165
 11
1555.962111
 21
978.253453
  0
LINE
  8
CSLAYER1
  6
CONTINUOUS
 62
     4
 10
1554.672528
 20
978.438658
 11
1555.389239
 21
978.446888
  0
LINE
  8
CSLAYER1
  6
CONTINUOUS
 62
     4
 10
1554.801399
 20
978.640151
 11
1554.855943
 21
978.640777
  0
LINE
  8
CSLAYER1
  6
CENTER
 62
     5
 10
1548.782110
 20
1017.091373
 11
1578.819657
 21
987.735867
  0
LINE
  8
CSLAYER1
  6
CONTINUOUS
 62
     4
 10
1214.136357
 20
723.315574
 11
1223.222586
 21
732.612910
  0
LINE
  8
CSLAYER1
  6
CONTINUOUS
 62
     4
 10
1033.696000
 20
548.698056
 11
1070.814021
 21
512.422846
  0
LINE
  8
CSLAYER1
  6
CONTINUOUS
 62
     4
 10
1170.720843
 20
686.045035
 11
1188.500810
 21
668.668784
  0
LINE
  8
CSLAYER1
  6
CONTINUOUS
 62
     4
 10
1033.696000
 20
548.698056
 11
1074.234557
 21
590.178478
  0
LINE
  8
CSLAYER1
  6
CONTINUOUS
 62
     4
 10
1075.664916
 20
588.780597
 11
1176.312368
 21
691.766472
  0
LINE
  8
CSLAYER1
  6
CONTINUOUS
 62
     4
 10
1184.098149
 20
691.148727
 11
1214.851537
 21
722.616633
  0
LINE
  8
CSLAYER1
  6
CONTINUOUS
 62
     4
 10
1033.696000
 20
548.698056
 11
1040.977709
 21
530.395687
  0
LINE
  8
CSLAYER1
  6
CONTINUOUS
 62
     4
 10
1068.511231
 20
503.487349
 11
1040.977709
 21
530.395687
  0
LINE
  8
CSLAYER1
  6
CONTINUOUS
 62
     4
 10
1214.136357
 20
723.315574
 11
1224.071646
 21
713.605878
  0
LINE
  8
CSLAYER1
  6
CONTINUOUS
 62
     4
 10
1194.582259
 20
701.876422
 11
1205.974203
 21
690.743146
  0
LINE
  8
CSLAYER1
  6
CONTINUOUS
 62
     4
 10
1179.140608
 20
691.798950
 11
1194.741307
 21
676.552485
  0
ARC
  8
CSLAYER1
  6
CONTINUOUS
 62
     4
 10
1181.952610
 20
693.245549
 40
3.000000
 50
225.657927
 51
315.657927
  0
LINE
  8
CSLAYER1
  6
CONTINUOUS
 62
     4
 10
1100.696205
 20
564.317675
 11
1128.077089
 21
592.334721
  0
LINE
  8
CSLAYER1
  6
CONTINUOUS
 62
     4
 10
1095.689947
 20
569.210259
 11
1169.793169
 21
645.035181
  0
LINE
  8
CSLAYER1
  6
CONTINUOUS
 62
     4
 10
1081.386354
 20
583.189072
 11
1176.442280
 21
680.453510
  0
LINE
  8
CSLAYER1
  6
CONTINUOUS
 62
     4
 10
1079.955994
 20
584.586953
 11
1175.011921
 21
681.851391
  0
ARC
  8
CSLAYER1
  6
CONTINUOUS
 62
     4
 10
1177.742727
 20
690.368591
 40
2.000000
 50
45.657927
 51
135.657927
  0
LINE
  8
CSLAYER1
  6
CONTINUOUS
 62
     4
 10
1213.695429
 20
720.949990
 11
1222.823546
 21
712.029138
  0
LINE
  8
CSLAYER1
  6
CONTINUOUS
 62
     4
 10
1213.695429
 20
720.949990
 11
1215.093310
 21
722.380350
  0
LINE
  8
CSLAYER1
  6
CONTINUOUS
 62
     4
 10
1210.010530
 20
715.462594
 11
1218.767223
 21
706.904733
  0
LINE
  8
CSLAYER1
  6
CONTINUOUS
 62
     4
 10
1210.010530
 20
715.462594
 11
1209.697154
 21
716.580618
  0
LINE
  8
CSLAYER1
  6
CONTINUOUS
 62
     4
 10
1213.834493
 20
720.814084
 11
1209.697154
 21
716.580618
  0
ARC
  8
CSLAYER1
  6
CONTINUOUS
 62
     4
 10
1212.924454
 20
717.198283
 40
3.285875
 50
200.971432
 51
260.622310
  0
ARC
  8
CSLAYER1
  6
CONTINUOUS
 62
     4
 10
1223.339652
 20
719.801613
 40
12.419443
 50
208.069973
 51
243.245881
  0
LINE
  8
CSLAYER1
  6
CONTINUOUS
 62
     4
 10
1216.518403
 20
718.191116
 11
1212.381063
 21
713.957650
  0
LINE
  8
CSLAYER1
  6
CONTINUOUS
 62
     4
 10
1209.852813
 20
710.722855
 11
1214.572999
 21
706.109846
  0
LINE
  8
CSLAYER1
  6
CONTINUOUS
 62
     4
 10
1209.841446
 20
711.712739
 11
1211.798480
 21
713.715242
  0
LINE
  8
CSLAYER1
  6
CONTINUOUS
 62
     4
 10
1209.852813
 20
710.722855
 11
1212.299105
 21
713.225984
  0
LINE
  8
CSLAYER1
  6
CONTINUOUS
 62
     4
 10
1209.841446
 20
711.712739
 11
1209.852813
 21
710.722855
  0
LINE
  8
CSLAYER1
  6
CONTINUOUS
 62
     4
 10
1209.841446
 20
711.712739
 11
1215.562883
 21
706.121214
  0
ARC
  8
CSLAYER1
  6
CONTINUOUS
 62
     4
 10
1220.976183
 20
709.329378
 40
3.285875
 50
190.693544
 51
227.672202
  0
LINE
  8
CSLAYER1
  6
CONTINUOUS
 62
     4
 10
1221.886222
 20
712.945179
 11
1217.748883
 21
708.711714
  0
LINE
  8
CSLAYER1
  6
CONTINUOUS
 62
     4
 10
1215.562883
 20
706.121214
 11
1217.519917
 21
708.123717
  0
LINE
  8
CSLAYER1
  6
CONTINUOUS
 62
     4
 10
1214.572999
 20
706.109846
 11
1217.019291
 21
708.612975
  0
LINE
  8
CSLAYER1
  6
CONTINUOUS
 62
     4
 10
1215.562883
 20
706.121214
 11
1214.572999
 21
706.109846
  0
LINE
  8
CSLAYER1
  6
CONTINUOUS
 62
     4
 10
1219.461659
 20
718.111190
 11
1220.733197
 21
714.072024
  0
LINE
  8
CSLAYER1
  6
CONTINUOUS
 62
     4
 10
1527.579817
 20
994.466492
 11
1536.684631
 21
985.568414
  0
LINE
  8
CSLAYER1
  6
CONTINUOUS
 62
     4
 10
1526.165696
 20
994.450253
 11
1527.579817
 21
994.466492
  0
LINE
  8
CSLAYER1
  6
CONTINUOUS
 62
     4
 10
1487.665116
 20
893.962702
 11
1556.703869
 21
964.605487
  0
LINE
  8
CSLAYER1
  6
CONTINUOUS
 62
     4
 10
1556.703869
 20
964.605487
 11
1556.687630
 21
966.019608
  0
POINT
  8
CSLAYER1
 62
     5
 10
1529.067430
 20
970.381706
  0
POINT
  8
CSLAYER1
 62
     5
 10
1515.063450
 20
957.466945
  0
ARC
  8
CSLAYER1
  6
CONTINUOUS
 62
     4
 10
1515.063450
 20
957.466945
 40
9.050000
 50
-79.069071
 51
10.846697
  0
CIRCLE
  8
CSLAYER1
  6
CONTINUOUS
 62
     4
 10
1515.063450
 20
957.466945
 40
2.980000
  0
ARC
  8
CSLAYER1
  6
CONTINUOUS
 62
     4
 10
1518.495671
 20
939.695342
 40
9.050000
 50
100.930929
 51
164.434860
  0
ARC
  8
CSLAYER1
  6
CONTINUOUS
 62
     4
 10
1497.627249
 20
962.323786
 40
9.050000
 50
279.735496
 51
344.434860
  0
ARC
  8
CSLAYER1
  6
CONTINUOUS
 62
     4
 10
1515.063450
 20
957.466945
 40
7.800000
 50
95.311393
 51
350.054395
  0
ARC
  8
CSLAYER1
  6
CONTINUOUS
 62
     4
 10
1529.067430
 20
970.381706
 40
7.800000
 50
-84.948336
 51
170.314124
  0
CIRCLE
  8
CSLAYER1
  6
CONTINUOUS
 62
     5
 10
1515.063450
 20
957.466945
 40
2.980000
  0
CIRCLE
  8
CSLAYER1
  6
CONTINUOUS
 62
     5
 10
1529.067430
 20
970.381706
 40
2.980000
  0
ARC
  8
CSLAYER1
  6
CONTINUOUS
 62
     4
 10
1530.441072
 20
954.842301
 40
7.800000
 50
95.051664
 51
170.314124
  0
ARC
  8
CSLAYER1
  6
CONTINUOUS
 62
     4
 10
1513.689808
 20
973.006350
 40
7.800000
 50
275.051664
 51
350.314124
  0
ARC
  8
CSLAYER1
  6
CONTINUOUS
 62
     4
 10
1515.063450
 20
957.466945
 40
9.050000
 50
74.519091
 51
164.434860
  0
LINE
  8
CSLAYER1
  6
CONTINUOUS
 62
     3
 10
1516.858369
 20
970.344960
 11
1519.351687
 21
967.641358
  0
LINE
  8
CSLAYER1
  6
CONTINUOUS
 62
     3
 10
1530.090476
 20
982.547884
 11
1541.276490
 21
970.418453
  0
LINE
  8
CSLAYER1
  6
CONTINUOUS
 62
     3
 10
1531.615841
 20
980.893870
 11
1544.939297
 21
993.181038
  0
LINE
  8
CSLAYER1
  6
CONTINUOUS
 62
     3
 10
1516.886958
 20
971.051488
 11
1529.383947
 21
982.576472
  0
LINE
  8
CSLAYER1
  6
CONTINUOUS
 62
     1
 10
1516.858369
 20
970.344960
 11
1516.886958
 21
971.051488
  0
LINE
  8
CSLAYER1
  6
CONTINUOUS
 62
     1
 10
1529.383947
 20
982.576472
 11
1530.090476
 21
982.547884
  0
LINE
  8
CSLAYER1
  6
CONTINUOUS
 62
     3
 10
1516.886958
 20
971.051488
 11
1519.685380
 21
968.017050
  0
LINE
  8
CSLAYER1
  6
CONTINUOUS
 62
     3
 10
1529.383947
 20
982.576472
 11
1541.247901
 21
969.711924
  0
CIRCLE
  8
CSLAYER1
  6
CONTINUOUS
 62
     4
 10
1529.067430
 20
970.381706
 40
3.050000
  0
LINE
  8
CSLAYER1
  6
CONTINUOUS
 62
     3
 10
1528.044383
 20
958.215529
 11
1525.551066
 21
960.919130
  0
LINE
  8
CSLAYER1
  6
CONTINUOUS
 62
     3
 10
1539.751124
 20
972.072466
 11
1553.074580
 21
984.359634
  0
LINE
  8
CSLAYER1
  6
CONTINUOUS
 62
     3
 10
1528.750912
 20
958.186940
 11
1541.247901
 21
969.711924
  0
LINE
  8
CSLAYER1
  6
CONTINUOUS
 62
     1
 10
1528.044383
 20
958.215529
 11
1528.750912
 21
958.186940
  0
LINE
  8
CSLAYER1
  6
CONTINUOUS
 62
     1
 10
1541.247901
 20
969.711924
 11
1541.276490
 21
970.418453
  0
LINE
  8
CSLAYER1
  6
CONTINUOUS
 62
     3
 10
1528.750912
 20
958.186940
 11
1525.952489
 21
961.221379
  0
LINE
  8
CSLAYER1
  6
CONTINUOUS
 62
     4
 10
1569.118242
 20
1023.641331
 11
1570.270082
 21
1022.392345
  0
LINE
  8
CSLAYER1
  6
CONTINUOUS
 62
     4
 10
1575.958912
 20
1026.549120
 11
1587.483519
 21
1014.052539
  0
LINE
  8
CSLAYER1
  6
CONTINUOUS
 62
     4
 10
1569.816754
 20
1022.883906
 11
1574.338822
 21
1027.054252
  0
LINE
  8
CSLAYER1
  6
CONTINUOUS
 62
     4
 10
1574.984114
 20
1020.188190
 11
1578.057208
 21
1023.022262
  0
LINE
  8
CSLAYER1
  6
CONTINUOUS
 62
     1
 10
1575.958912
 20
1026.549120
 11
1574.338822
 21
1027.054252
  0
ARC
  8
CSLAYER1
  6
CONTINUOUS
 62
     4
 10
1569.055871
 20
1007.259880
 40
18.151494
 50
25.094940
 51
60.270848
  0
ARC
  8
CSLAYER1
  6
CONTINUOUS
 62
     4
 10
1573.286435
 20
1022.353137
 40
4.817468
 50
7.983941
 51
67.983941
  0
LINE
  8
CSLAYER1
  6
CONTINUOUS
 62
     4
 10
1585.388807
 20
1005.998522
 11
1584.236967
 21
1007.247507
  0
LINE
  8
CSLAYER1
  6
CONTINUOUS
 62
     4
 10
1584.690295
 20
1006.755946
 11
1588.506236
 21
1010.275086
  0
LINE
  8
CSLAYER1
  6
CONTINUOUS
 62
     4
 10
1582.420884
 20
1012.124210
 11
1585.493978
 21
1014.958281
  0
ARC
  8
CSLAYER1
  6
CONTINUOUS
 62
     4
 10
1584.441591
 20
1010.257166
 40
4.817468
 50
50.361173
 51
77.381848
  0
LINE
  8
CSLAYER1
  6
CONTINUOUS
 62
     4
 10
1568.334378
 20
1022.918435
 11
1569.118242
 21
1023.641331
  0
LINE
  8
CSLAYER1
  6
CONTINUOUS
 62
     4
 10
1584.604943
 20
1005.275626
 11
1585.388807
 21
1005.998522
  0
POINT
  8
CSLAYER1
 62
     5
 10
1487.055491
 20
931.637422
  0
ARC
  8
CSLAYER1
  6
CONTINUOUS
 62
     4
 10
1487.055491
 20
931.637422
 40
9.050000
 50
-79.069071
 51
10.846697
  0
ARC
  8
CSLAYER1
  6
CONTINUOUS
 62
     4
 10
1473.051512
 20
918.722661
 40
2.980000
 50
-48.059858
 51
25.345910
  0
CIRCLE
  8
CSLAYER1
  6
CONTINUOUS
 62
     4
 10
1487.055491
 20
931.637422
 40
2.980000
  0
ARC
  8
CSLAYER1
  6
CONTINUOUS
 62
     4
 10
1490.487713
 20
913.865820
 40
9.050000
 50
100.930929
 51
164.434860
  0
ARC
  8
CSLAYER1
  6
CONTINUOUS
 62
     4
 10
1487.055491
 20
931.637422
 40
7.800000
 50
206.439126
 51
350.054395
  0
ARC
  8
CSLAYER1
  6
CONTINUOUS
 62
     4
 10
1501.059471
 20
944.552183
 40
7.800000
 50
-84.948336
 51
114.423945
  0
CIRCLE
  8
CSLAYER1
  6
CONTINUOUS
 62
     5
 10
1487.055491
 20
931.637422
 40
2.980000
  0
CIRCLE
  8
CSLAYER1
  6
CONTINUOUS
 62
     4
 10
1501.059471
 20
944.552183
 40
2.980000
  0
ARC
  8
CSLAYER1
  6
CONTINUOUS
 62
     4
 10
1502.433113
 20
929.012778
 40
7.800000
 50
95.051664
 51
170.314124
  0
ARC
  8
CSLAYER1
  6
CONTINUOUS
 62
     4
 10
1473.051512
 20
918.722661
 40
9.050000
 50
284.104726
 51
344.434860
  0
CIRCLE
  8
CSLAYER1
  6
CONTINUOUS
 62
     5
 10
1501.059471
 20
944.552183
 40
2.980000
  0
ARC
  8
CSLAYER1
  6
CONTINUOUS
 62
     4
 10
1473.051512
 20
918.722661
 40
7.800000
 50
-75.043641
 51
53.607296
  0
CIRCLE
  8
CSLAYER1
  6
CONTINUOUS
 62
     4
 10
1646.434944
 20
1040.292353
 40
6.000000
  0
CIRCLE
  8
CSLAYER1
  6
CONTINUOUS
 62
     4
 10
1646.434944
 20
1040.292353
 40
8.000000
  0
CIRCLE
  8
CSLAYER1
  6
CONTINUOUS
 62
     3
 10
1563.800883
 20
1002.413620
 40
7.500000
  0
CIRCLE
  8
CSLAYER1
  6
CONTINUOUS
 62
     3
 10
1563.800883
 20
1002.413620
 40
21.000000
  0
LINE
  8
CSLAYER1
  6
CONTINUOUS
 62
     4
 10
1545.278370
 20
977.169807
 11
1556.687630
 21
966.019608
  0
LINE
  8
CSLAYER1
  6
CONTINUOUS
 62
     4
 10
1549.400581
 20
980.971396
 11
1559.636205
 21
970.968184
  0
ARC
  8
CSLAYER1
  6
CONTINUOUS
 62
     4
 10
1563.800883
 20
1002.413620
 40
25.400000
 50
68.269581
 51
96.168761
  0
ARC
  8
CSLAYER1
  6
CONTINUOUS
 62
     4
 10
1563.800883
 20
1002.413620
 40
25.400000
 50
172.889958
 51
209.019318
  0
ARC
  8
CSLAYER1
  6
CONTINUOUS
 62
     4
 10
1563.800883
 20
1002.413620
 40
25.400000
 50
9.637820
 51
17.096207
  0
LINE
  8
CSLAYER1
  6
CONTINUOUS
 62
     7
 10
1322.281110
 20
814.853113
 11
1562.234964
 21
1058.792353
  0
LINE
  8
CSLAYER1
  6
CONTINUOUS
 62
     7
 10
1395.523107
 20
743.858947
 11
1400.666007
 21
749.087265
  0
LINE
  8
CSLAYER1
  6
CONTINUOUS
 62
     4
 10
1074.234557
 20
590.178478
 11
1103.630043
 21
561.450453
  0
LINE
  8
CSLAYER1
  6
CENTER
 62
     5
 10
1050.715545
 20
432.406329
 11
1085.854577
 21
432.406329
  0
LINE
  8
CSLAYER1
  6
CENTER
 62
     5
 10
1066.715545
 20
447.962592
 11
1066.715545
 21
416.406329
  0
LINE
  8
CSLAYER1
  6
CENTER
 62
     5
 10
1618.525413
 20
432.406329
 11
1673.126264
 21
432.406329
  0
LINE
  8
CSLAYER1
  6
CENTER
 62
     5
 10
1647.605613
 20
456.123569
 11
1647.605613
 21
409.995264
  0
INSERT
  8
CSLAYER1
  2
BLKF0001
 10
0.0
 20
0.0
 30
0.0
  0
CIRCLE
  8
CSLAYER1
  6
CONTINUOUS
 62
     4
 10
1356.575245
 20
736.349341
 40
15.000000
  0
LINE
  8
CSLAYER1
  6
CONTINUOUS
 62
     3
 10
262.270120
 20
1075.992353
 11
262.270120
 21
1120.992353
  0
LINE
  8
CSLAYER1
  6
CONTINUOUS
 62
     3
 10
306.270120
 20
457.906329
 11
306.270120
 21
1056.292353
  0
LINE
  8
CSLAYER1
  6
CONTINUOUS
 62
     3
 10
315.270120
 20
457.906329
 11
315.270120
 21
1056.292353
  0
LINE
  8
CSLAYER1
  6
CONTINUOUS
 62
     3
 10
326.270120
 20
457.906329
 11
326.270120
 21
1031.642353
  0
LINE
  8
CSLAYER1
  6
CONTINUOUS
 62
     3
 10
335.270120
 20
457.906329
 11
335.270120
 21
1031.642353
  0
LINE
  8
CSLAYER1
  6
CONTINUOUS
 62
     3
 10
262.270120
 20
1120.992353
 11
662.270120
 21
1120.992353
  0
LINE
  8
CSLAYER1
  6
CENTER
 62
     5
 10
287.270120
 20
736.349341
 11
344.561468
 21
736.349341
  0
LINE
  8
CSLAYER1
  6
CENTER
 62
     5
 10
315.270120
 20
1002.413620
 11
603.770120
 21
1002.413620
  0
LINE
  8
CSLAYER1
  6
CONTINUOUS
 62
     3
 10
262.270120
 20
457.906329
 11
662.270120
 21
457.906329
  0
LINE
  8
CSLAYER1
  6
CONTINUOUS
 62
     3
 10
262.270120
 20
407.906329
 11
262.270120
 21
457.906329
  0
LINE
  8
CSLAYER1
  6
CONTINUOUS
 62
     3
 10
662.270120
 20
1075.992353
 11
662.270120
 21
1120.992353
  0
LINE
  8
CSLAYER1
  6
CONTINUOUS
 62
     3
 10
618.270120
 20
457.906329
 11
618.270120
 21
1056.292353
  0
LINE
  8
CSLAYER1
  6
CONTINUOUS
 62
     3
 10
609.270120
 20
457.906329
 11
609.270120
 21
1056.292353
  0
LINE
  8
CSLAYER1
  6
CONTINUOUS
 62
     3
 10
598.270120
 20
457.906329
 11
598.270120
 21
1031.642353
  0
LINE
  8
CSLAYER1
  6
CONTINUOUS
 62
     3
 10
589.270120
 20
457.906329
 11
589.270120
 21
1031.642353
  0
LINE
  8
CSLAYER1
  6
CONTINUOUS
 62
     4
 10
599.270120
 20
719.114050
 11
599.270120
 21
692.114050
  0
LINE
  8
CSLAYER1
  6
CONTINUOUS
 62
     4
 10
605.270120
 20
718.614050
 11
605.270120
 21
692.614050
  0
LINE
  8
CSLAYER1
  6
CONTINUOUS
 62
     4
 10
604.270120
 20
719.614050
 11
599.770120
 21
719.614050
  0
LINE
  8
CSLAYER1
  6
CONTINUOUS
 62
     4
 10
605.270120
 20
718.614050
 11
604.270120
 21
719.614050
  0
LINE
  8
CSLAYER1
  6
CONTINUOUS
 62
     4
 10
599.770120
 20
719.614050
 11
599.270120
 21
719.114050
  0
LINE
  8
CSLAYER1
  6
CONTINUOUS
 62
     4
 10
604.270120
 20
719.614050
 11
604.270120
 21
691.614050
  0
LINE
  8
CSLAYER1
  6
CONTINUOUS
 62
     4
 10
599.770120
 20
719.614050
 11
599.770120
 21
691.614050
  0
LINE
  8
CSLAYER1
  6
CONTINUOUS
 62
     4
 10
604.270120
 20
691.614050
 11
599.770120
 21
691.614050
  0
LINE
  8
CSLAYER1
  6
CONTINUOUS
 62
     4
 10
605.270120
 20
692.614050
 11
604.270120
 21
691.614050
  0
LINE
  8
CSLAYER1
  6
CONTINUOUS
 62
     4
 10
599.770120
 20
691.614050
 11
599.270120
 21
692.114050
  0
LINE
  8
CSLAYER1
  6
CONTINUOUS
 62
     4
 10
599.270120
 20
695.614050
 11
598.270120
 21
695.614050
  0
LINE
  8
CSLAYER1
  6
CENTER
 62
     5
 10
637.270120
 20
736.349341
 11
579.978772
 21
736.349341
  0
INSERT
  8
CSLAYER1
  2
BLKF0002
 10
0.0
 20
0.0
 30
0.0
  0
LINE
  8
CSLAYER1
  6
CONTINUOUS
 62
     3
 10
662.270120
 20
407.906329
 11
662.270120
 21
457.906329
  0
LINE
  8
CSLAYER1
  6
CONTINUOUS
 62
     3
 10
370.770120
 20
457.906329
 11
370.770120
 21
486.563223
  0
LINE
  8
CSLAYER1
  6
CONTINUOUS
 62
     7
 10
560.520120
 20
536.879756
 11
570.020120
 21
536.879756
  0
LINE
  8
CSLAYER1
  6
CONTINUOUS
 62
     7
 10
554.270120
 20
512.614955
 11
573.270120
 21
512.614955
  0
LINE
  8
CSLAYER1
  6
CONTINUOUS
 62
     7
 10
557.270120
 20
462.079707
 11
573.270120
 21
462.079707
  0
LINE
  8
CSLAYER1
  6
CONTINUOUS
 62
     7
 10
551.070120
 20
478.906329
 11
554.270120
 21
478.906329
  0
LINE
  8
CSLAYER1
  6
CONTINUOUS
 62
     4
 10
571.528932
 20
525.614822
 11
589.270120
 21
525.614822
  0
LINE
  8
CSLAYER1
  6
CONTINUOUS
 62
     4
 10
572.868321
 20
515.614822
 11
589.270120
 21
515.614822
  0
LINE
  8
CSLAYER1
  6
CONTINUOUS
 62
     7
 10
573.270120
 20
462.079707
 11
573.270120
 21
481.303335
  0
LINE
  8
CSLAYER1
  6
CONTINUOUS
 62
     7
 10
557.270120
 20
457.906329
 11
557.270120
 21
512.614955
  0
LINE
  8
CSLAYER1
  6
CONTINUOUS
 62
     7
 10
554.270120
 20
457.906329
 11
554.270120
 21
512.614955
  0
LINE
  8
CSLAYER1
  6
CONTINUOUS
 62
     7
 10
551.070120
 20
457.906329
 11
551.070120
 21
478.906329
  0
LINE
  8
CSLAYER1
  6
CONTINUOUS
 62
     7
 10
557.270120
 20
474.034614
 11
573.270120
 21
474.034614
  0
LINE
  8
CSLAYER1
  6
CONTINUOUS
 62
     7
 10
560.520120
 20
536.879756
 11
557.270120
 21
512.614955
  0
LINE
  8
CSLAYER1
  6
CONTINUOUS
 62
     7
 10
570.020120
 20
536.879756
 11
573.270120
 21
512.614955
  0
LINE
  8
CSLAYER1
  6
CONTINUOUS
 62
     7
 10
559.270120
 20
491.303335
 11
589.270120
 21
491.303335
  0
LINE
  8
CSLAYER1
  6
CENTER
 62
     5
 10
559.270120
 20
486.303335
 11
589.270120
 21
486.303335
  0
LINE
  8
CSLAYER1
  6
CONTINUOUS
 62
     7
 10
559.270120
 20
481.303335
 11
589.270120
 21
481.303335
  0
LINE
  8
CSLAYER1
  6
CONTINUOUS
 62
     7
 10
559.270120
 20
481.303335
 11
559.270120
 21
491.303335
  0
LINE
  8
CSLAYER1
  6
CONTINUOUS
 62
     7
 10
573.270120
 20
491.303335
 11
573.270120
 21
512.614955
  0
LINE
  8
CSLAYER1
  6
CONTINUOUS
 62
     3
 10
566.770120
 20
748.849341
 11
567.770120
 21
748.849341
  0
LINE
  8
CSLAYER1
  6
CONTINUOUS
 62
     3
 10
552.770120
 20
747.849341
 11
557.770120
 21
747.849341
  0
LINE
  8
CSLAYER1
  6
CONTINUOUS
 62
     3
 10
567.770120
 20
741.600494
 11
567.770120
 21
752.849341
  0
LINE
  8
CSLAYER1
  6
CONTINUOUS
 62
     3
 10
608.270120
 20
754.399341
 11
608.270120
 21
718.299341
  0
LINE
  8
CSLAYER1
  6
CONTINUOUS
 62
     3
 10
598.270120
 20
755.399341
 11
607.270120
 21
755.399341
  0
LINE
  8
CSLAYER1
  6
CONTINUOUS
 62
     3
 10
568.770120
 20
753.849341
 11
589.270120
 21
753.849341
  0
LINE
  8
CSLAYER1
  6
CONTINUOUS
 62
     3
 10
608.270120
 20
754.399341
 11
607.270120
 21
755.399341
  0
LINE
  8
CSLAYER1
  6
CONTINUOUS
 62
     3
 10
567.770120
 20
752.849341
 11
568.770120
 21
753.849341
  0
LINE
  8
CSLAYER1
  6
CONTINUOUS
 62
     3
 10
603.270120
 20
755.399341
 11
598.270120
 21
760.399341
  0
LINE
  8
CSLAYER1
  6
CONTINUOUS
 62
     3
 10
598.270120
 20
760.116499
 11
602.987277
 21
755.399341
  0
LINE
  8
CSLAYER1
  6
CONTINUOUS
 62
     3
 10
598.270120
 20
759.833656
 11
602.704434
 21
755.399341
  0
LINE
  8
CSLAYER1
  6
CONTINUOUS
 62
     3
 10
598.270120
 20
759.550813
 11
602.421591
 21
755.399341
  0
LINE
  8
CSLAYER1
  6
CONTINUOUS
 62
     3
 10
598.270120
 20
759.267970
 11
602.138749
 21
755.399341
  0
LINE
  8
CSLAYER1
  6
CONTINUOUS
 62
     3
 10
598.270120
 20
758.985128
 11
601.855906
 21
755.399341
  0
LINE
  8
CSLAYER1
  6
CONTINUOUS
 62
     3
 10
598.270120
 20
758.702285
 11
601.573063
 21
755.399341
  0
LINE
  8
CSLAYER1
  6
CONTINUOUS
 62
     3
 10
598.270120
 20
758.419442
 11
601.290221
 21
755.399341
  0
LINE
  8
CSLAYER1
  6
CONTINUOUS
 62
     3
 10
598.270120
 20
758.136600
 11
601.007378
 21
755.399341
  0
LINE
  8
CSLAYER1
  6
CONTINUOUS
 62
     3
 10
598.270120
 20
757.853757
 11
600.724535
 21
755.399341
  0
LINE
  8
CSLAYER1
  6
CONTINUOUS
 62
     3
 10
598.270120
 20
757.570914
 11
600.441693
 21
755.399341
  0
LINE
  8
CSLAYER1
  6
CONTINUOUS
 62
     3
 10
598.270120
 20
757.288071
 11
600.158850
 21
755.399341
  0
LINE
  8
CSLAYER1
  6
CONTINUOUS
 62
     3
 10
598.270120
 20
757.005229
 11
599.876007
 21
755.399341
  0
LINE
  8
CSLAYER1
  6
CONTINUOUS
 62
     3
 10
598.270120
 20
756.722386
 11
599.593164
 21
755.399341
  0
LINE
  8
CSLAYER1
  6
CONTINUOUS
 62
     3
 10
598.270120
 20
756.439543
 11
599.310322
 21
755.399341
  0
LINE
  8
CSLAYER1
  6
CONTINUOUS
 62
     3
 10
598.270120
 20
756.156701
 11
599.027479
 21
755.399341
  0
LINE
  8
CSLAYER1
  6
CONTINUOUS
 62
     3
 10
598.270120
 20
755.873858
 11
598.744636
 21
755.399341
  0
LINE
  8
CSLAYER1
  6
CONTINUOUS
 62
     3
 10
598.270120
 20
755.591015
 11
598.461794
 21
755.399341
  0
LINE
  8
CSLAYER1
  6
CONTINUOUS
 62
     3
 10
589.270120
 20
758.849341
 11
584.270120
 21
753.849341
  0
LINE
  8
CSLAYER1
  6
CONTINUOUS
 62
     3
 10
584.552962
 20
753.849341
 11
589.270120
 21
758.566499
  0
LINE
  8
CSLAYER1
  6
CONTINUOUS
 62
     3
 10
584.835805
 20
753.849341
 11
589.270120
 21
758.283656
  0
LINE
  8
CSLAYER1
  6
CONTINUOUS
 62
     3
 10
585.118648
 20
753.849341
 11
589.270120
 21
758.000813
  0
LINE
  8
CSLAYER1
  6
CONTINUOUS
 62
     3
 10
585.401490
 20
753.849341
 11
589.270120
 21
757.717970
  0
LINE
  8
CSLAYER1
  6
CONTINUOUS
 62
     3
 10
585.684333
 20
753.849341
 11
589.270120
 21
757.435128
  0
LINE
  8
CSLAYER1
  6
CONTINUOUS
 62
     3
 10
585.967176
 20
753.849341
 11
589.270120
 21
757.152285
  0
LINE
  8
CSLAYER1
  6
CONTINUOUS
 62
     3
 10
586.250019
 20
753.849341
 11
589.270120
 21
756.869442
  0
LINE
  8
CSLAYER1
  6
CONTINUOUS
 62
     3
 10
586.532861
 20
753.849341
 11
589.270120
 21
756.586600
  0
LINE
  8
CSLAYER1
  6
CONTINUOUS
 62
     3
 10
586.815704
 20
753.849341
 11
589.270120
 21
756.303757
  0
LINE
  8
CSLAYER1
  6
CONTINUOUS
 62
     3
 10
587.098547
 20
753.849341
 11
589.270120
 21
756.020914
  0
LINE
  8
CSLAYER1
  6
CONTINUOUS
 62
     3
 10
587.381389
 20
753.849341
 11
589.270120
 21
755.738071
  0
LINE
  8
CSLAYER1
  6
CONTINUOUS
 62
     3
 10
587.664232
 20
753.849341
 11
589.270120
 21
755.455229
  0
LINE
  8
CSLAYER1
  6
CONTINUOUS
 62
     3
 10
587.947075
 20
753.849341
 11
589.270120
 21
755.172386
  0
LINE
  8
CSLAYER1
  6
CONTINUOUS
 62
     3
 10
588.229918
 20
753.849341
 11
589.270120
 21
754.889543
  0
LINE
  8
CSLAYER1
  6
CONTINUOUS
 62
     3
 10
588.512760
 20
753.849341
 11
589.270120
 21
754.606701
  0
LINE
  8
CSLAYER1
  6
CONTINUOUS
 62
     3
 10
588.795603
 20
753.849341
 11
589.270120
 21
754.323858
  0
LINE
  8
CSLAYER1
  6
CONTINUOUS
 62
     3
 10
589.078446
 20
753.849341
 11
589.270120
 21
754.041015
  0
LINE
  8
CSLAYER1
  6
CONTINUOUS
 62
     3
 10
557.770120
 20
745.901667
 11
557.770120
 21
790.554176
  0
LINE
  8
CSLAYER1
  6
CONTINUOUS
 62
     3
 10
566.770120
 20
742.030611
 11
566.770120
 21
790.554176
  0
LINE
  8
CSLAYER1
  6
CONTINUOUS
 62
     3
 10
608.270120
 20
748.849341
 11
609.270120
 21
748.849341
  0
LINE
  8
CSLAYER1
  6
CONTINUOUS
 62
     3
 10
605.270120
 20
717.299341
 11
607.270120
 21
717.299341
  0
LINE
  8
CSLAYER1
  6
CONTINUOUS
 62
     3
 10
608.270120
 20
718.299341
 11
607.270120
 21
717.299341
  0
LINE
  8
CSLAYER1
  6
CONTINUOUS
 62
     3
 10
608.270120
 20
723.849341
 11
609.270120
 21
723.849341
  0
LINE
  8
CSLAYER1
  6
CENTER
 62
     5
 10
582.676220
 20
705.614050
 11
605.270120
 21
705.614050
  0
LINE
  8
CSLAYER1
  6
CONTINUOUS
 62
     4
 10
599.270120
 20
715.614050
 11
598.270120
 21
715.614050
  0
LINE
  8
CSLAYER1
  6
CONTINUOUS
 62
     4
 10
325.270120
 20
719.114050
 11
325.270120
 21
692.114050
  0
LINE
  8
CSLAYER1
  6
CONTINUOUS
 62
     4
 10
319.270120
 20
718.614050
 11
319.270120
 21
692.614050
  0
LINE
  8
CSLAYER1
  6
CONTINUOUS
 62
     4
 10
320.270120
 20
719.614050
 11
324.770120
 21
719.614050
  0
LINE
  8
CSLAYER1
  6
CONTINUOUS
 62
     4
 10
319.270120
 20
718.614050
 11
320.270120
 21
719.614050
  0
LINE
  8
CSLAYER1
  6
CONTINUOUS
 62
     4
 10
324.770120
 20
719.614050
 11
325.270120
 21
719.114050
  0
LINE
  8
CSLAYER1
  6
CONTINUOUS
 62
     4
 10
320.270120
 20
719.614050
 11
320.270120
 21
691.614050
  0
LINE
  8
CSLAYER1
  6
CONTINUOUS
 62
     4
 10
324.770120
 20
719.614050
 11
324.770120
 21
691.614050
  0
LINE
  8
CSLAYER1
  6
CONTINUOUS
 62
     4
 10
320.270120
 20
691.614050
 11
324.770120
 21
691.614050
  0
LINE
  8
CSLAYER1
  6
CONTINUOUS
 62
     4
 10
319.270120
 20
692.614050
 11
320.270120
 21
691.614050
  0
LINE
  8
CSLAYER1
  6
CONTINUOUS
 62
     4
 10
324.770120
 20
691.614050
 11
325.270120
 21
692.114050
  0
LINE
  8
CSLAYER1
  6
CONTINUOUS
 62
     4
 10
325.270120
 20
695.614050
 11
326.270120
 21
695.614050
  0
INSERT
  8
CSLAYER1
  2
BLKF0003
 10
0.0
 20
0.0
 30
0.0
  0
LINE
  8
CSLAYER1
  6
CONTINUOUS
 62
     3
 10
357.770120
 20
748.849341
 11
356.770120
 21
748.849341
  0
LINE
  8
CSLAYER1
  6
CONTINUOUS
 62
     3
 10
371.770120
 20
747.849341
 11
366.770120
 21
747.849341
  0
LINE
  8
CSLAYER1
  6
CONTINUOUS
 62
     3
 10
356.770120
 20
741.600494
 11
356.770120
 21
752.849341
  0
LINE
  8
CSLAYER1
  6
CONTINUOUS
 62
     3
 10
316.270120
 20
754.399341
 11
316.270120
 21
718.299341
  0
LINE
  8
CSLAYER1
  6
CONTINUOUS
 62
     3
 10
326.270120
 20
755.399341
 11
317.270120
 21
755.399341
  0
LINE
  8
CSLAYER1
  6
CONTINUOUS
 62
     3
 10
355.770120
 20
753.849341
 11
335.270120
 21
753.849341
  0
LINE
  8
CSLAYER1
  6
CONTINUOUS
 62
     3
 10
316.270120
 20
754.399341
 11
317.270120
 21
755.399341
  0
LINE
  8
CSLAYER1
  6
CONTINUOUS
 62
     3
 10
356.770120
 20
752.849341
 11
355.770120
 21
753.849341
  0
LINE
  8
CSLAYER1
  6
CONTINUOUS
 62
     3
 10
321.270120
 20
755.399341
 11
326.270120
 21
760.399341
  0
LINE
  8
CSLAYER1
  6
CONTINUOUS
 62
     3
 10
326.270120
 20
760.116499
 11
321.552962
 21
755.399341
  0
LINE
  8
CSLAYER1
  6
CONTINUOUS
 62
     3
 10
326.270120
 20
759.833656
 11
321.835805
 21
755.399341
  0
LINE
  8
CSLAYER1
  6
CONTINUOUS
 62
     3
 10
326.270120
 20
759.550813
 11
322.118648
 21
755.399341
  0
LINE
  8
CSLAYER1
  6
CONTINUOUS
 62
     3
 10
326.270120
 20
759.267970
 11
322.401490
 21
755.399341
  0
LINE
  8
CSLAYER1
  6
CONTINUOUS
 62
     3
 10
326.270120
 20
758.985128
 11
322.684333
 21
755.399341
  0
LINE
  8
CSLAYER1
  6
CONTINUOUS
 62
     3
 10
326.270120
 20
758.702285
 11
322.967176
 21
755.399341
  0
LINE
  8
CSLAYER1
  6
CONTINUOUS
 62
     3
 10
326.270120
 20
758.419442
 11
323.250019
 21
755.399341
  0
LINE
  8
CSLAYER1
  6
CONTINUOUS
 62
     3
 10
326.270120
 20
758.136600
 11
323.532861
 21
755.399341
  0
LINE
  8
CSLAYER1
  6
CONTINUOUS
 62
     3
 10
326.270120
 20
757.853757
 11
323.815704
 21
755.399341
  0
LINE
  8
CSLAYER1
  6
CONTINUOUS
 62
     3
 10
326.270120
 20
757.570914
 11
324.098547
 21
755.399341
  0
LINE
  8
CSLAYER1
  6
CONTINUOUS
 62
     3
 10
326.270120
 20
757.288071
 11
324.381389
 21
755.399341
  0
LINE
  8
CSLAYER1
  6
CONTINUOUS
 62
     3
 10
326.270120
 20
757.005229
 11
324.664232
 21
755.399341
  0
LINE
  8
CSLAYER1
  6
CONTINUOUS
 62
     3
 10
326.270120
 20
756.722386
 11
324.947075
 21
755.399341
  0
LINE
  8
CSLAYER1
  6
CONTINUOUS
 62
     3
 10
326.270120
 20
756.439543
 11
325.229918
 21
755.399341
  0
LINE
  8
CSLAYER1
  6
CONTINUOUS
 62
     3
 10
326.270120
 20
756.156701
 11
325.512760
 21
755.399341
  0
LINE
  8
CSLAYER1
  6
CONTINUOUS
 62
     3
 10
326.270120
 20
755.873858
 11
325.795603
 21
755.399341
  0
LINE
  8
CSLAYER1
  6
CONTINUOUS
 62
     3
 10
326.270120
 20
755.591015
 11
326.078446
 21
755.399341
  0
LINE
  8
CSLAYER1
  6
CONTINUOUS
 62
     3
 10
335.270120
 20
758.849341
 11
340.270120
 21
753.849341
  0
LINE
  8
CSLAYER1
  6
CONTINUOUS
 62
     3
 10
339.987277
 20
753.849341
 11
335.270120
 21
758.566499
  0
LINE
  8
CSLAYER1
  6
CONTINUOUS
 62
     3
 10
339.704434
 20
753.849341
 11
335.270120
 21
758.283656
  0
LINE
  8
CSLAYER1
  6
CONTINUOUS
 62
     3
 10
339.421591
 20
753.849341
 11
335.270120
 21
758.000813
  0
LINE
  8
CSLAYER1
  6
CONTINUOUS
 62
     3
 10
339.138749
 20
753.849341
 11
335.270120
 21
757.717970
  0
LINE
  8
CSLAYER1
  6
CONTINUOUS
 62
     3
 10
338.855906
 20
753.849341
 11
335.270120
 21
757.435128
  0
LINE
  8
CSLAYER1
  6
CONTINUOUS
 62
     3
 10
338.573063
 20
753.849341
 11
335.270120
 21
757.152285
  0
LINE
  8
CSLAYER1
  6
CONTINUOUS
 62
     3
 10
338.290221
 20
753.849341
 11
335.270120
 21
756.869442
  0
LINE
  8
CSLAYER1
  6
CONTINUOUS
 62
     3
 10
338.007378
 20
753.849341
 11
335.270120
 21
756.586600
  0
LINE
  8
CSLAYER1
  6
CONTINUOUS
 62
     3
 10
337.724535
 20
753.849341
 11
335.270120
 21
756.303757
  0
LINE
  8
CSLAYER1
  6
CONTINUOUS
 62
     3
 10
337.441693
 20
753.849341
 11
335.270120
 21
756.020914
  0
LINE
  8
CSLAYER1
  6
CONTINUOUS
 62
     3
 10
337.158850
 20
753.849341
 11
335.270120
 21
755.738071
  0
LINE
  8
CSLAYER1
  6
CONTINUOUS
 62
     3
 10
336.876007
 20
753.849341
 11
335.270120
 21
755.455229
  0
LINE
  8
CSLAYER1
  6
CONTINUOUS
 62
     3
 10
336.593164
 20
753.849341
 11
335.270120
 21
755.172386
  0
LINE
  8
CSLAYER1
  6
CONTINUOUS
 62
     3
 10
336.310322
 20
753.849341
 11
335.270120
 21
754.889543
  0
LINE
  8
CSLAYER1
  6
CONTINUOUS
 62
     3
 10
336.027479
 20
753.849341
 11
335.270120
 21
754.606701
  0
LINE
  8
CSLAYER1
  6
CONTINUOUS
 62
     3
 10
335.744636
 20
753.849341
 11
335.270120
 21
754.323858
  0
LINE
  8
CSLAYER1
  6
CONTINUOUS
 62
     3
 10
335.461794
 20
753.849341
 11
335.270120
 21
754.041015
  0
LINE
  8
CSLAYER1
  6
CONTINUOUS
 62
     3
 10
316.270120
 20
748.849341
 11
315.270120
 21
748.849341
  0
LINE
  8
CSLAYER1
  6
CONTINUOUS
 62
     3
 10
319.270120
 20
717.299341
 11
317.270120
 21
717.299341
  0
LINE
  8
CSLAYER1
  6
CONTINUOUS
 62
     3
 10
316.270120
 20
718.299341
 11
317.270120
 21
717.299341
  0
LINE
  8
CSLAYER1
  6
CONTINUOUS
 62
     3
 10
316.270120
 20
723.849341
 11
315.270120
 21
723.849341
  0
LINE
  8
CSLAYER1
  6
CENTER
 62
     5
 10
341.864020
 20
705.614050
 11
319.270120
 21
705.614050
  0
LINE
  8
CSLAYER1
  6
CONTINUOUS
 62
     4
 10
325.270120
 20
715.614050
 11
326.270120
 21
715.614050
  0
LINE
  8
CSLAYER1
  6
CONTINUOUS
 62
     3
 10
366.770120
 20
745.901667
 11
366.770120
 21
790.554176
  0
LINE
  8
CSLAYER1
  6
CONTINUOUS
 62
     3
 10
357.770120
 20
742.030611
 11
357.770120
 21
790.554176
  0
INSERT
  8
CSLAYER1
  2
BLKF0004
 10
0.0
 20
0.0
 30
0.0
  0
LINE
  8
CSLAYER1
  6
CONTINUOUS
 62
     3
 10
1032.515545
 20
1576.298400
 11
1932.515545
 21
1576.298400
  0
LINE
  8
CSLAYER1
  6
CENTER
 62
     5
 10
462.270120
 20
1120.992353
 11
462.270120
 21
407.906329
  0
LINE
  8
CSLAYER1
  6
CENTER
 62
     5
 10
362.270120
 20
743.966139
 11
362.270120
 21
1040.938763
  0
LINE
  8
CSLAYER1
  6
CENTER
 62
     5
 10
562.270120
 20
743.966139
 11
562.270120
 21
1040.938763
  0
LINE
  8
CSLAYER1
  6
CONTINUOUS
 62
     7
 10
401.270120
 20
760.740714
 11
523.270120
 21
760.740714
  0
LINE
  8
CSLAYER1
  6
CONTINUOUS
 62
     7
 10
401.270120
 20
737.854964
 11
523.270120
 21
737.854964
  0
LINE
  8
CSLAYER1
  6
CONTINUOUS
 62
     7
 10
524.270120
 20
519.667331
 11
524.034191
 21
523.488293
  0
LINE
  8
CSLAYER1
  6
CONTINUOUS
 62
     7
 10
524.034191
 20
523.488293
 11
523.328200
 21
527.280175
  0
LINE
  8
CSLAYER1
  6
CONTINUOUS
 62
     7
 10
523.328200
 20
527.280175
 11
522.157521
 21
531.014118
  0
LINE
  8
CSLAYER1
  6
CONTINUOUS
 62
     7
 10
522.157521
 20
531.014118
 11
520.531062
 21
534.661706
  0
LINE
  8
CSLAYER1
  6
CONTINUOUS
 62
     7
 10
520.531062
 20
534.661706
 11
518.461202
 21
538.195178
  0
LINE
  8
CSLAYER1
  6
CONTINUOUS
 62
     7
 10
518.461202
 20
538.195178
 11
515.963695
 21
541.587641
  0
LINE
  8
CSLAYER1
  6
CONTINUOUS
 62
     7
 10
515.963695
 20
541.587641
 11
513.057546
 21
544.813278
  0
LINE
  8
CSLAYER1
  6
CONTINUOUS
 62
     7
 10
513.057546
 20
544.813278
 11
509.764875
 21
547.847538
  0
LINE
  8
CSLAYER1
  6
CONTINUOUS
 62
     7
 10
509.764875
 20
547.847538
 11
506.110740
 21
550.667331
  0
LINE
  8
CSLAYER1
  6
CONTINUOUS
 62
     7
 10
506.110740
 20
550.667331
 11
502.122951
 21
553.251194
  0
LINE
  8
CSLAYER1
  6
CONTINUOUS
 62
     7
 10
502.122951
 20
553.251194
 11
497.831859
 21
555.579465
  0
LINE
  8
CSLAYER1
  6
CONTINUOUS
 62
     7
 10
497.831859
 20
555.579465
 11
493.270120
 21
557.634422
  0
LINE
  8
CSLAYER1
  6
CONTINUOUS
 62
     7
 10
493.270120
 20
557.634422
 11
488.472452
 21
559.400426
  0
LINE
  8
CSLAYER1
  6
CONTINUOUS
 62
     7
 10
488.472452
 20
559.400426
 11
483.475369
 21
560.864038
  0
LINE
  8
CSLAYER1
  6
CONTINUOUS
 62
     7
 10
483.475369
 20
560.864038
 11
478.316900
 21
562.014118
  0
LINE
  8
CSLAYER1
  6
CONTINUOUS
 62
     7
 10
478.316900
 20
562.014118
 11
473.036307
 21
562.841914
  0
LINE
  8
CSLAYER1
  6
CONTINUOUS
 62
     7
 10
473.036307
 20
562.841914
 11
467.673776
 21
563.341124
  0
LINE
  8
CSLAYER1
  6
CONTINUOUS
 62
     7
 10
467.673776
 20
563.341124
 11
462.270120
 21
563.507951
  0
LINE
  8
CSLAYER1
  6
CONTINUOUS
 62
     7
 10
462.270120
 20
563.507951
 11
456.866464
 21
563.341124
  0
LINE
  8
CSLAYER1
  6
CONTINUOUS
 62
     7
 10
456.866464
 20
563.341124
 11
451.503933
 21
562.841914
  0
LINE
  8
CSLAYER1
  6
CONTINUOUS
 62
     7
 10
451.503933
 20
562.841914
 11
446.223339
 21
562.014118
  0
LINE
  8
CSLAYER1
  6
CONTINUOUS
 62
     7
 10
446.223339
 20
562.014118
 11
441.064871
 21
560.864038
  0
LINE
  8
CSLAYER1
  6
CONTINUOUS
 62
     7
 10
441.064871
 20
560.864038
 11
436.067787
 21
559.400426
  0
LINE
  8
CSLAYER1
  6
CONTINUOUS
 62
     7
 10
436.067787
 20
559.400426
 11
431.270120
 21
557.634422
  0
LINE
  8
CSLAYER1
  6
CONTINUOUS
 62
     7
 10
431.270120
 20
557.634422
 11
426.708381
 21
555.579465
  0
LINE
  8
CSLAYER1
  6
CONTINUOUS
 62
     7
 10
426.708381
 20
555.579465
 11
422.417288
 21
553.251194
  0
LINE
  8
CSLAYER1
  6
CONTINUOUS
 62
     7
 10
422.417288
 20
553.251194
 11
418.429499
 21
550.667331
  0
LINE
  8
CSLAYER1
  6
CONTINUOUS
 62
     7
 10
418.429499
 20
550.667331
 11
414.775364
 21
547.847538
  0
LINE
  8
CSLAYER1
  6
CONTINUOUS
 62
     7
 10
414.775364
 20
547.847538
 11
411.482693
 21
544.813278
  0
LINE
  8
CSLAYER1
  6
CONTINUOUS
 62
     7
 10
411.482693
 20
544.813278
 11
408.576545
 21
541.587641
  0
LINE
  8
CSLAYER1
  6
CONTINUOUS
 62
     7
 10
408.576545
 20
541.587641
 11
406.079037
 21
538.195178
  0
LINE
  8
CSLAYER1
  6
CONTINUOUS
 62
     7
 10
406.079037
 20
538.195178
 11
404.009177
 21
534.661706
  0
LINE
  8
CSLAYER1
  6
CONTINUOUS
 62
     7
 10
404.009177
 20
534.661706
 11
402.382718
 21
531.014118
  0
LINE
  8
CSLAYER1
  6
CONTINUOUS
 62
     7
 10
402.382718
 20
531.014118
 11
401.212039
 21
527.280175
  0
LINE
  8
CSLAYER1
  6
CONTINUOUS
 62
     7
 10
401.212039
 20
527.280175
 11
400.506048
 21
523.488293
  0
LINE
  8
CSLAYER1
  6
CONTINUOUS
 62
     7
 10
400.506048
 20
523.488293
 11
400.270120
 21
519.667331
  0
LINE
  8
CSLAYER1
  6
CONTINUOUS
 62
     7
 10
400.270120
 20
519.667331
 11
400.506048
 21
515.846369
  0
LINE
  8
CSLAYER1
  6
CONTINUOUS
 62
     7
 10
400.506048
 20
515.846369
 11
401.212039
 21
512.054487
  0
LINE
  8
CSLAYER1
  6
CONTINUOUS
 62
     7
 10
401.212039
 20
512.054487
 11
402.382718
 21
508.320543
  0
LINE
  8
CSLAYER1
  6
CONTINUOUS
 62
     7
 10
402.382718
 20
508.320543
 11
404.009177
 21
504.672955
  0
LINE
  8
CSLAYER1
  6
CONTINUOUS
 62
     7
 10
404.009177
 20
504.672955
 11
406.079037
 21
501.139484
  0
LINE
  8
CSLAYER1
  6
CONTINUOUS
 62
     7
 10
406.079037
 20
501.139484
 11
408.576545
 21
497.747021
  0
LINE
  8
CSLAYER1
  6
CONTINUOUS
 62
     7
 10
408.576545
 20
497.747021
 11
411.482693
 21
494.521384
  0
LINE
  8
CSLAYER1
  6
CONTINUOUS
 62
     7
 10
411.482693
 20
494.521384
 11
414.775364
 21
491.487123
  0
LINE
  8
CSLAYER1
  6
CONTINUOUS
 62
     7
 10
414.775364
 20
491.487123
 11
418.429499
 21
488.667331
  0
LINE
  8
CSLAYER1
  6
CONTINUOUS
 62
     7
 10
418.429499
 20
488.667331
 11
422.417288
 21
486.083467
  0
LINE
  8
CSLAYER1
  6
CONTINUOUS
 62
     7
 10
422.417288
 20
486.083467
 11
426.708381
 21
483.755197
  0
LINE
  8
CSLAYER1
  6
CONTINUOUS
 62
     7
 10
426.708381
 20
483.755197
 11
431.270120
 21
481.700240
  0
LINE
  8
CSLAYER1
  6
CONTINUOUS
 62
     7
 10
431.270120
 20
481.700240
 11
436.067787
 21
479.934235
  0
LINE
  8
CSLAYER1
  6
CONTINUOUS
 62
     7
 10
436.067787
 20
479.934235
 11
441.064871
 21
478.470623
  0
LINE
  8
CSLAYER1
  6
CONTINUOUS
 62
     7
 10
441.064871
 20
478.470623
 11
446.223339
 21
477.320543
  0
LINE
  8
CSLAYER1
  6
CONTINUOUS
 62
     7
 10
446.223339
 20
477.320543
 11
451.503933
 21
476.492748
  0
LINE
  8
CSLAYER1
  6
CONTINUOUS
 62
     7
 10
451.503933
 20
476.492748
 11
456.866464
 21
475.993537
  0
LINE
  8
CSLAYER1
  6
CONTINUOUS
 62
     7
 10
456.866464
 20
475.993537
 11
462.270120
 21
475.826710
  0
LINE
  8
CSLAYER1
  6
CONTINUOUS
 62
     7
 10
462.270120
 20
475.826710
 11
467.673776
 21
475.993537
  0
LINE
  8
CSLAYER1
  6
CONTINUOUS
 62
     7
 10
467.673776
 20
475.993537
 11
473.036307
 21
476.492748
  0
LINE
  8
CSLAYER1
  6
CONTINUOUS
 62
     7
 10
473.036307
 20
476.492748
 11
478.316900
 21
477.320543
  0
LINE
  8
CSLAYER1
  6
CONTINUOUS
 62
     7
 10
478.316900
 20
477.320543
 11
483.475369
 21
478.470623
  0
LINE
  8
CSLAYER1
  6
CONTINUOUS
 62
     7
 10
483.475369
 20
478.470623
 11
488.472452
 21
479.934235
  0
LINE
  8
CSLAYER1
  6
CONTINUOUS
 62
     7
 10
488.472452
 20
479.934235
 11
493.270120
 21
481.700240
  0
LINE
  8
CSLAYER1
  6
CONTINUOUS
 62
     7
 10
493.270120
 20
481.700240
 11
497.831859
 21
483.755197
  0
LINE
  8
CSLAYER1
  6
CONTINUOUS
 62
     7
 10
497.831859
 20
483.755197
 11
502.122951
 21
486.083467
  0
LINE
  8
CSLAYER1
  6
CONTINUOUS
 62
     7
 10
502.122951
 20
486.083467
 11
506.110740
 21
488.667331
  0
LINE
  8
CSLAYER1
  6
CONTINUOUS
 62
     7
 10
506.110740
 20
488.667331
 11
509.764875
 21
491.487123
  0
LINE
  8
CSLAYER1
  6
CONTINUOUS
 62
     7
 10
509.764875
 20
491.487123
 11
513.057546
 21
494.521384
  0
LINE
  8
CSLAYER1
  6
CONTINUOUS
 62
     7
 10
513.057546
 20
494.521384
 11
515.963695
 21
497.747021
  0
LINE
  8
CSLAYER1
  6
CONTINUOUS
 62
     7
 10
515.963695
 20
497.747021
 11
518.461202
 21
501.139484
  0
LINE
  8
CSLAYER1
  6
CONTINUOUS
 62
     7
 10
518.461202
 20
501.139484
 11
520.531062
 21
504.672955
  0
LINE
  8
CSLAYER1
  6
CONTINUOUS
 62
     7
 10
520.531062
 20
504.672955
 11
522.157521
 21
508.320543
  0
LINE
  8
CSLAYER1
  6
CONTINUOUS
 62
     7
 10
522.157521
 20
508.320543
 11
523.328200
 21
512.054487
  0
LINE
  8
CSLAYER1
  6
CONTINUOUS
 62
     7
 10
523.328200
 20
512.054487
 11
524.034191
 21
515.846369
  0
LINE
  8
CSLAYER1
  6
CONTINUOUS
 62
     7
 10
524.034191
 20
515.846369
 11
524.270120
 21
519.667331
  0
LINE
  8
CSLAYER1
  6
CONTINUOUS
 62
     7
 10
506.270120
 20
513.945893
 11
506.102686
 21
516.657544
  0
LINE
  8
CSLAYER1
  6
CONTINUOUS
 62
     7
 10
506.102686
 20
516.657544
 11
505.601661
 21
519.348557
  0
LINE
  8
CSLAYER1
  6
CONTINUOUS
 62
     7
 10
505.601661
 20
519.348557
 11
504.770856
 21
521.998452
  0
LINE
  8
CSLAYER1
  6
CONTINUOUS
 62
     7
 10
504.770856
 20
521.998452
 11
503.616595
 21
524.587063
  0
LINE
  8
CSLAYER1
  6
CONTINUOUS
 62
     7
 10
503.616595
 20
524.587063
 11
502.147662
 21
527.094688
  0
LINE
  8
CSLAYER1
  6
CONTINUOUS
 62
     7
 10
502.147662
 20
527.094688
 11
500.375237
 21
529.502242
  0
LINE
  8
CSLAYER1
  6
CONTINUOUS
 62
     7
 10
500.375237
 20
529.502242
 11
498.312810
 21
531.791404
  0
LINE
  8
CSLAYER1
  6
CONTINUOUS
 62
     7
 10
498.312810
 20
531.791404
 11
495.976075
 21
533.944750
  0
LINE
  8
CSLAYER1
  6
CONTINUOUS
 62
     7
 10
495.976075
 20
533.944750
 11
493.382818
 21
535.945893
  0
LINE
  8
CSLAYER1
  6
CONTINUOUS
 62
     7
 10
493.382818
 20
535.945893
 11
490.552774
 21
537.779603
  0
LINE
  8
CSLAYER1
  6
CONTINUOUS
 62
     7
 10
490.552774
 20
537.779603
 11
487.507483
 21
539.431924
  0
LINE
  8
CSLAYER1
  6
CONTINUOUS
 62
     7
 10
487.507483
 20
539.431924
 11
484.270120
 21
540.890280
  0
LINE
  8
CSLAYER1
  6
CONTINUOUS
 62
     7
 10
484.270120
 20
540.890280
 11
480.865323
 21
542.143574
  0
LINE
  8
CSLAYER1
  6
CONTINUOUS
 62
     7
 10
480.865323
 20
542.143574
 11
477.319006
 21
543.182266
  0
LINE
  8
CSLAYER1
  6
CONTINUOUS
 62
     7
 10
477.319006
 20
543.182266
 11
473.658158
 21
543.998452
  0
LINE
  8
CSLAYER1
  6
CONTINUOUS
 62
     7
 10
473.658158
 20
543.998452
 11
469.910639
 21
544.585920
  0
LINE
  8
CSLAYER1
  6
CONTINUOUS
 62
     7
 10
469.910639
 20
544.585920
 11
466.104972
 21
544.940198
  0
LINE
  8
CSLAYER1
  6
CONTINUOUS
 62
     7
 10
466.104972
 20
544.940198
 11
462.270120
 21
545.058592
  0
LINE
  8
CSLAYER1
  6
CONTINUOUS
 62
     7
 10
462.270120
 20
545.058592
 11
458.435267
 21
544.940198
  0
LINE
  8
CSLAYER1
  6
CONTINUOUS
 62
     7
 10
458.435267
 20
544.940198
 11
454.629600
 21
544.585920
  0
LINE
  8
CSLAYER1
  6
CONTINUOUS
 62
     7
 10
454.629600
 20
544.585920
 11
450.882082
 21
543.998452
  0
LINE
  8
CSLAYER1
  6
CONTINUOUS
 62
     7
 10
450.882082
 20
543.998452
 11
447.221233
 21
543.182266
  0
LINE
  8
CSLAYER1
  6
CONTINUOUS
 62
     7
 10
447.221233
 20
543.182266
 11
443.674916
 21
542.143574
  0
LINE
  8
CSLAYER1
  6
CONTINUOUS
 62
     7
 10
443.674916
 20
542.143574
 11
440.270120
 21
540.890280
  0
LINE
  8
CSLAYER1
  6
CONTINUOUS
 62
     7
 10
440.270120
 20
540.890280
 11
437.032756
 21
539.431924
  0
LINE
  8
CSLAYER1
  6
CONTINUOUS
 62
     7
 10
437.032756
 20
539.431924
 11
433.987465
 21
537.779603
  0
LINE
  8
CSLAYER1
  6
CONTINUOUS
 62
     7
 10
433.987465
 20
537.779603
 11
431.157421
 21
535.945893
  0
LINE
  8
CSLAYER1
  6
CONTINUOUS
 62
     7
 10
431.157421
 20
535.945893
 11
428.564164
 21
533.944750
  0
LINE
  8
CSLAYER1
  6
CONTINUOUS
 62
     7
 10
428.564164
 20
533.944750
 11
426.227430
 21
531.791404
  0
LINE
  8
CSLAYER1
  6
CONTINUOUS
 62
     7
 10
426.227430
 20
531.791404
 11
424.165002
 21
529.502242
  0
LINE
  8
CSLAYER1
  6
CONTINUOUS
 62
     7
 10
424.165002
 20
529.502242
 11
422.392577
 21
527.094688
  0
LINE
  8
CSLAYER1
  6
CONTINUOUS
 62
     7
 10
422.392577
 20
527.094688
 11
420.923644
 21
524.587063
  0
LINE
  8
CSLAYER1
  6
CONTINUOUS
 62
     7
 10
420.923644
 20
524.587063
 11
419.769383
 21
521.998452
  0
LINE
  8
CSLAYER1
  6
CONTINUOUS
 62
     7
 10
419.769383
 20
521.998452
 11
418.938579
 21
519.348557
  0
LINE
  8
CSLAYER1
  6
CONTINUOUS
 62
     7
 10
418.938579
 20
519.348557
 11
418.437553
 21
516.657544
  0
LINE
  8
CSLAYER1
  6
CONTINUOUS
 62
     7
 10
418.437553
 20
516.657544
 11
418.270120
 21
513.945893
  0
LINE
  8
CSLAYER1
  6
CONTINUOUS
 62
     7
 10
418.270120
 20
513.945893
 11
418.437553
 21
511.234243
  0
LINE
  8
CSLAYER1
  6
CONTINUOUS
 62
     7
 10
418.437553
 20
511.234243
 11
418.938579
 21
508.543230
  0
LINE
  8
CSLAYER1
  6
CONTINUOUS
 62
     7
 10
418.938579
 20
508.543230
 11
419.769383
 21
505.893334
  0
LINE
  8
CSLAYER1
  6
CONTINUOUS
 62
     7
 10
419.769383
 20
505.893334
 11
420.923644
 21
503.304724
  0
LINE
  8
CSLAYER1
  6
CONTINUOUS
 62
     7
 10
420.923644
 20
503.304724
 11
422.392577
 21
500.797099
  0
LINE
  8
CSLAYER1
  6
CONTINUOUS
 62
     7
 10
422.392577
 20
500.797099
 11
424.165002
 21
498.389544
  0
LINE
  8
CSLAYER1
  6
CONTINUOUS
 62
     7
 10
424.165002
 20
498.389544
 11
426.227430
 21
496.100383
  0
LINE
  8
CSLAYER1
  6
CONTINUOUS
 62
     7
 10
426.227430
 20
496.100383
 11
428.564164
 21
493.947036
  0
LINE
  8
CSLAYER1
  6
CONTINUOUS
 62
     7
 10
428.564164
 20
493.947036
 11
431.157421
 21
491.945893
  0
LINE
  8
CSLAYER1
  6
CONTINUOUS
 62
     7
 10
431.157421
 20
491.945893
 11
433.987465
 21
490.112184
  0
LINE
  8
CSLAYER1
  6
CONTINUOUS
 62
     7
 10
433.987465
 20
490.112184
 11
437.032756
 21
488.459863
  0
LINE
  8
CSLAYER1
  6
CONTINUOUS
 62
     7
 10
437.032756
 20
488.459863
 11
440.270120
 21
487.001506
  0
LINE
  8
CSLAYER1
  6
CONTINUOUS
 62
     7
 10
440.270120
 20
487.001506
 11
443.674916
 21
485.748212
  0
LINE
  8
CSLAYER1
  6
CONTINUOUS
 62
     7
 10
443.674916
 20
485.748212
 11
447.221233
 21
484.709520
  0
LINE
  8
CSLAYER1
  6
CONTINUOUS
 62
     7
 10
447.221233
 20
484.709520
 11
450.882082
 21
483.893334
  0
LINE
  8
CSLAYER1
  6
CONTINUOUS
 62
     7
 10
450.882082
 20
483.893334
 11
454.629600
 21
483.305867
  0
LINE
  8
CSLAYER1
  6
CONTINUOUS
 62
     7
 10
454.629600
 20
483.305867
 11
458.435267
 21
482.951588
  0
LINE
  8
CSLAYER1
  6
CONTINUOUS
 62
     7
 10
458.435267
 20
482.951588
 11
462.270120
 21
482.833195
  0
LINE
  8
CSLAYER1
  6
CONTINUOUS
 62
     7
 10
462.270120
 20
482.833195
 11
466.104972
 21
482.951588
  0
LINE
  8
CSLAYER1
  6
CONTINUOUS
 62
     7
 10
466.104972
 20
482.951588
 11
469.910639
 21
483.305867
  0
LINE
  8
CSLAYER1
  6
CONTINUOUS
 62
     7
 10
469.910639
 20
483.305867
 11
473.658158
 21
483.893334
  0
LINE
  8
CSLAYER1
  6
CONTINUOUS
 62
     7
 10
473.658158
 20
483.893334
 11
477.319006
 21
484.709520
  0
LINE
  8
CSLAYER1
  6
CONTINUOUS
 62
     7
 10
477.319006
 20
484.709520
 11
480.865323
 21
485.748212
  0
LINE
  8
CSLAYER1
  6
CONTINUOUS
 62
     7
 10
480.865323
 20
485.748212
 11
484.270120
 21
487.001506
  0
LINE
  8
CSLAYER1
  6
CONTINUOUS
 62
     7
 10
484.270120
 20
487.001506
 11
487.507483
 21
488.459863
  0
LINE
  8
CSLAYER1
  6
CONTINUOUS
 62
     7
 10
487.507483
 20
488.459863
 11
490.552774
 21
490.112184
  0
LINE
  8
CSLAYER1
  6
CONTINUOUS
 62
     7
 10
490.552774
 20
490.112184
 11
493.382818
 21
491.945893
  0
LINE
  8
CSLAYER1
  6
CONTINUOUS
 62
     7
 10
493.382818
 20
491.945893
 11
495.976075
 21
493.947036
  0
LINE
  8
CSLAYER1
  6
CONTINUOUS
 62
     7
 10
495.976075
 20
493.947036
 11
498.312810
 21
496.100383
  0
LINE
  8
CSLAYER1
  6
CONTINUOUS
 62
     7
 10
498.312810
 20
496.100383
 11
500.375237
 21
498.389544
  0
LINE
  8
CSLAYER1
  6
CONTINUOUS
 62
     7
 10
500.375237
 20
498.389544
 11
502.147662
 21
500.797099
  0
LINE
  8
CSLAYER1
  6
CONTINUOUS
 62
     7
 10
502.147662
 20
500.797099
 11
503.616595
 21
503.304724
  0
LINE
  8
CSLAYER1
  6
CONTINUOUS
 62
     7
 10
503.616595
 20
503.304724
 11
504.770856
 21
505.893334
  0
LINE
  8
CSLAYER1
  6
CONTINUOUS
 62
     7
 10
504.770856
 20
505.893334
 11
505.601661
 21
508.543230
  0
LINE
  8
CSLAYER1
  6
CONTINUOUS
 62
     7
 10
505.601661
 20
508.543230
 11
506.102686
 21
511.234243
  0
LINE
  8
CSLAYER1
  6
CONTINUOUS
 62
     7
 10
506.102686
 20
511.234243
 11
506.270120
 21
513.945893
  0
LINE
  8
CSLAYER1
  6
CONTINUOUS
 62
     7
 10
517.270120
 20
725.953743
 11
517.270120
 21
668.129545
  0
LINE
  8
CSLAYER1
  6
CONTINUOUS
 62
     7
 10
407.270120
 20
725.953743
 11
407.270120
 21
668.129545
  0
LINE
  8
CSLAYER1
  6
CONTINUOUS
 62
     7
 10
417.270120
 20
732.612910
 11
507.270120
 21
732.612910
  0
LINE
  8
CSLAYER1
  6
CONTINUOUS
 62
     7
 10
417.270120
 20
723.315574
 11
507.270120
 21
723.315574
  0
LINE
  8
CSLAYER1
  6
CONTINUOUS
 62
     7
 10
524.270120
 20
560.432573
 11
524.270120
 21
519.667331
  0
LINE
  8
CSLAYER1
  6
CONTINUOUS
 62
     7
 10
400.270120
 20
560.432573
 11
400.270120
 21
519.667331
  0
LINE
  8
CSLAYER1
  6
CONTINUOUS
 62
     7
 10
522.270120
 20
651.260393
 11
522.270120
 21
571.526840
  0
LINE
  8
CSLAYER1
  6
CONTINUOUS
 62
     7
 10
517.270120
 20
725.541842
 11
517.232067
 21
726.158126
  0
LINE
  8
CSLAYER1
  6
CONTINUOUS
 62
     7
 10
517.232067
 20
726.158126
 11
517.118197
 21
726.769720
  0
LINE
  8
CSLAYER1
  6
CONTINUOUS
 62
     7
 10
517.118197
 20
726.769720
 11
516.929378
 21
727.371969
  0
LINE
  8
CSLAYER1
  6
CONTINUOUS
 62
     7
 10
516.929378
 20
727.371969
 11
516.667046
 21
727.960289
  0
LINE
  8
CSLAYER1
  6
CONTINUOUS
 62
     7
 10
516.667046
 20
727.960289
 11
516.333198
 21
728.530204
  0
LINE
  8
CSLAYER1
  6
CONTINUOUS
 62
     7
 10
516.333198
 20
728.530204
 11
515.930374
 21
729.077376
  0
LINE
  8
CSLAYER1
  6
CONTINUOUS
 62
     7
 10
515.930374
 20
729.077376
 11
515.461640
 21
729.597640
  0
LINE
  8
CSLAYER1
  6
CONTINUOUS
 62
     7
 10
515.461640
 20
729.597640
 11
514.930564
 21
730.087037
  0
LINE
  8
CSLAYER1
  6
CONTINUOUS
 62
     7
 10
514.930564
 20
730.087037
 11
514.341187
 21
730.541842
  0
LINE
  8
CSLAYER1
  6
CONTINUOUS
 62
     7
 10
514.341187
 20
730.541842
 11
513.697996
 21
730.958594
  0
LINE
  8
CSLAYER1
  6
CONTINUOUS
 62
     7
 10
513.697996
 20
730.958594
 11
513.005884
 21
731.334121
  0
LINE
  8
CSLAYER1
  6
CONTINUOUS
 62
     7
 10
513.005884
 20
731.334121
 11
512.270120
 21
731.665566
  0
LINE
  8
CSLAYER1
  6
CONTINUOUS
 62
     7
 10
512.270120
 20
731.665566
 11
511.496302
 21
731.950406
  0
LINE
  8
CSLAYER1
  6
CONTINUOUS
 62
     7
 10
511.496302
 20
731.950406
 11
510.690321
 21
732.186472
  0
LINE
  8
CSLAYER1
  6
CONTINUOUS
 62
     7
 10
510.690321
 20
732.186472
 11
509.858310
 21
732.371969
  0
LINE
  8
CSLAYER1
  6
CONTINUOUS
 62
     7
 10
509.858310
 20
732.371969
 11
509.006601
 21
732.505484
  0
LINE
  8
CSLAYER1
  6
CONTINUOUS
 62
     7
 10
509.006601
 20
732.505484
 11
508.141677
 21
732.586002
  0
LINE
  8
CSLAYER1
  6
CONTINUOUS
 62
     7
 10
508.141677
 20
732.586002
 11
507.270120
 21
732.612910
  0
LINE
  8
CSLAYER1
  6
CONTINUOUS
 62
     7
 10
517.270120
 20
716.244506
 11
517.232067
 21
716.860790
  0
LINE
  8
CSLAYER1
  6
CONTINUOUS
 62
     7
 10
517.232067
 20
716.860790
 11
517.118197
 21
717.472384
  0
LINE
  8
CSLAYER1
  6
CONTINUOUS
 62
     7
 10
517.118197
 20
717.472384
 11
516.929378
 21
718.074633
  0
LINE
  8
CSLAYER1
  6
CONTINUOUS
 62
     7
 10
516.929378
 20
718.074633
 11
516.667046
 21
718.662953
  0
LINE
  8
CSLAYER1
  6
CONTINUOUS
 62
     7
 10
516.667046
 20
718.662953
 11
516.333198
 21
719.232868
  0
LINE
  8
CSLAYER1
  6
CONTINUOUS
 62
     7
 10
516.333198
 20
719.232868
 11
515.930374
 21
719.780040
  0
LINE
  8
CSLAYER1
  6
CONTINUOUS
 62
     7
 10
515.930374
 20
719.780040
 11
515.461640
 21
720.300304
  0
LINE
  8
CSLAYER1
  6
CONTINUOUS
 62
     7
 10
515.461640
 20
720.300304
 11
514.930564
 21
720.789701
  0
LINE
  8
CSLAYER1
  6
CONTINUOUS
 62
     7
 10
514.930564
 20
720.789701
 11
514.341187
 21
721.244506
  0
LINE
  8
CSLAYER1
  6
CONTINUOUS
 62
     7
 10
514.341187
 20
721.244506
 11
513.697996
 21
721.661258
  0
LINE
  8
CSLAYER1
  6
CONTINUOUS
 62
     7
 10
513.697996
 20
721.661258
 11
513.005884
 21
722.036785
  0
LINE
  8
CSLAYER1
  6
CONTINUOUS
 62
     7
 10
513.005884
 20
722.036785
 11
512.270120
 21
722.368230
  0
LINE
  8
CSLAYER1
  6
CONTINUOUS
 62
     7
 10
512.270120
 20
722.368230
 11
511.496302
 21
722.653070
  0
LINE
  8
CSLAYER1
  6
CONTINUOUS
 62
     7
 10
511.496302
 20
722.653070
 11
510.690321
 21
722.889136
  0
LINE
  8
CSLAYER1
  6
CONTINUOUS
 62
     7
 10
510.690321
 20
722.889136
 11
509.858310
 21
723.074633
  0
LINE
  8
CSLAYER1
  6
CONTINUOUS
 62
     7
 10
509.858310
 20
723.074633
 11
509.006601
 21
723.208148
  0
LINE
  8
CSLAYER1
  6
CONTINUOUS
 62
     7
 10
509.006601
 20
723.208148
 11
508.141677
 21
723.288666
  0
LINE
  8
CSLAYER1
  6
CONTINUOUS
 62
     7
 10
508.141677
 20
723.288666
 11
507.270120
 21
723.315574
  0
LINE
  8
CSLAYER1
  6
CONTINUOUS
 62
     7
 10
407.270120
 20
725.541842
 11
407.308173
 21
726.158126
  0
LINE
  8
CSLAYER1
  6
CONTINUOUS
 62
     7
 10
407.308173
 20
726.158126
 11
407.422042
 21
726.769720
  0
LINE
  8
CSLAYER1
  6
CONTINUOUS
 62
     7
 10
407.422042
 20
726.769720
 11
407.610861
 21
727.371969
  0
LINE
  8
CSLAYER1
  6
CONTINUOUS
 62
     7
 10
407.610861
 20
727.371969
 11
407.873193
 21
727.960289
  0
LINE
  8
CSLAYER1
  6
CONTINUOUS
 62
     7
 10
407.873193
 20
727.960289
 11
408.207042
 21
728.530204
  0
LINE
  8
CSLAYER1
  6
CONTINUOUS
 62
     7
 10
408.207042
 20
728.530204
 11
408.609866
 21
729.077376
  0
LINE
  8
CSLAYER1
  6
CONTINUOUS
 62
     7
 10
408.609866
 20
729.077376
 11
409.078599
 21
729.597640
  0
LINE
  8
CSLAYER1
  6
CONTINUOUS
 62
     7
 10
409.078599
 20
729.597640
 11
409.609675
 21
730.087037
  0
LINE
  8
CSLAYER1
  6
CONTINUOUS
 62
     7
 10
409.609675
 20
730.087037
 11
410.199052
 21
730.541842
  0
LINE
  8
CSLAYER1
  6
CONTINUOUS
 62
     7
 10
410.199052
 20
730.541842
 11
410.842244
 21
730.958594
  0
LINE
  8
CSLAYER1
  6
CONTINUOUS
 62
     7
 10
410.842244
 20
730.958594
 11
411.534355
 21
731.334121
  0
LINE
  8
CSLAYER1
  6
CONTINUOUS
 62
     7
 10
411.534355
 20
731.334121
 11
412.270120
 21
731.665566
  0
LINE
  8
CSLAYER1
  6
CONTINUOUS
 62
     7
 10
412.270120
 20
731.665566
 11
413.043937
 21
731.950406
  0
LINE
  8
CSLAYER1
  6
CONTINUOUS
 62
     7
 10
413.043937
 20
731.950406
 11
413.849918
 21
732.186472
  0
LINE
  8
CSLAYER1
  6
CONTINUOUS
 62
     7
 10
413.849918
 20
732.186472
 11
414.681929
 21
732.371969
  0
LINE
  8
CSLAYER1
  6
CONTINUOUS
 62
     7
 10
414.681929
 20
732.371969
 11
415.533638
 21
732.505484
  0
LINE
  8
CSLAYER1
  6
CONTINUOUS
 62
     7
 10
415.533638
 20
732.505484
 11
416.398562
 21
732.586002
  0
LINE
  8
CSLAYER1
  6
CONTINUOUS
 62
     7
 10
416.398562
 20
732.586002
 11
417.270120
 21
732.612910
  0
LINE
  8
CSLAYER1
  6
CONTINUOUS
 62
     7
 10
407.270120
 20
716.244506
 11
407.308173
 21
716.860790
  0
LINE
  8
CSLAYER1
  6
CONTINUOUS
 62
     7
 10
407.308173
 20
716.860790
 11
407.422042
 21
717.472384
  0
LINE
  8
CSLAYER1
  6
CONTINUOUS
 62
     7
 10
407.422042
 20
717.472384
 11
407.610861
 21
718.074633
  0
LINE
  8
CSLAYER1
  6
CONTINUOUS
 62
     7
 10
407.610861
 20
718.074633
 11
407.873193
 21
718.662953
  0
LINE
  8
CSLAYER1
  6
CONTINUOUS
 62
     7
 10
407.873193
 20
718.662953
 11
408.207042
 21
719.232868
  0
LINE
  8
CSLAYER1
  6
CONTINUOUS
 62
     7
 10
408.207042
 20
719.232868
 11
408.609866
 21
719.780040
  0
LINE
  8
CSLAYER1
  6
CONTINUOUS
 62
     7
 10
408.609866
 20
719.780040
 11
409.078599
 21
720.300304
  0
LINE
  8
CSLAYER1
  6
CONTINUOUS
 62
     7
 10
409.078599
 20
720.300304
 11
409.609675
 21
720.789701
  0
LINE
  8
CSLAYER1
  6
CONTINUOUS
 62
     7
 10
409.609675
 20
720.789701
 11
410.199052
 21
721.244506
  0
LINE
  8
CSLAYER1
  6
CONTINUOUS
 62
     7
 10
410.199052
 20
721.244506
 11
410.842244
 21
721.661258
  0
LINE
  8
CSLAYER1
  6
CONTINUOUS
 62
     7
 10
410.842244
 20
721.661258
 11
411.534355
 21
722.036785
  0
LINE
  8
CSLAYER1
  6
CONTINUOUS
 62
     7
 10
411.534355
 20
722.036785
 11
412.270120
 21
722.368230
  0
LINE
  8
CSLAYER1
  6
CONTINUOUS
 62
     7
 10
412.270120
 20
722.368230
 11
413.043937
 21
722.653070
  0
LINE
  8
CSLAYER1
  6
CONTINUOUS
 62
     7
 10
413.043937
 20
722.653070
 11
413.849918
 21
722.889136
  0
LINE
  8
CSLAYER1
  6
CONTINUOUS
 62
     7
 10
413.849918
 20
722.889136
 11
414.681929
 21
723.074633
  0
LINE
  8
CSLAYER1
  6
CONTINUOUS
 62
     7
 10
414.681929
 20
723.074633
 11
415.533638
 21
723.208148
  0
LINE
  8
CSLAYER1
  6
CONTINUOUS
 62
     7
 10
415.533638
 20
723.208148
 11
416.398562
 21
723.288666
  0
LINE
  8
CSLAYER1
  6
CONTINUOUS
 62
     7
 10
416.398562
 20
723.288666
 11
417.270120
 21
723.315574
  0
LINE
  8
CSLAYER1
  6
CONTINUOUS
 62
     7
 10
402.270120
 20
651.260393
 11
402.270120
 21
571.420221
  0
LINE
  8
CSLAYER1
  6
CONTINUOUS
 62
     7
 10
516.270120
 20
684.873839
 11
516.270120
 21
669.704655
  0
LINE
  8
CSLAYER1
  6
CONTINUOUS
 62
     7
 10
516.270120
 20
684.873839
 11
516.064633
 21
688.201773
  0
LINE
  8
CSLAYER1
  6
CONTINUOUS
 62
     7
 10
516.064633
 20
688.201773
 11
515.449738
 21
691.504380
  0
LINE
  8
CSLAYER1
  6
CONTINUOUS
 62
     7
 10
515.449738
 20
691.504380
 11
514.430114
 21
694.756525
  0
LINE
  8
CSLAYER1
  6
CONTINUOUS
 62
     7
 10
514.430114
 20
694.756525
 11
513.013521
 21
697.933456
  0
LINE
  8
CSLAYER1
  6
CONTINUOUS
 62
     7
 10
513.013521
 20
697.933456
 11
511.210740
 21
701.010996
  0
LINE
  8
CSLAYER1
  6
CONTINUOUS
 62
     7
 10
511.210740
 20
701.010996
 11
509.035491
 21
703.965722
  0
LINE
  8
CSLAYER1
  6
CONTINUOUS
 62
     7
 10
509.035491
 20
703.965722
 11
507.568482
 21
705.594008
  0
LINE
  8
CSLAYER1
  6
CONTINUOUS
 62
     7
 10
499.770120
 20
712.316881
 11
496.980651
 21
714.124301
  0
LINE
  8
CSLAYER1
  6
CONTINUOUS
 62
     7
 10
496.980651
 20
714.124301
 11
493.243247
 21
716.152149
  0
LINE
  8
CSLAYER1
  6
CONTINUOUS
 62
     7
 10
493.243247
 20
716.152149
 11
489.270120
 21
717.941950
  0
LINE
  8
CSLAYER1
  6
CONTINUOUS
 62
     7
 10
489.270120
 20
717.941950
 11
485.091506
 21
719.480083
  0
LINE
  8
CSLAYER1
  6
CONTINUOUS
 62
     7
 10
485.091506
 20
719.480083
 11
480.739207
 21
720.754842
  0
LINE
  8
CSLAYER1
  6
CONTINUOUS
 62
     7
 10
480.739207
 20
720.754842
 11
476.246348
 21
721.756525
  0
LINE
  8
CSLAYER1
  6
CONTINUOUS
 62
     7
 10
476.246348
 20
721.756525
 11
471.647121
 21
722.477508
  0
LINE
  8
CSLAYER1
  6
CONTINUOUS
 62
     7
 10
471.647121
 20
722.477508
 11
466.976530
 21
722.912304
  0
LINE
  8
CSLAYER1
  6
CONTINUOUS
 62
     7
 10
466.976530
 20
722.912304
 11
462.270120
 21
723.057605
  0
LINE
  8
CSLAYER1
  6
CONTINUOUS
 62
     7
 10
462.270120
 20
723.057605
 11
457.563710
 21
722.912304
  0
LINE
  8
CSLAYER1
  6
CONTINUOUS
 62
     7
 10
457.563710
 20
722.912304
 11
452.893118
 21
722.477508
  0
LINE
  8
CSLAYER1
  6
CONTINUOUS
 62
     7
 10
452.893118
 20
722.477508
 11
448.293891
 21
721.756525
  0
LINE
  8
CSLAYER1
  6
CONTINUOUS
 62
     7
 10
448.293891
 20
721.756525
 11
443.801032
 21
720.754842
  0
LINE
  8
CSLAYER1
  6
CONTINUOUS
 62
     7
 10
443.801032
 20
720.754842
 11
439.448733
 21
719.480083
  0
LINE
  8
CSLAYER1
  6
CONTINUOUS
 62
     7
 10
439.448733
 20
719.480083
 11
435.270120
 21
717.941950
  0
LINE
  8
CSLAYER1
  6
CONTINUOUS
 62
     7
 10
435.270120
 20
717.941950
 11
431.296992
 21
716.152149
  0
LINE
  8
CSLAYER1
  6
CONTINUOUS
 62
     7
 10
431.296992
 20
716.152149
 11
427.559589
 21
714.124301
  0
LINE
  8
CSLAYER1
  6
CONTINUOUS
 62
     7
 10
427.559589
 20
714.124301
 11
424.770120
 21
712.316881
  0
LINE
  8
CSLAYER1
  6
CONTINUOUS
 62
     7
 10
416.957583
 20
705.578274
 11
415.504748
 21
703.965722
  0
LINE
  8
CSLAYER1
  6
CONTINUOUS
 62
     7
 10
415.504748
 20
703.965722
 11
413.329499
 21
701.010996
  0
LINE
  8
CSLAYER1
  6
CONTINUOUS
 62
     7
 10
413.329499
 20
701.010996
 11
411.526718
 21
697.933456
  0
LINE
  8
CSLAYER1
  6
CONTINUOUS
 62
     7
 10
411.526718
 20
697.933456
 11
410.110125
 21
694.756525
  0
LINE
  8
CSLAYER1
  6
CONTINUOUS
 62
     7
 10
410.110125
 20
694.756525
 11
409.090501
 21
691.504380
  0
LINE
  8
CSLAYER1
  6
CONTINUOUS
 62
     7
 10
409.090501
 20
691.504380
 11
408.475606
 21
688.201773
  0
LINE
  8
CSLAYER1
  6
CONTINUOUS
 62
     7
 10
408.475606
 20
688.201773
 11
408.270120
 21
684.873839
  0
LINE
  8
CSLAYER1
  6
CONTINUOUS
 62
     7
 10
408.270120
 20
684.873839
 11
408.270120
 21
669.704655
  0
LINE
  8
CSLAYER1
  6
CONTINUOUS
 62
     7
 10
515.419790
 20
670.859691
 11
514.430114
 21
674.016314
  0
LINE
  8
CSLAYER1
  6
CONTINUOUS
 62
     7
 10
514.430114
 20
674.016314
 11
513.013521
 21
677.193245
  0
LINE
  8
CSLAYER1
  6
CONTINUOUS
 62
     7
 10
513.013521
 20
677.193245
 11
511.210740
 21
680.270785
  0
LINE
  8
CSLAYER1
  6
CONTINUOUS
 62
     7
 10
511.210740
 20
680.270785
 11
509.035491
 21
683.225511
  0
LINE
  8
CSLAYER1
  6
CONTINUOUS
 62
     7
 10
509.035491
 20
683.225511
 11
506.504330
 21
686.034936
  0
LINE
  8
CSLAYER1
  6
CONTINUOUS
 62
     7
 10
506.504330
 20
686.034936
 11
503.636520
 21
688.677679
  0
LINE
  8
CSLAYER1
  6
CONTINUOUS
 62
     7
 10
503.636520
 20
688.677679
 11
500.453886
 21
691.133628
  0
LINE
  8
CSLAYER1
  6
CONTINUOUS
 62
     7
 10
500.453886
 20
691.133628
 11
496.980651
 21
693.384090
  0
LINE
  8
CSLAYER1
  6
CONTINUOUS
 62
     7
 10
496.980651
 20
693.384090
 11
493.243247
 21
695.411938
  0
LINE
  8
CSLAYER1
  6
CONTINUOUS
 62
     7
 10
493.243247
 20
695.411938
 11
489.270120
 21
697.201739
  0
LINE
  8
CSLAYER1
  6
CONTINUOUS
 62
     7
 10
489.270120
 20
697.201739
 11
485.091506
 21
698.739872
  0
LINE
  8
CSLAYER1
  6
CONTINUOUS
 62
     7
 10
485.091506
 20
698.739872
 11
480.739207
 21
700.014631
  0
LINE
  8
CSLAYER1
  6
CONTINUOUS
 62
     7
 10
480.739207
 20
700.014631
 11
476.246348
 21
701.016314
  0
LINE
  8
CSLAYER1
  6
CONTINUOUS
 62
     7
 10
476.246348
 20
701.016314
 11
471.647121
 21
701.737297
  0
LINE
  8
CSLAYER1
  6
CONTINUOUS
 62
     7
 10
471.647121
 20
701.737297
 11
466.976530
 21
702.172093
  0
LINE
  8
CSLAYER1
  6
CONTINUOUS
 62
     7
 10
466.976530
 20
702.172093
 11
462.270120
 21
702.317394
  0
LINE
  8
CSLAYER1
  6
CONTINUOUS
 62
     7
 10
462.270120
 20
702.317394
 11
457.563710
 21
702.172093
  0
LINE
  8
CSLAYER1
  6
CONTINUOUS
 62
     7
 10
457.563710
 20
702.172093
 11
452.893118
 21
701.737297
  0
LINE
  8
CSLAYER1
  6
CONTINUOUS
 62
     7
 10
452.893118
 20
701.737297
 11
448.293891
 21
701.016314
  0
LINE
  8
CSLAYER1
  6
CONTINUOUS
 62
     7
 10
448.293891
 20
701.016314
 11
443.801032
 21
700.014631
  0
LINE
  8
CSLAYER1
  6
CONTINUOUS
 62
     7
 10
443.801032
 20
700.014631
 11
439.448733
 21
698.739872
  0
LINE
  8
CSLAYER1
  6
CONTINUOUS
 62
     7
 10
439.448733
 20
698.739872
 11
435.270120
 21
697.201739
  0
LINE
  8
CSLAYER1
  6
CONTINUOUS
 62
     7
 10
435.270120
 20
697.201739
 11
431.296992
 21
695.411938
  0
LINE
  8
CSLAYER1
  6
CONTINUOUS
 62
     7
 10
431.296992
 20
695.411938
 11
427.559589
 21
693.384090
  0
LINE
  8
CSLAYER1
  6
CONTINUOUS
 62
     7
 10
427.559589
 20
693.384090
 11
424.086353
 21
691.133628
  0
LINE
  8
CSLAYER1
  6
CONTINUOUS
 62
     7
 10
424.086353
 20
691.133628
 11
420.903720
 21
688.677679
  0
LINE
  8
CSLAYER1
  6
CONTINUOUS
 62
     7
 10
420.903720
 20
688.677679
 11
418.035909
 21
686.034936
  0
LINE
  8
CSLAYER1
  6
CONTINUOUS
 62
     7
 10
418.035909
 20
686.034936
 11
415.504748
 21
683.225511
  0
LINE
  8
CSLAYER1
  6
CONTINUOUS
 62
     7
 10
415.504748
 20
683.225511
 11
413.329499
 21
680.270785
  0
LINE
  8
CSLAYER1
  6
CONTINUOUS
 62
     7
 10
413.329499
 20
680.270785
 11
411.526718
 21
677.193245
  0
LINE
  8
CSLAYER1
  6
CONTINUOUS
 62
     7
 10
411.526718
 20
677.193245
 11
410.110125
 21
674.016314
  0
LINE
  8
CSLAYER1
  6
CONTINUOUS
 62
     7
 10
410.110125
 20
674.016314
 11
409.120449
 21
670.859691
  0
LINE
  8
CSLAYER1
  6
CONTINUOUS
 62
     7
 10
522.270120
 20
651.260393
 11
522.041802
 21
654.958098
  0
LINE
  8
CSLAYER1
  6
CONTINUOUS
 62
     7
 10
522.041802
 20
654.958098
 11
521.358585
 21
658.627662
  0
LINE
  8
CSLAYER1
  6
CONTINUOUS
 62
     7
 10
521.358585
 20
658.627662
 11
520.225669
 21
662.241155
  0
LINE
  8
CSLAYER1
  6
CONTINUOUS
 62
     7
 10
520.225669
 20
662.241155
 11
518.651677
 21
665.771079
  0
LINE
  8
CSLAYER1
  6
CONTINUOUS
 62
     7
 10
518.651677
 20
665.771079
 11
516.648587
 21
669.190568
  0
LINE
  8
CSLAYER1
  6
CONTINUOUS
 62
     7
 10
516.648587
 20
669.190568
 11
514.231644
 21
672.473597
  0
LINE
  8
CSLAYER1
  6
CONTINUOUS
 62
     7
 10
514.231644
 20
672.473597
 11
511.419242
 21
675.595181
  0
LINE
  8
CSLAYER1
  6
CONTINUOUS
 62
     7
 10
511.419242
 20
675.595181
 11
508.232786
 21
678.531562
  0
LINE
  8
CSLAYER1
  6
CONTINUOUS
 62
     7
 10
508.232786
 20
678.531562
 11
504.696527
 21
681.260393
  0
LINE
  8
CSLAYER1
  6
CONTINUOUS
 62
     7
 10
504.696527
 20
681.260393
 11
500.837376
 21
683.760907
  0
LINE
  8
CSLAYER1
  6
CONTINUOUS
 62
     7
 10
500.837376
 20
683.760907
 11
496.684706
 21
686.014071
  0
LINE
  8
CSLAYER1
  6
CONTINUOUS
 62
     7
 10
496.684706
 20
686.014071
 11
492.270120
 21
688.002739
  0
LINE
  8
CSLAYER1
  6
CONTINUOUS
 62
     7
 10
492.270120
 20
688.002739
 11
487.627215
 21
689.711776
  0
LINE
  8
CSLAYER1
  6
CONTINUOUS
 62
     7
 10
487.627215
 20
689.711776
 11
482.791328
 21
691.128175
  0
LINE
  8
CSLAYER1
  6
CONTINUOUS
 62
     7
 10
482.791328
 20
691.128175
 11
477.799262
 21
692.241155
  0
LINE
  8
CSLAYER1
  6
CONTINUOUS
 62
     7
 10
477.799262
 20
692.241155
 11
472.689010
 21
693.042248
  0
LINE
  8
CSLAYER1
  6
CONTINUOUS
 62
     7
 10
472.689010
 20
693.042248
 11
467.499464
 21
693.525355
  0
LINE
  8
CSLAYER1
  6
CONTINUOUS
 62
     7
 10
467.499464
 20
693.525355
 11
462.270120
 21
693.686800
  0
LINE
  8
CSLAYER1
  6
CONTINUOUS
 62
     7
 10
462.270120
 20
693.686800
 11
457.040775
 21
693.525355
  0
LINE
  8
CSLAYER1
  6
CONTINUOUS
 62
     7
 10
457.040775
 20
693.525355
 11
451.851229
 21
693.042248
  0
LINE
  8
CSLAYER1
  6
CONTINUOUS
 62
     7
 10
451.851229
 20
693.042248
 11
446.740977
 21
692.241155
  0
LINE
  8
CSLAYER1
  6
CONTINUOUS
 62
     7
 10
446.740977
 20
692.241155
 11
441.748911
 21
691.128175
  0
LINE
  8
CSLAYER1
  6
CONTINUOUS
 62
     7
 10
441.748911
 20
691.128175
 11
436.913024
 21
689.711776
  0
LINE
  8
CSLAYER1
  6
CONTINUOUS
 62
     7
 10
436.913024
 20
689.711776
 11
432.270120
 21
688.002739
  0
LINE
  8
CSLAYER1
  6
CONTINUOUS
 62
     7
 10
432.270120
 20
688.002739
 11
427.855533
 21
686.014071
  0
LINE
  8
CSLAYER1
  6
CONTINUOUS
 62
     7
 10
427.855533
 20
686.014071
 11
423.702863
 21
683.760907
  0
LINE
  8
CSLAYER1
  6
CONTINUOUS
 62
     7
 10
423.702863
 20
683.760907
 11
419.843713
 21
681.260393
  0
LINE
  8
CSLAYER1
  6
CONTINUOUS
 62
     7
 10
419.843713
 20
681.260393
 11
416.307453
 21
678.531562
  0
LINE
  8
CSLAYER1
  6
CONTINUOUS
 62
     7
 10
416.307453
 20
678.531562
 11
413.120997
 21
675.595181
  0
LINE
  8
CSLAYER1
  6
CONTINUOUS
 62
     7
 10
413.120997
 20
675.595181
 11
410.308595
 21
672.473597
  0
LINE
  8
CSLAYER1
  6
CONTINUOUS
 62
     7
 10
410.308595
 20
672.473597
 11
407.891652
 21
669.190568
  0
LINE
  8
CSLAYER1
  6
CONTINUOUS
 62
     7
 10
407.891652
 20
669.190568
 11
405.888562
 21
665.771079
  0
LINE
  8
CSLAYER1
  6
CONTINUOUS
 62
     7
 10
405.888562
 20
665.771079
 11
404.314570
 21
662.241155
  0
LINE
  8
CSLAYER1
  6
CONTINUOUS
 62
     7
 10
404.314570
 20
662.241155
 11
403.181654
 21
658.627662
  0
LINE
  8
CSLAYER1
  6
CONTINUOUS
 62
     7
 10
403.181654
 20
658.627662
 11
402.498438
 21
654.958098
  0
LINE
  8
CSLAYER1
  6
CONTINUOUS
 62
     7
 10
402.498438
 20
654.958098
 11
402.270120
 21
651.260393
  0
LINE
  8
CSLAYER1
  6
CONTINUOUS
 62
     7
 10
522.270120
 20
644.108596
 11
522.041802
 21
647.806301
  0
LINE
  8
CSLAYER1
  6
CONTINUOUS
 62
     7
 10
522.041802
 20
647.806301
 11
521.358585
 21
651.475865
  0
LINE
  8
CSLAYER1
  6
CONTINUOUS
 62
     7
 10
521.358585
 20
651.475865
 11
520.225669
 21
655.089359
  0
LINE
  8
CSLAYER1
  6
CONTINUOUS
 62
     7
 10
520.225669
 20
655.089359
 11
518.651677
 21
658.619282
  0
LINE
  8
CSLAYER1
  6
CONTINUOUS
 62
     7
 10
518.651677
 20
658.619282
 11
516.648587
 21
662.038771
  0
LINE
  8
CSLAYER1
  6
CONTINUOUS
 62
     7
 10
516.648587
 20
662.038771
 11
514.231644
 21
665.321800
  0
LINE
  8
CSLAYER1
  6
CONTINUOUS
 62
     7
 10
514.231644
 20
665.321800
 11
511.419242
 21
668.443384
  0
LINE
  8
CSLAYER1
  6
CONTINUOUS
 62
     7
 10
511.419242
 20
668.443384
 11
508.232786
 21
671.379765
  0
LINE
  8
CSLAYER1
  6
CONTINUOUS
 62
     7
 10
508.232786
 20
671.379765
 11
504.696527
 21
674.108596
  0
LINE
  8
CSLAYER1
  6
CONTINUOUS
 62
     7
 10
504.696527
 20
674.108596
 11
500.837376
 21
676.609110
  0
LINE
  8
CSLAYER1
  6
CONTINUOUS
 62
     7
 10
500.837376
 20
676.609110
 11
496.684706
 21
678.862274
  0
LINE
  8
CSLAYER1
  6
CONTINUOUS
 62
     7
 10
496.684706
 20
678.862274
 11
492.270120
 21
680.850943
  0
LINE
  8
CSLAYER1
  6
CONTINUOUS
 62
     7
 10
492.270120
 20
680.850943
 11
487.627215
 21
682.559979
  0
LINE
  8
CSLAYER1
  6
CONTINUOUS
 62
     7
 10
487.627215
 20
682.559979
 11
482.791328
 21
683.976378
  0
LINE
  8
CSLAYER1
  6
CONTINUOUS
 62
     7
 10
482.791328
 20
683.976378
 11
477.799262
 21
685.089359
  0
LINE
  8
CSLAYER1
  6
CONTINUOUS
 62
     7
 10
477.799262
 20
685.089359
 11
472.689010
 21
685.890451
  0
LINE
  8
CSLAYER1
  6
CONTINUOUS
 62
     7
 10
472.689010
 20
685.890451
 11
467.499464
 21
686.373558
  0
LINE
  8
CSLAYER1
  6
CONTINUOUS
 62
     7
 10
467.499464
 20
686.373558
 11
462.270120
 21
686.535003
  0
LINE
  8
CSLAYER1
  6
CONTINUOUS
 62
     7
 10
462.270120
 20
686.535003
 11
457.040775
 21
686.373558
  0
LINE
  8
CSLAYER1
  6
CONTINUOUS
 62
     7
 10
457.040775
 20
686.373558
 11
451.851229
 21
685.890451
  0
LINE
  8
CSLAYER1
  6
CONTINUOUS
 62
     7
 10
451.851229
 20
685.890451
 11
446.740977
 21
685.089359
  0
LINE
  8
CSLAYER1
  6
CONTINUOUS
 62
     7
 10
446.740977
 20
685.089359
 11
441.748911
 21
683.976378
  0
LINE
  8
CSLAYER1
  6
CONTINUOUS
 62
     7
 10
441.748911
 20
683.976378
 11
436.913024
 21
682.559979
  0
LINE
  8
CSLAYER1
  6
CONTINUOUS
 62
     7
 10
436.913024
 20
682.559979
 11
432.270120
 21
680.850943
  0
LINE
  8
CSLAYER1
  6
CONTINUOUS
 62
     7
 10
432.270120
 20
680.850943
 11
427.855533
 21
678.862274
  0
LINE
  8
CSLAYER1
  6
CONTINUOUS
 62
     7
 10
427.855533
 20
678.862274
 11
423.702863
 21
676.609110
  0
LINE
  8
CSLAYER1
  6
CONTINUOUS
 62
     7
 10
423.702863
 20
676.609110
 11
419.843713
 21
674.108596
  0
LINE
  8
CSLAYER1
  6
CONTINUOUS
 62
     7
 10
419.843713
 20
674.108596
 11
416.307453
 21
671.379765
  0
LINE
  8
CSLAYER1
  6
CONTINUOUS
 62
     7
 10
416.307453
 20
671.379765
 11
413.120997
 21
668.443384
  0
LINE
  8
CSLAYER1
  6
CONTINUOUS
 62
     7
 10
413.120997
 20
668.443384
 11
410.308595
 21
665.321800
  0
LINE
  8
CSLAYER1
  6
CONTINUOUS
 62
     7
 10
410.308595
 20
665.321800
 11
407.891652
 21
662.038771
  0
LINE
  8
CSLAYER1
  6
CONTINUOUS
 62
     7
 10
407.891652
 20
662.038771
 11
405.888562
 21
658.619282
  0
LINE
  8
CSLAYER1
  6
CONTINUOUS
 62
     7
 10
405.888562
 20
658.619282
 11
404.314570
 21
655.089359
  0
LINE
  8
CSLAYER1
  6
CONTINUOUS
 62
     7
 10
404.314570
 20
655.089359
 11
403.181654
 21
651.475865
  0
LINE
  8
CSLAYER1
  6
CONTINUOUS
 62
     7
 10
403.181654
 20
651.475865
 11
402.498438
 21
647.806301
  0
LINE
  8
CSLAYER1
  6
CONTINUOUS
 62
     7
 10
402.498438
 20
647.806301
 11
402.270120
 21
644.108596
  0
LINE
  8
CSLAYER1
  6
CONTINUOUS
 62
     7
 10
524.270120
 20
560.432573
 11
524.034191
 21
564.253535
  0
LINE
  8
CSLAYER1
  6
CONTINUOUS
 62
     7
 10
524.034191
 20
564.253535
 11
523.328200
 21
568.045417
  0
LINE
  8
CSLAYER1
  6
CONTINUOUS
 62
     7
 10
523.328200
 20
568.045417
 11
522.157521
 21
571.779360
  0
LINE
  8
CSLAYER1
  6
CONTINUOUS
 62
     7
 10
522.157521
 20
571.779360
 11
520.531062
 21
575.426948
  0
LINE
  8
CSLAYER1
  6
CONTINUOUS
 62
     7
 10
520.531062
 20
575.426948
 11
518.461202
 21
578.960420
  0
LINE
  8
CSLAYER1
  6
CONTINUOUS
 62
     7
 10
518.461202
 20
578.960420
 11
515.963695
 21
582.352883
  0
LINE
  8
CSLAYER1
  6
CONTINUOUS
 62
     7
 10
515.963695
 20
582.352883
 11
513.057546
 21
585.578520
  0
LINE
  8
CSLAYER1
  6
CONTINUOUS
 62
     7
 10
513.057546
 20
585.578520
 11
509.764875
 21
588.612781
  0
LINE
  8
CSLAYER1
  6
CONTINUOUS
 62
     7
 10
509.764875
 20
588.612781
 11
506.110740
 21
591.432573
  0
LINE
  8
CSLAYER1
  6
CONTINUOUS
 62
     7
 10
506.110740
 20
591.432573
 11
502.122951
 21
594.016437
  0
LINE
  8
CSLAYER1
  6
CONTINUOUS
 62
     7
 10
502.122951
 20
594.016437
 11
497.831859
 21
596.344707
  0
LINE
  8
CSLAYER1
  6
CONTINUOUS
 62
     7
 10
497.831859
 20
596.344707
 11
493.270120
 21
598.399664
  0
LINE
  8
CSLAYER1
  6
CONTINUOUS
 62
     7
 10
493.270120
 20
598.399664
 11
488.472452
 21
600.165669
  0
LINE
  8
CSLAYER1
  6
CONTINUOUS
 62
     7
 10
488.472452
 20
600.165669
 11
483.475369
 21
601.629280
  0
LINE
  8
CSLAYER1
  6
CONTINUOUS
 62
     7
 10
483.475369
 20
601.629280
 11
478.316900
 21
602.779360
  0
LINE
  8
CSLAYER1
  6
CONTINUOUS
 62
     7
 10
478.316900
 20
602.779360
 11
473.036307
 21
603.607156
  0
LINE
  8
CSLAYER1
  6
CONTINUOUS
 62
     7
 10
473.036307
 20
603.607156
 11
467.673776
 21
604.106367
  0
LINE
  8
CSLAYER1
  6
CONTINUOUS
 62
     7
 10
467.673776
 20
604.106367
 11
462.270120
 21
604.273193
  0
LINE
  8
CSLAYER1
  6
CONTINUOUS
 62
     7
 10
462.270120
 20
604.273193
 11
456.866464
 21
604.106367
  0
LINE
  8
CSLAYER1
  6
CONTINUOUS
 62
     7
 10
456.866464
 20
604.106367
 11
451.503933
 21
603.607156
  0
LINE
  8
CSLAYER1
  6
CONTINUOUS
 62
     7
 10
451.503933
 20
603.607156
 11
446.223339
 21
602.779360
  0
LINE
  8
CSLAYER1
  6
CONTINUOUS
 62
     7
 10
446.223339
 20
602.779360
 11
441.064871
 21
601.629280
  0
LINE
  8
CSLAYER1
  6
CONTINUOUS
 62
     7
 10
441.064871
 20
601.629280
 11
436.067787
 21
600.165669
  0
LINE
  8
CSLAYER1
  6
CONTINUOUS
 62
     7
 10
436.067787
 20
600.165669
 11
431.270120
 21
598.399664
  0
LINE
  8
CSLAYER1
  6
CONTINUOUS
 62
     7
 10
431.270120
 20
598.399664
 11
426.708381
 21
596.344707
  0
LINE
  8
CSLAYER1
  6
CONTINUOUS
 62
     7
 10
426.708381
 20
596.344707
 11
422.417288
 21
594.016437
  0
LINE
  8
CSLAYER1
  6
CONTINUOUS
 62
     7
 10
422.417288
 20
594.016437
 11
418.429499
 21
591.432573
  0
LINE
  8
CSLAYER1
  6
CONTINUOUS
 62
     7
 10
418.429499
 20
591.432573
 11
414.775364
 21
588.612781
  0
LINE
  8
CSLAYER1
  6
CONTINUOUS
 62
     7
 10
414.775364
 20
588.612781
 11
411.482693
 21
585.578520
  0
LINE
  8
CSLAYER1
  6
CONTINUOUS
 62
     7
 10
411.482693
 20
585.578520
 11
408.576545
 21
582.352883
  0
LINE
  8
CSLAYER1
  6
CONTINUOUS
 62
     7
 10
408.576545
 20
582.352883
 11
406.079037
 21
578.960420
  0
LINE
  8
CSLAYER1
  6
CONTINUOUS
 62
     7
 10
406.079037
 20
578.960420
 11
404.009177
 21
575.426948
  0
LINE
  8
CSLAYER1
  6
CONTINUOUS
 62
     7
 10
404.009177
 20
575.426948
 11
402.382718
 21
571.779360
  0
LINE
  8
CSLAYER1
  6
CONTINUOUS
 62
     7
 10
402.382718
 20
571.779360
 11
401.212039
 21
568.045417
  0
LINE
  8
CSLAYER1
  6
CONTINUOUS
 62
     7
 10
401.212039
 20
568.045417
 11
400.506048
 21
564.253535
  0
LINE
  8
CSLAYER1
  6
CONTINUOUS
 62
     7
 10
400.506048
 20
564.253535
 11
400.270120
 21
560.432573
  0
LINE
  8
CSLAYER1
  6
CONTINUOUS
 62
     7
 10
511.270120
 20
708.416351
 11
511.133823
 21
709.148401
  0
LINE
  8
CSLAYER1
  6
CONTINUOUS
 62
     7
 10
511.133823
 20
709.148401
 11
510.734221
 21
709.830564
  0
LINE
  8
CSLAYER1
  6
CONTINUOUS
 62
     7
 10
510.734221
 20
709.830564
 11
510.098547
 21
710.416351
  0
LINE
  8
CSLAYER1
  6
CONTINUOUS
 62
     7
 10
510.098547
 20
710.416351
 11
509.270120
 21
710.865840
  0
LINE
  8
CSLAYER1
  6
CONTINUOUS
 62
     7
 10
509.270120
 20
710.865840
 11
508.305396
 21
711.148401
  0
LINE
  8
CSLAYER1
  6
CONTINUOUS
 62
     7
 10
508.305396
 20
711.148401
 11
507.270120
 21
711.244778
  0
LINE
  8
CSLAYER1
  6
CONTINUOUS
 62
     7
 10
507.270120
 20
711.244778
 11
506.234843
 21
711.148401
  0
LINE
  8
CSLAYER1
  6
CONTINUOUS
 62
     7
 10
506.234843
 20
711.148401
 11
505.270120
 21
710.865840
  0
LINE
  8
CSLAYER1
  6
CONTINUOUS
 62
     7
 10
505.270120
 20
710.865840
 11
504.441693
 21
710.416351
  0
LINE
  8
CSLAYER1
  6
CONTINUOUS
 62
     7
 10
504.441693
 20
710.416351
 11
503.806018
 21
709.830564
  0
LINE
  8
CSLAYER1
  6
CONTINUOUS
 62
     7
 10
503.806018
 20
709.830564
 11
503.406416
 21
709.148401
  0
LINE
  8
CSLAYER1
  6
CONTINUOUS
 62
     7
 10
503.406416
 20
709.148401
 11
503.270120
 21
708.416351
  0
LINE
  8
CSLAYER1
  6
CONTINUOUS
 62
     7
 10
503.270120
 20
708.416351
 11
503.406416
 21
707.684300
  0
LINE
  8
CSLAYER1
  6
CONTINUOUS
 62
     7
 10
503.406416
 20
707.684300
 11
503.806018
 21
707.002137
  0
LINE
  8
CSLAYER1
  6
CONTINUOUS
 62
     7
 10
503.806018
 20
707.002137
 11
504.441693
 21
706.416351
  0
LINE
  8
CSLAYER1
  6
CONTINUOUS
 62
     7
 10
504.441693
 20
706.416351
 11
505.270120
 21
705.966861
  0
LINE
  8
CSLAYER1
  6
CONTINUOUS
 62
     7
 10
505.270120
 20
705.966861
 11
506.234843
 21
705.684300
  0
LINE
  8
CSLAYER1
  6
CONTINUOUS
 62
     7
 10
507.270120
 20
705.587923
 11
508.572481
 21
705.696748
  0
LINE
  8
CSLAYER1
  6
CONTINUOUS
 62
     7
 10
508.305396
 20
705.684300
 11
509.270120
 21
705.966861
  0
LINE
  8
CSLAYER1
  6
CONTINUOUS
 62
     7
 10
509.270120
 20
705.966861
 11
510.098547
 21
706.416351
  0
LINE
  8
CSLAYER1
  6
CONTINUOUS
 62
     7
 10
510.098547
 20
706.416351
 11
510.734221
 21
707.002137
  0
LINE
  8
CSLAYER1
  6
CONTINUOUS
 62
     7
 10
510.734221
 20
707.002137
 11
511.133823
 21
707.684300
  0
LINE
  8
CSLAYER1
  6
CONTINUOUS
 62
     7
 10
511.133823
 20
707.684300
 11
511.270120
 21
708.416351
  0
LINE
  8
CSLAYER1
  6
CONTINUOUS
 62
     7
 10
514.770120
 20
710.919479
 11
514.656178
 21
711.840388
  0
LINE
  8
CSLAYER1
  6
CONTINUOUS
 62
     7
 10
514.656178
 20
711.840388
 11
514.317814
 21
712.733315
  0
LINE
  8
CSLAYER1
  6
CONTINUOUS
 62
     7
 10
514.317814
 20
712.733315
 11
513.765310
 21
713.571130
  0
LINE
  8
CSLAYER1
  6
CONTINUOUS
 62
     7
 10
513.765310
 20
713.571130
 11
513.015453
 21
714.328376
  0
LINE
  8
CSLAYER1
  6
CONTINUOUS
 62
     7
 10
513.015453
 20
714.328376
 11
512.091027
 21
714.982044
  0
LINE
  8
CSLAYER1
  6
CONTINUOUS
 62
     7
 10
512.091027
 20
714.982044
 11
511.020120
 21
715.512273
  0
LINE
  8
CSLAYER1
  6
CONTINUOUS
 62
     7
 10
511.020120
 20
715.512273
 11
509.835271
 21
715.902952
  0
LINE
  8
CSLAYER1
  6
CONTINUOUS
 62
     7
 10
509.835271
 20
715.902952
 11
508.572481
 21
716.142211
  0
LINE
  8
CSLAYER1
  6
CONTINUOUS
 62
     7
 10
508.572481
 20
716.142211
 11
507.270120
 21
716.222780
  0
LINE
  8
CSLAYER1
  6
CONTINUOUS
 62
     7
 10
507.270120
 20
716.222780
 11
505.967758
 21
716.142211
  0
LINE
  8
CSLAYER1
  6
CONTINUOUS
 62
     7
 10
505.967758
 20
716.142211
 11
504.704969
 21
715.902952
  0
LINE
  8
CSLAYER1
  6
CONTINUOUS
 62
     7
 10
504.704969
 20
715.902952
 11
503.520120
 21
715.512273
  0
LINE
  8
CSLAYER1
  6
CONTINUOUS
 62
     7
 10
503.520120
 20
715.512273
 11
502.449213
 21
714.982044
  0
LINE
  8
CSLAYER1
  6
CONTINUOUS
 62
     7
 10
502.449213
 20
714.982044
 11
501.524786
 21
714.328376
  0
LINE
  8
CSLAYER1
  6
CONTINUOUS
 62
     7
 10
501.524786
 20
714.328376
 11
500.774929
 21
713.571130
  0
LINE
  8
CSLAYER1
  6
CONTINUOUS
 62
     7
 10
500.774929
 20
713.571130
 11
500.222425
 21
712.733315
  0
LINE
  8
CSLAYER1
  6
CONTINUOUS
 62
     7
 10
500.222425
 20
712.733315
 11
499.884061
 21
711.840388
  0
LINE
  8
CSLAYER1
  6
CONTINUOUS
 62
     7
 10
499.884061
 20
711.840388
 11
499.770120
 21
710.919479
  0
LINE
  8
CSLAYER1
  6
CONTINUOUS
 62
     7
 10
499.770120
 20
710.919479
 11
499.884061
 21
709.998571
  0
LINE
  8
CSLAYER1
  6
CONTINUOUS
 62
     7
 10
499.884061
 20
709.998571
 11
500.222425
 21
709.105644
  0
LINE
  8
CSLAYER1
  6
CONTINUOUS
 62
     7
 10
500.222425
 20
709.105644
 11
500.774929
 21
708.267829
  0
LINE
  8
CSLAYER1
  6
CONTINUOUS
 62
     7
 10
500.774929
 20
708.267829
 11
501.524786
 21
707.510583
  0
LINE
  8
CSLAYER1
  6
CONTINUOUS
 62
     7
 10
501.524786
 20
707.510583
 11
502.449213
 21
706.856915
  0
LINE
  8
CSLAYER1
  6
CONTINUOUS
 62
     7
 10
502.449213
 20
706.856915
 11
503.520120
 21
706.326686
  0
LINE
  8
CSLAYER1
  6
CONTINUOUS
 62
     7
 10
503.520120
 20
706.326686
 11
504.704969
 21
705.936007
  0
LINE
  8
CSLAYER1
  6
CONTINUOUS
 62
     7
 10
504.704969
 20
705.936007
 11
505.967758
 21
705.696748
  0
LINE
  8
CSLAYER1
  6
CONTINUOUS
 62
     7
 10
507.270120
 20
705.587923
 11
505.967758
 21
705.696748
  0
LINE
  8
CSLAYER1
  6
CONTINUOUS
 62
     7
 10
508.572481
 20
705.696748
 11
509.835271
 21
705.936007
  0
LINE
  8
CSLAYER1
  6
CONTINUOUS
 62
     7
 10
509.835271
 20
705.936007
 11
511.020120
 21
706.326686
  0
LINE
  8
CSLAYER1
  6
CONTINUOUS
 62
     7
 10
511.020120
 20
706.326686
 11
512.091027
 21
706.856915
  0
LINE
  8
CSLAYER1
  6
CONTINUOUS
 62
     7
 10
512.091027
 20
706.856915
 11
513.015453
 21
707.510583
  0
LINE
  8
CSLAYER1
  6
CONTINUOUS
 62
     7
 10
513.015453
 20
707.510583
 11
513.765310
 21
708.267829
  0
LINE
  8
CSLAYER1
  6
CONTINUOUS
 62
     7
 10
513.765310
 20
708.267829
 11
514.317814
 21
709.105644
  0
LINE
  8
CSLAYER1
  6
CONTINUOUS
 62
     7
 10
514.317814
 20
709.105644
 11
514.656178
 21
709.998571
  0
LINE
  8
CSLAYER1
  6
CONTINUOUS
 62
     7
 10
514.656178
 20
709.998571
 11
514.770120
 21
710.919479
  0
LINE
  8
CSLAYER1
  6
CONTINUOUS
 62
     7
 10
514.770120
 20
716.998507
 11
514.770120
 21
710.919479
  0
LINE
  8
CSLAYER1
  6
CONTINUOUS
 62
     7
 10
511.270120
 20
710.919479
 11
511.270120
 21
708.416351
  0
LINE
  8
CSLAYER1
  6
CONTINUOUS
 62
     7
 10
514.770120
 20
716.998507
 11
514.656178
 21
717.919415
  0
LINE
  8
CSLAYER1
  6
CONTINUOUS
 62
     7
 10
514.656178
 20
717.919415
 11
514.317814
 21
718.812342
  0
LINE
  8
CSLAYER1
  6
CONTINUOUS
 62
     7
 10
514.317814
 20
718.812342
 11
513.765310
 21
719.650157
  0
LINE
  8
CSLAYER1
  6
CONTINUOUS
 62
     7
 10
513.765310
 20
719.650157
 11
513.015453
 21
720.407403
  0
LINE
  8
CSLAYER1
  6
CONTINUOUS
 62
     7
 10
513.015453
 20
720.407403
 11
512.091027
 21
721.061071
  0
LINE
  8
CSLAYER1
  6
CONTINUOUS
 62
     7
 10
512.091027
 20
721.061071
 11
511.020120
 21
721.591300
  0
LINE
  8
CSLAYER1
  6
CONTINUOUS
 62
     7
 10
511.020120
 20
721.591300
 11
509.835271
 21
721.981979
  0
LINE
  8
CSLAYER1
  6
CONTINUOUS
 62
     7
 10
509.835271
 20
721.981979
 11
508.572481
 21
722.221239
  0
LINE
  8
CSLAYER1
  6
CONTINUOUS
 62
     7
 10
508.572481
 20
722.221239
 11
507.270120
 21
722.301808
  0
LINE
  8
CSLAYER1
  6
CONTINUOUS
 62
     7
 10
507.270120
 20
722.301808
 11
505.967758
 21
722.221239
  0
LINE
  8
CSLAYER1
  6
CONTINUOUS
 62
     7
 10
505.967758
 20
722.221239
 11
504.704969
 21
721.981979
  0
LINE
  8
CSLAYER1
  6
CONTINUOUS
 62
     7
 10
504.704969
 20
721.981979
 11
503.520120
 21
721.591300
  0
LINE
  8
CSLAYER1
  6
CONTINUOUS
 62
     7
 10
503.520120
 20
721.591300
 11
502.449213
 21
721.061071
  0
LINE
  8
CSLAYER1
  6
CONTINUOUS
 62
     7
 10
502.449213
 20
721.061071
 11
501.524786
 21
720.407403
  0
LINE
  8
CSLAYER1
  6
CONTINUOUS
 62
     7
 10
501.524786
 20
720.407403
 11
500.774929
 21
719.650157
  0
LINE
  8
CSLAYER1
  6
CONTINUOUS
 62
     7
 10
500.774929
 20
719.650157
 11
500.222425
 21
718.812342
  0
LINE
  8
CSLAYER1
  6
CONTINUOUS
 62
     7
 10
500.222425
 20
718.812342
 11
499.884061
 21
717.919415
  0
LINE
  8
CSLAYER1
  6
CONTINUOUS
 62
     7
 10
499.884061
 20
717.919415
 11
499.770120
 21
716.998507
  0
LINE
  8
CSLAYER1
  6
CONTINUOUS
 62
     7
 10
511.270120
 20
710.919479
 11
511.133823
 21
711.651530
  0
LINE
  8
CSLAYER1
  6
CONTINUOUS
 62
     7
 10
511.133823
 20
711.651530
 11
510.734221
 21
712.333693
  0
LINE
  8
CSLAYER1
  6
CONTINUOUS
 62
     7
 10
510.734221
 20
712.333693
 11
510.098547
 21
712.919479
  0
LINE
  8
CSLAYER1
  6
CONTINUOUS
 62
     7
 10
510.098547
 20
712.919479
 11
509.270120
 21
713.368969
  0
LINE
  8
CSLAYER1
  6
CONTINUOUS
 62
     7
 10
509.270120
 20
713.368969
 11
508.305396
 21
713.651530
  0
LINE
  8
CSLAYER1
  6
CONTINUOUS
 62
     7
 10
508.305396
 20
713.651530
 11
507.270120
 21
713.747907
  0
LINE
  8
CSLAYER1
  6
CONTINUOUS
 62
     7
 10
507.270120
 20
713.747907
 11
506.234843
 21
713.651530
  0
LINE
  8
CSLAYER1
  6
CONTINUOUS
 62
     7
 10
506.234843
 20
713.651530
 11
505.270120
 21
713.368969
  0
LINE
  8
CSLAYER1
  6
CONTINUOUS
 62
     7
 10
505.270120
 20
713.368969
 11
504.441693
 21
712.919479
  0
LINE
  8
CSLAYER1
  6
CONTINUOUS
 62
     7
 10
504.441693
 20
712.919479
 11
503.806018
 21
712.333693
  0
LINE
  8
CSLAYER1
  6
CONTINUOUS
 62
     7
 10
503.806018
 20
712.333693
 11
503.406416
 21
711.651530
  0
LINE
  8
CSLAYER1
  6
CONTINUOUS
 62
     7
 10
503.406416
 20
711.651530
 11
503.270120
 21
710.919479
  0
LINE
  8
CSLAYER1
  6
CONTINUOUS
 62
     7
 10
511.043358
 20
721.580832
 11
511.043358
 21
715.503719
  0
LINE
  8
CSLAYER1
  6
CONTINUOUS
 62
     7
 10
503.496881
 20
721.580832
 11
503.496881
 21
715.503719
  0
LINE
  8
CSLAYER1
  6
CONTINUOUS
 62
     7
 10
499.770120
 20
716.998507
 11
499.770120
 21
710.919479
  0
LINE
  8
CSLAYER1
  6
CONTINUOUS
 62
     7
 10
503.270120
 20
710.919479
 11
503.270120
 21
708.416351
  0
LINE
  8
CSLAYER1
  6
CONTINUOUS
 62
     7
 10
413.270120
 20
708.416351
 11
413.406416
 21
709.148401
  0
LINE
  8
CSLAYER1
  6
CONTINUOUS
 62
     7
 10
413.406416
 20
709.148401
 11
413.806018
 21
709.830564
  0
LINE
  8
CSLAYER1
  6
CONTINUOUS
 62
     7
 10
413.806018
 20
709.830564
 11
414.441693
 21
710.416351
  0
LINE
  8
CSLAYER1
  6
CONTINUOUS
 62
     7
 10
414.441693
 20
710.416351
 11
415.270120
 21
710.865840
  0
LINE
  8
CSLAYER1
  6
CONTINUOUS
 62
     7
 10
415.270120
 20
710.865840
 11
416.234843
 21
711.148401
  0
LINE
  8
CSLAYER1
  6
CONTINUOUS
 62
     7
 10
416.234843
 20
711.148401
 11
417.270120
 21
711.244778
  0
LINE
  8
CSLAYER1
  6
CONTINUOUS
 62
     7
 10
417.270120
 20
711.244778
 11
418.305396
 21
711.148401
  0
LINE
  8
CSLAYER1
  6
CONTINUOUS
 62
     7
 10
418.305396
 20
711.148401
 11
419.270120
 21
710.865840
  0
LINE
  8
CSLAYER1
  6
CONTINUOUS
 62
     7
 10
419.270120
 20
710.865840
 11
420.098547
 21
710.416351
  0
LINE
  8
CSLAYER1
  6
CONTINUOUS
 62
     7
 10
420.098547
 20
710.416351
 11
420.734221
 21
709.830564
  0
LINE
  8
CSLAYER1
  6
CONTINUOUS
 62
     7
 10
420.734221
 20
709.830564
 11
421.133823
 21
709.148401
  0
LINE
  8
CSLAYER1
  6
CONTINUOUS
 62
     7
 10
421.133823
 20
709.148401
 11
421.270120
 21
708.416351
  0
LINE
  8
CSLAYER1
  6
CONTINUOUS
 62
     7
 10
421.270120
 20
708.416351
 11
421.133823
 21
707.684300
  0
LINE
  8
CSLAYER1
  6
CONTINUOUS
 62
     7
 10
421.133823
 20
707.684300
 11
420.734221
 21
707.002137
  0
LINE
  8
CSLAYER1
  6
CONTINUOUS
 62
     7
 10
420.734221
 20
707.002137
 11
420.098547
 21
706.416351
  0
LINE
  8
CSLAYER1
  6
CONTINUOUS
 62
     7
 10
420.098547
 20
706.416351
 11
419.270120
 21
705.966861
  0
LINE
  8
CSLAYER1
  6
CONTINUOUS
 62
     7
 10
419.270120
 20
705.966861
 11
418.305396
 21
705.684300
  0
LINE
  8
CSLAYER1
  6
CONTINUOUS
 62
     7
 10
417.270120
 20
705.587923
 11
415.967758
 21
705.696748
  0
LINE
  8
CSLAYER1
  6
CONTINUOUS
 62
     7
 10
416.234843
 20
705.684300
 11
415.270120
 21
705.966861
  0
LINE
  8
CSLAYER1
  6
CONTINUOUS
 62
     7
 10
415.270120
 20
705.966861
 11
414.441693
 21
706.416351
  0
LINE
  8
CSLAYER1
  6
CONTINUOUS
 62
     7
 10
414.441693
 20
706.416351
 11
413.806018
 21
707.002137
  0
LINE
  8
CSLAYER1
  6
CONTINUOUS
 62
     7
 10
413.806018
 20
707.002137
 11
413.406416
 21
707.684300
  0
LINE
  8
CSLAYER1
  6
CONTINUOUS
 62
     7
 10
413.406416
 20
707.684300
 11
413.270120
 21
708.416351
  0
LINE
  8
CSLAYER1
  6
CONTINUOUS
 62
     7
 10
409.770120
 20
710.919479
 11
409.884061
 21
711.840388
  0
LINE
  8
CSLAYER1
  6
CONTINUOUS
 62
     7
 10
409.884061
 20
711.840388
 11
410.222425
 21
712.733315
  0
LINE
  8
CSLAYER1
  6
CONTINUOUS
 62
     7
 10
410.222425
 20
712.733315
 11
410.774929
 21
713.571130
  0
LINE
  8
CSLAYER1
  6
CONTINUOUS
 62
     7
 10
410.774929
 20
713.571130
 11
411.524786
 21
714.328376
  0
LINE
  8
CSLAYER1
  6
CONTINUOUS
 62
     7
 10
411.524786
 20
714.328376
 11
412.449213
 21
714.982044
  0
LINE
  8
CSLAYER1
  6
CONTINUOUS
 62
     7
 10
412.449213
 20
714.982044
 11
413.520120
 21
715.512273
  0
LINE
  8
CSLAYER1
  6
CONTINUOUS
 62
     7
 10
413.520120
 20
715.512273
 11
414.704969
 21
715.902952
  0
LINE
  8
CSLAYER1
  6
CONTINUOUS
 62
     7
 10
414.704969
 20
715.902952
 11
415.967758
 21
716.142211
  0
LINE
  8
CSLAYER1
  6
CONTINUOUS
 62
     7
 10
415.967758
 20
716.142211
 11
417.270120
 21
716.222780
  0
LINE
  8
CSLAYER1
  6
CONTINUOUS
 62
     7
 10
417.270120
 20
716.222780
 11
418.572481
 21
716.142211
  0
LINE
  8
CSLAYER1
  6
CONTINUOUS
 62
     7
 10
418.572481
 20
716.142211
 11
419.835271
 21
715.902952
  0
LINE
  8
CSLAYER1
  6
CONTINUOUS
 62
     7
 10
419.835271
 20
715.902952
 11
421.020120
 21
715.512273
  0
LINE
  8
CSLAYER1
  6
CONTINUOUS
 62
     7
 10
421.020120
 20
715.512273
 11
422.091027
 21
714.982044
  0
LINE
  8
CSLAYER1
  6
CONTINUOUS
 62
     7
 10
422.091027
 20
714.982044
 11
423.015453
 21
714.328376
  0
LINE
  8
CSLAYER1
  6
CONTINUOUS
 62
     7
 10
423.015453
 20
714.328376
 11
423.765310
 21
713.571130
  0
LINE
  8
CSLAYER1
  6
CONTINUOUS
 62
     7
 10
423.765310
 20
713.571130
 11
424.317814
 21
712.733315
  0
LINE
  8
CSLAYER1
  6
CONTINUOUS
 62
     7
 10
424.317814
 20
712.733315
 11
424.656178
 21
711.840388
  0
LINE
  8
CSLAYER1
  6
CONTINUOUS
 62
     7
 10
424.656178
 20
711.840388
 11
424.770120
 21
710.919479
  0
LINE
  8
CSLAYER1
  6
CONTINUOUS
 62
     7
 10
424.770120
 20
710.919479
 11
424.656178
 21
709.998571
  0
LINE
  8
CSLAYER1
  6
CONTINUOUS
 62
     7
 10
424.656178
 20
709.998571
 11
424.317814
 21
709.105644
  0
LINE
  8
CSLAYER1
  6
CONTINUOUS
 62
     7
 10
424.317814
 20
709.105644
 11
423.765310
 21
708.267829
  0
LINE
  8
CSLAYER1
  6
CONTINUOUS
 62
     7
 10
423.765310
 20
708.267829
 11
423.015453
 21
707.510583
  0
LINE
  8
CSLAYER1
  6
CONTINUOUS
 62
     7
 10
423.015453
 20
707.510583
 11
422.091027
 21
706.856915
  0
LINE
  8
CSLAYER1
  6
CONTINUOUS
 62
     7
 10
422.091027
 20
706.856915
 11
421.020120
 21
706.326686
  0
LINE
  8
CSLAYER1
  6
CONTINUOUS
 62
     7
 10
421.020120
 20
706.326686
 11
419.835271
 21
705.936007
  0
LINE
  8
CSLAYER1
  6
CONTINUOUS
 62
     7
 10
419.835271
 20
705.936007
 11
418.572481
 21
705.696748
  0
LINE
  8
CSLAYER1
  6
CONTINUOUS
 62
     7
 10
417.270120
 20
705.587923
 11
418.572481
 21
705.696748
  0
LINE
  8
CSLAYER1
  6
CONTINUOUS
 62
     7
 10
415.967758
 20
705.696748
 11
414.704969
 21
705.936007
  0
LINE
  8
CSLAYER1
  6
CONTINUOUS
 62
     7
 10
414.704969
 20
705.936007
 11
413.520120
 21
706.326686
  0
LINE
  8
CSLAYER1
  6
CONTINUOUS
 62
     7
 10
413.520120
 20
706.326686
 11
412.449213
 21
706.856915
  0
LINE
  8
CSLAYER1
  6
CONTINUOUS
 62
     7
 10
412.449213
 20
706.856915
 11
411.524786
 21
707.510583
  0
LINE
  8
CSLAYER1
  6
CONTINUOUS
 62
     7
 10
411.524786
 20
707.510583
 11
410.774929
 21
708.267829
  0
LINE
  8
CSLAYER1
  6
CONTINUOUS
 62
     7
 10
410.774929
 20
708.267829
 11
410.222425
 21
709.105644
  0
LINE
  8
CSLAYER1
  6
CONTINUOUS
 62
     7
 10
410.222425
 20
709.105644
 11
409.884061
 21
709.998571
  0
LINE
  8
CSLAYER1
  6
CONTINUOUS
 62
     7
 10
409.884061
 20
709.998571
 11
409.770120
 21
710.919479
  0
LINE
  8
CSLAYER1
  6
CONTINUOUS
 62
     7
 10
409.770120
 20
716.998507
 11
409.770120
 21
710.919479
  0
LINE
  8
CSLAYER1
  6
CONTINUOUS
 62
     7
 10
413.270120
 20
710.919479
 11
413.270120
 21
708.416351
  0
LINE
  8
CSLAYER1
  6
CONTINUOUS
 62
     7
 10
409.770120
 20
716.998507
 11
409.884061
 21
717.919415
  0
LINE
  8
CSLAYER1
  6
CONTINUOUS
 62
     7
 10
409.884061
 20
717.919415
 11
410.222425
 21
718.812342
  0
LINE
  8
CSLAYER1
  6
CONTINUOUS
 62
     7
 10
410.222425
 20
718.812342
 11
410.774929
 21
719.650157
  0
LINE
  8
CSLAYER1
  6
CONTINUOUS
 62
     7
 10
410.774929
 20
719.650157
 11
411.524786
 21
720.407403
  0
LINE
  8
CSLAYER1
  6
CONTINUOUS
 62
     7
 10
411.524786
 20
720.407403
 11
412.449213
 21
721.061071
  0
LINE
  8
CSLAYER1
  6
CONTINUOUS
 62
     7
 10
412.449213
 20
721.061071
 11
413.520120
 21
721.591300
  0
LINE
  8
CSLAYER1
  6
CONTINUOUS
 62
     7
 10
413.520120
 20
721.591300
 11
414.704969
 21
721.981979
  0
LINE
  8
CSLAYER1
  6
CONTINUOUS
 62
     7
 10
414.704969
 20
721.981979
 11
415.967758
 21
722.221239
  0
LINE
  8
CSLAYER1
  6
CONTINUOUS
 62
     7
 10
415.967758
 20
722.221239
 11
417.270120
 21
722.301808
  0
LINE
  8
CSLAYER1
  6
CONTINUOUS
 62
     7
 10
417.270120
 20
722.301808
 11
418.572481
 21
722.221239
  0
LINE
  8
CSLAYER1
  6
CONTINUOUS
 62
     7
 10
418.572481
 20
722.221239
 11
419.835271
 21
721.981979
  0
LINE
  8
CSLAYER1
  6
CONTINUOUS
 62
     7
 10
419.835271
 20
721.981979
 11
421.020120
 21
721.591300
  0
LINE
  8
CSLAYER1
  6
CONTINUOUS
 62
     7
 10
421.020120
 20
721.591300
 11
422.091027
 21
721.061071
  0
LINE
  8
CSLAYER1
  6
CONTINUOUS
 62
     7
 10
422.091027
 20
721.061071
 11
423.015453
 21
720.407403
  0
LINE
  8
CSLAYER1
  6
CONTINUOUS
 62
     7
 10
423.015453
 20
720.407403
 11
423.765310
 21
719.650157
  0
LINE
  8
CSLAYER1
  6
CONTINUOUS
 62
     7
 10
423.765310
 20
719.650157
 11
424.317814
 21
718.812342
  0
LINE
  8
CSLAYER1
  6
CONTINUOUS
 62
     7
 10
424.317814
 20
718.812342
 11
424.656178
 21
717.919415
  0
LINE
  8
CSLAYER1
  6
CONTINUOUS
 62
     7
 10
424.656178
 20
717.919415
 11
424.770120
 21
716.998507
  0
LINE
  8
CSLAYER1
  6
CONTINUOUS
 62
     7
 10
413.270120
 20
710.919479
 11
413.406416
 21
711.651530
  0
LINE
  8
CSLAYER1
  6
CONTINUOUS
 62
     7
 10
413.406416
 20
711.651530
 11
413.806018
 21
712.333693
  0
LINE
  8
CSLAYER1
  6
CONTINUOUS
 62
     7
 10
413.806018
 20
712.333693
 11
414.441693
 21
712.919479
  0
LINE
  8
CSLAYER1
  6
CONTINUOUS
 62
     7
 10
414.441693
 20
712.919479
 11
415.270120
 21
713.368969
  0
LINE
  8
CSLAYER1
  6
CONTINUOUS
 62
     7
 10
415.270120
 20
713.368969
 11
416.234843
 21
713.651530
  0
LINE
  8
CSLAYER1
  6
CONTINUOUS
 62
     7
 10
416.234843
 20
713.651530
 11
417.270120
 21
713.747907
  0
LINE
  8
CSLAYER1
  6
CONTINUOUS
 62
     7
 10
417.270120
 20
713.747907
 11
418.305396
 21
713.651530
  0
LINE
  8
CSLAYER1
  6
CONTINUOUS
 62
     7
 10
418.305396
 20
713.651530
 11
419.270120
 21
713.368969
  0
LINE
  8
CSLAYER1
  6
CONTINUOUS
 62
     7
 10
419.270120
 20
713.368969
 11
420.098547
 21
712.919479
  0
LINE
  8
CSLAYER1
  6
CONTINUOUS
 62
     7
 10
420.098547
 20
712.919479
 11
420.734221
 21
712.333693
  0
LINE
  8
CSLAYER1
  6
CONTINUOUS
 62
     7
 10
420.734221
 20
712.333693
 11
421.133823
 21
711.651530
  0
LINE
  8
CSLAYER1
  6
CONTINUOUS
 62
     7
 10
421.133823
 20
711.651530
 11
421.270120
 21
710.919479
  0
LINE
  8
CSLAYER1
  6
CONTINUOUS
 62
     7
 10
413.496881
 20
721.580832
 11
413.496881
 21
715.503719
  0
LINE
  8
CSLAYER1
  6
CONTINUOUS
 62
     7
 10
421.043358
 20
721.580832
 11
421.043358
 21
715.503719
  0
LINE
  8
CSLAYER1
  6
CONTINUOUS
 62
     7
 10
424.770120
 20
716.998507
 11
424.770120
 21
710.919479
  0
LINE
  8
CSLAYER1
  6
CONTINUOUS
 62
     7
 10
421.270120
 20
710.919479
 11
421.270120
 21
708.416351
  0
LINE
  8
CSLAYER1
  6
CONTINUOUS
 62
     7
 10
483.620120
 20
1002.413620
 11
483.620120
 21
928.965710
  0
LINE
  8
CSLAYER1
  6
CONTINUOUS
 62
     7
 10
500.420120
 20
906.579542
 11
500.420120
 21
760.740714
  0
LINE
  8
CSLAYER1
  6
CONTINUOUS
 62
     7
 10
483.620120
 20
1001.097853
 11
483.538876
 21
1002.413620
  0
LINE
  8
CSLAYER1
  6
CONTINUOUS
 62
     7
 10
483.538876
 20
1002.413620
 11
483.295765
 21
1003.719373
  0
LINE
  8
CSLAYER1
  6
CONTINUOUS
 62
     7
 10
483.295765
 20
1003.719373
 11
482.892636
 21
1005.005174
  0
LINE
  8
CSLAYER1
  6
CONTINUOUS
 62
     7
 10
482.892636
 20
1005.005174
 11
482.332557
 21
1006.261239
  0
LINE
  8
CSLAYER1
  6
CONTINUOUS
 62
     7
 10
482.332557
 20
1006.261239
 11
481.619791
 21
1007.478007
  0
LINE
  8
CSLAYER1
  6
CONTINUOUS
 62
     7
 10
481.619791
 20
1007.478007
 11
480.759762
 21
1008.646218
  0
LINE
  8
CSLAYER1
  6
CONTINUOUS
 62
     7
 10
480.759762
 20
1008.646218
 11
479.759016
 21
1009.756982
  0
LINE
  8
CSLAYER1
  6
CONTINUOUS
 62
     7
 10
479.759016
 20
1009.756982
 11
478.625168
 21
1010.801844
  0
LINE
  8
CSLAYER1
  6
CONTINUOUS
 62
     7
 10
478.625168
 20
1010.801844
 11
477.366849
 21
1011.772853
  0
LINE
  8
CSLAYER1
  6
CONTINUOUS
 62
     7
 10
477.366849
 20
1011.772853
 11
475.993635
 21
1012.662619
  0
LINE
  8
CSLAYER1
  6
CONTINUOUS
 62
     7
 10
475.993635
 20
1012.662619
 11
474.515977
 21
1013.464370
  0
LINE
  8
CSLAYER1
  6
CONTINUOUS
 62
     7
 10
474.515977
 20
1013.464370
 11
472.945120
 21
1014.172005
  0
LINE
  8
CSLAYER1
  6
CONTINUOUS
 62
     7
 10
472.945120
 20
1014.172005
 11
471.293020
 21
1014.780137
  0
LINE
  8
CSLAYER1
  6
CONTINUOUS
 62
     7
 10
471.293020
 20
1014.780137
 11
469.572250
 21
1015.284139
  0
LINE
  8
CSLAYER1
  6
CONTINUOUS
 62
     7
 10
469.572250
 20
1015.284139
 11
467.795906
 21
1015.680174
  0
LINE
  8
CSLAYER1
  6
CONTINUOUS
 62
     7
 10
467.795906
 20
1015.680174
 11
465.977508
 21
1015.965230
  0
LINE
  8
CSLAYER1
  6
CONTINUOUS
 62
     7
 10
465.977508
 20
1015.965230
 11
464.130895
 21
1016.137135
  0
LINE
  8
CSLAYER1
  6
CONTINUOUS
 62
     7
 10
464.130895
 20
1016.137135
 11
462.270120
 21
1016.194583
  0
LINE
  8
CSLAYER1
  6
CONTINUOUS
 62
     7
 10
462.270120
 20
1016.194583
 11
460.409345
 21
1016.137135
  0
LINE
  8
CSLAYER1
  6
CONTINUOUS
 62
     7
 10
460.409345
 20
1016.137135
 11
458.562731
 21
1015.965230
  0
LINE
  8
CSLAYER1
  6
CONTINUOUS
 62
     7
 10
458.562731
 20
1015.965230
 11
456.744333
 21
1015.680174
  0
LINE
  8
CSLAYER1
  6
CONTINUOUS
 62
     7
 10
456.744333
 20
1015.680174
 11
454.967990
 21
1015.284139
  0
LINE
  8
CSLAYER1
  6
CONTINUOUS
 62
     7
 10
454.967990
 20
1015.284139
 11
453.247220
 21
1014.780137
  0
LINE
  8
CSLAYER1
  6
CONTINUOUS
 62
     7
 10
453.247220
 20
1014.780137
 11
451.595120
 21
1014.172005
  0
LINE
  8
CSLAYER1
  6
CONTINUOUS
 62
     7
 10
451.595120
 20
1014.172005
 11
450.024263
 21
1013.464370
  0
LINE
  8
CSLAYER1
  6
CONTINUOUS
 62
     7
 10
450.024263
 20
1013.464370
 11
448.546604
 21
1012.662619
  0
LINE
  8
CSLAYER1
  6
CONTINUOUS
 62
     7
 10
448.546604
 20
1012.662619
 11
447.173390
 21
1011.772853
  0
LINE
  8
CSLAYER1
  6
CONTINUOUS
 62
     7
 10
447.173390
 20
1011.772853
 11
445.915071
 21
1010.801844
  0
LINE
  8
CSLAYER1
  6
CONTINUOUS
 62
     7
 10
445.915071
 20
1010.801844
 11
444.781223
 21
1009.756982
  0
LINE
  8
CSLAYER1
  6
CONTINUOUS
 62
     7
 10
444.781223
 20
1009.756982
 11
443.780477
 21
1008.646218
  0
LINE
  8
CSLAYER1
  6
CONTINUOUS
 62
     7
 10
443.780477
 20
1008.646218
 11
442.920448
 21
1007.478007
  0
LINE
  8
CSLAYER1
  6
CONTINUOUS
 62
     7
 10
442.920448
 20
1007.478007
 11
442.207682
 21
1006.261239
  0
LINE
  8
CSLAYER1
  6
CONTINUOUS
 62
     7
 10
442.207682
 20
1006.261239
 11
441.647603
 21
1005.005174
  0
LINE
  8
CSLAYER1
  6
CONTINUOUS
 62
     7
 10
441.647603
 20
1005.005174
 11
441.244474
 21
1003.719373
  0
LINE
  8
CSLAYER1
  6
CONTINUOUS
 62
     7
 10
441.244474
 20
1003.719373
 11
441.001363
 21
1002.413620
  0
LINE
  8
CSLAYER1
  6
CONTINUOUS
 62
     7
 10
441.001363
 20
1002.413620
 11
440.920120
 21
1001.097853
  0
LINE
  8
CSLAYER1
  6
CONTINUOUS
 62
     7
 10
500.420120
 20
906.579542
 11
500.274947
 21
908.930666
  0
LINE
  8
CSLAYER1
  6
CONTINUOUS
 62
     7
 10
500.274947
 20
908.930666
 11
499.840535
 21
911.263897
  0
LINE
  8
CSLAYER1
  6
CONTINUOUS
 62
     7
 10
499.840535
 20
911.263897
 11
499.120190
 21
913.561476
  0
LINE
  8
CSLAYER1
  6
CONTINUOUS
 62
     7
 10
499.120190
 20
913.561476
 11
498.119393
 21
915.805920
  0
LINE
  8
CSLAYER1
  6
CONTINUOUS
 62
     7
 10
498.119393
 20
915.805920
 11
496.845762
 21
917.980144
  0
LINE
  8
CSLAYER1
  6
CONTINUOUS
 62
     7
 10
496.845762
 20
917.980144
 11
495.308989
 21
920.067604
  0
LINE
  8
CSLAYER1
  6
CONTINUOUS
 62
     7
 10
495.308989
 20
920.067604
 11
493.520770
 21
922.052411
  0
LINE
  8
CSLAYER1
  6
CONTINUOUS
 62
     7
 10
493.520770
 20
922.052411
 11
491.494715
 21
923.919460
  0
LINE
  8
CSLAYER1
  6
CONTINUOUS
 62
     7
 10
491.494715
 20
923.919460
 11
489.246243
 21
925.654542
  0
LINE
  8
CSLAYER1
  6
CONTINUOUS
 62
     7
 10
489.246243
 20
925.654542
 11
486.792467
 21
927.244451
  0
LINE
  8
CSLAYER1
  6
CONTINUOUS
 62
     7
 10
486.792467
 20
927.244451
 11
484.152061
 21
928.677089
  0
LINE
  8
CSLAYER1
  6
CONTINUOUS
 62
     7
 10
484.152061
 20
928.677089
 11
481.345120
 21
929.941550
  0
LINE
  8
CSLAYER1
  6
CONTINUOUS
 62
     7
 10
481.345120
 20
929.941550
 11
478.393006
 21
931.028213
  0
LINE
  8
CSLAYER1
  6
CONTINUOUS
 62
     7
 10
478.393006
 20
931.028213
 11
475.318188
 21
931.928806
  0
LINE
  8
CSLAYER1
  6
CONTINUOUS
 62
     7
 10
475.318188
 20
931.928806
 11
472.144066
 21
932.636476
  0
LINE
  8
CSLAYER1
  6
CONTINUOUS
 62
     7
 10
472.144066
 20
932.636476
 11
468.894798
 21
933.145838
  0
LINE
  8
CSLAYER1
  6
CONTINUOUS
 62
     7
 10
468.894798
 20
933.145838
 11
465.595111
 21
933.453013
  0
LINE
  8
CSLAYER1
  6
CONTINUOUS
 62
     7
 10
465.595111
 20
933.453013
 11
462.270120
 21
933.555666
  0
LINE
  8
CSLAYER1
  6
CONTINUOUS
 62
     7
 10
462.270120
 20
933.555666
 11
458.945128
 21
933.453013
  0
LINE
  8
CSLAYER1
  6
CONTINUOUS
 62
     7
 10
458.945128
 20
933.453013
 11
455.645442
 21
933.145838
  0
LINE
  8
CSLAYER1
  6
CONTINUOUS
 62
     7
 10
455.645442
 20
933.145838
 11
452.396173
 21
932.636476
  0
LINE
  8
CSLAYER1
  6
CONTINUOUS
 62
     7
 10
452.396173
 20
932.636476
 11
449.222051
 21
931.928806
  0
LINE
  8
CSLAYER1
  6
CONTINUOUS
 62
     7
 10
449.222051
 20
931.928806
 11
446.147233
 21
931.028213
  0
LINE
  8
CSLAYER1
  6
CONTINUOUS
 62
     7
 10
446.147233
 20
931.028213
 11
443.195120
 21
929.941550
  0
LINE
  8
CSLAYER1
  6
CONTINUOUS
 62
     7
 10
443.195120
 20
929.941550
 11
440.388179
 21
928.677089
  0
LINE
  8
CSLAYER1
  6
CONTINUOUS
 62
     7
 10
440.388179
 20
928.677089
 11
437.747772
 21
927.244451
  0
LINE
  8
CSLAYER1
  6
CONTINUOUS
 62
     7
 10
437.747772
 20
927.244451
 11
435.293996
 21
925.654542
  0
LINE
  8
CSLAYER1
  6
CONTINUOUS
 62
     7
 10
435.293996
 20
925.654542
 11
433.045524
 21
923.919460
  0
LINE
  8
CSLAYER1
  6
CONTINUOUS
 62
     7
 10
433.045524
 20
923.919460
 11
431.019469
 21
922.052411
  0
LINE
  8
CSLAYER1
  6
CONTINUOUS
 62
     7
 10
431.019469
 20
922.052411
 11
429.231250
 21
920.067604
  0
LINE
  8
CSLAYER1
  6
CONTINUOUS
 62
     7
 10
429.231250
 20
920.067604
 11
427.694478
 21
917.980144
  0
LINE
  8
CSLAYER1
  6
CONTINUOUS
 62
     7
 10
427.694478
 20
917.980144
 11
426.420846
 21
915.805920
  0
LINE
  8
CSLAYER1
  6
CONTINUOUS
 62
     7
 10
426.420846
 20
915.805920
 11
425.420049
 21
913.561476
  0
LINE
  8
CSLAYER1
  6
CONTINUOUS
 62
     7
 10
425.420049
 20
913.561476
 11
424.699704
 21
911.263897
  0
LINE
  8
CSLAYER1
  6
CONTINUOUS
 62
     7
 10
424.699704
 20
911.263897
 11
424.265292
 21
908.930666
  0
LINE
  8
CSLAYER1
  6
CONTINUOUS
 62
     7
 10
424.265292
 20
908.930666
 11
424.120120
 21
906.579542
  0
LINE
  8
CSLAYER1
  6
CONTINUOUS
 62
     7
 10
440.920120
 20
1002.413620
 11
440.920120
 21
928.965710
  0
LINE
  8
CSLAYER1
  6
CONTINUOUS
 62
     7
 10
424.120120
 20
906.579542
 11
424.120120
 21
760.740714
  0
LINE
  8
CSLAYER1
  6
CONTINUOUS
 62
     7
 10
522.270120
 20
650.487385
 11
523.270120
 21
650.487385
  0
LINE
  8
CSLAYER1
  6
CONTINUOUS
 62
     7
 10
588.270120
 20
732.783089
 11
588.270120
 21
678.445010
  0
LINE
  8
CSLAYER1
  6
CONTINUOUS
 62
     7
 10
523.270120
 20
760.740714
 11
588.270120
 21
732.783089
  0
LINE
  8
CSLAYER1
  6
CONTINUOUS
 62
     7
 10
523.270120
 20
737.854964
 11
588.270120
 21
709.897339
  0
LINE
  8
CSLAYER1
  6
CONTINUOUS
 62
     7
 10
588.270120
 20
678.445010
 11
523.270120
 21
650.487385
  0
LINE
  8
CSLAYER1
  6
CONTINUOUS
 62
     7
 10
523.270120
 20
760.740714
 11
523.270120
 21
737.854964
  0
LINE
  8
CSLAYER1
  6
CONTINUOUS
 62
     7
 10
401.270120
 20
760.740714
 11
336.270120
 21
732.783089
  0
LINE
  8
CSLAYER1
  6
CONTINUOUS
 62
     7
 10
401.270120
 20
737.854964
 11
336.270120
 21
709.897339
  0
LINE
  8
CSLAYER1
  6
CONTINUOUS
 62
     7
 10
336.270120
 20
732.783089
 11
336.270120
 21
678.445010
  0
LINE
  8
CSLAYER1
  6
CONTINUOUS
 62
     7
 10
336.270120
 20
678.445010
 11
402.197753
 21
650.088393
  0
LINE
  8
CSLAYER1
  6
CONTINUOUS
 62
     7
 10
401.270120
 20
760.740714
 11
401.270120
 21
737.854964
  0
POINT
  8
CSLAYER1
 62
     7
 10
462.270120
 20
705.614050
  0
LINE
  8
CSLAYER1
  6
CONTINUOUS
 62
     7
 10
568.770120
 20
689.574980
 11
568.671370
 21
690.373101
  0
LINE
  8
CSLAYER1
  6
CONTINUOUS
 62
     7
 10
568.671370
 20
690.373101
 11
568.378122
 21
691.146971
  0
LINE
  8
CSLAYER1
  6
CONTINUOUS
 62
     7
 10
568.378122
 20
691.146971
 11
567.899285
 21
691.873078
  0
LINE
  8
CSLAYER1
  6
CONTINUOUS
 62
     7
 10
567.899285
 20
691.873078
 11
567.249409
 21
692.529357
  0
LINE
  8
CSLAYER1
  6
CONTINUOUS
 62
     7
 10
567.249409
 20
692.529357
 11
566.448239
 21
693.095869
  0
LINE
  8
CSLAYER1
  6
CONTINUOUS
 62
     7
 10
566.448239
 20
693.095869
 11
565.520120
 21
693.555401
  0
LINE
  8
CSLAYER1
  6
CONTINUOUS
 62
     7
 10
565.520120
 20
693.555401
 11
564.493251
 21
693.893990
  0
LINE
  8
CSLAYER1
  6
CONTINUOUS
 62
     7
 10
564.493251
 20
693.893990
 11
563.398833
 21
694.101348
  0
LINE
  8
CSLAYER1
  6
CONTINUOUS
 62
     7
 10
563.398833
 20
694.101348
 11
562.270120
 21
694.171175
  0
LINE
  8
CSLAYER1
  6
CONTINUOUS
 62
     7
 10
562.270120
 20
694.171175
 11
561.141406
 21
694.101348
  0
LINE
  8
CSLAYER1
  6
CONTINUOUS
 62
     7
 10
561.141406
 20
694.101348
 11
560.046989
 21
693.893990
  0
LINE
  8
CSLAYER1
  6
CONTINUOUS
 62
     7
 10
560.046989
 20
693.893990
 11
559.020120
 21
693.555401
  0
LINE
  8
CSLAYER1
  6
CONTINUOUS
 62
     7
 10
559.020120
 20
693.555401
 11
558.092000
 21
693.095869
  0
LINE
  8
CSLAYER1
  6
CONTINUOUS
 62
     7
 10
558.092000
 20
693.095869
 11
557.290831
 21
692.529357
  0
LINE
  8
CSLAYER1
  6
CONTINUOUS
 62
     7
 10
557.290831
 20
692.529357
 11
556.640955
 21
691.873078
  0
LINE
  8
CSLAYER1
  6
CONTINUOUS
 62
     7
 10
556.640955
 20
691.873078
 11
556.162118
 21
691.146971
  0
LINE
  8
CSLAYER1
  6
CONTINUOUS
 62
     7
 10
556.162118
 20
691.146971
 11
555.868869
 21
690.373101
  0
LINE
  8
CSLAYER1
  6
CONTINUOUS
 62
     7
 10
555.868869
 20
690.373101
 11
555.770120
 21
689.574980
  0
LINE
  8
CSLAYER1
  6
CONTINUOUS
 62
     7
 10
555.770120
 20
689.574980
 11
555.868869
 21
688.776860
  0
LINE
  8
CSLAYER1
  6
CONTINUOUS
 62
     7
 10
555.868869
 20
688.776860
 11
556.162118
 21
688.002990
  0
LINE
  8
CSLAYER1
  6
CONTINUOUS
 62
     7
 10
556.162118
 20
688.002990
 11
556.640955
 21
687.276883
  0
LINE
  8
CSLAYER1
  6
CONTINUOUS
 62
     7
 10
556.640955
 20
687.276883
 11
557.290831
 21
686.620604
  0
LINE
  8
CSLAYER1
  6
CONTINUOUS
 62
     7
 10
557.290831
 20
686.620604
 11
558.092000
 21
686.054092
  0
LINE
  8
CSLAYER1
  6
CONTINUOUS
 62
     7
 10
558.092000
 20
686.054092
 11
559.020120
 21
685.594560
  0
LINE
  8
CSLAYER1
  6
CONTINUOUS
 62
     7
 10
559.020120
 20
685.594560
 11
560.046989
 21
685.255971
  0
LINE
  8
CSLAYER1
  6
CONTINUOUS
 62
     7
 10
560.046989
 20
685.255971
 11
561.141406
 21
685.048613
  0
LINE
  8
CSLAYER1
  6
CONTINUOUS
 62
     7
 10
561.141406
 20
685.048613
 11
562.270120
 21
684.978786
  0
LINE
  8
CSLAYER1
  6
CONTINUOUS
 62
     7
 10
562.270120
 20
684.978786
 11
563.398833
 21
685.048613
  0
LINE
  8
CSLAYER1
  6
CONTINUOUS
 62
     7
 10
563.398833
 20
685.048613
 11
564.493251
 21
685.255971
  0
LINE
  8
CSLAYER1
  6
CONTINUOUS
 62
     7
 10
564.493251
 20
685.255971
 11
565.520120
 21
685.594560
  0
LINE
  8
CSLAYER1
  6
CONTINUOUS
 62
     7
 10
565.520120
 20
685.594560
 11
566.448239
 21
686.054092
  0
LINE
  8
CSLAYER1
  6
CONTINUOUS
 62
     7
 10
566.448239
 20
686.054092
 11
567.249409
 21
686.620604
  0
LINE
  8
CSLAYER1
  6
CONTINUOUS
 62
     7
 10
567.249409
 20
686.620604
 11
567.899285
 21
687.276883
  0
LINE
  8
CSLAYER1
  6
CONTINUOUS
 62
     7
 10
567.899285
 20
687.276883
 11
568.378122
 21
688.002990
  0
LINE
  8
CSLAYER1
  6
CONTINUOUS
 62
     7
 10
568.378122
 20
688.002990
 11
568.671370
 21
688.776860
  0
LINE
  8
CSLAYER1
  6
CONTINUOUS
 62
     7
 10
568.671370
 20
688.776860
 11
568.770120
 21
689.574980
  0
LINE
  8
CSLAYER1
  6
CONTINUOUS
 62
     7
 10
568.770120
 20
694.171175
 11
568.770120
 21
689.574980
  0
LINE
  8
CSLAYER1
  6
CONTINUOUS
 62
     7
 10
568.770120
 20
694.171175
 11
568.671370
 21
694.969295
  0
LINE
  8
CSLAYER1
  6
CONTINUOUS
 62
     7
 10
568.671370
 20
694.969295
 11
568.378122
 21
695.743166
  0
LINE
  8
CSLAYER1
  6
CONTINUOUS
 62
     7
 10
568.378122
 20
695.743166
 11
567.899285
 21
696.469272
  0
LINE
  8
CSLAYER1
  6
CONTINUOUS
 62
     7
 10
567.899285
 20
696.469272
 11
567.249409
 21
697.125551
  0
LINE
  8
CSLAYER1
  6
CONTINUOUS
 62
     7
 10
567.249409
 20
697.125551
 11
566.448239
 21
697.692063
  0
LINE
  8
CSLAYER1
  6
CONTINUOUS
 62
     7
 10
566.448239
 20
697.692063
 11
565.520120
 21
698.151595
  0
LINE
  8
CSLAYER1
  6
CONTINUOUS
 62
     7
 10
565.520120
 20
698.151595
 11
564.493251
 21
698.490184
  0
LINE
  8
CSLAYER1
  6
CONTINUOUS
 62
     7
 10
564.493251
 20
698.490184
 11
563.398833
 21
698.697542
  0
LINE
  8
CSLAYER1
  6
CONTINUOUS
 62
     7
 10
563.398833
 20
698.697542
 11
562.270120
 21
698.767369
  0
LINE
  8
CSLAYER1
  6
CONTINUOUS
 62
     7
 10
562.270120
 20
698.767369
 11
561.141406
 21
698.697542
  0
LINE
  8
CSLAYER1
  6
CONTINUOUS
 62
     7
 10
561.141406
 20
698.697542
 11
560.046989
 21
698.490184
  0
LINE
  8
CSLAYER1
  6
CONTINUOUS
 62
     7
 10
560.046989
 20
698.490184
 11
559.020120
 21
698.151595
  0
LINE
  8
CSLAYER1
  6
CONTINUOUS
 62
     7
 10
559.020120
 20
698.151595
 11
558.092000
 21
697.692063
  0
LINE
  8
CSLAYER1
  6
CONTINUOUS
 62
     7
 10
558.092000
 20
697.692063
 11
557.290831
 21
697.125551
  0
LINE
  8
CSLAYER1
  6
CONTINUOUS
 62
     7
 10
557.290831
 20
697.125551
 11
556.640955
 21
696.469272
  0
LINE
  8
CSLAYER1
  6
CONTINUOUS
 62
     7
 10
556.640955
 20
696.469272
 11
556.162118
 21
695.743166
  0
LINE
  8
CSLAYER1
  6
CONTINUOUS
 62
     7
 10
556.162118
 20
695.743166
 11
555.868869
 21
694.969295
  0
LINE
  8
CSLAYER1
  6
CONTINUOUS
 62
     7
 10
555.868869
 20
694.969295
 11
555.770120
 21
694.171175
  0
LINE
  8
CSLAYER1
  6
CONTINUOUS
 62
     7
 10
555.770120
 20
694.171175
 11
555.770120
 21
689.574980
  0
LINE
  8
CSLAYER1
  6
CONTINUOUS
 62
     7
 10
355.770120
 20
689.574980
 11
355.868869
 21
690.373101
  0
LINE
  8
CSLAYER1
  6
CONTINUOUS
 62
     7
 10
355.868869
 20
690.373101
 11
356.162118
 21
691.146971
  0
LINE
  8
CSLAYER1
  6
CONTINUOUS
 62
     7
 10
356.162118
 20
691.146971
 11
356.640955
 21
691.873078
  0
LINE
  8
CSLAYER1
  6
CONTINUOUS
 62
     7
 10
356.640955
 20
691.873078
 11
357.290831
 21
692.529357
  0
LINE
  8
CSLAYER1
  6
CONTINUOUS
 62
     7
 10
357.290831
 20
692.529357
 11
358.092000
 21
693.095869
  0
LINE
  8
CSLAYER1
  6
CONTINUOUS
 62
     7
 10
358.092000
 20
693.095869
 11
359.020120
 21
693.555401
  0
LINE
  8
CSLAYER1
  6
CONTINUOUS
 62
     7
 10
359.020120
 20
693.555401
 11
360.046989
 21
693.893990
  0
LINE
  8
CSLAYER1
  6
CONTINUOUS
 62
     7
 10
360.046989
 20
693.893990
 11
361.141406
 21
694.101348
  0
LINE
  8
CSLAYER1
  6
CONTINUOUS
 62
     7
 10
361.141406
 20
694.101348
 11
362.270120
 21
694.171175
  0
LINE
  8
CSLAYER1
  6
CONTINUOUS
 62
     7
 10
362.270120
 20
694.171175
 11
363.398833
 21
694.101348
  0
LINE
  8
CSLAYER1
  6
CONTINUOUS
 62
     7
 10
363.398833
 20
694.101348
 11
364.493251
 21
693.893990
  0
LINE
  8
CSLAYER1
  6
CONTINUOUS
 62
     7
 10
364.493251
 20
693.893990
 11
365.520120
 21
693.555401
  0
LINE
  8
CSLAYER1
  6
CONTINUOUS
 62
     7
 10
365.520120
 20
693.555401
 11
366.448239
 21
693.095869
  0
LINE
  8
CSLAYER1
  6
CONTINUOUS
 62
     7
 10
366.448239
 20
693.095869
 11
367.249409
 21
692.529357
  0
LINE
  8
CSLAYER1
  6
CONTINUOUS
 62
     7
 10
367.249409
 20
692.529357
 11
367.899285
 21
691.873078
  0
LINE
  8
CSLAYER1
  6
CONTINUOUS
 62
     7
 10
367.899285
 20
691.873078
 11
368.378122
 21
691.146971
  0
LINE
  8
CSLAYER1
  6
CONTINUOUS
 62
     7
 10
368.378122
 20
691.146971
 11
368.671370
 21
690.373101
  0
LINE
  8
CSLAYER1
  6
CONTINUOUS
 62
     7
 10
368.671370
 20
690.373101
 11
368.770120
 21
689.574980
  0
LINE
  8
CSLAYER1
  6
CONTINUOUS
 62
     7
 10
368.770120
 20
689.574980
 11
368.671370
 21
688.776860
  0
LINE
  8
CSLAYER1
  6
CONTINUOUS
 62
     7
 10
368.671370
 20
688.776860
 11
368.378122
 21
688.002990
  0
LINE
  8
CSLAYER1
  6
CONTINUOUS
 62
     7
 10
368.378122
 20
688.002990
 11
367.899285
 21
687.276883
  0
LINE
  8
CSLAYER1
  6
CONTINUOUS
 62
     7
 10
367.899285
 20
687.276883
 11
367.249409
 21
686.620604
  0
LINE
  8
CSLAYER1
  6
CONTINUOUS
 62
     7
 10
367.249409
 20
686.620604
 11
366.448239
 21
686.054092
  0
LINE
  8
CSLAYER1
  6
CONTINUOUS
 62
     7
 10
366.448239
 20
686.054092
 11
365.520120
 21
685.594560
  0
LINE
  8
CSLAYER1
  6
CONTINUOUS
 62
     7
 10
365.520120
 20
685.594560
 11
364.493251
 21
685.255971
  0
LINE
  8
CSLAYER1
  6
CONTINUOUS
 62
     7
 10
364.493251
 20
685.255971
 11
363.398833
 21
685.048613
  0
LINE
  8
CSLAYER1
  6
CONTINUOUS
 62
     7
 10
363.398833
 20
685.048613
 11
362.270120
 21
684.978786
  0
LINE
  8
CSLAYER1
  6
CONTINUOUS
 62
     7
 10
362.270120
 20
684.978786
 11
361.141406
 21
685.048613
  0
LINE
  8
CSLAYER1
  6
CONTINUOUS
 62
     7
 10
361.141406
 20
685.048613
 11
360.046989
 21
685.255971
  0
LINE
  8
CSLAYER1
  6
CONTINUOUS
 62
     7
 10
360.046989
 20
685.255971
 11
359.020120
 21
685.594560
  0
LINE
  8
CSLAYER1
  6
CONTINUOUS
 62
     7
 10
359.020120
 20
685.594560
 11
358.092000
 21
686.054092
  0
LINE
  8
CSLAYER1
  6
CONTINUOUS
 62
     7
 10
358.092000
 20
686.054092
 11
357.290831
 21
686.620604
  0
LINE
  8
CSLAYER1
  6
CONTINUOUS
 62
     7
 10
357.290831
 20
686.620604
 11
356.640955
 21
687.276883
  0
LINE
  8
CSLAYER1
  6
CONTINUOUS
 62
     7
 10
356.640955
 20
687.276883
 11
356.162118
 21
688.002990
  0
LINE
  8
CSLAYER1
  6
CONTINUOUS
 62
     7
 10
356.162118
 20
688.002990
 11
355.868869
 21
688.776860
  0
LINE
  8
CSLAYER1
  6
CONTINUOUS
 62
     7
 10
355.868869
 20
688.776860
 11
355.770120
 21
689.574980
  0
LINE
  8
CSLAYER1
  6
CONTINUOUS
 62
     7
 10
355.770120
 20
694.171175
 11
355.770120
 21
689.574980
  0
LINE
  8
CSLAYER1
  6
CONTINUOUS
 62
     7
 10
355.770120
 20
694.171175
 11
355.868869
 21
694.969295
  0
LINE
  8
CSLAYER1
  6
CONTINUOUS
 62
     7
 10
355.868869
 20
694.969295
 11
356.162118
 21
695.743166
  0
LINE
  8
CSLAYER1
  6
CONTINUOUS
 62
     7
 10
356.162118
 20
695.743166
 11
356.640955
 21
696.469272
  0
LINE
  8
CSLAYER1
  6
CONTINUOUS
 62
     7
 10
356.640955
 20
696.469272
 11
357.290831
 21
697.125551
  0
LINE
  8
CSLAYER1
  6
CONTINUOUS
 62
     7
 10
357.290831
 20
697.125551
 11
358.092000
 21
697.692063
  0
LINE
  8
CSLAYER1
  6
CONTINUOUS
 62
     7
 10
358.092000
 20
697.692063
 11
359.020120
 21
698.151595
  0
LINE
  8
CSLAYER1
  6
CONTINUOUS
 62
     7
 10
359.020120
 20
698.151595
 11
360.046989
 21
698.490184
  0
LINE
  8
CSLAYER1
  6
CONTINUOUS
 62
     7
 10
360.046989
 20
698.490184
 11
361.141406
 21
698.697542
  0
LINE
  8
CSLAYER1
  6
CONTINUOUS
 62
     7
 10
361.141406
 20
698.697542
 11
362.270120
 21
698.767369
  0
LINE
  8
CSLAYER1
  6
CONTINUOUS
 62
     7
 10
362.270120
 20
698.767369
 11
363.398833
 21
698.697542
  0
LINE
  8
CSLAYER1
  6
CONTINUOUS
 62
     7
 10
363.398833
 20
698.697542
 11
364.493251
 21
698.490184
  0
LINE
  8
CSLAYER1
  6
CONTINUOUS
 62
     7
 10
364.493251
 20
698.490184
 11
365.520120
 21
698.151595
  0
LINE
  8
CSLAYER1
  6
CONTINUOUS
 62
     7
 10
365.520120
 20
698.151595
 11
366.448239
 21
697.692063
  0
LINE
  8
CSLAYER1
  6
CONTINUOUS
 62
     7
 10
366.448239
 20
697.692063
 11
367.249409
 21
697.125551
  0
LINE
  8
CSLAYER1
  6
CONTINUOUS
 62
     7
 10
367.249409
 20
697.125551
 11
367.899285
 21
696.469272
  0
LINE
  8
CSLAYER1
  6
CONTINUOUS
 62
     7
 10
367.899285
 20
696.469272
 11
368.378122
 21
695.743166
  0
LINE
  8
CSLAYER1
  6
CONTINUOUS
 62
     7
 10
368.378122
 20
695.743166
 11
368.671370
 21
694.969295
  0
LINE
  8
CSLAYER1
  6
CONTINUOUS
 62
     7
 10
368.671370
 20
694.969295
 11
368.770120
 21
694.171175
  0
LINE
  8
CSLAYER1
  6
CONTINUOUS
 62
     7
 10
368.770120
 20
694.171175
 11
368.770120
 21
689.574980
  0
LINE
  8
CSLAYER1
  6
CONTINUOUS
 62
     7
 10
354.020120
 20
927.999176
 11
370.520120
 21
927.999176
  0
LINE
  8
CSLAYER1
  6
CONTINUOUS
 62
     7
 10
354.020120
 20
945.999176
 11
370.520120
 21
945.999176
  0
LINE
  8
CSLAYER1
  6
CONTINUOUS
 62
     7
 10
356.270120
 20
945.999176
 11
356.270120
 21
991.566576
  0
LINE
  8
CSLAYER1
  6
CONTINUOUS
 62
     7
 10
354.020120
 20
927.999176
 11
353.520120
 21
928.499176
  0
LINE
  8
CSLAYER1
  6
CONTINUOUS
 62
     7
 10
353.520120
 20
945.499176
 11
354.020120
 21
945.999176
  0
LINE
  8
CSLAYER1
  6
CONTINUOUS
 62
     7
 10
353.520120
 20
928.499176
 11
371.020120
 21
928.499176
  0
LINE
  8
CSLAYER1
  6
CONTINUOUS
 62
     7
 10
353.520120
 20
945.499176
 11
371.020120
 21
945.499176
  0
LINE
  8
CSLAYER1
  6
CONTINUOUS
 62
     7
 10
368.270120
 20
945.999176
 11
368.270120
 21
991.566576
  0
LINE
  8
CSLAYER1
  6
CONTINUOUS
 62
     7
 10
367.470120
 20
972.999176
 11
367.470120
 21
993.682670
  0
LINE
  8
CSLAYER1
  6
CONTINUOUS
 62
     7
 10
370.520120
 20
927.999176
 11
371.020120
 21
928.499176
  0
LINE
  8
CSLAYER1
  6
CONTINUOUS
 62
     7
 10
371.020120
 20
945.499176
 11
370.520120
 21
945.999176
  0
POINT
  8
CSLAYER1
 62
     7
 10
362.270120
 20
936.999176
  0
LINE
  8
CSLAYER1
  6
CONTINUOUS
 62
     7
 10
373.420120
 20
944.799176
 11
373.420120
 21
910.149176
  0
LINE
  8
CSLAYER1
  6
CONTINUOUS
 62
     7
 10
377.020120
 20
939.979176
 11
377.020120
 21
934.019176
  0
LINE
  8
CSLAYER1
  6
CONTINUOUS
 62
     7
 10
349.420120
 20
939.979176
 11
349.420120
 21
934.019176
  0
LINE
  8
CSLAYER1
  6
CONTINUOUS
 62
     7
 10
375.120120
 20
920.929176
 11
375.120120
 21
914.969176
  0
LINE
  8
CSLAYER1
  6
CONTINUOUS
 62
     7
 10
371.020120
 20
944.799176
 11
373.420120
 21
944.799176
  0
LINE
  8
CSLAYER1
  6
CONTINUOUS
 62
     7
 10
371.020120
 20
910.149176
 11
373.420120
 21
910.149176
  0
LINE
  8
CSLAYER1
  6
CONTINUOUS
 62
     7
 10
373.420120
 20
920.929176
 11
375.120120
 21
920.929176
  0
LINE
  8
CSLAYER1
  6
CONTINUOUS
 62
     7
 10
373.420120
 20
914.969176
 11
375.120120
 21
914.969176
  0
LINE
  8
CSLAYER1
  6
CONTINUOUS
 62
     7
 10
373.420120
 20
939.979176
 11
377.020120
 21
939.979176
  0
LINE
  8
CSLAYER1
  6
CONTINUOUS
 62
     7
 10
373.420120
 20
934.019176
 11
377.020120
 21
934.019176
  0
LINE
  8
CSLAYER1
  6
CONTINUOUS
 62
     7
 10
351.120120
 20
944.799176
 11
351.120120
 21
910.149176
  0
LINE
  8
CSLAYER1
  6
CONTINUOUS
 62
     7
 10
349.420120
 20
920.929176
 11
349.420120
 21
914.969176
  0
LINE
  8
CSLAYER1
  6
CONTINUOUS
 62
     7
 10
353.520120
 20
944.799176
 11
351.120120
 21
944.799176
  0
LINE
  8
CSLAYER1
  6
CONTINUOUS
 62
     7
 10
353.520120
 20
910.149176
 11
351.120120
 21
910.149176
  0
LINE
  8
CSLAYER1
  6
CONTINUOUS
 62
     7
 10
351.120120
 20
920.929176
 11
349.420120
 21
920.929176
  0
LINE
  8
CSLAYER1
  6
CONTINUOUS
 62
     7
 10
351.120120
 20
914.969176
 11
349.420120
 21
914.969176
  0
LINE
  8
CSLAYER1
  6
CONTINUOUS
 62
     7
 10
351.120120
 20
939.979176
 11
349.420120
 21
939.979176
  0
LINE
  8
CSLAYER1
  6
CONTINUOUS
 62
     7
 10
351.120120
 20
934.019176
 11
349.420120
 21
934.019176
  0
LINE
  8
CSLAYER1
  6
CONTINUOUS
 62
     7
 10
368.620120
 20
889.849176
 11
371.020120
 21
889.849176
  0
LINE
  8
CSLAYER1
  6
CONTINUOUS
 62
     7
 10
368.620120
 20
904.854176
 11
355.920120
 21
904.854176
  0
LINE
  8
CSLAYER1
  6
CONTINUOUS
 62
     7
 10
368.620120
 20
892.944176
 11
355.920120
 21
892.944176
  0
LINE
  8
CSLAYER1
  6
CONTINUOUS
 62
     7
 10
355.920120
 20
889.849176
 11
353.520120
 21
889.849176
  0
LINE
  8
CSLAYER1
  6
CONTINUOUS
 62
     7
 10
371.020120
 20
945.499176
 11
371.020120
 21
766.199584
  0
LINE
  8
CSLAYER1
  6
CONTINUOUS
 62
     7
 10
353.520120
 20
945.499176
 11
353.520120
 21
766.199584
  0
LINE
  8
CSLAYER1
  6
CONTINUOUS
 62
     7
 10
355.920120
 20
926.999176
 11
355.920120
 21
889.849176
  0
LINE
  8
CSLAYER1
  6
CONTINUOUS
 62
     7
 10
355.920120
 20
926.999176
 11
353.520120
 21
926.999176
  0
LINE
  8
CSLAYER1
  6
CONTINUOUS
 62
     7
 10
355.920120
 20
923.904176
 11
368.620120
 21
923.904176
  0
LINE
  8
CSLAYER1
  6
CONTINUOUS
 62
     7
 10
355.920120
 20
911.994176
 11
368.620120
 21
911.994176
  0
LINE
  8
CSLAYER1
  6
CONTINUOUS
 62
     7
 10
368.620120
 20
926.999176
 11
371.020120
 21
926.999176
  0
LINE
  8
CSLAYER1
  6
CONTINUOUS
 62
     7
 10
368.620120
 20
926.999176
 11
368.620120
 21
889.849176
  0
LINE
  8
CSLAYER1
  6
CONTINUOUS
 62
     7
 10
357.070120
 20
972.999176
 11
357.070120
 21
993.682670
  0
LINE
  8
CSLAYER1
  6
CENTER
 62
     5
 10
347.467702
 20
936.999176
 11
378.403980
 21
936.999176
  0
LINE
  8
CSLAYER1
  6
CENTER
 62
     5
 10
347.908076
 20
917.949176
 11
376.642484
 21
917.949176
  0
LINE
  8
CSLAYER1
  6
CONTINUOUS
 62
     7
 10
343.270120
 20
1018.413620
 11
375.270120
 21
1018.413620
  0
LINE
  8
CSLAYER1
  6
CONTINUOUS
 62
     7
 10
375.270120
 20
979.013620
 11
375.270120
 21
1025.813620
  0
LINE
  8
CSLAYER1
  6
CONTINUOUS
 62
     7
 10
375.270120
 20
1025.813620
 11
377.270120
 21
1027.813620
  0
LINE
  8
CSLAYER1
  6
CONTINUOUS
 62
     7
 10
377.270120
 20
977.013620
 11
377.270120
 21
1027.813620
  0
LINE
  8
CSLAYER1
  6
CONTINUOUS
 62
     7
 10
325.270120
 20
1023.413620
 11
326.270120
 21
1023.413620
  0
LINE
  8
CSLAYER1
  6
CONTINUOUS
 62
     7
 10
337.270120
 20
1022.413620
 11
337.270120
 21
982.413620
  0
LINE
  8
CSLAYER1
  6
CONTINUOUS
 62
     7
 10
324.270120
 20
1022.413620
 11
324.270120
 21
982.413620
  0
LINE
  8
CSLAYER1
  6
CONTINUOUS
 62
     7
 10
320.770120
 20
1008.913620
 11
320.770120
 21
995.913620
  0
LINE
  8
CSLAYER1
  6
CONTINUOUS
 62
     7
 10
323.120120
 20
1011.413620
 11
323.120120
 21
993.413620
  0
LINE
  8
CSLAYER1
  6
CONTINUOUS
 62
     7
 10
323.120120
 20
1009.913620
 11
321.770120
 21
1009.913620
  0
LINE
  8
CSLAYER1
  6
CONTINUOUS
 62
     7
 10
321.770120
 20
1009.913620
 11
320.770120
 21
1008.913620
  0
LINE
  8
CSLAYER1
  6
CONTINUOUS
 62
     7
 10
321.770120
 20
1009.913620
 11
321.770120
 21
994.913620
  0
LINE
  8
CSLAYER1
  6
CONTINUOUS
 62
     7
 10
323.120120
 20
1011.413620
 11
324.270120
 21
1011.413620
  0
LINE
  8
CSLAYER1
  6
CONTINUOUS
 62
     7
 10
337.270120
 20
1012.413620
 11
343.270120
 21
1018.413620
  0
LINE
  8
CSLAYER1
  6
CONTINUOUS
 62
     7
 10
343.270120
 20
1018.413620
 11
343.270120
 21
986.413620
  0
ARC
  8
CSLAYER1
  6
CONTINUOUS
 62
     7
 10
325.270120
 20
1022.413620
 40
1.000000
 50
90.000000
 51
180.000000
  0
ARC
  8
CSLAYER1
  6
CONTINUOUS
 62
     7
 10
336.270120
 20
1022.413620
 40
1.000000
 50
0.000000
 51
90.000000
  0
LINE
  8
CSLAYER1
  6
CONTINUOUS
 62
     7
 10
343.270120
 20
986.413620
 11
356.270120
 21
986.413620
  0
LINE
  8
CSLAYER1
  6
CONTINUOUS
 62
     7
 10
325.270120
 20
981.413620
 11
326.270120
 21
981.413620
  0
LINE
  8
CSLAYER1
  6
CONTINUOUS
 62
     7
 10
323.120120
 20
994.913620
 11
321.770120
 21
994.913620
  0
LINE
  8
CSLAYER1
  6
CONTINUOUS
 62
     7
 10
321.770120
 20
994.913620
 11
320.770120
 21
995.913620
  0
LINE
  8
CSLAYER1
  6
CONTINUOUS
 62
     7
 10
323.120120
 20
993.413620
 11
324.270120
 21
993.413620
  0
LINE
  8
CSLAYER1
  6
CONTINUOUS
 62
     7
 10
337.270120
 20
992.413620
 11
343.270120
 21
986.413620
  0
ARC
  8
CSLAYER1
  6
CONTINUOUS
 62
     7
 10
325.270120
 20
982.413620
 40
1.000000
 50
180.000000
 51
270.000000
  0
ARC
  8
CSLAYER1
  6
CONTINUOUS
 62
     7
 10
336.270120
 20
982.413620
 40
1.000000
 50
270.000000
 51
360.000000
  0
LINE
  8
CSLAYER1
  6
CONTINUOUS
 62
     7
 10
375.270120
 20
979.013620
 11
377.270120
 21
977.013620
  0
LINE
  8
CSLAYER1
  6
CONTINUOUS
 62
     7
 10
335.270120
 20
1023.413620
 11
336.270120
 21
1023.413620
  0
LINE
  8
CSLAYER1
  6
CONTINUOUS
 62
     7
 10
335.270120
 20
981.413620
 11
336.270120
 21
981.413620
  0
LINE
  8
CSLAYER1
  6
CONTINUOUS
 62
     7
 10
377.270120
 20
1027.813620
 11
547.270120
 21
1027.813620
  0
LINE
  8
CSLAYER1
  6
CONTINUOUS
 62
     7
 10
377.270120
 20
977.013620
 11
440.920120
 21
977.013620
  0
LINE
  8
CSLAYER1
  6
CONTINUOUS
 62
     7
 10
368.270120
 20
991.566576
 11
368.178966
 21
992.303303
  0
LINE
  8
CSLAYER1
  6
CONTINUOUS
 62
     7
 10
368.178966
 20
992.303303
 11
367.908275
 21
993.017645
  0
LINE
  8
CSLAYER1
  6
CONTINUOUS
 62
     7
 10
367.908275
 20
993.017645
 11
367.466272
 21
993.687897
  0
LINE
  8
CSLAYER1
  6
CONTINUOUS
 62
     7
 10
367.466272
 20
993.687897
 11
366.866386
 21
994.293693
  0
LINE
  8
CSLAYER1
  6
CONTINUOUS
 62
     7
 10
366.866386
 20
994.293693
 11
366.126845
 21
994.816628
  0
LINE
  8
CSLAYER1
  6
CONTINUOUS
 62
     7
 10
366.126845
 20
994.816628
 11
365.270120
 21
995.240811
  0
LINE
  8
CSLAYER1
  6
CONTINUOUS
 62
     7
 10
365.270120
 20
995.240811
 11
364.322240
 21
995.553355
  0
LINE
  8
CSLAYER1
  6
CONTINUOUS
 62
     7
 10
364.322240
 20
995.553355
 11
363.312009
 21
995.744762
  0
LINE
  8
CSLAYER1
  6
CONTINUOUS
 62
     7
 10
363.312009
 20
995.744762
 11
362.270120
 21
995.809217
  0
LINE
  8
CSLAYER1
  6
CONTINUOUS
 62
     7
 10
362.270120
 20
995.809217
 11
361.228231
 21
995.744762
  0
LINE
  8
CSLAYER1
  6
CONTINUOUS
 62
     7
 10
361.228231
 20
995.744762
 11
360.217999
 21
995.553355
  0
LINE
  8
CSLAYER1
  6
CONTINUOUS
 62
     7
 10
360.217999
 20
995.553355
 11
359.270120
 21
995.240811
  0
LINE
  8
CSLAYER1
  6
CONTINUOUS
 62
     7
 10
359.270120
 20
995.240811
 11
358.413394
 21
994.816628
  0
LINE
  8
CSLAYER1
  6
CONTINUOUS
 62
     7
 10
358.413394
 20
994.816628
 11
357.673853
 21
994.293693
  0
LINE
  8
CSLAYER1
  6
CONTINUOUS
 62
     7
 10
357.673853
 20
994.293693
 11
357.073967
 21
993.687897
  0
LINE
  8
CSLAYER1
  6
CONTINUOUS
 62
     7
 10
357.073967
 20
993.687897
 11
356.631964
 21
993.017645
  0
LINE
  8
CSLAYER1
  6
CONTINUOUS
 62
     7
 10
356.631964
 20
993.017645
 11
356.361273
 21
992.303303
  0
LINE
  8
CSLAYER1
  6
CONTINUOUS
 62
     7
 10
356.361273
 20
992.303303
 11
356.270120
 21
991.566576
  0
LINE
  8
CSLAYER1
  6
CONTINUOUS
 62
     7
 10
356.270120
 20
1021.932534
 11
356.270120
 21
1031.642353
  0
LINE
  8
CSLAYER1
  6
CONTINUOUS
 62
     7
 10
368.270120
 20
1021.932534
 11
368.270120
 21
1031.642353
  0
LINE
  8
CSLAYER1
  6
CONTINUOUS
 62
     7
 10
357.070120
 20
1022.227012
 11
357.070120
 21
1031.642353
  0
LINE
  8
CSLAYER1
  6
CONTINUOUS
 62
     7
 10
367.470120
 20
1022.227012
 11
367.470120
 21
1031.642353
  0
LINE
  8
CSLAYER1
  6
CONTINUOUS
 62
     7
 10
373.420120
 20
766.199584
 11
373.420120
 21
830.499176
  0
LINE
  8
CSLAYER1
  6
CONTINUOUS
 62
     7
 10
375.120120
 20
776.979584
 11
375.120120
 21
771.019584
  0
LINE
  8
CSLAYER1
  6
CONTINUOUS
 62
     7
 10
371.020120
 20
766.199584
 11
373.420120
 21
766.199584
  0
LINE
  8
CSLAYER1
  6
CONTINUOUS
 62
     7
 10
373.420120
 20
776.979584
 11
375.120120
 21
776.979584
  0
LINE
  8
CSLAYER1
  6
CONTINUOUS
 62
     7
 10
373.420120
 20
771.019584
 11
375.120120
 21
771.019584
  0
LINE
  8
CSLAYER1
  6
CONTINUOUS
 62
     7
 10
351.120120
 20
766.199584
 11
351.120120
 21
830.499176
  0
LINE
  8
CSLAYER1
  6
CONTINUOUS
 62
     7
 10
349.420120
 20
776.979584
 11
349.420120
 21
771.019584
  0
LINE
  8
CSLAYER1
  6
CONTINUOUS
 62
     7
 10
353.520120
 20
766.199584
 11
351.120120
 21
766.199584
  0
LINE
  8
CSLAYER1
  6
CONTINUOUS
 62
     7
 10
351.120120
 20
776.979584
 11
349.420120
 21
776.979584
  0
LINE
  8
CSLAYER1
  6
CONTINUOUS
 62
     7
 10
351.120120
 20
771.019584
 11
349.420120
 21
771.019584
  0
LINE
  8
CSLAYER1
  6
CENTER
 62
     5
 10
347.908076
 20
773.999584
 11
376.642484
 21
773.999584
  0
LINE
  8
CSLAYER1
  6
CONTINUOUS
 62
     7
 10
353.520120
 20
780.999584
 11
356.270120
 21
780.999584
  0
LINE
  8
CSLAYER1
  6
CONTINUOUS
 62
     7
 10
353.520120
 20
766.999584
 11
356.270120
 21
766.999584
  0
LINE
  8
CSLAYER1
  6
CONTINUOUS
 62
     7
 10
368.270120
 20
780.999584
 11
371.020120
 21
780.999584
  0
LINE
  8
CSLAYER1
  6
CONTINUOUS
 62
     7
 10
368.270120
 20
766.999584
 11
371.020120
 21
766.999584
  0
POINT
  8
CSLAYER1
 62
     7
 10
362.270120
 20
898.899176
  0
LINE
  8
CSLAYER1
  6
CONTINUOUS
 62
     7
 10
373.420120
 20
906.699176
 11
373.420120
 21
872.049176
  0
LINE
  8
CSLAYER1
  6
CONTINUOUS
 62
     7
 10
377.020120
 20
901.879176
 11
377.020120
 21
895.919176
  0
LINE
  8
CSLAYER1
  6
CONTINUOUS
 62
     7
 10
349.420120
 20
901.879176
 11
349.420120
 21
895.919176
  0
LINE
  8
CSLAYER1
  6
CONTINUOUS
 62
     7
 10
375.120120
 20
882.829176
 11
375.120120
 21
876.869176
  0
LINE
  8
CSLAYER1
  6
CONTINUOUS
 62
     7
 10
371.020120
 20
906.699176
 11
373.420120
 21
906.699176
  0
LINE
  8
CSLAYER1
  6
CONTINUOUS
 62
     7
 10
371.020120
 20
872.049176
 11
373.420120
 21
872.049176
  0
LINE
  8
CSLAYER1
  6
CONTINUOUS
 62
     7
 10
373.420120
 20
882.829176
 11
375.120120
 21
882.829176
  0
LINE
  8
CSLAYER1
  6
CONTINUOUS
 62
     7
 10
373.420120
 20
876.869176
 11
375.120120
 21
876.869176
  0
LINE
  8
CSLAYER1
  6
CONTINUOUS
 62
     7
 10
373.420120
 20
901.879176
 11
377.020120
 21
901.879176
  0
LINE
  8
CSLAYER1
  6
CONTINUOUS
 62
     7
 10
373.420120
 20
895.919176
 11
377.020120
 21
895.919176
  0
LINE
  8
CSLAYER1
  6
CONTINUOUS
 62
     7
 10
351.120120
 20
906.699176
 11
351.120120
 21
872.049176
  0
LINE
  8
CSLAYER1
  6
CONTINUOUS
 62
     7
 10
349.420120
 20
882.829176
 11
349.420120
 21
876.869176
  0
LINE
  8
CSLAYER1
  6
CONTINUOUS
 62
     7
 10
353.520120
 20
906.699176
 11
351.120120
 21
906.699176
  0
LINE
  8
CSLAYER1
  6
CONTINUOUS
 62
     7
 10
353.520120
 20
872.049176
 11
351.120120
 21
872.049176
  0
LINE
  8
CSLAYER1
  6
CONTINUOUS
 62
     7
 10
351.120120
 20
882.829176
 11
349.420120
 21
882.829176
  0
LINE
  8
CSLAYER1
  6
CONTINUOUS
 62
     7
 10
351.120120
 20
876.869176
 11
349.420120
 21
876.869176
  0
LINE
  8
CSLAYER1
  6
CONTINUOUS
 62
     7
 10
351.120120
 20
901.879176
 11
349.420120
 21
901.879176
  0
LINE
  8
CSLAYER1
  6
CONTINUOUS
 62
     7
 10
351.120120
 20
895.919176
 11
349.420120
 21
895.919176
  0
LINE
  8
CSLAYER1
  6
CONTINUOUS
 62
     7
 10
368.620120
 20
851.749176
 11
371.020120
 21
851.749176
  0
LINE
  8
CSLAYER1
  6
CONTINUOUS
 62
     7
 10
368.620120
 20
866.754176
 11
355.920120
 21
866.754176
  0
LINE
  8
CSLAYER1
  6
CONTINUOUS
 62
     7
 10
368.620120
 20
854.844176
 11
355.920120
 21
854.844176
  0
LINE
  8
CSLAYER1
  6
CONTINUOUS
 62
     7
 10
355.920120
 20
851.749176
 11
353.520120
 21
851.749176
  0
LINE
  8
CSLAYER1
  6
CONTINUOUS
 62
     7
 10
355.920120
 20
888.899176
 11
355.920120
 21
851.749176
  0
LINE
  8
CSLAYER1
  6
CONTINUOUS
 62
     7
 10
355.920120
 20
888.899176
 11
353.520120
 21
888.899176
  0
LINE
  8
CSLAYER1
  6
CONTINUOUS
 62
     7
 10
355.920120
 20
885.804176
 11
368.620120
 21
885.804176
  0
LINE
  8
CSLAYER1
  6
CONTINUOUS
 62
     7
 10
355.920120
 20
873.894176
 11
368.620120
 21
873.894176
  0
LINE
  8
CSLAYER1
  6
CONTINUOUS
 62
     7
 10
368.620120
 20
888.899176
 11
371.020120
 21
888.899176
  0
LINE
  8
CSLAYER1
  6
CONTINUOUS
 62
     7
 10
368.620120
 20
888.899176
 11
368.620120
 21
851.749176
  0
LINE
  8
CSLAYER1
  6
CENTER
 62
     5
 10
347.908076
 20
860.799176
 11
376.642484
 21
860.799176
  0
LINE
  8
CSLAYER1
  6
CENTER
 62
     5
 10
347.467702
 20
898.899176
 11
378.403980
 21
898.899176
  0
LINE
  8
CSLAYER1
  6
CENTER
 62
     5
 10
347.908076
 20
879.849176
 11
376.642484
 21
879.849176
  0
POINT
  8
CSLAYER1
 62
     7
 10
362.270120
 20
860.799176
  0
LINE
  8
CSLAYER1
  6
CONTINUOUS
 62
     7
 10
373.420120
 20
868.599176
 11
373.420120
 21
833.949176
  0
LINE
  8
CSLAYER1
  6
CONTINUOUS
 62
     7
 10
377.020120
 20
863.779176
 11
377.020120
 21
857.819176
  0
LINE
  8
CSLAYER1
  6
CONTINUOUS
 62
     7
 10
349.420120
 20
863.779176
 11
349.420120
 21
857.819176
  0
LINE
  8
CSLAYER1
  6
CONTINUOUS
 62
     7
 10
375.120120
 20
844.729176
 11
375.120120
 21
838.769176
  0
LINE
  8
CSLAYER1
  6
CONTINUOUS
 62
     7
 10
371.020120
 20
868.599176
 11
373.420120
 21
868.599176
  0
LINE
  8
CSLAYER1
  6
CONTINUOUS
 62
     7
 10
371.020120
 20
833.949176
 11
373.420120
 21
833.949176
  0
LINE
  8
CSLAYER1
  6
CONTINUOUS
 62
     7
 10
373.420120
 20
844.729176
 11
375.120120
 21
844.729176
  0
LINE
  8
CSLAYER1
  6
CONTINUOUS
 62
     7
 10
373.420120
 20
838.769176
 11
375.120120
 21
838.769176
  0
LINE
  8
CSLAYER1
  6
CONTINUOUS
 62
     7
 10
373.420120
 20
863.779176
 11
377.020120
 21
863.779176
  0
LINE
  8
CSLAYER1
  6
CONTINUOUS
 62
     7
 10
373.420120
 20
857.819176
 11
377.020120
 21
857.819176
  0
LINE
  8
CSLAYER1
  6
CONTINUOUS
 62
     7
 10
351.120120
 20
868.599176
 11
351.120120
 21
833.949176
  0
LINE
  8
CSLAYER1
  6
CONTINUOUS
 62
     7
 10
349.420120
 20
844.729176
 11
349.420120
 21
838.769176
  0
LINE
  8
CSLAYER1
  6
CONTINUOUS
 62
     7
 10
353.520120
 20
868.599176
 11
351.120120
 21
868.599176
  0
LINE
  8
CSLAYER1
  6
CONTINUOUS
 62
     7
 10
353.520120
 20
833.949176
 11
351.120120
 21
833.949176
  0
LINE
  8
CSLAYER1
  6
CONTINUOUS
 62
     7
 10
351.120120
 20
844.729176
 11
349.420120
 21
844.729176
  0
LINE
  8
CSLAYER1
  6
CONTINUOUS
 62
     7
 10
351.120120
 20
838.769176
 11
349.420120
 21
838.769176
  0
LINE
  8
CSLAYER1
  6
CONTINUOUS
 62
     7
 10
351.120120
 20
863.779176
 11
349.420120
 21
863.779176
  0
LINE
  8
CSLAYER1
  6
CONTINUOUS
 62
     7
 10
351.120120
 20
857.819176
 11
349.420120
 21
857.819176
  0
LINE
  8
CSLAYER1
  6
CONTINUOUS
 62
     7
 10
368.620120
 20
813.649176
 11
371.020120
 21
813.649176
  0
LINE
  8
CSLAYER1
  6
CONTINUOUS
 62
     7
 10
368.620120
 20
828.654176
 11
355.920120
 21
828.654176
  0
LINE
  8
CSLAYER1
  6
CONTINUOUS
 62
     7
 10
368.620120
 20
816.744176
 11
355.920120
 21
816.744176
  0
LINE
  8
CSLAYER1
  6
CONTINUOUS
 62
     7
 10
355.920120
 20
813.649176
 11
353.520120
 21
813.649176
  0
LINE
  8
CSLAYER1
  6
CONTINUOUS
 62
     7
 10
355.920120
 20
850.799176
 11
355.920120
 21
813.649176
  0
LINE
  8
CSLAYER1
  6
CONTINUOUS
 62
     7
 10
355.920120
 20
850.799176
 11
353.520120
 21
850.799176
  0
LINE
  8
CSLAYER1
  6
CONTINUOUS
 62
     7
 10
355.920120
 20
847.704176
 11
368.620120
 21
847.704176
  0
LINE
  8
CSLAYER1
  6
CONTINUOUS
 62
     7
 10
355.920120
 20
835.794176
 11
368.620120
 21
835.794176
  0
LINE
  8
CSLAYER1
  6
CONTINUOUS
 62
     7
 10
368.620120
 20
850.799176
 11
371.020120
 21
850.799176
  0
LINE
  8
CSLAYER1
  6
CONTINUOUS
 62
     7
 10
368.620120
 20
850.799176
 11
368.620120
 21
813.649176
  0
LINE
  8
CSLAYER1
  6
CENTER
 62
     5
 10
347.908076
 20
841.749176
 11
376.642484
 21
841.749176
  0
POINT
  8
CSLAYER1
 62
     7
 10
362.270120
 20
822.699176
  0
LINE
  8
CSLAYER1
  6
CENTER
 62
     5
 10
347.467702
 20
822.699176
 11
378.403980
 21
822.699176
  0
LINE
  8
CSLAYER1
  6
CONTINUOUS
 62
     7
 10
377.020120
 20
825.679176
 11
377.020120
 21
819.719176
  0
LINE
  8
CSLAYER1
  6
CONTINUOUS
 62
     7
 10
349.420120
 20
825.679176
 11
349.420120
 21
819.719176
  0
LINE
  8
CSLAYER1
  6
CONTINUOUS
 62
     7
 10
375.120120
 20
806.629176
 11
375.120120
 21
800.669176
  0
LINE
  8
CSLAYER1
  6
CONTINUOUS
 62
     7
 10
371.020120
 20
830.499176
 11
373.420120
 21
830.499176
  0
LINE
  8
CSLAYER1
  6
CONTINUOUS
 62
     7
 10
371.020120
 20
795.849176
 11
373.420120
 21
795.849176
  0
LINE
  8
CSLAYER1
  6
CONTINUOUS
 62
     7
 10
373.420120
 20
806.629176
 11
375.120120
 21
806.629176
  0
LINE
  8
CSLAYER1
  6
CONTINUOUS
 62
     7
 10
373.420120
 20
800.669176
 11
375.120120
 21
800.669176
  0
LINE
  8
CSLAYER1
  6
CONTINUOUS
 62
     7
 10
373.420120
 20
825.679176
 11
377.020120
 21
825.679176
  0
LINE
  8
CSLAYER1
  6
CONTINUOUS
 62
     7
 10
373.420120
 20
819.719176
 11
377.020120
 21
819.719176
  0
LINE
  8
CSLAYER1
  6
CONTINUOUS
 62
     7
 10
349.420120
 20
806.629176
 11
349.420120
 21
800.669176
  0
LINE
  8
CSLAYER1
  6
CONTINUOUS
 62
     7
 10
353.520120
 20
830.499176
 11
351.120120
 21
830.499176
  0
LINE
  8
CSLAYER1
  6
CONTINUOUS
 62
     7
 10
353.520120
 20
795.849176
 11
351.120120
 21
795.849176
  0
LINE
  8
CSLAYER1
  6
CONTINUOUS
 62
     7
 10
351.120120
 20
806.629176
 11
349.420120
 21
806.629176
  0
LINE
  8
CSLAYER1
  6
CONTINUOUS
 62
     7
 10
351.120120
 20
800.669176
 11
349.420120
 21
800.669176
  0
LINE
  8
CSLAYER1
  6
CONTINUOUS
 62
     7
 10
351.120120
 20
825.679176
 11
349.420120
 21
825.679176
  0
LINE
  8
CSLAYER1
  6
CONTINUOUS
 62
     7
 10
351.120120
 20
819.719176
 11
349.420120
 21
819.719176
  0
LINE
  8
CSLAYER1
  6
CONTINUOUS
 62
     7
 10
368.620120
 20
775.549176
 11
371.020120
 21
775.549176
  0
LINE
  8
CSLAYER1
  6
CONTINUOUS
 62
     7
 10
368.620120
 20
790.554176
 11
355.920120
 21
790.554176
  0
LINE
  8
CSLAYER1
  6
CONTINUOUS
 62
     7
 10
368.620120
 20
778.644176
 11
355.920120
 21
778.644176
  0
LINE
  8
CSLAYER1
  6
CONTINUOUS
 62
     7
 10
355.920120
 20
775.549176
 11
353.520120
 21
775.549176
  0
LINE
  8
CSLAYER1
  6
CONTINUOUS
 62
     7
 10
355.920120
 20
812.699176
 11
355.920120
 21
775.549176
  0
LINE
  8
CSLAYER1
  6
CONTINUOUS
 62
     7
 10
355.920120
 20
812.699176
 11
353.520120
 21
812.699176
  0
LINE
  8
CSLAYER1
  6
CONTINUOUS
 62
     7
 10
355.920120
 20
809.604176
 11
368.620120
 21
809.604176
  0
LINE
  8
CSLAYER1
  6
CONTINUOUS
 62
     7
 10
355.920120
 20
797.694176
 11
368.620120
 21
797.694176
  0
LINE
  8
CSLAYER1
  6
CONTINUOUS
 62
     7
 10
368.620120
 20
812.699176
 11
371.020120
 21
812.699176
  0
LINE
  8
CSLAYER1
  6
CONTINUOUS
 62
     7
 10
368.620120
 20
812.699176
 11
368.620120
 21
775.549176
  0
LINE
  8
CSLAYER1
  6
CENTER
 62
     5
 10
347.908076
 20
803.649176
 11
376.642484
 21
803.649176
  0
LINE
  8
CSLAYER1
  6
CENTER
 62
     5
 10
347.908076
 20
784.599176
 11
376.642484
 21
784.599176
  0
POINT
  8
CSLAYER1
 62
     7
 10
362.270120
 20
784.599176
  0
LINE
  8
CSLAYER1
  6
CONTINUOUS
 62
     7
 10
373.034596
 20
1018.413620
 11
372.099944
 21
1019.451023
  0
LINE
  8
CSLAYER1
  6
CONTINUOUS
 62
     7
 10
372.099944
 20
1019.451023
 11
371.462653
 21
1020.038299
  0
LINE
  8
CSLAYER1
  6
CONTINUOUS
 62
     7
 10
371.462653
 20
1020.038299
 11
370.755401
 21
1020.584065
  0
LINE
  8
CSLAYER1
  6
CONTINUOUS
 62
     7
 10
370.755401
 20
1020.584065
 11
369.983571
 21
1021.084168
  0
LINE
  8
CSLAYER1
  6
CONTINUOUS
 62
     7
 10
369.983571
 20
1021.084168
 11
369.153037
 21
1021.534801
  0
LINE
  8
CSLAYER1
  6
CONTINUOUS
 62
     7
 10
369.153037
 20
1021.534801
 11
368.270120
 21
1021.932534
  0
LINE
  8
CSLAYER1
  6
CONTINUOUS
 62
     7
 10
368.270120
 20
1021.932534
 11
367.341539
 21
1022.274342
  0
LINE
  8
CSLAYER1
  6
CONTINUOUS
 62
     7
 10
367.341539
 20
1022.274342
 11
366.374361
 21
1022.557621
  0
LINE
  8
CSLAYER1
  6
CONTINUOUS
 62
     7
 10
366.374361
 20
1022.557621
 11
365.375948
 21
1022.780218
  0
LINE
  8
CSLAYER1
  6
CONTINUOUS
 62
     7
 10
365.375948
 20
1022.780218
 11
364.353898
 21
1022.940436
  0
LINE
  8
CSLAYER1
  6
CONTINUOUS
 62
     7
 10
364.353898
 20
1022.940436
 11
363.315989
 21
1023.037057
  0
LINE
  8
CSLAYER1
  6
CONTINUOUS
 62
     7
 10
363.315989
 20
1023.037057
 11
362.270120
 21
1023.069347
  0
LINE
  8
CSLAYER1
  6
CONTINUOUS
 62
     7
 10
362.270120
 20
1023.069347
 11
361.224251
 21
1023.037057
  0
LINE
  8
CSLAYER1
  6
CONTINUOUS
 62
     7
 10
361.224251
 20
1023.037057
 11
360.186342
 21
1022.940436
  0
LINE
  8
CSLAYER1
  6
CONTINUOUS
 62
     7
 10
360.186342
 20
1022.940436
 11
359.164291
 21
1022.780218
  0
LINE
  8
CSLAYER1
  6
CONTINUOUS
 62
     7
 10
359.164291
 20
1022.780218
 11
358.165878
 21
1022.557621
  0
LINE
  8
CSLAYER1
  6
CONTINUOUS
 62
     7
 10
358.165878
 20
1022.557621
 11
357.198700
 21
1022.274342
  0
LINE
  8
CSLAYER1
  6
CONTINUOUS
 62
     7
 10
357.198700
 20
1022.274342
 11
356.270120
 21
1021.932534
  0
LINE
  8
CSLAYER1
  6
CONTINUOUS
 62
     7
 10
356.270120
 20
1021.932534
 11
355.387202
 21
1021.534801
  0
LINE
  8
CSLAYER1
  6
CONTINUOUS
 62
     7
 10
355.387202
 20
1021.534801
 11
354.556668
 21
1021.084168
  0
LINE
  8
CSLAYER1
  6
CONTINUOUS
 62
     7
 10
354.556668
 20
1021.084168
 11
353.784838
 21
1020.584065
  0
LINE
  8
CSLAYER1
  6
CONTINUOUS
 62
     7
 10
353.784838
 20
1020.584065
 11
353.077586
 21
1020.038299
  0
LINE
  8
CSLAYER1
  6
CONTINUOUS
 62
     7
 10
353.077586
 20
1020.038299
 11
352.440295
 21
1019.451023
  0
LINE
  8
CSLAYER1
  6
CONTINUOUS
 62
     7
 10
352.440295
 20
1019.451023
 11
351.505644
 21
1018.413620
  0
LINE
  8
CSLAYER1
  6
CONTINUOUS
 62
     7
 10
368.270120
 20
986.413620
 11
375.270120
 21
986.413620
  0
LINE
  8
CSLAYER1
  6
CONTINUOUS
 62
     7
 10
568.270120
 20
945.999176
 11
568.270120
 21
991.566576
  0
LINE
  8
CSLAYER1
  6
CONTINUOUS
 62
     7
 10
556.270120
 20
945.999176
 11
556.270120
 21
991.566576
  0
LINE
  8
CSLAYER1
  6
CONTINUOUS
 62
     7
 10
557.070120
 20
972.999176
 11
557.070120
 21
993.682670
  0
LINE
  8
CSLAYER1
  6
CONTINUOUS
 62
     7
 10
567.470120
 20
972.999176
 11
567.470120
 21
993.682670
  0
LINE
  8
CSLAYER1
  6
CONTINUOUS
 62
     7
 10
581.270120
 20
1018.413620
 11
549.270120
 21
1018.413620
  0
LINE
  8
CSLAYER1
  6
CONTINUOUS
 62
     7
 10
549.270120
 20
979.013620
 11
549.270120
 21
1025.813620
  0
LINE
  8
CSLAYER1
  6
CONTINUOUS
 62
     7
 10
549.270120
 20
1025.813620
 11
547.270120
 21
1027.813620
  0
LINE
  8
CSLAYER1
  6
CONTINUOUS
 62
     7
 10
547.270120
 20
977.013620
 11
547.270120
 21
1027.813620
  0
LINE
  8
CSLAYER1
  6
CONTINUOUS
 62
     7
 10
587.270120
 20
1022.413620
 11
587.270120
 21
982.413620
  0
LINE
  8
CSLAYER1
  6
CONTINUOUS
 62
     7
 10
600.270120
 20
1022.413620
 11
600.270120
 21
982.413620
  0
LINE
  8
CSLAYER1
  6
CONTINUOUS
 62
     7
 10
603.770120
 20
1008.913620
 11
603.770120
 21
995.913620
  0
LINE
  8
CSLAYER1
  6
CONTINUOUS
 62
     7
 10
601.420120
 20
1011.413620
 11
601.420120
 21
993.413620
  0
LINE
  8
CSLAYER1
  6
CONTINUOUS
 62
     7
 10
601.420120
 20
1009.913620
 11
602.770120
 21
1009.913620
  0
LINE
  8
CSLAYER1
  6
CONTINUOUS
 62
     7
 10
602.770120
 20
1009.913620
 11
603.770120
 21
1008.913620
  0
LINE
  8
CSLAYER1
  6
CONTINUOUS
 62
     7
 10
602.770120
 20
1009.913620
 11
602.770120
 21
994.913620
  0
LINE
  8
CSLAYER1
  6
CONTINUOUS
 62
     7
 10
601.420120
 20
1011.413620
 11
600.270120
 21
1011.413620
  0
LINE
  8
CSLAYER1
  6
CONTINUOUS
 62
     7
 10
587.270120
 20
1012.413620
 11
581.270120
 21
1018.413620
  0
LINE
  8
CSLAYER1
  6
CONTINUOUS
 62
     7
 10
581.270120
 20
1018.413620
 11
581.270120
 21
986.413620
  0
LINE
  8
CSLAYER1
  6
CONTINUOUS
 62
     7
 10
581.270120
 20
986.413620
 11
568.270120
 21
986.413620
  0
LINE
  8
CSLAYER1
  6
CONTINUOUS
 62
     7
 10
599.270120
 20
981.413620
 11
598.270120
 21
981.413620
  0
LINE
  8
CSLAYER1
  6
CONTINUOUS
 62
     7
 10
601.420120
 20
994.913620
 11
602.770120
 21
994.913620
  0
LINE
  8
CSLAYER1
  6
CONTINUOUS
 62
     7
 10
602.770120
 20
994.913620
 11
603.770120
 21
995.913620
  0
LINE
  8
CSLAYER1
  6
CONTINUOUS
 62
     7
 10
601.420120
 20
993.413620
 11
600.270120
 21
993.413620
  0
LINE
  8
CSLAYER1
  6
CONTINUOUS
 62
     7
 10
587.270120
 20
992.413620
 11
581.270120
 21
986.413620
  0
ARC
  8
CSLAYER1
  6
CONTINUOUS
 62
     7
 10
599.270120
 20
982.413620
 40
1.000000
 50
270.000000
 51
360.000000
  0
ARC
  8
CSLAYER1
  6
CONTINUOUS
 62
     7
 10
588.270120
 20
982.413620
 40
1.000000
 50
180.000000
 51
270.000000
  0
LINE
  8
CSLAYER1
  6
CONTINUOUS
 62
     7
 10
549.270120
 20
979.013620
 11
547.270120
 21
977.013620
  0
LINE
  8
CSLAYER1
  6
CONTINUOUS
 62
     7
 10
589.270120
 20
981.413620
 11
588.270120
 21
981.413620
  0
LINE
  8
CSLAYER1
  6
CONTINUOUS
 62
     7
 10
556.270120
 20
991.566576
 11
556.361273
 21
992.303303
  0
LINE
  8
CSLAYER1
  6
CONTINUOUS
 62
     7
 10
556.361273
 20
992.303303
 11
556.631964
 21
993.017645
  0
LINE
  8
CSLAYER1
  6
CONTINUOUS
 62
     7
 10
556.631964
 20
993.017645
 11
557.073967
 21
993.687897
  0
LINE
  8
CSLAYER1
  6
CONTINUOUS
 62
     7
 10
557.073967
 20
993.687897
 11
557.673853
 21
994.293693
  0
LINE
  8
CSLAYER1
  6
CONTINUOUS
 62
     7
 10
557.673853
 20
994.293693
 11
558.413394
 21
994.816628
  0
LINE
  8
CSLAYER1
  6
CONTINUOUS
 62
     7
 10
558.413394
 20
994.816628
 11
559.270120
 21
995.240811
  0
LINE
  8
CSLAYER1
  6
CONTINUOUS
 62
     7
 10
559.270120
 20
995.240811
 11
560.217999
 21
995.553355
  0
LINE
  8
CSLAYER1
  6
CONTINUOUS
 62
     7
 10
560.217999
 20
995.553355
 11
561.228231
 21
995.744762
  0
LINE
  8
CSLAYER1
  6
CONTINUOUS
 62
     7
 10
561.228231
 20
995.744762
 11
562.270120
 21
995.809217
  0
LINE
  8
CSLAYER1
  6
CONTINUOUS
 62
     7
 10
562.270120
 20
995.809217
 11
563.312009
 21
995.744762
  0
LINE
  8
CSLAYER1
  6
CONTINUOUS
 62
     7
 10
563.312009
 20
995.744762
 11
564.322240
 21
995.553355
  0
LINE
  8
CSLAYER1
  6
CONTINUOUS
 62
     7
 10
564.322240
 20
995.553355
 11
565.270120
 21
995.240811
  0
LINE
  8
CSLAYER1
  6
CONTINUOUS
 62
     7
 10
565.270120
 20
995.240811
 11
566.126845
 21
994.816628
  0
LINE
  8
CSLAYER1
  6
CONTINUOUS
 62
     7
 10
566.126845
 20
994.816628
 11
566.866386
 21
994.293693
  0
LINE
  8
CSLAYER1
  6
CONTINUOUS
 62
     7
 10
566.866386
 20
994.293693
 11
567.466272
 21
993.687897
  0
LINE
  8
CSLAYER1
  6
CONTINUOUS
 62
     7
 10
567.466272
 20
993.687897
 11
567.908275
 21
993.017645
  0
LINE
  8
CSLAYER1
  6
CONTINUOUS
 62
     7
 10
567.908275
 20
993.017645
 11
568.178966
 21
992.303303
  0
LINE
  8
CSLAYER1
  6
CONTINUOUS
 62
     7
 10
568.178966
 20
992.303303
 11
568.270120
 21
991.566576
  0
LINE
  8
CSLAYER1
  6
CONTINUOUS
 62
     7
 10
568.270120
 20
1021.932534
 11
568.270120
 21
1031.642353
  0
LINE
  8
CSLAYER1
  6
CONTINUOUS
 62
     7
 10
556.270120
 20
1021.932534
 11
556.270120
 21
1031.642353
  0
LINE
  8
CSLAYER1
  6
CONTINUOUS
 62
     7
 10
567.470120
 20
1022.227012
 11
567.470120
 21
1031.642353
  0
LINE
  8
CSLAYER1
  6
CONTINUOUS
 62
     7
 10
557.070120
 20
1022.227012
 11
557.070120
 21
1031.642353
  0
LINE
  8
CSLAYER1
  6
CONTINUOUS
 62
     7
 10
551.505644
 20
1018.413620
 11
552.440295
 21
1019.451023
  0
LINE
  8
CSLAYER1
  6
CONTINUOUS
 62
     7
 10
552.440295
 20
1019.451023
 11
553.077586
 21
1020.038299
  0
LINE
  8
CSLAYER1
  6
CONTINUOUS
 62
     7
 10
553.077586
 20
1020.038299
 11
553.784838
 21
1020.584065
  0
LINE
  8
CSLAYER1
  6
CONTINUOUS
 62
     7
 10
553.784838
 20
1020.584065
 11
554.556668
 21
1021.084168
  0
LINE
  8
CSLAYER1
  6
CONTINUOUS
 62
     7
 10
554.556668
 20
1021.084168
 11
555.387202
 21
1021.534801
  0
LINE
  8
CSLAYER1
  6
CONTINUOUS
 62
     7
 10
555.387202
 20
1021.534801
 11
556.270120
 21
1021.932534
  0
LINE
  8
CSLAYER1
  6
CONTINUOUS
 62
     7
 10
556.270120
 20
1021.932534
 11
557.198700
 21
1022.274342
  0
LINE
  8
CSLAYER1
  6
CONTINUOUS
 62
     7
 10
557.198700
 20
1022.274342
 11
558.165878
 21
1022.557621
  0
LINE
  8
CSLAYER1
  6
CONTINUOUS
 62
     7
 10
558.165878
 20
1022.557621
 11
559.164291
 21
1022.780218
  0
LINE
  8
CSLAYER1
  6
CONTINUOUS
 62
     7
 10
559.164291
 20
1022.780218
 11
560.186342
 21
1022.940436
  0
LINE
  8
CSLAYER1
  6
CONTINUOUS
 62
     7
 10
560.186342
 20
1022.940436
 11
561.224251
 21
1023.037057
  0
LINE
  8
CSLAYER1
  6
CONTINUOUS
 62
     7
 10
561.224251
 20
1023.037057
 11
562.270120
 21
1023.069347
  0
LINE
  8
CSLAYER1
  6
CONTINUOUS
 62
     7
 10
562.270120
 20
1023.069347
 11
563.315989
 21
1023.037057
  0
LINE
  8
CSLAYER1
  6
CONTINUOUS
 62
     7
 10
563.315989
 20
1023.037057
 11
564.353898
 21
1022.940436
  0
LINE
  8
CSLAYER1
  6
CONTINUOUS
 62
     7
 10
564.353898
 20
1022.940436
 11
565.375948
 21
1022.780218
  0
LINE
  8
CSLAYER1
  6
CONTINUOUS
 62
     7
 10
565.375948
 20
1022.780218
 11
566.374361
 21
1022.557621
  0
LINE
  8
CSLAYER1
  6
CONTINUOUS
 62
     7
 10
566.374361
 20
1022.557621
 11
567.341539
 21
1022.274342
  0
LINE
  8
CSLAYER1
  6
CONTINUOUS
 62
     7
 10
567.341539
 20
1022.274342
 11
568.270120
 21
1021.932534
  0
LINE
  8
CSLAYER1
  6
CONTINUOUS
 62
     7
 10
568.270120
 20
1021.932534
 11
569.153037
 21
1021.534801
  0
LINE
  8
CSLAYER1
  6
CONTINUOUS
 62
     7
 10
569.153037
 20
1021.534801
 11
569.983571
 21
1021.084168
  0
LINE
  8
CSLAYER1
  6
CONTINUOUS
 62
     7
 10
569.983571
 20
1021.084168
 11
570.755401
 21
1020.584065
  0
LINE
  8
CSLAYER1
  6
CONTINUOUS
 62
     7
 10
570.755401
 20
1020.584065
 11
571.462653
 21
1020.038299
  0
LINE
  8
CSLAYER1
  6
CONTINUOUS
 62
     7
 10
571.462653
 20
1020.038299
 11
572.099944
 21
1019.451023
  0
LINE
  8
CSLAYER1
  6
CONTINUOUS
 62
     7
 10
572.099944
 20
1019.451023
 11
573.034596
 21
1018.413620
  0
LINE
  8
CSLAYER1
  6
CONTINUOUS
 62
     7
 10
556.270120
 20
986.413620
 11
549.270120
 21
986.413620
  0
LINE
  8
CSLAYER1
  6
CONTINUOUS
 62
     7
 10
547.270120
 20
977.013620
 11
483.620120
 21
977.013620
  0
LINE
  8
CSLAYER1
  6
CONTINUOUS
 62
     7
 10
570.520120
 20
927.999176
 11
554.020120
 21
927.999176
  0
LINE
  8
CSLAYER1
  6
CONTINUOUS
 62
     7
 10
570.520120
 20
945.999176
 11
554.020120
 21
945.999176
  0
LINE
  8
CSLAYER1
  6
CONTINUOUS
 62
     7
 10
570.520120
 20
927.999176
 11
571.020120
 21
928.499176
  0
LINE
  8
CSLAYER1
  6
CONTINUOUS
 62
     7
 10
571.020120
 20
945.499176
 11
570.520120
 21
945.999176
  0
LINE
  8
CSLAYER1
  6
CONTINUOUS
 62
     7
 10
571.020120
 20
928.499176
 11
553.520120
 21
928.499176
  0
LINE
  8
CSLAYER1
  6
CONTINUOUS
 62
     7
 10
571.020120
 20
945.499176
 11
553.520120
 21
945.499176
  0
LINE
  8
CSLAYER1
  6
CONTINUOUS
 62
     7
 10
554.020120
 20
927.999176
 11
553.520120
 21
928.499176
  0
LINE
  8
CSLAYER1
  6
CONTINUOUS
 62
     7
 10
553.520120
 20
945.499176
 11
554.020120
 21
945.999176
  0
POINT
  8
CSLAYER1
 62
     7
 10
562.270120
 20
936.999176
  0
LINE
  8
CSLAYER1
  6
CONTINUOUS
 62
     7
 10
551.120120
 20
944.799176
 11
551.120120
 21
910.149176
  0
LINE
  8
CSLAYER1
  6
CONTINUOUS
 62
     7
 10
547.520120
 20
939.979176
 11
547.520120
 21
934.019176
  0
LINE
  8
CSLAYER1
  6
CONTINUOUS
 62
     7
 10
575.120120
 20
939.979176
 11
575.120120
 21
934.019176
  0
LINE
  8
CSLAYER1
  6
CONTINUOUS
 62
     7
 10
549.420120
 20
920.929176
 11
549.420120
 21
914.969176
  0
LINE
  8
CSLAYER1
  6
CONTINUOUS
 62
     7
 10
553.520120
 20
944.799176
 11
551.120120
 21
944.799176
  0
LINE
  8
CSLAYER1
  6
CONTINUOUS
 62
     7
 10
553.520120
 20
910.149176
 11
551.120120
 21
910.149176
  0
LINE
  8
CSLAYER1
  6
CONTINUOUS
 62
     7
 10
551.120120
 20
920.929176
 11
549.420120
 21
920.929176
  0
LINE
  8
CSLAYER1
  6
CONTINUOUS
 62
     7
 10
551.120120
 20
914.969176
 11
549.420120
 21
914.969176
  0
LINE
  8
CSLAYER1
  6
CONTINUOUS
 62
     7
 10
551.120120
 20
939.979176
 11
547.520120
 21
939.979176
  0
LINE
  8
CSLAYER1
  6
CONTINUOUS
 62
     7
 10
551.120120
 20
934.019176
 11
547.520120
 21
934.019176
  0
LINE
  8
CSLAYER1
  6
CONTINUOUS
 62
     7
 10
573.420120
 20
944.799176
 11
573.420120
 21
910.149176
  0
LINE
  8
CSLAYER1
  6
CONTINUOUS
 62
     7
 10
575.120120
 20
920.929176
 11
575.120120
 21
914.969176
  0
LINE
  8
CSLAYER1
  6
CONTINUOUS
 62
     7
 10
571.020120
 20
944.799176
 11
573.420120
 21
944.799176
  0
LINE
  8
CSLAYER1
  6
CONTINUOUS
 62
     7
 10
571.020120
 20
910.149176
 11
573.420120
 21
910.149176
  0
LINE
  8
CSLAYER1
  6
CONTINUOUS
 62
     7
 10
573.420120
 20
920.929176
 11
575.120120
 21
920.929176
  0
LINE
  8
CSLAYER1
  6
CONTINUOUS
 62
     7
 10
573.420120
 20
914.969176
 11
575.120120
 21
914.969176
  0
LINE
  8
CSLAYER1
  6
CONTINUOUS
 62
     7
 10
573.420120
 20
939.979176
 11
575.120120
 21
939.979176
  0
LINE
  8
CSLAYER1
  6
CONTINUOUS
 62
     7
 10
573.420120
 20
934.019176
 11
575.120120
 21
934.019176
  0
LINE
  8
CSLAYER1
  6
CONTINUOUS
 62
     7
 10
555.920120
 20
889.849176
 11
553.520120
 21
889.849176
  0
LINE
  8
CSLAYER1
  6
CONTINUOUS
 62
     7
 10
555.920120
 20
904.854176
 11
568.620120
 21
904.854176
  0
LINE
  8
CSLAYER1
  6
CONTINUOUS
 62
     7
 10
555.920120
 20
892.944176
 11
568.620120
 21
892.944176
  0
LINE
  8
CSLAYER1
  6
CONTINUOUS
 62
     7
 10
568.620120
 20
889.849176
 11
571.020120
 21
889.849176
  0
LINE
  8
CSLAYER1
  6
CONTINUOUS
 62
     7
 10
553.520120
 20
945.499176
 11
553.520120
 21
766.199584
  0
LINE
  8
CSLAYER1
  6
CONTINUOUS
 62
     7
 10
571.020120
 20
945.499176
 11
571.020120
 21
766.199584
  0
LINE
  8
CSLAYER1
  6
CONTINUOUS
 62
     7
 10
568.620120
 20
926.999176
 11
568.620120
 21
889.849176
  0
LINE
  8
CSLAYER1
  6
CONTINUOUS
 62
     7
 10
568.620120
 20
926.999176
 11
571.020120
 21
926.999176
  0
LINE
  8
CSLAYER1
  6
CONTINUOUS
 62
     7
 10
568.620120
 20
923.904176
 11
555.920120
 21
923.904176
  0
LINE
  8
CSLAYER1
  6
CONTINUOUS
 62
     7
 10
568.620120
 20
911.994176
 11
555.920120
 21
911.994176
  0
LINE
  8
CSLAYER1
  6
CONTINUOUS
 62
     7
 10
555.920120
 20
926.999176
 11
553.520120
 21
926.999176
  0
LINE
  8
CSLAYER1
  6
CONTINUOUS
 62
     7
 10
555.920120
 20
926.999176
 11
555.920120
 21
889.849176
  0
LINE
  8
CSLAYER1
  6
CENTER
 62
     5
 10
577.072537
 20
936.999176
 11
546.136259
 21
936.999176
  0
LINE
  8
CSLAYER1
  6
CENTER
 62
     5
 10
576.632163
 20
917.949176
 11
547.897755
 21
917.949176
  0
LINE
  8
CSLAYER1
  6
CONTINUOUS
 62
     7
 10
551.120120
 20
766.199584
 11
551.120120
 21
830.499176
  0
LINE
  8
CSLAYER1
  6
CONTINUOUS
 62
     7
 10
549.420120
 20
776.979584
 11
549.420120
 21
771.019584
  0
LINE
  8
CSLAYER1
  6
CONTINUOUS
 62
     7
 10
553.520120
 20
766.199584
 11
551.120120
 21
766.199584
  0
LINE
  8
CSLAYER1
  6
CONTINUOUS
 62
     7
 10
551.120120
 20
776.979584
 11
549.420120
 21
776.979584
  0
LINE
  8
CSLAYER1
  6
CONTINUOUS
 62
     7
 10
551.120120
 20
771.019584
 11
549.420120
 21
771.019584
  0
LINE
  8
CSLAYER1
  6
CONTINUOUS
 62
     7
 10
573.420120
 20
766.199584
 11
573.420120
 21
830.499176
  0
LINE
  8
CSLAYER1
  6
CONTINUOUS
 62
     7
 10
575.120120
 20
776.979584
 11
575.120120
 21
771.019584
  0
LINE
  8
CSLAYER1
  6
CONTINUOUS
 62
     7
 10
571.020120
 20
766.199584
 11
573.420120
 21
766.199584
  0
LINE
  8
CSLAYER1
  6
CONTINUOUS
 62
     7
 10
573.420120
 20
776.979584
 11
575.120120
 21
776.979584
  0
LINE
  8
CSLAYER1
  6
CONTINUOUS
 62
     7
 10
573.420120
 20
771.019584
 11
575.120120
 21
771.019584
  0
LINE
  8
CSLAYER1
  6
CENTER
 62
     5
 10
576.632163
 20
773.999584
 11
547.897755
 21
773.999584
  0
LINE
  8
CSLAYER1
  6
CONTINUOUS
 62
     7
 10
571.020120
 20
780.999584
 11
566.770120
 21
780.999584
  0
LINE
  8
CSLAYER1
  6
CONTINUOUS
 62
     7
 10
571.020120
 20
766.999584
 11
566.770120
 21
766.999584
  0
LINE
  8
CSLAYER1
  6
CONTINUOUS
 62
     7
 10
557.770120
 20
780.999584
 11
553.520120
 21
780.999584
  0
LINE
  8
CSLAYER1
  6
CONTINUOUS
 62
     7
 10
557.770120
 20
766.999584
 11
553.520120
 21
766.999584
  0
POINT
  8
CSLAYER1
 62
     7
 10
562.270120
 20
898.899176
  0
LINE
  8
CSLAYER1
  6
CONTINUOUS
 62
     7
 10
551.120120
 20
906.699176
 11
551.120120
 21
872.049176
  0
LINE
  8
CSLAYER1
  6
CONTINUOUS
 62
     7
 10
547.520120
 20
901.879176
 11
547.520120
 21
895.919176
  0
LINE
  8
CSLAYER1
  6
CONTINUOUS
 62
     7
 10
575.120120
 20
901.879176
 11
575.120120
 21
895.919176
  0
LINE
  8
CSLAYER1
  6
CONTINUOUS
 62
     7
 10
549.420120
 20
882.829176
 11
549.420120
 21
876.869176
  0
LINE
  8
CSLAYER1
  6
CONTINUOUS
 62
     7
 10
553.520120
 20
906.699176
 11
551.120120
 21
906.699176
  0
LINE
  8
CSLAYER1
  6
CONTINUOUS
 62
     7
 10
553.520120
 20
872.049176
 11
551.120120
 21
872.049176
  0
LINE
  8
CSLAYER1
  6
CONTINUOUS
 62
     7
 10
551.120120
 20
882.829176
 11
549.420120
 21
882.829176
  0
LINE
  8
CSLAYER1
  6
CONTINUOUS
 62
     7
 10
551.120120
 20
876.869176
 11
549.420120
 21
876.869176
  0
LINE
  8
CSLAYER1
  6
CONTINUOUS
 62
     7
 10
551.120120
 20
901.879176
 11
547.520120
 21
901.879176
  0
LINE
  8
CSLAYER1
  6
CONTINUOUS
 62
     7
 10
551.120120
 20
895.919176
 11
547.520120
 21
895.919176
  0
LINE
  8
CSLAYER1
  6
CONTINUOUS
 62
     7
 10
573.420120
 20
906.699176
 11
573.420120
 21
872.049176
  0
LINE
  8
CSLAYER1
  6
CONTINUOUS
 62
     7
 10
575.120120
 20
882.829176
 11
575.120120
 21
876.869176
  0
LINE
  8
CSLAYER1
  6
CONTINUOUS
 62
     7
 10
571.020120
 20
906.699176
 11
573.420120
 21
906.699176
  0
LINE
  8
CSLAYER1
  6
CONTINUOUS
 62
     7
 10
571.020120
 20
872.049176
 11
573.420120
 21
872.049176
  0
LINE
  8
CSLAYER1
  6
CONTINUOUS
 62
     7
 10
573.420120
 20
882.829176
 11
575.120120
 21
882.829176
  0
LINE
  8
CSLAYER1
  6
CONTINUOUS
 62
     7
 10
573.420120
 20
876.869176
 11
575.120120
 21
876.869176
  0
LINE
  8
CSLAYER1
  6
CONTINUOUS
 62
     7
 10
573.420120
 20
901.879176
 11
575.120120
 21
901.879176
  0
LINE
  8
CSLAYER1
  6
CONTINUOUS
 62
     7
 10
573.420120
 20
895.919176
 11
575.120120
 21
895.919176
  0
LINE
  8
CSLAYER1
  6
CONTINUOUS
 62
     7
 10
555.920120
 20
851.749176
 11
553.520120
 21
851.749176
  0
LINE
  8
CSLAYER1
  6
CONTINUOUS
 62
     7
 10
555.920120
 20
866.754176
 11
568.620120
 21
866.754176
  0
LINE
  8
CSLAYER1
  6
CONTINUOUS
 62
     7
 10
555.920120
 20
854.844176
 11
568.620120
 21
854.844176
  0
LINE
  8
CSLAYER1
  6
CONTINUOUS
 62
     7
 10
568.620120
 20
851.749176
 11
571.020120
 21
851.749176
  0
LINE
  8
CSLAYER1
  6
CONTINUOUS
 62
     7
 10
568.620120
 20
888.899176
 11
568.620120
 21
851.749176
  0
LINE
  8
CSLAYER1
  6
CONTINUOUS
 62
     7
 10
568.620120
 20
888.899176
 11
571.020120
 21
888.899176
  0
LINE
  8
CSLAYER1
  6
CONTINUOUS
 62
     7
 10
568.620120
 20
885.804176
 11
555.920120
 21
885.804176
  0
LINE
  8
CSLAYER1
  6
CONTINUOUS
 62
     7
 10
568.620120
 20
873.894176
 11
555.920120
 21
873.894176
  0
LINE
  8
CSLAYER1
  6
CONTINUOUS
 62
     7
 10
555.920120
 20
888.899176
 11
553.520120
 21
888.899176
  0
LINE
  8
CSLAYER1
  6
CONTINUOUS
 62
     7
 10
555.920120
 20
888.899176
 11
555.920120
 21
851.749176
  0
LINE
  8
CSLAYER1
  6
CENTER
 62
     5
 10
576.632163
 20
860.799176
 11
547.897755
 21
860.799176
  0
LINE
  8
CSLAYER1
  6
CENTER
 62
     5
 10
577.072537
 20
898.899176
 11
546.136259
 21
898.899176
  0
LINE
  8
CSLAYER1
  6
CENTER
 62
     5
 10
576.632163
 20
879.849176
 11
547.897755
 21
879.849176
  0
POINT
  8
CSLAYER1
 62
     7
 10
562.270120
 20
860.799176
  0
LINE
  8
CSLAYER1
  6
CONTINUOUS
 62
     7
 10
551.120120
 20
868.599176
 11
551.120120
 21
833.949176
  0
LINE
  8
CSLAYER1
  6
CONTINUOUS
 62
     7
 10
547.520120
 20
863.779176
 11
547.520120
 21
857.819176
  0
LINE
  8
CSLAYER1
  6
CONTINUOUS
 62
     7
 10
575.120120
 20
863.779176
 11
575.120120
 21
857.819176
  0
LINE
  8
CSLAYER1
  6
CONTINUOUS
 62
     7
 10
549.420120
 20
844.729176
 11
549.420120
 21
838.769176
  0
LINE
  8
CSLAYER1
  6
CONTINUOUS
 62
     7
 10
553.520120
 20
868.599176
 11
551.120120
 21
868.599176
  0
LINE
  8
CSLAYER1
  6
CONTINUOUS
 62
     7
 10
553.520120
 20
833.949176
 11
551.120120
 21
833.949176
  0
LINE
  8
CSLAYER1
  6
CONTINUOUS
 62
     7
 10
551.120120
 20
844.729176
 11
549.420120
 21
844.729176
  0
LINE
  8
CSLAYER1
  6
CONTINUOUS
 62
     7
 10
551.120120
 20
838.769176
 11
549.420120
 21
838.769176
  0
LINE
  8
CSLAYER1
  6
CONTINUOUS
 62
     7
 10
551.120120
 20
863.779176
 11
547.520120
 21
863.779176
  0
LINE
  8
CSLAYER1
  6
CONTINUOUS
 62
     7
 10
551.120120
 20
857.819176
 11
547.520120
 21
857.819176
  0
LINE
  8
CSLAYER1
  6
CONTINUOUS
 62
     7
 10
573.420120
 20
868.599176
 11
573.420120
 21
833.949176
  0
LINE
  8
CSLAYER1
  6
CONTINUOUS
 62
     7
 10
575.120120
 20
844.729176
 11
575.120120
 21
838.769176
  0
LINE
  8
CSLAYER1
  6
CONTINUOUS
 62
     7
 10
571.020120
 20
868.599176
 11
573.420120
 21
868.599176
  0
LINE
  8
CSLAYER1
  6
CONTINUOUS
 62
     7
 10
571.020120
 20
833.949176
 11
573.420120
 21
833.949176
  0
LINE
  8
CSLAYER1
  6
CONTINUOUS
 62
     7
 10
573.420120
 20
844.729176
 11
575.120120
 21
844.729176
  0
LINE
  8
CSLAYER1
  6
CONTINUOUS
 62
     7
 10
573.420120
 20
838.769176
 11
575.120120
 21
838.769176
  0
LINE
  8
CSLAYER1
  6
CONTINUOUS
 62
     7
 10
573.420120
 20
863.779176
 11
575.120120
 21
863.779176
  0
LINE
  8
CSLAYER1
  6
CONTINUOUS
 62
     7
 10
573.420120
 20
857.819176
 11
575.120120
 21
857.819176
  0
LINE
  8
CSLAYER1
  6
CONTINUOUS
 62
     7
 10
555.920120
 20
813.649176
 11
553.520120
 21
813.649176
  0
LINE
  8
CSLAYER1
  6
CONTINUOUS
 62
     7
 10
555.920120
 20
828.654176
 11
568.620120
 21
828.654176
  0
LINE
  8
CSLAYER1
  6
CONTINUOUS
 62
     7
 10
555.920120
 20
816.744176
 11
568.620120
 21
816.744176
  0
LINE
  8
CSLAYER1
  6
CONTINUOUS
 62
     7
 10
568.620120
 20
813.649176
 11
571.020120
 21
813.649176
  0
LINE
  8
CSLAYER1
  6
CONTINUOUS
 62
     7
 10
568.620120
 20
850.799176
 11
568.620120
 21
813.649176
  0
LINE
  8
CSLAYER1
  6
CONTINUOUS
 62
     7
 10
568.620120
 20
850.799176
 11
571.020120
 21
850.799176
  0
LINE
  8
CSLAYER1
  6
CONTINUOUS
 62
     7
 10
568.620120
 20
847.704176
 11
555.920120
 21
847.704176
  0
LINE
  8
CSLAYER1
  6
CONTINUOUS
 62
     7
 10
568.620120
 20
835.794176
 11
555.920120
 21
835.794176
  0
LINE
  8
CSLAYER1
  6
CONTINUOUS
 62
     7
 10
555.920120
 20
850.799176
 11
553.520120
 21
850.799176
  0
LINE
  8
CSLAYER1
  6
CONTINUOUS
 62
     7
 10
555.920120
 20
850.799176
 11
555.920120
 21
813.649176
  0
LINE
  8
CSLAYER1
  6
CENTER
 62
     5
 10
576.632163
 20
841.749176
 11
547.897755
 21
841.749176
  0
POINT
  8
CSLAYER1
 62
     7
 10
562.270120
 20
822.699176
  0
LINE
  8
CSLAYER1
  6
CENTER
 62
     5
 10
577.072537
 20
822.699176
 11
546.136259
 21
822.699176
  0
LINE
  8
CSLAYER1
  6
CONTINUOUS
 62
     7
 10
547.520120
 20
825.679176
 11
547.520120
 21
819.719176
  0
LINE
  8
CSLAYER1
  6
CONTINUOUS
 62
     7
 10
575.120120
 20
825.679176
 11
575.120120
 21
819.719176
  0
LINE
  8
CSLAYER1
  6
CONTINUOUS
 62
     7
 10
549.420120
 20
806.629176
 11
549.420120
 21
800.669176
  0
LINE
  8
CSLAYER1
  6
CONTINUOUS
 62
     7
 10
553.520120
 20
830.499176
 11
551.120120
 21
830.499176
  0
LINE
  8
CSLAYER1
  6
CONTINUOUS
 62
     7
 10
553.520120
 20
795.849176
 11
551.120120
 21
795.849176
  0
LINE
  8
CSLAYER1
  6
CONTINUOUS
 62
     7
 10
551.120120
 20
806.629176
 11
549.420120
 21
806.629176
  0
LINE
  8
CSLAYER1
  6
CONTINUOUS
 62
     7
 10
551.120120
 20
800.669176
 11
549.420120
 21
800.669176
  0
LINE
  8
CSLAYER1
  6
CONTINUOUS
 62
     7
 10
551.120120
 20
825.679176
 11
547.520120
 21
825.679176
  0
LINE
  8
CSLAYER1
  6
CONTINUOUS
 62
     7
 10
551.120120
 20
819.719176
 11
547.520120
 21
819.719176
  0
LINE
  8
CSLAYER1
  6
CONTINUOUS
 62
     7
 10
575.120120
 20
806.629176
 11
575.120120
 21
800.669176
  0
LINE
  8
CSLAYER1
  6
CONTINUOUS
 62
     7
 10
571.020120
 20
830.499176
 11
573.420120
 21
830.499176
  0
LINE
  8
CSLAYER1
  6
CONTINUOUS
 62
     7
 10
571.020120
 20
795.849176
 11
573.420120
 21
795.849176
  0
LINE
  8
CSLAYER1
  6
CONTINUOUS
 62
     7
 10
573.420120
 20
806.629176
 11
575.120120
 21
806.629176
  0
LINE
  8
CSLAYER1
  6
CONTINUOUS
 62
     7
 10
573.420120
 20
800.669176
 11
575.120120
 21
800.669176
  0
LINE
  8
CSLAYER1
  6
CONTINUOUS
 62
     7
 10
573.420120
 20
825.679176
 11
575.120120
 21
825.679176
  0
LINE
  8
CSLAYER1
  6
CONTINUOUS
 62
     7
 10
573.420120
 20
819.719176
 11
575.120120
 21
819.719176
  0
LINE
  8
CSLAYER1
  6
CONTINUOUS
 62
     7
 10
555.920120
 20
775.549176
 11
553.520120
 21
775.549176
  0
LINE
  8
CSLAYER1
  6
CONTINUOUS
 62
     7
 10
555.920120
 20
790.554176
 11
568.620120
 21
790.554176
  0
LINE
  8
CSLAYER1
  6
CONTINUOUS
 62
     7
 10
568.620120
 20
775.549176
 11
571.020120
 21
775.549176
  0
LINE
  8
CSLAYER1
  6
CONTINUOUS
 62
     7
 10
555.920120
 20
778.644176
 11
568.620120
 21
778.644176
  0
LINE
  8
CSLAYER1
  6
CONTINUOUS
 62
     7
 10
568.620120
 20
812.699176
 11
568.620120
 21
775.549176
  0
LINE
  8
CSLAYER1
  6
CONTINUOUS
 62
     7
 10
568.620120
 20
812.699176
 11
571.020120
 21
812.699176
  0
LINE
  8
CSLAYER1
  6
CONTINUOUS
 62
     7
 10
568.620120
 20
809.604176
 11
555.920120
 21
809.604176
  0
LINE
  8
CSLAYER1
  6
CONTINUOUS
 62
     7
 10
568.620120
 20
797.694176
 11
555.920120
 21
797.694176
  0
LINE
  8
CSLAYER1
  6
CONTINUOUS
 62
     7
 10
555.920120
 20
812.699176
 11
553.520120
 21
812.699176
  0
LINE
  8
CSLAYER1
  6
CONTINUOUS
 62
     7
 10
555.920120
 20
812.699176
 11
555.920120
 21
775.549176
  0
LINE
  8
CSLAYER1
  6
CENTER
 62
     5
 10
576.632163
 20
803.649176
 11
547.897755
 21
803.649176
  0
LINE
  8
CSLAYER1
  6
CENTER
 62
     5
 10
576.632163
 20
784.599176
 11
547.897755
 21
784.599176
  0
POINT
  8
CSLAYER1
 62
     7
 10
562.270120
 20
784.599176
  0
INSERT
  8
CSLAYER1
  2
BLKF0005
 10
0.0
 20
0.0
 30
0.0
  0
INSERT
  8
CSLAYER1
  2
BLKF0006
 10
0.0
 20
0.0
 30
0.0
  0
DIMENSION
  8
CSLAYER1
 62
     7
  2
*D0000
 10
2076.455237
 20
562.906329
 11
2066.455078
 21
485.406281
 13
1932.715545
 23
407.906329
 14
1932.515545
 24
562.906329
 50
90.000000
  0
DIMENSION
  8
CSLAYER1
 62
     7
  2
*D0001
 10
2076.455237
 20
1120.992353
 11
2066.455078
 21
841.949219
 13
1932.515545
 23
562.906329
 14
1932.515545
 24
1120.992353
 50
90.000000
 70
1
  0
DIMENSION
  8
CSLAYER1
 62
     7
  2
*D0002
 10
2179.048444
 20
407.906329
 11
2169.048340
 21
764.449219
 13
2179.048444
 23
1120.992353
 14
2179.048444
 24
407.906329
 50
90.000000
 70
1
  0
DIMENSION
  8
CSLAYER1
 62
     7
  2
*D0003
 10
935.498588
 20
1976.298400
 11
925.498657
 21
1776.298340
 13
1032.515545
 23
1576.298400
 14
1032.515545
 24
1976.298400
 50
90.000000
 70
1
  0
TEXT
  8
CSLAYER1
 62
     5
 10
771.905151
 20
801.552002
 40
40.000000
 41
0.782609
  1
ギヤードモ－ター
 50
0.000000
 51
0.000000
  7
EASYDRAW_FONT
 72
     5
 11
1011.905151
 21
801.552002
  0
LINE
  8
CSLAYER1
  6
CONTINUOUS
 62
     5
 10
1004.208216
 20
796.795517
 11
766.187458
 21
796.795517
  0
LINE
  8
CSLAYER1
  6
CONTINUOUS
 62
     5
 10
1140.182445
 20
654.797114
 11
1004.208216
 21
796.795517
  0
LINE
  8
CSLAYER1
  6
CONTINUOUS
 62
     5
 10
1140.182445
 20
654.797114
 11
1114.532783
 21
670.356511
  0
LINE
  8
CSLAYER1
  6
CONTINUOUS
 62
     5
 10
1140.182445
 20
654.797114
 11
1125.748884
 21
681.096778
  0
TEXT
  8
CSLAYER1
 62
     5
 10
752.596741
 20
693.950439
 40
40.000000
 41
0.803571
  1
上限・下限
 50
0.000000
 51
0.000000
  7
EASYDRAW_FONT
 72
     5
 11
902.596741
 21
693.950439
  0
TEXT
  8
CSLAYER1
 62
     5
 10
748.713440
 20
644.780518
 40
40.000000
 41
0.782609
  1
リミットスイッチ
 50
0.000000
 51
0.000000
  7
EASYDRAW_FONT
 72
     5
 11
988.713440
 21
644.780518
  0
LINE
  8
CSLAYER1
  6
CONTINUOUS
 62
     5
 10
747.508208
 20
638.423710
 11
994.084297
 21
638.423710
  0
LINE
  8
CSLAYER1
  6
CONTINUOUS
 62
     5
 10
573.270120
 20
512.614955
 11
747.508208
 21
638.423710
  0
LINE
  8
CSLAYER1
  6
CONTINUOUS
 62
     5
 10
573.270120
 20
512.614955
 11
592.218337
 21
535.873611
  0
LINE
  8
CSLAYER1
  6
CONTINUOUS
 62
     5
 10
573.270120
 20
512.614955
 11
601.309085
 21
523.283433
  0
DIMENSION
  8
CSLAYER1
 62
     7
  2
*D0004
 10
1932.515545
 20
1474.134127
 11
1482.515625
 21
1484.134277
 13
1032.515545
 23
1576.298400
 14
1932.515545
 24
1576.298400
 52
270.000000
 70
1
  0
DIMENSION
  8
CSLAYER1
 62
     7
  2
*D0005
 10
1932.715545
 20
292.808620
 11
1482.715576
 21
302.808624
 13
1032.715545
 23
407.906329
 14
1932.715545
 24
407.906329
 52
270.000000
 70
1
  0
DIMENSION
  8
CSLAYER1
 62
     7
  2
*D0006
 10
662.270120
 20
292.808620
 11
462.270172
 21
302.808624
 13
262.270120
 23
407.906329
 14
662.270120
 24
407.906329
 52
270.000000
 70
1
  0
LINE
  8
CSLAYER1
  6
CONTINUOUS
 62
     4
 10
298.270120
 20
1058.792353
 11
309.270120
 21
1058.792353
  0
LINE
  8
CSLAYER1
  6
CONTINUOUS
 62
     3
 10
309.270120
 20
1058.792353
 11
309.270120
 21
1075.992353
  0
INSERT
  8
CSLAYER1
  2
BLKF0007
 10
0.0
 20
0.0
 30
0.0
  0
LINE
  8
CSLAYER1
  6
CONTINUOUS
 62
     3
 10
589.270120
 20
1054.092193
 11
335.270120
 21
1054.092193
  0
LINE
  8
CSLAYER1
  6
CONTINUOUS
 62
     3
 10
289.270120
 20
1023.792353
 11
289.270120
 21
1075.992353
  0
LINE
  8
CSLAYER1
  6
CONTINUOUS
 62
     3
 10
298.270120
 20
1023.792353
 11
298.270120
 21
1075.992353
  0
LINE
  8
CSLAYER1
  6
CONTINUOUS
 62
     3
 10
262.270120
 20
1075.992353
 11
662.270120
 21
1075.992353
  0
LINE
  8
CSLAYER1
  6
CONTINUOUS
 62
     3
 10
289.270120
 20
1023.792353
 11
298.270120
 21
1023.792353
  0
LINE
  8
CSLAYER1
  6
CENTER
 62
     5
 10
278.270120
 20
1040.292353
 11
646.270120
 21
1040.292353
  0
LINE
  8
CSLAYER1
  6
CONTINUOUS
 62
     3
 10
306.270120
 20
1056.292353
 11
315.270120
 21
1056.292353
  0
LINE
  8
CSLAYER1
  6
CONTINUOUS
 62
     3
 10
326.270120
 20
1056.292353
 11
335.270120
 21
1056.292353
  0
LINE
  8
CSLAYER1
  6
CONTINUOUS
 62
     3
 10
286.270120
 20
1029.322698
 11
286.270120
 21
1051.262008
  0
LINE
  8
CSLAYER1
  6
CONTINUOUS
 62
     3
 10
289.270120
 20
1051.042353
 11
286.270120
 21
1051.042353
  0
LINE
  8
CSLAYER1
  6
CONTINUOUS
 62
     3
 10
289.270120
 20
1029.542353
 11
286.270120
 21
1029.542353
  0
LINE
  8
CSLAYER1
  6
CONTINUOUS
 62
     3
 10
289.270120
 20
1038.780157
 11
286.270120
 21
1042.280157
  0
LINE
  8
CSLAYER1
  6
CONTINUOUS
 62
     3
 10
299.270120
 20
1048.442353
 11
299.270120
 21
1032.142353
  0
LINE
  8
CSLAYER1
  6
CONTINUOUS
 62
     3
 10
299.770120
 20
1048.942353
 11
299.270120
 21
1048.442353
  0
LINE
  8
CSLAYER1
  6
CONTINUOUS
 62
     3
 10
299.270120
 20
1032.142353
 11
299.770120
 21
1031.642353
  0
LINE
  8
CSLAYER1
  6
CONTINUOUS
 62
     3
 10
278.270120
 20
1049.292353
 11
278.270120
 21
1031.292353
  0
LINE
  8
CSLAYER1
  6
CONTINUOUS
 62
     3
 10
286.270120
 20
1045.777181
 11
279.407301
 21
1045.777181
  0
LINE
  8
CSLAYER1
  6
CONTINUOUS
 62
     3
 10
286.270120
 20
1051.262008
 11
279.407301
 21
1051.262008
  0
LINE
  8
CSLAYER1
  6
CONTINUOUS
 62
     3
 10
278.270120
 20
1049.292353
 11
279.407301
 21
1051.262008
  0
ARC
  8
CSLAYER1
  6
CONTINUOUS
 62
     3
 10
282.050164
 20
1048.519595
 40
3.808617
 50
185.661633
 51
226.059028
  0
ARC
  8
CSLAYER1
  6
CONTINUOUS
 62
     3
 10
292.065864
 20
1040.292353
 40
13.795744
 50
156.573402
 51
203.426598
  0
LINE
  8
CSLAYER1
  6
CONTINUOUS
 62
     3
 10
286.270120
 20
1034.807526
 11
279.407301
 21
1034.807526
  0
LINE
  8
CSLAYER1
  6
CONTINUOUS
 62
     3
 10
286.270120
 20
1029.322698
 11
279.407301
 21
1029.322698
  0
LINE
  8
CSLAYER1
  6
CONTINUOUS
 62
     3
 10
278.270120
 20
1031.292353
 11
279.407301
 21
1029.322698
  0
ARC
  8
CSLAYER1
  6
CONTINUOUS
 62
     3
 10
282.050164
 20
1032.065112
 40
3.808617
 50
133.940972
 51
174.338367
  0
LINE
  8
CSLAYER1
  6
CONTINUOUS
 62
     3
 10
299.270120
 20
1034.842353
 11
298.270120
 21
1034.842353
  0
LINE
  8
CSLAYER1
  6
CONTINUOUS
 62
     3
 10
299.270120
 20
1045.742353
 11
298.270120
 21
1045.742353
  0
LINE
  8
CSLAYER1
  6
CONTINUOUS
 62
     3
 10
299.770120
 20
1031.642353
 11
299.770120
 21
1048.942353
  0
LINE
  8
CSLAYER1
  6
CONTINUOUS
 62
     3
 10
299.770120
 20
1031.642353
 11
306.270120
 21
1031.642353
  0
LINE
  8
CSLAYER1
  6
CONTINUOUS
 62
     3
 10
315.270120
 20
1048.942353
 11
609.270120
 21
1048.942353
  0
LINE
  8
CSLAYER1
  6
CONTINUOUS
 62
     3
 10
306.270120
 20
1048.942353
 11
299.770120
 21
1048.942353
  0
LINE
  8
CSLAYER1
  6
CONTINUOUS
 62
     3
 10
315.270120
 20
1031.642353
 11
609.270120
 21
1031.642353
  0
LINE
  8
CSLAYER1
  6
CONTINUOUS
 62
     3
 10
326.270120
 20
1048.942353
 11
326.270120
 21
1056.292353
  0
LINE
  8
CSLAYER1
  6
CONTINUOUS
 62
     3
 10
335.270120
 20
1048.942353
 11
335.270120
 21
1056.292353
  0
LINE
  8
CSLAYER1
  6
CONTINUOUS
 62
     7
 10
599.270120
 20
1023.413620
 11
598.270120
 21
1023.413620
  0
ARC
  8
CSLAYER1
  6
CONTINUOUS
 62
     7
 10
599.270120
 20
1022.413620
 40
1.000000
 50
0.000000
 51
90.000000
  0
ARC
  8
CSLAYER1
  6
CONTINUOUS
 62
     7
 10
588.270120
 20
1022.413620
 40
1.000000
 50
90.000000
 51
180.000000
  0
LINE
  8
CSLAYER1
  6
CONTINUOUS
 62
     7
 10
589.270120
 20
1023.413620
 11
588.270120
 21
1023.413620
  0
LINE
  8
CSLAYER1
  6
CONTINUOUS
 62
     4
 10
626.270120
 20
1058.792353
 11
615.270120
 21
1058.792353
  0
LINE
  8
CSLAYER1
  6
CONTINUOUS
 62
     3
 10
615.270120
 20
1058.792353
 11
615.270120
 21
1075.992353
  0
INSERT
  8
CSLAYER1
  2
BLKF0008
 10
0.0
 20
0.0
 30
0.0
  0
LINE
  8
CSLAYER1
  6
CONTINUOUS
 62
     3
 10
635.270120
 20
1023.792353
 11
635.270120
 21
1075.992353
  0
LINE
  8
CSLAYER1
  6
CONTINUOUS
 62
     3
 10
626.270120
 20
1023.792353
 11
626.270120
 21
1075.992353
  0
LINE
  8
CSLAYER1
  6
CONTINUOUS
 62
     3
 10
635.270120
 20
1023.792353
 11
626.270120
 21
1023.792353
  0
LINE
  8
CSLAYER1
  6
CONTINUOUS
 62
     3
 10
618.270120
 20
1056.292353
 11
609.270120
 21
1056.292353
  0
LINE
  8
CSLAYER1
  6
CONTINUOUS
 62
     3
 10
598.270120
 20
1056.292353
 11
589.270120
 21
1056.292353
  0
LINE
  8
CSLAYER1
  6
CONTINUOUS
 62
     3
 10
638.270120
 20
1029.322698
 11
638.270120
 21
1051.262008
  0
LINE
  8
CSLAYER1
  6
CONTINUOUS
 62
     3
 10
635.270120
 20
1051.042353
 11
638.270120
 21
1051.042353
  0
LINE
  8
CSLAYER1
  6
CONTINUOUS
 62
     3
 10
635.270120
 20
1029.542353
 11
638.270120
 21
1029.542353
  0
LINE
  8
CSLAYER1
  6
CONTINUOUS
 62
     3
 10
635.270120
 20
1038.780157
 11
638.270120
 21
1042.280157
  0
LINE
  8
CSLAYER1
  6
CONTINUOUS
 62
     3
 10
625.270120
 20
1048.442353
 11
625.270120
 21
1032.142353
  0
LINE
  8
CSLAYER1
  6
CONTINUOUS
 62
     3
 10
624.770120
 20
1048.942353
 11
625.270120
 21
1048.442353
  0
LINE
  8
CSLAYER1
  6
CONTINUOUS
 62
     3
 10
625.270120
 20
1032.142353
 11
624.770120
 21
1031.642353
  0
LINE
  8
CSLAYER1
  6
CONTINUOUS
 62
     3
 10
646.270120
 20
1049.292353
 11
646.270120
 21
1031.292353
  0
LINE
  8
CSLAYER1
  6
CONTINUOUS
 62
     3
 10
638.270120
 20
1045.777181
 11
645.132939
 21
1045.777181
  0
LINE
  8
CSLAYER1
  6
CONTINUOUS
 62
     3
 10
638.270120
 20
1051.262008
 11
645.132939
 21
1051.262008
  0
LINE
  8
CSLAYER1
  6
CONTINUOUS
 62
     3
 10
646.270120
 20
1049.292353
 11
645.132939
 21
1051.262008
  0
ARC
  8
CSLAYER1
  6
CONTINUOUS
 62
     3
 10
642.490075
 20
1048.519595
 40
3.808617
 50
313.940972
 51
354.338367
  0
ARC
  8
CSLAYER1
  6
CONTINUOUS
 62
     3
 10
632.474375
 20
1040.292353
 40
13.795744
 50
-23.426598
 51
23.426598
  0
LINE
  8
CSLAYER1
  6
CONTINUOUS
 62
     3
 10
638.270120
 20
1034.807526
 11
645.132939
 21
1034.807526
  0
LINE
  8
CSLAYER1
  6
CONTINUOUS
 62
     3
 10
638.270120
 20
1029.322698
 11
645.132939
 21
1029.322698
  0
LINE
  8
CSLAYER1
  6
CONTINUOUS
 62
     3
 10
646.270120
 20
1031.292353
 11
645.132939
 21
1029.322698
  0
ARC
  8
CSLAYER1
  6
CONTINUOUS
 62
     3
 10
642.490075
 20
1032.065112
 40
3.808617
 50
5.661633
 51
46.059028
  0
LINE
  8
CSLAYER1
  6
CONTINUOUS
 62
     3
 10
625.270120
 20
1034.842353
 11
626.270120
 21
1034.842353
  0
LINE
  8
CSLAYER1
  6
CONTINUOUS
 62
     3
 10
625.270120
 20
1045.742353
 11
626.270120
 21
1045.742353
  0
LINE
  8
CSLAYER1
  6
CONTINUOUS
 62
     3
 10
624.770120
 20
1031.642353
 11
624.770120
 21
1048.942353
  0
LINE
  8
CSLAYER1
  6
CONTINUOUS
 62
     3
 10
624.770120
 20
1031.642353
 11
618.270120
 21
1031.642353
  0
LINE
  8
CSLAYER1
  6
CONTINUOUS
 62
     3
 10
618.270120
 20
1048.942353
 11
624.770120
 21
1048.942353
  0
LINE
  8
CSLAYER1
  6
CONTINUOUS
 62
     3
 10
598.270120
 20
1048.942353
 11
598.270120
 21
1056.292353
  0
LINE
  8
CSLAYER1
  6
CONTINUOUS
 62
     3
 10
589.270120
 20
1048.942353
 11
589.270120
 21
1056.292353
  0
LINE
  8
CSLAYER1
  6
CONTINUOUS
 62
     3
 10
472.689010
 20
693.042248
 11
472.830446
 21
693.042248
  0
LINE
  8
CSLAYER1
  6
CONTINUOUS
 62
     3
 10
470.597398
 20
686.085164
 11
470.597398
 21
603.834200
  0
LINE
  8
CSLAYER1
  6
CONTINUOUS
 62
     3
 10
474.980015
 20
685.531309
 11
474.980015
 21
603.302457
  0
LINE
  8
CSLAYER1
  6
CONTINUOUS
 62
     3
 10
490.632222
 20
681.453847
 11
490.632222
 21
599.370665
  0
LINE
  8
CSLAYER1
  6
CONTINUOUS
 62
     3
 10
495.014840
 20
679.614510
 11
495.014840
 21
597.613708
  0
LINE
  8
CSLAYER1
  6
CONTINUOUS
 62
     3
 10
504.696527
 20
674.108596
 11
504.696527
 21
592.348904
  0
LINE
  8
CSLAYER1
  6
CONTINUOUS
 62
     3
 10
508.232786
 20
671.379765
 11
508.232786
 21
589.795050
  0
LINE
  8
CSLAYER1
  6
CONTINUOUS
 62
     3
 10
516.648587
 20
662.038771
 11
516.648587
 21
581.422567
  0
LINE
  8
CSLAYER1
  6
CONTINUOUS
 62
     3
 10
453.942842
 20
686.085164
 11
453.942842
 21
603.834200
  0
LINE
  8
CSLAYER1
  6
CONTINUOUS
 62
     3
 10
449.560224
 20
685.531309
 11
449.560224
 21
603.302457
  0
LINE
  8
CSLAYER1
  6
CONTINUOUS
 62
     3
 10
433.908017
 20
681.453847
 11
433.908017
 21
599.370665
  0
LINE
  8
CSLAYER1
  6
CONTINUOUS
 62
     3
 10
429.525400
 20
679.614510
 11
429.525400
 21
597.613708
  0
LINE
  8
CSLAYER1
  6
CONTINUOUS
 62
     3
 10
419.843713
 20
674.108596
 11
419.843713
 21
592.348904
  0
LINE
  8
CSLAYER1
  6
CONTINUOUS
 62
     3
 10
416.307453
 20
671.379765
 11
416.307453
 21
589.795050
  0
LINE
  8
CSLAYER1
  6
CONTINUOUS
 62
     3
 10
407.891652
 20
662.038771
 11
407.891652
 21
581.422567
  0
LINE
  8
CSLAYER1
  6
CONTINUOUS
 62
     3
 10
370.270120
 20
457.906329
 11
370.270120
 21
585.080832
  0
LINE
  8
CSLAYER1
  6
CONTINUOUS
 62
     7
 10
547.270120
 20
632.552379
 11
547.270120
 21
538.017755
  0
LINE
  8
CSLAYER1
  6
CONTINUOUS
 62
     7
 10
526.270120
 20
635.552379
 11
526.270120
 21
535.017755
  0
LINE
  8
CSLAYER1
  6
CONTINUOUS
 62
     7
 10
526.270120
 20
535.017755
 11
544.270120
 21
535.017755
  0
LINE
  8
CSLAYER1
  6
CONTINUOUS
 62
     7
 10
526.270120
 20
576.410773
 11
545.488715
 21
576.410773
  0
LINE
  8
CSLAYER1
  6
CONTINUOUS
 62
     7
 10
526.270120
 20
635.552379
 11
544.270120
 21
635.552379
  0
ARC
  8
CSLAYER1
  6
CONTINUOUS
 62
     7
 10
544.270120
 20
632.552379
 40
3.000000
 50
0.000000
 51
90.000000
  0
ARC
  8
CSLAYER1
  6
CONTINUOUS
 62
     7
 10
544.270120
 20
538.017755
 40
3.000000
 50
270.000000
 51
360.000000
  0
LINE
  8
CSLAYER1
  6
CONTINUOUS
 62
     3
 10
553.770120
 20
478.906329
 11
553.770120
 21
585.080832
  0
LINE
  8
CSLAYER1
  6
CONTINUOUS
 62
     3
 10
335.270120
 20
585.080832
 11
402.270120
 21
585.080832
  0
LINE
  8
CSLAYER1
  6
CONTINUOUS
 62
     3
 10
522.270120
 20
637.281015
 11
589.270120
 21
637.281015
  0
LINE
  8
CSLAYER1
  6
CONTINUOUS
 62
     3
 10
335.270120
 20
648.769646
 11
402.270120
 21
648.769646
  0
LINE
  8
CSLAYER1
  6
CONTINUOUS
 62
     3
 10
522.270120
 20
648.769646
 11
589.270120
 21
648.769646
  0
LINE
  8
CSLAYER1
  6
CONTINUOUS
 62
     3
 10
522.270120
 20
585.080832
 11
526.270120
 21
585.080832
  0
LINE
  8
CSLAYER1
  6
CONTINUOUS
 62
     3
 10
547.270120
 20
585.080832
 11
589.270120
 21
585.080832
  0
LINE
  8
CSLAYER1
  6
CONTINUOUS
 62
     3
 10
370.270120
 20
512.206329
 11
401.183768
 21
512.206329
  0
LINE
  8
CSLAYER1
  6
CONTINUOUS
 62
     3
 10
370.270120
 20
506.206329
 11
403.325446
 21
506.206329
  0
LINE
  8
CSLAYER1
  6
CONTINUOUS
 62
     3
 10
523.356471
 20
512.206329
 11
553.770120
 21
512.206329
  0
LINE
  8
CSLAYER1
  6
CONTINUOUS
 62
     3
 10
521.214793
 20
506.206329
 11
553.770120
 21
506.206329
  0
LINE
  8
CSLAYER1
  6
CONTINUOUS
 62
     3
 10
2379.786665
 20
2061.498757
 11
2396.202648
 21
2076.804631
  0
LINE
  8
CSLAYER1
  6
CONTINUOUS
 62
     3
 10
2379.969039
 20
2060.228016
 11
2399.231457
 21
2068.539719
  0
LINE
  8
CSLAYER1
  6
CONTINUOUS
 62
     3
 10
2380.273967
 20
2058.461234
 11
2401.203996
 21
2059.224361
  0
LINE
  8
CSLAYER1
  6
CONTINUOUS
 62
     3
 10
2380.316283
 20
2056.958521
 11
2400.899120
 21
2049.806867
  0
TEXT
  8
CSLAYER1
 62
     4
 10
2711.874079
 20
952.703663
 40
45.879784
 41
0.605080
  1
最大使用頻度８０回／時間・最大起動頻度１０回／分
 50
0.000000
 51
0.000000
  7
EASYDRAW_FONT
 72
     5
 11
3368.882757
 21
952.703663
  0
LINE
  8
CSLAYER1
  6
CONTINUOUS
 62
     5
 10
3417.080844
 20
1263.968548
 11
2696.208327
 21
1263.968548
  0
TEXT
  8
CSLAYER1
 62
     3
 10
2935.579102
 20
1275.916260
 40
40.000000
 41
0.825000
  1
マグネットスイッチ制御
 50
0.000000
 51
0.000000
  7
EASYDRAW_FONT
 72
     5
 11
3287.579102
 21
1275.916260
  0
TEXT
  8
CSLAYER1
 62
     3
 10
2709.649414
 20
1273.712891
 40
40.000000
 41
0.872727
  1
制御方式
 50
0.000000
 51
0.000000
  7
EASYDRAW_FONT
 72
     5
 11
2837.649414
 21
1273.712891
  0
LINE
  8
CSLAYER1
  6
CONTINUOUS
 62
     7
 10
1132.715545
 20
535.906329
 11
1152.715545
 21
535.906329
  0
INSERT
  8
CSLAYER1
  2
BLKF0009
 10
0.0
 20
0.0
 30
0.0
  0
INSERT
  8
CSLAYER1
  2
BLKF0010
 10
0.0
 20
0.0
 30
0.0
  0
LINE
  8
CSLAYER1
  6
CONTINUOUS
 62
     3
 10
1147.715545
 20
543.906329
 11
1147.715545
 21
551.706329
  0
LINE
  8
CSLAYER1
  6
CONTINUOUS
 62
     4
 10
1146.715545
 20
543.906329
 11
1146.715545
 21
551.706329
  0
LINE
  8
CSLAYER1
  6
CONTINUOUS
 62
     3
 10
1137.715545
 20
543.906329
 11
1137.715545
 21
551.706329
  0
LINE
  8
CSLAYER1
  6
CONTINUOUS
 62
     4
 10
1138.715545
 20
543.906329
 11
1138.715545
 21
551.706329
  0
LINE
  8
CSLAYER1
  6
CONTINUOUS
 62
     7
 10
1152.715545
 20
457.906329
 11
1152.715545
 21
535.906329
  0
LINE
  8
CSLAYER1
  6
CENTER
 62
     5
 10
1142.715545
 20
457.906329
 11
1142.715545
 21
562.906329
  0
LINE
  8
CSLAYER1
  6
CONTINUOUS
 62
     7
 10
1132.715545
 20
457.906329
 11
1132.715545
 21
535.906329
  0
LINE
  8
CSLAYER1
  6
CONTINUOUS
 62
     7
 10
1114.242275
 20
457.906329
 11
1132.715545
 21
476.686422
  0
LINE
  8
CSLAYER1
  6
CONTINUOUS
 62
     4
 10
1170.715545
 20
478.906329
 11
1155.981267
 21
478.906329
  0
LINE
  8
CSLAYER1
  6
CONTINUOUS
 62
     4
 10
1185.715545
 20
463.906329
 11
1185.715545
 21
457.906329
  0
LINE
  8
CSLAYER1
  6
CONTINUOUS
 62
     4
 10
1170.715545
 20
478.906329
 11
1185.715545
 21
463.906329
  0
LINE
  8
CSLAYER1
  6
CONTINUOUS
 62
     3
 10
1131.433531
 20
475.383115
 11
1132.715545
 21
475.301323
  0
LINE
  8
CSLAYER1
  6
CONTINUOUS
 62
     3
 10
1156.271216
 20
500.633328
 11
1155.453294
 21
487.813084
  0
LINE
  8
CSLAYER1
  6
CONTINUOUS
 62
     3
 10
1153.089889
 20
474.491992
 11
1152.570173
 21
474.034614
  0
LINE
  8
CSLAYER1
  6
CONTINUOUS
 62
     3
 10
1163.012132
 20
507.486204
 11
1155.031163
 21
475.044239
  0
LINE
  8
CSLAYER1
  6
CONTINUOUS
 62
     3
 10
1161.638874
 20
506.090137
 11
1157.046179
 21
487.421222
  0
LINE
  8
CSLAYER1
  6
CONTINUOUS
 62
     3
 10
1153.821230
 20
474.312076
 11
1152.715545
 21
474.584083
  0
LINE
  8
CSLAYER1
  6
CONTINUOUS
 62
     3
 10
1157.046179
 20
487.421222
 11
1152.715545
 21
488.486591
  0
ARC
  8
CSLAYER1
  6
CONTINUOUS
 62
     3
 10
1154.060115
 20
475.283124
 40
1.000000
 50
256.179252
 51
346.179252
  0
LINE
  8
CSLAYER1
  6
CONTINUOUS
 62
     3
 10
1158.837818
 20
494.704081
 11
1155.938441
 21
495.417350
  0
LINE
  8
CSLAYER1
  6
CONTINUOUS
 62
     3
 10
1159.076703
 20
495.675129
 11
1156.003127
 21
496.431252
  0
LINE
  8
CSLAYER1
  6
CONTINUOUS
 62
     3
 10
1153.056622
 20
497.365343
 11
1152.715545
 21
492.019249
  0
LINE
  8
CSLAYER1
  6
CONTINUOUS
 62
     3
 10
1127.545616
 20
471.430625
 11
1132.715545
 21
465.556066
  0
INSERT
  8
CSLAYER1
  2
BLKF0011
 10
0.0
 20
0.0
 30
0.0
  0
INSERT
  8
CSLAYER1
  2
BLKF0012
 10
0.0
 20
0.0
 30
0.0
  0
LINE
  8
CSLAYER1
  6
CONTINUOUS
 62
     5
 10
2545.656493
 20
2237.255323
 11
2413.579523
 21
2075.334882
  0
LINE
  8
CSLAYER1
  6
CONTINUOUS
 62
     5
 10
2413.579523
 20
2075.334882
 11
2425.879028
 21
2102.697669
  0
LINE
  8
CSLAYER1
  6
CONTINUOUS
 62
     5
 10
2413.579523
 20
2075.334882
 11
2437.912601
 21
2092.881998
  0
LINE
  8
CSLAYER1
  6
CONTINUOUS
 62
     5
 10
2595.753784
 20
2108.995268
 11
2459.502371
 21
1910.340091
  0
LINE
  8
CSLAYER1
  6
CONTINUOUS
 62
     5
 10
2459.502371
 20
1910.340091
 11
2469.489434
 21
1938.628933
  0
LINE
  8
CSLAYER1
  6
CONTINUOUS
 62
     5
 10
2459.502371
 20
1910.340091
 11
2482.295842
 21
1929.845415
  0
TEXT
  8
CSLAYER1
 62
     5
 10
2606.825195
 20
2011.471313
 40
40.000000
 41
1.020000
  1
コード長サ２ｍ
 50
360.000000
 51
0.000000
  7
EASYDRAW_FONT
 72
     5
 11
2878.825195
 21
2011.471313
  0
TEXT
  8
CSLAYER1
 62
     3
 10
2710.963379
 20
1785.807617
 40
40.000000
 41
1.036364
  1
積載荷重
 50
0.000000
 51
0.000000
  7
EASYDRAW_FONT
 72
     5
 11
2862.963379
 21
1785.807617
  0
LINE
  8
CSLAYER1
  6
CONTINUOUS
 62
     5
 10
3417.080844
 20
751.968561
 11
2696.208327
 21
751.968561
  0
TEXT
  8
CSLAYER1
 62
     3
 10
3026.067627
 20
762.639954
 40
40.000000
 41
0.926087
  1
　１０Ｒ４／１３
 50
0.000000
 51
0.000000
  7
EASYDRAW_FONT
 72
     5
 11
3310.067627
 21
762.639954
  0
INSERT
  8
CSLAYER1
  2
BLKF0013
 10
0.0
 20
0.0
 30
0.0
  0
ENDSEC
  0
EOF
