  0
SECTION
  2
HEADER
  9
$ACADVER
  1
AC1006
  9
$INSBASE
 10
-122.915309
 20
4302.866450
 30
0.0
  9
$EXTMIN
 10
-122.915309
 20
4302.866450
  9
$EXTMAX
 10
7157.084691
 20
9442.866450
  9
$LIMMIN
 10
-122.915309
 20
4302.866450
  9
$LIMMAX
 10
7157.084691
 20
9442.866450
  9
$VIEWCTR
 10
3517.084691
 20
6872.866450
  9
$VIEWSIZE
 40
5140.000000
  9
$SNAPMODE
 70
     0
  9
$SNAPUNIT
 10
1.0
 20
1.0
  9
$SNAPBASE
 10
0.0
 20
0.0
  9
$SNAPANG
 50
0.0
  9
$SNAPSTYLE
 70
     0
  9
$SNAPISOPAIR
 70
     0
  9
$GRIDMODE
 70
     0
  9
$GRIDUNIT
 10
0.0
 20
0.0
  9
$ORTHOMODE
 70
     0
  9
$REGENMODE
 70
     1
  9
$FILLMODE
 70
     1
  9
$QTEXTMODE
 70
     0
  9
$DRAGMODE
 70
     2
  9
$LTSCALE
 40
15.000000
  9
$OSMODE
 70
     0
  9
$ATTMODE
 70
     1
  9
$TEXTSIZE
 40
0.2
  9
$TRACEWID
 40
0.05
  9
$TEXTSTYLE
  7
STANDARD
  9
$CLAYER
  8
CSLAYER1
  9
$CELTYPE
  6
BYLAYER
  9
$CECOLOR
 62
   256
  9
$DIMSCALE
 40
1.0
  9
$DIMASZ
 40
0.18
  9
$DIMEXO
 40
0.0625
  9
$DIMDLI
 40
0.38
  9
$DIMRND
 40
0.0
  9
$DIMDLE
 40
0.0
  9
$DIMEXE
 40
0.18
  9
$DIMTP
 40
0.0
  9
$DIMTM
 40
0.0
  9
$DIMTXT
 40
0.18
  9
$DIMCEN
 40
0.09
  9
$DIMTSZ
 40
0.0
  9
$DIMTOL
 70
     0
  9
$DIMLIM
 70
     0
  9
$DIMTIH
 70
     1
  9
$DIMTOH
 70
     1
  9
$DIMSE1
 70
     0
  9
$DIMSE2
 70
     0
  9
$DIMTAD
 70
     0
  9
$DIMZIN
 70
     0
  9
$DIMBLK
  1

  9
$LUNITS
 70
     2
  9
$LUPREC
 70
     4
  9
$AXISMODE
 70
     0
  9
$AXISUNIT
 10
0.0
 20
0.0
  9
$SKETCHINC
 40
0.1
  9
$FILLETRAD
 40
0.0
  9
$AUNITS
 70
     0
  9
$AUPREC
 70
     0
  9
$MENU
  1
ACAD
  9
$ELEVATION
 40
0.0
  9
$THICKNESS
 40
0.0
  9
$VIEWDIR
 10
0.0
 20
0.0
 30
1.0
  9
$LIMCHECK
 70
     0
  9
$BLIPMODE
 70
     1
  9
$CHAMFERA
 40
0.0
  9
$CHAMFERB
 40
0.0
  9
$FASTZOOM
 70
     1
  9
$SKPOLY
 70
     0
  9
$TDCREATE
 40
2457497.000000
  9
$TDUPDATE
 40
2457497.000000
  9
$TDINDWG
 40
0.0
  9
$TDUSRTIMER
 40
0.0
  9
$USRTIMER
 70
     1
  9
$ANGBASE
 50
0.0
  9
$ANGDIR
 70
     0
  9
$PDMODE
 70
     0
  9
$PDSIZE
 40
0.0
  9
$PLINEWID
 40
0.0
  9
$COORDS
 70
     0
  9
$USERI1
 70
     0
  9
$USERI2
 70
     0
  9
$USERI3
 70
     0
  9
$USERI4
 70
     0
  9
$USERI5
 70
     0
  9
$USERR1
 40
0.0
  9
$USERR2
 40
0.0
  9
$USERR3
 40
0.0
  9
$USERR4
 40
0.0
  9
$USERR5
 40
0.0
  0
ENDSEC
  0
SECTION
  2
TABLES
  0
TABLE
  2
LTYPE
 70
     9
  0
LTYPE
  2
CONTINUOUS
 70
    64
  3
Solid line
 72
    65
 73
     0
 40
0.0
  0
LTYPE
  2
DASHED
 70
    64
  3
__ __ __ __ __ __ __ __ __ __ __ __ __ __ __
 72
    65
 73
     2
 40
0.75
 49
0.5
 49
-0.25
  0
LTYPE
  2
HIDDEN
 70
    64
  3
_ _ _ _ _ _ _ _ _ _ _ _ _ _ _ _ _ _ _ _ _ _ _
 72
    65
 73
     2
 40
0.375
 49
0.25
 49
-0.125
  0
LTYPE
  2
DOT
 70
    64
  3
...............................................
 72
    65
 73
     2
 40
0.25
 49
0.0
 49
-0.25
  0
LTYPE
  2
DASHDOT
 70
    64
  3
__ . __ . __ . __ . __ . __ . __ . __ . __ . __
 72
    65
 73
     4
 40
1.0
 49
0.5
 49
-0.25
 49
0.0
 49
-0.25
  0
LTYPE
  2
DIVIDE
 70
    64
  3
__ . . __ . . __ . . __ . . __ . . __ . . __
 72
    65
 73
     6
 40
1.25
 49
0.5
 49
-0.25
 49
0.0
 49
-0.25
 49
0.0
 49
-0.25
  0
LTYPE
  2
CENTER
 70
    64
  3
____ _ ____ _ ____ _ ____ _ ____ _ ____ _ ____ 
 72
    65
 73
     4
 40
2.0
 49
1.25
 49
-0.25
 49
0.25
 49
-0.25
  0
LTYPE
  2
PHANTOM
 70
    64
  3
______  __  __  ______  __  __  ______  __  __ 
 72
    65
 73
     6
 40
2.5
 49
1.25
 49
-0.25
 49
0.25
 49
-0.25
 49
0.25
 49
-0.25
  0
LTYPE
  2
BORDER
 70
    64
  3
__ __ . __ __ . __ __ . __ __ . __ __ . __ __ .
 72
    65
 73
     6
 40
1.75
 49
0.5
 49
-0.25
 49
0.5
 49
-0.25
 49
0.0
 49
-0.25
  0
ENDTAB
  0
TABLE
  2
LAYER
 70
    16
  0
LAYER
  2
CSLAYER1
 70
    64
 62
     7
  6
CONTINUOUS
  0
LAYER
  2
CSLAYER2
 70
    64
 62
     7
  6
CONTINUOUS
  0
LAYER
  2
CSLAYER3
 70
    64
 62
     7
  6
CONTINUOUS
  0
LAYER
  2
CSLAYER4
 70
    64
 62
     7
  6
CONTINUOUS
  0
LAYER
  2
CSLAYER5
 70
    64
 62
     7
  6
CONTINUOUS
  0
LAYER
  2
CSLAYER6
 70
    64
 62
     7
  6
CONTINUOUS
  0
LAYER
  2
CSLAYER7
 70
    64
 62
     7
  6
CONTINUOUS
  0
LAYER
  2
CSLAYER8
 70
    64
 62
     7
  6
CONTINUOUS
  0
LAYER
  2
CSLAYER9
 70
    64
 62
     7
  6
CONTINUOUS
  0
LAYER
  2
CSLAYER10
 70
    64
 62
     7
  6
CONTINUOUS
  0
LAYER
  2
CSLAYER11
 70
    64
 62
     7
  6
CONTINUOUS
  0
LAYER
  2
CSLAYER12
 70
    64
 62
     7
  6
CONTINUOUS
  0
LAYER
  2
CSLAYER13
 70
    64
 62
     7
  6
CONTINUOUS
  0
LAYER
  2
CSLAYER14
 70
    64
 62
     7
  6
CONTINUOUS
  0
LAYER
  2
CSLAYER15
 70
    64
 62
     7
  6
CONTINUOUS
  0
LAYER
  2
CSLAYER16
 70
    64
 62
     7
  6
CONTINUOUS
  0
ENDTAB
  0
TABLE
  2
STYLE
 70
     1
  0
STYLE
  2
EASYDRAW_FONT
 70
     0
 40
1.0
 41
1.0
 50
0.0
 71
     0
 42
1.0
  3
monotxt
  4
bigfont
  0
ENDTAB
  0
TABLE
  2
VIEW
 70
     0
  0
ENDTAB
  0
ENDSEC
  0
SECTION
  2
BLOCKS
  0
BLOCK
  8
CSLAYER1
  2
*D0000
 70
    65
 10
0.0
 20
0.0
 30
0.0
  0
TEXT
  8
CSLAYER1
 62
     3
 10
3903.377441
 20
1032.329224
 40
80.000000
 41
0.843750
  1
600
 50
90.000000
 51
0.000000
  7
EASYDRAW_FONT
 72
     5
 11
3903.377441
 21
1212.329224
  0
LINE
  8
CSLAYER1
  6
CONTINUOUS
 62
     5
 10
3657.370145
 20
822.329123
 11
4081.105692
 21
822.329123
  0
LINE
  8
CSLAYER1
  6
CONTINUOUS
 62
     5
 10
3657.170145
 20
1422.329123
 11
3933.377590
 21
1422.329123
  0
LINE
  8
CSLAYER1
  6
CONTINUOUS
 62
     5
 10
3918.377590
 20
822.329123
 11
3918.377590
 21
1422.329123
  0
LINE
  8
CSLAYER1
  6
CONTINUOUS
 62
     5
 10
3918.377590
 20
822.329123
 11
3902.848447
 21
880.284672
  0
LINE
  8
CSLAYER1
  6
CONTINUOUS
 62
     5
 10
3918.377590
 20
822.329123
 11
3933.906733
 21
880.284672
  0
LINE
  8
CSLAYER1
  6
CONTINUOUS
 62
     5
 10
3918.377590
 20
1422.329123
 11
3902.848447
 21
1364.373573
  0
LINE
  8
CSLAYER1
  6
CONTINUOUS
 62
     5
 10
3918.377590
 20
1422.329123
 11
3933.906733
 21
1364.373573
  0
ENDBLK
  8
0
  0
BLOCK
  8
CSLAYER1
  2
*D0001
 70
    65
 10
0.0
 20
0.0
 30
0.0
  0
TEXT
  8
CSLAYER1
 62
     3
 10
3903.377441
 20
2177.329346
 40
80.000000
 41
0.818182
  1
1750
 50
90.000000
 51
0.000000
  7
EASYDRAW_FONT
 72
     5
 11
3903.377441
 21
2417.329346
  0
LINE
  8
CSLAYER1
  6
CONTINUOUS
 62
     5
 10
3657.170145
 20
3172.329123
 11
4081.105692
 21
3172.329123
  0
LINE
  8
CSLAYER1
  6
CONTINUOUS
 62
     5
 10
3918.377590
 20
1422.329123
 11
3918.377590
 21
3172.329123
  0
LINE
  8
CSLAYER1
  6
CONTINUOUS
 62
     5
 10
3918.377590
 20
1422.329123
 11
3902.848447
 21
1480.284672
  0
LINE
  8
CSLAYER1
  6
CONTINUOUS
 62
     5
 10
3918.377590
 20
1422.329123
 11
3933.906733
 21
1480.284672
  0
LINE
  8
CSLAYER1
  6
CONTINUOUS
 62
     5
 10
3918.377590
 20
3172.329123
 11
3902.848447
 21
3114.373573
  0
LINE
  8
CSLAYER1
  6
CONTINUOUS
 62
     5
 10
3918.377590
 20
3172.329123
 11
3933.906733
 21
3114.373573
  0
ENDBLK
  8
0
  0
BLOCK
  8
CSLAYER1
  2
*D0002
 70
    65
 10
0.0
 20
0.0
 30
0.0
  0
TEXT
  8
CSLAYER1
 62
     3
 10
4051.105225
 20
1877.329346
 40
80.000000
 41
0.818182
  1
2350
 50
90.000000
 51
0.000000
  7
EASYDRAW_FONT
 72
     5
 11
4051.105225
 21
2117.329346
  0
LINE
  8
CSLAYER1
  6
CONTINUOUS
 62
     5
 10
4066.105692
 20
822.329123
 11
4066.105692
 21
3172.329123
  0
LINE
  8
CSLAYER1
  6
CONTINUOUS
 62
     5
 10
4066.105692
 20
822.329123
 11
4050.576550
 21
880.284672
  0
LINE
  8
CSLAYER1
  6
CONTINUOUS
 62
     5
 10
4066.105692
 20
822.329123
 11
4081.634835
 21
880.284672
  0
LINE
  8
CSLAYER1
  6
CONTINUOUS
 62
     5
 10
4066.105692
 20
3172.329123
 11
4050.576550
 21
3114.373573
  0
LINE
  8
CSLAYER1
  6
CONTINUOUS
 62
     5
 10
4066.105692
 20
3172.329123
 11
4081.634835
 21
3114.373573
  0
ENDBLK
  8
0
  0
BLOCK
  8
CSLAYER1
  2
*D0003
 70
    65
 10
0.0
 20
0.0
 30
0.0
  0
TEXT
  8
CSLAYER1
 62
     3
 10
2463.921875
 20
599.317993
 40
80.000000
 41
0.900000
  1
50
 50
0.000000
 51
0.000000
  7
EASYDRAW_FONT
 72
     5
 11
2583.921875
 21
599.317993
  0
LINE
  8
CSLAYER1
  6
CONTINUOUS
 62
     5
 10
2592.370145
 20
807.329123
 11
2592.370145
 21
474.724475
  0
LINE
  8
CSLAYER1
  6
CONTINUOUS
 62
     5
 10
2642.370145
 20
807.329123
 11
2642.370145
 21
677.003162
  0
LINE
  8
CSLAYER1
  6
CONTINUOUS
 62
     5
 10
2592.370145
 20
692.003162
 11
2642.370145
 21
692.003162
  0
ENDBLK
  8
0
  0
BLOCK
  8
CSLAYER1
  2
*D0004
 70
    65
 10
0.0
 20
0.0
 30
0.0
  0
TEXT
  8
CSLAYER1
 62
     3
 10
2802.370361
 20
707.003052
 40
80.000000
 41
0.843750
  1
500
 50
0.000000
 51
0.000000
  7
EASYDRAW_FONT
 72
     5
 11
2982.370361
 21
707.003052
  0
LINE
  8
CSLAYER1
  6
CONTINUOUS
 62
     5
 10
3142.370145
 20
807.329123
 11
3142.370145
 21
677.003162
  0
LINE
  8
CSLAYER1
  6
CONTINUOUS
 62
     5
 10
2642.370145
 20
692.003162
 11
3142.370145
 21
692.003162
  0
LINE
  8
CSLAYER1
  6
CONTINUOUS
 62
     5
 10
2642.370145
 20
692.003162
 11
2700.325694
 21
707.532305
  0
LINE
  8
CSLAYER1
  6
CONTINUOUS
 62
     5
 10
2642.370145
 20
692.003162
 11
2700.325694
 21
676.474020
  0
LINE
  8
CSLAYER1
  6
CONTINUOUS
 62
     5
 10
3142.370145
 20
692.003162
 11
3084.414595
 21
707.532305
  0
LINE
  8
CSLAYER1
  6
CONTINUOUS
 62
     5
 10
3142.370145
 20
692.003162
 11
3084.414595
 21
676.474020
  0
ENDBLK
  8
0
  0
BLOCK
  8
CSLAYER1
  2
*D0005
 70
    65
 10
0.0
 20
0.0
 30
0.0
  0
TEXT
  8
CSLAYER1
 62
     3
 10
1372.876587
 20
687.044067
 40
80.000000
 41
0.843750
  1
440
 50
0.000000
 51
0.000000
  7
EASYDRAW_FONT
 72
     5
 11
1552.876587
 21
687.044067
  0
LINE
  8
CSLAYER1
  6
CONTINUOUS
 62
     5
 10
1242.588727
 20
676.001325
 11
1682.588727
 21
676.001325
  0
LINE
  8
CSLAYER1
  6
CONTINUOUS
 62
     5
 10
1242.588727
 20
676.001325
 11
1300.544277
 21
691.530468
  0
LINE
  8
CSLAYER1
  6
CONTINUOUS
 62
     5
 10
1242.588727
 20
676.001325
 11
1300.544277
 21
660.472182
  0
LINE
  8
CSLAYER1
  6
CONTINUOUS
 62
     5
 10
1682.588727
 20
676.001325
 11
1624.633178
 21
691.530468
  0
LINE
  8
CSLAYER1
  6
CONTINUOUS
 62
     5
 10
1682.588727
 20
676.001325
 11
1624.633178
 21
660.472182
  0
ENDBLK
  8
0
  0
BLOCK
  8
CSLAYER1
  2
EASYDRAWDIM0000
 70
   64
 10
0.0
 20
0.0
 30
0.0
  0
TEXT
  8
CSLAYER1
 62
     6
 10
1870.096954
 20
593.529419
 40
64.000000
 41
0.827586
  1
アンカーボルト取付穴
 50
0.000000
 51
0.000000
  7
EASYDRAW_FONT
 72
     5
 11
2382.096924
 21
593.529419
  0
ENDBLK
  8
0
  0
BLOCK
  8
CSLAYER1
  2
EASYDRAWDIM0001
 70
   64
 10
0.0
 20
0.0
 30
0.0
  0
TEXT
  8
CSLAYER1
 62
     3
 10
1906.684570
 20
674.872192
 40
80.000000
 41
0.803571
  1
4-%%c13
 50
0.000000
 51
0.000000
  7
EASYDRAW_FONT
 72
     5
 11
2206.684570
 21
674.872192
  0
LINE
  8
CSLAYER1
  6
CONTINUOUS
 62
     5
 10
2642.370145
 20
822.329123
 11
2430.553040
 21
665.223365
  0
LINE
  8
CSLAYER1
  6
CONTINUOUS
 62
     5
 10
2642.370145
 20
822.329123
 11
2605.072155
 21
775.330613
  0
LINE
  8
CSLAYER1
  6
CONTINUOUS
 62
     5
 10
2642.370145
 20
822.329123
 11
2586.569883
 21
800.276214
  0
LINE
  8
CSLAYER1
  6
CONTINUOUS
 62
     5
 10
2430.553040
 20
665.223365
 11
1846.833974
 21
665.223365
  0
ENDBLK
  8
0
  0
BLOCK
  8
CSLAYER1
  2
EASYDRAWDIM0002
 70
   64
 10
0.0
 20
0.0
 30
0.0
  0
TEXT
  8
CSLAYER1
 62
     6
 10
3372.613037
 20
1538.665649
 40
80.000000
 41
0.834783
  1
ギヤードモーター
 50
0.000000
 51
0.000000
  7
EASYDRAW_FONT
 72
     5
 11
3884.613037
 21
1538.665649
  0
LINE
  8
CSLAYER1
  6
CONTINUOUS
 62
     5
 10
3365.770765
 20
1518.665555
 11
3872.613296
 21
1518.665555
  0
ENDBLK
  8
0
  0
BLOCK
  8
CSLAYER1
  2
*D0006
 70
    65
 10
0.0
 20
0.0
 30
0.0
  0
TEXT
  8
CSLAYER1
 62
     3
 10
1372.588745
 20
498.136383
 40
80.000000
 41
0.843750
  1
500
 50
0.000000
 51
0.000000
  7
EASYDRAW_FONT
 72
     5
 11
1552.588745
 21
498.136383
  0
LINE
  8
CSLAYER1
  6
CONTINUOUS
 62
     5
 10
1212.588727
 20
802.329123
 11
1212.588727
 21
458.136292
  0
LINE
  8
CSLAYER1
  6
CONTINUOUS
 62
     5
 10
1712.588727
 20
802.329123
 11
1712.588727
 21
458.136292
  0
LINE
  8
CSLAYER1
  6
CONTINUOUS
 62
     5
 10
1212.588727
 20
478.136292
 11
1712.588727
 21
478.136292
  0
LINE
  8
CSLAYER1
  6
CONTINUOUS
 62
     5
 10
1212.588727
 20
478.136292
 11
1270.544277
 21
493.665434
  0
LINE
  8
CSLAYER1
  6
CONTINUOUS
 62
     5
 10
1212.588727
 20
478.136292
 11
1270.544277
 21
462.607149
  0
LINE
  8
CSLAYER1
  6
CONTINUOUS
 62
     5
 10
1712.588727
 20
478.136292
 11
1654.633178
 21
493.665434
  0
LINE
  8
CSLAYER1
  6
CONTINUOUS
 62
     5
 10
1712.588727
 20
478.136292
 11
1654.633178
 21
462.607149
  0
ENDBLK
  8
0
  0
BLOCK
  8
CSLAYER1
  2
*D0007
 70
    65
 10
0.0
 20
0.0
 30
0.0
  0
TEXT
  8
CSLAYER1
 62
     3
 10
2997.369873
 20
514.724731
 40
80.000000
 41
0.818182
  1
1050
 50
0.000000
 51
0.000000
  7
EASYDRAW_FONT
 72
     5
 11
3237.369873
 21
514.724731
  0
LINE
  8
CSLAYER1
  6
CONTINUOUS
 62
     5
 10
3642.370145
 20
802.329123
 11
3642.370145
 21
474.724475
  0
LINE
  8
CSLAYER1
  6
CONTINUOUS
 62
     5
 10
2592.370145
 20
494.724475
 11
3642.370145
 21
494.724475
  0
LINE
  8
CSLAYER1
  6
CONTINUOUS
 62
     5
 10
2592.370145
 20
494.724475
 11
2650.325694
 21
510.253618
  0
LINE
  8
CSLAYER1
  6
CONTINUOUS
 62
     5
 10
2592.370145
 20
494.724475
 11
2650.325694
 21
479.195333
  0
LINE
  8
CSLAYER1
  6
CONTINUOUS
 62
     5
 10
3642.370145
 20
494.724475
 11
3584.414595
 21
510.253618
  0
LINE
  8
CSLAYER1
  6
CONTINUOUS
 62
     5
 10
3642.370145
 20
494.724475
 11
3584.414595
 21
479.195333
  0
ENDBLK
  8
0
  0
BLOCK
  8
CSLAYER1
  2
*D0008
 70
    65
 10
0.0
 20
0.0
 30
0.0
  0
TEXT
  8
CSLAYER1
 62
     3
 10
3785.130371
 20
4039.329102
 40
80.000000
 41
0.843750
  1
600
 50
90.000000
 51
0.000000
  7
EASYDRAW_FONT
 72
     5
 11
3785.130371
 21
4219.329102
  0
LINE
  8
CSLAYER1
  6
CONTINUOUS
 62
     5
 10
3662.170145
 20
3829.329123
 11
3825.130421
 21
3829.329123
  0
LINE
  8
CSLAYER1
  6
CONTINUOUS
 62
     5
 10
3662.170145
 20
4429.329123
 11
3825.130421
 21
4429.329123
  0
LINE
  8
CSLAYER1
  6
CONTINUOUS
 62
     5
 10
3805.130421
 20
3829.329123
 11
3805.130421
 21
4429.329123
  0
LINE
  8
CSLAYER1
  6
CONTINUOUS
 62
     5
 10
3805.130421
 20
3829.329123
 11
3789.601279
 21
3887.284672
  0
LINE
  8
CSLAYER1
  6
CONTINUOUS
 62
     5
 10
3805.130421
 20
3829.329123
 11
3820.659564
 21
3887.284672
  0
LINE
  8
CSLAYER1
  6
CONTINUOUS
 62
     5
 10
3805.130421
 20
4429.329123
 11
3789.601279
 21
4371.373573
  0
LINE
  8
CSLAYER1
  6
CONTINUOUS
 62
     5
 10
3805.130421
 20
4429.329123
 11
3820.659564
 21
4371.373573
  0
ENDBLK
  8
0
  0
BLOCK
  8
CSLAYER1
  2
*D0009
 70
    65
 10
0.0
 20
0.0
 30
0.0
  0
TEXT
  8
CSLAYER1
 62
     3
 10
1817.037476
 20
891.073792
 40
80.000000
 41
1.125000
  1
6
 50
90.000000
 51
0.000000
  7
EASYDRAW_FONT
 72
     5
 11
1817.037476
 21
951.073792
  0
LINE
  8
CSLAYER1
  6
CONTINUOUS
 62
     5
 10
1732.588727
 20
822.329123
 11
1851.519090
 21
822.329123
  0
LINE
  8
CSLAYER1
  6
CONTINUOUS
 62
     5
 10
1732.588727
 20
828.329123
 11
1851.519090
 21
828.329123
  0
LINE
  8
CSLAYER1
  6
CONTINUOUS
 62
     5
 10
1831.519090
 20
822.329123
 11
1831.519090
 21
722.329123
  0
LINE
  8
CSLAYER1
  6
CONTINUOUS
 62
     5
 10
1831.519090
 20
822.329123
 11
1815.989948
 21
764.373573
  0
LINE
  8
CSLAYER1
  6
CONTINUOUS
 62
     5
 10
1831.519090
 20
822.329123
 11
1847.048233
 21
764.373573
  0
LINE
  8
CSLAYER1
  6
CONTINUOUS
 62
     5
 10
1831.519090
 20
828.329123
 11
1831.519090
 21
909.695356
  0
LINE
  8
CSLAYER1
  6
CONTINUOUS
 62
     5
 10
1831.519090
 20
828.329123
 11
1815.989948
 21
886.284672
  0
LINE
  8
CSLAYER1
  6
CONTINUOUS
 62
     5
 10
1831.519090
 20
828.329123
 11
1847.048233
 21
886.284672
  0
LINE
  8
CSLAYER1
  6
CONTINUOUS
 62
     5
 10
1831.519090
 20
822.329123
 11
1831.519090
 21
828.329123
  0
ENDBLK
  8
0
  0
BLOCK
  8
CSLAYER1
  2
BLKF0000
 70
   64
 10
0.0
 20
0.0
 30
0.0
  0
ARC
  8
CSLAYER1
  6
CONTINUOUS
 62
     5
 10
5567.039650
 20
156.244827
 40
7.098449
 50
6.429109
 51
73.182034
  0
ARC
  8
CSLAYER1
  6
CONTINUOUS
 62
     5
 10
5560.117709
 20
153.928041
 40
13.815508
 50
310.517970
 51
330.092764
  0
ARC
  8
CSLAYER1
  6
CONTINUOUS
 62
     5
 10
5559.996410
 20
154.659077
 40
14.296642
 50
-32.205059
 51
9.585194
  0
ARC
  8
CSLAYER1
  6
CONTINUOUS
 62
     5
 10
5566.581866
 20
149.137081
 40
9.535029
 50
180.000000
 51
218.514150
  0
ARC
  8
CSLAYER1
  6
CONTINUOUS
 62
     5
 10
5564.008424
 20
147.782800
 40
6.696564
 50
222.781148
 51
319.406906
  0
ARC
  8
CSLAYER1
  6
CONTINUOUS
 62
     5
 10
5570.139708
 20
149.962585
 40
13.118869
 50
94.574282
 51
183.607718
  0
LINE
  8
CSLAYER1
  6
CONTINUOUS
 62
     5
 10
5597.027520
 20
139.728920
 11
5595.313448
 21
133.651755
  0
LINE
  8
CSLAYER1
  6
CONTINUOUS
 62
     5
 10
5600.611490
 20
179.464235
 11
5596.404221
 21
184.918102
  0
LINE
  8
CSLAYER1
  6
CONTINUOUS
 62
     5
 10
5596.404221
 20
184.918102
 11
5582.897512
 21
192.433926
  0
LINE
  8
CSLAYER1
  6
CONTINUOUS
 62
     5
 10
5582.897512
 20
192.433926
 11
5569.093458
 21
194.039667
  0
LINE
  8
CSLAYER1
  6
CONTINUOUS
 62
     5
 10
5532.515007
 20
167.282320
 11
5536.808396
 21
177.210781
  0
LINE
  8
CSLAYER1
  6
CONTINUOUS
 62
     5
 10
5536.734401
 20
177.039667
 11
5541.101785
 21
182.309181
  0
LINE
  8
CSLAYER1
  6
CONTINUOUS
 62
     5
 10
5541.101785
 20
182.309181
 11
5547.710629
 21
187.039667
  0
LINE
  8
CSLAYER1
  6
CONTINUOUS
 62
     5
 10
5569.093458
 20
194.039667
 11
5566.057107
 21
192.505979
  0
LINE
  8
CSLAYER1
  6
CONTINUOUS
 62
     5
 10
5566.057107
 20
192.505979
 11
5559.080350
 21
192.505979
  0
LINE
  8
CSLAYER1
  6
CONTINUOUS
 62
     5
 10
5559.080350
 20
192.505979
 11
5551.969425
 21
188.615095
  0
LINE
  8
CSLAYER1
  6
CONTINUOUS
 62
     5
 10
5551.969425
 20
188.615095
 11
5547.710629
 21
187.039667
  0
LINE
  8
CSLAYER1
  6
CONTINUOUS
 62
     5
 10
5532.515007
 20
167.282320
 11
5529.479913
 21
152.185114
  0
LINE
  8
CSLAYER1
  6
CONTINUOUS
 62
     5
 10
5529.479913
 20
152.185114
 11
5529.093458
 21
147.039667
  0
LINE
  8
CSLAYER1
  6
CONTINUOUS
 62
     5
 10
5534.512224
 20
131.360103
 11
5529.093458
 21
143.552325
  0
LINE
  8
CSLAYER1
  6
CONTINUOUS
 62
     5
 10
5529.093458
 20
143.552325
 11
5529.093458
 21
147.039667
  0
LINE
  8
CSLAYER1
  6
CONTINUOUS
 62
     5
 10
5595.313448
 20
133.651755
 11
5591.941874
 21
127.645742
  0
LINE
  8
CSLAYER1
  6
CONTINUOUS
 62
     5
 10
5591.941874
 20
127.645742
 11
5589.093458
 21
125.008320
  0
ARC
  8
CSLAYER1
  6
CONTINUOUS
 62
     5
 10
5564.709569
 20
148.113189
 40
34.533253
 50
208.054813
 51
260.640470
  0
ARC
  8
CSLAYER1
  6
CONTINUOUS
 62
     5
 10
5554.322778
 20
173.598127
 40
59.749222
 50
274.579659
 51
305.587364
  0
ARC
  8
CSLAYER1
  6
CONTINUOUS
 62
     5
 10
5576.267476
 20
161.630682
 40
30.177253
 50
313.467013
 51
331.085078
  0
LINE
  8
CSLAYER1
  6
CONTINUOUS
 62
     5
 10
5605.850141
 20
154.066509
 11
5606.444729
 21
161.630682
  0
LINE
  8
CSLAYER1
  6
CONTINUOUS
 62
     5
 10
5606.444729
 20
161.630682
 11
5603.860735
 21
173.848649
  0
LINE
  8
CSLAYER1
  6
CONTINUOUS
 62
     5
 10
5605.850141
 20
154.066509
 11
5602.682792
 21
147.039667
  0
ARC
  8
CSLAYER1
  6
CONTINUOUS
 62
     5
 10
5576.267476
 20
161.630682
 40
30.177253
 50
23.883193
 51
36.225170
  0
LINE
  8
CSLAYER1
  6
CONTINUOUS
 62
     5
 10
5497.093458
 20
217.039667
 11
5499.093458
 21
219.224956
  0
LINE
  8
CSLAYER1
  6
CONTINUOUS
 62
     5
 10
5497.093458
 20
217.039667
 11
5500.247374
 21
214.149601
  0
LINE
  8
CSLAYER1
  6
CONTINUOUS
 62
     5
 10
5503.325799
 20
209.931018
 11
5503.378336
 21
205.594780
  0
LINE
  8
CSLAYER1
  6
CONTINUOUS
 62
     5
 10
5503.378336
 20
205.594780
 11
5503.793132
 21
204.073862
  0
LINE
  8
CSLAYER1
  6
CONTINUOUS
 62
     5
 10
5503.793132
 20
204.073862
 11
5504.968387
 21
202.622076
  0
LINE
  8
CSLAYER1
  6
CONTINUOUS
 62
     5
 10
5504.968387
 20
202.622076
 11
5506.143642
 21
202.760341
  0
LINE
  8
CSLAYER1
  6
CONTINUOUS
 62
     5
 10
5506.143642
 20
202.760341
 11
5507.388030
 21
203.106004
  0
LINE
  8
CSLAYER1
  6
CONTINUOUS
 62
     5
 10
5507.388030
 20
203.106004
 11
5508.217622
 21
202.760341
  0
LINE
  8
CSLAYER1
  6
CONTINUOUS
 62
     5
 10
5508.217622
 20
202.760341
 11
5510.015071
 21
201.861616
  0
LINE
  8
CSLAYER1
  6
CONTINUOUS
 62
     5
 10
5510.015071
 20
201.861616
 11
5511.567174
 21
201.039667
  0
LINE
  8
CSLAYER1
  6
CONTINUOUS
 62
     5
 10
5511.567174
 20
201.039667
 11
5512.572980
 21
201.101157
  0
LINE
  8
CSLAYER1
  6
CONTINUOUS
 62
     5
 10
5512.572980
 20
201.101157
 11
5518.188724
 21
203.994116
  0
LINE
  8
CSLAYER1
  6
CONTINUOUS
 62
     5
 10
5499.093458
 20
219.224956
 11
5499.759162
 21
222.172371
  0
LINE
  8
CSLAYER1
  6
CONTINUOUS
 62
     5
 10
5499.759162
 20
222.172371
 11
5502.665972
 21
222.473075
  0
LINE
  8
CSLAYER1
  6
CONTINUOUS
 62
     5
 10
5505.653489
 20
228.009993
 11
5509.161835
 21
228.324173
  0
LINE
  8
CSLAYER1
  6
CONTINUOUS
 62
     5
 10
5509.161835
 20
228.324173
 11
5516.230890
 21
229.999801
  0
LINE
  8
CSLAYER1
  6
CONTINUOUS
 62
     5
 10
5516.230890
 20
229.999801
 11
5519.093458
 21
230.663079
  0
LINE
  8
CSLAYER1
  6
CONTINUOUS
 62
     5
 10
5505.653489
 20
228.009993
 11
5501.787707
 21
228.327728
  0
LINE
  8
CSLAYER1
  6
CONTINUOUS
 62
     5
 10
5500.315461
 20
226.590354
 11
5500.502511
 21
225.848031
  0
LINE
  8
CSLAYER1
  6
CONTINUOUS
 62
     5
 10
5500.502511
 20
225.848031
 11
5501.485700
 21
224.772669
  0
LINE
  8
CSLAYER1
  6
CONTINUOUS
 62
     5
 10
5501.485700
 20
224.772669
 11
5502.837583
 21
223.758756
  0
LINE
  8
CSLAYER1
  6
CONTINUOUS
 62
     5
 10
5502.837583
 20
223.758756
 11
5503.084233
 21
223.429890
  0
LINE
  8
CSLAYER1
  6
CONTINUOUS
 62
     5
 10
5500.247374
 20
214.149601
 11
5503.325799
 21
209.931018
  0
ARC
  8
CSLAYER1
  6
CONTINUOUS
 62
     5
 10
5589.066859
 20
-126.277638
 40
361.454927
 50
80.438896
 51
96.353582
  0
ARC
  8
CSLAYER1
  6
CONTINUOUS
 62
     5
 10
5539.269033
 20
164.218162
 40
69.440483
 50
81.866516
 51
106.890578
  0
LINE
  8
CSLAYER1
  6
CONTINUOUS
 62
     5
 10
5657.481981
 20
228.573008
 11
5661.976146
 21
226.530205
  0
LINE
  8
CSLAYER1
  6
CONTINUOUS
 62
     5
 10
5669.125954
 20
223.363862
 11
5661.976146
 21
226.530205
  0
LINE
  8
CSLAYER1
  6
CONTINUOUS
 62
     5
 10
5657.481981
 20
228.573008
 11
5649.093458
 21
230.158151
  0
LINE
  8
CSLAYER1
  6
CONTINUOUS
 62
     5
 10
5669.093458
 20
223.378253
 11
5672.836609
 21
220.241299
  0
LINE
  8
CSLAYER1
  6
CONTINUOUS
 62
     5
 10
5635.579970
 20
225.451955
 11
5637.378520
 21
228.357304
  0
LINE
  8
CSLAYER1
  6
CONTINUOUS
 62
     5
 10
5637.378520
 20
228.357304
 11
5646.729717
 21
226.118285
  0
LINE
  8
CSLAYER1
  6
CONTINUOUS
 62
     5
 10
5646.729717
 20
226.118285
 11
5680.214489
 21
217.039667
  0
LINE
  8
CSLAYER1
  6
CONTINUOUS
 62
     5
 10
5686.093458
 20
217.039667
 11
5672.836609
 21
220.241299
  0
LINE
  8
CSLAYER1
  6
CONTINUOUS
 62
     5
 10
5680.214489
 20
217.039667
 11
5686.093458
 21
217.039667
  0
LINE
  8
CSLAYER1
  6
CONTINUOUS
 62
     5
 10
5569.093458
 20
225.969550
 11
5609.093458
 21
227.039667
  0
LINE
  8
CSLAYER1
  6
CONTINUOUS
 62
     5
 10
5609.093458
 20
227.039667
 11
5635.579970
 21
225.451955
  0
LINE
  8
CSLAYER1
  6
CONTINUOUS
 62
     5
 10
5638.785932
 20
221.330995
 11
5609.093458
 21
224.039667
  0
LINE
  8
CSLAYER1
  6
CONTINUOUS
 62
     5
 10
5609.093458
 20
224.039667
 11
5578.995039
 21
224.856971
  0
LINE
  8
CSLAYER1
  6
CONTINUOUS
 62
     5
 10
5579.093458
 20
224.854299
 11
5569.093458
 21
225.044887
  0
LINE
  8
CSLAYER1
  6
CONTINUOUS
 62
     5
 10
5569.093458
 20
225.969550
 11
5569.093458
 21
225.044887
  0
LINE
  8
CSLAYER1
  6
CONTINUOUS
 62
     5
 10
5684.093458
 20
210.039667
 11
5666.408341
 21
214.660992
  0
LINE
  8
CSLAYER1
  6
CONTINUOUS
 62
     5
 10
5638.785932
 20
221.330995
 11
5659.093458
 21
217.386228
  0
LINE
  8
CSLAYER1
  6
CONTINUOUS
 62
     5
 10
5659.093458
 20
217.386228
 11
5666.408341
 21
214.660992
  0
LINE
  8
CSLAYER1
  6
CONTINUOUS
 62
     5
 10
5684.093458
 20
210.039667
 11
5683.508224
 21
208.361456
  0
LINE
  8
CSLAYER1
  6
CONTINUOUS
 62
     5
 10
5703.093458
 20
199.039667
 11
5702.481403
 21
201.497629
  0
LINE
  8
CSLAYER1
  6
CONTINUOUS
 62
     5
 10
5683.508224
 20
208.361456
 11
5702.481403
 21
201.497629
  0
LINE
  8
CSLAYER1
  6
CONTINUOUS
 62
     5
 10
5576.093458
 20
210.039667
 11
5580.939534
 21
210.039667
  0
LINE
  8
CSLAYER1
  6
CONTINUOUS
 62
     5
 10
5621.093458
 20
210.904658
 11
5621.093458
 21
210.039667
  0
LINE
  8
CSLAYER1
  6
CONTINUOUS
 62
     5
 10
5619.093458
 20
211.973540
 11
5615.670900
 21
213.247897
  0
LINE
  8
CSLAYER1
  6
CONTINUOUS
 62
     5
 10
5615.670900
 20
213.247897
 11
5613.450788
 21
213.348811
  0
LINE
  8
CSLAYER1
  6
CONTINUOUS
 62
     5
 10
5613.450788
 20
213.348811
 11
5612.492103
 21
212.844240
  0
LINE
  8
CSLAYER1
  6
CONTINUOUS
 62
     5
 10
5612.492103
 20
212.844240
 11
5612.290274
 21
212.036927
  0
LINE
  8
CSLAYER1
  6
CONTINUOUS
 62
     5
 10
5612.290274
 20
212.036927
 11
5613.198502
 21
211.431442
  0
LINE
  8
CSLAYER1
  6
CONTINUOUS
 62
     5
 10
5613.198502
 20
211.431442
 11
5616.478213
 21
211.128699
  0
LINE
  8
CSLAYER1
  6
CONTINUOUS
 62
     5
 10
5616.478213
 20
211.128699
 11
5621.093458
 21
210.904658
  0
LINE
  8
CSLAYER1
  6
CONTINUOUS
 62
     5
 10
5703.093458
 20
199.039667
 11
5697.142373
 21
201.412830
  0
LINE
  8
CSLAYER1
  6
CONTINUOUS
 62
     5
 10
5697.142373
 20
201.412830
 11
5677.030994
 21
205.098581
  0
LINE
  8
CSLAYER1
  6
CONTINUOUS
 62
     5
 10
5677.030994
 20
205.098581
 11
5666.979433
 21
207.418172
  0
LINE
  8
CSLAYER1
  6
CONTINUOUS
 62
     5
 10
5622.161900
 20
212.039667
 11
5645.693232
 21
212.039667
  0
LINE
  8
CSLAYER1
  6
CONTINUOUS
 62
     5
 10
5619.093458
 20
211.973540
 11
5620.142778
 21
211.356606
  0
LINE
  8
CSLAYER1
  6
CONTINUOUS
 62
     5
 10
5620.142778
 20
211.356606
 11
5620.736401
 21
211.178519
  0
LINE
  8
CSLAYER1
  6
CONTINUOUS
 62
     5
 10
5620.736401
 20
211.178519
 11
5621.093458
 21
211.228859
  0
LINE
  8
CSLAYER1
  6
CONTINUOUS
 62
     5
 10
5621.093458
 20
211.228859
 11
5622.161900
 21
212.039667
  0
LINE
  8
CSLAYER1
  6
CONTINUOUS
 62
     5
 10
5645.693232
 20
212.039667
 11
5654.593770
 21
209.982016
  0
LINE
  8
CSLAYER1
  6
CONTINUOUS
 62
     5
 10
5654.593770
 20
209.982016
 11
5662.900153
 21
207.651719
  0
LINE
  8
CSLAYER1
  6
CONTINUOUS
 62
     5
 10
5662.900153
 20
207.651719
 11
5666.979433
 21
207.418172
  0
LINE
  8
CSLAYER1
  6
CONTINUOUS
 62
     5
 10
5574.093458
 20
208.039667
 11
5574.093458
 21
207.039667
  0
LINE
  8
CSLAYER1
  6
CONTINUOUS
 62
     5
 10
5569.093458
 20
207.039667
 11
5574.093458
 21
207.039667
  0
ARC
  8
CSLAYER1
  6
CONTINUOUS
 62
     5
 10
5576.093458
 20
208.039667
 40
2.000000
 50
90.000000
 51
180.000000
  0
LINE
  8
CSLAYER1
  6
CONTINUOUS
 62
     5
 10
5580.939534
 20
210.039667
 11
5582.334648
 21
208.895674
  0
LINE
  8
CSLAYER1
  6
CONTINUOUS
 62
     5
 10
5583.539384
 20
208.847753
 11
5585.254577
 21
210.039667
  0
LINE
  8
CSLAYER1
  6
CONTINUOUS
 62
     5
 10
5588.411370
 20
210.039667
 11
5591.745620
 21
208.723516
  0
LINE
  8
CSLAYER1
  6
CONTINUOUS
 62
     5
 10
5592.593038
 20
208.776540
 11
5594.900013
 21
210.039667
  0
LINE
  8
CSLAYER1
  6
CONTINUOUS
 62
     5
 10
5585.254577
 20
210.039667
 11
5588.411370
 21
210.039667
  0
LINE
  8
CSLAYER1
  6
CONTINUOUS
 62
     5
 10
5594.900013
 20
210.039667
 11
5621.093458
 21
210.039667
  0
LINE
  8
CSLAYER1
  6
CONTINUOUS
 62
     5
 10
5526.191424
 20
203.822015
 11
5569.093458
 21
207.039667
  0
LINE
  8
CSLAYER1
  6
CONTINUOUS
 62
     5
 10
5518.188724
 20
203.994116
 11
5526.191424
 21
203.822015
  0
ARC
  8
CSLAYER1
  6
CONTINUOUS
 62
     5
 10
5582.968727
 20
209.668942
 40
1.000000
 50
230.648247
 51
304.796026
  0
ARC
  8
CSLAYER1
  6
CONTINUOUS
 62
     5
 10
5592.112787
 20
209.653671
 40
1.000000
 50
248.459024
 51
298.701829
  0
ARC
  8
CSLAYER1
  6
CONTINUOUS
 62
     5
 10
5502.604233
 20
223.069890
 40
0.600000
 50
-84.093859
 51
36.869898
  0
ARC
  8
CSLAYER1
  6
CONTINUOUS
 62
     5
 10
5501.673025
 20
226.932433
 40
1.400000
 50
85.301319
 51
194.142980
  0
LINE
  8
CSLAYER1
  6
CONTINUOUS
 62
     3
 10
5566.057107
 20
192.505979
 11
5582.278098
 21
192.505979
  0
LINE
  8
CSLAYER1
  6
CONTINUOUS
 62
     3
 10
5553.232074
 20
189.305979
 11
5588.518755
 21
189.305979
  0
LINE
  8
CSLAYER1
  6
CONTINUOUS
 62
     3
 10
5546.406196
 20
186.105979
 11
5594.269485
 21
186.105979
  0
LINE
  8
CSLAYER1
  6
CONTINUOUS
 62
     3
 10
5541.935557
 20
182.905979
 11
5597.956431
 21
182.905979
  0
LINE
  8
CSLAYER1
  6
CONTINUOUS
 62
     3
 10
5538.944246
 20
179.705979
 11
5600.425002
 21
179.705979
  0
LINE
  8
CSLAYER1
  6
CONTINUOUS
 62
     3
 10
5536.503617
 20
176.505979
 11
5602.523755
 21
176.505979
  0
LINE
  8
CSLAYER1
  6
CONTINUOUS
 62
     3
 10
5535.119833
 20
173.305979
 11
5603.975505
 21
173.305979
  0
LINE
  8
CSLAYER1
  6
CONTINUOUS
 62
     3
 10
5533.736049
 20
170.105979
 11
5604.652277
 21
170.105979
  0
LINE
  8
CSLAYER1
  6
CONTINUOUS
 62
     3
 10
5532.439349
 20
166.905979
 11
5605.329050
 21
166.905979
  0
LINE
  8
CSLAYER1
  6
CONTINUOUS
 62
     3
 10
5531.796031
 20
163.705979
 11
5606.005822
 21
163.705979
  0
LINE
  8
CSLAYER1
  6
CONTINUOUS
 62
     3
 10
5531.152713
 20
160.505979
 11
5562.333199
 21
160.505979
  0
LINE
  8
CSLAYER1
  6
CONTINUOUS
 62
     3
 10
5530.509396
 20
157.305979
 11
5559.268678
 21
157.305979
  0
LINE
  8
CSLAYER1
  6
CONTINUOUS
 62
     3
 10
5529.866078
 20
154.105979
 11
5557.692338
 21
154.105979
  0
LINE
  8
CSLAYER1
  6
CONTINUOUS
 62
     3
 10
5529.383842
 20
150.905979
 11
5557.054803
 21
150.905979
  0
LINE
  8
CSLAYER1
  6
CONTINUOUS
 62
     3
 10
5529.143502
 20
147.705979
 11
5557.154845
 21
147.705979
  0
LINE
  8
CSLAYER1
  6
CONTINUOUS
 62
     3
 10
5529.093458
 20
144.505979
 11
5558.247019
 21
144.505979
  0
LINE
  8
CSLAYER1
  6
CONTINUOUS
 62
     3
 10
5530.091834
 20
141.305979
 11
5562.307024
 21
141.305979
  0
LINE
  8
CSLAYER1
  6
CONTINUOUS
 62
     3
 10
5531.514056
 20
138.105979
 11
5596.569768
 21
138.105979
  0
LINE
  8
CSLAYER1
  6
CONTINUOUS
 62
     3
 10
5532.936279
 20
134.905979
 11
5595.667203
 21
134.905979
  0
LINE
  8
CSLAYER1
  6
CONTINUOUS
 62
     3
 10
5534.358501
 20
131.705979
 11
5594.221155
 21
131.705979
  0
LINE
  8
CSLAYER1
  6
CONTINUOUS
 62
     3
 10
5536.282419
 20
128.505979
 11
5592.424782
 21
128.505979
  0
LINE
  8
CSLAYER1
  6
CONTINUOUS
 62
     3
 10
5538.779341
 20
125.305979
 11
5589.414929
 21
125.305979
  0
LINE
  8
CSLAYER1
  6
CONTINUOUS
 62
     3
 10
5541.990181
 20
122.105979
 11
5584.630008
 21
122.105979
  0
LINE
  8
CSLAYER1
  6
CONTINUOUS
 62
     3
 10
5546.284465
 20
118.905979
 11
5578.379761
 21
118.905979
  0
LINE
  8
CSLAYER1
  6
CONTINUOUS
 62
     3
 10
5552.779846
 20
115.705979
 11
5569.103464
 21
115.705979
  0
LINE
  8
CSLAYER1
  6
CONTINUOUS
 62
     3
 10
5572.716847
 20
160.505979
 11
5606.356321
 21
160.505979
  0
LINE
  8
CSLAYER1
  6
CONTINUOUS
 62
     3
 10
5574.058335
 20
157.305979
 11
5606.104782
 21
157.305979
  0
LINE
  8
CSLAYER1
  6
CONTINUOUS
 62
     3
 10
5574.282349
 20
154.105979
 11
5605.853243
 21
154.105979
  0
LINE
  8
CSLAYER1
  6
CONTINUOUS
 62
     3
 10
5573.791635
 20
150.905979
 11
5604.425531
 21
150.905979
  0
LINE
  8
CSLAYER1
  6
CONTINUOUS
 62
     3
 10
5572.488343
 20
147.705979
 11
5602.983132
 21
147.705979
  0
LINE
  8
CSLAYER1
  6
CONTINUOUS
 62
     3
 10
5570.221817
 20
144.505979
 11
5601.115235
 21
144.505979
  0
LINE
  8
CSLAYER1
  6
CONTINUOUS
 62
     3
 10
5565.709824
 20
141.305979
 11
5598.573821
 21
141.305979
  0
TEXT
  8
CSLAYER1
 62
     5
 10
5607.437069
 20
156.528312
 40
9.426896
 41
1.951056
  1
M
 50
0.000000
 51
0.000000
  7
EASYDRAW_FONT
 72
     5
 11
5619.698673
 21
156.528312
  0
TEXT
  8
CSLAYER1
 62
     5
 10
5626.740332
 20
156.411770
 40
9.253242
 41
0.778201
  1
T
 50
0.000000
 51
0.000000
  7
EASYDRAW_FONT
 72
     5
 11
5631.540918
 21
156.411770
  0
TEXT
  8
CSLAYER1
 62
     5
 10
5632.271457
 20
156.481369
 40
9.392365
 41
1.055553
  1
E
 50
0.000000
 51
0.000000
  7
EASYDRAW_FONT
 72
     5
 11
5638.880887
 21
156.481369
  0
TEXT
  8
CSLAYER1
 62
     5
 10
5638.503819
 20
159.713057
 40
0.696567
 41
9.375319
  1
-
 50
0.000000
 51
0.000000
  7
EASYDRAW_FONT
 72
     5
 11
5642.857509
 21
159.713057
  0
TEXT
  8
CSLAYER1
 62
     5
 10
5642.131750
 20
156.418675
 40
9.723318
 41
1.298502
  1
H
 50
0.000000
 51
0.000000
  7
EASYDRAW_FONT
 72
     5
 11
5650.548914
 21
156.418675
  0
TEXT
  8
CSLAYER1
 62
     5
 10
5650.283780
 20
156.479432
 40
9.686277
 41
1.269236
  1
A
 50
0.000000
 51
0.000000
  7
EASYDRAW_FONT
 72
     5
 11
5658.479892
 21
156.479432
  0
TEXT
  8
CSLAYER1
 62
     5
 10
5657.696580
 20
156.396379
 40
9.650723
 41
1.490144
  1
N
 50
0.000000
 51
0.000000
  7
EASYDRAW_FONT
 72
     5
 11
5667.283889
 21
156.396379
  0
TEXT
  8
CSLAYER1
 62
     5
 10
5619.279007
 20
156.351233
 40
9.964649
 41
1.177443
  1
A
 50
0.000000
 51
0.000000
  7
EASYDRAW_FONT
 72
     5
 11
5627.100876
 21
156.351233
  0
TEXT
  8
CSLAYER1
 62
     5
 10
5608.171097
 20
142.360754
 40
9.964649
 41
1.177443
  1
A
 50
0.000000
 51
0.000000
  7
EASYDRAW_FONT
 72
     5
 11
5615.992966
 21
142.360754
  0
TEXT
  8
CSLAYER1
 62
     5
 10
5633.740433
 20
142.417395
 40
9.964649
 41
1.177443
  1
A
 50
0.000000
 51
0.000000
  7
EASYDRAW_FONT
 72
     5
 11
5641.562302
 21
142.417395
  0
TEXT
  8
CSLAYER1
 62
     5
 10
5641.261521
 20
142.531389
 40
9.650723
 41
1.490144
  1
N
 50
0.000000
 51
0.000000
  7
EASYDRAW_FONT
 72
     5
 11
5650.848830
 21
142.531389
  0
TEXT
  8
CSLAYER1
 62
     5
 10
5659.066193
 20
142.548178
 40
9.683551
 41
1.184218
  1
E
 50
0.000000
 51
0.000000
  7
EASYDRAW_FONT
 72
     5
 11
5666.711150
 21
142.548178
  0
TEXT
  8
CSLAYER1
 62
     5
 10
5616.732692
 20
142.358105
 40
9.895729
 41
1.093992
  1
D
 50
0.000000
 51
0.000000
  7
EASYDRAW_FONT
 72
     5
 11
5623.949925
 21
142.358105
  0
TEXT
  8
CSLAYER1
 62
     5
 10
5625.537409
 20
142.347335
 40
9.848420
 41
1.228195
  1
V
 50
0.000000
 51
0.000000
  7
EASYDRAW_FONT
 72
     5
 11
5633.601263
 21
142.347335
  0
TEXT
  8
CSLAYER1
 62
     5
 10
5649.987811
 20
142.388798
 40
10.065787
 41
1.481023
  1
C
 50
0.000000
 51
0.000000
  7
EASYDRAW_FONT
 72
     5
 11
5659.926251
 21
142.388798
  0
LINE
  8
CSLAYER1
  6
CONTINUOUS
 62
     5
 10
5631.248132
 20
164.509612
 11
5629.224008
 21
164.509612
  0
LINE
  8
CSLAYER1
  6
CONTINUOUS
 62
     3
 10
5529.444608
 20
232.960154
 11
5629.040260
 21
232.960154
  0
LINE
  8
CSLAYER1
  6
CONTINUOUS
 62
     3
 10
5515.219880
 20
229.760154
 11
5651.199643
 21
229.760154
  0
LINE
  8
CSLAYER1
  6
CONTINUOUS
 62
     3
 10
5500.323071
 20
226.560154
 11
5591.169691
 21
226.560154
  0
LINE
  8
CSLAYER1
  6
CONTINUOUS
 62
     3
 10
5617.092791
 20
226.560154
 11
5636.265998
 21
226.560154
  0
LINE
  8
CSLAYER1
  6
CONTINUOUS
 62
     3
 10
5644.884265
 20
226.560154
 11
5661.910259
 21
226.560154
  0
LINE
  8
CSLAYER1
  6
CONTINUOUS
 62
     3
 10
5503.129349
 20
223.360154
 11
5616.542288
 21
223.360154
  0
LINE
  8
CSLAYER1
  6
CONTINUOUS
 62
     3
 10
5656.902564
 20
223.360154
 11
5669.115055
 21
223.360154
  0
LINE
  8
CSLAYER1
  6
CONTINUOUS
 62
     3
 10
5499.304682
 20
220.160154
 11
5644.813384
 21
220.160154
  0
LINE
  8
CSLAYER1
  6
CONTINUOUS
 62
     3
 10
5668.705162
 20
220.160154
 11
5673.172605
 21
220.160154
  0
LINE
  8
CSLAYER1
  6
CONTINUOUS
 62
     3
 10
5497.180231
 20
216.960154
 11
5660.237096
 21
216.960154
  0
LINE
  8
CSLAYER1
  6
CONTINUOUS
 62
     3
 10
5500.531565
 20
213.760154
 11
5669.855713
 21
213.760154
  0
LINE
  8
CSLAYER1
  6
CONTINUOUS
 62
     3
 10
5502.866700
 20
210.560154
 11
5621.093458
 21
210.560154
  0
LINE
  8
CSLAYER1
  6
CONTINUOUS
 62
     3
 10
5652.092988
 20
210.560154
 11
5682.101634
 21
210.560154
  0
LINE
  8
CSLAYER1
  6
CONTINUOUS
 62
     3
 10
5503.356947
 20
207.360154
 11
5574.093458
 21
207.360154
  0
LINE
  8
CSLAYER1
  6
CONTINUOUS
 62
     3
 10
5667.230845
 20
207.360154
 11
5686.276051
 21
207.360154
  0
LINE
  8
CSLAYER1
  6
CONTINUOUS
 62
     3
 10
5503.769597
 20
204.160154
 11
5530.699944
 21
204.160154
  0
LINE
  8
CSLAYER1
  6
CONTINUOUS
 62
     3
 10
5682.151543
 20
204.160154
 11
5695.121580
 21
204.160154
  0
LINE
  8
CSLAYER1
  6
CONTINUOUS
 62
     3
 10
5698.277532
 20
200.960154
 11
5702.615240
 21
200.960154
  0
ENDBLK
  8
0
  0
BLOCK
  8
CSLAYER1
  2
BLKF0001
 70
   64
 10
0.0
 20
0.0
 30
0.0
  0
LINE
  8
CSLAYER1
  6
CONTINUOUS
 62
     3
 10
1483.588727
 20
1783.129725
 11
1498.588727
 21
1783.129725
  0
LINE
  8
CSLAYER1
  6
CONTINUOUS
 62
     3
 10
1441.588727
 20
1783.129725
 11
1426.588727
 21
1783.129725
  0
LINE
  8
CSLAYER1
  6
CONTINUOUS
 62
     3
 10
1462.588727
 20
1754.854931
 11
1465.225189
 21
1754.917624
  0
LINE
  8
CSLAYER1
  6
CONTINUOUS
 62
     3
 10
1465.225189
 20
1754.917624
 11
1467.841585
 21
1755.105228
  0
LINE
  8
CSLAYER1
  6
CONTINUOUS
 62
     3
 10
1467.841585
 20
1755.105228
 11
1470.418003
 21
1755.416314
  0
LINE
  8
CSLAYER1
  6
CONTINUOUS
 62
     3
 10
1470.418003
 20
1755.416314
 11
1472.934837
 21
1755.848515
  0
LINE
  8
CSLAYER1
  6
CONTINUOUS
 62
     3
 10
1472.934837
 20
1755.848515
 11
1475.372930
 21
1756.398541
  0
LINE
  8
CSLAYER1
  6
CONTINUOUS
 62
     3
 10
1475.372930
 20
1756.398541
 11
1477.713727
 21
1757.062207
  0
LINE
  8
CSLAYER1
  6
CONTINUOUS
 62
     3
 10
1477.713727
 20
1757.062207
 11
1479.939415
 21
1757.834461
  0
LINE
  8
CSLAYER1
  6
CONTINUOUS
 62
     3
 10
1479.939415
 20
1757.834461
 11
1482.033053
 21
1758.709426
  0
LINE
  8
CSLAYER1
  6
CONTINUOUS
 62
     3
 10
1482.033053
 20
1758.709426
 11
1483.978707
 21
1759.680443
  0
LINE
  8
CSLAYER1
  6
CONTINUOUS
 62
     3
 10
1483.978707
 20
1759.680443
 11
1485.761572
 21
1760.740123
  0
LINE
  8
CSLAYER1
  6
CONTINUOUS
 62
     3
 10
1485.761572
 20
1760.740123
 11
1487.368077
 21
1761.880400
  0
LINE
  8
CSLAYER1
  6
CONTINUOUS
 62
     3
 10
1487.368077
 20
1761.880400
 11
1488.785996
 21
1763.092596
  0
LINE
  8
CSLAYER1
  6
CONTINUOUS
 62
     3
 10
1488.785996
 20
1763.092596
 11
1490.004538
 21
1764.367486
  0
LINE
  8
CSLAYER1
  6
CONTINUOUS
 62
     3
 10
1490.004538
 20
1764.367486
 11
1491.014429
 21
1765.695367
  0
LINE
  8
CSLAYER1
  6
CONTINUOUS
 62
     3
 10
1491.014429
 20
1765.695367
 11
1491.807984
 21
1767.066132
  0
LINE
  8
CSLAYER1
  6
CONTINUOUS
 62
     3
 10
1491.807984
 20
1767.066132
 11
1492.379162
 21
1768.469350
  0
LINE
  8
CSLAYER1
  6
CONTINUOUS
 62
     3
 10
1492.379162
 20
1768.469350
 11
1492.723617
 21
1769.894342
  0
LINE
  8
CSLAYER1
  6
CONTINUOUS
 62
     3
 10
1492.838727
 20
1779.701537
 11
1492.723617
 21
1781.137456
  0
LINE
  8
CSLAYER1
  6
CONTINUOUS
 62
     3
 10
1492.723617
 20
1781.137456
 11
1492.379162
 21
1782.562448
  0
LINE
  8
CSLAYER1
  6
CONTINUOUS
 62
     3
 10
1492.379162
 20
1782.562448
 11
1492.148253
 21
1783.129725
  0
LINE
  8
CSLAYER1
  6
CONTINUOUS
 62
     3
 10
1482.588727
 20
1767.358022
 11
1483.978707
 21
1768.051719
  0
LINE
  8
CSLAYER1
  6
CONTINUOUS
 62
     3
 10
1483.978707
 20
1768.051719
 11
1485.761572
 21
1769.111398
  0
LINE
  8
CSLAYER1
  6
CONTINUOUS
 62
     3
 10
1485.761572
 20
1769.111398
 11
1487.368077
 21
1770.251675
  0
LINE
  8
CSLAYER1
  6
CONTINUOUS
 62
     3
 10
1487.368077
 20
1770.251675
 11
1488.785996
 21
1771.463871
  0
LINE
  8
CSLAYER1
  6
CONTINUOUS
 62
     3
 10
1488.785996
 20
1771.463871
 11
1490.004538
 21
1772.738761
  0
LINE
  8
CSLAYER1
  6
CONTINUOUS
 62
     3
 10
1490.004538
 20
1772.738761
 11
1491.014429
 21
1774.066642
  0
LINE
  8
CSLAYER1
  6
CONTINUOUS
 62
     3
 10
1491.014429
 20
1774.066642
 11
1491.807984
 21
1775.437407
  0
LINE
  8
CSLAYER1
  6
CONTINUOUS
 62
     3
 10
1491.807984
 20
1775.437407
 11
1492.379162
 21
1776.840626
  0
LINE
  8
CSLAYER1
  6
CONTINUOUS
 62
     3
 10
1492.379162
 20
1776.840626
 11
1492.723617
 21
1778.265617
  0
LINE
  8
CSLAYER1
  6
CONTINUOUS
 62
     3
 10
1492.723617
 20
1778.265617
 11
1492.838727
 21
1779.701537
  0
LINE
  8
CSLAYER1
  6
CONTINUOUS
 62
     3
 10
1462.588727
 20
1754.854931
 11
1459.952266
 21
1754.917624
  0
LINE
  8
CSLAYER1
  6
CONTINUOUS
 62
     3
 10
1459.952266
 20
1754.917624
 11
1457.335870
 21
1755.105228
  0
LINE
  8
CSLAYER1
  6
CONTINUOUS
 62
     3
 10
1457.335870
 20
1755.105228
 11
1454.759451
 21
1755.416314
  0
LINE
  8
CSLAYER1
  6
CONTINUOUS
 62
     3
 10
1454.759451
 20
1755.416314
 11
1452.242618
 21
1755.848515
  0
LINE
  8
CSLAYER1
  6
CONTINUOUS
 62
     3
 10
1452.242618
 20
1755.848515
 11
1449.804525
 21
1756.398541
  0
LINE
  8
CSLAYER1
  6
CONTINUOUS
 62
     3
 10
1449.804525
 20
1756.398541
 11
1447.463727
 21
1757.062207
  0
LINE
  8
CSLAYER1
  6
CONTINUOUS
 62
     3
 10
1447.463727
 20
1757.062207
 11
1445.238040
 21
1757.834461
  0
LINE
  8
CSLAYER1
  6
CONTINUOUS
 62
     3
 10
1445.238040
 20
1757.834461
 11
1443.144402
 21
1758.709426
  0
LINE
  8
CSLAYER1
  6
CONTINUOUS
 62
     3
 10
1443.144402
 20
1758.709426
 11
1441.198747
 21
1759.680443
  0
LINE
  8
CSLAYER1
  6
CONTINUOUS
 62
     3
 10
1441.198747
 20
1759.680443
 11
1439.415883
 21
1760.740123
  0
LINE
  8
CSLAYER1
  6
CONTINUOUS
 62
     3
 10
1439.415883
 20
1760.740123
 11
1437.809378
 21
1761.880400
  0
LINE
  8
CSLAYER1
  6
CONTINUOUS
 62
     3
 10
1437.809378
 20
1761.880400
 11
1436.391459
 21
1763.092596
  0
LINE
  8
CSLAYER1
  6
CONTINUOUS
 62
     3
 10
1436.391459
 20
1763.092596
 11
1435.172917
 21
1764.367486
  0
LINE
  8
CSLAYER1
  6
CONTINUOUS
 62
     3
 10
1435.172917
 20
1764.367486
 11
1434.163026
 21
1765.695367
  0
LINE
  8
CSLAYER1
  6
CONTINUOUS
 62
     3
 10
1434.163026
 20
1765.695367
 11
1433.369471
 21
1767.066132
  0
LINE
  8
CSLAYER1
  6
CONTINUOUS
 62
     3
 10
1433.369471
 20
1767.066132
 11
1432.798293
 21
1768.469350
  0
LINE
  8
CSLAYER1
  6
CONTINUOUS
 62
     3
 10
1432.798293
 20
1768.469350
 11
1432.453838
 21
1769.894342
  0
LINE
  8
CSLAYER1
  6
CONTINUOUS
 62
     3
 10
1432.338727
 20
1779.701537
 11
1432.453838
 21
1781.137456
  0
LINE
  8
CSLAYER1
  6
CONTINUOUS
 62
     3
 10
1432.453838
 20
1781.137456
 11
1432.798293
 21
1782.562448
  0
LINE
  8
CSLAYER1
  6
CONTINUOUS
 62
     3
 10
1432.798293
 20
1782.562448
 11
1433.029202
 21
1783.129725
  0
LINE
  8
CSLAYER1
  6
CONTINUOUS
 62
     3
 10
1442.588727
 20
1767.358022
 11
1441.198747
 21
1768.051719
  0
LINE
  8
CSLAYER1
  6
CONTINUOUS
 62
     3
 10
1441.198747
 20
1768.051719
 11
1439.415883
 21
1769.111398
  0
LINE
  8
CSLAYER1
  6
CONTINUOUS
 62
     3
 10
1439.415883
 20
1769.111398
 11
1437.809378
 21
1770.251675
  0
LINE
  8
CSLAYER1
  6
CONTINUOUS
 62
     3
 10
1437.809378
 20
1770.251675
 11
1436.391459
 21
1771.463871
  0
LINE
  8
CSLAYER1
  6
CONTINUOUS
 62
     3
 10
1436.391459
 20
1771.463871
 11
1435.172917
 21
1772.738761
  0
LINE
  8
CSLAYER1
  6
CONTINUOUS
 62
     3
 10
1435.172917
 20
1772.738761
 11
1434.163026
 21
1774.066642
  0
LINE
  8
CSLAYER1
  6
CONTINUOUS
 62
     3
 10
1434.163026
 20
1774.066642
 11
1433.369471
 21
1775.437407
  0
LINE
  8
CSLAYER1
  6
CONTINUOUS
 62
     3
 10
1433.369471
 20
1775.437407
 11
1432.798293
 21
1776.840626
  0
LINE
  8
CSLAYER1
  6
CONTINUOUS
 62
     3
 10
1432.798293
 20
1776.840626
 11
1432.453838
 21
1778.265617
  0
LINE
  8
CSLAYER1
  6
CONTINUOUS
 62
     3
 10
1432.453838
 20
1778.265617
 11
1432.338727
 21
1779.701537
  0
ENDBLK
  8
0
  0
BLOCK
  8
CSLAYER1
  2
BLKF0002
 70
   64
 10
0.0
 20
0.0
 30
0.0
  0
LINE
  8
CSLAYER1
  6
CONTINUOUS
 62
     3
 10
2061.693446
 20
4274.441362
 11
2056.622818
 21
4276.351079
  0
LINE
  8
CSLAYER1
  6
CONTINUOUS
 62
     3
 10
2056.622818
 20
4276.351079
 11
2050.198187
 21
4276.529541
  0
LINE
  8
CSLAYER1
  6
CONTINUOUS
 62
     3
 10
2062.747776
 20
4275.830464
 11
2057.098717
 21
4278.195186
  0
LINE
  8
CSLAYER1
  6
CONTINUOUS
 62
     3
 10
2057.098717
 20
4278.195186
 11
2051.744857
 21
4279.503907
  0
LINE
  8
CSLAYER1
  6
CONTINUOUS
 62
     3
 10
2063.589971
 20
4276.940073
 11
2058.704875
 21
4279.801344
  0
LINE
  8
CSLAYER1
  6
CONTINUOUS
 62
     3
 10
2058.704875
 20
4279.801344
 11
2056.384869
 21
4283.132635
  0
LINE
  8
CSLAYER1
  6
CONTINUOUS
 62
     3
 10
2060.509693
 20
4272.881741
 11
2064.741744
 21
4278.457559
  0
LINE
  8
CSLAYER1
  6
CONTINUOUS
 62
     3
 10
2060.509693
 20
4272.881741
 11
2248.243621
 21
4130.391491
  0
LINE
  8
CSLAYER1
  6
CONTINUOUS
 62
     3
 10
2064.741744
 20
4278.457559
 11
2252.475672
 21
4135.967308
  0
ARC
  8
CSLAYER1
  6
CONTINUOUS
 62
     3
 10
2276.658823
 20
4167.829123
 40
47.000000
 50
0.000000
 51
190.756396
  0
ARC
  8
CSLAYER1
  6
CONTINUOUS
 62
     3
 10
2276.658823
 20
4167.829123
 40
40.000000
 50
0.000000
 51
203.471057
  0
ARC
  8
CSLAYER1
  6
CONTINUOUS
 62
     3
 10
2276.658823
 20
4167.829123
 40
40.000000
 50
232.801463
 51
360.000000
  0
ARC
  8
CSLAYER1
  6
CONTINUOUS
 62
     3
 10
2276.658823
 20
4167.829123
 40
47.000000
 50
232.801463
 51
360.000000
  0
LINE
  8
CSLAYER1
  6
CONTINUOUS
 62
     3
 10
2592.170145
 20
4127.829123
 11
2308.193764
 21
4127.829123
  0
LINE
  8
CSLAYER1
  6
CONTINUOUS
 62
     3
 10
2592.170145
 20
4120.829123
 11
2298.311973
 21
4120.829123
  0
ENDBLK
  8
0
  0
BLOCK
  8
CSLAYER1
  2
BLKF0003
 70
   64
 10
0.0
 20
0.0
 30
0.0
  0
LINE
  8
CSLAYER1
  6
CONTINUOUS
 62
     4
 10
2651.324851
 20
2511.574539
 11
2658.630097
 21
2515.920040
  0
LINE
  8
CSLAYER1
  6
CONTINUOUS
 62
     4
 10
2654.903499
 20
2505.558454
 11
2663.338871
 21
2510.576207
  0
LINE
  8
CSLAYER1
  6
CONTINUOUS
 62
     4
 10
2660.148347
 20
2515.939814
 11
2663.338871
 21
2510.576207
  0
LINE
  8
CSLAYER1
  6
CONTINUOUS
 62
     4
 10
2655.930661
 20
2513.430937
 11
2659.121185
 21
2508.067330
  0
LINE
  8
CSLAYER1
  6
CONTINUOUS
 62
     4
 10
2658.630097
 20
2515.920040
 11
2660.148347
 21
2515.939814
  0
ARC
  8
CSLAYER1
  6
CONTINUOUS
 62
     4
 10
2659.627729
 20
2497.616525
 40
16.240811
 50
103.158205
 51
120.746159
  0
ARC
  8
CSLAYER1
  6
CONTINUOUS
 62
     4
 10
2659.799939
 20
2511.725898
 40
4.228294
 50
96.218799
 51
156.218799
  0
LINE
  8
CSLAYER1
  6
CONTINUOUS
 62
     4
 10
2651.324851
 20
2511.574539
 11
2644.019605
 21
2507.229037
  0
LINE
  8
CSLAYER1
  6
CONTINUOUS
 62
     4
 10
2654.903499
 20
2505.558454
 11
2646.468128
 21
2500.540701
  0
LINE
  8
CSLAYER1
  6
CONTINUOUS
 62
     4
 10
2643.277604
 20
2505.904308
 11
2646.468128
 21
2500.540701
  0
LINE
  8
CSLAYER1
  6
CONTINUOUS
 62
     4
 10
2647.495290
 20
2508.413184
 11
2650.685814
 21
2503.049578
  0
LINE
  8
CSLAYER1
  6
CONTINUOUS
 62
     4
 10
2644.019605
 20
2507.229037
 11
2643.277604
 21
2505.904308
  0
ARC
  8
CSLAYER1
  6
CONTINUOUS
 62
     4
 10
2659.627729
 20
2497.616525
 40
16.240811
 50
120.746159
 51
138.334113
  0
ARC
  8
CSLAYER1
  6
CONTINUOUS
 62
     4
 10
2647.146882
 20
2504.199269
 40
4.228294
 50
85.273519
 51
145.273519
  0
ENDBLK
  8
0
  0
BLOCK
  8
CSLAYER1
  2
BLKF0004
 70
   64
 10
0.0
 20
0.0
 30
0.0
  0
LINE
  8
CSLAYER1
  6
CONTINUOUS
 62
     4
 10
2660.339917
 20
2496.419263
 11
2667.645163
 21
2500.764764
  0
LINE
  8
CSLAYER1
  6
CONTINUOUS
 62
     4
 10
2669.163413
 20
2500.784538
 11
2672.477048
 21
2495.213969
  0
LINE
  8
CSLAYER1
  6
CONTINUOUS
 62
     4
 10
2664.945727
 20
2498.275661
 11
2668.259362
 21
2492.705092
  0
LINE
  8
CSLAYER1
  6
CONTINUOUS
 62
     4
 10
2667.645163
 20
2500.764764
 11
2669.163413
 21
2500.784538
  0
ARC
  8
CSLAYER1
  6
CONTINUOUS
 62
     4
 10
2668.642796
 20
2482.461249
 40
16.240811
 50
103.158205
 51
120.746159
  0
ARC
  8
CSLAYER1
  6
CONTINUOUS
 62
     4
 10
2668.815005
 20
2496.570622
 40
4.228294
 50
96.218799
 51
156.218799
  0
LINE
  8
CSLAYER1
  6
CONTINUOUS
 62
     4
 10
2660.339917
 20
2496.419263
 11
2653.034671
 21
2492.073761
  0
LINE
  8
CSLAYER1
  6
CONTINUOUS
 62
     4
 10
2652.292670
 20
2490.749032
 11
2655.606305
 21
2485.178463
  0
LINE
  8
CSLAYER1
  6
CONTINUOUS
 62
     4
 10
2656.510356
 20
2493.257908
 11
2659.823991
 21
2487.687339
  0
LINE
  8
CSLAYER1
  6
CONTINUOUS
 62
     4
 10
2653.034671
 20
2492.073761
 11
2652.292670
 21
2490.749032
  0
ARC
  8
CSLAYER1
  6
CONTINUOUS
 62
     4
 10
2668.642796
 20
2482.461249
 40
16.240811
 50
120.746159
 51
138.334113
  0
ARC
  8
CSLAYER1
  6
CONTINUOUS
 62
     4
 10
2656.161948
 20
2489.043993
 40
4.228294
 50
85.273519
 51
145.273519
  0
LINE
  8
CSLAYER1
  6
CONTINUOUS
 62
     4
 10
2664.429801
 20
2489.543737
 11
2671.735047
 21
2493.889239
  0
LINE
  8
CSLAYER1
  6
CONTINUOUS
 62
     4
 10
2671.735047
 20
2493.889239
 11
2672.477048
 21
2495.213969
  0
ARC
  8
CSLAYER1
  6
CONTINUOUS
 62
     4
 10
2656.126922
 20
2503.501751
 40
16.240811
 50
300.746159
 51
318.334113
  0
ARC
  8
CSLAYER1
  6
CONTINUOUS
 62
     4
 10
2668.607770
 20
2496.919007
 40
4.228294
 50
265.273519
 51
325.273519
  0
LINE
  8
CSLAYER1
  6
CONTINUOUS
 62
     4
 10
2664.429801
 20
2489.543737
 11
2657.124555
 21
2485.198236
  0
LINE
  8
CSLAYER1
  6
CONTINUOUS
 62
     4
 10
2657.124555
 20
2485.198236
 11
2655.606305
 21
2485.178463
  0
ARC
  8
CSLAYER1
  6
CONTINUOUS
 62
     4
 10
2656.126922
 20
2503.501751
 40
16.240811
 50
283.158205
 51
300.746159
  0
ARC
  8
CSLAYER1
  6
CONTINUOUS
 62
     4
 10
2655.954713
 20
2489.392378
 40
4.228294
 50
276.218799
 51
336.218799
  0
ENDBLK
  8
0
  0
BLOCK
  8
CSLAYER1
  2
BLKF0005
 70
   64
 10
0.0
 20
0.0
 30
0.0
  0
LINE
  8
CSLAYER1
  6
CONTINUOUS
 62
     4
 10
2634.828505
 20
1742.433650
 11
2642.133751
 21
1746.779151
  0
LINE
  8
CSLAYER1
  6
CONTINUOUS
 62
     4
 10
2638.407153
 20
1736.417565
 11
2646.842524
 21
1741.435318
  0
LINE
  8
CSLAYER1
  6
CONTINUOUS
 62
     4
 10
2643.652001
 20
1746.798924
 11
2646.842524
 21
1741.435318
  0
LINE
  8
CSLAYER1
  6
CONTINUOUS
 62
     4
 10
2639.434315
 20
1744.290048
 11
2642.624839
 21
1738.926441
  0
LINE
  8
CSLAYER1
  6
CONTINUOUS
 62
     4
 10
2642.133751
 20
1746.779151
 11
2643.652001
 21
1746.798924
  0
ARC
  8
CSLAYER1
  6
CONTINUOUS
 62
     4
 10
2643.131383
 20
1728.475636
 40
16.240811
 50
103.158205
 51
120.746159
  0
ARC
  8
CSLAYER1
  6
CONTINUOUS
 62
     4
 10
2643.303593
 20
1742.585009
 40
4.228294
 50
96.218799
 51
156.218799
  0
LINE
  8
CSLAYER1
  6
CONTINUOUS
 62
     4
 10
2634.828505
 20
1742.433650
 11
2627.523259
 21
1738.088148
  0
LINE
  8
CSLAYER1
  6
CONTINUOUS
 62
     4
 10
2638.407153
 20
1736.417565
 11
2629.971782
 21
1731.399812
  0
LINE
  8
CSLAYER1
  6
CONTINUOUS
 62
     4
 10
2626.781258
 20
1736.763418
 11
2629.971782
 21
1731.399812
  0
LINE
  8
CSLAYER1
  6
CONTINUOUS
 62
     4
 10
2630.998944
 20
1739.272295
 11
2634.189467
 21
1733.908688
  0
LINE
  8
CSLAYER1
  6
CONTINUOUS
 62
     4
 10
2627.523259
 20
1738.088148
 11
2626.781258
 21
1736.763418
  0
ARC
  8
CSLAYER1
  6
CONTINUOUS
 62
     4
 10
2643.131383
 20
1728.475636
 40
16.240811
 50
120.746159
 51
138.334113
  0
ARC
  8
CSLAYER1
  6
CONTINUOUS
 62
     4
 10
2630.650536
 20
1735.058380
 40
4.228294
 50
85.273519
 51
145.273519
  0
ENDBLK
  8
0
  0
BLOCK
  8
CSLAYER1
  2
BLKF0006
 70
   64
 10
0.0
 20
0.0
 30
0.0
  0
LINE
  8
CSLAYER1
  6
CONTINUOUS
 62
     4
 10
2643.843571
 20
1727.278374
 11
2651.148817
 21
1731.623875
  0
LINE
  8
CSLAYER1
  6
CONTINUOUS
 62
     4
 10
2652.667067
 20
1731.643648
 11
2655.980701
 21
1726.073079
  0
LINE
  8
CSLAYER1
  6
CONTINUOUS
 62
     4
 10
2648.449381
 20
1729.134772
 11
2651.763016
 21
1723.564203
  0
LINE
  8
CSLAYER1
  6
CONTINUOUS
 62
     4
 10
2651.148817
 20
1731.623875
 11
2652.667067
 21
1731.643648
  0
ARC
  8
CSLAYER1
  6
CONTINUOUS
 62
     4
 10
2652.146449
 20
1713.320360
 40
16.240811
 50
103.158205
 51
120.746159
  0
ARC
  8
CSLAYER1
  6
CONTINUOUS
 62
     4
 10
2652.318659
 20
1727.429733
 40
4.228294
 50
96.218799
 51
156.218799
  0
LINE
  8
CSLAYER1
  6
CONTINUOUS
 62
     4
 10
2643.843571
 20
1727.278374
 11
2636.538325
 21
1722.932872
  0
LINE
  8
CSLAYER1
  6
CONTINUOUS
 62
     4
 10
2635.796324
 20
1721.608142
 11
2639.109959
 21
1716.037573
  0
LINE
  8
CSLAYER1
  6
CONTINUOUS
 62
     4
 10
2640.014010
 20
1724.117019
 11
2643.327645
 21
1718.546450
  0
LINE
  8
CSLAYER1
  6
CONTINUOUS
 62
     4
 10
2636.538325
 20
1722.932872
 11
2635.796324
 21
1721.608142
  0
ARC
  8
CSLAYER1
  6
CONTINUOUS
 62
     4
 10
2652.146449
 20
1713.320360
 40
16.240811
 50
120.746159
 51
138.334113
  0
ARC
  8
CSLAYER1
  6
CONTINUOUS
 62
     4
 10
2639.665602
 20
1719.903104
 40
4.228294
 50
85.273519
 51
145.273519
  0
LINE
  8
CSLAYER1
  6
CONTINUOUS
 62
     4
 10
2647.933455
 20
1720.402848
 11
2655.238701
 21
1724.748350
  0
LINE
  8
CSLAYER1
  6
CONTINUOUS
 62
     4
 10
2655.238701
 20
1724.748350
 11
2655.980701
 21
1726.073079
  0
ARC
  8
CSLAYER1
  6
CONTINUOUS
 62
     4
 10
2639.630576
 20
1734.360862
 40
16.240811
 50
300.746159
 51
318.334113
  0
ARC
  8
CSLAYER1
  6
CONTINUOUS
 62
     4
 10
2652.111423
 20
1727.778118
 40
4.228294
 50
265.273519
 51
325.273519
  0
LINE
  8
CSLAYER1
  6
CONTINUOUS
 62
     4
 10
2647.933455
 20
1720.402848
 11
2640.628209
 21
1716.057347
  0
LINE
  8
CSLAYER1
  6
CONTINUOUS
 62
     4
 10
2640.628209
 20
1716.057347
 11
2639.109959
 21
1716.037573
  0
ARC
  8
CSLAYER1
  6
CONTINUOUS
 62
     4
 10
2639.630576
 20
1734.360862
 40
16.240811
 50
283.158205
 51
300.746159
  0
ARC
  8
CSLAYER1
  6
CONTINUOUS
 62
     4
 10
2639.458367
 20
1720.251489
 40
4.228294
 50
276.218799
 51
336.218799
  0
ENDBLK
  8
0
  0
BLOCK
  8
CSLAYER1
  2
BLKF0007
 70
   64
 10
0.0
 20
0.0
 30
0.0
  0
LINE
  8
CSLAYER1
  6
CONTINUOUS
 62
     4
 10
2634.828505
 20
977.133650
 11
2642.133751
 21
981.479151
  0
LINE
  8
CSLAYER1
  6
CONTINUOUS
 62
     4
 10
2638.407153
 20
971.117565
 11
2646.842524
 21
976.135318
  0
LINE
  8
CSLAYER1
  6
CONTINUOUS
 62
     4
 10
2643.652001
 20
981.498924
 11
2646.842524
 21
976.135318
  0
LINE
  8
CSLAYER1
  6
CONTINUOUS
 62
     4
 10
2639.434315
 20
978.990048
 11
2642.624839
 21
973.626441
  0
LINE
  8
CSLAYER1
  6
CONTINUOUS
 62
     4
 10
2642.133751
 20
981.479151
 11
2643.652001
 21
981.498924
  0
ARC
  8
CSLAYER1
  6
CONTINUOUS
 62
     4
 10
2643.131383
 20
963.175636
 40
16.240811
 50
103.158205
 51
120.746159
  0
ARC
  8
CSLAYER1
  6
CONTINUOUS
 62
     4
 10
2643.303593
 20
977.285009
 40
4.228294
 50
96.218799
 51
156.218799
  0
LINE
  8
CSLAYER1
  6
CONTINUOUS
 62
     4
 10
2634.828505
 20
977.133650
 11
2627.523259
 21
972.788148
  0
LINE
  8
CSLAYER1
  6
CONTINUOUS
 62
     4
 10
2638.407153
 20
971.117565
 11
2629.971782
 21
966.099812
  0
LINE
  8
CSLAYER1
  6
CONTINUOUS
 62
     4
 10
2626.781258
 20
971.463418
 11
2629.971782
 21
966.099812
  0
LINE
  8
CSLAYER1
  6
CONTINUOUS
 62
     4
 10
2630.998944
 20
973.972295
 11
2634.189467
 21
968.608688
  0
LINE
  8
CSLAYER1
  6
CONTINUOUS
 62
     4
 10
2627.523259
 20
972.788148
 11
2626.781258
 21
971.463418
  0
ARC
  8
CSLAYER1
  6
CONTINUOUS
 62
     4
 10
2643.131383
 20
963.175636
 40
16.240811
 50
120.746159
 51
138.334113
  0
ARC
  8
CSLAYER1
  6
CONTINUOUS
 62
     4
 10
2630.650536
 20
969.758380
 40
4.228294
 50
85.273519
 51
145.273519
  0
ENDBLK
  8
0
  0
BLOCK
  8
CSLAYER1
  2
BLKF0008
 70
   64
 10
0.0
 20
0.0
 30
0.0
  0
LINE
  8
CSLAYER1
  6
CONTINUOUS
 62
     4
 10
2643.843571
 20
961.978374
 11
2651.148817
 21
966.323875
  0
LINE
  8
CSLAYER1
  6
CONTINUOUS
 62
     4
 10
2652.667067
 20
966.343648
 11
2655.980701
 21
960.773079
  0
LINE
  8
CSLAYER1
  6
CONTINUOUS
 62
     4
 10
2648.449381
 20
963.834772
 11
2651.763016
 21
958.264203
  0
LINE
  8
CSLAYER1
  6
CONTINUOUS
 62
     4
 10
2651.148817
 20
966.323875
 11
2652.667067
 21
966.343648
  0
ARC
  8
CSLAYER1
  6
CONTINUOUS
 62
     4
 10
2652.146449
 20
948.020360
 40
16.240811
 50
103.158205
 51
120.746159
  0
ARC
  8
CSLAYER1
  6
CONTINUOUS
 62
     4
 10
2652.318659
 20
962.129733
 40
4.228294
 50
96.218799
 51
156.218799
  0
LINE
  8
CSLAYER1
  6
CONTINUOUS
 62
     4
 10
2643.843571
 20
961.978374
 11
2636.538325
 21
957.632872
  0
LINE
  8
CSLAYER1
  6
CONTINUOUS
 62
     4
 10
2635.796324
 20
956.308142
 11
2639.109959
 21
950.737573
  0
LINE
  8
CSLAYER1
  6
CONTINUOUS
 62
     4
 10
2640.014010
 20
958.817019
 11
2643.327645
 21
953.246450
  0
LINE
  8
CSLAYER1
  6
CONTINUOUS
 62
     4
 10
2636.538325
 20
957.632872
 11
2635.796324
 21
956.308142
  0
ARC
  8
CSLAYER1
  6
CONTINUOUS
 62
     4
 10
2652.146449
 20
948.020360
 40
16.240811
 50
120.746159
 51
138.334113
  0
ARC
  8
CSLAYER1
  6
CONTINUOUS
 62
     4
 10
2639.665602
 20
954.603104
 40
4.228294
 50
85.273519
 51
145.273519
  0
LINE
  8
CSLAYER1
  6
CONTINUOUS
 62
     4
 10
2647.933455
 20
955.102848
 11
2655.238701
 21
959.448350
  0
LINE
  8
CSLAYER1
  6
CONTINUOUS
 62
     4
 10
2655.238701
 20
959.448350
 11
2655.980701
 21
960.773079
  0
ARC
  8
CSLAYER1
  6
CONTINUOUS
 62
     4
 10
2639.630576
 20
969.060862
 40
16.240811
 50
300.746159
 51
318.334113
  0
ARC
  8
CSLAYER1
  6
CONTINUOUS
 62
     4
 10
2652.111423
 20
962.478118
 40
4.228294
 50
265.273519
 51
325.273519
  0
LINE
  8
CSLAYER1
  6
CONTINUOUS
 62
     4
 10
2647.933455
 20
955.102848
 11
2640.628209
 21
950.757347
  0
LINE
  8
CSLAYER1
  6
CONTINUOUS
 62
     4
 10
2640.628209
 20
950.757347
 11
2639.109959
 21
950.737573
  0
ARC
  8
CSLAYER1
  6
CONTINUOUS
 62
     4
 10
2639.630576
 20
969.060862
 40
16.240811
 50
283.158205
 51
300.746159
  0
ARC
  8
CSLAYER1
  6
CONTINUOUS
 62
     4
 10
2639.458367
 20
954.951489
 40
4.228294
 50
276.218799
 51
336.218799
  0
ENDBLK
  8
0
  0
BLOCK
  8
CSLAYER1
  2
BLKF0009
 70
   64
 10
0.0
 20
0.0
 30
0.0
  0
LINE
  8
CSLAYER1
  6
CONTINUOUS
 62
     4
 10
1649.088727
 20
977.860270
 11
1657.588727
 21
977.860270
  0
LINE
  8
CSLAYER1
  6
CONTINUOUS
 62
     4
 10
1649.088727
 20
970.860270
 11
1658.903682
 21
970.860270
  0
LINE
  8
CSLAYER1
  6
CONTINUOUS
 62
     4
 10
1658.903682
 20
977.101081
 11
1658.903682
 21
970.860270
  0
LINE
  8
CSLAYER1
  6
CONTINUOUS
 62
     4
 10
1653.996205
 20
977.101081
 11
1653.996205
 21
970.860270
  0
LINE
  8
CSLAYER1
  6
CONTINUOUS
 62
     4
 10
1657.588727
 20
977.860270
 11
1658.903682
 21
977.101081
  0
ARC
  8
CSLAYER1
  6
CONTINUOUS
 62
     4
 10
1649.088727
 20
961.619459
 40
16.240811
 50
72.412046
 51
90.000000
  0
ARC
  8
CSLAYER1
  6
CONTINUOUS
 62
     4
 10
1656.449943
 20
973.657589
 40
4.228294
 50
65.472640
 51
125.472640
  0
LINE
  8
CSLAYER1
  6
CONTINUOUS
 62
     4
 10
1649.088727
 20
977.860270
 11
1640.588727
 21
977.860270
  0
LINE
  8
CSLAYER1
  6
CONTINUOUS
 62
     4
 10
1649.088727
 20
970.860270
 11
1639.273773
 21
970.860270
  0
LINE
  8
CSLAYER1
  6
CONTINUOUS
 62
     4
 10
1639.273773
 20
977.101081
 11
1639.273773
 21
970.860270
  0
LINE
  8
CSLAYER1
  6
CONTINUOUS
 62
     4
 10
1644.181250
 20
977.101081
 11
1644.181250
 21
970.860270
  0
LINE
  8
CSLAYER1
  6
CONTINUOUS
 62
     4
 10
1640.588727
 20
977.860270
 11
1639.273773
 21
977.101081
  0
ARC
  8
CSLAYER1
  6
CONTINUOUS
 62
     4
 10
1649.088727
 20
961.619459
 40
16.240811
 50
90.000000
 51
107.587954
  0
ARC
  8
CSLAYER1
  6
CONTINUOUS
 62
     4
 10
1641.727511
 20
973.657589
 40
4.228294
 50
54.527360
 51
114.527360
  0
ENDBLK
  8
0
  0
BLOCK
  8
CSLAYER1
  2
BLKF0010
 70
   64
 10
0.0
 20
0.0
 30
0.0
  0
LINE
  8
CSLAYER1
  6
CONTINUOUS
 62
     4
 10
1649.088727
 20
960.226388
 11
1657.588727
 21
960.226388
  0
LINE
  8
CSLAYER1
  6
CONTINUOUS
 62
     4
 10
1658.903682
 20
959.467198
 11
1658.903682
 21
952.985577
  0
LINE
  8
CSLAYER1
  6
CONTINUOUS
 62
     4
 10
1653.996205
 20
959.467198
 11
1653.996205
 21
952.985577
  0
LINE
  8
CSLAYER1
  6
CONTINUOUS
 62
     4
 10
1657.588727
 20
960.226388
 11
1658.903682
 21
959.467198
  0
ARC
  8
CSLAYER1
  6
CONTINUOUS
 62
     4
 10
1649.088727
 20
943.985577
 40
16.240811
 50
72.412046
 51
90.000000
  0
ARC
  8
CSLAYER1
  6
CONTINUOUS
 62
     4
 10
1656.449943
 20
956.023707
 40
4.228294
 50
65.472640
 51
125.472640
  0
LINE
  8
CSLAYER1
  6
CONTINUOUS
 62
     4
 10
1649.088727
 20
960.226388
 11
1640.588727
 21
960.226388
  0
LINE
  8
CSLAYER1
  6
CONTINUOUS
 62
     4
 10
1639.273773
 20
959.467198
 11
1639.273773
 21
952.985577
  0
LINE
  8
CSLAYER1
  6
CONTINUOUS
 62
     4
 10
1644.181250
 20
959.467198
 11
1644.181250
 21
952.985577
  0
LINE
  8
CSLAYER1
  6
CONTINUOUS
 62
     4
 10
1640.588727
 20
960.226388
 11
1639.273773
 21
959.467198
  0
ARC
  8
CSLAYER1
  6
CONTINUOUS
 62
     4
 10
1649.088727
 20
943.985577
 40
16.240811
 50
90.000000
 51
107.587954
  0
ARC
  8
CSLAYER1
  6
CONTINUOUS
 62
     4
 10
1641.727511
 20
956.023707
 40
4.228294
 50
54.527360
 51
114.527360
  0
LINE
  8
CSLAYER1
  6
CONTINUOUS
 62
     4
 10
1649.088727
 20
952.226388
 11
1657.588727
 21
952.226388
  0
LINE
  8
CSLAYER1
  6
CONTINUOUS
 62
     4
 10
1657.588727
 20
952.226388
 11
1658.903682
 21
952.985577
  0
ARC
  8
CSLAYER1
  6
CONTINUOUS
 62
     4
 10
1649.088727
 20
968.467198
 40
16.240811
 50
270.000000
 51
287.587954
  0
ARC
  8
CSLAYER1
  6
CONTINUOUS
 62
     4
 10
1656.449943
 20
956.429069
 40
4.228294
 50
234.527360
 51
294.527360
  0
LINE
  8
CSLAYER1
  6
CONTINUOUS
 62
     4
 10
1649.088727
 20
952.226388
 11
1640.588727
 21
952.226388
  0
LINE
  8
CSLAYER1
  6
CONTINUOUS
 62
     4
 10
1640.588727
 20
952.226388
 11
1639.273773
 21
952.985577
  0
ARC
  8
CSLAYER1
  6
CONTINUOUS
 62
     4
 10
1649.088727
 20
968.467198
 40
16.240811
 50
252.412046
 51
270.000000
  0
ARC
  8
CSLAYER1
  6
CONTINUOUS
 62
     4
 10
1641.727511
 20
956.429069
 40
4.228294
 50
245.472640
 51
305.472640
  0
ENDBLK
  8
0
  0
BLOCK
  8
CSLAYER1
  2
BLKF0011
 70
   64
 10
0.0
 20
0.0
 30
0.0
  0
LINE
  8
CSLAYER1
  6
CONTINUOUS
 62
     4
 10
1276.088727
 20
977.860270
 11
1267.588727
 21
977.860270
  0
LINE
  8
CSLAYER1
  6
CONTINUOUS
 62
     4
 10
1276.088727
 20
970.860270
 11
1266.273773
 21
970.860270
  0
LINE
  8
CSLAYER1
  6
CONTINUOUS
 62
     4
 10
1266.273773
 20
977.101081
 11
1266.273773
 21
970.860270
  0
LINE
  8
CSLAYER1
  6
CONTINUOUS
 62
     4
 10
1271.181250
 20
977.101081
 11
1271.181250
 21
970.860270
  0
LINE
  8
CSLAYER1
  6
CONTINUOUS
 62
     4
 10
1267.588727
 20
977.860270
 11
1266.273773
 21
977.101081
  0
ARC
  8
CSLAYER1
  6
CONTINUOUS
 62
     4
 10
1276.088727
 20
961.619459
 40
16.240811
 50
90.000000
 51
107.587954
  0
ARC
  8
CSLAYER1
  6
CONTINUOUS
 62
     4
 10
1268.727511
 20
973.657589
 40
4.228294
 50
54.527360
 51
114.527360
  0
LINE
  8
CSLAYER1
  6
CONTINUOUS
 62
     4
 10
1276.088727
 20
977.860270
 11
1284.588727
 21
977.860270
  0
LINE
  8
CSLAYER1
  6
CONTINUOUS
 62
     4
 10
1276.088727
 20
970.860270
 11
1285.903682
 21
970.860270
  0
LINE
  8
CSLAYER1
  6
CONTINUOUS
 62
     4
 10
1285.903682
 20
977.101081
 11
1285.903682
 21
970.860270
  0
LINE
  8
CSLAYER1
  6
CONTINUOUS
 62
     4
 10
1280.996205
 20
977.101081
 11
1280.996205
 21
970.860270
  0
LINE
  8
CSLAYER1
  6
CONTINUOUS
 62
     4
 10
1284.588727
 20
977.860270
 11
1285.903682
 21
977.101081
  0
ARC
  8
CSLAYER1
  6
CONTINUOUS
 62
     4
 10
1276.088727
 20
961.619459
 40
16.240811
 50
72.412046
 51
90.000000
  0
ARC
  8
CSLAYER1
  6
CONTINUOUS
 62
     4
 10
1283.449943
 20
973.657589
 40
4.228294
 50
65.472640
 51
125.472640
  0
ENDBLK
  8
0
  0
BLOCK
  8
CSLAYER1
  2
BLKF0012
 70
   64
 10
0.0
 20
0.0
 30
0.0
  0
LINE
  8
CSLAYER1
  6
CONTINUOUS
 62
     4
 10
1276.088727
 20
960.226388
 11
1267.588727
 21
960.226388
  0
LINE
  8
CSLAYER1
  6
CONTINUOUS
 62
     4
 10
1266.273773
 20
959.467198
 11
1266.273773
 21
952.985577
  0
LINE
  8
CSLAYER1
  6
CONTINUOUS
 62
     4
 10
1271.181250
 20
959.467198
 11
1271.181250
 21
952.985577
  0
LINE
  8
CSLAYER1
  6
CONTINUOUS
 62
     4
 10
1267.588727
 20
960.226388
 11
1266.273773
 21
959.467198
  0
ARC
  8
CSLAYER1
  6
CONTINUOUS
 62
     4
 10
1276.088727
 20
943.985577
 40
16.240811
 50
90.000000
 51
107.587954
  0
ARC
  8
CSLAYER1
  6
CONTINUOUS
 62
     4
 10
1268.727511
 20
956.023707
 40
4.228294
 50
54.527360
 51
114.527360
  0
LINE
  8
CSLAYER1
  6
CONTINUOUS
 62
     4
 10
1276.088727
 20
960.226388
 11
1284.588727
 21
960.226388
  0
LINE
  8
CSLAYER1
  6
CONTINUOUS
 62
     4
 10
1285.903682
 20
959.467198
 11
1285.903682
 21
952.985577
  0
LINE
  8
CSLAYER1
  6
CONTINUOUS
 62
     4
 10
1280.996205
 20
959.467198
 11
1280.996205
 21
952.985577
  0
LINE
  8
CSLAYER1
  6
CONTINUOUS
 62
     4
 10
1284.588727
 20
960.226388
 11
1285.903682
 21
959.467198
  0
ARC
  8
CSLAYER1
  6
CONTINUOUS
 62
     4
 10
1276.088727
 20
943.985577
 40
16.240811
 50
72.412046
 51
90.000000
  0
ARC
  8
CSLAYER1
  6
CONTINUOUS
 62
     4
 10
1283.449943
 20
956.023707
 40
4.228294
 50
65.472640
 51
125.472640
  0
LINE
  8
CSLAYER1
  6
CONTINUOUS
 62
     4
 10
1276.088727
 20
952.226388
 11
1267.588727
 21
952.226388
  0
LINE
  8
CSLAYER1
  6
CONTINUOUS
 62
     4
 10
1267.588727
 20
952.226388
 11
1266.273773
 21
952.985577
  0
ARC
  8
CSLAYER1
  6
CONTINUOUS
 62
     4
 10
1276.088727
 20
968.467198
 40
16.240811
 50
252.412046
 51
270.000000
  0
ARC
  8
CSLAYER1
  6
CONTINUOUS
 62
     4
 10
1268.727511
 20
956.429069
 40
4.228294
 50
245.472640
 51
305.472640
  0
LINE
  8
CSLAYER1
  6
CONTINUOUS
 62
     4
 10
1276.088727
 20
952.226388
 11
1284.588727
 21
952.226388
  0
LINE
  8
CSLAYER1
  6
CONTINUOUS
 62
     4
 10
1284.588727
 20
952.226388
 11
1285.903682
 21
952.985577
  0
ARC
  8
CSLAYER1
  6
CONTINUOUS
 62
     4
 10
1276.088727
 20
968.467198
 40
16.240811
 50
270.000000
 51
287.587954
  0
ARC
  8
CSLAYER1
  6
CONTINUOUS
 62
     4
 10
1283.449943
 20
956.429069
 40
4.228294
 50
234.527360
 51
294.527360
  0
ENDBLK
  8
0
  0
BLOCK
  8
CSLAYER1
  2
BLKF0013
 70
   64
 10
0.0
 20
0.0
 30
0.0
  0
LINE
  8
CSLAYER1
  6
CONTINUOUS
 62
     4
 10
1649.088727
 20
1743.961440
 11
1657.588727
 21
1743.961440
  0
LINE
  8
CSLAYER1
  6
CONTINUOUS
 62
     4
 10
1649.088727
 20
1736.961440
 11
1658.903682
 21
1736.961440
  0
LINE
  8
CSLAYER1
  6
CONTINUOUS
 62
     4
 10
1658.903682
 20
1743.202250
 11
1658.903682
 21
1736.961440
  0
LINE
  8
CSLAYER1
  6
CONTINUOUS
 62
     4
 10
1653.996205
 20
1743.202250
 11
1653.996205
 21
1736.961440
  0
LINE
  8
CSLAYER1
  6
CONTINUOUS
 62
     4
 10
1657.588727
 20
1743.961440
 11
1658.903682
 21
1743.202250
  0
ARC
  8
CSLAYER1
  6
CONTINUOUS
 62
     4
 10
1649.088727
 20
1727.720629
 40
16.240811
 50
72.412046
 51
90.000000
  0
ARC
  8
CSLAYER1
  6
CONTINUOUS
 62
     4
 10
1656.449943
 20
1739.758758
 40
4.228294
 50
65.472640
 51
125.472640
  0
LINE
  8
CSLAYER1
  6
CONTINUOUS
 62
     4
 10
1649.088727
 20
1743.961440
 11
1640.588727
 21
1743.961440
  0
LINE
  8
CSLAYER1
  6
CONTINUOUS
 62
     4
 10
1649.088727
 20
1736.961440
 11
1639.273773
 21
1736.961440
  0
LINE
  8
CSLAYER1
  6
CONTINUOUS
 62
     4
 10
1639.273773
 20
1743.202250
 11
1639.273773
 21
1736.961440
  0
LINE
  8
CSLAYER1
  6
CONTINUOUS
 62
     4
 10
1644.181250
 20
1743.202250
 11
1644.181250
 21
1736.961440
  0
LINE
  8
CSLAYER1
  6
CONTINUOUS
 62
     4
 10
1640.588727
 20
1743.961440
 11
1639.273773
 21
1743.202250
  0
ARC
  8
CSLAYER1
  6
CONTINUOUS
 62
     4
 10
1649.088727
 20
1727.720629
 40
16.240811
 50
90.000000
 51
107.587954
  0
ARC
  8
CSLAYER1
  6
CONTINUOUS
 62
     4
 10
1641.727511
 20
1739.758758
 40
4.228294
 50
54.527360
 51
114.527360
  0
ENDBLK
  8
0
  0
BLOCK
  8
CSLAYER1
  2
BLKF0014
 70
   64
 10
0.0
 20
0.0
 30
0.0
  0
LINE
  8
CSLAYER1
  6
CONTINUOUS
 62
     4
 10
1649.088727
 20
1726.327557
 11
1657.588727
 21
1726.327557
  0
LINE
  8
CSLAYER1
  6
CONTINUOUS
 62
     4
 10
1658.903682
 20
1725.568368
 11
1658.903682
 21
1719.086747
  0
LINE
  8
CSLAYER1
  6
CONTINUOUS
 62
     4
 10
1653.996205
 20
1725.568368
 11
1653.996205
 21
1719.086747
  0
LINE
  8
CSLAYER1
  6
CONTINUOUS
 62
     4
 10
1657.588727
 20
1726.327557
 11
1658.903682
 21
1725.568368
  0
ARC
  8
CSLAYER1
  6
CONTINUOUS
 62
     4
 10
1649.088727
 20
1710.086747
 40
16.240811
 50
72.412046
 51
90.000000
  0
ARC
  8
CSLAYER1
  6
CONTINUOUS
 62
     4
 10
1656.449943
 20
1722.124876
 40
4.228294
 50
65.472640
 51
125.472640
  0
LINE
  8
CSLAYER1
  6
CONTINUOUS
 62
     4
 10
1649.088727
 20
1726.327557
 11
1640.588727
 21
1726.327557
  0
LINE
  8
CSLAYER1
  6
CONTINUOUS
 62
     4
 10
1639.273773
 20
1725.568368
 11
1639.273773
 21
1719.086747
  0
LINE
  8
CSLAYER1
  6
CONTINUOUS
 62
     4
 10
1644.181250
 20
1725.568368
 11
1644.181250
 21
1719.086747
  0
LINE
  8
CSLAYER1
  6
CONTINUOUS
 62
     4
 10
1640.588727
 20
1726.327557
 11
1639.273773
 21
1725.568368
  0
ARC
  8
CSLAYER1
  6
CONTINUOUS
 62
     4
 10
1649.088727
 20
1710.086747
 40
16.240811
 50
90.000000
 51
107.587954
  0
ARC
  8
CSLAYER1
  6
CONTINUOUS
 62
     4
 10
1641.727511
 20
1722.124876
 40
4.228294
 50
54.527360
 51
114.527360
  0
LINE
  8
CSLAYER1
  6
CONTINUOUS
 62
     4
 10
1649.088727
 20
1718.327557
 11
1657.588727
 21
1718.327557
  0
LINE
  8
CSLAYER1
  6
CONTINUOUS
 62
     4
 10
1657.588727
 20
1718.327557
 11
1658.903682
 21
1719.086747
  0
ARC
  8
CSLAYER1
  6
CONTINUOUS
 62
     4
 10
1649.088727
 20
1734.568368
 40
16.240811
 50
270.000000
 51
287.587954
  0
ARC
  8
CSLAYER1
  6
CONTINUOUS
 62
     4
 10
1656.449943
 20
1722.530238
 40
4.228294
 50
234.527360
 51
294.527360
  0
LINE
  8
CSLAYER1
  6
CONTINUOUS
 62
     4
 10
1649.088727
 20
1718.327557
 11
1640.588727
 21
1718.327557
  0
LINE
  8
CSLAYER1
  6
CONTINUOUS
 62
     4
 10
1640.588727
 20
1718.327557
 11
1639.273773
 21
1719.086747
  0
ARC
  8
CSLAYER1
  6
CONTINUOUS
 62
     4
 10
1649.088727
 20
1734.568368
 40
16.240811
 50
252.412046
 51
270.000000
  0
ARC
  8
CSLAYER1
  6
CONTINUOUS
 62
     4
 10
1641.727511
 20
1722.530238
 40
4.228294
 50
245.472640
 51
305.472640
  0
ENDBLK
  8
0
  0
BLOCK
  8
CSLAYER1
  2
BLKF0015
 70
   64
 10
0.0
 20
0.0
 30
0.0
  0
LINE
  8
CSLAYER1
  6
CONTINUOUS
 62
     4
 10
1276.088727
 20
1743.961440
 11
1267.588727
 21
1743.961440
  0
LINE
  8
CSLAYER1
  6
CONTINUOUS
 62
     4
 10
1276.088727
 20
1736.961440
 11
1266.273773
 21
1736.961440
  0
LINE
  8
CSLAYER1
  6
CONTINUOUS
 62
     4
 10
1266.273773
 20
1743.202250
 11
1266.273773
 21
1736.961440
  0
LINE
  8
CSLAYER1
  6
CONTINUOUS
 62
     4
 10
1271.181250
 20
1743.202250
 11
1271.181250
 21
1736.961440
  0
LINE
  8
CSLAYER1
  6
CONTINUOUS
 62
     4
 10
1267.588727
 20
1743.961440
 11
1266.273773
 21
1743.202250
  0
ARC
  8
CSLAYER1
  6
CONTINUOUS
 62
     4
 10
1276.088727
 20
1727.720629
 40
16.240811
 50
90.000000
 51
107.587954
  0
ARC
  8
CSLAYER1
  6
CONTINUOUS
 62
     4
 10
1268.727511
 20
1739.758758
 40
4.228294
 50
54.527360
 51
114.527360
  0
LINE
  8
CSLAYER1
  6
CONTINUOUS
 62
     4
 10
1276.088727
 20
1743.961440
 11
1284.588727
 21
1743.961440
  0
LINE
  8
CSLAYER1
  6
CONTINUOUS
 62
     4
 10
1276.088727
 20
1736.961440
 11
1285.903682
 21
1736.961440
  0
LINE
  8
CSLAYER1
  6
CONTINUOUS
 62
     4
 10
1285.903682
 20
1743.202250
 11
1285.903682
 21
1736.961440
  0
LINE
  8
CSLAYER1
  6
CONTINUOUS
 62
     4
 10
1280.996205
 20
1743.202250
 11
1280.996205
 21
1736.961440
  0
LINE
  8
CSLAYER1
  6
CONTINUOUS
 62
     4
 10
1284.588727
 20
1743.961440
 11
1285.903682
 21
1743.202250
  0
ARC
  8
CSLAYER1
  6
CONTINUOUS
 62
     4
 10
1276.088727
 20
1727.720629
 40
16.240811
 50
72.412046
 51
90.000000
  0
ARC
  8
CSLAYER1
  6
CONTINUOUS
 62
     4
 10
1283.449943
 20
1739.758758
 40
4.228294
 50
65.472640
 51
125.472640
  0
ENDBLK
  8
0
  0
BLOCK
  8
CSLAYER1
  2
BLKF0016
 70
   64
 10
0.0
 20
0.0
 30
0.0
  0
LINE
  8
CSLAYER1
  6
CONTINUOUS
 62
     4
 10
1276.088727
 20
1726.327557
 11
1267.588727
 21
1726.327557
  0
LINE
  8
CSLAYER1
  6
CONTINUOUS
 62
     4
 10
1266.273773
 20
1725.568368
 11
1266.273773
 21
1719.086747
  0
LINE
  8
CSLAYER1
  6
CONTINUOUS
 62
     4
 10
1271.181250
 20
1725.568368
 11
1271.181250
 21
1719.086747
  0
LINE
  8
CSLAYER1
  6
CONTINUOUS
 62
     4
 10
1267.588727
 20
1726.327557
 11
1266.273773
 21
1725.568368
  0
ARC
  8
CSLAYER1
  6
CONTINUOUS
 62
     4
 10
1276.088727
 20
1710.086747
 40
16.240811
 50
90.000000
 51
107.587954
  0
ARC
  8
CSLAYER1
  6
CONTINUOUS
 62
     4
 10
1268.727511
 20
1722.124876
 40
4.228294
 50
54.527360
 51
114.527360
  0
LINE
  8
CSLAYER1
  6
CONTINUOUS
 62
     4
 10
1276.088727
 20
1726.327557
 11
1284.588727
 21
1726.327557
  0
LINE
  8
CSLAYER1
  6
CONTINUOUS
 62
     4
 10
1285.903682
 20
1725.568368
 11
1285.903682
 21
1719.086747
  0
LINE
  8
CSLAYER1
  6
CONTINUOUS
 62
     4
 10
1280.996205
 20
1725.568368
 11
1280.996205
 21
1719.086747
  0
LINE
  8
CSLAYER1
  6
CONTINUOUS
 62
     4
 10
1284.588727
 20
1726.327557
 11
1285.903682
 21
1725.568368
  0
ARC
  8
CSLAYER1
  6
CONTINUOUS
 62
     4
 10
1276.088727
 20
1710.086747
 40
16.240811
 50
72.412046
 51
90.000000
  0
ARC
  8
CSLAYER1
  6
CONTINUOUS
 62
     4
 10
1283.449943
 20
1722.124876
 40
4.228294
 50
65.472640
 51
125.472640
  0
LINE
  8
CSLAYER1
  6
CONTINUOUS
 62
     4
 10
1276.088727
 20
1718.327557
 11
1267.588727
 21
1718.327557
  0
LINE
  8
CSLAYER1
  6
CONTINUOUS
 62
     4
 10
1267.588727
 20
1718.327557
 11
1266.273773
 21
1719.086747
  0
ARC
  8
CSLAYER1
  6
CONTINUOUS
 62
     4
 10
1276.088727
 20
1734.568368
 40
16.240811
 50
252.412046
 51
270.000000
  0
ARC
  8
CSLAYER1
  6
CONTINUOUS
 62
     4
 10
1268.727511
 20
1722.530238
 40
4.228294
 50
245.472640
 51
305.472640
  0
LINE
  8
CSLAYER1
  6
CONTINUOUS
 62
     4
 10
1276.088727
 20
1718.327557
 11
1284.588727
 21
1718.327557
  0
LINE
  8
CSLAYER1
  6
CONTINUOUS
 62
     4
 10
1284.588727
 20
1718.327557
 11
1285.903682
 21
1719.086747
  0
ARC
  8
CSLAYER1
  6
CONTINUOUS
 62
     4
 10
1276.088727
 20
1734.568368
 40
16.240811
 50
270.000000
 51
287.587954
  0
ARC
  8
CSLAYER1
  6
CONTINUOUS
 62
     4
 10
1283.449943
 20
1722.530238
 40
4.228294
 50
234.527360
 51
294.527360
  0
ENDBLK
  8
0
  0
BLOCK
  8
CSLAYER1
  2
BLKF0017
 70
   64
 10
0.0
 20
0.0
 30
0.0
  0
LINE
  8
CSLAYER1
  6
CONTINUOUS
 62
     4
 10
1649.088727
 20
2512.301159
 11
1657.588727
 21
2512.301159
  0
LINE
  8
CSLAYER1
  6
CONTINUOUS
 62
     4
 10
1649.088727
 20
2505.301159
 11
1658.903682
 21
2505.301159
  0
LINE
  8
CSLAYER1
  6
CONTINUOUS
 62
     4
 10
1658.903682
 20
2511.541970
 11
1658.903682
 21
2505.301159
  0
LINE
  8
CSLAYER1
  6
CONTINUOUS
 62
     4
 10
1653.996205
 20
2511.541970
 11
1653.996205
 21
2505.301159
  0
LINE
  8
CSLAYER1
  6
CONTINUOUS
 62
     4
 10
1657.588727
 20
2512.301159
 11
1658.903682
 21
2511.541970
  0
ARC
  8
CSLAYER1
  6
CONTINUOUS
 62
     4
 10
1649.088727
 20
2496.060349
 40
16.240811
 50
72.412046
 51
90.000000
  0
ARC
  8
CSLAYER1
  6
CONTINUOUS
 62
     4
 10
1656.449943
 20
2508.098478
 40
4.228294
 50
65.472640
 51
125.472640
  0
LINE
  8
CSLAYER1
  6
CONTINUOUS
 62
     4
 10
1649.088727
 20
2512.301159
 11
1640.588727
 21
2512.301159
  0
LINE
  8
CSLAYER1
  6
CONTINUOUS
 62
     4
 10
1649.088727
 20
2505.301159
 11
1639.273773
 21
2505.301159
  0
LINE
  8
CSLAYER1
  6
CONTINUOUS
 62
     4
 10
1639.273773
 20
2511.541970
 11
1639.273773
 21
2505.301159
  0
LINE
  8
CSLAYER1
  6
CONTINUOUS
 62
     4
 10
1644.181250
 20
2511.541970
 11
1644.181250
 21
2505.301159
  0
LINE
  8
CSLAYER1
  6
CONTINUOUS
 62
     4
 10
1640.588727
 20
2512.301159
 11
1639.273773
 21
2511.541970
  0
ARC
  8
CSLAYER1
  6
CONTINUOUS
 62
     4
 10
1649.088727
 20
2496.060349
 40
16.240811
 50
90.000000
 51
107.587954
  0
ARC
  8
CSLAYER1
  6
CONTINUOUS
 62
     4
 10
1641.727511
 20
2508.098478
 40
4.228294
 50
54.527360
 51
114.527360
  0
ENDBLK
  8
0
  0
BLOCK
  8
CSLAYER1
  2
BLKF0018
 70
   64
 10
0.0
 20
0.0
 30
0.0
  0
LINE
  8
CSLAYER1
  6
CONTINUOUS
 62
     4
 10
1649.088727
 20
2494.667277
 11
1657.588727
 21
2494.667277
  0
LINE
  8
CSLAYER1
  6
CONTINUOUS
 62
     4
 10
1658.903682
 20
2493.908087
 11
1658.903682
 21
2487.426466
  0
LINE
  8
CSLAYER1
  6
CONTINUOUS
 62
     4
 10
1653.996205
 20
2493.908087
 11
1653.996205
 21
2487.426466
  0
LINE
  8
CSLAYER1
  6
CONTINUOUS
 62
     4
 10
1657.588727
 20
2494.667277
 11
1658.903682
 21
2493.908087
  0
ARC
  8
CSLAYER1
  6
CONTINUOUS
 62
     4
 10
1649.088727
 20
2478.426466
 40
16.240811
 50
72.412046
 51
90.000000
  0
ARC
  8
CSLAYER1
  6
CONTINUOUS
 62
     4
 10
1656.449943
 20
2490.464596
 40
4.228294
 50
65.472640
 51
125.472640
  0
LINE
  8
CSLAYER1
  6
CONTINUOUS
 62
     4
 10
1649.088727
 20
2494.667277
 11
1640.588727
 21
2494.667277
  0
LINE
  8
CSLAYER1
  6
CONTINUOUS
 62
     4
 10
1639.273773
 20
2493.908087
 11
1639.273773
 21
2487.426466
  0
LINE
  8
CSLAYER1
  6
CONTINUOUS
 62
     4
 10
1644.181250
 20
2493.908087
 11
1644.181250
 21
2487.426466
  0
LINE
  8
CSLAYER1
  6
CONTINUOUS
 62
     4
 10
1640.588727
 20
2494.667277
 11
1639.273773
 21
2493.908087
  0
ARC
  8
CSLAYER1
  6
CONTINUOUS
 62
     4
 10
1649.088727
 20
2478.426466
 40
16.240811
 50
90.000000
 51
107.587954
  0
ARC
  8
CSLAYER1
  6
CONTINUOUS
 62
     4
 10
1641.727511
 20
2490.464596
 40
4.228294
 50
54.527360
 51
114.527360
  0
LINE
  8
CSLAYER1
  6
CONTINUOUS
 62
     4
 10
1649.088727
 20
2486.667277
 11
1657.588727
 21
2486.667277
  0
LINE
  8
CSLAYER1
  6
CONTINUOUS
 62
     4
 10
1657.588727
 20
2486.667277
 11
1658.903682
 21
2487.426466
  0
ARC
  8
CSLAYER1
  6
CONTINUOUS
 62
     4
 10
1649.088727
 20
2502.908087
 40
16.240811
 50
270.000000
 51
287.587954
  0
ARC
  8
CSLAYER1
  6
CONTINUOUS
 62
     4
 10
1656.449943
 20
2490.869958
 40
4.228294
 50
234.527360
 51
294.527360
  0
LINE
  8
CSLAYER1
  6
CONTINUOUS
 62
     4
 10
1649.088727
 20
2486.667277
 11
1640.588727
 21
2486.667277
  0
LINE
  8
CSLAYER1
  6
CONTINUOUS
 62
     4
 10
1640.588727
 20
2486.667277
 11
1639.273773
 21
2487.426466
  0
ARC
  8
CSLAYER1
  6
CONTINUOUS
 62
     4
 10
1649.088727
 20
2502.908087
 40
16.240811
 50
252.412046
 51
270.000000
  0
ARC
  8
CSLAYER1
  6
CONTINUOUS
 62
     4
 10
1641.727511
 20
2490.869958
 40
4.228294
 50
245.472640
 51
305.472640
  0
ENDBLK
  8
0
  0
BLOCK
  8
CSLAYER1
  2
BLKF0019
 70
   64
 10
0.0
 20
0.0
 30
0.0
  0
LINE
  8
CSLAYER1
  6
CONTINUOUS
 62
     4
 10
1276.088727
 20
2512.301159
 11
1267.588727
 21
2512.301159
  0
LINE
  8
CSLAYER1
  6
CONTINUOUS
 62
     4
 10
1276.088727
 20
2505.301159
 11
1266.273773
 21
2505.301159
  0
LINE
  8
CSLAYER1
  6
CONTINUOUS
 62
     4
 10
1266.273773
 20
2511.541970
 11
1266.273773
 21
2505.301159
  0
LINE
  8
CSLAYER1
  6
CONTINUOUS
 62
     4
 10
1271.181250
 20
2511.541970
 11
1271.181250
 21
2505.301159
  0
LINE
  8
CSLAYER1
  6
CONTINUOUS
 62
     4
 10
1267.588727
 20
2512.301159
 11
1266.273773
 21
2511.541970
  0
ARC
  8
CSLAYER1
  6
CONTINUOUS
 62
     4
 10
1276.088727
 20
2496.060349
 40
16.240811
 50
90.000000
 51
107.587954
  0
ARC
  8
CSLAYER1
  6
CONTINUOUS
 62
     4
 10
1268.727511
 20
2508.098478
 40
4.228294
 50
54.527360
 51
114.527360
  0
LINE
  8
CSLAYER1
  6
CONTINUOUS
 62
     4
 10
1276.088727
 20
2512.301159
 11
1284.588727
 21
2512.301159
  0
LINE
  8
CSLAYER1
  6
CONTINUOUS
 62
     4
 10
1276.088727
 20
2505.301159
 11
1285.903682
 21
2505.301159
  0
LINE
  8
CSLAYER1
  6
CONTINUOUS
 62
     4
 10
1285.903682
 20
2511.541970
 11
1285.903682
 21
2505.301159
  0
LINE
  8
CSLAYER1
  6
CONTINUOUS
 62
     4
 10
1280.996205
 20
2511.541970
 11
1280.996205
 21
2505.301159
  0
LINE
  8
CSLAYER1
  6
CONTINUOUS
 62
     4
 10
1284.588727
 20
2512.301159
 11
1285.903682
 21
2511.541970
  0
ARC
  8
CSLAYER1
  6
CONTINUOUS
 62
     4
 10
1276.088727
 20
2496.060349
 40
16.240811
 50
72.412046
 51
90.000000
  0
ARC
  8
CSLAYER1
  6
CONTINUOUS
 62
     4
 10
1283.449943
 20
2508.098478
 40
4.228294
 50
65.472640
 51
125.472640
  0
ENDBLK
  8
0
  0
BLOCK
  8
CSLAYER1
  2
BLKF0020
 70
   64
 10
0.0
 20
0.0
 30
0.0
  0
LINE
  8
CSLAYER1
  6
CONTINUOUS
 62
     4
 10
1276.088727
 20
2494.667277
 11
1267.588727
 21
2494.667277
  0
LINE
  8
CSLAYER1
  6
CONTINUOUS
 62
     4
 10
1266.273773
 20
2493.908087
 11
1266.273773
 21
2487.426466
  0
LINE
  8
CSLAYER1
  6
CONTINUOUS
 62
     4
 10
1271.181250
 20
2493.908087
 11
1271.181250
 21
2487.426466
  0
LINE
  8
CSLAYER1
  6
CONTINUOUS
 62
     4
 10
1267.588727
 20
2494.667277
 11
1266.273773
 21
2493.908087
  0
ARC
  8
CSLAYER1
  6
CONTINUOUS
 62
     4
 10
1276.088727
 20
2478.426466
 40
16.240811
 50
90.000000
 51
107.587954
  0
ARC
  8
CSLAYER1
  6
CONTINUOUS
 62
     4
 10
1268.727511
 20
2490.464596
 40
4.228294
 50
54.527360
 51
114.527360
  0
LINE
  8
CSLAYER1
  6
CONTINUOUS
 62
     4
 10
1276.088727
 20
2494.667277
 11
1284.588727
 21
2494.667277
  0
LINE
  8
CSLAYER1
  6
CONTINUOUS
 62
     4
 10
1285.903682
 20
2493.908087
 11
1285.903682
 21
2487.426466
  0
LINE
  8
CSLAYER1
  6
CONTINUOUS
 62
     4
 10
1280.996205
 20
2493.908087
 11
1280.996205
 21
2487.426466
  0
LINE
  8
CSLAYER1
  6
CONTINUOUS
 62
     4
 10
1284.588727
 20
2494.667277
 11
1285.903682
 21
2493.908087
  0
ARC
  8
CSLAYER1
  6
CONTINUOUS
 62
     4
 10
1276.088727
 20
2478.426466
 40
16.240811
 50
72.412046
 51
90.000000
  0
ARC
  8
CSLAYER1
  6
CONTINUOUS
 62
     4
 10
1283.449943
 20
2490.464596
 40
4.228294
 50
65.472640
 51
125.472640
  0
LINE
  8
CSLAYER1
  6
CONTINUOUS
 62
     4
 10
1276.088727
 20
2486.667277
 11
1267.588727
 21
2486.667277
  0
LINE
  8
CSLAYER1
  6
CONTINUOUS
 62
     4
 10
1267.588727
 20
2486.667277
 11
1266.273773
 21
2487.426466
  0
ARC
  8
CSLAYER1
  6
CONTINUOUS
 62
     4
 10
1276.088727
 20
2502.908087
 40
16.240811
 50
252.412046
 51
270.000000
  0
ARC
  8
CSLAYER1
  6
CONTINUOUS
 62
     4
 10
1268.727511
 20
2490.869958
 40
4.228294
 50
245.472640
 51
305.472640
  0
LINE
  8
CSLAYER1
  6
CONTINUOUS
 62
     4
 10
1276.088727
 20
2486.667277
 11
1284.588727
 21
2486.667277
  0
LINE
  8
CSLAYER1
  6
CONTINUOUS
 62
     4
 10
1284.588727
 20
2486.667277
 11
1285.903682
 21
2487.426466
  0
ARC
  8
CSLAYER1
  6
CONTINUOUS
 62
     4
 10
1276.088727
 20
2502.908087
 40
16.240811
 50
270.000000
 51
287.587954
  0
ARC
  8
CSLAYER1
  6
CONTINUOUS
 62
     4
 10
1283.449943
 20
2490.869958
 40
4.228294
 50
234.527360
 51
294.527360
  0
ENDBLK
  8
0
  0
BLOCK
  8
CSLAYER1
  2
BLKF0021
 70
   64
 10
0.0
 20
0.0
 30
0.0
  0
LINE
  8
CSLAYER1
  6
CONTINUOUS
 62
     3
 10
2125.508484
 20
4164.329123
 11
2125.508484
 21
4102.329123
  0
LINE
  8
CSLAYER1
  6
CONTINUOUS
 62
     3
 10
2123.008484
 20
4166.829123
 11
2038.008484
 21
4166.829123
  0
LINE
  8
CSLAYER1
  6
CENTER
 62
     5
 10
2183.858123
 20
4094.329123
 11
2125.508484
 21
4094.329123
  0
LINE
  8
CSLAYER1
  6
CONTINUOUS
 62
     2
 10
2123.008484
 20
4110.329123
 11
2038.008484
 21
4110.329123
  0
LINE
  8
CSLAYER1
  6
CONTINUOUS
 62
     3
 10
2123.008484
 20
4161.829123
 11
2123.008484
 21
4116.829123
  0
LINE
  8
CSLAYER1
  6
CONTINUOUS
 62
     3
 10
2035.508484
 20
4164.329123
 11
2035.508484
 21
4094.329123
  0
LINE
  8
CSLAYER1
  6
CONTINUOUS
 62
     3
 10
2120.508484
 20
4164.329123
 11
2043.508484
 21
4164.329123
  0
LINE
  8
CSLAYER1
  6
CONTINUOUS
 62
     3
 10
2120.508484
 20
4114.329123
 11
2043.508484
 21
4114.329123
  0
ARC
  8
CSLAYER1
  6
CONTINUOUS
 62
     3
 10
2097.576666
 20
4139.329123
 40
59.568182
 50
155.185163
 51
204.814837
  0
ARC
  8
CSLAYER1
  6
CONTINUOUS
 62
     3
 10
2120.508484
 20
4161.829123
 40
2.500000
 50
0.000000
 51
90.000000
  0
ARC
  8
CSLAYER1
  6
CONTINUOUS
 62
     3
 10
2120.508484
 20
4116.829123
 40
2.500000
 50
270.000000
 51
360.000000
  0
ARC
  8
CSLAYER1
  6
CONTINUOUS
 62
     3
 10
2123.008484
 20
4164.329123
 40
2.500000
 50
0.000000
 51
90.000000
  0
ARC
  8
CSLAYER1
  6
CONTINUOUS
 62
     3
 10
2038.008484
 20
4164.329123
 40
2.500000
 50
90.000000
 51
180.000000
  0
ARC
  8
CSLAYER1
  6
CONTINUOUS
 62
     2
 10
2038.008484
 20
4107.829123
 40
2.500000
 50
90.000000
 51
180.000000
  0
ARC
  8
CSLAYER1
  6
CONTINUOUS
 62
     2
 10
2123.008484
 20
4107.829123
 40
2.500000
 50
0.000000
 51
90.000000
  0
LINE
  8
CSLAYER1
  6
CONTINUOUS
 62
     3
 10
2125.508484
 20
4024.329123
 11
2125.508484
 21
4086.329123
  0
LINE
  8
CSLAYER1
  6
CONTINUOUS
 62
     3
 10
2123.008484
 20
4021.829123
 11
2038.008484
 21
4021.829123
  0
LINE
  8
CSLAYER1
  6
CONTINUOUS
 62
     2
 10
2123.008484
 20
4078.329123
 11
2038.008484
 21
4078.329123
  0
LINE
  8
CSLAYER1
  6
CONTINUOUS
 62
     3
 10
2035.508484
 20
4024.329123
 11
2035.508484
 21
4094.329123
  0
ARC
  8
CSLAYER1
  6
CONTINUOUS
 62
     3
 10
2123.008484
 20
4024.329123
 40
2.500000
 50
270.000000
 51
360.000000
  0
ARC
  8
CSLAYER1
  6
CONTINUOUS
 62
     3
 10
2038.008484
 20
4024.329123
 40
2.500000
 50
180.000000
 51
270.000000
  0
ARC
  8
CSLAYER1
  6
CONTINUOUS
 62
     2
 10
2038.008484
 20
4080.829123
 40
2.500000
 50
180.000000
 51
270.000000
  0
ARC
  8
CSLAYER1
  6
CONTINUOUS
 62
     2
 10
2123.008484
 20
4080.829123
 40
2.500000
 50
270.000000
 51
360.000000
  0
LINE
  8
CSLAYER1
  6
CONTINUOUS
 62
     3
 10
2123.008484
 20
4026.829123
 11
2123.008484
 21
4071.829123
  0
LINE
  8
CSLAYER1
  6
CONTINUOUS
 62
     3
 10
2120.508484
 20
4024.329123
 11
2043.508484
 21
4024.329123
  0
LINE
  8
CSLAYER1
  6
CONTINUOUS
 62
     3
 10
2120.508484
 20
4074.329123
 11
2043.508484
 21
4074.329123
  0
ARC
  8
CSLAYER1
  6
CONTINUOUS
 62
     3
 10
2097.576666
 20
4049.329123
 40
59.568182
 50
155.185163
 51
204.814837
  0
ARC
  8
CSLAYER1
  6
CONTINUOUS
 62
     3
 10
2120.508484
 20
4026.829123
 40
2.500000
 50
270.000000
 51
360.000000
  0
ARC
  8
CSLAYER1
  6
CONTINUOUS
 62
     3
 10
2120.508484
 20
4071.829123
 40
2.500000
 50
0.000000
 51
90.000000
  0
LINE
  8
CSLAYER1
  6
CONTINUOUS
 62
     3
 10
2132.508484
 20
4087.329123
 11
2132.508484
 21
4090.829123
  0
LINE
  8
CSLAYER1
  6
CONTINUOUS
 62
     3
 10
2183.858123
 20
4090.829123
 11
2132.508484
 21
4090.829123
  0
LINE
  8
CSLAYER1
  6
CONTINUOUS
 62
     3
 10
2131.508484
 20
4086.329123
 11
2125.508484
 21
4086.329123
  0
LINE
  8
CSLAYER1
  6
CONTINUOUS
 62
     3
 10
2131.508484
 20
4102.329123
 11
2125.508484
 21
4102.329123
  0
LINE
  8
CSLAYER1
  6
CONTINUOUS
 62
     3
 10
2183.858123
 20
4097.829123
 11
2132.508484
 21
4097.829123
  0
ARC
  8
CSLAYER1
  6
CONTINUOUS
 62
     3
 10
2131.508484
 20
4101.329123
 40
1.000000
 50
0.000000
 51
90.000000
  0
ARC
  8
CSLAYER1
  6
CONTINUOUS
 62
     3
 10
2131.508484
 20
4087.329123
 40
1.000000
 50
270.000000
 51
360.000000
  0
LINE
  8
CSLAYER1
  6
CONTINUOUS
 62
     3
 10
2132.508484
 20
4097.829123
 11
2132.508484
 21
4101.329123
  0
LINE
  8
CSLAYER1
  6
CONTINUOUS
 62
     2
 10
2132.508484
 20
4090.829123
 11
2132.508484
 21
4097.829123
  0
LINE
  8
CSLAYER1
  6
CONTINUOUS
 62
     2
 10
2125.508484
 20
4102.329123
 11
2125.508484
 21
4094.329123
  0
LINE
  8
CSLAYER1
  6
CONTINUOUS
 62
     2
 10
2125.508484
 20
4086.329123
 11
2125.508484
 21
4094.329123
  0
LINE
  8
CSLAYER1
  6
CONTINUOUS
 62
     2
 10
2106.015473
 20
4106.491782
 11
2115.150473
 21
4106.491782
  0
LINE
  8
CSLAYER1
  6
CONTINUOUS
 62
     2
 10
2106.015473
 20
4082.866782
 11
2115.150473
 21
4082.866782
  0
LINE
  8
CSLAYER1
  6
CONTINUOUS
 62
     2
 10
2116.410473
 20
4105.231782
 11
2116.410473
 21
4084.126782
  0
LINE
  8
CSLAYER1
  6
CONTINUOUS
 62
     2
 10
2104.755473
 20
4105.231782
 11
2104.755473
 21
4084.126782
  0
LINE
  8
CSLAYER1
  6
CONTINUOUS
 62
     2
 10
2106.645473
 20
4084.756782
 11
2114.677973
 21
4084.756782
  0
LINE
  8
CSLAYER1
  6
CONTINUOUS
 62
     2
 10
2106.645473
 20
4087.906782
 11
2107.590473
 21
4087.906782
  0
LINE
  8
CSLAYER1
  6
CONTINUOUS
 62
     2
 10
2106.645473
 20
4096.569282
 11
2107.590473
 21
4096.569282
  0
LINE
  8
CSLAYER1
  6
CONTINUOUS
 62
     2
 10
2106.645473
 20
4101.136782
 11
2111.685473
 21
4101.136782
  0
LINE
  8
CSLAYER1
  6
CONTINUOUS
 62
     2
 10
2105.542973
 20
4100.034282
 11
2105.542973
 21
4097.671782
  0
LINE
  8
CSLAYER1
  6
CONTINUOUS
 62
     2
 10
2112.787973
 20
4100.034282
 11
2112.787973
 21
4097.671782
  0
LINE
  8
CSLAYER1
  6
CONTINUOUS
 62
     2
 10
2115.780473
 20
4086.804282
 11
2115.780473
 21
4085.859282
  0
LINE
  8
CSLAYER1
  6
CONTINUOUS
 62
     2
 10
2108.535473
 20
4095.624282
 11
2108.535473
 21
4088.851782
  0
LINE
  8
CSLAYER1
  6
CONTINUOUS
 62
     2
 10
2109.322973
 20
4095.624282
 11
2109.322973
 21
4088.851782
  0
ARC
  8
CSLAYER1
  6
CONTINUOUS
 62
     2
 10
2106.645473
 20
4100.034282
 40
1.102500
 50
90.000000
 51
180.000000
  0
ARC
  8
CSLAYER1
  6
CONTINUOUS
 62
     2
 10
2111.685473
 20
4100.034282
 40
1.102500
 50
0.000000
 51
90.000000
  0
ARC
  8
CSLAYER1
  6
CONTINUOUS
 62
     2
 10
2111.685473
 20
4097.671782
 40
1.102500
 50
270.000000
 51
360.000000
  0
ARC
  8
CSLAYER1
  6
CONTINUOUS
 62
     2
 10
2106.645473
 20
4097.671782
 40
1.102500
 50
180.000000
 51
270.000000
  0
ARC
  8
CSLAYER1
  6
CONTINUOUS
 62
     2
 10
2114.677973
 20
4086.804282
 40
1.102500
 50
0.000000
 51
90.000000
  0
ARC
  8
CSLAYER1
  6
CONTINUOUS
 62
     2
 10
2114.677973
 20
4085.859282
 40
1.102500
 50
270.000000
 51
360.000000
  0
ARC
  8
CSLAYER1
  6
CONTINUOUS
 62
     2
 10
2106.645473
 20
4085.859282
 40
1.102500
 50
180.000000
 51
270.000000
  0
ARC
  8
CSLAYER1
  6
CONTINUOUS
 62
     2
 10
2106.645473
 20
4086.804282
 40
1.102500
 50
90.000000
 51
180.000000
  0
LINE
  8
CSLAYER1
  6
CONTINUOUS
 62
     2
 10
2110.267973
 20
4096.569282
 11
2111.685473
 21
4096.569282
  0
LINE
  8
CSLAYER1
  6
CONTINUOUS
 62
     2
 10
2110.267973
 20
4087.906782
 11
2114.677973
 21
4087.906782
  0
ARC
  8
CSLAYER1
  6
CONTINUOUS
 62
     2
 10
2107.590473
 20
4095.624282
 40
0.945000
 50
0.000000
 51
90.000000
  0
ARC
  8
CSLAYER1
  6
CONTINUOUS
 62
     2
 10
2110.267973
 20
4095.624282
 40
0.945000
 50
90.000000
 51
180.000000
  0
ARC
  8
CSLAYER1
  6
CONTINUOUS
 62
     2
 10
2110.267973
 20
4088.851782
 40
0.945000
 50
180.000000
 51
270.000000
  0
ARC
  8
CSLAYER1
  6
CONTINUOUS
 62
     2
 10
2106.015473
 20
4105.231782
 40
1.260000
 50
90.000000
 51
180.000000
  0
ARC
  8
CSLAYER1
  6
CONTINUOUS
 62
     2
 10
2115.150473
 20
4105.231782
 40
1.260000
 50
0.000000
 51
90.000000
  0
ARC
  8
CSLAYER1
  6
CONTINUOUS
 62
     2
 10
2115.150473
 20
4084.126782
 40
1.260000
 50
270.000000
 51
360.000000
  0
ARC
  8
CSLAYER1
  6
CONTINUOUS
 62
     2
 10
2106.015473
 20
4084.126782
 40
1.260000
 50
180.000000
 51
270.000000
  0
ARC
  8
CSLAYER1
  6
CONTINUOUS
 62
     2
 10
2107.590473
 20
4088.851782
 40
0.945000
 50
270.000000
 51
360.000000
  0
LINE
  8
CSLAYER1
  6
CONTINUOUS
 62
     2
 10
2105.542973
 20
4086.804282
 11
2105.542973
 21
4085.859282
  0
CIRCLE
  8
CSLAYER1
  6
CONTINUOUS
 62
     2
 10
2091.008484
 20
4144.329123
 40
2.500000
  0
CIRCLE
  8
CSLAYER1
  6
CONTINUOUS
 62
     2
 10
2091.008484
 20
4154.329123
 40
2.500000
  0
CIRCLE
  8
CSLAYER1
  6
CONTINUOUS
 62
     2
 10
2081.008484
 20
4154.329123
 40
2.500000
  0
CIRCLE
  8
CSLAYER1
  6
CONTINUOUS
 62
     2
 10
2081.008484
 20
4144.329123
 40
2.500000
  0
CIRCLE
  8
CSLAYER1
  6
CONTINUOUS
 62
     2
 10
2071.008484
 20
4144.329123
 40
2.500000
  0
CIRCLE
  8
CSLAYER1
  6
CONTINUOUS
 62
     2
 10
2071.008484
 20
4154.329123
 40
2.500000
  0
CIRCLE
  8
CSLAYER1
  6
CONTINUOUS
 62
     2
 10
2061.008484
 20
4154.329123
 40
2.500000
  0
CIRCLE
  8
CSLAYER1
  6
CONTINUOUS
 62
     2
 10
2061.008484
 20
4144.329123
 40
2.500000
  0
CIRCLE
  8
CSLAYER1
  6
CONTINUOUS
 62
     2
 10
2051.008484
 20
4144.329123
 40
2.500000
  0
CIRCLE
  8
CSLAYER1
  6
CONTINUOUS
 62
     2
 10
2051.008484
 20
4154.329123
 40
2.500000
  0
CIRCLE
  8
CSLAYER1
  6
CONTINUOUS
 62
     2
 10
2091.008484
 20
4134.329123
 40
2.500000
  0
CIRCLE
  8
CSLAYER1
  6
CONTINUOUS
 62
     2
 10
2091.008484
 20
4124.329123
 40
2.500000
  0
CIRCLE
  8
CSLAYER1
  6
CONTINUOUS
 62
     2
 10
2081.008484
 20
4124.329123
 40
2.500000
  0
CIRCLE
  8
CSLAYER1
  6
CONTINUOUS
 62
     2
 10
2081.008484
 20
4134.329123
 40
2.500000
  0
CIRCLE
  8
CSLAYER1
  6
CONTINUOUS
 62
     2
 10
2071.008484
 20
4134.329123
 40
2.500000
  0
CIRCLE
  8
CSLAYER1
  6
CONTINUOUS
 62
     2
 10
2071.008484
 20
4124.329123
 40
2.500000
  0
CIRCLE
  8
CSLAYER1
  6
CONTINUOUS
 62
     2
 10
2061.008484
 20
4124.329123
 40
2.500000
  0
CIRCLE
  8
CSLAYER1
  6
CONTINUOUS
 62
     2
 10
2061.008484
 20
4134.329123
 40
2.500000
  0
CIRCLE
  8
CSLAYER1
  6
CONTINUOUS
 62
     2
 10
2051.008484
 20
4134.329123
 40
2.500000
  0
CIRCLE
  8
CSLAYER1
  6
CONTINUOUS
 62
     2
 10
2051.008484
 20
4124.329123
 40
2.500000
  0
CIRCLE
  8
CSLAYER1
  6
CONTINUOUS
 62
     2
 10
2091.008484
 20
4044.329123
 40
2.500000
  0
CIRCLE
  8
CSLAYER1
  6
CONTINUOUS
 62
     2
 10
2091.008484
 20
4034.329123
 40
2.500000
  0
CIRCLE
  8
CSLAYER1
  6
CONTINUOUS
 62
     2
 10
2081.008484
 20
4034.329123
 40
2.500000
  0
CIRCLE
  8
CSLAYER1
  6
CONTINUOUS
 62
     2
 10
2081.008484
 20
4044.329123
 40
2.500000
  0
CIRCLE
  8
CSLAYER1
  6
CONTINUOUS
 62
     2
 10
2071.008484
 20
4044.329123
 40
2.500000
  0
CIRCLE
  8
CSLAYER1
  6
CONTINUOUS
 62
     2
 10
2071.008484
 20
4034.329123
 40
2.500000
  0
CIRCLE
  8
CSLAYER1
  6
CONTINUOUS
 62
     2
 10
2061.008484
 20
4034.329123
 40
2.500000
  0
CIRCLE
  8
CSLAYER1
  6
CONTINUOUS
 62
     2
 10
2061.008484
 20
4044.329123
 40
2.500000
  0
CIRCLE
  8
CSLAYER1
  6
CONTINUOUS
 62
     2
 10
2051.008484
 20
4044.329123
 40
2.500000
  0
CIRCLE
  8
CSLAYER1
  6
CONTINUOUS
 62
     2
 10
2051.008484
 20
4034.329123
 40
2.500000
  0
CIRCLE
  8
CSLAYER1
  6
CONTINUOUS
 62
     2
 10
2091.008484
 20
4054.329123
 40
2.500000
  0
CIRCLE
  8
CSLAYER1
  6
CONTINUOUS
 62
     2
 10
2091.008484
 20
4064.329123
 40
2.500000
  0
CIRCLE
  8
CSLAYER1
  6
CONTINUOUS
 62
     2
 10
2081.008484
 20
4064.329123
 40
2.500000
  0
CIRCLE
  8
CSLAYER1
  6
CONTINUOUS
 62
     2
 10
2081.008484
 20
4054.329123
 40
2.500000
  0
CIRCLE
  8
CSLAYER1
  6
CONTINUOUS
 62
     2
 10
2071.008484
 20
4054.329123
 40
2.500000
  0
CIRCLE
  8
CSLAYER1
  6
CONTINUOUS
 62
     2
 10
2071.008484
 20
4064.329123
 40
2.500000
  0
CIRCLE
  8
CSLAYER1
  6
CONTINUOUS
 62
     2
 10
2061.008484
 20
4064.329123
 40
2.500000
  0
CIRCLE
  8
CSLAYER1
  6
CONTINUOUS
 62
     2
 10
2061.008484
 20
4054.329123
 40
2.500000
  0
CIRCLE
  8
CSLAYER1
  6
CONTINUOUS
 62
     2
 10
2051.008484
 20
4054.329123
 40
2.500000
  0
CIRCLE
  8
CSLAYER1
  6
CONTINUOUS
 62
     2
 10
2051.008484
 20
4064.329123
 40
2.500000
  0
LINE
  8
CSLAYER1
  6
CONTINUOUS
 62
     2
 10
2117.008484
 20
4066.829123
 11
2117.008484
 21
4031.829123
  0
LINE
  8
CSLAYER1
  6
CONTINUOUS
 62
     2
 10
2101.008484
 20
4066.829123
 11
2101.008484
 21
4031.829123
  0
LINE
  8
CSLAYER1
  6
CONTINUOUS
 62
     2
 10
2115.508484
 20
4068.329123
 11
2102.508484
 21
4068.329123
  0
LINE
  8
CSLAYER1
  6
CONTINUOUS
 62
     2
 10
2116.008484
 20
4066.829123
 11
2116.008484
 21
4031.829123
  0
LINE
  8
CSLAYER1
  6
CONTINUOUS
 62
     2
 10
2102.008484
 20
4066.829123
 11
2102.008484
 21
4031.829123
  0
LINE
  8
CSLAYER1
  6
CONTINUOUS
 62
     2
 10
2115.508484
 20
4067.329123
 11
2102.508484
 21
4067.329123
  0
LINE
  8
CSLAYER1
  6
CONTINUOUS
 62
     2
 10
2115.508484
 20
4030.329123
 11
2102.508484
 21
4030.329123
  0
LINE
  8
CSLAYER1
  6
CONTINUOUS
 62
     2
 10
2115.508484
 20
4031.329123
 11
2102.508484
 21
4031.329123
  0
ARC
  8
CSLAYER1
  6
CONTINUOUS
 62
     2
 10
2115.508484
 20
4066.829123
 40
0.500000
 50
0.000000
 51
90.000000
  0
ARC
  8
CSLAYER1
  6
CONTINUOUS
 62
     2
 10
2102.508484
 20
4066.829123
 40
0.500000
 50
90.000000
 51
180.000000
  0
ARC
  8
CSLAYER1
  6
CONTINUOUS
 62
     2
 10
2115.508484
 20
4031.829123
 40
0.500000
 50
270.000000
 51
360.000000
  0
ARC
  8
CSLAYER1
  6
CONTINUOUS
 62
     2
 10
2102.508484
 20
4031.829123
 40
0.500000
 50
180.000000
 51
270.000000
  0
ARC
  8
CSLAYER1
  6
CONTINUOUS
 62
     2
 10
2115.508484
 20
4066.829123
 40
1.500000
 50
0.000000
 51
90.000000
  0
ARC
  8
CSLAYER1
  6
CONTINUOUS
 62
     2
 10
2102.508484
 20
4066.829123
 40
1.500000
 50
90.000000
 51
180.000000
  0
ARC
  8
CSLAYER1
  6
CONTINUOUS
 62
     2
 10
2115.508484
 20
4031.829123
 40
1.500000
 50
270.000000
 51
360.000000
  0
ARC
  8
CSLAYER1
  6
CONTINUOUS
 62
     2
 10
2102.508484
 20
4031.829123
 40
1.500000
 50
180.000000
 51
270.000000
  0
LINE
  8
CSLAYER1
  6
CONTINUOUS
 62
     2
 10
2112.008484
 20
4058.329123
 11
2112.008484
 21
4040.329123
  0
LINE
  8
CSLAYER1
  6
CONTINUOUS
 62
     2
 10
2115.086556
 20
4049.329123
 11
2112.008484
 21
4040.329123
  0
LINE
  8
CSLAYER1
  6
CONTINUOUS
 62
     2
 10
2115.086556
 20
4049.329123
 11
2112.008484
 21
4058.329123
  0
TEXT
  8
CSLAYER1
 62
     2
 10
2103.714530
 20
4058.309258
 40
7.066058
 41
1.574983
  1
UP
 50
270.000000
 51
0.000000
  7
EASYDRAW_FONT
 72
     5
 11
2103.714530
 21
4039.761055
  0
LINE
  8
CSLAYER1
  6
CONTINUOUS
 62
     2
 10
2117.008484
 20
4121.829123
 11
2117.008484
 21
4156.829123
  0
LINE
  8
CSLAYER1
  6
CONTINUOUS
 62
     2
 10
2101.008484
 20
4121.829123
 11
2101.008484
 21
4156.829123
  0
LINE
  8
CSLAYER1
  6
CONTINUOUS
 62
     2
 10
2115.508484
 20
4120.329123
 11
2102.508484
 21
4120.329123
  0
LINE
  8
CSLAYER1
  6
CONTINUOUS
 62
     2
 10
2116.008484
 20
4121.829123
 11
2116.008484
 21
4156.829123
  0
LINE
  8
CSLAYER1
  6
CONTINUOUS
 62
     2
 10
2102.008484
 20
4121.829123
 11
2102.008484
 21
4156.829123
  0
LINE
  8
CSLAYER1
  6
CONTINUOUS
 62
     2
 10
2115.508484
 20
4121.329123
 11
2102.508484
 21
4121.329123
  0
LINE
  8
CSLAYER1
  6
CONTINUOUS
 62
     2
 10
2115.508484
 20
4158.329123
 11
2102.508484
 21
4158.329123
  0
LINE
  8
CSLAYER1
  6
CONTINUOUS
 62
     2
 10
2115.508484
 20
4157.329123
 11
2102.508484
 21
4157.329123
  0
ARC
  8
CSLAYER1
  6
CONTINUOUS
 62
     2
 10
2115.508484
 20
4121.829123
 40
0.500000
 50
270.000000
 51
360.000000
  0
ARC
  8
CSLAYER1
  6
CONTINUOUS
 62
     2
 10
2102.508484
 20
4121.829123
 40
0.500000
 50
180.000000
 51
270.000000
  0
ARC
  8
CSLAYER1
  6
CONTINUOUS
 62
     2
 10
2115.508484
 20
4156.829123
 40
0.500000
 50
0.000000
 51
90.000000
  0
ARC
  8
CSLAYER1
  6
CONTINUOUS
 62
     2
 10
2102.508484
 20
4156.829123
 40
0.500000
 50
90.000000
 51
180.000000
  0
ARC
  8
CSLAYER1
  6
CONTINUOUS
 62
     2
 10
2115.508484
 20
4121.829123
 40
1.500000
 50
270.000000
 51
360.000000
  0
ARC
  8
CSLAYER1
  6
CONTINUOUS
 62
     2
 10
2102.508484
 20
4121.829123
 40
1.500000
 50
180.000000
 51
270.000000
  0
ARC
  8
CSLAYER1
  6
CONTINUOUS
 62
     2
 10
2115.508484
 20
4156.829123
 40
1.500000
 50
0.000000
 51
90.000000
  0
ARC
  8
CSLAYER1
  6
CONTINUOUS
 62
     2
 10
2102.508484
 20
4156.829123
 40
1.500000
 50
90.000000
 51
180.000000
  0
LINE
  8
CSLAYER1
  6
CONTINUOUS
 62
     2
 10
2106.535554
 20
4130.329123
 11
2106.535554
 21
4148.329123
  0
LINE
  8
CSLAYER1
  6
CONTINUOUS
 62
     2
 10
2103.457482
 20
4139.329123
 11
2106.535554
 21
4148.329123
  0
LINE
  8
CSLAYER1
  6
CONTINUOUS
 62
     2
 10
2103.457482
 20
4139.329123
 11
2106.535554
 21
4130.329123
  0
TEXT
  8
CSLAYER1
 62
     2
 10
2108.145615
 20
4154.027315
 40
6.383575
 41
1.255870
  1
DOWN
 50
270.000000
 51
0.000000
  7
EASYDRAW_FONT
 72
     5
 11
2108.145615
 21
4124.631865
  0
ENDBLK
  8
0
  0
ENDSEC
  0
SECTION
  2
ENTITIES
  0
LINE
  8
CSLAYER1
  6
CONTINUOUS
 62
     3
 10
6882.003211
 20
98.925572
 11
6882.003211
 21
4800.344266
  0
LINE
  8
CSLAYER1
  6
CONTINUOUS
 62
     3
 10
240.170287
 20
4800.344266
 11
6882.003211
 21
4800.344266
  0
LINE
  8
CSLAYER1
  6
CONTINUOUS
 62
     3
 10
240.170287
 20
98.925572
 11
6882.003211
 21
98.925572
  0
LINE
  8
CSLAYER1
  6
CONTINUOUS
 62
     3
 10
240.170287
 20
98.925572
 11
240.170287
 21
4800.344266
  0
LINE
  8
CSLAYER1
  6
CONTINUOUS
 62
     5
 10
40.170287
 20
2418.925572
 11
140.170287
 21
2418.925572
  0
LINE
  8
CSLAYER1
  6
CONTINUOUS
 62
     5
 10
5282.003211
 20
978.925572
 11
6882.003211
 21
978.925572
  0
LINE
  8
CSLAYER1
  6
CONTINUOUS
 62
     5
 10
5282.003211
 20
258.925572
 11
6882.003211
 21
258.925572
  0
LINE
  8
CSLAYER1
  6
CONTINUOUS
 62
     5
 10
5282.003211
 20
578.925572
 11
6882.003211
 21
578.925572
  0
LINE
  8
CSLAYER1
  6
CONTINUOUS
 62
     5
 10
5282.003211
 20
698.925572
 11
6882.003211
 21
698.925572
  0
LINE
  8
CSLAYER1
  6
CONTINUOUS
 62
     5
 10
5282.003211
 20
818.925572
 11
6882.003211
 21
818.925572
  0
LINE
  8
CSLAYER1
  6
CONTINUOUS
 62
     5
 10
5282.003211
 20
1138.925572
 11
6882.003211
 21
1138.925572
  0
LINE
  8
CSLAYER1
  6
CONTINUOUS
 62
     5
 10
5282.003211
 20
1298.925572
 11
5282.003211
 21
98.925572
  0
LINE
  8
CSLAYER1
  6
CONTINUOUS
 62
     5
 10
5682.003211
 20
1298.925572
 11
5682.003211
 21
818.925572
  0
LINE
  8
CSLAYER1
  6
CONTINUOUS
 62
     5
 10
5282.003211
 20
1298.925572
 11
6882.003211
 21
1298.925572
  0
LINE
  8
CSLAYER1
  6
CONTINUOUS
 62
     5
 10
6282.003211
 20
818.925572
 11
6282.003211
 21
258.925572
  0
TEXT
  8
CSLAYER1
 62
     3
 10
5721.385367
 20
116.051018
 40
118.760727
 41
1.003345
  1
東正車輌株式会社
 50
0.000000
 51
0.000000
  7
EASYDRAW_FONT
 72
     5
 11
6634.930062
 21
116.051018
  0
LINE
  8
CSLAYER1
  6
CONTINUOUS
 62
     5
 10
5782.003211
 20
698.925572
 11
5782.003211
 21
258.925572
  0
TEXT
  8
CSLAYER1
 62
     5
 10
5342.002930
 20
1168.925537
 40
100.000000
 41
1.050000
  1
品　名
 50
0.000000
 51
0.000000
  7
EASYDRAW_FONT
 72
     5
 11
5622.002930
 21
1168.925537
  0
TEXT
  8
CSLAYER1
 62
     5
 10
5342.002930
 20
1008.925537
 40
100.000000
 41
1.050000
  1
型　式
 50
0.000000
 51
0.000000
  7
EASYDRAW_FONT
 72
     5
 11
5622.002930
 21
1008.925537
  0
TEXT
  8
CSLAYER1
 62
     5
 10
5292.002930
 20
848.925598
 40
100.000000
 41
1.036364
  1
図面番号
 50
0.000000
 51
0.000000
  7
EASYDRAW_FONT
 72
     5
 11
5672.002930
 21
848.925598
  0
TEXT
  8
CSLAYER1
 62
     5
 10
5382.002930
 20
708.925598
 40
100.000000
 41
0.827586
  1
平成２８年４月１６日
 50
0.000000
 51
0.000000
  7
EASYDRAW_FONT
 72
     5
 11
6182.002930
 21
708.925598
  0
TEXT
  8
CSLAYER1
 62
     5
 10
6442.002930
 20
708.925598
 40
100.000000
 41
1.050000
  1
Ｂ－４
 50
0.000000
 51
0.000000
  7
EASYDRAW_FONT
 72
     5
 11
6722.002930
 21
708.925598
  0
TEXT
  8
CSLAYER1
 62
     5
 10
5392.002930
 20
588.925598
 40
100.000000
 41
1.050000
  1
検　図
 50
0.000000
 51
0.000000
  7
EASYDRAW_FONT
 72
     5
 11
5672.002930
 21
588.925598
  0
TEXT
  8
CSLAYER1
 62
     5
 10
5892.002930
 20
588.925598
 40
100.000000
 41
1.050000
  1
作　図
 50
0.000000
 51
0.000000
  7
EASYDRAW_FONT
 72
     5
 11
6172.002930
 21
588.925598
  0
TEXT
  8
CSLAYER1
 62
     5
 10
6442.002930
 20
588.925598
 40
100.000000
 41
1.050000
  1
尺　度
 50
0.000000
 51
0.000000
  7
EASYDRAW_FONT
 72
     5
 11
6722.002930
 21
588.925598
  0
TEXT
  8
CSLAYER1
 62
     5
 10
6643.480469
 20
287.896118
 40
100.000000
 41
1.080000
  1
２０
 50
0.000000
 51
0.000000
  7
EASYDRAW_FONT
 72
     5
 11
6823.480469
 21
287.896118
  0
TEXT
  8
CSLAYER1
 62
     5
 10
6602.841309
 20
383.305511
 40
100.000000
 41
1.200000
  1
／
 50
0.000000
 51
0.000000
  7
EASYDRAW_FONT
 72
     5
 11
6682.841309
 21
383.305511
  0
TEXT
  8
CSLAYER1
 62
     5
 10
6542.415527
 20
453.272400
 40
100.000000
 41
1.200000
  1
１
 50
0.000000
 51
0.000000
  7
EASYDRAW_FONT
 72
     5
 11
6622.415527
 21
453.272400
  0
TEXT
  8
CSLAYER1
 62
     3
 10
5962.002930
 20
1168.925537
 40
100.000000
 41
0.834783
  1
ゴールドリフター
 50
0.000000
 51
0.000000
  7
EASYDRAW_FONT
 72
     5
 11
6602.002930
 21
1168.925537
  0
TEXT
  8
CSLAYER1
 62
     3
 10
5722.002930
 20
1008.925537
 40
100.000000
 41
0.819512
  1
ＧＬＩ－２５０－０６１０Ｗ３
 50
0.000000
 51
0.000000
  7
EASYDRAW_FONT
 72
     5
 11
6842.002930
 21
1008.925537
  0
TEXT
  8
CSLAYER1
 62
     3
 10
6082.002930
 20
848.925598
 40
100.000000
 41
0.857143
  1
ＧＩ－２０
 50
0.000000
 51
0.000000
  7
EASYDRAW_FONT
 72
     5
 11
6482.002930
 21
848.925598
  0
INSERT
  8
CSLAYER1
  2
BLKF0000
 10
0.0
 20
0.0
 30
0.0
  0
TEXT
  8
CSLAYER1
 62
     6
 10
4165.145508
 20
833.555237
 40
80.000000
 41
1.050000
  1
Ｆ.Ｌ
 50
360.000000
 51
0.000000
  7
EASYDRAW_FONT
 72
     5
 11
4389.145508
 21
833.555237
  0
LINE
  8
CSLAYER1
  6
CONTINUOUS
 62
     3
 10
1712.588727
 20
887.329123
 11
1212.588727
 21
887.329123
  0
LINE
  8
CSLAYER1
  6
CENTER
 62
     5
 10
1462.588727
 20
3187.329123
 11
1462.588727
 21
786.622627
  0
LINE
  8
CSLAYER1
  6
CONTINUOUS
 62
     3
 10
1642.588727
 20
3134.329123
 11
1642.588727
 21
2512.301159
  0
LINE
  8
CSLAYER1
  6
CONTINUOUS
 62
     3
 10
1654.588727
 20
3134.329123
 11
1654.588727
 21
2512.301159
  0
LINE
  8
CSLAYER1
  6
CONTINUOUS
 62
     3
 10
1632.588727
 20
3134.329123
 11
1632.588727
 21
887.329123
  0
LINE
  8
CSLAYER1
  6
CONTINUOUS
 62
     3
 10
1620.588727
 20
3134.329123
 11
1620.588727
 21
887.329123
  0
LINE
  8
CSLAYER1
  6
CONTINUOUS
 62
     3
 10
1712.588727
 20
887.329123
 11
1712.588727
 21
822.329123
  0
LINE
  8
CSLAYER1
  6
CENTER
 62
     5
 10
1678.157693
 20
1997.376607
 11
1233.057931
 21
1997.376607
  0
LINE
  8
CSLAYER1
  6
CENTER
 62
     5
 10
1620.588727
 20
1686.370992
 11
1304.588727
 21
1686.370992
  0
LINE
  8
CSLAYER1
  6
CENTER
 62
     5
 10
1682.938254
 20
1614.629123
 11
1238.563608
 21
1614.629123
  0
LINE
  8
CSLAYER1
  6
CONTINUOUS
 62
     3
 10
1620.588727
 20
1627.129123
 11
1304.588727
 21
1627.129123
  0
LINE
  8
CSLAYER1
  6
CONTINUOUS
 62
     3
 10
1620.588727
 20
1602.129123
 11
1304.588727
 21
1602.129123
  0
LINE
  8
CSLAYER1
  6
CONTINUOUS
 62
     3
 10
1632.588727
 20
1631.629123
 11
1642.588727
 21
1631.629123
  0
LINE
  8
CSLAYER1
  6
CONTINUOUS
 62
     3
 10
1632.588727
 20
1597.629123
 11
1642.588727
 21
1597.629123
  0
LINE
  8
CSLAYER1
  6
CONTINUOUS
 62
     3
 10
1654.588727
 20
1634.629123
 11
1664.588727
 21
1634.629123
  0
LINE
  8
CSLAYER1
  6
CONTINUOUS
 62
     3
 10
1654.588727
 20
1594.629123
 11
1664.588727
 21
1594.629123
  0
LINE
  8
CSLAYER1
  6
CONTINUOUS
 62
     3
 10
1664.588727
 20
1634.629123
 11
1664.588727
 21
1594.629123
  0
LINE
  8
CSLAYER1
  6
CONTINUOUS
 62
     3
 10
1620.588727
 20
1648.220992
 11
1304.588727
 21
1648.220992
  0
LINE
  8
CSLAYER1
  6
CONTINUOUS
 62
     3
 10
1620.588727
 20
2009.876607
 11
1304.588727
 21
2009.876607
  0
LINE
  8
CSLAYER1
  6
CONTINUOUS
 62
     3
 10
1620.588727
 20
1984.876607
 11
1304.588727
 21
1984.876607
  0
LINE
  8
CSLAYER1
  6
CONTINUOUS
 62
     3
 10
1620.588727
 20
2070.079020
 11
1304.588727
 21
2070.079020
  0
LINE
  8
CSLAYER1
  6
CONTINUOUS
 62
     3
 10
1632.588727
 20
2014.376607
 11
1642.588727
 21
2014.376607
  0
LINE
  8
CSLAYER1
  6
CONTINUOUS
 62
     3
 10
1654.588727
 20
2017.376607
 11
1664.588727
 21
2017.376607
  0
LINE
  8
CSLAYER1
  6
CONTINUOUS
 62
     3
 10
1654.588727
 20
1977.376607
 11
1664.588727
 21
1977.376607
  0
LINE
  8
CSLAYER1
  6
CONTINUOUS
 62
     3
 10
1664.588727
 20
2017.376607
 11
1664.588727
 21
1977.376607
  0
LINE
  8
CSLAYER1
  6
CONTINUOUS
 62
     3
 10
1632.588727
 20
1980.376607
 11
1642.588727
 21
1980.376607
  0
LINE
  8
CSLAYER1
  6
CENTER
 62
     5
 10
1682.726725
 20
1231.979123
 11
1228.469867
 21
1231.979123
  0
LINE
  8
CSLAYER1
  6
CONTINUOUS
 62
     3
 10
1620.588727
 20
1244.479123
 11
1304.588727
 21
1244.479123
  0
LINE
  8
CSLAYER1
  6
CONTINUOUS
 62
     3
 10
1632.588727
 20
1248.979123
 11
1642.588727
 21
1248.979123
  0
LINE
  8
CSLAYER1
  6
CONTINUOUS
 62
     3
 10
1654.588727
 20
1251.979123
 11
1664.588727
 21
1251.979123
  0
LINE
  8
CSLAYER1
  6
CONTINUOUS
 62
     3
 10
1654.588727
 20
1211.979123
 11
1664.588727
 21
1211.979123
  0
LINE
  8
CSLAYER1
  6
CONTINUOUS
 62
     3
 10
1664.588727
 20
1251.979123
 11
1664.588727
 21
1211.979123
  0
LINE
  8
CSLAYER1
  6
CONTINUOUS
 62
     3
 10
1632.588727
 20
1214.979123
 11
1642.588727
 21
1214.979123
  0
LINE
  8
CSLAYER1
  6
CONTINUOUS
 62
     3
 10
1282.588727
 20
3134.329123
 11
1282.588727
 21
2512.301159
  0
LINE
  8
CSLAYER1
  6
CONTINUOUS
 62
     3
 10
1270.588727
 20
3134.329123
 11
1270.588727
 21
2512.301159
  0
LINE
  8
CSLAYER1
  6
CONTINUOUS
 62
     3
 10
1292.588727
 20
3134.329123
 11
1292.588727
 21
887.329123
  0
LINE
  8
CSLAYER1
  6
CONTINUOUS
 62
     3
 10
1162.588727
 20
3134.329123
 11
1762.588727
 21
3134.329123
  0
LINE
  8
CSLAYER1
  6
CONTINUOUS
 62
     3
 10
1162.588727
 20
3187.329123
 11
1762.588727
 21
3187.329123
  0
LINE
  8
CSLAYER1
  6
CONTINUOUS
 62
     3
 10
1292.588727
 20
1631.629123
 11
1282.588727
 21
1631.629123
  0
LINE
  8
CSLAYER1
  6
CONTINUOUS
 62
     3
 10
1292.588727
 20
1597.629123
 11
1282.588727
 21
1597.629123
  0
LINE
  8
CSLAYER1
  6
CONTINUOUS
 62
     3
 10
1270.588727
 20
1634.629123
 11
1260.588727
 21
1634.629123
  0
LINE
  8
CSLAYER1
  6
CONTINUOUS
 62
     3
 10
1270.588727
 20
1594.629123
 11
1260.588727
 21
1594.629123
  0
LINE
  8
CSLAYER1
  6
CONTINUOUS
 62
     3
 10
1260.588727
 20
1634.629123
 11
1260.588727
 21
1594.629123
  0
LINE
  8
CSLAYER1
  6
CONTINUOUS
 62
     3
 10
1292.588727
 20
2014.376607
 11
1282.588727
 21
2014.376607
  0
LINE
  8
CSLAYER1
  6
CONTINUOUS
 62
     3
 10
1270.588727
 20
2017.376607
 11
1260.588727
 21
2017.376607
  0
LINE
  8
CSLAYER1
  6
CONTINUOUS
 62
     3
 10
1270.588727
 20
1977.376607
 11
1260.588727
 21
1977.376607
  0
LINE
  8
CSLAYER1
  6
CONTINUOUS
 62
     3
 10
1260.588727
 20
2017.376607
 11
1260.588727
 21
1977.376607
  0
LINE
  8
CSLAYER1
  6
CONTINUOUS
 62
     3
 10
1292.588727
 20
1980.376607
 11
1282.588727
 21
1980.376607
  0
LINE
  8
CSLAYER1
  6
CONTINUOUS
 62
     3
 10
1292.588727
 20
1248.979123
 11
1282.588727
 21
1248.979123
  0
LINE
  8
CSLAYER1
  6
CONTINUOUS
 62
     3
 10
1270.588727
 20
1251.979123
 11
1260.588727
 21
1251.979123
  0
LINE
  8
CSLAYER1
  6
CONTINUOUS
 62
     3
 10
1270.588727
 20
1211.979123
 11
1260.588727
 21
1211.979123
  0
LINE
  8
CSLAYER1
  6
CONTINUOUS
 62
     4
 10
1260.588727
 20
1251.979123
 11
1260.588727
 21
1211.979123
  0
LINE
  8
CSLAYER1
  6
CONTINUOUS
 62
     3
 10
1292.588727
 20
1214.979123
 11
1282.588727
 21
1214.979123
  0
LINE
  8
CSLAYER1
  6
CONTINUOUS
 62
     3
 10
1212.588727
 20
887.329123
 11
1212.588727
 21
822.329123
  0
LINE
  8
CSLAYER1
  6
CENTER
 62
     5
 10
1304.588727
 20
2039.829020
 11
1620.588727
 21
2039.829020
  0
LINE
  8
CSLAYER1
  6
CONTINUOUS
 62
     3
 10
1620.588727
 20
2009.579020
 11
1304.588727
 21
2009.579020
  0
LINE
  8
CSLAYER1
  6
CONTINUOUS
 62
     3
 10
1304.588727
 20
1227.442759
 11
1620.588727
 21
1227.442759
  0
LINE
  8
CSLAYER1
  6
CONTINUOUS
 62
     3
 10
1304.588727
 20
1166.942759
 11
1620.588727
 21
1166.942759
  0
LINE
  8
CSLAYER1
  6
CENTER
 62
     5
 10
1298.232347
 20
1197.192759
 11
1627.101896
 21
1197.192759
  0
LINE
  8
CSLAYER1
  6
CENTER
 62
     5
 10
1298.232347
 20
1103.741210
 11
1626.866357
 21
1103.741210
  0
LINE
  8
CSLAYER1
  6
CONTINUOUS
 62
     4
 10
1282.588727
 20
1133.991210
 11
1292.588727
 21
1133.991210
  0
LINE
  8
CSLAYER1
  6
CONTINUOUS
 62
     4
 10
1282.588727
 20
1073.491210
 11
1292.588727
 21
1073.491210
  0
LINE
  8
CSLAYER1
  6
CONTINUOUS
 62
     3
 10
1304.588727
 20
1141.891210
 11
1620.588727
 21
1141.891210
  0
LINE
  8
CSLAYER1
  6
CONTINUOUS
 62
     3
 10
1304.588727
 20
1065.591210
 11
1620.588727
 21
1065.591210
  0
LINE
  8
CSLAYER1
  6
CONTINUOUS
 62
     4
 10
1632.588727
 20
1133.991210
 11
1642.588727
 21
1133.991210
  0
LINE
  8
CSLAYER1
  6
CONTINUOUS
 62
     4
 10
1632.588727
 20
1073.491210
 11
1642.588727
 21
1073.491210
  0
LINE
  8
CSLAYER1
  6
CONTINUOUS
 62
     3
 10
1498.588727
 20
1820.629725
 11
1498.588727
 21
1701.852524
  0
LINE
  8
CSLAYER1
  6
CONTINUOUS
 62
     3
 10
1498.588727
 20
1820.629725
 11
1514.588727
 21
1820.629725
  0
LINE
  8
CSLAYER1
  6
CONTINUOUS
 62
     3
 10
1483.588727
 20
1818.129725
 11
1483.588727
 21
1783.129725
  0
LINE
  8
CSLAYER1
  6
CONTINUOUS
 62
     4
 10
1498.588727
 20
1701.852524
 11
1514.588727
 21
1701.852524
  0
LINE
  8
CSLAYER1
  6
CONTINUOUS
 62
     3
 10
1483.588727
 20
1818.129725
 11
1498.588727
 21
1818.129725
  0
LINE
  8
CSLAYER1
  6
CONTINUOUS
 62
     3
 10
1441.588727
 20
1818.129725
 11
1441.588727
 21
1783.129725
  0
LINE
  8
CSLAYER1
  6
CONTINUOUS
 62
     3
 10
1441.588727
 20
1818.129725
 11
1426.588727
 21
1818.129725
  0
LINE
  8
CSLAYER1
  6
CONTINUOUS
 62
     3
 10
1514.588727
 20
1820.629725
 11
1514.588727
 21
1701.852524
  0
LINE
  8
CSLAYER1
  6
CONTINUOUS
 62
     3
 10
1426.588727
 20
1820.629725
 11
1426.588727
 21
1701.852524
  0
LINE
  8
CSLAYER1
  6
CONTINUOUS
 62
     3
 10
1426.588727
 20
1820.629725
 11
1410.588727
 21
1820.629725
  0
LINE
  8
CSLAYER1
  6
CONTINUOUS
 62
     3
 10
1426.588727
 20
1701.852524
 11
1410.588727
 21
1701.852524
  0
LINE
  8
CSLAYER1
  6
CONTINUOUS
 62
     3
 10
1410.588727
 20
1820.629725
 11
1410.588727
 21
1701.852524
  0
LINE
  8
CSLAYER1
  6
CONTINUOUS
 62
     3
 10
1482.588727
 20
1831.404053
 11
1482.588727
 21
1767.358022
  0
LINE
  8
CSLAYER1
  6
CONTINUOUS
 62
     3
 10
1482.588727
 20
1831.404053
 11
1442.588727
 21
1831.404053
  0
LINE
  8
CSLAYER1
  6
CONTINUOUS
 62
     3
 10
1492.838727
 20
1777.798962
 11
1492.838727
 21
1724.520992
  0
LINE
  8
CSLAYER1
  6
CONTINUOUS
 62
     3
 10
1442.588727
 20
1831.404053
 11
1442.588727
 21
1767.358022
  0
LINE
  8
CSLAYER1
  6
CONTINUOUS
 62
     3
 10
1432.338727
 20
1779.701537
 11
1432.338727
 21
1724.520992
  0
LINE
  8
CSLAYER1
  6
CONTINUOUS
 62
     5
 10
1394.349648
 20
1800.629725
 11
1537.707245
 21
1800.629725
  0
LINE
  8
CSLAYER1
  6
CONTINUOUS
 62
     3
 10
1410.588727
 20
1724.520992
 11
1304.588727
 21
1724.520992
  0
LINE
  8
CSLAYER1
  6
CONTINUOUS
 62
     3
 10
1514.588727
 20
1724.520992
 11
1620.588727
 21
1724.520992
  0
LINE
  8
CSLAYER1
  6
CENTER
 62
     5
 10
3599.497064
 20
849.329123
 11
2626.370145
 21
1031.329123
  0
LINE
  8
CSLAYER1
  6
CENTER
 62
     5
 10
2626.374123
 20
1213.350395
 11
3599.497064
 21
1031.329123
  0
LINE
  8
CSLAYER1
  6
CENTER
 62
     5
 10
3599.497064
 20
1031.329123
 11
2626.370145
 21
849.329123
  0
LINE
  8
CSLAYER1
  6
CENTER
 62
     5
 10
2626.370145
 20
1031.329123
 11
3599.497064
 21
1213.329123
  0
LINE
  8
CSLAYER1
  6
CONTINUOUS
 62
     3
 10
2592.170145
 20
3172.329123
 11
3642.170145
 21
3172.329123
  0
LINE
  8
CSLAYER1
  6
CONTINUOUS
 62
     3
 10
2592.170145
 20
3172.329123
 11
2592.170145
 21
3119.329123
  0
LINE
  8
CSLAYER1
  6
CONTINUOUS
 62
     3
 10
2592.170145
 20
3119.329123
 11
3642.170145
 21
3119.329123
  0
LINE
  8
CSLAYER1
  6
CONTINUOUS
 62
     3
 10
3642.170145
 20
3172.329123
 11
3642.170145
 21
3119.329123
  0
LINE
  8
CSLAYER1
  6
CONTINUOUS
 62
     2
 10
2981.623590
 20
1184.061001
 11
2980.844125
 21
1182.757963
  0
LINE
  8
CSLAYER1
  6
CONTINUOUS
 62
     3
 10
2592.370145
 20
887.329123
 11
2592.370145
 21
822.329123
  0
LINE
  8
CSLAYER1
  6
CONTINUOUS
 62
     3
 10
3642.370145
 20
887.329123
 11
3642.370145
 21
822.329123
  0
LINE
  8
CSLAYER1
  6
CENTER
 62
     6
 10
2626.370145
 20
869.329123
 11
2626.370145
 21
829.329123
  0
LINE
  8
CSLAYER1
  6
CONTINUOUS
 62
     3
 10
2592.370145
 20
887.329123
 11
3642.370145
 21
887.329123
  0
LINE
  8
CSLAYER1
  6
CENTER
 62
     6
 10
2606.370145
 20
849.329123
 11
2646.370145
 21
849.329123
  0
LINE
  8
CSLAYER1
  6
CENTER
 62
     6
 10
3234.395550
 20
849.329123
 11
3274.395550
 21
849.329123
  0
LINE
  8
CSLAYER1
  6
CENTER
 62
     6
 10
3254.395550
 20
869.329123
 11
3254.395550
 21
829.329123
  0
LINE
  8
CSLAYER1
  6
CONTINUOUS
 62
     5
 10
3254.197612
 20
3167.994977
 11
3254.197612
 21
3125.348799
  0
LINE
  8
CSLAYER1
  6
CONTINUOUS
 62
     5
 10
3231.776456
 20
3145.229123
 11
3276.718269
 21
3145.229123
  0
LINE
  8
CSLAYER1
  6
CONTINUOUS
 62
     5
 10
2606.162647
 20
3145.229123
 11
2651.502458
 21
3145.229123
  0
LINE
  8
CSLAYER1
  6
CONTINUOUS
 62
     5
 10
2626.370145
 20
3165.319422
 11
2626.370145
 21
3124.453934
  0
LINE
  8
CSLAYER1
  6
CENTER
 62
     6
 10
3581.314246
 20
849.329123
 11
3621.314246
 21
849.329123
  0
INSERT
  8
CSLAYER1
  2
BLKF0001
 10
0.0
 20
0.0
 30
0.0
  0
LINE
  8
CSLAYER1
  6
CONTINUOUS
 62
     3
 10
3642.170145
 20
4429.329123
 11
3642.170145
 21
3829.329123
  0
LINE
  8
CSLAYER1
  6
CONTINUOUS
 62
     3
 10
2592.170145
 20
4429.329123
 11
2592.170145
 21
3829.329123
  0
LINE
  8
CSLAYER1
  6
CONTINUOUS
 62
     3
 10
4555.961037
 20
822.329123
 11
869.793154
 21
822.329123
  0
LINE
  8
CSLAYER1
  6
CENTER
 62
     5
 10
2592.170145
 20
4129.329123
 11
3675.756341
 21
4129.329123
  0
TEXT
  8
CSLAYER1
 62
     6
 10
1337.413818
 20
3801.732422
 40
80.000000
 41
1.020000
  1
ＵＰ・ＤＯＷＮ
 50
0.000000
 51
0.000000
  7
EASYDRAW_FONT
 72
     5
 11
1881.413818
 21
3801.732422
  0
TEXT
  8
CSLAYER1
 62
     6
 10
1343.194580
 20
3917.348145
 40
80.000000
 41
1.020000
  1
フットスイッチ
 50
0.000000
 51
0.000000
  7
EASYDRAW_FONT
 72
     5
 11
1887.194580
 21
3917.348145
  0
TEXT
  8
CSLAYER1
 62
     6
 10
1527.248779
 20
4362.468750
 40
80.000000
 41
1.028571
  1
電源コード
 50
0.000000
 51
0.000000
  7
EASYDRAW_FONT
 72
     5
 11
1911.248779
 21
4362.468750
  0
TEXT
  8
CSLAYER1
 62
     6
 10
1544.125610
 20
4258.414551
 40
80.000000
 41
1.036364
  1
長サ４ｍ
 50
0.000000
 51
0.000000
  7
EASYDRAW_FONT
 72
     5
 11
1848.125610
 21
4258.414551
  0
INSERT
  8
CSLAYER1
  2
BLKF0002
 10
0.0
 20
0.0
 30
0.0
  0
LINE
  8
CSLAYER1
  6
CONTINUOUS
 62
     5
 10
1502.426280
 20
4348.907363
 11
1926.782295
 21
4348.907363
  0
LINE
  8
CSLAYER1
  6
CONTINUOUS
 62
     5
 10
1315.042478
 20
3899.672046
 11
1896.065350
 21
3899.672046
  0
LINE
  8
CSLAYER1
  6
CONTINUOUS
 62
     1
 10
2664.417557
 20
924.856208
 11
2678.240639
 21
924.856208
  0
LINE
  8
CSLAYER1
  6
CONTINUOUS
 62
     1
 10
2671.532733
 20
932.555666
 11
2671.532733
 21
918.077179
  0
LINE
  8
CSLAYER1
  6
CONTINUOUS
 62
     4
 10
1343.088727
 20
917.629123
 11
1343.088727
 21
887.329123
  0
LINE
  8
CSLAYER1
  6
CONTINUOUS
 62
     4
 10
1523.088727
 20
917.629123
 11
1523.088727
 21
887.329123
  0
LINE
  8
CSLAYER1
  6
CONTINUOUS
 62
     4
 10
1341.588727
 20
923.629123
 11
1524.588727
 21
923.629123
  0
LINE
  8
CSLAYER1
  6
CONTINUOUS
 62
     4
 10
1341.588727
 20
917.629123
 11
1341.588727
 21
923.629123
  0
LINE
  8
CSLAYER1
  6
CONTINUOUS
 62
     2
 10
1341.588727
 20
917.629123
 11
1524.588727
 21
917.629123
  0
LINE
  8
CSLAYER1
  6
CONTINUOUS
 62
     4
 10
1524.588727
 20
917.629123
 11
1524.588727
 21
923.629123
  0
LINE
  8
CSLAYER1
  6
CONTINUOUS
 62
     2
 10
1524.588727
 20
917.629123
 11
1524.588727
 21
923.629123
  0
LINE
  8
CSLAYER1
  6
CONTINUOUS
 62
     2
 10
1344.088727
 20
923.629123
 11
1354.088727
 21
923.629123
  0
LINE
  8
CSLAYER1
  6
CONTINUOUS
 62
     2
 10
1513.588727
 20
926.629123
 11
1513.588727
 21
924.429123
  0
LINE
  8
CSLAYER1
  6
CONTINUOUS
 62
     2
 10
1520.588727
 20
926.629123
 11
1520.588727
 21
924.429123
  0
LINE
  8
CSLAYER1
  6
CONTINUOUS
 62
     2
 10
1520.588727
 20
925.429123
 11
1513.588727
 21
925.429123
  0
LINE
  8
CSLAYER1
  6
CONTINUOUS
 62
     2
 10
1519.188727
 20
928.029123
 11
1514.988727
 21
928.029123
  0
LINE
  8
CSLAYER1
  6
CONTINUOUS
 62
     2
 10
1521.588727
 20
924.429123
 11
1521.588727
 21
923.629123
  0
LINE
  8
CSLAYER1
  6
CONTINUOUS
 62
     2
 10
1512.588727
 20
924.429123
 11
1512.588727
 21
923.629123
  0
LINE
  8
CSLAYER1
  6
CONTINUOUS
 62
     2
 10
1521.588727
 20
924.429123
 11
1512.588727
 21
924.429123
  0
ARC
  8
CSLAYER1
  6
CONTINUOUS
 62
     2
 10
1519.188727
 20
926.629123
 40
1.400000
 50
-0.000000
 51
90.000000
  0
ARC
  8
CSLAYER1
  6
CONTINUOUS
 62
     2
 10
1514.988727
 20
926.629123
 40
1.400000
 50
90.000000
 51
180.000000
  0
LINE
  8
CSLAYER1
  6
CONTINUOUS
 62
     2
 10
1518.128679
 20
924.429123
 11
1515.743477
 21
925.429123
  0
LINE
  8
CSLAYER1
  6
CONTINUOUS
 62
     5
 10
1517.088727
 20
929.857472
 11
1517.088727
 21
914.659294
  0
LINE
  8
CSLAYER1
  6
CONTINUOUS
 62
     2
 10
1345.588727
 20
926.629123
 11
1345.588727
 21
924.429123
  0
LINE
  8
CSLAYER1
  6
CONTINUOUS
 62
     2
 10
1352.588727
 20
926.629123
 11
1352.588727
 21
924.429123
  0
LINE
  8
CSLAYER1
  6
CONTINUOUS
 62
     2
 10
1352.588727
 20
925.429123
 11
1345.588727
 21
925.429123
  0
LINE
  8
CSLAYER1
  6
CONTINUOUS
 62
     2
 10
1351.188727
 20
928.029123
 11
1346.988727
 21
928.029123
  0
LINE
  8
CSLAYER1
  6
CONTINUOUS
 62
     2
 10
1353.588727
 20
924.429123
 11
1353.588727
 21
923.629123
  0
LINE
  8
CSLAYER1
  6
CONTINUOUS
 62
     2
 10
1344.588727
 20
924.429123
 11
1344.588727
 21
923.629123
  0
LINE
  8
CSLAYER1
  6
CONTINUOUS
 62
     2
 10
1353.588727
 20
924.429123
 11
1344.588727
 21
924.429123
  0
ARC
  8
CSLAYER1
  6
CONTINUOUS
 62
     2
 10
1351.188727
 20
926.629123
 40
1.400000
 50
-0.000000
 51
90.000000
  0
ARC
  8
CSLAYER1
  6
CONTINUOUS
 62
     2
 10
1346.988727
 20
926.629123
 40
1.400000
 50
90.000000
 51
180.000000
  0
LINE
  8
CSLAYER1
  6
CONTINUOUS
 62
     2
 10
1350.128679
 20
924.429123
 11
1347.743477
 21
925.429123
  0
LINE
  8
CSLAYER1
  6
CONTINUOUS
 62
     5
 10
1349.088727
 20
929.857472
 11
1349.088727
 21
914.659294
  0
LINE
  8
CSLAYER1
  6
CONTINUOUS
 62
     5
 10
1422.233885
 20
902.629123
 11
1453.112016
 21
902.629123
  0
LINE
  8
CSLAYER1
  6
CONTINUOUS
 62
     5
 10
1468.088727
 20
913.428232
 11
1468.088727
 21
887.329123
  0
LINE
  8
CSLAYER1
  6
CONTINUOUS
 62
     5
 10
1438.088727
 20
917.629123
 11
1438.088727
 21
887.238842
  0
ARC
  8
CSLAYER1
  6
CONTINUOUS
 62
     2
 10
1468.088727
 20
902.629123
 40
6.500000
 50
-59.489763
 51
239.489763
  0
ARC
  8
CSLAYER1
  6
CONTINUOUS
 62
     2
 10
1438.088727
 20
902.629123
 40
10.500000
 50
-55.150095
 51
231.502580
  0
ARC
  8
CSLAYER1
  6
CONTINUOUS
 62
     2
 10
1438.088727
 20
902.629123
 40
6.000000
 50
0.000000
 51
180.000000
  0
ARC
  8
CSLAYER1
  6
CONTINUOUS
 62
     2
 10
1468.088727
 20
902.629123
 40
3.300000
 50
0.000000
 51
180.000000
  0
LINE
  8
CSLAYER1
  6
CONTINUOUS
 62
     2
 10
1432.088727
 20
902.629123
 11
1432.088727
 21
887.329123
  0
LINE
  8
CSLAYER1
  6
CONTINUOUS
 62
     2
 10
1444.088727
 20
902.629123
 11
1444.088727
 21
887.329123
  0
LINE
  8
CSLAYER1
  6
CONTINUOUS
 62
     2
 10
1464.788727
 20
902.629123
 11
1464.788727
 21
887.329123
  0
LINE
  8
CSLAYER1
  6
CONTINUOUS
 62
     2
 10
1471.388727
 20
902.629123
 11
1471.388727
 21
887.329123
  0
LINE
  8
CSLAYER1
  6
CONTINUOUS
 62
     5
 10
1459.189584
 20
902.629123
 11
1478.253226
 21
902.629123
  0
POINT
  8
CSLAYER1
 62
     2
 10
1363.088727
 20
902.629123
  0
POINT
  8
CSLAYER1
 62
     2
 10
1403.088727
 20
902.629123
  0
LINE
  8
CSLAYER1
  6
CONTINUOUS
 62
     3
 10
1569.588727
 20
1166.942759
 11
1569.588727
 21
1141.891210
  0
LINE
  8
CSLAYER1
  6
CONTINUOUS
 62
     3
 10
1585.588727
 20
1166.942759
 11
1585.588727
 21
1141.891210
  0
LINE
  8
CSLAYER1
  6
CONTINUOUS
 62
     3
 10
1587.588727
 20
1161.497642
 11
1587.588727
 21
1166.942759
  0
LINE
  8
CSLAYER1
  6
CONTINUOUS
 62
     3
 10
1597.588727
 20
1163.497642
 11
1597.588727
 21
1166.942759
  0
LINE
  8
CSLAYER1
  6
CONTINUOUS
 62
     3
 10
1595.588727
 20
1161.497642
 11
1595.588727
 21
1166.942759
  0
LINE
  8
CSLAYER1
  6
CONTINUOUS
 62
     3
 10
1587.588727
 20
1161.497642
 11
1595.588727
 21
1161.497642
  0
LINE
  8
CSLAYER1
  6
CONTINUOUS
 62
     3
 10
1595.588727
 20
1161.497642
 11
1597.588727
 21
1163.497642
  0
LINE
  8
CSLAYER1
  6
CONTINUOUS
 62
     3
 10
1585.588727
 20
1163.497642
 11
1587.588727
 21
1163.497642
  0
LINE
  8
CSLAYER1
  6
CONTINUOUS
 62
     3
 10
1568.588727
 20
1163.497642
 11
1569.588727
 21
1163.497642
  0
LINE
  8
CSLAYER1
  6
CONTINUOUS
 62
     3
 10
1355.588727
 20
1166.942759
 11
1355.588727
 21
1141.891210
  0
LINE
  8
CSLAYER1
  6
CONTINUOUS
 62
     3
 10
1339.588727
 20
1166.942759
 11
1339.588727
 21
1141.891210
  0
LINE
  8
CSLAYER1
  6
CONTINUOUS
 62
     3
 10
1337.588727
 20
1161.497642
 11
1337.588727
 21
1166.942759
  0
LINE
  8
CSLAYER1
  6
CONTINUOUS
 62
     3
 10
1327.588727
 20
1163.497642
 11
1327.588727
 21
1166.942759
  0
LINE
  8
CSLAYER1
  6
CONTINUOUS
 62
     3
 10
1329.588727
 20
1161.497642
 11
1329.588727
 21
1166.942759
  0
LINE
  8
CSLAYER1
  6
CONTINUOUS
 62
     3
 10
1337.588727
 20
1161.497642
 11
1329.588727
 21
1161.497642
  0
LINE
  8
CSLAYER1
  6
CONTINUOUS
 62
     3
 10
1329.588727
 20
1161.497642
 11
1327.588727
 21
1163.497642
  0
LINE
  8
CSLAYER1
  6
CONTINUOUS
 62
     3
 10
1339.588727
 20
1163.497642
 11
1337.588727
 21
1163.497642
  0
LINE
  8
CSLAYER1
  6
CONTINUOUS
 62
     3
 10
1356.588727
 20
1163.497642
 11
1355.588727
 21
1163.497642
  0
LINE
  8
CSLAYER1
  6
CONTINUOUS
 62
     3
 10
1526.032416
 20
1160.397199
 11
1399.145039
 21
1160.397199
  0
LINE
  8
CSLAYER1
  6
CONTINUOUS
 62
     3
 10
1568.588727
 20
1166.942759
 11
1568.588727
 21
1154.720655
  0
LINE
  8
CSLAYER1
  6
CONTINUOUS
 62
     3
 10
1555.972454
 20
1141.891210
 11
1563.387748
 21
1145.947434
  0
LINE
  8
CSLAYER1
  6
CONTINUOUS
 62
     3
 10
1530.831436
 20
1161.623978
 11
1540.554845
 21
1166.942759
  0
LINE
  8
CSLAYER1
  6
CONTINUOUS
 62
     3
 10
1507.088727
 20
1579.754748
 11
1507.088727
 21
1244.479123
  0
LINE
  8
CSLAYER1
  6
CONTINUOUS
 62
     3
 10
1547.588727
 20
1062.695406
 11
1524.588727
 21
1062.695406
  0
LINE
  8
CSLAYER1
  6
CONTINUOUS
 62
     3
 10
1524.588727
 20
962.743061
 11
1547.588727
 21
962.743061
  0
LINE
  8
CSLAYER1
  6
CONTINUOUS
 62
     3
 10
1507.088727
 20
1579.754748
 11
1506.919391
 21
1581.867093
  0
LINE
  8
CSLAYER1
  6
CONTINUOUS
 62
     3
 10
1506.919391
 20
1581.867093
 11
1506.412672
 21
1583.963361
  0
LINE
  8
CSLAYER1
  6
CONTINUOUS
 62
     3
 10
1506.412672
 20
1583.963361
 11
1505.572427
 21
1586.027600
  0
LINE
  8
CSLAYER1
  6
CONTINUOUS
 62
     3
 10
1505.572427
 20
1586.027600
 11
1504.405049
 21
1588.044098
  0
LINE
  8
CSLAYER1
  6
CONTINUOUS
 62
     3
 10
1504.405049
 20
1588.044098
 11
1502.919424
 21
1589.997509
  0
LINE
  8
CSLAYER1
  6
CONTINUOUS
 62
     3
 10
1502.919424
 20
1589.997509
 11
1501.126858
 21
1591.872967
  0
LINE
  8
CSLAYER1
  6
CONTINUOUS
 62
     3
 10
1501.126858
 20
1591.872967
 11
1499.040993
 21
1593.656198
  0
LINE
  8
CSLAYER1
  6
CONTINUOUS
 62
     3
 10
1499.040993
 20
1593.656198
 11
1496.677705
 21
1595.333630
  0
LINE
  8
CSLAYER1
  6
CONTINUOUS
 62
     3
 10
1496.677705
 20
1595.333630
 11
1494.054979
 21
1596.892497
  0
LINE
  8
CSLAYER1
  6
CONTINUOUS
 62
     3
 10
1494.054979
 20
1596.892497
 11
1492.838727
 21
1597.499492
  0
LINE
  8
CSLAYER1
  6
CONTINUOUS
 62
     3
 10
1462.588727
 20
1555.518311
 11
1466.467158
 21
1555.610538
  0
LINE
  8
CSLAYER1
  6
CONTINUOUS
 62
     3
 10
1466.467158
 20
1555.610538
 11
1470.316071
 21
1555.886517
  0
LINE
  8
CSLAYER1
  6
CONTINUOUS
 62
     3
 10
1470.316071
 20
1555.886517
 11
1474.106175
 21
1556.344148
  0
LINE
  8
CSLAYER1
  6
CONTINUOUS
 62
     3
 10
1474.106175
 20
1556.344148
 11
1477.808624
 21
1556.979947
  0
LINE
  8
CSLAYER1
  6
CONTINUOUS
 62
     3
 10
1477.808624
 20
1556.979947
 11
1481.395240
 21
1557.789077
  0
LINE
  8
CSLAYER1
  6
CONTINUOUS
 62
     3
 10
1481.395240
 20
1557.789077
 11
1484.838727
 21
1558.765378
  0
LINE
  8
CSLAYER1
  6
CONTINUOUS
 62
     3
 10
1484.838727
 20
1558.765378
 11
1488.112879
 21
1559.901421
  0
LINE
  8
CSLAYER1
  6
CONTINUOUS
 62
     3
 10
1488.112879
 20
1559.901421
 11
1491.192776
 21
1561.188560
  0
LINE
  8
CSLAYER1
  6
CONTINUOUS
 62
     3
 10
1491.192776
 20
1561.188560
 11
1494.054979
 21
1562.616999
  0
LINE
  8
CSLAYER1
  6
CONTINUOUS
 62
     3
 10
1494.054979
 20
1562.616999
 11
1496.677705
 21
1564.175867
  0
LINE
  8
CSLAYER1
  6
CONTINUOUS
 62
     3
 10
1496.677705
 20
1564.175867
 11
1499.040993
 21
1565.853299
  0
LINE
  8
CSLAYER1
  6
CONTINUOUS
 62
     3
 10
1499.040993
 20
1565.853299
 11
1501.126858
 21
1567.636530
  0
LINE
  8
CSLAYER1
  6
CONTINUOUS
 62
     3
 10
1501.126858
 20
1567.636530
 11
1502.919424
 21
1569.511987
  0
LINE
  8
CSLAYER1
  6
CONTINUOUS
 62
     3
 10
1502.919424
 20
1569.511987
 11
1504.405049
 21
1571.465399
  0
LINE
  8
CSLAYER1
  6
CONTINUOUS
 62
     3
 10
1504.405049
 20
1571.465399
 11
1505.572427
 21
1573.481897
  0
LINE
  8
CSLAYER1
  6
CONTINUOUS
 62
     3
 10
1505.572427
 20
1573.481897
 11
1506.412672
 21
1575.546135
  0
LINE
  8
CSLAYER1
  6
CONTINUOUS
 62
     3
 10
1506.412672
 20
1575.546135
 11
1506.919391
 21
1577.642404
  0
LINE
  8
CSLAYER1
  6
CONTINUOUS
 62
     3
 10
1506.919391
 20
1577.642404
 11
1507.088727
 21
1579.754748
  0
LINE
  8
CSLAYER1
  6
CONTINUOUS
 62
     3
 10
1492.838727
 20
1579.754748
 11
1492.723617
 21
1581.190668
  0
LINE
  8
CSLAYER1
  6
CONTINUOUS
 62
     3
 10
1462.588727
 20
1563.279418
 11
1465.225189
 21
1563.342111
  0
LINE
  8
CSLAYER1
  6
CONTINUOUS
 62
     3
 10
1465.225189
 20
1563.342111
 11
1467.841585
 21
1563.529715
  0
LINE
  8
CSLAYER1
  6
CONTINUOUS
 62
     3
 10
1467.841585
 20
1563.529715
 11
1470.418003
 21
1563.840801
  0
LINE
  8
CSLAYER1
  6
CONTINUOUS
 62
     3
 10
1470.418003
 20
1563.840801
 11
1472.934837
 21
1564.273002
  0
LINE
  8
CSLAYER1
  6
CONTINUOUS
 62
     3
 10
1472.934837
 20
1564.273002
 11
1475.372930
 21
1564.823028
  0
LINE
  8
CSLAYER1
  6
CONTINUOUS
 62
     3
 10
1475.372930
 20
1564.823028
 11
1477.713727
 21
1565.486693
  0
LINE
  8
CSLAYER1
  6
CONTINUOUS
 62
     3
 10
1477.713727
 20
1565.486693
 11
1479.939415
 21
1566.258947
  0
LINE
  8
CSLAYER1
  6
CONTINUOUS
 62
     3
 10
1479.939415
 20
1566.258947
 11
1482.033053
 21
1567.133913
  0
LINE
  8
CSLAYER1
  6
CONTINUOUS
 62
     3
 10
1482.033053
 20
1567.133913
 11
1483.978707
 21
1568.104930
  0
LINE
  8
CSLAYER1
  6
CONTINUOUS
 62
     3
 10
1483.978707
 20
1568.104930
 11
1485.761572
 21
1569.164610
  0
LINE
  8
CSLAYER1
  6
CONTINUOUS
 62
     3
 10
1485.761572
 20
1569.164610
 11
1487.368077
 21
1570.304887
  0
LINE
  8
CSLAYER1
  6
CONTINUOUS
 62
     3
 10
1487.368077
 20
1570.304887
 11
1488.785996
 21
1571.517083
  0
LINE
  8
CSLAYER1
  6
CONTINUOUS
 62
     3
 10
1488.785996
 20
1571.517083
 11
1490.004538
 21
1572.791973
  0
LINE
  8
CSLAYER1
  6
CONTINUOUS
 62
     3
 10
1490.004538
 20
1572.791973
 11
1491.014429
 21
1574.119853
  0
LINE
  8
CSLAYER1
  6
CONTINUOUS
 62
     3
 10
1491.014429
 20
1574.119853
 11
1491.807984
 21
1575.490619
  0
LINE
  8
CSLAYER1
  6
CONTINUOUS
 62
     3
 10
1491.807984
 20
1575.490619
 11
1492.379162
 21
1576.893837
  0
LINE
  8
CSLAYER1
  6
CONTINUOUS
 62
     3
 10
1492.379162
 20
1576.893837
 11
1492.723617
 21
1578.318829
  0
LINE
  8
CSLAYER1
  6
CONTINUOUS
 62
     3
 10
1492.723617
 20
1578.318829
 11
1492.838727
 21
1579.754748
  0
LINE
  8
CSLAYER1
  6
CONTINUOUS
 62
     3
 10
1462.588727
 20
944.182541
 11
1467.992383
 21
944.311037
  0
LINE
  8
CSLAYER1
  6
CONTINUOUS
 62
     3
 10
1467.992383
 20
944.311037
 11
1473.354914
 21
944.695547
  0
LINE
  8
CSLAYER1
  6
CONTINUOUS
 62
     3
 10
1473.354914
 20
944.695547
 11
1478.635508
 21
945.333145
  0
LINE
  8
CSLAYER1
  6
CONTINUOUS
 62
     3
 10
1478.635508
 20
945.333145
 11
1483.793976
 21
946.218978
  0
LINE
  8
CSLAYER1
  6
CONTINUOUS
 62
     3
 10
1483.793976
 20
946.218978
 11
1488.791060
 21
947.346304
  0
LINE
  8
CSLAYER1
  6
CONTINUOUS
 62
     3
 10
1488.791060
 20
947.346304
 11
1493.588727
 21
948.706544
  0
LINE
  8
CSLAYER1
  6
CONTINUOUS
 62
     3
 10
1493.588727
 20
948.706544
 11
1498.150466
 21
950.289346
  0
LINE
  8
CSLAYER1
  6
CONTINUOUS
 62
     3
 10
1498.150466
 20
950.289346
 11
1502.441559
 21
952.082663
  0
LINE
  8
CSLAYER1
  6
CONTINUOUS
 62
     3
 10
1502.441559
 20
952.082663
 11
1506.429348
 21
954.072848
  0
LINE
  8
CSLAYER1
  6
CONTINUOUS
 62
     3
 10
1506.429348
 20
954.072848
 11
1510.083483
 21
956.244753
  0
LINE
  8
CSLAYER1
  6
CONTINUOUS
 62
     3
 10
1510.083483
 20
956.244753
 11
1513.376154
 21
958.581850
  0
LINE
  8
CSLAYER1
  6
CONTINUOUS
 62
     3
 10
1513.376154
 20
958.581850
 11
1516.282302
 21
961.066351
  0
LINE
  8
CSLAYER1
  6
CONTINUOUS
 62
     3
 10
1516.282302
 20
961.066351
 11
1518.779810
 21
963.679348
  0
LINE
  8
CSLAYER1
  6
CONTINUOUS
 62
     3
 10
1518.779810
 20
963.679348
 11
1520.849670
 21
966.400955
  0
LINE
  8
CSLAYER1
  6
CONTINUOUS
 62
     3
 10
1520.849670
 20
966.400955
 11
1522.476129
 21
969.210458
  0
LINE
  8
CSLAYER1
  6
CONTINUOUS
 62
     3
 10
1522.476129
 20
969.210458
 11
1523.646808
 21
972.086475
  0
LINE
  8
CSLAYER1
  6
CONTINUOUS
 62
     3
 10
1523.646808
 20
972.086475
 11
1524.352799
 21
975.007119
  0
LINE
  8
CSLAYER1
  6
CONTINUOUS
 62
     3
 10
1524.352799
 20
975.007119
 11
1524.588727
 21
977.950161
  0
LINE
  8
CSLAYER1
  6
CONTINUOUS
 62
     3
 10
1523.713776
 20
923.629123
 11
1524.352799
 21
926.272722
  0
LINE
  8
CSLAYER1
  6
CONTINUOUS
 62
     3
 10
1524.352799
 20
926.272722
 11
1524.588727
 21
929.215764
  0
LINE
  8
CSLAYER1
  6
CONTINUOUS
 62
     3
 10
1524.588727
 20
1062.695406
 11
1524.588727
 21
929.215764
  0
LINE
  8
CSLAYER1
  6
CONTINUOUS
 62
     3
 10
1462.588727
 20
945.271819
 11
1467.818072
 21
945.396170
  0
LINE
  8
CSLAYER1
  6
CONTINUOUS
 62
     3
 10
1467.818072
 20
945.396170
 11
1473.007618
 21
945.768276
  0
LINE
  8
CSLAYER1
  6
CONTINUOUS
 62
     3
 10
1473.007618
 20
945.768276
 11
1478.117870
 21
946.385306
  0
LINE
  8
CSLAYER1
  6
CONTINUOUS
 62
     3
 10
1478.117870
 20
946.385306
 11
1483.109936
 21
947.242564
  0
LINE
  8
CSLAYER1
  6
CONTINUOUS
 62
     3
 10
1483.109936
 20
947.242564
 11
1487.945823
 21
948.333525
  0
LINE
  8
CSLAYER1
  6
CONTINUOUS
 62
     3
 10
1487.945823
 20
948.333525
 11
1492.588727
 21
949.649887
  0
LINE
  8
CSLAYER1
  6
CONTINUOUS
 62
     3
 10
1492.588727
 20
949.649887
 11
1497.003313
 21
951.181630
  0
LINE
  8
CSLAYER1
  6
CONTINUOUS
 62
     3
 10
1497.003313
 20
951.181630
 11
1501.155984
 21
952.917099
  0
LINE
  8
CSLAYER1
  6
CONTINUOUS
 62
     3
 10
1501.155984
 20
952.917099
 11
1505.015134
 21
954.843084
  0
LINE
  8
CSLAYER1
  6
CONTINUOUS
 62
     3
 10
1505.015134
 20
954.843084
 11
1508.551394
 21
956.944928
  0
LINE
  8
CSLAYER1
  6
CONTINUOUS
 62
     3
 10
1508.551394
 20
956.944928
 11
1511.737850
 21
959.206634
  0
LINE
  8
CSLAYER1
  6
CONTINUOUS
 62
     3
 10
1511.737850
 20
959.206634
 11
1514.550252
 21
961.610990
  0
LINE
  8
CSLAYER1
  6
CONTINUOUS
 62
     3
 10
1514.550252
 20
961.610990
 11
1516.967195
 21
964.139697
  0
LINE
  8
CSLAYER1
  6
CONTINUOUS
 62
     3
 10
1516.967195
 20
964.139697
 11
1518.970285
 21
966.773510
  0
LINE
  8
CSLAYER1
  6
CONTINUOUS
 62
     3
 10
1518.970285
 20
966.773510
 11
1520.544277
 21
969.492384
  0
LINE
  8
CSLAYER1
  6
CONTINUOUS
 62
     3
 10
1520.544277
 20
969.492384
 11
1521.677192
 21
972.275626
  0
LINE
  8
CSLAYER1
  6
CONTINUOUS
 62
     3
 10
1521.677192
 20
972.275626
 11
1522.360409
 21
975.102056
  0
LINE
  8
CSLAYER1
  6
CONTINUOUS
 62
     3
 10
1522.360409
 20
975.102056
 11
1522.588727
 21
977.950161
  0
LINE
  8
CSLAYER1
  6
CONTINUOUS
 62
     3
 10
1522.588727
 20
1065.591210
 11
1522.588727
 21
977.950161
  0
LINE
  8
CSLAYER1
  6
CONTINUOUS
 62
     3
 10
1522.588727
 20
986.413242
 11
1523.646808
 21
983.813847
  0
LINE
  8
CSLAYER1
  6
CONTINUOUS
 62
     3
 10
1523.646808
 20
983.813847
 11
1524.352799
 21
980.893203
  0
LINE
  8
CSLAYER1
  6
CONTINUOUS
 62
     3
 10
1524.352799
 20
980.893203
 11
1524.588727
 21
977.950161
  0
LINE
  8
CSLAYER1
  6
CONTINUOUS
 62
     4
 10
1516.358632
 20
1065.591210
 11
1516.358632
 21
963.502993
  0
LINE
  8
CSLAYER1
  6
CONTINUOUS
 62
     4
 10
1509.251868
 20
1065.591210
 11
1509.251868
 21
957.380455
  0
LINE
  8
CSLAYER1
  6
CONTINUOUS
 62
     4
 10
1496.969941
 20
1065.591210
 11
1496.969941
 21
951.218728
  0
LINE
  8
CSLAYER1
  6
CONTINUOUS
 62
     4
 10
1492.035724
 20
1065.591210
 11
1492.035724
 21
949.493099
  0
LINE
  8
CSLAYER1
  6
CONTINUOUS
 62
     4
 10
1474.194418
 20
1065.591210
 11
1474.194418
 21
945.911575
  0
ARC
  8
CSLAYER1
  6
CONTINUOUS
 62
     3
 10
1526.032416
 20
1170.397199
 40
10.000000
 50
270.000000
 51
298.679003
  0
ARC
  8
CSLAYER1
  6
CONTINUOUS
 62
     3
 10
1558.588727
 20
1154.720655
 40
10.000000
 50
298.679003
 51
360.000000
  0
LINE
  8
CSLAYER1
  6
CONTINUOUS
 62
     3
 10
1356.588727
 20
1166.942759
 11
1356.588727
 21
1154.720655
  0
LINE
  8
CSLAYER1
  6
CONTINUOUS
 62
     3
 10
1369.205000
 20
1141.891210
 11
1361.789707
 21
1145.947434
  0
LINE
  8
CSLAYER1
  6
CONTINUOUS
 62
     3
 10
1394.346019
 20
1161.623978
 11
1384.622609
 21
1166.942759
  0
LINE
  8
CSLAYER1
  6
CONTINUOUS
 62
     3
 10
1418.088727
 20
1579.754748
 11
1418.088727
 21
1244.479123
  0
LINE
  8
CSLAYER1
  6
CONTINUOUS
 62
     3
 10
1418.088727
 20
1579.754748
 11
1418.258063
 21
1581.867093
  0
LINE
  8
CSLAYER1
  6
CONTINUOUS
 62
     3
 10
1418.258063
 20
1581.867093
 11
1418.764782
 21
1583.963361
  0
LINE
  8
CSLAYER1
  6
CONTINUOUS
 62
     3
 10
1418.764782
 20
1583.963361
 11
1419.605028
 21
1586.027600
  0
LINE
  8
CSLAYER1
  6
CONTINUOUS
 62
     3
 10
1419.605028
 20
1586.027600
 11
1420.772406
 21
1588.044098
  0
LINE
  8
CSLAYER1
  6
CONTINUOUS
 62
     3
 10
1420.772406
 20
1588.044098
 11
1422.258031
 21
1589.997509
  0
LINE
  8
CSLAYER1
  6
CONTINUOUS
 62
     3
 10
1422.258031
 20
1589.997509
 11
1424.050597
 21
1591.872967
  0
LINE
  8
CSLAYER1
  6
CONTINUOUS
 62
     3
 10
1424.050597
 20
1591.872967
 11
1426.136461
 21
1593.656198
  0
LINE
  8
CSLAYER1
  6
CONTINUOUS
 62
     3
 10
1426.136461
 20
1593.656198
 11
1428.499750
 21
1595.333630
  0
LINE
  8
CSLAYER1
  6
CONTINUOUS
 62
     3
 10
1428.499750
 20
1595.333630
 11
1431.122476
 21
1596.892497
  0
LINE
  8
CSLAYER1
  6
CONTINUOUS
 62
     3
 10
1431.122476
 20
1596.892497
 11
1432.338727
 21
1597.499492
  0
LINE
  8
CSLAYER1
  6
CONTINUOUS
 62
     3
 10
1462.588727
 20
1555.518311
 11
1458.710297
 21
1555.610538
  0
LINE
  8
CSLAYER1
  6
CONTINUOUS
 62
     3
 10
1458.710297
 20
1555.610538
 11
1454.861383
 21
1555.886517
  0
LINE
  8
CSLAYER1
  6
CONTINUOUS
 62
     3
 10
1454.861383
 20
1555.886517
 11
1451.071280
 21
1556.344148
  0
LINE
  8
CSLAYER1
  6
CONTINUOUS
 62
     3
 10
1451.071280
 20
1556.344148
 11
1447.368831
 21
1556.979947
  0
LINE
  8
CSLAYER1
  6
CONTINUOUS
 62
     3
 10
1447.368831
 20
1556.979947
 11
1443.782215
 21
1557.789077
  0
LINE
  8
CSLAYER1
  6
CONTINUOUS
 62
     3
 10
1443.782215
 20
1557.789077
 11
1440.338727
 21
1558.765378
  0
LINE
  8
CSLAYER1
  6
CONTINUOUS
 62
     3
 10
1440.338727
 20
1558.765378
 11
1437.064576
 21
1559.901421
  0
LINE
  8
CSLAYER1
  6
CONTINUOUS
 62
     3
 10
1437.064576
 20
1559.901421
 11
1433.984679
 21
1561.188560
  0
LINE
  8
CSLAYER1
  6
CONTINUOUS
 62
     3
 10
1433.984679
 20
1561.188560
 11
1431.122476
 21
1562.616999
  0
LINE
  8
CSLAYER1
  6
CONTINUOUS
 62
     3
 10
1431.122476
 20
1562.616999
 11
1428.499750
 21
1564.175867
  0
LINE
  8
CSLAYER1
  6
CONTINUOUS
 62
     3
 10
1428.499750
 20
1564.175867
 11
1426.136461
 21
1565.853299
  0
LINE
  8
CSLAYER1
  6
CONTINUOUS
 62
     3
 10
1426.136461
 20
1565.853299
 11
1424.050597
 21
1567.636530
  0
LINE
  8
CSLAYER1
  6
CONTINUOUS
 62
     3
 10
1424.050597
 20
1567.636530
 11
1422.258031
 21
1569.511987
  0
LINE
  8
CSLAYER1
  6
CONTINUOUS
 62
     3
 10
1422.258031
 20
1569.511987
 11
1420.772406
 21
1571.465399
  0
LINE
  8
CSLAYER1
  6
CONTINUOUS
 62
     3
 10
1420.772406
 20
1571.465399
 11
1419.605028
 21
1573.481897
  0
LINE
  8
CSLAYER1
  6
CONTINUOUS
 62
     3
 10
1419.605028
 20
1573.481897
 11
1418.764782
 21
1575.546135
  0
LINE
  8
CSLAYER1
  6
CONTINUOUS
 62
     3
 10
1418.764782
 20
1575.546135
 11
1418.258063
 21
1577.642404
  0
LINE
  8
CSLAYER1
  6
CONTINUOUS
 62
     3
 10
1418.258063
 20
1577.642404
 11
1418.088727
 21
1579.754748
  0
LINE
  8
CSLAYER1
  6
CONTINUOUS
 62
     3
 10
1432.338727
 20
1579.754748
 11
1432.453838
 21
1581.190668
  0
LINE
  8
CSLAYER1
  6
CONTINUOUS
 62
     3
 10
1462.588727
 20
1563.279418
 11
1459.952266
 21
1563.342111
  0
LINE
  8
CSLAYER1
  6
CONTINUOUS
 62
     3
 10
1459.952266
 20
1563.342111
 11
1457.335870
 21
1563.529715
  0
LINE
  8
CSLAYER1
  6
CONTINUOUS
 62
     3
 10
1457.335870
 20
1563.529715
 11
1454.759451
 21
1563.840801
  0
LINE
  8
CSLAYER1
  6
CONTINUOUS
 62
     3
 10
1454.759451
 20
1563.840801
 11
1452.242618
 21
1564.273002
  0
LINE
  8
CSLAYER1
  6
CONTINUOUS
 62
     3
 10
1452.242618
 20
1564.273002
 11
1449.804525
 21
1564.823028
  0
LINE
  8
CSLAYER1
  6
CONTINUOUS
 62
     3
 10
1449.804525
 20
1564.823028
 11
1447.463727
 21
1565.486693
  0
LINE
  8
CSLAYER1
  6
CONTINUOUS
 62
     3
 10
1447.463727
 20
1565.486693
 11
1445.238040
 21
1566.258947
  0
LINE
  8
CSLAYER1
  6
CONTINUOUS
 62
     3
 10
1445.238040
 20
1566.258947
 11
1443.144402
 21
1567.133913
  0
LINE
  8
CSLAYER1
  6
CONTINUOUS
 62
     3
 10
1443.144402
 20
1567.133913
 11
1441.198747
 21
1568.104930
  0
LINE
  8
CSLAYER1
  6
CONTINUOUS
 62
     3
 10
1441.198747
 20
1568.104930
 11
1439.415883
 21
1569.164610
  0
LINE
  8
CSLAYER1
  6
CONTINUOUS
 62
     3
 10
1439.415883
 20
1569.164610
 11
1437.809378
 21
1570.304887
  0
LINE
  8
CSLAYER1
  6
CONTINUOUS
 62
     3
 10
1437.809378
 20
1570.304887
 11
1436.391459
 21
1571.517083
  0
LINE
  8
CSLAYER1
  6
CONTINUOUS
 62
     3
 10
1436.391459
 20
1571.517083
 11
1435.172917
 21
1572.791973
  0
LINE
  8
CSLAYER1
  6
CONTINUOUS
 62
     3
 10
1435.172917
 20
1572.791973
 11
1434.163026
 21
1574.119853
  0
LINE
  8
CSLAYER1
  6
CONTINUOUS
 62
     3
 10
1434.163026
 20
1574.119853
 11
1433.369471
 21
1575.490619
  0
LINE
  8
CSLAYER1
  6
CONTINUOUS
 62
     3
 10
1433.369471
 20
1575.490619
 11
1432.798293
 21
1576.893837
  0
LINE
  8
CSLAYER1
  6
CONTINUOUS
 62
     3
 10
1432.798293
 20
1576.893837
 11
1432.453838
 21
1578.318829
  0
LINE
  8
CSLAYER1
  6
CONTINUOUS
 62
     3
 10
1432.453838
 20
1578.318829
 11
1432.338727
 21
1579.754748
  0
LINE
  8
CSLAYER1
  6
CONTINUOUS
 62
     3
 10
1462.588727
 20
944.182541
 11
1457.185071
 21
944.311037
  0
LINE
  8
CSLAYER1
  6
CONTINUOUS
 62
     3
 10
1457.185071
 20
944.311037
 11
1451.822540
 21
944.695547
  0
LINE
  8
CSLAYER1
  6
CONTINUOUS
 62
     3
 10
1451.822540
 20
944.695547
 11
1446.541947
 21
945.333145
  0
LINE
  8
CSLAYER1
  6
CONTINUOUS
 62
     3
 10
1446.541947
 20
945.333145
 11
1441.383478
 21
946.218978
  0
LINE
  8
CSLAYER1
  6
CONTINUOUS
 62
     3
 10
1441.383478
 20
946.218978
 11
1436.386395
 21
947.346304
  0
LINE
  8
CSLAYER1
  6
CONTINUOUS
 62
     3
 10
1436.386395
 20
947.346304
 11
1431.588727
 21
948.706544
  0
LINE
  8
CSLAYER1
  6
CONTINUOUS
 62
     3
 10
1431.588727
 20
948.706544
 11
1427.026988
 21
950.289346
  0
LINE
  8
CSLAYER1
  6
CONTINUOUS
 62
     3
 10
1427.026988
 20
950.289346
 11
1422.735896
 21
952.082663
  0
LINE
  8
CSLAYER1
  6
CONTINUOUS
 62
     3
 10
1422.735896
 20
952.082663
 11
1418.748107
 21
954.072848
  0
LINE
  8
CSLAYER1
  6
CONTINUOUS
 62
     3
 10
1418.748107
 20
954.072848
 11
1415.093972
 21
956.244753
  0
LINE
  8
CSLAYER1
  6
CONTINUOUS
 62
     3
 10
1415.093972
 20
956.244753
 11
1411.801301
 21
958.581850
  0
LINE
  8
CSLAYER1
  6
CONTINUOUS
 62
     3
 10
1411.801301
 20
958.581850
 11
1408.895152
 21
961.066351
  0
LINE
  8
CSLAYER1
  6
CONTINUOUS
 62
     3
 10
1408.895152
 20
961.066351
 11
1406.397645
 21
963.679348
  0
LINE
  8
CSLAYER1
  6
CONTINUOUS
 62
     3
 10
1406.397645
 20
963.679348
 11
1404.327785
 21
966.400955
  0
LINE
  8
CSLAYER1
  6
CONTINUOUS
 62
     3
 10
1404.327785
 20
966.400955
 11
1402.701326
 21
969.210458
  0
LINE
  8
CSLAYER1
  6
CONTINUOUS
 62
     3
 10
1402.701326
 20
969.210458
 11
1401.530647
 21
972.086475
  0
LINE
  8
CSLAYER1
  6
CONTINUOUS
 62
     3
 10
1401.530647
 20
972.086475
 11
1400.824656
 21
975.007119
  0
LINE
  8
CSLAYER1
  6
CONTINUOUS
 62
     3
 10
1400.824656
 20
975.007119
 11
1400.588727
 21
977.950161
  0
LINE
  8
CSLAYER1
  6
CONTINUOUS
 62
     3
 10
1401.463678
 20
923.629123
 11
1400.824656
 21
926.272722
  0
LINE
  8
CSLAYER1
  6
CONTINUOUS
 62
     3
 10
1400.824656
 20
926.272722
 11
1400.588727
 21
929.215764
  0
LINE
  8
CSLAYER1
  6
CONTINUOUS
 62
     3
 10
1462.588727
 20
945.271819
 11
1457.359383
 21
945.396170
  0
LINE
  8
CSLAYER1
  6
CONTINUOUS
 62
     3
 10
1457.359383
 20
945.396170
 11
1452.169837
 21
945.768276
  0
LINE
  8
CSLAYER1
  6
CONTINUOUS
 62
     3
 10
1452.169837
 20
945.768276
 11
1447.059585
 21
946.385306
  0
LINE
  8
CSLAYER1
  6
CONTINUOUS
 62
     3
 10
1447.059585
 20
946.385306
 11
1442.067519
 21
947.242564
  0
LINE
  8
CSLAYER1
  6
CONTINUOUS
 62
     3
 10
1442.067519
 20
947.242564
 11
1437.231632
 21
948.333525
  0
LINE
  8
CSLAYER1
  6
CONTINUOUS
 62
     3
 10
1437.231632
 20
948.333525
 11
1432.588727
 21
949.649887
  0
LINE
  8
CSLAYER1
  6
CONTINUOUS
 62
     3
 10
1432.588727
 20
949.649887
 11
1428.174141
 21
951.181630
  0
LINE
  8
CSLAYER1
  6
CONTINUOUS
 62
     3
 10
1428.174141
 20
951.181630
 11
1424.021471
 21
952.917099
  0
LINE
  8
CSLAYER1
  6
CONTINUOUS
 62
     3
 10
1424.021471
 20
952.917099
 11
1420.162320
 21
954.843084
  0
LINE
  8
CSLAYER1
  6
CONTINUOUS
 62
     3
 10
1420.162320
 20
954.843084
 11
1416.626061
 21
956.944928
  0
LINE
  8
CSLAYER1
  6
CONTINUOUS
 62
     3
 10
1416.626061
 20
956.944928
 11
1413.439605
 21
959.206634
  0
LINE
  8
CSLAYER1
  6
CONTINUOUS
 62
     3
 10
1413.439605
 20
959.206634
 11
1410.627203
 21
961.610990
  0
LINE
  8
CSLAYER1
  6
CONTINUOUS
 62
     3
 10
1410.627203
 20
961.610990
 11
1408.210260
 21
964.139697
  0
LINE
  8
CSLAYER1
  6
CONTINUOUS
 62
     3
 10
1408.210260
 20
964.139697
 11
1406.207170
 21
966.773510
  0
LINE
  8
CSLAYER1
  6
CONTINUOUS
 62
     3
 10
1406.207170
 20
966.773510
 11
1404.633178
 21
969.492384
  0
LINE
  8
CSLAYER1
  6
CONTINUOUS
 62
     3
 10
1404.633178
 20
969.492384
 11
1403.500262
 21
972.275626
  0
LINE
  8
CSLAYER1
  6
CONTINUOUS
 62
     3
 10
1403.500262
 20
972.275626
 11
1402.817045
 21
975.102056
  0
LINE
  8
CSLAYER1
  6
CONTINUOUS
 62
     3
 10
1402.817045
 20
975.102056
 11
1402.588727
 21
977.950161
  0
LINE
  8
CSLAYER1
  6
CONTINUOUS
 62
     3
 10
1402.588727
 20
1065.591210
 11
1402.588727
 21
977.950161
  0
LINE
  8
CSLAYER1
  6
CONTINUOUS
 62
     3
 10
1402.588727
 20
986.413242
 11
1401.530647
 21
983.813847
  0
LINE
  8
CSLAYER1
  6
CONTINUOUS
 62
     3
 10
1401.530647
 20
983.813847
 11
1400.824656
 21
980.893203
  0
LINE
  8
CSLAYER1
  6
CONTINUOUS
 62
     3
 10
1400.824656
 20
980.893203
 11
1400.588727
 21
977.950161
  0
LINE
  8
CSLAYER1
  6
CONTINUOUS
 62
     4
 10
1408.818823
 20
1065.591210
 11
1408.818823
 21
963.502993
  0
LINE
  8
CSLAYER1
  6
CONTINUOUS
 62
     4
 10
1415.925587
 20
1065.591210
 11
1415.925587
 21
957.380455
  0
LINE
  8
CSLAYER1
  6
CONTINUOUS
 62
     4
 10
1428.207514
 20
1065.591210
 11
1428.207514
 21
951.218728
  0
LINE
  8
CSLAYER1
  6
CONTINUOUS
 62
     4
 10
1433.141731
 20
1065.591210
 11
1433.141731
 21
949.493099
  0
LINE
  8
CSLAYER1
  6
CONTINUOUS
 62
     4
 10
1450.983037
 20
1065.591210
 11
1450.983037
 21
945.911575
  0
ARC
  8
CSLAYER1
  6
CONTINUOUS
 62
     3
 10
1399.145039
 20
1170.397199
 40
10.000000
 50
241.320997
 51
270.000000
  0
ARC
  8
CSLAYER1
  6
CONTINUOUS
 62
     3
 10
1366.588727
 20
1154.720655
 40
10.000000
 50
180.000000
 51
241.320997
  0
LINE
  8
CSLAYER1
  6
CONTINUOUS
 62
     3
 10
1547.588727
 20
1062.695406
 11
1547.588727
 21
962.743061
  0
LINE
  8
CSLAYER1
  6
CONTINUOUS
 62
     3
 10
1400.588727
 20
977.950161
 11
1400.588727
 21
929.215764
  0
LINE
  8
CSLAYER1
  6
CONTINUOUS
 62
     3
 10
1492.838727
 20
1648.220992
 11
1492.838727
 21
1627.129123
  0
LINE
  8
CSLAYER1
  6
CONTINUOUS
 62
     3
 10
1432.338727
 20
1648.220992
 11
1432.338727
 21
1627.129123
  0
LINE
  8
CSLAYER1
  6
CONTINUOUS
 62
     3
 10
1492.838727
 20
1602.129123
 11
1492.838727
 21
1579.754748
  0
LINE
  8
CSLAYER1
  6
CONTINUOUS
 62
     3
 10
1432.338727
 20
1602.129123
 11
1432.338727
 21
1579.754748
  0
LINE
  8
CSLAYER1
  6
CENTER
 62
     5
 10
2755.194968
 20
902.629123
 11
2744.342132
 21
902.629123
  0
LINE
  8
CSLAYER1
  6
CENTER
 62
     5
 10
2589.652637
 20
902.629123
 11
2620.457873
 21
902.629123
  0
LINE
  8
CSLAYER1
  6
CONTINUOUS
 62
     2
 10
2589.652637
 20
906.429123
 11
2592.170145
 21
906.429123
  0
LINE
  8
CSLAYER1
  6
CONTINUOUS
 62
     2
 10
2620.170145
 20
917.629123
 11
2620.170145
 21
901.292940
  0
LINE
  8
CSLAYER1
  6
CONTINUOUS
 62
     2
 10
2592.170145
 20
911.129123
 11
2592.170145
 21
894.129123
  0
LINE
  8
CSLAYER1
  6
CONTINUOUS
 62
     2
 10
2596.139711
 20
915.619504
 11
2610.767582
 21
915.619504
  0
LINE
  8
CSLAYER1
  6
CONTINUOUS
 62
     2
 10
2595.279239
 20
914.129123
 11
2595.279239
 21
891.129123
  0
LINE
  8
CSLAYER1
  6
CONTINUOUS
 62
     2
 10
2611.628054
 20
914.129123
 11
2611.628054
 21
891.129123
  0
LINE
  8
CSLAYER1
  6
CONTINUOUS
 62
     2
 10
2595.279239
 20
914.129123
 11
2596.139711
 21
915.619504
  0
LINE
  8
CSLAYER1
  6
CONTINUOUS
 62
     2
 10
2611.628054
 20
914.129123
 11
2610.767582
 21
915.619504
  0
LINE
  8
CSLAYER1
  6
CONTINUOUS
 62
     2
 10
2596.139711
 20
909.268651
 11
2610.767582
 21
909.268651
  0
ARC
  8
CSLAYER1
  6
CONTINUOUS
 62
     2
 10
2621.325264
 20
902.629123
 40
26.046025
 50
165.231439
 51
194.768561
  0
ARC
  8
CSLAYER1
  6
CONTINUOUS
 62
     2
 10
2601.410833
 20
912.444077
 40
6.153702
 50
156.825356
 51
211.065581
  0
ARC
  8
CSLAYER1
  6
CONTINUOUS
 62
     2
 10
2605.496460
 20
912.444077
 40
6.153702
 50
-31.065581
 51
23.174644
  0
ARC
  8
CSLAYER1
  6
CONTINUOUS
 62
     2
 10
2585.582029
 20
902.629123
 40
26.046025
 50
-14.768561
 51
14.768561
  0
LINE
  8
CSLAYER1
  6
CONTINUOUS
 62
     2
 10
2595.170145
 20
914.129123
 11
2595.279239
 21
914.129123
  0
ARC
  8
CSLAYER1
  6
CONTINUOUS
 62
     2
 10
2595.170145
 20
911.129123
 40
3.000000
 50
90.000000
 51
180.000000
  0
LINE
  8
CSLAYER1
  6
CONTINUOUS
 62
     2
 10
2615.170145
 20
914.129123
 11
2615.170145
 21
891.129123
  0
LINE
  8
CSLAYER1
  6
CONTINUOUS
 62
     2
 10
2615.170145
 20
914.129123
 11
2616.030617
 21
915.619504
  0
ARC
  8
CSLAYER1
  6
CONTINUOUS
 62
     2
 10
2641.216170
 20
902.629123
 40
26.046025
 50
165.231439
 51
194.768561
  0
ARC
  8
CSLAYER1
  6
CONTINUOUS
 62
     2
 10
2621.301738
 20
912.444077
 40
6.153702
 50
156.825356
 51
211.065581
  0
LINE
  8
CSLAYER1
  6
CONTINUOUS
 62
     2
 10
2616.030617
 20
909.268651
 11
2620.170145
 21
909.268651
  0
LINE
  8
CSLAYER1
  6
CONTINUOUS
 62
     2
 10
2616.030617
 20
915.619504
 11
2620.170145
 21
915.619504
  0
LINE
  8
CSLAYER1
  6
CONTINUOUS
 62
     2
 10
2611.628054
 20
912.965247
 11
2615.170145
 21
912.965247
  0
LINE
  8
CSLAYER1
  6
CONTINUOUS
 62
     2
 10
2611.628054
 20
912.318869
 11
2613.234415
 21
912.318869
  0
LINE
  8
CSLAYER1
  6
CONTINUOUS
 62
     2
 10
2613.234415
 20
912.965247
 11
2613.234415
 21
892.292998
  0
LINE
  8
CSLAYER1
  6
CONTINUOUS
 62
     2
 10
2613.234415
 20
912.318869
 11
2614.369267
 21
912.965247
  0
LINE
  8
CSLAYER1
  6
CONTINUOUS
 62
     2
 10
2596.139711
 20
889.638741
 11
2610.767582
 21
889.638741
  0
LINE
  8
CSLAYER1
  6
CONTINUOUS
 62
     2
 10
2595.279239
 20
891.129123
 11
2596.139711
 21
889.638741
  0
LINE
  8
CSLAYER1
  6
CONTINUOUS
 62
     2
 10
2611.628054
 20
891.129123
 11
2610.767582
 21
889.638741
  0
LINE
  8
CSLAYER1
  6
CONTINUOUS
 62
     2
 10
2596.139711
 20
895.989594
 11
2610.767582
 21
895.989594
  0
ARC
  8
CSLAYER1
  6
CONTINUOUS
 62
     2
 10
2601.410833
 20
892.814168
 40
6.153702
 50
148.934419
 51
203.174644
  0
ARC
  8
CSLAYER1
  6
CONTINUOUS
 62
     2
 10
2605.496460
 20
892.814168
 40
6.153702
 50
-23.174644
 51
31.065581
  0
LINE
  8
CSLAYER1
  6
CONTINUOUS
 62
     2
 10
2595.170145
 20
891.129123
 11
2595.279239
 21
891.129123
  0
ARC
  8
CSLAYER1
  6
CONTINUOUS
 62
     2
 10
2595.170145
 20
894.129123
 40
3.000000
 50
180.000000
 51
270.000000
  0
LINE
  8
CSLAYER1
  6
CONTINUOUS
 62
     2
 10
2615.170145
 20
891.129123
 11
2616.030617
 21
889.638741
  0
ARC
  8
CSLAYER1
  6
CONTINUOUS
 62
     2
 10
2621.301738
 20
892.814168
 40
6.153702
 50
148.934419
 51
203.174644
  0
LINE
  8
CSLAYER1
  6
CONTINUOUS
 62
     2
 10
2616.030617
 20
895.989594
 11
2619.028144
 21
895.989594
  0
LINE
  8
CSLAYER1
  6
CONTINUOUS
 62
     2
 10
2616.030617
 20
889.638741
 11
2617.660578
 21
889.638741
  0
LINE
  8
CSLAYER1
  6
CONTINUOUS
 62
     2
 10
2611.628054
 20
892.292998
 11
2615.170145
 21
892.292998
  0
LINE
  8
CSLAYER1
  6
CONTINUOUS
 62
     2
 10
2611.628054
 20
892.939376
 11
2613.234415
 21
892.939376
  0
LINE
  8
CSLAYER1
  6
CONTINUOUS
 62
     2
 10
2613.234415
 20
892.939376
 11
2614.369267
 21
892.292998
  0
LINE
  8
CSLAYER1
  6
CONTINUOUS
 62
     2
 10
2752.570145
 20
917.629123
 11
2752.570145
 21
887.329123
  0
LINE
  8
CSLAYER1
  6
CONTINUOUS
 62
     2
 10
2753.870145
 20
923.629123
 11
2716.559291
 21
923.629123
  0
LINE
  8
CSLAYER1
  6
CONTINUOUS
 62
     2
 10
2753.870145
 20
917.629123
 11
2711.127923
 21
917.629123
  0
LINE
  8
CSLAYER1
  6
CONTINUOUS
 62
     2
 10
2753.870145
 20
923.629123
 11
2753.870145
 21
917.629123
  0
LINE
  8
CSLAYER1
  6
CONTINUOUS
 62
     2
 10
2618.870145
 20
923.629123
 11
2618.870145
 21
917.629123
  0
ARC
  8
CSLAYER1
  6
CONTINUOUS
 62
     2
 10
2754.720145
 20
870.478988
 40
25.650135
 50
41.065538
 51
90.000000
  0
ARC
  8
CSLAYER1
  6
CONTINUOUS
 62
     2
 10
2754.720145
 20
870.478988
 40
28.654497
 50
36.018400
 51
90.999820
  0
ARC
  8
CSLAYER1
  6
CONTINUOUS
 62
     2
 10
2754.720145
 20
870.478988
 40
35.653641
 50
28.203609
 51
90.803532
  0
ARC
  8
CSLAYER1
  6
CONTINUOUS
 62
     2
 10
2754.720145
 20
870.478988
 40
38.650135
 50
25.846761
 51
90.000000
  0
LINE
  8
CSLAYER1
  6
CONTINUOUS
 62
     2
 10
2589.652637
 20
898.829123
 11
2592.170145
 21
898.829123
  0
LINE
  8
CSLAYER1
  6
CONTINUOUS
 62
     2
 10
2753.720145
 20
913.129123
 11
2752.570145
 21
913.129123
  0
LINE
  8
CSLAYER1
  6
CONTINUOUS
 62
     2
 10
2754.720145
 20
912.129123
 11
2754.720145
 21
906.132629
  0
ARC
  8
CSLAYER1
  6
CONTINUOUS
 62
     2
 10
2753.720145
 20
912.129123
 40
1.000000
 50
0.000000
 51
90.000000
  0
LINE
  8
CSLAYER1
  6
CONTINUOUS
 62
     2
 10
2753.720145
 20
892.129123
 11
2752.720145
 21
892.129123
  0
ARC
  8
CSLAYER1
  6
CONTINUOUS
 62
     2
 10
2753.720145
 20
893.129123
 40
1.000000
 50
270.000000
 51
360.000000
  0
LINE
  8
CSLAYER1
  6
CONTINUOUS
 62
     2
 10
2753.620145
 20
909.129123
 11
2752.720145
 21
909.129123
  0
LINE
  8
CSLAYER1
  6
CONTINUOUS
 62
     2
 10
2754.220145
 20
908.529123
 11
2754.220145
 21
896.729123
  0
ARC
  8
CSLAYER1
  6
CONTINUOUS
 62
     2
 10
2753.620145
 20
908.529123
 40
0.600000
 50
0.000000
 51
90.000000
  0
LINE
  8
CSLAYER1
  6
CONTINUOUS
 62
     2
 10
2753.620145
 20
896.129123
 11
2752.720145
 21
896.129123
  0
ARC
  8
CSLAYER1
  6
CONTINUOUS
 62
     2
 10
2753.620145
 20
896.729123
 40
0.600000
 50
270.000000
 51
360.000000
  0
LINE
  8
CSLAYER1
  6
CONTINUOUS
 62
     2
 10
2754.720145
 20
899.133485
 11
2754.720145
 21
893.129123
  0
ARC
  8
CSLAYER1
  6
CENTER
 62
     5
 10
2754.720145
 20
870.478988
 40
32.153641
 50
31.604352
 51
89.153864
  0
LINE
  8
CSLAYER1
  6
CONTINUOUS
 62
     2
 10
2624.979927
 20
923.629123
 11
2618.870145
 21
923.629123
  0
LINE
  8
CSLAYER1
  6
CONTINUOUS
 62
     2
 10
2623.687911
 20
917.629123
 11
2618.870145
 21
917.629123
  0
ARC
  8
CSLAYER1
  6
CONTINUOUS
 62
     2
 10
2589.652637
 20
798.829123
 40
100.000000
 50
90.000000
 51
141.188616
  0
ARC
  8
CSLAYER1
  6
CONTINUOUS
 62
     2
 10
2589.652637
 20
798.829123
 40
107.600000
 50
90.000000
 51
141.188616
  0
ARC
  8
CSLAYER1
  6
CENTER
 62
     5
 10
2589.652637
 20
798.829123
 40
103.800000
 50
90.000000
 51
141.188616
  0
LINE
  8
CSLAYER1
  6
PHANTOM
 62
     5
 10
2592.170145
 20
1422.329123
 11
3642.170145
 21
1422.329123
  0
LINE
  8
CSLAYER1
  6
PHANTOM
 62
     5
 10
2592.170145
 20
1422.329123
 11
2592.170145
 21
1369.329123
  0
LINE
  8
CSLAYER1
  6
PHANTOM
 62
     5
 10
2592.170145
 20
1369.329123
 11
3642.170145
 21
1369.329123
  0
LINE
  8
CSLAYER1
  6
CENTER
 62
     6
 10
2626.370145
 20
1412.329123
 11
2626.370145
 21
1378.329123
  0
LINE
  8
CSLAYER1
  6
PHANTOM
 62
     5
 10
3642.170145
 20
1422.329123
 11
3642.170145
 21
1369.329123
  0
LINE
  8
CSLAYER1
  6
CONTINUOUS
 62
     3
 10
1304.588727
 20
3134.329123
 11
1304.588727
 21
887.329123
  0
LINE
  8
CSLAYER1
  6
CONTINUOUS
 62
     4
 10
1560.088727
 20
887.329123
 11
1560.088727
 21
912.990868
  0
LINE
  8
CSLAYER1
  6
CONTINUOUS
 62
     4
 10
1565.549545
 20
931.019191
 11
1567.588727
 21
931.019191
  0
LINE
  8
CSLAYER1
  6
CONTINUOUS
 62
     4
 10
1567.588727
 20
931.019191
 11
1567.588727
 21
943.330927
  0
LINE
  8
CSLAYER1
  6
CONTINUOUS
 62
     2
 10
1560.088727
 20
899.939898
 11
1563.088727
 21
899.939898
  0
LINE
  8
CSLAYER1
  6
CONTINUOUS
 62
     2
 10
1560.088727
 20
904.287117
 11
1563.088727
 21
904.287117
  0
LINE
  8
CSLAYER1
  6
CONTINUOUS
 62
     4
 10
1560.088727
 20
912.990868
 11
1564.088727
 21
912.990868
  0
LINE
  8
CSLAYER1
  6
CONTINUOUS
 62
     2
 10
1563.088727
 20
887.329123
 11
1563.088727
 21
912.990868
  0
LINE
  8
CSLAYER1
  6
CONTINUOUS
 62
     4
 10
1579.088727
 20
887.329123
 11
1579.088727
 21
912.990868
  0
LINE
  8
CSLAYER1
  6
CONTINUOUS
 62
     2
 10
1563.088727
 20
903.704693
 11
1579.088727
 21
903.704693
  0
LINE
  8
CSLAYER1
  6
CONTINUOUS
 62
     2
 10
1580.088727
 20
897.453730
 11
1580.088727
 21
905.053730
  0
LINE
  8
CSLAYER1
  6
CONTINUOUS
 62
     4
 10
1580.088727
 20
897.453730
 11
1579.088727
 21
897.453730
  0
LINE
  8
CSLAYER1
  6
CONTINUOUS
 62
     4
 10
1580.088727
 20
905.053730
 11
1579.088727
 21
905.053730
  0
LINE
  8
CSLAYER1
  6
CONTINUOUS
 62
     4
 10
1582.688727
 20
899.753730
 11
1582.688727
 21
902.753730
  0
LINE
  8
CSLAYER1
  6
CONTINUOUS
 62
     4
 10
1580.688727
 20
897.753730
 11
1580.088727
 21
897.753730
  0
LINE
  8
CSLAYER1
  6
CONTINUOUS
 62
     4
 10
1580.688727
 20
904.753730
 11
1580.088727
 21
904.753730
  0
ARC
  8
CSLAYER1
  6
CONTINUOUS
 62
     4
 10
1580.688727
 20
899.753730
 40
2.000000
 50
270.000000
 51
360.000000
  0
ARC
  8
CSLAYER1
  6
CONTINUOUS
 62
     4
 10
1580.688727
 20
902.753730
 40
2.000000
 50
0.000000
 51
90.000000
  0
LINE
  8
CSLAYER1
  6
CONTINUOUS
 62
     4
 10
1578.088727
 20
912.990868
 11
1579.088727
 21
912.990868
  0
LINE
  8
CSLAYER1
  6
CONTINUOUS
 62
     2
 10
1569.088727
 20
931.019191
 11
1569.088727
 21
943.330927
  0
LINE
  8
CSLAYER1
  6
CONTINUOUS
 62
     4
 10
1578.088727
 20
919.035052
 11
1576.627910
 21
931.019191
  0
LINE
  8
CSLAYER1
  6
CONTINUOUS
 62
     4
 10
1564.088727
 20
919.035052
 11
1565.549545
 21
931.019191
  0
LINE
  8
CSLAYER1
  6
CONTINUOUS
 62
     4
 10
1564.088727
 20
903.704693
 11
1564.088727
 21
919.035052
  0
LINE
  8
CSLAYER1
  6
CONTINUOUS
 62
     2
 10
1578.088727
 20
903.704693
 11
1578.088727
 21
912.990868
  0
LINE
  8
CSLAYER1
  6
CONTINUOUS
 62
     4
 10
1574.588727
 20
931.019191
 11
1574.588727
 21
943.330927
  0
LINE
  8
CSLAYER1
  6
CONTINUOUS
 62
     4
 10
1574.588727
 20
931.019191
 11
1576.627910
 21
931.019191
  0
LINE
  8
CSLAYER1
  6
CONTINUOUS
 62
     2
 10
1573.088727
 20
931.019191
 11
1573.088727
 21
943.330927
  0
LINE
  8
CSLAYER1
  6
CONTINUOUS
 62
     4
 10
1567.588727
 20
943.330927
 11
1569.088727
 21
943.330927
  0
LINE
  8
CSLAYER1
  6
CONTINUOUS
 62
     2
 10
1567.588727
 20
942.822720
 11
1569.088727
 21
942.822720
  0
LINE
  8
CSLAYER1
  6
CONTINUOUS
 62
     4
 10
1568.342666
 20
959.756497
 11
1577.316827
 21
951.978891
  0
LINE
  8
CSLAYER1
  6
CENTER
 62
     5
 10
1558.372085
 20
926.515437
 11
1620.588727
 21
926.515437
  0
LINE
  8
CSLAYER1
  6
CONTINUOUS
 62
     7
 10
1564.588727
 20
931.515437
 11
1567.588727
 21
931.515437
  0
LINE
  8
CSLAYER1
  6
CONTINUOUS
 62
     7
 10
1577.786379
 20
921.515437
 11
1620.588727
 21
921.515437
  0
LINE
  8
CSLAYER1
  6
CONTINUOUS
 62
     7
 10
1564.588727
 20
931.515437
 11
1564.588727
 21
923.136912
  0
LINE
  8
CSLAYER1
  6
CONTINUOUS
 62
     7
 10
1574.588727
 20
931.515437
 11
1620.588727
 21
931.515437
  0
LINE
  8
CSLAYER1
  6
CONTINUOUS
 62
     4
 10
1573.088727
 20
943.330927
 11
1574.588727
 21
943.330927
  0
LINE
  8
CSLAYER1
  6
CONTINUOUS
 62
     2
 10
1573.088727
 20
942.822720
 11
1574.588727
 21
942.822720
  0
LINE
  8
CSLAYER1
  6
CONTINUOUS
 62
     4
 10
1578.088727
 20
912.990868
 11
1578.088727
 21
919.035052
  0
LINE
  8
CSLAYER1
  6
CONTINUOUS
 62
     4
 10
1569.088727
 20
943.330927
 11
1569.088727
 21
959.308860
  0
LINE
  8
CSLAYER1
  6
CONTINUOUS
 62
     4
 10
1573.088727
 20
943.330927
 11
1573.088727
 21
955.269417
  0
LINE
  8
CSLAYER1
  6
CONTINUOUS
 62
     2
 10
1567.588727
 20
931.019191
 11
1574.588727
 21
931.019191
  0
LINE
  8
CSLAYER1
  6
CONTINUOUS
 62
     5
 10
1574.588727
 20
939.550968
 11
1797.800919
 21
1110.649436
  0
LINE
  8
CSLAYER1
  6
CONTINUOUS
 62
     5
 10
1574.588727
 20
939.550968
 11
1611.138346
 21
987.133794
  0
LINE
  8
CSLAYER1
  6
CONTINUOUS
 62
     5
 10
1574.588727
 20
939.550968
 11
1630.033039
 21
962.484095
  0
TEXT
  8
CSLAYER1
 62
     6
 10
1934.834229
 20
1118.159790
 40
80.000000
 41
1.028571
  1
上限・下限
 50
360.000000
 51
0.000000
  7
EASYDRAW_FONT
 72
     5
 11
2318.834229
 21
1118.159790
  0
TEXT
  8
CSLAYER1
 62
     6
 10
1823.016602
 20
1031.220825
 40
80.000000
 41
1.017391
  1
リミットスイッチ
 50
360.000000
 51
0.000000
  7
EASYDRAW_FONT
 72
     5
 11
2447.016602
 21
1031.220825
  0
LINE
  8
CSLAYER1
  6
CONTINUOUS
 62
     6
 10
1926.782295
 20
4348.907363
 11
2050.198187
 21
4276.529541
  0
LINE
  8
CSLAYER1
  6
CONTINUOUS
 62
     6
 10
2050.198187
 20
4276.529541
 11
1992.349596
 21
4292.452498
  0
LINE
  8
CSLAYER1
  6
CONTINUOUS
 62
     6
 10
2050.198187
 20
4276.529541
 11
2008.061316
 21
4319.243521
  0
LINE
  8
CSLAYER1
  6
CONTINUOUS
 62
     6
 10
1896.065350
 20
3899.672046
 11
2061.352232
 21
4021.829123
  0
LINE
  8
CSLAYER1
  6
CONTINUOUS
 62
     6
 10
2061.352232
 20
4021.829123
 11
2023.974035
 21
3974.894376
  0
LINE
  8
CSLAYER1
  6
CONTINUOUS
 62
     6
 10
2061.352232
 20
4021.829123
 11
2005.514391
 21
3999.871538
  0
LINE
  8
CSLAYER1
  6
CENTER
 62
     5
 10
3216.972004
 20
1016.064306
 11
3209.214491
 21
1010.721159
  0
LINE
  8
CSLAYER1
  6
CONTINUOUS
 62
     2
 10
3214.591348
 20
1064.208862
 11
3208.389014
 21
1059.936876
  0
LINE
  8
CSLAYER1
  6
CONTINUOUS
 62
     2
 10
3201.456978
 20
1005.378012
 11
3209.214491
 21
1010.721159
  0
LINE
  8
CSLAYER1
  6
CONTINUOUS
 62
     2
 10
3305.653917
 20
980.005739
 11
3254.593625
 21
944.836910
  0
LINE
  8
CSLAYER1
  6
CONTINUOUS
 62
     2
 10
3273.321285
 20
1026.948266
 11
3248.614692
 21
1009.931091
  0
LINE
  8
CSLAYER1
  6
CONTINUOUS
 62
     2
 10
3193.962413
 20
1138.640564
 11
3129.485483
 21
1094.230750
  0
LINE
  8
CSLAYER1
  6
CONTINUOUS
 62
     4
 10
3305.653917
 20
980.005739
 11
3273.321285
 21
1026.948266
  0
LINE
  8
CSLAYER1
  6
CONTINUOUS
 62
     4
 10
3271.674179
 20
1025.813788
 11
3189.424499
 21
1145.228989
  0
LINE
  8
CSLAYER1
  6
CONTINUOUS
 62
     4
 10
3305.653917
 20
980.005739
 11
3295.367875
 21
963.207009
  0
LINE
  8
CSLAYER1
  6
CONTINUOUS
 62
     2
 10
3203.317475
 20
1070.407633
 11
3172.161715
 21
1048.948462
  0
LINE
  8
CSLAYER1
  6
CONTINUOUS
 62
     2
 10
3249.547467
 20
1003.288055
 11
3227.340630
 21
987.992638
  0
LINE
  8
CSLAYER1
  6
CONTINUOUS
 62
     2
 10
3250.316409
 20
1007.460432
 11
3170.902925
 21
1122.757867
  0
LINE
  8
CSLAYER1
  6
CONTINUOUS
 62
     4
 10
3253.476442
 20
934.353422
 11
3295.367875
 21
963.207009
  0
LINE
  8
CSLAYER1
  6
CONTINUOUS
 62
     4
 10
3251.654842
 20
942.812763
 11
3254.593625
 21
944.836910
  0
ARC
  8
CSLAYER1
  6
CONTINUOUS
 62
     2
 10
3247.845750
 20
1005.758714
 40
3.000000
 50
-55.442072
 51
34.557928
  0
ARC
  8
CSLAYER1
  6
CONTINUOUS
 62
     2
 10
3205.019193
 20
1067.936974
 40
3.000000
 50
34.557928
 51
124.557928
  0
LINE
  8
CSLAYER1
  6
CONTINUOUS
 62
     2
 10
3173.138397
 20
1158.296616
 11
3111.566465
 21
1115.887679
  0
LINE
  8
CSLAYER1
  6
CONTINUOUS
 62
     4
 10
3096.290027
 20
1146.650245
 11
3109.380397
 21
1155.666507
  0
LINE
  8
CSLAYER1
  6
CONTINUOUS
 62
     2
 10
3186.642915
 20
1145.741617
 11
3123.753219
 21
1102.425044
  0
ARC
  8
CSLAYER1
  6
CONTINUOUS
 62
     4
 10
3184.117644
 20
1147.645037
 40
3.000000
 50
214.557928
 51
304.557928
  0
LINE
  8
CSLAYER1
  6
CONTINUOUS
 62
     2
 10
3193.434838
 20
1063.600763
 11
3158.549629
 21
1114.249280
  0
LINE
  8
CSLAYER1
  6
CONTINUOUS
 62
     2
 10
3200.023263
 20
1068.138677
 11
3165.138054
 21
1118.787193
  0
LINE
  8
CSLAYER1
  6
CONTINUOUS
 62
     2
 10
3265.085754
 20
1021.275874
 11
3187.373988
 21
1134.102651
  0
LINE
  8
CSLAYER1
  6
CONTINUOUS
 62
     2
 10
3266.732860
 20
1022.410353
 11
3189.021094
 21
1135.237129
  0
ARC
  8
CSLAYER1
  6
CONTINUOUS
 62
     4
 10
3187.777393
 20
1144.094510
 40
2.000000
 50
34.557928
 51
124.557928
  0
LINE
  8
CSLAYER1
  6
CONTINUOUS
 62
     2
 10
3123.350043
 20
1229.643678
 11
3110.987599
 21
1221.128791
  0
LINE
  8
CSLAYER1
  6
CONTINUOUS
 62
     2
 10
3119.402101
 20
1233.602831
 11
3108.695910
 21
1226.228722
  0
LINE
  8
CSLAYER1
  6
CONTINUOUS
 62
     2
 10
3120.559542
 20
1233.695101
 11
3123.350043
 21
1229.643678
  0
LINE
  8
CSLAYER1
  6
CONTINUOUS
 62
     2
 10
3117.468931
 20
1231.566379
 11
3120.259432
 21
1227.514956
  0
LINE
  8
CSLAYER1
  6
CONTINUOUS
 62
     2
 10
3119.402101
 20
1233.602831
 11
3120.559542
 21
1233.695101
  0
ARC
  8
CSLAYER1
  6
CONTINUOUS
 62
     2
 10
3120.525885
 20
1230.436034
 40
3.259241
 50
98.992029
 51
159.929546
  0
ARC
  8
CSLAYER1
  6
CONTINUOUS
 62
     2
 10
3121.093800
 20
1219.687705
 40
12.419443
 50
106.969974
 51
142.145882
  0
LINE
  8
CSLAYER1
  6
CONTINUOUS
 62
     2
 10
3108.695910
 20
1226.228722
 11
3108.197098
 21
1225.180214
  0
ARC
  8
CSLAYER1
  6
CONTINUOUS
 62
     2
 10
3111.254053
 20
1224.049868
 40
3.259241
 50
89.186310
 51
150.123827
  0
CIRCLE
  8
CSLAYER1
  6
CONTINUOUS
 62
     4
 10
3090.661505
 20
1182.843759
 40
16.000000
  0
POINT
  8
CSLAYER1
 62
     4
 10
3090.661505
 20
1182.843759
  0
LINE
  8
CSLAYER1
  6
CONTINUOUS
 62
     4
 10
3130.788791
 20
1234.767269
 11
3097.731929
 21
1211.998675
  0
LINE
  8
CSLAYER1
  6
CONTINUOUS
 62
     4
 10
3153.478358
 20
1201.825145
 11
3130.788791
 21
1234.767269
  0
LINE
  8
CSLAYER1
  6
CONTINUOUS
 62
     4
 10
3153.478358
 20
1201.825145
 11
3120.421496
 21
1179.056550
  0
LINE
  8
CSLAYER1
  6
CONTINUOUS
 62
     4
 10
3154.675819
 20
1186.864661
 11
3147.301709
 21
1197.570851
  0
LINE
  8
CSLAYER1
  6
CONTINUOUS
 62
     2
 10
3154.675819
 20
1186.864661
 11
3109.380397
 21
1155.666507
  0
LINE
  8
CSLAYER1
  6
CONTINUOUS
 62
     2
 10
3156.380160
 20
1168.456773
 11
3113.028707
 21
1231.397110
  0
LINE
  8
CSLAYER1
  6
CONTINUOUS
 62
     2
 10
3154.708334
 20
1184.458555
 11
3142.025616
 21
1175.723072
  0
LINE
  8
CSLAYER1
  6
CONTINUOUS
 62
     2
 10
3154.708334
 20
1184.458555
 11
3153.573856
 21
1186.105661
  0
LINE
  8
CSLAYER1
  6
CONTINUOUS
 62
     2
 10
3157.407125
 20
1178.424773
 11
3146.700934
 21
1171.050664
  0
LINE
  8
CSLAYER1
  6
CONTINUOUS
 62
     2
 10
3157.407125
 20
1178.424773
 11
3157.905937
 21
1179.473281
  0
LINE
  8
CSLAYER1
  6
CONTINUOUS
 62
     2
 10
3154.548197
 20
1184.348257
 11
3157.905937
 21
1179.473281
  0
ARC
  8
CSLAYER1
  6
CONTINUOUS
 62
     2
 10
3154.830542
 20
1180.630399
 40
3.285875
 50
269.593545
 51
329.244423
  0
ARC
  8
CSLAYER1
  6
CONTINUOUS
 62
     2
 10
3145.009235
 20
1184.965789
 40
12.419443
 50
286.969974
 51
322.145882
  0
LINE
  8
CSLAYER1
  6
CONTINUOUS
 62
     2
 10
3151.457586
 20
1182.219535
 11
3154.815326
 21
1177.344559
  0
LINE
  8
CSLAYER1
  6
CONTINUOUS
 62
     2
 10
3156.757092
 20
1173.727172
 11
3151.321642
 21
1169.983393
  0
LINE
  8
CSLAYER1
  6
CONTINUOUS
 62
     2
 10
3156.936512
 20
1174.700726
 11
3155.348242
 21
1177.006675
  0
LINE
  8
CSLAYER1
  6
CONTINUOUS
 62
     2
 10
3156.757092
 20
1173.727172
 11
3154.771755
 21
1176.609607
  0
LINE
  8
CSLAYER1
  6
CONTINUOUS
 62
     2
 10
3156.936512
 20
1174.700726
 11
3156.757092
 21
1173.727172
  0
LINE
  8
CSLAYER1
  6
CONTINUOUS
 62
     2
 10
3156.936512
 20
1174.700726
 11
3150.348087
 21
1170.162813
  0
LINE
  8
CSLAYER1
  6
CONTINUOUS
 62
     2
 10
3142.025616
 20
1175.723072
 11
3140.891138
 21
1177.370178
  0
LINE
  8
CSLAYER1
  6
CONTINUOUS
 62
     2
 10
3146.700934
 20
1171.050664
 11
3145.543493
 21
1170.958393
  0
LINE
  8
CSLAYER1
  6
CONTINUOUS
 62
     2
 10
3142.185753
 20
1175.833370
 11
3145.543493
 21
1170.958393
  0
ARC
  8
CSLAYER1
  6
CONTINUOUS
 62
     2
 10
3145.558709
 20
1174.244233
 40
3.285875
 50
279.871433
 51
339.522311
  0
LINE
  8
CSLAYER1
  6
CONTINUOUS
 62
     2
 10
3145.276364
 20
1177.962091
 11
3148.634104
 21
1173.087115
  0
LINE
  8
CSLAYER1
  6
CONTINUOUS
 62
     2
 10
3150.348087
 20
1170.162813
 11
3148.759817
 21
1172.468762
  0
LINE
  8
CSLAYER1
  6
CONTINUOUS
 62
     2
 10
3151.321642
 20
1169.983393
 11
3149.336304
 21
1172.865829
  0
LINE
  8
CSLAYER1
  6
CONTINUOUS
 62
     2
 10
3150.348087
 20
1170.162813
 11
3151.321642
 21
1169.983393
  0
LINE
  8
CSLAYER1
  6
CONTINUOUS
 62
     2
 10
3148.543557
 20
1182.640939
 11
3146.604111
 21
1178.876604
  0
LINE
  8
CSLAYER1
  6
CONTINUOUS
 62
     4
 10
3181.646985
 20
1145.943319
 11
3153.852265
 21
1186.297422
  0
LINE
  8
CSLAYER1
  6
CONTINUOUS
 62
     4
 10
3108.197098
 20
1225.180214
 11
3110.987599
 21
1221.128791
  0
LINE
  8
CSLAYER1
  6
CONTINUOUS
 62
     2
 10
3111.287709
 20
1227.308935
 11
3114.078210
 21
1223.257513
  0
LINE
  8
CSLAYER1
  6
CONTINUOUS
 62
     4
 10
3112.886197
 20
1229.114868
 11
3061.123495
 21
1304.267180
  0
LINE
  8
CSLAYER1
  6
CONTINUOUS
 62
     4
 10
2982.339271
 20
1423.939790
 11
2980.152232
 21
1421.826296
  0
LINE
  8
CSLAYER1
  6
CONTINUOUS
 62
     4
 10
3008.667180
 20
1380.426521
 11
2863.017343
 21
1591.890014
  0
LINE
  8
CSLAYER1
  6
CONTINUOUS
 62
     2
 10
2979.847201
 20
1430.723081
 11
2970.133066
 21
1424.032270
  0
LINE
  8
CSLAYER1
  6
CONTINUOUS
 62
     4
 10
2974.397923
 20
1435.469534
 11
2982.339271
 21
1423.939790
  0
LINE
  8
CSLAYER1
  6
CONTINUOUS
 62
     4
 10
2947.226484
 20
1312.553345
 11
2789.638761
 21
1541.349004
  0
LINE
  8
CSLAYER1
  6
CONTINUOUS
 62
     4
 10
2861.626551
 20
1592.146328
 11
2789.895075
 21
1542.739796
  0
LINE
  8
CSLAYER1
  6
CONTINUOUS
 62
     4
 10
2974.397923
 20
1435.469534
 11
2971.643644
 21
1434.179593
  0
LINE
  8
CSLAYER1
  6
CONTINUOUS
 62
     3
 10
3260.584342
 20
2469.947835
 11
2672.746259
 21
3119.329123
  0
LINE
  8
CSLAYER1
  6
CENTER
 62
     5
 10
3254.395550
 20
2379.929123
 11
2626.370145
 21
3145.229123
  0
LINE
  8
CSLAYER1
  6
CONTINUOUS
 62
     3
 10
2634.287175
 20
3027.707123
 11
3235.861454
 21
2363.151540
  0
CIRCLE
  8
CSLAYER1
  6
CONTINUOUS
 62
     3
 10
2940.382848
 20
2762.579123
 40
12.500000
  0
LINE
  8
CSLAYER1
  6
CONTINUOUS
 62
     3
 10
2614.557669
 20
3119.329123
 11
2634.287175
 21
3027.707123
  0
LINE
  8
CSLAYER1
  6
CONTINUOUS
 62
     3
 10
3278.835340
 20
2385.191886
 11
3260.932372
 21
2468.331614
  0
ARC
  8
CSLAYER1
  6
CONTINUOUS
 62
     3
 10
3254.395550
 20
2379.929123
 40
25.000000
 50
-140.626793
 51
12.152274
  0
CIRCLE
  8
CSLAYER1
  6
CONTINUOUS
 62
     3
 10
3254.395550
 20
2379.929123
 40
12.500000
  0
ARC
  8
CSLAYER1
  6
CONTINUOUS
 62
     3
 10
2665.148696
 20
1800.629725
 40
30.000000
 50
-4.343767
 51
170.766208
  0
LINE
  8
CSLAYER1
  6
CONTINUOUS
 62
     3
 10
2619.520103
 20
1706.917812
 11
2635.537442
 21
1805.443625
  0
LINE
  8
CSLAYER1
  6
CONTINUOUS
 62
     3
 10
2694.153400
 20
1786.388851
 11
2695.062523
 21
1798.357512
  0
LINE
  8
CSLAYER1
  6
CONTINUOUS
 62
     4
 10
2667.383078
 20
1831.135572
 11
2666.490958
 21
1830.599682
  0
CIRCLE
  8
CSLAYER1
  6
CONTINUOUS
 62
     3
 10
2665.148696
 20
1800.629725
 40
12.500000
  0
LINE
  8
CSLAYER1
  6
PHANTOM
 62
     5
 10
2665.148696
 20
1800.629725
 11
2651.318183
 21
1684.450049
  0
LINE
  8
CSLAYER1
  6
CONTINUOUS
 62
     1
 10
2656.755674
 20
1777.459405
 11
2668.108150
 21
1776.107959
  0
CIRCLE
  8
CSLAYER1
  6
CONTINUOUS
 62
     1
 10
2662.311668
 20
1776.797996
 40
4.000000
  0
ARC
  8
CSLAYER1
  6
CONTINUOUS
 62
     3
 10
2624.455312
 20
1706.115495
 40
5.000000
 50
165.087390
 51
206.999015
  0
LINE
  8
CSLAYER1
  6
CONTINUOUS
 62
     4
 10
2638.059825
 20
1813.521313
 11
2636.426036
 21
1812.539909
  0
LINE
  8
CSLAYER1
  6
CONTINUOUS
 62
     3
 10
2601.929854
 20
1619.889559
 11
2619.824903
 21
1703.030991
  0
LINE
  8
CSLAYER1
  6
CONTINUOUS
 62
     3
 10
2881.180394
 20
1997.373937
 11
2619.824903
 21
1703.030991
  0
LINE
  8
CSLAYER1
  6
CONTINUOUS
 62
     3
 10
2659.933193
 20
1614.804310
 11
2940.400493
 21
1930.671296
  0
LINE
  8
CSLAYER1
  6
CENTER
 62
     5
 10
2626.370145
 20
1614.629123
 11
3254.322654
 21
2379.988938
  0
CIRCLE
  8
CSLAYER1
  6
CONTINUOUS
 62
     3
 10
2940.346399
 20
1997.309030
 40
12.500000
  0
LINE
  8
CSLAYER1
  6
CONTINUOUS
 62
     3
 10
2999.624550
 20
1997.370423
 11
3260.867896
 21
2291.587069
  0
LINE
  8
CSLAYER1
  6
CONTINUOUS
 62
     3
 10
3220.768891
 20
2379.824207
 11
2940.404451
 21
2064.073064
  0
LINE
  8
CSLAYER1
  6
CONTINUOUS
 62
     3
 10
3278.762944
 20
2374.728502
 11
3260.867896
 21
2291.587069
  0
CIRCLE
  8
CSLAYER1
  6
CONTINUOUS
 62
     3
 10
3254.322654
 20
2379.988938
 40
12.500000
  0
LINE
  8
CSLAYER1
  6
CENTER
 62
     6
 10
3229.741238
 20
2379.929123
 11
3273.411537
 21
2379.929123
  0
LINE
  8
CSLAYER1
  6
CENTER
 62
     6
 10
3254.273577
 20
2399.875314
 11
3254.273577
 21
2362.644875
  0
LINE
  8
CSLAYER1
  6
CONTINUOUS
 62
     3
 10
2940.377506
 20
2823.678451
 11
3207.842480
 21
3119.329123
  0
LINE
  8
CSLAYER1
  6
CENTER
 62
     5
 10
2626.487848
 20
1213.329123
 11
3599.641173
 21
1395.187873
  0
LINE
  8
CSLAYER1
  6
CONTINUOUS
 62
     3
 10
3246.316919
 20
3027.704680
 11
3001.078320
 21
2756.622617
  0
LINE
  8
CSLAYER1
  6
CONTINUOUS
 62
     3
 10
3266.017309
 20
3119.329123
 11
3246.316919
 21
3027.704680
  0
LINE
  8
CSLAYER1
  6
CONTINUOUS
 62
     3
 10
2940.398243
 20
2689.548019
 11
2660.137045
 21
2379.752645
  0
LINE
  8
CSLAYER1
  6
CONTINUOUS
 62
     3
 10
2620.192238
 20
2469.751772
 11
2879.697429
 21
2756.603852
  0
LINE
  8
CSLAYER1
  6
CONTINUOUS
 62
     3
 10
2601.967447
 20
2384.990184
 11
2620.192238
 21
2469.751772
  0
ARC
  8
CSLAYER1
  6
CONTINUOUS
 62
     3
 10
3254.395550
 20
1614.629123
 40
25.000000
 50
-140.635649
 51
12.143417
  0
LINE
  8
CSLAYER1
  6
CONTINUOUS
 62
     3
 10
3278.836153
 20
1619.888109
 11
3260.946037
 21
1703.030603
  0
LINE
  8
CSLAYER1
  6
CENTER
 62
     5
 10
3254.395550
 20
1614.629123
 11
2626.488451
 21
2380.026192
  0
CIRCLE
  8
CSLAYER1
  6
CONTINUOUS
 62
     3
 10
3254.395550
 20
1614.629123
 40
12.500000
  0
POINT
  8
CSLAYER1
 62
     6
 10
2626.488451
 20
2380.026192
  0
ARC
  8
CSLAYER1
  6
CONTINUOUS
 62
     3
 10
2626.488451
 20
2380.026192
 40
25.000000
 50
39.364351
 51
192.143417
  0
LINE
  8
CSLAYER1
  6
CONTINUOUS
 62
     3
 10
2602.047848
 20
2374.767206
 11
2619.937964
 21
2291.624712
  0
CIRCLE
  8
CSLAYER1
  6
CONTINUOUS
 62
     3
 10
2626.488451
 20
2380.026192
 40
12.500000
  0
LINE
  8
CSLAYER1
  6
CONTINUOUS
 62
     3
 10
2645.816659
 20
2395.882432
 11
3260.946037
 21
1703.030603
  0
LINE
  8
CSLAYER1
  6
CONTINUOUS
 62
     3
 10
3235.067342
 20
1598.772883
 11
2619.937964
 21
2291.624712
  0
LINE
  8
CSLAYER1
  6
CENTER
 62
     6
 10
2626.568083
 20
2398.265349
 11
2626.568083
 21
2360.833665
  0
LINE
  8
CSLAYER1
  6
CENTER
 62
     6
 10
2608.496025
 20
2379.929123
 11
2645.525218
 21
2379.929123
  0
LINE
  8
CSLAYER1
  6
CENTER
 62
     6
 10
2940.382848
 20
2787.905790
 11
2940.382848
 21
2741.611053
  0
LINE
  8
CSLAYER1
  6
CENTER
 62
     6
 10
2915.492334
 20
2762.579123
 11
2966.897529
 21
2762.579123
  0
LINE
  8
CSLAYER1
  6
CENTER
 62
     6
 10
2975.232650
 20
2061.619525
 11
2975.232650
 21
2018.030324
  0
LINE
  8
CSLAYER1
  6
CENTER
 62
     6
 10
2940.401844
 20
2021.036476
 11
2940.401844
 21
1972.637433
  0
LINE
  8
CSLAYER1
  6
CENTER
 62
     6
 10
2916.694795
 20
1997.376607
 11
2962.688916
 21
1997.376607
  0
LINE
  8
CSLAYER1
  6
CENTER
 62
     6
 10
2947.080550
 20
2039.829020
 11
3003.810471
 21
2039.829020
  0
LINE
  8
CSLAYER1
  6
CONTINUOUS
 62
     4
 10
2682.481180
 20
1828.353090
 11
2667.383078
 21
1831.135572
  0
LINE
  8
CSLAYER1
  6
CONTINUOUS
 62
     4
 10
2703.108343
 20
1798.405291
 11
2682.481180
 21
1828.353090
  0
LINE
  8
CSLAYER1
  6
CONTINUOUS
 62
     4
 10
2633.067993
 20
1794.318740
 11
2636.426036
 21
1812.539909
  0
LINE
  8
CSLAYER1
  6
CONTINUOUS
 62
     4
 10
2633.602670
 20
1793.542463
 11
2633.067993
 21
1794.318740
  0
LINE
  8
CSLAYER1
  6
CENTER
 62
     5
 10
3270.443846
 20
921.824573
 11
2665.148696
 21
1800.629725
  0
LINE
  8
CSLAYER1
  6
CONTINUOUS
 62
     4
 10
2850.467407
 20
1584.460237
 11
2756.452885
 21
1720.956368
  0
LINE
  8
CSLAYER1
  6
CONTINUOUS
 62
     4
 10
2801.054220
 20
1550.425887
 11
2717.354345
 21
1671.946571
  0
LINE
  8
CSLAYER1
  6
CENTER
 62
     6
 10
2665.148696
 20
1816.888811
 11
2665.148696
 21
1783.056427
  0
LINE
  8
CSLAYER1
  6
CENTER
 62
     6
 10
2647.711021
 20
1800.629725
 11
2681.092306
 21
1800.629725
  0
LINE
  8
CSLAYER1
  6
CENTER
 62
     6
 10
2651.318183
 20
1699.001749
 11
2651.318183
 21
1671.033644
  0
LINE
  8
CSLAYER1
  6
CENTER
 62
     6
 10
2636.884658
 20
1686.370992
 11
2665.754959
 21
1686.370992
  0
ARC
  8
CSLAYER1
  6
CONTINUOUS
 62
     4
 10
2626.370145
 20
1614.629123
 40
25.000000
 50
172.196749
 51
192.152274
  0
ARC
  8
CSLAYER1
  6
CONTINUOUS
 62
     3
 10
2626.370145
 20
1614.629123
 40
25.000000
 50
39.373207
 51
192.152274
  0
CIRCLE
  8
CSLAYER1
  6
CONTINUOUS
 62
     3
 10
2626.370145
 20
1614.629123
 40
12.500000
  0
LINE
  8
CSLAYER1
  6
CONTINUOUS
 62
     3
 10
2601.930355
 20
1609.366359
 11
2619.833323
 21
1526.226631
  0
LINE
  8
CSLAYER1
  6
CONTINUOUS
 62
     3
 10
3246.478520
 20
966.851122
 11
2644.904241
 21
1631.406705
  0
LINE
  8
CSLAYER1
  6
CONTINUOUS
 62
     3
 10
2620.181353
 20
1524.610410
 11
3197.066179
 21
887.329123
  0
LINE
  8
CSLAYER1
  6
CONTINUOUS
 62
     3
 10
3263.602461
 20
887.329123
 11
3246.478520
 21
966.851122
  0
LINE
  8
CSLAYER1
  6
CENTER
 62
     5
 10
3254.395550
 20
849.329123
 11
2626.370145
 21
1614.629123
  0
CIRCLE
  8
CSLAYER1
  6
CONTINUOUS
 62
     4
 10
2940.382848
 20
1231.979123
 40
12.500000
  0
CIRCLE
  8
CSLAYER1
  6
CONTINUOUS
 62
     3
 10
2940.382848
 20
1231.979123
 40
12.500000
  0
ARC
  8
CSLAYER1
  6
CONTINUOUS
 62
     3
 10
2999.863031
 20
1088.787365
 40
27.000000
 50
204.659949
 51
312.152274
  0
LINE
  8
CSLAYER1
  6
CONTINUOUS
 62
     3
 10
3026.137822
 20
1076.152677
 11
3017.982819
 21
1068.770541
  0
LINE
  8
CSLAYER1
  6
CONTINUOUS
 62
     3
 10
2938.191789
 20
1158.405308
 11
2975.325429
 21
1077.522103
  0
LINE
  8
CSLAYER1
  6
CONTINUOUS
 62
     3
 10
2945.605428
 20
1165.116341
 11
2938.191789
 21
1158.405308
  0
LINE
  8
CSLAYER1
  6
PHANTOM
 62
     5
 10
3105.647119
 20
1196.088811
 11
2980.583253
 21
1085.550973
  0
LINE
  8
CSLAYER1
  6
CONTINUOUS
 62
     2
 10
2945.605428
 20
1165.116341
 11
3026.137822
 21
1076.152677
  0
LINE
  8
CSLAYER1
  6
CONTINUOUS
 62
     3
 10
3047.572789
 20
1186.581119
 11
3071.797679
 21
1206.170913
  0
ARC
  8
CSLAYER1
  6
CONTINUOUS
 62
     3
 10
3090.661505
 20
1182.843759
 40
30.000000
 50
-46.148759
 51
128.961216
  0
LINE
  8
CSLAYER1
  6
CONTINUOUS
 62
     3
 10
3089.566428
 20
1140.190992
 11
3111.445157
 21
1161.209531
  0
POINT
  8
CSLAYER1
 62
     7
 10
3090.661505
 20
1182.843759
  0
LINE
  8
CSLAYER1
  6
CENTER
 62
     6
 10
2626.370145
 20
1631.637713
 11
2626.370145
 21
1597.955695
  0
LINE
  8
CSLAYER1
  6
CENTER
 62
     6
 10
2608.014357
 20
1614.629123
 11
2646.658458
 21
1614.629123
  0
LINE
  8
CSLAYER1
  6
CENTER
 62
     6
 10
2940.382848
 20
1252.785780
 11
2940.382848
 21
1209.088660
  0
LINE
  8
CSLAYER1
  6
CENTER
 62
     6
 10
2919.467069
 20
1231.979123
 11
2963.639158
 21
1231.979123
  0
LINE
  8
CSLAYER1
  6
CONTINUOUS
 62
     3
 10
3260.584342
 20
1524.610410
 11
3001.081786
 21
1237.939457
  0
LINE
  8
CSLAYER1
  6
CONTINUOUS
 62
     3
 10
2940.382848
 20
1304.993219
 11
3220.833400
 21
1614.805302
  0
LINE
  8
CSLAYER1
  6
CONTINUOUS
 62
     3
 10
3278.835340
 20
1609.366359
 11
3260.932372
 21
1526.226631
  0
LINE
  8
CSLAYER1
  6
CONTINUOUS
 62
     3
 10
2940.382848
 20
1170.885695
 11
2683.699517
 21
887.329123
  0
LINE
  8
CSLAYER1
  6
CONTINUOUS
 62
     3
 10
2634.287175
 20
966.851122
 11
2879.683909
 21
1237.939457
  0
LINE
  8
CSLAYER1
  6
CONTINUOUS
 62
     3
 10
2617.243752
 20
887.703041
 11
2634.287175
 21
966.851122
  0
LINE
  8
CSLAYER1
  6
CENTER
 62
     5
 10
2626.370145
 20
849.329123
 11
3254.395550
 21
1614.629123
  0
LINE
  8
CSLAYER1
  6
CENTER
 62
     6
 10
2881.944542
 20
1197.192759
 11
2941.315630
 21
1197.192759
  0
LINE
  8
CSLAYER1
  6
CENTER
 62
     6
 10
2911.836238
 20
1239.486657
 11
2911.836238
 21
1163.016696
  0
LINE
  8
CSLAYER1
  6
CENTER
 62
     5
 10
3599.497064
 20
1213.329123
 11
2626.370145
 21
1395.329123
  0
LINE
  8
CSLAYER1
  6
CENTER
 62
     6
 10
2609.370145
 20
1395.329123
 11
2643.370145
 21
1395.329123
  0
LINE
  8
CSLAYER1
  6
CENTER
 62
     6
 10
3599.641173
 20
1412.375263
 11
3599.641173
 21
1379.217313
  0
LINE
  8
CSLAYER1
  6
CENTER
 62
     6
 10
3599.497064
 20
877.111214
 11
3599.497064
 21
831.321664
  0
LINE
  8
CSLAYER1
  6
CENTER
 62
     6
 10
3624.911120
 20
1395.187873
 11
3571.226820
 21
1395.187873
  0
LINE
  8
CSLAYER1
  6
CENTER
 62
     6
 10
3254.395550
 20
1633.906558
 11
3254.395550
 21
1595.651596
  0
LINE
  8
CSLAYER1
  6
CENTER
 62
     6
 10
3235.509780
 20
1614.629123
 11
3272.741882
 21
1614.629123
  0
LINE
  8
CSLAYER1
  6
CONTINUOUS
 62
     6
 10
3365.770765
 20
1518.665555
 11
3185.819362
 21
1145.174377
  0
LINE
  8
CSLAYER1
  6
CONTINUOUS
 62
     6
 10
3185.819362
 20
1145.174377
 11
3196.985272
 21
1204.126243
  0
LINE
  8
CSLAYER1
  6
CONTINUOUS
 62
     6
 10
3185.819362
 20
1145.174377
 11
3224.965257
 21
1190.645235
  0
DIMENSION
  8
CSLAYER1
 62
     3
  2
*D0000
 10
3918.377590
 20
1422.329123
 11
3903.377441
 21
1122.329224
 13
3637.370145
 23
822.329123
 14
3637.170145
 24
1422.329123
 50
90.000000
  0
DIMENSION
  8
CSLAYER1
 62
     3
  2
*D0001
 10
3918.377590
 20
3172.329123
 11
3903.377441
 21
2297.329346
 13
3637.170145
 23
1422.329123
 14
3637.170145
 24
3172.329123
 50
90.000000
 70
1
  0
DIMENSION
  8
CSLAYER1
 62
     3
  2
*D0002
 10
4066.105692
 20
822.329123
 11
4051.105225
 21
1997.329346
 13
4066.105692
 23
3172.329123
 14
4066.105692
 24
822.329123
 50
90.000000
 70
1
  0
LINE
  8
CSLAYER1
  6
CENTER
 62
     6
 10
2626.568083
 20
2379.929123
 11
3254.197612
 21
3145.229123
  0
LINE
  8
CSLAYER1
  6
CONTINUOUS
 62
     3
 10
1426.588727
 20
1724.520992
 11
1498.588727
 21
1724.520992
  0
LINE
  8
CSLAYER1
  6
CONTINUOUS
 62
     3
 10
1620.588727
 20
2392.429123
 11
1304.588727
 21
2392.429123
  0
LINE
  8
CSLAYER1
  6
CONTINUOUS
 62
     3
 10
1620.588727
 20
2367.429123
 11
1304.588727
 21
2367.429123
  0
LINE
  8
CSLAYER1
  6
CONTINUOUS
 62
     3
 10
1632.588727
 20
2396.929123
 11
1642.588727
 21
2396.929123
  0
LINE
  8
CSLAYER1
  6
CONTINUOUS
 62
     3
 10
1654.588727
 20
2399.929123
 11
1664.588727
 21
2399.929123
  0
LINE
  8
CSLAYER1
  6
CONTINUOUS
 62
     3
 10
1292.588727
 20
2396.929123
 11
1282.588727
 21
2396.929123
  0
LINE
  8
CSLAYER1
  6
CONTINUOUS
 62
     3
 10
1270.588727
 20
2399.929123
 11
1260.588727
 21
2399.929123
  0
LINE
  8
CSLAYER1
  6
CONTINUOUS
 62
     3
 10
1654.588727
 20
2359.929123
 11
1664.588727
 21
2359.929123
  0
LINE
  8
CSLAYER1
  6
CONTINUOUS
 62
     3
 10
1664.588727
 20
2399.929123
 11
1664.588727
 21
2359.929123
  0
LINE
  8
CSLAYER1
  6
CONTINUOUS
 62
     3
 10
1632.588727
 20
2362.929123
 11
1642.588727
 21
2362.929123
  0
LINE
  8
CSLAYER1
  6
CONTINUOUS
 62
     3
 10
1292.588727
 20
2362.929123
 11
1282.588727
 21
2362.929123
  0
LINE
  8
CSLAYER1
  6
CONTINUOUS
 62
     3
 10
1270.588727
 20
2359.929123
 11
1260.588727
 21
2359.929123
  0
LINE
  8
CSLAYER1
  6
CONTINUOUS
 62
     3
 10
1260.588727
 20
2399.929123
 11
1260.588727
 21
2359.929123
  0
LINE
  8
CSLAYER1
  6
CONTINUOUS
 62
     3
 10
1620.588727
 20
2792.829123
 11
1304.588727
 21
2792.829123
  0
LINE
  8
CSLAYER1
  6
CONTINUOUS
 62
     3
 10
1632.588727
 20
2779.579123
 11
1642.588727
 21
2779.579123
  0
LINE
  8
CSLAYER1
  6
CONTINUOUS
 62
     3
 10
1654.588727
 20
2782.579123
 11
1664.588727
 21
2782.579123
  0
LINE
  8
CSLAYER1
  6
CONTINUOUS
 62
     3
 10
1654.588727
 20
2742.579123
 11
1664.588727
 21
2742.579123
  0
LINE
  8
CSLAYER1
  6
CONTINUOUS
 62
     3
 10
1664.588727
 20
2782.579123
 11
1664.588727
 21
2742.579123
  0
LINE
  8
CSLAYER1
  6
CONTINUOUS
 62
     3
 10
1632.588727
 20
2745.579123
 11
1642.588727
 21
2745.579123
  0
LINE
  8
CSLAYER1
  6
CONTINUOUS
 62
     3
 10
1292.588727
 20
2779.579123
 11
1282.588727
 21
2779.579123
  0
LINE
  8
CSLAYER1
  6
CONTINUOUS
 62
     3
 10
1270.588727
 20
2782.579123
 11
1260.588727
 21
2782.579123
  0
LINE
  8
CSLAYER1
  6
CONTINUOUS
 62
     3
 10
1270.588727
 20
2742.579123
 11
1260.588727
 21
2742.579123
  0
LINE
  8
CSLAYER1
  6
CONTINUOUS
 62
     3
 10
1260.588727
 20
2782.579123
 11
1260.588727
 21
2742.579123
  0
LINE
  8
CSLAYER1
  6
CONTINUOUS
 62
     3
 10
1292.588727
 20
2745.579123
 11
1282.588727
 21
2745.579123
  0
LINE
  8
CSLAYER1
  6
CENTER
 62
     5
 10
1667.858906
 20
2762.579123
 11
1233.057931
 21
2762.579123
  0
LINE
  8
CSLAYER1
  6
CONTINUOUS
 62
     6
 10
2642.370145
 20
852.321538
 11
2642.370145
 21
822.329123
  0
LINE
  8
CSLAYER1
  6
CONTINUOUS
 62
     6
 10
3142.370145
 20
857.597534
 11
3142.370145
 21
822.329123
  0
DIMENSION
  8
CSLAYER1
 62
     3
  2
*D0003
 10
2642.370145
 20
692.003162
 11
2523.921875
 21
599.317993
 13
2592.370145
 23
494.724475
 14
2642.370145
 24
827.329123
  0
DIMENSION
  8
CSLAYER1
 62
     3
  2
*D0004
 10
3142.370145
 20
692.003162
 11
2892.370361
 21
707.003052
 13
2642.370145
 23
827.329123
 14
3142.370145
 24
827.329123
 52
270.000000
 70
1
  0
LINE
  8
CSLAYER1
  6
CONTINUOUS
 62
     6
 10
2513.710047
 20
692.003162
 11
2592.370145
 21
692.003162
  0
LINE
  8
CSLAYER1
  6
CONTINUOUS
 62
     6
 10
2592.370145
 20
692.003162
 11
2534.414595
 21
707.532305
  0
LINE
  8
CSLAYER1
  6
CONTINUOUS
 62
     6
 10
2592.370145
 20
692.003162
 11
2534.414595
 21
676.474020
  0
DIMENSION
  8
CSLAYER1
 62
     3
  2
*D0005
 10
1242.588727
 20
676.001325
 11
1462.876587
 21
687.044067
 13
1682.588727
 23
676.001325
 14
1242.588727
 24
676.001325
 52
0.000000
 70
1
  0
TEXT
  8
CSLAYER1
 62
     6
 10
1313.870468
 20
609.286743
 40
64.000000
 41
0.847059
  1
取付穴ピッチ
 50
0.000000
 51
0.000000
  7
EASYDRAW_FONT
 72
     5
 11
1621.070450
 21
609.286743
  0
LINE
  8
CSLAYER1
  6
CONTINUOUS
 62
     5
 10
1682.588727
 20
839.496494
 11
1682.588727
 21
661.001325
  0
LINE
  8
CSLAYER1
  6
CONTINUOUS
 62
     5
 10
1242.588727
 20
839.496494
 11
1242.588727
 21
661.001325
  0
INSERT
  8
CSLAYER1
  2
EASYDRAWDIM0000
 10
0.0
 20
0.0
 30
0.0
  0
INSERT
  8
CSLAYER1
  2
EASYDRAWDIM0001
 10
0.0
 20
0.0
 30
0.0
  0
TEXT
  8
CSLAYER1
 62
     6
 10
2750.933701
 20
626.652954
 40
64.000000
 41
0.847059
  1
取付穴ピッチ
 50
0.000000
 51
0.000000
  7
EASYDRAW_FONT
 72
     5
 11
3058.133682
 21
626.652954
  0
LINE
  8
CSLAYER1
  6
CONTINUOUS
 62
     5
 10
6599.125987
 20
4096.794599
 11
5153.536300
 21
4096.794599
  0
LINE
  8
CSLAYER1
  6
CONTINUOUS
 62
     5
 10
6599.125987
 20
3968.453269
 11
5153.536300
 21
3968.453269
  0
LINE
  8
CSLAYER1
  6
CONTINUOUS
 62
     5
 10
6599.125987
 20
3840.111939
 11
5153.536300
 21
3840.111939
  0
LINE
  8
CSLAYER1
  6
CONTINUOUS
 62
     5
 10
6599.125987
 20
3711.770609
 11
5155.286024
 21
3711.770609
  0
LINE
  8
CSLAYER1
  6
CONTINUOUS
 62
     5
 10
6599.125987
 20
3583.429279
 11
5153.536300
 21
3583.429279
  0
LINE
  8
CSLAYER1
  6
CONTINUOUS
 62
     5
 10
6599.125987
 20
3455.087948
 11
5153.536300
 21
3455.087948
  0
LINE
  8
CSLAYER1
  6
CONTINUOUS
 62
     5
 10
6599.125987
 20
3326.746618
 11
5153.536300
 21
3326.746618
  0
LINE
  8
CSLAYER1
  6
CONTINUOUS
 62
     5
 10
6599.125987
 20
3198.405288
 11
5153.536300
 21
3198.405288
  0
LINE
  8
CSLAYER1
  6
CONTINUOUS
 62
     5
 10
6599.125987
 20
3070.063958
 11
5153.536300
 21
3070.063958
  0
TEXT
  8
CSLAYER1
 62
     5
 10
5546.027447
 20
4256.857204
 40
80.213326
 41
0.857143
  1
仕   様
 50
0.000000
 51
0.000000
  7
EASYDRAW_FONT
 72
     5
 11
5866.880756
 21
4256.857204
  0
TEXT
  8
CSLAYER1
 62
     5
 10
5175.113503
 20
4113.283962
 40
80.213326
 41
0.847059
  1
型    式
 50
0.000000
 51
0.000000
  7
EASYDRAW_FONT
 72
     5
 11
5560.137474
 21
4113.283962
  0
TEXT
  8
CSLAYER1
 62
     5
 10
5171.463600
 20
3867.651150
 40
80.213326
 41
0.847059
  1
テーブル寸法
 50
0.000000
 51
0.000000
  7
EASYDRAW_FONT
 72
     5
 11
5556.487572
 21
3867.651150
  0
TEXT
  8
CSLAYER1
 62
     5
 10
5175.113503
 20
3741.187283
 40
80.213326
 41
0.847059
  1
テーブル高サ
 50
0.000000
 51
0.000000
  7
EASYDRAW_FONT
 72
     5
 11
5560.137474
 21
3741.187283
  0
TEXT
  8
CSLAYER1
 62
     5
 10
5178.014263
 20
3611.075954
 40
80.213326
 41
0.857143
  1
ストローク
 50
0.000000
 51
0.000000
  7
EASYDRAW_FONT
 72
     5
 11
5498.867573
 21
3611.075954
  0
TEXT
  8
CSLAYER1
 62
     5
 10
5176.798443
 20
3480.963894
 40
80.213326
 41
0.857143
  1
全   長
 50
0.000000
 51
0.000000
  7
EASYDRAW_FONT
 72
     5
 11
5497.651752
 21
3480.963894
  0
TEXT
  8
CSLAYER1
 62
     5
 10
5181.353130
 20
3348.912136
 40
80.213326
 41
0.857143
  1
全   巾
 50
0.000000
 51
0.000000
  7
EASYDRAW_FONT
 72
     5
 11
5502.206440
 21
3348.912136
  0
TEXT
  8
CSLAYER1
 62
     5
 10
5178.228619
 20
3220.799831
 40
80.213326
 41
0.857143
  1
全   高
 50
0.000000
 51
0.000000
  7
EASYDRAW_FONT
 72
     5
 11
5499.081928
 21
3220.799831
  0
TEXT
  8
CSLAYER1
 62
     5
 10
5178.228619
 20
3095.815456
 40
80.213326
 41
0.857143
  1
リフト方式
 50
0.000000
 51
0.000000
  7
EASYDRAW_FONT
 72
     5
 11
5499.081928
 21
3095.815456
  0
TEXT
  8
CSLAYER1
 62
     5
 10
6457.682365
 20
3982.607204
 40
80.213326
 41
0.960000
  1
Ｋｇ
 50
0.000000
 51
0.000000
  7
EASYDRAW_FONT
 72
     5
 11
6586.023689
 21
3982.607204
  0
TEXT
  8
CSLAYER1
 62
     5
 10
6349.757931
 20
3884.057400
 40
80.213326
 41
1.200000
  1
Ｗ
 50
0.000000
 51
0.000000
  7
EASYDRAW_FONT
 72
     5
 11
6413.928593
 21
3884.057400
  0
TEXT
  8
CSLAYER1
 62
     5
 10
5997.534298
 20
3886.484158
 40
80.213326
 41
1.200000
  1
Ｌ
 50
0.000000
 51
0.000000
  7
EASYDRAW_FONT
 72
     5
 11
6061.704960
 21
3886.484158
  0
TEXT
  8
CSLAYER1
 62
     5
 10
5721.747765
 20
3097.728542
 40
80.213326
 41
0.827586
  1
電 動 ボールネジ式
 50
0.000000
 51
0.000000
  7
EASYDRAW_FONT
 72
     5
 11
6363.454384
 21
3097.728542
  0
TEXT
  8
CSLAYER1
 62
     5
 10
6452.640862
 20
3854.057400
 40
80.213326
 41
0.960000
  1
mm
 50
0.000000
 51
0.000000
  7
EASYDRAW_FONT
 72
     5
 11
6580.982185
 21
3854.057400
  0
TEXT
  8
CSLAYER1
 62
     5
 10
6452.640862
 20
3733.070095
 40
80.213326
 41
0.960000
  1
mm
 50
0.000000
 51
0.000000
  7
EASYDRAW_FONT
 72
     5
 11
6580.982185
 21
3733.070095
  0
TEXT
  8
CSLAYER1
 62
     5
 10
6445.078850
 20
3604.521267
 40
80.213326
 41
0.960000
  1
mm
 50
0.000000
 51
0.000000
  7
EASYDRAW_FONT
 72
     5
 11
6573.420174
 21
3604.521267
  0
TEXT
  8
CSLAYER1
 62
     5
 10
6445.078850
 20
3468.409206
 40
80.213326
 41
0.960000
  1
mm
 50
0.000000
 51
0.000000
  7
EASYDRAW_FONT
 72
     5
 11
6573.420174
 21
3468.409206
  0
TEXT
  8
CSLAYER1
 62
     5
 10
6440.038811
 20
3347.421902
 40
80.213326
 41
0.960000
  1
mm
 50
0.000000
 51
0.000000
  7
EASYDRAW_FONT
 72
     5
 11
6568.380135
 21
3347.421902
  0
TEXT
  8
CSLAYER1
 62
     5
 10
6440.038811
 20
3218.871120
 40
80.213326
 41
0.960000
  1
mm
 50
0.000000
 51
0.000000
  7
EASYDRAW_FONT
 72
     5
 11
6568.380135
 21
3218.871120
  0
LINE
  8
CSLAYER1
  6
CONTINUOUS
 62
     5
 10
5923.136986
 20
4225.135929
 11
5505.253650
 21
4225.135929
  0
LINE
  8
CSLAYER1
  6
CONTINUOUS
 62
     5
 10
5923.136986
 20
4241.178595
 11
5505.253650
 21
4241.178595
  0
TEXT
  8
CSLAYER1
 62
     5
 10
6137.815918
 20
3991.569336
 40
80.000000
 41
0.975000
  1
２５０
 50
0.000000
 51
0.000000
  7
EASYDRAW_FONT
 72
     5
 11
6345.815918
 21
3991.569336
  0
TEXT
  8
CSLAYER1
 62
     5
 10
5709.215820
 20
3864.042969
 40
80.000000
 41
0.923077
  1
１０５０　×６００
 50
0.000000
 51
0.000000
  7
EASYDRAW_FONT
 72
     5
 11
6349.215820
 21
3864.042969
  0
TEXT
  8
CSLAYER1
 62
     5
 10
5783.355957
 20
3733.778320
 40
80.000000
 41
0.926087
  1
６００～２３５０
 50
0.000000
 51
0.000000
  7
EASYDRAW_FONT
 72
     5
 11
6351.355957
 21
3733.778320
  0
TEXT
  8
CSLAYER1
 62
     5
 10
6080.079102
 20
3605.319336
 40
80.000000
 41
0.954545
  1
１７５０
 50
0.000000
 51
0.000000
  7
EASYDRAW_FONT
 72
     5
 11
6360.079102
 21
3605.319336
  0
TEXT
  8
CSLAYER1
 62
     5
 10
6075.797363
 20
3479.715088
 40
80.000000
 41
0.954545
  1
１０５０
 50
0.000000
 51
0.000000
  7
EASYDRAW_FONT
 72
     5
 11
6355.797363
 21
3479.715088
  0
TEXT
  8
CSLAYER1
 62
     5
 10
6153.189941
 20
3348.401611
 40
80.000000
 41
0.975000
  1
６００
 50
0.000000
 51
0.000000
  7
EASYDRAW_FONT
 72
     5
 11
6361.189941
 21
3348.401611
  0
TEXT
  8
CSLAYER1
 62
     5
 10
6148.907715
 20
3225.651611
 40
80.000000
 41
0.975000
  1
６００
 50
0.000000
 51
0.000000
  7
EASYDRAW_FONT
 72
     5
 11
6356.907715
 21
3225.651611
  0
TEXT
  8
CSLAYER2
 62
     5
 10
5601.161453
 20
4121.091579
 40
74.469185
 41
0.954990
  1
ＧＬＩ－２５０－０６１０Ｗ３
 50
0.000000
 51
0.000000
  7
EASYDRAW_FONT
 72
     5
 11
6573.098313
 21
4121.091579
  0
TEXT
  8
CSLAYER1
 62
     4
 10
5173.020020
 20
2851.453369
 40
80.000000
 41
1.036364
  1
操作方式
 50
0.000000
 51
0.000000
  7
EASYDRAW_FONT
 72
     5
 11
5477.020020
 21
2851.453369
  0
TEXT
  8
CSLAYER1
 62
     4
 10
5736.303223
 20
2840.866455
 40
80.000000
 41
1.020000
  1
フットスイッチ
 50
0.000000
 51
0.000000
  7
EASYDRAW_FONT
 72
     5
 11
6280.303223
 21
2840.866455
  0
LINE
  8
CSLAYER1
  6
CONTINUOUS
 62
     5
 10
6595.281334
 20
2827.399953
 11
5153.536300
 21
2827.399953
  0
LINE
  8
CSLAYER1
  6
CONTINUOUS
 62
     5
 10
6595.281334
 20
2699.399956
 11
5153.536300
 21
2699.399956
  0
TEXT
  8
CSLAYER1
 62
     4
 10
5175.882324
 20
2719.307861
 40
80.000000
 41
0.872727
  1
モーター
 50
0.000000
 51
0.000000
  7
EASYDRAW_FONT
 72
     5
 11
5431.882324
 21
2719.307861
  0
LINE
  8
CSLAYER1
  6
CONTINUOUS
 62
     5
 10
6595.281334
 20
2571.399959
 11
5153.536300
 21
2571.399959
  0
LINE
  8
CSLAYER1
  6
CONTINUOUS
 62
     5
 10
6595.281334
 20
2315.399965
 11
5149.259295
 21
2315.399965
  0
LINE
  8
CSLAYER1
  6
CONTINUOUS
 62
     5
 10
6595.281334
 20
2187.399969
 11
5153.536300
 21
2187.399969
  0
LINE
  8
CSLAYER1
  6
CONTINUOUS
 62
     5
 10
6595.281334
 20
2059.399972
 11
5153.536300
 21
2059.399972
  0
TEXT
  8
CSLAYER1
 62
     4
 10
5181.045410
 20
2081.643799
 40
80.000000
 41
0.857143
  1
自  　重
 50
0.000000
 51
0.000000
  7
EASYDRAW_FONT
 72
     5
 11
5501.045410
 21
2081.643799
  0
TEXT
  8
CSLAYER1
 62
     4
 10
5186.943848
 20
1953.501221
 40
80.000000
 41
0.847059
  1
塗　装　色 
 50
0.000000
 51
0.000000
  7
EASYDRAW_FONT
 72
     5
 11
5570.943848
 21
1953.501221
  0
TEXT
  8
CSLAYER1
 62
     4
 10
5638.094727
 20
2721.140869
 40
80.000000
 41
0.819512
  1
３相ＡＣ２００Ｖ、0.4ＫＷ
 50
0.000000
 51
0.000000
  7
EASYDRAW_FONT
 72
     5
 11
6534.094727
 21
2721.140869
  0
TEXT
  8
CSLAYER1
 62
     4
 10
5900.061523
 20
2593.454346
 40
80.000000
 41
0.840000
  1
長サ  ４ ｍ
 50
0.000000
 51
0.000000
  7
EASYDRAW_FONT
 72
     5
 11
6348.061523
 21
2593.454346
  0
TEXT
  8
CSLAYER1
 62
     3
 10
6125.340820
 20
2085.442627
 40
80.000000
 41
0.847059
  1
２１３　Ｋｇ
 50
0.000000
 51
0.000000
  7
EASYDRAW_FONT
 72
     5
 11
6509.340820
 21
2085.442627
  0
LINE
  8
CSLAYER1
  6
CONTINUOUS
 62
     5
 10
6595.281334
 20
2443.399962
 11
5153.536300
 21
2443.399962
  0
TEXT
  8
CSLAYER1
 62
     4
 10
5177.715332
 20
2592.673096
 40
80.000000
 41
0.942857
  1
電源コード
 50
0.000000
 51
0.000000
  7
EASYDRAW_FONT
 72
     5
 11
5529.715332
 21
2592.673096
  0
TEXT
  8
CSLAYER1
 62
     4
 10
5178.572297
 20
2454.430195
 40
95.460411
 41
0.593339
  1
昇降時間 ３６秒（50HZ） ３０秒(60HZ)
 50
0.000000
 51
0.000000
  7
EASYDRAW_FONT
 72
     5
 11
6519.062469
 21
2454.430195
  0
TEXT
  8
CSLAYER1
 62
     4
 10
5181.174316
 20
2203.544189
 40
80.000000
 41
0.912766
  1
上昇端、下降端リミットスイッチ付
 50
0.000000
 51
0.000000
  7
EASYDRAW_FONT
 72
     5
 11
6325.174316
 21
2203.544189
  0
TEXT
  8
CSLAYER1
 62
     4
 10
5184.867349
 20
2332.870464
 40
91.759560
 41
0.605080
  1
最大使用頻度８０回／時間・最大起動頻度１０回／分
 50
0.000000
 51
0.000000
  7
EASYDRAW_FONT
 72
     5
 11
6498.884604
 21
2332.870464
  0
LINE
  8
CSLAYER1
  6
CONTINUOUS
 62
     5
 10
6595.281334
 20
2942.063961
 11
5153.536300
 21
2942.063961
  0
TEXT
  8
CSLAYER1
 62
     4
 10
5573.192383
 20
2965.532471
 40
80.000000
 41
0.825000
  1
マグネットスイッチ制御
 50
0.000000
 51
0.000000
  7
EASYDRAW_FONT
 72
     5
 11
6277.192383
 21
2965.532471
  0
TEXT
  8
CSLAYER1
 62
     4
 10
5180.418457
 20
2961.553955
 40
80.000000
 41
0.872727
  1
制御方式
 50
0.000000
 51
0.000000
  7
EASYDRAW_FONT
 72
     5
 11
5436.418457
 21
2961.553955
  0
INSERT
  8
CSLAYER1
  2
EASYDRAWDIM0002
 10
0.0
 20
0.0
 30
0.0
  0
DIMENSION
  8
CSLAYER1
 62
     3
  2
*D0006
 10
1712.588727
 20
478.136292
 11
1462.588745
 21
498.136383
 13
1212.588727
 23
822.329123
 14
1712.588727
 24
822.329123
 52
270.000000
 70
1
  0
DIMENSION
  8
CSLAYER1
 62
     3
  2
*D0007
 10
3642.370145
 20
494.724475
 11
3117.369873
 21
514.724731
 13
2592.370145
 23
822.329123
 14
3642.370145
 24
822.329123
 52
270.000000
 70
1
  0
LINE
  8
CSLAYER1
  6
CONTINUOUS
 62
     3
 10
2592.170145
 20
4429.329123
 11
3642.170145
 21
4429.329123
  0
LINE
  8
CSLAYER1
  6
CONTINUOUS
 62
     3
 10
2592.170145
 20
3829.329123
 11
3642.170145
 21
3829.329123
  0
DIMENSION
  8
CSLAYER1
 62
     3
  2
*D0008
 10
3805.130421
 20
4429.329123
 11
3785.130371
 21
4129.329102
 13
3642.170145
 23
3829.329123
 14
3642.170145
 24
4429.329123
 50
90.000000
 70
1
  0
LINE
  8
CSLAYER1
  6
CONTINUOUS
 62
     3
 10
1762.588727
 20
3187.329123
 11
1762.588727
 21
3134.329123
  0
LINE
  8
CSLAYER1
  6
CONTINUOUS
 62
     3
 10
1162.588727
 20
3187.329123
 11
1162.588727
 21
3134.329123
  0
LINE
  8
CSLAYER1
  6
CONTINUOUS
 62
     4
 10
2653.686792
 20
2483.153294
 11
2675.172809
 21
2495.934181
  0
LINE
  8
CSLAYER1
  6
CONTINUOUS
 62
     4
 10
2666.467679
 20
2461.667277
 11
2687.953696
 21
2474.448164
  0
LINE
  8
CSLAYER1
  6
CONTINUOUS
 62
     4
 10
2653.686792
 20
2483.153294
 11
2666.467679
 21
2461.667277
  0
LINE
  8
CSLAYER1
  6
CONTINUOUS
 62
     5
 10
2651.324851
 20
2511.574539
 11
2677.235734
 21
2468.015615
  0
LINE
  8
CSLAYER1
  6
CONTINUOUS
 62
     4
 10
2675.172809
 20
2495.934181
 11
2687.978743
 21
2474.406058
  0
INSERT
  8
CSLAYER1
  2
BLKF0003
 10
0.0
 20
0.0
 30
0.0
  0
INSERT
  8
CSLAYER1
  2
BLKF0004
 10
0.0
 20
0.0
 30
0.0
  0
LINE
  8
CSLAYER1
  6
CONTINUOUS
 62
     4
 10
2659.200703
 20
2508.114631
 11
2664.637121
 21
2498.975440
  0
LINE
  8
CSLAYER1
  6
CONTINUOUS
 62
     5
 10
2658.341262
 20
2507.603396
 11
2663.777680
 21
2498.464205
  0
LINE
  8
CSLAYER1
  6
CONTINUOUS
 62
     5
 10
2651.465737
 20
2503.513512
 11
2656.902154
 21
2494.374321
  0
LINE
  8
CSLAYER1
  6
CONTINUOUS
 62
     4
 10
2650.606296
 20
2503.002277
 11
2656.042714
 21
2493.863086
  0
LINE
  8
CSLAYER1
  6
CONTINUOUS
 62
     4
 10
2637.190446
 20
1714.012405
 11
2658.676463
 21
1726.793292
  0
LINE
  8
CSLAYER1
  6
CONTINUOUS
 62
     4
 10
2637.190446
 20
1714.012405
 11
2649.971333
 21
1692.526388
  0
LINE
  8
CSLAYER1
  6
CONTINUOUS
 62
     5
 10
2634.828505
 20
1742.433650
 11
2660.739388
 21
1698.874726
  0
LINE
  8
CSLAYER1
  6
CONTINUOUS
 62
     4
 10
2658.676463
 20
1726.793292
 11
2671.482396
 21
1705.265169
  0
INSERT
  8
CSLAYER1
  2
BLKF0005
 10
0.0
 20
0.0
 30
0.0
  0
INSERT
  8
CSLAYER1
  2
BLKF0006
 10
0.0
 20
0.0
 30
0.0
  0
LINE
  8
CSLAYER1
  6
CONTINUOUS
 62
     4
 10
2642.704356
 20
1738.973742
 11
2648.140774
 21
1729.834551
  0
LINE
  8
CSLAYER1
  6
CONTINUOUS
 62
     5
 10
2641.844916
 20
1738.462507
 11
2647.281334
 21
1729.323316
  0
LINE
  8
CSLAYER1
  6
CONTINUOUS
 62
     5
 10
2634.969390
 20
1734.372623
 11
2640.405808
 21
1725.233432
  0
LINE
  8
CSLAYER1
  6
CONTINUOUS
 62
     4
 10
2634.109950
 20
1733.861387
 11
2639.546367
 21
1724.722196
  0
LINE
  8
CSLAYER1
  6
CONTINUOUS
 62
     4
 10
2649.971333
 20
1692.526388
 11
2671.457350
 21
1705.307275
  0
LINE
  8
CSLAYER1
  6
CONTINUOUS
 62
     4
 10
2637.190446
 20
948.712405
 11
2658.676463
 21
961.493292
  0
LINE
  8
CSLAYER1
  6
CONTINUOUS
 62
     4
 10
2649.971333
 20
927.226388
 11
2671.457350
 21
940.007275
  0
LINE
  8
CSLAYER1
  6
CONTINUOUS
 62
     4
 10
2637.190446
 20
948.712405
 11
2649.971333
 21
927.226388
  0
LINE
  8
CSLAYER1
  6
CONTINUOUS
 62
     5
 10
2634.828505
 20
977.133650
 11
2660.739388
 21
933.574726
  0
LINE
  8
CSLAYER1
  6
CONTINUOUS
 62
     4
 10
2658.676463
 20
961.493292
 11
2671.482396
 21
939.965169
  0
INSERT
  8
CSLAYER1
  2
BLKF0007
 10
0.0
 20
0.0
 30
0.0
  0
INSERT
  8
CSLAYER1
  2
BLKF0008
 10
0.0
 20
0.0
 30
0.0
  0
LINE
  8
CSLAYER1
  6
CONTINUOUS
 62
     4
 10
2642.704356
 20
973.673742
 11
2648.140774
 21
964.534551
  0
LINE
  8
CSLAYER1
  6
CONTINUOUS
 62
     5
 10
2641.844916
 20
973.162507
 11
2647.281334
 21
964.023316
  0
LINE
  8
CSLAYER1
  6
CONTINUOUS
 62
     5
 10
2634.969390
 20
969.072623
 11
2640.405808
 21
959.933432
  0
LINE
  8
CSLAYER1
  6
CONTINUOUS
 62
     4
 10
2634.109950
 20
968.561387
 11
2639.546367
 21
959.422196
  0
LINE
  8
CSLAYER1
  6
DASHED
 62
     3
 10
1712.588727
 20
828.329123
 11
1212.588727
 21
828.329123
  0
DIMENSION
  8
CSLAYER1
 62
     3
  2
*D0009
 10
1831.519090
 20
828.329123
 11
1817.037476
 21
921.073792
 13
1712.588727
 23
822.329123
 14
1712.588727
 24
828.329123
 50
90.000000
 70
1
  0
LINE
  8
CSLAYER1
  6
CONTINUOUS
 62
     3
 10
1620.588727
 20
2732.329123
 11
1304.588727
 21
2732.329123
  0
LINE
  8
CSLAYER1
  6
CONTINUOUS
 62
     4
 10
1632.588727
 20
952.226388
 11
1661.588727
 21
952.226388
  0
LINE
  8
CSLAYER1
  6
CONTINUOUS
 62
     4
 10
1632.588727
 20
927.226388
 11
1661.588727
 21
927.226388
  0
LINE
  8
CSLAYER1
  6
CONTINUOUS
 62
     5
 10
1649.088727
 20
977.860270
 11
1649.088727
 21
927.177396
  0
LINE
  8
CSLAYER1
  6
CONTINUOUS
 62
     4
 10
1661.588727
 20
952.226388
 11
1661.588727
 21
927.177396
  0
INSERT
  8
CSLAYER1
  2
BLKF0009
 10
0.0
 20
0.0
 30
0.0
  0
INSERT
  8
CSLAYER1
  2
BLKF0010
 10
0.0
 20
0.0
 30
0.0
  0
LINE
  8
CSLAYER1
  6
CONTINUOUS
 62
     4
 10
1654.088727
 20
970.860270
 11
1654.088727
 21
960.226388
  0
LINE
  8
CSLAYER1
  6
CONTINUOUS
 62
     5
 10
1653.088727
 20
970.860270
 11
1653.088727
 21
960.226388
  0
LINE
  8
CSLAYER1
  6
CONTINUOUS
 62
     5
 10
1645.088727
 20
970.860270
 11
1645.088727
 21
960.226388
  0
LINE
  8
CSLAYER1
  6
CONTINUOUS
 62
     4
 10
1644.088727
 20
970.860270
 11
1644.088727
 21
960.226388
  0
LINE
  8
CSLAYER1
  6
CONTINUOUS
 62
     4
 10
1292.588727
 20
952.226388
 11
1263.588727
 21
952.226388
  0
LINE
  8
CSLAYER1
  6
CONTINUOUS
 62
     4
 10
1292.588727
 20
927.226388
 11
1263.588727
 21
927.226388
  0
LINE
  8
CSLAYER1
  6
CONTINUOUS
 62
     5
 10
1276.088727
 20
977.860270
 11
1276.088727
 21
927.177396
  0
LINE
  8
CSLAYER1
  6
CONTINUOUS
 62
     4
 10
1263.588727
 20
952.226388
 11
1263.588727
 21
927.177396
  0
INSERT
  8
CSLAYER1
  2
BLKF0011
 10
0.0
 20
0.0
 30
0.0
  0
INSERT
  8
CSLAYER1
  2
BLKF0012
 10
0.0
 20
0.0
 30
0.0
  0
LINE
  8
CSLAYER1
  6
CONTINUOUS
 62
     4
 10
1271.088727
 20
970.860270
 11
1271.088727
 21
960.226388
  0
LINE
  8
CSLAYER1
  6
CONTINUOUS
 62
     5
 10
1272.088727
 20
970.860270
 11
1272.088727
 21
960.226388
  0
LINE
  8
CSLAYER1
  6
CONTINUOUS
 62
     5
 10
1280.088727
 20
970.860270
 11
1280.088727
 21
960.226388
  0
LINE
  8
CSLAYER1
  6
CONTINUOUS
 62
     4
 10
1281.088727
 20
970.860270
 11
1281.088727
 21
960.226388
  0
LINE
  8
CSLAYER1
  6
CONTINUOUS
 62
     3
 10
1654.588727
 20
970.860270
 11
1654.588727
 21
960.226388
  0
LINE
  8
CSLAYER1
  6
CONTINUOUS
 62
     3
 10
1642.588727
 20
970.860270
 11
1642.588727
 21
960.163365
  0
LINE
  8
CSLAYER1
  6
CONTINUOUS
 62
     3
 10
1282.588727
 20
970.860270
 11
1282.588727
 21
960.163365
  0
LINE
  8
CSLAYER1
  6
CONTINUOUS
 62
     3
 10
1270.588727
 20
970.860270
 11
1270.588727
 21
960.226388
  0
LINE
  8
CSLAYER1
  6
CONTINUOUS
 62
     4
 10
1632.588727
 20
1718.327557
 11
1661.588727
 21
1718.327557
  0
LINE
  8
CSLAYER1
  6
CONTINUOUS
 62
     4
 10
1632.588727
 20
1693.327557
 11
1661.588727
 21
1693.327557
  0
LINE
  8
CSLAYER1
  6
CONTINUOUS
 62
     5
 10
1649.088727
 20
1743.961440
 11
1649.088727
 21
1693.278565
  0
LINE
  8
CSLAYER1
  6
CONTINUOUS
 62
     4
 10
1661.588727
 20
1718.327557
 11
1661.588727
 21
1693.278565
  0
INSERT
  8
CSLAYER1
  2
BLKF0013
 10
0.0
 20
0.0
 30
0.0
  0
INSERT
  8
CSLAYER1
  2
BLKF0014
 10
0.0
 20
0.0
 30
0.0
  0
LINE
  8
CSLAYER1
  6
CONTINUOUS
 62
     4
 10
1654.088727
 20
1736.961440
 11
1654.088727
 21
1726.327557
  0
LINE
  8
CSLAYER1
  6
CONTINUOUS
 62
     5
 10
1653.088727
 20
1736.961440
 11
1653.088727
 21
1726.327557
  0
LINE
  8
CSLAYER1
  6
CONTINUOUS
 62
     5
 10
1645.088727
 20
1736.961440
 11
1645.088727
 21
1726.327557
  0
LINE
  8
CSLAYER1
  6
CONTINUOUS
 62
     4
 10
1644.088727
 20
1736.961440
 11
1644.088727
 21
1726.327557
  0
LINE
  8
CSLAYER1
  6
CONTINUOUS
 62
     4
 10
1292.588727
 20
1718.327557
 11
1263.588727
 21
1718.327557
  0
LINE
  8
CSLAYER1
  6
CONTINUOUS
 62
     4
 10
1292.588727
 20
1693.327557
 11
1263.588727
 21
1693.327557
  0
LINE
  8
CSLAYER1
  6
CONTINUOUS
 62
     5
 10
1276.088727
 20
1743.961440
 11
1276.088727
 21
1693.278565
  0
LINE
  8
CSLAYER1
  6
CONTINUOUS
 62
     4
 10
1263.588727
 20
1718.327557
 11
1263.588727
 21
1693.278565
  0
INSERT
  8
CSLAYER1
  2
BLKF0015
 10
0.0
 20
0.0
 30
0.0
  0
INSERT
  8
CSLAYER1
  2
BLKF0016
 10
0.0
 20
0.0
 30
0.0
  0
LINE
  8
CSLAYER1
  6
CONTINUOUS
 62
     4
 10
1271.088727
 20
1736.961440
 11
1271.088727
 21
1726.327557
  0
LINE
  8
CSLAYER1
  6
CONTINUOUS
 62
     5
 10
1272.088727
 20
1736.961440
 11
1272.088727
 21
1726.327557
  0
LINE
  8
CSLAYER1
  6
CONTINUOUS
 62
     5
 10
1280.088727
 20
1736.961440
 11
1280.088727
 21
1726.327557
  0
LINE
  8
CSLAYER1
  6
CONTINUOUS
 62
     4
 10
1281.088727
 20
1736.961440
 11
1281.088727
 21
1726.327557
  0
LINE
  8
CSLAYER1
  6
CONTINUOUS
 62
     3
 10
1654.588727
 20
1736.961440
 11
1654.588727
 21
1726.327557
  0
LINE
  8
CSLAYER1
  6
CONTINUOUS
 62
     3
 10
1642.588727
 20
1736.961440
 11
1642.588727
 21
1726.264535
  0
LINE
  8
CSLAYER1
  6
CONTINUOUS
 62
     3
 10
1282.588727
 20
1736.961440
 11
1282.588727
 21
1726.264535
  0
LINE
  8
CSLAYER1
  6
CONTINUOUS
 62
     3
 10
1270.588727
 20
1736.961440
 11
1270.588727
 21
1726.327557
  0
LINE
  8
CSLAYER1
  6
CONTINUOUS
 62
     4
 10
1632.588727
 20
2486.667277
 11
1661.588727
 21
2486.667277
  0
LINE
  8
CSLAYER1
  6
CONTINUOUS
 62
     4
 10
1632.588727
 20
2461.667277
 11
1661.588727
 21
2461.667277
  0
LINE
  8
CSLAYER1
  6
CONTINUOUS
 62
     5
 10
1649.088727
 20
2512.301159
 11
1649.088727
 21
2461.618285
  0
LINE
  8
CSLAYER1
  6
CONTINUOUS
 62
     4
 10
1661.588727
 20
2486.667277
 11
1661.588727
 21
2461.618285
  0
INSERT
  8
CSLAYER1
  2
BLKF0017
 10
0.0
 20
0.0
 30
0.0
  0
INSERT
  8
CSLAYER1
  2
BLKF0018
 10
0.0
 20
0.0
 30
0.0
  0
LINE
  8
CSLAYER1
  6
CONTINUOUS
 62
     4
 10
1654.088727
 20
2505.301159
 11
1654.088727
 21
2494.667277
  0
LINE
  8
CSLAYER1
  6
CONTINUOUS
 62
     5
 10
1653.088727
 20
2505.301159
 11
1653.088727
 21
2494.667277
  0
LINE
  8
CSLAYER1
  6
CONTINUOUS
 62
     5
 10
1645.088727
 20
2505.301159
 11
1645.088727
 21
2494.667277
  0
LINE
  8
CSLAYER1
  6
CONTINUOUS
 62
     4
 10
1644.088727
 20
2505.301159
 11
1644.088727
 21
2494.667277
  0
LINE
  8
CSLAYER1
  6
CONTINUOUS
 62
     4
 10
1292.588727
 20
2486.667277
 11
1263.588727
 21
2486.667277
  0
LINE
  8
CSLAYER1
  6
CONTINUOUS
 62
     4
 10
1292.588727
 20
2461.667277
 11
1263.588727
 21
2461.667277
  0
LINE
  8
CSLAYER1
  6
CONTINUOUS
 62
     5
 10
1276.088727
 20
2512.301159
 11
1276.088727
 21
2461.618285
  0
LINE
  8
CSLAYER1
  6
CONTINUOUS
 62
     4
 10
1263.588727
 20
2486.667277
 11
1263.588727
 21
2461.618285
  0
INSERT
  8
CSLAYER1
  2
BLKF0019
 10
0.0
 20
0.0
 30
0.0
  0
INSERT
  8
CSLAYER1
  2
BLKF0020
 10
0.0
 20
0.0
 30
0.0
  0
LINE
  8
CSLAYER1
  6
CONTINUOUS
 62
     4
 10
1271.088727
 20
2505.301159
 11
1271.088727
 21
2494.667277
  0
LINE
  8
CSLAYER1
  6
CONTINUOUS
 62
     5
 10
1272.088727
 20
2505.301159
 11
1272.088727
 21
2494.667277
  0
LINE
  8
CSLAYER1
  6
CONTINUOUS
 62
     5
 10
1280.088727
 20
2505.301159
 11
1280.088727
 21
2494.667277
  0
LINE
  8
CSLAYER1
  6
CONTINUOUS
 62
     4
 10
1281.088727
 20
2505.301159
 11
1281.088727
 21
2494.667277
  0
LINE
  8
CSLAYER1
  6
CONTINUOUS
 62
     3
 10
1654.588727
 20
2505.301159
 11
1654.588727
 21
2494.667277
  0
LINE
  8
CSLAYER1
  6
CONTINUOUS
 62
     3
 10
1642.588727
 20
2505.301159
 11
1642.588727
 21
2494.604255
  0
LINE
  8
CSLAYER1
  6
CONTINUOUS
 62
     3
 10
1282.588727
 20
2505.301159
 11
1282.588727
 21
2494.604255
  0
LINE
  8
CSLAYER1
  6
CONTINUOUS
 62
     3
 10
1270.588727
 20
2505.301159
 11
1270.588727
 21
2494.667277
  0
LINE
  8
CSLAYER1
  6
CONTINUOUS
 62
     3
 10
1642.588727
 20
2461.667277
 11
1642.588727
 21
1743.961440
  0
LINE
  8
CSLAYER1
  6
CONTINUOUS
 62
     3
 10
1654.588727
 20
2461.667277
 11
1654.588727
 21
1743.961440
  0
LINE
  8
CSLAYER1
  6
CONTINUOUS
 62
     3
 10
1282.588727
 20
2461.667277
 11
1282.588727
 21
1743.961440
  0
LINE
  8
CSLAYER1
  6
CONTINUOUS
 62
     3
 10
1270.588727
 20
2461.667277
 11
1270.588727
 21
1743.555381
  0
LINE
  8
CSLAYER1
  6
CONTINUOUS
 62
     3
 10
1654.588727
 20
1693.327557
 11
1654.588727
 21
977.860270
  0
LINE
  8
CSLAYER1
  6
CONTINUOUS
 62
     3
 10
1642.588727
 20
1693.327557
 11
1642.588727
 21
977.860270
  0
LINE
  8
CSLAYER1
  6
CONTINUOUS
 62
     3
 10
1282.588727
 20
1693.327557
 11
1282.588727
 21
977.860270
  0
LINE
  8
CSLAYER1
  6
CONTINUOUS
 62
     3
 10
1270.588727
 20
1693.327557
 11
1270.588727
 21
977.860270
  0
LINE
  8
CSLAYER1
  6
CONTINUOUS
 62
     3
 10
1654.588727
 20
927.226388
 11
1654.588727
 21
887.329123
  0
LINE
  8
CSLAYER1
  6
CONTINUOUS
 62
     3
 10
1642.588727
 20
927.226388
 11
1642.588727
 21
887.329123
  0
LINE
  8
CSLAYER1
  6
CONTINUOUS
 62
     3
 10
1282.588727
 20
927.226388
 11
1282.588727
 21
887.329123
  0
LINE
  8
CSLAYER1
  6
CONTINUOUS
 62
     3
 10
1270.588727
 20
927.226388
 11
1270.588727
 21
887.329123
  0
LINE
  8
CSLAYER1
  6
CONTINUOUS
 62
     3
 10
1642.588727
 20
3027.707123
 11
1654.588727
 21
3027.707123
  0
LINE
  8
CSLAYER1
  6
CONTINUOUS
 62
     3
 10
1270.588727
 20
3027.707123
 11
1282.588727
 21
3027.707123
  0
LINE
  8
CSLAYER1
  6
CONTINUOUS
 62
     3
 10
1620.588727
 20
2469.751772
 11
1632.588727
 21
2469.751772
  0
LINE
  8
CSLAYER1
  6
CONTINUOUS
 62
     3
 10
1620.588727
 20
2354.929123
 11
1632.588727
 21
2354.929123
  0
LINE
  8
CSLAYER1
  6
CONTINUOUS
 62
     3
 10
1642.588727
 20
2291.624712
 11
1654.787952
 21
2291.624712
  0
LINE
  8
CSLAYER1
  6
CONTINUOUS
 62
     3
 10
1270.588727
 20
2291.624712
 11
1282.588727
 21
2291.624712
  0
LINE
  8
CSLAYER1
  6
CONTINUOUS
 62
     3
 10
1292.588727
 20
2354.929123
 11
1304.588727
 21
2354.929123
  0
LINE
  8
CSLAYER1
  6
CONTINUOUS
 62
     3
 10
1292.588727
 20
2469.751772
 11
1304.588727
 21
2469.751772
  0
LINE
  8
CSLAYER1
  6
CONTINUOUS
 62
     3
 10
1620.588727
 20
1703.845619
 11
1632.588727
 21
1703.845619
  0
LINE
  8
CSLAYER1
  6
CONTINUOUS
 62
     3
 10
1292.588727
 20
1703.845619
 11
1304.588727
 21
1703.845619
  0
LINE
  8
CSLAYER1
  6
CONTINUOUS
 62
     3
 10
1292.588727
 20
1589.629123
 11
1304.588727
 21
1589.629123
  0
LINE
  8
CSLAYER1
  6
CONTINUOUS
 62
     3
 10
1620.588727
 20
1589.629123
 11
1632.588727
 21
1589.629123
  0
LINE
  8
CSLAYER1
  6
CONTINUOUS
 62
     3
 10
1642.588727
 20
1526.226631
 11
1654.588727
 21
1526.226631
  0
LINE
  8
CSLAYER1
  6
CONTINUOUS
 62
     3
 10
1270.588727
 20
1526.226631
 11
1282.588727
 21
1526.226631
  0
TEXT
  8
CSLAYER1
 62
     3
 10
3003.067871
 20
3317.510986
 40
80.000000
 41
0.818182
  1
1050
 50
0.000000
 51
0.000000
  7
EASYDRAW_FONT
 72
     5
 11
3243.067871
 21
3317.510986
  0
LINE
  8
CSLAYER1
  6
CONTINUOUS
 62
     5
 10
2592.170145
 20
3187.329123
 11
2592.170145
 21
3308.842491
  0
LINE
  8
CSLAYER1
  6
CONTINUOUS
 62
     5
 10
3642.170145
 20
3187.329123
 11
3642.170145
 21
3308.842491
  0
LINE
  8
CSLAYER1
  6
CONTINUOUS
 62
     5
 10
2592.170145
 20
3293.842491
 11
3642.170145
 21
3293.842491
  0
LINE
  8
CSLAYER1
  6
CONTINUOUS
 62
     5
 10
2592.170145
 20
3293.842491
 11
2650.125694
 21
3309.371634
  0
LINE
  8
CSLAYER1
  6
CONTINUOUS
 62
     5
 10
2592.170145
 20
3293.842491
 11
2650.125694
 21
3278.313349
  0
LINE
  8
CSLAYER1
  6
CONTINUOUS
 62
     5
 10
3642.170145
 20
3293.842491
 11
3584.214595
 21
3309.371634
  0
LINE
  8
CSLAYER1
  6
CONTINUOUS
 62
     5
 10
3642.170145
 20
3293.842491
 11
3584.214595
 21
3278.313349
  0
LINE
  8
CSLAYER1
  6
CONTINUOUS
 62
     3
 10
2343.046229
 20
4090.829123
 11
2132.508484
 21
4090.829123
  0
LINE
  8
CSLAYER1
  6
CONTINUOUS
 62
     3
 10
2343.578866
 20
4097.829123
 11
2132.508484
 21
4097.829123
  0
ARC
  8
CSLAYER1
  6
CONTINUOUS
 62
     3
 10
2336.741469
 20
4051.329123
 40
40.000000
 50
-243.817766
 51
80.931278
  0
ARC
  8
CSLAYER1
  6
CONTINUOUS
 62
     3
 10
2336.741469
 20
4051.329123
 40
47.000000
 50
-229.860785
 51
81.635125
  0
LINE
  8
CSLAYER1
  6
CONTINUOUS
 62
     3
 10
2592.170145
 20
4090.829123
 11
2366.733085
 21
4090.829123
  0
LINE
  8
CSLAYER1
  6
CONTINUOUS
 62
     3
 10
2592.170145
 20
4097.829123
 11
2356.026194
 21
4097.829123
  0
TEXT
  8
CSLAYER1
 62
     6
 10
1337.413818
 20
3696.314453
 40
80.000000
 41
1.020000
  1
コード長サ２ｍ
 50
0.000000
 51
0.000000
  7
EASYDRAW_FONT
 72
     5
 11
1881.413818
 21
3696.314453
  0
TEXT
  8
CSLAYER1
 62
     5
 10
5173.020020
 20
3992.506592
 40
80.000000
 41
1.036364
  1
積載荷重
 50
0.000000
 51
0.000000
  7
EASYDRAW_FONT
 72
     5
 11
5477.020020
 21
3992.506592
  0
LINE
  8
CSLAYER1
  6
CONTINUOUS
 62
     5
 10
6595.281334
 20
1931.399975
 11
5153.536300
 21
1931.399975
  0
TEXT
  8
CSLAYER1
 62
     4
 10
5804.140137
 20
1952.742432
 40
80.000000
 41
0.926087
  1
　１０Ｒ４／１３
 50
0.000000
 51
0.000000
  7
EASYDRAW_FONT
 72
     5
 11
6372.140137
 21
1952.742432
  0
INSERT
  8
CSLAYER1
  2
BLKF0021
 10
0.0
 20
0.0
 30
0.0
  0
ENDSEC
  0
EOF
