  0
SECTION
  2
HEADER
  9
$ACADVER
  1
AC1006
  9
$INSBASE
 10
-864.442182
 20
3377.833876
 30
0.0
  9
$EXTMIN
 10
-864.442182
 20
3377.833876
  9
$EXTMAX
 10
4595.557818
 20
7232.833876
  9
$LIMMIN
 10
-864.442182
 20
3377.833876
  9
$LIMMAX
 10
4595.557818
 20
7232.833876
  9
$VIEWCTR
 10
1865.557818
 20
5305.333876
  9
$VIEWSIZE
 40
3855.000000
  9
$SNAPMODE
 70
     0
  9
$SNAPUNIT
 10
1.0
 20
1.0
  9
$SNAPBASE
 10
0.0
 20
0.0
  9
$SNAPANG
 50
0.0
  9
$SNAPSTYLE
 70
     0
  9
$SNAPISOPAIR
 70
     0
  9
$GRIDMODE
 70
     0
  9
$GRIDUNIT
 10
0.0
 20
0.0
  9
$ORTHOMODE
 70
     0
  9
$REGENMODE
 70
     1
  9
$FILLMODE
 70
     1
  9
$QTEXTMODE
 70
     0
  9
$DRAGMODE
 70
     2
  9
$LTSCALE
 40
15.000000
  9
$OSMODE
 70
     0
  9
$ATTMODE
 70
     1
  9
$TEXTSIZE
 40
0.2
  9
$TRACEWID
 40
0.05
  9
$TEXTSTYLE
  7
STANDARD
  9
$CLAYER
  8
CSLAYER1
  9
$CELTYPE
  6
BYLAYER
  9
$CECOLOR
 62
   256
  9
$DIMSCALE
 40
1.0
  9
$DIMASZ
 40
0.18
  9
$DIMEXO
 40
0.0625
  9
$DIMDLI
 40
0.38
  9
$DIMRND
 40
0.0
  9
$DIMDLE
 40
0.0
  9
$DIMEXE
 40
0.18
  9
$DIMTP
 40
0.0
  9
$DIMTM
 40
0.0
  9
$DIMTXT
 40
0.18
  9
$DIMCEN
 40
0.09
  9
$DIMTSZ
 40
0.0
  9
$DIMTOL
 70
     0
  9
$DIMLIM
 70
     0
  9
$DIMTIH
 70
     1
  9
$DIMTOH
 70
     1
  9
$DIMSE1
 70
     0
  9
$DIMSE2
 70
     0
  9
$DIMTAD
 70
     0
  9
$DIMZIN
 70
     0
  9
$DIMBLK
  1

  9
$LUNITS
 70
     2
  9
$LUPREC
 70
     4
  9
$AXISMODE
 70
     0
  9
$AXISUNIT
 10
0.0
 20
0.0
  9
$SKETCHINC
 40
0.1
  9
$FILLETRAD
 40
0.0
  9
$AUNITS
 70
     0
  9
$AUPREC
 70
     0
  9
$MENU
  1
ACAD
  9
$ELEVATION
 40
0.0
  9
$THICKNESS
 40
0.0
  9
$VIEWDIR
 10
0.0
 20
0.0
 30
1.0
  9
$LIMCHECK
 70
     0
  9
$BLIPMODE
 70
     1
  9
$CHAMFERA
 40
0.0
  9
$CHAMFERB
 40
0.0
  9
$FASTZOOM
 70
     1
  9
$SKPOLY
 70
     0
  9
$TDCREATE
 40
2457497.000000
  9
$TDUPDATE
 40
2457497.000000
  9
$TDINDWG
 40
0.0
  9
$TDUSRTIMER
 40
0.0
  9
$USRTIMER
 70
     1
  9
$ANGBASE
 50
0.0
  9
$ANGDIR
 70
     0
  9
$PDMODE
 70
     0
  9
$PDSIZE
 40
0.0
  9
$PLINEWID
 40
0.0
  9
$COORDS
 70
     0
  9
$USERI1
 70
     0
  9
$USERI2
 70
     0
  9
$USERI3
 70
     0
  9
$USERI4
 70
     0
  9
$USERI5
 70
     0
  9
$USERR1
 40
0.0
  9
$USERR2
 40
0.0
  9
$USERR3
 40
0.0
  9
$USERR4
 40
0.0
  9
$USERR5
 40
0.0
  0
ENDSEC
  0
SECTION
  2
TABLES
  0
TABLE
  2
LTYPE
 70
     9
  0
LTYPE
  2
CONTINUOUS
 70
    64
  3
Solid line
 72
    65
 73
     0
 40
0.0
  0
LTYPE
  2
DASHED
 70
    64
  3
__ __ __ __ __ __ __ __ __ __ __ __ __ __ __
 72
    65
 73
     2
 40
0.75
 49
0.5
 49
-0.25
  0
LTYPE
  2
HIDDEN
 70
    64
  3
_ _ _ _ _ _ _ _ _ _ _ _ _ _ _ _ _ _ _ _ _ _ _
 72
    65
 73
     2
 40
0.375
 49
0.25
 49
-0.125
  0
LTYPE
  2
DOT
 70
    64
  3
...............................................
 72
    65
 73
     2
 40
0.25
 49
0.0
 49
-0.25
  0
LTYPE
  2
DASHDOT
 70
    64
  3
__ . __ . __ . __ . __ . __ . __ . __ . __ . __
 72
    65
 73
     4
 40
1.0
 49
0.5
 49
-0.25
 49
0.0
 49
-0.25
  0
LTYPE
  2
DIVIDE
 70
    64
  3
__ . . __ . . __ . . __ . . __ . . __ . . __
 72
    65
 73
     6
 40
1.25
 49
0.5
 49
-0.25
 49
0.0
 49
-0.25
 49
0.0
 49
-0.25
  0
LTYPE
  2
CENTER
 70
    64
  3
____ _ ____ _ ____ _ ____ _ ____ _ ____ _ ____ 
 72
    65
 73
     4
 40
2.0
 49
1.25
 49
-0.25
 49
0.25
 49
-0.25
  0
LTYPE
  2
PHANTOM
 70
    64
  3
______  __  __  ______  __  __  ______  __  __ 
 72
    65
 73
     6
 40
2.5
 49
1.25
 49
-0.25
 49
0.25
 49
-0.25
 49
0.25
 49
-0.25
  0
LTYPE
  2
BORDER
 70
    64
  3
__ __ . __ __ . __ __ . __ __ . __ __ . __ __ .
 72
    65
 73
     6
 40
1.75
 49
0.5
 49
-0.25
 49
0.5
 49
-0.25
 49
0.0
 49
-0.25
  0
ENDTAB
  0
TABLE
  2
LAYER
 70
    16
  0
LAYER
  2
CSLAYER1
 70
    64
 62
     7
  6
CONTINUOUS
  0
LAYER
  2
CSLAYER2
 70
    64
 62
     7
  6
CONTINUOUS
  0
LAYER
  2
CSLAYER3
 70
    64
 62
     7
  6
CONTINUOUS
  0
LAYER
  2
CSLAYER4
 70
    64
 62
     7
  6
CONTINUOUS
  0
LAYER
  2
CSLAYER5
 70
    64
 62
     7
  6
CONTINUOUS
  0
LAYER
  2
CSLAYER6
 70
    64
 62
     7
  6
CONTINUOUS
  0
LAYER
  2
CSLAYER7
 70
    64
 62
     7
  6
CONTINUOUS
  0
LAYER
  2
CSLAYER8
 70
    64
 62
     7
  6
CONTINUOUS
  0
LAYER
  2
CSLAYER9
 70
    64
 62
     7
  6
CONTINUOUS
  0
LAYER
  2
CSLAYER10
 70
    64
 62
     7
  6
CONTINUOUS
  0
LAYER
  2
CSLAYER11
 70
    64
 62
     7
  6
CONTINUOUS
  0
LAYER
  2
CSLAYER12
 70
    64
 62
     7
  6
CONTINUOUS
  0
LAYER
  2
CSLAYER13
 70
    64
 62
     7
  6
CONTINUOUS
  0
LAYER
  2
CSLAYER14
 70
    64
 62
     7
  6
CONTINUOUS
  0
LAYER
  2
CSLAYER15
 70
    64
 62
     7
  6
CONTINUOUS
  0
LAYER
  2
CSLAYER16
 70
    64
 62
     7
  6
CONTINUOUS
  0
ENDTAB
  0
TABLE
  2
STYLE
 70
     1
  0
STYLE
  2
EASYDRAW_FONT
 70
     0
 40
1.0
 41
1.0
 50
0.0
 71
     0
 42
1.0
  3
monotxt
  4
bigfont
  0
ENDTAB
  0
TABLE
  2
VIEW
 70
     0
  0
ENDTAB
  0
ENDSEC
  0
SECTION
  2
BLOCKS
  0
BLOCK
  8
CSLAYER1
  2
*D0000
 70
    65
 10
0.0
 20
0.0
 30
0.0
  0
TEXT
  8
CSLAYER1
 62
     3
 10
2360.318115
 20
2801.784424
 40
60.000000
 41
0.818182
  1
1050
 50
0.000000
 51
0.000000
  7
EASYDRAW_FONT
 72
     5
 11
2540.318115
 21
2801.784424
  0
LINE
  8
CSLAYER1
  6
CONTINUOUS
 62
     5
 10
1919.420161
 20
2771.602439
 11
1919.420161
 21
2893.115808
  0
LINE
  8
CSLAYER1
  6
CONTINUOUS
 62
     5
 10
2969.420161
 20
2771.602439
 11
2969.420161
 21
2893.115808
  0
LINE
  8
CSLAYER1
  6
CONTINUOUS
 62
     5
 10
1919.420161
 20
2878.115808
 11
2969.420161
 21
2878.115808
  0
LINE
  8
CSLAYER1
  6
CONTINUOUS
 62
     5
 10
1919.420161
 20
2878.115808
 11
1962.886823
 21
2889.762665
  0
LINE
  8
CSLAYER1
  6
CONTINUOUS
 62
     5
 10
1919.420161
 20
2878.115808
 11
1962.886823
 21
2866.468951
  0
LINE
  8
CSLAYER1
  6
CONTINUOUS
 62
     5
 10
2969.420161
 20
2878.115808
 11
2925.953499
 21
2889.762665
  0
LINE
  8
CSLAYER1
  6
CONTINUOUS
 62
     5
 10
2969.420161
 20
2878.115808
 11
2925.953499
 21
2866.468951
  0
ENDBLK
  8
0
  0
BLOCK
  8
CSLAYER1
  2
*D0001
 70
    65
 10
0.0
 20
0.0
 30
0.0
  0
TEXT
  8
CSLAYER1
 62
     3
 10
3125.828857
 20
3146.102783
 40
60.000000
 41
0.843750
  1
500
 50
90.000000
 51
0.000000
  7
EASYDRAW_FONT
 72
     5
 11
3125.828857
 21
3281.102783
  0
LINE
  8
CSLAYER1
  6
CONTINUOUS
 62
     5
 10
2984.420161
 20
2963.602439
 11
3155.828735
 21
2963.602439
  0
LINE
  8
CSLAYER1
  6
CONTINUOUS
 62
     5
 10
2984.420161
 20
3463.602439
 11
3155.828735
 21
3463.602439
  0
LINE
  8
CSLAYER1
  6
CONTINUOUS
 62
     5
 10
3140.828735
 20
2963.602439
 11
3140.828735
 21
3463.602439
  0
LINE
  8
CSLAYER1
  6
CONTINUOUS
 62
     5
 10
3140.828735
 20
2963.602439
 11
3129.181878
 21
3007.069101
  0
LINE
  8
CSLAYER1
  6
CONTINUOUS
 62
     5
 10
3140.828735
 20
2963.602439
 11
3152.475592
 21
3007.069101
  0
LINE
  8
CSLAYER1
  6
CONTINUOUS
 62
     5
 10
3140.828735
 20
3463.602439
 11
3129.181878
 21
3420.135777
  0
LINE
  8
CSLAYER1
  6
CONTINUOUS
 62
     5
 10
3140.828735
 20
3463.602439
 11
3152.475592
 21
3420.135777
  0
ENDBLK
  8
0
  0
BLOCK
  8
CSLAYER1
  2
*D0002
 70
    65
 10
0.0
 20
0.0
 30
0.0
  0
TEXT
  8
CSLAYER1
 62
     3
 10
3230.627686
 20
639.102539
 40
60.000000
 41
0.843750
  1
600
 50
90.000000
 51
0.000000
  7
EASYDRAW_FONT
 72
     5
 11
3230.627686
 21
774.102539
  0
LINE
  8
CSLAYER1
  6
CONTINUOUS
 62
     5
 10
2984.620161
 20
406.602439
 11
3408.355708
 21
406.602439
  0
LINE
  8
CSLAYER1
  6
CONTINUOUS
 62
     5
 10
2984.420161
 20
1006.602439
 11
3260.627606
 21
1006.602439
  0
LINE
  8
CSLAYER1
  6
CONTINUOUS
 62
     5
 10
3245.627606
 20
406.602439
 11
3245.627606
 21
1006.602439
  0
LINE
  8
CSLAYER1
  6
CONTINUOUS
 62
     5
 10
3245.627606
 20
406.602439
 11
3233.980749
 21
450.069101
  0
LINE
  8
CSLAYER1
  6
CONTINUOUS
 62
     5
 10
3245.627606
 20
406.602439
 11
3257.274463
 21
450.069101
  0
LINE
  8
CSLAYER1
  6
CONTINUOUS
 62
     5
 10
3245.627606
 20
1006.602439
 11
3233.980749
 21
963.135777
  0
LINE
  8
CSLAYER1
  6
CONTINUOUS
 62
     5
 10
3245.627606
 20
1006.602439
 11
3257.274463
 21
963.135777
  0
ENDBLK
  8
0
  0
BLOCK
  8
CSLAYER1
  2
*D0003
 70
    65
 10
0.0
 20
0.0
 30
0.0
  0
TEXT
  8
CSLAYER1
 62
     3
 10
3230.627686
 20
1791.602661
 40
60.000000
 41
0.818182
  1
1750
 50
90.000000
 51
0.000000
  7
EASYDRAW_FONT
 72
     5
 11
3230.627686
 21
1971.602661
  0
LINE
  8
CSLAYER1
  6
CONTINUOUS
 62
     5
 10
2984.420161
 20
2756.602439
 11
3408.355708
 21
2756.602439
  0
LINE
  8
CSLAYER1
  6
CONTINUOUS
 62
     5
 10
3245.627606
 20
1006.602439
 11
3245.627606
 21
2756.602439
  0
LINE
  8
CSLAYER1
  6
CONTINUOUS
 62
     5
 10
3245.627606
 20
1006.602439
 11
3233.980749
 21
1050.069101
  0
LINE
  8
CSLAYER1
  6
CONTINUOUS
 62
     5
 10
3245.627606
 20
1006.602439
 11
3257.274463
 21
1050.069101
  0
LINE
  8
CSLAYER1
  6
CONTINUOUS
 62
     5
 10
3245.627606
 20
2756.602439
 11
3233.980749
 21
2713.135777
  0
LINE
  8
CSLAYER1
  6
CONTINUOUS
 62
     5
 10
3245.627606
 20
2756.602439
 11
3257.274463
 21
2713.135777
  0
ENDBLK
  8
0
  0
BLOCK
  8
CSLAYER1
  2
*D0004
 70
    65
 10
0.0
 20
0.0
 30
0.0
  0
TEXT
  8
CSLAYER1
 62
     3
 10
3378.355713
 20
1491.602539
 40
60.000000
 41
0.818182
  1
2350
 50
90.000000
 51
0.000000
  7
EASYDRAW_FONT
 72
     5
 11
3378.355713
 21
1671.602539
  0
LINE
  8
CSLAYER1
  6
CONTINUOUS
 62
     5
 10
3393.355708
 20
406.602439
 11
3393.355708
 21
2756.602439
  0
LINE
  8
CSLAYER1
  6
CONTINUOUS
 62
     5
 10
3393.355708
 20
406.602439
 11
3381.708851
 21
450.069101
  0
LINE
  8
CSLAYER1
  6
CONTINUOUS
 62
     5
 10
3393.355708
 20
406.602439
 11
3405.002565
 21
450.069101
  0
LINE
  8
CSLAYER1
  6
CONTINUOUS
 62
     5
 10
3393.355708
 20
2756.602439
 11
3381.708851
 21
2713.135777
  0
LINE
  8
CSLAYER1
  6
CONTINUOUS
 62
     5
 10
3393.355708
 20
2756.602439
 11
3405.002565
 21
2713.135777
  0
ENDBLK
  8
0
  0
BLOCK
  8
CSLAYER1
  2
*D0005
 70
    65
 10
0.0
 20
0.0
 30
0.0
  0
TEXT
  8
CSLAYER1
 62
     3
 10
1813.423706
 20
192.605011
 40
60.000000
 41
0.900000
  1
50
 50
0.000000
 51
0.000000
  7
EASYDRAW_FONT
 72
     5
 11
1903.423706
 21
192.605011
  0
LINE
  8
CSLAYER1
  6
CONTINUOUS
 62
     5
 10
1919.620161
 20
391.602439
 11
1919.620161
 21
131.612962
  0
LINE
  8
CSLAYER1
  6
CONTINUOUS
 62
     5
 10
1969.620161
 20
391.602439
 11
1969.620161
 21
261.276479
  0
LINE
  8
CSLAYER1
  6
CONTINUOUS
 62
     5
 10
1919.620161
 20
276.276479
 11
1969.620161
 21
276.276479
  0
ENDBLK
  8
0
  0
BLOCK
  8
CSLAYER1
  2
*D0006
 70
    65
 10
0.0
 20
0.0
 30
0.0
  0
TEXT
  8
CSLAYER1
 62
     3
 10
2152.120361
 20
291.276398
 40
60.000000
 41
0.843750
  1
500
 50
0.000000
 51
0.000000
  7
EASYDRAW_FONT
 72
     5
 11
2287.120361
 21
291.276398
  0
LINE
  8
CSLAYER1
  6
CONTINUOUS
 62
     5
 10
2469.620161
 20
391.602439
 11
2469.620161
 21
261.276479
  0
LINE
  8
CSLAYER1
  6
CONTINUOUS
 62
     5
 10
1969.620161
 20
276.276479
 11
2469.620161
 21
276.276479
  0
LINE
  8
CSLAYER1
  6
CONTINUOUS
 62
     5
 10
1969.620161
 20
276.276479
 11
2013.086823
 21
287.923336
  0
LINE
  8
CSLAYER1
  6
CONTINUOUS
 62
     5
 10
1969.620161
 20
276.276479
 11
2013.086823
 21
264.629622
  0
LINE
  8
CSLAYER1
  6
CONTINUOUS
 62
     5
 10
2469.620161
 20
276.276479
 11
2426.153499
 21
287.923336
  0
LINE
  8
CSLAYER1
  6
CONTINUOUS
 62
     5
 10
2469.620161
 20
276.276479
 11
2426.153499
 21
264.629622
  0
ENDBLK
  8
0
  0
BLOCK
  8
CSLAYER1
  2
*D0007
 70
    65
 10
0.0
 20
0.0
 30
0.0
  0
TEXT
  8
CSLAYER1
 62
     3
 10
2354.520264
 20
161.612823
 40
60.000000
 41
0.818182
  1
1050
 50
0.000000
 51
0.000000
  7
EASYDRAW_FONT
 72
     5
 11
2534.520264
 21
161.612823
  0
LINE
  8
CSLAYER1
  6
CONTINUOUS
 62
     5
 10
2969.420161
 20
391.602439
 11
2969.420161
 21
131.612962
  0
LINE
  8
CSLAYER1
  6
CONTINUOUS
 62
     5
 10
1919.620161
 20
146.612962
 11
2969.420161
 21
146.612962
  0
LINE
  8
CSLAYER1
  6
CONTINUOUS
 62
     5
 10
1919.620161
 20
146.612962
 11
1963.086823
 21
158.259819
  0
LINE
  8
CSLAYER1
  6
CONTINUOUS
 62
     5
 10
1919.620161
 20
146.612962
 11
1963.086823
 21
134.966105
  0
LINE
  8
CSLAYER1
  6
CONTINUOUS
 62
     5
 10
2969.420161
 20
146.612962
 11
2925.953499
 21
158.259819
  0
LINE
  8
CSLAYER1
  6
CONTINUOUS
 62
     5
 10
2969.420161
 20
146.612962
 11
2925.953499
 21
134.966105
  0
ENDBLK
  8
0
  0
BLOCK
  8
CSLAYER1
  2
*D0008
 70
    65
 10
0.0
 20
0.0
 30
0.0
  0
TEXT
  8
CSLAYER1
 62
     3
 10
722.626648
 20
271.317413
 40
60.000000
 41
0.843750
  1
440
 50
0.000000
 51
0.000000
  7
EASYDRAW_FONT
 72
     5
 11
857.626648
 21
271.317413
  0
LINE
  8
CSLAYER1
  6
CONTINUOUS
 62
     5
 10
569.838743
 20
260.274642
 11
1009.838743
 21
260.274642
  0
LINE
  8
CSLAYER1
  6
CONTINUOUS
 62
     5
 10
569.838743
 20
260.274642
 11
613.305406
 21
271.921499
  0
LINE
  8
CSLAYER1
  6
CONTINUOUS
 62
     5
 10
569.838743
 20
260.274642
 11
613.305406
 21
248.627785
  0
LINE
  8
CSLAYER1
  6
CONTINUOUS
 62
     5
 10
1009.838743
 20
260.274642
 11
966.372081
 21
271.921499
  0
LINE
  8
CSLAYER1
  6
CONTINUOUS
 62
     5
 10
1009.838743
 20
260.274642
 11
966.372081
 21
248.627785
  0
ENDBLK
  8
0
  0
BLOCK
  8
CSLAYER1
  2
*D0009
 70
    65
 10
0.0
 20
0.0
 30
0.0
  0
TEXT
  8
CSLAYER1
 62
     3
 10
722.338745
 20
124.761253
 40
60.000000
 41
0.843750
  1
500
 50
0.000000
 51
0.000000
  7
EASYDRAW_FONT
 72
     5
 11
857.338745
 21
124.761253
  0
LINE
  8
CSLAYER1
  6
CONTINUOUS
 62
     5
 10
539.838743
 20
391.602439
 11
539.838743
 21
94.761234
  0
LINE
  8
CSLAYER1
  6
CONTINUOUS
 62
     5
 10
1039.838743
 20
391.602439
 11
1039.838743
 21
94.761234
  0
LINE
  8
CSLAYER1
  6
CONTINUOUS
 62
     5
 10
539.838743
 20
109.761234
 11
1039.838743
 21
109.761234
  0
LINE
  8
CSLAYER1
  6
CONTINUOUS
 62
     5
 10
539.838743
 20
109.761234
 11
583.305406
 21
121.408091
  0
LINE
  8
CSLAYER1
  6
CONTINUOUS
 62
     5
 10
539.838743
 20
109.761234
 11
583.305406
 21
98.114377
  0
LINE
  8
CSLAYER1
  6
CONTINUOUS
 62
     5
 10
1039.838743
 20
109.761234
 11
996.372081
 21
121.408091
  0
LINE
  8
CSLAYER1
  6
CONTINUOUS
 62
     5
 10
1039.838743
 20
109.761234
 11
996.372081
 21
98.114377
  0
ENDBLK
  8
0
  0
BLOCK
  8
CSLAYER1
  2
EASYDRAWDIM0000
 70
   64
 10
0.0
 20
0.0
 30
0.0
  0
TEXT
  8
CSLAYER1
 62
     3
 10
1304.571732
 20
187.899933
 40
50.470764
 41
0.839416
  1
アンカーボルト取付穴
 50
0.000000
 51
0.000000
  7
EASYDRAW_FONT
 72
     5
 11
1714.109619
 21
187.899933
  0
ENDBLK
  8
0
  0
BLOCK
  8
CSLAYER1
  2
EASYDRAWDIM0001
 70
   64
 10
0.0
 20
0.0
 30
0.0
  0
TEXT
  8
CSLAYER1
 62
     3
 10
1308.934570
 20
259.145050
 40
60.000000
 41
0.803571
  1
4-%%c13
 50
0.000000
 51
0.000000
  7
EASYDRAW_FONT
 72
     5
 11
1533.934570
 21
259.145050
  0
LINE
  8
CSLAYER1
  6
CONTINUOUS
 62
     5
 10
1969.620161
 20
406.602439
 11
1757.803056
 21
249.496681
  0
LINE
  8
CSLAYER1
  6
CONTINUOUS
 62
     5
 10
1969.620161
 20
406.602439
 11
1941.646668
 21
371.353557
  0
LINE
  8
CSLAYER1
  6
CONTINUOUS
 62
     5
 10
1969.620161
 20
406.602439
 11
1927.769964
 21
390.062758
  0
LINE
  8
CSLAYER1
  6
CONTINUOUS
 62
     5
 10
1757.803056
 20
249.496681
 11
1288.627921
 21
249.496681
  0
ENDBLK
  8
0
  0
BLOCK
  8
CSLAYER1
  2
*D0010
 70
    65
 10
0.0
 20
0.0
 30
0.0
  0
TEXT
  8
CSLAYER1
 62
     3
 10
1149.459717
 20
468.918976
 40
60.000000
 41
1.125000
  1
6
 50
90.000000
 51
0.000000
  7
EASYDRAW_FONT
 72
     5
 11
1149.459717
 21
513.918976
  0
LINE
  8
CSLAYER1
  6
CONTINUOUS
 62
     5
 10
1054.838743
 20
406.602439
 11
1136.599562
 21
406.602439
  0
LINE
  8
CSLAYER1
  6
CONTINUOUS
 62
     5
 10
1050.158354
 20
412.602439
 11
1136.599562
 21
412.602439
  0
LINE
  8
CSLAYER1
  6
CONTINUOUS
 62
     5
 10
1121.599562
 20
406.602439
 11
1121.599562
 21
331.602439
  0
LINE
  8
CSLAYER1
  6
CONTINUOUS
 62
     5
 10
1121.599562
 20
406.602439
 11
1109.952705
 21
363.135777
  0
LINE
  8
CSLAYER1
  6
CONTINUOUS
 62
     5
 10
1121.599562
 20
406.602439
 11
1133.246419
 21
363.135777
  0
LINE
  8
CSLAYER1
  6
CONTINUOUS
 62
     5
 10
1121.599562
 20
412.602439
 11
1121.599562
 21
463.438569
  0
LINE
  8
CSLAYER1
  6
CONTINUOUS
 62
     5
 10
1121.599562
 20
412.602439
 11
1109.952705
 21
456.069101
  0
LINE
  8
CSLAYER1
  6
CONTINUOUS
 62
     5
 10
1121.599562
 20
412.602439
 11
1133.246419
 21
456.069101
  0
LINE
  8
CSLAYER1
  6
CONTINUOUS
 62
     5
 10
1121.599562
 20
406.602439
 11
1121.599562
 21
412.602439
  0
ENDBLK
  8
0
  0
BLOCK
  8
CSLAYER1
  2
BLKF0000
 70
   64
 10
0.0
 20
0.0
 30
0.0
  0
ARC
  8
CSLAYER1
  6
CONTINUOUS
 62
     5
 10
4169.771750
 20
120.742239
 40
5.323837
 50
6.429109
 51
73.182034
  0
ARC
  8
CSLAYER1
  6
CONTINUOUS
 62
     5
 10
4164.580294
 20
119.004650
 40
10.361631
 50
310.517970
 51
330.092764
  0
ARC
  8
CSLAYER1
  6
CONTINUOUS
 62
     5
 10
4164.489320
 20
119.552927
 40
10.722482
 50
-32.205059
 51
9.585194
  0
ARC
  8
CSLAYER1
  6
CONTINUOUS
 62
     5
 10
4169.428412
 20
115.411429
 40
7.151272
 50
180.000000
 51
218.514150
  0
ARC
  8
CSLAYER1
  6
CONTINUOUS
 62
     5
 10
4167.498330
 20
114.395718
 40
5.022423
 50
222.781148
 51
319.406906
  0
ARC
  8
CSLAYER1
  6
CONTINUOUS
 62
     5
 10
4172.096793
 20
116.030557
 40
9.839152
 50
94.574282
 51
183.607718
  0
LINE
  8
CSLAYER1
  6
CONTINUOUS
 62
     5
 10
4192.262653
 20
108.355309
 11
4190.977098
 21
103.797435
  0
LINE
  8
CSLAYER1
  6
CONTINUOUS
 62
     5
 10
4194.950630
 20
138.156795
 11
4191.795178
 21
142.247195
  0
LINE
  8
CSLAYER1
  6
CONTINUOUS
 62
     5
 10
4191.795178
 20
142.247195
 11
4181.665147
 21
147.884063
  0
LINE
  8
CSLAYER1
  6
CONTINUOUS
 62
     5
 10
4181.665147
 20
147.884063
 11
4171.312106
 21
149.088369
  0
LINE
  8
CSLAYER1
  6
CONTINUOUS
 62
     5
 10
4143.878268
 20
129.020359
 11
4147.098310
 21
136.466705
  0
LINE
  8
CSLAYER1
  6
CONTINUOUS
 62
     5
 10
4147.042813
 20
136.338369
 11
4150.318351
 21
140.290504
  0
LINE
  8
CSLAYER1
  6
CONTINUOUS
 62
     5
 10
4150.318351
 20
140.290504
 11
4155.274984
 21
143.838369
  0
LINE
  8
CSLAYER1
  6
CONTINUOUS
 62
     5
 10
4171.312106
 20
149.088369
 11
4169.034843
 21
147.938103
  0
LINE
  8
CSLAYER1
  6
CONTINUOUS
 62
     5
 10
4169.034843
 20
147.938103
 11
4163.802275
 21
147.938103
  0
LINE
  8
CSLAYER1
  6
CONTINUOUS
 62
     5
 10
4163.802275
 20
147.938103
 11
4158.469081
 21
145.019940
  0
LINE
  8
CSLAYER1
  6
CONTINUOUS
 62
     5
 10
4158.469081
 20
145.019940
 11
4155.274984
 21
143.838369
  0
LINE
  8
CSLAYER1
  6
CONTINUOUS
 62
     5
 10
4143.878268
 20
129.020359
 11
4141.601947
 21
117.697454
  0
LINE
  8
CSLAYER1
  6
CONTINUOUS
 62
     5
 10
4141.601947
 20
117.697454
 11
4141.312106
 21
113.838369
  0
LINE
  8
CSLAYER1
  6
CONTINUOUS
 62
     5
 10
4145.376180
 20
102.078696
 11
4141.312106
 21
111.222862
  0
LINE
  8
CSLAYER1
  6
CONTINUOUS
 62
     5
 10
4141.312106
 20
111.222862
 11
4141.312106
 21
113.838369
  0
LINE
  8
CSLAYER1
  6
CONTINUOUS
 62
     5
 10
4190.977098
 20
103.797435
 11
4188.448418
 21
99.292925
  0
LINE
  8
CSLAYER1
  6
CONTINUOUS
 62
     5
 10
4188.448418
 20
99.292925
 11
4186.312106
 21
97.314859
  0
ARC
  8
CSLAYER1
  6
CONTINUOUS
 62
     5
 10
4168.024189
 20
114.643510
 40
25.899940
 50
208.054813
 51
260.640470
  0
ARC
  8
CSLAYER1
  6
CONTINUOUS
 62
     5
 10
4160.234096
 20
133.757214
 40
44.811916
 50
274.579659
 51
305.587364
  0
ARC
  8
CSLAYER1
  6
CONTINUOUS
 62
     5
 10
4176.692620
 20
124.781631
 40
22.632940
 50
313.467013
 51
331.085078
  0
LINE
  8
CSLAYER1
  6
CONTINUOUS
 62
     5
 10
4198.879618
 20
119.108501
 11
4199.325560
 21
124.781631
  0
LINE
  8
CSLAYER1
  6
CONTINUOUS
 62
     5
 10
4199.325560
 20
124.781631
 11
4197.387563
 21
133.945105
  0
LINE
  8
CSLAYER1
  6
CONTINUOUS
 62
     5
 10
4198.879618
 20
119.108501
 11
4196.504106
 21
113.838369
  0
ARC
  8
CSLAYER1
  6
CONTINUOUS
 62
     5
 10
4176.692620
 20
124.781631
 40
22.632940
 50
23.883193
 51
36.225170
  0
LINE
  8
CSLAYER1
  6
CONTINUOUS
 62
     5
 10
4117.312106
 20
166.338369
 11
4118.812106
 21
167.977336
  0
LINE
  8
CSLAYER1
  6
CONTINUOUS
 62
     5
 10
4117.312106
 20
166.338369
 11
4119.677543
 21
164.170820
  0
LINE
  8
CSLAYER1
  6
CONTINUOUS
 62
     5
 10
4121.986362
 20
161.006882
 11
4122.025764
 21
157.754704
  0
LINE
  8
CSLAYER1
  6
CONTINUOUS
 62
     5
 10
4122.025764
 20
157.754704
 11
4122.336861
 21
156.614015
  0
LINE
  8
CSLAYER1
  6
CONTINUOUS
 62
     5
 10
4122.336861
 20
156.614015
 11
4123.218303
 21
155.525175
  0
LINE
  8
CSLAYER1
  6
CONTINUOUS
 62
     5
 10
4123.218303
 20
155.525175
 11
4124.099744
 21
155.628874
  0
LINE
  8
CSLAYER1
  6
CONTINUOUS
 62
     5
 10
4124.099744
 20
155.628874
 11
4125.033035
 21
155.888122
  0
LINE
  8
CSLAYER1
  6
CONTINUOUS
 62
     5
 10
4125.033035
 20
155.888122
 11
4125.655229
 21
155.628874
  0
LINE
  8
CSLAYER1
  6
CONTINUOUS
 62
     5
 10
4125.655229
 20
155.628874
 11
4127.003316
 21
154.954831
  0
LINE
  8
CSLAYER1
  6
CONTINUOUS
 62
     5
 10
4127.003316
 20
154.954831
 11
4128.167393
 21
154.338369
  0
LINE
  8
CSLAYER1
  6
CONTINUOUS
 62
     5
 10
4128.167393
 20
154.338369
 11
4128.921747
 21
154.384486
  0
LINE
  8
CSLAYER1
  6
CONTINUOUS
 62
     5
 10
4128.921747
 20
154.384486
 11
4133.133555
 21
156.554206
  0
LINE
  8
CSLAYER1
  6
CONTINUOUS
 62
     5
 10
4118.812106
 20
167.977336
 11
4119.311384
 21
170.187897
  0
LINE
  8
CSLAYER1
  6
CONTINUOUS
 62
     5
 10
4119.311384
 20
170.187897
 11
4121.491492
 21
170.413425
  0
LINE
  8
CSLAYER1
  6
CONTINUOUS
 62
     5
 10
4123.732129
 20
174.566113
 11
4126.363389
 21
174.801748
  0
LINE
  8
CSLAYER1
  6
CONTINUOUS
 62
     5
 10
4126.363389
 20
174.801748
 11
4131.665180
 21
176.058469
  0
LINE
  8
CSLAYER1
  6
CONTINUOUS
 62
     5
 10
4131.665180
 20
176.058469
 11
4133.812106
 21
176.555928
  0
LINE
  8
CSLAYER1
  6
CONTINUOUS
 62
     5
 10
4123.732129
 20
174.566113
 11
4120.832793
 21
174.804415
  0
LINE
  8
CSLAYER1
  6
CONTINUOUS
 62
     5
 10
4119.728608
 20
173.501384
 11
4119.868896
 21
172.944642
  0
LINE
  8
CSLAYER1
  6
CONTINUOUS
 62
     5
 10
4119.868896
 20
172.944642
 11
4120.606287
 21
172.138120
  0
LINE
  8
CSLAYER1
  6
CONTINUOUS
 62
     5
 10
4120.606287
 20
172.138120
 11
4121.620200
 21
171.377686
  0
LINE
  8
CSLAYER1
  6
CONTINUOUS
 62
     5
 10
4121.620200
 20
171.377686
 11
4121.805187
 21
171.131036
  0
LINE
  8
CSLAYER1
  6
CONTINUOUS
 62
     5
 10
4119.677543
 20
164.170820
 11
4121.986362
 21
161.006882
  0
ARC
  8
CSLAYER1
  6
CONTINUOUS
 62
     5
 10
4186.292157
 20
-91.149610
 40
271.091195
 50
80.438896
 51
96.353582
  0
ARC
  8
CSLAYER1
  6
CONTINUOUS
 62
     5
 10
4148.943787
 20
126.722240
 40
52.080363
 50
81.866516
 51
106.890578
  0
LINE
  8
CSLAYER1
  6
CONTINUOUS
 62
     5
 10
4237.603498
 20
174.988375
 11
4240.974122
 21
173.456273
  0
LINE
  8
CSLAYER1
  6
CONTINUOUS
 62
     5
 10
4246.336478
 20
171.081515
 11
4240.974122
 21
173.456273
  0
LINE
  8
CSLAYER1
  6
CONTINUOUS
 62
     5
 10
4237.603498
 20
174.988375
 11
4231.312106
 21
176.177232
  0
LINE
  8
CSLAYER1
  6
CONTINUOUS
 62
     5
 10
4246.312106
 20
171.092308
 11
4249.119469
 21
168.739593
  0
LINE
  8
CSLAYER1
  6
CONTINUOUS
 62
     5
 10
4221.176990
 20
172.647585
 11
4222.525902
 21
174.826597
  0
LINE
  8
CSLAYER1
  6
CONTINUOUS
 62
     5
 10
4222.525902
 20
174.826597
 11
4229.539300
 21
173.147333
  0
LINE
  8
CSLAYER1
  6
CONTINUOUS
 62
     5
 10
4229.539300
 20
173.147333
 11
4254.652879
 21
166.338369
  0
LINE
  8
CSLAYER1
  6
CONTINUOUS
 62
     5
 10
4259.062106
 20
166.338369
 11
4249.119469
 21
168.739593
  0
LINE
  8
CSLAYER1
  6
CONTINUOUS
 62
     5
 10
4254.652879
 20
166.338369
 11
4259.062106
 21
166.338369
  0
LINE
  8
CSLAYER1
  6
CONTINUOUS
 62
     5
 10
4171.312106
 20
173.035781
 11
4201.312106
 21
173.838369
  0
LINE
  8
CSLAYER1
  6
CONTINUOUS
 62
     5
 10
4201.312106
 20
173.838369
 11
4221.176990
 21
172.647585
  0
LINE
  8
CSLAYER1
  6
CONTINUOUS
 62
     5
 10
4223.581462
 20
169.556865
 11
4201.312106
 21
171.588369
  0
LINE
  8
CSLAYER1
  6
CONTINUOUS
 62
     5
 10
4201.312106
 20
171.588369
 11
4178.738292
 21
172.201347
  0
LINE
  8
CSLAYER1
  6
CONTINUOUS
 62
     5
 10
4178.812106
 20
172.199343
 11
4171.312106
 21
172.342284
  0
LINE
  8
CSLAYER1
  6
CONTINUOUS
 62
     5
 10
4171.312106
 20
173.035781
 11
4171.312106
 21
172.342284
  0
LINE
  8
CSLAYER1
  6
CONTINUOUS
 62
     5
 10
4257.562106
 20
161.088369
 11
4244.298268
 21
164.554363
  0
LINE
  8
CSLAYER1
  6
CONTINUOUS
 62
     5
 10
4223.581462
 20
169.556865
 11
4238.812106
 21
166.598290
  0
LINE
  8
CSLAYER1
  6
CONTINUOUS
 62
     5
 10
4238.812106
 20
166.598290
 11
4244.298268
 21
164.554363
  0
LINE
  8
CSLAYER1
  6
CONTINUOUS
 62
     5
 10
4257.562106
 20
161.088369
 11
4257.123180
 21
159.829711
  0
LINE
  8
CSLAYER1
  6
CONTINUOUS
 62
     5
 10
4271.812106
 20
152.838369
 11
4271.353065
 21
154.681841
  0
LINE
  8
CSLAYER1
  6
CONTINUOUS
 62
     5
 10
4257.123180
 20
159.829711
 11
4271.353065
 21
154.681841
  0
LINE
  8
CSLAYER1
  6
CONTINUOUS
 62
     5
 10
4176.562106
 20
161.088369
 11
4180.196663
 21
161.088369
  0
LINE
  8
CSLAYER1
  6
CONTINUOUS
 62
     5
 10
4210.312106
 20
161.737113
 11
4210.312106
 21
161.088369
  0
LINE
  8
CSLAYER1
  6
CONTINUOUS
 62
     5
 10
4208.812106
 20
162.538774
 11
4206.245187
 21
163.494542
  0
LINE
  8
CSLAYER1
  6
CONTINUOUS
 62
     5
 10
4206.245187
 20
163.494542
 11
4204.580103
 21
163.570227
  0
LINE
  8
CSLAYER1
  6
CONTINUOUS
 62
     5
 10
4204.580103
 20
163.570227
 11
4203.861090
 21
163.191799
  0
LINE
  8
CSLAYER1
  6
CONTINUOUS
 62
     5
 10
4203.861090
 20
163.191799
 11
4203.709718
 21
162.586314
  0
LINE
  8
CSLAYER1
  6
CONTINUOUS
 62
     5
 10
4203.709718
 20
162.586314
 11
4204.390889
 21
162.132200
  0
LINE
  8
CSLAYER1
  6
CONTINUOUS
 62
     5
 10
4204.390889
 20
162.132200
 11
4206.850672
 21
161.905143
  0
LINE
  8
CSLAYER1
  6
CONTINUOUS
 62
     5
 10
4206.850672
 20
161.905143
 11
4210.312106
 21
161.737113
  0
LINE
  8
CSLAYER1
  6
CONTINUOUS
 62
     5
 10
4271.812106
 20
152.838369
 11
4267.348792
 21
154.618242
  0
LINE
  8
CSLAYER1
  6
CONTINUOUS
 62
     5
 10
4267.348792
 20
154.618242
 11
4252.265258
 21
157.382555
  0
LINE
  8
CSLAYER1
  6
CONTINUOUS
 62
     5
 10
4252.265258
 20
157.382555
 11
4244.726588
 21
159.122248
  0
LINE
  8
CSLAYER1
  6
CONTINUOUS
 62
     5
 10
4211.113437
 20
162.588369
 11
4228.761936
 21
162.588369
  0
LINE
  8
CSLAYER1
  6
CONTINUOUS
 62
     5
 10
4208.812106
 20
162.538774
 11
4209.599096
 21
162.076073
  0
LINE
  8
CSLAYER1
  6
CONTINUOUS
 62
     5
 10
4209.599096
 20
162.076073
 11
4210.044314
 21
161.942508
  0
LINE
  8
CSLAYER1
  6
CONTINUOUS
 62
     5
 10
4210.044314
 20
161.942508
 11
4210.312106
 21
161.980263
  0
LINE
  8
CSLAYER1
  6
CONTINUOUS
 62
     5
 10
4210.312106
 20
161.980263
 11
4211.113437
 21
162.588369
  0
LINE
  8
CSLAYER1
  6
CONTINUOUS
 62
     5
 10
4228.761936
 20
162.588369
 11
4235.437340
 21
161.045131
  0
LINE
  8
CSLAYER1
  6
CONTINUOUS
 62
     5
 10
4235.437340
 20
161.045131
 11
4241.667127
 21
159.297408
  0
LINE
  8
CSLAYER1
  6
CONTINUOUS
 62
     5
 10
4241.667127
 20
159.297408
 11
4244.726588
 21
159.122248
  0
LINE
  8
CSLAYER1
  6
CONTINUOUS
 62
     5
 10
4175.062106
 20
159.588369
 11
4175.062106
 21
158.838369
  0
LINE
  8
CSLAYER1
  6
CONTINUOUS
 62
     5
 10
4171.312106
 20
158.838369
 11
4175.062106
 21
158.838369
  0
ARC
  8
CSLAYER1
  6
CONTINUOUS
 62
     5
 10
4176.562106
 20
159.588369
 40
1.500000
 50
90.000000
 51
180.000000
  0
LINE
  8
CSLAYER1
  6
CONTINUOUS
 62
     5
 10
4180.196663
 20
161.088369
 11
4181.242998
 21
160.230375
  0
LINE
  8
CSLAYER1
  6
CONTINUOUS
 62
     5
 10
4182.146550
 20
160.194434
 11
4183.432945
 21
161.088369
  0
LINE
  8
CSLAYER1
  6
CONTINUOUS
 62
     5
 10
4185.800540
 20
161.088369
 11
4188.301228
 21
160.101256
  0
LINE
  8
CSLAYER1
  6
CONTINUOUS
 62
     5
 10
4188.936791
 20
160.141024
 11
4190.667022
 21
161.088369
  0
LINE
  8
CSLAYER1
  6
CONTINUOUS
 62
     5
 10
4183.432945
 20
161.088369
 11
4185.800540
 21
161.088369
  0
LINE
  8
CSLAYER1
  6
CONTINUOUS
 62
     5
 10
4190.667022
 20
161.088369
 11
4210.312106
 21
161.088369
  0
LINE
  8
CSLAYER1
  6
CONTINUOUS
 62
     5
 10
4139.135581
 20
156.425130
 11
4171.312106
 21
158.838369
  0
LINE
  8
CSLAYER1
  6
CONTINUOUS
 62
     5
 10
4133.133555
 20
156.554206
 11
4139.135581
 21
156.425130
  0
ARC
  8
CSLAYER1
  6
CONTINUOUS
 62
     5
 10
4181.718558
 20
160.810325
 40
0.750000
 50
230.648247
 51
304.796026
  0
ARC
  8
CSLAYER1
  6
CONTINUOUS
 62
     5
 10
4188.576603
 20
160.798872
 40
0.750000
 50
248.459024
 51
298.701829
  0
ARC
  8
CSLAYER1
  6
CONTINUOUS
 62
     5
 10
4121.445187
 20
170.861036
 40
0.450000
 50
-84.093859
 51
36.869898
  0
ARC
  8
CSLAYER1
  6
CONTINUOUS
 62
     5
 10
4120.746781
 20
173.757944
 40
1.050000
 50
85.301319
 51
194.142980
  0
LINE
  8
CSLAYER1
  6
CONTINUOUS
 62
     3
 10
4169.034843
 20
147.938103
 11
4181.200586
 21
147.938103
  0
LINE
  8
CSLAYER1
  6
CONTINUOUS
 62
     3
 10
4159.416068
 20
145.538103
 11
4185.881079
 21
145.538103
  0
LINE
  8
CSLAYER1
  6
CONTINUOUS
 62
     3
 10
4154.296660
 20
143.138103
 11
4190.194126
 21
143.138103
  0
LINE
  8
CSLAYER1
  6
CONTINUOUS
 62
     3
 10
4150.943680
 20
140.738103
 11
4192.959335
 21
140.738103
  0
LINE
  8
CSLAYER1
  6
CONTINUOUS
 62
     3
 10
4148.700197
 20
138.338103
 11
4194.810764
 21
138.338103
  0
LINE
  8
CSLAYER1
  6
CONTINUOUS
 62
     3
 10
4146.869725
 20
135.938103
 11
4196.384829
 21
135.938103
  0
LINE
  8
CSLAYER1
  6
CONTINUOUS
 62
     3
 10
4145.831887
 20
133.538103
 11
4197.473641
 21
133.538103
  0
LINE
  8
CSLAYER1
  6
CONTINUOUS
 62
     3
 10
4144.794049
 20
131.138103
 11
4197.981220
 21
131.138103
  0
LINE
  8
CSLAYER1
  6
CONTINUOUS
 62
     3
 10
4143.821524
 20
128.738103
 11
4198.488800
 21
128.738103
  0
LINE
  8
CSLAYER1
  6
CONTINUOUS
 62
     3
 10
4143.339036
 20
126.338103
 11
4198.996379
 21
126.338103
  0
LINE
  8
CSLAYER1
  6
CONTINUOUS
 62
     3
 10
4142.856547
 20
123.938103
 11
4166.241912
 21
123.938103
  0
LINE
  8
CSLAYER1
  6
CONTINUOUS
 62
     3
 10
4142.374059
 20
121.538103
 11
4163.943521
 21
121.538103
  0
LINE
  8
CSLAYER1
  6
CONTINUOUS
 62
     3
 10
4141.891571
 20
119.138103
 11
4162.761266
 21
119.138103
  0
LINE
  8
CSLAYER1
  6
CONTINUOUS
 62
     3
 10
4141.529894
 20
116.738103
 11
4162.283115
 21
116.738103
  0
LINE
  8
CSLAYER1
  6
CONTINUOUS
 62
     3
 10
4141.349639
 20
114.338103
 11
4162.358146
 21
114.338103
  0
LINE
  8
CSLAYER1
  6
CONTINUOUS
 62
     3
 10
4141.312106
 20
111.938103
 11
4163.177277
 21
111.938103
  0
LINE
  8
CSLAYER1
  6
CONTINUOUS
 62
     3
 10
4142.060888
 20
109.538103
 11
4166.222280
 21
109.538103
  0
LINE
  8
CSLAYER1
  6
CONTINUOUS
 62
     3
 10
4143.127555
 20
107.138103
 11
4191.919338
 21
107.138103
  0
LINE
  8
CSLAYER1
  6
CONTINUOUS
 62
     3
 10
4144.194221
 20
104.738103
 11
4191.242415
 21
104.738103
  0
LINE
  8
CSLAYER1
  6
CONTINUOUS
 62
     3
 10
4145.260888
 20
102.338103
 11
4190.157878
 21
102.338103
  0
LINE
  8
CSLAYER1
  6
CONTINUOUS
 62
     3
 10
4146.703826
 20
99.938103
 11
4188.810599
 21
99.938103
  0
LINE
  8
CSLAYER1
  6
CONTINUOUS
 62
     3
 10
4148.576518
 20
97.538103
 11
4186.553209
 21
97.538103
  0
LINE
  8
CSLAYER1
  6
CONTINUOUS
 62
     3
 10
4150.984648
 20
95.138103
 11
4182.964518
 21
95.138103
  0
LINE
  8
CSLAYER1
  6
CONTINUOUS
 62
     3
 10
4154.205361
 20
92.738103
 11
4178.276833
 21
92.738103
  0
LINE
  8
CSLAYER1
  6
CONTINUOUS
 62
     3
 10
4159.076897
 20
90.338103
 11
4171.319610
 21
90.338103
  0
LINE
  8
CSLAYER1
  6
CONTINUOUS
 62
     3
 10
4174.029648
 20
123.938103
 11
4199.259253
 21
123.938103
  0
LINE
  8
CSLAYER1
  6
CONTINUOUS
 62
     3
 10
4175.035764
 20
121.538103
 11
4199.070599
 21
121.538103
  0
LINE
  8
CSLAYER1
  6
CONTINUOUS
 62
     3
 10
4175.203774
 20
119.138103
 11
4198.881945
 21
119.138103
  0
LINE
  8
CSLAYER1
  6
CONTINUOUS
 62
     3
 10
4174.835739
 20
116.738103
 11
4197.811161
 21
116.738103
  0
LINE
  8
CSLAYER1
  6
CONTINUOUS
 62
     3
 10
4173.858270
 20
114.338103
 11
4196.729361
 21
114.338103
  0
LINE
  8
CSLAYER1
  6
CONTINUOUS
 62
     3
 10
4172.158375
 20
111.938103
 11
4195.328439
 21
111.938103
  0
LINE
  8
CSLAYER1
  6
CONTINUOUS
 62
     3
 10
4168.774380
 20
109.538103
 11
4193.422378
 21
109.538103
  0
TEXT
  8
CSLAYER1
 62
     5
 10
4200.069867
 20
120.954866
 40
7.070172
 41
1.951056
  1
M
 50
0.000000
 51
0.000000
  7
EASYDRAW_FONT
 72
     5
 11
4209.266070
 21
120.954866
  0
TEXT
  8
CSLAYER1
 62
     5
 10
4214.546948
 20
120.867460
 40
6.939931
 41
0.778201
  1
T
 50
0.000000
 51
0.000000
  7
EASYDRAW_FONT
 72
     5
 11
4218.147388
 21
120.867460
  0
TEXT
  8
CSLAYER1
 62
     5
 10
4218.695292
 20
120.919658
 40
7.044274
 41
1.055553
  1
E
 50
0.000000
 51
0.000000
  7
EASYDRAW_FONT
 72
     5
 11
4223.652364
 21
120.919658
  0
TEXT
  8
CSLAYER1
 62
     5
 10
4223.369808
 20
123.343425
 40
0.522425
 41
9.375319
  1
-
 50
0.000000
 51
0.000000
  7
EASYDRAW_FONT
 72
     5
 11
4226.635075
 21
123.343425
  0
TEXT
  8
CSLAYER1
 62
     5
 10
4226.090633
 20
120.872638
 40
7.292489
 41
1.298502
  1
H
 50
0.000000
 51
0.000000
  7
EASYDRAW_FONT
 72
     5
 11
4232.403507
 21
120.872638
  0
TEXT
  8
CSLAYER1
 62
     5
 10
4232.204778
 20
120.918206
 40
7.264708
 41
1.269236
  1
A
 50
0.000000
 51
0.000000
  7
EASYDRAW_FONT
 72
     5
 11
4238.351862
 21
120.918206
  0
TEXT
  8
CSLAYER1
 62
     5
 10
4237.764134
 20
120.855916
 40
7.238043
 41
1.490144
  1
N
 50
0.000000
 51
0.000000
  7
EASYDRAW_FONT
 72
     5
 11
4244.954616
 21
120.855916
  0
TEXT
  8
CSLAYER1
 62
     5
 10
4208.951077
 20
120.822056
 40
7.473487
 41
1.177443
  1
A
 50
0.000000
 51
0.000000
  7
EASYDRAW_FONT
 72
     5
 11
4214.817478
 21
120.822056
  0
TEXT
  8
CSLAYER1
 62
     5
 10
4200.620022
 20
110.329197
 40
7.473487
 41
1.177443
  1
A
 50
0.000000
 51
0.000000
  7
EASYDRAW_FONT
 72
     5
 11
4206.486423
 21
110.329197
  0
TEXT
  8
CSLAYER1
 62
     5
 10
4219.797268
 20
110.371678
 40
7.473487
 41
1.177443
  1
A
 50
0.000000
 51
0.000000
  7
EASYDRAW_FONT
 72
     5
 11
4225.663670
 21
110.371678
  0
TEXT
  8
CSLAYER1
 62
     5
 10
4225.437962
 20
110.457173
 40
7.238043
 41
1.490144
  1
N
 50
0.000000
 51
0.000000
  7
EASYDRAW_FONT
 72
     5
 11
4232.628444
 21
110.457173
  0
TEXT
  8
CSLAYER1
 62
     5
 10
4238.791344
 20
110.469766
 40
7.262663
 41
1.184218
  1
E
 50
0.000000
 51
0.000000
  7
EASYDRAW_FONT
 72
     5
 11
4244.525062
 21
110.469766
  0
TEXT
  8
CSLAYER1
 62
     5
 10
4207.041096
 20
110.327210
 40
7.421797
 41
1.093992
  1
D
 50
0.000000
 51
0.000000
  7
EASYDRAW_FONT
 72
     5
 11
4212.454021
 21
110.327210
  0
TEXT
  8
CSLAYER1
 62
     5
 10
4213.645000
 20
110.319133
 40
7.386315
 41
1.228195
  1
V
 50
0.000000
 51
0.000000
  7
EASYDRAW_FONT
 72
     5
 11
4219.692891
 21
110.319133
  0
TEXT
  8
CSLAYER1
 62
     5
 10
4231.982558
 20
110.350231
 40
7.549340
 41
1.481023
  1
C
 50
0.000000
 51
0.000000
  7
EASYDRAW_FONT
 72
     5
 11
4239.436388
 21
110.350231
  0
LINE
  8
CSLAYER1
  6
CONTINUOUS
 62
     5
 10
4217.928111
 20
126.940827
 11
4216.410018
 21
126.940827
  0
LINE
  8
CSLAYER1
  6
CONTINUOUS
 62
     3
 10
4141.575468
 20
178.278734
 11
4216.272208
 21
178.278734
  0
LINE
  8
CSLAYER1
  6
CONTINUOUS
 62
     3
 10
4130.906922
 20
175.878734
 11
4232.891745
 21
175.878734
  0
LINE
  8
CSLAYER1
  6
CONTINUOUS
 62
     3
 10
4119.734315
 20
173.478734
 11
4187.869281
 21
173.478734
  0
LINE
  8
CSLAYER1
  6
CONTINUOUS
 62
     3
 10
4207.311605
 20
173.478734
 11
4221.691511
 21
173.478734
  0
LINE
  8
CSLAYER1
  6
CONTINUOUS
 62
     3
 10
4228.155211
 20
173.478734
 11
4240.924707
 21
173.478734
  0
LINE
  8
CSLAYER1
  6
CONTINUOUS
 62
     3
 10
4121.839024
 20
171.078734
 11
4206.898728
 21
171.078734
  0
LINE
  8
CSLAYER1
  6
CONTINUOUS
 62
     3
 10
4237.168936
 20
171.078734
 11
4246.328303
 21
171.078734
  0
LINE
  8
CSLAYER1
  6
CONTINUOUS
 62
     3
 10
4118.970524
 20
168.678734
 11
4228.102050
 21
168.678734
  0
LINE
  8
CSLAYER1
  6
CONTINUOUS
 62
     3
 10
4246.020884
 20
168.678734
 11
4249.371466
 21
168.678734
  0
LINE
  8
CSLAYER1
  6
CONTINUOUS
 62
     3
 10
4117.377186
 20
166.278734
 11
4239.669834
 21
166.278734
  0
LINE
  8
CSLAYER1
  6
CONTINUOUS
 62
     3
 10
4119.890686
 20
163.878734
 11
4246.883797
 21
163.878734
  0
LINE
  8
CSLAYER1
  6
CONTINUOUS
 62
     3
 10
4121.642038
 20
161.478734
 11
4210.312106
 21
161.478734
  0
LINE
  8
CSLAYER1
  6
CONTINUOUS
 62
     3
 10
4233.561753
 20
161.478734
 11
4256.068238
 21
161.478734
  0
LINE
  8
CSLAYER1
  6
CONTINUOUS
 62
     3
 10
4122.009723
 20
159.078734
 11
4175.062106
 21
159.078734
  0
LINE
  8
CSLAYER1
  6
CONTINUOUS
 62
     3
 10
4244.915147
 20
159.078734
 11
4259.199051
 21
159.078734
  0
LINE
  8
CSLAYER1
  6
CONTINUOUS
 62
     3
 10
4122.319210
 20
156.678734
 11
4142.516971
 21
156.678734
  0
LINE
  8
CSLAYER1
  6
CONTINUOUS
 62
     3
 10
4256.105670
 20
156.678734
 11
4265.833197
 21
156.678734
  0
LINE
  8
CSLAYER1
  6
CONTINUOUS
 62
     3
 10
4268.200161
 20
154.278734
 11
4271.453442
 21
154.278734
  0
ENDBLK
  8
0
  0
BLOCK
  8
CSLAYER1
  2
BLKF0001
 70
   64
 10
0.0
 20
0.0
 30
0.0
  0
LINE
  8
CSLAYER1
  6
CONTINUOUS
 62
     3
 10
810.838743
 20
1367.403041
 11
825.838743
 21
1367.403041
  0
LINE
  8
CSLAYER1
  6
CONTINUOUS
 62
     3
 10
768.838743
 20
1367.403041
 11
753.838743
 21
1367.403041
  0
LINE
  8
CSLAYER1
  6
CONTINUOUS
 62
     3
 10
789.838743
 20
1339.128247
 11
792.475205
 21
1339.190941
  0
LINE
  8
CSLAYER1
  6
CONTINUOUS
 62
     3
 10
792.475205
 20
1339.190941
 11
795.091601
 21
1339.378545
  0
LINE
  8
CSLAYER1
  6
CONTINUOUS
 62
     3
 10
795.091601
 20
1339.378545
 11
797.668020
 21
1339.689631
  0
LINE
  8
CSLAYER1
  6
CONTINUOUS
 62
     3
 10
797.668020
 20
1339.689631
 11
800.184853
 21
1340.121831
  0
LINE
  8
CSLAYER1
  6
CONTINUOUS
 62
     3
 10
800.184853
 20
1340.121831
 11
802.622946
 21
1340.671858
  0
LINE
  8
CSLAYER1
  6
CONTINUOUS
 62
     3
 10
802.622946
 20
1340.671858
 11
804.963743
 21
1341.335523
  0
LINE
  8
CSLAYER1
  6
CONTINUOUS
 62
     3
 10
804.963743
 20
1341.335523
 11
807.189431
 21
1342.107777
  0
LINE
  8
CSLAYER1
  6
CONTINUOUS
 62
     3
 10
807.189431
 20
1342.107777
 11
809.283069
 21
1342.982743
  0
LINE
  8
CSLAYER1
  6
CONTINUOUS
 62
     3
 10
809.283069
 20
1342.982743
 11
811.228724
 21
1343.953760
  0
LINE
  8
CSLAYER1
  6
CONTINUOUS
 62
     3
 10
811.228724
 20
1343.953760
 11
813.011588
 21
1345.013440
  0
LINE
  8
CSLAYER1
  6
CONTINUOUS
 62
     3
 10
813.011588
 20
1345.013440
 11
814.618093
 21
1346.153717
  0
LINE
  8
CSLAYER1
  6
CONTINUOUS
 62
     3
 10
814.618093
 20
1346.153717
 11
816.036012
 21
1347.365913
  0
LINE
  8
CSLAYER1
  6
CONTINUOUS
 62
     3
 10
816.036012
 20
1347.365913
 11
817.254554
 21
1348.640803
  0
LINE
  8
CSLAYER1
  6
CONTINUOUS
 62
     3
 10
817.254554
 20
1348.640803
 11
818.264445
 21
1349.968683
  0
LINE
  8
CSLAYER1
  6
CONTINUOUS
 62
     3
 10
818.264445
 20
1349.968683
 11
819.058000
 21
1351.339449
  0
LINE
  8
CSLAYER1
  6
CONTINUOUS
 62
     3
 10
819.058000
 20
1351.339449
 11
819.629178
 21
1352.742667
  0
LINE
  8
CSLAYER1
  6
CONTINUOUS
 62
     3
 10
819.629178
 20
1352.742667
 11
819.973633
 21
1354.167658
  0
LINE
  8
CSLAYER1
  6
CONTINUOUS
 62
     3
 10
820.088743
 20
1363.974853
 11
819.973633
 21
1365.410773
  0
LINE
  8
CSLAYER1
  6
CONTINUOUS
 62
     3
 10
819.973633
 20
1365.410773
 11
819.629178
 21
1366.835764
  0
LINE
  8
CSLAYER1
  6
CONTINUOUS
 62
     3
 10
819.629178
 20
1366.835764
 11
819.398269
 21
1367.403041
  0
LINE
  8
CSLAYER1
  6
CONTINUOUS
 62
     3
 10
809.838743
 20
1351.631338
 11
811.228724
 21
1352.325035
  0
LINE
  8
CSLAYER1
  6
CONTINUOUS
 62
     3
 10
811.228724
 20
1352.325035
 11
813.011588
 21
1353.384715
  0
LINE
  8
CSLAYER1
  6
CONTINUOUS
 62
     3
 10
813.011588
 20
1353.384715
 11
814.618093
 21
1354.524992
  0
LINE
  8
CSLAYER1
  6
CONTINUOUS
 62
     3
 10
814.618093
 20
1354.524992
 11
816.036012
 21
1355.737188
  0
LINE
  8
CSLAYER1
  6
CONTINUOUS
 62
     3
 10
816.036012
 20
1355.737188
 11
817.254554
 21
1357.012078
  0
LINE
  8
CSLAYER1
  6
CONTINUOUS
 62
     3
 10
817.254554
 20
1357.012078
 11
818.264445
 21
1358.339958
  0
LINE
  8
CSLAYER1
  6
CONTINUOUS
 62
     3
 10
818.264445
 20
1358.339958
 11
819.058000
 21
1359.710724
  0
LINE
  8
CSLAYER1
  6
CONTINUOUS
 62
     3
 10
819.058000
 20
1359.710724
 11
819.629178
 21
1361.113942
  0
LINE
  8
CSLAYER1
  6
CONTINUOUS
 62
     3
 10
819.629178
 20
1361.113942
 11
819.973633
 21
1362.538934
  0
LINE
  8
CSLAYER1
  6
CONTINUOUS
 62
     3
 10
819.973633
 20
1362.538934
 11
820.088743
 21
1363.974853
  0
LINE
  8
CSLAYER1
  6
CONTINUOUS
 62
     3
 10
789.838743
 20
1339.128247
 11
787.202282
 21
1339.190941
  0
LINE
  8
CSLAYER1
  6
CONTINUOUS
 62
     3
 10
787.202282
 20
1339.190941
 11
784.585886
 21
1339.378545
  0
LINE
  8
CSLAYER1
  6
CONTINUOUS
 62
     3
 10
784.585886
 20
1339.378545
 11
782.009467
 21
1339.689631
  0
LINE
  8
CSLAYER1
  6
CONTINUOUS
 62
     3
 10
782.009467
 20
1339.689631
 11
779.492634
 21
1340.121831
  0
LINE
  8
CSLAYER1
  6
CONTINUOUS
 62
     3
 10
779.492634
 20
1340.121831
 11
777.054541
 21
1340.671858
  0
LINE
  8
CSLAYER1
  6
CONTINUOUS
 62
     3
 10
777.054541
 20
1340.671858
 11
774.713743
 21
1341.335523
  0
LINE
  8
CSLAYER1
  6
CONTINUOUS
 62
     3
 10
774.713743
 20
1341.335523
 11
772.488056
 21
1342.107777
  0
LINE
  8
CSLAYER1
  6
CONTINUOUS
 62
     3
 10
772.488056
 20
1342.107777
 11
770.394418
 21
1342.982743
  0
LINE
  8
CSLAYER1
  6
CONTINUOUS
 62
     3
 10
770.394418
 20
1342.982743
 11
768.448763
 21
1343.953760
  0
LINE
  8
CSLAYER1
  6
CONTINUOUS
 62
     3
 10
768.448763
 20
1343.953760
 11
766.665899
 21
1345.013440
  0
LINE
  8
CSLAYER1
  6
CONTINUOUS
 62
     3
 10
766.665899
 20
1345.013440
 11
765.059394
 21
1346.153717
  0
LINE
  8
CSLAYER1
  6
CONTINUOUS
 62
     3
 10
765.059394
 20
1346.153717
 11
763.641475
 21
1347.365913
  0
LINE
  8
CSLAYER1
  6
CONTINUOUS
 62
     3
 10
763.641475
 20
1347.365913
 11
762.422933
 21
1348.640803
  0
LINE
  8
CSLAYER1
  6
CONTINUOUS
 62
     3
 10
762.422933
 20
1348.640803
 11
761.413042
 21
1349.968683
  0
LINE
  8
CSLAYER1
  6
CONTINUOUS
 62
     3
 10
761.413042
 20
1349.968683
 11
760.619487
 21
1351.339449
  0
LINE
  8
CSLAYER1
  6
CONTINUOUS
 62
     3
 10
760.619487
 20
1351.339449
 11
760.048309
 21
1352.742667
  0
LINE
  8
CSLAYER1
  6
CONTINUOUS
 62
     3
 10
760.048309
 20
1352.742667
 11
759.703854
 21
1354.167658
  0
LINE
  8
CSLAYER1
  6
CONTINUOUS
 62
     3
 10
759.588743
 20
1363.974853
 11
759.703854
 21
1365.410773
  0
LINE
  8
CSLAYER1
  6
CONTINUOUS
 62
     3
 10
759.703854
 20
1365.410773
 11
760.048309
 21
1366.835764
  0
LINE
  8
CSLAYER1
  6
CONTINUOUS
 62
     3
 10
760.048309
 20
1366.835764
 11
760.279218
 21
1367.403041
  0
LINE
  8
CSLAYER1
  6
CONTINUOUS
 62
     3
 10
769.838743
 20
1351.631338
 11
768.448763
 21
1352.325035
  0
LINE
  8
CSLAYER1
  6
CONTINUOUS
 62
     3
 10
768.448763
 20
1352.325035
 11
766.665899
 21
1353.384715
  0
LINE
  8
CSLAYER1
  6
CONTINUOUS
 62
     3
 10
766.665899
 20
1353.384715
 11
765.059394
 21
1354.524992
  0
LINE
  8
CSLAYER1
  6
CONTINUOUS
 62
     3
 10
765.059394
 20
1354.524992
 11
763.641475
 21
1355.737188
  0
LINE
  8
CSLAYER1
  6
CONTINUOUS
 62
     3
 10
763.641475
 20
1355.737188
 11
762.422933
 21
1357.012078
  0
LINE
  8
CSLAYER1
  6
CONTINUOUS
 62
     3
 10
762.422933
 20
1357.012078
 11
761.413042
 21
1358.339958
  0
LINE
  8
CSLAYER1
  6
CONTINUOUS
 62
     3
 10
761.413042
 20
1358.339958
 11
760.619487
 21
1359.710724
  0
LINE
  8
CSLAYER1
  6
CONTINUOUS
 62
     3
 10
760.619487
 20
1359.710724
 11
760.048309
 21
1361.113942
  0
LINE
  8
CSLAYER1
  6
CONTINUOUS
 62
     3
 10
760.048309
 20
1361.113942
 11
759.703854
 21
1362.538934
  0
LINE
  8
CSLAYER1
  6
CONTINUOUS
 62
     3
 10
759.703854
 20
1362.538934
 11
759.588743
 21
1363.974853
  0
ENDBLK
  8
0
  0
BLOCK
  8
CSLAYER1
  2
BLKF0002
 70
   64
 10
0.0
 20
0.0
 30
0.0
  0
LINE
  8
CSLAYER1
  6
CONTINUOUS
 62
     3
 10
1388.943462
 20
3358.714678
 11
1383.872834
 21
3360.624395
  0
LINE
  8
CSLAYER1
  6
CONTINUOUS
 62
     3
 10
1383.872834
 20
3360.624395
 11
1377.448203
 21
3360.802857
  0
LINE
  8
CSLAYER1
  6
CONTINUOUS
 62
     3
 10
1389.997792
 20
3360.103780
 11
1384.348733
 21
3362.468503
  0
LINE
  8
CSLAYER1
  6
CONTINUOUS
 62
     3
 10
1384.348733
 20
3362.468503
 11
1378.994873
 21
3363.777224
  0
LINE
  8
CSLAYER1
  6
CONTINUOUS
 62
     3
 10
1390.839987
 20
3361.213390
 11
1385.954891
 21
3364.074661
  0
LINE
  8
CSLAYER1
  6
CONTINUOUS
 62
     3
 10
1385.954891
 20
3364.074661
 11
1383.634885
 21
3367.405951
  0
LINE
  8
CSLAYER1
  6
CONTINUOUS
 62
     3
 10
1387.759709
 20
3357.155058
 11
1391.991760
 21
3362.730876
  0
LINE
  8
CSLAYER1
  6
CONTINUOUS
 62
     3
 10
1387.759709
 20
3357.155058
 11
1575.493637
 21
3214.664807
  0
LINE
  8
CSLAYER1
  6
CONTINUOUS
 62
     3
 10
1391.991760
 20
3362.730876
 11
1579.725688
 21
3220.240625
  0
ARC
  8
CSLAYER1
  6
CONTINUOUS
 62
     3
 10
1603.908839
 20
3252.102439
 40
47.000000
 50
0.000000
 51
190.756396
  0
ARC
  8
CSLAYER1
  6
CONTINUOUS
 62
     3
 10
1603.908839
 20
3252.102439
 40
40.000000
 50
0.000000
 51
203.471057
  0
ARC
  8
CSLAYER1
  6
CONTINUOUS
 62
     3
 10
1603.908839
 20
3252.102439
 40
40.000000
 50
232.801463
 51
360.000000
  0
ARC
  8
CSLAYER1
  6
CONTINUOUS
 62
     3
 10
1603.908839
 20
3252.102439
 40
47.000000
 50
232.801463
 51
360.000000
  0
LINE
  8
CSLAYER1
  6
CONTINUOUS
 62
     3
 10
1919.420161
 20
3212.102439
 11
1635.443780
 21
3212.102439
  0
LINE
  8
CSLAYER1
  6
CONTINUOUS
 62
     3
 10
1919.420161
 20
3205.102439
 11
1625.561989
 21
3205.102439
  0
ENDBLK
  8
0
  0
BLOCK
  8
CSLAYER1
  2
BLKF0003
 70
   64
 10
0.0
 20
0.0
 30
0.0
  0
LINE
  8
CSLAYER1
  6
CONTINUOUS
 62
     4
 10
1978.574867
 20
2095.847855
 11
1985.880113
 21
2100.193357
  0
LINE
  8
CSLAYER1
  6
CONTINUOUS
 62
     4
 10
1982.153515
 20
2089.831771
 11
1990.588887
 21
2094.849524
  0
LINE
  8
CSLAYER1
  6
CONTINUOUS
 62
     4
 10
1987.398363
 20
2100.213130
 11
1990.588887
 21
2094.849524
  0
LINE
  8
CSLAYER1
  6
CONTINUOUS
 62
     4
 10
1983.180677
 20
2097.704254
 11
1986.371201
 21
2092.340647
  0
LINE
  8
CSLAYER1
  6
CONTINUOUS
 62
     4
 10
1985.880113
 20
2100.193357
 11
1987.398363
 21
2100.213130
  0
ARC
  8
CSLAYER1
  6
CONTINUOUS
 62
     4
 10
1986.877746
 20
2081.889842
 40
16.240811
 50
103.158205
 51
120.746159
  0
ARC
  8
CSLAYER1
  6
CONTINUOUS
 62
     4
 10
1987.049955
 20
2095.999215
 40
4.228294
 50
96.218799
 51
156.218799
  0
LINE
  8
CSLAYER1
  6
CONTINUOUS
 62
     4
 10
1978.574867
 20
2095.847855
 11
1971.269621
 21
2091.502354
  0
LINE
  8
CSLAYER1
  6
CONTINUOUS
 62
     4
 10
1982.153515
 20
2089.831771
 11
1973.718144
 21
2084.814018
  0
LINE
  8
CSLAYER1
  6
CONTINUOUS
 62
     4
 10
1970.527620
 20
2090.177624
 11
1973.718144
 21
2084.814018
  0
LINE
  8
CSLAYER1
  6
CONTINUOUS
 62
     4
 10
1974.745306
 20
2092.686501
 11
1977.935830
 21
2087.322894
  0
LINE
  8
CSLAYER1
  6
CONTINUOUS
 62
     4
 10
1971.269621
 20
2091.502354
 11
1970.527620
 21
2090.177624
  0
ARC
  8
CSLAYER1
  6
CONTINUOUS
 62
     4
 10
1986.877746
 20
2081.889842
 40
16.240811
 50
120.746159
 51
138.334113
  0
ARC
  8
CSLAYER1
  6
CONTINUOUS
 62
     4
 10
1974.396898
 20
2088.472586
 40
4.228294
 50
85.273519
 51
145.273519
  0
ENDBLK
  8
0
  0
BLOCK
  8
CSLAYER1
  2
BLKF0004
 70
   64
 10
0.0
 20
0.0
 30
0.0
  0
LINE
  8
CSLAYER1
  6
CONTINUOUS
 62
     4
 10
1987.589933
 20
2080.692579
 11
1994.895179
 21
2085.038081
  0
LINE
  8
CSLAYER1
  6
CONTINUOUS
 62
     4
 10
1996.413429
 20
2085.057854
 11
1999.727064
 21
2079.487285
  0
LINE
  8
CSLAYER1
  6
CONTINUOUS
 62
     4
 10
1992.195743
 20
2082.548978
 11
1995.509378
 21
2076.978409
  0
LINE
  8
CSLAYER1
  6
CONTINUOUS
 62
     4
 10
1994.895179
 20
2085.038081
 11
1996.413429
 21
2085.057854
  0
ARC
  8
CSLAYER1
  6
CONTINUOUS
 62
     4
 10
1995.892812
 20
2066.734566
 40
16.240811
 50
103.158205
 51
120.746159
  0
ARC
  8
CSLAYER1
  6
CONTINUOUS
 62
     4
 10
1996.065021
 20
2080.843939
 40
4.228294
 50
96.218799
 51
156.218799
  0
LINE
  8
CSLAYER1
  6
CONTINUOUS
 62
     4
 10
1987.589933
 20
2080.692579
 11
1980.284687
 21
2076.347078
  0
LINE
  8
CSLAYER1
  6
CONTINUOUS
 62
     4
 10
1979.542686
 20
2075.022348
 11
1982.856321
 21
2069.451779
  0
LINE
  8
CSLAYER1
  6
CONTINUOUS
 62
     4
 10
1983.760372
 20
2077.531225
 11
1987.074007
 21
2071.960656
  0
LINE
  8
CSLAYER1
  6
CONTINUOUS
 62
     4
 10
1980.284687
 20
2076.347078
 11
1979.542686
 21
2075.022348
  0
ARC
  8
CSLAYER1
  6
CONTINUOUS
 62
     4
 10
1995.892812
 20
2066.734566
 40
16.240811
 50
120.746159
 51
138.334113
  0
ARC
  8
CSLAYER1
  6
CONTINUOUS
 62
     4
 10
1983.411964
 20
2073.317310
 40
4.228294
 50
85.273519
 51
145.273519
  0
LINE
  8
CSLAYER1
  6
CONTINUOUS
 62
     4
 10
1991.679817
 20
2073.817054
 11
1998.985063
 21
2078.162556
  0
LINE
  8
CSLAYER1
  6
CONTINUOUS
 62
     4
 10
1998.985063
 20
2078.162556
 11
1999.727064
 21
2079.487285
  0
ARC
  8
CSLAYER1
  6
CONTINUOUS
 62
     4
 10
1983.376939
 20
2087.775067
 40
16.240811
 50
300.746159
 51
318.334113
  0
ARC
  8
CSLAYER1
  6
CONTINUOUS
 62
     4
 10
1995.857786
 20
2081.192324
 40
4.228294
 50
265.273519
 51
325.273519
  0
LINE
  8
CSLAYER1
  6
CONTINUOUS
 62
     4
 10
1991.679817
 20
2073.817054
 11
1984.374571
 21
2069.471552
  0
LINE
  8
CSLAYER1
  6
CONTINUOUS
 62
     4
 10
1984.374571
 20
2069.471552
 11
1982.856321
 21
2069.451779
  0
ARC
  8
CSLAYER1
  6
CONTINUOUS
 62
     4
 10
1983.376939
 20
2087.775067
 40
16.240811
 50
283.158205
 51
300.746159
  0
ARC
  8
CSLAYER1
  6
CONTINUOUS
 62
     4
 10
1983.204729
 20
2073.665694
 40
4.228294
 50
276.218799
 51
336.218799
  0
ENDBLK
  8
0
  0
BLOCK
  8
CSLAYER1
  2
BLKF0005
 70
   64
 10
0.0
 20
0.0
 30
0.0
  0
LINE
  8
CSLAYER1
  6
CONTINUOUS
 62
     4
 10
1962.078521
 20
1326.706966
 11
1969.383767
 21
1331.052468
  0
LINE
  8
CSLAYER1
  6
CONTINUOUS
 62
     4
 10
1965.657169
 20
1320.690881
 11
1974.092540
 21
1325.708634
  0
LINE
  8
CSLAYER1
  6
CONTINUOUS
 62
     4
 10
1970.902017
 20
1331.072241
 11
1974.092540
 21
1325.708634
  0
LINE
  8
CSLAYER1
  6
CONTINUOUS
 62
     4
 10
1966.684331
 20
1328.563364
 11
1969.874855
 21
1323.199758
  0
LINE
  8
CSLAYER1
  6
CONTINUOUS
 62
     4
 10
1969.383767
 20
1331.052468
 11
1970.902017
 21
1331.072241
  0
ARC
  8
CSLAYER1
  6
CONTINUOUS
 62
     4
 10
1970.381399
 20
1312.748953
 40
16.240811
 50
103.158205
 51
120.746159
  0
ARC
  8
CSLAYER1
  6
CONTINUOUS
 62
     4
 10
1970.553609
 20
1326.858326
 40
4.228294
 50
96.218799
 51
156.218799
  0
LINE
  8
CSLAYER1
  6
CONTINUOUS
 62
     4
 10
1962.078521
 20
1326.706966
 11
1954.773275
 21
1322.361465
  0
LINE
  8
CSLAYER1
  6
CONTINUOUS
 62
     4
 10
1965.657169
 20
1320.690881
 11
1957.221798
 21
1315.673128
  0
LINE
  8
CSLAYER1
  6
CONTINUOUS
 62
     4
 10
1954.031274
 20
1321.036735
 11
1957.221798
 21
1315.673128
  0
LINE
  8
CSLAYER1
  6
CONTINUOUS
 62
     4
 10
1958.248960
 20
1323.545611
 11
1961.439484
 21
1318.182005
  0
LINE
  8
CSLAYER1
  6
CONTINUOUS
 62
     4
 10
1954.773275
 20
1322.361465
 11
1954.031274
 21
1321.036735
  0
ARC
  8
CSLAYER1
  6
CONTINUOUS
 62
     4
 10
1970.381399
 20
1312.748953
 40
16.240811
 50
120.746159
 51
138.334113
  0
ARC
  8
CSLAYER1
  6
CONTINUOUS
 62
     4
 10
1957.900552
 20
1319.331696
 40
4.228294
 50
85.273519
 51
145.273519
  0
ENDBLK
  8
0
  0
BLOCK
  8
CSLAYER1
  2
BLKF0006
 70
   64
 10
0.0
 20
0.0
 30
0.0
  0
LINE
  8
CSLAYER1
  6
CONTINUOUS
 62
     4
 10
1971.093587
 20
1311.551690
 11
1978.398833
 21
1315.897192
  0
LINE
  8
CSLAYER1
  6
CONTINUOUS
 62
     4
 10
1979.917083
 20
1315.916965
 11
1983.230718
 21
1310.346396
  0
LINE
  8
CSLAYER1
  6
CONTINUOUS
 62
     4
 10
1975.699397
 20
1313.408089
 11
1979.013032
 21
1307.837520
  0
LINE
  8
CSLAYER1
  6
CONTINUOUS
 62
     4
 10
1978.398833
 20
1315.897192
 11
1979.917083
 21
1315.916965
  0
ARC
  8
CSLAYER1
  6
CONTINUOUS
 62
     4
 10
1979.396466
 20
1297.593677
 40
16.240811
 50
103.158205
 51
120.746159
  0
ARC
  8
CSLAYER1
  6
CONTINUOUS
 62
     4
 10
1979.568675
 20
1311.703050
 40
4.228294
 50
96.218799
 51
156.218799
  0
LINE
  8
CSLAYER1
  6
CONTINUOUS
 62
     4
 10
1971.093587
 20
1311.551690
 11
1963.788341
 21
1307.206189
  0
LINE
  8
CSLAYER1
  6
CONTINUOUS
 62
     4
 10
1963.046340
 20
1305.881459
 11
1966.359975
 21
1300.310890
  0
LINE
  8
CSLAYER1
  6
CONTINUOUS
 62
     4
 10
1967.264026
 20
1308.390336
 11
1970.577661
 21
1302.819767
  0
LINE
  8
CSLAYER1
  6
CONTINUOUS
 62
     4
 10
1963.788341
 20
1307.206189
 11
1963.046340
 21
1305.881459
  0
ARC
  8
CSLAYER1
  6
CONTINUOUS
 62
     4
 10
1979.396466
 20
1297.593677
 40
16.240811
 50
120.746159
 51
138.334113
  0
ARC
  8
CSLAYER1
  6
CONTINUOUS
 62
     4
 10
1966.915618
 20
1304.176420
 40
4.228294
 50
85.273519
 51
145.273519
  0
LINE
  8
CSLAYER1
  6
CONTINUOUS
 62
     4
 10
1975.183471
 20
1304.676165
 11
1982.488717
 21
1309.021666
  0
LINE
  8
CSLAYER1
  6
CONTINUOUS
 62
     4
 10
1982.488717
 20
1309.021666
 11
1983.230718
 21
1310.346396
  0
ARC
  8
CSLAYER1
  6
CONTINUOUS
 62
     4
 10
1966.880592
 20
1318.634178
 40
16.240811
 50
300.746159
 51
318.334113
  0
ARC
  8
CSLAYER1
  6
CONTINUOUS
 62
     4
 10
1979.361440
 20
1312.051435
 40
4.228294
 50
265.273519
 51
325.273519
  0
LINE
  8
CSLAYER1
  6
CONTINUOUS
 62
     4
 10
1975.183471
 20
1304.676165
 11
1967.878225
 21
1300.330663
  0
LINE
  8
CSLAYER1
  6
CONTINUOUS
 62
     4
 10
1967.878225
 20
1300.330663
 11
1966.359975
 21
1300.310890
  0
ARC
  8
CSLAYER1
  6
CONTINUOUS
 62
     4
 10
1966.880592
 20
1318.634178
 40
16.240811
 50
283.158205
 51
300.746159
  0
ARC
  8
CSLAYER1
  6
CONTINUOUS
 62
     4
 10
1966.708383
 20
1304.524805
 40
4.228294
 50
276.218799
 51
336.218799
  0
ENDBLK
  8
0
  0
BLOCK
  8
CSLAYER1
  2
BLKF0007
 70
   64
 10
0.0
 20
0.0
 30
0.0
  0
LINE
  8
CSLAYER1
  6
CONTINUOUS
 62
     4
 10
1962.078521
 20
561.406966
 11
1969.383767
 21
565.752468
  0
LINE
  8
CSLAYER1
  6
CONTINUOUS
 62
     4
 10
1965.657169
 20
555.390881
 11
1974.092540
 21
560.408634
  0
LINE
  8
CSLAYER1
  6
CONTINUOUS
 62
     4
 10
1970.902017
 20
565.772241
 11
1974.092540
 21
560.408634
  0
LINE
  8
CSLAYER1
  6
CONTINUOUS
 62
     4
 10
1966.684331
 20
563.263364
 11
1969.874855
 21
557.899758
  0
LINE
  8
CSLAYER1
  6
CONTINUOUS
 62
     4
 10
1969.383767
 20
565.752468
 11
1970.902017
 21
565.772241
  0
ARC
  8
CSLAYER1
  6
CONTINUOUS
 62
     4
 10
1970.381399
 20
547.448953
 40
16.240811
 50
103.158205
 51
120.746159
  0
ARC
  8
CSLAYER1
  6
CONTINUOUS
 62
     4
 10
1970.553609
 20
561.558326
 40
4.228294
 50
96.218799
 51
156.218799
  0
LINE
  8
CSLAYER1
  6
CONTINUOUS
 62
     4
 10
1962.078521
 20
561.406966
 11
1954.773275
 21
557.061465
  0
LINE
  8
CSLAYER1
  6
CONTINUOUS
 62
     4
 10
1965.657169
 20
555.390881
 11
1957.221798
 21
550.373128
  0
LINE
  8
CSLAYER1
  6
CONTINUOUS
 62
     4
 10
1954.031274
 20
555.736735
 11
1957.221798
 21
550.373128
  0
LINE
  8
CSLAYER1
  6
CONTINUOUS
 62
     4
 10
1958.248960
 20
558.245611
 11
1961.439484
 21
552.882005
  0
LINE
  8
CSLAYER1
  6
CONTINUOUS
 62
     4
 10
1954.773275
 20
557.061465
 11
1954.031274
 21
555.736735
  0
ARC
  8
CSLAYER1
  6
CONTINUOUS
 62
     4
 10
1970.381399
 20
547.448953
 40
16.240811
 50
120.746159
 51
138.334113
  0
ARC
  8
CSLAYER1
  6
CONTINUOUS
 62
     4
 10
1957.900552
 20
554.031696
 40
4.228294
 50
85.273519
 51
145.273519
  0
ENDBLK
  8
0
  0
BLOCK
  8
CSLAYER1
  2
BLKF0008
 70
   64
 10
0.0
 20
0.0
 30
0.0
  0
LINE
  8
CSLAYER1
  6
CONTINUOUS
 62
     4
 10
1971.093587
 20
546.251690
 11
1978.398833
 21
550.597192
  0
LINE
  8
CSLAYER1
  6
CONTINUOUS
 62
     4
 10
1979.917083
 20
550.616965
 11
1983.230718
 21
545.046396
  0
LINE
  8
CSLAYER1
  6
CONTINUOUS
 62
     4
 10
1975.699397
 20
548.108089
 11
1979.013032
 21
542.537520
  0
LINE
  8
CSLAYER1
  6
CONTINUOUS
 62
     4
 10
1978.398833
 20
550.597192
 11
1979.917083
 21
550.616965
  0
ARC
  8
CSLAYER1
  6
CONTINUOUS
 62
     4
 10
1979.396466
 20
532.293677
 40
16.240811
 50
103.158205
 51
120.746159
  0
ARC
  8
CSLAYER1
  6
CONTINUOUS
 62
     4
 10
1979.568675
 20
546.403050
 40
4.228294
 50
96.218799
 51
156.218799
  0
LINE
  8
CSLAYER1
  6
CONTINUOUS
 62
     4
 10
1971.093587
 20
546.251690
 11
1963.788341
 21
541.906189
  0
LINE
  8
CSLAYER1
  6
CONTINUOUS
 62
     4
 10
1963.046340
 20
540.581459
 11
1966.359975
 21
535.010890
  0
LINE
  8
CSLAYER1
  6
CONTINUOUS
 62
     4
 10
1967.264026
 20
543.090336
 11
1970.577661
 21
537.519767
  0
LINE
  8
CSLAYER1
  6
CONTINUOUS
 62
     4
 10
1963.788341
 20
541.906189
 11
1963.046340
 21
540.581459
  0
ARC
  8
CSLAYER1
  6
CONTINUOUS
 62
     4
 10
1979.396466
 20
532.293677
 40
16.240811
 50
120.746159
 51
138.334113
  0
ARC
  8
CSLAYER1
  6
CONTINUOUS
 62
     4
 10
1966.915618
 20
538.876420
 40
4.228294
 50
85.273519
 51
145.273519
  0
LINE
  8
CSLAYER1
  6
CONTINUOUS
 62
     4
 10
1975.183471
 20
539.376165
 11
1982.488717
 21
543.721666
  0
LINE
  8
CSLAYER1
  6
CONTINUOUS
 62
     4
 10
1982.488717
 20
543.721666
 11
1983.230718
 21
545.046396
  0
ARC
  8
CSLAYER1
  6
CONTINUOUS
 62
     4
 10
1966.880592
 20
553.334178
 40
16.240811
 50
300.746159
 51
318.334113
  0
ARC
  8
CSLAYER1
  6
CONTINUOUS
 62
     4
 10
1979.361440
 20
546.751435
 40
4.228294
 50
265.273519
 51
325.273519
  0
LINE
  8
CSLAYER1
  6
CONTINUOUS
 62
     4
 10
1975.183471
 20
539.376165
 11
1967.878225
 21
535.030663
  0
LINE
  8
CSLAYER1
  6
CONTINUOUS
 62
     4
 10
1967.878225
 20
535.030663
 11
1966.359975
 21
535.010890
  0
ARC
  8
CSLAYER1
  6
CONTINUOUS
 62
     4
 10
1966.880592
 20
553.334178
 40
16.240811
 50
283.158205
 51
300.746159
  0
ARC
  8
CSLAYER1
  6
CONTINUOUS
 62
     4
 10
1966.708383
 20
539.224805
 40
4.228294
 50
276.218799
 51
336.218799
  0
ENDBLK
  8
0
  0
BLOCK
  8
CSLAYER1
  2
BLKF0009
 70
   64
 10
0.0
 20
0.0
 30
0.0
  0
LINE
  8
CSLAYER1
  6
CONTINUOUS
 62
     4
 10
976.338743
 20
2102.964919
 11
984.838743
 21
2102.964919
  0
LINE
  8
CSLAYER1
  6
CONTINUOUS
 62
     4
 10
976.338743
 20
2095.964919
 11
986.153698
 21
2095.964919
  0
LINE
  8
CSLAYER1
  6
CONTINUOUS
 62
     4
 10
986.153698
 20
2102.205730
 11
986.153698
 21
2095.964919
  0
LINE
  8
CSLAYER1
  6
CONTINUOUS
 62
     4
 10
981.246221
 20
2102.205730
 11
981.246221
 21
2095.964919
  0
LINE
  8
CSLAYER1
  6
CONTINUOUS
 62
     4
 10
984.838743
 20
2102.964919
 11
986.153698
 21
2102.205730
  0
ARC
  8
CSLAYER1
  6
CONTINUOUS
 62
     4
 10
976.338743
 20
2086.724109
 40
16.240811
 50
72.412046
 51
90.000000
  0
ARC
  8
CSLAYER1
  6
CONTINUOUS
 62
     4
 10
983.699959
 20
2098.762238
 40
4.228294
 50
65.472640
 51
125.472640
  0
LINE
  8
CSLAYER1
  6
CONTINUOUS
 62
     4
 10
976.338743
 20
2102.964919
 11
967.838743
 21
2102.964919
  0
LINE
  8
CSLAYER1
  6
CONTINUOUS
 62
     4
 10
976.338743
 20
2095.964919
 11
966.523789
 21
2095.964919
  0
LINE
  8
CSLAYER1
  6
CONTINUOUS
 62
     4
 10
966.523789
 20
2102.205730
 11
966.523789
 21
2095.964919
  0
LINE
  8
CSLAYER1
  6
CONTINUOUS
 62
     4
 10
971.431266
 20
2102.205730
 11
971.431266
 21
2095.964919
  0
LINE
  8
CSLAYER1
  6
CONTINUOUS
 62
     4
 10
967.838743
 20
2102.964919
 11
966.523789
 21
2102.205730
  0
ARC
  8
CSLAYER1
  6
CONTINUOUS
 62
     4
 10
976.338743
 20
2086.724109
 40
16.240811
 50
90.000000
 51
107.587954
  0
ARC
  8
CSLAYER1
  6
CONTINUOUS
 62
     4
 10
968.977527
 20
2098.762238
 40
4.228294
 50
54.527360
 51
114.527360
  0
ENDBLK
  8
0
  0
BLOCK
  8
CSLAYER1
  2
BLKF0010
 70
   64
 10
0.0
 20
0.0
 30
0.0
  0
LINE
  8
CSLAYER1
  6
CONTINUOUS
 62
     4
 10
976.338743
 20
2085.331037
 11
984.838743
 21
2085.331037
  0
LINE
  8
CSLAYER1
  6
CONTINUOUS
 62
     4
 10
986.153698
 20
2084.571848
 11
986.153698
 21
2078.090226
  0
LINE
  8
CSLAYER1
  6
CONTINUOUS
 62
     4
 10
981.246221
 20
2084.571848
 11
981.246221
 21
2078.090226
  0
LINE
  8
CSLAYER1
  6
CONTINUOUS
 62
     4
 10
984.838743
 20
2085.331037
 11
986.153698
 21
2084.571848
  0
ARC
  8
CSLAYER1
  6
CONTINUOUS
 62
     4
 10
976.338743
 20
2069.090226
 40
16.240811
 50
72.412046
 51
90.000000
  0
ARC
  8
CSLAYER1
  6
CONTINUOUS
 62
     4
 10
983.699959
 20
2081.128356
 40
4.228294
 50
65.472640
 51
125.472640
  0
LINE
  8
CSLAYER1
  6
CONTINUOUS
 62
     4
 10
976.338743
 20
2085.331037
 11
967.838743
 21
2085.331037
  0
LINE
  8
CSLAYER1
  6
CONTINUOUS
 62
     4
 10
966.523789
 20
2084.571848
 11
966.523789
 21
2078.090226
  0
LINE
  8
CSLAYER1
  6
CONTINUOUS
 62
     4
 10
971.431266
 20
2084.571848
 11
971.431266
 21
2078.090226
  0
LINE
  8
CSLAYER1
  6
CONTINUOUS
 62
     4
 10
967.838743
 20
2085.331037
 11
966.523789
 21
2084.571848
  0
ARC
  8
CSLAYER1
  6
CONTINUOUS
 62
     4
 10
976.338743
 20
2069.090226
 40
16.240811
 50
90.000000
 51
107.587954
  0
ARC
  8
CSLAYER1
  6
CONTINUOUS
 62
     4
 10
968.977527
 20
2081.128356
 40
4.228294
 50
54.527360
 51
114.527360
  0
LINE
  8
CSLAYER1
  6
CONTINUOUS
 62
     4
 10
976.338743
 20
2077.331037
 11
984.838743
 21
2077.331037
  0
LINE
  8
CSLAYER1
  6
CONTINUOUS
 62
     4
 10
984.838743
 20
2077.331037
 11
986.153698
 21
2078.090226
  0
ARC
  8
CSLAYER1
  6
CONTINUOUS
 62
     4
 10
976.338743
 20
2093.571848
 40
16.240811
 50
270.000000
 51
287.587954
  0
ARC
  8
CSLAYER1
  6
CONTINUOUS
 62
     4
 10
983.699959
 20
2081.533718
 40
4.228294
 50
234.527360
 51
294.527360
  0
LINE
  8
CSLAYER1
  6
CONTINUOUS
 62
     4
 10
976.338743
 20
2077.331037
 11
967.838743
 21
2077.331037
  0
LINE
  8
CSLAYER1
  6
CONTINUOUS
 62
     4
 10
967.838743
 20
2077.331037
 11
966.523789
 21
2078.090226
  0
ARC
  8
CSLAYER1
  6
CONTINUOUS
 62
     4
 10
976.338743
 20
2093.571848
 40
16.240811
 50
252.412046
 51
270.000000
  0
ARC
  8
CSLAYER1
  6
CONTINUOUS
 62
     4
 10
968.977527
 20
2081.533718
 40
4.228294
 50
245.472640
 51
305.472640
  0
ENDBLK
  8
0
  0
BLOCK
  8
CSLAYER1
  2
BLKF0011
 70
   64
 10
0.0
 20
0.0
 30
0.0
  0
LINE
  8
CSLAYER1
  6
CONTINUOUS
 62
     4
 10
603.338743
 20
2102.964919
 11
594.838743
 21
2102.964919
  0
LINE
  8
CSLAYER1
  6
CONTINUOUS
 62
     4
 10
603.338743
 20
2095.964919
 11
593.523789
 21
2095.964919
  0
LINE
  8
CSLAYER1
  6
CONTINUOUS
 62
     4
 10
593.523789
 20
2102.205730
 11
593.523789
 21
2095.964919
  0
LINE
  8
CSLAYER1
  6
CONTINUOUS
 62
     4
 10
598.431266
 20
2102.205730
 11
598.431266
 21
2095.964919
  0
LINE
  8
CSLAYER1
  6
CONTINUOUS
 62
     4
 10
594.838743
 20
2102.964919
 11
593.523789
 21
2102.205730
  0
ARC
  8
CSLAYER1
  6
CONTINUOUS
 62
     4
 10
603.338743
 20
2086.724109
 40
16.240811
 50
90.000000
 51
107.587954
  0
ARC
  8
CSLAYER1
  6
CONTINUOUS
 62
     4
 10
595.977527
 20
2098.762238
 40
4.228294
 50
54.527360
 51
114.527360
  0
LINE
  8
CSLAYER1
  6
CONTINUOUS
 62
     4
 10
603.338743
 20
2102.964919
 11
611.838743
 21
2102.964919
  0
LINE
  8
CSLAYER1
  6
CONTINUOUS
 62
     4
 10
603.338743
 20
2095.964919
 11
613.153698
 21
2095.964919
  0
LINE
  8
CSLAYER1
  6
CONTINUOUS
 62
     4
 10
613.153698
 20
2102.205730
 11
613.153698
 21
2095.964919
  0
LINE
  8
CSLAYER1
  6
CONTINUOUS
 62
     4
 10
608.246221
 20
2102.205730
 11
608.246221
 21
2095.964919
  0
LINE
  8
CSLAYER1
  6
CONTINUOUS
 62
     4
 10
611.838743
 20
2102.964919
 11
613.153698
 21
2102.205730
  0
ARC
  8
CSLAYER1
  6
CONTINUOUS
 62
     4
 10
603.338743
 20
2086.724109
 40
16.240811
 50
72.412046
 51
90.000000
  0
ARC
  8
CSLAYER1
  6
CONTINUOUS
 62
     4
 10
610.699959
 20
2098.762238
 40
4.228294
 50
65.472640
 51
125.472640
  0
ENDBLK
  8
0
  0
BLOCK
  8
CSLAYER1
  2
BLKF0012
 70
   64
 10
0.0
 20
0.0
 30
0.0
  0
LINE
  8
CSLAYER1
  6
CONTINUOUS
 62
     4
 10
603.338743
 20
2085.331037
 11
594.838743
 21
2085.331037
  0
LINE
  8
CSLAYER1
  6
CONTINUOUS
 62
     4
 10
593.523789
 20
2084.571848
 11
593.523789
 21
2078.090226
  0
LINE
  8
CSLAYER1
  6
CONTINUOUS
 62
     4
 10
598.431266
 20
2084.571848
 11
598.431266
 21
2078.090226
  0
LINE
  8
CSLAYER1
  6
CONTINUOUS
 62
     4
 10
594.838743
 20
2085.331037
 11
593.523789
 21
2084.571848
  0
ARC
  8
CSLAYER1
  6
CONTINUOUS
 62
     4
 10
603.338743
 20
2069.090226
 40
16.240811
 50
90.000000
 51
107.587954
  0
ARC
  8
CSLAYER1
  6
CONTINUOUS
 62
     4
 10
595.977527
 20
2081.128356
 40
4.228294
 50
54.527360
 51
114.527360
  0
LINE
  8
CSLAYER1
  6
CONTINUOUS
 62
     4
 10
603.338743
 20
2085.331037
 11
611.838743
 21
2085.331037
  0
LINE
  8
CSLAYER1
  6
CONTINUOUS
 62
     4
 10
613.153698
 20
2084.571848
 11
613.153698
 21
2078.090226
  0
LINE
  8
CSLAYER1
  6
CONTINUOUS
 62
     4
 10
608.246221
 20
2084.571848
 11
608.246221
 21
2078.090226
  0
LINE
  8
CSLAYER1
  6
CONTINUOUS
 62
     4
 10
611.838743
 20
2085.331037
 11
613.153698
 21
2084.571848
  0
ARC
  8
CSLAYER1
  6
CONTINUOUS
 62
     4
 10
603.338743
 20
2069.090226
 40
16.240811
 50
72.412046
 51
90.000000
  0
ARC
  8
CSLAYER1
  6
CONTINUOUS
 62
     4
 10
610.699959
 20
2081.128356
 40
4.228294
 50
65.472640
 51
125.472640
  0
LINE
  8
CSLAYER1
  6
CONTINUOUS
 62
     4
 10
603.338743
 20
2077.331037
 11
594.838743
 21
2077.331037
  0
LINE
  8
CSLAYER1
  6
CONTINUOUS
 62
     4
 10
594.838743
 20
2077.331037
 11
593.523789
 21
2078.090226
  0
ARC
  8
CSLAYER1
  6
CONTINUOUS
 62
     4
 10
603.338743
 20
2093.571848
 40
16.240811
 50
252.412046
 51
270.000000
  0
ARC
  8
CSLAYER1
  6
CONTINUOUS
 62
     4
 10
595.977527
 20
2081.533718
 40
4.228294
 50
245.472640
 51
305.472640
  0
LINE
  8
CSLAYER1
  6
CONTINUOUS
 62
     4
 10
603.338743
 20
2077.331037
 11
611.838743
 21
2077.331037
  0
LINE
  8
CSLAYER1
  6
CONTINUOUS
 62
     4
 10
611.838743
 20
2077.331037
 11
613.153698
 21
2078.090226
  0
ARC
  8
CSLAYER1
  6
CONTINUOUS
 62
     4
 10
603.338743
 20
2093.571848
 40
16.240811
 50
270.000000
 51
287.587954
  0
ARC
  8
CSLAYER1
  6
CONTINUOUS
 62
     4
 10
610.699959
 20
2081.533718
 40
4.228294
 50
234.527360
 51
294.527360
  0
ENDBLK
  8
0
  0
BLOCK
  8
CSLAYER1
  2
BLKF0013
 70
   64
 10
0.0
 20
0.0
 30
0.0
  0
LINE
  8
CSLAYER1
  6
CONTINUOUS
 62
     4
 10
976.338743
 20
1333.824030
 11
984.838743
 21
1333.824030
  0
LINE
  8
CSLAYER1
  6
CONTINUOUS
 62
     4
 10
976.338743
 20
1326.824030
 11
986.153698
 21
1326.824030
  0
LINE
  8
CSLAYER1
  6
CONTINUOUS
 62
     4
 10
986.153698
 20
1333.064841
 11
986.153698
 21
1326.824030
  0
LINE
  8
CSLAYER1
  6
CONTINUOUS
 62
     4
 10
981.246221
 20
1333.064841
 11
981.246221
 21
1326.824030
  0
LINE
  8
CSLAYER1
  6
CONTINUOUS
 62
     4
 10
984.838743
 20
1333.824030
 11
986.153698
 21
1333.064841
  0
ARC
  8
CSLAYER1
  6
CONTINUOUS
 62
     4
 10
976.338743
 20
1317.583219
 40
16.240811
 50
72.412046
 51
90.000000
  0
ARC
  8
CSLAYER1
  6
CONTINUOUS
 62
     4
 10
983.699959
 20
1329.621349
 40
4.228294
 50
65.472640
 51
125.472640
  0
LINE
  8
CSLAYER1
  6
CONTINUOUS
 62
     4
 10
976.338743
 20
1333.824030
 11
967.838743
 21
1333.824030
  0
LINE
  8
CSLAYER1
  6
CONTINUOUS
 62
     4
 10
976.338743
 20
1326.824030
 11
966.523789
 21
1326.824030
  0
LINE
  8
CSLAYER1
  6
CONTINUOUS
 62
     4
 10
966.523789
 20
1333.064841
 11
966.523789
 21
1326.824030
  0
LINE
  8
CSLAYER1
  6
CONTINUOUS
 62
     4
 10
971.431266
 20
1333.064841
 11
971.431266
 21
1326.824030
  0
LINE
  8
CSLAYER1
  6
CONTINUOUS
 62
     4
 10
967.838743
 20
1333.824030
 11
966.523789
 21
1333.064841
  0
ARC
  8
CSLAYER1
  6
CONTINUOUS
 62
     4
 10
976.338743
 20
1317.583219
 40
16.240811
 50
90.000000
 51
107.587954
  0
ARC
  8
CSLAYER1
  6
CONTINUOUS
 62
     4
 10
968.977527
 20
1329.621349
 40
4.228294
 50
54.527360
 51
114.527360
  0
ENDBLK
  8
0
  0
BLOCK
  8
CSLAYER1
  2
BLKF0014
 70
   64
 10
0.0
 20
0.0
 30
0.0
  0
LINE
  8
CSLAYER1
  6
CONTINUOUS
 62
     4
 10
976.338743
 20
1316.190148
 11
984.838743
 21
1316.190148
  0
LINE
  8
CSLAYER1
  6
CONTINUOUS
 62
     4
 10
986.153698
 20
1315.430958
 11
986.153698
 21
1308.949337
  0
LINE
  8
CSLAYER1
  6
CONTINUOUS
 62
     4
 10
981.246221
 20
1315.430958
 11
981.246221
 21
1308.949337
  0
LINE
  8
CSLAYER1
  6
CONTINUOUS
 62
     4
 10
984.838743
 20
1316.190148
 11
986.153698
 21
1315.430958
  0
ARC
  8
CSLAYER1
  6
CONTINUOUS
 62
     4
 10
976.338743
 20
1299.949337
 40
16.240811
 50
72.412046
 51
90.000000
  0
ARC
  8
CSLAYER1
  6
CONTINUOUS
 62
     4
 10
983.699959
 20
1311.987467
 40
4.228294
 50
65.472640
 51
125.472640
  0
LINE
  8
CSLAYER1
  6
CONTINUOUS
 62
     4
 10
976.338743
 20
1316.190148
 11
967.838743
 21
1316.190148
  0
LINE
  8
CSLAYER1
  6
CONTINUOUS
 62
     4
 10
966.523789
 20
1315.430958
 11
966.523789
 21
1308.949337
  0
LINE
  8
CSLAYER1
  6
CONTINUOUS
 62
     4
 10
971.431266
 20
1315.430958
 11
971.431266
 21
1308.949337
  0
LINE
  8
CSLAYER1
  6
CONTINUOUS
 62
     4
 10
967.838743
 20
1316.190148
 11
966.523789
 21
1315.430958
  0
ARC
  8
CSLAYER1
  6
CONTINUOUS
 62
     4
 10
976.338743
 20
1299.949337
 40
16.240811
 50
90.000000
 51
107.587954
  0
ARC
  8
CSLAYER1
  6
CONTINUOUS
 62
     4
 10
968.977527
 20
1311.987467
 40
4.228294
 50
54.527360
 51
114.527360
  0
LINE
  8
CSLAYER1
  6
CONTINUOUS
 62
     4
 10
976.338743
 20
1308.190148
 11
984.838743
 21
1308.190148
  0
LINE
  8
CSLAYER1
  6
CONTINUOUS
 62
     4
 10
984.838743
 20
1308.190148
 11
986.153698
 21
1308.949337
  0
ARC
  8
CSLAYER1
  6
CONTINUOUS
 62
     4
 10
976.338743
 20
1324.430958
 40
16.240811
 50
270.000000
 51
287.587954
  0
ARC
  8
CSLAYER1
  6
CONTINUOUS
 62
     4
 10
983.699959
 20
1312.392829
 40
4.228294
 50
234.527360
 51
294.527360
  0
LINE
  8
CSLAYER1
  6
CONTINUOUS
 62
     4
 10
976.338743
 20
1308.190148
 11
967.838743
 21
1308.190148
  0
LINE
  8
CSLAYER1
  6
CONTINUOUS
 62
     4
 10
967.838743
 20
1308.190148
 11
966.523789
 21
1308.949337
  0
ARC
  8
CSLAYER1
  6
CONTINUOUS
 62
     4
 10
976.338743
 20
1324.430958
 40
16.240811
 50
252.412046
 51
270.000000
  0
ARC
  8
CSLAYER1
  6
CONTINUOUS
 62
     4
 10
968.977527
 20
1312.392829
 40
4.228294
 50
245.472640
 51
305.472640
  0
ENDBLK
  8
0
  0
BLOCK
  8
CSLAYER1
  2
BLKF0015
 70
   64
 10
0.0
 20
0.0
 30
0.0
  0
LINE
  8
CSLAYER1
  6
CONTINUOUS
 62
     4
 10
603.338743
 20
1333.824030
 11
594.838743
 21
1333.824030
  0
LINE
  8
CSLAYER1
  6
CONTINUOUS
 62
     4
 10
603.338743
 20
1326.824030
 11
593.523789
 21
1326.824030
  0
LINE
  8
CSLAYER1
  6
CONTINUOUS
 62
     4
 10
593.523789
 20
1333.064841
 11
593.523789
 21
1326.824030
  0
LINE
  8
CSLAYER1
  6
CONTINUOUS
 62
     4
 10
598.431266
 20
1333.064841
 11
598.431266
 21
1326.824030
  0
LINE
  8
CSLAYER1
  6
CONTINUOUS
 62
     4
 10
594.838743
 20
1333.824030
 11
593.523789
 21
1333.064841
  0
ARC
  8
CSLAYER1
  6
CONTINUOUS
 62
     4
 10
603.338743
 20
1317.583219
 40
16.240811
 50
90.000000
 51
107.587954
  0
ARC
  8
CSLAYER1
  6
CONTINUOUS
 62
     4
 10
595.977527
 20
1329.621349
 40
4.228294
 50
54.527360
 51
114.527360
  0
LINE
  8
CSLAYER1
  6
CONTINUOUS
 62
     4
 10
603.338743
 20
1333.824030
 11
611.838743
 21
1333.824030
  0
LINE
  8
CSLAYER1
  6
CONTINUOUS
 62
     4
 10
603.338743
 20
1326.824030
 11
613.153698
 21
1326.824030
  0
LINE
  8
CSLAYER1
  6
CONTINUOUS
 62
     4
 10
613.153698
 20
1333.064841
 11
613.153698
 21
1326.824030
  0
LINE
  8
CSLAYER1
  6
CONTINUOUS
 62
     4
 10
608.246221
 20
1333.064841
 11
608.246221
 21
1326.824030
  0
LINE
  8
CSLAYER1
  6
CONTINUOUS
 62
     4
 10
611.838743
 20
1333.824030
 11
613.153698
 21
1333.064841
  0
ARC
  8
CSLAYER1
  6
CONTINUOUS
 62
     4
 10
603.338743
 20
1317.583219
 40
16.240811
 50
72.412046
 51
90.000000
  0
ARC
  8
CSLAYER1
  6
CONTINUOUS
 62
     4
 10
610.699959
 20
1329.621349
 40
4.228294
 50
65.472640
 51
125.472640
  0
ENDBLK
  8
0
  0
BLOCK
  8
CSLAYER1
  2
BLKF0016
 70
   64
 10
0.0
 20
0.0
 30
0.0
  0
LINE
  8
CSLAYER1
  6
CONTINUOUS
 62
     4
 10
603.338743
 20
1316.190148
 11
594.838743
 21
1316.190148
  0
LINE
  8
CSLAYER1
  6
CONTINUOUS
 62
     4
 10
593.523789
 20
1315.430958
 11
593.523789
 21
1308.949337
  0
LINE
  8
CSLAYER1
  6
CONTINUOUS
 62
     4
 10
598.431266
 20
1315.430958
 11
598.431266
 21
1308.949337
  0
LINE
  8
CSLAYER1
  6
CONTINUOUS
 62
     4
 10
594.838743
 20
1316.190148
 11
593.523789
 21
1315.430958
  0
ARC
  8
CSLAYER1
  6
CONTINUOUS
 62
     4
 10
603.338743
 20
1299.949337
 40
16.240811
 50
90.000000
 51
107.587954
  0
ARC
  8
CSLAYER1
  6
CONTINUOUS
 62
     4
 10
595.977527
 20
1311.987467
 40
4.228294
 50
54.527360
 51
114.527360
  0
LINE
  8
CSLAYER1
  6
CONTINUOUS
 62
     4
 10
603.338743
 20
1316.190148
 11
611.838743
 21
1316.190148
  0
LINE
  8
CSLAYER1
  6
CONTINUOUS
 62
     4
 10
613.153698
 20
1315.430958
 11
613.153698
 21
1308.949337
  0
LINE
  8
CSLAYER1
  6
CONTINUOUS
 62
     4
 10
608.246221
 20
1315.430958
 11
608.246221
 21
1308.949337
  0
LINE
  8
CSLAYER1
  6
CONTINUOUS
 62
     4
 10
611.838743
 20
1316.190148
 11
613.153698
 21
1315.430958
  0
ARC
  8
CSLAYER1
  6
CONTINUOUS
 62
     4
 10
603.338743
 20
1299.949337
 40
16.240811
 50
72.412046
 51
90.000000
  0
ARC
  8
CSLAYER1
  6
CONTINUOUS
 62
     4
 10
610.699959
 20
1311.987467
 40
4.228294
 50
65.472640
 51
125.472640
  0
LINE
  8
CSLAYER1
  6
CONTINUOUS
 62
     4
 10
603.338743
 20
1308.190148
 11
594.838743
 21
1308.190148
  0
LINE
  8
CSLAYER1
  6
CONTINUOUS
 62
     4
 10
594.838743
 20
1308.190148
 11
593.523789
 21
1308.949337
  0
ARC
  8
CSLAYER1
  6
CONTINUOUS
 62
     4
 10
603.338743
 20
1324.430958
 40
16.240811
 50
252.412046
 51
270.000000
  0
ARC
  8
CSLAYER1
  6
CONTINUOUS
 62
     4
 10
595.977527
 20
1312.392829
 40
4.228294
 50
245.472640
 51
305.472640
  0
LINE
  8
CSLAYER1
  6
CONTINUOUS
 62
     4
 10
603.338743
 20
1308.190148
 11
611.838743
 21
1308.190148
  0
LINE
  8
CSLAYER1
  6
CONTINUOUS
 62
     4
 10
611.838743
 20
1308.190148
 11
613.153698
 21
1308.949337
  0
ARC
  8
CSLAYER1
  6
CONTINUOUS
 62
     4
 10
603.338743
 20
1324.430958
 40
16.240811
 50
270.000000
 51
287.587954
  0
ARC
  8
CSLAYER1
  6
CONTINUOUS
 62
     4
 10
610.699959
 20
1312.392829
 40
4.228294
 50
234.527360
 51
294.527360
  0
ENDBLK
  8
0
  0
BLOCK
  8
CSLAYER1
  2
BLKF0017
 70
   64
 10
0.0
 20
0.0
 30
0.0
  0
LINE
  8
CSLAYER1
  6
CONTINUOUS
 62
     4
 10
976.338743
 20
568.524030
 11
984.838743
 21
568.524030
  0
LINE
  8
CSLAYER1
  6
CONTINUOUS
 62
     4
 10
976.338743
 20
561.524030
 11
986.153698
 21
561.524030
  0
LINE
  8
CSLAYER1
  6
CONTINUOUS
 62
     4
 10
986.153698
 20
567.764841
 11
986.153698
 21
561.524030
  0
LINE
  8
CSLAYER1
  6
CONTINUOUS
 62
     4
 10
981.246221
 20
567.764841
 11
981.246221
 21
561.524030
  0
LINE
  8
CSLAYER1
  6
CONTINUOUS
 62
     4
 10
984.838743
 20
568.524030
 11
986.153698
 21
567.764841
  0
ARC
  8
CSLAYER1
  6
CONTINUOUS
 62
     4
 10
976.338743
 20
552.283219
 40
16.240811
 50
72.412046
 51
90.000000
  0
ARC
  8
CSLAYER1
  6
CONTINUOUS
 62
     4
 10
983.699959
 20
564.321349
 40
4.228294
 50
65.472640
 51
125.472640
  0
LINE
  8
CSLAYER1
  6
CONTINUOUS
 62
     4
 10
976.338743
 20
568.524030
 11
967.838743
 21
568.524030
  0
LINE
  8
CSLAYER1
  6
CONTINUOUS
 62
     4
 10
976.338743
 20
561.524030
 11
966.523789
 21
561.524030
  0
LINE
  8
CSLAYER1
  6
CONTINUOUS
 62
     4
 10
966.523789
 20
567.764841
 11
966.523789
 21
561.524030
  0
LINE
  8
CSLAYER1
  6
CONTINUOUS
 62
     4
 10
971.431266
 20
567.764841
 11
971.431266
 21
561.524030
  0
LINE
  8
CSLAYER1
  6
CONTINUOUS
 62
     4
 10
967.838743
 20
568.524030
 11
966.523789
 21
567.764841
  0
ARC
  8
CSLAYER1
  6
CONTINUOUS
 62
     4
 10
976.338743
 20
552.283219
 40
16.240811
 50
90.000000
 51
107.587954
  0
ARC
  8
CSLAYER1
  6
CONTINUOUS
 62
     4
 10
968.977527
 20
564.321349
 40
4.228294
 50
54.527360
 51
114.527360
  0
ENDBLK
  8
0
  0
BLOCK
  8
CSLAYER1
  2
BLKF0018
 70
   64
 10
0.0
 20
0.0
 30
0.0
  0
LINE
  8
CSLAYER1
  6
CONTINUOUS
 62
     4
 10
976.338743
 20
550.890148
 11
984.838743
 21
550.890148
  0
LINE
  8
CSLAYER1
  6
CONTINUOUS
 62
     4
 10
986.153698
 20
550.130958
 11
986.153698
 21
543.649337
  0
LINE
  8
CSLAYER1
  6
CONTINUOUS
 62
     4
 10
981.246221
 20
550.130958
 11
981.246221
 21
543.649337
  0
LINE
  8
CSLAYER1
  6
CONTINUOUS
 62
     4
 10
984.838743
 20
550.890148
 11
986.153698
 21
550.130958
  0
ARC
  8
CSLAYER1
  6
CONTINUOUS
 62
     4
 10
976.338743
 20
534.649337
 40
16.240811
 50
72.412046
 51
90.000000
  0
ARC
  8
CSLAYER1
  6
CONTINUOUS
 62
     4
 10
983.699959
 20
546.687467
 40
4.228294
 50
65.472640
 51
125.472640
  0
LINE
  8
CSLAYER1
  6
CONTINUOUS
 62
     4
 10
976.338743
 20
550.890148
 11
967.838743
 21
550.890148
  0
LINE
  8
CSLAYER1
  6
CONTINUOUS
 62
     4
 10
966.523789
 20
550.130958
 11
966.523789
 21
543.649337
  0
LINE
  8
CSLAYER1
  6
CONTINUOUS
 62
     4
 10
971.431266
 20
550.130958
 11
971.431266
 21
543.649337
  0
LINE
  8
CSLAYER1
  6
CONTINUOUS
 62
     4
 10
967.838743
 20
550.890148
 11
966.523789
 21
550.130958
  0
ARC
  8
CSLAYER1
  6
CONTINUOUS
 62
     4
 10
976.338743
 20
534.649337
 40
16.240811
 50
90.000000
 51
107.587954
  0
ARC
  8
CSLAYER1
  6
CONTINUOUS
 62
     4
 10
968.977527
 20
546.687467
 40
4.228294
 50
54.527360
 51
114.527360
  0
LINE
  8
CSLAYER1
  6
CONTINUOUS
 62
     4
 10
976.338743
 20
542.890148
 11
984.838743
 21
542.890148
  0
LINE
  8
CSLAYER1
  6
CONTINUOUS
 62
     4
 10
984.838743
 20
542.890148
 11
986.153698
 21
543.649337
  0
ARC
  8
CSLAYER1
  6
CONTINUOUS
 62
     4
 10
976.338743
 20
559.130958
 40
16.240811
 50
270.000000
 51
287.587954
  0
ARC
  8
CSLAYER1
  6
CONTINUOUS
 62
     4
 10
983.699959
 20
547.092829
 40
4.228294
 50
234.527360
 51
294.527360
  0
LINE
  8
CSLAYER1
  6
CONTINUOUS
 62
     4
 10
976.338743
 20
542.890148
 11
967.838743
 21
542.890148
  0
LINE
  8
CSLAYER1
  6
CONTINUOUS
 62
     4
 10
967.838743
 20
542.890148
 11
966.523789
 21
543.649337
  0
ARC
  8
CSLAYER1
  6
CONTINUOUS
 62
     4
 10
976.338743
 20
559.130958
 40
16.240811
 50
252.412046
 51
270.000000
  0
ARC
  8
CSLAYER1
  6
CONTINUOUS
 62
     4
 10
968.977527
 20
547.092829
 40
4.228294
 50
245.472640
 51
305.472640
  0
ENDBLK
  8
0
  0
BLOCK
  8
CSLAYER1
  2
BLKF0019
 70
   64
 10
0.0
 20
0.0
 30
0.0
  0
LINE
  8
CSLAYER1
  6
CONTINUOUS
 62
     4
 10
603.338743
 20
568.524030
 11
594.838743
 21
568.524030
  0
LINE
  8
CSLAYER1
  6
CONTINUOUS
 62
     4
 10
603.338743
 20
561.524030
 11
593.523789
 21
561.524030
  0
LINE
  8
CSLAYER1
  6
CONTINUOUS
 62
     4
 10
593.523789
 20
567.764841
 11
593.523789
 21
561.524030
  0
LINE
  8
CSLAYER1
  6
CONTINUOUS
 62
     4
 10
598.431266
 20
567.764841
 11
598.431266
 21
561.524030
  0
LINE
  8
CSLAYER1
  6
CONTINUOUS
 62
     4
 10
594.838743
 20
568.524030
 11
593.523789
 21
567.764841
  0
ARC
  8
CSLAYER1
  6
CONTINUOUS
 62
     4
 10
603.338743
 20
552.283219
 40
16.240811
 50
90.000000
 51
107.587954
  0
ARC
  8
CSLAYER1
  6
CONTINUOUS
 62
     4
 10
595.977527
 20
564.321349
 40
4.228294
 50
54.527360
 51
114.527360
  0
LINE
  8
CSLAYER1
  6
CONTINUOUS
 62
     4
 10
603.338743
 20
568.524030
 11
611.838743
 21
568.524030
  0
LINE
  8
CSLAYER1
  6
CONTINUOUS
 62
     4
 10
603.338743
 20
561.524030
 11
613.153698
 21
561.524030
  0
LINE
  8
CSLAYER1
  6
CONTINUOUS
 62
     4
 10
613.153698
 20
567.764841
 11
613.153698
 21
561.524030
  0
LINE
  8
CSLAYER1
  6
CONTINUOUS
 62
     4
 10
608.246221
 20
567.764841
 11
608.246221
 21
561.524030
  0
LINE
  8
CSLAYER1
  6
CONTINUOUS
 62
     4
 10
611.838743
 20
568.524030
 11
613.153698
 21
567.764841
  0
ARC
  8
CSLAYER1
  6
CONTINUOUS
 62
     4
 10
603.338743
 20
552.283219
 40
16.240811
 50
72.412046
 51
90.000000
  0
ARC
  8
CSLAYER1
  6
CONTINUOUS
 62
     4
 10
610.699959
 20
564.321349
 40
4.228294
 50
65.472640
 51
125.472640
  0
ENDBLK
  8
0
  0
BLOCK
  8
CSLAYER1
  2
BLKF0020
 70
   64
 10
0.0
 20
0.0
 30
0.0
  0
LINE
  8
CSLAYER1
  6
CONTINUOUS
 62
     4
 10
603.338743
 20
550.890148
 11
594.838743
 21
550.890148
  0
LINE
  8
CSLAYER1
  6
CONTINUOUS
 62
     4
 10
593.523789
 20
550.130958
 11
593.523789
 21
543.649337
  0
LINE
  8
CSLAYER1
  6
CONTINUOUS
 62
     4
 10
598.431266
 20
550.130958
 11
598.431266
 21
543.649337
  0
LINE
  8
CSLAYER1
  6
CONTINUOUS
 62
     4
 10
594.838743
 20
550.890148
 11
593.523789
 21
550.130958
  0
ARC
  8
CSLAYER1
  6
CONTINUOUS
 62
     4
 10
603.338743
 20
534.649337
 40
16.240811
 50
90.000000
 51
107.587954
  0
ARC
  8
CSLAYER1
  6
CONTINUOUS
 62
     4
 10
595.977527
 20
546.687467
 40
4.228294
 50
54.527360
 51
114.527360
  0
LINE
  8
CSLAYER1
  6
CONTINUOUS
 62
     4
 10
603.338743
 20
550.890148
 11
611.838743
 21
550.890148
  0
LINE
  8
CSLAYER1
  6
CONTINUOUS
 62
     4
 10
613.153698
 20
550.130958
 11
613.153698
 21
543.649337
  0
LINE
  8
CSLAYER1
  6
CONTINUOUS
 62
     4
 10
608.246221
 20
550.130958
 11
608.246221
 21
543.649337
  0
LINE
  8
CSLAYER1
  6
CONTINUOUS
 62
     4
 10
611.838743
 20
550.890148
 11
613.153698
 21
550.130958
  0
ARC
  8
CSLAYER1
  6
CONTINUOUS
 62
     4
 10
603.338743
 20
534.649337
 40
16.240811
 50
72.412046
 51
90.000000
  0
ARC
  8
CSLAYER1
  6
CONTINUOUS
 62
     4
 10
610.699959
 20
546.687467
 40
4.228294
 50
65.472640
 51
125.472640
  0
LINE
  8
CSLAYER1
  6
CONTINUOUS
 62
     4
 10
603.338743
 20
542.890148
 11
594.838743
 21
542.890148
  0
LINE
  8
CSLAYER1
  6
CONTINUOUS
 62
     4
 10
594.838743
 20
542.890148
 11
593.523789
 21
543.649337
  0
ARC
  8
CSLAYER1
  6
CONTINUOUS
 62
     4
 10
603.338743
 20
559.130958
 40
16.240811
 50
252.412046
 51
270.000000
  0
ARC
  8
CSLAYER1
  6
CONTINUOUS
 62
     4
 10
595.977527
 20
547.092829
 40
4.228294
 50
245.472640
 51
305.472640
  0
LINE
  8
CSLAYER1
  6
CONTINUOUS
 62
     4
 10
603.338743
 20
542.890148
 11
611.838743
 21
542.890148
  0
LINE
  8
CSLAYER1
  6
CONTINUOUS
 62
     4
 10
611.838743
 20
542.890148
 11
613.153698
 21
543.649337
  0
ARC
  8
CSLAYER1
  6
CONTINUOUS
 62
     4
 10
603.338743
 20
559.130958
 40
16.240811
 50
270.000000
 51
287.587954
  0
ARC
  8
CSLAYER1
  6
CONTINUOUS
 62
     4
 10
610.699959
 20
547.092829
 40
4.228294
 50
234.527360
 51
294.527360
  0
ENDBLK
  8
0
  0
BLOCK
  8
CSLAYER1
  2
BLKF0021
 70
   64
 10
0.0
 20
0.0
 30
0.0
  0
LINE
  8
CSLAYER1
  6
CONTINUOUS
 62
     3
 10
1452.758500
 20
3248.602439
 11
1452.758500
 21
3186.602439
  0
LINE
  8
CSLAYER1
  6
CONTINUOUS
 62
     3
 10
1450.258500
 20
3251.102439
 11
1365.258500
 21
3251.102439
  0
LINE
  8
CSLAYER1
  6
CENTER
 62
     5
 10
1511.108139
 20
3178.602439
 11
1452.758500
 21
3178.602439
  0
LINE
  8
CSLAYER1
  6
CONTINUOUS
 62
     2
 10
1450.258500
 20
3194.602439
 11
1365.258500
 21
3194.602439
  0
LINE
  8
CSLAYER1
  6
CONTINUOUS
 62
     3
 10
1450.258500
 20
3246.102439
 11
1450.258500
 21
3201.102439
  0
LINE
  8
CSLAYER1
  6
CONTINUOUS
 62
     3
 10
1362.758500
 20
3248.602439
 11
1362.758500
 21
3178.602439
  0
LINE
  8
CSLAYER1
  6
CONTINUOUS
 62
     3
 10
1447.758500
 20
3248.602439
 11
1370.758500
 21
3248.602439
  0
LINE
  8
CSLAYER1
  6
CONTINUOUS
 62
     3
 10
1447.758500
 20
3198.602439
 11
1370.758500
 21
3198.602439
  0
ARC
  8
CSLAYER1
  6
CONTINUOUS
 62
     3
 10
1424.826682
 20
3223.602439
 40
59.568182
 50
155.185163
 51
204.814837
  0
ARC
  8
CSLAYER1
  6
CONTINUOUS
 62
     3
 10
1447.758500
 20
3246.102439
 40
2.500000
 50
0.000000
 51
90.000000
  0
ARC
  8
CSLAYER1
  6
CONTINUOUS
 62
     3
 10
1447.758500
 20
3201.102439
 40
2.500000
 50
270.000000
 51
360.000000
  0
ARC
  8
CSLAYER1
  6
CONTINUOUS
 62
     3
 10
1450.258500
 20
3248.602439
 40
2.500000
 50
0.000000
 51
90.000000
  0
ARC
  8
CSLAYER1
  6
CONTINUOUS
 62
     3
 10
1365.258500
 20
3248.602439
 40
2.500000
 50
90.000000
 51
180.000000
  0
ARC
  8
CSLAYER1
  6
CONTINUOUS
 62
     2
 10
1365.258500
 20
3192.102439
 40
2.500000
 50
90.000000
 51
180.000000
  0
ARC
  8
CSLAYER1
  6
CONTINUOUS
 62
     2
 10
1450.258500
 20
3192.102439
 40
2.500000
 50
0.000000
 51
90.000000
  0
LINE
  8
CSLAYER1
  6
CONTINUOUS
 62
     3
 10
1452.758500
 20
3108.602439
 11
1452.758500
 21
3170.602439
  0
LINE
  8
CSLAYER1
  6
CONTINUOUS
 62
     3
 10
1450.258500
 20
3106.102439
 11
1365.258500
 21
3106.102439
  0
LINE
  8
CSLAYER1
  6
CONTINUOUS
 62
     2
 10
1450.258500
 20
3162.602439
 11
1365.258500
 21
3162.602439
  0
LINE
  8
CSLAYER1
  6
CONTINUOUS
 62
     3
 10
1362.758500
 20
3108.602439
 11
1362.758500
 21
3178.602439
  0
ARC
  8
CSLAYER1
  6
CONTINUOUS
 62
     3
 10
1450.258500
 20
3108.602439
 40
2.500000
 50
270.000000
 51
360.000000
  0
ARC
  8
CSLAYER1
  6
CONTINUOUS
 62
     3
 10
1365.258500
 20
3108.602439
 40
2.500000
 50
180.000000
 51
270.000000
  0
ARC
  8
CSLAYER1
  6
CONTINUOUS
 62
     2
 10
1365.258500
 20
3165.102439
 40
2.500000
 50
180.000000
 51
270.000000
  0
ARC
  8
CSLAYER1
  6
CONTINUOUS
 62
     2
 10
1450.258500
 20
3165.102439
 40
2.500000
 50
270.000000
 51
360.000000
  0
LINE
  8
CSLAYER1
  6
CONTINUOUS
 62
     3
 10
1450.258500
 20
3111.102439
 11
1450.258500
 21
3156.102439
  0
LINE
  8
CSLAYER1
  6
CONTINUOUS
 62
     3
 10
1447.758500
 20
3108.602439
 11
1370.758500
 21
3108.602439
  0
LINE
  8
CSLAYER1
  6
CONTINUOUS
 62
     3
 10
1447.758500
 20
3158.602439
 11
1370.758500
 21
3158.602439
  0
ARC
  8
CSLAYER1
  6
CONTINUOUS
 62
     3
 10
1424.826682
 20
3133.602439
 40
59.568182
 50
155.185163
 51
204.814837
  0
ARC
  8
CSLAYER1
  6
CONTINUOUS
 62
     3
 10
1447.758500
 20
3111.102439
 40
2.500000
 50
270.000000
 51
360.000000
  0
ARC
  8
CSLAYER1
  6
CONTINUOUS
 62
     3
 10
1447.758500
 20
3156.102439
 40
2.500000
 50
0.000000
 51
90.000000
  0
LINE
  8
CSLAYER1
  6
CONTINUOUS
 62
     3
 10
1459.758500
 20
3171.602439
 11
1459.758500
 21
3175.102439
  0
LINE
  8
CSLAYER1
  6
CONTINUOUS
 62
     3
 10
1511.108139
 20
3175.102439
 11
1459.758500
 21
3175.102439
  0
LINE
  8
CSLAYER1
  6
CONTINUOUS
 62
     3
 10
1458.758500
 20
3170.602439
 11
1452.758500
 21
3170.602439
  0
LINE
  8
CSLAYER1
  6
CONTINUOUS
 62
     3
 10
1458.758500
 20
3186.602439
 11
1452.758500
 21
3186.602439
  0
LINE
  8
CSLAYER1
  6
CONTINUOUS
 62
     3
 10
1511.108139
 20
3182.102439
 11
1459.758500
 21
3182.102439
  0
ARC
  8
CSLAYER1
  6
CONTINUOUS
 62
     3
 10
1458.758500
 20
3185.602439
 40
1.000000
 50
0.000000
 51
90.000000
  0
ARC
  8
CSLAYER1
  6
CONTINUOUS
 62
     3
 10
1458.758500
 20
3171.602439
 40
1.000000
 50
270.000000
 51
360.000000
  0
LINE
  8
CSLAYER1
  6
CONTINUOUS
 62
     3
 10
1459.758500
 20
3182.102439
 11
1459.758500
 21
3185.602439
  0
LINE
  8
CSLAYER1
  6
CONTINUOUS
 62
     2
 10
1459.758500
 20
3175.102439
 11
1459.758500
 21
3182.102439
  0
LINE
  8
CSLAYER1
  6
CONTINUOUS
 62
     2
 10
1452.758500
 20
3186.602439
 11
1452.758500
 21
3178.602439
  0
LINE
  8
CSLAYER1
  6
CONTINUOUS
 62
     2
 10
1452.758500
 20
3170.602439
 11
1452.758500
 21
3178.602439
  0
LINE
  8
CSLAYER1
  6
CONTINUOUS
 62
     2
 10
1433.265489
 20
3190.765099
 11
1442.400489
 21
3190.765099
  0
LINE
  8
CSLAYER1
  6
CONTINUOUS
 62
     2
 10
1433.265489
 20
3167.140099
 11
1442.400489
 21
3167.140099
  0
LINE
  8
CSLAYER1
  6
CONTINUOUS
 62
     2
 10
1443.660489
 20
3189.505099
 11
1443.660489
 21
3168.400099
  0
LINE
  8
CSLAYER1
  6
CONTINUOUS
 62
     2
 10
1432.005489
 20
3189.505099
 11
1432.005489
 21
3168.400099
  0
LINE
  8
CSLAYER1
  6
CONTINUOUS
 62
     2
 10
1433.895489
 20
3169.030099
 11
1441.927989
 21
3169.030099
  0
LINE
  8
CSLAYER1
  6
CONTINUOUS
 62
     2
 10
1433.895489
 20
3172.180099
 11
1434.840489
 21
3172.180099
  0
LINE
  8
CSLAYER1
  6
CONTINUOUS
 62
     2
 10
1433.895489
 20
3180.842599
 11
1434.840489
 21
3180.842599
  0
LINE
  8
CSLAYER1
  6
CONTINUOUS
 62
     2
 10
1433.895489
 20
3185.410099
 11
1438.935489
 21
3185.410099
  0
LINE
  8
CSLAYER1
  6
CONTINUOUS
 62
     2
 10
1432.792989
 20
3184.307599
 11
1432.792989
 21
3181.945099
  0
LINE
  8
CSLAYER1
  6
CONTINUOUS
 62
     2
 10
1440.037989
 20
3184.307599
 11
1440.037989
 21
3181.945099
  0
LINE
  8
CSLAYER1
  6
CONTINUOUS
 62
     2
 10
1443.030489
 20
3171.077599
 11
1443.030489
 21
3170.132599
  0
LINE
  8
CSLAYER1
  6
CONTINUOUS
 62
     2
 10
1435.785489
 20
3179.897599
 11
1435.785489
 21
3173.125099
  0
LINE
  8
CSLAYER1
  6
CONTINUOUS
 62
     2
 10
1436.572989
 20
3179.897599
 11
1436.572989
 21
3173.125099
  0
ARC
  8
CSLAYER1
  6
CONTINUOUS
 62
     2
 10
1433.895489
 20
3184.307599
 40
1.102500
 50
90.000000
 51
180.000000
  0
ARC
  8
CSLAYER1
  6
CONTINUOUS
 62
     2
 10
1438.935489
 20
3184.307599
 40
1.102500
 50
0.000000
 51
90.000000
  0
ARC
  8
CSLAYER1
  6
CONTINUOUS
 62
     2
 10
1438.935489
 20
3181.945099
 40
1.102500
 50
270.000000
 51
360.000000
  0
ARC
  8
CSLAYER1
  6
CONTINUOUS
 62
     2
 10
1433.895489
 20
3181.945099
 40
1.102500
 50
180.000000
 51
270.000000
  0
ARC
  8
CSLAYER1
  6
CONTINUOUS
 62
     2
 10
1441.927989
 20
3171.077599
 40
1.102500
 50
0.000000
 51
90.000000
  0
ARC
  8
CSLAYER1
  6
CONTINUOUS
 62
     2
 10
1441.927989
 20
3170.132599
 40
1.102500
 50
270.000000
 51
360.000000
  0
ARC
  8
CSLAYER1
  6
CONTINUOUS
 62
     2
 10
1433.895489
 20
3170.132599
 40
1.102500
 50
180.000000
 51
270.000000
  0
ARC
  8
CSLAYER1
  6
CONTINUOUS
 62
     2
 10
1433.895489
 20
3171.077599
 40
1.102500
 50
90.000000
 51
180.000000
  0
LINE
  8
CSLAYER1
  6
CONTINUOUS
 62
     2
 10
1437.517989
 20
3180.842599
 11
1438.935489
 21
3180.842599
  0
LINE
  8
CSLAYER1
  6
CONTINUOUS
 62
     2
 10
1437.517989
 20
3172.180099
 11
1441.927989
 21
3172.180099
  0
ARC
  8
CSLAYER1
  6
CONTINUOUS
 62
     2
 10
1434.840489
 20
3179.897599
 40
0.945000
 50
0.000000
 51
90.000000
  0
ARC
  8
CSLAYER1
  6
CONTINUOUS
 62
     2
 10
1437.517989
 20
3179.897599
 40
0.945000
 50
90.000000
 51
180.000000
  0
ARC
  8
CSLAYER1
  6
CONTINUOUS
 62
     2
 10
1437.517989
 20
3173.125099
 40
0.945000
 50
180.000000
 51
270.000000
  0
ARC
  8
CSLAYER1
  6
CONTINUOUS
 62
     2
 10
1433.265489
 20
3189.505099
 40
1.260000
 50
90.000000
 51
180.000000
  0
ARC
  8
CSLAYER1
  6
CONTINUOUS
 62
     2
 10
1442.400489
 20
3189.505099
 40
1.260000
 50
0.000000
 51
90.000000
  0
ARC
  8
CSLAYER1
  6
CONTINUOUS
 62
     2
 10
1442.400489
 20
3168.400099
 40
1.260000
 50
270.000000
 51
360.000000
  0
ARC
  8
CSLAYER1
  6
CONTINUOUS
 62
     2
 10
1433.265489
 20
3168.400099
 40
1.260000
 50
180.000000
 51
270.000000
  0
ARC
  8
CSLAYER1
  6
CONTINUOUS
 62
     2
 10
1434.840489
 20
3173.125099
 40
0.945000
 50
270.000000
 51
360.000000
  0
LINE
  8
CSLAYER1
  6
CONTINUOUS
 62
     2
 10
1432.792989
 20
3171.077599
 11
1432.792989
 21
3170.132599
  0
CIRCLE
  8
CSLAYER1
  6
CONTINUOUS
 62
     2
 10
1418.258500
 20
3228.602439
 40
2.500000
  0
CIRCLE
  8
CSLAYER1
  6
CONTINUOUS
 62
     2
 10
1418.258500
 20
3238.602439
 40
2.500000
  0
CIRCLE
  8
CSLAYER1
  6
CONTINUOUS
 62
     2
 10
1408.258500
 20
3238.602439
 40
2.500000
  0
CIRCLE
  8
CSLAYER1
  6
CONTINUOUS
 62
     2
 10
1408.258500
 20
3228.602439
 40
2.500000
  0
CIRCLE
  8
CSLAYER1
  6
CONTINUOUS
 62
     2
 10
1398.258500
 20
3228.602439
 40
2.500000
  0
CIRCLE
  8
CSLAYER1
  6
CONTINUOUS
 62
     2
 10
1398.258500
 20
3238.602439
 40
2.500000
  0
CIRCLE
  8
CSLAYER1
  6
CONTINUOUS
 62
     2
 10
1388.258500
 20
3238.602439
 40
2.500000
  0
CIRCLE
  8
CSLAYER1
  6
CONTINUOUS
 62
     2
 10
1388.258500
 20
3228.602439
 40
2.500000
  0
CIRCLE
  8
CSLAYER1
  6
CONTINUOUS
 62
     2
 10
1378.258500
 20
3228.602439
 40
2.500000
  0
CIRCLE
  8
CSLAYER1
  6
CONTINUOUS
 62
     2
 10
1378.258500
 20
3238.602439
 40
2.500000
  0
CIRCLE
  8
CSLAYER1
  6
CONTINUOUS
 62
     2
 10
1418.258500
 20
3218.602439
 40
2.500000
  0
CIRCLE
  8
CSLAYER1
  6
CONTINUOUS
 62
     2
 10
1418.258500
 20
3208.602439
 40
2.500000
  0
CIRCLE
  8
CSLAYER1
  6
CONTINUOUS
 62
     2
 10
1408.258500
 20
3208.602439
 40
2.500000
  0
CIRCLE
  8
CSLAYER1
  6
CONTINUOUS
 62
     2
 10
1408.258500
 20
3218.602439
 40
2.500000
  0
CIRCLE
  8
CSLAYER1
  6
CONTINUOUS
 62
     2
 10
1398.258500
 20
3218.602439
 40
2.500000
  0
CIRCLE
  8
CSLAYER1
  6
CONTINUOUS
 62
     2
 10
1398.258500
 20
3208.602439
 40
2.500000
  0
CIRCLE
  8
CSLAYER1
  6
CONTINUOUS
 62
     2
 10
1388.258500
 20
3208.602439
 40
2.500000
  0
CIRCLE
  8
CSLAYER1
  6
CONTINUOUS
 62
     2
 10
1388.258500
 20
3218.602439
 40
2.500000
  0
CIRCLE
  8
CSLAYER1
  6
CONTINUOUS
 62
     2
 10
1378.258500
 20
3218.602439
 40
2.500000
  0
CIRCLE
  8
CSLAYER1
  6
CONTINUOUS
 62
     2
 10
1378.258500
 20
3208.602439
 40
2.500000
  0
CIRCLE
  8
CSLAYER1
  6
CONTINUOUS
 62
     2
 10
1418.258500
 20
3128.602439
 40
2.500000
  0
CIRCLE
  8
CSLAYER1
  6
CONTINUOUS
 62
     2
 10
1418.258500
 20
3118.602439
 40
2.500000
  0
CIRCLE
  8
CSLAYER1
  6
CONTINUOUS
 62
     2
 10
1408.258500
 20
3118.602439
 40
2.500000
  0
CIRCLE
  8
CSLAYER1
  6
CONTINUOUS
 62
     2
 10
1408.258500
 20
3128.602439
 40
2.500000
  0
CIRCLE
  8
CSLAYER1
  6
CONTINUOUS
 62
     2
 10
1398.258500
 20
3128.602439
 40
2.500000
  0
CIRCLE
  8
CSLAYER1
  6
CONTINUOUS
 62
     2
 10
1398.258500
 20
3118.602439
 40
2.500000
  0
CIRCLE
  8
CSLAYER1
  6
CONTINUOUS
 62
     2
 10
1388.258500
 20
3118.602439
 40
2.500000
  0
CIRCLE
  8
CSLAYER1
  6
CONTINUOUS
 62
     2
 10
1388.258500
 20
3128.602439
 40
2.500000
  0
CIRCLE
  8
CSLAYER1
  6
CONTINUOUS
 62
     2
 10
1378.258500
 20
3128.602439
 40
2.500000
  0
CIRCLE
  8
CSLAYER1
  6
CONTINUOUS
 62
     2
 10
1378.258500
 20
3118.602439
 40
2.500000
  0
CIRCLE
  8
CSLAYER1
  6
CONTINUOUS
 62
     2
 10
1418.258500
 20
3138.602439
 40
2.500000
  0
CIRCLE
  8
CSLAYER1
  6
CONTINUOUS
 62
     2
 10
1418.258500
 20
3148.602439
 40
2.500000
  0
CIRCLE
  8
CSLAYER1
  6
CONTINUOUS
 62
     2
 10
1408.258500
 20
3148.602439
 40
2.500000
  0
CIRCLE
  8
CSLAYER1
  6
CONTINUOUS
 62
     2
 10
1408.258500
 20
3138.602439
 40
2.500000
  0
CIRCLE
  8
CSLAYER1
  6
CONTINUOUS
 62
     2
 10
1398.258500
 20
3138.602439
 40
2.500000
  0
CIRCLE
  8
CSLAYER1
  6
CONTINUOUS
 62
     2
 10
1398.258500
 20
3148.602439
 40
2.500000
  0
CIRCLE
  8
CSLAYER1
  6
CONTINUOUS
 62
     2
 10
1388.258500
 20
3148.602439
 40
2.500000
  0
CIRCLE
  8
CSLAYER1
  6
CONTINUOUS
 62
     2
 10
1388.258500
 20
3138.602439
 40
2.500000
  0
CIRCLE
  8
CSLAYER1
  6
CONTINUOUS
 62
     2
 10
1378.258500
 20
3138.602439
 40
2.500000
  0
CIRCLE
  8
CSLAYER1
  6
CONTINUOUS
 62
     2
 10
1378.258500
 20
3148.602439
 40
2.500000
  0
LINE
  8
CSLAYER1
  6
CONTINUOUS
 62
     2
 10
1444.258500
 20
3151.102439
 11
1444.258500
 21
3116.102439
  0
LINE
  8
CSLAYER1
  6
CONTINUOUS
 62
     2
 10
1428.258500
 20
3151.102439
 11
1428.258500
 21
3116.102439
  0
LINE
  8
CSLAYER1
  6
CONTINUOUS
 62
     2
 10
1442.758500
 20
3152.602439
 11
1429.758500
 21
3152.602439
  0
LINE
  8
CSLAYER1
  6
CONTINUOUS
 62
     2
 10
1443.258500
 20
3151.102439
 11
1443.258500
 21
3116.102439
  0
LINE
  8
CSLAYER1
  6
CONTINUOUS
 62
     2
 10
1429.258500
 20
3151.102439
 11
1429.258500
 21
3116.102439
  0
LINE
  8
CSLAYER1
  6
CONTINUOUS
 62
     2
 10
1442.758500
 20
3151.602439
 11
1429.758500
 21
3151.602439
  0
LINE
  8
CSLAYER1
  6
CONTINUOUS
 62
     2
 10
1442.758500
 20
3114.602439
 11
1429.758500
 21
3114.602439
  0
LINE
  8
CSLAYER1
  6
CONTINUOUS
 62
     2
 10
1442.758500
 20
3115.602439
 11
1429.758500
 21
3115.602439
  0
ARC
  8
CSLAYER1
  6
CONTINUOUS
 62
     2
 10
1442.758500
 20
3151.102439
 40
0.500000
 50
0.000000
 51
90.000000
  0
ARC
  8
CSLAYER1
  6
CONTINUOUS
 62
     2
 10
1429.758500
 20
3151.102439
 40
0.500000
 50
90.000000
 51
180.000000
  0
ARC
  8
CSLAYER1
  6
CONTINUOUS
 62
     2
 10
1442.758500
 20
3116.102439
 40
0.500000
 50
270.000000
 51
360.000000
  0
ARC
  8
CSLAYER1
  6
CONTINUOUS
 62
     2
 10
1429.758500
 20
3116.102439
 40
0.500000
 50
180.000000
 51
270.000000
  0
ARC
  8
CSLAYER1
  6
CONTINUOUS
 62
     2
 10
1442.758500
 20
3151.102439
 40
1.500000
 50
0.000000
 51
90.000000
  0
ARC
  8
CSLAYER1
  6
CONTINUOUS
 62
     2
 10
1429.758500
 20
3151.102439
 40
1.500000
 50
90.000000
 51
180.000000
  0
ARC
  8
CSLAYER1
  6
CONTINUOUS
 62
     2
 10
1442.758500
 20
3116.102439
 40
1.500000
 50
270.000000
 51
360.000000
  0
ARC
  8
CSLAYER1
  6
CONTINUOUS
 62
     2
 10
1429.758500
 20
3116.102439
 40
1.500000
 50
180.000000
 51
270.000000
  0
LINE
  8
CSLAYER1
  6
CONTINUOUS
 62
     2
 10
1439.258500
 20
3142.602439
 11
1439.258500
 21
3124.602439
  0
LINE
  8
CSLAYER1
  6
CONTINUOUS
 62
     2
 10
1442.336572
 20
3133.602439
 11
1439.258500
 21
3124.602439
  0
LINE
  8
CSLAYER1
  6
CONTINUOUS
 62
     2
 10
1442.336572
 20
3133.602439
 11
1439.258500
 21
3142.602439
  0
TEXT
  8
CSLAYER1
 62
     2
 10
1430.964530
 20
3142.582695
 40
7.066058
 41
1.574983
  1
UP
 50
270.000000
 51
0.000000
  7
EASYDRAW_FONT
 72
     5
 11
1430.964530
 21
3124.034492
  0
LINE
  8
CSLAYER1
  6
CONTINUOUS
 62
     2
 10
1444.258500
 20
3206.102439
 11
1444.258500
 21
3241.102439
  0
LINE
  8
CSLAYER1
  6
CONTINUOUS
 62
     2
 10
1428.258500
 20
3206.102439
 11
1428.258500
 21
3241.102439
  0
LINE
  8
CSLAYER1
  6
CONTINUOUS
 62
     2
 10
1442.758500
 20
3204.602439
 11
1429.758500
 21
3204.602439
  0
LINE
  8
CSLAYER1
  6
CONTINUOUS
 62
     2
 10
1443.258500
 20
3206.102439
 11
1443.258500
 21
3241.102439
  0
LINE
  8
CSLAYER1
  6
CONTINUOUS
 62
     2
 10
1429.258500
 20
3206.102439
 11
1429.258500
 21
3241.102439
  0
LINE
  8
CSLAYER1
  6
CONTINUOUS
 62
     2
 10
1442.758500
 20
3205.602439
 11
1429.758500
 21
3205.602439
  0
LINE
  8
CSLAYER1
  6
CONTINUOUS
 62
     2
 10
1442.758500
 20
3242.602439
 11
1429.758500
 21
3242.602439
  0
LINE
  8
CSLAYER1
  6
CONTINUOUS
 62
     2
 10
1442.758500
 20
3241.602439
 11
1429.758500
 21
3241.602439
  0
ARC
  8
CSLAYER1
  6
CONTINUOUS
 62
     2
 10
1442.758500
 20
3206.102439
 40
0.500000
 50
270.000000
 51
360.000000
  0
ARC
  8
CSLAYER1
  6
CONTINUOUS
 62
     2
 10
1429.758500
 20
3206.102439
 40
0.500000
 50
180.000000
 51
270.000000
  0
ARC
  8
CSLAYER1
  6
CONTINUOUS
 62
     2
 10
1442.758500
 20
3241.102439
 40
0.500000
 50
0.000000
 51
90.000000
  0
ARC
  8
CSLAYER1
  6
CONTINUOUS
 62
     2
 10
1429.758500
 20
3241.102439
 40
0.500000
 50
90.000000
 51
180.000000
  0
ARC
  8
CSLAYER1
  6
CONTINUOUS
 62
     2
 10
1442.758500
 20
3206.102439
 40
1.500000
 50
270.000000
 51
360.000000
  0
ARC
  8
CSLAYER1
  6
CONTINUOUS
 62
     2
 10
1429.758500
 20
3206.102439
 40
1.500000
 50
180.000000
 51
270.000000
  0
ARC
  8
CSLAYER1
  6
CONTINUOUS
 62
     2
 10
1442.758500
 20
3241.102439
 40
1.500000
 50
0.000000
 51
90.000000
  0
ARC
  8
CSLAYER1
  6
CONTINUOUS
 62
     2
 10
1429.758500
 20
3241.102439
 40
1.500000
 50
90.000000
 51
180.000000
  0
LINE
  8
CSLAYER1
  6
CONTINUOUS
 62
     2
 10
1433.785570
 20
3214.602439
 11
1433.785570
 21
3232.602439
  0
LINE
  8
CSLAYER1
  6
CONTINUOUS
 62
     2
 10
1430.707498
 20
3223.602439
 11
1433.785570
 21
3232.602439
  0
LINE
  8
CSLAYER1
  6
CONTINUOUS
 62
     2
 10
1430.707498
 20
3223.602439
 11
1433.785570
 21
3214.602439
  0
TEXT
  8
CSLAYER1
 62
     2
 10
1435.395615
 20
3238.300508
 40
6.383575
 41
1.255870
  1
DOWN
 50
270.000000
 51
0.000000
  7
EASYDRAW_FONT
 72
     5
 11
1435.395615
 21
3208.905059
  0
ENDBLK
  8
0
  0
ENDSEC
  0
SECTION
  2
ENTITIES
  0
LINE
  8
CSLAYER1
  6
CONTINUOUS
 62
     3
 10
180.707488
 20
3599.850540
 11
180.707488
 21
75.393795
  0
LINE
  8
CSLAYER1
  6
CONTINUOUS
 62
     3
 10
5161.512127
 20
3599.850540
 11
180.707488
 21
3599.850540
  0
LINE
  8
CSLAYER1
  6
CONTINUOUS
 62
     3
 10
5161.512127
 20
75.393795
 11
180.707488
 21
75.393795
  0
LINE
  8
CSLAYER1
  6
CONTINUOUS
 62
     3
 10
5161.512127
 20
75.393795
 11
5161.512127
 21
3599.850540
  0
LINE
  8
CSLAYER1
  6
CONTINUOUS
 62
     5
 10
105.707488
 20
1815.393795
 11
30.707488
 21
1815.393795
  0
LINE
  8
CSLAYER1
  6
CONTINUOUS
 62
     5
 10
3961.512127
 20
735.393795
 11
5161.512127
 21
735.393795
  0
LINE
  8
CSLAYER1
  6
CONTINUOUS
 62
     5
 10
3961.512127
 20
195.393795
 11
5161.512127
 21
195.393795
  0
LINE
  8
CSLAYER1
  6
CONTINUOUS
 62
     5
 10
3961.512127
 20
435.393795
 11
5161.512127
 21
435.393795
  0
LINE
  8
CSLAYER1
  6
CONTINUOUS
 62
     5
 10
3961.512127
 20
525.393795
 11
5161.512127
 21
525.393795
  0
LINE
  8
CSLAYER1
  6
CONTINUOUS
 62
     5
 10
3961.512127
 20
615.393795
 11
5161.512127
 21
615.393795
  0
LINE
  8
CSLAYER1
  6
CONTINUOUS
 62
     5
 10
3961.512127
 20
855.393795
 11
5161.512127
 21
855.393795
  0
LINE
  8
CSLAYER1
  6
CONTINUOUS
 62
     5
 10
3961.512127
 20
975.393795
 11
3961.512127
 21
75.393795
  0
LINE
  8
CSLAYER1
  6
CONTINUOUS
 62
     5
 10
4261.512127
 20
975.393795
 11
4261.512127
 21
615.393795
  0
LINE
  8
CSLAYER1
  6
CONTINUOUS
 62
     5
 10
3961.512127
 20
975.393795
 11
5161.512127
 21
975.393795
  0
LINE
  8
CSLAYER1
  6
CONTINUOUS
 62
     5
 10
4711.512127
 20
615.393795
 11
4711.512127
 21
195.393795
  0
TEXT
  8
CSLAYER1
 62
     3
 10
4291.048678
 20
88.237877
 40
89.070541
 41
1.003345
  1
東正車輌株式会社
 50
0.000000
 51
0.000000
  7
EASYDRAW_FONT
 72
     5
 11
4976.207181
 21
88.237877
  0
LINE
  8
CSLAYER1
  6
CONTINUOUS
 62
     5
 10
4336.512127
 20
525.393795
 11
4336.512127
 21
195.393795
  0
TEXT
  8
CSLAYER1
 62
     5
 10
4006.511719
 20
877.893738
 40
75.000000
 41
1.050000
  1
品　名
 50
0.000000
 51
0.000000
  7
EASYDRAW_FONT
 72
     5
 11
4216.511719
 21
877.893738
  0
TEXT
  8
CSLAYER1
 62
     5
 10
4006.511719
 20
757.893738
 40
75.000000
 41
1.050000
  1
型　式
 50
0.000000
 51
0.000000
  7
EASYDRAW_FONT
 72
     5
 11
4216.511719
 21
757.893738
  0
TEXT
  8
CSLAYER1
 62
     5
 10
3969.011719
 20
637.893799
 40
75.000000
 41
1.036364
  1
図面番号
 50
0.000000
 51
0.000000
  7
EASYDRAW_FONT
 72
     5
 11
4254.011719
 21
637.893799
  0
TEXT
  8
CSLAYER1
 62
     5
 10
4036.511719
 20
532.893799
 40
75.000000
 41
0.827586
  1
平成２８年４月１６日
 50
0.000000
 51
0.000000
  7
EASYDRAW_FONT
 72
     5
 11
4636.511719
 21
532.893799
  0
TEXT
  8
CSLAYER1
 62
     5
 10
4831.511719
 20
532.893799
 40
75.000000
 41
1.050000
  1
Ｂ－４
 50
0.000000
 51
0.000000
  7
EASYDRAW_FONT
 72
     5
 11
5041.511719
 21
532.893799
  0
TEXT
  8
CSLAYER1
 62
     5
 10
4044.011719
 20
442.893799
 40
75.000000
 41
1.050000
  1
検　図
 50
0.000000
 51
0.000000
  7
EASYDRAW_FONT
 72
     5
 11
4254.011719
 21
442.893799
  0
TEXT
  8
CSLAYER1
 62
     5
 10
4419.011719
 20
442.893799
 40
75.000000
 41
1.050000
  1
作　図
 50
0.000000
 51
0.000000
  7
EASYDRAW_FONT
 72
     5
 11
4629.011719
 21
442.893799
  0
TEXT
  8
CSLAYER1
 62
     5
 10
4831.511719
 20
442.893799
 40
75.000000
 41
1.050000
  1
尺　度
 50
0.000000
 51
0.000000
  7
EASYDRAW_FONT
 72
     5
 11
5041.511719
 21
442.893799
  0
TEXT
  8
CSLAYER1
 62
     5
 10
4982.620117
 20
217.121689
 40
75.000000
 41
1.080000
  1
１５
 50
0.000000
 51
0.000000
  7
EASYDRAW_FONT
 72
     5
 11
5117.620117
 21
217.121689
  0
TEXT
  8
CSLAYER1
 62
     5
 10
4952.140625
 20
288.678741
 40
75.000000
 41
1.200000
  1
／
 50
0.000000
 51
0.000000
  7
EASYDRAW_FONT
 72
     5
 11
5012.140625
 21
288.678741
  0
TEXT
  8
CSLAYER1
 62
     5
 10
4906.821289
 20
341.153900
 40
75.000000
 41
1.200000
  1
１
 50
0.000000
 51
0.000000
  7
EASYDRAW_FONT
 72
     5
 11
4966.821289
 21
341.153900
  0
TEXT
  8
CSLAYER1
 62
     3
 10
4471.511719
 20
877.893738
 40
75.000000
 41
0.834783
  1
ゴールドリフター
 50
0.000000
 51
0.000000
  7
EASYDRAW_FONT
 72
     5
 11
4951.511719
 21
877.893738
  0
TEXT
  8
CSLAYER1
 62
     3
 10
4291.511719
 20
757.893738
 40
75.000000
 41
0.819512
  1
ＧＬＩ－２５０－０５１０Ｗ３
 50
0.000000
 51
0.000000
  7
EASYDRAW_FONT
 72
     5
 11
5131.511719
 21
757.893738
  0
TEXT
  8
CSLAYER1
 62
     3
 10
4561.511719
 20
637.893799
 40
75.000000
 41
0.857143
  1
ＧＩ－１９
 50
0.000000
 51
0.000000
  7
EASYDRAW_FONT
 72
     5
 11
4861.511719
 21
637.893799
  0
INSERT
  8
CSLAYER1
  2
BLKF0000
 10
0.0
 20
0.0
 30
0.0
  0
TEXT
  8
CSLAYER1
 62
     5
 10
3520.395996
 20
427.828644
 40
60.000000
 41
1.050000
  1
Ｆ.Ｌ
 50
360.000000
 51
0.000000
  7
EASYDRAW_FONT
 72
     5
 11
3688.395996
 21
427.828644
  0
TEXT
  8
CSLAYER1
 62
     5
 10
2698.614502
 20
1111.680176
 40
60.000000
 41
1.017391
  1
ギヤードモーター
 50
360.000000
 51
0.000000
  7
EASYDRAW_FONT
 72
     5
 11
3166.614502
 21
1111.680176
  0
LINE
  8
CSLAYER1
  6
CONTINUOUS
 62
     3
 10
1039.838743
 20
471.602439
 11
539.838743
 21
471.602439
  0
LINE
  8
CSLAYER1
  6
CONTINUOUS
 62
     3
 10
1039.838743
 20
2771.602439
 11
1039.838743
 21
2718.602439
  0
LINE
  8
CSLAYER1
  6
CENTER
 62
     5
 10
789.838743
 20
2771.602439
 11
789.838743
 21
370.895943
  0
LINE
  8
CSLAYER1
  6
CONTINUOUS
 62
     3
 10
969.838743
 20
2718.602439
 11
969.838743
 21
2102.964919
  0
LINE
  8
CSLAYER1
  6
CONTINUOUS
 62
     3
 10
981.838743
 20
2718.602439
 11
981.838743
 21
2102.964919
  0
LINE
  8
CSLAYER1
  6
CONTINUOUS
 62
     3
 10
959.838743
 20
2718.602439
 11
959.838743
 21
471.602439
  0
LINE
  8
CSLAYER1
  6
CONTINUOUS
 62
     3
 10
947.838743
 20
2718.602439
 11
947.838743
 21
471.602439
  0
LINE
  8
CSLAYER1
  6
CONTINUOUS
 62
     3
 10
1039.838743
 20
471.602439
 11
1039.838743
 21
406.602439
  0
LINE
  8
CSLAYER1
  6
CENTER
 62
     5
 10
1005.407709
 20
1581.649923
 11
560.307947
 21
1581.649923
  0
LINE
  8
CSLAYER1
  6
CENTER
 62
     5
 10
947.838743
 20
1270.644308
 11
631.838743
 21
1270.644308
  0
LINE
  8
CSLAYER1
  6
CENTER
 62
     5
 10
1010.188271
 20
1198.902439
 11
565.813624
 21
1198.902439
  0
LINE
  8
CSLAYER1
  6
CONTINUOUS
 62
     3
 10
947.838743
 20
1211.402439
 11
631.838743
 21
1211.402439
  0
LINE
  8
CSLAYER1
  6
CONTINUOUS
 62
     3
 10
947.838743
 20
1186.402439
 11
631.838743
 21
1186.402439
  0
LINE
  8
CSLAYER1
  6
CONTINUOUS
 62
     3
 10
959.838743
 20
1215.902439
 11
969.838743
 21
1215.902439
  0
LINE
  8
CSLAYER1
  6
CONTINUOUS
 62
     3
 10
959.838743
 20
1181.902439
 11
969.838743
 21
1181.902439
  0
LINE
  8
CSLAYER1
  6
CONTINUOUS
 62
     3
 10
981.838743
 20
1218.902439
 11
991.838743
 21
1218.902439
  0
LINE
  8
CSLAYER1
  6
CONTINUOUS
 62
     3
 10
981.838743
 20
1178.902439
 11
991.838743
 21
1178.902439
  0
LINE
  8
CSLAYER1
  6
CONTINUOUS
 62
     3
 10
991.838743
 20
1218.902439
 11
991.838743
 21
1178.902439
  0
LINE
  8
CSLAYER1
  6
CONTINUOUS
 62
     3
 10
947.838743
 20
1232.494308
 11
631.838743
 21
1232.494308
  0
LINE
  8
CSLAYER1
  6
CONTINUOUS
 62
     3
 10
947.838743
 20
1594.149923
 11
631.838743
 21
1594.149923
  0
LINE
  8
CSLAYER1
  6
CONTINUOUS
 62
     3
 10
947.838743
 20
1569.149923
 11
631.838743
 21
1569.149923
  0
LINE
  8
CSLAYER1
  6
CONTINUOUS
 62
     3
 10
947.838743
 20
1654.352336
 11
631.838743
 21
1654.352336
  0
LINE
  8
CSLAYER1
  6
CONTINUOUS
 62
     3
 10
959.838743
 20
1598.649923
 11
969.838743
 21
1598.649923
  0
LINE
  8
CSLAYER1
  6
CONTINUOUS
 62
     3
 10
981.838743
 20
1601.649923
 11
991.838743
 21
1601.649923
  0
LINE
  8
CSLAYER1
  6
CONTINUOUS
 62
     3
 10
981.838743
 20
1561.649923
 11
991.838743
 21
1561.649923
  0
LINE
  8
CSLAYER1
  6
CONTINUOUS
 62
     3
 10
991.838743
 20
1601.649923
 11
991.838743
 21
1561.649923
  0
LINE
  8
CSLAYER1
  6
CONTINUOUS
 62
     3
 10
959.838743
 20
1564.649923
 11
969.838743
 21
1564.649923
  0
LINE
  8
CSLAYER1
  6
CENTER
 62
     5
 10
1009.976741
 20
816.252439
 11
555.719883
 21
816.252439
  0
LINE
  8
CSLAYER1
  6
CONTINUOUS
 62
     3
 10
947.838743
 20
828.752439
 11
631.838743
 21
828.752439
  0
LINE
  8
CSLAYER1
  6
CONTINUOUS
 62
     3
 10
959.838743
 20
833.252439
 11
969.838743
 21
833.252439
  0
LINE
  8
CSLAYER1
  6
CONTINUOUS
 62
     3
 10
981.838743
 20
836.252439
 11
991.838743
 21
836.252439
  0
LINE
  8
CSLAYER1
  6
CONTINUOUS
 62
     3
 10
981.838743
 20
796.252439
 11
991.838743
 21
796.252439
  0
LINE
  8
CSLAYER1
  6
CONTINUOUS
 62
     3
 10
991.838743
 20
836.252439
 11
991.838743
 21
796.252439
  0
LINE
  8
CSLAYER1
  6
CONTINUOUS
 62
     3
 10
959.838743
 20
799.252439
 11
969.838743
 21
799.252439
  0
LINE
  8
CSLAYER1
  6
CONTINUOUS
 62
     3
 10
539.838743
 20
2771.602439
 11
539.838743
 21
2718.602439
  0
LINE
  8
CSLAYER1
  6
CONTINUOUS
 62
     3
 10
609.838743
 20
2718.602439
 11
609.838743
 21
2102.901897
  0
LINE
  8
CSLAYER1
  6
CONTINUOUS
 62
     3
 10
597.838743
 20
2718.602439
 11
597.838743
 21
2102.964919
  0
LINE
  8
CSLAYER1
  6
CONTINUOUS
 62
     3
 10
619.838743
 20
2718.602439
 11
619.838743
 21
471.602439
  0
LINE
  8
CSLAYER1
  6
CONTINUOUS
 62
     3
 10
539.838743
 20
2718.602439
 11
1039.838743
 21
2718.602439
  0
LINE
  8
CSLAYER1
  6
CONTINUOUS
 62
     3
 10
539.838743
 20
2771.602439
 11
1039.838743
 21
2771.602439
  0
LINE
  8
CSLAYER1
  6
CONTINUOUS
 62
     3
 10
619.838743
 20
1215.902439
 11
609.838743
 21
1215.902439
  0
LINE
  8
CSLAYER1
  6
CONTINUOUS
 62
     3
 10
619.838743
 20
1181.902439
 11
609.838743
 21
1181.902439
  0
LINE
  8
CSLAYER1
  6
CONTINUOUS
 62
     3
 10
597.838743
 20
1218.902439
 11
587.838743
 21
1218.902439
  0
LINE
  8
CSLAYER1
  6
CONTINUOUS
 62
     3
 10
597.838743
 20
1178.902439
 11
587.838743
 21
1178.902439
  0
LINE
  8
CSLAYER1
  6
CONTINUOUS
 62
     3
 10
587.838743
 20
1218.902439
 11
587.838743
 21
1178.902439
  0
LINE
  8
CSLAYER1
  6
CONTINUOUS
 62
     3
 10
619.838743
 20
1598.649923
 11
609.838743
 21
1598.649923
  0
LINE
  8
CSLAYER1
  6
CONTINUOUS
 62
     3
 10
597.838743
 20
1601.649923
 11
587.838743
 21
1601.649923
  0
LINE
  8
CSLAYER1
  6
CONTINUOUS
 62
     3
 10
597.838743
 20
1561.649923
 11
587.838743
 21
1561.649923
  0
LINE
  8
CSLAYER1
  6
CONTINUOUS
 62
     3
 10
587.838743
 20
1601.649923
 11
587.838743
 21
1561.649923
  0
LINE
  8
CSLAYER1
  6
CONTINUOUS
 62
     3
 10
619.838743
 20
1564.649923
 11
609.838743
 21
1564.649923
  0
LINE
  8
CSLAYER1
  6
CONTINUOUS
 62
     3
 10
619.838743
 20
833.252439
 11
609.838743
 21
833.252439
  0
LINE
  8
CSLAYER1
  6
CONTINUOUS
 62
     3
 10
597.838743
 20
836.252439
 11
587.838743
 21
836.252439
  0
LINE
  8
CSLAYER1
  6
CONTINUOUS
 62
     3
 10
597.838743
 20
796.252439
 11
587.838743
 21
796.252439
  0
LINE
  8
CSLAYER1
  6
CONTINUOUS
 62
     4
 10
587.838743
 20
836.252439
 11
587.838743
 21
796.252439
  0
LINE
  8
CSLAYER1
  6
CONTINUOUS
 62
     3
 10
619.838743
 20
799.252439
 11
609.838743
 21
799.252439
  0
LINE
  8
CSLAYER1
  6
CONTINUOUS
 62
     3
 10
539.838743
 20
471.602439
 11
539.838743
 21
406.602439
  0
LINE
  8
CSLAYER1
  6
CENTER
 62
     5
 10
631.838743
 20
1624.102336
 11
947.838743
 21
1624.102336
  0
LINE
  8
CSLAYER1
  6
CONTINUOUS
 62
     3
 10
947.838743
 20
1593.852336
 11
631.838743
 21
1593.852336
  0
LINE
  8
CSLAYER1
  6
CONTINUOUS
 62
     3
 10
631.838743
 20
811.716075
 11
947.838743
 21
811.716075
  0
LINE
  8
CSLAYER1
  6
CONTINUOUS
 62
     3
 10
631.838743
 20
751.216075
 11
947.838743
 21
751.216075
  0
LINE
  8
CSLAYER1
  6
CENTER
 62
     5
 10
625.482363
 20
781.466075
 11
954.351912
 21
781.466075
  0
LINE
  8
CSLAYER1
  6
CENTER
 62
     5
 10
625.482363
 20
688.014527
 11
954.116374
 21
688.014527
  0
LINE
  8
CSLAYER1
  6
CONTINUOUS
 62
     4
 10
609.838743
 20
718.264527
 11
619.838743
 21
718.264527
  0
LINE
  8
CSLAYER1
  6
CONTINUOUS
 62
     4
 10
609.838743
 20
657.764527
 11
619.838743
 21
657.764527
  0
LINE
  8
CSLAYER1
  6
CONTINUOUS
 62
     3
 10
631.838743
 20
726.164527
 11
947.838743
 21
726.164527
  0
LINE
  8
CSLAYER1
  6
CONTINUOUS
 62
     3
 10
631.838743
 20
649.864527
 11
947.838743
 21
649.864527
  0
LINE
  8
CSLAYER1
  6
CONTINUOUS
 62
     4
 10
959.838743
 20
718.264527
 11
969.838743
 21
718.264527
  0
LINE
  8
CSLAYER1
  6
CONTINUOUS
 62
     4
 10
959.838743
 20
657.764527
 11
969.838743
 21
657.764527
  0
LINE
  8
CSLAYER1
  6
CONTINUOUS
 62
     3
 10
825.838743
 20
1404.903041
 11
825.838743
 21
1286.125841
  0
LINE
  8
CSLAYER1
  6
CONTINUOUS
 62
     3
 10
825.838743
 20
1404.903041
 11
841.838743
 21
1404.903041
  0
LINE
  8
CSLAYER1
  6
CONTINUOUS
 62
     3
 10
810.838743
 20
1402.403041
 11
810.838743
 21
1367.403041
  0
LINE
  8
CSLAYER1
  6
CONTINUOUS
 62
     4
 10
825.838743
 20
1286.125841
 11
841.838743
 21
1286.125841
  0
LINE
  8
CSLAYER1
  6
CONTINUOUS
 62
     3
 10
810.838743
 20
1402.403041
 11
825.838743
 21
1402.403041
  0
LINE
  8
CSLAYER1
  6
CONTINUOUS
 62
     3
 10
768.838743
 20
1402.403041
 11
768.838743
 21
1367.403041
  0
LINE
  8
CSLAYER1
  6
CONTINUOUS
 62
     3
 10
768.838743
 20
1402.403041
 11
753.838743
 21
1402.403041
  0
LINE
  8
CSLAYER1
  6
CONTINUOUS
 62
     3
 10
841.838743
 20
1404.903041
 11
841.838743
 21
1286.125841
  0
LINE
  8
CSLAYER1
  6
CONTINUOUS
 62
     3
 10
753.838743
 20
1404.903041
 11
753.838743
 21
1286.125841
  0
LINE
  8
CSLAYER1
  6
CONTINUOUS
 62
     3
 10
753.838743
 20
1404.903041
 11
737.838743
 21
1404.903041
  0
LINE
  8
CSLAYER1
  6
CONTINUOUS
 62
     3
 10
753.838743
 20
1286.125841
 11
737.838743
 21
1286.125841
  0
LINE
  8
CSLAYER1
  6
CONTINUOUS
 62
     3
 10
737.838743
 20
1404.903041
 11
737.838743
 21
1286.125841
  0
LINE
  8
CSLAYER1
  6
CONTINUOUS
 62
     3
 10
809.838743
 20
1415.677369
 11
809.838743
 21
1351.631338
  0
LINE
  8
CSLAYER1
  6
CONTINUOUS
 62
     3
 10
809.838743
 20
1415.677369
 11
769.838743
 21
1415.677369
  0
LINE
  8
CSLAYER1
  6
CONTINUOUS
 62
     3
 10
820.088743
 20
1362.072279
 11
820.088743
 21
1308.794308
  0
LINE
  8
CSLAYER1
  6
CONTINUOUS
 62
     3
 10
769.838743
 20
1415.677369
 11
769.838743
 21
1351.631338
  0
LINE
  8
CSLAYER1
  6
CONTINUOUS
 62
     3
 10
759.588743
 20
1363.974853
 11
759.588743
 21
1308.794308
  0
LINE
  8
CSLAYER1
  6
CONTINUOUS
 62
     5
 10
721.599664
 20
1384.903041
 11
864.957261
 21
1384.903041
  0
LINE
  8
CSLAYER1
  6
CONTINUOUS
 62
     3
 10
737.838743
 20
1308.794308
 11
631.838743
 21
1308.794308
  0
LINE
  8
CSLAYER1
  6
CONTINUOUS
 62
     3
 10
841.838743
 20
1308.794308
 11
947.838743
 21
1308.794308
  0
LINE
  8
CSLAYER1
  6
CENTER
 62
     5
 10
2926.747080
 20
433.602439
 11
1953.620161
 21
615.602439
  0
LINE
  8
CSLAYER1
  6
CENTER
 62
     5
 10
1953.624140
 20
797.623711
 11
2926.747080
 21
615.602439
  0
LINE
  8
CSLAYER1
  6
CENTER
 62
     5
 10
2926.747080
 20
615.602439
 11
1953.620161
 21
433.602439
  0
LINE
  8
CSLAYER1
  6
CENTER
 62
     5
 10
1953.620161
 20
615.602439
 11
2926.747080
 21
797.602439
  0
LINE
  8
CSLAYER1
  6
CONTINUOUS
 62
     3
 10
1919.420161
 20
2756.602439
 11
2969.420161
 21
2756.602439
  0
LINE
  8
CSLAYER1
  6
CONTINUOUS
 62
     3
 10
1919.420161
 20
2756.602439
 11
1919.420161
 21
2703.602439
  0
LINE
  8
CSLAYER1
  6
CONTINUOUS
 62
     3
 10
1919.420161
 20
2703.602439
 11
2969.420161
 21
2703.602439
  0
LINE
  8
CSLAYER1
  6
CONTINUOUS
 62
     3
 10
2969.420161
 20
2756.602439
 11
2969.420161
 21
2703.602439
  0
LINE
  8
CSLAYER1
  6
CONTINUOUS
 62
     2
 10
2308.873606
 20
768.334318
 11
2308.094141
 21
767.031279
  0
LINE
  8
CSLAYER1
  6
CONTINUOUS
 62
     3
 10
1919.620161
 20
471.602439
 11
1919.620161
 21
406.602439
  0
LINE
  8
CSLAYER1
  6
CONTINUOUS
 62
     3
 10
2969.620161
 20
471.602439
 11
2969.620161
 21
406.602439
  0
LINE
  8
CSLAYER1
  6
CENTER
 62
     6
 10
1953.620161
 20
453.602439
 11
1953.620161
 21
413.602439
  0
LINE
  8
CSLAYER1
  6
CONTINUOUS
 62
     3
 10
1919.620161
 20
471.602439
 11
2969.620161
 21
471.602439
  0
LINE
  8
CSLAYER1
  6
CENTER
 62
     6
 10
1933.620161
 20
433.602439
 11
1973.620161
 21
433.602439
  0
LINE
  8
CSLAYER1
  6
CENTER
 62
     6
 10
2561.645566
 20
433.602439
 11
2601.645566
 21
433.602439
  0
LINE
  8
CSLAYER1
  6
CENTER
 62
     6
 10
2581.645566
 20
453.602439
 11
2581.645566
 21
413.602439
  0
LINE
  8
CSLAYER1
  6
CONTINUOUS
 62
     5
 10
2581.447628
 20
2752.268294
 11
2581.447628
 21
2709.622115
  0
LINE
  8
CSLAYER1
  6
CONTINUOUS
 62
     5
 10
2559.026472
 20
2729.502439
 11
2603.968285
 21
2729.502439
  0
LINE
  8
CSLAYER1
  6
CONTINUOUS
 62
     5
 10
1933.412663
 20
2729.502439
 11
1978.752474
 21
2729.502439
  0
LINE
  8
CSLAYER1
  6
CONTINUOUS
 62
     5
 10
1953.620161
 20
2749.592739
 11
1953.620161
 21
2708.727251
  0
LINE
  8
CSLAYER1
  6
CENTER
 62
     6
 10
2908.564262
 20
433.602439
 11
2948.564262
 21
433.602439
  0
INSERT
  8
CSLAYER1
  2
BLKF0001
 10
0.0
 20
0.0
 30
0.0
  0
LINE
  8
CSLAYER1
  6
CONTINUOUS
 62
     3
 10
2969.420161
 20
3463.602439
 11
2969.420161
 21
2963.602439
  0
LINE
  8
CSLAYER1
  6
CONTINUOUS
 62
     3
 10
1919.420161
 20
3463.602439
 11
1919.420161
 21
2963.602439
  0
DIMENSION
  8
CSLAYER1
 62
     3
  2
*D0000
 10
2969.420161
 20
2878.115808
 11
2450.318115
 21
2801.784424
 13
1919.420161
 23
2756.602439
 14
2969.420161
 24
2756.602439
 70
1
  0
LINE
  8
CSLAYER1
  6
CONTINUOUS
 62
     3
 10
3688.811913
 20
406.602439
 11
539.838743
 21
406.602439
  0
LINE
  8
CSLAYER1
  6
CENTER
 62
     5
 10
1919.420161
 20
3213.602439
 11
3003.006357
 21
3213.602439
  0
TEXT
  8
CSLAYER1
 62
     5
 10
802.873291
 20
2912.155518
 40
60.000000
 41
1.020000
  1
ＵＰ・ＤＯＷＮ
 50
0.000000
 51
0.000000
  7
EASYDRAW_FONT
 72
     5
 11
1210.873291
 21
2912.155518
  0
TEXT
  8
CSLAYER1
 62
     5
 10
796.304077
 20
2993.448975
 40
60.000000
 41
1.020000
  1
フットスイッチ
 50
0.000000
 51
0.000000
  7
EASYDRAW_FONT
 72
     5
 11
1204.304077
 21
2993.448975
  0
TEXT
  8
CSLAYER1
 62
     5
 10
948.964600
 20
3441.314209
 40
60.000000
 41
1.028571
  1
電源コード
 50
0.000000
 51
0.000000
  7
EASYDRAW_FONT
 72
     5
 11
1236.964600
 21
3441.314209
  0
TEXT
  8
CSLAYER1
 62
     5
 10
982.616943
 20
3363.154053
 40
60.000000
 41
1.036364
  1
長サ４ｍ
 50
0.000000
 51
0.000000
  7
EASYDRAW_FONT
 72
     5
 11
1210.616943
 21
3363.154053
  0
INSERT
  8
CSLAYER1
  2
BLKF0002
 10
0.0
 20
0.0
 30
0.0
  0
LINE
  8
CSLAYER1
  6
CONTINUOUS
 62
     5
 10
926.417714
 20
3433.180680
 11
1254.032311
 21
3433.180680
  0
LINE
  8
CSLAYER1
  6
CONTINUOUS
 62
     5
 10
787.626671
 20
2983.945362
 11
1223.315366
 21
2983.945362
  0
LINE
  8
CSLAYER1
  6
CONTINUOUS
 62
     1
 10
1991.667573
 20
509.129525
 11
2005.490655
 21
509.129525
  0
LINE
  8
CSLAYER1
  6
CONTINUOUS
 62
     1
 10
1998.782749
 20
516.828982
 11
1998.782749
 21
502.350496
  0
LINE
  8
CSLAYER1
  6
CONTINUOUS
 62
     4
 10
670.338743
 20
501.902439
 11
670.338743
 21
471.602439
  0
LINE
  8
CSLAYER1
  6
CONTINUOUS
 62
     4
 10
850.338743
 20
501.902439
 11
850.338743
 21
471.602439
  0
LINE
  8
CSLAYER1
  6
CONTINUOUS
 62
     4
 10
668.838743
 20
507.902439
 11
851.838743
 21
507.902439
  0
LINE
  8
CSLAYER1
  6
CONTINUOUS
 62
     4
 10
668.838743
 20
501.902439
 11
668.838743
 21
507.902439
  0
LINE
  8
CSLAYER1
  6
CONTINUOUS
 62
     2
 10
668.838743
 20
501.902439
 11
851.838743
 21
501.902439
  0
LINE
  8
CSLAYER1
  6
CONTINUOUS
 62
     4
 10
851.838743
 20
501.902439
 11
851.838743
 21
507.902439
  0
LINE
  8
CSLAYER1
  6
CONTINUOUS
 62
     2
 10
851.838743
 20
501.902439
 11
851.838743
 21
507.902439
  0
LINE
  8
CSLAYER1
  6
CONTINUOUS
 62
     2
 10
671.338743
 20
507.902439
 11
681.338743
 21
507.902439
  0
LINE
  8
CSLAYER1
  6
CONTINUOUS
 62
     2
 10
840.838743
 20
510.902439
 11
840.838743
 21
508.702439
  0
LINE
  8
CSLAYER1
  6
CONTINUOUS
 62
     2
 10
847.838743
 20
510.902439
 11
847.838743
 21
508.702439
  0
LINE
  8
CSLAYER1
  6
CONTINUOUS
 62
     2
 10
847.838743
 20
509.702439
 11
840.838743
 21
509.702439
  0
LINE
  8
CSLAYER1
  6
CONTINUOUS
 62
     2
 10
846.438743
 20
512.302439
 11
842.238743
 21
512.302439
  0
LINE
  8
CSLAYER1
  6
CONTINUOUS
 62
     2
 10
848.838743
 20
508.702439
 11
848.838743
 21
507.902439
  0
LINE
  8
CSLAYER1
  6
CONTINUOUS
 62
     2
 10
839.838743
 20
508.702439
 11
839.838743
 21
507.902439
  0
LINE
  8
CSLAYER1
  6
CONTINUOUS
 62
     2
 10
848.838743
 20
508.702439
 11
839.838743
 21
508.702439
  0
ARC
  8
CSLAYER1
  6
CONTINUOUS
 62
     2
 10
846.438743
 20
510.902439
 40
1.400000
 50
-0.000000
 51
90.000000
  0
ARC
  8
CSLAYER1
  6
CONTINUOUS
 62
     2
 10
842.238743
 20
510.902439
 40
1.400000
 50
90.000000
 51
180.000000
  0
LINE
  8
CSLAYER1
  6
CONTINUOUS
 62
     2
 10
845.378695
 20
508.702439
 11
842.993493
 21
509.702439
  0
LINE
  8
CSLAYER1
  6
CONTINUOUS
 62
     5
 10
844.338743
 20
514.130788
 11
844.338743
 21
498.932610
  0
LINE
  8
CSLAYER1
  6
CONTINUOUS
 62
     2
 10
672.838743
 20
510.902439
 11
672.838743
 21
508.702439
  0
LINE
  8
CSLAYER1
  6
CONTINUOUS
 62
     2
 10
679.838743
 20
510.902439
 11
679.838743
 21
508.702439
  0
LINE
  8
CSLAYER1
  6
CONTINUOUS
 62
     2
 10
679.838743
 20
509.702439
 11
672.838743
 21
509.702439
  0
LINE
  8
CSLAYER1
  6
CONTINUOUS
 62
     2
 10
678.438743
 20
512.302439
 11
674.238743
 21
512.302439
  0
LINE
  8
CSLAYER1
  6
CONTINUOUS
 62
     2
 10
680.838743
 20
508.702439
 11
680.838743
 21
507.902439
  0
LINE
  8
CSLAYER1
  6
CONTINUOUS
 62
     2
 10
671.838743
 20
508.702439
 11
671.838743
 21
507.902439
  0
LINE
  8
CSLAYER1
  6
CONTINUOUS
 62
     2
 10
680.838743
 20
508.702439
 11
671.838743
 21
508.702439
  0
ARC
  8
CSLAYER1
  6
CONTINUOUS
 62
     2
 10
678.438743
 20
510.902439
 40
1.400000
 50
-0.000000
 51
90.000000
  0
ARC
  8
CSLAYER1
  6
CONTINUOUS
 62
     2
 10
674.238743
 20
510.902439
 40
1.400000
 50
90.000000
 51
180.000000
  0
LINE
  8
CSLAYER1
  6
CONTINUOUS
 62
     2
 10
677.378695
 20
508.702439
 11
674.993493
 21
509.702439
  0
LINE
  8
CSLAYER1
  6
CONTINUOUS
 62
     5
 10
676.338743
 20
514.130788
 11
676.338743
 21
498.932610
  0
LINE
  8
CSLAYER1
  6
CONTINUOUS
 62
     5
 10
749.483901
 20
486.902439
 11
780.362032
 21
486.902439
  0
LINE
  8
CSLAYER1
  6
CONTINUOUS
 62
     5
 10
795.338743
 20
497.701549
 11
795.338743
 21
471.602439
  0
LINE
  8
CSLAYER1
  6
CONTINUOUS
 62
     5
 10
765.338743
 20
501.902439
 11
765.338743
 21
471.512158
  0
ARC
  8
CSLAYER1
  6
CONTINUOUS
 62
     2
 10
795.338743
 20
486.902439
 40
6.500000
 50
-59.489763
 51
239.489763
  0
ARC
  8
CSLAYER1
  6
CONTINUOUS
 62
     2
 10
765.338743
 20
486.902439
 40
10.500000
 50
-55.150095
 51
231.502580
  0
ARC
  8
CSLAYER1
  6
CONTINUOUS
 62
     2
 10
765.338743
 20
486.902439
 40
6.000000
 50
0.000000
 51
180.000000
  0
ARC
  8
CSLAYER1
  6
CONTINUOUS
 62
     2
 10
795.338743
 20
486.902439
 40
3.300000
 50
0.000000
 51
180.000000
  0
LINE
  8
CSLAYER1
  6
CONTINUOUS
 62
     2
 10
759.338743
 20
486.902439
 11
759.338743
 21
471.602439
  0
LINE
  8
CSLAYER1
  6
CONTINUOUS
 62
     2
 10
771.338743
 20
486.902439
 11
771.338743
 21
471.602439
  0
LINE
  8
CSLAYER1
  6
CONTINUOUS
 62
     2
 10
792.038743
 20
486.902439
 11
792.038743
 21
471.602439
  0
LINE
  8
CSLAYER1
  6
CONTINUOUS
 62
     2
 10
798.638743
 20
486.902439
 11
798.638743
 21
471.602439
  0
LINE
  8
CSLAYER1
  6
CONTINUOUS
 62
     5
 10
786.439601
 20
486.902439
 11
805.503242
 21
486.902439
  0
POINT
  8
CSLAYER1
 62
     2
 10
690.338743
 20
486.902439
  0
POINT
  8
CSLAYER1
 62
     2
 10
730.338743
 20
486.902439
  0
LINE
  8
CSLAYER1
  6
CONTINUOUS
 62
     3
 10
896.838743
 20
751.216075
 11
896.838743
 21
726.164527
  0
LINE
  8
CSLAYER1
  6
CONTINUOUS
 62
     3
 10
912.838743
 20
751.216075
 11
912.838743
 21
726.164527
  0
LINE
  8
CSLAYER1
  6
CONTINUOUS
 62
     3
 10
914.838743
 20
745.770959
 11
914.838743
 21
751.216075
  0
LINE
  8
CSLAYER1
  6
CONTINUOUS
 62
     3
 10
924.838743
 20
747.770959
 11
924.838743
 21
751.216075
  0
LINE
  8
CSLAYER1
  6
CONTINUOUS
 62
     3
 10
922.838743
 20
745.770959
 11
922.838743
 21
751.216075
  0
LINE
  8
CSLAYER1
  6
CONTINUOUS
 62
     3
 10
914.838743
 20
745.770959
 11
922.838743
 21
745.770959
  0
LINE
  8
CSLAYER1
  6
CONTINUOUS
 62
     3
 10
922.838743
 20
745.770959
 11
924.838743
 21
747.770959
  0
LINE
  8
CSLAYER1
  6
CONTINUOUS
 62
     3
 10
912.838743
 20
747.770959
 11
914.838743
 21
747.770959
  0
LINE
  8
CSLAYER1
  6
CONTINUOUS
 62
     3
 10
895.838743
 20
747.770959
 11
896.838743
 21
747.770959
  0
LINE
  8
CSLAYER1
  6
CONTINUOUS
 62
     3
 10
682.838743
 20
751.216075
 11
682.838743
 21
726.164527
  0
LINE
  8
CSLAYER1
  6
CONTINUOUS
 62
     3
 10
666.838743
 20
751.216075
 11
666.838743
 21
726.164527
  0
LINE
  8
CSLAYER1
  6
CONTINUOUS
 62
     3
 10
664.838743
 20
745.770959
 11
664.838743
 21
751.216075
  0
LINE
  8
CSLAYER1
  6
CONTINUOUS
 62
     3
 10
654.838743
 20
747.770959
 11
654.838743
 21
751.216075
  0
LINE
  8
CSLAYER1
  6
CONTINUOUS
 62
     3
 10
656.838743
 20
745.770959
 11
656.838743
 21
751.216075
  0
LINE
  8
CSLAYER1
  6
CONTINUOUS
 62
     3
 10
664.838743
 20
745.770959
 11
656.838743
 21
745.770959
  0
LINE
  8
CSLAYER1
  6
CONTINUOUS
 62
     3
 10
656.838743
 20
745.770959
 11
654.838743
 21
747.770959
  0
LINE
  8
CSLAYER1
  6
CONTINUOUS
 62
     3
 10
666.838743
 20
747.770959
 11
664.838743
 21
747.770959
  0
LINE
  8
CSLAYER1
  6
CONTINUOUS
 62
     3
 10
683.838743
 20
747.770959
 11
682.838743
 21
747.770959
  0
LINE
  8
CSLAYER1
  6
CONTINUOUS
 62
     3
 10
853.282432
 20
744.670516
 11
726.395055
 21
744.670516
  0
LINE
  8
CSLAYER1
  6
CONTINUOUS
 62
     3
 10
895.838743
 20
751.216075
 11
895.838743
 21
738.993971
  0
LINE
  8
CSLAYER1
  6
CONTINUOUS
 62
     3
 10
883.222470
 20
726.164527
 11
890.637764
 21
730.220750
  0
LINE
  8
CSLAYER1
  6
CONTINUOUS
 62
     3
 10
858.081452
 20
745.897295
 11
867.804862
 21
751.216075
  0
LINE
  8
CSLAYER1
  6
CONTINUOUS
 62
     3
 10
834.338743
 20
1164.028065
 11
834.338743
 21
828.752439
  0
LINE
  8
CSLAYER1
  6
CONTINUOUS
 62
     3
 10
874.838743
 20
646.968722
 11
851.838743
 21
646.968722
  0
LINE
  8
CSLAYER1
  6
CONTINUOUS
 62
     3
 10
851.838743
 20
547.016378
 11
874.838743
 21
547.016378
  0
LINE
  8
CSLAYER1
  6
CONTINUOUS
 62
     3
 10
834.338743
 20
1164.028065
 11
834.169407
 21
1166.140410
  0
LINE
  8
CSLAYER1
  6
CONTINUOUS
 62
     3
 10
834.169407
 20
1166.140410
 11
833.662688
 21
1168.236678
  0
LINE
  8
CSLAYER1
  6
CONTINUOUS
 62
     3
 10
833.662688
 20
1168.236678
 11
832.822443
 21
1170.300916
  0
LINE
  8
CSLAYER1
  6
CONTINUOUS
 62
     3
 10
832.822443
 20
1170.300916
 11
831.655065
 21
1172.317415
  0
LINE
  8
CSLAYER1
  6
CONTINUOUS
 62
     3
 10
831.655065
 20
1172.317415
 11
830.169440
 21
1174.270826
  0
LINE
  8
CSLAYER1
  6
CONTINUOUS
 62
     3
 10
830.169440
 20
1174.270826
 11
828.376874
 21
1176.146283
  0
LINE
  8
CSLAYER1
  6
CONTINUOUS
 62
     3
 10
828.376874
 20
1176.146283
 11
826.291009
 21
1177.929514
  0
LINE
  8
CSLAYER1
  6
CONTINUOUS
 62
     3
 10
826.291009
 20
1177.929514
 11
823.927721
 21
1179.606946
  0
LINE
  8
CSLAYER1
  6
CONTINUOUS
 62
     3
 10
823.927721
 20
1179.606946
 11
821.304995
 21
1181.165814
  0
LINE
  8
CSLAYER1
  6
CONTINUOUS
 62
     3
 10
821.304995
 20
1181.165814
 11
820.088743
 21
1181.772808
  0
LINE
  8
CSLAYER1
  6
CONTINUOUS
 62
     3
 10
789.838743
 20
1139.791628
 11
793.717174
 21
1139.883855
  0
LINE
  8
CSLAYER1
  6
CONTINUOUS
 62
     3
 10
793.717174
 20
1139.883855
 11
797.566087
 21
1140.159834
  0
LINE
  8
CSLAYER1
  6
CONTINUOUS
 62
     3
 10
797.566087
 20
1140.159834
 11
801.356191
 21
1140.617464
  0
LINE
  8
CSLAYER1
  6
CONTINUOUS
 62
     3
 10
801.356191
 20
1140.617464
 11
805.058640
 21
1141.253264
  0
LINE
  8
CSLAYER1
  6
CONTINUOUS
 62
     3
 10
805.058640
 20
1141.253264
 11
808.645256
 21
1142.062393
  0
LINE
  8
CSLAYER1
  6
CONTINUOUS
 62
     3
 10
808.645256
 20
1142.062393
 11
812.088743
 21
1143.038695
  0
LINE
  8
CSLAYER1
  6
CONTINUOUS
 62
     3
 10
812.088743
 20
1143.038695
 11
815.362895
 21
1144.174738
  0
LINE
  8
CSLAYER1
  6
CONTINUOUS
 62
     3
 10
815.362895
 20
1144.174738
 11
818.442792
 21
1145.461877
  0
LINE
  8
CSLAYER1
  6
CONTINUOUS
 62
     3
 10
818.442792
 20
1145.461877
 11
821.304995
 21
1146.890316
  0
LINE
  8
CSLAYER1
  6
CONTINUOUS
 62
     3
 10
821.304995
 20
1146.890316
 11
823.927721
 21
1148.449184
  0
LINE
  8
CSLAYER1
  6
CONTINUOUS
 62
     3
 10
823.927721
 20
1148.449184
 11
826.291009
 21
1150.126616
  0
LINE
  8
CSLAYER1
  6
CONTINUOUS
 62
     3
 10
826.291009
 20
1150.126616
 11
828.376874
 21
1151.909846
  0
LINE
  8
CSLAYER1
  6
CONTINUOUS
 62
     3
 10
828.376874
 20
1151.909846
 11
830.169440
 21
1153.785304
  0
LINE
  8
CSLAYER1
  6
CONTINUOUS
 62
     3
 10
830.169440
 20
1153.785304
 11
831.655065
 21
1155.738715
  0
LINE
  8
CSLAYER1
  6
CONTINUOUS
 62
     3
 10
831.655065
 20
1155.738715
 11
832.822443
 21
1157.755213
  0
LINE
  8
CSLAYER1
  6
CONTINUOUS
 62
     3
 10
832.822443
 20
1157.755213
 11
833.662688
 21
1159.819452
  0
LINE
  8
CSLAYER1
  6
CONTINUOUS
 62
     3
 10
833.662688
 20
1159.819452
 11
834.169407
 21
1161.915720
  0
LINE
  8
CSLAYER1
  6
CONTINUOUS
 62
     3
 10
834.169407
 20
1161.915720
 11
834.338743
 21
1164.028065
  0
LINE
  8
CSLAYER1
  6
CONTINUOUS
 62
     3
 10
820.088743
 20
1164.028065
 11
819.973633
 21
1165.463985
  0
LINE
  8
CSLAYER1
  6
CONTINUOUS
 62
     3
 10
789.838743
 20
1147.552734
 11
792.475205
 21
1147.615428
  0
LINE
  8
CSLAYER1
  6
CONTINUOUS
 62
     3
 10
792.475205
 20
1147.615428
 11
795.091601
 21
1147.803031
  0
LINE
  8
CSLAYER1
  6
CONTINUOUS
 62
     3
 10
795.091601
 20
1147.803031
 11
797.668020
 21
1148.114117
  0
LINE
  8
CSLAYER1
  6
CONTINUOUS
 62
     3
 10
797.668020
 20
1148.114117
 11
800.184853
 21
1148.546318
  0
LINE
  8
CSLAYER1
  6
CONTINUOUS
 62
     3
 10
800.184853
 20
1148.546318
 11
802.622946
 21
1149.096344
  0
LINE
  8
CSLAYER1
  6
CONTINUOUS
 62
     3
 10
802.622946
 20
1149.096344
 11
804.963743
 21
1149.760010
  0
LINE
  8
CSLAYER1
  6
CONTINUOUS
 62
     3
 10
804.963743
 20
1149.760010
 11
807.189431
 21
1150.532264
  0
LINE
  8
CSLAYER1
  6
CONTINUOUS
 62
     3
 10
807.189431
 20
1150.532264
 11
809.283069
 21
1151.407229
  0
LINE
  8
CSLAYER1
  6
CONTINUOUS
 62
     3
 10
809.283069
 20
1151.407229
 11
811.228724
 21
1152.378247
  0
LINE
  8
CSLAYER1
  6
CONTINUOUS
 62
     3
 10
811.228724
 20
1152.378247
 11
813.011588
 21
1153.437926
  0
LINE
  8
CSLAYER1
  6
CONTINUOUS
 62
     3
 10
813.011588
 20
1153.437926
 11
814.618093
 21
1154.578203
  0
LINE
  8
CSLAYER1
  6
CONTINUOUS
 62
     3
 10
814.618093
 20
1154.578203
 11
816.036012
 21
1155.790400
  0
LINE
  8
CSLAYER1
  6
CONTINUOUS
 62
     3
 10
816.036012
 20
1155.790400
 11
817.254554
 21
1157.065289
  0
LINE
  8
CSLAYER1
  6
CONTINUOUS
 62
     3
 10
817.254554
 20
1157.065289
 11
818.264445
 21
1158.393170
  0
LINE
  8
CSLAYER1
  6
CONTINUOUS
 62
     3
 10
818.264445
 20
1158.393170
 11
819.058000
 21
1159.763936
  0
LINE
  8
CSLAYER1
  6
CONTINUOUS
 62
     3
 10
819.058000
 20
1159.763936
 11
819.629178
 21
1161.167154
  0
LINE
  8
CSLAYER1
  6
CONTINUOUS
 62
     3
 10
819.629178
 20
1161.167154
 11
819.973633
 21
1162.592145
  0
LINE
  8
CSLAYER1
  6
CONTINUOUS
 62
     3
 10
819.973633
 20
1162.592145
 11
820.088743
 21
1164.028065
  0
LINE
  8
CSLAYER1
  6
CONTINUOUS
 62
     3
 10
789.838743
 20
528.455857
 11
795.242399
 21
528.584353
  0
LINE
  8
CSLAYER1
  6
CONTINUOUS
 62
     3
 10
795.242399
 20
528.584353
 11
800.604930
 21
528.968863
  0
LINE
  8
CSLAYER1
  6
CONTINUOUS
 62
     3
 10
800.604930
 20
528.968863
 11
805.885524
 21
529.606461
  0
LINE
  8
CSLAYER1
  6
CONTINUOUS
 62
     3
 10
805.885524
 20
529.606461
 11
811.043992
 21
530.492294
  0
LINE
  8
CSLAYER1
  6
CONTINUOUS
 62
     3
 10
811.043992
 20
530.492294
 11
816.041076
 21
531.619621
  0
LINE
  8
CSLAYER1
  6
CONTINUOUS
 62
     3
 10
816.041076
 20
531.619621
 11
820.838743
 21
532.979861
  0
LINE
  8
CSLAYER1
  6
CONTINUOUS
 62
     3
 10
820.838743
 20
532.979861
 11
825.400482
 21
534.562663
  0
LINE
  8
CSLAYER1
  6
CONTINUOUS
 62
     3
 10
825.400482
 20
534.562663
 11
829.691575
 21
536.355980
  0
LINE
  8
CSLAYER1
  6
CONTINUOUS
 62
     3
 10
829.691575
 20
536.355980
 11
833.679364
 21
538.346164
  0
LINE
  8
CSLAYER1
  6
CONTINUOUS
 62
     3
 10
833.679364
 20
538.346164
 11
837.333499
 21
540.518070
  0
LINE
  8
CSLAYER1
  6
CONTINUOUS
 62
     3
 10
837.333499
 20
540.518070
 11
840.626170
 21
542.855166
  0
LINE
  8
CSLAYER1
  6
CONTINUOUS
 62
     3
 10
840.626170
 20
542.855166
 11
843.532318
 21
545.339668
  0
LINE
  8
CSLAYER1
  6
CONTINUOUS
 62
     3
 10
843.532318
 20
545.339668
 11
846.029826
 21
547.952665
  0
LINE
  8
CSLAYER1
  6
CONTINUOUS
 62
     3
 10
846.029826
 20
547.952665
 11
848.099686
 21
550.674271
  0
LINE
  8
CSLAYER1
  6
CONTINUOUS
 62
     3
 10
848.099686
 20
550.674271
 11
849.726145
 21
553.483774
  0
LINE
  8
CSLAYER1
  6
CONTINUOUS
 62
     3
 10
849.726145
 20
553.483774
 11
850.896824
 21
556.359792
  0
LINE
  8
CSLAYER1
  6
CONTINUOUS
 62
     3
 10
850.896824
 20
556.359792
 11
851.602815
 21
559.280436
  0
LINE
  8
CSLAYER1
  6
CONTINUOUS
 62
     3
 10
851.602815
 20
559.280436
 11
851.838743
 21
562.223478
  0
LINE
  8
CSLAYER1
  6
CONTINUOUS
 62
     3
 10
850.963792
 20
507.902439
 11
851.602815
 21
510.546038
  0
LINE
  8
CSLAYER1
  6
CONTINUOUS
 62
     3
 10
851.602815
 20
510.546038
 11
851.838743
 21
513.489080
  0
LINE
  8
CSLAYER1
  6
CONTINUOUS
 62
     3
 10
851.838743
 20
646.968722
 11
851.838743
 21
513.489080
  0
LINE
  8
CSLAYER1
  6
CONTINUOUS
 62
     3
 10
789.838743
 20
529.545136
 11
795.068088
 21
529.669486
  0
LINE
  8
CSLAYER1
  6
CONTINUOUS
 62
     3
 10
795.068088
 20
529.669486
 11
800.257634
 21
530.041593
  0
LINE
  8
CSLAYER1
  6
CONTINUOUS
 62
     3
 10
800.257634
 20
530.041593
 11
805.367886
 21
530.658623
  0
LINE
  8
CSLAYER1
  6
CONTINUOUS
 62
     3
 10
805.367886
 20
530.658623
 11
810.359952
 21
531.515881
  0
LINE
  8
CSLAYER1
  6
CONTINUOUS
 62
     3
 10
810.359952
 20
531.515881
 11
815.195839
 21
532.606842
  0
LINE
  8
CSLAYER1
  6
CONTINUOUS
 62
     3
 10
815.195839
 20
532.606842
 11
819.838743
 21
533.923203
  0
LINE
  8
CSLAYER1
  6
CONTINUOUS
 62
     3
 10
819.838743
 20
533.923203
 11
824.253330
 21
535.454947
  0
LINE
  8
CSLAYER1
  6
CONTINUOUS
 62
     3
 10
824.253330
 20
535.454947
 11
828.406000
 21
537.190415
  0
LINE
  8
CSLAYER1
  6
CONTINUOUS
 62
     3
 10
828.406000
 20
537.190415
 11
832.265150
 21
539.116400
  0
LINE
  8
CSLAYER1
  6
CONTINUOUS
 62
     3
 10
832.265150
 20
539.116400
 11
835.801410
 21
541.218244
  0
LINE
  8
CSLAYER1
  6
CONTINUOUS
 62
     3
 10
835.801410
 20
541.218244
 11
838.987866
 21
543.479951
  0
LINE
  8
CSLAYER1
  6
CONTINUOUS
 62
     3
 10
838.987866
 20
543.479951
 11
841.800268
 21
545.884307
  0
LINE
  8
CSLAYER1
  6
CONTINUOUS
 62
     3
 10
841.800268
 20
545.884307
 11
844.217211
 21
548.413013
  0
LINE
  8
CSLAYER1
  6
CONTINUOUS
 62
     3
 10
844.217211
 20
548.413013
 11
846.220301
 21
551.046826
  0
LINE
  8
CSLAYER1
  6
CONTINUOUS
 62
     3
 10
846.220301
 20
551.046826
 11
847.794293
 21
553.765700
  0
LINE
  8
CSLAYER1
  6
CONTINUOUS
 62
     3
 10
847.794293
 20
553.765700
 11
848.927209
 21
556.548943
  0
LINE
  8
CSLAYER1
  6
CONTINUOUS
 62
     3
 10
848.927209
 20
556.548943
 11
849.610425
 21
559.375372
  0
LINE
  8
CSLAYER1
  6
CONTINUOUS
 62
     3
 10
849.610425
 20
559.375372
 11
849.838743
 21
562.223478
  0
LINE
  8
CSLAYER1
  6
CONTINUOUS
 62
     3
 10
849.838743
 20
649.864527
 11
849.838743
 21
562.223478
  0
LINE
  8
CSLAYER1
  6
CONTINUOUS
 62
     3
 10
849.838743
 20
570.686559
 11
850.896824
 21
568.087163
  0
LINE
  8
CSLAYER1
  6
CONTINUOUS
 62
     3
 10
850.896824
 20
568.087163
 11
851.602815
 21
565.166520
  0
LINE
  8
CSLAYER1
  6
CONTINUOUS
 62
     3
 10
851.602815
 20
565.166520
 11
851.838743
 21
562.223478
  0
LINE
  8
CSLAYER1
  6
CONTINUOUS
 62
     4
 10
843.608648
 20
649.864527
 11
843.608648
 21
547.776310
  0
LINE
  8
CSLAYER1
  6
CONTINUOUS
 62
     4
 10
836.501884
 20
649.864527
 11
836.501884
 21
541.653772
  0
LINE
  8
CSLAYER1
  6
CONTINUOUS
 62
     4
 10
824.219957
 20
649.864527
 11
824.219957
 21
535.492045
  0
LINE
  8
CSLAYER1
  6
CONTINUOUS
 62
     4
 10
819.285740
 20
649.864527
 11
819.285740
 21
533.766415
  0
LINE
  8
CSLAYER1
  6
CONTINUOUS
 62
     4
 10
801.444434
 20
649.864527
 11
801.444434
 21
530.184891
  0
ARC
  8
CSLAYER1
  6
CONTINUOUS
 62
     3
 10
853.282432
 20
754.670516
 40
10.000000
 50
270.000000
 51
298.679003
  0
ARC
  8
CSLAYER1
  6
CONTINUOUS
 62
     3
 10
885.838743
 20
738.993971
 40
10.000000
 50
298.679003
 51
360.000000
  0
LINE
  8
CSLAYER1
  6
CONTINUOUS
 62
     3
 10
683.838743
 20
751.216075
 11
683.838743
 21
738.993971
  0
LINE
  8
CSLAYER1
  6
CONTINUOUS
 62
     3
 10
696.455017
 20
726.164527
 11
689.039723
 21
730.220750
  0
LINE
  8
CSLAYER1
  6
CONTINUOUS
 62
     3
 10
721.596035
 20
745.897295
 11
711.872625
 21
751.216075
  0
LINE
  8
CSLAYER1
  6
CONTINUOUS
 62
     3
 10
745.338743
 20
1164.028065
 11
745.338743
 21
828.752439
  0
LINE
  8
CSLAYER1
  6
CONTINUOUS
 62
     3
 10
745.338743
 20
1164.028065
 11
745.508079
 21
1166.140410
  0
LINE
  8
CSLAYER1
  6
CONTINUOUS
 62
     3
 10
745.508079
 20
1166.140410
 11
746.014798
 21
1168.236678
  0
LINE
  8
CSLAYER1
  6
CONTINUOUS
 62
     3
 10
746.014798
 20
1168.236678
 11
746.855044
 21
1170.300916
  0
LINE
  8
CSLAYER1
  6
CONTINUOUS
 62
     3
 10
746.855044
 20
1170.300916
 11
748.022422
 21
1172.317415
  0
LINE
  8
CSLAYER1
  6
CONTINUOUS
 62
     3
 10
748.022422
 20
1172.317415
 11
749.508047
 21
1174.270826
  0
LINE
  8
CSLAYER1
  6
CONTINUOUS
 62
     3
 10
749.508047
 20
1174.270826
 11
751.300613
 21
1176.146283
  0
LINE
  8
CSLAYER1
  6
CONTINUOUS
 62
     3
 10
751.300613
 20
1176.146283
 11
753.386477
 21
1177.929514
  0
LINE
  8
CSLAYER1
  6
CONTINUOUS
 62
     3
 10
753.386477
 20
1177.929514
 11
755.749766
 21
1179.606946
  0
LINE
  8
CSLAYER1
  6
CONTINUOUS
 62
     3
 10
755.749766
 20
1179.606946
 11
758.372492
 21
1181.165814
  0
LINE
  8
CSLAYER1
  6
CONTINUOUS
 62
     3
 10
758.372492
 20
1181.165814
 11
759.588743
 21
1181.772808
  0
LINE
  8
CSLAYER1
  6
CONTINUOUS
 62
     3
 10
789.838743
 20
1139.791628
 11
785.960313
 21
1139.883855
  0
LINE
  8
CSLAYER1
  6
CONTINUOUS
 62
     3
 10
785.960313
 20
1139.883855
 11
782.111400
 21
1140.159834
  0
LINE
  8
CSLAYER1
  6
CONTINUOUS
 62
     3
 10
782.111400
 20
1140.159834
 11
778.321296
 21
1140.617464
  0
LINE
  8
CSLAYER1
  6
CONTINUOUS
 62
     3
 10
778.321296
 20
1140.617464
 11
774.618847
 21
1141.253264
  0
LINE
  8
CSLAYER1
  6
CONTINUOUS
 62
     3
 10
774.618847
 20
1141.253264
 11
771.032231
 21
1142.062393
  0
LINE
  8
CSLAYER1
  6
CONTINUOUS
 62
     3
 10
771.032231
 20
1142.062393
 11
767.588743
 21
1143.038695
  0
LINE
  8
CSLAYER1
  6
CONTINUOUS
 62
     3
 10
767.588743
 20
1143.038695
 11
764.314592
 21
1144.174738
  0
LINE
  8
CSLAYER1
  6
CONTINUOUS
 62
     3
 10
764.314592
 20
1144.174738
 11
761.234695
 21
1145.461877
  0
LINE
  8
CSLAYER1
  6
CONTINUOUS
 62
     3
 10
761.234695
 20
1145.461877
 11
758.372492
 21
1146.890316
  0
LINE
  8
CSLAYER1
  6
CONTINUOUS
 62
     3
 10
758.372492
 20
1146.890316
 11
755.749766
 21
1148.449184
  0
LINE
  8
CSLAYER1
  6
CONTINUOUS
 62
     3
 10
755.749766
 20
1148.449184
 11
753.386477
 21
1150.126616
  0
LINE
  8
CSLAYER1
  6
CONTINUOUS
 62
     3
 10
753.386477
 20
1150.126616
 11
751.300613
 21
1151.909846
  0
LINE
  8
CSLAYER1
  6
CONTINUOUS
 62
     3
 10
751.300613
 20
1151.909846
 11
749.508047
 21
1153.785304
  0
LINE
  8
CSLAYER1
  6
CONTINUOUS
 62
     3
 10
749.508047
 20
1153.785304
 11
748.022422
 21
1155.738715
  0
LINE
  8
CSLAYER1
  6
CONTINUOUS
 62
     3
 10
748.022422
 20
1155.738715
 11
746.855044
 21
1157.755213
  0
LINE
  8
CSLAYER1
  6
CONTINUOUS
 62
     3
 10
746.855044
 20
1157.755213
 11
746.014798
 21
1159.819452
  0
LINE
  8
CSLAYER1
  6
CONTINUOUS
 62
     3
 10
746.014798
 20
1159.819452
 11
745.508079
 21
1161.915720
  0
LINE
  8
CSLAYER1
  6
CONTINUOUS
 62
     3
 10
745.508079
 20
1161.915720
 11
745.338743
 21
1164.028065
  0
LINE
  8
CSLAYER1
  6
CONTINUOUS
 62
     3
 10
759.588743
 20
1164.028065
 11
759.703854
 21
1165.463985
  0
LINE
  8
CSLAYER1
  6
CONTINUOUS
 62
     3
 10
789.838743
 20
1147.552734
 11
787.202282
 21
1147.615428
  0
LINE
  8
CSLAYER1
  6
CONTINUOUS
 62
     3
 10
787.202282
 20
1147.615428
 11
784.585886
 21
1147.803031
  0
LINE
  8
CSLAYER1
  6
CONTINUOUS
 62
     3
 10
784.585886
 20
1147.803031
 11
782.009467
 21
1148.114117
  0
LINE
  8
CSLAYER1
  6
CONTINUOUS
 62
     3
 10
782.009467
 20
1148.114117
 11
779.492634
 21
1148.546318
  0
LINE
  8
CSLAYER1
  6
CONTINUOUS
 62
     3
 10
779.492634
 20
1148.546318
 11
777.054541
 21
1149.096344
  0
LINE
  8
CSLAYER1
  6
CONTINUOUS
 62
     3
 10
777.054541
 20
1149.096344
 11
774.713743
 21
1149.760010
  0
LINE
  8
CSLAYER1
  6
CONTINUOUS
 62
     3
 10
774.713743
 20
1149.760010
 11
772.488056
 21
1150.532264
  0
LINE
  8
CSLAYER1
  6
CONTINUOUS
 62
     3
 10
772.488056
 20
1150.532264
 11
770.394418
 21
1151.407229
  0
LINE
  8
CSLAYER1
  6
CONTINUOUS
 62
     3
 10
770.394418
 20
1151.407229
 11
768.448763
 21
1152.378247
  0
LINE
  8
CSLAYER1
  6
CONTINUOUS
 62
     3
 10
768.448763
 20
1152.378247
 11
766.665899
 21
1153.437926
  0
LINE
  8
CSLAYER1
  6
CONTINUOUS
 62
     3
 10
766.665899
 20
1153.437926
 11
765.059394
 21
1154.578203
  0
LINE
  8
CSLAYER1
  6
CONTINUOUS
 62
     3
 10
765.059394
 20
1154.578203
 11
763.641475
 21
1155.790400
  0
LINE
  8
CSLAYER1
  6
CONTINUOUS
 62
     3
 10
763.641475
 20
1155.790400
 11
762.422933
 21
1157.065289
  0
LINE
  8
CSLAYER1
  6
CONTINUOUS
 62
     3
 10
762.422933
 20
1157.065289
 11
761.413042
 21
1158.393170
  0
LINE
  8
CSLAYER1
  6
CONTINUOUS
 62
     3
 10
761.413042
 20
1158.393170
 11
760.619487
 21
1159.763936
  0
LINE
  8
CSLAYER1
  6
CONTINUOUS
 62
     3
 10
760.619487
 20
1159.763936
 11
760.048309
 21
1161.167154
  0
LINE
  8
CSLAYER1
  6
CONTINUOUS
 62
     3
 10
760.048309
 20
1161.167154
 11
759.703854
 21
1162.592145
  0
LINE
  8
CSLAYER1
  6
CONTINUOUS
 62
     3
 10
759.703854
 20
1162.592145
 11
759.588743
 21
1164.028065
  0
LINE
  8
CSLAYER1
  6
CONTINUOUS
 62
     3
 10
789.838743
 20
528.455857
 11
784.435087
 21
528.584353
  0
LINE
  8
CSLAYER1
  6
CONTINUOUS
 62
     3
 10
784.435087
 20
528.584353
 11
779.072556
 21
528.968863
  0
LINE
  8
CSLAYER1
  6
CONTINUOUS
 62
     3
 10
779.072556
 20
528.968863
 11
773.791963
 21
529.606461
  0
LINE
  8
CSLAYER1
  6
CONTINUOUS
 62
     3
 10
773.791963
 20
529.606461
 11
768.633495
 21
530.492294
  0
LINE
  8
CSLAYER1
  6
CONTINUOUS
 62
     3
 10
768.633495
 20
530.492294
 11
763.636411
 21
531.619621
  0
LINE
  8
CSLAYER1
  6
CONTINUOUS
 62
     3
 10
763.636411
 20
531.619621
 11
758.838743
 21
532.979861
  0
LINE
  8
CSLAYER1
  6
CONTINUOUS
 62
     3
 10
758.838743
 20
532.979861
 11
754.277004
 21
534.562663
  0
LINE
  8
CSLAYER1
  6
CONTINUOUS
 62
     3
 10
754.277004
 20
534.562663
 11
749.985912
 21
536.355980
  0
LINE
  8
CSLAYER1
  6
CONTINUOUS
 62
     3
 10
749.985912
 20
536.355980
 11
745.998123
 21
538.346164
  0
LINE
  8
CSLAYER1
  6
CONTINUOUS
 62
     3
 10
745.998123
 20
538.346164
 11
742.343988
 21
540.518070
  0
LINE
  8
CSLAYER1
  6
CONTINUOUS
 62
     3
 10
742.343988
 20
540.518070
 11
739.051317
 21
542.855166
  0
LINE
  8
CSLAYER1
  6
CONTINUOUS
 62
     3
 10
739.051317
 20
542.855166
 11
736.145168
 21
545.339668
  0
LINE
  8
CSLAYER1
  6
CONTINUOUS
 62
     3
 10
736.145168
 20
545.339668
 11
733.647661
 21
547.952665
  0
LINE
  8
CSLAYER1
  6
CONTINUOUS
 62
     3
 10
733.647661
 20
547.952665
 11
731.577801
 21
550.674271
  0
LINE
  8
CSLAYER1
  6
CONTINUOUS
 62
     3
 10
731.577801
 20
550.674271
 11
729.951342
 21
553.483774
  0
LINE
  8
CSLAYER1
  6
CONTINUOUS
 62
     3
 10
729.951342
 20
553.483774
 11
728.780663
 21
556.359792
  0
LINE
  8
CSLAYER1
  6
CONTINUOUS
 62
     3
 10
728.780663
 20
556.359792
 11
728.074672
 21
559.280436
  0
LINE
  8
CSLAYER1
  6
CONTINUOUS
 62
     3
 10
728.074672
 20
559.280436
 11
727.838743
 21
562.223478
  0
LINE
  8
CSLAYER1
  6
CONTINUOUS
 62
     3
 10
728.713694
 20
507.902439
 11
728.074672
 21
510.546038
  0
LINE
  8
CSLAYER1
  6
CONTINUOUS
 62
     3
 10
728.074672
 20
510.546038
 11
727.838743
 21
513.489080
  0
LINE
  8
CSLAYER1
  6
CONTINUOUS
 62
     3
 10
789.838743
 20
529.545136
 11
784.609399
 21
529.669486
  0
LINE
  8
CSLAYER1
  6
CONTINUOUS
 62
     3
 10
784.609399
 20
529.669486
 11
779.419853
 21
530.041593
  0
LINE
  8
CSLAYER1
  6
CONTINUOUS
 62
     3
 10
779.419853
 20
530.041593
 11
774.309601
 21
530.658623
  0
LINE
  8
CSLAYER1
  6
CONTINUOUS
 62
     3
 10
774.309601
 20
530.658623
 11
769.317535
 21
531.515881
  0
LINE
  8
CSLAYER1
  6
CONTINUOUS
 62
     3
 10
769.317535
 20
531.515881
 11
764.481648
 21
532.606842
  0
LINE
  8
CSLAYER1
  6
CONTINUOUS
 62
     3
 10
764.481648
 20
532.606842
 11
759.838743
 21
533.923203
  0
LINE
  8
CSLAYER1
  6
CONTINUOUS
 62
     3
 10
759.838743
 20
533.923203
 11
755.424157
 21
535.454947
  0
LINE
  8
CSLAYER1
  6
CONTINUOUS
 62
     3
 10
755.424157
 20
535.454947
 11
751.271487
 21
537.190415
  0
LINE
  8
CSLAYER1
  6
CONTINUOUS
 62
     3
 10
751.271487
 20
537.190415
 11
747.412337
 21
539.116400
  0
LINE
  8
CSLAYER1
  6
CONTINUOUS
 62
     3
 10
747.412337
 20
539.116400
 11
743.876077
 21
541.218244
  0
LINE
  8
CSLAYER1
  6
CONTINUOUS
 62
     3
 10
743.876077
 20
541.218244
 11
740.689621
 21
543.479951
  0
LINE
  8
CSLAYER1
  6
CONTINUOUS
 62
     3
 10
740.689621
 20
543.479951
 11
737.877219
 21
545.884307
  0
LINE
  8
CSLAYER1
  6
CONTINUOUS
 62
     3
 10
737.877219
 20
545.884307
 11
735.460276
 21
548.413013
  0
LINE
  8
CSLAYER1
  6
CONTINUOUS
 62
     3
 10
735.460276
 20
548.413013
 11
733.457186
 21
551.046826
  0
LINE
  8
CSLAYER1
  6
CONTINUOUS
 62
     3
 10
733.457186
 20
551.046826
 11
731.883194
 21
553.765700
  0
LINE
  8
CSLAYER1
  6
CONTINUOUS
 62
     3
 10
731.883194
 20
553.765700
 11
730.750278
 21
556.548943
  0
LINE
  8
CSLAYER1
  6
CONTINUOUS
 62
     3
 10
730.750278
 20
556.548943
 11
730.067062
 21
559.375372
  0
LINE
  8
CSLAYER1
  6
CONTINUOUS
 62
     3
 10
730.067062
 20
559.375372
 11
729.838743
 21
562.223478
  0
LINE
  8
CSLAYER1
  6
CONTINUOUS
 62
     3
 10
729.838743
 20
649.864527
 11
729.838743
 21
562.223478
  0
LINE
  8
CSLAYER1
  6
CONTINUOUS
 62
     3
 10
729.838743
 20
570.686559
 11
728.780663
 21
568.087163
  0
LINE
  8
CSLAYER1
  6
CONTINUOUS
 62
     3
 10
728.780663
 20
568.087163
 11
728.074672
 21
565.166520
  0
LINE
  8
CSLAYER1
  6
CONTINUOUS
 62
     3
 10
728.074672
 20
565.166520
 11
727.838743
 21
562.223478
  0
LINE
  8
CSLAYER1
  6
CONTINUOUS
 62
     4
 10
736.068839
 20
649.864527
 11
736.068839
 21
547.776310
  0
LINE
  8
CSLAYER1
  6
CONTINUOUS
 62
     4
 10
743.175603
 20
649.864527
 11
743.175603
 21
541.653772
  0
LINE
  8
CSLAYER1
  6
CONTINUOUS
 62
     4
 10
755.457530
 20
649.864527
 11
755.457530
 21
535.492045
  0
LINE
  8
CSLAYER1
  6
CONTINUOUS
 62
     4
 10
760.391747
 20
649.864527
 11
760.391747
 21
533.766415
  0
LINE
  8
CSLAYER1
  6
CONTINUOUS
 62
     4
 10
778.233053
 20
649.864527
 11
778.233053
 21
530.184891
  0
ARC
  8
CSLAYER1
  6
CONTINUOUS
 62
     3
 10
726.395055
 20
754.670516
 40
10.000000
 50
241.320997
 51
270.000000
  0
ARC
  8
CSLAYER1
  6
CONTINUOUS
 62
     3
 10
693.838743
 20
738.993971
 40
10.000000
 50
180.000000
 51
241.320997
  0
LINE
  8
CSLAYER1
  6
CONTINUOUS
 62
     3
 10
874.838743
 20
646.968722
 11
874.838743
 21
547.016378
  0
LINE
  8
CSLAYER1
  6
CONTINUOUS
 62
     3
 10
727.838743
 20
562.223478
 11
727.838743
 21
513.489080
  0
LINE
  8
CSLAYER1
  6
CONTINUOUS
 62
     3
 10
820.088743
 20
1232.494308
 11
820.088743
 21
1211.402439
  0
LINE
  8
CSLAYER1
  6
CONTINUOUS
 62
     3
 10
759.588743
 20
1232.494308
 11
759.588743
 21
1211.402439
  0
LINE
  8
CSLAYER1
  6
CONTINUOUS
 62
     3
 10
820.088743
 20
1186.402439
 11
820.088743
 21
1164.028065
  0
LINE
  8
CSLAYER1
  6
CONTINUOUS
 62
     3
 10
759.588743
 20
1186.402439
 11
759.588743
 21
1164.028065
  0
LINE
  8
CSLAYER1
  6
CONTINUOUS
 62
     5
 10
2693.020781
 20
1102.938872
 11
3164.821548
 21
1102.938872
  0
LINE
  8
CSLAYER1
  6
CENTER
 62
     5
 10
2082.444984
 20
486.902439
 11
2071.592148
 21
486.902439
  0
LINE
  8
CSLAYER1
  6
CENTER
 62
     5
 10
1916.902654
 20
486.902439
 11
1947.707889
 21
486.902439
  0
LINE
  8
CSLAYER1
  6
CONTINUOUS
 62
     2
 10
1916.902654
 20
490.702439
 11
1919.420161
 21
490.702439
  0
LINE
  8
CSLAYER1
  6
CONTINUOUS
 62
     2
 10
1947.420161
 20
501.902439
 11
1947.420161
 21
485.566256
  0
LINE
  8
CSLAYER1
  6
CONTINUOUS
 62
     2
 10
1919.420161
 20
495.402439
 11
1919.420161
 21
478.402439
  0
LINE
  8
CSLAYER1
  6
CONTINUOUS
 62
     2
 10
1923.389727
 20
499.892820
 11
1938.017598
 21
499.892820
  0
LINE
  8
CSLAYER1
  6
CONTINUOUS
 62
     2
 10
1922.529256
 20
498.402439
 11
1922.529256
 21
475.402439
  0
LINE
  8
CSLAYER1
  6
CONTINUOUS
 62
     2
 10
1938.878070
 20
498.402439
 11
1938.878070
 21
475.402439
  0
LINE
  8
CSLAYER1
  6
CONTINUOUS
 62
     2
 10
1922.529256
 20
498.402439
 11
1923.389727
 21
499.892820
  0
LINE
  8
CSLAYER1
  6
CONTINUOUS
 62
     2
 10
1938.878070
 20
498.402439
 11
1938.017598
 21
499.892820
  0
LINE
  8
CSLAYER1
  6
CONTINUOUS
 62
     2
 10
1923.389727
 20
493.541967
 11
1938.017598
 21
493.541967
  0
ARC
  8
CSLAYER1
  6
CONTINUOUS
 62
     2
 10
1948.575280
 20
486.902439
 40
26.046025
 50
165.231439
 51
194.768561
  0
ARC
  8
CSLAYER1
  6
CONTINUOUS
 62
     2
 10
1928.660849
 20
496.717394
 40
6.153702
 50
156.825356
 51
211.065581
  0
ARC
  8
CSLAYER1
  6
CONTINUOUS
 62
     2
 10
1932.746476
 20
496.717394
 40
6.153702
 50
-31.065581
 51
23.174644
  0
ARC
  8
CSLAYER1
  6
CONTINUOUS
 62
     2
 10
1912.832045
 20
486.902439
 40
26.046025
 50
-14.768561
 51
14.768561
  0
LINE
  8
CSLAYER1
  6
CONTINUOUS
 62
     2
 10
1922.420161
 20
498.402439
 11
1922.529256
 21
498.402439
  0
ARC
  8
CSLAYER1
  6
CONTINUOUS
 62
     2
 10
1922.420161
 20
495.402439
 40
3.000000
 50
90.000000
 51
180.000000
  0
LINE
  8
CSLAYER1
  6
CONTINUOUS
 62
     2
 10
1942.420161
 20
498.402439
 11
1942.420161
 21
475.402439
  0
LINE
  8
CSLAYER1
  6
CONTINUOUS
 62
     2
 10
1942.420161
 20
498.402439
 11
1943.280633
 21
499.892820
  0
ARC
  8
CSLAYER1
  6
CONTINUOUS
 62
     2
 10
1968.466186
 20
486.902439
 40
26.046025
 50
165.231439
 51
194.768561
  0
ARC
  8
CSLAYER1
  6
CONTINUOUS
 62
     2
 10
1948.551754
 20
496.717394
 40
6.153702
 50
156.825356
 51
211.065581
  0
LINE
  8
CSLAYER1
  6
CONTINUOUS
 62
     2
 10
1943.280633
 20
493.541967
 11
1947.420161
 21
493.541967
  0
LINE
  8
CSLAYER1
  6
CONTINUOUS
 62
     2
 10
1943.280633
 20
499.892820
 11
1947.420161
 21
499.892820
  0
LINE
  8
CSLAYER1
  6
CONTINUOUS
 62
     2
 10
1938.878070
 20
497.238563
 11
1942.420161
 21
497.238563
  0
LINE
  8
CSLAYER1
  6
CONTINUOUS
 62
     2
 10
1938.878070
 20
496.592186
 11
1940.484431
 21
496.592186
  0
LINE
  8
CSLAYER1
  6
CONTINUOUS
 62
     2
 10
1940.484431
 20
497.238563
 11
1940.484431
 21
476.566315
  0
LINE
  8
CSLAYER1
  6
CONTINUOUS
 62
     2
 10
1940.484431
 20
496.592186
 11
1941.619283
 21
497.238563
  0
LINE
  8
CSLAYER1
  6
CONTINUOUS
 62
     2
 10
1923.389727
 20
473.912058
 11
1938.017598
 21
473.912058
  0
LINE
  8
CSLAYER1
  6
CONTINUOUS
 62
     2
 10
1922.529256
 20
475.402439
 11
1923.389727
 21
473.912058
  0
LINE
  8
CSLAYER1
  6
CONTINUOUS
 62
     2
 10
1938.878070
 20
475.402439
 11
1938.017598
 21
473.912058
  0
LINE
  8
CSLAYER1
  6
CONTINUOUS
 62
     2
 10
1923.389727
 20
480.262911
 11
1938.017598
 21
480.262911
  0
ARC
  8
CSLAYER1
  6
CONTINUOUS
 62
     2
 10
1928.660849
 20
477.087485
 40
6.153702
 50
148.934419
 51
203.174644
  0
ARC
  8
CSLAYER1
  6
CONTINUOUS
 62
     2
 10
1932.746476
 20
477.087485
 40
6.153702
 50
-23.174644
 51
31.065581
  0
LINE
  8
CSLAYER1
  6
CONTINUOUS
 62
     2
 10
1922.420161
 20
475.402439
 11
1922.529256
 21
475.402439
  0
ARC
  8
CSLAYER1
  6
CONTINUOUS
 62
     2
 10
1922.420161
 20
478.402439
 40
3.000000
 50
180.000000
 51
270.000000
  0
LINE
  8
CSLAYER1
  6
CONTINUOUS
 62
     2
 10
1942.420161
 20
475.402439
 11
1943.280633
 21
473.912058
  0
ARC
  8
CSLAYER1
  6
CONTINUOUS
 62
     2
 10
1948.551754
 20
477.087485
 40
6.153702
 50
148.934419
 51
203.174644
  0
LINE
  8
CSLAYER1
  6
CONTINUOUS
 62
     2
 10
1943.280633
 20
480.262911
 11
1946.278160
 21
480.262911
  0
LINE
  8
CSLAYER1
  6
CONTINUOUS
 62
     2
 10
1943.280633
 20
473.912058
 11
1944.910594
 21
473.912058
  0
LINE
  8
CSLAYER1
  6
CONTINUOUS
 62
     2
 10
1938.878070
 20
476.566315
 11
1942.420161
 21
476.566315
  0
LINE
  8
CSLAYER1
  6
CONTINUOUS
 62
     2
 10
1938.878070
 20
477.212693
 11
1940.484431
 21
477.212693
  0
LINE
  8
CSLAYER1
  6
CONTINUOUS
 62
     2
 10
1940.484431
 20
477.212693
 11
1941.619283
 21
476.566315
  0
LINE
  8
CSLAYER1
  6
CONTINUOUS
 62
     2
 10
2079.820161
 20
501.902439
 11
2079.820161
 21
471.602439
  0
LINE
  8
CSLAYER1
  6
CONTINUOUS
 62
     2
 10
2081.120161
 20
507.902439
 11
2043.809307
 21
507.902439
  0
LINE
  8
CSLAYER1
  6
CONTINUOUS
 62
     2
 10
2081.120161
 20
501.902439
 11
2038.377939
 21
501.902439
  0
LINE
  8
CSLAYER1
  6
CONTINUOUS
 62
     2
 10
2081.120161
 20
507.902439
 11
2081.120161
 21
501.902439
  0
LINE
  8
CSLAYER1
  6
CONTINUOUS
 62
     2
 10
1946.120161
 20
507.902439
 11
1946.120161
 21
501.902439
  0
ARC
  8
CSLAYER1
  6
CONTINUOUS
 62
     2
 10
2081.970161
 20
454.752304
 40
25.650135
 50
41.065538
 51
90.000000
  0
ARC
  8
CSLAYER1
  6
CONTINUOUS
 62
     2
 10
2081.970161
 20
454.752304
 40
28.654497
 50
36.018400
 51
90.999820
  0
ARC
  8
CSLAYER1
  6
CONTINUOUS
 62
     2
 10
2081.970161
 20
454.752304
 40
35.653641
 50
28.203609
 51
90.803532
  0
ARC
  8
CSLAYER1
  6
CONTINUOUS
 62
     2
 10
2081.970161
 20
454.752304
 40
38.650135
 50
25.846761
 51
90.000000
  0
LINE
  8
CSLAYER1
  6
CONTINUOUS
 62
     2
 10
1916.902654
 20
483.102439
 11
1919.420161
 21
483.102439
  0
LINE
  8
CSLAYER1
  6
CONTINUOUS
 62
     2
 10
2080.970161
 20
497.402439
 11
2079.820161
 21
497.402439
  0
LINE
  8
CSLAYER1
  6
CONTINUOUS
 62
     2
 10
2081.970161
 20
496.402439
 11
2081.970161
 21
490.405945
  0
ARC
  8
CSLAYER1
  6
CONTINUOUS
 62
     2
 10
2080.970161
 20
496.402439
 40
1.000000
 50
0.000000
 51
90.000000
  0
LINE
  8
CSLAYER1
  6
CONTINUOUS
 62
     2
 10
2080.970161
 20
476.402439
 11
2079.970161
 21
476.402439
  0
ARC
  8
CSLAYER1
  6
CONTINUOUS
 62
     2
 10
2080.970161
 20
477.402439
 40
1.000000
 50
270.000000
 51
360.000000
  0
LINE
  8
CSLAYER1
  6
CONTINUOUS
 62
     2
 10
2080.870161
 20
493.402439
 11
2079.970161
 21
493.402439
  0
LINE
  8
CSLAYER1
  6
CONTINUOUS
 62
     2
 10
2081.470161
 20
492.802439
 11
2081.470161
 21
481.002439
  0
ARC
  8
CSLAYER1
  6
CONTINUOUS
 62
     2
 10
2080.870161
 20
492.802439
 40
0.600000
 50
0.000000
 51
90.000000
  0
LINE
  8
CSLAYER1
  6
CONTINUOUS
 62
     2
 10
2080.870161
 20
480.402439
 11
2079.970161
 21
480.402439
  0
ARC
  8
CSLAYER1
  6
CONTINUOUS
 62
     2
 10
2080.870161
 20
481.002439
 40
0.600000
 50
270.000000
 51
360.000000
  0
LINE
  8
CSLAYER1
  6
CONTINUOUS
 62
     2
 10
2081.970161
 20
483.406802
 11
2081.970161
 21
477.402439
  0
ARC
  8
CSLAYER1
  6
CENTER
 62
     5
 10
2081.970161
 20
454.752304
 40
32.153641
 50
31.604352
 51
89.153864
  0
LINE
  8
CSLAYER1
  6
CONTINUOUS
 62
     2
 10
1952.229943
 20
507.902439
 11
1946.120161
 21
507.902439
  0
LINE
  8
CSLAYER1
  6
CONTINUOUS
 62
     2
 10
1950.937927
 20
501.902439
 11
1946.120161
 21
501.902439
  0
ARC
  8
CSLAYER1
  6
CONTINUOUS
 62
     2
 10
1916.902654
 20
383.102439
 40
100.000000
 50
90.000000
 51
141.188616
  0
ARC
  8
CSLAYER1
  6
CONTINUOUS
 62
     2
 10
1916.902654
 20
383.102439
 40
107.600000
 50
90.000000
 51
141.188616
  0
ARC
  8
CSLAYER1
  6
CENTER
 62
     5
 10
1916.902654
 20
383.102439
 40
103.800000
 50
90.000000
 51
141.188616
  0
LINE
  8
CSLAYER1
  6
CONTINUOUS
 62
     5
 10
5087.518762
 20
3076.699950
 11
4003.326496
 21
3076.699950
  0
LINE
  8
CSLAYER1
  6
CONTINUOUS
 62
     5
 10
5087.518762
 20
2980.443953
 11
4003.326496
 21
2980.443953
  0
LINE
  8
CSLAYER1
  6
CONTINUOUS
 62
     5
 10
5087.518762
 20
2884.187955
 11
4003.326496
 21
2884.187955
  0
LINE
  8
CSLAYER1
  6
CONTINUOUS
 62
     5
 10
5087.518762
 20
2787.931958
 11
4004.638789
 21
2787.931958
  0
LINE
  8
CSLAYER1
  6
CONTINUOUS
 62
     5
 10
5087.518762
 20
2691.675960
 11
4003.326496
 21
2691.675960
  0
LINE
  8
CSLAYER1
  6
CONTINUOUS
 62
     5
 10
5087.518762
 20
2595.419962
 11
4003.326496
 21
2595.419962
  0
LINE
  8
CSLAYER1
  6
CONTINUOUS
 62
     5
 10
5087.518762
 20
2499.163965
 11
4003.326496
 21
2499.163965
  0
LINE
  8
CSLAYER1
  6
CONTINUOUS
 62
     5
 10
5087.518762
 20
2402.907967
 11
4003.326496
 21
2402.907967
  0
LINE
  8
CSLAYER1
  6
CONTINUOUS
 62
     5
 10
5087.518762
 20
2306.651970
 11
4003.326496
 21
2306.651970
  0
TEXT
  8
CSLAYER1
 62
     5
 10
4297.695141
 20
3196.747395
 40
60.159996
 41
0.857143
  1
仕   様
 50
0.000000
 51
0.000000
  7
EASYDRAW_FONT
 72
     5
 11
4538.335133
 21
3196.747395
  0
TEXT
  8
CSLAYER1
 62
     5
 10
4019.509560
 20
3089.067219
 40
60.159996
 41
0.847059
  1
型    式
 50
0.000000
 51
0.000000
  7
EASYDRAW_FONT
 72
     5
 11
4308.277550
 21
3089.067219
  0
TEXT
  8
CSLAYER1
 62
     5
 10
4016.772255
 20
2904.842121
 40
60.159996
 41
0.847059
  1
テーブル寸法
 50
0.000000
 51
0.000000
  7
EASYDRAW_FONT
 72
     5
 11
4305.540245
 21
2904.842121
  0
TEXT
  8
CSLAYER1
 62
     5
 10
4019.509560
 20
2809.994953
 40
60.159996
 41
0.847059
  1
テーブル高サ
 50
0.000000
 51
0.000000
  7
EASYDRAW_FONT
 72
     5
 11
4308.277550
 21
2809.994953
  0
TEXT
  8
CSLAYER1
 62
     5
 10
4021.685375
 20
2712.410969
 40
60.159996
 41
0.857143
  1
ストローク
 50
0.000000
 51
0.000000
  7
EASYDRAW_FONT
 72
     5
 11
4262.325367
 21
2712.410969
  0
TEXT
  8
CSLAYER1
 62
     5
 10
4020.773266
 20
2614.826984
 40
60.159996
 41
0.857143
  1
全   長
 50
0.000000
 51
0.000000
  7
EASYDRAW_FONT
 72
     5
 11
4261.413258
 21
2614.826984
  0
TEXT
  8
CSLAYER1
 62
     5
 10
4024.189281
 20
2515.787922
 40
60.159996
 41
0.857143
  1
全   巾
 50
0.000000
 51
0.000000
  7
EASYDRAW_FONT
 72
     5
 11
4264.829273
 21
2515.787922
  0
TEXT
  8
CSLAYER1
 62
     5
 10
4021.846020
 20
2419.703938
 40
60.159996
 41
0.857143
  1
全   高
 50
0.000000
 51
0.000000
  7
EASYDRAW_FONT
 72
     5
 11
4262.486012
 21
2419.703938
  0
TEXT
  8
CSLAYER1
 62
     5
 10
4021.846020
 20
2325.965168
 40
60.159996
 41
0.857143
  1
リフト方式
 50
0.000000
 51
0.000000
  7
EASYDRAW_FONT
 72
     5
 11
4262.486012
 21
2325.965168
  0
TEXT
  8
CSLAYER1
 62
     5
 10
4981.436455
 20
2991.059406
 40
60.159996
 41
0.960000
  1
Ｋｇ
 50
0.000000
 51
0.000000
  7
EASYDRAW_FONT
 72
     5
 11
5077.692451
 21
2991.059406
  0
TEXT
  8
CSLAYER1
 62
     5
 10
4900.493130
 20
2917.147297
 40
60.159996
 41
1.200000
  1
Ｗ
 50
0.000000
 51
0.000000
  7
EASYDRAW_FONT
 72
     5
 11
4948.621128
 21
2917.147297
  0
TEXT
  8
CSLAYER1
 62
     5
 10
4636.325161
 20
2918.967121
 40
60.159996
 41
1.200000
  1
Ｌ
 50
0.000000
 51
0.000000
  7
EASYDRAW_FONT
 72
     5
 11
4684.453159
 21
2918.967121
  0
TEXT
  8
CSLAYER1
 62
     5
 10
4429.485497
 20
2327.400227
 40
60.159996
 41
0.827586
  1
電 動 ボールネジ式
 50
0.000000
 51
0.000000
  7
EASYDRAW_FONT
 72
     5
 11
4910.765480
 21
2327.400227
  0
TEXT
  8
CSLAYER1
 62
     5
 10
4977.655205
 20
2894.647297
 40
60.159996
 41
0.960000
  1
mm
 50
0.000000
 51
0.000000
  7
EASYDRAW_FONT
 72
     5
 11
5073.911201
 21
2894.647297
  0
TEXT
  8
CSLAYER1
 62
     5
 10
4977.655205
 20
2803.906574
 40
60.159996
 41
0.960000
  1
mm
 50
0.000000
 51
0.000000
  7
EASYDRAW_FONT
 72
     5
 11
5073.911201
 21
2803.906574
  0
TEXT
  8
CSLAYER1
 62
     5
 10
4971.983818
 20
2707.494953
 40
60.159996
 41
0.960000
  1
mm
 50
0.000000
 51
0.000000
  7
EASYDRAW_FONT
 72
     5
 11
5068.239815
 21
2707.494953
  0
TEXT
  8
CSLAYER1
 62
     5
 10
4971.983818
 20
2605.410969
 40
60.159996
 41
0.960000
  1
mm
 50
0.000000
 51
0.000000
  7
EASYDRAW_FONT
 72
     5
 11
5068.239815
 21
2605.410969
  0
TEXT
  8
CSLAYER1
 62
     5
 10
4968.203545
 20
2514.670246
 40
60.159996
 41
0.960000
  1
mm
 50
0.000000
 51
0.000000
  7
EASYDRAW_FONT
 72
     5
 11
5064.459541
 21
2514.670246
  0
TEXT
  8
CSLAYER1
 62
     5
 10
4968.203545
 20
2418.257160
 40
60.159996
 41
0.960000
  1
mm
 50
0.000000
 51
0.000000
  7
EASYDRAW_FONT
 72
     5
 11
5064.459541
 21
2418.257160
  0
LINE
  8
CSLAYER1
  6
CONTINUOUS
 62
     5
 10
4580.527010
 20
3172.955948
 11
4267.114509
 21
3172.955948
  0
LINE
  8
CSLAYER1
  6
CONTINUOUS
 62
     5
 10
4580.527010
 20
3184.987948
 11
4267.114509
 21
3184.987948
  0
TEXT
  8
CSLAYER1
 62
     5
 10
4741.536621
 20
2997.781006
 40
60.000000
 41
0.975000
  1
２５０
 50
0.000000
 51
0.000000
  7
EASYDRAW_FONT
 72
     5
 11
4897.536621
 21
2997.781006
  0
TEXT
  8
CSLAYER1
 62
     5
 10
4420.086426
 20
2902.136475
 40
60.000000
 41
0.923077
  1
１０５０　×５００
 50
0.000000
 51
0.000000
  7
EASYDRAW_FONT
 72
     5
 11
4900.086426
 21
2902.136475
  0
TEXT
  8
CSLAYER1
 62
     5
 10
4475.691406
 20
2804.438232
 40
60.000000
 41
0.926087
  1
６００～２３５０
 50
0.000000
 51
0.000000
  7
EASYDRAW_FONT
 72
     5
 11
4901.691406
 21
2804.438232
  0
TEXT
  8
CSLAYER1
 62
     5
 10
4698.233887
 20
2708.093994
 40
60.000000
 41
0.954545
  1
１７５０
 50
0.000000
 51
0.000000
  7
EASYDRAW_FONT
 72
     5
 11
4908.233887
 21
2708.093994
  0
TEXT
  8
CSLAYER1
 62
     5
 10
4695.022461
 20
2613.890381
 40
60.000000
 41
0.954545
  1
１０５０
 50
0.000000
 51
0.000000
  7
EASYDRAW_FONT
 72
     5
 11
4905.022461
 21
2613.890381
  0
TEXT
  8
CSLAYER1
 62
     5
 10
4753.066895
 20
2515.405029
 40
60.000000
 41
0.975000
  1
５００
 50
0.000000
 51
0.000000
  7
EASYDRAW_FONT
 72
     5
 11
4909.066895
 21
2515.405029
  0
TEXT
  8
CSLAYER1
 62
     5
 10
4749.855469
 20
2423.342529
 40
60.000000
 41
0.975000
  1
６００
 50
0.000000
 51
0.000000
  7
EASYDRAW_FONT
 72
     5
 11
4905.855469
 21
2423.342529
  0
TEXT
  8
CSLAYER2
 62
     5
 10
4339.045642
 20
3094.922932
 40
55.851891
 41
0.954990
  1
ＧＬＩ－２５０－０５１０Ｗ３
 50
0.000000
 51
0.000000
  7
EASYDRAW_FONT
 72
     5
 11
5067.998303
 21
3094.922932
  0
LINE
  8
CSLAYER1
  6
PHANTOM
 62
     5
 10
1919.420161
 20
1006.602439
 11
2969.420161
 21
1006.602439
  0
LINE
  8
CSLAYER1
  6
PHANTOM
 62
     5
 10
1919.420161
 20
1006.602439
 11
1919.420161
 21
953.602439
  0
LINE
  8
CSLAYER1
  6
PHANTOM
 62
     5
 10
1919.420161
 20
953.602439
 11
2969.420161
 21
953.602439
  0
LINE
  8
CSLAYER1
  6
CENTER
 62
     6
 10
1953.620161
 20
996.602439
 11
1953.620161
 21
962.602439
  0
LINE
  8
CSLAYER1
  6
PHANTOM
 62
     5
 10
2969.420161
 20
1006.602439
 11
2969.420161
 21
953.602439
  0
TEXT
  8
CSLAYER1
 62
     4
 10
4017.939453
 20
2142.693604
 40
60.000000
 41
1.036364
  1
操作方式
 50
0.000000
 51
0.000000
  7
EASYDRAW_FONT
 72
     5
 11
4245.939453
 21
2142.693604
  0
TEXT
  8
CSLAYER1
 62
     4
 10
4440.401855
 20
2134.753662
 40
60.000000
 41
1.020000
  1
フットスイッチ
 50
0.000000
 51
0.000000
  7
EASYDRAW_FONT
 72
     5
 11
4848.401855
 21
2134.753662
  0
LINE
  8
CSLAYER1
  6
CONTINUOUS
 62
     5
 10
5084.635272
 20
2124.653965
 11
4003.326496
 21
2124.653965
  0
LINE
  8
CSLAYER1
  6
CONTINUOUS
 62
     5
 10
5084.635272
 20
2028.653968
 11
4003.326496
 21
2028.653968
  0
TEXT
  8
CSLAYER1
 62
     4
 10
4020.086426
 20
2043.584717
 40
60.000000
 41
0.872727
  1
モーター
 50
0.000000
 51
0.000000
  7
EASYDRAW_FONT
 72
     5
 11
4212.086426
 21
2043.584717
  0
LINE
  8
CSLAYER1
  6
CONTINUOUS
 62
     5
 10
5084.635272
 20
1932.653970
 11
4003.326496
 21
1932.653970
  0
LINE
  8
CSLAYER1
  6
CONTINUOUS
 62
     5
 10
5084.635272
 20
1740.653975
 11
4000.118742
 21
1740.653975
  0
LINE
  8
CSLAYER1
  6
CONTINUOUS
 62
     5
 10
5084.635272
 20
1644.653978
 11
4003.326496
 21
1644.653978
  0
LINE
  8
CSLAYER1
  6
CONTINUOUS
 62
     5
 10
5084.635272
 20
1548.653980
 11
4003.326496
 21
1548.653980
  0
TEXT
  8
CSLAYER1
 62
     4
 10
4023.958496
 20
1565.336914
 40
60.000000
 41
0.857143
  1
自  　重
 50
0.000000
 51
0.000000
  7
EASYDRAW_FONT
 72
     5
 11
4263.958496
 21
1565.336914
  0
TEXT
  8
CSLAYER1
 62
     4
 10
4028.382324
 20
1469.229980
 40
60.000000
 41
0.847059
  1
塗　装　色 
 50
0.000000
 51
0.000000
  7
EASYDRAW_FONT
 72
     5
 11
4316.382324
 21
1469.229980
  0
TEXT
  8
CSLAYER1
 62
     4
 10
4366.745605
 20
2044.959717
 40
60.000000
 41
0.819512
  1
３相ＡＣ２００Ｖ、0.4ＫＷ
 50
0.000000
 51
0.000000
  7
EASYDRAW_FONT
 72
     5
 11
5038.745605
 21
2044.959717
  0
TEXT
  8
CSLAYER1
 62
     4
 10
4563.220703
 20
1949.194458
 40
60.000000
 41
0.840000
  1
長サ  ４ ｍ
 50
0.000000
 51
0.000000
  7
EASYDRAW_FONT
 72
     5
 11
4899.220703
 21
1949.194458
  0
TEXT
  8
CSLAYER1
 62
     3
 10
4732.180176
 20
1568.185547
 40
60.000000
 41
0.847059
  1
２１０　Ｋｇ
 50
0.000000
 51
0.000000
  7
EASYDRAW_FONT
 72
     5
 11
5020.180176
 21
1568.185547
  0
LINE
  8
CSLAYER1
  6
CONTINUOUS
 62
     5
 10
5084.635272
 20
1836.653973
 11
4003.326496
 21
1836.653973
  0
TEXT
  8
CSLAYER1
 62
     4
 10
4021.460938
 20
1948.608521
 40
60.000000
 41
0.942857
  1
電源コード
 50
0.000000
 51
0.000000
  7
EASYDRAW_FONT
 72
     5
 11
4285.460938
 21
1948.608521
  0
TEXT
  8
CSLAYER1
 62
     4
 10
4022.103796
 20
1844.926102
 40
71.595306
 41
0.593339
  1
昇降時間 ３６秒（50HZ） ３０秒(60HZ)
 50
0.000000
 51
0.000000
  7
EASYDRAW_FONT
 72
     5
 11
5027.471399
 21
1844.926102
  0
TEXT
  8
CSLAYER1
 62
     4
 10
4024.055176
 20
1656.761719
 40
60.000000
 41
0.912766
  1
上昇端、下降端リミットスイッチ付
 50
0.000000
 51
0.000000
  7
EASYDRAW_FONT
 72
     5
 11
4882.055176
 21
1656.761719
  0
TEXT
  8
CSLAYER1
 62
     4
 10
4026.825059
 20
1753.756790
 40
68.819672
 41
0.605080
  1
最大使用頻度８０回／時間・最大起動頻度１０回／分
 50
0.000000
 51
0.000000
  7
EASYDRAW_FONT
 72
     5
 11
5012.338027
 21
1753.756790
  0
LINE
  8
CSLAYER1
  6
CONTINUOUS
 62
     5
 10
5084.635272
 20
2210.651972
 11
4003.326496
 21
2210.651972
  0
TEXT
  8
CSLAYER1
 62
     4
 10
4318.068848
 20
2228.253174
 40
60.000000
 41
0.825000
  1
マグネットスイッチ制御
 50
0.000000
 51
0.000000
  7
EASYDRAW_FONT
 72
     5
 11
4846.068848
 21
2228.253174
  0
TEXT
  8
CSLAYER1
 62
     4
 10
4023.488281
 20
2225.269287
 40
60.000000
 41
0.872727
  1
制御方式
 50
0.000000
 51
0.000000
  7
EASYDRAW_FONT
 72
     5
 11
4215.488281
 21
2225.269287
  0
LINE
  8
CSLAYER1
  6
CONTINUOUS
 62
     3
 10
1919.420161
 20
3463.602439
 11
2969.420161
 21
3463.602439
  0
LINE
  8
CSLAYER1
  6
CONTINUOUS
 62
     3
 10
1919.420161
 20
2963.602439
 11
2969.420161
 21
2963.602439
  0
DIMENSION
  8
CSLAYER1
 62
     3
  2
*D0001
 10
3140.828735
 20
3463.602439
 11
3125.828857
 21
3213.602783
 13
2969.420161
 23
2963.602439
 14
2969.420161
 24
3463.602439
 50
90.000000
 70
1
  0
LINE
  8
CSLAYER1
  6
CONTINUOUS
 62
     3
 10
631.838743
 20
2718.602439
 11
631.838743
 21
471.602439
  0
LINE
  8
CSLAYER1
  6
CONTINUOUS
 62
     4
 10
887.338743
 20
471.602439
 11
887.338743
 21
497.264184
  0
LINE
  8
CSLAYER1
  6
CONTINUOUS
 62
     4
 10
892.799561
 20
515.292507
 11
894.838743
 21
515.292507
  0
LINE
  8
CSLAYER1
  6
CONTINUOUS
 62
     4
 10
894.838743
 20
515.292507
 11
894.838743
 21
527.604244
  0
LINE
  8
CSLAYER1
  6
CONTINUOUS
 62
     2
 10
887.338743
 20
484.213214
 11
890.338743
 21
484.213214
  0
LINE
  8
CSLAYER1
  6
CONTINUOUS
 62
     2
 10
887.338743
 20
488.560434
 11
890.338743
 21
488.560434
  0
LINE
  8
CSLAYER1
  6
CONTINUOUS
 62
     4
 10
887.338743
 20
497.264184
 11
891.338743
 21
497.264184
  0
LINE
  8
CSLAYER1
  6
CONTINUOUS
 62
     2
 10
890.338743
 20
471.602439
 11
890.338743
 21
497.264184
  0
LINE
  8
CSLAYER1
  6
CONTINUOUS
 62
     4
 10
906.338743
 20
471.602439
 11
906.338743
 21
497.264184
  0
LINE
  8
CSLAYER1
  6
CONTINUOUS
 62
     2
 10
890.338743
 20
487.978010
 11
906.338743
 21
487.978010
  0
LINE
  8
CSLAYER1
  6
CONTINUOUS
 62
     2
 10
907.338743
 20
481.727047
 11
907.338743
 21
489.327047
  0
LINE
  8
CSLAYER1
  6
CONTINUOUS
 62
     4
 10
907.338743
 20
481.727047
 11
906.338743
 21
481.727047
  0
LINE
  8
CSLAYER1
  6
CONTINUOUS
 62
     4
 10
907.338743
 20
489.327047
 11
906.338743
 21
489.327047
  0
LINE
  8
CSLAYER1
  6
CONTINUOUS
 62
     4
 10
909.938743
 20
484.027047
 11
909.938743
 21
487.027047
  0
LINE
  8
CSLAYER1
  6
CONTINUOUS
 62
     4
 10
907.938743
 20
482.027047
 11
907.338743
 21
482.027047
  0
LINE
  8
CSLAYER1
  6
CONTINUOUS
 62
     4
 10
907.938743
 20
489.027047
 11
907.338743
 21
489.027047
  0
ARC
  8
CSLAYER1
  6
CONTINUOUS
 62
     4
 10
907.938743
 20
484.027047
 40
2.000000
 50
270.000000
 51
360.000000
  0
ARC
  8
CSLAYER1
  6
CONTINUOUS
 62
     4
 10
907.938743
 20
487.027047
 40
2.000000
 50
0.000000
 51
90.000000
  0
LINE
  8
CSLAYER1
  6
CONTINUOUS
 62
     4
 10
905.338743
 20
497.264184
 11
906.338743
 21
497.264184
  0
LINE
  8
CSLAYER1
  6
CONTINUOUS
 62
     2
 10
896.338743
 20
515.292507
 11
896.338743
 21
527.604244
  0
LINE
  8
CSLAYER1
  6
CONTINUOUS
 62
     4
 10
905.338743
 20
503.308369
 11
903.877926
 21
515.292507
  0
LINE
  8
CSLAYER1
  6
CONTINUOUS
 62
     4
 10
891.338743
 20
503.308369
 11
892.799561
 21
515.292507
  0
LINE
  8
CSLAYER1
  6
CONTINUOUS
 62
     4
 10
891.338743
 20
487.978010
 11
891.338743
 21
503.308369
  0
LINE
  8
CSLAYER1
  6
CONTINUOUS
 62
     2
 10
905.338743
 20
487.978010
 11
905.338743
 21
497.264184
  0
LINE
  8
CSLAYER1
  6
CONTINUOUS
 62
     4
 10
901.838743
 20
515.292507
 11
901.838743
 21
527.604244
  0
LINE
  8
CSLAYER1
  6
CONTINUOUS
 62
     4
 10
901.838743
 20
515.292507
 11
903.877926
 21
515.292507
  0
LINE
  8
CSLAYER1
  6
CONTINUOUS
 62
     2
 10
900.338743
 20
515.292507
 11
900.338743
 21
527.604244
  0
LINE
  8
CSLAYER1
  6
CONTINUOUS
 62
     4
 10
894.838743
 20
527.604244
 11
896.338743
 21
527.604244
  0
LINE
  8
CSLAYER1
  6
CONTINUOUS
 62
     2
 10
894.838743
 20
527.096037
 11
896.338743
 21
527.096037
  0
LINE
  8
CSLAYER1
  6
CONTINUOUS
 62
     4
 10
895.592682
 20
544.029813
 11
904.566843
 21
536.252208
  0
LINE
  8
CSLAYER1
  6
CENTER
 62
     5
 10
885.622101
 20
510.788754
 11
947.838743
 21
510.788754
  0
LINE
  8
CSLAYER1
  6
CONTINUOUS
 62
     7
 10
891.838743
 20
515.788754
 11
894.838743
 21
515.788754
  0
LINE
  8
CSLAYER1
  6
CONTINUOUS
 62
     7
 10
905.036395
 20
505.788754
 11
947.838743
 21
505.788754
  0
LINE
  8
CSLAYER1
  6
CONTINUOUS
 62
     7
 10
891.838743
 20
515.788754
 11
891.838743
 21
507.410228
  0
LINE
  8
CSLAYER1
  6
CONTINUOUS
 62
     7
 10
901.838743
 20
515.788754
 11
947.838743
 21
515.788754
  0
LINE
  8
CSLAYER1
  6
CONTINUOUS
 62
     4
 10
900.338743
 20
527.604244
 11
901.838743
 21
527.604244
  0
LINE
  8
CSLAYER1
  6
CONTINUOUS
 62
     2
 10
900.338743
 20
527.096037
 11
901.838743
 21
527.096037
  0
LINE
  8
CSLAYER1
  6
CONTINUOUS
 62
     4
 10
905.338743
 20
497.264184
 11
905.338743
 21
503.308369
  0
LINE
  8
CSLAYER1
  6
CONTINUOUS
 62
     4
 10
896.338743
 20
527.604244
 11
896.338743
 21
543.582177
  0
LINE
  8
CSLAYER1
  6
CONTINUOUS
 62
     4
 10
900.338743
 20
527.604244
 11
900.338743
 21
539.542733
  0
LINE
  8
CSLAYER1
  6
CONTINUOUS
 62
     2
 10
894.838743
 20
515.292507
 11
901.838743
 21
515.292507
  0
LINE
  8
CSLAYER1
  6
CONTINUOUS
 62
     5
 10
901.838743
 20
523.824285
 11
1125.050935
 21
694.922753
  0
LINE
  8
CSLAYER1
  6
CONTINUOUS
 62
     5
 10
901.838743
 20
523.824285
 11
929.250957
 21
559.511404
  0
LINE
  8
CSLAYER1
  6
CONTINUOUS
 62
     5
 10
901.838743
 20
523.824285
 11
943.421977
 21
541.024130
  0
TEXT
  8
CSLAYER1
 62
     5
 10
1217.780151
 20
710.381836
 40
60.000000
 41
1.028571
  1
上限・下限
 50
360.000000
 51
0.000000
  7
EASYDRAW_FONT
 72
     5
 11
1505.780151
 21
710.381836
  0
TEXT
  8
CSLAYER1
 62
     5
 10
1135.962646
 20
623.442871
 40
60.000000
 41
1.017391
  1
リミットスイッチ
 50
360.000000
 51
0.000000
  7
EASYDRAW_FONT
 72
     5
 11
1603.962646
 21
623.442871
  0
LINE
  8
CSLAYER1
  6
CONTINUOUS
 62
     6
 10
1254.032311
 20
3433.180680
 11
1377.448203
 21
3360.802857
  0
LINE
  8
CSLAYER1
  6
CONTINUOUS
 62
     6
 10
1377.448203
 20
3360.802857
 11
1334.061760
 21
3372.745075
  0
LINE
  8
CSLAYER1
  6
CONTINUOUS
 62
     6
 10
1377.448203
 20
3360.802857
 11
1345.845550
 21
3392.838343
  0
LINE
  8
CSLAYER1
  6
CONTINUOUS
 62
     6
 10
1223.315366
 20
2983.945362
 11
1388.602248
 21
3106.102439
  0
LINE
  8
CSLAYER1
  6
CONTINUOUS
 62
     6
 10
1388.602248
 20
3106.102439
 11
1360.568600
 21
3070.901379
  0
LINE
  8
CSLAYER1
  6
CONTINUOUS
 62
     6
 10
1388.602248
 20
3106.102439
 11
1346.723867
 21
3089.634251
  0
LINE
  8
CSLAYER1
  6
CENTER
 62
     5
 10
2544.222020
 20
600.337623
 11
2536.464507
 21
594.994476
  0
LINE
  8
CSLAYER1
  6
CONTINUOUS
 62
     2
 10
2541.841364
 20
648.482178
 11
2535.639030
 21
644.210193
  0
LINE
  8
CSLAYER1
  6
CONTINUOUS
 62
     2
 10
2528.706994
 20
589.651329
 11
2536.464507
 21
594.994476
  0
LINE
  8
CSLAYER1
  6
CONTINUOUS
 62
     2
 10
2632.903934
 20
564.279055
 11
2581.843641
 21
529.110227
  0
LINE
  8
CSLAYER1
  6
CONTINUOUS
 62
     2
 10
2600.571301
 20
611.221583
 11
2575.864708
 21
594.204408
  0
LINE
  8
CSLAYER1
  6
CONTINUOUS
 62
     2
 10
2521.212429
 20
722.913880
 11
2456.735499
 21
678.504067
  0
LINE
  8
CSLAYER1
  6
CONTINUOUS
 62
     4
 10
2632.903934
 20
564.279055
 11
2600.571301
 21
611.221583
  0
LINE
  8
CSLAYER1
  6
CONTINUOUS
 62
     4
 10
2598.924195
 20
610.087104
 11
2516.674515
 21
729.502305
  0
LINE
  8
CSLAYER1
  6
CONTINUOUS
 62
     4
 10
2632.903934
 20
564.279055
 11
2622.617891
 21
547.480325
  0
LINE
  8
CSLAYER1
  6
CONTINUOUS
 62
     2
 10
2530.567491
 20
654.680950
 11
2499.411731
 21
633.221778
  0
LINE
  8
CSLAYER1
  6
CONTINUOUS
 62
     2
 10
2576.797483
 20
587.561371
 11
2554.590646
 21
572.265955
  0
LINE
  8
CSLAYER1
  6
CONTINUOUS
 62
     2
 10
2577.566425
 20
591.733748
 11
2498.152942
 21
707.031184
  0
LINE
  8
CSLAYER1
  6
CONTINUOUS
 62
     4
 10
2580.726458
 20
518.626738
 11
2622.617891
 21
547.480325
  0
LINE
  8
CSLAYER1
  6
CONTINUOUS
 62
     4
 10
2578.904858
 20
527.086080
 11
2581.843641
 21
529.110227
  0
ARC
  8
CSLAYER1
  6
CONTINUOUS
 62
     2
 10
2575.095766
 20
590.032031
 40
3.000000
 50
-55.442072
 51
34.557928
  0
ARC
  8
CSLAYER1
  6
CONTINUOUS
 62
     2
 10
2532.269209
 20
652.210291
 40
3.000000
 50
34.557928
 51
124.557928
  0
LINE
  8
CSLAYER1
  6
CONTINUOUS
 62
     2
 10
2500.388413
 20
742.569933
 11
2438.816481
 21
700.160996
  0
LINE
  8
CSLAYER1
  6
CONTINUOUS
 62
     4
 10
2423.540044
 20
730.923561
 11
2436.630414
 21
739.939823
  0
LINE
  8
CSLAYER1
  6
CONTINUOUS
 62
     2
 10
2513.892931
 20
730.014933
 11
2451.003235
 21
686.698360
  0
ARC
  8
CSLAYER1
  6
CONTINUOUS
 62
     4
 10
2511.367660
 20
731.918353
 40
3.000000
 50
214.557928
 51
304.557928
  0
LINE
  8
CSLAYER1
  6
CONTINUOUS
 62
     2
 10
2520.684854
 20
647.874080
 11
2485.799645
 21
698.522596
  0
LINE
  8
CSLAYER1
  6
CONTINUOUS
 62
     2
 10
2527.273279
 20
652.411993
 11
2492.388070
 21
703.060510
  0
LINE
  8
CSLAYER1
  6
CONTINUOUS
 62
     2
 10
2592.335770
 20
605.549191
 11
2514.624004
 21
718.375967
  0
LINE
  8
CSLAYER1
  6
CONTINUOUS
 62
     2
 10
2593.982876
 20
606.683669
 11
2516.271110
 21
719.510445
  0
ARC
  8
CSLAYER1
  6
CONTINUOUS
 62
     4
 10
2515.027409
 20
728.367827
 40
2.000000
 50
34.557928
 51
124.557928
  0
LINE
  8
CSLAYER1
  6
CONTINUOUS
 62
     2
 10
2450.600059
 20
813.916995
 11
2438.237615
 21
805.402107
  0
LINE
  8
CSLAYER1
  6
CONTINUOUS
 62
     2
 10
2446.652117
 20
817.876148
 11
2435.945926
 21
810.502039
  0
LINE
  8
CSLAYER1
  6
CONTINUOUS
 62
     2
 10
2447.809558
 20
817.968418
 11
2450.600059
 21
813.916995
  0
LINE
  8
CSLAYER1
  6
CONTINUOUS
 62
     2
 10
2444.718947
 20
815.839696
 11
2447.509448
 21
811.788273
  0
LINE
  8
CSLAYER1
  6
CONTINUOUS
 62
     2
 10
2446.652117
 20
817.876148
 11
2447.809558
 21
817.968418
  0
ARC
  8
CSLAYER1
  6
CONTINUOUS
 62
     2
 10
2447.775902
 20
814.709351
 40
3.259241
 50
98.992029
 51
159.929546
  0
ARC
  8
CSLAYER1
  6
CONTINUOUS
 62
     2
 10
2448.343816
 20
803.961022
 40
12.419443
 50
106.969974
 51
142.145882
  0
LINE
  8
CSLAYER1
  6
CONTINUOUS
 62
     2
 10
2435.945926
 20
810.502039
 11
2435.447114
 21
809.453530
  0
ARC
  8
CSLAYER1
  6
CONTINUOUS
 62
     2
 10
2438.504069
 20
808.323185
 40
3.259241
 50
89.186310
 51
150.123827
  0
CIRCLE
  8
CSLAYER1
  6
CONTINUOUS
 62
     4
 10
2417.911521
 20
767.117076
 40
16.000000
  0
POINT
  8
CSLAYER1
 62
     4
 10
2417.911521
 20
767.117076
  0
LINE
  8
CSLAYER1
  6
CONTINUOUS
 62
     4
 10
2458.038807
 20
819.040586
 11
2424.981945
 21
796.271991
  0
LINE
  8
CSLAYER1
  6
CONTINUOUS
 62
     4
 10
2480.728374
 20
786.098462
 11
2458.038807
 21
819.040586
  0
LINE
  8
CSLAYER1
  6
CONTINUOUS
 62
     4
 10
2480.728374
 20
786.098462
 11
2447.671512
 21
763.329867
  0
LINE
  8
CSLAYER1
  6
CONTINUOUS
 62
     4
 10
2481.925835
 20
771.137977
 11
2474.551725
 21
781.844168
  0
LINE
  8
CSLAYER1
  6
CONTINUOUS
 62
     2
 10
2481.925835
 20
771.137977
 11
2436.630414
 21
739.939823
  0
LINE
  8
CSLAYER1
  6
CONTINUOUS
 62
     2
 10
2483.630176
 20
752.730090
 11
2440.278723
 21
815.670426
  0
LINE
  8
CSLAYER1
  6
CONTINUOUS
 62
     2
 10
2481.958350
 20
768.731872
 11
2469.275632
 21
759.996388
  0
LINE
  8
CSLAYER1
  6
CONTINUOUS
 62
     2
 10
2481.958350
 20
768.731872
 11
2480.823872
 21
770.378978
  0
LINE
  8
CSLAYER1
  6
CONTINUOUS
 62
     2
 10
2484.657141
 20
762.698089
 11
2473.950951
 21
755.323980
  0
LINE
  8
CSLAYER1
  6
CONTINUOUS
 62
     2
 10
2484.657141
 20
762.698089
 11
2485.155953
 21
763.746598
  0
LINE
  8
CSLAYER1
  6
CONTINUOUS
 62
     2
 10
2481.798213
 20
768.621574
 11
2485.155953
 21
763.746598
  0
ARC
  8
CSLAYER1
  6
CONTINUOUS
 62
     2
 10
2482.080558
 20
764.903716
 40
3.285875
 50
269.593545
 51
329.244423
  0
ARC
  8
CSLAYER1
  6
CONTINUOUS
 62
     2
 10
2472.259251
 20
769.239106
 40
12.419443
 50
286.969974
 51
322.145882
  0
LINE
  8
CSLAYER1
  6
CONTINUOUS
 62
     2
 10
2478.707602
 20
766.492852
 11
2482.065342
 21
761.617876
  0
LINE
  8
CSLAYER1
  6
CONTINUOUS
 62
     2
 10
2484.007108
 20
758.000488
 11
2478.571658
 21
754.256710
  0
LINE
  8
CSLAYER1
  6
CONTINUOUS
 62
     2
 10
2484.186528
 20
758.974043
 11
2482.598258
 21
761.279991
  0
LINE
  8
CSLAYER1
  6
CONTINUOUS
 62
     2
 10
2484.007108
 20
758.000488
 11
2482.021771
 21
760.882924
  0
LINE
  8
CSLAYER1
  6
CONTINUOUS
 62
     2
 10
2484.186528
 20
758.974043
 11
2484.007108
 21
758.000488
  0
LINE
  8
CSLAYER1
  6
CONTINUOUS
 62
     2
 10
2484.186528
 20
758.974043
 11
2477.598103
 21
754.436129
  0
LINE
  8
CSLAYER1
  6
CONTINUOUS
 62
     2
 10
2469.275632
 20
759.996388
 11
2468.141154
 21
761.643495
  0
LINE
  8
CSLAYER1
  6
CONTINUOUS
 62
     2
 10
2473.950951
 20
755.323980
 11
2472.793509
 21
755.231710
  0
LINE
  8
CSLAYER1
  6
CONTINUOUS
 62
     2
 10
2469.435769
 20
760.106686
 11
2472.793509
 21
755.231710
  0
ARC
  8
CSLAYER1
  6
CONTINUOUS
 62
     2
 10
2472.808725
 20
758.517550
 40
3.285875
 50
279.871433
 51
339.522311
  0
LINE
  8
CSLAYER1
  6
CONTINUOUS
 62
     2
 10
2472.526380
 20
762.235408
 11
2475.884120
 21
757.360432
  0
LINE
  8
CSLAYER1
  6
CONTINUOUS
 62
     2
 10
2477.598103
 20
754.436129
 11
2476.009833
 21
756.742078
  0
LINE
  8
CSLAYER1
  6
CONTINUOUS
 62
     2
 10
2478.571658
 20
754.256710
 11
2476.586321
 21
757.139146
  0
LINE
  8
CSLAYER1
  6
CONTINUOUS
 62
     2
 10
2477.598103
 20
754.436129
 11
2478.571658
 21
754.256710
  0
LINE
  8
CSLAYER1
  6
CONTINUOUS
 62
     2
 10
2475.793573
 20
766.914256
 11
2473.854127
 21
763.149921
  0
LINE
  8
CSLAYER1
  6
CONTINUOUS
 62
     4
 10
2508.897001
 20
730.216636
 11
2481.102282
 21
770.570738
  0
LINE
  8
CSLAYER1
  6
CONTINUOUS
 62
     4
 10
2435.447114
 20
809.453530
 11
2438.237615
 21
805.402107
  0
LINE
  8
CSLAYER1
  6
CONTINUOUS
 62
     2
 10
2438.537725
 20
811.582252
 11
2441.328226
 21
807.530829
  0
LINE
  8
CSLAYER1
  6
CONTINUOUS
 62
     4
 10
2440.136213
 20
813.388185
 11
2388.373511
 21
888.540497
  0
LINE
  8
CSLAYER1
  6
CONTINUOUS
 62
     4
 10
2309.589288
 20
1008.213107
 11
2307.402248
 21
1006.099613
  0
LINE
  8
CSLAYER1
  6
CONTINUOUS
 62
     4
 10
2335.917196
 20
964.699838
 11
2190.267360
 21
1176.163330
  0
LINE
  8
CSLAYER1
  6
CONTINUOUS
 62
     2
 10
2307.097217
 20
1014.996398
 11
2297.383082
 21
1008.305587
  0
LINE
  8
CSLAYER1
  6
CONTINUOUS
 62
     4
 10
2301.647939
 20
1019.742851
 11
2309.589288
 21
1008.213107
  0
LINE
  8
CSLAYER1
  6
CONTINUOUS
 62
     4
 10
2274.476500
 20
896.826661
 11
2116.888777
 21
1125.622320
  0
LINE
  8
CSLAYER1
  6
CONTINUOUS
 62
     4
 10
2188.876567
 20
1176.419644
 11
2117.145091
 21
1127.013113
  0
LINE
  8
CSLAYER1
  6
CONTINUOUS
 62
     4
 10
2301.647939
 20
1019.742851
 11
2298.893660
 21
1018.452910
  0
LINE
  8
CSLAYER1
  6
CONTINUOUS
 62
     3
 10
2587.834358
 20
2054.221152
 11
1999.996275
 21
2703.602439
  0
LINE
  8
CSLAYER1
  6
CENTER
 62
     5
 10
2581.645566
 20
1964.202439
 11
1953.620161
 21
2729.502439
  0
LINE
  8
CSLAYER1
  6
CONTINUOUS
 62
     3
 10
1961.537191
 20
2611.980439
 11
2563.111470
 21
1947.424857
  0
CIRCLE
  8
CSLAYER1
  6
CONTINUOUS
 62
     3
 10
2267.632864
 20
2346.852439
 40
12.500000
  0
LINE
  8
CSLAYER1
  6
CONTINUOUS
 62
     3
 10
1941.807686
 20
2703.602439
 11
1961.537191
 21
2611.980439
  0
LINE
  8
CSLAYER1
  6
CONTINUOUS
 62
     3
 10
2606.085356
 20
1969.465203
 11
2588.182388
 21
2052.604931
  0
ARC
  8
CSLAYER1
  6
CONTINUOUS
 62
     3
 10
2581.645566
 20
1964.202439
 40
25.000000
 50
-140.626793
 51
12.152274
  0
CIRCLE
  8
CSLAYER1
  6
CONTINUOUS
 62
     3
 10
2581.645566
 20
1964.202439
 40
12.500000
  0
ARC
  8
CSLAYER1
  6
CONTINUOUS
 62
     3
 10
1992.398712
 20
1384.903041
 40
30.000000
 50
-4.343767
 51
170.766208
  0
LINE
  8
CSLAYER1
  6
CONTINUOUS
 62
     3
 10
1946.770119
 20
1291.191128
 11
1962.787458
 21
1389.716942
  0
LINE
  8
CSLAYER1
  6
CONTINUOUS
 62
     3
 10
2021.403416
 20
1370.662168
 11
2022.312539
 21
1382.630828
  0
LINE
  8
CSLAYER1
  6
CONTINUOUS
 62
     4
 10
1994.633094
 20
1415.408888
 11
1993.740974
 21
1414.872998
  0
CIRCLE
  8
CSLAYER1
  6
CONTINUOUS
 62
     3
 10
1992.398712
 20
1384.903041
 40
12.500000
  0
LINE
  8
CSLAYER1
  6
PHANTOM
 62
     5
 10
1992.398712
 20
1384.903041
 11
1978.568200
 21
1268.723366
  0
LINE
  8
CSLAYER1
  6
CONTINUOUS
 62
     1
 10
1984.005690
 20
1361.732722
 11
1995.358166
 21
1360.381276
  0
CIRCLE
  8
CSLAYER1
  6
CONTINUOUS
 62
     1
 10
1989.561684
 20
1361.071313
 40
4.000000
  0
ARC
  8
CSLAYER1
  6
CONTINUOUS
 62
     3
 10
1951.705328
 20
1290.388812
 40
5.000000
 50
165.087390
 51
206.999015
  0
LINE
  8
CSLAYER1
  6
CONTINUOUS
 62
     4
 10
1965.309841
 20
1397.794630
 11
1963.676052
 21
1396.813225
  0
LINE
  8
CSLAYER1
  6
CONTINUOUS
 62
     3
 10
1929.179870
 20
1204.162875
 11
1947.074919
 21
1287.304308
  0
LINE
  8
CSLAYER1
  6
CONTINUOUS
 62
     3
 10
2208.430411
 20
1581.647254
 11
1947.074919
 21
1287.304308
  0
LINE
  8
CSLAYER1
  6
CONTINUOUS
 62
     3
 10
1987.183209
 20
1199.077627
 11
2267.650509
 21
1514.944613
  0
LINE
  8
CSLAYER1
  6
CENTER
 62
     5
 10
1953.620161
 20
1198.902439
 11
2581.572670
 21
1964.262254
  0
CIRCLE
  8
CSLAYER1
  6
CONTINUOUS
 62
     3
 10
2267.596415
 20
1581.582347
 40
12.500000
  0
LINE
  8
CSLAYER1
  6
CONTINUOUS
 62
     3
 10
2326.874566
 20
1581.643740
 11
2588.117912
 21
1875.860385
  0
LINE
  8
CSLAYER1
  6
CONTINUOUS
 62
     3
 10
2548.018907
 20
1964.097523
 11
2267.654467
 21
1648.346381
  0
LINE
  8
CSLAYER1
  6
CONTINUOUS
 62
     3
 10
2606.012961
 20
1959.001818
 11
2588.117912
 21
1875.860385
  0
CIRCLE
  8
CSLAYER1
  6
CONTINUOUS
 62
     3
 10
2581.572670
 20
1964.262254
 40
12.500000
  0
LINE
  8
CSLAYER1
  6
CENTER
 62
     6
 10
2556.991255
 20
1964.202439
 11
2600.661553
 21
1964.202439
  0
LINE
  8
CSLAYER1
  6
CENTER
 62
     6
 10
2581.523593
 20
1984.148631
 11
2581.523593
 21
1946.918192
  0
LINE
  8
CSLAYER1
  6
CONTINUOUS
 62
     3
 10
2267.627523
 20
2407.951767
 11
2535.092496
 21
2703.602439
  0
LINE
  8
CSLAYER1
  6
CENTER
 62
     5
 10
1953.737864
 20
797.602439
 11
2926.891189
 21
979.461190
  0
LINE
  8
CSLAYER1
  6
CONTINUOUS
 62
     3
 10
2573.566936
 20
2611.977997
 11
2328.328336
 21
2340.895934
  0
LINE
  8
CSLAYER1
  6
CONTINUOUS
 62
     3
 10
2593.267325
 20
2703.602439
 11
2573.566936
 21
2611.977997
  0
LINE
  8
CSLAYER1
  6
CONTINUOUS
 62
     3
 10
2267.648259
 20
2273.821336
 11
1987.387061
 21
1964.025962
  0
LINE
  8
CSLAYER1
  6
CONTINUOUS
 62
     3
 10
1947.442254
 20
2054.025088
 11
2206.947445
 21
2340.877169
  0
LINE
  8
CSLAYER1
  6
CONTINUOUS
 62
     3
 10
1929.217463
 20
1969.263501
 11
1947.442254
 21
2054.025088
  0
ARC
  8
CSLAYER1
  6
CONTINUOUS
 62
     3
 10
2581.645566
 20
1198.902439
 40
25.000000
 50
-140.635649
 51
12.143417
  0
LINE
  8
CSLAYER1
  6
CONTINUOUS
 62
     3
 10
2606.086169
 20
1204.161425
 11
2588.196053
 21
1287.303919
  0
LINE
  8
CSLAYER1
  6
CENTER
 62
     5
 10
2581.645566
 20
1198.902439
 11
1953.738467
 21
1964.299509
  0
CIRCLE
  8
CSLAYER1
  6
CONTINUOUS
 62
     3
 10
2581.645566
 20
1198.902439
 40
12.500000
  0
POINT
  8
CSLAYER1
 62
     6
 10
1953.738467
 20
1964.299509
  0
ARC
  8
CSLAYER1
  6
CONTINUOUS
 62
     3
 10
1953.738467
 20
1964.299509
 40
25.000000
 50
39.364351
 51
192.143417
  0
LINE
  8
CSLAYER1
  6
CONTINUOUS
 62
     3
 10
1929.297864
 20
1959.040523
 11
1947.187980
 21
1875.898028
  0
CIRCLE
  8
CSLAYER1
  6
CONTINUOUS
 62
     3
 10
1953.738467
 20
1964.299509
 40
12.500000
  0
LINE
  8
CSLAYER1
  6
CONTINUOUS
 62
     3
 10
1973.066676
 20
1980.155749
 11
2588.196053
 21
1287.303919
  0
LINE
  8
CSLAYER1
  6
CONTINUOUS
 62
     3
 10
2562.317358
 20
1183.046199
 11
1947.187980
 21
1875.898028
  0
LINE
  8
CSLAYER1
  6
CENTER
 62
     6
 10
1953.818099
 20
1982.538666
 11
1953.818099
 21
1945.106981
  0
LINE
  8
CSLAYER1
  6
CENTER
 62
     6
 10
1935.746041
 20
1964.202439
 11
1972.775234
 21
1964.202439
  0
LINE
  8
CSLAYER1
  6
CENTER
 62
     6
 10
2267.632864
 20
2372.179106
 11
2267.632864
 21
2325.884369
  0
LINE
  8
CSLAYER1
  6
CENTER
 62
     6
 10
2242.742350
 20
2346.852439
 11
2294.147545
 21
2346.852439
  0
LINE
  8
CSLAYER1
  6
CENTER
 62
     6
 10
2302.482666
 20
1645.892841
 11
2302.482666
 21
1602.303641
  0
LINE
  8
CSLAYER1
  6
CENTER
 62
     6
 10
2267.651860
 20
1605.309793
 11
2267.651860
 21
1556.910749
  0
LINE
  8
CSLAYER1
  6
CENTER
 62
     6
 10
2243.944811
 20
1581.649923
 11
2289.938933
 21
1581.649923
  0
LINE
  8
CSLAYER1
  6
CENTER
 62
     6
 10
2274.330566
 20
1624.102336
 11
2331.060487
 21
1624.102336
  0
LINE
  8
CSLAYER1
  6
CONTINUOUS
 62
     4
 10
2009.731196
 20
1412.626407
 11
1994.633094
 21
1415.408888
  0
LINE
  8
CSLAYER1
  6
CONTINUOUS
 62
     4
 10
2030.358359
 20
1382.678608
 11
2009.731196
 21
1412.626407
  0
LINE
  8
CSLAYER1
  6
CONTINUOUS
 62
     4
 10
1960.318010
 20
1378.592057
 11
1963.676052
 21
1396.813225
  0
LINE
  8
CSLAYER1
  6
CONTINUOUS
 62
     4
 10
1960.852686
 20
1377.815779
 11
1960.318010
 21
1378.592057
  0
LINE
  8
CSLAYER1
  6
CENTER
 62
     5
 10
2597.693862
 20
506.097890
 11
1992.398712
 21
1384.903041
  0
LINE
  8
CSLAYER1
  6
CONTINUOUS
 62
     4
 10
2177.717423
 20
1168.733553
 11
2083.702901
 21
1305.229684
  0
LINE
  8
CSLAYER1
  6
CONTINUOUS
 62
     4
 10
2128.304236
 20
1134.699203
 11
2044.604362
 21
1256.219888
  0
LINE
  8
CSLAYER1
  6
CENTER
 62
     6
 10
1992.398712
 20
1401.162127
 11
1992.398712
 21
1367.329743
  0
LINE
  8
CSLAYER1
  6
CENTER
 62
     6
 10
1974.961037
 20
1384.903041
 11
2008.342322
 21
1384.903041
  0
LINE
  8
CSLAYER1
  6
CENTER
 62
     6
 10
1978.568200
 20
1283.275065
 11
1978.568200
 21
1255.306961
  0
LINE
  8
CSLAYER1
  6
CENTER
 62
     6
 10
1964.134674
 20
1270.644308
 11
1993.004975
 21
1270.644308
  0
ARC
  8
CSLAYER1
  6
CONTINUOUS
 62
     4
 10
1953.620161
 20
1198.902439
 40
25.000000
 50
172.196749
 51
192.152274
  0
ARC
  8
CSLAYER1
  6
CONTINUOUS
 62
     3
 10
1953.620161
 20
1198.902439
 40
25.000000
 50
39.373207
 51
192.152274
  0
CIRCLE
  8
CSLAYER1
  6
CONTINUOUS
 62
     3
 10
1953.620161
 20
1198.902439
 40
12.500000
  0
LINE
  8
CSLAYER1
  6
CONTINUOUS
 62
     3
 10
1929.180371
 20
1193.639675
 11
1947.083339
 21
1110.499947
  0
LINE
  8
CSLAYER1
  6
CONTINUOUS
 62
     3
 10
2573.728537
 20
551.124439
 11
1972.154258
 21
1215.680021
  0
LINE
  8
CSLAYER1
  6
CONTINUOUS
 62
     3
 10
1947.431369
 20
1108.883727
 11
2524.316195
 21
471.602439
  0
LINE
  8
CSLAYER1
  6
CONTINUOUS
 62
     3
 10
2590.852478
 20
471.602439
 11
2573.728537
 21
551.124439
  0
LINE
  8
CSLAYER1
  6
CENTER
 62
     5
 10
2581.645566
 20
433.602439
 11
1953.620161
 21
1198.902439
  0
CIRCLE
  8
CSLAYER1
  6
CONTINUOUS
 62
     4
 10
2267.632864
 20
816.252439
 40
12.500000
  0
CIRCLE
  8
CSLAYER1
  6
CONTINUOUS
 62
     3
 10
2267.632864
 20
816.252439
 40
12.500000
  0
ARC
  8
CSLAYER1
  6
CONTINUOUS
 62
     3
 10
2327.113047
 20
673.060682
 40
27.000000
 50
204.659949
 51
312.152274
  0
LINE
  8
CSLAYER1
  6
CONTINUOUS
 62
     3
 10
2353.387838
 20
660.425993
 11
2345.232836
 21
653.043857
  0
LINE
  8
CSLAYER1
  6
CONTINUOUS
 62
     3
 10
2265.441805
 20
742.678625
 11
2302.575446
 21
661.795420
  0
LINE
  8
CSLAYER1
  6
CONTINUOUS
 62
     3
 10
2272.855444
 20
749.389657
 11
2265.441805
 21
742.678625
  0
LINE
  8
CSLAYER1
  6
PHANTOM
 62
     5
 10
2432.897135
 20
780.362127
 11
2307.833269
 21
669.824290
  0
LINE
  8
CSLAYER1
  6
CONTINUOUS
 62
     2
 10
2272.855444
 20
749.389657
 11
2353.387838
 21
660.425993
  0
LINE
  8
CSLAYER1
  6
CONTINUOUS
 62
     3
 10
2374.822805
 20
770.854436
 11
2399.047695
 21
790.444229
  0
ARC
  8
CSLAYER1
  6
CONTINUOUS
 62
     3
 10
2417.911521
 20
767.117076
 40
30.000000
 50
-46.148759
 51
128.961216
  0
LINE
  8
CSLAYER1
  6
CONTINUOUS
 62
     3
 10
2416.816444
 20
724.464308
 11
2438.695173
 21
745.482848
  0
POINT
  8
CSLAYER1
 62
     7
 10
2417.911521
 20
767.117076
  0
LINE
  8
CSLAYER1
  6
CENTER
 62
     6
 10
1953.620161
 20
1215.911030
 11
1953.620161
 21
1182.229012
  0
LINE
  8
CSLAYER1
  6
CENTER
 62
     6
 10
1935.264373
 20
1198.902439
 11
1973.908474
 21
1198.902439
  0
LINE
  8
CSLAYER1
  6
CENTER
 62
     6
 10
2267.632864
 20
837.059097
 11
2267.632864
 21
793.361977
  0
LINE
  8
CSLAYER1
  6
CENTER
 62
     6
 10
2246.717086
 20
816.252439
 11
2290.889175
 21
816.252439
  0
LINE
  8
CSLAYER1
  6
CONTINUOUS
 62
     3
 10
2587.834358
 20
1108.883727
 11
2328.331803
 21
822.212774
  0
LINE
  8
CSLAYER1
  6
CONTINUOUS
 62
     3
 10
2267.632864
 20
889.266536
 11
2548.083416
 21
1199.078619
  0
LINE
  8
CSLAYER1
  6
CONTINUOUS
 62
     3
 10
2606.085356
 20
1193.639675
 11
2588.182388
 21
1110.499947
  0
LINE
  8
CSLAYER1
  6
CONTINUOUS
 62
     3
 10
2267.632864
 20
755.159011
 11
2010.949533
 21
471.602439
  0
LINE
  8
CSLAYER1
  6
CONTINUOUS
 62
     3
 10
1961.537191
 20
551.124439
 11
2206.933925
 21
822.212774
  0
LINE
  8
CSLAYER1
  6
CONTINUOUS
 62
     3
 10
1944.493768
 20
471.976358
 11
1961.537191
 21
551.124439
  0
LINE
  8
CSLAYER1
  6
CENTER
 62
     5
 10
1953.620161
 20
433.602439
 11
2581.645566
 21
1198.902439
  0
LINE
  8
CSLAYER1
  6
CENTER
 62
     6
 10
2209.194558
 20
781.466075
 11
2268.565646
 21
781.466075
  0
LINE
  8
CSLAYER1
  6
CENTER
 62
     6
 10
2239.086254
 20
823.759973
 11
2239.086254
 21
747.290013
  0
LINE
  8
CSLAYER1
  6
CENTER
 62
     5
 10
2926.747080
 20
797.602439
 11
1953.620161
 21
979.602439
  0
LINE
  8
CSLAYER1
  6
CENTER
 62
     6
 10
1936.620161
 20
979.602439
 11
1970.620161
 21
979.602439
  0
LINE
  8
CSLAYER1
  6
CENTER
 62
     6
 10
2926.891189
 20
996.648579
 11
2926.891189
 21
963.490630
  0
LINE
  8
CSLAYER1
  6
CENTER
 62
     6
 10
2926.747080
 20
461.384530
 11
2926.747080
 21
415.594980
  0
LINE
  8
CSLAYER1
  6
CENTER
 62
     6
 10
2952.161136
 20
979.461190
 11
2898.476836
 21
979.461190
  0
LINE
  8
CSLAYER1
  6
CENTER
 62
     6
 10
2581.645566
 20
1218.179874
 11
2581.645566
 21
1179.924912
  0
LINE
  8
CSLAYER1
  6
CENTER
 62
     6
 10
2562.759796
 20
1198.902439
 11
2599.991898
 21
1198.902439
  0
LINE
  8
CSLAYER1
  6
CONTINUOUS
 62
     6
 10
2693.020781
 20
1102.938872
 11
2513.069378
 21
729.447694
  0
LINE
  8
CSLAYER1
  6
CONTINUOUS
 62
     6
 10
2513.069378
 20
729.447694
 11
2521.443811
 21
773.661593
  0
LINE
  8
CSLAYER1
  6
CONTINUOUS
 62
     6
 10
2513.069378
 20
729.447694
 11
2542.428799
 21
763.550837
  0
DIMENSION
  8
CSLAYER1
 62
     3
  2
*D0002
 10
3245.627606
 20
1006.602439
 11
3230.627686
 21
706.602539
 13
2969.620161
 23
406.602439
 14
2969.420161
 24
1006.602439
 50
90.000000
  0
DIMENSION
  8
CSLAYER1
 62
     3
  2
*D0003
 10
3245.627606
 20
2756.602439
 11
3230.627686
 21
1881.602661
 13
2969.420161
 23
1006.602439
 14
2969.420161
 24
2756.602439
 50
90.000000
 70
1
  0
DIMENSION
  8
CSLAYER1
 62
     3
  2
*D0004
 10
3393.355708
 20
406.602439
 11
3378.355713
 21
1581.602539
 13
3393.355708
 23
2756.602439
 14
3393.355708
 24
406.602439
 50
90.000000
 70
1
  0
LINE
  8
CSLAYER1
  6
CENTER
 62
     6
 10
1953.818099
 20
1964.202439
 11
2581.447628
 21
2729.502439
  0
LINE
  8
CSLAYER1
  6
CONTINUOUS
 62
     3
 10
753.838743
 20
1308.794308
 11
825.838743
 21
1308.794308
  0
LINE
  8
CSLAYER1
  6
CONTINUOUS
 62
     3
 10
947.838743
 20
1976.702439
 11
631.838743
 21
1976.702439
  0
LINE
  8
CSLAYER1
  6
CONTINUOUS
 62
     3
 10
947.838743
 20
1951.702439
 11
631.838743
 21
1951.702439
  0
LINE
  8
CSLAYER1
  6
CONTINUOUS
 62
     3
 10
959.838743
 20
1981.202439
 11
969.838743
 21
1981.202439
  0
LINE
  8
CSLAYER1
  6
CONTINUOUS
 62
     3
 10
981.838743
 20
1984.202439
 11
991.838743
 21
1984.202439
  0
LINE
  8
CSLAYER1
  6
CONTINUOUS
 62
     3
 10
619.838743
 20
1981.202439
 11
609.838743
 21
1981.202439
  0
LINE
  8
CSLAYER1
  6
CONTINUOUS
 62
     3
 10
597.838743
 20
1984.202439
 11
587.838743
 21
1984.202439
  0
LINE
  8
CSLAYER1
  6
CONTINUOUS
 62
     3
 10
981.838743
 20
1944.202439
 11
991.838743
 21
1944.202439
  0
LINE
  8
CSLAYER1
  6
CONTINUOUS
 62
     3
 10
991.838743
 20
1984.202439
 11
991.838743
 21
1944.202439
  0
LINE
  8
CSLAYER1
  6
CONTINUOUS
 62
     3
 10
959.838743
 20
1947.202439
 11
969.838743
 21
1947.202439
  0
LINE
  8
CSLAYER1
  6
CONTINUOUS
 62
     3
 10
619.838743
 20
1947.202439
 11
609.838743
 21
1947.202439
  0
LINE
  8
CSLAYER1
  6
CONTINUOUS
 62
     3
 10
597.838743
 20
1944.202439
 11
587.838743
 21
1944.202439
  0
LINE
  8
CSLAYER1
  6
CONTINUOUS
 62
     3
 10
587.838743
 20
1984.202439
 11
587.838743
 21
1944.202439
  0
LINE
  8
CSLAYER1
  6
CONTINUOUS
 62
     3
 10
631.838743
 20
2377.102439
 11
947.838743
 21
2377.102439
  0
LINE
  8
CSLAYER1
  6
CENTER
 62
     5
 10
1005.407709
 20
2346.852439
 11
560.307947
 21
2346.852439
  0
LINE
  8
CSLAYER1
  6
CONTINUOUS
 62
     3
 10
947.838743
 20
2316.922059
 11
631.838743
 21
2316.922059
  0
LINE
  8
CSLAYER1
  6
CONTINUOUS
 62
     3
 10
959.838743
 20
2363.852439
 11
969.838743
 21
2363.852439
  0
LINE
  8
CSLAYER1
  6
CONTINUOUS
 62
     3
 10
981.838743
 20
2366.852439
 11
991.838743
 21
2366.852439
  0
LINE
  8
CSLAYER1
  6
CONTINUOUS
 62
     3
 10
981.838743
 20
2326.852439
 11
991.838743
 21
2326.852439
  0
LINE
  8
CSLAYER1
  6
CONTINUOUS
 62
     3
 10
991.838743
 20
2366.852439
 11
991.838743
 21
2326.852439
  0
LINE
  8
CSLAYER1
  6
CONTINUOUS
 62
     3
 10
959.838743
 20
2329.852439
 11
969.838743
 21
2329.852439
  0
LINE
  8
CSLAYER1
  6
CONTINUOUS
 62
     3
 10
619.838743
 20
2363.852439
 11
609.838743
 21
2363.852439
  0
LINE
  8
CSLAYER1
  6
CONTINUOUS
 62
     3
 10
597.838743
 20
2366.852439
 11
587.838743
 21
2366.852439
  0
LINE
  8
CSLAYER1
  6
CONTINUOUS
 62
     3
 10
597.838743
 20
2326.852439
 11
587.838743
 21
2326.852439
  0
LINE
  8
CSLAYER1
  6
CONTINUOUS
 62
     3
 10
587.838743
 20
2366.852439
 11
587.838743
 21
2326.852439
  0
LINE
  8
CSLAYER1
  6
CONTINUOUS
 62
     3
 10
619.838743
 20
2329.852439
 11
609.838743
 21
2329.852439
  0
LINE
  8
CSLAYER1
  6
CONTINUOUS
 62
     6
 10
1969.620161
 20
436.594855
 11
1969.620161
 21
406.602439
  0
LINE
  8
CSLAYER1
  6
CONTINUOUS
 62
     6
 10
2469.620161
 20
441.870851
 11
2469.620161
 21
406.602439
  0
DIMENSION
  8
CSLAYER1
 62
     3
  2
*D0005
 10
1969.620161
 20
276.276479
 11
1858.423706
 21
192.605011
 13
1919.620161
 23
146.612962
 14
1969.620161
 24
406.602439
  0
DIMENSION
  8
CSLAYER1
 62
     3
  2
*D0006
 10
2469.620161
 20
276.276479
 11
2219.620361
 21
291.276398
 13
1969.620161
 23
406.602439
 14
2469.620161
 24
406.602439
 52
270.000000
 70
1
  0
DIMENSION
  8
CSLAYER1
 62
     3
  2
*D0007
 10
2969.420161
 20
146.612962
 11
2444.520264
 21
161.612823
 13
1919.620161
 23
406.602439
 14
2969.420161
 24
406.602439
 52
270.000000
 70
1
  0
LINE
  8
CSLAYER1
  6
CONTINUOUS
 62
     6
 10
1840.960063
 20
276.276479
 11
1919.620161
 21
276.276479
  0
LINE
  8
CSLAYER1
  6
CONTINUOUS
 62
     6
 10
1919.620161
 20
276.276479
 11
1876.153499
 21
287.923336
  0
LINE
  8
CSLAYER1
  6
CONTINUOUS
 62
     6
 10
1919.620161
 20
276.276479
 11
1876.153499
 21
264.629622
  0
DIMENSION
  8
CSLAYER1
 62
     3
  2
*D0008
 10
569.838743
 20
260.274642
 11
790.126648
 21
271.317413
 13
1009.838743
 23
260.274642
 14
569.838743
 24
260.274642
 52
0.000000
 70
1
  0
TEXT
  8
CSLAYER1
 62
     5
 10
678.917982
 20
212.174488
 40
38.994835
 41
1.022858
  1
取付穴ピッチ
 50
0.000000
 51
0.000000
  7
EASYDRAW_FONT
 72
     5
 11
904.939562
 21
212.174488
  0
LINE
  8
CSLAYER1
  6
CONTINUOUS
 62
     5
 10
1009.838743
 20
423.769810
 11
1009.838743
 21
245.274642
  0
LINE
  8
CSLAYER1
  6
CONTINUOUS
 62
     5
 10
569.838743
 20
423.769810
 11
569.838743
 21
245.274642
  0
DIMENSION
  8
CSLAYER1
 62
     3
  2
*D0009
 10
1039.838743
 20
109.761234
 11
789.838745
 21
124.761253
 13
539.838743
 23
406.602439
 14
1039.838743
 24
406.602439
 52
270.000000
 70
1
  0
INSERT
  8
CSLAYER1
  2
EASYDRAWDIM0000
 10
0.0
 20
0.0
 30
0.0
  0
INSERT
  8
CSLAYER1
  2
EASYDRAWDIM0001
 10
0.0
 20
0.0
 30
0.0
  0
TEXT
  8
CSLAYER1
 62
     5
 10
2117.957716
 20
228.400562
 40
38.994835
 41
1.022858
  1
取付穴ピッチ
 50
0.000000
 51
0.000000
  7
EASYDRAW_FONT
 72
     5
 11
2343.979295
 21
228.400562
  0
LINE
  8
CSLAYER1
  6
DASHED
 62
     3
 10
545.166052
 20
412.602439
 11
1035.158354
 21
412.602439
  0
DIMENSION
  8
CSLAYER1
 62
     3
  2
*D0010
 10
1121.599562
 20
412.602439
 11
1149.459717
 21
491.418976
 13
1039.838743
 23
406.602439
 14
1035.158354
 24
412.602439
 50
90.000000
  0
LINE
  8
CSLAYER1
  6
CONTINUOUS
 62
     3
 10
597.838743
 20
2611.980439
 11
609.838743
 21
2611.980439
  0
LINE
  8
CSLAYER1
  6
CONTINUOUS
 62
     3
 10
597.838743
 20
1989.299509
 11
609.838743
 21
1989.299509
  0
LINE
  8
CSLAYER1
  6
CONTINUOUS
 62
     3
 10
619.838743
 20
1939.202439
 11
631.838743
 21
1939.202439
  0
LINE
  8
CSLAYER1
  6
CONTINUOUS
 62
     3
 10
597.838743
 20
1875.898028
 11
609.838743
 21
1875.898028
  0
LINE
  8
CSLAYER1
  6
CONTINUOUS
 62
     3
 10
619.838743
 20
2054.025088
 11
631.838743
 21
2054.025088
  0
LINE
  8
CSLAYER1
  6
CONTINUOUS
 62
     3
 10
619.838743
 20
1288.118936
 11
631.838743
 21
1288.118936
  0
LINE
  8
CSLAYER1
  6
CONTINUOUS
 62
     3
 10
597.838743
 20
1223.902439
 11
609.838743
 21
1223.902439
  0
LINE
  8
CSLAYER1
  6
CONTINUOUS
 62
     3
 10
597.838743
 20
1110.499947
 11
609.838743
 21
1110.499947
  0
LINE
  8
CSLAYER1
  6
CONTINUOUS
 62
     3
 10
619.838743
 20
1173.902439
 11
631.838743
 21
1173.902439
  0
LINE
  8
CSLAYER1
  6
CONTINUOUS
 62
     3
 10
597.838743
 20
551.124439
 11
609.838743
 21
551.124439
  0
LINE
  8
CSLAYER1
  6
CONTINUOUS
 62
     3
 10
969.838743
 20
1110.499947
 11
981.838743
 21
1110.499947
  0
LINE
  8
CSLAYER1
  6
CONTINUOUS
 62
     3
 10
947.838743
 20
1173.902439
 11
959.838743
 21
1173.902439
  0
LINE
  8
CSLAYER1
  6
CONTINUOUS
 62
     3
 10
969.838743
 20
1223.902439
 11
981.838743
 21
1223.902439
  0
LINE
  8
CSLAYER1
  6
CONTINUOUS
 62
     3
 10
947.838743
 20
1288.118936
 11
959.838743
 21
1288.118936
  0
LINE
  8
CSLAYER1
  6
CONTINUOUS
 62
     3
 10
969.838743
 20
1875.898028
 11
982.037968
 21
1875.898028
  0
LINE
  8
CSLAYER1
  6
CONTINUOUS
 62
     3
 10
947.838743
 20
1939.202439
 11
959.838743
 21
1939.202439
  0
LINE
  8
CSLAYER1
  6
CONTINUOUS
 62
     3
 10
969.838743
 20
1989.299509
 11
981.838743
 21
1989.299509
  0
LINE
  8
CSLAYER1
  6
CONTINUOUS
 62
     3
 10
947.838743
 20
2054.025088
 11
959.838743
 21
2054.025088
  0
LINE
  8
CSLAYER1
  6
CONTINUOUS
 62
     3
 10
969.838743
 20
2611.980439
 11
981.838743
 21
2611.980439
  0
LINE
  8
CSLAYER1
  6
CONTINUOUS
 62
     3
 10
969.838743
 20
551.124439
 11
981.838743
 21
551.124439
  0
LINE
  8
CSLAYER1
  6
CONTINUOUS
 62
     4
 10
1980.936808
 20
2067.426611
 11
2002.422826
 21
2080.207497
  0
LINE
  8
CSLAYER1
  6
CONTINUOUS
 62
     4
 10
1993.717695
 20
2045.940593
 11
2015.203712
 21
2058.721480
  0
LINE
  8
CSLAYER1
  6
CONTINUOUS
 62
     4
 10
1980.936808
 20
2067.426611
 11
1993.717695
 21
2045.940593
  0
LINE
  8
CSLAYER1
  6
CONTINUOUS
 62
     5
 10
1978.574867
 20
2095.847855
 11
2004.485750
 21
2052.288931
  0
LINE
  8
CSLAYER1
  6
CONTINUOUS
 62
     4
 10
2002.422826
 20
2080.207497
 11
2015.228759
 21
2058.679375
  0
INSERT
  8
CSLAYER1
  2
BLKF0003
 10
0.0
 20
0.0
 30
0.0
  0
INSERT
  8
CSLAYER1
  2
BLKF0004
 10
0.0
 20
0.0
 30
0.0
  0
LINE
  8
CSLAYER1
  6
CONTINUOUS
 62
     4
 10
1986.450719
 20
2092.387948
 11
1991.887137
 21
2083.248757
  0
LINE
  8
CSLAYER1
  6
CONTINUOUS
 62
     5
 10
1985.591278
 20
2091.876713
 11
1991.027696
 21
2082.737521
  0
LINE
  8
CSLAYER1
  6
CONTINUOUS
 62
     5
 10
1978.715753
 20
2087.786829
 11
1984.152170
 21
2078.647638
  0
LINE
  8
CSLAYER1
  6
CONTINUOUS
 62
     4
 10
1977.856312
 20
2087.275593
 11
1983.292730
 21
2078.136402
  0
LINE
  8
CSLAYER1
  6
CONTINUOUS
 62
     4
 10
1964.440462
 20
1298.285721
 11
1985.926479
 21
1311.066608
  0
LINE
  8
CSLAYER1
  6
CONTINUOUS
 62
     4
 10
1964.440462
 20
1298.285721
 11
1977.221349
 21
1276.799704
  0
LINE
  8
CSLAYER1
  6
CONTINUOUS
 62
     5
 10
1962.078521
 20
1326.706966
 11
1987.989404
 21
1283.148042
  0
LINE
  8
CSLAYER1
  6
CONTINUOUS
 62
     4
 10
1985.926479
 20
1311.066608
 11
1998.732413
 21
1289.538486
  0
INSERT
  8
CSLAYER1
  2
BLKF0005
 10
0.0
 20
0.0
 30
0.0
  0
INSERT
  8
CSLAYER1
  2
BLKF0006
 10
0.0
 20
0.0
 30
0.0
  0
LINE
  8
CSLAYER1
  6
CONTINUOUS
 62
     4
 10
1969.954373
 20
1323.247059
 11
1975.390790
 21
1314.107868
  0
LINE
  8
CSLAYER1
  6
CONTINUOUS
 62
     5
 10
1969.094932
 20
1322.735823
 11
1974.531350
 21
1313.596632
  0
LINE
  8
CSLAYER1
  6
CONTINUOUS
 62
     5
 10
1962.219406
 20
1318.645939
 11
1967.655824
 21
1309.506748
  0
LINE
  8
CSLAYER1
  6
CONTINUOUS
 62
     4
 10
1961.359966
 20
1318.134704
 11
1966.796384
 21
1308.995513
  0
LINE
  8
CSLAYER1
  6
CONTINUOUS
 62
     4
 10
1977.221349
 20
1276.799704
 11
1998.707366
 21
1289.580591
  0
LINE
  8
CSLAYER1
  6
CONTINUOUS
 62
     4
 10
1964.440462
 20
532.985721
 11
1985.926479
 21
545.766608
  0
LINE
  8
CSLAYER1
  6
CONTINUOUS
 62
     4
 10
1977.221349
 20
511.499704
 11
1998.707366
 21
524.280591
  0
LINE
  8
CSLAYER1
  6
CONTINUOUS
 62
     4
 10
1964.440462
 20
532.985721
 11
1977.221349
 21
511.499704
  0
LINE
  8
CSLAYER1
  6
CONTINUOUS
 62
     5
 10
1962.078521
 20
561.406966
 11
1987.989404
 21
517.848042
  0
LINE
  8
CSLAYER1
  6
CONTINUOUS
 62
     4
 10
1985.926479
 20
545.766608
 11
1998.732413
 21
524.238486
  0
INSERT
  8
CSLAYER1
  2
BLKF0007
 10
0.0
 20
0.0
 30
0.0
  0
INSERT
  8
CSLAYER1
  2
BLKF0008
 10
0.0
 20
0.0
 30
0.0
  0
LINE
  8
CSLAYER1
  6
CONTINUOUS
 62
     4
 10
1969.954373
 20
557.947059
 11
1975.390790
 21
548.807868
  0
LINE
  8
CSLAYER1
  6
CONTINUOUS
 62
     5
 10
1969.094932
 20
557.435823
 11
1974.531350
 21
548.296632
  0
LINE
  8
CSLAYER1
  6
CONTINUOUS
 62
     5
 10
1962.219406
 20
553.345939
 11
1967.655824
 21
544.206748
  0
LINE
  8
CSLAYER1
  6
CONTINUOUS
 62
     4
 10
1961.359966
 20
552.834704
 11
1966.796384
 21
543.695513
  0
LINE
  8
CSLAYER1
  6
CONTINUOUS
 62
     4
 10
959.838743
 20
2077.331037
 11
988.838743
 21
2077.331037
  0
LINE
  8
CSLAYER1
  6
CONTINUOUS
 62
     4
 10
959.838743
 20
2052.331037
 11
988.838743
 21
2052.331037
  0
LINE
  8
CSLAYER1
  6
CONTINUOUS
 62
     5
 10
976.338743
 20
2102.964919
 11
976.338743
 21
2052.282045
  0
LINE
  8
CSLAYER1
  6
CONTINUOUS
 62
     4
 10
988.838743
 20
2077.331037
 11
988.838743
 21
2052.282045
  0
INSERT
  8
CSLAYER1
  2
BLKF0009
 10
0.0
 20
0.0
 30
0.0
  0
INSERT
  8
CSLAYER1
  2
BLKF0010
 10
0.0
 20
0.0
 30
0.0
  0
LINE
  8
CSLAYER1
  6
CONTINUOUS
 62
     4
 10
981.338743
 20
2095.964919
 11
981.338743
 21
2085.331037
  0
LINE
  8
CSLAYER1
  6
CONTINUOUS
 62
     5
 10
980.338743
 20
2095.964919
 11
980.338743
 21
2085.331037
  0
LINE
  8
CSLAYER1
  6
CONTINUOUS
 62
     5
 10
972.338743
 20
2095.964919
 11
972.338743
 21
2085.331037
  0
LINE
  8
CSLAYER1
  6
CONTINUOUS
 62
     4
 10
971.338743
 20
2095.964919
 11
971.338743
 21
2085.331037
  0
LINE
  8
CSLAYER1
  6
CONTINUOUS
 62
     4
 10
619.838743
 20
2077.331037
 11
590.838743
 21
2077.331037
  0
LINE
  8
CSLAYER1
  6
CONTINUOUS
 62
     4
 10
619.838743
 20
2052.331037
 11
590.838743
 21
2052.331037
  0
LINE
  8
CSLAYER1
  6
CONTINUOUS
 62
     5
 10
603.338743
 20
2102.964919
 11
603.338743
 21
2052.282045
  0
LINE
  8
CSLAYER1
  6
CONTINUOUS
 62
     4
 10
590.838743
 20
2077.331037
 11
590.838743
 21
2052.282045
  0
INSERT
  8
CSLAYER1
  2
BLKF0011
 10
0.0
 20
0.0
 30
0.0
  0
INSERT
  8
CSLAYER1
  2
BLKF0012
 10
0.0
 20
0.0
 30
0.0
  0
LINE
  8
CSLAYER1
  6
CONTINUOUS
 62
     4
 10
598.338743
 20
2095.964919
 11
598.338743
 21
2085.331037
  0
LINE
  8
CSLAYER1
  6
CONTINUOUS
 62
     5
 10
599.338743
 20
2095.964919
 11
599.338743
 21
2085.331037
  0
LINE
  8
CSLAYER1
  6
CONTINUOUS
 62
     5
 10
607.338743
 20
2095.964919
 11
607.338743
 21
2085.331037
  0
LINE
  8
CSLAYER1
  6
CONTINUOUS
 62
     4
 10
608.338743
 20
2095.964919
 11
608.338743
 21
2085.331037
  0
LINE
  8
CSLAYER1
  6
CONTINUOUS
 62
     3
 10
969.838743
 20
2052.331037
 11
969.838743
 21
1333.824030
  0
LINE
  8
CSLAYER1
  6
CONTINUOUS
 62
     3
 10
981.838743
 20
2052.331037
 11
981.838743
 21
1333.824030
  0
LINE
  8
CSLAYER1
  6
CONTINUOUS
 62
     3
 10
981.838743
 20
2095.964919
 11
981.838743
 21
2085.331037
  0
LINE
  8
CSLAYER1
  6
CONTINUOUS
 62
     3
 10
969.838743
 20
2095.964919
 11
969.838743
 21
2085.268015
  0
LINE
  8
CSLAYER1
  6
CONTINUOUS
 62
     3
 10
609.838743
 20
2095.964919
 11
609.838743
 21
2085.268015
  0
LINE
  8
CSLAYER1
  6
CONTINUOUS
 62
     3
 10
609.838743
 20
2052.331037
 11
609.838743
 21
1333.824030
  0
LINE
  8
CSLAYER1
  6
CONTINUOUS
 62
     3
 10
597.838743
 20
2052.331037
 11
597.838743
 21
1333.824030
  0
LINE
  8
CSLAYER1
  6
CONTINUOUS
 62
     3
 10
597.838743
 20
2095.964919
 11
597.838743
 21
2085.331037
  0
LINE
  8
CSLAYER1
  6
CONTINUOUS
 62
     4
 10
959.838743
 20
1308.190148
 11
988.838743
 21
1308.190148
  0
LINE
  8
CSLAYER1
  6
CONTINUOUS
 62
     4
 10
959.838743
 20
1283.190148
 11
988.838743
 21
1283.190148
  0
LINE
  8
CSLAYER1
  6
CONTINUOUS
 62
     5
 10
976.338743
 20
1333.824030
 11
976.338743
 21
1283.141156
  0
LINE
  8
CSLAYER1
  6
CONTINUOUS
 62
     4
 10
988.838743
 20
1308.190148
 11
988.838743
 21
1283.141156
  0
INSERT
  8
CSLAYER1
  2
BLKF0013
 10
0.0
 20
0.0
 30
0.0
  0
INSERT
  8
CSLAYER1
  2
BLKF0014
 10
0.0
 20
0.0
 30
0.0
  0
LINE
  8
CSLAYER1
  6
CONTINUOUS
 62
     4
 10
981.338743
 20
1326.824030
 11
981.338743
 21
1316.190148
  0
LINE
  8
CSLAYER1
  6
CONTINUOUS
 62
     5
 10
980.338743
 20
1326.824030
 11
980.338743
 21
1316.190148
  0
LINE
  8
CSLAYER1
  6
CONTINUOUS
 62
     5
 10
972.338743
 20
1326.824030
 11
972.338743
 21
1316.190148
  0
LINE
  8
CSLAYER1
  6
CONTINUOUS
 62
     4
 10
971.338743
 20
1326.824030
 11
971.338743
 21
1316.190148
  0
LINE
  8
CSLAYER1
  6
CONTINUOUS
 62
     4
 10
619.838743
 20
1308.190148
 11
590.838743
 21
1308.190148
  0
LINE
  8
CSLAYER1
  6
CONTINUOUS
 62
     4
 10
619.838743
 20
1283.190148
 11
590.838743
 21
1283.190148
  0
LINE
  8
CSLAYER1
  6
CONTINUOUS
 62
     5
 10
603.338743
 20
1333.824030
 11
603.338743
 21
1283.141156
  0
LINE
  8
CSLAYER1
  6
CONTINUOUS
 62
     4
 10
590.838743
 20
1308.190148
 11
590.838743
 21
1283.141156
  0
INSERT
  8
CSLAYER1
  2
BLKF0015
 10
0.0
 20
0.0
 30
0.0
  0
INSERT
  8
CSLAYER1
  2
BLKF0016
 10
0.0
 20
0.0
 30
0.0
  0
LINE
  8
CSLAYER1
  6
CONTINUOUS
 62
     4
 10
598.338743
 20
1326.824030
 11
598.338743
 21
1316.190148
  0
LINE
  8
CSLAYER1
  6
CONTINUOUS
 62
     5
 10
599.338743
 20
1326.824030
 11
599.338743
 21
1316.190148
  0
LINE
  8
CSLAYER1
  6
CONTINUOUS
 62
     5
 10
607.338743
 20
1326.824030
 11
607.338743
 21
1316.190148
  0
LINE
  8
CSLAYER1
  6
CONTINUOUS
 62
     4
 10
608.338743
 20
1326.824030
 11
608.338743
 21
1316.190148
  0
LINE
  8
CSLAYER1
  6
CONTINUOUS
 62
     3
 10
981.838743
 20
1326.824030
 11
981.838743
 21
1316.190148
  0
LINE
  8
CSLAYER1
  6
CONTINUOUS
 62
     3
 10
969.838743
 20
1326.824030
 11
969.838743
 21
1316.127125
  0
LINE
  8
CSLAYER1
  6
CONTINUOUS
 62
     3
 10
609.838743
 20
1326.824030
 11
609.838743
 21
1316.127125
  0
LINE
  8
CSLAYER1
  6
CONTINUOUS
 62
     3
 10
597.838743
 20
1326.824030
 11
597.838743
 21
1316.190148
  0
LINE
  8
CSLAYER1
  6
CONTINUOUS
 62
     4
 10
959.838743
 20
542.890148
 11
988.838743
 21
542.890148
  0
LINE
  8
CSLAYER1
  6
CONTINUOUS
 62
     4
 10
959.838743
 20
517.890148
 11
988.838743
 21
517.890148
  0
LINE
  8
CSLAYER1
  6
CONTINUOUS
 62
     5
 10
976.338743
 20
568.524030
 11
976.338743
 21
517.841156
  0
LINE
  8
CSLAYER1
  6
CONTINUOUS
 62
     4
 10
988.838743
 20
542.890148
 11
988.838743
 21
517.841156
  0
INSERT
  8
CSLAYER1
  2
BLKF0017
 10
0.0
 20
0.0
 30
0.0
  0
INSERT
  8
CSLAYER1
  2
BLKF0018
 10
0.0
 20
0.0
 30
0.0
  0
LINE
  8
CSLAYER1
  6
CONTINUOUS
 62
     4
 10
981.338743
 20
561.524030
 11
981.338743
 21
550.890148
  0
LINE
  8
CSLAYER1
  6
CONTINUOUS
 62
     5
 10
980.338743
 20
561.524030
 11
980.338743
 21
550.890148
  0
LINE
  8
CSLAYER1
  6
CONTINUOUS
 62
     5
 10
972.338743
 20
561.524030
 11
972.338743
 21
550.890148
  0
LINE
  8
CSLAYER1
  6
CONTINUOUS
 62
     4
 10
971.338743
 20
561.524030
 11
971.338743
 21
550.890148
  0
LINE
  8
CSLAYER1
  6
CONTINUOUS
 62
     4
 10
619.838743
 20
542.890148
 11
590.838743
 21
542.890148
  0
LINE
  8
CSLAYER1
  6
CONTINUOUS
 62
     4
 10
619.838743
 20
517.890148
 11
590.838743
 21
517.890148
  0
LINE
  8
CSLAYER1
  6
CONTINUOUS
 62
     5
 10
603.338743
 20
568.524030
 11
603.338743
 21
517.841156
  0
LINE
  8
CSLAYER1
  6
CONTINUOUS
 62
     4
 10
590.838743
 20
542.890148
 11
590.838743
 21
517.841156
  0
INSERT
  8
CSLAYER1
  2
BLKF0019
 10
0.0
 20
0.0
 30
0.0
  0
INSERT
  8
CSLAYER1
  2
BLKF0020
 10
0.0
 20
0.0
 30
0.0
  0
LINE
  8
CSLAYER1
  6
CONTINUOUS
 62
     4
 10
598.338743
 20
561.524030
 11
598.338743
 21
550.890148
  0
LINE
  8
CSLAYER1
  6
CONTINUOUS
 62
     5
 10
599.338743
 20
561.524030
 11
599.338743
 21
550.890148
  0
LINE
  8
CSLAYER1
  6
CONTINUOUS
 62
     5
 10
607.338743
 20
561.524030
 11
607.338743
 21
550.890148
  0
LINE
  8
CSLAYER1
  6
CONTINUOUS
 62
     4
 10
608.338743
 20
561.524030
 11
608.338743
 21
550.890148
  0
LINE
  8
CSLAYER1
  6
CONTINUOUS
 62
     3
 10
981.838743
 20
561.524030
 11
981.838743
 21
550.890148
  0
LINE
  8
CSLAYER1
  6
CONTINUOUS
 62
     3
 10
969.838743
 20
561.524030
 11
969.838743
 21
550.827125
  0
LINE
  8
CSLAYER1
  6
CONTINUOUS
 62
     3
 10
609.838743
 20
561.524030
 11
609.838743
 21
550.827125
  0
LINE
  8
CSLAYER1
  6
CONTINUOUS
 62
     3
 10
597.838743
 20
561.524030
 11
597.838743
 21
550.890148
  0
LINE
  8
CSLAYER1
  6
CONTINUOUS
 62
     3
 10
609.838743
 20
1283.190148
 11
609.838743
 21
568.524030
  0
LINE
  8
CSLAYER1
  6
CONTINUOUS
 62
     3
 10
597.838743
 20
1283.190148
 11
597.838743
 21
568.524030
  0
LINE
  8
CSLAYER1
  6
CONTINUOUS
 62
     3
 10
969.838743
 20
1283.190148
 11
969.838743
 21
568.524030
  0
LINE
  8
CSLAYER1
  6
CONTINUOUS
 62
     3
 10
981.838743
 20
1283.190148
 11
981.838743
 21
568.524030
  0
LINE
  8
CSLAYER1
  6
CONTINUOUS
 62
     3
 10
981.838743
 20
517.890148
 11
981.838743
 21
471.602439
  0
LINE
  8
CSLAYER1
  6
CONTINUOUS
 62
     3
 10
969.838743
 20
517.890148
 11
969.838743
 21
471.602439
  0
LINE
  8
CSLAYER1
  6
CONTINUOUS
 62
     3
 10
597.838743
 20
517.890148
 11
597.838743
 21
471.602439
  0
LINE
  8
CSLAYER1
  6
CONTINUOUS
 62
     3
 10
609.838743
 20
517.890148
 11
609.838743
 21
471.602439
  0
LINE
  8
CSLAYER1
  6
CONTINUOUS
 62
     3
 10
1670.296245
 20
3175.102439
 11
1459.758500
 21
3175.102439
  0
LINE
  8
CSLAYER1
  6
CONTINUOUS
 62
     3
 10
1670.828882
 20
3182.102439
 11
1459.758500
 21
3182.102439
  0
ARC
  8
CSLAYER1
  6
CONTINUOUS
 62
     3
 10
1663.991485
 20
3135.602439
 40
40.000000
 50
-243.817766
 51
80.931278
  0
ARC
  8
CSLAYER1
  6
CONTINUOUS
 62
     3
 10
1663.991485
 20
3135.602439
 40
47.000000
 50
-229.860785
 51
81.635125
  0
LINE
  8
CSLAYER1
  6
CONTINUOUS
 62
     3
 10
1919.420161
 20
3175.102439
 11
1693.983101
 21
3175.102439
  0
LINE
  8
CSLAYER1
  6
CONTINUOUS
 62
     3
 10
1919.420161
 20
3182.102439
 11
1683.276210
 21
3182.102439
  0
TEXT
  8
CSLAYER1
 62
     5
 10
802.873291
 20
2844.486816
 40
60.000000
 41
1.020000
  1
コード長サ２ｍ
 50
0.000000
 51
0.000000
  7
EASYDRAW_FONT
 72
     5
 11
1210.873291
 21
2844.486816
  0
TEXT
  8
CSLAYER1
 62
     5
 10
4017.939453
 20
2998.483643
 40
60.000000
 41
1.036364
  1
積載荷重
 50
0.000000
 51
0.000000
  7
EASYDRAW_FONT
 72
     5
 11
4245.939453
 21
2998.483643
  0
LINE
  8
CSLAYER1
  6
CONTINUOUS
 62
     5
 10
5084.635272
 20
1452.653982
 11
4003.326496
 21
1452.653982
  0
TEXT
  8
CSLAYER1
 62
     4
 10
4491.279785
 20
1468.660889
 40
60.000000
 41
0.926087
  1
　１０Ｒ４／１３
 50
0.000000
 51
0.000000
  7
EASYDRAW_FONT
 72
     5
 11
4917.279785
 21
1468.660889
  0
INSERT
  8
CSLAYER1
  2
BLKF0021
 10
0.0
 20
0.0
 30
0.0
  0
ENDSEC
  0
EOF
