  0
SECTION
  2
HEADER
  9
$ACADVER
  1
AC1006
  9
$INSBASE
 10
-732.593648
 20
3296.213355
 30
0.0
  9
$EXTMIN
 10
-732.593648
 20
3296.213355
  9
$EXTMAX
 10
4727.406352
 20
7151.213355
  9
$LIMMIN
 10
-732.593648
 20
3296.213355
  9
$LIMMAX
 10
4727.406352
 20
7151.213355
  9
$VIEWCTR
 10
1997.406352
 20
5223.713355
  9
$VIEWSIZE
 40
3855.000000
  9
$SNAPMODE
 70
     0
  9
$SNAPUNIT
 10
1.0
 20
1.0
  9
$SNAPBASE
 10
0.0
 20
0.0
  9
$SNAPANG
 50
0.0
  9
$SNAPSTYLE
 70
     0
  9
$SNAPISOPAIR
 70
     0
  9
$GRIDMODE
 70
     0
  9
$GRIDUNIT
 10
0.0
 20
0.0
  9
$ORTHOMODE
 70
     0
  9
$REGENMODE
 70
     1
  9
$FILLMODE
 70
     1
  9
$QTEXTMODE
 70
     0
  9
$DRAGMODE
 70
     2
  9
$LTSCALE
 40
15.000000
  9
$OSMODE
 70
     0
  9
$ATTMODE
 70
     1
  9
$TEXTSIZE
 40
0.2
  9
$TRACEWID
 40
0.05
  9
$TEXTSTYLE
  7
STANDARD
  9
$CLAYER
  8
CSLAYER1
  9
$CELTYPE
  6
BYLAYER
  9
$CECOLOR
 62
   256
  9
$DIMSCALE
 40
1.0
  9
$DIMASZ
 40
0.18
  9
$DIMEXO
 40
0.0625
  9
$DIMDLI
 40
0.38
  9
$DIMRND
 40
0.0
  9
$DIMDLE
 40
0.0
  9
$DIMEXE
 40
0.18
  9
$DIMTP
 40
0.0
  9
$DIMTM
 40
0.0
  9
$DIMTXT
 40
0.18
  9
$DIMCEN
 40
0.09
  9
$DIMTSZ
 40
0.0
  9
$DIMTOL
 70
     0
  9
$DIMLIM
 70
     0
  9
$DIMTIH
 70
     1
  9
$DIMTOH
 70
     1
  9
$DIMSE1
 70
     0
  9
$DIMSE2
 70
     0
  9
$DIMTAD
 70
     0
  9
$DIMZIN
 70
     0
  9
$DIMBLK
  1

  9
$LUNITS
 70
     2
  9
$LUPREC
 70
     4
  9
$AXISMODE
 70
     0
  9
$AXISUNIT
 10
0.0
 20
0.0
  9
$SKETCHINC
 40
0.1
  9
$FILLETRAD
 40
0.0
  9
$AUNITS
 70
     0
  9
$AUPREC
 70
     0
  9
$MENU
  1
ACAD
  9
$ELEVATION
 40
0.0
  9
$THICKNESS
 40
0.0
  9
$VIEWDIR
 10
0.0
 20
0.0
 30
1.0
  9
$LIMCHECK
 70
     0
  9
$BLIPMODE
 70
     1
  9
$CHAMFERA
 40
0.0
  9
$CHAMFERB
 40
0.0
  9
$FASTZOOM
 70
     1
  9
$SKPOLY
 70
     0
  9
$TDCREATE
 40
2457497.000000
  9
$TDUPDATE
 40
2457497.000000
  9
$TDINDWG
 40
0.0
  9
$TDUSRTIMER
 40
0.0
  9
$USRTIMER
 70
     1
  9
$ANGBASE
 50
0.0
  9
$ANGDIR
 70
     0
  9
$PDMODE
 70
     0
  9
$PDSIZE
 40
0.0
  9
$PLINEWID
 40
0.0
  9
$COORDS
 70
     0
  9
$USERI1
 70
     0
  9
$USERI2
 70
     0
  9
$USERI3
 70
     0
  9
$USERI4
 70
     0
  9
$USERI5
 70
     0
  9
$USERR1
 40
0.0
  9
$USERR2
 40
0.0
  9
$USERR3
 40
0.0
  9
$USERR4
 40
0.0
  9
$USERR5
 40
0.0
  0
ENDSEC
  0
SECTION
  2
TABLES
  0
TABLE
  2
LTYPE
 70
     9
  0
LTYPE
  2
CONTINUOUS
 70
    64
  3
Solid line
 72
    65
 73
     0
 40
0.0
  0
LTYPE
  2
DASHED
 70
    64
  3
__ __ __ __ __ __ __ __ __ __ __ __ __ __ __
 72
    65
 73
     2
 40
0.75
 49
0.5
 49
-0.25
  0
LTYPE
  2
HIDDEN
 70
    64
  3
_ _ _ _ _ _ _ _ _ _ _ _ _ _ _ _ _ _ _ _ _ _ _
 72
    65
 73
     2
 40
0.375
 49
0.25
 49
-0.125
  0
LTYPE
  2
DOT
 70
    64
  3
...............................................
 72
    65
 73
     2
 40
0.25
 49
0.0
 49
-0.25
  0
LTYPE
  2
DASHDOT
 70
    64
  3
__ . __ . __ . __ . __ . __ . __ . __ . __ . __
 72
    65
 73
     4
 40
1.0
 49
0.5
 49
-0.25
 49
0.0
 49
-0.25
  0
LTYPE
  2
DIVIDE
 70
    64
  3
__ . . __ . . __ . . __ . . __ . . __ . . __
 72
    65
 73
     6
 40
1.25
 49
0.5
 49
-0.25
 49
0.0
 49
-0.25
 49
0.0
 49
-0.25
  0
LTYPE
  2
CENTER
 70
    64
  3
____ _ ____ _ ____ _ ____ _ ____ _ ____ _ ____ 
 72
    65
 73
     4
 40
2.0
 49
1.25
 49
-0.25
 49
0.25
 49
-0.25
  0
LTYPE
  2
PHANTOM
 70
    64
  3
______  __  __  ______  __  __  ______  __  __ 
 72
    65
 73
     6
 40
2.5
 49
1.25
 49
-0.25
 49
0.25
 49
-0.25
 49
0.25
 49
-0.25
  0
LTYPE
  2
BORDER
 70
    64
  3
__ __ . __ __ . __ __ . __ __ . __ __ . __ __ .
 72
    65
 73
     6
 40
1.75
 49
0.5
 49
-0.25
 49
0.5
 49
-0.25
 49
0.0
 49
-0.25
  0
ENDTAB
  0
TABLE
  2
LAYER
 70
    16
  0
LAYER
  2
CSLAYER1
 70
    64
 62
     7
  6
CONTINUOUS
  0
LAYER
  2
CSLAYER2
 70
    64
 62
     7
  6
CONTINUOUS
  0
LAYER
  2
CSLAYER3
 70
    64
 62
     7
  6
CONTINUOUS
  0
LAYER
  2
CSLAYER4
 70
    64
 62
     7
  6
CONTINUOUS
  0
LAYER
  2
CSLAYER5
 70
    64
 62
     7
  6
CONTINUOUS
  0
LAYER
  2
CSLAYER6
 70
    64
 62
     7
  6
CONTINUOUS
  0
LAYER
  2
CSLAYER7
 70
    64
 62
     7
  6
CONTINUOUS
  0
LAYER
  2
CSLAYER8
 70
    64
 62
     7
  6
CONTINUOUS
  0
LAYER
  2
CSLAYER9
 70
    64
 62
     7
  6
CONTINUOUS
  0
LAYER
  2
CSLAYER10
 70
    64
 62
     7
  6
CONTINUOUS
  0
LAYER
  2
CSLAYER11
 70
    64
 62
     7
  6
CONTINUOUS
  0
LAYER
  2
CSLAYER12
 70
    64
 62
     7
  6
CONTINUOUS
  0
LAYER
  2
CSLAYER13
 70
    64
 62
     7
  6
CONTINUOUS
  0
LAYER
  2
CSLAYER14
 70
    64
 62
     7
  6
CONTINUOUS
  0
LAYER
  2
CSLAYER15
 70
    64
 62
     7
  6
CONTINUOUS
  0
LAYER
  2
CSLAYER16
 70
    64
 62
     7
  6
CONTINUOUS
  0
ENDTAB
  0
TABLE
  2
STYLE
 70
     1
  0
STYLE
  2
EASYDRAW_FONT
 70
     0
 40
1.0
 41
1.0
 50
0.0
 71
     0
 42
1.0
  3
monotxt
  4
bigfont
  0
ENDTAB
  0
TABLE
  2
VIEW
 70
     0
  0
ENDTAB
  0
ENDSEC
  0
SECTION
  2
BLOCKS
  0
BLOCK
  8
CSLAYER1
  2
EASYDRAWDIM0000
 70
   64
 10
0.0
 20
0.0
 30
0.0
  0
TEXT
  8
CSLAYER1
 62
     3
 10
1962.749023
 20
1384.544312
 40
60.000000
 41
0.775862
  1
下限アジャストボルト
 50
0.000000
 51
0.000000
  7
EASYDRAW_FONT
 72
     5
 11
2412.749023
 21
1384.544312
  0
LINE
  8
CSLAYER1
  6
CONTINUOUS
 62
     5
 10
1955.256194
 20
1369.544386
 11
2327.749000
 21
1369.544386
  0
ENDBLK
  8
0
  0
BLOCK
  8
CSLAYER1
  2
EASYDRAWDIM0001
 70
   64
 10
0.0
 20
0.0
 30
0.0
  0
TEXT
  8
CSLAYER1
 62
     3
 10
1990.812500
 20
551.861755
 40
57.538021
 41
0.639144
  1
上限・下限リミットスイッチ
 50
0.000000
 51
0.000000
  7
EASYDRAW_FONT
 72
     5
 11
2456.629997
 21
551.861755
  0
LINE
  8
CSLAYER1
  6
CONTINUOUS
 62
     5
 10
1994.780885
 20
540.427212
 11
2374.106900
 21
540.427212
  0
ENDBLK
  8
0
  0
BLOCK
  8
CSLAYER1
  2
*D0000
 70
    65
 10
0.0
 20
0.0
 30
0.0
  0
TEXT
  8
CSLAYER1
 62
     3
 10
3572.208984
 20
801.604370
 40
60.000000
 41
0.843750
  1
250
 50
90.000000
 51
0.000000
  7
EASYDRAW_FONT
 72
     5
 11
3572.208984
 21
936.604370
  0
LINE
  8
CSLAYER1
  6
CONTINUOUS
 62
     5
 10
3449.290174
 20
744.104575
 11
3741.182180
 21
744.104575
  0
LINE
  8
CSLAYER1
  6
CONTINUOUS
 62
     5
 10
3451.090174
 20
994.104575
 11
3602.208952
 21
994.104575
  0
LINE
  8
CSLAYER1
  6
CONTINUOUS
 62
     5
 10
3587.208952
 20
744.104575
 11
3587.208952
 21
994.104575
  0
LINE
  8
CSLAYER1
  6
CONTINUOUS
 62
     5
 10
3587.208952
 20
744.104575
 11
3575.562095
 21
787.571237
  0
LINE
  8
CSLAYER1
  6
CONTINUOUS
 62
     5
 10
3587.208952
 20
744.104575
 11
3598.855809
 21
787.571237
  0
LINE
  8
CSLAYER1
  6
CONTINUOUS
 62
     5
 10
3587.208952
 20
994.104575
 11
3575.562095
 21
950.637913
  0
LINE
  8
CSLAYER1
  6
CONTINUOUS
 62
     5
 10
3587.208952
 20
994.104575
 11
3598.855809
 21
950.637913
  0
ENDBLK
  8
0
  0
BLOCK
  8
CSLAYER1
  2
*D0001
 70
    65
 10
0.0
 20
0.0
 30
0.0
  0
TEXT
  8
CSLAYER1
 62
     3
 10
3572.208984
 20
1425.284058
 40
60.000000
 41
0.843750
  1
970
 50
90.000000
 51
0.000000
  7
EASYDRAW_FONT
 72
     5
 11
3572.208984
 21
1560.284058
  0
LINE
  8
CSLAYER1
  6
CONTINUOUS
 62
     5
 10
3451.090174
 20
1991.463887
 11
3741.182180
 21
1991.463887
  0
LINE
  8
CSLAYER1
  6
CONTINUOUS
 62
     5
 10
3587.208952
 20
994.104575
 11
3587.208952
 21
1991.463887
  0
LINE
  8
CSLAYER1
  6
CONTINUOUS
 62
     5
 10
3587.208952
 20
994.104575
 11
3575.562095
 21
1037.571237
  0
LINE
  8
CSLAYER1
  6
CONTINUOUS
 62
     5
 10
3587.208952
 20
994.104575
 11
3598.855809
 21
1037.571237
  0
LINE
  8
CSLAYER1
  6
CONTINUOUS
 62
     5
 10
3587.208952
 20
1991.463887
 11
3575.562095
 21
1947.997224
  0
LINE
  8
CSLAYER1
  6
CONTINUOUS
 62
     5
 10
3587.208952
 20
1991.463887
 11
3598.855809
 21
1947.997224
  0
ENDBLK
  8
0
  0
BLOCK
  8
CSLAYER1
  2
*D0002
 70
    65
 10
0.0
 20
0.0
 30
0.0
  0
TEXT
  8
CSLAYER1
 62
     3
 10
3711.182129
 20
1277.784058
 40
60.000000
 41
0.818182
  1
1220
 50
90.000000
 51
0.000000
  7
EASYDRAW_FONT
 72
     5
 11
3711.182129
 21
1457.784058
  0
LINE
  8
CSLAYER1
  6
CONTINUOUS
 62
     5
 10
3726.182180
 20
744.104575
 11
3726.182180
 21
1991.463887
  0
LINE
  8
CSLAYER1
  6
CONTINUOUS
 62
     5
 10
3726.182180
 20
744.104575
 11
3714.535323
 21
787.571237
  0
LINE
  8
CSLAYER1
  6
CONTINUOUS
 62
     5
 10
3726.182180
 20
744.104575
 11
3737.829037
 21
787.571237
  0
LINE
  8
CSLAYER1
  6
CONTINUOUS
 62
     5
 10
3726.182180
 20
1991.463887
 11
3714.535323
 21
1947.997224
  0
LINE
  8
CSLAYER1
  6
CONTINUOUS
 62
     5
 10
3726.182180
 20
1991.463887
 11
3737.829037
 21
1947.997224
  0
ENDBLK
  8
0
  0
BLOCK
  8
CSLAYER1
  2
*D0003
 70
    65
 10
0.0
 20
0.0
 30
0.0
  0
TEXT
  8
CSLAYER1
 62
     3
 10
1498.260742
 20
608.819275
 40
60.000000
 41
0.843750
  1
440
 50
0.000000
 51
0.000000
  7
EASYDRAW_FONT
 72
     5
 11
1633.260742
 21
608.819275
  0
LINE
  8
CSLAYER1
  6
CONTINUOUS
 62
     5
 10
1345.472870
 20
597.776777
 11
1785.472870
 21
597.776777
  0
LINE
  8
CSLAYER1
  6
CONTINUOUS
 62
     5
 10
1345.472870
 20
597.776777
 11
1388.939532
 21
609.423634
  0
LINE
  8
CSLAYER1
  6
CONTINUOUS
 62
     5
 10
1345.472870
 20
597.776777
 11
1388.939532
 21
586.129920
  0
LINE
  8
CSLAYER1
  6
CONTINUOUS
 62
     5
 10
1785.472870
 20
597.776777
 11
1742.006207
 21
609.423634
  0
LINE
  8
CSLAYER1
  6
CONTINUOUS
 62
     5
 10
1785.472870
 20
597.776777
 11
1742.006207
 21
586.129920
  0
ENDBLK
  8
0
  0
BLOCK
  8
CSLAYER1
  2
*D0004
 70
    65
 10
0.0
 20
0.0
 30
0.0
  0
TEXT
  8
CSLAYER1
 62
     3
 10
1494.656738
 20
457.446228
 40
60.000000
 41
0.843750
  1
500
 50
0.000000
 51
0.000000
  7
EASYDRAW_FONT
 72
     5
 11
1629.656738
 21
457.446228
  0
LINE
  8
CSLAYER1
  6
CONTINUOUS
 62
     5
 10
1315.472870
 20
729.104575
 11
1315.472870
 21
436.006902
  0
LINE
  8
CSLAYER1
  6
CONTINUOUS
 62
     5
 10
1815.472870
 20
729.104575
 11
1815.472870
 21
436.006902
  0
LINE
  8
CSLAYER1
  6
CONTINUOUS
 62
     5
 10
1315.472870
 20
451.006902
 11
1815.472870
 21
451.006902
  0
LINE
  8
CSLAYER1
  6
CONTINUOUS
 62
     5
 10
1315.472870
 20
451.006902
 11
1358.939532
 21
462.653759
  0
LINE
  8
CSLAYER1
  6
CONTINUOUS
 62
     5
 10
1315.472870
 20
451.006902
 11
1358.939532
 21
439.360045
  0
LINE
  8
CSLAYER1
  6
CONTINUOUS
 62
     5
 10
1815.472870
 20
451.006902
 11
1772.006207
 21
462.653759
  0
LINE
  8
CSLAYER1
  6
CONTINUOUS
 62
     5
 10
1815.472870
 20
451.006902
 11
1772.006207
 21
439.360045
  0
ENDBLK
  8
0
  0
BLOCK
  8
CSLAYER1
  2
*D0005
 70
    65
 10
0.0
 20
0.0
 30
0.0
  0
TEXT
  8
CSLAYER1
 62
     3
 10
2575.569336
 20
516.689392
 40
60.000000
 41
0.900000
  1
50
 50
0.000000
 51
0.000000
  7
EASYDRAW_FONT
 72
     5
 11
2665.569336
 21
516.689392
  0
LINE
  8
CSLAYER1
  6
CONTINUOUS
 62
     5
 10
2562.749203
 20
729.104575
 11
2562.749203
 21
436.006902
  0
LINE
  8
CSLAYER1
  6
CONTINUOUS
 62
     5
 10
2562.749203
 20
597.776777
 11
2612.749203
 21
597.776777
  0
LINE
  8
CSLAYER1
  6
CONTINUOUS
 62
     5
 10
2562.749203
 20
597.776777
 11
2606.215866
 21
609.423634
  0
LINE
  8
CSLAYER1
  6
CONTINUOUS
 62
     5
 10
2562.749203
 20
597.776777
 11
2606.215866
 21
586.129920
  0
LINE
  8
CSLAYER1
  6
CONTINUOUS
 62
     5
 10
2612.749203
 20
597.776777
 11
2569.282541
 21
609.423634
  0
LINE
  8
CSLAYER1
  6
CONTINUOUS
 62
     5
 10
2612.749203
 20
597.776777
 11
2569.282541
 21
586.129920
  0
ENDBLK
  8
0
  0
BLOCK
  8
CSLAYER1
  2
*D0006
 70
    65
 10
0.0
 20
0.0
 30
0.0
  0
TEXT
  8
CSLAYER1
 62
     3
 10
2740.681641
 20
608.778259
 40
60.000000
 41
0.843750
  1
400
 50
0.000000
 51
0.000000
  7
EASYDRAW_FONT
 72
     5
 11
2875.681641
 21
608.778259
  0
LINE
  8
CSLAYER1
  6
CONTINUOUS
 62
     5
 10
2612.749203
 20
597.776777
 11
3012.749203
 21
597.776777
  0
LINE
  8
CSLAYER1
  6
CONTINUOUS
 62
     5
 10
2612.749203
 20
597.776777
 11
2656.215866
 21
609.423634
  0
LINE
  8
CSLAYER1
  6
CONTINUOUS
 62
     5
 10
2612.749203
 20
597.776777
 11
2656.215866
 21
586.129920
  0
LINE
  8
CSLAYER1
  6
CONTINUOUS
 62
     5
 10
3012.749203
 20
597.776777
 11
2969.282541
 21
609.423634
  0
LINE
  8
CSLAYER1
  6
CONTINUOUS
 62
     5
 10
3012.749203
 20
597.776777
 11
2969.282541
 21
586.129920
  0
ENDBLK
  8
0
  0
BLOCK
  8
CSLAYER1
  2
*D0007
 70
    65
 10
0.0
 20
0.0
 30
0.0
  0
TEXT
  8
CSLAYER1
 62
     3
 10
2894.749023
 20
466.006775
 40
60.000000
 41
0.843750
  1
800
 50
0.000000
 51
0.000000
  7
EASYDRAW_FONT
 72
     5
 11
3029.749023
 21
466.006775
  0
LINE
  8
CSLAYER1
  6
CONTINUOUS
 62
     5
 10
3361.749203
 20
729.104575
 11
3361.749203
 21
436.006902
  0
LINE
  8
CSLAYER1
  6
CONTINUOUS
 62
     5
 10
2562.749203
 20
451.006902
 11
3361.749203
 21
451.006902
  0
LINE
  8
CSLAYER1
  6
CONTINUOUS
 62
     5
 10
2562.749203
 20
451.006902
 11
2606.215866
 21
462.653759
  0
LINE
  8
CSLAYER1
  6
CONTINUOUS
 62
     5
 10
2562.749203
 20
451.006902
 11
2606.215866
 21
439.360045
  0
LINE
  8
CSLAYER1
  6
CONTINUOUS
 62
     5
 10
3361.749203
 20
451.006902
 11
3318.282541
 21
462.653759
  0
LINE
  8
CSLAYER1
  6
CONTINUOUS
 62
     5
 10
3361.749203
 20
451.006902
 11
3318.282541
 21
439.360045
  0
ENDBLK
  8
0
  0
BLOCK
  8
CSLAYER1
  2
EASYDRAWDIM0002
 70
   64
 10
0.0
 20
0.0
 30
0.0
  0
TEXT
  8
CSLAYER1
 62
     3
 10
1998.279053
 20
312.507751
 40
60.000000
 41
0.803571
  1
4-%%c13
 50
0.000000
 51
0.000000
  7
EASYDRAW_FONT
 72
     5
 11
2223.279053
 21
312.507751
  0
LINE
  8
CSLAYER1
  6
CONTINUOUS
 62
     5
 10
2347.147385
 20
302.859356
 11
1977.972250
 21
302.859356
  0
ENDBLK
  8
0
  0
BLOCK
  8
CSLAYER1
  2
EASYDRAWDIM0003
 70
   64
 10
0.0
 20
0.0
 30
0.0
  0
TEXT
  8
CSLAYER1
 62
     3
 10
1993.915970
 20
241.262634
 40
50.470764
 41
0.839416
  1
アンカーボルト取付穴
 50
0.000000
 51
0.000000
  7
EASYDRAW_FONT
 72
     5
 11
2403.453857
 21
241.262634
  0
ENDBLK
  8
0
  0
BLOCK
  8
CSLAYER1
  2
*D0008
 70
    65
 10
0.0
 20
0.0
 30
0.0
  0
TEXT
  8
CSLAYER1
 62
     3
 10
3572.208740
 20
2730.659668
 40
60.000000
 41
0.843750
  1
650
 50
90.000000
 51
0.000000
  7
EASYDRAW_FONT
 72
     5
 11
3572.208740
 21
2865.659668
  0
LINE
  8
CSLAYER1
  6
CONTINUOUS
 62
     5
 10
3458.749203
 20
2473.159370
 11
3602.208952
 21
2473.159370
  0
LINE
  8
CSLAYER1
  6
CONTINUOUS
 62
     5
 10
3458.749203
 20
3123.159370
 11
3602.208952
 21
3123.159370
  0
LINE
  8
CSLAYER1
  6
CONTINUOUS
 62
     5
 10
3587.208952
 20
2473.159370
 11
3587.208952
 21
3123.159370
  0
LINE
  8
CSLAYER1
  6
CONTINUOUS
 62
     5
 10
3587.208952
 20
2473.159370
 11
3575.562095
 21
2516.626032
  0
LINE
  8
CSLAYER1
  6
CONTINUOUS
 62
     5
 10
3587.208952
 20
2473.159370
 11
3598.855809
 21
2516.626032
  0
LINE
  8
CSLAYER1
  6
CONTINUOUS
 62
     5
 10
3587.208952
 20
3123.159370
 11
3575.562095
 21
3079.692707
  0
LINE
  8
CSLAYER1
  6
CONTINUOUS
 62
     5
 10
3587.208952
 20
3123.159370
 11
3598.855809
 21
3079.692707
  0
ENDBLK
  8
0
  0
BLOCK
  8
CSLAYER1
  2
*D0009
 70
    65
 10
0.0
 20
0.0
 30
0.0
  0
TEXT
  8
CSLAYER1
 62
     3
 10
2901.249023
 20
2352.061523
 40
60.000000
 41
0.843750
  1
950
 50
0.000000
 51
0.000000
  7
EASYDRAW_FONT
 72
     5
 11
3036.249023
 21
2352.061523
  0
LINE
  8
CSLAYER1
  6
CONTINUOUS
 62
     5
 10
2493.749203
 20
2458.159370
 11
2493.749203
 21
2322.061111
  0
LINE
  8
CSLAYER1
  6
CONTINUOUS
 62
     5
 10
3443.749203
 20
2458.159370
 11
3443.749203
 21
2322.061111
  0
LINE
  8
CSLAYER1
  6
CONTINUOUS
 62
     5
 10
2493.749203
 20
2337.061111
 11
3443.749203
 21
2337.061111
  0
LINE
  8
CSLAYER1
  6
CONTINUOUS
 62
     5
 10
2493.749203
 20
2337.061111
 11
2537.215866
 21
2348.707968
  0
LINE
  8
CSLAYER1
  6
CONTINUOUS
 62
     5
 10
2493.749203
 20
2337.061111
 11
2537.215866
 21
2325.414254
  0
LINE
  8
CSLAYER1
  6
CONTINUOUS
 62
     5
 10
3443.749203
 20
2337.061111
 11
3400.282541
 21
2348.707968
  0
LINE
  8
CSLAYER1
  6
CONTINUOUS
 62
     5
 10
3443.749203
 20
2337.061111
 11
3400.282541
 21
2325.414254
  0
ENDBLK
  8
0
  0
BLOCK
  8
CSLAYER1
  2
*D0010
 70
    65
 10
0.0
 20
0.0
 30
0.0
  0
TEXT
  8
CSLAYER1
 62
     3
 10
2507.291992
 20
367.238708
 40
60.000000
 41
0.900000
  1
69
 50
0.000000
 51
0.000000
  7
EASYDRAW_FONT
 72
     5
 11
2597.291992
 21
367.238708
  0
LINE
  8
CSLAYER1
  6
CONTINUOUS
 62
     5
 10
2493.749203
 20
934.104575
 11
2493.749203
 21
290.785909
  0
LINE
  8
CSLAYER1
  6
CONTINUOUS
 62
     5
 10
2493.749203
 20
451.006902
 11
2562.749203
 21
451.006902
  0
LINE
  8
CSLAYER1
  6
CONTINUOUS
 62
     5
 10
2493.749203
 20
451.006902
 11
2537.215866
 21
462.653759
  0
LINE
  8
CSLAYER1
  6
CONTINUOUS
 62
     5
 10
2493.749203
 20
451.006902
 11
2537.215866
 21
439.360045
  0
LINE
  8
CSLAYER1
  6
CONTINUOUS
 62
     5
 10
2562.749203
 20
451.006902
 11
2519.282541
 21
462.653759
  0
LINE
  8
CSLAYER1
  6
CONTINUOUS
 62
     5
 10
2562.749203
 20
451.006902
 11
2519.282541
 21
439.360045
  0
ENDBLK
  8
0
  0
BLOCK
  8
CSLAYER1
  2
*D0011
 70
    65
 10
0.0
 20
0.0
 30
0.0
  0
TEXT
  8
CSLAYER1
 62
     3
 10
3339.269531
 20
360.147888
 40
60.000000
 41
0.900000
  1
81
 50
0.000000
 51
0.000000
  7
EASYDRAW_FONT
 72
     5
 11
3429.269531
 21
360.147888
  0
LINE
  8
CSLAYER1
  6
CONTINUOUS
 62
     5
 10
3443.749203
 20
934.104575
 11
3443.749203
 21
290.785909
  0
LINE
  8
CSLAYER1
  6
CONTINUOUS
 62
     5
 10
3361.749203
 20
451.006902
 11
3443.749203
 21
451.006902
  0
LINE
  8
CSLAYER1
  6
CONTINUOUS
 62
     5
 10
3361.749203
 20
451.006902
 11
3405.215866
 21
462.653759
  0
LINE
  8
CSLAYER1
  6
CONTINUOUS
 62
     5
 10
3361.749203
 20
451.006902
 11
3405.215866
 21
439.360045
  0
LINE
  8
CSLAYER1
  6
CONTINUOUS
 62
     5
 10
3443.749203
 20
451.006902
 11
3400.282541
 21
462.653759
  0
LINE
  8
CSLAYER1
  6
CONTINUOUS
 62
     5
 10
3443.749203
 20
451.006902
 11
3400.282541
 21
439.360045
  0
ENDBLK
  8
0
  0
BLOCK
  8
CSLAYER1
  2
*D0012
 70
    65
 10
0.0
 20
0.0
 30
0.0
  0
TEXT
  8
CSLAYER1
 62
     3
 10
2901.249023
 20
320.786072
 40
60.000000
 41
0.843750
  1
950
 50
0.000000
 51
0.000000
  7
EASYDRAW_FONT
 72
     5
 11
3036.249023
 21
320.786072
  0
LINE
  8
CSLAYER1
  6
CONTINUOUS
 62
     5
 10
2493.749203
 20
305.785909
 11
3443.749203
 21
305.785909
  0
LINE
  8
CSLAYER1
  6
CONTINUOUS
 62
     5
 10
2493.749203
 20
305.785909
 11
2537.215866
 21
317.432766
  0
LINE
  8
CSLAYER1
  6
CONTINUOUS
 62
     5
 10
2493.749203
 20
305.785909
 11
2537.215866
 21
294.139052
  0
LINE
  8
CSLAYER1
  6
CONTINUOUS
 62
     5
 10
3443.749203
 20
305.785909
 11
3400.282541
 21
317.432766
  0
LINE
  8
CSLAYER1
  6
CONTINUOUS
 62
     5
 10
3443.749203
 20
305.785909
 11
3400.282541
 21
294.139052
  0
ENDBLK
  8
0
  0
BLOCK
  8
CSLAYER1
  2
*D0013
 70
    65
 10
0.0
 20
0.0
 30
0.0
  0
TEXT
  8
CSLAYER1
 62
     3
 10
1497.972900
 20
320.786072
 40
60.000000
 41
0.843750
  1
630
 50
0.000000
 51
0.000000
  7
EASYDRAW_FONT
 72
     5
 11
1632.972900
 21
320.786072
  0
LINE
  8
CSLAYER1
  6
CONTINUOUS
 62
     5
 10
1250.472870
 20
773.104575
 11
1250.472870
 21
290.785909
  0
LINE
  8
CSLAYER1
  6
CONTINUOUS
 62
     5
 10
1880.472870
 20
773.104575
 11
1880.472870
 21
290.785909
  0
LINE
  8
CSLAYER1
  6
CONTINUOUS
 62
     5
 10
1250.472870
 20
305.785909
 11
1880.472870
 21
305.785909
  0
LINE
  8
CSLAYER1
  6
CONTINUOUS
 62
     5
 10
1250.472870
 20
305.785909
 11
1293.939532
 21
317.432766
  0
LINE
  8
CSLAYER1
  6
CONTINUOUS
 62
     5
 10
1250.472870
 20
305.785909
 11
1293.939532
 21
294.139052
  0
LINE
  8
CSLAYER1
  6
CONTINUOUS
 62
     5
 10
1880.472870
 20
305.785909
 11
1837.006207
 21
317.432766
  0
LINE
  8
CSLAYER1
  6
CONTINUOUS
 62
     5
 10
1880.472870
 20
305.785909
 11
1837.006207
 21
294.139052
  0
ENDBLK
  8
0
  0
BLOCK
  8
CSLAYER1
  2
*D0014
 70
    65
 10
0.0
 20
0.0
 30
0.0
  0
TEXT
  8
CSLAYER1
 62
     3
 10
1048.677368
 20
801.604370
 40
60.000000
 41
0.843750
  1
250
 50
90.000000
 51
0.000000
  7
EASYDRAW_FONT
 72
     5
 11
1048.677368
 21
936.604370
  0
LINE
  8
CSLAYER1
  6
CONTINUOUS
 62
     5
 10
879.542283
 20
744.104575
 11
1078.677333
 21
744.104575
  0
LINE
  8
CSLAYER1
  6
CONTINUOUS
 62
     5
 10
954.542283
 20
994.104575
 11
1078.677333
 21
994.104575
  0
LINE
  8
CSLAYER1
  6
CONTINUOUS
 62
     5
 10
1063.677333
 20
744.104575
 11
1063.677333
 21
994.104575
  0
LINE
  8
CSLAYER1
  6
CONTINUOUS
 62
     5
 10
1063.677333
 20
744.104575
 11
1052.030476
 21
787.571237
  0
LINE
  8
CSLAYER1
  6
CONTINUOUS
 62
     5
 10
1063.677333
 20
744.104575
 11
1075.324190
 21
787.571237
  0
LINE
  8
CSLAYER1
  6
CONTINUOUS
 62
     5
 10
1063.677333
 20
994.104575
 11
1052.030476
 21
950.637913
  0
LINE
  8
CSLAYER1
  6
CONTINUOUS
 62
     5
 10
1063.677333
 20
994.104575
 11
1075.324190
 21
950.637913
  0
ENDBLK
  8
0
  0
BLOCK
  8
CSLAYER1
  2
*D0015
 70
    65
 10
0.0
 20
0.0
 30
0.0
  0
TEXT
  8
CSLAYER1
 62
     3
 10
2019.070923
 20
782.559448
 40
60.000000
 41
0.843750
  1
4.5
 50
90.000000
 51
0.000000
  7
EASYDRAW_FONT
 72
     5
 11
2019.070923
 21
917.559448
  0
LINE
  8
CSLAYER1
  6
CONTINUOUS
 62
     5
 10
1830.472870
 20
744.104575
 11
2050.766074
 21
744.104575
  0
LINE
  8
CSLAYER1
  6
CONTINUOUS
 62
     5
 10
1825.792480
 20
749.604575
 11
2050.766074
 21
749.604575
  0
LINE
  8
CSLAYER1
  6
CONTINUOUS
 62
     5
 10
2035.766074
 20
744.104575
 11
2035.766074
 21
669.104575
  0
LINE
  8
CSLAYER1
  6
CONTINUOUS
 62
     5
 10
2035.766074
 20
744.104575
 11
2024.119217
 21
700.637913
  0
LINE
  8
CSLAYER1
  6
CONTINUOUS
 62
     5
 10
2035.766074
 20
744.104575
 11
2047.412931
 21
700.637913
  0
LINE
  8
CSLAYER1
  6
CONTINUOUS
 62
     5
 10
2035.766074
 20
749.604575
 11
2035.766074
 21
840.623097
  0
LINE
  8
CSLAYER1
  6
CONTINUOUS
 62
     5
 10
2035.766074
 20
749.604575
 11
2024.119217
 21
793.071237
  0
LINE
  8
CSLAYER1
  6
CONTINUOUS
 62
     5
 10
2035.766074
 20
749.604575
 11
2047.412931
 21
793.071237
  0
LINE
  8
CSLAYER1
  6
CONTINUOUS
 62
     5
 10
2035.766074
 20
744.104575
 11
2035.766074
 21
749.604575
  0
ENDBLK
  8
0
  0
BLOCK
  8
CSLAYER1
  2
EASYDRAWDIM0004
 70
   64
 10
0.0
 20
0.0
 30
0.0
  0
TEXT
  8
CSLAYER1
 62
     3
 10
2036.542114
 20
1760.373535
 40
60.000000
 41
0.794118
  1
四面ジャバラ
 50
0.000000
 51
0.000000
  7
EASYDRAW_FONT
 72
     5
 11
2306.542114
 21
1760.373535
  0
LINE
  8
CSLAYER1
  6
CONTINUOUS
 62
     5
 10
1966.008840
 20
1750.282832
 11
2392.860496
 21
1750.282832
  0
ENDBLK
  8
0
  0
BLOCK
  8
CSLAYER1
  2
BLKF0000
 70
   64
 10
0.0
 20
0.0
 30
0.0
  0
ARC
  8
CSLAYER1
  6
CONTINUOUS
 62
     5
 10
4169.771750
 20
120.742239
 40
5.323837
 50
6.429109
 51
73.182034
  0
ARC
  8
CSLAYER1
  6
CONTINUOUS
 62
     5
 10
4164.580294
 20
119.004650
 40
10.361631
 50
310.517970
 51
330.092764
  0
ARC
  8
CSLAYER1
  6
CONTINUOUS
 62
     5
 10
4164.489320
 20
119.552927
 40
10.722482
 50
-32.205059
 51
9.585194
  0
ARC
  8
CSLAYER1
  6
CONTINUOUS
 62
     5
 10
4169.428412
 20
115.411429
 40
7.151272
 50
180.000000
 51
218.514150
  0
ARC
  8
CSLAYER1
  6
CONTINUOUS
 62
     5
 10
4167.498330
 20
114.395718
 40
5.022423
 50
222.781148
 51
319.406906
  0
ARC
  8
CSLAYER1
  6
CONTINUOUS
 62
     5
 10
4172.096793
 20
116.030557
 40
9.839152
 50
94.574282
 51
183.607718
  0
LINE
  8
CSLAYER1
  6
CONTINUOUS
 62
     5
 10
4192.262653
 20
108.355309
 11
4190.977098
 21
103.797435
  0
LINE
  8
CSLAYER1
  6
CONTINUOUS
 62
     5
 10
4194.950630
 20
138.156795
 11
4191.795178
 21
142.247195
  0
LINE
  8
CSLAYER1
  6
CONTINUOUS
 62
     5
 10
4191.795178
 20
142.247195
 11
4181.665147
 21
147.884063
  0
LINE
  8
CSLAYER1
  6
CONTINUOUS
 62
     5
 10
4181.665147
 20
147.884063
 11
4171.312106
 21
149.088369
  0
LINE
  8
CSLAYER1
  6
CONTINUOUS
 62
     5
 10
4143.878268
 20
129.020359
 11
4147.098310
 21
136.466705
  0
LINE
  8
CSLAYER1
  6
CONTINUOUS
 62
     5
 10
4147.042813
 20
136.338369
 11
4150.318351
 21
140.290504
  0
LINE
  8
CSLAYER1
  6
CONTINUOUS
 62
     5
 10
4150.318351
 20
140.290504
 11
4155.274984
 21
143.838369
  0
LINE
  8
CSLAYER1
  6
CONTINUOUS
 62
     5
 10
4171.312106
 20
149.088369
 11
4169.034843
 21
147.938103
  0
LINE
  8
CSLAYER1
  6
CONTINUOUS
 62
     5
 10
4169.034843
 20
147.938103
 11
4163.802275
 21
147.938103
  0
LINE
  8
CSLAYER1
  6
CONTINUOUS
 62
     5
 10
4163.802275
 20
147.938103
 11
4158.469081
 21
145.019940
  0
LINE
  8
CSLAYER1
  6
CONTINUOUS
 62
     5
 10
4158.469081
 20
145.019940
 11
4155.274984
 21
143.838369
  0
LINE
  8
CSLAYER1
  6
CONTINUOUS
 62
     5
 10
4143.878268
 20
129.020359
 11
4141.601947
 21
117.697454
  0
LINE
  8
CSLAYER1
  6
CONTINUOUS
 62
     5
 10
4141.601947
 20
117.697454
 11
4141.312106
 21
113.838369
  0
LINE
  8
CSLAYER1
  6
CONTINUOUS
 62
     5
 10
4145.376180
 20
102.078696
 11
4141.312106
 21
111.222862
  0
LINE
  8
CSLAYER1
  6
CONTINUOUS
 62
     5
 10
4141.312106
 20
111.222862
 11
4141.312106
 21
113.838369
  0
LINE
  8
CSLAYER1
  6
CONTINUOUS
 62
     5
 10
4190.977098
 20
103.797435
 11
4188.448418
 21
99.292925
  0
LINE
  8
CSLAYER1
  6
CONTINUOUS
 62
     5
 10
4188.448418
 20
99.292925
 11
4186.312106
 21
97.314859
  0
ARC
  8
CSLAYER1
  6
CONTINUOUS
 62
     5
 10
4168.024189
 20
114.643510
 40
25.899940
 50
208.054813
 51
260.640470
  0
ARC
  8
CSLAYER1
  6
CONTINUOUS
 62
     5
 10
4160.234096
 20
133.757214
 40
44.811916
 50
274.579659
 51
305.587364
  0
ARC
  8
CSLAYER1
  6
CONTINUOUS
 62
     5
 10
4176.692620
 20
124.781631
 40
22.632940
 50
313.467013
 51
331.085078
  0
LINE
  8
CSLAYER1
  6
CONTINUOUS
 62
     5
 10
4198.879618
 20
119.108501
 11
4199.325560
 21
124.781631
  0
LINE
  8
CSLAYER1
  6
CONTINUOUS
 62
     5
 10
4199.325560
 20
124.781631
 11
4197.387563
 21
133.945105
  0
LINE
  8
CSLAYER1
  6
CONTINUOUS
 62
     5
 10
4198.879618
 20
119.108501
 11
4196.504106
 21
113.838369
  0
ARC
  8
CSLAYER1
  6
CONTINUOUS
 62
     5
 10
4176.692620
 20
124.781631
 40
22.632940
 50
23.883193
 51
36.225170
  0
LINE
  8
CSLAYER1
  6
CONTINUOUS
 62
     5
 10
4117.312106
 20
166.338369
 11
4118.812106
 21
167.977336
  0
LINE
  8
CSLAYER1
  6
CONTINUOUS
 62
     5
 10
4117.312106
 20
166.338369
 11
4119.677543
 21
164.170820
  0
LINE
  8
CSLAYER1
  6
CONTINUOUS
 62
     5
 10
4121.986362
 20
161.006882
 11
4122.025764
 21
157.754704
  0
LINE
  8
CSLAYER1
  6
CONTINUOUS
 62
     5
 10
4122.025764
 20
157.754704
 11
4122.336861
 21
156.614015
  0
LINE
  8
CSLAYER1
  6
CONTINUOUS
 62
     5
 10
4122.336861
 20
156.614015
 11
4123.218303
 21
155.525175
  0
LINE
  8
CSLAYER1
  6
CONTINUOUS
 62
     5
 10
4123.218303
 20
155.525175
 11
4124.099744
 21
155.628874
  0
LINE
  8
CSLAYER1
  6
CONTINUOUS
 62
     5
 10
4124.099744
 20
155.628874
 11
4125.033035
 21
155.888122
  0
LINE
  8
CSLAYER1
  6
CONTINUOUS
 62
     5
 10
4125.033035
 20
155.888122
 11
4125.655229
 21
155.628874
  0
LINE
  8
CSLAYER1
  6
CONTINUOUS
 62
     5
 10
4125.655229
 20
155.628874
 11
4127.003316
 21
154.954831
  0
LINE
  8
CSLAYER1
  6
CONTINUOUS
 62
     5
 10
4127.003316
 20
154.954831
 11
4128.167393
 21
154.338369
  0
LINE
  8
CSLAYER1
  6
CONTINUOUS
 62
     5
 10
4128.167393
 20
154.338369
 11
4128.921747
 21
154.384486
  0
LINE
  8
CSLAYER1
  6
CONTINUOUS
 62
     5
 10
4128.921747
 20
154.384486
 11
4133.133555
 21
156.554206
  0
LINE
  8
CSLAYER1
  6
CONTINUOUS
 62
     5
 10
4118.812106
 20
167.977336
 11
4119.311384
 21
170.187897
  0
LINE
  8
CSLAYER1
  6
CONTINUOUS
 62
     5
 10
4119.311384
 20
170.187897
 11
4121.491492
 21
170.413425
  0
LINE
  8
CSLAYER1
  6
CONTINUOUS
 62
     5
 10
4123.732129
 20
174.566113
 11
4126.363389
 21
174.801748
  0
LINE
  8
CSLAYER1
  6
CONTINUOUS
 62
     5
 10
4126.363389
 20
174.801748
 11
4131.665180
 21
176.058469
  0
LINE
  8
CSLAYER1
  6
CONTINUOUS
 62
     5
 10
4131.665180
 20
176.058469
 11
4133.812106
 21
176.555928
  0
LINE
  8
CSLAYER1
  6
CONTINUOUS
 62
     5
 10
4123.732129
 20
174.566113
 11
4120.832793
 21
174.804415
  0
LINE
  8
CSLAYER1
  6
CONTINUOUS
 62
     5
 10
4119.728608
 20
173.501384
 11
4119.868896
 21
172.944642
  0
LINE
  8
CSLAYER1
  6
CONTINUOUS
 62
     5
 10
4119.868896
 20
172.944642
 11
4120.606287
 21
172.138120
  0
LINE
  8
CSLAYER1
  6
CONTINUOUS
 62
     5
 10
4120.606287
 20
172.138120
 11
4121.620200
 21
171.377686
  0
LINE
  8
CSLAYER1
  6
CONTINUOUS
 62
     5
 10
4121.620200
 20
171.377686
 11
4121.805187
 21
171.131036
  0
LINE
  8
CSLAYER1
  6
CONTINUOUS
 62
     5
 10
4119.677543
 20
164.170820
 11
4121.986362
 21
161.006882
  0
ARC
  8
CSLAYER1
  6
CONTINUOUS
 62
     5
 10
4186.292157
 20
-91.149610
 40
271.091195
 50
80.438896
 51
96.353582
  0
ARC
  8
CSLAYER1
  6
CONTINUOUS
 62
     5
 10
4148.943787
 20
126.722240
 40
52.080363
 50
81.866516
 51
106.890578
  0
LINE
  8
CSLAYER1
  6
CONTINUOUS
 62
     5
 10
4237.603498
 20
174.988375
 11
4240.974122
 21
173.456273
  0
LINE
  8
CSLAYER1
  6
CONTINUOUS
 62
     5
 10
4246.336478
 20
171.081515
 11
4240.974122
 21
173.456273
  0
LINE
  8
CSLAYER1
  6
CONTINUOUS
 62
     5
 10
4237.603498
 20
174.988375
 11
4231.312106
 21
176.177232
  0
LINE
  8
CSLAYER1
  6
CONTINUOUS
 62
     5
 10
4246.312106
 20
171.092308
 11
4249.119469
 21
168.739593
  0
LINE
  8
CSLAYER1
  6
CONTINUOUS
 62
     5
 10
4221.176990
 20
172.647585
 11
4222.525902
 21
174.826597
  0
LINE
  8
CSLAYER1
  6
CONTINUOUS
 62
     5
 10
4222.525902
 20
174.826597
 11
4229.539300
 21
173.147333
  0
LINE
  8
CSLAYER1
  6
CONTINUOUS
 62
     5
 10
4229.539300
 20
173.147333
 11
4254.652879
 21
166.338369
  0
LINE
  8
CSLAYER1
  6
CONTINUOUS
 62
     5
 10
4259.062106
 20
166.338369
 11
4249.119469
 21
168.739593
  0
LINE
  8
CSLAYER1
  6
CONTINUOUS
 62
     5
 10
4254.652879
 20
166.338369
 11
4259.062106
 21
166.338369
  0
LINE
  8
CSLAYER1
  6
CONTINUOUS
 62
     5
 10
4171.312106
 20
173.035781
 11
4201.312106
 21
173.838369
  0
LINE
  8
CSLAYER1
  6
CONTINUOUS
 62
     5
 10
4201.312106
 20
173.838369
 11
4221.176990
 21
172.647585
  0
LINE
  8
CSLAYER1
  6
CONTINUOUS
 62
     5
 10
4223.581462
 20
169.556865
 11
4201.312106
 21
171.588369
  0
LINE
  8
CSLAYER1
  6
CONTINUOUS
 62
     5
 10
4201.312106
 20
171.588369
 11
4178.738292
 21
172.201347
  0
LINE
  8
CSLAYER1
  6
CONTINUOUS
 62
     5
 10
4178.812106
 20
172.199343
 11
4171.312106
 21
172.342284
  0
LINE
  8
CSLAYER1
  6
CONTINUOUS
 62
     5
 10
4171.312106
 20
173.035781
 11
4171.312106
 21
172.342284
  0
LINE
  8
CSLAYER1
  6
CONTINUOUS
 62
     5
 10
4257.562106
 20
161.088369
 11
4244.298268
 21
164.554363
  0
LINE
  8
CSLAYER1
  6
CONTINUOUS
 62
     5
 10
4223.581462
 20
169.556865
 11
4238.812106
 21
166.598290
  0
LINE
  8
CSLAYER1
  6
CONTINUOUS
 62
     5
 10
4238.812106
 20
166.598290
 11
4244.298268
 21
164.554363
  0
LINE
  8
CSLAYER1
  6
CONTINUOUS
 62
     5
 10
4257.562106
 20
161.088369
 11
4257.123180
 21
159.829711
  0
LINE
  8
CSLAYER1
  6
CONTINUOUS
 62
     5
 10
4271.812106
 20
152.838369
 11
4271.353065
 21
154.681841
  0
LINE
  8
CSLAYER1
  6
CONTINUOUS
 62
     5
 10
4257.123180
 20
159.829711
 11
4271.353065
 21
154.681841
  0
LINE
  8
CSLAYER1
  6
CONTINUOUS
 62
     5
 10
4176.562106
 20
161.088369
 11
4180.196663
 21
161.088369
  0
LINE
  8
CSLAYER1
  6
CONTINUOUS
 62
     5
 10
4210.312106
 20
161.737113
 11
4210.312106
 21
161.088369
  0
LINE
  8
CSLAYER1
  6
CONTINUOUS
 62
     5
 10
4208.812106
 20
162.538774
 11
4206.245187
 21
163.494542
  0
LINE
  8
CSLAYER1
  6
CONTINUOUS
 62
     5
 10
4206.245187
 20
163.494542
 11
4204.580103
 21
163.570227
  0
LINE
  8
CSLAYER1
  6
CONTINUOUS
 62
     5
 10
4204.580103
 20
163.570227
 11
4203.861090
 21
163.191799
  0
LINE
  8
CSLAYER1
  6
CONTINUOUS
 62
     5
 10
4203.861090
 20
163.191799
 11
4203.709718
 21
162.586314
  0
LINE
  8
CSLAYER1
  6
CONTINUOUS
 62
     5
 10
4203.709718
 20
162.586314
 11
4204.390889
 21
162.132200
  0
LINE
  8
CSLAYER1
  6
CONTINUOUS
 62
     5
 10
4204.390889
 20
162.132200
 11
4206.850672
 21
161.905143
  0
LINE
  8
CSLAYER1
  6
CONTINUOUS
 62
     5
 10
4206.850672
 20
161.905143
 11
4210.312106
 21
161.737113
  0
LINE
  8
CSLAYER1
  6
CONTINUOUS
 62
     5
 10
4271.812106
 20
152.838369
 11
4267.348792
 21
154.618242
  0
LINE
  8
CSLAYER1
  6
CONTINUOUS
 62
     5
 10
4267.348792
 20
154.618242
 11
4252.265258
 21
157.382555
  0
LINE
  8
CSLAYER1
  6
CONTINUOUS
 62
     5
 10
4252.265258
 20
157.382555
 11
4244.726588
 21
159.122248
  0
LINE
  8
CSLAYER1
  6
CONTINUOUS
 62
     5
 10
4211.113437
 20
162.588369
 11
4228.761936
 21
162.588369
  0
LINE
  8
CSLAYER1
  6
CONTINUOUS
 62
     5
 10
4208.812106
 20
162.538774
 11
4209.599096
 21
162.076073
  0
LINE
  8
CSLAYER1
  6
CONTINUOUS
 62
     5
 10
4209.599096
 20
162.076073
 11
4210.044314
 21
161.942508
  0
LINE
  8
CSLAYER1
  6
CONTINUOUS
 62
     5
 10
4210.044314
 20
161.942508
 11
4210.312106
 21
161.980263
  0
LINE
  8
CSLAYER1
  6
CONTINUOUS
 62
     5
 10
4210.312106
 20
161.980263
 11
4211.113437
 21
162.588369
  0
LINE
  8
CSLAYER1
  6
CONTINUOUS
 62
     5
 10
4228.761936
 20
162.588369
 11
4235.437340
 21
161.045131
  0
LINE
  8
CSLAYER1
  6
CONTINUOUS
 62
     5
 10
4235.437340
 20
161.045131
 11
4241.667127
 21
159.297408
  0
LINE
  8
CSLAYER1
  6
CONTINUOUS
 62
     5
 10
4241.667127
 20
159.297408
 11
4244.726588
 21
159.122248
  0
LINE
  8
CSLAYER1
  6
CONTINUOUS
 62
     5
 10
4175.062106
 20
159.588369
 11
4175.062106
 21
158.838369
  0
LINE
  8
CSLAYER1
  6
CONTINUOUS
 62
     5
 10
4171.312106
 20
158.838369
 11
4175.062106
 21
158.838369
  0
ARC
  8
CSLAYER1
  6
CONTINUOUS
 62
     5
 10
4176.562106
 20
159.588369
 40
1.500000
 50
90.000000
 51
180.000000
  0
LINE
  8
CSLAYER1
  6
CONTINUOUS
 62
     5
 10
4180.196663
 20
161.088369
 11
4181.242998
 21
160.230375
  0
LINE
  8
CSLAYER1
  6
CONTINUOUS
 62
     5
 10
4182.146550
 20
160.194434
 11
4183.432945
 21
161.088369
  0
LINE
  8
CSLAYER1
  6
CONTINUOUS
 62
     5
 10
4185.800540
 20
161.088369
 11
4188.301228
 21
160.101256
  0
LINE
  8
CSLAYER1
  6
CONTINUOUS
 62
     5
 10
4188.936791
 20
160.141024
 11
4190.667022
 21
161.088369
  0
LINE
  8
CSLAYER1
  6
CONTINUOUS
 62
     5
 10
4183.432945
 20
161.088369
 11
4185.800540
 21
161.088369
  0
LINE
  8
CSLAYER1
  6
CONTINUOUS
 62
     5
 10
4190.667022
 20
161.088369
 11
4210.312106
 21
161.088369
  0
LINE
  8
CSLAYER1
  6
CONTINUOUS
 62
     5
 10
4139.135581
 20
156.425130
 11
4171.312106
 21
158.838369
  0
LINE
  8
CSLAYER1
  6
CONTINUOUS
 62
     5
 10
4133.133555
 20
156.554206
 11
4139.135581
 21
156.425130
  0
ARC
  8
CSLAYER1
  6
CONTINUOUS
 62
     5
 10
4181.718558
 20
160.810325
 40
0.750000
 50
230.648247
 51
304.796026
  0
ARC
  8
CSLAYER1
  6
CONTINUOUS
 62
     5
 10
4188.576603
 20
160.798872
 40
0.750000
 50
248.459024
 51
298.701829
  0
ARC
  8
CSLAYER1
  6
CONTINUOUS
 62
     5
 10
4121.445187
 20
170.861036
 40
0.450000
 50
-84.093859
 51
36.869898
  0
ARC
  8
CSLAYER1
  6
CONTINUOUS
 62
     5
 10
4120.746781
 20
173.757944
 40
1.050000
 50
85.301319
 51
194.142980
  0
LINE
  8
CSLAYER1
  6
CONTINUOUS
 62
     3
 10
4169.034843
 20
147.938103
 11
4181.200586
 21
147.938103
  0
LINE
  8
CSLAYER1
  6
CONTINUOUS
 62
     3
 10
4159.416068
 20
145.538103
 11
4185.881079
 21
145.538103
  0
LINE
  8
CSLAYER1
  6
CONTINUOUS
 62
     3
 10
4154.296660
 20
143.138103
 11
4190.194126
 21
143.138103
  0
LINE
  8
CSLAYER1
  6
CONTINUOUS
 62
     3
 10
4150.943680
 20
140.738103
 11
4192.959335
 21
140.738103
  0
LINE
  8
CSLAYER1
  6
CONTINUOUS
 62
     3
 10
4148.700197
 20
138.338103
 11
4194.810764
 21
138.338103
  0
LINE
  8
CSLAYER1
  6
CONTINUOUS
 62
     3
 10
4146.869725
 20
135.938103
 11
4196.384829
 21
135.938103
  0
LINE
  8
CSLAYER1
  6
CONTINUOUS
 62
     3
 10
4145.831887
 20
133.538103
 11
4197.473641
 21
133.538103
  0
LINE
  8
CSLAYER1
  6
CONTINUOUS
 62
     3
 10
4144.794049
 20
131.138103
 11
4197.981220
 21
131.138103
  0
LINE
  8
CSLAYER1
  6
CONTINUOUS
 62
     3
 10
4143.821524
 20
128.738103
 11
4198.488800
 21
128.738103
  0
LINE
  8
CSLAYER1
  6
CONTINUOUS
 62
     3
 10
4143.339036
 20
126.338103
 11
4198.996379
 21
126.338103
  0
LINE
  8
CSLAYER1
  6
CONTINUOUS
 62
     3
 10
4142.856547
 20
123.938103
 11
4166.241912
 21
123.938103
  0
LINE
  8
CSLAYER1
  6
CONTINUOUS
 62
     3
 10
4142.374059
 20
121.538103
 11
4163.943521
 21
121.538103
  0
LINE
  8
CSLAYER1
  6
CONTINUOUS
 62
     3
 10
4141.891571
 20
119.138103
 11
4162.761266
 21
119.138103
  0
LINE
  8
CSLAYER1
  6
CONTINUOUS
 62
     3
 10
4141.529894
 20
116.738103
 11
4162.283115
 21
116.738103
  0
LINE
  8
CSLAYER1
  6
CONTINUOUS
 62
     3
 10
4141.349639
 20
114.338103
 11
4162.358146
 21
114.338103
  0
LINE
  8
CSLAYER1
  6
CONTINUOUS
 62
     3
 10
4141.312106
 20
111.938103
 11
4163.177277
 21
111.938103
  0
LINE
  8
CSLAYER1
  6
CONTINUOUS
 62
     3
 10
4142.060888
 20
109.538103
 11
4166.222280
 21
109.538103
  0
LINE
  8
CSLAYER1
  6
CONTINUOUS
 62
     3
 10
4143.127555
 20
107.138103
 11
4191.919338
 21
107.138103
  0
LINE
  8
CSLAYER1
  6
CONTINUOUS
 62
     3
 10
4144.194221
 20
104.738103
 11
4191.242415
 21
104.738103
  0
LINE
  8
CSLAYER1
  6
CONTINUOUS
 62
     3
 10
4145.260888
 20
102.338103
 11
4190.157878
 21
102.338103
  0
LINE
  8
CSLAYER1
  6
CONTINUOUS
 62
     3
 10
4146.703826
 20
99.938103
 11
4188.810599
 21
99.938103
  0
LINE
  8
CSLAYER1
  6
CONTINUOUS
 62
     3
 10
4148.576518
 20
97.538103
 11
4186.553209
 21
97.538103
  0
LINE
  8
CSLAYER1
  6
CONTINUOUS
 62
     3
 10
4150.984648
 20
95.138103
 11
4182.964518
 21
95.138103
  0
LINE
  8
CSLAYER1
  6
CONTINUOUS
 62
     3
 10
4154.205361
 20
92.738103
 11
4178.276833
 21
92.738103
  0
LINE
  8
CSLAYER1
  6
CONTINUOUS
 62
     3
 10
4159.076897
 20
90.338103
 11
4171.319610
 21
90.338103
  0
LINE
  8
CSLAYER1
  6
CONTINUOUS
 62
     3
 10
4174.029648
 20
123.938103
 11
4199.259253
 21
123.938103
  0
LINE
  8
CSLAYER1
  6
CONTINUOUS
 62
     3
 10
4175.035764
 20
121.538103
 11
4199.070599
 21
121.538103
  0
LINE
  8
CSLAYER1
  6
CONTINUOUS
 62
     3
 10
4175.203774
 20
119.138103
 11
4198.881945
 21
119.138103
  0
LINE
  8
CSLAYER1
  6
CONTINUOUS
 62
     3
 10
4174.835739
 20
116.738103
 11
4197.811161
 21
116.738103
  0
LINE
  8
CSLAYER1
  6
CONTINUOUS
 62
     3
 10
4173.858270
 20
114.338103
 11
4196.729361
 21
114.338103
  0
LINE
  8
CSLAYER1
  6
CONTINUOUS
 62
     3
 10
4172.158375
 20
111.938103
 11
4195.328439
 21
111.938103
  0
LINE
  8
CSLAYER1
  6
CONTINUOUS
 62
     3
 10
4168.774380
 20
109.538103
 11
4193.422378
 21
109.538103
  0
TEXT
  8
CSLAYER1
 62
     5
 10
4200.069867
 20
120.954866
 40
7.070172
 41
1.951056
  1
M
 50
0.000000
 51
0.000000
  7
EASYDRAW_FONT
 72
     5
 11
4209.266070
 21
120.954866
  0
TEXT
  8
CSLAYER1
 62
     5
 10
4214.546948
 20
120.867460
 40
6.939931
 41
0.778201
  1
T
 50
0.000000
 51
0.000000
  7
EASYDRAW_FONT
 72
     5
 11
4218.147388
 21
120.867460
  0
TEXT
  8
CSLAYER1
 62
     5
 10
4218.695292
 20
120.919658
 40
7.044274
 41
1.055553
  1
E
 50
0.000000
 51
0.000000
  7
EASYDRAW_FONT
 72
     5
 11
4223.652364
 21
120.919658
  0
TEXT
  8
CSLAYER1
 62
     5
 10
4223.369808
 20
123.343425
 40
0.522425
 41
9.375319
  1
-
 50
0.000000
 51
0.000000
  7
EASYDRAW_FONT
 72
     5
 11
4226.635075
 21
123.343425
  0
TEXT
  8
CSLAYER1
 62
     5
 10
4226.090633
 20
120.872638
 40
7.292489
 41
1.298502
  1
H
 50
0.000000
 51
0.000000
  7
EASYDRAW_FONT
 72
     5
 11
4232.403507
 21
120.872638
  0
TEXT
  8
CSLAYER1
 62
     5
 10
4232.204778
 20
120.918206
 40
7.264708
 41
1.269236
  1
A
 50
0.000000
 51
0.000000
  7
EASYDRAW_FONT
 72
     5
 11
4238.351862
 21
120.918206
  0
TEXT
  8
CSLAYER1
 62
     5
 10
4237.764134
 20
120.855916
 40
7.238043
 41
1.490144
  1
N
 50
0.000000
 51
0.000000
  7
EASYDRAW_FONT
 72
     5
 11
4244.954616
 21
120.855916
  0
TEXT
  8
CSLAYER1
 62
     5
 10
4208.951077
 20
120.822056
 40
7.473487
 41
1.177443
  1
A
 50
0.000000
 51
0.000000
  7
EASYDRAW_FONT
 72
     5
 11
4214.817478
 21
120.822056
  0
TEXT
  8
CSLAYER1
 62
     5
 10
4200.620022
 20
110.329197
 40
7.473487
 41
1.177443
  1
A
 50
0.000000
 51
0.000000
  7
EASYDRAW_FONT
 72
     5
 11
4206.486423
 21
110.329197
  0
TEXT
  8
CSLAYER1
 62
     5
 10
4219.797268
 20
110.371678
 40
7.473487
 41
1.177443
  1
A
 50
0.000000
 51
0.000000
  7
EASYDRAW_FONT
 72
     5
 11
4225.663670
 21
110.371678
  0
TEXT
  8
CSLAYER1
 62
     5
 10
4225.437962
 20
110.457173
 40
7.238043
 41
1.490144
  1
N
 50
0.000000
 51
0.000000
  7
EASYDRAW_FONT
 72
     5
 11
4232.628444
 21
110.457173
  0
TEXT
  8
CSLAYER1
 62
     5
 10
4238.791344
 20
110.469766
 40
7.262663
 41
1.184218
  1
E
 50
0.000000
 51
0.000000
  7
EASYDRAW_FONT
 72
     5
 11
4244.525062
 21
110.469766
  0
TEXT
  8
CSLAYER1
 62
     5
 10
4207.041096
 20
110.327210
 40
7.421797
 41
1.093992
  1
D
 50
0.000000
 51
0.000000
  7
EASYDRAW_FONT
 72
     5
 11
4212.454021
 21
110.327210
  0
TEXT
  8
CSLAYER1
 62
     5
 10
4213.645000
 20
110.319133
 40
7.386315
 41
1.228195
  1
V
 50
0.000000
 51
0.000000
  7
EASYDRAW_FONT
 72
     5
 11
4219.692891
 21
110.319133
  0
TEXT
  8
CSLAYER1
 62
     5
 10
4231.982558
 20
110.350231
 40
7.549340
 41
1.481023
  1
C
 50
0.000000
 51
0.000000
  7
EASYDRAW_FONT
 72
     5
 11
4239.436388
 21
110.350231
  0
LINE
  8
CSLAYER1
  6
CONTINUOUS
 62
     5
 10
4217.928111
 20
126.940827
 11
4216.410018
 21
126.940827
  0
LINE
  8
CSLAYER1
  6
CONTINUOUS
 62
     3
 10
4141.575468
 20
178.278734
 11
4216.272208
 21
178.278734
  0
LINE
  8
CSLAYER1
  6
CONTINUOUS
 62
     3
 10
4130.906922
 20
175.878734
 11
4232.891745
 21
175.878734
  0
LINE
  8
CSLAYER1
  6
CONTINUOUS
 62
     3
 10
4119.734315
 20
173.478734
 11
4187.869281
 21
173.478734
  0
LINE
  8
CSLAYER1
  6
CONTINUOUS
 62
     3
 10
4207.311605
 20
173.478734
 11
4221.691511
 21
173.478734
  0
LINE
  8
CSLAYER1
  6
CONTINUOUS
 62
     3
 10
4228.155211
 20
173.478734
 11
4240.924707
 21
173.478734
  0
LINE
  8
CSLAYER1
  6
CONTINUOUS
 62
     3
 10
4121.839024
 20
171.078734
 11
4206.898728
 21
171.078734
  0
LINE
  8
CSLAYER1
  6
CONTINUOUS
 62
     3
 10
4237.168936
 20
171.078734
 11
4246.328303
 21
171.078734
  0
LINE
  8
CSLAYER1
  6
CONTINUOUS
 62
     3
 10
4118.970524
 20
168.678734
 11
4228.102050
 21
168.678734
  0
LINE
  8
CSLAYER1
  6
CONTINUOUS
 62
     3
 10
4246.020884
 20
168.678734
 11
4249.371466
 21
168.678734
  0
LINE
  8
CSLAYER1
  6
CONTINUOUS
 62
     3
 10
4117.377186
 20
166.278734
 11
4239.669834
 21
166.278734
  0
LINE
  8
CSLAYER1
  6
CONTINUOUS
 62
     3
 10
4119.890686
 20
163.878734
 11
4246.883797
 21
163.878734
  0
LINE
  8
CSLAYER1
  6
CONTINUOUS
 62
     3
 10
4121.642038
 20
161.478734
 11
4210.312106
 21
161.478734
  0
LINE
  8
CSLAYER1
  6
CONTINUOUS
 62
     3
 10
4233.561753
 20
161.478734
 11
4256.068238
 21
161.478734
  0
LINE
  8
CSLAYER1
  6
CONTINUOUS
 62
     3
 10
4122.009723
 20
159.078734
 11
4175.062106
 21
159.078734
  0
LINE
  8
CSLAYER1
  6
CONTINUOUS
 62
     3
 10
4244.915147
 20
159.078734
 11
4259.199051
 21
159.078734
  0
LINE
  8
CSLAYER1
  6
CONTINUOUS
 62
     3
 10
4122.319210
 20
156.678734
 11
4142.516971
 21
156.678734
  0
LINE
  8
CSLAYER1
  6
CONTINUOUS
 62
     3
 10
4256.105670
 20
156.678734
 11
4265.833197
 21
156.678734
  0
LINE
  8
CSLAYER1
  6
CONTINUOUS
 62
     3
 10
4268.200161
 20
154.278734
 11
4271.453442
 21
154.278734
  0
ENDBLK
  8
0
  0
BLOCK
  8
CSLAYER1
  2
BLKF0001
 70
   64
 10
0.0
 20
0.0
 30
0.0
  0
ARC
  8
CSLAYER1
  6
DASHED
 62
     5
 10
2590.749203
 20
1362.434231
 40
16.000000
 50
169.829671
 51
190.170329
  0
LINE
  8
CSLAYER1
  6
DASHED
 62
     5
 10
3052.198544
 20
1884.255909
 11
2862.337077
 21
1659.349059
  0
LINE
  8
CSLAYER1
  6
DASHED
 62
     5
 10
2575.000609
 20
1365.259431
 11
2587.411572
 21
1434.442209
  0
LINE
  8
CSLAYER1
  6
DASHED
 62
     5
 10
3052.198544
 20
1884.255909
 11
3062.969639
 21
1944.297524
  0
POINT
  8
CSLAYER1
 62
     5
 10
2590.749203
 20
1362.434231
  0
POINT
  8
CSLAYER1
 62
     5
 10
2819.805058
 20
1659.349059
  0
LINE
  8
CSLAYER1
  6
DASHED
 62
     5
 10
2587.411572
 20
1434.442209
 11
2777.273038
 21
1659.349059
  0
LINE
  8
CSLAYER1
  6
DASHED
 62
     5
 10
2794.971540
 20
1044.554041
 11
3006.395527
 21
794.104575
  0
ARC
  8
CSLAYER1
  6
DASHED
 62
     5
 10
2590.749203
 20
1362.434231
 40
16.000000
 50
40.170329
 51
190.170329
  0
LINE
  8
CSLAYER1
  6
DASHED
 62
     5
 10
2587.411572
 20
1290.426253
 11
3006.395527
 21
794.104575
  0
LINE
  8
CSLAYER1
  6
DASHED
 62
     5
 10
3052.198544
 20
840.612553
 11
2602.975286
 21
1372.755224
  0
LINE
  8
CSLAYER1
  6
DASHED
 62
     5
 10
2575.000609
 20
1359.609030
 11
2587.411572
 21
1290.426253
  0
LINE
  8
CSLAYER1
  6
DASHED
 62
     5
 10
3052.198544
 20
840.612553
 11
3060.541788
 21
794.104575
  0
POINT
  8
CSLAYER1
 62
     5
 10
2590.749203
 20
1362.434231
  0
POINT
  8
CSLAYER1
 62
     5
 10
2819.805058
 20
1065.519403
  0
LINE
  8
CSLAYER1
  6
DASHED
 62
     5
 10
2569.249203
 20
915.104575
 11
2588.249203
 21
915.104575
  0
LINE
  8
CSLAYER1
  6
DASHED
 62
     5
 10
2569.249203
 20
925.104575
 11
2588.249203
 21
925.104575
  0
LINE
  8
CSLAYER1
  6
DASHED
 62
     5
 10
2567.779548
 20
924.256069
 11
2567.779548
 21
915.953081
  0
LINE
  8
CSLAYER1
  6
DASHED
 62
     5
 10
2573.264376
 20
924.256069
 11
2573.264376
 21
915.953081
  0
LINE
  8
CSLAYER1
  6
DASHED
 62
     5
 10
2569.249203
 20
925.104575
 11
2567.779548
 21
924.256069
  0
ARC
  8
CSLAYER1
  6
DASHED
 62
     5
 10
2578.749203
 20
906.953081
 40
18.151494
 50
90.000000
 51
107.587954
  0
ARC
  8
CSLAYER1
  6
DASHED
 62
     5
 10
2570.521962
 20
920.262183
 40
4.844787
 50
55.524449
 51
115.524449
  0
LINE
  8
CSLAYER1
  6
DASHED
 62
     5
 10
2589.718859
 20
924.256069
 11
2589.718859
 21
915.953081
  0
LINE
  8
CSLAYER1
  6
DASHED
 62
     5
 10
2584.234031
 20
924.256069
 11
2584.234031
 21
915.953081
  0
LINE
  8
CSLAYER1
  6
DASHED
 62
     5
 10
2588.249203
 20
925.104575
 11
2589.718859
 21
924.256069
  0
ARC
  8
CSLAYER1
  6
DASHED
 62
     5
 10
2578.749203
 20
906.953081
 40
18.151494
 50
72.412046
 51
90.000000
  0
ARC
  8
CSLAYER1
  6
DASHED
 62
     5
 10
2586.976445
 20
920.262183
 40
4.844787
 50
64.475551
 51
124.475551
  0
LINE
  8
CSLAYER1
  6
DASHED
 62
     5
 10
2569.249203
 20
915.104575
 11
2588.249203
 21
915.104575
  0
LINE
  8
CSLAYER1
  6
DASHED
 62
     5
 10
2569.249203
 20
915.104575
 11
2567.779548
 21
915.953081
  0
ARC
  8
CSLAYER1
  6
DASHED
 62
     5
 10
2578.749203
 20
933.256069
 40
18.151494
 50
252.412046
 51
270.000000
  0
ARC
  8
CSLAYER1
  6
DASHED
 62
     5
 10
2570.521962
 20
919.946968
 40
4.844787
 50
244.475551
 51
304.475551
  0
LINE
  8
CSLAYER1
  6
DASHED
 62
     5
 10
2588.249203
 20
915.104575
 11
2589.718859
 21
915.953081
  0
ARC
  8
CSLAYER1
  6
DASHED
 62
     5
 10
2578.749203
 20
933.256069
 40
18.151494
 50
270.000000
 51
287.587954
  0
ARC
  8
CSLAYER1
  6
DASHED
 62
     5
 10
2586.976445
 20
919.946968
 40
4.844787
 50
235.524449
 51
295.524449
  0
POINT
  8
CSLAYER1
 62
     5
 10
2578.749203
 20
925.104575
  0
LINE
  8
CSLAYER1
  6
DASHED
 62
     5
 10
2569.249203
 20
940.904575
 11
2588.249203
 21
940.904575
  0
LINE
  8
CSLAYER1
  6
DASHED
 62
     5
 10
2567.779548
 20
932.904575
 11
2589.718859
 21
932.904575
  0
LINE
  8
CSLAYER1
  6
DASHED
 62
     5
 10
2567.779548
 20
940.056069
 11
2567.779548
 21
932.904575
  0
LINE
  8
CSLAYER1
  6
DASHED
 62
     5
 10
2573.264376
 20
940.056069
 11
2573.264376
 21
932.904575
  0
LINE
  8
CSLAYER1
  6
DASHED
 62
     5
 10
2569.249203
 20
940.904575
 11
2567.779548
 21
940.056069
  0
ARC
  8
CSLAYER1
  6
DASHED
 62
     5
 10
2578.749203
 20
922.753081
 40
18.151494
 50
90.000000
 51
107.587954
  0
ARC
  8
CSLAYER1
  6
DASHED
 62
     5
 10
2570.521962
 20
936.062183
 40
4.844787
 50
55.524449
 51
115.524449
  0
LINE
  8
CSLAYER1
  6
DASHED
 62
     5
 10
2589.718859
 20
940.056069
 11
2589.718859
 21
932.904575
  0
LINE
  8
CSLAYER1
  6
DASHED
 62
     5
 10
2584.234031
 20
940.056069
 11
2584.234031
 21
932.904575
  0
LINE
  8
CSLAYER1
  6
DASHED
 62
     5
 10
2588.249203
 20
940.904575
 11
2589.718859
 21
940.056069
  0
ARC
  8
CSLAYER1
  6
DASHED
 62
     5
 10
2578.749203
 20
922.753081
 40
18.151494
 50
72.412046
 51
90.000000
  0
ARC
  8
CSLAYER1
  6
DASHED
 62
     5
 10
2586.976445
 20
936.062183
 40
4.844787
 50
64.475551
 51
124.475551
  0
LINE
  8
CSLAYER1
  6
DASHED
 62
     5
 10
2572.749203
 20
932.904575
 11
2573.749203
 21
931.172524
  0
LINE
  8
CSLAYER1
  6
DASHED
 62
     5
 10
2584.749203
 20
932.904575
 11
2583.749203
 21
931.172524
  0
POINT
  8
CSLAYER1
 62
     5
 10
2578.749203
 20
932.904575
  0
LINE
  8
CSLAYER1
  6
DASHED
 62
     5
 10
2572.749203
 20
932.904575
 11
2572.749203
 21
925.104575
  0
LINE
  8
CSLAYER1
  6
DASHED
 62
     5
 10
2573.749203
 20
931.172524
 11
2573.749203
 21
925.104575
  0
LINE
  8
CSLAYER1
  6
DASHED
 62
     5
 10
2583.749203
 20
931.172524
 11
2583.749203
 21
925.104575
  0
LINE
  8
CSLAYER1
  6
DASHED
 62
     5
 10
2584.749203
 20
932.904575
 11
2584.749203
 21
925.104575
  0
LINE
  8
CSLAYER1
  6
DASHED
 62
     5
 10
2578.749203
 20
794.104575
 11
2578.749203
 21
940.904575
  0
LINE
  8
CSLAYER1
  6
DASHED
 62
     5
 10
2568.749203
 20
794.104575
 11
2568.749203
 21
915.104575
  0
LINE
  8
CSLAYER1
  6
DASHED
 62
     5
 10
2588.749203
 20
842.197090
 11
2588.749203
 21
915.104575
  0
LINE
  8
CSLAYER1
  6
DASHED
 62
     5
 10
2893.728303
 20
1085.692683
 11
2915.192356
 21
1060.266709
  0
LINE
  8
CSLAYER1
  6
DASHED
 62
     5
 10
2917.229671
 20
1079.358475
 11
2896.550829
 21
1061.901847
  0
POINT
  8
CSLAYER1
 62
     5
 10
2906.629544
 20
1070.410079
  0
POINT
  8
CSLAYER1
 62
     5
 10
2906.629544
 20
1070.410079
  0
CIRCLE
  8
CSLAYER1
  6
DASHED
 62
     5
 10
2906.629544
 20
1070.410079
 40
10.000000
  0
ARC
  8
CSLAYER1
  6
DASHED
 62
     5
 10
2908.921934
 20
1072.345265
 40
20.000000
 50
40.170329
 51
130.170329
  0
LINE
  8
CSLAYER1
  6
DASHED
 62
     5
 10
2924.204538
 20
1085.246506
 11
2936.601184
 21
1070.561638
  0
ARC
  8
CSLAYER1
  6
DASHED
 62
     5
 10
2921.318580
 20
1057.660397
 40
20.000000
 50
-16.488964
 51
40.170329
  0
LINE
  8
CSLAYER1
  6
DASHED
 62
     5
 10
2940.496069
 20
1051.983784
 11
2923.171565
 21
993.455844
  0
LINE
  8
CSLAYER1
  6
DASHED
 62
     5
 10
2896.020693
 20
1087.627869
 11
2865.455486
 21
1061.825386
  0
LINE
  8
CSLAYER1
  6
DASHED
 62
     5
 10
2828.688265
 20
1004.613749
 11
2816.462182
 21
994.292756
  0
LINE
  8
CSLAYER1
  6
DASHED
 62
     5
 10
2816.462182
 20
994.292756
 11
2897.094940
 21
898.776483
  0
LINE
  8
CSLAYER1
  6
DASHED
 62
     5
 10
2909.321023
 20
909.097476
 11
2897.094940
 21
898.776483
  0
POINT
  8
CSLAYER1
 62
     5
 10
2593.593320
 20
1372.669552
  0
LINE
  8
CSLAYER1
  6
DASHED
 62
     5
 10
2593.593320
 20
1372.669552
 11
2584.538505
 21
1472.258760
  0
POINT
  8
CSLAYER1
 62
     5
 10
2584.538505
 20
1472.258760
  0
ARC
  8
CSLAYER1
  6
DASHED
 62
     5
 10
2584.538505
 20
1472.258760
 40
20.000000
 50
17.161807
 51
179.076890
  0
POINT
  8
CSLAYER1
 62
     5
 10
2584.538505
 20
1472.258760
  0
POINT
  8
CSLAYER1
 62
     5
 10
2584.538505
 20
1472.258760
  0
LINE
  8
CSLAYER1
  6
DASHED
 62
     5
 10
2563.165175
 20
1387.187139
 11
2564.541100
 21
1472.580972
  0
LINE
  8
CSLAYER1
  6
DASHED
 62
     5
 10
2603.648010
 20
1478.160184
 11
2609.184117
 21
1460.233617
  0
ARC
  8
CSLAYER1
  6
DASHED
 62
     5
 10
2565.164915
 20
1387.154917
 40
2.000000
 50
177.071261
 51
240.119957
  0
ARC
  8
CSLAYER1
  6
DASHED
 62
     5
 10
2593.593320
 20
1372.669552
 40
30.250000
 50
175.960104
 51
237.231731
  0
LINE
  8
CSLAYER1
  6
DASHED
 62
     5
 10
2634.596454
 20
1350.815205
 11
2623.570811
 21
1348.358095
  0
LINE
  8
CSLAYER1
  6
DASHED
 62
     5
 10
2673.300177
 20
1396.663016
 11
2634.596454
 21
1350.815205
  0
LINE
  8
CSLAYER1
  6
DASHED
 62
     5
 10
2718.703129
 20
1489.202586
 11
2673.300177
 21
1396.663016
  0
POINT
  8
CSLAYER1
 62
     5
 10
2590.749203
 20
1362.434231
  0
ARC
  8
CSLAYER1
  6
DASHED
 62
     5
 10
3048.860912
 20
1362.434231
 40
16.000000
 50
-139.829671
 51
10.170329
  0
LINE
  8
CSLAYER1
  6
DASHED
 62
     5
 10
2587.411572
 20
1884.255909
 11
3036.634829
 21
1352.113238
  0
LINE
  8
CSLAYER1
  6
DASHED
 62
     5
 10
3064.609507
 20
1365.259431
 11
3052.198544
 21
1434.442209
  0
LINE
  8
CSLAYER1
  6
DASHED
 62
     5
 10
2587.411572
 20
1884.255909
 11
2577.722874
 21
1938.263887
  0
POINT
  8
CSLAYER1
 62
     5
 10
3048.860912
 20
1362.434231
  0
POINT
  8
CSLAYER1
 62
     5
 10
2819.805058
 20
1659.349059
  0
LINE
  8
CSLAYER1
  6
DASHED
 62
     5
 10
3052.198544
 20
1434.442209
 11
2619.960991
 21
1946.463887
  0
LINE
  8
CSLAYER1
  6
DASHED
 62
     5
 10
2819.805058
 20
1015.136654
 11
2633.214589
 21
794.104575
  0
LINE
  8
CSLAYER1
  6
DASHED
 62
     5
 10
3052.198544
 20
1290.426253
 11
2862.337077
 21
1065.519403
  0
LINE
  8
CSLAYER1
  6
DASHED
 62
     5
 10
2587.411572
 20
840.612553
 11
2777.273038
 21
1065.519403
  0
LINE
  8
CSLAYER1
  6
DASHED
 62
     5
 10
3064.609507
 20
1359.609030
 11
3052.198544
 21
1290.426253
  0
LINE
  8
CSLAYER1
  6
DASHED
 62
     5
 10
2587.411572
 20
840.612553
 11
2579.068328
 21
794.104575
  0
POINT
  8
CSLAYER1
 62
     5
 10
3048.860912
 20
1362.434231
  0
POINT
  8
CSLAYER1
 62
     5
 10
2819.805058
 20
1065.519403
  0
CIRCLE
  8
CSLAYER1
  6
DASHED
 62
     5
 10
2590.749203
 20
1362.434231
 40
9.000000
  0
CIRCLE
  8
CSLAYER1
  6
DASHED
 62
     5
 10
3048.860912
 20
1362.434231
 40
9.000000
  0
LINE
  8
CSLAYER1
  6
DASHED
 62
     5
 10
2597.246514
 20
1493.978716
 11
2616.934872
 21
1469.415037
  0
LINE
  8
CSLAYER1
  6
DASHED
 62
     5
 10
2595.503482
 20
1492.581636
 11
2615.466359
 21
1467.675460
  0
LINE
  8
CSLAYER1
  6
DASHED
 62
     5
 10
2560.572945
 20
1464.584000
 11
2564.336588
 21
1459.888386
  0
LINE
  8
CSLAYER1
  6
DASHED
 62
     5
 10
2562.315977
 20
1465.981081
 11
2564.393004
 21
1463.389730
  0
CIRCLE
  8
CSLAYER1
  6
DASHED
 62
     5
 10
2584.538505
 20
1472.258760
 40
12.500000
  0
POINT
  8
CSLAYER1
 62
     5
 10
2584.538505
 20
1472.258760
  0
LINE
  8
CSLAYER1
  6
DASHED
 62
     5
 10
2716.274855
 20
1342.038345
 11
2672.885571
 21
1396.171880
  0
LINE
  8
CSLAYER1
  6
DASHED
 62
     5
 10
2682.956528
 20
1315.332933
 11
2644.814715
 21
1362.919594
  0
LINE
  8
CSLAYER1
  6
DASHED
 62
     5
 10
2926.345295
 20
1113.766615
 11
2915.007493
 21
1127.911933
  0
CIRCLE
  8
CSLAYER1
  6
DASHED
 62
     5
 10
2906.629544
 20
1070.410079
 40
10.000000
  0
POINT
  8
CSLAYER1
 62
     5
 10
2906.629544
 20
1070.410079
  0
LINE
  8
CSLAYER1
  6
DASHED
 62
     5
 10
2917.890660
 20
1079.436125
 11
2895.368427
 21
1061.384033
  0
LINE
  8
CSLAYER1
  6
DASHED
 62
     5
 10
2971.641378
 20
1062.789500
 11
2926.307800
 21
1119.348783
  0
LINE
  8
CSLAYER1
  6
DASHED
 62
     5
 10
2967.682588
 20
1082.179779
 11
2959.552134
 21
1092.323532
  0
LINE
  8
CSLAYER1
  6
DASHED
 62
     5
 10
2965.404300
 20
1097.014178
 11
2934.906323
 21
1072.569343
  0
LINE
  8
CSLAYER1
  6
DASHED
 62
     5
 10
2994.420757
 20
1047.221657
 11
2966.902299
 21
1081.554359
  0
LINE
  8
CSLAYER1
  6
DASHED
 62
     5
 10
2967.682588
 20
1082.179779
 11
2941.063569
 21
1060.844018
  0
LINE
  8
CSLAYER1
  6
DASHED
 62
     5
 10
2985.039464
 20
1058.925987
 11
2942.903874
 21
1025.153334
  0
LINE
  8
CSLAYER1
  6
DASHED
 62
     5
 10
2929.334840
 20
1014.277439
 11
2942.903874
 21
1025.153334
  0
LINE
  8
CSLAYER1
  6
DASHED
 62
     5
 10
2966.638515
 20
1081.342931
 11
2960.630292
 21
1076.527200
  0
LINE
  8
CSLAYER1
  6
DASHED
 62
     5
 10
2967.889354
 20
1079.782353
 11
2961.881131
 21
1074.966623
  0
LINE
  8
CSLAYER1
  6
DASHED
 62
     5
 10
2967.889354
 20
1079.782353
 11
2966.638515
 21
1081.342931
  0
LINE
  8
CSLAYER1
  6
DASHED
 62
     5
 10
2971.018234
 20
1073.959973
 11
2965.946358
 21
1069.894746
  0
LINE
  8
CSLAYER1
  6
DASHED
 62
     5
 10
2971.018234
 20
1073.959973
 11
2971.439765
 21
1075.041868
  0
LINE
  8
CSLAYER1
  6
DASHED
 62
     5
 10
2967.737630
 20
1079.660742
 11
2971.439765
 21
1075.041868
  0
ARC
  8
CSLAYER1
  6
DASHED
 62
     5
 10
2968.288613
 20
1075.973114
 40
3.285875
 50
273.748601
 51
333.399479
  0
ARC
  8
CSLAYER1
  6
DASHED
 62
     5
 10
2958.178996
 20
1079.585498
 40
12.419443
 50
308.712984
 51
326.300938
  0
LINE
  8
CSLAYER1
  6
DASHED
 62
     5
 10
2964.809380
 20
1077.313683
 11
2968.511516
 21
1072.694808
  0
LINE
  8
CSLAYER1
  6
DASHED
 62
     5
 10
2970.710279
 20
1069.227620
 11
2968.135326
 21
1067.163736
  0
LINE
  8
CSLAYER1
  6
DASHED
 62
     5
 10
2970.818687
 20
1070.211616
 11
2969.067513
 21
1072.396424
  0
LINE
  8
CSLAYER1
  6
DASHED
 62
     5
 10
2970.710279
 20
1069.227620
 11
2968.521311
 21
1071.958631
  0
LINE
  8
CSLAYER1
  6
DASHED
 62
     5
 10
2970.818687
 20
1070.211616
 11
2970.710279
 21
1069.227620
  0
LINE
  8
CSLAYER1
  6
DASHED
 62
     5
 10
2970.818687
 20
1070.211616
 11
2967.697532
 21
1067.709938
  0
LINE
  8
CSLAYER1
  6
DASHED
 62
     5
 10
2954.622069
 20
1071.711470
 11
2960.630292
 21
1076.527200
  0
LINE
  8
CSLAYER1
  6
DASHED
 62
     5
 10
2955.872908
 20
1070.150893
 11
2961.881131
 21
1074.966623
  0
LINE
  8
CSLAYER1
  6
DASHED
 62
     5
 10
2955.872908
 20
1070.150893
 11
2954.622069
 21
1071.711470
  0
LINE
  8
CSLAYER1
  6
DASHED
 62
     5
 10
2960.874481
 20
1065.829520
 11
2965.946358
 21
1069.894746
  0
LINE
  8
CSLAYER1
  6
DASHED
 62
     5
 10
2960.874481
 20
1065.829520
 11
2959.726768
 21
1065.653629
  0
LINE
  8
CSLAYER1
  6
DASHED
 62
     5
 10
2956.024633
 20
1070.272504
 11
2959.726768
 21
1065.653629
  0
ARC
  8
CSLAYER1
  6
DASHED
 62
     5
 10
2959.503866
 20
1068.931935
 40
3.285875
 50
284.026489
 51
343.677367
  0
ARC
  8
CSLAYER1
  6
DASHED
 62
     5
 10
2958.178996
 20
1079.585498
 40
12.419443
 50
291.125030
 51
308.712984
  0
LINE
  8
CSLAYER1
  6
DASHED
 62
     5
 10
2958.952882
 20
1072.619563
 11
2962.655017
 21
1068.000688
  0
LINE
  8
CSLAYER1
  6
DASHED
 62
     5
 10
2965.560373
 20
1065.099852
 11
2968.135326
 21
1067.163736
  0
LINE
  8
CSLAYER1
  6
DASHED
 62
     5
 10
2964.576378
 20
1065.208260
 11
2962.825203
 21
1067.393068
  0
LINE
  8
CSLAYER1
  6
DASHED
 62
     5
 10
2965.560373
 20
1065.099852
 11
2963.371405
 21
1067.830862
  0
LINE
  8
CSLAYER1
  6
DASHED
 62
     5
 10
2964.576378
 20
1065.208260
 11
2965.560373
 21
1065.099852
  0
LINE
  8
CSLAYER1
  6
DASHED
 62
     5
 10
2964.576378
 20
1065.208260
 11
2967.697532
 21
1067.709938
  0
LINE
  8
CSLAYER1
  6
DASHED
 62
     5
 10
2961.872478
 20
1077.522841
 11
2960.210877
 21
1073.627876
  0
LINE
  8
CSLAYER1
  6
DASHED
 62
     5
 10
2870.718186
 20
1176.213028
 11
2730.009125
 21
1351.765104
  0
LINE
  8
CSLAYER1
  6
DASHED
 62
     5
 10
2728.603417
 20
1351.919973
 11
2699.615691
 21
1328.685639
  0
LINE
  8
CSLAYER1
  6
DASHED
 62
     5
 10
2965.404300
 20
1097.014178
 11
2945.390876
 21
1121.983417
  0
LINE
  8
CSLAYER1
  6
DASHED
 62
     5
 10
2945.390876
 20
1121.983417
 11
2908.405263
 21
1092.338590
  0
LINE
  8
CSLAYER1
  6
DASHED
 62
     5
 10
2820.558787
 20
1116.795008
 11
2670.473097
 21
1304.045597
  0
LINE
  8
CSLAYER1
  6
DASHED
 62
     5
 10
2730.009125
 20
1351.765104
 11
2728.603417
 21
1351.919973
  0
LINE
  8
CSLAYER1
  6
DASHED
 62
     5
 10
2670.627966
 20
1305.451305
 11
2699.615691
 21
1328.685639
  0
LINE
  8
CSLAYER1
  6
DASHED
 62
     5
 10
2670.473097
 20
1304.045597
 11
2670.627966
 21
1305.451305
  0
LINE
  8
CSLAYER1
  6
DASHED
 62
     5
 10
2826.938423
 20
1238.501222
 11
2817.734609
 21
1231.124151
  0
LINE
  8
CSLAYER1
  6
DASHED
 62
     5
 10
2825.537496
 20
1237.378346
 11
2821.159559
 21
1242.840367
  0
LINE
  8
CSLAYER1
  6
DASHED
 62
     5
 10
2821.159559
 20
1242.840367
 11
2818.505983
 21
1241.354253
  0
LINE
  8
CSLAYER1
  6
DASHED
 62
     5
 10
2825.537496
 20
1237.378346
 11
2829.915432
 21
1231.916325
  0
LINE
  8
CSLAYER1
  6
DASHED
 62
     5
 10
2829.915432
 20
1231.916325
 11
2827.887276
 21
1229.649922
  0
LINE
  8
CSLAYER1
  6
DASHED
 62
     5
 10
2812.251788
 20
1249.157140
 11
2802.870496
 21
1260.861470
  0
LINE
  8
CSLAYER1
  6
DASHED
 62
     5
 10
2938.342914
 20
1116.334311
 11
2932.486415
 21
1111.640192
  0
LINE
  8
CSLAYER1
  6
DASHED
 62
     5
 10
2934.118484
 20
1119.997007
 11
2927.944886
 21
1115.048725
  0
LINE
  8
CSLAYER1
  6
DASHED
 62
     5
 10
2935.266198
 20
1120.172898
 11
2938.342914
 21
1116.334311
  0
LINE
  8
CSLAYER1
  6
DASHED
 62
     5
 10
2932.337948
 20
1117.825838
 11
2935.414664
 21
1113.987252
  0
LINE
  8
CSLAYER1
  6
DASHED
 62
     5
 10
2934.118484
 20
1119.997007
 11
2935.266198
 21
1120.172898
  0
ARC
  8
CSLAYER1
  6
DASHED
 62
     5
 10
2935.468768
 20
1116.919958
 40
3.259241
 50
103.147085
 51
164.084602
  0
ARC
  8
CSLAYER1
  6
DASHED
 62
     5
 10
2936.813970
 20
1106.241028
 40
12.419443
 50
111.125030
 51
128.712984
  0
LINE
  8
CSLAYER1
  6
DASHED
 62
     5
 10
2926.629916
 20
1106.946073
 11
2932.486415
 21
1111.640192
  0
LINE
  8
CSLAYER1
  6
DASHED
 62
     5
 10
2923.553201
 20
1110.784659
 11
2926.629916
 21
1106.946073
  0
LINE
  8
CSLAYER1
  6
DASHED
 62
     5
 10
2926.481450
 20
1113.131718
 11
2929.558166
 21
1109.293132
  0
LINE
  8
CSLAYER1
  6
DASHED
 62
     5
 10
2923.974731
 20
1111.866553
 11
2923.553201
 21
1110.784659
  0
ARC
  8
CSLAYER1
  6
DASHED
 62
     5
 10
2926.684021
 20
1109.878779
 40
3.259241
 50
93.341366
 51
154.278882
  0
ARC
  8
CSLAYER1
  6
DASHED
 62
     5
 10
2936.813970
 20
1106.241028
 40
12.419443
 50
128.712984
 51
146.300938
  0
LINE
  8
CSLAYER1
  6
DASHED
 62
     5
 10
2923.974731
 20
1111.866553
 11
2930.148329
 21
1116.814835
  0
LINE
  8
CSLAYER1
  6
DASHED
 62
     5
 10
3130.124902
 20
890.705251
 11
3081.747002
 21
851.929243
  0
LINE
  8
CSLAYER1
  6
DASHED
 62
     5
 10
3007.232942
 20
1040.830420
 11
2960.415620
 21
1003.305251
  0
LINE
  8
CSLAYER1
  6
DASHED
 62
     5
 10
3130.124902
 20
890.705251
 11
3093.850571
 21
935.961996
  0
LINE
  8
CSLAYER1
  6
DASHED
 62
     5
 10
3092.289993
 20
934.711157
 11
3002.229586
 21
1047.072730
  0
LINE
  8
CSLAYER1
  6
DASHED
 62
     5
 10
3130.124902
 20
890.705251
 11
3121.083061
 21
873.205391
  0
LINE
  8
CSLAYER1
  6
DASHED
 62
     5
 10
3055.746258
 20
820.836428
 11
3121.083061
 21
873.205391
  0
LINE
  8
CSLAYER1
  6
DASHED
 62
     5
 10
3054.138220
 20
829.800163
 11
3081.747002
 21
851.929243
  0
LINE
  8
CSLAYER1
  6
DASHED
 62
     5
 10
2933.242808
 20
981.525611
 11
2960.415620
 21
1003.305251
  0
LINE
  8
CSLAYER1
  6
DASHED
 62
     5
 10
2994.748323
 20
1030.823708
 11
2960.415620
 21
1003.305251
  0
LINE
  8
CSLAYER1
  6
DASHED
 62
     5
 10
2999.418170
 20
1047.382468
 11
2926.790100
 21
989.169386
  0
ARC
  8
CSLAYER1
  6
DASHED
 62
     5
 10
2996.761623
 20
1049.097915
 40
3.000000
 50
218.712984
 51
308.712984
  0
LINE
  8
CSLAYER1
  6
DASHED
 62
     5
 10
3058.737579
 20
907.818119
 11
2973.680528
 21
1013.937382
  0
LINE
  8
CSLAYER1
  6
DASHED
 62
     5
 10
3064.979889
 20
912.821475
 11
2979.922838
 21
1018.940738
  0
LINE
  8
CSLAYER1
  6
DASHED
 62
     5
 10
3070.441910
 20
917.199411
 11
2985.384859
 21
1023.318675
  0
LINE
  8
CSLAYER1
  6
DASHED
 62
     5
 10
3086.047684
 20
929.707801
 11
3000.990633
 21
1035.827064
  0
LINE
  8
CSLAYER1
  6
DASHED
 62
     5
 10
3087.608261
 20
930.958640
 11
3002.551210
 21
1037.077903
  0
LINE
  8
CSLAYER1
  6
DASHED
 62
     5
 10
3020.503433
 20
877.172564
 11
2935.446382
 21
983.291827
  0
LINE
  8
CSLAYER1
  6
DASHED
 62
     5
 10
3025.965454
 20
881.550500
 11
2940.908403
 21
987.669763
  0
LINE
  8
CSLAYER1
  6
DASHED
 62
     5
 10
3032.207764
 20
886.553856
 11
2947.150712
 21
992.673119
  0
ARC
  8
CSLAYER1
  6
DASHED
 62
     5
 10
3000.669009
 20
1045.821891
 40
2.000000
 50
38.712984
 51
128.712984
  0
LINE
  8
CSLAYER1
  6
DASHED
 62
     5
 10
2569.528437
 20
1490.985689
 11
2576.160891
 21
1496.301755
  0
LINE
  8
CSLAYER1
  6
DASHED
 62
     5
 10
2576.160891
 20
1496.301755
 11
2597.246514
 21
1493.978716
  0
LINE
  8
CSLAYER1
  6
DASHED
 62
     5
 10
2597.246514
 20
1493.978716
 11
2595.503482
 21
1492.581636
  0
LINE
  8
CSLAYER1
  6
DASHED
 62
     5
 10
2595.503482
 20
1492.581636
 11
2578.269453
 21
1496.069451
  0
LINE
  8
CSLAYER1
  6
DASHED
 62
     5
 10
2578.269453
 20
1496.069451
 11
2570.466566
 21
1489.815256
  0
LINE
  8
CSLAYER1
  6
DASHED
 62
     5
 10
2569.528437
 20
1490.985689
 11
2562.895983
 21
1485.669623
  0
LINE
  8
CSLAYER1
  6
DASHED
 62
     5
 10
2562.895983
 20
1485.669623
 11
2560.572945
 21
1464.584000
  0
LINE
  8
CSLAYER1
  6
DASHED
 62
     5
 10
2560.572945
 20
1464.584000
 11
2562.315977
 21
1465.981081
  0
LINE
  8
CSLAYER1
  6
DASHED
 62
     5
 10
2562.315977
 20
1465.981081
 11
2562.663679
 21
1483.561061
  0
LINE
  8
CSLAYER1
  6
DASHED
 62
     5
 10
2562.663679
 20
1483.561061
 11
2570.466566
 21
1489.815256
  0
LINE
  8
CSLAYER1
  6
DASHED
 62
     5
 10
2650.549203
 20
806.786991
 11
2650.549203
 21
794.104575
  0
LINE
  8
CSLAYER1
  6
DASHED
 62
     5
 10
2782.949203
 20
837.404575
 11
2782.949203
 21
822.404575
  0
LINE
  8
CSLAYER1
  6
DASHED
 62
     5
 10
2784.249203
 20
843.404575
 11
2721.749203
 21
843.404575
  0
LINE
  8
CSLAYER1
  6
DASHED
 62
     5
 10
2784.249203
 20
837.404575
 11
2729.587229
 21
837.404575
  0
LINE
  8
CSLAYER1
  6
DASHED
 62
     5
 10
2784.249203
 20
843.404575
 11
2784.249203
 21
837.404575
  0
LINE
  8
CSLAYER1
  6
DASHED
 62
     5
 10
2782.949203
 20
822.404575
 11
2782.949203
 21
794.104575
  0
LINE
  8
CSLAYER1
  6
DASHED
 62
     5
 10
2784.099203
 20
832.904575
 11
2782.949203
 21
832.904575
  0
LINE
  8
CSLAYER1
  6
DASHED
 62
     5
 10
2785.099203
 20
831.904575
 11
2785.099203
 21
812.904575
  0
ARC
  8
CSLAYER1
  6
DASHED
 62
     5
 10
2784.099203
 20
831.904575
 40
1.000000
 50
0.000000
 51
90.000000
  0
ARC
  8
CSLAYER1
  6
DASHED
 62
     5
 10
2784.099203
 20
812.904575
 40
1.000000
 50
270.000000
 51
360.000000
  0
ARC
  8
CSLAYER1
  6
DASHED
 62
     5
 10
2785.099203
 20
790.254440
 40
28.654497
 50
17.068130
 51
90.000000
  0
ARC
  8
CSLAYER1
  6
DASHED
 62
     5
 10
2785.099203
 20
790.254440
 40
35.653641
 50
17.069547
 51
90.000000
  0
LINE
  8
CSLAYER1
  6
DASHED
 62
     5
 10
2819.182272
 20
800.719935
 11
2821.213574
 21
794.104575
  0
LINE
  8
CSLAYER1
  6
DASHED
 62
     5
 10
2812.491654
 20
798.664783
 11
2813.891781
 21
794.104575
  0
LINE
  8
CSLAYER1
  6
DASHED
 62
     5
 10
2784.099203
 20
811.904575
 11
2782.949203
 21
811.904575
  0
LINE
  8
CSLAYER1
  6
DASHED
 62
     5
 10
2889.143521
 20
1081.822310
 11
2892.046301
 21
1078.383725
  0
LINE
  8
CSLAYER1
  6
DASHED
 62
     5
 10
2892.046301
 20
1078.383725
 11
2868.358265
 21
1058.386801
  0
LINE
  8
CSLAYER1
  6
DASHED
 62
     5
 10
2728.749203
 20
815.104575
 11
2678.272213
 21
815.104575
  0
LINE
  8
CSLAYER1
  6
DASHED
 62
     5
 10
2728.749203
 20
815.104575
 11
2728.749203
 21
794.104575
  0
LINE
  8
CSLAYER1
  6
DASHED
 62
     5
 10
2649.521879
 20
813.421929
 11
2649.610387
 21
812.184934
  0
LINE
  8
CSLAYER1
  6
DASHED
 62
     5
 10
2651.748023
 20
810.332771
 11
2675.786569
 21
812.052747
  0
CIRCLE
  8
CSLAYER1
  6
DASHED
 62
     5
 10
2655.552095
 20
814.615181
 40
2.250000
  0
CIRCLE
  8
CSLAYER1
  6
DASHED
 62
     5
 10
2673.434827
 20
816.897261
 40
1.000000
  0
LINE
  8
CSLAYER1
  6
DASHED
 62
     5
 10
2649.610387
 20
812.184934
 11
2651.748023
 21
810.332771
  0
LINE
  8
CSLAYER1
  6
DASHED
 62
     5
 10
2675.492501
 20
844.186312
 11
2676.787017
 21
826.094034
  0
LINE
  8
CSLAYER1
  6
DASHED
 62
     5
 10
2676.239924
 20
812.575977
 11
2675.786569
 21
812.052747
  0
LINE
  8
CSLAYER1
  6
DASHED
 62
     5
 10
2682.216833
 20
852.151848
 11
2678.089093
 21
813.384739
  0
LINE
  8
CSLAYER1
  6
DASHED
 62
     5
 10
2681.066031
 20
850.788627
 11
2678.418174
 21
825.920357
  0
LINE
  8
CSLAYER1
  6
DASHED
 62
     5
 10
2676.988837
 20
812.496237
 11
2670.028182
 21
813.237375
  0
LINE
  8
CSLAYER1
  6
DASHED
 62
     5
 10
2678.418174
 20
825.920357
 11
2671.457520
 21
826.661494
  0
LINE
  8
CSLAYER1
  6
DASHED
 62
     5
 10
2671.457520
 20
826.661494
 11
2670.028182
 21
813.237375
  0
ARC
  8
CSLAYER1
  6
DASHED
 62
     5
 10
2677.094714
 20
813.490616
 40
1.000000
 50
263.922313
 51
353.922313
  0
LINE
  8
CSLAYER1
  6
DASHED
 62
     5
 10
2679.212251
 20
833.378201
 11
2676.243210
 21
833.694330
  0
LINE
  8
CSLAYER1
  6
DASHED
 62
     5
 10
2679.318127
 20
834.372580
 11
2676.170702
 21
834.707703
  0
CIRCLE
  8
CSLAYER1
  6
DASHED
 62
     5
 10
2662.749203
 20
805.104575
 40
3.500000
  0
LINE
  8
CSLAYER1
  6
DASHED
 62
     5
 10
2649.614301
 20
813.531411
 11
2650.066973
 21
807.204821
  0
LINE
  8
CSLAYER1
  6
DASHED
 62
     5
 10
2672.719836
 20
840.901858
 11
2673.756258
 21
826.416735
  0
LINE
  8
CSLAYER1
  6
DASHED
 62
     5
 10
2660.755157
 20
797.944004
 11
2665.742407
 21
798.300846
  0
CIRCLE
  8
CSLAYER1
  6
DASHED
 62
     5
 10
2655.552095
 20
814.615181
 40
2.000000
  0
CIRCLE
  8
CSLAYER1
  6
DASHED
 62
     5
 10
2662.749203
 20
805.104575
 40
3.000000
  0
LINE
  8
CSLAYER1
  6
DASHED
 62
     5
 10
2675.003224
 20
808.989029
 11
2665.742407
 21
798.300846
  0
LINE
  8
CSLAYER1
  6
DASHED
 62
     5
 10
2650.066973
 20
807.204821
 11
2660.755157
 21
797.944004
  0
LINE
  8
CSLAYER1
  6
DASHED
 62
     5
 10
2674.789119
 20
811.981379
 11
2675.003224
 21
808.989029
  0
LINE
  8
CSLAYER1
  6
DASHED
 62
     5
 10
2634.802138
 20
795.428918
 11
2634.553001
 21
794.460450
  0
LINE
  8
CSLAYER1
  6
DASHED
 62
     5
 10
2819.805058
 20
1709.731808
 11
3019.649125
 21
1946.463887
  0
LINE
  8
CSLAYER1
  6
DASHED
 62
     5
 10
2819.805058
 20
1608.966310
 11
2611.688044
 21
1362.434231
  0
LINE
  8
CSLAYER1
  6
DASHED
 62
     5
 10
2819.805058
 20
1115.902152
 11
3027.922071
 21
1362.434231
  0
LINE
  8
CSLAYER1
  6
DASHED
 62
     5
 10
2819.805058
 20
1015.136654
 11
2633.214589
 21
794.104575
  0
LINE
  8
CSLAYER1
  6
DASHED
 62
     5
 10
3020.999635
 20
877.570281
 11
3093.850571
 21
935.961996
  0
POINT
  8
CSLAYER1
 62
     5
 10
2673.434827
 20
816.897261
  0
POINT
  8
CSLAYER1
 62
     5
 10
2662.749203
 20
805.104575
  0
LINE
  8
CSLAYER1
  6
DASHED
 62
     5
 10
2680.279812
 20
843.404575
 11
2675.548435
 21
843.404575
  0
LINE
  8
CSLAYER1
  6
DASHED
 62
     5
 10
2679.640960
 20
837.404575
 11
2675.977739
 21
837.404575
  0
POINT
  8
CSLAYER1
 62
     5
 10
2655.552095
 20
814.615181
  0
LINE
  8
CSLAYER1
  6
DASHED
 62
     5
 10
2584.538505
 20
1492.258760
 11
2584.538505
 21
1448.998179
  0
LINE
  8
CSLAYER1
  6
DASHED
 62
     5
 10
2558.185757
 20
1472.258760
 11
2609.568999
 21
1472.258760
  0
LINE
  8
CSLAYER1
  6
DASHED
 62
     5
 10
2699.911178
 20
837.404575
 11
2680.646613
 21
837.404575
  0
LINE
  8
CSLAYER1
  6
DASHED
 62
     5
 10
2707.749203
 20
843.404575
 11
2681.285464
 21
843.404575
  0
LINE
  8
CSLAYER1
  6
DASHED
 62
     5
 10
2723.249203
 20
843.104575
 11
2714.749203
 21
843.104575
  0
LINE
  8
CSLAYER1
  6
DASHED
 62
     5
 10
2726.249203
 20
820.104575
 11
2714.749203
 21
820.104575
  0
LINE
  8
CSLAYER1
  6
DASHED
 62
     5
 10
2727.749203
 20
839.995480
 11
2714.749203
 21
839.995480
  0
LINE
  8
CSLAYER1
  6
DASHED
 62
     5
 10
2727.749203
 20
823.646666
 11
2714.749203
 21
823.646666
  0
ARC
  8
CSLAYER1
  6
DASHED
 62
     5
 10
2723.249203
 20
840.104575
 40
3.000000
 50
0.000000
 51
90.000000
  0
LINE
  8
CSLAYER1
  6
DASHED
 62
     5
 10
2726.249203
 20
820.104575
 11
2714.749203
 21
820.104575
  0
LINE
  8
CSLAYER1
  6
DASHED
 62
     5
 10
2726.249203
 20
820.104575
 11
2727.739585
 21
819.244103
  0
ARC
  8
CSLAYER1
  6
DASHED
 62
     5
 10
2714.749203
 20
794.058550
 40
26.046025
 50
75.231439
 51
90.000000
  0
ARC
  8
CSLAYER1
  6
DASHED
 62
     5
 10
2724.564158
 20
813.972982
 40
6.153702
 50
66.825356
 51
121.065581
  0
LINE
  8
CSLAYER1
  6
DASHED
 62
     5
 10
2721.388732
 20
819.244103
 11
2721.388732
 21
815.104575
  0
LINE
  8
CSLAYER1
  6
DASHED
 62
     5
 10
2727.739585
 20
819.244103
 11
2727.739585
 21
815.104575
  0
LINE
  8
CSLAYER1
  6
DASHED
 62
     5
 10
2725.085328
 20
823.646666
 11
2725.085328
 21
820.104575
  0
LINE
  8
CSLAYER1
  6
DASHED
 62
     5
 10
2724.438950
 20
823.646666
 11
2724.438950
 21
822.040305
  0
LINE
  8
CSLAYER1
  6
DASHED
 62
     5
 10
2725.085328
 20
822.040305
 11
2714.749203
 21
822.040305
  0
LINE
  8
CSLAYER1
  6
DASHED
 62
     5
 10
2724.438950
 20
822.040305
 11
2725.085328
 21
820.905453
  0
LINE
  8
CSLAYER1
  6
DASHED
 62
     5
 10
2706.249203
 20
843.104575
 11
2714.749203
 21
843.104575
  0
LINE
  8
CSLAYER1
  6
DASHED
 62
     5
 10
2703.249203
 20
820.104575
 11
2714.749203
 21
820.104575
  0
LINE
  8
CSLAYER1
  6
DASHED
 62
     5
 10
2703.249203
 20
820.104575
 11
2714.749203
 21
820.104575
  0
LINE
  8
CSLAYER1
  6
DASHED
 62
     5
 10
2703.249203
 20
820.104575
 11
2701.758822
 21
819.244103
  0
ARC
  8
CSLAYER1
  6
DASHED
 62
     5
 10
2714.749203
 20
794.058550
 40
26.046025
 50
90.000000
 51
104.768561
  0
ARC
  8
CSLAYER1
  6
DASHED
 62
     5
 10
2704.934249
 20
813.972982
 40
6.153702
 50
58.934419
 51
113.174644
  0
LINE
  8
CSLAYER1
  6
DASHED
 62
     5
 10
2708.109675
 20
819.244103
 11
2708.109675
 21
815.104575
  0
LINE
  8
CSLAYER1
  6
DASHED
 62
     5
 10
2701.758822
 20
819.244103
 11
2701.758822
 21
815.104575
  0
LINE
  8
CSLAYER1
  6
DASHED
 62
     5
 10
2704.413079
 20
823.646666
 11
2704.413079
 21
820.104575
  0
LINE
  8
CSLAYER1
  6
DASHED
 62
     5
 10
2705.059457
 20
823.646666
 11
2705.059457
 21
822.040305
  0
LINE
  8
CSLAYER1
  6
DASHED
 62
     5
 10
2704.413079
 20
822.040305
 11
2714.749203
 21
822.040305
  0
LINE
  8
CSLAYER1
  6
DASHED
 62
     5
 10
2705.059457
 20
822.040305
 11
2704.413079
 21
820.905453
  0
LINE
  8
CSLAYER1
  6
DASHED
 62
     5
 10
2714.749203
 20
890.689173
 11
2714.749203
 21
798.231282
  0
LINE
  8
CSLAYER1
  6
DASHED
 62
     5
 10
2729.587229
 20
838.934296
 11
2729.587229
 21
824.707851
  0
LINE
  8
CSLAYER1
  6
DASHED
 62
     5
 10
2722.254757
 20
838.934296
 11
2722.254757
 21
824.707851
  0
LINE
  8
CSLAYER1
  6
DASHED
 62
     5
 10
2727.749203
 20
839.995480
 11
2729.587229
 21
838.934296
  0
ARC
  8
CSLAYER1
  6
DASHED
 62
     5
 10
2725.920993
 20
833.133889
 40
6.861924
 50
62.295563
 51
121.731450
  0
ARC
  8
CSLAYER1
  6
DASHED
 62
     5
 10
2714.749203
 20
812.922226
 40
27.073254
 50
73.904971
 51
90.000000
  0
LINE
  8
CSLAYER1
  6
DASHED
 62
     5
 10
2727.749203
 20
823.646666
 11
2714.749203
 21
823.646666
  0
LINE
  8
CSLAYER1
  6
DASHED
 62
     5
 10
2727.749203
 20
823.646666
 11
2729.587229
 21
824.707851
  0
ARC
  8
CSLAYER1
  6
DASHED
 62
     5
 10
2725.920993
 20
830.508257
 40
6.861924
 50
238.268550
 51
297.704437
  0
ARC
  8
CSLAYER1
  6
DASHED
 62
     5
 10
2714.749203
 20
850.719920
 40
27.073254
 50
270.000000
 51
286.095029
  0
LINE
  8
CSLAYER1
  6
DASHED
 62
     5
 10
2701.749203
 20
839.995480
 11
2714.749203
 21
839.995480
  0
LINE
  8
CSLAYER1
  6
DASHED
 62
     5
 10
2701.749203
 20
823.646666
 11
2714.749203
 21
823.646666
  0
LINE
  8
CSLAYER1
  6
DASHED
 62
     5
 10
2699.911178
 20
838.934296
 11
2699.911178
 21
824.707851
  0
LINE
  8
CSLAYER1
  6
DASHED
 62
     5
 10
2707.243650
 20
838.934296
 11
2707.243650
 21
824.707851
  0
LINE
  8
CSLAYER1
  6
DASHED
 62
     5
 10
2701.749203
 20
839.995480
 11
2699.911178
 21
838.934296
  0
ARC
  8
CSLAYER1
  6
DASHED
 62
     5
 10
2703.577414
 20
833.133889
 40
6.861924
 50
58.268550
 51
117.704437
  0
ARC
  8
CSLAYER1
  6
DASHED
 62
     5
 10
2714.749203
 20
812.922226
 40
27.073254
 50
90.000000
 51
106.095029
  0
LINE
  8
CSLAYER1
  6
DASHED
 62
     5
 10
2701.749203
 20
823.646666
 11
2714.749203
 21
823.646666
  0
LINE
  8
CSLAYER1
  6
DASHED
 62
     5
 10
2701.749203
 20
823.646666
 11
2699.911178
 21
824.707851
  0
ARC
  8
CSLAYER1
  6
DASHED
 62
     5
 10
2703.577414
 20
830.508257
 40
6.861924
 50
242.295563
 51
301.731450
  0
ARC
  8
CSLAYER1
  6
DASHED
 62
     5
 10
2714.749203
 20
850.719920
 40
27.073254
 50
253.904971
 51
270.000000
  0
ARC
  8
CSLAYER1
  6
DASHED
 62
     5
 10
2706.249203
 20
840.104575
 40
3.000000
 50
90.000000
 51
180.000000
  0
LINE
  8
CSLAYER1
  6
DASHED
 62
     5
 10
2721.749203
 20
898.981261
 11
2721.749203
 21
843.104575
  0
LINE
  8
CSLAYER1
  6
DASHED
 62
     5
 10
2707.749203
 20
882.397085
 11
2707.749203
 21
843.104575
  0
POINT
  8
CSLAYER1
 62
     5
 10
2590.749203
 20
958.904575
  0
LINE
  8
CSLAYER1
  6
DASHED
 62
     5
 10
2566.749203
 20
949.104575
 11
2566.749203
 21
941.904575
  0
LINE
  8
CSLAYER1
  6
DASHED
 62
     5
 10
2591.749203
 20
946.904575
 11
2604.749203
 21
946.904575
  0
LINE
  8
CSLAYER1
  6
DASHED
 62
     5
 10
2604.749203
 20
949.104575
 11
2604.749203
 21
946.904575
  0
LINE
  8
CSLAYER1
  6
DASHED
 62
     5
 10
2567.749203
 20
940.904575
 11
2590.749203
 21
940.904575
  0
LINE
  8
CSLAYER1
  6
DASHED
 62
     5
 10
2566.749203
 20
941.904575
 11
2591.749203
 21
941.904575
  0
LINE
  8
CSLAYER1
  6
DASHED
 62
     5
 10
2591.749203
 20
949.104575
 11
2591.749203
 21
941.904575
  0
LINE
  8
CSLAYER1
  6
DASHED
 62
     5
 10
2567.749203
 20
940.904575
 11
2566.749203
 21
941.904575
  0
LINE
  8
CSLAYER1
  6
DASHED
 62
     5
 10
2590.749203
 20
940.904575
 11
2591.749203
 21
941.904575
  0
POINT
  8
CSLAYER1
 62
     5
 10
2590.749203
 20
958.904575
  0
LINE
  8
CSLAYER1
  6
DASHED
 62
     5
 10
2569.688310
 20
958.904575
 11
2611.678618
 21
958.904575
  0
LINE
  8
CSLAYER1
  6
DASHED
 62
     5
 10
2590.749203
 20
980.207292
 11
2590.749203
 21
937.403217
  0
CIRCLE
  8
CSLAYER1
  6
DASHED
 62
     5
 10
2590.749203
 20
1362.434231
 40
10.500000
  0
ARC
  8
CSLAYER1
  6
DASHED
 62
     5
 10
2590.749203
 20
1362.434231
 40
9.200000
 50
97.505018
 51
142.494982
  0
CIRCLE
  8
CSLAYER1
  6
DASHED
 62
     5
 10
2590.749203
 20
1362.434231
 40
8.500000
  0
LINE
  8
CSLAYER1
  6
DASHED
 62
     5
 10
2599.249203
 20
1367.341708
 11
2590.749203
 21
1372.249185
  0
LINE
  8
CSLAYER1
  6
DASHED
 62
     5
 10
2590.749203
 20
1372.249185
 11
2582.249203
 21
1367.341708
  0
LINE
  8
CSLAYER1
  6
DASHED
 62
     5
 10
2582.249203
 20
1367.341708
 11
2582.249203
 21
1357.526754
  0
LINE
  8
CSLAYER1
  6
DASHED
 62
     5
 10
2582.249203
 20
1357.526754
 11
2590.749203
 21
1352.619276
  0
LINE
  8
CSLAYER1
  6
DASHED
 62
     5
 10
2590.749203
 20
1352.619276
 11
2599.249203
 21
1357.526754
  0
LINE
  8
CSLAYER1
  6
DASHED
 62
     5
 10
2599.249203
 20
1357.526754
 11
2599.249203
 21
1367.341708
  0
ARC
  8
CSLAYER1
  6
DASHED
 62
     5
 10
2590.749203
 20
1362.434231
 40
9.200000
 50
37.505018
 51
82.494982
  0
ARC
  8
CSLAYER1
  6
DASHED
 62
     5
 10
2590.749203
 20
1362.434231
 40
9.200000
 50
-22.494982
 51
22.494982
  0
ARC
  8
CSLAYER1
  6
DASHED
 62
     5
 10
2590.749203
 20
1362.434231
 40
9.200000
 50
277.505018
 51
322.494982
  0
ARC
  8
CSLAYER1
  6
DASHED
 62
     5
 10
2590.749203
 20
1362.434231
 40
9.200000
 50
217.505018
 51
262.494982
  0
ARC
  8
CSLAYER1
  6
DASHED
 62
     5
 10
2590.749203
 20
1362.434231
 40
9.200000
 50
157.505018
 51
202.494982
  0
CIRCLE
  8
CSLAYER1
  6
DASHED
 62
     5
 10
3048.860912
 20
1362.434231
 40
10.500000
  0
ARC
  8
CSLAYER1
  6
DASHED
 62
     5
 10
3048.860912
 20
1362.434231
 40
9.200000
 50
97.505018
 51
142.494982
  0
CIRCLE
  8
CSLAYER1
  6
DASHED
 62
     5
 10
3048.860912
 20
1362.434231
 40
8.500000
  0
LINE
  8
CSLAYER1
  6
DASHED
 62
     5
 10
3057.360912
 20
1367.341708
 11
3048.860912
 21
1372.249185
  0
LINE
  8
CSLAYER1
  6
DASHED
 62
     5
 10
3048.860912
 20
1372.249185
 11
3040.360912
 21
1367.341708
  0
LINE
  8
CSLAYER1
  6
DASHED
 62
     5
 10
3040.360912
 20
1367.341708
 11
3040.360912
 21
1357.526754
  0
LINE
  8
CSLAYER1
  6
DASHED
 62
     5
 10
3040.360912
 20
1357.526754
 11
3048.860912
 21
1352.619276
  0
LINE
  8
CSLAYER1
  6
DASHED
 62
     5
 10
3048.860912
 20
1352.619276
 11
3057.360912
 21
1357.526754
  0
LINE
  8
CSLAYER1
  6
DASHED
 62
     5
 10
3057.360912
 20
1357.526754
 11
3057.360912
 21
1367.341708
  0
ARC
  8
CSLAYER1
  6
DASHED
 62
     5
 10
3048.860912
 20
1362.434231
 40
9.200000
 50
37.505018
 51
82.494982
  0
ARC
  8
CSLAYER1
  6
DASHED
 62
     5
 10
3048.860912
 20
1362.434231
 40
9.200000
 50
-22.494982
 51
22.494982
  0
ARC
  8
CSLAYER1
  6
DASHED
 62
     5
 10
3048.860912
 20
1362.434231
 40
9.200000
 50
277.505018
 51
322.494982
  0
ARC
  8
CSLAYER1
  6
DASHED
 62
     5
 10
3048.860912
 20
1362.434231
 40
9.200000
 50
217.505018
 51
262.494982
  0
ARC
  8
CSLAYER1
  6
DASHED
 62
     5
 10
3048.860912
 20
1362.434231
 40
9.200000
 50
157.505018
 51
202.494982
  0
CIRCLE
  8
CSLAYER1
  6
DASHED
 62
     5
 10
2819.805058
 20
1659.349059
 40
12.000000
  0
CIRCLE
  8
CSLAYER1
  6
DASHED
 62
     5
 10
2819.805058
 20
1659.349059
 40
6.000000
  0
CIRCLE
  8
CSLAYER1
  6
DASHED
 62
     5
 10
2819.805058
 20
1659.349059
 40
5.200000
  0
CIRCLE
  8
CSLAYER1
  6
DASHED
 62
     5
 10
2819.805058
 20
1659.349059
 40
9.500000
  0
LINE
  8
CSLAYER1
  6
DASHED
 62
     5
 10
2829.305058
 20
1664.833886
 11
2819.805058
 21
1670.318714
  0
LINE
  8
CSLAYER1
  6
DASHED
 62
     5
 10
2819.805058
 20
1670.318714
 11
2810.305058
 21
1664.833886
  0
LINE
  8
CSLAYER1
  6
DASHED
 62
     5
 10
2810.305058
 20
1664.833886
 11
2810.305058
 21
1653.864231
  0
LINE
  8
CSLAYER1
  6
DASHED
 62
     5
 10
2810.305058
 20
1653.864231
 11
2819.805058
 21
1648.379404
  0
LINE
  8
CSLAYER1
  6
DASHED
 62
     5
 10
2819.805058
 20
1648.379404
 11
2829.305058
 21
1653.864231
  0
LINE
  8
CSLAYER1
  6
DASHED
 62
     5
 10
2829.305058
 20
1653.864231
 11
2829.305058
 21
1664.833886
  0
CIRCLE
  8
CSLAYER1
  6
DASHED
 62
     5
 10
2819.805058
 20
1065.519403
 40
12.000000
  0
CIRCLE
  8
CSLAYER1
  6
DASHED
 62
     5
 10
2819.805058
 20
1065.519403
 40
6.000000
  0
CIRCLE
  8
CSLAYER1
  6
DASHED
 62
     5
 10
2819.805058
 20
1065.519403
 40
5.200000
  0
CIRCLE
  8
CSLAYER1
  6
DASHED
 62
     5
 10
2819.805058
 20
1065.519403
 40
9.500000
  0
LINE
  8
CSLAYER1
  6
DASHED
 62
     5
 10
2829.305058
 20
1071.004230
 11
2819.805058
 21
1076.489058
  0
LINE
  8
CSLAYER1
  6
DASHED
 62
     5
 10
2819.805058
 20
1076.489058
 11
2810.305058
 21
1071.004230
  0
LINE
  8
CSLAYER1
  6
DASHED
 62
     5
 10
2810.305058
 20
1071.004230
 11
2810.305058
 21
1060.034575
  0
LINE
  8
CSLAYER1
  6
DASHED
 62
     5
 10
2810.305058
 20
1060.034575
 11
2819.805058
 21
1054.549748
  0
LINE
  8
CSLAYER1
  6
DASHED
 62
     5
 10
2819.805058
 20
1054.549748
 11
2829.305058
 21
1060.034575
  0
LINE
  8
CSLAYER1
  6
DASHED
 62
     5
 10
2829.305058
 20
1060.034575
 11
2829.305058
 21
1071.004230
  0
LINE
  8
CSLAYER1
  6
DASHED
 62
     5
 10
2590.749203
 20
958.904575
 11
3334.689036
 21
863.754575
  0
LINE
  8
CSLAYER1
  6
DASHED
 62
     5
 10
3334.689036
 20
958.904575
 11
2590.749203
 21
863.754575
  0
LINE
  8
CSLAYER1
  6
DASHED
 62
     5
 10
2565.824737
 20
1408.870791
 11
2563.418484
 21
1374.800697
  0
LINE
  8
CSLAYER1
  6
DASHED
 62
     5
 10
2587.411572
 20
1434.442209
 11
2565.824737
 21
1408.870791
  0
POINT
  8
CSLAYER1
 62
     5
 10
3048.860912
 20
1956.263887
  0
POINT
  8
CSLAYER1
 62
     5
 10
2590.749203
 20
1956.263887
  0
LINE
  8
CSLAYER1
  6
DASHED
 62
     5
 10
2641.397642
 20
1946.463887
 11
2604.749203
 21
1946.463887
  0
LINE
  8
CSLAYER1
  6
DASHED
 62
     5
 10
2566.749203
 20
1946.463887
 11
2566.749203
 21
1939.263887
  0
LINE
  8
CSLAYER1
  6
DASHED
 62
     5
 10
2591.749203
 20
1944.263887
 11
2604.749203
 21
1944.263887
  0
LINE
  8
CSLAYER1
  6
DASHED
 62
     5
 10
2604.749203
 20
1946.463887
 11
2604.749203
 21
1944.263887
  0
LINE
  8
CSLAYER1
  6
DASHED
 62
     5
 10
2567.749203
 20
1938.263887
 11
2590.749203
 21
1938.263887
  0
LINE
  8
CSLAYER1
  6
DASHED
 62
     5
 10
2566.749203
 20
1939.263887
 11
2591.749203
 21
1939.263887
  0
LINE
  8
CSLAYER1
  6
DASHED
 62
     5
 10
2591.749203
 20
1946.463887
 11
2591.749203
 21
1939.263887
  0
LINE
  8
CSLAYER1
  6
DASHED
 62
     5
 10
2567.749203
 20
1938.263887
 11
2566.749203
 21
1939.263887
  0
LINE
  8
CSLAYER1
  6
DASHED
 62
     5
 10
2590.749203
 20
1938.263887
 11
2591.749203
 21
1939.263887
  0
POINT
  8
CSLAYER1
 62
     5
 10
2590.749203
 20
1956.263887
  0
ARC
  8
CSLAYER1
  6
DASHED
 62
     5
 10
3048.860912
 20
1956.263887
 40
18.500000
 50
211.987196
 51
328.012804
  0
ARC
  8
CSLAYER1
  6
DASHED
 62
     5
 10
3048.860912
 20
1956.263887
 40
18.500000
 50
328.012804
 51
360.000000
  0
CIRCLE
  8
CSLAYER1
  6
DASHED
 62
     5
 10
3048.860912
 20
1956.263887
 40
6.000000
  0
LINE
  8
CSLAYER1
  6
DASHED
 62
     5
 10
2569.688310
 20
1956.263887
 11
2611.678618
 21
1956.263887
  0
LINE
  8
CSLAYER1
  6
DASHED
 62
     5
 10
3026.186430
 20
1956.263887
 11
3073.157762
 21
1956.263887
  0
LINE
  8
CSLAYER1
  6
DASHED
 62
     5
 10
2590.749203
 20
768.604575
 11
3334.689036
 21
863.754575
  0
LINE
  8
CSLAYER1
  6
DASHED
 62
     5
 10
3334.689036
 20
768.604575
 11
2590.749203
 21
863.754575
  0
ENDBLK
  8
0
  0
BLOCK
  8
CSLAYER1
  2
BLKF0002
 70
   64
 10
0.0
 20
0.0
 30
0.0
  0
LINE
  8
CSLAYER1
  6
CONTINUOUS
 62
     3
 10
3443.749203
 20
1946.463887
 11
3443.749203
 21
1991.463887
  0
ARC
  8
CSLAYER1
  6
DASHED
 62
     5
 10
3048.860912
 20
1956.263887
 40
18.500000
 50
0.000000
 51
211.987196
  0
LINE
  8
CSLAYER1
  6
CENTER
 62
     5
 10
2590.749203
 20
1977.566603
 11
2590.749203
 21
1934.762529
  0
LINE
  8
CSLAYER1
  6
CENTER
 62
     5
 10
3048.860912
 20
1979.679519
 11
3048.860912
 21
1933.173250
  0
LINE
  8
CSLAYER1
  6
CONTINUOUS
 62
     3
 10
2493.749203
 20
1991.463887
 11
3443.749203
 21
1991.463887
  0
LINE
  8
CSLAYER1
  6
CONTINUOUS
 62
     3
 10
2493.749203
 20
1946.463887
 11
3443.749203
 21
1946.463887
  0
LINE
  8
CSLAYER1
  6
CONTINUOUS
 62
     3
 10
2493.749203
 20
1991.463887
 11
2493.749203
 21
1946.463887
  0
ENDBLK
  8
0
  0
BLOCK
  8
CSLAYER1
  2
BLKF0003
 70
   64
 10
0.0
 20
0.0
 30
0.0
  0
LINE
  8
CSLAYER1
  6
PHANTOM
 62
     5
 10
3443.749203
 20
949.104575
 11
3443.749203
 21
994.104575
  0
ARC
  8
CSLAYER1
  6
PHANTOM
 62
     5
 10
3048.860912
 20
958.904575
 40
18.500000
 50
0.000000
 51
211.987196
  0
LINE
  8
CSLAYER1
  6
PHANTOM
 62
     5
 10
2590.749203
 20
980.207292
 11
2590.749203
 21
937.403217
  0
LINE
  8
CSLAYER1
  6
PHANTOM
 62
     5
 10
3048.860912
 20
982.320207
 11
3048.860912
 21
935.813938
  0
LINE
  8
CSLAYER1
  6
PHANTOM
 62
     5
 10
2493.749203
 20
994.104575
 11
3443.749203
 21
994.104575
  0
LINE
  8
CSLAYER1
  6
PHANTOM
 62
     5
 10
2493.749203
 20
949.104575
 11
3443.749203
 21
949.104575
  0
LINE
  8
CSLAYER1
  6
PHANTOM
 62
     5
 10
2493.749203
 20
994.104575
 11
2493.749203
 21
949.104575
  0
ENDBLK
  8
0
  0
BLOCK
  8
CSLAYER1
  2
BLKF0004
 70
   64
 10
0.0
 20
0.0
 30
0.0
  0
LINE
  8
CSLAYER1
  6
DASHED
 62
     5
 10
1370.472870
 20
1659.349059
 11
1760.472870
 21
1659.349059
  0
LINE
  8
CSLAYER1
  6
DASHED
 62
     5
 10
1527.472870
 20
1472.258760
 11
1603.472870
 21
1472.258760
  0
LINE
  8
CSLAYER1
  6
DASHED
 62
     5
 10
1373.013549
 20
1362.434231
 11
1757.932190
 21
1362.434231
  0
LINE
  8
CSLAYER1
  6
DASHED
 62
     5
 10
1409.472870
 20
1031.133545
 11
1721.472870
 21
1031.133545
  0
LINE
  8
CSLAYER1
  6
DASHED
 62
     5
 10
1721.472870
 20
794.104575
 11
1721.472870
 21
1946.463887
  0
LINE
  8
CSLAYER1
  6
DASHED
 62
     5
 10
1734.472870
 20
794.104575
 11
1734.472870
 21
1946.463887
  0
LINE
  8
CSLAYER1
  6
DASHED
 62
     5
 10
1730.472870
 20
794.104575
 11
1730.472870
 21
1946.463887
  0
LINE
  8
CSLAYER1
  6
DASHED
 62
     5
 10
1743.472870
 20
794.104575
 11
1743.472870
 21
1946.463887
  0
LINE
  8
CSLAYER1
  6
DASHED
 62
     5
 10
1799.472870
 20
794.104575
 11
1799.472870
 21
940.904575
  0
LINE
  8
CSLAYER1
  6
DASHED
 62
     5
 10
1743.472870
 20
1065.519403
 11
1743.472870
 21
1056.519403
  0
LINE
  8
CSLAYER1
  6
DASHED
 62
     5
 10
1744.472870
 20
1077.519403
 11
1744.472870
 21
1053.519403
  0
LINE
  8
CSLAYER1
  6
DASHED
 62
     5
 10
1760.472870
 20
1070.719403
 11
1760.472870
 21
1060.319403
  0
LINE
  8
CSLAYER1
  6
DASHED
 62
     5
 10
1744.472870
 20
1057.519403
 11
1743.472870
 21
1056.519403
  0
LINE
  8
CSLAYER1
  6
DASHED
 62
     5
 10
1746.772870
 20
1077.519403
 11
1746.772870
 21
1053.519403
  0
LINE
  8
CSLAYER1
  6
DASHED
 62
     5
 10
1744.472870
 20
1053.519403
 11
1746.772870
 21
1053.519403
  0
LINE
  8
CSLAYER1
  6
DASHED
 62
     5
 10
1749.772870
 20
1076.489058
 11
1749.772870
 21
1054.549748
  0
LINE
  8
CSLAYER1
  6
DASHED
 62
     5
 10
1746.772870
 20
1054.769403
 11
1749.772870
 21
1054.769403
  0
LINE
  8
CSLAYER1
  6
DASHED
 62
     5
 10
1759.772870
 20
1065.519403
 11
1759.772870
 21
1056.019403
  0
LINE
  8
CSLAYER1
  6
DASHED
 62
     5
 10
1758.924364
 20
1054.549748
 11
1749.772870
 21
1054.549748
  0
LINE
  8
CSLAYER1
  6
DASHED
 62
     5
 10
1758.924364
 20
1060.034575
 11
1749.772870
 21
1060.034575
  0
LINE
  8
CSLAYER1
  6
DASHED
 62
     5
 10
1759.772870
 20
1056.019403
 11
1758.924364
 21
1054.549748
  0
ARC
  8
CSLAYER1
  6
DASHED
 62
     5
 10
1741.621375
 20
1065.519403
 40
18.151494
 50
-17.587954
 51
0.000000
  0
ARC
  8
CSLAYER1
  6
DASHED
 62
     5
 10
1754.919614
 20
1057.292162
 40
4.853746
 50
-25.597034
 51
34.402966
  0
LINE
  8
CSLAYER1
  6
DASHED
 62
     5
 10
1759.772870
 20
1065.519403
 11
1759.772870
 21
1075.019403
  0
LINE
  8
CSLAYER1
  6
DASHED
 62
     5
 10
1758.924364
 20
1076.489058
 11
1749.772870
 21
1076.489058
  0
LINE
  8
CSLAYER1
  6
DASHED
 62
     5
 10
1758.924364
 20
1071.004230
 11
1749.772870
 21
1071.004230
  0
LINE
  8
CSLAYER1
  6
DASHED
 62
     5
 10
1759.772870
 20
1075.019403
 11
1758.924364
 21
1076.489058
  0
ARC
  8
CSLAYER1
  6
DASHED
 62
     5
 10
1741.621375
 20
1065.519403
 40
18.151494
 50
-0.000000
 51
17.587954
  0
ARC
  8
CSLAYER1
  6
DASHED
 62
     5
 10
1754.919614
 20
1073.746644
 40
4.853746
 50
-34.402966
 51
25.597034
  0
LINE
  8
CSLAYER1
  6
DASHED
 62
     5
 10
1743.472870
 20
1065.519403
 11
1743.472870
 21
1074.519403
  0
LINE
  8
CSLAYER1
  6
DASHED
 62
     5
 10
1744.472870
 20
1073.519403
 11
1743.472870
 21
1074.519403
  0
LINE
  8
CSLAYER1
  6
DASHED
 62
     5
 10
1744.472870
 20
1077.519403
 11
1746.772870
 21
1077.519403
  0
LINE
  8
CSLAYER1
  6
DASHED
 62
     5
 10
1746.772870
 20
1076.269403
 11
1749.772870
 21
1076.269403
  0
LINE
  8
CSLAYER1
  6
DASHED
 62
     5
 10
1759.772870
 20
1060.319403
 11
1760.472870
 21
1060.319403
  0
LINE
  8
CSLAYER1
  6
DASHED
 62
     5
 10
1760.472870
 20
1060.319403
 11
1759.772870
 21
1059.519403
  0
LINE
  8
CSLAYER1
  6
DASHED
 62
     5
 10
1759.772870
 20
1070.719403
 11
1760.472870
 21
1070.719403
  0
LINE
  8
CSLAYER1
  6
DASHED
 62
     5
 10
1760.472870
 20
1070.719403
 11
1759.772870
 21
1071.519403
  0
POINT
  8
CSLAYER1
 62
     5
 10
1743.472870
 20
1065.519403
  0
LINE
  8
CSLAYER1
  6
DASHED
 62
     5
 10
1743.472870
 20
1659.349059
 11
1743.472870
 21
1650.349059
  0
LINE
  8
CSLAYER1
  6
DASHED
 62
     5
 10
1744.472870
 20
1671.349059
 11
1744.472870
 21
1647.349059
  0
LINE
  8
CSLAYER1
  6
DASHED
 62
     5
 10
1760.472870
 20
1664.549059
 11
1760.472870
 21
1654.149059
  0
LINE
  8
CSLAYER1
  6
DASHED
 62
     5
 10
1744.472870
 20
1651.349059
 11
1743.472870
 21
1650.349059
  0
LINE
  8
CSLAYER1
  6
DASHED
 62
     5
 10
1746.772870
 20
1671.349059
 11
1746.772870
 21
1647.349059
  0
LINE
  8
CSLAYER1
  6
DASHED
 62
     5
 10
1744.472870
 20
1647.349059
 11
1746.772870
 21
1647.349059
  0
LINE
  8
CSLAYER1
  6
DASHED
 62
     5
 10
1749.772870
 20
1670.318714
 11
1749.772870
 21
1648.379404
  0
LINE
  8
CSLAYER1
  6
DASHED
 62
     5
 10
1746.772870
 20
1648.599059
 11
1749.772870
 21
1648.599059
  0
LINE
  8
CSLAYER1
  6
DASHED
 62
     5
 10
1759.772870
 20
1659.349059
 11
1759.772870
 21
1649.849059
  0
LINE
  8
CSLAYER1
  6
DASHED
 62
     5
 10
1758.924364
 20
1648.379404
 11
1749.772870
 21
1648.379404
  0
LINE
  8
CSLAYER1
  6
DASHED
 62
     5
 10
1758.924364
 20
1653.864231
 11
1749.772870
 21
1653.864231
  0
LINE
  8
CSLAYER1
  6
DASHED
 62
     5
 10
1759.772870
 20
1649.849059
 11
1758.924364
 21
1648.379404
  0
ARC
  8
CSLAYER1
  6
DASHED
 62
     5
 10
1741.621375
 20
1659.349059
 40
18.151494
 50
-17.587954
 51
0.000000
  0
ARC
  8
CSLAYER1
  6
DASHED
 62
     5
 10
1754.919614
 20
1651.121817
 40
4.853746
 50
-25.597034
 51
34.402966
  0
LINE
  8
CSLAYER1
  6
DASHED
 62
     5
 10
1759.772870
 20
1659.349059
 11
1759.772870
 21
1668.849059
  0
LINE
  8
CSLAYER1
  6
DASHED
 62
     5
 10
1758.924364
 20
1670.318714
 11
1749.772870
 21
1670.318714
  0
LINE
  8
CSLAYER1
  6
DASHED
 62
     5
 10
1758.924364
 20
1664.833886
 11
1749.772870
 21
1664.833886
  0
LINE
  8
CSLAYER1
  6
DASHED
 62
     5
 10
1759.772870
 20
1668.849059
 11
1758.924364
 21
1670.318714
  0
ARC
  8
CSLAYER1
  6
DASHED
 62
     5
 10
1741.621375
 20
1659.349059
 40
18.151494
 50
-0.000000
 51
17.587954
  0
ARC
  8
CSLAYER1
  6
DASHED
 62
     5
 10
1754.919614
 20
1667.576300
 40
4.853746
 50
-34.402966
 51
25.597034
  0
LINE
  8
CSLAYER1
  6
DASHED
 62
     5
 10
1743.472870
 20
1659.349059
 11
1743.472870
 21
1668.349059
  0
LINE
  8
CSLAYER1
  6
DASHED
 62
     5
 10
1744.472870
 20
1667.349059
 11
1743.472870
 21
1668.349059
  0
LINE
  8
CSLAYER1
  6
DASHED
 62
     5
 10
1744.472870
 20
1671.349059
 11
1746.772870
 21
1671.349059
  0
LINE
  8
CSLAYER1
  6
DASHED
 62
     5
 10
1746.772870
 20
1670.099059
 11
1749.772870
 21
1670.099059
  0
LINE
  8
CSLAYER1
  6
DASHED
 62
     5
 10
1759.772870
 20
1654.149059
 11
1760.472870
 21
1654.149059
  0
LINE
  8
CSLAYER1
  6
DASHED
 62
     5
 10
1760.472870
 20
1654.149059
 11
1759.772870
 21
1653.349059
  0
LINE
  8
CSLAYER1
  6
DASHED
 62
     5
 10
1759.772870
 20
1664.549059
 11
1760.472870
 21
1664.549059
  0
LINE
  8
CSLAYER1
  6
DASHED
 62
     5
 10
1760.472870
 20
1664.549059
 11
1759.772870
 21
1665.349059
  0
POINT
  8
CSLAYER1
 62
     5
 10
1743.472870
 20
1659.349059
  0
LINE
  8
CSLAYER1
  6
DASHED
 62
     5
 10
1319.672870
 20
1938.263887
 11
1342.672870
 21
1938.263887
  0
LINE
  8
CSLAYER1
  6
DASHED
 62
     5
 10
1318.672870
 20
1939.263887
 11
1343.672870
 21
1939.263887
  0
LINE
  8
CSLAYER1
  6
DASHED
 62
     5
 10
1319.672870
 20
1938.263887
 11
1318.672870
 21
1939.263887
  0
LINE
  8
CSLAYER1
  6
DASHED
 62
     5
 10
1342.672870
 20
1938.263887
 11
1343.672870
 21
1939.263887
  0
LINE
  8
CSLAYER1
  6
DASHED
 62
     5
 10
1343.672870
 20
1946.463887
 11
1343.672870
 21
1939.263887
  0
LINE
  8
CSLAYER1
  6
DASHED
 62
     5
 10
1318.672870
 20
1946.463887
 11
1318.672870
 21
1939.263887
  0
LINE
  8
CSLAYER1
  6
DASHED
 62
     5
 10
1331.172870
 20
1938.263887
 11
1331.172870
 21
1946.463887
  0
LINE
  8
CSLAYER1
  6
DASHED
 62
     5
 10
1811.272870
 20
1938.263887
 11
1788.272870
 21
1938.263887
  0
LINE
  8
CSLAYER1
  6
DASHED
 62
     5
 10
1812.272870
 20
1939.263887
 11
1787.272870
 21
1939.263887
  0
LINE
  8
CSLAYER1
  6
DASHED
 62
     5
 10
1811.272870
 20
1938.263887
 11
1812.272870
 21
1939.263887
  0
LINE
  8
CSLAYER1
  6
DASHED
 62
     5
 10
1788.272870
 20
1938.263887
 11
1787.272870
 21
1939.263887
  0
LINE
  8
CSLAYER1
  6
DASHED
 62
     5
 10
1787.272870
 20
1946.463887
 11
1787.272870
 21
1939.263887
  0
LINE
  8
CSLAYER1
  6
DASHED
 62
     5
 10
1812.272870
 20
1946.463887
 11
1812.272870
 21
1939.263887
  0
LINE
  8
CSLAYER1
  6
DASHED
 62
     5
 10
1799.772870
 20
1938.263887
 11
1799.772870
 21
1946.463887
  0
LINE
  8
CSLAYER1
  6
DASHED
 62
     5
 10
1789.972870
 20
915.104575
 11
1808.972870
 21
915.104575
  0
LINE
  8
CSLAYER1
  6
DASHED
 62
     5
 10
1789.972870
 20
925.104575
 11
1808.972870
 21
925.104575
  0
LINE
  8
CSLAYER1
  6
DASHED
 62
     5
 10
1788.503214
 20
924.256069
 11
1788.503214
 21
915.953081
  0
LINE
  8
CSLAYER1
  6
DASHED
 62
     5
 10
1793.988042
 20
924.256069
 11
1793.988042
 21
915.953081
  0
LINE
  8
CSLAYER1
  6
DASHED
 62
     5
 10
1789.972870
 20
925.104575
 11
1788.503214
 21
924.256069
  0
ARC
  8
CSLAYER1
  6
DASHED
 62
     5
 10
1799.472870
 20
906.953081
 40
18.151494
 50
90.000000
 51
107.587954
  0
ARC
  8
CSLAYER1
  6
DASHED
 62
     5
 10
1791.245628
 20
920.262183
 40
4.844787
 50
55.524449
 51
115.524449
  0
LINE
  8
CSLAYER1
  6
DASHED
 62
     5
 10
1810.442525
 20
924.256069
 11
1810.442525
 21
915.953081
  0
LINE
  8
CSLAYER1
  6
DASHED
 62
     5
 10
1804.957697
 20
924.256069
 11
1804.957697
 21
915.953081
  0
LINE
  8
CSLAYER1
  6
DASHED
 62
     5
 10
1808.972870
 20
925.104575
 11
1810.442525
 21
924.256069
  0
ARC
  8
CSLAYER1
  6
DASHED
 62
     5
 10
1799.472870
 20
906.953081
 40
18.151494
 50
72.412046
 51
90.000000
  0
ARC
  8
CSLAYER1
  6
DASHED
 62
     5
 10
1807.700111
 20
920.262183
 40
4.844787
 50
64.475551
 51
124.475551
  0
LINE
  8
CSLAYER1
  6
DASHED
 62
     5
 10
1789.972870
 20
915.104575
 11
1808.972870
 21
915.104575
  0
LINE
  8
CSLAYER1
  6
DASHED
 62
     5
 10
1789.972870
 20
915.104575
 11
1788.503214
 21
915.953081
  0
ARC
  8
CSLAYER1
  6
DASHED
 62
     5
 10
1799.472870
 20
933.256069
 40
18.151494
 50
252.412046
 51
270.000000
  0
ARC
  8
CSLAYER1
  6
DASHED
 62
     5
 10
1791.245628
 20
919.946968
 40
4.844787
 50
244.475551
 51
304.475551
  0
LINE
  8
CSLAYER1
  6
DASHED
 62
     5
 10
1808.972870
 20
915.104575
 11
1810.442525
 21
915.953081
  0
ARC
  8
CSLAYER1
  6
DASHED
 62
     5
 10
1799.472870
 20
933.256069
 40
18.151494
 50
270.000000
 51
287.587954
  0
ARC
  8
CSLAYER1
  6
DASHED
 62
     5
 10
1807.700111
 20
919.946968
 40
4.844787
 50
235.524449
 51
295.524449
  0
POINT
  8
CSLAYER1
 62
     5
 10
1799.472870
 20
925.104575
  0
LINE
  8
CSLAYER1
  6
DASHED
 62
     5
 10
1809.472870
 20
794.104575
 11
1809.472870
 21
915.104575
  0
LINE
  8
CSLAYER1
  6
DASHED
 62
     5
 10
1789.472870
 20
794.104575
 11
1789.472870
 21
915.104575
  0
LINE
  8
CSLAYER1
  6
DASHED
 62
     5
 10
1789.972870
 20
940.904575
 11
1808.972870
 21
940.904575
  0
LINE
  8
CSLAYER1
  6
DASHED
 62
     5
 10
1788.503214
 20
932.904575
 11
1810.442525
 21
932.904575
  0
LINE
  8
CSLAYER1
  6
DASHED
 62
     5
 10
1788.503214
 20
940.056069
 11
1788.503214
 21
932.904575
  0
LINE
  8
CSLAYER1
  6
DASHED
 62
     5
 10
1793.988042
 20
940.056069
 11
1793.988042
 21
932.904575
  0
LINE
  8
CSLAYER1
  6
DASHED
 62
     5
 10
1789.972870
 20
940.904575
 11
1788.503214
 21
940.056069
  0
ARC
  8
CSLAYER1
  6
DASHED
 62
     5
 10
1799.472870
 20
922.753081
 40
18.151494
 50
90.000000
 51
107.587954
  0
ARC
  8
CSLAYER1
  6
DASHED
 62
     5
 10
1791.245628
 20
936.062183
 40
4.844787
 50
55.524449
 51
115.524449
  0
LINE
  8
CSLAYER1
  6
DASHED
 62
     5
 10
1810.442525
 20
940.056069
 11
1810.442525
 21
932.904575
  0
LINE
  8
CSLAYER1
  6
DASHED
 62
     5
 10
1804.957697
 20
940.056069
 11
1804.957697
 21
932.904575
  0
LINE
  8
CSLAYER1
  6
DASHED
 62
     5
 10
1808.972870
 20
940.904575
 11
1810.442525
 21
940.056069
  0
ARC
  8
CSLAYER1
  6
DASHED
 62
     5
 10
1799.472870
 20
922.753081
 40
18.151494
 50
72.412046
 51
90.000000
  0
ARC
  8
CSLAYER1
  6
DASHED
 62
     5
 10
1807.700111
 20
936.062183
 40
4.844787
 50
64.475551
 51
124.475551
  0
LINE
  8
CSLAYER1
  6
DASHED
 62
     5
 10
1793.472870
 20
932.904575
 11
1794.472870
 21
931.172524
  0
LINE
  8
CSLAYER1
  6
DASHED
 62
     5
 10
1805.472870
 20
932.904575
 11
1804.472870
 21
931.172524
  0
POINT
  8
CSLAYER1
 62
     5
 10
1799.472870
 20
932.904575
  0
LINE
  8
CSLAYER1
  6
DASHED
 62
     5
 10
1793.472870
 20
932.904575
 11
1793.472870
 21
925.104575
  0
LINE
  8
CSLAYER1
  6
DASHED
 62
     5
 10
1794.472870
 20
931.172524
 11
1794.472870
 21
925.104575
  0
LINE
  8
CSLAYER1
  6
DASHED
 62
     5
 10
1804.472870
 20
931.172524
 11
1804.472870
 21
925.104575
  0
LINE
  8
CSLAYER1
  6
DASHED
 62
     5
 10
1805.472870
 20
932.904575
 11
1805.472870
 21
925.104575
  0
LINE
  8
CSLAYER1
  6
DASHED
 62
     5
 10
1730.972870
 20
1644.349059
 11
1733.972870
 21
1644.349059
  0
LINE
  8
CSLAYER1
  6
DASHED
 62
     5
 10
1730.972870
 20
1644.349059
 11
1730.972870
 21
1674.349059
  0
LINE
  8
CSLAYER1
  6
DASHED
 62
     5
 10
1733.972870
 20
1644.349059
 11
1733.972870
 21
1674.349059
  0
LINE
  8
CSLAYER1
  6
DASHED
 62
     5
 10
1730.972870
 20
1674.349059
 11
1733.972870
 21
1674.349059
  0
LINE
  8
CSLAYER1
  6
DASHED
 62
     5
 10
1565.472870
 20
1668.349059
 11
1721.472870
 21
1668.349059
  0
LINE
  8
CSLAYER1
  6
DASHED
 62
     5
 10
1565.472870
 20
1650.349059
 11
1721.472870
 21
1650.349059
  0
LINE
  8
CSLAYER1
  6
DASHED
 62
     5
 10
1730.972870
 20
1050.519403
 11
1733.972870
 21
1050.519403
  0
LINE
  8
CSLAYER1
  6
DASHED
 62
     5
 10
1730.972870
 20
1050.519403
 11
1730.972870
 21
1080.519403
  0
LINE
  8
CSLAYER1
  6
DASHED
 62
     5
 10
1733.972870
 20
1050.519403
 11
1733.972870
 21
1080.519403
  0
LINE
  8
CSLAYER1
  6
DASHED
 62
     5
 10
1730.972870
 20
1080.519403
 11
1733.972870
 21
1080.519403
  0
LINE
  8
CSLAYER1
  6
DASHED
 62
     5
 10
1565.472870
 20
1074.519403
 11
1721.472870
 21
1074.519403
  0
LINE
  8
CSLAYER1
  6
DASHED
 62
     5
 10
1730.972870
 20
1347.434231
 11
1733.972870
 21
1347.434231
  0
LINE
  8
CSLAYER1
  6
DASHED
 62
     5
 10
1730.972870
 20
1347.434231
 11
1730.972870
 21
1377.434231
  0
LINE
  8
CSLAYER1
  6
DASHED
 62
     5
 10
1733.972870
 20
1347.434231
 11
1733.972870
 21
1377.434231
  0
LINE
  8
CSLAYER1
  6
DASHED
 62
     5
 10
1730.972870
 20
1377.434231
 11
1733.972870
 21
1377.434231
  0
LINE
  8
CSLAYER1
  6
DASHED
 62
     5
 10
1527.472870
 20
1385.163133
 11
1527.472870
 21
1492.258760
  0
LINE
  8
CSLAYER1
  6
DASHED
 62
     5
 10
1536.472870
 20
1385.163133
 11
1536.472870
 21
1492.258760
  0
LINE
  8
CSLAYER1
  6
DASHED
 62
     5
 10
1594.472870
 20
1385.163133
 11
1594.472870
 21
1492.258760
  0
LINE
  8
CSLAYER1
  6
DASHED
 62
     5
 10
1603.472870
 20
1385.163133
 11
1603.472870
 21
1492.258760
  0
POINT
  8
CSLAYER1
 62
     5
 10
1565.472870
 20
1472.258760
  0
LINE
  8
CSLAYER1
  6
DASHED
 62
     5
 10
1536.472870
 20
1492.258760
 11
1527.472870
 21
1492.258760
  0
LINE
  8
CSLAYER1
  6
DASHED
 62
     5
 10
1551.472870
 20
1454.758760
 11
1551.472870
 21
1489.758760
  0
LINE
  8
CSLAYER1
  6
DASHED
 62
     5
 10
1551.472870
 20
1489.758760
 11
1536.472870
 21
1489.758760
  0
LINE
  8
CSLAYER1
  6
DASHED
 62
     5
 10
1551.472870
 20
1454.758760
 11
1536.472870
 21
1454.758760
  0
LINE
  8
CSLAYER1
  6
DASHED
 62
     5
 10
1555.472870
 20
1484.758760
 11
1551.472870
 21
1484.758760
  0
LINE
  8
CSLAYER1
  6
DASHED
 62
     5
 10
1555.472870
 20
1459.758760
 11
1551.472870
 21
1459.758760
  0
LINE
  8
CSLAYER1
  6
DASHED
 62
     5
 10
1594.472870
 20
1492.258760
 11
1603.472870
 21
1492.258760
  0
LINE
  8
CSLAYER1
  6
DASHED
 62
     5
 10
1579.472870
 20
1454.758760
 11
1579.472870
 21
1489.758760
  0
LINE
  8
CSLAYER1
  6
DASHED
 62
     5
 10
1579.472870
 20
1489.758760
 11
1594.472870
 21
1489.758760
  0
LINE
  8
CSLAYER1
  6
DASHED
 62
     5
 10
1579.472870
 20
1454.758760
 11
1594.472870
 21
1454.758760
  0
LINE
  8
CSLAYER1
  6
DASHED
 62
     5
 10
1575.472870
 20
1484.758760
 11
1579.472870
 21
1484.758760
  0
LINE
  8
CSLAYER1
  6
DASHED
 62
     5
 10
1575.472870
 20
1459.758760
 11
1579.472870
 21
1459.758760
  0
LINE
  8
CSLAYER1
  6
DASHED
 62
     5
 10
1555.472870
 20
1496.301755
 11
1575.472870
 21
1496.301755
  0
LINE
  8
CSLAYER1
  6
DASHED
 62
     5
 10
1536.472870
 20
1402.919552
 11
1594.472870
 21
1402.919552
  0
LINE
  8
CSLAYER1
  6
DASHED
 62
     5
 10
1502.961585
 20
1342.419552
 11
1721.472870
 21
1342.419552
  0
LINE
  8
CSLAYER1
  6
DASHED
 62
     5
 10
1527.472870
 20
1385.163133
 11
1536.472870
 21
1385.163133
  0
LINE
  8
CSLAYER1
  6
DASHED
 62
     5
 10
1603.472870
 20
1402.919552
 11
1712.472870
 21
1402.919552
  0
LINE
  8
CSLAYER1
  6
DASHED
 62
     5
 10
1594.472870
 20
1385.163133
 11
1603.472870
 21
1385.163133
  0
LINE
  8
CSLAYER1
  6
DASHED
 62
     5
 10
1555.472870
 20
1439.451265
 11
1555.472870
 21
1496.301755
  0
LINE
  8
CSLAYER1
  6
DASHED
 62
     5
 10
1575.472870
 20
1439.451265
 11
1575.472870
 21
1496.301755
  0
LINE
  8
CSLAYER1
  6
DASHED
 62
     5
 10
1712.472870
 20
1531.131620
 11
1721.472870
 21
1531.131620
  0
LINE
  8
CSLAYER1
  6
DASHED
 62
     5
 10
1565.472870
 20
1061.383545
 11
1721.472870
 21
1061.383545
  0
LINE
  8
CSLAYER1
  6
DASHED
 62
     5
 10
1565.472870
 20
1000.883545
 11
1721.472870
 21
1000.883545
  0
LINE
  8
CSLAYER1
  6
DASHED
 62
     5
 10
1657.472870
 20
1092.213454
 11
1666.472870
 21
1092.213454
  0
LINE
  8
CSLAYER1
  6
DASHED
 62
     5
 10
1657.472870
 20
1074.519403
 11
1657.472870
 21
1092.213454
  0
LINE
  8
CSLAYER1
  6
DASHED
 62
     5
 10
1666.472870
 20
1074.519403
 11
1666.472870
 21
1092.213454
  0
LINE
  8
CSLAYER1
  6
DASHED
 62
     5
 10
1656.472870
 20
1086.410079
 11
1656.472870
 21
1074.519403
  0
LINE
  8
CSLAYER1
  6
DASHED
 62
     5
 10
1667.472870
 20
1074.519403
 11
1667.472870
 21
1083.910079
  0
LINE
  8
CSLAYER1
  6
DASHED
 62
     5
 10
1673.472870
 20
1074.519403
 11
1673.472870
 21
1083.410079
  0
LINE
  8
CSLAYER1
  6
DASHED
 62
     5
 10
1672.472870
 20
1084.410079
 11
1667.972870
 21
1084.410079
  0
LINE
  8
CSLAYER1
  6
DASHED
 62
     5
 10
1673.472870
 20
1083.410079
 11
1672.472870
 21
1084.410079
  0
LINE
  8
CSLAYER1
  6
DASHED
 62
     5
 10
1667.972870
 20
1084.410079
 11
1667.472870
 21
1083.910079
  0
LINE
  8
CSLAYER1
  6
DASHED
 62
     5
 10
1672.472870
 20
1084.410079
 11
1672.472870
 21
1074.519403
  0
LINE
  8
CSLAYER1
  6
DASHED
 62
     5
 10
1667.972870
 20
1084.410079
 11
1667.972870
 21
1074.519403
  0
LINE
  8
CSLAYER1
  6
DASHED
 62
     5
 10
1667.472870
 20
1080.410079
 11
1666.472870
 21
1080.410079
  0
LINE
  8
CSLAYER1
  6
DASHED
 62
     5
 10
1657.472870
 20
1080.410079
 11
1656.472870
 21
1080.410079
  0
LINE
  8
CSLAYER1
  6
DASHED
 62
     5
 10
1565.472870
 20
994.292756
 11
1721.472870
 21
994.292756
  0
LINE
  8
CSLAYER1
  6
DASHED
 62
     5
 10
1468.050127
 20
898.776483
 11
1633.472870
 21
898.776483
  0
LINE
  8
CSLAYER1
  6
DASHED
 62
     5
 10
1730.472870
 20
994.292756
 11
1734.472870
 21
994.292756
  0
LINE
  8
CSLAYER1
  6
DASHED
 62
     5
 10
1730.472870
 20
898.776483
 11
1734.472870
 21
898.776483
  0
LINE
  8
CSLAYER1
  6
DASHED
 62
     5
 10
1370.472870
 20
1065.519403
 11
1760.472870
 21
1065.519403
  0
LINE
  8
CSLAYER1
  6
DASHED
 62
     5
 10
1712.472870
 20
1342.419552
 11
1712.472870
 21
1531.131620
  0
LINE
  8
CSLAYER1
  6
DASHED
 62
     5
 10
1627.472870
 20
851.929243
 11
1627.472870
 21
898.776483
  0
LINE
  8
CSLAYER1
  6
DASHED
 62
     5
 10
1503.472870
 20
851.929243
 11
1503.472870
 21
898.776483
  0
LINE
  8
CSLAYER1
  6
DASHED
 62
     5
 10
1503.472870
 20
851.929243
 11
1503.708798
 21
848.550646
  0
LINE
  8
CSLAYER1
  6
DASHED
 62
     5
 10
1503.708798
 20
848.550646
 11
1504.414789
 21
845.197763
  0
LINE
  8
CSLAYER1
  6
DASHED
 62
     5
 10
1504.414789
 20
845.197763
 11
1505.050606
 21
843.404575
  0
LINE
  8
CSLAYER1
  6
DASHED
 62
     5
 10
1620.472870
 20
834.115841
 11
1621.663952
 21
835.546427
  0
LINE
  8
CSLAYER1
  6
DASHED
 62
     5
 10
1621.663952
 20
835.546427
 11
1623.733812
 21
838.670817
  0
LINE
  8
CSLAYER1
  6
DASHED
 62
     5
 10
1623.733812
 20
838.670817
 11
1625.360271
 21
841.896111
  0
LINE
  8
CSLAYER1
  6
DASHED
 62
     5
 10
1625.360271
 20
841.896111
 11
1626.530950
 21
845.197763
  0
LINE
  8
CSLAYER1
  6
DASHED
 62
     5
 10
1626.530950
 20
845.197763
 11
1627.236941
 21
848.550646
  0
LINE
  8
CSLAYER1
  6
DASHED
 62
     5
 10
1627.236941
 20
848.550646
 11
1627.472870
 21
851.929243
  0
LINE
  8
CSLAYER1
  6
DASHED
 62
     5
 10
1527.322870
 20
1124.249999
 11
1527.322870
 21
1328.685639
  0
LINE
  8
CSLAYER1
  6
DASHED
 62
     5
 10
1527.322870
 20
1124.249999
 11
1527.468042
 21
1122.171073
  0
LINE
  8
CSLAYER1
  6
DASHED
 62
     5
 10
1527.468042
 20
1122.171073
 11
1527.902454
 21
1120.107968
  0
LINE
  8
CSLAYER1
  6
DASHED
 62
     5
 10
1527.902454
 20
1120.107968
 11
1528.622799
 21
1118.076387
  0
LINE
  8
CSLAYER1
  6
DASHED
 62
     5
 10
1528.622799
 20
1118.076387
 11
1529.623596
 21
1116.091790
  0
LINE
  8
CSLAYER1
  6
DASHED
 62
     5
 10
1529.623596
 20
1116.091790
 11
1530.897227
 21
1114.169283
  0
LINE
  8
CSLAYER1
  6
DASHED
 62
     5
 10
1530.897227
 20
1114.169283
 11
1532.434000
 21
1112.323496
  0
LINE
  8
CSLAYER1
  6
DASHED
 62
     5
 10
1532.434000
 20
1112.323496
 11
1534.222219
 21
1110.568476
  0
LINE
  8
CSLAYER1
  6
DASHED
 62
     5
 10
1534.222219
 20
1110.568476
 11
1536.248274
 21
1108.917582
  0
LINE
  8
CSLAYER1
  6
DASHED
 62
     5
 10
1536.248274
 20
1108.917582
 11
1538.496746
 21
1107.383376
  0
LINE
  8
CSLAYER1
  6
DASHED
 62
     5
 10
1538.496746
 20
1107.383376
 11
1540.950522
 21
1105.977536
  0
LINE
  8
CSLAYER1
  6
DASHED
 62
     5
 10
1540.950522
 20
1105.977536
 11
1543.590929
 21
1104.710760
  0
LINE
  8
CSLAYER1
  6
DASHED
 62
     5
 10
1543.590929
 20
1104.710760
 11
1546.397870
 21
1103.592689
  0
LINE
  8
CSLAYER1
  6
DASHED
 62
     5
 10
1546.397870
 20
1103.592689
 11
1549.349983
 21
1102.631833
  0
LINE
  8
CSLAYER1
  6
DASHED
 62
     5
 10
1549.349983
 20
1102.631833
 11
1552.424801
 21
1101.835504
  0
LINE
  8
CSLAYER1
  6
DASHED
 62
     5
 10
1552.424801
 20
1101.835504
 11
1555.598923
 21
1101.209764
  0
LINE
  8
CSLAYER1
  6
DASHED
 62
     5
 10
1555.598923
 20
1101.209764
 11
1558.848192
 21
1100.759373
  0
LINE
  8
CSLAYER1
  6
DASHED
 62
     5
 10
1558.848192
 20
1100.759373
 11
1562.147878
 21
1100.487760
  0
LINE
  8
CSLAYER1
  6
DASHED
 62
     5
 10
1562.147878
 20
1100.487760
 11
1565.472870
 21
1100.396992
  0
LINE
  8
CSLAYER1
  6
DASHED
 62
     5
 10
1565.472870
 20
1100.396992
 11
1568.797861
 21
1100.487760
  0
LINE
  8
CSLAYER1
  6
DASHED
 62
     5
 10
1568.797861
 20
1100.487760
 11
1572.097548
 21
1100.759373
  0
LINE
  8
CSLAYER1
  6
DASHED
 62
     5
 10
1572.097548
 20
1100.759373
 11
1575.346816
 21
1101.209764
  0
LINE
  8
CSLAYER1
  6
DASHED
 62
     5
 10
1575.346816
 20
1101.209764
 11
1578.520938
 21
1101.835504
  0
LINE
  8
CSLAYER1
  6
DASHED
 62
     5
 10
1578.520938
 20
1101.835504
 11
1581.595756
 21
1102.631833
  0
LINE
  8
CSLAYER1
  6
DASHED
 62
     5
 10
1581.595756
 20
1102.631833
 11
1584.547870
 21
1103.592689
  0
LINE
  8
CSLAYER1
  6
DASHED
 62
     5
 10
1584.547870
 20
1103.592689
 11
1587.354811
 21
1104.710760
  0
LINE
  8
CSLAYER1
  6
DASHED
 62
     5
 10
1587.354811
 20
1104.710760
 11
1589.995217
 21
1105.977536
  0
LINE
  8
CSLAYER1
  6
DASHED
 62
     5
 10
1589.995217
 20
1105.977536
 11
1592.448993
 21
1107.383376
  0
LINE
  8
CSLAYER1
  6
DASHED
 62
     5
 10
1592.448993
 20
1107.383376
 11
1594.697465
 21
1108.917582
  0
LINE
  8
CSLAYER1
  6
DASHED
 62
     5
 10
1594.697465
 20
1108.917582
 11
1596.723520
 21
1110.568476
  0
LINE
  8
CSLAYER1
  6
DASHED
 62
     5
 10
1596.723520
 20
1110.568476
 11
1598.511739
 21
1112.323496
  0
LINE
  8
CSLAYER1
  6
DASHED
 62
     5
 10
1598.511739
 20
1112.323496
 11
1600.048512
 21
1114.169283
  0
LINE
  8
CSLAYER1
  6
DASHED
 62
     5
 10
1600.048512
 20
1114.169283
 11
1601.322143
 21
1116.091790
  0
LINE
  8
CSLAYER1
  6
DASHED
 62
     5
 10
1601.322143
 20
1116.091790
 11
1602.322940
 21
1118.076387
  0
LINE
  8
CSLAYER1
  6
DASHED
 62
     5
 10
1602.322940
 20
1118.076387
 11
1603.043285
 21
1120.107968
  0
LINE
  8
CSLAYER1
  6
DASHED
 62
     5
 10
1603.043285
 20
1120.107968
 11
1603.477697
 21
1122.171073
  0
LINE
  8
CSLAYER1
  6
DASHED
 62
     5
 10
1603.477697
 20
1122.171073
 11
1603.622870
 21
1124.249999
  0
LINE
  8
CSLAYER1
  6
DASHED
 62
     5
 10
1607.972870
 20
1124.249999
 11
1607.811144
 21
1126.565973
  0
LINE
  8
CSLAYER1
  6
DASHED
 62
     5
 10
1607.811144
 20
1126.565973
 11
1607.327199
 21
1128.864320
  0
LINE
  8
CSLAYER1
  6
DASHED
 62
     5
 10
1607.327199
 20
1128.864320
 11
1606.524717
 21
1131.127549
  0
LINE
  8
CSLAYER1
  6
DASHED
 62
     5
 10
1606.524717
 20
1131.127549
 11
1605.409806
 21
1133.338437
  0
LINE
  8
CSLAYER1
  6
DASHED
 62
     5
 10
1605.409806
 20
1133.338437
 11
1603.990951
 21
1135.480155
  0
LINE
  8
CSLAYER1
  6
DASHED
 62
     5
 10
1603.990951
 20
1135.480155
 11
1603.622870
 21
1135.922250
  0
LINE
  8
CSLAYER1
  6
DASHED
 62
     5
 10
1527.322870
 20
1135.922250
 11
1526.954789
 21
1135.480155
  0
LINE
  8
CSLAYER1
  6
DASHED
 62
     5
 10
1526.954789
 20
1135.480155
 11
1525.535933
 21
1133.338437
  0
LINE
  8
CSLAYER1
  6
DASHED
 62
     5
 10
1525.535933
 20
1133.338437
 11
1524.421022
 21
1131.127549
  0
LINE
  8
CSLAYER1
  6
DASHED
 62
     5
 10
1524.421022
 20
1131.127549
 11
1523.618540
 21
1128.864320
  0
LINE
  8
CSLAYER1
  6
DASHED
 62
     5
 10
1523.618540
 20
1128.864320
 11
1523.134595
 21
1126.565973
  0
LINE
  8
CSLAYER1
  6
DASHED
 62
     5
 10
1523.134595
 20
1126.565973
 11
1522.972870
 21
1124.249999
  0
LINE
  8
CSLAYER1
  6
DASHED
 62
     5
 10
1522.972870
 20
1124.249999
 11
1523.134595
 21
1121.934026
  0
LINE
  8
CSLAYER1
  6
DASHED
 62
     5
 10
1523.134595
 20
1121.934026
 11
1523.618540
 21
1119.635679
  0
LINE
  8
CSLAYER1
  6
DASHED
 62
     5
 10
1523.618540
 20
1119.635679
 11
1524.421022
 21
1117.372449
  0
LINE
  8
CSLAYER1
  6
DASHED
 62
     5
 10
1524.421022
 20
1117.372449
 11
1525.535933
 21
1115.161562
  0
LINE
  8
CSLAYER1
  6
DASHED
 62
     5
 10
1525.535933
 20
1115.161562
 11
1526.954789
 21
1113.019843
  0
LINE
  8
CSLAYER1
  6
DASHED
 62
     5
 10
1526.954789
 20
1113.019843
 11
1528.666790
 21
1110.963593
  0
LINE
  8
CSLAYER1
  6
DASHED
 62
     5
 10
1528.666790
 20
1110.963593
 11
1530.658908
 21
1109.008460
  0
LINE
  8
CSLAYER1
  6
DASHED
 62
     5
 10
1530.658908
 20
1109.008460
 11
1532.915981
 21
1107.169325
  0
LINE
  8
CSLAYER1
  6
DASHED
 62
     5
 10
1532.915981
 20
1107.169325
 11
1535.420831
 21
1105.460183
  0
LINE
  8
CSLAYER1
  6
DASHED
 62
     5
 10
1535.420831
 20
1105.460183
 11
1538.154396
 21
1103.894044
  0
LINE
  8
CSLAYER1
  6
DASHED
 62
     5
 10
1538.154396
 20
1103.894044
 11
1541.095871
 21
1102.482825
  0
LINE
  8
CSLAYER1
  6
DASHED
 62
     5
 10
1541.095871
 20
1102.482825
 11
1544.222870
 21
1101.237268
  0
LINE
  8
CSLAYER1
  6
DASHED
 62
     5
 10
1544.222870
 20
1101.237268
 11
1547.511593
 21
1100.166852
  0
LINE
  8
CSLAYER1
  6
DASHED
 62
     5
 10
1547.511593
 20
1100.166852
 11
1550.937013
 21
1099.279723
  0
LINE
  8
CSLAYER1
  6
DASHED
 62
     5
 10
1550.937013
 20
1099.279723
 11
1554.473060
 21
1098.582633
  0
LINE
  8
CSLAYER1
  6
DASHED
 62
     5
 10
1554.473060
 20
1098.582633
 11
1558.092822
 21
1098.080887
  0
LINE
  8
CSLAYER1
  6
DASHED
 62
     5
 10
1558.092822
 20
1098.080887
 11
1561.768750
 21
1097.778304
  0
LINE
  8
CSLAYER1
  6
DASHED
 62
     5
 10
1561.768750
 20
1097.778304
 11
1565.472870
 21
1097.677187
  0
LINE
  8
CSLAYER1
  6
DASHED
 62
     5
 10
1565.472870
 20
1097.677187
 11
1569.176989
 21
1097.778304
  0
LINE
  8
CSLAYER1
  6
DASHED
 62
     5
 10
1569.176989
 20
1097.778304
 11
1572.852917
 21
1098.080887
  0
LINE
  8
CSLAYER1
  6
DASHED
 62
     5
 10
1572.852917
 20
1098.080887
 11
1576.472679
 21
1098.582633
  0
LINE
  8
CSLAYER1
  6
DASHED
 62
     5
 10
1576.472679
 20
1098.582633
 11
1580.008726
 21
1099.279723
  0
LINE
  8
CSLAYER1
  6
DASHED
 62
     5
 10
1580.008726
 20
1099.279723
 11
1583.434146
 21
1100.166852
  0
LINE
  8
CSLAYER1
  6
DASHED
 62
     5
 10
1583.434146
 20
1100.166852
 11
1586.722870
 21
1101.237268
  0
LINE
  8
CSLAYER1
  6
DASHED
 62
     5
 10
1586.722870
 20
1101.237268
 11
1589.849868
 21
1102.482825
  0
LINE
  8
CSLAYER1
  6
DASHED
 62
     5
 10
1589.849868
 20
1102.482825
 11
1592.791343
 21
1103.894044
  0
LINE
  8
CSLAYER1
  6
DASHED
 62
     5
 10
1592.791343
 20
1103.894044
 11
1595.524908
 21
1105.460183
  0
LINE
  8
CSLAYER1
  6
DASHED
 62
     5
 10
1595.524908
 20
1105.460183
 11
1598.029758
 21
1107.169325
  0
LINE
  8
CSLAYER1
  6
DASHED
 62
     5
 10
1598.029758
 20
1107.169325
 11
1600.286831
 21
1109.008460
  0
LINE
  8
CSLAYER1
  6
DASHED
 62
     5
 10
1600.286831
 20
1109.008460
 11
1602.278949
 21
1110.963593
  0
LINE
  8
CSLAYER1
  6
DASHED
 62
     5
 10
1602.278949
 20
1110.963593
 11
1603.990951
 21
1113.019843
  0
LINE
  8
CSLAYER1
  6
DASHED
 62
     5
 10
1603.990951
 20
1113.019843
 11
1605.409806
 21
1115.161562
  0
LINE
  8
CSLAYER1
  6
DASHED
 62
     5
 10
1605.409806
 20
1115.161562
 11
1606.524717
 21
1117.372449
  0
LINE
  8
CSLAYER1
  6
DASHED
 62
     5
 10
1606.524717
 20
1117.372449
 11
1607.327199
 21
1119.635679
  0
LINE
  8
CSLAYER1
  6
DASHED
 62
     5
 10
1607.327199
 20
1119.635679
 11
1607.811144
 21
1121.934026
  0
LINE
  8
CSLAYER1
  6
DASHED
 62
     5
 10
1607.811144
 20
1121.934026
 11
1607.972870
 21
1124.249999
  0
LINE
  8
CSLAYER1
  6
DASHED
 62
     5
 10
1603.622870
 20
1124.249999
 11
1603.622870
 21
1328.685639
  0
LINE
  8
CSLAYER1
  6
DASHED
 62
     5
 10
1541.972870
 20
1452.751543
 11
1541.972870
 21
1448.069810
  0
LINE
  8
CSLAYER1
  6
DASHED
 62
     5
 10
1588.972870
 20
1452.751543
 11
1588.972870
 21
1448.069810
  0
LINE
  8
CSLAYER1
  6
DASHED
 62
     5
 10
1541.972870
 20
1448.069810
 11
1542.062294
 21
1446.789213
  0
LINE
  8
CSLAYER1
  6
DASHED
 62
     5
 10
1542.062294
 20
1446.789213
 11
1542.329887
 21
1445.518362
  0
LINE
  8
CSLAYER1
  6
DASHED
 62
     5
 10
1542.329887
 20
1445.518362
 11
1542.773613
 21
1444.266930
  0
LINE
  8
CSLAYER1
  6
DASHED
 62
     5
 10
1542.773613
 20
1444.266930
 11
1543.390093
 21
1443.044439
  0
LINE
  8
CSLAYER1
  6
DASHED
 62
     5
 10
1543.390093
 20
1443.044439
 11
1544.174637
 21
1441.860195
  0
LINE
  8
CSLAYER1
  6
DASHED
 62
     5
 10
1544.174637
 20
1441.860195
 11
1545.121273
 21
1440.723209
  0
LINE
  8
CSLAYER1
  6
DASHED
 62
     5
 10
1545.121273
 20
1440.723209
 11
1546.222797
 21
1439.642136
  0
LINE
  8
CSLAYER1
  6
DASHED
 62
     5
 10
1546.222797
 20
1439.642136
 11
1547.470825
 21
1438.625202
  0
LINE
  8
CSLAYER1
  6
DASHED
 62
     5
 10
1547.470825
 20
1438.625202
 11
1548.855860
 21
1437.680147
  0
LINE
  8
CSLAYER1
  6
DASHED
 62
     5
 10
1548.855860
 20
1437.680147
 11
1550.367361
 21
1436.814164
  0
LINE
  8
CSLAYER1
  6
DASHED
 62
     5
 10
1550.367361
 20
1436.814164
 11
1551.993823
 21
1436.033844
  0
LINE
  8
CSLAYER1
  6
DASHED
 62
     5
 10
1551.993823
 20
1436.033844
 11
1553.722870
 21
1435.345124
  0
LINE
  8
CSLAYER1
  6
DASHED
 62
     5
 10
1553.722870
 20
1435.345124
 11
1555.541340
 21
1434.753247
  0
LINE
  8
CSLAYER1
  6
DASHED
 62
     5
 10
1555.541340
 20
1434.753247
 11
1557.435396
 21
1434.262716
  0
LINE
  8
CSLAYER1
  6
DASHED
 62
     5
 10
1557.435396
 20
1434.262716
 11
1559.390622
 21
1433.877267
  0
LINE
  8
CSLAYER1
  6
DASHED
 62
     5
 10
1559.390622
 20
1433.877267
 11
1561.392137
 21
1433.599831
  0
LINE
  8
CSLAYER1
  6
DASHED
 62
     5
 10
1561.392137
 20
1433.599831
 11
1563.424710
 21
1433.432520
  0
LINE
  8
CSLAYER1
  6
DASHED
 62
     5
 10
1563.424710
 20
1433.432520
 11
1565.472870
 21
1433.376608
  0
LINE
  8
CSLAYER1
  6
DASHED
 62
     5
 10
1565.472870
 20
1433.376608
 11
1567.521030
 21
1433.432520
  0
LINE
  8
CSLAYER1
  6
DASHED
 62
     5
 10
1567.521030
 20
1433.432520
 11
1569.553602
 21
1433.599831
  0
LINE
  8
CSLAYER1
  6
DASHED
 62
     5
 10
1569.553602
 20
1433.599831
 11
1571.555117
 21
1433.877267
  0
LINE
  8
CSLAYER1
  6
DASHED
 62
     5
 10
1571.555117
 20
1433.877267
 11
1573.510343
 21
1434.262716
  0
LINE
  8
CSLAYER1
  6
DASHED
 62
     5
 10
1573.510343
 20
1434.262716
 11
1575.404399
 21
1434.753247
  0
LINE
  8
CSLAYER1
  6
DASHED
 62
     5
 10
1575.404399
 20
1434.753247
 11
1577.222870
 21
1435.345124
  0
LINE
  8
CSLAYER1
  6
DASHED
 62
     5
 10
1577.222870
 20
1435.345124
 11
1578.951916
 21
1436.033844
  0
LINE
  8
CSLAYER1
  6
DASHED
 62
     5
 10
1578.951916
 20
1436.033844
 11
1580.578378
 21
1436.814164
  0
LINE
  8
CSLAYER1
  6
DASHED
 62
     5
 10
1580.578378
 20
1436.814164
 11
1582.089879
 21
1437.680147
  0
LINE
  8
CSLAYER1
  6
DASHED
 62
     5
 10
1582.089879
 20
1437.680147
 11
1583.474914
 21
1438.625202
  0
LINE
  8
CSLAYER1
  6
DASHED
 62
     5
 10
1583.474914
 20
1438.625202
 11
1584.722943
 21
1439.642136
  0
LINE
  8
CSLAYER1
  6
DASHED
 62
     5
 10
1584.722943
 20
1439.642136
 11
1585.824467
 21
1440.723209
  0
LINE
  8
CSLAYER1
  6
DASHED
 62
     5
 10
1585.824467
 20
1440.723209
 11
1586.771103
 21
1441.860195
  0
LINE
  8
CSLAYER1
  6
DASHED
 62
     5
 10
1586.771103
 20
1441.860195
 11
1587.555646
 21
1443.044439
  0
LINE
  8
CSLAYER1
  6
DASHED
 62
     5
 10
1587.555646
 20
1443.044439
 11
1588.172126
 21
1444.266930
  0
LINE
  8
CSLAYER1
  6
DASHED
 62
     5
 10
1588.172126
 20
1444.266930
 11
1588.615852
 21
1445.518362
  0
LINE
  8
CSLAYER1
  6
DASHED
 62
     5
 10
1588.615852
 20
1445.518362
 11
1588.883445
 21
1446.789213
  0
LINE
  8
CSLAYER1
  6
DASHED
 62
     5
 10
1588.883445
 20
1446.789213
 11
1588.972870
 21
1448.069810
  0
LINE
  8
CSLAYER1
  6
DASHED
 62
     5
 10
1588.972870
 20
1452.751543
 11
1588.883445
 21
1454.032139
  0
LINE
  8
CSLAYER1
  6
DASHED
 62
     5
 10
1588.883445
 20
1454.032139
 11
1588.730446
 21
1454.758760
  0
LINE
  8
CSLAYER1
  6
DASHED
 62
     5
 10
1542.215293
 20
1454.758760
 11
1542.062294
 21
1454.032139
  0
LINE
  8
CSLAYER1
  6
DASHED
 62
     5
 10
1542.062294
 20
1454.032139
 11
1541.972870
 21
1452.751543
  0
LINE
  8
CSLAYER1
  6
DASHED
 62
     5
 10
1541.972870
 20
1452.751543
 11
1542.062294
 21
1451.470946
  0
LINE
  8
CSLAYER1
  6
DASHED
 62
     5
 10
1542.062294
 20
1451.470946
 11
1542.329887
 21
1450.200095
  0
LINE
  8
CSLAYER1
  6
DASHED
 62
     5
 10
1542.329887
 20
1450.200095
 11
1542.773613
 21
1448.948662
  0
LINE
  8
CSLAYER1
  6
DASHED
 62
     5
 10
1542.773613
 20
1448.948662
 11
1543.390093
 21
1447.726171
  0
LINE
  8
CSLAYER1
  6
DASHED
 62
     5
 10
1543.390093
 20
1447.726171
 11
1544.174637
 21
1446.541927
  0
LINE
  8
CSLAYER1
  6
DASHED
 62
     5
 10
1544.174637
 20
1446.541927
 11
1545.121273
 21
1445.404941
  0
LINE
  8
CSLAYER1
  6
DASHED
 62
     5
 10
1545.121273
 20
1445.404941
 11
1546.222797
 21
1444.323868
  0
LINE
  8
CSLAYER1
  6
DASHED
 62
     5
 10
1546.222797
 20
1444.323868
 11
1547.470825
 21
1443.306934
  0
LINE
  8
CSLAYER1
  6
DASHED
 62
     5
 10
1547.470825
 20
1443.306934
 11
1548.855860
 21
1442.361879
  0
LINE
  8
CSLAYER1
  6
DASHED
 62
     5
 10
1548.855860
 20
1442.361879
 11
1550.367361
 21
1441.495896
  0
LINE
  8
CSLAYER1
  6
DASHED
 62
     5
 10
1550.367361
 20
1441.495896
 11
1551.993823
 21
1440.715576
  0
LINE
  8
CSLAYER1
  6
DASHED
 62
     5
 10
1551.993823
 20
1440.715576
 11
1553.722870
 21
1440.026856
  0
LINE
  8
CSLAYER1
  6
DASHED
 62
     5
 10
1553.722870
 20
1440.026856
 11
1555.541340
 21
1439.434979
  0
LINE
  8
CSLAYER1
  6
DASHED
 62
     5
 10
1575.404399
 20
1439.434979
 11
1577.222870
 21
1440.026856
  0
LINE
  8
CSLAYER1
  6
DASHED
 62
     5
 10
1577.222870
 20
1440.026856
 11
1578.951916
 21
1440.715576
  0
LINE
  8
CSLAYER1
  6
DASHED
 62
     5
 10
1578.951916
 20
1440.715576
 11
1580.578378
 21
1441.495896
  0
LINE
  8
CSLAYER1
  6
DASHED
 62
     5
 10
1580.578378
 20
1441.495896
 11
1582.089879
 21
1442.361879
  0
LINE
  8
CSLAYER1
  6
DASHED
 62
     5
 10
1582.089879
 20
1442.361879
 11
1583.474914
 21
1443.306934
  0
LINE
  8
CSLAYER1
  6
DASHED
 62
     5
 10
1583.474914
 20
1443.306934
 11
1584.722943
 21
1444.323868
  0
LINE
  8
CSLAYER1
  6
DASHED
 62
     5
 10
1584.722943
 20
1444.323868
 11
1585.824467
 21
1445.404941
  0
LINE
  8
CSLAYER1
  6
DASHED
 62
     5
 10
1585.824467
 20
1445.404941
 11
1586.771103
 21
1446.541927
  0
LINE
  8
CSLAYER1
  6
DASHED
 62
     5
 10
1586.771103
 20
1446.541927
 11
1587.555646
 21
1447.726171
  0
LINE
  8
CSLAYER1
  6
DASHED
 62
     5
 10
1587.555646
 20
1447.726171
 11
1588.172126
 21
1448.948662
  0
LINE
  8
CSLAYER1
  6
DASHED
 62
     5
 10
1588.172126
 20
1448.948662
 11
1588.615852
 21
1450.200095
  0
LINE
  8
CSLAYER1
  6
DASHED
 62
     5
 10
1588.615852
 20
1450.200095
 11
1588.883445
 21
1451.470946
  0
LINE
  8
CSLAYER1
  6
DASHED
 62
     5
 10
1588.883445
 20
1451.470946
 11
1588.972870
 21
1452.751543
  0
LINE
  8
CSLAYER1
  6
DASHED
 62
     5
 10
1544.122870
 20
1328.685639
 11
1544.122870
 21
1342.419552
  0
LINE
  8
CSLAYER1
  6
DASHED
 62
     5
 10
1586.822870
 20
1328.685639
 11
1586.822870
 21
1342.419552
  0
LINE
  8
CSLAYER1
  6
DASHED
 62
     5
 10
1544.122870
 20
1328.685639
 11
1544.204113
 21
1327.522203
  0
LINE
  8
CSLAYER1
  6
DASHED
 62
     5
 10
1544.204113
 20
1327.522203
 11
1544.447224
 21
1326.367622
  0
LINE
  8
CSLAYER1
  6
DASHED
 62
     5
 10
1544.447224
 20
1326.367622
 11
1544.850353
 21
1325.230682
  0
LINE
  8
CSLAYER1
  6
DASHED
 62
     5
 10
1544.850353
 20
1325.230682
 11
1545.410432
 21
1324.120036
  0
LINE
  8
CSLAYER1
  6
DASHED
 62
     5
 10
1545.410432
 20
1324.120036
 11
1546.123198
 21
1323.044137
  0
LINE
  8
CSLAYER1
  6
DASHED
 62
     5
 10
1546.123198
 20
1323.044137
 11
1546.983227
 21
1322.011174
  0
LINE
  8
CSLAYER1
  6
DASHED
 62
     5
 10
1546.983227
 20
1322.011174
 11
1547.983973
 21
1321.029007
  0
LINE
  8
CSLAYER1
  6
DASHED
 62
     5
 10
1547.983973
 20
1321.029007
 11
1549.117821
 21
1320.105112
  0
LINE
  8
CSLAYER1
  6
DASHED
 62
     5
 10
1549.117821
 20
1320.105112
 11
1550.376140
 21
1319.246520
  0
LINE
  8
CSLAYER1
  6
DASHED
 62
     5
 10
1550.376140
 20
1319.246520
 11
1551.749354
 21
1318.459765
  0
LINE
  8
CSLAYER1
  6
DASHED
 62
     5
 10
1551.749354
 20
1318.459765
 11
1553.227013
 21
1317.750835
  0
LINE
  8
CSLAYER1
  6
DASHED
 62
     5
 10
1553.227013
 20
1317.750835
 11
1554.797870
 21
1317.125126
  0
LINE
  8
CSLAYER1
  6
DASHED
 62
     5
 10
1554.797870
 20
1317.125126
 11
1556.449970
 21
1316.587399
  0
LINE
  8
CSLAYER1
  6
DASHED
 62
     5
 10
1556.449970
 20
1316.587399
 11
1558.170740
 21
1316.141747
  0
LINE
  8
CSLAYER1
  6
DASHED
 62
     5
 10
1558.170740
 20
1316.141747
 11
1559.947083
 21
1315.791562
  0
LINE
  8
CSLAYER1
  6
DASHED
 62
     5
 10
1559.947083
 20
1315.791562
 11
1561.765481
 21
1315.539509
  0
LINE
  8
CSLAYER1
  6
DASHED
 62
     5
 10
1561.765481
 20
1315.539509
 11
1563.612094
 21
1315.387505
  0
LINE
  8
CSLAYER1
  6
DASHED
 62
     5
 10
1563.612094
 20
1315.387505
 11
1565.472870
 21
1315.336708
  0
LINE
  8
CSLAYER1
  6
DASHED
 62
     5
 10
1565.472870
 20
1315.336708
 11
1567.333645
 21
1315.387505
  0
LINE
  8
CSLAYER1
  6
DASHED
 62
     5
 10
1567.333645
 20
1315.387505
 11
1569.180258
 21
1315.539509
  0
LINE
  8
CSLAYER1
  6
DASHED
 62
     5
 10
1569.180258
 20
1315.539509
 11
1570.998656
 21
1315.791562
  0
LINE
  8
CSLAYER1
  6
DASHED
 62
     5
 10
1570.998656
 20
1315.791562
 11
1572.775000
 21
1316.141747
  0
LINE
  8
CSLAYER1
  6
DASHED
 62
     5
 10
1572.775000
 20
1316.141747
 11
1574.495769
 21
1316.587399
  0
LINE
  8
CSLAYER1
  6
DASHED
 62
     5
 10
1574.495769
 20
1316.587399
 11
1576.147870
 21
1317.125126
  0
LINE
  8
CSLAYER1
  6
DASHED
 62
     5
 10
1576.147870
 20
1317.125126
 11
1577.718726
 21
1317.750835
  0
LINE
  8
CSLAYER1
  6
DASHED
 62
     5
 10
1577.718726
 20
1317.750835
 11
1579.196385
 21
1318.459765
  0
LINE
  8
CSLAYER1
  6
DASHED
 62
     5
 10
1579.196385
 20
1318.459765
 11
1580.569599
 21
1319.246520
  0
LINE
  8
CSLAYER1
  6
DASHED
 62
     5
 10
1580.569599
 20
1319.246520
 11
1581.827918
 21
1320.105112
  0
LINE
  8
CSLAYER1
  6
DASHED
 62
     5
 10
1581.827918
 20
1320.105112
 11
1582.961766
 21
1321.029007
  0
LINE
  8
CSLAYER1
  6
DASHED
 62
     5
 10
1582.961766
 20
1321.029007
 11
1583.962512
 21
1322.011174
  0
LINE
  8
CSLAYER1
  6
DASHED
 62
     5
 10
1583.962512
 20
1322.011174
 11
1584.822541
 21
1323.044137
  0
LINE
  8
CSLAYER1
  6
DASHED
 62
     5
 10
1584.822541
 20
1323.044137
 11
1585.535307
 21
1324.120036
  0
LINE
  8
CSLAYER1
  6
DASHED
 62
     5
 10
1585.535307
 20
1324.120036
 11
1586.095386
 21
1325.230682
  0
LINE
  8
CSLAYER1
  6
DASHED
 62
     5
 10
1586.095386
 20
1325.230682
 11
1586.498515
 21
1326.367622
  0
LINE
  8
CSLAYER1
  6
DASHED
 62
     5
 10
1586.498515
 20
1326.367622
 11
1586.741626
 21
1327.522203
  0
LINE
  8
CSLAYER1
  6
DASHED
 62
     5
 10
1586.741626
 20
1327.522203
 11
1586.822870
 21
1328.685639
  0
LINE
  8
CSLAYER1
  6
DASHED
 62
     5
 10
1603.622870
 20
1328.685639
 11
1603.477697
 21
1330.764566
  0
LINE
  8
CSLAYER1
  6
DASHED
 62
     5
 10
1603.477697
 20
1330.764566
 11
1603.043285
 21
1332.827670
  0
LINE
  8
CSLAYER1
  6
DASHED
 62
     5
 10
1603.043285
 20
1332.827670
 11
1602.322940
 21
1334.859252
  0
LINE
  8
CSLAYER1
  6
DASHED
 62
     5
 10
1602.322940
 20
1334.859252
 11
1601.322143
 21
1336.843848
  0
LINE
  8
CSLAYER1
  6
DASHED
 62
     5
 10
1601.322143
 20
1336.843848
 11
1600.048512
 21
1338.766356
  0
LINE
  8
CSLAYER1
  6
DASHED
 62
     5
 10
1600.048512
 20
1338.766356
 11
1598.511739
 21
1340.612143
  0
LINE
  8
CSLAYER1
  6
DASHED
 62
     5
 10
1598.511739
 20
1340.612143
 11
1596.723520
 21
1342.367162
  0
LINE
  8
CSLAYER1
  6
DASHED
 62
     5
 10
1534.222219
 20
1342.367162
 11
1532.434000
 21
1340.612143
  0
LINE
  8
CSLAYER1
  6
DASHED
 62
     5
 10
1532.434000
 20
1340.612143
 11
1530.897227
 21
1338.766356
  0
LINE
  8
CSLAYER1
  6
DASHED
 62
     5
 10
1530.897227
 20
1338.766356
 11
1529.623596
 21
1336.843848
  0
LINE
  8
CSLAYER1
  6
DASHED
 62
     5
 10
1529.623596
 20
1336.843848
 11
1528.622799
 21
1334.859252
  0
LINE
  8
CSLAYER1
  6
DASHED
 62
     5
 10
1528.622799
 20
1334.859252
 11
1527.902454
 21
1332.827670
  0
LINE
  8
CSLAYER1
  6
DASHED
 62
     5
 10
1527.902454
 20
1332.827670
 11
1527.468042
 21
1330.764566
  0
LINE
  8
CSLAYER1
  6
DASHED
 62
     5
 10
1527.468042
 20
1330.764566
 11
1527.322870
 21
1328.685639
  0
LINE
  8
CSLAYER1
  6
DASHED
 62
     5
 10
1527.322870
 20
1328.685639
 11
1527.468042
 21
1326.606712
  0
LINE
  8
CSLAYER1
  6
DASHED
 62
     5
 10
1527.468042
 20
1326.606712
 11
1527.902454
 21
1324.543608
  0
LINE
  8
CSLAYER1
  6
DASHED
 62
     5
 10
1527.902454
 20
1324.543608
 11
1528.622799
 21
1322.512026
  0
LINE
  8
CSLAYER1
  6
DASHED
 62
     5
 10
1528.622799
 20
1322.512026
 11
1529.623596
 21
1320.527430
  0
LINE
  8
CSLAYER1
  6
DASHED
 62
     5
 10
1529.623596
 20
1320.527430
 11
1530.897227
 21
1318.604923
  0
LINE
  8
CSLAYER1
  6
DASHED
 62
     5
 10
1530.897227
 20
1318.604923
 11
1532.434000
 21
1316.759135
  0
LINE
  8
CSLAYER1
  6
DASHED
 62
     5
 10
1532.434000
 20
1316.759135
 11
1534.222219
 21
1315.004116
  0
LINE
  8
CSLAYER1
  6
DASHED
 62
     5
 10
1534.222219
 20
1315.004116
 11
1536.248274
 21
1313.353221
  0
LINE
  8
CSLAYER1
  6
DASHED
 62
     5
 10
1536.248274
 20
1313.353221
 11
1538.496746
 21
1311.819016
  0
LINE
  8
CSLAYER1
  6
DASHED
 62
     5
 10
1538.496746
 20
1311.819016
 11
1540.950522
 21
1310.413175
  0
LINE
  8
CSLAYER1
  6
DASHED
 62
     5
 10
1540.950522
 20
1310.413175
 11
1543.590929
 21
1309.146399
  0
LINE
  8
CSLAYER1
  6
DASHED
 62
     5
 10
1543.590929
 20
1309.146399
 11
1546.397870
 21
1308.028329
  0
LINE
  8
CSLAYER1
  6
DASHED
 62
     5
 10
1546.397870
 20
1308.028329
 11
1549.349983
 21
1307.067473
  0
LINE
  8
CSLAYER1
  6
DASHED
 62
     5
 10
1549.349983
 20
1307.067473
 11
1552.424801
 21
1306.271144
  0
LINE
  8
CSLAYER1
  6
DASHED
 62
     5
 10
1552.424801
 20
1306.271144
 11
1555.598923
 21
1305.645403
  0
LINE
  8
CSLAYER1
  6
DASHED
 62
     5
 10
1555.598923
 20
1305.645403
 11
1558.848192
 21
1305.195013
  0
LINE
  8
CSLAYER1
  6
DASHED
 62
     5
 10
1558.848192
 20
1305.195013
 11
1562.147878
 21
1304.923400
  0
LINE
  8
CSLAYER1
  6
DASHED
 62
     5
 10
1562.147878
 20
1304.923400
 11
1565.472870
 21
1304.832632
  0
LINE
  8
CSLAYER1
  6
DASHED
 62
     5
 10
1565.472870
 20
1304.832632
 11
1568.797861
 21
1304.923400
  0
LINE
  8
CSLAYER1
  6
DASHED
 62
     5
 10
1568.797861
 20
1304.923400
 11
1572.097548
 21
1305.195013
  0
LINE
  8
CSLAYER1
  6
DASHED
 62
     5
 10
1572.097548
 20
1305.195013
 11
1575.346816
 21
1305.645403
  0
LINE
  8
CSLAYER1
  6
DASHED
 62
     5
 10
1575.346816
 20
1305.645403
 11
1578.520938
 21
1306.271144
  0
LINE
  8
CSLAYER1
  6
DASHED
 62
     5
 10
1578.520938
 20
1306.271144
 11
1581.595756
 21
1307.067473
  0
LINE
  8
CSLAYER1
  6
DASHED
 62
     5
 10
1581.595756
 20
1307.067473
 11
1584.547870
 21
1308.028329
  0
LINE
  8
CSLAYER1
  6
DASHED
 62
     5
 10
1584.547870
 20
1308.028329
 11
1587.354811
 21
1309.146399
  0
LINE
  8
CSLAYER1
  6
DASHED
 62
     5
 10
1587.354811
 20
1309.146399
 11
1589.995217
 21
1310.413175
  0
LINE
  8
CSLAYER1
  6
DASHED
 62
     5
 10
1589.995217
 20
1310.413175
 11
1592.448993
 21
1311.819016
  0
LINE
  8
CSLAYER1
  6
DASHED
 62
     5
 10
1592.448993
 20
1311.819016
 11
1594.697465
 21
1313.353221
  0
LINE
  8
CSLAYER1
  6
DASHED
 62
     5
 10
1594.697465
 20
1313.353221
 11
1596.723520
 21
1315.004116
  0
LINE
  8
CSLAYER1
  6
DASHED
 62
     5
 10
1596.723520
 20
1315.004116
 11
1598.511739
 21
1316.759135
  0
LINE
  8
CSLAYER1
  6
DASHED
 62
     5
 10
1598.511739
 20
1316.759135
 11
1600.048512
 21
1318.604923
  0
LINE
  8
CSLAYER1
  6
DASHED
 62
     5
 10
1600.048512
 20
1318.604923
 11
1601.322143
 21
1320.527430
  0
LINE
  8
CSLAYER1
  6
DASHED
 62
     5
 10
1601.322143
 20
1320.527430
 11
1602.322940
 21
1322.512026
  0
LINE
  8
CSLAYER1
  6
DASHED
 62
     5
 10
1602.322940
 20
1322.512026
 11
1603.043285
 21
1324.543608
  0
LINE
  8
CSLAYER1
  6
DASHED
 62
     5
 10
1603.043285
 20
1324.543608
 11
1603.477697
 21
1326.606712
  0
LINE
  8
CSLAYER1
  6
DASHED
 62
     5
 10
1603.477697
 20
1326.606712
 11
1603.622870
 21
1328.685639
  0
LINE
  8
CSLAYER1
  6
DASHED
 62
     5
 10
1586.822870
 20
1402.919552
 11
1586.822870
 21
1441.922371
  0
LINE
  8
CSLAYER1
  6
DASHED
 62
     5
 10
1544.122870
 20
1402.919552
 11
1544.122870
 21
1441.922371
  0
LINE
  8
CSLAYER1
  6
DASHED
 62
     5
 10
1683.472870
 20
849.641392
 11
1683.472870
 21
859.323453
  0
LINE
  8
CSLAYER1
  6
DASHED
 62
     5
 10
1679.072870
 20
846.800804
 11
1679.072870
 21
859.323453
  0
LINE
  8
CSLAYER1
  6
DASHED
 62
     5
 10
1674.072870
 20
877.025011
 11
1674.072870
 21
898.776483
  0
LINE
  8
CSLAYER1
  6
DASHED
 62
     5
 10
1683.472870
 20
849.641392
 11
1679.072870
 21
849.641392
  0
LINE
  8
CSLAYER1
  6
DASHED
 62
     5
 10
1663.972870
 20
849.641392
 11
1647.472870
 21
849.641392
  0
LINE
  8
CSLAYER1
  6
DASHED
 62
     5
 10
1607.972870
 20
1124.249999
 11
1607.972870
 21
1074.519403
  0
LINE
  8
CSLAYER1
  6
DASHED
 62
     5
 10
1656.472870
 20
1074.519403
 11
1656.472870
 21
1103.220832
  0
LINE
  8
CSLAYER1
  6
DASHED
 62
     5
 10
1607.972870
 20
1121.983417
 11
1626.472870
 21
1121.983417
  0
LINE
  8
CSLAYER1
  6
DASHED
 62
     5
 10
1626.472870
 20
1121.983417
 11
1656.472870
 21
1103.220832
  0
LINE
  8
CSLAYER1
  6
DASHED
 62
     5
 10
1603.472870
 20
1472.258760
 11
1527.472870
 21
1472.258760
  0
LINE
  8
CSLAYER1
  6
DASHED
 62
     5
 10
1331.472870
 20
794.104575
 11
1331.472870
 21
940.904575
  0
LINE
  8
CSLAYER1
  6
DASHED
 62
     5
 10
1387.472870
 20
1065.519403
 11
1387.472870
 21
1056.519403
  0
LINE
  8
CSLAYER1
  6
DASHED
 62
     5
 10
1386.472870
 20
1077.519403
 11
1386.472870
 21
1053.519403
  0
LINE
  8
CSLAYER1
  6
DASHED
 62
     5
 10
1370.472870
 20
1070.719403
 11
1370.472870
 21
1060.319403
  0
LINE
  8
CSLAYER1
  6
DASHED
 62
     5
 10
1386.472870
 20
1057.519403
 11
1387.472870
 21
1056.519403
  0
LINE
  8
CSLAYER1
  6
DASHED
 62
     5
 10
1384.172870
 20
1077.519403
 11
1384.172870
 21
1053.519403
  0
LINE
  8
CSLAYER1
  6
DASHED
 62
     5
 10
1386.472870
 20
1053.519403
 11
1384.172870
 21
1053.519403
  0
LINE
  8
CSLAYER1
  6
DASHED
 62
     5
 10
1381.172870
 20
1076.489058
 11
1381.172870
 21
1054.549748
  0
LINE
  8
CSLAYER1
  6
DASHED
 62
     5
 10
1384.172870
 20
1054.769403
 11
1381.172870
 21
1054.769403
  0
LINE
  8
CSLAYER1
  6
DASHED
 62
     5
 10
1371.172870
 20
1065.519403
 11
1371.172870
 21
1056.019403
  0
LINE
  8
CSLAYER1
  6
DASHED
 62
     5
 10
1372.021375
 20
1054.549748
 11
1381.172870
 21
1054.549748
  0
LINE
  8
CSLAYER1
  6
DASHED
 62
     5
 10
1372.021375
 20
1060.034575
 11
1381.172870
 21
1060.034575
  0
LINE
  8
CSLAYER1
  6
DASHED
 62
     5
 10
1371.172870
 20
1056.019403
 11
1372.021375
 21
1054.549748
  0
ARC
  8
CSLAYER1
  6
DASHED
 62
     5
 10
1389.324364
 20
1065.519403
 40
18.151494
 50
180.000000
 51
197.587954
  0
ARC
  8
CSLAYER1
  6
DASHED
 62
     5
 10
1376.026125
 20
1057.292162
 40
4.853746
 50
145.597034
 51
205.597034
  0
LINE
  8
CSLAYER1
  6
DASHED
 62
     5
 10
1371.172870
 20
1065.519403
 11
1371.172870
 21
1075.019403
  0
LINE
  8
CSLAYER1
  6
DASHED
 62
     5
 10
1372.021375
 20
1076.489058
 11
1381.172870
 21
1076.489058
  0
LINE
  8
CSLAYER1
  6
DASHED
 62
     5
 10
1372.021375
 20
1071.004230
 11
1381.172870
 21
1071.004230
  0
LINE
  8
CSLAYER1
  6
DASHED
 62
     5
 10
1371.172870
 20
1075.019403
 11
1372.021375
 21
1076.489058
  0
ARC
  8
CSLAYER1
  6
DASHED
 62
     5
 10
1389.324364
 20
1065.519403
 40
18.151494
 50
162.412046
 51
180.000000
  0
ARC
  8
CSLAYER1
  6
DASHED
 62
     5
 10
1376.026125
 20
1073.746644
 40
4.853746
 50
154.402966
 51
214.402966
  0
LINE
  8
CSLAYER1
  6
DASHED
 62
     5
 10
1387.472870
 20
1065.519403
 11
1387.472870
 21
1074.519403
  0
LINE
  8
CSLAYER1
  6
DASHED
 62
     5
 10
1386.472870
 20
1073.519403
 11
1387.472870
 21
1074.519403
  0
LINE
  8
CSLAYER1
  6
DASHED
 62
     5
 10
1386.472870
 20
1077.519403
 11
1384.172870
 21
1077.519403
  0
LINE
  8
CSLAYER1
  6
DASHED
 62
     5
 10
1384.172870
 20
1076.269403
 11
1381.172870
 21
1076.269403
  0
LINE
  8
CSLAYER1
  6
DASHED
 62
     5
 10
1371.172870
 20
1060.319403
 11
1370.472870
 21
1060.319403
  0
LINE
  8
CSLAYER1
  6
DASHED
 62
     5
 10
1370.472870
 20
1060.319403
 11
1371.172870
 21
1059.519403
  0
LINE
  8
CSLAYER1
  6
DASHED
 62
     5
 10
1371.172870
 20
1070.719403
 11
1370.472870
 21
1070.719403
  0
LINE
  8
CSLAYER1
  6
DASHED
 62
     5
 10
1370.472870
 20
1070.719403
 11
1371.172870
 21
1071.519403
  0
POINT
  8
CSLAYER1
 62
     5
 10
1387.472870
 20
1065.519403
  0
LINE
  8
CSLAYER1
  6
DASHED
 62
     5
 10
1387.472870
 20
1659.349059
 11
1387.472870
 21
1650.349059
  0
LINE
  8
CSLAYER1
  6
DASHED
 62
     5
 10
1386.472870
 20
1671.349059
 11
1386.472870
 21
1647.349059
  0
LINE
  8
CSLAYER1
  6
DASHED
 62
     5
 10
1370.472870
 20
1664.549059
 11
1370.472870
 21
1654.149059
  0
LINE
  8
CSLAYER1
  6
DASHED
 62
     5
 10
1386.472870
 20
1651.349059
 11
1387.472870
 21
1650.349059
  0
LINE
  8
CSLAYER1
  6
DASHED
 62
     5
 10
1384.172870
 20
1671.349059
 11
1384.172870
 21
1647.349059
  0
LINE
  8
CSLAYER1
  6
DASHED
 62
     5
 10
1386.472870
 20
1647.349059
 11
1384.172870
 21
1647.349059
  0
LINE
  8
CSLAYER1
  6
DASHED
 62
     5
 10
1381.172870
 20
1670.318714
 11
1381.172870
 21
1648.379404
  0
LINE
  8
CSLAYER1
  6
DASHED
 62
     5
 10
1384.172870
 20
1648.599059
 11
1381.172870
 21
1648.599059
  0
LINE
  8
CSLAYER1
  6
DASHED
 62
     5
 10
1371.172870
 20
1659.349059
 11
1371.172870
 21
1649.849059
  0
LINE
  8
CSLAYER1
  6
DASHED
 62
     5
 10
1372.021375
 20
1648.379404
 11
1381.172870
 21
1648.379404
  0
LINE
  8
CSLAYER1
  6
DASHED
 62
     5
 10
1372.021375
 20
1653.864231
 11
1381.172870
 21
1653.864231
  0
LINE
  8
CSLAYER1
  6
DASHED
 62
     5
 10
1371.172870
 20
1649.849059
 11
1372.021375
 21
1648.379404
  0
ARC
  8
CSLAYER1
  6
DASHED
 62
     5
 10
1389.324364
 20
1659.349059
 40
18.151494
 50
180.000000
 51
197.587954
  0
ARC
  8
CSLAYER1
  6
DASHED
 62
     5
 10
1376.026125
 20
1651.121817
 40
4.853746
 50
145.597034
 51
205.597034
  0
LINE
  8
CSLAYER1
  6
DASHED
 62
     5
 10
1371.172870
 20
1659.349059
 11
1371.172870
 21
1668.849059
  0
LINE
  8
CSLAYER1
  6
DASHED
 62
     5
 10
1372.021375
 20
1670.318714
 11
1381.172870
 21
1670.318714
  0
LINE
  8
CSLAYER1
  6
DASHED
 62
     5
 10
1372.021375
 20
1664.833886
 11
1381.172870
 21
1664.833886
  0
LINE
  8
CSLAYER1
  6
DASHED
 62
     5
 10
1371.172870
 20
1668.849059
 11
1372.021375
 21
1670.318714
  0
ARC
  8
CSLAYER1
  6
DASHED
 62
     5
 10
1389.324364
 20
1659.349059
 40
18.151494
 50
162.412046
 51
180.000000
  0
ARC
  8
CSLAYER1
  6
DASHED
 62
     5
 10
1376.026125
 20
1667.576300
 40
4.853746
 50
154.402966
 51
214.402966
  0
LINE
  8
CSLAYER1
  6
DASHED
 62
     5
 10
1387.472870
 20
1659.349059
 11
1387.472870
 21
1668.349059
  0
LINE
  8
CSLAYER1
  6
DASHED
 62
     5
 10
1386.472870
 20
1667.349059
 11
1387.472870
 21
1668.349059
  0
LINE
  8
CSLAYER1
  6
DASHED
 62
     5
 10
1386.472870
 20
1671.349059
 11
1384.172870
 21
1671.349059
  0
LINE
  8
CSLAYER1
  6
DASHED
 62
     5
 10
1384.172870
 20
1670.099059
 11
1381.172870
 21
1670.099059
  0
LINE
  8
CSLAYER1
  6
DASHED
 62
     5
 10
1371.172870
 20
1654.149059
 11
1370.472870
 21
1654.149059
  0
LINE
  8
CSLAYER1
  6
DASHED
 62
     5
 10
1370.472870
 20
1654.149059
 11
1371.172870
 21
1653.349059
  0
LINE
  8
CSLAYER1
  6
DASHED
 62
     5
 10
1371.172870
 20
1664.549059
 11
1370.472870
 21
1664.549059
  0
LINE
  8
CSLAYER1
  6
DASHED
 62
     5
 10
1370.472870
 20
1664.549059
 11
1371.172870
 21
1665.349059
  0
POINT
  8
CSLAYER1
 62
     5
 10
1387.472870
 20
1659.349059
  0
LINE
  8
CSLAYER1
  6
DASHED
 62
     5
 10
1340.972870
 20
915.104575
 11
1321.972870
 21
915.104575
  0
LINE
  8
CSLAYER1
  6
DASHED
 62
     5
 10
1340.972870
 20
925.104575
 11
1321.972870
 21
925.104575
  0
LINE
  8
CSLAYER1
  6
DASHED
 62
     5
 10
1342.442525
 20
924.256069
 11
1342.442525
 21
915.953081
  0
LINE
  8
CSLAYER1
  6
DASHED
 62
     5
 10
1336.957697
 20
924.256069
 11
1336.957697
 21
915.953081
  0
LINE
  8
CSLAYER1
  6
DASHED
 62
     5
 10
1340.972870
 20
925.104575
 11
1342.442525
 21
924.256069
  0
ARC
  8
CSLAYER1
  6
DASHED
 62
     5
 10
1331.472870
 20
906.953081
 40
18.151494
 50
72.412046
 51
90.000000
  0
ARC
  8
CSLAYER1
  6
DASHED
 62
     5
 10
1339.700111
 20
920.262183
 40
4.844787
 50
64.475551
 51
124.475551
  0
LINE
  8
CSLAYER1
  6
DASHED
 62
     5
 10
1320.503214
 20
924.256069
 11
1320.503214
 21
915.953081
  0
LINE
  8
CSLAYER1
  6
DASHED
 62
     5
 10
1325.988042
 20
924.256069
 11
1325.988042
 21
915.953081
  0
LINE
  8
CSLAYER1
  6
DASHED
 62
     5
 10
1321.972870
 20
925.104575
 11
1320.503214
 21
924.256069
  0
ARC
  8
CSLAYER1
  6
DASHED
 62
     5
 10
1331.472870
 20
906.953081
 40
18.151494
 50
90.000000
 51
107.587954
  0
ARC
  8
CSLAYER1
  6
DASHED
 62
     5
 10
1323.245628
 20
920.262183
 40
4.844787
 50
55.524449
 51
115.524449
  0
LINE
  8
CSLAYER1
  6
DASHED
 62
     5
 10
1340.972870
 20
915.104575
 11
1321.972870
 21
915.104575
  0
LINE
  8
CSLAYER1
  6
DASHED
 62
     5
 10
1340.972870
 20
915.104575
 11
1342.442525
 21
915.953081
  0
ARC
  8
CSLAYER1
  6
DASHED
 62
     5
 10
1331.472870
 20
933.256069
 40
18.151494
 50
270.000000
 51
287.587954
  0
ARC
  8
CSLAYER1
  6
DASHED
 62
     5
 10
1339.700111
 20
919.946968
 40
4.844787
 50
235.524449
 51
295.524449
  0
LINE
  8
CSLAYER1
  6
DASHED
 62
     5
 10
1321.972870
 20
915.104575
 11
1320.503214
 21
915.953081
  0
ARC
  8
CSLAYER1
  6
DASHED
 62
     5
 10
1331.472870
 20
933.256069
 40
18.151494
 50
252.412046
 51
270.000000
  0
ARC
  8
CSLAYER1
  6
DASHED
 62
     5
 10
1323.245628
 20
919.946968
 40
4.844787
 50
244.475551
 51
304.475551
  0
POINT
  8
CSLAYER1
 62
     5
 10
1331.472870
 20
925.104575
  0
LINE
  8
CSLAYER1
  6
DASHED
 62
     5
 10
1321.472870
 20
794.104575
 11
1321.472870
 21
915.104575
  0
LINE
  8
CSLAYER1
  6
DASHED
 62
     5
 10
1341.472870
 20
794.104575
 11
1341.472870
 21
915.104575
  0
LINE
  8
CSLAYER1
  6
DASHED
 62
     5
 10
1340.972870
 20
940.904575
 11
1321.972870
 21
940.904575
  0
LINE
  8
CSLAYER1
  6
DASHED
 62
     5
 10
1342.442525
 20
932.904575
 11
1320.503214
 21
932.904575
  0
LINE
  8
CSLAYER1
  6
DASHED
 62
     5
 10
1342.442525
 20
940.056069
 11
1342.442525
 21
932.904575
  0
LINE
  8
CSLAYER1
  6
DASHED
 62
     5
 10
1336.957697
 20
940.056069
 11
1336.957697
 21
932.904575
  0
LINE
  8
CSLAYER1
  6
DASHED
 62
     5
 10
1340.972870
 20
940.904575
 11
1342.442525
 21
940.056069
  0
ARC
  8
CSLAYER1
  6
DASHED
 62
     5
 10
1331.472870
 20
922.753081
 40
18.151494
 50
72.412046
 51
90.000000
  0
ARC
  8
CSLAYER1
  6
DASHED
 62
     5
 10
1339.700111
 20
936.062183
 40
4.844787
 50
64.475551
 51
124.475551
  0
LINE
  8
CSLAYER1
  6
DASHED
 62
     5
 10
1320.503214
 20
940.056069
 11
1320.503214
 21
932.904575
  0
LINE
  8
CSLAYER1
  6
DASHED
 62
     5
 10
1325.988042
 20
940.056069
 11
1325.988042
 21
932.904575
  0
LINE
  8
CSLAYER1
  6
DASHED
 62
     5
 10
1321.972870
 20
940.904575
 11
1320.503214
 21
940.056069
  0
ARC
  8
CSLAYER1
  6
DASHED
 62
     5
 10
1331.472870
 20
922.753081
 40
18.151494
 50
90.000000
 51
107.587954
  0
ARC
  8
CSLAYER1
  6
DASHED
 62
     5
 10
1323.245628
 20
936.062183
 40
4.844787
 50
55.524449
 51
115.524449
  0
LINE
  8
CSLAYER1
  6
DASHED
 62
     5
 10
1337.472870
 20
932.904575
 11
1336.472870
 21
931.172524
  0
LINE
  8
CSLAYER1
  6
DASHED
 62
     5
 10
1325.472870
 20
932.904575
 11
1326.472870
 21
931.172524
  0
POINT
  8
CSLAYER1
 62
     5
 10
1331.472870
 20
932.904575
  0
LINE
  8
CSLAYER1
  6
DASHED
 62
     5
 10
1337.472870
 20
932.904575
 11
1337.472870
 21
925.104575
  0
LINE
  8
CSLAYER1
  6
DASHED
 62
     5
 10
1336.472870
 20
931.172524
 11
1336.472870
 21
925.104575
  0
LINE
  8
CSLAYER1
  6
DASHED
 62
     5
 10
1326.472870
 20
931.172524
 11
1326.472870
 21
925.104575
  0
LINE
  8
CSLAYER1
  6
DASHED
 62
     5
 10
1325.472870
 20
932.904575
 11
1325.472870
 21
925.104575
  0
LINE
  8
CSLAYER1
  6
DASHED
 62
     5
 10
1399.972870
 20
1644.349059
 11
1396.972870
 21
1644.349059
  0
LINE
  8
CSLAYER1
  6
DASHED
 62
     5
 10
1399.972870
 20
1644.349059
 11
1399.972870
 21
1674.349059
  0
LINE
  8
CSLAYER1
  6
DASHED
 62
     5
 10
1396.972870
 20
1644.349059
 11
1396.972870
 21
1674.349059
  0
LINE
  8
CSLAYER1
  6
DASHED
 62
     5
 10
1399.972870
 20
1674.349059
 11
1396.972870
 21
1674.349059
  0
LINE
  8
CSLAYER1
  6
DASHED
 62
     5
 10
1565.472870
 20
1668.349059
 11
1409.472870
 21
1668.349059
  0
LINE
  8
CSLAYER1
  6
DASHED
 62
     5
 10
1565.472870
 20
1650.349059
 11
1409.472870
 21
1650.349059
  0
LINE
  8
CSLAYER1
  6
DASHED
 62
     5
 10
1399.972870
 20
1050.519403
 11
1396.972870
 21
1050.519403
  0
LINE
  8
CSLAYER1
  6
DASHED
 62
     5
 10
1399.972870
 20
1050.519403
 11
1399.972870
 21
1080.519403
  0
LINE
  8
CSLAYER1
  6
DASHED
 62
     5
 10
1396.972870
 20
1050.519403
 11
1396.972870
 21
1080.519403
  0
LINE
  8
CSLAYER1
  6
DASHED
 62
     5
 10
1399.972870
 20
1080.519403
 11
1396.972870
 21
1080.519403
  0
LINE
  8
CSLAYER1
  6
DASHED
 62
     5
 10
1565.472870
 20
1074.519403
 11
1409.472870
 21
1074.519403
  0
LINE
  8
CSLAYER1
  6
DASHED
 62
     5
 10
1399.972870
 20
1347.434231
 11
1396.972870
 21
1347.434231
  0
LINE
  8
CSLAYER1
  6
DASHED
 62
     5
 10
1399.972870
 20
1347.434231
 11
1399.972870
 21
1377.434231
  0
LINE
  8
CSLAYER1
  6
DASHED
 62
     5
 10
1396.972870
 20
1347.434231
 11
1396.972870
 21
1377.434231
  0
LINE
  8
CSLAYER1
  6
DASHED
 62
     5
 10
1399.972870
 20
1377.434231
 11
1396.972870
 21
1377.434231
  0
LINE
  8
CSLAYER1
  6
DASHED
 62
     5
 10
1603.472870
 20
1385.163133
 11
1603.472870
 21
1492.258760
  0
LINE
  8
CSLAYER1
  6
DASHED
 62
     5
 10
1594.472870
 20
1385.163133
 11
1594.472870
 21
1492.258760
  0
LINE
  8
CSLAYER1
  6
DASHED
 62
     5
 10
1536.472870
 20
1385.163133
 11
1536.472870
 21
1492.258760
  0
LINE
  8
CSLAYER1
  6
DASHED
 62
     5
 10
1527.472870
 20
1385.163133
 11
1527.472870
 21
1492.258760
  0
POINT
  8
CSLAYER1
 62
     5
 10
1565.472870
 20
1472.258760
  0
LINE
  8
CSLAYER1
  6
DASHED
 62
     5
 10
1594.472870
 20
1492.258760
 11
1603.472870
 21
1492.258760
  0
LINE
  8
CSLAYER1
  6
DASHED
 62
     5
 10
1579.472870
 20
1454.758760
 11
1579.472870
 21
1489.758760
  0
LINE
  8
CSLAYER1
  6
DASHED
 62
     5
 10
1579.472870
 20
1489.758760
 11
1594.472870
 21
1489.758760
  0
LINE
  8
CSLAYER1
  6
DASHED
 62
     5
 10
1579.472870
 20
1454.758760
 11
1594.472870
 21
1454.758760
  0
LINE
  8
CSLAYER1
  6
DASHED
 62
     5
 10
1575.472870
 20
1484.758760
 11
1579.472870
 21
1484.758760
  0
LINE
  8
CSLAYER1
  6
DASHED
 62
     5
 10
1575.472870
 20
1459.758760
 11
1579.472870
 21
1459.758760
  0
LINE
  8
CSLAYER1
  6
DASHED
 62
     5
 10
1536.472870
 20
1492.258760
 11
1527.472870
 21
1492.258760
  0
LINE
  8
CSLAYER1
  6
DASHED
 62
     5
 10
1551.472870
 20
1454.758760
 11
1551.472870
 21
1489.758760
  0
LINE
  8
CSLAYER1
  6
DASHED
 62
     5
 10
1551.472870
 20
1489.758760
 11
1536.472870
 21
1489.758760
  0
LINE
  8
CSLAYER1
  6
DASHED
 62
     5
 10
1551.472870
 20
1454.758760
 11
1536.472870
 21
1454.758760
  0
LINE
  8
CSLAYER1
  6
DASHED
 62
     5
 10
1555.472870
 20
1484.758760
 11
1551.472870
 21
1484.758760
  0
LINE
  8
CSLAYER1
  6
DASHED
 62
     5
 10
1555.472870
 20
1459.758760
 11
1551.472870
 21
1459.758760
  0
LINE
  8
CSLAYER1
  6
DASHED
 62
     5
 10
1575.472870
 20
1496.301755
 11
1555.472870
 21
1496.301755
  0
LINE
  8
CSLAYER1
  6
DASHED
 62
     5
 10
1594.472870
 20
1402.919552
 11
1536.472870
 21
1402.919552
  0
LINE
  8
CSLAYER1
  6
DASHED
 62
     5
 10
1627.984154
 20
1342.419552
 11
1409.472870
 21
1342.419552
  0
LINE
  8
CSLAYER1
  6
DASHED
 62
     5
 10
1603.472870
 20
1385.163133
 11
1594.472870
 21
1385.163133
  0
LINE
  8
CSLAYER1
  6
DASHED
 62
     5
 10
1527.472870
 20
1402.919552
 11
1418.472870
 21
1402.919552
  0
LINE
  8
CSLAYER1
  6
DASHED
 62
     5
 10
1536.472870
 20
1385.163133
 11
1527.472870
 21
1385.163133
  0
LINE
  8
CSLAYER1
  6
DASHED
 62
     5
 10
1575.472870
 20
1439.451265
 11
1575.472870
 21
1496.301755
  0
LINE
  8
CSLAYER1
  6
DASHED
 62
     5
 10
1555.472870
 20
1439.451265
 11
1555.472870
 21
1496.301755
  0
LINE
  8
CSLAYER1
  6
DASHED
 62
     5
 10
1418.472870
 20
1531.131620
 11
1409.472870
 21
1531.131620
  0
LINE
  8
CSLAYER1
  6
DASHED
 62
     5
 10
1565.472870
 20
1061.383545
 11
1409.472870
 21
1061.383545
  0
LINE
  8
CSLAYER1
  6
DASHED
 62
     5
 10
1565.472870
 20
1000.883545
 11
1409.472870
 21
1000.883545
  0
LINE
  8
CSLAYER1
  6
DASHED
 62
     5
 10
1473.472870
 20
1092.213454
 11
1464.472870
 21
1092.213454
  0
LINE
  8
CSLAYER1
  6
DASHED
 62
     5
 10
1473.472870
 20
1074.519403
 11
1473.472870
 21
1092.213454
  0
LINE
  8
CSLAYER1
  6
DASHED
 62
     5
 10
1464.472870
 20
1074.519403
 11
1464.472870
 21
1092.213454
  0
LINE
  8
CSLAYER1
  6
DASHED
 62
     5
 10
1474.472870
 20
1086.410079
 11
1474.472870
 21
1074.519403
  0
LINE
  8
CSLAYER1
  6
DASHED
 62
     5
 10
1463.472870
 20
1074.519403
 11
1463.472870
 21
1083.910079
  0
LINE
  8
CSLAYER1
  6
DASHED
 62
     5
 10
1457.472870
 20
1074.519403
 11
1457.472870
 21
1083.410079
  0
LINE
  8
CSLAYER1
  6
DASHED
 62
     5
 10
1458.472870
 20
1084.410079
 11
1462.972870
 21
1084.410079
  0
LINE
  8
CSLAYER1
  6
DASHED
 62
     5
 10
1457.472870
 20
1083.410079
 11
1458.472870
 21
1084.410079
  0
LINE
  8
CSLAYER1
  6
DASHED
 62
     5
 10
1462.972870
 20
1084.410079
 11
1463.472870
 21
1083.910079
  0
LINE
  8
CSLAYER1
  6
DASHED
 62
     5
 10
1458.472870
 20
1084.410079
 11
1458.472870
 21
1074.519403
  0
LINE
  8
CSLAYER1
  6
DASHED
 62
     5
 10
1462.972870
 20
1084.410079
 11
1462.972870
 21
1074.519403
  0
LINE
  8
CSLAYER1
  6
DASHED
 62
     5
 10
1463.472870
 20
1080.410079
 11
1464.472870
 21
1080.410079
  0
LINE
  8
CSLAYER1
  6
DASHED
 62
     5
 10
1473.472870
 20
1080.410079
 11
1474.472870
 21
1080.410079
  0
LINE
  8
CSLAYER1
  6
DASHED
 62
     5
 10
1565.472870
 20
994.292756
 11
1409.472870
 21
994.292756
  0
LINE
  8
CSLAYER1
  6
DASHED
 62
     5
 10
1721.472870
 20
898.776483
 11
1409.472870
 21
898.776483
  0
LINE
  8
CSLAYER1
  6
DASHED
 62
     5
 10
1400.472870
 20
994.292756
 11
1396.472870
 21
994.292756
  0
LINE
  8
CSLAYER1
  6
DASHED
 62
     5
 10
1400.472870
 20
898.776483
 11
1396.472870
 21
898.776483
  0
LINE
  8
CSLAYER1
  6
DASHED
 62
     5
 10
1418.472870
 20
1342.419552
 11
1418.472870
 21
1531.131620
  0
LINE
  8
CSLAYER1
  6
DASHED
 62
     5
 10
1503.472870
 20
851.929243
 11
1503.472870
 21
898.776483
  0
LINE
  8
CSLAYER1
  6
DASHED
 62
     5
 10
1627.472870
 20
851.929243
 11
1627.472870
 21
898.776483
  0
LINE
  8
CSLAYER1
  6
DASHED
 62
     5
 10
1627.472870
 20
851.929243
 11
1627.236941
 21
848.550646
  0
LINE
  8
CSLAYER1
  6
DASHED
 62
     5
 10
1627.236941
 20
848.550646
 11
1626.530950
 21
845.197763
  0
LINE
  8
CSLAYER1
  6
DASHED
 62
     5
 10
1626.530950
 20
845.197763
 11
1625.360271
 21
841.896111
  0
LINE
  8
CSLAYER1
  6
DASHED
 62
     5
 10
1625.360271
 20
841.896111
 11
1623.733812
 21
838.670817
  0
LINE
  8
CSLAYER1
  6
DASHED
 62
     5
 10
1623.733812
 20
838.670817
 11
1621.663952
 21
835.546427
  0
LINE
  8
CSLAYER1
  6
DASHED
 62
     5
 10
1621.663952
 20
835.546427
 11
1620.472870
 21
834.115841
  0
LINE
  8
CSLAYER1
  6
DASHED
 62
     5
 10
1505.050606
 20
843.404575
 11
1504.414789
 21
845.197763
  0
LINE
  8
CSLAYER1
  6
DASHED
 62
     5
 10
1504.414789
 20
845.197763
 11
1503.708798
 21
848.550646
  0
LINE
  8
CSLAYER1
  6
DASHED
 62
     5
 10
1503.708798
 20
848.550646
 11
1503.472870
 21
851.929243
  0
LINE
  8
CSLAYER1
  6
DASHED
 62
     5
 10
1603.622870
 20
1124.249999
 11
1603.622870
 21
1328.685639
  0
LINE
  8
CSLAYER1
  6
DASHED
 62
     5
 10
1603.622870
 20
1124.249999
 11
1603.477697
 21
1122.171073
  0
LINE
  8
CSLAYER1
  6
DASHED
 62
     5
 10
1603.477697
 20
1122.171073
 11
1603.043285
 21
1120.107968
  0
LINE
  8
CSLAYER1
  6
DASHED
 62
     5
 10
1603.043285
 20
1120.107968
 11
1602.322940
 21
1118.076387
  0
LINE
  8
CSLAYER1
  6
DASHED
 62
     5
 10
1602.322940
 20
1118.076387
 11
1601.322143
 21
1116.091790
  0
LINE
  8
CSLAYER1
  6
DASHED
 62
     5
 10
1601.322143
 20
1116.091790
 11
1600.048512
 21
1114.169283
  0
LINE
  8
CSLAYER1
  6
DASHED
 62
     5
 10
1600.048512
 20
1114.169283
 11
1598.511739
 21
1112.323496
  0
LINE
  8
CSLAYER1
  6
DASHED
 62
     5
 10
1598.511739
 20
1112.323496
 11
1596.723520
 21
1110.568476
  0
LINE
  8
CSLAYER1
  6
DASHED
 62
     5
 10
1596.723520
 20
1110.568476
 11
1594.697465
 21
1108.917582
  0
LINE
  8
CSLAYER1
  6
DASHED
 62
     5
 10
1594.697465
 20
1108.917582
 11
1592.448993
 21
1107.383376
  0
LINE
  8
CSLAYER1
  6
DASHED
 62
     5
 10
1592.448993
 20
1107.383376
 11
1589.995217
 21
1105.977536
  0
LINE
  8
CSLAYER1
  6
DASHED
 62
     5
 10
1589.995217
 20
1105.977536
 11
1587.354811
 21
1104.710760
  0
LINE
  8
CSLAYER1
  6
DASHED
 62
     5
 10
1587.354811
 20
1104.710760
 11
1584.547870
 21
1103.592689
  0
LINE
  8
CSLAYER1
  6
DASHED
 62
     5
 10
1584.547870
 20
1103.592689
 11
1581.595756
 21
1102.631833
  0
LINE
  8
CSLAYER1
  6
DASHED
 62
     5
 10
1581.595756
 20
1102.631833
 11
1578.520938
 21
1101.835504
  0
LINE
  8
CSLAYER1
  6
DASHED
 62
     5
 10
1578.520938
 20
1101.835504
 11
1575.346816
 21
1101.209764
  0
LINE
  8
CSLAYER1
  6
DASHED
 62
     5
 10
1575.346816
 20
1101.209764
 11
1572.097548
 21
1100.759373
  0
LINE
  8
CSLAYER1
  6
DASHED
 62
     5
 10
1572.097548
 20
1100.759373
 11
1568.797861
 21
1100.487760
  0
LINE
  8
CSLAYER1
  6
DASHED
 62
     5
 10
1568.797861
 20
1100.487760
 11
1565.472870
 21
1100.396992
  0
LINE
  8
CSLAYER1
  6
DASHED
 62
     5
 10
1565.472870
 20
1100.396992
 11
1562.147878
 21
1100.487760
  0
LINE
  8
CSLAYER1
  6
DASHED
 62
     5
 10
1562.147878
 20
1100.487760
 11
1558.848192
 21
1100.759373
  0
LINE
  8
CSLAYER1
  6
DASHED
 62
     5
 10
1558.848192
 20
1100.759373
 11
1555.598923
 21
1101.209764
  0
LINE
  8
CSLAYER1
  6
DASHED
 62
     5
 10
1555.598923
 20
1101.209764
 11
1552.424801
 21
1101.835504
  0
LINE
  8
CSLAYER1
  6
DASHED
 62
     5
 10
1552.424801
 20
1101.835504
 11
1549.349983
 21
1102.631833
  0
LINE
  8
CSLAYER1
  6
DASHED
 62
     5
 10
1549.349983
 20
1102.631833
 11
1546.397870
 21
1103.592689
  0
LINE
  8
CSLAYER1
  6
DASHED
 62
     5
 10
1546.397870
 20
1103.592689
 11
1543.590929
 21
1104.710760
  0
LINE
  8
CSLAYER1
  6
DASHED
 62
     5
 10
1543.590929
 20
1104.710760
 11
1540.950522
 21
1105.977536
  0
LINE
  8
CSLAYER1
  6
DASHED
 62
     5
 10
1540.950522
 20
1105.977536
 11
1538.496746
 21
1107.383376
  0
LINE
  8
CSLAYER1
  6
DASHED
 62
     5
 10
1538.496746
 20
1107.383376
 11
1536.248274
 21
1108.917582
  0
LINE
  8
CSLAYER1
  6
DASHED
 62
     5
 10
1536.248274
 20
1108.917582
 11
1534.222219
 21
1110.568476
  0
LINE
  8
CSLAYER1
  6
DASHED
 62
     5
 10
1534.222219
 20
1110.568476
 11
1532.434000
 21
1112.323496
  0
LINE
  8
CSLAYER1
  6
DASHED
 62
     5
 10
1532.434000
 20
1112.323496
 11
1530.897227
 21
1114.169283
  0
LINE
  8
CSLAYER1
  6
DASHED
 62
     5
 10
1530.897227
 20
1114.169283
 11
1529.623596
 21
1116.091790
  0
LINE
  8
CSLAYER1
  6
DASHED
 62
     5
 10
1529.623596
 20
1116.091790
 11
1528.622799
 21
1118.076387
  0
LINE
  8
CSLAYER1
  6
DASHED
 62
     5
 10
1528.622799
 20
1118.076387
 11
1527.902454
 21
1120.107968
  0
LINE
  8
CSLAYER1
  6
DASHED
 62
     5
 10
1527.902454
 20
1120.107968
 11
1527.468042
 21
1122.171073
  0
LINE
  8
CSLAYER1
  6
DASHED
 62
     5
 10
1527.468042
 20
1122.171073
 11
1527.322870
 21
1124.249999
  0
LINE
  8
CSLAYER1
  6
DASHED
 62
     5
 10
1522.972870
 20
1124.249999
 11
1523.134595
 21
1126.565973
  0
LINE
  8
CSLAYER1
  6
DASHED
 62
     5
 10
1523.134595
 20
1126.565973
 11
1523.618540
 21
1128.864320
  0
LINE
  8
CSLAYER1
  6
DASHED
 62
     5
 10
1523.618540
 20
1128.864320
 11
1524.421022
 21
1131.127549
  0
LINE
  8
CSLAYER1
  6
DASHED
 62
     5
 10
1524.421022
 20
1131.127549
 11
1525.535933
 21
1133.338437
  0
LINE
  8
CSLAYER1
  6
DASHED
 62
     5
 10
1525.535933
 20
1133.338437
 11
1526.954789
 21
1135.480155
  0
LINE
  8
CSLAYER1
  6
DASHED
 62
     5
 10
1526.954789
 20
1135.480155
 11
1527.322870
 21
1135.922250
  0
LINE
  8
CSLAYER1
  6
DASHED
 62
     5
 10
1603.622870
 20
1135.922250
 11
1603.990951
 21
1135.480155
  0
LINE
  8
CSLAYER1
  6
DASHED
 62
     5
 10
1603.990951
 20
1135.480155
 11
1605.409806
 21
1133.338437
  0
LINE
  8
CSLAYER1
  6
DASHED
 62
     5
 10
1605.409806
 20
1133.338437
 11
1606.524717
 21
1131.127549
  0
LINE
  8
CSLAYER1
  6
DASHED
 62
     5
 10
1606.524717
 20
1131.127549
 11
1607.327199
 21
1128.864320
  0
LINE
  8
CSLAYER1
  6
DASHED
 62
     5
 10
1607.327199
 20
1128.864320
 11
1607.811144
 21
1126.565973
  0
LINE
  8
CSLAYER1
  6
DASHED
 62
     5
 10
1607.811144
 20
1126.565973
 11
1607.972870
 21
1124.249999
  0
LINE
  8
CSLAYER1
  6
DASHED
 62
     5
 10
1607.972870
 20
1124.249999
 11
1607.811144
 21
1121.934026
  0
LINE
  8
CSLAYER1
  6
DASHED
 62
     5
 10
1607.811144
 20
1121.934026
 11
1607.327199
 21
1119.635679
  0
LINE
  8
CSLAYER1
  6
DASHED
 62
     5
 10
1607.327199
 20
1119.635679
 11
1606.524717
 21
1117.372449
  0
LINE
  8
CSLAYER1
  6
DASHED
 62
     5
 10
1606.524717
 20
1117.372449
 11
1605.409806
 21
1115.161562
  0
LINE
  8
CSLAYER1
  6
DASHED
 62
     5
 10
1605.409806
 20
1115.161562
 11
1603.990951
 21
1113.019843
  0
LINE
  8
CSLAYER1
  6
DASHED
 62
     5
 10
1603.990951
 20
1113.019843
 11
1602.278949
 21
1110.963593
  0
LINE
  8
CSLAYER1
  6
DASHED
 62
     5
 10
1602.278949
 20
1110.963593
 11
1600.286831
 21
1109.008460
  0
LINE
  8
CSLAYER1
  6
DASHED
 62
     5
 10
1600.286831
 20
1109.008460
 11
1598.029758
 21
1107.169325
  0
LINE
  8
CSLAYER1
  6
DASHED
 62
     5
 10
1598.029758
 20
1107.169325
 11
1595.524908
 21
1105.460183
  0
LINE
  8
CSLAYER1
  6
DASHED
 62
     5
 10
1595.524908
 20
1105.460183
 11
1592.791343
 21
1103.894044
  0
LINE
  8
CSLAYER1
  6
DASHED
 62
     5
 10
1592.791343
 20
1103.894044
 11
1589.849868
 21
1102.482825
  0
LINE
  8
CSLAYER1
  6
DASHED
 62
     5
 10
1589.849868
 20
1102.482825
 11
1586.722870
 21
1101.237268
  0
LINE
  8
CSLAYER1
  6
DASHED
 62
     5
 10
1586.722870
 20
1101.237268
 11
1583.434146
 21
1100.166852
  0
LINE
  8
CSLAYER1
  6
DASHED
 62
     5
 10
1583.434146
 20
1100.166852
 11
1580.008726
 21
1099.279723
  0
LINE
  8
CSLAYER1
  6
DASHED
 62
     5
 10
1580.008726
 20
1099.279723
 11
1576.472679
 21
1098.582633
  0
LINE
  8
CSLAYER1
  6
DASHED
 62
     5
 10
1576.472679
 20
1098.582633
 11
1572.852917
 21
1098.080887
  0
LINE
  8
CSLAYER1
  6
DASHED
 62
     5
 10
1572.852917
 20
1098.080887
 11
1569.176989
 21
1097.778304
  0
LINE
  8
CSLAYER1
  6
DASHED
 62
     5
 10
1569.176989
 20
1097.778304
 11
1565.472870
 21
1097.677187
  0
LINE
  8
CSLAYER1
  6
DASHED
 62
     5
 10
1565.472870
 20
1097.677187
 11
1561.768750
 21
1097.778304
  0
LINE
  8
CSLAYER1
  6
DASHED
 62
     5
 10
1561.768750
 20
1097.778304
 11
1558.092822
 21
1098.080887
  0
LINE
  8
CSLAYER1
  6
DASHED
 62
     5
 10
1558.092822
 20
1098.080887
 11
1554.473060
 21
1098.582633
  0
LINE
  8
CSLAYER1
  6
DASHED
 62
     5
 10
1554.473060
 20
1098.582633
 11
1550.937013
 21
1099.279723
  0
LINE
  8
CSLAYER1
  6
DASHED
 62
     5
 10
1550.937013
 20
1099.279723
 11
1547.511593
 21
1100.166852
  0
LINE
  8
CSLAYER1
  6
DASHED
 62
     5
 10
1547.511593
 20
1100.166852
 11
1544.222870
 21
1101.237268
  0
LINE
  8
CSLAYER1
  6
DASHED
 62
     5
 10
1544.222870
 20
1101.237268
 11
1541.095871
 21
1102.482825
  0
LINE
  8
CSLAYER1
  6
DASHED
 62
     5
 10
1541.095871
 20
1102.482825
 11
1538.154396
 21
1103.894044
  0
LINE
  8
CSLAYER1
  6
DASHED
 62
     5
 10
1538.154396
 20
1103.894044
 11
1535.420831
 21
1105.460183
  0
LINE
  8
CSLAYER1
  6
DASHED
 62
     5
 10
1535.420831
 20
1105.460183
 11
1532.915981
 21
1107.169325
  0
LINE
  8
CSLAYER1
  6
DASHED
 62
     5
 10
1532.915981
 20
1107.169325
 11
1530.658908
 21
1109.008460
  0
LINE
  8
CSLAYER1
  6
DASHED
 62
     5
 10
1530.658908
 20
1109.008460
 11
1528.666790
 21
1110.963593
  0
LINE
  8
CSLAYER1
  6
DASHED
 62
     5
 10
1528.666790
 20
1110.963593
 11
1526.954789
 21
1113.019843
  0
LINE
  8
CSLAYER1
  6
DASHED
 62
     5
 10
1526.954789
 20
1113.019843
 11
1525.535933
 21
1115.161562
  0
LINE
  8
CSLAYER1
  6
DASHED
 62
     5
 10
1525.535933
 20
1115.161562
 11
1524.421022
 21
1117.372449
  0
LINE
  8
CSLAYER1
  6
DASHED
 62
     5
 10
1524.421022
 20
1117.372449
 11
1523.618540
 21
1119.635679
  0
LINE
  8
CSLAYER1
  6
DASHED
 62
     5
 10
1523.618540
 20
1119.635679
 11
1523.134595
 21
1121.934026
  0
LINE
  8
CSLAYER1
  6
DASHED
 62
     5
 10
1523.134595
 20
1121.934026
 11
1522.972870
 21
1124.249999
  0
LINE
  8
CSLAYER1
  6
DASHED
 62
     5
 10
1527.322870
 20
1124.249999
 11
1527.322870
 21
1328.685639
  0
LINE
  8
CSLAYER1
  6
DASHED
 62
     5
 10
1588.972870
 20
1452.751543
 11
1588.972870
 21
1448.069810
  0
LINE
  8
CSLAYER1
  6
DASHED
 62
     5
 10
1541.972870
 20
1452.751543
 11
1541.972870
 21
1448.069810
  0
LINE
  8
CSLAYER1
  6
DASHED
 62
     5
 10
1588.972870
 20
1448.069810
 11
1588.883445
 21
1446.789213
  0
LINE
  8
CSLAYER1
  6
DASHED
 62
     5
 10
1588.883445
 20
1446.789213
 11
1588.615852
 21
1445.518362
  0
LINE
  8
CSLAYER1
  6
DASHED
 62
     5
 10
1588.615852
 20
1445.518362
 11
1588.172126
 21
1444.266930
  0
LINE
  8
CSLAYER1
  6
DASHED
 62
     5
 10
1588.172126
 20
1444.266930
 11
1587.555646
 21
1443.044439
  0
LINE
  8
CSLAYER1
  6
DASHED
 62
     5
 10
1587.555646
 20
1443.044439
 11
1586.771103
 21
1441.860195
  0
LINE
  8
CSLAYER1
  6
DASHED
 62
     5
 10
1586.771103
 20
1441.860195
 11
1585.824467
 21
1440.723209
  0
LINE
  8
CSLAYER1
  6
DASHED
 62
     5
 10
1585.824467
 20
1440.723209
 11
1584.722943
 21
1439.642136
  0
LINE
  8
CSLAYER1
  6
DASHED
 62
     5
 10
1584.722943
 20
1439.642136
 11
1583.474914
 21
1438.625202
  0
LINE
  8
CSLAYER1
  6
DASHED
 62
     5
 10
1583.474914
 20
1438.625202
 11
1582.089879
 21
1437.680147
  0
LINE
  8
CSLAYER1
  6
DASHED
 62
     5
 10
1582.089879
 20
1437.680147
 11
1580.578378
 21
1436.814164
  0
LINE
  8
CSLAYER1
  6
DASHED
 62
     5
 10
1580.578378
 20
1436.814164
 11
1578.951916
 21
1436.033844
  0
LINE
  8
CSLAYER1
  6
DASHED
 62
     5
 10
1578.951916
 20
1436.033844
 11
1577.222870
 21
1435.345124
  0
LINE
  8
CSLAYER1
  6
DASHED
 62
     5
 10
1577.222870
 20
1435.345124
 11
1575.404399
 21
1434.753247
  0
LINE
  8
CSLAYER1
  6
DASHED
 62
     5
 10
1575.404399
 20
1434.753247
 11
1573.510343
 21
1434.262716
  0
LINE
  8
CSLAYER1
  6
DASHED
 62
     5
 10
1573.510343
 20
1434.262716
 11
1571.555117
 21
1433.877267
  0
LINE
  8
CSLAYER1
  6
DASHED
 62
     5
 10
1571.555117
 20
1433.877267
 11
1569.553602
 21
1433.599831
  0
LINE
  8
CSLAYER1
  6
DASHED
 62
     5
 10
1569.553602
 20
1433.599831
 11
1567.521030
 21
1433.432520
  0
LINE
  8
CSLAYER1
  6
DASHED
 62
     5
 10
1567.521030
 20
1433.432520
 11
1565.472870
 21
1433.376608
  0
LINE
  8
CSLAYER1
  6
DASHED
 62
     5
 10
1565.472870
 20
1433.376608
 11
1563.424710
 21
1433.432520
  0
LINE
  8
CSLAYER1
  6
DASHED
 62
     5
 10
1563.424710
 20
1433.432520
 11
1561.392137
 21
1433.599831
  0
LINE
  8
CSLAYER1
  6
DASHED
 62
     5
 10
1561.392137
 20
1433.599831
 11
1559.390622
 21
1433.877267
  0
LINE
  8
CSLAYER1
  6
DASHED
 62
     5
 10
1559.390622
 20
1433.877267
 11
1557.435396
 21
1434.262716
  0
LINE
  8
CSLAYER1
  6
DASHED
 62
     5
 10
1557.435396
 20
1434.262716
 11
1555.541340
 21
1434.753247
  0
LINE
  8
CSLAYER1
  6
DASHED
 62
     5
 10
1555.541340
 20
1434.753247
 11
1553.722870
 21
1435.345124
  0
LINE
  8
CSLAYER1
  6
DASHED
 62
     5
 10
1553.722870
 20
1435.345124
 11
1551.993823
 21
1436.033844
  0
LINE
  8
CSLAYER1
  6
DASHED
 62
     5
 10
1551.993823
 20
1436.033844
 11
1550.367361
 21
1436.814164
  0
LINE
  8
CSLAYER1
  6
DASHED
 62
     5
 10
1550.367361
 20
1436.814164
 11
1548.855860
 21
1437.680147
  0
LINE
  8
CSLAYER1
  6
DASHED
 62
     5
 10
1548.855860
 20
1437.680147
 11
1547.470825
 21
1438.625202
  0
LINE
  8
CSLAYER1
  6
DASHED
 62
     5
 10
1547.470825
 20
1438.625202
 11
1546.222797
 21
1439.642136
  0
LINE
  8
CSLAYER1
  6
DASHED
 62
     5
 10
1546.222797
 20
1439.642136
 11
1545.121273
 21
1440.723209
  0
LINE
  8
CSLAYER1
  6
DASHED
 62
     5
 10
1545.121273
 20
1440.723209
 11
1544.174637
 21
1441.860195
  0
LINE
  8
CSLAYER1
  6
DASHED
 62
     5
 10
1544.174637
 20
1441.860195
 11
1543.390093
 21
1443.044439
  0
LINE
  8
CSLAYER1
  6
DASHED
 62
     5
 10
1543.390093
 20
1443.044439
 11
1542.773613
 21
1444.266930
  0
LINE
  8
CSLAYER1
  6
DASHED
 62
     5
 10
1542.773613
 20
1444.266930
 11
1542.329887
 21
1445.518362
  0
LINE
  8
CSLAYER1
  6
DASHED
 62
     5
 10
1542.329887
 20
1445.518362
 11
1542.062294
 21
1446.789213
  0
LINE
  8
CSLAYER1
  6
DASHED
 62
     5
 10
1542.062294
 20
1446.789213
 11
1541.972870
 21
1448.069810
  0
LINE
  8
CSLAYER1
  6
DASHED
 62
     5
 10
1541.972870
 20
1452.751543
 11
1542.062294
 21
1454.032139
  0
LINE
  8
CSLAYER1
  6
DASHED
 62
     5
 10
1542.062294
 20
1454.032139
 11
1542.215293
 21
1454.758760
  0
LINE
  8
CSLAYER1
  6
DASHED
 62
     5
 10
1588.730446
 20
1454.758760
 11
1588.883445
 21
1454.032139
  0
LINE
  8
CSLAYER1
  6
DASHED
 62
     5
 10
1588.883445
 20
1454.032139
 11
1588.972870
 21
1452.751543
  0
LINE
  8
CSLAYER1
  6
DASHED
 62
     5
 10
1588.972870
 20
1452.751543
 11
1588.883445
 21
1451.470946
  0
LINE
  8
CSLAYER1
  6
DASHED
 62
     5
 10
1588.883445
 20
1451.470946
 11
1588.615852
 21
1450.200095
  0
LINE
  8
CSLAYER1
  6
DASHED
 62
     5
 10
1588.615852
 20
1450.200095
 11
1588.172126
 21
1448.948662
  0
LINE
  8
CSLAYER1
  6
DASHED
 62
     5
 10
1588.172126
 20
1448.948662
 11
1587.555646
 21
1447.726171
  0
LINE
  8
CSLAYER1
  6
DASHED
 62
     5
 10
1587.555646
 20
1447.726171
 11
1586.771103
 21
1446.541927
  0
LINE
  8
CSLAYER1
  6
DASHED
 62
     5
 10
1586.771103
 20
1446.541927
 11
1585.824467
 21
1445.404941
  0
LINE
  8
CSLAYER1
  6
DASHED
 62
     5
 10
1585.824467
 20
1445.404941
 11
1584.722943
 21
1444.323868
  0
LINE
  8
CSLAYER1
  6
DASHED
 62
     5
 10
1584.722943
 20
1444.323868
 11
1583.474914
 21
1443.306934
  0
LINE
  8
CSLAYER1
  6
DASHED
 62
     5
 10
1583.474914
 20
1443.306934
 11
1582.089879
 21
1442.361879
  0
LINE
  8
CSLAYER1
  6
DASHED
 62
     5
 10
1582.089879
 20
1442.361879
 11
1580.578378
 21
1441.495896
  0
LINE
  8
CSLAYER1
  6
DASHED
 62
     5
 10
1580.578378
 20
1441.495896
 11
1578.951916
 21
1440.715576
  0
LINE
  8
CSLAYER1
  6
DASHED
 62
     5
 10
1578.951916
 20
1440.715576
 11
1577.222870
 21
1440.026856
  0
LINE
  8
CSLAYER1
  6
DASHED
 62
     5
 10
1577.222870
 20
1440.026856
 11
1575.404399
 21
1439.434979
  0
LINE
  8
CSLAYER1
  6
DASHED
 62
     5
 10
1555.541340
 20
1439.434979
 11
1553.722870
 21
1440.026856
  0
LINE
  8
CSLAYER1
  6
DASHED
 62
     5
 10
1553.722870
 20
1440.026856
 11
1551.993823
 21
1440.715576
  0
LINE
  8
CSLAYER1
  6
DASHED
 62
     5
 10
1551.993823
 20
1440.715576
 11
1550.367361
 21
1441.495896
  0
LINE
  8
CSLAYER1
  6
DASHED
 62
     5
 10
1550.367361
 20
1441.495896
 11
1548.855860
 21
1442.361879
  0
LINE
  8
CSLAYER1
  6
DASHED
 62
     5
 10
1548.855860
 20
1442.361879
 11
1547.470825
 21
1443.306934
  0
LINE
  8
CSLAYER1
  6
DASHED
 62
     5
 10
1547.470825
 20
1443.306934
 11
1546.222797
 21
1444.323868
  0
LINE
  8
CSLAYER1
  6
DASHED
 62
     5
 10
1546.222797
 20
1444.323868
 11
1545.121273
 21
1445.404941
  0
LINE
  8
CSLAYER1
  6
DASHED
 62
     5
 10
1545.121273
 20
1445.404941
 11
1544.174637
 21
1446.541927
  0
LINE
  8
CSLAYER1
  6
DASHED
 62
     5
 10
1544.174637
 20
1446.541927
 11
1543.390093
 21
1447.726171
  0
LINE
  8
CSLAYER1
  6
DASHED
 62
     5
 10
1543.390093
 20
1447.726171
 11
1542.773613
 21
1448.948662
  0
LINE
  8
CSLAYER1
  6
DASHED
 62
     5
 10
1542.773613
 20
1448.948662
 11
1542.329887
 21
1450.200095
  0
LINE
  8
CSLAYER1
  6
DASHED
 62
     5
 10
1542.329887
 20
1450.200095
 11
1542.062294
 21
1451.470946
  0
LINE
  8
CSLAYER1
  6
DASHED
 62
     5
 10
1542.062294
 20
1451.470946
 11
1541.972870
 21
1452.751543
  0
LINE
  8
CSLAYER1
  6
DASHED
 62
     5
 10
1586.822870
 20
1328.685639
 11
1586.822870
 21
1342.419552
  0
LINE
  8
CSLAYER1
  6
DASHED
 62
     5
 10
1544.122870
 20
1328.685639
 11
1544.122870
 21
1342.419552
  0
LINE
  8
CSLAYER1
  6
DASHED
 62
     5
 10
1586.822870
 20
1328.685639
 11
1586.741626
 21
1327.522203
  0
LINE
  8
CSLAYER1
  6
DASHED
 62
     5
 10
1586.741626
 20
1327.522203
 11
1586.498515
 21
1326.367622
  0
LINE
  8
CSLAYER1
  6
DASHED
 62
     5
 10
1586.498515
 20
1326.367622
 11
1586.095386
 21
1325.230682
  0
LINE
  8
CSLAYER1
  6
DASHED
 62
     5
 10
1586.095386
 20
1325.230682
 11
1585.535307
 21
1324.120036
  0
LINE
  8
CSLAYER1
  6
DASHED
 62
     5
 10
1585.535307
 20
1324.120036
 11
1584.822541
 21
1323.044137
  0
LINE
  8
CSLAYER1
  6
DASHED
 62
     5
 10
1584.822541
 20
1323.044137
 11
1583.962512
 21
1322.011174
  0
LINE
  8
CSLAYER1
  6
DASHED
 62
     5
 10
1583.962512
 20
1322.011174
 11
1582.961766
 21
1321.029007
  0
LINE
  8
CSLAYER1
  6
DASHED
 62
     5
 10
1582.961766
 20
1321.029007
 11
1581.827918
 21
1320.105112
  0
LINE
  8
CSLAYER1
  6
DASHED
 62
     5
 10
1581.827918
 20
1320.105112
 11
1580.569599
 21
1319.246520
  0
LINE
  8
CSLAYER1
  6
DASHED
 62
     5
 10
1580.569599
 20
1319.246520
 11
1579.196385
 21
1318.459765
  0
LINE
  8
CSLAYER1
  6
DASHED
 62
     5
 10
1579.196385
 20
1318.459765
 11
1577.718726
 21
1317.750835
  0
LINE
  8
CSLAYER1
  6
DASHED
 62
     5
 10
1577.718726
 20
1317.750835
 11
1576.147870
 21
1317.125126
  0
LINE
  8
CSLAYER1
  6
DASHED
 62
     5
 10
1576.147870
 20
1317.125126
 11
1574.495769
 21
1316.587399
  0
LINE
  8
CSLAYER1
  6
DASHED
 62
     5
 10
1574.495769
 20
1316.587399
 11
1572.775000
 21
1316.141747
  0
LINE
  8
CSLAYER1
  6
DASHED
 62
     5
 10
1572.775000
 20
1316.141747
 11
1570.998656
 21
1315.791562
  0
LINE
  8
CSLAYER1
  6
DASHED
 62
     5
 10
1570.998656
 20
1315.791562
 11
1569.180258
 21
1315.539509
  0
LINE
  8
CSLAYER1
  6
DASHED
 62
     5
 10
1569.180258
 20
1315.539509
 11
1567.333645
 21
1315.387505
  0
LINE
  8
CSLAYER1
  6
DASHED
 62
     5
 10
1567.333645
 20
1315.387505
 11
1565.472870
 21
1315.336708
  0
LINE
  8
CSLAYER1
  6
DASHED
 62
     5
 10
1565.472870
 20
1315.336708
 11
1563.612094
 21
1315.387505
  0
LINE
  8
CSLAYER1
  6
DASHED
 62
     5
 10
1563.612094
 20
1315.387505
 11
1561.765481
 21
1315.539509
  0
LINE
  8
CSLAYER1
  6
DASHED
 62
     5
 10
1561.765481
 20
1315.539509
 11
1559.947083
 21
1315.791562
  0
LINE
  8
CSLAYER1
  6
DASHED
 62
     5
 10
1559.947083
 20
1315.791562
 11
1558.170740
 21
1316.141747
  0
LINE
  8
CSLAYER1
  6
DASHED
 62
     5
 10
1558.170740
 20
1316.141747
 11
1556.449970
 21
1316.587399
  0
LINE
  8
CSLAYER1
  6
DASHED
 62
     5
 10
1556.449970
 20
1316.587399
 11
1554.797870
 21
1317.125126
  0
LINE
  8
CSLAYER1
  6
DASHED
 62
     5
 10
1554.797870
 20
1317.125126
 11
1553.227013
 21
1317.750835
  0
LINE
  8
CSLAYER1
  6
DASHED
 62
     5
 10
1553.227013
 20
1317.750835
 11
1551.749354
 21
1318.459765
  0
LINE
  8
CSLAYER1
  6
DASHED
 62
     5
 10
1551.749354
 20
1318.459765
 11
1550.376140
 21
1319.246520
  0
LINE
  8
CSLAYER1
  6
DASHED
 62
     5
 10
1550.376140
 20
1319.246520
 11
1549.117821
 21
1320.105112
  0
LINE
  8
CSLAYER1
  6
DASHED
 62
     5
 10
1549.117821
 20
1320.105112
 11
1547.983973
 21
1321.029007
  0
LINE
  8
CSLAYER1
  6
DASHED
 62
     5
 10
1547.983973
 20
1321.029007
 11
1546.983227
 21
1322.011174
  0
LINE
  8
CSLAYER1
  6
DASHED
 62
     5
 10
1546.983227
 20
1322.011174
 11
1546.123198
 21
1323.044137
  0
LINE
  8
CSLAYER1
  6
DASHED
 62
     5
 10
1546.123198
 20
1323.044137
 11
1545.410432
 21
1324.120036
  0
LINE
  8
CSLAYER1
  6
DASHED
 62
     5
 10
1545.410432
 20
1324.120036
 11
1544.850353
 21
1325.230682
  0
LINE
  8
CSLAYER1
  6
DASHED
 62
     5
 10
1544.850353
 20
1325.230682
 11
1544.447224
 21
1326.367622
  0
LINE
  8
CSLAYER1
  6
DASHED
 62
     5
 10
1544.447224
 20
1326.367622
 11
1544.204113
 21
1327.522203
  0
LINE
  8
CSLAYER1
  6
DASHED
 62
     5
 10
1544.204113
 20
1327.522203
 11
1544.122870
 21
1328.685639
  0
LINE
  8
CSLAYER1
  6
DASHED
 62
     5
 10
1527.322870
 20
1328.685639
 11
1527.468042
 21
1330.764566
  0
LINE
  8
CSLAYER1
  6
DASHED
 62
     5
 10
1527.468042
 20
1330.764566
 11
1527.902454
 21
1332.827670
  0
LINE
  8
CSLAYER1
  6
DASHED
 62
     5
 10
1527.902454
 20
1332.827670
 11
1528.622799
 21
1334.859252
  0
LINE
  8
CSLAYER1
  6
DASHED
 62
     5
 10
1528.622799
 20
1334.859252
 11
1529.623596
 21
1336.843848
  0
LINE
  8
CSLAYER1
  6
DASHED
 62
     5
 10
1529.623596
 20
1336.843848
 11
1530.897227
 21
1338.766356
  0
LINE
  8
CSLAYER1
  6
DASHED
 62
     5
 10
1530.897227
 20
1338.766356
 11
1532.434000
 21
1340.612143
  0
LINE
  8
CSLAYER1
  6
DASHED
 62
     5
 10
1532.434000
 20
1340.612143
 11
1534.222219
 21
1342.367162
  0
LINE
  8
CSLAYER1
  6
DASHED
 62
     5
 10
1596.723520
 20
1342.367162
 11
1598.511739
 21
1340.612143
  0
LINE
  8
CSLAYER1
  6
DASHED
 62
     5
 10
1598.511739
 20
1340.612143
 11
1600.048512
 21
1338.766356
  0
LINE
  8
CSLAYER1
  6
DASHED
 62
     5
 10
1600.048512
 20
1338.766356
 11
1601.322143
 21
1336.843848
  0
LINE
  8
CSLAYER1
  6
DASHED
 62
     5
 10
1601.322143
 20
1336.843848
 11
1602.322940
 21
1334.859252
  0
LINE
  8
CSLAYER1
  6
DASHED
 62
     5
 10
1602.322940
 20
1334.859252
 11
1603.043285
 21
1332.827670
  0
LINE
  8
CSLAYER1
  6
DASHED
 62
     5
 10
1603.043285
 20
1332.827670
 11
1603.477697
 21
1330.764566
  0
LINE
  8
CSLAYER1
  6
DASHED
 62
     5
 10
1603.477697
 20
1330.764566
 11
1603.622870
 21
1328.685639
  0
LINE
  8
CSLAYER1
  6
DASHED
 62
     5
 10
1603.622870
 20
1328.685639
 11
1603.477697
 21
1326.606712
  0
LINE
  8
CSLAYER1
  6
DASHED
 62
     5
 10
1603.477697
 20
1326.606712
 11
1603.043285
 21
1324.543608
  0
LINE
  8
CSLAYER1
  6
DASHED
 62
     5
 10
1603.043285
 20
1324.543608
 11
1602.322940
 21
1322.512026
  0
LINE
  8
CSLAYER1
  6
DASHED
 62
     5
 10
1602.322940
 20
1322.512026
 11
1601.322143
 21
1320.527430
  0
LINE
  8
CSLAYER1
  6
DASHED
 62
     5
 10
1601.322143
 20
1320.527430
 11
1600.048512
 21
1318.604923
  0
LINE
  8
CSLAYER1
  6
DASHED
 62
     5
 10
1600.048512
 20
1318.604923
 11
1598.511739
 21
1316.759135
  0
LINE
  8
CSLAYER1
  6
DASHED
 62
     5
 10
1598.511739
 20
1316.759135
 11
1596.723520
 21
1315.004116
  0
LINE
  8
CSLAYER1
  6
DASHED
 62
     5
 10
1596.723520
 20
1315.004116
 11
1594.697465
 21
1313.353221
  0
LINE
  8
CSLAYER1
  6
DASHED
 62
     5
 10
1594.697465
 20
1313.353221
 11
1592.448993
 21
1311.819016
  0
LINE
  8
CSLAYER1
  6
DASHED
 62
     5
 10
1592.448993
 20
1311.819016
 11
1589.995217
 21
1310.413175
  0
LINE
  8
CSLAYER1
  6
DASHED
 62
     5
 10
1589.995217
 20
1310.413175
 11
1587.354811
 21
1309.146399
  0
LINE
  8
CSLAYER1
  6
DASHED
 62
     5
 10
1587.354811
 20
1309.146399
 11
1584.547870
 21
1308.028329
  0
LINE
  8
CSLAYER1
  6
DASHED
 62
     5
 10
1584.547870
 20
1308.028329
 11
1581.595756
 21
1307.067473
  0
LINE
  8
CSLAYER1
  6
DASHED
 62
     5
 10
1581.595756
 20
1307.067473
 11
1578.520938
 21
1306.271144
  0
LINE
  8
CSLAYER1
  6
DASHED
 62
     5
 10
1578.520938
 20
1306.271144
 11
1575.346816
 21
1305.645403
  0
LINE
  8
CSLAYER1
  6
DASHED
 62
     5
 10
1575.346816
 20
1305.645403
 11
1572.097548
 21
1305.195013
  0
LINE
  8
CSLAYER1
  6
DASHED
 62
     5
 10
1572.097548
 20
1305.195013
 11
1568.797861
 21
1304.923400
  0
LINE
  8
CSLAYER1
  6
DASHED
 62
     5
 10
1568.797861
 20
1304.923400
 11
1565.472870
 21
1304.832632
  0
LINE
  8
CSLAYER1
  6
DASHED
 62
     5
 10
1565.472870
 20
1304.832632
 11
1562.147878
 21
1304.923400
  0
LINE
  8
CSLAYER1
  6
DASHED
 62
     5
 10
1562.147878
 20
1304.923400
 11
1558.848192
 21
1305.195013
  0
LINE
  8
CSLAYER1
  6
DASHED
 62
     5
 10
1558.848192
 20
1305.195013
 11
1555.598923
 21
1305.645403
  0
LINE
  8
CSLAYER1
  6
DASHED
 62
     5
 10
1555.598923
 20
1305.645403
 11
1552.424801
 21
1306.271144
  0
LINE
  8
CSLAYER1
  6
DASHED
 62
     5
 10
1552.424801
 20
1306.271144
 11
1549.349983
 21
1307.067473
  0
LINE
  8
CSLAYER1
  6
DASHED
 62
     5
 10
1549.349983
 20
1307.067473
 11
1546.397870
 21
1308.028329
  0
LINE
  8
CSLAYER1
  6
DASHED
 62
     5
 10
1546.397870
 20
1308.028329
 11
1543.590929
 21
1309.146399
  0
LINE
  8
CSLAYER1
  6
DASHED
 62
     5
 10
1543.590929
 20
1309.146399
 11
1540.950522
 21
1310.413175
  0
LINE
  8
CSLAYER1
  6
DASHED
 62
     5
 10
1540.950522
 20
1310.413175
 11
1538.496746
 21
1311.819016
  0
LINE
  8
CSLAYER1
  6
DASHED
 62
     5
 10
1538.496746
 20
1311.819016
 11
1536.248274
 21
1313.353221
  0
LINE
  8
CSLAYER1
  6
DASHED
 62
     5
 10
1536.248274
 20
1313.353221
 11
1534.222219
 21
1315.004116
  0
LINE
  8
CSLAYER1
  6
DASHED
 62
     5
 10
1534.222219
 20
1315.004116
 11
1532.434000
 21
1316.759135
  0
LINE
  8
CSLAYER1
  6
DASHED
 62
     5
 10
1532.434000
 20
1316.759135
 11
1530.897227
 21
1318.604923
  0
LINE
  8
CSLAYER1
  6
DASHED
 62
     5
 10
1530.897227
 20
1318.604923
 11
1529.623596
 21
1320.527430
  0
LINE
  8
CSLAYER1
  6
DASHED
 62
     5
 10
1529.623596
 20
1320.527430
 11
1528.622799
 21
1322.512026
  0
LINE
  8
CSLAYER1
  6
DASHED
 62
     5
 10
1528.622799
 20
1322.512026
 11
1527.902454
 21
1324.543608
  0
LINE
  8
CSLAYER1
  6
DASHED
 62
     5
 10
1527.902454
 20
1324.543608
 11
1527.468042
 21
1326.606712
  0
LINE
  8
CSLAYER1
  6
DASHED
 62
     5
 10
1527.468042
 20
1326.606712
 11
1527.322870
 21
1328.685639
  0
LINE
  8
CSLAYER1
  6
DASHED
 62
     5
 10
1544.122870
 20
1402.919552
 11
1544.122870
 21
1441.922371
  0
LINE
  8
CSLAYER1
  6
DASHED
 62
     5
 10
1586.822870
 20
1402.919552
 11
1586.822870
 21
1441.922371
  0
LINE
  8
CSLAYER1
  6
DASHED
 62
     5
 10
1522.972870
 20
1124.249999
 11
1522.972870
 21
1074.519403
  0
LINE
  8
CSLAYER1
  6
DASHED
 62
     5
 10
1474.472870
 20
1074.519403
 11
1474.472870
 21
1103.220832
  0
LINE
  8
CSLAYER1
  6
DASHED
 62
     5
 10
1522.972870
 20
1121.983417
 11
1504.472870
 21
1121.983417
  0
LINE
  8
CSLAYER1
  6
DASHED
 62
     5
 10
1504.472870
 20
1121.983417
 11
1474.472870
 21
1103.220832
  0
LINE
  8
CSLAYER1
  6
DASHED
 62
     5
 10
1409.472870
 20
794.104575
 11
1409.472870
 21
1946.463887
  0
LINE
  8
CSLAYER1
  6
DASHED
 62
     5
 10
1400.472870
 20
794.104575
 11
1400.472870
 21
1946.463887
  0
LINE
  8
CSLAYER1
  6
DASHED
 62
     5
 10
1387.472870
 20
794.104575
 11
1387.472870
 21
1946.463887
  0
LINE
  8
CSLAYER1
  6
DASHED
 62
     5
 10
1396.472870
 20
794.104575
 11
1396.472870
 21
1946.463887
  0
LINE
  8
CSLAYER1
  6
DASHED
 62
     5
 10
1621.972870
 20
843.404575
 11
1530.472870
 21
843.404575
  0
LINE
  8
CSLAYER1
  6
DASHED
 62
     5
 10
1621.972870
 20
837.404575
 11
1620.472870
 21
837.404575
  0
LINE
  8
CSLAYER1
  6
DASHED
 62
     5
 10
1621.972870
 20
837.404575
 11
1621.972870
 21
843.404575
  0
LINE
  8
CSLAYER1
  6
DASHED
 62
     5
 10
1621.972870
 20
837.404575
 11
1620.472870
 21
837.404575
  0
LINE
  8
CSLAYER1
  6
DASHED
 62
     5
 10
1621.972870
 20
837.404575
 11
1621.972870
 21
843.404575
  0
LINE
  8
CSLAYER1
  6
DASHED
 62
     5
 10
1585.916032
 20
822.404575
 11
1614.309618
 21
822.404575
  0
ARC
  8
CSLAYER1
  6
DASHED
 62
     5
 10
1600.472870
 20
822.404575
 40
11.500000
 50
90.000000
 51
270.000000
  0
LINE
  8
CSLAYER1
  6
DASHED
 62
     5
 10
1599.972870
 20
835.394956
 11
1589.472870
 21
829.332778
  0
LINE
  8
CSLAYER1
  6
DASHED
 62
     5
 10
1588.972870
 20
828.466753
 11
1588.972870
 21
816.342397
  0
LINE
  8
CSLAYER1
  6
DASHED
 62
     5
 10
1589.472870
 20
815.476372
 11
1599.972870
 21
809.414194
  0
ARC
  8
CSLAYER1
  6
DASHED
 62
     5
 10
1600.472870
 20
822.404575
 40
13.000000
 50
90.000000
 51
92.204228
  0
ARC
  8
CSLAYER1
  6
DASHED
 62
     5
 10
1600.472870
 20
822.404575
 40
13.000000
 50
267.795772
 51
270.000000
  0
ARC
  8
CSLAYER1
  6
DASHED
 62
     5
 10
1600.472870
 20
822.404575
 40
13.000000
 50
207.795772
 51
212.204228
  0
ARC
  8
CSLAYER1
  6
DASHED
 62
     5
 10
1600.472870
 20
822.404575
 40
13.000000
 50
147.795772
 51
152.204228
  0
CIRCLE
  8
CSLAYER1
  6
DASHED
 62
     5
 10
1600.472870
 20
822.404575
 40
4.000000
  0
CIRCLE
  8
CSLAYER1
  6
DASHED
 62
     5
 10
1600.472870
 20
822.404575
 40
10.359534
  0
CIRCLE
  8
CSLAYER1
  6
DASHED
 62
     5
 10
1600.472870
 20
822.404575
 40
4.761355
  0
ARC
  8
CSLAYER1
  6
DASHED
 62
     5
 10
1600.472870
 20
822.404575
 40
11.500000
 50
-90.000000
 51
90.000000
  0
LINE
  8
CSLAYER1
  6
DASHED
 62
     5
 10
1600.972870
 20
835.394956
 11
1611.472870
 21
829.332778
  0
LINE
  8
CSLAYER1
  6
DASHED
 62
     5
 10
1611.972870
 20
828.466753
 11
1611.972870
 21
816.342397
  0
LINE
  8
CSLAYER1
  6
DASHED
 62
     5
 10
1611.472870
 20
815.476372
 11
1600.972870
 21
809.414194
  0
ARC
  8
CSLAYER1
  6
DASHED
 62
     5
 10
1600.472870
 20
822.404575
 40
13.000000
 50
87.795772
 51
90.000000
  0
ARC
  8
CSLAYER1
  6
DASHED
 62
     5
 10
1600.472870
 20
822.404575
 40
13.000000
 50
270.000000
 51
272.204228
  0
ARC
  8
CSLAYER1
  6
DASHED
 62
     5
 10
1600.472870
 20
822.404575
 40
13.000000
 50
327.795772
 51
332.204228
  0
ARC
  8
CSLAYER1
  6
DASHED
 62
     5
 10
1600.472870
 20
822.404575
 40
13.000000
 50
27.795772
 51
32.204228
  0
LINE
  8
CSLAYER1
  6
DASHED
 62
     5
 10
1600.472870
 20
838.325440
 11
1600.472870
 21
806.106811
  0
LINE
  8
CSLAYER1
  6
DASHED
 62
     5
 10
1550.916032
 20
822.404575
 11
1579.309618
 21
822.404575
  0
ARC
  8
CSLAYER1
  6
DASHED
 62
     5
 10
1565.472870
 20
822.404575
 40
11.500000
 50
90.000000
 51
270.000000
  0
LINE
  8
CSLAYER1
  6
DASHED
 62
     5
 10
1564.972870
 20
835.394956
 11
1554.472870
 21
829.332778
  0
LINE
  8
CSLAYER1
  6
DASHED
 62
     5
 10
1553.972870
 20
828.466753
 11
1553.972870
 21
816.342397
  0
LINE
  8
CSLAYER1
  6
DASHED
 62
     5
 10
1554.472870
 20
815.476372
 11
1564.972870
 21
809.414194
  0
ARC
  8
CSLAYER1
  6
DASHED
 62
     5
 10
1565.472870
 20
822.404575
 40
13.000000
 50
90.000000
 51
92.204228
  0
ARC
  8
CSLAYER1
  6
DASHED
 62
     5
 10
1565.472870
 20
822.404575
 40
13.000000
 50
267.795772
 51
270.000000
  0
ARC
  8
CSLAYER1
  6
DASHED
 62
     5
 10
1565.472870
 20
822.404575
 40
13.000000
 50
207.795772
 51
212.204228
  0
ARC
  8
CSLAYER1
  6
DASHED
 62
     5
 10
1565.472870
 20
822.404575
 40
13.000000
 50
147.795772
 51
152.204228
  0
CIRCLE
  8
CSLAYER1
  6
DASHED
 62
     5
 10
1565.472870
 20
822.404575
 40
4.000000
  0
CIRCLE
  8
CSLAYER1
  6
DASHED
 62
     5
 10
1565.472870
 20
822.404575
 40
10.359534
  0
CIRCLE
  8
CSLAYER1
  6
DASHED
 62
     5
 10
1565.472870
 20
822.404575
 40
4.761355
  0
ARC
  8
CSLAYER1
  6
DASHED
 62
     5
 10
1565.472870
 20
822.404575
 40
11.500000
 50
-90.000000
 51
90.000000
  0
LINE
  8
CSLAYER1
  6
DASHED
 62
     5
 10
1565.972870
 20
835.394956
 11
1576.472870
 21
829.332778
  0
LINE
  8
CSLAYER1
  6
DASHED
 62
     5
 10
1576.972870
 20
828.466753
 11
1576.972870
 21
816.342397
  0
LINE
  8
CSLAYER1
  6
DASHED
 62
     5
 10
1576.472870
 20
815.476372
 11
1565.972870
 21
809.414194
  0
ARC
  8
CSLAYER1
  6
DASHED
 62
     5
 10
1565.472870
 20
822.404575
 40
13.000000
 50
87.795772
 51
90.000000
  0
ARC
  8
CSLAYER1
  6
DASHED
 62
     5
 10
1565.472870
 20
822.404575
 40
13.000000
 50
270.000000
 51
272.204228
  0
ARC
  8
CSLAYER1
  6
DASHED
 62
     5
 10
1565.472870
 20
822.404575
 40
13.000000
 50
327.795772
 51
332.204228
  0
ARC
  8
CSLAYER1
  6
DASHED
 62
     5
 10
1565.472870
 20
822.404575
 40
13.000000
 50
27.795772
 51
32.204228
  0
LINE
  8
CSLAYER1
  6
DASHED
 62
     5
 10
1530.472870
 20
837.404575
 11
1621.972870
 21
837.404575
  0
LINE
  8
CSLAYER1
  6
DASHED
 62
     5
 10
1609.472870
 20
843.404575
 11
1619.472870
 21
843.404575
  0
LINE
  8
CSLAYER1
  6
DASHED
 62
     5
 10
1610.972870
 20
846.404575
 11
1610.972870
 21
844.204575
  0
LINE
  8
CSLAYER1
  6
DASHED
 62
     5
 10
1617.972870
 20
846.404575
 11
1617.972870
 21
844.204575
  0
LINE
  8
CSLAYER1
  6
DASHED
 62
     5
 10
1617.972870
 20
845.204575
 11
1610.972870
 21
845.204575
  0
LINE
  8
CSLAYER1
  6
DASHED
 62
     5
 10
1616.572870
 20
847.804575
 11
1612.372870
 21
847.804575
  0
LINE
  8
CSLAYER1
  6
DASHED
 62
     5
 10
1618.972870
 20
844.204575
 11
1618.972870
 21
843.404575
  0
LINE
  8
CSLAYER1
  6
DASHED
 62
     5
 10
1609.972870
 20
844.204575
 11
1609.972870
 21
843.404575
  0
LINE
  8
CSLAYER1
  6
DASHED
 62
     5
 10
1617.972870
 20
846.404575
 11
1617.972870
 21
845.204575
  0
LINE
  8
CSLAYER1
  6
DASHED
 62
     5
 10
1618.972870
 20
844.204575
 11
1609.972870
 21
844.204575
  0
LINE
  8
CSLAYER1
  6
DASHED
 62
     5
 10
1618.972870
 20
843.404575
 11
1609.972870
 21
843.404575
  0
ARC
  8
CSLAYER1
  6
DASHED
 62
     5
 10
1616.572870
 20
846.404575
 40
1.400000
 50
-0.000000
 51
90.000000
  0
ARC
  8
CSLAYER1
  6
DASHED
 62
     5
 10
1612.372870
 20
846.404575
 40
1.400000
 50
90.000000
 51
180.000000
  0
LINE
  8
CSLAYER1
  6
DASHED
 62
     5
 10
1615.512822
 20
844.204575
 11
1613.127619
 21
845.204575
  0
LINE
  8
CSLAYER1
  6
DASHED
 62
     5
 10
1614.472870
 20
849.632924
 11
1614.472870
 21
834.434746
  0
LINE
  8
CSLAYER1
  6
DASHED
 62
     5
 10
1565.472870
 20
838.325440
 11
1565.472870
 21
806.106811
  0
LINE
  8
CSLAYER1
  6
DASHED
 62
     5
 10
1621.972870
 20
843.404575
 11
1530.472870
 21
843.404575
  0
LINE
  8
CSLAYER1
  6
DASHED
 62
     5
 10
1621.972870
 20
837.404575
 11
1620.472870
 21
837.404575
  0
LINE
  8
CSLAYER1
  6
DASHED
 62
     5
 10
1621.972870
 20
837.404575
 11
1621.972870
 21
843.404575
  0
LINE
  8
CSLAYER1
  6
DASHED
 62
     5
 10
1621.972870
 20
837.404575
 11
1620.472870
 21
837.404575
  0
LINE
  8
CSLAYER1
  6
DASHED
 62
     5
 10
1621.972870
 20
837.404575
 11
1621.972870
 21
843.404575
  0
LINE
  8
CSLAYER1
  6
DASHED
 62
     5
 10
1585.916032
 20
822.404575
 11
1614.309618
 21
822.404575
  0
ARC
  8
CSLAYER1
  6
DASHED
 62
     5
 10
1600.472870
 20
822.404575
 40
11.500000
 50
90.000000
 51
270.000000
  0
LINE
  8
CSLAYER1
  6
DASHED
 62
     5
 10
1599.972870
 20
835.394956
 11
1589.472870
 21
829.332778
  0
LINE
  8
CSLAYER1
  6
DASHED
 62
     5
 10
1588.972870
 20
828.466753
 11
1588.972870
 21
816.342397
  0
LINE
  8
CSLAYER1
  6
DASHED
 62
     5
 10
1589.472870
 20
815.476372
 11
1599.972870
 21
809.414194
  0
ARC
  8
CSLAYER1
  6
DASHED
 62
     5
 10
1600.472870
 20
822.404575
 40
13.000000
 50
90.000000
 51
92.204228
  0
ARC
  8
CSLAYER1
  6
DASHED
 62
     5
 10
1600.472870
 20
822.404575
 40
13.000000
 50
267.795772
 51
270.000000
  0
ARC
  8
CSLAYER1
  6
DASHED
 62
     5
 10
1600.472870
 20
822.404575
 40
13.000000
 50
207.795772
 51
212.204228
  0
ARC
  8
CSLAYER1
  6
DASHED
 62
     5
 10
1600.472870
 20
822.404575
 40
13.000000
 50
147.795772
 51
152.204228
  0
CIRCLE
  8
CSLAYER1
  6
DASHED
 62
     5
 10
1600.472870
 20
822.404575
 40
4.000000
  0
CIRCLE
  8
CSLAYER1
  6
DASHED
 62
     5
 10
1600.472870
 20
822.404575
 40
10.359534
  0
CIRCLE
  8
CSLAYER1
  6
DASHED
 62
     5
 10
1600.472870
 20
822.404575
 40
4.761355
  0
ARC
  8
CSLAYER1
  6
DASHED
 62
     5
 10
1600.472870
 20
822.404575
 40
11.500000
 50
-90.000000
 51
90.000000
  0
LINE
  8
CSLAYER1
  6
DASHED
 62
     5
 10
1600.972870
 20
835.394956
 11
1611.472870
 21
829.332778
  0
LINE
  8
CSLAYER1
  6
DASHED
 62
     5
 10
1611.972870
 20
828.466753
 11
1611.972870
 21
816.342397
  0
LINE
  8
CSLAYER1
  6
DASHED
 62
     5
 10
1611.472870
 20
815.476372
 11
1600.972870
 21
809.414194
  0
ARC
  8
CSLAYER1
  6
DASHED
 62
     5
 10
1600.472870
 20
822.404575
 40
13.000000
 50
87.795772
 51
90.000000
  0
ARC
  8
CSLAYER1
  6
DASHED
 62
     5
 10
1600.472870
 20
822.404575
 40
13.000000
 50
270.000000
 51
272.204228
  0
ARC
  8
CSLAYER1
  6
DASHED
 62
     5
 10
1600.472870
 20
822.404575
 40
13.000000
 50
327.795772
 51
332.204228
  0
ARC
  8
CSLAYER1
  6
DASHED
 62
     5
 10
1600.472870
 20
822.404575
 40
13.000000
 50
27.795772
 51
32.204228
  0
LINE
  8
CSLAYER1
  6
DASHED
 62
     5
 10
1600.472870
 20
838.325440
 11
1600.472870
 21
806.106811
  0
LINE
  8
CSLAYER1
  6
DASHED
 62
     5
 10
1550.916032
 20
822.404575
 11
1579.309618
 21
822.404575
  0
ARC
  8
CSLAYER1
  6
DASHED
 62
     5
 10
1565.472870
 20
822.404575
 40
11.500000
 50
90.000000
 51
270.000000
  0
LINE
  8
CSLAYER1
  6
DASHED
 62
     5
 10
1564.972870
 20
835.394956
 11
1554.472870
 21
829.332778
  0
LINE
  8
CSLAYER1
  6
DASHED
 62
     5
 10
1553.972870
 20
828.466753
 11
1553.972870
 21
816.342397
  0
LINE
  8
CSLAYER1
  6
DASHED
 62
     5
 10
1554.472870
 20
815.476372
 11
1564.972870
 21
809.414194
  0
ARC
  8
CSLAYER1
  6
DASHED
 62
     5
 10
1565.472870
 20
822.404575
 40
13.000000
 50
90.000000
 51
92.204228
  0
ARC
  8
CSLAYER1
  6
DASHED
 62
     5
 10
1565.472870
 20
822.404575
 40
13.000000
 50
267.795772
 51
270.000000
  0
ARC
  8
CSLAYER1
  6
DASHED
 62
     5
 10
1565.472870
 20
822.404575
 40
13.000000
 50
207.795772
 51
212.204228
  0
ARC
  8
CSLAYER1
  6
DASHED
 62
     5
 10
1565.472870
 20
822.404575
 40
13.000000
 50
147.795772
 51
152.204228
  0
CIRCLE
  8
CSLAYER1
  6
DASHED
 62
     5
 10
1565.472870
 20
822.404575
 40
4.000000
  0
CIRCLE
  8
CSLAYER1
  6
DASHED
 62
     5
 10
1565.472870
 20
822.404575
 40
10.359534
  0
CIRCLE
  8
CSLAYER1
  6
DASHED
 62
     5
 10
1565.472870
 20
822.404575
 40
4.761355
  0
ARC
  8
CSLAYER1
  6
DASHED
 62
     5
 10
1565.472870
 20
822.404575
 40
11.500000
 50
-90.000000
 51
90.000000
  0
LINE
  8
CSLAYER1
  6
DASHED
 62
     5
 10
1565.972870
 20
835.394956
 11
1576.472870
 21
829.332778
  0
LINE
  8
CSLAYER1
  6
DASHED
 62
     5
 10
1576.972870
 20
828.466753
 11
1576.972870
 21
816.342397
  0
LINE
  8
CSLAYER1
  6
DASHED
 62
     5
 10
1576.472870
 20
815.476372
 11
1565.972870
 21
809.414194
  0
ARC
  8
CSLAYER1
  6
DASHED
 62
     5
 10
1565.472870
 20
822.404575
 40
13.000000
 50
87.795772
 51
90.000000
  0
ARC
  8
CSLAYER1
  6
DASHED
 62
     5
 10
1565.472870
 20
822.404575
 40
13.000000
 50
270.000000
 51
272.204228
  0
ARC
  8
CSLAYER1
  6
DASHED
 62
     5
 10
1565.472870
 20
822.404575
 40
13.000000
 50
327.795772
 51
332.204228
  0
ARC
  8
CSLAYER1
  6
DASHED
 62
     5
 10
1565.472870
 20
822.404575
 40
13.000000
 50
27.795772
 51
32.204228
  0
LINE
  8
CSLAYER1
  6
DASHED
 62
     5
 10
1565.472870
 20
838.325440
 11
1565.472870
 21
806.106811
  0
LINE
  8
CSLAYER1
  6
DASHED
 62
     5
 10
1609.472870
 20
843.404575
 11
1619.472870
 21
843.404575
  0
LINE
  8
CSLAYER1
  6
DASHED
 62
     5
 10
1565.472870
 20
838.325440
 11
1565.472870
 21
806.106811
  0
LINE
  8
CSLAYER1
  6
DASHED
 62
     5
 10
1620.472870
 20
837.404575
 11
1620.472870
 21
794.104575
  0
LINE
  8
CSLAYER1
  6
DASHED
 62
     5
 10
1621.972870
 20
843.404575
 11
1621.972870
 21
837.404575
  0
LINE
  8
CSLAYER1
  6
DASHED
 62
     5
 10
1438.972870
 20
843.404575
 11
1530.472870
 21
843.404575
  0
LINE
  8
CSLAYER1
  6
DASHED
 62
     5
 10
1438.972870
 20
837.404575
 11
1440.472870
 21
837.404575
  0
LINE
  8
CSLAYER1
  6
DASHED
 62
     5
 10
1438.972870
 20
837.404575
 11
1438.972870
 21
843.404575
  0
LINE
  8
CSLAYER1
  6
DASHED
 62
     5
 10
1438.972870
 20
837.404575
 11
1440.472870
 21
837.404575
  0
LINE
  8
CSLAYER1
  6
DASHED
 62
     5
 10
1438.972870
 20
837.404575
 11
1438.972870
 21
843.404575
  0
LINE
  8
CSLAYER1
  6
DASHED
 62
     5
 10
1530.472870
 20
837.404575
 11
1438.972870
 21
837.404575
  0
LINE
  8
CSLAYER1
  6
DASHED
 62
     5
 10
1451.472870
 20
843.404575
 11
1441.472870
 21
843.404575
  0
LINE
  8
CSLAYER1
  6
DASHED
 62
     5
 10
1449.972870
 20
846.404575
 11
1449.972870
 21
844.204575
  0
LINE
  8
CSLAYER1
  6
DASHED
 62
     5
 10
1442.972870
 20
846.404575
 11
1442.972870
 21
844.204575
  0
LINE
  8
CSLAYER1
  6
DASHED
 62
     5
 10
1442.972870
 20
845.204575
 11
1449.972870
 21
845.204575
  0
LINE
  8
CSLAYER1
  6
DASHED
 62
     5
 10
1444.372870
 20
847.804575
 11
1448.572870
 21
847.804575
  0
LINE
  8
CSLAYER1
  6
DASHED
 62
     5
 10
1441.972870
 20
844.204575
 11
1441.972870
 21
843.404575
  0
LINE
  8
CSLAYER1
  6
DASHED
 62
     5
 10
1450.972870
 20
844.204575
 11
1450.972870
 21
843.404575
  0
LINE
  8
CSLAYER1
  6
DASHED
 62
     5
 10
1442.972870
 20
846.404575
 11
1442.972870
 21
845.204575
  0
LINE
  8
CSLAYER1
  6
DASHED
 62
     5
 10
1441.972870
 20
844.204575
 11
1450.972870
 21
844.204575
  0
LINE
  8
CSLAYER1
  6
DASHED
 62
     5
 10
1441.972870
 20
843.404575
 11
1450.972870
 21
843.404575
  0
ARC
  8
CSLAYER1
  6
DASHED
 62
     5
 10
1444.372870
 20
846.404575
 40
1.400000
 50
90.000000
 51
180.000000
  0
ARC
  8
CSLAYER1
  6
DASHED
 62
     5
 10
1448.572870
 20
846.404575
 40
1.400000
 50
0.000000
 51
90.000000
  0
LINE
  8
CSLAYER1
  6
DASHED
 62
     5
 10
1445.432918
 20
844.204575
 11
1447.818120
 21
845.204575
  0
LINE
  8
CSLAYER1
  6
DASHED
 62
     5
 10
1446.472870
 20
849.632924
 11
1446.472870
 21
834.434746
  0
LINE
  8
CSLAYER1
  6
DASHED
 62
     5
 10
1438.972870
 20
843.404575
 11
1530.472870
 21
843.404575
  0
LINE
  8
CSLAYER1
  6
DASHED
 62
     5
 10
1438.972870
 20
837.404575
 11
1440.472870
 21
837.404575
  0
LINE
  8
CSLAYER1
  6
DASHED
 62
     5
 10
1438.972870
 20
837.404575
 11
1438.972870
 21
843.404575
  0
LINE
  8
CSLAYER1
  6
DASHED
 62
     5
 10
1438.972870
 20
837.404575
 11
1440.472870
 21
837.404575
  0
LINE
  8
CSLAYER1
  6
DASHED
 62
     5
 10
1438.972870
 20
837.404575
 11
1438.972870
 21
843.404575
  0
LINE
  8
CSLAYER1
  6
DASHED
 62
     5
 10
1451.472870
 20
843.404575
 11
1441.472870
 21
843.404575
  0
LINE
  8
CSLAYER1
  6
DASHED
 62
     5
 10
1438.972870
 20
843.404575
 11
1438.972870
 21
837.404575
  0
LINE
  8
CSLAYER1
  6
DASHED
 62
     5
 10
1440.472870
 20
837.404575
 11
1440.472870
 21
794.104575
  0
LINE
  8
CSLAYER1
  6
DASHED
 62
     5
 10
1409.472870
 20
1900.283403
 11
1721.472870
 21
1900.283403
  0
LINE
  8
CSLAYER1
  6
DASHED
 62
     5
 10
1409.472870
 20
1930.533403
 11
1721.472870
 21
1930.533403
  0
LINE
  8
CSLAYER1
  6
DASHED
 62
     5
 10
1409.472870
 20
1870.033403
 11
1721.472870
 21
1870.033403
  0
LINE
  8
CSLAYER1
  6
DASHED
 62
     5
 10
1784.472870
 20
1946.463887
 11
1784.472870
 21
1938.263887
  0
LINE
  8
CSLAYER1
  6
DASHED
 62
     5
 10
1772.472870
 20
1946.463887
 11
1772.472870
 21
1938.263887
  0
LINE
  8
CSLAYER1
  6
DASHED
 62
     5
 10
1772.972870
 20
1937.763887
 11
1783.972870
 21
1937.763887
  0
LINE
  8
CSLAYER1
  6
DASHED
 62
     5
 10
1784.972870
 20
1937.763887
 11
1795.972870
 21
1937.763887
  0
ARC
  8
CSLAYER1
  6
DASHED
 62
     5
 10
1783.972870
 20
1938.263887
 40
0.500000
 50
270.000000
 51
360.000000
  0
ARC
  8
CSLAYER1
  6
DASHED
 62
     5
 10
1772.972870
 20
1938.263887
 40
0.500000
 50
180.000000
 51
270.000000
  0
ARC
  8
CSLAYER1
  6
DASHED
 62
     5
 10
1795.972870
 20
1938.263887
 40
0.500000
 50
270.000000
 51
360.000000
  0
ARC
  8
CSLAYER1
  6
DASHED
 62
     5
 10
1784.972870
 20
1938.263887
 40
0.500000
 50
180.000000
 51
270.000000
  0
LINE
  8
CSLAYER1
  6
DASHED
 62
     5
 10
1346.472870
 20
1946.463887
 11
1346.472870
 21
1938.263887
  0
LINE
  8
CSLAYER1
  6
DASHED
 62
     5
 10
1358.472870
 20
1946.463887
 11
1358.472870
 21
1938.263887
  0
LINE
  8
CSLAYER1
  6
DASHED
 62
     5
 10
1357.972870
 20
1937.763887
 11
1346.972870
 21
1937.763887
  0
ARC
  8
CSLAYER1
  6
DASHED
 62
     5
 10
1346.972870
 20
1938.263887
 40
0.500000
 50
180.000000
 51
270.000000
  0
ARC
  8
CSLAYER1
  6
DASHED
 62
     5
 10
1357.972870
 20
1938.263887
 40
0.500000
 50
270.000000
 51
360.000000
  0
ARC
  8
CSLAYER1
  6
DASHED
 62
     5
 10
1345.972870
 20
1938.263887
 40
0.500000
 50
270.000000
 51
360.000000
  0
LINE
  8
CSLAYER1
  6
DASHED
 62
     5
 10
1345.972870
 20
1937.763887
 11
1334.972870
 21
1937.763887
  0
ARC
  8
CSLAYER1
  6
DASHED
 62
     5
 10
1334.972870
 20
1938.263887
 40
0.500000
 50
180.000000
 51
270.000000
  0
LINE
  8
CSLAYER1
  6
DASHED
 62
     5
 10
1734.472870
 20
1378.434231
 11
1743.472870
 21
1378.434231
  0
LINE
  8
CSLAYER1
  6
DASHED
 62
     5
 10
1721.472870
 20
1346.434231
 11
1730.472870
 21
1346.434231
  0
LINE
  8
CSLAYER1
  6
DASHED
 62
     5
 10
1396.472870
 20
1378.434231
 11
1387.472870
 21
1378.434231
  0
LINE
  8
CSLAYER1
  6
DASHED
 62
     5
 10
1409.472870
 20
1346.434231
 11
1400.472870
 21
1346.434231
  0
LINE
  8
CSLAYER1
  6
DASHED
 62
     5
 10
1724.404441
 20
864.323453
 11
1665.472870
 21
864.323453
  0
LINE
  8
CSLAYER1
  6
DASHED
 62
     5
 10
1721.472870
 20
869.323453
 11
1677.317449
 21
869.323453
  0
LINE
  8
CSLAYER1
  6
DASHED
 62
     5
 10
1721.472870
 20
859.323453
 11
1678.972870
 21
859.323453
  0
LINE
  8
CSLAYER1
  6
DASHED
 62
     5
 10
1724.404441
 20
825.610325
 11
1665.472870
 21
825.610325
  0
LINE
  8
CSLAYER1
  6
DASHED
 62
     5
 10
1665.472870
 20
821.610325
 11
1665.472870
 21
829.610325
  0
LINE
  8
CSLAYER1
  6
DASHED
 62
     5
 10
1721.472870
 20
830.610325
 11
1666.472870
 21
830.610325
  0
LINE
  8
CSLAYER1
  6
DASHED
 62
     5
 10
1721.472870
 20
820.610325
 11
1666.472870
 21
820.610325
  0
LINE
  8
CSLAYER1
  6
DASHED
 62
     5
 10
1666.472870
 20
820.610325
 11
1666.472870
 21
830.610325
  0
LINE
  8
CSLAYER1
  6
DASHED
 62
     5
 10
1665.472870
 20
821.610325
 11
1666.472870
 21
820.610325
  0
LINE
  8
CSLAYER1
  6
DASHED
 62
     5
 10
1665.472870
 20
829.610325
 11
1666.472870
 21
830.610325
  0
LINE
  8
CSLAYER1
  6
DASHED
 62
     5
 10
1663.472870
 20
794.104575
 11
1663.472870
 21
846.800804
  0
LINE
  8
CSLAYER1
  6
DASHED
 62
     5
 10
1660.472870
 20
794.104575
 11
1660.472870
 21
846.800804
  0
LINE
  8
CSLAYER1
  6
DASHED
 62
     5
 10
1667.972870
 20
877.025011
 11
1669.472870
 21
877.025011
  0
LINE
  8
CSLAYER1
  6
DASHED
 62
     5
 10
1679.472870
 20
810.332771
 11
1679.472870
 21
820.610325
  0
LINE
  8
CSLAYER1
  6
DASHED
 62
     5
 10
1663.472870
 20
810.332771
 11
1663.472870
 21
846.800804
  0
LINE
  8
CSLAYER1
  6
DASHED
 62
     5
 10
1679.472870
 20
810.332771
 11
1663.472870
 21
810.332771
  0
LINE
  8
CSLAYER1
  6
DASHED
 62
     5
 10
1679.472870
 20
846.800804
 11
1673.472870
 21
846.800804
  0
LINE
  8
CSLAYER1
  6
DASHED
 62
     5
 10
1679.472870
 20
846.800804
 11
1660.472870
 21
846.800804
  0
LINE
  8
CSLAYER1
  6
DASHED
 62
     5
 10
1680.472870
 20
812.884731
 11
1680.472870
 21
820.484731
  0
LINE
  8
CSLAYER1
  6
DASHED
 62
     5
 10
1680.472870
 20
812.884731
 11
1679.472870
 21
812.884731
  0
LINE
  8
CSLAYER1
  6
DASHED
 62
     5
 10
1680.472870
 20
820.484731
 11
1679.472870
 21
820.484731
  0
LINE
  8
CSLAYER1
  6
DASHED
 62
     5
 10
1683.072870
 20
815.184731
 11
1683.072870
 21
818.184731
  0
LINE
  8
CSLAYER1
  6
DASHED
 62
     5
 10
1681.072870
 20
813.184731
 11
1680.472870
 21
813.184731
  0
LINE
  8
CSLAYER1
  6
DASHED
 62
     5
 10
1681.072870
 20
820.184731
 11
1680.472870
 21
820.184731
  0
ARC
  8
CSLAYER1
  6
DASHED
 62
     5
 10
1681.072870
 20
815.184731
 40
2.000000
 50
270.000000
 51
360.000000
  0
ARC
  8
CSLAYER1
  6
DASHED
 62
     5
 10
1681.072870
 20
818.184731
 40
2.000000
 50
0.000000
 51
90.000000
  0
LINE
  8
CSLAYER1
  6
DASHED
 62
     5
 10
1680.472870
 20
834.472936
 11
1680.472870
 21
842.072936
  0
LINE
  8
CSLAYER1
  6
DASHED
 62
     5
 10
1680.472870
 20
834.472936
 11
1679.472870
 21
834.472936
  0
LINE
  8
CSLAYER1
  6
DASHED
 62
     5
 10
1680.472870
 20
842.072936
 11
1679.472870
 21
842.072936
  0
LINE
  8
CSLAYER1
  6
DASHED
 62
     5
 10
1683.072870
 20
836.772936
 11
1683.072870
 21
839.772936
  0
LINE
  8
CSLAYER1
  6
DASHED
 62
     5
 10
1681.072870
 20
834.772936
 11
1680.472870
 21
834.772936
  0
LINE
  8
CSLAYER1
  6
DASHED
 62
     5
 10
1681.072870
 20
841.772936
 11
1680.472870
 21
841.772936
  0
ARC
  8
CSLAYER1
  6
DASHED
 62
     5
 10
1681.072870
 20
836.772936
 40
2.000000
 50
270.000000
 51
360.000000
  0
ARC
  8
CSLAYER1
  6
DASHED
 62
     5
 10
1681.072870
 20
839.772936
 40
2.000000
 50
0.000000
 51
90.000000
  0
LINE
  8
CSLAYER1
  6
DASHED
 62
     5
 10
1653.082894
 20
805.104575
 11
1668.244571
 21
805.104575
  0
LINE
  8
CSLAYER1
  6
DASHED
 62
     5
 10
1663.472870
 20
810.332771
 11
1679.472870
 21
810.332771
  0
LINE
  8
CSLAYER1
  6
DASHED
 62
     5
 10
1683.472870
 20
869.323453
 11
1683.472870
 21
898.776483
  0
LINE
  8
CSLAYER1
  6
DASHED
 62
     5
 10
1679.072870
 20
869.323453
 11
1679.072870
 21
898.776483
  0
LINE
  8
CSLAYER1
  6
DASHED
 62
     5
 10
1674.972870
 20
872.104158
 11
1674.972870
 21
877.025011
  0
LINE
  8
CSLAYER1
  6
DASHED
 62
     5
 10
1667.972870
 20
872.104158
 11
1667.972870
 21
877.025011
  0
LINE
  8
CSLAYER1
  6
DASHED
 62
     5
 10
1666.486167
 20
872.104158
 11
1676.459572
 21
872.104158
  0
LINE
  8
CSLAYER1
  6
DASHED
 62
     5
 10
1663.972870
 20
863.957608
 11
1663.972870
 21
847.604158
  0
LINE
  8
CSLAYER1
  6
DASHED
 62
     5
 10
1678.972870
 20
863.957608
 11
1678.972870
 21
847.604158
  0
LINE
  8
CSLAYER1
  6
DASHED
 62
     5
 10
1676.459572
 20
872.104158
 11
1678.972870
 21
863.957608
  0
LINE
  8
CSLAYER1
  6
DASHED
 62
     5
 10
1666.486167
 20
872.104158
 11
1663.972870
 21
863.957608
  0
LINE
  8
CSLAYER1
  6
DASHED
 62
     5
 10
1673.472870
 20
883.866502
 11
1673.472870
 21
872.104158
  0
LINE
  8
CSLAYER1
  6
DASHED
 62
     5
 10
1669.472870
 20
883.866502
 11
1669.472870
 21
872.104158
  0
LINE
  8
CSLAYER1
  6
DASHED
 62
     5
 10
1673.472870
 20
877.025011
 11
1674.972870
 21
877.025011
  0
LINE
  8
CSLAYER1
  6
DASHED
 62
     5
 10
1679.472870
 20
830.610325
 11
1679.472870
 21
846.800804
  0
LINE
  8
CSLAYER1
  6
DASHED
 62
     5
 10
1625.472870
 20
811.904575
 11
1625.472870
 21
815.104575
  0
LINE
  8
CSLAYER1
  6
DASHED
 62
     5
 10
1657.272870
 20
794.104575
 11
1657.272870
 21
811.904575
  0
LINE
  8
CSLAYER1
  6
DASHED
 62
     5
 10
1640.472870
 20
794.104575
 11
1640.472870
 21
891.195962
  0
LINE
  8
CSLAYER1
  6
DASHED
 62
     5
 10
1625.472870
 20
815.104575
 11
1660.472870
 21
815.104575
  0
LINE
  8
CSLAYER1
  6
DASHED
 62
     5
 10
1625.472870
 20
811.904575
 11
1657.272870
 21
811.904575
  0
LINE
  8
CSLAYER1
  6
DASHED
 62
     5
 10
1633.472870
 20
849.641392
 11
1627.313108
 21
849.641392
  0
LINE
  8
CSLAYER1
  6
DASHED
 62
     5
 10
1648.972870
 20
843.104575
 11
1640.472870
 21
843.104575
  0
LINE
  8
CSLAYER1
  6
DASHED
 62
     5
 10
1649.922870
 20
805.104575
 11
1640.472870
 21
805.104575
  0
LINE
  8
CSLAYER1
  6
DASHED
 62
     5
 10
1650.922870
 20
806.104575
 11
1649.922870
 21
805.104575
  0
LINE
  8
CSLAYER1
  6
DASHED
 62
     5
 10
1654.809964
 20
811.904575
 11
1654.809964
 21
807.491309
  0
LINE
  8
CSLAYER1
  6
DASHED
 62
     5
 10
1654.809964
 20
807.491309
 11
1640.472870
 21
807.491309
  0
LINE
  8
CSLAYER1
  6
DASHED
 62
     5
 10
1650.922870
 20
807.491309
 11
1650.922870
 21
806.104575
  0
LINE
  8
CSLAYER1
  6
DASHED
 62
     5
 10
1649.922870
 20
807.491309
 11
1649.922870
 21
805.104575
  0
LINE
  8
CSLAYER1
  6
DASHED
 62
     5
 10
1649.518461
 20
811.904575
 11
1649.518461
 21
807.491309
  0
LINE
  8
CSLAYER1
  6
DASHED
 62
     5
 10
1645.764372
 20
811.904575
 11
1645.764372
 21
807.491309
  0
LINE
  8
CSLAYER1
  6
DASHED
 62
     5
 10
1651.972870
 20
820.104575
 11
1640.472870
 21
820.104575
  0
LINE
  8
CSLAYER1
  6
DASHED
 62
     5
 10
1653.472870
 20
839.995480
 11
1640.472870
 21
839.995480
  0
LINE
  8
CSLAYER1
  6
DASHED
 62
     5
 10
1653.472870
 20
823.646666
 11
1640.472870
 21
823.646666
  0
ARC
  8
CSLAYER1
  6
DASHED
 62
     5
 10
1648.972870
 20
840.104575
 40
3.000000
 50
0.000000
 51
90.000000
  0
LINE
  8
CSLAYER1
  6
DASHED
 62
     5
 10
1651.972870
 20
820.104575
 11
1640.472870
 21
820.104575
  0
LINE
  8
CSLAYER1
  6
DASHED
 62
     5
 10
1651.972870
 20
820.104575
 11
1653.463251
 21
819.244103
  0
ARC
  8
CSLAYER1
  6
DASHED
 62
     5
 10
1640.472870
 20
794.058550
 40
26.046025
 50
75.231439
 51
90.000000
  0
ARC
  8
CSLAYER1
  6
DASHED
 62
     5
 10
1650.287824
 20
813.972982
 40
6.153702
 50
66.825356
 51
121.065581
  0
LINE
  8
CSLAYER1
  6
DASHED
 62
     5
 10
1647.112398
 20
819.244103
 11
1647.112398
 21
815.104575
  0
LINE
  8
CSLAYER1
  6
DASHED
 62
     5
 10
1653.463251
 20
819.244103
 11
1653.463251
 21
815.104575
  0
LINE
  8
CSLAYER1
  6
DASHED
 62
     5
 10
1650.808994
 20
823.646666
 11
1650.808994
 21
820.104575
  0
LINE
  8
CSLAYER1
  6
DASHED
 62
     5
 10
1650.162616
 20
823.646666
 11
1650.162616
 21
822.040305
  0
LINE
  8
CSLAYER1
  6
DASHED
 62
     5
 10
1650.808994
 20
822.040305
 11
1640.472870
 21
822.040305
  0
LINE
  8
CSLAYER1
  6
DASHED
 62
     5
 10
1650.162616
 20
822.040305
 11
1650.808994
 21
820.905453
  0
LINE
  8
CSLAYER1
  6
DASHED
 62
     5
 10
1650.922870
 20
806.152377
 11
1640.472870
 21
806.152377
  0
LINE
  8
CSLAYER1
  6
DASHED
 62
     5
 10
1631.972870
 20
843.104575
 11
1640.472870
 21
843.104575
  0
LINE
  8
CSLAYER1
  6
DASHED
 62
     5
 10
1631.022870
 20
805.104575
 11
1640.472870
 21
805.104575
  0
LINE
  8
CSLAYER1
  6
DASHED
 62
     5
 10
1630.022870
 20
806.104575
 11
1631.022870
 21
805.104575
  0
LINE
  8
CSLAYER1
  6
DASHED
 62
     5
 10
1626.135775
 20
811.904575
 11
1626.135775
 21
807.491309
  0
LINE
  8
CSLAYER1
  6
DASHED
 62
     5
 10
1626.135775
 20
807.491309
 11
1640.472870
 21
807.491309
  0
LINE
  8
CSLAYER1
  6
DASHED
 62
     5
 10
1630.022870
 20
807.491309
 11
1630.022870
 21
806.104575
  0
LINE
  8
CSLAYER1
  6
DASHED
 62
     5
 10
1631.022870
 20
807.491309
 11
1631.022870
 21
805.104575
  0
LINE
  8
CSLAYER1
  6
DASHED
 62
     5
 10
1631.427278
 20
811.904575
 11
1631.427278
 21
807.491309
  0
LINE
  8
CSLAYER1
  6
DASHED
 62
     5
 10
1635.181367
 20
811.904575
 11
1635.181367
 21
807.491309
  0
LINE
  8
CSLAYER1
  6
DASHED
 62
     5
 10
1628.972870
 20
820.104575
 11
1640.472870
 21
820.104575
  0
LINE
  8
CSLAYER1
  6
DASHED
 62
     5
 10
1628.972870
 20
820.104575
 11
1640.472870
 21
820.104575
  0
LINE
  8
CSLAYER1
  6
DASHED
 62
     5
 10
1628.972870
 20
820.104575
 11
1627.482489
 21
819.244103
  0
ARC
  8
CSLAYER1
  6
DASHED
 62
     5
 10
1640.472870
 20
794.058550
 40
26.046025
 50
90.000000
 51
104.768561
  0
ARC
  8
CSLAYER1
  6
DASHED
 62
     5
 10
1630.657915
 20
813.972982
 40
6.153702
 50
58.934419
 51
113.174644
  0
LINE
  8
CSLAYER1
  6
DASHED
 62
     5
 10
1633.833341
 20
819.244103
 11
1633.833341
 21
815.104575
  0
LINE
  8
CSLAYER1
  6
DASHED
 62
     5
 10
1627.482489
 20
819.244103
 11
1627.482489
 21
815.104575
  0
LINE
  8
CSLAYER1
  6
DASHED
 62
     5
 10
1630.136745
 20
823.646666
 11
1630.136745
 21
820.104575
  0
LINE
  8
CSLAYER1
  6
DASHED
 62
     5
 10
1630.783123
 20
823.646666
 11
1630.783123
 21
822.040305
  0
LINE
  8
CSLAYER1
  6
DASHED
 62
     5
 10
1630.136745
 20
822.040305
 11
1640.472870
 21
822.040305
  0
LINE
  8
CSLAYER1
  6
DASHED
 62
     5
 10
1630.783123
 20
822.040305
 11
1630.136745
 21
820.905453
  0
LINE
  8
CSLAYER1
  6
DASHED
 62
     5
 10
1630.022870
 20
806.152377
 11
1640.472870
 21
806.152377
  0
LINE
  8
CSLAYER1
  6
DASHED
 62
     5
 10
1655.310895
 20
838.934296
 11
1655.310895
 21
824.707851
  0
LINE
  8
CSLAYER1
  6
DASHED
 62
     5
 10
1647.978423
 20
838.934296
 11
1647.978423
 21
824.707851
  0
LINE
  8
CSLAYER1
  6
DASHED
 62
     5
 10
1653.472870
 20
839.995480
 11
1655.310895
 21
838.934296
  0
ARC
  8
CSLAYER1
  6
DASHED
 62
     5
 10
1651.644659
 20
833.133889
 40
6.861924
 50
62.295563
 51
121.731450
  0
ARC
  8
CSLAYER1
  6
DASHED
 62
     5
 10
1640.472870
 20
812.922226
 40
27.073254
 50
73.904971
 51
90.000000
  0
LINE
  8
CSLAYER1
  6
DASHED
 62
     5
 10
1653.472870
 20
823.646666
 11
1640.472870
 21
823.646666
  0
LINE
  8
CSLAYER1
  6
DASHED
 62
     5
 10
1653.472870
 20
823.646666
 11
1655.310895
 21
824.707851
  0
ARC
  8
CSLAYER1
  6
DASHED
 62
     5
 10
1651.644659
 20
830.508257
 40
6.861924
 50
238.268550
 51
297.704437
  0
ARC
  8
CSLAYER1
  6
DASHED
 62
     5
 10
1640.472870
 20
850.719920
 40
27.073254
 50
270.000000
 51
286.095029
  0
LINE
  8
CSLAYER1
  6
DASHED
 62
     5
 10
1627.472870
 20
839.995480
 11
1640.472870
 21
839.995480
  0
LINE
  8
CSLAYER1
  6
DASHED
 62
     5
 10
1627.472870
 20
823.646666
 11
1640.472870
 21
823.646666
  0
LINE
  8
CSLAYER1
  6
DASHED
 62
     5
 10
1625.634844
 20
838.934296
 11
1625.634844
 21
824.707851
  0
LINE
  8
CSLAYER1
  6
DASHED
 62
     5
 10
1632.967316
 20
838.934296
 11
1632.967316
 21
824.707851
  0
LINE
  8
CSLAYER1
  6
DASHED
 62
     5
 10
1627.472870
 20
839.995480
 11
1625.634844
 21
838.934296
  0
ARC
  8
CSLAYER1
  6
DASHED
 62
     5
 10
1629.301080
 20
833.133889
 40
6.861924
 50
58.268550
 51
117.704437
  0
ARC
  8
CSLAYER1
  6
DASHED
 62
     5
 10
1640.472870
 20
812.922226
 40
27.073254
 50
90.000000
 51
106.095029
  0
LINE
  8
CSLAYER1
  6
DASHED
 62
     5
 10
1627.472870
 20
823.646666
 11
1640.472870
 21
823.646666
  0
LINE
  8
CSLAYER1
  6
DASHED
 62
     5
 10
1627.472870
 20
823.646666
 11
1625.634844
 21
824.707851
  0
ARC
  8
CSLAYER1
  6
DASHED
 62
     5
 10
1629.301080
 20
830.508257
 40
6.861924
 50
242.295563
 51
301.731450
  0
ARC
  8
CSLAYER1
  6
DASHED
 62
     5
 10
1640.472870
 20
850.719920
 40
27.073254
 50
253.904971
 51
270.000000
  0
ARC
  8
CSLAYER1
  6
DASHED
 62
     5
 10
1631.972870
 20
840.104575
 40
3.000000
 50
90.000000
 51
180.000000
  0
LINE
  8
CSLAYER1
  6
DASHED
 62
     5
 10
1647.472870
 20
893.553711
 11
1647.472870
 21
843.104575
  0
LINE
  8
CSLAYER1
  6
DASHED
 62
     5
 10
1633.472870
 20
891.785399
 11
1633.472870
 21
843.104575
  0
LINE
  8
CSLAYER1
  6
DASHED
 62
     5
 10
1647.472870
 20
805.104575
 11
1647.472870
 21
794.104575
  0
LINE
  8
CSLAYER1
  6
DASHED
 62
     5
 10
1633.472870
 20
805.104575
 11
1633.472870
 21
794.104575
  0
LINE
  8
CSLAYER1
  6
DASHED
 62
     5
 10
1747.972870
 20
1372.249185
 11
1747.972870
 21
1352.619276
  0
LINE
  8
CSLAYER1
  6
DASHED
 62
     5
 10
1754.972870
 20
1370.934231
 11
1754.972870
 21
1353.934231
  0
LINE
  8
CSLAYER1
  6
DASHED
 62
     5
 10
1745.472870
 20
1372.934231
 11
1745.472870
 21
1351.934231
  0
LINE
  8
CSLAYER1
  6
DASHED
 62
     5
 10
1743.472870
 20
1372.934231
 11
1743.472870
 21
1351.934231
  0
LINE
  8
CSLAYER1
  6
DASHED
 62
     5
 10
1743.472870
 20
1372.934231
 11
1745.472870
 21
1372.934231
  0
LINE
  8
CSLAYER1
  6
DASHED
 62
     5
 10
1745.472870
 20
1371.634231
 11
1747.972870
 21
1371.634231
  0
LINE
  8
CSLAYER1
  6
DASHED
 62
     5
 10
1743.472870
 20
1351.934231
 11
1745.472870
 21
1351.934231
  0
LINE
  8
CSLAYER1
  6
DASHED
 62
     5
 10
1745.472870
 20
1353.234231
 11
1747.972870
 21
1353.234231
  0
LINE
  8
CSLAYER1
  6
DASHED
 62
     5
 10
1747.972870
 20
1372.249185
 11
1754.213680
 21
1372.249185
  0
LINE
  8
CSLAYER1
  6
DASHED
 62
     5
 10
1747.972870
 20
1367.341708
 11
1754.213680
 21
1367.341708
  0
LINE
  8
CSLAYER1
  6
DASHED
 62
     5
 10
1754.972870
 20
1370.934231
 11
1754.213680
 21
1372.249185
  0
ARC
  8
CSLAYER1
  6
DASHED
 62
     5
 10
1738.732059
 20
1362.434231
 40
16.240811
 50
0.000000
 51
17.587954
  0
ARC
  8
CSLAYER1
  6
DASHED
 62
     5
 10
1750.633087
 20
1369.795447
 40
4.340677
 50
-34.422385
 51
25.577615
  0
LINE
  8
CSLAYER1
  6
DASHED
 62
     5
 10
1747.972870
 20
1352.619276
 11
1754.213680
 21
1352.619276
  0
LINE
  8
CSLAYER1
  6
DASHED
 62
     5
 10
1747.972870
 20
1357.526754
 11
1754.213680
 21
1357.526754
  0
LINE
  8
CSLAYER1
  6
DASHED
 62
     5
 10
1754.972870
 20
1353.934231
 11
1754.213680
 21
1352.619276
  0
ARC
  8
CSLAYER1
  6
DASHED
 62
     5
 10
1738.732059
 20
1362.434231
 40
16.240811
 50
342.412046
 51
360.000000
  0
ARC
  8
CSLAYER1
  6
DASHED
 62
     5
 10
1750.633087
 20
1355.073015
 40
4.340677
 50
-25.577615
 51
34.422385
  0
LINE
  8
CSLAYER1
  6
DASHED
 62
     5
 10
1747.972870
 20
1363.799184
 11
1745.472870
 21
1361.057249
  0
LINE
  8
CSLAYER1
  6
DASHED
 62
     5
 10
1382.972870
 20
1372.249185
 11
1382.972870
 21
1352.619276
  0
LINE
  8
CSLAYER1
  6
DASHED
 62
     5
 10
1375.972870
 20
1370.934231
 11
1375.972870
 21
1353.934231
  0
LINE
  8
CSLAYER1
  6
DASHED
 62
     5
 10
1385.472870
 20
1372.934231
 11
1385.472870
 21
1351.934231
  0
LINE
  8
CSLAYER1
  6
DASHED
 62
     5
 10
1387.472870
 20
1372.934231
 11
1387.472870
 21
1351.934231
  0
LINE
  8
CSLAYER1
  6
DASHED
 62
     5
 10
1387.472870
 20
1372.934231
 11
1385.472870
 21
1372.934231
  0
LINE
  8
CSLAYER1
  6
DASHED
 62
     5
 10
1385.472870
 20
1371.634231
 11
1382.972870
 21
1371.634231
  0
LINE
  8
CSLAYER1
  6
DASHED
 62
     5
 10
1387.472870
 20
1351.934231
 11
1385.472870
 21
1351.934231
  0
LINE
  8
CSLAYER1
  6
DASHED
 62
     5
 10
1385.472870
 20
1353.234231
 11
1382.972870
 21
1353.234231
  0
LINE
  8
CSLAYER1
  6
DASHED
 62
     5
 10
1382.972870
 20
1372.249185
 11
1376.732059
 21
1372.249185
  0
LINE
  8
CSLAYER1
  6
DASHED
 62
     5
 10
1382.972870
 20
1367.341708
 11
1376.732059
 21
1367.341708
  0
LINE
  8
CSLAYER1
  6
DASHED
 62
     5
 10
1375.972870
 20
1370.934231
 11
1376.732059
 21
1372.249185
  0
ARC
  8
CSLAYER1
  6
DASHED
 62
     5
 10
1392.213680
 20
1362.434231
 40
16.240811
 50
162.412046
 51
180.000000
  0
ARC
  8
CSLAYER1
  6
DASHED
 62
     5
 10
1380.312652
 20
1369.795447
 40
4.340677
 50
154.422385
 51
214.422385
  0
LINE
  8
CSLAYER1
  6
DASHED
 62
     5
 10
1382.972870
 20
1352.619276
 11
1376.732059
 21
1352.619276
  0
LINE
  8
CSLAYER1
  6
DASHED
 62
     5
 10
1382.972870
 20
1357.526754
 11
1376.732059
 21
1357.526754
  0
LINE
  8
CSLAYER1
  6
DASHED
 62
     5
 10
1375.972870
 20
1353.934231
 11
1376.732059
 21
1352.619276
  0
ARC
  8
CSLAYER1
  6
DASHED
 62
     5
 10
1392.213680
 20
1362.434231
 40
16.240811
 50
180.000000
 51
197.587954
  0
ARC
  8
CSLAYER1
  6
DASHED
 62
     5
 10
1380.312652
 20
1355.073015
 40
4.340677
 50
145.577615
 51
205.577615
  0
LINE
  8
CSLAYER1
  6
DASHED
 62
     5
 10
1382.972870
 20
1363.799184
 11
1385.472870
 21
1361.057249
  0
LINE
  8
CSLAYER1
  6
DASHED
 62
     5
 10
1387.472870
 20
1884.255909
 11
1396.472870
 21
1884.255909
  0
LINE
  8
CSLAYER1
  6
DASHED
 62
     5
 10
1409.472870
 20
1408.870791
 11
1418.472870
 21
1408.870791
  0
LINE
  8
CSLAYER1
  6
DASHED
 62
     5
 10
1400.472870
 20
1434.442209
 11
1409.472870
 21
1434.442209
  0
LINE
  8
CSLAYER1
  6
DASHED
 62
     5
 10
1387.472870
 20
1290.426253
 11
1396.472870
 21
1290.426253
  0
LINE
  8
CSLAYER1
  6
DASHED
 62
     5
 10
1400.472870
 20
840.612553
 11
1409.472870
 21
840.612553
  0
LINE
  8
CSLAYER1
  6
DASHED
 62
     5
 10
1721.472870
 20
840.612553
 11
1730.472870
 21
840.612553
  0
LINE
  8
CSLAYER1
  6
DASHED
 62
     5
 10
1734.472870
 20
1290.426253
 11
1743.472870
 21
1290.426253
  0
LINE
  8
CSLAYER1
  6
DASHED
 62
     5
 10
1721.472870
 20
1434.442209
 11
1730.472870
 21
1434.442209
  0
LINE
  8
CSLAYER1
  6
DASHED
 62
     5
 10
1712.472870
 20
1408.870791
 11
1721.472870
 21
1408.870791
  0
LINE
  8
CSLAYER1
  6
DASHED
 62
     5
 10
1734.472870
 20
1884.255909
 11
1743.472870
 21
1884.255909
  0
ENDBLK
  8
0
  0
BLOCK
  8
CSLAYER1
  2
BLKF0005
 70
   64
 10
0.0
 20
0.0
 30
0.0
  0
LINE
  8
CSLAYER1
  6
CONTINUOUS
 62
     3
 10
2153.697051
 20
2712.140493
 11
2153.697051
 21
2650.140493
  0
LINE
  8
CSLAYER1
  6
CONTINUOUS
 62
     3
 10
2151.197051
 20
2714.640493
 11
2066.197051
 21
2714.640493
  0
LINE
  8
CSLAYER1
  6
CENTER
 62
     5
 10
2212.046690
 20
2642.140493
 11
2153.697051
 21
2642.140493
  0
LINE
  8
CSLAYER1
  6
CONTINUOUS
 62
     2
 10
2151.197051
 20
2658.140493
 11
2066.197051
 21
2658.140493
  0
LINE
  8
CSLAYER1
  6
CONTINUOUS
 62
     3
 10
2151.197051
 20
2709.640493
 11
2151.197051
 21
2664.640493
  0
LINE
  8
CSLAYER1
  6
CONTINUOUS
 62
     3
 10
2063.697051
 20
2712.140493
 11
2063.697051
 21
2642.140493
  0
LINE
  8
CSLAYER1
  6
CONTINUOUS
 62
     3
 10
2148.697051
 20
2712.140493
 11
2071.697051
 21
2712.140493
  0
LINE
  8
CSLAYER1
  6
CONTINUOUS
 62
     3
 10
2148.697051
 20
2662.140493
 11
2071.697051
 21
2662.140493
  0
ARC
  8
CSLAYER1
  6
CONTINUOUS
 62
     3
 10
2125.765233
 20
2687.140493
 40
59.568182
 50
155.185163
 51
204.814837
  0
ARC
  8
CSLAYER1
  6
CONTINUOUS
 62
     3
 10
2148.697051
 20
2709.640493
 40
2.500000
 50
-0.000000
 51
90.000000
  0
ARC
  8
CSLAYER1
  6
CONTINUOUS
 62
     3
 10
2148.697051
 20
2664.640493
 40
2.500000
 50
270.000000
 51
360.000000
  0
ARC
  8
CSLAYER1
  6
CONTINUOUS
 62
     3
 10
2151.197051
 20
2712.140493
 40
2.500000
 50
-0.000000
 51
90.000000
  0
ARC
  8
CSLAYER1
  6
CONTINUOUS
 62
     3
 10
2066.197051
 20
2712.140493
 40
2.500000
 50
90.000000
 51
180.000000
  0
ARC
  8
CSLAYER1
  6
CONTINUOUS
 62
     2
 10
2066.197051
 20
2655.640493
 40
2.500000
 50
90.000000
 51
180.000000
  0
ARC
  8
CSLAYER1
  6
CONTINUOUS
 62
     2
 10
2151.197051
 20
2655.640493
 40
2.500000
 50
-0.000000
 51
90.000000
  0
LINE
  8
CSLAYER1
  6
CONTINUOUS
 62
     3
 10
2153.697051
 20
2572.140493
 11
2153.697051
 21
2634.140493
  0
LINE
  8
CSLAYER1
  6
CONTINUOUS
 62
     3
 10
2151.197051
 20
2569.640493
 11
2066.197051
 21
2569.640493
  0
LINE
  8
CSLAYER1
  6
CONTINUOUS
 62
     2
 10
2151.197051
 20
2626.140493
 11
2066.197051
 21
2626.140493
  0
LINE
  8
CSLAYER1
  6
CONTINUOUS
 62
     3
 10
2063.697051
 20
2572.140493
 11
2063.697051
 21
2642.140493
  0
ARC
  8
CSLAYER1
  6
CONTINUOUS
 62
     3
 10
2151.197051
 20
2572.140493
 40
2.500000
 50
270.000000
 51
360.000000
  0
ARC
  8
CSLAYER1
  6
CONTINUOUS
 62
     3
 10
2066.197051
 20
2572.140493
 40
2.500000
 50
180.000000
 51
270.000000
  0
ARC
  8
CSLAYER1
  6
CONTINUOUS
 62
     2
 10
2066.197051
 20
2628.640493
 40
2.500000
 50
180.000000
 51
270.000000
  0
ARC
  8
CSLAYER1
  6
CONTINUOUS
 62
     2
 10
2151.197051
 20
2628.640493
 40
2.500000
 50
270.000000
 51
360.000000
  0
LINE
  8
CSLAYER1
  6
CONTINUOUS
 62
     3
 10
2151.197051
 20
2574.640493
 11
2151.197051
 21
2619.640493
  0
LINE
  8
CSLAYER1
  6
CONTINUOUS
 62
     3
 10
2148.697051
 20
2572.140493
 11
2071.697051
 21
2572.140493
  0
LINE
  8
CSLAYER1
  6
CONTINUOUS
 62
     3
 10
2148.697051
 20
2622.140493
 11
2071.697051
 21
2622.140493
  0
ARC
  8
CSLAYER1
  6
CONTINUOUS
 62
     3
 10
2125.765233
 20
2597.140493
 40
59.568182
 50
155.185163
 51
204.814837
  0
ARC
  8
CSLAYER1
  6
CONTINUOUS
 62
     3
 10
2148.697051
 20
2574.640493
 40
2.500000
 50
270.000000
 51
360.000000
  0
ARC
  8
CSLAYER1
  6
CONTINUOUS
 62
     3
 10
2148.697051
 20
2619.640493
 40
2.500000
 50
-0.000000
 51
90.000000
  0
LINE
  8
CSLAYER1
  6
CONTINUOUS
 62
     3
 10
2160.697051
 20
2635.140493
 11
2160.697051
 21
2638.640493
  0
LINE
  8
CSLAYER1
  6
CONTINUOUS
 62
     3
 10
2212.046690
 20
2638.640493
 11
2160.697051
 21
2638.640493
  0
LINE
  8
CSLAYER1
  6
CONTINUOUS
 62
     3
 10
2159.697051
 20
2634.140493
 11
2153.697051
 21
2634.140493
  0
LINE
  8
CSLAYER1
  6
CONTINUOUS
 62
     3
 10
2159.697051
 20
2650.140493
 11
2153.697051
 21
2650.140493
  0
LINE
  8
CSLAYER1
  6
CONTINUOUS
 62
     3
 10
2212.046690
 20
2645.640493
 11
2160.697051
 21
2645.640493
  0
ARC
  8
CSLAYER1
  6
CONTINUOUS
 62
     3
 10
2159.697051
 20
2649.140493
 40
1.000000
 50
-0.000000
 51
90.000000
  0
ARC
  8
CSLAYER1
  6
CONTINUOUS
 62
     3
 10
2159.697051
 20
2635.140493
 40
1.000000
 50
270.000000
 51
360.000000
  0
LINE
  8
CSLAYER1
  6
CONTINUOUS
 62
     3
 10
2160.697051
 20
2645.640493
 11
2160.697051
 21
2649.140493
  0
LINE
  8
CSLAYER1
  6
CONTINUOUS
 62
     2
 10
2160.697051
 20
2638.640493
 11
2160.697051
 21
2645.640493
  0
LINE
  8
CSLAYER1
  6
CONTINUOUS
 62
     2
 10
2153.697051
 20
2650.140493
 11
2153.697051
 21
2642.140493
  0
LINE
  8
CSLAYER1
  6
CONTINUOUS
 62
     2
 10
2153.697051
 20
2634.140493
 11
2153.697051
 21
2642.140493
  0
LINE
  8
CSLAYER1
  6
CONTINUOUS
 62
     2
 10
2134.204039
 20
2654.303153
 11
2143.339039
 21
2654.303153
  0
LINE
  8
CSLAYER1
  6
CONTINUOUS
 62
     2
 10
2134.204039
 20
2630.678153
 11
2143.339039
 21
2630.678153
  0
LINE
  8
CSLAYER1
  6
CONTINUOUS
 62
     2
 10
2144.599039
 20
2653.043153
 11
2144.599039
 21
2631.938153
  0
LINE
  8
CSLAYER1
  6
CONTINUOUS
 62
     2
 10
2132.944039
 20
2653.043153
 11
2132.944039
 21
2631.938153
  0
LINE
  8
CSLAYER1
  6
CONTINUOUS
 62
     2
 10
2134.834039
 20
2632.568153
 11
2142.866539
 21
2632.568153
  0
LINE
  8
CSLAYER1
  6
CONTINUOUS
 62
     2
 10
2134.834039
 20
2635.718153
 11
2135.779039
 21
2635.718153
  0
LINE
  8
CSLAYER1
  6
CONTINUOUS
 62
     2
 10
2134.834039
 20
2644.380653
 11
2135.779039
 21
2644.380653
  0
LINE
  8
CSLAYER1
  6
CONTINUOUS
 62
     2
 10
2134.834039
 20
2648.948153
 11
2139.874039
 21
2648.948153
  0
LINE
  8
CSLAYER1
  6
CONTINUOUS
 62
     2
 10
2133.731539
 20
2647.845653
 11
2133.731539
 21
2645.483153
  0
LINE
  8
CSLAYER1
  6
CONTINUOUS
 62
     2
 10
2140.976539
 20
2647.845653
 11
2140.976539
 21
2645.483153
  0
LINE
  8
CSLAYER1
  6
CONTINUOUS
 62
     2
 10
2143.969039
 20
2634.615653
 11
2143.969039
 21
2633.670653
  0
LINE
  8
CSLAYER1
  6
CONTINUOUS
 62
     2
 10
2136.724039
 20
2643.435653
 11
2136.724039
 21
2636.663153
  0
LINE
  8
CSLAYER1
  6
CONTINUOUS
 62
     2
 10
2137.511539
 20
2643.435653
 11
2137.511539
 21
2636.663153
  0
ARC
  8
CSLAYER1
  6
CONTINUOUS
 62
     2
 10
2134.834039
 20
2647.845653
 40
1.102500
 50
90.000000
 51
180.000000
  0
ARC
  8
CSLAYER1
  6
CONTINUOUS
 62
     2
 10
2139.874039
 20
2647.845653
 40
1.102500
 50
-0.000000
 51
90.000000
  0
ARC
  8
CSLAYER1
  6
CONTINUOUS
 62
     2
 10
2139.874039
 20
2645.483153
 40
1.102500
 50
270.000000
 51
360.000000
  0
ARC
  8
CSLAYER1
  6
CONTINUOUS
 62
     2
 10
2134.834039
 20
2645.483153
 40
1.102500
 50
180.000000
 51
270.000000
  0
ARC
  8
CSLAYER1
  6
CONTINUOUS
 62
     2
 10
2142.866539
 20
2634.615653
 40
1.102500
 50
-0.000000
 51
90.000000
  0
ARC
  8
CSLAYER1
  6
CONTINUOUS
 62
     2
 10
2142.866539
 20
2633.670653
 40
1.102500
 50
270.000000
 51
360.000000
  0
ARC
  8
CSLAYER1
  6
CONTINUOUS
 62
     2
 10
2134.834039
 20
2633.670653
 40
1.102500
 50
180.000000
 51
270.000000
  0
ARC
  8
CSLAYER1
  6
CONTINUOUS
 62
     2
 10
2134.834039
 20
2634.615653
 40
1.102500
 50
90.000000
 51
180.000000
  0
LINE
  8
CSLAYER1
  6
CONTINUOUS
 62
     2
 10
2138.456539
 20
2644.380653
 11
2139.874039
 21
2644.380653
  0
LINE
  8
CSLAYER1
  6
CONTINUOUS
 62
     2
 10
2138.456539
 20
2635.718153
 11
2142.866539
 21
2635.718153
  0
ARC
  8
CSLAYER1
  6
CONTINUOUS
 62
     2
 10
2135.779039
 20
2643.435653
 40
0.945000
 50
-0.000000
 51
90.000000
  0
ARC
  8
CSLAYER1
  6
CONTINUOUS
 62
     2
 10
2138.456539
 20
2643.435653
 40
0.945000
 50
90.000000
 51
180.000000
  0
ARC
  8
CSLAYER1
  6
CONTINUOUS
 62
     2
 10
2138.456539
 20
2636.663153
 40
0.945000
 50
180.000000
 51
270.000000
  0
ARC
  8
CSLAYER1
  6
CONTINUOUS
 62
     2
 10
2134.204039
 20
2653.043153
 40
1.260000
 50
90.000000
 51
180.000000
  0
ARC
  8
CSLAYER1
  6
CONTINUOUS
 62
     2
 10
2143.339039
 20
2653.043153
 40
1.260000
 50
-0.000000
 51
90.000000
  0
ARC
  8
CSLAYER1
  6
CONTINUOUS
 62
     2
 10
2143.339039
 20
2631.938153
 40
1.260000
 50
270.000000
 51
360.000000
  0
ARC
  8
CSLAYER1
  6
CONTINUOUS
 62
     2
 10
2134.204039
 20
2631.938153
 40
1.260000
 50
180.000000
 51
270.000000
  0
ARC
  8
CSLAYER1
  6
CONTINUOUS
 62
     2
 10
2135.779039
 20
2636.663153
 40
0.945000
 50
270.000000
 51
360.000000
  0
LINE
  8
CSLAYER1
  6
CONTINUOUS
 62
     2
 10
2133.731539
 20
2634.615653
 11
2133.731539
 21
2633.670653
  0
CIRCLE
  8
CSLAYER1
  6
CONTINUOUS
 62
     2
 10
2119.197051
 20
2692.140493
 40
2.500000
  0
CIRCLE
  8
CSLAYER1
  6
CONTINUOUS
 62
     2
 10
2119.197051
 20
2702.140493
 40
2.500000
  0
CIRCLE
  8
CSLAYER1
  6
CONTINUOUS
 62
     2
 10
2109.197051
 20
2702.140493
 40
2.500000
  0
CIRCLE
  8
CSLAYER1
  6
CONTINUOUS
 62
     2
 10
2109.197051
 20
2692.140493
 40
2.500000
  0
CIRCLE
  8
CSLAYER1
  6
CONTINUOUS
 62
     2
 10
2099.197051
 20
2692.140493
 40
2.500000
  0
CIRCLE
  8
CSLAYER1
  6
CONTINUOUS
 62
     2
 10
2099.197051
 20
2702.140493
 40
2.500000
  0
CIRCLE
  8
CSLAYER1
  6
CONTINUOUS
 62
     2
 10
2089.197051
 20
2702.140493
 40
2.500000
  0
CIRCLE
  8
CSLAYER1
  6
CONTINUOUS
 62
     2
 10
2089.197051
 20
2692.140493
 40
2.500000
  0
CIRCLE
  8
CSLAYER1
  6
CONTINUOUS
 62
     2
 10
2079.197051
 20
2692.140493
 40
2.500000
  0
CIRCLE
  8
CSLAYER1
  6
CONTINUOUS
 62
     2
 10
2079.197051
 20
2702.140493
 40
2.500000
  0
CIRCLE
  8
CSLAYER1
  6
CONTINUOUS
 62
     2
 10
2119.197051
 20
2682.140493
 40
2.500000
  0
CIRCLE
  8
CSLAYER1
  6
CONTINUOUS
 62
     2
 10
2119.197051
 20
2672.140493
 40
2.500000
  0
CIRCLE
  8
CSLAYER1
  6
CONTINUOUS
 62
     2
 10
2109.197051
 20
2672.140493
 40
2.500000
  0
CIRCLE
  8
CSLAYER1
  6
CONTINUOUS
 62
     2
 10
2109.197051
 20
2682.140493
 40
2.500000
  0
CIRCLE
  8
CSLAYER1
  6
CONTINUOUS
 62
     2
 10
2099.197051
 20
2682.140493
 40
2.500000
  0
CIRCLE
  8
CSLAYER1
  6
CONTINUOUS
 62
     2
 10
2099.197051
 20
2672.140493
 40
2.500000
  0
CIRCLE
  8
CSLAYER1
  6
CONTINUOUS
 62
     2
 10
2089.197051
 20
2672.140493
 40
2.500000
  0
CIRCLE
  8
CSLAYER1
  6
CONTINUOUS
 62
     2
 10
2089.197051
 20
2682.140493
 40
2.500000
  0
CIRCLE
  8
CSLAYER1
  6
CONTINUOUS
 62
     2
 10
2079.197051
 20
2682.140493
 40
2.500000
  0
CIRCLE
  8
CSLAYER1
  6
CONTINUOUS
 62
     2
 10
2079.197051
 20
2672.140493
 40
2.500000
  0
CIRCLE
  8
CSLAYER1
  6
CONTINUOUS
 62
     2
 10
2119.197051
 20
2592.140493
 40
2.500000
  0
CIRCLE
  8
CSLAYER1
  6
CONTINUOUS
 62
     2
 10
2119.197051
 20
2582.140493
 40
2.500000
  0
CIRCLE
  8
CSLAYER1
  6
CONTINUOUS
 62
     2
 10
2109.197051
 20
2582.140493
 40
2.500000
  0
CIRCLE
  8
CSLAYER1
  6
CONTINUOUS
 62
     2
 10
2109.197051
 20
2592.140493
 40
2.500000
  0
CIRCLE
  8
CSLAYER1
  6
CONTINUOUS
 62
     2
 10
2099.197051
 20
2592.140493
 40
2.500000
  0
CIRCLE
  8
CSLAYER1
  6
CONTINUOUS
 62
     2
 10
2099.197051
 20
2582.140493
 40
2.500000
  0
CIRCLE
  8
CSLAYER1
  6
CONTINUOUS
 62
     2
 10
2089.197051
 20
2582.140493
 40
2.500000
  0
CIRCLE
  8
CSLAYER1
  6
CONTINUOUS
 62
     2
 10
2089.197051
 20
2592.140493
 40
2.500000
  0
CIRCLE
  8
CSLAYER1
  6
CONTINUOUS
 62
     2
 10
2079.197051
 20
2592.140493
 40
2.500000
  0
CIRCLE
  8
CSLAYER1
  6
CONTINUOUS
 62
     2
 10
2079.197051
 20
2582.140493
 40
2.500000
  0
CIRCLE
  8
CSLAYER1
  6
CONTINUOUS
 62
     2
 10
2119.197051
 20
2602.140493
 40
2.500000
  0
CIRCLE
  8
CSLAYER1
  6
CONTINUOUS
 62
     2
 10
2119.197051
 20
2612.140493
 40
2.500000
  0
CIRCLE
  8
CSLAYER1
  6
CONTINUOUS
 62
     2
 10
2109.197051
 20
2612.140493
 40
2.500000
  0
CIRCLE
  8
CSLAYER1
  6
CONTINUOUS
 62
     2
 10
2109.197051
 20
2602.140493
 40
2.500000
  0
CIRCLE
  8
CSLAYER1
  6
CONTINUOUS
 62
     2
 10
2099.197051
 20
2602.140493
 40
2.500000
  0
CIRCLE
  8
CSLAYER1
  6
CONTINUOUS
 62
     2
 10
2099.197051
 20
2612.140493
 40
2.500000
  0
CIRCLE
  8
CSLAYER1
  6
CONTINUOUS
 62
     2
 10
2089.197051
 20
2612.140493
 40
2.500000
  0
CIRCLE
  8
CSLAYER1
  6
CONTINUOUS
 62
     2
 10
2089.197051
 20
2602.140493
 40
2.500000
  0
CIRCLE
  8
CSLAYER1
  6
CONTINUOUS
 62
     2
 10
2079.197051
 20
2602.140493
 40
2.500000
  0
CIRCLE
  8
CSLAYER1
  6
CONTINUOUS
 62
     2
 10
2079.197051
 20
2612.140493
 40
2.500000
  0
LINE
  8
CSLAYER1
  6
CONTINUOUS
 62
     2
 10
2145.197051
 20
2614.640493
 11
2145.197051
 21
2579.640493
  0
LINE
  8
CSLAYER1
  6
CONTINUOUS
 62
     2
 10
2129.197051
 20
2614.640493
 11
2129.197051
 21
2579.640493
  0
LINE
  8
CSLAYER1
  6
CONTINUOUS
 62
     2
 10
2143.697051
 20
2616.140493
 11
2130.697051
 21
2616.140493
  0
LINE
  8
CSLAYER1
  6
CONTINUOUS
 62
     2
 10
2144.197051
 20
2614.640493
 11
2144.197051
 21
2579.640493
  0
LINE
  8
CSLAYER1
  6
CONTINUOUS
 62
     2
 10
2130.197051
 20
2614.640493
 11
2130.197051
 21
2579.640493
  0
LINE
  8
CSLAYER1
  6
CONTINUOUS
 62
     2
 10
2143.697051
 20
2615.140493
 11
2130.697051
 21
2615.140493
  0
LINE
  8
CSLAYER1
  6
CONTINUOUS
 62
     2
 10
2143.697051
 20
2578.140493
 11
2130.697051
 21
2578.140493
  0
LINE
  8
CSLAYER1
  6
CONTINUOUS
 62
     2
 10
2143.697051
 20
2579.140493
 11
2130.697051
 21
2579.140493
  0
ARC
  8
CSLAYER1
  6
CONTINUOUS
 62
     2
 10
2143.697051
 20
2614.640493
 40
0.500000
 50
-0.000000
 51
90.000000
  0
ARC
  8
CSLAYER1
  6
CONTINUOUS
 62
     2
 10
2130.697051
 20
2614.640493
 40
0.500000
 50
90.000000
 51
180.000000
  0
ARC
  8
CSLAYER1
  6
CONTINUOUS
 62
     2
 10
2143.697051
 20
2579.640493
 40
0.500000
 50
270.000000
 51
360.000000
  0
ARC
  8
CSLAYER1
  6
CONTINUOUS
 62
     2
 10
2130.697051
 20
2579.640493
 40
0.500000
 50
180.000000
 51
270.000000
  0
ARC
  8
CSLAYER1
  6
CONTINUOUS
 62
     2
 10
2143.697051
 20
2614.640493
 40
1.500000
 50
-0.000000
 51
90.000000
  0
ARC
  8
CSLAYER1
  6
CONTINUOUS
 62
     2
 10
2130.697051
 20
2614.640493
 40
1.500000
 50
90.000000
 51
180.000000
  0
ARC
  8
CSLAYER1
  6
CONTINUOUS
 62
     2
 10
2143.697051
 20
2579.640493
 40
1.500000
 50
270.000000
 51
360.000000
  0
ARC
  8
CSLAYER1
  6
CONTINUOUS
 62
     2
 10
2130.697051
 20
2579.640493
 40
1.500000
 50
180.000000
 51
270.000000
  0
LINE
  8
CSLAYER1
  6
CONTINUOUS
 62
     2
 10
2140.197051
 20
2606.140493
 11
2140.197051
 21
2588.140493
  0
LINE
  8
CSLAYER1
  6
CONTINUOUS
 62
     2
 10
2143.275123
 20
2597.140493
 11
2140.197051
 21
2588.140493
  0
LINE
  8
CSLAYER1
  6
CONTINUOUS
 62
     2
 10
2143.275123
 20
2597.140493
 11
2140.197051
 21
2606.140493
  0
TEXT
  8
CSLAYER1
 62
     2
 10
2131.903250
 20
2606.120537
 40
7.066058
 41
1.574983
  1
UP
 50
270.000000
 51
0.000000
  7
EASYDRAW_FONT
 72
     5
 11
2131.903250
 21
2587.572334
  0
LINE
  8
CSLAYER1
  6
CONTINUOUS
 62
     2
 10
2145.197051
 20
2669.640493
 11
2145.197051
 21
2704.640493
  0
LINE
  8
CSLAYER1
  6
CONTINUOUS
 62
     2
 10
2129.197051
 20
2669.640493
 11
2129.197051
 21
2704.640493
  0
LINE
  8
CSLAYER1
  6
CONTINUOUS
 62
     2
 10
2143.697051
 20
2668.140493
 11
2130.697051
 21
2668.140493
  0
LINE
  8
CSLAYER1
  6
CONTINUOUS
 62
     2
 10
2144.197051
 20
2669.640493
 11
2144.197051
 21
2704.640493
  0
LINE
  8
CSLAYER1
  6
CONTINUOUS
 62
     2
 10
2130.197051
 20
2669.640493
 11
2130.197051
 21
2704.640493
  0
LINE
  8
CSLAYER1
  6
CONTINUOUS
 62
     2
 10
2143.697051
 20
2669.140493
 11
2130.697051
 21
2669.140493
  0
LINE
  8
CSLAYER1
  6
CONTINUOUS
 62
     2
 10
2143.697051
 20
2706.140493
 11
2130.697051
 21
2706.140493
  0
LINE
  8
CSLAYER1
  6
CONTINUOUS
 62
     2
 10
2143.697051
 20
2705.140493
 11
2130.697051
 21
2705.140493
  0
ARC
  8
CSLAYER1
  6
CONTINUOUS
 62
     2
 10
2143.697051
 20
2669.640493
 40
0.500000
 50
270.000000
 51
360.000000
  0
ARC
  8
CSLAYER1
  6
CONTINUOUS
 62
     2
 10
2130.697051
 20
2669.640493
 40
0.500000
 50
180.000000
 51
270.000000
  0
ARC
  8
CSLAYER1
  6
CONTINUOUS
 62
     2
 10
2143.697051
 20
2704.640493
 40
0.500000
 50
-0.000000
 51
90.000000
  0
ARC
  8
CSLAYER1
  6
CONTINUOUS
 62
     2
 10
2130.697051
 20
2704.640493
 40
0.500000
 50
90.000000
 51
180.000000
  0
ARC
  8
CSLAYER1
  6
CONTINUOUS
 62
     2
 10
2143.697051
 20
2669.640493
 40
1.500000
 50
270.000000
 51
360.000000
  0
ARC
  8
CSLAYER1
  6
CONTINUOUS
 62
     2
 10
2130.697051
 20
2669.640493
 40
1.500000
 50
180.000000
 51
270.000000
  0
ARC
  8
CSLAYER1
  6
CONTINUOUS
 62
     2
 10
2143.697051
 20
2704.640493
 40
1.500000
 50
-0.000000
 51
90.000000
  0
ARC
  8
CSLAYER1
  6
CONTINUOUS
 62
     2
 10
2130.697051
 20
2704.640493
 40
1.500000
 50
90.000000
 51
180.000000
  0
LINE
  8
CSLAYER1
  6
CONTINUOUS
 62
     2
 10
2134.724120
 20
2678.140493
 11
2134.724120
 21
2696.140493
  0
LINE
  8
CSLAYER1
  6
CONTINUOUS
 62
     2
 10
2131.646049
 20
2687.140493
 11
2134.724120
 21
2696.140493
  0
LINE
  8
CSLAYER1
  6
CONTINUOUS
 62
     2
 10
2131.646049
 20
2687.140493
 11
2134.724120
 21
2678.140493
  0
TEXT
  8
CSLAYER1
 62
     2
 10
2136.334091
 20
2701.838350
 40
6.383575
 41
1.255870
  1
DOWN
 50
270.000000
 51
0.000000
  7
EASYDRAW_FONT
 72
     5
 11
2136.334091
 21
2672.442900
  0
ENDBLK
  8
0
  0
ENDSEC
  0
SECTION
  2
ENTITIES
  0
LINE
  8
CSLAYER1
  6
CONTINUOUS
 62
     3
 10
180.707488
 20
3599.850540
 11
180.707488
 21
75.393795
  0
LINE
  8
CSLAYER1
  6
CONTINUOUS
 62
     3
 10
5161.512127
 20
3599.850540
 11
180.707488
 21
3599.850540
  0
LINE
  8
CSLAYER1
  6
CONTINUOUS
 62
     3
 10
5161.512127
 20
75.393795
 11
180.707488
 21
75.393795
  0
LINE
  8
CSLAYER1
  6
CONTINUOUS
 62
     3
 10
5161.512127
 20
75.393795
 11
5161.512127
 21
3599.850540
  0
LINE
  8
CSLAYER1
  6
CONTINUOUS
 62
     5
 10
105.707488
 20
1815.393795
 11
30.707488
 21
1815.393795
  0
LINE
  8
CSLAYER1
  6
CONTINUOUS
 62
     5
 10
3961.512127
 20
735.393795
 11
5161.512127
 21
735.393795
  0
LINE
  8
CSLAYER1
  6
CONTINUOUS
 62
     5
 10
3961.512127
 20
195.393795
 11
5161.512127
 21
195.393795
  0
LINE
  8
CSLAYER1
  6
CONTINUOUS
 62
     5
 10
3961.512127
 20
435.393795
 11
5161.512127
 21
435.393795
  0
LINE
  8
CSLAYER1
  6
CONTINUOUS
 62
     5
 10
3961.512127
 20
525.393795
 11
5161.512127
 21
525.393795
  0
LINE
  8
CSLAYER1
  6
CONTINUOUS
 62
     5
 10
3961.512127
 20
615.393795
 11
5161.512127
 21
615.393795
  0
LINE
  8
CSLAYER1
  6
CONTINUOUS
 62
     5
 10
3961.512127
 20
855.393795
 11
5161.512127
 21
855.393795
  0
LINE
  8
CSLAYER1
  6
CONTINUOUS
 62
     5
 10
3961.512127
 20
975.393795
 11
3961.512127
 21
75.393795
  0
LINE
  8
CSLAYER1
  6
CONTINUOUS
 62
     5
 10
4261.512127
 20
975.393795
 11
4261.512127
 21
615.393795
  0
LINE
  8
CSLAYER1
  6
CONTINUOUS
 62
     5
 10
3961.512127
 20
975.393795
 11
5161.512127
 21
975.393795
  0
LINE
  8
CSLAYER1
  6
CONTINUOUS
 62
     5
 10
4711.512127
 20
615.393795
 11
4711.512127
 21
195.393795
  0
TEXT
  8
CSLAYER1
 62
     3
 10
4291.048678
 20
88.237877
 40
89.070541
 41
1.003345
  1
東正車輌株式会社
 50
0.000000
 51
0.000000
  7
EASYDRAW_FONT
 72
     5
 11
4976.207181
 21
88.237877
  0
LINE
  8
CSLAYER1
  6
CONTINUOUS
 62
     5
 10
4336.512127
 20
525.393795
 11
4336.512127
 21
195.393795
  0
TEXT
  8
CSLAYER1
 62
     5
 10
4006.511719
 20
877.893738
 40
75.000000
 41
1.050000
  1
品　名
 50
0.000000
 51
0.000000
  7
EASYDRAW_FONT
 72
     5
 11
4216.511719
 21
877.893738
  0
TEXT
  8
CSLAYER1
 62
     5
 10
4006.511719
 20
757.893738
 40
75.000000
 41
1.050000
  1
型　式
 50
0.000000
 51
0.000000
  7
EASYDRAW_FONT
 72
     5
 11
4216.511719
 21
757.893738
  0
TEXT
  8
CSLAYER1
 62
     5
 10
3969.011719
 20
637.893799
 40
75.000000
 41
1.036364
  1
図面番号
 50
0.000000
 51
0.000000
  7
EASYDRAW_FONT
 72
     5
 11
4254.011719
 21
637.893799
  0
TEXT
  8
CSLAYER1
 62
     5
 10
4831.511719
 20
532.893799
 40
75.000000
 41
1.050000
  1
Ｂ－４
 50
0.000000
 51
0.000000
  7
EASYDRAW_FONT
 72
     5
 11
5041.511719
 21
532.893799
  0
TEXT
  8
CSLAYER1
 62
     5
 10
4044.011719
 20
442.893799
 40
75.000000
 41
1.050000
  1
検　図
 50
0.000000
 51
0.000000
  7
EASYDRAW_FONT
 72
     5
 11
4254.011719
 21
442.893799
  0
TEXT
  8
CSLAYER1
 62
     5
 10
4419.011719
 20
442.893799
 40
75.000000
 41
1.050000
  1
作　図
 50
0.000000
 51
0.000000
  7
EASYDRAW_FONT
 72
     5
 11
4629.011719
 21
442.893799
  0
TEXT
  8
CSLAYER1
 62
     5
 10
4831.511719
 20
442.893799
 40
75.000000
 41
1.050000
  1
尺　度
 50
0.000000
 51
0.000000
  7
EASYDRAW_FONT
 72
     5
 11
5041.511719
 21
442.893799
  0
TEXT
  8
CSLAYER1
 62
     5
 10
4982.620117
 20
217.121689
 40
75.000000
 41
1.080000
  1
１５
 50
0.000000
 51
0.000000
  7
EASYDRAW_FONT
 72
     5
 11
5117.620117
 21
217.121689
  0
TEXT
  8
CSLAYER1
 62
     5
 10
4952.140625
 20
288.678741
 40
75.000000
 41
1.200000
  1
／
 50
0.000000
 51
0.000000
  7
EASYDRAW_FONT
 72
     5
 11
5012.140625
 21
288.678741
  0
TEXT
  8
CSLAYER1
 62
     5
 10
4906.821289
 20
341.153900
 40
75.000000
 41
1.200000
  1
１
 50
0.000000
 51
0.000000
  7
EASYDRAW_FONT
 72
     5
 11
4966.821289
 21
341.153900
  0
TEXT
  8
CSLAYER1
 62
     3
 10
4471.511719
 20
877.893738
 40
75.000000
 41
0.834783
  1
ゴールドリフター
 50
0.000000
 51
0.000000
  7
EASYDRAW_FONT
 72
     5
 11
4951.511719
 21
877.893738
  0
TEXT
  8
CSLAYER1
 62
     3
 10
4291.511719
 20
757.893738
 40
75.000000
 41
0.819512
  1
ＧＬＩ－２００－０６０９ＷＪ
 50
0.000000
 51
0.000000
  7
EASYDRAW_FONT
 72
     5
 11
5131.511719
 21
757.893738
  0
TEXT
  8
CSLAYER1
 62
     3
 10
4561.511719
 20
637.893799
 40
75.000000
 41
0.857143
  1
GI-18
 50
0.000000
 51
0.000000
  7
EASYDRAW_FONT
 72
     5
 11
4861.511719
 21
637.893799
  0
INSERT
  8
CSLAYER1
  2
BLKF0000
 10
0.0
 20
0.0
 30
0.0
  0
LINE
  8
CSLAYER1
  6
CONTINUOUS
 62
     5
 10
5094.838686
 20
2948.668226
 11
4013.529910
 21
2948.668226
  0
LINE
  8
CSLAYER1
  6
CONTINUOUS
 62
     5
 10
5094.838686
 20
2852.668228
 11
4013.529910
 21
2852.668228
  0
LINE
  8
CSLAYER1
  6
CONTINUOUS
 62
     5
 10
5094.838686
 20
2756.668230
 11
4013.529910
 21
2756.668230
  0
LINE
  8
CSLAYER1
  6
CONTINUOUS
 62
     5
 10
5094.838686
 20
2660.668233
 11
4014.838713
 21
2660.668233
  0
LINE
  8
CSLAYER1
  6
CONTINUOUS
 62
     5
 10
5094.838686
 20
2564.668235
 11
4013.529910
 21
2564.668235
  0
LINE
  8
CSLAYER1
  6
CONTINUOUS
 62
     5
 10
5094.838686
 20
2468.668238
 11
4013.529910
 21
2468.668238
  0
LINE
  8
CSLAYER1
  6
CONTINUOUS
 62
     5
 10
5094.838686
 20
2372.668240
 11
4013.529910
 21
2372.668240
  0
LINE
  8
CSLAYER1
  6
CONTINUOUS
 62
     5
 10
5094.838686
 20
2276.668242
 11
4013.529910
 21
2276.668242
  0
LINE
  8
CSLAYER1
  6
CONTINUOUS
 62
     5
 10
5094.838686
 20
2180.668245
 11
4013.529910
 21
2180.668245
  0
LINE
  8
CSLAYER1
  6
CONTINUOUS
 62
     5
 10
5094.838686
 20
1988.668250
 11
4013.529910
 21
1988.668250
  0
LINE
  8
CSLAYER1
  6
CONTINUOUS
 62
     5
 10
5094.838686
 20
1892.668252
 11
4013.529910
 21
1892.668252
  0
TEXT
  8
CSLAYER1
 62
     3
 10
4307.115723
 20
3068.396484
 40
60.000000
 41
0.857143
  1
仕   様
 50
0.000000
 51
0.000000
  7
EASYDRAW_FONT
 72
     5
 11
4547.115723
 21
3068.396484
  0
TEXT
  8
CSLAYER1
 62
     3
 10
4029.669434
 20
2961.002441
 40
60.000000
 41
0.847059
  1
型    式
 50
0.000000
 51
0.000000
  7
EASYDRAW_FONT
 72
     5
 11
4317.669434
 21
2961.002441
  0
TEXT
  8
CSLAYER1
 62
     3
 10
4026.940430
 20
2777.268066
 40
60.000000
 41
0.847059
  1
テーブル寸法
 50
0.000000
 51
0.000000
  7
EASYDRAW_FONT
 72
     5
 11
4314.940430
 21
2777.268066
  0
TEXT
  8
CSLAYER1
 62
     3
 10
4029.669434
 20
2682.671875
 40
60.000000
 41
0.847059
  1
テーブル高サ
 50
0.000000
 51
0.000000
  7
EASYDRAW_FONT
 72
     5
 11
4317.669434
 21
2682.671875
  0
TEXT
  8
CSLAYER1
 62
     3
 10
4031.839355
 20
2585.347656
 40
60.000000
 41
0.857143
  1
ストローク
 50
0.000000
 51
0.000000
  7
EASYDRAW_FONT
 72
     5
 11
4271.839355
 21
2585.347656
  0
TEXT
  8
CSLAYER1
 62
     3
 10
4030.930664
 20
2488.023438
 40
60.000000
 41
0.857143
  1
全   長
 50
0.000000
 51
0.000000
  7
EASYDRAW_FONT
 72
     5
 11
4270.930664
 21
2488.023438
  0
TEXT
  8
CSLAYER1
 62
     3
 10
4034.336914
 20
2389.247070
 40
60.000000
 41
0.857143
  1
全   巾
 50
0.000000
 51
0.000000
  7
EASYDRAW_FONT
 72
     5
 11
4274.336914
 21
2389.247070
  0
TEXT
  8
CSLAYER1
 62
     3
 10
4032.000488
 20
2293.419434
 40
60.000000
 41
0.857143
  1
全   高
 50
0.000000
 51
0.000000
  7
EASYDRAW_FONT
 72
     5
 11
4272.000488
 21
2293.419434
  0
TEXT
  8
CSLAYER1
 62
     3
 10
4032.000488
 20
2199.929688
 40
60.000000
 41
0.857143
  1
リフト方式
 50
0.000000
 51
0.000000
  7
EASYDRAW_FONT
 72
     5
 11
4272.000488
 21
2199.929688
  0
TEXT
  8
CSLAYER1
 62
     3
 10
4030.289551
 20
1907.598633
 40
60.000000
 41
0.872727
  1
モーター
 50
0.000000
 51
0.000000
  7
EASYDRAW_FONT
 72
     5
 11
4222.289551
 21
1907.598633
  0
LINE
  8
CSLAYER1
  6
CONTINUOUS
 62
     5
 10
5094.838686
 20
1796.668254
 11
4013.529910
 21
1796.668254
  0
LINE
  8
CSLAYER1
  6
CONTINUOUS
 62
     5
 10
5094.838686
 20
1604.668259
 11
4010.322157
 21
1604.668259
  0
LINE
  8
CSLAYER1
  6
CONTINUOUS
 62
     5
 10
5094.838686
 20
1508.668262
 11
4013.529910
 21
1508.668262
  0
LINE
  8
CSLAYER1
  6
CONTINUOUS
 62
     5
 10
5094.838686
 20
1412.668264
 11
4013.529910
 21
1412.668264
  0
TEXT
  8
CSLAYER1
 62
     3
 10
4034.162109
 20
1429.350952
 40
60.000000
 41
0.857143
  1
自  　重
 50
0.000000
 51
0.000000
  7
EASYDRAW_FONT
 72
     5
 11
4274.162109
 21
1429.350952
  0
TEXT
  8
CSLAYER1
 62
     3
 10
4029.518555
 20
1334.341675
 40
60.000000
 41
0.847059
  1
塗　装　色 
 50
0.000000
 51
0.000000
  7
EASYDRAW_FONT
 72
     5
 11
4317.518555
 21
1334.341675
  0
TEXT
  8
CSLAYER1
 62
     3
 10
4709.802734
 20
2868.765137
 40
60.000000
 41
0.872727
  1
 200
 50
0.000000
 51
0.000000
  7
EASYDRAW_FONT
 72
     5
 11
4901.802734
 21
2868.765137
  0
TEXT
  8
CSLAYER1
 62
     3
 10
4989.038086
 20
2863.255371
 40
60.000000
 41
0.960000
  1
Ｋｇ
 50
0.000000
 51
0.000000
  7
EASYDRAW_FONT
 72
     5
 11
5085.038086
 21
2863.255371
  0
TEXT
  8
CSLAYER1
 62
     3
 10
4468.129395
 20
2772.010254
 40
60.000000
 41
0.830769
  1
950L×650W
 50
0.000000
 51
0.000000
  7
EASYDRAW_FONT
 72
     5
 11
4900.129395
 21
2772.010254
  0
TEXT
  8
CSLAYER1
 62
     3
 10
4506.237305
 20
2677.259766
 40
60.000000
 41
0.834783
  1
250～1220
 50
0.000000
 51
0.000000
  7
EASYDRAW_FONT
 72
     5
 11
4890.237305
 21
2677.259766
  0
TEXT
  8
CSLAYER1
 62
     3
 10
4748.560547
 20
2582.697266
 40
60.000000
 41
0.900000
  1
970
 50
0.000000
 51
0.000000
  7
EASYDRAW_FONT
 72
     5
 11
4892.560547
 21
2582.697266
  0
TEXT
  8
CSLAYER1
 62
     3
 10
4754.768555
 20
2485.518555
 40
60.000000
 41
0.900000
  1
950
 50
0.000000
 51
0.000000
  7
EASYDRAW_FONT
 72
     5
 11
4898.768555
 21
2485.518555
  0
TEXT
  8
CSLAYER1
 62
     3
 10
4751.739258
 20
2390.562500
 40
60.000000
 41
0.900000
  1
650
 50
0.000000
 51
0.000000
  7
EASYDRAW_FONT
 72
     5
 11
4895.739258
 21
2390.562500
  0
TEXT
  8
CSLAYER1
 62
     3
 10
4381.110352
 20
2199.055176
 40
60.000000
 41
0.827586
  1
電 動 ボールネジ式
 50
0.000000
 51
0.000000
  7
EASYDRAW_FONT
 72
     5
 11
4861.110352
 21
2199.055176
  0
TEXT
  8
CSLAYER1
 62
     3
 10
4376.949219
 20
1908.974121
 40
60.000000
 41
0.819512
  1
３相ＡＣ２００Ｖ、0.2ＫＷ
 50
0.000000
 51
0.000000
  7
EASYDRAW_FONT
 72
     5
 11
5048.949219
 21
1908.974121
  0
TEXT
  8
CSLAYER1
 62
     3
 10
4573.424316
 20
1813.208496
 40
60.000000
 41
0.840000
  1
長サ  ４ ｍ
 50
0.000000
 51
0.000000
  7
EASYDRAW_FONT
 72
     5
 11
4909.424316
 21
1813.208496
  0
TEXT
  8
CSLAYER1
 62
     3
 10
4742.383789
 20
1432.200073
 40
60.000000
 41
0.847059
  1
１２３　Ｋｇ
 50
0.000000
 51
0.000000
  7
EASYDRAW_FONT
 72
     5
 11
5030.383789
 21
1432.200073
  0
TEXT
  8
CSLAYER1
 62
     3
 10
4748.726074
 20
2293.570801
 40
60.000000
 41
0.900000
  1
250
 50
0.000000
 51
0.000000
  7
EASYDRAW_FONT
 72
     5
 11
4892.726074
 21
2293.570801
  0
TEXT
  8
CSLAYER1
 62
     3
 10
4985.266602
 20
2767.100098
 40
60.000000
 41
0.960000
  1
mm
 50
0.000000
 51
0.000000
  7
EASYDRAW_FONT
 72
     5
 11
5081.266602
 21
2767.100098
  0
TEXT
  8
CSLAYER1
 62
     3
 10
4985.266602
 20
2676.600586
 40
60.000000
 41
0.960000
  1
mm
 50
0.000000
 51
0.000000
  7
EASYDRAW_FONT
 72
     5
 11
5081.266602
 21
2676.600586
  0
TEXT
  8
CSLAYER1
 62
     3
 10
4979.610840
 20
2580.444336
 40
60.000000
 41
0.960000
  1
mm
 50
0.000000
 51
0.000000
  7
EASYDRAW_FONT
 72
     5
 11
5075.610840
 21
2580.444336
  0
TEXT
  8
CSLAYER1
 62
     3
 10
4979.610840
 20
2478.631836
 40
60.000000
 41
0.960000
  1
mm
 50
0.000000
 51
0.000000
  7
EASYDRAW_FONT
 72
     5
 11
5075.610840
 21
2478.631836
  0
TEXT
  8
CSLAYER1
 62
     3
 10
4975.840332
 20
2388.132813
 40
60.000000
 41
0.960000
  1
mm
 50
0.000000
 51
0.000000
  7
EASYDRAW_FONT
 72
     5
 11
5071.840332
 21
2388.132813
  0
TEXT
  8
CSLAYER1
 62
     3
 10
4975.840332
 20
2291.975586
 40
60.000000
 41
0.960000
  1
mm
 50
0.000000
 51
0.000000
  7
EASYDRAW_FONT
 72
     5
 11
5071.840332
 21
2291.975586
  0
LINE
  8
CSLAYER1
  6
CONTINUOUS
 62
     5
 10
4589.195317
 20
3044.668223
 11
4276.616359
 21
3044.668223
  0
LINE
  8
CSLAYER1
  6
CONTINUOUS
 62
     5
 10
4589.195317
 20
3056.668223
 11
4276.616359
 21
3056.668223
  0
TEXT
  8
CSLAYER1
 62
     3
 10
4035.662598
 20
2003.427246
 40
60.000000
 41
1.036364
  1
操作方式
 50
0.000000
 51
0.000000
  7
EASYDRAW_FONT
 72
     5
 11
4263.662598
 21
2003.427246
  0
LINE
  8
CSLAYER1
  6
CONTINUOUS
 62
     5
 10
5094.838686
 20
1700.668257
 11
4013.529910
 21
1700.668257
  0
TEXT
  8
CSLAYER1
 62
     3
 10
4031.664551
 20
1812.622559
 40
60.000000
 41
0.942857
  1
電源コード
 50
0.000000
 51
0.000000
  7
EASYDRAW_FONT
 72
     5
 11
4295.664551
 21
1812.622559
  0
TEXT
  8
CSLAYER2
 62
     5
 10
4369.544666
 20
2957.118053
 40
54.222878
 41
0.683435
  1
   GLI-200-0609WJ
 50
0.000000
 51
0.000000
  7
EASYDRAW_FONT
 72
     5
 11
4987.175060
 21
2957.118053
  0
TEXT
  8
CSLAYER1
 62
     3
 10
4377.624512
 20
2003.024902
 40
60.000000
 41
1.020000
  1
フットスイッチ
 50
0.000000
 51
0.000000
  7
EASYDRAW_FONT
 72
     5
 11
4785.624512
 21
2003.024902
  0
TEXT
  8
CSLAYER1
 62
     4
 10
4032.307409
 20
1708.940628
 40
71.595306
 41
0.593339
  1
昇降時間 ２８秒（50HZ） ２４秒(60HZ)
 50
0.000000
 51
0.000000
  7
EASYDRAW_FONT
 72
     5
 11
5037.675013
 21
1708.940628
  0
TEXT
  8
CSLAYER1
 62
     4
 10
4034.258789
 20
1520.775757
 40
60.000000
 41
0.912766
  1
上昇端、下降端リミットスイッチ付
 50
0.000000
 51
0.000000
  7
EASYDRAW_FONT
 72
     5
 11
4892.258789
 21
1520.775757
  0
TEXT
  8
CSLAYER1
 62
     5
 10
3799.100611
 20
750.253296
 40
41.233814
 41
0.726099
  1
Ｆ.Ｌ
 50
0.000000
 51
0.000000
  7
EASYDRAW_FONT
 72
     5
 11
3878.940186
 21
750.253296
  0
TEXT
  8
CSLAYER1
 62
     4
 10
4037.028673
 20
1617.771194
 40
68.819672
 41
0.605080
  1
最大使用頻度８０回／時間・最大起動頻度１０回／分
 50
0.000000
 51
0.000000
  7
EASYDRAW_FONT
 72
     5
 11
5022.541640
 21
1617.771194
  0
LINE
  8
CSLAYER1
  6
CONTINUOUS
 62
     5
 10
5094.838686
 20
2084.668247
 11
4013.529910
 21
2084.668247
  0
TEXT
  8
CSLAYER1
 62
     3
 10
4033.691895
 20
2099.285156
 40
60.000000
 41
0.872727
  1
制御方式
 50
0.000000
 51
0.000000
  7
EASYDRAW_FONT
 72
     5
 11
4225.691895
 21
2099.285156
  0
TEXT
  8
CSLAYER1
 62
     5
 10
1479.852986
 20
2735.705763
 40
59.399998
 41
1.020000
  1
ＵＰ・ＤＯＷＮ
 50
0.000000
 51
0.000000
  7
EASYDRAW_FONT
 72
     5
 11
1883.772990
 21
2735.705763
  0
TEXT
  8
CSLAYER1
 62
     5
 10
1481.420369
 20
2817.208693
 40
59.399998
 41
1.020000
  1
フットスイッチ
 50
0.000000
 51
0.000000
  7
EASYDRAW_FONT
 72
     5
 11
1885.340373
 21
2817.208693
  0
TEXT
  8
CSLAYER1
 62
     5
 10
1559.337387
 20
2510.639845
 40
59.399998
 41
1.036364
  1
長サ４ｍ
 50
0.000000
 51
0.000000
  7
EASYDRAW_FONT
 72
     5
 11
1785.057389
 21
2510.639845
  0
TEXT
  8
CSLAYER1
 62
     5
 10
1554.715267
 20
2587.441114
 40
59.399998
 41
1.028571
  1
電源コード
 50
0.000000
 51
0.000000
  7
EASYDRAW_FONT
 72
     5
 11
1839.835270
 21
2587.441114
  0
LINE
  8
CSLAYER1
  6
CONTINUOUS
 62
     3
 10
2274.759436
 20
2638.640493
 11
2160.697051
 21
2638.640493
  0
LINE
  8
CSLAYER1
  6
CONTINUOUS
 62
     3
 10
2274.759436
 20
2645.640493
 11
2160.697051
 21
2645.640493
  0
ARC
  8
CSLAYER1
  6
CONTINUOUS
 62
     3
 10
2274.759436
 20
2685.640493
 40
40.000000
 50
-90.000000
 51
243.051119
  0
ARC
  8
CSLAYER1
  6
CONTINUOUS
 62
     3
 10
2274.759436
 20
2685.640493
 40
47.000000
 50
-90.000000
 51
230.026912
  0
LINE
  8
CSLAYER1
  6
CONTINUOUS
 62
     3
 10
2465.896483
 20
2720.732570
 11
2367.447432
 21
2593.284809
  0
LINE
  8
CSLAYER1
  6
CONTINUOUS
 62
     3
 10
2460.356787
 20
2725.011795
 11
2354.140707
 21
2587.509184
  0
LINE
  8
CSLAYER1
  6
CONTINUOUS
 62
     3
 10
2433.604166
 20
2768.286175
 11
2320.729745
 21
2664.109994
  0
LINE
  8
CSLAYER1
  6
CONTINUOUS
 62
     3
 10
2428.856589
 20
2773.430153
 11
2326.203555
 21
2678.687687
  0
ARC
  8
CSLAYER1
  6
CONTINUOUS
 62
     3
 10
2377.518953
 20
2540.890556
 40
47.000000
 50
-190.756396
 51
127.198537
  0
ARC
  8
CSLAYER1
  6
CONTINUOUS
 62
     3
 10
2377.518953
 20
2540.890556
 40
40.000000
 50
-203.471057
 51
127.198537
  0
LINE
  8
CSLAYER1
  6
CONTINUOUS
 62
     3
 10
2195.140801
 20
2452.682196
 11
2353.335802
 21
2572.752370
  0
LINE
  8
CSLAYER1
  6
CONTINUOUS
 62
     3
 10
2190.908749
 20
2458.258014
 11
2349.103750
 21
2578.328188
  0
ARC
  8
CSLAYER1
  6
CONTINUOUS
 62
     3
 10
2545.034989
 20
2659.600771
 40
100.000000
 50
120.854378
 51
142.315137
  0
ARC
  8
CSLAYER1
  6
CONTINUOUS
 62
     3
 10
2545.034989
 20
2659.600771
 40
107.000000
 50
118.640112
 51
142.315137
  0
ARC
  8
CSLAYER1
  6
CONTINUOUS
 62
     3
 10
2501.426695
 20
2694.800771
 40
100.000000
 50
94.403212
 51
132.705116
  0
ARC
  8
CSLAYER1
  6
CONTINUOUS
 62
     3
 10
2501.426695
 20
2694.800771
 40
107.000000
 50
94.114637
 51
132.705116
  0
LINE
  8
CSLAYER1
  6
CONTINUOUS
 62
     5
 10
1883.610039
 20
2579.947579
 11
1562.760237
 21
2579.947579
  0
LINE
  8
CSLAYER1
  6
CONTINUOUS
 62
     5
 10
1892.800581
 20
2806.218865
 11
1478.055108
 21
2806.218865
  0
LINE
  8
CSLAYER1
  6
CONTINUOUS
 62
     5
 10
2063.697051
 20
2709.084955
 11
1892.800581
 21
2806.218865
  0
LINE
  8
CSLAYER1
  6
CONTINUOUS
 62
     5
 10
2063.697051
 20
2709.084955
 11
2020.152708
 21
2720.437938
  0
LINE
  8
CSLAYER1
  6
CONTINUOUS
 62
     5
 10
2063.697051
 20
2709.084955
 11
2031.663036
 21
2740.689098
  0
LINE
  8
CSLAYER1
  6
CENTER
 62
     5
 10
2493.749203
 20
2798.159370
 11
3443.749203
 21
2798.159370
  0
POINT
  8
CSLAYER1
 62
     7
 10
3048.860912
 20
768.604575
  0
CIRCLE
  8
CSLAYER1
  6
DASHED
 62
     5
 10
3048.860912
 20
768.604575
 40
9.000000
  0
CIRCLE
  8
CSLAYER1
  6
DASHED
 62
     5
 10
3048.860912
 20
768.604575
 40
18.500000
  0
POINT
  8
CSLAYER1
 62
     4
 10
3048.860912
 20
768.604575
  0
POINT
  8
CSLAYER1
 62
     3
 10
2590.749203
 20
768.604575
  0
LINE
  8
CSLAYER1
  6
CONTINUOUS
 62
     3
 10
2562.749203
 20
788.104575
 11
2562.749203
 21
744.104575
  0
LINE
  8
CSLAYER1
  6
CONTINUOUS
 62
     3
 10
264.542283
 20
744.104575
 11
3893.729719
 21
744.104575
  0
LINE
  8
CSLAYER1
  6
CONTINUOUS
 62
     3
 10
2503.749203
 20
794.104575
 11
3433.749203
 21
794.104575
  0
LINE
  8
CSLAYER1
  6
CONTINUOUS
 62
     3
 10
3361.749203
 20
788.104575
 11
3361.749203
 21
744.104575
  0
LINE
  8
CSLAYER1
  6
CENTER
 62
     5
 10
3022.520385
 20
768.604575
 11
3072.724316
 21
768.604575
  0
LINE
  8
CSLAYER1
  6
CENTER
 62
     5
 10
3048.860912
 20
791.959297
 11
3048.860912
 21
746.672246
  0
POINT
  8
CSLAYER1
 62
     7
 10
2590.749203
 20
768.604575
  0
LINE
  8
CSLAYER1
  6
CENTER
 62
     5
 10
2466.904331
 20
754.267211
 11
2551.531165
 21
788.069400
  0
LINE
  8
CSLAYER1
  6
CONTINUOUS
 62
     3
 10
2465.494791
 20
757.796120
 11
2541.286683
 21
788.069400
  0
LINE
  8
CSLAYER1
  6
CONTINUOUS
 62
     3
 10
2468.313870
 20
750.738302
 11
2561.775647
 21
788.069400
  0
LINE
  8
CSLAYER1
  6
CENTER
 62
     5
 10
2570.245063
 20
768.604575
 11
2611.925911
 21
768.604575
  0
LINE
  8
CSLAYER1
  6
CENTER
 62
     5
 10
2590.749203
 20
785.755144
 11
2590.749203
 21
751.954257
  0
LINE
  8
CSLAYER1
  6
CENTER
 62
     5
 10
1565.472870
 20
744.104575
 11
1565.472870
 21
1991.463887
  0
LINE
  8
CSLAYER1
  6
CONTINUOUS
 62
     3
 10
1250.472870
 20
794.104575
 11
1880.472870
 21
794.104575
  0
LINE
  8
CSLAYER1
  6
CONTINUOUS
 62
     3
 10
1315.472870
 20
744.104575
 11
1315.472870
 21
794.104575
  0
LINE
  8
CSLAYER1
  6
CONTINUOUS
 62
     3
 10
1815.472870
 20
744.104575
 11
1815.472870
 21
794.104575
  0
LINE
  8
CSLAYER1
  6
CONTINUOUS
 62
     5
 10
2132.056235
 20
2454.076366
 11
1883.610039
 21
2579.947579
  0
LINE
  8
CSLAYER1
  6
CONTINUOUS
 62
     5
 10
2132.056235
 20
2454.076366
 11
2088.018205
 21
2463.331199
  0
LINE
  8
CSLAYER1
  6
CONTINUOUS
 62
     5
 10
2132.056235
 20
2454.076366
 11
2098.545599
 21
2484.110301
  0
LINE
  8
CSLAYER1
  6
CONTINUOUS
 62
     3
 10
2195.140801
 20
2452.682196
 11
2190.908749
 21
2458.258014
  0
LINE
  8
CSLAYER1
  6
CONTINUOUS
 62
     3
 10
2192.054176
 20
2456.748890
 11
2154.443420
 21
2452.047546
  0
INSERT
  8
CSLAYER1
  2
EASYDRAWDIM0000
 10
0.0
 20
0.0
 30
0.0
  0
INSERT
  8
CSLAYER1
  2
EASYDRAWDIM0001
 10
0.0
 20
0.0
 30
0.0
  0
DIMENSION
  8
CSLAYER1
 62
     3
  2
*D0000
 10
3587.208952
 20
994.104575
 11
3572.208984
 21
869.104370
 13
3726.182180
 23
744.104575
 14
3436.090174
 24
994.104575
 50
90.000000
  0
DIMENSION
  8
CSLAYER1
 62
     3
  2
*D0001
 10
3587.208952
 20
1991.463887
 11
3572.208984
 21
1492.784058
 13
3418.235724
 23
994.104575
 14
3418.235724
 24
1991.463887
 50
90.000000
 70
1
  0
DIMENSION
  8
CSLAYER1
 62
     3
  2
*D0002
 10
3726.182180
 20
744.104575
 11
3711.182129
 21
1367.784058
 13
3726.182180
 23
1991.463887
 14
3726.182180
 24
744.104575
 50
90.000000
 70
1
  0
LINE
  8
CSLAYER1
  6
CONTINUOUS
 62
     3
 10
2192.982079
 20
2455.526358
 11
2160.191382
 21
2439.197930
  0
LINE
  8
CSLAYER1
  6
CONTINUOUS
 62
     3
 10
2193.881240
 20
2454.341694
 11
2166.731685
 21
2429.587687
  0
LINE
  8
CSLAYER1
  6
CONTINUOUS
 62
     3
 10
2194.533259
 20
2453.482645
 11
2177.676683
 21
2421.712628
  0
LINE
  8
CSLAYER1
  6
DASHED
 62
     3
 10
1320.800179
 20
749.604575
 11
1810.792480
 21
749.604575
  0
LINE
  8
CSLAYER1
  6
CONTINUOUS
 62
     5
 10
1345.472870
 20
761.271946
 11
1345.472870
 21
582.776777
  0
LINE
  8
CSLAYER1
  6
CONTINUOUS
 62
     5
 10
1785.472870
 20
761.271946
 11
1785.472870
 21
582.776777
  0
DIMENSION
  8
CSLAYER1
 62
     3
  2
*D0003
 10
1345.472870
 20
597.776777
 11
1565.760742
 21
608.819275
 13
1785.472870
 23
597.776777
 14
1345.472870
 24
597.776777
 52
0.000000
 70
1
  0
DIMENSION
  8
CSLAYER1
 62
     3
  2
*D0004
 10
1815.472870
 20
451.006902
 11
1562.156738
 21
457.446228
 13
1315.472870
 23
744.104575
 14
1815.472870
 24
744.104575
 52
270.000000
 70
1
  0
LINE
  8
CSLAYER1
  6
CONTINUOUS
 62
     5
 10
2612.749203
 20
761.271946
 11
2612.749203
 21
582.776777
  0
LINE
  8
CSLAYER1
  6
CONTINUOUS
 62
     5
 10
3012.749203
 20
761.271946
 11
3012.749203
 21
582.776777
  0
DIMENSION
  8
CSLAYER1
 62
     3
  2
*D0005
 10
2612.749203
 20
597.776777
 11
2620.569336
 21
516.689392
 13
2562.749203
 23
774.546653
 14
2612.749203
 24
774.546653
 52
270.000000
 70
1
  0
DIMENSION
  8
CSLAYER1
 62
     3
  2
*D0006
 10
2612.749203
 20
597.776777
 11
2808.181641
 21
608.778259
 13
3012.749203
 23
597.776777
 14
2612.749203
 24
597.776777
 52
0.000000
 70
1
  0
DIMENSION
  8
CSLAYER1
 62
     3
  2
*D0007
 10
3361.749203
 20
451.006902
 11
2962.249023
 21
466.006775
 13
2562.749203
 23
744.104575
 14
3361.749203
 24
744.104575
 52
270.000000
 70
1
  0
TEXT
  8
CSLAYER1
 62
     5
 10
2712.110304
 20
549.755939
 40
38.994835
 41
1.022858
  1
取付穴ピッチ
 50
0.000000
 51
0.000000
  7
EASYDRAW_FONT
 72
     5
 11
2938.131883
 21
549.755939
  0
TEXT
  8
CSLAYER1
 62
     5
 10
1454.552077
 20
549.676838
 40
38.994835
 41
1.022858
  1
取付穴ピッチ
 50
0.000000
 51
0.000000
  7
EASYDRAW_FONT
 72
     5
 11
1680.573656
 21
549.676838
  0
INSERT
  8
CSLAYER1
  2
EASYDRAWDIM0002
 10
0.0
 20
0.0
 30
0.0
  0
INSERT
  8
CSLAYER1
  2
EASYDRAWDIM0003
 10
0.0
 20
0.0
 30
0.0
  0
LINE
  8
CSLAYER1
  6
CONTINUOUS
 62
     7
 10
3433.749203
 20
788.104575
 11
3433.749203
 21
794.104575
  0
LINE
  8
CSLAYER1
  6
CONTINUOUS
 62
     3
 10
3443.749203
 20
2473.159370
 11
3443.749203
 21
3123.159370
  0
LINE
  8
CSLAYER1
  6
CONTINUOUS
 62
     3
 10
2493.749203
 20
3123.159370
 11
2493.749203
 21
2473.159370
  0
LINE
  8
CSLAYER1
  6
CONTINUOUS
 62
     3
 10
2493.749203
 20
3123.159370
 11
3443.749203
 21
3123.159370
  0
LINE
  8
CSLAYER1
  6
CONTINUOUS
 62
     3
 10
2493.749203
 20
2473.159370
 11
3443.749203
 21
2473.159370
  0
LINE
  8
CSLAYER1
  6
CONTINUOUS
 62
     3
 10
2503.749203
 20
788.104575
 11
3433.749203
 21
788.104575
  0
DIMENSION
  8
CSLAYER1
 62
     3
  2
*D0008
 10
3587.208952
 20
3123.159370
 11
3572.208740
 21
2798.159668
 13
3443.749203
 23
2473.159370
 14
3443.749203
 24
3123.159370
 50
90.000000
 70
1
  0
DIMENSION
  8
CSLAYER1
 62
     3
  2
*D0009
 10
3443.749203
 20
2337.061111
 11
2968.749023
 21
2352.061523
 13
2493.749203
 23
2473.159370
 14
3443.749203
 24
2473.159370
 52
270.000000
 70
1
  0
INSERT
  8
CSLAYER1
  2
BLKF0001
 10
0.0
 20
0.0
 30
0.0
  0
INSERT
  8
CSLAYER1
  2
BLKF0002
 10
0.0
 20
0.0
 30
0.0
  0
INSERT
  8
CSLAYER1
  2
BLKF0003
 10
0.0
 20
0.0
 30
0.0
  0
LINE
  8
CSLAYER1
  6
CONTINUOUS
 62
     3
 10
3383.749203
 20
1612.478108
 11
3433.749203
 21
1642.840452
  0
LINE
  8
CSLAYER1
  6
CONTINUOUS
 62
     3
 10
3433.749203
 20
1642.840452
 11
3383.749203
 21
1673.202795
  0
LINE
  8
CSLAYER1
  6
CONTINUOUS
 62
     3
 10
3383.749203
 20
1673.202795
 11
3433.749203
 21
1703.565139
  0
LINE
  8
CSLAYER1
  6
CONTINUOUS
 62
     3
 10
3433.749203
 20
1703.565139
 11
3383.749203
 21
1733.927482
  0
LINE
  8
CSLAYER1
  6
CONTINUOUS
 62
     3
 10
3383.749203
 20
1733.927482
 11
3433.749203
 21
1764.289826
  0
LINE
  8
CSLAYER1
  6
CONTINUOUS
 62
     3
 10
3433.749203
 20
1764.289826
 11
3383.749203
 21
1794.652169
  0
LINE
  8
CSLAYER1
  6
CONTINUOUS
 62
     3
 10
3383.749203
 20
1794.652169
 11
3433.749203
 21
1825.014513
  0
LINE
  8
CSLAYER1
  6
CONTINUOUS
 62
     3
 10
3433.749203
 20
1825.014513
 11
3383.749203
 21
1855.376856
  0
LINE
  8
CSLAYER1
  6
CONTINUOUS
 62
     3
 10
3383.749203
 20
1855.376856
 11
3433.749203
 21
1885.739200
  0
LINE
  8
CSLAYER1
  6
CONTINUOUS
 62
     3
 10
3433.749203
 20
1885.739200
 11
3383.749203
 21
1916.101543
  0
LINE
  8
CSLAYER1
  6
CONTINUOUS
 62
     3
 10
3383.749203
 20
1916.101543
 11
3433.749203
 21
1946.463887
  0
LINE
  8
CSLAYER1
  6
CONTINUOUS
 62
     3
 10
3383.749203
 20
1308.854673
 11
3433.749203
 21
1339.217017
  0
LINE
  8
CSLAYER1
  6
CONTINUOUS
 62
     3
 10
3433.749203
 20
1339.217017
 11
3383.749203
 21
1369.579360
  0
LINE
  8
CSLAYER1
  6
CONTINUOUS
 62
     3
 10
3383.749203
 20
1369.579360
 11
3433.749203
 21
1399.941704
  0
LINE
  8
CSLAYER1
  6
CONTINUOUS
 62
     3
 10
3433.749203
 20
1399.941704
 11
3383.749203
 21
1430.304047
  0
LINE
  8
CSLAYER1
  6
CONTINUOUS
 62
     3
 10
3383.749203
 20
1430.304047
 11
3433.749203
 21
1460.666391
  0
LINE
  8
CSLAYER1
  6
CONTINUOUS
 62
     3
 10
3433.749203
 20
1460.666391
 11
3383.749203
 21
1491.028734
  0
LINE
  8
CSLAYER1
  6
CONTINUOUS
 62
     3
 10
3383.749203
 20
1491.028734
 11
3433.749203
 21
1521.391078
  0
LINE
  8
CSLAYER1
  6
CONTINUOUS
 62
     3
 10
3433.749203
 20
1521.391078
 11
3383.749203
 21
1551.753421
  0
LINE
  8
CSLAYER1
  6
CONTINUOUS
 62
     3
 10
3383.749203
 20
1551.753421
 11
3433.749203
 21
1582.115765
  0
LINE
  8
CSLAYER1
  6
CONTINUOUS
 62
     3
 10
3433.749203
 20
1582.115765
 11
3383.749203
 21
1612.478108
  0
LINE
  8
CSLAYER1
  6
CONTINUOUS
 62
     3
 10
3383.749203
 20
1005.231238
 11
3433.749203
 21
1035.593582
  0
LINE
  8
CSLAYER1
  6
CONTINUOUS
 62
     3
 10
3433.749203
 20
1035.593582
 11
3383.749203
 21
1065.955925
  0
LINE
  8
CSLAYER1
  6
CONTINUOUS
 62
     3
 10
3383.749203
 20
1065.955925
 11
3433.749203
 21
1096.318269
  0
LINE
  8
CSLAYER1
  6
CONTINUOUS
 62
     3
 10
3433.749203
 20
1096.318269
 11
3383.749203
 21
1126.680612
  0
LINE
  8
CSLAYER1
  6
CONTINUOUS
 62
     3
 10
3383.749203
 20
1126.680612
 11
3433.749203
 21
1157.042956
  0
LINE
  8
CSLAYER1
  6
CONTINUOUS
 62
     3
 10
3433.749203
 20
1157.042956
 11
3383.749203
 21
1187.405299
  0
LINE
  8
CSLAYER1
  6
CONTINUOUS
 62
     3
 10
3383.749203
 20
1187.405299
 11
3433.749203
 21
1217.767643
  0
LINE
  8
CSLAYER1
  6
CONTINUOUS
 62
     3
 10
3433.749203
 20
1217.767643
 11
3383.749203
 21
1248.129986
  0
LINE
  8
CSLAYER1
  6
CONTINUOUS
 62
     3
 10
3383.749203
 20
1248.129986
 11
3433.749203
 21
1278.492330
  0
LINE
  8
CSLAYER1
  6
CONTINUOUS
 62
     3
 10
3433.749203
 20
1278.492330
 11
3383.749203
 21
1308.854673
  0
LINE
  8
CSLAYER1
  6
CONTINUOUS
 62
     3
 10
3431.427674
 20
794.104575
 11
3383.749203
 21
823.057177
  0
LINE
  8
CSLAYER1
  6
CONTINUOUS
 62
     3
 10
3383.749203
 20
823.057177
 11
3433.749203
 21
853.419521
  0
LINE
  8
CSLAYER1
  6
CONTINUOUS
 62
     3
 10
3433.749203
 20
853.419521
 11
3383.749203
 21
883.781864
  0
LINE
  8
CSLAYER1
  6
CONTINUOUS
 62
     3
 10
3383.749203
 20
883.781864
 11
3433.749203
 21
914.144208
  0
LINE
  8
CSLAYER1
  6
CONTINUOUS
 62
     3
 10
3433.749203
 20
914.144208
 11
3383.749203
 21
944.506551
  0
LINE
  8
CSLAYER1
  6
CONTINUOUS
 62
     3
 10
3383.749203
 20
944.506551
 11
3433.749203
 21
974.868895
  0
LINE
  8
CSLAYER1
  6
CONTINUOUS
 62
     3
 10
3433.749203
 20
974.868895
 11
3383.749203
 21
1005.231238
  0
LINE
  8
CSLAYER1
  6
CONTINUOUS
 62
     3
 10
2503.749203
 20
1642.840452
 11
2553.749203
 21
1673.202795
  0
LINE
  8
CSLAYER1
  6
CONTINUOUS
 62
     3
 10
2553.749203
 20
1673.202795
 11
2503.749203
 21
1703.565139
  0
LINE
  8
CSLAYER1
  6
CONTINUOUS
 62
     3
 10
2503.749203
 20
1703.565139
 11
2553.749203
 21
1733.927482
  0
LINE
  8
CSLAYER1
  6
CONTINUOUS
 62
     3
 10
2553.749203
 20
1733.927482
 11
2503.749203
 21
1764.289826
  0
LINE
  8
CSLAYER1
  6
CONTINUOUS
 62
     3
 10
2503.749203
 20
1764.289826
 11
2553.749203
 21
1794.652169
  0
LINE
  8
CSLAYER1
  6
CONTINUOUS
 62
     3
 10
2553.749203
 20
1794.652169
 11
2503.749203
 21
1825.014513
  0
LINE
  8
CSLAYER1
  6
CONTINUOUS
 62
     3
 10
2503.749203
 20
1825.014513
 11
2553.749203
 21
1855.376856
  0
LINE
  8
CSLAYER1
  6
CONTINUOUS
 62
     3
 10
2553.749203
 20
1855.376856
 11
2503.749203
 21
1885.739200
  0
LINE
  8
CSLAYER1
  6
CONTINUOUS
 62
     3
 10
2503.749203
 20
1885.739200
 11
2553.749203
 21
1916.101543
  0
LINE
  8
CSLAYER1
  6
CONTINUOUS
 62
     3
 10
2553.749203
 20
1916.101543
 11
2503.749203
 21
1946.463887
  0
LINE
  8
CSLAYER1
  6
CONTINUOUS
 62
     3
 10
2503.749203
 20
1339.217017
 11
2553.749203
 21
1369.579360
  0
LINE
  8
CSLAYER1
  6
CONTINUOUS
 62
     3
 10
2553.749203
 20
1369.579360
 11
2503.749203
 21
1399.941704
  0
LINE
  8
CSLAYER1
  6
CONTINUOUS
 62
     3
 10
2503.749203
 20
1399.941704
 11
2553.749203
 21
1430.304047
  0
LINE
  8
CSLAYER1
  6
CONTINUOUS
 62
     3
 10
2553.749203
 20
1430.304047
 11
2503.749203
 21
1460.666391
  0
LINE
  8
CSLAYER1
  6
CONTINUOUS
 62
     3
 10
2503.749203
 20
1460.666391
 11
2553.749203
 21
1491.028734
  0
LINE
  8
CSLAYER1
  6
CONTINUOUS
 62
     3
 10
2553.749203
 20
1491.028734
 11
2503.749203
 21
1521.391078
  0
LINE
  8
CSLAYER1
  6
CONTINUOUS
 62
     3
 10
2503.749203
 20
1521.391078
 11
2553.749203
 21
1551.753421
  0
LINE
  8
CSLAYER1
  6
CONTINUOUS
 62
     3
 10
2553.749203
 20
1551.753421
 11
2503.749203
 21
1582.115765
  0
LINE
  8
CSLAYER1
  6
CONTINUOUS
 62
     3
 10
2503.749203
 20
1582.115765
 11
2553.749203
 21
1612.478108
  0
LINE
  8
CSLAYER1
  6
CONTINUOUS
 62
     3
 10
2553.749203
 20
1612.478108
 11
2503.749203
 21
1642.840452
  0
LINE
  8
CSLAYER1
  6
CONTINUOUS
 62
     3
 10
2503.749203
 20
1035.593582
 11
2553.749203
 21
1065.955925
  0
LINE
  8
CSLAYER1
  6
CONTINUOUS
 62
     3
 10
2553.749203
 20
1065.955925
 11
2503.749203
 21
1096.318269
  0
LINE
  8
CSLAYER1
  6
CONTINUOUS
 62
     3
 10
2503.749203
 20
1096.318269
 11
2553.749203
 21
1126.680612
  0
LINE
  8
CSLAYER1
  6
CONTINUOUS
 62
     3
 10
2553.749203
 20
1126.680612
 11
2503.749203
 21
1157.042956
  0
LINE
  8
CSLAYER1
  6
CONTINUOUS
 62
     3
 10
2503.749203
 20
1157.042956
 11
2553.749203
 21
1187.405299
  0
LINE
  8
CSLAYER1
  6
CONTINUOUS
 62
     3
 10
2553.749203
 20
1187.405299
 11
2503.749203
 21
1217.767643
  0
LINE
  8
CSLAYER1
  6
CONTINUOUS
 62
     3
 10
2503.749203
 20
1217.767643
 11
2553.749203
 21
1248.129986
  0
LINE
  8
CSLAYER1
  6
CONTINUOUS
 62
     3
 10
2553.749203
 20
1248.129986
 11
2503.749203
 21
1278.492330
  0
LINE
  8
CSLAYER1
  6
CONTINUOUS
 62
     3
 10
2503.749203
 20
1278.492330
 11
2553.749203
 21
1308.854673
  0
LINE
  8
CSLAYER1
  6
CONTINUOUS
 62
     3
 10
2553.749203
 20
1308.854673
 11
2503.749203
 21
1339.217017
  0
LINE
  8
CSLAYER1
  6
CONTINUOUS
 62
     3
 10
2503.749203
 20
853.419521
 11
2553.749203
 21
883.781864
  0
LINE
  8
CSLAYER1
  6
CONTINUOUS
 62
     3
 10
2553.749203
 20
883.781864
 11
2503.749203
 21
914.144208
  0
LINE
  8
CSLAYER1
  6
CONTINUOUS
 62
     3
 10
2503.749203
 20
914.144208
 11
2553.749203
 21
944.506551
  0
LINE
  8
CSLAYER1
  6
CONTINUOUS
 62
     3
 10
2553.749203
 20
944.506551
 11
2503.749203
 21
974.868895
  0
LINE
  8
CSLAYER1
  6
CONTINUOUS
 62
     3
 10
2503.749203
 20
974.868895
 11
2553.749203
 21
1005.231238
  0
LINE
  8
CSLAYER1
  6
CONTINUOUS
 62
     3
 10
2553.749203
 20
1005.231238
 11
2503.749203
 21
1035.593582
  0
LINE
  8
CSLAYER1
  6
CONTINUOUS
 62
     3
 10
2506.070733
 20
794.104575
 11
2553.749203
 21
823.057177
  0
LINE
  8
CSLAYER1
  6
CONTINUOUS
 62
     3
 10
2553.749203
 20
823.057177
 11
2503.749203
 21
853.419521
  0
LINE
  8
CSLAYER1
  6
CONTINUOUS
 62
     3
 10
2503.749203
 20
794.104575
 11
2503.749203
 21
788.104575
  0
LINE
  8
CSLAYER1
  6
CONTINUOUS
 62
     7
 10
1880.472870
 20
788.104575
 11
1880.472870
 21
794.104575
  0
LINE
  8
CSLAYER1
  6
CONTINUOUS
 62
     3
 10
1815.472870
 20
788.104575
 11
1880.472870
 21
788.104575
  0
LINE
  8
CSLAYER1
  6
CONTINUOUS
 62
     7
 10
1250.472870
 20
788.104575
 11
1250.472870
 21
794.104575
  0
LINE
  8
CSLAYER1
  6
CONTINUOUS
 62
     3
 10
1315.472870
 20
788.104575
 11
1250.472870
 21
788.104575
  0
LINE
  8
CSLAYER1
  6
CONTINUOUS
 62
     4
 10
2553.749203
 20
1916.101543
 11
3383.749203
 21
1916.101543
  0
LINE
  8
CSLAYER1
  6
CONTINUOUS
 62
     4
 10
3433.749203
 20
1885.739200
 11
2503.749203
 21
1885.739200
  0
LINE
  8
CSLAYER1
  6
CONTINUOUS
 62
     4
 10
2553.749203
 20
1855.376856
 11
3383.749203
 21
1855.376856
  0
LINE
  8
CSLAYER1
  6
CONTINUOUS
 62
     4
 10
3433.749203
 20
1825.014513
 11
2503.749203
 21
1825.014513
  0
LINE
  8
CSLAYER1
  6
CONTINUOUS
 62
     4
 10
2553.749203
 20
1794.652169
 11
3383.749203
 21
1794.652169
  0
LINE
  8
CSLAYER1
  6
CONTINUOUS
 62
     4
 10
3433.749203
 20
1764.289826
 11
2503.749203
 21
1764.289826
  0
LINE
  8
CSLAYER1
  6
CONTINUOUS
 62
     4
 10
2553.749203
 20
1733.927482
 11
3383.749203
 21
1733.927482
  0
LINE
  8
CSLAYER1
  6
CONTINUOUS
 62
     4
 10
3433.749203
 20
1703.565139
 11
2503.749203
 21
1703.565139
  0
LINE
  8
CSLAYER1
  6
CONTINUOUS
 62
     4
 10
2553.749203
 20
1673.202795
 11
3383.749203
 21
1673.202795
  0
LINE
  8
CSLAYER1
  6
CONTINUOUS
 62
     4
 10
3433.749203
 20
1642.840452
 11
2503.749203
 21
1642.840452
  0
LINE
  8
CSLAYER1
  6
CONTINUOUS
 62
     4
 10
2553.749203
 20
1612.478108
 11
3383.749203
 21
1612.478108
  0
LINE
  8
CSLAYER1
  6
CONTINUOUS
 62
     4
 10
3433.749203
 20
1582.115765
 11
2503.749203
 21
1582.115765
  0
LINE
  8
CSLAYER1
  6
CONTINUOUS
 62
     4
 10
2553.749203
 20
1551.753421
 11
3383.749203
 21
1551.753421
  0
LINE
  8
CSLAYER1
  6
CONTINUOUS
 62
     4
 10
3433.749203
 20
1521.391078
 11
2503.749203
 21
1521.391078
  0
LINE
  8
CSLAYER1
  6
CONTINUOUS
 62
     4
 10
2553.749203
 20
1491.028734
 11
3383.749203
 21
1491.028734
  0
LINE
  8
CSLAYER1
  6
CONTINUOUS
 62
     4
 10
3433.749203
 20
1460.666391
 11
2503.749203
 21
1460.666391
  0
LINE
  8
CSLAYER1
  6
CONTINUOUS
 62
     4
 10
2553.749203
 20
1430.304047
 11
3383.749203
 21
1430.304047
  0
LINE
  8
CSLAYER1
  6
CONTINUOUS
 62
     4
 10
3433.749203
 20
1399.941704
 11
2503.749203
 21
1399.941704
  0
LINE
  8
CSLAYER1
  6
CONTINUOUS
 62
     4
 10
2553.749203
 20
1369.579360
 11
3383.749203
 21
1369.579360
  0
LINE
  8
CSLAYER1
  6
CONTINUOUS
 62
     4
 10
3433.749203
 20
1339.217017
 11
2503.749203
 21
1339.217017
  0
LINE
  8
CSLAYER1
  6
CONTINUOUS
 62
     4
 10
2553.749203
 20
1308.854673
 11
3383.749203
 21
1308.854673
  0
LINE
  8
CSLAYER1
  6
CONTINUOUS
 62
     4
 10
3433.749203
 20
1278.492330
 11
2503.749203
 21
1278.492330
  0
LINE
  8
CSLAYER1
  6
CONTINUOUS
 62
     4
 10
2553.749203
 20
1248.129986
 11
3383.749203
 21
1248.129986
  0
LINE
  8
CSLAYER1
  6
CONTINUOUS
 62
     4
 10
3433.749203
 20
1217.767643
 11
2503.749203
 21
1217.767643
  0
LINE
  8
CSLAYER1
  6
CONTINUOUS
 62
     4
 10
2553.749203
 20
1187.405299
 11
3383.749203
 21
1187.405299
  0
LINE
  8
CSLAYER1
  6
CONTINUOUS
 62
     4
 10
3433.749203
 20
1157.042956
 11
2503.749203
 21
1157.042956
  0
LINE
  8
CSLAYER1
  6
CONTINUOUS
 62
     4
 10
2553.749203
 20
1126.680612
 11
3383.749203
 21
1126.680612
  0
LINE
  8
CSLAYER1
  6
CONTINUOUS
 62
     4
 10
3433.749203
 20
1096.318269
 11
2503.749203
 21
1096.318269
  0
LINE
  8
CSLAYER1
  6
CONTINUOUS
 62
     4
 10
2553.749203
 20
1065.955925
 11
3383.749203
 21
1065.955925
  0
LINE
  8
CSLAYER1
  6
CONTINUOUS
 62
     4
 10
3433.749203
 20
1035.593582
 11
2503.749203
 21
1035.593582
  0
LINE
  8
CSLAYER1
  6
CONTINUOUS
 62
     4
 10
2553.749203
 20
1005.231238
 11
3383.749203
 21
1005.231238
  0
LINE
  8
CSLAYER1
  6
CONTINUOUS
 62
     4
 10
3433.749203
 20
974.868895
 11
2503.749203
 21
974.868895
  0
LINE
  8
CSLAYER1
  6
CONTINUOUS
 62
     4
 10
2553.749203
 20
944.506551
 11
3383.749203
 21
944.506551
  0
LINE
  8
CSLAYER1
  6
CONTINUOUS
 62
     4
 10
3433.749203
 20
914.144208
 11
2503.749203
 21
914.144208
  0
LINE
  8
CSLAYER1
  6
CONTINUOUS
 62
     4
 10
2553.749203
 20
883.781864
 11
3383.749203
 21
883.781864
  0
LINE
  8
CSLAYER1
  6
CONTINUOUS
 62
     4
 10
3433.749203
 20
853.419521
 11
2503.749203
 21
853.419521
  0
LINE
  8
CSLAYER1
  6
CONTINUOUS
 62
     4
 10
2553.749203
 20
823.057177
 11
3383.749203
 21
823.057177
  0
DIMENSION
  8
CSLAYER1
 62
     3
  2
*D0010
 10
2562.749203
 20
451.006902
 11
2552.291992
 21
367.238708
 13
2493.749203
 23
949.104575
 14
2562.749203
 24
949.104575
 52
270.000000
 70
1
  0
DIMENSION
  8
CSLAYER1
 62
     3
  2
*D0011
 10
3443.749203
 20
451.006902
 11
3384.269531
 21
360.147888
 13
3361.749203
 23
949.104575
 14
3443.749203
 24
949.104575
 52
270.000000
 70
1
  0
DIMENSION
  8
CSLAYER1
 62
     3
  2
*D0012
 10
2493.749203
 20
305.785909
 11
2968.749023
 21
320.786072
 13
3443.749203
 23
305.785909
 14
2493.749203
 24
305.785909
 52
0.000000
 70
1
  0
DIMENSION
  8
CSLAYER1
 62
     3
  2
*D0013
 10
1880.472870
 20
305.785909
 11
1565.472900
 21
320.786072
 13
1250.472870
 23
788.104575
 14
1880.472870
 24
788.104575
 52
270.000000
 70
1
  0
LINE
  8
CSLAYER1
  6
CONTINUOUS
 62
     3
 10
1240.472870
 20
1991.463887
 11
1890.472870
 21
1991.463887
  0
LINE
  8
CSLAYER1
  6
CONTINUOUS
 62
     3
 10
1240.472870
 20
1946.463887
 11
1890.472870
 21
1946.463887
  0
LINE
  8
CSLAYER1
  6
CONTINUOUS
 62
     3
 10
1240.472870
 20
1946.463887
 11
1240.472870
 21
1991.463887
  0
LINE
  8
CSLAYER1
  6
CONTINUOUS
 62
     3
 10
1890.472870
 20
1946.463887
 11
1890.472870
 21
1991.463887
  0
LINE
  8
CSLAYER1
  6
CONTINUOUS
 62
     5
 10
2578.749203
 20
940.904575
 11
2327.749000
 21
1369.544386
  0
LINE
  8
CSLAYER1
  6
CONTINUOUS
 62
     5
 10
2578.749203
 20
940.904575
 11
2546.734448
 21
972.528228
  0
LINE
  8
CSLAYER1
  6
CONTINUOUS
 62
     5
 10
2578.749203
 20
940.904575
 11
2566.835439
 21
984.298840
  0
LINE
  8
CSLAYER1
  6
CONTINUOUS
 62
     5
 10
2612.749203
 20
744.104575
 11
2347.147385
 21
302.859356
  0
LINE
  8
CSLAYER1
  6
CONTINUOUS
 62
     5
 10
2612.749203
 20
744.104575
 11
2600.311333
 21
700.857617
  0
LINE
  8
CSLAYER1
  6
CONTINUOUS
 62
     5
 10
2612.749203
 20
744.104575
 11
2580.354213
 21
712.870546
  0
LINE
  8
CSLAYER1
  6
CONTINUOUS
 62
     5
 10
2662.749203
 20
805.104575
 11
2374.106900
 21
540.427212
  0
LINE
  8
CSLAYER1
  6
CONTINUOUS
 62
     5
 10
2662.749203
 20
805.104575
 11
2638.583971
 21
767.143522
  0
LINE
  8
CSLAYER1
  6
CONTINUOUS
 62
     5
 10
2662.749203
 20
805.104575
 11
2622.840972
 21
784.311955
  0
LINE
  8
CSLAYER1
  6
CENTER
 62
     5
 10
614.542283
 20
744.104575
 11
614.542283
 21
994.104575
  0
LINE
  8
CSLAYER1
  6
CONTINUOUS
 62
     3
 10
299.542283
 20
794.104575
 11
929.542283
 21
794.104575
  0
LINE
  8
CSLAYER1
  6
CENTER
 62
     5
 10
848.542283
 20
794.104575
 11
848.542283
 21
940.904575
  0
LINE
  8
CSLAYER1
  6
CONTINUOUS
 62
     3
 10
364.542283
 20
744.104575
 11
364.542283
 21
794.104575
  0
LINE
  8
CSLAYER1
  6
CONTINUOUS
 62
     3
 10
864.542283
 20
744.104575
 11
864.542283
 21
794.104575
  0
LINE
  8
CSLAYER1
  6
CENTER
 62
     5
 10
380.542283
 20
794.104575
 11
380.542283
 21
940.904575
  0
LINE
  8
CSLAYER1
  6
CENTER
 62
     5
 10
689.542283
 20
794.104575
 11
689.542283
 21
891.195962
  0
LINE
  8
CSLAYER1
  6
CONTINUOUS
 62
     5
 10
394.542283
 20
720.761499
 11
394.542283
 21
761.271946
  0
LINE
  8
CSLAYER1
  6
CONTINUOUS
 62
     5
 10
834.542283
 20
720.761499
 11
834.542283
 21
761.271946
  0
LINE
  8
CSLAYER1
  6
CONTINUOUS
 62
     7
 10
929.542283
 20
788.104575
 11
929.542283
 21
794.104575
  0
LINE
  8
CSLAYER1
  6
CONTINUOUS
 62
     3
 10
864.542283
 20
788.104575
 11
929.542283
 21
788.104575
  0
LINE
  8
CSLAYER1
  6
CONTINUOUS
 62
     7
 10
299.542283
 20
788.104575
 11
299.542283
 21
794.104575
  0
LINE
  8
CSLAYER1
  6
CONTINUOUS
 62
     3
 10
364.542283
 20
788.104575
 11
299.542283
 21
788.104575
  0
LINE
  8
CSLAYER1
  6
DASHED
 62
     5
 10
839.042283
 20
915.104575
 11
858.042283
 21
915.104575
  0
LINE
  8
CSLAYER1
  6
DASHED
 62
     5
 10
839.042283
 20
925.104575
 11
858.042283
 21
925.104575
  0
LINE
  8
CSLAYER1
  6
DASHED
 62
     5
 10
837.572628
 20
924.256069
 11
837.572628
 21
915.953081
  0
LINE
  8
CSLAYER1
  6
DASHED
 62
     5
 10
843.057456
 20
924.256069
 11
843.057456
 21
915.953081
  0
LINE
  8
CSLAYER1
  6
DASHED
 62
     5
 10
839.042283
 20
925.104575
 11
837.572628
 21
924.256069
  0
ARC
  8
CSLAYER1
  6
DASHED
 62
     5
 10
848.542283
 20
906.953081
 40
18.151494
 50
72.412046
 51
107.587954
  0
ARC
  8
CSLAYER1
  6
DASHED
 62
     5
 10
840.315042
 20
920.262183
 40
4.844787
 50
55.524449
 51
115.524449
  0
LINE
  8
CSLAYER1
  6
DASHED
 62
     5
 10
859.511938
 20
924.256069
 11
859.511938
 21
915.953081
  0
LINE
  8
CSLAYER1
  6
DASHED
 62
     5
 10
854.027111
 20
924.256069
 11
854.027111
 21
915.953081
  0
LINE
  8
CSLAYER1
  6
DASHED
 62
     5
 10
858.042283
 20
925.104575
 11
859.511938
 21
924.256069
  0
ARC
  8
CSLAYER1
  6
DASHED
 62
     5
 10
856.769524
 20
920.262183
 40
4.844787
 50
64.475551
 51
124.475551
  0
LINE
  8
CSLAYER1
  6
DASHED
 62
     5
 10
839.042283
 20
915.104575
 11
837.572628
 21
915.953081
  0
ARC
  8
CSLAYER1
  6
DASHED
 62
     5
 10
848.542283
 20
933.256069
 40
18.151494
 50
252.412046
 51
287.587954
  0
ARC
  8
CSLAYER1
  6
DASHED
 62
     5
 10
840.315042
 20
919.946968
 40
4.844787
 50
244.475551
 51
304.475551
  0
LINE
  8
CSLAYER1
  6
DASHED
 62
     5
 10
858.042283
 20
915.104575
 11
859.511938
 21
915.953081
  0
ARC
  8
CSLAYER1
  6
DASHED
 62
     5
 10
856.769524
 20
919.946968
 40
4.844787
 50
235.524449
 51
295.524449
  0
POINT
  8
CSLAYER1
 62
     5
 10
848.542283
 20
925.104575
  0
LINE
  8
CSLAYER1
  6
DASHED
 62
     5
 10
860.342283
 20
940.904575
 11
837.342283
 21
940.904575
  0
LINE
  8
CSLAYER1
  6
DASHED
 62
     5
 10
837.572628
 20
932.904575
 11
859.511938
 21
932.904575
  0
LINE
  8
CSLAYER1
  6
DASHED
 62
     5
 10
837.572628
 20
940.056069
 11
837.572628
 21
932.904575
  0
LINE
  8
CSLAYER1
  6
DASHED
 62
     5
 10
843.057456
 20
940.056069
 11
843.057456
 21
932.904575
  0
LINE
  8
CSLAYER1
  6
DASHED
 62
     5
 10
839.042283
 20
940.904575
 11
837.572628
 21
940.056069
  0
ARC
  8
CSLAYER1
  6
DASHED
 62
     5
 10
848.542283
 20
922.753081
 40
18.151494
 50
72.412046
 51
107.587954
  0
ARC
  8
CSLAYER1
  6
DASHED
 62
     5
 10
840.315042
 20
936.062183
 40
4.844787
 50
55.524449
 51
115.524449
  0
LINE
  8
CSLAYER1
  6
DASHED
 62
     5
 10
859.511938
 20
940.056069
 11
859.511938
 21
932.904575
  0
LINE
  8
CSLAYER1
  6
DASHED
 62
     5
 10
854.027111
 20
940.056069
 11
854.027111
 21
932.904575
  0
LINE
  8
CSLAYER1
  6
DASHED
 62
     5
 10
858.042283
 20
940.904575
 11
859.511938
 21
940.056069
  0
ARC
  8
CSLAYER1
  6
DASHED
 62
     5
 10
856.769524
 20
936.062183
 40
4.844787
 50
64.475551
 51
124.475551
  0
LINE
  8
CSLAYER1
  6
DASHED
 62
     5
 10
842.542283
 20
932.904575
 11
843.542283
 21
931.172524
  0
LINE
  8
CSLAYER1
  6
DASHED
 62
     5
 10
854.542283
 20
932.904575
 11
853.542283
 21
931.172524
  0
POINT
  8
CSLAYER1
 62
     5
 10
848.542283
 20
932.904575
  0
LINE
  8
CSLAYER1
  6
DASHED
 62
     5
 10
842.542283
 20
932.904575
 11
842.542283
 21
925.104575
  0
LINE
  8
CSLAYER1
  6
DASHED
 62
     5
 10
843.542283
 20
931.172524
 11
843.542283
 21
925.104575
  0
LINE
  8
CSLAYER1
  6
DASHED
 62
     5
 10
853.542283
 20
931.172524
 11
853.542283
 21
925.104575
  0
LINE
  8
CSLAYER1
  6
DASHED
 62
     5
 10
854.542283
 20
932.904575
 11
854.542283
 21
925.104575
  0
LINE
  8
CSLAYER1
  6
DASHED
 62
     5
 10
770.542283
 20
898.776483
 11
458.542283
 21
898.776483
  0
LINE
  8
CSLAYER1
  6
DASHED
 62
     5
 10
779.542283
 20
898.776483
 11
783.542283
 21
898.776483
  0
LINE
  8
CSLAYER1
  6
DASHED
 62
     5
 10
676.542283
 20
851.929243
 11
676.542283
 21
898.776483
  0
LINE
  8
CSLAYER1
  6
DASHED
 62
     5
 10
552.542283
 20
851.929243
 11
552.542283
 21
898.776483
  0
LINE
  8
CSLAYER1
  6
DASHED
 62
     5
 10
552.542283
 20
851.929243
 11
552.778212
 21
848.550646
  0
LINE
  8
CSLAYER1
  6
DASHED
 62
     5
 10
552.778212
 20
848.550646
 11
553.484202
 21
845.197763
  0
LINE
  8
CSLAYER1
  6
DASHED
 62
     5
 10
553.484202
 20
845.197763
 11
554.120020
 21
843.404575
  0
LINE
  8
CSLAYER1
  6
DASHED
 62
     5
 10
669.542283
 20
834.115841
 11
670.733366
 21
835.546427
  0
LINE
  8
CSLAYER1
  6
DASHED
 62
     5
 10
670.733366
 20
835.546427
 11
672.803226
 21
838.670817
  0
LINE
  8
CSLAYER1
  6
DASHED
 62
     5
 10
672.803226
 20
838.670817
 11
674.429684
 21
841.896111
  0
LINE
  8
CSLAYER1
  6
DASHED
 62
     5
 10
674.429684
 20
841.896111
 11
675.600364
 21
845.197763
  0
LINE
  8
CSLAYER1
  6
DASHED
 62
     5
 10
675.600364
 20
845.197763
 11
676.306354
 21
848.550646
  0
LINE
  8
CSLAYER1
  6
DASHED
 62
     5
 10
676.306354
 20
848.550646
 11
676.542283
 21
851.929243
  0
LINE
  8
CSLAYER1
  6
DASHED
 62
     5
 10
732.542283
 20
849.641392
 11
732.542283
 21
859.323453
  0
LINE
  8
CSLAYER1
  6
DASHED
 62
     5
 10
728.142283
 20
846.800804
 11
728.142283
 21
859.323453
  0
LINE
  8
CSLAYER1
  6
DASHED
 62
     5
 10
723.142283
 20
877.025011
 11
723.142283
 21
898.776483
  0
LINE
  8
CSLAYER1
  6
DASHED
 62
     5
 10
732.542283
 20
849.641392
 11
728.142283
 21
849.641392
  0
LINE
  8
CSLAYER1
  6
DASHED
 62
     5
 10
713.042283
 20
849.641392
 11
696.542283
 21
849.641392
  0
LINE
  8
CSLAYER1
  6
DASHED
 62
     5
 10
390.042283
 20
915.104575
 11
371.042283
 21
915.104575
  0
LINE
  8
CSLAYER1
  6
DASHED
 62
     5
 10
390.042283
 20
925.104575
 11
371.042283
 21
925.104575
  0
LINE
  8
CSLAYER1
  6
DASHED
 62
     5
 10
391.511938
 20
924.256069
 11
391.511938
 21
915.953081
  0
LINE
  8
CSLAYER1
  6
DASHED
 62
     5
 10
386.027111
 20
924.256069
 11
386.027111
 21
915.953081
  0
LINE
  8
CSLAYER1
  6
DASHED
 62
     5
 10
390.042283
 20
925.104575
 11
391.511938
 21
924.256069
  0
ARC
  8
CSLAYER1
  6
DASHED
 62
     5
 10
380.542283
 20
906.953081
 40
18.151494
 50
72.412046
 51
107.587954
  0
ARC
  8
CSLAYER1
  6
DASHED
 62
     5
 10
388.769524
 20
920.262183
 40
4.844787
 50
64.475551
 51
124.475551
  0
LINE
  8
CSLAYER1
  6
DASHED
 62
     5
 10
369.572628
 20
924.256069
 11
369.572628
 21
915.953081
  0
LINE
  8
CSLAYER1
  6
DASHED
 62
     5
 10
375.057456
 20
924.256069
 11
375.057456
 21
915.953081
  0
LINE
  8
CSLAYER1
  6
DASHED
 62
     5
 10
371.042283
 20
925.104575
 11
369.572628
 21
924.256069
  0
ARC
  8
CSLAYER1
  6
DASHED
 62
     5
 10
372.315042
 20
920.262183
 40
4.844787
 50
55.524449
 51
115.524449
  0
LINE
  8
CSLAYER1
  6
DASHED
 62
     5
 10
390.042283
 20
915.104575
 11
391.511938
 21
915.953081
  0
ARC
  8
CSLAYER1
  6
DASHED
 62
     5
 10
380.542283
 20
933.256069
 40
18.151494
 50
252.412046
 51
287.587954
  0
ARC
  8
CSLAYER1
  6
DASHED
 62
     5
 10
388.769524
 20
919.946968
 40
4.844787
 50
235.524449
 51
295.524449
  0
LINE
  8
CSLAYER1
  6
DASHED
 62
     5
 10
371.042283
 20
915.104575
 11
369.572628
 21
915.953081
  0
ARC
  8
CSLAYER1
  6
DASHED
 62
     5
 10
372.315042
 20
919.946968
 40
4.844787
 50
244.475551
 51
304.475551
  0
POINT
  8
CSLAYER1
 62
     5
 10
380.542283
 20
925.104575
  0
LINE
  8
CSLAYER1
  6
DASHED
 62
     5
 10
368.742283
 20
940.904575
 11
391.742283
 21
940.904575
  0
LINE
  8
CSLAYER1
  6
DASHED
 62
     5
 10
391.511938
 20
932.904575
 11
369.572628
 21
932.904575
  0
LINE
  8
CSLAYER1
  6
DASHED
 62
     5
 10
391.511938
 20
940.056069
 11
391.511938
 21
932.904575
  0
LINE
  8
CSLAYER1
  6
DASHED
 62
     5
 10
386.027111
 20
940.056069
 11
386.027111
 21
932.904575
  0
LINE
  8
CSLAYER1
  6
DASHED
 62
     5
 10
390.042283
 20
940.904575
 11
391.511938
 21
940.056069
  0
ARC
  8
CSLAYER1
  6
DASHED
 62
     5
 10
380.542283
 20
922.753081
 40
18.151494
 50
72.412046
 51
107.587954
  0
ARC
  8
CSLAYER1
  6
DASHED
 62
     5
 10
388.769524
 20
936.062183
 40
4.844787
 50
64.475551
 51
124.475551
  0
LINE
  8
CSLAYER1
  6
DASHED
 62
     5
 10
369.572628
 20
940.056069
 11
369.572628
 21
932.904575
  0
LINE
  8
CSLAYER1
  6
DASHED
 62
     5
 10
375.057456
 20
940.056069
 11
375.057456
 21
932.904575
  0
LINE
  8
CSLAYER1
  6
DASHED
 62
     5
 10
371.042283
 20
940.904575
 11
369.572628
 21
940.056069
  0
ARC
  8
CSLAYER1
  6
DASHED
 62
     5
 10
372.315042
 20
936.062183
 40
4.844787
 50
55.524449
 51
115.524449
  0
LINE
  8
CSLAYER1
  6
DASHED
 62
     5
 10
386.542283
 20
932.904575
 11
385.542283
 21
931.172524
  0
LINE
  8
CSLAYER1
  6
DASHED
 62
     5
 10
374.542283
 20
932.904575
 11
375.542283
 21
931.172524
  0
POINT
  8
CSLAYER1
 62
     5
 10
380.542283
 20
932.904575
  0
LINE
  8
CSLAYER1
  6
DASHED
 62
     5
 10
386.542283
 20
932.904575
 11
386.542283
 21
925.104575
  0
LINE
  8
CSLAYER1
  6
DASHED
 62
     5
 10
385.542283
 20
931.172524
 11
385.542283
 21
925.104575
  0
LINE
  8
CSLAYER1
  6
DASHED
 62
     5
 10
375.542283
 20
931.172524
 11
375.542283
 21
925.104575
  0
LINE
  8
CSLAYER1
  6
DASHED
 62
     5
 10
374.542283
 20
932.904575
 11
374.542283
 21
925.104575
  0
LINE
  8
CSLAYER1
  6
DASHED
 62
     5
 10
449.542283
 20
898.776483
 11
445.542283
 21
898.776483
  0
LINE
  8
CSLAYER1
  6
DASHED
 62
     5
 10
671.042283
 20
843.404575
 11
488.042283
 21
843.404575
  0
LINE
  8
CSLAYER1
  6
DASHED
 62
     5
 10
671.042283
 20
837.404575
 11
671.042283
 21
843.404575
  0
LINE
  8
CSLAYER1
  6
DASHED
 62
     5
 10
634.985445
 20
822.404575
 11
663.379032
 21
822.404575
  0
CIRCLE
  8
CSLAYER1
  6
DASHED
 62
     5
 10
649.542283
 20
822.404575
 40
11.500000
  0
LINE
  8
CSLAYER1
  6
DASHED
 62
     5
 10
649.042283
 20
835.394956
 11
638.542283
 21
829.332778
  0
LINE
  8
CSLAYER1
  6
DASHED
 62
     5
 10
638.042283
 20
828.466753
 11
638.042283
 21
816.342397
  0
LINE
  8
CSLAYER1
  6
DASHED
 62
     5
 10
638.542283
 20
815.476372
 11
649.042283
 21
809.414194
  0
ARC
  8
CSLAYER1
  6
DASHED
 62
     5
 10
649.542283
 20
822.404575
 40
13.000000
 50
87.795772
 51
92.204228
  0
ARC
  8
CSLAYER1
  6
DASHED
 62
     5
 10
649.542283
 20
822.404575
 40
13.000000
 50
267.795772
 51
272.204228
  0
ARC
  8
CSLAYER1
  6
DASHED
 62
     5
 10
649.542283
 20
822.404575
 40
13.000000
 50
207.795772
 51
212.204228
  0
ARC
  8
CSLAYER1
  6
DASHED
 62
     5
 10
649.542283
 20
822.404575
 40
13.000000
 50
147.795772
 51
152.204228
  0
CIRCLE
  8
CSLAYER1
  6
DASHED
 62
     5
 10
649.542283
 20
822.404575
 40
4.000000
  0
CIRCLE
  8
CSLAYER1
  6
DASHED
 62
     5
 10
649.542283
 20
822.404575
 40
10.359534
  0
CIRCLE
  8
CSLAYER1
  6
DASHED
 62
     5
 10
649.542283
 20
822.404575
 40
4.761355
  0
LINE
  8
CSLAYER1
  6
DASHED
 62
     5
 10
650.042283
 20
835.394956
 11
660.542283
 21
829.332778
  0
LINE
  8
CSLAYER1
  6
DASHED
 62
     5
 10
661.042283
 20
828.466753
 11
661.042283
 21
816.342397
  0
LINE
  8
CSLAYER1
  6
DASHED
 62
     5
 10
660.542283
 20
815.476372
 11
650.042283
 21
809.414194
  0
ARC
  8
CSLAYER1
  6
DASHED
 62
     5
 10
649.542283
 20
822.404575
 40
13.000000
 50
327.795772
 51
332.204228
  0
ARC
  8
CSLAYER1
  6
DASHED
 62
     5
 10
649.542283
 20
822.404575
 40
13.000000
 50
27.795772
 51
32.204228
  0
LINE
  8
CSLAYER1
  6
DASHED
 62
     5
 10
649.542283
 20
838.325440
 11
649.542283
 21
806.106811
  0
LINE
  8
CSLAYER1
  6
DASHED
 62
     5
 10
599.985445
 20
822.404575
 11
628.379032
 21
822.404575
  0
CIRCLE
  8
CSLAYER1
  6
DASHED
 62
     5
 10
614.542283
 20
822.404575
 40
11.500000
  0
LINE
  8
CSLAYER1
  6
DASHED
 62
     5
 10
614.042283
 20
835.394956
 11
603.542283
 21
829.332778
  0
LINE
  8
CSLAYER1
  6
DASHED
 62
     5
 10
603.042283
 20
828.466753
 11
603.042283
 21
816.342397
  0
LINE
  8
CSLAYER1
  6
DASHED
 62
     5
 10
603.542283
 20
815.476372
 11
614.042283
 21
809.414194
  0
ARC
  8
CSLAYER1
  6
DASHED
 62
     5
 10
614.542283
 20
822.404575
 40
13.000000
 50
87.795772
 51
92.204228
  0
ARC
  8
CSLAYER1
  6
DASHED
 62
     5
 10
614.542283
 20
822.404575
 40
13.000000
 50
267.795772
 51
272.204228
  0
ARC
  8
CSLAYER1
  6
DASHED
 62
     5
 10
614.542283
 20
822.404575
 40
13.000000
 50
207.795772
 51
212.204228
  0
ARC
  8
CSLAYER1
  6
DASHED
 62
     5
 10
614.542283
 20
822.404575
 40
13.000000
 50
147.795772
 51
152.204228
  0
CIRCLE
  8
CSLAYER1
  6
DASHED
 62
     5
 10
614.542283
 20
822.404575
 40
4.000000
  0
CIRCLE
  8
CSLAYER1
  6
DASHED
 62
     5
 10
614.542283
 20
822.404575
 40
10.359534
  0
CIRCLE
  8
CSLAYER1
  6
DASHED
 62
     5
 10
614.542283
 20
822.404575
 40
4.761355
  0
LINE
  8
CSLAYER1
  6
DASHED
 62
     5
 10
615.042283
 20
835.394956
 11
625.542283
 21
829.332778
  0
LINE
  8
CSLAYER1
  6
DASHED
 62
     5
 10
626.042283
 20
828.466753
 11
626.042283
 21
816.342397
  0
LINE
  8
CSLAYER1
  6
DASHED
 62
     5
 10
625.542283
 20
815.476372
 11
615.042283
 21
809.414194
  0
ARC
  8
CSLAYER1
  6
DASHED
 62
     5
 10
614.542283
 20
822.404575
 40
13.000000
 50
327.795772
 51
332.204228
  0
ARC
  8
CSLAYER1
  6
DASHED
 62
     5
 10
614.542283
 20
822.404575
 40
13.000000
 50
27.795772
 51
32.204228
  0
LINE
  8
CSLAYER1
  6
DASHED
 62
     5
 10
660.042283
 20
846.404575
 11
660.042283
 21
844.204575
  0
LINE
  8
CSLAYER1
  6
DASHED
 62
     5
 10
667.042283
 20
846.404575
 11
667.042283
 21
844.204575
  0
LINE
  8
CSLAYER1
  6
DASHED
 62
     5
 10
667.042283
 20
845.204575
 11
660.042283
 21
845.204575
  0
LINE
  8
CSLAYER1
  6
DASHED
 62
     5
 10
665.642283
 20
847.804575
 11
661.442283
 21
847.804575
  0
LINE
  8
CSLAYER1
  6
DASHED
 62
     5
 10
668.042283
 20
844.204575
 11
668.042283
 21
843.404575
  0
LINE
  8
CSLAYER1
  6
DASHED
 62
     5
 10
659.042283
 20
844.204575
 11
659.042283
 21
843.404575
  0
LINE
  8
CSLAYER1
  6
DASHED
 62
     5
 10
668.042283
 20
844.204575
 11
659.042283
 21
844.204575
  0
ARC
  8
CSLAYER1
  6
DASHED
 62
     5
 10
665.642283
 20
846.404575
 40
1.400000
 50
-0.000000
 51
90.000000
  0
ARC
  8
CSLAYER1
  6
DASHED
 62
     5
 10
661.442283
 20
846.404575
 40
1.400000
 50
90.000000
 51
180.000000
  0
LINE
  8
CSLAYER1
  6
DASHED
 62
     5
 10
664.582235
 20
844.204575
 11
662.197033
 21
845.204575
  0
LINE
  8
CSLAYER1
  6
DASHED
 62
     5
 10
663.542283
 20
849.632924
 11
663.542283
 21
834.434746
  0
LINE
  8
CSLAYER1
  6
DASHED
 62
     5
 10
614.542283
 20
838.325440
 11
614.542283
 21
806.106811
  0
LINE
  8
CSLAYER1
  6
DASHED
 62
     5
 10
671.042283
 20
837.404575
 11
488.042283
 21
837.404575
  0
LINE
  8
CSLAYER1
  6
DASHED
 62
     5
 10
488.042283
 20
837.404575
 11
488.042283
 21
843.404575
  0
LINE
  8
CSLAYER1
  6
DASHED
 62
     5
 10
499.042283
 20
846.404575
 11
499.042283
 21
844.204575
  0
LINE
  8
CSLAYER1
  6
DASHED
 62
     5
 10
492.042283
 20
846.404575
 11
492.042283
 21
844.204575
  0
LINE
  8
CSLAYER1
  6
DASHED
 62
     5
 10
492.042283
 20
845.204575
 11
499.042283
 21
845.204575
  0
LINE
  8
CSLAYER1
  6
DASHED
 62
     5
 10
493.442283
 20
847.804575
 11
497.642283
 21
847.804575
  0
LINE
  8
CSLAYER1
  6
DASHED
 62
     5
 10
491.042283
 20
844.204575
 11
491.042283
 21
843.404575
  0
LINE
  8
CSLAYER1
  6
DASHED
 62
     5
 10
500.042283
 20
844.204575
 11
500.042283
 21
843.404575
  0
LINE
  8
CSLAYER1
  6
DASHED
 62
     5
 10
491.042283
 20
844.204575
 11
500.042283
 21
844.204575
  0
ARC
  8
CSLAYER1
  6
DASHED
 62
     5
 10
493.442283
 20
846.404575
 40
1.400000
 50
90.000000
 51
180.000000
  0
ARC
  8
CSLAYER1
  6
DASHED
 62
     5
 10
497.642283
 20
846.404575
 40
1.400000
 50
0.000000
 51
90.000000
  0
LINE
  8
CSLAYER1
  6
DASHED
 62
     5
 10
494.502331
 20
844.204575
 11
496.887533
 21
845.204575
  0
LINE
  8
CSLAYER1
  6
DASHED
 62
     5
 10
495.542283
 20
849.632924
 11
495.542283
 21
834.434746
  0
LINE
  8
CSLAYER1
  6
DASHED
 62
     5
 10
773.473855
 20
864.323453
 11
714.542283
 21
864.323453
  0
LINE
  8
CSLAYER1
  6
DASHED
 62
     5
 10
770.542283
 20
869.323453
 11
726.386863
 21
869.323453
  0
LINE
  8
CSLAYER1
  6
DASHED
 62
     5
 10
770.542283
 20
859.323453
 11
728.042283
 21
859.323453
  0
LINE
  8
CSLAYER1
  6
DASHED
 62
     5
 10
773.473855
 20
825.610325
 11
714.542283
 21
825.610325
  0
LINE
  8
CSLAYER1
  6
DASHED
 62
     5
 10
714.542283
 20
821.610325
 11
714.542283
 21
829.610325
  0
LINE
  8
CSLAYER1
  6
DASHED
 62
     5
 10
770.542283
 20
830.610325
 11
715.542283
 21
830.610325
  0
LINE
  8
CSLAYER1
  6
DASHED
 62
     5
 10
770.542283
 20
820.610325
 11
715.542283
 21
820.610325
  0
LINE
  8
CSLAYER1
  6
DASHED
 62
     5
 10
715.542283
 20
820.610325
 11
715.542283
 21
830.610325
  0
LINE
  8
CSLAYER1
  6
DASHED
 62
     5
 10
714.542283
 20
821.610325
 11
715.542283
 21
820.610325
  0
LINE
  8
CSLAYER1
  6
DASHED
 62
     5
 10
714.542283
 20
829.610325
 11
715.542283
 21
830.610325
  0
LINE
  8
CSLAYER1
  6
DASHED
 62
     5
 10
717.042283
 20
877.025011
 11
718.542283
 21
877.025011
  0
LINE
  8
CSLAYER1
  6
DASHED
 62
     5
 10
728.542283
 20
810.332771
 11
728.542283
 21
820.610325
  0
LINE
  8
CSLAYER1
  6
DASHED
 62
     5
 10
712.542283
 20
794.104575
 11
712.542283
 21
846.800804
  0
LINE
  8
CSLAYER1
  6
DASHED
 62
     5
 10
728.542283
 20
810.332771
 11
712.542283
 21
810.332771
  0
LINE
  8
CSLAYER1
  6
DASHED
 62
     5
 10
728.542283
 20
846.800804
 11
709.542283
 21
846.800804
  0
LINE
  8
CSLAYER1
  6
DASHED
 62
     5
 10
729.542283
 20
812.884731
 11
729.542283
 21
820.484731
  0
LINE
  8
CSLAYER1
  6
DASHED
 62
     5
 10
729.542283
 20
812.884731
 11
728.542283
 21
812.884731
  0
LINE
  8
CSLAYER1
  6
DASHED
 62
     5
 10
729.542283
 20
820.484731
 11
728.542283
 21
820.484731
  0
LINE
  8
CSLAYER1
  6
DASHED
 62
     5
 10
732.142283
 20
815.184731
 11
732.142283
 21
818.184731
  0
LINE
  8
CSLAYER1
  6
DASHED
 62
     5
 10
730.142283
 20
813.184731
 11
729.542283
 21
813.184731
  0
LINE
  8
CSLAYER1
  6
DASHED
 62
     5
 10
730.142283
 20
820.184731
 11
729.542283
 21
820.184731
  0
ARC
  8
CSLAYER1
  6
DASHED
 62
     5
 10
730.142283
 20
815.184731
 40
2.000000
 50
270.000000
 51
360.000000
  0
ARC
  8
CSLAYER1
  6
DASHED
 62
     5
 10
730.142283
 20
818.184731
 40
2.000000
 50
0.000000
 51
90.000000
  0
LINE
  8
CSLAYER1
  6
DASHED
 62
     5
 10
729.542283
 20
834.472936
 11
729.542283
 21
842.072936
  0
LINE
  8
CSLAYER1
  6
DASHED
 62
     5
 10
729.542283
 20
834.472936
 11
728.542283
 21
834.472936
  0
LINE
  8
CSLAYER1
  6
DASHED
 62
     5
 10
729.542283
 20
842.072936
 11
728.542283
 21
842.072936
  0
LINE
  8
CSLAYER1
  6
DASHED
 62
     5
 10
732.142283
 20
836.772936
 11
732.142283
 21
839.772936
  0
LINE
  8
CSLAYER1
  6
DASHED
 62
     5
 10
730.142283
 20
834.772936
 11
729.542283
 21
834.772936
  0
LINE
  8
CSLAYER1
  6
DASHED
 62
     5
 10
730.142283
 20
841.772936
 11
729.542283
 21
841.772936
  0
ARC
  8
CSLAYER1
  6
DASHED
 62
     5
 10
730.142283
 20
836.772936
 40
2.000000
 50
270.000000
 51
360.000000
  0
ARC
  8
CSLAYER1
  6
DASHED
 62
     5
 10
730.142283
 20
839.772936
 40
2.000000
 50
0.000000
 51
90.000000
  0
LINE
  8
CSLAYER1
  6
DASHED
 62
     5
 10
702.152308
 20
805.104575
 11
717.313984
 21
805.104575
  0
LINE
  8
CSLAYER1
  6
DASHED
 62
     5
 10
732.542283
 20
869.323453
 11
732.542283
 21
898.776483
  0
LINE
  8
CSLAYER1
  6
DASHED
 62
     5
 10
728.142283
 20
869.323453
 11
728.142283
 21
898.776483
  0
LINE
  8
CSLAYER1
  6
DASHED
 62
     5
 10
724.042283
 20
872.104158
 11
724.042283
 21
877.025011
  0
LINE
  8
CSLAYER1
  6
DASHED
 62
     5
 10
717.042283
 20
872.104158
 11
717.042283
 21
877.025011
  0
LINE
  8
CSLAYER1
  6
DASHED
 62
     5
 10
715.555580
 20
872.104158
 11
725.528986
 21
872.104158
  0
LINE
  8
CSLAYER1
  6
DASHED
 62
     5
 10
713.042283
 20
863.957608
 11
713.042283
 21
847.604158
  0
LINE
  8
CSLAYER1
  6
DASHED
 62
     5
 10
728.042283
 20
863.957608
 11
728.042283
 21
847.604158
  0
LINE
  8
CSLAYER1
  6
DASHED
 62
     5
 10
725.528986
 20
872.104158
 11
728.042283
 21
863.957608
  0
LINE
  8
CSLAYER1
  6
DASHED
 62
     5
 10
715.555580
 20
872.104158
 11
713.042283
 21
863.957608
  0
LINE
  8
CSLAYER1
  6
DASHED
 62
     5
 10
722.542283
 20
883.866502
 11
722.542283
 21
872.104158
  0
LINE
  8
CSLAYER1
  6
DASHED
 62
     5
 10
718.542283
 20
883.866502
 11
718.542283
 21
872.104158
  0
LINE
  8
CSLAYER1
  6
DASHED
 62
     5
 10
722.542283
 20
877.025011
 11
724.042283
 21
877.025011
  0
LINE
  8
CSLAYER1
  6
DASHED
 62
     5
 10
728.542283
 20
830.610325
 11
728.542283
 21
846.800804
  0
LINE
  8
CSLAYER1
  6
DASHED
 62
     5
 10
674.542283
 20
811.904575
 11
674.542283
 21
815.104575
  0
LINE
  8
CSLAYER1
  6
DASHED
 62
     5
 10
674.542283
 20
815.104575
 11
709.542283
 21
815.104575
  0
LINE
  8
CSLAYER1
  6
DASHED
 62
     5
 10
674.542283
 20
811.904575
 11
706.342283
 21
811.904575
  0
LINE
  8
CSLAYER1
  6
DASHED
 62
     5
 10
682.542283
 20
849.641392
 11
676.382522
 21
849.641392
  0
LINE
  8
CSLAYER1
  6
DASHED
 62
     5
 10
698.042283
 20
843.104575
 11
681.042283
 21
843.104575
  0
LINE
  8
CSLAYER1
  6
DASHED
 62
     5
 10
698.992283
 20
805.104575
 11
680.092283
 21
805.104575
  0
LINE
  8
CSLAYER1
  6
DASHED
 62
     5
 10
699.992283
 20
806.104575
 11
698.992283
 21
805.104575
  0
LINE
  8
CSLAYER1
  6
DASHED
 62
     5
 10
703.879377
 20
811.904575
 11
703.879377
 21
807.491309
  0
LINE
  8
CSLAYER1
  6
DASHED
 62
     5
 10
703.879377
 20
807.491309
 11
675.205189
 21
807.491309
  0
LINE
  8
CSLAYER1
  6
DASHED
 62
     5
 10
699.992283
 20
807.491309
 11
699.992283
 21
806.104575
  0
LINE
  8
CSLAYER1
  6
DASHED
 62
     5
 10
698.992283
 20
807.491309
 11
698.992283
 21
805.104575
  0
LINE
  8
CSLAYER1
  6
DASHED
 62
     5
 10
698.587875
 20
811.904575
 11
698.587875
 21
807.491309
  0
LINE
  8
CSLAYER1
  6
DASHED
 62
     5
 10
694.833786
 20
811.904575
 11
694.833786
 21
807.491309
  0
LINE
  8
CSLAYER1
  6
DASHED
 62
     5
 10
701.042283
 20
820.104575
 11
678.042283
 21
820.104575
  0
LINE
  8
CSLAYER1
  6
DASHED
 62
     5
 10
702.542283
 20
839.995480
 11
676.542283
 21
839.995480
  0
LINE
  8
CSLAYER1
  6
DASHED
 62
     5
 10
702.542283
 20
823.646666
 11
676.542283
 21
823.646666
  0
ARC
  8
CSLAYER1
  6
DASHED
 62
     5
 10
698.042283
 20
840.104575
 40
3.000000
 50
0.000000
 51
90.000000
  0
LINE
  8
CSLAYER1
  6
DASHED
 62
     5
 10
701.042283
 20
820.104575
 11
702.532664
 21
819.244103
  0
ARC
  8
CSLAYER1
  6
DASHED
 62
     5
 10
689.542283
 20
794.058550
 40
26.046025
 50
75.231439
 51
104.768561
  0
ARC
  8
CSLAYER1
  6
DASHED
 62
     5
 10
699.357238
 20
813.972982
 40
6.153702
 50
66.825356
 51
121.065581
  0
LINE
  8
CSLAYER1
  6
DASHED
 62
     5
 10
696.181811
 20
819.244103
 11
696.181811
 21
815.104575
  0
LINE
  8
CSLAYER1
  6
DASHED
 62
     5
 10
702.532664
 20
819.244103
 11
702.532664
 21
815.104575
  0
LINE
  8
CSLAYER1
  6
DASHED
 62
     5
 10
699.878407
 20
823.646666
 11
699.878407
 21
820.104575
  0
LINE
  8
CSLAYER1
  6
DASHED
 62
     5
 10
699.232030
 20
823.646666
 11
699.232030
 21
822.040305
  0
LINE
  8
CSLAYER1
  6
DASHED
 62
     5
 10
699.878407
 20
822.040305
 11
679.206159
 21
822.040305
  0
LINE
  8
CSLAYER1
  6
DASHED
 62
     5
 10
699.232030
 20
822.040305
 11
699.878407
 21
820.905453
  0
LINE
  8
CSLAYER1
  6
DASHED
 62
     5
 10
699.992283
 20
806.152377
 11
679.092283
 21
806.152377
  0
LINE
  8
CSLAYER1
  6
DASHED
 62
     5
 10
679.092283
 20
806.104575
 11
680.092283
 21
805.104575
  0
LINE
  8
CSLAYER1
  6
DASHED
 62
     5
 10
675.205189
 20
811.904575
 11
675.205189
 21
807.491309
  0
LINE
  8
CSLAYER1
  6
DASHED
 62
     5
 10
679.092283
 20
807.491309
 11
679.092283
 21
806.104575
  0
LINE
  8
CSLAYER1
  6
DASHED
 62
     5
 10
680.092283
 20
807.491309
 11
680.092283
 21
805.104575
  0
LINE
  8
CSLAYER1
  6
DASHED
 62
     5
 10
680.496691
 20
811.904575
 11
680.496691
 21
807.491309
  0
LINE
  8
CSLAYER1
  6
DASHED
 62
     5
 10
684.250780
 20
811.904575
 11
684.250780
 21
807.491309
  0
LINE
  8
CSLAYER1
  6
DASHED
 62
     5
 10
678.042283
 20
820.104575
 11
676.551902
 21
819.244103
  0
ARC
  8
CSLAYER1
  6
DASHED
 62
     5
 10
679.727328
 20
813.972982
 40
6.153702
 50
58.934419
 51
113.174644
  0
LINE
  8
CSLAYER1
  6
DASHED
 62
     5
 10
682.902755
 20
819.244103
 11
682.902755
 21
815.104575
  0
LINE
  8
CSLAYER1
  6
DASHED
 62
     5
 10
676.551902
 20
819.244103
 11
676.551902
 21
815.104575
  0
LINE
  8
CSLAYER1
  6
DASHED
 62
     5
 10
679.206159
 20
823.646666
 11
679.206159
 21
820.104575
  0
LINE
  8
CSLAYER1
  6
DASHED
 62
     5
 10
679.852537
 20
823.646666
 11
679.852537
 21
822.040305
  0
LINE
  8
CSLAYER1
  6
DASHED
 62
     5
 10
679.852537
 20
822.040305
 11
679.206159
 21
820.905453
  0
LINE
  8
CSLAYER1
  6
DASHED
 62
     5
 10
704.380309
 20
838.934296
 11
704.380309
 21
824.707851
  0
LINE
  8
CSLAYER1
  6
DASHED
 62
     5
 10
697.047837
 20
838.934296
 11
697.047837
 21
824.707851
  0
LINE
  8
CSLAYER1
  6
DASHED
 62
     5
 10
702.542283
 20
839.995480
 11
704.380309
 21
838.934296
  0
ARC
  8
CSLAYER1
  6
DASHED
 62
     5
 10
700.714073
 20
833.133889
 40
6.861924
 50
62.295563
 51
121.731450
  0
ARC
  8
CSLAYER1
  6
DASHED
 62
     5
 10
689.542283
 20
812.922226
 40
27.073254
 50
73.904971
 51
106.095029
  0
LINE
  8
CSLAYER1
  6
DASHED
 62
     5
 10
702.542283
 20
823.646666
 11
704.380309
 21
824.707851
  0
ARC
  8
CSLAYER1
  6
DASHED
 62
     5
 10
700.714073
 20
830.508257
 40
6.861924
 50
238.268550
 51
297.704437
  0
ARC
  8
CSLAYER1
  6
DASHED
 62
     5
 10
689.542283
 20
850.719920
 40
27.073254
 50
253.904971
 51
286.095029
  0
LINE
  8
CSLAYER1
  6
DASHED
 62
     5
 10
674.704257
 20
838.934296
 11
674.704257
 21
824.707851
  0
LINE
  8
CSLAYER1
  6
DASHED
 62
     5
 10
682.036730
 20
838.934296
 11
682.036730
 21
824.707851
  0
LINE
  8
CSLAYER1
  6
DASHED
 62
     5
 10
676.542283
 20
839.995480
 11
674.704257
 21
838.934296
  0
ARC
  8
CSLAYER1
  6
DASHED
 62
     5
 10
678.370493
 20
833.133889
 40
6.861924
 50
58.268550
 51
117.704437
  0
LINE
  8
CSLAYER1
  6
DASHED
 62
     5
 10
676.542283
 20
823.646666
 11
674.704257
 21
824.707851
  0
ARC
  8
CSLAYER1
  6
DASHED
 62
     5
 10
678.370493
 20
830.508257
 40
6.861924
 50
242.295563
 51
301.731450
  0
ARC
  8
CSLAYER1
  6
DASHED
 62
     5
 10
681.042283
 20
840.104575
 40
3.000000
 50
90.000000
 51
180.000000
  0
LINE
  8
CSLAYER1
  6
DASHED
 62
     5
 10
696.542283
 20
893.553711
 11
696.542283
 21
843.104575
  0
LINE
  8
CSLAYER1
  6
DASHED
 62
     5
 10
682.542283
 20
891.785399
 11
682.542283
 21
843.104575
  0
LINE
  8
CSLAYER1
  6
DASHED
 62
     5
 10
449.542283
 20
840.612553
 11
458.542283
 21
840.612553
  0
LINE
  8
CSLAYER1
  6
DASHED
 62
     5
 10
770.542283
 20
840.612553
 11
779.542283
 21
840.612553
  0
LINE
  8
CSLAYER1
  6
DASHED
 62
     5
 10
370.542283
 20
794.104575
 11
370.542283
 21
915.104575
  0
LINE
  8
CSLAYER1
  6
DASHED
 62
     5
 10
390.542283
 20
794.104575
 11
390.542283
 21
915.104575
  0
LINE
  8
CSLAYER1
  6
DASHED
 62
     5
 10
838.542283
 20
794.104575
 11
838.542283
 21
915.104575
  0
LINE
  8
CSLAYER1
  6
DASHED
 62
     5
 10
858.542283
 20
794.104575
 11
858.542283
 21
915.104575
  0
LINE
  8
CSLAYER1
  6
DASHED
 62
     5
 10
436.542283
 20
794.104575
 11
436.542283
 21
949.104575
  0
LINE
  8
CSLAYER1
  6
DASHED
 62
     5
 10
458.542283
 20
794.104575
 11
458.542283
 21
949.104575
  0
LINE
  8
CSLAYER1
  6
DASHED
 62
     5
 10
449.542283
 20
794.104575
 11
449.542283
 21
949.104575
  0
LINE
  8
CSLAYER1
  6
DASHED
 62
     5
 10
445.542283
 20
794.104575
 11
445.542283
 21
949.104575
  0
LINE
  8
CSLAYER1
  6
DASHED
 62
     5
 10
770.542283
 20
794.104575
 11
770.542283
 21
949.104575
  0
LINE
  8
CSLAYER1
  6
DASHED
 62
     5
 10
779.542283
 20
794.104575
 11
779.542283
 21
949.104575
  0
LINE
  8
CSLAYER1
  6
DASHED
 62
     5
 10
783.542283
 20
794.104575
 11
783.542283
 21
949.104575
  0
LINE
  8
CSLAYER1
  6
DASHED
 62
     5
 10
792.542283
 20
794.104575
 11
792.542283
 21
949.104575
  0
LINE
  8
CSLAYER1
  6
DASHED
 62
     5
 10
489.542283
 20
837.404575
 11
489.542283
 21
794.104575
  0
LINE
  8
CSLAYER1
  6
DASHED
 62
     5
 10
669.542283
 20
837.404575
 11
669.542283
 21
794.104575
  0
LINE
  8
CSLAYER1
  6
DASHED
 62
     5
 10
682.542283
 20
805.104575
 11
682.542283
 21
794.104575
  0
LINE
  8
CSLAYER1
  6
DASHED
 62
     5
 10
696.542283
 20
805.104575
 11
696.542283
 21
794.104575
  0
LINE
  8
CSLAYER1
  6
DASHED
 62
     5
 10
706.342283
 20
794.104575
 11
706.342283
 21
811.904575
  0
LINE
  8
CSLAYER1
  6
DASHED
 62
     5
 10
709.542283
 20
794.104575
 11
709.542283
 21
846.800804
  0
LINE
  8
CSLAYER1
  6
CONTINUOUS
 62
     3
 10
289.542283
 20
994.104575
 11
939.542283
 21
994.104575
  0
LINE
  8
CSLAYER1
  6
CONTINUOUS
 62
     3
 10
289.542283
 20
949.104575
 11
939.542283
 21
949.104575
  0
LINE
  8
CSLAYER1
  6
CONTINUOUS
 62
     3
 10
289.542283
 20
949.104575
 11
289.542283
 21
994.104575
  0
LINE
  8
CSLAYER1
  6
CONTINUOUS
 62
     3
 10
939.542283
 20
949.104575
 11
939.542283
 21
994.104575
  0
LINE
  8
CSLAYER1
  6
DASHED
 62
     5
 10
367.742283
 20
941.904575
 11
392.742283
 21
941.904575
  0
LINE
  8
CSLAYER1
  6
DASHED
 62
     5
 10
368.742283
 20
940.904575
 11
367.742283
 21
941.904575
  0
LINE
  8
CSLAYER1
  6
DASHED
 62
     5
 10
391.742283
 20
940.904575
 11
392.742283
 21
941.904575
  0
LINE
  8
CSLAYER1
  6
DASHED
 62
     5
 10
392.742283
 20
949.104575
 11
392.742283
 21
941.904575
  0
LINE
  8
CSLAYER1
  6
DASHED
 62
     5
 10
367.742283
 20
949.104575
 11
367.742283
 21
941.904575
  0
LINE
  8
CSLAYER1
  6
DASHED
 62
     5
 10
380.242283
 20
940.904575
 11
380.242283
 21
949.104575
  0
LINE
  8
CSLAYER1
  6
DASHED
 62
     5
 10
861.342283
 20
941.904575
 11
836.342283
 21
941.904575
  0
LINE
  8
CSLAYER1
  6
DASHED
 62
     5
 10
860.342283
 20
940.904575
 11
861.342283
 21
941.904575
  0
LINE
  8
CSLAYER1
  6
DASHED
 62
     5
 10
837.342283
 20
940.904575
 11
836.342283
 21
941.904575
  0
LINE
  8
CSLAYER1
  6
DASHED
 62
     5
 10
836.342283
 20
949.104575
 11
836.342283
 21
941.904575
  0
LINE
  8
CSLAYER1
  6
DASHED
 62
     5
 10
861.342283
 20
949.104575
 11
861.342283
 21
941.904575
  0
LINE
  8
CSLAYER1
  6
DASHED
 62
     5
 10
848.842283
 20
940.904575
 11
848.842283
 21
949.104575
  0
LINE
  8
CSLAYER1
  6
DASHED
 62
     5
 10
458.542283
 20
933.174091
 11
770.542283
 21
933.174091
  0
LINE
  8
CSLAYER1
  6
DASHED
 62
     5
 10
833.542283
 20
949.104575
 11
833.542283
 21
940.904575
  0
LINE
  8
CSLAYER1
  6
DASHED
 62
     5
 10
821.542283
 20
949.104575
 11
821.542283
 21
940.904575
  0
LINE
  8
CSLAYER1
  6
DASHED
 62
     5
 10
822.042283
 20
940.404575
 11
833.042283
 21
940.404575
  0
LINE
  8
CSLAYER1
  6
DASHED
 62
     5
 10
834.042283
 20
940.404575
 11
845.042283
 21
940.404575
  0
ARC
  8
CSLAYER1
  6
DASHED
 62
     5
 10
833.042283
 20
940.904575
 40
0.500000
 50
270.000000
 51
360.000000
  0
ARC
  8
CSLAYER1
  6
DASHED
 62
     5
 10
822.042283
 20
940.904575
 40
0.500000
 50
180.000000
 51
270.000000
  0
ARC
  8
CSLAYER1
  6
DASHED
 62
     5
 10
845.042283
 20
940.904575
 40
0.500000
 50
270.000000
 51
360.000000
  0
ARC
  8
CSLAYER1
  6
DASHED
 62
     5
 10
834.042283
 20
940.904575
 40
0.500000
 50
180.000000
 51
270.000000
  0
LINE
  8
CSLAYER1
  6
DASHED
 62
     5
 10
395.542283
 20
949.104575
 11
395.542283
 21
940.904575
  0
LINE
  8
CSLAYER1
  6
DASHED
 62
     5
 10
407.542283
 20
949.104575
 11
407.542283
 21
940.904575
  0
LINE
  8
CSLAYER1
  6
DASHED
 62
     5
 10
407.042283
 20
940.404575
 11
396.042283
 21
940.404575
  0
ARC
  8
CSLAYER1
  6
DASHED
 62
     5
 10
396.042283
 20
940.904575
 40
0.500000
 50
180.000000
 51
270.000000
  0
ARC
  8
CSLAYER1
  6
DASHED
 62
     5
 10
407.042283
 20
940.904575
 40
0.500000
 50
270.000000
 51
360.000000
  0
ARC
  8
CSLAYER1
  6
DASHED
 62
     5
 10
395.042283
 20
940.904575
 40
0.500000
 50
270.000000
 51
360.000000
  0
LINE
  8
CSLAYER1
  6
DASHED
 62
     5
 10
395.042283
 20
940.404575
 11
384.042283
 21
940.404575
  0
ARC
  8
CSLAYER1
  6
DASHED
 62
     5
 10
384.042283
 20
940.904575
 40
0.500000
 50
180.000000
 51
270.000000
  0
LINE
  8
CSLAYER1
  6
CONTINUOUS
 62
     3
 10
299.542283
 20
949.104575
 11
349.542283
 21
945.070094
  0
LINE
  8
CSLAYER1
  6
CONTINUOUS
 62
     3
 10
299.542283
 20
941.035613
 11
349.542283
 21
945.070094
  0
LINE
  8
CSLAYER1
  6
CONTINUOUS
 62
     3
 10
299.542283
 20
941.035613
 11
349.542283
 21
937.001132
  0
LINE
  8
CSLAYER1
  6
CONTINUOUS
 62
     3
 10
299.542283
 20
932.966651
 11
349.542283
 21
937.001132
  0
LINE
  8
CSLAYER1
  6
CONTINUOUS
 62
     3
 10
299.542283
 20
932.966651
 11
349.542283
 21
928.932170
  0
LINE
  8
CSLAYER1
  6
CONTINUOUS
 62
     3
 10
299.542283
 20
924.897689
 11
349.542283
 21
928.932170
  0
LINE
  8
CSLAYER1
  6
CONTINUOUS
 62
     3
 10
299.542283
 20
924.897689
 11
349.542283
 21
920.863208
  0
LINE
  8
CSLAYER1
  6
CONTINUOUS
 62
     3
 10
299.542283
 20
916.828727
 11
349.542283
 21
920.863208
  0
LINE
  8
CSLAYER1
  6
CONTINUOUS
 62
     3
 10
299.542283
 20
916.828727
 11
349.542283
 21
912.794246
  0
LINE
  8
CSLAYER1
  6
CONTINUOUS
 62
     3
 10
299.542283
 20
908.759765
 11
349.542283
 21
912.794246
  0
LINE
  8
CSLAYER1
  6
CONTINUOUS
 62
     3
 10
299.542283
 20
908.759765
 11
349.542283
 21
904.725285
  0
LINE
  8
CSLAYER1
  6
CONTINUOUS
 62
     3
 10
299.542283
 20
900.690804
 11
349.542283
 21
904.725285
  0
LINE
  8
CSLAYER1
  6
CONTINUOUS
 62
     3
 10
299.542283
 20
900.690804
 11
349.542283
 21
896.656323
  0
LINE
  8
CSLAYER1
  6
CONTINUOUS
 62
     3
 10
299.542283
 20
892.621842
 11
349.542283
 21
896.656323
  0
LINE
  8
CSLAYER1
  6
CONTINUOUS
 62
     3
 10
299.542283
 20
892.621842
 11
349.542283
 21
888.587361
  0
LINE
  8
CSLAYER1
  6
CONTINUOUS
 62
     3
 10
299.542283
 20
884.552880
 11
349.542283
 21
888.587361
  0
LINE
  8
CSLAYER1
  6
CONTINUOUS
 62
     3
 10
299.542283
 20
884.552880
 11
349.542283
 21
880.518399
  0
LINE
  8
CSLAYER1
  6
CONTINUOUS
 62
     3
 10
299.542283
 20
876.483918
 11
349.542283
 21
880.518399
  0
LINE
  8
CSLAYER1
  6
CONTINUOUS
 62
     3
 10
299.542283
 20
876.483918
 11
349.542283
 21
872.449437
  0
LINE
  8
CSLAYER1
  6
CONTINUOUS
 62
     3
 10
299.542283
 20
868.414956
 11
349.542283
 21
872.449437
  0
LINE
  8
CSLAYER1
  6
CONTINUOUS
 62
     3
 10
299.542283
 20
868.414956
 11
349.542283
 21
864.380475
  0
LINE
  8
CSLAYER1
  6
CONTINUOUS
 62
     3
 10
299.542283
 20
860.345994
 11
349.542283
 21
864.380475
  0
LINE
  8
CSLAYER1
  6
CONTINUOUS
 62
     3
 10
299.542283
 20
860.345994
 11
349.542283
 21
856.311513
  0
LINE
  8
CSLAYER1
  6
CONTINUOUS
 62
     3
 10
299.542283
 20
852.277032
 11
349.542283
 21
856.311513
  0
LINE
  8
CSLAYER1
  6
CONTINUOUS
 62
     3
 10
299.542283
 20
852.277032
 11
349.542283
 21
848.242551
  0
LINE
  8
CSLAYER1
  6
CONTINUOUS
 62
     3
 10
299.542283
 20
844.208070
 11
349.542283
 21
848.242551
  0
LINE
  8
CSLAYER1
  6
CONTINUOUS
 62
     3
 10
299.542283
 20
844.208070
 11
349.542283
 21
840.173589
  0
LINE
  8
CSLAYER1
  6
CONTINUOUS
 62
     3
 10
299.542283
 20
836.139108
 11
349.542283
 21
840.173589
  0
LINE
  8
CSLAYER1
  6
CONTINUOUS
 62
     3
 10
299.542283
 20
836.139108
 11
349.542283
 21
832.104627
  0
LINE
  8
CSLAYER1
  6
CONTINUOUS
 62
     3
 10
299.542283
 20
828.070146
 11
349.542283
 21
832.104627
  0
LINE
  8
CSLAYER1
  6
CONTINUOUS
 62
     3
 10
299.542283
 20
828.070146
 11
349.542283
 21
824.035665
  0
LINE
  8
CSLAYER1
  6
CONTINUOUS
 62
     3
 10
299.542283
 20
820.001185
 11
349.542283
 21
824.035665
  0
LINE
  8
CSLAYER1
  6
CONTINUOUS
 62
     3
 10
299.542283
 20
820.001185
 11
349.542283
 21
815.966704
  0
LINE
  8
CSLAYER1
  6
CONTINUOUS
 62
     3
 10
299.542283
 20
811.932223
 11
349.542283
 21
815.966704
  0
LINE
  8
CSLAYER1
  6
CONTINUOUS
 62
     3
 10
299.542283
 20
811.932223
 11
349.542283
 21
807.897742
  0
LINE
  8
CSLAYER1
  6
CONTINUOUS
 62
     3
 10
299.542283
 20
803.863261
 11
349.542283
 21
807.897742
  0
LINE
  8
CSLAYER1
  6
CONTINUOUS
 62
     3
 10
299.542283
 20
803.863261
 11
349.542283
 21
799.828780
  0
LINE
  8
CSLAYER1
  6
CONTINUOUS
 62
     3
 10
299.542283
 20
795.794299
 11
349.542283
 21
799.828780
  0
LINE
  8
CSLAYER1
  6
CONTINUOUS
 62
     3
 10
299.542283
 20
795.794299
 11
349.542283
 21
794.104575
  0
LINE
  8
CSLAYER1
  6
CONTINUOUS
 62
     4
 10
349.542283
 20
945.070094
 11
879.542283
 21
945.070094
  0
LINE
  8
CSLAYER1
  6
CONTINUOUS
 62
     4
 10
299.542283
 20
941.035613
 11
929.542283
 21
941.035613
  0
LINE
  8
CSLAYER1
  6
CONTINUOUS
 62
     4
 10
349.542283
 20
937.001132
 11
879.542283
 21
937.001132
  0
LINE
  8
CSLAYER1
  6
CONTINUOUS
 62
     4
 10
299.542283
 20
932.966651
 11
929.542283
 21
932.966651
  0
LINE
  8
CSLAYER1
  6
CONTINUOUS
 62
     4
 10
349.542283
 20
928.932170
 11
879.542283
 21
928.932170
  0
LINE
  8
CSLAYER1
  6
CONTINUOUS
 62
     4
 10
299.542283
 20
924.897689
 11
929.542283
 21
924.897689
  0
LINE
  8
CSLAYER1
  6
CONTINUOUS
 62
     4
 10
349.542283
 20
920.863208
 11
879.542283
 21
920.863208
  0
LINE
  8
CSLAYER1
  6
CONTINUOUS
 62
     4
 10
299.542283
 20
916.828727
 11
929.542283
 21
916.828727
  0
LINE
  8
CSLAYER1
  6
CONTINUOUS
 62
     4
 10
349.542283
 20
912.794246
 11
879.542283
 21
912.794246
  0
LINE
  8
CSLAYER1
  6
CONTINUOUS
 62
     4
 10
299.542283
 20
908.759765
 11
929.542283
 21
908.759765
  0
LINE
  8
CSLAYER1
  6
CONTINUOUS
 62
     4
 10
349.542283
 20
904.725285
 11
879.542283
 21
904.725285
  0
LINE
  8
CSLAYER1
  6
CONTINUOUS
 62
     4
 10
299.542283
 20
900.690804
 11
929.542283
 21
900.690804
  0
LINE
  8
CSLAYER1
  6
CONTINUOUS
 62
     4
 10
349.542283
 20
896.656323
 11
879.542283
 21
896.656323
  0
LINE
  8
CSLAYER1
  6
CONTINUOUS
 62
     4
 10
299.542283
 20
892.621842
 11
929.542283
 21
892.621842
  0
LINE
  8
CSLAYER1
  6
CONTINUOUS
 62
     4
 10
349.542283
 20
888.587361
 11
879.542283
 21
888.587361
  0
LINE
  8
CSLAYER1
  6
CONTINUOUS
 62
     4
 10
299.542283
 20
884.552880
 11
929.542283
 21
884.552880
  0
LINE
  8
CSLAYER1
  6
CONTINUOUS
 62
     4
 10
349.542283
 20
880.518399
 11
879.542283
 21
880.518399
  0
LINE
  8
CSLAYER1
  6
CONTINUOUS
 62
     4
 10
299.542283
 20
876.483918
 11
929.542283
 21
876.483918
  0
LINE
  8
CSLAYER1
  6
CONTINUOUS
 62
     4
 10
349.542283
 20
872.449437
 11
879.542283
 21
872.449437
  0
LINE
  8
CSLAYER1
  6
CONTINUOUS
 62
     4
 10
299.542283
 20
868.414956
 11
929.542283
 21
868.414956
  0
LINE
  8
CSLAYER1
  6
CONTINUOUS
 62
     4
 10
349.542283
 20
864.380475
 11
879.542283
 21
864.380475
  0
LINE
  8
CSLAYER1
  6
CONTINUOUS
 62
     4
 10
299.542283
 20
860.345994
 11
929.542283
 21
860.345994
  0
LINE
  8
CSLAYER1
  6
CONTINUOUS
 62
     4
 10
349.542283
 20
856.311513
 11
879.542283
 21
856.311513
  0
LINE
  8
CSLAYER1
  6
CONTINUOUS
 62
     4
 10
299.542283
 20
852.277032
 11
929.542283
 21
852.277032
  0
LINE
  8
CSLAYER1
  6
CONTINUOUS
 62
     4
 10
349.542283
 20
848.242551
 11
879.542283
 21
848.242551
  0
LINE
  8
CSLAYER1
  6
CONTINUOUS
 62
     4
 10
299.542283
 20
844.208070
 11
929.542283
 21
844.208070
  0
LINE
  8
CSLAYER1
  6
CONTINUOUS
 62
     4
 10
349.542283
 20
840.173589
 11
879.542283
 21
840.173589
  0
LINE
  8
CSLAYER1
  6
CONTINUOUS
 62
     4
 10
299.542283
 20
836.139108
 11
929.542283
 21
836.139108
  0
LINE
  8
CSLAYER1
  6
CONTINUOUS
 62
     4
 10
349.542283
 20
832.104627
 11
879.542283
 21
832.104627
  0
LINE
  8
CSLAYER1
  6
CONTINUOUS
 62
     4
 10
299.542283
 20
828.070146
 11
929.542283
 21
828.070146
  0
LINE
  8
CSLAYER1
  6
CONTINUOUS
 62
     4
 10
349.542283
 20
824.035665
 11
879.542283
 21
824.035665
  0
LINE
  8
CSLAYER1
  6
CONTINUOUS
 62
     4
 10
299.542283
 20
820.001185
 11
929.542283
 21
820.001185
  0
LINE
  8
CSLAYER1
  6
CONTINUOUS
 62
     4
 10
349.542283
 20
815.966704
 11
879.542283
 21
815.966704
  0
LINE
  8
CSLAYER1
  6
CONTINUOUS
 62
     4
 10
299.542283
 20
811.932223
 11
929.542283
 21
811.932223
  0
LINE
  8
CSLAYER1
  6
CONTINUOUS
 62
     4
 10
349.542283
 20
807.897742
 11
879.542283
 21
807.897742
  0
LINE
  8
CSLAYER1
  6
CONTINUOUS
 62
     4
 10
299.542283
 20
803.863261
 11
929.542283
 21
803.863261
  0
LINE
  8
CSLAYER1
  6
CONTINUOUS
 62
     4
 10
349.542283
 20
799.828780
 11
879.542283
 21
799.828780
  0
LINE
  8
CSLAYER1
  6
CONTINUOUS
 62
     4
 10
299.542283
 20
795.794299
 11
614.542283
 21
795.794299
  0
LINE
  8
CSLAYER1
  6
CONTINUOUS
 62
     3
 10
929.542283
 20
949.104575
 11
879.542283
 21
945.070094
  0
LINE
  8
CSLAYER1
  6
CONTINUOUS
 62
     3
 10
929.542283
 20
941.035613
 11
879.542283
 21
945.070094
  0
LINE
  8
CSLAYER1
  6
CONTINUOUS
 62
     3
 10
929.542283
 20
941.035613
 11
879.542283
 21
937.001132
  0
LINE
  8
CSLAYER1
  6
CONTINUOUS
 62
     3
 10
929.542283
 20
932.966651
 11
879.542283
 21
937.001132
  0
LINE
  8
CSLAYER1
  6
CONTINUOUS
 62
     3
 10
929.542283
 20
932.966651
 11
879.542283
 21
928.932170
  0
LINE
  8
CSLAYER1
  6
CONTINUOUS
 62
     3
 10
929.542283
 20
924.897689
 11
879.542283
 21
928.932170
  0
LINE
  8
CSLAYER1
  6
CONTINUOUS
 62
     3
 10
929.542283
 20
924.897689
 11
879.542283
 21
920.863208
  0
LINE
  8
CSLAYER1
  6
CONTINUOUS
 62
     3
 10
929.542283
 20
916.828727
 11
879.542283
 21
920.863208
  0
LINE
  8
CSLAYER1
  6
CONTINUOUS
 62
     3
 10
929.542283
 20
916.828727
 11
879.542283
 21
912.794246
  0
LINE
  8
CSLAYER1
  6
CONTINUOUS
 62
     3
 10
929.542283
 20
908.759765
 11
879.542283
 21
912.794246
  0
LINE
  8
CSLAYER1
  6
CONTINUOUS
 62
     3
 10
929.542283
 20
908.759765
 11
879.542283
 21
904.725285
  0
LINE
  8
CSLAYER1
  6
CONTINUOUS
 62
     3
 10
929.542283
 20
900.690804
 11
879.542283
 21
904.725285
  0
LINE
  8
CSLAYER1
  6
CONTINUOUS
 62
     3
 10
929.542283
 20
900.690804
 11
879.542283
 21
896.656323
  0
LINE
  8
CSLAYER1
  6
CONTINUOUS
 62
     3
 10
929.542283
 20
892.621842
 11
879.542283
 21
896.656323
  0
LINE
  8
CSLAYER1
  6
CONTINUOUS
 62
     3
 10
929.542283
 20
892.621842
 11
879.542283
 21
888.587361
  0
LINE
  8
CSLAYER1
  6
CONTINUOUS
 62
     3
 10
929.542283
 20
884.552880
 11
879.542283
 21
888.587361
  0
LINE
  8
CSLAYER1
  6
CONTINUOUS
 62
     3
 10
929.542283
 20
884.552880
 11
879.542283
 21
880.518399
  0
LINE
  8
CSLAYER1
  6
CONTINUOUS
 62
     3
 10
929.542283
 20
876.483918
 11
879.542283
 21
880.518399
  0
LINE
  8
CSLAYER1
  6
CONTINUOUS
 62
     3
 10
929.542283
 20
876.483918
 11
879.542283
 21
872.449437
  0
LINE
  8
CSLAYER1
  6
CONTINUOUS
 62
     3
 10
929.542283
 20
868.414956
 11
879.542283
 21
872.449437
  0
LINE
  8
CSLAYER1
  6
CONTINUOUS
 62
     3
 10
929.542283
 20
868.414956
 11
879.542283
 21
864.380475
  0
LINE
  8
CSLAYER1
  6
CONTINUOUS
 62
     3
 10
929.542283
 20
860.345994
 11
879.542283
 21
864.380475
  0
LINE
  8
CSLAYER1
  6
CONTINUOUS
 62
     3
 10
929.542283
 20
860.345994
 11
879.542283
 21
856.311513
  0
LINE
  8
CSLAYER1
  6
CONTINUOUS
 62
     3
 10
929.542283
 20
852.277032
 11
879.542283
 21
856.311513
  0
LINE
  8
CSLAYER1
  6
CONTINUOUS
 62
     3
 10
929.542283
 20
852.277032
 11
879.542283
 21
848.242551
  0
LINE
  8
CSLAYER1
  6
CONTINUOUS
 62
     3
 10
929.542283
 20
844.208070
 11
879.542283
 21
848.242551
  0
LINE
  8
CSLAYER1
  6
CONTINUOUS
 62
     3
 10
929.542283
 20
844.208070
 11
879.542283
 21
840.173589
  0
LINE
  8
CSLAYER1
  6
CONTINUOUS
 62
     3
 10
929.542283
 20
836.139108
 11
879.542283
 21
840.173589
  0
LINE
  8
CSLAYER1
  6
CONTINUOUS
 62
     3
 10
929.542283
 20
836.139108
 11
879.542283
 21
832.104627
  0
LINE
  8
CSLAYER1
  6
CONTINUOUS
 62
     3
 10
929.542283
 20
828.070146
 11
879.542283
 21
832.104627
  0
LINE
  8
CSLAYER1
  6
CONTINUOUS
 62
     3
 10
929.542283
 20
828.070146
 11
879.542283
 21
824.035665
  0
LINE
  8
CSLAYER1
  6
CONTINUOUS
 62
     3
 10
929.542283
 20
820.001185
 11
879.542283
 21
824.035665
  0
LINE
  8
CSLAYER1
  6
CONTINUOUS
 62
     3
 10
929.542283
 20
820.001185
 11
879.542283
 21
815.966704
  0
LINE
  8
CSLAYER1
  6
CONTINUOUS
 62
     3
 10
929.542283
 20
811.932223
 11
879.542283
 21
815.966704
  0
LINE
  8
CSLAYER1
  6
CONTINUOUS
 62
     3
 10
929.542283
 20
811.932223
 11
879.542283
 21
807.897742
  0
LINE
  8
CSLAYER1
  6
CONTINUOUS
 62
     3
 10
929.542283
 20
803.863261
 11
879.542283
 21
807.897742
  0
LINE
  8
CSLAYER1
  6
CONTINUOUS
 62
     3
 10
929.542283
 20
803.863261
 11
879.542283
 21
799.828780
  0
LINE
  8
CSLAYER1
  6
CONTINUOUS
 62
     3
 10
929.542283
 20
795.794299
 11
879.542283
 21
799.828780
  0
LINE
  8
CSLAYER1
  6
CONTINUOUS
 62
     3
 10
929.542283
 20
795.794299
 11
879.542283
 21
794.104575
  0
TEXT
  8
CSLAYER1
 62
     5
 10
526.257263
 20
1055.445190
 40
60.000000
 41
1.050000
  1
下降時
 50
0.000000
 51
0.000000
  7
EASYDRAW_FONT
 72
     5
 11
694.257263
 21
1055.445190
  0
LINE
  8
CSLAYER1
  6
CONTINUOUS
 62
     5
 10
506.778850
 20
1121.036301
 11
725.928941
 21
1121.036301
  0
LINE
  8
CSLAYER1
  6
CONTINUOUS
 62
     5
 10
725.928941
 20
1121.036301
 11
725.928941
 21
1048.535519
  0
LINE
  8
CSLAYER1
  6
CONTINUOUS
 62
     5
 10
725.928941
 20
1048.535519
 11
506.778850
 21
1048.535519
  0
LINE
  8
CSLAYER1
  6
CONTINUOUS
 62
     5
 10
506.778850
 20
1048.535519
 11
506.778850
 21
1121.036301
  0
LINE
  8
CSLAYER1
  6
CONTINUOUS
 62
     3
 10
1250.472870
 20
1642.840452
 11
1300.472870
 21
1673.202795
  0
LINE
  8
CSLAYER1
  6
CONTINUOUS
 62
     3
 10
1300.472870
 20
1673.202795
 11
1250.472870
 21
1703.565139
  0
LINE
  8
CSLAYER1
  6
CONTINUOUS
 62
     3
 10
1250.472870
 20
1703.565139
 11
1300.472870
 21
1733.927482
  0
LINE
  8
CSLAYER1
  6
CONTINUOUS
 62
     3
 10
1300.472870
 20
1733.927482
 11
1250.472870
 21
1764.289826
  0
LINE
  8
CSLAYER1
  6
CONTINUOUS
 62
     3
 10
1250.472870
 20
1764.289826
 11
1300.472870
 21
1794.652169
  0
LINE
  8
CSLAYER1
  6
CONTINUOUS
 62
     3
 10
1300.472870
 20
1794.652169
 11
1250.472870
 21
1825.014513
  0
LINE
  8
CSLAYER1
  6
CONTINUOUS
 62
     3
 10
1250.472870
 20
1825.014513
 11
1300.472870
 21
1855.376856
  0
LINE
  8
CSLAYER1
  6
CONTINUOUS
 62
     3
 10
1300.472870
 20
1855.376856
 11
1250.472870
 21
1885.739200
  0
LINE
  8
CSLAYER1
  6
CONTINUOUS
 62
     3
 10
1250.472870
 20
1885.739200
 11
1300.472870
 21
1916.101543
  0
LINE
  8
CSLAYER1
  6
CONTINUOUS
 62
     3
 10
1300.472870
 20
1916.101543
 11
1250.472870
 21
1946.463887
  0
LINE
  8
CSLAYER1
  6
CONTINUOUS
 62
     3
 10
1250.472870
 20
1339.217017
 11
1300.472870
 21
1369.579360
  0
LINE
  8
CSLAYER1
  6
CONTINUOUS
 62
     3
 10
1300.472870
 20
1369.579360
 11
1250.472870
 21
1399.941704
  0
LINE
  8
CSLAYER1
  6
CONTINUOUS
 62
     3
 10
1250.472870
 20
1399.941704
 11
1300.472870
 21
1430.304047
  0
LINE
  8
CSLAYER1
  6
CONTINUOUS
 62
     3
 10
1300.472870
 20
1430.304047
 11
1250.472870
 21
1460.666391
  0
LINE
  8
CSLAYER1
  6
CONTINUOUS
 62
     3
 10
1250.472870
 20
1460.666391
 11
1300.472870
 21
1491.028734
  0
LINE
  8
CSLAYER1
  6
CONTINUOUS
 62
     3
 10
1300.472870
 20
1491.028734
 11
1250.472870
 21
1521.391078
  0
LINE
  8
CSLAYER1
  6
CONTINUOUS
 62
     3
 10
1250.472870
 20
1521.391078
 11
1300.472870
 21
1551.753421
  0
LINE
  8
CSLAYER1
  6
CONTINUOUS
 62
     3
 10
1300.472870
 20
1551.753421
 11
1250.472870
 21
1582.115765
  0
LINE
  8
CSLAYER1
  6
CONTINUOUS
 62
     3
 10
1250.472870
 20
1582.115765
 11
1300.472870
 21
1612.478108
  0
LINE
  8
CSLAYER1
  6
CONTINUOUS
 62
     3
 10
1300.472870
 20
1612.478108
 11
1250.472870
 21
1642.840452
  0
LINE
  8
CSLAYER1
  6
CONTINUOUS
 62
     3
 10
1250.472870
 20
1035.593582
 11
1300.472870
 21
1065.955925
  0
LINE
  8
CSLAYER1
  6
CONTINUOUS
 62
     3
 10
1300.472870
 20
1065.955925
 11
1250.472870
 21
1096.318269
  0
LINE
  8
CSLAYER1
  6
CONTINUOUS
 62
     3
 10
1250.472870
 20
1096.318269
 11
1300.472870
 21
1126.680612
  0
LINE
  8
CSLAYER1
  6
CONTINUOUS
 62
     3
 10
1300.472870
 20
1126.680612
 11
1250.472870
 21
1157.042956
  0
LINE
  8
CSLAYER1
  6
CONTINUOUS
 62
     3
 10
1250.472870
 20
1157.042956
 11
1300.472870
 21
1187.405299
  0
LINE
  8
CSLAYER1
  6
CONTINUOUS
 62
     3
 10
1300.472870
 20
1187.405299
 11
1250.472870
 21
1217.767643
  0
LINE
  8
CSLAYER1
  6
CONTINUOUS
 62
     3
 10
1250.472870
 20
1217.767643
 11
1300.472870
 21
1248.129986
  0
LINE
  8
CSLAYER1
  6
CONTINUOUS
 62
     3
 10
1300.472870
 20
1248.129986
 11
1250.472870
 21
1278.492330
  0
LINE
  8
CSLAYER1
  6
CONTINUOUS
 62
     3
 10
1250.472870
 20
1278.492330
 11
1300.472870
 21
1308.854673
  0
LINE
  8
CSLAYER1
  6
CONTINUOUS
 62
     3
 10
1300.472870
 20
1308.854673
 11
1250.472870
 21
1339.217017
  0
LINE
  8
CSLAYER1
  6
CONTINUOUS
 62
     3
 10
1250.472870
 20
853.419521
 11
1300.472870
 21
883.781864
  0
LINE
  8
CSLAYER1
  6
CONTINUOUS
 62
     3
 10
1300.472870
 20
883.781864
 11
1250.472870
 21
914.144208
  0
LINE
  8
CSLAYER1
  6
CONTINUOUS
 62
     3
 10
1250.472870
 20
914.144208
 11
1300.472870
 21
944.506551
  0
LINE
  8
CSLAYER1
  6
CONTINUOUS
 62
     3
 10
1300.472870
 20
944.506551
 11
1250.472870
 21
974.868895
  0
LINE
  8
CSLAYER1
  6
CONTINUOUS
 62
     3
 10
1250.472870
 20
974.868895
 11
1300.472870
 21
1005.231238
  0
LINE
  8
CSLAYER1
  6
CONTINUOUS
 62
     3
 10
1300.472870
 20
1005.231238
 11
1250.472870
 21
1035.593582
  0
LINE
  8
CSLAYER1
  6
CONTINUOUS
 62
     3
 10
1252.794399
 20
794.104575
 11
1300.472870
 21
823.057177
  0
LINE
  8
CSLAYER1
  6
CONTINUOUS
 62
     3
 10
1300.472870
 20
823.057177
 11
1250.472870
 21
853.419521
  0
INSERT
  8
CSLAYER1
  2
BLKF0004
 10
0.0
 20
0.0
 30
0.0
  0
LINE
  8
CSLAYER1
  6
CONTINUOUS
 62
     3
 10
1880.472870
 20
1642.840452
 11
1830.472870
 21
1673.202795
  0
LINE
  8
CSLAYER1
  6
CONTINUOUS
 62
     3
 10
1830.472870
 20
1673.202795
 11
1880.472870
 21
1703.565139
  0
LINE
  8
CSLAYER1
  6
CONTINUOUS
 62
     3
 10
1880.472870
 20
1703.565139
 11
1830.472870
 21
1733.927482
  0
LINE
  8
CSLAYER1
  6
CONTINUOUS
 62
     3
 10
1830.472870
 20
1733.927482
 11
1880.472870
 21
1764.289826
  0
LINE
  8
CSLAYER1
  6
CONTINUOUS
 62
     3
 10
1880.472870
 20
1764.289826
 11
1830.472870
 21
1794.652169
  0
LINE
  8
CSLAYER1
  6
CONTINUOUS
 62
     3
 10
1830.472870
 20
1794.652169
 11
1880.472870
 21
1825.014513
  0
LINE
  8
CSLAYER1
  6
CONTINUOUS
 62
     3
 10
1880.472870
 20
1825.014513
 11
1830.472870
 21
1855.376856
  0
LINE
  8
CSLAYER1
  6
CONTINUOUS
 62
     3
 10
1830.472870
 20
1855.376856
 11
1880.472870
 21
1885.739200
  0
LINE
  8
CSLAYER1
  6
CONTINUOUS
 62
     3
 10
1880.472870
 20
1885.739200
 11
1830.472870
 21
1916.101543
  0
LINE
  8
CSLAYER1
  6
CONTINUOUS
 62
     3
 10
1830.472870
 20
1916.101543
 11
1880.472870
 21
1946.463887
  0
LINE
  8
CSLAYER1
  6
CONTINUOUS
 62
     3
 10
1880.472870
 20
1339.217017
 11
1830.472870
 21
1369.579360
  0
LINE
  8
CSLAYER1
  6
CONTINUOUS
 62
     3
 10
1830.472870
 20
1369.579360
 11
1880.472870
 21
1399.941704
  0
LINE
  8
CSLAYER1
  6
CONTINUOUS
 62
     3
 10
1880.472870
 20
1399.941704
 11
1830.472870
 21
1430.304047
  0
LINE
  8
CSLAYER1
  6
CONTINUOUS
 62
     3
 10
1830.472870
 20
1430.304047
 11
1880.472870
 21
1460.666391
  0
LINE
  8
CSLAYER1
  6
CONTINUOUS
 62
     3
 10
1880.472870
 20
1460.666391
 11
1830.472870
 21
1491.028734
  0
LINE
  8
CSLAYER1
  6
CONTINUOUS
 62
     3
 10
1830.472870
 20
1491.028734
 11
1880.472870
 21
1521.391078
  0
LINE
  8
CSLAYER1
  6
CONTINUOUS
 62
     3
 10
1880.472870
 20
1521.391078
 11
1830.472870
 21
1551.753421
  0
LINE
  8
CSLAYER1
  6
CONTINUOUS
 62
     3
 10
1830.472870
 20
1551.753421
 11
1880.472870
 21
1582.115765
  0
LINE
  8
CSLAYER1
  6
CONTINUOUS
 62
     3
 10
1880.472870
 20
1582.115765
 11
1830.472870
 21
1612.478108
  0
LINE
  8
CSLAYER1
  6
CONTINUOUS
 62
     3
 10
1830.472870
 20
1612.478108
 11
1880.472870
 21
1642.840452
  0
LINE
  8
CSLAYER1
  6
CONTINUOUS
 62
     3
 10
1880.472870
 20
1035.593582
 11
1830.472870
 21
1065.955925
  0
LINE
  8
CSLAYER1
  6
CONTINUOUS
 62
     3
 10
1830.472870
 20
1065.955925
 11
1880.472870
 21
1096.318269
  0
LINE
  8
CSLAYER1
  6
CONTINUOUS
 62
     3
 10
1880.472870
 20
1096.318269
 11
1830.472870
 21
1126.680612
  0
LINE
  8
CSLAYER1
  6
CONTINUOUS
 62
     3
 10
1830.472870
 20
1126.680612
 11
1880.472870
 21
1157.042956
  0
LINE
  8
CSLAYER1
  6
CONTINUOUS
 62
     3
 10
1880.472870
 20
1157.042956
 11
1830.472870
 21
1187.405299
  0
LINE
  8
CSLAYER1
  6
CONTINUOUS
 62
     3
 10
1830.472870
 20
1187.405299
 11
1880.472870
 21
1217.767643
  0
LINE
  8
CSLAYER1
  6
CONTINUOUS
 62
     3
 10
1880.472870
 20
1217.767643
 11
1830.472870
 21
1248.129986
  0
LINE
  8
CSLAYER1
  6
CONTINUOUS
 62
     3
 10
1830.472870
 20
1248.129986
 11
1880.472870
 21
1278.492330
  0
LINE
  8
CSLAYER1
  6
CONTINUOUS
 62
     3
 10
1880.472870
 20
1278.492330
 11
1830.472870
 21
1308.854673
  0
LINE
  8
CSLAYER1
  6
CONTINUOUS
 62
     3
 10
1830.472870
 20
1308.854673
 11
1880.472870
 21
1339.217017
  0
LINE
  8
CSLAYER1
  6
CONTINUOUS
 62
     3
 10
1880.472870
 20
853.419521
 11
1830.472870
 21
883.781864
  0
LINE
  8
CSLAYER1
  6
CONTINUOUS
 62
     3
 10
1830.472870
 20
883.781864
 11
1880.472870
 21
914.144208
  0
LINE
  8
CSLAYER1
  6
CONTINUOUS
 62
     3
 10
1880.472870
 20
914.144208
 11
1830.472870
 21
944.506551
  0
LINE
  8
CSLAYER1
  6
CONTINUOUS
 62
     3
 10
1830.472870
 20
944.506551
 11
1880.472870
 21
974.868895
  0
LINE
  8
CSLAYER1
  6
CONTINUOUS
 62
     3
 10
1880.472870
 20
974.868895
 11
1830.472870
 21
1005.231238
  0
LINE
  8
CSLAYER1
  6
CONTINUOUS
 62
     3
 10
1830.472870
 20
1005.231238
 11
1880.472870
 21
1035.593582
  0
LINE
  8
CSLAYER1
  6
CONTINUOUS
 62
     3
 10
1878.151340
 20
794.104575
 11
1830.472870
 21
823.057177
  0
LINE
  8
CSLAYER1
  6
CONTINUOUS
 62
     3
 10
1830.472870
 20
823.057177
 11
1880.472870
 21
853.419521
  0
LINE
  8
CSLAYER1
  6
CONTINUOUS
 62
     4
 10
1300.472870
 20
1916.101543
 11
1830.472870
 21
1916.101543
  0
LINE
  8
CSLAYER1
  6
CONTINUOUS
 62
     4
 10
1250.472870
 20
1885.739200
 11
1880.472870
 21
1885.739200
  0
LINE
  8
CSLAYER1
  6
CONTINUOUS
 62
     4
 10
1300.472870
 20
1855.376856
 11
1830.472870
 21
1855.376856
  0
LINE
  8
CSLAYER1
  6
CONTINUOUS
 62
     4
 10
1250.472870
 20
1825.014513
 11
1880.472870
 21
1825.014513
  0
LINE
  8
CSLAYER1
  6
CONTINUOUS
 62
     4
 10
1300.472870
 20
1794.652169
 11
1830.472870
 21
1794.652169
  0
LINE
  8
CSLAYER1
  6
CONTINUOUS
 62
     4
 10
1250.472870
 20
1764.289826
 11
1880.472870
 21
1764.289826
  0
LINE
  8
CSLAYER1
  6
CONTINUOUS
 62
     4
 10
1300.472870
 20
1733.927482
 11
1830.472870
 21
1733.927482
  0
LINE
  8
CSLAYER1
  6
CONTINUOUS
 62
     4
 10
1250.472870
 20
1703.565139
 11
1880.472870
 21
1703.565139
  0
LINE
  8
CSLAYER1
  6
CONTINUOUS
 62
     4
 10
1300.472870
 20
1673.202795
 11
1830.472870
 21
1673.202795
  0
LINE
  8
CSLAYER1
  6
CONTINUOUS
 62
     4
 10
1250.472870
 20
1642.840452
 11
1880.472870
 21
1642.840452
  0
LINE
  8
CSLAYER1
  6
CONTINUOUS
 62
     4
 10
1300.472870
 20
1612.478108
 11
1830.472870
 21
1612.478108
  0
LINE
  8
CSLAYER1
  6
CONTINUOUS
 62
     4
 10
1250.472870
 20
1582.115765
 11
1880.472870
 21
1582.115765
  0
LINE
  8
CSLAYER1
  6
CONTINUOUS
 62
     4
 10
1300.472870
 20
1551.753421
 11
1830.472870
 21
1551.753421
  0
LINE
  8
CSLAYER1
  6
CONTINUOUS
 62
     4
 10
1250.472870
 20
1521.391078
 11
1880.472870
 21
1521.391078
  0
LINE
  8
CSLAYER1
  6
CONTINUOUS
 62
     4
 10
1300.472870
 20
1491.028734
 11
1830.472870
 21
1491.028734
  0
LINE
  8
CSLAYER1
  6
CONTINUOUS
 62
     4
 10
1250.472870
 20
1460.666391
 11
1880.472870
 21
1460.666391
  0
LINE
  8
CSLAYER1
  6
CONTINUOUS
 62
     4
 10
1300.472870
 20
1430.304047
 11
1830.472870
 21
1430.304047
  0
LINE
  8
CSLAYER1
  6
CONTINUOUS
 62
     4
 10
1250.472870
 20
1399.941704
 11
1880.472870
 21
1399.941704
  0
LINE
  8
CSLAYER1
  6
CONTINUOUS
 62
     4
 10
1300.472870
 20
1369.579360
 11
1830.472870
 21
1369.579360
  0
LINE
  8
CSLAYER1
  6
CONTINUOUS
 62
     4
 10
1250.472870
 20
1339.217017
 11
1880.472870
 21
1339.217017
  0
LINE
  8
CSLAYER1
  6
CONTINUOUS
 62
     4
 10
1300.472870
 20
1308.854673
 11
1830.472870
 21
1308.854673
  0
LINE
  8
CSLAYER1
  6
CONTINUOUS
 62
     4
 10
1250.472870
 20
1278.492330
 11
1880.472870
 21
1278.492330
  0
LINE
  8
CSLAYER1
  6
CONTINUOUS
 62
     4
 10
1300.472870
 20
1248.129986
 11
1830.472870
 21
1248.129986
  0
LINE
  8
CSLAYER1
  6
CONTINUOUS
 62
     4
 10
1250.472870
 20
1217.767643
 11
1880.472870
 21
1217.767643
  0
LINE
  8
CSLAYER1
  6
CONTINUOUS
 62
     4
 10
1300.472870
 20
1187.405299
 11
1830.472870
 21
1187.405299
  0
LINE
  8
CSLAYER1
  6
CONTINUOUS
 62
     4
 10
1250.472870
 20
1157.042956
 11
1880.472870
 21
1157.042956
  0
LINE
  8
CSLAYER1
  6
CONTINUOUS
 62
     4
 10
1300.472870
 20
1126.680612
 11
1830.472870
 21
1126.680612
  0
LINE
  8
CSLAYER1
  6
CONTINUOUS
 62
     4
 10
1250.472870
 20
1096.318269
 11
1880.472870
 21
1096.318269
  0
LINE
  8
CSLAYER1
  6
CONTINUOUS
 62
     4
 10
1300.472870
 20
1065.955925
 11
1830.472870
 21
1065.955925
  0
LINE
  8
CSLAYER1
  6
CONTINUOUS
 62
     4
 10
1250.472870
 20
1035.593582
 11
1880.472870
 21
1035.593582
  0
LINE
  8
CSLAYER1
  6
CONTINUOUS
 62
     4
 10
1300.472870
 20
1005.231238
 11
1830.472870
 21
1005.231238
  0
LINE
  8
CSLAYER1
  6
CONTINUOUS
 62
     4
 10
1250.472870
 20
974.868895
 11
1880.472870
 21
974.868895
  0
LINE
  8
CSLAYER1
  6
CONTINUOUS
 62
     4
 10
1300.472870
 20
944.506551
 11
1830.472870
 21
944.506551
  0
LINE
  8
CSLAYER1
  6
CONTINUOUS
 62
     4
 10
1250.472870
 20
914.144208
 11
1880.472870
 21
914.144208
  0
LINE
  8
CSLAYER1
  6
CONTINUOUS
 62
     4
 10
1300.472870
 20
883.781864
 11
1830.472870
 21
883.781864
  0
LINE
  8
CSLAYER1
  6
CONTINUOUS
 62
     4
 10
1250.472870
 20
853.419521
 11
1880.472870
 21
853.419521
  0
LINE
  8
CSLAYER1
  6
CONTINUOUS
 62
     4
 10
1300.472870
 20
823.057177
 11
1830.472870
 21
823.057177
  0
DIMENSION
  8
CSLAYER1
 62
     3
  2
*D0014
 10
1063.677333
 20
994.104575
 11
1048.677368
 21
869.104370
 13
864.542283
 23
744.104575
 14
939.542283
 24
994.104575
 50
90.000000
  0
DIMENSION
  8
CSLAYER1
 62
     3
  2
*D0015
 10
2035.766074
 20
749.604575
 11
2019.070923
 21
850.059448
 13
1815.472870
 23
744.104575
 14
1810.792480
 24
749.604575
 50
90.000000
  0
INSERT
  8
CSLAYER1
  2
EASYDRAWDIM0004
 10
0.0
 20
0.0
 30
0.0
  0
LINE
  8
CSLAYER1
  6
CONTINUOUS
 62
     5
 10
2520.822451
 20
1531.758754
 11
2392.860496
 21
1750.282832
  0
LINE
  8
CSLAYER1
  6
CONTINUOUS
 62
     5
 10
2520.822451
 20
1531.758754
 11
2488.807696
 21
1563.382407
  0
LINE
  8
CSLAYER1
  6
CONTINUOUS
 62
     5
 10
2520.822451
 20
1531.758754
 11
2508.908686
 21
1575.153019
  0
LINE
  8
CSLAYER1
  6
DASHED
 62
     5
 10
3368.249203
 20
915.104575
 11
3349.249203
 21
915.104575
  0
LINE
  8
CSLAYER1
  6
DASHED
 62
     5
 10
3368.249203
 20
925.104575
 11
3349.249203
 21
925.104575
  0
LINE
  8
CSLAYER1
  6
DASHED
 62
     5
 10
3369.718859
 20
924.256069
 11
3369.718859
 21
915.953081
  0
LINE
  8
CSLAYER1
  6
DASHED
 62
     5
 10
3364.234031
 20
924.256069
 11
3364.234031
 21
915.953081
  0
LINE
  8
CSLAYER1
  6
DASHED
 62
     5
 10
3368.249203
 20
925.104575
 11
3369.718859
 21
924.256069
  0
ARC
  8
CSLAYER1
  6
DASHED
 62
     5
 10
3358.749203
 20
906.953081
 40
18.151494
 50
72.412046
 51
107.587954
  0
ARC
  8
CSLAYER1
  6
DASHED
 62
     5
 10
3366.976445
 20
920.262183
 40
4.844787
 50
64.475551
 51
124.475551
  0
LINE
  8
CSLAYER1
  6
DASHED
 62
     5
 10
3347.779548
 20
924.256069
 11
3347.779548
 21
915.953081
  0
LINE
  8
CSLAYER1
  6
DASHED
 62
     5
 10
3353.264376
 20
924.256069
 11
3353.264376
 21
915.953081
  0
LINE
  8
CSLAYER1
  6
DASHED
 62
     5
 10
3349.249203
 20
925.104575
 11
3347.779548
 21
924.256069
  0
ARC
  8
CSLAYER1
  6
DASHED
 62
     5
 10
3350.521962
 20
920.262183
 40
4.844787
 50
55.524449
 51
115.524449
  0
LINE
  8
CSLAYER1
  6
DASHED
 62
     5
 10
3368.249203
 20
915.104575
 11
3369.718859
 21
915.953081
  0
ARC
  8
CSLAYER1
  6
DASHED
 62
     5
 10
3358.749203
 20
933.256069
 40
18.151494
 50
252.412046
 51
287.587954
  0
ARC
  8
CSLAYER1
  6
DASHED
 62
     5
 10
3366.976445
 20
919.946968
 40
4.844787
 50
235.524449
 51
295.524449
  0
LINE
  8
CSLAYER1
  6
DASHED
 62
     5
 10
3349.249203
 20
915.104575
 11
3347.779548
 21
915.953081
  0
ARC
  8
CSLAYER1
  6
DASHED
 62
     5
 10
3350.521962
 20
919.946968
 40
4.844787
 50
244.475551
 51
304.475551
  0
POINT
  8
CSLAYER1
 62
     5
 10
3358.749203
 20
925.104575
  0
LINE
  8
CSLAYER1
  6
DASHED
 62
     5
 10
3369.749203
 20
940.904575
 11
3346.749203
 21
940.904575
  0
LINE
  8
CSLAYER1
  6
DASHED
 62
     5
 10
3369.718859
 20
932.904575
 11
3347.779548
 21
932.904575
  0
LINE
  8
CSLAYER1
  6
DASHED
 62
     5
 10
3369.718859
 20
940.056069
 11
3369.718859
 21
932.904575
  0
LINE
  8
CSLAYER1
  6
DASHED
 62
     5
 10
3364.234031
 20
940.056069
 11
3364.234031
 21
932.904575
  0
LINE
  8
CSLAYER1
  6
DASHED
 62
     5
 10
3368.249203
 20
940.904575
 11
3369.718859
 21
940.056069
  0
ARC
  8
CSLAYER1
  6
DASHED
 62
     5
 10
3358.749203
 20
922.753081
 40
18.151494
 50
72.412046
 51
107.587954
  0
ARC
  8
CSLAYER1
  6
DASHED
 62
     5
 10
3366.976445
 20
936.062183
 40
4.844787
 50
64.475551
 51
124.475551
  0
LINE
  8
CSLAYER1
  6
DASHED
 62
     5
 10
3347.779548
 20
940.056069
 11
3347.779548
 21
932.904575
  0
LINE
  8
CSLAYER1
  6
DASHED
 62
     5
 10
3353.264376
 20
940.056069
 11
3353.264376
 21
932.904575
  0
LINE
  8
CSLAYER1
  6
DASHED
 62
     5
 10
3349.249203
 20
940.904575
 11
3347.779548
 21
940.056069
  0
ARC
  8
CSLAYER1
  6
DASHED
 62
     5
 10
3350.521962
 20
936.062183
 40
4.844787
 50
55.524449
 51
115.524449
  0
LINE
  8
CSLAYER1
  6
DASHED
 62
     5
 10
3364.749203
 20
932.904575
 11
3363.749203
 21
931.172524
  0
LINE
  8
CSLAYER1
  6
DASHED
 62
     5
 10
3352.749203
 20
932.904575
 11
3353.749203
 21
931.172524
  0
POINT
  8
CSLAYER1
 62
     5
 10
3358.749203
 20
932.904575
  0
LINE
  8
CSLAYER1
  6
DASHED
 62
     5
 10
3364.749203
 20
932.904575
 11
3364.749203
 21
925.104575
  0
LINE
  8
CSLAYER1
  6
DASHED
 62
     5
 10
3363.749203
 20
931.172524
 11
3363.749203
 21
925.104575
  0
LINE
  8
CSLAYER1
  6
DASHED
 62
     5
 10
3353.749203
 20
931.172524
 11
3353.749203
 21
925.104575
  0
LINE
  8
CSLAYER1
  6
DASHED
 62
     5
 10
3352.749203
 20
932.904575
 11
3352.749203
 21
925.104575
  0
LINE
  8
CSLAYER1
  6
DASHED
 62
     5
 10
3358.749203
 20
794.104575
 11
3358.749203
 21
940.904575
  0
LINE
  8
CSLAYER1
  6
DASHED
 62
     5
 10
3368.749203
 20
794.104575
 11
3368.749203
 21
915.104575
  0
LINE
  8
CSLAYER1
  6
DASHED
 62
     5
 10
3348.749203
 20
794.104575
 11
3348.749203
 21
915.104575
  0
LINE
  8
CSLAYER1
  6
DASHED
 62
     5
 10
3370.749203
 20
949.104575
 11
3370.749203
 21
941.904575
  0
LINE
  8
CSLAYER1
  6
DASHED
 62
     5
 10
3370.749203
 20
941.904575
 11
3345.749203
 21
941.904575
  0
LINE
  8
CSLAYER1
  6
DASHED
 62
     5
 10
3345.749203
 20
949.104575
 11
3345.749203
 21
941.904575
  0
LINE
  8
CSLAYER1
  6
DASHED
 62
     5
 10
3369.749203
 20
940.904575
 11
3370.749203
 21
941.904575
  0
LINE
  8
CSLAYER1
  6
DASHED
 62
     5
 10
3346.749203
 20
940.904575
 11
3345.749203
 21
941.904575
  0
LINE
  8
CSLAYER1
  6
CONTINUOUS
 62
     5
 10
5094.838686
 20
1316.668267
 11
4013.529910
 21
1316.668267
  0
TEXT
  8
CSLAYER1
 62
     3
 10
4497.590820
 20
1332.675049
 40
60.000000
 41
0.920690
  1
　　　１０Ｒ４／１３
 50
0.000000
 51
0.000000
  7
EASYDRAW_FONT
 72
     5
 11
5031.590820
 21
1332.675049
  0
TEXT
  8
CSLAYER1
 62
     3
 10
4035.662598
 20
2867.427246
 40
60.000000
 41
1.036364
  1
積載荷重
 50
0.000000
 51
0.000000
  7
EASYDRAW_FONT
 72
     5
 11
4263.662598
 21
2867.427246
  0
TEXT
  8
CSLAYER1
 62
     5
 10
1479.852986
 20
2671.089552
 40
59.399998
 41
1.020000
  1
コード長サ２ｍ
 50
0.000000
 51
0.000000
  7
EASYDRAW_FONT
 72
     5
 11
1883.772990
 21
2671.089552
  0
TEXT
  8
CSLAYER1
 62
     3
 10
1977.764404
 20
1678.840454
 40
58.777763
 41
0.443404
  1
ポリエステル地に樹脂コーティング
 50
0.000000
 51
0.000000
  7
EASYDRAW_FONT
 72
     5
 11
2386.073822
 21
1678.840454
  0
TEXT
  8
CSLAYER1
 62
     5
 10
4036.511719
 20
532.893799
 40
75.000000
 41
0.827586
  1
平成２８年４月１６日
 50
0.000000
 51
0.000000
  7
EASYDRAW_FONT
 72
     5
 11
4636.511719
 21
532.893799
  0
TEXT
  8
CSLAYER1
 62
     4
 10
4328.271973
 20
2102.268799
 40
60.000000
 41
0.825000
  1
マグネットスイッチ制御
 50
0.000000
 51
0.000000
  7
EASYDRAW_FONT
 72
     5
 11
4856.271973
 21
2102.268799
  0
INSERT
  8
CSLAYER1
  2
BLKF0005
 10
0.0
 20
0.0
 30
0.0
  0
ENDSEC
  0
EOF
