  0
SECTION
  2
HEADER
  9
$ACADVER
  1
AC1006
  9
$INSBASE
 10
-839.328176
 20
3051.351792
 30
0.0
  9
$EXTMIN
 10
-839.328176
 20
3051.351792
  9
$EXTMAX
 10
4620.671824
 20
6906.351792
  9
$LIMMIN
 10
-839.328176
 20
3051.351792
  9
$LIMMAX
 10
4620.671824
 20
6906.351792
  9
$VIEWCTR
 10
1890.671824
 20
4978.851792
  9
$VIEWSIZE
 40
3855.000000
  9
$SNAPMODE
 70
     0
  9
$SNAPUNIT
 10
1.0
 20
1.0
  9
$SNAPBASE
 10
0.0
 20
0.0
  9
$SNAPANG
 50
0.0
  9
$SNAPSTYLE
 70
     0
  9
$SNAPISOPAIR
 70
     0
  9
$GRIDMODE
 70
     0
  9
$GRIDUNIT
 10
0.0
 20
0.0
  9
$ORTHOMODE
 70
     0
  9
$REGENMODE
 70
     1
  9
$FILLMODE
 70
     1
  9
$QTEXTMODE
 70
     0
  9
$DRAGMODE
 70
     2
  9
$LTSCALE
 40
15.000000
  9
$OSMODE
 70
     0
  9
$ATTMODE
 70
     1
  9
$TEXTSIZE
 40
0.2
  9
$TRACEWID
 40
0.05
  9
$TEXTSTYLE
  7
STANDARD
  9
$CLAYER
  8
CSLAYER1
  9
$CELTYPE
  6
BYLAYER
  9
$CECOLOR
 62
   256
  9
$DIMSCALE
 40
1.0
  9
$DIMASZ
 40
0.18
  9
$DIMEXO
 40
0.0625
  9
$DIMDLI
 40
0.38
  9
$DIMRND
 40
0.0
  9
$DIMDLE
 40
0.0
  9
$DIMEXE
 40
0.18
  9
$DIMTP
 40
0.0
  9
$DIMTM
 40
0.0
  9
$DIMTXT
 40
0.18
  9
$DIMCEN
 40
0.09
  9
$DIMTSZ
 40
0.0
  9
$DIMTOL
 70
     0
  9
$DIMLIM
 70
     0
  9
$DIMTIH
 70
     1
  9
$DIMTOH
 70
     1
  9
$DIMSE1
 70
     0
  9
$DIMSE2
 70
     0
  9
$DIMTAD
 70
     0
  9
$DIMZIN
 70
     0
  9
$DIMBLK
  1

  9
$LUNITS
 70
     2
  9
$LUPREC
 70
     4
  9
$AXISMODE
 70
     0
  9
$AXISUNIT
 10
0.0
 20
0.0
  9
$SKETCHINC
 40
0.1
  9
$FILLETRAD
 40
0.0
  9
$AUNITS
 70
     0
  9
$AUPREC
 70
     0
  9
$MENU
  1
ACAD
  9
$ELEVATION
 40
0.0
  9
$THICKNESS
 40
0.0
  9
$VIEWDIR
 10
0.0
 20
0.0
 30
1.0
  9
$LIMCHECK
 70
     0
  9
$BLIPMODE
 70
     1
  9
$CHAMFERA
 40
0.0
  9
$CHAMFERB
 40
0.0
  9
$FASTZOOM
 70
     1
  9
$SKPOLY
 70
     0
  9
$TDCREATE
 40
2457497.000000
  9
$TDUPDATE
 40
2457497.000000
  9
$TDINDWG
 40
0.0
  9
$TDUSRTIMER
 40
0.0
  9
$USRTIMER
 70
     1
  9
$ANGBASE
 50
0.0
  9
$ANGDIR
 70
     0
  9
$PDMODE
 70
     0
  9
$PDSIZE
 40
0.0
  9
$PLINEWID
 40
0.0
  9
$COORDS
 70
     0
  9
$USERI1
 70
     0
  9
$USERI2
 70
     0
  9
$USERI3
 70
     0
  9
$USERI4
 70
     0
  9
$USERI5
 70
     0
  9
$USERR1
 40
0.0
  9
$USERR2
 40
0.0
  9
$USERR3
 40
0.0
  9
$USERR4
 40
0.0
  9
$USERR5
 40
0.0
  0
ENDSEC
  0
SECTION
  2
TABLES
  0
TABLE
  2
LTYPE
 70
     9
  0
LTYPE
  2
CONTINUOUS
 70
    64
  3
Solid line
 72
    65
 73
     0
 40
0.0
  0
LTYPE
  2
DASHED
 70
    64
  3
__ __ __ __ __ __ __ __ __ __ __ __ __ __ __
 72
    65
 73
     2
 40
0.75
 49
0.5
 49
-0.25
  0
LTYPE
  2
HIDDEN
 70
    64
  3
_ _ _ _ _ _ _ _ _ _ _ _ _ _ _ _ _ _ _ _ _ _ _
 72
    65
 73
     2
 40
0.375
 49
0.25
 49
-0.125
  0
LTYPE
  2
DOT
 70
    64
  3
...............................................
 72
    65
 73
     2
 40
0.25
 49
0.0
 49
-0.25
  0
LTYPE
  2
DASHDOT
 70
    64
  3
__ . __ . __ . __ . __ . __ . __ . __ . __ . __
 72
    65
 73
     4
 40
1.0
 49
0.5
 49
-0.25
 49
0.0
 49
-0.25
  0
LTYPE
  2
DIVIDE
 70
    64
  3
__ . . __ . . __ . . __ . . __ . . __ . . __
 72
    65
 73
     6
 40
1.25
 49
0.5
 49
-0.25
 49
0.0
 49
-0.25
 49
0.0
 49
-0.25
  0
LTYPE
  2
CENTER
 70
    64
  3
____ _ ____ _ ____ _ ____ _ ____ _ ____ _ ____ 
 72
    65
 73
     4
 40
2.0
 49
1.25
 49
-0.25
 49
0.25
 49
-0.25
  0
LTYPE
  2
PHANTOM
 70
    64
  3
______  __  __  ______  __  __  ______  __  __ 
 72
    65
 73
     6
 40
2.5
 49
1.25
 49
-0.25
 49
0.25
 49
-0.25
 49
0.25
 49
-0.25
  0
LTYPE
  2
BORDER
 70
    64
  3
__ __ . __ __ . __ __ . __ __ . __ __ . __ __ .
 72
    65
 73
     6
 40
1.75
 49
0.5
 49
-0.25
 49
0.5
 49
-0.25
 49
0.0
 49
-0.25
  0
ENDTAB
  0
TABLE
  2
LAYER
 70
    16
  0
LAYER
  2
CSLAYER1
 70
    64
 62
     7
  6
CONTINUOUS
  0
LAYER
  2
CSLAYER2
 70
    64
 62
     7
  6
CONTINUOUS
  0
LAYER
  2
CSLAYER3
 70
    64
 62
     7
  6
CONTINUOUS
  0
LAYER
  2
CSLAYER4
 70
    64
 62
     7
  6
CONTINUOUS
  0
LAYER
  2
CSLAYER5
 70
    64
 62
     7
  6
CONTINUOUS
  0
LAYER
  2
CSLAYER6
 70
    64
 62
     7
  6
CONTINUOUS
  0
LAYER
  2
CSLAYER7
 70
    64
 62
     7
  6
CONTINUOUS
  0
LAYER
  2
CSLAYER8
 70
    64
 62
     7
  6
CONTINUOUS
  0
LAYER
  2
CSLAYER9
 70
    64
 62
     7
  6
CONTINUOUS
  0
LAYER
  2
CSLAYER10
 70
    64
 62
     7
  6
CONTINUOUS
  0
LAYER
  2
CSLAYER11
 70
    64
 62
     7
  6
CONTINUOUS
  0
LAYER
  2
CSLAYER12
 70
    64
 62
     7
  6
CONTINUOUS
  0
LAYER
  2
CSLAYER13
 70
    64
 62
     7
  6
CONTINUOUS
  0
LAYER
  2
CSLAYER14
 70
    64
 62
     7
  6
CONTINUOUS
  0
LAYER
  2
CSLAYER15
 70
    64
 62
     7
  6
CONTINUOUS
  0
LAYER
  2
CSLAYER16
 70
    64
 62
     7
  6
CONTINUOUS
  0
ENDTAB
  0
TABLE
  2
STYLE
 70
     1
  0
STYLE
  2
EASYDRAW_FONT
 70
     0
 40
1.0
 41
1.0
 50
0.0
 71
     0
 42
1.0
  3
monotxt
  4
bigfont
  0
ENDTAB
  0
TABLE
  2
VIEW
 70
     0
  0
ENDTAB
  0
ENDSEC
  0
SECTION
  2
BLOCKS
  0
BLOCK
  8
CSLAYER1
  2
EASYDRAWDIM0000
 70
   64
 10
0.0
 20
0.0
 30
0.0
  0
TEXT
  8
CSLAYER1
 62
     3
 10
2590.875977
 20
1104.898804
 40
58.837482
 41
0.648771
  1
ギヤードモーター
 50
0.000000
 51
0.000000
  7
EASYDRAW_FONT
 72
     5
 11
2883.528503
 21
1104.898804
  0
LINE
  8
CSLAYER1
  6
CONTINUOUS
 62
     5
 10
2466.330195
 20
942.824153
 11
2584.612836
 21
1094.872171
  0
LINE
  8
CSLAYER1
  6
CONTINUOUS
 62
     5
 10
2466.330195
 20
942.824153
 11
2483.826591
 21
984.283484
  0
LINE
  8
CSLAYER1
  6
CONTINUOUS
 62
     5
 10
2466.330195
 20
942.824153
 11
2502.212184
 21
969.980789
  0
LINE
  8
CSLAYER1
  6
CONTINUOUS
 62
     5
 10
2584.612836
 20
1094.872171
 11
2874.834657
 21
1094.872171
  0
ENDBLK
  8
0
  0
BLOCK
  8
CSLAYER1
  2
EASYDRAWDIM0001
 70
   64
 10
0.0
 20
0.0
 30
0.0
  0
TEXT
  8
CSLAYER1
 62
     3
 10
1368.708618
 20
1019.514038
 40
60.000000
 41
0.775862
  1
下限アジャストボルト
 50
0.000000
 51
0.000000
  7
EASYDRAW_FONT
 72
     5
 11
1818.708618
 21
1019.514038
  0
LINE
  8
CSLAYER1
  6
CONTINUOUS
 62
     5
 10
1229.573971
 20
852.514627
 11
1361.215727
 21
1004.514120
  0
LINE
  8
CSLAYER1
  6
CONTINUOUS
 62
     5
 10
1229.573971
 20
852.514627
 11
1249.226349
 21
892.996525
  0
LINE
  8
CSLAYER1
  6
CONTINUOUS
 62
     5
 10
1229.573971
 20
852.514627
 11
1266.834378
 21
877.746790
  0
LINE
  8
CSLAYER1
  6
CONTINUOUS
 62
     5
 10
1361.215727
 20
1004.514120
 11
1833.708534
 21
1004.514120
  0
ENDBLK
  8
0
  0
BLOCK
  8
CSLAYER1
  2
EASYDRAWDIM0002
 70
   64
 10
0.0
 20
0.0
 30
0.0
  0
TEXT
  8
CSLAYER1
 62
     3
 10
1356.191162
 20
1198.287476
 40
60.000000
 41
0.769737
  1
上限・下限リミットスイッチ
 50
0.000000
 51
0.000000
  7
EASYDRAW_FONT
 72
     5
 11
1941.191162
 21
1198.287476
  0
LINE
  8
CSLAYER1
  6
CONTINUOUS
 62
     5
 10
1105.073971
 20
788.635063
 11
1348.478230
 21
1183.287540
  0
LINE
  8
CSLAYER1
  6
CONTINUOUS
 62
     5
 10
1105.073971
 20
788.635063
 11
1117.978454
 21
831.745089
  0
LINE
  8
CSLAYER1
  6
CONTINUOUS
 62
     5
 10
1105.073971
 20
788.635063
 11
1137.804594
 21
819.517199
  0
LINE
  8
CSLAYER1
  6
CONTINUOUS
 62
     5
 10
1348.478230
 20
1183.287540
 11
1956.191128
 21
1183.287540
  0
ENDBLK
  8
0
  0
BLOCK
  8
CSLAYER1
  2
*D0000
 70
    65
 10
0.0
 20
0.0
 30
0.0
  0
TEXT
  8
CSLAYER1
 62
     3
 10
2950.054443
 20
713.214722
 40
60.000000
 41
0.843750
  1
250
 50
90.000000
 51
0.000000
  7
EASYDRAW_FONT
 72
     5
 11
2950.054443
 21
848.214722
  0
LINE
  8
CSLAYER1
  6
CONTINUOUS
 62
     5
 10
2827.135615
 20
655.714627
 11
3119.027621
 21
655.714627
  0
LINE
  8
CSLAYER1
  6
CONTINUOUS
 62
     5
 10
2828.935615
 20
905.714627
 11
2980.054393
 21
905.714627
  0
LINE
  8
CSLAYER1
  6
CONTINUOUS
 62
     5
 10
2965.054393
 20
655.714627
 11
2965.054393
 21
905.714627
  0
LINE
  8
CSLAYER1
  6
CONTINUOUS
 62
     5
 10
2965.054393
 20
655.714627
 11
2953.407536
 21
699.181289
  0
LINE
  8
CSLAYER1
  6
CONTINUOUS
 62
     5
 10
2965.054393
 20
655.714627
 11
2976.701250
 21
699.181289
  0
LINE
  8
CSLAYER1
  6
CONTINUOUS
 62
     5
 10
2965.054393
 20
905.714627
 11
2953.407536
 21
862.247964
  0
LINE
  8
CSLAYER1
  6
CONTINUOUS
 62
     5
 10
2965.054393
 20
905.714627
 11
2976.701250
 21
862.247964
  0
ENDBLK
  8
0
  0
BLOCK
  8
CSLAYER1
  2
*D0001
 70
    65
 10
0.0
 20
0.0
 30
0.0
  0
TEXT
  8
CSLAYER1
 62
     3
 10
2950.054443
 20
1336.894409
 40
60.000000
 41
0.843750
  1
970
 50
90.000000
 51
0.000000
  7
EASYDRAW_FONT
 72
     5
 11
2950.054443
 21
1471.894409
  0
LINE
  8
CSLAYER1
  6
CONTINUOUS
 62
     5
 10
2828.935615
 20
1903.073938
 11
3119.027621
 21
1903.073938
  0
LINE
  8
CSLAYER1
  6
CONTINUOUS
 62
     5
 10
2965.054393
 20
905.714627
 11
2965.054393
 21
1903.073938
  0
LINE
  8
CSLAYER1
  6
CONTINUOUS
 62
     5
 10
2965.054393
 20
905.714627
 11
2953.407536
 21
949.181289
  0
LINE
  8
CSLAYER1
  6
CONTINUOUS
 62
     5
 10
2965.054393
 20
905.714627
 11
2976.701250
 21
949.181289
  0
LINE
  8
CSLAYER1
  6
CONTINUOUS
 62
     5
 10
2965.054393
 20
1903.073938
 11
2953.407536
 21
1859.607276
  0
LINE
  8
CSLAYER1
  6
CONTINUOUS
 62
     5
 10
2965.054393
 20
1903.073938
 11
2976.701250
 21
1859.607276
  0
ENDBLK
  8
0
  0
BLOCK
  8
CSLAYER1
  2
*D0002
 70
    65
 10
0.0
 20
0.0
 30
0.0
  0
TEXT
  8
CSLAYER1
 62
     3
 10
3089.027588
 20
1189.394409
 40
60.000000
 41
0.818182
  1
1220
 50
90.000000
 51
0.000000
  7
EASYDRAW_FONT
 72
     5
 11
3089.027588
 21
1369.394409
  0
LINE
  8
CSLAYER1
  6
CONTINUOUS
 62
     5
 10
3104.027621
 20
655.714627
 11
3104.027621
 21
1903.073938
  0
LINE
  8
CSLAYER1
  6
CONTINUOUS
 62
     5
 10
3104.027621
 20
655.714627
 11
3092.380764
 21
699.181289
  0
LINE
  8
CSLAYER1
  6
CONTINUOUS
 62
     5
 10
3104.027621
 20
655.714627
 11
3115.674478
 21
699.181289
  0
LINE
  8
CSLAYER1
  6
CONTINUOUS
 62
     5
 10
3104.027621
 20
1903.073938
 11
3092.380764
 21
1859.607276
  0
LINE
  8
CSLAYER1
  6
CONTINUOUS
 62
     5
 10
3104.027621
 20
1903.073938
 11
3115.674478
 21
1859.607276
  0
ENDBLK
  8
0
  0
BLOCK
  8
CSLAYER1
  2
*D0003
 70
    65
 10
0.0
 20
0.0
 30
0.0
  0
TEXT
  8
CSLAYER1
 62
     3
 10
928.361938
 20
520.429565
 40
60.000000
 41
0.843750
  1
440
 50
0.000000
 51
0.000000
  7
EASYDRAW_FONT
 72
     5
 11
1063.361938
 21
520.429565
  0
LINE
  8
CSLAYER1
  6
CONTINUOUS
 62
     5
 10
775.573971
 20
509.386829
 11
1215.573971
 21
509.386829
  0
LINE
  8
CSLAYER1
  6
CONTINUOUS
 62
     5
 10
775.573971
 20
509.386829
 11
819.040633
 21
521.033686
  0
LINE
  8
CSLAYER1
  6
CONTINUOUS
 62
     5
 10
775.573971
 20
509.386829
 11
819.040633
 21
497.739972
  0
LINE
  8
CSLAYER1
  6
CONTINUOUS
 62
     5
 10
1215.573971
 20
509.386829
 11
1172.107309
 21
521.033686
  0
LINE
  8
CSLAYER1
  6
CONTINUOUS
 62
     5
 10
1215.573971
 20
509.386829
 11
1172.107309
 21
497.739972
  0
ENDBLK
  8
0
  0
BLOCK
  8
CSLAYER1
  2
*D0004
 70
    65
 10
0.0
 20
0.0
 30
0.0
  0
TEXT
  8
CSLAYER1
 62
     3
 10
924.757935
 20
369.056519
 40
60.000000
 41
0.843750
  1
500
 50
0.000000
 51
0.000000
  7
EASYDRAW_FONT
 72
     5
 11
1059.757935
 21
369.056519
  0
LINE
  8
CSLAYER1
  6
CONTINUOUS
 62
     5
 10
745.573971
 20
640.714627
 11
745.573971
 21
347.616954
  0
LINE
  8
CSLAYER1
  6
CONTINUOUS
 62
     5
 10
1245.573971
 20
640.714627
 11
1245.573971
 21
347.616954
  0
LINE
  8
CSLAYER1
  6
CONTINUOUS
 62
     5
 10
745.573971
 20
362.616954
 11
1245.573971
 21
362.616954
  0
LINE
  8
CSLAYER1
  6
CONTINUOUS
 62
     5
 10
745.573971
 20
362.616954
 11
789.040633
 21
374.263811
  0
LINE
  8
CSLAYER1
  6
CONTINUOUS
 62
     5
 10
745.573971
 20
362.616954
 11
789.040633
 21
350.970096
  0
LINE
  8
CSLAYER1
  6
CONTINUOUS
 62
     5
 10
1245.573971
 20
362.616954
 11
1202.107309
 21
374.263811
  0
LINE
  8
CSLAYER1
  6
CONTINUOUS
 62
     5
 10
1245.573971
 20
362.616954
 11
1202.107309
 21
350.970096
  0
ENDBLK
  8
0
  0
BLOCK
  8
CSLAYER1
  2
*D0005
 70
    65
 10
0.0
 20
0.0
 30
0.0
  0
TEXT
  8
CSLAYER1
 62
     3
 10
2025.955811
 20
428.299683
 40
60.000000
 41
0.900000
  1
50
 50
0.000000
 51
0.000000
  7
EASYDRAW_FONT
 72
     5
 11
2115.955811
 21
428.299683
  0
LINE
  8
CSLAYER1
  6
CONTINUOUS
 62
     5
 10
2013.135615
 20
640.714627
 11
2013.135615
 21
347.616954
  0
LINE
  8
CSLAYER1
  6
CONTINUOUS
 62
     5
 10
2013.135615
 20
509.386829
 11
2063.135615
 21
509.386829
  0
LINE
  8
CSLAYER1
  6
CONTINUOUS
 62
     5
 10
2013.135615
 20
509.386829
 11
2056.602277
 21
521.033686
  0
LINE
  8
CSLAYER1
  6
CONTINUOUS
 62
     5
 10
2013.135615
 20
509.386829
 11
2056.602277
 21
497.739972
  0
LINE
  8
CSLAYER1
  6
CONTINUOUS
 62
     5
 10
2063.135615
 20
509.386829
 11
2019.668953
 21
521.033686
  0
LINE
  8
CSLAYER1
  6
CONTINUOUS
 62
     5
 10
2063.135615
 20
509.386829
 11
2019.668953
 21
497.739972
  0
ENDBLK
  8
0
  0
BLOCK
  8
CSLAYER1
  2
*D0006
 70
    65
 10
0.0
 20
0.0
 30
0.0
  0
TEXT
  8
CSLAYER1
 62
     3
 10
2191.068115
 20
520.388550
 40
60.000000
 41
0.843750
  1
400
 50
0.000000
 51
0.000000
  7
EASYDRAW_FONT
 72
     5
 11
2326.068115
 21
520.388550
  0
LINE
  8
CSLAYER1
  6
CONTINUOUS
 62
     5
 10
2063.135615
 20
509.386829
 11
2463.135615
 21
509.386829
  0
LINE
  8
CSLAYER1
  6
CONTINUOUS
 62
     5
 10
2063.135615
 20
509.386829
 11
2106.602277
 21
521.033686
  0
LINE
  8
CSLAYER1
  6
CONTINUOUS
 62
     5
 10
2063.135615
 20
509.386829
 11
2106.602277
 21
497.739972
  0
LINE
  8
CSLAYER1
  6
CONTINUOUS
 62
     5
 10
2463.135615
 20
509.386829
 11
2419.668953
 21
521.033686
  0
LINE
  8
CSLAYER1
  6
CONTINUOUS
 62
     5
 10
2463.135615
 20
509.386829
 11
2419.668953
 21
497.739972
  0
ENDBLK
  8
0
  0
BLOCK
  8
CSLAYER1
  2
*D0007
 70
    65
 10
0.0
 20
0.0
 30
0.0
  0
TEXT
  8
CSLAYER1
 62
     3
 10
2345.135498
 20
377.617065
 40
60.000000
 41
0.843750
  1
800
 50
0.000000
 51
0.000000
  7
EASYDRAW_FONT
 72
     5
 11
2480.135498
 21
377.617065
  0
LINE
  8
CSLAYER1
  6
CONTINUOUS
 62
     5
 10
2812.135615
 20
640.714627
 11
2812.135615
 21
347.616954
  0
LINE
  8
CSLAYER1
  6
CONTINUOUS
 62
     5
 10
2013.135615
 20
362.616954
 11
2812.135615
 21
362.616954
  0
LINE
  8
CSLAYER1
  6
CONTINUOUS
 62
     5
 10
2013.135615
 20
362.616954
 11
2056.602277
 21
374.263811
  0
LINE
  8
CSLAYER1
  6
CONTINUOUS
 62
     5
 10
2013.135615
 20
362.616954
 11
2056.602277
 21
350.970096
  0
LINE
  8
CSLAYER1
  6
CONTINUOUS
 62
     5
 10
2812.135615
 20
362.616954
 11
2768.668953
 21
374.263811
  0
LINE
  8
CSLAYER1
  6
CONTINUOUS
 62
     5
 10
2812.135615
 20
362.616954
 11
2768.668953
 21
350.970096
  0
ENDBLK
  8
0
  0
BLOCK
  8
CSLAYER1
  2
*D0008
 70
    65
 10
0.0
 20
0.0
 30
0.0
  0
TEXT
  8
CSLAYER1
 62
     3
 10
1355.438477
 20
675.797241
 40
60.000000
 41
0.843750
  1
4.5
 50
90.000000
 51
0.000000
  7
EASYDRAW_FONT
 72
     5
 11
1355.438477
 21
810.797241
  0
LINE
  8
CSLAYER1
  6
CONTINUOUS
 62
     5
 10
1260.573971
 20
655.714627
 11
1385.011552
 21
655.714627
  0
LINE
  8
CSLAYER1
  6
CONTINUOUS
 62
     5
 10
1255.893582
 20
661.214627
 11
1385.011552
 21
661.214627
  0
LINE
  8
CSLAYER1
  6
CONTINUOUS
 62
     5
 10
1370.011552
 20
655.714627
 11
1370.011552
 21
580.714627
  0
LINE
  8
CSLAYER1
  6
CONTINUOUS
 62
     5
 10
1370.011552
 20
655.714627
 11
1358.364695
 21
612.247964
  0
LINE
  8
CSLAYER1
  6
CONTINUOUS
 62
     5
 10
1370.011552
 20
655.714627
 11
1381.658409
 21
612.247964
  0
LINE
  8
CSLAYER1
  6
CONTINUOUS
 62
     5
 10
1370.011552
 20
661.214627
 11
1370.011552
 21
743.297398
  0
LINE
  8
CSLAYER1
  6
CONTINUOUS
 62
     5
 10
1370.011552
 20
661.214627
 11
1358.364695
 21
704.681289
  0
LINE
  8
CSLAYER1
  6
CONTINUOUS
 62
     5
 10
1370.011552
 20
661.214627
 11
1381.658409
 21
704.681289
  0
LINE
  8
CSLAYER1
  6
CONTINUOUS
 62
     5
 10
1370.011552
 20
655.714627
 11
1370.011552
 21
661.214627
  0
ENDBLK
  8
0
  0
BLOCK
  8
CSLAYER1
  2
EASYDRAWDIM0003
 70
   64
 10
0.0
 20
0.0
 30
0.0
  0
TEXT
  8
CSLAYER1
 62
     3
 10
1402.450073
 20
508.257202
 40
60.000000
 41
0.803571
  1
4-%%c13
 50
0.000000
 51
0.000000
  7
EASYDRAW_FONT
 72
     5
 11
1627.450073
 21
508.257202
  0
LINE
  8
CSLAYER1
  6
CONTINUOUS
 62
     5
 10
2063.135615
 20
655.714627
 11
1851.318511
 21
498.608869
  0
LINE
  8
CSLAYER1
  6
CONTINUOUS
 62
     5
 10
2063.135615
 20
655.714627
 11
2035.162122
 21
620.465744
  0
LINE
  8
CSLAYER1
  6
CONTINUOUS
 62
     5
 10
2063.135615
 20
655.714627
 11
2021.285419
 21
639.174945
  0
LINE
  8
CSLAYER1
  6
CONTINUOUS
 62
     5
 10
1851.318511
 20
498.608869
 11
1382.143376
 21
498.608869
  0
ENDBLK
  8
0
  0
BLOCK
  8
CSLAYER1
  2
EASYDRAWDIM0004
 70
   64
 10
0.0
 20
0.0
 30
0.0
  0
TEXT
  8
CSLAYER1
 62
     3
 10
1398.087234
 20
437.012085
 40
50.470764
 41
0.839416
  1
アンカーボルト取付穴
 50
0.000000
 51
0.000000
  7
EASYDRAW_FONT
 72
     5
 11
1807.625122
 21
437.012085
  0
ENDBLK
  8
0
  0
BLOCK
  8
CSLAYER1
  2
*D0009
 70
    65
 10
0.0
 20
0.0
 30
0.0
  0
TEXT
  8
CSLAYER1
 62
     3
 10
2941.656006
 20
2642.269531
 40
60.000000
 41
0.843750
  1
600
 50
90.000000
 51
0.000000
  7
EASYDRAW_FONT
 72
     5
 11
2941.656006
 21
2777.269531
  0
LINE
  8
CSLAYER1
  6
CONTINUOUS
 62
     5
 10
2828.935615
 20
2409.769421
 11
2971.655955
 21
2409.769421
  0
LINE
  8
CSLAYER1
  6
CONTINUOUS
 62
     5
 10
2828.935615
 20
3009.769421
 11
2971.655955
 21
3009.769421
  0
LINE
  8
CSLAYER1
  6
CONTINUOUS
 62
     5
 10
2956.655955
 20
2409.769421
 11
2956.655955
 21
3009.769421
  0
LINE
  8
CSLAYER1
  6
CONTINUOUS
 62
     5
 10
2956.655955
 20
2409.769421
 11
2945.009098
 21
2453.236083
  0
LINE
  8
CSLAYER1
  6
CONTINUOUS
 62
     5
 10
2956.655955
 20
2409.769421
 11
2968.302812
 21
2453.236083
  0
LINE
  8
CSLAYER1
  6
CONTINUOUS
 62
     5
 10
2956.655955
 20
3009.769421
 11
2945.009098
 21
2966.302759
  0
LINE
  8
CSLAYER1
  6
CONTINUOUS
 62
     5
 10
2956.655955
 20
3009.769421
 11
2968.302812
 21
2966.302759
  0
ENDBLK
  8
0
  0
BLOCK
  8
CSLAYER1
  2
*D0010
 70
    65
 10
0.0
 20
0.0
 30
0.0
  0
TEXT
  8
CSLAYER1
 62
     3
 10
2346.435547
 20
2281.244629
 40
60.000000
 41
0.843750
  1
800
 50
0.000000
 51
0.000000
  7
EASYDRAW_FONT
 72
     5
 11
2481.435547
 21
2281.244629
  0
LINE
  8
CSLAYER1
  6
CONTINUOUS
 62
     5
 10
2013.935615
 20
2394.769421
 11
2013.935615
 21
2251.244745
  0
LINE
  8
CSLAYER1
  6
CONTINUOUS
 62
     5
 10
2813.935615
 20
2394.769421
 11
2813.935615
 21
2251.244745
  0
LINE
  8
CSLAYER1
  6
CONTINUOUS
 62
     5
 10
2013.935615
 20
2266.244745
 11
2813.935615
 21
2266.244745
  0
LINE
  8
CSLAYER1
  6
CONTINUOUS
 62
     5
 10
2013.935615
 20
2266.244745
 11
2057.402277
 21
2277.891602
  0
LINE
  8
CSLAYER1
  6
CONTINUOUS
 62
     5
 10
2013.935615
 20
2266.244745
 11
2057.402277
 21
2254.597888
  0
LINE
  8
CSLAYER1
  6
CONTINUOUS
 62
     5
 10
2813.935615
 20
2266.244745
 11
2770.468953
 21
2277.891602
  0
LINE
  8
CSLAYER1
  6
CONTINUOUS
 62
     5
 10
2813.935615
 20
2266.244745
 11
2770.468953
 21
2254.597888
  0
ENDBLK
  8
0
  0
BLOCK
  8
CSLAYER1
  2
BLKF0000
 70
   64
 10
0.0
 20
0.0
 30
0.0
  0
ARC
  8
CSLAYER1
  6
CONTINUOUS
 62
     5
 10
4169.771750
 20
120.742239
 40
5.323837
 50
6.429109
 51
73.182034
  0
ARC
  8
CSLAYER1
  6
CONTINUOUS
 62
     5
 10
4164.580294
 20
119.004650
 40
10.361631
 50
310.517970
 51
330.092764
  0
ARC
  8
CSLAYER1
  6
CONTINUOUS
 62
     5
 10
4164.489320
 20
119.552927
 40
10.722482
 50
-32.205059
 51
9.585194
  0
ARC
  8
CSLAYER1
  6
CONTINUOUS
 62
     5
 10
4169.428412
 20
115.411429
 40
7.151272
 50
180.000000
 51
218.514150
  0
ARC
  8
CSLAYER1
  6
CONTINUOUS
 62
     5
 10
4167.498330
 20
114.395718
 40
5.022423
 50
222.781148
 51
319.406906
  0
ARC
  8
CSLAYER1
  6
CONTINUOUS
 62
     5
 10
4172.096793
 20
116.030557
 40
9.839152
 50
94.574282
 51
183.607718
  0
LINE
  8
CSLAYER1
  6
CONTINUOUS
 62
     5
 10
4192.262653
 20
108.355309
 11
4190.977098
 21
103.797435
  0
LINE
  8
CSLAYER1
  6
CONTINUOUS
 62
     5
 10
4194.950630
 20
138.156795
 11
4191.795178
 21
142.247195
  0
LINE
  8
CSLAYER1
  6
CONTINUOUS
 62
     5
 10
4191.795178
 20
142.247195
 11
4181.665147
 21
147.884063
  0
LINE
  8
CSLAYER1
  6
CONTINUOUS
 62
     5
 10
4181.665147
 20
147.884063
 11
4171.312106
 21
149.088369
  0
LINE
  8
CSLAYER1
  6
CONTINUOUS
 62
     5
 10
4143.878268
 20
129.020359
 11
4147.098310
 21
136.466705
  0
LINE
  8
CSLAYER1
  6
CONTINUOUS
 62
     5
 10
4147.042813
 20
136.338369
 11
4150.318351
 21
140.290504
  0
LINE
  8
CSLAYER1
  6
CONTINUOUS
 62
     5
 10
4150.318351
 20
140.290504
 11
4155.274984
 21
143.838369
  0
LINE
  8
CSLAYER1
  6
CONTINUOUS
 62
     5
 10
4171.312106
 20
149.088369
 11
4169.034843
 21
147.938103
  0
LINE
  8
CSLAYER1
  6
CONTINUOUS
 62
     5
 10
4169.034843
 20
147.938103
 11
4163.802275
 21
147.938103
  0
LINE
  8
CSLAYER1
  6
CONTINUOUS
 62
     5
 10
4163.802275
 20
147.938103
 11
4158.469081
 21
145.019940
  0
LINE
  8
CSLAYER1
  6
CONTINUOUS
 62
     5
 10
4158.469081
 20
145.019940
 11
4155.274984
 21
143.838369
  0
LINE
  8
CSLAYER1
  6
CONTINUOUS
 62
     5
 10
4143.878268
 20
129.020359
 11
4141.601947
 21
117.697454
  0
LINE
  8
CSLAYER1
  6
CONTINUOUS
 62
     5
 10
4141.601947
 20
117.697454
 11
4141.312106
 21
113.838369
  0
LINE
  8
CSLAYER1
  6
CONTINUOUS
 62
     5
 10
4145.376180
 20
102.078696
 11
4141.312106
 21
111.222862
  0
LINE
  8
CSLAYER1
  6
CONTINUOUS
 62
     5
 10
4141.312106
 20
111.222862
 11
4141.312106
 21
113.838369
  0
LINE
  8
CSLAYER1
  6
CONTINUOUS
 62
     5
 10
4190.977098
 20
103.797435
 11
4188.448418
 21
99.292925
  0
LINE
  8
CSLAYER1
  6
CONTINUOUS
 62
     5
 10
4188.448418
 20
99.292925
 11
4186.312106
 21
97.314859
  0
ARC
  8
CSLAYER1
  6
CONTINUOUS
 62
     5
 10
4168.024189
 20
114.643510
 40
25.899940
 50
208.054813
 51
260.640470
  0
ARC
  8
CSLAYER1
  6
CONTINUOUS
 62
     5
 10
4160.234096
 20
133.757214
 40
44.811916
 50
274.579659
 51
305.587364
  0
ARC
  8
CSLAYER1
  6
CONTINUOUS
 62
     5
 10
4176.692620
 20
124.781631
 40
22.632940
 50
313.467013
 51
331.085078
  0
LINE
  8
CSLAYER1
  6
CONTINUOUS
 62
     5
 10
4198.879618
 20
119.108501
 11
4199.325560
 21
124.781631
  0
LINE
  8
CSLAYER1
  6
CONTINUOUS
 62
     5
 10
4199.325560
 20
124.781631
 11
4197.387563
 21
133.945105
  0
LINE
  8
CSLAYER1
  6
CONTINUOUS
 62
     5
 10
4198.879618
 20
119.108501
 11
4196.504106
 21
113.838369
  0
ARC
  8
CSLAYER1
  6
CONTINUOUS
 62
     5
 10
4176.692620
 20
124.781631
 40
22.632940
 50
23.883193
 51
36.225170
  0
LINE
  8
CSLAYER1
  6
CONTINUOUS
 62
     5
 10
4117.312106
 20
166.338369
 11
4118.812106
 21
167.977336
  0
LINE
  8
CSLAYER1
  6
CONTINUOUS
 62
     5
 10
4117.312106
 20
166.338369
 11
4119.677543
 21
164.170820
  0
LINE
  8
CSLAYER1
  6
CONTINUOUS
 62
     5
 10
4121.986362
 20
161.006882
 11
4122.025764
 21
157.754704
  0
LINE
  8
CSLAYER1
  6
CONTINUOUS
 62
     5
 10
4122.025764
 20
157.754704
 11
4122.336861
 21
156.614015
  0
LINE
  8
CSLAYER1
  6
CONTINUOUS
 62
     5
 10
4122.336861
 20
156.614015
 11
4123.218303
 21
155.525175
  0
LINE
  8
CSLAYER1
  6
CONTINUOUS
 62
     5
 10
4123.218303
 20
155.525175
 11
4124.099744
 21
155.628874
  0
LINE
  8
CSLAYER1
  6
CONTINUOUS
 62
     5
 10
4124.099744
 20
155.628874
 11
4125.033035
 21
155.888122
  0
LINE
  8
CSLAYER1
  6
CONTINUOUS
 62
     5
 10
4125.033035
 20
155.888122
 11
4125.655229
 21
155.628874
  0
LINE
  8
CSLAYER1
  6
CONTINUOUS
 62
     5
 10
4125.655229
 20
155.628874
 11
4127.003316
 21
154.954831
  0
LINE
  8
CSLAYER1
  6
CONTINUOUS
 62
     5
 10
4127.003316
 20
154.954831
 11
4128.167393
 21
154.338369
  0
LINE
  8
CSLAYER1
  6
CONTINUOUS
 62
     5
 10
4128.167393
 20
154.338369
 11
4128.921747
 21
154.384486
  0
LINE
  8
CSLAYER1
  6
CONTINUOUS
 62
     5
 10
4128.921747
 20
154.384486
 11
4133.133555
 21
156.554206
  0
LINE
  8
CSLAYER1
  6
CONTINUOUS
 62
     5
 10
4118.812106
 20
167.977336
 11
4119.311384
 21
170.187897
  0
LINE
  8
CSLAYER1
  6
CONTINUOUS
 62
     5
 10
4119.311384
 20
170.187897
 11
4121.491492
 21
170.413425
  0
LINE
  8
CSLAYER1
  6
CONTINUOUS
 62
     5
 10
4123.732129
 20
174.566113
 11
4126.363389
 21
174.801748
  0
LINE
  8
CSLAYER1
  6
CONTINUOUS
 62
     5
 10
4126.363389
 20
174.801748
 11
4131.665180
 21
176.058469
  0
LINE
  8
CSLAYER1
  6
CONTINUOUS
 62
     5
 10
4131.665180
 20
176.058469
 11
4133.812106
 21
176.555928
  0
LINE
  8
CSLAYER1
  6
CONTINUOUS
 62
     5
 10
4123.732129
 20
174.566113
 11
4120.832793
 21
174.804415
  0
LINE
  8
CSLAYER1
  6
CONTINUOUS
 62
     5
 10
4119.728608
 20
173.501384
 11
4119.868896
 21
172.944642
  0
LINE
  8
CSLAYER1
  6
CONTINUOUS
 62
     5
 10
4119.868896
 20
172.944642
 11
4120.606287
 21
172.138120
  0
LINE
  8
CSLAYER1
  6
CONTINUOUS
 62
     5
 10
4120.606287
 20
172.138120
 11
4121.620200
 21
171.377686
  0
LINE
  8
CSLAYER1
  6
CONTINUOUS
 62
     5
 10
4121.620200
 20
171.377686
 11
4121.805187
 21
171.131036
  0
LINE
  8
CSLAYER1
  6
CONTINUOUS
 62
     5
 10
4119.677543
 20
164.170820
 11
4121.986362
 21
161.006882
  0
ARC
  8
CSLAYER1
  6
CONTINUOUS
 62
     5
 10
4186.292157
 20
-91.149610
 40
271.091195
 50
80.438896
 51
96.353582
  0
ARC
  8
CSLAYER1
  6
CONTINUOUS
 62
     5
 10
4148.943787
 20
126.722240
 40
52.080363
 50
81.866516
 51
106.890578
  0
LINE
  8
CSLAYER1
  6
CONTINUOUS
 62
     5
 10
4237.603498
 20
174.988375
 11
4240.974122
 21
173.456273
  0
LINE
  8
CSLAYER1
  6
CONTINUOUS
 62
     5
 10
4246.336478
 20
171.081515
 11
4240.974122
 21
173.456273
  0
LINE
  8
CSLAYER1
  6
CONTINUOUS
 62
     5
 10
4237.603498
 20
174.988375
 11
4231.312106
 21
176.177232
  0
LINE
  8
CSLAYER1
  6
CONTINUOUS
 62
     5
 10
4246.312106
 20
171.092308
 11
4249.119469
 21
168.739593
  0
LINE
  8
CSLAYER1
  6
CONTINUOUS
 62
     5
 10
4221.176990
 20
172.647585
 11
4222.525902
 21
174.826597
  0
LINE
  8
CSLAYER1
  6
CONTINUOUS
 62
     5
 10
4222.525902
 20
174.826597
 11
4229.539300
 21
173.147333
  0
LINE
  8
CSLAYER1
  6
CONTINUOUS
 62
     5
 10
4229.539300
 20
173.147333
 11
4254.652879
 21
166.338369
  0
LINE
  8
CSLAYER1
  6
CONTINUOUS
 62
     5
 10
4259.062106
 20
166.338369
 11
4249.119469
 21
168.739593
  0
LINE
  8
CSLAYER1
  6
CONTINUOUS
 62
     5
 10
4254.652879
 20
166.338369
 11
4259.062106
 21
166.338369
  0
LINE
  8
CSLAYER1
  6
CONTINUOUS
 62
     5
 10
4171.312106
 20
173.035781
 11
4201.312106
 21
173.838369
  0
LINE
  8
CSLAYER1
  6
CONTINUOUS
 62
     5
 10
4201.312106
 20
173.838369
 11
4221.176990
 21
172.647585
  0
LINE
  8
CSLAYER1
  6
CONTINUOUS
 62
     5
 10
4223.581462
 20
169.556865
 11
4201.312106
 21
171.588369
  0
LINE
  8
CSLAYER1
  6
CONTINUOUS
 62
     5
 10
4201.312106
 20
171.588369
 11
4178.738292
 21
172.201347
  0
LINE
  8
CSLAYER1
  6
CONTINUOUS
 62
     5
 10
4178.812106
 20
172.199343
 11
4171.312106
 21
172.342284
  0
LINE
  8
CSLAYER1
  6
CONTINUOUS
 62
     5
 10
4171.312106
 20
173.035781
 11
4171.312106
 21
172.342284
  0
LINE
  8
CSLAYER1
  6
CONTINUOUS
 62
     5
 10
4257.562106
 20
161.088369
 11
4244.298268
 21
164.554363
  0
LINE
  8
CSLAYER1
  6
CONTINUOUS
 62
     5
 10
4223.581462
 20
169.556865
 11
4238.812106
 21
166.598290
  0
LINE
  8
CSLAYER1
  6
CONTINUOUS
 62
     5
 10
4238.812106
 20
166.598290
 11
4244.298268
 21
164.554363
  0
LINE
  8
CSLAYER1
  6
CONTINUOUS
 62
     5
 10
4257.562106
 20
161.088369
 11
4257.123180
 21
159.829711
  0
LINE
  8
CSLAYER1
  6
CONTINUOUS
 62
     5
 10
4271.812106
 20
152.838369
 11
4271.353065
 21
154.681841
  0
LINE
  8
CSLAYER1
  6
CONTINUOUS
 62
     5
 10
4257.123180
 20
159.829711
 11
4271.353065
 21
154.681841
  0
LINE
  8
CSLAYER1
  6
CONTINUOUS
 62
     5
 10
4176.562106
 20
161.088369
 11
4180.196663
 21
161.088369
  0
LINE
  8
CSLAYER1
  6
CONTINUOUS
 62
     5
 10
4210.312106
 20
161.737113
 11
4210.312106
 21
161.088369
  0
LINE
  8
CSLAYER1
  6
CONTINUOUS
 62
     5
 10
4208.812106
 20
162.538774
 11
4206.245187
 21
163.494542
  0
LINE
  8
CSLAYER1
  6
CONTINUOUS
 62
     5
 10
4206.245187
 20
163.494542
 11
4204.580103
 21
163.570227
  0
LINE
  8
CSLAYER1
  6
CONTINUOUS
 62
     5
 10
4204.580103
 20
163.570227
 11
4203.861090
 21
163.191799
  0
LINE
  8
CSLAYER1
  6
CONTINUOUS
 62
     5
 10
4203.861090
 20
163.191799
 11
4203.709718
 21
162.586314
  0
LINE
  8
CSLAYER1
  6
CONTINUOUS
 62
     5
 10
4203.709718
 20
162.586314
 11
4204.390889
 21
162.132200
  0
LINE
  8
CSLAYER1
  6
CONTINUOUS
 62
     5
 10
4204.390889
 20
162.132200
 11
4206.850672
 21
161.905143
  0
LINE
  8
CSLAYER1
  6
CONTINUOUS
 62
     5
 10
4206.850672
 20
161.905143
 11
4210.312106
 21
161.737113
  0
LINE
  8
CSLAYER1
  6
CONTINUOUS
 62
     5
 10
4271.812106
 20
152.838369
 11
4267.348792
 21
154.618242
  0
LINE
  8
CSLAYER1
  6
CONTINUOUS
 62
     5
 10
4267.348792
 20
154.618242
 11
4252.265258
 21
157.382555
  0
LINE
  8
CSLAYER1
  6
CONTINUOUS
 62
     5
 10
4252.265258
 20
157.382555
 11
4244.726588
 21
159.122248
  0
LINE
  8
CSLAYER1
  6
CONTINUOUS
 62
     5
 10
4211.113437
 20
162.588369
 11
4228.761936
 21
162.588369
  0
LINE
  8
CSLAYER1
  6
CONTINUOUS
 62
     5
 10
4208.812106
 20
162.538774
 11
4209.599096
 21
162.076073
  0
LINE
  8
CSLAYER1
  6
CONTINUOUS
 62
     5
 10
4209.599096
 20
162.076073
 11
4210.044314
 21
161.942508
  0
LINE
  8
CSLAYER1
  6
CONTINUOUS
 62
     5
 10
4210.044314
 20
161.942508
 11
4210.312106
 21
161.980263
  0
LINE
  8
CSLAYER1
  6
CONTINUOUS
 62
     5
 10
4210.312106
 20
161.980263
 11
4211.113437
 21
162.588369
  0
LINE
  8
CSLAYER1
  6
CONTINUOUS
 62
     5
 10
4228.761936
 20
162.588369
 11
4235.437340
 21
161.045131
  0
LINE
  8
CSLAYER1
  6
CONTINUOUS
 62
     5
 10
4235.437340
 20
161.045131
 11
4241.667127
 21
159.297408
  0
LINE
  8
CSLAYER1
  6
CONTINUOUS
 62
     5
 10
4241.667127
 20
159.297408
 11
4244.726588
 21
159.122248
  0
LINE
  8
CSLAYER1
  6
CONTINUOUS
 62
     5
 10
4175.062106
 20
159.588369
 11
4175.062106
 21
158.838369
  0
LINE
  8
CSLAYER1
  6
CONTINUOUS
 62
     5
 10
4171.312106
 20
158.838369
 11
4175.062106
 21
158.838369
  0
ARC
  8
CSLAYER1
  6
CONTINUOUS
 62
     5
 10
4176.562106
 20
159.588369
 40
1.500000
 50
90.000000
 51
180.000000
  0
LINE
  8
CSLAYER1
  6
CONTINUOUS
 62
     5
 10
4180.196663
 20
161.088369
 11
4181.242998
 21
160.230375
  0
LINE
  8
CSLAYER1
  6
CONTINUOUS
 62
     5
 10
4182.146550
 20
160.194434
 11
4183.432945
 21
161.088369
  0
LINE
  8
CSLAYER1
  6
CONTINUOUS
 62
     5
 10
4185.800540
 20
161.088369
 11
4188.301228
 21
160.101256
  0
LINE
  8
CSLAYER1
  6
CONTINUOUS
 62
     5
 10
4188.936791
 20
160.141024
 11
4190.667022
 21
161.088369
  0
LINE
  8
CSLAYER1
  6
CONTINUOUS
 62
     5
 10
4183.432945
 20
161.088369
 11
4185.800540
 21
161.088369
  0
LINE
  8
CSLAYER1
  6
CONTINUOUS
 62
     5
 10
4190.667022
 20
161.088369
 11
4210.312106
 21
161.088369
  0
LINE
  8
CSLAYER1
  6
CONTINUOUS
 62
     5
 10
4139.135581
 20
156.425130
 11
4171.312106
 21
158.838369
  0
LINE
  8
CSLAYER1
  6
CONTINUOUS
 62
     5
 10
4133.133555
 20
156.554206
 11
4139.135581
 21
156.425130
  0
ARC
  8
CSLAYER1
  6
CONTINUOUS
 62
     5
 10
4181.718558
 20
160.810325
 40
0.750000
 50
230.648247
 51
304.796026
  0
ARC
  8
CSLAYER1
  6
CONTINUOUS
 62
     5
 10
4188.576603
 20
160.798872
 40
0.750000
 50
248.459024
 51
298.701829
  0
ARC
  8
CSLAYER1
  6
CONTINUOUS
 62
     5
 10
4121.445187
 20
170.861036
 40
0.450000
 50
-84.093859
 51
36.869898
  0
ARC
  8
CSLAYER1
  6
CONTINUOUS
 62
     5
 10
4120.746781
 20
173.757944
 40
1.050000
 50
85.301319
 51
194.142980
  0
LINE
  8
CSLAYER1
  6
CONTINUOUS
 62
     3
 10
4169.034843
 20
147.938103
 11
4181.200586
 21
147.938103
  0
LINE
  8
CSLAYER1
  6
CONTINUOUS
 62
     3
 10
4159.416068
 20
145.538103
 11
4185.881079
 21
145.538103
  0
LINE
  8
CSLAYER1
  6
CONTINUOUS
 62
     3
 10
4154.296660
 20
143.138103
 11
4190.194126
 21
143.138103
  0
LINE
  8
CSLAYER1
  6
CONTINUOUS
 62
     3
 10
4150.943680
 20
140.738103
 11
4192.959335
 21
140.738103
  0
LINE
  8
CSLAYER1
  6
CONTINUOUS
 62
     3
 10
4148.700197
 20
138.338103
 11
4194.810764
 21
138.338103
  0
LINE
  8
CSLAYER1
  6
CONTINUOUS
 62
     3
 10
4146.869725
 20
135.938103
 11
4196.384829
 21
135.938103
  0
LINE
  8
CSLAYER1
  6
CONTINUOUS
 62
     3
 10
4145.831887
 20
133.538103
 11
4197.473641
 21
133.538103
  0
LINE
  8
CSLAYER1
  6
CONTINUOUS
 62
     3
 10
4144.794049
 20
131.138103
 11
4197.981220
 21
131.138103
  0
LINE
  8
CSLAYER1
  6
CONTINUOUS
 62
     3
 10
4143.821524
 20
128.738103
 11
4198.488800
 21
128.738103
  0
LINE
  8
CSLAYER1
  6
CONTINUOUS
 62
     3
 10
4143.339036
 20
126.338103
 11
4198.996379
 21
126.338103
  0
LINE
  8
CSLAYER1
  6
CONTINUOUS
 62
     3
 10
4142.856547
 20
123.938103
 11
4166.241912
 21
123.938103
  0
LINE
  8
CSLAYER1
  6
CONTINUOUS
 62
     3
 10
4142.374059
 20
121.538103
 11
4163.943521
 21
121.538103
  0
LINE
  8
CSLAYER1
  6
CONTINUOUS
 62
     3
 10
4141.891571
 20
119.138103
 11
4162.761266
 21
119.138103
  0
LINE
  8
CSLAYER1
  6
CONTINUOUS
 62
     3
 10
4141.529894
 20
116.738103
 11
4162.283115
 21
116.738103
  0
LINE
  8
CSLAYER1
  6
CONTINUOUS
 62
     3
 10
4141.349639
 20
114.338103
 11
4162.358146
 21
114.338103
  0
LINE
  8
CSLAYER1
  6
CONTINUOUS
 62
     3
 10
4141.312106
 20
111.938103
 11
4163.177277
 21
111.938103
  0
LINE
  8
CSLAYER1
  6
CONTINUOUS
 62
     3
 10
4142.060888
 20
109.538103
 11
4166.222280
 21
109.538103
  0
LINE
  8
CSLAYER1
  6
CONTINUOUS
 62
     3
 10
4143.127555
 20
107.138103
 11
4191.919338
 21
107.138103
  0
LINE
  8
CSLAYER1
  6
CONTINUOUS
 62
     3
 10
4144.194221
 20
104.738103
 11
4191.242415
 21
104.738103
  0
LINE
  8
CSLAYER1
  6
CONTINUOUS
 62
     3
 10
4145.260888
 20
102.338103
 11
4190.157878
 21
102.338103
  0
LINE
  8
CSLAYER1
  6
CONTINUOUS
 62
     3
 10
4146.703826
 20
99.938103
 11
4188.810599
 21
99.938103
  0
LINE
  8
CSLAYER1
  6
CONTINUOUS
 62
     3
 10
4148.576518
 20
97.538103
 11
4186.553209
 21
97.538103
  0
LINE
  8
CSLAYER1
  6
CONTINUOUS
 62
     3
 10
4150.984648
 20
95.138103
 11
4182.964518
 21
95.138103
  0
LINE
  8
CSLAYER1
  6
CONTINUOUS
 62
     3
 10
4154.205361
 20
92.738103
 11
4178.276833
 21
92.738103
  0
LINE
  8
CSLAYER1
  6
CONTINUOUS
 62
     3
 10
4159.076897
 20
90.338103
 11
4171.319610
 21
90.338103
  0
LINE
  8
CSLAYER1
  6
CONTINUOUS
 62
     3
 10
4174.029648
 20
123.938103
 11
4199.259253
 21
123.938103
  0
LINE
  8
CSLAYER1
  6
CONTINUOUS
 62
     3
 10
4175.035764
 20
121.538103
 11
4199.070599
 21
121.538103
  0
LINE
  8
CSLAYER1
  6
CONTINUOUS
 62
     3
 10
4175.203774
 20
119.138103
 11
4198.881945
 21
119.138103
  0
LINE
  8
CSLAYER1
  6
CONTINUOUS
 62
     3
 10
4174.835739
 20
116.738103
 11
4197.811161
 21
116.738103
  0
LINE
  8
CSLAYER1
  6
CONTINUOUS
 62
     3
 10
4173.858270
 20
114.338103
 11
4196.729361
 21
114.338103
  0
LINE
  8
CSLAYER1
  6
CONTINUOUS
 62
     3
 10
4172.158375
 20
111.938103
 11
4195.328439
 21
111.938103
  0
LINE
  8
CSLAYER1
  6
CONTINUOUS
 62
     3
 10
4168.774380
 20
109.538103
 11
4193.422378
 21
109.538103
  0
TEXT
  8
CSLAYER1
 62
     5
 10
4200.069867
 20
120.954866
 40
7.070172
 41
1.951056
  1
M
 50
0.000000
 51
0.000000
  7
EASYDRAW_FONT
 72
     5
 11
4209.266070
 21
120.954866
  0
TEXT
  8
CSLAYER1
 62
     5
 10
4214.546948
 20
120.867460
 40
6.939931
 41
0.778201
  1
T
 50
0.000000
 51
0.000000
  7
EASYDRAW_FONT
 72
     5
 11
4218.147388
 21
120.867460
  0
TEXT
  8
CSLAYER1
 62
     5
 10
4218.695292
 20
120.919658
 40
7.044274
 41
1.055553
  1
E
 50
0.000000
 51
0.000000
  7
EASYDRAW_FONT
 72
     5
 11
4223.652364
 21
120.919658
  0
TEXT
  8
CSLAYER1
 62
     5
 10
4223.369808
 20
123.343425
 40
0.522425
 41
9.375319
  1
-
 50
0.000000
 51
0.000000
  7
EASYDRAW_FONT
 72
     5
 11
4226.635075
 21
123.343425
  0
TEXT
  8
CSLAYER1
 62
     5
 10
4226.090633
 20
120.872638
 40
7.292489
 41
1.298502
  1
H
 50
0.000000
 51
0.000000
  7
EASYDRAW_FONT
 72
     5
 11
4232.403507
 21
120.872638
  0
TEXT
  8
CSLAYER1
 62
     5
 10
4232.204778
 20
120.918206
 40
7.264708
 41
1.269236
  1
A
 50
0.000000
 51
0.000000
  7
EASYDRAW_FONT
 72
     5
 11
4238.351862
 21
120.918206
  0
TEXT
  8
CSLAYER1
 62
     5
 10
4237.764134
 20
120.855916
 40
7.238043
 41
1.490144
  1
N
 50
0.000000
 51
0.000000
  7
EASYDRAW_FONT
 72
     5
 11
4244.954616
 21
120.855916
  0
TEXT
  8
CSLAYER1
 62
     5
 10
4208.951077
 20
120.822056
 40
7.473487
 41
1.177443
  1
A
 50
0.000000
 51
0.000000
  7
EASYDRAW_FONT
 72
     5
 11
4214.817478
 21
120.822056
  0
TEXT
  8
CSLAYER1
 62
     5
 10
4200.620022
 20
110.329197
 40
7.473487
 41
1.177443
  1
A
 50
0.000000
 51
0.000000
  7
EASYDRAW_FONT
 72
     5
 11
4206.486423
 21
110.329197
  0
TEXT
  8
CSLAYER1
 62
     5
 10
4219.797268
 20
110.371678
 40
7.473487
 41
1.177443
  1
A
 50
0.000000
 51
0.000000
  7
EASYDRAW_FONT
 72
     5
 11
4225.663670
 21
110.371678
  0
TEXT
  8
CSLAYER1
 62
     5
 10
4225.437962
 20
110.457173
 40
7.238043
 41
1.490144
  1
N
 50
0.000000
 51
0.000000
  7
EASYDRAW_FONT
 72
     5
 11
4232.628444
 21
110.457173
  0
TEXT
  8
CSLAYER1
 62
     5
 10
4238.791344
 20
110.469766
 40
7.262663
 41
1.184218
  1
E
 50
0.000000
 51
0.000000
  7
EASYDRAW_FONT
 72
     5
 11
4244.525062
 21
110.469766
  0
TEXT
  8
CSLAYER1
 62
     5
 10
4207.041096
 20
110.327210
 40
7.421797
 41
1.093992
  1
D
 50
0.000000
 51
0.000000
  7
EASYDRAW_FONT
 72
     5
 11
4212.454021
 21
110.327210
  0
TEXT
  8
CSLAYER1
 62
     5
 10
4213.645000
 20
110.319133
 40
7.386315
 41
1.228195
  1
V
 50
0.000000
 51
0.000000
  7
EASYDRAW_FONT
 72
     5
 11
4219.692891
 21
110.319133
  0
TEXT
  8
CSLAYER1
 62
     5
 10
4231.982558
 20
110.350231
 40
7.549340
 41
1.481023
  1
C
 50
0.000000
 51
0.000000
  7
EASYDRAW_FONT
 72
     5
 11
4239.436388
 21
110.350231
  0
LINE
  8
CSLAYER1
  6
CONTINUOUS
 62
     5
 10
4217.928111
 20
126.940827
 11
4216.410018
 21
126.940827
  0
LINE
  8
CSLAYER1
  6
CONTINUOUS
 62
     3
 10
4141.575468
 20
178.278734
 11
4216.272208
 21
178.278734
  0
LINE
  8
CSLAYER1
  6
CONTINUOUS
 62
     3
 10
4130.906922
 20
175.878734
 11
4232.891745
 21
175.878734
  0
LINE
  8
CSLAYER1
  6
CONTINUOUS
 62
     3
 10
4119.734315
 20
173.478734
 11
4187.869281
 21
173.478734
  0
LINE
  8
CSLAYER1
  6
CONTINUOUS
 62
     3
 10
4207.311605
 20
173.478734
 11
4221.691511
 21
173.478734
  0
LINE
  8
CSLAYER1
  6
CONTINUOUS
 62
     3
 10
4228.155211
 20
173.478734
 11
4240.924707
 21
173.478734
  0
LINE
  8
CSLAYER1
  6
CONTINUOUS
 62
     3
 10
4121.839024
 20
171.078734
 11
4206.898728
 21
171.078734
  0
LINE
  8
CSLAYER1
  6
CONTINUOUS
 62
     3
 10
4237.168936
 20
171.078734
 11
4246.328303
 21
171.078734
  0
LINE
  8
CSLAYER1
  6
CONTINUOUS
 62
     3
 10
4118.970524
 20
168.678734
 11
4228.102050
 21
168.678734
  0
LINE
  8
CSLAYER1
  6
CONTINUOUS
 62
     3
 10
4246.020884
 20
168.678734
 11
4249.371466
 21
168.678734
  0
LINE
  8
CSLAYER1
  6
CONTINUOUS
 62
     3
 10
4117.377186
 20
166.278734
 11
4239.669834
 21
166.278734
  0
LINE
  8
CSLAYER1
  6
CONTINUOUS
 62
     3
 10
4119.890686
 20
163.878734
 11
4246.883797
 21
163.878734
  0
LINE
  8
CSLAYER1
  6
CONTINUOUS
 62
     3
 10
4121.642038
 20
161.478734
 11
4210.312106
 21
161.478734
  0
LINE
  8
CSLAYER1
  6
CONTINUOUS
 62
     3
 10
4233.561753
 20
161.478734
 11
4256.068238
 21
161.478734
  0
LINE
  8
CSLAYER1
  6
CONTINUOUS
 62
     3
 10
4122.009723
 20
159.078734
 11
4175.062106
 21
159.078734
  0
LINE
  8
CSLAYER1
  6
CONTINUOUS
 62
     3
 10
4244.915147
 20
159.078734
 11
4259.199051
 21
159.078734
  0
LINE
  8
CSLAYER1
  6
CONTINUOUS
 62
     3
 10
4122.319210
 20
156.678734
 11
4142.516971
 21
156.678734
  0
LINE
  8
CSLAYER1
  6
CONTINUOUS
 62
     3
 10
4256.105670
 20
156.678734
 11
4265.833197
 21
156.678734
  0
LINE
  8
CSLAYER1
  6
CONTINUOUS
 62
     3
 10
4268.200161
 20
154.278734
 11
4271.453442
 21
154.278734
  0
ENDBLK
  8
0
  0
BLOCK
  8
CSLAYER1
  2
BLKF0001
 70
   64
 10
0.0
 20
0.0
 30
0.0
  0
LINE
  8
CSLAYER1
  6
CONTINUOUS
 62
     3
 10
1173.573971
 20
977.129455
 11
1173.573971
 21
968.129455
  0
LINE
  8
CSLAYER1
  6
CONTINUOUS
 62
     3
 10
1174.573971
 20
989.129455
 11
1174.573971
 21
965.129455
  0
LINE
  8
CSLAYER1
  6
CONTINUOUS
 62
     3
 10
1190.573971
 20
982.329455
 11
1190.573971
 21
971.929455
  0
LINE
  8
CSLAYER1
  6
CONTINUOUS
 62
     3
 10
1174.573971
 20
969.129455
 11
1173.573971
 21
968.129455
  0
LINE
  8
CSLAYER1
  6
CONTINUOUS
 62
     3
 10
1176.873971
 20
989.129455
 11
1176.873971
 21
965.129455
  0
LINE
  8
CSLAYER1
  6
CONTINUOUS
 62
     3
 10
1174.573971
 20
965.129455
 11
1176.873971
 21
965.129455
  0
LINE
  8
CSLAYER1
  6
CONTINUOUS
 62
     3
 10
1179.873971
 20
988.099110
 11
1179.873971
 21
966.159799
  0
LINE
  8
CSLAYER1
  6
CONTINUOUS
 62
     3
 10
1176.873971
 20
966.379455
 11
1179.873971
 21
966.379455
  0
LINE
  8
CSLAYER1
  6
CONTINUOUS
 62
     3
 10
1189.873971
 20
977.129455
 11
1189.873971
 21
967.629455
  0
LINE
  8
CSLAYER1
  6
CONTINUOUS
 62
     3
 10
1189.025466
 20
966.159799
 11
1179.873971
 21
966.159799
  0
LINE
  8
CSLAYER1
  6
CONTINUOUS
 62
     3
 10
1189.025466
 20
971.644627
 11
1179.873971
 21
971.644627
  0
LINE
  8
CSLAYER1
  6
CONTINUOUS
 62
     3
 10
1189.873971
 20
967.629455
 11
1189.025466
 21
966.159799
  0
ARC
  8
CSLAYER1
  6
CONTINUOUS
 62
     3
 10
1171.722477
 20
977.129455
 40
18.151494
 50
-17.587954
 51
0.000000
  0
ARC
  8
CSLAYER1
  6
CONTINUOUS
 62
     3
 10
1185.020716
 20
968.902213
 40
4.853746
 50
-25.597034
 51
34.402966
  0
LINE
  8
CSLAYER1
  6
CONTINUOUS
 62
     3
 10
1189.873971
 20
977.129455
 11
1189.873971
 21
986.629455
  0
LINE
  8
CSLAYER1
  6
CONTINUOUS
 62
     3
 10
1189.025466
 20
988.099110
 11
1179.873971
 21
988.099110
  0
LINE
  8
CSLAYER1
  6
CONTINUOUS
 62
     3
 10
1189.025466
 20
982.614282
 11
1179.873971
 21
982.614282
  0
LINE
  8
CSLAYER1
  6
CONTINUOUS
 62
     3
 10
1189.873971
 20
986.629455
 11
1189.025466
 21
988.099110
  0
ARC
  8
CSLAYER1
  6
CONTINUOUS
 62
     3
 10
1171.722477
 20
977.129455
 40
18.151494
 50
-0.000000
 51
17.587954
  0
ARC
  8
CSLAYER1
  6
CONTINUOUS
 62
     3
 10
1185.020716
 20
985.356696
 40
4.853746
 50
-34.402966
 51
25.597034
  0
LINE
  8
CSLAYER1
  6
CONTINUOUS
 62
     3
 10
1173.573971
 20
977.129455
 11
1173.573971
 21
986.129455
  0
LINE
  8
CSLAYER1
  6
CONTINUOUS
 62
     3
 10
1174.573971
 20
985.129455
 11
1173.573971
 21
986.129455
  0
LINE
  8
CSLAYER1
  6
CONTINUOUS
 62
     3
 10
1174.573971
 20
989.129455
 11
1176.873971
 21
989.129455
  0
LINE
  8
CSLAYER1
  6
CONTINUOUS
 62
     3
 10
1176.873971
 20
987.879455
 11
1179.873971
 21
987.879455
  0
LINE
  8
CSLAYER1
  6
CONTINUOUS
 62
     3
 10
1189.873971
 20
971.929455
 11
1190.573971
 21
971.929455
  0
LINE
  8
CSLAYER1
  6
CONTINUOUS
 62
     3
 10
1190.573971
 20
971.929455
 11
1189.873971
 21
971.129455
  0
LINE
  8
CSLAYER1
  6
CONTINUOUS
 62
     3
 10
1189.873971
 20
982.329455
 11
1190.573971
 21
982.329455
  0
LINE
  8
CSLAYER1
  6
CONTINUOUS
 62
     3
 10
1190.573971
 20
982.329455
 11
1189.873971
 21
983.129455
  0
POINT
  8
CSLAYER1
 62
     3
 10
1173.573971
 20
977.129455
  0
ENDBLK
  8
0
  0
BLOCK
  8
CSLAYER1
  2
BLKF0002
 70
   64
 10
0.0
 20
0.0
 30
0.0
  0
LINE
  8
CSLAYER1
  6
CONTINUOUS
 62
     3
 10
1173.573971
 20
1570.959110
 11
1173.573971
 21
1561.959110
  0
LINE
  8
CSLAYER1
  6
CONTINUOUS
 62
     3
 10
1174.573971
 20
1582.959110
 11
1174.573971
 21
1558.959110
  0
LINE
  8
CSLAYER1
  6
CONTINUOUS
 62
     3
 10
1190.573971
 20
1576.159110
 11
1190.573971
 21
1565.759110
  0
LINE
  8
CSLAYER1
  6
CONTINUOUS
 62
     3
 10
1174.573971
 20
1562.959110
 11
1173.573971
 21
1561.959110
  0
LINE
  8
CSLAYER1
  6
CONTINUOUS
 62
     3
 10
1176.873971
 20
1582.959110
 11
1176.873971
 21
1558.959110
  0
LINE
  8
CSLAYER1
  6
CONTINUOUS
 62
     3
 10
1174.573971
 20
1558.959110
 11
1176.873971
 21
1558.959110
  0
LINE
  8
CSLAYER1
  6
CONTINUOUS
 62
     3
 10
1179.873971
 20
1581.928765
 11
1179.873971
 21
1559.989455
  0
LINE
  8
CSLAYER1
  6
CONTINUOUS
 62
     3
 10
1176.873971
 20
1560.209110
 11
1179.873971
 21
1560.209110
  0
LINE
  8
CSLAYER1
  6
CONTINUOUS
 62
     3
 10
1189.873971
 20
1570.959110
 11
1189.873971
 21
1561.459110
  0
LINE
  8
CSLAYER1
  6
CONTINUOUS
 62
     3
 10
1189.025466
 20
1559.989455
 11
1179.873971
 21
1559.989455
  0
LINE
  8
CSLAYER1
  6
CONTINUOUS
 62
     3
 10
1189.025466
 20
1565.474283
 11
1179.873971
 21
1565.474283
  0
LINE
  8
CSLAYER1
  6
CONTINUOUS
 62
     3
 10
1189.873971
 20
1561.459110
 11
1189.025466
 21
1559.989455
  0
ARC
  8
CSLAYER1
  6
CONTINUOUS
 62
     3
 10
1171.722477
 20
1570.959110
 40
18.151494
 50
-17.587954
 51
0.000000
  0
ARC
  8
CSLAYER1
  6
CONTINUOUS
 62
     3
 10
1185.020716
 20
1562.731869
 40
4.853746
 50
-25.597034
 51
34.402966
  0
LINE
  8
CSLAYER1
  6
CONTINUOUS
 62
     3
 10
1189.873971
 20
1570.959110
 11
1189.873971
 21
1580.459110
  0
LINE
  8
CSLAYER1
  6
CONTINUOUS
 62
     3
 10
1189.025466
 20
1581.928765
 11
1179.873971
 21
1581.928765
  0
LINE
  8
CSLAYER1
  6
CONTINUOUS
 62
     3
 10
1189.025466
 20
1576.443938
 11
1179.873971
 21
1576.443938
  0
LINE
  8
CSLAYER1
  6
CONTINUOUS
 62
     3
 10
1189.873971
 20
1580.459110
 11
1189.025466
 21
1581.928765
  0
ARC
  8
CSLAYER1
  6
CONTINUOUS
 62
     3
 10
1171.722477
 20
1570.959110
 40
18.151494
 50
-0.000000
 51
17.587954
  0
ARC
  8
CSLAYER1
  6
CONTINUOUS
 62
     3
 10
1185.020716
 20
1579.186352
 40
4.853746
 50
-34.402966
 51
25.597034
  0
LINE
  8
CSLAYER1
  6
CONTINUOUS
 62
     3
 10
1173.573971
 20
1570.959110
 11
1173.573971
 21
1579.959110
  0
LINE
  8
CSLAYER1
  6
CONTINUOUS
 62
     3
 10
1174.573971
 20
1578.959110
 11
1173.573971
 21
1579.959110
  0
LINE
  8
CSLAYER1
  6
CONTINUOUS
 62
     3
 10
1174.573971
 20
1582.959110
 11
1176.873971
 21
1582.959110
  0
LINE
  8
CSLAYER1
  6
CONTINUOUS
 62
     3
 10
1176.873971
 20
1581.709110
 11
1179.873971
 21
1581.709110
  0
LINE
  8
CSLAYER1
  6
CONTINUOUS
 62
     3
 10
1189.873971
 20
1565.759110
 11
1190.573971
 21
1565.759110
  0
LINE
  8
CSLAYER1
  6
CONTINUOUS
 62
     3
 10
1190.573971
 20
1565.759110
 11
1189.873971
 21
1564.959110
  0
LINE
  8
CSLAYER1
  6
CONTINUOUS
 62
     3
 10
1189.873971
 20
1576.159110
 11
1190.573971
 21
1576.159110
  0
LINE
  8
CSLAYER1
  6
CONTINUOUS
 62
     3
 10
1190.573971
 20
1576.159110
 11
1189.873971
 21
1576.959110
  0
POINT
  8
CSLAYER1
 62
     3
 10
1173.573971
 20
1570.959110
  0
ENDBLK
  8
0
  0
BLOCK
  8
CSLAYER1
  2
BLKF0003
 70
   64
 10
0.0
 20
0.0
 30
0.0
  0
LINE
  8
CSLAYER1
  6
CONTINUOUS
 62
     3
 10
1220.073971
 20
826.714627
 11
1239.073971
 21
826.714627
  0
LINE
  8
CSLAYER1
  6
CONTINUOUS
 62
     3
 10
1220.073971
 20
836.714627
 11
1239.073971
 21
836.714627
  0
LINE
  8
CSLAYER1
  6
CONTINUOUS
 62
     3
 10
1218.604316
 20
835.866121
 11
1218.604316
 21
827.563132
  0
LINE
  8
CSLAYER1
  6
CONTINUOUS
 62
     3
 10
1224.089144
 20
835.866121
 11
1224.089144
 21
827.563132
  0
LINE
  8
CSLAYER1
  6
CONTINUOUS
 62
     3
 10
1220.073971
 20
836.714627
 11
1218.604316
 21
835.866121
  0
ARC
  8
CSLAYER1
  6
CONTINUOUS
 62
     3
 10
1229.573971
 20
818.563132
 40
18.151494
 50
90.000000
 51
107.587954
  0
ARC
  8
CSLAYER1
  6
CONTINUOUS
 62
     3
 10
1221.346730
 20
831.872234
 40
4.844787
 50
55.524449
 51
115.524449
  0
LINE
  8
CSLAYER1
  6
CONTINUOUS
 62
     3
 10
1240.543626
 20
835.866121
 11
1240.543626
 21
827.563132
  0
LINE
  8
CSLAYER1
  6
CONTINUOUS
 62
     3
 10
1235.058799
 20
835.866121
 11
1235.058799
 21
827.563132
  0
LINE
  8
CSLAYER1
  6
CONTINUOUS
 62
     3
 10
1239.073971
 20
836.714627
 11
1240.543626
 21
835.866121
  0
ARC
  8
CSLAYER1
  6
CONTINUOUS
 62
     3
 10
1229.573971
 20
818.563132
 40
18.151494
 50
72.412046
 51
90.000000
  0
ARC
  8
CSLAYER1
  6
CONTINUOUS
 62
     3
 10
1237.801213
 20
831.872234
 40
4.844787
 50
64.475551
 51
124.475551
  0
LINE
  8
CSLAYER1
  6
CONTINUOUS
 62
     3
 10
1220.073971
 20
826.714627
 11
1239.073971
 21
826.714627
  0
LINE
  8
CSLAYER1
  6
CONTINUOUS
 62
     3
 10
1220.073971
 20
826.714627
 11
1218.604316
 21
827.563132
  0
ARC
  8
CSLAYER1
  6
CONTINUOUS
 62
     3
 10
1229.573971
 20
844.866121
 40
18.151494
 50
252.412046
 51
270.000000
  0
ARC
  8
CSLAYER1
  6
CONTINUOUS
 62
     3
 10
1221.346730
 20
831.557019
 40
4.844787
 50
244.475551
 51
304.475551
  0
LINE
  8
CSLAYER1
  6
CONTINUOUS
 62
     3
 10
1239.073971
 20
826.714627
 11
1240.543626
 21
827.563132
  0
ARC
  8
CSLAYER1
  6
CONTINUOUS
 62
     3
 10
1229.573971
 20
844.866121
 40
18.151494
 50
270.000000
 51
287.587954
  0
ARC
  8
CSLAYER1
  6
CONTINUOUS
 62
     3
 10
1237.801213
 20
831.557019
 40
4.844787
 50
235.524449
 51
295.524449
  0
POINT
  8
CSLAYER1
 62
     3
 10
1229.573971
 20
836.714627
  0
ENDBLK
  8
0
  0
BLOCK
  8
CSLAYER1
  2
BLKF0004
 70
   64
 10
0.0
 20
0.0
 30
0.0
  0
LINE
  8
CSLAYER1
  6
CONTINUOUS
 62
     3
 10
1161.073971
 20
1555.959110
 11
1164.073971
 21
1555.959110
  0
LINE
  8
CSLAYER1
  6
CONTINUOUS
 62
     3
 10
1161.073971
 20
1555.959110
 11
1161.073971
 21
1585.959110
  0
LINE
  8
CSLAYER1
  6
CONTINUOUS
 62
     3
 10
1164.073971
 20
1555.959110
 11
1164.073971
 21
1585.959110
  0
LINE
  8
CSLAYER1
  6
CONTINUOUS
 62
     3
 10
1161.073971
 20
1585.959110
 11
1164.073971
 21
1585.959110
  0
ENDBLK
  8
0
  0
BLOCK
  8
CSLAYER1
  2
BLKF0005
 70
   64
 10
0.0
 20
0.0
 30
0.0
  0
LINE
  8
CSLAYER1
  6
CONTINUOUS
 62
     3
 10
1161.073971
 20
962.129455
 11
1164.073971
 21
962.129455
  0
LINE
  8
CSLAYER1
  6
CONTINUOUS
 62
     3
 10
1161.073971
 20
962.129455
 11
1161.073971
 21
992.129455
  0
LINE
  8
CSLAYER1
  6
CONTINUOUS
 62
     3
 10
1164.073971
 20
962.129455
 11
1164.073971
 21
992.129455
  0
LINE
  8
CSLAYER1
  6
CONTINUOUS
 62
     3
 10
1161.073971
 20
992.129455
 11
1164.073971
 21
992.129455
  0
ENDBLK
  8
0
  0
BLOCK
  8
CSLAYER1
  2
BLKF0006
 70
   64
 10
0.0
 20
0.0
 30
0.0
  0
LINE
  8
CSLAYER1
  6
CONTINUOUS
 62
     3
 10
1161.073971
 20
1259.044282
 11
1164.073971
 21
1259.044282
  0
LINE
  8
CSLAYER1
  6
CONTINUOUS
 62
     3
 10
1161.073971
 20
1259.044282
 11
1161.073971
 21
1289.044282
  0
LINE
  8
CSLAYER1
  6
CONTINUOUS
 62
     3
 10
1164.073971
 20
1259.044282
 11
1164.073971
 21
1289.044282
  0
LINE
  8
CSLAYER1
  6
CONTINUOUS
 62
     3
 10
1161.073971
 20
1289.044282
 11
1164.073971
 21
1289.044282
  0
ENDBLK
  8
0
  0
BLOCK
  8
CSLAYER1
  2
BLKF0007
 70
   64
 10
0.0
 20
0.0
 30
0.0
  0
LINE
  8
CSLAYER1
  6
CONTINUOUS
 62
     4
 10
1086.573971
 20
998.020131
 11
1086.573971
 21
986.129455
  0
LINE
  8
CSLAYER1
  6
CONTINUOUS
 62
     4
 10
1097.573971
 20
986.129455
 11
1097.573971
 21
995.520131
  0
LINE
  8
CSLAYER1
  6
CONTINUOUS
 62
     4
 10
1103.573971
 20
986.129455
 11
1103.573971
 21
995.020131
  0
LINE
  8
CSLAYER1
  6
CONTINUOUS
 62
     4
 10
1102.573971
 20
996.020131
 11
1098.073971
 21
996.020131
  0
LINE
  8
CSLAYER1
  6
CONTINUOUS
 62
     4
 10
1103.573971
 20
995.020131
 11
1102.573971
 21
996.020131
  0
LINE
  8
CSLAYER1
  6
CONTINUOUS
 62
     4
 10
1098.073971
 20
996.020131
 11
1097.573971
 21
995.520131
  0
LINE
  8
CSLAYER1
  6
CONTINUOUS
 62
     4
 10
1102.573971
 20
996.020131
 11
1102.573971
 21
986.129455
  0
LINE
  8
CSLAYER1
  6
CONTINUOUS
 62
     4
 10
1098.073971
 20
996.020131
 11
1098.073971
 21
986.129455
  0
LINE
  8
CSLAYER1
  6
CONTINUOUS
 62
     4
 10
1097.573971
 20
992.020131
 11
1096.573971
 21
992.020131
  0
LINE
  8
CSLAYER1
  6
CONTINUOUS
 62
     4
 10
1087.573971
 20
992.020131
 11
1086.573971
 21
992.020131
  0
ENDBLK
  8
0
  0
BLOCK
  8
CSLAYER1
  2
BLKF0008
 70
   64
 10
0.0
 20
0.0
 30
0.0
  0
LINE
  8
CSLAYER1
  6
CONTINUOUS
 62
     3
 10
817.573971
 20
977.129455
 11
817.573971
 21
968.129455
  0
LINE
  8
CSLAYER1
  6
CONTINUOUS
 62
     3
 10
816.573971
 20
989.129455
 11
816.573971
 21
965.129455
  0
LINE
  8
CSLAYER1
  6
CONTINUOUS
 62
     3
 10
800.573971
 20
982.329455
 11
800.573971
 21
971.929455
  0
LINE
  8
CSLAYER1
  6
CONTINUOUS
 62
     3
 10
816.573971
 20
969.129455
 11
817.573971
 21
968.129455
  0
LINE
  8
CSLAYER1
  6
CONTINUOUS
 62
     3
 10
814.273971
 20
989.129455
 11
814.273971
 21
965.129455
  0
LINE
  8
CSLAYER1
  6
CONTINUOUS
 62
     3
 10
816.573971
 20
965.129455
 11
814.273971
 21
965.129455
  0
LINE
  8
CSLAYER1
  6
CONTINUOUS
 62
     3
 10
811.273971
 20
988.099110
 11
811.273971
 21
966.159799
  0
LINE
  8
CSLAYER1
  6
CONTINUOUS
 62
     3
 10
814.273971
 20
966.379455
 11
811.273971
 21
966.379455
  0
LINE
  8
CSLAYER1
  6
CONTINUOUS
 62
     3
 10
801.273971
 20
977.129455
 11
801.273971
 21
967.629455
  0
LINE
  8
CSLAYER1
  6
CONTINUOUS
 62
     3
 10
802.122477
 20
966.159799
 11
811.273971
 21
966.159799
  0
LINE
  8
CSLAYER1
  6
CONTINUOUS
 62
     3
 10
802.122477
 20
971.644627
 11
811.273971
 21
971.644627
  0
LINE
  8
CSLAYER1
  6
CONTINUOUS
 62
     3
 10
801.273971
 20
967.629455
 11
802.122477
 21
966.159799
  0
ARC
  8
CSLAYER1
  6
CONTINUOUS
 62
     3
 10
819.425466
 20
977.129455
 40
18.151494
 50
180.000000
 51
197.587954
  0
ARC
  8
CSLAYER1
  6
CONTINUOUS
 62
     3
 10
806.127227
 20
968.902213
 40
4.853746
 50
145.597034
 51
205.597034
  0
LINE
  8
CSLAYER1
  6
CONTINUOUS
 62
     3
 10
801.273971
 20
977.129455
 11
801.273971
 21
986.629455
  0
LINE
  8
CSLAYER1
  6
CONTINUOUS
 62
     3
 10
802.122477
 20
988.099110
 11
811.273971
 21
988.099110
  0
LINE
  8
CSLAYER1
  6
CONTINUOUS
 62
     3
 10
802.122477
 20
982.614282
 11
811.273971
 21
982.614282
  0
LINE
  8
CSLAYER1
  6
CONTINUOUS
 62
     3
 10
801.273971
 20
986.629455
 11
802.122477
 21
988.099110
  0
ARC
  8
CSLAYER1
  6
CONTINUOUS
 62
     3
 10
819.425466
 20
977.129455
 40
18.151494
 50
162.412046
 51
180.000000
  0
ARC
  8
CSLAYER1
  6
CONTINUOUS
 62
     3
 10
806.127227
 20
985.356696
 40
4.853746
 50
154.402966
 51
214.402966
  0
LINE
  8
CSLAYER1
  6
CONTINUOUS
 62
     3
 10
817.573971
 20
977.129455
 11
817.573971
 21
986.129455
  0
LINE
  8
CSLAYER1
  6
CONTINUOUS
 62
     3
 10
816.573971
 20
985.129455
 11
817.573971
 21
986.129455
  0
LINE
  8
CSLAYER1
  6
CONTINUOUS
 62
     3
 10
816.573971
 20
989.129455
 11
814.273971
 21
989.129455
  0
LINE
  8
CSLAYER1
  6
CONTINUOUS
 62
     3
 10
814.273971
 20
987.879455
 11
811.273971
 21
987.879455
  0
LINE
  8
CSLAYER1
  6
CONTINUOUS
 62
     3
 10
801.273971
 20
971.929455
 11
800.573971
 21
971.929455
  0
LINE
  8
CSLAYER1
  6
CONTINUOUS
 62
     3
 10
800.573971
 20
971.929455
 11
801.273971
 21
971.129455
  0
LINE
  8
CSLAYER1
  6
CONTINUOUS
 62
     3
 10
801.273971
 20
982.329455
 11
800.573971
 21
982.329455
  0
LINE
  8
CSLAYER1
  6
CONTINUOUS
 62
     3
 10
800.573971
 20
982.329455
 11
801.273971
 21
983.129455
  0
POINT
  8
CSLAYER1
 62
     3
 10
817.573971
 20
977.129455
  0
ENDBLK
  8
0
  0
BLOCK
  8
CSLAYER1
  2
BLKF0009
 70
   64
 10
0.0
 20
0.0
 30
0.0
  0
LINE
  8
CSLAYER1
  6
CONTINUOUS
 62
     3
 10
817.573971
 20
1570.959110
 11
817.573971
 21
1561.959110
  0
LINE
  8
CSLAYER1
  6
CONTINUOUS
 62
     3
 10
816.573971
 20
1582.959110
 11
816.573971
 21
1558.959110
  0
LINE
  8
CSLAYER1
  6
CONTINUOUS
 62
     3
 10
800.573971
 20
1576.159110
 11
800.573971
 21
1565.759110
  0
LINE
  8
CSLAYER1
  6
CONTINUOUS
 62
     3
 10
816.573971
 20
1562.959110
 11
817.573971
 21
1561.959110
  0
LINE
  8
CSLAYER1
  6
CONTINUOUS
 62
     3
 10
814.273971
 20
1582.959110
 11
814.273971
 21
1558.959110
  0
LINE
  8
CSLAYER1
  6
CONTINUOUS
 62
     3
 10
816.573971
 20
1558.959110
 11
814.273971
 21
1558.959110
  0
LINE
  8
CSLAYER1
  6
CONTINUOUS
 62
     3
 10
811.273971
 20
1581.928765
 11
811.273971
 21
1559.989455
  0
LINE
  8
CSLAYER1
  6
CONTINUOUS
 62
     3
 10
814.273971
 20
1560.209110
 11
811.273971
 21
1560.209110
  0
LINE
  8
CSLAYER1
  6
CONTINUOUS
 62
     3
 10
801.273971
 20
1570.959110
 11
801.273971
 21
1561.459110
  0
LINE
  8
CSLAYER1
  6
CONTINUOUS
 62
     3
 10
802.122477
 20
1559.989455
 11
811.273971
 21
1559.989455
  0
LINE
  8
CSLAYER1
  6
CONTINUOUS
 62
     3
 10
802.122477
 20
1565.474283
 11
811.273971
 21
1565.474283
  0
LINE
  8
CSLAYER1
  6
CONTINUOUS
 62
     3
 10
801.273971
 20
1561.459110
 11
802.122477
 21
1559.989455
  0
ARC
  8
CSLAYER1
  6
CONTINUOUS
 62
     3
 10
819.425466
 20
1570.959110
 40
18.151494
 50
180.000000
 51
197.587954
  0
ARC
  8
CSLAYER1
  6
CONTINUOUS
 62
     3
 10
806.127227
 20
1562.731869
 40
4.853746
 50
145.597034
 51
205.597034
  0
LINE
  8
CSLAYER1
  6
CONTINUOUS
 62
     3
 10
801.273971
 20
1570.959110
 11
801.273971
 21
1580.459110
  0
LINE
  8
CSLAYER1
  6
CONTINUOUS
 62
     3
 10
802.122477
 20
1581.928765
 11
811.273971
 21
1581.928765
  0
LINE
  8
CSLAYER1
  6
CONTINUOUS
 62
     3
 10
802.122477
 20
1576.443938
 11
811.273971
 21
1576.443938
  0
LINE
  8
CSLAYER1
  6
CONTINUOUS
 62
     3
 10
801.273971
 20
1580.459110
 11
802.122477
 21
1581.928765
  0
ARC
  8
CSLAYER1
  6
CONTINUOUS
 62
     3
 10
819.425466
 20
1570.959110
 40
18.151494
 50
162.412046
 51
180.000000
  0
ARC
  8
CSLAYER1
  6
CONTINUOUS
 62
     3
 10
806.127227
 20
1579.186352
 40
4.853746
 50
154.402966
 51
214.402966
  0
LINE
  8
CSLAYER1
  6
CONTINUOUS
 62
     3
 10
817.573971
 20
1570.959110
 11
817.573971
 21
1579.959110
  0
LINE
  8
CSLAYER1
  6
CONTINUOUS
 62
     3
 10
816.573971
 20
1578.959110
 11
817.573971
 21
1579.959110
  0
LINE
  8
CSLAYER1
  6
CONTINUOUS
 62
     3
 10
816.573971
 20
1582.959110
 11
814.273971
 21
1582.959110
  0
LINE
  8
CSLAYER1
  6
CONTINUOUS
 62
     3
 10
814.273971
 20
1581.709110
 11
811.273971
 21
1581.709110
  0
LINE
  8
CSLAYER1
  6
CONTINUOUS
 62
     3
 10
801.273971
 20
1565.759110
 11
800.573971
 21
1565.759110
  0
LINE
  8
CSLAYER1
  6
CONTINUOUS
 62
     3
 10
800.573971
 20
1565.759110
 11
801.273971
 21
1564.959110
  0
LINE
  8
CSLAYER1
  6
CONTINUOUS
 62
     3
 10
801.273971
 20
1576.159110
 11
800.573971
 21
1576.159110
  0
LINE
  8
CSLAYER1
  6
CONTINUOUS
 62
     3
 10
800.573971
 20
1576.159110
 11
801.273971
 21
1576.959110
  0
POINT
  8
CSLAYER1
 62
     3
 10
817.573971
 20
1570.959110
  0
ENDBLK
  8
0
  0
BLOCK
  8
CSLAYER1
  2
BLKF0010
 70
   64
 10
0.0
 20
0.0
 30
0.0
  0
LINE
  8
CSLAYER1
  6
CONTINUOUS
 62
     3
 10
771.073971
 20
826.714627
 11
752.073971
 21
826.714627
  0
LINE
  8
CSLAYER1
  6
CONTINUOUS
 62
     3
 10
771.073971
 20
836.714627
 11
752.073971
 21
836.714627
  0
LINE
  8
CSLAYER1
  6
CONTINUOUS
 62
     3
 10
772.543626
 20
835.866121
 11
772.543626
 21
827.563132
  0
LINE
  8
CSLAYER1
  6
CONTINUOUS
 62
     3
 10
767.058799
 20
835.866121
 11
767.058799
 21
827.563132
  0
LINE
  8
CSLAYER1
  6
CONTINUOUS
 62
     3
 10
771.073971
 20
836.714627
 11
772.543626
 21
835.866121
  0
ARC
  8
CSLAYER1
  6
CONTINUOUS
 62
     3
 10
761.573971
 20
818.563132
 40
18.151494
 50
72.412046
 51
90.000000
  0
ARC
  8
CSLAYER1
  6
CONTINUOUS
 62
     3
 10
769.801213
 20
831.872234
 40
4.844787
 50
64.475551
 51
124.475551
  0
LINE
  8
CSLAYER1
  6
CONTINUOUS
 62
     3
 10
750.604316
 20
835.866121
 11
750.604316
 21
827.563132
  0
LINE
  8
CSLAYER1
  6
CONTINUOUS
 62
     3
 10
756.089144
 20
835.866121
 11
756.089144
 21
827.563132
  0
LINE
  8
CSLAYER1
  6
CONTINUOUS
 62
     3
 10
752.073971
 20
836.714627
 11
750.604316
 21
835.866121
  0
ARC
  8
CSLAYER1
  6
CONTINUOUS
 62
     3
 10
761.573971
 20
818.563132
 40
18.151494
 50
90.000000
 51
107.587954
  0
ARC
  8
CSLAYER1
  6
CONTINUOUS
 62
     3
 10
753.346730
 20
831.872234
 40
4.844787
 50
55.524449
 51
115.524449
  0
LINE
  8
CSLAYER1
  6
CONTINUOUS
 62
     3
 10
771.073971
 20
826.714627
 11
752.073971
 21
826.714627
  0
LINE
  8
CSLAYER1
  6
CONTINUOUS
 62
     3
 10
771.073971
 20
826.714627
 11
772.543626
 21
827.563132
  0
ARC
  8
CSLAYER1
  6
CONTINUOUS
 62
     3
 10
761.573971
 20
844.866121
 40
18.151494
 50
270.000000
 51
287.587954
  0
ARC
  8
CSLAYER1
  6
CONTINUOUS
 62
     3
 10
769.801213
 20
831.557019
 40
4.844787
 50
235.524449
 51
295.524449
  0
LINE
  8
CSLAYER1
  6
CONTINUOUS
 62
     3
 10
752.073971
 20
826.714627
 11
750.604316
 21
827.563132
  0
ARC
  8
CSLAYER1
  6
CONTINUOUS
 62
     3
 10
761.573971
 20
844.866121
 40
18.151494
 50
252.412046
 51
270.000000
  0
ARC
  8
CSLAYER1
  6
CONTINUOUS
 62
     3
 10
753.346730
 20
831.557019
 40
4.844787
 50
244.475551
 51
304.475551
  0
POINT
  8
CSLAYER1
 62
     3
 10
761.573971
 20
836.714627
  0
ENDBLK
  8
0
  0
BLOCK
  8
CSLAYER1
  2
BLKF0011
 70
   64
 10
0.0
 20
0.0
 30
0.0
  0
LINE
  8
CSLAYER1
  6
CONTINUOUS
 62
     3
 10
830.073971
 20
1555.959110
 11
827.073971
 21
1555.959110
  0
LINE
  8
CSLAYER1
  6
CONTINUOUS
 62
     3
 10
830.073971
 20
1555.959110
 11
830.073971
 21
1585.959110
  0
LINE
  8
CSLAYER1
  6
CONTINUOUS
 62
     3
 10
827.073971
 20
1555.959110
 11
827.073971
 21
1585.959110
  0
LINE
  8
CSLAYER1
  6
CONTINUOUS
 62
     3
 10
830.073971
 20
1585.959110
 11
827.073971
 21
1585.959110
  0
ENDBLK
  8
0
  0
BLOCK
  8
CSLAYER1
  2
BLKF0012
 70
   64
 10
0.0
 20
0.0
 30
0.0
  0
LINE
  8
CSLAYER1
  6
CONTINUOUS
 62
     3
 10
830.073971
 20
962.129455
 11
827.073971
 21
962.129455
  0
LINE
  8
CSLAYER1
  6
CONTINUOUS
 62
     3
 10
830.073971
 20
962.129455
 11
830.073971
 21
992.129455
  0
LINE
  8
CSLAYER1
  6
CONTINUOUS
 62
     3
 10
827.073971
 20
962.129455
 11
827.073971
 21
992.129455
  0
LINE
  8
CSLAYER1
  6
CONTINUOUS
 62
     3
 10
830.073971
 20
992.129455
 11
827.073971
 21
992.129455
  0
ENDBLK
  8
0
  0
BLOCK
  8
CSLAYER1
  2
BLKF0013
 70
   64
 10
0.0
 20
0.0
 30
0.0
  0
LINE
  8
CSLAYER1
  6
CONTINUOUS
 62
     3
 10
830.073971
 20
1259.044282
 11
827.073971
 21
1259.044282
  0
LINE
  8
CSLAYER1
  6
CONTINUOUS
 62
     3
 10
830.073971
 20
1259.044282
 11
830.073971
 21
1289.044282
  0
LINE
  8
CSLAYER1
  6
CONTINUOUS
 62
     3
 10
827.073971
 20
1259.044282
 11
827.073971
 21
1289.044282
  0
LINE
  8
CSLAYER1
  6
CONTINUOUS
 62
     3
 10
830.073971
 20
1289.044282
 11
827.073971
 21
1289.044282
  0
ENDBLK
  8
0
  0
BLOCK
  8
CSLAYER1
  2
BLKF0014
 70
   64
 10
0.0
 20
0.0
 30
0.0
  0
LINE
  8
CSLAYER1
  6
CONTINUOUS
 62
     4
 10
904.573971
 20
998.020131
 11
904.573971
 21
986.129455
  0
LINE
  8
CSLAYER1
  6
CONTINUOUS
 62
     4
 10
893.573971
 20
986.129455
 11
893.573971
 21
995.520131
  0
LINE
  8
CSLAYER1
  6
CONTINUOUS
 62
     4
 10
887.573971
 20
986.129455
 11
887.573971
 21
995.020131
  0
LINE
  8
CSLAYER1
  6
CONTINUOUS
 62
     4
 10
888.573971
 20
996.020131
 11
893.073971
 21
996.020131
  0
LINE
  8
CSLAYER1
  6
CONTINUOUS
 62
     4
 10
887.573971
 20
995.020131
 11
888.573971
 21
996.020131
  0
LINE
  8
CSLAYER1
  6
CONTINUOUS
 62
     4
 10
893.073971
 20
996.020131
 11
893.573971
 21
995.520131
  0
LINE
  8
CSLAYER1
  6
CONTINUOUS
 62
     4
 10
888.573971
 20
996.020131
 11
888.573971
 21
986.129455
  0
LINE
  8
CSLAYER1
  6
CONTINUOUS
 62
     4
 10
893.073971
 20
996.020131
 11
893.073971
 21
986.129455
  0
LINE
  8
CSLAYER1
  6
CONTINUOUS
 62
     4
 10
893.573971
 20
992.020131
 11
894.573971
 21
992.020131
  0
LINE
  8
CSLAYER1
  6
CONTINUOUS
 62
     4
 10
903.573971
 20
992.020131
 11
904.573971
 21
992.020131
  0
ENDBLK
  8
0
  0
BLOCK
  8
CSLAYER1
  2
BLKF0015
 70
   64
 10
0.0
 20
0.0
 30
0.0
  0
LINE
  8
CSLAYER1
  6
CONTINUOUS
 62
     7
 10
1041.073971
 20
758.014627
 11
1041.073971
 21
755.814627
  0
LINE
  8
CSLAYER1
  6
CONTINUOUS
 62
     7
 10
1048.073971
 20
758.014627
 11
1048.073971
 21
755.814627
  0
LINE
  8
CSLAYER1
  6
CONTINUOUS
 62
     7
 10
1048.073971
 20
756.814627
 11
1041.073971
 21
756.814627
  0
LINE
  8
CSLAYER1
  6
CONTINUOUS
 62
     7
 10
1046.673971
 20
759.414627
 11
1042.473971
 21
759.414627
  0
LINE
  8
CSLAYER1
  6
CONTINUOUS
 62
     7
 10
1049.073971
 20
755.814627
 11
1049.073971
 21
755.014627
  0
LINE
  8
CSLAYER1
  6
CONTINUOUS
 62
     7
 10
1040.073971
 20
755.814627
 11
1040.073971
 21
755.014627
  0
LINE
  8
CSLAYER1
  6
CONTINUOUS
 62
     7
 10
1048.073971
 20
758.014627
 11
1048.073971
 21
756.814627
  0
LINE
  8
CSLAYER1
  6
CONTINUOUS
 62
     7
 10
1049.073971
 20
755.814627
 11
1040.073971
 21
755.814627
  0
LINE
  8
CSLAYER1
  6
CONTINUOUS
 62
     7
 10
1049.073971
 20
755.014627
 11
1040.073971
 21
755.014627
  0
ARC
  8
CSLAYER1
  6
CONTINUOUS
 62
     7
 10
1046.673971
 20
758.014627
 40
1.400000
 50
-0.000000
 51
90.000000
  0
ARC
  8
CSLAYER1
  6
CONTINUOUS
 62
     7
 10
1042.473971
 20
758.014627
 40
1.400000
 50
90.000000
 51
180.000000
  0
LINE
  8
CSLAYER1
  6
CONTINUOUS
 62
     7
 10
1045.613923
 20
755.814627
 11
1043.228721
 21
756.814627
  0
LINE
  8
CSLAYER1
  6
CENTER
 62
     5
 10
1044.573971
 20
761.242976
 11
1044.573971
 21
746.044798
  0
ENDBLK
  8
0
  0
BLOCK
  8
CSLAYER1
  2
BLKF0016
 70
   64
 10
0.0
 20
0.0
 30
0.0
  0
LINE
  8
CSLAYER1
  6
CONTINUOUS
 62
     7
 10
880.073971
 20
758.014627
 11
880.073971
 21
755.814627
  0
LINE
  8
CSLAYER1
  6
CONTINUOUS
 62
     7
 10
873.073971
 20
758.014627
 11
873.073971
 21
755.814627
  0
LINE
  8
CSLAYER1
  6
CONTINUOUS
 62
     7
 10
873.073971
 20
756.814627
 11
880.073971
 21
756.814627
  0
LINE
  8
CSLAYER1
  6
CONTINUOUS
 62
     7
 10
874.473971
 20
759.414627
 11
878.673971
 21
759.414627
  0
LINE
  8
CSLAYER1
  6
CONTINUOUS
 62
     7
 10
872.073971
 20
755.814627
 11
872.073971
 21
755.014627
  0
LINE
  8
CSLAYER1
  6
CONTINUOUS
 62
     7
 10
881.073971
 20
755.814627
 11
881.073971
 21
755.014627
  0
LINE
  8
CSLAYER1
  6
CONTINUOUS
 62
     7
 10
873.073971
 20
758.014627
 11
873.073971
 21
756.814627
  0
LINE
  8
CSLAYER1
  6
CONTINUOUS
 62
     7
 10
872.073971
 20
755.814627
 11
881.073971
 21
755.814627
  0
LINE
  8
CSLAYER1
  6
CONTINUOUS
 62
     7
 10
872.073971
 20
755.014627
 11
881.073971
 21
755.014627
  0
ARC
  8
CSLAYER1
  6
CONTINUOUS
 62
     7
 10
874.473971
 20
758.014627
 40
1.400000
 50
90.000000
 51
180.000000
  0
ARC
  8
CSLAYER1
  6
CONTINUOUS
 62
     7
 10
878.673971
 20
758.014627
 40
1.400000
 50
0.000000
 51
90.000000
  0
LINE
  8
CSLAYER1
  6
CONTINUOUS
 62
     7
 10
875.534019
 20
755.814627
 11
877.919222
 21
756.814627
  0
LINE
  8
CSLAYER1
  6
CENTER
 62
     5
 10
876.573971
 20
761.242976
 11
876.573971
 21
746.044798
  0
ENDBLK
  8
0
  0
BLOCK
  8
CSLAYER1
  2
BLKF0017
 70
   64
 10
0.0
 20
0.0
 30
0.0
  0
LINE
  8
CSLAYER1
  6
CONTINUOUS
 62
     7
 10
1151.573971
 20
780.933505
 11
1107.418551
 21
780.933505
  0
LINE
  8
CSLAYER1
  6
CONTINUOUS
 62
     7
 10
1151.573971
 20
770.933505
 11
1109.073971
 21
770.933505
  0
ENDBLK
  8
0
  0
BLOCK
  8
CSLAYER1
  2
BLKF0018
 70
   64
 10
0.0
 20
0.0
 30
0.0
  0
LINE
  8
CSLAYER1
  6
CONTINUOUS
 62
     7
 10
1095.573971
 20
733.220376
 11
1095.573971
 21
741.220376
  0
LINE
  8
CSLAYER1
  6
CONTINUOUS
 62
     7
 10
1151.573971
 20
742.220376
 11
1096.573971
 21
742.220376
  0
LINE
  8
CSLAYER1
  6
CONTINUOUS
 62
     7
 10
1151.573971
 20
732.220376
 11
1096.573971
 21
732.220376
  0
LINE
  8
CSLAYER1
  6
CONTINUOUS
 62
     7
 10
1096.573971
 20
732.220376
 11
1096.573971
 21
742.220376
  0
LINE
  8
CSLAYER1
  6
CONTINUOUS
 62
     7
 10
1095.573971
 20
733.220376
 11
1096.573971
 21
732.220376
  0
LINE
  8
CSLAYER1
  6
CONTINUOUS
 62
     7
 10
1095.573971
 20
741.220376
 11
1096.573971
 21
742.220376
  0
ENDBLK
  8
0
  0
BLOCK
  8
CSLAYER1
  2
BLKF0019
 70
   64
 10
0.0
 20
0.0
 30
0.0
  0
POINT
  8
CSLAYER1
 62
     7
 10
2499.247324
 20
1867.873938
  0
POINT
  8
CSLAYER1
 62
     3
 10
2041.135615
 20
1867.873938
  0
LINE
  8
CSLAYER1
  6
CONTINUOUS
 62
     3
 10
2091.784054
 20
1858.073938
 11
2055.135615
 21
1858.073938
  0
LINE
  8
CSLAYER1
  6
CONTINUOUS
 62
     3
 10
2017.135615
 20
1858.073938
 11
2017.135615
 21
1850.873938
  0
LINE
  8
CSLAYER1
  6
CONTINUOUS
 62
     3
 10
2042.135615
 20
1855.873938
 11
2055.135615
 21
1855.873938
  0
LINE
  8
CSLAYER1
  6
CONTINUOUS
 62
     3
 10
2055.135615
 20
1858.073938
 11
2055.135615
 21
1855.873938
  0
LINE
  8
CSLAYER1
  6
CONTINUOUS
 62
     3
 10
2017.135615
 20
1858.073938
 11
2013.935615
 21
1858.073938
  0
LINE
  8
CSLAYER1
  6
CONTINUOUS
 62
     4
 10
2018.135615
 20
1849.873938
 11
2041.135615
 21
1849.873938
  0
LINE
  8
CSLAYER1
  6
CONTINUOUS
 62
     4
 10
2017.135615
 20
1850.873938
 11
2042.135615
 21
1850.873938
  0
LINE
  8
CSLAYER1
  6
CONTINUOUS
 62
     4
 10
2042.135615
 20
1858.073938
 11
2042.135615
 21
1850.873938
  0
LINE
  8
CSLAYER1
  6
CONTINUOUS
 62
     4
 10
2018.135615
 20
1849.873938
 11
2017.135615
 21
1850.873938
  0
LINE
  8
CSLAYER1
  6
CONTINUOUS
 62
     4
 10
2041.135615
 20
1849.873938
 11
2042.135615
 21
1850.873938
  0
POINT
  8
CSLAYER1
 62
     7
 10
2041.135615
 20
1867.873938
  0
ARC
  8
CSLAYER1
  6
DASHED
 62
     5
 10
2499.247324
 20
1867.873938
 40
18.500000
 50
0.000000
 51
211.987196
  0
ARC
  8
CSLAYER1
  6
CONTINUOUS
 62
     3
 10
2499.247324
 20
1867.873938
 40
18.500000
 50
211.987196
 51
328.012804
  0
ARC
  8
CSLAYER1
  6
DASHED
 62
     5
 10
2499.247324
 20
1867.873938
 40
18.500000
 50
328.012804
 51
360.000000
  0
CIRCLE
  8
CSLAYER1
  6
DASHED
 62
     5
 10
2499.247324
 20
1867.873938
 40
6.000000
  0
LINE
  8
CSLAYER1
  6
CENTER
 62
     5
 10
2020.074722
 20
1867.873938
 11
2062.065030
 21
1867.873938
  0
LINE
  8
CSLAYER1
  6
CENTER
 62
     5
 10
2041.135615
 20
1889.176655
 11
2041.135615
 21
1846.372581
  0
LINE
  8
CSLAYER1
  6
CENTER
 62
     5
 10
2499.247324
 20
1891.289570
 11
2499.247324
 21
1844.783301
  0
LINE
  8
CSLAYER1
  6
CENTER
 62
     5
 10
2476.572842
 20
1867.873938
 11
2523.544173
 21
1867.873938
  0
LINE
  8
CSLAYER1
  6
CONTINUOUS
 62
     3
 10
2013.935615
 20
1903.073938
 11
2813.935615
 21
1903.073938
  0
LINE
  8
CSLAYER1
  6
CONTINUOUS
 62
     3
 10
2013.935615
 20
1858.073938
 11
2813.935615
 21
1858.073938
  0
LINE
  8
CSLAYER1
  6
CONTINUOUS
 62
     3
 10
2813.935615
 20
1903.073938
 11
2813.935615
 21
1858.073938
  0
LINE
  8
CSLAYER1
  6
CONTINUOUS
 62
     3
 10
2013.935615
 20
1903.073938
 11
2013.935615
 21
1858.073938
  0
ENDBLK
  8
0
  0
BLOCK
  8
CSLAYER1
  2
BLKF0020
 70
   64
 10
0.0
 20
0.0
 30
0.0
  0
LINE
  8
CSLAYER1
  6
CONTINUOUS
 62
     4
 10
1178.073971
 20
1283.859237
 11
1178.073971
 21
1264.229328
  0
LINE
  8
CSLAYER1
  6
CONTINUOUS
 62
     4
 10
1185.073971
 20
1282.544282
 11
1185.073971
 21
1265.544282
  0
LINE
  8
CSLAYER1
  6
CONTINUOUS
 62
     4
 10
1175.573971
 20
1284.544282
 11
1175.573971
 21
1263.544282
  0
LINE
  8
CSLAYER1
  6
CONTINUOUS
 62
     4
 10
1173.573971
 20
1284.544282
 11
1173.573971
 21
1263.544282
  0
LINE
  8
CSLAYER1
  6
CONTINUOUS
 62
     4
 10
1173.573971
 20
1284.544282
 11
1175.573971
 21
1284.544282
  0
LINE
  8
CSLAYER1
  6
CONTINUOUS
 62
     4
 10
1175.573971
 20
1283.244282
 11
1178.073971
 21
1283.244282
  0
LINE
  8
CSLAYER1
  6
CONTINUOUS
 62
     4
 10
1173.573971
 20
1263.544282
 11
1175.573971
 21
1263.544282
  0
LINE
  8
CSLAYER1
  6
CONTINUOUS
 62
     4
 10
1175.573971
 20
1264.844282
 11
1178.073971
 21
1264.844282
  0
LINE
  8
CSLAYER1
  6
CONTINUOUS
 62
     4
 10
1178.073971
 20
1283.859237
 11
1184.314782
 21
1283.859237
  0
LINE
  8
CSLAYER1
  6
CONTINUOUS
 62
     4
 10
1178.073971
 20
1278.951760
 11
1184.314782
 21
1278.951760
  0
LINE
  8
CSLAYER1
  6
CONTINUOUS
 62
     4
 10
1185.073971
 20
1282.544282
 11
1184.314782
 21
1283.859237
  0
ARC
  8
CSLAYER1
  6
CONTINUOUS
 62
     4
 10
1168.833161
 20
1274.044282
 40
16.240811
 50
0.000000
 51
17.587954
  0
ARC
  8
CSLAYER1
  6
CONTINUOUS
 62
     4
 10
1180.734189
 20
1281.405498
 40
4.340677
 50
-34.422385
 51
25.577615
  0
LINE
  8
CSLAYER1
  6
CONTINUOUS
 62
     4
 10
1178.073971
 20
1264.229328
 11
1184.314782
 21
1264.229328
  0
LINE
  8
CSLAYER1
  6
CONTINUOUS
 62
     4
 10
1178.073971
 20
1269.136805
 11
1184.314782
 21
1269.136805
  0
LINE
  8
CSLAYER1
  6
CONTINUOUS
 62
     4
 10
1185.073971
 20
1265.544282
 11
1184.314782
 21
1264.229328
  0
ARC
  8
CSLAYER1
  6
CONTINUOUS
 62
     4
 10
1168.833161
 20
1274.044282
 40
16.240811
 50
342.412046
 51
360.000000
  0
ARC
  8
CSLAYER1
  6
CONTINUOUS
 62
     4
 10
1180.734189
 20
1266.683066
 40
4.340677
 50
-25.577615
 51
34.422385
  0
LINE
  8
CSLAYER1
  6
CONTINUOUS
 62
     4
 10
1178.073971
 20
1275.409236
 11
1175.573971
 21
1272.667300
  0
ENDBLK
  8
0
  0
BLOCK
  8
CSLAYER1
  2
BLKF0021
 70
   64
 10
0.0
 20
0.0
 30
0.0
  0
LINE
  8
CSLAYER1
  6
CONTINUOUS
 62
     4
 10
813.073971
 20
1283.859237
 11
813.073971
 21
1264.229328
  0
LINE
  8
CSLAYER1
  6
CONTINUOUS
 62
     4
 10
806.073971
 20
1282.544282
 11
806.073971
 21
1265.544282
  0
LINE
  8
CSLAYER1
  6
CONTINUOUS
 62
     4
 10
815.573971
 20
1284.544282
 11
815.573971
 21
1263.544282
  0
LINE
  8
CSLAYER1
  6
CONTINUOUS
 62
     4
 10
817.573971
 20
1284.544282
 11
817.573971
 21
1263.544282
  0
LINE
  8
CSLAYER1
  6
CONTINUOUS
 62
     4
 10
817.573971
 20
1284.544282
 11
815.573971
 21
1284.544282
  0
LINE
  8
CSLAYER1
  6
CONTINUOUS
 62
     4
 10
815.573971
 20
1283.244282
 11
813.073971
 21
1283.244282
  0
LINE
  8
CSLAYER1
  6
CONTINUOUS
 62
     4
 10
817.573971
 20
1263.544282
 11
815.573971
 21
1263.544282
  0
LINE
  8
CSLAYER1
  6
CONTINUOUS
 62
     4
 10
815.573971
 20
1264.844282
 11
813.073971
 21
1264.844282
  0
LINE
  8
CSLAYER1
  6
CONTINUOUS
 62
     4
 10
813.073971
 20
1283.859237
 11
806.833161
 21
1283.859237
  0
LINE
  8
CSLAYER1
  6
CONTINUOUS
 62
     4
 10
813.073971
 20
1278.951760
 11
806.833161
 21
1278.951760
  0
LINE
  8
CSLAYER1
  6
CONTINUOUS
 62
     4
 10
806.073971
 20
1282.544282
 11
806.833161
 21
1283.859237
  0
ARC
  8
CSLAYER1
  6
CONTINUOUS
 62
     4
 10
822.314782
 20
1274.044282
 40
16.240811
 50
162.412046
 51
180.000000
  0
ARC
  8
CSLAYER1
  6
CONTINUOUS
 62
     4
 10
810.413754
 20
1281.405498
 40
4.340677
 50
154.422385
 51
214.422385
  0
LINE
  8
CSLAYER1
  6
CONTINUOUS
 62
     4
 10
813.073971
 20
1264.229328
 11
806.833161
 21
1264.229328
  0
LINE
  8
CSLAYER1
  6
CONTINUOUS
 62
     4
 10
813.073971
 20
1269.136805
 11
806.833161
 21
1269.136805
  0
LINE
  8
CSLAYER1
  6
CONTINUOUS
 62
     4
 10
806.073971
 20
1265.544282
 11
806.833161
 21
1264.229328
  0
ARC
  8
CSLAYER1
  6
CONTINUOUS
 62
     4
 10
822.314782
 20
1274.044282
 40
16.240811
 50
180.000000
 51
197.587954
  0
ARC
  8
CSLAYER1
  6
CONTINUOUS
 62
     4
 10
810.413754
 20
1266.683066
 40
4.340677
 50
145.577615
 51
205.577615
  0
LINE
  8
CSLAYER1
  6
CONTINUOUS
 62
     4
 10
813.073971
 20
1275.409236
 11
815.573971
 21
1272.667300
  0
ENDBLK
  8
0
  0
BLOCK
  8
CSLAYER1
  2
BLKF0022
 70
   64
 10
0.0
 20
0.0
 30
0.0
  0
CIRCLE
  8
CSLAYER1
  6
CONTINUOUS
 62
     4
 10
2041.135615
 20
1274.044282
 40
10.500000
  0
ARC
  8
CSLAYER1
  6
CONTINUOUS
 62
     4
 10
2041.135615
 20
1274.044282
 40
9.200000
 50
97.505018
 51
142.494982
  0
CIRCLE
  8
CSLAYER1
  6
CONTINUOUS
 62
     4
 10
2041.135615
 20
1274.044282
 40
8.500000
  0
LINE
  8
CSLAYER1
  6
CONTINUOUS
 62
     4
 10
2049.635615
 20
1278.951760
 11
2041.135615
 21
1283.859237
  0
LINE
  8
CSLAYER1
  6
CONTINUOUS
 62
     4
 10
2041.135615
 20
1283.859237
 11
2032.635615
 21
1278.951760
  0
LINE
  8
CSLAYER1
  6
CONTINUOUS
 62
     4
 10
2032.635615
 20
1278.951760
 11
2032.635615
 21
1269.136805
  0
LINE
  8
CSLAYER1
  6
CONTINUOUS
 62
     4
 10
2032.635615
 20
1269.136805
 11
2041.135615
 21
1264.229328
  0
LINE
  8
CSLAYER1
  6
CONTINUOUS
 62
     4
 10
2041.135615
 20
1264.229328
 11
2049.635615
 21
1269.136805
  0
LINE
  8
CSLAYER1
  6
CONTINUOUS
 62
     4
 10
2049.635615
 20
1269.136805
 11
2049.635615
 21
1278.951760
  0
ARC
  8
CSLAYER1
  6
CONTINUOUS
 62
     4
 10
2041.135615
 20
1274.044282
 40
9.200000
 50
37.505018
 51
82.494982
  0
ARC
  8
CSLAYER1
  6
CONTINUOUS
 62
     4
 10
2041.135615
 20
1274.044282
 40
9.200000
 50
-22.494982
 51
22.494982
  0
ARC
  8
CSLAYER1
  6
CONTINUOUS
 62
     4
 10
2041.135615
 20
1274.044282
 40
9.200000
 50
277.505018
 51
322.494982
  0
ARC
  8
CSLAYER1
  6
CONTINUOUS
 62
     4
 10
2041.135615
 20
1274.044282
 40
9.200000
 50
217.505018
 51
262.494982
  0
ARC
  8
CSLAYER1
  6
CONTINUOUS
 62
     4
 10
2041.135615
 20
1274.044282
 40
9.200000
 50
157.505018
 51
202.494982
  0
ENDBLK
  8
0
  0
BLOCK
  8
CSLAYER1
  2
BLKF0023
 70
   64
 10
0.0
 20
0.0
 30
0.0
  0
CIRCLE
  8
CSLAYER1
  6
CONTINUOUS
 62
     4
 10
2499.247324
 20
1274.044282
 40
10.500000
  0
ARC
  8
CSLAYER1
  6
CONTINUOUS
 62
     4
 10
2499.247324
 20
1274.044282
 40
9.200000
 50
97.505018
 51
142.494982
  0
CIRCLE
  8
CSLAYER1
  6
CONTINUOUS
 62
     4
 10
2499.247324
 20
1274.044282
 40
8.500000
  0
LINE
  8
CSLAYER1
  6
CONTINUOUS
 62
     4
 10
2507.747324
 20
1278.951760
 11
2499.247324
 21
1283.859237
  0
LINE
  8
CSLAYER1
  6
CONTINUOUS
 62
     4
 10
2499.247324
 20
1283.859237
 11
2490.747324
 21
1278.951760
  0
LINE
  8
CSLAYER1
  6
CONTINUOUS
 62
     4
 10
2490.747324
 20
1278.951760
 11
2490.747324
 21
1269.136805
  0
LINE
  8
CSLAYER1
  6
CONTINUOUS
 62
     4
 10
2490.747324
 20
1269.136805
 11
2499.247324
 21
1264.229328
  0
LINE
  8
CSLAYER1
  6
CONTINUOUS
 62
     4
 10
2499.247324
 20
1264.229328
 11
2507.747324
 21
1269.136805
  0
LINE
  8
CSLAYER1
  6
CONTINUOUS
 62
     4
 10
2507.747324
 20
1269.136805
 11
2507.747324
 21
1278.951760
  0
ARC
  8
CSLAYER1
  6
CONTINUOUS
 62
     4
 10
2499.247324
 20
1274.044282
 40
9.200000
 50
37.505018
 51
82.494982
  0
ARC
  8
CSLAYER1
  6
CONTINUOUS
 62
     4
 10
2499.247324
 20
1274.044282
 40
9.200000
 50
-22.494982
 51
22.494982
  0
ARC
  8
CSLAYER1
  6
CONTINUOUS
 62
     4
 10
2499.247324
 20
1274.044282
 40
9.200000
 50
277.505018
 51
322.494982
  0
ARC
  8
CSLAYER1
  6
CONTINUOUS
 62
     4
 10
2499.247324
 20
1274.044282
 40
9.200000
 50
217.505018
 51
262.494982
  0
ARC
  8
CSLAYER1
  6
CONTINUOUS
 62
     4
 10
2499.247324
 20
1274.044282
 40
9.200000
 50
157.505018
 51
202.494982
  0
ENDBLK
  8
0
  0
BLOCK
  8
CSLAYER1
  2
BLKF0024
 70
   64
 10
0.0
 20
0.0
 30
0.0
  0
CIRCLE
  8
CSLAYER1
  6
CONTINUOUS
 62
     4
 10
2270.191469
 20
1570.959110
 40
12.000000
  0
CIRCLE
  8
CSLAYER1
  6
CONTINUOUS
 62
     4
 10
2270.191469
 20
1570.959110
 40
6.000000
  0
CIRCLE
  8
CSLAYER1
  6
CONTINUOUS
 62
     4
 10
2270.191469
 20
1570.959110
 40
5.200000
  0
CIRCLE
  8
CSLAYER1
  6
CONTINUOUS
 62
     4
 10
2270.191469
 20
1570.959110
 40
9.500000
  0
LINE
  8
CSLAYER1
  6
CONTINUOUS
 62
     4
 10
2279.691469
 20
1576.443938
 11
2270.191469
 21
1581.928765
  0
LINE
  8
CSLAYER1
  6
CONTINUOUS
 62
     4
 10
2270.191469
 20
1581.928765
 11
2260.691469
 21
1576.443938
  0
LINE
  8
CSLAYER1
  6
CONTINUOUS
 62
     4
 10
2260.691469
 20
1576.443938
 11
2260.691469
 21
1565.474283
  0
LINE
  8
CSLAYER1
  6
CONTINUOUS
 62
     4
 10
2260.691469
 20
1565.474283
 11
2270.191469
 21
1559.989455
  0
LINE
  8
CSLAYER1
  6
CONTINUOUS
 62
     4
 10
2270.191469
 20
1559.989455
 11
2279.691469
 21
1565.474283
  0
LINE
  8
CSLAYER1
  6
CONTINUOUS
 62
     4
 10
2279.691469
 20
1565.474283
 11
2279.691469
 21
1576.443938
  0
ENDBLK
  8
0
  0
BLOCK
  8
CSLAYER1
  2
BLKF0025
 70
   64
 10
0.0
 20
0.0
 30
0.0
  0
CIRCLE
  8
CSLAYER1
  6
CONTINUOUS
 62
     4
 10
2270.191469
 20
977.129455
 40
12.000000
  0
CIRCLE
  8
CSLAYER1
  6
CONTINUOUS
 62
     4
 10
2270.191469
 20
977.129455
 40
6.000000
  0
CIRCLE
  8
CSLAYER1
  6
CONTINUOUS
 62
     4
 10
2270.191469
 20
977.129455
 40
5.200000
  0
CIRCLE
  8
CSLAYER1
  6
CONTINUOUS
 62
     4
 10
2270.191469
 20
977.129455
 40
9.500000
  0
LINE
  8
CSLAYER1
  6
CONTINUOUS
 62
     4
 10
2279.691469
 20
982.614282
 11
2270.191469
 21
988.099110
  0
LINE
  8
CSLAYER1
  6
CONTINUOUS
 62
     4
 10
2270.191469
 20
988.099110
 11
2260.691469
 21
982.614282
  0
LINE
  8
CSLAYER1
  6
CONTINUOUS
 62
     4
 10
2260.691469
 20
982.614282
 11
2260.691469
 21
971.644627
  0
LINE
  8
CSLAYER1
  6
CONTINUOUS
 62
     4
 10
2260.691469
 20
971.644627
 11
2270.191469
 21
966.159799
  0
LINE
  8
CSLAYER1
  6
CONTINUOUS
 62
     4
 10
2270.191469
 20
966.159799
 11
2279.691469
 21
971.644627
  0
LINE
  8
CSLAYER1
  6
CONTINUOUS
 62
     4
 10
2279.691469
 20
971.644627
 11
2279.691469
 21
982.614282
  0
ENDBLK
  8
0
  0
BLOCK
  8
CSLAYER1
  2
BLKF0026
 70
   64
 10
0.0
 20
0.0
 30
0.0
  0
LINE
  8
CSLAYER1
  6
CONTINUOUS
 62
     3
 10
1604.083462
 20
2623.750545
 11
1604.083462
 21
2561.750545
  0
LINE
  8
CSLAYER1
  6
CONTINUOUS
 62
     3
 10
1601.583462
 20
2626.250545
 11
1516.583462
 21
2626.250545
  0
LINE
  8
CSLAYER1
  6
CENTER
 62
     5
 10
1662.433101
 20
2553.750545
 11
1604.083462
 21
2553.750545
  0
LINE
  8
CSLAYER1
  6
CONTINUOUS
 62
     2
 10
1601.583462
 20
2569.750545
 11
1516.583462
 21
2569.750545
  0
LINE
  8
CSLAYER1
  6
CONTINUOUS
 62
     3
 10
1601.583462
 20
2621.250545
 11
1601.583462
 21
2576.250545
  0
LINE
  8
CSLAYER1
  6
CONTINUOUS
 62
     3
 10
1514.083462
 20
2623.750545
 11
1514.083462
 21
2553.750545
  0
LINE
  8
CSLAYER1
  6
CONTINUOUS
 62
     3
 10
1599.083462
 20
2623.750545
 11
1522.083462
 21
2623.750545
  0
LINE
  8
CSLAYER1
  6
CONTINUOUS
 62
     3
 10
1599.083462
 20
2573.750545
 11
1522.083462
 21
2573.750545
  0
ARC
  8
CSLAYER1
  6
CONTINUOUS
 62
     3
 10
1576.151644
 20
2598.750545
 40
59.568182
 50
155.185163
 51
204.814837
  0
ARC
  8
CSLAYER1
  6
CONTINUOUS
 62
     3
 10
1599.083462
 20
2621.250545
 40
2.500000
 50
0.000000
 51
90.000000
  0
ARC
  8
CSLAYER1
  6
CONTINUOUS
 62
     3
 10
1599.083462
 20
2576.250545
 40
2.500000
 50
270.000000
 51
360.000000
  0
ARC
  8
CSLAYER1
  6
CONTINUOUS
 62
     3
 10
1601.583462
 20
2623.750545
 40
2.500000
 50
0.000000
 51
90.000000
  0
ARC
  8
CSLAYER1
  6
CONTINUOUS
 62
     3
 10
1516.583462
 20
2623.750545
 40
2.500000
 50
90.000000
 51
180.000000
  0
ARC
  8
CSLAYER1
  6
CONTINUOUS
 62
     2
 10
1516.583462
 20
2567.250545
 40
2.500000
 50
90.000000
 51
180.000000
  0
ARC
  8
CSLAYER1
  6
CONTINUOUS
 62
     2
 10
1601.583462
 20
2567.250545
 40
2.500000
 50
0.000000
 51
90.000000
  0
LINE
  8
CSLAYER1
  6
CONTINUOUS
 62
     3
 10
1604.083462
 20
2483.750545
 11
1604.083462
 21
2545.750545
  0
LINE
  8
CSLAYER1
  6
CONTINUOUS
 62
     3
 10
1601.583462
 20
2481.250545
 11
1516.583462
 21
2481.250545
  0
LINE
  8
CSLAYER1
  6
CONTINUOUS
 62
     2
 10
1601.583462
 20
2537.750545
 11
1516.583462
 21
2537.750545
  0
LINE
  8
CSLAYER1
  6
CONTINUOUS
 62
     3
 10
1514.083462
 20
2483.750545
 11
1514.083462
 21
2553.750545
  0
ARC
  8
CSLAYER1
  6
CONTINUOUS
 62
     3
 10
1601.583462
 20
2483.750545
 40
2.500000
 50
270.000000
 51
360.000000
  0
ARC
  8
CSLAYER1
  6
CONTINUOUS
 62
     3
 10
1516.583462
 20
2483.750545
 40
2.500000
 50
180.000000
 51
270.000000
  0
ARC
  8
CSLAYER1
  6
CONTINUOUS
 62
     2
 10
1516.583462
 20
2540.250545
 40
2.500000
 50
180.000000
 51
270.000000
  0
ARC
  8
CSLAYER1
  6
CONTINUOUS
 62
     2
 10
1601.583462
 20
2540.250545
 40
2.500000
 50
270.000000
 51
360.000000
  0
LINE
  8
CSLAYER1
  6
CONTINUOUS
 62
     3
 10
1601.583462
 20
2486.250545
 11
1601.583462
 21
2531.250545
  0
LINE
  8
CSLAYER1
  6
CONTINUOUS
 62
     3
 10
1599.083462
 20
2483.750545
 11
1522.083462
 21
2483.750545
  0
LINE
  8
CSLAYER1
  6
CONTINUOUS
 62
     3
 10
1599.083462
 20
2533.750545
 11
1522.083462
 21
2533.750545
  0
ARC
  8
CSLAYER1
  6
CONTINUOUS
 62
     3
 10
1576.151644
 20
2508.750545
 40
59.568182
 50
155.185163
 51
204.814837
  0
ARC
  8
CSLAYER1
  6
CONTINUOUS
 62
     3
 10
1599.083462
 20
2486.250545
 40
2.500000
 50
270.000000
 51
360.000000
  0
ARC
  8
CSLAYER1
  6
CONTINUOUS
 62
     3
 10
1599.083462
 20
2531.250545
 40
2.500000
 50
0.000000
 51
90.000000
  0
LINE
  8
CSLAYER1
  6
CONTINUOUS
 62
     3
 10
1611.083462
 20
2546.750545
 11
1611.083462
 21
2550.250545
  0
LINE
  8
CSLAYER1
  6
CONTINUOUS
 62
     3
 10
1662.433101
 20
2550.250545
 11
1611.083462
 21
2550.250545
  0
LINE
  8
CSLAYER1
  6
CONTINUOUS
 62
     3
 10
1610.083462
 20
2545.750545
 11
1604.083462
 21
2545.750545
  0
LINE
  8
CSLAYER1
  6
CONTINUOUS
 62
     3
 10
1610.083462
 20
2561.750545
 11
1604.083462
 21
2561.750545
  0
LINE
  8
CSLAYER1
  6
CONTINUOUS
 62
     3
 10
1662.433101
 20
2557.250545
 11
1611.083462
 21
2557.250545
  0
ARC
  8
CSLAYER1
  6
CONTINUOUS
 62
     3
 10
1610.083462
 20
2560.750545
 40
1.000000
 50
0.000000
 51
90.000000
  0
ARC
  8
CSLAYER1
  6
CONTINUOUS
 62
     3
 10
1610.083462
 20
2546.750545
 40
1.000000
 50
270.000000
 51
360.000000
  0
LINE
  8
CSLAYER1
  6
CONTINUOUS
 62
     3
 10
1611.083462
 20
2557.250545
 11
1611.083462
 21
2560.750545
  0
LINE
  8
CSLAYER1
  6
CONTINUOUS
 62
     2
 10
1611.083462
 20
2550.250545
 11
1611.083462
 21
2557.250545
  0
LINE
  8
CSLAYER1
  6
CONTINUOUS
 62
     2
 10
1604.083462
 20
2561.750545
 11
1604.083462
 21
2553.750545
  0
LINE
  8
CSLAYER1
  6
CONTINUOUS
 62
     2
 10
1604.083462
 20
2545.750545
 11
1604.083462
 21
2553.750545
  0
LINE
  8
CSLAYER1
  6
CONTINUOUS
 62
     2
 10
1584.590451
 20
2565.913204
 11
1593.725451
 21
2565.913204
  0
LINE
  8
CSLAYER1
  6
CONTINUOUS
 62
     2
 10
1584.590451
 20
2542.288204
 11
1593.725451
 21
2542.288204
  0
LINE
  8
CSLAYER1
  6
CONTINUOUS
 62
     2
 10
1594.985451
 20
2564.653204
 11
1594.985451
 21
2543.548204
  0
LINE
  8
CSLAYER1
  6
CONTINUOUS
 62
     2
 10
1583.330451
 20
2564.653204
 11
1583.330451
 21
2543.548204
  0
LINE
  8
CSLAYER1
  6
CONTINUOUS
 62
     2
 10
1585.220451
 20
2544.178204
 11
1593.252951
 21
2544.178204
  0
LINE
  8
CSLAYER1
  6
CONTINUOUS
 62
     2
 10
1585.220451
 20
2547.328204
 11
1586.165451
 21
2547.328204
  0
LINE
  8
CSLAYER1
  6
CONTINUOUS
 62
     2
 10
1585.220451
 20
2555.990704
 11
1586.165451
 21
2555.990704
  0
LINE
  8
CSLAYER1
  6
CONTINUOUS
 62
     2
 10
1585.220451
 20
2560.558204
 11
1590.260451
 21
2560.558204
  0
LINE
  8
CSLAYER1
  6
CONTINUOUS
 62
     2
 10
1584.117951
 20
2559.455704
 11
1584.117951
 21
2557.093204
  0
LINE
  8
CSLAYER1
  6
CONTINUOUS
 62
     2
 10
1591.362951
 20
2559.455704
 11
1591.362951
 21
2557.093204
  0
LINE
  8
CSLAYER1
  6
CONTINUOUS
 62
     2
 10
1594.355451
 20
2546.225704
 11
1594.355451
 21
2545.280704
  0
LINE
  8
CSLAYER1
  6
CONTINUOUS
 62
     2
 10
1587.110451
 20
2555.045704
 11
1587.110451
 21
2548.273204
  0
LINE
  8
CSLAYER1
  6
CONTINUOUS
 62
     2
 10
1587.897951
 20
2555.045704
 11
1587.897951
 21
2548.273204
  0
ARC
  8
CSLAYER1
  6
CONTINUOUS
 62
     2
 10
1585.220451
 20
2559.455704
 40
1.102500
 50
90.000000
 51
180.000000
  0
ARC
  8
CSLAYER1
  6
CONTINUOUS
 62
     2
 10
1590.260451
 20
2559.455704
 40
1.102500
 50
0.000000
 51
90.000000
  0
ARC
  8
CSLAYER1
  6
CONTINUOUS
 62
     2
 10
1590.260451
 20
2557.093204
 40
1.102500
 50
270.000000
 51
360.000000
  0
ARC
  8
CSLAYER1
  6
CONTINUOUS
 62
     2
 10
1585.220451
 20
2557.093204
 40
1.102500
 50
180.000000
 51
270.000000
  0
ARC
  8
CSLAYER1
  6
CONTINUOUS
 62
     2
 10
1593.252951
 20
2546.225704
 40
1.102500
 50
0.000000
 51
90.000000
  0
ARC
  8
CSLAYER1
  6
CONTINUOUS
 62
     2
 10
1593.252951
 20
2545.280704
 40
1.102500
 50
270.000000
 51
360.000000
  0
ARC
  8
CSLAYER1
  6
CONTINUOUS
 62
     2
 10
1585.220451
 20
2545.280704
 40
1.102500
 50
180.000000
 51
270.000000
  0
ARC
  8
CSLAYER1
  6
CONTINUOUS
 62
     2
 10
1585.220451
 20
2546.225704
 40
1.102500
 50
90.000000
 51
180.000000
  0
LINE
  8
CSLAYER1
  6
CONTINUOUS
 62
     2
 10
1588.842951
 20
2555.990704
 11
1590.260451
 21
2555.990704
  0
LINE
  8
CSLAYER1
  6
CONTINUOUS
 62
     2
 10
1588.842951
 20
2547.328204
 11
1593.252951
 21
2547.328204
  0
ARC
  8
CSLAYER1
  6
CONTINUOUS
 62
     2
 10
1586.165451
 20
2555.045704
 40
0.945000
 50
0.000000
 51
90.000000
  0
ARC
  8
CSLAYER1
  6
CONTINUOUS
 62
     2
 10
1588.842951
 20
2555.045704
 40
0.945000
 50
90.000000
 51
180.000000
  0
ARC
  8
CSLAYER1
  6
CONTINUOUS
 62
     2
 10
1588.842951
 20
2548.273204
 40
0.945000
 50
180.000000
 51
270.000000
  0
ARC
  8
CSLAYER1
  6
CONTINUOUS
 62
     2
 10
1584.590451
 20
2564.653204
 40
1.260000
 50
90.000000
 51
180.000000
  0
ARC
  8
CSLAYER1
  6
CONTINUOUS
 62
     2
 10
1593.725451
 20
2564.653204
 40
1.260000
 50
0.000000
 51
90.000000
  0
ARC
  8
CSLAYER1
  6
CONTINUOUS
 62
     2
 10
1593.725451
 20
2543.548204
 40
1.260000
 50
270.000000
 51
360.000000
  0
ARC
  8
CSLAYER1
  6
CONTINUOUS
 62
     2
 10
1584.590451
 20
2543.548204
 40
1.260000
 50
180.000000
 51
270.000000
  0
ARC
  8
CSLAYER1
  6
CONTINUOUS
 62
     2
 10
1586.165451
 20
2548.273204
 40
0.945000
 50
270.000000
 51
360.000000
  0
LINE
  8
CSLAYER1
  6
CONTINUOUS
 62
     2
 10
1584.117951
 20
2546.225704
 11
1584.117951
 21
2545.280704
  0
CIRCLE
  8
CSLAYER1
  6
CONTINUOUS
 62
     2
 10
1569.583462
 20
2603.750545
 40
2.500000
  0
CIRCLE
  8
CSLAYER1
  6
CONTINUOUS
 62
     2
 10
1569.583462
 20
2613.750545
 40
2.500000
  0
CIRCLE
  8
CSLAYER1
  6
CONTINUOUS
 62
     2
 10
1559.583462
 20
2613.750545
 40
2.500000
  0
CIRCLE
  8
CSLAYER1
  6
CONTINUOUS
 62
     2
 10
1559.583462
 20
2603.750545
 40
2.500000
  0
CIRCLE
  8
CSLAYER1
  6
CONTINUOUS
 62
     2
 10
1549.583462
 20
2603.750545
 40
2.500000
  0
CIRCLE
  8
CSLAYER1
  6
CONTINUOUS
 62
     2
 10
1549.583462
 20
2613.750545
 40
2.500000
  0
CIRCLE
  8
CSLAYER1
  6
CONTINUOUS
 62
     2
 10
1539.583462
 20
2613.750545
 40
2.500000
  0
CIRCLE
  8
CSLAYER1
  6
CONTINUOUS
 62
     2
 10
1539.583462
 20
2603.750545
 40
2.500000
  0
CIRCLE
  8
CSLAYER1
  6
CONTINUOUS
 62
     2
 10
1529.583462
 20
2603.750545
 40
2.500000
  0
CIRCLE
  8
CSLAYER1
  6
CONTINUOUS
 62
     2
 10
1529.583462
 20
2613.750545
 40
2.500000
  0
CIRCLE
  8
CSLAYER1
  6
CONTINUOUS
 62
     2
 10
1569.583462
 20
2593.750545
 40
2.500000
  0
CIRCLE
  8
CSLAYER1
  6
CONTINUOUS
 62
     2
 10
1569.583462
 20
2583.750545
 40
2.500000
  0
CIRCLE
  8
CSLAYER1
  6
CONTINUOUS
 62
     2
 10
1559.583462
 20
2583.750545
 40
2.500000
  0
CIRCLE
  8
CSLAYER1
  6
CONTINUOUS
 62
     2
 10
1559.583462
 20
2593.750545
 40
2.500000
  0
CIRCLE
  8
CSLAYER1
  6
CONTINUOUS
 62
     2
 10
1549.583462
 20
2593.750545
 40
2.500000
  0
CIRCLE
  8
CSLAYER1
  6
CONTINUOUS
 62
     2
 10
1549.583462
 20
2583.750545
 40
2.500000
  0
CIRCLE
  8
CSLAYER1
  6
CONTINUOUS
 62
     2
 10
1539.583462
 20
2583.750545
 40
2.500000
  0
CIRCLE
  8
CSLAYER1
  6
CONTINUOUS
 62
     2
 10
1539.583462
 20
2593.750545
 40
2.500000
  0
CIRCLE
  8
CSLAYER1
  6
CONTINUOUS
 62
     2
 10
1529.583462
 20
2593.750545
 40
2.500000
  0
CIRCLE
  8
CSLAYER1
  6
CONTINUOUS
 62
     2
 10
1529.583462
 20
2583.750545
 40
2.500000
  0
CIRCLE
  8
CSLAYER1
  6
CONTINUOUS
 62
     2
 10
1569.583462
 20
2503.750545
 40
2.500000
  0
CIRCLE
  8
CSLAYER1
  6
CONTINUOUS
 62
     2
 10
1569.583462
 20
2493.750545
 40
2.500000
  0
CIRCLE
  8
CSLAYER1
  6
CONTINUOUS
 62
     2
 10
1559.583462
 20
2493.750545
 40
2.500000
  0
CIRCLE
  8
CSLAYER1
  6
CONTINUOUS
 62
     2
 10
1559.583462
 20
2503.750545
 40
2.500000
  0
CIRCLE
  8
CSLAYER1
  6
CONTINUOUS
 62
     2
 10
1549.583462
 20
2503.750545
 40
2.500000
  0
CIRCLE
  8
CSLAYER1
  6
CONTINUOUS
 62
     2
 10
1549.583462
 20
2493.750545
 40
2.500000
  0
CIRCLE
  8
CSLAYER1
  6
CONTINUOUS
 62
     2
 10
1539.583462
 20
2493.750545
 40
2.500000
  0
CIRCLE
  8
CSLAYER1
  6
CONTINUOUS
 62
     2
 10
1539.583462
 20
2503.750545
 40
2.500000
  0
CIRCLE
  8
CSLAYER1
  6
CONTINUOUS
 62
     2
 10
1529.583462
 20
2503.750545
 40
2.500000
  0
CIRCLE
  8
CSLAYER1
  6
CONTINUOUS
 62
     2
 10
1529.583462
 20
2493.750545
 40
2.500000
  0
CIRCLE
  8
CSLAYER1
  6
CONTINUOUS
 62
     2
 10
1569.583462
 20
2513.750545
 40
2.500000
  0
CIRCLE
  8
CSLAYER1
  6
CONTINUOUS
 62
     2
 10
1569.583462
 20
2523.750545
 40
2.500000
  0
CIRCLE
  8
CSLAYER1
  6
CONTINUOUS
 62
     2
 10
1559.583462
 20
2523.750545
 40
2.500000
  0
CIRCLE
  8
CSLAYER1
  6
CONTINUOUS
 62
     2
 10
1559.583462
 20
2513.750545
 40
2.500000
  0
CIRCLE
  8
CSLAYER1
  6
CONTINUOUS
 62
     2
 10
1549.583462
 20
2513.750545
 40
2.500000
  0
CIRCLE
  8
CSLAYER1
  6
CONTINUOUS
 62
     2
 10
1549.583462
 20
2523.750545
 40
2.500000
  0
CIRCLE
  8
CSLAYER1
  6
CONTINUOUS
 62
     2
 10
1539.583462
 20
2523.750545
 40
2.500000
  0
CIRCLE
  8
CSLAYER1
  6
CONTINUOUS
 62
     2
 10
1539.583462
 20
2513.750545
 40
2.500000
  0
CIRCLE
  8
CSLAYER1
  6
CONTINUOUS
 62
     2
 10
1529.583462
 20
2513.750545
 40
2.500000
  0
CIRCLE
  8
CSLAYER1
  6
CONTINUOUS
 62
     2
 10
1529.583462
 20
2523.750545
 40
2.500000
  0
LINE
  8
CSLAYER1
  6
CONTINUOUS
 62
     2
 10
1595.583462
 20
2526.250545
 11
1595.583462
 21
2491.250545
  0
LINE
  8
CSLAYER1
  6
CONTINUOUS
 62
     2
 10
1579.583462
 20
2526.250545
 11
1579.583462
 21
2491.250545
  0
LINE
  8
CSLAYER1
  6
CONTINUOUS
 62
     2
 10
1594.083462
 20
2527.750545
 11
1581.083462
 21
2527.750545
  0
LINE
  8
CSLAYER1
  6
CONTINUOUS
 62
     2
 10
1594.583462
 20
2526.250545
 11
1594.583462
 21
2491.250545
  0
LINE
  8
CSLAYER1
  6
CONTINUOUS
 62
     2
 10
1580.583462
 20
2526.250545
 11
1580.583462
 21
2491.250545
  0
LINE
  8
CSLAYER1
  6
CONTINUOUS
 62
     2
 10
1594.083462
 20
2526.750545
 11
1581.083462
 21
2526.750545
  0
LINE
  8
CSLAYER1
  6
CONTINUOUS
 62
     2
 10
1594.083462
 20
2489.750545
 11
1581.083462
 21
2489.750545
  0
LINE
  8
CSLAYER1
  6
CONTINUOUS
 62
     2
 10
1594.083462
 20
2490.750545
 11
1581.083462
 21
2490.750545
  0
ARC
  8
CSLAYER1
  6
CONTINUOUS
 62
     2
 10
1594.083462
 20
2526.250545
 40
0.500000
 50
0.000000
 51
90.000000
  0
ARC
  8
CSLAYER1
  6
CONTINUOUS
 62
     2
 10
1581.083462
 20
2526.250545
 40
0.500000
 50
90.000000
 51
180.000000
  0
ARC
  8
CSLAYER1
  6
CONTINUOUS
 62
     2
 10
1594.083462
 20
2491.250545
 40
0.500000
 50
270.000000
 51
360.000000
  0
ARC
  8
CSLAYER1
  6
CONTINUOUS
 62
     2
 10
1581.083462
 20
2491.250545
 40
0.500000
 50
180.000000
 51
270.000000
  0
ARC
  8
CSLAYER1
  6
CONTINUOUS
 62
     2
 10
1594.083462
 20
2526.250545
 40
1.500000
 50
0.000000
 51
90.000000
  0
ARC
  8
CSLAYER1
  6
CONTINUOUS
 62
     2
 10
1581.083462
 20
2526.250545
 40
1.500000
 50
90.000000
 51
180.000000
  0
ARC
  8
CSLAYER1
  6
CONTINUOUS
 62
     2
 10
1594.083462
 20
2491.250545
 40
1.500000
 50
270.000000
 51
360.000000
  0
ARC
  8
CSLAYER1
  6
CONTINUOUS
 62
     2
 10
1581.083462
 20
2491.250545
 40
1.500000
 50
180.000000
 51
270.000000
  0
LINE
  8
CSLAYER1
  6
CONTINUOUS
 62
     2
 10
1590.583462
 20
2517.750545
 11
1590.583462
 21
2499.750545
  0
LINE
  8
CSLAYER1
  6
CONTINUOUS
 62
     2
 10
1593.661534
 20
2508.750545
 11
1590.583462
 21
2499.750545
  0
LINE
  8
CSLAYER1
  6
CONTINUOUS
 62
     2
 10
1593.661534
 20
2508.750545
 11
1590.583462
 21
2517.750545
  0
TEXT
  8
CSLAYER1
 62
     2
 10
1582.289481
 20
2517.730644
 40
7.066058
 41
1.574983
  1
UP
 50
270.000000
 51
0.000000
  7
EASYDRAW_FONT
 72
     5
 11
1582.289481
 21
2499.182442
  0
LINE
  8
CSLAYER1
  6
CONTINUOUS
 62
     2
 10
1595.583462
 20
2581.250545
 11
1595.583462
 21
2616.250545
  0
LINE
  8
CSLAYER1
  6
CONTINUOUS
 62
     2
 10
1579.583462
 20
2581.250545
 11
1579.583462
 21
2616.250545
  0
LINE
  8
CSLAYER1
  6
CONTINUOUS
 62
     2
 10
1594.083462
 20
2579.750545
 11
1581.083462
 21
2579.750545
  0
LINE
  8
CSLAYER1
  6
CONTINUOUS
 62
     2
 10
1594.583462
 20
2581.250545
 11
1594.583462
 21
2616.250545
  0
LINE
  8
CSLAYER1
  6
CONTINUOUS
 62
     2
 10
1580.583462
 20
2581.250545
 11
1580.583462
 21
2616.250545
  0
LINE
  8
CSLAYER1
  6
CONTINUOUS
 62
     2
 10
1594.083462
 20
2580.750545
 11
1581.083462
 21
2580.750545
  0
LINE
  8
CSLAYER1
  6
CONTINUOUS
 62
     2
 10
1594.083462
 20
2617.750545
 11
1581.083462
 21
2617.750545
  0
LINE
  8
CSLAYER1
  6
CONTINUOUS
 62
     2
 10
1594.083462
 20
2616.750545
 11
1581.083462
 21
2616.750545
  0
ARC
  8
CSLAYER1
  6
CONTINUOUS
 62
     2
 10
1594.083462
 20
2581.250545
 40
0.500000
 50
270.000000
 51
360.000000
  0
ARC
  8
CSLAYER1
  6
CONTINUOUS
 62
     2
 10
1581.083462
 20
2581.250545
 40
0.500000
 50
180.000000
 51
270.000000
  0
ARC
  8
CSLAYER1
  6
CONTINUOUS
 62
     2
 10
1594.083462
 20
2616.250545
 40
0.500000
 50
0.000000
 51
90.000000
  0
ARC
  8
CSLAYER1
  6
CONTINUOUS
 62
     2
 10
1581.083462
 20
2616.250545
 40
0.500000
 50
90.000000
 51
180.000000
  0
ARC
  8
CSLAYER1
  6
CONTINUOUS
 62
     2
 10
1594.083462
 20
2581.250545
 40
1.500000
 50
270.000000
 51
360.000000
  0
ARC
  8
CSLAYER1
  6
CONTINUOUS
 62
     2
 10
1581.083462
 20
2581.250545
 40
1.500000
 50
180.000000
 51
270.000000
  0
ARC
  8
CSLAYER1
  6
CONTINUOUS
 62
     2
 10
1594.083462
 20
2616.250545
 40
1.500000
 50
0.000000
 51
90.000000
  0
ARC
  8
CSLAYER1
  6
CONTINUOUS
 62
     2
 10
1581.083462
 20
2616.250545
 40
1.500000
 50
90.000000
 51
180.000000
  0
LINE
  8
CSLAYER1
  6
CONTINUOUS
 62
     2
 10
1585.110532
 20
2589.750545
 11
1585.110532
 21
2607.750545
  0
LINE
  8
CSLAYER1
  6
CONTINUOUS
 62
     2
 10
1582.032460
 20
2598.750545
 11
1585.110532
 21
2607.750545
  0
LINE
  8
CSLAYER1
  6
CONTINUOUS
 62
     2
 10
1582.032460
 20
2598.750545
 11
1585.110532
 21
2589.750545
  0
TEXT
  8
CSLAYER1
 62
     2
 10
1586.720566
 20
2613.448701
 40
6.383575
 41
1.255870
  1
DOWN
 50
270.000000
 51
0.000000
  7
EASYDRAW_FONT
 72
     5
 11
1586.720566
 21
2584.053252
  0
ENDBLK
  8
0
  0
ENDSEC
  0
SECTION
  2
ENTITIES
  0
LINE
  8
CSLAYER1
  6
CONTINUOUS
 62
     3
 10
180.707488
 20
3599.850540
 11
180.707488
 21
75.393795
  0
LINE
  8
CSLAYER1
  6
CONTINUOUS
 62
     3
 10
5161.512127
 20
3599.850540
 11
180.707488
 21
3599.850540
  0
LINE
  8
CSLAYER1
  6
CONTINUOUS
 62
     3
 10
5161.512127
 20
75.393795
 11
180.707488
 21
75.393795
  0
LINE
  8
CSLAYER1
  6
CONTINUOUS
 62
     3
 10
5161.512127
 20
75.393795
 11
5161.512127
 21
3599.850540
  0
LINE
  8
CSLAYER1
  6
CONTINUOUS
 62
     5
 10
105.707488
 20
1815.393795
 11
30.707488
 21
1815.393795
  0
LINE
  8
CSLAYER1
  6
CONTINUOUS
 62
     5
 10
3961.512127
 20
735.393795
 11
5161.512127
 21
735.393795
  0
LINE
  8
CSLAYER1
  6
CONTINUOUS
 62
     5
 10
3961.512127
 20
195.393795
 11
5161.512127
 21
195.393795
  0
LINE
  8
CSLAYER1
  6
CONTINUOUS
 62
     5
 10
3961.512127
 20
435.393795
 11
5161.512127
 21
435.393795
  0
LINE
  8
CSLAYER1
  6
CONTINUOUS
 62
     5
 10
3961.512127
 20
525.393795
 11
5161.512127
 21
525.393795
  0
LINE
  8
CSLAYER1
  6
CONTINUOUS
 62
     5
 10
3961.512127
 20
615.393795
 11
5161.512127
 21
615.393795
  0
LINE
  8
CSLAYER1
  6
CONTINUOUS
 62
     5
 10
3961.512127
 20
855.393795
 11
5161.512127
 21
855.393795
  0
LINE
  8
CSLAYER1
  6
CONTINUOUS
 62
     5
 10
3961.512127
 20
975.393795
 11
3961.512127
 21
75.393795
  0
LINE
  8
CSLAYER1
  6
CONTINUOUS
 62
     5
 10
4261.512127
 20
975.393795
 11
4261.512127
 21
615.393795
  0
LINE
  8
CSLAYER1
  6
CONTINUOUS
 62
     5
 10
3961.512127
 20
975.393795
 11
5161.512127
 21
975.393795
  0
LINE
  8
CSLAYER1
  6
CONTINUOUS
 62
     5
 10
4711.512127
 20
615.393795
 11
4711.512127
 21
195.393795
  0
TEXT
  8
CSLAYER1
 62
     3
 10
4291.048678
 20
88.237877
 40
89.070541
 41
1.003345
  1
東正車輌株式会社
 50
0.000000
 51
0.000000
  7
EASYDRAW_FONT
 72
     5
 11
4976.207181
 21
88.237877
  0
LINE
  8
CSLAYER1
  6
CONTINUOUS
 62
     5
 10
4336.512127
 20
525.393795
 11
4336.512127
 21
195.393795
  0
TEXT
  8
CSLAYER1
 62
     5
 10
4006.511719
 20
877.893738
 40
75.000000
 41
1.050000
  1
品　名
 50
0.000000
 51
0.000000
  7
EASYDRAW_FONT
 72
     5
 11
4216.511719
 21
877.893738
  0
TEXT
  8
CSLAYER1
 62
     5
 10
4006.511719
 20
757.893738
 40
75.000000
 41
1.050000
  1
型　式
 50
0.000000
 51
0.000000
  7
EASYDRAW_FONT
 72
     5
 11
4216.511719
 21
757.893738
  0
TEXT
  8
CSLAYER1
 62
     5
 10
3969.011719
 20
637.893799
 40
75.000000
 41
1.036364
  1
図面番号
 50
0.000000
 51
0.000000
  7
EASYDRAW_FONT
 72
     5
 11
4254.011719
 21
637.893799
  0
TEXT
  8
CSLAYER1
 62
     5
 10
4036.511719
 20
532.893799
 40
75.000000
 41
0.827586
  1
平成２８年４月１６日
 50
0.000000
 51
0.000000
  7
EASYDRAW_FONT
 72
     5
 11
4636.511719
 21
532.893799
  0
TEXT
  8
CSLAYER1
 62
     5
 10
4831.511719
 20
532.893799
 40
75.000000
 41
1.050000
  1
Ｂ－４
 50
0.000000
 51
0.000000
  7
EASYDRAW_FONT
 72
     5
 11
5041.511719
 21
532.893799
  0
TEXT
  8
CSLAYER1
 62
     5
 10
4044.011719
 20
442.893799
 40
75.000000
 41
1.050000
  1
検　図
 50
0.000000
 51
0.000000
  7
EASYDRAW_FONT
 72
     5
 11
4254.011719
 21
442.893799
  0
TEXT
  8
CSLAYER1
 62
     5
 10
4419.011719
 20
442.893799
 40
75.000000
 41
1.050000
  1
作　図
 50
0.000000
 51
0.000000
  7
EASYDRAW_FONT
 72
     5
 11
4629.011719
 21
442.893799
  0
TEXT
  8
CSLAYER1
 62
     5
 10
4831.511719
 20
442.893799
 40
75.000000
 41
1.050000
  1
尺　度
 50
0.000000
 51
0.000000
  7
EASYDRAW_FONT
 72
     5
 11
5041.511719
 21
442.893799
  0
TEXT
  8
CSLAYER1
 62
     5
 10
4982.620117
 20
217.121689
 40
75.000000
 41
1.080000
  1
１５
 50
0.000000
 51
0.000000
  7
EASYDRAW_FONT
 72
     5
 11
5117.620117
 21
217.121689
  0
TEXT
  8
CSLAYER1
 62
     5
 10
4952.140625
 20
288.678741
 40
75.000000
 41
1.200000
  1
／
 50
0.000000
 51
0.000000
  7
EASYDRAW_FONT
 72
     5
 11
5012.140625
 21
288.678741
  0
TEXT
  8
CSLAYER1
 62
     5
 10
4906.821289
 20
341.153900
 40
75.000000
 41
1.200000
  1
１
 50
0.000000
 51
0.000000
  7
EASYDRAW_FONT
 72
     5
 11
4966.821289
 21
341.153900
  0
TEXT
  8
CSLAYER1
 62
     3
 10
4471.511719
 20
877.893738
 40
75.000000
 41
0.834783
  1
ゴールドリフター
 50
0.000000
 51
0.000000
  7
EASYDRAW_FONT
 72
     5
 11
4951.511719
 21
877.893738
  0
TEXT
  8
CSLAYER1
 62
     3
 10
4321.511719
 20
757.893738
 40
75.000000
 41
0.821053
  1
ＧＬＩ－２００－０６０８Ｗ
 50
0.000000
 51
0.000000
  7
EASYDRAW_FONT
 72
     5
 11
5101.511719
 21
757.893738
  0
TEXT
  8
CSLAYER1
 62
     3
 10
4561.511719
 20
637.893799
 40
75.000000
 41
0.857143
  1
ＧＩ－１４
 50
0.000000
 51
0.000000
  7
EASYDRAW_FONT
 72
     5
 11
4861.511719
 21
637.893799
  0
INSERT
  8
CSLAYER1
  2
BLKF0000
 10
0.0
 20
0.0
 30
0.0
  0
TEXT
  8
CSLAYER1
 62
     5
 10
3685.151392
 20
663.280151
 40
41.233814
 41
0.726099
  1
Ｆ.Ｌ
 50
0.000000
 51
0.000000
  7
EASYDRAW_FONT
 72
     5
 11
3764.990967
 21
663.280151
  0
LINE
  8
CSLAYER1
  6
CONTINUOUS
 62
     3
 10
2013.935615
 20
2713.410823
 11
1951.813107
 21
2713.410823
  0
LINE
  8
CSLAYER1
  6
CONTINUOUS
 62
     3
 10
2013.935615
 20
2706.410823
 11
1951.813107
 21
2706.410823
  0
LINE
  8
CSLAYER1
  6
CONTINUOUS
 62
     3
 10
2013.935615
 20
2671.210823
 11
1995.421401
 21
2671.210823
  0
LINE
  8
CSLAYER1
  6
CONTINUOUS
 62
     3
 10
2013.935615
 20
2678.210823
 11
1995.421401
 21
2678.210823
  0
TEXT
  8
CSLAYER1
 62
     5
 10
930.239339
 20
2776.333693
 40
59.399998
 41
1.020000
  1
ＵＰ・ＤＯＷＮ
 50
0.000000
 51
0.000000
  7
EASYDRAW_FONT
 72
     5
 11
1334.159343
 21
2776.333693
  0
TEXT
  8
CSLAYER1
 62
     5
 10
931.806722
 20
2857.836622
 40
59.399998
 41
1.020000
  1
フットスイッチ
 50
0.000000
 51
0.000000
  7
EASYDRAW_FONT
 72
     5
 11
1335.726726
 21
2857.836622
  0
TEXT
  8
CSLAYER1
 62
     5
 10
1066.360336
 20
2424.749708
 40
59.399998
 41
1.036364
  1
長サ４ｍ
 50
0.000000
 51
0.000000
  7
EASYDRAW_FONT
 72
     5
 11
1292.080338
 21
2424.749708
  0
TEXT
  8
CSLAYER1
 62
     5
 10
1061.738216
 20
2501.550489
 40
59.399998
 41
1.028571
  1
電源コード
 50
0.000000
 51
0.000000
  7
EASYDRAW_FONT
 72
     5
 11
1346.858219
 21
2501.550489
  0
LINE
  8
CSLAYER1
  6
CONTINUOUS
 62
     3
 10
1725.145848
 20
2550.250545
 11
1611.083462
 21
2550.250545
  0
LINE
  8
CSLAYER1
  6
CONTINUOUS
 62
     3
 10
1725.145848
 20
2557.250545
 11
1611.083462
 21
2557.250545
  0
ARC
  8
CSLAYER1
  6
CONTINUOUS
 62
     3
 10
1725.145848
 20
2597.250545
 40
40.000000
 50
-90.000000
 51
243.051119
  0
ARC
  8
CSLAYER1
  6
CONTINUOUS
 62
     3
 10
1725.145848
 20
2597.250545
 40
47.000000
 50
-90.000000
 51
230.026912
  0
LINE
  8
CSLAYER1
  6
CONTINUOUS
 62
     3
 10
1916.282894
 20
2632.342621
 11
1817.833844
 21
2504.894861
  0
LINE
  8
CSLAYER1
  6
CONTINUOUS
 62
     3
 10
1910.743199
 20
2636.621847
 11
1804.527119
 21
2499.119235
  0
LINE
  8
CSLAYER1
  6
CONTINUOUS
 62
     3
 10
1883.990578
 20
2679.896227
 11
1771.116157
 21
2575.720046
  0
LINE
  8
CSLAYER1
  6
CONTINUOUS
 62
     3
 10
1879.243001
 20
2685.040205
 11
1776.589966
 21
2590.297738
  0
ARC
  8
CSLAYER1
  6
CONTINUOUS
 62
     3
 10
1827.905364
 20
2452.500607
 40
47.000000
 50
-190.756396
 51
127.198537
  0
ARC
  8
CSLAYER1
  6
CONTINUOUS
 62
     3
 10
1827.905364
 20
2452.500607
 40
40.000000
 50
-203.471057
 51
127.198537
  0
LINE
  8
CSLAYER1
  6
CONTINUOUS
 62
     3
 10
1645.527212
 20
2364.292248
 11
1803.722213
 21
2484.362422
  0
LINE
  8
CSLAYER1
  6
CONTINUOUS
 62
     3
 10
1641.295161
 20
2369.868065
 11
1799.490162
 21
2489.938239
  0
ARC
  8
CSLAYER1
  6
CONTINUOUS
 62
     3
 10
1995.421401
 20
2571.210823
 40
100.000000
 50
90.000000
 51
142.315137
  0
ARC
  8
CSLAYER1
  6
CONTINUOUS
 62
     3
 10
1995.421401
 20
2571.210823
 40
107.000000
 50
90.000000
 51
142.315137
  0
ARC
  8
CSLAYER1
  6
CONTINUOUS
 62
     3
 10
1951.813107
 20
2606.410823
 40
100.000000
 50
90.000000
 51
132.705116
  0
ARC
  8
CSLAYER1
  6
CONTINUOUS
 62
     3
 10
1951.813107
 20
2606.410823
 40
107.000000
 50
90.000000
 51
132.705116
  0
LINE
  8
CSLAYER1
  6
CONTINUOUS
 62
     5
 10
1390.632989
 20
2494.057350
 11
1069.783186
 21
2494.057350
  0
LINE
  8
CSLAYER1
  6
CONTINUOUS
 62
     5
 10
1343.186992
 20
2846.847062
 11
928.441520
 21
2846.847062
  0
LINE
  8
CSLAYER1
  6
CONTINUOUS
 62
     3
 10
2013.935615
 20
2409.769421
 11
2013.935615
 21
3009.769421
  0
LINE
  8
CSLAYER1
  6
CENTER
 62
     5
 10
2013.935615
 20
2709.769421
 11
2813.935615
 21
2709.769421
  0
LINE
  8
CSLAYER1
  6
CONTINUOUS
 62
     3
 10
2813.935615
 20
2409.769421
 11
2813.935615
 21
3009.769421
  0
ARC
  8
CSLAYER1
  6
CONTINUOUS
 62
     7
 10
2041.135615
 20
1274.044282
 40
16.000000
 50
40.170329
 51
190.170329
  0
LINE
  8
CSLAYER1
  6
CONTINUOUS
 62
     7
 10
2502.584955
 20
1795.865960
 11
2312.723489
 21
1570.959110
  0
LINE
  8
CSLAYER1
  6
CONTINUOUS
 62
     7
 10
2025.387020
 20
1276.869483
 11
2037.797983
 21
1346.052260
  0
LINE
  8
CSLAYER1
  6
CONTINUOUS
 62
     7
 10
2502.584955
 20
1795.865960
 11
2513.356051
 21
1855.907576
  0
POINT
  8
CSLAYER1
 62
     7
 10
2041.135615
 20
1274.044282
  0
LINE
  8
CSLAYER1
  6
CENTER
 62
     5
 10
2499.247324
 20
1867.873938
 11
2041.135615
 21
1274.044282
  0
POINT
  8
CSLAYER1
 62
     7
 10
2270.191469
 20
1570.959110
  0
LINE
  8
CSLAYER1
  6
CONTINUOUS
 62
     7
 10
2037.797983
 20
1346.052260
 11
2227.659450
 21
1570.959110
  0
LINE
  8
CSLAYER1
  6
CONTINUOUS
 62
     7
 10
2037.797983
 20
1202.036304
 11
2456.781938
 21
705.714627
  0
LINE
  8
CSLAYER1
  6
CONTINUOUS
 62
     7
 10
2502.584955
 20
752.222605
 11
2053.361698
 21
1284.365275
  0
LINE
  8
CSLAYER1
  6
CONTINUOUS
 62
     7
 10
2025.387020
 20
1271.219082
 11
2037.797983
 21
1202.036304
  0
LINE
  8
CSLAYER1
  6
CONTINUOUS
 62
     7
 10
2502.584955
 20
752.222605
 11
2510.928199
 21
705.714627
  0
POINT
  8
CSLAYER1
 62
     7
 10
2499.247324
 20
680.214627
  0
LINE
  8
CSLAYER1
  6
CENTER
 62
     5
 10
2499.247324
 20
680.214627
 11
2041.135615
 21
1274.044282
  0
POINT
  8
CSLAYER1
 62
     7
 10
2270.191469
 20
977.129455
  0
CIRCLE
  8
CSLAYER1
  6
DASHED
 62
     5
 10
2499.247324
 20
680.214627
 40
9.000000
  0
CIRCLE
  8
CSLAYER1
  6
DASHED
 62
     5
 10
2499.247324
 20
680.214627
 40
18.500000
  0
POINT
  8
CSLAYER1
 62
     4
 10
2499.247324
 20
680.214627
  0
POINT
  8
CSLAYER1
 62
     3
 10
2041.135615
 20
680.214627
  0
LINE
  8
CSLAYER1
  6
CONTINUOUS
 62
     3
 10
2013.135615
 20
705.714627
 11
2013.135615
 21
655.714627
  0
LINE
  8
CSLAYER1
  6
CONTINUOUS
 62
     3
 10
298.359891
 20
655.714627
 11
3762.321860
 21
655.714627
  0
LINE
  8
CSLAYER1
  6
CONTINUOUS
 62
     3
 10
2013.135615
 20
705.714627
 11
2812.135615
 21
705.714627
  0
LINE
  8
CSLAYER1
  6
CONTINUOUS
 62
     3
 10
2812.135615
 20
705.714627
 11
2812.135615
 21
655.714627
  0
LINE
  8
CSLAYER1
  6
CENTER
 62
     5
 10
2472.906797
 20
680.214627
 11
2523.110727
 21
680.214627
  0
LINE
  8
CSLAYER1
  6
CENTER
 62
     5
 10
2499.247324
 20
703.569348
 11
2499.247324
 21
658.282298
  0
LINE
  8
CSLAYER1
  6
CONTINUOUS
 62
     5
 10
2344.114714
 20
997.302734
 11
2365.578768
 21
971.876760
  0
LINE
  8
CSLAYER1
  6
CONTINUOUS
 62
     5
 10
2367.616082
 20
990.968527
 11
2346.937240
 21
973.511899
  0
POINT
  8
CSLAYER1
 62
     4
 10
2357.015956
 20
982.020131
  0
POINT
  8
CSLAYER1
 62
     5
 10
2357.015956
 20
982.020131
  0
CIRCLE
  8
CSLAYER1
  6
CONTINUOUS
 62
     4
 10
2357.015956
 20
982.020131
 40
10.000000
  0
ARC
  8
CSLAYER1
  6
CONTINUOUS
 62
     4
 10
2359.308346
 20
983.955317
 40
20.000000
 50
40.170329
 51
130.170329
  0
LINE
  8
CSLAYER1
  6
CONTINUOUS
 62
     4
 10
2374.590950
 20
996.856558
 11
2386.987596
 21
982.171690
  0
ARC
  8
CSLAYER1
  6
CONTINUOUS
 62
     4
 10
2371.704992
 20
969.270449
 40
20.000000
 50
-16.488964
 51
40.170329
  0
LINE
  8
CSLAYER1
  6
CONTINUOUS
 62
     4
 10
2390.882481
 20
963.593836
 11
2373.557977
 21
905.065895
  0
LINE
  8
CSLAYER1
  6
CONTINUOUS
 62
     4
 10
2346.407105
 20
999.237920
 11
2315.841898
 21
973.435438
  0
LINE
  8
CSLAYER1
  6
CONTINUOUS
 62
     4
 10
2279.074677
 20
916.223800
 11
2266.848594
 21
905.902807
  0
LINE
  8
CSLAYER1
  6
CONTINUOUS
 62
     4
 10
2266.848594
 20
905.902807
 11
2347.481352
 21
810.386534
  0
LINE
  8
CSLAYER1
  6
CONTINUOUS
 62
     4
 10
2359.707435
 20
820.707527
 11
2347.481352
 21
810.386534
  0
POINT
  8
CSLAYER1
 62
     4
 10
2043.979731
 20
1284.279604
  0
LINE
  8
CSLAYER1
  6
CENTER
 62
     5
 10
2043.979731
 20
1284.279604
 11
2034.924916
 21
1383.868812
  0
POINT
  8
CSLAYER1
 62
     4
 10
2034.924916
 20
1383.868812
  0
ARC
  8
CSLAYER1
  6
CONTINUOUS
 62
     4
 10
2034.924916
 20
1383.868812
 40
20.000000
 50
17.161807
 51
179.076890
  0
LINE
  8
CSLAYER1
  6
CONTINUOUS
 62
     4
 10
2013.551586
 20
1298.797190
 11
2014.927512
 21
1384.191024
  0
LINE
  8
CSLAYER1
  6
CONTINUOUS
 62
     4
 10
2054.034422
 20
1389.770236
 11
2059.570529
 21
1371.843669
  0
ARC
  8
CSLAYER1
  6
CONTINUOUS
 62
     4
 10
2015.551327
 20
1298.764969
 40
2.000000
 50
177.071261
 51
240.119957
  0
ARC
  8
CSLAYER1
  6
CONTINUOUS
 62
     4
 10
2043.979731
 20
1284.279604
 40
30.250000
 50
175.960104
 51
237.231731
  0
LINE
  8
CSLAYER1
  6
CONTINUOUS
 62
     4
 10
2084.982865
 20
1262.425257
 11
2073.957223
 21
1259.968146
  0
LINE
  8
CSLAYER1
  6
CONTINUOUS
 62
     4
 10
2123.686589
 20
1308.273068
 11
2084.982865
 21
1262.425257
  0
LINE
  8
CSLAYER1
  6
CONTINUOUS
 62
     4
 10
2169.089541
 20
1400.812637
 11
2123.686589
 21
1308.273068
  0
POINT
  8
CSLAYER1
 62
     4
 10
2041.135615
 20
1274.044282
  0
ARC
  8
CSLAYER1
  6
CONTINUOUS
 62
     7
 10
2499.247324
 20
1274.044282
 40
16.000000
 50
-139.829671
 51
10.170329
  0
LINE
  8
CSLAYER1
  6
CONTINUOUS
 62
     7
 10
2037.797983
 20
1795.865960
 11
2487.021241
 21
1263.723289
  0
LINE
  8
CSLAYER1
  6
CONTINUOUS
 62
     7
 10
2514.995918
 20
1276.869483
 11
2502.584955
 21
1346.052260
  0
LINE
  8
CSLAYER1
  6
CONTINUOUS
 62
     7
 10
2037.797983
 20
1795.865960
 11
2028.109286
 21
1849.873938
  0
POINT
  8
CSLAYER1
 62
     7
 10
2499.247324
 20
1274.044282
  0
LINE
  8
CSLAYER1
  6
CENTER
 62
     5
 10
2050.393052
 20
1855.873938
 11
2499.247324
 21
1274.044282
  0
LINE
  8
CSLAYER1
  6
CONTINUOUS
 62
     7
 10
2502.584955
 20
1346.052260
 11
2070.347402
 21
1858.073938
  0
LINE
  8
CSLAYER1
  6
CONTINUOUS
 62
     7
 10
2270.191469
 20
926.746706
 11
2083.601000
 21
705.714627
  0
LINE
  8
CSLAYER1
  6
CONTINUOUS
 62
     7
 10
2502.584955
 20
1202.036304
 11
2312.723489
 21
977.129455
  0
LINE
  8
CSLAYER1
  6
CONTINUOUS
 62
     7
 10
2037.797983
 20
752.222605
 11
2227.659450
 21
977.129455
  0
LINE
  8
CSLAYER1
  6
CONTINUOUS
 62
     7
 10
2514.995918
 20
1271.219082
 11
2502.584955
 21
1202.036304
  0
POINT
  8
CSLAYER1
 62
     7
 10
2041.135615
 20
680.214627
  0
LINE
  8
CSLAYER1
  6
CENTER
 62
     5
 10
2041.135615
 20
680.214627
 11
2499.247324
 21
1274.044282
  0
CIRCLE
  8
CSLAYER1
  6
CONTINUOUS
 62
     5
 10
2041.135615
 20
1274.044282
 40
9.000000
  0
CIRCLE
  8
CSLAYER1
  6
CONTINUOUS
 62
     5
 10
2499.247324
 20
1274.044282
 40
9.000000
  0
LINE
  8
CSLAYER1
  6
CONTINUOUS
 62
     4
 10
2047.632925
 20
1405.588768
 11
2067.321284
 21
1381.025089
  0
LINE
  8
CSLAYER1
  6
CONTINUOUS
 62
     4
 10
2045.889893
 20
1404.191687
 11
2065.852771
 21
1379.285512
  0
LINE
  8
CSLAYER1
  6
CONTINUOUS
 62
     4
 10
2010.959356
 20
1376.194052
 11
2014.723000
 21
1371.498438
  0
LINE
  8
CSLAYER1
  6
CONTINUOUS
 62
     4
 10
2012.702388
 20
1377.591132
 11
2014.779416
 21
1374.999782
  0
CIRCLE
  8
CSLAYER1
  6
CONTINUOUS
 62
     4
 10
2034.924916
 20
1383.868812
 40
12.500000
  0
LINE
  8
CSLAYER1
  6
CONTINUOUS
 62
     4
 10
2166.661267
 20
1253.648397
 11
2123.271983
 21
1307.781932
  0
LINE
  8
CSLAYER1
  6
CONTINUOUS
 62
     4
 10
2133.342939
 20
1226.942984
 11
2095.201127
 21
1274.529645
  0
LINE
  8
CSLAYER1
  6
CONTINUOUS
 62
     4
 10
2376.731706
 20
1025.376666
 11
2365.393905
 21
1039.521985
  0
LINE
  8
CSLAYER1
  6
CENTER
 62
     5
 10
2368.277072
 20
991.046177
 11
2345.754839
 21
972.994085
  0
LINE
  8
CSLAYER1
  6
CENTER
 62
     5
 10
2537.136770
 20
757.296985
 11
2019.914848
 21
1402.595740
  0
LINE
  8
CSLAYER1
  6
CENTER
 62
     5
 10
2422.027790
 20
974.399551
 11
2376.694212
 21
1030.958835
  0
LINE
  8
CSLAYER1
  6
CONTINUOUS
 62
     4
 10
2418.068999
 20
993.789830
 11
2409.938546
 21
1003.933584
  0
LINE
  8
CSLAYER1
  6
CONTINUOUS
 62
     4
 10
2415.790711
 20
1008.624230
 11
2385.292735
 21
984.179395
  0
LINE
  8
CSLAYER1
  6
CONTINUOUS
 62
     4
 10
2444.807168
 20
958.831708
 11
2417.288711
 21
993.164411
  0
LINE
  8
CSLAYER1
  6
CONTINUOUS
 62
     4
 10
2418.068999
 20
993.789830
 11
2391.449980
 21
972.454069
  0
LINE
  8
CSLAYER1
  6
CONTINUOUS
 62
     4
 10
2435.425876
 20
970.536039
 11
2379.721252
 21
925.887490
  0
LINE
  8
CSLAYER1
  6
CONTINUOUS
 62
     4
 10
2418.275766
 20
991.392405
 11
2406.259320
 21
981.760945
  0
LINE
  8
CSLAYER1
  6
CONTINUOUS
 62
     4
 10
2418.275766
 20
991.392405
 11
2417.024927
 21
992.952982
  0
LINE
  8
CSLAYER1
  6
CONTINUOUS
 62
     4
 10
2421.404646
 20
985.570025
 11
2411.260893
 21
977.439571
  0
LINE
  8
CSLAYER1
  6
CONTINUOUS
 62
     4
 10
2421.404646
 20
985.570025
 11
2421.826177
 21
986.651919
  0
LINE
  8
CSLAYER1
  6
CONTINUOUS
 62
     4
 10
2418.124041
 20
991.270794
 11
2421.826177
 21
986.651919
  0
ARC
  8
CSLAYER1
  6
CONTINUOUS
 62
     4
 10
2418.675025
 20
987.583166
 40
3.285875
 50
273.748601
 51
333.399479
  0
ARC
  8
CSLAYER1
  6
CONTINUOUS
 62
     4
 10
2408.565408
 20
991.195549
 40
12.419443
 50
291.125030
 51
326.300938
  0
LINE
  8
CSLAYER1
  6
CONTINUOUS
 62
     4
 10
2415.195792
 20
988.923734
 11
2418.897927
 21
984.304860
  0
LINE
  8
CSLAYER1
  6
CONTINUOUS
 62
     4
 10
2421.096691
 20
980.837672
 11
2415.946785
 21
976.709903
  0
LINE
  8
CSLAYER1
  6
CONTINUOUS
 62
     4
 10
2421.205099
 20
981.821668
 11
2419.453924
 21
984.006476
  0
LINE
  8
CSLAYER1
  6
CONTINUOUS
 62
     4
 10
2421.096691
 20
980.837672
 11
2418.907722
 21
983.568682
  0
LINE
  8
CSLAYER1
  6
CONTINUOUS
 62
     4
 10
2421.205099
 20
981.821668
 11
2421.096691
 21
980.837672
  0
LINE
  8
CSLAYER1
  6
CONTINUOUS
 62
     4
 10
2421.205099
 20
981.821668
 11
2414.962789
 21
976.818312
  0
LINE
  8
CSLAYER1
  6
CONTINUOUS
 62
     4
 10
2406.259320
 20
981.760945
 11
2405.008481
 21
983.321522
  0
LINE
  8
CSLAYER1
  6
CONTINUOUS
 62
     4
 10
2411.260893
 20
977.439571
 11
2410.113180
 21
977.263680
  0
LINE
  8
CSLAYER1
  6
CONTINUOUS
 62
     4
 10
2406.411044
 20
981.882555
 11
2410.113180
 21
977.263680
  0
ARC
  8
CSLAYER1
  6
CONTINUOUS
 62
     4
 10
2409.890277
 20
980.541986
 40
3.285875
 50
284.026489
 51
343.677367
  0
LINE
  8
CSLAYER1
  6
CONTINUOUS
 62
     4
 10
2409.339294
 20
984.229615
 11
2413.041429
 21
979.610740
  0
LINE
  8
CSLAYER1
  6
CONTINUOUS
 62
     4
 10
2414.962789
 20
976.818312
 11
2413.211615
 21
979.003120
  0
LINE
  8
CSLAYER1
  6
CONTINUOUS
 62
     4
 10
2415.946785
 20
976.709903
 11
2413.757817
 21
979.440914
  0
LINE
  8
CSLAYER1
  6
CONTINUOUS
 62
     4
 10
2414.962789
 20
976.818312
 11
2415.946785
 21
976.709903
  0
LINE
  8
CSLAYER1
  6
CONTINUOUS
 62
     4
 10
2412.258889
 20
989.132892
 11
2410.597289
 21
985.237927
  0
LINE
  8
CSLAYER1
  6
CONTINUOUS
 62
     4
 10
2321.104598
 20
1087.823079
 11
2180.395537
 21
1263.375156
  0
LINE
  8
CSLAYER1
  6
CONTINUOUS
 62
     4
 10
2178.989828
 20
1263.530025
 11
2121.014378
 21
1217.061356
  0
LINE
  8
CSLAYER1
  6
CONTINUOUS
 62
     4
 10
2415.790711
 20
1008.624230
 11
2395.777287
 21
1033.593468
  0
LINE
  8
CSLAYER1
  6
CONTINUOUS
 62
     4
 10
2395.777287
 20
1033.593468
 11
2358.791675
 21
1003.948642
  0
LINE
  8
CSLAYER1
  6
CONTINUOUS
 62
     4
 10
2270.945199
 20
1028.405060
 11
2120.859509
 21
1215.655648
  0
LINE
  8
CSLAYER1
  6
CONTINUOUS
 62
     4
 10
2180.395537
 20
1263.375156
 11
2178.989828
 21
1263.530025
  0
LINE
  8
CSLAYER1
  6
CONTINUOUS
 62
     4
 10
2120.859509
 20
1215.655648
 11
2121.014378
 21
1217.061356
  0
LINE
  8
CSLAYER1
  6
CENTER
 62
     5
 10
2277.324834
 20
1150.111273
 11
2268.121020
 21
1142.734203
  0
LINE
  8
CSLAYER1
  6
CONTINUOUS
 62
     4
 10
2271.545971
 20
1154.450419
 11
2280.301844
 21
1143.526377
  0
LINE
  8
CSLAYER1
  6
CONTINUOUS
 62
     4
 10
2271.545971
 20
1154.450419
 11
2268.892395
 21
1152.964304
  0
LINE
  8
CSLAYER1
  6
CONTINUOUS
 62
     4
 10
2280.301844
 20
1143.526377
 11
2278.273687
 21
1141.259974
  0
LINE
  8
CSLAYER1
  6
CONTINUOUS
 62
     4
 10
2384.504896
 20
1031.607058
 11
2374.361143
 21
1023.476605
  0
LINE
  8
CSLAYER1
  6
CONTINUOUS
 62
     4
 10
2385.652609
 20
1031.782949
 11
2388.729325
 21
1027.944363
  0
LINE
  8
CSLAYER1
  6
CONTINUOUS
 62
     4
 10
2382.724360
 20
1029.435889
 11
2385.801076
 21
1025.597303
  0
LINE
  8
CSLAYER1
  6
CONTINUOUS
 62
     4
 10
2384.504896
 20
1031.607058
 11
2385.652609
 21
1031.782949
  0
ARC
  8
CSLAYER1
  6
CONTINUOUS
 62
     4
 10
2385.855180
 20
1028.530009
 40
3.259241
 50
103.147085
 51
164.084602
  0
ARC
  8
CSLAYER1
  6
CONTINUOUS
 62
     4
 10
2387.200381
 20
1017.851080
 40
12.419443
 50
111.125030
 51
146.300938
  0
LINE
  8
CSLAYER1
  6
CONTINUOUS
 62
     4
 10
2373.939612
 20
1022.394710
 11
2377.016328
 21
1018.556124
  0
LINE
  8
CSLAYER1
  6
CONTINUOUS
 62
     4
 10
2376.867862
 20
1024.741770
 11
2379.944577
 21
1020.903184
  0
LINE
  8
CSLAYER1
  6
CONTINUOUS
 62
     4
 10
2374.361143
 20
1023.476605
 11
2373.939612
 21
1022.394710
  0
ARC
  8
CSLAYER1
  6
CONTINUOUS
 62
     4
 10
2377.070432
 20
1021.488830
 40
3.259241
 50
93.341366
 51
154.278882
  0
LINE
  8
CSLAYER1
  6
CONTINUOUS
 62
     4
 10
2580.511313
 20
802.315303
 11
2504.524631
 21
741.410215
  0
LINE
  8
CSLAYER1
  6
CONTINUOUS
 62
     4
 10
2457.619354
 20
952.440472
 11
2383.629219
 21
893.135663
  0
LINE
  8
CSLAYER1
  6
CONTINUOUS
 62
     4
 10
2580.511313
 20
802.315303
 11
2544.236983
 21
847.572048
  0
LINE
  8
CSLAYER1
  6
CONTINUOUS
 62
     4
 10
2542.676405
 20
846.321209
 11
2452.615998
 21
958.682782
  0
LINE
  8
CSLAYER1
  6
CONTINUOUS
 62
     4
 10
2580.511313
 20
802.315303
 11
2571.469473
 21
784.815442
  0
LINE
  8
CSLAYER1
  6
CONTINUOUS
 62
     4
 10
2506.132670
 20
732.446480
 11
2571.469473
 21
784.815442
  0
LINE
  8
CSLAYER1
  6
CONTINUOUS
 62
     4
 10
2449.804582
 20
958.992520
 11
2377.176512
 21
900.779437
  0
ARC
  8
CSLAYER1
  6
CONTINUOUS
 62
     4
 10
2447.148035
 20
960.707967
 40
3.000000
 50
218.712984
 51
308.712984
  0
LINE
  8
CSLAYER1
  6
CONTINUOUS
 62
     4
 10
2509.123991
 20
819.428170
 11
2424.066940
 21
925.547434
  0
LINE
  8
CSLAYER1
  6
CONTINUOUS
 62
     4
 10
2515.366301
 20
824.431526
 11
2430.309249
 21
930.550790
  0
LINE
  8
CSLAYER1
  6
CONTINUOUS
 62
     4
 10
2520.828322
 20
828.809463
 11
2435.771270
 21
934.928726
  0
LINE
  8
CSLAYER1
  6
CONTINUOUS
 62
     4
 10
2536.434096
 20
841.317853
 11
2451.377044
 21
947.437116
  0
LINE
  8
CSLAYER1
  6
CONTINUOUS
 62
     4
 10
2537.994673
 20
842.568692
 11
2452.937622
 21
948.687955
  0
LINE
  8
CSLAYER1
  6
CONTINUOUS
 62
     4
 10
2470.889845
 20
788.782615
 11
2385.832794
 21
894.901879
  0
LINE
  8
CSLAYER1
  6
CONTINUOUS
 62
     4
 10
2476.351866
 20
793.160552
 11
2391.294814
 21
899.279815
  0
LINE
  8
CSLAYER1
  6
CONTINUOUS
 62
     4
 10
2482.594175
 20
798.163908
 11
2397.537124
 21
904.283171
  0
ARC
  8
CSLAYER1
  6
CONTINUOUS
 62
     4
 10
2451.055421
 20
957.431943
 40
2.000000
 50
38.712984
 51
128.712984
  0
LINE
  8
CSLAYER1
  6
CONTINUOUS
 62
     4
 10
2026.547302
 20
1407.911806
 11
2013.282394
 21
1397.279675
  0
LINE
  8
CSLAYER1
  6
CONTINUOUS
 62
     4
 10
2026.547302
 20
1407.911806
 11
2047.632925
 21
1405.588768
  0
LINE
  8
CSLAYER1
  6
CONTINUOUS
 62
     4
 10
2047.632925
 20
1405.588768
 11
2045.889893
 21
1404.191687
  0
LINE
  8
CSLAYER1
  6
CONTINUOUS
 62
     4
 10
2045.889893
 20
1404.191687
 11
2028.655865
 21
1407.679502
  0
LINE
  8
CSLAYER1
  6
CONTINUOUS
 62
     4
 10
2028.655865
 20
1407.679502
 11
2013.050091
 21
1395.171112
  0
LINE
  8
CSLAYER1
  6
CONTINUOUS
 62
     4
 10
2013.282394
 20
1397.279675
 11
2010.959356
 21
1376.194052
  0
LINE
  8
CSLAYER1
  6
CONTINUOUS
 62
     4
 10
2010.959356
 20
1376.194052
 11
2012.702388
 21
1377.591132
  0
LINE
  8
CSLAYER1
  6
CONTINUOUS
 62
     4
 10
2012.702388
 20
1377.591132
 11
2013.050091
 21
1395.171112
  0
LINE
  8
CSLAYER1
  6
CONTINUOUS
 62
     3
 10
2100.935615
 20
718.397042
 11
2100.935615
 21
705.714627
  0
LINE
  8
CSLAYER1
  6
CENTER
 62
     5
 10
1894.567972
 20
734.014627
 11
2019.135615
 21
734.014627
  0
LINE
  8
CSLAYER1
  6
CONTINUOUS
 62
     3
 10
1894.567972
 20
737.814627
 11
2019.135615
 21
737.814627
  0
LINE
  8
CSLAYER1
  6
CONTINUOUS
 62
     3
 10
1894.567972
 20
730.214627
 11
2019.135615
 21
730.214627
  0
LINE
  8
CSLAYER1
  6
CONTINUOUS
 62
     3
 10
2233.335615
 20
749.014627
 11
2233.335615
 21
705.714627
  0
LINE
  8
CSLAYER1
  6
CONTINUOUS
 62
     3
 10
2234.635615
 20
755.014627
 11
2172.135615
 21
755.014627
  0
LINE
  8
CSLAYER1
  6
CONTINUOUS
 62
     3
 10
2234.635615
 20
749.014627
 11
2179.973641
 21
749.014627
  0
LINE
  8
CSLAYER1
  6
CONTINUOUS
 62
     3
 10
2234.635615
 20
755.014627
 11
2234.635615
 21
749.014627
  0
LINE
  8
CSLAYER1
  6
CONTINUOUS
 62
     3
 10
2234.485615
 20
744.514627
 11
2233.335615
 21
744.514627
  0
LINE
  8
CSLAYER1
  6
CONTINUOUS
 62
     3
 10
2235.485615
 20
743.514627
 11
2235.485615
 21
724.514627
  0
ARC
  8
CSLAYER1
  6
CONTINUOUS
 62
     3
 10
2234.485615
 20
743.514627
 40
1.000000
 50
0.000000
 51
90.000000
  0
ARC
  8
CSLAYER1
  6
CONTINUOUS
 62
     3
 10
2234.485615
 20
724.514627
 40
1.000000
 50
270.000000
 51
360.000000
  0
ARC
  8
CSLAYER1
  6
CONTINUOUS
 62
     3
 10
2235.485615
 20
701.864492
 40
28.654497
 50
17.068130
 51
90.000000
  0
ARC
  8
CSLAYER1
  6
CONTINUOUS
 62
     3
 10
2235.485615
 20
701.864492
 40
35.653641
 50
17.069547
 51
90.000000
  0
LINE
  8
CSLAYER1
  6
CONTINUOUS
 62
     3
 10
2269.568683
 20
712.329986
 11
2271.599985
 21
705.714627
  0
LINE
  8
CSLAYER1
  6
CONTINUOUS
 62
     3
 10
2262.878066
 20
710.274834
 11
2264.278193
 21
705.714627
  0
LINE
  8
CSLAYER1
  6
CONTINUOUS
 62
     3
 10
2234.485615
 20
723.514627
 11
2233.335615
 21
723.514627
  0
LINE
  8
CSLAYER1
  6
CONTINUOUS
 62
     4
 10
2339.529933
 20
993.432362
 11
2342.432712
 21
989.993776
  0
LINE
  8
CSLAYER1
  6
CONTINUOUS
 62
     4
 10
2342.432712
 20
989.993776
 11
2318.744677
 21
969.996852
  0
LINE
  8
CSLAYER1
  6
CONTINUOUS
 62
     7
 10
2179.135615
 20
726.714627
 11
2128.658625
 21
726.714627
  0
LINE
  8
CSLAYER1
  6
CONTINUOUS
 62
     7
 10
2179.135615
 20
726.714627
 11
2179.135615
 21
705.714627
  0
LINE
  8
CSLAYER1
  6
CONTINUOUS
 62
     3
 10
2099.908290
 20
725.031981
 11
2099.996798
 21
723.794986
  0
LINE
  8
CSLAYER1
  6
CONTINUOUS
 62
     3
 10
2102.134435
 20
721.942823
 11
2126.172981
 21
723.662799
  0
CIRCLE
  8
CSLAYER1
  6
CONTINUOUS
 62
     3
 10
2105.938507
 20
726.225233
 40
2.250000
  0
CIRCLE
  8
CSLAYER1
  6
CONTINUOUS
 62
     3
 10
2123.821239
 20
728.507313
 40
1.000000
  0
LINE
  8
CSLAYER1
  6
CONTINUOUS
 62
     3
 10
2099.996798
 20
723.794986
 11
2102.134435
 21
721.942823
  0
LINE
  8
CSLAYER1
  6
CONTINUOUS
 62
     3
 10
2125.878912
 20
755.796364
 11
2127.173429
 21
737.704086
  0
LINE
  8
CSLAYER1
  6
CONTINUOUS
 62
     3
 10
2126.626335
 20
724.186029
 11
2126.172981
 21
723.662799
  0
LINE
  8
CSLAYER1
  6
CONTINUOUS
 62
     3
 10
2132.603245
 20
763.761900
 11
2128.475505
 21
724.994791
  0
LINE
  8
CSLAYER1
  6
CONTINUOUS
 62
     3
 10
2131.452443
 20
762.398678
 11
2128.804586
 21
737.530408
  0
LINE
  8
CSLAYER1
  6
CONTINUOUS
 62
     3
 10
2127.375249
 20
724.106288
 11
2120.414594
 21
724.847426
  0
LINE
  8
CSLAYER1
  6
CONTINUOUS
 62
     3
 10
2128.804586
 20
737.530408
 11
2121.843931
 21
738.271546
  0
LINE
  8
CSLAYER1
  6
CONTINUOUS
 62
     3
 10
2121.843931
 20
738.271546
 11
2120.414594
 21
724.847426
  0
ARC
  8
CSLAYER1
  6
CONTINUOUS
 62
     3
 10
2127.481126
 20
725.100667
 40
1.000000
 50
263.922313
 51
353.922313
  0
LINE
  8
CSLAYER1
  6
CONTINUOUS
 62
     3
 10
2129.598662
 20
744.988252
 11
2126.629622
 21
745.304382
  0
LINE
  8
CSLAYER1
  6
CONTINUOUS
 62
     3
 10
2129.704539
 20
745.982632
 11
2126.557114
 21
746.317755
  0
CIRCLE
  8
CSLAYER1
  6
CONTINUOUS
 62
     3
 10
2113.135615
 20
716.714627
 40
3.500000
  0
LINE
  8
CSLAYER1
  6
CONTINUOUS
 62
     3
 10
2100.000712
 20
725.141463
 11
2100.453385
 21
718.814873
  0
LINE
  8
CSLAYER1
  6
CONTINUOUS
 62
     3
 10
2123.106248
 20
752.511910
 11
2124.142670
 21
738.026787
  0
LINE
  8
CSLAYER1
  6
CONTINUOUS
 62
     3
 10
2111.141568
 20
709.554056
 11
2116.128818
 21
709.910897
  0
CIRCLE
  8
CSLAYER1
  6
CONTINUOUS
 62
     3
 10
2105.938507
 20
726.225233
 40
2.000000
  0
CIRCLE
  8
CSLAYER1
  6
CONTINUOUS
 62
     3
 10
2113.135615
 20
716.714627
 40
3.000000
  0
LINE
  8
CSLAYER1
  6
CONTINUOUS
 62
     3
 10
2125.389636
 20
720.599081
 11
2116.128818
 21
709.910897
  0
LINE
  8
CSLAYER1
  6
CONTINUOUS
 62
     3
 10
2100.453385
 20
718.814873
 11
2111.141568
 21
709.554056
  0
LINE
  8
CSLAYER1
  6
CONTINUOUS
 62
     3
 10
2125.175531
 20
723.591431
 11
2125.389636
 21
720.599081
  0
LINE
  8
CSLAYER1
  6
CONTINUOUS
 62
     2
 10
2085.188549
 20
707.038969
 11
2084.939412
 21
706.070501
  0
LINE
  8
CSLAYER1
  6
CONTINUOUS
 62
     7
 10
2270.191469
 20
1621.341859
 11
2470.035536
 21
1858.073938
  0
LINE
  8
CSLAYER1
  6
CONTINUOUS
 62
     7
 10
2270.191469
 20
1520.576361
 11
2062.074456
 21
1274.044282
  0
LINE
  8
CSLAYER1
  6
CONTINUOUS
 62
     7
 10
2270.191469
 20
1027.512203
 11
2478.308483
 21
1274.044282
  0
LINE
  8
CSLAYER1
  6
CONTINUOUS
 62
     4
 10
2471.386046
 20
789.180332
 11
2544.236983
 21
847.572048
  0
POINT
  8
CSLAYER1
 62
     5
 10
2123.821239
 20
728.507313
  0
POINT
  8
CSLAYER1
 62
     5
 10
2113.135615
 20
716.714627
  0
LINE
  8
CSLAYER1
  6
CONTINUOUS
 62
     3
 10
2130.666224
 20
755.014627
 11
2125.934846
 21
755.014627
  0
LINE
  8
CSLAYER1
  6
CONTINUOUS
 62
     3
 10
2130.027372
 20
749.014627
 11
2126.364151
 21
749.014627
  0
POINT
  8
CSLAYER1
 62
     5
 10
2105.938507
 20
726.225233
  0
LINE
  8
CSLAYER1
  6
CENTER
 62
     5
 10
2020.631475
 20
680.214627
 11
2062.312323
 21
680.214627
  0
LINE
  8
CSLAYER1
  6
CENTER
 62
     5
 10
2041.135615
 20
697.365195
 11
2041.135615
 21
663.564309
  0
LINE
  8
CSLAYER1
  6
CENTER
 62
     5
 10
2034.924916
 20
1403.868812
 11
2034.924916
 21
1360.608231
  0
LINE
  8
CSLAYER1
  6
CENTER
 62
     5
 10
2008.572169
 20
1383.868812
 11
2059.955411
 21
1383.868812
  0
LINE
  8
CSLAYER1
  6
CONTINUOUS
 62
     3
 10
2150.297589
 20
749.014627
 11
2131.033024
 21
749.014627
  0
LINE
  8
CSLAYER1
  6
CONTINUOUS
 62
     3
 10
2158.135615
 20
755.014627
 11
2131.671876
 21
755.014627
  0
LINE
  8
CSLAYER1
  6
CONTINUOUS
 62
     7
 10
2173.635615
 20
754.714627
 11
2156.635615
 21
754.714627
  0
LINE
  8
CSLAYER1
  6
CONTINUOUS
 62
     7
 10
2176.635615
 20
731.714627
 11
2153.635615
 21
731.714627
  0
LINE
  8
CSLAYER1
  6
CONTINUOUS
 62
     7
 10
2178.135615
 20
751.605532
 11
2152.135615
 21
751.605532
  0
LINE
  8
CSLAYER1
  6
CONTINUOUS
 62
     7
 10
2178.135615
 20
735.256718
 11
2152.135615
 21
735.256718
  0
ARC
  8
CSLAYER1
  6
CONTINUOUS
 62
     7
 10
2173.635615
 20
751.714627
 40
3.000000
 50
0.000000
 51
90.000000
  0
LINE
  8
CSLAYER1
  6
CONTINUOUS
 62
     7
 10
2176.635615
 20
731.714627
 11
2178.125996
 21
730.854155
  0
ARC
  8
CSLAYER1
  6
CONTINUOUS
 62
     7
 10
2165.135615
 20
705.668602
 40
26.046025
 50
75.231439
 51
104.768561
  0
ARC
  8
CSLAYER1
  6
CONTINUOUS
 62
     7
 10
2174.950570
 20
725.583033
 40
6.153702
 50
66.825356
 51
121.065581
  0
LINE
  8
CSLAYER1
  6
CONTINUOUS
 62
     7
 10
2171.775143
 20
730.854155
 11
2171.775143
 21
726.714627
  0
LINE
  8
CSLAYER1
  6
CONTINUOUS
 62
     7
 10
2178.125996
 20
730.854155
 11
2178.125996
 21
726.714627
  0
LINE
  8
CSLAYER1
  6
CONTINUOUS
 62
     7
 10
2175.471739
 20
735.256718
 11
2175.471739
 21
731.714627
  0
LINE
  8
CSLAYER1
  6
CONTINUOUS
 62
     7
 10
2174.825362
 20
735.256718
 11
2174.825362
 21
733.650356
  0
LINE
  8
CSLAYER1
  6
CONTINUOUS
 62
     7
 10
2175.471739
 20
733.650356
 11
2154.799491
 21
733.650356
  0
LINE
  8
CSLAYER1
  6
CONTINUOUS
 62
     7
 10
2174.825362
 20
733.650356
 11
2175.471739
 21
732.515504
  0
LINE
  8
CSLAYER1
  6
CONTINUOUS
 62
     7
 10
2153.635615
 20
731.714627
 11
2152.145234
 21
730.854155
  0
ARC
  8
CSLAYER1
  6
CONTINUOUS
 62
     7
 10
2155.320661
 20
725.583033
 40
6.153702
 50
58.934419
 51
113.174644
  0
LINE
  8
CSLAYER1
  6
CONTINUOUS
 62
     7
 10
2158.496087
 20
730.854155
 11
2158.496087
 21
726.714627
  0
LINE
  8
CSLAYER1
  6
CONTINUOUS
 62
     7
 10
2152.145234
 20
730.854155
 11
2152.145234
 21
726.714627
  0
LINE
  8
CSLAYER1
  6
CONTINUOUS
 62
     7
 10
2154.799491
 20
735.256718
 11
2154.799491
 21
731.714627
  0
LINE
  8
CSLAYER1
  6
CONTINUOUS
 62
     7
 10
2155.445869
 20
735.256718
 11
2155.445869
 21
733.650356
  0
LINE
  8
CSLAYER1
  6
CONTINUOUS
 62
     7
 10
2155.445869
 20
733.650356
 11
2154.799491
 21
732.515504
  0
LINE
  8
CSLAYER1
  6
CENTER
 62
     5
 10
2165.135615
 20
802.299224
 11
2165.135615
 21
709.841333
  0
LINE
  8
CSLAYER1
  6
CONTINUOUS
 62
     7
 10
2179.973641
 20
750.544347
 11
2179.973641
 21
736.317903
  0
LINE
  8
CSLAYER1
  6
CONTINUOUS
 62
     7
 10
2172.641169
 20
750.544347
 11
2172.641169
 21
736.317903
  0
LINE
  8
CSLAYER1
  6
CONTINUOUS
 62
     7
 10
2178.135615
 20
751.605532
 11
2179.973641
 21
750.544347
  0
ARC
  8
CSLAYER1
  6
CONTINUOUS
 62
     7
 10
2176.307405
 20
744.743941
 40
6.861924
 50
62.295563
 51
121.731450
  0
ARC
  8
CSLAYER1
  6
CONTINUOUS
 62
     7
 10
2165.135615
 20
724.532278
 40
27.073254
 50
73.904971
 51
106.095029
  0
LINE
  8
CSLAYER1
  6
CONTINUOUS
 62
     7
 10
2178.135615
 20
735.256718
 11
2179.973641
 21
736.317903
  0
ARC
  8
CSLAYER1
  6
CONTINUOUS
 62
     7
 10
2176.307405
 20
742.118309
 40
6.861924
 50
238.268550
 51
297.704437
  0
ARC
  8
CSLAYER1
  6
CONTINUOUS
 62
     7
 10
2165.135615
 20
762.329972
 40
27.073254
 50
253.904971
 51
286.095029
  0
LINE
  8
CSLAYER1
  6
CONTINUOUS
 62
     7
 10
2150.297589
 20
750.544347
 11
2150.297589
 21
736.317903
  0
LINE
  8
CSLAYER1
  6
CONTINUOUS
 62
     7
 10
2157.630062
 20
750.544347
 11
2157.630062
 21
736.317903
  0
LINE
  8
CSLAYER1
  6
CONTINUOUS
 62
     7
 10
2152.135615
 20
751.605532
 11
2150.297589
 21
750.544347
  0
ARC
  8
CSLAYER1
  6
CONTINUOUS
 62
     7
 10
2153.963825
 20
744.743941
 40
6.861924
 50
58.268550
 51
117.704437
  0
LINE
  8
CSLAYER1
  6
CONTINUOUS
 62
     7
 10
2152.135615
 20
735.256718
 11
2150.297589
 21
736.317903
  0
ARC
  8
CSLAYER1
  6
CONTINUOUS
 62
     7
 10
2153.963825
 20
742.118309
 40
6.861924
 50
242.295563
 51
301.731450
  0
ARC
  8
CSLAYER1
  6
CONTINUOUS
 62
     7
 10
2156.635615
 20
751.714627
 40
3.000000
 50
90.000000
 51
180.000000
  0
LINE
  8
CSLAYER1
  6
CONTINUOUS
 62
     7
 10
2172.135615
 20
810.591312
 11
2172.135615
 21
754.714627
  0
LINE
  8
CSLAYER1
  6
CONTINUOUS
 62
     7
 10
2158.135615
 20
794.007137
 11
2158.135615
 21
754.714627
  0
LINE
  8
CSLAYER1
  6
CENTER
 62
     5
 10
995.573971
 20
655.714627
 11
995.573971
 21
1903.073938
  0
LINE
  8
CSLAYER1
  6
CONTINUOUS
 62
     3
 10
695.573971
 20
1903.073938
 11
1295.573971
 21
1903.073938
  0
LINE
  8
CSLAYER1
  6
CENTER
 62
     5
 10
800.573971
 20
1570.959110
 11
1190.573971
 21
1570.959110
  0
LINE
  8
CSLAYER1
  6
CENTER
 62
     5
 10
957.573971
 20
1383.868812
 11
1033.573971
 21
1383.868812
  0
LINE
  8
CSLAYER1
  6
CENTER
 62
     5
 10
803.114650
 20
1274.044282
 11
1188.033292
 21
1274.044282
  0
LINE
  8
CSLAYER1
  6
CENTER
 62
     5
 10
839.573971
 20
942.743596
 11
1151.573971
 21
942.743596
  0
LINE
  8
CSLAYER1
  6
CONTINUOUS
 62
     3
 10
745.573971
 20
705.714627
 11
1245.573971
 21
705.714627
  0
LINE
  8
CSLAYER1
  6
CONTINUOUS
 62
     7
 10
1151.573971
 20
705.714627
 11
1151.573971
 21
1858.073938
  0
LINE
  8
CSLAYER1
  6
CONTINUOUS
 62
     7
 10
1164.573971
 20
705.714627
 11
1164.573971
 21
1858.073938
  0
LINE
  8
CSLAYER1
  6
CONTINUOUS
 62
     7
 10
1160.573971
 20
705.714627
 11
1160.573971
 21
1858.073938
  0
LINE
  8
CSLAYER1
  6
CONTINUOUS
 62
     7
 10
1173.573971
 20
705.714627
 11
1173.573971
 21
1858.073938
  0
LINE
  8
CSLAYER1
  6
CENTER
 62
     5
 10
1229.573971
 20
705.714627
 11
1229.573971
 21
852.514627
  0
INSERT
  8
CSLAYER1
  2
BLKF0001
 10
0.0
 20
0.0
 30
0.0
  0
INSERT
  8
CSLAYER1
  2
BLKF0002
 10
0.0
 20
0.0
 30
0.0
  0
LINE
  8
CSLAYER1
  6
CONTINUOUS
 62
     3
 10
695.573971
 20
1858.073938
 11
1295.573971
 21
1858.073938
  0
LINE
  8
CSLAYER1
  6
CONTINUOUS
 62
     4
 10
749.773971
 20
1849.873938
 11
772.773971
 21
1849.873938
  0
LINE
  8
CSLAYER1
  6
CONTINUOUS
 62
     4
 10
748.773971
 20
1850.873938
 11
773.773971
 21
1850.873938
  0
LINE
  8
CSLAYER1
  6
CONTINUOUS
 62
     4
 10
749.773971
 20
1849.873938
 11
748.773971
 21
1850.873938
  0
LINE
  8
CSLAYER1
  6
CONTINUOUS
 62
     4
 10
772.773971
 20
1849.873938
 11
773.773971
 21
1850.873938
  0
LINE
  8
CSLAYER1
  6
CONTINUOUS
 62
     4
 10
773.773971
 20
1858.073938
 11
773.773971
 21
1850.873938
  0
LINE
  8
CSLAYER1
  6
CONTINUOUS
 62
     4
 10
748.773971
 20
1858.073938
 11
748.773971
 21
1850.873938
  0
LINE
  8
CSLAYER1
  6
CENTER
 62
     5
 10
761.273971
 20
1849.873938
 11
761.273971
 21
1858.073938
  0
LINE
  8
CSLAYER1
  6
CONTINUOUS
 62
     4
 10
1241.373971
 20
1849.873938
 11
1218.373971
 21
1849.873938
  0
LINE
  8
CSLAYER1
  6
CONTINUOUS
 62
     4
 10
1242.373971
 20
1850.873938
 11
1217.373971
 21
1850.873938
  0
LINE
  8
CSLAYER1
  6
CONTINUOUS
 62
     4
 10
1241.373971
 20
1849.873938
 11
1242.373971
 21
1850.873938
  0
LINE
  8
CSLAYER1
  6
CONTINUOUS
 62
     4
 10
1218.373971
 20
1849.873938
 11
1217.373971
 21
1850.873938
  0
LINE
  8
CSLAYER1
  6
CONTINUOUS
 62
     4
 10
1217.373971
 20
1858.073938
 11
1217.373971
 21
1850.873938
  0
LINE
  8
CSLAYER1
  6
CONTINUOUS
 62
     4
 10
1242.373971
 20
1858.073938
 11
1242.373971
 21
1850.873938
  0
LINE
  8
CSLAYER1
  6
CENTER
 62
     5
 10
1229.873971
 20
1849.873938
 11
1229.873971
 21
1858.073938
  0
LINE
  8
CSLAYER1
  6
CONTINUOUS
 62
     3
 10
745.573971
 20
655.714627
 11
745.573971
 21
705.714627
  0
LINE
  8
CSLAYER1
  6
CONTINUOUS
 62
     3
 10
1245.573971
 20
655.714627
 11
1245.573971
 21
705.714627
  0
INSERT
  8
CSLAYER1
  2
BLKF0003
 10
0.0
 20
0.0
 30
0.0
  0
LINE
  8
CSLAYER1
  6
CONTINUOUS
 62
     3
 10
1239.573971
 20
705.714627
 11
1239.573971
 21
826.714627
  0
LINE
  8
CSLAYER1
  6
CONTINUOUS
 62
     3
 10
1219.573971
 20
705.714627
 11
1219.573971
 21
826.714627
  0
LINE
  8
CSLAYER1
  6
CONTINUOUS
 62
     3
 10
1220.073971
 20
852.514627
 11
1239.073971
 21
852.514627
  0
LINE
  8
CSLAYER1
  6
CONTINUOUS
 62
     3
 10
1218.604316
 20
844.514627
 11
1240.543626
 21
844.514627
  0
LINE
  8
CSLAYER1
  6
CONTINUOUS
 62
     3
 10
1218.604316
 20
851.666121
 11
1218.604316
 21
844.514627
  0
LINE
  8
CSLAYER1
  6
CONTINUOUS
 62
     3
 10
1224.089144
 20
851.666121
 11
1224.089144
 21
844.514627
  0
LINE
  8
CSLAYER1
  6
CONTINUOUS
 62
     3
 10
1220.073971
 20
852.514627
 11
1218.604316
 21
851.666121
  0
ARC
  8
CSLAYER1
  6
CONTINUOUS
 62
     3
 10
1229.573971
 20
834.363132
 40
18.151494
 50
72.412046
 51
107.587954
  0
ARC
  8
CSLAYER1
  6
CONTINUOUS
 62
     3
 10
1221.346730
 20
847.672234
 40
4.844787
 50
55.524449
 51
115.524449
  0
LINE
  8
CSLAYER1
  6
CONTINUOUS
 62
     3
 10
1240.543626
 20
851.666121
 11
1240.543626
 21
844.514627
  0
LINE
  8
CSLAYER1
  6
CONTINUOUS
 62
     3
 10
1235.058799
 20
851.666121
 11
1235.058799
 21
844.514627
  0
LINE
  8
CSLAYER1
  6
CONTINUOUS
 62
     3
 10
1239.073971
 20
852.514627
 11
1240.543626
 21
851.666121
  0
ARC
  8
CSLAYER1
  6
CONTINUOUS
 62
     3
 10
1237.801213
 20
847.672234
 40
4.844787
 50
64.475551
 51
124.475551
  0
LINE
  8
CSLAYER1
  6
CONTINUOUS
 62
     3
 10
1223.573971
 20
844.514627
 11
1224.573971
 21
842.782576
  0
LINE
  8
CSLAYER1
  6
CONTINUOUS
 62
     3
 10
1235.573971
 20
844.514627
 11
1234.573971
 21
842.782576
  0
POINT
  8
CSLAYER1
 62
     3
 10
1229.573971
 20
844.514627
  0
LINE
  8
CSLAYER1
  6
CONTINUOUS
 62
     3
 10
1223.573971
 20
844.514627
 11
1223.573971
 21
836.714627
  0
LINE
  8
CSLAYER1
  6
CONTINUOUS
 62
     3
 10
1224.573971
 20
842.782576
 11
1224.573971
 21
836.714627
  0
LINE
  8
CSLAYER1
  6
CONTINUOUS
 62
     3
 10
1234.573971
 20
842.782576
 11
1234.573971
 21
836.714627
  0
LINE
  8
CSLAYER1
  6
CONTINUOUS
 62
     3
 10
1235.573971
 20
844.514627
 11
1235.573971
 21
836.714627
  0
INSERT
  8
CSLAYER1
  2
BLKF0004
 10
0.0
 20
0.0
 30
0.0
  0
LINE
  8
CSLAYER1
  6
CONTINUOUS
 62
     3
 10
1151.573971
 20
1579.959110
 11
839.573971
 21
1579.959110
  0
LINE
  8
CSLAYER1
  6
CONTINUOUS
 62
     3
 10
1151.573971
 20
1561.959110
 11
839.573971
 21
1561.959110
  0
INSERT
  8
CSLAYER1
  2
BLKF0005
 10
0.0
 20
0.0
 30
0.0
  0
LINE
  8
CSLAYER1
  6
CONTINUOUS
 62
     3
 10
1151.573971
 20
986.129455
 11
839.573971
 21
986.129455
  0
INSERT
  8
CSLAYER1
  2
BLKF0006
 10
0.0
 20
0.0
 30
0.0
  0
LINE
  8
CSLAYER1
  6
CONTINUOUS
 62
     4
 10
957.573971
 20
1296.773185
 11
957.573971
 21
1403.868812
  0
LINE
  8
CSLAYER1
  6
CONTINUOUS
 62
     4
 10
966.573971
 20
1296.773185
 11
966.573971
 21
1403.868812
  0
LINE
  8
CSLAYER1
  6
CONTINUOUS
 62
     4
 10
1024.573971
 20
1296.773185
 11
1024.573971
 21
1403.868812
  0
LINE
  8
CSLAYER1
  6
CONTINUOUS
 62
     4
 10
1033.573971
 20
1296.773185
 11
1033.573971
 21
1403.868812
  0
POINT
  8
CSLAYER1
 62
     5
 10
995.573971
 20
1383.868812
  0
LINE
  8
CSLAYER1
  6
CONTINUOUS
 62
     4
 10
966.573971
 20
1403.868812
 11
957.573971
 21
1403.868812
  0
LINE
  8
CSLAYER1
  6
CONTINUOUS
 62
     4
 10
981.573971
 20
1366.368812
 11
981.573971
 21
1401.368812
  0
LINE
  8
CSLAYER1
  6
CONTINUOUS
 62
     4
 10
981.573971
 20
1401.368812
 11
966.573971
 21
1401.368812
  0
LINE
  8
CSLAYER1
  6
CONTINUOUS
 62
     4
 10
981.573971
 20
1366.368812
 11
966.573971
 21
1366.368812
  0
LINE
  8
CSLAYER1
  6
CONTINUOUS
 62
     4
 10
985.573971
 20
1396.368812
 11
981.573971
 21
1396.368812
  0
LINE
  8
CSLAYER1
  6
CONTINUOUS
 62
     4
 10
985.573971
 20
1371.368812
 11
981.573971
 21
1371.368812
  0
LINE
  8
CSLAYER1
  6
CONTINUOUS
 62
     4
 10
1024.573971
 20
1403.868812
 11
1033.573971
 21
1403.868812
  0
LINE
  8
CSLAYER1
  6
CONTINUOUS
 62
     4
 10
1009.573971
 20
1366.368812
 11
1009.573971
 21
1401.368812
  0
LINE
  8
CSLAYER1
  6
CONTINUOUS
 62
     4
 10
1009.573971
 20
1401.368812
 11
1024.573971
 21
1401.368812
  0
LINE
  8
CSLAYER1
  6
CONTINUOUS
 62
     4
 10
1009.573971
 20
1366.368812
 11
1024.573971
 21
1366.368812
  0
LINE
  8
CSLAYER1
  6
CONTINUOUS
 62
     4
 10
1005.573971
 20
1396.368812
 11
1009.573971
 21
1396.368812
  0
LINE
  8
CSLAYER1
  6
CONTINUOUS
 62
     4
 10
1005.573971
 20
1371.368812
 11
1009.573971
 21
1371.368812
  0
LINE
  8
CSLAYER1
  6
CONTINUOUS
 62
     4
 10
985.573971
 20
1407.911806
 11
1005.573971
 21
1407.911806
  0
LINE
  8
CSLAYER1
  6
CONTINUOUS
 62
     4
 10
966.573971
 20
1314.529604
 11
1024.573971
 21
1314.529604
  0
LINE
  8
CSLAYER1
  6
CONTINUOUS
 62
     4
 10
1151.573971
 20
1254.029604
 11
839.573971
 21
1254.029604
  0
LINE
  8
CSLAYER1
  6
CONTINUOUS
 62
     4
 10
957.573971
 20
1296.773185
 11
966.573971
 21
1296.773185
  0
LINE
  8
CSLAYER1
  6
CONTINUOUS
 62
     4
 10
1033.573971
 20
1314.529604
 11
1142.573971
 21
1314.529604
  0
LINE
  8
CSLAYER1
  6
CONTINUOUS
 62
     4
 10
1024.573971
 20
1296.773185
 11
1033.573971
 21
1296.773185
  0
LINE
  8
CSLAYER1
  6
CONTINUOUS
 62
     4
 10
985.573971
 20
1351.061317
 11
985.573971
 21
1407.911806
  0
LINE
  8
CSLAYER1
  6
CONTINUOUS
 62
     4
 10
1005.573971
 20
1351.061317
 11
1005.573971
 21
1407.911806
  0
LINE
  8
CSLAYER1
  6
CONTINUOUS
 62
     7
 10
1142.573971
 20
1442.741671
 11
1151.573971
 21
1442.741671
  0
LINE
  8
CSLAYER1
  6
CONTINUOUS
 62
     4
 10
1151.573971
 20
972.993596
 11
839.573971
 21
972.993596
  0
LINE
  8
CSLAYER1
  6
CONTINUOUS
 62
     4
 10
1151.573971
 20
912.493596
 11
839.573971
 21
912.493596
  0
LINE
  8
CSLAYER1
  6
CONTINUOUS
 62
     4
 10
1087.573971
 20
1003.823506
 11
1096.573971
 21
1003.823506
  0
LINE
  8
CSLAYER1
  6
CONTINUOUS
 62
     4
 10
1087.573971
 20
986.129455
 11
1087.573971
 21
1003.823506
  0
LINE
  8
CSLAYER1
  6
CONTINUOUS
 62
     4
 10
1096.573971
 20
986.129455
 11
1096.573971
 21
1003.823506
  0
INSERT
  8
CSLAYER1
  2
BLKF0007
 10
0.0
 20
0.0
 30
0.0
  0
LINE
  8
CSLAYER1
  6
CONTINUOUS
 62
     4
 10
1151.573971
 20
905.902807
 11
839.573971
 21
905.902807
  0
LINE
  8
CSLAYER1
  6
CONTINUOUS
 62
     4
 10
1151.573971
 20
810.386534
 11
839.573971
 21
810.386534
  0
LINE
  8
CSLAYER1
  6
CONTINUOUS
 62
     4
 10
1160.573971
 20
905.902807
 11
1164.573971
 21
905.902807
  0
LINE
  8
CSLAYER1
  6
CONTINUOUS
 62
     4
 10
1160.573971
 20
810.386534
 11
1164.573971
 21
810.386534
  0
LINE
  8
CSLAYER1
  6
CENTER
 62
     5
 10
800.573971
 20
977.129455
 11
1190.573971
 21
977.129455
  0
LINE
  8
CSLAYER1
  6
CONTINUOUS
 62
     7
 10
1142.573971
 20
1254.029604
 11
1142.573971
 21
1442.741671
  0
LINE
  8
CSLAYER1
  6
CONTINUOUS
 62
     4
 10
1057.573971
 20
763.539294
 11
1057.573971
 21
810.386534
  0
LINE
  8
CSLAYER1
  6
CONTINUOUS
 62
     4
 10
933.573971
 20
763.539294
 11
933.573971
 21
810.386534
  0
LINE
  8
CSLAYER1
  6
CONTINUOUS
 62
     4
 10
933.573971
 20
763.539294
 11
933.809900
 21
760.160698
  0
LINE
  8
CSLAYER1
  6
CONTINUOUS
 62
     4
 10
933.809900
 20
760.160698
 11
934.515891
 21
756.807815
  0
LINE
  8
CSLAYER1
  6
CONTINUOUS
 62
     4
 10
934.515891
 20
756.807815
 11
935.151708
 21
755.014627
  0
LINE
  8
CSLAYER1
  6
CONTINUOUS
 62
     4
 10
1050.573971
 20
745.725893
 11
1051.765054
 21
747.156479
  0
LINE
  8
CSLAYER1
  6
CONTINUOUS
 62
     4
 10
1051.765054
 20
747.156479
 11
1053.834914
 21
750.280868
  0
LINE
  8
CSLAYER1
  6
CONTINUOUS
 62
     4
 10
1053.834914
 20
750.280868
 11
1055.461373
 21
753.506162
  0
LINE
  8
CSLAYER1
  6
CONTINUOUS
 62
     4
 10
1055.461373
 20
753.506162
 11
1056.632052
 21
756.807815
  0
LINE
  8
CSLAYER1
  6
CONTINUOUS
 62
     4
 10
1056.632052
 20
756.807815
 11
1057.338043
 21
760.160698
  0
LINE
  8
CSLAYER1
  6
CONTINUOUS
 62
     4
 10
1057.338043
 20
760.160698
 11
1057.573971
 21
763.539294
  0
LINE
  8
CSLAYER1
  6
CONTINUOUS
 62
     4
 10
957.423971
 20
1035.860051
 11
957.423971
 21
1240.295691
  0
LINE
  8
CSLAYER1
  6
CONTINUOUS
 62
     4
 10
957.423971
 20
1035.860051
 11
957.569144
 21
1033.781124
  0
LINE
  8
CSLAYER1
  6
CONTINUOUS
 62
     4
 10
957.569144
 20
1033.781124
 11
958.003556
 21
1031.718020
  0
LINE
  8
CSLAYER1
  6
CONTINUOUS
 62
     4
 10
958.003556
 20
1031.718020
 11
958.723901
 21
1029.686438
  0
LINE
  8
CSLAYER1
  6
CONTINUOUS
 62
     4
 10
958.723901
 20
1029.686438
 11
959.724698
 21
1027.701842
  0
LINE
  8
CSLAYER1
  6
CONTINUOUS
 62
     4
 10
959.724698
 20
1027.701842
 11
960.998329
 21
1025.779334
  0
LINE
  8
CSLAYER1
  6
CONTINUOUS
 62
     4
 10
960.998329
 20
1025.779334
 11
962.535102
 21
1023.933547
  0
LINE
  8
CSLAYER1
  6
CONTINUOUS
 62
     4
 10
962.535102
 20
1023.933547
 11
964.323321
 21
1022.178528
  0
LINE
  8
CSLAYER1
  6
CONTINUOUS
 62
     4
 10
964.323321
 20
1022.178528
 11
966.349376
 21
1020.527633
  0
LINE
  8
CSLAYER1
  6
CONTINUOUS
 62
     4
 10
966.349376
 20
1020.527633
 11
968.597848
 21
1018.993428
  0
LINE
  8
CSLAYER1
  6
CONTINUOUS
 62
     4
 10
968.597848
 20
1018.993428
 11
971.051624
 21
1017.587587
  0
LINE
  8
CSLAYER1
  6
CONTINUOUS
 62
     4
 10
971.051624
 20
1017.587587
 11
973.692030
 21
1016.320811
  0
LINE
  8
CSLAYER1
  6
CONTINUOUS
 62
     4
 10
973.692030
 20
1016.320811
 11
976.498971
 21
1015.202741
  0
LINE
  8
CSLAYER1
  6
CONTINUOUS
 62
     4
 10
976.498971
 20
1015.202741
 11
979.451085
 21
1014.241885
  0
LINE
  8
CSLAYER1
  6
CONTINUOUS
 62
     4
 10
979.451085
 20
1014.241885
 11
982.525903
 21
1013.445556
  0
LINE
  8
CSLAYER1
  6
CONTINUOUS
 62
     4
 10
982.525903
 20
1013.445556
 11
985.700025
 21
1012.819815
  0
LINE
  8
CSLAYER1
  6
CONTINUOUS
 62
     4
 10
985.700025
 20
1012.819815
 11
988.949293
 21
1012.369424
  0
LINE
  8
CSLAYER1
  6
CONTINUOUS
 62
     4
 10
988.949293
 20
1012.369424
 11
992.248980
 21
1012.097812
  0
LINE
  8
CSLAYER1
  6
CONTINUOUS
 62
     4
 10
992.248980
 20
1012.097812
 11
995.573971
 21
1012.007044
  0
LINE
  8
CSLAYER1
  6
CONTINUOUS
 62
     4
 10
995.573971
 20
1012.007044
 11
998.898963
 21
1012.097812
  0
LINE
  8
CSLAYER1
  6
CONTINUOUS
 62
     4
 10
998.898963
 20
1012.097812
 11
1002.198649
 21
1012.369424
  0
LINE
  8
CSLAYER1
  6
CONTINUOUS
 62
     4
 10
1002.198649
 20
1012.369424
 11
1005.447918
 21
1012.819815
  0
LINE
  8
CSLAYER1
  6
CONTINUOUS
 62
     4
 10
1005.447918
 20
1012.819815
 11
1008.622040
 21
1013.445556
  0
LINE
  8
CSLAYER1
  6
CONTINUOUS
 62
     4
 10
1008.622040
 20
1013.445556
 11
1011.696858
 21
1014.241885
  0
LINE
  8
CSLAYER1
  6
CONTINUOUS
 62
     4
 10
1011.696858
 20
1014.241885
 11
1014.648971
 21
1015.202741
  0
LINE
  8
CSLAYER1
  6
CONTINUOUS
 62
     4
 10
1014.648971
 20
1015.202741
 11
1017.455912
 21
1016.320811
  0
LINE
  8
CSLAYER1
  6
CONTINUOUS
 62
     4
 10
1017.455912
 20
1016.320811
 11
1020.096319
 21
1017.587587
  0
LINE
  8
CSLAYER1
  6
CONTINUOUS
 62
     4
 10
1020.096319
 20
1017.587587
 11
1022.550095
 21
1018.993428
  0
LINE
  8
CSLAYER1
  6
CONTINUOUS
 62
     4
 10
1022.550095
 20
1018.993428
 11
1024.798567
 21
1020.527633
  0
LINE
  8
CSLAYER1
  6
CONTINUOUS
 62
     4
 10
1024.798567
 20
1020.527633
 11
1026.824622
 21
1022.178528
  0
LINE
  8
CSLAYER1
  6
CONTINUOUS
 62
     4
 10
1026.824622
 20
1022.178528
 11
1028.612840
 21
1023.933547
  0
LINE
  8
CSLAYER1
  6
CONTINUOUS
 62
     4
 10
1028.612840
 20
1023.933547
 11
1030.149613
 21
1025.779334
  0
LINE
  8
CSLAYER1
  6
CONTINUOUS
 62
     4
 10
1030.149613
 20
1025.779334
 11
1031.423245
 21
1027.701842
  0
LINE
  8
CSLAYER1
  6
CONTINUOUS
 62
     4
 10
1031.423245
 20
1027.701842
 11
1032.424042
 21
1029.686438
  0
LINE
  8
CSLAYER1
  6
CONTINUOUS
 62
     4
 10
1032.424042
 20
1029.686438
 11
1033.144387
 21
1031.718020
  0
LINE
  8
CSLAYER1
  6
CONTINUOUS
 62
     4
 10
1033.144387
 20
1031.718020
 11
1033.578799
 21
1033.781124
  0
LINE
  8
CSLAYER1
  6
CONTINUOUS
 62
     4
 10
1033.578799
 20
1033.781124
 11
1033.723971
 21
1035.860051
  0
LINE
  8
CSLAYER1
  6
CONTINUOUS
 62
     4
 10
1038.073971
 20
1035.860051
 11
1037.912246
 21
1038.176024
  0
LINE
  8
CSLAYER1
  6
CONTINUOUS
 62
     4
 10
1037.912246
 20
1038.176024
 11
1037.428301
 21
1040.474372
  0
LINE
  8
CSLAYER1
  6
CONTINUOUS
 62
     4
 10
1037.428301
 20
1040.474372
 11
1036.625819
 21
1042.737601
  0
LINE
  8
CSLAYER1
  6
CONTINUOUS
 62
     4
 10
1036.625819
 20
1042.737601
 11
1035.510908
 21
1044.948488
  0
LINE
  8
CSLAYER1
  6
CONTINUOUS
 62
     4
 10
1035.510908
 20
1044.948488
 11
1034.092052
 21
1047.090207
  0
LINE
  8
CSLAYER1
  6
CONTINUOUS
 62
     4
 10
1034.092052
 20
1047.090207
 11
1033.723971
 21
1047.532302
  0
LINE
  8
CSLAYER1
  6
CONTINUOUS
 62
     4
 10
957.423971
 20
1047.532302
 11
957.055890
 21
1047.090207
  0
LINE
  8
CSLAYER1
  6
CONTINUOUS
 62
     4
 10
957.055890
 20
1047.090207
 11
955.637035
 21
1044.948488
  0
LINE
  8
CSLAYER1
  6
CONTINUOUS
 62
     4
 10
955.637035
 20
1044.948488
 11
954.522124
 21
1042.737601
  0
LINE
  8
CSLAYER1
  6
CONTINUOUS
 62
     4
 10
954.522124
 20
1042.737601
 11
953.719642
 21
1040.474372
  0
LINE
  8
CSLAYER1
  6
CONTINUOUS
 62
     4
 10
953.719642
 20
1040.474372
 11
953.235697
 21
1038.176024
  0
LINE
  8
CSLAYER1
  6
CONTINUOUS
 62
     4
 10
953.235697
 20
1038.176024
 11
953.073971
 21
1035.860051
  0
LINE
  8
CSLAYER1
  6
CONTINUOUS
 62
     4
 10
953.073971
 20
1035.860051
 11
953.235697
 21
1033.544078
  0
LINE
  8
CSLAYER1
  6
CONTINUOUS
 62
     4
 10
953.235697
 20
1033.544078
 11
953.719642
 21
1031.245730
  0
LINE
  8
CSLAYER1
  6
CONTINUOUS
 62
     4
 10
953.719642
 20
1031.245730
 11
954.522124
 21
1028.982501
  0
LINE
  8
CSLAYER1
  6
CONTINUOUS
 62
     4
 10
954.522124
 20
1028.982501
 11
955.637035
 21
1026.771614
  0
LINE
  8
CSLAYER1
  6
CONTINUOUS
 62
     4
 10
955.637035
 20
1026.771614
 11
957.055890
 21
1024.629895
  0
LINE
  8
CSLAYER1
  6
CONTINUOUS
 62
     4
 10
957.055890
 20
1024.629895
 11
958.767892
 21
1022.573645
  0
LINE
  8
CSLAYER1
  6
CONTINUOUS
 62
     4
 10
958.767892
 20
1022.573645
 11
960.760009
 21
1020.618512
  0
LINE
  8
CSLAYER1
  6
CONTINUOUS
 62
     4
 10
960.760009
 20
1020.618512
 11
963.017082
 21
1018.779376
  0
LINE
  8
CSLAYER1
  6
CONTINUOUS
 62
     4
 10
963.017082
 20
1018.779376
 11
965.521933
 21
1017.070235
  0
LINE
  8
CSLAYER1
  6
CONTINUOUS
 62
     4
 10
965.521933
 20
1017.070235
 11
968.255498
 21
1015.504095
  0
LINE
  8
CSLAYER1
  6
CONTINUOUS
 62
     4
 10
968.255498
 20
1015.504095
 11
971.196973
 21
1014.092877
  0
LINE
  8
CSLAYER1
  6
CONTINUOUS
 62
     4
 10
971.196973
 20
1014.092877
 11
974.323971
 21
1012.847320
  0
LINE
  8
CSLAYER1
  6
CONTINUOUS
 62
     4
 10
974.323971
 20
1012.847320
 11
977.612695
 21
1011.776904
  0
LINE
  8
CSLAYER1
  6
CONTINUOUS
 62
     4
 10
977.612695
 20
1011.776904
 11
981.038115
 21
1010.889775
  0
LINE
  8
CSLAYER1
  6
CONTINUOUS
 62
     4
 10
981.038115
 20
1010.889775
 11
984.574162
 21
1010.192685
  0
LINE
  8
CSLAYER1
  6
CONTINUOUS
 62
     4
 10
984.574162
 20
1010.192685
 11
988.193924
 21
1009.690939
  0
LINE
  8
CSLAYER1
  6
CONTINUOUS
 62
     4
 10
988.193924
 20
1009.690939
 11
991.869852
 21
1009.388356
  0
LINE
  8
CSLAYER1
  6
CONTINUOUS
 62
     4
 10
991.869852
 20
1009.388356
 11
995.573971
 21
1009.287238
  0
LINE
  8
CSLAYER1
  6
CONTINUOUS
 62
     4
 10
995.573971
 20
1009.287238
 11
999.278090
 21
1009.388356
  0
LINE
  8
CSLAYER1
  6
CONTINUOUS
 62
     4
 10
999.278090
 20
1009.388356
 11
1002.954019
 21
1009.690939
  0
LINE
  8
CSLAYER1
  6
CONTINUOUS
 62
     4
 10
1002.954019
 20
1009.690939
 11
1006.573781
 21
1010.192685
  0
LINE
  8
CSLAYER1
  6
CONTINUOUS
 62
     4
 10
1006.573781
 20
1010.192685
 11
1010.109827
 21
1010.889775
  0
LINE
  8
CSLAYER1
  6
CONTINUOUS
 62
     4
 10
1010.109827
 20
1010.889775
 11
1013.535247
 21
1011.776904
  0
LINE
  8
CSLAYER1
  6
CONTINUOUS
 62
     4
 10
1013.535247
 20
1011.776904
 11
1016.823971
 21
1012.847320
  0
LINE
  8
CSLAYER1
  6
CONTINUOUS
 62
     4
 10
1016.823971
 20
1012.847320
 11
1019.950970
 21
1014.092877
  0
LINE
  8
CSLAYER1
  6
CONTINUOUS
 62
     4
 10
1019.950970
 20
1014.092877
 11
1022.892445
 21
1015.504095
  0
LINE
  8
CSLAYER1
  6
CONTINUOUS
 62
     4
 10
1022.892445
 20
1015.504095
 11
1025.626010
 21
1017.070235
  0
LINE
  8
CSLAYER1
  6
CONTINUOUS
 62
     4
 10
1025.626010
 20
1017.070235
 11
1028.130860
 21
1018.779376
  0
LINE
  8
CSLAYER1
  6
CONTINUOUS
 62
     4
 10
1028.130860
 20
1018.779376
 11
1030.387933
 21
1020.618512
  0
LINE
  8
CSLAYER1
  6
CONTINUOUS
 62
     4
 10
1030.387933
 20
1020.618512
 11
1032.380051
 21
1022.573645
  0
LINE
  8
CSLAYER1
  6
CONTINUOUS
 62
     4
 10
1032.380051
 20
1022.573645
 11
1034.092052
 21
1024.629895
  0
LINE
  8
CSLAYER1
  6
CONTINUOUS
 62
     4
 10
1034.092052
 20
1024.629895
 11
1035.510908
 21
1026.771614
  0
LINE
  8
CSLAYER1
  6
CONTINUOUS
 62
     4
 10
1035.510908
 20
1026.771614
 11
1036.625819
 21
1028.982501
  0
LINE
  8
CSLAYER1
  6
CONTINUOUS
 62
     4
 10
1036.625819
 20
1028.982501
 11
1037.428301
 21
1031.245730
  0
LINE
  8
CSLAYER1
  6
CONTINUOUS
 62
     4
 10
1037.428301
 20
1031.245730
 11
1037.912246
 21
1033.544078
  0
LINE
  8
CSLAYER1
  6
CONTINUOUS
 62
     4
 10
1037.912246
 20
1033.544078
 11
1038.073971
 21
1035.860051
  0
LINE
  8
CSLAYER1
  6
CONTINUOUS
 62
     4
 10
1033.723971
 20
1035.860051
 11
1033.723971
 21
1240.295691
  0
LINE
  8
CSLAYER1
  6
CONTINUOUS
 62
     4
 10
972.073971
 20
1364.361594
 11
972.073971
 21
1359.679862
  0
LINE
  8
CSLAYER1
  6
CONTINUOUS
 62
     4
 10
1019.073971
 20
1364.361594
 11
1019.073971
 21
1359.679862
  0
LINE
  8
CSLAYER1
  6
CONTINUOUS
 62
     4
 10
972.073971
 20
1359.679862
 11
972.163396
 21
1358.399265
  0
LINE
  8
CSLAYER1
  6
CONTINUOUS
 62
     4
 10
972.163396
 20
1358.399265
 11
972.430989
 21
1357.128414
  0
LINE
  8
CSLAYER1
  6
CONTINUOUS
 62
     4
 10
972.430989
 20
1357.128414
 11
972.874714
 21
1355.876981
  0
LINE
  8
CSLAYER1
  6
CONTINUOUS
 62
     4
 10
972.874714
 20
1355.876981
 11
973.491195
 21
1354.654491
  0
LINE
  8
CSLAYER1
  6
CONTINUOUS
 62
     4
 10
973.491195
 20
1354.654491
 11
974.275738
 21
1353.470246
  0
LINE
  8
CSLAYER1
  6
CONTINUOUS
 62
     4
 10
974.275738
 20
1353.470246
 11
975.222374
 21
1352.333261
  0
LINE
  8
CSLAYER1
  6
CONTINUOUS
 62
     4
 10
975.222374
 20
1352.333261
 11
976.323898
 21
1351.252187
  0
LINE
  8
CSLAYER1
  6
CONTINUOUS
 62
     4
 10
976.323898
 20
1351.252187
 11
977.571927
 21
1350.235253
  0
LINE
  8
CSLAYER1
  6
CONTINUOUS
 62
     4
 10
977.571927
 20
1350.235253
 11
978.956962
 21
1349.290199
  0
LINE
  8
CSLAYER1
  6
CONTINUOUS
 62
     4
 10
978.956962
 20
1349.290199
 11
980.468462
 21
1348.424216
  0
LINE
  8
CSLAYER1
  6
CONTINUOUS
 62
     4
 10
980.468462
 20
1348.424216
 11
982.094925
 21
1347.643895
  0
LINE
  8
CSLAYER1
  6
CONTINUOUS
 62
     4
 10
982.094925
 20
1347.643895
 11
983.823971
 21
1346.955175
  0
LINE
  8
CSLAYER1
  6
CONTINUOUS
 62
     4
 10
983.823971
 20
1346.955175
 11
985.642442
 21
1346.363298
  0
LINE
  8
CSLAYER1
  6
CONTINUOUS
 62
     4
 10
985.642442
 20
1346.363298
 11
987.536498
 21
1345.872768
  0
LINE
  8
CSLAYER1
  6
CONTINUOUS
 62
     4
 10
987.536498
 20
1345.872768
 11
989.491724
 21
1345.487318
  0
LINE
  8
CSLAYER1
  6
CONTINUOUS
 62
     4
 10
989.491724
 20
1345.487318
 11
991.493239
 21
1345.209882
  0
LINE
  8
CSLAYER1
  6
CONTINUOUS
 62
     4
 10
991.493239
 20
1345.209882
 11
993.525811
 21
1345.042572
  0
LINE
  8
CSLAYER1
  6
CONTINUOUS
 62
     4
 10
993.525811
 20
1345.042572
 11
995.573971
 21
1344.986659
  0
LINE
  8
CSLAYER1
  6
CONTINUOUS
 62
     4
 10
995.573971
 20
1344.986659
 11
997.622131
 21
1345.042572
  0
LINE
  8
CSLAYER1
  6
CONTINUOUS
 62
     4
 10
997.622131
 20
1345.042572
 11
999.654703
 21
1345.209882
  0
LINE
  8
CSLAYER1
  6
CONTINUOUS
 62
     4
 10
999.654703
 20
1345.209882
 11
1001.656219
 21
1345.487318
  0
LINE
  8
CSLAYER1
  6
CONTINUOUS
 62
     4
 10
1001.656219
 20
1345.487318
 11
1003.611445
 21
1345.872768
  0
LINE
  8
CSLAYER1
  6
CONTINUOUS
 62
     4
 10
1003.611445
 20
1345.872768
 11
1005.505500
 21
1346.363298
  0
LINE
  8
CSLAYER1
  6
CONTINUOUS
 62
     4
 10
1005.505500
 20
1346.363298
 11
1007.323971
 21
1346.955175
  0
LINE
  8
CSLAYER1
  6
CONTINUOUS
 62
     4
 10
1007.323971
 20
1346.955175
 11
1009.053018
 21
1347.643895
  0
LINE
  8
CSLAYER1
  6
CONTINUOUS
 62
     4
 10
1009.053018
 20
1347.643895
 11
1010.679480
 21
1348.424216
  0
LINE
  8
CSLAYER1
  6
CONTINUOUS
 62
     4
 10
1010.679480
 20
1348.424216
 11
1012.190981
 21
1349.290199
  0
LINE
  8
CSLAYER1
  6
CONTINUOUS
 62
     4
 10
1012.190981
 20
1349.290199
 11
1013.576016
 21
1350.235253
  0
LINE
  8
CSLAYER1
  6
CONTINUOUS
 62
     4
 10
1013.576016
 20
1350.235253
 11
1014.824044
 21
1351.252187
  0
LINE
  8
CSLAYER1
  6
CONTINUOUS
 62
     4
 10
1014.824044
 20
1351.252187
 11
1015.925568
 21
1352.333261
  0
LINE
  8
CSLAYER1
  6
CONTINUOUS
 62
     4
 10
1015.925568
 20
1352.333261
 11
1016.872204
 21
1353.470246
  0
LINE
  8
CSLAYER1
  6
CONTINUOUS
 62
     4
 10
1016.872204
 20
1353.470246
 11
1017.656748
 21
1354.654491
  0
LINE
  8
CSLAYER1
  6
CONTINUOUS
 62
     4
 10
1017.656748
 20
1354.654491
 11
1018.273228
 21
1355.876981
  0
LINE
  8
CSLAYER1
  6
CONTINUOUS
 62
     4
 10
1018.273228
 20
1355.876981
 11
1018.716954
 21
1357.128414
  0
LINE
  8
CSLAYER1
  6
CONTINUOUS
 62
     4
 10
1018.716954
 20
1357.128414
 11
1018.984547
 21
1358.399265
  0
LINE
  8
CSLAYER1
  6
CONTINUOUS
 62
     4
 10
1018.984547
 20
1358.399265
 11
1019.073971
 21
1359.679862
  0
LINE
  8
CSLAYER1
  6
CONTINUOUS
 62
     4
 10
1019.073971
 20
1364.361594
 11
1018.984547
 21
1365.642191
  0
LINE
  8
CSLAYER1
  6
CONTINUOUS
 62
     4
 10
1018.984547
 20
1365.642191
 11
1018.831548
 21
1366.368812
  0
LINE
  8
CSLAYER1
  6
CONTINUOUS
 62
     4
 10
972.316395
 20
1366.368812
 11
972.163396
 21
1365.642191
  0
LINE
  8
CSLAYER1
  6
CONTINUOUS
 62
     4
 10
972.163396
 20
1365.642191
 11
972.073971
 21
1364.361594
  0
LINE
  8
CSLAYER1
  6
CONTINUOUS
 62
     4
 10
972.073971
 20
1364.361594
 11
972.163396
 21
1363.080997
  0
LINE
  8
CSLAYER1
  6
CONTINUOUS
 62
     4
 10
972.163396
 20
1363.080997
 11
972.430989
 21
1361.810146
  0
LINE
  8
CSLAYER1
  6
CONTINUOUS
 62
     4
 10
972.430989
 20
1361.810146
 11
972.874714
 21
1360.558713
  0
LINE
  8
CSLAYER1
  6
CONTINUOUS
 62
     4
 10
972.874714
 20
1360.558713
 11
973.491195
 21
1359.336223
  0
LINE
  8
CSLAYER1
  6
CONTINUOUS
 62
     4
 10
973.491195
 20
1359.336223
 11
974.275738
 21
1358.151978
  0
LINE
  8
CSLAYER1
  6
CONTINUOUS
 62
     4
 10
974.275738
 20
1358.151978
 11
975.222374
 21
1357.014993
  0
LINE
  8
CSLAYER1
  6
CONTINUOUS
 62
     4
 10
975.222374
 20
1357.014993
 11
976.323898
 21
1355.933919
  0
LINE
  8
CSLAYER1
  6
CONTINUOUS
 62
     4
 10
976.323898
 20
1355.933919
 11
977.571927
 21
1354.916986
  0
LINE
  8
CSLAYER1
  6
CONTINUOUS
 62
     4
 10
977.571927
 20
1354.916986
 11
978.956962
 21
1353.971931
  0
LINE
  8
CSLAYER1
  6
CONTINUOUS
 62
     4
 10
978.956962
 20
1353.971931
 11
980.468462
 21
1353.105948
  0
LINE
  8
CSLAYER1
  6
CONTINUOUS
 62
     4
 10
980.468462
 20
1353.105948
 11
982.094925
 21
1352.325627
  0
LINE
  8
CSLAYER1
  6
CONTINUOUS
 62
     4
 10
982.094925
 20
1352.325627
 11
983.823971
 21
1351.636908
  0
LINE
  8
CSLAYER1
  6
CONTINUOUS
 62
     4
 10
983.823971
 20
1351.636908
 11
985.642442
 21
1351.045030
  0
LINE
  8
CSLAYER1
  6
CONTINUOUS
 62
     4
 10
1005.505500
 20
1351.045030
 11
1007.323971
 21
1351.636908
  0
LINE
  8
CSLAYER1
  6
CONTINUOUS
 62
     4
 10
1007.323971
 20
1351.636908
 11
1009.053018
 21
1352.325627
  0
LINE
  8
CSLAYER1
  6
CONTINUOUS
 62
     4
 10
1009.053018
 20
1352.325627
 11
1010.679480
 21
1353.105948
  0
LINE
  8
CSLAYER1
  6
CONTINUOUS
 62
     4
 10
1010.679480
 20
1353.105948
 11
1012.190981
 21
1353.971931
  0
LINE
  8
CSLAYER1
  6
CONTINUOUS
 62
     4
 10
1012.190981
 20
1353.971931
 11
1013.576016
 21
1354.916986
  0
LINE
  8
CSLAYER1
  6
CONTINUOUS
 62
     4
 10
1013.576016
 20
1354.916986
 11
1014.824044
 21
1355.933919
  0
LINE
  8
CSLAYER1
  6
CONTINUOUS
 62
     4
 10
1014.824044
 20
1355.933919
 11
1015.925568
 21
1357.014993
  0
LINE
  8
CSLAYER1
  6
CONTINUOUS
 62
     4
 10
1015.925568
 20
1357.014993
 11
1016.872204
 21
1358.151978
  0
LINE
  8
CSLAYER1
  6
CONTINUOUS
 62
     4
 10
1016.872204
 20
1358.151978
 11
1017.656748
 21
1359.336223
  0
LINE
  8
CSLAYER1
  6
CONTINUOUS
 62
     4
 10
1017.656748
 20
1359.336223
 11
1018.273228
 21
1360.558713
  0
LINE
  8
CSLAYER1
  6
CONTINUOUS
 62
     4
 10
1018.273228
 20
1360.558713
 11
1018.716954
 21
1361.810146
  0
LINE
  8
CSLAYER1
  6
CONTINUOUS
 62
     4
 10
1018.716954
 20
1361.810146
 11
1018.984547
 21
1363.080997
  0
LINE
  8
CSLAYER1
  6
CONTINUOUS
 62
     4
 10
1018.984547
 20
1363.080997
 11
1019.073971
 21
1364.361594
  0
LINE
  8
CSLAYER1
  6
CONTINUOUS
 62
     4
 10
974.223971
 20
1240.295691
 11
974.223971
 21
1254.029604
  0
LINE
  8
CSLAYER1
  6
CONTINUOUS
 62
     4
 10
1016.923971
 20
1240.295691
 11
1016.923971
 21
1254.029604
  0
LINE
  8
CSLAYER1
  6
CONTINUOUS
 62
     4
 10
974.223971
 20
1240.295691
 11
974.305215
 21
1239.132255
  0
LINE
  8
CSLAYER1
  6
CONTINUOUS
 62
     4
 10
974.305215
 20
1239.132255
 11
974.548326
 21
1237.977673
  0
LINE
  8
CSLAYER1
  6
CONTINUOUS
 62
     4
 10
974.548326
 20
1237.977673
 11
974.951455
 21
1236.840733
  0
LINE
  8
CSLAYER1
  6
CONTINUOUS
 62
     4
 10
974.951455
 20
1236.840733
 11
975.511534
 21
1235.730087
  0
LINE
  8
CSLAYER1
  6
CONTINUOUS
 62
     4
 10
975.511534
 20
1235.730087
 11
976.224300
 21
1234.654189
  0
LINE
  8
CSLAYER1
  6
CONTINUOUS
 62
     4
 10
976.224300
 20
1234.654189
 11
977.084329
 21
1233.621225
  0
LINE
  8
CSLAYER1
  6
CONTINUOUS
 62
     4
 10
977.084329
 20
1233.621225
 11
978.085075
 21
1232.639059
  0
LINE
  8
CSLAYER1
  6
CONTINUOUS
 62
     4
 10
978.085075
 20
1232.639059
 11
979.218922
 21
1231.715163
  0
LINE
  8
CSLAYER1
  6
CONTINUOUS
 62
     4
 10
979.218922
 20
1231.715163
 11
980.477242
 21
1230.856571
  0
LINE
  8
CSLAYER1
  6
CONTINUOUS
 62
     4
 10
980.477242
 20
1230.856571
 11
981.850456
 21
1230.069816
  0
LINE
  8
CSLAYER1
  6
CONTINUOUS
 62
     4
 10
981.850456
 20
1230.069816
 11
983.328114
 21
1229.360887
  0
LINE
  8
CSLAYER1
  6
CONTINUOUS
 62
     4
 10
983.328114
 20
1229.360887
 11
984.898971
 21
1228.735178
  0
LINE
  8
CSLAYER1
  6
CONTINUOUS
 62
     4
 10
984.898971
 20
1228.735178
 11
986.551071
 21
1228.197451
  0
LINE
  8
CSLAYER1
  6
CONTINUOUS
 62
     4
 10
986.551071
 20
1228.197451
 11
988.271841
 21
1227.751799
  0
LINE
  8
CSLAYER1
  6
CONTINUOUS
 62
     4
 10
988.271841
 20
1227.751799
 11
990.048185
 21
1227.401614
  0
LINE
  8
CSLAYER1
  6
CONTINUOUS
 62
     4
 10
990.048185
 20
1227.401614
 11
991.866583
 21
1227.149560
  0
LINE
  8
CSLAYER1
  6
CONTINUOUS
 62
     4
 10
991.866583
 20
1227.149560
 11
993.713196
 21
1226.997557
  0
LINE
  8
CSLAYER1
  6
CONTINUOUS
 62
     4
 10
993.713196
 20
1226.997557
 11
995.573971
 21
1226.946760
  0
LINE
  8
CSLAYER1
  6
CONTINUOUS
 62
     4
 10
995.573971
 20
1226.946760
 11
997.434746
 21
1226.997557
  0
LINE
  8
CSLAYER1
  6
CONTINUOUS
 62
     4
 10
997.434746
 20
1226.997557
 11
999.281360
 21
1227.149560
  0
LINE
  8
CSLAYER1
  6
CONTINUOUS
 62
     4
 10
999.281360
 20
1227.149560
 11
1001.099758
 21
1227.401614
  0
LINE
  8
CSLAYER1
  6
CONTINUOUS
 62
     4
 10
1001.099758
 20
1227.401614
 11
1002.876101
 21
1227.751799
  0
LINE
  8
CSLAYER1
  6
CONTINUOUS
 62
     4
 10
1002.876101
 20
1227.751799
 11
1004.596871
 21
1228.197451
  0
LINE
  8
CSLAYER1
  6
CONTINUOUS
 62
     4
 10
1004.596871
 20
1228.197451
 11
1006.248971
 21
1228.735178
  0
LINE
  8
CSLAYER1
  6
CONTINUOUS
 62
     4
 10
1006.248971
 20
1228.735178
 11
1007.819828
 21
1229.360887
  0
LINE
  8
CSLAYER1
  6
CONTINUOUS
 62
     4
 10
1007.819828
 20
1229.360887
 11
1009.297487
 21
1230.069816
  0
LINE
  8
CSLAYER1
  6
CONTINUOUS
 62
     4
 10
1009.297487
 20
1230.069816
 11
1010.670701
 21
1230.856571
  0
LINE
  8
CSLAYER1
  6
CONTINUOUS
 62
     4
 10
1010.670701
 20
1230.856571
 11
1011.929020
 21
1231.715163
  0
LINE
  8
CSLAYER1
  6
CONTINUOUS
 62
     4
 10
1011.929020
 20
1231.715163
 11
1013.062867
 21
1232.639059
  0
LINE
  8
CSLAYER1
  6
CONTINUOUS
 62
     4
 10
1013.062867
 20
1232.639059
 11
1014.063614
 21
1233.621225
  0
LINE
  8
CSLAYER1
  6
CONTINUOUS
 62
     4
 10
1014.063614
 20
1233.621225
 11
1014.923643
 21
1234.654189
  0
LINE
  8
CSLAYER1
  6
CONTINUOUS
 62
     4
 10
1014.923643
 20
1234.654189
 11
1015.636409
 21
1235.730087
  0
LINE
  8
CSLAYER1
  6
CONTINUOUS
 62
     4
 10
1015.636409
 20
1235.730087
 11
1016.196488
 21
1236.840733
  0
LINE
  8
CSLAYER1
  6
CONTINUOUS
 62
     4
 10
1016.196488
 20
1236.840733
 11
1016.599617
 21
1237.977673
  0
LINE
  8
CSLAYER1
  6
CONTINUOUS
 62
     4
 10
1016.599617
 20
1237.977673
 11
1016.842728
 21
1239.132255
  0
LINE
  8
CSLAYER1
  6
CONTINUOUS
 62
     4
 10
1016.842728
 20
1239.132255
 11
1016.923971
 21
1240.295691
  0
LINE
  8
CSLAYER1
  6
CONTINUOUS
 62
     4
 10
1033.723971
 20
1240.295691
 11
1033.578799
 21
1242.374617
  0
LINE
  8
CSLAYER1
  6
CONTINUOUS
 62
     4
 10
1033.578799
 20
1242.374617
 11
1033.144387
 21
1244.437722
  0
LINE
  8
CSLAYER1
  6
CONTINUOUS
 62
     4
 10
1033.144387
 20
1244.437722
 11
1032.424042
 21
1246.469303
  0
LINE
  8
CSLAYER1
  6
CONTINUOUS
 62
     4
 10
1032.424042
 20
1246.469303
 11
1031.423245
 21
1248.453900
  0
LINE
  8
CSLAYER1
  6
CONTINUOUS
 62
     4
 10
1031.423245
 20
1248.453900
 11
1030.149613
 21
1250.376407
  0
LINE
  8
CSLAYER1
  6
CONTINUOUS
 62
     4
 10
1030.149613
 20
1250.376407
 11
1028.612840
 21
1252.222194
  0
LINE
  8
CSLAYER1
  6
CONTINUOUS
 62
     4
 10
1028.612840
 20
1252.222194
 11
1026.824622
 21
1253.977214
  0
LINE
  8
CSLAYER1
  6
CONTINUOUS
 62
     4
 10
964.323321
 20
1253.977214
 11
962.535102
 21
1252.222194
  0
LINE
  8
CSLAYER1
  6
CONTINUOUS
 62
     4
 10
962.535102
 20
1252.222194
 11
960.998329
 21
1250.376407
  0
LINE
  8
CSLAYER1
  6
CONTINUOUS
 62
     4
 10
960.998329
 20
1250.376407
 11
959.724698
 21
1248.453900
  0
LINE
  8
CSLAYER1
  6
CONTINUOUS
 62
     4
 10
959.724698
 20
1248.453900
 11
958.723901
 21
1246.469303
  0
LINE
  8
CSLAYER1
  6
CONTINUOUS
 62
     4
 10
958.723901
 20
1246.469303
 11
958.003556
 21
1244.437722
  0
LINE
  8
CSLAYER1
  6
CONTINUOUS
 62
     4
 10
958.003556
 20
1244.437722
 11
957.569144
 21
1242.374617
  0
LINE
  8
CSLAYER1
  6
CONTINUOUS
 62
     4
 10
957.569144
 20
1242.374617
 11
957.423971
 21
1240.295691
  0
LINE
  8
CSLAYER1
  6
CONTINUOUS
 62
     4
 10
957.423971
 20
1240.295691
 11
957.569144
 21
1238.216764
  0
LINE
  8
CSLAYER1
  6
CONTINUOUS
 62
     4
 10
957.569144
 20
1238.216764
 11
958.003556
 21
1236.153659
  0
LINE
  8
CSLAYER1
  6
CONTINUOUS
 62
     4
 10
958.003556
 20
1236.153659
 11
958.723901
 21
1234.122078
  0
LINE
  8
CSLAYER1
  6
CONTINUOUS
 62
     4
 10
958.723901
 20
1234.122078
 11
959.724698
 21
1232.137482
  0
LINE
  8
CSLAYER1
  6
CONTINUOUS
 62
     4
 10
959.724698
 20
1232.137482
 11
960.998329
 21
1230.214974
  0
LINE
  8
CSLAYER1
  6
CONTINUOUS
 62
     4
 10
960.998329
 20
1230.214974
 11
962.535102
 21
1228.369187
  0
LINE
  8
CSLAYER1
  6
CONTINUOUS
 62
     4
 10
962.535102
 20
1228.369187
 11
964.323321
 21
1226.614168
  0
LINE
  8
CSLAYER1
  6
CONTINUOUS
 62
     4
 10
964.323321
 20
1226.614168
 11
966.349376
 21
1224.963273
  0
LINE
  8
CSLAYER1
  6
CONTINUOUS
 62
     4
 10
966.349376
 20
1224.963273
 11
968.597848
 21
1223.429067
  0
LINE
  8
CSLAYER1
  6
CONTINUOUS
 62
     4
 10
968.597848
 20
1223.429067
 11
971.051624
 21
1222.023227
  0
LINE
  8
CSLAYER1
  6
CONTINUOUS
 62
     4
 10
971.051624
 20
1222.023227
 11
973.692030
 21
1220.756451
  0
LINE
  8
CSLAYER1
  6
CONTINUOUS
 62
     4
 10
973.692030
 20
1220.756451
 11
976.498971
 21
1219.638380
  0
LINE
  8
CSLAYER1
  6
CONTINUOUS
 62
     4
 10
976.498971
 20
1219.638380
 11
979.451085
 21
1218.677524
  0
LINE
  8
CSLAYER1
  6
CONTINUOUS
 62
     4
 10
979.451085
 20
1218.677524
 11
982.525903
 21
1217.881196
  0
LINE
  8
CSLAYER1
  6
CONTINUOUS
 62
     4
 10
982.525903
 20
1217.881196
 11
985.700025
 21
1217.255455
  0
LINE
  8
CSLAYER1
  6
CONTINUOUS
 62
     4
 10
985.700025
 20
1217.255455
 11
988.949293
 21
1216.805064
  0
LINE
  8
CSLAYER1
  6
CONTINUOUS
 62
     4
 10
988.949293
 20
1216.805064
 11
992.248980
 21
1216.533451
  0
LINE
  8
CSLAYER1
  6
CONTINUOUS
 62
     4
 10
992.248980
 20
1216.533451
 11
995.573971
 21
1216.442683
  0
LINE
  8
CSLAYER1
  6
CONTINUOUS
 62
     4
 10
995.573971
 20
1216.442683
 11
998.898963
 21
1216.533451
  0
LINE
  8
CSLAYER1
  6
CONTINUOUS
 62
     4
 10
998.898963
 20
1216.533451
 11
1002.198649
 21
1216.805064
  0
LINE
  8
CSLAYER1
  6
CONTINUOUS
 62
     4
 10
1002.198649
 20
1216.805064
 11
1005.447918
 21
1217.255455
  0
LINE
  8
CSLAYER1
  6
CONTINUOUS
 62
     4
 10
1005.447918
 20
1217.255455
 11
1008.622040
 21
1217.881196
  0
LINE
  8
CSLAYER1
  6
CONTINUOUS
 62
     4
 10
1008.622040
 20
1217.881196
 11
1011.696858
 21
1218.677524
  0
LINE
  8
CSLAYER1
  6
CONTINUOUS
 62
     4
 10
1011.696858
 20
1218.677524
 11
1014.648971
 21
1219.638380
  0
LINE
  8
CSLAYER1
  6
CONTINUOUS
 62
     4
 10
1014.648971
 20
1219.638380
 11
1017.455912
 21
1220.756451
  0
LINE
  8
CSLAYER1
  6
CONTINUOUS
 62
     4
 10
1017.455912
 20
1220.756451
 11
1020.096319
 21
1222.023227
  0
LINE
  8
CSLAYER1
  6
CONTINUOUS
 62
     4
 10
1020.096319
 20
1222.023227
 11
1022.550095
 21
1223.429067
  0
LINE
  8
CSLAYER1
  6
CONTINUOUS
 62
     4
 10
1022.550095
 20
1223.429067
 11
1024.798567
 21
1224.963273
  0
LINE
  8
CSLAYER1
  6
CONTINUOUS
 62
     4
 10
1024.798567
 20
1224.963273
 11
1026.824622
 21
1226.614168
  0
LINE
  8
CSLAYER1
  6
CONTINUOUS
 62
     4
 10
1026.824622
 20
1226.614168
 11
1028.612840
 21
1228.369187
  0
LINE
  8
CSLAYER1
  6
CONTINUOUS
 62
     4
 10
1028.612840
 20
1228.369187
 11
1030.149613
 21
1230.214974
  0
LINE
  8
CSLAYER1
  6
CONTINUOUS
 62
     4
 10
1030.149613
 20
1230.214974
 11
1031.423245
 21
1232.137482
  0
LINE
  8
CSLAYER1
  6
CONTINUOUS
 62
     4
 10
1031.423245
 20
1232.137482
 11
1032.424042
 21
1234.122078
  0
LINE
  8
CSLAYER1
  6
CONTINUOUS
 62
     4
 10
1032.424042
 20
1234.122078
 11
1033.144387
 21
1236.153659
  0
LINE
  8
CSLAYER1
  6
CONTINUOUS
 62
     4
 10
1033.144387
 20
1236.153659
 11
1033.578799
 21
1238.216764
  0
LINE
  8
CSLAYER1
  6
CONTINUOUS
 62
     4
 10
1033.578799
 20
1238.216764
 11
1033.723971
 21
1240.295691
  0
LINE
  8
CSLAYER1
  6
CONTINUOUS
 62
     4
 10
1016.923971
 20
1314.529604
 11
1016.923971
 21
1353.532423
  0
LINE
  8
CSLAYER1
  6
CONTINUOUS
 62
     4
 10
974.223971
 20
1314.529604
 11
974.223971
 21
1353.532423
  0
LINE
  8
CSLAYER1
  6
CONTINUOUS
 62
     4
 10
1113.573971
 20
761.251444
 11
1113.573971
 21
770.933505
  0
LINE
  8
CSLAYER1
  6
CONTINUOUS
 62
     4
 10
1109.173971
 20
758.410855
 11
1109.173971
 21
770.933505
  0
LINE
  8
CSLAYER1
  6
CONTINUOUS
 62
     4
 10
1104.173971
 20
788.635063
 11
1104.173971
 21
810.386534
  0
LINE
  8
CSLAYER1
  6
CONTINUOUS
 62
     4
 10
1113.573971
 20
761.251444
 11
1109.173971
 21
761.251444
  0
LINE
  8
CSLAYER1
  6
CONTINUOUS
 62
     4
 10
1094.073971
 20
761.251444
 11
1077.573971
 21
761.251444
  0
LINE
  8
CSLAYER1
  6
CONTINUOUS
 62
     4
 10
1038.073971
 20
1035.860051
 11
1038.073971
 21
986.129455
  0
LINE
  8
CSLAYER1
  6
CONTINUOUS
 62
     4
 10
1086.573971
 20
986.129455
 11
1086.573971
 21
1014.830883
  0
LINE
  8
CSLAYER1
  6
CONTINUOUS
 62
     4
 10
1038.073971
 20
1033.593468
 11
1056.573971
 21
1033.593468
  0
LINE
  8
CSLAYER1
  6
CONTINUOUS
 62
     4
 10
1056.573971
 20
1033.593468
 11
1086.573971
 21
1014.830883
  0
LINE
  8
CSLAYER1
  6
CENTER
 62
     5
 10
761.573971
 20
705.714627
 11
761.573971
 21
852.514627
  0
INSERT
  8
CSLAYER1
  2
BLKF0008
 10
0.0
 20
0.0
 30
0.0
  0
INSERT
  8
CSLAYER1
  2
BLKF0009
 10
0.0
 20
0.0
 30
0.0
  0
INSERT
  8
CSLAYER1
  2
BLKF0010
 10
0.0
 20
0.0
 30
0.0
  0
LINE
  8
CSLAYER1
  6
CONTINUOUS
 62
     3
 10
751.573971
 20
705.714627
 11
751.573971
 21
826.714627
  0
LINE
  8
CSLAYER1
  6
CONTINUOUS
 62
     3
 10
771.573971
 20
705.714627
 11
771.573971
 21
826.714627
  0
LINE
  8
CSLAYER1
  6
CONTINUOUS
 62
     3
 10
771.073971
 20
852.514627
 11
752.073971
 21
852.514627
  0
LINE
  8
CSLAYER1
  6
CONTINUOUS
 62
     3
 10
772.543626
 20
844.514627
 11
750.604316
 21
844.514627
  0
LINE
  8
CSLAYER1
  6
CONTINUOUS
 62
     3
 10
772.543626
 20
851.666121
 11
772.543626
 21
844.514627
  0
LINE
  8
CSLAYER1
  6
CONTINUOUS
 62
     3
 10
767.058799
 20
851.666121
 11
767.058799
 21
844.514627
  0
LINE
  8
CSLAYER1
  6
CONTINUOUS
 62
     3
 10
771.073971
 20
852.514627
 11
772.543626
 21
851.666121
  0
ARC
  8
CSLAYER1
  6
CONTINUOUS
 62
     3
 10
761.573971
 20
834.363132
 40
18.151494
 50
72.412046
 51
107.587954
  0
ARC
  8
CSLAYER1
  6
CONTINUOUS
 62
     3
 10
769.801213
 20
847.672234
 40
4.844787
 50
64.475551
 51
124.475551
  0
LINE
  8
CSLAYER1
  6
CONTINUOUS
 62
     3
 10
750.604316
 20
851.666121
 11
750.604316
 21
844.514627
  0
LINE
  8
CSLAYER1
  6
CONTINUOUS
 62
     3
 10
756.089144
 20
851.666121
 11
756.089144
 21
844.514627
  0
LINE
  8
CSLAYER1
  6
CONTINUOUS
 62
     3
 10
752.073971
 20
852.514627
 11
750.604316
 21
851.666121
  0
ARC
  8
CSLAYER1
  6
CONTINUOUS
 62
     3
 10
753.346730
 20
847.672234
 40
4.844787
 50
55.524449
 51
115.524449
  0
LINE
  8
CSLAYER1
  6
CONTINUOUS
 62
     3
 10
767.573971
 20
844.514627
 11
766.573971
 21
842.782576
  0
LINE
  8
CSLAYER1
  6
CONTINUOUS
 62
     3
 10
755.573971
 20
844.514627
 11
756.573971
 21
842.782576
  0
POINT
  8
CSLAYER1
 62
     3
 10
761.573971
 20
844.514627
  0
LINE
  8
CSLAYER1
  6
CONTINUOUS
 62
     3
 10
767.573971
 20
844.514627
 11
767.573971
 21
836.714627
  0
LINE
  8
CSLAYER1
  6
CONTINUOUS
 62
     3
 10
766.573971
 20
842.782576
 11
766.573971
 21
836.714627
  0
LINE
  8
CSLAYER1
  6
CONTINUOUS
 62
     3
 10
756.573971
 20
842.782576
 11
756.573971
 21
836.714627
  0
LINE
  8
CSLAYER1
  6
CONTINUOUS
 62
     3
 10
755.573971
 20
844.514627
 11
755.573971
 21
836.714627
  0
INSERT
  8
CSLAYER1
  2
BLKF0011
 10
0.0
 20
0.0
 30
0.0
  0
INSERT
  8
CSLAYER1
  2
BLKF0012
 10
0.0
 20
0.0
 30
0.0
  0
INSERT
  8
CSLAYER1
  2
BLKF0013
 10
0.0
 20
0.0
 30
0.0
  0
LINE
  8
CSLAYER1
  6
CONTINUOUS
 62
     4
 10
957.573971
 20
1314.529604
 11
848.573971
 21
1314.529604
  0
LINE
  8
CSLAYER1
  6
CONTINUOUS
 62
     7
 10
848.573971
 20
1442.741671
 11
839.573971
 21
1442.741671
  0
LINE
  8
CSLAYER1
  6
CONTINUOUS
 62
     4
 10
903.573971
 20
1003.823506
 11
894.573971
 21
1003.823506
  0
LINE
  8
CSLAYER1
  6
CONTINUOUS
 62
     4
 10
903.573971
 20
986.129455
 11
903.573971
 21
1003.823506
  0
LINE
  8
CSLAYER1
  6
CONTINUOUS
 62
     4
 10
894.573971
 20
986.129455
 11
894.573971
 21
1003.823506
  0
INSERT
  8
CSLAYER1
  2
BLKF0014
 10
0.0
 20
0.0
 30
0.0
  0
LINE
  8
CSLAYER1
  6
CONTINUOUS
 62
     4
 10
830.573971
 20
905.902807
 11
826.573971
 21
905.902807
  0
LINE
  8
CSLAYER1
  6
CONTINUOUS
 62
     4
 10
830.573971
 20
810.386534
 11
826.573971
 21
810.386534
  0
LINE
  8
CSLAYER1
  6
CONTINUOUS
 62
     7
 10
848.573971
 20
1254.029604
 11
848.573971
 21
1442.741671
  0
LINE
  8
CSLAYER1
  6
CONTINUOUS
 62
     4
 10
953.073971
 20
1035.860051
 11
953.073971
 21
986.129455
  0
LINE
  8
CSLAYER1
  6
CONTINUOUS
 62
     4
 10
904.573971
 20
986.129455
 11
904.573971
 21
1014.830883
  0
LINE
  8
CSLAYER1
  6
CONTINUOUS
 62
     4
 10
953.073971
 20
1033.593468
 11
934.573971
 21
1033.593468
  0
LINE
  8
CSLAYER1
  6
CONTINUOUS
 62
     4
 10
934.573971
 20
1033.593468
 11
904.573971
 21
1014.830883
  0
LINE
  8
CSLAYER1
  6
CONTINUOUS
 62
     7
 10
839.573971
 20
705.714627
 11
839.573971
 21
1858.073938
  0
LINE
  8
CSLAYER1
  6
CONTINUOUS
 62
     7
 10
830.573971
 20
705.714627
 11
830.573971
 21
1858.073938
  0
LINE
  8
CSLAYER1
  6
CONTINUOUS
 62
     7
 10
817.573971
 20
705.714627
 11
817.573971
 21
1858.073938
  0
LINE
  8
CSLAYER1
  6
CONTINUOUS
 62
     7
 10
826.573971
 20
705.714627
 11
826.573971
 21
1858.073938
  0
LINE
  8
CSLAYER1
  6
CONTINUOUS
 62
     7
 10
1052.073971
 20
755.014627
 11
869.073971
 21
755.014627
  0
LINE
  8
CSLAYER1
  6
CONTINUOUS
 62
     1
 10
1052.073971
 20
749.014627
 11
1050.573971
 21
749.014627
  0
LINE
  8
CSLAYER1
  6
CONTINUOUS
 62
     1
 10
1052.073971
 20
749.014627
 11
1052.073971
 21
755.014627
  0
LINE
  8
CSLAYER1
  6
CENTER
 62
     5
 10
1016.017133
 20
734.014627
 11
1044.410720
 21
734.014627
  0
CIRCLE
  8
CSLAYER1
  6
CONTINUOUS
 62
     4
 10
1030.573971
 20
734.014627
 40
11.500000
  0
LINE
  8
CSLAYER1
  6
CONTINUOUS
 62
     4
 10
1030.073971
 20
747.005008
 11
1019.573971
 21
740.942830
  0
LINE
  8
CSLAYER1
  6
CONTINUOUS
 62
     4
 10
1019.073971
 20
740.076804
 11
1019.073971
 21
727.952449
  0
LINE
  8
CSLAYER1
  6
CONTINUOUS
 62
     4
 10
1019.573971
 20
727.086423
 11
1030.073971
 21
721.024246
  0
ARC
  8
CSLAYER1
  6
CONTINUOUS
 62
     4
 10
1030.573971
 20
734.014627
 40
13.000000
 50
87.795772
 51
92.204228
  0
ARC
  8
CSLAYER1
  6
CONTINUOUS
 62
     4
 10
1030.573971
 20
734.014627
 40
13.000000
 50
267.795772
 51
272.204228
  0
ARC
  8
CSLAYER1
  6
CONTINUOUS
 62
     4
 10
1030.573971
 20
734.014627
 40
13.000000
 50
207.795772
 51
212.204228
  0
ARC
  8
CSLAYER1
  6
CONTINUOUS
 62
     4
 10
1030.573971
 20
734.014627
 40
13.000000
 50
147.795772
 51
152.204228
  0
CIRCLE
  8
CSLAYER1
  6
CONTINUOUS
 62
     4
 10
1030.573971
 20
734.014627
 40
4.000000
  0
CIRCLE
  8
CSLAYER1
  6
CONTINUOUS
 62
     4
 10
1030.573971
 20
734.014627
 40
10.359534
  0
CIRCLE
  8
CSLAYER1
  6
CONTINUOUS
 62
     4
 10
1030.573971
 20
734.014627
 40
4.761355
  0
LINE
  8
CSLAYER1
  6
CONTINUOUS
 62
     4
 10
1031.073971
 20
747.005008
 11
1041.573971
 21
740.942830
  0
LINE
  8
CSLAYER1
  6
CONTINUOUS
 62
     4
 10
1042.073971
 20
740.076804
 11
1042.073971
 21
727.952449
  0
LINE
  8
CSLAYER1
  6
CONTINUOUS
 62
     4
 10
1041.573971
 20
727.086423
 11
1031.073971
 21
721.024246
  0
ARC
  8
CSLAYER1
  6
CONTINUOUS
 62
     4
 10
1030.573971
 20
734.014627
 40
13.000000
 50
327.795772
 51
332.204228
  0
ARC
  8
CSLAYER1
  6
CONTINUOUS
 62
     4
 10
1030.573971
 20
734.014627
 40
13.000000
 50
27.795772
 51
32.204228
  0
LINE
  8
CSLAYER1
  6
CENTER
 62
     5
 10
1030.573971
 20
749.935492
 11
1030.573971
 21
717.716863
  0
LINE
  8
CSLAYER1
  6
CENTER
 62
     5
 10
981.017133
 20
734.014627
 11
1009.410720
 21
734.014627
  0
CIRCLE
  8
CSLAYER1
  6
CONTINUOUS
 62
     4
 10
995.573971
 20
734.014627
 40
11.500000
  0
LINE
  8
CSLAYER1
  6
CONTINUOUS
 62
     4
 10
995.073971
 20
747.005008
 11
984.573971
 21
740.942830
  0
LINE
  8
CSLAYER1
  6
CONTINUOUS
 62
     4
 10
984.073971
 20
740.076804
 11
984.073971
 21
727.952449
  0
LINE
  8
CSLAYER1
  6
CONTINUOUS
 62
     4
 10
984.573971
 20
727.086423
 11
995.073971
 21
721.024246
  0
ARC
  8
CSLAYER1
  6
CONTINUOUS
 62
     4
 10
995.573971
 20
734.014627
 40
13.000000
 50
87.795772
 51
92.204228
  0
ARC
  8
CSLAYER1
  6
CONTINUOUS
 62
     4
 10
995.573971
 20
734.014627
 40
13.000000
 50
267.795772
 51
272.204228
  0
ARC
  8
CSLAYER1
  6
CONTINUOUS
 62
     4
 10
995.573971
 20
734.014627
 40
13.000000
 50
207.795772
 51
212.204228
  0
ARC
  8
CSLAYER1
  6
CONTINUOUS
 62
     4
 10
995.573971
 20
734.014627
 40
13.000000
 50
147.795772
 51
152.204228
  0
CIRCLE
  8
CSLAYER1
  6
CONTINUOUS
 62
     4
 10
995.573971
 20
734.014627
 40
4.000000
  0
CIRCLE
  8
CSLAYER1
  6
CONTINUOUS
 62
     4
 10
995.573971
 20
734.014627
 40
10.359534
  0
CIRCLE
  8
CSLAYER1
  6
CONTINUOUS
 62
     4
 10
995.573971
 20
734.014627
 40
4.761355
  0
LINE
  8
CSLAYER1
  6
CONTINUOUS
 62
     4
 10
996.073971
 20
747.005008
 11
1006.573971
 21
740.942830
  0
LINE
  8
CSLAYER1
  6
CONTINUOUS
 62
     4
 10
1007.073971
 20
740.076804
 11
1007.073971
 21
727.952449
  0
LINE
  8
CSLAYER1
  6
CONTINUOUS
 62
     4
 10
1006.573971
 20
727.086423
 11
996.073971
 21
721.024246
  0
ARC
  8
CSLAYER1
  6
CONTINUOUS
 62
     4
 10
995.573971
 20
734.014627
 40
13.000000
 50
327.795772
 51
332.204228
  0
ARC
  8
CSLAYER1
  6
CONTINUOUS
 62
     4
 10
995.573971
 20
734.014627
 40
13.000000
 50
27.795772
 51
32.204228
  0
LINE
  8
CSLAYER1
  6
CONTINUOUS
 62
     7
 10
1052.073971
 20
749.014627
 11
869.073971
 21
749.014627
  0
INSERT
  8
CSLAYER1
  2
BLKF0015
 10
0.0
 20
0.0
 30
0.0
  0
LINE
  8
CSLAYER1
  6
CONTINUOUS
 62
     5
 10
995.573971
 20
749.935492
 11
995.573971
 21
717.716863
  0
LINE
  8
CSLAYER1
  6
CONTINUOUS
 62
     1
 10
1052.073971
 20
755.014627
 11
869.073971
 21
755.014627
  0
LINE
  8
CSLAYER1
  6
CONTINUOUS
 62
     5
 10
1016.017133
 20
734.014627
 11
1044.410720
 21
734.014627
  0
LINE
  8
CSLAYER1
  6
CONTINUOUS
 62
     5
 10
1030.573971
 20
749.935492
 11
1030.573971
 21
717.716863
  0
LINE
  8
CSLAYER1
  6
CONTINUOUS
 62
     5
 10
981.017133
 20
734.014627
 11
1009.410720
 21
734.014627
  0
LINE
  8
CSLAYER1
  6
CONTINUOUS
 62
     7
 10
1050.573971
 20
749.014627
 11
1050.573971
 21
705.714627
  0
LINE
  8
CSLAYER1
  6
CONTINUOUS
 62
     7
 10
1052.073971
 20
755.014627
 11
1052.073971
 21
749.014627
  0
LINE
  8
CSLAYER1
  6
CONTINUOUS
 62
     1
 10
869.073971
 20
749.014627
 11
870.573971
 21
749.014627
  0
LINE
  8
CSLAYER1
  6
CONTINUOUS
 62
     1
 10
869.073971
 20
749.014627
 11
869.073971
 21
755.014627
  0
INSERT
  8
CSLAYER1
  2
BLKF0016
 10
0.0
 20
0.0
 30
0.0
  0
LINE
  8
CSLAYER1
  6
CONTINUOUS
 62
     7
 10
869.073971
 20
755.014627
 11
869.073971
 21
749.014627
  0
LINE
  8
CSLAYER1
  6
CONTINUOUS
 62
     7
 10
870.573971
 20
749.014627
 11
870.573971
 21
705.714627
  0
LINE
  8
CSLAYER1
  6
CENTER
 62
     5
 10
839.573971
 20
1811.893454
 11
1151.573971
 21
1811.893454
  0
LINE
  8
CSLAYER1
  6
CONTINUOUS
 62
     7
 10
839.573971
 20
1842.143454
 11
1151.573971
 21
1842.143454
  0
LINE
  8
CSLAYER1
  6
CONTINUOUS
 62
     7
 10
839.573971
 20
1781.643454
 11
1151.573971
 21
1781.643454
  0
LINE
  8
CSLAYER1
  6
CONTINUOUS
 62
     7
 10
1214.573971
 20
1858.073938
 11
1214.573971
 21
1849.873938
  0
LINE
  8
CSLAYER1
  6
CONTINUOUS
 62
     7
 10
1202.573971
 20
1858.073938
 11
1202.573971
 21
1849.873938
  0
LINE
  8
CSLAYER1
  6
CONTINUOUS
 62
     7
 10
1203.073971
 20
1849.373938
 11
1214.073971
 21
1849.373938
  0
LINE
  8
CSLAYER1
  6
CONTINUOUS
 62
     7
 10
1215.073971
 20
1849.373938
 11
1226.073971
 21
1849.373938
  0
ARC
  8
CSLAYER1
  6
CONTINUOUS
 62
     7
 10
1214.073971
 20
1849.873938
 40
0.500000
 50
270.000000
 51
360.000000
  0
ARC
  8
CSLAYER1
  6
CONTINUOUS
 62
     7
 10
1203.073971
 20
1849.873938
 40
0.500000
 50
180.000000
 51
270.000000
  0
ARC
  8
CSLAYER1
  6
CONTINUOUS
 62
     7
 10
1226.073971
 20
1849.873938
 40
0.500000
 50
270.000000
 51
360.000000
  0
ARC
  8
CSLAYER1
  6
CONTINUOUS
 62
     7
 10
1215.073971
 20
1849.873938
 40
0.500000
 50
180.000000
 51
270.000000
  0
LINE
  8
CSLAYER1
  6
CONTINUOUS
 62
     7
 10
776.573971
 20
1858.073938
 11
776.573971
 21
1849.873938
  0
LINE
  8
CSLAYER1
  6
CONTINUOUS
 62
     7
 10
788.573971
 20
1858.073938
 11
788.573971
 21
1849.873938
  0
LINE
  8
CSLAYER1
  6
CONTINUOUS
 62
     7
 10
788.073971
 20
1849.373938
 11
777.073971
 21
1849.373938
  0
ARC
  8
CSLAYER1
  6
CONTINUOUS
 62
     7
 10
777.073971
 20
1849.873938
 40
0.500000
 50
180.000000
 51
270.000000
  0
ARC
  8
CSLAYER1
  6
CONTINUOUS
 62
     7
 10
788.073971
 20
1849.873938
 40
0.500000
 50
270.000000
 51
360.000000
  0
ARC
  8
CSLAYER1
  6
CONTINUOUS
 62
     7
 10
776.073971
 20
1849.873938
 40
0.500000
 50
270.000000
 51
360.000000
  0
LINE
  8
CSLAYER1
  6
CONTINUOUS
 62
     7
 10
776.073971
 20
1849.373938
 11
765.073971
 21
1849.373938
  0
ARC
  8
CSLAYER1
  6
CONTINUOUS
 62
     7
 10
765.073971
 20
1849.873938
 40
0.500000
 50
180.000000
 51
270.000000
  0
LINE
  8
CSLAYER1
  6
CONTINUOUS
 62
     7
 10
1164.573971
 20
1290.044282
 11
1173.573971
 21
1290.044282
  0
LINE
  8
CSLAYER1
  6
CONTINUOUS
 62
     7
 10
1151.573971
 20
1258.044282
 11
1160.573971
 21
1258.044282
  0
LINE
  8
CSLAYER1
  6
CONTINUOUS
 62
     7
 10
826.573971
 20
1290.044282
 11
817.573971
 21
1290.044282
  0
LINE
  8
CSLAYER1
  6
CONTINUOUS
 62
     7
 10
839.573971
 20
1258.044282
 11
830.573971
 21
1258.044282
  0
LINE
  8
CSLAYER1
  6
CENTER
 62
     5
 10
1154.505543
 20
775.933505
 11
1095.573971
 21
775.933505
  0
INSERT
  8
CSLAYER1
  2
BLKF0017
 10
0.0
 20
0.0
 30
0.0
  0
LINE
  8
CSLAYER1
  6
CENTER
 62
     5
 10
1154.505543
 20
737.220376
 11
1095.573971
 21
737.220376
  0
INSERT
  8
CSLAYER1
  2
BLKF0018
 10
0.0
 20
0.0
 30
0.0
  0
LINE
  8
CSLAYER1
  6
CONTINUOUS
 62
     3
 10
1093.573971
 20
705.714627
 11
1093.573971
 21
758.410855
  0
LINE
  8
CSLAYER1
  6
CONTINUOUS
 62
     3
 10
1090.573971
 20
705.714627
 11
1090.573971
 21
758.410855
  0
LINE
  8
CSLAYER1
  6
CONTINUOUS
 62
     3
 10
1098.073971
 20
788.635063
 11
1099.573971
 21
788.635063
  0
LINE
  8
CSLAYER1
  6
CONTINUOUS
 62
     3
 10
1109.573971
 20
721.942823
 11
1109.573971
 21
732.220376
  0
LINE
  8
CSLAYER1
  6
CONTINUOUS
 62
     1
 10
1093.573971
 20
721.942823
 11
1093.573971
 21
758.410855
  0
LINE
  8
CSLAYER1
  6
CONTINUOUS
 62
     1
 10
1109.573971
 20
721.942823
 11
1093.573971
 21
721.942823
  0
LINE
  8
CSLAYER1
  6
CONTINUOUS
 62
     3
 10
1109.573971
 20
758.410855
 11
1090.573971
 21
758.410855
  0
LINE
  8
CSLAYER1
  6
CONTINUOUS
 62
     3
 10
1110.573971
 20
724.494782
 11
1110.573971
 21
732.094782
  0
LINE
  8
CSLAYER1
  6
CONTINUOUS
 62
     3
 10
1110.573971
 20
724.494782
 11
1109.573971
 21
724.494782
  0
LINE
  8
CSLAYER1
  6
CONTINUOUS
 62
     3
 10
1110.573971
 20
732.094782
 11
1109.573971
 21
732.094782
  0
LINE
  8
CSLAYER1
  6
CONTINUOUS
 62
     3
 10
1113.173971
 20
726.794782
 11
1113.173971
 21
729.794782
  0
LINE
  8
CSLAYER1
  6
CONTINUOUS
 62
     3
 10
1111.173971
 20
724.794782
 11
1110.573971
 21
724.794782
  0
LINE
  8
CSLAYER1
  6
CONTINUOUS
 62
     3
 10
1111.173971
 20
731.794782
 11
1110.573971
 21
731.794782
  0
ARC
  8
CSLAYER1
  6
CONTINUOUS
 62
     3
 10
1111.173971
 20
726.794782
 40
2.000000
 50
270.000000
 51
360.000000
  0
ARC
  8
CSLAYER1
  6
CONTINUOUS
 62
     3
 10
1111.173971
 20
729.794782
 40
2.000000
 50
0.000000
 51
90.000000
  0
LINE
  8
CSLAYER1
  6
CONTINUOUS
 62
     3
 10
1110.573971
 20
746.082987
 11
1110.573971
 21
753.682987
  0
LINE
  8
CSLAYER1
  6
CONTINUOUS
 62
     3
 10
1110.573971
 20
746.082987
 11
1109.573971
 21
746.082987
  0
LINE
  8
CSLAYER1
  6
CONTINUOUS
 62
     3
 10
1110.573971
 20
753.682987
 11
1109.573971
 21
753.682987
  0
LINE
  8
CSLAYER1
  6
CONTINUOUS
 62
     3
 10
1113.173971
 20
748.382987
 11
1113.173971
 21
751.382987
  0
LINE
  8
CSLAYER1
  6
CONTINUOUS
 62
     3
 10
1111.173971
 20
746.382987
 11
1110.573971
 21
746.382987
  0
LINE
  8
CSLAYER1
  6
CONTINUOUS
 62
     3
 10
1111.173971
 20
753.382987
 11
1110.573971
 21
753.382987
  0
ARC
  8
CSLAYER1
  6
CONTINUOUS
 62
     3
 10
1111.173971
 20
748.382987
 40
2.000000
 50
270.000000
 51
360.000000
  0
ARC
  8
CSLAYER1
  6
CONTINUOUS
 62
     3
 10
1111.173971
 20
751.382987
 40
2.000000
 50
0.000000
 51
90.000000
  0
LINE
  8
CSLAYER1
  6
CENTER
 62
     5
 10
1083.183996
 20
716.714627
 11
1098.345673
 21
716.714627
  0
LINE
  8
CSLAYER1
  6
CONTINUOUS
 62
     3
 10
1093.573971
 20
721.942823
 11
1109.573971
 21
721.942823
  0
LINE
  8
CSLAYER1
  6
CONTINUOUS
 62
     4
 10
1113.573971
 20
780.933505
 11
1113.573971
 21
810.386534
  0
LINE
  8
CSLAYER1
  6
CONTINUOUS
 62
     4
 10
1109.173971
 20
780.933505
 11
1109.173971
 21
810.386534
  0
LINE
  8
CSLAYER1
  6
CONTINUOUS
 62
     3
 10
1105.073971
 20
783.714209
 11
1105.073971
 21
788.635063
  0
LINE
  8
CSLAYER1
  6
CONTINUOUS
 62
     3
 10
1098.073971
 20
783.714209
 11
1098.073971
 21
788.635063
  0
LINE
  8
CSLAYER1
  6
CONTINUOUS
 62
     3
 10
1096.587269
 20
783.714209
 11
1106.560674
 21
783.714209
  0
LINE
  8
CSLAYER1
  6
CONTINUOUS
 62
     3
 10
1094.073971
 20
775.567659
 11
1094.073971
 21
759.214209
  0
LINE
  8
CSLAYER1
  6
CONTINUOUS
 62
     3
 10
1109.073971
 20
775.567659
 11
1109.073971
 21
759.214209
  0
LINE
  8
CSLAYER1
  6
CONTINUOUS
 62
     3
 10
1106.560674
 20
783.714209
 11
1109.073971
 21
775.567659
  0
LINE
  8
CSLAYER1
  6
CONTINUOUS
 62
     3
 10
1096.587269
 20
783.714209
 11
1094.073971
 21
775.567659
  0
LINE
  8
CSLAYER1
  6
CONTINUOUS
 62
     3
 10
1103.573971
 20
795.476554
 11
1103.573971
 21
783.714209
  0
LINE
  8
CSLAYER1
  6
CONTINUOUS
 62
     3
 10
1099.573971
 20
795.476554
 11
1099.573971
 21
783.714209
  0
LINE
  8
CSLAYER1
  6
CONTINUOUS
 62
     3
 10
1103.573971
 20
788.635063
 11
1105.073971
 21
788.635063
  0
LINE
  8
CSLAYER1
  6
CONTINUOUS
 62
     3
 10
1109.573971
 20
742.220376
 11
1109.573971
 21
758.410855
  0
LINE
  8
CSLAYER1
  6
CONTINUOUS
 62
     3
 10
1055.573971
 20
723.514627
 11
1055.573971
 21
726.714627
  0
LINE
  8
CSLAYER1
  6
CONTINUOUS
 62
     3
 10
1087.373971
 20
705.714627
 11
1087.373971
 21
723.514627
  0
LINE
  8
CSLAYER1
  6
CENTER
 62
     5
 10
1070.573971
 20
705.714627
 11
1070.573971
 21
802.806013
  0
LINE
  8
CSLAYER1
  6
CONTINUOUS
 62
     3
 10
1055.573971
 20
726.714627
 11
1090.573971
 21
726.714627
  0
LINE
  8
CSLAYER1
  6
CONTINUOUS
 62
     3
 10
1055.573971
 20
723.514627
 11
1087.373971
 21
723.514627
  0
LINE
  8
CSLAYER1
  6
CONTINUOUS
 62
     4
 10
1063.573971
 20
761.251444
 11
1057.414210
 21
761.251444
  0
LINE
  8
CSLAYER1
  6
CONTINUOUS
 62
     7
 10
1079.073971
 20
754.714627
 11
1062.073971
 21
754.714627
  0
LINE
  8
CSLAYER1
  6
CONTINUOUS
 62
     7
 10
1080.023971
 20
716.714627
 11
1061.123971
 21
716.714627
  0
LINE
  8
CSLAYER1
  6
CONTINUOUS
 62
     7
 10
1081.023971
 20
717.714627
 11
1080.023971
 21
716.714627
  0
LINE
  8
CSLAYER1
  6
CONTINUOUS
 62
     7
 10
1084.911066
 20
723.514627
 11
1084.911066
 21
719.101361
  0
LINE
  8
CSLAYER1
  6
CONTINUOUS
 62
     7
 10
1084.911066
 20
719.101361
 11
1056.236877
 21
719.101361
  0
LINE
  8
CSLAYER1
  6
CONTINUOUS
 62
     7
 10
1081.023971
 20
719.101361
 11
1081.023971
 21
717.714627
  0
LINE
  8
CSLAYER1
  6
CONTINUOUS
 62
     7
 10
1080.023971
 20
719.101361
 11
1080.023971
 21
716.714627
  0
LINE
  8
CSLAYER1
  6
CONTINUOUS
 62
     7
 10
1079.619563
 20
723.514627
 11
1079.619563
 21
719.101361
  0
LINE
  8
CSLAYER1
  6
CONTINUOUS
 62
     7
 10
1075.865474
 20
723.514627
 11
1075.865474
 21
719.101361
  0
LINE
  8
CSLAYER1
  6
CONTINUOUS
 62
     7
 10
1082.073971
 20
731.714627
 11
1059.073971
 21
731.714627
  0
LINE
  8
CSLAYER1
  6
CONTINUOUS
 62
     7
 10
1083.573971
 20
751.605532
 11
1057.573971
 21
751.605532
  0
LINE
  8
CSLAYER1
  6
CONTINUOUS
 62
     7
 10
1083.573971
 20
735.256718
 11
1057.573971
 21
735.256718
  0
ARC
  8
CSLAYER1
  6
CONTINUOUS
 62
     7
 10
1079.073971
 20
751.714627
 40
3.000000
 50
0.000000
 51
90.000000
  0
LINE
  8
CSLAYER1
  6
CONTINUOUS
 62
     7
 10
1082.073971
 20
731.714627
 11
1083.564352
 21
730.854155
  0
ARC
  8
CSLAYER1
  6
CONTINUOUS
 62
     7
 10
1070.573971
 20
705.668602
 40
26.046025
 50
75.231439
 51
104.768561
  0
ARC
  8
CSLAYER1
  6
CONTINUOUS
 62
     7
 10
1080.388926
 20
725.583033
 40
6.153702
 50
66.825356
 51
121.065581
  0
LINE
  8
CSLAYER1
  6
CONTINUOUS
 62
     7
 10
1077.213499
 20
730.854155
 11
1077.213499
 21
726.714627
  0
LINE
  8
CSLAYER1
  6
CONTINUOUS
 62
     7
 10
1083.564352
 20
730.854155
 11
1083.564352
 21
726.714627
  0
LINE
  8
CSLAYER1
  6
CONTINUOUS
 62
     7
 10
1080.910095
 20
735.256718
 11
1080.910095
 21
731.714627
  0
LINE
  8
CSLAYER1
  6
CONTINUOUS
 62
     7
 10
1080.263718
 20
735.256718
 11
1080.263718
 21
733.650356
  0
LINE
  8
CSLAYER1
  6
CONTINUOUS
 62
     7
 10
1080.910095
 20
733.650356
 11
1060.237847
 21
733.650356
  0
LINE
  8
CSLAYER1
  6
CONTINUOUS
 62
     7
 10
1080.263718
 20
733.650356
 11
1080.910095
 21
732.515504
  0
LINE
  8
CSLAYER1
  6
CONTINUOUS
 62
     7
 10
1081.023971
 20
717.762429
 11
1060.123971
 21
717.762429
  0
LINE
  8
CSLAYER1
  6
CONTINUOUS
 62
     7
 10
1060.123971
 20
717.714627
 11
1061.123971
 21
716.714627
  0
LINE
  8
CSLAYER1
  6
CONTINUOUS
 62
     7
 10
1056.236877
 20
723.514627
 11
1056.236877
 21
719.101361
  0
LINE
  8
CSLAYER1
  6
CONTINUOUS
 62
     7
 10
1060.123971
 20
719.101361
 11
1060.123971
 21
717.714627
  0
LINE
  8
CSLAYER1
  6
CONTINUOUS
 62
     7
 10
1061.123971
 20
719.101361
 11
1061.123971
 21
716.714627
  0
LINE
  8
CSLAYER1
  6
CONTINUOUS
 62
     7
 10
1061.528380
 20
723.514627
 11
1061.528380
 21
719.101361
  0
LINE
  8
CSLAYER1
  6
CONTINUOUS
 62
     7
 10
1065.282469
 20
723.514627
 11
1065.282469
 21
719.101361
  0
LINE
  8
CSLAYER1
  6
CONTINUOUS
 62
     7
 10
1059.073971
 20
731.714627
 11
1057.583590
 21
730.854155
  0
ARC
  8
CSLAYER1
  6
CONTINUOUS
 62
     7
 10
1060.759017
 20
725.583033
 40
6.153702
 50
58.934419
 51
113.174644
  0
LINE
  8
CSLAYER1
  6
CONTINUOUS
 62
     7
 10
1063.934443
 20
730.854155
 11
1063.934443
 21
726.714627
  0
LINE
  8
CSLAYER1
  6
CONTINUOUS
 62
     7
 10
1057.583590
 20
730.854155
 11
1057.583590
 21
726.714627
  0
LINE
  8
CSLAYER1
  6
CONTINUOUS
 62
     7
 10
1060.237847
 20
735.256718
 11
1060.237847
 21
731.714627
  0
LINE
  8
CSLAYER1
  6
CONTINUOUS
 62
     7
 10
1060.884225
 20
735.256718
 11
1060.884225
 21
733.650356
  0
LINE
  8
CSLAYER1
  6
CONTINUOUS
 62
     7
 10
1060.884225
 20
733.650356
 11
1060.237847
 21
732.515504
  0
LINE
  8
CSLAYER1
  6
CONTINUOUS
 62
     7
 10
1085.411997
 20
750.544347
 11
1085.411997
 21
736.317903
  0
LINE
  8
CSLAYER1
  6
CONTINUOUS
 62
     7
 10
1078.079525
 20
750.544347
 11
1078.079525
 21
736.317903
  0
LINE
  8
CSLAYER1
  6
CONTINUOUS
 62
     7
 10
1083.573971
 20
751.605532
 11
1085.411997
 21
750.544347
  0
ARC
  8
CSLAYER1
  6
CONTINUOUS
 62
     7
 10
1081.745761
 20
744.743941
 40
6.861924
 50
62.295563
 51
121.731450
  0
ARC
  8
CSLAYER1
  6
CONTINUOUS
 62
     7
 10
1070.573971
 20
724.532278
 40
27.073254
 50
73.904971
 51
106.095029
  0
LINE
  8
CSLAYER1
  6
CONTINUOUS
 62
     7
 10
1083.573971
 20
735.256718
 11
1085.411997
 21
736.317903
  0
ARC
  8
CSLAYER1
  6
CONTINUOUS
 62
     7
 10
1081.745761
 20
742.118309
 40
6.861924
 50
238.268550
 51
297.704437
  0
ARC
  8
CSLAYER1
  6
CONTINUOUS
 62
     7
 10
1070.573971
 20
762.329972
 40
27.073254
 50
253.904971
 51
286.095029
  0
LINE
  8
CSLAYER1
  6
CONTINUOUS
 62
     7
 10
1055.735945
 20
750.544347
 11
1055.735945
 21
736.317903
  0
LINE
  8
CSLAYER1
  6
CONTINUOUS
 62
     7
 10
1063.068418
 20
750.544347
 11
1063.068418
 21
736.317903
  0
LINE
  8
CSLAYER1
  6
CONTINUOUS
 62
     7
 10
1057.573971
 20
751.605532
 11
1055.735945
 21
750.544347
  0
ARC
  8
CSLAYER1
  6
CONTINUOUS
 62
     7
 10
1059.402182
 20
744.743941
 40
6.861924
 50
58.268550
 51
117.704437
  0
LINE
  8
CSLAYER1
  6
CONTINUOUS
 62
     7
 10
1057.573971
 20
735.256718
 11
1055.735945
 21
736.317903
  0
ARC
  8
CSLAYER1
  6
CONTINUOUS
 62
     7
 10
1059.402182
 20
742.118309
 40
6.861924
 50
242.295563
 51
301.731450
  0
ARC
  8
CSLAYER1
  6
CONTINUOUS
 62
     7
 10
1062.073971
 20
751.714627
 40
3.000000
 50
90.000000
 51
180.000000
  0
LINE
  8
CSLAYER1
  6
CONTINUOUS
 62
     7
 10
1077.573971
 20
805.163762
 11
1077.573971
 21
754.714627
  0
LINE
  8
CSLAYER1
  6
CONTINUOUS
 62
     7
 10
1063.573971
 20
803.395451
 11
1063.573971
 21
754.714627
  0
LINE
  8
CSLAYER1
  6
CONTINUOUS
 62
     7
 10
1077.573971
 20
716.714627
 11
1077.573971
 21
705.714627
  0
LINE
  8
CSLAYER1
  6
CONTINUOUS
 62
     7
 10
1063.573971
 20
716.714627
 11
1063.573971
 21
705.714627
  0
INSERT
  8
CSLAYER1
  2
BLKF0019
 10
0.0
 20
0.0
 30
0.0
  0
POINT
  8
CSLAYER1
 62
     3
 10
2041.135615
 20
870.514627
  0
LINE
  8
CSLAYER1
  6
PHANTOM
 62
     5
 10
2013.935615
 20
860.714627
 11
2813.935615
 21
860.714627
  0
POINT
  8
CSLAYER1
 62
     7
 10
2041.135615
 20
870.514627
  0
LINE
  8
CSLAYER1
  6
CENTER
 62
     5
 10
2020.074722
 20
870.514627
 11
2062.065030
 21
870.514627
  0
LINE
  8
CSLAYER1
  6
CENTER
 62
     5
 10
2041.135615
 20
891.817343
 11
2041.135615
 21
849.013269
  0
LINE
  8
CSLAYER1
  6
PHANTOM
 62
     5
 10
2013.935615
 20
905.714627
 11
2813.935615
 21
905.714627
  0
LINE
  8
CSLAYER1
  6
PHANTOM
 62
     5
 10
2813.935615
 20
905.714627
 11
2813.935615
 21
860.714627
  0
LINE
  8
CSLAYER1
  6
PHANTOM
 62
     5
 10
2013.935615
 20
905.714627
 11
2013.935615
 21
860.714627
  0
LINE
  8
CSLAYER1
  6
CONTINUOUS
 62
     5
 10
1639.079185
 20
2368.186137
 11
1390.632989
 21
2494.057350
  0
LINE
  8
CSLAYER1
  6
CONTINUOUS
 62
     5
 10
1639.079185
 20
2368.186137
 11
1595.041155
 21
2377.440970
  0
LINE
  8
CSLAYER1
  6
CONTINUOUS
 62
     5
 10
1639.079185
 20
2368.186137
 11
1605.568549
 21
2398.220072
  0
INSERT
  8
CSLAYER1
  2
BLKF0020
 10
0.0
 20
0.0
 30
0.0
  0
INSERT
  8
CSLAYER1
  2
BLKF0021
 10
0.0
 20
0.0
 30
0.0
  0
INSERT
  8
CSLAYER1
  2
BLKF0022
 10
0.0
 20
0.0
 30
0.0
  0
INSERT
  8
CSLAYER1
  2
BLKF0023
 10
0.0
 20
0.0
 30
0.0
  0
INSERT
  8
CSLAYER1
  2
BLKF0024
 10
0.0
 20
0.0
 30
0.0
  0
INSERT
  8
CSLAYER1
  2
BLKF0025
 10
0.0
 20
0.0
 30
0.0
  0
LINE
  8
CSLAYER1
  6
CENTER
 62
     5
 10
2041.135615
 20
680.214627
 11
2785.075448
 21
775.364627
  0
LINE
  8
CSLAYER1
  6
CENTER
 62
     5
 10
2785.075448
 20
680.214627
 11
2041.135615
 21
775.364627
  0
LINE
  8
CSLAYER1
  6
CENTER
 62
     5
 10
2041.135615
 20
870.514627
 11
2785.075448
 21
775.364627
  0
LINE
  8
CSLAYER1
  6
CENTER
 62
     5
 10
2785.075448
 20
870.514627
 11
2041.135615
 21
775.364627
  0
LINE
  8
CSLAYER1
  6
CONTINUOUS
 62
     3
 10
1645.527212
 20
2364.292248
 11
1641.295161
 21
2369.868065
  0
LINE
  8
CSLAYER1
  6
CONTINUOUS
 62
     3
 10
1642.440587
 20
2368.358942
 11
1604.829831
 21
2363.657597
  0
LINE
  8
CSLAYER1
  6
CONTINUOUS
 62
     4
 10
2016.211149
 20
1320.480842
 11
2013.804895
 21
1286.410749
  0
LINE
  8
CSLAYER1
  6
CONTINUOUS
 62
     4
 10
2037.797983
 20
1346.052260
 11
2016.211149
 21
1320.480842
  0
LINE
  8
CSLAYER1
  6
CONTINUOUS
 62
     7
 10
817.573971
 20
1795.865960
 11
826.573971
 21
1795.865960
  0
LINE
  8
CSLAYER1
  6
CONTINUOUS
 62
     7
 10
839.573971
 20
1320.480842
 11
848.573971
 21
1320.480842
  0
LINE
  8
CSLAYER1
  6
CONTINUOUS
 62
     7
 10
830.573971
 20
1346.052260
 11
839.573971
 21
1346.052260
  0
LINE
  8
CSLAYER1
  6
CONTINUOUS
 62
     7
 10
817.573971
 20
1202.036304
 11
826.573971
 21
1202.036304
  0
LINE
  8
CSLAYER1
  6
CONTINUOUS
 62
     7
 10
830.573971
 20
752.222605
 11
839.573971
 21
752.222605
  0
LINE
  8
CSLAYER1
  6
CONTINUOUS
 62
     7
 10
1151.573971
 20
752.222605
 11
1160.573971
 21
752.222605
  0
LINE
  8
CSLAYER1
  6
CONTINUOUS
 62
     7
 10
1164.573971
 20
1202.036304
 11
1173.573971
 21
1202.036304
  0
LINE
  8
CSLAYER1
  6
CONTINUOUS
 62
     7
 10
1151.573971
 20
1346.052260
 11
1160.573971
 21
1346.052260
  0
LINE
  8
CSLAYER1
  6
CONTINUOUS
 62
     7
 10
1142.573971
 20
1320.480842
 11
1151.573971
 21
1320.480842
  0
LINE
  8
CSLAYER1
  6
CONTINUOUS
 62
     7
 10
1164.573971
 20
1795.865960
 11
1173.573971
 21
1795.865960
  0
INSERT
  8
CSLAYER1
  2
EASYDRAWDIM0000
 10
0.0
 20
0.0
 30
0.0
  0
INSERT
  8
CSLAYER1
  2
EASYDRAWDIM0001
 10
0.0
 20
0.0
 30
0.0
  0
INSERT
  8
CSLAYER1
  2
EASYDRAWDIM0002
 10
0.0
 20
0.0
 30
0.0
  0
DIMENSION
  8
CSLAYER1
 62
     3
  2
*D0000
 10
2965.054393
 20
905.714627
 11
2950.054443
 21
780.714722
 13
3104.027621
 23
655.714627
 14
2813.935615
 24
905.714627
 50
90.000000
  0
DIMENSION
  8
CSLAYER1
 62
     3
  2
*D0001
 10
2965.054393
 20
1903.073938
 11
2950.054443
 21
1404.394409
 13
2796.081165
 23
905.714627
 14
2796.081165
 24
1903.073938
 50
90.000000
 70
1
  0
DIMENSION
  8
CSLAYER1
 62
     3
  2
*D0002
 10
3104.027621
 20
655.714627
 11
3089.027588
 21
1279.394409
 13
3104.027621
 23
1903.073938
 14
3104.027621
 24
655.714627
 50
90.000000
 70
1
  0
LINE
  8
CSLAYER1
  6
CONTINUOUS
 62
     3
 10
1643.368490
 20
2367.136410
 11
1610.577793
 21
2350.807981
  0
LINE
  8
CSLAYER1
  6
CONTINUOUS
 62
     3
 10
1644.267652
 20
2365.951745
 11
1617.118097
 21
2341.197739
  0
LINE
  8
CSLAYER1
  6
CONTINUOUS
 62
     3
 10
1644.919671
 20
2365.092697
 11
1628.063095
 21
2333.322679
  0
LINE
  8
CSLAYER1
  6
DASHED
 62
     3
 10
750.901280
 20
661.214627
 11
1240.893582
 21
661.214627
  0
LINE
  8
CSLAYER1
  6
CONTINUOUS
 62
     5
 10
775.573971
 20
672.881998
 11
775.573971
 21
494.386829
  0
LINE
  8
CSLAYER1
  6
CONTINUOUS
 62
     5
 10
1215.573971
 20
672.881998
 11
1215.573971
 21
494.386829
  0
DIMENSION
  8
CSLAYER1
 62
     3
  2
*D0003
 10
775.573971
 20
509.386829
 11
995.861938
 21
520.429565
 13
1215.573971
 23
509.386829
 14
775.573971
 24
509.386829
 52
0.000000
 70
1
  0
DIMENSION
  8
CSLAYER1
 62
     3
  2
*D0004
 10
1245.573971
 20
362.616954
 11
992.257935
 21
369.056519
 13
745.573971
 23
655.714627
 14
1245.573971
 24
655.714627
 52
270.000000
 70
1
  0
LINE
  8
CSLAYER1
  6
CONTINUOUS
 62
     5
 10
2063.135615
 20
672.881998
 11
2063.135615
 21
494.386829
  0
LINE
  8
CSLAYER1
  6
CONTINUOUS
 62
     5
 10
2463.135615
 20
672.881998
 11
2463.135615
 21
494.386829
  0
DIMENSION
  8
CSLAYER1
 62
     3
  2
*D0005
 10
2063.135615
 20
509.386829
 11
2070.955811
 21
428.299683
 13
2013.135615
 23
686.156705
 14
2063.135615
 24
686.156705
 52
270.000000
 70
1
  0
DIMENSION
  8
CSLAYER1
 62
     3
  2
*D0006
 10
2063.135615
 20
509.386829
 11
2258.568115
 21
520.388550
 13
2463.135615
 23
509.386829
 14
2063.135615
 24
509.386829
 52
0.000000
 70
1
  0
DIMENSION
  8
CSLAYER1
 62
     3
  2
*D0007
 10
2812.135615
 20
362.616954
 11
2412.635498
 21
377.617065
 13
2013.135615
 23
655.714627
 14
2812.135615
 24
655.714627
 52
270.000000
 70
1
  0
TEXT
  8
CSLAYER1
 62
     5
 10
2162.496779
 20
461.365742
 40
38.994835
 41
1.022858
  1
取付穴ピッチ
 50
0.000000
 51
0.000000
  7
EASYDRAW_FONT
 72
     5
 11
2388.518358
 21
461.365742
  0
TEXT
  8
CSLAYER1
 62
     5
 10
884.653273
 20
461.286640
 40
38.994835
 41
1.022858
  1
取付穴ピッチ
 50
0.000000
 51
0.000000
  7
EASYDRAW_FONT
 72
     5
 11
1110.674852
 21
461.286640
  0
DIMENSION
  8
CSLAYER1
 62
     3
  2
*D0008
 10
1370.011552
 20
661.214627
 11
1355.438477
 21
743.297241
 13
1245.573971
 23
655.714627
 14
1240.893582
 24
661.214627
 50
90.000000
  0
INSERT
  8
CSLAYER1
  2
EASYDRAWDIM0003
 10
0.0
 20
0.0
 30
0.0
  0
INSERT
  8
CSLAYER1
  2
EASYDRAWDIM0004
 10
0.0
 20
0.0
 30
0.0
  0
LINE
  8
CSLAYER1
  6
CONTINUOUS
 62
     3
 10
2013.935615
 20
3009.769421
 11
2813.935615
 21
3009.769421
  0
LINE
  8
CSLAYER1
  6
CONTINUOUS
 62
     3
 10
1295.573971
 20
1858.073938
 11
1295.573971
 21
1903.073938
  0
LINE
  8
CSLAYER1
  6
CONTINUOUS
 62
     3
 10
2013.935615
 20
2409.769421
 11
2813.935615
 21
2409.769421
  0
LINE
  8
CSLAYER1
  6
CONTINUOUS
 62
     3
 10
695.573971
 20
1858.073938
 11
695.573971
 21
1903.073938
  0
DIMENSION
  8
CSLAYER1
 62
     3
  2
*D0009
 10
2956.655955
 20
3009.769421
 11
2941.656006
 21
2709.769531
 13
2813.935615
 23
2409.769421
 14
2813.935615
 24
3009.769421
 50
90.000000
 70
1
  0
DIMENSION
  8
CSLAYER1
 62
     3
  2
*D0010
 10
2813.935615
 20
2266.244745
 11
2413.935547
 21
2281.244629
 13
2013.935615
 23
2409.769421
 14
2813.935615
 24
2409.769421
 52
270.000000
 70
1
  0
LINE
  8
CSLAYER1
  6
CONTINUOUS
 62
     5
 10
5128.577536
 20
3253.945053
 11
4047.268760
 21
3253.945053
  0
LINE
  8
CSLAYER1
  6
CONTINUOUS
 62
     5
 10
5128.577536
 20
3157.945055
 11
4047.268760
 21
3157.945055
  0
LINE
  8
CSLAYER1
  6
CONTINUOUS
 62
     5
 10
5128.577536
 20
3061.945058
 11
4047.268760
 21
3061.945058
  0
LINE
  8
CSLAYER1
  6
CONTINUOUS
 62
     5
 10
5128.577536
 20
2965.945060
 11
4048.577563
 21
2965.945060
  0
LINE
  8
CSLAYER1
  6
CONTINUOUS
 62
     5
 10
5128.577536
 20
2869.945062
 11
4047.268760
 21
2869.945062
  0
LINE
  8
CSLAYER1
  6
CONTINUOUS
 62
     5
 10
5128.577536
 20
2773.945065
 11
4047.268760
 21
2773.945065
  0
LINE
  8
CSLAYER1
  6
CONTINUOUS
 62
     5
 10
5128.577536
 20
2677.945067
 11
4047.268760
 21
2677.945067
  0
LINE
  8
CSLAYER1
  6
CONTINUOUS
 62
     5
 10
5128.577536
 20
2581.945070
 11
4047.268760
 21
2581.945070
  0
LINE
  8
CSLAYER1
  6
CONTINUOUS
 62
     5
 10
5128.577536
 20
2485.945072
 11
4047.268760
 21
2485.945072
  0
LINE
  8
CSLAYER1
  6
CONTINUOUS
 62
     5
 10
5128.577536
 20
2293.945077
 11
4047.268760
 21
2293.945077
  0
LINE
  8
CSLAYER1
  6
CONTINUOUS
 62
     5
 10
5128.577536
 20
2197.945079
 11
4047.268760
 21
2197.945079
  0
TEXT
  8
CSLAYER1
 62
     3
 10
4340.854004
 20
3373.673096
 40
60.000000
 41
0.857143
  1
仕   様
 50
0.000000
 51
0.000000
  7
EASYDRAW_FONT
 72
     5
 11
4580.854004
 21
3373.673096
  0
TEXT
  8
CSLAYER1
 62
     3
 10
4063.407715
 20
3266.279053
 40
60.000000
 41
0.847059
  1
型    式
 50
0.000000
 51
0.000000
  7
EASYDRAW_FONT
 72
     5
 11
4351.407715
 21
3266.279053
  0
TEXT
  8
CSLAYER1
 62
     3
 10
4060.678711
 20
3082.544678
 40
60.000000
 41
0.847059
  1
テーブル寸法
 50
0.000000
 51
0.000000
  7
EASYDRAW_FONT
 72
     5
 11
4348.678711
 21
3082.544678
  0
TEXT
  8
CSLAYER1
 62
     3
 10
4063.407715
 20
2987.948486
 40
60.000000
 41
0.847059
  1
テーブル高サ
 50
0.000000
 51
0.000000
  7
EASYDRAW_FONT
 72
     5
 11
4351.407715
 21
2987.948486
  0
TEXT
  8
CSLAYER1
 62
     3
 10
4065.577637
 20
2890.624268
 40
60.000000
 41
0.857143
  1
ストローク
 50
0.000000
 51
0.000000
  7
EASYDRAW_FONT
 72
     5
 11
4305.577637
 21
2890.624268
  0
TEXT
  8
CSLAYER1
 62
     3
 10
4064.668945
 20
2793.300049
 40
60.000000
 41
0.857143
  1
全   長
 50
0.000000
 51
0.000000
  7
EASYDRAW_FONT
 72
     5
 11
4304.668945
 21
2793.300049
  0
TEXT
  8
CSLAYER1
 62
     3
 10
4068.075195
 20
2694.523682
 40
60.000000
 41
0.857143
  1
全   巾
 50
0.000000
 51
0.000000
  7
EASYDRAW_FONT
 72
     5
 11
4308.075195
 21
2694.523682
  0
TEXT
  8
CSLAYER1
 62
     3
 10
4065.738770
 20
2598.696045
 40
60.000000
 41
0.857143
  1
全   高
 50
0.000000
 51
0.000000
  7
EASYDRAW_FONT
 72
     5
 11
4305.738770
 21
2598.696045
  0
TEXT
  8
CSLAYER1
 62
     3
 10
4065.738770
 20
2505.206299
 40
60.000000
 41
0.857143
  1
リフト方式
 50
0.000000
 51
0.000000
  7
EASYDRAW_FONT
 72
     5
 11
4305.738770
 21
2505.206299
  0
TEXT
  8
CSLAYER1
 62
     3
 10
4064.027832
 20
2212.875244
 40
60.000000
 41
0.872727
  1
モーター
 50
0.000000
 51
0.000000
  7
EASYDRAW_FONT
 72
     5
 11
4256.027832
 21
2212.875244
  0
LINE
  8
CSLAYER1
  6
CONTINUOUS
 62
     5
 10
5128.577536
 20
2101.945082
 11
4047.268760
 21
2101.945082
  0
LINE
  8
CSLAYER1
  6
CONTINUOUS
 62
     5
 10
5128.577536
 20
1909.945086
 11
4044.061007
 21
1909.945086
  0
LINE
  8
CSLAYER1
  6
CONTINUOUS
 62
     5
 10
5128.577536
 20
1813.945089
 11
4047.268760
 21
1813.945089
  0
LINE
  8
CSLAYER1
  6
CONTINUOUS
 62
     5
 10
5128.577536
 20
1717.945091
 11
4047.268760
 21
1717.945091
  0
TEXT
  8
CSLAYER1
 62
     3
 10
4067.900391
 20
1734.627808
 40
60.000000
 41
0.857143
  1
自  　重
 50
0.000000
 51
0.000000
  7
EASYDRAW_FONT
 72
     5
 11
4307.900391
 21
1734.627808
  0
TEXT
  8
CSLAYER1
 62
     3
 10
4063.256836
 20
1639.618530
 40
60.000000
 41
0.847059
  1
塗　装　色 
 50
0.000000
 51
0.000000
  7
EASYDRAW_FONT
 72
     5
 11
4351.256836
 21
1639.618530
  0
TEXT
  8
CSLAYER1
 62
     3
 10
4743.541016
 20
3174.041748
 40
60.000000
 41
0.872727
  1
 200
 50
0.000000
 51
0.000000
  7
EASYDRAW_FONT
 72
     5
 11
4935.541016
 21
3174.041748
  0
TEXT
  8
CSLAYER1
 62
     3
 10
5022.776367
 20
3168.531982
 40
60.000000
 41
0.960000
  1
Ｋｇ
 50
0.000000
 51
0.000000
  7
EASYDRAW_FONT
 72
     5
 11
5118.776367
 21
3168.531982
  0
TEXT
  8
CSLAYER1
 62
     3
 10
4501.867676
 20
3077.286865
 40
60.000000
 41
0.830769
  1
800L×600W
 50
0.000000
 51
0.000000
  7
EASYDRAW_FONT
 72
     5
 11
4933.867676
 21
3077.286865
  0
TEXT
  8
CSLAYER1
 62
     3
 10
4539.975586
 20
2982.536377
 40
60.000000
 41
0.834783
  1
250～1220
 50
0.000000
 51
0.000000
  7
EASYDRAW_FONT
 72
     5
 11
4923.975586
 21
2982.536377
  0
TEXT
  8
CSLAYER1
 62
     3
 10
4782.298828
 20
2887.973877
 40
60.000000
 41
0.900000
  1
970
 50
0.000000
 51
0.000000
  7
EASYDRAW_FONT
 72
     5
 11
4926.298828
 21
2887.973877
  0
TEXT
  8
CSLAYER1
 62
     3
 10
4788.506836
 20
2790.795166
 40
60.000000
 41
0.900000
  1
800
 50
0.000000
 51
0.000000
  7
EASYDRAW_FONT
 72
     5
 11
4932.506836
 21
2790.795166
  0
TEXT
  8
CSLAYER1
 62
     3
 10
4785.477539
 20
2695.839111
 40
60.000000
 41
0.900000
  1
600
 50
0.000000
 51
0.000000
  7
EASYDRAW_FONT
 72
     5
 11
4929.477539
 21
2695.839111
  0
TEXT
  8
CSLAYER1
 62
     3
 10
4414.848633
 20
2504.331787
 40
60.000000
 41
0.827586
  1
電 動 ボールネジ式
 50
0.000000
 51
0.000000
  7
EASYDRAW_FONT
 72
     5
 11
4894.848633
 21
2504.331787
  0
TEXT
  8
CSLAYER1
 62
     3
 10
4410.687500
 20
2214.250732
 40
60.000000
 41
0.819512
  1
３相ＡＣ２００Ｖ、0.2ＫＷ
 50
0.000000
 51
0.000000
  7
EASYDRAW_FONT
 72
     5
 11
5082.687500
 21
2214.250732
  0
TEXT
  8
CSLAYER1
 62
     3
 10
4607.162598
 20
2118.485596
 40
60.000000
 41
0.840000
  1
長サ  ４ ｍ
 50
0.000000
 51
0.000000
  7
EASYDRAW_FONT
 72
     5
 11
4943.162598
 21
2118.485596
  0
TEXT
  8
CSLAYER1
 62
     3
 10
4776.122070
 20
1737.476929
 40
60.000000
 41
0.847059
  1
１０５　Ｋｇ
 50
0.000000
 51
0.000000
  7
EASYDRAW_FONT
 72
     5
 11
5064.122070
 21
1737.476929
  0
TEXT
  8
CSLAYER1
 62
     3
 10
4782.464355
 20
2598.847412
 40
60.000000
 41
0.900000
  1
250
 50
0.000000
 51
0.000000
  7
EASYDRAW_FONT
 72
     5
 11
4926.464355
 21
2598.847412
  0
TEXT
  8
CSLAYER1
 62
     3
 10
5019.004883
 20
3072.376709
 40
60.000000
 41
0.960000
  1
mm
 50
0.000000
 51
0.000000
  7
EASYDRAW_FONT
 72
     5
 11
5115.004883
 21
3072.376709
  0
TEXT
  8
CSLAYER1
 62
     3
 10
5019.004883
 20
2981.877197
 40
60.000000
 41
0.960000
  1
mm
 50
0.000000
 51
0.000000
  7
EASYDRAW_FONT
 72
     5
 11
5115.004883
 21
2981.877197
  0
TEXT
  8
CSLAYER1
 62
     3
 10
5013.349121
 20
2885.720947
 40
60.000000
 41
0.960000
  1
mm
 50
0.000000
 51
0.000000
  7
EASYDRAW_FONT
 72
     5
 11
5109.349121
 21
2885.720947
  0
TEXT
  8
CSLAYER1
 62
     3
 10
5013.349121
 20
2783.908447
 40
60.000000
 41
0.960000
  1
mm
 50
0.000000
 51
0.000000
  7
EASYDRAW_FONT
 72
     5
 11
5109.349121
 21
2783.908447
  0
TEXT
  8
CSLAYER1
 62
     3
 10
5009.578613
 20
2693.409424
 40
60.000000
 41
0.960000
  1
mm
 50
0.000000
 51
0.000000
  7
EASYDRAW_FONT
 72
     5
 11
5105.578613
 21
2693.409424
  0
TEXT
  8
CSLAYER1
 62
     3
 10
5009.578613
 20
2597.252197
 40
60.000000
 41
0.960000
  1
mm
 50
0.000000
 51
0.000000
  7
EASYDRAW_FONT
 72
     5
 11
5105.578613
 21
2597.252197
  0
LINE
  8
CSLAYER1
  6
CONTINUOUS
 62
     5
 10
4622.934167
 20
3349.945050
 11
4310.355209
 21
3349.945050
  0
LINE
  8
CSLAYER1
  6
CONTINUOUS
 62
     5
 10
4622.934167
 20
3361.945050
 11
4310.355209
 21
3361.945050
  0
TEXT
  8
CSLAYER1
 62
     3
 10
4069.400879
 20
2308.703857
 40
60.000000
 41
1.036364
  1
操作方式
 50
0.000000
 51
0.000000
  7
EASYDRAW_FONT
 72
     5
 11
4297.400879
 21
2308.703857
  0
LINE
  8
CSLAYER1
  6
CONTINUOUS
 62
     5
 10
5128.577536
 20
2005.945084
 11
4047.268760
 21
2005.945084
  0
TEXT
  8
CSLAYER1
 62
     3
 10
4065.402832
 20
2117.899658
 40
60.000000
 41
0.942857
  1
電源コード
 50
0.000000
 51
0.000000
  7
EASYDRAW_FONT
 72
     5
 11
4329.402832
 21
2117.899658
  0
TEXT
  8
CSLAYER2
 62
     5
 10
4330.620548
 20
3262.394665
 40
54.222878
 41
0.844243
  1
    GLI-200-0608W
 50
0.000000
 51
0.000000
  7
EASYDRAW_FONT
 72
     5
 11
5093.575741
 21
3262.394665
  0
TEXT
  8
CSLAYER1
 62
     3
 10
4411.362793
 20
2308.301514
 40
60.000000
 41
1.020000
  1
フットスイッチ
 50
0.000000
 51
0.000000
  7
EASYDRAW_FONT
 72
     5
 11
4819.362793
 21
2308.301514
  0
TEXT
  8
CSLAYER1
 62
     4
 10
4066.045691
 20
2014.217239
 40
71.595306
 41
0.593339
  1
昇降時間 ２８秒（50HZ） ２４秒(60HZ)
 50
0.000000
 51
0.000000
  7
EASYDRAW_FONT
 72
     5
 11
5071.413294
 21
2014.217239
  0
TEXT
  8
CSLAYER1
 62
     4
 10
4067.997070
 20
1826.052612
 40
60.000000
 41
0.912766
  1
上昇端、下降端リミットスイッチ付
 50
0.000000
 51
0.000000
  7
EASYDRAW_FONT
 72
     5
 11
4925.997070
 21
1826.052612
  0
TEXT
  8
CSLAYER1
 62
     4
 10
4070.766954
 20
1923.048050
 40
68.819672
 41
0.605080
  1
最大使用頻度８０回／時間・最大起動頻度１０回／分
 50
0.000000
 51
0.000000
  7
EASYDRAW_FONT
 72
     5
 11
5056.279921
 21
1923.048050
  0
LINE
  8
CSLAYER1
  6
CONTINUOUS
 62
     5
 10
5128.577536
 20
2389.945074
 11
4047.268760
 21
2389.945074
  0
TEXT
  8
CSLAYER1
 62
     3
 10
4299.549805
 20
2404.561768
 40
60.000000
 41
0.825000
  1
マグネットスイッチ制御
 50
0.000000
 51
0.000000
  7
EASYDRAW_FONT
 72
     5
 11
4827.549805
 21
2404.561768
  0
TEXT
  8
CSLAYER1
 62
     3
 10
4067.430176
 20
2404.561768
 40
60.000000
 41
0.872727
  1
制御方式
 50
0.000000
 51
0.000000
  7
EASYDRAW_FONT
 72
     5
 11
4259.430176
 21
2404.561768
  0
LINE
  8
CSLAYER1
  6
CONTINUOUS
 62
     3
 10
2019.635615
 20
826.714627
 11
2038.635615
 21
826.714627
  0
LINE
  8
CSLAYER1
  6
CONTINUOUS
 62
     3
 10
2019.635615
 20
836.714627
 11
2038.635615
 21
836.714627
  0
LINE
  8
CSLAYER1
  6
CONTINUOUS
 62
     3
 10
2018.165960
 20
835.866121
 11
2018.165960
 21
827.563132
  0
LINE
  8
CSLAYER1
  6
CONTINUOUS
 62
     3
 10
2023.650788
 20
835.866121
 11
2023.650788
 21
827.563132
  0
LINE
  8
CSLAYER1
  6
CONTINUOUS
 62
     3
 10
2019.635615
 20
836.714627
 11
2018.165960
 21
835.866121
  0
ARC
  8
CSLAYER1
  6
CONTINUOUS
 62
     3
 10
2029.135615
 20
818.563132
 40
18.151494
 50
72.412046
 51
107.587954
  0
ARC
  8
CSLAYER1
  6
CONTINUOUS
 62
     3
 10
2020.908374
 20
831.872234
 40
4.844787
 50
55.524449
 51
115.524449
  0
LINE
  8
CSLAYER1
  6
CONTINUOUS
 62
     3
 10
2040.105270
 20
835.866121
 11
2040.105270
 21
827.563132
  0
LINE
  8
CSLAYER1
  6
CONTINUOUS
 62
     3
 10
2034.620443
 20
835.866121
 11
2034.620443
 21
827.563132
  0
LINE
  8
CSLAYER1
  6
CONTINUOUS
 62
     3
 10
2038.635615
 20
836.714627
 11
2040.105270
 21
835.866121
  0
ARC
  8
CSLAYER1
  6
CONTINUOUS
 62
     3
 10
2037.362856
 20
831.872234
 40
4.844787
 50
64.475551
 51
124.475551
  0
LINE
  8
CSLAYER1
  6
CONTINUOUS
 62
     3
 10
2019.635615
 20
826.714627
 11
2018.165960
 21
827.563132
  0
ARC
  8
CSLAYER1
  6
CONTINUOUS
 62
     3
 10
2029.135615
 20
844.866121
 40
18.151494
 50
252.412046
 51
287.587954
  0
ARC
  8
CSLAYER1
  6
CONTINUOUS
 62
     3
 10
2020.908374
 20
831.557019
 40
4.844787
 50
244.475551
 51
304.475551
  0
LINE
  8
CSLAYER1
  6
CONTINUOUS
 62
     3
 10
2038.635615
 20
826.714627
 11
2040.105270
 21
827.563132
  0
ARC
  8
CSLAYER1
  6
CONTINUOUS
 62
     3
 10
2037.362856
 20
831.557019
 40
4.844787
 50
235.524449
 51
295.524449
  0
POINT
  8
CSLAYER1
 62
     3
 10
2029.135615
 20
836.714627
  0
LINE
  8
CSLAYER1
  6
CONTINUOUS
 62
     3
 10
2019.635615
 20
852.514627
 11
2038.635615
 21
852.514627
  0
LINE
  8
CSLAYER1
  6
CONTINUOUS
 62
     3
 10
2018.165960
 20
844.514627
 11
2040.105270
 21
844.514627
  0
LINE
  8
CSLAYER1
  6
CONTINUOUS
 62
     3
 10
2018.165960
 20
851.666121
 11
2018.165960
 21
844.514627
  0
LINE
  8
CSLAYER1
  6
CONTINUOUS
 62
     3
 10
2023.650788
 20
851.666121
 11
2023.650788
 21
844.514627
  0
LINE
  8
CSLAYER1
  6
CONTINUOUS
 62
     3
 10
2019.635615
 20
852.514627
 11
2018.165960
 21
851.666121
  0
ARC
  8
CSLAYER1
  6
CONTINUOUS
 62
     3
 10
2029.135615
 20
834.363132
 40
18.151494
 50
72.412046
 51
107.587954
  0
ARC
  8
CSLAYER1
  6
CONTINUOUS
 62
     3
 10
2020.908374
 20
847.672234
 40
4.844787
 50
55.524449
 51
115.524449
  0
LINE
  8
CSLAYER1
  6
CONTINUOUS
 62
     3
 10
2040.105270
 20
851.666121
 11
2040.105270
 21
844.514627
  0
LINE
  8
CSLAYER1
  6
CONTINUOUS
 62
     3
 10
2034.620443
 20
851.666121
 11
2034.620443
 21
844.514627
  0
LINE
  8
CSLAYER1
  6
CONTINUOUS
 62
     3
 10
2038.635615
 20
852.514627
 11
2040.105270
 21
851.666121
  0
ARC
  8
CSLAYER1
  6
CONTINUOUS
 62
     3
 10
2037.362856
 20
847.672234
 40
4.844787
 50
64.475551
 51
124.475551
  0
LINE
  8
CSLAYER1
  6
CONTINUOUS
 62
     3
 10
2023.135615
 20
844.514627
 11
2024.135615
 21
842.782576
  0
LINE
  8
CSLAYER1
  6
CONTINUOUS
 62
     3
 10
2035.135615
 20
844.514627
 11
2034.135615
 21
842.782576
  0
POINT
  8
CSLAYER1
 62
     3
 10
2029.135615
 20
844.514627
  0
LINE
  8
CSLAYER1
  6
CONTINUOUS
 62
     3
 10
2023.135615
 20
844.514627
 11
2023.135615
 21
836.714627
  0
LINE
  8
CSLAYER1
  6
CONTINUOUS
 62
     3
 10
2024.135615
 20
842.782576
 11
2024.135615
 21
836.714627
  0
LINE
  8
CSLAYER1
  6
CONTINUOUS
 62
     3
 10
2034.135615
 20
842.782576
 11
2034.135615
 21
836.714627
  0
LINE
  8
CSLAYER1
  6
CONTINUOUS
 62
     3
 10
2035.135615
 20
844.514627
 11
2035.135615
 21
836.714627
  0
LINE
  8
CSLAYER1
  6
CENTER
 62
     5
 10
2029.135615
 20
705.714627
 11
2029.135615
 21
852.514627
  0
LINE
  8
CSLAYER1
  6
CONTINUOUS
 62
     3
 10
2019.135615
 20
705.714627
 11
2019.135615
 21
826.714627
  0
LINE
  8
CSLAYER1
  6
CONTINUOUS
 62
     3
 10
2039.135615
 20
705.714627
 11
2039.135615
 21
826.714627
  0
LINE
  8
CSLAYER1
  6
PHANTOM
 62
     5
 10
2017.135615
 20
860.714627
 11
2017.135615
 21
853.514627
  0
LINE
  8
CSLAYER1
  6
PHANTOM
 62
     5
 10
2042.135615
 20
858.514627
 11
2055.135615
 21
858.514627
  0
LINE
  8
CSLAYER1
  6
PHANTOM
 62
     5
 10
2055.135615
 20
860.714627
 11
2055.135615
 21
858.514627
  0
LINE
  8
CSLAYER1
  6
PHANTOM
 62
     5
 10
2018.135615
 20
852.514627
 11
2041.135615
 21
852.514627
  0
LINE
  8
CSLAYER1
  6
PHANTOM
 62
     5
 10
2017.135615
 20
853.514627
 11
2042.135615
 21
853.514627
  0
LINE
  8
CSLAYER1
  6
PHANTOM
 62
     5
 10
2042.135615
 20
860.714627
 11
2042.135615
 21
853.514627
  0
LINE
  8
CSLAYER1
  6
PHANTOM
 62
     5
 10
2018.135615
 20
852.514627
 11
2017.135615
 21
853.514627
  0
LINE
  8
CSLAYER1
  6
PHANTOM
 62
     5
 10
2041.135615
 20
852.514627
 11
2042.135615
 21
853.514627
  0
LINE
  8
CSLAYER1
  6
CONTINUOUS
 62
     3
 10
2805.635615
 20
826.714627
 11
2786.635615
 21
826.714627
  0
LINE
  8
CSLAYER1
  6
CONTINUOUS
 62
     3
 10
2805.635615
 20
836.714627
 11
2786.635615
 21
836.714627
  0
LINE
  8
CSLAYER1
  6
CONTINUOUS
 62
     3
 10
2807.105270
 20
835.866121
 11
2807.105270
 21
827.563132
  0
LINE
  8
CSLAYER1
  6
CONTINUOUS
 62
     3
 10
2801.620443
 20
835.866121
 11
2801.620443
 21
827.563132
  0
LINE
  8
CSLAYER1
  6
CONTINUOUS
 62
     3
 10
2805.635615
 20
836.714627
 11
2807.105270
 21
835.866121
  0
ARC
  8
CSLAYER1
  6
CONTINUOUS
 62
     3
 10
2796.135615
 20
818.563132
 40
18.151494
 50
72.412046
 51
107.587954
  0
ARC
  8
CSLAYER1
  6
CONTINUOUS
 62
     3
 10
2804.362856
 20
831.872234
 40
4.844787
 50
64.475551
 51
124.475551
  0
LINE
  8
CSLAYER1
  6
CONTINUOUS
 62
     3
 10
2785.165960
 20
835.866121
 11
2785.165960
 21
827.563132
  0
LINE
  8
CSLAYER1
  6
CONTINUOUS
 62
     3
 10
2790.650788
 20
835.866121
 11
2790.650788
 21
827.563132
  0
LINE
  8
CSLAYER1
  6
CONTINUOUS
 62
     3
 10
2786.635615
 20
836.714627
 11
2785.165960
 21
835.866121
  0
ARC
  8
CSLAYER1
  6
CONTINUOUS
 62
     3
 10
2787.908374
 20
831.872234
 40
4.844787
 50
55.524449
 51
115.524449
  0
LINE
  8
CSLAYER1
  6
CONTINUOUS
 62
     3
 10
2805.635615
 20
826.714627
 11
2807.105270
 21
827.563132
  0
ARC
  8
CSLAYER1
  6
CONTINUOUS
 62
     3
 10
2796.135615
 20
844.866121
 40
18.151494
 50
252.412046
 51
287.587954
  0
ARC
  8
CSLAYER1
  6
CONTINUOUS
 62
     3
 10
2804.362856
 20
831.557019
 40
4.844787
 50
235.524449
 51
295.524449
  0
LINE
  8
CSLAYER1
  6
CONTINUOUS
 62
     3
 10
2786.635615
 20
826.714627
 11
2785.165960
 21
827.563132
  0
ARC
  8
CSLAYER1
  6
CONTINUOUS
 62
     3
 10
2787.908374
 20
831.557019
 40
4.844787
 50
244.475551
 51
304.475551
  0
POINT
  8
CSLAYER1
 62
     3
 10
2796.135615
 20
836.714627
  0
LINE
  8
CSLAYER1
  6
CONTINUOUS
 62
     3
 10
2805.635615
 20
852.514627
 11
2786.635615
 21
852.514627
  0
LINE
  8
CSLAYER1
  6
CONTINUOUS
 62
     3
 10
2807.105270
 20
844.514627
 11
2785.165960
 21
844.514627
  0
LINE
  8
CSLAYER1
  6
CONTINUOUS
 62
     3
 10
2807.105270
 20
851.666121
 11
2807.105270
 21
844.514627
  0
LINE
  8
CSLAYER1
  6
CONTINUOUS
 62
     3
 10
2801.620443
 20
851.666121
 11
2801.620443
 21
844.514627
  0
LINE
  8
CSLAYER1
  6
CONTINUOUS
 62
     3
 10
2805.635615
 20
852.514627
 11
2807.105270
 21
851.666121
  0
ARC
  8
CSLAYER1
  6
CONTINUOUS
 62
     3
 10
2796.135615
 20
834.363132
 40
18.151494
 50
72.412046
 51
107.587954
  0
ARC
  8
CSLAYER1
  6
CONTINUOUS
 62
     3
 10
2804.362856
 20
847.672234
 40
4.844787
 50
64.475551
 51
124.475551
  0
LINE
  8
CSLAYER1
  6
CONTINUOUS
 62
     3
 10
2785.165960
 20
851.666121
 11
2785.165960
 21
844.514627
  0
LINE
  8
CSLAYER1
  6
CONTINUOUS
 62
     3
 10
2790.650788
 20
851.666121
 11
2790.650788
 21
844.514627
  0
LINE
  8
CSLAYER1
  6
CONTINUOUS
 62
     3
 10
2786.635615
 20
852.514627
 11
2785.165960
 21
851.666121
  0
ARC
  8
CSLAYER1
  6
CONTINUOUS
 62
     3
 10
2787.908374
 20
847.672234
 40
4.844787
 50
55.524449
 51
115.524449
  0
LINE
  8
CSLAYER1
  6
CONTINUOUS
 62
     3
 10
2802.135615
 20
844.514627
 11
2801.135615
 21
842.782576
  0
LINE
  8
CSLAYER1
  6
CONTINUOUS
 62
     3
 10
2790.135615
 20
844.514627
 11
2791.135615
 21
842.782576
  0
POINT
  8
CSLAYER1
 62
     3
 10
2796.135615
 20
844.514627
  0
LINE
  8
CSLAYER1
  6
CONTINUOUS
 62
     3
 10
2802.135615
 20
844.514627
 11
2802.135615
 21
836.714627
  0
LINE
  8
CSLAYER1
  6
CONTINUOUS
 62
     3
 10
2801.135615
 20
842.782576
 11
2801.135615
 21
836.714627
  0
LINE
  8
CSLAYER1
  6
CONTINUOUS
 62
     3
 10
2791.135615
 20
842.782576
 11
2791.135615
 21
836.714627
  0
LINE
  8
CSLAYER1
  6
CONTINUOUS
 62
     3
 10
2790.135615
 20
844.514627
 11
2790.135615
 21
836.714627
  0
LINE
  8
CSLAYER1
  6
CENTER
 62
     5
 10
2796.135615
 20
705.714627
 11
2796.135615
 21
852.514627
  0
LINE
  8
CSLAYER1
  6
CONTINUOUS
 62
     3
 10
2806.135615
 20
705.714627
 11
2806.135615
 21
826.714627
  0
LINE
  8
CSLAYER1
  6
CONTINUOUS
 62
     3
 10
2786.135615
 20
705.714627
 11
2786.135615
 21
826.714627
  0
LINE
  8
CSLAYER1
  6
PHANTOM
 62
     5
 10
2808.135615
 20
860.714627
 11
2808.135615
 21
853.514627
  0
LINE
  8
CSLAYER1
  6
PHANTOM
 62
     5
 10
2807.135615
 20
852.514627
 11
2808.135615
 21
853.514627
  0
LINE
  8
CSLAYER1
  6
PHANTOM
 62
     5
 10
2784.135615
 20
860.714627
 11
2784.135615
 21
853.514627
  0
LINE
  8
CSLAYER1
  6
PHANTOM
 62
     5
 10
2785.135615
 20
852.514627
 11
2784.135615
 21
853.514627
  0
LINE
  8
CSLAYER1
  6
CONTINUOUS
 62
     5
 10
5128.577536
 20
1621.945094
 11
4047.268760
 21
1621.945094
  0
LINE
  8
CSLAYER1
  6
CONTINUOUS
 62
     5
 10
5128.577536
 20
1621.945094
 11
4384.536043
 21
1621.945094
  0
TEXT
  8
CSLAYER1
 62
     3
 10
4542.057617
 20
1637.952148
 40
60.000000
 41
0.926087
  1
　１０Ｒ４／１３
 50
0.000000
 51
0.000000
  7
EASYDRAW_FONT
 72
     5
 11
4968.057617
 21
1637.952148
  0
TEXT
  8
CSLAYER1
 62
     3
 10
4069.400879
 20
3172.703857
 40
60.000000
 41
1.036364
  1
積載荷重
 50
0.000000
 51
0.000000
  7
EASYDRAW_FONT
 72
     5
 11
4297.400879
 21
3172.703857
  0
TEXT
  8
CSLAYER1
 62
     5
 10
930.239339
 20
2701.443068
 40
59.399998
 41
1.020000
  1
コード長サ２ｍ
 50
0.000000
 51
0.000000
  7
EASYDRAW_FONT
 72
     5
 11
1334.159343
 21
2701.443068
  0
LINE
  8
CSLAYER1
  6
CONTINUOUS
 62
     5
 10
1343.186992
 20
2846.847062
 11
1504.309101
 21
2626.250545
  0
LINE
  8
CSLAYER1
  6
CONTINUOUS
 62
     5
 10
1504.309101
 20
2626.250545
 11
1469.266408
 21
2654.481904
  0
LINE
  8
CSLAYER1
  6
CONTINUOUS
 62
     5
 10
1504.309101
 20
2626.250545
 11
1488.076919
 21
2668.220966
  0
INSERT
  8
CSLAYER1
  2
BLKF0026
 10
0.0
 20
0.0
 30
0.0
  0
ENDSEC
  0
EOF
