  0
SECTION
  2
HEADER
  9
$ACADVER
  1
AC1006
  9
$INSBASE
 10
1217.628319
 20
5058.544248
 30
0.0
  9
$EXTMIN
 10
1217.628319
 20
5058.544248
  9
$EXTMAX
 10
6677.628319
 20
8913.544248
  9
$LIMMIN
 10
1217.628319
 20
5058.544248
  9
$LIMMAX
 10
6677.628319
 20
8913.544248
  9
$VIEWCTR
 10
3947.628319
 20
6986.044248
  9
$VIEWSIZE
 40
3855.000000
  9
$SNAPMODE
 70
     0
  9
$SNAPUNIT
 10
1.0
 20
1.0
  9
$SNAPBASE
 10
0.0
 20
0.0
  9
$SNAPANG
 50
0.0
  9
$SNAPSTYLE
 70
     0
  9
$SNAPISOPAIR
 70
     0
  9
$GRIDMODE
 70
     0
  9
$GRIDUNIT
 10
0.0
 20
0.0
  9
$ORTHOMODE
 70
     0
  9
$REGENMODE
 70
     1
  9
$FILLMODE
 70
     1
  9
$QTEXTMODE
 70
     0
  9
$DRAGMODE
 70
     2
  9
$LTSCALE
 40
15.000000
  9
$OSMODE
 70
     0
  9
$ATTMODE
 70
     1
  9
$TEXTSIZE
 40
0.2
  9
$TRACEWID
 40
0.05
  9
$TEXTSTYLE
  7
STANDARD
  9
$CLAYER
  8
CSLAYER1
  9
$CELTYPE
  6
BYLAYER
  9
$CECOLOR
 62
   256
  9
$DIMSCALE
 40
1.0
  9
$DIMASZ
 40
0.18
  9
$DIMEXO
 40
0.0625
  9
$DIMDLI
 40
0.38
  9
$DIMRND
 40
0.0
  9
$DIMDLE
 40
0.0
  9
$DIMEXE
 40
0.18
  9
$DIMTP
 40
0.0
  9
$DIMTM
 40
0.0
  9
$DIMTXT
 40
0.18
  9
$DIMCEN
 40
0.09
  9
$DIMTSZ
 40
0.0
  9
$DIMTOL
 70
     0
  9
$DIMLIM
 70
     0
  9
$DIMTIH
 70
     1
  9
$DIMTOH
 70
     1
  9
$DIMSE1
 70
     0
  9
$DIMSE2
 70
     0
  9
$DIMTAD
 70
     0
  9
$DIMZIN
 70
     0
  9
$DIMBLK
  1

  9
$LUNITS
 70
     2
  9
$LUPREC
 70
     4
  9
$AXISMODE
 70
     0
  9
$AXISUNIT
 10
0.0
 20
0.0
  9
$SKETCHINC
 40
0.1
  9
$FILLETRAD
 40
0.0
  9
$AUNITS
 70
     0
  9
$AUPREC
 70
     0
  9
$MENU
  1
ACAD
  9
$ELEVATION
 40
0.0
  9
$THICKNESS
 40
0.0
  9
$VIEWDIR
 10
0.0
 20
0.0
 30
1.0
  9
$LIMCHECK
 70
     0
  9
$BLIPMODE
 70
     1
  9
$CHAMFERA
 40
0.0
  9
$CHAMFERB
 40
0.0
  9
$FASTZOOM
 70
     1
  9
$SKPOLY
 70
     0
  9
$TDCREATE
 40
2457497.000000
  9
$TDUPDATE
 40
2457497.000000
  9
$TDINDWG
 40
0.0
  9
$TDUSRTIMER
 40
0.0
  9
$USRTIMER
 70
     1
  9
$ANGBASE
 50
0.0
  9
$ANGDIR
 70
     0
  9
$PDMODE
 70
     0
  9
$PDSIZE
 40
0.0
  9
$PLINEWID
 40
0.0
  9
$COORDS
 70
     0
  9
$USERI1
 70
     0
  9
$USERI2
 70
     0
  9
$USERI3
 70
     0
  9
$USERI4
 70
     0
  9
$USERI5
 70
     0
  9
$USERR1
 40
0.0
  9
$USERR2
 40
0.0
  9
$USERR3
 40
0.0
  9
$USERR4
 40
0.0
  9
$USERR5
 40
0.0
  0
ENDSEC
  0
SECTION
  2
TABLES
  0
TABLE
  2
LTYPE
 70
     9
  0
LTYPE
  2
CONTINUOUS
 70
    64
  3
Solid line
 72
    65
 73
     0
 40
0.0
  0
LTYPE
  2
DASHED
 70
    64
  3
__ __ __ __ __ __ __ __ __ __ __ __ __ __ __
 72
    65
 73
     2
 40
0.75
 49
0.5
 49
-0.25
  0
LTYPE
  2
HIDDEN
 70
    64
  3
_ _ _ _ _ _ _ _ _ _ _ _ _ _ _ _ _ _ _ _ _ _ _
 72
    65
 73
     2
 40
0.375
 49
0.25
 49
-0.125
  0
LTYPE
  2
DOT
 70
    64
  3
...............................................
 72
    65
 73
     2
 40
0.25
 49
0.0
 49
-0.25
  0
LTYPE
  2
DASHDOT
 70
    64
  3
__ . __ . __ . __ . __ . __ . __ . __ . __ . __
 72
    65
 73
     4
 40
1.0
 49
0.5
 49
-0.25
 49
0.0
 49
-0.25
  0
LTYPE
  2
DIVIDE
 70
    64
  3
__ . . __ . . __ . . __ . . __ . . __ . . __
 72
    65
 73
     6
 40
1.25
 49
0.5
 49
-0.25
 49
0.0
 49
-0.25
 49
0.0
 49
-0.25
  0
LTYPE
  2
CENTER
 70
    64
  3
____ _ ____ _ ____ _ ____ _ ____ _ ____ _ ____ 
 72
    65
 73
     4
 40
2.0
 49
1.25
 49
-0.25
 49
0.25
 49
-0.25
  0
LTYPE
  2
PHANTOM
 70
    64
  3
______  __  __  ______  __  __  ______  __  __ 
 72
    65
 73
     6
 40
2.5
 49
1.25
 49
-0.25
 49
0.25
 49
-0.25
 49
0.25
 49
-0.25
  0
LTYPE
  2
BORDER
 70
    64
  3
__ __ . __ __ . __ __ . __ __ . __ __ . __ __ .
 72
    65
 73
     6
 40
1.75
 49
0.5
 49
-0.25
 49
0.5
 49
-0.25
 49
0.0
 49
-0.25
  0
ENDTAB
  0
TABLE
  2
LAYER
 70
    16
  0
LAYER
  2
CSLAYER1
 70
    64
 62
     7
  6
CONTINUOUS
  0
LAYER
  2
CSLAYER2
 70
    64
 62
     7
  6
CONTINUOUS
  0
LAYER
  2
CSLAYER3
 70
    64
 62
     7
  6
CONTINUOUS
  0
LAYER
  2
CSLAYER4
 70
    64
 62
     7
  6
CONTINUOUS
  0
LAYER
  2
CSLAYER5
 70
    64
 62
     7
  6
CONTINUOUS
  0
LAYER
  2
CSLAYER6
 70
    64
 62
     7
  6
CONTINUOUS
  0
LAYER
  2
CSLAYER7
 70
    64
 62
     7
  6
CONTINUOUS
  0
LAYER
  2
CSLAYER8
 70
    64
 62
     7
  6
CONTINUOUS
  0
LAYER
  2
CSLAYER9
 70
    64
 62
     7
  6
CONTINUOUS
  0
LAYER
  2
CSLAYER10
 70
    64
 62
     7
  6
CONTINUOUS
  0
LAYER
  2
CSLAYER11
 70
    64
 62
     7
  6
CONTINUOUS
  0
LAYER
  2
CSLAYER12
 70
    64
 62
     7
  6
CONTINUOUS
  0
LAYER
  2
CSLAYER13
 70
    64
 62
     7
  6
CONTINUOUS
  0
LAYER
  2
CSLAYER14
 70
    64
 62
     7
  6
CONTINUOUS
  0
LAYER
  2
CSLAYER15
 70
    64
 62
     7
  6
CONTINUOUS
  0
LAYER
  2
CSLAYER16
 70
    64
 62
     7
  6
CONTINUOUS
  0
ENDTAB
  0
TABLE
  2
STYLE
 70
     1
  0
STYLE
  2
EASYDRAW_FONT
 70
     0
 40
1.0
 41
1.0
 50
0.0
 71
     0
 42
1.0
  3
monotxt
  4
bigfont
  0
ENDTAB
  0
TABLE
  2
VIEW
 70
     0
  0
ENDTAB
  0
ENDSEC
  0
SECTION
  2
BLOCKS
  0
BLOCK
  8
CSLAYER1
  2
EASYDRAWDIM0000
 70
   64
 10
0.0
 20
0.0
 30
0.0
  0
TEXT
  8
CSLAYER1
 62
     3
 10
2669.734863
 20
1158.817261
 40
58.837482
 41
0.648771
  1
ギヤードモーター
 50
0.000000
 51
0.000000
  7
EASYDRAW_FONT
 72
     5
 11
2962.387390
 21
1158.817261
  0
LINE
  8
CSLAYER1
  6
CONTINUOUS
 62
     5
 10
2545.189135
 20
996.742587
 11
2663.471776
 21
1148.790605
  0
LINE
  8
CSLAYER1
  6
CONTINUOUS
 62
     5
 10
2545.189135
 20
996.742587
 11
2562.685531
 21
1038.201918
  0
LINE
  8
CSLAYER1
  6
CONTINUOUS
 62
     5
 10
2545.189135
 20
996.742587
 11
2581.071124
 21
1023.899222
  0
LINE
  8
CSLAYER1
  6
CONTINUOUS
 62
     5
 10
2663.471776
 20
1148.790605
 11
2953.693597
 21
1148.790605
  0
ENDBLK
  8
0
  0
BLOCK
  8
CSLAYER1
  2
EASYDRAWDIM0001
 70
   64
 10
0.0
 20
0.0
 30
0.0
  0
TEXT
  8
CSLAYER1
 62
     3
 10
1447.567627
 20
1073.432495
 40
60.000000
 41
0.775862
  1
下限アジャストボルト
 50
0.000000
 51
0.000000
  7
EASYDRAW_FONT
 72
     5
 11
1897.567627
 21
1073.432495
  0
LINE
  8
CSLAYER1
  6
CONTINUOUS
 62
     5
 10
1308.432911
 20
906.433060
 11
1440.074667
 21
1058.432554
  0
LINE
  8
CSLAYER1
  6
CONTINUOUS
 62
     5
 10
1308.432911
 20
906.433060
 11
1328.085288
 21
946.914958
  0
LINE
  8
CSLAYER1
  6
CONTINUOUS
 62
     5
 10
1308.432911
 20
906.433060
 11
1345.693318
 21
931.665224
  0
LINE
  8
CSLAYER1
  6
CONTINUOUS
 62
     5
 10
1440.074667
 20
1058.432554
 11
1912.567473
 21
1058.432554
  0
ENDBLK
  8
0
  0
BLOCK
  8
CSLAYER1
  2
EASYDRAWDIM0002
 70
   64
 10
0.0
 20
0.0
 30
0.0
  0
TEXT
  8
CSLAYER1
 62
     3
 10
1435.050171
 20
1252.205933
 40
60.000000
 41
0.769737
  1
上限・下限リミットスイッチ
 50
0.000000
 51
0.000000
  7
EASYDRAW_FONT
 72
     5
 11
2020.050171
 21
1252.205933
  0
LINE
  8
CSLAYER1
  6
CONTINUOUS
 62
     5
 10
1183.932911
 20
842.553496
 11
1427.337169
 21
1237.205974
  0
LINE
  8
CSLAYER1
  6
CONTINUOUS
 62
     5
 10
1183.932911
 20
842.553496
 11
1196.837393
 21
885.663522
  0
LINE
  8
CSLAYER1
  6
CONTINUOUS
 62
     5
 10
1183.932911
 20
842.553496
 11
1216.663534
 21
873.435633
  0
LINE
  8
CSLAYER1
  6
CONTINUOUS
 62
     5
 10
1427.337169
 20
1237.205974
 11
2035.050067
 21
1237.205974
  0
ENDBLK
  8
0
  0
BLOCK
  8
CSLAYER1
  2
*D0000
 70
    65
 10
0.0
 20
0.0
 30
0.0
  0
TEXT
  8
CSLAYER1
 62
     3
 10
3018.484131
 20
2696.187988
 40
60.000000
 41
0.843750
  1
500
 50
90.000000
 51
0.000000
  7
EASYDRAW_FONT
 72
     5
 11
3018.484131
 21
2831.187988
  0
LINE
  8
CSLAYER1
  6
CONTINUOUS
 62
     5
 10
2907.794555
 20
2513.687855
 11
3048.484312
 21
2513.687855
  0
LINE
  8
CSLAYER1
  6
CONTINUOUS
 62
     5
 10
2907.794555
 20
3013.687855
 11
3048.484312
 21
3013.687855
  0
LINE
  8
CSLAYER1
  6
CONTINUOUS
 62
     5
 10
3033.484312
 20
2513.687855
 11
3033.484312
 21
3013.687855
  0
LINE
  8
CSLAYER1
  6
CONTINUOUS
 62
     5
 10
3033.484312
 20
2513.687855
 11
3021.837455
 21
2557.154517
  0
LINE
  8
CSLAYER1
  6
CONTINUOUS
 62
     5
 10
3033.484312
 20
2513.687855
 11
3045.131169
 21
2557.154517
  0
LINE
  8
CSLAYER1
  6
CONTINUOUS
 62
     5
 10
3033.484312
 20
3013.687855
 11
3021.837455
 21
2970.221193
  0
LINE
  8
CSLAYER1
  6
CONTINUOUS
 62
     5
 10
3033.484312
 20
3013.687855
 11
3045.131169
 21
2970.221193
  0
ENDBLK
  8
0
  0
BLOCK
  8
CSLAYER1
  2
*D0001
 70
    65
 10
0.0
 20
0.0
 30
0.0
  0
TEXT
  8
CSLAYER1
 62
     3
 10
2425.294434
 20
2391.467773
 40
60.000000
 41
0.843750
  1
800
 50
0.000000
 51
0.000000
  7
EASYDRAW_FONT
 72
     5
 11
2560.294434
 21
2391.467773
  0
LINE
  8
CSLAYER1
  6
CONTINUOUS
 62
     5
 10
2092.794555
 20
2498.687855
 11
2092.794555
 21
2361.467832
  0
LINE
  8
CSLAYER1
  6
CONTINUOUS
 62
     5
 10
2892.794555
 20
2498.687855
 11
2892.794555
 21
2361.467832
  0
LINE
  8
CSLAYER1
  6
CONTINUOUS
 62
     5
 10
2092.794555
 20
2376.467832
 11
2892.794555
 21
2376.467832
  0
LINE
  8
CSLAYER1
  6
CONTINUOUS
 62
     5
 10
2092.794555
 20
2376.467832
 11
2136.261217
 21
2388.114689
  0
LINE
  8
CSLAYER1
  6
CONTINUOUS
 62
     5
 10
2092.794555
 20
2376.467832
 11
2136.261217
 21
2364.820975
  0
LINE
  8
CSLAYER1
  6
CONTINUOUS
 62
     5
 10
2892.794555
 20
2376.467832
 11
2849.327893
 21
2388.114689
  0
LINE
  8
CSLAYER1
  6
CONTINUOUS
 62
     5
 10
2892.794555
 20
2376.467832
 11
2849.327893
 21
2364.820975
  0
ENDBLK
  8
0
  0
BLOCK
  8
CSLAYER1
  2
*D0002
 70
    65
 10
0.0
 20
0.0
 30
0.0
  0
TEXT
  8
CSLAYER1
 62
     3
 10
3028.913330
 20
767.133118
 40
60.000000
 41
0.843750
  1
250
 50
90.000000
 51
0.000000
  7
EASYDRAW_FONT
 72
     5
 11
3028.913330
 21
902.133118
  0
LINE
  8
CSLAYER1
  6
CONTINUOUS
 62
     5
 10
2905.994555
 20
709.633060
 11
3197.886561
 21
709.633060
  0
LINE
  8
CSLAYER1
  6
CONTINUOUS
 62
     5
 10
2907.794555
 20
959.633060
 11
3058.913332
 21
959.633060
  0
LINE
  8
CSLAYER1
  6
CONTINUOUS
 62
     5
 10
3043.913332
 20
709.633060
 11
3043.913332
 21
959.633060
  0
LINE
  8
CSLAYER1
  6
CONTINUOUS
 62
     5
 10
3043.913332
 20
709.633060
 11
3032.266475
 21
753.099723
  0
LINE
  8
CSLAYER1
  6
CONTINUOUS
 62
     5
 10
3043.913332
 20
709.633060
 11
3055.560190
 21
753.099723
  0
LINE
  8
CSLAYER1
  6
CONTINUOUS
 62
     5
 10
3043.913332
 20
959.633060
 11
3032.266475
 21
916.166398
  0
LINE
  8
CSLAYER1
  6
CONTINUOUS
 62
     5
 10
3043.913332
 20
959.633060
 11
3055.560190
 21
916.166398
  0
ENDBLK
  8
0
  0
BLOCK
  8
CSLAYER1
  2
*D0003
 70
    65
 10
0.0
 20
0.0
 30
0.0
  0
TEXT
  8
CSLAYER1
 62
     3
 10
3028.913330
 20
1390.812866
 40
60.000000
 41
0.843750
  1
970
 50
90.000000
 51
0.000000
  7
EASYDRAW_FONT
 72
     5
 11
3028.913330
 21
1525.812866
  0
LINE
  8
CSLAYER1
  6
CONTINUOUS
 62
     5
 10
2907.794555
 20
1956.992372
 11
3197.886561
 21
1956.992372
  0
LINE
  8
CSLAYER1
  6
CONTINUOUS
 62
     5
 10
3043.913332
 20
959.633060
 11
3043.913332
 21
1956.992372
  0
LINE
  8
CSLAYER1
  6
CONTINUOUS
 62
     5
 10
3043.913332
 20
959.633060
 11
3032.266475
 21
1003.099723
  0
LINE
  8
CSLAYER1
  6
CONTINUOUS
 62
     5
 10
3043.913332
 20
959.633060
 11
3055.560190
 21
1003.099723
  0
LINE
  8
CSLAYER1
  6
CONTINUOUS
 62
     5
 10
3043.913332
 20
1956.992372
 11
3032.266475
 21
1913.525710
  0
LINE
  8
CSLAYER1
  6
CONTINUOUS
 62
     5
 10
3043.913332
 20
1956.992372
 11
3055.560190
 21
1913.525710
  0
ENDBLK
  8
0
  0
BLOCK
  8
CSLAYER1
  2
*D0004
 70
    65
 10
0.0
 20
0.0
 30
0.0
  0
TEXT
  8
CSLAYER1
 62
     3
 10
3167.886475
 20
1243.312866
 40
60.000000
 41
0.818182
  1
1220
 50
90.000000
 51
0.000000
  7
EASYDRAW_FONT
 72
     5
 11
3167.886475
 21
1423.312866
  0
LINE
  8
CSLAYER1
  6
CONTINUOUS
 62
     5
 10
3182.886561
 20
709.633060
 11
3182.886561
 21
1956.992372
  0
LINE
  8
CSLAYER1
  6
CONTINUOUS
 62
     5
 10
3182.886561
 20
709.633060
 11
3171.239704
 21
753.099723
  0
LINE
  8
CSLAYER1
  6
CONTINUOUS
 62
     5
 10
3182.886561
 20
709.633060
 11
3194.533418
 21
753.099723
  0
LINE
  8
CSLAYER1
  6
CONTINUOUS
 62
     5
 10
3182.886561
 20
1956.992372
 11
3171.239704
 21
1913.525710
  0
LINE
  8
CSLAYER1
  6
CONTINUOUS
 62
     5
 10
3182.886561
 20
1956.992372
 11
3194.533418
 21
1913.525710
  0
ENDBLK
  8
0
  0
BLOCK
  8
CSLAYER1
  2
*D0005
 70
    65
 10
0.0
 20
0.0
 30
0.0
  0
TEXT
  8
CSLAYER1
 62
     3
 10
1007.220947
 20
574.348083
 40
60.000000
 41
0.843750
  1
440
 50
0.000000
 51
0.000000
  7
EASYDRAW_FONT
 72
     5
 11
1142.220947
 21
574.348083
  0
LINE
  8
CSLAYER1
  6
CONTINUOUS
 62
     5
 10
854.432911
 20
563.305263
 11
1294.432911
 21
563.305263
  0
LINE
  8
CSLAYER1
  6
CONTINUOUS
 62
     5
 10
854.432911
 20
563.305263
 11
897.899573
 21
574.952120
  0
LINE
  8
CSLAYER1
  6
CONTINUOUS
 62
     5
 10
854.432911
 20
563.305263
 11
897.899573
 21
551.658406
  0
LINE
  8
CSLAYER1
  6
CONTINUOUS
 62
     5
 10
1294.432911
 20
563.305263
 11
1250.966249
 21
574.952120
  0
LINE
  8
CSLAYER1
  6
CONTINUOUS
 62
     5
 10
1294.432911
 20
563.305263
 11
1250.966249
 21
551.658406
  0
ENDBLK
  8
0
  0
BLOCK
  8
CSLAYER1
  2
*D0006
 70
    65
 10
0.0
 20
0.0
 30
0.0
  0
TEXT
  8
CSLAYER1
 62
     3
 10
1003.616943
 20
422.975067
 40
60.000000
 41
0.843750
  1
500
 50
0.000000
 51
0.000000
  7
EASYDRAW_FONT
 72
     5
 11
1138.616943
 21
422.975067
  0
LINE
  8
CSLAYER1
  6
CONTINUOUS
 62
     5
 10
824.432911
 20
694.633060
 11
824.432911
 21
401.535387
  0
LINE
  8
CSLAYER1
  6
CONTINUOUS
 62
     5
 10
1324.432911
 20
694.633060
 11
1324.432911
 21
401.535387
  0
LINE
  8
CSLAYER1
  6
CONTINUOUS
 62
     5
 10
824.432911
 20
416.535387
 11
1324.432911
 21
416.535387
  0
LINE
  8
CSLAYER1
  6
CONTINUOUS
 62
     5
 10
824.432911
 20
416.535387
 11
867.899573
 21
428.182244
  0
LINE
  8
CSLAYER1
  6
CONTINUOUS
 62
     5
 10
824.432911
 20
416.535387
 11
867.899573
 21
404.888530
  0
LINE
  8
CSLAYER1
  6
CONTINUOUS
 62
     5
 10
1324.432911
 20
416.535387
 11
1280.966249
 21
428.182244
  0
LINE
  8
CSLAYER1
  6
CONTINUOUS
 62
     5
 10
1324.432911
 20
416.535387
 11
1280.966249
 21
404.888530
  0
ENDBLK
  8
0
  0
BLOCK
  8
CSLAYER1
  2
*D0007
 70
    65
 10
0.0
 20
0.0
 30
0.0
  0
TEXT
  8
CSLAYER1
 62
     3
 10
2104.814697
 20
482.217743
 40
60.000000
 41
0.900000
  1
50
 50
0.000000
 51
0.000000
  7
EASYDRAW_FONT
 72
     5
 11
2194.814697
 21
482.217743
  0
LINE
  8
CSLAYER1
  6
CONTINUOUS
 62
     5
 10
2091.994555
 20
694.633060
 11
2091.994555
 21
401.535387
  0
LINE
  8
CSLAYER1
  6
CONTINUOUS
 62
     5
 10
2091.994555
 20
563.305263
 11
2141.994555
 21
563.305263
  0
LINE
  8
CSLAYER1
  6
CONTINUOUS
 62
     5
 10
2091.994555
 20
563.305263
 11
2135.461217
 21
574.952120
  0
LINE
  8
CSLAYER1
  6
CONTINUOUS
 62
     5
 10
2091.994555
 20
563.305263
 11
2135.461217
 21
551.658406
  0
LINE
  8
CSLAYER1
  6
CONTINUOUS
 62
     5
 10
2141.994555
 20
563.305263
 11
2098.527893
 21
574.952120
  0
LINE
  8
CSLAYER1
  6
CONTINUOUS
 62
     5
 10
2141.994555
 20
563.305263
 11
2098.527893
 21
551.658406
  0
ENDBLK
  8
0
  0
BLOCK
  8
CSLAYER1
  2
*D0008
 70
    65
 10
0.0
 20
0.0
 30
0.0
  0
TEXT
  8
CSLAYER1
 62
     3
 10
2269.927002
 20
574.307068
 40
60.000000
 41
0.843750
  1
400
 50
0.000000
 51
0.000000
  7
EASYDRAW_FONT
 72
     5
 11
2404.927002
 21
574.307068
  0
LINE
  8
CSLAYER1
  6
CONTINUOUS
 62
     5
 10
2141.994555
 20
563.305263
 11
2541.994555
 21
563.305263
  0
LINE
  8
CSLAYER1
  6
CONTINUOUS
 62
     5
 10
2141.994555
 20
563.305263
 11
2185.461217
 21
574.952120
  0
LINE
  8
CSLAYER1
  6
CONTINUOUS
 62
     5
 10
2141.994555
 20
563.305263
 11
2185.461217
 21
551.658406
  0
LINE
  8
CSLAYER1
  6
CONTINUOUS
 62
     5
 10
2541.994555
 20
563.305263
 11
2498.527893
 21
574.952120
  0
LINE
  8
CSLAYER1
  6
CONTINUOUS
 62
     5
 10
2541.994555
 20
563.305263
 11
2498.527893
 21
551.658406
  0
ENDBLK
  8
0
  0
BLOCK
  8
CSLAYER1
  2
*D0009
 70
    65
 10
0.0
 20
0.0
 30
0.0
  0
TEXT
  8
CSLAYER1
 62
     3
 10
2423.994385
 20
431.535614
 40
60.000000
 41
0.843750
  1
800
 50
0.000000
 51
0.000000
  7
EASYDRAW_FONT
 72
     5
 11
2558.994385
 21
431.535614
  0
LINE
  8
CSLAYER1
  6
CONTINUOUS
 62
     5
 10
2890.994555
 20
694.633060
 11
2890.994555
 21
401.535387
  0
LINE
  8
CSLAYER1
  6
CONTINUOUS
 62
     5
 10
2091.994555
 20
416.535387
 11
2890.994555
 21
416.535387
  0
LINE
  8
CSLAYER1
  6
CONTINUOUS
 62
     5
 10
2091.994555
 20
416.535387
 11
2135.461217
 21
428.182244
  0
LINE
  8
CSLAYER1
  6
CONTINUOUS
 62
     5
 10
2091.994555
 20
416.535387
 11
2135.461217
 21
404.888530
  0
LINE
  8
CSLAYER1
  6
CONTINUOUS
 62
     5
 10
2890.994555
 20
416.535387
 11
2847.527893
 21
428.182244
  0
LINE
  8
CSLAYER1
  6
CONTINUOUS
 62
     5
 10
2890.994555
 20
416.535387
 11
2847.527893
 21
404.888530
  0
ENDBLK
  8
0
  0
BLOCK
  8
CSLAYER1
  2
*D0010
 70
    65
 10
0.0
 20
0.0
 30
0.0
  0
TEXT
  8
CSLAYER1
 62
     3
 10
1434.297485
 20
729.715698
 40
60.000000
 41
0.843750
  1
4.5
 50
90.000000
 51
0.000000
  7
EASYDRAW_FONT
 72
     5
 11
1434.297485
 21
864.715698
  0
LINE
  8
CSLAYER1
  6
CONTINUOUS
 62
     5
 10
1339.432911
 20
709.633060
 11
1463.870491
 21
709.633060
  0
LINE
  8
CSLAYER1
  6
CONTINUOUS
 62
     5
 10
1334.752521
 20
715.133060
 11
1463.870491
 21
715.133060
  0
LINE
  8
CSLAYER1
  6
CONTINUOUS
 62
     5
 10
1448.870491
 20
709.633060
 11
1448.870491
 21
634.633060
  0
LINE
  8
CSLAYER1
  6
CONTINUOUS
 62
     5
 10
1448.870491
 20
709.633060
 11
1437.223634
 21
666.166398
  0
LINE
  8
CSLAYER1
  6
CONTINUOUS
 62
     5
 10
1448.870491
 20
709.633060
 11
1460.517348
 21
666.166398
  0
LINE
  8
CSLAYER1
  6
CONTINUOUS
 62
     5
 10
1448.870491
 20
715.133060
 11
1448.870491
 21
797.215831
  0
LINE
  8
CSLAYER1
  6
CONTINUOUS
 62
     5
 10
1448.870491
 20
715.133060
 11
1437.223634
 21
758.599723
  0
LINE
  8
CSLAYER1
  6
CONTINUOUS
 62
     5
 10
1448.870491
 20
715.133060
 11
1460.517348
 21
758.599723
  0
LINE
  8
CSLAYER1
  6
CONTINUOUS
 62
     5
 10
1448.870491
 20
709.633060
 11
1448.870491
 21
715.133060
  0
ENDBLK
  8
0
  0
BLOCK
  8
CSLAYER1
  2
EASYDRAWDIM0003
 70
   64
 10
0.0
 20
0.0
 30
0.0
  0
TEXT
  8
CSLAYER1
 62
     3
 10
1481.309082
 20
562.175720
 40
60.000000
 41
0.803571
  1
4-%%c13
 50
0.000000
 51
0.000000
  7
EASYDRAW_FONT
 72
     5
 11
1706.309082
 21
562.175720
  0
LINE
  8
CSLAYER1
  6
CONTINUOUS
 62
     5
 10
2141.994555
 20
709.633060
 11
1930.177450
 21
552.527302
  0
LINE
  8
CSLAYER1
  6
CONTINUOUS
 62
     5
 10
2141.994555
 20
709.633060
 11
2114.021062
 21
674.384178
  0
LINE
  8
CSLAYER1
  6
CONTINUOUS
 62
     5
 10
2141.994555
 20
709.633060
 11
2100.144358
 21
693.093379
  0
LINE
  8
CSLAYER1
  6
CONTINUOUS
 62
     5
 10
1930.177450
 20
552.527302
 11
1461.002315
 21
552.527302
  0
ENDBLK
  8
0
  0
BLOCK
  8
CSLAYER1
  2
EASYDRAWDIM0004
 70
   64
 10
0.0
 20
0.0
 30
0.0
  0
TEXT
  8
CSLAYER1
 62
     3
 10
1476.946243
 20
490.930634
 40
50.470764
 41
0.839416
  1
アンカーボルト取付穴
 50
0.000000
 51
0.000000
  7
EASYDRAW_FONT
 72
     5
 11
1886.484131
 21
490.930634
  0
ENDBLK
  8
0
  0
BLOCK
  8
CSLAYER1
  2
BLKF0000
 70
   64
 10
0.0
 20
0.0
 30
0.0
  0
ARC
  8
CSLAYER1
  6
CONTINUOUS
 62
     5
 10
4169.771750
 20
120.742239
 40
5.323837
 50
6.429109
 51
73.182034
  0
ARC
  8
CSLAYER1
  6
CONTINUOUS
 62
     5
 10
4164.580294
 20
119.004650
 40
10.361631
 50
310.517970
 51
330.092764
  0
ARC
  8
CSLAYER1
  6
CONTINUOUS
 62
     5
 10
4164.489320
 20
119.552927
 40
10.722482
 50
-32.205059
 51
9.585194
  0
ARC
  8
CSLAYER1
  6
CONTINUOUS
 62
     5
 10
4169.428412
 20
115.411429
 40
7.151272
 50
180.000000
 51
218.514150
  0
ARC
  8
CSLAYER1
  6
CONTINUOUS
 62
     5
 10
4167.498330
 20
114.395718
 40
5.022423
 50
222.781148
 51
319.406906
  0
ARC
  8
CSLAYER1
  6
CONTINUOUS
 62
     5
 10
4172.096793
 20
116.030557
 40
9.839152
 50
94.574282
 51
183.607718
  0
LINE
  8
CSLAYER1
  6
CONTINUOUS
 62
     5
 10
4192.262653
 20
108.355309
 11
4190.977098
 21
103.797435
  0
LINE
  8
CSLAYER1
  6
CONTINUOUS
 62
     5
 10
4194.950630
 20
138.156795
 11
4191.795178
 21
142.247195
  0
LINE
  8
CSLAYER1
  6
CONTINUOUS
 62
     5
 10
4191.795178
 20
142.247195
 11
4181.665147
 21
147.884063
  0
LINE
  8
CSLAYER1
  6
CONTINUOUS
 62
     5
 10
4181.665147
 20
147.884063
 11
4171.312106
 21
149.088369
  0
LINE
  8
CSLAYER1
  6
CONTINUOUS
 62
     5
 10
4143.878268
 20
129.020359
 11
4147.098310
 21
136.466705
  0
LINE
  8
CSLAYER1
  6
CONTINUOUS
 62
     5
 10
4147.042813
 20
136.338369
 11
4150.318351
 21
140.290504
  0
LINE
  8
CSLAYER1
  6
CONTINUOUS
 62
     5
 10
4150.318351
 20
140.290504
 11
4155.274984
 21
143.838369
  0
LINE
  8
CSLAYER1
  6
CONTINUOUS
 62
     5
 10
4171.312106
 20
149.088369
 11
4169.034843
 21
147.938103
  0
LINE
  8
CSLAYER1
  6
CONTINUOUS
 62
     5
 10
4169.034843
 20
147.938103
 11
4163.802275
 21
147.938103
  0
LINE
  8
CSLAYER1
  6
CONTINUOUS
 62
     5
 10
4163.802275
 20
147.938103
 11
4158.469081
 21
145.019940
  0
LINE
  8
CSLAYER1
  6
CONTINUOUS
 62
     5
 10
4158.469081
 20
145.019940
 11
4155.274984
 21
143.838369
  0
LINE
  8
CSLAYER1
  6
CONTINUOUS
 62
     5
 10
4143.878268
 20
129.020359
 11
4141.601947
 21
117.697454
  0
LINE
  8
CSLAYER1
  6
CONTINUOUS
 62
     5
 10
4141.601947
 20
117.697454
 11
4141.312106
 21
113.838369
  0
LINE
  8
CSLAYER1
  6
CONTINUOUS
 62
     5
 10
4145.376180
 20
102.078696
 11
4141.312106
 21
111.222862
  0
LINE
  8
CSLAYER1
  6
CONTINUOUS
 62
     5
 10
4141.312106
 20
111.222862
 11
4141.312106
 21
113.838369
  0
LINE
  8
CSLAYER1
  6
CONTINUOUS
 62
     5
 10
4190.977098
 20
103.797435
 11
4188.448418
 21
99.292925
  0
LINE
  8
CSLAYER1
  6
CONTINUOUS
 62
     5
 10
4188.448418
 20
99.292925
 11
4186.312106
 21
97.314859
  0
ARC
  8
CSLAYER1
  6
CONTINUOUS
 62
     5
 10
4168.024189
 20
114.643510
 40
25.899940
 50
208.054813
 51
260.640470
  0
ARC
  8
CSLAYER1
  6
CONTINUOUS
 62
     5
 10
4160.234096
 20
133.757214
 40
44.811916
 50
274.579659
 51
305.587364
  0
ARC
  8
CSLAYER1
  6
CONTINUOUS
 62
     5
 10
4176.692620
 20
124.781631
 40
22.632940
 50
313.467013
 51
331.085078
  0
LINE
  8
CSLAYER1
  6
CONTINUOUS
 62
     5
 10
4198.879618
 20
119.108501
 11
4199.325560
 21
124.781631
  0
LINE
  8
CSLAYER1
  6
CONTINUOUS
 62
     5
 10
4199.325560
 20
124.781631
 11
4197.387563
 21
133.945105
  0
LINE
  8
CSLAYER1
  6
CONTINUOUS
 62
     5
 10
4198.879618
 20
119.108501
 11
4196.504106
 21
113.838369
  0
ARC
  8
CSLAYER1
  6
CONTINUOUS
 62
     5
 10
4176.692620
 20
124.781631
 40
22.632940
 50
23.883193
 51
36.225170
  0
LINE
  8
CSLAYER1
  6
CONTINUOUS
 62
     5
 10
4117.312106
 20
166.338369
 11
4118.812106
 21
167.977336
  0
LINE
  8
CSLAYER1
  6
CONTINUOUS
 62
     5
 10
4117.312106
 20
166.338369
 11
4119.677543
 21
164.170820
  0
LINE
  8
CSLAYER1
  6
CONTINUOUS
 62
     5
 10
4121.986362
 20
161.006882
 11
4122.025764
 21
157.754704
  0
LINE
  8
CSLAYER1
  6
CONTINUOUS
 62
     5
 10
4122.025764
 20
157.754704
 11
4122.336861
 21
156.614015
  0
LINE
  8
CSLAYER1
  6
CONTINUOUS
 62
     5
 10
4122.336861
 20
156.614015
 11
4123.218303
 21
155.525175
  0
LINE
  8
CSLAYER1
  6
CONTINUOUS
 62
     5
 10
4123.218303
 20
155.525175
 11
4124.099744
 21
155.628874
  0
LINE
  8
CSLAYER1
  6
CONTINUOUS
 62
     5
 10
4124.099744
 20
155.628874
 11
4125.033035
 21
155.888122
  0
LINE
  8
CSLAYER1
  6
CONTINUOUS
 62
     5
 10
4125.033035
 20
155.888122
 11
4125.655229
 21
155.628874
  0
LINE
  8
CSLAYER1
  6
CONTINUOUS
 62
     5
 10
4125.655229
 20
155.628874
 11
4127.003316
 21
154.954831
  0
LINE
  8
CSLAYER1
  6
CONTINUOUS
 62
     5
 10
4127.003316
 20
154.954831
 11
4128.167393
 21
154.338369
  0
LINE
  8
CSLAYER1
  6
CONTINUOUS
 62
     5
 10
4128.167393
 20
154.338369
 11
4128.921747
 21
154.384486
  0
LINE
  8
CSLAYER1
  6
CONTINUOUS
 62
     5
 10
4128.921747
 20
154.384486
 11
4133.133555
 21
156.554206
  0
LINE
  8
CSLAYER1
  6
CONTINUOUS
 62
     5
 10
4118.812106
 20
167.977336
 11
4119.311384
 21
170.187897
  0
LINE
  8
CSLAYER1
  6
CONTINUOUS
 62
     5
 10
4119.311384
 20
170.187897
 11
4121.491492
 21
170.413425
  0
LINE
  8
CSLAYER1
  6
CONTINUOUS
 62
     5
 10
4123.732129
 20
174.566113
 11
4126.363389
 21
174.801748
  0
LINE
  8
CSLAYER1
  6
CONTINUOUS
 62
     5
 10
4126.363389
 20
174.801748
 11
4131.665180
 21
176.058469
  0
LINE
  8
CSLAYER1
  6
CONTINUOUS
 62
     5
 10
4131.665180
 20
176.058469
 11
4133.812106
 21
176.555928
  0
LINE
  8
CSLAYER1
  6
CONTINUOUS
 62
     5
 10
4123.732129
 20
174.566113
 11
4120.832793
 21
174.804415
  0
LINE
  8
CSLAYER1
  6
CONTINUOUS
 62
     5
 10
4119.728608
 20
173.501384
 11
4119.868896
 21
172.944642
  0
LINE
  8
CSLAYER1
  6
CONTINUOUS
 62
     5
 10
4119.868896
 20
172.944642
 11
4120.606287
 21
172.138120
  0
LINE
  8
CSLAYER1
  6
CONTINUOUS
 62
     5
 10
4120.606287
 20
172.138120
 11
4121.620200
 21
171.377686
  0
LINE
  8
CSLAYER1
  6
CONTINUOUS
 62
     5
 10
4121.620200
 20
171.377686
 11
4121.805187
 21
171.131036
  0
LINE
  8
CSLAYER1
  6
CONTINUOUS
 62
     5
 10
4119.677543
 20
164.170820
 11
4121.986362
 21
161.006882
  0
ARC
  8
CSLAYER1
  6
CONTINUOUS
 62
     5
 10
4186.292157
 20
-91.149610
 40
271.091195
 50
80.438896
 51
96.353582
  0
ARC
  8
CSLAYER1
  6
CONTINUOUS
 62
     5
 10
4148.943787
 20
126.722240
 40
52.080363
 50
81.866516
 51
106.890578
  0
LINE
  8
CSLAYER1
  6
CONTINUOUS
 62
     5
 10
4237.603498
 20
174.988375
 11
4240.974122
 21
173.456273
  0
LINE
  8
CSLAYER1
  6
CONTINUOUS
 62
     5
 10
4246.336478
 20
171.081515
 11
4240.974122
 21
173.456273
  0
LINE
  8
CSLAYER1
  6
CONTINUOUS
 62
     5
 10
4237.603498
 20
174.988375
 11
4231.312106
 21
176.177232
  0
LINE
  8
CSLAYER1
  6
CONTINUOUS
 62
     5
 10
4246.312106
 20
171.092308
 11
4249.119469
 21
168.739593
  0
LINE
  8
CSLAYER1
  6
CONTINUOUS
 62
     5
 10
4221.176990
 20
172.647585
 11
4222.525902
 21
174.826597
  0
LINE
  8
CSLAYER1
  6
CONTINUOUS
 62
     5
 10
4222.525902
 20
174.826597
 11
4229.539300
 21
173.147333
  0
LINE
  8
CSLAYER1
  6
CONTINUOUS
 62
     5
 10
4229.539300
 20
173.147333
 11
4254.652879
 21
166.338369
  0
LINE
  8
CSLAYER1
  6
CONTINUOUS
 62
     5
 10
4259.062106
 20
166.338369
 11
4249.119469
 21
168.739593
  0
LINE
  8
CSLAYER1
  6
CONTINUOUS
 62
     5
 10
4254.652879
 20
166.338369
 11
4259.062106
 21
166.338369
  0
LINE
  8
CSLAYER1
  6
CONTINUOUS
 62
     5
 10
4171.312106
 20
173.035781
 11
4201.312106
 21
173.838369
  0
LINE
  8
CSLAYER1
  6
CONTINUOUS
 62
     5
 10
4201.312106
 20
173.838369
 11
4221.176990
 21
172.647585
  0
LINE
  8
CSLAYER1
  6
CONTINUOUS
 62
     5
 10
4223.581462
 20
169.556865
 11
4201.312106
 21
171.588369
  0
LINE
  8
CSLAYER1
  6
CONTINUOUS
 62
     5
 10
4201.312106
 20
171.588369
 11
4178.738292
 21
172.201347
  0
LINE
  8
CSLAYER1
  6
CONTINUOUS
 62
     5
 10
4178.812106
 20
172.199343
 11
4171.312106
 21
172.342284
  0
LINE
  8
CSLAYER1
  6
CONTINUOUS
 62
     5
 10
4171.312106
 20
173.035781
 11
4171.312106
 21
172.342284
  0
LINE
  8
CSLAYER1
  6
CONTINUOUS
 62
     5
 10
4257.562106
 20
161.088369
 11
4244.298268
 21
164.554363
  0
LINE
  8
CSLAYER1
  6
CONTINUOUS
 62
     5
 10
4223.581462
 20
169.556865
 11
4238.812106
 21
166.598290
  0
LINE
  8
CSLAYER1
  6
CONTINUOUS
 62
     5
 10
4238.812106
 20
166.598290
 11
4244.298268
 21
164.554363
  0
LINE
  8
CSLAYER1
  6
CONTINUOUS
 62
     5
 10
4257.562106
 20
161.088369
 11
4257.123180
 21
159.829711
  0
LINE
  8
CSLAYER1
  6
CONTINUOUS
 62
     5
 10
4271.812106
 20
152.838369
 11
4271.353065
 21
154.681841
  0
LINE
  8
CSLAYER1
  6
CONTINUOUS
 62
     5
 10
4257.123180
 20
159.829711
 11
4271.353065
 21
154.681841
  0
LINE
  8
CSLAYER1
  6
CONTINUOUS
 62
     5
 10
4176.562106
 20
161.088369
 11
4180.196663
 21
161.088369
  0
LINE
  8
CSLAYER1
  6
CONTINUOUS
 62
     5
 10
4210.312106
 20
161.737113
 11
4210.312106
 21
161.088369
  0
LINE
  8
CSLAYER1
  6
CONTINUOUS
 62
     5
 10
4208.812106
 20
162.538774
 11
4206.245187
 21
163.494542
  0
LINE
  8
CSLAYER1
  6
CONTINUOUS
 62
     5
 10
4206.245187
 20
163.494542
 11
4204.580103
 21
163.570227
  0
LINE
  8
CSLAYER1
  6
CONTINUOUS
 62
     5
 10
4204.580103
 20
163.570227
 11
4203.861090
 21
163.191799
  0
LINE
  8
CSLAYER1
  6
CONTINUOUS
 62
     5
 10
4203.861090
 20
163.191799
 11
4203.709718
 21
162.586314
  0
LINE
  8
CSLAYER1
  6
CONTINUOUS
 62
     5
 10
4203.709718
 20
162.586314
 11
4204.390889
 21
162.132200
  0
LINE
  8
CSLAYER1
  6
CONTINUOUS
 62
     5
 10
4204.390889
 20
162.132200
 11
4206.850672
 21
161.905143
  0
LINE
  8
CSLAYER1
  6
CONTINUOUS
 62
     5
 10
4206.850672
 20
161.905143
 11
4210.312106
 21
161.737113
  0
LINE
  8
CSLAYER1
  6
CONTINUOUS
 62
     5
 10
4271.812106
 20
152.838369
 11
4267.348792
 21
154.618242
  0
LINE
  8
CSLAYER1
  6
CONTINUOUS
 62
     5
 10
4267.348792
 20
154.618242
 11
4252.265258
 21
157.382555
  0
LINE
  8
CSLAYER1
  6
CONTINUOUS
 62
     5
 10
4252.265258
 20
157.382555
 11
4244.726588
 21
159.122248
  0
LINE
  8
CSLAYER1
  6
CONTINUOUS
 62
     5
 10
4211.113437
 20
162.588369
 11
4228.761936
 21
162.588369
  0
LINE
  8
CSLAYER1
  6
CONTINUOUS
 62
     5
 10
4208.812106
 20
162.538774
 11
4209.599096
 21
162.076073
  0
LINE
  8
CSLAYER1
  6
CONTINUOUS
 62
     5
 10
4209.599096
 20
162.076073
 11
4210.044314
 21
161.942508
  0
LINE
  8
CSLAYER1
  6
CONTINUOUS
 62
     5
 10
4210.044314
 20
161.942508
 11
4210.312106
 21
161.980263
  0
LINE
  8
CSLAYER1
  6
CONTINUOUS
 62
     5
 10
4210.312106
 20
161.980263
 11
4211.113437
 21
162.588369
  0
LINE
  8
CSLAYER1
  6
CONTINUOUS
 62
     5
 10
4228.761936
 20
162.588369
 11
4235.437340
 21
161.045131
  0
LINE
  8
CSLAYER1
  6
CONTINUOUS
 62
     5
 10
4235.437340
 20
161.045131
 11
4241.667127
 21
159.297408
  0
LINE
  8
CSLAYER1
  6
CONTINUOUS
 62
     5
 10
4241.667127
 20
159.297408
 11
4244.726588
 21
159.122248
  0
LINE
  8
CSLAYER1
  6
CONTINUOUS
 62
     5
 10
4175.062106
 20
159.588369
 11
4175.062106
 21
158.838369
  0
LINE
  8
CSLAYER1
  6
CONTINUOUS
 62
     5
 10
4171.312106
 20
158.838369
 11
4175.062106
 21
158.838369
  0
ARC
  8
CSLAYER1
  6
CONTINUOUS
 62
     5
 10
4176.562106
 20
159.588369
 40
1.500000
 50
90.000000
 51
180.000000
  0
LINE
  8
CSLAYER1
  6
CONTINUOUS
 62
     5
 10
4180.196663
 20
161.088369
 11
4181.242998
 21
160.230375
  0
LINE
  8
CSLAYER1
  6
CONTINUOUS
 62
     5
 10
4182.146550
 20
160.194434
 11
4183.432945
 21
161.088369
  0
LINE
  8
CSLAYER1
  6
CONTINUOUS
 62
     5
 10
4185.800540
 20
161.088369
 11
4188.301228
 21
160.101256
  0
LINE
  8
CSLAYER1
  6
CONTINUOUS
 62
     5
 10
4188.936791
 20
160.141024
 11
4190.667022
 21
161.088369
  0
LINE
  8
CSLAYER1
  6
CONTINUOUS
 62
     5
 10
4183.432945
 20
161.088369
 11
4185.800540
 21
161.088369
  0
LINE
  8
CSLAYER1
  6
CONTINUOUS
 62
     5
 10
4190.667022
 20
161.088369
 11
4210.312106
 21
161.088369
  0
LINE
  8
CSLAYER1
  6
CONTINUOUS
 62
     5
 10
4139.135581
 20
156.425130
 11
4171.312106
 21
158.838369
  0
LINE
  8
CSLAYER1
  6
CONTINUOUS
 62
     5
 10
4133.133555
 20
156.554206
 11
4139.135581
 21
156.425130
  0
ARC
  8
CSLAYER1
  6
CONTINUOUS
 62
     5
 10
4181.718558
 20
160.810325
 40
0.750000
 50
230.648247
 51
304.796026
  0
ARC
  8
CSLAYER1
  6
CONTINUOUS
 62
     5
 10
4188.576603
 20
160.798872
 40
0.750000
 50
248.459024
 51
298.701829
  0
ARC
  8
CSLAYER1
  6
CONTINUOUS
 62
     5
 10
4121.445187
 20
170.861036
 40
0.450000
 50
-84.093859
 51
36.869898
  0
ARC
  8
CSLAYER1
  6
CONTINUOUS
 62
     5
 10
4120.746781
 20
173.757944
 40
1.050000
 50
85.301319
 51
194.142980
  0
LINE
  8
CSLAYER1
  6
CONTINUOUS
 62
     3
 10
4169.034843
 20
147.938103
 11
4181.200586
 21
147.938103
  0
LINE
  8
CSLAYER1
  6
CONTINUOUS
 62
     3
 10
4159.416068
 20
145.538103
 11
4185.881079
 21
145.538103
  0
LINE
  8
CSLAYER1
  6
CONTINUOUS
 62
     3
 10
4154.296660
 20
143.138103
 11
4190.194126
 21
143.138103
  0
LINE
  8
CSLAYER1
  6
CONTINUOUS
 62
     3
 10
4150.943680
 20
140.738103
 11
4192.959335
 21
140.738103
  0
LINE
  8
CSLAYER1
  6
CONTINUOUS
 62
     3
 10
4148.700197
 20
138.338103
 11
4194.810764
 21
138.338103
  0
LINE
  8
CSLAYER1
  6
CONTINUOUS
 62
     3
 10
4146.869725
 20
135.938103
 11
4196.384829
 21
135.938103
  0
LINE
  8
CSLAYER1
  6
CONTINUOUS
 62
     3
 10
4145.831887
 20
133.538103
 11
4197.473641
 21
133.538103
  0
LINE
  8
CSLAYER1
  6
CONTINUOUS
 62
     3
 10
4144.794049
 20
131.138103
 11
4197.981220
 21
131.138103
  0
LINE
  8
CSLAYER1
  6
CONTINUOUS
 62
     3
 10
4143.821524
 20
128.738103
 11
4198.488800
 21
128.738103
  0
LINE
  8
CSLAYER1
  6
CONTINUOUS
 62
     3
 10
4143.339036
 20
126.338103
 11
4198.996379
 21
126.338103
  0
LINE
  8
CSLAYER1
  6
CONTINUOUS
 62
     3
 10
4142.856547
 20
123.938103
 11
4166.241912
 21
123.938103
  0
LINE
  8
CSLAYER1
  6
CONTINUOUS
 62
     3
 10
4142.374059
 20
121.538103
 11
4163.943521
 21
121.538103
  0
LINE
  8
CSLAYER1
  6
CONTINUOUS
 62
     3
 10
4141.891571
 20
119.138103
 11
4162.761266
 21
119.138103
  0
LINE
  8
CSLAYER1
  6
CONTINUOUS
 62
     3
 10
4141.529894
 20
116.738103
 11
4162.283115
 21
116.738103
  0
LINE
  8
CSLAYER1
  6
CONTINUOUS
 62
     3
 10
4141.349639
 20
114.338103
 11
4162.358146
 21
114.338103
  0
LINE
  8
CSLAYER1
  6
CONTINUOUS
 62
     3
 10
4141.312106
 20
111.938103
 11
4163.177277
 21
111.938103
  0
LINE
  8
CSLAYER1
  6
CONTINUOUS
 62
     3
 10
4142.060888
 20
109.538103
 11
4166.222280
 21
109.538103
  0
LINE
  8
CSLAYER1
  6
CONTINUOUS
 62
     3
 10
4143.127555
 20
107.138103
 11
4191.919338
 21
107.138103
  0
LINE
  8
CSLAYER1
  6
CONTINUOUS
 62
     3
 10
4144.194221
 20
104.738103
 11
4191.242415
 21
104.738103
  0
LINE
  8
CSLAYER1
  6
CONTINUOUS
 62
     3
 10
4145.260888
 20
102.338103
 11
4190.157878
 21
102.338103
  0
LINE
  8
CSLAYER1
  6
CONTINUOUS
 62
     3
 10
4146.703826
 20
99.938103
 11
4188.810599
 21
99.938103
  0
LINE
  8
CSLAYER1
  6
CONTINUOUS
 62
     3
 10
4148.576518
 20
97.538103
 11
4186.553209
 21
97.538103
  0
LINE
  8
CSLAYER1
  6
CONTINUOUS
 62
     3
 10
4150.984648
 20
95.138103
 11
4182.964518
 21
95.138103
  0
LINE
  8
CSLAYER1
  6
CONTINUOUS
 62
     3
 10
4154.205361
 20
92.738103
 11
4178.276833
 21
92.738103
  0
LINE
  8
CSLAYER1
  6
CONTINUOUS
 62
     3
 10
4159.076897
 20
90.338103
 11
4171.319610
 21
90.338103
  0
LINE
  8
CSLAYER1
  6
CONTINUOUS
 62
     3
 10
4174.029648
 20
123.938103
 11
4199.259253
 21
123.938103
  0
LINE
  8
CSLAYER1
  6
CONTINUOUS
 62
     3
 10
4175.035764
 20
121.538103
 11
4199.070599
 21
121.538103
  0
LINE
  8
CSLAYER1
  6
CONTINUOUS
 62
     3
 10
4175.203774
 20
119.138103
 11
4198.881945
 21
119.138103
  0
LINE
  8
CSLAYER1
  6
CONTINUOUS
 62
     3
 10
4174.835739
 20
116.738103
 11
4197.811161
 21
116.738103
  0
LINE
  8
CSLAYER1
  6
CONTINUOUS
 62
     3
 10
4173.858270
 20
114.338103
 11
4196.729361
 21
114.338103
  0
LINE
  8
CSLAYER1
  6
CONTINUOUS
 62
     3
 10
4172.158375
 20
111.938103
 11
4195.328439
 21
111.938103
  0
LINE
  8
CSLAYER1
  6
CONTINUOUS
 62
     3
 10
4168.774380
 20
109.538103
 11
4193.422378
 21
109.538103
  0
TEXT
  8
CSLAYER1
 62
     5
 10
4200.069867
 20
120.954866
 40
7.070172
 41
1.951056
  1
M
 50
0.000000
 51
0.000000
  7
EASYDRAW_FONT
 72
     5
 11
4209.266070
 21
120.954866
  0
TEXT
  8
CSLAYER1
 62
     5
 10
4214.546948
 20
120.867460
 40
6.939931
 41
0.778201
  1
T
 50
0.000000
 51
0.000000
  7
EASYDRAW_FONT
 72
     5
 11
4218.147388
 21
120.867460
  0
TEXT
  8
CSLAYER1
 62
     5
 10
4218.695292
 20
120.919658
 40
7.044274
 41
1.055553
  1
E
 50
0.000000
 51
0.000000
  7
EASYDRAW_FONT
 72
     5
 11
4223.652364
 21
120.919658
  0
TEXT
  8
CSLAYER1
 62
     5
 10
4223.369808
 20
123.343425
 40
0.522425
 41
9.375319
  1
-
 50
0.000000
 51
0.000000
  7
EASYDRAW_FONT
 72
     5
 11
4226.635075
 21
123.343425
  0
TEXT
  8
CSLAYER1
 62
     5
 10
4226.090633
 20
120.872638
 40
7.292489
 41
1.298502
  1
H
 50
0.000000
 51
0.000000
  7
EASYDRAW_FONT
 72
     5
 11
4232.403507
 21
120.872638
  0
TEXT
  8
CSLAYER1
 62
     5
 10
4232.204778
 20
120.918206
 40
7.264708
 41
1.269236
  1
A
 50
0.000000
 51
0.000000
  7
EASYDRAW_FONT
 72
     5
 11
4238.351862
 21
120.918206
  0
TEXT
  8
CSLAYER1
 62
     5
 10
4237.764134
 20
120.855916
 40
7.238043
 41
1.490144
  1
N
 50
0.000000
 51
0.000000
  7
EASYDRAW_FONT
 72
     5
 11
4244.954616
 21
120.855916
  0
TEXT
  8
CSLAYER1
 62
     5
 10
4208.951077
 20
120.822056
 40
7.473487
 41
1.177443
  1
A
 50
0.000000
 51
0.000000
  7
EASYDRAW_FONT
 72
     5
 11
4214.817478
 21
120.822056
  0
TEXT
  8
CSLAYER1
 62
     5
 10
4200.620022
 20
110.329197
 40
7.473487
 41
1.177443
  1
A
 50
0.000000
 51
0.000000
  7
EASYDRAW_FONT
 72
     5
 11
4206.486423
 21
110.329197
  0
TEXT
  8
CSLAYER1
 62
     5
 10
4219.797268
 20
110.371678
 40
7.473487
 41
1.177443
  1
A
 50
0.000000
 51
0.000000
  7
EASYDRAW_FONT
 72
     5
 11
4225.663670
 21
110.371678
  0
TEXT
  8
CSLAYER1
 62
     5
 10
4225.437962
 20
110.457173
 40
7.238043
 41
1.490144
  1
N
 50
0.000000
 51
0.000000
  7
EASYDRAW_FONT
 72
     5
 11
4232.628444
 21
110.457173
  0
TEXT
  8
CSLAYER1
 62
     5
 10
4238.791344
 20
110.469766
 40
7.262663
 41
1.184218
  1
E
 50
0.000000
 51
0.000000
  7
EASYDRAW_FONT
 72
     5
 11
4244.525062
 21
110.469766
  0
TEXT
  8
CSLAYER1
 62
     5
 10
4207.041096
 20
110.327210
 40
7.421797
 41
1.093992
  1
D
 50
0.000000
 51
0.000000
  7
EASYDRAW_FONT
 72
     5
 11
4212.454021
 21
110.327210
  0
TEXT
  8
CSLAYER1
 62
     5
 10
4213.645000
 20
110.319133
 40
7.386315
 41
1.228195
  1
V
 50
0.000000
 51
0.000000
  7
EASYDRAW_FONT
 72
     5
 11
4219.692891
 21
110.319133
  0
TEXT
  8
CSLAYER1
 62
     5
 10
4231.982558
 20
110.350231
 40
7.549340
 41
1.481023
  1
C
 50
0.000000
 51
0.000000
  7
EASYDRAW_FONT
 72
     5
 11
4239.436388
 21
110.350231
  0
LINE
  8
CSLAYER1
  6
CONTINUOUS
 62
     5
 10
4217.928111
 20
126.940827
 11
4216.410018
 21
126.940827
  0
LINE
  8
CSLAYER1
  6
CONTINUOUS
 62
     3
 10
4141.575468
 20
178.278734
 11
4216.272208
 21
178.278734
  0
LINE
  8
CSLAYER1
  6
CONTINUOUS
 62
     3
 10
4130.906922
 20
175.878734
 11
4232.891745
 21
175.878734
  0
LINE
  8
CSLAYER1
  6
CONTINUOUS
 62
     3
 10
4119.734315
 20
173.478734
 11
4187.869281
 21
173.478734
  0
LINE
  8
CSLAYER1
  6
CONTINUOUS
 62
     3
 10
4207.311605
 20
173.478734
 11
4221.691511
 21
173.478734
  0
LINE
  8
CSLAYER1
  6
CONTINUOUS
 62
     3
 10
4228.155211
 20
173.478734
 11
4240.924707
 21
173.478734
  0
LINE
  8
CSLAYER1
  6
CONTINUOUS
 62
     3
 10
4121.839024
 20
171.078734
 11
4206.898728
 21
171.078734
  0
LINE
  8
CSLAYER1
  6
CONTINUOUS
 62
     3
 10
4237.168936
 20
171.078734
 11
4246.328303
 21
171.078734
  0
LINE
  8
CSLAYER1
  6
CONTINUOUS
 62
     3
 10
4118.970524
 20
168.678734
 11
4228.102050
 21
168.678734
  0
LINE
  8
CSLAYER1
  6
CONTINUOUS
 62
     3
 10
4246.020884
 20
168.678734
 11
4249.371466
 21
168.678734
  0
LINE
  8
CSLAYER1
  6
CONTINUOUS
 62
     3
 10
4117.377186
 20
166.278734
 11
4239.669834
 21
166.278734
  0
LINE
  8
CSLAYER1
  6
CONTINUOUS
 62
     3
 10
4119.890686
 20
163.878734
 11
4246.883797
 21
163.878734
  0
LINE
  8
CSLAYER1
  6
CONTINUOUS
 62
     3
 10
4121.642038
 20
161.478734
 11
4210.312106
 21
161.478734
  0
LINE
  8
CSLAYER1
  6
CONTINUOUS
 62
     3
 10
4233.561753
 20
161.478734
 11
4256.068238
 21
161.478734
  0
LINE
  8
CSLAYER1
  6
CONTINUOUS
 62
     3
 10
4122.009723
 20
159.078734
 11
4175.062106
 21
159.078734
  0
LINE
  8
CSLAYER1
  6
CONTINUOUS
 62
     3
 10
4244.915147
 20
159.078734
 11
4259.199051
 21
159.078734
  0
LINE
  8
CSLAYER1
  6
CONTINUOUS
 62
     3
 10
4122.319210
 20
156.678734
 11
4142.516971
 21
156.678734
  0
LINE
  8
CSLAYER1
  6
CONTINUOUS
 62
     3
 10
4256.105670
 20
156.678734
 11
4265.833197
 21
156.678734
  0
LINE
  8
CSLAYER1
  6
CONTINUOUS
 62
     3
 10
4268.200161
 20
154.278734
 11
4271.453442
 21
154.278734
  0
ENDBLK
  8
0
  0
BLOCK
  8
CSLAYER1
  2
BLKF0001
 70
   64
 10
0.0
 20
0.0
 30
0.0
  0
LINE
  8
CSLAYER1
  6
CONTINUOUS
 62
     3
 10
1252.432911
 20
1031.047888
 11
1252.432911
 21
1022.047888
  0
LINE
  8
CSLAYER1
  6
CONTINUOUS
 62
     3
 10
1253.432911
 20
1043.047888
 11
1253.432911
 21
1019.047888
  0
LINE
  8
CSLAYER1
  6
CONTINUOUS
 62
     3
 10
1269.432911
 20
1036.247888
 11
1269.432911
 21
1025.847888
  0
LINE
  8
CSLAYER1
  6
CONTINUOUS
 62
     3
 10
1253.432911
 20
1023.047888
 11
1252.432911
 21
1022.047888
  0
LINE
  8
CSLAYER1
  6
CONTINUOUS
 62
     3
 10
1255.732911
 20
1043.047888
 11
1255.732911
 21
1019.047888
  0
LINE
  8
CSLAYER1
  6
CONTINUOUS
 62
     3
 10
1253.432911
 20
1019.047888
 11
1255.732911
 21
1019.047888
  0
LINE
  8
CSLAYER1
  6
CONTINUOUS
 62
     3
 10
1258.732911
 20
1042.017543
 11
1258.732911
 21
1020.078233
  0
LINE
  8
CSLAYER1
  6
CONTINUOUS
 62
     3
 10
1255.732911
 20
1020.297888
 11
1258.732911
 21
1020.297888
  0
LINE
  8
CSLAYER1
  6
CONTINUOUS
 62
     3
 10
1268.732911
 20
1031.047888
 11
1268.732911
 21
1021.547888
  0
LINE
  8
CSLAYER1
  6
CONTINUOUS
 62
     3
 10
1267.884405
 20
1020.078233
 11
1258.732911
 21
1020.078233
  0
LINE
  8
CSLAYER1
  6
CONTINUOUS
 62
     3
 10
1267.884405
 20
1025.563061
 11
1258.732911
 21
1025.563061
  0
LINE
  8
CSLAYER1
  6
CONTINUOUS
 62
     3
 10
1268.732911
 20
1021.547888
 11
1267.884405
 21
1020.078233
  0
ARC
  8
CSLAYER1
  6
CONTINUOUS
 62
     3
 10
1250.581417
 20
1031.047888
 40
18.151494
 50
-17.587954
 51
0.000000
  0
ARC
  8
CSLAYER1
  6
CONTINUOUS
 62
     3
 10
1263.879656
 20
1022.820647
 40
4.853746
 50
-25.597034
 51
34.402966
  0
LINE
  8
CSLAYER1
  6
CONTINUOUS
 62
     3
 10
1268.732911
 20
1031.047888
 11
1268.732911
 21
1040.547888
  0
LINE
  8
CSLAYER1
  6
CONTINUOUS
 62
     3
 10
1267.884405
 20
1042.017543
 11
1258.732911
 21
1042.017543
  0
LINE
  8
CSLAYER1
  6
CONTINUOUS
 62
     3
 10
1267.884405
 20
1036.532716
 11
1258.732911
 21
1036.532716
  0
LINE
  8
CSLAYER1
  6
CONTINUOUS
 62
     3
 10
1268.732911
 20
1040.547888
 11
1267.884405
 21
1042.017543
  0
ARC
  8
CSLAYER1
  6
CONTINUOUS
 62
     3
 10
1250.581417
 20
1031.047888
 40
18.151494
 50
-0.000000
 51
17.587954
  0
ARC
  8
CSLAYER1
  6
CONTINUOUS
 62
     3
 10
1263.879656
 20
1039.275130
 40
4.853746
 50
-34.402966
 51
25.597034
  0
LINE
  8
CSLAYER1
  6
CONTINUOUS
 62
     3
 10
1252.432911
 20
1031.047888
 11
1252.432911
 21
1040.047888
  0
LINE
  8
CSLAYER1
  6
CONTINUOUS
 62
     3
 10
1253.432911
 20
1039.047888
 11
1252.432911
 21
1040.047888
  0
LINE
  8
CSLAYER1
  6
CONTINUOUS
 62
     3
 10
1253.432911
 20
1043.047888
 11
1255.732911
 21
1043.047888
  0
LINE
  8
CSLAYER1
  6
CONTINUOUS
 62
     3
 10
1255.732911
 20
1041.797888
 11
1258.732911
 21
1041.797888
  0
LINE
  8
CSLAYER1
  6
CONTINUOUS
 62
     3
 10
1268.732911
 20
1025.847888
 11
1269.432911
 21
1025.847888
  0
LINE
  8
CSLAYER1
  6
CONTINUOUS
 62
     3
 10
1269.432911
 20
1025.847888
 11
1268.732911
 21
1025.047888
  0
LINE
  8
CSLAYER1
  6
CONTINUOUS
 62
     3
 10
1268.732911
 20
1036.247888
 11
1269.432911
 21
1036.247888
  0
LINE
  8
CSLAYER1
  6
CONTINUOUS
 62
     3
 10
1269.432911
 20
1036.247888
 11
1268.732911
 21
1037.047888
  0
POINT
  8
CSLAYER1
 62
     3
 10
1252.432911
 20
1031.047888
  0
ENDBLK
  8
0
  0
BLOCK
  8
CSLAYER1
  2
BLKF0002
 70
   64
 10
0.0
 20
0.0
 30
0.0
  0
LINE
  8
CSLAYER1
  6
CONTINUOUS
 62
     3
 10
1252.432911
 20
1624.877544
 11
1252.432911
 21
1615.877544
  0
LINE
  8
CSLAYER1
  6
CONTINUOUS
 62
     3
 10
1253.432911
 20
1636.877544
 11
1253.432911
 21
1612.877544
  0
LINE
  8
CSLAYER1
  6
CONTINUOUS
 62
     3
 10
1269.432911
 20
1630.077544
 11
1269.432911
 21
1619.677544
  0
LINE
  8
CSLAYER1
  6
CONTINUOUS
 62
     3
 10
1253.432911
 20
1616.877544
 11
1252.432911
 21
1615.877544
  0
LINE
  8
CSLAYER1
  6
CONTINUOUS
 62
     3
 10
1255.732911
 20
1636.877544
 11
1255.732911
 21
1612.877544
  0
LINE
  8
CSLAYER1
  6
CONTINUOUS
 62
     3
 10
1253.432911
 20
1612.877544
 11
1255.732911
 21
1612.877544
  0
LINE
  8
CSLAYER1
  6
CONTINUOUS
 62
     3
 10
1258.732911
 20
1635.847199
 11
1258.732911
 21
1613.907889
  0
LINE
  8
CSLAYER1
  6
CONTINUOUS
 62
     3
 10
1255.732911
 20
1614.127544
 11
1258.732911
 21
1614.127544
  0
LINE
  8
CSLAYER1
  6
CONTINUOUS
 62
     3
 10
1268.732911
 20
1624.877544
 11
1268.732911
 21
1615.377544
  0
LINE
  8
CSLAYER1
  6
CONTINUOUS
 62
     3
 10
1267.884405
 20
1613.907889
 11
1258.732911
 21
1613.907889
  0
LINE
  8
CSLAYER1
  6
CONTINUOUS
 62
     3
 10
1267.884405
 20
1619.392716
 11
1258.732911
 21
1619.392716
  0
LINE
  8
CSLAYER1
  6
CONTINUOUS
 62
     3
 10
1268.732911
 20
1615.377544
 11
1267.884405
 21
1613.907889
  0
ARC
  8
CSLAYER1
  6
CONTINUOUS
 62
     3
 10
1250.581417
 20
1624.877544
 40
18.151494
 50
-17.587954
 51
0.000000
  0
ARC
  8
CSLAYER1
  6
CONTINUOUS
 62
     3
 10
1263.879656
 20
1616.650303
 40
4.853746
 50
-25.597034
 51
34.402966
  0
LINE
  8
CSLAYER1
  6
CONTINUOUS
 62
     3
 10
1268.732911
 20
1624.877544
 11
1268.732911
 21
1634.377544
  0
LINE
  8
CSLAYER1
  6
CONTINUOUS
 62
     3
 10
1267.884405
 20
1635.847199
 11
1258.732911
 21
1635.847199
  0
LINE
  8
CSLAYER1
  6
CONTINUOUS
 62
     3
 10
1267.884405
 20
1630.362372
 11
1258.732911
 21
1630.362372
  0
LINE
  8
CSLAYER1
  6
CONTINUOUS
 62
     3
 10
1268.732911
 20
1634.377544
 11
1267.884405
 21
1635.847199
  0
ARC
  8
CSLAYER1
  6
CONTINUOUS
 62
     3
 10
1250.581417
 20
1624.877544
 40
18.151494
 50
-0.000000
 51
17.587954
  0
ARC
  8
CSLAYER1
  6
CONTINUOUS
 62
     3
 10
1263.879656
 20
1633.104785
 40
4.853746
 50
-34.402966
 51
25.597034
  0
LINE
  8
CSLAYER1
  6
CONTINUOUS
 62
     3
 10
1252.432911
 20
1624.877544
 11
1252.432911
 21
1633.877544
  0
LINE
  8
CSLAYER1
  6
CONTINUOUS
 62
     3
 10
1253.432911
 20
1632.877544
 11
1252.432911
 21
1633.877544
  0
LINE
  8
CSLAYER1
  6
CONTINUOUS
 62
     3
 10
1253.432911
 20
1636.877544
 11
1255.732911
 21
1636.877544
  0
LINE
  8
CSLAYER1
  6
CONTINUOUS
 62
     3
 10
1255.732911
 20
1635.627544
 11
1258.732911
 21
1635.627544
  0
LINE
  8
CSLAYER1
  6
CONTINUOUS
 62
     3
 10
1268.732911
 20
1619.677544
 11
1269.432911
 21
1619.677544
  0
LINE
  8
CSLAYER1
  6
CONTINUOUS
 62
     3
 10
1269.432911
 20
1619.677544
 11
1268.732911
 21
1618.877544
  0
LINE
  8
CSLAYER1
  6
CONTINUOUS
 62
     3
 10
1268.732911
 20
1630.077544
 11
1269.432911
 21
1630.077544
  0
LINE
  8
CSLAYER1
  6
CONTINUOUS
 62
     3
 10
1269.432911
 20
1630.077544
 11
1268.732911
 21
1630.877544
  0
POINT
  8
CSLAYER1
 62
     3
 10
1252.432911
 20
1624.877544
  0
ENDBLK
  8
0
  0
BLOCK
  8
CSLAYER1
  2
BLKF0003
 70
   64
 10
0.0
 20
0.0
 30
0.0
  0
LINE
  8
CSLAYER1
  6
CONTINUOUS
 62
     3
 10
1298.932911
 20
880.633060
 11
1317.932911
 21
880.633060
  0
LINE
  8
CSLAYER1
  6
CONTINUOUS
 62
     3
 10
1298.932911
 20
890.633060
 11
1317.932911
 21
890.633060
  0
LINE
  8
CSLAYER1
  6
CONTINUOUS
 62
     3
 10
1297.463256
 20
889.784555
 11
1297.463256
 21
881.481566
  0
LINE
  8
CSLAYER1
  6
CONTINUOUS
 62
     3
 10
1302.948083
 20
889.784555
 11
1302.948083
 21
881.481566
  0
LINE
  8
CSLAYER1
  6
CONTINUOUS
 62
     3
 10
1298.932911
 20
890.633060
 11
1297.463256
 21
889.784555
  0
ARC
  8
CSLAYER1
  6
CONTINUOUS
 62
     3
 10
1308.432911
 20
872.481566
 40
18.151494
 50
90.000000
 51
107.587954
  0
ARC
  8
CSLAYER1
  6
CONTINUOUS
 62
     3
 10
1300.205670
 20
885.790668
 40
4.844787
 50
55.524449
 51
115.524449
  0
LINE
  8
CSLAYER1
  6
CONTINUOUS
 62
     3
 10
1319.402566
 20
889.784555
 11
1319.402566
 21
881.481566
  0
LINE
  8
CSLAYER1
  6
CONTINUOUS
 62
     3
 10
1313.917738
 20
889.784555
 11
1313.917738
 21
881.481566
  0
LINE
  8
CSLAYER1
  6
CONTINUOUS
 62
     3
 10
1317.932911
 20
890.633060
 11
1319.402566
 21
889.784555
  0
ARC
  8
CSLAYER1
  6
CONTINUOUS
 62
     3
 10
1308.432911
 20
872.481566
 40
18.151494
 50
72.412046
 51
90.000000
  0
ARC
  8
CSLAYER1
  6
CONTINUOUS
 62
     3
 10
1316.660152
 20
885.790668
 40
4.844787
 50
64.475551
 51
124.475551
  0
LINE
  8
CSLAYER1
  6
CONTINUOUS
 62
     3
 10
1298.932911
 20
880.633060
 11
1317.932911
 21
880.633060
  0
LINE
  8
CSLAYER1
  6
CONTINUOUS
 62
     3
 10
1298.932911
 20
880.633060
 11
1297.463256
 21
881.481566
  0
ARC
  8
CSLAYER1
  6
CONTINUOUS
 62
     3
 10
1308.432911
 20
898.784555
 40
18.151494
 50
252.412046
 51
270.000000
  0
ARC
  8
CSLAYER1
  6
CONTINUOUS
 62
     3
 10
1300.205670
 20
885.475453
 40
4.844787
 50
244.475551
 51
304.475551
  0
LINE
  8
CSLAYER1
  6
CONTINUOUS
 62
     3
 10
1317.932911
 20
880.633060
 11
1319.402566
 21
881.481566
  0
ARC
  8
CSLAYER1
  6
CONTINUOUS
 62
     3
 10
1308.432911
 20
898.784555
 40
18.151494
 50
270.000000
 51
287.587954
  0
ARC
  8
CSLAYER1
  6
CONTINUOUS
 62
     3
 10
1316.660152
 20
885.475453
 40
4.844787
 50
235.524449
 51
295.524449
  0
POINT
  8
CSLAYER1
 62
     3
 10
1308.432911
 20
890.633060
  0
ENDBLK
  8
0
  0
BLOCK
  8
CSLAYER1
  2
BLKF0004
 70
   64
 10
0.0
 20
0.0
 30
0.0
  0
LINE
  8
CSLAYER1
  6
CONTINUOUS
 62
     3
 10
1239.932911
 20
1609.877544
 11
1242.932911
 21
1609.877544
  0
LINE
  8
CSLAYER1
  6
CONTINUOUS
 62
     3
 10
1239.932911
 20
1609.877544
 11
1239.932911
 21
1639.877544
  0
LINE
  8
CSLAYER1
  6
CONTINUOUS
 62
     3
 10
1242.932911
 20
1609.877544
 11
1242.932911
 21
1639.877544
  0
LINE
  8
CSLAYER1
  6
CONTINUOUS
 62
     3
 10
1239.932911
 20
1639.877544
 11
1242.932911
 21
1639.877544
  0
ENDBLK
  8
0
  0
BLOCK
  8
CSLAYER1
  2
BLKF0005
 70
   64
 10
0.0
 20
0.0
 30
0.0
  0
LINE
  8
CSLAYER1
  6
CONTINUOUS
 62
     3
 10
1239.932911
 20
1016.047888
 11
1242.932911
 21
1016.047888
  0
LINE
  8
CSLAYER1
  6
CONTINUOUS
 62
     3
 10
1239.932911
 20
1016.047888
 11
1239.932911
 21
1046.047888
  0
LINE
  8
CSLAYER1
  6
CONTINUOUS
 62
     3
 10
1242.932911
 20
1016.047888
 11
1242.932911
 21
1046.047888
  0
LINE
  8
CSLAYER1
  6
CONTINUOUS
 62
     3
 10
1239.932911
 20
1046.047888
 11
1242.932911
 21
1046.047888
  0
ENDBLK
  8
0
  0
BLOCK
  8
CSLAYER1
  2
BLKF0006
 70
   64
 10
0.0
 20
0.0
 30
0.0
  0
LINE
  8
CSLAYER1
  6
CONTINUOUS
 62
     3
 10
1239.932911
 20
1312.962716
 11
1242.932911
 21
1312.962716
  0
LINE
  8
CSLAYER1
  6
CONTINUOUS
 62
     3
 10
1239.932911
 20
1312.962716
 11
1239.932911
 21
1342.962716
  0
LINE
  8
CSLAYER1
  6
CONTINUOUS
 62
     3
 10
1242.932911
 20
1312.962716
 11
1242.932911
 21
1342.962716
  0
LINE
  8
CSLAYER1
  6
CONTINUOUS
 62
     3
 10
1239.932911
 20
1342.962716
 11
1242.932911
 21
1342.962716
  0
ENDBLK
  8
0
  0
BLOCK
  8
CSLAYER1
  2
BLKF0007
 70
   64
 10
0.0
 20
0.0
 30
0.0
  0
LINE
  8
CSLAYER1
  6
CONTINUOUS
 62
     4
 10
1165.432911
 20
1051.938565
 11
1165.432911
 21
1040.047888
  0
LINE
  8
CSLAYER1
  6
CONTINUOUS
 62
     4
 10
1176.432911
 20
1040.047888
 11
1176.432911
 21
1049.438565
  0
LINE
  8
CSLAYER1
  6
CONTINUOUS
 62
     4
 10
1182.432911
 20
1040.047888
 11
1182.432911
 21
1048.938565
  0
LINE
  8
CSLAYER1
  6
CONTINUOUS
 62
     4
 10
1181.432911
 20
1049.938565
 11
1176.932911
 21
1049.938565
  0
LINE
  8
CSLAYER1
  6
CONTINUOUS
 62
     4
 10
1182.432911
 20
1048.938565
 11
1181.432911
 21
1049.938565
  0
LINE
  8
CSLAYER1
  6
CONTINUOUS
 62
     4
 10
1176.932911
 20
1049.938565
 11
1176.432911
 21
1049.438565
  0
LINE
  8
CSLAYER1
  6
CONTINUOUS
 62
     4
 10
1181.432911
 20
1049.938565
 11
1181.432911
 21
1040.047888
  0
LINE
  8
CSLAYER1
  6
CONTINUOUS
 62
     4
 10
1176.932911
 20
1049.938565
 11
1176.932911
 21
1040.047888
  0
LINE
  8
CSLAYER1
  6
CONTINUOUS
 62
     4
 10
1176.432911
 20
1045.938565
 11
1175.432911
 21
1045.938565
  0
LINE
  8
CSLAYER1
  6
CONTINUOUS
 62
     4
 10
1166.432911
 20
1045.938565
 11
1165.432911
 21
1045.938565
  0
ENDBLK
  8
0
  0
BLOCK
  8
CSLAYER1
  2
BLKF0008
 70
   64
 10
0.0
 20
0.0
 30
0.0
  0
LINE
  8
CSLAYER1
  6
CONTINUOUS
 62
     3
 10
896.432911
 20
1031.047888
 11
896.432911
 21
1022.047888
  0
LINE
  8
CSLAYER1
  6
CONTINUOUS
 62
     3
 10
895.432911
 20
1043.047888
 11
895.432911
 21
1019.047888
  0
LINE
  8
CSLAYER1
  6
CONTINUOUS
 62
     3
 10
879.432911
 20
1036.247888
 11
879.432911
 21
1025.847888
  0
LINE
  8
CSLAYER1
  6
CONTINUOUS
 62
     3
 10
895.432911
 20
1023.047888
 11
896.432911
 21
1022.047888
  0
LINE
  8
CSLAYER1
  6
CONTINUOUS
 62
     3
 10
893.132911
 20
1043.047888
 11
893.132911
 21
1019.047888
  0
LINE
  8
CSLAYER1
  6
CONTINUOUS
 62
     3
 10
895.432911
 20
1019.047888
 11
893.132911
 21
1019.047888
  0
LINE
  8
CSLAYER1
  6
CONTINUOUS
 62
     3
 10
890.132911
 20
1042.017543
 11
890.132911
 21
1020.078233
  0
LINE
  8
CSLAYER1
  6
CONTINUOUS
 62
     3
 10
893.132911
 20
1020.297888
 11
890.132911
 21
1020.297888
  0
LINE
  8
CSLAYER1
  6
CONTINUOUS
 62
     3
 10
880.132911
 20
1031.047888
 11
880.132911
 21
1021.547888
  0
LINE
  8
CSLAYER1
  6
CONTINUOUS
 62
     3
 10
880.981417
 20
1020.078233
 11
890.132911
 21
1020.078233
  0
LINE
  8
CSLAYER1
  6
CONTINUOUS
 62
     3
 10
880.981417
 20
1025.563061
 11
890.132911
 21
1025.563061
  0
LINE
  8
CSLAYER1
  6
CONTINUOUS
 62
     3
 10
880.132911
 20
1021.547888
 11
880.981417
 21
1020.078233
  0
ARC
  8
CSLAYER1
  6
CONTINUOUS
 62
     3
 10
898.284405
 20
1031.047888
 40
18.151494
 50
180.000000
 51
197.587954
  0
ARC
  8
CSLAYER1
  6
CONTINUOUS
 62
     3
 10
884.986166
 20
1022.820647
 40
4.853746
 50
145.597034
 51
205.597034
  0
LINE
  8
CSLAYER1
  6
CONTINUOUS
 62
     3
 10
880.132911
 20
1031.047888
 11
880.132911
 21
1040.547888
  0
LINE
  8
CSLAYER1
  6
CONTINUOUS
 62
     3
 10
880.981417
 20
1042.017543
 11
890.132911
 21
1042.017543
  0
LINE
  8
CSLAYER1
  6
CONTINUOUS
 62
     3
 10
880.981417
 20
1036.532716
 11
890.132911
 21
1036.532716
  0
LINE
  8
CSLAYER1
  6
CONTINUOUS
 62
     3
 10
880.132911
 20
1040.547888
 11
880.981417
 21
1042.017543
  0
ARC
  8
CSLAYER1
  6
CONTINUOUS
 62
     3
 10
898.284405
 20
1031.047888
 40
18.151494
 50
162.412046
 51
180.000000
  0
ARC
  8
CSLAYER1
  6
CONTINUOUS
 62
     3
 10
884.986166
 20
1039.275130
 40
4.853746
 50
154.402966
 51
214.402966
  0
LINE
  8
CSLAYER1
  6
CONTINUOUS
 62
     3
 10
896.432911
 20
1031.047888
 11
896.432911
 21
1040.047888
  0
LINE
  8
CSLAYER1
  6
CONTINUOUS
 62
     3
 10
895.432911
 20
1039.047888
 11
896.432911
 21
1040.047888
  0
LINE
  8
CSLAYER1
  6
CONTINUOUS
 62
     3
 10
895.432911
 20
1043.047888
 11
893.132911
 21
1043.047888
  0
LINE
  8
CSLAYER1
  6
CONTINUOUS
 62
     3
 10
893.132911
 20
1041.797888
 11
890.132911
 21
1041.797888
  0
LINE
  8
CSLAYER1
  6
CONTINUOUS
 62
     3
 10
880.132911
 20
1025.847888
 11
879.432911
 21
1025.847888
  0
LINE
  8
CSLAYER1
  6
CONTINUOUS
 62
     3
 10
879.432911
 20
1025.847888
 11
880.132911
 21
1025.047888
  0
LINE
  8
CSLAYER1
  6
CONTINUOUS
 62
     3
 10
880.132911
 20
1036.247888
 11
879.432911
 21
1036.247888
  0
LINE
  8
CSLAYER1
  6
CONTINUOUS
 62
     3
 10
879.432911
 20
1036.247888
 11
880.132911
 21
1037.047888
  0
POINT
  8
CSLAYER1
 62
     3
 10
896.432911
 20
1031.047888
  0
ENDBLK
  8
0
  0
BLOCK
  8
CSLAYER1
  2
BLKF0009
 70
   64
 10
0.0
 20
0.0
 30
0.0
  0
LINE
  8
CSLAYER1
  6
CONTINUOUS
 62
     3
 10
896.432911
 20
1624.877544
 11
896.432911
 21
1615.877544
  0
LINE
  8
CSLAYER1
  6
CONTINUOUS
 62
     3
 10
895.432911
 20
1636.877544
 11
895.432911
 21
1612.877544
  0
LINE
  8
CSLAYER1
  6
CONTINUOUS
 62
     3
 10
879.432911
 20
1630.077544
 11
879.432911
 21
1619.677544
  0
LINE
  8
CSLAYER1
  6
CONTINUOUS
 62
     3
 10
895.432911
 20
1616.877544
 11
896.432911
 21
1615.877544
  0
LINE
  8
CSLAYER1
  6
CONTINUOUS
 62
     3
 10
893.132911
 20
1636.877544
 11
893.132911
 21
1612.877544
  0
LINE
  8
CSLAYER1
  6
CONTINUOUS
 62
     3
 10
895.432911
 20
1612.877544
 11
893.132911
 21
1612.877544
  0
LINE
  8
CSLAYER1
  6
CONTINUOUS
 62
     3
 10
890.132911
 20
1635.847199
 11
890.132911
 21
1613.907889
  0
LINE
  8
CSLAYER1
  6
CONTINUOUS
 62
     3
 10
893.132911
 20
1614.127544
 11
890.132911
 21
1614.127544
  0
LINE
  8
CSLAYER1
  6
CONTINUOUS
 62
     3
 10
880.132911
 20
1624.877544
 11
880.132911
 21
1615.377544
  0
LINE
  8
CSLAYER1
  6
CONTINUOUS
 62
     3
 10
880.981417
 20
1613.907889
 11
890.132911
 21
1613.907889
  0
LINE
  8
CSLAYER1
  6
CONTINUOUS
 62
     3
 10
880.981417
 20
1619.392716
 11
890.132911
 21
1619.392716
  0
LINE
  8
CSLAYER1
  6
CONTINUOUS
 62
     3
 10
880.132911
 20
1615.377544
 11
880.981417
 21
1613.907889
  0
ARC
  8
CSLAYER1
  6
CONTINUOUS
 62
     3
 10
898.284405
 20
1624.877544
 40
18.151494
 50
180.000000
 51
197.587954
  0
ARC
  8
CSLAYER1
  6
CONTINUOUS
 62
     3
 10
884.986166
 20
1616.650303
 40
4.853746
 50
145.597034
 51
205.597034
  0
LINE
  8
CSLAYER1
  6
CONTINUOUS
 62
     3
 10
880.132911
 20
1624.877544
 11
880.132911
 21
1634.377544
  0
LINE
  8
CSLAYER1
  6
CONTINUOUS
 62
     3
 10
880.981417
 20
1635.847199
 11
890.132911
 21
1635.847199
  0
LINE
  8
CSLAYER1
  6
CONTINUOUS
 62
     3
 10
880.981417
 20
1630.362372
 11
890.132911
 21
1630.362372
  0
LINE
  8
CSLAYER1
  6
CONTINUOUS
 62
     3
 10
880.132911
 20
1634.377544
 11
880.981417
 21
1635.847199
  0
ARC
  8
CSLAYER1
  6
CONTINUOUS
 62
     3
 10
898.284405
 20
1624.877544
 40
18.151494
 50
162.412046
 51
180.000000
  0
ARC
  8
CSLAYER1
  6
CONTINUOUS
 62
     3
 10
884.986166
 20
1633.104785
 40
4.853746
 50
154.402966
 51
214.402966
  0
LINE
  8
CSLAYER1
  6
CONTINUOUS
 62
     3
 10
896.432911
 20
1624.877544
 11
896.432911
 21
1633.877544
  0
LINE
  8
CSLAYER1
  6
CONTINUOUS
 62
     3
 10
895.432911
 20
1632.877544
 11
896.432911
 21
1633.877544
  0
LINE
  8
CSLAYER1
  6
CONTINUOUS
 62
     3
 10
895.432911
 20
1636.877544
 11
893.132911
 21
1636.877544
  0
LINE
  8
CSLAYER1
  6
CONTINUOUS
 62
     3
 10
893.132911
 20
1635.627544
 11
890.132911
 21
1635.627544
  0
LINE
  8
CSLAYER1
  6
CONTINUOUS
 62
     3
 10
880.132911
 20
1619.677544
 11
879.432911
 21
1619.677544
  0
LINE
  8
CSLAYER1
  6
CONTINUOUS
 62
     3
 10
879.432911
 20
1619.677544
 11
880.132911
 21
1618.877544
  0
LINE
  8
CSLAYER1
  6
CONTINUOUS
 62
     3
 10
880.132911
 20
1630.077544
 11
879.432911
 21
1630.077544
  0
LINE
  8
CSLAYER1
  6
CONTINUOUS
 62
     3
 10
879.432911
 20
1630.077544
 11
880.132911
 21
1630.877544
  0
POINT
  8
CSLAYER1
 62
     3
 10
896.432911
 20
1624.877544
  0
ENDBLK
  8
0
  0
BLOCK
  8
CSLAYER1
  2
BLKF0010
 70
   64
 10
0.0
 20
0.0
 30
0.0
  0
LINE
  8
CSLAYER1
  6
CONTINUOUS
 62
     3
 10
849.932911
 20
880.633060
 11
830.932911
 21
880.633060
  0
LINE
  8
CSLAYER1
  6
CONTINUOUS
 62
     3
 10
849.932911
 20
890.633060
 11
830.932911
 21
890.633060
  0
LINE
  8
CSLAYER1
  6
CONTINUOUS
 62
     3
 10
851.402566
 20
889.784555
 11
851.402566
 21
881.481566
  0
LINE
  8
CSLAYER1
  6
CONTINUOUS
 62
     3
 10
845.917738
 20
889.784555
 11
845.917738
 21
881.481566
  0
LINE
  8
CSLAYER1
  6
CONTINUOUS
 62
     3
 10
849.932911
 20
890.633060
 11
851.402566
 21
889.784555
  0
ARC
  8
CSLAYER1
  6
CONTINUOUS
 62
     3
 10
840.432911
 20
872.481566
 40
18.151494
 50
72.412046
 51
90.000000
  0
ARC
  8
CSLAYER1
  6
CONTINUOUS
 62
     3
 10
848.660152
 20
885.790668
 40
4.844787
 50
64.475551
 51
124.475551
  0
LINE
  8
CSLAYER1
  6
CONTINUOUS
 62
     3
 10
829.463256
 20
889.784555
 11
829.463256
 21
881.481566
  0
LINE
  8
CSLAYER1
  6
CONTINUOUS
 62
     3
 10
834.948083
 20
889.784555
 11
834.948083
 21
881.481566
  0
LINE
  8
CSLAYER1
  6
CONTINUOUS
 62
     3
 10
830.932911
 20
890.633060
 11
829.463256
 21
889.784555
  0
ARC
  8
CSLAYER1
  6
CONTINUOUS
 62
     3
 10
840.432911
 20
872.481566
 40
18.151494
 50
90.000000
 51
107.587954
  0
ARC
  8
CSLAYER1
  6
CONTINUOUS
 62
     3
 10
832.205670
 20
885.790668
 40
4.844787
 50
55.524449
 51
115.524449
  0
LINE
  8
CSLAYER1
  6
CONTINUOUS
 62
     3
 10
849.932911
 20
880.633060
 11
830.932911
 21
880.633060
  0
LINE
  8
CSLAYER1
  6
CONTINUOUS
 62
     3
 10
849.932911
 20
880.633060
 11
851.402566
 21
881.481566
  0
ARC
  8
CSLAYER1
  6
CONTINUOUS
 62
     3
 10
840.432911
 20
898.784555
 40
18.151494
 50
270.000000
 51
287.587954
  0
ARC
  8
CSLAYER1
  6
CONTINUOUS
 62
     3
 10
848.660152
 20
885.475453
 40
4.844787
 50
235.524449
 51
295.524449
  0
LINE
  8
CSLAYER1
  6
CONTINUOUS
 62
     3
 10
830.932911
 20
880.633060
 11
829.463256
 21
881.481566
  0
ARC
  8
CSLAYER1
  6
CONTINUOUS
 62
     3
 10
840.432911
 20
898.784555
 40
18.151494
 50
252.412046
 51
270.000000
  0
ARC
  8
CSLAYER1
  6
CONTINUOUS
 62
     3
 10
832.205670
 20
885.475453
 40
4.844787
 50
244.475551
 51
304.475551
  0
POINT
  8
CSLAYER1
 62
     3
 10
840.432911
 20
890.633060
  0
ENDBLK
  8
0
  0
BLOCK
  8
CSLAYER1
  2
BLKF0011
 70
   64
 10
0.0
 20
0.0
 30
0.0
  0
LINE
  8
CSLAYER1
  6
CONTINUOUS
 62
     3
 10
908.932911
 20
1609.877544
 11
905.932911
 21
1609.877544
  0
LINE
  8
CSLAYER1
  6
CONTINUOUS
 62
     3
 10
908.932911
 20
1609.877544
 11
908.932911
 21
1639.877544
  0
LINE
  8
CSLAYER1
  6
CONTINUOUS
 62
     3
 10
905.932911
 20
1609.877544
 11
905.932911
 21
1639.877544
  0
LINE
  8
CSLAYER1
  6
CONTINUOUS
 62
     3
 10
908.932911
 20
1639.877544
 11
905.932911
 21
1639.877544
  0
ENDBLK
  8
0
  0
BLOCK
  8
CSLAYER1
  2
BLKF0012
 70
   64
 10
0.0
 20
0.0
 30
0.0
  0
LINE
  8
CSLAYER1
  6
CONTINUOUS
 62
     3
 10
908.932911
 20
1016.047888
 11
905.932911
 21
1016.047888
  0
LINE
  8
CSLAYER1
  6
CONTINUOUS
 62
     3
 10
908.932911
 20
1016.047888
 11
908.932911
 21
1046.047888
  0
LINE
  8
CSLAYER1
  6
CONTINUOUS
 62
     3
 10
905.932911
 20
1016.047888
 11
905.932911
 21
1046.047888
  0
LINE
  8
CSLAYER1
  6
CONTINUOUS
 62
     3
 10
908.932911
 20
1046.047888
 11
905.932911
 21
1046.047888
  0
ENDBLK
  8
0
  0
BLOCK
  8
CSLAYER1
  2
BLKF0013
 70
   64
 10
0.0
 20
0.0
 30
0.0
  0
LINE
  8
CSLAYER1
  6
CONTINUOUS
 62
     3
 10
908.932911
 20
1312.962716
 11
905.932911
 21
1312.962716
  0
LINE
  8
CSLAYER1
  6
CONTINUOUS
 62
     3
 10
908.932911
 20
1312.962716
 11
908.932911
 21
1342.962716
  0
LINE
  8
CSLAYER1
  6
CONTINUOUS
 62
     3
 10
905.932911
 20
1312.962716
 11
905.932911
 21
1342.962716
  0
LINE
  8
CSLAYER1
  6
CONTINUOUS
 62
     3
 10
908.932911
 20
1342.962716
 11
905.932911
 21
1342.962716
  0
ENDBLK
  8
0
  0
BLOCK
  8
CSLAYER1
  2
BLKF0014
 70
   64
 10
0.0
 20
0.0
 30
0.0
  0
LINE
  8
CSLAYER1
  6
CONTINUOUS
 62
     4
 10
983.432911
 20
1051.938565
 11
983.432911
 21
1040.047888
  0
LINE
  8
CSLAYER1
  6
CONTINUOUS
 62
     4
 10
972.432911
 20
1040.047888
 11
972.432911
 21
1049.438565
  0
LINE
  8
CSLAYER1
  6
CONTINUOUS
 62
     4
 10
966.432911
 20
1040.047888
 11
966.432911
 21
1048.938565
  0
LINE
  8
CSLAYER1
  6
CONTINUOUS
 62
     4
 10
967.432911
 20
1049.938565
 11
971.932911
 21
1049.938565
  0
LINE
  8
CSLAYER1
  6
CONTINUOUS
 62
     4
 10
966.432911
 20
1048.938565
 11
967.432911
 21
1049.938565
  0
LINE
  8
CSLAYER1
  6
CONTINUOUS
 62
     4
 10
971.932911
 20
1049.938565
 11
972.432911
 21
1049.438565
  0
LINE
  8
CSLAYER1
  6
CONTINUOUS
 62
     4
 10
967.432911
 20
1049.938565
 11
967.432911
 21
1040.047888
  0
LINE
  8
CSLAYER1
  6
CONTINUOUS
 62
     4
 10
971.932911
 20
1049.938565
 11
971.932911
 21
1040.047888
  0
LINE
  8
CSLAYER1
  6
CONTINUOUS
 62
     4
 10
972.432911
 20
1045.938565
 11
973.432911
 21
1045.938565
  0
LINE
  8
CSLAYER1
  6
CONTINUOUS
 62
     4
 10
982.432911
 20
1045.938565
 11
983.432911
 21
1045.938565
  0
ENDBLK
  8
0
  0
BLOCK
  8
CSLAYER1
  2
BLKF0015
 70
   64
 10
0.0
 20
0.0
 30
0.0
  0
LINE
  8
CSLAYER1
  6
CONTINUOUS
 62
     7
 10
1119.932911
 20
811.933060
 11
1119.932911
 21
809.733060
  0
LINE
  8
CSLAYER1
  6
CONTINUOUS
 62
     7
 10
1126.932911
 20
811.933060
 11
1126.932911
 21
809.733060
  0
LINE
  8
CSLAYER1
  6
CONTINUOUS
 62
     7
 10
1126.932911
 20
810.733060
 11
1119.932911
 21
810.733060
  0
LINE
  8
CSLAYER1
  6
CONTINUOUS
 62
     7
 10
1125.532911
 20
813.333060
 11
1121.332911
 21
813.333060
  0
LINE
  8
CSLAYER1
  6
CONTINUOUS
 62
     7
 10
1127.932911
 20
809.733060
 11
1127.932911
 21
808.933060
  0
LINE
  8
CSLAYER1
  6
CONTINUOUS
 62
     7
 10
1118.932911
 20
809.733060
 11
1118.932911
 21
808.933060
  0
LINE
  8
CSLAYER1
  6
CONTINUOUS
 62
     7
 10
1126.932911
 20
811.933060
 11
1126.932911
 21
810.733060
  0
LINE
  8
CSLAYER1
  6
CONTINUOUS
 62
     7
 10
1127.932911
 20
809.733060
 11
1118.932911
 21
809.733060
  0
LINE
  8
CSLAYER1
  6
CONTINUOUS
 62
     7
 10
1127.932911
 20
808.933060
 11
1118.932911
 21
808.933060
  0
ARC
  8
CSLAYER1
  6
CONTINUOUS
 62
     7
 10
1125.532911
 20
811.933060
 40
1.400000
 50
-0.000000
 51
90.000000
  0
ARC
  8
CSLAYER1
  6
CONTINUOUS
 62
     7
 10
1121.332911
 20
811.933060
 40
1.400000
 50
90.000000
 51
180.000000
  0
LINE
  8
CSLAYER1
  6
CONTINUOUS
 62
     7
 10
1124.472863
 20
809.733060
 11
1122.087661
 21
810.733060
  0
LINE
  8
CSLAYER1
  6
CENTER
 62
     5
 10
1123.432911
 20
815.161410
 11
1123.432911
 21
799.963232
  0
ENDBLK
  8
0
  0
BLOCK
  8
CSLAYER1
  2
BLKF0016
 70
   64
 10
0.0
 20
0.0
 30
0.0
  0
LINE
  8
CSLAYER1
  6
CONTINUOUS
 62
     7
 10
958.932911
 20
811.933060
 11
958.932911
 21
809.733060
  0
LINE
  8
CSLAYER1
  6
CONTINUOUS
 62
     7
 10
951.932911
 20
811.933060
 11
951.932911
 21
809.733060
  0
LINE
  8
CSLAYER1
  6
CONTINUOUS
 62
     7
 10
951.932911
 20
810.733060
 11
958.932911
 21
810.733060
  0
LINE
  8
CSLAYER1
  6
CONTINUOUS
 62
     7
 10
953.332911
 20
813.333060
 11
957.532911
 21
813.333060
  0
LINE
  8
CSLAYER1
  6
CONTINUOUS
 62
     7
 10
950.932911
 20
809.733060
 11
950.932911
 21
808.933060
  0
LINE
  8
CSLAYER1
  6
CONTINUOUS
 62
     7
 10
959.932911
 20
809.733060
 11
959.932911
 21
808.933060
  0
LINE
  8
CSLAYER1
  6
CONTINUOUS
 62
     7
 10
951.932911
 20
811.933060
 11
951.932911
 21
810.733060
  0
LINE
  8
CSLAYER1
  6
CONTINUOUS
 62
     7
 10
950.932911
 20
809.733060
 11
959.932911
 21
809.733060
  0
LINE
  8
CSLAYER1
  6
CONTINUOUS
 62
     7
 10
950.932911
 20
808.933060
 11
959.932911
 21
808.933060
  0
ARC
  8
CSLAYER1
  6
CONTINUOUS
 62
     7
 10
953.332911
 20
811.933060
 40
1.400000
 50
90.000000
 51
180.000000
  0
ARC
  8
CSLAYER1
  6
CONTINUOUS
 62
     7
 10
957.532911
 20
811.933060
 40
1.400000
 50
0.000000
 51
90.000000
  0
LINE
  8
CSLAYER1
  6
CONTINUOUS
 62
     7
 10
954.392959
 20
809.733060
 11
956.778161
 21
810.733060
  0
LINE
  8
CSLAYER1
  6
CENTER
 62
     5
 10
955.432911
 20
815.161410
 11
955.432911
 21
799.963232
  0
ENDBLK
  8
0
  0
BLOCK
  8
CSLAYER1
  2
BLKF0017
 70
   64
 10
0.0
 20
0.0
 30
0.0
  0
LINE
  8
CSLAYER1
  6
CONTINUOUS
 62
     7
 10
1230.432911
 20
834.851938
 11
1186.277491
 21
834.851938
  0
LINE
  8
CSLAYER1
  6
CONTINUOUS
 62
     7
 10
1230.432911
 20
824.851938
 11
1187.932911
 21
824.851938
  0
ENDBLK
  8
0
  0
BLOCK
  8
CSLAYER1
  2
BLKF0018
 70
   64
 10
0.0
 20
0.0
 30
0.0
  0
LINE
  8
CSLAYER1
  6
CONTINUOUS
 62
     7
 10
1174.432911
 20
787.138810
 11
1174.432911
 21
795.138810
  0
LINE
  8
CSLAYER1
  6
CONTINUOUS
 62
     7
 10
1230.432911
 20
796.138810
 11
1175.432911
 21
796.138810
  0
LINE
  8
CSLAYER1
  6
CONTINUOUS
 62
     7
 10
1230.432911
 20
786.138810
 11
1175.432911
 21
786.138810
  0
LINE
  8
CSLAYER1
  6
CONTINUOUS
 62
     7
 10
1175.432911
 20
786.138810
 11
1175.432911
 21
796.138810
  0
LINE
  8
CSLAYER1
  6
CONTINUOUS
 62
     7
 10
1174.432911
 20
787.138810
 11
1175.432911
 21
786.138810
  0
LINE
  8
CSLAYER1
  6
CONTINUOUS
 62
     7
 10
1174.432911
 20
795.138810
 11
1175.432911
 21
796.138810
  0
ENDBLK
  8
0
  0
BLOCK
  8
CSLAYER1
  2
BLKF0019
 70
   64
 10
0.0
 20
0.0
 30
0.0
  0
POINT
  8
CSLAYER1
 62
     7
 10
2578.106263
 20
1921.792372
  0
POINT
  8
CSLAYER1
 62
     3
 10
2119.994555
 20
1921.792372
  0
LINE
  8
CSLAYER1
  6
CONTINUOUS
 62
     3
 10
2170.642994
 20
1911.992372
 11
2133.994555
 21
1911.992372
  0
LINE
  8
CSLAYER1
  6
CONTINUOUS
 62
     3
 10
2095.994555
 20
1911.992372
 11
2095.994555
 21
1904.792372
  0
LINE
  8
CSLAYER1
  6
CONTINUOUS
 62
     3
 10
2120.994555
 20
1909.792372
 11
2133.994555
 21
1909.792372
  0
LINE
  8
CSLAYER1
  6
CONTINUOUS
 62
     3
 10
2133.994555
 20
1911.992372
 11
2133.994555
 21
1909.792372
  0
LINE
  8
CSLAYER1
  6
CONTINUOUS
 62
     3
 10
2095.994555
 20
1911.992372
 11
2092.794555
 21
1911.992372
  0
LINE
  8
CSLAYER1
  6
CONTINUOUS
 62
     4
 10
2096.994555
 20
1903.792372
 11
2119.994555
 21
1903.792372
  0
LINE
  8
CSLAYER1
  6
CONTINUOUS
 62
     4
 10
2095.994555
 20
1904.792372
 11
2120.994555
 21
1904.792372
  0
LINE
  8
CSLAYER1
  6
CONTINUOUS
 62
     4
 10
2120.994555
 20
1911.992372
 11
2120.994555
 21
1904.792372
  0
LINE
  8
CSLAYER1
  6
CONTINUOUS
 62
     4
 10
2096.994555
 20
1903.792372
 11
2095.994555
 21
1904.792372
  0
LINE
  8
CSLAYER1
  6
CONTINUOUS
 62
     4
 10
2119.994555
 20
1903.792372
 11
2120.994555
 21
1904.792372
  0
POINT
  8
CSLAYER1
 62
     7
 10
2119.994555
 20
1921.792372
  0
ARC
  8
CSLAYER1
  6
DASHED
 62
     5
 10
2578.106263
 20
1921.792372
 40
18.500000
 50
0.000000
 51
211.987196
  0
ARC
  8
CSLAYER1
  6
CONTINUOUS
 62
     3
 10
2578.106263
 20
1921.792372
 40
18.500000
 50
211.987196
 51
328.012804
  0
ARC
  8
CSLAYER1
  6
DASHED
 62
     5
 10
2578.106263
 20
1921.792372
 40
18.500000
 50
328.012804
 51
360.000000
  0
CIRCLE
  8
CSLAYER1
  6
DASHED
 62
     5
 10
2578.106263
 20
1921.792372
 40
6.000000
  0
LINE
  8
CSLAYER1
  6
CENTER
 62
     5
 10
2098.933661
 20
1921.792372
 11
2140.923970
 21
1921.792372
  0
LINE
  8
CSLAYER1
  6
CENTER
 62
     5
 10
2119.994555
 20
1943.095089
 11
2119.994555
 21
1900.291014
  0
LINE
  8
CSLAYER1
  6
CENTER
 62
     5
 10
2578.106263
 20
1945.208004
 11
2578.106263
 21
1898.701735
  0
LINE
  8
CSLAYER1
  6
CENTER
 62
     5
 10
2555.431781
 20
1921.792372
 11
2602.403113
 21
1921.792372
  0
LINE
  8
CSLAYER1
  6
CONTINUOUS
 62
     3
 10
2092.794555
 20
1956.992372
 11
2892.794555
 21
1956.992372
  0
LINE
  8
CSLAYER1
  6
CONTINUOUS
 62
     3
 10
2092.794555
 20
1911.992372
 11
2892.794555
 21
1911.992372
  0
LINE
  8
CSLAYER1
  6
CONTINUOUS
 62
     3
 10
2892.794555
 20
1956.992372
 11
2892.794555
 21
1911.992372
  0
LINE
  8
CSLAYER1
  6
CONTINUOUS
 62
     3
 10
2092.794555
 20
1956.992372
 11
2092.794555
 21
1911.992372
  0
ENDBLK
  8
0
  0
BLOCK
  8
CSLAYER1
  2
BLKF0020
 70
   64
 10
0.0
 20
0.0
 30
0.0
  0
LINE
  8
CSLAYER1
  6
CONTINUOUS
 62
     4
 10
1256.932911
 20
1337.777671
 11
1256.932911
 21
1318.147762
  0
LINE
  8
CSLAYER1
  6
CONTINUOUS
 62
     4
 10
1263.932911
 20
1336.462716
 11
1263.932911
 21
1319.462716
  0
LINE
  8
CSLAYER1
  6
CONTINUOUS
 62
     4
 10
1254.432911
 20
1338.462716
 11
1254.432911
 21
1317.462716
  0
LINE
  8
CSLAYER1
  6
CONTINUOUS
 62
     4
 10
1252.432911
 20
1338.462716
 11
1252.432911
 21
1317.462716
  0
LINE
  8
CSLAYER1
  6
CONTINUOUS
 62
     4
 10
1252.432911
 20
1338.462716
 11
1254.432911
 21
1338.462716
  0
LINE
  8
CSLAYER1
  6
CONTINUOUS
 62
     4
 10
1254.432911
 20
1337.162716
 11
1256.932911
 21
1337.162716
  0
LINE
  8
CSLAYER1
  6
CONTINUOUS
 62
     4
 10
1252.432911
 20
1317.462716
 11
1254.432911
 21
1317.462716
  0
LINE
  8
CSLAYER1
  6
CONTINUOUS
 62
     4
 10
1254.432911
 20
1318.762716
 11
1256.932911
 21
1318.762716
  0
LINE
  8
CSLAYER1
  6
CONTINUOUS
 62
     4
 10
1256.932911
 20
1337.777671
 11
1263.173722
 21
1337.777671
  0
LINE
  8
CSLAYER1
  6
CONTINUOUS
 62
     4
 10
1256.932911
 20
1332.870193
 11
1263.173722
 21
1332.870193
  0
LINE
  8
CSLAYER1
  6
CONTINUOUS
 62
     4
 10
1263.932911
 20
1336.462716
 11
1263.173722
 21
1337.777671
  0
ARC
  8
CSLAYER1
  6
CONTINUOUS
 62
     4
 10
1247.692100
 20
1327.962716
 40
16.240811
 50
0.000000
 51
17.587954
  0
ARC
  8
CSLAYER1
  6
CONTINUOUS
 62
     4
 10
1259.593128
 20
1335.323932
 40
4.340677
 50
-34.422385
 51
25.577615
  0
LINE
  8
CSLAYER1
  6
CONTINUOUS
 62
     4
 10
1256.932911
 20
1318.147762
 11
1263.173722
 21
1318.147762
  0
LINE
  8
CSLAYER1
  6
CONTINUOUS
 62
     4
 10
1256.932911
 20
1323.055239
 11
1263.173722
 21
1323.055239
  0
LINE
  8
CSLAYER1
  6
CONTINUOUS
 62
     4
 10
1263.932911
 20
1319.462716
 11
1263.173722
 21
1318.147762
  0
ARC
  8
CSLAYER1
  6
CONTINUOUS
 62
     4
 10
1247.692100
 20
1327.962716
 40
16.240811
 50
342.412046
 51
360.000000
  0
ARC
  8
CSLAYER1
  6
CONTINUOUS
 62
     4
 10
1259.593128
 20
1320.601500
 40
4.340677
 50
-25.577615
 51
34.422385
  0
LINE
  8
CSLAYER1
  6
CONTINUOUS
 62
     4
 10
1256.932911
 20
1329.327670
 11
1254.432911
 21
1326.585734
  0
ENDBLK
  8
0
  0
BLOCK
  8
CSLAYER1
  2
BLKF0021
 70
   64
 10
0.0
 20
0.0
 30
0.0
  0
LINE
  8
CSLAYER1
  6
CONTINUOUS
 62
     4
 10
891.932911
 20
1337.777671
 11
891.932911
 21
1318.147762
  0
LINE
  8
CSLAYER1
  6
CONTINUOUS
 62
     4
 10
884.932911
 20
1336.462716
 11
884.932911
 21
1319.462716
  0
LINE
  8
CSLAYER1
  6
CONTINUOUS
 62
     4
 10
894.432911
 20
1338.462716
 11
894.432911
 21
1317.462716
  0
LINE
  8
CSLAYER1
  6
CONTINUOUS
 62
     4
 10
896.432911
 20
1338.462716
 11
896.432911
 21
1317.462716
  0
LINE
  8
CSLAYER1
  6
CONTINUOUS
 62
     4
 10
896.432911
 20
1338.462716
 11
894.432911
 21
1338.462716
  0
LINE
  8
CSLAYER1
  6
CONTINUOUS
 62
     4
 10
894.432911
 20
1337.162716
 11
891.932911
 21
1337.162716
  0
LINE
  8
CSLAYER1
  6
CONTINUOUS
 62
     4
 10
896.432911
 20
1317.462716
 11
894.432911
 21
1317.462716
  0
LINE
  8
CSLAYER1
  6
CONTINUOUS
 62
     4
 10
894.432911
 20
1318.762716
 11
891.932911
 21
1318.762716
  0
LINE
  8
CSLAYER1
  6
CONTINUOUS
 62
     4
 10
891.932911
 20
1337.777671
 11
885.692100
 21
1337.777671
  0
LINE
  8
CSLAYER1
  6
CONTINUOUS
 62
     4
 10
891.932911
 20
1332.870193
 11
885.692100
 21
1332.870193
  0
LINE
  8
CSLAYER1
  6
CONTINUOUS
 62
     4
 10
884.932911
 20
1336.462716
 11
885.692100
 21
1337.777671
  0
ARC
  8
CSLAYER1
  6
CONTINUOUS
 62
     4
 10
901.173722
 20
1327.962716
 40
16.240811
 50
162.412046
 51
180.000000
  0
ARC
  8
CSLAYER1
  6
CONTINUOUS
 62
     4
 10
889.272693
 20
1335.323932
 40
4.340677
 50
154.422385
 51
214.422385
  0
LINE
  8
CSLAYER1
  6
CONTINUOUS
 62
     4
 10
891.932911
 20
1318.147762
 11
885.692100
 21
1318.147762
  0
LINE
  8
CSLAYER1
  6
CONTINUOUS
 62
     4
 10
891.932911
 20
1323.055239
 11
885.692100
 21
1323.055239
  0
LINE
  8
CSLAYER1
  6
CONTINUOUS
 62
     4
 10
884.932911
 20
1319.462716
 11
885.692100
 21
1318.147762
  0
ARC
  8
CSLAYER1
  6
CONTINUOUS
 62
     4
 10
901.173722
 20
1327.962716
 40
16.240811
 50
180.000000
 51
197.587954
  0
ARC
  8
CSLAYER1
  6
CONTINUOUS
 62
     4
 10
889.272693
 20
1320.601500
 40
4.340677
 50
145.577615
 51
205.577615
  0
LINE
  8
CSLAYER1
  6
CONTINUOUS
 62
     4
 10
891.932911
 20
1329.327670
 11
894.432911
 21
1326.585734
  0
ENDBLK
  8
0
  0
BLOCK
  8
CSLAYER1
  2
BLKF0022
 70
   64
 10
0.0
 20
0.0
 30
0.0
  0
CIRCLE
  8
CSLAYER1
  6
CONTINUOUS
 62
     4
 10
2119.994555
 20
1327.962716
 40
10.500000
  0
ARC
  8
CSLAYER1
  6
CONTINUOUS
 62
     4
 10
2119.994555
 20
1327.962716
 40
9.200000
 50
97.505018
 51
142.494982
  0
CIRCLE
  8
CSLAYER1
  6
CONTINUOUS
 62
     4
 10
2119.994555
 20
1327.962716
 40
8.500000
  0
LINE
  8
CSLAYER1
  6
CONTINUOUS
 62
     4
 10
2128.494555
 20
1332.870193
 11
2119.994555
 21
1337.777671
  0
LINE
  8
CSLAYER1
  6
CONTINUOUS
 62
     4
 10
2119.994555
 20
1337.777671
 11
2111.494555
 21
1332.870193
  0
LINE
  8
CSLAYER1
  6
CONTINUOUS
 62
     4
 10
2111.494555
 20
1332.870193
 11
2111.494555
 21
1323.055239
  0
LINE
  8
CSLAYER1
  6
CONTINUOUS
 62
     4
 10
2111.494555
 20
1323.055239
 11
2119.994555
 21
1318.147762
  0
LINE
  8
CSLAYER1
  6
CONTINUOUS
 62
     4
 10
2119.994555
 20
1318.147762
 11
2128.494555
 21
1323.055239
  0
LINE
  8
CSLAYER1
  6
CONTINUOUS
 62
     4
 10
2128.494555
 20
1323.055239
 11
2128.494555
 21
1332.870193
  0
ARC
  8
CSLAYER1
  6
CONTINUOUS
 62
     4
 10
2119.994555
 20
1327.962716
 40
9.200000
 50
37.505018
 51
82.494982
  0
ARC
  8
CSLAYER1
  6
CONTINUOUS
 62
     4
 10
2119.994555
 20
1327.962716
 40
9.200000
 50
-22.494982
 51
22.494982
  0
ARC
  8
CSLAYER1
  6
CONTINUOUS
 62
     4
 10
2119.994555
 20
1327.962716
 40
9.200000
 50
277.505018
 51
322.494982
  0
ARC
  8
CSLAYER1
  6
CONTINUOUS
 62
     4
 10
2119.994555
 20
1327.962716
 40
9.200000
 50
217.505018
 51
262.494982
  0
ARC
  8
CSLAYER1
  6
CONTINUOUS
 62
     4
 10
2119.994555
 20
1327.962716
 40
9.200000
 50
157.505018
 51
202.494982
  0
ENDBLK
  8
0
  0
BLOCK
  8
CSLAYER1
  2
BLKF0023
 70
   64
 10
0.0
 20
0.0
 30
0.0
  0
CIRCLE
  8
CSLAYER1
  6
CONTINUOUS
 62
     4
 10
2578.106263
 20
1327.962716
 40
10.500000
  0
ARC
  8
CSLAYER1
  6
CONTINUOUS
 62
     4
 10
2578.106263
 20
1327.962716
 40
9.200000
 50
97.505018
 51
142.494982
  0
CIRCLE
  8
CSLAYER1
  6
CONTINUOUS
 62
     4
 10
2578.106263
 20
1327.962716
 40
8.500000
  0
LINE
  8
CSLAYER1
  6
CONTINUOUS
 62
     4
 10
2586.606263
 20
1332.870193
 11
2578.106263
 21
1337.777671
  0
LINE
  8
CSLAYER1
  6
CONTINUOUS
 62
     4
 10
2578.106263
 20
1337.777671
 11
2569.606263
 21
1332.870193
  0
LINE
  8
CSLAYER1
  6
CONTINUOUS
 62
     4
 10
2569.606263
 20
1332.870193
 11
2569.606263
 21
1323.055239
  0
LINE
  8
CSLAYER1
  6
CONTINUOUS
 62
     4
 10
2569.606263
 20
1323.055239
 11
2578.106263
 21
1318.147762
  0
LINE
  8
CSLAYER1
  6
CONTINUOUS
 62
     4
 10
2578.106263
 20
1318.147762
 11
2586.606263
 21
1323.055239
  0
LINE
  8
CSLAYER1
  6
CONTINUOUS
 62
     4
 10
2586.606263
 20
1323.055239
 11
2586.606263
 21
1332.870193
  0
ARC
  8
CSLAYER1
  6
CONTINUOUS
 62
     4
 10
2578.106263
 20
1327.962716
 40
9.200000
 50
37.505018
 51
82.494982
  0
ARC
  8
CSLAYER1
  6
CONTINUOUS
 62
     4
 10
2578.106263
 20
1327.962716
 40
9.200000
 50
-22.494982
 51
22.494982
  0
ARC
  8
CSLAYER1
  6
CONTINUOUS
 62
     4
 10
2578.106263
 20
1327.962716
 40
9.200000
 50
277.505018
 51
322.494982
  0
ARC
  8
CSLAYER1
  6
CONTINUOUS
 62
     4
 10
2578.106263
 20
1327.962716
 40
9.200000
 50
217.505018
 51
262.494982
  0
ARC
  8
CSLAYER1
  6
CONTINUOUS
 62
     4
 10
2578.106263
 20
1327.962716
 40
9.200000
 50
157.505018
 51
202.494982
  0
ENDBLK
  8
0
  0
BLOCK
  8
CSLAYER1
  2
BLKF0024
 70
   64
 10
0.0
 20
0.0
 30
0.0
  0
CIRCLE
  8
CSLAYER1
  6
CONTINUOUS
 62
     4
 10
2349.050409
 20
1624.877544
 40
12.000000
  0
CIRCLE
  8
CSLAYER1
  6
CONTINUOUS
 62
     4
 10
2349.050409
 20
1624.877544
 40
6.000000
  0
CIRCLE
  8
CSLAYER1
  6
CONTINUOUS
 62
     4
 10
2349.050409
 20
1624.877544
 40
5.200000
  0
CIRCLE
  8
CSLAYER1
  6
CONTINUOUS
 62
     4
 10
2349.050409
 20
1624.877544
 40
9.500000
  0
LINE
  8
CSLAYER1
  6
CONTINUOUS
 62
     4
 10
2358.550409
 20
1630.362372
 11
2349.050409
 21
1635.847199
  0
LINE
  8
CSLAYER1
  6
CONTINUOUS
 62
     4
 10
2349.050409
 20
1635.847199
 11
2339.550409
 21
1630.362372
  0
LINE
  8
CSLAYER1
  6
CONTINUOUS
 62
     4
 10
2339.550409
 20
1630.362372
 11
2339.550409
 21
1619.392716
  0
LINE
  8
CSLAYER1
  6
CONTINUOUS
 62
     4
 10
2339.550409
 20
1619.392716
 11
2349.050409
 21
1613.907889
  0
LINE
  8
CSLAYER1
  6
CONTINUOUS
 62
     4
 10
2349.050409
 20
1613.907889
 11
2358.550409
 21
1619.392716
  0
LINE
  8
CSLAYER1
  6
CONTINUOUS
 62
     4
 10
2358.550409
 20
1619.392716
 11
2358.550409
 21
1630.362372
  0
ENDBLK
  8
0
  0
BLOCK
  8
CSLAYER1
  2
BLKF0025
 70
   64
 10
0.0
 20
0.0
 30
0.0
  0
CIRCLE
  8
CSLAYER1
  6
CONTINUOUS
 62
     4
 10
2349.050409
 20
1031.047888
 40
12.000000
  0
CIRCLE
  8
CSLAYER1
  6
CONTINUOUS
 62
     4
 10
2349.050409
 20
1031.047888
 40
6.000000
  0
CIRCLE
  8
CSLAYER1
  6
CONTINUOUS
 62
     4
 10
2349.050409
 20
1031.047888
 40
5.200000
  0
CIRCLE
  8
CSLAYER1
  6
CONTINUOUS
 62
     4
 10
2349.050409
 20
1031.047888
 40
9.500000
  0
LINE
  8
CSLAYER1
  6
CONTINUOUS
 62
     4
 10
2358.550409
 20
1036.532716
 11
2349.050409
 21
1042.017543
  0
LINE
  8
CSLAYER1
  6
CONTINUOUS
 62
     4
 10
2349.050409
 20
1042.017543
 11
2339.550409
 21
1036.532716
  0
LINE
  8
CSLAYER1
  6
CONTINUOUS
 62
     4
 10
2339.550409
 20
1036.532716
 11
2339.550409
 21
1025.563061
  0
LINE
  8
CSLAYER1
  6
CONTINUOUS
 62
     4
 10
2339.550409
 20
1025.563061
 11
2349.050409
 21
1020.078233
  0
LINE
  8
CSLAYER1
  6
CONTINUOUS
 62
     4
 10
2349.050409
 20
1020.078233
 11
2358.550409
 21
1025.563061
  0
LINE
  8
CSLAYER1
  6
CONTINUOUS
 62
     4
 10
2358.550409
 20
1025.563061
 11
2358.550409
 21
1036.532716
  0
ENDBLK
  8
0
  0
BLOCK
  8
CSLAYER1
  2
BLKF0026
 70
   64
 10
0.0
 20
0.0
 30
0.0
  0
LINE
  8
CSLAYER1
  6
CONTINUOUS
 62
     3
 10
1682.942402
 20
2677.668979
 11
1682.942402
 21
2615.668979
  0
LINE
  8
CSLAYER1
  6
CONTINUOUS
 62
     3
 10
1680.442402
 20
2680.168979
 11
1595.442402
 21
2680.168979
  0
LINE
  8
CSLAYER1
  6
CENTER
 62
     5
 10
1741.292041
 20
2607.668979
 11
1682.942402
 21
2607.668979
  0
LINE
  8
CSLAYER1
  6
CONTINUOUS
 62
     2
 10
1680.442402
 20
2623.668979
 11
1595.442402
 21
2623.668979
  0
LINE
  8
CSLAYER1
  6
CONTINUOUS
 62
     3
 10
1680.442402
 20
2675.168979
 11
1680.442402
 21
2630.168979
  0
LINE
  8
CSLAYER1
  6
CONTINUOUS
 62
     3
 10
1592.942402
 20
2677.668979
 11
1592.942402
 21
2607.668979
  0
LINE
  8
CSLAYER1
  6
CONTINUOUS
 62
     3
 10
1677.942402
 20
2677.668979
 11
1600.942402
 21
2677.668979
  0
LINE
  8
CSLAYER1
  6
CONTINUOUS
 62
     3
 10
1677.942402
 20
2627.668979
 11
1600.942402
 21
2627.668979
  0
ARC
  8
CSLAYER1
  6
CONTINUOUS
 62
     3
 10
1655.010584
 20
2652.668979
 40
59.568182
 50
155.185163
 51
204.814837
  0
ARC
  8
CSLAYER1
  6
CONTINUOUS
 62
     3
 10
1677.942402
 20
2675.168979
 40
2.500000
 50
0.000000
 51
90.000000
  0
ARC
  8
CSLAYER1
  6
CONTINUOUS
 62
     3
 10
1677.942402
 20
2630.168979
 40
2.500000
 50
270.000000
 51
360.000000
  0
ARC
  8
CSLAYER1
  6
CONTINUOUS
 62
     3
 10
1680.442402
 20
2677.668979
 40
2.500000
 50
0.000000
 51
90.000000
  0
ARC
  8
CSLAYER1
  6
CONTINUOUS
 62
     3
 10
1595.442402
 20
2677.668979
 40
2.500000
 50
90.000000
 51
180.000000
  0
ARC
  8
CSLAYER1
  6
CONTINUOUS
 62
     2
 10
1595.442402
 20
2621.168979
 40
2.500000
 50
90.000000
 51
180.000000
  0
ARC
  8
CSLAYER1
  6
CONTINUOUS
 62
     2
 10
1680.442402
 20
2621.168979
 40
2.500000
 50
0.000000
 51
90.000000
  0
LINE
  8
CSLAYER1
  6
CONTINUOUS
 62
     3
 10
1682.942402
 20
2537.668979
 11
1682.942402
 21
2599.668979
  0
LINE
  8
CSLAYER1
  6
CONTINUOUS
 62
     3
 10
1680.442402
 20
2535.168979
 11
1595.442402
 21
2535.168979
  0
LINE
  8
CSLAYER1
  6
CONTINUOUS
 62
     2
 10
1680.442402
 20
2591.668979
 11
1595.442402
 21
2591.668979
  0
LINE
  8
CSLAYER1
  6
CONTINUOUS
 62
     3
 10
1592.942402
 20
2537.668979
 11
1592.942402
 21
2607.668979
  0
ARC
  8
CSLAYER1
  6
CONTINUOUS
 62
     3
 10
1680.442402
 20
2537.668979
 40
2.500000
 50
270.000000
 51
360.000000
  0
ARC
  8
CSLAYER1
  6
CONTINUOUS
 62
     3
 10
1595.442402
 20
2537.668979
 40
2.500000
 50
180.000000
 51
270.000000
  0
ARC
  8
CSLAYER1
  6
CONTINUOUS
 62
     2
 10
1595.442402
 20
2594.168979
 40
2.500000
 50
180.000000
 51
270.000000
  0
ARC
  8
CSLAYER1
  6
CONTINUOUS
 62
     2
 10
1680.442402
 20
2594.168979
 40
2.500000
 50
270.000000
 51
360.000000
  0
LINE
  8
CSLAYER1
  6
CONTINUOUS
 62
     3
 10
1680.442402
 20
2540.168979
 11
1680.442402
 21
2585.168979
  0
LINE
  8
CSLAYER1
  6
CONTINUOUS
 62
     3
 10
1677.942402
 20
2537.668979
 11
1600.942402
 21
2537.668979
  0
LINE
  8
CSLAYER1
  6
CONTINUOUS
 62
     3
 10
1677.942402
 20
2587.668979
 11
1600.942402
 21
2587.668979
  0
ARC
  8
CSLAYER1
  6
CONTINUOUS
 62
     3
 10
1655.010584
 20
2562.668979
 40
59.568182
 50
155.185163
 51
204.814837
  0
ARC
  8
CSLAYER1
  6
CONTINUOUS
 62
     3
 10
1677.942402
 20
2540.168979
 40
2.500000
 50
270.000000
 51
360.000000
  0
ARC
  8
CSLAYER1
  6
CONTINUOUS
 62
     3
 10
1677.942402
 20
2585.168979
 40
2.500000
 50
0.000000
 51
90.000000
  0
LINE
  8
CSLAYER1
  6
CONTINUOUS
 62
     3
 10
1689.942402
 20
2600.668979
 11
1689.942402
 21
2604.168979
  0
LINE
  8
CSLAYER1
  6
CONTINUOUS
 62
     3
 10
1741.292041
 20
2604.168979
 11
1689.942402
 21
2604.168979
  0
LINE
  8
CSLAYER1
  6
CONTINUOUS
 62
     3
 10
1688.942402
 20
2599.668979
 11
1682.942402
 21
2599.668979
  0
LINE
  8
CSLAYER1
  6
CONTINUOUS
 62
     3
 10
1688.942402
 20
2615.668979
 11
1682.942402
 21
2615.668979
  0
LINE
  8
CSLAYER1
  6
CONTINUOUS
 62
     3
 10
1741.292041
 20
2611.168979
 11
1689.942402
 21
2611.168979
  0
ARC
  8
CSLAYER1
  6
CONTINUOUS
 62
     3
 10
1688.942402
 20
2614.668979
 40
1.000000
 50
0.000000
 51
90.000000
  0
ARC
  8
CSLAYER1
  6
CONTINUOUS
 62
     3
 10
1688.942402
 20
2600.668979
 40
1.000000
 50
270.000000
 51
360.000000
  0
LINE
  8
CSLAYER1
  6
CONTINUOUS
 62
     3
 10
1689.942402
 20
2611.168979
 11
1689.942402
 21
2614.668979
  0
LINE
  8
CSLAYER1
  6
CONTINUOUS
 62
     2
 10
1689.942402
 20
2604.168979
 11
1689.942402
 21
2611.168979
  0
LINE
  8
CSLAYER1
  6
CONTINUOUS
 62
     2
 10
1682.942402
 20
2615.668979
 11
1682.942402
 21
2607.668979
  0
LINE
  8
CSLAYER1
  6
CONTINUOUS
 62
     2
 10
1682.942402
 20
2599.668979
 11
1682.942402
 21
2607.668979
  0
LINE
  8
CSLAYER1
  6
CONTINUOUS
 62
     2
 10
1663.449391
 20
2619.831638
 11
1672.584391
 21
2619.831638
  0
LINE
  8
CSLAYER1
  6
CONTINUOUS
 62
     2
 10
1663.449391
 20
2596.206638
 11
1672.584391
 21
2596.206638
  0
LINE
  8
CSLAYER1
  6
CONTINUOUS
 62
     2
 10
1673.844391
 20
2618.571638
 11
1673.844391
 21
2597.466638
  0
LINE
  8
CSLAYER1
  6
CONTINUOUS
 62
     2
 10
1662.189391
 20
2618.571638
 11
1662.189391
 21
2597.466638
  0
LINE
  8
CSLAYER1
  6
CONTINUOUS
 62
     2
 10
1664.079391
 20
2598.096638
 11
1672.111891
 21
2598.096638
  0
LINE
  8
CSLAYER1
  6
CONTINUOUS
 62
     2
 10
1664.079391
 20
2601.246638
 11
1665.024391
 21
2601.246638
  0
LINE
  8
CSLAYER1
  6
CONTINUOUS
 62
     2
 10
1664.079391
 20
2609.909138
 11
1665.024391
 21
2609.909138
  0
LINE
  8
CSLAYER1
  6
CONTINUOUS
 62
     2
 10
1664.079391
 20
2614.476638
 11
1669.119391
 21
2614.476638
  0
LINE
  8
CSLAYER1
  6
CONTINUOUS
 62
     2
 10
1662.976891
 20
2613.374138
 11
1662.976891
 21
2611.011638
  0
LINE
  8
CSLAYER1
  6
CONTINUOUS
 62
     2
 10
1670.221891
 20
2613.374138
 11
1670.221891
 21
2611.011638
  0
LINE
  8
CSLAYER1
  6
CONTINUOUS
 62
     2
 10
1673.214391
 20
2600.144138
 11
1673.214391
 21
2599.199138
  0
LINE
  8
CSLAYER1
  6
CONTINUOUS
 62
     2
 10
1665.969391
 20
2608.964138
 11
1665.969391
 21
2602.191638
  0
LINE
  8
CSLAYER1
  6
CONTINUOUS
 62
     2
 10
1666.756891
 20
2608.964138
 11
1666.756891
 21
2602.191638
  0
ARC
  8
CSLAYER1
  6
CONTINUOUS
 62
     2
 10
1664.079391
 20
2613.374138
 40
1.102500
 50
90.000000
 51
180.000000
  0
ARC
  8
CSLAYER1
  6
CONTINUOUS
 62
     2
 10
1669.119391
 20
2613.374138
 40
1.102500
 50
0.000000
 51
90.000000
  0
ARC
  8
CSLAYER1
  6
CONTINUOUS
 62
     2
 10
1669.119391
 20
2611.011638
 40
1.102500
 50
270.000000
 51
360.000000
  0
ARC
  8
CSLAYER1
  6
CONTINUOUS
 62
     2
 10
1664.079391
 20
2611.011638
 40
1.102500
 50
180.000000
 51
270.000000
  0
ARC
  8
CSLAYER1
  6
CONTINUOUS
 62
     2
 10
1672.111891
 20
2600.144138
 40
1.102500
 50
0.000000
 51
90.000000
  0
ARC
  8
CSLAYER1
  6
CONTINUOUS
 62
     2
 10
1672.111891
 20
2599.199138
 40
1.102500
 50
270.000000
 51
360.000000
  0
ARC
  8
CSLAYER1
  6
CONTINUOUS
 62
     2
 10
1664.079391
 20
2599.199138
 40
1.102500
 50
180.000000
 51
270.000000
  0
ARC
  8
CSLAYER1
  6
CONTINUOUS
 62
     2
 10
1664.079391
 20
2600.144138
 40
1.102500
 50
90.000000
 51
180.000000
  0
LINE
  8
CSLAYER1
  6
CONTINUOUS
 62
     2
 10
1667.701891
 20
2609.909138
 11
1669.119391
 21
2609.909138
  0
LINE
  8
CSLAYER1
  6
CONTINUOUS
 62
     2
 10
1667.701891
 20
2601.246638
 11
1672.111891
 21
2601.246638
  0
ARC
  8
CSLAYER1
  6
CONTINUOUS
 62
     2
 10
1665.024391
 20
2608.964138
 40
0.945000
 50
0.000000
 51
90.000000
  0
ARC
  8
CSLAYER1
  6
CONTINUOUS
 62
     2
 10
1667.701891
 20
2608.964138
 40
0.945000
 50
90.000000
 51
180.000000
  0
ARC
  8
CSLAYER1
  6
CONTINUOUS
 62
     2
 10
1667.701891
 20
2602.191638
 40
0.945000
 50
180.000000
 51
270.000000
  0
ARC
  8
CSLAYER1
  6
CONTINUOUS
 62
     2
 10
1663.449391
 20
2618.571638
 40
1.260000
 50
90.000000
 51
180.000000
  0
ARC
  8
CSLAYER1
  6
CONTINUOUS
 62
     2
 10
1672.584391
 20
2618.571638
 40
1.260000
 50
0.000000
 51
90.000000
  0
ARC
  8
CSLAYER1
  6
CONTINUOUS
 62
     2
 10
1672.584391
 20
2597.466638
 40
1.260000
 50
270.000000
 51
360.000000
  0
ARC
  8
CSLAYER1
  6
CONTINUOUS
 62
     2
 10
1663.449391
 20
2597.466638
 40
1.260000
 50
180.000000
 51
270.000000
  0
ARC
  8
CSLAYER1
  6
CONTINUOUS
 62
     2
 10
1665.024391
 20
2602.191638
 40
0.945000
 50
270.000000
 51
360.000000
  0
LINE
  8
CSLAYER1
  6
CONTINUOUS
 62
     2
 10
1662.976891
 20
2600.144138
 11
1662.976891
 21
2599.199138
  0
CIRCLE
  8
CSLAYER1
  6
CONTINUOUS
 62
     2
 10
1648.442402
 20
2657.668979
 40
2.500000
  0
CIRCLE
  8
CSLAYER1
  6
CONTINUOUS
 62
     2
 10
1648.442402
 20
2667.668979
 40
2.500000
  0
CIRCLE
  8
CSLAYER1
  6
CONTINUOUS
 62
     2
 10
1638.442402
 20
2667.668979
 40
2.500000
  0
CIRCLE
  8
CSLAYER1
  6
CONTINUOUS
 62
     2
 10
1638.442402
 20
2657.668979
 40
2.500000
  0
CIRCLE
  8
CSLAYER1
  6
CONTINUOUS
 62
     2
 10
1628.442402
 20
2657.668979
 40
2.500000
  0
CIRCLE
  8
CSLAYER1
  6
CONTINUOUS
 62
     2
 10
1628.442402
 20
2667.668979
 40
2.500000
  0
CIRCLE
  8
CSLAYER1
  6
CONTINUOUS
 62
     2
 10
1618.442402
 20
2667.668979
 40
2.500000
  0
CIRCLE
  8
CSLAYER1
  6
CONTINUOUS
 62
     2
 10
1618.442402
 20
2657.668979
 40
2.500000
  0
CIRCLE
  8
CSLAYER1
  6
CONTINUOUS
 62
     2
 10
1608.442402
 20
2657.668979
 40
2.500000
  0
CIRCLE
  8
CSLAYER1
  6
CONTINUOUS
 62
     2
 10
1608.442402
 20
2667.668979
 40
2.500000
  0
CIRCLE
  8
CSLAYER1
  6
CONTINUOUS
 62
     2
 10
1648.442402
 20
2647.668979
 40
2.500000
  0
CIRCLE
  8
CSLAYER1
  6
CONTINUOUS
 62
     2
 10
1648.442402
 20
2637.668979
 40
2.500000
  0
CIRCLE
  8
CSLAYER1
  6
CONTINUOUS
 62
     2
 10
1638.442402
 20
2637.668979
 40
2.500000
  0
CIRCLE
  8
CSLAYER1
  6
CONTINUOUS
 62
     2
 10
1638.442402
 20
2647.668979
 40
2.500000
  0
CIRCLE
  8
CSLAYER1
  6
CONTINUOUS
 62
     2
 10
1628.442402
 20
2647.668979
 40
2.500000
  0
CIRCLE
  8
CSLAYER1
  6
CONTINUOUS
 62
     2
 10
1628.442402
 20
2637.668979
 40
2.500000
  0
CIRCLE
  8
CSLAYER1
  6
CONTINUOUS
 62
     2
 10
1618.442402
 20
2637.668979
 40
2.500000
  0
CIRCLE
  8
CSLAYER1
  6
CONTINUOUS
 62
     2
 10
1618.442402
 20
2647.668979
 40
2.500000
  0
CIRCLE
  8
CSLAYER1
  6
CONTINUOUS
 62
     2
 10
1608.442402
 20
2647.668979
 40
2.500000
  0
CIRCLE
  8
CSLAYER1
  6
CONTINUOUS
 62
     2
 10
1608.442402
 20
2637.668979
 40
2.500000
  0
CIRCLE
  8
CSLAYER1
  6
CONTINUOUS
 62
     2
 10
1648.442402
 20
2557.668979
 40
2.500000
  0
CIRCLE
  8
CSLAYER1
  6
CONTINUOUS
 62
     2
 10
1648.442402
 20
2547.668979
 40
2.500000
  0
CIRCLE
  8
CSLAYER1
  6
CONTINUOUS
 62
     2
 10
1638.442402
 20
2547.668979
 40
2.500000
  0
CIRCLE
  8
CSLAYER1
  6
CONTINUOUS
 62
     2
 10
1638.442402
 20
2557.668979
 40
2.500000
  0
CIRCLE
  8
CSLAYER1
  6
CONTINUOUS
 62
     2
 10
1628.442402
 20
2557.668979
 40
2.500000
  0
CIRCLE
  8
CSLAYER1
  6
CONTINUOUS
 62
     2
 10
1628.442402
 20
2547.668979
 40
2.500000
  0
CIRCLE
  8
CSLAYER1
  6
CONTINUOUS
 62
     2
 10
1618.442402
 20
2547.668979
 40
2.500000
  0
CIRCLE
  8
CSLAYER1
  6
CONTINUOUS
 62
     2
 10
1618.442402
 20
2557.668979
 40
2.500000
  0
CIRCLE
  8
CSLAYER1
  6
CONTINUOUS
 62
     2
 10
1608.442402
 20
2557.668979
 40
2.500000
  0
CIRCLE
  8
CSLAYER1
  6
CONTINUOUS
 62
     2
 10
1608.442402
 20
2547.668979
 40
2.500000
  0
CIRCLE
  8
CSLAYER1
  6
CONTINUOUS
 62
     2
 10
1648.442402
 20
2567.668979
 40
2.500000
  0
CIRCLE
  8
CSLAYER1
  6
CONTINUOUS
 62
     2
 10
1648.442402
 20
2577.668979
 40
2.500000
  0
CIRCLE
  8
CSLAYER1
  6
CONTINUOUS
 62
     2
 10
1638.442402
 20
2577.668979
 40
2.500000
  0
CIRCLE
  8
CSLAYER1
  6
CONTINUOUS
 62
     2
 10
1638.442402
 20
2567.668979
 40
2.500000
  0
CIRCLE
  8
CSLAYER1
  6
CONTINUOUS
 62
     2
 10
1628.442402
 20
2567.668979
 40
2.500000
  0
CIRCLE
  8
CSLAYER1
  6
CONTINUOUS
 62
     2
 10
1628.442402
 20
2577.668979
 40
2.500000
  0
CIRCLE
  8
CSLAYER1
  6
CONTINUOUS
 62
     2
 10
1618.442402
 20
2577.668979
 40
2.500000
  0
CIRCLE
  8
CSLAYER1
  6
CONTINUOUS
 62
     2
 10
1618.442402
 20
2567.668979
 40
2.500000
  0
CIRCLE
  8
CSLAYER1
  6
CONTINUOUS
 62
     2
 10
1608.442402
 20
2567.668979
 40
2.500000
  0
CIRCLE
  8
CSLAYER1
  6
CONTINUOUS
 62
     2
 10
1608.442402
 20
2577.668979
 40
2.500000
  0
LINE
  8
CSLAYER1
  6
CONTINUOUS
 62
     2
 10
1674.442402
 20
2580.168979
 11
1674.442402
 21
2545.168979
  0
LINE
  8
CSLAYER1
  6
CONTINUOUS
 62
     2
 10
1658.442402
 20
2580.168979
 11
1658.442402
 21
2545.168979
  0
LINE
  8
CSLAYER1
  6
CONTINUOUS
 62
     2
 10
1672.942402
 20
2581.668979
 11
1659.942402
 21
2581.668979
  0
LINE
  8
CSLAYER1
  6
CONTINUOUS
 62
     2
 10
1673.442402
 20
2580.168979
 11
1673.442402
 21
2545.168979
  0
LINE
  8
CSLAYER1
  6
CONTINUOUS
 62
     2
 10
1659.442402
 20
2580.168979
 11
1659.442402
 21
2545.168979
  0
LINE
  8
CSLAYER1
  6
CONTINUOUS
 62
     2
 10
1672.942402
 20
2580.668979
 11
1659.942402
 21
2580.668979
  0
LINE
  8
CSLAYER1
  6
CONTINUOUS
 62
     2
 10
1672.942402
 20
2543.668979
 11
1659.942402
 21
2543.668979
  0
LINE
  8
CSLAYER1
  6
CONTINUOUS
 62
     2
 10
1672.942402
 20
2544.668979
 11
1659.942402
 21
2544.668979
  0
ARC
  8
CSLAYER1
  6
CONTINUOUS
 62
     2
 10
1672.942402
 20
2580.168979
 40
0.500000
 50
0.000000
 51
90.000000
  0
ARC
  8
CSLAYER1
  6
CONTINUOUS
 62
     2
 10
1659.942402
 20
2580.168979
 40
0.500000
 50
90.000000
 51
180.000000
  0
ARC
  8
CSLAYER1
  6
CONTINUOUS
 62
     2
 10
1672.942402
 20
2545.168979
 40
0.500000
 50
270.000000
 51
360.000000
  0
ARC
  8
CSLAYER1
  6
CONTINUOUS
 62
     2
 10
1659.942402
 20
2545.168979
 40
0.500000
 50
180.000000
 51
270.000000
  0
ARC
  8
CSLAYER1
  6
CONTINUOUS
 62
     2
 10
1672.942402
 20
2580.168979
 40
1.500000
 50
0.000000
 51
90.000000
  0
ARC
  8
CSLAYER1
  6
CONTINUOUS
 62
     2
 10
1659.942402
 20
2580.168979
 40
1.500000
 50
90.000000
 51
180.000000
  0
ARC
  8
CSLAYER1
  6
CONTINUOUS
 62
     2
 10
1672.942402
 20
2545.168979
 40
1.500000
 50
270.000000
 51
360.000000
  0
ARC
  8
CSLAYER1
  6
CONTINUOUS
 62
     2
 10
1659.942402
 20
2545.168979
 40
1.500000
 50
180.000000
 51
270.000000
  0
LINE
  8
CSLAYER1
  6
CONTINUOUS
 62
     2
 10
1669.442402
 20
2571.668979
 11
1669.442402
 21
2553.668979
  0
LINE
  8
CSLAYER1
  6
CONTINUOUS
 62
     2
 10
1672.520474
 20
2562.668979
 11
1669.442402
 21
2553.668979
  0
LINE
  8
CSLAYER1
  6
CONTINUOUS
 62
     2
 10
1672.520474
 20
2562.668979
 11
1669.442402
 21
2571.668979
  0
TEXT
  8
CSLAYER1
 62
     2
 10
1661.148367
 20
2571.649101
 40
7.066058
 41
1.574983
  1
UP
 50
270.000000
 51
0.000000
  7
EASYDRAW_FONT
 72
     5
 11
1661.148367
 21
2553.100899
  0
LINE
  8
CSLAYER1
  6
CONTINUOUS
 62
     2
 10
1674.442402
 20
2635.168979
 11
1674.442402
 21
2670.168979
  0
LINE
  8
CSLAYER1
  6
CONTINUOUS
 62
     2
 10
1658.442402
 20
2635.168979
 11
1658.442402
 21
2670.168979
  0
LINE
  8
CSLAYER1
  6
CONTINUOUS
 62
     2
 10
1672.942402
 20
2633.668979
 11
1659.942402
 21
2633.668979
  0
LINE
  8
CSLAYER1
  6
CONTINUOUS
 62
     2
 10
1673.442402
 20
2635.168979
 11
1673.442402
 21
2670.168979
  0
LINE
  8
CSLAYER1
  6
CONTINUOUS
 62
     2
 10
1659.442402
 20
2635.168979
 11
1659.442402
 21
2670.168979
  0
LINE
  8
CSLAYER1
  6
CONTINUOUS
 62
     2
 10
1672.942402
 20
2634.668979
 11
1659.942402
 21
2634.668979
  0
LINE
  8
CSLAYER1
  6
CONTINUOUS
 62
     2
 10
1672.942402
 20
2671.668979
 11
1659.942402
 21
2671.668979
  0
LINE
  8
CSLAYER1
  6
CONTINUOUS
 62
     2
 10
1672.942402
 20
2670.668979
 11
1659.942402
 21
2670.668979
  0
ARC
  8
CSLAYER1
  6
CONTINUOUS
 62
     2
 10
1672.942402
 20
2635.168979
 40
0.500000
 50
270.000000
 51
360.000000
  0
ARC
  8
CSLAYER1
  6
CONTINUOUS
 62
     2
 10
1659.942402
 20
2635.168979
 40
0.500000
 50
180.000000
 51
270.000000
  0
ARC
  8
CSLAYER1
  6
CONTINUOUS
 62
     2
 10
1672.942402
 20
2670.168979
 40
0.500000
 50
0.000000
 51
90.000000
  0
ARC
  8
CSLAYER1
  6
CONTINUOUS
 62
     2
 10
1659.942402
 20
2670.168979
 40
0.500000
 50
90.000000
 51
180.000000
  0
ARC
  8
CSLAYER1
  6
CONTINUOUS
 62
     2
 10
1672.942402
 20
2635.168979
 40
1.500000
 50
270.000000
 51
360.000000
  0
ARC
  8
CSLAYER1
  6
CONTINUOUS
 62
     2
 10
1659.942402
 20
2635.168979
 40
1.500000
 50
180.000000
 51
270.000000
  0
ARC
  8
CSLAYER1
  6
CONTINUOUS
 62
     2
 10
1672.942402
 20
2670.168979
 40
1.500000
 50
0.000000
 51
90.000000
  0
ARC
  8
CSLAYER1
  6
CONTINUOUS
 62
     2
 10
1659.942402
 20
2670.168979
 40
1.500000
 50
90.000000
 51
180.000000
  0
LINE
  8
CSLAYER1
  6
CONTINUOUS
 62
     2
 10
1663.969472
 20
2643.668979
 11
1663.969472
 21
2661.668979
  0
LINE
  8
CSLAYER1
  6
CONTINUOUS
 62
     2
 10
1660.891400
 20
2652.668979
 11
1663.969472
 21
2661.668979
  0
LINE
  8
CSLAYER1
  6
CONTINUOUS
 62
     2
 10
1660.891400
 20
2652.668979
 11
1663.969472
 21
2643.668979
  0
TEXT
  8
CSLAYER1
 62
     2
 10
1665.579453
 20
2667.366914
 40
6.383575
 41
1.255870
  1
DOWN
 50
270.000000
 51
0.000000
  7
EASYDRAW_FONT
 72
     5
 11
1665.579453
 21
2637.971465
  0
ENDBLK
  8
0
  0
ENDSEC
  0
SECTION
  2
ENTITIES
  0
LINE
  8
CSLAYER1
  6
CONTINUOUS
 62
     3
 10
180.707488
 20
3599.850540
 11
180.707488
 21
75.393795
  0
LINE
  8
CSLAYER1
  6
CONTINUOUS
 62
     3
 10
5161.512127
 20
3599.850540
 11
180.707488
 21
3599.850540
  0
LINE
  8
CSLAYER1
  6
CONTINUOUS
 62
     3
 10
5161.512127
 20
75.393795
 11
180.707488
 21
75.393795
  0
LINE
  8
CSLAYER1
  6
CONTINUOUS
 62
     3
 10
5161.512127
 20
75.393795
 11
5161.512127
 21
3599.850540
  0
LINE
  8
CSLAYER1
  6
CONTINUOUS
 62
     5
 10
105.707488
 20
1815.393795
 11
30.707488
 21
1815.393795
  0
LINE
  8
CSLAYER1
  6
CONTINUOUS
 62
     5
 10
3961.512127
 20
735.393795
 11
5161.512127
 21
735.393795
  0
LINE
  8
CSLAYER1
  6
CONTINUOUS
 62
     5
 10
3961.512127
 20
195.393795
 11
5161.512127
 21
195.393795
  0
LINE
  8
CSLAYER1
  6
CONTINUOUS
 62
     5
 10
3961.512127
 20
435.393795
 11
5161.512127
 21
435.393795
  0
LINE
  8
CSLAYER1
  6
CONTINUOUS
 62
     5
 10
3961.512127
 20
525.393795
 11
5161.512127
 21
525.393795
  0
LINE
  8
CSLAYER1
  6
CONTINUOUS
 62
     5
 10
3961.512127
 20
615.393795
 11
5161.512127
 21
615.393795
  0
LINE
  8
CSLAYER1
  6
CONTINUOUS
 62
     5
 10
3961.512127
 20
855.393795
 11
5161.512127
 21
855.393795
  0
LINE
  8
CSLAYER1
  6
CONTINUOUS
 62
     5
 10
3961.512127
 20
975.393795
 11
3961.512127
 21
75.393795
  0
LINE
  8
CSLAYER1
  6
CONTINUOUS
 62
     5
 10
4261.512127
 20
975.393795
 11
4261.512127
 21
615.393795
  0
LINE
  8
CSLAYER1
  6
CONTINUOUS
 62
     5
 10
3961.512127
 20
975.393795
 11
5161.512127
 21
975.393795
  0
LINE
  8
CSLAYER1
  6
CONTINUOUS
 62
     5
 10
4711.512127
 20
615.393795
 11
4711.512127
 21
195.393795
  0
TEXT
  8
CSLAYER1
 62
     3
 10
4291.048678
 20
88.237877
 40
89.070541
 41
1.003345
  1
東正車輌株式会社
 50
0.000000
 51
0.000000
  7
EASYDRAW_FONT
 72
     5
 11
4976.207181
 21
88.237877
  0
LINE
  8
CSLAYER1
  6
CONTINUOUS
 62
     5
 10
4336.512127
 20
525.393795
 11
4336.512127
 21
195.393795
  0
TEXT
  8
CSLAYER1
 62
     5
 10
4006.511719
 20
877.893738
 40
75.000000
 41
1.050000
  1
品　名
 50
0.000000
 51
0.000000
  7
EASYDRAW_FONT
 72
     5
 11
4216.511719
 21
877.893738
  0
TEXT
  8
CSLAYER1
 62
     5
 10
4006.511719
 20
757.893738
 40
75.000000
 41
1.050000
  1
型　式
 50
0.000000
 51
0.000000
  7
EASYDRAW_FONT
 72
     5
 11
4216.511719
 21
757.893738
  0
TEXT
  8
CSLAYER1
 62
     5
 10
3969.011719
 20
637.893799
 40
75.000000
 41
1.036364
  1
図面番号
 50
0.000000
 51
0.000000
  7
EASYDRAW_FONT
 72
     5
 11
4254.011719
 21
637.893799
  0
TEXT
  8
CSLAYER1
 62
     5
 10
4036.511719
 20
532.893799
 40
75.000000
 41
0.827586
  1
平成２８年４月１６日
 50
0.000000
 51
0.000000
  7
EASYDRAW_FONT
 72
     5
 11
4636.511719
 21
532.893799
  0
TEXT
  8
CSLAYER1
 62
     5
 10
4831.511719
 20
532.893799
 40
75.000000
 41
1.050000
  1
Ｂ－４
 50
0.000000
 51
0.000000
  7
EASYDRAW_FONT
 72
     5
 11
5041.511719
 21
532.893799
  0
TEXT
  8
CSLAYER1
 62
     5
 10
4044.011719
 20
442.893799
 40
75.000000
 41
1.050000
  1
検　図
 50
0.000000
 51
0.000000
  7
EASYDRAW_FONT
 72
     5
 11
4254.011719
 21
442.893799
  0
TEXT
  8
CSLAYER1
 62
     5
 10
4419.011719
 20
442.893799
 40
75.000000
 41
1.050000
  1
作　図
 50
0.000000
 51
0.000000
  7
EASYDRAW_FONT
 72
     5
 11
4629.011719
 21
442.893799
  0
TEXT
  8
CSLAYER1
 62
     5
 10
4831.511719
 20
442.893799
 40
75.000000
 41
1.050000
  1
尺　度
 50
0.000000
 51
0.000000
  7
EASYDRAW_FONT
 72
     5
 11
5041.511719
 21
442.893799
  0
TEXT
  8
CSLAYER1
 62
     5
 10
4982.620117
 20
217.121689
 40
75.000000
 41
1.080000
  1
１５
 50
0.000000
 51
0.000000
  7
EASYDRAW_FONT
 72
     5
 11
5117.620117
 21
217.121689
  0
TEXT
  8
CSLAYER1
 62
     5
 10
4952.140625
 20
288.678741
 40
75.000000
 41
1.200000
  1
／
 50
0.000000
 51
0.000000
  7
EASYDRAW_FONT
 72
     5
 11
5012.140625
 21
288.678741
  0
TEXT
  8
CSLAYER1
 62
     5
 10
4906.821289
 20
341.153900
 40
75.000000
 41
1.200000
  1
１
 50
0.000000
 51
0.000000
  7
EASYDRAW_FONT
 72
     5
 11
4966.821289
 21
341.153900
  0
TEXT
  8
CSLAYER1
 62
     3
 10
4471.511719
 20
877.893738
 40
75.000000
 41
0.834783
  1
ゴールドリフター
 50
0.000000
 51
0.000000
  7
EASYDRAW_FONT
 72
     5
 11
4951.511719
 21
877.893738
  0
TEXT
  8
CSLAYER1
 62
     3
 10
4561.511719
 20
637.893799
 40
75.000000
 41
0.857143
  1
ＧＩ－１３
 50
0.000000
 51
0.000000
  7
EASYDRAW_FONT
 72
     5
 11
4861.511719
 21
637.893799
  0
INSERT
  8
CSLAYER1
  2
BLKF0000
 10
0.0
 20
0.0
 30
0.0
  0
TEXT
  8
CSLAYER1
 62
     5
 10
3764.010279
 20
717.198669
 40
41.233814
 41
0.726099
  1
Ｆ.Ｌ
 50
0.000000
 51
0.000000
  7
EASYDRAW_FONT
 72
     5
 11
3843.849854
 21
717.198669
  0
LINE
  8
CSLAYER1
  6
CONTINUOUS
 62
     3
 10
2092.794555
 20
3013.687855
 11
2892.794555
 21
3013.687855
  0
LINE
  8
CSLAYER1
  6
CONTINUOUS
 62
     3
 10
2092.794555
 20
2513.687855
 11
2092.794555
 21
3013.687855
  0
LINE
  8
CSLAYER1
  6
CENTER
 62
     5
 10
2092.794555
 20
2763.687855
 11
2892.794555
 21
2763.687855
  0
LINE
  8
CSLAYER1
  6
CONTINUOUS
 62
     3
 10
2092.794555
 20
2513.687855
 11
2892.794555
 21
2513.687855
  0
LINE
  8
CSLAYER1
  6
CONTINUOUS
 62
     3
 10
2892.794555
 20
2513.687855
 11
2892.794555
 21
3013.687855
  0
ARC
  8
CSLAYER1
  6
CONTINUOUS
 62
     7
 10
2119.994555
 20
1327.962716
 40
16.000000
 50
40.170329
 51
190.170329
  0
LINE
  8
CSLAYER1
  6
CONTINUOUS
 62
     7
 10
2581.443895
 20
1849.784394
 11
2391.582429
 21
1624.877544
  0
LINE
  8
CSLAYER1
  6
CONTINUOUS
 62
     7
 10
2104.245960
 20
1330.787917
 11
2116.656923
 21
1399.970694
  0
LINE
  8
CSLAYER1
  6
CONTINUOUS
 62
     7
 10
2581.443895
 20
1849.784394
 11
2592.214990
 21
1909.826010
  0
POINT
  8
CSLAYER1
 62
     7
 10
2119.994555
 20
1327.962716
  0
LINE
  8
CSLAYER1
  6
CENTER
 62
     5
 10
2578.106263
 20
1921.792372
 11
2119.994555
 21
1327.962716
  0
POINT
  8
CSLAYER1
 62
     7
 10
2349.050409
 20
1624.877544
  0
LINE
  8
CSLAYER1
  6
CONTINUOUS
 62
     7
 10
2116.656923
 20
1399.970694
 11
2306.518389
 21
1624.877544
  0
LINE
  8
CSLAYER1
  6
CONTINUOUS
 62
     7
 10
2116.656923
 20
1255.954738
 11
2535.640878
 21
759.633060
  0
LINE
  8
CSLAYER1
  6
CONTINUOUS
 62
     7
 10
2581.443895
 20
806.141038
 11
2132.220638
 21
1338.283709
  0
LINE
  8
CSLAYER1
  6
CONTINUOUS
 62
     7
 10
2104.245960
 20
1325.137515
 11
2116.656923
 21
1255.954738
  0
LINE
  8
CSLAYER1
  6
CONTINUOUS
 62
     7
 10
2581.443895
 20
806.141038
 11
2589.787139
 21
759.633060
  0
POINT
  8
CSLAYER1
 62
     7
 10
2578.106263
 20
734.133060
  0
LINE
  8
CSLAYER1
  6
CENTER
 62
     5
 10
2578.106263
 20
734.133060
 11
2119.994555
 21
1327.962716
  0
POINT
  8
CSLAYER1
 62
     7
 10
2349.050409
 20
1031.047888
  0
CIRCLE
  8
CSLAYER1
  6
DASHED
 62
     5
 10
2578.106263
 20
734.133060
 40
9.000000
  0
CIRCLE
  8
CSLAYER1
  6
DASHED
 62
     5
 10
2578.106263
 20
734.133060
 40
18.500000
  0
POINT
  8
CSLAYER1
 62
     4
 10
2578.106263
 20
734.133060
  0
POINT
  8
CSLAYER1
 62
     3
 10
2119.994555
 20
734.133060
  0
LINE
  8
CSLAYER1
  6
CONTINUOUS
 62
     3
 10
2091.994555
 20
759.633060
 11
2091.994555
 21
709.633060
  0
LINE
  8
CSLAYER1
  6
CONTINUOUS
 62
     3
 10
2091.994555
 20
759.633060
 11
2890.994555
 21
759.633060
  0
LINE
  8
CSLAYER1
  6
CONTINUOUS
 62
     3
 10
377.218831
 20
709.633060
 11
3841.180800
 21
709.633060
  0
LINE
  8
CSLAYER1
  6
CONTINUOUS
 62
     3
 10
2890.994555
 20
759.633060
 11
2890.994555
 21
709.633060
  0
LINE
  8
CSLAYER1
  6
CENTER
 62
     5
 10
2551.765736
 20
734.133060
 11
2601.969667
 21
734.133060
  0
LINE
  8
CSLAYER1
  6
CENTER
 62
     5
 10
2578.106263
 20
757.487782
 11
2578.106263
 21
712.200732
  0
LINE
  8
CSLAYER1
  6
CONTINUOUS
 62
     3
 10
2098.494555
 20
880.633060
 11
2117.494555
 21
880.633060
  0
LINE
  8
CSLAYER1
  6
CONTINUOUS
 62
     3
 10
2098.494555
 20
890.633060
 11
2117.494555
 21
890.633060
  0
LINE
  8
CSLAYER1
  6
CONTINUOUS
 62
     3
 10
2097.024900
 20
889.784555
 11
2097.024900
 21
881.481566
  0
LINE
  8
CSLAYER1
  6
CONTINUOUS
 62
     3
 10
2102.509727
 20
889.784555
 11
2102.509727
 21
881.481566
  0
LINE
  8
CSLAYER1
  6
CONTINUOUS
 62
     3
 10
2098.494555
 20
890.633060
 11
2097.024900
 21
889.784555
  0
ARC
  8
CSLAYER1
  6
CONTINUOUS
 62
     3
 10
2107.994555
 20
872.481566
 40
18.151494
 50
72.412046
 51
107.587954
  0
ARC
  8
CSLAYER1
  6
CONTINUOUS
 62
     3
 10
2099.767313
 20
885.790668
 40
4.844787
 50
55.524449
 51
115.524449
  0
LINE
  8
CSLAYER1
  6
CONTINUOUS
 62
     3
 10
2118.964210
 20
889.784555
 11
2118.964210
 21
881.481566
  0
LINE
  8
CSLAYER1
  6
CONTINUOUS
 62
     3
 10
2113.479382
 20
889.784555
 11
2113.479382
 21
881.481566
  0
LINE
  8
CSLAYER1
  6
CONTINUOUS
 62
     3
 10
2117.494555
 20
890.633060
 11
2118.964210
 21
889.784555
  0
ARC
  8
CSLAYER1
  6
CONTINUOUS
 62
     3
 10
2116.221796
 20
885.790668
 40
4.844787
 50
64.475551
 51
124.475551
  0
LINE
  8
CSLAYER1
  6
CONTINUOUS
 62
     3
 10
2098.494555
 20
880.633060
 11
2097.024900
 21
881.481566
  0
ARC
  8
CSLAYER1
  6
CONTINUOUS
 62
     3
 10
2107.994555
 20
898.784555
 40
18.151494
 50
252.412046
 51
287.587954
  0
ARC
  8
CSLAYER1
  6
CONTINUOUS
 62
     3
 10
2099.767313
 20
885.475453
 40
4.844787
 50
244.475551
 51
304.475551
  0
LINE
  8
CSLAYER1
  6
CONTINUOUS
 62
     3
 10
2117.494555
 20
880.633060
 11
2118.964210
 21
881.481566
  0
ARC
  8
CSLAYER1
  6
CONTINUOUS
 62
     3
 10
2116.221796
 20
885.475453
 40
4.844787
 50
235.524449
 51
295.524449
  0
POINT
  8
CSLAYER1
 62
     3
 10
2107.994555
 20
890.633060
  0
LINE
  8
CSLAYER1
  6
CONTINUOUS
 62
     3
 10
2098.494555
 20
906.433060
 11
2117.494555
 21
906.433060
  0
LINE
  8
CSLAYER1
  6
CONTINUOUS
 62
     3
 10
2097.024900
 20
898.433060
 11
2118.964210
 21
898.433060
  0
LINE
  8
CSLAYER1
  6
CONTINUOUS
 62
     3
 10
2097.024900
 20
905.584555
 11
2097.024900
 21
898.433060
  0
LINE
  8
CSLAYER1
  6
CONTINUOUS
 62
     3
 10
2102.509727
 20
905.584555
 11
2102.509727
 21
898.433060
  0
LINE
  8
CSLAYER1
  6
CONTINUOUS
 62
     3
 10
2098.494555
 20
906.433060
 11
2097.024900
 21
905.584555
  0
ARC
  8
CSLAYER1
  6
CONTINUOUS
 62
     3
 10
2107.994555
 20
888.281566
 40
18.151494
 50
72.412046
 51
107.587954
  0
ARC
  8
CSLAYER1
  6
CONTINUOUS
 62
     3
 10
2099.767313
 20
901.590668
 40
4.844787
 50
55.524449
 51
115.524449
  0
LINE
  8
CSLAYER1
  6
CONTINUOUS
 62
     3
 10
2118.964210
 20
905.584555
 11
2118.964210
 21
898.433060
  0
LINE
  8
CSLAYER1
  6
CONTINUOUS
 62
     3
 10
2113.479382
 20
905.584555
 11
2113.479382
 21
898.433060
  0
LINE
  8
CSLAYER1
  6
CONTINUOUS
 62
     3
 10
2117.494555
 20
906.433060
 11
2118.964210
 21
905.584555
  0
ARC
  8
CSLAYER1
  6
CONTINUOUS
 62
     3
 10
2116.221796
 20
901.590668
 40
4.844787
 50
64.475551
 51
124.475551
  0
LINE
  8
CSLAYER1
  6
CONTINUOUS
 62
     3
 10
2101.994555
 20
898.433060
 11
2102.994555
 21
896.701010
  0
LINE
  8
CSLAYER1
  6
CONTINUOUS
 62
     3
 10
2113.994555
 20
898.433060
 11
2112.994555
 21
896.701010
  0
POINT
  8
CSLAYER1
 62
     3
 10
2107.994555
 20
898.433060
  0
LINE
  8
CSLAYER1
  6
CONTINUOUS
 62
     3
 10
2101.994555
 20
898.433060
 11
2101.994555
 21
890.633060
  0
LINE
  8
CSLAYER1
  6
CONTINUOUS
 62
     3
 10
2102.994555
 20
896.701010
 11
2102.994555
 21
890.633060
  0
LINE
  8
CSLAYER1
  6
CONTINUOUS
 62
     3
 10
2112.994555
 20
896.701010
 11
2112.994555
 21
890.633060
  0
LINE
  8
CSLAYER1
  6
CONTINUOUS
 62
     3
 10
2113.994555
 20
898.433060
 11
2113.994555
 21
890.633060
  0
LINE
  8
CSLAYER1
  6
CENTER
 62
     5
 10
2107.994555
 20
759.633060
 11
2107.994555
 21
906.433060
  0
LINE
  8
CSLAYER1
  6
CONTINUOUS
 62
     3
 10
2097.994555
 20
759.633060
 11
2097.994555
 21
880.633060
  0
LINE
  8
CSLAYER1
  6
CONTINUOUS
 62
     3
 10
2117.994555
 20
807.725575
 11
2117.994555
 21
880.633060
  0
LINE
  8
CSLAYER1
  6
CONTINUOUS
 62
     5
 10
2422.973654
 20
1051.221168
 11
2444.437707
 21
1025.795194
  0
LINE
  8
CSLAYER1
  6
CONTINUOUS
 62
     5
 10
2446.475022
 20
1044.886961
 11
2425.796180
 21
1027.430332
  0
POINT
  8
CSLAYER1
 62
     4
 10
2435.874895
 20
1035.938564
  0
POINT
  8
CSLAYER1
 62
     5
 10
2435.874895
 20
1035.938564
  0
CIRCLE
  8
CSLAYER1
  6
CONTINUOUS
 62
     4
 10
2435.874895
 20
1035.938564
 40
10.000000
  0
ARC
  8
CSLAYER1
  6
CONTINUOUS
 62
     4
 10
2438.167286
 20
1037.873751
 40
20.000000
 50
40.170329
 51
130.170329
  0
LINE
  8
CSLAYER1
  6
CONTINUOUS
 62
     4
 10
2453.449889
 20
1050.774992
 11
2465.846535
 21
1036.090124
  0
ARC
  8
CSLAYER1
  6
CONTINUOUS
 62
     4
 10
2450.563932
 20
1023.188882
 40
20.000000
 50
-16.488964
 51
40.170329
  0
LINE
  8
CSLAYER1
  6
CONTINUOUS
 62
     4
 10
2469.741420
 20
1017.512269
 11
2452.416916
 21
958.984329
  0
LINE
  8
CSLAYER1
  6
CONTINUOUS
 62
     4
 10
2425.266044
 20
1053.156354
 11
2394.700837
 21
1027.353872
  0
LINE
  8
CSLAYER1
  6
CONTINUOUS
 62
     4
 10
2357.933617
 20
970.142234
 11
2345.707534
 21
959.821241
  0
LINE
  8
CSLAYER1
  6
CONTINUOUS
 62
     4
 10
2345.707534
 20
959.821241
 11
2426.340292
 21
864.304968
  0
LINE
  8
CSLAYER1
  6
CONTINUOUS
 62
     4
 10
2438.566374
 20
874.625961
 11
2426.340292
 21
864.304968
  0
POINT
  8
CSLAYER1
 62
     4
 10
2122.838671
 20
1338.198037
  0
LINE
  8
CSLAYER1
  6
CENTER
 62
     5
 10
2122.838671
 20
1338.198037
 11
2113.783856
 21
1437.787245
  0
POINT
  8
CSLAYER1
 62
     4
 10
2113.783856
 20
1437.787245
  0
ARC
  8
CSLAYER1
  6
CONTINUOUS
 62
     4
 10
2113.783856
 20
1437.787245
 40
20.000000
 50
17.161807
 51
179.076890
  0
LINE
  8
CSLAYER1
  6
CONTINUOUS
 62
     4
 10
2092.410526
 20
1352.715624
 11
2093.786452
 21
1438.109458
  0
LINE
  8
CSLAYER1
  6
CONTINUOUS
 62
     4
 10
2132.893361
 20
1443.688669
 11
2138.429468
 21
1425.762103
  0
ARC
  8
CSLAYER1
  6
CONTINUOUS
 62
     4
 10
2094.410266
 20
1352.683403
 40
2.000000
 50
177.071261
 51
240.119957
  0
ARC
  8
CSLAYER1
  6
CONTINUOUS
 62
     4
 10
2122.838671
 20
1338.198037
 40
30.250000
 50
175.960104
 51
237.231731
  0
LINE
  8
CSLAYER1
  6
CONTINUOUS
 62
     4
 10
2163.841805
 20
1316.343690
 11
2152.816163
 21
1313.886580
  0
LINE
  8
CSLAYER1
  6
CONTINUOUS
 62
     4
 10
2202.545529
 20
1362.191501
 11
2163.841805
 21
1316.343690
  0
LINE
  8
CSLAYER1
  6
CONTINUOUS
 62
     4
 10
2247.948481
 20
1454.731071
 11
2202.545529
 21
1362.191501
  0
POINT
  8
CSLAYER1
 62
     4
 10
2119.994555
 20
1327.962716
  0
ARC
  8
CSLAYER1
  6
CONTINUOUS
 62
     7
 10
2578.106263
 20
1327.962716
 40
16.000000
 50
-139.829671
 51
10.170329
  0
LINE
  8
CSLAYER1
  6
CONTINUOUS
 62
     7
 10
2116.656923
 20
1849.784394
 11
2565.880180
 21
1317.641723
  0
LINE
  8
CSLAYER1
  6
CONTINUOUS
 62
     7
 10
2593.854858
 20
1330.787917
 11
2581.443895
 21
1399.970694
  0
LINE
  8
CSLAYER1
  6
CONTINUOUS
 62
     7
 10
2116.656923
 20
1849.784394
 11
2106.968225
 21
1903.792372
  0
POINT
  8
CSLAYER1
 62
     7
 10
2578.106263
 20
1327.962716
  0
LINE
  8
CSLAYER1
  6
CENTER
 62
     5
 10
2129.251992
 20
1909.792372
 11
2578.106263
 21
1327.962716
  0
LINE
  8
CSLAYER1
  6
CONTINUOUS
 62
     7
 10
2581.443895
 20
1399.970694
 11
2149.206342
 21
1911.992372
  0
LINE
  8
CSLAYER1
  6
CONTINUOUS
 62
     7
 10
2349.050409
 20
980.665139
 11
2162.459940
 21
759.633060
  0
LINE
  8
CSLAYER1
  6
CONTINUOUS
 62
     7
 10
2581.443895
 20
1255.954738
 11
2391.582429
 21
1031.047888
  0
LINE
  8
CSLAYER1
  6
CONTINUOUS
 62
     7
 10
2116.656923
 20
806.141038
 11
2306.518389
 21
1031.047888
  0
LINE
  8
CSLAYER1
  6
CONTINUOUS
 62
     7
 10
2593.854858
 20
1325.137515
 11
2581.443895
 21
1255.954738
  0
LINE
  8
CSLAYER1
  6
CONTINUOUS
 62
     7
 10
2116.656923
 20
806.141038
 11
2108.313679
 21
759.633060
  0
POINT
  8
CSLAYER1
 62
     7
 10
2119.994555
 20
734.133060
  0
LINE
  8
CSLAYER1
  6
CENTER
 62
     5
 10
2119.994555
 20
734.133060
 11
2578.106263
 21
1327.962716
  0
CIRCLE
  8
CSLAYER1
  6
CONTINUOUS
 62
     5
 10
2119.994555
 20
1327.962716
 40
9.000000
  0
CIRCLE
  8
CSLAYER1
  6
CONTINUOUS
 62
     5
 10
2578.106263
 20
1327.962716
 40
9.000000
  0
LINE
  8
CSLAYER1
  6
CONTINUOUS
 62
     4
 10
2126.491865
 20
1459.507202
 11
2146.180223
 21
1434.943523
  0
LINE
  8
CSLAYER1
  6
CONTINUOUS
 62
     4
 10
2124.748833
 20
1458.110121
 11
2144.711710
 21
1433.203946
  0
LINE
  8
CSLAYER1
  6
CONTINUOUS
 62
     4
 10
2089.818296
 20
1430.112486
 11
2093.581940
 21
1425.416871
  0
LINE
  8
CSLAYER1
  6
CONTINUOUS
 62
     4
 10
2091.561328
 20
1431.509566
 11
2093.638356
 21
1428.918215
  0
CIRCLE
  8
CSLAYER1
  6
CONTINUOUS
 62
     4
 10
2113.783856
 20
1437.787245
 40
12.500000
  0
LINE
  8
CSLAYER1
  6
CONTINUOUS
 62
     4
 10
2245.520206
 20
1307.566831
 11
2202.130923
 21
1361.700365
  0
LINE
  8
CSLAYER1
  6
CONTINUOUS
 62
     4
 10
2212.201879
 20
1280.861418
 11
2174.060066
 21
1328.448079
  0
LINE
  8
CSLAYER1
  6
CONTINUOUS
 62
     4
 10
2455.590646
 20
1079.295100
 11
2444.252845
 21
1093.440419
  0
LINE
  8
CSLAYER1
  6
CENTER
 62
     5
 10
2447.136011
 20
1044.964610
 11
2424.613779
 21
1026.912518
  0
LINE
  8
CSLAYER1
  6
CENTER
 62
     5
 10
2615.995709
 20
811.215418
 11
2098.773788
 21
1456.514174
  0
LINE
  8
CSLAYER1
  6
CENTER
 62
     5
 10
2500.886729
 20
1028.317985
 11
2455.553151
 21
1084.877269
  0
LINE
  8
CSLAYER1
  6
CONTINUOUS
 62
     4
 10
2496.927939
 20
1047.708264
 11
2488.797486
 21
1057.852017
  0
LINE
  8
CSLAYER1
  6
CONTINUOUS
 62
     4
 10
2494.649651
 20
1062.542664
 11
2464.151675
 21
1038.097828
  0
LINE
  8
CSLAYER1
  6
CONTINUOUS
 62
     4
 10
2523.666108
 20
1012.750142
 11
2496.147650
 21
1047.082845
  0
LINE
  8
CSLAYER1
  6
CONTINUOUS
 62
     4
 10
2496.927939
 20
1047.708264
 11
2470.308920
 21
1026.372503
  0
LINE
  8
CSLAYER1
  6
CONTINUOUS
 62
     4
 10
2514.284816
 20
1024.454472
 11
2458.580192
 21
979.805924
  0
LINE
  8
CSLAYER1
  6
CONTINUOUS
 62
     4
 10
2497.134705
 20
1045.310838
 11
2485.118259
 21
1035.679378
  0
LINE
  8
CSLAYER1
  6
CONTINUOUS
 62
     4
 10
2497.134705
 20
1045.310838
 11
2495.883866
 21
1046.871416
  0
LINE
  8
CSLAYER1
  6
CONTINUOUS
 62
     4
 10
2500.263586
 20
1039.488459
 11
2490.119833
 21
1031.358005
  0
LINE
  8
CSLAYER1
  6
CONTINUOUS
 62
     4
 10
2500.263586
 20
1039.488459
 11
2500.685116
 21
1040.570353
  0
LINE
  8
CSLAYER1
  6
CONTINUOUS
 62
     4
 10
2496.982981
 20
1045.189228
 11
2500.685116
 21
1040.570353
  0
ARC
  8
CSLAYER1
  6
CONTINUOUS
 62
     4
 10
2497.533965
 20
1041.501599
 40
3.285875
 50
273.748601
 51
333.399479
  0
ARC
  8
CSLAYER1
  6
CONTINUOUS
 62
     4
 10
2487.424347
 20
1045.113983
 40
12.419443
 50
291.125030
 51
326.300938
  0
LINE
  8
CSLAYER1
  6
CONTINUOUS
 62
     4
 10
2494.054732
 20
1042.842168
 11
2497.756867
 21
1038.223293
  0
LINE
  8
CSLAYER1
  6
CONTINUOUS
 62
     4
 10
2499.955630
 20
1034.756106
 11
2494.805725
 21
1030.628337
  0
LINE
  8
CSLAYER1
  6
CONTINUOUS
 62
     4
 10
2500.064039
 20
1035.740101
 11
2498.312864
 21
1037.924910
  0
LINE
  8
CSLAYER1
  6
CONTINUOUS
 62
     4
 10
2499.955630
 20
1034.756106
 11
2497.766662
 21
1037.487116
  0
LINE
  8
CSLAYER1
  6
CONTINUOUS
 62
     4
 10
2500.064039
 20
1035.740101
 11
2499.955630
 21
1034.756106
  0
LINE
  8
CSLAYER1
  6
CONTINUOUS
 62
     4
 10
2500.064039
 20
1035.740101
 11
2493.821729
 21
1030.736745
  0
LINE
  8
CSLAYER1
  6
CONTINUOUS
 62
     4
 10
2485.118259
 20
1035.679378
 11
2483.867420
 21
1037.239956
  0
LINE
  8
CSLAYER1
  6
CONTINUOUS
 62
     4
 10
2490.119833
 20
1031.358005
 11
2488.972119
 21
1031.182114
  0
LINE
  8
CSLAYER1
  6
CONTINUOUS
 62
     4
 10
2485.269984
 20
1035.800989
 11
2488.972119
 21
1031.182114
  0
ARC
  8
CSLAYER1
  6
CONTINUOUS
 62
     4
 10
2488.749217
 20
1034.460420
 40
3.285875
 50
284.026489
 51
343.677367
  0
LINE
  8
CSLAYER1
  6
CONTINUOUS
 62
     4
 10
2488.198233
 20
1038.148049
 11
2491.900368
 21
1033.529174
  0
LINE
  8
CSLAYER1
  6
CONTINUOUS
 62
     4
 10
2493.821729
 20
1030.736745
 11
2492.070554
 21
1032.921554
  0
LINE
  8
CSLAYER1
  6
CONTINUOUS
 62
     4
 10
2494.805725
 20
1030.628337
 11
2492.616756
 21
1033.359347
  0
LINE
  8
CSLAYER1
  6
CONTINUOUS
 62
     4
 10
2493.821729
 20
1030.736745
 11
2494.805725
 21
1030.628337
  0
LINE
  8
CSLAYER1
  6
CONTINUOUS
 62
     4
 10
2491.117829
 20
1043.051326
 11
2489.456228
 21
1039.156361
  0
LINE
  8
CSLAYER1
  6
CONTINUOUS
 62
     4
 10
2399.963537
 20
1141.741513
 11
2259.254476
 21
1317.293589
  0
LINE
  8
CSLAYER1
  6
CONTINUOUS
 62
     4
 10
2257.848768
 20
1317.448459
 11
2199.873317
 21
1270.979790
  0
LINE
  8
CSLAYER1
  6
CONTINUOUS
 62
     4
 10
2494.649651
 20
1062.542664
 11
2474.636227
 21
1087.511902
  0
LINE
  8
CSLAYER1
  6
CONTINUOUS
 62
     4
 10
2474.636227
 20
1087.511902
 11
2437.650615
 21
1057.867076
  0
LINE
  8
CSLAYER1
  6
CONTINUOUS
 62
     4
 10
2349.804139
 20
1082.323493
 11
2199.718448
 21
1269.574082
  0
LINE
  8
CSLAYER1
  6
CONTINUOUS
 62
     4
 10
2259.254476
 20
1317.293589
 11
2257.848768
 21
1317.448459
  0
LINE
  8
CSLAYER1
  6
CONTINUOUS
 62
     4
 10
2199.718448
 20
1269.574082
 11
2199.873317
 21
1270.979790
  0
LINE
  8
CSLAYER1
  6
CENTER
 62
     5
 10
2356.183774
 20
1204.029707
 11
2346.979960
 21
1196.652636
  0
LINE
  8
CSLAYER1
  6
CONTINUOUS
 62
     4
 10
2350.404910
 20
1208.368852
 11
2359.160783
 21
1197.444811
  0
LINE
  8
CSLAYER1
  6
CONTINUOUS
 62
     4
 10
2350.404910
 20
1208.368852
 11
2347.751334
 21
1206.882738
  0
LINE
  8
CSLAYER1
  6
CONTINUOUS
 62
     4
 10
2359.160783
 20
1197.444811
 11
2357.132627
 21
1195.178408
  0
LINE
  8
CSLAYER1
  6
CONTINUOUS
 62
     4
 10
2463.363836
 20
1085.525492
 11
2453.220082
 21
1077.395038
  0
LINE
  8
CSLAYER1
  6
CONTINUOUS
 62
     4
 10
2464.511549
 20
1085.701383
 11
2467.588265
 21
1081.862797
  0
LINE
  8
CSLAYER1
  6
CONTINUOUS
 62
     4
 10
2461.583300
 20
1083.354323
 11
2464.660016
 21
1079.515737
  0
LINE
  8
CSLAYER1
  6
CONTINUOUS
 62
     4
 10
2463.363836
 20
1085.525492
 11
2464.511549
 21
1085.701383
  0
ARC
  8
CSLAYER1
  6
CONTINUOUS
 62
     4
 10
2464.714120
 20
1082.448443
 40
3.259241
 50
103.147085
 51
164.084602
  0
ARC
  8
CSLAYER1
  6
CONTINUOUS
 62
     4
 10
2466.059321
 20
1071.769514
 40
12.419443
 50
111.125030
 51
146.300938
  0
LINE
  8
CSLAYER1
  6
CONTINUOUS
 62
     4
 10
2452.798552
 20
1076.313144
 11
2455.875268
 21
1072.474558
  0
LINE
  8
CSLAYER1
  6
CONTINUOUS
 62
     4
 10
2455.726801
 20
1078.660204
 11
2458.803517
 21
1074.821618
  0
LINE
  8
CSLAYER1
  6
CONTINUOUS
 62
     4
 10
2453.220082
 20
1077.395038
 11
2452.798552
 21
1076.313144
  0
ARC
  8
CSLAYER1
  6
CONTINUOUS
 62
     4
 10
2455.929372
 20
1075.407264
 40
3.259241
 50
93.341366
 51
154.278882
  0
LINE
  8
CSLAYER1
  6
CONTINUOUS
 62
     4
 10
2659.370253
 20
856.233737
 11
2583.383571
 21
795.328649
  0
LINE
  8
CSLAYER1
  6
CONTINUOUS
 62
     4
 10
2536.478294
 20
1006.358906
 11
2462.488159
 21
947.054097
  0
LINE
  8
CSLAYER1
  6
CONTINUOUS
 62
     4
 10
2659.370253
 20
856.233737
 11
2623.095922
 21
901.490481
  0
LINE
  8
CSLAYER1
  6
CONTINUOUS
 62
     4
 10
2621.535345
 20
900.239642
 11
2531.474938
 21
1012.601215
  0
LINE
  8
CSLAYER1
  6
CONTINUOUS
 62
     4
 10
2659.370253
 20
856.233737
 11
2650.328412
 21
838.733876
  0
LINE
  8
CSLAYER1
  6
CONTINUOUS
 62
     4
 10
2584.991610
 20
786.364913
 11
2650.328412
 21
838.733876
  0
LINE
  8
CSLAYER1
  6
CONTINUOUS
 62
     4
 10
2528.663521
 20
1012.910954
 11
2456.035451
 21
954.697871
  0
ARC
  8
CSLAYER1
  6
CONTINUOUS
 62
     4
 10
2526.006974
 20
1014.626400
 40
3.000000
 50
218.712984
 51
308.712984
  0
LINE
  8
CSLAYER1
  6
CONTINUOUS
 62
     4
 10
2587.982931
 20
873.346604
 11
2502.925879
 21
979.465867
  0
LINE
  8
CSLAYER1
  6
CONTINUOUS
 62
     4
 10
2594.225240
 20
878.349960
 11
2509.168189
 21
984.469223
  0
LINE
  8
CSLAYER1
  6
CONTINUOUS
 62
     4
 10
2599.687261
 20
882.727897
 11
2514.630210
 21
988.847160
  0
LINE
  8
CSLAYER1
  6
CONTINUOUS
 62
     4
 10
2615.293035
 20
895.236286
 11
2530.235984
 21
1001.355550
  0
LINE
  8
CSLAYER1
  6
CONTINUOUS
 62
     4
 10
2616.853613
 20
896.487125
 11
2531.796561
 21
1002.606389
  0
LINE
  8
CSLAYER1
  6
CONTINUOUS
 62
     4
 10
2549.748784
 20
842.701049
 11
2464.691733
 21
948.820312
  0
LINE
  8
CSLAYER1
  6
CONTINUOUS
 62
     4
 10
2555.210805
 20
847.078985
 11
2470.153754
 21
953.198249
  0
LINE
  8
CSLAYER1
  6
CONTINUOUS
 62
     4
 10
2561.453115
 20
852.082341
 11
2476.396064
 21
958.201605
  0
ARC
  8
CSLAYER1
  6
CONTINUOUS
 62
     4
 10
2529.914360
 20
1011.350376
 40
2.000000
 50
38.712984
 51
128.712984
  0
LINE
  8
CSLAYER1
  6
CONTINUOUS
 62
     4
 10
2105.406242
 20
1461.830240
 11
2092.141334
 21
1451.198109
  0
LINE
  8
CSLAYER1
  6
CONTINUOUS
 62
     4
 10
2105.406242
 20
1461.830240
 11
2126.491865
 21
1459.507202
  0
LINE
  8
CSLAYER1
  6
CONTINUOUS
 62
     4
 10
2126.491865
 20
1459.507202
 11
2124.748833
 21
1458.110121
  0
LINE
  8
CSLAYER1
  6
CONTINUOUS
 62
     4
 10
2124.748833
 20
1458.110121
 11
2107.514804
 21
1461.597936
  0
LINE
  8
CSLAYER1
  6
CONTINUOUS
 62
     4
 10
2107.514804
 20
1461.597936
 11
2091.909030
 21
1449.089546
  0
LINE
  8
CSLAYER1
  6
CONTINUOUS
 62
     4
 10
2092.141334
 20
1451.198109
 11
2089.818296
 21
1430.112486
  0
LINE
  8
CSLAYER1
  6
CONTINUOUS
 62
     4
 10
2089.818296
 20
1430.112486
 11
2091.561328
 21
1431.509566
  0
LINE
  8
CSLAYER1
  6
CONTINUOUS
 62
     4
 10
2091.561328
 20
1431.509566
 11
2091.909030
 21
1449.089546
  0
LINE
  8
CSLAYER1
  6
CONTINUOUS
 62
     3
 10
2179.794555
 20
772.315476
 11
2179.794555
 21
759.633060
  0
LINE
  8
CSLAYER1
  6
CENTER
 62
     5
 10
1973.426912
 20
787.933060
 11
2097.994555
 21
787.933060
  0
LINE
  8
CSLAYER1
  6
CONTINUOUS
 62
     3
 10
1973.426912
 20
791.733060
 11
2097.994555
 21
791.733060
  0
LINE
  8
CSLAYER1
  6
CONTINUOUS
 62
     3
 10
1973.426912
 20
784.133060
 11
2097.994555
 21
784.133060
  0
LINE
  8
CSLAYER1
  6
CONTINUOUS
 62
     3
 10
2312.194555
 20
802.933060
 11
2312.194555
 21
759.633060
  0
LINE
  8
CSLAYER1
  6
CONTINUOUS
 62
     3
 10
2313.494555
 20
808.933060
 11
2250.994555
 21
808.933060
  0
LINE
  8
CSLAYER1
  6
CONTINUOUS
 62
     3
 10
2313.494555
 20
802.933060
 11
2258.832581
 21
802.933060
  0
LINE
  8
CSLAYER1
  6
CONTINUOUS
 62
     3
 10
2313.494555
 20
808.933060
 11
2313.494555
 21
802.933060
  0
LINE
  8
CSLAYER1
  6
CONTINUOUS
 62
     3
 10
2313.344555
 20
798.433060
 11
2312.194555
 21
798.433060
  0
LINE
  8
CSLAYER1
  6
CONTINUOUS
 62
     3
 10
2314.344555
 20
797.433060
 11
2314.344555
 21
778.433060
  0
ARC
  8
CSLAYER1
  6
CONTINUOUS
 62
     3
 10
2313.344555
 20
797.433060
 40
1.000000
 50
0.000000
 51
90.000000
  0
ARC
  8
CSLAYER1
  6
CONTINUOUS
 62
     3
 10
2313.344555
 20
778.433060
 40
1.000000
 50
270.000000
 51
360.000000
  0
ARC
  8
CSLAYER1
  6
CONTINUOUS
 62
     3
 10
2314.344555
 20
755.782926
 40
28.654497
 50
17.068130
 51
90.000000
  0
ARC
  8
CSLAYER1
  6
CONTINUOUS
 62
     3
 10
2314.344555
 20
755.782926
 40
35.653641
 50
17.069547
 51
90.000000
  0
LINE
  8
CSLAYER1
  6
CONTINUOUS
 62
     3
 10
2348.427623
 20
766.248420
 11
2350.458925
 21
759.633060
  0
LINE
  8
CSLAYER1
  6
CONTINUOUS
 62
     3
 10
2341.737006
 20
764.193268
 11
2343.137132
 21
759.633060
  0
LINE
  8
CSLAYER1
  6
CONTINUOUS
 62
     3
 10
2313.344555
 20
777.433060
 11
2312.194555
 21
777.433060
  0
LINE
  8
CSLAYER1
  6
CONTINUOUS
 62
     4
 10
2418.388873
 20
1047.350796
 11
2421.291652
 21
1043.912210
  0
LINE
  8
CSLAYER1
  6
CONTINUOUS
 62
     4
 10
2421.291652
 20
1043.912210
 11
2397.603616
 21
1023.915286
  0
LINE
  8
CSLAYER1
  6
CONTINUOUS
 62
     7
 10
2257.994555
 20
780.633060
 11
2207.517564
 21
780.633060
  0
LINE
  8
CSLAYER1
  6
CONTINUOUS
 62
     7
 10
2257.994555
 20
780.633060
 11
2257.994555
 21
759.633060
  0
LINE
  8
CSLAYER1
  6
CONTINUOUS
 62
     3
 10
2178.767230
 20
778.950415
 11
2178.855738
 21
777.713420
  0
LINE
  8
CSLAYER1
  6
CONTINUOUS
 62
     3
 10
2180.993375
 20
775.861256
 11
2205.031920
 21
777.581233
  0
CIRCLE
  8
CSLAYER1
  6
CONTINUOUS
 62
     3
 10
2184.797446
 20
780.143667
 40
2.250000
  0
CIRCLE
  8
CSLAYER1
  6
CONTINUOUS
 62
     3
 10
2202.680179
 20
782.425746
 40
1.000000
  0
LINE
  8
CSLAYER1
  6
CONTINUOUS
 62
     3
 10
2178.855738
 20
777.713420
 11
2180.993375
 21
775.861256
  0
LINE
  8
CSLAYER1
  6
CONTINUOUS
 62
     3
 10
2204.737852
 20
809.714797
 11
2206.032368
 21
791.622520
  0
LINE
  8
CSLAYER1
  6
CONTINUOUS
 62
     3
 10
2205.485275
 20
778.104463
 11
2205.031920
 21
777.581233
  0
LINE
  8
CSLAYER1
  6
CONTINUOUS
 62
     3
 10
2211.462184
 20
817.680334
 11
2207.334444
 21
778.913224
  0
LINE
  8
CSLAYER1
  6
CONTINUOUS
 62
     3
 10
2210.311382
 20
816.317112
 11
2207.663526
 21
791.448842
  0
LINE
  8
CSLAYER1
  6
CONTINUOUS
 62
     3
 10
2206.234188
 20
778.024722
 11
2199.273534
 21
778.765860
  0
LINE
  8
CSLAYER1
  6
CONTINUOUS
 62
     3
 10
2207.663526
 20
791.448842
 11
2200.702871
 21
792.189980
  0
LINE
  8
CSLAYER1
  6
CONTINUOUS
 62
     3
 10
2200.702871
 20
792.189980
 11
2199.273534
 21
778.765860
  0
ARC
  8
CSLAYER1
  6
CONTINUOUS
 62
     3
 10
2206.340065
 20
779.019101
 40
1.000000
 50
263.922313
 51
353.922313
  0
LINE
  8
CSLAYER1
  6
CONTINUOUS
 62
     3
 10
2208.457602
 20
798.906686
 11
2205.488561
 21
799.222816
  0
LINE
  8
CSLAYER1
  6
CONTINUOUS
 62
     3
 10
2208.563479
 20
799.901066
 11
2205.416054
 21
800.236189
  0
CIRCLE
  8
CSLAYER1
  6
CONTINUOUS
 62
     3
 10
2191.994555
 20
770.633060
 40
3.500000
  0
LINE
  8
CSLAYER1
  6
CONTINUOUS
 62
     3
 10
2178.859652
 20
779.059896
 11
2179.312324
 21
772.733307
  0
LINE
  8
CSLAYER1
  6
CONTINUOUS
 62
     3
 10
2201.965188
 20
806.430344
 11
2203.001609
 21
791.945221
  0
LINE
  8
CSLAYER1
  6
CONTINUOUS
 62
     3
 10
2190.000508
 20
763.472489
 11
2194.987758
 21
763.829331
  0
CIRCLE
  8
CSLAYER1
  6
CONTINUOUS
 62
     3
 10
2184.797446
 20
780.143667
 40
2.000000
  0
CIRCLE
  8
CSLAYER1
  6
CONTINUOUS
 62
     3
 10
2191.994555
 20
770.633060
 40
3.000000
  0
LINE
  8
CSLAYER1
  6
CONTINUOUS
 62
     3
 10
2204.248575
 20
774.517514
 11
2194.987758
 21
763.829331
  0
LINE
  8
CSLAYER1
  6
CONTINUOUS
 62
     3
 10
2179.312324
 20
772.733307
 11
2190.000508
 21
763.472489
  0
LINE
  8
CSLAYER1
  6
CONTINUOUS
 62
     3
 10
2204.034470
 20
777.509865
 11
2204.248575
 21
774.517514
  0
LINE
  8
CSLAYER1
  6
CONTINUOUS
 62
     2
 10
2164.047489
 20
760.957403
 11
2163.798352
 21
759.988935
  0
LINE
  8
CSLAYER1
  6
CONTINUOUS
 62
     7
 10
2349.050409
 20
1675.260293
 11
2548.894476
 21
1911.992372
  0
LINE
  8
CSLAYER1
  6
CONTINUOUS
 62
     7
 10
2349.050409
 20
1574.494795
 11
2140.933395
 21
1327.962716
  0
LINE
  8
CSLAYER1
  6
CONTINUOUS
 62
     7
 10
2349.050409
 20
1081.430637
 11
2557.167423
 21
1327.962716
  0
LINE
  8
CSLAYER1
  6
CONTINUOUS
 62
     4
 10
2550.244986
 20
843.098766
 11
2623.095922
 21
901.490481
  0
POINT
  8
CSLAYER1
 62
     5
 10
2202.680179
 20
782.425746
  0
POINT
  8
CSLAYER1
 62
     5
 10
2191.994555
 20
770.633060
  0
LINE
  8
CSLAYER1
  6
CONTINUOUS
 62
     3
 10
2209.525163
 20
808.933060
 11
2204.793786
 21
808.933060
  0
LINE
  8
CSLAYER1
  6
CONTINUOUS
 62
     3
 10
2208.886311
 20
802.933060
 11
2205.223091
 21
802.933060
  0
POINT
  8
CSLAYER1
 62
     5
 10
2184.797446
 20
780.143667
  0
LINE
  8
CSLAYER1
  6
CENTER
 62
     5
 10
2099.490415
 20
734.133060
 11
2141.171262
 21
734.133060
  0
LINE
  8
CSLAYER1
  6
CENTER
 62
     5
 10
2119.994555
 20
751.283629
 11
2119.994555
 21
717.482743
  0
LINE
  8
CSLAYER1
  6
CENTER
 62
     5
 10
2113.783856
 20
1457.787245
 11
2113.783856
 21
1414.526665
  0
LINE
  8
CSLAYER1
  6
CENTER
 62
     5
 10
2087.431108
 20
1437.787245
 11
2138.814350
 21
1437.787245
  0
LINE
  8
CSLAYER1
  6
CONTINUOUS
 62
     3
 10
2229.156529
 20
802.933060
 11
2209.891964
 21
802.933060
  0
LINE
  8
CSLAYER1
  6
CONTINUOUS
 62
     3
 10
2236.994555
 20
808.933060
 11
2210.530816
 21
808.933060
  0
LINE
  8
CSLAYER1
  6
CONTINUOUS
 62
     7
 10
2252.494555
 20
808.633060
 11
2235.494555
 21
808.633060
  0
LINE
  8
CSLAYER1
  6
CONTINUOUS
 62
     7
 10
2255.494555
 20
785.633060
 11
2232.494555
 21
785.633060
  0
LINE
  8
CSLAYER1
  6
CONTINUOUS
 62
     7
 10
2256.994555
 20
805.523966
 11
2230.994555
 21
805.523966
  0
LINE
  8
CSLAYER1
  6
CONTINUOUS
 62
     7
 10
2256.994555
 20
789.175152
 11
2230.994555
 21
789.175152
  0
ARC
  8
CSLAYER1
  6
CONTINUOUS
 62
     7
 10
2252.494555
 20
805.633060
 40
3.000000
 50
0.000000
 51
90.000000
  0
LINE
  8
CSLAYER1
  6
CONTINUOUS
 62
     7
 10
2255.494555
 20
785.633060
 11
2256.984936
 21
784.772588
  0
ARC
  8
CSLAYER1
  6
CONTINUOUS
 62
     7
 10
2243.994555
 20
759.587036
 40
26.046025
 50
75.231439
 51
104.768561
  0
ARC
  8
CSLAYER1
  6
CONTINUOUS
 62
     7
 10
2253.809509
 20
779.501467
 40
6.153702
 50
66.825356
 51
121.065581
  0
LINE
  8
CSLAYER1
  6
CONTINUOUS
 62
     7
 10
2250.634083
 20
784.772588
 11
2250.634083
 21
780.633060
  0
LINE
  8
CSLAYER1
  6
CONTINUOUS
 62
     7
 10
2256.984936
 20
784.772588
 11
2256.984936
 21
780.633060
  0
LINE
  8
CSLAYER1
  6
CONTINUOUS
 62
     7
 10
2254.330679
 20
789.175152
 11
2254.330679
 21
785.633060
  0
LINE
  8
CSLAYER1
  6
CONTINUOUS
 62
     7
 10
2253.684301
 20
789.175152
 11
2253.684301
 21
787.568790
  0
LINE
  8
CSLAYER1
  6
CONTINUOUS
 62
     7
 10
2254.330679
 20
787.568790
 11
2233.658431
 21
787.568790
  0
LINE
  8
CSLAYER1
  6
CONTINUOUS
 62
     7
 10
2253.684301
 20
787.568790
 11
2254.330679
 21
786.433938
  0
LINE
  8
CSLAYER1
  6
CONTINUOUS
 62
     7
 10
2232.494555
 20
785.633060
 11
2231.004174
 21
784.772588
  0
ARC
  8
CSLAYER1
  6
CONTINUOUS
 62
     7
 10
2234.179600
 20
779.501467
 40
6.153702
 50
58.934419
 51
113.174644
  0
LINE
  8
CSLAYER1
  6
CONTINUOUS
 62
     7
 10
2237.355027
 20
784.772588
 11
2237.355027
 21
780.633060
  0
LINE
  8
CSLAYER1
  6
CONTINUOUS
 62
     7
 10
2231.004174
 20
784.772588
 11
2231.004174
 21
780.633060
  0
LINE
  8
CSLAYER1
  6
CONTINUOUS
 62
     7
 10
2233.658431
 20
789.175152
 11
2233.658431
 21
785.633060
  0
LINE
  8
CSLAYER1
  6
CONTINUOUS
 62
     7
 10
2234.304808
 20
789.175152
 11
2234.304808
 21
787.568790
  0
LINE
  8
CSLAYER1
  6
CONTINUOUS
 62
     7
 10
2234.304808
 20
787.568790
 11
2233.658431
 21
786.433938
  0
LINE
  8
CSLAYER1
  6
CENTER
 62
     5
 10
2243.994555
 20
856.217658
 11
2243.994555
 21
763.759767
  0
LINE
  8
CSLAYER1
  6
CONTINUOUS
 62
     7
 10
2258.832581
 20
804.462781
 11
2258.832581
 21
790.236336
  0
LINE
  8
CSLAYER1
  6
CONTINUOUS
 62
     7
 10
2251.500108
 20
804.462781
 11
2251.500108
 21
790.236336
  0
LINE
  8
CSLAYER1
  6
CONTINUOUS
 62
     7
 10
2256.994555
 20
805.523966
 11
2258.832581
 21
804.462781
  0
ARC
  8
CSLAYER1
  6
CONTINUOUS
 62
     7
 10
2255.166344
 20
798.662374
 40
6.861924
 50
62.295563
 51
121.731450
  0
ARC
  8
CSLAYER1
  6
CONTINUOUS
 62
     7
 10
2243.994555
 20
778.450712
 40
27.073254
 50
73.904971
 51
106.095029
  0
LINE
  8
CSLAYER1
  6
CONTINUOUS
 62
     7
 10
2256.994555
 20
789.175152
 11
2258.832581
 21
790.236336
  0
ARC
  8
CSLAYER1
  6
CONTINUOUS
 62
     7
 10
2255.166344
 20
796.036743
 40
6.861924
 50
238.268550
 51
297.704437
  0
ARC
  8
CSLAYER1
  6
CONTINUOUS
 62
     7
 10
2243.994555
 20
816.248406
 40
27.073254
 50
253.904971
 51
286.095029
  0
LINE
  8
CSLAYER1
  6
CONTINUOUS
 62
     7
 10
2229.156529
 20
804.462781
 11
2229.156529
 21
790.236336
  0
LINE
  8
CSLAYER1
  6
CONTINUOUS
 62
     7
 10
2236.489001
 20
804.462781
 11
2236.489001
 21
790.236336
  0
LINE
  8
CSLAYER1
  6
CONTINUOUS
 62
     7
 10
2230.994555
 20
805.523966
 11
2229.156529
 21
804.462781
  0
ARC
  8
CSLAYER1
  6
CONTINUOUS
 62
     7
 10
2232.822765
 20
798.662374
 40
6.861924
 50
58.268550
 51
117.704437
  0
LINE
  8
CSLAYER1
  6
CONTINUOUS
 62
     7
 10
2230.994555
 20
789.175152
 11
2229.156529
 21
790.236336
  0
ARC
  8
CSLAYER1
  6
CONTINUOUS
 62
     7
 10
2232.822765
 20
796.036743
 40
6.861924
 50
242.295563
 51
301.731450
  0
ARC
  8
CSLAYER1
  6
CONTINUOUS
 62
     7
 10
2235.494555
 20
805.633060
 40
3.000000
 50
90.000000
 51
180.000000
  0
LINE
  8
CSLAYER1
  6
CONTINUOUS
 62
     7
 10
2250.994555
 20
864.509746
 11
2250.994555
 21
808.633060
  0
LINE
  8
CSLAYER1
  6
CONTINUOUS
 62
     7
 10
2236.994555
 20
847.925570
 11
2236.994555
 21
808.633060
  0
LINE
  8
CSLAYER1
  6
CENTER
 62
     5
 10
1074.432911
 20
709.633060
 11
1074.432911
 21
1956.992372
  0
LINE
  8
CSLAYER1
  6
CONTINUOUS
 62
     3
 10
824.432911
 20
1956.992372
 11
1324.432911
 21
1956.992372
  0
LINE
  8
CSLAYER1
  6
CENTER
 62
     5
 10
879.432911
 20
1624.877544
 11
1269.432911
 21
1624.877544
  0
LINE
  8
CSLAYER1
  6
CENTER
 62
     5
 10
1036.432911
 20
1437.787245
 11
1112.432911
 21
1437.787245
  0
LINE
  8
CSLAYER1
  6
CENTER
 62
     5
 10
881.973590
 20
1327.962716
 11
1266.892232
 21
1327.962716
  0
LINE
  8
CSLAYER1
  6
CENTER
 62
     5
 10
918.432911
 20
996.662030
 11
1230.432911
 21
996.662030
  0
LINE
  8
CSLAYER1
  6
CONTINUOUS
 62
     3
 10
824.432911
 20
759.633060
 11
1324.432911
 21
759.633060
  0
LINE
  8
CSLAYER1
  6
CONTINUOUS
 62
     7
 10
1230.432911
 20
759.633060
 11
1230.432911
 21
1911.992372
  0
LINE
  8
CSLAYER1
  6
CONTINUOUS
 62
     7
 10
1243.432911
 20
759.633060
 11
1243.432911
 21
1911.992372
  0
LINE
  8
CSLAYER1
  6
CONTINUOUS
 62
     7
 10
1239.432911
 20
759.633060
 11
1239.432911
 21
1911.992372
  0
LINE
  8
CSLAYER1
  6
CONTINUOUS
 62
     7
 10
1252.432911
 20
759.633060
 11
1252.432911
 21
1911.992372
  0
LINE
  8
CSLAYER1
  6
CENTER
 62
     5
 10
1308.432911
 20
759.633060
 11
1308.432911
 21
906.433060
  0
INSERT
  8
CSLAYER1
  2
BLKF0001
 10
0.0
 20
0.0
 30
0.0
  0
INSERT
  8
CSLAYER1
  2
BLKF0002
 10
0.0
 20
0.0
 30
0.0
  0
LINE
  8
CSLAYER1
  6
CONTINUOUS
 62
     3
 10
824.432911
 20
1911.992372
 11
1324.432911
 21
1911.992372
  0
LINE
  8
CSLAYER1
  6
CONTINUOUS
 62
     4
 10
828.632911
 20
1903.792372
 11
851.632911
 21
1903.792372
  0
LINE
  8
CSLAYER1
  6
CONTINUOUS
 62
     4
 10
827.632911
 20
1904.792372
 11
852.632911
 21
1904.792372
  0
LINE
  8
CSLAYER1
  6
CONTINUOUS
 62
     4
 10
828.632911
 20
1903.792372
 11
827.632911
 21
1904.792372
  0
LINE
  8
CSLAYER1
  6
CONTINUOUS
 62
     4
 10
851.632911
 20
1903.792372
 11
852.632911
 21
1904.792372
  0
LINE
  8
CSLAYER1
  6
CONTINUOUS
 62
     4
 10
852.632911
 20
1911.992372
 11
852.632911
 21
1904.792372
  0
LINE
  8
CSLAYER1
  6
CONTINUOUS
 62
     4
 10
827.632911
 20
1911.992372
 11
827.632911
 21
1904.792372
  0
LINE
  8
CSLAYER1
  6
CENTER
 62
     5
 10
840.132911
 20
1903.792372
 11
840.132911
 21
1911.992372
  0
LINE
  8
CSLAYER1
  6
CONTINUOUS
 62
     3
 10
824.432911
 20
1911.992372
 11
824.432911
 21
1956.992372
  0
LINE
  8
CSLAYER1
  6
CONTINUOUS
 62
     4
 10
1320.232911
 20
1903.792372
 11
1297.232911
 21
1903.792372
  0
LINE
  8
CSLAYER1
  6
CONTINUOUS
 62
     4
 10
1321.232911
 20
1904.792372
 11
1296.232911
 21
1904.792372
  0
LINE
  8
CSLAYER1
  6
CONTINUOUS
 62
     4
 10
1320.232911
 20
1903.792372
 11
1321.232911
 21
1904.792372
  0
LINE
  8
CSLAYER1
  6
CONTINUOUS
 62
     4
 10
1297.232911
 20
1903.792372
 11
1296.232911
 21
1904.792372
  0
LINE
  8
CSLAYER1
  6
CONTINUOUS
 62
     4
 10
1296.232911
 20
1911.992372
 11
1296.232911
 21
1904.792372
  0
LINE
  8
CSLAYER1
  6
CONTINUOUS
 62
     4
 10
1321.232911
 20
1911.992372
 11
1321.232911
 21
1904.792372
  0
LINE
  8
CSLAYER1
  6
CENTER
 62
     5
 10
1308.732911
 20
1903.792372
 11
1308.732911
 21
1911.992372
  0
LINE
  8
CSLAYER1
  6
CONTINUOUS
 62
     3
 10
1324.432911
 20
1911.992372
 11
1324.432911
 21
1956.992372
  0
LINE
  8
CSLAYER1
  6
CONTINUOUS
 62
     3
 10
824.432911
 20
709.633060
 11
824.432911
 21
759.633060
  0
LINE
  8
CSLAYER1
  6
CONTINUOUS
 62
     3
 10
1324.432911
 20
709.633060
 11
1324.432911
 21
759.633060
  0
INSERT
  8
CSLAYER1
  2
BLKF0003
 10
0.0
 20
0.0
 30
0.0
  0
LINE
  8
CSLAYER1
  6
CONTINUOUS
 62
     3
 10
1318.432911
 20
759.633060
 11
1318.432911
 21
880.633060
  0
LINE
  8
CSLAYER1
  6
CONTINUOUS
 62
     3
 10
1298.432911
 20
759.633060
 11
1298.432911
 21
880.633060
  0
LINE
  8
CSLAYER1
  6
CONTINUOUS
 62
     3
 10
1298.932911
 20
906.433060
 11
1317.932911
 21
906.433060
  0
LINE
  8
CSLAYER1
  6
CONTINUOUS
 62
     3
 10
1297.463256
 20
898.433060
 11
1319.402566
 21
898.433060
  0
LINE
  8
CSLAYER1
  6
CONTINUOUS
 62
     3
 10
1297.463256
 20
905.584555
 11
1297.463256
 21
898.433060
  0
LINE
  8
CSLAYER1
  6
CONTINUOUS
 62
     3
 10
1302.948083
 20
905.584555
 11
1302.948083
 21
898.433060
  0
LINE
  8
CSLAYER1
  6
CONTINUOUS
 62
     3
 10
1298.932911
 20
906.433060
 11
1297.463256
 21
905.584555
  0
ARC
  8
CSLAYER1
  6
CONTINUOUS
 62
     3
 10
1308.432911
 20
888.281566
 40
18.151494
 50
72.412046
 51
107.587954
  0
ARC
  8
CSLAYER1
  6
CONTINUOUS
 62
     3
 10
1300.205670
 20
901.590668
 40
4.844787
 50
55.524449
 51
115.524449
  0
LINE
  8
CSLAYER1
  6
CONTINUOUS
 62
     3
 10
1319.402566
 20
905.584555
 11
1319.402566
 21
898.433060
  0
LINE
  8
CSLAYER1
  6
CONTINUOUS
 62
     3
 10
1313.917738
 20
905.584555
 11
1313.917738
 21
898.433060
  0
LINE
  8
CSLAYER1
  6
CONTINUOUS
 62
     3
 10
1317.932911
 20
906.433060
 11
1319.402566
 21
905.584555
  0
ARC
  8
CSLAYER1
  6
CONTINUOUS
 62
     3
 10
1316.660152
 20
901.590668
 40
4.844787
 50
64.475551
 51
124.475551
  0
LINE
  8
CSLAYER1
  6
CONTINUOUS
 62
     3
 10
1302.432911
 20
898.433060
 11
1303.432911
 21
896.701010
  0
LINE
  8
CSLAYER1
  6
CONTINUOUS
 62
     3
 10
1314.432911
 20
898.433060
 11
1313.432911
 21
896.701010
  0
POINT
  8
CSLAYER1
 62
     3
 10
1308.432911
 20
898.433060
  0
LINE
  8
CSLAYER1
  6
CONTINUOUS
 62
     3
 10
1302.432911
 20
898.433060
 11
1302.432911
 21
890.633060
  0
LINE
  8
CSLAYER1
  6
CONTINUOUS
 62
     3
 10
1303.432911
 20
896.701010
 11
1303.432911
 21
890.633060
  0
LINE
  8
CSLAYER1
  6
CONTINUOUS
 62
     3
 10
1313.432911
 20
896.701010
 11
1313.432911
 21
890.633060
  0
LINE
  8
CSLAYER1
  6
CONTINUOUS
 62
     3
 10
1314.432911
 20
898.433060
 11
1314.432911
 21
890.633060
  0
INSERT
  8
CSLAYER1
  2
BLKF0004
 10
0.0
 20
0.0
 30
0.0
  0
LINE
  8
CSLAYER1
  6
CONTINUOUS
 62
     3
 10
1230.432911
 20
1633.877544
 11
918.432911
 21
1633.877544
  0
LINE
  8
CSLAYER1
  6
CONTINUOUS
 62
     3
 10
1230.432911
 20
1615.877544
 11
918.432911
 21
1615.877544
  0
INSERT
  8
CSLAYER1
  2
BLKF0005
 10
0.0
 20
0.0
 30
0.0
  0
LINE
  8
CSLAYER1
  6
CONTINUOUS
 62
     3
 10
1230.432911
 20
1040.047888
 11
918.432911
 21
1040.047888
  0
INSERT
  8
CSLAYER1
  2
BLKF0006
 10
0.0
 20
0.0
 30
0.0
  0
LINE
  8
CSLAYER1
  6
CONTINUOUS
 62
     4
 10
1036.432911
 20
1350.691619
 11
1036.432911
 21
1457.787245
  0
LINE
  8
CSLAYER1
  6
CONTINUOUS
 62
     4
 10
1045.432911
 20
1350.691619
 11
1045.432911
 21
1457.787245
  0
LINE
  8
CSLAYER1
  6
CONTINUOUS
 62
     4
 10
1103.432911
 20
1350.691619
 11
1103.432911
 21
1457.787245
  0
LINE
  8
CSLAYER1
  6
CONTINUOUS
 62
     4
 10
1112.432911
 20
1350.691619
 11
1112.432911
 21
1457.787245
  0
POINT
  8
CSLAYER1
 62
     5
 10
1074.432911
 20
1437.787245
  0
LINE
  8
CSLAYER1
  6
CONTINUOUS
 62
     4
 10
1045.432911
 20
1457.787245
 11
1036.432911
 21
1457.787245
  0
LINE
  8
CSLAYER1
  6
CONTINUOUS
 62
     4
 10
1060.432911
 20
1420.287245
 11
1060.432911
 21
1455.287245
  0
LINE
  8
CSLAYER1
  6
CONTINUOUS
 62
     4
 10
1060.432911
 20
1455.287245
 11
1045.432911
 21
1455.287245
  0
LINE
  8
CSLAYER1
  6
CONTINUOUS
 62
     4
 10
1060.432911
 20
1420.287245
 11
1045.432911
 21
1420.287245
  0
LINE
  8
CSLAYER1
  6
CONTINUOUS
 62
     4
 10
1064.432911
 20
1450.287245
 11
1060.432911
 21
1450.287245
  0
LINE
  8
CSLAYER1
  6
CONTINUOUS
 62
     4
 10
1064.432911
 20
1425.287245
 11
1060.432911
 21
1425.287245
  0
LINE
  8
CSLAYER1
  6
CONTINUOUS
 62
     4
 10
1103.432911
 20
1457.787245
 11
1112.432911
 21
1457.787245
  0
LINE
  8
CSLAYER1
  6
CONTINUOUS
 62
     4
 10
1088.432911
 20
1420.287245
 11
1088.432911
 21
1455.287245
  0
LINE
  8
CSLAYER1
  6
CONTINUOUS
 62
     4
 10
1088.432911
 20
1455.287245
 11
1103.432911
 21
1455.287245
  0
LINE
  8
CSLAYER1
  6
CONTINUOUS
 62
     4
 10
1088.432911
 20
1420.287245
 11
1103.432911
 21
1420.287245
  0
LINE
  8
CSLAYER1
  6
CONTINUOUS
 62
     4
 10
1084.432911
 20
1450.287245
 11
1088.432911
 21
1450.287245
  0
LINE
  8
CSLAYER1
  6
CONTINUOUS
 62
     4
 10
1084.432911
 20
1425.287245
 11
1088.432911
 21
1425.287245
  0
LINE
  8
CSLAYER1
  6
CONTINUOUS
 62
     4
 10
1064.432911
 20
1461.830240
 11
1084.432911
 21
1461.830240
  0
LINE
  8
CSLAYER1
  6
CONTINUOUS
 62
     4
 10
1045.432911
 20
1368.448037
 11
1103.432911
 21
1368.448037
  0
LINE
  8
CSLAYER1
  6
CONTINUOUS
 62
     4
 10
1230.432911
 20
1307.948037
 11
918.432911
 21
1307.948037
  0
LINE
  8
CSLAYER1
  6
CONTINUOUS
 62
     4
 10
1036.432911
 20
1350.691619
 11
1045.432911
 21
1350.691619
  0
LINE
  8
CSLAYER1
  6
CONTINUOUS
 62
     4
 10
1112.432911
 20
1368.448037
 11
1221.432911
 21
1368.448037
  0
LINE
  8
CSLAYER1
  6
CONTINUOUS
 62
     4
 10
1103.432911
 20
1350.691619
 11
1112.432911
 21
1350.691619
  0
LINE
  8
CSLAYER1
  6
CONTINUOUS
 62
     4
 10
1064.432911
 20
1404.979750
 11
1064.432911
 21
1461.830240
  0
LINE
  8
CSLAYER1
  6
CONTINUOUS
 62
     4
 10
1084.432911
 20
1404.979750
 11
1084.432911
 21
1461.830240
  0
LINE
  8
CSLAYER1
  6
CONTINUOUS
 62
     7
 10
1221.432911
 20
1496.660105
 11
1230.432911
 21
1496.660105
  0
LINE
  8
CSLAYER1
  6
CONTINUOUS
 62
     4
 10
1230.432911
 20
1026.912030
 11
918.432911
 21
1026.912030
  0
LINE
  8
CSLAYER1
  6
CONTINUOUS
 62
     4
 10
1230.432911
 20
966.412030
 11
918.432911
 21
966.412030
  0
LINE
  8
CSLAYER1
  6
CONTINUOUS
 62
     4
 10
1166.432911
 20
1057.741940
 11
1175.432911
 21
1057.741940
  0
LINE
  8
CSLAYER1
  6
CONTINUOUS
 62
     4
 10
1166.432911
 20
1040.047888
 11
1166.432911
 21
1057.741940
  0
LINE
  8
CSLAYER1
  6
CONTINUOUS
 62
     4
 10
1175.432911
 20
1040.047888
 11
1175.432911
 21
1057.741940
  0
INSERT
  8
CSLAYER1
  2
BLKF0007
 10
0.0
 20
0.0
 30
0.0
  0
LINE
  8
CSLAYER1
  6
CONTINUOUS
 62
     4
 10
1230.432911
 20
959.821241
 11
918.432911
 21
959.821241
  0
LINE
  8
CSLAYER1
  6
CONTINUOUS
 62
     4
 10
1230.432911
 20
864.304968
 11
918.432911
 21
864.304968
  0
LINE
  8
CSLAYER1
  6
CONTINUOUS
 62
     4
 10
1239.432911
 20
959.821241
 11
1243.432911
 21
959.821241
  0
LINE
  8
CSLAYER1
  6
CONTINUOUS
 62
     4
 10
1239.432911
 20
864.304968
 11
1243.432911
 21
864.304968
  0
LINE
  8
CSLAYER1
  6
CENTER
 62
     5
 10
879.432911
 20
1031.047888
 11
1269.432911
 21
1031.047888
  0
LINE
  8
CSLAYER1
  6
CONTINUOUS
 62
     7
 10
1221.432911
 20
1307.948037
 11
1221.432911
 21
1496.660105
  0
LINE
  8
CSLAYER1
  6
CONTINUOUS
 62
     4
 10
1136.432911
 20
817.457728
 11
1136.432911
 21
864.304968
  0
LINE
  8
CSLAYER1
  6
CONTINUOUS
 62
     4
 10
1012.432911
 20
817.457728
 11
1012.432911
 21
864.304968
  0
LINE
  8
CSLAYER1
  6
CONTINUOUS
 62
     4
 10
1012.432911
 20
817.457728
 11
1012.668840
 21
814.079132
  0
LINE
  8
CSLAYER1
  6
CONTINUOUS
 62
     4
 10
1012.668840
 20
814.079132
 11
1013.374830
 21
810.726249
  0
LINE
  8
CSLAYER1
  6
CONTINUOUS
 62
     4
 10
1013.374830
 20
810.726249
 11
1014.010648
 21
808.933060
  0
LINE
  8
CSLAYER1
  6
CONTINUOUS
 62
     4
 10
1129.432911
 20
799.644327
 11
1130.623994
 21
801.074912
  0
LINE
  8
CSLAYER1
  6
CONTINUOUS
 62
     4
 10
1130.623994
 20
801.074912
 11
1132.693853
 21
804.199302
  0
LINE
  8
CSLAYER1
  6
CONTINUOUS
 62
     4
 10
1132.693853
 20
804.199302
 11
1134.320312
 21
807.424596
  0
LINE
  8
CSLAYER1
  6
CONTINUOUS
 62
     4
 10
1134.320312
 20
807.424596
 11
1135.490992
 21
810.726249
  0
LINE
  8
CSLAYER1
  6
CONTINUOUS
 62
     4
 10
1135.490992
 20
810.726249
 11
1136.196982
 21
814.079132
  0
LINE
  8
CSLAYER1
  6
CONTINUOUS
 62
     4
 10
1136.196982
 20
814.079132
 11
1136.432911
 21
817.457728
  0
LINE
  8
CSLAYER1
  6
CONTINUOUS
 62
     4
 10
1036.282911
 20
1089.778485
 11
1036.282911
 21
1294.214124
  0
LINE
  8
CSLAYER1
  6
CONTINUOUS
 62
     4
 10
1036.282911
 20
1089.778485
 11
1036.428083
 21
1087.699558
  0
LINE
  8
CSLAYER1
  6
CONTINUOUS
 62
     4
 10
1036.428083
 20
1087.699558
 11
1036.862495
 21
1085.636453
  0
LINE
  8
CSLAYER1
  6
CONTINUOUS
 62
     4
 10
1036.862495
 20
1085.636453
 11
1037.582841
 21
1083.604872
  0
LINE
  8
CSLAYER1
  6
CONTINUOUS
 62
     4
 10
1037.582841
 20
1083.604872
 11
1038.583637
 21
1081.620276
  0
LINE
  8
CSLAYER1
  6
CONTINUOUS
 62
     4
 10
1038.583637
 20
1081.620276
 11
1039.857269
 21
1079.697768
  0
LINE
  8
CSLAYER1
  6
CONTINUOUS
 62
     4
 10
1039.857269
 20
1079.697768
 11
1041.394042
 21
1077.851981
  0
LINE
  8
CSLAYER1
  6
CONTINUOUS
 62
     4
 10
1041.394042
 20
1077.851981
 11
1043.182260
 21
1076.096962
  0
LINE
  8
CSLAYER1
  6
CONTINUOUS
 62
     4
 10
1043.182260
 20
1076.096962
 11
1045.208315
 21
1074.446067
  0
LINE
  8
CSLAYER1
  6
CONTINUOUS
 62
     4
 10
1045.208315
 20
1074.446067
 11
1047.456787
 21
1072.911862
  0
LINE
  8
CSLAYER1
  6
CONTINUOUS
 62
     4
 10
1047.456787
 20
1072.911862
 11
1049.910564
 21
1071.506021
  0
LINE
  8
CSLAYER1
  6
CONTINUOUS
 62
     4
 10
1049.910564
 20
1071.506021
 11
1052.550970
 21
1070.239245
  0
LINE
  8
CSLAYER1
  6
CONTINUOUS
 62
     4
 10
1052.550970
 20
1070.239245
 11
1055.357911
 21
1069.121174
  0
LINE
  8
CSLAYER1
  6
CONTINUOUS
 62
     4
 10
1055.357911
 20
1069.121174
 11
1058.310024
 21
1068.160318
  0
LINE
  8
CSLAYER1
  6
CONTINUOUS
 62
     4
 10
1058.310024
 20
1068.160318
 11
1061.384842
 21
1067.363990
  0
LINE
  8
CSLAYER1
  6
CONTINUOUS
 62
     4
 10
1061.384842
 20
1067.363990
 11
1064.558964
 21
1066.738249
  0
LINE
  8
CSLAYER1
  6
CONTINUOUS
 62
     4
 10
1064.558964
 20
1066.738249
 11
1067.808233
 21
1066.287858
  0
LINE
  8
CSLAYER1
  6
CONTINUOUS
 62
     4
 10
1067.808233
 20
1066.287858
 11
1071.107919
 21
1066.016245
  0
LINE
  8
CSLAYER1
  6
CONTINUOUS
 62
     4
 10
1071.107919
 20
1066.016245
 11
1074.432911
 21
1065.925477
  0
LINE
  8
CSLAYER1
  6
CONTINUOUS
 62
     4
 10
1074.432911
 20
1065.925477
 11
1077.757902
 21
1066.016245
  0
LINE
  8
CSLAYER1
  6
CONTINUOUS
 62
     4
 10
1077.757902
 20
1066.016245
 11
1081.057589
 21
1066.287858
  0
LINE
  8
CSLAYER1
  6
CONTINUOUS
 62
     4
 10
1081.057589
 20
1066.287858
 11
1084.306857
 21
1066.738249
  0
LINE
  8
CSLAYER1
  6
CONTINUOUS
 62
     4
 10
1084.306857
 20
1066.738249
 11
1087.480979
 21
1067.363990
  0
LINE
  8
CSLAYER1
  6
CONTINUOUS
 62
     4
 10
1087.480979
 20
1067.363990
 11
1090.555798
 21
1068.160318
  0
LINE
  8
CSLAYER1
  6
CONTINUOUS
 62
     4
 10
1090.555798
 20
1068.160318
 11
1093.507911
 21
1069.121174
  0
LINE
  8
CSLAYER1
  6
CONTINUOUS
 62
     4
 10
1093.507911
 20
1069.121174
 11
1096.314852
 21
1070.239245
  0
LINE
  8
CSLAYER1
  6
CONTINUOUS
 62
     4
 10
1096.314852
 20
1070.239245
 11
1098.955258
 21
1071.506021
  0
LINE
  8
CSLAYER1
  6
CONTINUOUS
 62
     4
 10
1098.955258
 20
1071.506021
 11
1101.409035
 21
1072.911862
  0
LINE
  8
CSLAYER1
  6
CONTINUOUS
 62
     4
 10
1101.409035
 20
1072.911862
 11
1103.657506
 21
1074.446067
  0
LINE
  8
CSLAYER1
  6
CONTINUOUS
 62
     4
 10
1103.657506
 20
1074.446067
 11
1105.683561
 21
1076.096962
  0
LINE
  8
CSLAYER1
  6
CONTINUOUS
 62
     4
 10
1105.683561
 20
1076.096962
 11
1107.471780
 21
1077.851981
  0
LINE
  8
CSLAYER1
  6
CONTINUOUS
 62
     4
 10
1107.471780
 20
1077.851981
 11
1109.008553
 21
1079.697768
  0
LINE
  8
CSLAYER1
  6
CONTINUOUS
 62
     4
 10
1109.008553
 20
1079.697768
 11
1110.282184
 21
1081.620276
  0
LINE
  8
CSLAYER1
  6
CONTINUOUS
 62
     4
 10
1110.282184
 20
1081.620276
 11
1111.282981
 21
1083.604872
  0
LINE
  8
CSLAYER1
  6
CONTINUOUS
 62
     4
 10
1111.282981
 20
1083.604872
 11
1112.003327
 21
1085.636453
  0
LINE
  8
CSLAYER1
  6
CONTINUOUS
 62
     4
 10
1112.003327
 20
1085.636453
 11
1112.437739
 21
1087.699558
  0
LINE
  8
CSLAYER1
  6
CONTINUOUS
 62
     4
 10
1112.437739
 20
1087.699558
 11
1112.582911
 21
1089.778485
  0
LINE
  8
CSLAYER1
  6
CONTINUOUS
 62
     4
 10
1116.932911
 20
1089.778485
 11
1116.771186
 21
1092.094458
  0
LINE
  8
CSLAYER1
  6
CONTINUOUS
 62
     4
 10
1116.771186
 20
1092.094458
 11
1116.287240
 21
1094.392805
  0
LINE
  8
CSLAYER1
  6
CONTINUOUS
 62
     4
 10
1116.287240
 20
1094.392805
 11
1115.484759
 21
1096.656035
  0
LINE
  8
CSLAYER1
  6
CONTINUOUS
 62
     4
 10
1115.484759
 20
1096.656035
 11
1114.369847
 21
1098.866922
  0
LINE
  8
CSLAYER1
  6
CONTINUOUS
 62
     4
 10
1114.369847
 20
1098.866922
 11
1112.950992
 21
1101.008641
  0
LINE
  8
CSLAYER1
  6
CONTINUOUS
 62
     4
 10
1112.950992
 20
1101.008641
 11
1112.582911
 21
1101.450735
  0
LINE
  8
CSLAYER1
  6
CONTINUOUS
 62
     4
 10
1036.282911
 20
1101.450735
 11
1035.914830
 21
1101.008641
  0
LINE
  8
CSLAYER1
  6
CONTINUOUS
 62
     4
 10
1035.914830
 20
1101.008641
 11
1034.495975
 21
1098.866922
  0
LINE
  8
CSLAYER1
  6
CONTINUOUS
 62
     4
 10
1034.495975
 20
1098.866922
 11
1033.381063
 21
1096.656035
  0
LINE
  8
CSLAYER1
  6
CONTINUOUS
 62
     4
 10
1033.381063
 20
1096.656035
 11
1032.578581
 21
1094.392805
  0
LINE
  8
CSLAYER1
  6
CONTINUOUS
 62
     4
 10
1032.578581
 20
1094.392805
 11
1032.094636
 21
1092.094458
  0
LINE
  8
CSLAYER1
  6
CONTINUOUS
 62
     4
 10
1032.094636
 20
1092.094458
 11
1031.932911
 21
1089.778485
  0
LINE
  8
CSLAYER1
  6
CONTINUOUS
 62
     4
 10
1031.932911
 20
1089.778485
 11
1032.094636
 21
1087.462512
  0
LINE
  8
CSLAYER1
  6
CONTINUOUS
 62
     4
 10
1032.094636
 20
1087.462512
 11
1032.578581
 21
1085.164164
  0
LINE
  8
CSLAYER1
  6
CONTINUOUS
 62
     4
 10
1032.578581
 20
1085.164164
 11
1033.381063
 21
1082.900935
  0
LINE
  8
CSLAYER1
  6
CONTINUOUS
 62
     4
 10
1033.381063
 20
1082.900935
 11
1034.495975
 21
1080.690047
  0
LINE
  8
CSLAYER1
  6
CONTINUOUS
 62
     4
 10
1034.495975
 20
1080.690047
 11
1035.914830
 21
1078.548329
  0
LINE
  8
CSLAYER1
  6
CONTINUOUS
 62
     4
 10
1035.914830
 20
1078.548329
 11
1037.626831
 21
1076.492078
  0
LINE
  8
CSLAYER1
  6
CONTINUOUS
 62
     4
 10
1037.626831
 20
1076.492078
 11
1039.618949
 21
1074.536945
  0
LINE
  8
CSLAYER1
  6
CONTINUOUS
 62
     4
 10
1039.618949
 20
1074.536945
 11
1041.876022
 21
1072.697810
  0
LINE
  8
CSLAYER1
  6
CONTINUOUS
 62
     4
 10
1041.876022
 20
1072.697810
 11
1044.380873
 21
1070.988669
  0
LINE
  8
CSLAYER1
  6
CONTINUOUS
 62
     4
 10
1044.380873
 20
1070.988669
 11
1047.114437
 21
1069.422529
  0
LINE
  8
CSLAYER1
  6
CONTINUOUS
 62
     4
 10
1047.114437
 20
1069.422529
 11
1050.055912
 21
1068.011311
  0
LINE
  8
CSLAYER1
  6
CONTINUOUS
 62
     4
 10
1050.055912
 20
1068.011311
 11
1053.182911
 21
1066.765754
  0
LINE
  8
CSLAYER1
  6
CONTINUOUS
 62
     4
 10
1053.182911
 20
1066.765754
 11
1056.471635
 21
1065.695338
  0
LINE
  8
CSLAYER1
  6
CONTINUOUS
 62
     4
 10
1056.471635
 20
1065.695338
 11
1059.897055
 21
1064.808209
  0
LINE
  8
CSLAYER1
  6
CONTINUOUS
 62
     4
 10
1059.897055
 20
1064.808209
 11
1063.433101
 21
1064.111119
  0
LINE
  8
CSLAYER1
  6
CONTINUOUS
 62
     4
 10
1063.433101
 20
1064.111119
 11
1067.052863
 21
1063.609373
  0
LINE
  8
CSLAYER1
  6
CONTINUOUS
 62
     4
 10
1067.052863
 20
1063.609373
 11
1070.728792
 21
1063.306789
  0
LINE
  8
CSLAYER1
  6
CONTINUOUS
 62
     4
 10
1070.728792
 20
1063.306789
 11
1074.432911
 21
1063.205672
  0
LINE
  8
CSLAYER1
  6
CONTINUOUS
 62
     4
 10
1074.432911
 20
1063.205672
 11
1078.137030
 21
1063.306789
  0
LINE
  8
CSLAYER1
  6
CONTINUOUS
 62
     4
 10
1078.137030
 20
1063.306789
 11
1081.812958
 21
1063.609373
  0
LINE
  8
CSLAYER1
  6
CONTINUOUS
 62
     4
 10
1081.812958
 20
1063.609373
 11
1085.432720
 21
1064.111119
  0
LINE
  8
CSLAYER1
  6
CONTINUOUS
 62
     4
 10
1085.432720
 20
1064.111119
 11
1088.968767
 21
1064.808209
  0
LINE
  8
CSLAYER1
  6
CONTINUOUS
 62
     4
 10
1088.968767
 20
1064.808209
 11
1092.394187
 21
1065.695338
  0
LINE
  8
CSLAYER1
  6
CONTINUOUS
 62
     4
 10
1092.394187
 20
1065.695338
 11
1095.682911
 21
1066.765754
  0
LINE
  8
CSLAYER1
  6
CONTINUOUS
 62
     4
 10
1095.682911
 20
1066.765754
 11
1098.809909
 21
1068.011311
  0
LINE
  8
CSLAYER1
  6
CONTINUOUS
 62
     4
 10
1098.809909
 20
1068.011311
 11
1101.751384
 21
1069.422529
  0
LINE
  8
CSLAYER1
  6
CONTINUOUS
 62
     4
 10
1101.751384
 20
1069.422529
 11
1104.484949
 21
1070.988669
  0
LINE
  8
CSLAYER1
  6
CONTINUOUS
 62
     4
 10
1104.484949
 20
1070.988669
 11
1106.989800
 21
1072.697810
  0
LINE
  8
CSLAYER1
  6
CONTINUOUS
 62
     4
 10
1106.989800
 20
1072.697810
 11
1109.246873
 21
1074.536945
  0
LINE
  8
CSLAYER1
  6
CONTINUOUS
 62
     4
 10
1109.246873
 20
1074.536945
 11
1111.238991
 21
1076.492078
  0
LINE
  8
CSLAYER1
  6
CONTINUOUS
 62
     4
 10
1111.238991
 20
1076.492078
 11
1112.950992
 21
1078.548329
  0
LINE
  8
CSLAYER1
  6
CONTINUOUS
 62
     4
 10
1112.950992
 20
1078.548329
 11
1114.369847
 21
1080.690047
  0
LINE
  8
CSLAYER1
  6
CONTINUOUS
 62
     4
 10
1114.369847
 20
1080.690047
 11
1115.484759
 21
1082.900935
  0
LINE
  8
CSLAYER1
  6
CONTINUOUS
 62
     4
 10
1115.484759
 20
1082.900935
 11
1116.287240
 21
1085.164164
  0
LINE
  8
CSLAYER1
  6
CONTINUOUS
 62
     4
 10
1116.287240
 20
1085.164164
 11
1116.771186
 21
1087.462512
  0
LINE
  8
CSLAYER1
  6
CONTINUOUS
 62
     4
 10
1116.771186
 20
1087.462512
 11
1116.932911
 21
1089.778485
  0
LINE
  8
CSLAYER1
  6
CONTINUOUS
 62
     4
 10
1112.582911
 20
1089.778485
 11
1112.582911
 21
1294.214124
  0
LINE
  8
CSLAYER1
  6
CONTINUOUS
 62
     4
 10
1050.932911
 20
1418.280028
 11
1050.932911
 21
1413.598296
  0
LINE
  8
CSLAYER1
  6
CONTINUOUS
 62
     4
 10
1097.932911
 20
1418.280028
 11
1097.932911
 21
1413.598296
  0
LINE
  8
CSLAYER1
  6
CONTINUOUS
 62
     4
 10
1050.932911
 20
1413.598296
 11
1051.022335
 21
1412.317699
  0
LINE
  8
CSLAYER1
  6
CONTINUOUS
 62
     4
 10
1051.022335
 20
1412.317699
 11
1051.289929
 21
1411.046848
  0
LINE
  8
CSLAYER1
  6
CONTINUOUS
 62
     4
 10
1051.289929
 20
1411.046848
 11
1051.733654
 21
1409.795415
  0
LINE
  8
CSLAYER1
  6
CONTINUOUS
 62
     4
 10
1051.733654
 20
1409.795415
 11
1052.350134
 21
1408.572924
  0
LINE
  8
CSLAYER1
  6
CONTINUOUS
 62
     4
 10
1052.350134
 20
1408.572924
 11
1053.134678
 21
1407.388680
  0
LINE
  8
CSLAYER1
  6
CONTINUOUS
 62
     4
 10
1053.134678
 20
1407.388680
 11
1054.081314
 21
1406.251694
  0
LINE
  8
CSLAYER1
  6
CONTINUOUS
 62
     4
 10
1054.081314
 20
1406.251694
 11
1055.182838
 21
1405.170621
  0
LINE
  8
CSLAYER1
  6
CONTINUOUS
 62
     4
 10
1055.182838
 20
1405.170621
 11
1056.430866
 21
1404.153687
  0
LINE
  8
CSLAYER1
  6
CONTINUOUS
 62
     4
 10
1056.430866
 20
1404.153687
 11
1057.815902
 21
1403.208633
  0
LINE
  8
CSLAYER1
  6
CONTINUOUS
 62
     4
 10
1057.815902
 20
1403.208633
 11
1059.327402
 21
1402.342650
  0
LINE
  8
CSLAYER1
  6
CONTINUOUS
 62
     4
 10
1059.327402
 20
1402.342650
 11
1060.953865
 21
1401.562329
  0
LINE
  8
CSLAYER1
  6
CONTINUOUS
 62
     4
 10
1060.953865
 20
1401.562329
 11
1062.682911
 21
1400.873609
  0
LINE
  8
CSLAYER1
  6
CONTINUOUS
 62
     4
 10
1062.682911
 20
1400.873609
 11
1064.501382
 21
1400.281732
  0
LINE
  8
CSLAYER1
  6
CONTINUOUS
 62
     4
 10
1064.501382
 20
1400.281732
 11
1066.395438
 21
1399.791202
  0
LINE
  8
CSLAYER1
  6
CONTINUOUS
 62
     4
 10
1066.395438
 20
1399.791202
 11
1068.350663
 21
1399.405752
  0
LINE
  8
CSLAYER1
  6
CONTINUOUS
 62
     4
 10
1068.350663
 20
1399.405752
 11
1070.352179
 21
1399.128316
  0
LINE
  8
CSLAYER1
  6
CONTINUOUS
 62
     4
 10
1070.352179
 20
1399.128316
 11
1072.384751
 21
1398.961005
  0
LINE
  8
CSLAYER1
  6
CONTINUOUS
 62
     4
 10
1072.384751
 20
1398.961005
 11
1074.432911
 21
1398.905093
  0
LINE
  8
CSLAYER1
  6
CONTINUOUS
 62
     4
 10
1074.432911
 20
1398.905093
 11
1076.481071
 21
1398.961005
  0
LINE
  8
CSLAYER1
  6
CONTINUOUS
 62
     4
 10
1076.481071
 20
1398.961005
 11
1078.513643
 21
1399.128316
  0
LINE
  8
CSLAYER1
  6
CONTINUOUS
 62
     4
 10
1078.513643
 20
1399.128316
 11
1080.515158
 21
1399.405752
  0
LINE
  8
CSLAYER1
  6
CONTINUOUS
 62
     4
 10
1080.515158
 20
1399.405752
 11
1082.470384
 21
1399.791202
  0
LINE
  8
CSLAYER1
  6
CONTINUOUS
 62
     4
 10
1082.470384
 20
1399.791202
 11
1084.364440
 21
1400.281732
  0
LINE
  8
CSLAYER1
  6
CONTINUOUS
 62
     4
 10
1084.364440
 20
1400.281732
 11
1086.182911
 21
1400.873609
  0
LINE
  8
CSLAYER1
  6
CONTINUOUS
 62
     4
 10
1086.182911
 20
1400.873609
 11
1087.911957
 21
1401.562329
  0
LINE
  8
CSLAYER1
  6
CONTINUOUS
 62
     4
 10
1087.911957
 20
1401.562329
 11
1089.538420
 21
1402.342650
  0
LINE
  8
CSLAYER1
  6
CONTINUOUS
 62
     4
 10
1089.538420
 20
1402.342650
 11
1091.049920
 21
1403.208633
  0
LINE
  8
CSLAYER1
  6
CONTINUOUS
 62
     4
 10
1091.049920
 20
1403.208633
 11
1092.434955
 21
1404.153687
  0
LINE
  8
CSLAYER1
  6
CONTINUOUS
 62
     4
 10
1092.434955
 20
1404.153687
 11
1093.682984
 21
1405.170621
  0
LINE
  8
CSLAYER1
  6
CONTINUOUS
 62
     4
 10
1093.682984
 20
1405.170621
 11
1094.784508
 21
1406.251694
  0
LINE
  8
CSLAYER1
  6
CONTINUOUS
 62
     4
 10
1094.784508
 20
1406.251694
 11
1095.731144
 21
1407.388680
  0
LINE
  8
CSLAYER1
  6
CONTINUOUS
 62
     4
 10
1095.731144
 20
1407.388680
 11
1096.515687
 21
1408.572924
  0
LINE
  8
CSLAYER1
  6
CONTINUOUS
 62
     4
 10
1096.515687
 20
1408.572924
 11
1097.132168
 21
1409.795415
  0
LINE
  8
CSLAYER1
  6
CONTINUOUS
 62
     4
 10
1097.132168
 20
1409.795415
 11
1097.575893
 21
1411.046848
  0
LINE
  8
CSLAYER1
  6
CONTINUOUS
 62
     4
 10
1097.575893
 20
1411.046848
 11
1097.843486
 21
1412.317699
  0
LINE
  8
CSLAYER1
  6
CONTINUOUS
 62
     4
 10
1097.843486
 20
1412.317699
 11
1097.932911
 21
1413.598296
  0
LINE
  8
CSLAYER1
  6
CONTINUOUS
 62
     4
 10
1097.932911
 20
1418.280028
 11
1097.843486
 21
1419.560625
  0
LINE
  8
CSLAYER1
  6
CONTINUOUS
 62
     4
 10
1097.843486
 20
1419.560625
 11
1097.690487
 21
1420.287245
  0
LINE
  8
CSLAYER1
  6
CONTINUOUS
 62
     4
 10
1051.175334
 20
1420.287245
 11
1051.022335
 21
1419.560625
  0
LINE
  8
CSLAYER1
  6
CONTINUOUS
 62
     4
 10
1051.022335
 20
1419.560625
 11
1050.932911
 21
1418.280028
  0
LINE
  8
CSLAYER1
  6
CONTINUOUS
 62
     4
 10
1050.932911
 20
1418.280028
 11
1051.022335
 21
1416.999431
  0
LINE
  8
CSLAYER1
  6
CONTINUOUS
 62
     4
 10
1051.022335
 20
1416.999431
 11
1051.289929
 21
1415.728580
  0
LINE
  8
CSLAYER1
  6
CONTINUOUS
 62
     4
 10
1051.289929
 20
1415.728580
 11
1051.733654
 21
1414.477147
  0
LINE
  8
CSLAYER1
  6
CONTINUOUS
 62
     4
 10
1051.733654
 20
1414.477147
 11
1052.350134
 21
1413.254657
  0
LINE
  8
CSLAYER1
  6
CONTINUOUS
 62
     4
 10
1052.350134
 20
1413.254657
 11
1053.134678
 21
1412.070412
  0
LINE
  8
CSLAYER1
  6
CONTINUOUS
 62
     4
 10
1053.134678
 20
1412.070412
 11
1054.081314
 21
1410.933427
  0
LINE
  8
CSLAYER1
  6
CONTINUOUS
 62
     4
 10
1054.081314
 20
1410.933427
 11
1055.182838
 21
1409.852353
  0
LINE
  8
CSLAYER1
  6
CONTINUOUS
 62
     4
 10
1055.182838
 20
1409.852353
 11
1056.430866
 21
1408.835419
  0
LINE
  8
CSLAYER1
  6
CONTINUOUS
 62
     4
 10
1056.430866
 20
1408.835419
 11
1057.815902
 21
1407.890365
  0
LINE
  8
CSLAYER1
  6
CONTINUOUS
 62
     4
 10
1057.815902
 20
1407.890365
 11
1059.327402
 21
1407.024382
  0
LINE
  8
CSLAYER1
  6
CONTINUOUS
 62
     4
 10
1059.327402
 20
1407.024382
 11
1060.953865
 21
1406.244061
  0
LINE
  8
CSLAYER1
  6
CONTINUOUS
 62
     4
 10
1060.953865
 20
1406.244061
 11
1062.682911
 21
1405.555341
  0
LINE
  8
CSLAYER1
  6
CONTINUOUS
 62
     4
 10
1062.682911
 20
1405.555341
 11
1064.501382
 21
1404.963464
  0
LINE
  8
CSLAYER1
  6
CONTINUOUS
 62
     4
 10
1084.364440
 20
1404.963464
 11
1086.182911
 21
1405.555341
  0
LINE
  8
CSLAYER1
  6
CONTINUOUS
 62
     4
 10
1086.182911
 20
1405.555341
 11
1087.911957
 21
1406.244061
  0
LINE
  8
CSLAYER1
  6
CONTINUOUS
 62
     4
 10
1087.911957
 20
1406.244061
 11
1089.538420
 21
1407.024382
  0
LINE
  8
CSLAYER1
  6
CONTINUOUS
 62
     4
 10
1089.538420
 20
1407.024382
 11
1091.049920
 21
1407.890365
  0
LINE
  8
CSLAYER1
  6
CONTINUOUS
 62
     4
 10
1091.049920
 20
1407.890365
 11
1092.434955
 21
1408.835419
  0
LINE
  8
CSLAYER1
  6
CONTINUOUS
 62
     4
 10
1092.434955
 20
1408.835419
 11
1093.682984
 21
1409.852353
  0
LINE
  8
CSLAYER1
  6
CONTINUOUS
 62
     4
 10
1093.682984
 20
1409.852353
 11
1094.784508
 21
1410.933427
  0
LINE
  8
CSLAYER1
  6
CONTINUOUS
 62
     4
 10
1094.784508
 20
1410.933427
 11
1095.731144
 21
1412.070412
  0
LINE
  8
CSLAYER1
  6
CONTINUOUS
 62
     4
 10
1095.731144
 20
1412.070412
 11
1096.515687
 21
1413.254657
  0
LINE
  8
CSLAYER1
  6
CONTINUOUS
 62
     4
 10
1096.515687
 20
1413.254657
 11
1097.132168
 21
1414.477147
  0
LINE
  8
CSLAYER1
  6
CONTINUOUS
 62
     4
 10
1097.132168
 20
1414.477147
 11
1097.575893
 21
1415.728580
  0
LINE
  8
CSLAYER1
  6
CONTINUOUS
 62
     4
 10
1097.575893
 20
1415.728580
 11
1097.843486
 21
1416.999431
  0
LINE
  8
CSLAYER1
  6
CONTINUOUS
 62
     4
 10
1097.843486
 20
1416.999431
 11
1097.932911
 21
1418.280028
  0
LINE
  8
CSLAYER1
  6
CONTINUOUS
 62
     4
 10
1053.082911
 20
1294.214124
 11
1053.082911
 21
1307.948037
  0
LINE
  8
CSLAYER1
  6
CONTINUOUS
 62
     4
 10
1095.782911
 20
1294.214124
 11
1095.782911
 21
1307.948037
  0
LINE
  8
CSLAYER1
  6
CONTINUOUS
 62
     4
 10
1053.082911
 20
1294.214124
 11
1053.164154
 21
1293.050688
  0
LINE
  8
CSLAYER1
  6
CONTINUOUS
 62
     4
 10
1053.164154
 20
1293.050688
 11
1053.407265
 21
1291.896107
  0
LINE
  8
CSLAYER1
  6
CONTINUOUS
 62
     4
 10
1053.407265
 20
1291.896107
 11
1053.810395
 21
1290.759167
  0
LINE
  8
CSLAYER1
  6
CONTINUOUS
 62
     4
 10
1053.810395
 20
1290.759167
 11
1054.370473
 21
1289.648521
  0
LINE
  8
CSLAYER1
  6
CONTINUOUS
 62
     4
 10
1054.370473
 20
1289.648521
 11
1055.083240
 21
1288.572623
  0
LINE
  8
CSLAYER1
  6
CONTINUOUS
 62
     4
 10
1055.083240
 20
1288.572623
 11
1055.943269
 21
1287.539659
  0
LINE
  8
CSLAYER1
  6
CONTINUOUS
 62
     4
 10
1055.943269
 20
1287.539659
 11
1056.944015
 21
1286.557492
  0
LINE
  8
CSLAYER1
  6
CONTINUOUS
 62
     4
 10
1056.944015
 20
1286.557492
 11
1058.077862
 21
1285.633597
  0
LINE
  8
CSLAYER1
  6
CONTINUOUS
 62
     4
 10
1058.077862
 20
1285.633597
 11
1059.336181
 21
1284.775005
  0
LINE
  8
CSLAYER1
  6
CONTINUOUS
 62
     4
 10
1059.336181
 20
1284.775005
 11
1060.709395
 21
1283.988250
  0
LINE
  8
CSLAYER1
  6
CONTINUOUS
 62
     4
 10
1060.709395
 20
1283.988250
 11
1062.187054
 21
1283.279321
  0
LINE
  8
CSLAYER1
  6
CONTINUOUS
 62
     4
 10
1062.187054
 20
1283.279321
 11
1063.757911
 21
1282.653611
  0
LINE
  8
CSLAYER1
  6
CONTINUOUS
 62
     4
 10
1063.757911
 20
1282.653611
 11
1065.410011
 21
1282.115885
  0
LINE
  8
CSLAYER1
  6
CONTINUOUS
 62
     4
 10
1065.410011
 20
1282.115885
 11
1067.130781
 21
1281.670233
  0
LINE
  8
CSLAYER1
  6
CONTINUOUS
 62
     4
 10
1067.130781
 20
1281.670233
 11
1068.907124
 21
1281.320047
  0
LINE
  8
CSLAYER1
  6
CONTINUOUS
 62
     4
 10
1068.907124
 20
1281.320047
 11
1070.725522
 21
1281.067994
  0
LINE
  8
CSLAYER1
  6
CONTINUOUS
 62
     4
 10
1070.725522
 20
1281.067994
 11
1072.572136
 21
1280.915990
  0
LINE
  8
CSLAYER1
  6
CONTINUOUS
 62
     4
 10
1072.572136
 20
1280.915990
 11
1074.432911
 21
1280.865194
  0
LINE
  8
CSLAYER1
  6
CONTINUOUS
 62
     4
 10
1074.432911
 20
1280.865194
 11
1076.293686
 21
1280.915990
  0
LINE
  8
CSLAYER1
  6
CONTINUOUS
 62
     4
 10
1076.293686
 20
1280.915990
 11
1078.140299
 21
1281.067994
  0
LINE
  8
CSLAYER1
  6
CONTINUOUS
 62
     4
 10
1078.140299
 20
1281.067994
 11
1079.958698
 21
1281.320047
  0
LINE
  8
CSLAYER1
  6
CONTINUOUS
 62
     4
 10
1079.958698
 20
1281.320047
 11
1081.735041
 21
1281.670233
  0
LINE
  8
CSLAYER1
  6
CONTINUOUS
 62
     4
 10
1081.735041
 20
1281.670233
 11
1083.455811
 21
1282.115885
  0
LINE
  8
CSLAYER1
  6
CONTINUOUS
 62
     4
 10
1083.455811
 20
1282.115885
 11
1085.107911
 21
1282.653611
  0
LINE
  8
CSLAYER1
  6
CONTINUOUS
 62
     4
 10
1085.107911
 20
1282.653611
 11
1086.678768
 21
1283.279321
  0
LINE
  8
CSLAYER1
  6
CONTINUOUS
 62
     4
 10
1086.678768
 20
1283.279321
 11
1088.156426
 21
1283.988250
  0
LINE
  8
CSLAYER1
  6
CONTINUOUS
 62
     4
 10
1088.156426
 20
1283.988250
 11
1089.529641
 21
1284.775005
  0
LINE
  8
CSLAYER1
  6
CONTINUOUS
 62
     4
 10
1089.529641
 20
1284.775005
 11
1090.787960
 21
1285.633597
  0
LINE
  8
CSLAYER1
  6
CONTINUOUS
 62
     4
 10
1090.787960
 20
1285.633597
 11
1091.921807
 21
1286.557492
  0
LINE
  8
CSLAYER1
  6
CONTINUOUS
 62
     4
 10
1091.921807
 20
1286.557492
 11
1092.922553
 21
1287.539659
  0
LINE
  8
CSLAYER1
  6
CONTINUOUS
 62
     4
 10
1092.922553
 20
1287.539659
 11
1093.782582
 21
1288.572623
  0
LINE
  8
CSLAYER1
  6
CONTINUOUS
 62
     4
 10
1093.782582
 20
1288.572623
 11
1094.495348
 21
1289.648521
  0
LINE
  8
CSLAYER1
  6
CONTINUOUS
 62
     4
 10
1094.495348
 20
1289.648521
 11
1095.055427
 21
1290.759167
  0
LINE
  8
CSLAYER1
  6
CONTINUOUS
 62
     4
 10
1095.055427
 20
1290.759167
 11
1095.458556
 21
1291.896107
  0
LINE
  8
CSLAYER1
  6
CONTINUOUS
 62
     4
 10
1095.458556
 20
1291.896107
 11
1095.701668
 21
1293.050688
  0
LINE
  8
CSLAYER1
  6
CONTINUOUS
 62
     4
 10
1095.701668
 20
1293.050688
 11
1095.782911
 21
1294.214124
  0
LINE
  8
CSLAYER1
  6
CONTINUOUS
 62
     4
 10
1112.582911
 20
1294.214124
 11
1112.437739
 21
1296.293051
  0
LINE
  8
CSLAYER1
  6
CONTINUOUS
 62
     4
 10
1112.437739
 20
1296.293051
 11
1112.003327
 21
1298.356156
  0
LINE
  8
CSLAYER1
  6
CONTINUOUS
 62
     4
 10
1112.003327
 20
1298.356156
 11
1111.282981
 21
1300.387737
  0
LINE
  8
CSLAYER1
  6
CONTINUOUS
 62
     4
 10
1111.282981
 20
1300.387737
 11
1110.282184
 21
1302.372333
  0
LINE
  8
CSLAYER1
  6
CONTINUOUS
 62
     4
 10
1110.282184
 20
1302.372333
 11
1109.008553
 21
1304.294841
  0
LINE
  8
CSLAYER1
  6
CONTINUOUS
 62
     4
 10
1109.008553
 20
1304.294841
 11
1107.471780
 21
1306.140628
  0
LINE
  8
CSLAYER1
  6
CONTINUOUS
 62
     4
 10
1107.471780
 20
1306.140628
 11
1105.683561
 21
1307.895647
  0
LINE
  8
CSLAYER1
  6
CONTINUOUS
 62
     4
 10
1043.182260
 20
1307.895647
 11
1041.394042
 21
1306.140628
  0
LINE
  8
CSLAYER1
  6
CONTINUOUS
 62
     4
 10
1041.394042
 20
1306.140628
 11
1039.857269
 21
1304.294841
  0
LINE
  8
CSLAYER1
  6
CONTINUOUS
 62
     4
 10
1039.857269
 20
1304.294841
 11
1038.583637
 21
1302.372333
  0
LINE
  8
CSLAYER1
  6
CONTINUOUS
 62
     4
 10
1038.583637
 20
1302.372333
 11
1037.582841
 21
1300.387737
  0
LINE
  8
CSLAYER1
  6
CONTINUOUS
 62
     4
 10
1037.582841
 20
1300.387737
 11
1036.862495
 21
1298.356156
  0
LINE
  8
CSLAYER1
  6
CONTINUOUS
 62
     4
 10
1036.862495
 20
1298.356156
 11
1036.428083
 21
1296.293051
  0
LINE
  8
CSLAYER1
  6
CONTINUOUS
 62
     4
 10
1036.428083
 20
1296.293051
 11
1036.282911
 21
1294.214124
  0
LINE
  8
CSLAYER1
  6
CONTINUOUS
 62
     4
 10
1036.282911
 20
1294.214124
 11
1036.428083
 21
1292.135198
  0
LINE
  8
CSLAYER1
  6
CONTINUOUS
 62
     4
 10
1036.428083
 20
1292.135198
 11
1036.862495
 21
1290.072093
  0
LINE
  8
CSLAYER1
  6
CONTINUOUS
 62
     4
 10
1036.862495
 20
1290.072093
 11
1037.582841
 21
1288.040512
  0
LINE
  8
CSLAYER1
  6
CONTINUOUS
 62
     4
 10
1037.582841
 20
1288.040512
 11
1038.583637
 21
1286.055915
  0
LINE
  8
CSLAYER1
  6
CONTINUOUS
 62
     4
 10
1038.583637
 20
1286.055915
 11
1039.857269
 21
1284.133408
  0
LINE
  8
CSLAYER1
  6
CONTINUOUS
 62
     4
 10
1039.857269
 20
1284.133408
 11
1041.394042
 21
1282.287621
  0
LINE
  8
CSLAYER1
  6
CONTINUOUS
 62
     4
 10
1041.394042
 20
1282.287621
 11
1043.182260
 21
1280.532601
  0
LINE
  8
CSLAYER1
  6
CONTINUOUS
 62
     4
 10
1043.182260
 20
1280.532601
 11
1045.208315
 21
1278.881707
  0
LINE
  8
CSLAYER1
  6
CONTINUOUS
 62
     4
 10
1045.208315
 20
1278.881707
 11
1047.456787
 21
1277.347501
  0
LINE
  8
CSLAYER1
  6
CONTINUOUS
 62
     4
 10
1047.456787
 20
1277.347501
 11
1049.910564
 21
1275.941661
  0
LINE
  8
CSLAYER1
  6
CONTINUOUS
 62
     4
 10
1049.910564
 20
1275.941661
 11
1052.550970
 21
1274.674885
  0
LINE
  8
CSLAYER1
  6
CONTINUOUS
 62
     4
 10
1052.550970
 20
1274.674885
 11
1055.357911
 21
1273.556814
  0
LINE
  8
CSLAYER1
  6
CONTINUOUS
 62
     4
 10
1055.357911
 20
1273.556814
 11
1058.310024
 21
1272.595958
  0
LINE
  8
CSLAYER1
  6
CONTINUOUS
 62
     4
 10
1058.310024
 20
1272.595958
 11
1061.384842
 21
1271.799629
  0
LINE
  8
CSLAYER1
  6
CONTINUOUS
 62
     4
 10
1061.384842
 20
1271.799629
 11
1064.558964
 21
1271.173889
  0
LINE
  8
CSLAYER1
  6
CONTINUOUS
 62
     4
 10
1064.558964
 20
1271.173889
 11
1067.808233
 21
1270.723498
  0
LINE
  8
CSLAYER1
  6
CONTINUOUS
 62
     4
 10
1067.808233
 20
1270.723498
 11
1071.107919
 21
1270.451885
  0
LINE
  8
CSLAYER1
  6
CONTINUOUS
 62
     4
 10
1071.107919
 20
1270.451885
 11
1074.432911
 21
1270.361117
  0
LINE
  8
CSLAYER1
  6
CONTINUOUS
 62
     4
 10
1074.432911
 20
1270.361117
 11
1077.757902
 21
1270.451885
  0
LINE
  8
CSLAYER1
  6
CONTINUOUS
 62
     4
 10
1077.757902
 20
1270.451885
 11
1081.057589
 21
1270.723498
  0
LINE
  8
CSLAYER1
  6
CONTINUOUS
 62
     4
 10
1081.057589
 20
1270.723498
 11
1084.306857
 21
1271.173889
  0
LINE
  8
CSLAYER1
  6
CONTINUOUS
 62
     4
 10
1084.306857
 20
1271.173889
 11
1087.480979
 21
1271.799629
  0
LINE
  8
CSLAYER1
  6
CONTINUOUS
 62
     4
 10
1087.480979
 20
1271.799629
 11
1090.555798
 21
1272.595958
  0
LINE
  8
CSLAYER1
  6
CONTINUOUS
 62
     4
 10
1090.555798
 20
1272.595958
 11
1093.507911
 21
1273.556814
  0
LINE
  8
CSLAYER1
  6
CONTINUOUS
 62
     4
 10
1093.507911
 20
1273.556814
 11
1096.314852
 21
1274.674885
  0
LINE
  8
CSLAYER1
  6
CONTINUOUS
 62
     4
 10
1096.314852
 20
1274.674885
 11
1098.955258
 21
1275.941661
  0
LINE
  8
CSLAYER1
  6
CONTINUOUS
 62
     4
 10
1098.955258
 20
1275.941661
 11
1101.409035
 21
1277.347501
  0
LINE
  8
CSLAYER1
  6
CONTINUOUS
 62
     4
 10
1101.409035
 20
1277.347501
 11
1103.657506
 21
1278.881707
  0
LINE
  8
CSLAYER1
  6
CONTINUOUS
 62
     4
 10
1103.657506
 20
1278.881707
 11
1105.683561
 21
1280.532601
  0
LINE
  8
CSLAYER1
  6
CONTINUOUS
 62
     4
 10
1105.683561
 20
1280.532601
 11
1107.471780
 21
1282.287621
  0
LINE
  8
CSLAYER1
  6
CONTINUOUS
 62
     4
 10
1107.471780
 20
1282.287621
 11
1109.008553
 21
1284.133408
  0
LINE
  8
CSLAYER1
  6
CONTINUOUS
 62
     4
 10
1109.008553
 20
1284.133408
 11
1110.282184
 21
1286.055915
  0
LINE
  8
CSLAYER1
  6
CONTINUOUS
 62
     4
 10
1110.282184
 20
1286.055915
 11
1111.282981
 21
1288.040512
  0
LINE
  8
CSLAYER1
  6
CONTINUOUS
 62
     4
 10
1111.282981
 20
1288.040512
 11
1112.003327
 21
1290.072093
  0
LINE
  8
CSLAYER1
  6
CONTINUOUS
 62
     4
 10
1112.003327
 20
1290.072093
 11
1112.437739
 21
1292.135198
  0
LINE
  8
CSLAYER1
  6
CONTINUOUS
 62
     4
 10
1112.437739
 20
1292.135198
 11
1112.582911
 21
1294.214124
  0
LINE
  8
CSLAYER1
  6
CONTINUOUS
 62
     4
 10
1095.782911
 20
1368.448037
 11
1095.782911
 21
1407.450856
  0
LINE
  8
CSLAYER1
  6
CONTINUOUS
 62
     4
 10
1053.082911
 20
1368.448037
 11
1053.082911
 21
1407.450856
  0
LINE
  8
CSLAYER1
  6
CONTINUOUS
 62
     4
 10
1192.432911
 20
815.169878
 11
1192.432911
 21
824.851938
  0
LINE
  8
CSLAYER1
  6
CONTINUOUS
 62
     4
 10
1188.032911
 20
812.329289
 11
1188.032911
 21
824.851938
  0
LINE
  8
CSLAYER1
  6
CONTINUOUS
 62
     4
 10
1183.032911
 20
842.553496
 11
1183.032911
 21
864.304968
  0
LINE
  8
CSLAYER1
  6
CONTINUOUS
 62
     4
 10
1192.432911
 20
815.169878
 11
1188.032911
 21
815.169878
  0
LINE
  8
CSLAYER1
  6
CONTINUOUS
 62
     4
 10
1172.932911
 20
815.169878
 11
1156.432911
 21
815.169878
  0
LINE
  8
CSLAYER1
  6
CONTINUOUS
 62
     4
 10
1116.932911
 20
1089.778485
 11
1116.932911
 21
1040.047888
  0
LINE
  8
CSLAYER1
  6
CONTINUOUS
 62
     4
 10
1165.432911
 20
1040.047888
 11
1165.432911
 21
1068.749317
  0
LINE
  8
CSLAYER1
  6
CONTINUOUS
 62
     4
 10
1116.932911
 20
1087.511902
 11
1135.432911
 21
1087.511902
  0
LINE
  8
CSLAYER1
  6
CONTINUOUS
 62
     4
 10
1135.432911
 20
1087.511902
 11
1165.432911
 21
1068.749317
  0
LINE
  8
CSLAYER1
  6
CENTER
 62
     5
 10
840.432911
 20
759.633060
 11
840.432911
 21
906.433060
  0
INSERT
  8
CSLAYER1
  2
BLKF0008
 10
0.0
 20
0.0
 30
0.0
  0
INSERT
  8
CSLAYER1
  2
BLKF0009
 10
0.0
 20
0.0
 30
0.0
  0
INSERT
  8
CSLAYER1
  2
BLKF0010
 10
0.0
 20
0.0
 30
0.0
  0
LINE
  8
CSLAYER1
  6
CONTINUOUS
 62
     3
 10
830.432911
 20
759.633060
 11
830.432911
 21
880.633060
  0
LINE
  8
CSLAYER1
  6
CONTINUOUS
 62
     3
 10
850.432911
 20
759.633060
 11
850.432911
 21
880.633060
  0
LINE
  8
CSLAYER1
  6
CONTINUOUS
 62
     3
 10
849.932911
 20
906.433060
 11
830.932911
 21
906.433060
  0
LINE
  8
CSLAYER1
  6
CONTINUOUS
 62
     3
 10
851.402566
 20
898.433060
 11
829.463256
 21
898.433060
  0
LINE
  8
CSLAYER1
  6
CONTINUOUS
 62
     3
 10
851.402566
 20
905.584555
 11
851.402566
 21
898.433060
  0
LINE
  8
CSLAYER1
  6
CONTINUOUS
 62
     3
 10
845.917738
 20
905.584555
 11
845.917738
 21
898.433060
  0
LINE
  8
CSLAYER1
  6
CONTINUOUS
 62
     3
 10
849.932911
 20
906.433060
 11
851.402566
 21
905.584555
  0
ARC
  8
CSLAYER1
  6
CONTINUOUS
 62
     3
 10
840.432911
 20
888.281566
 40
18.151494
 50
72.412046
 51
107.587954
  0
ARC
  8
CSLAYER1
  6
CONTINUOUS
 62
     3
 10
848.660152
 20
901.590668
 40
4.844787
 50
64.475551
 51
124.475551
  0
LINE
  8
CSLAYER1
  6
CONTINUOUS
 62
     3
 10
829.463256
 20
905.584555
 11
829.463256
 21
898.433060
  0
LINE
  8
CSLAYER1
  6
CONTINUOUS
 62
     3
 10
834.948083
 20
905.584555
 11
834.948083
 21
898.433060
  0
LINE
  8
CSLAYER1
  6
CONTINUOUS
 62
     3
 10
830.932911
 20
906.433060
 11
829.463256
 21
905.584555
  0
ARC
  8
CSLAYER1
  6
CONTINUOUS
 62
     3
 10
832.205670
 20
901.590668
 40
4.844787
 50
55.524449
 51
115.524449
  0
LINE
  8
CSLAYER1
  6
CONTINUOUS
 62
     3
 10
846.432911
 20
898.433060
 11
845.432911
 21
896.701010
  0
LINE
  8
CSLAYER1
  6
CONTINUOUS
 62
     3
 10
834.432911
 20
898.433060
 11
835.432911
 21
896.701010
  0
POINT
  8
CSLAYER1
 62
     3
 10
840.432911
 20
898.433060
  0
LINE
  8
CSLAYER1
  6
CONTINUOUS
 62
     3
 10
846.432911
 20
898.433060
 11
846.432911
 21
890.633060
  0
LINE
  8
CSLAYER1
  6
CONTINUOUS
 62
     3
 10
845.432911
 20
896.701010
 11
845.432911
 21
890.633060
  0
LINE
  8
CSLAYER1
  6
CONTINUOUS
 62
     3
 10
835.432911
 20
896.701010
 11
835.432911
 21
890.633060
  0
LINE
  8
CSLAYER1
  6
CONTINUOUS
 62
     3
 10
834.432911
 20
898.433060
 11
834.432911
 21
890.633060
  0
INSERT
  8
CSLAYER1
  2
BLKF0011
 10
0.0
 20
0.0
 30
0.0
  0
INSERT
  8
CSLAYER1
  2
BLKF0012
 10
0.0
 20
0.0
 30
0.0
  0
INSERT
  8
CSLAYER1
  2
BLKF0013
 10
0.0
 20
0.0
 30
0.0
  0
LINE
  8
CSLAYER1
  6
CONTINUOUS
 62
     4
 10
1036.432911
 20
1368.448037
 11
927.432911
 21
1368.448037
  0
LINE
  8
CSLAYER1
  6
CONTINUOUS
 62
     7
 10
927.432911
 20
1496.660105
 11
918.432911
 21
1496.660105
  0
LINE
  8
CSLAYER1
  6
CONTINUOUS
 62
     4
 10
982.432911
 20
1057.741940
 11
973.432911
 21
1057.741940
  0
LINE
  8
CSLAYER1
  6
CONTINUOUS
 62
     4
 10
982.432911
 20
1040.047888
 11
982.432911
 21
1057.741940
  0
LINE
  8
CSLAYER1
  6
CONTINUOUS
 62
     4
 10
973.432911
 20
1040.047888
 11
973.432911
 21
1057.741940
  0
INSERT
  8
CSLAYER1
  2
BLKF0014
 10
0.0
 20
0.0
 30
0.0
  0
LINE
  8
CSLAYER1
  6
CONTINUOUS
 62
     4
 10
909.432911
 20
959.821241
 11
905.432911
 21
959.821241
  0
LINE
  8
CSLAYER1
  6
CONTINUOUS
 62
     4
 10
909.432911
 20
864.304968
 11
905.432911
 21
864.304968
  0
LINE
  8
CSLAYER1
  6
CONTINUOUS
 62
     7
 10
927.432911
 20
1307.948037
 11
927.432911
 21
1496.660105
  0
LINE
  8
CSLAYER1
  6
CONTINUOUS
 62
     4
 10
1031.932911
 20
1089.778485
 11
1031.932911
 21
1040.047888
  0
LINE
  8
CSLAYER1
  6
CONTINUOUS
 62
     4
 10
983.432911
 20
1040.047888
 11
983.432911
 21
1068.749317
  0
LINE
  8
CSLAYER1
  6
CONTINUOUS
 62
     4
 10
1031.932911
 20
1087.511902
 11
1013.432911
 21
1087.511902
  0
LINE
  8
CSLAYER1
  6
CONTINUOUS
 62
     4
 10
1013.432911
 20
1087.511902
 11
983.432911
 21
1068.749317
  0
LINE
  8
CSLAYER1
  6
CONTINUOUS
 62
     7
 10
918.432911
 20
759.633060
 11
918.432911
 21
1911.992372
  0
LINE
  8
CSLAYER1
  6
CONTINUOUS
 62
     7
 10
909.432911
 20
759.633060
 11
909.432911
 21
1911.992372
  0
LINE
  8
CSLAYER1
  6
CONTINUOUS
 62
     7
 10
896.432911
 20
759.633060
 11
896.432911
 21
1911.992372
  0
LINE
  8
CSLAYER1
  6
CONTINUOUS
 62
     7
 10
905.432911
 20
759.633060
 11
905.432911
 21
1911.992372
  0
LINE
  8
CSLAYER1
  6
CONTINUOUS
 62
     7
 10
1130.932911
 20
808.933060
 11
947.932911
 21
808.933060
  0
LINE
  8
CSLAYER1
  6
CONTINUOUS
 62
     1
 10
1130.932911
 20
802.933060
 11
1129.432911
 21
802.933060
  0
LINE
  8
CSLAYER1
  6
CONTINUOUS
 62
     1
 10
1130.932911
 20
802.933060
 11
1130.932911
 21
808.933060
  0
LINE
  8
CSLAYER1
  6
CENTER
 62
     5
 10
1094.876073
 20
787.933060
 11
1123.269659
 21
787.933060
  0
CIRCLE
  8
CSLAYER1
  6
CONTINUOUS
 62
     4
 10
1109.432911
 20
787.933060
 40
11.500000
  0
LINE
  8
CSLAYER1
  6
CONTINUOUS
 62
     4
 10
1108.932911
 20
800.923441
 11
1098.432911
 21
794.861264
  0
LINE
  8
CSLAYER1
  6
CONTINUOUS
 62
     4
 10
1097.932911
 20
793.995238
 11
1097.932911
 21
781.870883
  0
LINE
  8
CSLAYER1
  6
CONTINUOUS
 62
     4
 10
1098.432911
 20
781.004857
 11
1108.932911
 21
774.942679
  0
ARC
  8
CSLAYER1
  6
CONTINUOUS
 62
     4
 10
1109.432911
 20
787.933060
 40
13.000000
 50
87.795772
 51
92.204228
  0
ARC
  8
CSLAYER1
  6
CONTINUOUS
 62
     4
 10
1109.432911
 20
787.933060
 40
13.000000
 50
267.795772
 51
272.204228
  0
ARC
  8
CSLAYER1
  6
CONTINUOUS
 62
     4
 10
1109.432911
 20
787.933060
 40
13.000000
 50
207.795772
 51
212.204228
  0
ARC
  8
CSLAYER1
  6
CONTINUOUS
 62
     4
 10
1109.432911
 20
787.933060
 40
13.000000
 50
147.795772
 51
152.204228
  0
CIRCLE
  8
CSLAYER1
  6
CONTINUOUS
 62
     4
 10
1109.432911
 20
787.933060
 40
4.000000
  0
CIRCLE
  8
CSLAYER1
  6
CONTINUOUS
 62
     4
 10
1109.432911
 20
787.933060
 40
10.359534
  0
CIRCLE
  8
CSLAYER1
  6
CONTINUOUS
 62
     4
 10
1109.432911
 20
787.933060
 40
4.761355
  0
LINE
  8
CSLAYER1
  6
CONTINUOUS
 62
     4
 10
1109.932911
 20
800.923441
 11
1120.432911
 21
794.861264
  0
LINE
  8
CSLAYER1
  6
CONTINUOUS
 62
     4
 10
1120.932911
 20
793.995238
 11
1120.932911
 21
781.870883
  0
LINE
  8
CSLAYER1
  6
CONTINUOUS
 62
     4
 10
1120.432911
 20
781.004857
 11
1109.932911
 21
774.942679
  0
ARC
  8
CSLAYER1
  6
CONTINUOUS
 62
     4
 10
1109.432911
 20
787.933060
 40
13.000000
 50
327.795772
 51
332.204228
  0
ARC
  8
CSLAYER1
  6
CONTINUOUS
 62
     4
 10
1109.432911
 20
787.933060
 40
13.000000
 50
27.795772
 51
32.204228
  0
LINE
  8
CSLAYER1
  6
CENTER
 62
     5
 10
1109.432911
 20
803.853926
 11
1109.432911
 21
771.635296
  0
LINE
  8
CSLAYER1
  6
CENTER
 62
     5
 10
1059.876073
 20
787.933060
 11
1088.269659
 21
787.933060
  0
CIRCLE
  8
CSLAYER1
  6
CONTINUOUS
 62
     4
 10
1074.432911
 20
787.933060
 40
11.500000
  0
LINE
  8
CSLAYER1
  6
CONTINUOUS
 62
     4
 10
1073.932911
 20
800.923441
 11
1063.432911
 21
794.861264
  0
LINE
  8
CSLAYER1
  6
CONTINUOUS
 62
     4
 10
1062.932911
 20
793.995238
 11
1062.932911
 21
781.870883
  0
LINE
  8
CSLAYER1
  6
CONTINUOUS
 62
     4
 10
1063.432911
 20
781.004857
 11
1073.932911
 21
774.942679
  0
ARC
  8
CSLAYER1
  6
CONTINUOUS
 62
     4
 10
1074.432911
 20
787.933060
 40
13.000000
 50
87.795772
 51
92.204228
  0
ARC
  8
CSLAYER1
  6
CONTINUOUS
 62
     4
 10
1074.432911
 20
787.933060
 40
13.000000
 50
267.795772
 51
272.204228
  0
ARC
  8
CSLAYER1
  6
CONTINUOUS
 62
     4
 10
1074.432911
 20
787.933060
 40
13.000000
 50
207.795772
 51
212.204228
  0
ARC
  8
CSLAYER1
  6
CONTINUOUS
 62
     4
 10
1074.432911
 20
787.933060
 40
13.000000
 50
147.795772
 51
152.204228
  0
CIRCLE
  8
CSLAYER1
  6
CONTINUOUS
 62
     4
 10
1074.432911
 20
787.933060
 40
4.000000
  0
CIRCLE
  8
CSLAYER1
  6
CONTINUOUS
 62
     4
 10
1074.432911
 20
787.933060
 40
10.359534
  0
CIRCLE
  8
CSLAYER1
  6
CONTINUOUS
 62
     4
 10
1074.432911
 20
787.933060
 40
4.761355
  0
LINE
  8
CSLAYER1
  6
CONTINUOUS
 62
     4
 10
1074.932911
 20
800.923441
 11
1085.432911
 21
794.861264
  0
LINE
  8
CSLAYER1
  6
CONTINUOUS
 62
     4
 10
1085.932911
 20
793.995238
 11
1085.932911
 21
781.870883
  0
LINE
  8
CSLAYER1
  6
CONTINUOUS
 62
     4
 10
1085.432911
 20
781.004857
 11
1074.932911
 21
774.942679
  0
ARC
  8
CSLAYER1
  6
CONTINUOUS
 62
     4
 10
1074.432911
 20
787.933060
 40
13.000000
 50
327.795772
 51
332.204228
  0
ARC
  8
CSLAYER1
  6
CONTINUOUS
 62
     4
 10
1074.432911
 20
787.933060
 40
13.000000
 50
27.795772
 51
32.204228
  0
LINE
  8
CSLAYER1
  6
CONTINUOUS
 62
     7
 10
1130.932911
 20
802.933060
 11
947.932911
 21
802.933060
  0
INSERT
  8
CSLAYER1
  2
BLKF0015
 10
0.0
 20
0.0
 30
0.0
  0
LINE
  8
CSLAYER1
  6
CONTINUOUS
 62
     5
 10
1074.432911
 20
803.853926
 11
1074.432911
 21
771.635296
  0
LINE
  8
CSLAYER1
  6
CONTINUOUS
 62
     1
 10
1130.932911
 20
808.933060
 11
947.932911
 21
808.933060
  0
LINE
  8
CSLAYER1
  6
CONTINUOUS
 62
     5
 10
1094.876073
 20
787.933060
 11
1123.269659
 21
787.933060
  0
LINE
  8
CSLAYER1
  6
CONTINUOUS
 62
     5
 10
1109.432911
 20
803.853926
 11
1109.432911
 21
771.635296
  0
LINE
  8
CSLAYER1
  6
CONTINUOUS
 62
     5
 10
1059.876073
 20
787.933060
 11
1088.269659
 21
787.933060
  0
LINE
  8
CSLAYER1
  6
CONTINUOUS
 62
     7
 10
1129.432911
 20
802.933060
 11
1129.432911
 21
759.633060
  0
LINE
  8
CSLAYER1
  6
CONTINUOUS
 62
     7
 10
1130.932911
 20
808.933060
 11
1130.932911
 21
802.933060
  0
LINE
  8
CSLAYER1
  6
CONTINUOUS
 62
     1
 10
947.932911
 20
802.933060
 11
949.432911
 21
802.933060
  0
LINE
  8
CSLAYER1
  6
CONTINUOUS
 62
     1
 10
947.932911
 20
802.933060
 11
947.932911
 21
808.933060
  0
INSERT
  8
CSLAYER1
  2
BLKF0016
 10
0.0
 20
0.0
 30
0.0
  0
LINE
  8
CSLAYER1
  6
CONTINUOUS
 62
     7
 10
947.932911
 20
808.933060
 11
947.932911
 21
802.933060
  0
LINE
  8
CSLAYER1
  6
CONTINUOUS
 62
     7
 10
949.432911
 20
802.933060
 11
949.432911
 21
759.633060
  0
LINE
  8
CSLAYER1
  6
CENTER
 62
     5
 10
918.432911
 20
1865.811888
 11
1230.432911
 21
1865.811888
  0
LINE
  8
CSLAYER1
  6
CONTINUOUS
 62
     7
 10
918.432911
 20
1896.061888
 11
1230.432911
 21
1896.061888
  0
LINE
  8
CSLAYER1
  6
CONTINUOUS
 62
     7
 10
918.432911
 20
1835.561888
 11
1230.432911
 21
1835.561888
  0
LINE
  8
CSLAYER1
  6
CONTINUOUS
 62
     7
 10
1293.432911
 20
1911.992372
 11
1293.432911
 21
1903.792372
  0
LINE
  8
CSLAYER1
  6
CONTINUOUS
 62
     7
 10
1281.432911
 20
1911.992372
 11
1281.432911
 21
1903.792372
  0
LINE
  8
CSLAYER1
  6
CONTINUOUS
 62
     7
 10
1281.932911
 20
1903.292372
 11
1292.932911
 21
1903.292372
  0
LINE
  8
CSLAYER1
  6
CONTINUOUS
 62
     7
 10
1293.932911
 20
1903.292372
 11
1304.932911
 21
1903.292372
  0
ARC
  8
CSLAYER1
  6
CONTINUOUS
 62
     7
 10
1292.932911
 20
1903.792372
 40
0.500000
 50
270.000000
 51
360.000000
  0
ARC
  8
CSLAYER1
  6
CONTINUOUS
 62
     7
 10
1281.932911
 20
1903.792372
 40
0.500000
 50
180.000000
 51
270.000000
  0
ARC
  8
CSLAYER1
  6
CONTINUOUS
 62
     7
 10
1304.932911
 20
1903.792372
 40
0.500000
 50
270.000000
 51
360.000000
  0
ARC
  8
CSLAYER1
  6
CONTINUOUS
 62
     7
 10
1293.932911
 20
1903.792372
 40
0.500000
 50
180.000000
 51
270.000000
  0
LINE
  8
CSLAYER1
  6
CONTINUOUS
 62
     7
 10
855.432911
 20
1911.992372
 11
855.432911
 21
1903.792372
  0
LINE
  8
CSLAYER1
  6
CONTINUOUS
 62
     7
 10
867.432911
 20
1911.992372
 11
867.432911
 21
1903.792372
  0
LINE
  8
CSLAYER1
  6
CONTINUOUS
 62
     7
 10
866.932911
 20
1903.292372
 11
855.932911
 21
1903.292372
  0
ARC
  8
CSLAYER1
  6
CONTINUOUS
 62
     7
 10
855.932911
 20
1903.792372
 40
0.500000
 50
180.000000
 51
270.000000
  0
ARC
  8
CSLAYER1
  6
CONTINUOUS
 62
     7
 10
866.932911
 20
1903.792372
 40
0.500000
 50
270.000000
 51
360.000000
  0
ARC
  8
CSLAYER1
  6
CONTINUOUS
 62
     7
 10
854.932911
 20
1903.792372
 40
0.500000
 50
270.000000
 51
360.000000
  0
LINE
  8
CSLAYER1
  6
CONTINUOUS
 62
     7
 10
854.932911
 20
1903.292372
 11
843.932911
 21
1903.292372
  0
ARC
  8
CSLAYER1
  6
CONTINUOUS
 62
     7
 10
843.932911
 20
1903.792372
 40
0.500000
 50
180.000000
 51
270.000000
  0
LINE
  8
CSLAYER1
  6
CONTINUOUS
 62
     7
 10
1243.432911
 20
1343.962716
 11
1252.432911
 21
1343.962716
  0
LINE
  8
CSLAYER1
  6
CONTINUOUS
 62
     7
 10
1230.432911
 20
1311.962716
 11
1239.432911
 21
1311.962716
  0
LINE
  8
CSLAYER1
  6
CONTINUOUS
 62
     7
 10
905.432911
 20
1343.962716
 11
896.432911
 21
1343.962716
  0
LINE
  8
CSLAYER1
  6
CONTINUOUS
 62
     7
 10
918.432911
 20
1311.962716
 11
909.432911
 21
1311.962716
  0
LINE
  8
CSLAYER1
  6
CENTER
 62
     5
 10
1233.364482
 20
829.851938
 11
1174.432911
 21
829.851938
  0
INSERT
  8
CSLAYER1
  2
BLKF0017
 10
0.0
 20
0.0
 30
0.0
  0
LINE
  8
CSLAYER1
  6
CENTER
 62
     5
 10
1233.364482
 20
791.138810
 11
1174.432911
 21
791.138810
  0
INSERT
  8
CSLAYER1
  2
BLKF0018
 10
0.0
 20
0.0
 30
0.0
  0
LINE
  8
CSLAYER1
  6
CONTINUOUS
 62
     3
 10
1172.432911
 20
759.633060
 11
1172.432911
 21
812.329289
  0
LINE
  8
CSLAYER1
  6
CONTINUOUS
 62
     3
 10
1169.432911
 20
759.633060
 11
1169.432911
 21
812.329289
  0
LINE
  8
CSLAYER1
  6
CONTINUOUS
 62
     3
 10
1176.932911
 20
842.553496
 11
1178.432911
 21
842.553496
  0
LINE
  8
CSLAYER1
  6
CONTINUOUS
 62
     3
 10
1188.432911
 20
775.861256
 11
1188.432911
 21
786.138810
  0
LINE
  8
CSLAYER1
  6
CONTINUOUS
 62
     1
 10
1172.432911
 20
775.861256
 11
1172.432911
 21
812.329289
  0
LINE
  8
CSLAYER1
  6
CONTINUOUS
 62
     1
 10
1188.432911
 20
775.861256
 11
1172.432911
 21
775.861256
  0
LINE
  8
CSLAYER1
  6
CONTINUOUS
 62
     3
 10
1188.432911
 20
812.329289
 11
1169.432911
 21
812.329289
  0
LINE
  8
CSLAYER1
  6
CONTINUOUS
 62
     3
 10
1189.432911
 20
778.413216
 11
1189.432911
 21
786.013216
  0
LINE
  8
CSLAYER1
  6
CONTINUOUS
 62
     3
 10
1189.432911
 20
778.413216
 11
1188.432911
 21
778.413216
  0
LINE
  8
CSLAYER1
  6
CONTINUOUS
 62
     3
 10
1189.432911
 20
786.013216
 11
1188.432911
 21
786.013216
  0
LINE
  8
CSLAYER1
  6
CONTINUOUS
 62
     3
 10
1192.032911
 20
780.713216
 11
1192.032911
 21
783.713216
  0
LINE
  8
CSLAYER1
  6
CONTINUOUS
 62
     3
 10
1190.032911
 20
778.713216
 11
1189.432911
 21
778.713216
  0
LINE
  8
CSLAYER1
  6
CONTINUOUS
 62
     3
 10
1190.032911
 20
785.713216
 11
1189.432911
 21
785.713216
  0
ARC
  8
CSLAYER1
  6
CONTINUOUS
 62
     3
 10
1190.032911
 20
780.713216
 40
2.000000
 50
270.000000
 51
360.000000
  0
ARC
  8
CSLAYER1
  6
CONTINUOUS
 62
     3
 10
1190.032911
 20
783.713216
 40
2.000000
 50
0.000000
 51
90.000000
  0
LINE
  8
CSLAYER1
  6
CONTINUOUS
 62
     3
 10
1189.432911
 20
800.001421
 11
1189.432911
 21
807.601421
  0
LINE
  8
CSLAYER1
  6
CONTINUOUS
 62
     3
 10
1189.432911
 20
800.001421
 11
1188.432911
 21
800.001421
  0
LINE
  8
CSLAYER1
  6
CONTINUOUS
 62
     3
 10
1189.432911
 20
807.601421
 11
1188.432911
 21
807.601421
  0
LINE
  8
CSLAYER1
  6
CONTINUOUS
 62
     3
 10
1192.032911
 20
802.301421
 11
1192.032911
 21
805.301421
  0
LINE
  8
CSLAYER1
  6
CONTINUOUS
 62
     3
 10
1190.032911
 20
800.301421
 11
1189.432911
 21
800.301421
  0
LINE
  8
CSLAYER1
  6
CONTINUOUS
 62
     3
 10
1190.032911
 20
807.301421
 11
1189.432911
 21
807.301421
  0
ARC
  8
CSLAYER1
  6
CONTINUOUS
 62
     3
 10
1190.032911
 20
802.301421
 40
2.000000
 50
270.000000
 51
360.000000
  0
ARC
  8
CSLAYER1
  6
CONTINUOUS
 62
     3
 10
1190.032911
 20
805.301421
 40
2.000000
 50
0.000000
 51
90.000000
  0
LINE
  8
CSLAYER1
  6
CENTER
 62
     5
 10
1162.042936
 20
770.633060
 11
1177.204612
 21
770.633060
  0
LINE
  8
CSLAYER1
  6
CONTINUOUS
 62
     3
 10
1172.432911
 20
775.861256
 11
1188.432911
 21
775.861256
  0
LINE
  8
CSLAYER1
  6
CONTINUOUS
 62
     4
 10
1192.432911
 20
834.851938
 11
1192.432911
 21
864.304968
  0
LINE
  8
CSLAYER1
  6
CONTINUOUS
 62
     4
 10
1188.032911
 20
834.851938
 11
1188.032911
 21
864.304968
  0
LINE
  8
CSLAYER1
  6
CONTINUOUS
 62
     3
 10
1183.932911
 20
837.632643
 11
1183.932911
 21
842.553496
  0
LINE
  8
CSLAYER1
  6
CONTINUOUS
 62
     3
 10
1176.932911
 20
837.632643
 11
1176.932911
 21
842.553496
  0
LINE
  8
CSLAYER1
  6
CONTINUOUS
 62
     3
 10
1175.446208
 20
837.632643
 11
1185.419614
 21
837.632643
  0
LINE
  8
CSLAYER1
  6
CONTINUOUS
 62
     3
 10
1172.932911
 20
829.486093
 11
1172.932911
 21
813.132643
  0
LINE
  8
CSLAYER1
  6
CONTINUOUS
 62
     3
 10
1187.932911
 20
829.486093
 11
1187.932911
 21
813.132643
  0
LINE
  8
CSLAYER1
  6
CONTINUOUS
 62
     3
 10
1185.419614
 20
837.632643
 11
1187.932911
 21
829.486093
  0
LINE
  8
CSLAYER1
  6
CONTINUOUS
 62
     3
 10
1175.446208
 20
837.632643
 11
1172.932911
 21
829.486093
  0
LINE
  8
CSLAYER1
  6
CONTINUOUS
 62
     3
 10
1182.432911
 20
849.394987
 11
1182.432911
 21
837.632643
  0
LINE
  8
CSLAYER1
  6
CONTINUOUS
 62
     3
 10
1178.432911
 20
849.394987
 11
1178.432911
 21
837.632643
  0
LINE
  8
CSLAYER1
  6
CONTINUOUS
 62
     3
 10
1182.432911
 20
842.553496
 11
1183.932911
 21
842.553496
  0
LINE
  8
CSLAYER1
  6
CONTINUOUS
 62
     3
 10
1188.432911
 20
796.138810
 11
1188.432911
 21
812.329289
  0
LINE
  8
CSLAYER1
  6
CONTINUOUS
 62
     3
 10
1134.432911
 20
777.433060
 11
1134.432911
 21
780.633060
  0
LINE
  8
CSLAYER1
  6
CONTINUOUS
 62
     3
 10
1166.232911
 20
759.633060
 11
1166.232911
 21
777.433060
  0
LINE
  8
CSLAYER1
  6
CENTER
 62
     5
 10
1149.432911
 20
759.633060
 11
1149.432911
 21
856.724447
  0
LINE
  8
CSLAYER1
  6
CONTINUOUS
 62
     3
 10
1134.432911
 20
780.633060
 11
1169.432911
 21
780.633060
  0
LINE
  8
CSLAYER1
  6
CONTINUOUS
 62
     3
 10
1134.432911
 20
777.433060
 11
1166.232911
 21
777.433060
  0
LINE
  8
CSLAYER1
  6
CONTINUOUS
 62
     4
 10
1142.432911
 20
815.169878
 11
1136.273149
 21
815.169878
  0
LINE
  8
CSLAYER1
  6
CONTINUOUS
 62
     7
 10
1157.932911
 20
808.633060
 11
1140.932911
 21
808.633060
  0
LINE
  8
CSLAYER1
  6
CONTINUOUS
 62
     7
 10
1158.882911
 20
770.633060
 11
1139.982911
 21
770.633060
  0
LINE
  8
CSLAYER1
  6
CONTINUOUS
 62
     7
 10
1159.882911
 20
771.633060
 11
1158.882911
 21
770.633060
  0
LINE
  8
CSLAYER1
  6
CONTINUOUS
 62
     7
 10
1163.770005
 20
777.433060
 11
1163.770005
 21
773.019795
  0
LINE
  8
CSLAYER1
  6
CONTINUOUS
 62
     7
 10
1163.770005
 20
773.019795
 11
1135.095817
 21
773.019795
  0
LINE
  8
CSLAYER1
  6
CONTINUOUS
 62
     7
 10
1159.882911
 20
773.019795
 11
1159.882911
 21
771.633060
  0
LINE
  8
CSLAYER1
  6
CONTINUOUS
 62
     7
 10
1158.882911
 20
773.019795
 11
1158.882911
 21
770.633060
  0
LINE
  8
CSLAYER1
  6
CONTINUOUS
 62
     7
 10
1158.478503
 20
777.433060
 11
1158.478503
 21
773.019795
  0
LINE
  8
CSLAYER1
  6
CONTINUOUS
 62
     7
 10
1154.724414
 20
777.433060
 11
1154.724414
 21
773.019795
  0
LINE
  8
CSLAYER1
  6
CONTINUOUS
 62
     7
 10
1160.932911
 20
785.633060
 11
1137.932911
 21
785.633060
  0
LINE
  8
CSLAYER1
  6
CONTINUOUS
 62
     7
 10
1162.432911
 20
805.523966
 11
1136.432911
 21
805.523966
  0
LINE
  8
CSLAYER1
  6
CONTINUOUS
 62
     7
 10
1162.432911
 20
789.175152
 11
1136.432911
 21
789.175152
  0
ARC
  8
CSLAYER1
  6
CONTINUOUS
 62
     7
 10
1157.932911
 20
805.633060
 40
3.000000
 50
0.000000
 51
90.000000
  0
LINE
  8
CSLAYER1
  6
CONTINUOUS
 62
     7
 10
1160.932911
 20
785.633060
 11
1162.423292
 21
784.772588
  0
ARC
  8
CSLAYER1
  6
CONTINUOUS
 62
     7
 10
1149.432911
 20
759.587036
 40
26.046025
 50
75.231439
 51
104.768561
  0
ARC
  8
CSLAYER1
  6
CONTINUOUS
 62
     7
 10
1159.247865
 20
779.501467
 40
6.153702
 50
66.825356
 51
121.065581
  0
LINE
  8
CSLAYER1
  6
CONTINUOUS
 62
     7
 10
1156.072439
 20
784.772588
 11
1156.072439
 21
780.633060
  0
LINE
  8
CSLAYER1
  6
CONTINUOUS
 62
     7
 10
1162.423292
 20
784.772588
 11
1162.423292
 21
780.633060
  0
LINE
  8
CSLAYER1
  6
CONTINUOUS
 62
     7
 10
1159.769035
 20
789.175152
 11
1159.769035
 21
785.633060
  0
LINE
  8
CSLAYER1
  6
CONTINUOUS
 62
     7
 10
1159.122657
 20
789.175152
 11
1159.122657
 21
787.568790
  0
LINE
  8
CSLAYER1
  6
CONTINUOUS
 62
     7
 10
1159.769035
 20
787.568790
 11
1139.096787
 21
787.568790
  0
LINE
  8
CSLAYER1
  6
CONTINUOUS
 62
     7
 10
1159.122657
 20
787.568790
 11
1159.769035
 21
786.433938
  0
LINE
  8
CSLAYER1
  6
CONTINUOUS
 62
     7
 10
1159.882911
 20
771.680862
 11
1138.982911
 21
771.680862
  0
LINE
  8
CSLAYER1
  6
CONTINUOUS
 62
     7
 10
1138.982911
 20
771.633060
 11
1139.982911
 21
770.633060
  0
LINE
  8
CSLAYER1
  6
CONTINUOUS
 62
     7
 10
1135.095817
 20
777.433060
 11
1135.095817
 21
773.019795
  0
LINE
  8
CSLAYER1
  6
CONTINUOUS
 62
     7
 10
1138.982911
 20
773.019795
 11
1138.982911
 21
771.633060
  0
LINE
  8
CSLAYER1
  6
CONTINUOUS
 62
     7
 10
1139.982911
 20
773.019795
 11
1139.982911
 21
770.633060
  0
LINE
  8
CSLAYER1
  6
CONTINUOUS
 62
     7
 10
1140.387319
 20
777.433060
 11
1140.387319
 21
773.019795
  0
LINE
  8
CSLAYER1
  6
CONTINUOUS
 62
     7
 10
1144.141408
 20
777.433060
 11
1144.141408
 21
773.019795
  0
LINE
  8
CSLAYER1
  6
CONTINUOUS
 62
     7
 10
1137.932911
 20
785.633060
 11
1136.442530
 21
784.772588
  0
ARC
  8
CSLAYER1
  6
CONTINUOUS
 62
     7
 10
1139.617956
 20
779.501467
 40
6.153702
 50
58.934419
 51
113.174644
  0
LINE
  8
CSLAYER1
  6
CONTINUOUS
 62
     7
 10
1142.793383
 20
784.772588
 11
1142.793383
 21
780.633060
  0
LINE
  8
CSLAYER1
  6
CONTINUOUS
 62
     7
 10
1136.442530
 20
784.772588
 11
1136.442530
 21
780.633060
  0
LINE
  8
CSLAYER1
  6
CONTINUOUS
 62
     7
 10
1139.096787
 20
789.175152
 11
1139.096787
 21
785.633060
  0
LINE
  8
CSLAYER1
  6
CONTINUOUS
 62
     7
 10
1139.743164
 20
789.175152
 11
1139.743164
 21
787.568790
  0
LINE
  8
CSLAYER1
  6
CONTINUOUS
 62
     7
 10
1139.743164
 20
787.568790
 11
1139.096787
 21
786.433938
  0
LINE
  8
CSLAYER1
  6
CONTINUOUS
 62
     7
 10
1164.270937
 20
804.462781
 11
1164.270937
 21
790.236336
  0
LINE
  8
CSLAYER1
  6
CONTINUOUS
 62
     7
 10
1156.938464
 20
804.462781
 11
1156.938464
 21
790.236336
  0
LINE
  8
CSLAYER1
  6
CONTINUOUS
 62
     7
 10
1162.432911
 20
805.523966
 11
1164.270937
 21
804.462781
  0
ARC
  8
CSLAYER1
  6
CONTINUOUS
 62
     7
 10
1160.604701
 20
798.662374
 40
6.861924
 50
62.295563
 51
121.731450
  0
ARC
  8
CSLAYER1
  6
CONTINUOUS
 62
     7
 10
1149.432911
 20
778.450712
 40
27.073254
 50
73.904971
 51
106.095029
  0
LINE
  8
CSLAYER1
  6
CONTINUOUS
 62
     7
 10
1162.432911
 20
789.175152
 11
1164.270937
 21
790.236336
  0
ARC
  8
CSLAYER1
  6
CONTINUOUS
 62
     7
 10
1160.604701
 20
796.036743
 40
6.861924
 50
238.268550
 51
297.704437
  0
ARC
  8
CSLAYER1
  6
CONTINUOUS
 62
     7
 10
1149.432911
 20
816.248406
 40
27.073254
 50
253.904971
 51
286.095029
  0
LINE
  8
CSLAYER1
  6
CONTINUOUS
 62
     7
 10
1134.594885
 20
804.462781
 11
1134.594885
 21
790.236336
  0
LINE
  8
CSLAYER1
  6
CONTINUOUS
 62
     7
 10
1141.927357
 20
804.462781
 11
1141.927357
 21
790.236336
  0
LINE
  8
CSLAYER1
  6
CONTINUOUS
 62
     7
 10
1136.432911
 20
805.523966
 11
1134.594885
 21
804.462781
  0
ARC
  8
CSLAYER1
  6
CONTINUOUS
 62
     7
 10
1138.261121
 20
798.662374
 40
6.861924
 50
58.268550
 51
117.704437
  0
LINE
  8
CSLAYER1
  6
CONTINUOUS
 62
     7
 10
1136.432911
 20
789.175152
 11
1134.594885
 21
790.236336
  0
ARC
  8
CSLAYER1
  6
CONTINUOUS
 62
     7
 10
1138.261121
 20
796.036743
 40
6.861924
 50
242.295563
 51
301.731450
  0
ARC
  8
CSLAYER1
  6
CONTINUOUS
 62
     7
 10
1140.932911
 20
805.633060
 40
3.000000
 50
90.000000
 51
180.000000
  0
LINE
  8
CSLAYER1
  6
CONTINUOUS
 62
     7
 10
1156.432911
 20
859.082196
 11
1156.432911
 21
808.633060
  0
LINE
  8
CSLAYER1
  6
CONTINUOUS
 62
     7
 10
1142.432911
 20
857.313884
 11
1142.432911
 21
808.633060
  0
LINE
  8
CSLAYER1
  6
CONTINUOUS
 62
     7
 10
1156.432911
 20
770.633060
 11
1156.432911
 21
759.633060
  0
LINE
  8
CSLAYER1
  6
CONTINUOUS
 62
     7
 10
1142.432911
 20
770.633060
 11
1142.432911
 21
759.633060
  0
INSERT
  8
CSLAYER1
  2
BLKF0019
 10
0.0
 20
0.0
 30
0.0
  0
POINT
  8
CSLAYER1
 62
     3
 10
2119.994555
 20
924.433060
  0
LINE
  8
CSLAYER1
  6
PHANTOM
 62
     5
 10
2092.794555
 20
914.633060
 11
2892.794555
 21
914.633060
  0
LINE
  8
CSLAYER1
  6
PHANTOM
 62
     5
 10
2095.994555
 20
914.633060
 11
2095.994555
 21
907.433060
  0
LINE
  8
CSLAYER1
  6
PHANTOM
 62
     5
 10
2120.994555
 20
912.433060
 11
2133.994555
 21
912.433060
  0
LINE
  8
CSLAYER1
  6
PHANTOM
 62
     5
 10
2133.994555
 20
914.633060
 11
2133.994555
 21
912.433060
  0
LINE
  8
CSLAYER1
  6
PHANTOM
 62
     5
 10
2096.994555
 20
906.433060
 11
2119.994555
 21
906.433060
  0
LINE
  8
CSLAYER1
  6
PHANTOM
 62
     5
 10
2095.994555
 20
907.433060
 11
2120.994555
 21
907.433060
  0
LINE
  8
CSLAYER1
  6
PHANTOM
 62
     5
 10
2120.994555
 20
914.633060
 11
2120.994555
 21
907.433060
  0
LINE
  8
CSLAYER1
  6
PHANTOM
 62
     5
 10
2096.994555
 20
906.433060
 11
2095.994555
 21
907.433060
  0
LINE
  8
CSLAYER1
  6
PHANTOM
 62
     5
 10
2119.994555
 20
906.433060
 11
2120.994555
 21
907.433060
  0
POINT
  8
CSLAYER1
 62
     7
 10
2119.994555
 20
924.433060
  0
LINE
  8
CSLAYER1
  6
CENTER
 62
     5
 10
2098.933661
 20
924.433060
 11
2140.923970
 21
924.433060
  0
LINE
  8
CSLAYER1
  6
CENTER
 62
     5
 10
2119.994555
 20
945.735777
 11
2119.994555
 21
902.931703
  0
LINE
  8
CSLAYER1
  6
PHANTOM
 62
     5
 10
2092.794555
 20
959.633060
 11
2892.794555
 21
959.633060
  0
LINE
  8
CSLAYER1
  6
PHANTOM
 62
     5
 10
2892.794555
 20
959.633060
 11
2892.794555
 21
914.633060
  0
LINE
  8
CSLAYER1
  6
PHANTOM
 62
     5
 10
2092.794555
 20
959.633060
 11
2092.794555
 21
914.633060
  0
INSERT
  8
CSLAYER1
  2
BLKF0020
 10
0.0
 20
0.0
 30
0.0
  0
INSERT
  8
CSLAYER1
  2
BLKF0021
 10
0.0
 20
0.0
 30
0.0
  0
INSERT
  8
CSLAYER1
  2
BLKF0022
 10
0.0
 20
0.0
 30
0.0
  0
INSERT
  8
CSLAYER1
  2
BLKF0023
 10
0.0
 20
0.0
 30
0.0
  0
INSERT
  8
CSLAYER1
  2
BLKF0024
 10
0.0
 20
0.0
 30
0.0
  0
INSERT
  8
CSLAYER1
  2
BLKF0025
 10
0.0
 20
0.0
 30
0.0
  0
LINE
  8
CSLAYER1
  6
CENTER
 62
     5
 10
2119.994555
 20
734.133060
 11
2863.934388
 21
829.283060
  0
LINE
  8
CSLAYER1
  6
CENTER
 62
     5
 10
2863.934388
 20
734.133060
 11
2119.994555
 21
829.283060
  0
LINE
  8
CSLAYER1
  6
CENTER
 62
     5
 10
2119.994555
 20
924.433060
 11
2863.934388
 21
829.283060
  0
LINE
  8
CSLAYER1
  6
CENTER
 62
     5
 10
2863.934388
 20
924.433060
 11
2119.994555
 21
829.283060
  0
LINE
  8
CSLAYER1
  6
CONTINUOUS
 62
     4
 10
2095.070089
 20
1374.399276
 11
2092.663835
 21
1340.329182
  0
LINE
  8
CSLAYER1
  6
CONTINUOUS
 62
     4
 10
2116.656923
 20
1399.970694
 11
2095.070089
 21
1374.399276
  0
LINE
  8
CSLAYER1
  6
CONTINUOUS
 62
     7
 10
896.432911
 20
1849.784394
 11
905.432911
 21
1849.784394
  0
LINE
  8
CSLAYER1
  6
CONTINUOUS
 62
     7
 10
918.432911
 20
1374.399276
 11
927.432911
 21
1374.399276
  0
LINE
  8
CSLAYER1
  6
CONTINUOUS
 62
     7
 10
909.432911
 20
1399.970694
 11
918.432911
 21
1399.970694
  0
LINE
  8
CSLAYER1
  6
CONTINUOUS
 62
     7
 10
896.432911
 20
1255.954738
 11
905.432911
 21
1255.954738
  0
LINE
  8
CSLAYER1
  6
CONTINUOUS
 62
     7
 10
909.432911
 20
806.141038
 11
918.432911
 21
806.141038
  0
LINE
  8
CSLAYER1
  6
CONTINUOUS
 62
     7
 10
1230.432911
 20
806.141038
 11
1239.432911
 21
806.141038
  0
LINE
  8
CSLAYER1
  6
CONTINUOUS
 62
     7
 10
1243.432911
 20
1255.954738
 11
1252.432911
 21
1255.954738
  0
LINE
  8
CSLAYER1
  6
CONTINUOUS
 62
     7
 10
1230.432911
 20
1399.970694
 11
1239.432911
 21
1399.970694
  0
LINE
  8
CSLAYER1
  6
CONTINUOUS
 62
     7
 10
1221.432911
 20
1374.399276
 11
1230.432911
 21
1374.399276
  0
LINE
  8
CSLAYER1
  6
CONTINUOUS
 62
     7
 10
1243.432911
 20
1849.784394
 11
1252.432911
 21
1849.784394
  0
INSERT
  8
CSLAYER1
  2
EASYDRAWDIM0000
 10
0.0
 20
0.0
 30
0.0
  0
INSERT
  8
CSLAYER1
  2
EASYDRAWDIM0001
 10
0.0
 20
0.0
 30
0.0
  0
INSERT
  8
CSLAYER1
  2
EASYDRAWDIM0002
 10
0.0
 20
0.0
 30
0.0
  0
DIMENSION
  8
CSLAYER1
 62
     3
  2
*D0000
 10
3033.484312
 20
3013.687855
 11
3018.484131
 21
2763.687988
 13
2892.794555
 23
2513.687855
 14
2892.794555
 24
3013.687855
 50
90.000000
 70
1
  0
DIMENSION
  8
CSLAYER1
 62
     3
  2
*D0001
 10
2892.794555
 20
2376.467832
 11
2492.794434
 21
2391.467773
 13
2092.794555
 23
2513.687855
 14
2892.794555
 24
2513.687855
 52
270.000000
 70
1
  0
DIMENSION
  8
CSLAYER1
 62
     3
  2
*D0002
 10
3043.913332
 20
959.633060
 11
3028.913330
 21
834.633118
 13
3182.886561
 23
709.633060
 14
2892.794555
 24
959.633060
 50
90.000000
  0
DIMENSION
  8
CSLAYER1
 62
     3
  2
*D0003
 10
3043.913332
 20
1956.992372
 11
3028.913330
 21
1458.312866
 13
2874.940104
 23
959.633060
 14
2874.940104
 24
1956.992372
 50
90.000000
 70
1
  0
DIMENSION
  8
CSLAYER1
 62
     3
  2
*D0004
 10
3182.886561
 20
709.633060
 11
3167.886475
 21
1333.312866
 13
3182.886561
 23
1956.992372
 14
3182.886561
 24
709.633060
 50
90.000000
 70
1
  0
LINE
  8
CSLAYER1
  6
DASHED
 62
     3
 10
829.760220
 20
715.133060
 11
1319.752521
 21
715.133060
  0
LINE
  8
CSLAYER1
  6
CONTINUOUS
 62
     5
 10
854.432911
 20
726.800432
 11
854.432911
 21
548.305263
  0
LINE
  8
CSLAYER1
  6
CONTINUOUS
 62
     5
 10
1294.432911
 20
726.800432
 11
1294.432911
 21
548.305263
  0
DIMENSION
  8
CSLAYER1
 62
     3
  2
*D0005
 10
854.432911
 20
563.305263
 11
1074.720947
 21
574.348083
 13
1294.432911
 23
563.305263
 14
854.432911
 24
563.305263
 52
0.000000
 70
1
  0
DIMENSION
  8
CSLAYER1
 62
     3
  2
*D0006
 10
1324.432911
 20
416.535387
 11
1071.116943
 21
422.975067
 13
824.432911
 23
709.633060
 14
1324.432911
 24
709.633060
 52
270.000000
 70
1
  0
LINE
  8
CSLAYER1
  6
CONTINUOUS
 62
     5
 10
2141.994555
 20
726.800432
 11
2141.994555
 21
548.305263
  0
LINE
  8
CSLAYER1
  6
CONTINUOUS
 62
     5
 10
2541.994555
 20
726.800432
 11
2541.994555
 21
548.305263
  0
DIMENSION
  8
CSLAYER1
 62
     3
  2
*D0007
 10
2141.994555
 20
563.305263
 11
2149.814697
 21
482.217743
 13
2091.994555
 23
740.075138
 14
2141.994555
 24
740.075138
 52
270.000000
 70
1
  0
DIMENSION
  8
CSLAYER1
 62
     3
  2
*D0008
 10
2141.994555
 20
563.305263
 11
2337.427002
 21
574.307068
 13
2541.994555
 23
563.305263
 14
2141.994555
 24
563.305263
 52
0.000000
 70
1
  0
DIMENSION
  8
CSLAYER1
 62
     3
  2
*D0009
 10
2890.994555
 20
416.535387
 11
2491.494385
 21
431.535614
 13
2091.994555
 23
709.633060
 14
2890.994555
 24
709.633060
 52
270.000000
 70
1
  0
TEXT
  8
CSLAYER1
 62
     5
 10
2241.355665
 20
515.284260
 40
38.994835
 41
1.022858
  1
取付穴ピッチ
 50
0.000000
 51
0.000000
  7
EASYDRAW_FONT
 72
     5
 11
2467.377245
 21
515.284260
  0
TEXT
  8
CSLAYER1
 62
     5
 10
963.512282
 20
515.205158
 40
38.994835
 41
1.022858
  1
取付穴ピッチ
 50
0.000000
 51
0.000000
  7
EASYDRAW_FONT
 72
     5
 11
1189.533861
 21
515.205158
  0
DIMENSION
  8
CSLAYER1
 62
     3
  2
*D0010
 10
1448.870491
 20
715.133060
 11
1434.297485
 21
797.215698
 13
1324.432911
 23
709.633060
 14
1319.752521
 24
715.133060
 50
90.000000
  0
INSERT
  8
CSLAYER1
  2
EASYDRAWDIM0003
 10
0.0
 20
0.0
 30
0.0
  0
INSERT
  8
CSLAYER1
  2
EASYDRAWDIM0004
 10
0.0
 20
0.0
 30
0.0
  0
LINE
  8
CSLAYER1
  6
CONTINUOUS
 62
     5
 10
5128.577536
 20
3253.945053
 11
4047.268760
 21
3253.945053
  0
LINE
  8
CSLAYER1
  6
CONTINUOUS
 62
     5
 10
5128.577536
 20
3157.945055
 11
4047.268760
 21
3157.945055
  0
LINE
  8
CSLAYER1
  6
CONTINUOUS
 62
     5
 10
5128.577536
 20
3061.945058
 11
4047.268760
 21
3061.945058
  0
LINE
  8
CSLAYER1
  6
CONTINUOUS
 62
     5
 10
5128.577536
 20
2965.945060
 11
4048.577563
 21
2965.945060
  0
LINE
  8
CSLAYER1
  6
CONTINUOUS
 62
     5
 10
5128.577536
 20
2869.945062
 11
4047.268760
 21
2869.945062
  0
LINE
  8
CSLAYER1
  6
CONTINUOUS
 62
     5
 10
5128.577536
 20
2773.945065
 11
4047.268760
 21
2773.945065
  0
LINE
  8
CSLAYER1
  6
CONTINUOUS
 62
     5
 10
5128.577536
 20
2677.945067
 11
4047.268760
 21
2677.945067
  0
LINE
  8
CSLAYER1
  6
CONTINUOUS
 62
     5
 10
5128.577536
 20
2581.945070
 11
4047.268760
 21
2581.945070
  0
LINE
  8
CSLAYER1
  6
CONTINUOUS
 62
     5
 10
5128.577536
 20
2485.945072
 11
4047.268760
 21
2485.945072
  0
LINE
  8
CSLAYER1
  6
CONTINUOUS
 62
     5
 10
5128.577536
 20
2293.945077
 11
4047.268760
 21
2293.945077
  0
LINE
  8
CSLAYER1
  6
CONTINUOUS
 62
     5
 10
5128.577536
 20
2197.945079
 11
4047.268760
 21
2197.945079
  0
TEXT
  8
CSLAYER1
 62
     3
 10
4340.854492
 20
3373.673340
 40
60.000000
 41
0.857143
  1
仕   様
 50
0.000000
 51
0.000000
  7
EASYDRAW_FONT
 72
     5
 11
4580.854492
 21
3373.673340
  0
TEXT
  8
CSLAYER1
 62
     3
 10
4063.408203
 20
3266.279297
 40
60.000000
 41
0.847059
  1
型    式
 50
0.000000
 51
0.000000
  7
EASYDRAW_FONT
 72
     5
 11
4351.408203
 21
3266.279297
  0
TEXT
  8
CSLAYER1
 62
     3
 10
4060.679199
 20
3082.544922
 40
60.000000
 41
0.847059
  1
テーブル寸法
 50
0.000000
 51
0.000000
  7
EASYDRAW_FONT
 72
     5
 11
4348.679199
 21
3082.544922
  0
TEXT
  8
CSLAYER1
 62
     3
 10
4063.408203
 20
2987.948730
 40
60.000000
 41
0.847059
  1
テーブル高サ
 50
0.000000
 51
0.000000
  7
EASYDRAW_FONT
 72
     5
 11
4351.408203
 21
2987.948730
  0
TEXT
  8
CSLAYER1
 62
     3
 10
4065.578125
 20
2890.624512
 40
60.000000
 41
0.857143
  1
ストローク
 50
0.000000
 51
0.000000
  7
EASYDRAW_FONT
 72
     5
 11
4305.578125
 21
2890.624512
  0
TEXT
  8
CSLAYER1
 62
     3
 10
4064.669434
 20
2793.300293
 40
60.000000
 41
0.857143
  1
全   長
 50
0.000000
 51
0.000000
  7
EASYDRAW_FONT
 72
     5
 11
4304.669434
 21
2793.300293
  0
TEXT
  8
CSLAYER1
 62
     3
 10
4068.075684
 20
2694.523926
 40
60.000000
 41
0.857143
  1
全   巾
 50
0.000000
 51
0.000000
  7
EASYDRAW_FONT
 72
     5
 11
4308.075684
 21
2694.523926
  0
TEXT
  8
CSLAYER1
 62
     3
 10
4065.739258
 20
2598.696289
 40
60.000000
 41
0.857143
  1
全   高
 50
0.000000
 51
0.000000
  7
EASYDRAW_FONT
 72
     5
 11
4305.739258
 21
2598.696289
  0
TEXT
  8
CSLAYER1
 62
     3
 10
4065.739258
 20
2505.206543
 40
60.000000
 41
0.857143
  1
リフト方式
 50
0.000000
 51
0.000000
  7
EASYDRAW_FONT
 72
     5
 11
4305.739258
 21
2505.206543
  0
TEXT
  8
CSLAYER1
 62
     3
 10
4064.028320
 20
2212.875488
 40
60.000000
 41
0.872727
  1
モーター
 50
0.000000
 51
0.000000
  7
EASYDRAW_FONT
 72
     5
 11
4256.028320
 21
2212.875488
  0
LINE
  8
CSLAYER1
  6
CONTINUOUS
 62
     5
 10
5128.577536
 20
2101.945082
 11
4047.268760
 21
2101.945082
  0
LINE
  8
CSLAYER1
  6
CONTINUOUS
 62
     5
 10
5128.577536
 20
1909.945086
 11
4044.061007
 21
1909.945086
  0
LINE
  8
CSLAYER1
  6
CONTINUOUS
 62
     5
 10
5128.577536
 20
1813.945089
 11
4047.268760
 21
1813.945089
  0
LINE
  8
CSLAYER1
  6
CONTINUOUS
 62
     5
 10
5128.577536
 20
1717.945091
 11
4047.268760
 21
1717.945091
  0
TEXT
  8
CSLAYER1
 62
     3
 10
4067.900879
 20
1734.627808
 40
60.000000
 41
0.857143
  1
自  　重
 50
0.000000
 51
0.000000
  7
EASYDRAW_FONT
 72
     5
 11
4307.900879
 21
1734.627808
  0
TEXT
  8
CSLAYER1
 62
     3
 10
4063.257324
 20
1639.618530
 40
60.000000
 41
0.847059
  1
塗　装　色 
 50
0.000000
 51
0.000000
  7
EASYDRAW_FONT
 72
     5
 11
4351.257324
 21
1639.618530
  0
TEXT
  8
CSLAYER1
 62
     3
 10
4743.541504
 20
3174.041992
 40
60.000000
 41
0.872727
  1
 200
 50
0.000000
 51
0.000000
  7
EASYDRAW_FONT
 72
     5
 11
4935.541504
 21
3174.041992
  0
TEXT
  8
CSLAYER1
 62
     3
 10
5022.776855
 20
3168.532227
 40
60.000000
 41
0.960000
  1
Ｋｇ
 50
0.000000
 51
0.000000
  7
EASYDRAW_FONT
 72
     5
 11
5118.776855
 21
3168.532227
  0
TEXT
  8
CSLAYER1
 62
     3
 10
4501.868164
 20
3077.287109
 40
60.000000
 41
0.830769
  1
800L×500W
 50
0.000000
 51
0.000000
  7
EASYDRAW_FONT
 72
     5
 11
4933.868164
 21
3077.287109
  0
TEXT
  8
CSLAYER1
 62
     3
 10
4539.976074
 20
2982.536621
 40
60.000000
 41
0.834783
  1
250～1220
 50
0.000000
 51
0.000000
  7
EASYDRAW_FONT
 72
     5
 11
4923.976074
 21
2982.536621
  0
TEXT
  8
CSLAYER1
 62
     3
 10
4782.299316
 20
2887.974121
 40
60.000000
 41
0.900000
  1
970
 50
0.000000
 51
0.000000
  7
EASYDRAW_FONT
 72
     5
 11
4926.299316
 21
2887.974121
  0
TEXT
  8
CSLAYER1
 62
     3
 10
4788.507324
 20
2790.795410
 40
60.000000
 41
0.900000
  1
800
 50
0.000000
 51
0.000000
  7
EASYDRAW_FONT
 72
     5
 11
4932.507324
 21
2790.795410
  0
TEXT
  8
CSLAYER1
 62
     3
 10
4785.478027
 20
2695.839355
 40
60.000000
 41
0.900000
  1
500
 50
0.000000
 51
0.000000
  7
EASYDRAW_FONT
 72
     5
 11
4929.478027
 21
2695.839355
  0
TEXT
  8
CSLAYER1
 62
     3
 10
4414.849121
 20
2504.332031
 40
60.000000
 41
0.827586
  1
電 動 ボールネジ式
 50
0.000000
 51
0.000000
  7
EASYDRAW_FONT
 72
     5
 11
4894.849121
 21
2504.332031
  0
TEXT
  8
CSLAYER1
 62
     3
 10
4776.122559
 20
1737.476929
 40
60.000000
 41
0.847059
  1
１０３　Ｋｇ
 50
0.000000
 51
0.000000
  7
EASYDRAW_FONT
 72
     5
 11
5064.122559
 21
1737.476929
  0
TEXT
  8
CSLAYER1
 62
     3
 10
4782.464844
 20
2598.847656
 40
60.000000
 41
0.900000
  1
250
 50
0.000000
 51
0.000000
  7
EASYDRAW_FONT
 72
     5
 11
4926.464844
 21
2598.847656
  0
TEXT
  8
CSLAYER1
 62
     3
 10
5019.005371
 20
3072.376953
 40
60.000000
 41
0.960000
  1
mm
 50
0.000000
 51
0.000000
  7
EASYDRAW_FONT
 72
     5
 11
5115.005371
 21
3072.376953
  0
TEXT
  8
CSLAYER1
 62
     3
 10
5019.005371
 20
2981.877441
 40
60.000000
 41
0.960000
  1
mm
 50
0.000000
 51
0.000000
  7
EASYDRAW_FONT
 72
     5
 11
5115.005371
 21
2981.877441
  0
TEXT
  8
CSLAYER1
 62
     3
 10
5013.349609
 20
2885.721191
 40
60.000000
 41
0.960000
  1
mm
 50
0.000000
 51
0.000000
  7
EASYDRAW_FONT
 72
     5
 11
5109.349609
 21
2885.721191
  0
TEXT
  8
CSLAYER1
 62
     3
 10
5013.349609
 20
2783.908691
 40
60.000000
 41
0.960000
  1
mm
 50
0.000000
 51
0.000000
  7
EASYDRAW_FONT
 72
     5
 11
5109.349609
 21
2783.908691
  0
TEXT
  8
CSLAYER1
 62
     3
 10
5009.579102
 20
2693.409668
 40
60.000000
 41
0.960000
  1
mm
 50
0.000000
 51
0.000000
  7
EASYDRAW_FONT
 72
     5
 11
5105.579102
 21
2693.409668
  0
TEXT
  8
CSLAYER1
 62
     3
 10
5009.579102
 20
2597.252441
 40
60.000000
 41
0.960000
  1
mm
 50
0.000000
 51
0.000000
  7
EASYDRAW_FONT
 72
     5
 11
5105.579102
 21
2597.252441
  0
LINE
  8
CSLAYER1
  6
CONTINUOUS
 62
     5
 10
4622.934167
 20
3349.945050
 11
4310.355209
 21
3349.945050
  0
LINE
  8
CSLAYER1
  6
CONTINUOUS
 62
     5
 10
4622.934167
 20
3361.945050
 11
4310.355209
 21
3361.945050
  0
TEXT
  8
CSLAYER1
 62
     3
 10
4069.401367
 20
2308.704102
 40
60.000000
 41
1.036364
  1
操作方式
 50
0.000000
 51
0.000000
  7
EASYDRAW_FONT
 72
     5
 11
4297.401367
 21
2308.704102
  0
LINE
  8
CSLAYER1
  6
CONTINUOUS
 62
     5
 10
5128.577536
 20
2005.945084
 11
4047.268760
 21
2005.945084
  0
TEXT
  8
CSLAYER1
 62
     3
 10
4065.403320
 20
2117.899414
 40
60.000000
 41
0.942857
  1
電源コード
 50
0.000000
 51
0.000000
  7
EASYDRAW_FONT
 72
     5
 11
4329.403320
 21
2117.899414
  0
TEXT
  8
CSLAYER1
 62
     3
 10
4411.363281
 20
2308.301758
 40
60.000000
 41
1.020000
  1
フットスイッチ
 50
0.000000
 51
0.000000
  7
EASYDRAW_FONT
 72
     5
 11
4819.363281
 21
2308.301758
  0
TEXT
  8
CSLAYER1
 62
     4
 10
4066.046179
 20
2014.217484
 40
71.595306
 41
0.593339
  1
昇降時間 ２８秒（50HZ） ２４秒(60HZ)
 50
0.000000
 51
0.000000
  7
EASYDRAW_FONT
 72
     5
 11
5071.413782
 21
2014.217484
  0
TEXT
  8
CSLAYER1
 62
     4
 10
4067.997559
 20
1826.052612
 40
60.000000
 41
0.912766
  1
上昇端、下降端リミットスイッチ付
 50
0.000000
 51
0.000000
  7
EASYDRAW_FONT
 72
     5
 11
4925.997559
 21
1826.052612
  0
TEXT
  8
CSLAYER1
 62
     4
 10
4070.767442
 20
1923.048050
 40
68.819672
 41
0.605080
  1
最大使用頻度８０回／時間・最大起動頻度１０回／分
 50
0.000000
 51
0.000000
  7
EASYDRAW_FONT
 72
     5
 11
5056.280409
 21
1923.048050
  0
LINE
  8
CSLAYER1
  6
CONTINUOUS
 62
     5
 10
5128.577536
 20
2389.945074
 11
4047.268760
 21
2389.945074
  0
TEXT
  8
CSLAYER1
 62
     3
 10
4067.430664
 20
2404.562012
 40
60.000000
 41
0.872727
  1
制御方式
 50
0.000000
 51
0.000000
  7
EASYDRAW_FONT
 72
     5
 11
4259.430664
 21
2404.562012
  0
LINE
  8
CSLAYER1
  6
CONTINUOUS
 62
     3
 10
2884.494555
 20
880.633060
 11
2865.494555
 21
880.633060
  0
LINE
  8
CSLAYER1
  6
CONTINUOUS
 62
     3
 10
2884.494555
 20
890.633060
 11
2865.494555
 21
890.633060
  0
LINE
  8
CSLAYER1
  6
CONTINUOUS
 62
     3
 10
2885.964210
 20
889.784555
 11
2885.964210
 21
881.481566
  0
LINE
  8
CSLAYER1
  6
CONTINUOUS
 62
     3
 10
2880.479382
 20
889.784555
 11
2880.479382
 21
881.481566
  0
LINE
  8
CSLAYER1
  6
CONTINUOUS
 62
     3
 10
2884.494555
 20
890.633060
 11
2885.964210
 21
889.784555
  0
ARC
  8
CSLAYER1
  6
CONTINUOUS
 62
     3
 10
2874.994555
 20
872.481566
 40
18.151494
 50
72.412046
 51
107.587954
  0
ARC
  8
CSLAYER1
  6
CONTINUOUS
 62
     3
 10
2883.221796
 20
885.790668
 40
4.844787
 50
64.475551
 51
124.475551
  0
LINE
  8
CSLAYER1
  6
CONTINUOUS
 62
     3
 10
2864.024900
 20
889.784555
 11
2864.024900
 21
881.481566
  0
LINE
  8
CSLAYER1
  6
CONTINUOUS
 62
     3
 10
2869.509727
 20
889.784555
 11
2869.509727
 21
881.481566
  0
LINE
  8
CSLAYER1
  6
CONTINUOUS
 62
     3
 10
2865.494555
 20
890.633060
 11
2864.024900
 21
889.784555
  0
ARC
  8
CSLAYER1
  6
CONTINUOUS
 62
     3
 10
2866.767313
 20
885.790668
 40
4.844787
 50
55.524449
 51
115.524449
  0
LINE
  8
CSLAYER1
  6
CONTINUOUS
 62
     3
 10
2884.494555
 20
880.633060
 11
2885.964210
 21
881.481566
  0
ARC
  8
CSLAYER1
  6
CONTINUOUS
 62
     3
 10
2874.994555
 20
898.784555
 40
18.151494
 50
252.412046
 51
287.587954
  0
ARC
  8
CSLAYER1
  6
CONTINUOUS
 62
     3
 10
2883.221796
 20
885.475453
 40
4.844787
 50
235.524449
 51
295.524449
  0
LINE
  8
CSLAYER1
  6
CONTINUOUS
 62
     3
 10
2865.494555
 20
880.633060
 11
2864.024900
 21
881.481566
  0
ARC
  8
CSLAYER1
  6
CONTINUOUS
 62
     3
 10
2866.767313
 20
885.475453
 40
4.844787
 50
244.475551
 51
304.475551
  0
POINT
  8
CSLAYER1
 62
     3
 10
2874.994555
 20
890.633060
  0
LINE
  8
CSLAYER1
  6
CONTINUOUS
 62
     3
 10
2884.494555
 20
906.433060
 11
2865.494555
 21
906.433060
  0
LINE
  8
CSLAYER1
  6
CONTINUOUS
 62
     3
 10
2885.964210
 20
898.433060
 11
2864.024900
 21
898.433060
  0
LINE
  8
CSLAYER1
  6
CONTINUOUS
 62
     3
 10
2885.964210
 20
905.584555
 11
2885.964210
 21
898.433060
  0
LINE
  8
CSLAYER1
  6
CONTINUOUS
 62
     3
 10
2880.479382
 20
905.584555
 11
2880.479382
 21
898.433060
  0
LINE
  8
CSLAYER1
  6
CONTINUOUS
 62
     3
 10
2884.494555
 20
906.433060
 11
2885.964210
 21
905.584555
  0
ARC
  8
CSLAYER1
  6
CONTINUOUS
 62
     3
 10
2874.994555
 20
888.281566
 40
18.151494
 50
72.412046
 51
107.587954
  0
ARC
  8
CSLAYER1
  6
CONTINUOUS
 62
     3
 10
2883.221796
 20
901.590668
 40
4.844787
 50
64.475551
 51
124.475551
  0
LINE
  8
CSLAYER1
  6
CONTINUOUS
 62
     3
 10
2864.024900
 20
905.584555
 11
2864.024900
 21
898.433060
  0
LINE
  8
CSLAYER1
  6
CONTINUOUS
 62
     3
 10
2869.509727
 20
905.584555
 11
2869.509727
 21
898.433060
  0
LINE
  8
CSLAYER1
  6
CONTINUOUS
 62
     3
 10
2865.494555
 20
906.433060
 11
2864.024900
 21
905.584555
  0
ARC
  8
CSLAYER1
  6
CONTINUOUS
 62
     3
 10
2866.767313
 20
901.590668
 40
4.844787
 50
55.524449
 51
115.524449
  0
LINE
  8
CSLAYER1
  6
CONTINUOUS
 62
     3
 10
2880.994555
 20
898.433060
 11
2879.994555
 21
896.701010
  0
LINE
  8
CSLAYER1
  6
CONTINUOUS
 62
     3
 10
2868.994555
 20
898.433060
 11
2869.994555
 21
896.701010
  0
POINT
  8
CSLAYER1
 62
     3
 10
2874.994555
 20
898.433060
  0
LINE
  8
CSLAYER1
  6
CONTINUOUS
 62
     3
 10
2880.994555
 20
898.433060
 11
2880.994555
 21
890.633060
  0
LINE
  8
CSLAYER1
  6
CONTINUOUS
 62
     3
 10
2879.994555
 20
896.701010
 11
2879.994555
 21
890.633060
  0
LINE
  8
CSLAYER1
  6
CONTINUOUS
 62
     3
 10
2869.994555
 20
896.701010
 11
2869.994555
 21
890.633060
  0
LINE
  8
CSLAYER1
  6
CONTINUOUS
 62
     3
 10
2868.994555
 20
898.433060
 11
2868.994555
 21
890.633060
  0
LINE
  8
CSLAYER1
  6
CENTER
 62
     5
 10
2874.994555
 20
759.633060
 11
2874.994555
 21
906.433060
  0
LINE
  8
CSLAYER1
  6
CONTINUOUS
 62
     3
 10
2884.994555
 20
759.633060
 11
2884.994555
 21
880.633060
  0
LINE
  8
CSLAYER1
  6
CONTINUOUS
 62
     3
 10
2864.994555
 20
759.633060
 11
2864.994555
 21
880.633060
  0
LINE
  8
CSLAYER1
  6
PHANTOM
 62
     5
 10
2886.994555
 20
914.633060
 11
2886.994555
 21
907.433060
  0
LINE
  8
CSLAYER1
  6
PHANTOM
 62
     5
 10
2885.994555
 20
906.433060
 11
2886.994555
 21
907.433060
  0
LINE
  8
CSLAYER1
  6
PHANTOM
 62
     5
 10
2862.994555
 20
914.633060
 11
2862.994555
 21
907.433060
  0
LINE
  8
CSLAYER1
  6
PHANTOM
 62
     5
 10
2863.994555
 20
906.433060
 11
2862.994555
 21
907.433060
  0
LINE
  8
CSLAYER1
  6
CONTINUOUS
 62
     3
 10
2092.794555
 20
2767.329256
 11
2030.672047
 21
2767.329256
  0
LINE
  8
CSLAYER1
  6
CONTINUOUS
 62
     3
 10
2092.794555
 20
2760.329256
 11
2030.672047
 21
2760.329256
  0
LINE
  8
CSLAYER1
  6
CONTINUOUS
 62
     3
 10
2092.794555
 20
2725.129256
 11
2074.280340
 21
2725.129256
  0
LINE
  8
CSLAYER1
  6
CONTINUOUS
 62
     3
 10
2092.794555
 20
2732.129256
 11
2074.280340
 21
2732.129256
  0
TEXT
  8
CSLAYER1
 62
     5
 10
1009.098226
 20
2811.241407
 40
59.399998
 41
1.020000
  1
ＵＰ・ＤＯＷＮ
 50
0.000000
 51
0.000000
  7
EASYDRAW_FONT
 72
     5
 11
1413.018229
 21
2811.241407
  0
TEXT
  8
CSLAYER1
 62
     5
 10
1010.665608
 20
2892.744337
 40
59.399998
 41
1.020000
  1
フットスイッチ
 50
0.000000
 51
0.000000
  7
EASYDRAW_FONT
 72
     5
 11
1414.585612
 21
2892.744337
  0
TEXT
  8
CSLAYER1
 62
     5
 10
1145.219223
 20
2478.667921
 40
59.399998
 41
1.036364
  1
長サ４ｍ
 50
0.000000
 51
0.000000
  7
EASYDRAW_FONT
 72
     5
 11
1370.939225
 21
2478.667921
  0
TEXT
  8
CSLAYER1
 62
     5
 10
1140.597103
 20
2555.469191
 40
59.399998
 41
1.028571
  1
電源コード
 50
0.000000
 51
0.000000
  7
EASYDRAW_FONT
 72
     5
 11
1425.717106
 21
2555.469191
  0
LINE
  8
CSLAYER1
  6
CONTINUOUS
 62
     3
 10
1804.004788
 20
2604.168979
 11
1689.942402
 21
2604.168979
  0
LINE
  8
CSLAYER1
  6
CONTINUOUS
 62
     3
 10
1804.004788
 20
2611.168979
 11
1689.942402
 21
2611.168979
  0
ARC
  8
CSLAYER1
  6
CONTINUOUS
 62
     3
 10
1804.004788
 20
2651.168979
 40
40.000000
 50
-90.000000
 51
243.051119
  0
ARC
  8
CSLAYER1
  6
CONTINUOUS
 62
     3
 10
1804.004788
 20
2651.168979
 40
47.000000
 50
-90.000000
 51
230.026912
  0
LINE
  8
CSLAYER1
  6
CONTINUOUS
 62
     3
 10
1995.141834
 20
2686.261055
 11
1896.692784
 21
2558.813294
  0
LINE
  8
CSLAYER1
  6
CONTINUOUS
 62
     3
 10
1989.602138
 20
2690.540281
 11
1883.386059
 21
2553.037669
  0
LINE
  8
CSLAYER1
  6
CONTINUOUS
 62
     3
 10
1962.849518
 20
2733.814660
 11
1849.975096
 21
2629.638480
  0
LINE
  8
CSLAYER1
  6
CONTINUOUS
 62
     3
 10
1958.101941
 20
2738.958639
 11
1855.448906
 21
2644.216172
  0
ARC
  8
CSLAYER1
  6
CONTINUOUS
 62
     3
 10
1906.764304
 20
2506.419041
 40
47.000000
 50
-190.756396
 51
127.198537
  0
ARC
  8
CSLAYER1
  6
CONTINUOUS
 62
     3
 10
1906.764304
 20
2506.419041
 40
40.000000
 50
-203.471057
 51
127.198537
  0
LINE
  8
CSLAYER1
  6
CONTINUOUS
 62
     3
 10
1724.386152
 20
2418.210682
 11
1882.581153
 21
2538.280855
  0
LINE
  8
CSLAYER1
  6
CONTINUOUS
 62
     3
 10
1720.154101
 20
2423.786499
 11
1878.349102
 21
2543.856673
  0
ARC
  8
CSLAYER1
  6
CONTINUOUS
 62
     3
 10
2074.280340
 20
2625.129256
 40
100.000000
 50
90.000000
 51
142.315137
  0
ARC
  8
CSLAYER1
  6
CONTINUOUS
 62
     3
 10
2074.280340
 20
2625.129256
 40
107.000000
 50
90.000000
 51
142.315137
  0
ARC
  8
CSLAYER1
  6
CONTINUOUS
 62
     3
 10
2030.672047
 20
2660.329256
 40
100.000000
 50
90.000000
 51
132.705116
  0
ARC
  8
CSLAYER1
  6
CONTINUOUS
 62
     3
 10
2030.672047
 20
2660.329256
 40
107.000000
 50
90.000000
 51
132.705116
  0
LINE
  8
CSLAYER1
  6
CONTINUOUS
 62
     5
 10
1469.491928
 20
2547.975784
 11
1148.642126
 21
2547.975784
  0
LINE
  8
CSLAYER1
  6
CONTINUOUS
 62
     5
 10
1422.045932
 20
2881.754294
 11
1007.300460
 21
2881.754294
  0
LINE
  8
CSLAYER1
  6
CONTINUOUS
 62
     5
 10
1717.938125
 20
2422.104571
 11
1469.491928
 21
2547.975784
  0
LINE
  8
CSLAYER1
  6
CONTINUOUS
 62
     5
 10
1717.938125
 20
2422.104571
 11
1673.900095
 21
2431.359403
  0
LINE
  8
CSLAYER1
  6
CONTINUOUS
 62
     5
 10
1717.938125
 20
2422.104571
 11
1684.427488
 21
2452.138506
  0
LINE
  8
CSLAYER1
  6
CONTINUOUS
 62
     3
 10
1724.386152
 20
2418.210682
 11
1720.154101
 21
2423.786499
  0
LINE
  8
CSLAYER1
  6
CONTINUOUS
 62
     3
 10
1721.299527
 20
2422.277376
 11
1683.688771
 21
2417.576031
  0
LINE
  8
CSLAYER1
  6
CONTINUOUS
 62
     3
 10
1722.227430
 20
2421.054844
 11
1689.436733
 21
2404.726415
  0
LINE
  8
CSLAYER1
  6
CONTINUOUS
 62
     3
 10
1723.126592
 20
2419.870179
 11
1695.977036
 21
2395.116173
  0
LINE
  8
CSLAYER1
  6
CONTINUOUS
 62
     3
 10
1723.778610
 20
2419.011130
 11
1706.922034
 21
2387.241113
  0
TEXT
  8
CSLAYER2
 62
     5
 10
4330.620548
 20
3262.394665
 40
54.222878
 41
0.844243
  1
    GLI-200-0508W
 50
0.000000
 51
0.000000
  7
EASYDRAW_FONT
 72
     5
 11
5093.575741
 21
3262.394665
  0
TEXT
  8
CSLAYER1
 62
     3
 10
4299.549805
 20
2404.561768
 40
60.000000
 41
0.825000
  1
マグネットスイッチ制御
 50
0.000000
 51
0.000000
  7
EASYDRAW_FONT
 72
     5
 11
4827.549805
 21
2404.561768
  0
TEXT
  8
CSLAYER1
 62
     3
 10
4410.687500
 20
2214.250732
 40
60.000000
 41
0.819512
  1
３相ＡＣ２００Ｖ、0.2ＫＷ
 50
0.000000
 51
0.000000
  7
EASYDRAW_FONT
 72
     5
 11
5082.687500
 21
2214.250732
  0
TEXT
  8
CSLAYER1
 62
     3
 10
4607.162598
 20
2118.485596
 40
60.000000
 41
0.840000
  1
長サ  ４ ｍ
 50
0.000000
 51
0.000000
  7
EASYDRAW_FONT
 72
     5
 11
4943.162598
 21
2118.485596
  0
TEXT
  8
CSLAYER1
 62
     3
 10
4321.511719
 20
757.893738
 40
75.000000
 41
0.821053
  1
ＧＬＩ－２００－０５０８Ｗ
 50
0.000000
 51
0.000000
  7
EASYDRAW_FONT
 72
     5
 11
5101.511719
 21
757.893738
  0
LINE
  8
CSLAYER1
  6
CONTINUOUS
 62
     5
 10
5128.577536
 20
1621.945094
 11
4384.536043
 21
1621.945094
  0
TEXT
  8
CSLAYER1
 62
     3
 10
4063.257324
 20
1639.618652
 40
60.000000
 41
0.847059
  1
塗　装　色 
 50
0.000000
 51
0.000000
  7
EASYDRAW_FONT
 72
     5
 11
4351.257324
 21
1639.618652
  0
TEXT
  8
CSLAYER1
 62
     3
 10
4542.057617
 20
1637.952148
 40
60.000000
 41
0.926087
  1
　１０Ｒ４／１３
 50
0.000000
 51
0.000000
  7
EASYDRAW_FONT
 72
     5
 11
4968.057617
 21
1637.952148
  0
LINE
  8
CSLAYER1
  6
CONTINUOUS
 62
     5
 10
5128.577536
 20
1621.945094
 11
4047.268760
 21
1621.945094
  0
TEXT
  8
CSLAYER1
 62
     3
 10
4069.401367
 20
3172.704102
 40
60.000000
 41
1.036364
  1
積載荷重
 50
0.000000
 51
0.000000
  7
EASYDRAW_FONT
 72
     5
 11
4297.401367
 21
3172.704102
  0
LINE
  8
CSLAYER1
  6
CONTINUOUS
 62
     5
 10
1422.045932
 20
2881.754294
 11
1583.168041
 21
2680.168979
  0
LINE
  8
CSLAYER1
  6
CONTINUOUS
 62
     5
 10
1583.168041
 20
2680.168979
 11
1546.931760
 21
2706.851032
  0
LINE
  8
CSLAYER1
  6
CONTINUOUS
 62
     5
 10
1583.168041
 20
2680.168979
 11
1565.127528
 21
2721.394455
  0
TEXT
  8
CSLAYER1
 62
     5
 10
1009.098226
 20
2734.748243
 40
59.399998
 41
1.020000
  1
コード長サ２ｍ
 50
0.000000
 51
0.000000
  7
EASYDRAW_FONT
 72
     5
 11
1413.018229
 21
2734.748243
  0
INSERT
  8
CSLAYER1
  2
BLKF0026
 10
0.0
 20
0.0
 30
0.0
  0
ENDSEC
  0
EOF
