  0
SECTION
  2
HEADER
  9
$ACADVER
  1
AC1006
  9
$INSBASE
 10
-944.633550
 20
2189.104235
 30
0.0
  9
$EXTMIN
 10
-944.633550
 20
2189.104235
  9
$EXTMAX
 10
2695.366450
 20
4759.104235
  9
$LIMMIN
 10
-944.633550
 20
2189.104235
  9
$LIMMAX
 10
2695.366450
 20
4759.104235
  9
$VIEWCTR
 10
875.366450
 20
3474.104235
  9
$VIEWSIZE
 40
2570.000000
  9
$SNAPMODE
 70
     0
  9
$SNAPUNIT
 10
1.0
 20
1.0
  9
$SNAPBASE
 10
0.0
 20
0.0
  9
$SNAPANG
 50
0.0
  9
$SNAPSTYLE
 70
     0
  9
$SNAPISOPAIR
 70
     0
  9
$GRIDMODE
 70
     0
  9
$GRIDUNIT
 10
0.0
 20
0.0
  9
$ORTHOMODE
 70
     0
  9
$REGENMODE
 70
     1
  9
$FILLMODE
 70
     1
  9
$QTEXTMODE
 70
     0
  9
$DRAGMODE
 70
     2
  9
$LTSCALE
 40
15.000000
  9
$OSMODE
 70
     0
  9
$ATTMODE
 70
     1
  9
$TEXTSIZE
 40
0.2
  9
$TRACEWID
 40
0.05
  9
$TEXTSTYLE
  7
STANDARD
  9
$CLAYER
  8
CSLAYER1
  9
$CELTYPE
  6
BYLAYER
  9
$CECOLOR
 62
   256
  9
$DIMSCALE
 40
1.0
  9
$DIMASZ
 40
0.18
  9
$DIMEXO
 40
0.0625
  9
$DIMDLI
 40
0.38
  9
$DIMRND
 40
0.0
  9
$DIMDLE
 40
0.0
  9
$DIMEXE
 40
0.18
  9
$DIMTP
 40
0.0
  9
$DIMTM
 40
0.0
  9
$DIMTXT
 40
0.18
  9
$DIMCEN
 40
0.09
  9
$DIMTSZ
 40
0.0
  9
$DIMTOL
 70
     0
  9
$DIMLIM
 70
     0
  9
$DIMTIH
 70
     1
  9
$DIMTOH
 70
     1
  9
$DIMSE1
 70
     0
  9
$DIMSE2
 70
     0
  9
$DIMTAD
 70
     0
  9
$DIMZIN
 70
     0
  9
$DIMBLK
  1

  9
$LUNITS
 70
     2
  9
$LUPREC
 70
     4
  9
$AXISMODE
 70
     0
  9
$AXISUNIT
 10
0.0
 20
0.0
  9
$SKETCHINC
 40
0.1
  9
$FILLETRAD
 40
0.0
  9
$AUNITS
 70
     0
  9
$AUPREC
 70
     0
  9
$MENU
  1
ACAD
  9
$ELEVATION
 40
0.0
  9
$THICKNESS
 40
0.0
  9
$VIEWDIR
 10
0.0
 20
0.0
 30
1.0
  9
$LIMCHECK
 70
     0
  9
$BLIPMODE
 70
     1
  9
$CHAMFERA
 40
0.0
  9
$CHAMFERB
 40
0.0
  9
$FASTZOOM
 70
     1
  9
$SKPOLY
 70
     0
  9
$TDCREATE
 40
2457497.000000
  9
$TDUPDATE
 40
2457497.000000
  9
$TDINDWG
 40
0.0
  9
$TDUSRTIMER
 40
0.0
  9
$USRTIMER
 70
     1
  9
$ANGBASE
 50
0.0
  9
$ANGDIR
 70
     0
  9
$PDMODE
 70
     0
  9
$PDSIZE
 40
0.0
  9
$PLINEWID
 40
0.0
  9
$COORDS
 70
     0
  9
$USERI1
 70
     0
  9
$USERI2
 70
     0
  9
$USERI3
 70
     0
  9
$USERI4
 70
     0
  9
$USERI5
 70
     0
  9
$USERR1
 40
0.0
  9
$USERR2
 40
0.0
  9
$USERR3
 40
0.0
  9
$USERR4
 40
0.0
  9
$USERR5
 40
0.0
  0
ENDSEC
  0
SECTION
  2
TABLES
  0
TABLE
  2
LTYPE
 70
     9
  0
LTYPE
  2
CONTINUOUS
 70
    64
  3
Solid line
 72
    65
 73
     0
 40
0.0
  0
LTYPE
  2
DASHED
 70
    64
  3
__ __ __ __ __ __ __ __ __ __ __ __ __ __ __
 72
    65
 73
     2
 40
0.75
 49
0.5
 49
-0.25
  0
LTYPE
  2
HIDDEN
 70
    64
  3
_ _ _ _ _ _ _ _ _ _ _ _ _ _ _ _ _ _ _ _ _ _ _
 72
    65
 73
     2
 40
0.375
 49
0.25
 49
-0.125
  0
LTYPE
  2
DOT
 70
    64
  3
...............................................
 72
    65
 73
     2
 40
0.25
 49
0.0
 49
-0.25
  0
LTYPE
  2
DASHDOT
 70
    64
  3
__ . __ . __ . __ . __ . __ . __ . __ . __ . __
 72
    65
 73
     4
 40
1.0
 49
0.5
 49
-0.25
 49
0.0
 49
-0.25
  0
LTYPE
  2
DIVIDE
 70
    64
  3
__ . . __ . . __ . . __ . . __ . . __ . . __
 72
    65
 73
     6
 40
1.25
 49
0.5
 49
-0.25
 49
0.0
 49
-0.25
 49
0.0
 49
-0.25
  0
LTYPE
  2
CENTER
 70
    64
  3
____ _ ____ _ ____ _ ____ _ ____ _ ____ _ ____ 
 72
    65
 73
     4
 40
2.0
 49
1.25
 49
-0.25
 49
0.25
 49
-0.25
  0
LTYPE
  2
PHANTOM
 70
    64
  3
______  __  __  ______  __  __  ______  __  __ 
 72
    65
 73
     6
 40
2.5
 49
1.25
 49
-0.25
 49
0.25
 49
-0.25
 49
0.25
 49
-0.25
  0
LTYPE
  2
BORDER
 70
    64
  3
__ __ . __ __ . __ __ . __ __ . __ __ . __ __ .
 72
    65
 73
     6
 40
1.75
 49
0.5
 49
-0.25
 49
0.5
 49
-0.25
 49
0.0
 49
-0.25
  0
ENDTAB
  0
TABLE
  2
LAYER
 70
    16
  0
LAYER
  2
CSLAYER1
 70
    64
 62
     7
  6
CONTINUOUS
  0
LAYER
  2
CSLAYER2
 70
    64
 62
     7
  6
CONTINUOUS
  0
LAYER
  2
CSLAYER3
 70
    64
 62
     7
  6
CONTINUOUS
  0
LAYER
  2
CSLAYER4
 70
    64
 62
     7
  6
CONTINUOUS
  0
LAYER
  2
CSLAYER5
 70
    64
 62
     7
  6
CONTINUOUS
  0
LAYER
  2
CSLAYER6
 70
    64
 62
     7
  6
CONTINUOUS
  0
LAYER
  2
CSLAYER7
 70
    64
 62
     7
  6
CONTINUOUS
  0
LAYER
  2
CSLAYER8
 70
    64
 62
     7
  6
CONTINUOUS
  0
LAYER
  2
CSLAYER9
 70
    64
 62
     7
  6
CONTINUOUS
  0
LAYER
  2
CSLAYER10
 70
    64
 62
     7
  6
CONTINUOUS
  0
LAYER
  2
CSLAYER11
 70
    64
 62
     7
  6
CONTINUOUS
  0
LAYER
  2
CSLAYER12
 70
    64
 62
     7
  6
CONTINUOUS
  0
LAYER
  2
CSLAYER13
 70
    64
 62
     7
  6
CONTINUOUS
  0
LAYER
  2
CSLAYER14
 70
    64
 62
     7
  6
CONTINUOUS
  0
LAYER
  2
CSLAYER15
 70
    64
 62
     7
  6
CONTINUOUS
  0
LAYER
  2
CSLAYER16
 70
    64
 62
     7
  6
CONTINUOUS
  0
ENDTAB
  0
TABLE
  2
STYLE
 70
     1
  0
STYLE
  2
EASYDRAW_FONT
 70
     0
 40
1.0
 41
1.0
 50
0.0
 71
     0
 42
1.0
  3
monotxt
  4
bigfont
  0
ENDTAB
  0
TABLE
  2
VIEW
 70
     0
  0
ENDTAB
  0
ENDSEC
  0
SECTION
  2
BLOCKS
  0
BLOCK
  8
CSLAYER1
  2
*D0000
 70
    65
 10
0.0
 20
0.0
 30
0.0
  0
TEXT
  8
CSLAYER1
 62
     7
 10
2418.705811
 20
331.470337
 40
40.000000
 41
0.843750
  1
230
 50
90.000000
 51
0.000000
  7
EASYDRAW_FONT
 72
     5
 11
2418.705811
 21
421.470337
  0
LINE
  8
CSLAYER1
  6
CONTINUOUS
 62
     5
 10
2334.768598
 20
491.470271
 11
2438.705884
 21
491.470271
  0
LINE
  8
CSLAYER1
  6
CONTINUOUS
 62
     5
 10
2428.705884
 20
261.470271
 11
2428.705884
 21
491.470271
  0
LINE
  8
CSLAYER1
  6
CONTINUOUS
 62
     5
 10
2428.705884
 20
261.470271
 11
2420.941313
 21
290.448046
  0
LINE
  8
CSLAYER1
  6
CONTINUOUS
 62
     5
 10
2428.705884
 20
261.470271
 11
2436.470456
 21
290.448046
  0
LINE
  8
CSLAYER1
  6
CONTINUOUS
 62
     5
 10
2428.705884
 20
491.470271
 11
2420.941313
 21
462.492496
  0
LINE
  8
CSLAYER1
  6
CONTINUOUS
 62
     5
 10
2428.705884
 20
491.470271
 11
2436.470456
 21
462.492496
  0
ENDBLK
  8
0
  0
BLOCK
  8
CSLAYER1
  2
*D0001
 70
    65
 10
0.0
 20
0.0
 30
0.0
  0
TEXT
  8
CSLAYER1
 62
     7
 10
2418.705811
 20
843.921997
 40
40.000000
 41
0.843750
  1
780
 50
90.000000
 51
0.000000
  7
EASYDRAW_FONT
 72
     5
 11
2418.705811
 21
933.921997
  0
LINE
  8
CSLAYER1
  6
CONTINUOUS
 62
     5
 10
2428.705884
 20
491.470271
 11
2428.705884
 21
1286.373750
  0
LINE
  8
CSLAYER1
  6
CONTINUOUS
 62
     5
 10
2428.705884
 20
491.470271
 11
2420.941313
 21
520.448046
  0
LINE
  8
CSLAYER1
  6
CONTINUOUS
 62
     5
 10
2428.705884
 20
491.470271
 11
2436.470456
 21
520.448046
  0
LINE
  8
CSLAYER1
  6
CONTINUOUS
 62
     5
 10
2428.705884
 20
1286.373750
 11
2420.941313
 21
1257.395975
  0
LINE
  8
CSLAYER1
  6
CONTINUOUS
 62
     5
 10
2428.705884
 20
1286.373750
 11
2436.470456
 21
1257.395975
  0
ENDBLK
  8
0
  0
BLOCK
  8
CSLAYER1
  2
*D0002
 70
    65
 10
0.0
 20
0.0
 30
0.0
  0
TEXT
  8
CSLAYER1
 62
     7
 10
2518.705811
 20
713.921997
 40
40.000000
 41
0.818182
  1
1010
 50
90.000000
 51
0.000000
  7
EASYDRAW_FONT
 72
     5
 11
2518.705811
 21
833.921997
  0
LINE
  8
CSLAYER1
  6
CONTINUOUS
 62
     5
 10
2336.098314
 20
1286.373750
 11
2538.705884
 21
1286.373750
  0
LINE
  8
CSLAYER1
  6
CONTINUOUS
 62
     5
 10
2528.705884
 20
261.470271
 11
2528.705884
 21
1286.373750
  0
LINE
  8
CSLAYER1
  6
CONTINUOUS
 62
     5
 10
2528.705884
 20
261.470271
 11
2520.941313
 21
290.448046
  0
LINE
  8
CSLAYER1
  6
CONTINUOUS
 62
     5
 10
2528.705884
 20
261.470271
 11
2536.470456
 21
290.448046
  0
LINE
  8
CSLAYER1
  6
CONTINUOUS
 62
     5
 10
2528.705884
 20
1286.373750
 11
2520.941313
 21
1257.395975
  0
LINE
  8
CSLAYER1
  6
CONTINUOUS
 62
     5
 10
2528.705884
 20
1286.373750
 11
2536.470456
 21
1257.395975
  0
ENDBLK
  8
0
  0
BLOCK
  8
CSLAYER1
  2
*D0003
 70
    65
 10
0.0
 20
0.0
 30
0.0
  0
TEXT
  8
CSLAYER1
 62
     7
 10
1008.556458
 20
1809.612427
 40
40.000000
 41
0.843750
  1
800
 50
90.000000
 51
0.000000
  7
EASYDRAW_FONT
 72
     5
 11
1008.556458
 21
1899.612427
  0
LINE
  8
CSLAYER1
  6
CONTINUOUS
 62
     5
 10
1118.046387
 20
1454.612195
 11
1008.556413
 21
1454.612195
  0
LINE
  8
CSLAYER1
  6
CONTINUOUS
 62
     5
 10
1118.046387
 20
2254.612195
 11
1008.556413
 21
2254.612195
  0
LINE
  8
CSLAYER1
  6
CONTINUOUS
 62
     5
 10
1018.556413
 20
1454.612195
 11
1018.556413
 21
2254.612195
  0
LINE
  8
CSLAYER1
  6
CONTINUOUS
 62
     5
 10
1018.556413
 20
1454.612195
 11
1010.791842
 21
1483.589970
  0
LINE
  8
CSLAYER1
  6
CONTINUOUS
 62
     5
 10
1018.556413
 20
1454.612195
 11
1026.320984
 21
1483.589970
  0
LINE
  8
CSLAYER1
  6
CONTINUOUS
 62
     5
 10
1018.556413
 20
2254.612195
 11
1010.791842
 21
2225.634420
  0
LINE
  8
CSLAYER1
  6
CONTINUOUS
 62
     5
 10
1018.556413
 20
2254.612195
 11
1026.320984
 21
2225.634420
  0
ENDBLK
  8
0
  0
BLOCK
  8
CSLAYER1
  2
*D0004
 70
    65
 10
0.0
 20
0.0
 30
0.0
  0
TEXT
  8
CSLAYER1
 62
     3
 10
1668.705933
 20
1371.373779
 40
40.000000
 41
0.818182
  1
1200
 50
0.000000
 51
0.000000
  7
EASYDRAW_FONT
 72
     5
 11
1788.705933
 21
1371.373779
  0
LINE
  8
CSLAYER1
  6
CONTINUOUS
 62
     5
 10
1128.705884
 20
1296.373750
 11
1128.705884
 21
1371.373750
  0
LINE
  8
CSLAYER1
  6
CONTINUOUS
 62
     5
 10
2328.705884
 20
1296.373750
 11
2328.705884
 21
1371.373750
  0
LINE
  8
CSLAYER1
  6
CONTINUOUS
 62
     5
 10
1128.705884
 20
1361.373750
 11
2328.705884
 21
1361.373750
  0
LINE
  8
CSLAYER1
  6
CONTINUOUS
 62
     5
 10
1128.705884
 20
1361.373750
 11
1157.683659
 21
1369.138322
  0
LINE
  8
CSLAYER1
  6
CONTINUOUS
 62
     5
 10
1128.705884
 20
1361.373750
 11
1157.683659
 21
1353.609179
  0
LINE
  8
CSLAYER1
  6
CONTINUOUS
 62
     5
 10
2328.705884
 20
1361.373750
 11
2299.728110
 21
1369.138322
  0
LINE
  8
CSLAYER1
  6
CONTINUOUS
 62
     5
 10
2328.705884
 20
1361.373750
 11
2299.728110
 21
1353.609179
  0
ENDBLK
  8
0
  0
BLOCK
  8
CSLAYER1
  2
*D0005
 70
    65
 10
0.0
 20
0.0
 30
0.0
  0
TEXT
  8
CSLAYER1
 62
     3
 10
552.531921
 20
196.470276
 40
40.000000
 41
0.843750
  1
600
 50
0.000000
 51
0.000000
  7
EASYDRAW_FONT
 72
     5
 11
642.531921
 21
196.470276
  0
LINE
  8
CSLAYER1
  6
CONTINUOUS
 62
     5
 10
297.531927
 20
251.470271
 11
297.531927
 21
176.470271
  0
LINE
  8
CSLAYER1
  6
CONTINUOUS
 62
     5
 10
897.531927
 20
251.470271
 11
897.531927
 21
176.470271
  0
LINE
  8
CSLAYER1
  6
CONTINUOUS
 62
     5
 10
297.531927
 20
186.470271
 11
897.531927
 21
186.470271
  0
LINE
  8
CSLAYER1
  6
CONTINUOUS
 62
     5
 10
297.531927
 20
186.470271
 11
326.509702
 21
194.234842
  0
LINE
  8
CSLAYER1
  6
CONTINUOUS
 62
     5
 10
297.531927
 20
186.470271
 11
326.509702
 21
178.705699
  0
LINE
  8
CSLAYER1
  6
CONTINUOUS
 62
     5
 10
897.531927
 20
186.470271
 11
868.554153
 21
194.234842
  0
LINE
  8
CSLAYER1
  6
CONTINUOUS
 62
     5
 10
897.531927
 20
186.470271
 11
868.554153
 21
178.705699
  0
ENDBLK
  8
0
  0
BLOCK
  8
CSLAYER1
  2
*D0006
 70
    65
 10
0.0
 20
0.0
 30
0.0
  0
TEXT
  8
CSLAYER1
 62
     3
 10
1668.705933
 20
196.470276
 40
40.000000
 41
0.818182
  1
1200
 50
0.000000
 51
0.000000
  7
EASYDRAW_FONT
 72
     5
 11
1788.705933
 21
196.470276
  0
LINE
  8
CSLAYER1
  6
CONTINUOUS
 62
     5
 10
1128.705884
 20
251.470271
 11
1128.705884
 21
176.470271
  0
LINE
  8
CSLAYER1
  6
CONTINUOUS
 62
     5
 10
2328.705884
 20
251.470271
 11
2328.705884
 21
176.470271
  0
LINE
  8
CSLAYER1
  6
CONTINUOUS
 62
     5
 10
1128.705884
 20
186.470271
 11
2328.705884
 21
186.470271
  0
LINE
  8
CSLAYER1
  6
CONTINUOUS
 62
     5
 10
1128.705884
 20
186.470271
 11
1157.683659
 21
194.234842
  0
LINE
  8
CSLAYER1
  6
CONTINUOUS
 62
     5
 10
1128.705884
 20
186.470271
 11
1157.683659
 21
178.705699
  0
LINE
  8
CSLAYER1
  6
CONTINUOUS
 62
     5
 10
2328.705884
 20
186.470271
 11
2299.728110
 21
194.234842
  0
LINE
  8
CSLAYER1
  6
CONTINUOUS
 62
     5
 10
2328.705884
 20
186.470271
 11
2299.728110
 21
178.705699
  0
ENDBLK
  8
0
  0
BLOCK
  8
CSLAYER1
  2
BLKF0000
 70
   64
 10
0.0
 20
0.0
 30
0.0
  0
ARC
  8
CSLAYER1
  6
CONTINUOUS
 62
     5
 10
2781.909508
 20
79.335220
 40
3.549225
 50
6.429109
 51
73.182034
  0
ARC
  8
CSLAYER1
  6
CONTINUOUS
 62
     5
 10
2778.448538
 20
78.176827
 40
6.907754
 50
310.517970
 51
330.092764
  0
ARC
  8
CSLAYER1
  6
CONTINUOUS
 62
     5
 10
2778.387888
 20
78.542345
 40
7.148321
 50
-32.205059
 51
9.585194
  0
ARC
  8
CSLAYER1
  6
CONTINUOUS
 62
     5
 10
2781.680616
 20
75.781346
 40
4.767514
 50
180.000000
 51
218.514150
  0
ARC
  8
CSLAYER1
  6
CONTINUOUS
 62
     5
 10
2780.393895
 20
75.104206
 40
3.348282
 50
222.781148
 51
319.406906
  0
ARC
  8
CSLAYER1
  6
CONTINUOUS
 62
     5
 10
2783.459537
 20
76.194099
 40
6.559434
 50
94.574282
 51
183.607718
  0
LINE
  8
CSLAYER1
  6
CONTINUOUS
 62
     5
 10
2796.903443
 20
71.077266
 11
2796.046407
 21
68.038683
  0
LINE
  8
CSLAYER1
  6
CONTINUOUS
 62
     5
 10
2798.695428
 20
90.944924
 11
2796.591794
 21
93.671857
  0
LINE
  8
CSLAYER1
  6
CONTINUOUS
 62
     5
 10
2796.591794
 20
93.671857
 11
2789.838440
 21
97.429769
  0
LINE
  8
CSLAYER1
  6
CONTINUOUS
 62
     5
 10
2789.838440
 20
97.429769
 11
2782.936412
 21
98.232640
  0
LINE
  8
CSLAYER1
  6
CONTINUOUS
 62
     5
 10
2764.647187
 20
84.853966
 11
2766.793881
 21
89.818197
  0
LINE
  8
CSLAYER1
  6
CONTINUOUS
 62
     5
 10
2766.756884
 20
89.732640
 11
2768.940576
 21
92.367396
  0
LINE
  8
CSLAYER1
  6
CONTINUOUS
 62
     5
 10
2768.940576
 20
92.367396
 11
2772.244998
 21
94.732640
  0
LINE
  8
CSLAYER1
  6
CONTINUOUS
 62
     5
 10
2782.936412
 20
98.232640
 11
2781.418237
 21
97.465795
  0
LINE
  8
CSLAYER1
  6
CONTINUOUS
 62
     5
 10
2781.418237
 20
97.465795
 11
2777.929858
 21
97.465795
  0
LINE
  8
CSLAYER1
  6
CONTINUOUS
 62
     5
 10
2777.929858
 20
97.465795
 11
2774.374396
 21
95.520354
  0
LINE
  8
CSLAYER1
  6
CONTINUOUS
 62
     5
 10
2774.374396
 20
95.520354
 11
2772.244998
 21
94.732640
  0
LINE
  8
CSLAYER1
  6
CONTINUOUS
 62
     5
 10
2764.647187
 20
84.853966
 11
2763.129640
 21
77.305363
  0
LINE
  8
CSLAYER1
  6
CONTINUOUS
 62
     5
 10
2763.129640
 20
77.305363
 11
2762.936412
 21
74.732640
  0
LINE
  8
CSLAYER1
  6
CONTINUOUS
 62
     5
 10
2765.645795
 20
66.892857
 11
2762.936412
 21
72.988969
  0
LINE
  8
CSLAYER1
  6
CONTINUOUS
 62
     5
 10
2762.936412
 20
72.988969
 11
2762.936412
 21
74.732640
  0
LINE
  8
CSLAYER1
  6
CONTINUOUS
 62
     5
 10
2796.046407
 20
68.038683
 11
2794.360620
 21
65.035677
  0
LINE
  8
CSLAYER1
  6
CONTINUOUS
 62
     5
 10
2794.360620
 20
65.035677
 11
2792.936412
 21
63.716966
  0
ARC
  8
CSLAYER1
  6
CONTINUOUS
 62
     5
 10
2780.744468
 20
75.269400
 40
17.266626
 50
208.054813
 51
260.640470
  0
ARC
  8
CSLAYER1
  6
CONTINUOUS
 62
     5
 10
2775.551072
 20
88.011870
 40
29.874611
 50
274.579659
 51
305.587364
  0
ARC
  8
CSLAYER1
  6
CONTINUOUS
 62
     5
 10
2786.523421
 20
82.028147
 40
15.088627
 50
313.467013
 51
331.085078
  0
LINE
  8
CSLAYER1
  6
CONTINUOUS
 62
     5
 10
2801.314754
 20
78.246061
 11
2801.612048
 21
82.028147
  0
LINE
  8
CSLAYER1
  6
CONTINUOUS
 62
     5
 10
2801.612048
 20
82.028147
 11
2800.320051
 21
88.137130
  0
LINE
  8
CSLAYER1
  6
CONTINUOUS
 62
     5
 10
2801.314754
 20
78.246061
 11
2799.731079
 21
74.732640
  0
ARC
  8
CSLAYER1
  6
CONTINUOUS
 62
     5
 10
2786.523421
 20
82.028147
 40
15.088627
 50
23.883193
 51
36.225170
  0
LINE
  8
CSLAYER1
  6
CONTINUOUS
 62
     5
 10
2746.936412
 20
109.732640
 11
2747.936412
 21
110.825284
  0
LINE
  8
CSLAYER1
  6
CONTINUOUS
 62
     5
 10
2746.936412
 20
109.732640
 11
2748.513370
 21
108.287607
  0
LINE
  8
CSLAYER1
  6
CONTINUOUS
 62
     5
 10
2750.052583
 20
106.178315
 11
2750.078851
 21
104.010196
  0
LINE
  8
CSLAYER1
  6
CONTINUOUS
 62
     5
 10
2750.078851
 20
104.010196
 11
2750.286249
 21
103.249737
  0
LINE
  8
CSLAYER1
  6
CONTINUOUS
 62
     5
 10
2750.286249
 20
103.249737
 11
2750.873877
 21
102.523844
  0
LINE
  8
CSLAYER1
  6
CONTINUOUS
 62
     5
 10
2750.873877
 20
102.523844
 11
2751.461504
 21
102.592977
  0
LINE
  8
CSLAYER1
  6
CONTINUOUS
 62
     5
 10
2751.461504
 20
102.592977
 11
2752.083698
 21
102.765808
  0
LINE
  8
CSLAYER1
  6
CONTINUOUS
 62
     5
 10
2752.083698
 20
102.765808
 11
2752.498494
 21
102.592977
  0
LINE
  8
CSLAYER1
  6
CONTINUOUS
 62
     5
 10
2752.498494
 20
102.592977
 11
2753.397219
 21
102.143614
  0
LINE
  8
CSLAYER1
  6
CONTINUOUS
 62
     5
 10
2753.397219
 20
102.143614
 11
2754.173270
 21
101.732640
  0
LINE
  8
CSLAYER1
  6
CONTINUOUS
 62
     5
 10
2754.173270
 20
101.732640
 11
2754.676173
 21
101.763385
  0
LINE
  8
CSLAYER1
  6
CONTINUOUS
 62
     5
 10
2754.676173
 20
101.763385
 11
2757.484045
 21
103.209864
  0
LINE
  8
CSLAYER1
  6
CONTINUOUS
 62
     5
 10
2747.936412
 20
110.825284
 11
2748.269264
 21
112.298991
  0
LINE
  8
CSLAYER1
  6
CONTINUOUS
 62
     5
 10
2748.269264
 20
112.298991
 11
2749.722669
 21
112.449344
  0
LINE
  8
CSLAYER1
  6
CONTINUOUS
 62
     5
 10
2751.216428
 20
115.217802
 11
2752.970601
 21
115.374892
  0
LINE
  8
CSLAYER1
  6
CONTINUOUS
 62
     5
 10
2752.970601
 20
115.374892
 11
2756.505128
 21
116.212706
  0
LINE
  8
CSLAYER1
  6
CONTINUOUS
 62
     5
 10
2756.505128
 20
116.212706
 11
2757.936412
 21
116.544345
  0
LINE
  8
CSLAYER1
  6
CONTINUOUS
 62
     5
 10
2751.216428
 20
115.217802
 11
2749.283537
 21
115.376670
  0
LINE
  8
CSLAYER1
  6
CONTINUOUS
 62
     5
 10
2748.547414
 20
114.507983
 11
2748.640939
 21
114.136822
  0
LINE
  8
CSLAYER1
  6
CONTINUOUS
 62
     5
 10
2748.640939
 20
114.136822
 11
2749.132533
 21
113.599141
  0
LINE
  8
CSLAYER1
  6
CONTINUOUS
 62
     5
 10
2749.132533
 20
113.599141
 11
2749.808475
 21
113.092184
  0
LINE
  8
CSLAYER1
  6
CONTINUOUS
 62
     5
 10
2749.808475
 20
113.092184
 11
2749.931800
 21
112.927751
  0
LINE
  8
CSLAYER1
  6
CONTINUOUS
 62
     5
 10
2748.513370
 20
108.287607
 11
2750.052583
 21
106.178315
  0
ARC
  8
CSLAYER1
  6
CONTINUOUS
 62
     5
 10
2792.923113
 20
-61.926013
 40
180.727463
 50
80.438896
 51
96.353582
  0
ARC
  8
CSLAYER1
  6
CONTINUOUS
 62
     5
 10
2768.024200
 20
83.321887
 40
34.720242
 50
81.866516
 51
106.890578
  0
LINE
  8
CSLAYER1
  6
CONTINUOUS
 62
     5
 10
2827.130674
 20
115.499310
 11
2829.377756
 21
114.477909
  0
LINE
  8
CSLAYER1
  6
CONTINUOUS
 62
     5
 10
2832.952661
 20
112.894737
 11
2829.377756
 21
114.477909
  0
LINE
  8
CSLAYER1
  6
CONTINUOUS
 62
     5
 10
2827.130674
 20
115.499310
 11
2822.936412
 21
116.291881
  0
LINE
  8
CSLAYER1
  6
CONTINUOUS
 62
     5
 10
2832.936412
 20
112.901933
 11
2834.807988
 21
111.333456
  0
LINE
  8
CSLAYER1
  6
CONTINUOUS
 62
     5
 10
2816.179668
 20
113.938783
 11
2817.078943
 21
115.391458
  0
LINE
  8
CSLAYER1
  6
CONTINUOUS
 62
     5
 10
2817.078943
 20
115.391458
 11
2821.754542
 21
114.271949
  0
LINE
  8
CSLAYER1
  6
CONTINUOUS
 62
     5
 10
2821.754542
 20
114.271949
 11
2838.496928
 21
109.732640
  0
LINE
  8
CSLAYER1
  6
CONTINUOUS
 62
     5
 10
2841.436412
 20
109.732640
 11
2834.807988
 21
111.333456
  0
LINE
  8
CSLAYER1
  6
CONTINUOUS
 62
     5
 10
2838.496928
 20
109.732640
 11
2841.436412
 21
109.732640
  0
LINE
  8
CSLAYER1
  6
CONTINUOUS
 62
     5
 10
2782.936412
 20
114.197581
 11
2802.936412
 21
114.732640
  0
LINE
  8
CSLAYER1
  6
CONTINUOUS
 62
     5
 10
2802.936412
 20
114.732640
 11
2816.179668
 21
113.938783
  0
LINE
  8
CSLAYER1
  6
CONTINUOUS
 62
     5
 10
2817.782649
 20
111.878304
 11
2802.936412
 21
113.232640
  0
LINE
  8
CSLAYER1
  6
CONTINUOUS
 62
     5
 10
2802.936412
 20
113.232640
 11
2787.887203
 21
113.641292
  0
LINE
  8
CSLAYER1
  6
CONTINUOUS
 62
     5
 10
2787.936412
 20
113.639956
 11
2782.936412
 21
113.735249
  0
LINE
  8
CSLAYER1
  6
CONTINUOUS
 62
     5
 10
2782.936412
 20
114.197581
 11
2782.936412
 21
113.735249
  0
LINE
  8
CSLAYER1
  6
CONTINUOUS
 62
     5
 10
2840.436412
 20
106.232640
 11
2831.593854
 21
108.543302
  0
LINE
  8
CSLAYER1
  6
CONTINUOUS
 62
     5
 10
2817.782649
 20
111.878304
 11
2827.936412
 21
109.905920
  0
LINE
  8
CSLAYER1
  6
CONTINUOUS
 62
     5
 10
2827.936412
 20
109.905920
 11
2831.593854
 21
108.543302
  0
LINE
  8
CSLAYER1
  6
CONTINUOUS
 62
     5
 10
2840.436412
 20
106.232640
 11
2840.143795
 21
105.393534
  0
LINE
  8
CSLAYER1
  6
CONTINUOUS
 62
     5
 10
2849.936412
 20
100.732640
 11
2849.630385
 21
101.961621
  0
LINE
  8
CSLAYER1
  6
CONTINUOUS
 62
     5
 10
2840.143795
 20
105.393534
 11
2849.630385
 21
101.961621
  0
LINE
  8
CSLAYER1
  6
CONTINUOUS
 62
     5
 10
2786.436412
 20
106.232640
 11
2788.859450
 21
106.232640
  0
LINE
  8
CSLAYER1
  6
CONTINUOUS
 62
     5
 10
2808.936412
 20
106.665135
 11
2808.936412
 21
106.232640
  0
LINE
  8
CSLAYER1
  6
CONTINUOUS
 62
     5
 10
2807.936412
 20
107.199576
 11
2806.225133
 21
107.836755
  0
LINE
  8
CSLAYER1
  6
CONTINUOUS
 62
     5
 10
2806.225133
 20
107.836755
 11
2805.115077
 21
107.887212
  0
LINE
  8
CSLAYER1
  6
CONTINUOUS
 62
     5
 10
2805.115077
 20
107.887212
 11
2804.635735
 21
107.634926
  0
LINE
  8
CSLAYER1
  6
CONTINUOUS
 62
     5
 10
2804.635735
 20
107.634926
 11
2804.534821
 21
107.231270
  0
LINE
  8
CSLAYER1
  6
CONTINUOUS
 62
     5
 10
2804.534821
 20
107.231270
 11
2804.988934
 21
106.928527
  0
LINE
  8
CSLAYER1
  6
CONTINUOUS
 62
     5
 10
2804.988934
 20
106.928527
 11
2806.628790
 21
106.777156
  0
LINE
  8
CSLAYER1
  6
CONTINUOUS
 62
     5
 10
2806.628790
 20
106.777156
 11
2808.936412
 21
106.665135
  0
LINE
  8
CSLAYER1
  6
CONTINUOUS
 62
     5
 10
2849.936412
 20
100.732640
 11
2846.960870
 21
101.919221
  0
LINE
  8
CSLAYER1
  6
CONTINUOUS
 62
     5
 10
2846.960870
 20
101.919221
 11
2836.905180
 21
103.762097
  0
LINE
  8
CSLAYER1
  6
CONTINUOUS
 62
     5
 10
2836.905180
 20
103.762097
 11
2831.879400
 21
104.921892
  0
LINE
  8
CSLAYER1
  6
CONTINUOUS
 62
     5
 10
2809.470633
 20
107.232640
 11
2821.236299
 21
107.232640
  0
LINE
  8
CSLAYER1
  6
CONTINUOUS
 62
     5
 10
2807.936412
 20
107.199576
 11
2808.461072
 21
106.891109
  0
LINE
  8
CSLAYER1
  6
CONTINUOUS
 62
     5
 10
2808.461072
 20
106.891109
 11
2808.757884
 21
106.802065
  0
LINE
  8
CSLAYER1
  6
CONTINUOUS
 62
     5
 10
2808.757884
 20
106.802065
 11
2808.936412
 21
106.827236
  0
LINE
  8
CSLAYER1
  6
CONTINUOUS
 62
     5
 10
2808.936412
 20
106.827236
 11
2809.470633
 21
107.232640
  0
LINE
  8
CSLAYER1
  6
CONTINUOUS
 62
     5
 10
2821.236299
 20
107.232640
 11
2825.686568
 21
106.203814
  0
LINE
  8
CSLAYER1
  6
CONTINUOUS
 62
     5
 10
2825.686568
 20
106.203814
 11
2829.839760
 21
105.038665
  0
LINE
  8
CSLAYER1
  6
CONTINUOUS
 62
     5
 10
2829.839760
 20
105.038665
 11
2831.879400
 21
104.921892
  0
LINE
  8
CSLAYER1
  6
CONTINUOUS
 62
     5
 10
2785.436412
 20
105.232640
 11
2785.436412
 21
104.732640
  0
LINE
  8
CSLAYER1
  6
CONTINUOUS
 62
     5
 10
2782.936412
 20
104.732640
 11
2785.436412
 21
104.732640
  0
ARC
  8
CSLAYER1
  6
CONTINUOUS
 62
     5
 10
2786.436412
 20
105.232640
 40
1.000000
 50
90.000000
 51
180.000000
  0
LINE
  8
CSLAYER1
  6
CONTINUOUS
 62
     5
 10
2788.859450
 20
106.232640
 11
2789.557007
 21
105.660643
  0
LINE
  8
CSLAYER1
  6
CONTINUOUS
 62
     5
 10
2790.159375
 20
105.636683
 11
2791.016972
 21
106.232640
  0
LINE
  8
CSLAYER1
  6
CONTINUOUS
 62
     5
 10
2792.595368
 20
106.232640
 11
2794.262494
 21
105.574564
  0
LINE
  8
CSLAYER1
  6
CONTINUOUS
 62
     5
 10
2794.686203
 20
105.601076
 11
2795.839690
 21
106.232640
  0
LINE
  8
CSLAYER1
  6
CONTINUOUS
 62
     5
 10
2791.016972
 20
106.232640
 11
2792.595368
 21
106.232640
  0
LINE
  8
CSLAYER1
  6
CONTINUOUS
 62
     5
 10
2795.839690
 20
106.232640
 11
2808.936412
 21
106.232640
  0
LINE
  8
CSLAYER1
  6
CONTINUOUS
 62
     5
 10
2761.485395
 20
103.123813
 11
2782.936412
 21
104.732640
  0
LINE
  8
CSLAYER1
  6
CONTINUOUS
 62
     5
 10
2757.484045
 20
103.209864
 11
2761.485395
 21
103.123813
  0
ARC
  8
CSLAYER1
  6
CONTINUOUS
 62
     5
 10
2789.874047
 20
106.047277
 40
0.500000
 50
230.648247
 51
304.796026
  0
ARC
  8
CSLAYER1
  6
CONTINUOUS
 62
     5
 10
2794.446077
 20
106.039642
 40
0.500000
 50
248.459024
 51
298.701829
  0
ARC
  8
CSLAYER1
  6
CONTINUOUS
 62
     5
 10
2749.691800
 20
112.747751
 40
0.300000
 50
-84.093859
 51
36.869898
  0
ARC
  8
CSLAYER1
  6
CONTINUOUS
 62
     5
 10
2749.226196
 20
114.679023
 40
0.700000
 50
85.301319
 51
194.142980
  0
LINE
  8
CSLAYER1
  6
CONTINUOUS
 62
     3
 10
2781.418237
 20
97.465795
 11
2789.528732
 21
97.465795
  0
LINE
  8
CSLAYER1
  6
CONTINUOUS
 62
     3
 10
2775.005720
 20
95.865795
 11
2792.649061
 21
95.865795
  0
LINE
  8
CSLAYER1
  6
CONTINUOUS
 62
     3
 10
2771.592781
 20
94.265795
 11
2795.524426
 21
94.265795
  0
LINE
  8
CSLAYER1
  6
CONTINUOUS
 62
     3
 10
2769.357462
 20
92.665795
 11
2797.367899
 21
92.665795
  0
LINE
  8
CSLAYER1
  6
CONTINUOUS
 62
     3
 10
2767.861806
 20
91.065795
 11
2798.602184
 21
91.065795
  0
LINE
  8
CSLAYER1
  6
CONTINUOUS
 62
     3
 10
2766.641492
 20
89.465795
 11
2799.651561
 21
89.465795
  0
LINE
  8
CSLAYER1
  6
CONTINUOUS
 62
     3
 10
2765.949600
 20
87.865795
 11
2800.377436
 21
87.865795
  0
LINE
  8
CSLAYER1
  6
CONTINUOUS
 62
     3
 10
2765.257708
 20
86.265795
 11
2800.715822
 21
86.265795
  0
LINE
  8
CSLAYER1
  6
CONTINUOUS
 62
     3
 10
2764.609358
 20
84.665795
 11
2801.054208
 21
84.665795
  0
LINE
  8
CSLAYER1
  6
CONTINUOUS
 62
     3
 10
2764.287699
 20
83.065795
 11
2801.392594
 21
83.065795
  0
LINE
  8
CSLAYER1
  6
CONTINUOUS
 62
     3
 10
2763.966040
 20
81.465795
 11
2779.556283
 21
81.465795
  0
LINE
  8
CSLAYER1
  6
CONTINUOUS
 62
     3
 10
2763.644381
 20
79.865795
 11
2778.024022
 21
79.865795
  0
LINE
  8
CSLAYER1
  6
CONTINUOUS
 62
     3
 10
2763.322722
 20
78.265795
 11
2777.235852
 21
78.265795
  0
LINE
  8
CSLAYER1
  6
CONTINUOUS
 62
     3
 10
2763.081604
 20
76.665795
 11
2776.917085
 21
76.665795
  0
LINE
  8
CSLAYER1
  6
CONTINUOUS
 62
     3
 10
2762.961434
 20
75.065795
 11
2776.967106
 21
75.065795
  0
LINE
  8
CSLAYER1
  6
CONTINUOUS
 62
     3
 10
2762.936412
 20
73.465795
 11
2777.513193
 21
73.465795
  0
LINE
  8
CSLAYER1
  6
CONTINUOUS
 62
     3
 10
2763.435600
 20
71.865795
 11
2779.543195
 21
71.865795
  0
LINE
  8
CSLAYER1
  6
CONTINUOUS
 62
     3
 10
2764.146711
 20
70.265795
 11
2796.674567
 21
70.265795
  0
LINE
  8
CSLAYER1
  6
CONTINUOUS
 62
     3
 10
2764.857823
 20
68.665795
 11
2796.223285
 21
68.665795
  0
LINE
  8
CSLAYER1
  6
CONTINUOUS
 62
     3
 10
2765.568934
 20
67.065795
 11
2795.500261
 21
67.065795
  0
LINE
  8
CSLAYER1
  6
CONTINUOUS
 62
     3
 10
2766.530893
 20
65.465795
 11
2794.602074
 21
65.465795
  0
LINE
  8
CSLAYER1
  6
CONTINUOUS
 62
     3
 10
2767.779354
 20
63.865795
 11
2793.097148
 21
63.865795
  0
LINE
  8
CSLAYER1
  6
CONTINUOUS
 62
     3
 10
2769.384774
 20
62.265795
 11
2790.704687
 21
62.265795
  0
LINE
  8
CSLAYER1
  6
CONTINUOUS
 62
     3
 10
2771.531916
 20
60.665795
 11
2787.579564
 21
60.665795
  0
LINE
  8
CSLAYER1
  6
CONTINUOUS
 62
     3
 10
2774.779606
 20
59.065795
 11
2782.941415
 21
59.065795
  0
LINE
  8
CSLAYER1
  6
CONTINUOUS
 62
     3
 10
2784.748107
 20
81.465795
 11
2801.567844
 21
81.465795
  0
LINE
  8
CSLAYER1
  6
CONTINUOUS
 62
     3
 10
2785.418851
 20
79.865795
 11
2801.442074
 21
79.865795
  0
LINE
  8
CSLAYER1
  6
CONTINUOUS
 62
     3
 10
2785.530858
 20
78.265795
 11
2801.316305
 21
78.265795
  0
LINE
  8
CSLAYER1
  6
CONTINUOUS
 62
     3
 10
2785.285501
 20
76.665795
 11
2800.602449
 21
76.665795
  0
LINE
  8
CSLAYER1
  6
CONTINUOUS
 62
     3
 10
2784.633855
 20
75.065795
 11
2799.881249
 21
75.065795
  0
LINE
  8
CSLAYER1
  6
CONTINUOUS
 62
     3
 10
2783.500592
 20
73.465795
 11
2798.947301
 21
73.465795
  0
LINE
  8
CSLAYER1
  6
CONTINUOUS
 62
     3
 10
2781.244595
 20
71.865795
 11
2797.676594
 21
71.865795
  0
TEXT
  8
CSLAYER1
 62
     5
 10
2802.108183
 20
79.476970
 40
4.713448
 41
1.951056
  1
M
 50
0.000000
 51
0.000000
  7
EASYDRAW_FONT
 72
     5
 11
2808.238985
 21
79.476970
  0
TEXT
  8
CSLAYER1
 62
     5
 10
2811.759570
 20
79.418700
 40
4.626621
 41
0.778201
  1
T
 50
0.000000
 51
0.000000
  7
EASYDRAW_FONT
 72
     5
 11
2814.159863
 21
79.418700
  0
TEXT
  8
CSLAYER1
 62
     5
 10
2814.525133
 20
79.453499
 40
4.696183
 41
1.055553
  1
E
 50
0.000000
 51
0.000000
  7
EASYDRAW_FONT
 72
     5
 11
2817.829848
 21
79.453499
  0
TEXT
  8
CSLAYER1
 62
     5
 10
2817.641314
 20
81.069343
 40
0.348283
 41
9.375319
  1
-
 50
0.000000
 51
0.000000
  7
EASYDRAW_FONT
 72
     5
 11
2819.818159
 21
81.069343
  0
TEXT
  8
CSLAYER1
 62
     5
 10
2819.455523
 20
79.422152
 40
4.861659
 41
1.298502
  1
H
 50
0.000000
 51
0.000000
  7
EASYDRAW_FONT
 72
     5
 11
2823.664106
 21
79.422152
  0
TEXT
  8
CSLAYER1
 62
     5
 10
2823.531538
 20
79.452530
 40
4.843139
 41
1.269236
  1
A
 50
0.000000
 51
0.000000
  7
EASYDRAW_FONT
 72
     5
 11
2827.629595
 21
79.452530
  0
TEXT
  8
CSLAYER1
 62
     5
 10
2827.237694
 20
79.411004
 40
4.825362
 41
1.490144
  1
N
 50
0.000000
 51
0.000000
  7
EASYDRAW_FONT
 72
     5
 11
2832.031349
 21
79.411004
  0
TEXT
  8
CSLAYER1
 62
     5
 10
2808.029152
 20
79.388431
 40
4.982325
 41
1.177443
  1
A
 50
0.000000
 51
0.000000
  7
EASYDRAW_FONT
 72
     5
 11
2811.940086
 21
79.388431
  0
TEXT
  8
CSLAYER1
 62
     5
 10
2802.475197
 20
72.393191
 40
4.982325
 41
1.177443
  1
A
 50
0.000000
 51
0.000000
  7
EASYDRAW_FONT
 72
     5
 11
2806.386131
 21
72.393191
  0
TEXT
  8
CSLAYER1
 62
     5
 10
2815.259621
 20
72.421512
 40
4.982325
 41
1.177443
  1
A
 50
0.000000
 51
0.000000
  7
EASYDRAW_FONT
 72
     5
 11
2819.170555
 21
72.421512
  0
TEXT
  8
CSLAYER1
 62
     5
 10
2819.020165
 20
72.478509
 40
4.825362
 41
1.490144
  1
N
 50
0.000000
 51
0.000000
  7
EASYDRAW_FONT
 72
     5
 11
2823.813819
 21
72.478509
  0
TEXT
  8
CSLAYER1
 62
     5
 10
2827.922501
 20
72.486903
 40
4.841775
 41
1.184218
  1
E
 50
0.000000
 51
0.000000
  7
EASYDRAW_FONT
 72
     5
 11
2831.744980
 21
72.486903
  0
TEXT
  8
CSLAYER1
 62
     5
 10
2806.755750
 20
72.391867
 40
4.947865
 41
1.093992
  1
D
 50
0.000000
 51
0.000000
  7
EASYDRAW_FONT
 72
     5
 11
2810.364367
 21
72.391867
  0
TEXT
  8
CSLAYER1
 62
     5
 10
2811.158109
 20
72.386482
 40
4.924210
 41
1.228195
  1
V
 50
0.000000
 51
0.000000
  7
EASYDRAW_FONT
 72
     5
 11
2815.190036
 21
72.386482
  0
TEXT
  8
CSLAYER1
 62
     5
 10
2823.383310
 20
72.407213
 40
5.032894
 41
1.481023
  1
C
 50
0.000000
 51
0.000000
  7
EASYDRAW_FONT
 72
     5
 11
2828.352530
 21
72.407213
  0
LINE
  8
CSLAYER1
  6
CONTINUOUS
 62
     5
 10
2814.013749
 20
83.467612
 11
2813.001687
 21
83.467612
  0
LINE
  8
CSLAYER1
  6
CONTINUOUS
 62
     3
 10
2763.111987
 20
117.692883
 11
2812.909813
 21
117.692883
  0
LINE
  8
CSLAYER1
  6
CONTINUOUS
 62
     3
 10
2755.999623
 20
116.092883
 11
2823.989505
 21
116.092883
  0
LINE
  8
CSLAYER1
  6
CONTINUOUS
 62
     3
 10
2748.551219
 20
114.492883
 11
2793.974529
 21
114.492883
  0
LINE
  8
CSLAYER1
  6
CONTINUOUS
 62
     3
 10
2806.936079
 20
114.492883
 11
2816.522682
 21
114.492883
  0
LINE
  8
CSLAYER1
  6
CONTINUOUS
 62
     3
 10
2820.831816
 20
114.492883
 11
2829.344813
 21
114.492883
  0
LINE
  8
CSLAYER1
  6
CONTINUOUS
 62
     3
 10
2749.954358
 20
112.892883
 11
2806.660827
 21
112.892883
  0
LINE
  8
CSLAYER1
  6
CONTINUOUS
 62
     3
 10
2826.840965
 20
112.892883
 11
2832.947211
 21
112.892883
  0
LINE
  8
CSLAYER1
  6
CONTINUOUS
 62
     3
 10
2748.042024
 20
111.292883
 11
2820.796375
 21
111.292883
  0
LINE
  8
CSLAYER1
  6
CONTINUOUS
 62
     3
 10
2832.742264
 20
111.292883
 11
2834.975986
 21
111.292883
  0
LINE
  8
CSLAYER1
  6
CONTINUOUS
 62
     3
 10
2746.979799
 20
109.692883
 11
2828.508231
 21
109.692883
  0
LINE
  8
CSLAYER1
  6
CONTINUOUS
 62
     3
 10
2748.655466
 20
108.092883
 11
2833.317540
 21
108.092883
  0
LINE
  8
CSLAYER1
  6
CONTINUOUS
 62
     3
 10
2749.823033
 20
106.492883
 11
2808.936412
 21
106.492883
  0
LINE
  8
CSLAYER1
  6
CONTINUOUS
 62
     3
 10
2824.436177
 20
106.492883
 11
2839.440500
 21
106.492883
  0
LINE
  8
CSLAYER1
  6
CONTINUOUS
 62
     3
 10
2750.068157
 20
104.892883
 11
2785.436412
 21
104.892883
  0
LINE
  8
CSLAYER1
  6
CONTINUOUS
 62
     3
 10
2832.005106
 20
104.892883
 11
2841.527709
 21
104.892883
  0
LINE
  8
CSLAYER1
  6
CONTINUOUS
 62
     3
 10
2750.274482
 20
103.292883
 11
2763.739655
 21
103.292883
  0
LINE
  8
CSLAYER1
  6
CONTINUOUS
 62
     3
 10
2839.465455
 20
103.292883
 11
2845.950473
 21
103.292883
  0
LINE
  8
CSLAYER1
  6
CONTINUOUS
 62
     3
 10
2847.528449
 20
101.692883
 11
2849.697303
 21
101.692883
  0
ENDBLK
  8
0
  0
BLOCK
  8
CSLAYER1
  2
BLKF0001
 70
   64
 10
0.0
 20
0.0
 30
0.0
  0
LINE
  8
CSLAYER1
  6
CONTINUOUS
 62
     5
 10
587.985902
 20
424.001760
 11
597.531927
 21
424.303823
  0
LINE
  8
CSLAYER1
  6
CONTINUOUS
 62
     5
 10
576.326679
 20
421.950758
 11
587.985902
 21
424.001760
  0
LINE
  8
CSLAYER1
  6
CONTINUOUS
 62
     5
 10
561.970188
 20
417.247522
 11
576.326679
 21
421.950758
  0
LINE
  8
CSLAYER1
  6
CONTINUOUS
 62
     5
 10
550.037172
 20
410.366159
 11
561.970188
 21
417.247522
  0
LINE
  8
CSLAYER1
  6
CONTINUOUS
 62
     5
 10
541.340845
 20
401.775621
 11
550.037172
 21
410.366159
  0
LINE
  8
CSLAYER1
  6
CONTINUOUS
 62
     5
 10
535.531927
 20
385.285959
 11
541.340845
 21
401.775621
  0
ENDBLK
  8
0
  0
BLOCK
  8
CSLAYER1
  2
BLKF0002
 70
   64
 10
0.0
 20
0.0
 30
0.0
  0
LINE
  8
CSLAYER1
  6
CONTINUOUS
 62
     5
 10
607.077953
 20
424.001760
 11
597.531927
 21
424.303823
  0
LINE
  8
CSLAYER1
  6
CONTINUOUS
 62
     5
 10
618.737176
 20
421.950758
 11
607.077953
 21
424.001760
  0
LINE
  8
CSLAYER1
  6
CONTINUOUS
 62
     5
 10
633.093666
 20
417.247522
 11
618.737176
 21
421.950758
  0
LINE
  8
CSLAYER1
  6
CONTINUOUS
 62
     5
 10
645.026683
 20
410.366159
 11
633.093666
 21
417.247522
  0
LINE
  8
CSLAYER1
  6
CONTINUOUS
 62
     5
 10
653.723010
 20
401.775621
 11
645.026683
 21
410.366159
  0
LINE
  8
CSLAYER1
  6
CONTINUOUS
 62
     5
 10
659.531927
 20
385.285959
 11
653.723010
 21
401.775621
  0
ENDBLK
  8
0
  0
BLOCK
  8
CSLAYER1
  2
BLKF0003
 70
   64
 10
0.0
 20
0.0
 30
0.0
  0
LINE
  8
CSLAYER1
  6
CONTINUOUS
 62
     7
 10
587.985902
 20
379.635464
 11
597.531927
 21
379.937527
  0
LINE
  8
CSLAYER1
  6
CONTINUOUS
 62
     7
 10
576.326679
 20
377.584461
 11
587.985902
 21
379.635464
  0
LINE
  8
CSLAYER1
  6
CONTINUOUS
 62
     7
 10
561.970188
 20
372.881226
 11
576.326679
 21
377.584461
  0
LINE
  8
CSLAYER1
  6
CONTINUOUS
 62
     7
 10
550.037172
 20
365.999862
 11
561.970188
 21
372.881226
  0
LINE
  8
CSLAYER1
  6
CONTINUOUS
 62
     7
 10
541.340845
 20
357.409324
 11
550.037172
 21
365.999862
  0
LINE
  8
CSLAYER1
  6
CONTINUOUS
 62
     7
 10
535.531927
 20
340.919662
 11
541.340845
 21
357.409324
  0
ENDBLK
  8
0
  0
BLOCK
  8
CSLAYER1
  2
BLKF0004
 70
   64
 10
0.0
 20
0.0
 30
0.0
  0
LINE
  8
CSLAYER1
  6
CONTINUOUS
 62
     7
 10
607.077953
 20
379.635464
 11
597.531927
 21
379.937527
  0
LINE
  8
CSLAYER1
  6
CONTINUOUS
 62
     7
 10
618.737176
 20
377.584461
 11
607.077953
 21
379.635464
  0
LINE
  8
CSLAYER1
  6
CONTINUOUS
 62
     7
 10
633.093666
 20
372.881226
 11
618.737176
 21
377.584461
  0
LINE
  8
CSLAYER1
  6
CONTINUOUS
 62
     7
 10
645.026683
 20
365.999862
 11
633.093666
 21
372.881226
  0
LINE
  8
CSLAYER1
  6
CONTINUOUS
 62
     7
 10
653.723010
 20
357.409324
 11
645.026683
 21
365.999862
  0
LINE
  8
CSLAYER1
  6
CONTINUOUS
 62
     7
 10
659.531927
 20
340.919662
 11
653.723010
 21
357.409324
  0
ENDBLK
  8
0
  0
BLOCK
  8
CSLAYER1
  2
BLKF0005
 70
   64
 10
0.0
 20
0.0
 30
0.0
  0
LINE
  8
CSLAYER1
  6
CONTINUOUS
 62
     7
 10
587.985902
 20
537.161463
 11
597.531927
 21
537.463526
  0
LINE
  8
CSLAYER1
  6
CONTINUOUS
 62
     7
 10
576.326679
 20
535.110461
 11
587.985902
 21
537.161463
  0
LINE
  8
CSLAYER1
  6
CONTINUOUS
 62
     7
 10
561.970188
 20
530.407225
 11
576.326679
 21
535.110461
  0
LINE
  8
CSLAYER1
  6
CONTINUOUS
 62
     7
 10
550.037172
 20
523.525862
 11
561.970188
 21
530.407225
  0
LINE
  8
CSLAYER1
  6
CONTINUOUS
 62
     7
 10
541.340845
 20
514.935324
 11
550.037172
 21
523.525862
  0
LINE
  8
CSLAYER1
  6
CONTINUOUS
 62
     7
 10
537.531927
 20
504.123024
 11
541.340845
 21
514.935324
  0
ENDBLK
  8
0
  0
BLOCK
  8
CSLAYER1
  2
BLKF0006
 70
   64
 10
0.0
 20
0.0
 30
0.0
  0
LINE
  8
CSLAYER1
  6
CONTINUOUS
 62
     7
 10
607.077953
 20
537.161463
 11
597.531927
 21
537.463526
  0
LINE
  8
CSLAYER1
  6
CONTINUOUS
 62
     7
 10
618.737176
 20
535.110461
 11
607.077953
 21
537.161463
  0
LINE
  8
CSLAYER1
  6
CONTINUOUS
 62
     7
 10
633.093666
 20
530.407225
 11
618.737176
 21
535.110461
  0
LINE
  8
CSLAYER1
  6
CONTINUOUS
 62
     7
 10
645.026683
 20
523.525862
 11
633.093666
 21
530.407225
  0
LINE
  8
CSLAYER1
  6
CONTINUOUS
 62
     7
 10
653.723010
 20
514.935324
 11
645.026683
 21
523.525862
  0
LINE
  8
CSLAYER1
  6
CONTINUOUS
 62
     7
 10
657.531927
 20
504.123024
 11
653.723010
 21
514.935324
  0
ENDBLK
  8
0
  0
BLOCK
  8
CSLAYER1
  2
BLKF0007
 70
   64
 10
0.0
 20
0.0
 30
0.0
  0
LINE
  8
CSLAYER1
  6
CONTINUOUS
 62
     5
 10
597.531927
 20
574.162120
 11
583.555699
 21
573.004167
  0
LINE
  8
CSLAYER1
  6
CONTINUOUS
 62
     5
 10
583.555699
 20
573.004167
 11
570.531927
 21
569.609221
  0
LINE
  8
CSLAYER1
  6
CONTINUOUS
 62
     5
 10
570.531927
 20
569.609221
 11
559.348161
 21
564.208642
  0
LINE
  8
CSLAYER1
  6
CONTINUOUS
 62
     5
 10
559.348161
 20
564.208642
 11
550.766556
 21
557.170469
  0
LINE
  8
CSLAYER1
  6
CONTINUOUS
 62
     5
 10
550.766556
 20
557.170469
 11
545.371933
 21
548.974344
  0
LINE
  8
CSLAYER1
  6
CONTINUOUS
 62
     5
 10
545.371933
 20
548.974344
 11
543.737414
 21
543.140659
  0
LINE
  8
CSLAYER1
  6
CONTINUOUS
 62
     5
 10
543.737414
 20
543.140659
 11
543.531927
 21
540.178819
  0
ENDBLK
  8
0
  0
BLOCK
  8
CSLAYER1
  2
BLKF0008
 70
   64
 10
0.0
 20
0.0
 30
0.0
  0
LINE
  8
CSLAYER1
  6
CONTINUOUS
 62
     5
 10
597.531927
 20
574.162120
 11
611.508156
 21
573.004167
  0
LINE
  8
CSLAYER1
  6
CONTINUOUS
 62
     5
 10
611.508156
 20
573.004167
 11
624.531927
 21
569.609221
  0
LINE
  8
CSLAYER1
  6
CONTINUOUS
 62
     5
 10
624.531927
 20
569.609221
 11
635.715694
 21
564.208642
  0
LINE
  8
CSLAYER1
  6
CONTINUOUS
 62
     5
 10
635.715694
 20
564.208642
 11
644.297299
 21
557.170469
  0
LINE
  8
CSLAYER1
  6
CONTINUOUS
 62
     5
 10
644.297299
 20
557.170469
 11
649.691922
 21
548.974344
  0
LINE
  8
CSLAYER1
  6
CONTINUOUS
 62
     5
 10
649.691922
 20
548.974344
 11
651.326441
 21
543.140659
  0
LINE
  8
CSLAYER1
  6
CONTINUOUS
 62
     5
 10
651.326441
 20
543.140659
 11
651.531927
 21
540.178819
  0
ENDBLK
  8
0
  0
BLOCK
  8
CSLAYER1
  2
BLKF0009
 70
   64
 10
0.0
 20
0.0
 30
0.0
  0
LINE
  8
CSLAYER1
  6
CONTINUOUS
 62
     5
 10
597.531927
 20
547.698013
 11
583.555699
 21
546.540060
  0
LINE
  8
CSLAYER1
  6
CONTINUOUS
 62
     5
 10
583.555699
 20
546.540060
 11
570.531927
 21
543.145114
  0
LINE
  8
CSLAYER1
  6
CONTINUOUS
 62
     5
 10
570.531927
 20
543.145114
 11
559.348161
 21
537.744535
  0
LINE
  8
CSLAYER1
  6
CONTINUOUS
 62
     5
 10
559.348161
 20
537.744535
 11
550.766556
 21
530.706363
  0
LINE
  8
CSLAYER1
  6
CONTINUOUS
 62
     5
 10
550.766556
 20
530.706363
 11
545.371933
 21
522.510238
  0
LINE
  8
CSLAYER1
  6
CONTINUOUS
 62
     5
 10
545.371933
 20
522.510238
 11
543.980007
 21
517.542382
  0
ENDBLK
  8
0
  0
BLOCK
  8
CSLAYER1
  2
BLKF0010
 70
   64
 10
0.0
 20
0.0
 30
0.0
  0
LINE
  8
CSLAYER1
  6
CONTINUOUS
 62
     5
 10
597.531927
 20
547.698013
 11
611.508156
 21
546.540060
  0
LINE
  8
CSLAYER1
  6
CONTINUOUS
 62
     5
 10
611.508156
 20
546.540060
 11
624.531927
 21
543.145114
  0
LINE
  8
CSLAYER1
  6
CONTINUOUS
 62
     5
 10
624.531927
 20
543.145114
 11
635.715694
 21
537.744535
  0
LINE
  8
CSLAYER1
  6
CONTINUOUS
 62
     5
 10
635.715694
 20
537.744535
 11
644.297299
 21
530.706363
  0
LINE
  8
CSLAYER1
  6
CONTINUOUS
 62
     5
 10
644.297299
 20
530.706363
 11
649.691922
 21
522.510238
  0
LINE
  8
CSLAYER1
  6
CONTINUOUS
 62
     5
 10
649.691922
 20
522.510238
 11
651.083847
 21
517.542382
  0
ENDBLK
  8
0
  0
BLOCK
  8
CSLAYER1
  2
BLKF0011
 70
   64
 10
0.0
 20
0.0
 30
0.0
  0
LINE
  8
CSLAYER1
  6
CONTINUOUS
 62
     3
 10
2687.468937
 20
1966.205897
 11
2687.468937
 21
2028.205897
  0
LINE
  8
CSLAYER1
  6
CONTINUOUS
 62
     3
 10
2689.968937
 20
1963.705897
 11
2774.968937
 21
1963.705897
  0
LINE
  8
CSLAYER1
  6
CENTER
 62
     5
 10
2629.119298
 20
2036.205897
 11
2687.468937
 21
2036.205897
  0
LINE
  8
CSLAYER1
  6
CONTINUOUS
 62
     2
 10
2689.968937
 20
2020.205897
 11
2774.968937
 21
2020.205897
  0
LINE
  8
CSLAYER1
  6
CONTINUOUS
 62
     3
 10
2689.968937
 20
1968.705897
 11
2689.968937
 21
2013.705897
  0
LINE
  8
CSLAYER1
  6
CONTINUOUS
 62
     3
 10
2777.468937
 20
1966.205897
 11
2777.468937
 21
2036.205897
  0
LINE
  8
CSLAYER1
  6
CONTINUOUS
 62
     3
 10
2692.468937
 20
1966.205897
 11
2769.468937
 21
1966.205897
  0
LINE
  8
CSLAYER1
  6
CONTINUOUS
 62
     3
 10
2692.468937
 20
2016.205897
 11
2769.468937
 21
2016.205897
  0
ARC
  8
CSLAYER1
  6
CONTINUOUS
 62
     3
 10
2715.400755
 20
1991.205897
 40
59.568182
 50
-24.814837
 51
24.814837
  0
ARC
  8
CSLAYER1
  6
CONTINUOUS
 62
     3
 10
2692.468937
 20
1968.705897
 40
2.500000
 50
180.000000
 51
270.000000
  0
ARC
  8
CSLAYER1
  6
CONTINUOUS
 62
     3
 10
2692.468937
 20
2013.705897
 40
2.500000
 50
90.000000
 51
180.000000
  0
ARC
  8
CSLAYER1
  6
CONTINUOUS
 62
     3
 10
2689.968937
 20
1966.205897
 40
2.500000
 50
180.000000
 51
270.000000
  0
ARC
  8
CSLAYER1
  6
CONTINUOUS
 62
     3
 10
2774.968937
 20
1966.205897
 40
2.500000
 50
270.000000
 51
360.000000
  0
ARC
  8
CSLAYER1
  6
CONTINUOUS
 62
     2
 10
2774.968937
 20
2022.705897
 40
2.500000
 50
270.000000
 51
360.000000
  0
ARC
  8
CSLAYER1
  6
CONTINUOUS
 62
     2
 10
2689.968937
 20
2022.705897
 40
2.500000
 50
180.000000
 51
270.000000
  0
LINE
  8
CSLAYER1
  6
CONTINUOUS
 62
     3
 10
2687.468937
 20
2106.205897
 11
2687.468937
 21
2044.205897
  0
LINE
  8
CSLAYER1
  6
CONTINUOUS
 62
     3
 10
2689.968937
 20
2108.705897
 11
2774.968937
 21
2108.705897
  0
LINE
  8
CSLAYER1
  6
CONTINUOUS
 62
     2
 10
2689.968937
 20
2052.205897
 11
2774.968937
 21
2052.205897
  0
LINE
  8
CSLAYER1
  6
CONTINUOUS
 62
     3
 10
2777.468937
 20
2106.205897
 11
2777.468937
 21
2036.205897
  0
ARC
  8
CSLAYER1
  6
CONTINUOUS
 62
     3
 10
2689.968937
 20
2106.205897
 40
2.500000
 50
90.000000
 51
180.000000
  0
ARC
  8
CSLAYER1
  6
CONTINUOUS
 62
     3
 10
2774.968937
 20
2106.205897
 40
2.500000
 50
-0.000000
 51
90.000000
  0
ARC
  8
CSLAYER1
  6
CONTINUOUS
 62
     2
 10
2774.968937
 20
2049.705897
 40
2.500000
 50
-0.000000
 51
90.000000
  0
ARC
  8
CSLAYER1
  6
CONTINUOUS
 62
     2
 10
2689.968937
 20
2049.705897
 40
2.500000
 50
90.000000
 51
180.000000
  0
LINE
  8
CSLAYER1
  6
CONTINUOUS
 62
     3
 10
2689.968937
 20
2103.705897
 11
2689.968937
 21
2058.705897
  0
LINE
  8
CSLAYER1
  6
CONTINUOUS
 62
     3
 10
2692.468937
 20
2106.205897
 11
2769.468937
 21
2106.205897
  0
LINE
  8
CSLAYER1
  6
CONTINUOUS
 62
     3
 10
2692.468937
 20
2056.205897
 11
2769.468937
 21
2056.205897
  0
ARC
  8
CSLAYER1
  6
CONTINUOUS
 62
     3
 10
2715.400755
 20
2081.205897
 40
59.568182
 50
-24.814837
 51
24.814837
  0
ARC
  8
CSLAYER1
  6
CONTINUOUS
 62
     3
 10
2692.468937
 20
2103.705897
 40
2.500000
 50
90.000000
 51
180.000000
  0
ARC
  8
CSLAYER1
  6
CONTINUOUS
 62
     3
 10
2692.468937
 20
2058.705897
 40
2.500000
 50
180.000000
 51
270.000000
  0
LINE
  8
CSLAYER1
  6
CONTINUOUS
 62
     3
 10
2680.468937
 20
2043.205897
 11
2680.468937
 21
2039.705897
  0
LINE
  8
CSLAYER1
  6
CONTINUOUS
 62
     3
 10
2629.119298
 20
2039.705897
 11
2680.468937
 21
2039.705897
  0
LINE
  8
CSLAYER1
  6
CONTINUOUS
 62
     3
 10
2681.468937
 20
2044.205897
 11
2687.468937
 21
2044.205897
  0
LINE
  8
CSLAYER1
  6
CONTINUOUS
 62
     3
 10
2681.468937
 20
2028.205897
 11
2687.468937
 21
2028.205897
  0
LINE
  8
CSLAYER1
  6
CONTINUOUS
 62
     3
 10
2629.119298
 20
2032.705897
 11
2680.468937
 21
2032.705897
  0
ARC
  8
CSLAYER1
  6
CONTINUOUS
 62
     3
 10
2681.468937
 20
2029.205897
 40
1.000000
 50
180.000000
 51
270.000000
  0
ARC
  8
CSLAYER1
  6
CONTINUOUS
 62
     3
 10
2681.468937
 20
2043.205897
 40
1.000000
 50
90.000000
 51
180.000000
  0
LINE
  8
CSLAYER1
  6
CONTINUOUS
 62
     3
 10
2680.468937
 20
2032.705897
 11
2680.468937
 21
2029.205897
  0
LINE
  8
CSLAYER1
  6
CONTINUOUS
 62
     2
 10
2680.468937
 20
2039.705897
 11
2680.468937
 21
2032.705897
  0
LINE
  8
CSLAYER1
  6
CONTINUOUS
 62
     2
 10
2687.468937
 20
2028.205897
 11
2687.468937
 21
2036.205897
  0
LINE
  8
CSLAYER1
  6
CONTINUOUS
 62
     2
 10
2687.468937
 20
2044.205897
 11
2687.468937
 21
2036.205897
  0
LINE
  8
CSLAYER1
  6
CONTINUOUS
 62
     2
 10
2706.961948
 20
2024.043237
 11
2697.826948
 21
2024.043237
  0
LINE
  8
CSLAYER1
  6
CONTINUOUS
 62
     2
 10
2706.961948
 20
2047.668237
 11
2697.826948
 21
2047.668237
  0
LINE
  8
CSLAYER1
  6
CONTINUOUS
 62
     2
 10
2696.566948
 20
2025.303237
 11
2696.566948
 21
2046.408237
  0
LINE
  8
CSLAYER1
  6
CONTINUOUS
 62
     2
 10
2708.221948
 20
2025.303237
 11
2708.221948
 21
2046.408237
  0
LINE
  8
CSLAYER1
  6
CONTINUOUS
 62
     2
 10
2706.331948
 20
2045.778237
 11
2698.299448
 21
2045.778237
  0
LINE
  8
CSLAYER1
  6
CONTINUOUS
 62
     2
 10
2706.331948
 20
2042.628237
 11
2705.386948
 21
2042.628237
  0
LINE
  8
CSLAYER1
  6
CONTINUOUS
 62
     2
 10
2706.331948
 20
2033.965737
 11
2705.386948
 21
2033.965737
  0
LINE
  8
CSLAYER1
  6
CONTINUOUS
 62
     2
 10
2706.331948
 20
2029.398237
 11
2701.291948
 21
2029.398237
  0
LINE
  8
CSLAYER1
  6
CONTINUOUS
 62
     2
 10
2707.434448
 20
2030.500737
 11
2707.434448
 21
2032.863237
  0
LINE
  8
CSLAYER1
  6
CONTINUOUS
 62
     2
 10
2700.189448
 20
2030.500737
 11
2700.189448
 21
2032.863237
  0
LINE
  8
CSLAYER1
  6
CONTINUOUS
 62
     2
 10
2697.196948
 20
2043.730737
 11
2697.196948
 21
2044.675737
  0
LINE
  8
CSLAYER1
  6
CONTINUOUS
 62
     2
 10
2704.441948
 20
2034.910737
 11
2704.441948
 21
2041.683237
  0
LINE
  8
CSLAYER1
  6
CONTINUOUS
 62
     2
 10
2703.654448
 20
2034.910737
 11
2703.654448
 21
2041.683237
  0
ARC
  8
CSLAYER1
  6
CONTINUOUS
 62
     2
 10
2706.331948
 20
2030.500737
 40
1.102500
 50
270.000000
 51
360.000000
  0
ARC
  8
CSLAYER1
  6
CONTINUOUS
 62
     2
 10
2701.291948
 20
2030.500737
 40
1.102500
 50
180.000000
 51
270.000000
  0
ARC
  8
CSLAYER1
  6
CONTINUOUS
 62
     2
 10
2701.291948
 20
2032.863237
 40
1.102500
 50
90.000000
 51
180.000000
  0
ARC
  8
CSLAYER1
  6
CONTINUOUS
 62
     2
 10
2706.331948
 20
2032.863237
 40
1.102500
 50
-0.000000
 51
90.000000
  0
ARC
  8
CSLAYER1
  6
CONTINUOUS
 62
     2
 10
2698.299448
 20
2043.730737
 40
1.102500
 50
180.000000
 51
270.000000
  0
ARC
  8
CSLAYER1
  6
CONTINUOUS
 62
     2
 10
2698.299448
 20
2044.675737
 40
1.102500
 50
90.000000
 51
180.000000
  0
ARC
  8
CSLAYER1
  6
CONTINUOUS
 62
     2
 10
2706.331948
 20
2044.675737
 40
1.102500
 50
-0.000000
 51
90.000000
  0
ARC
  8
CSLAYER1
  6
CONTINUOUS
 62
     2
 10
2706.331948
 20
2043.730737
 40
1.102500
 50
270.000000
 51
360.000000
  0
LINE
  8
CSLAYER1
  6
CONTINUOUS
 62
     2
 10
2702.709448
 20
2033.965737
 11
2701.291948
 21
2033.965737
  0
LINE
  8
CSLAYER1
  6
CONTINUOUS
 62
     2
 10
2702.709448
 20
2042.628237
 11
2698.299448
 21
2042.628237
  0
ARC
  8
CSLAYER1
  6
CONTINUOUS
 62
     2
 10
2705.386948
 20
2034.910737
 40
0.945000
 50
180.000000
 51
270.000000
  0
ARC
  8
CSLAYER1
  6
CONTINUOUS
 62
     2
 10
2702.709448
 20
2034.910737
 40
0.945000
 50
270.000000
 51
360.000000
  0
ARC
  8
CSLAYER1
  6
CONTINUOUS
 62
     2
 10
2702.709448
 20
2041.683237
 40
0.945000
 50
-0.000000
 51
90.000000
  0
ARC
  8
CSLAYER1
  6
CONTINUOUS
 62
     2
 10
2706.961948
 20
2025.303237
 40
1.260000
 50
270.000000
 51
360.000000
  0
ARC
  8
CSLAYER1
  6
CONTINUOUS
 62
     2
 10
2697.826948
 20
2025.303237
 40
1.260000
 50
180.000000
 51
270.000000
  0
ARC
  8
CSLAYER1
  6
CONTINUOUS
 62
     2
 10
2697.826948
 20
2046.408237
 40
1.260000
 50
90.000000
 51
180.000000
  0
ARC
  8
CSLAYER1
  6
CONTINUOUS
 62
     2
 10
2706.961948
 20
2046.408237
 40
1.260000
 50
-0.000000
 51
90.000000
  0
ARC
  8
CSLAYER1
  6
CONTINUOUS
 62
     2
 10
2705.386948
 20
2041.683237
 40
0.945000
 50
90.000000
 51
180.000000
  0
LINE
  8
CSLAYER1
  6
CONTINUOUS
 62
     2
 10
2707.434448
 20
2043.730737
 11
2707.434448
 21
2044.675737
  0
CIRCLE
  8
CSLAYER1
  6
CONTINUOUS
 62
     2
 10
2721.968937
 20
1986.205897
 40
2.500000
  0
CIRCLE
  8
CSLAYER1
  6
CONTINUOUS
 62
     2
 10
2721.968937
 20
1976.205897
 40
2.500000
  0
CIRCLE
  8
CSLAYER1
  6
CONTINUOUS
 62
     2
 10
2731.968937
 20
1976.205897
 40
2.500000
  0
CIRCLE
  8
CSLAYER1
  6
CONTINUOUS
 62
     2
 10
2731.968937
 20
1986.205897
 40
2.500000
  0
CIRCLE
  8
CSLAYER1
  6
CONTINUOUS
 62
     2
 10
2741.968937
 20
1986.205897
 40
2.500000
  0
CIRCLE
  8
CSLAYER1
  6
CONTINUOUS
 62
     2
 10
2741.968937
 20
1976.205897
 40
2.500000
  0
CIRCLE
  8
CSLAYER1
  6
CONTINUOUS
 62
     2
 10
2751.968937
 20
1976.205897
 40
2.500000
  0
CIRCLE
  8
CSLAYER1
  6
CONTINUOUS
 62
     2
 10
2751.968937
 20
1986.205897
 40
2.500000
  0
CIRCLE
  8
CSLAYER1
  6
CONTINUOUS
 62
     2
 10
2761.968937
 20
1986.205897
 40
2.500000
  0
CIRCLE
  8
CSLAYER1
  6
CONTINUOUS
 62
     2
 10
2761.968937
 20
1976.205897
 40
2.500000
  0
CIRCLE
  8
CSLAYER1
  6
CONTINUOUS
 62
     2
 10
2721.968937
 20
1996.205897
 40
2.500000
  0
CIRCLE
  8
CSLAYER1
  6
CONTINUOUS
 62
     2
 10
2721.968937
 20
2006.205897
 40
2.500000
  0
CIRCLE
  8
CSLAYER1
  6
CONTINUOUS
 62
     2
 10
2731.968937
 20
2006.205897
 40
2.500000
  0
CIRCLE
  8
CSLAYER1
  6
CONTINUOUS
 62
     2
 10
2731.968937
 20
1996.205897
 40
2.500000
  0
CIRCLE
  8
CSLAYER1
  6
CONTINUOUS
 62
     2
 10
2741.968937
 20
1996.205897
 40
2.500000
  0
CIRCLE
  8
CSLAYER1
  6
CONTINUOUS
 62
     2
 10
2741.968937
 20
2006.205897
 40
2.500000
  0
CIRCLE
  8
CSLAYER1
  6
CONTINUOUS
 62
     2
 10
2751.968937
 20
2006.205897
 40
2.500000
  0
CIRCLE
  8
CSLAYER1
  6
CONTINUOUS
 62
     2
 10
2751.968937
 20
1996.205897
 40
2.500000
  0
CIRCLE
  8
CSLAYER1
  6
CONTINUOUS
 62
     2
 10
2761.968937
 20
1996.205897
 40
2.500000
  0
CIRCLE
  8
CSLAYER1
  6
CONTINUOUS
 62
     2
 10
2761.968937
 20
2006.205897
 40
2.500000
  0
CIRCLE
  8
CSLAYER1
  6
CONTINUOUS
 62
     2
 10
2721.968937
 20
2086.205897
 40
2.500000
  0
CIRCLE
  8
CSLAYER1
  6
CONTINUOUS
 62
     2
 10
2721.968937
 20
2096.205897
 40
2.500000
  0
CIRCLE
  8
CSLAYER1
  6
CONTINUOUS
 62
     2
 10
2731.968937
 20
2096.205897
 40
2.500000
  0
CIRCLE
  8
CSLAYER1
  6
CONTINUOUS
 62
     2
 10
2731.968937
 20
2086.205897
 40
2.500000
  0
CIRCLE
  8
CSLAYER1
  6
CONTINUOUS
 62
     2
 10
2741.968937
 20
2086.205897
 40
2.500000
  0
CIRCLE
  8
CSLAYER1
  6
CONTINUOUS
 62
     2
 10
2741.968937
 20
2096.205897
 40
2.500000
  0
CIRCLE
  8
CSLAYER1
  6
CONTINUOUS
 62
     2
 10
2751.968937
 20
2096.205897
 40
2.500000
  0
CIRCLE
  8
CSLAYER1
  6
CONTINUOUS
 62
     2
 10
2751.968937
 20
2086.205897
 40
2.500000
  0
CIRCLE
  8
CSLAYER1
  6
CONTINUOUS
 62
     2
 10
2761.968937
 20
2086.205897
 40
2.500000
  0
CIRCLE
  8
CSLAYER1
  6
CONTINUOUS
 62
     2
 10
2761.968937
 20
2096.205897
 40
2.500000
  0
CIRCLE
  8
CSLAYER1
  6
CONTINUOUS
 62
     2
 10
2721.968937
 20
2076.205897
 40
2.500000
  0
CIRCLE
  8
CSLAYER1
  6
CONTINUOUS
 62
     2
 10
2721.968937
 20
2066.205897
 40
2.500000
  0
CIRCLE
  8
CSLAYER1
  6
CONTINUOUS
 62
     2
 10
2731.968937
 20
2066.205897
 40
2.500000
  0
CIRCLE
  8
CSLAYER1
  6
CONTINUOUS
 62
     2
 10
2731.968937
 20
2076.205897
 40
2.500000
  0
CIRCLE
  8
CSLAYER1
  6
CONTINUOUS
 62
     2
 10
2741.968937
 20
2076.205897
 40
2.500000
  0
CIRCLE
  8
CSLAYER1
  6
CONTINUOUS
 62
     2
 10
2741.968937
 20
2066.205897
 40
2.500000
  0
CIRCLE
  8
CSLAYER1
  6
CONTINUOUS
 62
     2
 10
2751.968937
 20
2066.205897
 40
2.500000
  0
CIRCLE
  8
CSLAYER1
  6
CONTINUOUS
 62
     2
 10
2751.968937
 20
2076.205897
 40
2.500000
  0
CIRCLE
  8
CSLAYER1
  6
CONTINUOUS
 62
     2
 10
2761.968937
 20
2076.205897
 40
2.500000
  0
CIRCLE
  8
CSLAYER1
  6
CONTINUOUS
 62
     2
 10
2761.968937
 20
2066.205897
 40
2.500000
  0
LINE
  8
CSLAYER1
  6
CONTINUOUS
 62
     2
 10
2695.968937
 20
2063.705897
 11
2695.968937
 21
2098.705897
  0
LINE
  8
CSLAYER1
  6
CONTINUOUS
 62
     2
 10
2711.968937
 20
2063.705897
 11
2711.968937
 21
2098.705897
  0
LINE
  8
CSLAYER1
  6
CONTINUOUS
 62
     2
 10
2697.468937
 20
2062.205897
 11
2710.468937
 21
2062.205897
  0
LINE
  8
CSLAYER1
  6
CONTINUOUS
 62
     2
 10
2696.968937
 20
2063.705897
 11
2696.968937
 21
2098.705897
  0
LINE
  8
CSLAYER1
  6
CONTINUOUS
 62
     2
 10
2710.968937
 20
2063.705897
 11
2710.968937
 21
2098.705897
  0
LINE
  8
CSLAYER1
  6
CONTINUOUS
 62
     2
 10
2697.468937
 20
2063.205897
 11
2710.468937
 21
2063.205897
  0
LINE
  8
CSLAYER1
  6
CONTINUOUS
 62
     2
 10
2697.468937
 20
2100.205897
 11
2710.468937
 21
2100.205897
  0
LINE
  8
CSLAYER1
  6
CONTINUOUS
 62
     2
 10
2697.468937
 20
2099.205897
 11
2710.468937
 21
2099.205897
  0
ARC
  8
CSLAYER1
  6
CONTINUOUS
 62
     2
 10
2697.468937
 20
2063.705897
 40
0.500000
 50
180.000000
 51
270.000000
  0
ARC
  8
CSLAYER1
  6
CONTINUOUS
 62
     2
 10
2710.468937
 20
2063.705897
 40
0.500000
 50
270.000000
 51
360.000000
  0
ARC
  8
CSLAYER1
  6
CONTINUOUS
 62
     2
 10
2697.468937
 20
2098.705897
 40
0.500000
 50
90.000000
 51
180.000000
  0
ARC
  8
CSLAYER1
  6
CONTINUOUS
 62
     2
 10
2710.468937
 20
2098.705897
 40
0.500000
 50
-0.000000
 51
90.000000
  0
ARC
  8
CSLAYER1
  6
CONTINUOUS
 62
     2
 10
2697.468937
 20
2063.705897
 40
1.500000
 50
180.000000
 51
270.000000
  0
ARC
  8
CSLAYER1
  6
CONTINUOUS
 62
     2
 10
2710.468937
 20
2063.705897
 40
1.500000
 50
270.000000
 51
360.000000
  0
ARC
  8
CSLAYER1
  6
CONTINUOUS
 62
     2
 10
2697.468937
 20
2098.705897
 40
1.500000
 50
90.000000
 51
180.000000
  0
ARC
  8
CSLAYER1
  6
CONTINUOUS
 62
     2
 10
2710.468937
 20
2098.705897
 40
1.500000
 50
-0.000000
 51
90.000000
  0
LINE
  8
CSLAYER1
  6
CONTINUOUS
 62
     2
 10
2700.968937
 20
2072.205897
 11
2700.968937
 21
2090.205897
  0
LINE
  8
CSLAYER1
  6
CONTINUOUS
 62
     2
 10
2697.890865
 20
2081.205897
 11
2700.968937
 21
2090.205897
  0
LINE
  8
CSLAYER1
  6
CONTINUOUS
 62
     2
 10
2697.890865
 20
2081.205897
 11
2700.968937
 21
2072.205897
  0
TEXT
  8
CSLAYER1
 62
     2
 10
2709.262519
 20
2072.225898
 40
7.066058
 41
1.574983
  1
UP
 50
89.999985
 51
0.000000
  7
EASYDRAW_FONT
 72
     5
 11
2709.262524
 21
2090.774100
  0
LINE
  8
CSLAYER1
  6
CONTINUOUS
 62
     2
 10
2695.968937
 20
2008.705897
 11
2695.968937
 21
1973.705897
  0
LINE
  8
CSLAYER1
  6
CONTINUOUS
 62
     2
 10
2711.968937
 20
2008.705897
 11
2711.968937
 21
1973.705897
  0
LINE
  8
CSLAYER1
  6
CONTINUOUS
 62
     2
 10
2697.468937
 20
2010.205897
 11
2710.468937
 21
2010.205897
  0
LINE
  8
CSLAYER1
  6
CONTINUOUS
 62
     2
 10
2696.968937
 20
2008.705897
 11
2696.968937
 21
1973.705897
  0
LINE
  8
CSLAYER1
  6
CONTINUOUS
 62
     2
 10
2710.968937
 20
2008.705897
 11
2710.968937
 21
1973.705897
  0
LINE
  8
CSLAYER1
  6
CONTINUOUS
 62
     2
 10
2697.468937
 20
2009.205897
 11
2710.468937
 21
2009.205897
  0
LINE
  8
CSLAYER1
  6
CONTINUOUS
 62
     2
 10
2697.468937
 20
1972.205897
 11
2710.468937
 21
1972.205897
  0
LINE
  8
CSLAYER1
  6
CONTINUOUS
 62
     2
 10
2697.468937
 20
1973.205897
 11
2710.468937
 21
1973.205897
  0
ARC
  8
CSLAYER1
  6
CONTINUOUS
 62
     2
 10
2697.468937
 20
2008.705897
 40
0.500000
 50
90.000000
 51
180.000000
  0
ARC
  8
CSLAYER1
  6
CONTINUOUS
 62
     2
 10
2710.468937
 20
2008.705897
 40
0.500000
 50
-0.000000
 51
90.000000
  0
ARC
  8
CSLAYER1
  6
CONTINUOUS
 62
     2
 10
2697.468937
 20
1973.705897
 40
0.500000
 50
180.000000
 51
270.000000
  0
ARC
  8
CSLAYER1
  6
CONTINUOUS
 62
     2
 10
2710.468937
 20
1973.705897
 40
0.500000
 50
270.000000
 51
360.000000
  0
ARC
  8
CSLAYER1
  6
CONTINUOUS
 62
     2
 10
2697.468937
 20
2008.705897
 40
1.500000
 50
90.000000
 51
180.000000
  0
ARC
  8
CSLAYER1
  6
CONTINUOUS
 62
     2
 10
2710.468937
 20
2008.705897
 40
1.500000
 50
-0.000000
 51
90.000000
  0
ARC
  8
CSLAYER1
  6
CONTINUOUS
 62
     2
 10
2697.468937
 20
1973.705897
 40
1.500000
 50
180.000000
 51
270.000000
  0
ARC
  8
CSLAYER1
  6
CONTINUOUS
 62
     2
 10
2710.468937
 20
1973.705897
 40
1.500000
 50
270.000000
 51
360.000000
  0
LINE
  8
CSLAYER1
  6
CONTINUOUS
 62
     2
 10
2706.441867
 20
2000.205897
 11
2706.441867
 21
1982.205897
  0
LINE
  8
CSLAYER1
  6
CONTINUOUS
 62
     2
 10
2709.519939
 20
1991.205897
 11
2706.441867
 21
1982.205897
  0
LINE
  8
CSLAYER1
  6
CONTINUOUS
 62
     2
 10
2709.519939
 20
1991.205897
 11
2706.441867
 21
2000.205897
  0
TEXT
  8
CSLAYER1
 62
     2
 10
2704.831676
 20
1976.508085
 40
6.383575
 41
1.255870
  1
DOWN
 50
89.999985
 51
0.000000
  7
EASYDRAW_FONT
 72
     5
 11
2704.831684
 21
2005.903534
  0
ENDBLK
  8
0
  0
ENDSEC
  0
SECTION
  2
ENTITIES
  0
LINE
  8
CSLAYER1
  6
CONTINUOUS
 62
     3
 10
118.051807
 20
2400.454119
 11
118.051807
 21
51.907189
  0
LINE
  8
CSLAYER1
  6
CONTINUOUS
 62
     3
 10
3440.625117
 20
2400.454119
 11
118.051807
 21
2400.454119
  0
LINE
  8
CSLAYER1
  6
CONTINUOUS
 62
     3
 10
3440.625117
 20
2400.454119
 11
3440.625117
 21
51.907189
  0
LINE
  8
CSLAYER1
  6
CONTINUOUS
 62
     3
 10
3440.625117
 20
51.907189
 11
118.051807
 21
51.907189
  0
LINE
  8
CSLAYER1
  6
CONTINUOUS
 62
     5
 10
68.051807
 20
1211.907189
 11
18.051807
 21
1211.907189
  0
LINE
  8
CSLAYER1
  6
CONTINUOUS
 62
     5
 10
2640.625117
 20
491.907189
 11
3440.625117
 21
491.907189
  0
LINE
  8
CSLAYER1
  6
CONTINUOUS
 62
     5
 10
2640.625117
 20
131.907189
 11
3440.625117
 21
131.907189
  0
LINE
  8
CSLAYER1
  6
CONTINUOUS
 62
     5
 10
2640.625117
 20
291.907189
 11
3440.625117
 21
291.907189
  0
LINE
  8
CSLAYER1
  6
CONTINUOUS
 62
     5
 10
2640.625117
 20
351.907189
 11
3440.625117
 21
351.907189
  0
LINE
  8
CSLAYER1
  6
CONTINUOUS
 62
     5
 10
2640.625117
 20
411.907189
 11
3440.625117
 21
411.907189
  0
LINE
  8
CSLAYER1
  6
CONTINUOUS
 62
     5
 10
2640.625117
 20
571.907189
 11
3440.625117
 21
571.907189
  0
LINE
  8
CSLAYER1
  6
CONTINUOUS
 62
     5
 10
2640.625117
 20
651.907189
 11
2640.625117
 21
51.907189
  0
LINE
  8
CSLAYER1
  6
CONTINUOUS
 62
     5
 10
2840.625117
 20
651.907189
 11
2840.625117
 21
411.907189
  0
LINE
  8
CSLAYER1
  6
CONTINUOUS
 62
     5
 10
2640.625117
 20
651.907189
 11
3440.625117
 21
651.907189
  0
LINE
  8
CSLAYER1
  6
CONTINUOUS
 62
     5
 10
3140.625117
 20
411.907189
 11
3140.625117
 21
131.907189
  0
TEXT
  8
CSLAYER1
 62
     3
 10
2860.316219
 20
60.469913
 40
59.380363
 41
1.003345
  1
東正車輌株式会社
 50
0.000000
 51
0.000000
  7
EASYDRAW_FONT
 72
     5
 11
3317.088566
 21
60.469913
  0
LINE
  8
CSLAYER1
  6
CONTINUOUS
 62
     5
 10
2890.625117
 20
351.907189
 11
2890.625117
 21
131.907189
  0
TEXT
  8
CSLAYER1
 62
     5
 10
2670.625000
 20
586.907166
 40
50.000000
 41
1.050000
  1
品　名
 50
0.000000
 51
0.000000
  7
EASYDRAW_FONT
 72
     5
 11
2810.625000
 21
586.907166
  0
TEXT
  8
CSLAYER1
 62
     5
 10
2670.625000
 20
506.907166
 40
50.000000
 41
1.050000
  1
型　式
 50
0.000000
 51
0.000000
  7
EASYDRAW_FONT
 72
     5
 11
2810.625000
 21
506.907166
  0
TEXT
  8
CSLAYER1
 62
     5
 10
2645.625000
 20
426.907196
 40
50.000000
 41
1.036364
  1
図面番号
 50
0.000000
 51
0.000000
  7
EASYDRAW_FONT
 72
     5
 11
2835.625000
 21
426.907196
  0
TEXT
  8
CSLAYER1
 62
     5
 10
2690.625000
 20
356.907196
 40
50.000000
 41
0.827586
  1
平成２８年４月１６日
 50
0.000000
 51
0.000000
  7
EASYDRAW_FONT
 72
     5
 11
3090.625000
 21
356.907196
  0
TEXT
  8
CSLAYER1
 62
     5
 10
3220.625000
 20
356.907196
 40
50.000000
 41
1.050000
  1
Ｂ－４
 50
0.000000
 51
0.000000
  7
EASYDRAW_FONT
 72
     5
 11
3360.625000
 21
356.907196
  0
TEXT
  8
CSLAYER1
 62
     5
 10
2695.625000
 20
296.907196
 40
50.000000
 41
1.050000
  1
検　図
 50
0.000000
 51
0.000000
  7
EASYDRAW_FONT
 72
     5
 11
2835.625000
 21
296.907196
  0
TEXT
  8
CSLAYER1
 62
     5
 10
2945.625000
 20
296.907196
 40
50.000000
 41
1.050000
  1
作　図
 50
0.000000
 51
0.000000
  7
EASYDRAW_FONT
 72
     5
 11
3085.625000
 21
296.907196
  0
TEXT
  8
CSLAYER1
 62
     5
 10
3220.625000
 20
296.907196
 40
50.000000
 41
1.050000
  1
尺　度
 50
0.000000
 51
0.000000
  7
EASYDRAW_FONT
 72
     5
 11
3360.625000
 21
296.907196
  0
TEXT
  8
CSLAYER1
 62
     5
 10
3321.363770
 20
146.392456
 40
50.000000
 41
1.080000
  1
１０
 50
0.000000
 51
0.000000
  7
EASYDRAW_FONT
 72
     5
 11
3411.363770
 21
146.392456
  0
TEXT
  8
CSLAYER1
 62
     5
 10
3301.044189
 20
194.097153
 40
50.000000
 41
1.200000
  1
／
 50
0.000000
 51
0.000000
  7
EASYDRAW_FONT
 72
     5
 11
3341.044189
 21
194.097153
  0
TEXT
  8
CSLAYER1
 62
     5
 10
3270.831299
 20
229.080597
 40
50.000000
 41
1.200000
  1
１
 50
0.000000
 51
0.000000
  7
EASYDRAW_FONT
 72
     5
 11
3310.831299
 21
229.080597
  0
TEXT
  8
CSLAYER1
 62
     3
 10
2980.625000
 20
586.907166
 40
50.000000
 41
0.834783
  1
ゴールドリフター
 50
0.000000
 51
0.000000
  7
EASYDRAW_FONT
 72
     5
 11
3300.625000
 21
586.907166
  0
TEXT
  8
CSLAYER1
 62
     3
 10
2880.625000
 20
506.907166
 40
50.000000
 41
0.821053
  1
ＧＬＩ－１０００－０８１２
 50
0.000000
 51
0.000000
  7
EASYDRAW_FONT
 72
     5
 11
3400.625000
 21
506.907166
  0
TEXT
  8
CSLAYER1
 62
     3
 10
3040.625000
 20
426.907196
 40
50.000000
 41
0.857143
  1
GI-35
 50
0.000000
 51
0.000000
  7
EASYDRAW_FONT
 72
     5
 11
3240.625000
 21
426.907196
  0
INSERT
  8
CSLAYER1
  2
BLKF0000
 10
0.0
 20
0.0
 30
0.0
  0
LINE
  8
CSLAYER1
  6
CONTINUOUS
 62
     3
 10
1128.705884
 20
2254.612195
 11
2328.705884
 21
2254.612195
  0
LINE
  8
CSLAYER1
  6
CONTINUOUS
 62
     3
 10
1128.705884
 20
1454.612195
 11
2328.705884
 21
1454.612195
  0
LINE
  8
CSLAYER1
  6
CONTINUOUS
 62
     3
 10
1128.705884
 20
1286.373750
 11
1128.705884
 21
1233.373750
  0
LINE
  8
CSLAYER1
  6
CONTINUOUS
 62
     3
 10
1131.905884
 20
1233.373750
 11
1131.905884
 21
1183.173750
  0
LINE
  8
CSLAYER1
  6
CONTINUOUS
 62
     3
 10
1140.705884
 20
1233.373750
 11
1140.705884
 21
1068.173750
  0
LINE
  8
CSLAYER1
  6
CONTINUOUS
 62
     3
 10
1128.705884
 20
1286.373750
 11
2328.705884
 21
1286.373750
  0
LINE
  8
CSLAYER1
  6
CONTINUOUS
 62
     3
 10
1190.705884
 20
1233.373750
 11
1190.705884
 21
1083.173750
  0
ARC
  8
CSLAYER1
  6
CONTINUOUS
 62
     3
 10
1175.705884
 20
1083.173750
 40
15.000000
 50
270.000000
 51
360.000000
  0
LINE
  8
CSLAYER1
  6
CONTINUOUS
 62
     3
 10
1140.705884
 20
1068.173750
 11
1175.705884
 21
1068.173750
  0
LINE
  8
CSLAYER1
  6
CONTINUOUS
 62
     5
 10
1152.705884
 20
1087.173750
 11
1190.705884
 21
1087.173750
  0
LINE
  8
CSLAYER1
  6
CONTINUOUS
 62
     5
 10
1170.705884
 20
1103.945449
 11
1170.705884
 21
1068.173750
  0
LINE
  8
CSLAYER1
  6
CONTINUOUS
 62
     3
 10
2328.705884
 20
1286.373750
 11
2328.705884
 21
1233.373750
  0
LINE
  8
CSLAYER1
  6
CONTINUOUS
 62
     3
 10
2325.505884
 20
1136.173750
 11
2325.505884
 21
1233.373750
  0
LINE
  8
CSLAYER1
  6
CONTINUOUS
 62
     3
 10
2328.705884
 20
1233.373750
 11
1128.705884
 21
1233.373750
  0
LINE
  8
CSLAYER1
  6
CONTINUOUS
 62
     3
 10
2313.505884
 20
1111.173750
 11
2313.505884
 21
1133.173750
  0
LINE
  8
CSLAYER1
  6
CONTINUOUS
 62
     3
 10
1288.505884
 20
1133.173750
 11
2322.505884
 21
1133.173750
  0
LINE
  8
CSLAYER1
  6
CONTINUOUS
 62
     3
 10
1866.505884
 20
1108.173750
 11
2310.505884
 21
1108.173750
  0
LINE
  8
CSLAYER1
  6
CONTINUOUS
 62
     3
 10
1863.505884
 20
1111.173750
 11
1863.505884
 21
1133.173750
  0
LINE
  8
CSLAYER1
  6
CONTINUOUS
 62
     3
 10
1863.505884
 20
1111.173750
 11
1866.505884
 21
1108.173750
  0
LINE
  8
CSLAYER1
  6
CONTINUOUS
 62
     3
 10
2310.505884
 20
1108.173750
 11
2313.505884
 21
1111.173750
  0
LINE
  8
CSLAYER1
  6
CONTINUOUS
 62
     3
 10
2322.505884
 20
1133.173750
 11
2325.505884
 21
1136.173750
  0
ARC
  8
CSLAYER1
  6
CONTINUOUS
 62
     3
 10
1962.185074
 20
1092.177738
 40
17.000000
 50
-33.130284
 51
45.490000
  0
CIRCLE
  8
CSLAYER1
  6
CONTINUOUS
 62
     3
 10
1955.863676
 20
1087.173747
 40
21.000000
  0
LINE
  8
CSLAYER1
  6
CONTINUOUS
 62
     3
 10
1511.118017
 20
706.653603
 11
1501.376111
 21
725.122368
  0
LINE
  8
CSLAYER1
  6
CONTINUOUS
 62
     3
 10
1581.221389
 20
635.340792
 11
1472.873752
 21
745.557664
  0
CIRCLE
  8
CSLAYER1
  6
CONTINUOUS
 62
     5
 10
1563.284780
 20
687.822009
 40
15.000000
  0
CIRCLE
  8
CSLAYER1
  6
CONTINUOUS
 62
     3
 10
1563.284780
 20
687.822009
 40
21.350000
  0
LINE
  8
CSLAYER1
  6
CONTINUOUS
 62
     3
 10
1128.705884
 20
326.470271
 11
1128.705884
 21
261.470271
  0
LINE
  8
CSLAYER1
  6
CONTINUOUS
 62
     3
 10
2328.705884
 20
326.470271
 11
2328.705884
 21
261.470271
  0
LINE
  8
CSLAYER1
  6
CONTINUOUS
 62
     3
 10
1128.705884
 20
326.470271
 11
2328.705884
 21
326.470271
  0
LINE
  8
CSLAYER1
  6
CONTINUOUS
 62
     5
 10
1150.705884
 20
288.470271
 11
1190.705884
 21
288.470271
  0
LINE
  8
CSLAYER1
  6
CONTINUOUS
 62
     5
 10
1170.705884
 20
308.470271
 11
1170.705884
 21
268.470271
  0
LINE
  8
CSLAYER1
  6
CONTINUOUS
 62
     5
 10
1511.980764
 20
687.822009
 11
1617.436447
 21
687.822009
  0
LINE
  8
CSLAYER1
  6
CONTINUOUS
 62
     5
 10
1563.284782
 20
731.770931
 11
1563.284782
 21
635.340792
  0
LINE
  8
CSLAYER1
  6
CONTINUOUS
 62
     3
 10
1733.249467
 20
1133.173750
 11
1665.428786
 21
1064.183014
  0
LINE
  8
CSLAYER1
  6
CONTINUOUS
 62
     3
 10
1545.348171
 20
635.340797
 11
1527.048728
 21
625.284437
  0
LINE
  8
CSLAYER1
  6
CONTINUOUS
 62
     3
 10
1563.284778
 20
653.586849
 11
1545.348171
 21
635.340797
  0
LINE
  8
CSLAYER1
  6
CONTINUOUS
 62
     3
 10
1607.456365
 20
765.564344
 11
1710.971519
 21
870.865361
  0
ARC
  8
CSLAYER1
  6
CONTINUOUS
 62
     3
 10
1694.873082
 20
928.665364
 40
60.000000
 50
285.563565
 51
315.490000
  0
LINE
  8
CSLAYER1
  6
CONTINUOUS
 62
     3
 10
1737.660768
 20
886.603339
 11
1889.084056
 21
1040.639010
  0
LINE
  8
CSLAYER1
  6
CONTINUOUS
 62
     3
 10
1889.084056
 20
1040.639010
 11
1952.611584
 21
1066.427087
  0
ARC
  8
CSLAYER1
  6
CONTINUOUS
 62
     3
 10
1694.873082
 20
928.665364
 40
32.500000
 50
148.247532
 51
328.247532
  0
LINE
  8
CSLAYER1
  6
CONTINUOUS
 62
     3
 10
1859.659369
 20
1133.173750
 11
1722.508792
 21
911.562221
  0
CIRCLE
  8
CSLAYER1
  6
CONTINUOUS
 62
     5
 10
1955.863677
 20
1087.173752
 40
10.100000
  0
CIRCLE
  8
CSLAYER1
  6
CONTINUOUS
 62
     3
 10
1359.259336
 20
565.864573
 40
14.100000
  0
LINE
  8
CSLAYER1
  6
CONTINUOUS
 62
     3
 10
1179.601188
 20
405.930368
 11
1161.080508
 21
326.470271
  0
LINE
  8
CSLAYER1
  6
CONTINUOUS
 62
     3
 10
1233.302326
 20
326.470271
 11
1527.048721
 21
625.284433
  0
LINE
  8
CSLAYER1
  6
CONTINUOUS
 62
     3
 10
1783.218418
 20
1133.173750
 11
1667.237371
 21
945.768507
  0
LINE
  8
CSLAYER1
  6
CONTINUOUS
 62
     3
 10
1974.102648
 20
1104.300921
 11
1970.163005
 21
1108.173750
  0
LINE
  8
CSLAYER1
  6
CONTINUOUS
 62
     3
 10
1179.601188
 20
405.930368
 11
1452.145057
 21
775.202767
  0
LINE
  8
CSLAYER1
  6
CONTINUOUS
 62
     3
 10
1514.683930
 20
859.937308
 11
1665.428786
 21
1064.183014
  0
LINE
  8
CSLAYER1
  6
CONTINUOUS
 62
     3
 10
1131.905884
 20
1183.173750
 11
1140.705884
 21
1183.173750
  0
LINE
  8
CSLAYER1
  6
CONTINUOUS
 62
     5
 10
1954.169438
 20
364.369908
 11
1700.044707
 21
622.878846
  0
ARC
  8
CSLAYER1
  6
CONTINUOUS
 62
     5
 10
1676.868044
 20
600.095250
 40
32.500000
 50
44.510000
 51
224.510000
  0
LINE
  8
CSLAYER1
  6
CONTINUOUS
 62
     3
 10
1954.169438
 20
364.369908
 11
1963.990967
 21
326.470271
  0
LINE
  8
CSLAYER1
  6
CONTINUOUS
 62
     5
 10
1900.278593
 20
326.470271
 11
1653.691380
 21
577.311653
  0
LINE
  8
CSLAYER1
  6
CONTINUOUS
 62
     3
 10
1893.267224
 20
326.470271
 11
1599.520839
 21
625.284428
  0
LINE
  8
CSLAYER1
  6
CONTINUOUS
 62
     3
 10
1940.078976
 20
427.203260
 11
1965.003938
 21
326.470271
  0
LINE
  8
CSLAYER1
  6
CONTINUOUS
 62
     3
 10
1940.078976
 20
427.203260
 11
1309.148615
 21
1069.018560
  0
LINE
  8
CSLAYER1
  6
CONTINUOUS
 62
     3
 10
1501.376106
 20
725.122374
 11
1164.142748
 21
1068.173750
  0
LINE
  8
CSLAYER1
  6
CONTINUOUS
 62
     3
 10
1581.221389
 20
635.340792
 11
1599.520832
 21
625.284432
  0
LINE
  8
CSLAYER1
  6
CONTINUOUS
 62
     3
 10
1309.148615
 20
1069.018560
 11
1190.705884
 21
1100.484803
  0
LINE
  8
CSLAYER1
  6
CONTINUOUS
 62
     3
 10
1396.759178
 20
978.704950
 11
1397.354876
 21
979.290546
  0
LINE
  8
CSLAYER1
  6
CONTINUOUS
 62
     3
 10
1213.505884
 20
1208.173750
 11
1213.505884
 21
1233.373750
  0
LINE
  8
CSLAYER1
  6
CONTINUOUS
 62
     3
 10
1213.505884
 20
1208.173750
 11
1288.505884
 21
1133.173750
  0
CIRCLE
  8
CSLAYER1
  6
CONTINUOUS
 62
     3
 10
1170.705887
 20
1087.173751
 40
8.000000
  0
LINE
  8
CSLAYER1
  6
CONTINUOUS
 62
     3
 10
1675.803391
 20
910.522167
 11
1840.449992
 21
1114.646049
  0
LINE
  8
CSLAYER1
  6
CONTINUOUS
 62
     3
 10
1295.731587
 20
574.709088
 11
1303.893287
 21
584.827717
  0
LINE
  8
CSLAYER1
  6
CONTINUOUS
 62
     5
 10
1129.560388
 20
379.844693
 11
1166.564233
 21
349.997341
  0
LINE
  8
CSLAYER1
  6
CONTINUOUS
 62
     5
 10
1165.346303
 20
424.210989
 11
1182.739091
 21
410.181943
  0
LINE
  8
CSLAYER1
  6
CONTINUOUS
 62
     5
 10
1252.914776
 20
529.590126
 11
1264.169146
 21
520.512336
  0
LINE
  8
CSLAYER1
  6
CONTINUOUS
 62
     3
 10
1298.055617
 20
589.536390
 11
1303.893287
 21
584.827717
  0
LINE
  8
CSLAYER1
  6
CONTINUOUS
 62
     3
 10
1129.560388
 20
379.844693
 11
1165.346303
 21
424.210989
  0
LINE
  8
CSLAYER1
  6
CONTINUOUS
 62
     3
 10
1166.903015
 20
422.955343
 11
1257.937361
 21
535.816975
  0
LINE
  8
CSLAYER1
  6
CONTINUOUS
 62
     3
 10
1265.746613
 20
535.941817
 11
1296.509943
 21
574.081265
  0
LINE
  8
CSLAYER1
  6
CONTINUOUS
 62
     3
 10
1129.560388
 20
379.844693
 11
1138.548213
 21
362.317029
  0
LINE
  8
CSLAYER1
  6
CONTINUOUS
 62
     3
 10
1164.547717
 20
341.345793
 11
1138.548213
 21
362.317029
  0
LINE
  8
CSLAYER1
  6
CONTINUOUS
 62
     3
 10
1261.862457
 20
346.360928
 11
1256.838919
 21
350.412921
  0
LINE
  8
CSLAYER1
  6
CONTINUOUS
 62
     3
 10
1245.818626
 20
326.470271
 11
1261.862457
 21
346.360928
  0
LINE
  8
CSLAYER1
  6
CONTINUOUS
 62
     3
 10
1260.305745
 20
347.616574
 11
1288.721397
 21
382.845441
  0
LINE
  8
CSLAYER1
  6
CONTINUOUS
 62
     3
 10
1295.731587
 20
574.709088
 11
1296.509943
 21
574.081265
  0
LINE
  8
CSLAYER1
  6
CONTINUOUS
 62
     5
 10
1275.163959
 20
547.617158
 11
1280.811786
 21
543.061613
  0
LINE
  8
CSLAYER1
  6
CONTINUOUS
 62
     3
 10
1686.350116
 20
902.015164
 11
1663.410879
 21
920.517984
  0
LINE
  8
CSLAYER1
  6
CONTINUOUS
 62
     5
 10
1260.749719
 20
536.118041
 11
1270.112946
 21
528.565649
  0
ARC
  8
CSLAYER1
  6
CONTINUOUS
 62
     3
 10
1263.411544
 20
537.825286
 40
3.000000
 50
231.110305
 51
321.110305
  0
LINE
  8
CSLAYER1
  6
CONTINUOUS
 62
     5
 10
1173.129864
 20
417.932759
 11
1259.141625
 21
524.567542
  0
LINE
  8
CSLAYER1
  6
CONTINUOUS
 62
     5
 10
1171.573152
 20
419.188405
 11
1257.584913
 21
525.823188
  0
ARC
  8
CSLAYER1
  6
CONTINUOUS
 62
     3
 10
1259.494073
 20
534.561329
 40
2.000000
 50
51.110305
 51
141.110305
  0
LINE
  8
CSLAYER1
  6
CONTINUOUS
 62
     3
 10
1323.168539
 20
620.670633
 11
1330.199045
 21
614.999818
  0
LINE
  8
CSLAYER1
  6
CONTINUOUS
 62
     5
 10
1296.773074
 20
573.869024
 11
1301.020705
 21
570.442879
  0
LINE
  8
CSLAYER1
  6
CONTINUOUS
 62
     1
 10
1330.199045
 20
614.999818
 11
1332.522843
 21
613.125439
  0
LINE
  8
CSLAYER1
  6
CONTINUOUS
 62
     3
 10
1334.434751
 20
618.649467
 11
1335.791933
 21
617.554762
  0
LINE
  8
CSLAYER1
  6
CONTINUOUS
 62
     5
 10
1295.517428
 20
572.312311
 11
1299.831945
 21
568.832216
  0
LINE
  8
CSLAYER1
  6
CONTINUOUS
 62
     5
 10
1295.517428
 20
572.312311
 11
1296.773074
 21
573.869024
  0
LINE
  8
CSLAYER1
  6
CONTINUOUS
 62
     5
 10
1292.370605
 20
566.499609
 11
1295.968475
 21
563.597562
  0
LINE
  8
CSLAYER1
  6
CONTINUOUS
 62
     3
 10
1333.287585
 20
618.828896
 11
1330.199045
 21
614.999818
  0
LINE
  8
CSLAYER1
  6
CONTINUOUS
 62
     5
 10
1292.370605
 20
566.499609
 11
1291.952413
 21
567.582799
  0
LINE
  8
CSLAYER1
  6
CONTINUOUS
 62
     3
 10
1334.434751
 20
618.649467
 11
1333.287585
 21
618.828896
  0
LINE
  8
CSLAYER1
  6
CONTINUOUS
 62
     5
 10
1295.668776
 20
572.190233
 11
1291.952413
 21
567.582799
  0
ARC
  8
CSLAYER1
  6
CONTINUOUS
 62
     5
 10
1295.106422
 20
568.504322
 40
3.285875
 50
206.423810
 51
266.074688
  0
ARC
  8
CSLAYER1
  6
CONTINUOUS
 62
     3
 10
1333.074983
 20
615.576597
 40
3.259241
 50
35.493498
 51
76.676204
  0
ARC
  8
CSLAYER1
  6
CONTINUOUS
 62
     5
 10
1305.227133
 20
572.085508
 40
12.419443
 50
213.522351
 51
222.386021
  0
LINE
  8
CSLAYER1
  6
CONTINUOUS
 62
     5
 10
1298.589773
 20
569.834154
 11
1294.873410
 21
565.226719
  0
LINE
  8
CSLAYER1
  6
CONTINUOUS
 62
     5
 10
1292.663964
 20
561.766329
 11
1293.888145
 21
560.778903
  0
LINE
  8
CSLAYER1
  6
CONTINUOUS
 62
     5
 10
1292.558590
 20
562.750654
 11
1294.316495
 21
564.930051
  0
LINE
  8
CSLAYER1
  6
CONTINUOUS
 62
     5
 10
1292.663964
 20
561.766329
 11
1294.861344
 21
564.490575
  0
LINE
  8
CSLAYER1
  6
CONTINUOUS
 62
     5
 10
1292.558590
 20
562.750654
 11
1292.663964
 21
561.766329
  0
LINE
  8
CSLAYER1
  6
CONTINUOUS
 62
     5
 10
1292.558590
 20
562.750654
 11
1294.304211
 21
561.342635
  0
LINE
  8
CSLAYER1
  6
CONTINUOUS
 62
     3
 10
1298.055617
 20
589.536390
 11
1323.168539
 21
620.670633
  0
LINE
  8
CSLAYER1
  6
CONTINUOUS
 62
     3
 10
1686.350116
 20
902.015164
 11
1686.500649
 21
900.608985
  0
LINE
  8
CSLAYER1
  6
CONTINUOUS
 62
     5
 10
1663.892303
 20
918.844908
 11
1686.500649
 21
900.608985
  0
LINE
  8
CSLAYER1
  6
CONTINUOUS
 62
     3
 10
1684.333230
 20
897.921884
 11
1686.500649
 21
900.608985
  0
ARC
  8
CSLAYER1
  6
CONTINUOUS
 62
     3
 10
1592.531558
 20
707.928774
 40
124.983369
 50
14.717843
 51
59.265674
  0
LINE
  8
CSLAYER1
  6
CONTINUOUS
 62
     3
 10
1742.773334
 20
627.912859
 11
1713.414057
 21
739.681944
  0
LINE
  8
CSLAYER1
  6
CONTINUOUS
 62
     3
 10
1564.195060
 20
652.659590
 11
1511.118679
 21
706.655430
  0
ARC
  8
CSLAYER1
  6
CONTINUOUS
 62
     3
 10
1484.999958
 20
757.477382
 40
17.000000
 50
174.828213
 51
224.507998
  0
LINE
  8
CSLAYER1
  6
CONTINUOUS
 62
     5
 10
1335.159333
 20
565.864570
 11
1383.359333
 21
565.864570
  0
LINE
  8
CSLAYER1
  6
CONTINUOUS
 62
     5
 10
1359.259333
 20
589.964570
 11
1359.259333
 21
541.764570
  0
LINE
  8
CSLAYER1
  6
CONTINUOUS
 62
     5
 10
1955.863672
 20
308.470271
 11
1955.863672
 21
268.470271
  0
LINE
  8
CSLAYER1
  6
CONTINUOUS
 62
     5
 10
1935.863672
 20
288.470271
 11
1975.863672
 21
288.470271
  0
TEXT
  8
CSLAYER1
 62
     5
 10
2973.172607
 20
2044.865234
 40
40.000000
 41
1.020000
  1
ＵＰ・ＤＯＷＮ
 50
360.000000
 51
0.000000
  7
EASYDRAW_FONT
 72
     5
 11
3245.172607
 21
2044.865234
  0
TEXT
  8
CSLAYER1
 62
     5
 10
2975.983154
 20
2096.859375
 40
40.000000
 41
1.020000
  1
フットスイッチ
 50
360.000000
 51
0.000000
  7
EASYDRAW_FONT
 72
     5
 11
3247.983154
 21
2096.859375
  0
TEXT
  8
CSLAYER1
 62
     5
 10
2945.571045
 20
2249.903809
 40
40.000000
 41
1.028571
  1
電源コード
 50
360.000000
 51
0.000000
  7
EASYDRAW_FONT
 72
     5
 11
3137.571045
 21
2249.903809
  0
TEXT
  8
CSLAYER1
 62
     5
 10
2966.058594
 20
2200.641113
 40
40.000000
 41
1.036364
  1
長サ４ｍ
 50
360.000000
 51
0.000000
  7
EASYDRAW_FONT
 72
     5
 11
3118.058594
 21
2200.641113
  0
LINE
  8
CSLAYER1
  6
PHANTOM
 62
     5
 10
2328.705884
 20
491.470271
 11
2328.705884
 21
438.470271
  0
LINE
  8
CSLAYER1
  6
PHANTOM
 62
     5
 10
1128.705884
 20
491.470271
 11
2328.705884
 21
491.470271
  0
LINE
  8
CSLAYER1
  6
PHANTOM
 62
     5
 10
1128.705884
 20
438.470271
 11
2328.705884
 21
438.470271
  0
LINE
  8
CSLAYER1
  6
PHANTOM
 62
     5
 10
1128.705884
 20
491.470271
 11
1128.705884
 21
438.470271
  0
LINE
  8
CSLAYER1
  6
PHANTOM
 62
     5
 10
2325.505884
 20
341.270271
 11
2325.505884
 21
438.470271
  0
LINE
  8
CSLAYER1
  6
PHANTOM
 62
     5
 10
2313.505884
 20
326.470271
 11
2313.505884
 21
438.470271
  0
LINE
  8
CSLAYER1
  6
PHANTOM
 62
     5
 10
1288.505884
 20
338.270271
 11
2322.505884
 21
338.270271
  0
LINE
  8
CSLAYER1
  6
PHANTOM
 62
     5
 10
1213.505884
 20
413.270271
 11
1288.505884
 21
338.270271
  0
LINE
  8
CSLAYER1
  6
PHANTOM
 62
     5
 10
1213.505884
 20
413.270271
 11
1213.505884
 21
438.470271
  0
LINE
  8
CSLAYER1
  6
PHANTOM
 62
     5
 10
2322.505884
 20
338.270271
 11
2325.505884
 21
341.270271
  0
LINE
  8
CSLAYER1
  6
CONTINUOUS
 62
     5
 10
1288.505884
 20
338.270271
 11
1305.717401
 21
338.270271
  0
LINE
  8
CSLAYER1
  6
CONTINUOUS
 62
     3
 10
163.692364
 20
261.470271
 11
2585.200249
 21
261.470271
  0
DIMENSION
  8
CSLAYER1
 62
     7
  2
*D0000
 10
2428.705884
 20
491.470271
 11
2418.705811
 21
376.470337
 13
2324.768598
 23
261.470271
 14
2324.768598
 24
491.470271
 50
90.000000
 70
1
  0
DIMENSION
  8
CSLAYER1
 62
     7
  2
*D0001
 10
2428.705884
 20
491.470271
 11
2418.705811
 21
888.921997
 13
2428.705884
 23
1286.373750
 14
2428.705884
 24
491.470271
 50
90.000000
 70
1
  0
DIMENSION
  8
CSLAYER1
 62
     7
  2
*D0002
 10
2528.705884
 20
1286.373750
 11
2518.705811
 21
773.921997
 13
2326.098314
 23
261.470271
 14
2326.098314
 24
1286.373750
 50
90.000000
 70
1
  0
DIMENSION
  8
CSLAYER1
 62
     7
  2
*D0003
 10
1018.556413
 20
2254.612195
 11
1008.556458
 21
1854.612427
 13
1128.046387
 23
1454.612195
 14
1128.046387
 24
2254.612195
 50
90.000000
 70
1
  0
LINE
  8
CSLAYER1
  6
CONTINUOUS
 62
     4
 10
897.531927
 20
325.752055
 11
897.531927
 21
261.470271
  0
LINE
  8
CSLAYER1
  6
CONTINUOUS
 62
     4
 10
725.731927
 20
326.470271
 11
725.731927
 21
352.132016
  0
LINE
  8
CSLAYER1
  6
CONTINUOUS
 62
     5
 10
719.902751
 20
344.387337
 11
754.442881
 21
344.387337
  0
LINE
  8
CSLAYER1
  6
CONTINUOUS
 62
     4
 10
724.531927
 20
349.387337
 11
725.731927
 21
349.387337
  0
LINE
  8
CSLAYER1
  6
CONTINUOUS
 62
     4
 10
724.531927
 20
339.387337
 11
725.731927
 21
339.387337
  0
LINE
  8
CSLAYER1
  6
CONTINUOUS
 62
     2
 10
725.731927
 20
339.081046
 11
728.731927
 21
339.081046
  0
LINE
  8
CSLAYER1
  6
CONTINUOUS
 62
     2
 10
725.731927
 20
343.428265
 11
728.731927
 21
343.428265
  0
LINE
  8
CSLAYER1
  6
CONTINUOUS
 62
     4
 10
725.731927
 20
352.132016
 11
729.731927
 21
352.132016
  0
LINE
  8
CSLAYER1
  6
CONTINUOUS
 62
     4
 10
728.731927
 20
326.470271
 11
728.731927
 21
352.132016
  0
LINE
  8
CSLAYER1
  6
CONTINUOUS
 62
     2
 10
733.231927
 20
381.963868
 11
734.731927
 21
381.963868
  0
LINE
  8
CSLAYER1
  6
CONTINUOUS
 62
     4
 10
733.231927
 20
382.472075
 11
734.731927
 21
382.472075
  0
LINE
  8
CSLAYER1
  6
CONTINUOUS
 62
     4
 10
744.731927
 20
326.470271
 11
744.731927
 21
352.132016
  0
LINE
  8
CSLAYER1
  6
CONTINUOUS
 62
     2
 10
728.731927
 20
326.470271
 11
728.731927
 21
352.166831
  0
LINE
  8
CSLAYER1
  6
CONTINUOUS
 62
     4
 10
733.231927
 20
370.160339
 11
733.231927
 21
382.472075
  0
LINE
  8
CSLAYER1
  6
CONTINUOUS
 62
     4
 10
740.231927
 20
370.160339
 11
740.231927
 21
382.472075
  0
LINE
  8
CSLAYER1
  6
CONTINUOUS
 62
     4
 10
729.731927
 20
342.845842
 11
729.731927
 21
358.176201
  0
LINE
  8
CSLAYER1
  6
CONTINUOUS
 62
     4
 10
743.731927
 20
342.845842
 11
743.731927
 21
358.176201
  0
LINE
  8
CSLAYER1
  6
CONTINUOUS
 62
     2
 10
734.731927
 20
370.160339
 11
734.731927
 21
382.472075
  0
LINE
  8
CSLAYER1
  6
CONTINUOUS
 62
     2
 10
738.731927
 20
370.160339
 11
738.731927
 21
382.472075
  0
LINE
  8
CSLAYER1
  6
CONTINUOUS
 62
     4
 10
731.192745
 20
370.160339
 11
733.231927
 21
370.160339
  0
LINE
  8
CSLAYER1
  6
CONTINUOUS
 62
     4
 10
729.731927
 20
342.845842
 11
728.731927
 21
342.845842
  0
LINE
  8
CSLAYER1
  6
CONTINUOUS
 62
     4
 10
743.731927
 20
358.176201
 11
742.271110
 21
370.160339
  0
LINE
  8
CSLAYER1
  6
CONTINUOUS
 62
     4
 10
729.731927
 20
358.176201
 11
731.192745
 21
370.160339
  0
LINE
  8
CSLAYER1
  6
CONTINUOUS
 62
     2
 10
733.231927
 20
370.160339
 11
740.231927
 21
370.160339
  0
LINE
  8
CSLAYER1
  6
CONTINUOUS
 62
     2
 10
729.731927
 20
342.845842
 11
744.731927
 21
342.845842
  0
LINE
  8
CSLAYER1
  6
CONTINUOUS
 62
     2
 10
745.731927
 20
336.594879
 11
745.731927
 21
344.194879
  0
LINE
  8
CSLAYER1
  6
CONTINUOUS
 62
     2
 10
745.731927
 20
336.594879
 11
744.731927
 21
336.594879
  0
LINE
  8
CSLAYER1
  6
CONTINUOUS
 62
     2
 10
745.731927
 20
344.194879
 11
744.731927
 21
344.194879
  0
LINE
  8
CSLAYER1
  6
CONTINUOUS
 62
     2
 10
748.331927
 20
338.894879
 11
748.331927
 21
341.894879
  0
LINE
  8
CSLAYER1
  6
CONTINUOUS
 62
     2
 10
746.331927
 20
336.894879
 11
745.731927
 21
336.894879
  0
LINE
  8
CSLAYER1
  6
CONTINUOUS
 62
     2
 10
746.331927
 20
343.894879
 11
745.731927
 21
343.894879
  0
ARC
  8
CSLAYER1
  6
CONTINUOUS
 62
     2
 10
746.331927
 20
338.894879
 40
2.000000
 50
270.000000
 51
360.000000
  0
ARC
  8
CSLAYER1
  6
CONTINUOUS
 62
     2
 10
746.331927
 20
341.894879
 40
2.000000
 50
0.000000
 51
90.000000
  0
LINE
  8
CSLAYER1
  6
CONTINUOUS
 62
     4
 10
743.731927
 20
352.132016
 11
744.731927
 21
352.132016
  0
LINE
  8
CSLAYER1
  6
CONTINUOUS
 62
     2
 10
738.731927
 20
381.963868
 11
740.231927
 21
381.963868
  0
LINE
  8
CSLAYER1
  6
CONTINUOUS
 62
     4
 10
738.731927
 20
382.472075
 11
740.231927
 21
382.472075
  0
LINE
  8
CSLAYER1
  6
CONTINUOUS
 62
     4
 10
732.490173
 20
399.795061
 11
733.985866
 21
398.897645
  0
LINE
  8
CSLAYER1
  6
CONTINUOUS
 62
     4
 10
733.985866
 20
398.897645
 11
742.960027
 21
391.120039
  0
LINE
  8
CSLAYER1
  6
CONTINUOUS
 62
     2
 10
724.531927
 20
349.387337
 11
724.531927
 21
339.387337
  0
LINE
  8
CSLAYER1
  6
CONTINUOUS
 62
     4
 10
744.731927
 20
349.387337
 11
754.531927
 21
349.387337
  0
LINE
  8
CSLAYER1
  6
CONTINUOUS
 62
     4
 10
748.270351
 20
339.387337
 11
754.531927
 21
339.387337
  0
LINE
  8
CSLAYER1
  6
CONTINUOUS
 62
     4
 10
829.531927
 20
326.470271
 11
829.531927
 21
1068.173750
  0
LINE
  8
CSLAYER1
  6
CONTINUOUS
 62
     4
 10
813.531927
 20
326.470271
 11
813.531927
 21
1068.173750
  0
LINE
  8
CSLAYER1
  6
CONTINUOUS
 62
     4
 10
770.531927
 20
326.470271
 11
770.531927
 21
1183.173750
  0
LINE
  8
CSLAYER1
  6
CONTINUOUS
 62
     4
 10
754.531927
 20
326.470271
 11
754.531927
 21
1183.173750
  0
LINE
  8
CSLAYER1
  6
CONTINUOUS
 62
     4
 10
846.031927
 20
1233.373750
 11
846.031927
 21
1068.173750
  0
LINE
  8
CSLAYER1
  6
CONTINUOUS
 62
     4
 10
805.031927
 20
1183.173750
 11
805.031927
 21
1068.173750
  0
LINE
  8
CSLAYER1
  6
CENTER
 62
     5
 10
722.531927
 20
1176.595859
 11
722.531927
 21
550.297448
  0
LINE
  8
CSLAYER1
  6
CONTINUOUS
 62
     5
 10
722.531927
 20
565.864570
 11
795.082880
 21
565.864570
  0
LINE
  8
CSLAYER1
  6
CONTINUOUS
 62
     2
 10
772.531927
 20
581.864570
 11
772.531927
 21
549.864570
  0
LINE
  8
CSLAYER1
  6
CONTINUOUS
 62
     4
 10
782.531927
 20
579.864570
 11
782.531927
 21
551.864570
  0
LINE
  8
CSLAYER1
  6
CONTINUOUS
 62
     4
 10
780.531927
 20
581.864570
 11
772.531927
 21
581.864570
  0
LINE
  8
CSLAYER1
  6
CONTINUOUS
 62
     4
 10
782.531927
 20
579.864570
 11
780.531927
 21
581.864570
  0
LINE
  8
CSLAYER1
  6
CONTINUOUS
 62
     2
 10
780.531927
 20
581.864570
 11
780.531927
 21
549.864570
  0
LINE
  8
CSLAYER1
  6
CONTINUOUS
 62
     4
 10
780.531927
 20
549.864570
 11
772.531927
 21
549.864570
  0
LINE
  8
CSLAYER1
  6
CONTINUOUS
 62
     4
 10
782.531927
 20
551.864570
 11
780.531927
 21
549.864570
  0
LINE
  8
CSLAYER1
  6
CONTINUOUS
 62
     4
 10
772.531927
 20
579.864570
 11
770.531927
 21
579.864570
  0
LINE
  8
CSLAYER1
  6
CONTINUOUS
 62
     4
 10
772.531927
 20
551.864570
 11
770.531927
 21
551.864570
  0
LINE
  8
CSLAYER1
  6
CONTINUOUS
 62
     4
 10
770.531927
 20
585.300883
 11
813.531927
 21
585.300883
  0
LINE
  8
CSLAYER1
  6
CONTINUOUS
 62
     4
 10
673.854211
 20
513.988072
 11
754.531927
 21
513.988072
  0
LINE
  8
CSLAYER1
  6
CONTINUOUS
 62
     4
 10
770.531927
 20
513.988072
 11
813.531927
 21
513.988072
  0
LINE
  8
CSLAYER1
  6
CENTER
 62
     5
 10
597.531927
 20
1340.478488
 11
597.531927
 21
243.354299
  0
LINE
  8
CSLAYER1
  6
CONTINUOUS
 62
     4
 10
845.531927
 20
631.684471
 11
845.531927
 21
326.470271
  0
LINE
  8
CSLAYER1
  6
CONTINUOUS
 62
     4
 10
829.531927
 20
631.684471
 11
845.531927
 21
631.684471
  0
LINE
  8
CSLAYER1
  6
CONTINUOUS
 62
     4
 10
642.081927
 20
643.388411
 11
754.531927
 21
643.388411
  0
LINE
  8
CSLAYER1
  6
CONTINUOUS
 62
     4
 10
642.081927
 20
620.957288
 11
754.531927
 21
620.957288
  0
LINE
  8
CSLAYER1
  6
CONTINUOUS
 62
     4
 10
770.531927
 20
620.957288
 11
813.531927
 21
620.957288
  0
LINE
  8
CSLAYER1
  6
CONTINUOUS
 62
     4
 10
837.531927
 20
1183.173750
 11
357.531927
 21
1183.173750
  0
LINE
  8
CSLAYER1
  6
CONTINUOUS
 62
     4
 10
837.531927
 20
1233.373750
 11
837.531927
 21
1183.173750
  0
LINE
  8
CSLAYER1
  6
CENTER
 62
     5
 10
789.093712
 20
1157.609785
 11
405.970143
 21
1157.609785
  0
LINE
  8
CSLAYER1
  6
CONTINUOUS
 62
     7
 10
753.531927
 20
591.374796
 11
753.531927
 21
540.354343
  0
LINE
  8
CSLAYER1
  6
CONTINUOUS
 62
     5
 10
722.531927
 20
565.864570
 11
722.531927
 21
530.610710
  0
LINE
  8
CSLAYER1
  6
CONTINUOUS
 62
     7
 10
663.531927
 20
620.670633
 11
531.531927
 21
620.670633
  0
LINE
  8
CSLAYER1
  6
CONTINUOUS
 62
     7
 10
663.531927
 20
589.536390
 11
531.531927
 21
589.536390
  0
LINE
  8
CSLAYER1
  6
CONTINUOUS
 62
     5
 10
705.698203
 20
550.297448
 11
736.341944
 21
550.297448
  0
ARC
  8
CSLAYER1
  6
CONTINUOUS
 62
     7
 10
748.531927
 20
591.374796
 40
5.000000
 50
0.000000
 51
79.830548
  0
ARC
  8
CSLAYER1
  6
CONTINUOUS
 62
     7
 10
748.531927
 20
560.240553
 40
5.000000
 50
-0.000000
 51
79.830548
  0
ARC
  8
CSLAYER1
  6
CONTINUOUS
 62
     7
 10
748.531927
 20
540.354343
 40
5.000000
 50
280.169452
 51
360.000000
  0
POINT
  8
CSLAYER1
 62
     5
 10
754.531927
 20
565.864570
  0
LINE
  8
CSLAYER1
  6
CONTINUOUS
 62
     7
 10
627.531927
 20
1134.064513
 11
627.531927
 21
950.498987
  0
LINE
  8
CSLAYER1
  6
CONTINUOUS
 62
     7
 10
642.081927
 20
929.356859
 11
642.081927
 21
620.670633
  0
LINE
  8
CSLAYER1
  6
CONTINUOUS
 62
     7
 10
642.081927
 20
929.356859
 11
641.912401
 21
931.800377
  0
LINE
  8
CSLAYER1
  6
CONTINUOUS
 62
     7
 10
641.912401
 20
931.800377
 11
641.405113
 21
934.225298
  0
LINE
  8
CSLAYER1
  6
CONTINUOUS
 62
     7
 10
641.405113
 20
934.225298
 11
640.563923
 21
936.613168
  0
LINE
  8
CSLAYER1
  6
CONTINUOUS
 62
     7
 10
640.563923
 20
936.613168
 11
639.395234
 21
938.945812
  0
LINE
  8
CSLAYER1
  6
CONTINUOUS
 62
     7
 10
639.395234
 20
938.945812
 11
637.907939
 21
941.205479
  0
LINE
  8
CSLAYER1
  6
CONTINUOUS
 62
     7
 10
637.907939
 20
941.205479
 11
636.113359
 21
943.374971
  0
LINE
  8
CSLAYER1
  6
CONTINUOUS
 62
     7
 10
636.113359
 20
943.374971
 11
634.025151
 21
945.437776
  0
LINE
  8
CSLAYER1
  6
CONTINUOUS
 62
     7
 10
634.025151
 20
945.437776
 11
631.659207
 21
947.378196
  0
LINE
  8
CSLAYER1
  6
CONTINUOUS
 62
     7
 10
631.659207
 20
947.378196
 11
629.033535
 21
949.181463
  0
LINE
  8
CSLAYER1
  6
CONTINUOUS
 62
     7
 10
629.033535
 20
949.181463
 11
626.168115
 21
950.833852
  0
LINE
  8
CSLAYER1
  6
CONTINUOUS
 62
     7
 10
626.168115
 20
950.833852
 11
623.084758
 21
952.322789
  0
LINE
  8
CSLAYER1
  6
CONTINUOUS
 62
     7
 10
623.084758
 20
952.322789
 11
619.806927
 21
953.636941
  0
LINE
  8
CSLAYER1
  6
CONTINUOUS
 62
     7
 10
619.806927
 20
953.636941
 11
616.359571
 21
954.766307
  0
LINE
  8
CSLAYER1
  6
CONTINUOUS
 62
     7
 10
616.359571
 20
954.766307
 11
612.768925
 21
955.702292
  0
LINE
  8
CSLAYER1
  6
CONTINUOUS
 62
     7
 10
612.768925
 20
955.702292
 11
609.062316
 21
956.437772
  0
LINE
  8
CSLAYER1
  6
CONTINUOUS
 62
     7
 10
609.062316
 20
956.437772
 11
605.267954
 21
956.967149
  0
LINE
  8
CSLAYER1
  6
CONTINUOUS
 62
     7
 10
605.267954
 20
956.967149
 11
601.414716
 21
957.286396
  0
LINE
  8
CSLAYER1
  6
CONTINUOUS
 62
     7
 10
601.414716
 20
957.286396
 11
597.531927
 21
957.393083
  0
LINE
  8
CSLAYER1
  6
CONTINUOUS
 62
     7
 10
627.531927
 20
1134.064513
 11
627.417768
 21
1135.709979
  0
LINE
  8
CSLAYER1
  6
CONTINUOUS
 62
     7
 10
627.417768
 20
1135.709979
 11
627.076160
 21
1137.342923
  0
LINE
  8
CSLAYER1
  6
CONTINUOUS
 62
     7
 10
627.076160
 20
1137.342923
 11
626.509702
 21
1138.950916
  0
LINE
  8
CSLAYER1
  6
CONTINUOUS
 62
     7
 10
626.509702
 20
1138.950916
 11
625.722706
 21
1140.521720
  0
LINE
  8
CSLAYER1
  6
CONTINUOUS
 62
     7
 10
625.722706
 20
1140.521720
 11
624.721161
 21
1142.043381
  0
LINE
  8
CSLAYER1
  6
CONTINUOUS
 62
     7
 10
624.721161
 20
1142.043381
 11
623.512690
 21
1143.504318
  0
LINE
  8
CSLAYER1
  6
CONTINUOUS
 62
     7
 10
623.512690
 20
1143.504318
 11
622.106489
 21
1144.893413
  0
LINE
  8
CSLAYER1
  6
CONTINUOUS
 62
     7
 10
622.106489
 20
1144.893413
 11
620.513261
 21
1146.200093
  0
LINE
  8
CSLAYER1
  6
CONTINUOUS
 62
     7
 10
620.513261
 20
1146.200093
 11
618.745131
 21
1147.414414
  0
LINE
  8
CSLAYER1
  6
CONTINUOUS
 62
     7
 10
618.745131
 20
1147.414414
 11
616.815556
 21
1148.527134
  0
LINE
  8
CSLAYER1
  6
CONTINUOUS
 62
     7
 10
616.815556
 20
1148.527134
 11
614.739221
 21
1149.529785
  0
LINE
  8
CSLAYER1
  6
CONTINUOUS
 62
     7
 10
614.739221
 20
1149.529785
 11
612.531927
 21
1150.414736
  0
LINE
  8
CSLAYER1
  6
CONTINUOUS
 62
     7
 10
612.531927
 20
1150.414736
 11
610.210475
 21
1151.175252
  0
LINE
  8
CSLAYER1
  6
CONTINUOUS
 62
     7
 10
610.210475
 20
1151.175252
 11
607.792532
 21
1151.805544
  0
LINE
  8
CSLAYER1
  6
CONTINUOUS
 62
     7
 10
607.792532
 20
1151.805544
 11
605.296499
 21
1152.300817
  0
LINE
  8
CSLAYER1
  6
CONTINUOUS
 62
     7
 10
605.296499
 20
1152.300817
 11
602.741373
 21
1152.657301
  0
LINE
  8
CSLAYER1
  6
CONTINUOUS
 62
     7
 10
602.741373
 20
1152.657301
 11
600.146600
 21
1152.872282
  0
LINE
  8
CSLAYER1
  6
CONTINUOUS
 62
     7
 10
600.146600
 20
1152.872282
 11
597.531927
 21
1152.944124
  0
LINE
  8
CSLAYER1
  6
CONTINUOUS
 62
     7
 10
627.531927
 20
1127.359785
 11
702.031927
 21
1127.359785
  0
LINE
  8
CSLAYER1
  6
CONTINUOUS
 62
     1
 10
753.531927
 20
1183.173750
 11
753.531927
 21
1127.709785
  0
LINE
  8
CSLAYER1
  6
CONTINUOUS
 62
     7
 10
748.531927
 20
1179.609785
 11
753.531927
 21
1174.609785
  0
LINE
  8
CSLAYER1
  6
CONTINUOUS
 62
     1
 10
748.531927
 20
1179.609785
 11
748.531927
 21
1135.609785
  0
ARC
  8
CSLAYER1
  6
CONTINUOUS
 62
     1
 10
754.631927
 20
1127.709785
 40
1.100000
 50
180.000000
 51
270.000000
  0
LINE
  8
CSLAYER1
  6
CONTINUOUS
 62
     7
 10
748.531927
 20
1135.609785
 11
753.531927
 21
1140.609785
  0
LINE
  8
CSLAYER1
  6
CONTINUOUS
 62
     1
 10
704.031927
 20
1183.173750
 11
704.031927
 21
1135.609785
  0
LINE
  8
CSLAYER1
  6
CONTINUOUS
 62
     7
 10
704.031927
 20
1129.359785
 11
704.031927
 21
1135.609785
  0
LINE
  8
CSLAYER1
  6
CONTINUOUS
 62
     7
 10
704.031927
 20
1129.359785
 11
702.031927
 21
1127.359785
  0
LINE
  8
CSLAYER1
  6
CONTINUOUS
 62
     7
 10
748.531927
 20
1179.609785
 11
704.031927
 21
1179.609785
  0
LINE
  8
CSLAYER1
  6
CONTINUOUS
 62
     7
 10
704.031927
 20
1179.609785
 11
704.031927
 21
1182.809785
  0
LINE
  8
CSLAYER1
  6
CONTINUOUS
 62
     1
 10
741.031927
 20
1179.609785
 11
741.031927
 21
1183.173750
  0
LINE
  8
CSLAYER1
  6
CONTINUOUS
 62
     7
 10
748.531927
 20
1135.609785
 11
704.031927
 21
1135.609785
  0
LINE
  8
CSLAYER1
  6
CONTINUOUS
 62
     4
 10
714.531927
 20
673.822009
 11
709.531927
 21
673.822009
  0
LINE
  8
CSLAYER1
  6
CONTINUOUS
 62
     4
 10
708.531927
 20
674.822009
 11
708.531927
 21
700.822009
  0
LINE
  8
CSLAYER1
  6
CONTINUOUS
 62
     4
 10
708.531927
 20
674.822009
 11
709.531927
 21
673.822009
  0
LINE
  8
CSLAYER1
  6
CONTINUOUS
 62
     4
 10
709.531927
 20
673.822009
 11
714.598186
 21
668.837328
  0
LINE
  8
CSLAYER1
  6
CONTINUOUS
 62
     4
 10
714.531927
 20
668.902519
 11
709.612438
 21
673.822009
  0
LINE
  8
CSLAYER1
  6
CONTINUOUS
 62
     4
 10
714.531927
 20
669.185362
 11
709.895280
 21
673.822009
  0
LINE
  8
CSLAYER1
  6
CONTINUOUS
 62
     4
 10
714.531927
 20
669.468205
 11
710.178123
 21
673.822009
  0
LINE
  8
CSLAYER1
  6
CONTINUOUS
 62
     4
 10
714.531927
 20
669.751047
 11
710.460966
 21
673.822009
  0
LINE
  8
CSLAYER1
  6
CONTINUOUS
 62
     4
 10
714.531927
 20
670.033890
 11
710.743809
 21
673.822009
  0
LINE
  8
CSLAYER1
  6
CONTINUOUS
 62
     4
 10
714.531927
 20
670.316733
 11
711.026651
 21
673.822009
  0
LINE
  8
CSLAYER1
  6
CONTINUOUS
 62
     4
 10
714.531927
 20
670.599575
 11
711.309494
 21
673.822009
  0
LINE
  8
CSLAYER1
  6
CONTINUOUS
 62
     4
 10
714.531927
 20
670.882418
 11
711.592337
 21
673.822009
  0
LINE
  8
CSLAYER1
  6
CONTINUOUS
 62
     4
 10
714.531927
 20
671.165261
 11
711.875179
 21
673.822009
  0
LINE
  8
CSLAYER1
  6
CONTINUOUS
 62
     4
 10
714.531927
 20
671.448104
 11
712.158022
 21
673.822009
  0
LINE
  8
CSLAYER1
  6
CONTINUOUS
 62
     4
 10
714.531927
 20
671.730946
 11
712.440865
 21
673.822009
  0
LINE
  8
CSLAYER1
  6
CONTINUOUS
 62
     4
 10
714.531927
 20
672.013789
 11
712.723708
 21
673.822009
  0
LINE
  8
CSLAYER1
  6
CONTINUOUS
 62
     4
 10
714.531927
 20
672.296632
 11
713.006550
 21
673.822009
  0
LINE
  8
CSLAYER1
  6
CONTINUOUS
 62
     4
 10
714.531927
 20
672.579474
 11
713.289393
 21
673.822009
  0
LINE
  8
CSLAYER1
  6
CONTINUOUS
 62
     4
 10
714.531927
 20
672.862317
 11
713.572236
 21
673.822009
  0
LINE
  8
CSLAYER1
  6
CONTINUOUS
 62
     4
 10
714.531927
 20
673.145160
 11
713.855078
 21
673.822009
  0
LINE
  8
CSLAYER1
  6
CONTINUOUS
 62
     4
 10
714.531927
 20
673.428003
 11
714.137921
 21
673.822009
  0
LINE
  8
CSLAYER1
  6
CONTINUOUS
 62
     4
 10
714.531927
 20
673.710845
 11
714.420764
 21
673.822009
  0
LINE
  8
CSLAYER1
  6
CONTINUOUS
 62
     4
 10
714.531927
 20
701.822009
 11
709.531927
 21
701.822009
  0
LINE
  8
CSLAYER1
  6
CONTINUOUS
 62
     4
 10
708.531927
 20
700.822009
 11
709.531927
 21
701.822009
  0
LINE
  8
CSLAYER1
  6
CONTINUOUS
 62
     4
 10
731.531927
 20
706.822009
 11
732.531927
 21
707.822009
  0
LINE
  8
CSLAYER1
  6
CONTINUOUS
 62
     4
 10
709.531927
 20
701.822009
 11
714.598186
 21
706.806690
  0
LINE
  8
CSLAYER1
  6
CONTINUOUS
 62
     4
 10
714.531927
 20
706.741499
 11
709.612438
 21
701.822009
  0
LINE
  8
CSLAYER1
  6
CONTINUOUS
 62
     4
 10
714.531927
 20
706.458656
 11
709.895280
 21
701.822009
  0
LINE
  8
CSLAYER1
  6
CONTINUOUS
 62
     4
 10
714.531927
 20
706.175813
 11
710.178123
 21
701.822009
  0
LINE
  8
CSLAYER1
  6
CONTINUOUS
 62
     4
 10
714.531927
 20
705.892971
 11
710.460966
 21
701.822009
  0
LINE
  8
CSLAYER1
  6
CONTINUOUS
 62
     4
 10
714.531927
 20
705.610128
 11
710.743809
 21
701.822009
  0
LINE
  8
CSLAYER1
  6
CONTINUOUS
 62
     4
 10
714.531927
 20
705.327285
 11
711.026651
 21
701.822009
  0
LINE
  8
CSLAYER1
  6
CONTINUOUS
 62
     4
 10
714.531927
 20
705.044442
 11
711.309494
 21
701.822009
  0
LINE
  8
CSLAYER1
  6
CONTINUOUS
 62
     4
 10
714.531927
 20
704.761600
 11
711.592337
 21
701.822009
  0
LINE
  8
CSLAYER1
  6
CONTINUOUS
 62
     4
 10
714.531927
 20
704.478757
 11
711.875179
 21
701.822009
  0
LINE
  8
CSLAYER1
  6
CONTINUOUS
 62
     4
 10
714.531927
 20
704.195914
 11
712.158022
 21
701.822009
  0
LINE
  8
CSLAYER1
  6
CONTINUOUS
 62
     4
 10
714.531927
 20
703.913072
 11
712.440865
 21
701.822009
  0
LINE
  8
CSLAYER1
  6
CONTINUOUS
 62
     4
 10
714.531927
 20
703.630229
 11
712.723708
 21
701.822009
  0
LINE
  8
CSLAYER1
  6
CONTINUOUS
 62
     4
 10
714.531927
 20
703.347386
 11
713.006550
 21
701.822009
  0
LINE
  8
CSLAYER1
  6
CONTINUOUS
 62
     4
 10
714.531927
 20
703.064543
 11
713.289393
 21
701.822009
  0
LINE
  8
CSLAYER1
  6
CONTINUOUS
 62
     4
 10
714.531927
 20
702.781701
 11
713.572236
 21
701.822009
  0
LINE
  8
CSLAYER1
  6
CONTINUOUS
 62
     4
 10
714.531927
 20
702.498858
 11
713.855078
 21
701.822009
  0
LINE
  8
CSLAYER1
  6
CONTINUOUS
 62
     4
 10
714.531927
 20
702.216015
 11
714.137921
 21
701.822009
  0
LINE
  8
CSLAYER1
  6
CONTINUOUS
 62
     4
 10
714.531927
 20
701.933173
 11
714.420764
 21
701.822009
  0
LINE
  8
CSLAYER1
  6
CONTINUOUS
 62
     4
 10
811.505387
 20
666.472009
 11
770.531927
 21
666.472009
  0
LINE
  8
CSLAYER1
  6
CONTINUOUS
 62
     2
 10
709.531927
 20
673.822009
 11
709.531927
 21
701.822009
  0
LINE
  8
CSLAYER1
  6
CONTINUOUS
 62
     2
 10
731.531927
 20
706.822009
 11
731.531927
 21
668.822009
  0
LINE
  8
CSLAYER1
  6
CONTINUOUS
 62
     2
 10
812.505387
 20
708.172009
 11
812.505387
 21
667.472009
  0
LINE
  8
CSLAYER1
  6
CONTINUOUS
 62
     4
 10
812.505387
 20
667.472009
 11
811.505387
 21
666.472009
  0
LINE
  8
CSLAYER1
  6
CONTINUOUS
 62
     4
 10
852.505387
 20
697.822009
 11
852.505387
 21
677.822009
  0
LINE
  8
CSLAYER1
  6
CONTINUOUS
 62
     2
 10
833.505387
 20
706.322009
 11
833.505387
 21
669.322009
  0
LINE
  8
CSLAYER1
  6
CONTINUOUS
 62
     2
 10
838.605387
 20
704.822009
 11
838.605387
 21
670.822009
  0
LINE
  8
CSLAYER1
  6
CONTINUOUS
 62
     4
 10
850.605387
 20
704.822009
 11
850.605387
 21
670.822009
  0
LINE
  8
CSLAYER1
  6
CONTINUOUS
 62
     4
 10
833.505387
 20
704.822009
 11
850.605387
 21
704.822009
  0
LINE
  8
CSLAYER1
  6
CONTINUOUS
 62
     2
 10
838.605387
 20
697.822009
 11
852.505387
 21
697.822009
  0
LINE
  8
CSLAYER1
  6
CONTINUOUS
 62
     4
 10
833.505387
 20
670.822009
 11
850.605387
 21
670.822009
  0
LINE
  8
CSLAYER1
  6
CONTINUOUS
 62
     2
 10
838.605387
 20
677.822009
 11
852.505387
 21
677.822009
  0
LINE
  8
CSLAYER1
  6
CONTINUOUS
 62
     4
 10
830.505387
 20
706.322009
 11
833.505387
 21
706.322009
  0
LINE
  8
CSLAYER1
  6
CONTINUOUS
 62
     4
 10
830.505387
 20
669.322009
 11
833.505387
 21
669.322009
  0
LINE
  8
CSLAYER1
  6
CONTINUOUS
 62
     2
 10
830.505387
 20
669.322009
 11
830.505387
 21
706.322009
  0
LINE
  8
CSLAYER1
  6
CENTER
 62
     5
 10
873.287127
 20
687.822009
 11
681.496237
 21
687.822009
  0
LINE
  8
CSLAYER1
  6
CONTINUOUS
 62
     4
 10
830.505387
 20
675.322009
 11
829.531927
 21
675.322009
  0
LINE
  8
CSLAYER1
  6
CONTINUOUS
 62
     4
 10
811.505387
 20
709.172009
 11
770.531927
 21
709.172009
  0
LINE
  8
CSLAYER1
  6
CONTINUOUS
 62
     4
 10
812.505387
 20
708.172009
 11
811.505387
 21
709.172009
  0
LINE
  8
CSLAYER1
  6
CONTINUOUS
 62
     4
 10
830.505387
 20
700.322009
 11
829.531927
 21
700.322009
  0
LINE
  8
CSLAYER1
  6
CONTINUOUS
 62
     4
 10
775.531927
 20
666.472009
 11
770.531927
 21
661.472009
  0
LINE
  8
CSLAYER1
  6
CONTINUOUS
 62
     4
 10
770.531927
 20
661.754852
 11
775.249085
 21
666.472009
  0
LINE
  8
CSLAYER1
  6
CONTINUOUS
 62
     4
 10
770.531927
 20
662.037694
 11
774.966242
 21
666.472009
  0
LINE
  8
CSLAYER1
  6
CONTINUOUS
 62
     4
 10
770.531927
 20
662.320537
 11
774.683399
 21
666.472009
  0
LINE
  8
CSLAYER1
  6
CONTINUOUS
 62
     4
 10
770.531927
 20
662.603380
 11
774.400557
 21
666.472009
  0
LINE
  8
CSLAYER1
  6
CONTINUOUS
 62
     4
 10
770.531927
 20
662.886223
 11
774.117714
 21
666.472009
  0
LINE
  8
CSLAYER1
  6
CONTINUOUS
 62
     4
 10
770.531927
 20
663.169065
 11
773.834871
 21
666.472009
  0
LINE
  8
CSLAYER1
  6
CONTINUOUS
 62
     4
 10
770.531927
 20
663.451908
 11
773.552028
 21
666.472009
  0
LINE
  8
CSLAYER1
  6
CONTINUOUS
 62
     4
 10
770.531927
 20
663.734751
 11
773.269186
 21
666.472009
  0
LINE
  8
CSLAYER1
  6
CONTINUOUS
 62
     4
 10
770.531927
 20
664.017593
 11
772.986343
 21
666.472009
  0
LINE
  8
CSLAYER1
  6
CONTINUOUS
 62
     4
 10
770.531927
 20
664.300436
 11
772.703500
 21
666.472009
  0
LINE
  8
CSLAYER1
  6
CONTINUOUS
 62
     4
 10
770.531927
 20
664.583279
 11
772.420658
 21
666.472009
  0
LINE
  8
CSLAYER1
  6
CONTINUOUS
 62
     4
 10
770.531927
 20
664.866121
 11
772.137815
 21
666.472009
  0
LINE
  8
CSLAYER1
  6
CONTINUOUS
 62
     4
 10
770.531927
 20
665.148964
 11
771.854972
 21
666.472009
  0
LINE
  8
CSLAYER1
  6
CONTINUOUS
 62
     4
 10
770.531927
 20
665.431807
 11
771.572129
 21
666.472009
  0
LINE
  8
CSLAYER1
  6
CONTINUOUS
 62
     4
 10
770.531927
 20
665.714650
 11
771.289287
 21
666.472009
  0
LINE
  8
CSLAYER1
  6
CONTINUOUS
 62
     4
 10
770.531927
 20
665.997492
 11
771.006444
 21
666.472009
  0
LINE
  8
CSLAYER1
  6
CONTINUOUS
 62
     4
 10
770.531927
 20
666.280335
 11
770.723601
 21
666.472009
  0
LINE
  8
CSLAYER1
  6
CONTINUOUS
 62
     4
 10
754.531927
 20
712.539166
 11
749.814770
 21
707.822009
  0
LINE
  8
CSLAYER1
  6
CONTINUOUS
 62
     4
 10
754.531927
 20
712.256324
 11
750.097613
 21
707.822009
  0
LINE
  8
CSLAYER1
  6
CONTINUOUS
 62
     4
 10
754.531927
 20
711.973481
 11
750.380456
 21
707.822009
  0
LINE
  8
CSLAYER1
  6
CONTINUOUS
 62
     4
 10
754.531927
 20
711.690638
 11
750.663298
 21
707.822009
  0
LINE
  8
CSLAYER1
  6
CONTINUOUS
 62
     4
 10
754.531927
 20
711.407795
 11
750.946141
 21
707.822009
  0
LINE
  8
CSLAYER1
  6
CONTINUOUS
 62
     4
 10
754.531927
 20
711.124953
 11
751.228984
 21
707.822009
  0
LINE
  8
CSLAYER1
  6
CONTINUOUS
 62
     4
 10
754.531927
 20
710.842110
 11
751.511826
 21
707.822009
  0
LINE
  8
CSLAYER1
  6
CONTINUOUS
 62
     4
 10
754.531927
 20
710.559267
 11
751.794669
 21
707.822009
  0
LINE
  8
CSLAYER1
  6
CONTINUOUS
 62
     4
 10
754.531927
 20
710.276425
 11
752.077512
 21
707.822009
  0
LINE
  8
CSLAYER1
  6
CONTINUOUS
 62
     4
 10
754.531927
 20
709.993582
 11
752.360355
 21
707.822009
  0
LINE
  8
CSLAYER1
  6
CONTINUOUS
 62
     4
 10
754.531927
 20
709.710739
 11
752.643197
 21
707.822009
  0
LINE
  8
CSLAYER1
  6
CONTINUOUS
 62
     4
 10
754.531927
 20
709.427896
 11
752.926040
 21
707.822009
  0
LINE
  8
CSLAYER1
  6
CONTINUOUS
 62
     4
 10
754.531927
 20
709.145054
 11
753.208883
 21
707.822009
  0
LINE
  8
CSLAYER1
  6
CONTINUOUS
 62
     4
 10
754.531927
 20
708.862211
 11
753.491725
 21
707.822009
  0
LINE
  8
CSLAYER1
  6
CONTINUOUS
 62
     4
 10
754.531927
 20
708.579368
 11
753.774568
 21
707.822009
  0
LINE
  8
CSLAYER1
  6
CONTINUOUS
 62
     4
 10
754.531927
 20
708.296526
 11
754.057411
 21
707.822009
  0
LINE
  8
CSLAYER1
  6
CONTINUOUS
 62
     4
 10
754.531927
 20
708.013683
 11
754.340254
 21
707.822009
  0
LINE
  8
CSLAYER1
  6
CONTINUOUS
 62
     4
 10
775.531927
 20
709.172009
 11
770.531927
 21
714.172009
  0
LINE
  8
CSLAYER1
  6
CONTINUOUS
 62
     4
 10
770.531927
 20
713.889166
 11
775.249085
 21
709.172009
  0
LINE
  8
CSLAYER1
  6
CONTINUOUS
 62
     4
 10
770.531927
 20
713.606324
 11
774.966242
 21
709.172009
  0
LINE
  8
CSLAYER1
  6
CONTINUOUS
 62
     4
 10
770.531927
 20
713.323481
 11
774.683399
 21
709.172009
  0
LINE
  8
CSLAYER1
  6
CONTINUOUS
 62
     4
 10
770.531927
 20
713.040638
 11
774.400557
 21
709.172009
  0
LINE
  8
CSLAYER1
  6
CONTINUOUS
 62
     4
 10
770.531927
 20
712.757795
 11
774.117714
 21
709.172009
  0
LINE
  8
CSLAYER1
  6
CONTINUOUS
 62
     4
 10
770.531927
 20
712.474953
 11
773.834871
 21
709.172009
  0
LINE
  8
CSLAYER1
  6
CONTINUOUS
 62
     4
 10
770.531927
 20
712.192110
 11
773.552028
 21
709.172009
  0
LINE
  8
CSLAYER1
  6
CONTINUOUS
 62
     4
 10
770.531927
 20
711.909267
 11
773.269186
 21
709.172009
  0
LINE
  8
CSLAYER1
  6
CONTINUOUS
 62
     4
 10
770.531927
 20
711.626425
 11
772.986343
 21
709.172009
  0
LINE
  8
CSLAYER1
  6
CONTINUOUS
 62
     4
 10
770.531927
 20
711.343582
 11
772.703500
 21
709.172009
  0
LINE
  8
CSLAYER1
  6
CONTINUOUS
 62
     4
 10
770.531927
 20
711.060739
 11
772.420658
 21
709.172009
  0
LINE
  8
CSLAYER1
  6
CONTINUOUS
 62
     4
 10
770.531927
 20
710.777896
 11
772.137815
 21
709.172009
  0
LINE
  8
CSLAYER1
  6
CONTINUOUS
 62
     4
 10
770.531927
 20
710.495054
 11
771.854972
 21
709.172009
  0
LINE
  8
CSLAYER1
  6
CONTINUOUS
 62
     4
 10
770.531927
 20
710.212211
 11
771.572129
 21
709.172009
  0
LINE
  8
CSLAYER1
  6
CONTINUOUS
 62
     4
 10
770.531927
 20
709.929368
 11
771.289287
 21
709.172009
  0
LINE
  8
CSLAYER1
  6
CONTINUOUS
 62
     4
 10
770.531927
 20
709.646526
 11
771.006444
 21
709.172009
  0
LINE
  8
CSLAYER1
  6
CONTINUOUS
 62
     4
 10
770.531927
 20
709.363683
 11
770.723601
 21
709.172009
  0
LINE
  8
CSLAYER1
  6
CONTINUOUS
 62
     4
 10
753.491725
 20
707.822009
 11
754.531927
 21
707.822009
  0
LINE
  8
CSLAYER1
  6
CONTINUOUS
 62
     2
 10
714.531927
 20
663.822009
 11
730.531927
 21
663.822009
  0
LINE
  8
CSLAYER1
  6
CONTINUOUS
 62
     4
 10
752.340254
 20
707.822009
 11
732.531927
 21
707.822009
  0
LINE
  8
CSLAYER1
  6
CONTINUOUS
 62
     4
 10
731.531927
 20
702.822009
 11
730.531927
 21
702.822009
  0
LINE
  8
CSLAYER1
  6
CONTINUOUS
 62
     4
 10
731.531927
 20
672.822009
 11
730.531927
 21
672.822009
  0
LINE
  8
CSLAYER1
  6
CONTINUOUS
 62
     4
 10
813.531927
 20
702.822009
 11
812.505387
 21
702.822009
  0
LINE
  8
CSLAYER1
  6
CONTINUOUS
 62
     4
 10
813.531927
 20
672.822009
 11
812.505387
 21
672.822009
  0
LINE
  8
CSLAYER1
  6
CONTINUOUS
 62
     4
 10
731.531927
 20
668.822009
 11
732.531927
 21
667.822009
  0
LINE
  8
CSLAYER1
  6
CONTINUOUS
 62
     4
 10
754.531927
 20
663.104852
 11
749.814770
 21
667.822009
  0
LINE
  8
CSLAYER1
  6
CONTINUOUS
 62
     4
 10
754.531927
 20
663.387694
 11
750.097613
 21
667.822009
  0
LINE
  8
CSLAYER1
  6
CONTINUOUS
 62
     4
 10
754.531927
 20
663.670537
 11
750.380456
 21
667.822009
  0
LINE
  8
CSLAYER1
  6
CONTINUOUS
 62
     4
 10
754.531927
 20
663.953380
 11
750.663298
 21
667.822009
  0
LINE
  8
CSLAYER1
  6
CONTINUOUS
 62
     4
 10
754.531927
 20
664.236223
 11
750.946141
 21
667.822009
  0
LINE
  8
CSLAYER1
  6
CONTINUOUS
 62
     4
 10
754.531927
 20
664.519065
 11
751.228984
 21
667.822009
  0
LINE
  8
CSLAYER1
  6
CONTINUOUS
 62
     4
 10
754.531927
 20
664.801908
 11
751.511826
 21
667.822009
  0
LINE
  8
CSLAYER1
  6
CONTINUOUS
 62
     4
 10
754.531927
 20
665.084751
 11
751.794669
 21
667.822009
  0
LINE
  8
CSLAYER1
  6
CONTINUOUS
 62
     4
 10
754.531927
 20
665.367593
 11
752.077512
 21
667.822009
  0
LINE
  8
CSLAYER1
  6
CONTINUOUS
 62
     4
 10
754.531927
 20
665.650436
 11
752.360355
 21
667.822009
  0
LINE
  8
CSLAYER1
  6
CONTINUOUS
 62
     4
 10
754.531927
 20
665.933279
 11
752.643197
 21
667.822009
  0
LINE
  8
CSLAYER1
  6
CONTINUOUS
 62
     4
 10
754.531927
 20
666.216121
 11
752.926040
 21
667.822009
  0
LINE
  8
CSLAYER1
  6
CONTINUOUS
 62
     4
 10
754.531927
 20
666.498964
 11
753.208883
 21
667.822009
  0
LINE
  8
CSLAYER1
  6
CONTINUOUS
 62
     4
 10
754.531927
 20
666.781807
 11
753.491725
 21
667.822009
  0
LINE
  8
CSLAYER1
  6
CONTINUOUS
 62
     4
 10
754.531927
 20
667.064650
 11
753.774568
 21
667.822009
  0
LINE
  8
CSLAYER1
  6
CONTINUOUS
 62
     4
 10
754.531927
 20
667.347492
 11
754.057411
 21
667.822009
  0
LINE
  8
CSLAYER1
  6
CONTINUOUS
 62
     4
 10
754.531927
 20
667.630335
 11
754.340254
 21
667.822009
  0
LINE
  8
CSLAYER1
  6
CONTINUOUS
 62
     4
 10
753.491725
 20
667.822009
 11
754.531927
 21
667.822009
  0
LINE
  8
CSLAYER1
  6
CONTINUOUS
 62
     4
 10
752.340254
 20
667.822009
 11
732.531927
 21
667.822009
  0
LINE
  8
CSLAYER1
  6
CONTINUOUS
 62
     4
 10
730.531927
 20
779.704360
 11
730.531927
 21
643.388411
  0
LINE
  8
CSLAYER1
  6
CONTINUOUS
 62
     4
 10
714.531927
 20
779.704360
 11
714.531927
 21
643.388411
  0
LINE
  8
CSLAYER1
  6
CONTINUOUS
 62
     4
 10
813.531927
 20
643.388411
 11
770.531927
 21
643.388411
  0
LINE
  8
CSLAYER1
  6
CONTINUOUS
 62
     2
 10
773.031927
 20
1170.109785
 11
771.881927
 21
1170.109785
  0
LINE
  8
CSLAYER1
  6
CONTINUOUS
 62
     2
 10
771.881927
 20
1169.559785
 11
770.531927
 21
1169.559785
  0
LINE
  8
CSLAYER1
  6
CONTINUOUS
 62
     2
 10
771.881927
 20
1172.659785
 11
770.531927
 21
1172.659785
  0
LINE
  8
CSLAYER1
  6
CONTINUOUS
 62
     2
 10
771.881927
 20
1172.659785
 11
771.881927
 21
1142.559785
  0
LINE
  8
CSLAYER1
  6
CONTINUOUS
 62
     2
 10
774.531927
 20
1168.609785
 11
774.531927
 21
1146.609785
  0
LINE
  8
CSLAYER1
  6
CONTINUOUS
 62
     2
 10
774.531927
 20
1168.609785
 11
773.031927
 21
1170.109785
  0
LINE
  8
CSLAYER1
  6
CONTINUOUS
 62
     2
 10
773.031927
 20
1170.109785
 11
773.031927
 21
1145.109785
  0
LINE
  8
CSLAYER1
  6
CONTINUOUS
 62
     2
 10
773.031927
 20
1145.109785
 11
771.881927
 21
1145.109785
  0
LINE
  8
CSLAYER1
  6
CONTINUOUS
 62
     2
 10
771.881927
 20
1145.659785
 11
770.531927
 21
1145.659785
  0
LINE
  8
CSLAYER1
  6
CONTINUOUS
 62
     2
 10
771.881927
 20
1142.559785
 11
770.531927
 21
1142.559785
  0
LINE
  8
CSLAYER1
  6
CONTINUOUS
 62
     2
 10
774.531927
 20
1146.609785
 11
773.031927
 21
1145.109785
  0
LINE
  8
CSLAYER1
  6
CONTINUOUS
 62
     7
 10
663.531927
 20
620.670633
 11
749.414727
 21
596.296246
  0
LINE
  8
CSLAYER1
  6
CONTINUOUS
 62
     7
 10
663.531927
 20
589.536390
 11
749.414727
 21
565.162002
  0
LINE
  8
CSLAYER1
  6
CONTINUOUS
 62
     7
 10
749.414727
 20
535.432894
 11
663.531927
 21
511.058506
  0
LINE
  8
CSLAYER1
  6
CONTINUOUS
 62
     4
 10
297.531927
 20
325.752055
 11
297.531927
 21
261.470271
  0
LINE
  8
CSLAYER1
  6
CONTINUOUS
 62
     4
 10
897.531927
 20
326.470271
 11
297.531927
 21
326.470271
  0
LINE
  8
CSLAYER1
  6
CONTINUOUS
 62
     4
 10
365.531927
 20
326.470271
 11
365.531927
 21
1068.173750
  0
LINE
  8
CSLAYER1
  6
CONTINUOUS
 62
     4
 10
381.531927
 20
326.470271
 11
381.531927
 21
1068.173750
  0
LINE
  8
CSLAYER1
  6
CONTINUOUS
 62
     4
 10
424.531927
 20
326.470271
 11
424.531927
 21
1183.173750
  0
LINE
  8
CSLAYER1
  6
CONTINUOUS
 62
     4
 10
440.531927
 20
326.470271
 11
440.531927
 21
1183.173750
  0
LINE
  8
CSLAYER1
  6
CONTINUOUS
 62
     4
 10
349.031927
 20
1233.373750
 11
349.031927
 21
1068.173750
  0
LINE
  8
CSLAYER1
  6
CONTINUOUS
 62
     4
 10
390.031927
 20
1183.173750
 11
390.031927
 21
1068.173750
  0
LINE
  8
CSLAYER1
  6
CONTINUOUS
 62
     5
 10
342.824075
 20
1087.173750
 11
394.090342
 21
1087.173750
  0
LINE
  8
CSLAYER1
  6
CONTINUOUS
 62
     2
 10
345.831927
 20
1110.173750
 11
345.831927
 21
1079.173750
  0
LINE
  8
CSLAYER1
  6
CONTINUOUS
 62
     2
 10
345.831927
 20
1083.173750
 11
349.031927
 21
1083.173750
  0
LINE
  8
CSLAYER1
  6
CONTINUOUS
 62
     5
 10
341.341053
 20
1102.173750
 11
355.031927
 21
1102.173750
  0
LINE
  8
CSLAYER1
  6
CONTINUOUS
 62
     2
 10
345.831927
 20
1110.173750
 11
349.031927
 21
1110.173750
  0
LINE
  8
CSLAYER1
  6
CONTINUOUS
 62
     2
 10
391.031927
 20
1080.173750
 11
391.031927
 21
1094.173750
  0
LINE
  8
CSLAYER1
  6
CONTINUOUS
 62
     2
 10
391.031927
 20
1080.173750
 11
390.031927
 21
1079.173750
  0
LINE
  8
CSLAYER1
  6
CONTINUOUS
 62
     2
 10
345.831927
 20
1079.173750
 11
349.031927
 21
1079.173750
  0
LINE
  8
CSLAYER1
  6
CONTINUOUS
 62
     4
 10
349.031927
 20
1068.173750
 11
390.031927
 21
1068.173750
  0
LINE
  8
CSLAYER1
  6
CONTINUOUS
 62
     2
 10
391.031927
 20
1094.173750
 11
390.031927
 21
1095.173750
  0
LINE
  8
CSLAYER1
  6
CONTINUOUS
 62
     2
 10
345.831927
 20
1091.173750
 11
349.031927
 21
1091.173750
  0
LINE
  8
CSLAYER1
  6
CENTER
 62
     5
 10
472.531927
 20
1176.595859
 11
472.531927
 21
550.297448
  0
LINE
  8
CSLAYER1
  6
CONTINUOUS
 62
     5
 10
472.531927
 20
565.864570
 11
404.973659
 21
565.864570
  0
LINE
  8
CSLAYER1
  6
CONTINUOUS
 62
     2
 10
422.531927
 20
581.864570
 11
422.531927
 21
549.864570
  0
LINE
  8
CSLAYER1
  6
CONTINUOUS
 62
     4
 10
412.531927
 20
579.864570
 11
412.531927
 21
551.864570
  0
LINE
  8
CSLAYER1
  6
CONTINUOUS
 62
     4
 10
414.531927
 20
581.864570
 11
422.531927
 21
581.864570
  0
LINE
  8
CSLAYER1
  6
CONTINUOUS
 62
     4
 10
412.531927
 20
579.864570
 11
414.531927
 21
581.864570
  0
LINE
  8
CSLAYER1
  6
CONTINUOUS
 62
     2
 10
414.531927
 20
581.864570
 11
414.531927
 21
549.864570
  0
LINE
  8
CSLAYER1
  6
CONTINUOUS
 62
     4
 10
414.531927
 20
549.864570
 11
422.531927
 21
549.864570
  0
LINE
  8
CSLAYER1
  6
CONTINUOUS
 62
     4
 10
412.531927
 20
551.864570
 11
414.531927
 21
549.864570
  0
LINE
  8
CSLAYER1
  6
CONTINUOUS
 62
     4
 10
422.531927
 20
579.864570
 11
424.531927
 21
579.864570
  0
LINE
  8
CSLAYER1
  6
CONTINUOUS
 62
     4
 10
422.531927
 20
551.864570
 11
424.531927
 21
551.864570
  0
LINE
  8
CSLAYER1
  6
CONTINUOUS
 62
     4
 10
424.531927
 20
585.300883
 11
381.531927
 21
585.300883
  0
LINE
  8
CSLAYER1
  6
CONTINUOUS
 62
     4
 10
521.209644
 20
513.988072
 11
440.531927
 21
513.988072
  0
LINE
  8
CSLAYER1
  6
CONTINUOUS
 62
     4
 10
424.531927
 20
513.988072
 11
381.531927
 21
513.988072
  0
LINE
  8
CSLAYER1
  6
CONTINUOUS
 62
     4
 10
349.531927
 20
631.684471
 11
349.531927
 21
326.470271
  0
LINE
  8
CSLAYER1
  6
CONTINUOUS
 62
     4
 10
365.531927
 20
631.684471
 11
349.531927
 21
631.684471
  0
LINE
  8
CSLAYER1
  6
CONTINUOUS
 62
     4
 10
552.981927
 20
643.388411
 11
440.531927
 21
643.388411
  0
LINE
  8
CSLAYER1
  6
CONTINUOUS
 62
     4
 10
552.981927
 20
620.957288
 11
440.531927
 21
620.957288
  0
LINE
  8
CSLAYER1
  6
CONTINUOUS
 62
     4
 10
424.531927
 20
620.957288
 11
381.531927
 21
620.957288
  0
LINE
  8
CSLAYER1
  6
CONTINUOUS
 62
     4
 10
357.531927
 20
1233.373750
 11
357.531927
 21
1183.173750
  0
LINE
  8
CSLAYER1
  6
CONTINUOUS
 62
     7
 10
441.531927
 20
591.374796
 11
441.531927
 21
540.354343
  0
LINE
  8
CSLAYER1
  6
CONTINUOUS
 62
     5
 10
472.531927
 20
565.864570
 11
472.531927
 21
530.610710
  0
LINE
  8
CSLAYER1
  6
CONTINUOUS
 62
     5
 10
489.365651
 20
550.297448
 11
458.721911
 21
550.297448
  0
ARC
  8
CSLAYER1
  6
CONTINUOUS
 62
     7
 10
446.531927
 20
591.374796
 40
5.000000
 50
100.169452
 51
180.000000
  0
ARC
  8
CSLAYER1
  6
CONTINUOUS
 62
     7
 10
446.531927
 20
560.240553
 40
5.000000
 50
100.169452
 51
180.000000
  0
ARC
  8
CSLAYER1
  6
CONTINUOUS
 62
     7
 10
446.531927
 20
540.354343
 40
5.000000
 50
180.000000
 51
259.830548
  0
POINT
  8
CSLAYER1
 62
     5
 10
440.531927
 20
565.864570
  0
LINE
  8
CSLAYER1
  6
CONTINUOUS
 62
     7
 10
567.531927
 20
1134.064513
 11
567.531927
 21
950.498987
  0
LINE
  8
CSLAYER1
  6
CONTINUOUS
 62
     7
 10
552.981927
 20
929.356859
 11
552.981927
 21
620.670633
  0
LINE
  8
CSLAYER1
  6
CONTINUOUS
 62
     7
 10
552.981927
 20
929.356859
 11
553.151454
 21
931.800377
  0
LINE
  8
CSLAYER1
  6
CONTINUOUS
 62
     7
 10
553.151454
 20
931.800377
 11
553.658742
 21
934.225298
  0
LINE
  8
CSLAYER1
  6
CONTINUOUS
 62
     7
 10
553.658742
 20
934.225298
 11
554.499932
 21
936.613168
  0
LINE
  8
CSLAYER1
  6
CONTINUOUS
 62
     7
 10
554.499932
 20
936.613168
 11
555.668621
 21
938.945812
  0
LINE
  8
CSLAYER1
  6
CONTINUOUS
 62
     7
 10
555.668621
 20
938.945812
 11
557.155915
 21
941.205479
  0
LINE
  8
CSLAYER1
  6
CONTINUOUS
 62
     7
 10
557.155915
 20
941.205479
 11
558.950496
 21
943.374971
  0
LINE
  8
CSLAYER1
  6
CONTINUOUS
 62
     7
 10
558.950496
 20
943.374971
 11
561.038704
 21
945.437776
  0
LINE
  8
CSLAYER1
  6
CONTINUOUS
 62
     7
 10
561.038704
 20
945.437776
 11
563.404647
 21
947.378196
  0
LINE
  8
CSLAYER1
  6
CONTINUOUS
 62
     7
 10
563.404647
 20
947.378196
 11
566.030320
 21
949.181463
  0
LINE
  8
CSLAYER1
  6
CONTINUOUS
 62
     7
 10
566.030320
 20
949.181463
 11
568.895739
 21
950.833852
  0
LINE
  8
CSLAYER1
  6
CONTINUOUS
 62
     7
 10
568.895739
 20
950.833852
 11
571.979097
 21
952.322789
  0
LINE
  8
CSLAYER1
  6
CONTINUOUS
 62
     7
 10
571.979097
 20
952.322789
 11
575.256927
 21
953.636941
  0
LINE
  8
CSLAYER1
  6
CONTINUOUS
 62
     7
 10
575.256927
 20
953.636941
 11
578.704284
 21
954.766307
  0
LINE
  8
CSLAYER1
  6
CONTINUOUS
 62
     7
 10
578.704284
 20
954.766307
 11
582.294930
 21
955.702292
  0
LINE
  8
CSLAYER1
  6
CONTINUOUS
 62
     7
 10
582.294930
 20
955.702292
 11
586.001539
 21
956.437772
  0
LINE
  8
CSLAYER1
  6
CONTINUOUS
 62
     7
 10
586.001539
 20
956.437772
 11
589.795901
 21
956.967149
  0
LINE
  8
CSLAYER1
  6
CONTINUOUS
 62
     7
 10
589.795901
 20
956.967149
 11
593.649139
 21
957.286396
  0
LINE
  8
CSLAYER1
  6
CONTINUOUS
 62
     7
 10
593.649139
 20
957.286396
 11
597.531927
 21
957.393083
  0
LINE
  8
CSLAYER1
  6
CONTINUOUS
 62
     7
 10
567.531927
 20
1134.064513
 11
567.646086
 21
1135.709979
  0
LINE
  8
CSLAYER1
  6
CONTINUOUS
 62
     7
 10
567.646086
 20
1135.709979
 11
567.987695
 21
1137.342923
  0
LINE
  8
CSLAYER1
  6
CONTINUOUS
 62
     7
 10
567.987695
 20
1137.342923
 11
568.554153
 21
1138.950916
  0
LINE
  8
CSLAYER1
  6
CONTINUOUS
 62
     7
 10
568.554153
 20
1138.950916
 11
569.341149
 21
1140.521720
  0
LINE
  8
CSLAYER1
  6
CONTINUOUS
 62
     7
 10
569.341149
 20
1140.521720
 11
570.342694
 21
1142.043381
  0
LINE
  8
CSLAYER1
  6
CONTINUOUS
 62
     7
 10
570.342694
 20
1142.043381
 11
571.551165
 21
1143.504318
  0
LINE
  8
CSLAYER1
  6
CONTINUOUS
 62
     7
 10
571.551165
 20
1143.504318
 11
572.957366
 21
1144.893413
  0
LINE
  8
CSLAYER1
  6
CONTINUOUS
 62
     7
 10
572.957366
 20
1144.893413
 11
574.550594
 21
1146.200093
  0
LINE
  8
CSLAYER1
  6
CONTINUOUS
 62
     7
 10
574.550594
 20
1146.200093
 11
576.318724
 21
1147.414414
  0
LINE
  8
CSLAYER1
  6
CONTINUOUS
 62
     7
 10
576.318724
 20
1147.414414
 11
578.248299
 21
1148.527134
  0
LINE
  8
CSLAYER1
  6
CONTINUOUS
 62
     7
 10
578.248299
 20
1148.527134
 11
580.324634
 21
1149.529785
  0
LINE
  8
CSLAYER1
  6
CONTINUOUS
 62
     7
 10
580.324634
 20
1149.529785
 11
582.531927
 21
1150.414736
  0
LINE
  8
CSLAYER1
  6
CONTINUOUS
 62
     7
 10
582.531927
 20
1150.414736
 11
584.853380
 21
1151.175252
  0
LINE
  8
CSLAYER1
  6
CONTINUOUS
 62
     7
 10
584.853380
 20
1151.175252
 11
587.271323
 21
1151.805544
  0
LINE
  8
CSLAYER1
  6
CONTINUOUS
 62
     7
 10
587.271323
 20
1151.805544
 11
589.767356
 21
1152.300817
  0
LINE
  8
CSLAYER1
  6
CONTINUOUS
 62
     7
 10
589.767356
 20
1152.300817
 11
592.322482
 21
1152.657301
  0
LINE
  8
CSLAYER1
  6
CONTINUOUS
 62
     7
 10
592.322482
 20
1152.657301
 11
594.917255
 21
1152.872282
  0
LINE
  8
CSLAYER1
  6
CONTINUOUS
 62
     7
 10
594.917255
 20
1152.872282
 11
597.531927
 21
1152.944124
  0
LINE
  8
CSLAYER1
  6
CONTINUOUS
 62
     7
 10
567.531927
 20
1127.359785
 11
493.031927
 21
1127.359785
  0
LINE
  8
CSLAYER1
  6
CONTINUOUS
 62
     4
 10
464.531927
 20
779.704360
 11
464.531927
 21
643.388411
  0
LINE
  8
CSLAYER1
  6
CONTINUOUS
 62
     4
 10
480.531927
 20
779.704360
 11
480.531927
 21
643.388411
  0
LINE
  8
CSLAYER1
  6
CONTINUOUS
 62
     7
 10
531.531927
 20
620.670633
 11
445.649128
 21
596.296246
  0
LINE
  8
CSLAYER1
  6
CONTINUOUS
 62
     7
 10
531.531927
 20
589.536390
 11
445.649128
 21
565.162002
  0
LINE
  8
CSLAYER1
  6
CONTINUOUS
 62
     7
 10
445.649128
 20
535.432894
 11
531.531927
 21
511.058506
  0
LINE
  8
CSLAYER1
  6
CONTINUOUS
 62
     4
 10
997.531927
 20
1286.373750
 11
997.531927
 21
1233.373750
  0
LINE
  8
CSLAYER1
  6
CONTINUOUS
 62
     4
 10
997.531927
 20
1233.373750
 11
197.531927
 21
1233.373750
  0
LINE
  8
CSLAYER1
  6
CONTINUOUS
 62
     4
 10
997.531927
 20
1286.373750
 11
197.531927
 21
1286.373750
  0
LINE
  8
CSLAYER1
  6
CONTINUOUS
 62
     4
 10
197.531927
 20
1286.373750
 11
197.531927
 21
1233.373750
  0
LINE
  8
CSLAYER1
  6
CENTER
 62
     5
 10
1095.675903
 20
1854.612195
 11
2371.886457
 21
1854.612195
  0
LINE
  8
CSLAYER1
  6
CONTINUOUS
 62
     3
 10
1128.705884
 20
1454.612195
 11
1128.705884
 21
2254.612195
  0
LINE
  8
CSLAYER1
  6
CONTINUOUS
 62
     3
 10
2328.705884
 20
1454.612195
 11
2328.705884
 21
2254.612195
  0
TEXT
  8
CSLAYER1
 62
     5
 10
157.724197
 20
271.481323
 40
40.000000
 41
1.050000
  1
Ｆ.Ｌ
 50
360.000000
 51
0.000000
  7
EASYDRAW_FONT
 72
     5
 11
269.724197
 21
271.481323
  0
TEXT
  8
CSLAYER1
 62
     5
 10
901.149780
 20
625.554321
 40
40.000000
 41
1.028571
  1
上限・下限
 50
360.000000
 51
0.000000
  7
EASYDRAW_FONT
 72
     5
 11
1093.149780
 21
625.554321
  0
TEXT
  8
CSLAYER1
 62
     5
 10
897.304199
 20
579.694946
 40
40.000000
 41
1.017391
  1
リミットスイッチ
 50
360.000000
 51
0.000000
  7
EASYDRAW_FONT
 72
     5
 11
1209.304199
 21
579.694946
  0
LINE
  8
CSLAYER1
  6
CONTINUOUS
 62
     3
 10
730.291926
 20
362.770271
 11
681.791199
 21
362.770271
  0
LINE
  8
CSLAYER1
  6
CONTINUOUS
 62
     3
 10
659.531927
 20
356.770271
 11
729.731927
 21
356.770271
  0
LINE
  8
CSLAYER1
  6
CONTINUOUS
 62
     5
 10
728.031927
 20
365.770271
 11
728.031927
 21
363.570271
  0
LINE
  8
CSLAYER1
  6
CONTINUOUS
 62
     5
 10
730.511339
 20
364.570271
 11
728.031927
 21
364.570271
  0
LINE
  8
CSLAYER1
  6
CONTINUOUS
 62
     5
 10
730.828268
 20
367.170271
 11
729.431927
 21
367.170271
  0
LINE
  8
CSLAYER1
  6
CONTINUOUS
 62
     5
 10
727.031927
 20
363.570271
 11
727.031927
 21
362.770271
  0
LINE
  8
CSLAYER1
  6
CONTINUOUS
 62
     5
 10
730.389443
 20
363.570271
 11
727.031927
 21
363.570271
  0
ARC
  8
CSLAYER1
  6
CONTINUOUS
 62
     5
 10
729.431927
 20
365.770271
 40
1.400000
 50
90.000000
 51
180.000000
  0
LINE
  8
CSLAYER1
  6
CONTINUOUS
 62
     5
 10
659.531927
 20
341.770271
 11
665.062133
 21
341.770271
  0
LINE
  8
CSLAYER1
  6
CONTINUOUS
 62
     5
 10
682.531927
 20
349.890927
 11
682.531927
 21
326.470271
  0
ARC
  8
CSLAYER1
  6
CONTINUOUS
 62
     3
 10
682.531927
 20
341.770271
 40
6.500000
 50
-59.489763
 51
239.489763
  0
ARC
  8
CSLAYER1
  6
CONTINUOUS
 62
     3
 10
652.531927
 20
341.770271
 40
10.500000
 50
-55.150095
 51
48.189685
  0
ARC
  8
CSLAYER1
  6
CONTINUOUS
 62
     5
 10
682.531927
 20
341.770271
 40
3.300000
 50
0.000000
 51
180.000000
  0
LINE
  8
CSLAYER1
  6
CONTINUOUS
 62
     3
 10
658.531927
 20
338.080981
 11
658.531927
 21
326.470271
  0
LINE
  8
CSLAYER1
  6
CONTINUOUS
 62
     3
 10
679.231927
 20
341.770271
 11
679.231927
 21
326.470271
  0
LINE
  8
CSLAYER1
  6
CONTINUOUS
 62
     3
 10
685.831927
 20
341.770271
 11
685.831927
 21
326.470271
  0
LINE
  8
CSLAYER1
  6
CONTINUOUS
 62
     5
 10
673.632785
 20
341.770271
 11
690.293490
 21
341.770271
  0
LINE
  8
CSLAYER1
  6
CONTINUOUS
 62
     5
 10
663.402506
 20
450.758712
 11
678.961344
 21
450.758712
  0
LINE
  8
CSLAYER1
  6
CONTINUOUS
 62
     5
 10
671.031927
 20
442.073221
 11
671.031927
 21
459.896911
  0
LINE
  8
CSLAYER1
  6
CONTINUOUS
 62
     7
 10
661.497357
 20
361.744021
 11
679.531927
 21
361.744021
  0
LINE
  8
CSLAYER1
  6
CONTINUOUS
 62
     7
 10
661.497357
 20
462.258712
 11
679.531927
 21
462.258712
  0
LINE
  8
CSLAYER1
  6
CONTINUOUS
 62
     7
 10
682.531927
 20
459.258712
 11
682.531927
 21
364.744021
  0
LINE
  8
CSLAYER1
  6
CONTINUOUS
 62
     7
 10
661.497357
 20
361.744021
 11
661.497357
 21
462.258712
  0
LINE
  8
CSLAYER1
  6
CONTINUOUS
 62
     7
 10
657.977778
 20
389.697693
 11
661.497357
 21
389.697693
  0
CIRCLE
  8
CSLAYER1
  6
CONTINUOUS
 62
     7
 10
671.031927
 20
450.758712
 40
6.250000
  0
LINE
  8
CSLAYER1
  6
CONTINUOUS
 62
     7
 10
657.531927
 20
416.678604
 11
661.497357
 21
416.678604
  0
ARC
  8
CSLAYER1
  6
CONTINUOUS
 62
     7
 10
679.531927
 20
364.744021
 40
3.000000
 50
270.000000
 51
360.000000
  0
ARC
  8
CSLAYER1
  6
CONTINUOUS
 62
     7
 10
679.531927
 20
459.258712
 40
3.000000
 50
0.000000
 51
90.000000
  0
LINE
  8
CSLAYER1
  6
CONTINUOUS
 62
     1
 10
649.531927
 20
405.915720
 11
649.531927
 21
519.075423
  0
LINE
  8
CSLAYER1
  6
CONTINUOUS
 62
     1
 10
629.531927
 20
418.414360
 11
629.531927
 21
531.574063
  0
LINE
  8
CSLAYER1
  6
CONTINUOUS
 62
     1
 10
622.531927
 20
420.707584
 11
622.531927
 21
534.018866
  0
LINE
  8
CSLAYER1
  6
CONTINUOUS
 62
     1
 10
614.531927
 20
422.690513
 11
614.531927
 21
535.885059
  0
LINE
  8
CSLAYER1
  6
CONTINUOUS
 62
     1
 10
543.531927
 20
540.178819
 11
543.531927
 21
517.099752
  0
LINE
  8
CSLAYER1
  6
CONTINUOUS
 62
     1
 10
651.531927
 20
540.178819
 11
651.531927
 21
517.099752
  0
LINE
  8
CSLAYER1
  6
CONTINUOUS
 62
     7
 10
537.531927
 20
504.123024
 11
537.531927
 21
390.963321
  0
LINE
  8
CSLAYER1
  6
CONTINUOUS
 62
     7
 10
657.531927
 20
504.123024
 11
657.531927
 21
390.963321
  0
LINE
  8
CSLAYER1
  6
CONTINUOUS
 62
     7
 10
659.531927
 20
385.285959
 11
659.531927
 21
340.919662
  0
LINE
  8
CSLAYER1
  6
CONTINUOUS
 62
     7
 10
535.531927
 20
385.285959
 11
535.531927
 21
340.919662
  0
LINE
  8
CSLAYER1
  6
CONTINUOUS
 62
     1
 10
580.531927
 20
422.690513
 11
580.531927
 21
535.850217
  0
LINE
  8
CSLAYER1
  6
CONTINUOUS
 62
     1
 10
572.531927
 20
420.707584
 11
572.531927
 21
533.867287
  0
LINE
  8
CSLAYER1
  6
CONTINUOUS
 62
     1
 10
565.531927
 20
418.414360
 11
565.531927
 21
531.574063
  0
LINE
  8
CSLAYER1
  6
CONTINUOUS
 62
     1
 10
545.531927
 20
405.915720
 11
545.531927
 21
519.075423
  0
LINE
  8
CSLAYER1
  6
CONTINUOUS
 62
     7
 10
661.497357
 20
401.157760
 11
682.531927
 21
401.157760
  0
LINE
  8
CSLAYER1
  6
CONTINUOUS
 62
     5
 10
643.481927
 20
579.754158
 11
643.481927
 21
561.198253
  0
LINE
  8
CSLAYER1
  6
CONTINUOUS
 62
     7
 10
655.088721
 20
511.058506
 11
663.531927
 21
511.058506
  0
LINE
  8
CSLAYER1
  6
CONTINUOUS
 62
     7
 10
642.531927
 20
584.827717
 11
552.531927
 21
584.827717
  0
LINE
  8
CSLAYER1
  6
CONTINUOUS
 62
     1
 10
642.531927
 20
574.709088
 11
552.531927
 21
574.709088
  0
LINE
  8
CSLAYER1
  6
CONTINUOUS
 62
     7
 10
652.531927
 20
574.827717
 11
652.531927
 21
516.111917
  0
ARC
  8
CSLAYER1
  6
CONTINUOUS
 62
     7
 10
642.531927
 20
574.827717
 40
10.000000
 50
0.000000
 51
90.000000
  0
ARC
  8
CSLAYER1
  6
CONTINUOUS
 62
     1
 10
642.531927
 20
564.709088
 40
10.000000
 50
0.000000
 51
90.000000
  0
LINE
  8
CSLAYER1
  6
CONTINUOUS
 62
     5
 10
635.657646
 20
569.034786
 11
649.169227
 21
569.034786
  0
LINE
  8
CSLAYER1
  6
CONTINUOUS
 62
     5
 10
551.581927
 20
579.754158
 11
551.581927
 21
561.198253
  0
ARC
  8
CSLAYER1
  6
CONTINUOUS
 62
     7
 10
552.531927
 20
574.827717
 40
10.000000
 50
90.000000
 51
180.000000
  0
ARC
  8
CSLAYER1
  6
CONTINUOUS
 62
     1
 10
552.531927
 20
564.709088
 40
10.000000
 50
90.000000
 51
180.000000
  0
LINE
  8
CSLAYER1
  6
CONTINUOUS
 62
     7
 10
542.531927
 20
574.827717
 11
542.531927
 21
516.111917
  0
INSERT
  8
CSLAYER1
  2
BLKF0001
 10
0.0
 20
0.0
 30
0.0
  0
INSERT
  8
CSLAYER1
  2
BLKF0002
 10
0.0
 20
0.0
 30
0.0
  0
INSERT
  8
CSLAYER1
  2
BLKF0003
 10
0.0
 20
0.0
 30
0.0
  0
INSERT
  8
CSLAYER1
  2
BLKF0004
 10
0.0
 20
0.0
 30
0.0
  0
LINE
  8
CSLAYER1
  6
CONTINUOUS
 62
     7
 10
535.531927
 20
340.919662
 11
540.622106
 21
326.470271
  0
LINE
  8
CSLAYER1
  6
CONTINUOUS
 62
     7
 10
659.531927
 20
340.919662
 11
654.441749
 21
326.470271
  0
LINE
  8
CSLAYER1
  6
CONTINUOUS
 62
     3
 10
661.497357
 20
362.770271
 11
659.531927
 21
362.770271
  0
LINE
  8
CSLAYER1
  6
CONTINUOUS
 62
     4
 10
734.731927
 20
382.472075
 11
734.731927
 21
398.450008
  0
LINE
  8
CSLAYER1
  6
CONTINUOUS
 62
     4
 10
738.731927
 20
382.472075
 11
738.731927
 21
394.410565
  0
LINE
  8
CSLAYER1
  6
CONTINUOUS
 62
     4
 10
740.231927
 20
370.160339
 11
742.271110
 21
370.160339
  0
INSERT
  8
CSLAYER1
  2
BLKF0005
 10
0.0
 20
0.0
 30
0.0
  0
INSERT
  8
CSLAYER1
  2
BLKF0006
 10
0.0
 20
0.0
 30
0.0
  0
INSERT
  8
CSLAYER1
  2
BLKF0007
 10
0.0
 20
0.0
 30
0.0
  0
INSERT
  8
CSLAYER1
  2
BLKF0008
 10
0.0
 20
0.0
 30
0.0
  0
INSERT
  8
CSLAYER1
  2
BLKF0009
 10
0.0
 20
0.0
 30
0.0
  0
INSERT
  8
CSLAYER1
  2
BLKF0010
 10
0.0
 20
0.0
 30
0.0
  0
LINE
  8
CSLAYER1
  6
CONTINUOUS
 62
     5
 10
2313.505884
 20
1133.173750
 11
2313.505884
 21
1233.373750
  0
LINE
  8
CSLAYER1
  6
CONTINUOUS
 62
     5
 10
1924.863676
 20
1087.173749
 11
1986.863676
 21
1087.173749
  0
LINE
  8
CSLAYER1
  6
CONTINUOUS
 62
     5
 10
1955.863676
 20
1118.173747
 11
1955.863676
 21
1056.173747
  0
ARC
  8
CSLAYER1
  6
CONTINUOUS
 62
     5
 10
1714.171317
 20
995.788422
 40
13.000000
 50
99.442655
 51
174.705115
  0
ARC
  8
CSLAYER1
  6
CONTINUOUS
 62
     5
 10
1696.196130
 20
969.146730
 40
15.050000
 50
105.243351
 51
113.204067
  0
ARC
  8
CSLAYER1
  6
CONTINUOUS
 62
     5
 10
1688.282260
 20
998.187746
 40
15.050000
 50
-74.756649
 51
15.108136
  0
LINE
  8
CSLAYER1
  6
CONTINUOUS
 62
     5
 10
1840.142503
 20
1115.857639
 11
1818.674512
 21
1133.173750
  0
LINE
  8
CSLAYER1
  6
CONTINUOUS
 62
     5
 10
1840.142503
 20
1115.857639
 11
1840.293036
 21
1114.451460
  0
LINE
  8
CSLAYER1
  6
CONTINUOUS
 62
     5
 10
1832.207085
 20
1122.258358
 11
1833.584528
 21
1127.158926
  0
LINE
  8
CSLAYER1
  6
CONTINUOUS
 62
     5
 10
1833.584528
 20
1127.158926
 11
1827.374437
 21
1126.156379
  0
LINE
  8
CSLAYER1
  6
CONTINUOUS
 62
     5
 10
1827.374437
 20
1126.156379
 11
1828.465203
 21
1128.283361
  0
LINE
  8
CSLAYER1
  6
CONTINUOUS
 62
     5
 10
1827.374437
 20
1126.156379
 11
1833.486648
 21
1126.810698
  0
LINE
  8
CSLAYER1
  6
CONTINUOUS
 62
     5
 10
1827.594589
 20
1125.978804
 11
1833.428357
 21
1126.603315
  0
LINE
  8
CSLAYER1
  6
CONTINUOUS
 62
     5
 10
1827.814742
 20
1125.801228
 11
1833.370067
 21
1126.395932
  0
LINE
  8
CSLAYER1
  6
CONTINUOUS
 62
     5
 10
1828.034894
 20
1125.623653
 11
1833.311776
 21
1126.188549
  0
LINE
  8
CSLAYER1
  6
CONTINUOUS
 62
     5
 10
1828.255046
 20
1125.446078
 11
1833.253485
 21
1125.981166
  0
LINE
  8
CSLAYER1
  6
CONTINUOUS
 62
     5
 10
1828.475199
 20
1125.268503
 11
1833.195194
 21
1125.773784
  0
LINE
  8
CSLAYER1
  6
CONTINUOUS
 62
     5
 10
1828.695351
 20
1125.090928
 11
1833.136903
 21
1125.566401
  0
LINE
  8
CSLAYER1
  6
CONTINUOUS
 62
     5
 10
1828.915503
 20
1124.913353
 11
1833.078613
 21
1125.359018
  0
LINE
  8
CSLAYER1
  6
CONTINUOUS
 62
     5
 10
1829.135656
 20
1124.735777
 11
1833.020322
 21
1125.151635
  0
LINE
  8
CSLAYER1
  6
CONTINUOUS
 62
     5
 10
1829.355808
 20
1124.558202
 11
1832.962031
 21
1124.944252
  0
LINE
  8
CSLAYER1
  6
CONTINUOUS
 62
     5
 10
1829.575960
 20
1124.380627
 11
1832.903740
 21
1124.736869
  0
LINE
  8
CSLAYER1
  6
CONTINUOUS
 62
     5
 10
1829.796113
 20
1124.203052
 11
1832.845450
 21
1124.529487
  0
LINE
  8
CSLAYER1
  6
CONTINUOUS
 62
     5
 10
1830.016265
 20
1124.025477
 11
1832.787159
 21
1124.322104
  0
LINE
  8
CSLAYER1
  6
CONTINUOUS
 62
     5
 10
1830.236418
 20
1123.847901
 11
1832.728868
 21
1124.114721
  0
LINE
  8
CSLAYER1
  6
CONTINUOUS
 62
     5
 10
1830.456570
 20
1123.670326
 11
1832.670577
 21
1123.907338
  0
LINE
  8
CSLAYER1
  6
CONTINUOUS
 62
     5
 10
1830.676722
 20
1123.492751
 11
1832.612286
 21
1123.699955
  0
LINE
  8
CSLAYER1
  6
CONTINUOUS
 62
     5
 10
1830.896875
 20
1123.315176
 11
1832.553996
 21
1123.492572
  0
LINE
  8
CSLAYER1
  6
CONTINUOUS
 62
     5
 10
1831.117027
 20
1123.137601
 11
1832.495705
 21
1123.285190
  0
LINE
  8
CSLAYER1
  6
CONTINUOUS
 62
     5
 10
1831.337179
 20
1122.960026
 11
1832.437414
 21
1123.077807
  0
LINE
  8
CSLAYER1
  6
CONTINUOUS
 62
     5
 10
1831.557332
 20
1122.782450
 11
1832.379123
 21
1122.870424
  0
LINE
  8
CSLAYER1
  6
CONTINUOUS
 62
     5
 10
1831.777484
 20
1122.604875
 11
1832.320832
 21
1122.663041
  0
LINE
  8
CSLAYER1
  6
CONTINUOUS
 62
     5
 10
1831.997636
 20
1122.427300
 11
1832.262542
 21
1122.455658
  0
LINE
  8
CSLAYER1
  6
CONTINUOUS
 62
     5
 10
1827.483579
 20
1126.369205
 11
1833.544939
 21
1127.018080
  0
LINE
  8
CSLAYER1
  6
CONTINUOUS
 62
     5
 10
1827.592722
 20
1126.582032
 11
1833.323783
 21
1127.195548
  0
LINE
  8
CSLAYER1
  6
CONTINUOUS
 62
     5
 10
1827.701864
 20
1126.794858
 11
1832.561244
 21
1127.315060
  0
LINE
  8
CSLAYER1
  6
CONTINUOUS
 62
     5
 10
1827.811007
 20
1127.007685
 11
1831.861009
 21
1127.441242
  0
LINE
  8
CSLAYER1
  6
CONTINUOUS
 62
     5
 10
1827.920149
 20
1127.220511
 11
1831.210445
 21
1127.572741
  0
LINE
  8
CSLAYER1
  6
CONTINUOUS
 62
     5
 10
1828.029291
 20
1127.433338
 11
1830.600736
 21
1127.708614
  0
LINE
  8
CSLAYER1
  6
CONTINUOUS
 62
     5
 10
1828.138434
 20
1127.646165
 11
1830.025436
 21
1127.848170
  0
LINE
  8
CSLAYER1
  6
CONTINUOUS
 62
     5
 10
1828.247576
 20
1127.858991
 11
1829.479666
 21
1127.990888
  0
LINE
  8
CSLAYER1
  6
CONTINUOUS
 62
     5
 10
1828.356718
 20
1128.071818
 11
1828.959621
 21
1128.136359
  0
ARC
  8
CSLAYER1
  6
CONTINUOUS
 62
     5
 10
1836.561825
 20
1157.609780
 40
30.250000
 50
233.881809
 51
306.118205
  0
ARC
  8
CSLAYER1
  6
CONTINUOUS
 62
     5
 10
1709.905747
 20
1021.436130
 40
4.770000
 50
-73.875349
 51
10.370413
  0
ARC
  8
CSLAYER1
  6
CONTINUOUS
 62
     5
 10
1709.905747
 20
1021.436130
 40
13.000000
 50
-80.557345
 51
42.455299
  0
ARC
  8
CSLAYER1
  6
CONTINUOUS
 62
     5
 10
1709.905747
 20
1021.436130
 40
15.050000
 50
259.039634
 51
348.904419
  0
ARC
  8
CSLAYER1
  6
CONTINUOUS
 62
     5
 10
1739.443103
 20
1015.643497
 40
15.050000
 50
105.243351
 51
168.904419
  0
ARC
  8
CSLAYER1
  6
CONTINUOUS
 62
     5
 10
1709.905747
 20
1021.436130
 40
9.525000
 50
-99.948135
 51
36.443199
  0
LINE
  8
CSLAYER1
  6
CONTINUOUS
 62
     5
 10
1798.271745
 20
1133.173750
 11
1815.786725
 21
1116.882943
  0
LINE
  8
CSLAYER1
  6
CONTINUOUS
 62
     5
 10
1777.227603
 20
1111.776466
 11
1795.140141
 21
1095.115887
  0
POINT
  8
CSLAYER1
 62
     5
 10
1796.399692
 20
1114.429665
  0
CIRCLE
  8
CSLAYER1
  6
CONTINUOUS
 62
     5
 10
1796.399692
 20
1114.429665
 40
4.770000
  0
ARC
  8
CSLAYER1
  6
CONTINUOUS
 62
     5
 10
1796.399692
 20
1114.429665
 40
13.000000
 50
-80.557345
 51
174.705115
  0
ARC
  8
CSLAYER1
  6
CONTINUOUS
 62
     5
 10
1800.665262
 20
1088.781957
 40
13.000000
 50
99.442655
 51
174.705115
  0
ARC
  8
CSLAYER1
  6
CONTINUOUS
 62
     5
 10
1770.510635
 20
1116.828989
 40
13.000000
 50
279.442655
 51
354.705115
  0
LINE
  8
CSLAYER1
  6
CONTINUOUS
 62
     5
 10
1775.592760
 20
1114.947896
 11
1792.544755
 21
1133.173750
  0
LINE
  8
CSLAYER1
  6
CONTINUOUS
 62
     5
 10
1722.339933
 20
1034.804683
 11
1813.833699
 21
1133.173750
  0
LINE
  8
CSLAYER1
  6
CONTINUOUS
 62
     5
 10
1799.458586
 20
1130.434364
 11
1780.658158
 21
1110.221178
  0
ARC
  8
CSLAYER1
  6
CONTINUOUS
 62
     5
 10
1793.940562
 20
1129.577630
 40
5.584136
 50
8.825335
 51
40.089884
  0
ARC
  8
CSLAYER1
  6
CONTINUOUS
 62
     5
 10
1784.881457
 20
1102.045891
 40
31.912350
 50
31.327706
 51
62.820064
  0
LINE
  8
CSLAYER1
  6
CONTINUOUS
 62
     5
 10
1786.056632
 20
1124.049818
 11
1806.734213
 21
1104.817454
  0
ARC
  8
CSLAYER1
  6
CONTINUOUS
 62
     5
 10
1781.113535
 20
1115.786716
 40
5.584136
 50
188.639368
 51
265.322435
  0
ARC
  8
CSLAYER1
  6
CONTINUOUS
 62
     5
 10
1807.917927
 20
1126.813438
 40
31.912350
 50
211.327706
 51
242.820064
  0
LINE
  8
CSLAYER1
  6
CONTINUOUS
 62
     5
 10
1798.421512
 20
1093.714713
 11
1817.206624
 21
1113.911433
  0
LINE
  8
CSLAYER1
  6
CONTINUOUS
 62
     5
 10
1812.141226
 20
1118.638151
 11
1793.340798
 21
1098.424965
  0
ARC
  8
CSLAYER1
  6
CONTINUOUS
 62
     5
 10
1811.685849
 20
1113.072614
 40
5.584136
 50
8.639368
 51
85.322435
  0
ARC
  8
CSLAYER1
  6
CONTINUOUS
 62
     5
 10
1798.858821
 20
1099.281699
 40
5.584136
 50
188.825335
 51
265.508402
  0
LINE
  8
CSLAYER1
  6
CONTINUOUS
 62
     5
 10
1812.954853
 20
1133.173750
 11
1820.748385
 21
1125.924932
  0
LINE
  8
CSLAYER1
  6
CONTINUOUS
 62
     5
 10
1819.650036
 20
1126.946514
 11
1823.013947
 21
1130.563206
  0
LINE
  8
CSLAYER1
  6
CONTINUOUS
 62
     5
 10
1819.650036
 20
1126.946514
 11
1818.978953
 21
1124.022536
  0
LINE
  8
CSLAYER1
  6
CONTINUOUS
 62
     5
 10
1815.299947
 20
1120.067071
 11
1824.440519
 21
1129.894511
  0
ARC
  8
CSLAYER1
  6
CONTINUOUS
 62
     5
 10
1816.764412
 20
1118.704962
 40
2.000000
 50
137.073885
 51
227.073885
  0
ARC
  8
CSLAYER1
  6
CONTINUOUS
 62
     5
 10
1799.190831
 20
1135.050274
 40
2.000000
 50
249.761709
 51
290.238291
  0
POINT
  8
CSLAYER1
 62
     5
 10
1806.615512
 20
1125.413153
  0
POINT
  8
CSLAYER1
 62
     5
 10
1731.529233
 20
1044.684514
  0
ARC
  8
CSLAYER1
  6
CONTINUOUS
 62
     5
 10
1731.529233
 20
1044.684514
 40
15.050000
 50
-74.756649
 51
15.108136
  0
ARC
  8
CSLAYER1
  6
CONTINUOUS
 62
     5
 10
1731.529233
 20
1044.684514
 40
13.000000
 50
226.644587
 51
354.705115
  0
POINT
  8
CSLAYER1
 62
     5
 10
1753.152719
 20
1067.932897
  0
POINT
  8
CSLAYER1
 62
     5
 10
1774.776206
 20
1091.181281
  0
ARC
  8
CSLAYER1
  6
CONTINUOUS
 62
     5
 10
1731.529233
 20
1044.684514
 40
4.770000
 50
-154.992540
 51
91.487604
  0
CIRCLE
  8
CSLAYER1
  6
CONTINUOUS
 62
     5
 10
1753.152719
 20
1067.932897
 40
4.770000
  0
ARC
  8
CSLAYER1
  6
CONTINUOUS
 62
     5
 10
1753.152719
 20
1067.932897
 40
13.000000
 50
-80.557345
 51
100.655598
  0
ARC
  8
CSLAYER1
  6
CONTINUOUS
 62
     5
 10
1753.152719
 20
1067.932897
 40
15.050000
 50
259.039634
 51
348.904419
  0
ARC
  8
CSLAYER1
  6
CONTINUOUS
 62
     5
 10
1774.776206
 20
1091.181281
 40
15.050000
 50
-74.756649
 51
15.108136
  0
ARC
  8
CSLAYER1
  6
CONTINUOUS
 62
     5
 10
1757.418290
 20
1042.285190
 40
13.000000
 50
99.442655
 51
174.705115
  0
ARC
  8
CSLAYER1
  6
CONTINUOUS
 62
     5
 10
1782.690075
 20
1062.140264
 40
15.050000
 50
105.243351
 51
168.904419
  0
ARC
  8
CSLAYER1
  6
CONTINUOUS
 62
     5
 10
1745.238850
 20
1096.973914
 40
15.050000
 50
299.897641
 51
348.904419
  0
ARC
  8
CSLAYER1
  6
CONTINUOUS
 62
     5
 10
1731.529233
 20
1044.684514
 40
9.525000
 50
-137.685031
 51
74.180096
  0
ARC
  8
CSLAYER1
  6
CONTINUOUS
 62
     5
 10
1753.152719
 20
1067.932897
 40
9.525000
 50
-188.744365
 51
125.239429
  0
ARC
  8
CSLAYER1
  6
CONTINUOUS
 62
     5
 10
1774.776206
 20
1091.181281
 40
13.000000
 50
99.442655
 51
354.705115
  0
ARC
  8
CSLAYER1
  6
CONTINUOUS
 62
     5
 10
1774.776206
 20
1091.181281
 40
15.050000
 50
79.039634
 51
168.904419
  0
CIRCLE
  8
CSLAYER1
  6
CONTINUOUS
 62
     5
 10
1774.776206
 20
1091.181281
 40
4.770000
  0
CIRCLE
  8
CSLAYER1
  6
CONTINUOUS
 62
     5
 10
1774.776206
 20
1091.181281
 40
9.525000
  0
LINE
  8
CSLAYER1
  6
CONTINUOUS
 62
     5
 10
2234.705884
 20
369.182288
 11
2234.705884
 21
359.845250
  0
LINE
  8
CSLAYER1
  6
CENTER
 62
     5
 10
2165.881061
 20
341.770271
 11
2176.733898
 21
341.770271
  0
LINE
  8
CSLAYER1
  6
CENTER
 62
     5
 10
2360.850324
 20
341.770271
 11
2295.174080
 21
341.770271
  0
LINE
  8
CSLAYER1
  6
CONTINUOUS
 62
     3
 10
2360.850324
 20
345.570271
 11
2328.905884
 21
345.570271
  0
LINE
  8
CSLAYER1
  6
CONTINUOUS
 62
     3
 10
2300.905884
 20
356.770271
 11
2300.905884
 21
326.470271
  0
LINE
  8
CSLAYER1
  6
CONTINUOUS
 62
     3
 10
2328.905884
 20
350.270271
 11
2328.905884
 21
333.270271
  0
LINE
  8
CSLAYER1
  6
CONTINUOUS
 62
     3
 10
2324.936318
 20
354.760652
 11
2310.308447
 21
354.760652
  0
LINE
  8
CSLAYER1
  6
CONTINUOUS
 62
     5
 10
2325.796790
 20
353.270271
 11
2325.796790
 21
330.270271
  0
LINE
  8
CSLAYER1
  6
CONTINUOUS
 62
     5
 10
2309.447976
 20
353.270271
 11
2309.447976
 21
330.270271
  0
LINE
  8
CSLAYER1
  6
CONTINUOUS
 62
     3
 10
2325.796790
 20
353.270271
 11
2324.936318
 21
354.760652
  0
LINE
  8
CSLAYER1
  6
CONTINUOUS
 62
     3
 10
2309.447976
 20
353.270271
 11
2310.308447
 21
354.760652
  0
LINE
  8
CSLAYER1
  6
CONTINUOUS
 62
     5
 10
2324.936318
 20
348.409799
 11
2310.308447
 21
348.409799
  0
ARC
  8
CSLAYER1
  6
CONTINUOUS
 62
     5
 10
2299.750765
 20
341.770271
 40
26.046025
 50
-14.768561
 51
14.768561
  0
ARC
  8
CSLAYER1
  6
CONTINUOUS
 62
     5
 10
2319.665196
 20
351.585225
 40
6.153702
 50
-31.065581
 51
23.174644
  0
ARC
  8
CSLAYER1
  6
CONTINUOUS
 62
     5
 10
2315.579569
 20
351.585225
 40
6.153702
 50
156.825356
 51
211.065581
  0
ARC
  8
CSLAYER1
  6
CONTINUOUS
 62
     5
 10
2335.494000
 20
341.770271
 40
26.046025
 50
165.231439
 51
194.768561
  0
LINE
  8
CSLAYER1
  6
CONTINUOUS
 62
     3
 10
2325.905884
 20
353.270271
 11
2325.796790
 21
353.270271
  0
ARC
  8
CSLAYER1
  6
CONTINUOUS
 62
     3
 10
2325.905884
 20
350.270271
 40
3.000000
 50
0.000000
 51
90.000000
  0
LINE
  8
CSLAYER1
  6
CONTINUOUS
 62
     5
 10
2305.905884
 20
353.270271
 11
2305.905884
 21
330.270271
  0
LINE
  8
CSLAYER1
  6
CONTINUOUS
 62
     3
 10
2305.905884
 20
353.270271
 11
2305.045412
 21
354.760652
  0
ARC
  8
CSLAYER1
  6
CONTINUOUS
 62
     5
 10
2279.859860
 20
341.770271
 40
26.046025
 50
-14.768561
 51
14.768561
  0
ARC
  8
CSLAYER1
  6
CONTINUOUS
 62
     5
 10
2299.774291
 20
351.585225
 40
6.153702
 50
-31.065581
 51
23.174644
  0
LINE
  8
CSLAYER1
  6
CONTINUOUS
 62
     5
 10
2305.045412
 20
348.409799
 11
2300.905884
 21
348.409799
  0
LINE
  8
CSLAYER1
  6
CONTINUOUS
 62
     3
 10
2305.045412
 20
354.760652
 11
2300.905884
 21
354.760652
  0
LINE
  8
CSLAYER1
  6
CONTINUOUS
 62
     3
 10
2309.447976
 20
352.106395
 11
2305.905884
 21
352.106395
  0
LINE
  8
CSLAYER1
  6
CONTINUOUS
 62
     5
 10
2309.447976
 20
351.460017
 11
2307.841614
 21
351.460017
  0
LINE
  8
CSLAYER1
  6
CONTINUOUS
 62
     5
 10
2307.841614
 20
352.106395
 11
2307.841614
 21
331.434147
  0
LINE
  8
CSLAYER1
  6
CONTINUOUS
 62
     5
 10
2307.841614
 20
351.460017
 11
2306.706762
 21
352.106395
  0
LINE
  8
CSLAYER1
  6
CONTINUOUS
 62
     3
 10
2324.936318
 20
328.779890
 11
2310.308447
 21
328.779890
  0
LINE
  8
CSLAYER1
  6
CONTINUOUS
 62
     3
 10
2325.796790
 20
330.270271
 11
2324.936318
 21
328.779890
  0
LINE
  8
CSLAYER1
  6
CONTINUOUS
 62
     3
 10
2309.447976
 20
330.270271
 11
2310.308447
 21
328.779890
  0
LINE
  8
CSLAYER1
  6
CONTINUOUS
 62
     5
 10
2324.936318
 20
335.130743
 11
2310.308447
 21
335.130743
  0
ARC
  8
CSLAYER1
  6
CONTINUOUS
 62
     5
 10
2319.665196
 20
331.955316
 40
6.153702
 50
-23.174644
 51
31.065581
  0
ARC
  8
CSLAYER1
  6
CONTINUOUS
 62
     5
 10
2315.579569
 20
331.955316
 40
6.153702
 50
148.934419
 51
203.174644
  0
LINE
  8
CSLAYER1
  6
CONTINUOUS
 62
     3
 10
2325.905884
 20
330.270271
 11
2325.796790
 21
330.270271
  0
ARC
  8
CSLAYER1
  6
CONTINUOUS
 62
     3
 10
2325.905884
 20
333.270271
 40
3.000000
 50
270.000000
 51
360.000000
  0
LINE
  8
CSLAYER1
  6
CONTINUOUS
 62
     3
 10
2305.905884
 20
330.270271
 11
2305.045412
 21
328.779890
  0
ARC
  8
CSLAYER1
  6
CONTINUOUS
 62
     5
 10
2299.774291
 20
331.955316
 40
6.153702
 50
-23.174644
 51
31.065581
  0
LINE
  8
CSLAYER1
  6
CONTINUOUS
 62
     5
 10
2305.045412
 20
335.130743
 11
2300.905884
 21
335.130743
  0
LINE
  8
CSLAYER1
  6
CONTINUOUS
 62
     3
 10
2305.045412
 20
328.779890
 11
2300.905884
 21
328.779890
  0
LINE
  8
CSLAYER1
  6
CONTINUOUS
 62
     3
 10
2309.447976
 20
331.434147
 11
2305.905884
 21
331.434147
  0
LINE
  8
CSLAYER1
  6
CONTINUOUS
 62
     5
 10
2309.447976
 20
332.080524
 11
2307.841614
 21
332.080524
  0
LINE
  8
CSLAYER1
  6
CONTINUOUS
 62
     5
 10
2307.841614
 20
332.080524
 11
2306.706762
 21
331.434147
  0
LINE
  8
CSLAYER1
  6
CONTINUOUS
 62
     3
 10
2168.505884
 20
356.770271
 11
2168.505884
 21
326.470271
  0
LINE
  8
CSLAYER1
  6
CONTINUOUS
 62
     3
 10
2167.205884
 20
362.770271
 11
2302.205884
 21
362.770271
  0
LINE
  8
CSLAYER1
  6
CONTINUOUS
 62
     5
 10
2167.205884
 20
356.770271
 11
2302.205884
 21
356.770271
  0
LINE
  8
CSLAYER1
  6
CONTINUOUS
 62
     3
 10
2167.205884
 20
362.770271
 11
2167.205884
 21
356.770271
  0
LINE
  8
CSLAYER1
  6
CONTINUOUS
 62
     3
 10
2302.205884
 20
362.770271
 11
2302.205884
 21
356.770271
  0
ARC
  8
CSLAYER1
  6
CONTINUOUS
 62
     3
 10
2166.355884
 20
309.620136
 40
25.650135
 50
90.000000
 51
138.934462
  0
ARC
  8
CSLAYER1
  6
CONTINUOUS
 62
     5
 10
2166.355884
 20
309.620136
 40
28.654497
 50
89.000180
 51
143.981600
  0
ARC
  8
CSLAYER1
  6
CONTINUOUS
 62
     5
 10
2166.355884
 20
309.620136
 40
35.653641
 50
89.196468
 51
151.796391
  0
ARC
  8
CSLAYER1
  6
CONTINUOUS
 62
     3
 10
2166.355884
 20
309.620136
 40
38.650135
 50
90.000000
 51
154.153239
  0
LINE
  8
CSLAYER1
  6
CONTINUOUS
 62
     3
 10
2360.850324
 20
337.970271
 11
2328.905884
 21
337.970271
  0
LINE
  8
CSLAYER1
  6
CONTINUOUS
 62
     3
 10
2167.355884
 20
352.270271
 11
2168.355884
 21
352.270271
  0
LINE
  8
CSLAYER1
  6
CONTINUOUS
 62
     3
 10
2166.355884
 20
351.270271
 11
2166.355884
 21
348.270271
  0
ARC
  8
CSLAYER1
  6
CONTINUOUS
 62
     3
 10
2167.355884
 20
351.270271
 40
1.000000
 50
90.000000
 51
180.000000
  0
LINE
  8
CSLAYER1
  6
CONTINUOUS
 62
     3
 10
2167.355884
 20
331.270271
 11
2168.355884
 21
331.270271
  0
ARC
  8
CSLAYER1
  6
CONTINUOUS
 62
     3
 10
2167.355884
 20
332.270271
 40
1.000000
 50
180.000000
 51
270.000000
  0
LINE
  8
CSLAYER1
  6
CONTINUOUS
 62
     5
 10
2167.455884
 20
348.270271
 11
2168.355884
 21
348.270271
  0
LINE
  8
CSLAYER1
  6
CONTINUOUS
 62
     5
 10
2166.855884
 20
347.670271
 11
2166.855884
 21
335.870271
  0
ARC
  8
CSLAYER1
  6
CONTINUOUS
 62
     5
 10
2167.455884
 20
347.670271
 40
0.600000
 50
90.000000
 51
180.000000
  0
LINE
  8
CSLAYER1
  6
CONTINUOUS
 62
     5
 10
2167.455884
 20
335.270271
 11
2168.355884
 21
335.270271
  0
ARC
  8
CSLAYER1
  6
CONTINUOUS
 62
     5
 10
2167.455884
 20
335.870271
 40
0.600000
 50
180.000000
 51
270.000000
  0
LINE
  8
CSLAYER1
  6
CONTINUOUS
 62
     3
 10
2231.205884
 20
365.770271
 11
2231.205884
 21
363.570271
  0
LINE
  8
CSLAYER1
  6
CONTINUOUS
 62
     3
 10
2238.205884
 20
365.770271
 11
2238.205884
 21
363.570271
  0
LINE
  8
CSLAYER1
  6
CONTINUOUS
 62
     5
 10
2238.205884
 20
364.570271
 11
2231.205884
 21
364.570271
  0
LINE
  8
CSLAYER1
  6
CONTINUOUS
 62
     3
 10
2236.805884
 20
367.170271
 11
2232.605884
 21
367.170271
  0
LINE
  8
CSLAYER1
  6
CONTINUOUS
 62
     3
 10
2239.205884
 20
363.570271
 11
2239.205884
 21
362.770271
  0
LINE
  8
CSLAYER1
  6
CONTINUOUS
 62
     3
 10
2230.205884
 20
363.570271
 11
2230.205884
 21
362.770271
  0
LINE
  8
CSLAYER1
  6
CONTINUOUS
 62
     5
 10
2239.205884
 20
363.570271
 11
2230.205884
 21
363.570271
  0
ARC
  8
CSLAYER1
  6
CONTINUOUS
 62
     3
 10
2236.805884
 20
365.770271
 40
1.400000
 50
-0.000000
 51
90.000000
  0
ARC
  8
CSLAYER1
  6
CONTINUOUS
 62
     3
 10
2232.605884
 20
365.770271
 40
1.400000
 50
90.000000
 51
180.000000
  0
LINE
  8
CSLAYER1
  6
CONTINUOUS
 62
     5
 10
2235.745836
 20
363.570271
 11
2233.360634
 21
364.570271
  0
LINE
  8
CSLAYER1
  6
CONTINUOUS
 62
     5
 10
2166.355884
 20
338.274633
 11
2166.355884
 21
335.270271
  0
ARC
  8
CSLAYER1
  6
CENTER
 62
     5
 10
2166.355884
 20
309.620136
 40
32.153641
 50
90.846136
 51
148.395648
  0
LINE
  8
CSLAYER1
  6
CONTINUOUS
 62
     3
 10
2166.355884
 20
335.270271
 11
2166.355884
 21
332.270271
  0
LINE
  8
CSLAYER1
  6
CONTINUOUS
 62
     5
 10
2166.355884
 20
348.270271
 11
2166.355884
 21
345.273777
  0
LINE
  8
CSLAYER1
  6
CONTINUOUS
 62
     5
 10
1303.893287
 20
584.827717
 11
1308.747644
 21
580.912186
  0
LINE
  8
CSLAYER1
  6
CONTINUOUS
 62
     5
 10
1330.199045
 20
614.999818
 11
1332.522843
 21
613.125439
  0
LINE
  8
CSLAYER1
  6
CONTINUOUS
 62
     3
 10
2595.883346
 20
2032.705897
 11
2680.468937
 21
2032.705897
  0
LINE
  8
CSLAYER1
  6
CONTINUOUS
 62
     3
 10
2595.883346
 20
2039.705897
 11
2680.468937
 21
2039.705897
  0
LINE
  8
CSLAYER1
  6
CONTINUOUS
 62
     3
 10
2748.329180
 20
2221.518136
 11
2753.399808
 21
2223.427853
  0
LINE
  8
CSLAYER1
  6
CONTINUOUS
 62
     3
 10
2753.399808
 20
2223.427853
 11
2759.824440
 21
2223.606315
  0
LINE
  8
CSLAYER1
  6
CONTINUOUS
 62
     3
 10
2747.274851
 20
2222.907238
 11
2752.923910
 21
2225.271961
  0
LINE
  8
CSLAYER1
  6
CONTINUOUS
 62
     3
 10
2752.923910
 20
2225.271961
 11
2758.277769
 21
2226.580682
  0
LINE
  8
CSLAYER1
  6
CONTINUOUS
 62
     3
 10
2746.432656
 20
2224.016848
 11
2751.317752
 21
2226.878119
  0
LINE
  8
CSLAYER1
  6
CONTINUOUS
 62
     3
 10
2751.317752
 20
2226.878119
 11
2753.637758
 21
2230.209409
  0
ARC
  8
CSLAYER1
  6
CONTINUOUS
 62
     3
 10
2533.363804
 20
2114.905897
 40
47.000000
 50
-10.756396
 51
307.198537
  0
ARC
  8
CSLAYER1
  6
CONTINUOUS
 62
     3
 10
2533.363804
 20
2114.905897
 40
40.000000
 50
-23.471057
 51
307.198537
  0
LINE
  8
CSLAYER1
  6
CONTINUOUS
 62
     3
 10
2749.512934
 20
2219.958516
 11
2561.779006
 21
2077.468265
  0
LINE
  8
CSLAYER1
  6
CONTINUOUS
 62
     3
 10
2745.280882
 20
2225.534334
 11
2557.546955
 21
2083.044083
  0
LINE
  8
CSLAYER1
  6
CONTINUOUS
 62
     3
 10
2749.512934
 20
2219.958516
 11
2745.280882
 21
2225.534334
  0
ARC
  8
CSLAYER1
  6
CONTINUOUS
 62
     3
 10
2595.883346
 20
1992.705897
 40
47.000000
 50
-270.000000
 51
52.446082
  0
ARC
  8
CSLAYER1
  6
CONTINUOUS
 62
     3
 10
2595.883346
 20
1992.705897
 40
40.000000
 50
-270.000000
 51
67.815298
  0
LINE
  8
CSLAYER1
  6
CONTINUOUS
 62
     5
 10
2769.555065
 20
2223.280198
 11
2934.339159
 21
2246.349971
  0
LINE
  8
CSLAYER1
  6
CONTINUOUS
 62
     5
 10
2769.555065
 20
2223.280198
 11
2797.176424
 21
2234.987483
  0
LINE
  8
CSLAYER1
  6
CONTINUOUS
 62
     5
 10
2769.555065
 20
2223.280198
 11
2799.329506
 21
2219.608325
  0
LINE
  8
CSLAYER1
  6
CONTINUOUS
 62
     5
 10
2934.339159
 20
2246.349971
 11
3153.266075
 21
2246.349971
  0
LINE
  8
CSLAYER1
  6
CONTINUOUS
 62
     5
 10
2777.468937
 20
1990.320591
 11
2960.548985
 21
2091.496407
  0
LINE
  8
CSLAYER1
  6
CONTINUOUS
 62
     5
 10
2777.468937
 20
1990.320591
 11
2799.075874
 21
2011.132614
  0
LINE
  8
CSLAYER1
  6
CONTINUOUS
 62
     5
 10
2777.468937
 20
1990.320591
 11
2806.587104
 21
1997.540863
  0
LINE
  8
CSLAYER1
  6
CONTINUOUS
 62
     5
 10
2960.548985
 20
2091.496407
 11
3264.452050
 21
2091.496407
  0
TEXT
  8
CSLAYER1
 62
     5
 10
872.619141
 20
827.933228
 40
40.000000
 41
1.017391
  1
ギヤードモーター
 50
360.000000
 51
0.000000
  7
EASYDRAW_FONT
 72
     5
 11
1184.619141
 21
827.933228
  0
LINE
  8
CSLAYER1
  6
CONTINUOUS
 62
     5
 10
739.345733
 20
398.338490
 11
893.379079
 21
573.489540
  0
LINE
  8
CSLAYER1
  6
CONTINUOUS
 62
     5
 10
739.345733
 20
398.338490
 11
752.651674
 21
425.226256
  0
LINE
  8
CSLAYER1
  6
CONTINUOUS
 62
     5
 10
739.345733
 20
398.338490
 11
764.312898
 21
414.971008
  0
LINE
  8
CSLAYER1
  6
CONTINUOUS
 62
     5
 10
893.379079
 20
573.489540
 11
1204.920916
 21
573.489540
  0
LINE
  8
CSLAYER1
  6
CONTINUOUS
 62
     5
 10
1255.668630
 20
533.004271
 11
1179.418985
 21
819.413198
  0
LINE
  8
CSLAYER1
  6
CONTINUOUS
 62
     5
 10
1255.668630
 20
533.004271
 11
1240.710426
 21
559.009120
  0
LINE
  8
CSLAYER1
  6
CONTINUOUS
 62
     5
 10
1255.668630
 20
533.004271
 11
1255.716870
 21
563.004233
  0
LINE
  8
CSLAYER1
  6
CONTINUOUS
 62
     5
 10
873.163971
 20
819.413198
 11
1179.418985
 21
819.413198
  0
LINE
  8
CSLAYER1
  6
CONTINUOUS
 62
     3
 10
2328.705884
 20
1818.612195
 11
2343.964044
 21
1818.612195
  0
LINE
  8
CSLAYER1
  6
CONTINUOUS
 62
     3
 10
2328.705884
 20
1790.612195
 11
2342.338439
 21
1790.612195
  0
LINE
  8
CSLAYER1
  6
CONTINUOUS
 62
     3
 10
2328.705884
 20
1825.612195
 11
2343.964044
 21
1825.612195
  0
LINE
  8
CSLAYER1
  6
CONTINUOUS
 62
     3
 10
2328.705884
 20
1783.612195
 11
2342.338439
 21
1783.612195
  0
LINE
  8
CSLAYER1
  6
CONTINUOUS
 62
     3
 10
2428.705892
 20
1872.519643
 11
2550.307562
 21
2066.609960
  0
LINE
  8
CSLAYER1
  6
CONTINUOUS
 62
     3
 10
2434.637822
 20
1868.803164
 11
2562.622117
 21
2073.080888
  0
LINE
  8
CSLAYER1
  6
CONTINUOUS
 62
     3
 10
2442.684960
 20
1844.805085
 11
2545.067499
 21
2000.923953
  0
LINE
  8
CSLAYER1
  6
CONTINUOUS
 62
     3
 10
2448.538507
 20
1840.966337
 11
2544.110119
 21
1986.699506
  0
ARC
  8
CSLAYER1
  6
CONTINUOUS
 62
     3
 10
2343.964044
 20
1925.612195
 40
100.000000
 50
270.000000
 51
327.931990
  0
ARC
  8
CSLAYER1
  6
CONTINUOUS
 62
     3
 10
2343.964044
 20
1925.612195
 40
107.000000
 50
270.000000
 51
327.931990
  0
ARC
  8
CSLAYER1
  6
CONTINUOUS
 62
     3
 10
2342.338439
 20
1910.612195
 40
120.000000
 50
270.000000
 51
326.743193
  0
ARC
  8
CSLAYER1
  6
CONTINUOUS
 62
     3
 10
2342.338439
 20
1910.612195
 40
127.000000
 50
270.000000
 51
326.743193
  0
POINT
  8
CSLAYER1
 62
     1
 10
722.531927
 20
1070.027092
  0
LINE
  8
CSLAYER1
  6
CONTINUOUS
 62
     1
 10
736.657304
 20
1070.027095
 11
708.418214
 21
1070.027095
  0
LINE
  8
CSLAYER1
  6
CONTINUOUS
 62
     1
 10
732.531927
 20
1095.027095
 11
712.531927
 21
1095.027095
  0
LINE
  8
CSLAYER1
  6
CONTINUOUS
 62
     1
 10
731.031927
 20
1095.027095
 11
732.531927
 21
1092.429018
  0
LINE
  8
CSLAYER1
  6
CONTINUOUS
 62
     1
 10
714.031927
 20
1095.027095
 11
712.531927
 21
1092.429018
  0
LINE
  8
CSLAYER1
  6
CONTINUOUS
 62
     1
 10
710.006927
 20
1085.027092
 11
735.056927
 21
1085.027092
  0
POINT
  8
CSLAYER1
 62
     1
 10
722.531927
 20
1038.277092
  0
LINE
  8
CSLAYER1
  6
CONTINUOUS
 62
     1
 10
736.056927
 20
1084.027092
 11
736.056927
 21
991.477092
  0
LINE
  8
CSLAYER1
  6
CONTINUOUS
 62
     1
 10
732.056927
 20
1053.327092
 11
732.056927
 21
991.477092
  0
LINE
  8
CSLAYER1
  6
CONTINUOUS
 62
     1
 10
732.056927
 20
1053.327092
 11
736.056927
 21
1053.327092
  0
LINE
  8
CSLAYER1
  6
CONTINUOUS
 62
     1
 10
731.056927
 20
1028.752092
 11
714.006927
 21
1028.752092
  0
LINE
  8
CSLAYER1
  6
CONTINUOUS
 62
     1
 10
731.056927
 20
1047.802092
 11
714.006927
 21
1047.802092
  0
ARC
  8
CSLAYER1
  6
CONTINUOUS
 62
     1
 10
731.056927
 20
1029.752092
 40
1.000000
 50
270.000000
 51
360.000000
  0
ARC
  8
CSLAYER1
  6
CONTINUOUS
 62
     1
 10
731.056927
 20
1046.802092
 40
1.000000
 50
0.000000
 51
90.000000
  0
LINE
  8
CSLAYER1
  6
CONTINUOUS
 62
     1
 10
709.006927
 20
1084.027092
 11
709.006927
 21
991.477092
  0
LINE
  8
CSLAYER1
  6
CONTINUOUS
 62
     1
 10
713.006927
 20
1053.327092
 11
713.006927
 21
991.477092
  0
LINE
  8
CSLAYER1
  6
CONTINUOUS
 62
     1
 10
713.006927
 20
1053.327092
 11
709.006927
 21
1053.327092
  0
ARC
  8
CSLAYER1
  6
CONTINUOUS
 62
     1
 10
714.006927
 20
1029.752092
 40
1.000000
 50
180.000000
 51
270.000000
  0
ARC
  8
CSLAYER1
  6
CONTINUOUS
 62
     1
 10
714.006927
 20
1046.802092
 40
1.000000
 50
90.000000
 51
180.000000
  0
LINE
  8
CSLAYER1
  6
CONTINUOUS
 62
     1
 10
742.281927
 20
1034.507092
 11
742.281927
 21
1042.056819
  0
LINE
  8
CSLAYER1
  6
CONTINUOUS
 62
     1
 10
736.056927
 20
1025.277092
 11
740.431927
 21
1025.277092
  0
LINE
  8
CSLAYER1
  6
CONTINUOUS
 62
     1
 10
736.056927
 20
1083.027092
 11
740.431927
 21
1083.027092
  0
LINE
  8
CSLAYER1
  6
CONTINUOUS
 62
     1
 10
740.431927
 20
1033.507092
 11
741.281927
 21
1033.507092
  0
LINE
  8
CSLAYER1
  6
CONTINUOUS
 62
     1
 10
740.431927
 20
1043.056819
 11
741.281927
 21
1043.056819
  0
ARC
  8
CSLAYER1
  6
CONTINUOUS
 62
     1
 10
741.281927
 20
1034.507092
 40
1.000000
 50
270.000000
 51
360.000000
  0
ARC
  8
CSLAYER1
  6
CONTINUOUS
 62
     1
 10
741.281927
 20
1042.056819
 40
1.000000
 50
0.000000
 51
90.000000
  0
LINE
  8
CSLAYER1
  6
CONTINUOUS
 62
     1
 10
742.281927
 20
1066.257092
 11
742.281927
 21
1073.806819
  0
LINE
  8
CSLAYER1
  6
CONTINUOUS
 62
     1
 10
740.431927
 20
1065.257092
 11
741.281927
 21
1065.257092
  0
LINE
  8
CSLAYER1
  6
CONTINUOUS
 62
     1
 10
740.431927
 20
1074.806819
 11
741.281927
 21
1074.806819
  0
ARC
  8
CSLAYER1
  6
CONTINUOUS
 62
     1
 10
741.281927
 20
1066.257092
 40
1.000000
 50
270.000000
 51
360.000000
  0
ARC
  8
CSLAYER1
  6
CONTINUOUS
 62
     1
 10
741.281927
 20
1073.806819
 40
1.000000
 50
0.000000
 51
90.000000
  0
LINE
  8
CSLAYER1
  6
CONTINUOUS
 62
     1
 10
702.781927
 20
1034.507092
 11
702.781927
 21
1042.056819
  0
LINE
  8
CSLAYER1
  6
CONTINUOUS
 62
     1
 10
709.006927
 20
1025.277092
 11
704.631927
 21
1025.277092
  0
LINE
  8
CSLAYER1
  6
CONTINUOUS
 62
     1
 10
709.006927
 20
1083.027092
 11
704.631927
 21
1083.027092
  0
LINE
  8
CSLAYER1
  6
CONTINUOUS
 62
     1
 10
704.631927
 20
1033.507092
 11
703.781927
 21
1033.507092
  0
LINE
  8
CSLAYER1
  6
CONTINUOUS
 62
     1
 10
704.631927
 20
1043.056819
 11
703.781927
 21
1043.056819
  0
ARC
  8
CSLAYER1
  6
CONTINUOUS
 62
     1
 10
703.781927
 20
1034.507092
 40
1.000000
 50
180.000000
 51
270.000000
  0
ARC
  8
CSLAYER1
  6
CONTINUOUS
 62
     1
 10
703.781927
 20
1042.056819
 40
1.000000
 50
90.000000
 51
180.000000
  0
LINE
  8
CSLAYER1
  6
CONTINUOUS
 62
     1
 10
699.681927
 20
1066.257092
 11
699.681927
 21
1073.806819
  0
LINE
  8
CSLAYER1
  6
CONTINUOUS
 62
     1
 10
704.631927
 20
1065.257092
 11
700.681927
 21
1065.257092
  0
LINE
  8
CSLAYER1
  6
CONTINUOUS
 62
     1
 10
704.631927
 20
1074.806819
 11
700.681927
 21
1074.806819
  0
ARC
  8
CSLAYER1
  6
CONTINUOUS
 62
     1
 10
700.681927
 20
1066.257092
 40
1.000000
 50
180.000000
 51
270.000000
  0
ARC
  8
CSLAYER1
  6
CONTINUOUS
 62
     1
 10
700.681927
 20
1073.806819
 40
1.000000
 50
90.000000
 51
180.000000
  0
LINE
  8
CSLAYER1
  6
CONTINUOUS
 62
     1
 10
709.006927
 20
1074.806819
 11
736.056927
 21
1074.806819
  0
LINE
  8
CSLAYER1
  6
CONTINUOUS
 62
     1
 10
709.006927
 20
1065.257092
 11
736.056927
 21
1065.257092
  0
LINE
  8
CSLAYER1
  6
CONTINUOUS
 62
     1
 10
711.006927
 20
1055.027092
 11
734.056927
 21
1055.027092
  0
ARC
  8
CSLAYER1
  6
CONTINUOUS
 62
     1
 10
734.056927
 20
1057.027092
 40
2.000000
 50
270.000000
 51
360.000000
  0
ARC
  8
CSLAYER1
  6
CONTINUOUS
 62
     1
 10
711.006927
 20
1057.027092
 40
2.000000
 50
180.000000
 51
270.000000
  0
ARC
  8
CSLAYER1
  6
CONTINUOUS
 62
     1
 10
710.531927
 20
1087.027092
 40
2.000000
 50
270.000000
 51
360.000000
  0
ARC
  8
CSLAYER1
  6
CONTINUOUS
 62
     1
 10
734.531927
 20
1087.027092
 40
2.000000
 50
180.000000
 51
270.000000
  0
ARC
  8
CSLAYER1
  6
CONTINUOUS
 62
     1
 10
710.006927
 20
1084.027092
 40
1.000000
 50
90.000000
 51
180.000000
  0
ARC
  8
CSLAYER1
  6
CONTINUOUS
 62
     1
 10
735.056927
 20
1084.027092
 40
1.000000
 50
0.000000
 51
90.000000
  0
POINT
  8
CSLAYER1
 62
     1
 10
722.531927
 20
1085.027092
  0
LINE
  8
CSLAYER1
  6
CONTINUOUS
 62
     1
 10
740.431927
 20
1025.277092
 11
740.431927
 21
1083.027092
  0
LINE
  8
CSLAYER1
  6
CONTINUOUS
 62
     1
 10
704.631927
 20
1025.277092
 11
704.631927
 21
1083.027092
  0
POINT
  8
CSLAYER1
 62
     1
 10
722.531927
 20
1006.527092
  0
LINE
  8
CSLAYER1
  6
CONTINUOUS
 62
     1
 10
732.056927
 20
991.477092
 11
736.056927
 21
991.477092
  0
LINE
  8
CSLAYER1
  6
CONTINUOUS
 62
     1
 10
731.056927
 20
1016.052092
 11
714.006927
 21
1016.052092
  0
LINE
  8
CSLAYER1
  6
CONTINUOUS
 62
     1
 10
731.056927
 20
997.002092
 11
714.006927
 21
997.002092
  0
ARC
  8
CSLAYER1
  6
CONTINUOUS
 62
     1
 10
731.056927
 20
1015.052092
 40
1.000000
 50
0.000000
 51
90.000000
  0
ARC
  8
CSLAYER1
  6
CONTINUOUS
 62
     1
 10
731.056927
 20
998.002092
 40
1.000000
 50
270.000000
 51
360.000000
  0
LINE
  8
CSLAYER1
  6
CONTINUOUS
 62
     1
 10
713.006927
 20
991.477092
 11
709.006927
 21
991.477092
  0
ARC
  8
CSLAYER1
  6
CONTINUOUS
 62
     1
 10
714.006927
 20
1015.052092
 40
1.000000
 50
90.000000
 51
180.000000
  0
ARC
  8
CSLAYER1
  6
CONTINUOUS
 62
     1
 10
714.006927
 20
998.002092
 40
1.000000
 50
180.000000
 51
270.000000
  0
LINE
  8
CSLAYER1
  6
CONTINUOUS
 62
     1
 10
742.281927
 20
1010.297092
 11
742.281927
 21
1002.747366
  0
LINE
  8
CSLAYER1
  6
CONTINUOUS
 62
     1
 10
736.056927
 20
1019.527092
 11
740.431927
 21
1019.527092
  0
LINE
  8
CSLAYER1
  6
CONTINUOUS
 62
     1
 10
740.431927
 20
1011.297092
 11
741.281927
 21
1011.297092
  0
LINE
  8
CSLAYER1
  6
CONTINUOUS
 62
     1
 10
740.431927
 20
1001.747366
 11
741.281927
 21
1001.747366
  0
ARC
  8
CSLAYER1
  6
CONTINUOUS
 62
     1
 10
741.281927
 20
1010.297092
 40
1.000000
 50
0.000000
 51
90.000000
  0
ARC
  8
CSLAYER1
  6
CONTINUOUS
 62
     1
 10
741.281927
 20
1002.747366
 40
1.000000
 50
270.000000
 51
360.000000
  0
LINE
  8
CSLAYER1
  6
CONTINUOUS
 62
     1
 10
702.781927
 20
1010.297092
 11
702.781927
 21
1002.747366
  0
LINE
  8
CSLAYER1
  6
CONTINUOUS
 62
     1
 10
709.006927
 20
1019.527092
 11
704.631927
 21
1019.527092
  0
LINE
  8
CSLAYER1
  6
CONTINUOUS
 62
     1
 10
704.631927
 20
1011.297092
 11
703.781927
 21
1011.297092
  0
LINE
  8
CSLAYER1
  6
CONTINUOUS
 62
     1
 10
704.631927
 20
1001.747366
 11
703.781927
 21
1001.747366
  0
ARC
  8
CSLAYER1
  6
CONTINUOUS
 62
     1
 10
703.781927
 20
1010.297092
 40
1.000000
 50
90.000000
 51
180.000000
  0
ARC
  8
CSLAYER1
  6
CONTINUOUS
 62
     1
 10
703.781927
 20
1002.747366
 40
1.000000
 50
180.000000
 51
270.000000
  0
LINE
  8
CSLAYER1
  6
CONTINUOUS
 62
     1
 10
732.531927
 20
1087.027095
 11
732.531927
 21
1135.609785
  0
LINE
  8
CSLAYER1
  6
CONTINUOUS
 62
     1
 10
731.031927
 20
1095.027095
 11
731.031927
 21
1135.609785
  0
LINE
  8
CSLAYER1
  6
CONTINUOUS
 62
     1
 10
714.031927
 20
1095.027095
 11
714.031927
 21
1135.609785
  0
LINE
  8
CSLAYER1
  6
CONTINUOUS
 62
     1
 10
712.531927
 20
1087.027095
 11
712.531927
 21
1135.609785
  0
LINE
  8
CSLAYER1
  6
CONTINUOUS
 62
     1
 10
704.631927
 20
807.979360
 11
704.631927
 21
1019.527092
  0
LINE
  8
CSLAYER1
  6
CONTINUOUS
 62
     1
 10
740.431927
 20
807.979360
 11
740.431927
 21
1019.527092
  0
POINT
  8
CSLAYER1
 62
     1
 10
722.531927
 20
757.479360
  0
LINE
  8
CSLAYER1
  6
CONTINUOUS
 62
     1
 10
740.431927
 20
744.479360
 11
740.431927
 21
802.229360
  0
LINE
  8
CSLAYER1
  6
CONTINUOUS
 62
     1
 10
742.281927
 20
753.709360
 11
742.281927
 21
761.259087
  0
LINE
  8
CSLAYER1
  6
CONTINUOUS
 62
     1
 10
736.056927
 20
744.479360
 11
740.431927
 21
744.479360
  0
LINE
  8
CSLAYER1
  6
CONTINUOUS
 62
     1
 10
740.431927
 20
762.259087
 11
741.281927
 21
762.259087
  0
ARC
  8
CSLAYER1
  6
CONTINUOUS
 62
     1
 10
741.281927
 20
753.709360
 40
1.000000
 50
270.000000
 51
360.000000
  0
ARC
  8
CSLAYER1
  6
CONTINUOUS
 62
     1
 10
741.281927
 20
761.259087
 40
1.000000
 50
0.000000
 51
90.000000
  0
LINE
  8
CSLAYER1
  6
CONTINUOUS
 62
     1
 10
709.006927
 20
744.479360
 11
709.006927
 21
836.029360
  0
LINE
  8
CSLAYER1
  6
CONTINUOUS
 62
     1
 10
704.631927
 20
744.479360
 11
704.631927
 21
802.229360
  0
LINE
  8
CSLAYER1
  6
CONTINUOUS
 62
     1
 10
702.781927
 20
753.709360
 11
702.781927
 21
761.259087
  0
LINE
  8
CSLAYER1
  6
CONTINUOUS
 62
     1
 10
709.006927
 20
744.479360
 11
704.631927
 21
744.479360
  0
LINE
  8
CSLAYER1
  6
CONTINUOUS
 62
     1
 10
704.631927
 20
752.709360
 11
703.781927
 21
752.709360
  0
LINE
  8
CSLAYER1
  6
CONTINUOUS
 62
     1
 10
704.631927
 20
762.259087
 11
703.781927
 21
762.259087
  0
ARC
  8
CSLAYER1
  6
CONTINUOUS
 62
     1
 10
703.781927
 20
753.709360
 40
1.000000
 50
180.000000
 51
270.000000
  0
ARC
  8
CSLAYER1
  6
CONTINUOUS
 62
     1
 10
703.781927
 20
761.259087
 40
1.000000
 50
90.000000
 51
180.000000
  0
LINE
  8
CSLAYER1
  6
CONTINUOUS
 62
     1
 10
710.006927
 20
747.479360
 11
714.531927
 21
747.479360
  0
LINE
  8
CSLAYER1
  6
CONTINUOUS
 62
     1
 10
709.006927
 20
748.479360
 11
710.006927
 21
747.479360
  0
LINE
  8
CSLAYER1
  6
CONTINUOUS
 62
     1
 10
735.056927
 20
747.479360
 11
736.056927
 21
748.479360
  0
LINE
  8
CSLAYER1
  6
CONTINUOUS
 62
     1
 10
710.006927
 20
767.479360
 11
714.531927
 21
767.479360
  0
LINE
  8
CSLAYER1
  6
CONTINUOUS
 62
     1
 10
709.006927
 20
766.479360
 11
710.006927
 21
767.479360
  0
LINE
  8
CSLAYER1
  6
CONTINUOUS
 62
     1
 10
735.056927
 20
767.479360
 11
736.056927
 21
766.479360
  0
LINE
  8
CSLAYER1
  6
CONTINUOUS
 62
     5
 10
750.015209
 20
789.229360
 11
697.487492
 21
789.229360
  0
LINE
  8
CSLAYER1
  6
CONTINUOUS
 62
     1
 10
709.006927
 20
802.229360
 11
704.631927
 21
802.229360
  0
LINE
  8
CSLAYER1
  6
CONTINUOUS
 62
     1
 10
702.781927
 20
785.459360
 11
702.781927
 21
793.009087
  0
LINE
  8
CSLAYER1
  6
CONTINUOUS
 62
     1
 10
704.631927
 20
784.459360
 11
703.781927
 21
784.459360
  0
LINE
  8
CSLAYER1
  6
CONTINUOUS
 62
     1
 10
704.631927
 20
794.009087
 11
703.781927
 21
794.009087
  0
ARC
  8
CSLAYER1
  6
CONTINUOUS
 62
     1
 10
703.781927
 20
785.459360
 40
1.000000
 50
180.000000
 51
270.000000
  0
ARC
  8
CSLAYER1
  6
CONTINUOUS
 62
     1
 10
703.781927
 20
793.009087
 40
1.000000
 50
90.000000
 51
180.000000
  0
LINE
  8
CSLAYER1
  6
CONTINUOUS
 62
     1
 10
736.056927
 20
802.229360
 11
740.431927
 21
802.229360
  0
LINE
  8
CSLAYER1
  6
CONTINUOUS
 62
     1
 10
740.431927
 20
752.709360
 11
741.281927
 21
752.709360
  0
LINE
  8
CSLAYER1
  6
CONTINUOUS
 62
     1
 10
742.281927
 20
785.459360
 11
742.281927
 21
793.009087
  0
LINE
  8
CSLAYER1
  6
CONTINUOUS
 62
     1
 10
740.431927
 20
784.459360
 11
741.281927
 21
784.459360
  0
LINE
  8
CSLAYER1
  6
CONTINUOUS
 62
     1
 10
740.431927
 20
794.009087
 11
741.281927
 21
794.009087
  0
ARC
  8
CSLAYER1
  6
CONTINUOUS
 62
     1
 10
741.281927
 20
785.459360
 40
1.000000
 50
270.000000
 51
360.000000
  0
ARC
  8
CSLAYER1
  6
CONTINUOUS
 62
     1
 10
741.281927
 20
793.009087
 40
1.000000
 50
0.000000
 51
90.000000
  0
POINT
  8
CSLAYER1
 62
     1
 10
722.531927
 20
789.229360
  0
LINE
  8
CSLAYER1
  6
CONTINUOUS
 62
     5
 10
749.169590
 20
757.479360
 11
696.692118
 21
757.479360
  0
POINT
  8
CSLAYER1
 62
     1
 10
722.531927
 20
820.979360
  0
LINE
  8
CSLAYER1
  6
CONTINUOUS
 62
     1
 10
736.056927
 20
836.029360
 11
736.056927
 21
744.479360
  0
LINE
  8
CSLAYER1
  6
CONTINUOUS
 62
     1
 10
732.056927
 20
836.029360
 11
732.056927
 21
774.179360
  0
LINE
  8
CSLAYER1
  6
CONTINUOUS
 62
     1
 10
732.056927
 20
836.029360
 11
736.056927
 21
836.029360
  0
LINE
  8
CSLAYER1
  6
CONTINUOUS
 62
     1
 10
731.056927
 20
811.454360
 11
714.006927
 21
811.454360
  0
LINE
  8
CSLAYER1
  6
CONTINUOUS
 62
     1
 10
731.056927
 20
830.504360
 11
714.006927
 21
830.504360
  0
ARC
  8
CSLAYER1
  6
CONTINUOUS
 62
     1
 10
731.056927
 20
812.454360
 40
1.000000
 50
270.000000
 51
360.000000
  0
ARC
  8
CSLAYER1
  6
CONTINUOUS
 62
     1
 10
731.056927
 20
829.504360
 40
1.000000
 50
0.000000
 51
90.000000
  0
LINE
  8
CSLAYER1
  6
CONTINUOUS
 62
     1
 10
713.006927
 20
836.029360
 11
713.006927
 21
774.179360
  0
LINE
  8
CSLAYER1
  6
CONTINUOUS
 62
     1
 10
713.006927
 20
836.029360
 11
709.006927
 21
836.029360
  0
ARC
  8
CSLAYER1
  6
CONTINUOUS
 62
     1
 10
714.006927
 20
812.454360
 40
1.000000
 50
180.000000
 51
270.000000
  0
ARC
  8
CSLAYER1
  6
CONTINUOUS
 62
     1
 10
714.006927
 20
829.504360
 40
1.000000
 50
90.000000
 51
180.000000
  0
LINE
  8
CSLAYER1
  6
CONTINUOUS
 62
     1
 10
742.281927
 20
817.209360
 11
742.281927
 21
824.759087
  0
LINE
  8
CSLAYER1
  6
CONTINUOUS
 62
     1
 10
736.056927
 20
807.979360
 11
740.431927
 21
807.979360
  0
LINE
  8
CSLAYER1
  6
CONTINUOUS
 62
     1
 10
740.431927
 20
816.209360
 11
741.281927
 21
816.209360
  0
LINE
  8
CSLAYER1
  6
CONTINUOUS
 62
     1
 10
740.431927
 20
825.759087
 11
741.281927
 21
825.759087
  0
ARC
  8
CSLAYER1
  6
CONTINUOUS
 62
     1
 10
741.281927
 20
817.209360
 40
1.000000
 50
270.000000
 51
360.000000
  0
ARC
  8
CSLAYER1
  6
CONTINUOUS
 62
     1
 10
741.281927
 20
824.759087
 40
1.000000
 50
0.000000
 51
90.000000
  0
LINE
  8
CSLAYER1
  6
CONTINUOUS
 62
     1
 10
702.781927
 20
817.209360
 11
702.781927
 21
824.759087
  0
LINE
  8
CSLAYER1
  6
CONTINUOUS
 62
     1
 10
709.006927
 20
807.979360
 11
704.631927
 21
807.979360
  0
LINE
  8
CSLAYER1
  6
CONTINUOUS
 62
     1
 10
704.631927
 20
816.209360
 11
703.781927
 21
816.209360
  0
LINE
  8
CSLAYER1
  6
CONTINUOUS
 62
     1
 10
704.631927
 20
825.759087
 11
703.781927
 21
825.759087
  0
ARC
  8
CSLAYER1
  6
CONTINUOUS
 62
     1
 10
703.781927
 20
817.209360
 40
1.000000
 50
180.000000
 51
270.000000
  0
ARC
  8
CSLAYER1
  6
CONTINUOUS
 62
     1
 10
703.781927
 20
824.759087
 40
1.000000
 50
90.000000
 51
180.000000
  0
LINE
  8
CSLAYER1
  6
CONTINUOUS
 62
     1
 10
732.056927
 20
774.179360
 11
736.056927
 21
774.179360
  0
LINE
  8
CSLAYER1
  6
CONTINUOUS
 62
     1
 10
731.056927
 20
798.754360
 11
714.006927
 21
798.754360
  0
LINE
  8
CSLAYER1
  6
CONTINUOUS
 62
     1
 10
731.056927
 20
779.704360
 11
714.006927
 21
779.704360
  0
ARC
  8
CSLAYER1
  6
CONTINUOUS
 62
     1
 10
731.056927
 20
797.754360
 40
1.000000
 50
0.000000
 51
90.000000
  0
ARC
  8
CSLAYER1
  6
CONTINUOUS
 62
     1
 10
731.056927
 20
780.704360
 40
1.000000
 50
270.000000
 51
360.000000
  0
LINE
  8
CSLAYER1
  6
CONTINUOUS
 62
     1
 10
713.006927
 20
774.179360
 11
709.006927
 21
774.179360
  0
ARC
  8
CSLAYER1
  6
CONTINUOUS
 62
     1
 10
714.006927
 20
797.754360
 40
1.000000
 50
90.000000
 51
180.000000
  0
ARC
  8
CSLAYER1
  6
CONTINUOUS
 62
     1
 10
714.006927
 20
780.704360
 40
1.000000
 50
180.000000
 51
270.000000
  0
LINE
  8
CSLAYER1
  6
CONTINUOUS
 62
     1
 10
730.531927
 20
774.479360
 11
714.531927
 21
774.479360
  0
LINE
  8
CSLAYER1
  6
CONTINUOUS
 62
     1
 10
730.531927
 20
767.479360
 11
735.056927
 21
767.479360
  0
LINE
  8
CSLAYER1
  6
CONTINUOUS
 62
     1
 10
730.531927
 20
747.479360
 11
735.056927
 21
747.479360
  0
LINE
  8
CSLAYER1
  6
CONTINUOUS
 62
     5
 10
749.169590
 20
820.979360
 11
696.692118
 21
820.979360
  0
LINE
  8
CSLAYER1
  6
CONTINUOUS
 62
     1
 10
441.531927
 20
1183.173750
 11
441.531927
 21
1127.709785
  0
LINE
  8
CSLAYER1
  6
CONTINUOUS
 62
     7
 10
446.531927
 20
1179.609785
 11
441.531927
 21
1174.609785
  0
LINE
  8
CSLAYER1
  6
CONTINUOUS
 62
     1
 10
446.531927
 20
1179.609785
 11
446.531927
 21
1135.609785
  0
ARC
  8
CSLAYER1
  6
CONTINUOUS
 62
     1
 10
440.431927
 20
1127.709785
 40
1.100000
 50
270.000000
 51
360.000000
  0
LINE
  8
CSLAYER1
  6
CONTINUOUS
 62
     7
 10
446.531927
 20
1135.609785
 11
441.531927
 21
1140.609785
  0
LINE
  8
CSLAYER1
  6
CONTINUOUS
 62
     1
 10
491.031927
 20
1183.173750
 11
491.031927
 21
1135.609785
  0
LINE
  8
CSLAYER1
  6
CONTINUOUS
 62
     7
 10
491.031927
 20
1129.359785
 11
491.031927
 21
1135.609785
  0
LINE
  8
CSLAYER1
  6
CONTINUOUS
 62
     7
 10
491.031927
 20
1129.359785
 11
493.031927
 21
1127.359785
  0
LINE
  8
CSLAYER1
  6
CONTINUOUS
 62
     7
 10
446.531927
 20
1179.609785
 11
491.031927
 21
1179.609785
  0
LINE
  8
CSLAYER1
  6
CONTINUOUS
 62
     7
 10
491.031927
 20
1179.609785
 11
491.031927
 21
1182.809785
  0
LINE
  8
CSLAYER1
  6
CONTINUOUS
 62
     1
 10
454.031927
 20
1179.609785
 11
454.031927
 21
1183.173750
  0
LINE
  8
CSLAYER1
  6
CONTINUOUS
 62
     7
 10
446.531927
 20
1135.609785
 11
491.031927
 21
1135.609785
  0
LINE
  8
CSLAYER1
  6
CONTINUOUS
 62
     2
 10
422.031927
 20
1170.109785
 11
423.181927
 21
1170.109785
  0
LINE
  8
CSLAYER1
  6
CONTINUOUS
 62
     2
 10
423.181927
 20
1169.559785
 11
424.531927
 21
1169.559785
  0
LINE
  8
CSLAYER1
  6
CONTINUOUS
 62
     2
 10
423.181927
 20
1172.659785
 11
424.531927
 21
1172.659785
  0
LINE
  8
CSLAYER1
  6
CONTINUOUS
 62
     2
 10
423.181927
 20
1172.659785
 11
423.181927
 21
1142.559785
  0
LINE
  8
CSLAYER1
  6
CONTINUOUS
 62
     2
 10
420.531927
 20
1168.609785
 11
420.531927
 21
1146.609785
  0
LINE
  8
CSLAYER1
  6
CONTINUOUS
 62
     2
 10
420.531927
 20
1168.609785
 11
422.031927
 21
1170.109785
  0
LINE
  8
CSLAYER1
  6
CONTINUOUS
 62
     2
 10
422.031927
 20
1170.109785
 11
422.031927
 21
1145.109785
  0
LINE
  8
CSLAYER1
  6
CONTINUOUS
 62
     2
 10
422.031927
 20
1145.109785
 11
423.181927
 21
1145.109785
  0
LINE
  8
CSLAYER1
  6
CONTINUOUS
 62
     2
 10
423.181927
 20
1145.659785
 11
424.531927
 21
1145.659785
  0
LINE
  8
CSLAYER1
  6
CONTINUOUS
 62
     2
 10
423.181927
 20
1142.559785
 11
424.531927
 21
1142.559785
  0
LINE
  8
CSLAYER1
  6
CONTINUOUS
 62
     2
 10
420.531927
 20
1146.609785
 11
422.031927
 21
1145.109785
  0
POINT
  8
CSLAYER1
 62
     1
 10
472.531927
 20
1070.027092
  0
LINE
  8
CSLAYER1
  6
CONTINUOUS
 62
     1
 10
458.406551
 20
1070.027095
 11
486.645641
 21
1070.027095
  0
LINE
  8
CSLAYER1
  6
CONTINUOUS
 62
     1
 10
462.531927
 20
1095.027095
 11
482.531927
 21
1095.027095
  0
LINE
  8
CSLAYER1
  6
CONTINUOUS
 62
     1
 10
464.031927
 20
1095.027095
 11
462.531927
 21
1092.429018
  0
LINE
  8
CSLAYER1
  6
CONTINUOUS
 62
     1
 10
481.031927
 20
1095.027095
 11
482.531927
 21
1092.429018
  0
LINE
  8
CSLAYER1
  6
CONTINUOUS
 62
     1
 10
485.056927
 20
1085.027092
 11
460.006927
 21
1085.027092
  0
POINT
  8
CSLAYER1
 62
     1
 10
472.531927
 20
1038.277092
  0
LINE
  8
CSLAYER1
  6
CONTINUOUS
 62
     1
 10
459.006927
 20
1084.027092
 11
459.006927
 21
991.477092
  0
LINE
  8
CSLAYER1
  6
CONTINUOUS
 62
     1
 10
463.006927
 20
1053.327092
 11
463.006927
 21
991.477092
  0
LINE
  8
CSLAYER1
  6
CONTINUOUS
 62
     1
 10
463.006927
 20
1053.327092
 11
459.006927
 21
1053.327092
  0
LINE
  8
CSLAYER1
  6
CONTINUOUS
 62
     1
 10
464.006927
 20
1028.752092
 11
481.056927
 21
1028.752092
  0
LINE
  8
CSLAYER1
  6
CONTINUOUS
 62
     1
 10
464.006927
 20
1047.802092
 11
481.056927
 21
1047.802092
  0
ARC
  8
CSLAYER1
  6
CONTINUOUS
 62
     1
 10
464.006927
 20
1029.752092
 40
1.000000
 50
180.000000
 51
270.000000
  0
ARC
  8
CSLAYER1
  6
CONTINUOUS
 62
     1
 10
464.006927
 20
1046.802092
 40
1.000000
 50
90.000000
 51
180.000000
  0
LINE
  8
CSLAYER1
  6
CONTINUOUS
 62
     1
 10
486.056927
 20
1084.027092
 11
486.056927
 21
991.477092
  0
LINE
  8
CSLAYER1
  6
CONTINUOUS
 62
     1
 10
482.056927
 20
1053.327092
 11
482.056927
 21
991.477092
  0
LINE
  8
CSLAYER1
  6
CONTINUOUS
 62
     1
 10
482.056927
 20
1053.327092
 11
486.056927
 21
1053.327092
  0
ARC
  8
CSLAYER1
  6
CONTINUOUS
 62
     1
 10
481.056927
 20
1029.752092
 40
1.000000
 50
270.000000
 51
360.000000
  0
ARC
  8
CSLAYER1
  6
CONTINUOUS
 62
     1
 10
481.056927
 20
1046.802092
 40
1.000000
 50
0.000000
 51
90.000000
  0
LINE
  8
CSLAYER1
  6
CONTINUOUS
 62
     1
 10
452.781927
 20
1034.507092
 11
452.781927
 21
1042.056819
  0
LINE
  8
CSLAYER1
  6
CONTINUOUS
 62
     1
 10
459.006927
 20
1025.277092
 11
454.631927
 21
1025.277092
  0
LINE
  8
CSLAYER1
  6
CONTINUOUS
 62
     1
 10
459.006927
 20
1083.027092
 11
454.631927
 21
1083.027092
  0
LINE
  8
CSLAYER1
  6
CONTINUOUS
 62
     1
 10
454.631927
 20
1033.507092
 11
453.781927
 21
1033.507092
  0
LINE
  8
CSLAYER1
  6
CONTINUOUS
 62
     1
 10
454.631927
 20
1043.056819
 11
453.781927
 21
1043.056819
  0
ARC
  8
CSLAYER1
  6
CONTINUOUS
 62
     1
 10
453.781927
 20
1034.507092
 40
1.000000
 50
180.000000
 51
270.000000
  0
ARC
  8
CSLAYER1
  6
CONTINUOUS
 62
     1
 10
453.781927
 20
1042.056819
 40
1.000000
 50
90.000000
 51
180.000000
  0
LINE
  8
CSLAYER1
  6
CONTINUOUS
 62
     1
 10
452.781927
 20
1066.257092
 11
452.781927
 21
1073.806819
  0
LINE
  8
CSLAYER1
  6
CONTINUOUS
 62
     1
 10
454.631927
 20
1065.257092
 11
453.781927
 21
1065.257092
  0
LINE
  8
CSLAYER1
  6
CONTINUOUS
 62
     1
 10
454.631927
 20
1074.806819
 11
453.781927
 21
1074.806819
  0
ARC
  8
CSLAYER1
  6
CONTINUOUS
 62
     1
 10
453.781927
 20
1066.257092
 40
1.000000
 50
180.000000
 51
270.000000
  0
ARC
  8
CSLAYER1
  6
CONTINUOUS
 62
     1
 10
453.781927
 20
1073.806819
 40
1.000000
 50
90.000000
 51
180.000000
  0
LINE
  8
CSLAYER1
  6
CONTINUOUS
 62
     1
 10
492.281927
 20
1034.507092
 11
492.281927
 21
1042.056819
  0
LINE
  8
CSLAYER1
  6
CONTINUOUS
 62
     1
 10
486.056927
 20
1025.277092
 11
490.431927
 21
1025.277092
  0
LINE
  8
CSLAYER1
  6
CONTINUOUS
 62
     1
 10
486.056927
 20
1083.027092
 11
490.431927
 21
1083.027092
  0
LINE
  8
CSLAYER1
  6
CONTINUOUS
 62
     1
 10
490.431927
 20
1033.507092
 11
491.281927
 21
1033.507092
  0
LINE
  8
CSLAYER1
  6
CONTINUOUS
 62
     1
 10
490.431927
 20
1043.056819
 11
491.281927
 21
1043.056819
  0
ARC
  8
CSLAYER1
  6
CONTINUOUS
 62
     1
 10
491.281927
 20
1034.507092
 40
1.000000
 50
270.000000
 51
360.000000
  0
ARC
  8
CSLAYER1
  6
CONTINUOUS
 62
     1
 10
491.281927
 20
1042.056819
 40
1.000000
 50
0.000000
 51
90.000000
  0
LINE
  8
CSLAYER1
  6
CONTINUOUS
 62
     1
 10
495.381927
 20
1066.257092
 11
495.381927
 21
1073.806819
  0
LINE
  8
CSLAYER1
  6
CONTINUOUS
 62
     1
 10
490.431927
 20
1065.257092
 11
494.381927
 21
1065.257092
  0
LINE
  8
CSLAYER1
  6
CONTINUOUS
 62
     1
 10
490.431927
 20
1074.806819
 11
494.381927
 21
1074.806819
  0
ARC
  8
CSLAYER1
  6
CONTINUOUS
 62
     1
 10
494.381927
 20
1066.257092
 40
1.000000
 50
270.000000
 51
360.000000
  0
ARC
  8
CSLAYER1
  6
CONTINUOUS
 62
     1
 10
494.381927
 20
1073.806819
 40
1.000000
 50
0.000000
 51
90.000000
  0
LINE
  8
CSLAYER1
  6
CONTINUOUS
 62
     1
 10
486.056927
 20
1074.806819
 11
459.006927
 21
1074.806819
  0
LINE
  8
CSLAYER1
  6
CONTINUOUS
 62
     1
 10
486.056927
 20
1065.257092
 11
459.006927
 21
1065.257092
  0
LINE
  8
CSLAYER1
  6
CONTINUOUS
 62
     1
 10
484.056927
 20
1055.027092
 11
461.006927
 21
1055.027092
  0
ARC
  8
CSLAYER1
  6
CONTINUOUS
 62
     1
 10
461.006927
 20
1057.027092
 40
2.000000
 50
180.000000
 51
270.000000
  0
ARC
  8
CSLAYER1
  6
CONTINUOUS
 62
     1
 10
484.056927
 20
1057.027092
 40
2.000000
 50
270.000000
 51
360.000000
  0
ARC
  8
CSLAYER1
  6
CONTINUOUS
 62
     1
 10
484.531927
 20
1087.027092
 40
2.000000
 50
180.000000
 51
270.000000
  0
ARC
  8
CSLAYER1
  6
CONTINUOUS
 62
     1
 10
460.531927
 20
1087.027092
 40
2.000000
 50
270.000000
 51
360.000000
  0
ARC
  8
CSLAYER1
  6
CONTINUOUS
 62
     1
 10
485.056927
 20
1084.027092
 40
1.000000
 50
0.000000
 51
90.000000
  0
ARC
  8
CSLAYER1
  6
CONTINUOUS
 62
     1
 10
460.006927
 20
1084.027092
 40
1.000000
 50
90.000000
 51
180.000000
  0
POINT
  8
CSLAYER1
 62
     1
 10
472.531927
 20
1085.027092
  0
LINE
  8
CSLAYER1
  6
CONTINUOUS
 62
     1
 10
454.631927
 20
1025.277092
 11
454.631927
 21
1083.027092
  0
LINE
  8
CSLAYER1
  6
CONTINUOUS
 62
     1
 10
490.431927
 20
1025.277092
 11
490.431927
 21
1083.027092
  0
POINT
  8
CSLAYER1
 62
     1
 10
472.531927
 20
1006.527092
  0
LINE
  8
CSLAYER1
  6
CONTINUOUS
 62
     1
 10
463.006927
 20
991.477092
 11
459.006927
 21
991.477092
  0
LINE
  8
CSLAYER1
  6
CONTINUOUS
 62
     1
 10
464.006927
 20
1016.052092
 11
481.056927
 21
1016.052092
  0
LINE
  8
CSLAYER1
  6
CONTINUOUS
 62
     1
 10
464.006927
 20
997.002092
 11
481.056927
 21
997.002092
  0
ARC
  8
CSLAYER1
  6
CONTINUOUS
 62
     1
 10
464.006927
 20
1015.052092
 40
1.000000
 50
90.000000
 51
180.000000
  0
ARC
  8
CSLAYER1
  6
CONTINUOUS
 62
     1
 10
464.006927
 20
998.002092
 40
1.000000
 50
180.000000
 51
270.000000
  0
LINE
  8
CSLAYER1
  6
CONTINUOUS
 62
     1
 10
482.056927
 20
991.477092
 11
486.056927
 21
991.477092
  0
ARC
  8
CSLAYER1
  6
CONTINUOUS
 62
     1
 10
481.056927
 20
1015.052092
 40
1.000000
 50
0.000000
 51
90.000000
  0
ARC
  8
CSLAYER1
  6
CONTINUOUS
 62
     1
 10
481.056927
 20
998.002092
 40
1.000000
 50
270.000000
 51
360.000000
  0
LINE
  8
CSLAYER1
  6
CONTINUOUS
 62
     1
 10
452.781927
 20
1010.297092
 11
452.781927
 21
1002.747366
  0
LINE
  8
CSLAYER1
  6
CONTINUOUS
 62
     1
 10
459.006927
 20
1019.527092
 11
454.631927
 21
1019.527092
  0
LINE
  8
CSLAYER1
  6
CONTINUOUS
 62
     1
 10
454.631927
 20
1011.297092
 11
453.781927
 21
1011.297092
  0
LINE
  8
CSLAYER1
  6
CONTINUOUS
 62
     1
 10
454.631927
 20
1001.747366
 11
453.781927
 21
1001.747366
  0
ARC
  8
CSLAYER1
  6
CONTINUOUS
 62
     1
 10
453.781927
 20
1010.297092
 40
1.000000
 50
90.000000
 51
180.000000
  0
ARC
  8
CSLAYER1
  6
CONTINUOUS
 62
     1
 10
453.781927
 20
1002.747366
 40
1.000000
 50
180.000000
 51
270.000000
  0
LINE
  8
CSLAYER1
  6
CONTINUOUS
 62
     1
 10
492.281927
 20
1010.297092
 11
492.281927
 21
1002.747366
  0
LINE
  8
CSLAYER1
  6
CONTINUOUS
 62
     1
 10
486.056927
 20
1019.527092
 11
490.431927
 21
1019.527092
  0
LINE
  8
CSLAYER1
  6
CONTINUOUS
 62
     1
 10
490.431927
 20
1011.297092
 11
491.281927
 21
1011.297092
  0
LINE
  8
CSLAYER1
  6
CONTINUOUS
 62
     1
 10
490.431927
 20
1001.747366
 11
491.281927
 21
1001.747366
  0
ARC
  8
CSLAYER1
  6
CONTINUOUS
 62
     1
 10
491.281927
 20
1010.297092
 40
1.000000
 50
0.000000
 51
90.000000
  0
ARC
  8
CSLAYER1
  6
CONTINUOUS
 62
     1
 10
491.281927
 20
1002.747366
 40
1.000000
 50
270.000000
 51
360.000000
  0
LINE
  8
CSLAYER1
  6
CONTINUOUS
 62
     1
 10
462.531927
 20
1087.027095
 11
462.531927
 21
1135.609785
  0
LINE
  8
CSLAYER1
  6
CONTINUOUS
 62
     1
 10
464.031927
 20
1095.027095
 11
464.031927
 21
1135.609785
  0
LINE
  8
CSLAYER1
  6
CONTINUOUS
 62
     1
 10
481.031927
 20
1095.027095
 11
481.031927
 21
1135.609785
  0
LINE
  8
CSLAYER1
  6
CONTINUOUS
 62
     1
 10
482.531927
 20
1087.027095
 11
482.531927
 21
1135.609785
  0
LINE
  8
CSLAYER1
  6
CONTINUOUS
 62
     1
 10
490.431927
 20
807.979360
 11
490.431927
 21
1019.527092
  0
LINE
  8
CSLAYER1
  6
CONTINUOUS
 62
     1
 10
454.631927
 20
807.979360
 11
454.631927
 21
1019.527092
  0
POINT
  8
CSLAYER1
 62
     1
 10
472.531927
 20
757.479360
  0
LINE
  8
CSLAYER1
  6
CONTINUOUS
 62
     1
 10
454.631927
 20
744.479360
 11
454.631927
 21
802.229360
  0
LINE
  8
CSLAYER1
  6
CONTINUOUS
 62
     1
 10
452.781927
 20
753.709360
 11
452.781927
 21
761.259087
  0
LINE
  8
CSLAYER1
  6
CONTINUOUS
 62
     1
 10
459.006927
 20
744.479360
 11
454.631927
 21
744.479360
  0
LINE
  8
CSLAYER1
  6
CONTINUOUS
 62
     1
 10
454.631927
 20
762.259087
 11
453.781927
 21
762.259087
  0
ARC
  8
CSLAYER1
  6
CONTINUOUS
 62
     1
 10
453.781927
 20
753.709360
 40
1.000000
 50
180.000000
 51
270.000000
  0
ARC
  8
CSLAYER1
  6
CONTINUOUS
 62
     1
 10
453.781927
 20
761.259087
 40
1.000000
 50
90.000000
 51
180.000000
  0
LINE
  8
CSLAYER1
  6
CONTINUOUS
 62
     1
 10
486.056927
 20
744.479360
 11
486.056927
 21
836.029360
  0
LINE
  8
CSLAYER1
  6
CONTINUOUS
 62
     1
 10
490.431927
 20
744.479360
 11
490.431927
 21
802.229360
  0
LINE
  8
CSLAYER1
  6
CONTINUOUS
 62
     1
 10
492.281927
 20
753.709360
 11
492.281927
 21
761.259087
  0
LINE
  8
CSLAYER1
  6
CONTINUOUS
 62
     1
 10
486.056927
 20
744.479360
 11
490.431927
 21
744.479360
  0
LINE
  8
CSLAYER1
  6
CONTINUOUS
 62
     1
 10
490.431927
 20
752.709360
 11
491.281927
 21
752.709360
  0
LINE
  8
CSLAYER1
  6
CONTINUOUS
 62
     1
 10
490.431927
 20
762.259087
 11
491.281927
 21
762.259087
  0
ARC
  8
CSLAYER1
  6
CONTINUOUS
 62
     1
 10
491.281927
 20
753.709360
 40
1.000000
 50
270.000000
 51
360.000000
  0
ARC
  8
CSLAYER1
  6
CONTINUOUS
 62
     1
 10
491.281927
 20
761.259087
 40
1.000000
 50
0.000000
 51
90.000000
  0
LINE
  8
CSLAYER1
  6
CONTINUOUS
 62
     1
 10
485.056927
 20
747.479360
 11
480.531927
 21
747.479360
  0
LINE
  8
CSLAYER1
  6
CONTINUOUS
 62
     1
 10
486.056927
 20
748.479360
 11
485.056927
 21
747.479360
  0
LINE
  8
CSLAYER1
  6
CONTINUOUS
 62
     1
 10
460.006927
 20
747.479360
 11
459.006927
 21
748.479360
  0
LINE
  8
CSLAYER1
  6
CONTINUOUS
 62
     1
 10
485.056927
 20
767.479360
 11
480.531927
 21
767.479360
  0
LINE
  8
CSLAYER1
  6
CONTINUOUS
 62
     1
 10
486.056927
 20
766.479360
 11
485.056927
 21
767.479360
  0
LINE
  8
CSLAYER1
  6
CONTINUOUS
 62
     1
 10
460.006927
 20
767.479360
 11
459.006927
 21
766.479360
  0
LINE
  8
CSLAYER1
  6
CONTINUOUS
 62
     5
 10
445.048646
 20
789.229360
 11
497.576363
 21
789.229360
  0
LINE
  8
CSLAYER1
  6
CONTINUOUS
 62
     1
 10
486.056927
 20
802.229360
 11
490.431927
 21
802.229360
  0
LINE
  8
CSLAYER1
  6
CONTINUOUS
 62
     1
 10
492.281927
 20
785.459360
 11
492.281927
 21
793.009087
  0
LINE
  8
CSLAYER1
  6
CONTINUOUS
 62
     1
 10
490.431927
 20
784.459360
 11
491.281927
 21
784.459360
  0
LINE
  8
CSLAYER1
  6
CONTINUOUS
 62
     1
 10
490.431927
 20
794.009087
 11
491.281927
 21
794.009087
  0
ARC
  8
CSLAYER1
  6
CONTINUOUS
 62
     1
 10
491.281927
 20
785.459360
 40
1.000000
 50
270.000000
 51
360.000000
  0
ARC
  8
CSLAYER1
  6
CONTINUOUS
 62
     1
 10
491.281927
 20
793.009087
 40
1.000000
 50
0.000000
 51
90.000000
  0
LINE
  8
CSLAYER1
  6
CONTINUOUS
 62
     1
 10
459.006927
 20
802.229360
 11
454.631927
 21
802.229360
  0
LINE
  8
CSLAYER1
  6
CONTINUOUS
 62
     1
 10
454.631927
 20
752.709360
 11
453.781927
 21
752.709360
  0
LINE
  8
CSLAYER1
  6
CONTINUOUS
 62
     1
 10
452.781927
 20
785.459360
 11
452.781927
 21
793.009087
  0
LINE
  8
CSLAYER1
  6
CONTINUOUS
 62
     1
 10
454.631927
 20
784.459360
 11
453.781927
 21
784.459360
  0
LINE
  8
CSLAYER1
  6
CONTINUOUS
 62
     1
 10
454.631927
 20
794.009087
 11
453.781927
 21
794.009087
  0
ARC
  8
CSLAYER1
  6
CONTINUOUS
 62
     1
 10
453.781927
 20
785.459360
 40
1.000000
 50
180.000000
 51
270.000000
  0
ARC
  8
CSLAYER1
  6
CONTINUOUS
 62
     1
 10
453.781927
 20
793.009087
 40
1.000000
 50
90.000000
 51
180.000000
  0
POINT
  8
CSLAYER1
 62
     1
 10
472.531927
 20
789.229360
  0
LINE
  8
CSLAYER1
  6
CONTINUOUS
 62
     5
 10
445.894265
 20
757.479360
 11
498.371737
 21
757.479360
  0
POINT
  8
CSLAYER1
 62
     1
 10
472.531927
 20
820.979360
  0
LINE
  8
CSLAYER1
  6
CONTINUOUS
 62
     1
 10
459.006927
 20
836.029360
 11
459.006927
 21
744.479360
  0
LINE
  8
CSLAYER1
  6
CONTINUOUS
 62
     1
 10
463.006927
 20
836.029360
 11
463.006927
 21
774.179360
  0
LINE
  8
CSLAYER1
  6
CONTINUOUS
 62
     1
 10
463.006927
 20
836.029360
 11
459.006927
 21
836.029360
  0
LINE
  8
CSLAYER1
  6
CONTINUOUS
 62
     1
 10
464.006927
 20
811.454360
 11
481.056927
 21
811.454360
  0
LINE
  8
CSLAYER1
  6
CONTINUOUS
 62
     1
 10
464.006927
 20
830.504360
 11
481.056927
 21
830.504360
  0
ARC
  8
CSLAYER1
  6
CONTINUOUS
 62
     1
 10
464.006927
 20
812.454360
 40
1.000000
 50
180.000000
 51
270.000000
  0
ARC
  8
CSLAYER1
  6
CONTINUOUS
 62
     1
 10
464.006927
 20
829.504360
 40
1.000000
 50
90.000000
 51
180.000000
  0
LINE
  8
CSLAYER1
  6
CONTINUOUS
 62
     1
 10
482.056927
 20
836.029360
 11
482.056927
 21
774.179360
  0
LINE
  8
CSLAYER1
  6
CONTINUOUS
 62
     1
 10
482.056927
 20
836.029360
 11
486.056927
 21
836.029360
  0
ARC
  8
CSLAYER1
  6
CONTINUOUS
 62
     1
 10
481.056927
 20
812.454360
 40
1.000000
 50
270.000000
 51
360.000000
  0
ARC
  8
CSLAYER1
  6
CONTINUOUS
 62
     1
 10
481.056927
 20
829.504360
 40
1.000000
 50
0.000000
 51
90.000000
  0
LINE
  8
CSLAYER1
  6
CONTINUOUS
 62
     1
 10
452.781927
 20
817.209360
 11
452.781927
 21
824.759087
  0
LINE
  8
CSLAYER1
  6
CONTINUOUS
 62
     1
 10
459.006927
 20
807.979360
 11
454.631927
 21
807.979360
  0
LINE
  8
CSLAYER1
  6
CONTINUOUS
 62
     1
 10
454.631927
 20
816.209360
 11
453.781927
 21
816.209360
  0
LINE
  8
CSLAYER1
  6
CONTINUOUS
 62
     1
 10
454.631927
 20
825.759087
 11
453.781927
 21
825.759087
  0
ARC
  8
CSLAYER1
  6
CONTINUOUS
 62
     1
 10
453.781927
 20
817.209360
 40
1.000000
 50
180.000000
 51
270.000000
  0
ARC
  8
CSLAYER1
  6
CONTINUOUS
 62
     1
 10
453.781927
 20
824.759087
 40
1.000000
 50
90.000000
 51
180.000000
  0
LINE
  8
CSLAYER1
  6
CONTINUOUS
 62
     1
 10
492.281927
 20
817.209360
 11
492.281927
 21
824.759087
  0
LINE
  8
CSLAYER1
  6
CONTINUOUS
 62
     1
 10
486.056927
 20
807.979360
 11
490.431927
 21
807.979360
  0
LINE
  8
CSLAYER1
  6
CONTINUOUS
 62
     1
 10
490.431927
 20
816.209360
 11
491.281927
 21
816.209360
  0
LINE
  8
CSLAYER1
  6
CONTINUOUS
 62
     1
 10
490.431927
 20
825.759087
 11
491.281927
 21
825.759087
  0
ARC
  8
CSLAYER1
  6
CONTINUOUS
 62
     1
 10
491.281927
 20
817.209360
 40
1.000000
 50
270.000000
 51
360.000000
  0
ARC
  8
CSLAYER1
  6
CONTINUOUS
 62
     1
 10
491.281927
 20
824.759087
 40
1.000000
 50
0.000000
 51
90.000000
  0
LINE
  8
CSLAYER1
  6
CONTINUOUS
 62
     1
 10
463.006927
 20
774.179360
 11
459.006927
 21
774.179360
  0
LINE
  8
CSLAYER1
  6
CONTINUOUS
 62
     1
 10
464.006927
 20
798.754360
 11
481.056927
 21
798.754360
  0
LINE
  8
CSLAYER1
  6
CONTINUOUS
 62
     1
 10
464.006927
 20
779.704360
 11
481.056927
 21
779.704360
  0
ARC
  8
CSLAYER1
  6
CONTINUOUS
 62
     1
 10
464.006927
 20
797.754360
 40
1.000000
 50
90.000000
 51
180.000000
  0
ARC
  8
CSLAYER1
  6
CONTINUOUS
 62
     1
 10
464.006927
 20
780.704360
 40
1.000000
 50
180.000000
 51
270.000000
  0
LINE
  8
CSLAYER1
  6
CONTINUOUS
 62
     1
 10
482.056927
 20
774.179360
 11
486.056927
 21
774.179360
  0
ARC
  8
CSLAYER1
  6
CONTINUOUS
 62
     1
 10
481.056927
 20
797.754360
 40
1.000000
 50
0.000000
 51
90.000000
  0
ARC
  8
CSLAYER1
  6
CONTINUOUS
 62
     1
 10
481.056927
 20
780.704360
 40
1.000000
 50
270.000000
 51
360.000000
  0
LINE
  8
CSLAYER1
  6
CONTINUOUS
 62
     1
 10
464.531927
 20
774.479360
 11
480.531927
 21
774.479360
  0
LINE
  8
CSLAYER1
  6
CONTINUOUS
 62
     1
 10
464.531927
 20
767.479360
 11
460.006927
 21
767.479360
  0
LINE
  8
CSLAYER1
  6
CONTINUOUS
 62
     1
 10
464.531927
 20
747.479360
 11
460.006927
 21
747.479360
  0
LINE
  8
CSLAYER1
  6
CONTINUOUS
 62
     5
 10
445.894265
 20
820.979360
 11
498.371737
 21
820.979360
  0
LINE
  8
CSLAYER1
  6
CONTINUOUS
 62
     5
 10
852.239780
 20
1087.173750
 11
800.973513
 21
1087.173750
  0
LINE
  8
CSLAYER1
  6
CONTINUOUS
 62
     2
 10
849.231927
 20
1110.173750
 11
849.231927
 21
1079.173750
  0
LINE
  8
CSLAYER1
  6
CONTINUOUS
 62
     2
 10
849.231927
 20
1083.173750
 11
846.031927
 21
1083.173750
  0
LINE
  8
CSLAYER1
  6
CONTINUOUS
 62
     5
 10
853.722801
 20
1102.173750
 11
840.031927
 21
1102.173750
  0
LINE
  8
CSLAYER1
  6
CONTINUOUS
 62
     2
 10
849.231927
 20
1110.173750
 11
846.031927
 21
1110.173750
  0
LINE
  8
CSLAYER1
  6
CONTINUOUS
 62
     2
 10
804.031927
 20
1080.173750
 11
804.031927
 21
1094.173750
  0
LINE
  8
CSLAYER1
  6
CONTINUOUS
 62
     2
 10
804.031927
 20
1080.173750
 11
805.031927
 21
1079.173750
  0
LINE
  8
CSLAYER1
  6
CONTINUOUS
 62
     2
 10
849.231927
 20
1079.173750
 11
846.031927
 21
1079.173750
  0
LINE
  8
CSLAYER1
  6
CONTINUOUS
 62
     4
 10
846.031927
 20
1068.173750
 11
805.031927
 21
1068.173750
  0
LINE
  8
CSLAYER1
  6
CONTINUOUS
 62
     2
 10
804.031927
 20
1094.173750
 11
805.031927
 21
1095.173750
  0
LINE
  8
CSLAYER1
  6
CONTINUOUS
 62
     2
 10
849.231927
 20
1091.173750
 11
846.031927
 21
1091.173750
  0
LINE
  8
CSLAYER1
  6
CONTINUOUS
 62
     4
 10
480.531927
 20
673.822009
 11
485.531927
 21
673.822009
  0
LINE
  8
CSLAYER1
  6
CONTINUOUS
 62
     4
 10
486.531927
 20
674.822009
 11
486.531927
 21
700.822009
  0
LINE
  8
CSLAYER1
  6
CONTINUOUS
 62
     4
 10
486.531927
 20
674.822009
 11
485.531927
 21
673.822009
  0
LINE
  8
CSLAYER1
  6
CONTINUOUS
 62
     4
 10
485.531927
 20
673.822009
 11
480.465669
 21
668.837328
  0
LINE
  8
CSLAYER1
  6
CONTINUOUS
 62
     4
 10
480.531927
 20
668.902519
 11
485.451417
 21
673.822009
  0
LINE
  8
CSLAYER1
  6
CONTINUOUS
 62
     4
 10
480.531927
 20
669.185362
 11
485.168574
 21
673.822009
  0
LINE
  8
CSLAYER1
  6
CONTINUOUS
 62
     4
 10
480.531927
 20
669.468205
 11
484.885732
 21
673.822009
  0
LINE
  8
CSLAYER1
  6
CONTINUOUS
 62
     4
 10
480.531927
 20
669.751047
 11
484.602889
 21
673.822009
  0
LINE
  8
CSLAYER1
  6
CONTINUOUS
 62
     4
 10
480.531927
 20
670.033890
 11
484.320046
 21
673.822009
  0
LINE
  8
CSLAYER1
  6
CONTINUOUS
 62
     4
 10
480.531927
 20
670.316733
 11
484.037204
 21
673.822009
  0
LINE
  8
CSLAYER1
  6
CONTINUOUS
 62
     4
 10
480.531927
 20
670.599575
 11
483.754361
 21
673.822009
  0
LINE
  8
CSLAYER1
  6
CONTINUOUS
 62
     4
 10
480.531927
 20
670.882418
 11
483.471518
 21
673.822009
  0
LINE
  8
CSLAYER1
  6
CONTINUOUS
 62
     4
 10
480.531927
 20
671.165261
 11
483.188675
 21
673.822009
  0
LINE
  8
CSLAYER1
  6
CONTINUOUS
 62
     4
 10
480.531927
 20
671.448104
 11
482.905833
 21
673.822009
  0
LINE
  8
CSLAYER1
  6
CONTINUOUS
 62
     4
 10
480.531927
 20
671.730946
 11
482.622990
 21
673.822009
  0
LINE
  8
CSLAYER1
  6
CONTINUOUS
 62
     4
 10
480.531927
 20
672.013789
 11
482.340147
 21
673.822009
  0
LINE
  8
CSLAYER1
  6
CONTINUOUS
 62
     4
 10
480.531927
 20
672.296632
 11
482.057305
 21
673.822009
  0
LINE
  8
CSLAYER1
  6
CONTINUOUS
 62
     4
 10
480.531927
 20
672.579474
 11
481.774462
 21
673.822009
  0
LINE
  8
CSLAYER1
  6
CONTINUOUS
 62
     4
 10
480.531927
 20
672.862317
 11
481.491619
 21
673.822009
  0
LINE
  8
CSLAYER1
  6
CONTINUOUS
 62
     4
 10
480.531927
 20
673.145160
 11
481.208776
 21
673.822009
  0
LINE
  8
CSLAYER1
  6
CONTINUOUS
 62
     4
 10
480.531927
 20
673.428003
 11
480.925934
 21
673.822009
  0
LINE
  8
CSLAYER1
  6
CONTINUOUS
 62
     4
 10
480.531927
 20
673.710845
 11
480.643091
 21
673.822009
  0
LINE
  8
CSLAYER1
  6
CONTINUOUS
 62
     4
 10
480.531927
 20
701.822009
 11
485.531927
 21
701.822009
  0
LINE
  8
CSLAYER1
  6
CONTINUOUS
 62
     4
 10
486.531927
 20
700.822009
 11
485.531927
 21
701.822009
  0
LINE
  8
CSLAYER1
  6
CONTINUOUS
 62
     4
 10
463.531927
 20
706.822009
 11
462.531927
 21
707.822009
  0
LINE
  8
CSLAYER1
  6
CONTINUOUS
 62
     4
 10
485.531927
 20
701.822009
 11
480.465669
 21
706.806690
  0
LINE
  8
CSLAYER1
  6
CONTINUOUS
 62
     4
 10
480.531927
 20
706.741499
 11
485.451417
 21
701.822009
  0
LINE
  8
CSLAYER1
  6
CONTINUOUS
 62
     4
 10
480.531927
 20
706.458656
 11
485.168574
 21
701.822009
  0
LINE
  8
CSLAYER1
  6
CONTINUOUS
 62
     4
 10
480.531927
 20
706.175813
 11
484.885732
 21
701.822009
  0
LINE
  8
CSLAYER1
  6
CONTINUOUS
 62
     4
 10
480.531927
 20
705.892971
 11
484.602889
 21
701.822009
  0
LINE
  8
CSLAYER1
  6
CONTINUOUS
 62
     4
 10
480.531927
 20
705.610128
 11
484.320046
 21
701.822009
  0
LINE
  8
CSLAYER1
  6
CONTINUOUS
 62
     4
 10
480.531927
 20
705.327285
 11
484.037204
 21
701.822009
  0
LINE
  8
CSLAYER1
  6
CONTINUOUS
 62
     4
 10
480.531927
 20
705.044442
 11
483.754361
 21
701.822009
  0
LINE
  8
CSLAYER1
  6
CONTINUOUS
 62
     4
 10
480.531927
 20
704.761600
 11
483.471518
 21
701.822009
  0
LINE
  8
CSLAYER1
  6
CONTINUOUS
 62
     4
 10
480.531927
 20
704.478757
 11
483.188675
 21
701.822009
  0
LINE
  8
CSLAYER1
  6
CONTINUOUS
 62
     4
 10
480.531927
 20
704.195914
 11
482.905833
 21
701.822009
  0
LINE
  8
CSLAYER1
  6
CONTINUOUS
 62
     4
 10
480.531927
 20
703.913072
 11
482.622990
 21
701.822009
  0
LINE
  8
CSLAYER1
  6
CONTINUOUS
 62
     4
 10
480.531927
 20
703.630229
 11
482.340147
 21
701.822009
  0
LINE
  8
CSLAYER1
  6
CONTINUOUS
 62
     4
 10
480.531927
 20
703.347386
 11
482.057305
 21
701.822009
  0
LINE
  8
CSLAYER1
  6
CONTINUOUS
 62
     4
 10
480.531927
 20
703.064543
 11
481.774462
 21
701.822009
  0
LINE
  8
CSLAYER1
  6
CONTINUOUS
 62
     4
 10
480.531927
 20
702.781701
 11
481.491619
 21
701.822009
  0
LINE
  8
CSLAYER1
  6
CONTINUOUS
 62
     4
 10
480.531927
 20
702.498858
 11
481.208776
 21
701.822009
  0
LINE
  8
CSLAYER1
  6
CONTINUOUS
 62
     4
 10
480.531927
 20
702.216015
 11
480.925934
 21
701.822009
  0
LINE
  8
CSLAYER1
  6
CONTINUOUS
 62
     4
 10
480.531927
 20
701.933173
 11
480.643091
 21
701.822009
  0
LINE
  8
CSLAYER1
  6
CONTINUOUS
 62
     4
 10
383.558468
 20
666.472009
 11
424.531927
 21
666.472009
  0
LINE
  8
CSLAYER1
  6
CONTINUOUS
 62
     2
 10
485.531927
 20
673.822009
 11
485.531927
 21
701.822009
  0
LINE
  8
CSLAYER1
  6
CONTINUOUS
 62
     2
 10
463.531927
 20
706.822009
 11
463.531927
 21
668.822009
  0
LINE
  8
CSLAYER1
  6
CONTINUOUS
 62
     2
 10
382.558468
 20
708.172009
 11
382.558468
 21
667.472009
  0
LINE
  8
CSLAYER1
  6
CONTINUOUS
 62
     4
 10
382.558468
 20
667.472009
 11
383.558468
 21
666.472009
  0
LINE
  8
CSLAYER1
  6
CONTINUOUS
 62
     4
 10
342.558468
 20
697.822009
 11
342.558468
 21
677.822009
  0
LINE
  8
CSLAYER1
  6
CONTINUOUS
 62
     2
 10
361.558468
 20
706.322009
 11
361.558468
 21
669.322009
  0
LINE
  8
CSLAYER1
  6
CONTINUOUS
 62
     2
 10
356.458468
 20
704.822009
 11
356.458468
 21
670.822009
  0
LINE
  8
CSLAYER1
  6
CONTINUOUS
 62
     4
 10
344.458468
 20
704.822009
 11
344.458468
 21
670.822009
  0
LINE
  8
CSLAYER1
  6
CONTINUOUS
 62
     4
 10
361.558468
 20
704.822009
 11
344.458468
 21
704.822009
  0
LINE
  8
CSLAYER1
  6
CONTINUOUS
 62
     2
 10
356.458468
 20
697.822009
 11
342.558468
 21
697.822009
  0
LINE
  8
CSLAYER1
  6
CONTINUOUS
 62
     4
 10
361.558468
 20
670.822009
 11
344.458468
 21
670.822009
  0
LINE
  8
CSLAYER1
  6
CONTINUOUS
 62
     2
 10
356.458468
 20
677.822009
 11
342.558468
 21
677.822009
  0
LINE
  8
CSLAYER1
  6
CONTINUOUS
 62
     4
 10
364.558468
 20
706.322009
 11
361.558468
 21
706.322009
  0
LINE
  8
CSLAYER1
  6
CONTINUOUS
 62
     4
 10
364.558468
 20
669.322009
 11
361.558468
 21
669.322009
  0
LINE
  8
CSLAYER1
  6
CONTINUOUS
 62
     2
 10
364.558468
 20
669.322009
 11
364.558468
 21
706.322009
  0
LINE
  8
CSLAYER1
  6
CENTER
 62
     5
 10
328.147183
 20
687.822009
 11
507.154050
 21
687.822009
  0
LINE
  8
CSLAYER1
  6
CONTINUOUS
 62
     4
 10
364.558468
 20
675.322009
 11
365.531927
 21
675.322009
  0
LINE
  8
CSLAYER1
  6
CONTINUOUS
 62
     4
 10
383.558468
 20
709.172009
 11
424.531927
 21
709.172009
  0
LINE
  8
CSLAYER1
  6
CONTINUOUS
 62
     4
 10
382.558468
 20
708.172009
 11
383.558468
 21
709.172009
  0
LINE
  8
CSLAYER1
  6
CONTINUOUS
 62
     4
 10
364.558468
 20
700.322009
 11
365.531927
 21
700.322009
  0
LINE
  8
CSLAYER1
  6
CONTINUOUS
 62
     4
 10
419.531927
 20
666.472009
 11
424.531927
 21
661.472009
  0
LINE
  8
CSLAYER1
  6
CONTINUOUS
 62
     4
 10
424.531927
 20
661.754852
 11
419.814770
 21
666.472009
  0
LINE
  8
CSLAYER1
  6
CONTINUOUS
 62
     4
 10
424.531927
 20
662.037694
 11
420.097613
 21
666.472009
  0
LINE
  8
CSLAYER1
  6
CONTINUOUS
 62
     4
 10
424.531927
 20
662.320537
 11
420.380456
 21
666.472009
  0
LINE
  8
CSLAYER1
  6
CONTINUOUS
 62
     4
 10
424.531927
 20
662.603380
 11
420.663298
 21
666.472009
  0
LINE
  8
CSLAYER1
  6
CONTINUOUS
 62
     4
 10
424.531927
 20
662.886223
 11
420.946141
 21
666.472009
  0
LINE
  8
CSLAYER1
  6
CONTINUOUS
 62
     4
 10
424.531927
 20
663.169065
 11
421.228984
 21
666.472009
  0
LINE
  8
CSLAYER1
  6
CONTINUOUS
 62
     4
 10
424.531927
 20
663.451908
 11
421.511826
 21
666.472009
  0
LINE
  8
CSLAYER1
  6
CONTINUOUS
 62
     4
 10
424.531927
 20
663.734751
 11
421.794669
 21
666.472009
  0
LINE
  8
CSLAYER1
  6
CONTINUOUS
 62
     4
 10
424.531927
 20
664.017593
 11
422.077512
 21
666.472009
  0
LINE
  8
CSLAYER1
  6
CONTINUOUS
 62
     4
 10
424.531927
 20
664.300436
 11
422.360355
 21
666.472009
  0
LINE
  8
CSLAYER1
  6
CONTINUOUS
 62
     4
 10
424.531927
 20
664.583279
 11
422.643197
 21
666.472009
  0
LINE
  8
CSLAYER1
  6
CONTINUOUS
 62
     4
 10
424.531927
 20
664.866121
 11
422.926040
 21
666.472009
  0
LINE
  8
CSLAYER1
  6
CONTINUOUS
 62
     4
 10
424.531927
 20
665.148964
 11
423.208883
 21
666.472009
  0
LINE
  8
CSLAYER1
  6
CONTINUOUS
 62
     4
 10
424.531927
 20
665.431807
 11
423.491725
 21
666.472009
  0
LINE
  8
CSLAYER1
  6
CONTINUOUS
 62
     4
 10
424.531927
 20
665.714650
 11
423.774568
 21
666.472009
  0
LINE
  8
CSLAYER1
  6
CONTINUOUS
 62
     4
 10
424.531927
 20
665.997492
 11
424.057411
 21
666.472009
  0
LINE
  8
CSLAYER1
  6
CONTINUOUS
 62
     4
 10
424.531927
 20
666.280335
 11
424.340254
 21
666.472009
  0
LINE
  8
CSLAYER1
  6
CONTINUOUS
 62
     4
 10
440.531927
 20
712.539166
 11
445.249085
 21
707.822009
  0
LINE
  8
CSLAYER1
  6
CONTINUOUS
 62
     4
 10
440.531927
 20
712.256324
 11
444.966242
 21
707.822009
  0
LINE
  8
CSLAYER1
  6
CONTINUOUS
 62
     4
 10
440.531927
 20
711.973481
 11
444.683399
 21
707.822009
  0
LINE
  8
CSLAYER1
  6
CONTINUOUS
 62
     4
 10
440.531927
 20
711.690638
 11
444.400557
 21
707.822009
  0
LINE
  8
CSLAYER1
  6
CONTINUOUS
 62
     4
 10
440.531927
 20
711.407795
 11
444.117714
 21
707.822009
  0
LINE
  8
CSLAYER1
  6
CONTINUOUS
 62
     4
 10
440.531927
 20
711.124953
 11
443.834871
 21
707.822009
  0
LINE
  8
CSLAYER1
  6
CONTINUOUS
 62
     4
 10
440.531927
 20
710.842110
 11
443.552028
 21
707.822009
  0
LINE
  8
CSLAYER1
  6
CONTINUOUS
 62
     4
 10
440.531927
 20
710.559267
 11
443.269186
 21
707.822009
  0
LINE
  8
CSLAYER1
  6
CONTINUOUS
 62
     4
 10
440.531927
 20
710.276425
 11
442.986343
 21
707.822009
  0
LINE
  8
CSLAYER1
  6
CONTINUOUS
 62
     4
 10
440.531927
 20
709.993582
 11
442.703500
 21
707.822009
  0
LINE
  8
CSLAYER1
  6
CONTINUOUS
 62
     4
 10
440.531927
 20
709.710739
 11
442.420658
 21
707.822009
  0
LINE
  8
CSLAYER1
  6
CONTINUOUS
 62
     4
 10
440.531927
 20
709.427896
 11
442.137815
 21
707.822009
  0
LINE
  8
CSLAYER1
  6
CONTINUOUS
 62
     4
 10
440.531927
 20
709.145054
 11
441.854972
 21
707.822009
  0
LINE
  8
CSLAYER1
  6
CONTINUOUS
 62
     4
 10
440.531927
 20
708.862211
 11
441.572129
 21
707.822009
  0
LINE
  8
CSLAYER1
  6
CONTINUOUS
 62
     4
 10
440.531927
 20
708.579368
 11
441.289287
 21
707.822009
  0
LINE
  8
CSLAYER1
  6
CONTINUOUS
 62
     4
 10
440.531927
 20
708.296526
 11
441.006444
 21
707.822009
  0
LINE
  8
CSLAYER1
  6
CONTINUOUS
 62
     4
 10
440.531927
 20
708.013683
 11
440.723601
 21
707.822009
  0
LINE
  8
CSLAYER1
  6
CONTINUOUS
 62
     4
 10
419.531927
 20
709.172009
 11
424.531927
 21
714.172009
  0
LINE
  8
CSLAYER1
  6
CONTINUOUS
 62
     4
 10
424.531927
 20
713.889166
 11
419.814770
 21
709.172009
  0
LINE
  8
CSLAYER1
  6
CONTINUOUS
 62
     4
 10
424.531927
 20
713.606324
 11
420.097613
 21
709.172009
  0
LINE
  8
CSLAYER1
  6
CONTINUOUS
 62
     4
 10
424.531927
 20
713.323481
 11
420.380456
 21
709.172009
  0
LINE
  8
CSLAYER1
  6
CONTINUOUS
 62
     4
 10
424.531927
 20
713.040638
 11
420.663298
 21
709.172009
  0
LINE
  8
CSLAYER1
  6
CONTINUOUS
 62
     4
 10
424.531927
 20
712.757795
 11
420.946141
 21
709.172009
  0
LINE
  8
CSLAYER1
  6
CONTINUOUS
 62
     4
 10
424.531927
 20
712.474953
 11
421.228984
 21
709.172009
  0
LINE
  8
CSLAYER1
  6
CONTINUOUS
 62
     4
 10
424.531927
 20
712.192110
 11
421.511826
 21
709.172009
  0
LINE
  8
CSLAYER1
  6
CONTINUOUS
 62
     4
 10
424.531927
 20
711.909267
 11
421.794669
 21
709.172009
  0
LINE
  8
CSLAYER1
  6
CONTINUOUS
 62
     4
 10
424.531927
 20
711.626425
 11
422.077512
 21
709.172009
  0
LINE
  8
CSLAYER1
  6
CONTINUOUS
 62
     4
 10
424.531927
 20
711.343582
 11
422.360355
 21
709.172009
  0
LINE
  8
CSLAYER1
  6
CONTINUOUS
 62
     4
 10
424.531927
 20
711.060739
 11
422.643197
 21
709.172009
  0
LINE
  8
CSLAYER1
  6
CONTINUOUS
 62
     4
 10
424.531927
 20
710.777896
 11
422.926040
 21
709.172009
  0
LINE
  8
CSLAYER1
  6
CONTINUOUS
 62
     4
 10
424.531927
 20
710.495054
 11
423.208883
 21
709.172009
  0
LINE
  8
CSLAYER1
  6
CONTINUOUS
 62
     4
 10
424.531927
 20
710.212211
 11
423.491725
 21
709.172009
  0
LINE
  8
CSLAYER1
  6
CONTINUOUS
 62
     4
 10
424.531927
 20
709.929368
 11
423.774568
 21
709.172009
  0
LINE
  8
CSLAYER1
  6
CONTINUOUS
 62
     4
 10
424.531927
 20
709.646526
 11
424.057411
 21
709.172009
  0
LINE
  8
CSLAYER1
  6
CONTINUOUS
 62
     4
 10
424.531927
 20
709.363683
 11
424.340254
 21
709.172009
  0
LINE
  8
CSLAYER1
  6
CONTINUOUS
 62
     4
 10
441.572129
 20
707.822009
 11
440.531927
 21
707.822009
  0
LINE
  8
CSLAYER1
  6
CONTINUOUS
 62
     2
 10
480.531927
 20
663.822009
 11
464.531927
 21
663.822009
  0
LINE
  8
CSLAYER1
  6
CONTINUOUS
 62
     4
 10
442.723601
 20
707.822009
 11
462.531927
 21
707.822009
  0
LINE
  8
CSLAYER1
  6
CONTINUOUS
 62
     4
 10
463.531927
 20
702.822009
 11
464.531927
 21
702.822009
  0
LINE
  8
CSLAYER1
  6
CONTINUOUS
 62
     4
 10
463.531927
 20
672.822009
 11
464.531927
 21
672.822009
  0
LINE
  8
CSLAYER1
  6
CONTINUOUS
 62
     4
 10
381.531927
 20
702.822009
 11
382.558468
 21
702.822009
  0
LINE
  8
CSLAYER1
  6
CONTINUOUS
 62
     4
 10
381.531927
 20
672.822009
 11
382.558468
 21
672.822009
  0
LINE
  8
CSLAYER1
  6
CONTINUOUS
 62
     4
 10
463.531927
 20
668.822009
 11
462.531927
 21
667.822009
  0
LINE
  8
CSLAYER1
  6
CONTINUOUS
 62
     4
 10
440.531927
 20
663.104852
 11
445.249085
 21
667.822009
  0
LINE
  8
CSLAYER1
  6
CONTINUOUS
 62
     4
 10
440.531927
 20
663.387694
 11
444.966242
 21
667.822009
  0
LINE
  8
CSLAYER1
  6
CONTINUOUS
 62
     4
 10
440.531927
 20
663.670537
 11
444.683399
 21
667.822009
  0
LINE
  8
CSLAYER1
  6
CONTINUOUS
 62
     4
 10
440.531927
 20
663.953380
 11
444.400557
 21
667.822009
  0
LINE
  8
CSLAYER1
  6
CONTINUOUS
 62
     4
 10
440.531927
 20
664.236223
 11
444.117714
 21
667.822009
  0
LINE
  8
CSLAYER1
  6
CONTINUOUS
 62
     4
 10
440.531927
 20
664.519065
 11
443.834871
 21
667.822009
  0
LINE
  8
CSLAYER1
  6
CONTINUOUS
 62
     4
 10
440.531927
 20
664.801908
 11
443.552028
 21
667.822009
  0
LINE
  8
CSLAYER1
  6
CONTINUOUS
 62
     4
 10
440.531927
 20
665.084751
 11
443.269186
 21
667.822009
  0
LINE
  8
CSLAYER1
  6
CONTINUOUS
 62
     4
 10
440.531927
 20
665.367593
 11
442.986343
 21
667.822009
  0
LINE
  8
CSLAYER1
  6
CONTINUOUS
 62
     4
 10
440.531927
 20
665.650436
 11
442.703500
 21
667.822009
  0
LINE
  8
CSLAYER1
  6
CONTINUOUS
 62
     4
 10
440.531927
 20
665.933279
 11
442.420658
 21
667.822009
  0
LINE
  8
CSLAYER1
  6
CONTINUOUS
 62
     4
 10
440.531927
 20
666.216121
 11
442.137815
 21
667.822009
  0
LINE
  8
CSLAYER1
  6
CONTINUOUS
 62
     4
 10
440.531927
 20
666.498964
 11
441.854972
 21
667.822009
  0
LINE
  8
CSLAYER1
  6
CONTINUOUS
 62
     4
 10
440.531927
 20
666.781807
 11
441.572129
 21
667.822009
  0
LINE
  8
CSLAYER1
  6
CONTINUOUS
 62
     4
 10
440.531927
 20
667.064650
 11
441.289287
 21
667.822009
  0
LINE
  8
CSLAYER1
  6
CONTINUOUS
 62
     4
 10
440.531927
 20
667.347492
 11
441.006444
 21
667.822009
  0
LINE
  8
CSLAYER1
  6
CONTINUOUS
 62
     4
 10
440.531927
 20
667.630335
 11
440.723601
 21
667.822009
  0
LINE
  8
CSLAYER1
  6
CONTINUOUS
 62
     4
 10
441.572129
 20
667.822009
 11
440.531927
 21
667.822009
  0
LINE
  8
CSLAYER1
  6
CONTINUOUS
 62
     4
 10
442.723601
 20
667.822009
 11
462.531927
 21
667.822009
  0
LINE
  8
CSLAYER1
  6
CONTINUOUS
 62
     4
 10
381.531927
 20
643.388411
 11
424.531927
 21
643.388411
  0
LINE
  8
CSLAYER1
  6
CONTINUOUS
 62
     5
 10
3408.367069
 20
1837.109842
 11
2687.494552
 21
1837.109842
  0
LINE
  8
CSLAYER1
  6
CONTINUOUS
 62
     5
 10
3408.367069
 20
1773.109843
 11
2687.494552
 21
1773.109843
  0
LINE
  8
CSLAYER1
  6
CONTINUOUS
 62
     5
 10
3408.367069
 20
1709.109845
 11
2687.494552
 21
1709.109845
  0
LINE
  8
CSLAYER1
  6
CONTINUOUS
 62
     5
 10
3408.367069
 20
1645.109847
 11
2688.367087
 21
1645.109847
  0
LINE
  8
CSLAYER1
  6
CONTINUOUS
 62
     5
 10
3408.367069
 20
1581.109848
 11
2687.494552
 21
1581.109848
  0
LINE
  8
CSLAYER1
  6
CONTINUOUS
 62
     5
 10
3408.367069
 20
1517.109850
 11
2687.494552
 21
1517.109850
  0
LINE
  8
CSLAYER1
  6
CONTINUOUS
 62
     5
 10
3408.367069
 20
1453.109851
 11
2687.494552
 21
1453.109851
  0
LINE
  8
CSLAYER1
  6
CONTINUOUS
 62
     5
 10
3408.367069
 20
1389.109853
 11
2687.494552
 21
1389.109853
  0
LINE
  8
CSLAYER1
  6
CONTINUOUS
 62
     5
 10
3408.367069
 20
1325.109855
 11
2687.494552
 21
1325.109855
  0
TEXT
  8
CSLAYER1
 62
     5
 10
2883.218262
 20
1916.928833
 40
40.000000
 41
0.857143
  1
仕   様
 50
0.000000
 51
0.000000
  7
EASYDRAW_FONT
 72
     5
 11
3043.218262
 21
1916.928833
  0
TEXT
  8
CSLAYER1
 62
     5
 10
2698.253906
 20
1845.332642
 40
40.000000
 41
0.847059
  1
型    式
 50
0.000000
 51
0.000000
  7
EASYDRAW_FONT
 72
     5
 11
2890.253906
 21
1845.332642
  0
TEXT
  8
CSLAYER1
 62
     5
 10
2696.434326
 20
1722.842896
 40
40.000000
 41
0.847059
  1
テーブル寸法
 50
0.000000
 51
0.000000
  7
EASYDRAW_FONT
 72
     5
 11
2888.434326
 21
1722.842896
  0
TEXT
  8
CSLAYER1
 62
     5
 10
2698.253906
 20
1659.778931
 40
40.000000
 41
0.847059
  1
テーブル高サ
 50
0.000000
 51
0.000000
  7
EASYDRAW_FONT
 72
     5
 11
2890.253906
 21
1659.778931
  0
TEXT
  8
CSLAYER1
 62
     5
 10
2699.700684
 20
1594.896118
 40
40.000000
 41
0.857143
  1
ストローク
 50
0.000000
 51
0.000000
  7
EASYDRAW_FONT
 72
     5
 11
2859.700684
 21
1594.896118
  0
TEXT
  8
CSLAYER1
 62
     5
 10
2699.094482
 20
1530.013306
 40
40.000000
 41
0.857143
  1
全   長
 50
0.000000
 51
0.000000
  7
EASYDRAW_FONT
 72
     5
 11
2859.094482
 21
1530.013306
  0
TEXT
  8
CSLAYER1
 62
     5
 10
2701.365723
 20
1464.162720
 40
40.000000
 41
0.857143
  1
全   巾
 50
0.000000
 51
0.000000
  7
EASYDRAW_FONT
 72
     5
 11
2861.365723
 21
1464.162720
  0
TEXT
  8
CSLAYER1
 62
     5
 10
2699.807861
 20
1400.277466
 40
40.000000
 41
0.857143
  1
全   高
 50
0.000000
 51
0.000000
  7
EASYDRAW_FONT
 72
     5
 11
2859.807861
 21
1400.277466
  0
TEXT
  8
CSLAYER1
 62
     5
 10
2699.807861
 20
1337.950806
 40
40.000000
 41
0.857143
  1
リフト方式
 50
0.000000
 51
0.000000
  7
EASYDRAW_FONT
 72
     5
 11
2859.807861
 21
1337.950806
  0
TEXT
  8
CSLAYER1
 62
     5
 10
3337.833008
 20
1780.168091
 40
40.000000
 41
0.960000
  1
Ｋｇ
 50
0.000000
 51
0.000000
  7
EASYDRAW_FONT
 72
     5
 11
3401.833008
 21
1780.168091
  0
TEXT
  8
CSLAYER1
 62
     5
 10
3284.014893
 20
1731.024536
 40
40.000000
 41
1.200000
  1
Ｗ
 50
0.000000
 51
0.000000
  7
EASYDRAW_FONT
 72
     5
 11
3316.014893
 21
1731.024536
  0
TEXT
  8
CSLAYER1
 62
     5
 10
3123.894287
 20
1734.547485
 40
40.000000
 41
1.200000
  1
Ｌ
 50
0.000000
 51
0.000000
  7
EASYDRAW_FONT
 72
     5
 11
3155.894287
 21
1734.547485
  0
TEXT
  8
CSLAYER1
 62
     5
 10
3002.844971
 20
1338.905396
 40
40.000000
 41
0.834783
  1
電動ボールネジ式
 50
0.000000
 51
0.000000
  7
EASYDRAW_FONT
 72
     5
 11
3258.844971
 21
1338.905396
  0
TEXT
  8
CSLAYER1
 62
     5
 10
3335.318848
 20
1716.064575
 40
40.000000
 41
0.960000
  1
mm
 50
0.000000
 51
0.000000
  7
EASYDRAW_FONT
 72
     5
 11
3399.318848
 21
1716.064575
  0
TEXT
  8
CSLAYER1
 62
     5
 10
3335.318848
 20
1655.731567
 40
40.000000
 41
0.960000
  1
mm
 50
0.000000
 51
0.000000
  7
EASYDRAW_FONT
 72
     5
 11
3399.318848
 21
1655.731567
  0
TEXT
  8
CSLAYER1
 62
     5
 10
3331.548096
 20
1591.627563
 40
40.000000
 41
0.960000
  1
mm
 50
0.000000
 51
0.000000
  7
EASYDRAW_FONT
 72
     5
 11
3395.548096
 21
1591.627563
  0
TEXT
  8
CSLAYER1
 62
     5
 10
3331.548096
 20
1523.752563
 40
40.000000
 41
0.960000
  1
mm
 50
0.000000
 51
0.000000
  7
EASYDRAW_FONT
 72
     5
 11
3395.548096
 21
1523.752563
  0
TEXT
  8
CSLAYER1
 62
     5
 10
3329.034668
 20
1463.419556
 40
40.000000
 41
0.960000
  1
mm
 50
0.000000
 51
0.000000
  7
EASYDRAW_FONT
 72
     5
 11
3393.034668
 21
1463.419556
  0
TEXT
  8
CSLAYER1
 62
     5
 10
3329.034668
 20
1399.315063
 40
40.000000
 41
0.960000
  1
mm
 50
0.000000
 51
0.000000
  7
EASYDRAW_FONT
 72
     5
 11
3393.034668
 21
1399.315063
  0
LINE
  8
CSLAYER1
  6
CONTINUOUS
 62
     5
 10
3071.271490
 20
1901.109840
 11
2862.885518
 21
1901.109840
  0
LINE
  8
CSLAYER1
  6
CONTINUOUS
 62
     5
 10
3071.271490
 20
1909.109840
 11
2862.885518
 21
1909.109840
  0
TEXT
  8
CSLAYER1
 62
     5
 10
3157.921875
 20
1784.842896
 40
40.000000
 41
0.872727
  1
１０００
 50
0.000000
 51
0.000000
  7
EASYDRAW_FONT
 72
     5
 11
3285.921875
 21
1784.842896
  0
TEXT
  8
CSLAYER1
 62
     5
 10
2995.894287
 20
1720.941040
 40
40.000000
 41
0.830769
  1
１２００　×８００
 50
0.000000
 51
0.000000
  7
EASYDRAW_FONT
 72
     5
 11
3283.894287
 21
1720.941040
  0
TEXT
  8
CSLAYER1
 62
     5
 10
3029.091064
 20
1657.368774
 40
40.000000
 41
0.834783
  1
２３０～１０１０
 50
0.000000
 51
0.000000
  7
EASYDRAW_FONT
 72
     5
 11
3285.091064
 21
1657.368774
  0
TEXT
  8
CSLAYER1
 62
     5
 10
3182.360107
 20
1591.840454
 40
40.000000
 41
0.900000
  1
７８０
 50
0.000000
 51
0.000000
  7
EASYDRAW_FONT
 72
     5
 11
3278.360107
 21
1591.840454
  0
TEXT
  8
CSLAYER1
 62
     5
 10
3150.780273
 20
1529.034790
 40
40.000000
 41
0.872727
  1
１２００
 50
0.000000
 51
0.000000
  7
EASYDRAW_FONT
 72
     5
 11
3278.780273
 21
1529.034790
  0
TEXT
  8
CSLAYER1
 62
     5
 10
3178.951904
 20
1464.281372
 40
40.000000
 41
0.900000
  1
８００
 50
0.000000
 51
0.000000
  7
EASYDRAW_FONT
 72
     5
 11
3274.951904
 21
1464.281372
  0
TEXT
  8
CSLAYER1
 62
     5
 10
3178.465088
 20
1399.528442
 40
40.000000
 41
0.900000
  1
２３０
 50
0.000000
 51
0.000000
  7
EASYDRAW_FONT
 72
     5
 11
3274.465088
 21
1399.528442
  0
TEXT
  8
CSLAYER2
 62
     5
 10
2963.039551
 20
1844.984497
 40
40.000000
 41
0.821053
  1
GLI-1000-0812
 50
0.000000
 51
0.000000
  7
EASYDRAW_FONT
 72
     5
 11
3379.039551
 21
1844.984497
  0
TEXT
  8
CSLAYER1
 62
     4
 10
2697.236328
 20
1215.803833
 40
40.000000
 41
1.036364
  1
操作方式
 50
0.000000
 51
0.000000
  7
EASYDRAW_FONT
 72
     5
 11
2849.236328
 21
1215.803833
  0
TEXT
  8
CSLAYER1
 62
     4
 10
2978.877930
 20
1210.510864
 40
40.000000
 41
1.020000
  1
フットスイッチ
 50
0.000000
 51
0.000000
  7
EASYDRAW_FONT
 72
     5
 11
3250.877930
 21
1210.510864
  0
LINE
  8
CSLAYER1
  6
CONTINUOUS
 62
     5
 10
3408.367069
 20
1203.777852
 11
2687.494552
 21
1203.777852
  0
LINE
  8
CSLAYER1
  6
CONTINUOUS
 62
     5
 10
3408.367069
 20
1139.777853
 11
2687.494552
 21
1139.777853
  0
TEXT
  8
CSLAYER1
 62
     4
 10
2698.667480
 20
1149.731079
 40
40.000000
 41
0.872727
  1
モーター
 50
0.000000
 51
0.000000
  7
EASYDRAW_FONT
 72
     5
 11
2826.667480
 21
1149.731079
  0
LINE
  8
CSLAYER1
  6
CONTINUOUS
 62
     5
 10
3408.367069
 20
1075.777855
 11
2687.494552
 21
1075.777855
  0
LINE
  8
CSLAYER1
  6
CONTINUOUS
 62
     5
 10
3408.367069
 20
947.777858
 11
2685.356050
 21
947.777858
  0
LINE
  8
CSLAYER1
  6
CONTINUOUS
 62
     5
 10
3408.367069
 20
883.777860
 11
2687.494552
 21
883.777860
  0
LINE
  8
CSLAYER1
  6
CONTINUOUS
 62
     5
 10
3408.367069
 20
819.777861
 11
2687.494552
 21
819.777861
  0
TEXT
  8
CSLAYER1
 62
     4
 10
2701.249023
 20
830.899780
 40
40.000000
 41
0.857143
  1
自  　重
 50
0.000000
 51
0.000000
  7
EASYDRAW_FONT
 72
     5
 11
2861.249023
 21
830.899780
  0
TEXT
  8
CSLAYER1
 62
     4
 10
2704.198242
 20
766.828491
 40
40.000000
 41
0.847059
  1
塗　装　色 
 50
0.000000
 51
0.000000
  7
EASYDRAW_FONT
 72
     5
 11
2896.198242
 21
766.828491
  0
TEXT
  8
CSLAYER1
 62
     4
 10
2929.773926
 20
1150.648071
 40
40.000000
 41
0.819512
  1
３相ＡＣ２００Ｖ、0.4ＫＷ
 50
0.000000
 51
0.000000
  7
EASYDRAW_FONT
 72
     5
 11
3377.773926
 21
1150.648071
  0
TEXT
  8
CSLAYER1
 62
     4
 10
3060.757324
 20
1086.804565
 40
40.000000
 41
0.840000
  1
長サ  ４ ｍ
 50
0.000000
 51
0.000000
  7
EASYDRAW_FONT
 72
     5
 11
3284.757324
 21
1086.804565
  0
TEXT
  8
CSLAYER1
 62
     3
 10
3173.396973
 20
832.799194
 40
40.000000
 41
0.847059
  1
２０２　Ｋｇ
 50
0.000000
 51
0.000000
  7
EASYDRAW_FONT
 72
     5
 11
3365.396973
 21
832.799194
  0
LINE
  8
CSLAYER1
  6
CONTINUOUS
 62
     5
 10
3408.367069
 20
1011.777857
 11
2687.494552
 21
1011.777857
  0
TEXT
  8
CSLAYER1
 62
     4
 10
2699.583740
 20
1086.413940
 40
40.000000
 41
0.942857
  1
電源コード
 50
0.000000
 51
0.000000
  7
EASYDRAW_FONT
 72
     5
 11
2875.583740
 21
1086.413940
  0
TEXT
  8
CSLAYER1
 62
     4
 10
2700.012711
 20
1017.292490
 40
47.730206
 41
0.593339
  1
昇降時間 ３６秒（50HZ） ３０秒(60HZ)
 50
0.000000
 51
0.000000
  7
EASYDRAW_FONT
 72
     5
 11
3370.257797
 21
1017.292490
  0
TEXT
  8
CSLAYER1
 62
     4
 10
2701.645020
 20
894.082153
 40
40.000000
 41
0.912766
  1
上昇端、下降端リミットスイッチ付
 50
0.000000
 51
0.000000
  7
EASYDRAW_FONT
 72
     5
 11
3273.645020
 21
894.082153
  0
TEXT
  8
CSLAYER1
 62
     4
 10
2703.160211
 20
956.513111
 40
45.879784
 41
0.605080
  1
最大使用頻度８０回／時間・最大起動頻度１０回／分
 50
0.000000
 51
0.000000
  7
EASYDRAW_FONT
 72
     5
 11
3360.168890
 21
956.513111
  0
LINE
  8
CSLAYER1
  6
CONTINUOUS
 62
     5
 10
3408.367069
 20
1261.109856
 11
2687.494552
 21
1261.109856
  0
TEXT
  8
CSLAYER1
 62
     4
 10
2897.322754
 20
1272.843872
 40
40.000000
 41
0.825000
  1
マグネットスイッチ制御
 50
0.000000
 51
0.000000
  7
EASYDRAW_FONT
 72
     5
 11
3249.322754
 21
1272.843872
  0
TEXT
  8
CSLAYER1
 62
     4
 10
2700.935547
 20
1270.854614
 40
40.000000
 41
0.872727
  1
制御方式
 50
0.000000
 51
0.000000
  7
EASYDRAW_FONT
 72
     5
 11
2828.935547
 21
1270.854614
  0
DIMENSION
  8
CSLAYER1
 62
     3
  2
*D0004
 10
2328.705884
 20
1361.373750
 11
1728.705933
 21
1371.373779
 13
1128.705884
 23
1286.373750
 14
2328.705884
 24
1286.373750
 70
1
  0
DIMENSION
  8
CSLAYER1
 62
     3
  2
*D0005
 10
897.531927
 20
186.470271
 11
597.531921
 21
196.470276
 13
297.531927
 23
261.470271
 14
897.531927
 24
261.470271
 52
270.000000
 70
1
  0
DIMENSION
  8
CSLAYER1
 62
     3
  2
*D0006
 10
2328.705884
 20
186.470271
 11
1728.705933
 21
196.470276
 13
1128.705884
 23
261.470271
 14
2328.705884
 24
261.470271
 52
270.000000
 70
1
  0
INSERT
  8
CSLAYER1
  2
BLKF0011
 10
0.0
 20
0.0
 30
0.0
  0
TEXT
  8
CSLAYER1
 62
     5
 10
2973.172607
 20
1994.341187
 40
40.000000
 41
1.020000
  1
コード長サ２ｍ
 50
360.000000
 51
0.000000
  7
EASYDRAW_FONT
 72
     5
 11
3245.172607
 21
1994.341187
  0
LINE
  8
CSLAYER1
  6
CONTINUOUS
 62
     5
 10
3408.367069
 20
755.777863
 11
2687.494552
 21
755.777863
  0
TEXT
  8
CSLAYER1
 62
     4
 10
3012.796631
 20
766.449097
 40
40.000000
 41
0.926087
  1
　１０Ｒ４／１３
 50
0.000000
 51
0.000000
  7
EASYDRAW_FONT
 72
     5
 11
3296.796631
 21
766.449097
  0
TEXT
  8
CSLAYER1
 62
     5
 10
2697.236328
 20
1785.135864
 40
40.000000
 41
1.036364
  1
積載荷重
 50
0.000000
 51
0.000000
  7
EASYDRAW_FONT
 72
     5
 11
2849.236328
 21
1785.135864
  0
ENDSEC
  0
EOF
