  0
SECTION
  2
HEADER
  9
$ACADVER
  1
AC1006
  9
$INSBASE
 10
93.412052
 20
2239.332248
 30
0.0
  9
$EXTMIN
 10
93.412052
 20
2239.332248
  9
$EXTMAX
 10
3733.412052
 20
4809.332248
  9
$LIMMIN
 10
93.412052
 20
2239.332248
  9
$LIMMAX
 10
3733.412052
 20
4809.332248
  9
$VIEWCTR
 10
1913.412052
 20
3524.332248
  9
$VIEWSIZE
 40
2570.000000
  9
$SNAPMODE
 70
     0
  9
$SNAPUNIT
 10
1.0
 20
1.0
  9
$SNAPBASE
 10
0.0
 20
0.0
  9
$SNAPANG
 50
0.0
  9
$SNAPSTYLE
 70
     0
  9
$SNAPISOPAIR
 70
     0
  9
$GRIDMODE
 70
     0
  9
$GRIDUNIT
 10
0.0
 20
0.0
  9
$ORTHOMODE
 70
     0
  9
$REGENMODE
 70
     1
  9
$FILLMODE
 70
     1
  9
$QTEXTMODE
 70
     0
  9
$DRAGMODE
 70
     2
  9
$LTSCALE
 40
15.000000
  9
$OSMODE
 70
     0
  9
$ATTMODE
 70
     1
  9
$TEXTSIZE
 40
0.2
  9
$TRACEWID
 40
0.05
  9
$TEXTSTYLE
  7
STANDARD
  9
$CLAYER
  8
CSLAYER1
  9
$CELTYPE
  6
BYLAYER
  9
$CECOLOR
 62
   256
  9
$DIMSCALE
 40
1.0
  9
$DIMASZ
 40
0.18
  9
$DIMEXO
 40
0.0625
  9
$DIMDLI
 40
0.38
  9
$DIMRND
 40
0.0
  9
$DIMDLE
 40
0.0
  9
$DIMEXE
 40
0.18
  9
$DIMTP
 40
0.0
  9
$DIMTM
 40
0.0
  9
$DIMTXT
 40
0.18
  9
$DIMCEN
 40
0.09
  9
$DIMTSZ
 40
0.0
  9
$DIMTOL
 70
     0
  9
$DIMLIM
 70
     0
  9
$DIMTIH
 70
     1
  9
$DIMTOH
 70
     1
  9
$DIMSE1
 70
     0
  9
$DIMSE2
 70
     0
  9
$DIMTAD
 70
     0
  9
$DIMZIN
 70
     0
  9
$DIMBLK
  1

  9
$LUNITS
 70
     2
  9
$LUPREC
 70
     4
  9
$AXISMODE
 70
     0
  9
$AXISUNIT
 10
0.0
 20
0.0
  9
$SKETCHINC
 40
0.1
  9
$FILLETRAD
 40
0.0
  9
$AUNITS
 70
     0
  9
$AUPREC
 70
     0
  9
$MENU
  1
ACAD
  9
$ELEVATION
 40
0.0
  9
$THICKNESS
 40
0.0
  9
$VIEWDIR
 10
0.0
 20
0.0
 30
1.0
  9
$LIMCHECK
 70
     0
  9
$BLIPMODE
 70
     1
  9
$CHAMFERA
 40
0.0
  9
$CHAMFERB
 40
0.0
  9
$FASTZOOM
 70
     1
  9
$SKPOLY
 70
     0
  9
$TDCREATE
 40
2457497.000000
  9
$TDUPDATE
 40
2457497.000000
  9
$TDINDWG
 40
0.0
  9
$TDUSRTIMER
 40
0.0
  9
$USRTIMER
 70
     1
  9
$ANGBASE
 50
0.0
  9
$ANGDIR
 70
     0
  9
$PDMODE
 70
     0
  9
$PDSIZE
 40
0.0
  9
$PLINEWID
 40
0.0
  9
$COORDS
 70
     0
  9
$USERI1
 70
     0
  9
$USERI2
 70
     0
  9
$USERI3
 70
     0
  9
$USERI4
 70
     0
  9
$USERI5
 70
     0
  9
$USERR1
 40
0.0
  9
$USERR2
 40
0.0
  9
$USERR3
 40
0.0
  9
$USERR4
 40
0.0
  9
$USERR5
 40
0.0
  0
ENDSEC
  0
SECTION
  2
TABLES
  0
TABLE
  2
LTYPE
 70
     9
  0
LTYPE
  2
CONTINUOUS
 70
    64
  3
Solid line
 72
    65
 73
     0
 40
0.0
  0
LTYPE
  2
DASHED
 70
    64
  3
__ __ __ __ __ __ __ __ __ __ __ __ __ __ __
 72
    65
 73
     2
 40
0.75
 49
0.5
 49
-0.25
  0
LTYPE
  2
HIDDEN
 70
    64
  3
_ _ _ _ _ _ _ _ _ _ _ _ _ _ _ _ _ _ _ _ _ _ _
 72
    65
 73
     2
 40
0.375
 49
0.25
 49
-0.125
  0
LTYPE
  2
DOT
 70
    64
  3
...............................................
 72
    65
 73
     2
 40
0.25
 49
0.0
 49
-0.25
  0
LTYPE
  2
DASHDOT
 70
    64
  3
__ . __ . __ . __ . __ . __ . __ . __ . __ . __
 72
    65
 73
     4
 40
1.0
 49
0.5
 49
-0.25
 49
0.0
 49
-0.25
  0
LTYPE
  2
DIVIDE
 70
    64
  3
__ . . __ . . __ . . __ . . __ . . __ . . __
 72
    65
 73
     6
 40
1.25
 49
0.5
 49
-0.25
 49
0.0
 49
-0.25
 49
0.0
 49
-0.25
  0
LTYPE
  2
CENTER
 70
    64
  3
____ _ ____ _ ____ _ ____ _ ____ _ ____ _ ____ 
 72
    65
 73
     4
 40
2.0
 49
1.25
 49
-0.25
 49
0.25
 49
-0.25
  0
LTYPE
  2
PHANTOM
 70
    64
  3
______  __  __  ______  __  __  ______  __  __ 
 72
    65
 73
     6
 40
2.5
 49
1.25
 49
-0.25
 49
0.25
 49
-0.25
 49
0.25
 49
-0.25
  0
LTYPE
  2
BORDER
 70
    64
  3
__ __ . __ __ . __ __ . __ __ . __ __ . __ __ .
 72
    65
 73
     6
 40
1.75
 49
0.5
 49
-0.25
 49
0.5
 49
-0.25
 49
0.0
 49
-0.25
  0
ENDTAB
  0
TABLE
  2
LAYER
 70
    16
  0
LAYER
  2
CSLAYER1
 70
    64
 62
     7
  6
CONTINUOUS
  0
LAYER
  2
CSLAYER2
 70
    64
 62
     7
  6
CONTINUOUS
  0
LAYER
  2
CSLAYER3
 70
    64
 62
     7
  6
CONTINUOUS
  0
LAYER
  2
CSLAYER4
 70
    64
 62
     7
  6
CONTINUOUS
  0
LAYER
  2
CSLAYER5
 70
    64
 62
     7
  6
CONTINUOUS
  0
LAYER
  2
CSLAYER6
 70
    64
 62
     7
  6
CONTINUOUS
  0
LAYER
  2
CSLAYER7
 70
    64
 62
     7
  6
CONTINUOUS
  0
LAYER
  2
CSLAYER8
 70
    64
 62
     7
  6
CONTINUOUS
  0
LAYER
  2
CSLAYER9
 70
    64
 62
     7
  6
CONTINUOUS
  0
LAYER
  2
CSLAYER10
 70
    64
 62
     7
  6
CONTINUOUS
  0
LAYER
  2
CSLAYER11
 70
    64
 62
     7
  6
CONTINUOUS
  0
LAYER
  2
CSLAYER12
 70
    64
 62
     7
  6
CONTINUOUS
  0
LAYER
  2
CSLAYER13
 70
    64
 62
     7
  6
CONTINUOUS
  0
LAYER
  2
CSLAYER14
 70
    64
 62
     7
  6
CONTINUOUS
  0
LAYER
  2
CSLAYER15
 70
    64
 62
     7
  6
CONTINUOUS
  0
LAYER
  2
CSLAYER16
 70
    64
 62
     7
  6
CONTINUOUS
  0
ENDTAB
  0
TABLE
  2
STYLE
 70
     1
  0
STYLE
  2
EASYDRAW_FONT
 70
     0
 40
1.0
 41
1.0
 50
0.0
 71
     0
 42
1.0
  3
monotxt
  4
bigfont
  0
ENDTAB
  0
TABLE
  2
VIEW
 70
     0
  0
ENDTAB
  0
ENDSEC
  0
SECTION
  2
BLOCKS
  0
BLOCK
  8
CSLAYER1
  2
*D0000
 70
    65
 10
0.0
 20
0.0
 30
0.0
  0
TEXT
  8
CSLAYER1
 62
     7
 10
2323.322998
 20
407.960419
 40
40.000000
 41
0.843750
  1
205
 50
90.000000
 51
0.000000
  7
EASYDRAW_FONT
 72
     5
 11
2323.322998
 21
497.960419
  0
LINE
  8
CSLAYER1
  6
CONTINUOUS
 62
     5
 10
2183.433257
 20
555.398381
 11
2283.433257
 21
555.398381
  0
LINE
  8
CSLAYER1
  6
CONTINUOUS
 62
     5
 10
2273.433257
 20
350.398381
 11
2273.433257
 21
555.398381
  0
LINE
  8
CSLAYER1
  6
CONTINUOUS
 62
     5
 10
2273.433257
 20
350.398381
 11
2265.668685
 21
379.376156
  0
LINE
  8
CSLAYER1
  6
CONTINUOUS
 62
     5
 10
2273.433257
 20
350.398381
 11
2281.197828
 21
379.376156
  0
LINE
  8
CSLAYER1
  6
CONTINUOUS
 62
     5
 10
2273.433257
 20
555.398381
 11
2265.668685
 21
526.420606
  0
LINE
  8
CSLAYER1
  6
CONTINUOUS
 62
     5
 10
2273.433257
 20
555.398381
 11
2281.197828
 21
526.420606
  0
ENDBLK
  8
0
  0
BLOCK
  8
CSLAYER1
  2
*D0001
 70
    65
 10
0.0
 20
0.0
 30
0.0
  0
TEXT
  8
CSLAYER1
 62
     7
 10
2263.433105
 20
775.128113
 40
40.000000
 41
0.843750
  1
500
 50
90.000000
 51
0.000000
  7
EASYDRAW_FONT
 72
     5
 11
2263.433105
 21
865.128113
  0
LINE
  8
CSLAYER1
  6
CONTINUOUS
 62
     5
 10
2273.433257
 20
555.398381
 11
2273.433257
 21
1084.857810
  0
LINE
  8
CSLAYER1
  6
CONTINUOUS
 62
     5
 10
2273.433257
 20
555.398381
 11
2265.668685
 21
584.376156
  0
LINE
  8
CSLAYER1
  6
CONTINUOUS
 62
     5
 10
2273.433257
 20
555.398381
 11
2281.197828
 21
584.376156
  0
LINE
  8
CSLAYER1
  6
CONTINUOUS
 62
     5
 10
2273.433257
 20
1084.857810
 11
2265.668685
 21
1055.880035
  0
LINE
  8
CSLAYER1
  6
CONTINUOUS
 62
     5
 10
2273.433257
 20
1084.857810
 11
2281.197828
 21
1055.880035
  0
ENDBLK
  8
0
  0
BLOCK
  8
CSLAYER1
  2
*D0002
 70
    65
 10
0.0
 20
0.0
 30
0.0
  0
TEXT
  8
CSLAYER1
 62
     7
 10
2363.433105
 20
672.628113
 40
40.000000
 41
0.843750
  1
705
 50
90.000000
 51
0.000000
  7
EASYDRAW_FONT
 72
     5
 11
2363.433105
 21
762.628113
  0
LINE
  8
CSLAYER1
  6
CONTINUOUS
 62
     5
 10
2180.408081
 20
1084.857810
 11
2383.433257
 21
1084.857810
  0
LINE
  8
CSLAYER1
  6
CONTINUOUS
 62
     5
 10
2373.433257
 20
350.398381
 11
2373.433257
 21
1084.857810
  0
LINE
  8
CSLAYER1
  6
CONTINUOUS
 62
     5
 10
2373.433257
 20
350.398381
 11
2365.668685
 21
379.376156
  0
LINE
  8
CSLAYER1
  6
CONTINUOUS
 62
     5
 10
2373.433257
 20
350.398381
 11
2381.197828
 21
379.376156
  0
LINE
  8
CSLAYER1
  6
CONTINUOUS
 62
     5
 10
2373.433257
 20
1084.857810
 11
2365.668685
 21
1055.880035
  0
LINE
  8
CSLAYER1
  6
CONTINUOUS
 62
     5
 10
2373.433257
 20
1084.857810
 11
2381.197828
 21
1055.880035
  0
ENDBLK
  8
0
  0
BLOCK
  8
CSLAYER1
  2
*D0003
 70
    65
 10
0.0
 20
0.0
 30
0.0
  0
TEXT
  8
CSLAYER1
 62
     7
 10
1588.433350
 20
1187.727173
 40
40.000000
 41
0.818182
  1
1050
 50
0.000000
 51
0.000000
  7
EASYDRAW_FONT
 72
     5
 11
1708.433350
 21
1187.727173
  0
LINE
  8
CSLAYER1
  6
CONTINUOUS
 62
     5
 10
1123.433257
 20
1091.657810
 11
1123.433257
 21
1187.727148
  0
LINE
  8
CSLAYER1
  6
CONTINUOUS
 62
     5
 10
2173.433257
 20
1091.857810
 11
2173.433257
 21
1187.727148
  0
LINE
  8
CSLAYER1
  6
CONTINUOUS
 62
     5
 10
1123.433257
 20
1177.727148
 11
2173.433257
 21
1177.727148
  0
LINE
  8
CSLAYER1
  6
CONTINUOUS
 62
     5
 10
1123.433257
 20
1177.727148
 11
1152.411032
 21
1185.491719
  0
LINE
  8
CSLAYER1
  6
CONTINUOUS
 62
     5
 10
1123.433257
 20
1177.727148
 11
1152.411032
 21
1169.962577
  0
LINE
  8
CSLAYER1
  6
CONTINUOUS
 62
     5
 10
2173.433257
 20
1177.727148
 11
2144.455482
 21
1185.491719
  0
LINE
  8
CSLAYER1
  6
CONTINUOUS
 62
     5
 10
2173.433257
 20
1177.727148
 11
2144.455482
 21
1169.962577
  0
ENDBLK
  8
0
  0
BLOCK
  8
CSLAYER1
  2
*D0004
 70
    65
 10
0.0
 20
0.0
 30
0.0
  0
TEXT
  8
CSLAYER1
 62
     7
 10
1588.433350
 20
248.914261
 40
40.000000
 41
0.818182
  1
1050
 50
0.000000
 51
0.000000
  7
EASYDRAW_FONT
 72
     5
 11
1708.433350
 21
248.914261
  0
LINE
  8
CSLAYER1
  6
CONTINUOUS
 62
     5
 10
1123.433257
 20
340.398381
 11
1123.433257
 21
228.914363
  0
LINE
  8
CSLAYER1
  6
CONTINUOUS
 62
     5
 10
2173.433257
 20
340.398381
 11
2173.433257
 21
228.914363
  0
LINE
  8
CSLAYER1
  6
CONTINUOUS
 62
     5
 10
1123.433257
 20
238.914363
 11
2173.433257
 21
238.914363
  0
LINE
  8
CSLAYER1
  6
CONTINUOUS
 62
     5
 10
1123.433257
 20
238.914363
 11
1152.411032
 21
246.678934
  0
LINE
  8
CSLAYER1
  6
CONTINUOUS
 62
     5
 10
1123.433257
 20
238.914363
 11
1152.411032
 21
231.149791
  0
LINE
  8
CSLAYER1
  6
CONTINUOUS
 62
     5
 10
2173.433257
 20
238.914363
 11
2144.455482
 21
246.678934
  0
LINE
  8
CSLAYER1
  6
CONTINUOUS
 62
     5
 10
2173.433257
 20
238.914363
 11
2144.455482
 21
231.149791
  0
ENDBLK
  8
0
  0
BLOCK
  8
CSLAYER1
  2
*D0005
 70
    65
 10
0.0
 20
0.0
 30
0.0
  0
TEXT
  8
CSLAYER1
 62
     7
 10
555.252319
 20
248.914261
 40
40.000000
 41
0.843750
  1
700
 50
0.000000
 51
0.000000
  7
EASYDRAW_FONT
 72
     5
 11
645.252319
 21
248.914261
  0
LINE
  8
CSLAYER1
  6
CONTINUOUS
 62
     5
 10
250.252300
 20
340.398381
 11
250.252300
 21
228.914363
  0
LINE
  8
CSLAYER1
  6
CONTINUOUS
 62
     5
 10
950.252300
 20
340.398381
 11
950.252300
 21
228.914363
  0
LINE
  8
CSLAYER1
  6
CONTINUOUS
 62
     5
 10
250.252300
 20
238.914363
 11
950.252300
 21
238.914363
  0
LINE
  8
CSLAYER1
  6
CONTINUOUS
 62
     5
 10
250.252300
 20
238.914363
 11
279.230074
 21
246.678934
  0
LINE
  8
CSLAYER1
  6
CONTINUOUS
 62
     5
 10
250.252300
 20
238.914363
 11
279.230074
 21
231.149791
  0
LINE
  8
CSLAYER1
  6
CONTINUOUS
 62
     5
 10
950.252300
 20
238.914363
 11
921.274525
 21
246.678934
  0
LINE
  8
CSLAYER1
  6
CONTINUOUS
 62
     5
 10
950.252300
 20
238.914363
 11
921.274525
 21
231.149791
  0
ENDBLK
  8
0
  0
BLOCK
  8
CSLAYER1
  2
*D0006
 70
    65
 10
0.0
 20
0.0
 30
0.0
  0
TEXT
  8
CSLAYER1
 62
     7
 10
1007.017212
 20
1677.060181
 40
40.000000
 41
0.843750
  1
800
 50
90.000000
 51
0.000000
  7
EASYDRAW_FONT
 72
     5
 11
1007.017212
 21
1767.060181
  0
LINE
  8
CSLAYER1
  6
CONTINUOUS
 62
     5
 10
1113.433257
 20
1322.060483
 11
1007.017069
 21
1322.060483
  0
LINE
  8
CSLAYER1
  6
CONTINUOUS
 62
     5
 10
1113.433257
 20
2122.060483
 11
1007.017069
 21
2122.060483
  0
LINE
  8
CSLAYER1
  6
CONTINUOUS
 62
     5
 10
1017.017069
 20
1322.060483
 11
1017.017069
 21
2122.060483
  0
LINE
  8
CSLAYER1
  6
CONTINUOUS
 62
     5
 10
1017.017069
 20
1322.060483
 11
1009.252498
 21
1351.038258
  0
LINE
  8
CSLAYER1
  6
CONTINUOUS
 62
     5
 10
1017.017069
 20
1322.060483
 11
1024.781641
 21
1351.038258
  0
LINE
  8
CSLAYER1
  6
CONTINUOUS
 62
     5
 10
1017.017069
 20
2122.060483
 11
1009.252498
 21
2093.082708
  0
LINE
  8
CSLAYER1
  6
CONTINUOUS
 62
     5
 10
1017.017069
 20
2122.060483
 11
1024.781641
 21
2093.082708
  0
ENDBLK
  8
0
  0
BLOCK
  8
CSLAYER1
  2
BLKF0000
 70
   64
 10
0.0
 20
0.0
 30
0.0
  0
ARC
  8
CSLAYER1
  6
CONTINUOUS
 62
     5
 10
2781.909508
 20
79.335220
 40
3.549225
 50
6.429109
 51
73.182034
  0
ARC
  8
CSLAYER1
  6
CONTINUOUS
 62
     5
 10
2778.448538
 20
78.176827
 40
6.907754
 50
310.517970
 51
330.092764
  0
ARC
  8
CSLAYER1
  6
CONTINUOUS
 62
     5
 10
2778.387888
 20
78.542345
 40
7.148321
 50
-32.205059
 51
9.585194
  0
ARC
  8
CSLAYER1
  6
CONTINUOUS
 62
     5
 10
2781.680616
 20
75.781346
 40
4.767514
 50
180.000000
 51
218.514150
  0
ARC
  8
CSLAYER1
  6
CONTINUOUS
 62
     5
 10
2780.393895
 20
75.104206
 40
3.348282
 50
222.781148
 51
319.406906
  0
ARC
  8
CSLAYER1
  6
CONTINUOUS
 62
     5
 10
2783.459537
 20
76.194099
 40
6.559434
 50
94.574282
 51
183.607718
  0
LINE
  8
CSLAYER1
  6
CONTINUOUS
 62
     5
 10
2796.903443
 20
71.077266
 11
2796.046407
 21
68.038683
  0
LINE
  8
CSLAYER1
  6
CONTINUOUS
 62
     5
 10
2798.695428
 20
90.944924
 11
2796.591794
 21
93.671857
  0
LINE
  8
CSLAYER1
  6
CONTINUOUS
 62
     5
 10
2796.591794
 20
93.671857
 11
2789.838440
 21
97.429769
  0
LINE
  8
CSLAYER1
  6
CONTINUOUS
 62
     5
 10
2789.838440
 20
97.429769
 11
2782.936412
 21
98.232640
  0
LINE
  8
CSLAYER1
  6
CONTINUOUS
 62
     5
 10
2764.647187
 20
84.853966
 11
2766.793881
 21
89.818197
  0
LINE
  8
CSLAYER1
  6
CONTINUOUS
 62
     5
 10
2766.756884
 20
89.732640
 11
2768.940576
 21
92.367396
  0
LINE
  8
CSLAYER1
  6
CONTINUOUS
 62
     5
 10
2768.940576
 20
92.367396
 11
2772.244998
 21
94.732640
  0
LINE
  8
CSLAYER1
  6
CONTINUOUS
 62
     5
 10
2782.936412
 20
98.232640
 11
2781.418237
 21
97.465795
  0
LINE
  8
CSLAYER1
  6
CONTINUOUS
 62
     5
 10
2781.418237
 20
97.465795
 11
2777.929858
 21
97.465795
  0
LINE
  8
CSLAYER1
  6
CONTINUOUS
 62
     5
 10
2777.929858
 20
97.465795
 11
2774.374396
 21
95.520354
  0
LINE
  8
CSLAYER1
  6
CONTINUOUS
 62
     5
 10
2774.374396
 20
95.520354
 11
2772.244998
 21
94.732640
  0
LINE
  8
CSLAYER1
  6
CONTINUOUS
 62
     5
 10
2764.647187
 20
84.853966
 11
2763.129640
 21
77.305363
  0
LINE
  8
CSLAYER1
  6
CONTINUOUS
 62
     5
 10
2763.129640
 20
77.305363
 11
2762.936412
 21
74.732640
  0
LINE
  8
CSLAYER1
  6
CONTINUOUS
 62
     5
 10
2765.645795
 20
66.892857
 11
2762.936412
 21
72.988969
  0
LINE
  8
CSLAYER1
  6
CONTINUOUS
 62
     5
 10
2762.936412
 20
72.988969
 11
2762.936412
 21
74.732640
  0
LINE
  8
CSLAYER1
  6
CONTINUOUS
 62
     5
 10
2796.046407
 20
68.038683
 11
2794.360620
 21
65.035677
  0
LINE
  8
CSLAYER1
  6
CONTINUOUS
 62
     5
 10
2794.360620
 20
65.035677
 11
2792.936412
 21
63.716966
  0
ARC
  8
CSLAYER1
  6
CONTINUOUS
 62
     5
 10
2780.744468
 20
75.269400
 40
17.266626
 50
208.054813
 51
260.640470
  0
ARC
  8
CSLAYER1
  6
CONTINUOUS
 62
     5
 10
2775.551072
 20
88.011870
 40
29.874611
 50
274.579659
 51
305.587364
  0
ARC
  8
CSLAYER1
  6
CONTINUOUS
 62
     5
 10
2786.523421
 20
82.028147
 40
15.088627
 50
313.467013
 51
331.085078
  0
LINE
  8
CSLAYER1
  6
CONTINUOUS
 62
     5
 10
2801.314754
 20
78.246061
 11
2801.612048
 21
82.028147
  0
LINE
  8
CSLAYER1
  6
CONTINUOUS
 62
     5
 10
2801.612048
 20
82.028147
 11
2800.320051
 21
88.137130
  0
LINE
  8
CSLAYER1
  6
CONTINUOUS
 62
     5
 10
2801.314754
 20
78.246061
 11
2799.731079
 21
74.732640
  0
ARC
  8
CSLAYER1
  6
CONTINUOUS
 62
     5
 10
2786.523421
 20
82.028147
 40
15.088627
 50
23.883193
 51
36.225170
  0
LINE
  8
CSLAYER1
  6
CONTINUOUS
 62
     5
 10
2746.936412
 20
109.732640
 11
2747.936412
 21
110.825284
  0
LINE
  8
CSLAYER1
  6
CONTINUOUS
 62
     5
 10
2746.936412
 20
109.732640
 11
2748.513370
 21
108.287607
  0
LINE
  8
CSLAYER1
  6
CONTINUOUS
 62
     5
 10
2750.052583
 20
106.178315
 11
2750.078851
 21
104.010196
  0
LINE
  8
CSLAYER1
  6
CONTINUOUS
 62
     5
 10
2750.078851
 20
104.010196
 11
2750.286249
 21
103.249737
  0
LINE
  8
CSLAYER1
  6
CONTINUOUS
 62
     5
 10
2750.286249
 20
103.249737
 11
2750.873877
 21
102.523844
  0
LINE
  8
CSLAYER1
  6
CONTINUOUS
 62
     5
 10
2750.873877
 20
102.523844
 11
2751.461504
 21
102.592977
  0
LINE
  8
CSLAYER1
  6
CONTINUOUS
 62
     5
 10
2751.461504
 20
102.592977
 11
2752.083698
 21
102.765808
  0
LINE
  8
CSLAYER1
  6
CONTINUOUS
 62
     5
 10
2752.083698
 20
102.765808
 11
2752.498494
 21
102.592977
  0
LINE
  8
CSLAYER1
  6
CONTINUOUS
 62
     5
 10
2752.498494
 20
102.592977
 11
2753.397219
 21
102.143614
  0
LINE
  8
CSLAYER1
  6
CONTINUOUS
 62
     5
 10
2753.397219
 20
102.143614
 11
2754.173270
 21
101.732640
  0
LINE
  8
CSLAYER1
  6
CONTINUOUS
 62
     5
 10
2754.173270
 20
101.732640
 11
2754.676173
 21
101.763385
  0
LINE
  8
CSLAYER1
  6
CONTINUOUS
 62
     5
 10
2754.676173
 20
101.763385
 11
2757.484045
 21
103.209864
  0
LINE
  8
CSLAYER1
  6
CONTINUOUS
 62
     5
 10
2747.936412
 20
110.825284
 11
2748.269264
 21
112.298991
  0
LINE
  8
CSLAYER1
  6
CONTINUOUS
 62
     5
 10
2748.269264
 20
112.298991
 11
2749.722669
 21
112.449344
  0
LINE
  8
CSLAYER1
  6
CONTINUOUS
 62
     5
 10
2751.216428
 20
115.217802
 11
2752.970601
 21
115.374892
  0
LINE
  8
CSLAYER1
  6
CONTINUOUS
 62
     5
 10
2752.970601
 20
115.374892
 11
2756.505128
 21
116.212706
  0
LINE
  8
CSLAYER1
  6
CONTINUOUS
 62
     5
 10
2756.505128
 20
116.212706
 11
2757.936412
 21
116.544345
  0
LINE
  8
CSLAYER1
  6
CONTINUOUS
 62
     5
 10
2751.216428
 20
115.217802
 11
2749.283537
 21
115.376670
  0
LINE
  8
CSLAYER1
  6
CONTINUOUS
 62
     5
 10
2748.547414
 20
114.507983
 11
2748.640939
 21
114.136822
  0
LINE
  8
CSLAYER1
  6
CONTINUOUS
 62
     5
 10
2748.640939
 20
114.136822
 11
2749.132533
 21
113.599141
  0
LINE
  8
CSLAYER1
  6
CONTINUOUS
 62
     5
 10
2749.132533
 20
113.599141
 11
2749.808475
 21
113.092184
  0
LINE
  8
CSLAYER1
  6
CONTINUOUS
 62
     5
 10
2749.808475
 20
113.092184
 11
2749.931800
 21
112.927751
  0
LINE
  8
CSLAYER1
  6
CONTINUOUS
 62
     5
 10
2748.513370
 20
108.287607
 11
2750.052583
 21
106.178315
  0
ARC
  8
CSLAYER1
  6
CONTINUOUS
 62
     5
 10
2792.923113
 20
-61.926013
 40
180.727463
 50
80.438896
 51
96.353582
  0
ARC
  8
CSLAYER1
  6
CONTINUOUS
 62
     5
 10
2768.024200
 20
83.321887
 40
34.720242
 50
81.866516
 51
106.890578
  0
LINE
  8
CSLAYER1
  6
CONTINUOUS
 62
     5
 10
2827.130674
 20
115.499310
 11
2829.377756
 21
114.477909
  0
LINE
  8
CSLAYER1
  6
CONTINUOUS
 62
     5
 10
2832.952661
 20
112.894737
 11
2829.377756
 21
114.477909
  0
LINE
  8
CSLAYER1
  6
CONTINUOUS
 62
     5
 10
2827.130674
 20
115.499310
 11
2822.936412
 21
116.291881
  0
LINE
  8
CSLAYER1
  6
CONTINUOUS
 62
     5
 10
2832.936412
 20
112.901933
 11
2834.807988
 21
111.333456
  0
LINE
  8
CSLAYER1
  6
CONTINUOUS
 62
     5
 10
2816.179668
 20
113.938783
 11
2817.078943
 21
115.391458
  0
LINE
  8
CSLAYER1
  6
CONTINUOUS
 62
     5
 10
2817.078943
 20
115.391458
 11
2821.754542
 21
114.271949
  0
LINE
  8
CSLAYER1
  6
CONTINUOUS
 62
     5
 10
2821.754542
 20
114.271949
 11
2838.496928
 21
109.732640
  0
LINE
  8
CSLAYER1
  6
CONTINUOUS
 62
     5
 10
2841.436412
 20
109.732640
 11
2834.807988
 21
111.333456
  0
LINE
  8
CSLAYER1
  6
CONTINUOUS
 62
     5
 10
2838.496928
 20
109.732640
 11
2841.436412
 21
109.732640
  0
LINE
  8
CSLAYER1
  6
CONTINUOUS
 62
     5
 10
2782.936412
 20
114.197581
 11
2802.936412
 21
114.732640
  0
LINE
  8
CSLAYER1
  6
CONTINUOUS
 62
     5
 10
2802.936412
 20
114.732640
 11
2816.179668
 21
113.938783
  0
LINE
  8
CSLAYER1
  6
CONTINUOUS
 62
     5
 10
2817.782649
 20
111.878304
 11
2802.936412
 21
113.232640
  0
LINE
  8
CSLAYER1
  6
CONTINUOUS
 62
     5
 10
2802.936412
 20
113.232640
 11
2787.887203
 21
113.641292
  0
LINE
  8
CSLAYER1
  6
CONTINUOUS
 62
     5
 10
2787.936412
 20
113.639956
 11
2782.936412
 21
113.735249
  0
LINE
  8
CSLAYER1
  6
CONTINUOUS
 62
     5
 10
2782.936412
 20
114.197581
 11
2782.936412
 21
113.735249
  0
LINE
  8
CSLAYER1
  6
CONTINUOUS
 62
     5
 10
2840.436412
 20
106.232640
 11
2831.593854
 21
108.543302
  0
LINE
  8
CSLAYER1
  6
CONTINUOUS
 62
     5
 10
2817.782649
 20
111.878304
 11
2827.936412
 21
109.905920
  0
LINE
  8
CSLAYER1
  6
CONTINUOUS
 62
     5
 10
2827.936412
 20
109.905920
 11
2831.593854
 21
108.543302
  0
LINE
  8
CSLAYER1
  6
CONTINUOUS
 62
     5
 10
2840.436412
 20
106.232640
 11
2840.143795
 21
105.393534
  0
LINE
  8
CSLAYER1
  6
CONTINUOUS
 62
     5
 10
2849.936412
 20
100.732640
 11
2849.630385
 21
101.961621
  0
LINE
  8
CSLAYER1
  6
CONTINUOUS
 62
     5
 10
2840.143795
 20
105.393534
 11
2849.630385
 21
101.961621
  0
LINE
  8
CSLAYER1
  6
CONTINUOUS
 62
     5
 10
2786.436412
 20
106.232640
 11
2788.859450
 21
106.232640
  0
LINE
  8
CSLAYER1
  6
CONTINUOUS
 62
     5
 10
2808.936412
 20
106.665135
 11
2808.936412
 21
106.232640
  0
LINE
  8
CSLAYER1
  6
CONTINUOUS
 62
     5
 10
2807.936412
 20
107.199576
 11
2806.225133
 21
107.836755
  0
LINE
  8
CSLAYER1
  6
CONTINUOUS
 62
     5
 10
2806.225133
 20
107.836755
 11
2805.115077
 21
107.887212
  0
LINE
  8
CSLAYER1
  6
CONTINUOUS
 62
     5
 10
2805.115077
 20
107.887212
 11
2804.635735
 21
107.634926
  0
LINE
  8
CSLAYER1
  6
CONTINUOUS
 62
     5
 10
2804.635735
 20
107.634926
 11
2804.534821
 21
107.231270
  0
LINE
  8
CSLAYER1
  6
CONTINUOUS
 62
     5
 10
2804.534821
 20
107.231270
 11
2804.988934
 21
106.928527
  0
LINE
  8
CSLAYER1
  6
CONTINUOUS
 62
     5
 10
2804.988934
 20
106.928527
 11
2806.628790
 21
106.777156
  0
LINE
  8
CSLAYER1
  6
CONTINUOUS
 62
     5
 10
2806.628790
 20
106.777156
 11
2808.936412
 21
106.665135
  0
LINE
  8
CSLAYER1
  6
CONTINUOUS
 62
     5
 10
2849.936412
 20
100.732640
 11
2846.960870
 21
101.919221
  0
LINE
  8
CSLAYER1
  6
CONTINUOUS
 62
     5
 10
2846.960870
 20
101.919221
 11
2836.905180
 21
103.762097
  0
LINE
  8
CSLAYER1
  6
CONTINUOUS
 62
     5
 10
2836.905180
 20
103.762097
 11
2831.879400
 21
104.921892
  0
LINE
  8
CSLAYER1
  6
CONTINUOUS
 62
     5
 10
2809.470633
 20
107.232640
 11
2821.236299
 21
107.232640
  0
LINE
  8
CSLAYER1
  6
CONTINUOUS
 62
     5
 10
2807.936412
 20
107.199576
 11
2808.461072
 21
106.891109
  0
LINE
  8
CSLAYER1
  6
CONTINUOUS
 62
     5
 10
2808.461072
 20
106.891109
 11
2808.757884
 21
106.802065
  0
LINE
  8
CSLAYER1
  6
CONTINUOUS
 62
     5
 10
2808.757884
 20
106.802065
 11
2808.936412
 21
106.827236
  0
LINE
  8
CSLAYER1
  6
CONTINUOUS
 62
     5
 10
2808.936412
 20
106.827236
 11
2809.470633
 21
107.232640
  0
LINE
  8
CSLAYER1
  6
CONTINUOUS
 62
     5
 10
2821.236299
 20
107.232640
 11
2825.686568
 21
106.203814
  0
LINE
  8
CSLAYER1
  6
CONTINUOUS
 62
     5
 10
2825.686568
 20
106.203814
 11
2829.839760
 21
105.038665
  0
LINE
  8
CSLAYER1
  6
CONTINUOUS
 62
     5
 10
2829.839760
 20
105.038665
 11
2831.879400
 21
104.921892
  0
LINE
  8
CSLAYER1
  6
CONTINUOUS
 62
     5
 10
2785.436412
 20
105.232640
 11
2785.436412
 21
104.732640
  0
LINE
  8
CSLAYER1
  6
CONTINUOUS
 62
     5
 10
2782.936412
 20
104.732640
 11
2785.436412
 21
104.732640
  0
ARC
  8
CSLAYER1
  6
CONTINUOUS
 62
     5
 10
2786.436412
 20
105.232640
 40
1.000000
 50
90.000000
 51
180.000000
  0
LINE
  8
CSLAYER1
  6
CONTINUOUS
 62
     5
 10
2788.859450
 20
106.232640
 11
2789.557007
 21
105.660643
  0
LINE
  8
CSLAYER1
  6
CONTINUOUS
 62
     5
 10
2790.159375
 20
105.636683
 11
2791.016972
 21
106.232640
  0
LINE
  8
CSLAYER1
  6
CONTINUOUS
 62
     5
 10
2792.595368
 20
106.232640
 11
2794.262494
 21
105.574564
  0
LINE
  8
CSLAYER1
  6
CONTINUOUS
 62
     5
 10
2794.686203
 20
105.601076
 11
2795.839690
 21
106.232640
  0
LINE
  8
CSLAYER1
  6
CONTINUOUS
 62
     5
 10
2791.016972
 20
106.232640
 11
2792.595368
 21
106.232640
  0
LINE
  8
CSLAYER1
  6
CONTINUOUS
 62
     5
 10
2795.839690
 20
106.232640
 11
2808.936412
 21
106.232640
  0
LINE
  8
CSLAYER1
  6
CONTINUOUS
 62
     5
 10
2761.485395
 20
103.123813
 11
2782.936412
 21
104.732640
  0
LINE
  8
CSLAYER1
  6
CONTINUOUS
 62
     5
 10
2757.484045
 20
103.209864
 11
2761.485395
 21
103.123813
  0
ARC
  8
CSLAYER1
  6
CONTINUOUS
 62
     5
 10
2789.874047
 20
106.047277
 40
0.500000
 50
230.648247
 51
304.796026
  0
ARC
  8
CSLAYER1
  6
CONTINUOUS
 62
     5
 10
2794.446077
 20
106.039642
 40
0.500000
 50
248.459024
 51
298.701829
  0
ARC
  8
CSLAYER1
  6
CONTINUOUS
 62
     5
 10
2749.691800
 20
112.747751
 40
0.300000
 50
-84.093859
 51
36.869898
  0
ARC
  8
CSLAYER1
  6
CONTINUOUS
 62
     5
 10
2749.226196
 20
114.679023
 40
0.700000
 50
85.301319
 51
194.142980
  0
LINE
  8
CSLAYER1
  6
CONTINUOUS
 62
     3
 10
2781.418237
 20
97.465795
 11
2789.528732
 21
97.465795
  0
LINE
  8
CSLAYER1
  6
CONTINUOUS
 62
     3
 10
2775.005720
 20
95.865795
 11
2792.649061
 21
95.865795
  0
LINE
  8
CSLAYER1
  6
CONTINUOUS
 62
     3
 10
2771.592781
 20
94.265795
 11
2795.524426
 21
94.265795
  0
LINE
  8
CSLAYER1
  6
CONTINUOUS
 62
     3
 10
2769.357462
 20
92.665795
 11
2797.367899
 21
92.665795
  0
LINE
  8
CSLAYER1
  6
CONTINUOUS
 62
     3
 10
2767.861806
 20
91.065795
 11
2798.602184
 21
91.065795
  0
LINE
  8
CSLAYER1
  6
CONTINUOUS
 62
     3
 10
2766.641492
 20
89.465795
 11
2799.651561
 21
89.465795
  0
LINE
  8
CSLAYER1
  6
CONTINUOUS
 62
     3
 10
2765.949600
 20
87.865795
 11
2800.377436
 21
87.865795
  0
LINE
  8
CSLAYER1
  6
CONTINUOUS
 62
     3
 10
2765.257708
 20
86.265795
 11
2800.715822
 21
86.265795
  0
LINE
  8
CSLAYER1
  6
CONTINUOUS
 62
     3
 10
2764.609358
 20
84.665795
 11
2801.054208
 21
84.665795
  0
LINE
  8
CSLAYER1
  6
CONTINUOUS
 62
     3
 10
2764.287699
 20
83.065795
 11
2801.392594
 21
83.065795
  0
LINE
  8
CSLAYER1
  6
CONTINUOUS
 62
     3
 10
2763.966040
 20
81.465795
 11
2779.556283
 21
81.465795
  0
LINE
  8
CSLAYER1
  6
CONTINUOUS
 62
     3
 10
2763.644381
 20
79.865795
 11
2778.024022
 21
79.865795
  0
LINE
  8
CSLAYER1
  6
CONTINUOUS
 62
     3
 10
2763.322722
 20
78.265795
 11
2777.235852
 21
78.265795
  0
LINE
  8
CSLAYER1
  6
CONTINUOUS
 62
     3
 10
2763.081604
 20
76.665795
 11
2776.917085
 21
76.665795
  0
LINE
  8
CSLAYER1
  6
CONTINUOUS
 62
     3
 10
2762.961434
 20
75.065795
 11
2776.967106
 21
75.065795
  0
LINE
  8
CSLAYER1
  6
CONTINUOUS
 62
     3
 10
2762.936412
 20
73.465795
 11
2777.513193
 21
73.465795
  0
LINE
  8
CSLAYER1
  6
CONTINUOUS
 62
     3
 10
2763.435600
 20
71.865795
 11
2779.543195
 21
71.865795
  0
LINE
  8
CSLAYER1
  6
CONTINUOUS
 62
     3
 10
2764.146711
 20
70.265795
 11
2796.674567
 21
70.265795
  0
LINE
  8
CSLAYER1
  6
CONTINUOUS
 62
     3
 10
2764.857823
 20
68.665795
 11
2796.223285
 21
68.665795
  0
LINE
  8
CSLAYER1
  6
CONTINUOUS
 62
     3
 10
2765.568934
 20
67.065795
 11
2795.500261
 21
67.065795
  0
LINE
  8
CSLAYER1
  6
CONTINUOUS
 62
     3
 10
2766.530893
 20
65.465795
 11
2794.602074
 21
65.465795
  0
LINE
  8
CSLAYER1
  6
CONTINUOUS
 62
     3
 10
2767.779354
 20
63.865795
 11
2793.097148
 21
63.865795
  0
LINE
  8
CSLAYER1
  6
CONTINUOUS
 62
     3
 10
2769.384774
 20
62.265795
 11
2790.704687
 21
62.265795
  0
LINE
  8
CSLAYER1
  6
CONTINUOUS
 62
     3
 10
2771.531916
 20
60.665795
 11
2787.579564
 21
60.665795
  0
LINE
  8
CSLAYER1
  6
CONTINUOUS
 62
     3
 10
2774.779606
 20
59.065795
 11
2782.941415
 21
59.065795
  0
LINE
  8
CSLAYER1
  6
CONTINUOUS
 62
     3
 10
2784.748107
 20
81.465795
 11
2801.567844
 21
81.465795
  0
LINE
  8
CSLAYER1
  6
CONTINUOUS
 62
     3
 10
2785.418851
 20
79.865795
 11
2801.442074
 21
79.865795
  0
LINE
  8
CSLAYER1
  6
CONTINUOUS
 62
     3
 10
2785.530858
 20
78.265795
 11
2801.316305
 21
78.265795
  0
LINE
  8
CSLAYER1
  6
CONTINUOUS
 62
     3
 10
2785.285501
 20
76.665795
 11
2800.602449
 21
76.665795
  0
LINE
  8
CSLAYER1
  6
CONTINUOUS
 62
     3
 10
2784.633855
 20
75.065795
 11
2799.881249
 21
75.065795
  0
LINE
  8
CSLAYER1
  6
CONTINUOUS
 62
     3
 10
2783.500592
 20
73.465795
 11
2798.947301
 21
73.465795
  0
LINE
  8
CSLAYER1
  6
CONTINUOUS
 62
     3
 10
2781.244595
 20
71.865795
 11
2797.676594
 21
71.865795
  0
TEXT
  8
CSLAYER1
 62
     5
 10
2802.108183
 20
79.476970
 40
4.713448
 41
1.951056
  1
M
 50
0.000000
 51
0.000000
  7
EASYDRAW_FONT
 72
     5
 11
2808.238985
 21
79.476970
  0
TEXT
  8
CSLAYER1
 62
     5
 10
2811.759570
 20
79.418700
 40
4.626621
 41
0.778201
  1
T
 50
0.000000
 51
0.000000
  7
EASYDRAW_FONT
 72
     5
 11
2814.159863
 21
79.418700
  0
TEXT
  8
CSLAYER1
 62
     5
 10
2814.525133
 20
79.453499
 40
4.696183
 41
1.055553
  1
E
 50
0.000000
 51
0.000000
  7
EASYDRAW_FONT
 72
     5
 11
2817.829848
 21
79.453499
  0
TEXT
  8
CSLAYER1
 62
     5
 10
2817.641314
 20
81.069343
 40
0.348283
 41
9.375319
  1
-
 50
0.000000
 51
0.000000
  7
EASYDRAW_FONT
 72
     5
 11
2819.818159
 21
81.069343
  0
TEXT
  8
CSLAYER1
 62
     5
 10
2819.455523
 20
79.422152
 40
4.861659
 41
1.298502
  1
H
 50
0.000000
 51
0.000000
  7
EASYDRAW_FONT
 72
     5
 11
2823.664106
 21
79.422152
  0
TEXT
  8
CSLAYER1
 62
     5
 10
2823.531538
 20
79.452530
 40
4.843139
 41
1.269236
  1
A
 50
0.000000
 51
0.000000
  7
EASYDRAW_FONT
 72
     5
 11
2827.629595
 21
79.452530
  0
TEXT
  8
CSLAYER1
 62
     5
 10
2827.237694
 20
79.411004
 40
4.825362
 41
1.490144
  1
N
 50
0.000000
 51
0.000000
  7
EASYDRAW_FONT
 72
     5
 11
2832.031349
 21
79.411004
  0
TEXT
  8
CSLAYER1
 62
     5
 10
2808.029152
 20
79.388431
 40
4.982325
 41
1.177443
  1
A
 50
0.000000
 51
0.000000
  7
EASYDRAW_FONT
 72
     5
 11
2811.940086
 21
79.388431
  0
TEXT
  8
CSLAYER1
 62
     5
 10
2802.475197
 20
72.393191
 40
4.982325
 41
1.177443
  1
A
 50
0.000000
 51
0.000000
  7
EASYDRAW_FONT
 72
     5
 11
2806.386131
 21
72.393191
  0
TEXT
  8
CSLAYER1
 62
     5
 10
2815.259621
 20
72.421512
 40
4.982325
 41
1.177443
  1
A
 50
0.000000
 51
0.000000
  7
EASYDRAW_FONT
 72
     5
 11
2819.170555
 21
72.421512
  0
TEXT
  8
CSLAYER1
 62
     5
 10
2819.020165
 20
72.478509
 40
4.825362
 41
1.490144
  1
N
 50
0.000000
 51
0.000000
  7
EASYDRAW_FONT
 72
     5
 11
2823.813819
 21
72.478509
  0
TEXT
  8
CSLAYER1
 62
     5
 10
2827.922501
 20
72.486903
 40
4.841775
 41
1.184218
  1
E
 50
0.000000
 51
0.000000
  7
EASYDRAW_FONT
 72
     5
 11
2831.744980
 21
72.486903
  0
TEXT
  8
CSLAYER1
 62
     5
 10
2806.755750
 20
72.391867
 40
4.947865
 41
1.093992
  1
D
 50
0.000000
 51
0.000000
  7
EASYDRAW_FONT
 72
     5
 11
2810.364367
 21
72.391867
  0
TEXT
  8
CSLAYER1
 62
     5
 10
2811.158109
 20
72.386482
 40
4.924210
 41
1.228195
  1
V
 50
0.000000
 51
0.000000
  7
EASYDRAW_FONT
 72
     5
 11
2815.190036
 21
72.386482
  0
TEXT
  8
CSLAYER1
 62
     5
 10
2823.383310
 20
72.407213
 40
5.032894
 41
1.481023
  1
C
 50
0.000000
 51
0.000000
  7
EASYDRAW_FONT
 72
     5
 11
2828.352530
 21
72.407213
  0
LINE
  8
CSLAYER1
  6
CONTINUOUS
 62
     5
 10
2814.013749
 20
83.467612
 11
2813.001687
 21
83.467612
  0
LINE
  8
CSLAYER1
  6
CONTINUOUS
 62
     3
 10
2763.111987
 20
117.692883
 11
2812.909813
 21
117.692883
  0
LINE
  8
CSLAYER1
  6
CONTINUOUS
 62
     3
 10
2755.999623
 20
116.092883
 11
2823.989505
 21
116.092883
  0
LINE
  8
CSLAYER1
  6
CONTINUOUS
 62
     3
 10
2748.551219
 20
114.492883
 11
2793.974529
 21
114.492883
  0
LINE
  8
CSLAYER1
  6
CONTINUOUS
 62
     3
 10
2806.936079
 20
114.492883
 11
2816.522682
 21
114.492883
  0
LINE
  8
CSLAYER1
  6
CONTINUOUS
 62
     3
 10
2820.831816
 20
114.492883
 11
2829.344813
 21
114.492883
  0
LINE
  8
CSLAYER1
  6
CONTINUOUS
 62
     3
 10
2749.954358
 20
112.892883
 11
2806.660827
 21
112.892883
  0
LINE
  8
CSLAYER1
  6
CONTINUOUS
 62
     3
 10
2826.840965
 20
112.892883
 11
2832.947211
 21
112.892883
  0
LINE
  8
CSLAYER1
  6
CONTINUOUS
 62
     3
 10
2748.042024
 20
111.292883
 11
2820.796375
 21
111.292883
  0
LINE
  8
CSLAYER1
  6
CONTINUOUS
 62
     3
 10
2832.742264
 20
111.292883
 11
2834.975986
 21
111.292883
  0
LINE
  8
CSLAYER1
  6
CONTINUOUS
 62
     3
 10
2746.979799
 20
109.692883
 11
2828.508231
 21
109.692883
  0
LINE
  8
CSLAYER1
  6
CONTINUOUS
 62
     3
 10
2748.655466
 20
108.092883
 11
2833.317540
 21
108.092883
  0
LINE
  8
CSLAYER1
  6
CONTINUOUS
 62
     3
 10
2749.823033
 20
106.492883
 11
2808.936412
 21
106.492883
  0
LINE
  8
CSLAYER1
  6
CONTINUOUS
 62
     3
 10
2824.436177
 20
106.492883
 11
2839.440500
 21
106.492883
  0
LINE
  8
CSLAYER1
  6
CONTINUOUS
 62
     3
 10
2750.068157
 20
104.892883
 11
2785.436412
 21
104.892883
  0
LINE
  8
CSLAYER1
  6
CONTINUOUS
 62
     3
 10
2832.005106
 20
104.892883
 11
2841.527709
 21
104.892883
  0
LINE
  8
CSLAYER1
  6
CONTINUOUS
 62
     3
 10
2750.274482
 20
103.292883
 11
2763.739655
 21
103.292883
  0
LINE
  8
CSLAYER1
  6
CONTINUOUS
 62
     3
 10
2839.465455
 20
103.292883
 11
2845.950473
 21
103.292883
  0
LINE
  8
CSLAYER1
  6
CONTINUOUS
 62
     3
 10
2847.528449
 20
101.692883
 11
2849.697303
 21
101.692883
  0
ENDBLK
  8
0
  0
BLOCK
  8
CSLAYER1
  2
BLKF0001
 70
   64
 10
0.0
 20
0.0
 30
0.0
  0
LINE
  8
CSLAYER1
  6
CONTINUOUS
 62
     1
 10
2079.433257
 20
457.898381
 11
2079.433257
 21
455.698381
  0
LINE
  8
CSLAYER1
  6
CONTINUOUS
 62
     1
 10
2086.433257
 20
457.898381
 11
2086.433257
 21
455.698381
  0
LINE
  8
CSLAYER1
  6
CONTINUOUS
 62
     1
 10
2086.433257
 20
456.698381
 11
2079.433257
 21
456.698381
  0
LINE
  8
CSLAYER1
  6
CONTINUOUS
 62
     1
 10
2085.033257
 20
459.298381
 11
2080.833257
 21
459.298381
  0
LINE
  8
CSLAYER1
  6
CONTINUOUS
 62
     1
 10
2087.433257
 20
455.698381
 11
2087.433257
 21
454.898381
  0
LINE
  8
CSLAYER1
  6
CONTINUOUS
 62
     1
 10
2078.433257
 20
455.698381
 11
2078.433257
 21
454.898381
  0
LINE
  8
CSLAYER1
  6
CONTINUOUS
 62
     1
 10
2086.433257
 20
457.898381
 11
2086.433257
 21
456.698381
  0
LINE
  8
CSLAYER1
  6
CONTINUOUS
 62
     1
 10
2087.433257
 20
455.698381
 11
2078.433257
 21
455.698381
  0
ARC
  8
CSLAYER1
  6
CONTINUOUS
 62
     1
 10
2085.033257
 20
457.898381
 40
1.400000
 50
-0.000000
 51
90.000000
  0
ARC
  8
CSLAYER1
  6
CONTINUOUS
 62
     1
 10
2080.833257
 20
457.898381
 40
1.400000
 50
90.000000
 51
180.000000
  0
LINE
  8
CSLAYER1
  6
CONTINUOUS
 62
     1
 10
2083.973209
 20
455.698381
 11
2081.588007
 21
456.698381
  0
ENDBLK
  8
0
  0
BLOCK
  8
CSLAYER1
  2
BLKF0002
 70
   64
 10
0.0
 20
0.0
 30
0.0
  0
LINE
  8
CSLAYER1
  6
CONTINUOUS
 62
     3
 10
2474.520003
 20
1651.860483
 11
2474.520003
 21
1713.860483
  0
LINE
  8
CSLAYER1
  6
CONTINUOUS
 62
     3
 10
2477.020003
 20
1649.360483
 11
2562.020003
 21
1649.360483
  0
LINE
  8
CSLAYER1
  6
CENTER
 62
     5
 10
2416.170364
 20
1721.860483
 11
2474.520003
 21
1721.860483
  0
LINE
  8
CSLAYER1
  6
CONTINUOUS
 62
     2
 10
2477.020003
 20
1705.860483
 11
2562.020003
 21
1705.860483
  0
LINE
  8
CSLAYER1
  6
CONTINUOUS
 62
     3
 10
2477.020003
 20
1654.360483
 11
2477.020003
 21
1699.360483
  0
LINE
  8
CSLAYER1
  6
CONTINUOUS
 62
     3
 10
2564.520003
 20
1651.860483
 11
2564.520003
 21
1721.860483
  0
LINE
  8
CSLAYER1
  6
CONTINUOUS
 62
     3
 10
2479.520003
 20
1651.860483
 11
2556.520003
 21
1651.860483
  0
LINE
  8
CSLAYER1
  6
CONTINUOUS
 62
     3
 10
2479.520003
 20
1701.860483
 11
2556.520003
 21
1701.860483
  0
ARC
  8
CSLAYER1
  6
CONTINUOUS
 62
     3
 10
2502.451821
 20
1676.860483
 40
59.568182
 50
-24.814837
 51
24.814837
  0
ARC
  8
CSLAYER1
  6
CONTINUOUS
 62
     3
 10
2479.520003
 20
1654.360483
 40
2.500000
 50
180.000000
 51
270.000000
  0
ARC
  8
CSLAYER1
  6
CONTINUOUS
 62
     3
 10
2479.520003
 20
1699.360483
 40
2.500000
 50
90.000000
 51
180.000000
  0
ARC
  8
CSLAYER1
  6
CONTINUOUS
 62
     3
 10
2477.020003
 20
1651.860483
 40
2.500000
 50
180.000000
 51
270.000000
  0
ARC
  8
CSLAYER1
  6
CONTINUOUS
 62
     3
 10
2562.020003
 20
1651.860483
 40
2.500000
 50
270.000000
 51
360.000000
  0
ARC
  8
CSLAYER1
  6
CONTINUOUS
 62
     2
 10
2562.020003
 20
1708.360483
 40
2.500000
 50
270.000000
 51
360.000000
  0
ARC
  8
CSLAYER1
  6
CONTINUOUS
 62
     2
 10
2477.020003
 20
1708.360483
 40
2.500000
 50
180.000000
 51
270.000000
  0
LINE
  8
CSLAYER1
  6
CONTINUOUS
 62
     3
 10
2474.520003
 20
1791.860483
 11
2474.520003
 21
1729.860483
  0
LINE
  8
CSLAYER1
  6
CONTINUOUS
 62
     3
 10
2477.020003
 20
1794.360483
 11
2562.020003
 21
1794.360483
  0
LINE
  8
CSLAYER1
  6
CONTINUOUS
 62
     2
 10
2477.020003
 20
1737.860483
 11
2562.020003
 21
1737.860483
  0
LINE
  8
CSLAYER1
  6
CONTINUOUS
 62
     3
 10
2564.520003
 20
1791.860483
 11
2564.520003
 21
1721.860483
  0
ARC
  8
CSLAYER1
  6
CONTINUOUS
 62
     3
 10
2477.020003
 20
1791.860483
 40
2.500000
 50
90.000000
 51
180.000000
  0
ARC
  8
CSLAYER1
  6
CONTINUOUS
 62
     3
 10
2562.020003
 20
1791.860483
 40
2.500000
 50
-0.000000
 51
90.000000
  0
ARC
  8
CSLAYER1
  6
CONTINUOUS
 62
     2
 10
2562.020003
 20
1735.360483
 40
2.500000
 50
-0.000000
 51
90.000000
  0
ARC
  8
CSLAYER1
  6
CONTINUOUS
 62
     2
 10
2477.020003
 20
1735.360483
 40
2.500000
 50
90.000000
 51
180.000000
  0
LINE
  8
CSLAYER1
  6
CONTINUOUS
 62
     3
 10
2477.020003
 20
1789.360483
 11
2477.020003
 21
1744.360483
  0
LINE
  8
CSLAYER1
  6
CONTINUOUS
 62
     3
 10
2479.520003
 20
1791.860483
 11
2556.520003
 21
1791.860483
  0
LINE
  8
CSLAYER1
  6
CONTINUOUS
 62
     3
 10
2479.520003
 20
1741.860483
 11
2556.520003
 21
1741.860483
  0
ARC
  8
CSLAYER1
  6
CONTINUOUS
 62
     3
 10
2502.451821
 20
1766.860483
 40
59.568182
 50
-24.814837
 51
24.814837
  0
ARC
  8
CSLAYER1
  6
CONTINUOUS
 62
     3
 10
2479.520003
 20
1789.360483
 40
2.500000
 50
90.000000
 51
180.000000
  0
ARC
  8
CSLAYER1
  6
CONTINUOUS
 62
     3
 10
2479.520003
 20
1744.360483
 40
2.500000
 50
180.000000
 51
270.000000
  0
LINE
  8
CSLAYER1
  6
CONTINUOUS
 62
     3
 10
2467.520003
 20
1728.860483
 11
2467.520003
 21
1725.360483
  0
LINE
  8
CSLAYER1
  6
CONTINUOUS
 62
     3
 10
2416.170364
 20
1725.360483
 11
2467.520003
 21
1725.360483
  0
LINE
  8
CSLAYER1
  6
CONTINUOUS
 62
     3
 10
2468.520003
 20
1729.860483
 11
2474.520003
 21
1729.860483
  0
LINE
  8
CSLAYER1
  6
CONTINUOUS
 62
     3
 10
2468.520003
 20
1713.860483
 11
2474.520003
 21
1713.860483
  0
LINE
  8
CSLAYER1
  6
CONTINUOUS
 62
     3
 10
2416.170364
 20
1718.360483
 11
2467.520003
 21
1718.360483
  0
ARC
  8
CSLAYER1
  6
CONTINUOUS
 62
     3
 10
2468.520003
 20
1714.860483
 40
1.000000
 50
180.000000
 51
270.000000
  0
ARC
  8
CSLAYER1
  6
CONTINUOUS
 62
     3
 10
2468.520003
 20
1728.860483
 40
1.000000
 50
90.000000
 51
180.000000
  0
LINE
  8
CSLAYER1
  6
CONTINUOUS
 62
     3
 10
2467.520003
 20
1718.360483
 11
2467.520003
 21
1714.860483
  0
LINE
  8
CSLAYER1
  6
CONTINUOUS
 62
     2
 10
2467.520003
 20
1725.360483
 11
2467.520003
 21
1718.360483
  0
LINE
  8
CSLAYER1
  6
CONTINUOUS
 62
     2
 10
2474.520003
 20
1713.860483
 11
2474.520003
 21
1721.860483
  0
LINE
  8
CSLAYER1
  6
CONTINUOUS
 62
     2
 10
2474.520003
 20
1729.860483
 11
2474.520003
 21
1721.860483
  0
LINE
  8
CSLAYER1
  6
CONTINUOUS
 62
     2
 10
2494.013014
 20
1709.697823
 11
2484.878014
 21
1709.697823
  0
LINE
  8
CSLAYER1
  6
CONTINUOUS
 62
     2
 10
2494.013014
 20
1733.322823
 11
2484.878014
 21
1733.322823
  0
LINE
  8
CSLAYER1
  6
CONTINUOUS
 62
     2
 10
2483.618014
 20
1710.957823
 11
2483.618014
 21
1732.062823
  0
LINE
  8
CSLAYER1
  6
CONTINUOUS
 62
     2
 10
2495.273014
 20
1710.957823
 11
2495.273014
 21
1732.062823
  0
LINE
  8
CSLAYER1
  6
CONTINUOUS
 62
     2
 10
2493.383014
 20
1731.432823
 11
2485.350514
 21
1731.432823
  0
LINE
  8
CSLAYER1
  6
CONTINUOUS
 62
     2
 10
2493.383014
 20
1728.282823
 11
2492.438014
 21
1728.282823
  0
LINE
  8
CSLAYER1
  6
CONTINUOUS
 62
     2
 10
2493.383014
 20
1719.620323
 11
2492.438014
 21
1719.620323
  0
LINE
  8
CSLAYER1
  6
CONTINUOUS
 62
     2
 10
2493.383014
 20
1715.052823
 11
2488.343014
 21
1715.052823
  0
LINE
  8
CSLAYER1
  6
CONTINUOUS
 62
     2
 10
2494.485514
 20
1716.155323
 11
2494.485514
 21
1718.517823
  0
LINE
  8
CSLAYER1
  6
CONTINUOUS
 62
     2
 10
2487.240514
 20
1716.155323
 11
2487.240514
 21
1718.517823
  0
LINE
  8
CSLAYER1
  6
CONTINUOUS
 62
     2
 10
2484.248014
 20
1729.385323
 11
2484.248014
 21
1730.330323
  0
LINE
  8
CSLAYER1
  6
CONTINUOUS
 62
     2
 10
2491.493014
 20
1720.565323
 11
2491.493014
 21
1727.337823
  0
LINE
  8
CSLAYER1
  6
CONTINUOUS
 62
     2
 10
2490.705514
 20
1720.565323
 11
2490.705514
 21
1727.337823
  0
ARC
  8
CSLAYER1
  6
CONTINUOUS
 62
     2
 10
2493.383014
 20
1716.155323
 40
1.102500
 50
270.000000
 51
360.000000
  0
ARC
  8
CSLAYER1
  6
CONTINUOUS
 62
     2
 10
2488.343014
 20
1716.155323
 40
1.102500
 50
180.000000
 51
270.000000
  0
ARC
  8
CSLAYER1
  6
CONTINUOUS
 62
     2
 10
2488.343014
 20
1718.517823
 40
1.102500
 50
90.000000
 51
180.000000
  0
ARC
  8
CSLAYER1
  6
CONTINUOUS
 62
     2
 10
2493.383014
 20
1718.517823
 40
1.102500
 50
-0.000000
 51
90.000000
  0
ARC
  8
CSLAYER1
  6
CONTINUOUS
 62
     2
 10
2485.350514
 20
1729.385323
 40
1.102500
 50
180.000000
 51
270.000000
  0
ARC
  8
CSLAYER1
  6
CONTINUOUS
 62
     2
 10
2485.350514
 20
1730.330323
 40
1.102500
 50
90.000000
 51
180.000000
  0
ARC
  8
CSLAYER1
  6
CONTINUOUS
 62
     2
 10
2493.383014
 20
1730.330323
 40
1.102500
 50
-0.000000
 51
90.000000
  0
ARC
  8
CSLAYER1
  6
CONTINUOUS
 62
     2
 10
2493.383014
 20
1729.385323
 40
1.102500
 50
270.000000
 51
360.000000
  0
LINE
  8
CSLAYER1
  6
CONTINUOUS
 62
     2
 10
2489.760514
 20
1719.620323
 11
2488.343014
 21
1719.620323
  0
LINE
  8
CSLAYER1
  6
CONTINUOUS
 62
     2
 10
2489.760514
 20
1728.282823
 11
2485.350514
 21
1728.282823
  0
ARC
  8
CSLAYER1
  6
CONTINUOUS
 62
     2
 10
2492.438014
 20
1720.565323
 40
0.945000
 50
180.000000
 51
270.000000
  0
ARC
  8
CSLAYER1
  6
CONTINUOUS
 62
     2
 10
2489.760514
 20
1720.565323
 40
0.945000
 50
270.000000
 51
360.000000
  0
ARC
  8
CSLAYER1
  6
CONTINUOUS
 62
     2
 10
2489.760514
 20
1727.337823
 40
0.945000
 50
-0.000000
 51
90.000000
  0
ARC
  8
CSLAYER1
  6
CONTINUOUS
 62
     2
 10
2494.013014
 20
1710.957823
 40
1.260000
 50
270.000000
 51
360.000000
  0
ARC
  8
CSLAYER1
  6
CONTINUOUS
 62
     2
 10
2484.878014
 20
1710.957823
 40
1.260000
 50
180.000000
 51
270.000000
  0
ARC
  8
CSLAYER1
  6
CONTINUOUS
 62
     2
 10
2484.878014
 20
1732.062823
 40
1.260000
 50
90.000000
 51
180.000000
  0
ARC
  8
CSLAYER1
  6
CONTINUOUS
 62
     2
 10
2494.013014
 20
1732.062823
 40
1.260000
 50
-0.000000
 51
90.000000
  0
ARC
  8
CSLAYER1
  6
CONTINUOUS
 62
     2
 10
2492.438014
 20
1727.337823
 40
0.945000
 50
90.000000
 51
180.000000
  0
LINE
  8
CSLAYER1
  6
CONTINUOUS
 62
     2
 10
2494.485514
 20
1729.385323
 11
2494.485514
 21
1730.330323
  0
CIRCLE
  8
CSLAYER1
  6
CONTINUOUS
 62
     2
 10
2509.020003
 20
1671.860483
 40
2.500000
  0
CIRCLE
  8
CSLAYER1
  6
CONTINUOUS
 62
     2
 10
2509.020003
 20
1661.860483
 40
2.500000
  0
CIRCLE
  8
CSLAYER1
  6
CONTINUOUS
 62
     2
 10
2519.020003
 20
1661.860483
 40
2.500000
  0
CIRCLE
  8
CSLAYER1
  6
CONTINUOUS
 62
     2
 10
2519.020003
 20
1671.860483
 40
2.500000
  0
CIRCLE
  8
CSLAYER1
  6
CONTINUOUS
 62
     2
 10
2529.020003
 20
1671.860483
 40
2.500000
  0
CIRCLE
  8
CSLAYER1
  6
CONTINUOUS
 62
     2
 10
2529.020003
 20
1661.860483
 40
2.500000
  0
CIRCLE
  8
CSLAYER1
  6
CONTINUOUS
 62
     2
 10
2539.020003
 20
1661.860483
 40
2.500000
  0
CIRCLE
  8
CSLAYER1
  6
CONTINUOUS
 62
     2
 10
2539.020003
 20
1671.860483
 40
2.500000
  0
CIRCLE
  8
CSLAYER1
  6
CONTINUOUS
 62
     2
 10
2549.020003
 20
1671.860483
 40
2.500000
  0
CIRCLE
  8
CSLAYER1
  6
CONTINUOUS
 62
     2
 10
2549.020003
 20
1661.860483
 40
2.500000
  0
CIRCLE
  8
CSLAYER1
  6
CONTINUOUS
 62
     2
 10
2509.020003
 20
1681.860483
 40
2.500000
  0
CIRCLE
  8
CSLAYER1
  6
CONTINUOUS
 62
     2
 10
2509.020003
 20
1691.860483
 40
2.500000
  0
CIRCLE
  8
CSLAYER1
  6
CONTINUOUS
 62
     2
 10
2519.020003
 20
1691.860483
 40
2.500000
  0
CIRCLE
  8
CSLAYER1
  6
CONTINUOUS
 62
     2
 10
2519.020003
 20
1681.860483
 40
2.500000
  0
CIRCLE
  8
CSLAYER1
  6
CONTINUOUS
 62
     2
 10
2529.020003
 20
1681.860483
 40
2.500000
  0
CIRCLE
  8
CSLAYER1
  6
CONTINUOUS
 62
     2
 10
2529.020003
 20
1691.860483
 40
2.500000
  0
CIRCLE
  8
CSLAYER1
  6
CONTINUOUS
 62
     2
 10
2539.020003
 20
1691.860483
 40
2.500000
  0
CIRCLE
  8
CSLAYER1
  6
CONTINUOUS
 62
     2
 10
2539.020003
 20
1681.860483
 40
2.500000
  0
CIRCLE
  8
CSLAYER1
  6
CONTINUOUS
 62
     2
 10
2549.020003
 20
1681.860483
 40
2.500000
  0
CIRCLE
  8
CSLAYER1
  6
CONTINUOUS
 62
     2
 10
2549.020003
 20
1691.860483
 40
2.500000
  0
CIRCLE
  8
CSLAYER1
  6
CONTINUOUS
 62
     2
 10
2509.020003
 20
1771.860483
 40
2.500000
  0
CIRCLE
  8
CSLAYER1
  6
CONTINUOUS
 62
     2
 10
2509.020003
 20
1781.860483
 40
2.500000
  0
CIRCLE
  8
CSLAYER1
  6
CONTINUOUS
 62
     2
 10
2519.020003
 20
1781.860483
 40
2.500000
  0
CIRCLE
  8
CSLAYER1
  6
CONTINUOUS
 62
     2
 10
2519.020003
 20
1771.860483
 40
2.500000
  0
CIRCLE
  8
CSLAYER1
  6
CONTINUOUS
 62
     2
 10
2529.020003
 20
1771.860483
 40
2.500000
  0
CIRCLE
  8
CSLAYER1
  6
CONTINUOUS
 62
     2
 10
2529.020003
 20
1781.860483
 40
2.500000
  0
CIRCLE
  8
CSLAYER1
  6
CONTINUOUS
 62
     2
 10
2539.020003
 20
1781.860483
 40
2.500000
  0
CIRCLE
  8
CSLAYER1
  6
CONTINUOUS
 62
     2
 10
2539.020003
 20
1771.860483
 40
2.500000
  0
CIRCLE
  8
CSLAYER1
  6
CONTINUOUS
 62
     2
 10
2549.020003
 20
1771.860483
 40
2.500000
  0
CIRCLE
  8
CSLAYER1
  6
CONTINUOUS
 62
     2
 10
2549.020003
 20
1781.860483
 40
2.500000
  0
CIRCLE
  8
CSLAYER1
  6
CONTINUOUS
 62
     2
 10
2509.020003
 20
1761.860483
 40
2.500000
  0
CIRCLE
  8
CSLAYER1
  6
CONTINUOUS
 62
     2
 10
2509.020003
 20
1751.860483
 40
2.500000
  0
CIRCLE
  8
CSLAYER1
  6
CONTINUOUS
 62
     2
 10
2519.020003
 20
1751.860483
 40
2.500000
  0
CIRCLE
  8
CSLAYER1
  6
CONTINUOUS
 62
     2
 10
2519.020003
 20
1761.860483
 40
2.500000
  0
CIRCLE
  8
CSLAYER1
  6
CONTINUOUS
 62
     2
 10
2529.020003
 20
1761.860483
 40
2.500000
  0
CIRCLE
  8
CSLAYER1
  6
CONTINUOUS
 62
     2
 10
2529.020003
 20
1751.860483
 40
2.500000
  0
CIRCLE
  8
CSLAYER1
  6
CONTINUOUS
 62
     2
 10
2539.020003
 20
1751.860483
 40
2.500000
  0
CIRCLE
  8
CSLAYER1
  6
CONTINUOUS
 62
     2
 10
2539.020003
 20
1761.860483
 40
2.500000
  0
CIRCLE
  8
CSLAYER1
  6
CONTINUOUS
 62
     2
 10
2549.020003
 20
1761.860483
 40
2.500000
  0
CIRCLE
  8
CSLAYER1
  6
CONTINUOUS
 62
     2
 10
2549.020003
 20
1751.860483
 40
2.500000
  0
LINE
  8
CSLAYER1
  6
CONTINUOUS
 62
     2
 10
2483.020003
 20
1749.360483
 11
2483.020003
 21
1784.360483
  0
LINE
  8
CSLAYER1
  6
CONTINUOUS
 62
     2
 10
2499.020003
 20
1749.360483
 11
2499.020003
 21
1784.360483
  0
LINE
  8
CSLAYER1
  6
CONTINUOUS
 62
     2
 10
2484.520003
 20
1747.860483
 11
2497.520003
 21
1747.860483
  0
LINE
  8
CSLAYER1
  6
CONTINUOUS
 62
     2
 10
2484.020003
 20
1749.360483
 11
2484.020003
 21
1784.360483
  0
LINE
  8
CSLAYER1
  6
CONTINUOUS
 62
     2
 10
2498.020003
 20
1749.360483
 11
2498.020003
 21
1784.360483
  0
LINE
  8
CSLAYER1
  6
CONTINUOUS
 62
     2
 10
2484.520003
 20
1748.860483
 11
2497.520003
 21
1748.860483
  0
LINE
  8
CSLAYER1
  6
CONTINUOUS
 62
     2
 10
2484.520003
 20
1785.860483
 11
2497.520003
 21
1785.860483
  0
LINE
  8
CSLAYER1
  6
CONTINUOUS
 62
     2
 10
2484.520003
 20
1784.860483
 11
2497.520003
 21
1784.860483
  0
ARC
  8
CSLAYER1
  6
CONTINUOUS
 62
     2
 10
2484.520003
 20
1749.360483
 40
0.500000
 50
180.000000
 51
270.000000
  0
ARC
  8
CSLAYER1
  6
CONTINUOUS
 62
     2
 10
2497.520003
 20
1749.360483
 40
0.500000
 50
270.000000
 51
360.000000
  0
ARC
  8
CSLAYER1
  6
CONTINUOUS
 62
     2
 10
2484.520003
 20
1784.360483
 40
0.500000
 50
90.000000
 51
180.000000
  0
ARC
  8
CSLAYER1
  6
CONTINUOUS
 62
     2
 10
2497.520003
 20
1784.360483
 40
0.500000
 50
-0.000000
 51
90.000000
  0
ARC
  8
CSLAYER1
  6
CONTINUOUS
 62
     2
 10
2484.520003
 20
1749.360483
 40
1.500000
 50
180.000000
 51
270.000000
  0
ARC
  8
CSLAYER1
  6
CONTINUOUS
 62
     2
 10
2497.520003
 20
1749.360483
 40
1.500000
 50
270.000000
 51
360.000000
  0
ARC
  8
CSLAYER1
  6
CONTINUOUS
 62
     2
 10
2484.520003
 20
1784.360483
 40
1.500000
 50
90.000000
 51
180.000000
  0
ARC
  8
CSLAYER1
  6
CONTINUOUS
 62
     2
 10
2497.520003
 20
1784.360483
 40
1.500000
 50
-0.000000
 51
90.000000
  0
LINE
  8
CSLAYER1
  6
CONTINUOUS
 62
     2
 10
2488.020003
 20
1757.860483
 11
2488.020003
 21
1775.860483
  0
LINE
  8
CSLAYER1
  6
CONTINUOUS
 62
     2
 10
2484.941931
 20
1766.860483
 11
2488.020003
 21
1775.860483
  0
LINE
  8
CSLAYER1
  6
CONTINUOUS
 62
     2
 10
2484.941931
 20
1766.860483
 11
2488.020003
 21
1757.860483
  0
TEXT
  8
CSLAYER1
 62
     2
 10
2496.313544
 20
1757.880439
 40
7.066058
 41
1.574983
  1
UP
 50
89.999985
 51
0.000000
  7
EASYDRAW_FONT
 72
     5
 11
2496.313549
 21
1776.428641
  0
LINE
  8
CSLAYER1
  6
CONTINUOUS
 62
     2
 10
2483.020003
 20
1694.360483
 11
2483.020003
 21
1659.360483
  0
LINE
  8
CSLAYER1
  6
CONTINUOUS
 62
     2
 10
2499.020003
 20
1694.360483
 11
2499.020003
 21
1659.360483
  0
LINE
  8
CSLAYER1
  6
CONTINUOUS
 62
     2
 10
2484.520003
 20
1695.860483
 11
2497.520003
 21
1695.860483
  0
LINE
  8
CSLAYER1
  6
CONTINUOUS
 62
     2
 10
2484.020003
 20
1694.360483
 11
2484.020003
 21
1659.360483
  0
LINE
  8
CSLAYER1
  6
CONTINUOUS
 62
     2
 10
2498.020003
 20
1694.360483
 11
2498.020003
 21
1659.360483
  0
LINE
  8
CSLAYER1
  6
CONTINUOUS
 62
     2
 10
2484.520003
 20
1694.860483
 11
2497.520003
 21
1694.860483
  0
LINE
  8
CSLAYER1
  6
CONTINUOUS
 62
     2
 10
2484.520003
 20
1657.860483
 11
2497.520003
 21
1657.860483
  0
LINE
  8
CSLAYER1
  6
CONTINUOUS
 62
     2
 10
2484.520003
 20
1658.860483
 11
2497.520003
 21
1658.860483
  0
ARC
  8
CSLAYER1
  6
CONTINUOUS
 62
     2
 10
2484.520003
 20
1694.360483
 40
0.500000
 50
90.000000
 51
180.000000
  0
ARC
  8
CSLAYER1
  6
CONTINUOUS
 62
     2
 10
2497.520003
 20
1694.360483
 40
0.500000
 50
-0.000000
 51
90.000000
  0
ARC
  8
CSLAYER1
  6
CONTINUOUS
 62
     2
 10
2484.520003
 20
1659.360483
 40
0.500000
 50
180.000000
 51
270.000000
  0
ARC
  8
CSLAYER1
  6
CONTINUOUS
 62
     2
 10
2497.520003
 20
1659.360483
 40
0.500000
 50
270.000000
 51
360.000000
  0
ARC
  8
CSLAYER1
  6
CONTINUOUS
 62
     2
 10
2484.520003
 20
1694.360483
 40
1.500000
 50
90.000000
 51
180.000000
  0
ARC
  8
CSLAYER1
  6
CONTINUOUS
 62
     2
 10
2497.520003
 20
1694.360483
 40
1.500000
 50
-0.000000
 51
90.000000
  0
ARC
  8
CSLAYER1
  6
CONTINUOUS
 62
     2
 10
2484.520003
 20
1659.360483
 40
1.500000
 50
180.000000
 51
270.000000
  0
ARC
  8
CSLAYER1
  6
CONTINUOUS
 62
     2
 10
2497.520003
 20
1659.360483
 40
1.500000
 50
270.000000
 51
360.000000
  0
LINE
  8
CSLAYER1
  6
CONTINUOUS
 62
     2
 10
2493.492933
 20
1685.860483
 11
2493.492933
 21
1667.860483
  0
LINE
  8
CSLAYER1
  6
CONTINUOUS
 62
     2
 10
2496.571005
 20
1676.860483
 11
2493.492933
 21
1667.860483
  0
LINE
  8
CSLAYER1
  6
CONTINUOUS
 62
     2
 10
2496.571005
 20
1676.860483
 11
2493.492933
 21
1685.860483
  0
TEXT
  8
CSLAYER1
 62
     2
 10
2491.882702
 20
1662.162626
 40
6.383575
 41
1.255870
  1
DOWN
 50
89.999985
 51
0.000000
  7
EASYDRAW_FONT
 72
     5
 11
2491.882709
 21
1691.558075
  0
ENDBLK
  8
0
  0
ENDSEC
  0
SECTION
  2
ENTITIES
  0
LINE
  8
CSLAYER1
  6
CONTINUOUS
 62
     3
 10
118.051807
 20
2400.454119
 11
118.051807
 21
51.907189
  0
LINE
  8
CSLAYER1
  6
CONTINUOUS
 62
     3
 10
3440.625117
 20
2400.454119
 11
118.051807
 21
2400.454119
  0
LINE
  8
CSLAYER1
  6
CONTINUOUS
 62
     3
 10
3440.625117
 20
2400.454119
 11
3440.625117
 21
51.907189
  0
LINE
  8
CSLAYER1
  6
CONTINUOUS
 62
     3
 10
3440.625117
 20
51.907189
 11
118.051807
 21
51.907189
  0
LINE
  8
CSLAYER1
  6
CONTINUOUS
 62
     5
 10
68.051807
 20
1211.907189
 11
18.051807
 21
1211.907189
  0
LINE
  8
CSLAYER1
  6
CONTINUOUS
 62
     5
 10
2640.625117
 20
491.907189
 11
3440.625117
 21
491.907189
  0
LINE
  8
CSLAYER1
  6
CONTINUOUS
 62
     5
 10
2640.625117
 20
131.907189
 11
3440.625117
 21
131.907189
  0
LINE
  8
CSLAYER1
  6
CONTINUOUS
 62
     5
 10
2640.625117
 20
291.907189
 11
3440.625117
 21
291.907189
  0
LINE
  8
CSLAYER1
  6
CONTINUOUS
 62
     5
 10
2640.625117
 20
351.907189
 11
3440.625117
 21
351.907189
  0
LINE
  8
CSLAYER1
  6
CONTINUOUS
 62
     5
 10
2640.625117
 20
411.907189
 11
3440.625117
 21
411.907189
  0
LINE
  8
CSLAYER1
  6
CONTINUOUS
 62
     5
 10
2640.625117
 20
571.907189
 11
3440.625117
 21
571.907189
  0
LINE
  8
CSLAYER1
  6
CONTINUOUS
 62
     5
 10
2640.625117
 20
651.907189
 11
2640.625117
 21
51.907189
  0
LINE
  8
CSLAYER1
  6
CONTINUOUS
 62
     5
 10
2840.625117
 20
651.907189
 11
2840.625117
 21
411.907189
  0
LINE
  8
CSLAYER1
  6
CONTINUOUS
 62
     5
 10
2640.625117
 20
651.907189
 11
3440.625117
 21
651.907189
  0
LINE
  8
CSLAYER1
  6
CONTINUOUS
 62
     5
 10
3140.625117
 20
411.907189
 11
3140.625117
 21
131.907189
  0
TEXT
  8
CSLAYER1
 62
     3
 10
2860.316219
 20
60.469913
 40
59.380363
 41
1.003345
  1
東正車輌株式会社
 50
0.000000
 51
0.000000
  7
EASYDRAW_FONT
 72
     5
 11
3317.088566
 21
60.469913
  0
LINE
  8
CSLAYER1
  6
CONTINUOUS
 62
     5
 10
2890.625117
 20
351.907189
 11
2890.625117
 21
131.907189
  0
TEXT
  8
CSLAYER1
 62
     5
 10
2670.625000
 20
586.907166
 40
50.000000
 41
1.050000
  1
品　名
 50
0.000000
 51
0.000000
  7
EASYDRAW_FONT
 72
     5
 11
2810.625000
 21
586.907166
  0
TEXT
  8
CSLAYER1
 62
     5
 10
2670.625000
 20
506.907166
 40
50.000000
 41
1.050000
  1
型　式
 50
0.000000
 51
0.000000
  7
EASYDRAW_FONT
 72
     5
 11
2810.625000
 21
506.907166
  0
TEXT
  8
CSLAYER1
 62
     5
 10
2645.625000
 20
426.907196
 40
50.000000
 41
1.036364
  1
図面番号
 50
0.000000
 51
0.000000
  7
EASYDRAW_FONT
 72
     5
 11
2835.625000
 21
426.907196
  0
TEXT
  8
CSLAYER1
 62
     5
 10
2690.625000
 20
356.907196
 40
50.000000
 41
0.827586
  1
平成２８年４月１６日
 50
0.000000
 51
0.000000
  7
EASYDRAW_FONT
 72
     5
 11
3090.625000
 21
356.907196
  0
TEXT
  8
CSLAYER1
 62
     5
 10
3220.625000
 20
356.907196
 40
50.000000
 41
1.050000
  1
Ｂ－４
 50
0.000000
 51
0.000000
  7
EASYDRAW_FONT
 72
     5
 11
3360.625000
 21
356.907196
  0
TEXT
  8
CSLAYER1
 62
     5
 10
2695.625000
 20
296.907196
 40
50.000000
 41
1.050000
  1
検　図
 50
0.000000
 51
0.000000
  7
EASYDRAW_FONT
 72
     5
 11
2835.625000
 21
296.907196
  0
TEXT
  8
CSLAYER1
 62
     5
 10
2945.625000
 20
296.907196
 40
50.000000
 41
1.050000
  1
作　図
 50
0.000000
 51
0.000000
  7
EASYDRAW_FONT
 72
     5
 11
3085.625000
 21
296.907196
  0
TEXT
  8
CSLAYER1
 62
     5
 10
3220.625000
 20
296.907196
 40
50.000000
 41
1.050000
  1
尺　度
 50
0.000000
 51
0.000000
  7
EASYDRAW_FONT
 72
     5
 11
3360.625000
 21
296.907196
  0
TEXT
  8
CSLAYER1
 62
     5
 10
3321.363770
 20
146.392456
 40
50.000000
 41
1.080000
  1
１０
 50
0.000000
 51
0.000000
  7
EASYDRAW_FONT
 72
     5
 11
3411.363770
 21
146.392456
  0
TEXT
  8
CSLAYER1
 62
     5
 10
3301.044189
 20
194.097153
 40
50.000000
 41
1.200000
  1
／
 50
0.000000
 51
0.000000
  7
EASYDRAW_FONT
 72
     5
 11
3341.044189
 21
194.097153
  0
TEXT
  8
CSLAYER1
 62
     5
 10
3270.831299
 20
229.080597
 40
50.000000
 41
1.200000
  1
１
 50
0.000000
 51
0.000000
  7
EASYDRAW_FONT
 72
     5
 11
3310.831299
 21
229.080597
  0
TEXT
  8
CSLAYER1
 62
     3
 10
2980.625000
 20
586.907166
 40
50.000000
 41
0.834783
  1
ゴールドリフター
 50
0.000000
 51
0.000000
  7
EASYDRAW_FONT
 72
     5
 11
3300.625000
 21
586.907166
  0
TEXT
  8
CSLAYER1
 62
     3
 10
2880.625000
 20
506.907166
 40
50.000000
 41
0.821053
  1
ＧＬＩ－１０００－０８１０
 50
0.000000
 51
0.000000
  7
EASYDRAW_FONT
 72
     5
 11
3400.625000
 21
506.907166
  0
TEXT
  8
CSLAYER1
 62
     3
 10
3040.625000
 20
426.907196
 40
50.000000
 41
0.857143
  1
GI-33
 50
0.000000
 51
0.000000
  7
EASYDRAW_FONT
 72
     5
 11
3240.625000
 21
426.907196
  0
INSERT
  8
CSLAYER1
  2
BLKF0000
 10
0.0
 20
0.0
 30
0.0
  0
LINE
  8
CSLAYER1
  6
CONTINUOUS
 62
     5
 10
1151.833257
 20
910.657810
 11
1179.033257
 21
910.657810
  0
LINE
  8
CSLAYER1
  6
CONTINUOUS
 62
     5
 10
1165.433257
 20
924.257810
 11
1165.433257
 21
897.057810
  0
CIRCLE
  8
CSLAYER1
  6
CONTINUOUS
 62
     4
 10
1165.433257
 20
910.657810
 40
8.000000
  0
LINE
  8
CSLAYER1
  6
CONTINUOUS
 62
     3
 10
195.881212
 20
350.398381
 11
2549.995295
 21
350.398381
  0
LINE
  8
CSLAYER1
  6
CONTINUOUS
 62
     7
 10
1123.433257
 20
415.398381
 11
1123.433257
 21
350.398381
  0
LINE
  8
CSLAYER1
  6
CONTINUOUS
 62
     7
 10
2173.433257
 20
415.398381
 11
2173.433257
 21
350.398381
  0
LINE
  8
CSLAYER1
  6
CONTINUOUS
 62
     7
 10
2173.433257
 20
415.398381
 11
1123.433257
 21
415.398381
  0
LINE
  8
CSLAYER1
  6
CONTINUOUS
 62
     7
 10
1126.633257
 20
1084.857810
 11
2170.408081
 21
1084.857810
  0
LINE
  8
CSLAYER1
  6
CONTINUOUS
 62
     7
 10
1123.433257
 20
1081.657810
 11
1123.433257
 21
1031.857810
  0
LINE
  8
CSLAYER1
  6
CONTINUOUS
 62
     7
 10
2173.433257
 20
1081.857810
 11
2173.433257
 21
1031.857810
  0
LINE
  8
CSLAYER1
  6
CONTINUOUS
 62
     7
 10
2170.233257
 20
1031.857810
 11
2170.233257
 21
959.657810
  0
ARC
  8
CSLAYER1
  6
CONTINUOUS
 62
     7
 10
2170.433257
 20
1081.857810
 40
3.000000
 50
0.000000
 51
90.000000
  0
LINE
  8
CSLAYER1
  6
CONTINUOUS
 62
     7
 10
1123.433257
 20
1031.857810
 11
2173.433257
 21
1031.857810
  0
LINE
  8
CSLAYER1
  6
CONTINUOUS
 62
     7
 10
2155.233257
 20
931.657810
 11
1708.233257
 21
931.657810
  0
LINE
  8
CSLAYER1
  6
CONTINUOUS
 62
     3
 10
1135.433257
 20
1031.857810
 11
1135.433257
 21
891.657810
  0
LINE
  8
CSLAYER1
  6
CONTINUOUS
 62
     3
 10
1185.433257
 20
1031.857810
 11
1185.433257
 21
906.657810
  0
ARC
  8
CSLAYER1
  6
CONTINUOUS
 62
     3
 10
1170.433257
 20
906.657810
 40
15.000000
 50
270.000000
 51
360.000000
  0
LINE
  8
CSLAYER1
  6
CONTINUOUS
 62
     3
 10
1135.433257
 20
891.657810
 11
1170.433257
 21
891.657810
  0
LINE
  8
CSLAYER1
  6
CONTINUOUS
 62
     7
 10
2158.233257
 20
1031.857810
 11
2158.233257
 21
934.657810
  0
LINE
  8
CSLAYER1
  6
CONTINUOUS
 62
     2
 10
1812.602872
 20
931.657810
 11
1690.979144
 21
858.498711
  0
POINT
  8
CSLAYER1
 62
     1
 10
1703.633854
 20
866.110771
  0
ARC
  8
CSLAYER1
  6
CONTINUOUS
 62
     1
 10
1703.633854
 20
866.110771
 40
15.050000
 50
269.197215
 51
359.061999
  0
ARC
  8
CSLAYER1
  6
CONTINUOUS
 62
     1
 10
1703.212129
 20
836.013725
 40
15.050000
 50
89.197215
 51
118.570329
  0
ARC
  8
CSLAYER1
  6
CONTINUOUS
 62
     1
 10
1703.633854
 20
866.110771
 40
13.000000
 50
83.396518
 51
338.658978
  0
ARC
  8
CSLAYER1
  6
CONTINUOUS
 62
     1
 10
1703.633854
 20
866.110771
 40
15.050000
 50
62.993497
 51
163.588605
  0
POINT
  8
CSLAYER1
 62
     1
 10
1730.840993
 20
882.476408
  0
POINT
  8
CSLAYER1
 62
     1
 10
1758.048132
 20
898.842045
  0
CIRCLE
  8
CSLAYER1
  6
CONTINUOUS
 62
     1
 10
1703.633854
 20
866.110771
 40
4.770000
  0
CIRCLE
  8
CSLAYER1
  6
CONTINUOUS
 62
     1
 10
1730.840993
 20
882.476408
 40
4.770000
  0
ARC
  8
CSLAYER1
  6
CONTINUOUS
 62
     1
 10
1730.840993
 20
882.476408
 40
13.000000
 50
-96.603482
 51
158.658978
  0
ARC
  8
CSLAYER1
  6
CONTINUOUS
 62
     1
 10
1730.840993
 20
882.476408
 40
15.050000
 50
242.993497
 51
332.858282
  0
ARC
  8
CSLAYER1
  6
CONTINUOUS
 62
     1
 10
1758.048132
 20
898.842045
 40
15.050000
 50
-90.802785
 51
152.858282
  0
ARC
  8
CSLAYER1
  6
CONTINUOUS
 62
     1
 10
1727.851057
 20
856.648898
 40
13.000000
 50
83.396518
 51
158.658978
  0
ARC
  8
CSLAYER1
  6
CONTINUOUS
 62
     1
 10
1706.623789
 20
891.938281
 40
13.000000
 50
263.396518
 51
338.658978
  0
ARC
  8
CSLAYER1
  6
CONTINUOUS
 62
     1
 10
1757.626407
 20
868.744999
 40
15.050000
 50
89.197215
 51
152.858282
  0
ARC
  8
CSLAYER1
  6
CONTINUOUS
 62
     1
 10
1731.262717
 20
912.573453
 40
15.050000
 50
269.197215
 51
332.858282
  0
CIRCLE
  8
CSLAYER1
  6
CONTINUOUS
 62
     4
 10
1703.633854
 20
866.110771
 40
9.525000
  0
CIRCLE
  8
CSLAYER1
  6
CONTINUOUS
 62
     4
 10
1730.840993
 20
882.476408
 40
9.525000
  0
ARC
  8
CSLAYER1
  6
CONTINUOUS
 62
     1
 10
1730.840993
 20
882.476408
 40
15.050000
 50
89.197215
 51
179.061999
  0
ARC
  8
CSLAYER1
  6
CONTINUOUS
 62
     1
 10
1758.048132
 20
898.842045
 40
13.000000
 50
83.396518
 51
338.658978
  0
POINT
  8
CSLAYER1
 62
     5
 10
1785.255271
 20
915.207682
  0
CIRCLE
  8
CSLAYER1
  6
CONTINUOUS
 62
     1
 10
1758.048132
 20
898.842045
 40
4.770000
  0
ARC
  8
CSLAYER1
  6
CONTINUOUS
 62
     1
 10
1785.255271
 20
915.207682
 40
13.000000
 50
-96.603482
 51
158.658978
  0
ARC
  8
CSLAYER1
  6
CONTINUOUS
 62
     1
 10
1782.265336
 20
889.380172
 40
13.000000
 50
83.396518
 51
158.658978
  0
ARC
  8
CSLAYER1
  6
CONTINUOUS
 62
     1
 10
1761.038067
 20
924.669555
 40
13.000000
 50
263.396518
 51
338.658978
  0
CIRCLE
  8
CSLAYER1
  6
CONTINUOUS
 62
     4
 10
1758.048132
 20
898.842045
 40
9.525000
  0
LINE
  8
CSLAYER1
  6
CONTINUOUS
 62
     1
 10
1792.864788
 20
931.657810
 11
1804.565088
 21
912.206584
  0
LINE
  8
CSLAYER1
  6
CONTINUOUS
 62
     1
 10
1766.096763
 20
917.957236
 11
1778.706246
 21
896.994535
  0
POINT
  8
CSLAYER1
 62
     1
 10
1785.255271
 20
915.207682
  0
CIRCLE
  8
CSLAYER1
  6
CONTINUOUS
 62
     1
 10
1785.255271
 20
915.207682
 40
4.770000
  0
LINE
  8
CSLAYER1
  6
CONTINUOUS
 62
     1
 10
1765.402234
 20
921.456995
 11
1782.360632
 21
931.657810
  0
LINE
  8
CSLAYER1
  6
CONTINUOUS
 62
     1
 10
1792.618869
 20
929.743317
 11
1768.963763
 21
915.514299
  0
ARC
  8
CSLAYER1
  6
CONTINUOUS
 62
     1
 10
1787.079020
 20
930.445206
 40
5.584136
 50
-7.220802
 51
12.541786
  0
ARC
  8
CSLAYER1
  6
CONTINUOUS
 62
     1
 10
1770.762778
 20
906.490158
 40
31.912350
 50
15.281570
 51
46.773927
  0
LINE
  8
CSLAYER1
  6
CONTINUOUS
 62
     1
 10
1777.974302
 20
927.311968
 11
1792.530229
 21
903.113390
  0
ARC
  8
CSLAYER1
  6
CONTINUOUS
 62
     1
 10
1770.939776
 20
920.737128
 40
5.584136
 50
172.593231
 51
249.276298
  0
ARC
  8
CSLAYER1
  6
CONTINUOUS
 62
     1
 10
1799.747764
 20
923.925206
 40
31.912350
 50
195.281570
 51
226.773927
  0
LINE
  8
CSLAYER1
  6
CONTINUOUS
 62
     1
 10
1781.472472
 20
894.740943
 11
1805.108308
 21
908.958370
  0
LINE
  8
CSLAYER1
  6
CONTINUOUS
 62
     1
 10
1801.546779
 20
914.901066
 11
1777.891673
 21
900.672048
  0
ARC
  8
CSLAYER1
  6
CONTINUOUS
 62
     1
 10
1799.570767
 20
909.678236
 40
5.584136
 50
-7.406769
 51
69.276298
  0
ARC
  8
CSLAYER1
  6
CONTINUOUS
 62
     1
 10
1783.431522
 20
899.970158
 40
5.584136
 50
172.779198
 51
249.462265
  0
LINE
  8
CSLAYER1
  6
CONTINUOUS
 62
     1
 10
1804.534519
 20
931.657810
 11
1811.832747
 21
919.524833
  0
LINE
  8
CSLAYER1
  6
CONTINUOUS
 62
     1
 10
1811.059567
 20
920.810210
 11
1829.093217
 21
931.657810
  0
LINE
  8
CSLAYER1
  6
CONTINUOUS
 62
     1
 10
1811.059567
 20
920.810210
 11
1809.606409
 21
918.185646
  0
LINE
  8
CSLAYER1
  6
CONTINUOUS
 62
     1
 10
1804.977404
 20
915.401208
 11
1832.003277
 21
931.657810
  0
ARC
  8
CSLAYER1
  6
CONTINUOUS
 62
     1
 10
1806.008311
 20
913.687372
 40
2.000000
 50
121.027748
 51
211.027748
  0
POINT
  8
CSLAYER1
 62
     1
 10
1798.109038
 20
922.939479
  0
CIRCLE
  8
CSLAYER1
  6
CONTINUOUS
 62
     4
 10
1975.701349
 20
910.657810
 40
21.000000
  0
CIRCLE
  8
CSLAYER1
  6
CONTINUOUS
 62
     4
 10
1975.701349
 20
910.657810
 40
7.500000
  0
LINE
  8
CSLAYER1
  6
CONTINUOUS
 62
     3
 10
1123.433257
 20
2122.060483
 11
1123.433257
 21
1322.060483
  0
LINE
  8
CSLAYER1
  6
CENTER
 62
     5
 10
775.252300
 20
981.657810
 11
775.252300
 21
668.268041
  0
LINE
  8
CSLAYER1
  6
CONTINUOUS
 62
     7
 10
1708.233257
 20
956.657810
 11
1708.233257
 21
931.657810
  0
LINE
  8
CSLAYER1
  6
CONTINUOUS
 62
     3
 10
2173.433257
 20
2122.060483
 11
2173.433257
 21
1322.060483
  0
LINE
  8
CSLAYER1
  6
CONTINUOUS
 62
     1
 10
1698.207970
 20
880.148658
 11
1769.345321
 21
931.657810
  0
LINE
  8
CSLAYER1
  6
CONTINUOUS
 62
     1
 10
1851.753576
 20
918.485284
 11
1842.215610
 21
931.657810
  0
LINE
  8
CSLAYER1
  6
CONTINUOUS
 62
     1
 10
1851.753576
 20
918.485284
 11
1851.530091
 21
917.088841
  0
LINE
  8
CSLAYER1
  6
CONTINUOUS
 62
     1
 10
1728.262665
 20
811.104199
 11
1728.039179
 21
809.707756
  0
LINE
  8
CSLAYER1
  6
CONTINUOUS
 62
     4
 10
1255.914897
 20
415.398381
 11
1521.989884
 21
590.509553
  0
LINE
  8
CSLAYER1
  6
CONTINUOUS
 62
     4
 10
1671.589200
 20
731.558381
 11
1638.485858
 21
690.311283
  0
LINE
  8
CSLAYER1
  6
CONTINUOUS
 62
     4
 10
1887.989831
 20
876.875171
 11
1683.096265
 21
742.029153
  0
ARC
  8
CSLAYER1
  6
CONTINUOUS
 62
     4
 10
1710.583864
 20
700.262756
 40
50.000000
 50
123.350000
 51
141.250806
  0
LINE
  8
CSLAYER1
  6
CONTINUOUS
 62
     4
 10
1708.233257
 20
933.354147
 11
1641.621124
 21
889.514894
  0
LINE
  8
CSLAYER1
  6
CONTINUOUS
 62
     4
 10
1984.790775
 20
929.588799
 11
1983.429103
 21
931.657810
  0
LINE
  8
CSLAYER1
  6
CONTINUOUS
 62
     4
 10
1909.639035
 20
884.766736
 11
1967.060512
 21
891.517905
  0
ARC
  8
CSLAYER1
  6
CONTINUOUS
 62
     4
 10
1915.477430
 20
835.108775
 40
50.000000
 50
96.705606
 51
123.350000
  0
LINE
  8
CSLAYER1
  6
CONTINUOUS
 62
     4
 10
1757.497294
 20
931.657810
 11
1703.808387
 21
896.323683
  0
LINE
  8
CSLAYER1
  6
CONTINUOUS
 62
     4
 10
1875.732428
 20
931.657810
 11
1739.542267
 21
842.027367
  0
ARC
  8
CSLAYER1
  6
CONTINUOUS
 62
     4
 10
1721.675327
 20
869.175525
 40
32.500000
 50
123.350000
 51
303.350000
  0
LINE
  8
CSLAYER1
  6
CONTINUOUS
 62
     4
 10
1541.994954
 20
596.492626
 11
1521.989884
 21
590.509553
  0
LINE
  8
CSLAYER1
  6
CONTINUOUS
 62
     4
 10
1541.994954
 20
596.492626
 11
1570.567303
 21
615.296864
  0
LINE
  8
CSLAYER1
  6
CONTINUOUS
 62
     4
 10
1282.393922
 20
924.665053
 11
1185.433257
 21
927.983796
  0
LINE
  8
CSLAYER1
  6
CONTINUOUS
 62
     4
 10
1282.393922
 20
924.665053
 11
1942.302987
 21
490.360983
  0
LINE
  8
CSLAYER1
  6
CONTINUOUS
 62
     4
 10
1161.561021
 20
891.657810
 11
1502.198812
 21
667.474832
  0
LINE
  8
CSLAYER1
  6
CONTINUOUS
 62
     4
 10
1599.139652
 20
596.492626
 11
1515.606859
 21
651.467824
  0
LINE
  8
CSLAYER1
  6
CONTINUOUS
 62
     4
 10
1599.139652
 20
596.492626
 11
1619.144722
 21
590.509553
  0
LINE
  8
CSLAYER1
  6
CONTINUOUS
 62
     4
 10
1619.144722
 20
590.509553
 11
1885.219710
 21
415.398381
  0
LINE
  8
CSLAYER1
  6
CONTINUOUS
 62
     4
 10
1942.302987
 20
490.360983
 11
1977.674182
 21
415.398381
  0
LINE
  8
CSLAYER1
  6
CONTINUOUS
 62
     4
 10
1515.606859
 20
651.467824
 11
1502.198812
 21
667.474832
  0
LINE
  8
CSLAYER1
  6
CONTINUOUS
 62
     4
 10
1780.581007
 20
596.794608
 11
1673.761902
 21
731.428839
  0
ARC
  8
CSLAYER1
  6
CONTINUOUS
 62
     7
 10
1126.633257
 20
1081.657810
 40
3.200000
 50
90.000000
 51
180.000000
  0
LINE
  8
CSLAYER1
  6
CONTINUOUS
 62
     7
 10
2170.233257
 20
959.657810
 11
2167.233257
 21
956.657810
  0
LINE
  8
CSLAYER1
  6
CONTINUOUS
 62
     7
 10
2158.233257
 20
934.657810
 11
2155.233257
 21
931.657810
  0
LINE
  8
CSLAYER1
  6
CONTINUOUS
 62
     7
 10
1166.038568
 20
433.315447
 11
1168.450890
 21
425.974735
  0
LINE
  8
CSLAYER1
  6
CONTINUOUS
 62
     7
 10
1166.038568
 20
433.315447
 11
1172.992970
 21
435.600819
  0
LINE
  8
CSLAYER1
  6
CONTINUOUS
 62
     7
 10
1161.252427
 20
457.531616
 11
1170.727335
 21
460.645282
  0
LINE
  8
CSLAYER1
  6
CONTINUOUS
 62
     7
 10
1161.408079
 20
449.007607
 11
1166.513577
 21
433.471546
  0
LINE
  8
CSLAYER1
  6
CONTINUOUS
 62
     7
 10
1175.658340
 20
453.690562
 11
1178.068302
 21
446.357032
  0
LINE
  8
CSLAYER1
  6
CONTINUOUS
 62
     7
 10
1162.946788
 20
468.348602
 11
1173.414716
 21
436.494630
  0
LINE
  8
CSLAYER1
  6
CONTINUOUS
 62
     7
 10
1170.727335
 20
460.645282
 11
1175.658340
 21
453.690562
  0
LINE
  8
CSLAYER1
  6
CONTINUOUS
 62
     7
 10
1161.252427
 20
457.531616
 11
1161.408079
 21
449.007607
  0
LINE
  8
CSLAYER1
  6
CONTINUOUS
 62
     7
 10
1164.217748
 20
470.887275
 11
1167.889916
 21
459.712843
  0
LINE
  8
CSLAYER1
  6
CONTINUOUS
 62
     7
 10
1160.417678
 20
469.638487
 11
1164.089846
 21
458.464055
  0
ARC
  8
CSLAYER1
  6
CONTINUOUS
 62
     7
 10
1154.717574
 20
467.765305
 40
10.000000
 50
18.191680
 51
172.646207
  0
ARC
  8
CSLAYER1
  6
CONTINUOUS
 62
     7
 10
1154.717574
 20
467.765305
 40
6.000000
 50
18.191680
 51
179.490121
  0
LINE
  8
CSLAYER1
  6
CONTINUOUS
 62
     7
 10
1166.133570
 20
433.346667
 11
1168.512938
 21
426.106234
  0
CIRCLE
  8
CSLAYER1
  6
CONTINUOUS
 62
     7
 10
1405.464594
 20
631.140291
 40
14.100000
  0
LINE
  8
CSLAYER1
  6
CONTINUOUS
 62
     7
 10
1250.623256
 20
558.530650
 11
1259.972433
 21
545.618853
  0
LINE
  8
CSLAYER1
  6
CENTER
 62
     5
 10
1338.718046
 20
639.556071
 11
1407.547403
 21
689.394049
  0
CIRCLE
  8
CSLAYER1
  6
CONTINUOUS
 62
     7
 10
1473.273370
 20
553.690501
 40
0.500000
  0
LINE
  8
CSLAYER1
  6
CONTINUOUS
 62
     7
 10
1346.479418
 20
656.334516
 11
1357.008954
 21
663.958745
  0
LINE
  8
CSLAYER1
  6
CONTINUOUS
 62
     7
 10
1135.023199
 20
511.865600
 11
1179.799715
 21
450.026438
  0
LINE
  8
CSLAYER1
  6
CONTINUOUS
 62
     7
 10
1181.191165
 20
545.294912
 11
1198.785540
 21
520.995983
  0
LINE
  8
CSLAYER1
  6
CONTINUOUS
 62
     7
 10
1293.329234
 20
624.022629
 11
1314.513988
 21
594.765163
  0
LINE
  8
CSLAYER1
  6
CONTINUOUS
 62
     7
 10
1352.610360
 20
670.033478
 11
1370.549832
 21
645.257947
  0
LINE
  8
CSLAYER1
  6
CONTINUOUS
 62
     7
 10
1135.023199
 20
511.865600
 11
1181.191165
 21
545.294912
  0
LINE
  8
CSLAYER1
  6
CONTINUOUS
 62
     7
 10
1182.364124
 20
543.674984
 11
1299.808949
 21
628.714463
  0
LINE
  8
CSLAYER1
  6
CONTINUOUS
 62
     7
 10
1307.377645
 20
626.787073
 11
1347.065897
 21
655.524552
  0
LINE
  8
CSLAYER1
  6
CONTINUOUS
 62
     7
 10
1135.023199
 20
511.865600
 11
1139.100110
 21
492.594409
  0
LINE
  8
CSLAYER1
  6
CONTINUOUS
 62
     7
 10
1261.697283
 20
562.845267
 11
1268.564596
 21
553.361080
  0
LINE
  8
CSLAYER1
  6
CONTINUOUS
 62
     7
 10
1195.685192
 20
515.047215
 11
1207.542233
 21
498.671902
  0
LINE
  8
CSLAYER1
  6
CONTINUOUS
 62
     7
 10
1196.355647
 20
519.236545
 11
1309.750651
 21
601.343629
  0
LINE
  8
CSLAYER1
  6
CONTINUOUS
 62
     7
 10
1163.866395
 20
458.390624
 11
1152.930966
 21
473.493134
  0
ARC
  8
CSLAYER1
  6
CONTINUOUS
 62
     7
 10
1198.115085
 20
516.806653
 40
3.000000
 50
125.907555
 51
215.907555
  0
ARC
  8
CSLAYER1
  6
CONTINUOUS
 62
     7
 10
1259.267390
 20
561.085830
 40
3.000000
 50
35.907555
 51
125.907555
  0
LINE
  8
CSLAYER1
  6
CONTINUOUS
 62
     7
 10
1346.479418
 20
656.334516
 11
1360.836953
 21
636.505865
  0
LINE
  8
CSLAYER1
  6
CONTINUOUS
 62
     7
 10
1319.527110
 20
635.584260
 11
1335.434037
 21
613.615802
  0
LINE
  8
CSLAYER1
  6
CONTINUOUS
 62
     7
 10
1302.601836
 20
628.267492
 11
1321.985434
 21
601.497534
  0
ARC
  8
CSLAYER1
  6
CONTINUOUS
 62
     7
 10
1305.618208
 20
629.216966
 40
3.000000
 50
215.907555
 51
305.907555
  0
LINE
  8
CSLAYER1
  6
CONTINUOUS
 62
     7
 10
1264.043200
 20
559.605410
 11
1313.856005
 21
595.673879
  0
LINE
  8
CSLAYER1
  6
CONTINUOUS
 62
     7
 10
1187.055957
 20
537.195269
 11
1298.021068
 21
617.542915
  0
LINE
  8
CSLAYER1
  6
CONTINUOUS
 62
     7
 10
1185.882999
 20
538.815198
 11
1296.848109
 21
619.162844
  0
ARC
  8
CSLAYER1
  6
CONTINUOUS
 62
     7
 10
1300.981907
 20
627.094534
 40
2.000000
 50
35.907555
 51
125.907555
  0
LINE
  8
CSLAYER1
  6
CONTINUOUS
 62
     7
 10
1385.008933
 20
693.492644
 11
1400.435616
 21
672.187432
  0
LINE
  8
CSLAYER1
  6
CONTINUOUS
 62
     7
 10
1395.350849
 20
688.587810
 11
1402.975078
 21
678.058274
  0
LINE
  8
CSLAYER1
  6
CONTINUOUS
 62
     7
 10
1345.644233
 20
654.077778
 11
1354.676012
 21
641.604327
  0
LINE
  8
CSLAYER1
  6
CONTINUOUS
 62
     7
 10
1345.644233
 20
654.077778
 11
1347.264162
 21
655.250736
  0
LINE
  8
CSLAYER1
  6
CONTINUOUS
 62
     7
 10
1341.083240
 20
649.293706
 11
1348.707469
 21
638.764170
  0
LINE
  8
CSLAYER1
  6
CONTINUOUS
 62
     7
 10
1394.290883
 20
689.061788
 11
1390.306309
 21
686.176637
  0
LINE
  8
CSLAYER1
  6
CONTINUOUS
 62
     7
 10
1396.491808
 20
686.022173
 11
1392.507234
 21
683.137022
  0
LINE
  8
CSLAYER1
  6
CONTINUOUS
 62
     7
 10
1341.083240
 20
649.293706
 11
1340.963734
 21
650.448653
  0
LINE
  8
CSLAYER1
  6
CONTINUOUS
 62
     7
 10
1395.350849
 20
688.587810
 11
1394.290883
 21
689.061788
  0
LINE
  8
CSLAYER1
  6
CONTINUOUS
 62
     7
 10
1345.758272
 20
653.920283
 11
1340.963734
 21
650.448653
  0
ARC
  8
CSLAYER1
  6
CONTINUOUS
 62
     7
 10
1344.249021
 20
650.510833
 40
3.285875
 50
191.221060
 51
250.871938
  0
ARC
  8
CSLAYER1
  6
CONTINUOUS
 62
     7
 10
1393.232852
 20
685.979058
 40
3.259241
 50
0.535937
 51
61.473454
  0
ARC
  8
CSLAYER1
  6
CONTINUOUS
 62
     7
 10
1389.103657
 20
676.039297
 40
12.419443
 50
18.319601
 51
53.495509
  0
ARC
  8
CSLAYER1
  6
CONTINUOUS
 62
     7
 10
1354.954660
 20
651.312683
 40
12.419443
 50
198.319601
 51
233.495509
  0
LINE
  8
CSLAYER1
  6
CONTINUOUS
 62
     7
 10
1347.959197
 20
650.880668
 11
1343.164659
 21
647.409037
  0
LINE
  8
CSLAYER1
  6
CONTINUOUS
 62
     7
 10
1340.125098
 20
644.649143
 11
1343.995861
 21
639.303379
  0
LINE
  8
CSLAYER1
  6
CONTINUOUS
 62
     7
 10
1340.281538
 20
645.626653
 11
1342.549438
 21
647.268795
  0
LINE
  8
CSLAYER1
  6
CONTINUOUS
 62
     7
 10
1340.125098
 20
644.649143
 11
1342.959973
 21
646.701820
  0
LINE
  8
CSLAYER1
  6
CONTINUOUS
 62
     7
 10
1340.281538
 20
645.626653
 11
1340.125098
 21
644.649143
  0
LINE
  8
CSLAYER1
  6
CONTINUOUS
 62
     7
 10
1340.281538
 20
645.626653
 11
1344.973371
 21
639.146939
  0
LINE
  8
CSLAYER1
  6
CONTINUOUS
 62
     7
 10
1354.676012
 20
641.604327
 11
1356.295941
 21
642.777286
  0
LINE
  8
CSLAYER1
  6
CONTINUOUS
 62
     7
 10
1348.707469
 20
638.764170
 11
1349.767435
 21
638.290192
  0
LINE
  8
CSLAYER1
  6
CONTINUOUS
 62
     7
 10
1354.561973
 20
641.761822
 11
1349.767435
 21
638.290192
  0
ARC
  8
CSLAYER1
  6
CONTINUOUS
 62
     7
 10
1350.851797
 20
641.391987
 40
3.285875
 50
180.943172
 51
240.594050
  0
LINE
  8
CSLAYER1
  6
CONTINUOUS
 62
     7
 10
1352.361048
 20
644.801437
 11
1347.566510
 21
641.329807
  0
LINE
  8
CSLAYER1
  6
CONTINUOUS
 62
     7
 10
1344.973371
 20
639.146939
 11
1347.241271
 21
640.789081
  0
LINE
  8
CSLAYER1
  6
CONTINUOUS
 62
     7
 10
1343.995861
 20
639.303379
 11
1346.830736
 21
641.356056
  0
LINE
  8
CSLAYER1
  6
CONTINUOUS
 62
     7
 10
1344.973371
 20
639.146939
 11
1343.995861
 21
639.303379
  0
LINE
  8
CSLAYER1
  6
CONTINUOUS
 62
     7
 10
1350.846402
 20
650.303438
 11
1351.415516
 21
646.107276
  0
LINE
  8
CSLAYER1
  6
CONTINUOUS
 62
     7
 10
1352.610360
 20
670.033478
 11
1385.008933
 21
693.492644
  0
LINE
  8
CSLAYER1
  6
CONTINUOUS
 62
     4
 10
1198.831619
 20
490.360983
 11
1163.460425
 21
415.398381
  0
LINE
  8
CSLAYER1
  6
CONTINUOUS
 62
     7
 10
1150.509784
 20
476.836937
 11
1139.100110
 21
492.594409
  0
CIRCLE
  8
CSLAYER1
  6
CONTINUOUS
 62
     7
 10
1570.567303
 20
644.028095
 40
9.000000
  0
CIRCLE
  8
CSLAYER1
  6
CONTINUOUS
 62
     7
 10
1570.567303
 20
644.028095
 40
10.000000
  0
CIRCLE
  8
CSLAYER1
  6
CONTINUOUS
 62
     7
 10
1570.567303
 20
644.028095
 40
15.000000
  0
LINE
  8
CSLAYER1
  6
CONTINUOUS
 62
     7
 10
1585.567303
 20
652.688349
 11
1570.567303
 21
661.348603
  0
LINE
  8
CSLAYER1
  6
CONTINUOUS
 62
     7
 10
1570.567303
 20
661.348603
 11
1555.567303
 21
652.688349
  0
LINE
  8
CSLAYER1
  6
CONTINUOUS
 62
     7
 10
1555.567303
 20
652.688349
 11
1555.567303
 21
635.367841
  0
LINE
  8
CSLAYER1
  6
CONTINUOUS
 62
     7
 10
1555.567303
 20
635.367841
 11
1570.567303
 21
626.707587
  0
LINE
  8
CSLAYER1
  6
CONTINUOUS
 62
     7
 10
1570.567303
 20
626.707587
 11
1585.567303
 21
635.367841
  0
LINE
  8
CSLAYER1
  6
CONTINUOUS
 62
     7
 10
1585.567303
 20
635.367841
 11
1585.567303
 21
652.688349
  0
LINE
  8
CSLAYER1
  6
CONTINUOUS
 62
     5
 10
1541.905430
 20
644.028095
 11
1595.864084
 21
644.028095
  0
LINE
  8
CSLAYER1
  6
CONTINUOUS
 62
     5
 10
1570.567303
 20
673.679961
 11
1570.567303
 21
615.296864
  0
LINE
  8
CSLAYER1
  6
CONTINUOUS
 62
     5
 10
1975.701349
 20
397.398381
 11
1975.701349
 21
357.398381
  0
LINE
  8
CSLAYER1
  6
CONTINUOUS
 62
     5
 10
1955.701349
 20
377.398381
 11
1995.701349
 21
377.398381
  0
LINE
  8
CSLAYER1
  6
CONTINUOUS
 62
     5
 10
1941.369135
 20
910.976681
 11
2006.622543
 21
910.976681
  0
LINE
  8
CSLAYER1
  6
CONTINUOUS
 62
     5
 10
1975.701349
 20
939.831122
 11
1975.701349
 21
879.051724
  0
LINE
  8
CSLAYER1
  6
CONTINUOUS
 62
     5
 10
1379.408700
 20
631.140291
 11
1430.476937
 21
631.140291
  0
LINE
  8
CSLAYER1
  6
CONTINUOUS
 62
     5
 10
1405.464594
 20
657.476295
 11
1405.464594
 21
604.508466
  0
LINE
  8
CSLAYER1
  6
CONTINUOUS
 62
     5
 10
1145.433257
 20
377.398381
 11
1185.433257
 21
377.398381
  0
LINE
  8
CSLAYER1
  6
CONTINUOUS
 62
     5
 10
1165.433257
 20
397.398381
 11
1165.433257
 21
357.398381
  0
LINE
  8
CSLAYER1
  6
CONTINUOUS
 62
     5
 10
3403.452637
 20
1862.627687
 11
2682.580120
 21
1862.627687
  0
LINE
  8
CSLAYER1
  6
CONTINUOUS
 62
     5
 10
3403.452637
 20
1798.627689
 11
2682.580120
 21
1798.627689
  0
LINE
  8
CSLAYER1
  6
CONTINUOUS
 62
     5
 10
3403.452637
 20
1734.627691
 11
2682.580120
 21
1734.627691
  0
LINE
  8
CSLAYER1
  6
CONTINUOUS
 62
     5
 10
3403.452637
 20
1670.627692
 11
2683.452655
 21
1670.627692
  0
LINE
  8
CSLAYER1
  6
CONTINUOUS
 62
     5
 10
3403.452637
 20
1606.627694
 11
2682.580120
 21
1606.627694
  0
LINE
  8
CSLAYER1
  6
CONTINUOUS
 62
     5
 10
3403.452637
 20
1542.627695
 11
2682.580120
 21
1542.627695
  0
LINE
  8
CSLAYER1
  6
CONTINUOUS
 62
     5
 10
3403.452637
 20
1478.627697
 11
2682.580120
 21
1478.627697
  0
LINE
  8
CSLAYER1
  6
CONTINUOUS
 62
     5
 10
3403.452637
 20
1414.627699
 11
2682.580120
 21
1414.627699
  0
LINE
  8
CSLAYER1
  6
CONTINUOUS
 62
     5
 10
3403.452637
 20
1350.627700
 11
2682.580120
 21
1350.627700
  0
TEXT
  8
CSLAYER1
 62
     3
 10
2993.839355
 20
1960.688965
 40
40.000000
 41
0.857143
  1
仕   様
 50
0.000000
 51
0.000000
  7
EASYDRAW_FONT
 72
     5
 11
3153.839355
 21
1960.688965
  0
TEXT
  8
CSLAYER1
 62
     3
 10
2693.339600
 20
1870.850586
 40
40.000000
 41
0.847059
  1
型    式
 50
0.000000
 51
0.000000
  7
EASYDRAW_FONT
 72
     5
 11
2885.339600
 21
1870.850586
  0
TEXT
  8
CSLAYER1
 62
     3
 10
2691.520020
 20
1748.360840
 40
40.000000
 41
0.847059
  1
テーブル寸法
 50
0.000000
 51
0.000000
  7
EASYDRAW_FONT
 72
     5
 11
2883.520020
 21
1748.360840
  0
TEXT
  8
CSLAYER1
 62
     3
 10
2693.339600
 20
1685.296753
 40
40.000000
 41
0.847059
  1
テーブル高サ
 50
0.000000
 51
0.000000
  7
EASYDRAW_FONT
 72
     5
 11
2885.339600
 21
1685.296753
  0
TEXT
  8
CSLAYER1
 62
     3
 10
2694.786377
 20
1620.413940
 40
40.000000
 41
0.857143
  1
ストローク
 50
0.000000
 51
0.000000
  7
EASYDRAW_FONT
 72
     5
 11
2854.786377
 21
1620.413940
  0
TEXT
  8
CSLAYER1
 62
     3
 10
2694.180176
 20
1555.531128
 40
40.000000
 41
0.857143
  1
全   長
 50
0.000000
 51
0.000000
  7
EASYDRAW_FONT
 72
     5
 11
2854.180176
 21
1555.531128
  0
TEXT
  8
CSLAYER1
 62
     3
 10
2696.451416
 20
1489.680054
 40
40.000000
 41
0.857143
  1
全   巾
 50
0.000000
 51
0.000000
  7
EASYDRAW_FONT
 72
     5
 11
2856.451416
 21
1489.680054
  0
TEXT
  8
CSLAYER1
 62
     3
 10
2694.893555
 20
1425.795288
 40
40.000000
 41
0.857143
  1
全   高
 50
0.000000
 51
0.000000
  7
EASYDRAW_FONT
 72
     5
 11
2854.893555
 21
1425.795288
  0
TEXT
  8
CSLAYER1
 62
     3
 10
2694.893555
 20
1363.468628
 40
40.000000
 41
0.857143
  1
リフト方式
 50
0.000000
 51
0.000000
  7
EASYDRAW_FONT
 72
     5
 11
2854.893555
 21
1363.468628
  0
TEXT
  8
CSLAYER1
 62
     3
 10
3146.761963
 20
1809.358887
 40
40.000000
 41
0.872727
  1
1000
 50
0.000000
 51
0.000000
  7
EASYDRAW_FONT
 72
     5
 11
3274.761963
 21
1809.358887
  0
TEXT
  8
CSLAYER1
 62
     3
 10
3332.918701
 20
1805.685547
 40
40.000000
 41
0.960000
  1
Ｋｇ
 50
0.000000
 51
0.000000
  7
EASYDRAW_FONT
 72
     5
 11
3396.918701
 21
1805.685547
  0
TEXT
  8
CSLAYER1
 62
     3
 10
2985.646240
 20
1744.855957
 40
40.000000
 41
0.830769
  1
1050 ×800
 50
0.000000
 51
0.000000
  7
EASYDRAW_FONT
 72
     5
 11
3273.646240
 21
1744.855957
  0
TEXT
  8
CSLAYER1
 62
     3
 10
3279.100586
 20
1756.541992
 40
40.000000
 41
1.200000
  1
Ｗ
 50
0.000000
 51
0.000000
  7
EASYDRAW_FONT
 72
     5
 11
3311.100586
 21
1756.541992
  0
TEXT
  8
CSLAYER1
 62
     3
 10
3106.135254
 20
1758.143555
 40
40.000000
 41
1.200000
  1
Ｌ
 50
0.000000
 51
0.000000
  7
EASYDRAW_FONT
 72
     5
 11
3138.135254
 21
1758.143555
  0
TEXT
  8
CSLAYER1
 62
     3
 10
3046.353760
 20
1682.322144
 40
40.000000
 41
0.840000
  1
205～705
 50
0.000000
 51
0.000000
  7
EASYDRAW_FONT
 72
     5
 11
3270.353760
 21
1682.322144
  0
TEXT
  8
CSLAYER1
 62
     3
 10
3172.600342
 20
1618.646851
 40
40.000000
 41
0.900000
  1
500
 50
0.000000
 51
0.000000
  7
EASYDRAW_FONT
 72
     5
 11
3268.600342
 21
1618.646851
  0
TEXT
  8
CSLAYER1
 62
     3
 10
3142.978027
 20
1555.076050
 40
40.000000
 41
0.872727
  1
1050
 50
0.000000
 51
0.000000
  7
EASYDRAW_FONT
 72
     5
 11
3270.978027
 21
1555.076050
  0
TEXT
  8
CSLAYER1
 62
     3
 10
3174.719482
 20
1490.557007
 40
40.000000
 41
0.900000
  1
800
 50
0.000000
 51
0.000000
  7
EASYDRAW_FONT
 72
     5
 11
3270.719482
 21
1490.557007
  0
TEXT
  8
CSLAYER1
 62
     3
 10
2965.930664
 20
1364.423218
 40
40.000000
 41
0.827586
  1
電 動 ボールネジ式
 50
0.000000
 51
0.000000
  7
EASYDRAW_FONT
 72
     5
 11
3285.930664
 21
1364.423218
  0
TEXT
  8
CSLAYER1
 62
     3
 10
3172.710693
 20
1425.895874
 40
40.000000
 41
0.900000
  1
205
 50
0.000000
 51
0.000000
  7
EASYDRAW_FONT
 72
     5
 11
3268.710693
 21
1425.895874
  0
TEXT
  8
CSLAYER1
 62
     3
 10
3330.404541
 20
1741.582520
 40
40.000000
 41
0.960000
  1
mm
 50
0.000000
 51
0.000000
  7
EASYDRAW_FONT
 72
     5
 11
3394.404541
 21
1741.582520
  0
TEXT
  8
CSLAYER1
 62
     3
 10
3330.404541
 20
1681.248901
 40
40.000000
 41
0.960000
  1
mm
 50
0.000000
 51
0.000000
  7
EASYDRAW_FONT
 72
     5
 11
3394.404541
 21
1681.248901
  0
TEXT
  8
CSLAYER1
 62
     3
 10
3326.633789
 20
1617.144897
 40
40.000000
 41
0.960000
  1
mm
 50
0.000000
 51
0.000000
  7
EASYDRAW_FONT
 72
     5
 11
3390.633789
 21
1617.144897
  0
TEXT
  8
CSLAYER1
 62
     3
 10
3326.633789
 20
1549.269897
 40
40.000000
 41
0.960000
  1
mm
 50
0.000000
 51
0.000000
  7
EASYDRAW_FONT
 72
     5
 11
3390.633789
 21
1549.269897
  0
TEXT
  8
CSLAYER1
 62
     3
 10
3324.120361
 20
1488.937378
 40
40.000000
 41
0.960000
  1
mm
 50
0.000000
 51
0.000000
  7
EASYDRAW_FONT
 72
     5
 11
3388.120361
 21
1488.937378
  0
TEXT
  8
CSLAYER1
 62
     3
 10
3324.120361
 20
1424.832397
 40
40.000000
 41
0.960000
  1
mm
 50
0.000000
 51
0.000000
  7
EASYDRAW_FONT
 72
     5
 11
3388.120361
 21
1424.832397
  0
LINE
  8
CSLAYER1
  6
CONTINUOUS
 62
     5
 10
3181.892357
 20
1944.870101
 11
2973.506385
 21
1944.870101
  0
LINE
  8
CSLAYER1
  6
CONTINUOUS
 62
     5
 10
3181.892357
 20
1952.870101
 11
2973.506385
 21
1952.870101
  0
LINE
  8
CSLAYER1
  6
PHANTOM
 62
     5
 10
1123.433257
 20
555.398381
 11
2173.433257
 21
555.398381
  0
LINE
  8
CSLAYER1
  6
PHANTOM
 62
     5
 10
1123.433257
 20
502.398381
 11
2173.433257
 21
502.398381
  0
LINE
  8
CSLAYER1
  6
PHANTOM
 62
     5
 10
1123.433257
 20
555.398381
 11
1123.433257
 21
502.398381
  0
LINE
  8
CSLAYER1
  6
PHANTOM
 62
     5
 10
2173.433257
 20
555.398381
 11
2173.433257
 21
502.398381
  0
DIMENSION
  8
CSLAYER1
 62
     7
  2
*D0000
 10
2273.433257
 20
555.398381
 11
2323.322998
 21
452.960419
 13
2173.433257
 23
350.398381
 14
2173.433257
 24
555.398381
 50
90.000000
 70
1
  0
DIMENSION
  8
CSLAYER1
 62
     7
  2
*D0001
 10
2273.433257
 20
555.398381
 11
2263.433105
 21
820.128113
 13
2273.433257
 23
1084.857810
 14
2273.433257
 24
555.398381
 50
90.000000
 70
1
  0
DIMENSION
  8
CSLAYER1
 62
     7
  2
*D0002
 10
2373.433257
 20
1084.857810
 11
2363.433105
 21
717.628113
 13
2170.408081
 23
350.398381
 14
2170.408081
 24
1084.857810
 50
90.000000
 70
1
  0
DIMENSION
  8
CSLAYER1
 62
     7
  2
*D0003
 10
2173.433257
 20
1177.727148
 11
1648.433350
 21
1187.727173
 13
1123.433257
 23
1081.657810
 14
2173.433257
 24
1081.857810
  0
DIMENSION
  8
CSLAYER1
 62
     7
  2
*D0004
 10
2173.433257
 20
238.914363
 11
1648.433350
 21
248.914261
 13
1123.433257
 23
350.398381
 14
2173.433257
 24
350.398381
 52
270.000000
 70
1
  0
LINE
  8
CSLAYER1
  6
CONTINUOUS
 62
     3
 10
1268.208081
 20
956.657810
 11
2170.208081
 21
956.657810
  0
LINE
  8
CSLAYER1
  6
CONTINUOUS
 62
     4
 10
1645.744210
 20
893.230125
 11
1512.538210
 21
773.200849
  0
LINE
  8
CSLAYER1
  6
CONTINUOUS
 62
     7
 10
1403.094584
 20
676.903327
 11
1399.110010
 21
674.018176
  0
LINE
  8
CSLAYER1
  6
CONTINUOUS
 62
     7
 10
1400.893659
 20
679.942942
 11
1396.909085
 21
677.057791
  0
LINE
  8
CSLAYER1
  6
CONTINUOUS
 62
     7
 10
1402.975078
 20
678.058274
 11
1403.094584
 21
676.903327
  0
ARC
  8
CSLAYER1
  6
CONTINUOUS
 62
     7
 10
1399.835628
 20
676.860212
 40
3.259241
 50
10.341657
 51
71.279173
  0
LINE
  8
CSLAYER1
  6
CONTINUOUS
 62
     4
 10
1440.366499
 20
708.168356
 11
1198.693585
 21
490.401702
  0
TEXT
  8
CSLAYER2
 62
     5
 10
2969.739408
 20
1870.339987
 40
40.809284
 41
0.730667
  1
GLI-1000-0810
 50
0.000000
 51
0.000000
  7
EASYDRAW_FONT
 72
     5
 11
3347.433931
 21
1870.339987
  0
LINE
  8
CSLAYER1
  6
CONTINUOUS
 62
     3
 10
1126.633257
 20
981.657810
 11
1135.433257
 21
981.657810
  0
LINE
  8
CSLAYER1
  6
CONTINUOUS
 62
     3
 10
1126.433257
 20
1031.857810
 11
1126.433257
 21
981.657810
  0
LINE
  8
CSLAYER1
  6
CONTINUOUS
 62
     3
 10
1208.208081
 20
1031.857810
 11
1208.208081
 21
1016.657810
  0
LINE
  8
CSLAYER1
  6
CONTINUOUS
 62
     3
 10
1208.208081
 20
1016.657810
 11
1268.208081
 21
956.657810
  0
LINE
  8
CSLAYER1
  6
CENTER
 62
     5
 10
902.278368
 20
910.657810
 11
298.226231
 21
910.657810
  0
LINE
  8
CSLAYER1
  6
CENTER
 62
     5
 10
829.841784
 20
959.715244
 11
370.662815
 21
959.715244
  0
LINE
  8
CSLAYER1
  6
CONTINUOUS
 62
     5
 10
799.011971
 20
718.547323
 11
750.403584
 21
718.547323
  0
LINE
  8
CSLAYER1
  6
CONTINUOUS
 62
     4
 10
761.727300
 20
731.547323
 11
757.352300
 21
731.547323
  0
LINE
  8
CSLAYER1
  6
CONTINUOUS
 62
     4
 10
755.502300
 20
714.777323
 11
755.502300
 21
722.327049
  0
LINE
  8
CSLAYER1
  6
CONTINUOUS
 62
     4
 10
757.352300
 20
713.777323
 11
756.502300
 21
713.777323
  0
LINE
  8
CSLAYER1
  6
CONTINUOUS
 62
     4
 10
757.352300
 20
723.327049
 11
756.502300
 21
723.327049
  0
ARC
  8
CSLAYER1
  6
CONTINUOUS
 62
     4
 10
756.502300
 20
714.777323
 40
1.000000
 50
180.000000
 51
270.000000
  0
ARC
  8
CSLAYER1
  6
CONTINUOUS
 62
     4
 10
756.502300
 20
722.327049
 40
1.000000
 50
90.000000
 51
180.000000
  0
LINE
  8
CSLAYER1
  6
CONTINUOUS
 62
     4
 10
788.777300
 20
731.547323
 11
793.152300
 21
731.547323
  0
LINE
  8
CSLAYER1
  6
CONTINUOUS
 62
     4
 10
795.002300
 20
714.777323
 11
795.002300
 21
722.327049
  0
LINE
  8
CSLAYER1
  6
CONTINUOUS
 62
     4
 10
793.152300
 20
713.777323
 11
794.002300
 21
713.777323
  0
LINE
  8
CSLAYER1
  6
CONTINUOUS
 62
     4
 10
793.152300
 20
723.327049
 11
794.002300
 21
723.327049
  0
ARC
  8
CSLAYER1
  6
CONTINUOUS
 62
     4
 10
794.002300
 20
714.777323
 40
1.000000
 50
270.000000
 51
360.000000
  0
ARC
  8
CSLAYER1
  6
CONTINUOUS
 62
     4
 10
794.002300
 20
722.327049
 40
1.000000
 50
0.000000
 51
90.000000
  0
POINT
  8
CSLAYER1
 62
     4
 10
775.252300
 20
718.547323
  0
LINE
  8
CSLAYER1
  6
CONTINUOUS
 62
     4
 10
793.152300
 20
731.547323
 11
793.152300
 21
673.797323
  0
LINE
  8
CSLAYER1
  6
CONTINUOUS
 62
     4
 10
761.727300
 20
769.047323
 11
761.727300
 21
671.397975
  0
LINE
  8
CSLAYER1
  6
CONTINUOUS
 62
     4
 10
757.352300
 20
731.547323
 11
757.352300
 21
673.797323
  0
LINE
  8
CSLAYER1
  6
CONTINUOUS
 62
     4
 10
783.252300
 20
709.022323
 11
783.252300
 21
696.322323
  0
LINE
  8
CSLAYER1
  6
CONTINUOUS
 62
     4
 10
767.252300
 20
709.022323
 11
767.252300
 21
696.322323
  0
POINT
  8
CSLAYER1
 62
     4
 10
775.252300
 20
750.297323
  0
LINE
  8
CSLAYER1
  6
CONTINUOUS
 62
     4
 10
788.777300
 20
671.747323
 11
788.777300
 21
769.047323
  0
LINE
  8
CSLAYER1
  6
CONTINUOUS
 62
     4
 10
784.777300
 20
765.347323
 11
784.777300
 21
703.497323
  0
LINE
  8
CSLAYER1
  6
CONTINUOUS
 62
     4
 10
784.777300
 20
765.347323
 11
788.777300
 21
765.347323
  0
LINE
  8
CSLAYER1
  6
CONTINUOUS
 62
     4
 10
783.777300
 20
740.772323
 11
766.727300
 21
740.772323
  0
LINE
  8
CSLAYER1
  6
CONTINUOUS
 62
     4
 10
783.777300
 20
759.822323
 11
766.727300
 21
759.822323
  0
ARC
  8
CSLAYER1
  6
CONTINUOUS
 62
     4
 10
783.777300
 20
741.772323
 40
1.000000
 50
270.000000
 51
360.000000
  0
ARC
  8
CSLAYER1
  6
CONTINUOUS
 62
     4
 10
783.777300
 20
758.822323
 40
1.000000
 50
0.000000
 51
90.000000
  0
LINE
  8
CSLAYER1
  6
CONTINUOUS
 62
     4
 10
765.727300
 20
765.347323
 11
765.727300
 21
703.497323
  0
LINE
  8
CSLAYER1
  6
CONTINUOUS
 62
     4
 10
765.727300
 20
765.347323
 11
761.727300
 21
765.347323
  0
ARC
  8
CSLAYER1
  6
CONTINUOUS
 62
     4
 10
766.727300
 20
741.772323
 40
1.000000
 50
180.000000
 51
270.000000
  0
ARC
  8
CSLAYER1
  6
CONTINUOUS
 62
     4
 10
766.727300
 20
758.822323
 40
1.000000
 50
90.000000
 51
180.000000
  0
LINE
  8
CSLAYER1
  6
CONTINUOUS
 62
     4
 10
795.002300
 20
746.527323
 11
795.002300
 21
754.077049
  0
LINE
  8
CSLAYER1
  6
CONTINUOUS
 62
     4
 10
788.777300
 20
737.297323
 11
793.152300
 21
737.297323
  0
LINE
  8
CSLAYER1
  6
CONTINUOUS
 62
     4
 10
793.152300
 20
745.527323
 11
794.002300
 21
745.527323
  0
LINE
  8
CSLAYER1
  6
CONTINUOUS
 62
     4
 10
793.152300
 20
755.077049
 11
794.002300
 21
755.077049
  0
ARC
  8
CSLAYER1
  6
CONTINUOUS
 62
     4
 10
794.002300
 20
746.527323
 40
1.000000
 50
270.000000
 51
360.000000
  0
ARC
  8
CSLAYER1
  6
CONTINUOUS
 62
     4
 10
794.002300
 20
754.077049
 40
1.000000
 50
0.000000
 51
90.000000
  0
LINE
  8
CSLAYER1
  6
CONTINUOUS
 62
     4
 10
755.502300
 20
746.527323
 11
755.502300
 21
754.077049
  0
LINE
  8
CSLAYER1
  6
CONTINUOUS
 62
     4
 10
761.727300
 20
737.297323
 11
757.352300
 21
737.297323
  0
LINE
  8
CSLAYER1
  6
CONTINUOUS
 62
     4
 10
757.352300
 20
745.527323
 11
756.502300
 21
745.527323
  0
LINE
  8
CSLAYER1
  6
CONTINUOUS
 62
     4
 10
757.352300
 20
755.077049
 11
756.502300
 21
755.077049
  0
ARC
  8
CSLAYER1
  6
CONTINUOUS
 62
     4
 10
756.502300
 20
746.527323
 40
1.000000
 50
180.000000
 51
270.000000
  0
ARC
  8
CSLAYER1
  6
CONTINUOUS
 62
     4
 10
756.502300
 20
754.077049
 40
1.000000
 50
90.000000
 51
180.000000
  0
LINE
  8
CSLAYER1
  6
CONTINUOUS
 62
     4
 10
793.152300
 20
737.297323
 11
793.152300
 21
821.632552
  0
LINE
  8
CSLAYER1
  6
CONTINUOUS
 62
     4
 10
757.352300
 20
737.297323
 11
757.352300
 21
821.632552
  0
LINE
  8
CSLAYER1
  6
CONTINUOUS
 62
     4
 10
784.777300
 20
703.497323
 11
788.777300
 21
703.497323
  0
LINE
  8
CSLAYER1
  6
CONTINUOUS
 62
     4
 10
783.777300
 20
728.072323
 11
766.727300
 21
728.072323
  0
LINE
  8
CSLAYER1
  6
CONTINUOUS
 62
     4
 10
783.777300
 20
709.022323
 11
766.727300
 21
709.022323
  0
ARC
  8
CSLAYER1
  6
CONTINUOUS
 62
     4
 10
783.777300
 20
727.072323
 40
1.000000
 50
0.000000
 51
90.000000
  0
ARC
  8
CSLAYER1
  6
CONTINUOUS
 62
     4
 10
783.777300
 20
710.022323
 40
1.000000
 50
270.000000
 51
360.000000
  0
LINE
  8
CSLAYER1
  6
CONTINUOUS
 62
     4
 10
765.727300
 20
703.497323
 11
761.727300
 21
703.497323
  0
ARC
  8
CSLAYER1
  6
CONTINUOUS
 62
     4
 10
766.727300
 20
727.072323
 40
1.000000
 50
90.000000
 51
180.000000
  0
ARC
  8
CSLAYER1
  6
CONTINUOUS
 62
     4
 10
766.727300
 20
710.022323
 40
1.000000
 50
180.000000
 51
270.000000
  0
LINE
  8
CSLAYER1
  6
CONTINUOUS
 62
     4
 10
783.252300
 20
703.797323
 11
767.252300
 21
703.797323
  0
LINE
  8
CSLAYER1
  6
CENTER
 62
     5
 10
919.572075
 20
644.028095
 11
280.932524
 21
644.028095
  0
LINE
  8
CSLAYER1
  6
CONTINUOUS
 62
     4
 10
950.252300
 20
414.680165
 11
950.252300
 21
350.398381
  0
LINE
  8
CSLAYER1
  6
CONTINUOUS
 62
     4
 10
882.252300
 20
891.657810
 11
882.252300
 21
415.398381
  0
LINE
  8
CSLAYER1
  6
CONTINUOUS
 62
     4
 10
866.252300
 20
891.657810
 11
866.252300
 21
415.398381
  0
LINE
  8
CSLAYER1
  6
CONTINUOUS
 62
     4
 10
864.225759
 20
622.678095
 11
835.252300
 21
622.678095
  0
LINE
  8
CSLAYER1
  6
CONTINUOUS
 62
     4
 10
865.225759
 20
664.378095
 11
865.225759
 21
623.678095
  0
LINE
  8
CSLAYER1
  6
CONTINUOUS
 62
     4
 10
865.225759
 20
623.678095
 11
864.225759
 21
622.678095
  0
LINE
  8
CSLAYER1
  6
CONTINUOUS
 62
     4
 10
905.225759
 20
654.028095
 11
905.225759
 21
634.028095
  0
LINE
  8
CSLAYER1
  6
CONTINUOUS
 62
     4
 10
886.225759
 20
662.528095
 11
886.225759
 21
625.528095
  0
LINE
  8
CSLAYER1
  6
CONTINUOUS
 62
     4
 10
891.325759
 20
661.028095
 11
891.325759
 21
627.028095
  0
LINE
  8
CSLAYER1
  6
CONTINUOUS
 62
     4
 10
903.325759
 20
661.028095
 11
903.325759
 21
627.028095
  0
LINE
  8
CSLAYER1
  6
CONTINUOUS
 62
     4
 10
886.225759
 20
661.028095
 11
903.325759
 21
661.028095
  0
LINE
  8
CSLAYER1
  6
CONTINUOUS
 62
     4
 10
891.325759
 20
654.028095
 11
905.225759
 21
654.028095
  0
LINE
  8
CSLAYER1
  6
CONTINUOUS
 62
     4
 10
886.225759
 20
627.028095
 11
903.325759
 21
627.028095
  0
LINE
  8
CSLAYER1
  6
CONTINUOUS
 62
     4
 10
891.325759
 20
634.028095
 11
905.225759
 21
634.028095
  0
LINE
  8
CSLAYER1
  6
CONTINUOUS
 62
     4
 10
883.225759
 20
662.528095
 11
886.225759
 21
662.528095
  0
LINE
  8
CSLAYER1
  6
CONTINUOUS
 62
     4
 10
883.225759
 20
625.528095
 11
886.225759
 21
625.528095
  0
LINE
  8
CSLAYER1
  6
CONTINUOUS
 62
     4
 10
883.225759
 20
625.528095
 11
883.225759
 21
662.528095
  0
LINE
  8
CSLAYER1
  6
CONTINUOUS
 62
     4
 10
883.225759
 20
631.528095
 11
882.252300
 21
631.528095
  0
LINE
  8
CSLAYER1
  6
CONTINUOUS
 62
     4
 10
864.225759
 20
665.378095
 11
823.252300
 21
665.378095
  0
LINE
  8
CSLAYER1
  6
CONTINUOUS
 62
     4
 10
865.225759
 20
664.378095
 11
864.225759
 21
665.378095
  0
LINE
  8
CSLAYER1
  6
CONTINUOUS
 62
     4
 10
883.225759
 20
656.528095
 11
882.252300
 21
656.528095
  0
LINE
  8
CSLAYER1
  6
CONTINUOUS
 62
     4
 10
882.225759
 20
617.921171
 11
882.225759
 21
631.528095
  0
LINE
  8
CSLAYER1
  6
CONTINUOUS
 62
     4
 10
807.252300
 20
668.745253
 11
802.535142
 21
664.028095
  0
LINE
  8
CSLAYER1
  6
CONTINUOUS
 62
     4
 10
807.252300
 20
668.462410
 11
802.817985
 21
664.028095
  0
LINE
  8
CSLAYER1
  6
CONTINUOUS
 62
     4
 10
807.252300
 20
668.179567
 11
803.100828
 21
664.028095
  0
LINE
  8
CSLAYER1
  6
CONTINUOUS
 62
     4
 10
807.252300
 20
667.896724
 11
803.383670
 21
664.028095
  0
LINE
  8
CSLAYER1
  6
CONTINUOUS
 62
     4
 10
807.252300
 20
667.613882
 11
803.666513
 21
664.028095
  0
LINE
  8
CSLAYER1
  6
CONTINUOUS
 62
     4
 10
807.252300
 20
667.331039
 11
803.949356
 21
664.028095
  0
LINE
  8
CSLAYER1
  6
CONTINUOUS
 62
     4
 10
807.252300
 20
667.048196
 11
804.232199
 21
664.028095
  0
LINE
  8
CSLAYER1
  6
CONTINUOUS
 62
     4
 10
807.252300
 20
666.765354
 11
804.515041
 21
664.028095
  0
LINE
  8
CSLAYER1
  6
CONTINUOUS
 62
     4
 10
807.252300
 20
666.482511
 11
804.797884
 21
664.028095
  0
LINE
  8
CSLAYER1
  6
CONTINUOUS
 62
     4
 10
807.252300
 20
666.199668
 11
805.080727
 21
664.028095
  0
LINE
  8
CSLAYER1
  6
CONTINUOUS
 62
     4
 10
807.252300
 20
665.916825
 11
805.363569
 21
664.028095
  0
LINE
  8
CSLAYER1
  6
CONTINUOUS
 62
     4
 10
807.252300
 20
665.633983
 11
805.646412
 21
664.028095
  0
LINE
  8
CSLAYER1
  6
CONTINUOUS
 62
     4
 10
807.252300
 20
665.351140
 11
805.929255
 21
664.028095
  0
LINE
  8
CSLAYER1
  6
CONTINUOUS
 62
     4
 10
807.252300
 20
665.068297
 11
806.212098
 21
664.028095
  0
LINE
  8
CSLAYER1
  6
CONTINUOUS
 62
     4
 10
807.252300
 20
664.785455
 11
806.494940
 21
664.028095
  0
LINE
  8
CSLAYER1
  6
CONTINUOUS
 62
     4
 10
807.252300
 20
664.502612
 11
806.777783
 21
664.028095
  0
LINE
  8
CSLAYER1
  6
CONTINUOUS
 62
     4
 10
807.252300
 20
664.219769
 11
807.060626
 21
664.028095
  0
LINE
  8
CSLAYER1
  6
CONTINUOUS
 62
     4
 10
828.252300
 20
665.378095
 11
823.252300
 21
670.378095
  0
LINE
  8
CSLAYER1
  6
CONTINUOUS
 62
     4
 10
823.252300
 20
670.095253
 11
827.969457
 21
665.378095
  0
LINE
  8
CSLAYER1
  6
CONTINUOUS
 62
     4
 10
823.252300
 20
669.812410
 11
827.686614
 21
665.378095
  0
LINE
  8
CSLAYER1
  6
CONTINUOUS
 62
     4
 10
823.252300
 20
669.529567
 11
827.403771
 21
665.378095
  0
LINE
  8
CSLAYER1
  6
CONTINUOUS
 62
     4
 10
823.252300
 20
669.246724
 11
827.120929
 21
665.378095
  0
LINE
  8
CSLAYER1
  6
CONTINUOUS
 62
     4
 10
823.252300
 20
668.963882
 11
826.838086
 21
665.378095
  0
LINE
  8
CSLAYER1
  6
CONTINUOUS
 62
     4
 10
823.252300
 20
668.681039
 11
826.555243
 21
665.378095
  0
LINE
  8
CSLAYER1
  6
CONTINUOUS
 62
     4
 10
823.252300
 20
668.398196
 11
826.272401
 21
665.378095
  0
LINE
  8
CSLAYER1
  6
CONTINUOUS
 62
     4
 10
823.252300
 20
668.115354
 11
825.989558
 21
665.378095
  0
LINE
  8
CSLAYER1
  6
CONTINUOUS
 62
     4
 10
823.252300
 20
667.832511
 11
825.706715
 21
665.378095
  0
LINE
  8
CSLAYER1
  6
CONTINUOUS
 62
     4
 10
823.252300
 20
667.549668
 11
825.423872
 21
665.378095
  0
LINE
  8
CSLAYER1
  6
CONTINUOUS
 62
     4
 10
823.252300
 20
667.266825
 11
825.141030
 21
665.378095
  0
LINE
  8
CSLAYER1
  6
CONTINUOUS
 62
     4
 10
823.252300
 20
666.983983
 11
824.858187
 21
665.378095
  0
LINE
  8
CSLAYER1
  6
CONTINUOUS
 62
     4
 10
823.252300
 20
666.701140
 11
824.575344
 21
665.378095
  0
LINE
  8
CSLAYER1
  6
CONTINUOUS
 62
     4
 10
823.252300
 20
666.418297
 11
824.292502
 21
665.378095
  0
LINE
  8
CSLAYER1
  6
CONTINUOUS
 62
     4
 10
823.252300
 20
666.135455
 11
824.009659
 21
665.378095
  0
LINE
  8
CSLAYER1
  6
CONTINUOUS
 62
     4
 10
823.252300
 20
665.852612
 11
823.726816
 21
665.378095
  0
LINE
  8
CSLAYER1
  6
CONTINUOUS
 62
     4
 10
823.252300
 20
665.569769
 11
823.443974
 21
665.378095
  0
LINE
  8
CSLAYER1
  6
CONTINUOUS
 62
     4
 10
807.252300
 20
981.657810
 11
807.252300
 21
415.398381
  0
LINE
  8
CSLAYER1
  6
CONTINUOUS
 62
     4
 10
807.252300
 20
664.028095
 11
793.573862
 21
664.028095
  0
LINE
  8
CSLAYER1
  6
CONTINUOUS
 62
     4
 10
866.252300
 20
659.028095
 11
865.225759
 21
659.028095
  0
LINE
  8
CSLAYER1
  6
CONTINUOUS
 62
     4
 10
866.252300
 20
629.028095
 11
865.225759
 21
629.028095
  0
LINE
  8
CSLAYER1
  6
CONTINUOUS
 62
     4
 10
825.252300
 20
647.140291
 11
825.252300
 21
615.140291
  0
LINE
  8
CSLAYER1
  6
CONTINUOUS
 62
     4
 10
835.252300
 20
645.140291
 11
835.252300
 21
617.140291
  0
LINE
  8
CSLAYER1
  6
CONTINUOUS
 62
     4
 10
833.252300
 20
647.140291
 11
825.252300
 21
647.140291
  0
LINE
  8
CSLAYER1
  6
CONTINUOUS
 62
     4
 10
835.252300
 20
645.140291
 11
833.252300
 21
647.140291
  0
LINE
  8
CSLAYER1
  6
CONTINUOUS
 62
     4
 10
833.252300
 20
647.140291
 11
833.252300
 21
615.140291
  0
LINE
  8
CSLAYER1
  6
CONTINUOUS
 62
     4
 10
833.252300
 20
615.140291
 11
825.252300
 21
615.140291
  0
LINE
  8
CSLAYER1
  6
CONTINUOUS
 62
     4
 10
835.252300
 20
617.140291
 11
833.252300
 21
615.140291
  0
LINE
  8
CSLAYER1
  6
CONTINUOUS
 62
     4
 10
825.252300
 20
645.140291
 11
823.252300
 21
645.140291
  0
LINE
  8
CSLAYER1
  6
CONTINUOUS
 62
     4
 10
825.252300
 20
617.140291
 11
823.252300
 21
617.140291
  0
LINE
  8
CSLAYER1
  6
CONTINUOUS
 62
     4
 10
644.802300
 20
805.199784
 11
644.802300
 21
693.492644
  0
LINE
  8
CSLAYER1
  6
CONTINUOUS
 62
     1
 10
666.252300
 20
693.492644
 11
534.252300
 21
693.492644
  0
LINE
  8
CSLAYER1
  6
CONTINUOUS
 62
     1
 10
666.252300
 20
670.033478
 11
534.252300
 21
670.033478
  0
LINE
  8
CSLAYER1
  6
CONTINUOUS
 62
     1
 10
666.252300
 20
568.787939
 11
660.252300
 21
568.787939
  0
LINE
  8
CSLAYER1
  6
CONTINUOUS
 62
     1
 10
654.252300
 20
611.786479
 11
654.046813
 21
615.594045
  0
LINE
  8
CSLAYER1
  6
CONTINUOUS
 62
     1
 10
654.046813
 20
615.594045
 11
653.431918
 21
619.372633
  0
LINE
  8
CSLAYER1
  6
CONTINUOUS
 62
     1
 10
653.431918
 20
619.372633
 11
652.412294
 21
623.093485
  0
LINE
  8
CSLAYER1
  6
CONTINUOUS
 62
     1
 10
652.412294
 20
623.093485
 11
650.995701
 21
626.728285
  0
LINE
  8
CSLAYER1
  6
CONTINUOUS
 62
     1
 10
650.995701
 20
626.728285
 11
649.192920
 21
630.249368
  0
LINE
  8
CSLAYER1
  6
CONTINUOUS
 62
     1
 10
649.192920
 20
630.249368
 11
647.017671
 21
633.629938
  0
LINE
  8
CSLAYER1
  6
CONTINUOUS
 62
     1
 10
647.017671
 20
633.629938
 11
644.486510
 21
636.844266
  0
LINE
  8
CSLAYER1
  6
CONTINUOUS
 62
     1
 10
644.486510
 20
636.844266
 11
641.618700
 21
639.867888
  0
LINE
  8
CSLAYER1
  6
CONTINUOUS
 62
     1
 10
641.618700
 20
639.867888
 11
638.436066
 21
642.677795
  0
LINE
  8
CSLAYER1
  6
CONTINUOUS
 62
     1
 10
638.436066
 20
642.677795
 11
634.962831
 21
645.252599
  0
LINE
  8
CSLAYER1
  6
CONTINUOUS
 62
     1
 10
634.962831
 20
645.252599
 11
631.225427
 21
647.572707
  0
LINE
  8
CSLAYER1
  6
CONTINUOUS
 62
     1
 10
631.225427
 20
647.572707
 11
627.252300
 21
649.620459
  0
LINE
  8
CSLAYER1
  6
CONTINUOUS
 62
     1
 10
627.252300
 20
649.620459
 11
623.073686
 21
651.380273
  0
LINE
  8
CSLAYER1
  6
CONTINUOUS
 62
     1
 10
623.073686
 20
651.380273
 11
618.721387
 21
652.838753
  0
LINE
  8
CSLAYER1
  6
CONTINUOUS
 62
     1
 10
618.721387
 20
652.838753
 11
614.228528
 21
653.984801
  0
LINE
  8
CSLAYER1
  6
CONTINUOUS
 62
     1
 10
614.228528
 20
653.984801
 11
609.629301
 21
654.809694
  0
LINE
  8
CSLAYER1
  6
CONTINUOUS
 62
     1
 10
609.629301
 20
654.809694
 11
604.958710
 21
655.307155
  0
LINE
  8
CSLAYER1
  6
CONTINUOUS
 62
     1
 10
604.958710
 20
655.307155
 11
600.252300
 21
655.473397
  0
LINE
  8
CSLAYER1
  6
CONTINUOUS
 62
     1
 10
660.252300
 20
581.289562
 11
660.023982
 21
585.520191
  0
LINE
  8
CSLAYER1
  6
CONTINUOUS
 62
     1
 10
660.023982
 20
585.520191
 11
659.340765
 21
589.718622
  0
LINE
  8
CSLAYER1
  6
CONTINUOUS
 62
     1
 10
659.340765
 20
589.718622
 11
658.207849
 21
593.852903
  0
LINE
  8
CSLAYER1
  6
CONTINUOUS
 62
     1
 10
658.207849
 20
593.852903
 11
656.633857
 21
597.891569
  0
LINE
  8
CSLAYER1
  6
CONTINUOUS
 62
     1
 10
656.633857
 20
597.891569
 11
654.630767
 21
601.803884
  0
LINE
  8
CSLAYER1
  6
CONTINUOUS
 62
     1
 10
654.630767
 20
601.803884
 11
652.213824
 21
605.560072
  0
LINE
  8
CSLAYER1
  6
CONTINUOUS
 62
     1
 10
652.213824
 20
605.560072
 11
649.401422
 21
609.131547
  0
LINE
  8
CSLAYER1
  6
CONTINUOUS
 62
     1
 10
649.401422
 20
609.131547
 11
646.214966
 21
612.491128
  0
LINE
  8
CSLAYER1
  6
CONTINUOUS
 62
     1
 10
646.214966
 20
612.491128
 11
642.678706
 21
615.613247
  0
LINE
  8
CSLAYER1
  6
CONTINUOUS
 62
     1
 10
642.678706
 20
615.613247
 11
638.819556
 21
618.474141
  0
LINE
  8
CSLAYER1
  6
CONTINUOUS
 62
     1
 10
638.819556
 20
618.474141
 11
634.666886
 21
621.052038
  0
LINE
  8
CSLAYER1
  6
CONTINUOUS
 62
     1
 10
634.666886
 20
621.052038
 11
630.252300
 21
623.327318
  0
LINE
  8
CSLAYER1
  6
CONTINUOUS
 62
     1
 10
630.252300
 20
623.327318
 11
625.609395
 21
625.282666
  0
LINE
  8
CSLAYER1
  6
CONTINUOUS
 62
     1
 10
625.609395
 20
625.282666
 11
620.773508
 21
626.903200
  0
LINE
  8
CSLAYER1
  6
CONTINUOUS
 62
     1
 10
620.773508
 20
626.903200
 11
615.781442
 21
628.176587
  0
LINE
  8
CSLAYER1
  6
CONTINUOUS
 62
     1
 10
615.781442
 20
628.176587
 11
610.671190
 21
629.093135
  0
LINE
  8
CSLAYER1
  6
CONTINUOUS
 62
     1
 10
610.671190
 20
629.093135
 11
605.481644
 21
629.645869
  0
LINE
  8
CSLAYER1
  6
CONTINUOUS
 62
     1
 10
605.481644
 20
629.645869
 11
600.252300
 21
629.830582
  0
LINE
  8
CSLAYER1
  6
CONTINUOUS
 62
     1
 10
662.252300
 20
495.077125
 11
662.016371
 21
499.448775
  0
LINE
  8
CSLAYER1
  6
CONTINUOUS
 62
     1
 10
662.016371
 20
499.448775
 11
661.310380
 21
503.787153
  0
LINE
  8
CSLAYER1
  6
CONTINUOUS
 62
     1
 10
661.310380
 20
503.787153
 11
660.139701
 21
508.059243
  0
LINE
  8
CSLAYER1
  6
CONTINUOUS
 62
     1
 10
660.139701
 20
508.059243
 11
658.513242
 21
512.232532
  0
LINE
  8
CSLAYER1
  6
CONTINUOUS
 62
     1
 10
658.513242
 20
512.232532
 11
656.443382
 21
516.275257
  0
LINE
  8
CSLAYER1
  6
CONTINUOUS
 62
     1
 10
656.443382
 20
516.275257
 11
653.945875
 21
520.156652
  0
LINE
  8
CSLAYER1
  6
CONTINUOUS
 62
     1
 10
653.945875
 20
520.156652
 11
651.039726
 21
523.847176
  0
LINE
  8
CSLAYER1
  6
CONTINUOUS
 62
     1
 10
651.039726
 20
523.847176
 11
647.747055
 21
527.318743
  0
LINE
  8
CSLAYER1
  6
CONTINUOUS
 62
     1
 10
647.747055
 20
527.318743
 11
644.092920
 21
530.544932
  0
LINE
  8
CSLAYER1
  6
CONTINUOUS
 62
     1
 10
644.092920
 20
530.544932
 11
640.105131
 21
533.501189
  0
LINE
  8
CSLAYER1
  6
CONTINUOUS
 62
     1
 10
640.105131
 20
533.501189
 11
635.814039
 21
536.165016
  0
LINE
  8
CSLAYER1
  6
CONTINUOUS
 62
     1
 10
635.814039
 20
536.165016
 11
631.252300
 21
538.516140
  0
LINE
  8
CSLAYER1
  6
CONTINUOUS
 62
     1
 10
631.252300
 20
538.516140
 11
626.454632
 21
540.536666
  0
LINE
  8
CSLAYER1
  6
CONTINUOUS
 62
     1
 10
626.454632
 20
540.536666
 11
621.457549
 21
542.211218
  0
LINE
  8
CSLAYER1
  6
CONTINUOUS
 62
     1
 10
621.457549
 20
542.211218
 11
616.299080
 21
543.527050
  0
LINE
  8
CSLAYER1
  6
CONTINUOUS
 62
     1
 10
616.299080
 20
543.527050
 11
611.018487
 21
544.474150
  0
LINE
  8
CSLAYER1
  6
CONTINUOUS
 62
     1
 10
611.018487
 20
544.474150
 11
605.655956
 21
545.045308
  0
LINE
  8
CSLAYER1
  6
CONTINUOUS
 62
     1
 10
605.655956
 20
545.045308
 11
600.252300
 21
545.236179
  0
LINE
  8
CSLAYER1
  6
CONTINUOUS
 62
     1
 10
662.252300
 20
461.647813
 11
662.016371
 21
466.019462
  0
LINE
  8
CSLAYER1
  6
CONTINUOUS
 62
     1
 10
662.016371
 20
466.019462
 11
661.310380
 21
470.357841
  0
LINE
  8
CSLAYER1
  6
CONTINUOUS
 62
     1
 10
661.310380
 20
470.357841
 11
660.139701
 21
474.629931
  0
LINE
  8
CSLAYER1
  6
CONTINUOUS
 62
     1
 10
660.139701
 20
474.629931
 11
658.513242
 21
478.803219
  0
LINE
  8
CSLAYER1
  6
CONTINUOUS
 62
     1
 10
658.513242
 20
478.803219
 11
656.443382
 21
482.845945
  0
LINE
  8
CSLAYER1
  6
CONTINUOUS
 62
     1
 10
656.443382
 20
482.845945
 11
653.945875
 21
486.727339
  0
LINE
  8
CSLAYER1
  6
CONTINUOUS
 62
     1
 10
653.945875
 20
486.727339
 11
651.039726
 21
490.417864
  0
LINE
  8
CSLAYER1
  6
CONTINUOUS
 62
     1
 10
651.039726
 20
490.417864
 11
647.747055
 21
493.889431
  0
LINE
  8
CSLAYER1
  6
CONTINUOUS
 62
     1
 10
647.747055
 20
493.889431
 11
644.092920
 21
497.115620
  0
LINE
  8
CSLAYER1
  6
CONTINUOUS
 62
     1
 10
644.092920
 20
497.115620
 11
640.105131
 21
500.071877
  0
LINE
  8
CSLAYER1
  6
CONTINUOUS
 62
     1
 10
640.105131
 20
500.071877
 11
635.814039
 21
502.735704
  0
LINE
  8
CSLAYER1
  6
CONTINUOUS
 62
     1
 10
635.814039
 20
502.735704
 11
631.252300
 21
505.086827
  0
LINE
  8
CSLAYER1
  6
CONTINUOUS
 62
     1
 10
631.252300
 20
505.086827
 11
626.454632
 21
507.107353
  0
LINE
  8
CSLAYER1
  6
CONTINUOUS
 62
     1
 10
626.454632
 20
507.107353
 11
621.457549
 21
508.781905
  0
LINE
  8
CSLAYER1
  6
CONTINUOUS
 62
     1
 10
621.457549
 20
508.781905
 11
616.299080
 21
510.097738
  0
LINE
  8
CSLAYER1
  6
CONTINUOUS
 62
     1
 10
616.299080
 20
510.097738
 11
611.018487
 21
511.044837
  0
LINE
  8
CSLAYER1
  6
CONTINUOUS
 62
     1
 10
611.018487
 20
511.044837
 11
605.655956
 21
511.615996
  0
LINE
  8
CSLAYER1
  6
CONTINUOUS
 62
     1
 10
605.655956
 20
511.615996
 11
600.252300
 21
511.806866
  0
LINE
  8
CSLAYER1
  6
CONTINUOUS
 62
     1
 10
624.097494
 20
415.398381
 11
626.454632
 21
416.188272
  0
LINE
  8
CSLAYER1
  6
CONTINUOUS
 62
     1
 10
626.454632
 20
416.188272
 11
631.252300
 21
418.208798
  0
LINE
  8
CSLAYER1
  6
CONTINUOUS
 62
     1
 10
631.252300
 20
418.208798
 11
635.814039
 21
420.559921
  0
LINE
  8
CSLAYER1
  6
CONTINUOUS
 62
     1
 10
635.814039
 20
420.559921
 11
640.105131
 21
423.223748
  0
LINE
  8
CSLAYER1
  6
CONTINUOUS
 62
     1
 10
640.105131
 20
423.223748
 11
644.092920
 21
426.180006
  0
LINE
  8
CSLAYER1
  6
CONTINUOUS
 62
     1
 10
644.092920
 20
426.180006
 11
647.747055
 21
429.406194
  0
LINE
  8
CSLAYER1
  6
CONTINUOUS
 62
     1
 10
647.747055
 20
429.406194
 11
651.039726
 21
432.877761
  0
LINE
  8
CSLAYER1
  6
CONTINUOUS
 62
     1
 10
651.039726
 20
432.877761
 11
653.945875
 21
436.568286
  0
LINE
  8
CSLAYER1
  6
CONTINUOUS
 62
     1
 10
653.945875
 20
436.568286
 11
656.443382
 21
440.449680
  0
LINE
  8
CSLAYER1
  6
CONTINUOUS
 62
     1
 10
656.443382
 20
440.449680
 11
658.513242
 21
444.492406
  0
LINE
  8
CSLAYER1
  6
CONTINUOUS
 62
     1
 10
658.513242
 20
444.492406
 11
660.139701
 21
448.665694
  0
LINE
  8
CSLAYER1
  6
CONTINUOUS
 62
     1
 10
660.139701
 20
448.665694
 11
661.310380
 21
452.937784
  0
LINE
  8
CSLAYER1
  6
CONTINUOUS
 62
     1
 10
661.310380
 20
452.937784
 11
662.016371
 21
457.276163
  0
LINE
  8
CSLAYER1
  6
CONTINUOUS
 62
     1
 10
662.016371
 20
457.276163
 11
662.252300
 21
461.647813
  0
LINE
  8
CSLAYER1
  6
CONTINUOUS
 62
     1
 10
654.252300
 20
611.786479
 11
654.252300
 21
519.680435
  0
LINE
  8
CSLAYER1
  6
CONTINUOUS
 62
     1
 10
660.252300
 20
581.289562
 11
660.252300
 21
507.270814
  0
LINE
  8
CSLAYER1
  6
CONTINUOUS
 62
     1
 10
662.252300
 20
495.077125
 11
662.252300
 21
461.647813
  0
LINE
  8
CSLAYER1
  6
CONTINUOUS
 62
     1
 10
666.122879
 20
552.585830
 11
681.681716
 21
552.585830
  0
LINE
  8
CSLAYER1
  6
CONTINUOUS
 62
     1
 10
657.701542
 20
508.566146
 11
668.318906
 21
508.566146
  0
LINE
  8
CSLAYER1
  6
CONTINUOUS
 62
     1
 10
673.752300
 20
543.900339
 11
673.752300
 21
561.724028
  0
LINE
  8
CSLAYER1
  6
CONTINUOUS
 62
     1
 10
664.217730
 20
489.077125
 11
682.252300
 21
489.077125
  0
LINE
  8
CSLAYER1
  6
CONTINUOUS
 62
     1
 10
664.217730
 20
564.085830
 11
682.252300
 21
564.085830
  0
LINE
  8
CSLAYER1
  6
CONTINUOUS
 62
     1
 10
685.252300
 20
561.085830
 11
685.252300
 21
470.398829
  0
LINE
  8
CSLAYER1
  6
CONTINUOUS
 62
     1
 10
664.217730
 20
467.398829
 11
664.217730
 21
564.085830
  0
LINE
  8
CSLAYER1
  6
CONTINUOUS
 62
     1
 10
662.252300
 20
495.075690
 11
664.217730
 21
495.075690
  0
LINE
  8
CSLAYER1
  6
CONTINUOUS
 62
     1
 10
660.252300
 20
522.056601
 11
664.217730
 21
522.056601
  0
ARC
  8
CSLAYER1
  6
CONTINUOUS
 62
     1
 10
682.252300
 20
492.077125
 40
3.000000
 50
270.000000
 51
360.000000
  0
ARC
  8
CSLAYER1
  6
CONTINUOUS
 62
     1
 10
682.252300
 20
561.085830
 40
3.000000
 50
0.000000
 51
90.000000
  0
LINE
  8
CSLAYER1
  6
CONTINUOUS
 62
     1
 10
652.252300
 20
522.307327
 11
652.252300
 21
605.500277
  0
LINE
  8
CSLAYER1
  6
CONTINUOUS
 62
     1
 10
632.252300
 20
538.000739
 11
632.252300
 21
622.296517
  0
LINE
  8
CSLAYER1
  6
CONTINUOUS
 62
     1
 10
625.252300
 20
540.939574
 11
625.252300
 21
625.433056
  0
LINE
  8
CSLAYER1
  6
CONTINUOUS
 62
     1
 10
617.252300
 20
543.283901
 11
617.252300
 21
627.801398
  0
ARC
  8
CSLAYER1
  6
CONTINUOUS
 62
     1
 10
682.252300
 20
470.398829
 40
3.000000
 50
270.000000
 51
360.000000
  0
LINE
  8
CSLAYER1
  6
CONTINUOUS
 62
     1
 10
664.217730
 20
467.398829
 11
682.252300
 21
467.398829
  0
ARC
  8
CSLAYER1
  6
CONTINUOUS
 62
     1
 10
682.252300
 20
522.236545
 40
3.000000
 50
270.000000
 51
360.000000
  0
LINE
  8
CSLAYER1
  6
CONTINUOUS
 62
     1
 10
664.217730
 20
519.236545
 11
682.252300
 21
519.236545
  0
LINE
  8
CSLAYER1
  6
CONTINUOUS
 62
     1
 10
680.002300
 20
552.585830
 11
679.907348
 21
553.463857
  0
LINE
  8
CSLAYER1
  6
CONTINUOUS
 62
     1
 10
679.907348
 20
553.463857
 11
679.625379
 21
554.315205
  0
LINE
  8
CSLAYER1
  6
CONTINUOUS
 62
     1
 10
679.625379
 20
554.315205
 11
679.164958
 21
555.114008
  0
LINE
  8
CSLAYER1
  6
CONTINUOUS
 62
     1
 10
679.164958
 20
555.114008
 11
678.540077
 21
555.835993
  0
LINE
  8
CSLAYER1
  6
CONTINUOUS
 62
     1
 10
678.540077
 20
555.835993
 11
677.769722
 21
556.459223
  0
LINE
  8
CSLAYER1
  6
CONTINUOUS
 62
     1
 10
677.769722
 20
556.459223
 11
676.877300
 21
556.964762
  0
LINE
  8
CSLAYER1
  6
CONTINUOUS
 62
     1
 10
676.877300
 20
556.964762
 11
675.889926
 21
557.337250
  0
LINE
  8
CSLAYER1
  6
CONTINUOUS
 62
     1
 10
675.889926
 20
557.337250
 11
674.837601
 21
557.565368
  0
LINE
  8
CSLAYER1
  6
CONTINUOUS
 62
     1
 10
674.837601
 20
557.565368
 11
673.752300
 21
557.642186
  0
LINE
  8
CSLAYER1
  6
CONTINUOUS
 62
     1
 10
673.752300
 20
557.642186
 11
672.666999
 21
557.565368
  0
LINE
  8
CSLAYER1
  6
CONTINUOUS
 62
     1
 10
672.666999
 20
557.565368
 11
671.614674
 21
557.337250
  0
LINE
  8
CSLAYER1
  6
CONTINUOUS
 62
     1
 10
671.614674
 20
557.337250
 11
670.627300
 21
556.964762
  0
LINE
  8
CSLAYER1
  6
CONTINUOUS
 62
     1
 10
670.627300
 20
556.964762
 11
669.734877
 21
556.459223
  0
LINE
  8
CSLAYER1
  6
CONTINUOUS
 62
     1
 10
669.734877
 20
556.459223
 11
668.964522
 21
555.835993
  0
LINE
  8
CSLAYER1
  6
CONTINUOUS
 62
     1
 10
668.964522
 20
555.835993
 11
668.339641
 21
555.114008
  0
LINE
  8
CSLAYER1
  6
CONTINUOUS
 62
     1
 10
668.339641
 20
555.114008
 11
667.879221
 21
554.315205
  0
LINE
  8
CSLAYER1
  6
CONTINUOUS
 62
     1
 10
667.879221
 20
554.315205
 11
667.597251
 21
553.463857
  0
LINE
  8
CSLAYER1
  6
CONTINUOUS
 62
     1
 10
667.597251
 20
553.463857
 11
667.502300
 21
552.585830
  0
LINE
  8
CSLAYER1
  6
CONTINUOUS
 62
     1
 10
667.502300
 20
552.585830
 11
667.597251
 21
551.707803
  0
LINE
  8
CSLAYER1
  6
CONTINUOUS
 62
     1
 10
667.597251
 20
551.707803
 11
667.879221
 21
550.856454
  0
LINE
  8
CSLAYER1
  6
CONTINUOUS
 62
     1
 10
667.879221
 20
550.856454
 11
668.339641
 21
550.057651
  0
LINE
  8
CSLAYER1
  6
CONTINUOUS
 62
     1
 10
668.339641
 20
550.057651
 11
668.964522
 21
549.335666
  0
LINE
  8
CSLAYER1
  6
CONTINUOUS
 62
     1
 10
668.964522
 20
549.335666
 11
669.734877
 21
548.712436
  0
LINE
  8
CSLAYER1
  6
CONTINUOUS
 62
     1
 10
669.734877
 20
548.712436
 11
670.627300
 21
548.206897
  0
LINE
  8
CSLAYER1
  6
CONTINUOUS
 62
     1
 10
670.627300
 20
548.206897
 11
671.614674
 21
547.834409
  0
LINE
  8
CSLAYER1
  6
CONTINUOUS
 62
     1
 10
671.614674
 20
547.834409
 11
672.666999
 21
547.606291
  0
LINE
  8
CSLAYER1
  6
CONTINUOUS
 62
     1
 10
672.666999
 20
547.606291
 11
673.752300
 21
547.529473
  0
LINE
  8
CSLAYER1
  6
CONTINUOUS
 62
     1
 10
673.752300
 20
547.529473
 11
674.837601
 21
547.606291
  0
LINE
  8
CSLAYER1
  6
CONTINUOUS
 62
     1
 10
674.837601
 20
547.606291
 11
675.889926
 21
547.834409
  0
LINE
  8
CSLAYER1
  6
CONTINUOUS
 62
     1
 10
675.889926
 20
547.834409
 11
676.877300
 21
548.206897
  0
LINE
  8
CSLAYER1
  6
CONTINUOUS
 62
     1
 10
676.877300
 20
548.206897
 11
677.769722
 21
548.712436
  0
LINE
  8
CSLAYER1
  6
CONTINUOUS
 62
     1
 10
677.769722
 20
548.712436
 11
678.540077
 21
549.335666
  0
LINE
  8
CSLAYER1
  6
CONTINUOUS
 62
     1
 10
678.540077
 20
549.335666
 11
679.164958
 21
550.057651
  0
LINE
  8
CSLAYER1
  6
CONTINUOUS
 62
     1
 10
679.164958
 20
550.057651
 11
679.625379
 21
550.856454
  0
LINE
  8
CSLAYER1
  6
CONTINUOUS
 62
     1
 10
679.625379
 20
550.856454
 11
679.907348
 21
551.707803
  0
LINE
  8
CSLAYER1
  6
CONTINUOUS
 62
     1
 10
679.907348
 20
551.707803
 11
680.002300
 21
552.585830
  0
LINE
  8
CSLAYER1
  6
CONTINUOUS
 62
     1
 10
666.252300
 20
693.492644
 11
666.252300
 21
670.033478
  0
LINE
  8
CSLAYER1
  6
CONTINUOUS
 62
     1
 10
655.252300
 20
653.958745
 11
655.252300
 21
600.589943
  0
LINE
  8
CSLAYER1
  6
CONTINUOUS
 62
     1
 10
645.252300
 20
663.958745
 11
555.252300
 21
663.958745
  0
LINE
  8
CSLAYER1
  6
CONTINUOUS
 62
     1
 10
613.864031
 20
654.077778
 11
645.252300
 21
654.077778
  0
LINE
  8
CSLAYER1
  6
CONTINUOUS
 62
     1
 10
684.252300
 20
613.734802
 11
684.218052
 21
614.369397
  0
LINE
  8
CSLAYER1
  6
CONTINUOUS
 62
     1
 10
684.218052
 20
614.369397
 11
684.115569
 21
614.999161
  0
LINE
  8
CSLAYER1
  6
CONTINUOUS
 62
     1
 10
684.115569
 20
614.999161
 11
683.945632
 21
615.619303
  0
LINE
  8
CSLAYER1
  6
CONTINUOUS
 62
     1
 10
683.945632
 20
615.619303
 11
683.709533
 21
616.225103
  0
LINE
  8
CSLAYER1
  6
CONTINUOUS
 62
     1
 10
683.709533
 20
616.225103
 11
683.409070
 21
616.811950
  0
LINE
  8
CSLAYER1
  6
CONTINUOUS
 62
     1
 10
683.409070
 20
616.811950
 11
683.046528
 21
617.375379
  0
LINE
  8
CSLAYER1
  6
CONTINUOUS
 62
     1
 10
683.046528
 20
617.375379
 11
682.624668
 21
617.911100
  0
LINE
  8
CSLAYER1
  6
CONTINUOUS
 62
     1
 10
682.624668
 20
617.911100
 11
682.146700
 21
618.415037
  0
LINE
  8
CSLAYER1
  6
CONTINUOUS
 62
     1
 10
682.146700
 20
618.415037
 11
681.616261
 21
618.883355
  0
LINE
  8
CSLAYER1
  6
CONTINUOUS
 62
     1
 10
681.616261
 20
618.883355
 11
681.037388
 21
619.312489
  0
LINE
  8
CSLAYER1
  6
CONTINUOUS
 62
     1
 10
681.037388
 20
619.312489
 11
680.414488
 21
619.699174
  0
LINE
  8
CSLAYER1
  6
CONTINUOUS
 62
     1
 10
680.414488
 20
619.699174
 11
679.752300
 21
620.040466
  0
LINE
  8
CSLAYER1
  6
CONTINUOUS
 62
     1
 10
679.752300
 20
620.040466
 11
679.055864
 21
620.333768
  0
LINE
  8
CSLAYER1
  6
CONTINUOUS
 62
     1
 10
679.055864
 20
620.333768
 11
678.330481
 21
620.576848
  0
LINE
  8
CSLAYER1
  6
CONTINUOUS
 62
     1
 10
678.330481
 20
620.576848
 11
677.581671
 21
620.767856
  0
LINE
  8
CSLAYER1
  6
CONTINUOUS
 62
     1
 10
677.581671
 20
620.767856
 11
676.815133
 21
620.905338
  0
LINE
  8
CSLAYER1
  6
CONTINUOUS
 62
     1
 10
676.815133
 20
620.905338
 11
676.036701
 21
620.988248
  0
LINE
  8
CSLAYER1
  6
CONTINUOUS
 62
     1
 10
676.036701
 20
620.988248
 11
675.252300
 21
621.015955
  0
LINE
  8
CSLAYER1
  6
CONTINUOUS
 62
     1
 10
675.252300
 20
621.015955
 11
674.467898
 21
620.988248
  0
LINE
  8
CSLAYER1
  6
CONTINUOUS
 62
     1
 10
674.467898
 20
620.988248
 11
673.689466
 21
620.905338
  0
LINE
  8
CSLAYER1
  6
CONTINUOUS
 62
     1
 10
673.689466
 20
620.905338
 11
672.922928
 21
620.767856
  0
LINE
  8
CSLAYER1
  6
CONTINUOUS
 62
     1
 10
672.922928
 20
620.767856
 11
672.174118
 21
620.576848
  0
LINE
  8
CSLAYER1
  6
CONTINUOUS
 62
     1
 10
672.174118
 20
620.576848
 11
671.448735
 21
620.333768
  0
LINE
  8
CSLAYER1
  6
CONTINUOUS
 62
     1
 10
671.448735
 20
620.333768
 11
670.752300
 21
620.040466
  0
LINE
  8
CSLAYER1
  6
CONTINUOUS
 62
     1
 10
670.752300
 20
620.040466
 11
670.090112
 21
619.699174
  0
LINE
  8
CSLAYER1
  6
CONTINUOUS
 62
     1
 10
670.090112
 20
619.699174
 11
669.467211
 21
619.312489
  0
LINE
  8
CSLAYER1
  6
CONTINUOUS
 62
     1
 10
669.467211
 20
619.312489
 11
668.888339
 21
618.883355
  0
LINE
  8
CSLAYER1
  6
CONTINUOUS
 62
     1
 10
668.888339
 20
618.883355
 11
668.357900
 21
618.415037
  0
LINE
  8
CSLAYER1
  6
CONTINUOUS
 62
     1
 10
668.357900
 20
618.415037
 11
667.879931
 21
617.911100
  0
LINE
  8
CSLAYER1
  6
CONTINUOUS
 62
     1
 10
667.879931
 20
617.911100
 11
667.458071
 21
617.375379
  0
LINE
  8
CSLAYER1
  6
CONTINUOUS
 62
     1
 10
667.458071
 20
617.375379
 11
667.095530
 21
616.811950
  0
LINE
  8
CSLAYER1
  6
CONTINUOUS
 62
     1
 10
667.095530
 20
616.811950
 11
666.795066
 21
616.225103
  0
LINE
  8
CSLAYER1
  6
CONTINUOUS
 62
     1
 10
666.795066
 20
616.225103
 11
666.558967
 21
615.619303
  0
LINE
  8
CSLAYER1
  6
CONTINUOUS
 62
     1
 10
666.558967
 20
615.619303
 11
666.389030
 21
614.999161
  0
LINE
  8
CSLAYER1
  6
CONTINUOUS
 62
     1
 10
666.389030
 20
614.999161
 11
666.286547
 21
614.369397
  0
LINE
  8
CSLAYER1
  6
CONTINUOUS
 62
     1
 10
666.286547
 20
614.369397
 11
666.252300
 21
613.734802
  0
LINE
  8
CSLAYER1
  6
CONTINUOUS
 62
     1
 10
666.252300
 20
613.734802
 11
666.286547
 21
613.100208
  0
LINE
  8
CSLAYER1
  6
CONTINUOUS
 62
     1
 10
666.286547
 20
613.100208
 11
666.389030
 21
612.470443
  0
LINE
  8
CSLAYER1
  6
CONTINUOUS
 62
     1
 10
666.389030
 20
612.470443
 11
666.558967
 21
611.850301
  0
LINE
  8
CSLAYER1
  6
CONTINUOUS
 62
     1
 10
666.558967
 20
611.850301
 11
666.795066
 21
611.244501
  0
LINE
  8
CSLAYER1
  6
CONTINUOUS
 62
     1
 10
666.795066
 20
611.244501
 11
667.095530
 21
610.657654
  0
LINE
  8
CSLAYER1
  6
CONTINUOUS
 62
     1
 10
667.095530
 20
610.657654
 11
667.458071
 21
610.094226
  0
LINE
  8
CSLAYER1
  6
CONTINUOUS
 62
     1
 10
667.458071
 20
610.094226
 11
667.879931
 21
609.558505
  0
LINE
  8
CSLAYER1
  6
CONTINUOUS
 62
     1
 10
667.879931
 20
609.558505
 11
668.357900
 21
609.054567
  0
LINE
  8
CSLAYER1
  6
CONTINUOUS
 62
     1
 10
668.357900
 20
609.054567
 11
668.888339
 21
608.586250
  0
LINE
  8
CSLAYER1
  6
CONTINUOUS
 62
     1
 10
668.888339
 20
608.586250
 11
669.467211
 21
608.157116
  0
LINE
  8
CSLAYER1
  6
CONTINUOUS
 62
     1
 10
669.467211
 20
608.157116
 11
670.090112
 21
607.770431
  0
LINE
  8
CSLAYER1
  6
CONTINUOUS
 62
     1
 10
670.090112
 20
607.770431
 11
670.752300
 21
607.429139
  0
LINE
  8
CSLAYER1
  6
CONTINUOUS
 62
     1
 10
670.752300
 20
607.429139
 11
671.448735
 21
607.135837
  0
LINE
  8
CSLAYER1
  6
CONTINUOUS
 62
     1
 10
671.448735
 20
607.135837
 11
672.174118
 21
606.892757
  0
LINE
  8
CSLAYER1
  6
CONTINUOUS
 62
     1
 10
672.174118
 20
606.892757
 11
672.922928
 21
606.701749
  0
LINE
  8
CSLAYER1
  6
CONTINUOUS
 62
     1
 10
672.922928
 20
606.701749
 11
673.689466
 21
606.564266
  0
LINE
  8
CSLAYER1
  6
CONTINUOUS
 62
     1
 10
673.689466
 20
606.564266
 11
674.467898
 21
606.481356
  0
LINE
  8
CSLAYER1
  6
CONTINUOUS
 62
     1
 10
674.467898
 20
606.481356
 11
675.252300
 21
606.453649
  0
LINE
  8
CSLAYER1
  6
CONTINUOUS
 62
     1
 10
675.252300
 20
606.453649
 11
676.036701
 21
606.481356
  0
LINE
  8
CSLAYER1
  6
CONTINUOUS
 62
     1
 10
676.036701
 20
606.481356
 11
676.815133
 21
606.564266
  0
LINE
  8
CSLAYER1
  6
CONTINUOUS
 62
     1
 10
676.815133
 20
606.564266
 11
677.581671
 21
606.701749
  0
LINE
  8
CSLAYER1
  6
CONTINUOUS
 62
     1
 10
677.581671
 20
606.701749
 11
678.330481
 21
606.892757
  0
LINE
  8
CSLAYER1
  6
CONTINUOUS
 62
     1
 10
678.330481
 20
606.892757
 11
679.055864
 21
607.135837
  0
LINE
  8
CSLAYER1
  6
CONTINUOUS
 62
     1
 10
679.055864
 20
607.135837
 11
679.752300
 21
607.429139
  0
LINE
  8
CSLAYER1
  6
CONTINUOUS
 62
     1
 10
679.752300
 20
607.429139
 11
680.414488
 21
607.770431
  0
LINE
  8
CSLAYER1
  6
CONTINUOUS
 62
     1
 10
680.414488
 20
607.770431
 11
681.037388
 21
608.157116
  0
LINE
  8
CSLAYER1
  6
CONTINUOUS
 62
     1
 10
681.037388
 20
608.157116
 11
681.616261
 21
608.586250
  0
LINE
  8
CSLAYER1
  6
CONTINUOUS
 62
     1
 10
681.616261
 20
608.586250
 11
682.146700
 21
609.054567
  0
LINE
  8
CSLAYER1
  6
CONTINUOUS
 62
     1
 10
682.146700
 20
609.054567
 11
682.624668
 21
609.558505
  0
LINE
  8
CSLAYER1
  6
CONTINUOUS
 62
     1
 10
682.624668
 20
609.558505
 11
683.046528
 21
610.094226
  0
LINE
  8
CSLAYER1
  6
CONTINUOUS
 62
     1
 10
683.046528
 20
610.094226
 11
683.409070
 21
610.657654
  0
LINE
  8
CSLAYER1
  6
CONTINUOUS
 62
     1
 10
683.409070
 20
610.657654
 11
683.709533
 21
611.244501
  0
LINE
  8
CSLAYER1
  6
CONTINUOUS
 62
     1
 10
683.709533
 20
611.244501
 11
683.945632
 21
611.850301
  0
LINE
  8
CSLAYER1
  6
CONTINUOUS
 62
     1
 10
683.945632
 20
611.850301
 11
684.115569
 21
612.470443
  0
LINE
  8
CSLAYER1
  6
CONTINUOUS
 62
     1
 10
684.115569
 20
612.470443
 11
684.218052
 21
613.100208
  0
LINE
  8
CSLAYER1
  6
CONTINUOUS
 62
     1
 10
684.218052
 20
613.100208
 11
684.252300
 21
613.734802
  0
LINE
  8
CSLAYER1
  6
CONTINUOUS
 62
     1
 10
684.252300
 20
619.410708
 11
684.218052
 21
620.045302
  0
LINE
  8
CSLAYER1
  6
CONTINUOUS
 62
     1
 10
684.218052
 20
620.045302
 11
684.115569
 21
620.675067
  0
LINE
  8
CSLAYER1
  6
CONTINUOUS
 62
     1
 10
684.115569
 20
620.675067
 11
683.945632
 21
621.295209
  0
LINE
  8
CSLAYER1
  6
CONTINUOUS
 62
     1
 10
683.945632
 20
621.295209
 11
683.709533
 21
621.901009
  0
LINE
  8
CSLAYER1
  6
CONTINUOUS
 62
     1
 10
683.709533
 20
621.901009
 11
683.409070
 21
622.487856
  0
LINE
  8
CSLAYER1
  6
CONTINUOUS
 62
     1
 10
683.409070
 20
622.487856
 11
683.046528
 21
623.051285
  0
LINE
  8
CSLAYER1
  6
CONTINUOUS
 62
     1
 10
683.046528
 20
623.051285
 11
682.624668
 21
623.587006
  0
LINE
  8
CSLAYER1
  6
CONTINUOUS
 62
     1
 10
682.624668
 20
623.587006
 11
682.146700
 21
624.090943
  0
LINE
  8
CSLAYER1
  6
CONTINUOUS
 62
     1
 10
682.146700
 20
624.090943
 11
681.616261
 21
624.559261
  0
LINE
  8
CSLAYER1
  6
CONTINUOUS
 62
     1
 10
681.616261
 20
624.559261
 11
681.037388
 21
624.988395
  0
LINE
  8
CSLAYER1
  6
CONTINUOUS
 62
     1
 10
681.037388
 20
624.988395
 11
680.414488
 21
625.375079
  0
LINE
  8
CSLAYER1
  6
CONTINUOUS
 62
     1
 10
680.414488
 20
625.375079
 11
679.752300
 21
625.716372
  0
LINE
  8
CSLAYER1
  6
CONTINUOUS
 62
     1
 10
679.752300
 20
625.716372
 11
679.055864
 21
626.009674
  0
LINE
  8
CSLAYER1
  6
CONTINUOUS
 62
     1
 10
679.055864
 20
626.009674
 11
678.330481
 21
626.252754
  0
LINE
  8
CSLAYER1
  6
CONTINUOUS
 62
     1
 10
678.330481
 20
626.252754
 11
677.581671
 21
626.443762
  0
LINE
  8
CSLAYER1
  6
CONTINUOUS
 62
     1
 10
677.581671
 20
626.443762
 11
676.815133
 21
626.581244
  0
LINE
  8
CSLAYER1
  6
CONTINUOUS
 62
     1
 10
676.815133
 20
626.581244
 11
676.036701
 21
626.664154
  0
LINE
  8
CSLAYER1
  6
CONTINUOUS
 62
     1
 10
676.036701
 20
626.664154
 11
675.252300
 21
626.691861
  0
LINE
  8
CSLAYER1
  6
CONTINUOUS
 62
     1
 10
675.252300
 20
626.691861
 11
674.467898
 21
626.664154
  0
LINE
  8
CSLAYER1
  6
CONTINUOUS
 62
     1
 10
674.467898
 20
626.664154
 11
673.689466
 21
626.581244
  0
LINE
  8
CSLAYER1
  6
CONTINUOUS
 62
     1
 10
673.689466
 20
626.581244
 11
672.922928
 21
626.443762
  0
LINE
  8
CSLAYER1
  6
CONTINUOUS
 62
     1
 10
672.922928
 20
626.443762
 11
672.174118
 21
626.252754
  0
LINE
  8
CSLAYER1
  6
CONTINUOUS
 62
     1
 10
672.174118
 20
626.252754
 11
671.448735
 21
626.009674
  0
LINE
  8
CSLAYER1
  6
CONTINUOUS
 62
     1
 10
671.448735
 20
626.009674
 11
670.752300
 21
625.716372
  0
LINE
  8
CSLAYER1
  6
CONTINUOUS
 62
     1
 10
670.752300
 20
625.716372
 11
670.090112
 21
625.375079
  0
LINE
  8
CSLAYER1
  6
CONTINUOUS
 62
     1
 10
670.090112
 20
625.375079
 11
669.467211
 21
624.988395
  0
LINE
  8
CSLAYER1
  6
CONTINUOUS
 62
     1
 10
669.467211
 20
624.988395
 11
668.888339
 21
624.559261
  0
LINE
  8
CSLAYER1
  6
CONTINUOUS
 62
     1
 10
668.888339
 20
624.559261
 11
668.357900
 21
624.090943
  0
LINE
  8
CSLAYER1
  6
CONTINUOUS
 62
     1
 10
668.357900
 20
624.090943
 11
667.879931
 21
623.587006
  0
LINE
  8
CSLAYER1
  6
CONTINUOUS
 62
     1
 10
667.879931
 20
623.587006
 11
667.458071
 21
623.051285
  0
LINE
  8
CSLAYER1
  6
CONTINUOUS
 62
     1
 10
667.458071
 20
623.051285
 11
667.095530
 21
622.487856
  0
LINE
  8
CSLAYER1
  6
CONTINUOUS
 62
     1
 10
667.095530
 20
622.487856
 11
666.795066
 21
621.901009
  0
LINE
  8
CSLAYER1
  6
CONTINUOUS
 62
     1
 10
666.795066
 20
621.901009
 11
666.558967
 21
621.295209
  0
LINE
  8
CSLAYER1
  6
CONTINUOUS
 62
     1
 10
666.558967
 20
621.295209
 11
666.389030
 21
620.675067
  0
LINE
  8
CSLAYER1
  6
CONTINUOUS
 62
     1
 10
666.389030
 20
620.675067
 11
666.286547
 21
620.045302
  0
LINE
  8
CSLAYER1
  6
CONTINUOUS
 62
     1
 10
666.286547
 20
620.045302
 11
666.252300
 21
619.410708
  0
LINE
  8
CSLAYER1
  6
CONTINUOUS
 62
     1
 10
684.252300
 20
619.410708
 11
684.252300
 21
613.734802
  0
LINE
  8
CSLAYER1
  6
CONTINUOUS
 62
     1
 10
666.252300
 20
619.410708
 11
666.252300
 21
613.734802
  0
ARC
  8
CSLAYER1
  6
CONTINUOUS
 62
     1
 10
645.252300
 20
653.958745
 40
10.000000
 50
0.000000
 51
90.000000
  0
ARC
  8
CSLAYER1
  6
CONTINUOUS
 62
     1
 10
645.252300
 20
644.077778
 40
10.000000
 50
0.000000
 51
90.000000
  0
LINE
  8
CSLAYER1
  6
CONTINUOUS
 62
     4
 10
997.252300
 20
1084.857810
 11
203.252300
 21
1084.857810
  0
LINE
  8
CSLAYER1
  6
CONTINUOUS
 62
     4
 10
1000.252300
 20
1081.857810
 11
1000.252300
 21
1031.857810
  0
LINE
  8
CSLAYER1
  6
CONTINUOUS
 62
     4
 10
857.252300
 20
981.657810
 11
857.252300
 21
931.657810
  0
LINE
  8
CSLAYER1
  6
CONTINUOUS
 62
     4
 10
1000.252300
 20
1031.857810
 11
200.252300
 21
1031.857810
  0
ARC
  8
CSLAYER1
  6
CONTINUOUS
 62
     4
 10
997.252300
 20
1081.857810
 40
3.000000
 50
0.000000
 51
90.000000
  0
LINE
  8
CSLAYER1
  6
CONTINUOUS
 62
     4
 10
785.252300
 20
889.132554
 11
785.252300
 21
937.715244
  0
LINE
  8
CSLAYER1
  6
CONTINUOUS
 62
     4
 10
765.252300
 20
889.132554
 11
765.252300
 21
937.715244
  0
POINT
  8
CSLAYER1
 62
     4
 10
775.252300
 20
872.132552
  0
LINE
  8
CSLAYER1
  6
CONTINUOUS
 62
     5
 10
789.377676
 20
872.132554
 11
761.138586
 21
872.132554
  0
LINE
  8
CSLAYER1
  6
CONTINUOUS
 62
     4
 10
762.727300
 20
887.132552
 11
787.777300
 21
887.132552
  0
POINT
  8
CSLAYER1
 62
     4
 10
775.252300
 20
840.382552
  0
LINE
  8
CSLAYER1
  6
CONTINUOUS
 62
     4
 10
788.777300
 20
886.132552
 11
788.777300
 21
793.582552
  0
LINE
  8
CSLAYER1
  6
CONTINUOUS
 62
     4
 10
784.777300
 20
855.432552
 11
784.777300
 21
793.582552
  0
LINE
  8
CSLAYER1
  6
CONTINUOUS
 62
     4
 10
784.777300
 20
855.432552
 11
788.777300
 21
855.432552
  0
LINE
  8
CSLAYER1
  6
CONTINUOUS
 62
     4
 10
783.777300
 20
830.857552
 11
766.727300
 21
830.857552
  0
LINE
  8
CSLAYER1
  6
CONTINUOUS
 62
     4
 10
783.777300
 20
849.907552
 11
766.727300
 21
849.907552
  0
ARC
  8
CSLAYER1
  6
CONTINUOUS
 62
     4
 10
783.777300
 20
831.857552
 40
1.000000
 50
270.000000
 51
360.000000
  0
ARC
  8
CSLAYER1
  6
CONTINUOUS
 62
     4
 10
783.777300
 20
848.907552
 40
1.000000
 50
0.000000
 51
90.000000
  0
LINE
  8
CSLAYER1
  6
CONTINUOUS
 62
     4
 10
761.727300
 20
886.132552
 11
761.727300
 21
792.882552
  0
LINE
  8
CSLAYER1
  6
CONTINUOUS
 62
     4
 10
765.727300
 20
855.432552
 11
765.727300
 21
793.582552
  0
LINE
  8
CSLAYER1
  6
CONTINUOUS
 62
     4
 10
765.727300
 20
855.432552
 11
761.727300
 21
855.432552
  0
ARC
  8
CSLAYER1
  6
CONTINUOUS
 62
     4
 10
766.727300
 20
831.857552
 40
1.000000
 50
180.000000
 51
270.000000
  0
ARC
  8
CSLAYER1
  6
CONTINUOUS
 62
     4
 10
766.727300
 20
848.907552
 40
1.000000
 50
90.000000
 51
180.000000
  0
LINE
  8
CSLAYER1
  6
CONTINUOUS
 62
     4
 10
795.002300
 20
836.612552
 11
795.002300
 21
844.162278
  0
LINE
  8
CSLAYER1
  6
CONTINUOUS
 62
     4
 10
788.777300
 20
827.382552
 11
793.152300
 21
827.382552
  0
LINE
  8
CSLAYER1
  6
CONTINUOUS
 62
     4
 10
788.777300
 20
885.132552
 11
793.152300
 21
885.132552
  0
LINE
  8
CSLAYER1
  6
CONTINUOUS
 62
     4
 10
793.152300
 20
835.612552
 11
794.002300
 21
835.612552
  0
LINE
  8
CSLAYER1
  6
CONTINUOUS
 62
     4
 10
793.152300
 20
845.162278
 11
794.002300
 21
845.162278
  0
ARC
  8
CSLAYER1
  6
CONTINUOUS
 62
     4
 10
794.002300
 20
836.612552
 40
1.000000
 50
270.000000
 51
360.000000
  0
ARC
  8
CSLAYER1
  6
CONTINUOUS
 62
     4
 10
794.002300
 20
844.162278
 40
1.000000
 50
0.000000
 51
90.000000
  0
LINE
  8
CSLAYER1
  6
CONTINUOUS
 62
     4
 10
795.002300
 20
868.362552
 11
795.002300
 21
875.912278
  0
LINE
  8
CSLAYER1
  6
CONTINUOUS
 62
     4
 10
793.152300
 20
867.362552
 11
794.002300
 21
867.362552
  0
LINE
  8
CSLAYER1
  6
CONTINUOUS
 62
     4
 10
793.152300
 20
876.912278
 11
794.002300
 21
876.912278
  0
ARC
  8
CSLAYER1
  6
CONTINUOUS
 62
     4
 10
794.002300
 20
868.362552
 40
1.000000
 50
270.000000
 51
360.000000
  0
ARC
  8
CSLAYER1
  6
CONTINUOUS
 62
     4
 10
794.002300
 20
875.912278
 40
1.000000
 50
0.000000
 51
90.000000
  0
LINE
  8
CSLAYER1
  6
CONTINUOUS
 62
     4
 10
755.502300
 20
836.612552
 11
755.502300
 21
844.162278
  0
LINE
  8
CSLAYER1
  6
CONTINUOUS
 62
     4
 10
761.727300
 20
827.382552
 11
757.352300
 21
827.382552
  0
LINE
  8
CSLAYER1
  6
CONTINUOUS
 62
     4
 10
761.727300
 20
885.132552
 11
757.352300
 21
885.132552
  0
LINE
  8
CSLAYER1
  6
CONTINUOUS
 62
     4
 10
757.352300
 20
835.612552
 11
756.502300
 21
835.612552
  0
LINE
  8
CSLAYER1
  6
CONTINUOUS
 62
     4
 10
757.352300
 20
845.162278
 11
756.502300
 21
845.162278
  0
ARC
  8
CSLAYER1
  6
CONTINUOUS
 62
     4
 10
756.502300
 20
836.612552
 40
1.000000
 50
180.000000
 51
270.000000
  0
ARC
  8
CSLAYER1
  6
CONTINUOUS
 62
     4
 10
756.502300
 20
844.162278
 40
1.000000
 50
90.000000
 51
180.000000
  0
LINE
  8
CSLAYER1
  6
CONTINUOUS
 62
     4
 10
752.402300
 20
868.362552
 11
752.402300
 21
875.912278
  0
LINE
  8
CSLAYER1
  6
CONTINUOUS
 62
     4
 10
757.352300
 20
867.362552
 11
753.402300
 21
867.362552
  0
LINE
  8
CSLAYER1
  6
CONTINUOUS
 62
     4
 10
757.352300
 20
876.912278
 11
753.402300
 21
876.912278
  0
ARC
  8
CSLAYER1
  6
CONTINUOUS
 62
     4
 10
753.402300
 20
868.362552
 40
1.000000
 50
180.000000
 51
270.000000
  0
ARC
  8
CSLAYER1
  6
CONTINUOUS
 62
     4
 10
753.402300
 20
875.912278
 40
1.000000
 50
90.000000
 51
180.000000
  0
LINE
  8
CSLAYER1
  6
CONTINUOUS
 62
     4
 10
761.727300
 20
876.912278
 11
788.777300
 21
876.912278
  0
LINE
  8
CSLAYER1
  6
CONTINUOUS
 62
     4
 10
761.727300
 20
867.362552
 11
788.777300
 21
867.362552
  0
LINE
  8
CSLAYER1
  6
CONTINUOUS
 62
     4
 10
763.727300
 20
857.132552
 11
786.777300
 21
857.132552
  0
ARC
  8
CSLAYER1
  6
CONTINUOUS
 62
     4
 10
786.777300
 20
859.132552
 40
2.000000
 50
270.000000
 51
360.000000
  0
ARC
  8
CSLAYER1
  6
CONTINUOUS
 62
     4
 10
763.727300
 20
859.132552
 40
2.000000
 50
180.000000
 51
270.000000
  0
ARC
  8
CSLAYER1
  6
CONTINUOUS
 62
     4
 10
763.252300
 20
889.132552
 40
2.000000
 50
270.000000
 51
360.000000
  0
ARC
  8
CSLAYER1
  6
CONTINUOUS
 62
     4
 10
787.252300
 20
889.132552
 40
2.000000
 50
180.000000
 51
270.000000
  0
ARC
  8
CSLAYER1
  6
CONTINUOUS
 62
     4
 10
762.727300
 20
886.132552
 40
1.000000
 50
90.000000
 51
180.000000
  0
ARC
  8
CSLAYER1
  6
CONTINUOUS
 62
     4
 10
787.777300
 20
886.132552
 40
1.000000
 50
0.000000
 51
90.000000
  0
POINT
  8
CSLAYER1
 62
     4
 10
775.252300
 20
887.132552
  0
LINE
  8
CSLAYER1
  6
CONTINUOUS
 62
     4
 10
793.152300
 20
827.382552
 11
793.152300
 21
885.132552
  0
LINE
  8
CSLAYER1
  6
CONTINUOUS
 62
     4
 10
757.352300
 20
827.382552
 11
757.352300
 21
885.132552
  0
POINT
  8
CSLAYER1
 62
     4
 10
775.252300
 20
808.632552
  0
LINE
  8
CSLAYER1
  6
CONTINUOUS
 62
     4
 10
784.777300
 20
793.582552
 11
788.777300
 21
793.582552
  0
LINE
  8
CSLAYER1
  6
CONTINUOUS
 62
     4
 10
783.777300
 20
818.157552
 11
766.727300
 21
818.157552
  0
LINE
  8
CSLAYER1
  6
CONTINUOUS
 62
     4
 10
783.777300
 20
799.107552
 11
766.727300
 21
799.107552
  0
ARC
  8
CSLAYER1
  6
CONTINUOUS
 62
     4
 10
783.777300
 20
817.157552
 40
1.000000
 50
0.000000
 51
90.000000
  0
ARC
  8
CSLAYER1
  6
CONTINUOUS
 62
     4
 10
783.777300
 20
800.107552
 40
1.000000
 50
270.000000
 51
360.000000
  0
LINE
  8
CSLAYER1
  6
CONTINUOUS
 62
     4
 10
765.727300
 20
793.582552
 11
761.727300
 21
793.582552
  0
ARC
  8
CSLAYER1
  6
CONTINUOUS
 62
     4
 10
766.727300
 20
817.157552
 40
1.000000
 50
90.000000
 51
180.000000
  0
ARC
  8
CSLAYER1
  6
CONTINUOUS
 62
     4
 10
766.727300
 20
800.107552
 40
1.000000
 50
180.000000
 51
270.000000
  0
LINE
  8
CSLAYER1
  6
CONTINUOUS
 62
     4
 10
795.002300
 20
812.402552
 11
795.002300
 21
804.852826
  0
LINE
  8
CSLAYER1
  6
CONTINUOUS
 62
     4
 10
788.777300
 20
821.632552
 11
793.152300
 21
821.632552
  0
LINE
  8
CSLAYER1
  6
CONTINUOUS
 62
     4
 10
793.152300
 20
813.402552
 11
794.002300
 21
813.402552
  0
LINE
  8
CSLAYER1
  6
CONTINUOUS
 62
     4
 10
793.152300
 20
803.852826
 11
794.002300
 21
803.852826
  0
ARC
  8
CSLAYER1
  6
CONTINUOUS
 62
     4
 10
794.002300
 20
812.402552
 40
1.000000
 50
0.000000
 51
90.000000
  0
ARC
  8
CSLAYER1
  6
CONTINUOUS
 62
     4
 10
794.002300
 20
804.852826
 40
1.000000
 50
270.000000
 51
360.000000
  0
LINE
  8
CSLAYER1
  6
CONTINUOUS
 62
     4
 10
755.502300
 20
812.402552
 11
755.502300
 21
804.852826
  0
LINE
  8
CSLAYER1
  6
CONTINUOUS
 62
     4
 10
761.727300
 20
821.632552
 11
757.352300
 21
821.632552
  0
LINE
  8
CSLAYER1
  6
CONTINUOUS
 62
     4
 10
757.352300
 20
813.402552
 11
756.502300
 21
813.402552
  0
LINE
  8
CSLAYER1
  6
CONTINUOUS
 62
     4
 10
757.352300
 20
803.852826
 11
756.502300
 21
803.852826
  0
ARC
  8
CSLAYER1
  6
CONTINUOUS
 62
     4
 10
756.502300
 20
812.402552
 40
1.000000
 50
90.000000
 51
180.000000
  0
ARC
  8
CSLAYER1
  6
CONTINUOUS
 62
     4
 10
756.502300
 20
804.852826
 40
1.000000
 50
180.000000
 51
270.000000
  0
LINE
  8
CSLAYER1
  6
CONTINUOUS
 62
     4
 10
630.502300
 20
929.465244
 11
630.502300
 21
823.445625
  0
LINE
  8
CSLAYER1
  6
CONTINUOUS
 62
     4
 10
600.252300
 20
945.940575
 11
602.888761
 21
945.877881
  0
LINE
  8
CSLAYER1
  6
CONTINUOUS
 62
     4
 10
600.252300
 20
829.463453
 11
604.135088
 21
829.371122
  0
LINE
  8
CSLAYER1
  6
CONTINUOUS
 62
     4
 10
604.135088
 20
829.371122
 11
607.988326
 21
829.094833
  0
LINE
  8
CSLAYER1
  6
CONTINUOUS
 62
     4
 10
607.988326
 20
829.094833
 11
611.782688
 21
828.636688
  0
LINE
  8
CSLAYER1
  6
CONTINUOUS
 62
     4
 10
611.782688
 20
828.636688
 11
615.489297
 21
828.000175
  0
LINE
  8
CSLAYER1
  6
CONTINUOUS
 62
     4
 10
615.489297
 20
828.000175
 11
619.079943
 21
827.190136
  0
LINE
  8
CSLAYER1
  6
CONTINUOUS
 62
     4
 10
619.079943
 20
827.190136
 11
622.527300
 21
826.212738
  0
LINE
  8
CSLAYER1
  6
CONTINUOUS
 62
     4
 10
622.527300
 20
826.212738
 11
625.805130
 21
825.075418
  0
LINE
  8
CSLAYER1
  6
CONTINUOUS
 62
     4
 10
625.805130
 20
825.075418
 11
628.888488
 21
823.786833
  0
LINE
  8
CSLAYER1
  6
CONTINUOUS
 62
     4
 10
628.888488
 20
823.786833
 11
631.753907
 21
822.356789
  0
LINE
  8
CSLAYER1
  6
CONTINUOUS
 62
     4
 10
631.753907
 20
822.356789
 11
634.379580
 21
820.796170
  0
LINE
  8
CSLAYER1
  6
CONTINUOUS
 62
     4
 10
634.379580
 20
820.796170
 11
636.745523
 21
819.116853
  0
LINE
  8
CSLAYER1
  6
CONTINUOUS
 62
     4
 10
636.745523
 20
819.116853
 11
638.833731
 21
817.331618
  0
LINE
  8
CSLAYER1
  6
CONTINUOUS
 62
     4
 10
638.833731
 20
817.331618
 11
640.628312
 21
815.454053
  0
LINE
  8
CSLAYER1
  6
CONTINUOUS
 62
     4
 10
640.628312
 20
815.454053
 11
642.115606
 21
813.498447
  0
LINE
  8
CSLAYER1
  6
CONTINUOUS
 62
     4
 10
642.115606
 20
813.498447
 11
643.284295
 21
811.479683
  0
LINE
  8
CSLAYER1
  6
CONTINUOUS
 62
     4
 10
643.284295
 20
811.479683
 11
644.125485
 21
809.413126
  0
LINE
  8
CSLAYER1
  6
CONTINUOUS
 62
     4
 10
644.125485
 20
809.413126
 11
644.632773
 21
807.314502
  0
LINE
  8
CSLAYER1
  6
CONTINUOUS
 62
     4
 10
644.632773
 20
807.314502
 11
644.802300
 21
805.199784
  0
LINE
  8
CSLAYER1
  6
CONTINUOUS
 62
     4
 10
898.752300
 20
1031.857810
 11
898.752300
 21
891.657810
  0
LINE
  8
CSLAYER1
  6
CONTINUOUS
 62
     4
 10
857.752300
 20
981.657810
 11
857.752300
 21
891.657810
  0
LINE
  8
CSLAYER1
  6
CONTINUOUS
 62
     4
 10
685.252300
 20
552.105136
 11
807.252300
 21
552.105136
  0
LINE
  8
CSLAYER1
  6
CONTINUOUS
 62
     4
 10
685.252300
 20
531.221938
 11
807.252300
 21
531.221938
  0
LINE
  8
CSLAYER1
  6
CONTINUOUS
 62
     4
 10
823.252300
 20
552.105136
 11
866.252300
 21
552.105136
  0
LINE
  8
CSLAYER1
  6
CONTINUOUS
 62
     4
 10
823.252300
 20
531.221938
 11
866.252300
 21
531.221938
  0
LINE
  8
CSLAYER1
  6
CONTINUOUS
 62
     4
 10
823.252300
 20
476.246739
 11
866.252300
 21
476.246739
  0
LINE
  8
CSLAYER1
  6
CONTINUOUS
 62
     4
 10
685.252300
 20
476.246739
 11
787.452300
 21
476.246739
  0
LINE
  8
CSLAYER1
  6
CONTINUOUS
 62
     4
 10
823.252300
 20
981.657810
 11
823.252300
 21
415.398381
  0
LINE
  8
CSLAYER1
  6
CONTINUOUS
 62
     4
 10
832.252300
 20
931.906419
 11
832.252300
 21
981.657810
  0
LINE
  8
CSLAYER1
  6
CONTINUOUS
 62
     4
 10
847.752300
 20
981.657810
 11
847.752300
 21
956.906419
  0
LINE
  8
CSLAYER1
  6
CONTINUOUS
 62
     4
 10
841.752300
 20
981.657810
 11
841.752300
 21
956.906419
  0
LINE
  8
CSLAYER1
  6
CONTINUOUS
 62
     4
 10
828.252300
 20
920.657810
 11
823.252300
 21
920.657810
  0
LINE
  8
CSLAYER1
  6
CONTINUOUS
 62
     4
 10
828.252300
 20
900.657810
 11
823.252300
 21
900.657810
  0
LINE
  8
CSLAYER1
  6
CONTINUOUS
 62
     4
 10
754.752300
 20
929.465244
 11
630.502300
 21
929.465244
  0
LINE
  8
CSLAYER1
  6
CONTINUOUS
 62
     4
 10
801.252300
 20
937.715244
 11
756.752300
 21
937.715244
  0
LINE
  8
CSLAYER1
  6
CONTINUOUS
 62
     4
 10
756.752300
 20
931.465244
 11
756.752300
 21
981.657810
  0
LINE
  8
CSLAYER1
  6
CONTINUOUS
 62
     4
 10
756.752300
 20
931.465244
 11
754.752300
 21
929.465244
  0
LINE
  8
CSLAYER1
  6
CONTINUOUS
 62
     4
 10
801.252300
 20
937.715244
 11
806.252300
 21
942.715244
  0
LINE
  8
CSLAYER1
  6
CONTINUOUS
 62
     4
 10
801.252300
 20
937.715244
 11
801.252300
 21
981.657810
  0
LINE
  8
CSLAYER1
  6
CONTINUOUS
 62
     4
 10
783.752300
 20
897.132554
 11
783.752300
 21
937.715244
  0
LINE
  8
CSLAYER1
  6
CONTINUOUS
 62
     4
 10
766.752300
 20
897.132554
 11
766.752300
 21
937.715244
  0
LINE
  8
CSLAYER1
  6
CONTINUOUS
 62
     4
 10
785.252300
 20
897.132554
 11
765.252300
 21
897.132554
  0
LINE
  8
CSLAYER1
  6
CONTINUOUS
 62
     4
 10
783.752300
 20
897.132554
 11
785.252300
 21
894.534478
  0
LINE
  8
CSLAYER1
  6
CONTINUOUS
 62
     4
 10
766.752300
 20
897.132554
 11
765.252300
 21
894.534478
  0
LINE
  8
CSLAYER1
  6
CONTINUOUS
 62
     4
 10
754.752300
 20
929.465244
 11
754.752300
 21
981.657810
  0
LINE
  8
CSLAYER1
  6
CONTINUOUS
 62
     4
 10
602.888761
 20
945.877881
 11
605.505157
 21
945.690278
  0
LINE
  8
CSLAYER1
  6
CONTINUOUS
 62
     4
 10
605.505157
 20
945.690278
 11
608.081576
 21
945.379192
  0
LINE
  8
CSLAYER1
  6
CONTINUOUS
 62
     4
 10
608.081576
 20
945.379192
 11
610.598409
 21
944.946991
  0
LINE
  8
CSLAYER1
  6
CONTINUOUS
 62
     4
 10
610.598409
 20
944.946991
 11
613.036502
 21
944.396965
  0
LINE
  8
CSLAYER1
  6
CONTINUOUS
 62
     4
 10
613.036502
 20
944.396965
 11
615.377300
 21
943.733299
  0
LINE
  8
CSLAYER1
  6
CONTINUOUS
 62
     4
 10
615.377300
 20
943.733299
 11
617.602987
 21
942.961045
  0
LINE
  8
CSLAYER1
  6
CONTINUOUS
 62
     4
 10
617.602987
 20
942.961045
 11
619.696625
 21
942.086080
  0
LINE
  8
CSLAYER1
  6
CONTINUOUS
 62
     4
 10
619.696625
 20
942.086080
 11
621.642280
 21
941.115062
  0
LINE
  8
CSLAYER1
  6
CONTINUOUS
 62
     4
 10
621.642280
 20
941.115062
 11
623.425144
 21
940.055383
  0
LINE
  8
CSLAYER1
  6
CONTINUOUS
 62
     4
 10
623.425144
 20
940.055383
 11
625.031649
 21
938.915106
  0
LINE
  8
CSLAYER1
  6
CONTINUOUS
 62
     4
 10
625.031649
 20
938.915106
 11
626.449568
 21
937.702909
  0
LINE
  8
CSLAYER1
  6
CONTINUOUS
 62
     4
 10
626.449568
 20
937.702909
 11
627.668110
 21
936.428020
  0
LINE
  8
CSLAYER1
  6
CONTINUOUS
 62
     4
 10
627.668110
 20
936.428020
 11
628.678001
 21
935.100139
  0
LINE
  8
CSLAYER1
  6
CONTINUOUS
 62
     4
 10
628.678001
 20
935.100139
 11
629.471556
 21
933.729373
  0
LINE
  8
CSLAYER1
  6
CONTINUOUS
 62
     4
 10
629.471556
 20
933.729373
 11
630.042734
 21
932.326155
  0
LINE
  8
CSLAYER1
  6
CONTINUOUS
 62
     4
 10
630.042734
 20
932.326155
 11
630.387189
 21
930.901164
  0
LINE
  8
CSLAYER1
  6
CONTINUOUS
 62
     4
 10
630.387189
 20
930.901164
 11
630.502300
 21
929.465244
  0
LINE
  8
CSLAYER1
  6
CONTINUOUS
 62
     4
 10
806.252300
 20
929.815244
 11
806.252300
 21
981.657810
  0
ARC
  8
CSLAYER1
  6
CONTINUOUS
 62
     4
 10
807.352300
 20
929.815244
 40
1.100000
 50
180.000000
 51
270.000000
  0
LINE
  8
CSLAYER1
  6
CONTINUOUS
 62
     3
 10
901.952300
 20
910.657810
 11
901.952300
 21
920.157810
  0
LINE
  8
CSLAYER1
  6
CONTINUOUS
 62
     4
 10
857.752300
 20
891.657810
 11
898.752300
 21
891.657810
  0
LINE
  8
CSLAYER1
  6
CONTINUOUS
 62
     4
 10
901.952300
 20
933.657810
 11
901.952300
 21
902.657810
  0
LINE
  8
CSLAYER1
  6
CONTINUOUS
 62
     4
 10
901.952300
 20
906.657810
 11
898.752300
 21
906.657810
  0
LINE
  8
CSLAYER1
  6
CONTINUOUS
 62
     5
 10
906.443174
 20
925.657810
 11
892.752300
 21
925.657810
  0
LINE
  8
CSLAYER1
  6
CONTINUOUS
 62
     4
 10
901.952300
 20
933.657810
 11
898.752300
 21
933.657810
  0
LINE
  8
CSLAYER1
  6
CONTINUOUS
 62
     4
 10
901.952300
 20
902.657810
 11
898.752300
 21
902.657810
  0
LINE
  8
CSLAYER1
  6
CONTINUOUS
 62
     4
 10
901.952300
 20
914.657810
 11
898.752300
 21
914.657810
  0
LINE
  8
CSLAYER1
  6
CONTINUOUS
 62
     3
 10
890.252300
 20
981.657810
 11
310.252300
 21
981.657810
  0
LINE
  8
CSLAYER1
  6
CONTINUOUS
 62
     4
 10
832.252300
 20
956.906419
 11
857.252300
 21
956.906419
  0
LINE
  8
CSLAYER1
  6
CONTINUOUS
 62
     4
 10
857.252300
 20
931.906419
 11
829.752300
 21
931.906419
  0
ARC
  8
CSLAYER1
  6
CONTINUOUS
 62
     4
 10
829.752300
 20
930.906419
 40
1.000000
 50
90.000000
 51
180.000000
  0
ARC
  8
CSLAYER1
  6
CONTINUOUS
 62
     4
 10
853.752300
 20
930.906419
 40
1.000000
 50
0.000000
 51
90.000000
  0
ARC
  8
CSLAYER1
  6
CONTINUOUS
 62
     4
 10
842.752300
 20
930.906419
 40
1.000000
 50
90.000000
 51
180.000000
  0
ARC
  8
CSLAYER1
  6
CONTINUOUS
 62
     4
 10
840.752300
 20
930.906419
 40
1.000000
 50
0.000000
 51
90.000000
  0
LINE
  8
CSLAYER1
  6
CONTINUOUS
 62
     3
 10
890.252300
 20
1031.857810
 11
890.252300
 21
981.657810
  0
LINE
  8
CSLAYER1
  6
CONTINUOUS
 62
     4
 10
801.309734
 20
981.657810
 11
806.252300
 21
976.715244
  0
LINE
  8
CSLAYER1
  6
CONTINUOUS
 62
     4
 10
825.752300
 20
972.215244
 11
824.602300
 21
972.215244
  0
LINE
  8
CSLAYER1
  6
CONTINUOUS
 62
     4
 10
824.602300
 20
974.765244
 11
823.252300
 21
974.765244
  0
LINE
  8
CSLAYER1
  6
CONTINUOUS
 62
     4
 10
824.602300
 20
974.765244
 11
824.602300
 21
944.665244
  0
LINE
  8
CSLAYER1
  6
CONTINUOUS
 62
     4
 10
827.252300
 20
970.715244
 11
827.252300
 21
948.715244
  0
LINE
  8
CSLAYER1
  6
CONTINUOUS
 62
     4
 10
827.252300
 20
970.715244
 11
825.752300
 21
972.215244
  0
LINE
  8
CSLAYER1
  6
CONTINUOUS
 62
     4
 10
825.752300
 20
972.215244
 11
825.752300
 21
947.215244
  0
LINE
  8
CSLAYER1
  6
CONTINUOUS
 62
     4
 10
825.752300
 20
947.215244
 11
824.602300
 21
947.215244
  0
LINE
  8
CSLAYER1
  6
CONTINUOUS
 62
     4
 10
824.602300
 20
944.665244
 11
823.252300
 21
944.665244
  0
LINE
  8
CSLAYER1
  6
CONTINUOUS
 62
     4
 10
827.252300
 20
948.715244
 11
825.752300
 21
947.215244
  0
LINE
  8
CSLAYER1
  6
CONTINUOUS
 62
     4
 10
828.752300
 20
930.906419
 11
828.752300
 21
890.906419
  0
LINE
  8
CSLAYER1
  6
CONTINUOUS
 62
     4
 10
855.252300
 20
922.458061
 11
855.252300
 21
899.354777
  0
LINE
  8
CSLAYER1
  6
CONTINUOUS
 62
     4
 10
856.402300
 20
922.458061
 11
856.402300
 21
899.354777
  0
LINE
  8
CSLAYER1
  6
CONTINUOUS
 62
     4
 10
857.752300
 20
918.406419
 11
856.460136
 21
918.406419
  0
LINE
  8
CSLAYER1
  6
CONTINUOUS
 62
     4
 10
856.402300
 20
922.458061
 11
855.252300
 21
922.458061
  0
LINE
  8
CSLAYER1
  6
CONTINUOUS
 62
     4
 10
855.252300
 20
918.406419
 11
854.752300
 21
918.406419
  0
LINE
  8
CSLAYER1
  6
CONTINUOUS
 62
     4
 10
854.752300
 20
930.906419
 11
854.752300
 21
890.906419
  0
LINE
  8
CSLAYER1
  6
CONTINUOUS
 62
     4
 10
853.752300
 20
889.906419
 11
842.752300
 21
889.906419
  0
LINE
  8
CSLAYER1
  6
CONTINUOUS
 62
     4
 10
857.752300
 20
903.406419
 11
856.460136
 21
903.406419
  0
LINE
  8
CSLAYER1
  6
CONTINUOUS
 62
     4
 10
856.402300
 20
899.354777
 11
855.252300
 21
899.354777
  0
LINE
  8
CSLAYER1
  6
CONTINUOUS
 62
     4
 10
855.252300
 20
903.406419
 11
854.752300
 21
903.406419
  0
ARC
  8
CSLAYER1
  6
CONTINUOUS
 62
     4
 10
829.752300
 20
890.906419
 40
1.000000
 50
180.000000
 51
270.000000
  0
ARC
  8
CSLAYER1
  6
CONTINUOUS
 62
     4
 10
853.752300
 20
890.906419
 40
1.000000
 50
270.000000
 51
360.000000
  0
ARC
  8
CSLAYER1
  6
CONTINUOUS
 62
     4
 10
842.752300
 20
890.906419
 40
1.000000
 50
180.000000
 51
270.000000
  0
ARC
  8
CSLAYER1
  6
CONTINUOUS
 62
     4
 10
840.752300
 20
890.906419
 40
1.000000
 50
270.000000
 51
360.000000
  0
LINE
  8
CSLAYER1
  6
CONTINUOUS
 62
     4
 10
829.752300
 20
889.906419
 11
840.752300
 21
889.906419
  0
LINE
  8
CSLAYER1
  6
CONTINUOUS
 62
     4
 10
828.752300
 20
910.906419
 11
827.752300
 21
910.906419
  0
LINE
  8
CSLAYER1
  6
CONTINUOUS
 62
     4
 10
828.252300
 20
920.906419
 11
828.752300
 21
920.406419
  0
LINE
  8
CSLAYER1
  6
CONTINUOUS
 62
     4
 10
828.252300
 20
900.906419
 11
828.752300
 21
901.406419
  0
LINE
  8
CSLAYER1
  6
CONTINUOUS
 62
     4
 10
841.752300
 20
890.906419
 11
841.752300
 21
930.906419
  0
LINE
  8
CSLAYER1
  6
CONTINUOUS
 62
     4
 10
828.252300
 20
920.906419
 11
823.252300
 21
920.906419
  0
LINE
  8
CSLAYER1
  6
CONTINUOUS
 62
     4
 10
828.252300
 20
900.906419
 11
823.252300
 21
900.906419
  0
LINE
  8
CSLAYER1
  6
CENTER
 62
     5
 10
600.252300
 20
1127.645718
 11
600.252300
 21
323.960146
  0
LINE
  8
CSLAYER1
  6
CONTINUOUS
 62
     4
 10
807.252300
 20
624.028095
 11
806.252300
 21
624.028095
  0
LINE
  8
CSLAYER1
  6
CONTINUOUS
 62
     1
 10
806.252300
 20
661.094072
 11
806.252300
 21
601.186511
  0
LINE
  8
CSLAYER1
  6
CONTINUOUS
 62
     1
 10
666.252300
 20
693.492644
 11
806.252300
 21
661.094072
  0
LINE
  8
CSLAYER1
  6
CONTINUOUS
 62
     1
 10
666.252300
 20
670.033478
 11
806.252300
 21
637.634905
  0
LINE
  8
CSLAYER1
  6
CONTINUOUS
 62
     1
 10
666.252300
 20
568.787939
 11
806.252300
 21
601.186511
  0
LINE
  8
CSLAYER1
  6
CONTINUOUS
 62
     4
 10
791.452300
 20
476.246739
 11
807.252300
 21
476.246739
  0
LINE
  8
CSLAYER1
  6
CONTINUOUS
 62
     4
 10
761.727300
 20
673.797323
 11
757.352300
 21
673.797323
  0
LINE
  8
CSLAYER1
  6
CONTINUOUS
 62
     4
 10
755.502300
 20
690.567323
 11
755.502300
 21
683.017596
  0
LINE
  8
CSLAYER1
  6
CONTINUOUS
 62
     4
 10
757.352300
 20
691.567323
 11
756.502300
 21
691.567323
  0
LINE
  8
CSLAYER1
  6
CONTINUOUS
 62
     4
 10
757.352300
 20
682.017596
 11
756.502300
 21
682.017596
  0
ARC
  8
CSLAYER1
  6
CONTINUOUS
 62
     4
 10
756.502300
 20
690.567323
 40
1.000000
 50
90.000000
 51
180.000000
  0
ARC
  8
CSLAYER1
  6
CONTINUOUS
 62
     4
 10
756.502300
 20
683.017596
 40
1.000000
 50
180.000000
 51
270.000000
  0
LINE
  8
CSLAYER1
  6
CONTINUOUS
 62
     4
 10
788.777300
 20
673.797323
 11
793.152300
 21
673.797323
  0
LINE
  8
CSLAYER1
  6
CONTINUOUS
 62
     4
 10
795.002300
 20
690.567323
 11
795.002300
 21
683.017596
  0
LINE
  8
CSLAYER1
  6
CONTINUOUS
 62
     4
 10
793.152300
 20
691.567323
 11
794.002300
 21
691.567323
  0
LINE
  8
CSLAYER1
  6
CONTINUOUS
 62
     4
 10
793.152300
 20
682.017596
 11
794.002300
 21
682.017596
  0
ARC
  8
CSLAYER1
  6
CONTINUOUS
 62
     4
 10
794.002300
 20
690.567323
 40
1.000000
 50
0.000000
 51
90.000000
  0
ARC
  8
CSLAYER1
  6
CONTINUOUS
 62
     4
 10
794.002300
 20
683.017596
 40
1.000000
 50
270.000000
 51
360.000000
  0
POINT
  8
CSLAYER1
 62
     4
 10
775.252300
 20
686.797323
  0
LINE
  8
CSLAYER1
  6
CONTINUOUS
 62
     4
 10
784.777300
 20
701.847323
 11
788.777300
 21
701.847323
  0
LINE
  8
CSLAYER1
  6
CONTINUOUS
 62
     4
 10
784.777300
 20
701.847323
 11
784.777300
 21
666.063781
  0
LINE
  8
CSLAYER1
  6
CONTINUOUS
 62
     4
 10
783.777300
 20
677.272323
 11
766.727300
 21
677.272323
  0
LINE
  8
CSLAYER1
  6
CONTINUOUS
 62
     4
 10
783.777300
 20
696.322323
 11
766.727300
 21
696.322323
  0
ARC
  8
CSLAYER1
  6
CONTINUOUS
 62
     4
 10
783.777300
 20
678.272323
 40
1.000000
 50
270.000000
 51
360.000000
  0
ARC
  8
CSLAYER1
  6
CONTINUOUS
 62
     4
 10
783.777300
 20
695.322323
 40
1.000000
 50
0.000000
 51
90.000000
  0
LINE
  8
CSLAYER1
  6
CONTINUOUS
 62
     4
 10
765.727300
 20
701.847323
 11
761.727300
 21
701.847323
  0
LINE
  8
CSLAYER1
  6
CONTINUOUS
 62
     4
 10
765.727300
 20
701.847323
 11
765.727300
 21
670.472301
  0
ARC
  8
CSLAYER1
  6
CONTINUOUS
 62
     4
 10
766.727300
 20
678.272323
 40
1.000000
 50
180.000000
 51
270.000000
  0
ARC
  8
CSLAYER1
  6
CONTINUOUS
 62
     4
 10
766.727300
 20
695.322323
 40
1.000000
 50
90.000000
 51
180.000000
  0
LINE
  8
CSLAYER1
  6
CONTINUOUS
 62
     4
 10
783.252300
 20
701.547323
 11
767.252300
 21
701.547323
  0
LINE
  8
CSLAYER1
  6
CONTINUOUS
 62
     5
 10
800.368484
 20
686.797323
 11
750.403584
 21
686.797323
  0
LINE
  8
CSLAYER1
  6
CONTINUOUS
 62
     4
 10
788.777300
 20
670.922323
 11
788.777300
 21
665.138108
  0
LINE
  8
CSLAYER1
  6
CENTER
 62
     5
 10
425.252300
 20
981.657810
 11
425.252300
 21
668.268041
  0
LINE
  8
CSLAYER1
  6
CONTINUOUS
 62
     5
 10
401.492628
 20
718.547323
 11
450.101015
 21
718.547323
  0
LINE
  8
CSLAYER1
  6
CONTINUOUS
 62
     4
 10
438.777300
 20
731.547323
 11
443.152300
 21
731.547323
  0
LINE
  8
CSLAYER1
  6
CONTINUOUS
 62
     4
 10
445.002300
 20
714.777323
 11
445.002300
 21
722.327049
  0
LINE
  8
CSLAYER1
  6
CONTINUOUS
 62
     4
 10
443.152300
 20
713.777323
 11
444.002300
 21
713.777323
  0
LINE
  8
CSLAYER1
  6
CONTINUOUS
 62
     4
 10
443.152300
 20
723.327049
 11
444.002300
 21
723.327049
  0
ARC
  8
CSLAYER1
  6
CONTINUOUS
 62
     4
 10
444.002300
 20
714.777323
 40
1.000000
 50
270.000000
 51
360.000000
  0
ARC
  8
CSLAYER1
  6
CONTINUOUS
 62
     4
 10
444.002300
 20
722.327049
 40
1.000000
 50
0.000000
 51
90.000000
  0
LINE
  8
CSLAYER1
  6
CONTINUOUS
 62
     4
 10
411.727300
 20
731.547323
 11
407.352300
 21
731.547323
  0
LINE
  8
CSLAYER1
  6
CONTINUOUS
 62
     4
 10
405.502300
 20
714.777323
 11
405.502300
 21
722.327049
  0
LINE
  8
CSLAYER1
  6
CONTINUOUS
 62
     4
 10
407.352300
 20
713.777323
 11
406.502300
 21
713.777323
  0
LINE
  8
CSLAYER1
  6
CONTINUOUS
 62
     4
 10
407.352300
 20
723.327049
 11
406.502300
 21
723.327049
  0
ARC
  8
CSLAYER1
  6
CONTINUOUS
 62
     4
 10
406.502300
 20
714.777323
 40
1.000000
 50
180.000000
 51
270.000000
  0
ARC
  8
CSLAYER1
  6
CONTINUOUS
 62
     4
 10
406.502300
 20
722.327049
 40
1.000000
 50
90.000000
 51
180.000000
  0
POINT
  8
CSLAYER1
 62
     4
 10
425.252300
 20
718.547323
  0
LINE
  8
CSLAYER1
  6
CONTINUOUS
 62
     4
 10
407.352300
 20
731.547323
 11
407.352300
 21
673.797323
  0
LINE
  8
CSLAYER1
  6
CONTINUOUS
 62
     4
 10
438.777300
 20
769.047323
 11
438.777300
 21
671.397975
  0
LINE
  8
CSLAYER1
  6
CONTINUOUS
 62
     4
 10
443.152300
 20
731.547323
 11
443.152300
 21
673.797323
  0
LINE
  8
CSLAYER1
  6
CONTINUOUS
 62
     4
 10
417.252300
 20
709.022323
 11
417.252300
 21
696.322323
  0
LINE
  8
CSLAYER1
  6
CONTINUOUS
 62
     4
 10
433.252300
 20
709.022323
 11
433.252300
 21
696.322323
  0
POINT
  8
CSLAYER1
 62
     4
 10
425.252300
 20
750.297323
  0
LINE
  8
CSLAYER1
  6
CONTINUOUS
 62
     4
 10
411.727300
 20
671.747323
 11
411.727300
 21
769.047323
  0
LINE
  8
CSLAYER1
  6
CONTINUOUS
 62
     4
 10
415.727300
 20
765.347323
 11
415.727300
 21
703.497323
  0
LINE
  8
CSLAYER1
  6
CONTINUOUS
 62
     4
 10
415.727300
 20
765.347323
 11
411.727300
 21
765.347323
  0
LINE
  8
CSLAYER1
  6
CONTINUOUS
 62
     4
 10
416.727300
 20
740.772323
 11
433.777300
 21
740.772323
  0
LINE
  8
CSLAYER1
  6
CONTINUOUS
 62
     4
 10
416.727300
 20
759.822323
 11
433.777300
 21
759.822323
  0
ARC
  8
CSLAYER1
  6
CONTINUOUS
 62
     4
 10
416.727300
 20
741.772323
 40
1.000000
 50
180.000000
 51
270.000000
  0
ARC
  8
CSLAYER1
  6
CONTINUOUS
 62
     4
 10
416.727300
 20
758.822323
 40
1.000000
 50
90.000000
 51
180.000000
  0
LINE
  8
CSLAYER1
  6
CONTINUOUS
 62
     4
 10
434.777300
 20
765.347323
 11
434.777300
 21
703.497323
  0
LINE
  8
CSLAYER1
  6
CONTINUOUS
 62
     4
 10
434.777300
 20
765.347323
 11
438.777300
 21
765.347323
  0
ARC
  8
CSLAYER1
  6
CONTINUOUS
 62
     4
 10
433.777300
 20
741.772323
 40
1.000000
 50
270.000000
 51
360.000000
  0
ARC
  8
CSLAYER1
  6
CONTINUOUS
 62
     4
 10
433.777300
 20
758.822323
 40
1.000000
 50
0.000000
 51
90.000000
  0
LINE
  8
CSLAYER1
  6
CONTINUOUS
 62
     4
 10
405.502300
 20
746.527323
 11
405.502300
 21
754.077049
  0
LINE
  8
CSLAYER1
  6
CONTINUOUS
 62
     4
 10
411.727300
 20
737.297323
 11
407.352300
 21
737.297323
  0
LINE
  8
CSLAYER1
  6
CONTINUOUS
 62
     4
 10
407.352300
 20
745.527323
 11
406.502300
 21
745.527323
  0
LINE
  8
CSLAYER1
  6
CONTINUOUS
 62
     4
 10
407.352300
 20
755.077049
 11
406.502300
 21
755.077049
  0
ARC
  8
CSLAYER1
  6
CONTINUOUS
 62
     4
 10
406.502300
 20
746.527323
 40
1.000000
 50
180.000000
 51
270.000000
  0
ARC
  8
CSLAYER1
  6
CONTINUOUS
 62
     4
 10
406.502300
 20
754.077049
 40
1.000000
 50
90.000000
 51
180.000000
  0
LINE
  8
CSLAYER1
  6
CONTINUOUS
 62
     4
 10
445.002300
 20
746.527323
 11
445.002300
 21
754.077049
  0
LINE
  8
CSLAYER1
  6
CONTINUOUS
 62
     4
 10
438.777300
 20
737.297323
 11
443.152300
 21
737.297323
  0
LINE
  8
CSLAYER1
  6
CONTINUOUS
 62
     4
 10
443.152300
 20
745.527323
 11
444.002300
 21
745.527323
  0
LINE
  8
CSLAYER1
  6
CONTINUOUS
 62
     4
 10
443.152300
 20
755.077049
 11
444.002300
 21
755.077049
  0
ARC
  8
CSLAYER1
  6
CONTINUOUS
 62
     4
 10
444.002300
 20
746.527323
 40
1.000000
 50
270.000000
 51
360.000000
  0
ARC
  8
CSLAYER1
  6
CONTINUOUS
 62
     4
 10
444.002300
 20
754.077049
 40
1.000000
 50
0.000000
 51
90.000000
  0
LINE
  8
CSLAYER1
  6
CONTINUOUS
 62
     4
 10
407.352300
 20
737.297323
 11
407.352300
 21
821.632552
  0
LINE
  8
CSLAYER1
  6
CONTINUOUS
 62
     4
 10
443.152300
 20
737.297323
 11
443.152300
 21
821.632552
  0
LINE
  8
CSLAYER1
  6
CONTINUOUS
 62
     4
 10
415.727300
 20
703.497323
 11
411.727300
 21
703.497323
  0
LINE
  8
CSLAYER1
  6
CONTINUOUS
 62
     4
 10
416.727300
 20
728.072323
 11
433.777300
 21
728.072323
  0
LINE
  8
CSLAYER1
  6
CONTINUOUS
 62
     4
 10
416.727300
 20
709.022323
 11
433.777300
 21
709.022323
  0
ARC
  8
CSLAYER1
  6
CONTINUOUS
 62
     4
 10
416.727300
 20
727.072323
 40
1.000000
 50
90.000000
 51
180.000000
  0
ARC
  8
CSLAYER1
  6
CONTINUOUS
 62
     4
 10
416.727300
 20
710.022323
 40
1.000000
 50
180.000000
 51
270.000000
  0
LINE
  8
CSLAYER1
  6
CONTINUOUS
 62
     4
 10
434.777300
 20
703.497323
 11
438.777300
 21
703.497323
  0
ARC
  8
CSLAYER1
  6
CONTINUOUS
 62
     4
 10
433.777300
 20
727.072323
 40
1.000000
 50
0.000000
 51
90.000000
  0
ARC
  8
CSLAYER1
  6
CONTINUOUS
 62
     4
 10
433.777300
 20
710.022323
 40
1.000000
 50
270.000000
 51
360.000000
  0
LINE
  8
CSLAYER1
  6
CONTINUOUS
 62
     4
 10
417.252300
 20
703.797323
 11
433.252300
 21
703.797323
  0
LINE
  8
CSLAYER1
  6
CONTINUOUS
 62
     4
 10
250.252300
 20
414.680165
 11
250.252300
 21
350.398381
  0
LINE
  8
CSLAYER1
  6
CONTINUOUS
 62
     4
 10
950.252300
 20
415.398381
 11
250.252300
 21
415.398381
  0
LINE
  8
CSLAYER1
  6
CONTINUOUS
 62
     4
 10
318.252300
 20
891.657810
 11
318.252300
 21
415.398381
  0
LINE
  8
CSLAYER1
  6
CONTINUOUS
 62
     4
 10
334.252300
 20
891.657810
 11
334.252300
 21
415.398381
  0
LINE
  8
CSLAYER1
  6
CONTINUOUS
 62
     4
 10
336.278840
 20
622.678095
 11
365.252300
 21
622.678095
  0
LINE
  8
CSLAYER1
  6
CONTINUOUS
 62
     4
 10
335.278840
 20
664.378095
 11
335.278840
 21
623.678095
  0
LINE
  8
CSLAYER1
  6
CONTINUOUS
 62
     4
 10
335.278840
 20
623.678095
 11
336.278840
 21
622.678095
  0
LINE
  8
CSLAYER1
  6
CONTINUOUS
 62
     4
 10
295.278840
 20
654.028095
 11
295.278840
 21
634.028095
  0
LINE
  8
CSLAYER1
  6
CONTINUOUS
 62
     4
 10
314.278840
 20
662.528095
 11
314.278840
 21
625.528095
  0
LINE
  8
CSLAYER1
  6
CONTINUOUS
 62
     4
 10
309.178840
 20
661.028095
 11
309.178840
 21
627.028095
  0
LINE
  8
CSLAYER1
  6
CONTINUOUS
 62
     4
 10
297.178840
 20
661.028095
 11
297.178840
 21
627.028095
  0
LINE
  8
CSLAYER1
  6
CONTINUOUS
 62
     4
 10
314.278840
 20
661.028095
 11
297.178840
 21
661.028095
  0
LINE
  8
CSLAYER1
  6
CONTINUOUS
 62
     4
 10
309.178840
 20
654.028095
 11
295.278840
 21
654.028095
  0
LINE
  8
CSLAYER1
  6
CONTINUOUS
 62
     4
 10
314.278840
 20
627.028095
 11
297.178840
 21
627.028095
  0
LINE
  8
CSLAYER1
  6
CONTINUOUS
 62
     4
 10
309.178840
 20
634.028095
 11
295.278840
 21
634.028095
  0
LINE
  8
CSLAYER1
  6
CONTINUOUS
 62
     4
 10
317.278840
 20
662.528095
 11
314.278840
 21
662.528095
  0
LINE
  8
CSLAYER1
  6
CONTINUOUS
 62
     4
 10
317.278840
 20
625.528095
 11
314.278840
 21
625.528095
  0
LINE
  8
CSLAYER1
  6
CONTINUOUS
 62
     4
 10
317.278840
 20
625.528095
 11
317.278840
 21
662.528095
  0
LINE
  8
CSLAYER1
  6
CONTINUOUS
 62
     4
 10
317.278840
 20
631.528095
 11
318.252300
 21
631.528095
  0
LINE
  8
CSLAYER1
  6
CONTINUOUS
 62
     4
 10
336.278840
 20
665.378095
 11
377.252300
 21
665.378095
  0
LINE
  8
CSLAYER1
  6
CONTINUOUS
 62
     4
 10
335.278840
 20
664.378095
 11
336.278840
 21
665.378095
  0
LINE
  8
CSLAYER1
  6
CONTINUOUS
 62
     4
 10
317.278840
 20
656.528095
 11
318.252300
 21
656.528095
  0
LINE
  8
CSLAYER1
  6
CONTINUOUS
 62
     4
 10
318.278840
 20
617.921171
 11
318.278840
 21
631.528095
  0
LINE
  8
CSLAYER1
  6
CONTINUOUS
 62
     4
 10
393.252300
 20
668.745253
 11
397.969457
 21
664.028095
  0
LINE
  8
CSLAYER1
  6
CONTINUOUS
 62
     4
 10
393.252300
 20
668.462410
 11
397.686614
 21
664.028095
  0
LINE
  8
CSLAYER1
  6
CONTINUOUS
 62
     4
 10
393.252300
 20
668.179567
 11
397.403771
 21
664.028095
  0
LINE
  8
CSLAYER1
  6
CONTINUOUS
 62
     4
 10
393.252300
 20
667.896724
 11
397.120929
 21
664.028095
  0
LINE
  8
CSLAYER1
  6
CONTINUOUS
 62
     4
 10
393.252300
 20
667.613882
 11
396.838086
 21
664.028095
  0
LINE
  8
CSLAYER1
  6
CONTINUOUS
 62
     4
 10
393.252300
 20
667.331039
 11
396.555243
 21
664.028095
  0
LINE
  8
CSLAYER1
  6
CONTINUOUS
 62
     4
 10
393.252300
 20
667.048196
 11
396.272401
 21
664.028095
  0
LINE
  8
CSLAYER1
  6
CONTINUOUS
 62
     4
 10
393.252300
 20
666.765354
 11
395.989558
 21
664.028095
  0
LINE
  8
CSLAYER1
  6
CONTINUOUS
 62
     4
 10
393.252300
 20
666.482511
 11
395.706715
 21
664.028095
  0
LINE
  8
CSLAYER1
  6
CONTINUOUS
 62
     4
 10
393.252300
 20
666.199668
 11
395.423872
 21
664.028095
  0
LINE
  8
CSLAYER1
  6
CONTINUOUS
 62
     4
 10
393.252300
 20
665.916825
 11
395.141030
 21
664.028095
  0
LINE
  8
CSLAYER1
  6
CONTINUOUS
 62
     4
 10
393.252300
 20
665.633983
 11
394.858187
 21
664.028095
  0
LINE
  8
CSLAYER1
  6
CONTINUOUS
 62
     4
 10
393.252300
 20
665.351140
 11
394.575344
 21
664.028095
  0
LINE
  8
CSLAYER1
  6
CONTINUOUS
 62
     4
 10
393.252300
 20
665.068297
 11
394.292502
 21
664.028095
  0
LINE
  8
CSLAYER1
  6
CONTINUOUS
 62
     4
 10
393.252300
 20
664.785455
 11
394.009659
 21
664.028095
  0
LINE
  8
CSLAYER1
  6
CONTINUOUS
 62
     4
 10
393.252300
 20
664.502612
 11
393.726816
 21
664.028095
  0
LINE
  8
CSLAYER1
  6
CONTINUOUS
 62
     4
 10
393.252300
 20
664.219769
 11
393.443974
 21
664.028095
  0
LINE
  8
CSLAYER1
  6
CONTINUOUS
 62
     4
 10
372.252300
 20
665.378095
 11
377.252300
 21
670.378095
  0
LINE
  8
CSLAYER1
  6
CONTINUOUS
 62
     4
 10
377.252300
 20
670.095253
 11
372.535142
 21
665.378095
  0
LINE
  8
CSLAYER1
  6
CONTINUOUS
 62
     4
 10
377.252300
 20
669.812410
 11
372.817985
 21
665.378095
  0
LINE
  8
CSLAYER1
  6
CONTINUOUS
 62
     4
 10
377.252300
 20
669.529567
 11
373.100828
 21
665.378095
  0
LINE
  8
CSLAYER1
  6
CONTINUOUS
 62
     4
 10
377.252300
 20
669.246724
 11
373.383670
 21
665.378095
  0
LINE
  8
CSLAYER1
  6
CONTINUOUS
 62
     4
 10
377.252300
 20
668.963882
 11
373.666513
 21
665.378095
  0
LINE
  8
CSLAYER1
  6
CONTINUOUS
 62
     4
 10
377.252300
 20
668.681039
 11
373.949356
 21
665.378095
  0
LINE
  8
CSLAYER1
  6
CONTINUOUS
 62
     4
 10
377.252300
 20
668.398196
 11
374.232199
 21
665.378095
  0
LINE
  8
CSLAYER1
  6
CONTINUOUS
 62
     4
 10
377.252300
 20
668.115354
 11
374.515041
 21
665.378095
  0
LINE
  8
CSLAYER1
  6
CONTINUOUS
 62
     4
 10
377.252300
 20
667.832511
 11
374.797884
 21
665.378095
  0
LINE
  8
CSLAYER1
  6
CONTINUOUS
 62
     4
 10
377.252300
 20
667.549668
 11
375.080727
 21
665.378095
  0
LINE
  8
CSLAYER1
  6
CONTINUOUS
 62
     4
 10
377.252300
 20
667.266825
 11
375.363569
 21
665.378095
  0
LINE
  8
CSLAYER1
  6
CONTINUOUS
 62
     4
 10
377.252300
 20
666.983983
 11
375.646412
 21
665.378095
  0
LINE
  8
CSLAYER1
  6
CONTINUOUS
 62
     4
 10
377.252300
 20
666.701140
 11
375.929255
 21
665.378095
  0
LINE
  8
CSLAYER1
  6
CONTINUOUS
 62
     4
 10
377.252300
 20
666.418297
 11
376.212098
 21
665.378095
  0
LINE
  8
CSLAYER1
  6
CONTINUOUS
 62
     4
 10
377.252300
 20
666.135455
 11
376.494940
 21
665.378095
  0
LINE
  8
CSLAYER1
  6
CONTINUOUS
 62
     4
 10
377.252300
 20
665.852612
 11
376.777783
 21
665.378095
  0
LINE
  8
CSLAYER1
  6
CONTINUOUS
 62
     4
 10
377.252300
 20
665.569769
 11
377.060626
 21
665.378095
  0
LINE
  8
CSLAYER1
  6
CONTINUOUS
 62
     4
 10
393.252300
 20
981.657810
 11
393.252300
 21
415.398381
  0
LINE
  8
CSLAYER1
  6
CONTINUOUS
 62
     4
 10
393.252300
 20
664.028095
 11
406.930738
 21
664.028095
  0
LINE
  8
CSLAYER1
  6
CONTINUOUS
 62
     4
 10
334.252300
 20
659.028095
 11
335.278840
 21
659.028095
  0
LINE
  8
CSLAYER1
  6
CONTINUOUS
 62
     4
 10
334.252300
 20
629.028095
 11
335.278840
 21
629.028095
  0
LINE
  8
CSLAYER1
  6
CONTINUOUS
 62
     4
 10
375.252300
 20
647.140291
 11
375.252300
 21
615.140291
  0
LINE
  8
CSLAYER1
  6
CONTINUOUS
 62
     4
 10
365.252300
 20
645.140291
 11
365.252300
 21
617.140291
  0
LINE
  8
CSLAYER1
  6
CONTINUOUS
 62
     4
 10
367.252300
 20
647.140291
 11
375.252300
 21
647.140291
  0
LINE
  8
CSLAYER1
  6
CONTINUOUS
 62
     4
 10
365.252300
 20
645.140291
 11
367.252300
 21
647.140291
  0
LINE
  8
CSLAYER1
  6
CONTINUOUS
 62
     4
 10
367.252300
 20
647.140291
 11
367.252300
 21
615.140291
  0
LINE
  8
CSLAYER1
  6
CONTINUOUS
 62
     4
 10
367.252300
 20
615.140291
 11
375.252300
 21
615.140291
  0
LINE
  8
CSLAYER1
  6
CONTINUOUS
 62
     4
 10
365.252300
 20
617.140291
 11
367.252300
 21
615.140291
  0
LINE
  8
CSLAYER1
  6
CONTINUOUS
 62
     4
 10
375.252300
 20
645.140291
 11
377.252300
 21
645.140291
  0
LINE
  8
CSLAYER1
  6
CONTINUOUS
 62
     4
 10
375.252300
 20
617.140291
 11
377.252300
 21
617.140291
  0
LINE
  8
CSLAYER1
  6
CONTINUOUS
 62
     4
 10
555.702300
 20
805.199784
 11
555.702300
 21
693.492644
  0
LINE
  8
CSLAYER1
  6
CONTINUOUS
 62
     1
 10
534.252300
 20
568.787939
 11
540.252300
 21
568.787939
  0
LINE
  8
CSLAYER1
  6
CONTINUOUS
 62
     1
 10
546.252300
 20
611.786479
 11
546.457786
 21
615.594045
  0
LINE
  8
CSLAYER1
  6
CONTINUOUS
 62
     1
 10
546.457786
 20
615.594045
 11
547.072681
 21
619.372633
  0
LINE
  8
CSLAYER1
  6
CONTINUOUS
 62
     1
 10
547.072681
 20
619.372633
 11
548.092305
 21
623.093485
  0
LINE
  8
CSLAYER1
  6
CONTINUOUS
 62
     1
 10
548.092305
 20
623.093485
 11
549.508898
 21
626.728285
  0
LINE
  8
CSLAYER1
  6
CONTINUOUS
 62
     1
 10
549.508898
 20
626.728285
 11
551.311679
 21
630.249368
  0
LINE
  8
CSLAYER1
  6
CONTINUOUS
 62
     1
 10
551.311679
 20
630.249368
 11
553.486928
 21
633.629938
  0
LINE
  8
CSLAYER1
  6
CONTINUOUS
 62
     1
 10
553.486928
 20
633.629938
 11
556.018089
 21
636.844266
  0
LINE
  8
CSLAYER1
  6
CONTINUOUS
 62
     1
 10
556.018089
 20
636.844266
 11
558.885900
 21
639.867888
  0
LINE
  8
CSLAYER1
  6
CONTINUOUS
 62
     1
 10
558.885900
 20
639.867888
 11
562.068533
 21
642.677795
  0
LINE
  8
CSLAYER1
  6
CONTINUOUS
 62
     1
 10
562.068533
 20
642.677795
 11
565.541769
 21
645.252599
  0
LINE
  8
CSLAYER1
  6
CONTINUOUS
 62
     1
 10
565.541769
 20
645.252599
 11
569.279172
 21
647.572707
  0
LINE
  8
CSLAYER1
  6
CONTINUOUS
 62
     1
 10
569.279172
 20
647.572707
 11
573.252300
 21
649.620459
  0
LINE
  8
CSLAYER1
  6
CONTINUOUS
 62
     1
 10
573.252300
 20
649.620459
 11
577.430913
 21
651.380273
  0
LINE
  8
CSLAYER1
  6
CONTINUOUS
 62
     1
 10
577.430913
 20
651.380273
 11
581.783212
 21
652.838753
  0
LINE
  8
CSLAYER1
  6
CONTINUOUS
 62
     1
 10
581.783212
 20
652.838753
 11
586.276071
 21
653.984801
  0
LINE
  8
CSLAYER1
  6
CONTINUOUS
 62
     1
 10
586.276071
 20
653.984801
 11
590.875298
 21
654.809694
  0
LINE
  8
CSLAYER1
  6
CONTINUOUS
 62
     1
 10
590.875298
 20
654.809694
 11
595.545890
 21
655.307155
  0
LINE
  8
CSLAYER1
  6
CONTINUOUS
 62
     1
 10
595.545890
 20
655.307155
 11
600.252300
 21
655.473397
  0
LINE
  8
CSLAYER1
  6
CONTINUOUS
 62
     1
 10
540.252300
 20
581.289562
 11
540.480618
 21
585.520191
  0
LINE
  8
CSLAYER1
  6
CONTINUOUS
 62
     1
 10
540.480618
 20
585.520191
 11
541.163834
 21
589.718622
  0
LINE
  8
CSLAYER1
  6
CONTINUOUS
 62
     1
 10
541.163834
 20
589.718622
 11
542.296750
 21
593.852903
  0
LINE
  8
CSLAYER1
  6
CONTINUOUS
 62
     1
 10
542.296750
 20
593.852903
 11
543.870742
 21
597.891569
  0
LINE
  8
CSLAYER1
  6
CONTINUOUS
 62
     1
 10
543.870742
 20
597.891569
 11
545.873832
 21
601.803884
  0
LINE
  8
CSLAYER1
  6
CONTINUOUS
 62
     1
 10
545.873832
 20
601.803884
 11
548.290775
 21
605.560072
  0
LINE
  8
CSLAYER1
  6
CONTINUOUS
 62
     1
 10
548.290775
 20
605.560072
 11
551.103177
 21
609.131547
  0
LINE
  8
CSLAYER1
  6
CONTINUOUS
 62
     1
 10
551.103177
 20
609.131547
 11
554.289633
 21
612.491128
  0
LINE
  8
CSLAYER1
  6
CONTINUOUS
 62
     1
 10
554.289633
 20
612.491128
 11
557.825893
 21
615.613247
  0
LINE
  8
CSLAYER1
  6
CONTINUOUS
 62
     1
 10
557.825893
 20
615.613247
 11
561.685043
 21
618.474141
  0
LINE
  8
CSLAYER1
  6
CONTINUOUS
 62
     1
 10
561.685043
 20
618.474141
 11
565.837713
 21
621.052038
  0
LINE
  8
CSLAYER1
  6
CONTINUOUS
 62
     1
 10
565.837713
 20
621.052038
 11
570.252300
 21
623.327318
  0
LINE
  8
CSLAYER1
  6
CONTINUOUS
 62
     1
 10
570.252300
 20
623.327318
 11
574.895204
 21
625.282666
  0
LINE
  8
CSLAYER1
  6
CONTINUOUS
 62
     1
 10
574.895204
 20
625.282666
 11
579.731091
 21
626.903200
  0
LINE
  8
CSLAYER1
  6
CONTINUOUS
 62
     1
 10
579.731091
 20
626.903200
 11
584.723157
 21
628.176587
  0
LINE
  8
CSLAYER1
  6
CONTINUOUS
 62
     1
 10
584.723157
 20
628.176587
 11
589.833409
 21
629.093135
  0
LINE
  8
CSLAYER1
  6
CONTINUOUS
 62
     1
 10
589.833409
 20
629.093135
 11
595.022955
 21
629.645869
  0
LINE
  8
CSLAYER1
  6
CONTINUOUS
 62
     1
 10
595.022955
 20
629.645869
 11
600.252300
 21
629.830582
  0
LINE
  8
CSLAYER1
  6
CONTINUOUS
 62
     1
 10
538.252300
 20
495.077125
 11
538.488228
 21
499.448775
  0
LINE
  8
CSLAYER1
  6
CONTINUOUS
 62
     1
 10
538.488228
 20
499.448775
 11
539.194219
 21
503.787153
  0
LINE
  8
CSLAYER1
  6
CONTINUOUS
 62
     1
 10
539.194219
 20
503.787153
 11
540.364898
 21
508.059243
  0
LINE
  8
CSLAYER1
  6
CONTINUOUS
 62
     1
 10
540.364898
 20
508.059243
 11
541.991357
 21
512.232532
  0
LINE
  8
CSLAYER1
  6
CONTINUOUS
 62
     1
 10
541.991357
 20
512.232532
 11
544.061217
 21
516.275257
  0
LINE
  8
CSLAYER1
  6
CONTINUOUS
 62
     1
 10
544.061217
 20
516.275257
 11
546.558725
 21
520.156652
  0
LINE
  8
CSLAYER1
  6
CONTINUOUS
 62
     1
 10
546.558725
 20
520.156652
 11
549.464873
 21
523.847176
  0
LINE
  8
CSLAYER1
  6
CONTINUOUS
 62
     1
 10
549.464873
 20
523.847176
 11
552.757544
 21
527.318743
  0
LINE
  8
CSLAYER1
  6
CONTINUOUS
 62
     1
 10
552.757544
 20
527.318743
 11
556.411679
 21
530.544932
  0
LINE
  8
CSLAYER1
  6
CONTINUOUS
 62
     1
 10
556.411679
 20
530.544932
 11
560.399468
 21
533.501189
  0
LINE
  8
CSLAYER1
  6
CONTINUOUS
 62
     1
 10
560.399468
 20
533.501189
 11
564.690561
 21
536.165016
  0
LINE
  8
CSLAYER1
  6
CONTINUOUS
 62
     1
 10
564.690561
 20
536.165016
 11
569.252300
 21
538.516140
  0
LINE
  8
CSLAYER1
  6
CONTINUOUS
 62
     1
 10
569.252300
 20
538.516140
 11
574.049967
 21
540.536666
  0
LINE
  8
CSLAYER1
  6
CONTINUOUS
 62
     1
 10
574.049967
 20
540.536666
 11
579.047051
 21
542.211218
  0
LINE
  8
CSLAYER1
  6
CONTINUOUS
 62
     1
 10
579.047051
 20
542.211218
 11
584.205519
 21
543.527050
  0
LINE
  8
CSLAYER1
  6
CONTINUOUS
 62
     1
 10
584.205519
 20
543.527050
 11
589.486113
 21
544.474150
  0
LINE
  8
CSLAYER1
  6
CONTINUOUS
 62
     1
 10
589.486113
 20
544.474150
 11
594.848644
 21
545.045308
  0
LINE
  8
CSLAYER1
  6
CONTINUOUS
 62
     1
 10
594.848644
 20
545.045308
 11
600.252300
 21
545.236179
  0
LINE
  8
CSLAYER1
  6
CONTINUOUS
 62
     1
 10
538.252300
 20
461.647813
 11
538.488228
 21
466.019462
  0
LINE
  8
CSLAYER1
  6
CONTINUOUS
 62
     1
 10
538.488228
 20
466.019462
 11
539.194219
 21
470.357841
  0
LINE
  8
CSLAYER1
  6
CONTINUOUS
 62
     1
 10
539.194219
 20
470.357841
 11
540.364898
 21
474.629931
  0
LINE
  8
CSLAYER1
  6
CONTINUOUS
 62
     1
 10
540.364898
 20
474.629931
 11
541.991357
 21
478.803219
  0
LINE
  8
CSLAYER1
  6
CONTINUOUS
 62
     1
 10
541.991357
 20
478.803219
 11
544.061217
 21
482.845945
  0
LINE
  8
CSLAYER1
  6
CONTINUOUS
 62
     1
 10
544.061217
 20
482.845945
 11
546.558725
 21
486.727339
  0
LINE
  8
CSLAYER1
  6
CONTINUOUS
 62
     1
 10
546.558725
 20
486.727339
 11
549.464873
 21
490.417864
  0
LINE
  8
CSLAYER1
  6
CONTINUOUS
 62
     1
 10
549.464873
 20
490.417864
 11
552.757544
 21
493.889431
  0
LINE
  8
CSLAYER1
  6
CONTINUOUS
 62
     1
 10
552.757544
 20
493.889431
 11
556.411679
 21
497.115620
  0
LINE
  8
CSLAYER1
  6
CONTINUOUS
 62
     1
 10
556.411679
 20
497.115620
 11
560.399468
 21
500.071877
  0
LINE
  8
CSLAYER1
  6
CONTINUOUS
 62
     1
 10
560.399468
 20
500.071877
 11
564.690561
 21
502.735704
  0
LINE
  8
CSLAYER1
  6
CONTINUOUS
 62
     1
 10
564.690561
 20
502.735704
 11
569.252300
 21
505.086827
  0
LINE
  8
CSLAYER1
  6
CONTINUOUS
 62
     1
 10
569.252300
 20
505.086827
 11
574.049967
 21
507.107353
  0
LINE
  8
CSLAYER1
  6
CONTINUOUS
 62
     1
 10
574.049967
 20
507.107353
 11
579.047051
 21
508.781905
  0
LINE
  8
CSLAYER1
  6
CONTINUOUS
 62
     1
 10
579.047051
 20
508.781905
 11
584.205519
 21
510.097738
  0
LINE
  8
CSLAYER1
  6
CONTINUOUS
 62
     1
 10
584.205519
 20
510.097738
 11
589.486113
 21
511.044837
  0
LINE
  8
CSLAYER1
  6
CONTINUOUS
 62
     1
 10
589.486113
 20
511.044837
 11
594.848644
 21
511.615996
  0
LINE
  8
CSLAYER1
  6
CONTINUOUS
 62
     1
 10
594.848644
 20
511.615996
 11
600.252300
 21
511.806866
  0
LINE
  8
CSLAYER1
  6
CONTINUOUS
 62
     1
 10
576.407105
 20
415.398381
 11
574.049967
 21
416.188272
  0
LINE
  8
CSLAYER1
  6
CONTINUOUS
 62
     1
 10
574.049967
 20
416.188272
 11
569.252300
 21
418.208798
  0
LINE
  8
CSLAYER1
  6
CONTINUOUS
 62
     1
 10
569.252300
 20
418.208798
 11
564.690561
 21
420.559921
  0
LINE
  8
CSLAYER1
  6
CONTINUOUS
 62
     1
 10
564.690561
 20
420.559921
 11
560.399468
 21
423.223748
  0
LINE
  8
CSLAYER1
  6
CONTINUOUS
 62
     1
 10
560.399468
 20
423.223748
 11
556.411679
 21
426.180006
  0
LINE
  8
CSLAYER1
  6
CONTINUOUS
 62
     1
 10
556.411679
 20
426.180006
 11
552.757544
 21
429.406194
  0
LINE
  8
CSLAYER1
  6
CONTINUOUS
 62
     1
 10
552.757544
 20
429.406194
 11
549.464873
 21
432.877761
  0
LINE
  8
CSLAYER1
  6
CONTINUOUS
 62
     1
 10
549.464873
 20
432.877761
 11
546.558725
 21
436.568286
  0
LINE
  8
CSLAYER1
  6
CONTINUOUS
 62
     1
 10
546.558725
 20
436.568286
 11
544.061217
 21
440.449680
  0
LINE
  8
CSLAYER1
  6
CONTINUOUS
 62
     1
 10
544.061217
 20
440.449680
 11
541.991357
 21
444.492406
  0
LINE
  8
CSLAYER1
  6
CONTINUOUS
 62
     1
 10
541.991357
 20
444.492406
 11
540.364898
 21
448.665694
  0
LINE
  8
CSLAYER1
  6
CONTINUOUS
 62
     1
 10
540.364898
 20
448.665694
 11
539.194219
 21
452.937784
  0
LINE
  8
CSLAYER1
  6
CONTINUOUS
 62
     1
 10
539.194219
 20
452.937784
 11
538.488228
 21
457.276163
  0
LINE
  8
CSLAYER1
  6
CONTINUOUS
 62
     1
 10
538.488228
 20
457.276163
 11
538.252300
 21
461.647813
  0
LINE
  8
CSLAYER1
  6
CONTINUOUS
 62
     1
 10
546.252300
 20
611.786479
 11
546.252300
 21
519.680435
  0
LINE
  8
CSLAYER1
  6
CONTINUOUS
 62
     1
 10
540.252300
 20
581.289562
 11
540.252300
 21
507.270814
  0
LINE
  8
CSLAYER1
  6
CONTINUOUS
 62
     1
 10
538.252300
 20
495.077125
 11
538.252300
 21
461.647813
  0
LINE
  8
CSLAYER1
  6
CONTINUOUS
 62
     1
 10
548.252300
 20
522.307327
 11
548.252300
 21
605.500277
  0
LINE
  8
CSLAYER1
  6
CONTINUOUS
 62
     1
 10
568.252300
 20
538.000739
 11
568.252300
 21
622.296517
  0
LINE
  8
CSLAYER1
  6
CONTINUOUS
 62
     1
 10
575.252300
 20
540.939574
 11
575.252300
 21
625.433056
  0
LINE
  8
CSLAYER1
  6
CONTINUOUS
 62
     1
 10
583.252300
 20
543.283901
 11
583.252300
 21
627.801398
  0
LINE
  8
CSLAYER1
  6
CONTINUOUS
 62
     1
 10
534.252300
 20
693.492644
 11
534.252300
 21
670.033478
  0
LINE
  8
CSLAYER1
  6
CONTINUOUS
 62
     1
 10
545.252300
 20
653.958745
 11
545.252300
 21
600.589943
  0
LINE
  8
CSLAYER1
  6
CONTINUOUS
 62
     1
 10
586.640568
 20
654.077778
 11
555.252300
 21
654.077778
  0
LINE
  8
CSLAYER1
  6
CONTINUOUS
 62
     1
 10
516.252300
 20
613.734802
 11
516.286547
 21
614.369397
  0
LINE
  8
CSLAYER1
  6
CONTINUOUS
 62
     1
 10
516.286547
 20
614.369397
 11
516.389030
 21
614.999161
  0
LINE
  8
CSLAYER1
  6
CONTINUOUS
 62
     1
 10
516.389030
 20
614.999161
 11
516.558967
 21
615.619303
  0
LINE
  8
CSLAYER1
  6
CONTINUOUS
 62
     1
 10
516.558967
 20
615.619303
 11
516.795066
 21
616.225103
  0
LINE
  8
CSLAYER1
  6
CONTINUOUS
 62
     1
 10
516.795066
 20
616.225103
 11
517.095530
 21
616.811950
  0
LINE
  8
CSLAYER1
  6
CONTINUOUS
 62
     1
 10
517.095530
 20
616.811950
 11
517.458071
 21
617.375379
  0
LINE
  8
CSLAYER1
  6
CONTINUOUS
 62
     1
 10
517.458071
 20
617.375379
 11
517.879931
 21
617.911100
  0
LINE
  8
CSLAYER1
  6
CONTINUOUS
 62
     1
 10
517.879931
 20
617.911100
 11
518.357900
 21
618.415037
  0
LINE
  8
CSLAYER1
  6
CONTINUOUS
 62
     1
 10
518.357900
 20
618.415037
 11
518.888339
 21
618.883355
  0
LINE
  8
CSLAYER1
  6
CONTINUOUS
 62
     1
 10
518.888339
 20
618.883355
 11
519.467211
 21
619.312489
  0
LINE
  8
CSLAYER1
  6
CONTINUOUS
 62
     1
 10
519.467211
 20
619.312489
 11
520.090112
 21
619.699174
  0
LINE
  8
CSLAYER1
  6
CONTINUOUS
 62
     1
 10
520.090112
 20
619.699174
 11
520.752300
 21
620.040466
  0
LINE
  8
CSLAYER1
  6
CONTINUOUS
 62
     1
 10
520.752300
 20
620.040466
 11
521.448735
 21
620.333768
  0
LINE
  8
CSLAYER1
  6
CONTINUOUS
 62
     1
 10
521.448735
 20
620.333768
 11
522.174118
 21
620.576848
  0
LINE
  8
CSLAYER1
  6
CONTINUOUS
 62
     1
 10
522.174118
 20
620.576848
 11
522.922928
 21
620.767856
  0
LINE
  8
CSLAYER1
  6
CONTINUOUS
 62
     1
 10
522.922928
 20
620.767856
 11
523.689466
 21
620.905338
  0
LINE
  8
CSLAYER1
  6
CONTINUOUS
 62
     1
 10
523.689466
 20
620.905338
 11
524.467898
 21
620.988248
  0
LINE
  8
CSLAYER1
  6
CONTINUOUS
 62
     1
 10
524.467898
 20
620.988248
 11
525.252300
 21
621.015955
  0
LINE
  8
CSLAYER1
  6
CONTINUOUS
 62
     1
 10
525.252300
 20
621.015955
 11
526.036701
 21
620.988248
  0
LINE
  8
CSLAYER1
  6
CONTINUOUS
 62
     1
 10
526.036701
 20
620.988248
 11
526.815133
 21
620.905338
  0
LINE
  8
CSLAYER1
  6
CONTINUOUS
 62
     1
 10
526.815133
 20
620.905338
 11
527.581671
 21
620.767856
  0
LINE
  8
CSLAYER1
  6
CONTINUOUS
 62
     1
 10
527.581671
 20
620.767856
 11
528.330481
 21
620.576848
  0
LINE
  8
CSLAYER1
  6
CONTINUOUS
 62
     1
 10
528.330481
 20
620.576848
 11
529.055864
 21
620.333768
  0
LINE
  8
CSLAYER1
  6
CONTINUOUS
 62
     1
 10
529.055864
 20
620.333768
 11
529.752300
 21
620.040466
  0
LINE
  8
CSLAYER1
  6
CONTINUOUS
 62
     1
 10
529.752300
 20
620.040466
 11
530.414488
 21
619.699174
  0
LINE
  8
CSLAYER1
  6
CONTINUOUS
 62
     1
 10
530.414488
 20
619.699174
 11
531.037388
 21
619.312489
  0
LINE
  8
CSLAYER1
  6
CONTINUOUS
 62
     1
 10
531.037388
 20
619.312489
 11
531.616261
 21
618.883355
  0
LINE
  8
CSLAYER1
  6
CONTINUOUS
 62
     1
 10
531.616261
 20
618.883355
 11
532.146700
 21
618.415037
  0
LINE
  8
CSLAYER1
  6
CONTINUOUS
 62
     1
 10
532.146700
 20
618.415037
 11
532.624668
 21
617.911100
  0
LINE
  8
CSLAYER1
  6
CONTINUOUS
 62
     1
 10
532.624668
 20
617.911100
 11
533.046528
 21
617.375379
  0
LINE
  8
CSLAYER1
  6
CONTINUOUS
 62
     1
 10
533.046528
 20
617.375379
 11
533.409070
 21
616.811950
  0
LINE
  8
CSLAYER1
  6
CONTINUOUS
 62
     1
 10
533.409070
 20
616.811950
 11
533.709533
 21
616.225103
  0
LINE
  8
CSLAYER1
  6
CONTINUOUS
 62
     1
 10
533.709533
 20
616.225103
 11
533.945632
 21
615.619303
  0
LINE
  8
CSLAYER1
  6
CONTINUOUS
 62
     1
 10
533.945632
 20
615.619303
 11
534.115569
 21
614.999161
  0
LINE
  8
CSLAYER1
  6
CONTINUOUS
 62
     1
 10
534.115569
 20
614.999161
 11
534.218052
 21
614.369397
  0
LINE
  8
CSLAYER1
  6
CONTINUOUS
 62
     1
 10
534.218052
 20
614.369397
 11
534.252300
 21
613.734802
  0
LINE
  8
CSLAYER1
  6
CONTINUOUS
 62
     1
 10
534.252300
 20
613.734802
 11
534.218052
 21
613.100208
  0
LINE
  8
CSLAYER1
  6
CONTINUOUS
 62
     1
 10
534.218052
 20
613.100208
 11
534.115569
 21
612.470443
  0
LINE
  8
CSLAYER1
  6
CONTINUOUS
 62
     1
 10
534.115569
 20
612.470443
 11
533.945632
 21
611.850301
  0
LINE
  8
CSLAYER1
  6
CONTINUOUS
 62
     1
 10
533.945632
 20
611.850301
 11
533.709533
 21
611.244501
  0
LINE
  8
CSLAYER1
  6
CONTINUOUS
 62
     1
 10
533.709533
 20
611.244501
 11
533.409070
 21
610.657654
  0
LINE
  8
CSLAYER1
  6
CONTINUOUS
 62
     1
 10
533.409070
 20
610.657654
 11
533.046528
 21
610.094226
  0
LINE
  8
CSLAYER1
  6
CONTINUOUS
 62
     1
 10
533.046528
 20
610.094226
 11
532.624668
 21
609.558505
  0
LINE
  8
CSLAYER1
  6
CONTINUOUS
 62
     1
 10
532.624668
 20
609.558505
 11
532.146700
 21
609.054567
  0
LINE
  8
CSLAYER1
  6
CONTINUOUS
 62
     1
 10
532.146700
 20
609.054567
 11
531.616261
 21
608.586250
  0
LINE
  8
CSLAYER1
  6
CONTINUOUS
 62
     1
 10
531.616261
 20
608.586250
 11
531.037388
 21
608.157116
  0
LINE
  8
CSLAYER1
  6
CONTINUOUS
 62
     1
 10
531.037388
 20
608.157116
 11
530.414488
 21
607.770431
  0
LINE
  8
CSLAYER1
  6
CONTINUOUS
 62
     1
 10
530.414488
 20
607.770431
 11
529.752300
 21
607.429139
  0
LINE
  8
CSLAYER1
  6
CONTINUOUS
 62
     1
 10
529.752300
 20
607.429139
 11
529.055864
 21
607.135837
  0
LINE
  8
CSLAYER1
  6
CONTINUOUS
 62
     1
 10
529.055864
 20
607.135837
 11
528.330481
 21
606.892757
  0
LINE
  8
CSLAYER1
  6
CONTINUOUS
 62
     1
 10
528.330481
 20
606.892757
 11
527.581671
 21
606.701749
  0
LINE
  8
CSLAYER1
  6
CONTINUOUS
 62
     1
 10
527.581671
 20
606.701749
 11
526.815133
 21
606.564266
  0
LINE
  8
CSLAYER1
  6
CONTINUOUS
 62
     1
 10
526.815133
 20
606.564266
 11
526.036701
 21
606.481356
  0
LINE
  8
CSLAYER1
  6
CONTINUOUS
 62
     1
 10
526.036701
 20
606.481356
 11
525.252300
 21
606.453649
  0
LINE
  8
CSLAYER1
  6
CONTINUOUS
 62
     1
 10
525.252300
 20
606.453649
 11
524.467898
 21
606.481356
  0
LINE
  8
CSLAYER1
  6
CONTINUOUS
 62
     1
 10
524.467898
 20
606.481356
 11
523.689466
 21
606.564266
  0
LINE
  8
CSLAYER1
  6
CONTINUOUS
 62
     1
 10
523.689466
 20
606.564266
 11
522.922928
 21
606.701749
  0
LINE
  8
CSLAYER1
  6
CONTINUOUS
 62
     1
 10
522.922928
 20
606.701749
 11
522.174118
 21
606.892757
  0
LINE
  8
CSLAYER1
  6
CONTINUOUS
 62
     1
 10
522.174118
 20
606.892757
 11
521.448735
 21
607.135837
  0
LINE
  8
CSLAYER1
  6
CONTINUOUS
 62
     1
 10
521.448735
 20
607.135837
 11
520.752300
 21
607.429139
  0
LINE
  8
CSLAYER1
  6
CONTINUOUS
 62
     1
 10
520.752300
 20
607.429139
 11
520.090112
 21
607.770431
  0
LINE
  8
CSLAYER1
  6
CONTINUOUS
 62
     1
 10
520.090112
 20
607.770431
 11
519.467211
 21
608.157116
  0
LINE
  8
CSLAYER1
  6
CONTINUOUS
 62
     1
 10
519.467211
 20
608.157116
 11
518.888339
 21
608.586250
  0
LINE
  8
CSLAYER1
  6
CONTINUOUS
 62
     1
 10
518.888339
 20
608.586250
 11
518.357900
 21
609.054567
  0
LINE
  8
CSLAYER1
  6
CONTINUOUS
 62
     1
 10
518.357900
 20
609.054567
 11
517.879931
 21
609.558505
  0
LINE
  8
CSLAYER1
  6
CONTINUOUS
 62
     1
 10
517.879931
 20
609.558505
 11
517.458071
 21
610.094226
  0
LINE
  8
CSLAYER1
  6
CONTINUOUS
 62
     1
 10
517.458071
 20
610.094226
 11
517.095530
 21
610.657654
  0
LINE
  8
CSLAYER1
  6
CONTINUOUS
 62
     1
 10
517.095530
 20
610.657654
 11
516.795066
 21
611.244501
  0
LINE
  8
CSLAYER1
  6
CONTINUOUS
 62
     1
 10
516.795066
 20
611.244501
 11
516.558967
 21
611.850301
  0
LINE
  8
CSLAYER1
  6
CONTINUOUS
 62
     1
 10
516.558967
 20
611.850301
 11
516.389030
 21
612.470443
  0
LINE
  8
CSLAYER1
  6
CONTINUOUS
 62
     1
 10
516.389030
 20
612.470443
 11
516.286547
 21
613.100208
  0
LINE
  8
CSLAYER1
  6
CONTINUOUS
 62
     1
 10
516.286547
 20
613.100208
 11
516.252300
 21
613.734802
  0
LINE
  8
CSLAYER1
  6
CONTINUOUS
 62
     1
 10
516.252300
 20
619.410708
 11
516.286547
 21
620.045302
  0
LINE
  8
CSLAYER1
  6
CONTINUOUS
 62
     1
 10
516.286547
 20
620.045302
 11
516.389030
 21
620.675067
  0
LINE
  8
CSLAYER1
  6
CONTINUOUS
 62
     1
 10
516.389030
 20
620.675067
 11
516.558967
 21
621.295209
  0
LINE
  8
CSLAYER1
  6
CONTINUOUS
 62
     1
 10
516.558967
 20
621.295209
 11
516.795066
 21
621.901009
  0
LINE
  8
CSLAYER1
  6
CONTINUOUS
 62
     1
 10
516.795066
 20
621.901009
 11
517.095530
 21
622.487856
  0
LINE
  8
CSLAYER1
  6
CONTINUOUS
 62
     1
 10
517.095530
 20
622.487856
 11
517.458071
 21
623.051285
  0
LINE
  8
CSLAYER1
  6
CONTINUOUS
 62
     1
 10
517.458071
 20
623.051285
 11
517.879931
 21
623.587006
  0
LINE
  8
CSLAYER1
  6
CONTINUOUS
 62
     1
 10
517.879931
 20
623.587006
 11
518.357900
 21
624.090943
  0
LINE
  8
CSLAYER1
  6
CONTINUOUS
 62
     1
 10
518.357900
 20
624.090943
 11
518.888339
 21
624.559261
  0
LINE
  8
CSLAYER1
  6
CONTINUOUS
 62
     1
 10
518.888339
 20
624.559261
 11
519.467211
 21
624.988395
  0
LINE
  8
CSLAYER1
  6
CONTINUOUS
 62
     1
 10
519.467211
 20
624.988395
 11
520.090112
 21
625.375079
  0
LINE
  8
CSLAYER1
  6
CONTINUOUS
 62
     1
 10
520.090112
 20
625.375079
 11
520.752300
 21
625.716372
  0
LINE
  8
CSLAYER1
  6
CONTINUOUS
 62
     1
 10
520.752300
 20
625.716372
 11
521.448735
 21
626.009674
  0
LINE
  8
CSLAYER1
  6
CONTINUOUS
 62
     1
 10
521.448735
 20
626.009674
 11
522.174118
 21
626.252754
  0
LINE
  8
CSLAYER1
  6
CONTINUOUS
 62
     1
 10
522.174118
 20
626.252754
 11
522.922928
 21
626.443762
  0
LINE
  8
CSLAYER1
  6
CONTINUOUS
 62
     1
 10
522.922928
 20
626.443762
 11
523.689466
 21
626.581244
  0
LINE
  8
CSLAYER1
  6
CONTINUOUS
 62
     1
 10
523.689466
 20
626.581244
 11
524.467898
 21
626.664154
  0
LINE
  8
CSLAYER1
  6
CONTINUOUS
 62
     1
 10
524.467898
 20
626.664154
 11
525.252300
 21
626.691861
  0
LINE
  8
CSLAYER1
  6
CONTINUOUS
 62
     1
 10
525.252300
 20
626.691861
 11
526.036701
 21
626.664154
  0
LINE
  8
CSLAYER1
  6
CONTINUOUS
 62
     1
 10
526.036701
 20
626.664154
 11
526.815133
 21
626.581244
  0
LINE
  8
CSLAYER1
  6
CONTINUOUS
 62
     1
 10
526.815133
 20
626.581244
 11
527.581671
 21
626.443762
  0
LINE
  8
CSLAYER1
  6
CONTINUOUS
 62
     1
 10
527.581671
 20
626.443762
 11
528.330481
 21
626.252754
  0
LINE
  8
CSLAYER1
  6
CONTINUOUS
 62
     1
 10
528.330481
 20
626.252754
 11
529.055864
 21
626.009674
  0
LINE
  8
CSLAYER1
  6
CONTINUOUS
 62
     1
 10
529.055864
 20
626.009674
 11
529.752300
 21
625.716372
  0
LINE
  8
CSLAYER1
  6
CONTINUOUS
 62
     1
 10
529.752300
 20
625.716372
 11
530.414488
 21
625.375079
  0
LINE
  8
CSLAYER1
  6
CONTINUOUS
 62
     1
 10
530.414488
 20
625.375079
 11
531.037388
 21
624.988395
  0
LINE
  8
CSLAYER1
  6
CONTINUOUS
 62
     1
 10
531.037388
 20
624.988395
 11
531.616261
 21
624.559261
  0
LINE
  8
CSLAYER1
  6
CONTINUOUS
 62
     1
 10
531.616261
 20
624.559261
 11
532.146700
 21
624.090943
  0
LINE
  8
CSLAYER1
  6
CONTINUOUS
 62
     1
 10
532.146700
 20
624.090943
 11
532.624668
 21
623.587006
  0
LINE
  8
CSLAYER1
  6
CONTINUOUS
 62
     1
 10
532.624668
 20
623.587006
 11
533.046528
 21
623.051285
  0
LINE
  8
CSLAYER1
  6
CONTINUOUS
 62
     1
 10
533.046528
 20
623.051285
 11
533.409070
 21
622.487856
  0
LINE
  8
CSLAYER1
  6
CONTINUOUS
 62
     1
 10
533.409070
 20
622.487856
 11
533.709533
 21
621.901009
  0
LINE
  8
CSLAYER1
  6
CONTINUOUS
 62
     1
 10
533.709533
 20
621.901009
 11
533.945632
 21
621.295209
  0
LINE
  8
CSLAYER1
  6
CONTINUOUS
 62
     1
 10
533.945632
 20
621.295209
 11
534.115569
 21
620.675067
  0
LINE
  8
CSLAYER1
  6
CONTINUOUS
 62
     1
 10
534.115569
 20
620.675067
 11
534.218052
 21
620.045302
  0
LINE
  8
CSLAYER1
  6
CONTINUOUS
 62
     1
 10
534.218052
 20
620.045302
 11
534.252300
 21
619.410708
  0
LINE
  8
CSLAYER1
  6
CONTINUOUS
 62
     1
 10
516.252300
 20
619.410708
 11
516.252300
 21
613.734802
  0
LINE
  8
CSLAYER1
  6
CONTINUOUS
 62
     1
 10
534.252300
 20
619.410708
 11
534.252300
 21
613.734802
  0
ARC
  8
CSLAYER1
  6
CONTINUOUS
 62
     1
 10
555.252300
 20
653.958745
 40
10.000000
 50
90.000000
 51
180.000000
  0
ARC
  8
CSLAYER1
  6
CONTINUOUS
 62
     1
 10
555.252300
 20
644.077778
 40
10.000000
 50
90.000000
 51
180.000000
  0
LINE
  8
CSLAYER1
  6
CONTINUOUS
 62
     4
 10
200.252300
 20
1081.857810
 11
200.252300
 21
1031.857810
  0
LINE
  8
CSLAYER1
  6
CONTINUOUS
 62
     4
 10
343.252300
 20
981.657810
 11
343.252300
 21
931.657810
  0
ARC
  8
CSLAYER1
  6
CONTINUOUS
 62
     4
 10
203.252300
 20
1081.857810
 40
3.000000
 50
90.000000
 51
180.000000
  0
LINE
  8
CSLAYER1
  6
CONTINUOUS
 62
     4
 10
415.252300
 20
889.132554
 11
415.252300
 21
937.715244
  0
LINE
  8
CSLAYER1
  6
CONTINUOUS
 62
     4
 10
435.252300
 20
889.132554
 11
435.252300
 21
937.715244
  0
POINT
  8
CSLAYER1
 62
     4
 10
425.252300
 20
872.132552
  0
LINE
  8
CSLAYER1
  6
CONTINUOUS
 62
     5
 10
411.126923
 20
872.132554
 11
439.366013
 21
872.132554
  0
LINE
  8
CSLAYER1
  6
CONTINUOUS
 62
     4
 10
437.777300
 20
887.132552
 11
412.727300
 21
887.132552
  0
POINT
  8
CSLAYER1
 62
     4
 10
425.252300
 20
840.382552
  0
LINE
  8
CSLAYER1
  6
CONTINUOUS
 62
     4
 10
411.727300
 20
886.132552
 11
411.727300
 21
793.582552
  0
LINE
  8
CSLAYER1
  6
CONTINUOUS
 62
     4
 10
415.727300
 20
855.432552
 11
415.727300
 21
793.582552
  0
LINE
  8
CSLAYER1
  6
CONTINUOUS
 62
     4
 10
415.727300
 20
855.432552
 11
411.727300
 21
855.432552
  0
LINE
  8
CSLAYER1
  6
CONTINUOUS
 62
     4
 10
416.727300
 20
830.857552
 11
433.777300
 21
830.857552
  0
LINE
  8
CSLAYER1
  6
CONTINUOUS
 62
     4
 10
416.727300
 20
849.907552
 11
433.777300
 21
849.907552
  0
ARC
  8
CSLAYER1
  6
CONTINUOUS
 62
     4
 10
416.727300
 20
831.857552
 40
1.000000
 50
180.000000
 51
270.000000
  0
ARC
  8
CSLAYER1
  6
CONTINUOUS
 62
     4
 10
416.727300
 20
848.907552
 40
1.000000
 50
90.000000
 51
180.000000
  0
LINE
  8
CSLAYER1
  6
CONTINUOUS
 62
     4
 10
438.777300
 20
886.132552
 11
438.777300
 21
792.882552
  0
LINE
  8
CSLAYER1
  6
CONTINUOUS
 62
     4
 10
434.777300
 20
855.432552
 11
434.777300
 21
793.582552
  0
LINE
  8
CSLAYER1
  6
CONTINUOUS
 62
     4
 10
434.777300
 20
855.432552
 11
438.777300
 21
855.432552
  0
ARC
  8
CSLAYER1
  6
CONTINUOUS
 62
     4
 10
433.777300
 20
831.857552
 40
1.000000
 50
270.000000
 51
360.000000
  0
ARC
  8
CSLAYER1
  6
CONTINUOUS
 62
     4
 10
433.777300
 20
848.907552
 40
1.000000
 50
0.000000
 51
90.000000
  0
LINE
  8
CSLAYER1
  6
CONTINUOUS
 62
     4
 10
405.502300
 20
836.612552
 11
405.502300
 21
844.162278
  0
LINE
  8
CSLAYER1
  6
CONTINUOUS
 62
     4
 10
411.727300
 20
827.382552
 11
407.352300
 21
827.382552
  0
LINE
  8
CSLAYER1
  6
CONTINUOUS
 62
     4
 10
411.727300
 20
885.132552
 11
407.352300
 21
885.132552
  0
LINE
  8
CSLAYER1
  6
CONTINUOUS
 62
     4
 10
407.352300
 20
835.612552
 11
406.502300
 21
835.612552
  0
LINE
  8
CSLAYER1
  6
CONTINUOUS
 62
     4
 10
407.352300
 20
845.162278
 11
406.502300
 21
845.162278
  0
ARC
  8
CSLAYER1
  6
CONTINUOUS
 62
     4
 10
406.502300
 20
836.612552
 40
1.000000
 50
180.000000
 51
270.000000
  0
ARC
  8
CSLAYER1
  6
CONTINUOUS
 62
     4
 10
406.502300
 20
844.162278
 40
1.000000
 50
90.000000
 51
180.000000
  0
LINE
  8
CSLAYER1
  6
CONTINUOUS
 62
     4
 10
405.502300
 20
868.362552
 11
405.502300
 21
875.912278
  0
LINE
  8
CSLAYER1
  6
CONTINUOUS
 62
     4
 10
407.352300
 20
867.362552
 11
406.502300
 21
867.362552
  0
LINE
  8
CSLAYER1
  6
CONTINUOUS
 62
     4
 10
407.352300
 20
876.912278
 11
406.502300
 21
876.912278
  0
ARC
  8
CSLAYER1
  6
CONTINUOUS
 62
     4
 10
406.502300
 20
868.362552
 40
1.000000
 50
180.000000
 51
270.000000
  0
ARC
  8
CSLAYER1
  6
CONTINUOUS
 62
     4
 10
406.502300
 20
875.912278
 40
1.000000
 50
90.000000
 51
180.000000
  0
LINE
  8
CSLAYER1
  6
CONTINUOUS
 62
     4
 10
445.002300
 20
836.612552
 11
445.002300
 21
844.162278
  0
LINE
  8
CSLAYER1
  6
CONTINUOUS
 62
     4
 10
438.777300
 20
827.382552
 11
443.152300
 21
827.382552
  0
LINE
  8
CSLAYER1
  6
CONTINUOUS
 62
     4
 10
438.777300
 20
885.132552
 11
443.152300
 21
885.132552
  0
LINE
  8
CSLAYER1
  6
CONTINUOUS
 62
     4
 10
443.152300
 20
835.612552
 11
444.002300
 21
835.612552
  0
LINE
  8
CSLAYER1
  6
CONTINUOUS
 62
     4
 10
443.152300
 20
845.162278
 11
444.002300
 21
845.162278
  0
ARC
  8
CSLAYER1
  6
CONTINUOUS
 62
     4
 10
444.002300
 20
836.612552
 40
1.000000
 50
270.000000
 51
360.000000
  0
ARC
  8
CSLAYER1
  6
CONTINUOUS
 62
     4
 10
444.002300
 20
844.162278
 40
1.000000
 50
0.000000
 51
90.000000
  0
LINE
  8
CSLAYER1
  6
CONTINUOUS
 62
     4
 10
448.102300
 20
868.362552
 11
448.102300
 21
875.912278
  0
LINE
  8
CSLAYER1
  6
CONTINUOUS
 62
     4
 10
443.152300
 20
867.362552
 11
447.102300
 21
867.362552
  0
LINE
  8
CSLAYER1
  6
CONTINUOUS
 62
     4
 10
443.152300
 20
876.912278
 11
447.102300
 21
876.912278
  0
ARC
  8
CSLAYER1
  6
CONTINUOUS
 62
     4
 10
447.102300
 20
868.362552
 40
1.000000
 50
270.000000
 51
360.000000
  0
ARC
  8
CSLAYER1
  6
CONTINUOUS
 62
     4
 10
447.102300
 20
875.912278
 40
1.000000
 50
0.000000
 51
90.000000
  0
LINE
  8
CSLAYER1
  6
CONTINUOUS
 62
     4
 10
438.777300
 20
876.912278
 11
411.727300
 21
876.912278
  0
LINE
  8
CSLAYER1
  6
CONTINUOUS
 62
     4
 10
438.777300
 20
867.362552
 11
411.727300
 21
867.362552
  0
LINE
  8
CSLAYER1
  6
CONTINUOUS
 62
     4
 10
436.777300
 20
857.132552
 11
413.727300
 21
857.132552
  0
ARC
  8
CSLAYER1
  6
CONTINUOUS
 62
     4
 10
413.727300
 20
859.132552
 40
2.000000
 50
180.000000
 51
270.000000
  0
ARC
  8
CSLAYER1
  6
CONTINUOUS
 62
     4
 10
436.777300
 20
859.132552
 40
2.000000
 50
270.000000
 51
360.000000
  0
ARC
  8
CSLAYER1
  6
CONTINUOUS
 62
     4
 10
437.252300
 20
889.132552
 40
2.000000
 50
180.000000
 51
270.000000
  0
ARC
  8
CSLAYER1
  6
CONTINUOUS
 62
     4
 10
413.252300
 20
889.132552
 40
2.000000
 50
270.000000
 51
360.000000
  0
ARC
  8
CSLAYER1
  6
CONTINUOUS
 62
     4
 10
437.777300
 20
886.132552
 40
1.000000
 50
0.000000
 51
90.000000
  0
ARC
  8
CSLAYER1
  6
CONTINUOUS
 62
     4
 10
412.727300
 20
886.132552
 40
1.000000
 50
90.000000
 51
180.000000
  0
POINT
  8
CSLAYER1
 62
     4
 10
425.252300
 20
887.132552
  0
LINE
  8
CSLAYER1
  6
CONTINUOUS
 62
     4
 10
407.352300
 20
827.382552
 11
407.352300
 21
885.132552
  0
LINE
  8
CSLAYER1
  6
CONTINUOUS
 62
     4
 10
443.152300
 20
827.382552
 11
443.152300
 21
885.132552
  0
POINT
  8
CSLAYER1
 62
     4
 10
425.252300
 20
808.632552
  0
LINE
  8
CSLAYER1
  6
CONTINUOUS
 62
     4
 10
415.727300
 20
793.582552
 11
411.727300
 21
793.582552
  0
LINE
  8
CSLAYER1
  6
CONTINUOUS
 62
     4
 10
416.727300
 20
818.157552
 11
433.777300
 21
818.157552
  0
LINE
  8
CSLAYER1
  6
CONTINUOUS
 62
     4
 10
416.727300
 20
799.107552
 11
433.777300
 21
799.107552
  0
ARC
  8
CSLAYER1
  6
CONTINUOUS
 62
     4
 10
416.727300
 20
817.157552
 40
1.000000
 50
90.000000
 51
180.000000
  0
ARC
  8
CSLAYER1
  6
CONTINUOUS
 62
     4
 10
416.727300
 20
800.107552
 40
1.000000
 50
180.000000
 51
270.000000
  0
LINE
  8
CSLAYER1
  6
CONTINUOUS
 62
     4
 10
434.777300
 20
793.582552
 11
438.777300
 21
793.582552
  0
ARC
  8
CSLAYER1
  6
CONTINUOUS
 62
     4
 10
433.777300
 20
817.157552
 40
1.000000
 50
0.000000
 51
90.000000
  0
ARC
  8
CSLAYER1
  6
CONTINUOUS
 62
     4
 10
433.777300
 20
800.107552
 40
1.000000
 50
270.000000
 51
360.000000
  0
LINE
  8
CSLAYER1
  6
CONTINUOUS
 62
     4
 10
405.502300
 20
812.402552
 11
405.502300
 21
804.852826
  0
LINE
  8
CSLAYER1
  6
CONTINUOUS
 62
     4
 10
411.727300
 20
821.632552
 11
407.352300
 21
821.632552
  0
LINE
  8
CSLAYER1
  6
CONTINUOUS
 62
     4
 10
407.352300
 20
813.402552
 11
406.502300
 21
813.402552
  0
LINE
  8
CSLAYER1
  6
CONTINUOUS
 62
     4
 10
407.352300
 20
803.852826
 11
406.502300
 21
803.852826
  0
ARC
  8
CSLAYER1
  6
CONTINUOUS
 62
     4
 10
406.502300
 20
812.402552
 40
1.000000
 50
90.000000
 51
180.000000
  0
ARC
  8
CSLAYER1
  6
CONTINUOUS
 62
     4
 10
406.502300
 20
804.852826
 40
1.000000
 50
180.000000
 51
270.000000
  0
LINE
  8
CSLAYER1
  6
CONTINUOUS
 62
     4
 10
445.002300
 20
812.402552
 11
445.002300
 21
804.852826
  0
LINE
  8
CSLAYER1
  6
CONTINUOUS
 62
     4
 10
438.777300
 20
821.632552
 11
443.152300
 21
821.632552
  0
LINE
  8
CSLAYER1
  6
CONTINUOUS
 62
     4
 10
443.152300
 20
813.402552
 11
444.002300
 21
813.402552
  0
LINE
  8
CSLAYER1
  6
CONTINUOUS
 62
     4
 10
443.152300
 20
803.852826
 11
444.002300
 21
803.852826
  0
ARC
  8
CSLAYER1
  6
CONTINUOUS
 62
     4
 10
444.002300
 20
812.402552
 40
1.000000
 50
0.000000
 51
90.000000
  0
ARC
  8
CSLAYER1
  6
CONTINUOUS
 62
     4
 10
444.002300
 20
804.852826
 40
1.000000
 50
270.000000
 51
360.000000
  0
LINE
  8
CSLAYER1
  6
CONTINUOUS
 62
     4
 10
570.002300
 20
929.465244
 11
570.002300
 21
823.445625
  0
LINE
  8
CSLAYER1
  6
CONTINUOUS
 62
     4
 10
600.252300
 20
945.940575
 11
597.615838
 21
945.877881
  0
LINE
  8
CSLAYER1
  6
CONTINUOUS
 62
     4
 10
600.252300
 20
829.463453
 11
596.369511
 21
829.371122
  0
LINE
  8
CSLAYER1
  6
CONTINUOUS
 62
     4
 10
596.369511
 20
829.371122
 11
592.516273
 21
829.094833
  0
LINE
  8
CSLAYER1
  6
CONTINUOUS
 62
     4
 10
592.516273
 20
829.094833
 11
588.721911
 21
828.636688
  0
LINE
  8
CSLAYER1
  6
CONTINUOUS
 62
     4
 10
588.721911
 20
828.636688
 11
585.015302
 21
828.000175
  0
LINE
  8
CSLAYER1
  6
CONTINUOUS
 62
     4
 10
585.015302
 20
828.000175
 11
581.424656
 21
827.190136
  0
LINE
  8
CSLAYER1
  6
CONTINUOUS
 62
     4
 10
581.424656
 20
827.190136
 11
577.977300
 21
826.212738
  0
LINE
  8
CSLAYER1
  6
CONTINUOUS
 62
     4
 10
577.977300
 20
826.212738
 11
574.699469
 21
825.075418
  0
LINE
  8
CSLAYER1
  6
CONTINUOUS
 62
     4
 10
574.699469
 20
825.075418
 11
571.616112
 21
823.786833
  0
LINE
  8
CSLAYER1
  6
CONTINUOUS
 62
     4
 10
571.616112
 20
823.786833
 11
568.750693
 21
822.356789
  0
LINE
  8
CSLAYER1
  6
CONTINUOUS
 62
     4
 10
568.750693
 20
822.356789
 11
566.125020
 21
820.796170
  0
LINE
  8
CSLAYER1
  6
CONTINUOUS
 62
     4
 10
566.125020
 20
820.796170
 11
563.759076
 21
819.116853
  0
LINE
  8
CSLAYER1
  6
CONTINUOUS
 62
     4
 10
563.759076
 20
819.116853
 11
561.670868
 21
817.331618
  0
LINE
  8
CSLAYER1
  6
CONTINUOUS
 62
     4
 10
561.670868
 20
817.331618
 11
559.876288
 21
815.454053
  0
LINE
  8
CSLAYER1
  6
CONTINUOUS
 62
     4
 10
559.876288
 20
815.454053
 11
558.388993
 21
813.498447
  0
LINE
  8
CSLAYER1
  6
CONTINUOUS
 62
     4
 10
558.388993
 20
813.498447
 11
557.220304
 21
811.479683
  0
LINE
  8
CSLAYER1
  6
CONTINUOUS
 62
     4
 10
557.220304
 20
811.479683
 11
556.379114
 21
809.413126
  0
LINE
  8
CSLAYER1
  6
CONTINUOUS
 62
     4
 10
556.379114
 20
809.413126
 11
555.871826
 21
807.314502
  0
LINE
  8
CSLAYER1
  6
CONTINUOUS
 62
     4
 10
555.871826
 20
807.314502
 11
555.702300
 21
805.199784
  0
LINE
  8
CSLAYER1
  6
CONTINUOUS
 62
     4
 10
301.752300
 20
1031.857810
 11
301.752300
 21
891.657810
  0
LINE
  8
CSLAYER1
  6
CONTINUOUS
 62
     4
 10
342.752300
 20
981.657810
 11
342.752300
 21
891.657810
  0
LINE
  8
CSLAYER1
  6
CONTINUOUS
 62
     4
 10
540.252300
 20
552.105136
 11
393.252300
 21
552.105136
  0
LINE
  8
CSLAYER1
  6
CONTINUOUS
 62
     4
 10
540.252300
 20
531.221938
 11
393.252300
 21
531.221938
  0
LINE
  8
CSLAYER1
  6
CONTINUOUS
 62
     4
 10
377.252300
 20
552.105136
 11
334.252300
 21
552.105136
  0
LINE
  8
CSLAYER1
  6
CONTINUOUS
 62
     4
 10
377.252300
 20
531.221938
 11
334.252300
 21
531.221938
  0
LINE
  8
CSLAYER1
  6
CONTINUOUS
 62
     4
 10
377.252300
 20
476.246739
 11
334.252300
 21
476.246739
  0
LINE
  8
CSLAYER1
  6
CONTINUOUS
 62
     4
 10
538.252300
 20
476.246739
 11
393.252300
 21
476.246739
  0
LINE
  8
CSLAYER1
  6
CONTINUOUS
 62
     4
 10
377.252300
 20
981.657810
 11
377.252300
 21
415.398381
  0
LINE
  8
CSLAYER1
  6
CONTINUOUS
 62
     4
 10
368.252300
 20
931.906419
 11
368.252300
 21
981.657810
  0
LINE
  8
CSLAYER1
  6
CONTINUOUS
 62
     4
 10
352.752300
 20
981.657810
 11
352.752300
 21
956.906419
  0
LINE
  8
CSLAYER1
  6
CONTINUOUS
 62
     4
 10
358.752300
 20
981.657810
 11
358.752300
 21
956.906419
  0
LINE
  8
CSLAYER1
  6
CONTINUOUS
 62
     4
 10
372.252300
 20
920.657810
 11
377.252300
 21
920.657810
  0
LINE
  8
CSLAYER1
  6
CONTINUOUS
 62
     4
 10
372.252300
 20
900.657810
 11
377.252300
 21
900.657810
  0
LINE
  8
CSLAYER1
  6
CONTINUOUS
 62
     4
 10
445.752300
 20
929.465244
 11
570.002300
 21
929.465244
  0
LINE
  8
CSLAYER1
  6
CONTINUOUS
 62
     4
 10
399.252300
 20
937.715244
 11
443.752300
 21
937.715244
  0
LINE
  8
CSLAYER1
  6
CONTINUOUS
 62
     4
 10
443.752300
 20
931.465244
 11
443.752300
 21
981.657810
  0
LINE
  8
CSLAYER1
  6
CONTINUOUS
 62
     4
 10
443.752300
 20
931.465244
 11
445.752300
 21
929.465244
  0
LINE
  8
CSLAYER1
  6
CONTINUOUS
 62
     4
 10
399.252300
 20
937.715244
 11
394.252300
 21
942.715244
  0
LINE
  8
CSLAYER1
  6
CONTINUOUS
 62
     4
 10
399.252300
 20
937.715244
 11
399.252300
 21
981.657810
  0
LINE
  8
CSLAYER1
  6
CONTINUOUS
 62
     4
 10
416.752300
 20
897.132554
 11
416.752300
 21
937.715244
  0
LINE
  8
CSLAYER1
  6
CONTINUOUS
 62
     4
 10
433.752300
 20
897.132554
 11
433.752300
 21
937.715244
  0
LINE
  8
CSLAYER1
  6
CONTINUOUS
 62
     4
 10
415.252300
 20
897.132554
 11
435.252300
 21
897.132554
  0
LINE
  8
CSLAYER1
  6
CONTINUOUS
 62
     4
 10
416.752300
 20
897.132554
 11
415.252300
 21
894.534478
  0
LINE
  8
CSLAYER1
  6
CONTINUOUS
 62
     4
 10
433.752300
 20
897.132554
 11
435.252300
 21
894.534478
  0
LINE
  8
CSLAYER1
  6
CONTINUOUS
 62
     4
 10
445.752300
 20
929.465244
 11
445.752300
 21
981.657810
  0
LINE
  8
CSLAYER1
  6
CONTINUOUS
 62
     4
 10
597.615838
 20
945.877881
 11
594.999442
 21
945.690278
  0
LINE
  8
CSLAYER1
  6
CONTINUOUS
 62
     4
 10
594.999442
 20
945.690278
 11
592.423024
 21
945.379192
  0
LINE
  8
CSLAYER1
  6
CONTINUOUS
 62
     4
 10
592.423024
 20
945.379192
 11
589.906190
 21
944.946991
  0
LINE
  8
CSLAYER1
  6
CONTINUOUS
 62
     4
 10
589.906190
 20
944.946991
 11
587.468097
 21
944.396965
  0
LINE
  8
CSLAYER1
  6
CONTINUOUS
 62
     4
 10
587.468097
 20
944.396965
 11
585.127300
 21
943.733299
  0
LINE
  8
CSLAYER1
  6
CONTINUOUS
 62
     4
 10
585.127300
 20
943.733299
 11
582.901612
 21
942.961045
  0
LINE
  8
CSLAYER1
  6
CONTINUOUS
 62
     4
 10
582.901612
 20
942.961045
 11
580.807974
 21
942.086080
  0
LINE
  8
CSLAYER1
  6
CONTINUOUS
 62
     4
 10
580.807974
 20
942.086080
 11
578.862319
 21
941.115062
  0
LINE
  8
CSLAYER1
  6
CONTINUOUS
 62
     4
 10
578.862319
 20
941.115062
 11
577.079455
 21
940.055383
  0
LINE
  8
CSLAYER1
  6
CONTINUOUS
 62
     4
 10
577.079455
 20
940.055383
 11
575.472950
 21
938.915106
  0
LINE
  8
CSLAYER1
  6
CONTINUOUS
 62
     4
 10
575.472950
 20
938.915106
 11
574.055031
 21
937.702909
  0
LINE
  8
CSLAYER1
  6
CONTINUOUS
 62
     4
 10
574.055031
 20
937.702909
 11
572.836489
 21
936.428020
  0
LINE
  8
CSLAYER1
  6
CONTINUOUS
 62
     4
 10
572.836489
 20
936.428020
 11
571.826598
 21
935.100139
  0
LINE
  8
CSLAYER1
  6
CONTINUOUS
 62
     4
 10
571.826598
 20
935.100139
 11
571.033043
 21
933.729373
  0
LINE
  8
CSLAYER1
  6
CONTINUOUS
 62
     4
 10
571.033043
 20
933.729373
 11
570.461865
 21
932.326155
  0
LINE
  8
CSLAYER1
  6
CONTINUOUS
 62
     4
 10
570.461865
 20
932.326155
 11
570.117410
 21
930.901164
  0
LINE
  8
CSLAYER1
  6
CONTINUOUS
 62
     4
 10
570.117410
 20
930.901164
 11
570.002300
 21
929.465244
  0
LINE
  8
CSLAYER1
  6
CONTINUOUS
 62
     4
 10
394.252300
 20
929.815244
 11
394.252300
 21
981.657810
  0
ARC
  8
CSLAYER1
  6
CONTINUOUS
 62
     4
 10
393.152300
 20
929.815244
 40
1.100000
 50
270.000000
 51
360.000000
  0
LINE
  8
CSLAYER1
  6
CONTINUOUS
 62
     3
 10
298.552300
 20
910.657810
 11
298.552300
 21
920.157810
  0
LINE
  8
CSLAYER1
  6
CONTINUOUS
 62
     4
 10
342.752300
 20
891.657810
 11
301.752300
 21
891.657810
  0
LINE
  8
CSLAYER1
  6
CONTINUOUS
 62
     4
 10
298.552300
 20
933.657810
 11
298.552300
 21
902.657810
  0
LINE
  8
CSLAYER1
  6
CONTINUOUS
 62
     4
 10
298.552300
 20
906.657810
 11
301.752300
 21
906.657810
  0
LINE
  8
CSLAYER1
  6
CONTINUOUS
 62
     5
 10
294.061426
 20
925.657810
 11
307.752300
 21
925.657810
  0
LINE
  8
CSLAYER1
  6
CONTINUOUS
 62
     4
 10
298.552300
 20
933.657810
 11
301.752300
 21
933.657810
  0
LINE
  8
CSLAYER1
  6
CONTINUOUS
 62
     4
 10
298.552300
 20
902.657810
 11
301.752300
 21
902.657810
  0
LINE
  8
CSLAYER1
  6
CONTINUOUS
 62
     4
 10
298.552300
 20
914.657810
 11
301.752300
 21
914.657810
  0
LINE
  8
CSLAYER1
  6
CONTINUOUS
 62
     4
 10
368.252300
 20
956.906419
 11
343.252300
 21
956.906419
  0
LINE
  8
CSLAYER1
  6
CONTINUOUS
 62
     4
 10
343.252300
 20
931.906419
 11
370.752300
 21
931.906419
  0
ARC
  8
CSLAYER1
  6
CONTINUOUS
 62
     4
 10
370.752300
 20
930.906419
 40
1.000000
 50
0.000000
 51
90.000000
  0
ARC
  8
CSLAYER1
  6
CONTINUOUS
 62
     4
 10
346.752300
 20
930.906419
 40
1.000000
 50
90.000000
 51
180.000000
  0
ARC
  8
CSLAYER1
  6
CONTINUOUS
 62
     4
 10
357.752300
 20
930.906419
 40
1.000000
 50
0.000000
 51
90.000000
  0
ARC
  8
CSLAYER1
  6
CONTINUOUS
 62
     4
 10
359.752300
 20
930.906419
 40
1.000000
 50
90.000000
 51
180.000000
  0
LINE
  8
CSLAYER1
  6
CONTINUOUS
 62
     3
 10
310.252300
 20
1031.857810
 11
310.252300
 21
981.657810
  0
LINE
  8
CSLAYER1
  6
CONTINUOUS
 62
     4
 10
399.194865
 20
981.657810
 11
394.252300
 21
976.715244
  0
LINE
  8
CSLAYER1
  6
CONTINUOUS
 62
     4
 10
374.752300
 20
972.215244
 11
375.902300
 21
972.215244
  0
LINE
  8
CSLAYER1
  6
CONTINUOUS
 62
     4
 10
375.902300
 20
974.765244
 11
377.252300
 21
974.765244
  0
LINE
  8
CSLAYER1
  6
CONTINUOUS
 62
     4
 10
375.902300
 20
974.765244
 11
375.902300
 21
944.665244
  0
LINE
  8
CSLAYER1
  6
CONTINUOUS
 62
     4
 10
373.252300
 20
970.715244
 11
373.252300
 21
948.715244
  0
LINE
  8
CSLAYER1
  6
CONTINUOUS
 62
     4
 10
373.252300
 20
970.715244
 11
374.752300
 21
972.215244
  0
LINE
  8
CSLAYER1
  6
CONTINUOUS
 62
     4
 10
374.752300
 20
972.215244
 11
374.752300
 21
947.215244
  0
LINE
  8
CSLAYER1
  6
CONTINUOUS
 62
     4
 10
374.752300
 20
947.215244
 11
375.902300
 21
947.215244
  0
LINE
  8
CSLAYER1
  6
CONTINUOUS
 62
     4
 10
375.902300
 20
944.665244
 11
377.252300
 21
944.665244
  0
LINE
  8
CSLAYER1
  6
CONTINUOUS
 62
     4
 10
373.252300
 20
948.715244
 11
374.752300
 21
947.215244
  0
LINE
  8
CSLAYER1
  6
CONTINUOUS
 62
     4
 10
371.752300
 20
930.906419
 11
371.752300
 21
890.906419
  0
LINE
  8
CSLAYER1
  6
CONTINUOUS
 62
     4
 10
345.252300
 20
922.458061
 11
345.252300
 21
899.354777
  0
LINE
  8
CSLAYER1
  6
CONTINUOUS
 62
     4
 10
344.102300
 20
922.458061
 11
344.102300
 21
899.354777
  0
LINE
  8
CSLAYER1
  6
CONTINUOUS
 62
     4
 10
342.752300
 20
918.406419
 11
344.044463
 21
918.406419
  0
LINE
  8
CSLAYER1
  6
CONTINUOUS
 62
     4
 10
344.102300
 20
922.458061
 11
345.252300
 21
922.458061
  0
LINE
  8
CSLAYER1
  6
CONTINUOUS
 62
     4
 10
345.252300
 20
918.406419
 11
345.752300
 21
918.406419
  0
LINE
  8
CSLAYER1
  6
CONTINUOUS
 62
     4
 10
345.752300
 20
930.906419
 11
345.752300
 21
890.906419
  0
LINE
  8
CSLAYER1
  6
CONTINUOUS
 62
     4
 10
346.752300
 20
889.906419
 11
357.752300
 21
889.906419
  0
LINE
  8
CSLAYER1
  6
CONTINUOUS
 62
     4
 10
342.752300
 20
903.406419
 11
344.044463
 21
903.406419
  0
LINE
  8
CSLAYER1
  6
CONTINUOUS
 62
     4
 10
344.102300
 20
899.354777
 11
345.252300
 21
899.354777
  0
LINE
  8
CSLAYER1
  6
CONTINUOUS
 62
     4
 10
345.252300
 20
903.406419
 11
345.752300
 21
903.406419
  0
ARC
  8
CSLAYER1
  6
CONTINUOUS
 62
     4
 10
370.752300
 20
890.906419
 40
1.000000
 50
270.000000
 51
360.000000
  0
ARC
  8
CSLAYER1
  6
CONTINUOUS
 62
     4
 10
346.752300
 20
890.906419
 40
1.000000
 50
180.000000
 51
270.000000
  0
ARC
  8
CSLAYER1
  6
CONTINUOUS
 62
     4
 10
357.752300
 20
890.906419
 40
1.000000
 50
270.000000
 51
360.000000
  0
ARC
  8
CSLAYER1
  6
CONTINUOUS
 62
     4
 10
359.752300
 20
890.906419
 40
1.000000
 50
180.000000
 51
270.000000
  0
LINE
  8
CSLAYER1
  6
CONTINUOUS
 62
     4
 10
370.752300
 20
889.906419
 11
359.752300
 21
889.906419
  0
LINE
  8
CSLAYER1
  6
CONTINUOUS
 62
     4
 10
371.752300
 20
910.906419
 11
372.752300
 21
910.906419
  0
LINE
  8
CSLAYER1
  6
CONTINUOUS
 62
     4
 10
372.252300
 20
920.906419
 11
371.752300
 21
920.406419
  0
LINE
  8
CSLAYER1
  6
CONTINUOUS
 62
     4
 10
372.252300
 20
900.906419
 11
371.752300
 21
901.406419
  0
LINE
  8
CSLAYER1
  6
CONTINUOUS
 62
     4
 10
358.752300
 20
890.906419
 11
358.752300
 21
930.906419
  0
LINE
  8
CSLAYER1
  6
CONTINUOUS
 62
     4
 10
372.252300
 20
920.906419
 11
377.252300
 21
920.906419
  0
LINE
  8
CSLAYER1
  6
CONTINUOUS
 62
     4
 10
372.252300
 20
900.906419
 11
377.252300
 21
900.906419
  0
LINE
  8
CSLAYER1
  6
CONTINUOUS
 62
     4
 10
393.252300
 20
624.028095
 11
394.252300
 21
624.028095
  0
LINE
  8
CSLAYER1
  6
CONTINUOUS
 62
     1
 10
394.252300
 20
661.094072
 11
394.252300
 21
601.186511
  0
LINE
  8
CSLAYER1
  6
CONTINUOUS
 62
     1
 10
534.252300
 20
693.492644
 11
394.252300
 21
661.094072
  0
LINE
  8
CSLAYER1
  6
CONTINUOUS
 62
     1
 10
534.252300
 20
670.033478
 11
394.252300
 21
637.634905
  0
LINE
  8
CSLAYER1
  6
CONTINUOUS
 62
     1
 10
534.252300
 20
568.787939
 11
394.252300
 21
601.186511
  0
LINE
  8
CSLAYER1
  6
CONTINUOUS
 62
     4
 10
438.777300
 20
673.797323
 11
443.152300
 21
673.797323
  0
LINE
  8
CSLAYER1
  6
CONTINUOUS
 62
     4
 10
445.002300
 20
690.567323
 11
445.002300
 21
683.017596
  0
LINE
  8
CSLAYER1
  6
CONTINUOUS
 62
     4
 10
443.152300
 20
691.567323
 11
444.002300
 21
691.567323
  0
LINE
  8
CSLAYER1
  6
CONTINUOUS
 62
     4
 10
443.152300
 20
682.017596
 11
444.002300
 21
682.017596
  0
ARC
  8
CSLAYER1
  6
CONTINUOUS
 62
     4
 10
444.002300
 20
690.567323
 40
1.000000
 50
0.000000
 51
90.000000
  0
ARC
  8
CSLAYER1
  6
CONTINUOUS
 62
     4
 10
444.002300
 20
683.017596
 40
1.000000
 50
270.000000
 51
360.000000
  0
LINE
  8
CSLAYER1
  6
CONTINUOUS
 62
     4
 10
411.727300
 20
673.797323
 11
407.352300
 21
673.797323
  0
LINE
  8
CSLAYER1
  6
CONTINUOUS
 62
     4
 10
405.502300
 20
690.567323
 11
405.502300
 21
683.017596
  0
LINE
  8
CSLAYER1
  6
CONTINUOUS
 62
     4
 10
407.352300
 20
691.567323
 11
406.502300
 21
691.567323
  0
LINE
  8
CSLAYER1
  6
CONTINUOUS
 62
     4
 10
407.352300
 20
682.017596
 11
406.502300
 21
682.017596
  0
ARC
  8
CSLAYER1
  6
CONTINUOUS
 62
     4
 10
406.502300
 20
690.567323
 40
1.000000
 50
90.000000
 51
180.000000
  0
ARC
  8
CSLAYER1
  6
CONTINUOUS
 62
     4
 10
406.502300
 20
683.017596
 40
1.000000
 50
180.000000
 51
270.000000
  0
POINT
  8
CSLAYER1
 62
     4
 10
425.252300
 20
686.797323
  0
LINE
  8
CSLAYER1
  6
CONTINUOUS
 62
     4
 10
415.727300
 20
701.847323
 11
411.727300
 21
701.847323
  0
LINE
  8
CSLAYER1
  6
CONTINUOUS
 62
     4
 10
415.727300
 20
701.847323
 11
415.727300
 21
666.063781
  0
LINE
  8
CSLAYER1
  6
CONTINUOUS
 62
     4
 10
416.727300
 20
677.272323
 11
433.777300
 21
677.272323
  0
LINE
  8
CSLAYER1
  6
CONTINUOUS
 62
     4
 10
416.727300
 20
696.322323
 11
433.777300
 21
696.322323
  0
ARC
  8
CSLAYER1
  6
CONTINUOUS
 62
     4
 10
416.727300
 20
678.272323
 40
1.000000
 50
180.000000
 51
270.000000
  0
ARC
  8
CSLAYER1
  6
CONTINUOUS
 62
     4
 10
416.727300
 20
695.322323
 40
1.000000
 50
90.000000
 51
180.000000
  0
LINE
  8
CSLAYER1
  6
CONTINUOUS
 62
     4
 10
434.777300
 20
701.847323
 11
438.777300
 21
701.847323
  0
LINE
  8
CSLAYER1
  6
CONTINUOUS
 62
     4
 10
434.777300
 20
701.847323
 11
434.777300
 21
670.472301
  0
ARC
  8
CSLAYER1
  6
CONTINUOUS
 62
     4
 10
433.777300
 20
678.272323
 40
1.000000
 50
270.000000
 51
360.000000
  0
ARC
  8
CSLAYER1
  6
CONTINUOUS
 62
     4
 10
433.777300
 20
695.322323
 40
1.000000
 50
0.000000
 51
90.000000
  0
LINE
  8
CSLAYER1
  6
CONTINUOUS
 62
     4
 10
417.252300
 20
701.547323
 11
433.252300
 21
701.547323
  0
LINE
  8
CSLAYER1
  6
CONTINUOUS
 62
     5
 10
400.136115
 20
686.797323
 11
450.101015
 21
686.797323
  0
LINE
  8
CSLAYER1
  6
CONTINUOUS
 62
     4
 10
411.727300
 20
670.922323
 11
411.727300
 21
665.138108
  0
DIMENSION
  8
CSLAYER1
 62
     7
  2
*D0005
 10
950.252300
 20
238.914363
 11
600.252319
 21
248.914261
 13
250.252300
 23
350.398381
 14
950.252300
 24
350.398381
 52
270.000000
 70
1
  0
LINE
  8
CSLAYER1
  6
CONTINUOUS
 62
     3
 10
1123.433257
 20
2122.060483
 11
2173.434961
 21
2122.060483
  0
LINE
  8
CSLAYER1
  6
CONTINUOUS
 62
     3
 10
1123.433257
 20
1322.060483
 11
2173.434961
 21
1322.060483
  0
DIMENSION
  8
CSLAYER1
 62
     7
  2
*D0006
 10
1017.017069
 20
2122.060483
 11
1007.017212
 21
1722.060181
 13
1123.433257
 23
1322.060483
 14
1123.433257
 24
2122.060483
 50
90.000000
 70
1
  0
LINE
  8
CSLAYER1
  6
CONTINUOUS
 62
     3
 10
2152.633257
 20
448.898381
 11
2152.633257
 21
415.398381
  0
LINE
  8
CSLAYER1
  6
CONTINUOUS
 62
     3
 10
2013.233257
 20
448.898381
 11
2013.233257
 21
415.398381
  0
LINE
  8
CSLAYER1
  6
CONTINUOUS
 62
     5
 10
2082.933257
 20
462.510368
 11
2082.933257
 21
450.984116
  0
LINE
  8
CSLAYER1
  6
CONTINUOUS
 62
     3
 10
2154.433257
 20
454.898381
 11
2011.433257
 21
454.898381
  0
LINE
  8
CSLAYER1
  6
CONTINUOUS
 62
     3
 10
2154.433257
 20
448.898381
 11
2152.633257
 21
448.898381
  0
LINE
  8
CSLAYER1
  6
CONTINUOUS
 62
     3
 10
2154.433257
 20
454.898381
 11
2154.433257
 21
448.898381
  0
LINE
  8
CSLAYER1
  6
CONTINUOUS
 62
     3
 10
2011.433257
 20
454.898381
 11
2011.433257
 21
448.898381
  0
LINE
  8
CSLAYER1
  6
CONTINUOUS
 62
     5
 10
2182.633257
 20
439.198381
 11
2182.633257
 21
422.198381
  0
LINE
  8
CSLAYER1
  6
CONTINUOUS
 62
     5
 10
2178.663690
 20
443.688762
 11
2164.035820
 21
443.688762
  0
LINE
  8
CSLAYER1
  6
CONTINUOUS
 62
     5
 10
2179.524162
 20
442.198381
 11
2179.524162
 21
419.198381
  0
LINE
  8
CSLAYER1
  6
CONTINUOUS
 62
     5
 10
2163.175348
 20
442.198381
 11
2163.175348
 21
419.198381
  0
LINE
  8
CSLAYER1
  6
CONTINUOUS
 62
     5
 10
2179.524162
 20
442.198381
 11
2178.663690
 21
443.688762
  0
LINE
  8
CSLAYER1
  6
CONTINUOUS
 62
     5
 10
2163.175348
 20
442.198381
 11
2164.035820
 21
443.688762
  0
LINE
  8
CSLAYER1
  6
CONTINUOUS
 62
     5
 10
2178.663690
 20
437.337909
 11
2164.035820
 21
437.337909
  0
ARC
  8
CSLAYER1
  6
CONTINUOUS
 62
     5
 10
2153.478137
 20
430.698381
 40
26.046025
 50
-14.768561
 51
14.768561
  0
ARC
  8
CSLAYER1
  6
CONTINUOUS
 62
     5
 10
2173.392569
 20
440.513336
 40
6.153702
 50
-31.065581
 51
23.174644
  0
ARC
  8
CSLAYER1
  6
CONTINUOUS
 62
     5
 10
2169.306941
 20
440.513336
 40
6.153702
 50
156.825356
 51
211.065581
  0
ARC
  8
CSLAYER1
  6
CONTINUOUS
 62
     5
 10
2189.221373
 20
430.698381
 40
26.046025
 50
165.231439
 51
194.768561
  0
LINE
  8
CSLAYER1
  6
CONTINUOUS
 62
     5
 10
2179.633257
 20
442.198381
 11
2179.524162
 21
442.198381
  0
ARC
  8
CSLAYER1
  6
CONTINUOUS
 62
     5
 10
2179.633257
 20
439.198381
 40
3.000000
 50
0.000000
 51
90.000000
  0
LINE
  8
CSLAYER1
  6
CONTINUOUS
 62
     5
 10
2159.633257
 20
442.198381
 11
2159.633257
 21
419.198381
  0
LINE
  8
CSLAYER1
  6
CONTINUOUS
 62
     5
 10
2159.633257
 20
442.198381
 11
2158.772785
 21
443.688762
  0
ARC
  8
CSLAYER1
  6
CONTINUOUS
 62
     5
 10
2133.587232
 20
430.698381
 40
26.046025
 50
-14.768561
 51
14.768561
  0
ARC
  8
CSLAYER1
  6
CONTINUOUS
 62
     5
 10
2153.501664
 20
440.513336
 40
6.153702
 50
-31.065581
 51
23.174644
  0
LINE
  8
CSLAYER1
  6
CONTINUOUS
 62
     5
 10
2158.772785
 20
437.337909
 11
2152.633257
 21
437.337909
  0
LINE
  8
CSLAYER1
  6
CONTINUOUS
 62
     5
 10
2158.772785
 20
443.688762
 11
2152.633257
 21
443.688762
  0
LINE
  8
CSLAYER1
  6
CONTINUOUS
 62
     5
 10
2163.175348
 20
441.034505
 11
2159.633257
 21
441.034505
  0
LINE
  8
CSLAYER1
  6
CONTINUOUS
 62
     5
 10
2163.175348
 20
440.388127
 11
2161.568986
 21
440.388127
  0
LINE
  8
CSLAYER1
  6
CONTINUOUS
 62
     5
 10
2161.568986
 20
441.034505
 11
2161.568986
 21
420.362257
  0
LINE
  8
CSLAYER1
  6
CONTINUOUS
 62
     5
 10
2161.568986
 20
440.388127
 11
2160.434134
 21
441.034505
  0
LINE
  8
CSLAYER1
  6
CONTINUOUS
 62
     5
 10
2178.663690
 20
417.708000
 11
2164.035820
 21
417.708000
  0
LINE
  8
CSLAYER1
  6
CONTINUOUS
 62
     5
 10
2179.524162
 20
419.198381
 11
2178.663690
 21
417.708000
  0
LINE
  8
CSLAYER1
  6
CONTINUOUS
 62
     5
 10
2163.175348
 20
419.198381
 11
2164.035820
 21
417.708000
  0
LINE
  8
CSLAYER1
  6
CONTINUOUS
 62
     5
 10
2178.663690
 20
424.058853
 11
2164.035820
 21
424.058853
  0
ARC
  8
CSLAYER1
  6
CONTINUOUS
 62
     5
 10
2173.392569
 20
420.883426
 40
6.153702
 50
-23.174644
 51
31.065581
  0
ARC
  8
CSLAYER1
  6
CONTINUOUS
 62
     5
 10
2169.306941
 20
420.883426
 40
6.153702
 50
148.934419
 51
203.174644
  0
LINE
  8
CSLAYER1
  6
CONTINUOUS
 62
     5
 10
2179.633257
 20
419.198381
 11
2179.524162
 21
419.198381
  0
ARC
  8
CSLAYER1
  6
CONTINUOUS
 62
     5
 10
2179.633257
 20
422.198381
 40
3.000000
 50
270.000000
 51
360.000000
  0
LINE
  8
CSLAYER1
  6
CONTINUOUS
 62
     5
 10
2159.633257
 20
419.198381
 11
2158.772785
 21
417.708000
  0
ARC
  8
CSLAYER1
  6
CONTINUOUS
 62
     5
 10
2153.501664
 20
420.883426
 40
6.153702
 50
-23.174644
 51
31.065581
  0
LINE
  8
CSLAYER1
  6
CONTINUOUS
 62
     5
 10
2158.772785
 20
424.058853
 11
2152.633257
 21
424.058853
  0
LINE
  8
CSLAYER1
  6
CONTINUOUS
 62
     5
 10
2158.772785
 20
417.708000
 11
2152.633257
 21
417.708000
  0
LINE
  8
CSLAYER1
  6
CONTINUOUS
 62
     5
 10
2163.175348
 20
420.362257
 11
2159.633257
 21
420.362257
  0
LINE
  8
CSLAYER1
  6
CONTINUOUS
 62
     5
 10
2163.175348
 20
421.008634
 11
2161.568986
 21
421.008634
  0
LINE
  8
CSLAYER1
  6
CONTINUOUS
 62
     5
 10
2161.568986
 20
421.008634
 11
2160.434134
 21
420.362257
  0
LINE
  8
CSLAYER1
  6
CENTER
 62
     5
 10
2216.389278
 20
430.698381
 11
2145.582563
 21
430.698381
  0
LINE
  8
CSLAYER1
  6
CONTINUOUS
 62
     5
 10
2216.201237
 20
434.498381
 11
2182.633257
 21
434.498381
  0
LINE
  8
CSLAYER1
  6
CONTINUOUS
 62
     5
 10
2217.517525
 20
426.898381
 11
2182.633257
 21
426.898381
  0
LINE
  8
CSLAYER1
  6
CONTINUOUS
 62
     5
 10
2152.633257
 20
448.898381
 11
2013.233257
 21
448.898381
  0
LINE
  8
CSLAYER1
  6
CONTINUOUS
 62
     3
 10
2013.233257
 20
448.898381
 11
2011.433257
 21
448.898381
  0
INSERT
  8
CSLAYER1
  2
BLKF0001
 10
0.0
 20
0.0
 30
0.0
  0
LINE
  8
CSLAYER1
  6
CENTER
 62
     5
 10
1090.920424
 20
1722.060483
 11
2173.434961
 21
1722.060483
  0
LINE
  8
CSLAYER1
  6
CONTINUOUS
 62
     1
 10
780.752300
 20
457.898381
 11
780.752300
 21
455.698381
  0
LINE
  8
CSLAYER1
  6
CONTINUOUS
 62
     1
 10
783.621778
 20
456.698381
 11
780.752300
 21
456.698381
  0
LINE
  8
CSLAYER1
  6
CONTINUOUS
 62
     1
 10
785.952300
 20
459.298381
 11
782.152300
 21
459.298381
  0
LINE
  8
CSLAYER1
  6
CONTINUOUS
 62
     1
 10
779.752300
 20
455.698381
 11
779.752300
 21
454.898381
  0
LINE
  8
CSLAYER1
  6
CONTINUOUS
 62
     1
 10
783.499882
 20
455.698381
 11
779.752300
 21
455.698381
  0
ARC
  8
CSLAYER1
  6
CONTINUOUS
 62
     1
 10
782.152300
 20
457.898381
 40
1.400000
 50
90.000000
 51
180.000000
  0
LINE
  8
CSLAYER1
  6
CONTINUOUS
 62
     1
 10
783.587027
 20
456.413299
 11
782.907049
 21
456.698381
  0
LINE
  8
CSLAYER1
  6
CONTINUOUS
 62
     3
 10
661.629431
 20
454.898381
 11
783.402365
 21
454.898381
  0
LINE
  8
CSLAYER1
  6
CONTINUOUS
 62
     5
 10
660.230386
 20
448.898381
 11
782.670989
 21
448.898381
  0
TEXT
  8
CSLAYER1
 62
     5
 10
974.968506
 20
736.181335
 40
40.000000
 41
0.782609
  1
ギヤードモーター
 50
0.000000
 51
0.000000
  7
EASYDRAW_FONT
 72
     5
 11
1214.968506
 21
736.181335
  0
TEXT
  8
CSLAYER1
 62
     5
 10
983.734253
 20
630.230652
 40
40.000000
 41
0.803571
  1
上限・下限
 50
0.000000
 51
0.000000
  7
EASYDRAW_FONT
 72
     5
 11
1133.734253
 21
630.230652
  0
TEXT
  8
CSLAYER1
 62
     5
 10
944.416138
 20
581.985291
 40
40.000000
 41
0.782609
  1
リミットスイッチ
 50
0.000000
 51
0.000000
  7
EASYDRAW_FONT
 72
     5
 11
1184.416138
 21
581.985291
  0
LINE
  8
CSLAYER1
  6
CONTINUOUS
 62
     5
 10
944.136838
 20
625.149999
 11
1190.270582
 21
625.149999
  0
LINE
  8
CSLAYER1
  6
CONTINUOUS
 62
     5
 10
970.561600
 20
731.770504
 11
1221.044185
 21
731.770504
  0
LINE
  8
CSLAYER1
  6
CONTINUOUS
 62
     3
 10
2256.982258
 20
1718.360483
 11
2467.520003
 21
1718.360483
  0
LINE
  8
CSLAYER1
  6
CONTINUOUS
 62
     3
 10
2256.449621
 20
1725.360483
 11
2467.520003
 21
1725.360483
  0
ARC
  8
CSLAYER1
  6
CONTINUOUS
 62
     3
 10
2263.287018
 20
1678.860483
 40
40.000000
 50
-260.931278
 51
63.817766
  0
ARC
  8
CSLAYER1
  6
CONTINUOUS
 62
     3
 10
2263.287018
 20
1678.860483
 40
47.000000
 50
-261.635125
 51
49.860785
  0
LINE
  8
CSLAYER1
  6
CONTINUOUS
 62
     3
 10
2173.434961
 20
1718.360483
 11
2233.295402
 21
1718.360483
  0
LINE
  8
CSLAYER1
  6
CONTINUOUS
 62
     3
 10
2173.434961
 20
1725.360483
 11
2244.002293
 21
1725.360483
  0
LINE
  8
CSLAYER1
  6
CONTINUOUS
 62
     3
 10
2173.434961
 20
1760.560483
 11
2288.879929
 21
1760.560483
  0
LINE
  8
CSLAYER1
  6
CONTINUOUS
 62
     3
 10
2173.434961
 20
1753.560483
 11
2298.761720
 21
1753.560483
  0
LINE
  8
CSLAYER1
  6
CONTINUOUS
 62
     3
 10
2535.380246
 20
1907.172722
 11
2540.450874
 21
1909.082439
  0
LINE
  8
CSLAYER1
  6
CONTINUOUS
 62
     3
 10
2540.450874
 20
1909.082439
 11
2546.875506
 21
1909.260901
  0
LINE
  8
CSLAYER1
  6
CONTINUOUS
 62
     3
 10
2534.325916
 20
1908.561824
 11
2539.974976
 21
1910.926547
  0
LINE
  8
CSLAYER1
  6
CONTINUOUS
 62
     3
 10
2539.974976
 20
1910.926547
 11
2545.328835
 21
1912.235268
  0
LINE
  8
CSLAYER1
  6
CONTINUOUS
 62
     3
 10
2533.483722
 20
1909.671434
 11
2538.368818
 21
1912.532705
  0
LINE
  8
CSLAYER1
  6
CONTINUOUS
 62
     3
 10
2538.368818
 20
1912.532705
 11
2540.688824
 21
1915.863995
  0
ARC
  8
CSLAYER1
  6
CONTINUOUS
 62
     3
 10
2320.414870
 20
1800.560483
 40
47.000000
 50
-10.756396
 51
307.198537
  0
ARC
  8
CSLAYER1
  6
CONTINUOUS
 62
     3
 10
2320.414870
 20
1800.560483
 40
40.000000
 50
-23.471057
 51
307.198537
  0
LINE
  8
CSLAYER1
  6
CONTINUOUS
 62
     3
 10
2536.564000
 20
1905.613102
 11
2348.830072
 21
1763.122851
  0
LINE
  8
CSLAYER1
  6
CONTINUOUS
 62
     3
 10
2532.331948
 20
1911.188920
 11
2344.598020
 21
1768.698669
  0
LINE
  8
CSLAYER1
  6
CONTINUOUS
 62
     3
 10
2536.564000
 20
1905.613102
 11
2532.331948
 21
1911.188920
  0
TEXT
  8
CSLAYER1
 62
     5
 10
2639.587646
 20
2269.367188
 40
40.000000
 41
1.028571
  1
電源コード
 50
360.000000
 51
0.000000
  7
EASYDRAW_FONT
 72
     5
 11
2831.587646
 21
2269.367188
  0
TEXT
  8
CSLAYER1
 62
     5
 10
2658.219727
 20
2218.754883
 40
40.000000
 41
1.036364
  1
長サ４ｍ
 50
360.000000
 51
0.000000
  7
EASYDRAW_FONT
 72
     5
 11
2810.219727
 21
2218.754883
  0
TEXT
  8
CSLAYER1
 62
     5
 10
2657.583496
 20
2140.270996
 40
40.000000
 41
1.020000
  1
フットスイッチ
 50
360.000000
 51
0.000000
  7
EASYDRAW_FONT
 72
     5
 11
2929.583496
 21
2140.270996
  0
TEXT
  8
CSLAYER1
 62
     5
 10
2660.371338
 20
2085.626465
 40
40.000000
 41
1.020000
  1
ＵＰ・ＤＯＷＮ
 50
360.000000
 51
0.000000
  7
EASYDRAW_FONT
 72
     5
 11
2932.371338
 21
2085.626465
  0
LINE
  8
CSLAYER1
  6
CONTINUOUS
 62
     5
 10
792.463108
 20
487.653329
 11
944.136838
 21
625.149999
  0
LINE
  8
CSLAYER1
  6
CONTINUOUS
 62
     5
 10
792.463108
 20
487.653329
 11
808.717335
 21
512.868406
  0
LINE
  8
CSLAYER1
  6
CONTINUOUS
 62
     5
 10
792.463108
 20
487.653329
 11
819.147220
 21
501.363112
  0
LINE
  8
CSLAYER1
  6
CONTINUOUS
 62
     5
 10
1264.595306
 20
603.216960
 11
1221.044185
 21
731.770504
  0
LINE
  8
CSLAYER1
  6
CONTINUOUS
 62
     5
 10
1264.595306
 20
603.216960
 11
1247.943330
 21
628.171151
  0
LINE
  8
CSLAYER1
  6
CONTINUOUS
 62
     5
 10
1264.595306
 20
603.216960
 11
1262.651367
 21
633.153912
  0
TEXT
  8
CSLAYER1
 62
     5
 10
2450.017578
 20
354.012665
 40
40.000000
 41
0.843750
  1
Ｆ.Ｌ
 50
0.000000
 51
0.000000
  7
EASYDRAW_FONT
 72
     5
 11
2540.017578
 21
354.012665
  0
LINE
  8
CSLAYER1
  6
CONTINUOUS
 62
     5
 10
360.153941
 20
631.140291
 11
412.023472
 21
631.140291
  0
LINE
  8
CSLAYER1
  6
CONTINUOUS
 62
     5
 10
840.350659
 20
631.140291
 11
788.481127
 21
631.140291
  0
LINE
  8
CSLAYER1
  6
CONTINUOUS
 62
     5
 10
2623.980048
 20
2263.796828
 11
2836.812336
 21
2263.796828
  0
LINE
  8
CSLAYER1
  6
CONTINUOUS
 62
     4
 10
778.452300
 20
415.398381
 11
778.452300
 21
441.060126
  0
LINE
  8
CSLAYER1
  6
CONTINUOUS
 62
     5
 10
772.623123
 20
433.315447
 11
807.163253
 21
433.315447
  0
LINE
  8
CSLAYER1
  6
CONTINUOUS
 62
     4
 10
777.252300
 20
438.315447
 11
778.452300
 21
438.315447
  0
LINE
  8
CSLAYER1
  6
CONTINUOUS
 62
     4
 10
777.252300
 20
428.315447
 11
778.452300
 21
428.315447
  0
LINE
  8
CSLAYER1
  6
CONTINUOUS
 62
     2
 10
778.452300
 20
428.009156
 11
781.452300
 21
428.009156
  0
LINE
  8
CSLAYER1
  6
CONTINUOUS
 62
     2
 10
778.452300
 20
432.356376
 11
781.452300
 21
432.356376
  0
LINE
  8
CSLAYER1
  6
CONTINUOUS
 62
     4
 10
778.452300
 20
441.060126
 11
782.452300
 21
441.060126
  0
LINE
  8
CSLAYER1
  6
CONTINUOUS
 62
     2
 10
781.452300
 20
415.398381
 11
781.452300
 21
441.060126
  0
LINE
  8
CSLAYER1
  6
CONTINUOUS
 62
     2
 10
785.952300
 20
470.891979
 11
787.452300
 21
470.891979
  0
LINE
  8
CSLAYER1
  6
CONTINUOUS
 62
     4
 10
785.952300
 20
471.400186
 11
787.452300
 21
471.400186
  0
LINE
  8
CSLAYER1
  6
CONTINUOUS
 62
     4
 10
797.452300
 20
415.398381
 11
797.452300
 21
441.060126
  0
LINE
  8
CSLAYER1
  6
CONTINUOUS
 62
     4
 10
785.952300
 20
459.088449
 11
785.952300
 21
471.400186
  0
LINE
  8
CSLAYER1
  6
CONTINUOUS
 62
     4
 10
792.952300
 20
459.088449
 11
792.952300
 21
471.400186
  0
LINE
  8
CSLAYER1
  6
CONTINUOUS
 62
     2
 10
782.452300
 20
431.773952
 11
782.452300
 21
441.060126
  0
LINE
  8
CSLAYER1
  6
CONTINUOUS
 62
     2
 10
796.452300
 20
431.773952
 11
796.452300
 21
441.060126
  0
LINE
  8
CSLAYER1
  6
CONTINUOUS
 62
     2
 10
787.452300
 20
459.088449
 11
787.452300
 21
471.400186
  0
LINE
  8
CSLAYER1
  6
CONTINUOUS
 62
     2
 10
791.452300
 20
459.088449
 11
791.452300
 21
471.400186
  0
LINE
  8
CSLAYER1
  6
CONTINUOUS
 62
     4
 10
783.913117
 20
459.088449
 11
785.952300
 21
459.088449
  0
LINE
  8
CSLAYER1
  6
CONTINUOUS
 62
     4
 10
796.452300
 20
447.104311
 11
794.991482
 21
459.088449
  0
LINE
  8
CSLAYER1
  6
CONTINUOUS
 62
     4
 10
782.452300
 20
447.104311
 11
783.913117
 21
459.088449
  0
LINE
  8
CSLAYER1
  6
CONTINUOUS
 62
     4
 10
792.952300
 20
459.088449
 11
794.991482
 21
459.088449
  0
LINE
  8
CSLAYER1
  6
CONTINUOUS
 62
     2
 10
781.452300
 20
431.773952
 11
797.452300
 21
431.773952
  0
LINE
  8
CSLAYER1
  6
CONTINUOUS
 62
     2
 10
798.452300
 20
425.522989
 11
798.452300
 21
433.122989
  0
LINE
  8
CSLAYER1
  6
CONTINUOUS
 62
     2
 10
798.452300
 20
425.522989
 11
797.452300
 21
425.522989
  0
LINE
  8
CSLAYER1
  6
CONTINUOUS
 62
     2
 10
798.452300
 20
433.122989
 11
797.452300
 21
433.122989
  0
LINE
  8
CSLAYER1
  6
CONTINUOUS
 62
     2
 10
801.052300
 20
427.822989
 11
801.052300
 21
430.822989
  0
LINE
  8
CSLAYER1
  6
CONTINUOUS
 62
     2
 10
799.052300
 20
425.822989
 11
798.452300
 21
425.822989
  0
LINE
  8
CSLAYER1
  6
CONTINUOUS
 62
     2
 10
799.052300
 20
432.822989
 11
798.452300
 21
432.822989
  0
ARC
  8
CSLAYER1
  6
CONTINUOUS
 62
     2
 10
799.052300
 20
427.822989
 40
2.000000
 50
270.000000
 51
360.000000
  0
ARC
  8
CSLAYER1
  6
CONTINUOUS
 62
     2
 10
799.052300
 20
430.822989
 40
2.000000
 50
0.000000
 51
90.000000
  0
LINE
  8
CSLAYER1
  6
CONTINUOUS
 62
     4
 10
796.452300
 20
441.060126
 11
797.452300
 21
441.060126
  0
LINE
  8
CSLAYER1
  6
CONTINUOUS
 62
     2
 10
791.452300
 20
470.891979
 11
792.952300
 21
470.891979
  0
LINE
  8
CSLAYER1
  6
CONTINUOUS
 62
     4
 10
791.452300
 20
471.400186
 11
792.952300
 21
471.400186
  0
LINE
  8
CSLAYER1
  6
CONTINUOUS
 62
     4
 10
785.210545
 20
488.723171
 11
786.706238
 21
487.825755
  0
LINE
  8
CSLAYER1
  6
CONTINUOUS
 62
     4
 10
786.706238
 20
487.825755
 11
795.680399
 21
480.048150
  0
LINE
  8
CSLAYER1
  6
CONTINUOUS
 62
     4
 10
777.252300
 20
438.315447
 11
777.252300
 21
428.315447
  0
LINE
  8
CSLAYER1
  6
CONTINUOUS
 62
     4
 10
797.452300
 20
438.315447
 11
807.252300
 21
438.315447
  0
LINE
  8
CSLAYER1
  6
CONTINUOUS
 62
     4
 10
800.990723
 20
428.315447
 11
807.252300
 21
428.315447
  0
LINE
  8
CSLAYER1
  6
CONTINUOUS
 62
     4
 10
796.452300
 20
441.060126
 11
796.452300
 21
447.104311
  0
LINE
  8
CSLAYER1
  6
CONTINUOUS
 62
     4
 10
782.452300
 20
441.060126
 11
782.452300
 21
447.104311
  0
LINE
  8
CSLAYER1
  6
CONTINUOUS
 62
     4
 10
791.452300
 20
471.400186
 11
791.452300
 21
483.338675
  0
LINE
  8
CSLAYER1
  6
CONTINUOUS
 62
     4
 10
787.452300
 20
471.400186
 11
787.452300
 21
487.378118
  0
LINE
  8
CSLAYER1
  6
CONTINUOUS
 62
     2
 10
785.952300
 20
459.088449
 11
792.952300
 21
459.088449
  0
LINE
  8
CSLAYER1
  6
CONTINUOUS
 62
     5
 10
2640.329654
 20
2132.581529
 11
2939.338512
 21
2132.581529
  0
TEXT
  8
CSLAYER1
 62
     4
 10
2692.322266
 20
1241.321655
 40
40.000000
 41
1.036364
  1
操作方式
 50
0.000000
 51
0.000000
  7
EASYDRAW_FONT
 72
     5
 11
2844.322266
 21
1241.321655
  0
TEXT
  8
CSLAYER1
 62
     4
 10
2971.432861
 20
1235.046265
 40
40.000000
 41
1.020000
  1
フットスイッチ
 50
0.000000
 51
0.000000
  7
EASYDRAW_FONT
 72
     5
 11
3243.432861
 21
1235.046265
  0
LINE
  8
CSLAYER1
  6
CONTINUOUS
 62
     5
 10
3403.452637
 20
1229.295697
 11
2682.580120
 21
1229.295697
  0
LINE
  8
CSLAYER1
  6
CONTINUOUS
 62
     5
 10
3403.452637
 20
1165.295699
 11
2682.580120
 21
1165.295699
  0
TEXT
  8
CSLAYER1
 62
     4
 10
2693.753418
 20
1175.248901
 40
40.000000
 41
0.872727
  1
モーター
 50
0.000000
 51
0.000000
  7
EASYDRAW_FONT
 72
     5
 11
2821.753418
 21
1175.248901
  0
LINE
  8
CSLAYER1
  6
CONTINUOUS
 62
     5
 10
3403.452637
 20
1101.295701
 11
2682.580120
 21
1101.295701
  0
LINE
  8
CSLAYER1
  6
CONTINUOUS
 62
     5
 10
3403.452637
 20
973.295704
 11
2680.441618
 21
973.295704
  0
LINE
  8
CSLAYER1
  6
CONTINUOUS
 62
     5
 10
3403.452637
 20
909.295705
 11
2682.580120
 21
909.295705
  0
LINE
  8
CSLAYER1
  6
CONTINUOUS
 62
     5
 10
3403.452637
 20
845.295707
 11
2682.580120
 21
845.295707
  0
TEXT
  8
CSLAYER1
 62
     4
 10
2696.334961
 20
856.417603
 40
40.000000
 41
0.857143
  1
自  　重
 50
0.000000
 51
0.000000
  7
EASYDRAW_FONT
 72
     5
 11
2856.334961
 21
856.417603
  0
TEXT
  8
CSLAYER1
 62
     4
 10
2700.099365
 20
792.992310
 40
40.000000
 41
0.847059
  1
塗　装　色 
 50
0.000000
 51
0.000000
  7
EASYDRAW_FONT
 72
     5
 11
2892.099365
 21
792.992310
  0
TEXT
  8
CSLAYER1
 62
     4
 10
2924.859863
 20
1176.165894
 40
40.000000
 41
0.819512
  1
３相ＡＣ２００Ｖ、0.4ＫＷ
 50
0.000000
 51
0.000000
  7
EASYDRAW_FONT
 72
     5
 11
3372.859863
 21
1176.165894
  0
TEXT
  8
CSLAYER1
 62
     4
 10
3055.843262
 20
1112.322632
 40
40.000000
 41
0.840000
  1
長サ  ４ ｍ
 50
0.000000
 51
0.000000
  7
EASYDRAW_FONT
 72
     5
 11
3279.843262
 21
1112.322632
  0
TEXT
  8
CSLAYER1
 62
     3
 10
3168.482910
 20
858.316772
 40
40.000000
 41
0.847059
  1
１８８　Ｋｇ
 50
0.000000
 51
0.000000
  7
EASYDRAW_FONT
 72
     5
 11
3360.482910
 21
858.316772
  0
LINE
  8
CSLAYER1
  6
CONTINUOUS
 62
     5
 10
3403.452637
 20
1037.295702
 11
2682.580120
 21
1037.295702
  0
TEXT
  8
CSLAYER1
 62
     4
 10
2694.669678
 20
1111.932007
 40
40.000000
 41
0.942857
  1
電源コード
 50
0.000000
 51
0.000000
  7
EASYDRAW_FONT
 72
     5
 11
2870.669678
 21
1111.932007
  0
TEXT
  8
CSLAYER1
 62
     4
 10
2695.098648
 20
1042.810556
 40
47.730206
 41
0.593339
  1
昇降時間 ２２秒（50HZ） １８秒(60HZ)
 50
0.000000
 51
0.000000
  7
EASYDRAW_FONT
 72
     5
 11
3365.343734
 21
1042.810556
  0
TEXT
  8
CSLAYER1
 62
     4
 10
2696.399414
 20
917.367310
 40
40.000000
 41
0.912766
  1
上昇端、下降端リミットスイッチ付
 50
0.000000
 51
0.000000
  7
EASYDRAW_FONT
 72
     5
 11
3268.399414
 21
917.367310
  0
TEXT
  8
CSLAYER1
 62
     4
 10
2698.246149
 20
982.030689
 40
45.879784
 41
0.605080
  1
最大使用頻度８０回／時間・最大起動頻度１０回／分
 50
0.000000
 51
0.000000
  7
EASYDRAW_FONT
 72
     5
 11
3355.254828
 21
982.030689
  0
LINE
  8
CSLAYER1
  6
CONTINUOUS
 62
     5
 10
3403.452637
 20
1286.627702
 11
2682.580120
 21
1286.627702
  0
TEXT
  8
CSLAYER1
 62
     4
 10
2893.271240
 20
1295.866089
 40
40.000000
 41
0.825000
  1
マグネットスイッチ制御
 50
0.000000
 51
0.000000
  7
EASYDRAW_FONT
 72
     5
 11
3245.271240
 21
1295.866089
  0
TEXT
  8
CSLAYER1
 62
     4
 10
2696.021484
 20
1296.372437
 40
40.000000
 41
0.872727
  1
制御方式
 50
0.000000
 51
0.000000
  7
EASYDRAW_FONT
 72
     5
 11
2824.021484
 21
1296.372437
  0
LINE
  8
CSLAYER1
  6
CONTINUOUS
 62
     5
 10
2623.980048
 20
2263.796828
 11
2544.466359
 21
1922.841161
  0
LINE
  8
CSLAYER1
  6
CONTINUOUS
 62
     5
 10
2544.466359
 20
1922.841161
 11
2543.485952
 21
1952.825137
  0
LINE
  8
CSLAYER1
  6
CONTINUOUS
 62
     5
 10
2544.466359
 20
1922.841161
 11
2558.609290
 21
1949.298249
  0
LINE
  8
CSLAYER1
  6
CONTINUOUS
 62
     5
 10
2640.329654
 20
2132.581529
 11
2561.555243
 21
1794.360483
  0
LINE
  8
CSLAYER1
  6
CONTINUOUS
 62
     5
 10
2561.555243
 20
1794.360483
 11
2560.566298
 21
1824.344178
  0
LINE
  8
CSLAYER1
  6
CONTINUOUS
 62
     5
 10
2561.555243
 20
1794.360483
 11
2575.690639
 21
1820.821597
  0
TEXT
  8
CSLAYER1
 62
     5
 10
2660.371338
 20
2040.611816
 40
40.000000
 41
1.020000
  1
コード長サ２ｍ
 50
360.000000
 51
0.000000
  7
EASYDRAW_FONT
 72
     5
 11
2932.371338
 21
2040.611816
  0
TEXT
  8
CSLAYER1
 62
     3
 10
2692.322266
 20
1810.653687
 40
40.000000
 41
1.036364
  1
積載荷重
 50
0.000000
 51
0.000000
  7
EASYDRAW_FONT
 72
     5
 11
2844.322266
 21
1810.653687
  0
LINE
  8
CSLAYER1
  6
CONTINUOUS
 62
     5
 10
3403.452637
 20
781.295709
 11
2682.580120
 21
781.295709
  0
TEXT
  8
CSLAYER1
 62
     4
 10
3007.882080
 20
791.966919
 40
40.000000
 41
0.926087
  1
　１０Ｒ４／１３
 50
0.000000
 51
0.000000
  7
EASYDRAW_FONT
 72
     5
 11
3291.882080
 21
791.966919
  0
INSERT
  8
CSLAYER1
  2
BLKF0002
 10
0.0
 20
0.0
 30
0.0
  0
ENDSEC
  0
EOF
