  0
SECTION
  2
HEADER
  9
$ACADVER
  1
AC1006
  9
$INSBASE
 10
253.131107
 20
3428.061889
 30
0.0
  9
$EXTMIN
 10
253.131107
 20
3428.061889
  9
$EXTMAX
 10
5713.131107
 20
7283.061889
  9
$LIMMIN
 10
253.131107
 20
3428.061889
  9
$LIMMAX
 10
5713.131107
 20
7283.061889
  9
$VIEWCTR
 10
2983.131107
 20
5355.561889
  9
$VIEWSIZE
 40
3855.000000
  9
$SNAPMODE
 70
     0
  9
$SNAPUNIT
 10
1.0
 20
1.0
  9
$SNAPBASE
 10
0.0
 20
0.0
  9
$SNAPANG
 50
0.0
  9
$SNAPSTYLE
 70
     0
  9
$SNAPISOPAIR
 70
     0
  9
$GRIDMODE
 70
     0
  9
$GRIDUNIT
 10
0.0
 20
0.0
  9
$ORTHOMODE
 70
     0
  9
$REGENMODE
 70
     1
  9
$FILLMODE
 70
     1
  9
$QTEXTMODE
 70
     0
  9
$DRAGMODE
 70
     2
  9
$LTSCALE
 40
15.000000
  9
$OSMODE
 70
     0
  9
$ATTMODE
 70
     1
  9
$TEXTSIZE
 40
0.2
  9
$TRACEWID
 40
0.05
  9
$TEXTSTYLE
  7
STANDARD
  9
$CLAYER
  8
CSLAYER1
  9
$CELTYPE
  6
BYLAYER
  9
$CECOLOR
 62
   256
  9
$DIMSCALE
 40
1.0
  9
$DIMASZ
 40
0.18
  9
$DIMEXO
 40
0.0625
  9
$DIMDLI
 40
0.38
  9
$DIMRND
 40
0.0
  9
$DIMDLE
 40
0.0
  9
$DIMEXE
 40
0.18
  9
$DIMTP
 40
0.0
  9
$DIMTM
 40
0.0
  9
$DIMTXT
 40
0.18
  9
$DIMCEN
 40
0.09
  9
$DIMTSZ
 40
0.0
  9
$DIMTOL
 70
     0
  9
$DIMLIM
 70
     0
  9
$DIMTIH
 70
     1
  9
$DIMTOH
 70
     1
  9
$DIMSE1
 70
     0
  9
$DIMSE2
 70
     0
  9
$DIMTAD
 70
     0
  9
$DIMZIN
 70
     0
  9
$DIMBLK
  1

  9
$LUNITS
 70
     2
  9
$LUPREC
 70
     4
  9
$AXISMODE
 70
     0
  9
$AXISUNIT
 10
0.0
 20
0.0
  9
$SKETCHINC
 40
0.1
  9
$FILLETRAD
 40
0.0
  9
$AUNITS
 70
     0
  9
$AUPREC
 70
     0
  9
$MENU
  1
ACAD
  9
$ELEVATION
 40
0.0
  9
$THICKNESS
 40
0.0
  9
$VIEWDIR
 10
0.0
 20
0.0
 30
1.0
  9
$LIMCHECK
 70
     0
  9
$BLIPMODE
 70
     1
  9
$CHAMFERA
 40
0.0
  9
$CHAMFERB
 40
0.0
  9
$FASTZOOM
 70
     1
  9
$SKPOLY
 70
     0
  9
$TDCREATE
 40
2457497.000000
  9
$TDUPDATE
 40
2457497.000000
  9
$TDINDWG
 40
0.0
  9
$TDUSRTIMER
 40
0.0
  9
$USRTIMER
 70
     1
  9
$ANGBASE
 50
0.0
  9
$ANGDIR
 70
     0
  9
$PDMODE
 70
     0
  9
$PDSIZE
 40
0.0
  9
$PLINEWID
 40
0.0
  9
$COORDS
 70
     0
  9
$USERI1
 70
     0
  9
$USERI2
 70
     0
  9
$USERI3
 70
     0
  9
$USERI4
 70
     0
  9
$USERI5
 70
     0
  9
$USERR1
 40
0.0
  9
$USERR2
 40
0.0
  9
$USERR3
 40
0.0
  9
$USERR4
 40
0.0
  9
$USERR5
 40
0.0
  0
ENDSEC
  0
SECTION
  2
TABLES
  0
TABLE
  2
LTYPE
 70
     9
  0
LTYPE
  2
CONTINUOUS
 70
    64
  3
Solid line
 72
    65
 73
     0
 40
0.0
  0
LTYPE
  2
DASHED
 70
    64
  3
__ __ __ __ __ __ __ __ __ __ __ __ __ __ __
 72
    65
 73
     2
 40
0.75
 49
0.5
 49
-0.25
  0
LTYPE
  2
HIDDEN
 70
    64
  3
_ _ _ _ _ _ _ _ _ _ _ _ _ _ _ _ _ _ _ _ _ _ _
 72
    65
 73
     2
 40
0.375
 49
0.25
 49
-0.125
  0
LTYPE
  2
DOT
 70
    64
  3
...............................................
 72
    65
 73
     2
 40
0.25
 49
0.0
 49
-0.25
  0
LTYPE
  2
DASHDOT
 70
    64
  3
__ . __ . __ . __ . __ . __ . __ . __ . __ . __
 72
    65
 73
     4
 40
1.0
 49
0.5
 49
-0.25
 49
0.0
 49
-0.25
  0
LTYPE
  2
DIVIDE
 70
    64
  3
__ . . __ . . __ . . __ . . __ . . __ . . __
 72
    65
 73
     6
 40
1.25
 49
0.5
 49
-0.25
 49
0.0
 49
-0.25
 49
0.0
 49
-0.25
  0
LTYPE
  2
CENTER
 70
    64
  3
____ _ ____ _ ____ _ ____ _ ____ _ ____ _ ____ 
 72
    65
 73
     4
 40
2.0
 49
1.25
 49
-0.25
 49
0.25
 49
-0.25
  0
LTYPE
  2
PHANTOM
 70
    64
  3
______  __  __  ______  __  __  ______  __  __ 
 72
    65
 73
     6
 40
2.5
 49
1.25
 49
-0.25
 49
0.25
 49
-0.25
 49
0.25
 49
-0.25
  0
LTYPE
  2
BORDER
 70
    64
  3
__ __ . __ __ . __ __ . __ __ . __ __ . __ __ .
 72
    65
 73
     6
 40
1.75
 49
0.5
 49
-0.25
 49
0.5
 49
-0.25
 49
0.0
 49
-0.25
  0
ENDTAB
  0
TABLE
  2
LAYER
 70
    16
  0
LAYER
  2
CSLAYER1
 70
    64
 62
     7
  6
CONTINUOUS
  0
LAYER
  2
CSLAYER2
 70
    64
 62
     7
  6
CONTINUOUS
  0
LAYER
  2
CSLAYER3
 70
    64
 62
     7
  6
CONTINUOUS
  0
LAYER
  2
CSLAYER4
 70
    64
 62
     7
  6
CONTINUOUS
  0
LAYER
  2
CSLAYER5
 70
    64
 62
     7
  6
CONTINUOUS
  0
LAYER
  2
CSLAYER6
 70
    64
 62
     7
  6
CONTINUOUS
  0
LAYER
  2
CSLAYER7
 70
    64
 62
     7
  6
CONTINUOUS
  0
LAYER
  2
CSLAYER8
 70
    64
 62
     7
  6
CONTINUOUS
  0
LAYER
  2
CSLAYER9
 70
    64
 62
     7
  6
CONTINUOUS
  0
LAYER
  2
CSLAYER10
 70
    64
 62
     7
  6
CONTINUOUS
  0
LAYER
  2
CSLAYER11
 70
    64
 62
     7
  6
CONTINUOUS
  0
LAYER
  2
CSLAYER12
 70
    64
 62
     7
  6
CONTINUOUS
  0
LAYER
  2
CSLAYER13
 70
    64
 62
     7
  6
CONTINUOUS
  0
LAYER
  2
CSLAYER14
 70
    64
 62
     7
  6
CONTINUOUS
  0
LAYER
  2
CSLAYER15
 70
    64
 62
     7
  6
CONTINUOUS
  0
LAYER
  2
CSLAYER16
 70
    64
 62
     7
  6
CONTINUOUS
  0
ENDTAB
  0
TABLE
  2
STYLE
 70
     1
  0
STYLE
  2
EASYDRAW_FONT
 70
     0
 40
1.0
 41
1.0
 50
0.0
 71
     0
 42
1.0
  3
monotxt
  4
bigfont
  0
ENDTAB
  0
TABLE
  2
VIEW
 70
     0
  0
ENDTAB
  0
ENDSEC
  0
SECTION
  2
BLOCKS
  0
BLOCK
  8
CSLAYER1
  2
*D0000
 70
    65
 10
0.0
 20
0.0
 30
0.0
  0
TEXT
  8
CSLAYER1
 62
     3
 10
2378.066650
 20
1838.655151
 40
60.000000
 41
0.818182
  1
1350
 50
0.000000
 51
0.000000
  7
EASYDRAW_FONT
 72
     5
 11
2558.066650
 21
1838.655151
  0
LINE
  8
CSLAYER1
  6
CONTINUOUS
 62
     5
 10
1793.066264
 20
1686.049204
 11
1793.066264
 21
1838.655253
  0
LINE
  8
CSLAYER1
  6
CONTINUOUS
 62
     5
 10
3143.066264
 20
1686.049204
 11
3143.066264
 21
1838.655253
  0
LINE
  8
CSLAYER1
  6
CONTINUOUS
 62
     5
 10
1793.066264
 20
1823.655253
 11
3143.066264
 21
1823.655253
  0
LINE
  8
CSLAYER1
  6
CONTINUOUS
 62
     5
 10
1793.066264
 20
1823.655253
 11
1836.532926
 21
1835.302110
  0
LINE
  8
CSLAYER1
  6
CONTINUOUS
 62
     5
 10
1793.066264
 20
1823.655253
 11
1836.532926
 21
1812.008396
  0
LINE
  8
CSLAYER1
  6
CONTINUOUS
 62
     5
 10
3143.066264
 20
1823.655253
 11
3099.599602
 21
1835.302110
  0
LINE
  8
CSLAYER1
  6
CONTINUOUS
 62
     5
 10
3143.066264
 20
1823.655253
 11
3099.599602
 21
1812.008396
  0
ENDBLK
  8
0
  0
BLOCK
  8
CSLAYER1
  2
*D0001
 70
    65
 10
0.0
 20
0.0
 30
0.0
  0
TEXT
  8
CSLAYER1
 62
     3
 10
3269.501465
 20
697.449707
 40
60.000000
 41
0.843750
  1
230
 50
90.000000
 51
0.000000
  7
EASYDRAW_FONT
 72
     5
 11
3269.501465
 21
832.449707
  0
LINE
  8
CSLAYER1
  6
CONTINUOUS
 62
     5
 10
3153.722383
 20
878.751774
 11
3308.066264
 21
878.751774
  0
LINE
  8
CSLAYER1
  6
CONTINUOUS
 62
     5
 10
3293.066264
 20
648.751774
 11
3293.066264
 21
878.751774
  0
LINE
  8
CSLAYER1
  6
CONTINUOUS
 62
     5
 10
3293.066264
 20
648.751774
 11
3281.419407
 21
692.218436
  0
LINE
  8
CSLAYER1
  6
CONTINUOUS
 62
     5
 10
3293.066264
 20
648.751774
 11
3304.713121
 21
692.218436
  0
LINE
  8
CSLAYER1
  6
CONTINUOUS
 62
     5
 10
3293.066264
 20
878.751774
 11
3281.419407
 21
835.285112
  0
LINE
  8
CSLAYER1
  6
CONTINUOUS
 62
     5
 10
3293.066264
 20
878.751774
 11
3304.713121
 21
835.285112
  0
ENDBLK
  8
0
  0
BLOCK
  8
CSLAYER1
  2
*D0002
 70
    65
 10
0.0
 20
0.0
 30
0.0
  0
TEXT
  8
CSLAYER1
 62
     3
 10
3278.066406
 20
1208.703613
 40
60.000000
 41
0.843750
  1
780
 50
90.000000
 51
0.000000
  7
EASYDRAW_FONT
 72
     5
 11
3278.066406
 21
1343.703613
  0
LINE
  8
CSLAYER1
  6
CONTINUOUS
 62
     5
 10
3293.066264
 20
878.751774
 11
3293.066264
 21
1673.655253
  0
LINE
  8
CSLAYER1
  6
CONTINUOUS
 62
     5
 10
3293.066264
 20
878.751774
 11
3281.419407
 21
922.218436
  0
LINE
  8
CSLAYER1
  6
CONTINUOUS
 62
     5
 10
3293.066264
 20
878.751774
 11
3304.713121
 21
922.218436
  0
LINE
  8
CSLAYER1
  6
CONTINUOUS
 62
     5
 10
3293.066264
 20
1673.655253
 11
3281.419407
 21
1630.188591
  0
LINE
  8
CSLAYER1
  6
CONTINUOUS
 62
     5
 10
3293.066264
 20
1673.655253
 11
3304.713121
 21
1630.188591
  0
ENDBLK
  8
0
  0
BLOCK
  8
CSLAYER1
  2
*D0003
 70
    65
 10
0.0
 20
0.0
 30
0.0
  0
TEXT
  8
CSLAYER1
 62
     3
 10
3428.066650
 20
1071.203613
 40
60.000000
 41
0.818182
  1
1010
 50
90.000000
 51
0.000000
  7
EASYDRAW_FONT
 72
     5
 11
3428.066650
 21
1251.203613
  0
LINE
  8
CSLAYER1
  6
CONTINUOUS
 62
     5
 10
3159.727686
 20
1673.655253
 11
3458.066264
 21
1673.655253
  0
LINE
  8
CSLAYER1
  6
CONTINUOUS
 62
     5
 10
3443.066264
 20
648.751774
 11
3443.066264
 21
1673.655253
  0
LINE
  8
CSLAYER1
  6
CONTINUOUS
 62
     5
 10
3443.066264
 20
648.751774
 11
3431.419407
 21
692.218436
  0
LINE
  8
CSLAYER1
  6
CONTINUOUS
 62
     5
 10
3443.066264
 20
648.751774
 11
3454.713121
 21
692.218436
  0
LINE
  8
CSLAYER1
  6
CONTINUOUS
 62
     5
 10
3443.066264
 20
1673.655253
 11
3431.419407
 21
1630.188591
  0
LINE
  8
CSLAYER1
  6
CONTINUOUS
 62
     5
 10
3443.066264
 20
1673.655253
 11
3454.713121
 21
1630.188591
  0
ENDBLK
  8
0
  0
BLOCK
  8
CSLAYER1
  2
*D0004
 70
    65
 10
0.0
 20
0.0
 30
0.0
  0
TEXT
  8
CSLAYER1
 62
     3
 10
1628.066162
 20
2623.169189
 40
60.000000
 41
0.843750
  1
750
 50
90.000000
 51
0.000000
  7
EASYDRAW_FONT
 72
     5
 11
1628.066162
 21
2758.169189
  0
LINE
  8
CSLAYER1
  6
CONTINUOUS
 62
     5
 10
1779.437833
 20
2315.669582
 11
1628.066264
 21
2315.669582
  0
LINE
  8
CSLAYER1
  6
CONTINUOUS
 62
     5
 10
1779.437833
 20
3065.669582
 11
1628.066264
 21
3065.669582
  0
LINE
  8
CSLAYER1
  6
CONTINUOUS
 62
     5
 10
1643.066264
 20
2315.669582
 11
1643.066264
 21
3065.669582
  0
LINE
  8
CSLAYER1
  6
CONTINUOUS
 62
     5
 10
1643.066264
 20
2315.669582
 11
1631.419407
 21
2359.136244
  0
LINE
  8
CSLAYER1
  6
CONTINUOUS
 62
     5
 10
1643.066264
 20
2315.669582
 11
1654.713121
 21
2359.136244
  0
LINE
  8
CSLAYER1
  6
CONTINUOUS
 62
     5
 10
1643.066264
 20
3065.669582
 11
1631.419407
 21
3022.202920
  0
LINE
  8
CSLAYER1
  6
CONTINUOUS
 62
     5
 10
1643.066264
 20
3065.669582
 11
1654.713121
 21
3022.202920
  0
ENDBLK
  8
0
  0
BLOCK
  8
CSLAYER1
  2
*D0005
 70
    65
 10
0.0
 20
0.0
 30
0.0
  0
TEXT
  8
CSLAYER1
 62
     3
 10
709.160461
 20
513.751892
 40
60.000000
 41
0.843750
  1
600
 50
0.000000
 51
0.000000
  7
EASYDRAW_FONT
 72
     5
 11
844.160461
 21
513.751892
  0
LINE
  8
CSLAYER1
  6
CONTINUOUS
 62
     5
 10
476.660500
 20
633.751774
 11
476.660500
 21
483.751774
  0
LINE
  8
CSLAYER1
  6
CONTINUOUS
 62
     5
 10
1076.660500
 20
633.751774
 11
1076.660500
 21
483.751774
  0
LINE
  8
CSLAYER1
  6
CONTINUOUS
 62
     5
 10
476.660500
 20
498.751774
 11
1076.660500
 21
498.751774
  0
LINE
  8
CSLAYER1
  6
CONTINUOUS
 62
     5
 10
476.660500
 20
498.751774
 11
520.127162
 21
510.398631
  0
LINE
  8
CSLAYER1
  6
CONTINUOUS
 62
     5
 10
476.660500
 20
498.751774
 11
520.127162
 21
487.104917
  0
LINE
  8
CSLAYER1
  6
CONTINUOUS
 62
     5
 10
1076.660500
 20
498.751774
 11
1033.193838
 21
510.398631
  0
LINE
  8
CSLAYER1
  6
CONTINUOUS
 62
     5
 10
1076.660500
 20
498.751774
 11
1033.193838
 21
487.104917
  0
ENDBLK
  8
0
  0
BLOCK
  8
CSLAYER1
  2
*D0006
 70
    65
 10
0.0
 20
0.0
 30
0.0
  0
TEXT
  8
CSLAYER1
 62
     3
 10
1181.197510
 20
521.739685
 40
60.000000
 41
0.900000
  1
65
 50
0.000000
 51
0.000000
  7
EASYDRAW_FONT
 72
     5
 11
1271.197510
 21
521.739685
  0
LINE
  8
CSLAYER1
  6
CONTINUOUS
 62
     5
 10
1076.660500
 20
498.751774
 11
1141.660500
 21
498.751774
  0
LINE
  8
CSLAYER1
  6
CONTINUOUS
 62
     5
 10
1141.660500
 20
498.751774
 11
1228.941188
 21
498.751774
  0
LINE
  8
CSLAYER1
  6
CONTINUOUS
 62
     5
 10
1141.660500
 20
498.751774
 11
1185.127162
 21
510.398631
  0
LINE
  8
CSLAYER1
  6
CONTINUOUS
 62
     5
 10
1141.660500
 20
498.751774
 11
1185.127162
 21
487.104917
  0
ENDBLK
  8
0
  0
BLOCK
  8
CSLAYER1
  2
*D0007
 70
    65
 10
0.0
 20
0.0
 30
0.0
  0
TEXT
  8
CSLAYER1
 62
     3
 10
709.160461
 20
363.751862
 40
60.000000
 41
0.843750
  1
730
 50
0.000000
 51
0.000000
  7
EASYDRAW_FONT
 72
     5
 11
844.160461
 21
363.751862
  0
LINE
  8
CSLAYER1
  6
CONTINUOUS
 62
     5
 10
411.660500
 20
692.751774
 11
411.660500
 21
333.751774
  0
LINE
  8
CSLAYER1
  6
CONTINUOUS
 62
     5
 10
1141.660500
 20
692.751774
 11
1141.660500
 21
333.751774
  0
LINE
  8
CSLAYER1
  6
CONTINUOUS
 62
     5
 10
411.660500
 20
348.751774
 11
1141.660500
 21
348.751774
  0
LINE
  8
CSLAYER1
  6
CONTINUOUS
 62
     5
 10
411.660500
 20
348.751774
 11
455.127162
 21
360.398631
  0
LINE
  8
CSLAYER1
  6
CONTINUOUS
 62
     5
 10
411.660500
 20
348.751774
 11
455.127162
 21
337.104917
  0
LINE
  8
CSLAYER1
  6
CONTINUOUS
 62
     5
 10
1141.660500
 20
348.751774
 11
1098.193838
 21
360.398631
  0
LINE
  8
CSLAYER1
  6
CONTINUOUS
 62
     5
 10
1141.660500
 20
348.751774
 11
1098.193838
 21
337.104917
  0
ENDBLK
  8
0
  0
BLOCK
  8
CSLAYER1
  2
*D0008
 70
    65
 10
0.0
 20
0.0
 30
0.0
  0
TEXT
  8
CSLAYER1
 62
     3
 10
2369.066406
 20
513.751892
 40
60.000000
 41
0.818182
  1
1200
 50
0.000000
 51
0.000000
  7
EASYDRAW_FONT
 72
     5
 11
2549.066406
 21
513.751892
  0
LINE
  8
CSLAYER1
  6
CONTINUOUS
 62
     5
 10
1859.066264
 20
633.751774
 11
1859.066264
 21
483.751774
  0
LINE
  8
CSLAYER1
  6
CONTINUOUS
 62
     5
 10
3059.066264
 20
633.751774
 11
3059.066264
 21
483.751774
  0
LINE
  8
CSLAYER1
  6
CONTINUOUS
 62
     5
 10
1859.066264
 20
498.751774
 11
3059.066264
 21
498.751774
  0
LINE
  8
CSLAYER1
  6
CONTINUOUS
 62
     5
 10
1859.066264
 20
498.751774
 11
1902.532926
 21
510.398631
  0
LINE
  8
CSLAYER1
  6
CONTINUOUS
 62
     5
 10
1859.066264
 20
498.751774
 11
1902.532926
 21
487.104917
  0
LINE
  8
CSLAYER1
  6
CONTINUOUS
 62
     5
 10
3059.066264
 20
498.751774
 11
3015.599602
 21
510.398631
  0
LINE
  8
CSLAYER1
  6
CONTINUOUS
 62
     5
 10
3059.066264
 20
498.751774
 11
3015.599602
 21
487.104917
  0
ENDBLK
  8
0
  0
BLOCK
  8
CSLAYER1
  2
*D0009
 70
    65
 10
0.0
 20
0.0
 30
0.0
  0
TEXT
  8
CSLAYER1
 62
     3
 10
3176.861816
 20
517.960876
 40
60.000000
 41
0.900000
  1
74
 50
0.000000
 51
0.000000
  7
EASYDRAW_FONT
 72
     5
 11
3266.861816
 21
517.960876
  0
LINE
  8
CSLAYER1
  6
CONTINUOUS
 62
     5
 10
3059.066264
 20
498.751774
 11
3133.066264
 21
498.751774
  0
LINE
  8
CSLAYER1
  6
CONTINUOUS
 62
     5
 10
3133.066264
 20
498.751774
 11
3216.506807
 21
498.751774
  0
LINE
  8
CSLAYER1
  6
CONTINUOUS
 62
     5
 10
3133.066264
 20
498.751774
 11
3176.532926
 21
510.398631
  0
LINE
  8
CSLAYER1
  6
CONTINUOUS
 62
     5
 10
3133.066264
 20
498.751774
 11
3176.532926
 21
487.104917
  0
ENDBLK
  8
0
  0
BLOCK
  8
CSLAYER1
  2
*D0010
 70
    65
 10
0.0
 20
0.0
 30
0.0
  0
TEXT
  8
CSLAYER1
 62
     3
 10
2378.066406
 20
363.751862
 40
60.000000
 41
0.818182
  1
1330
 50
0.000000
 51
0.000000
  7
EASYDRAW_FONT
 72
     5
 11
2558.066406
 21
363.751862
  0
LINE
  8
CSLAYER1
  6
CONTINUOUS
 62
     5
 10
1803.066264
 20
692.751774
 11
1803.066264
 21
333.751774
  0
LINE
  8
CSLAYER1
  6
CONTINUOUS
 62
     5
 10
3133.066264
 20
692.751774
 11
3133.066264
 21
333.751774
  0
LINE
  8
CSLAYER1
  6
CONTINUOUS
 62
     5
 10
1803.066264
 20
348.751774
 11
3133.066264
 21
348.751774
  0
LINE
  8
CSLAYER1
  6
CONTINUOUS
 62
     5
 10
1803.066264
 20
348.751774
 11
1846.532926
 21
360.398631
  0
LINE
  8
CSLAYER1
  6
CONTINUOUS
 62
     5
 10
1803.066264
 20
348.751774
 11
1846.532926
 21
337.104917
  0
LINE
  8
CSLAYER1
  6
CONTINUOUS
 62
     5
 10
3133.066264
 20
348.751774
 11
3089.599602
 21
360.398631
  0
LINE
  8
CSLAYER1
  6
CONTINUOUS
 62
     5
 10
3133.066264
 20
348.751774
 11
3089.599602
 21
337.104917
  0
ENDBLK
  8
0
  0
BLOCK
  8
CSLAYER1
  2
BLKF0000
 70
   64
 10
0.0
 20
0.0
 30
0.0
  0
ARC
  8
CSLAYER1
  6
CONTINUOUS
 62
     5
 10
4169.771750
 20
120.742239
 40
5.323837
 50
6.429109
 51
73.182034
  0
ARC
  8
CSLAYER1
  6
CONTINUOUS
 62
     5
 10
4164.580294
 20
119.004650
 40
10.361631
 50
310.517970
 51
330.092764
  0
ARC
  8
CSLAYER1
  6
CONTINUOUS
 62
     5
 10
4164.489320
 20
119.552927
 40
10.722482
 50
-32.205059
 51
9.585194
  0
ARC
  8
CSLAYER1
  6
CONTINUOUS
 62
     5
 10
4169.428412
 20
115.411429
 40
7.151272
 50
180.000000
 51
218.514150
  0
ARC
  8
CSLAYER1
  6
CONTINUOUS
 62
     5
 10
4167.498330
 20
114.395718
 40
5.022423
 50
222.781148
 51
319.406906
  0
ARC
  8
CSLAYER1
  6
CONTINUOUS
 62
     5
 10
4172.096793
 20
116.030557
 40
9.839152
 50
94.574282
 51
183.607718
  0
LINE
  8
CSLAYER1
  6
CONTINUOUS
 62
     5
 10
4192.262653
 20
108.355309
 11
4190.977098
 21
103.797435
  0
LINE
  8
CSLAYER1
  6
CONTINUOUS
 62
     5
 10
4194.950630
 20
138.156795
 11
4191.795178
 21
142.247195
  0
LINE
  8
CSLAYER1
  6
CONTINUOUS
 62
     5
 10
4191.795178
 20
142.247195
 11
4181.665147
 21
147.884063
  0
LINE
  8
CSLAYER1
  6
CONTINUOUS
 62
     5
 10
4181.665147
 20
147.884063
 11
4171.312106
 21
149.088369
  0
LINE
  8
CSLAYER1
  6
CONTINUOUS
 62
     5
 10
4143.878268
 20
129.020359
 11
4147.098310
 21
136.466705
  0
LINE
  8
CSLAYER1
  6
CONTINUOUS
 62
     5
 10
4147.042813
 20
136.338369
 11
4150.318351
 21
140.290504
  0
LINE
  8
CSLAYER1
  6
CONTINUOUS
 62
     5
 10
4150.318351
 20
140.290504
 11
4155.274984
 21
143.838369
  0
LINE
  8
CSLAYER1
  6
CONTINUOUS
 62
     5
 10
4171.312106
 20
149.088369
 11
4169.034843
 21
147.938103
  0
LINE
  8
CSLAYER1
  6
CONTINUOUS
 62
     5
 10
4169.034843
 20
147.938103
 11
4163.802275
 21
147.938103
  0
LINE
  8
CSLAYER1
  6
CONTINUOUS
 62
     5
 10
4163.802275
 20
147.938103
 11
4158.469081
 21
145.019940
  0
LINE
  8
CSLAYER1
  6
CONTINUOUS
 62
     5
 10
4158.469081
 20
145.019940
 11
4155.274984
 21
143.838369
  0
LINE
  8
CSLAYER1
  6
CONTINUOUS
 62
     5
 10
4143.878268
 20
129.020359
 11
4141.601947
 21
117.697454
  0
LINE
  8
CSLAYER1
  6
CONTINUOUS
 62
     5
 10
4141.601947
 20
117.697454
 11
4141.312106
 21
113.838369
  0
LINE
  8
CSLAYER1
  6
CONTINUOUS
 62
     5
 10
4145.376180
 20
102.078696
 11
4141.312106
 21
111.222862
  0
LINE
  8
CSLAYER1
  6
CONTINUOUS
 62
     5
 10
4141.312106
 20
111.222862
 11
4141.312106
 21
113.838369
  0
LINE
  8
CSLAYER1
  6
CONTINUOUS
 62
     5
 10
4190.977098
 20
103.797435
 11
4188.448418
 21
99.292925
  0
LINE
  8
CSLAYER1
  6
CONTINUOUS
 62
     5
 10
4188.448418
 20
99.292925
 11
4186.312106
 21
97.314859
  0
ARC
  8
CSLAYER1
  6
CONTINUOUS
 62
     5
 10
4168.024189
 20
114.643510
 40
25.899940
 50
208.054813
 51
260.640470
  0
ARC
  8
CSLAYER1
  6
CONTINUOUS
 62
     5
 10
4160.234096
 20
133.757214
 40
44.811916
 50
274.579659
 51
305.587364
  0
ARC
  8
CSLAYER1
  6
CONTINUOUS
 62
     5
 10
4176.692620
 20
124.781631
 40
22.632940
 50
313.467013
 51
331.085078
  0
LINE
  8
CSLAYER1
  6
CONTINUOUS
 62
     5
 10
4198.879618
 20
119.108501
 11
4199.325560
 21
124.781631
  0
LINE
  8
CSLAYER1
  6
CONTINUOUS
 62
     5
 10
4199.325560
 20
124.781631
 11
4197.387563
 21
133.945105
  0
LINE
  8
CSLAYER1
  6
CONTINUOUS
 62
     5
 10
4198.879618
 20
119.108501
 11
4196.504106
 21
113.838369
  0
ARC
  8
CSLAYER1
  6
CONTINUOUS
 62
     5
 10
4176.692620
 20
124.781631
 40
22.632940
 50
23.883193
 51
36.225170
  0
LINE
  8
CSLAYER1
  6
CONTINUOUS
 62
     5
 10
4117.312106
 20
166.338369
 11
4118.812106
 21
167.977336
  0
LINE
  8
CSLAYER1
  6
CONTINUOUS
 62
     5
 10
4117.312106
 20
166.338369
 11
4119.677543
 21
164.170820
  0
LINE
  8
CSLAYER1
  6
CONTINUOUS
 62
     5
 10
4121.986362
 20
161.006882
 11
4122.025764
 21
157.754704
  0
LINE
  8
CSLAYER1
  6
CONTINUOUS
 62
     5
 10
4122.025764
 20
157.754704
 11
4122.336861
 21
156.614015
  0
LINE
  8
CSLAYER1
  6
CONTINUOUS
 62
     5
 10
4122.336861
 20
156.614015
 11
4123.218303
 21
155.525175
  0
LINE
  8
CSLAYER1
  6
CONTINUOUS
 62
     5
 10
4123.218303
 20
155.525175
 11
4124.099744
 21
155.628874
  0
LINE
  8
CSLAYER1
  6
CONTINUOUS
 62
     5
 10
4124.099744
 20
155.628874
 11
4125.033035
 21
155.888122
  0
LINE
  8
CSLAYER1
  6
CONTINUOUS
 62
     5
 10
4125.033035
 20
155.888122
 11
4125.655229
 21
155.628874
  0
LINE
  8
CSLAYER1
  6
CONTINUOUS
 62
     5
 10
4125.655229
 20
155.628874
 11
4127.003316
 21
154.954831
  0
LINE
  8
CSLAYER1
  6
CONTINUOUS
 62
     5
 10
4127.003316
 20
154.954831
 11
4128.167393
 21
154.338369
  0
LINE
  8
CSLAYER1
  6
CONTINUOUS
 62
     5
 10
4128.167393
 20
154.338369
 11
4128.921747
 21
154.384486
  0
LINE
  8
CSLAYER1
  6
CONTINUOUS
 62
     5
 10
4128.921747
 20
154.384486
 11
4133.133555
 21
156.554206
  0
LINE
  8
CSLAYER1
  6
CONTINUOUS
 62
     5
 10
4118.812106
 20
167.977336
 11
4119.311384
 21
170.187897
  0
LINE
  8
CSLAYER1
  6
CONTINUOUS
 62
     5
 10
4119.311384
 20
170.187897
 11
4121.491492
 21
170.413425
  0
LINE
  8
CSLAYER1
  6
CONTINUOUS
 62
     5
 10
4123.732129
 20
174.566113
 11
4126.363389
 21
174.801748
  0
LINE
  8
CSLAYER1
  6
CONTINUOUS
 62
     5
 10
4126.363389
 20
174.801748
 11
4131.665180
 21
176.058469
  0
LINE
  8
CSLAYER1
  6
CONTINUOUS
 62
     5
 10
4131.665180
 20
176.058469
 11
4133.812106
 21
176.555928
  0
LINE
  8
CSLAYER1
  6
CONTINUOUS
 62
     5
 10
4123.732129
 20
174.566113
 11
4120.832793
 21
174.804415
  0
LINE
  8
CSLAYER1
  6
CONTINUOUS
 62
     5
 10
4119.728608
 20
173.501384
 11
4119.868896
 21
172.944642
  0
LINE
  8
CSLAYER1
  6
CONTINUOUS
 62
     5
 10
4119.868896
 20
172.944642
 11
4120.606287
 21
172.138120
  0
LINE
  8
CSLAYER1
  6
CONTINUOUS
 62
     5
 10
4120.606287
 20
172.138120
 11
4121.620200
 21
171.377686
  0
LINE
  8
CSLAYER1
  6
CONTINUOUS
 62
     5
 10
4121.620200
 20
171.377686
 11
4121.805187
 21
171.131036
  0
LINE
  8
CSLAYER1
  6
CONTINUOUS
 62
     5
 10
4119.677543
 20
164.170820
 11
4121.986362
 21
161.006882
  0
ARC
  8
CSLAYER1
  6
CONTINUOUS
 62
     5
 10
4186.292157
 20
-91.149610
 40
271.091195
 50
80.438896
 51
96.353582
  0
ARC
  8
CSLAYER1
  6
CONTINUOUS
 62
     5
 10
4148.943787
 20
126.722240
 40
52.080363
 50
81.866516
 51
106.890578
  0
LINE
  8
CSLAYER1
  6
CONTINUOUS
 62
     5
 10
4237.603498
 20
174.988375
 11
4240.974122
 21
173.456273
  0
LINE
  8
CSLAYER1
  6
CONTINUOUS
 62
     5
 10
4246.336478
 20
171.081515
 11
4240.974122
 21
173.456273
  0
LINE
  8
CSLAYER1
  6
CONTINUOUS
 62
     5
 10
4237.603498
 20
174.988375
 11
4231.312106
 21
176.177232
  0
LINE
  8
CSLAYER1
  6
CONTINUOUS
 62
     5
 10
4246.312106
 20
171.092308
 11
4249.119469
 21
168.739593
  0
LINE
  8
CSLAYER1
  6
CONTINUOUS
 62
     5
 10
4221.176990
 20
172.647585
 11
4222.525902
 21
174.826597
  0
LINE
  8
CSLAYER1
  6
CONTINUOUS
 62
     5
 10
4222.525902
 20
174.826597
 11
4229.539300
 21
173.147333
  0
LINE
  8
CSLAYER1
  6
CONTINUOUS
 62
     5
 10
4229.539300
 20
173.147333
 11
4254.652879
 21
166.338369
  0
LINE
  8
CSLAYER1
  6
CONTINUOUS
 62
     5
 10
4259.062106
 20
166.338369
 11
4249.119469
 21
168.739593
  0
LINE
  8
CSLAYER1
  6
CONTINUOUS
 62
     5
 10
4254.652879
 20
166.338369
 11
4259.062106
 21
166.338369
  0
LINE
  8
CSLAYER1
  6
CONTINUOUS
 62
     5
 10
4171.312106
 20
173.035781
 11
4201.312106
 21
173.838369
  0
LINE
  8
CSLAYER1
  6
CONTINUOUS
 62
     5
 10
4201.312106
 20
173.838369
 11
4221.176990
 21
172.647585
  0
LINE
  8
CSLAYER1
  6
CONTINUOUS
 62
     5
 10
4223.581462
 20
169.556865
 11
4201.312106
 21
171.588369
  0
LINE
  8
CSLAYER1
  6
CONTINUOUS
 62
     5
 10
4201.312106
 20
171.588369
 11
4178.738292
 21
172.201347
  0
LINE
  8
CSLAYER1
  6
CONTINUOUS
 62
     5
 10
4178.812106
 20
172.199343
 11
4171.312106
 21
172.342284
  0
LINE
  8
CSLAYER1
  6
CONTINUOUS
 62
     5
 10
4171.312106
 20
173.035781
 11
4171.312106
 21
172.342284
  0
LINE
  8
CSLAYER1
  6
CONTINUOUS
 62
     5
 10
4257.562106
 20
161.088369
 11
4244.298268
 21
164.554363
  0
LINE
  8
CSLAYER1
  6
CONTINUOUS
 62
     5
 10
4223.581462
 20
169.556865
 11
4238.812106
 21
166.598290
  0
LINE
  8
CSLAYER1
  6
CONTINUOUS
 62
     5
 10
4238.812106
 20
166.598290
 11
4244.298268
 21
164.554363
  0
LINE
  8
CSLAYER1
  6
CONTINUOUS
 62
     5
 10
4257.562106
 20
161.088369
 11
4257.123180
 21
159.829711
  0
LINE
  8
CSLAYER1
  6
CONTINUOUS
 62
     5
 10
4271.812106
 20
152.838369
 11
4271.353065
 21
154.681841
  0
LINE
  8
CSLAYER1
  6
CONTINUOUS
 62
     5
 10
4257.123180
 20
159.829711
 11
4271.353065
 21
154.681841
  0
LINE
  8
CSLAYER1
  6
CONTINUOUS
 62
     5
 10
4176.562106
 20
161.088369
 11
4180.196663
 21
161.088369
  0
LINE
  8
CSLAYER1
  6
CONTINUOUS
 62
     5
 10
4210.312106
 20
161.737113
 11
4210.312106
 21
161.088369
  0
LINE
  8
CSLAYER1
  6
CONTINUOUS
 62
     5
 10
4208.812106
 20
162.538774
 11
4206.245187
 21
163.494542
  0
LINE
  8
CSLAYER1
  6
CONTINUOUS
 62
     5
 10
4206.245187
 20
163.494542
 11
4204.580103
 21
163.570227
  0
LINE
  8
CSLAYER1
  6
CONTINUOUS
 62
     5
 10
4204.580103
 20
163.570227
 11
4203.861090
 21
163.191799
  0
LINE
  8
CSLAYER1
  6
CONTINUOUS
 62
     5
 10
4203.861090
 20
163.191799
 11
4203.709718
 21
162.586314
  0
LINE
  8
CSLAYER1
  6
CONTINUOUS
 62
     5
 10
4203.709718
 20
162.586314
 11
4204.390889
 21
162.132200
  0
LINE
  8
CSLAYER1
  6
CONTINUOUS
 62
     5
 10
4204.390889
 20
162.132200
 11
4206.850672
 21
161.905143
  0
LINE
  8
CSLAYER1
  6
CONTINUOUS
 62
     5
 10
4206.850672
 20
161.905143
 11
4210.312106
 21
161.737113
  0
LINE
  8
CSLAYER1
  6
CONTINUOUS
 62
     5
 10
4271.812106
 20
152.838369
 11
4267.348792
 21
154.618242
  0
LINE
  8
CSLAYER1
  6
CONTINUOUS
 62
     5
 10
4267.348792
 20
154.618242
 11
4252.265258
 21
157.382555
  0
LINE
  8
CSLAYER1
  6
CONTINUOUS
 62
     5
 10
4252.265258
 20
157.382555
 11
4244.726588
 21
159.122248
  0
LINE
  8
CSLAYER1
  6
CONTINUOUS
 62
     5
 10
4211.113437
 20
162.588369
 11
4228.761936
 21
162.588369
  0
LINE
  8
CSLAYER1
  6
CONTINUOUS
 62
     5
 10
4208.812106
 20
162.538774
 11
4209.599096
 21
162.076073
  0
LINE
  8
CSLAYER1
  6
CONTINUOUS
 62
     5
 10
4209.599096
 20
162.076073
 11
4210.044314
 21
161.942508
  0
LINE
  8
CSLAYER1
  6
CONTINUOUS
 62
     5
 10
4210.044314
 20
161.942508
 11
4210.312106
 21
161.980263
  0
LINE
  8
CSLAYER1
  6
CONTINUOUS
 62
     5
 10
4210.312106
 20
161.980263
 11
4211.113437
 21
162.588369
  0
LINE
  8
CSLAYER1
  6
CONTINUOUS
 62
     5
 10
4228.761936
 20
162.588369
 11
4235.437340
 21
161.045131
  0
LINE
  8
CSLAYER1
  6
CONTINUOUS
 62
     5
 10
4235.437340
 20
161.045131
 11
4241.667127
 21
159.297408
  0
LINE
  8
CSLAYER1
  6
CONTINUOUS
 62
     5
 10
4241.667127
 20
159.297408
 11
4244.726588
 21
159.122248
  0
LINE
  8
CSLAYER1
  6
CONTINUOUS
 62
     5
 10
4175.062106
 20
159.588369
 11
4175.062106
 21
158.838369
  0
LINE
  8
CSLAYER1
  6
CONTINUOUS
 62
     5
 10
4171.312106
 20
158.838369
 11
4175.062106
 21
158.838369
  0
ARC
  8
CSLAYER1
  6
CONTINUOUS
 62
     5
 10
4176.562106
 20
159.588369
 40
1.500000
 50
90.000000
 51
180.000000
  0
LINE
  8
CSLAYER1
  6
CONTINUOUS
 62
     5
 10
4180.196663
 20
161.088369
 11
4181.242998
 21
160.230375
  0
LINE
  8
CSLAYER1
  6
CONTINUOUS
 62
     5
 10
4182.146550
 20
160.194434
 11
4183.432945
 21
161.088369
  0
LINE
  8
CSLAYER1
  6
CONTINUOUS
 62
     5
 10
4185.800540
 20
161.088369
 11
4188.301228
 21
160.101256
  0
LINE
  8
CSLAYER1
  6
CONTINUOUS
 62
     5
 10
4188.936791
 20
160.141024
 11
4190.667022
 21
161.088369
  0
LINE
  8
CSLAYER1
  6
CONTINUOUS
 62
     5
 10
4183.432945
 20
161.088369
 11
4185.800540
 21
161.088369
  0
LINE
  8
CSLAYER1
  6
CONTINUOUS
 62
     5
 10
4190.667022
 20
161.088369
 11
4210.312106
 21
161.088369
  0
LINE
  8
CSLAYER1
  6
CONTINUOUS
 62
     5
 10
4139.135581
 20
156.425130
 11
4171.312106
 21
158.838369
  0
LINE
  8
CSLAYER1
  6
CONTINUOUS
 62
     5
 10
4133.133555
 20
156.554206
 11
4139.135581
 21
156.425130
  0
ARC
  8
CSLAYER1
  6
CONTINUOUS
 62
     5
 10
4181.718558
 20
160.810325
 40
0.750000
 50
230.648247
 51
304.796026
  0
ARC
  8
CSLAYER1
  6
CONTINUOUS
 62
     5
 10
4188.576603
 20
160.798872
 40
0.750000
 50
248.459024
 51
298.701829
  0
ARC
  8
CSLAYER1
  6
CONTINUOUS
 62
     5
 10
4121.445187
 20
170.861036
 40
0.450000
 50
-84.093859
 51
36.869898
  0
ARC
  8
CSLAYER1
  6
CONTINUOUS
 62
     5
 10
4120.746781
 20
173.757944
 40
1.050000
 50
85.301319
 51
194.142980
  0
LINE
  8
CSLAYER1
  6
CONTINUOUS
 62
     3
 10
4169.034843
 20
147.938103
 11
4181.200586
 21
147.938103
  0
LINE
  8
CSLAYER1
  6
CONTINUOUS
 62
     3
 10
4159.416068
 20
145.538103
 11
4185.881079
 21
145.538103
  0
LINE
  8
CSLAYER1
  6
CONTINUOUS
 62
     3
 10
4154.296660
 20
143.138103
 11
4190.194126
 21
143.138103
  0
LINE
  8
CSLAYER1
  6
CONTINUOUS
 62
     3
 10
4150.943680
 20
140.738103
 11
4192.959335
 21
140.738103
  0
LINE
  8
CSLAYER1
  6
CONTINUOUS
 62
     3
 10
4148.700197
 20
138.338103
 11
4194.810764
 21
138.338103
  0
LINE
  8
CSLAYER1
  6
CONTINUOUS
 62
     3
 10
4146.869725
 20
135.938103
 11
4196.384829
 21
135.938103
  0
LINE
  8
CSLAYER1
  6
CONTINUOUS
 62
     3
 10
4145.831887
 20
133.538103
 11
4197.473641
 21
133.538103
  0
LINE
  8
CSLAYER1
  6
CONTINUOUS
 62
     3
 10
4144.794049
 20
131.138103
 11
4197.981220
 21
131.138103
  0
LINE
  8
CSLAYER1
  6
CONTINUOUS
 62
     3
 10
4143.821524
 20
128.738103
 11
4198.488800
 21
128.738103
  0
LINE
  8
CSLAYER1
  6
CONTINUOUS
 62
     3
 10
4143.339036
 20
126.338103
 11
4198.996379
 21
126.338103
  0
LINE
  8
CSLAYER1
  6
CONTINUOUS
 62
     3
 10
4142.856547
 20
123.938103
 11
4166.241912
 21
123.938103
  0
LINE
  8
CSLAYER1
  6
CONTINUOUS
 62
     3
 10
4142.374059
 20
121.538103
 11
4163.943521
 21
121.538103
  0
LINE
  8
CSLAYER1
  6
CONTINUOUS
 62
     3
 10
4141.891571
 20
119.138103
 11
4162.761266
 21
119.138103
  0
LINE
  8
CSLAYER1
  6
CONTINUOUS
 62
     3
 10
4141.529894
 20
116.738103
 11
4162.283115
 21
116.738103
  0
LINE
  8
CSLAYER1
  6
CONTINUOUS
 62
     3
 10
4141.349639
 20
114.338103
 11
4162.358146
 21
114.338103
  0
LINE
  8
CSLAYER1
  6
CONTINUOUS
 62
     3
 10
4141.312106
 20
111.938103
 11
4163.177277
 21
111.938103
  0
LINE
  8
CSLAYER1
  6
CONTINUOUS
 62
     3
 10
4142.060888
 20
109.538103
 11
4166.222280
 21
109.538103
  0
LINE
  8
CSLAYER1
  6
CONTINUOUS
 62
     3
 10
4143.127555
 20
107.138103
 11
4191.919338
 21
107.138103
  0
LINE
  8
CSLAYER1
  6
CONTINUOUS
 62
     3
 10
4144.194221
 20
104.738103
 11
4191.242415
 21
104.738103
  0
LINE
  8
CSLAYER1
  6
CONTINUOUS
 62
     3
 10
4145.260888
 20
102.338103
 11
4190.157878
 21
102.338103
  0
LINE
  8
CSLAYER1
  6
CONTINUOUS
 62
     3
 10
4146.703826
 20
99.938103
 11
4188.810599
 21
99.938103
  0
LINE
  8
CSLAYER1
  6
CONTINUOUS
 62
     3
 10
4148.576518
 20
97.538103
 11
4186.553209
 21
97.538103
  0
LINE
  8
CSLAYER1
  6
CONTINUOUS
 62
     3
 10
4150.984648
 20
95.138103
 11
4182.964518
 21
95.138103
  0
LINE
  8
CSLAYER1
  6
CONTINUOUS
 62
     3
 10
4154.205361
 20
92.738103
 11
4178.276833
 21
92.738103
  0
LINE
  8
CSLAYER1
  6
CONTINUOUS
 62
     3
 10
4159.076897
 20
90.338103
 11
4171.319610
 21
90.338103
  0
LINE
  8
CSLAYER1
  6
CONTINUOUS
 62
     3
 10
4174.029648
 20
123.938103
 11
4199.259253
 21
123.938103
  0
LINE
  8
CSLAYER1
  6
CONTINUOUS
 62
     3
 10
4175.035764
 20
121.538103
 11
4199.070599
 21
121.538103
  0
LINE
  8
CSLAYER1
  6
CONTINUOUS
 62
     3
 10
4175.203774
 20
119.138103
 11
4198.881945
 21
119.138103
  0
LINE
  8
CSLAYER1
  6
CONTINUOUS
 62
     3
 10
4174.835739
 20
116.738103
 11
4197.811161
 21
116.738103
  0
LINE
  8
CSLAYER1
  6
CONTINUOUS
 62
     3
 10
4173.858270
 20
114.338103
 11
4196.729361
 21
114.338103
  0
LINE
  8
CSLAYER1
  6
CONTINUOUS
 62
     3
 10
4172.158375
 20
111.938103
 11
4195.328439
 21
111.938103
  0
LINE
  8
CSLAYER1
  6
CONTINUOUS
 62
     3
 10
4168.774380
 20
109.538103
 11
4193.422378
 21
109.538103
  0
TEXT
  8
CSLAYER1
 62
     5
 10
4200.069867
 20
120.954866
 40
7.070172
 41
1.951056
  1
M
 50
0.000000
 51
0.000000
  7
EASYDRAW_FONT
 72
     5
 11
4209.266070
 21
120.954866
  0
TEXT
  8
CSLAYER1
 62
     5
 10
4214.546948
 20
120.867460
 40
6.939931
 41
0.778201
  1
T
 50
0.000000
 51
0.000000
  7
EASYDRAW_FONT
 72
     5
 11
4218.147388
 21
120.867460
  0
TEXT
  8
CSLAYER1
 62
     5
 10
4218.695292
 20
120.919658
 40
7.044274
 41
1.055553
  1
E
 50
0.000000
 51
0.000000
  7
EASYDRAW_FONT
 72
     5
 11
4223.652364
 21
120.919658
  0
TEXT
  8
CSLAYER1
 62
     5
 10
4223.369808
 20
123.343425
 40
0.522425
 41
9.375319
  1
-
 50
0.000000
 51
0.000000
  7
EASYDRAW_FONT
 72
     5
 11
4226.635075
 21
123.343425
  0
TEXT
  8
CSLAYER1
 62
     5
 10
4226.090633
 20
120.872638
 40
7.292489
 41
1.298502
  1
H
 50
0.000000
 51
0.000000
  7
EASYDRAW_FONT
 72
     5
 11
4232.403507
 21
120.872638
  0
TEXT
  8
CSLAYER1
 62
     5
 10
4232.204778
 20
120.918206
 40
7.264708
 41
1.269236
  1
A
 50
0.000000
 51
0.000000
  7
EASYDRAW_FONT
 72
     5
 11
4238.351862
 21
120.918206
  0
TEXT
  8
CSLAYER1
 62
     5
 10
4237.764134
 20
120.855916
 40
7.238043
 41
1.490144
  1
N
 50
0.000000
 51
0.000000
  7
EASYDRAW_FONT
 72
     5
 11
4244.954616
 21
120.855916
  0
TEXT
  8
CSLAYER1
 62
     5
 10
4208.951077
 20
120.822056
 40
7.473487
 41
1.177443
  1
A
 50
0.000000
 51
0.000000
  7
EASYDRAW_FONT
 72
     5
 11
4214.817478
 21
120.822056
  0
TEXT
  8
CSLAYER1
 62
     5
 10
4200.620022
 20
110.329197
 40
7.473487
 41
1.177443
  1
A
 50
0.000000
 51
0.000000
  7
EASYDRAW_FONT
 72
     5
 11
4206.486423
 21
110.329197
  0
TEXT
  8
CSLAYER1
 62
     5
 10
4219.797268
 20
110.371678
 40
7.473487
 41
1.177443
  1
A
 50
0.000000
 51
0.000000
  7
EASYDRAW_FONT
 72
     5
 11
4225.663670
 21
110.371678
  0
TEXT
  8
CSLAYER1
 62
     5
 10
4225.437962
 20
110.457173
 40
7.238043
 41
1.490144
  1
N
 50
0.000000
 51
0.000000
  7
EASYDRAW_FONT
 72
     5
 11
4232.628444
 21
110.457173
  0
TEXT
  8
CSLAYER1
 62
     5
 10
4238.791344
 20
110.469766
 40
7.262663
 41
1.184218
  1
E
 50
0.000000
 51
0.000000
  7
EASYDRAW_FONT
 72
     5
 11
4244.525062
 21
110.469766
  0
TEXT
  8
CSLAYER1
 62
     5
 10
4207.041096
 20
110.327210
 40
7.421797
 41
1.093992
  1
D
 50
0.000000
 51
0.000000
  7
EASYDRAW_FONT
 72
     5
 11
4212.454021
 21
110.327210
  0
TEXT
  8
CSLAYER1
 62
     5
 10
4213.645000
 20
110.319133
 40
7.386315
 41
1.228195
  1
V
 50
0.000000
 51
0.000000
  7
EASYDRAW_FONT
 72
     5
 11
4219.692891
 21
110.319133
  0
TEXT
  8
CSLAYER1
 62
     5
 10
4231.982558
 20
110.350231
 40
7.549340
 41
1.481023
  1
C
 50
0.000000
 51
0.000000
  7
EASYDRAW_FONT
 72
     5
 11
4239.436388
 21
110.350231
  0
LINE
  8
CSLAYER1
  6
CONTINUOUS
 62
     5
 10
4217.928111
 20
126.940827
 11
4216.410018
 21
126.940827
  0
LINE
  8
CSLAYER1
  6
CONTINUOUS
 62
     3
 10
4141.575468
 20
178.278734
 11
4216.272208
 21
178.278734
  0
LINE
  8
CSLAYER1
  6
CONTINUOUS
 62
     3
 10
4130.906922
 20
175.878734
 11
4232.891745
 21
175.878734
  0
LINE
  8
CSLAYER1
  6
CONTINUOUS
 62
     3
 10
4119.734315
 20
173.478734
 11
4187.869281
 21
173.478734
  0
LINE
  8
CSLAYER1
  6
CONTINUOUS
 62
     3
 10
4207.311605
 20
173.478734
 11
4221.691511
 21
173.478734
  0
LINE
  8
CSLAYER1
  6
CONTINUOUS
 62
     3
 10
4228.155211
 20
173.478734
 11
4240.924707
 21
173.478734
  0
LINE
  8
CSLAYER1
  6
CONTINUOUS
 62
     3
 10
4121.839024
 20
171.078734
 11
4206.898728
 21
171.078734
  0
LINE
  8
CSLAYER1
  6
CONTINUOUS
 62
     3
 10
4237.168936
 20
171.078734
 11
4246.328303
 21
171.078734
  0
LINE
  8
CSLAYER1
  6
CONTINUOUS
 62
     3
 10
4118.970524
 20
168.678734
 11
4228.102050
 21
168.678734
  0
LINE
  8
CSLAYER1
  6
CONTINUOUS
 62
     3
 10
4246.020884
 20
168.678734
 11
4249.371466
 21
168.678734
  0
LINE
  8
CSLAYER1
  6
CONTINUOUS
 62
     3
 10
4117.377186
 20
166.278734
 11
4239.669834
 21
166.278734
  0
LINE
  8
CSLAYER1
  6
CONTINUOUS
 62
     3
 10
4119.890686
 20
163.878734
 11
4246.883797
 21
163.878734
  0
LINE
  8
CSLAYER1
  6
CONTINUOUS
 62
     3
 10
4121.642038
 20
161.478734
 11
4210.312106
 21
161.478734
  0
LINE
  8
CSLAYER1
  6
CONTINUOUS
 62
     3
 10
4233.561753
 20
161.478734
 11
4256.068238
 21
161.478734
  0
LINE
  8
CSLAYER1
  6
CONTINUOUS
 62
     3
 10
4122.009723
 20
159.078734
 11
4175.062106
 21
159.078734
  0
LINE
  8
CSLAYER1
  6
CONTINUOUS
 62
     3
 10
4244.915147
 20
159.078734
 11
4259.199051
 21
159.078734
  0
LINE
  8
CSLAYER1
  6
CONTINUOUS
 62
     3
 10
4122.319210
 20
156.678734
 11
4142.516971
 21
156.678734
  0
LINE
  8
CSLAYER1
  6
CONTINUOUS
 62
     3
 10
4256.105670
 20
156.678734
 11
4265.833197
 21
156.678734
  0
LINE
  8
CSLAYER1
  6
CONTINUOUS
 62
     3
 10
4268.200161
 20
154.278734
 11
4271.453442
 21
154.278734
  0
ENDBLK
  8
0
  0
BLOCK
  8
CSLAYER1
  2
BLKF0001
 70
   64
 10
0.0
 20
0.0
 30
0.0
  0
LINE
  8
CSLAYER1
  6
DASHED
 62
     2
 10
904.860500
 20
726.668840
 11
904.860500
 21
736.668840
  0
LINE
  8
CSLAYER1
  6
DASHED
 62
     2
 10
899.031324
 20
731.668840
 11
933.571454
 21
731.668840
  0
LINE
  8
CSLAYER1
  6
DASHED
 62
     2
 10
903.660500
 20
736.668840
 11
904.860500
 21
736.668840
  0
LINE
  8
CSLAYER1
  6
DASHED
 62
     2
 10
903.660500
 20
726.668840
 11
904.860500
 21
726.668840
  0
LINE
  8
CSLAYER1
  6
DASHED
 62
     2
 10
904.860500
 20
726.362549
 11
907.860500
 21
726.362549
  0
LINE
  8
CSLAYER1
  6
DASHED
 62
     2
 10
904.860500
 20
713.751774
 11
904.860500
 21
739.413519
  0
LINE
  8
CSLAYER1
  6
DASHED
 62
     2
 10
904.860500
 20
730.709769
 11
907.860500
 21
730.709769
  0
LINE
  8
CSLAYER1
  6
DASHED
 62
     2
 10
904.860500
 20
739.413519
 11
908.860500
 21
739.413519
  0
LINE
  8
CSLAYER1
  6
DASHED
 62
     2
 10
907.860500
 20
713.751774
 11
907.860500
 21
739.413519
  0
LINE
  8
CSLAYER1
  6
DASHED
 62
     2
 10
912.360500
 20
769.245372
 11
913.860500
 21
769.245372
  0
LINE
  8
CSLAYER1
  6
DASHED
 62
     2
 10
912.360500
 20
769.753579
 11
913.860500
 21
769.753579
  0
LINE
  8
CSLAYER1
  6
DASHED
 62
     2
 10
923.860500
 20
713.751774
 11
923.860500
 21
739.413519
  0
LINE
  8
CSLAYER1
  6
DASHED
 62
     2
 10
907.860500
 20
713.751774
 11
907.860500
 21
739.448334
  0
LINE
  8
CSLAYER1
  6
DASHED
 62
     2
 10
912.360500
 20
757.441842
 11
912.360500
 21
769.753579
  0
LINE
  8
CSLAYER1
  6
DASHED
 62
     2
 10
919.360500
 20
757.441842
 11
919.360500
 21
769.753579
  0
LINE
  8
CSLAYER1
  6
DASHED
 62
     2
 10
908.860500
 20
730.127345
 11
908.860500
 21
745.457704
  0
LINE
  8
CSLAYER1
  6
DASHED
 62
     2
 10
922.860500
 20
730.127345
 11
922.860500
 21
745.457704
  0
LINE
  8
CSLAYER1
  6
DASHED
 62
     2
 10
913.860500
 20
757.441842
 11
913.860500
 21
769.753579
  0
LINE
  8
CSLAYER1
  6
DASHED
 62
     2
 10
917.860500
 20
757.441842
 11
917.860500
 21
769.753579
  0
LINE
  8
CSLAYER1
  6
DASHED
 62
     2
 10
910.321318
 20
757.441842
 11
912.360500
 21
757.441842
  0
LINE
  8
CSLAYER1
  6
DASHED
 62
     2
 10
908.860500
 20
730.127345
 11
907.860500
 21
730.127345
  0
LINE
  8
CSLAYER1
  6
DASHED
 62
     2
 10
922.860500
 20
745.457704
 11
921.399682
 21
757.441842
  0
LINE
  8
CSLAYER1
  6
DASHED
 62
     2
 10
908.860500
 20
745.457704
 11
910.321318
 21
757.441842
  0
LINE
  8
CSLAYER1
  6
DASHED
 62
     2
 10
912.360500
 20
757.441842
 11
919.360500
 21
757.441842
  0
LINE
  8
CSLAYER1
  6
DASHED
 62
     2
 10
908.860500
 20
730.127345
 11
923.860500
 21
730.127345
  0
LINE
  8
CSLAYER1
  6
DASHED
 62
     2
 10
924.860500
 20
723.876382
 11
924.860500
 21
731.476382
  0
LINE
  8
CSLAYER1
  6
DASHED
 62
     2
 10
924.860500
 20
723.876382
 11
923.860500
 21
723.876382
  0
LINE
  8
CSLAYER1
  6
DASHED
 62
     2
 10
924.860500
 20
731.476382
 11
923.860500
 21
731.476382
  0
LINE
  8
CSLAYER1
  6
DASHED
 62
     2
 10
927.460500
 20
726.176382
 11
927.460500
 21
729.176382
  0
LINE
  8
CSLAYER1
  6
DASHED
 62
     2
 10
925.460500
 20
724.176382
 11
924.860500
 21
724.176382
  0
LINE
  8
CSLAYER1
  6
DASHED
 62
     2
 10
925.460500
 20
731.176382
 11
924.860500
 21
731.176382
  0
ARC
  8
CSLAYER1
  6
DASHED
 62
     2
 10
925.460500
 20
726.176382
 40
2.000000
 50
270.000000
 51
360.000000
  0
ARC
  8
CSLAYER1
  6
DASHED
 62
     2
 10
925.460500
 20
729.176382
 40
2.000000
 50
0.000000
 51
90.000000
  0
LINE
  8
CSLAYER1
  6
DASHED
 62
     2
 10
923.860500
 20
723.876382
 11
923.860500
 21
731.476382
  0
LINE
  8
CSLAYER1
  6
DASHED
 62
     2
 10
922.860500
 20
739.413519
 11
923.860500
 21
739.413519
  0
LINE
  8
CSLAYER1
  6
DASHED
 62
     2
 10
917.860500
 20
769.245372
 11
919.360500
 21
769.245372
  0
LINE
  8
CSLAYER1
  6
DASHED
 62
     2
 10
917.860500
 20
769.753579
 11
919.360500
 21
769.753579
  0
LINE
  8
CSLAYER1
  6
DASHED
 62
     2
 10
911.618746
 20
787.076564
 11
913.114439
 21
786.179148
  0
LINE
  8
CSLAYER1
  6
DASHED
 62
     2
 10
913.114439
 20
786.179148
 11
922.088599
 21
778.401543
  0
LINE
  8
CSLAYER1
  6
DASHED
 62
     2
 10
903.660500
 20
736.668840
 11
903.660500
 21
726.668840
  0
LINE
  8
CSLAYER1
  6
DASHED
 62
     2
 10
923.860500
 20
736.668840
 11
933.660500
 21
736.668840
  0
LINE
  8
CSLAYER1
  6
DASHED
 62
     2
 10
927.398924
 20
726.668840
 11
933.660500
 21
726.668840
  0
LINE
  8
CSLAYER1
  6
DASHED
 62
     2
 10
1008.660500
 20
1075.103512
 11
1008.660500
 21
713.751774
  0
LINE
  8
CSLAYER1
  6
DASHED
 62
     2
 10
992.660500
 20
1432.497392
 11
992.660500
 21
713.751774
  0
LINE
  8
CSLAYER1
  6
DASHED
 62
     2
 10
949.660500
 20
1075.103512
 11
949.660500
 21
713.751774
  0
LINE
  8
CSLAYER1
  6
DASHED
 62
     2
 10
933.660500
 20
1075.103512
 11
933.660500
 21
713.751774
  0
LINE
  8
CSLAYER1
  6
DASHED
 62
     2
 10
1025.160500
 20
1620.655253
 11
1025.160500
 21
1455.455253
  0
LINE
  8
CSLAYER1
  6
DASHED
 62
     2
 10
984.160500
 20
1570.455253
 11
984.160500
 21
1455.455253
  0
LINE
  8
CSLAYER1
  6
DASHED
 62
     2
 10
1008.660500
 20
1455.455253
 11
1008.660500
 21
1075.103512
  0
LINE
  8
CSLAYER1
  6
DASHED
 62
     2
 10
992.660500
 20
1455.455253
 11
992.660500
 21
933.990361
  0
LINE
  8
CSLAYER1
  6
DASHED
 62
     2
 10
949.660500
 20
1570.455253
 11
949.660500
 21
1075.103512
  0
LINE
  8
CSLAYER1
  6
DASHED
 62
     2
 10
933.660500
 20
1570.455253
 11
933.660500
 21
1075.103512
  0
LINE
  8
CSLAYER1
  6
DASHED
 62
     2
 10
951.660500
 20
969.146073
 11
951.660500
 21
953.146073
  0
LINE
  8
CSLAYER1
  6
DASHED
 62
     2
 10
961.660500
 20
967.146073
 11
961.660500
 21
953.146073
  0
LINE
  8
CSLAYER1
  6
DASHED
 62
     2
 10
959.660500
 20
969.146073
 11
951.660500
 21
969.146073
  0
LINE
  8
CSLAYER1
  6
DASHED
 62
     2
 10
961.660500
 20
967.146073
 11
959.660500
 21
969.146073
  0
LINE
  8
CSLAYER1
  6
DASHED
 62
     2
 10
959.660500
 20
969.146073
 11
959.660500
 21
953.146073
  0
LINE
  8
CSLAYER1
  6
DASHED
 62
     2
 10
951.660500
 20
937.146073
 11
951.660500
 21
953.146073
  0
LINE
  8
CSLAYER1
  6
DASHED
 62
     2
 10
961.660500
 20
939.146073
 11
961.660500
 21
953.146073
  0
LINE
  8
CSLAYER1
  6
DASHED
 62
     2
 10
959.660500
 20
937.146073
 11
951.660500
 21
937.146073
  0
LINE
  8
CSLAYER1
  6
DASHED
 62
     2
 10
961.660500
 20
939.146073
 11
959.660500
 21
937.146073
  0
LINE
  8
CSLAYER1
  6
DASHED
 62
     2
 10
959.660500
 20
937.146073
 11
959.660500
 21
953.146073
  0
LINE
  8
CSLAYER1
  6
DASHED
 62
     2
 10
951.660500
 20
967.146073
 11
949.660500
 21
967.146073
  0
LINE
  8
CSLAYER1
  6
DASHED
 62
     2
 10
951.660500
 20
939.146073
 11
949.660500
 21
939.146073
  0
LINE
  8
CSLAYER1
  6
DASHED
 62
     2
 10
949.660500
 20
972.582386
 11
992.660500
 21
972.582386
  0
LINE
  8
CSLAYER1
  6
DASHED
 62
     2
 10
852.982784
 20
901.269575
 11
933.660500
 21
901.269575
  0
LINE
  8
CSLAYER1
  6
DASHED
 62
     2
 10
949.660500
 20
901.269575
 11
992.660500
 21
901.269575
  0
LINE
  8
CSLAYER1
  6
DASHED
 62
     2
 10
1024.660500
 20
1018.965974
 11
1024.660500
 21
713.751774
  0
LINE
  8
CSLAYER1
  6
DASHED
 62
     2
 10
1008.660500
 20
1018.965974
 11
1024.660500
 21
1018.965974
  0
LINE
  8
CSLAYER1
  6
DASHED
 62
     2
 10
821.210500
 20
1030.669915
 11
933.660500
 21
1030.669915
  0
LINE
  8
CSLAYER1
  6
DASHED
 62
     2
 10
821.210500
 20
1008.238791
 11
933.660500
 21
1008.238791
  0
LINE
  8
CSLAYER1
  6
DASHED
 62
     2
 10
949.660500
 20
1008.238791
 11
992.660500
 21
1008.238791
  0
LINE
  8
CSLAYER1
  6
DASHED
 62
     2
 10
776.660500
 20
1570.455253
 11
1016.660500
 21
1570.455253
  0
LINE
  8
CSLAYER1
  6
DASHED
 62
     2
 10
1016.660500
 20
1620.655253
 11
1016.660500
 21
1570.455253
  0
LINE
  8
CSLAYER1
  6
DASHED
 62
     2
 10
776.660500
 20
1544.891288
 11
968.222285
 21
1544.891288
  0
LINE
  8
CSLAYER1
  6
DASHED
 62
     2
 10
932.660500
 20
978.656299
 11
932.660500
 21
927.635846
  0
LINE
  8
CSLAYER1
  6
DASHED
 62
     2
 10
901.660500
 20
953.146073
 11
901.660500
 21
917.892213
  0
LINE
  8
CSLAYER1
  6
DASHED
 62
     2
 10
776.660500
 20
1007.952136
 11
842.660500
 21
1007.952136
  0
LINE
  8
CSLAYER1
  6
DASHED
 62
     2
 10
776.660500
 20
976.817893
 11
842.660500
 21
976.817893
  0
LINE
  8
CSLAYER1
  6
DASHED
 62
     2
 10
884.826776
 20
937.578951
 11
915.470517
 21
937.578951
  0
ARC
  8
CSLAYER1
  6
DASHED
 62
     2
 10
927.660500
 20
978.656299
 40
5.000000
 50
0.000000
 51
79.830548
  0
ARC
  8
CSLAYER1
  6
DASHED
 62
     2
 10
927.660500
 20
947.522056
 40
5.000000
 50
-0.000000
 51
79.830548
  0
ARC
  8
CSLAYER1
  6
DASHED
 62
     2
 10
927.660500
 20
927.635846
 40
5.000000
 50
280.169452
 51
360.000000
  0
POINT
  8
CSLAYER1
 62
     2
 10
933.660500
 20
953.146073
  0
LINE
  8
CSLAYER1
  6
DASHED
 62
     2
 10
806.660500
 20
1521.346016
 11
806.660500
 21
1337.780490
  0
LINE
  8
CSLAYER1
  6
DASHED
 62
     2
 10
821.210500
 20
1316.638362
 11
821.210500
 21
1007.952136
  0
LINE
  8
CSLAYER1
  6
DASHED
 62
     2
 10
821.210500
 20
1316.638362
 11
821.040974
 21
1319.081880
  0
LINE
  8
CSLAYER1
  6
DASHED
 62
     2
 10
821.040974
 20
1319.081880
 11
820.533686
 21
1321.506802
  0
LINE
  8
CSLAYER1
  6
DASHED
 62
     2
 10
820.533686
 20
1321.506802
 11
819.692496
 21
1323.894671
  0
LINE
  8
CSLAYER1
  6
DASHED
 62
     2
 10
819.692496
 20
1323.894671
 11
818.523807
 21
1326.227316
  0
LINE
  8
CSLAYER1
  6
DASHED
 62
     2
 10
818.523807
 20
1326.227316
 11
817.036512
 21
1328.486982
  0
LINE
  8
CSLAYER1
  6
DASHED
 62
     2
 10
817.036512
 20
1328.486982
 11
815.241932
 21
1330.656474
  0
LINE
  8
CSLAYER1
  6
DASHED
 62
     2
 10
815.241932
 20
1330.656474
 11
813.153724
 21
1332.719280
  0
LINE
  8
CSLAYER1
  6
DASHED
 62
     2
 10
813.153724
 20
1332.719280
 11
810.787780
 21
1334.659699
  0
LINE
  8
CSLAYER1
  6
DASHED
 62
     2
 10
810.787780
 20
1334.659699
 11
808.162107
 21
1336.462966
  0
LINE
  8
CSLAYER1
  6
DASHED
 62
     2
 10
808.162107
 20
1336.462966
 11
805.296688
 21
1338.115356
  0
LINE
  8
CSLAYER1
  6
DASHED
 62
     2
 10
805.296688
 20
1338.115356
 11
802.213330
 21
1339.604292
  0
LINE
  8
CSLAYER1
  6
DASHED
 62
     2
 10
802.213330
 20
1339.604292
 11
798.935500
 21
1340.918444
  0
LINE
  8
CSLAYER1
  6
DASHED
 62
     2
 10
798.935500
 20
1340.918444
 11
795.488144
 21
1342.047810
  0
LINE
  8
CSLAYER1
  6
DASHED
 62
     2
 10
795.488144
 20
1342.047810
 11
791.897498
 21
1342.983795
  0
LINE
  8
CSLAYER1
  6
DASHED
 62
     2
 10
791.897498
 20
1342.983795
 11
788.190889
 21
1343.719275
  0
LINE
  8
CSLAYER1
  6
DASHED
 62
     2
 10
788.190889
 20
1343.719275
 11
784.396527
 21
1344.248653
  0
LINE
  8
CSLAYER1
  6
DASHED
 62
     2
 10
784.396527
 20
1344.248653
 11
780.543289
 21
1344.567900
  0
LINE
  8
CSLAYER1
  6
DASHED
 62
     2
 10
780.543289
 20
1344.567900
 11
776.660500
 21
1344.674586
  0
LINE
  8
CSLAYER1
  6
DASHED
 62
     2
 10
806.660500
 20
1521.346016
 11
806.546341
 21
1522.991482
  0
LINE
  8
CSLAYER1
  6
DASHED
 62
     2
 10
806.546341
 20
1522.991482
 11
806.204733
 21
1524.624426
  0
LINE
  8
CSLAYER1
  6
DASHED
 62
     2
 10
806.204733
 20
1524.624426
 11
805.638275
 21
1526.232419
  0
LINE
  8
CSLAYER1
  6
DASHED
 62
     2
 10
805.638275
 20
1526.232419
 11
804.851279
 21
1527.803223
  0
LINE
  8
CSLAYER1
  6
DASHED
 62
     2
 10
804.851279
 20
1527.803223
 11
803.849734
 21
1529.324884
  0
LINE
  8
CSLAYER1
  6
DASHED
 62
     2
 10
803.849734
 20
1529.324884
 11
802.641262
 21
1530.785822
  0
LINE
  8
CSLAYER1
  6
DASHED
 62
     2
 10
802.641262
 20
1530.785822
 11
801.235062
 21
1532.174916
  0
LINE
  8
CSLAYER1
  6
DASHED
 62
     2
 10
801.235062
 20
1532.174916
 11
799.641834
 21
1533.481596
  0
LINE
  8
CSLAYER1
  6
DASHED
 62
     2
 10
799.641834
 20
1533.481596
 11
797.873704
 21
1534.695917
  0
LINE
  8
CSLAYER1
  6
DASHED
 62
     2
 10
797.873704
 20
1534.695917
 11
795.944129
 21
1535.808637
  0
LINE
  8
CSLAYER1
  6
DASHED
 62
     2
 10
795.944129
 20
1535.808637
 11
793.867793
 21
1536.811288
  0
LINE
  8
CSLAYER1
  6
DASHED
 62
     2
 10
793.867793
 20
1536.811288
 11
791.660500
 21
1537.696239
  0
LINE
  8
CSLAYER1
  6
DASHED
 62
     2
 10
791.660500
 20
1537.696239
 11
789.339048
 21
1538.456755
  0
LINE
  8
CSLAYER1
  6
DASHED
 62
     2
 10
789.339048
 20
1538.456755
 11
786.921105
 21
1539.087048
  0
LINE
  8
CSLAYER1
  6
DASHED
 62
     2
 10
786.921105
 20
1539.087048
 11
784.425072
 21
1539.582320
  0
LINE
  8
CSLAYER1
  6
DASHED
 62
     2
 10
784.425072
 20
1539.582320
 11
781.869946
 21
1539.938804
  0
LINE
  8
CSLAYER1
  6
DASHED
 62
     2
 10
781.869946
 20
1539.938804
 11
779.275173
 21
1540.153785
  0
LINE
  8
CSLAYER1
  6
DASHED
 62
     2
 10
779.275173
 20
1540.153785
 11
776.660500
 21
1540.225627
  0
LINE
  8
CSLAYER1
  6
DASHED
 62
     2
 10
806.660500
 20
1514.641288
 11
881.160500
 21
1514.641288
  0
LINE
  8
CSLAYER1
  6
DASHED
 62
     2
 10
932.660500
 20
1570.455253
 11
932.660500
 21
1544.891288
  0
LINE
  8
CSLAYER1
  6
DASHED
 62
     2
 10
927.660500
 20
1566.891288
 11
932.660500
 21
1561.891288
  0
LINE
  8
CSLAYER1
  6
DASHED
 62
     2
 10
927.660500
 20
1566.891288
 11
927.660500
 21
1544.891288
  0
LINE
  8
CSLAYER1
  6
DASHED
 62
     2
 10
932.660500
 20
1514.991288
 11
932.660500
 21
1544.891288
  0
ARC
  8
CSLAYER1
  6
DASHED
 62
     2
 10
933.760500
 20
1514.991288
 40
1.100000
 50
180.000000
 51
270.000000
  0
LINE
  8
CSLAYER1
  6
DASHED
 62
     2
 10
927.660500
 20
1522.891288
 11
932.660500
 21
1527.891288
  0
LINE
  8
CSLAYER1
  6
DASHED
 62
     2
 10
927.660500
 20
1522.891288
 11
927.660500
 21
1544.891288
  0
LINE
  8
CSLAYER1
  6
DASHED
 62
     2
 10
883.160500
 20
1570.455253
 11
883.160500
 21
1522.891288
  0
LINE
  8
CSLAYER1
  6
DASHED
 62
     2
 10
883.160500
 20
1516.641288
 11
883.160500
 21
1522.891288
  0
LINE
  8
CSLAYER1
  6
DASHED
 62
     2
 10
883.160500
 20
1516.641288
 11
881.160500
 21
1514.641288
  0
LINE
  8
CSLAYER1
  6
DASHED
 62
     2
 10
883.160500
 20
1566.891288
 11
920.160500
 21
1566.891288
  0
LINE
  8
CSLAYER1
  6
DASHED
 62
     2
 10
883.160500
 20
1566.891288
 11
883.160500
 21
1570.091288
  0
LINE
  8
CSLAYER1
  6
DASHED
 62
     2
 10
920.160500
 20
1566.891288
 11
920.160500
 21
1570.455253
  0
LINE
  8
CSLAYER1
  6
DASHED
 62
     2
 10
927.660500
 20
1522.891288
 11
883.160500
 21
1522.891288
  0
LINE
  8
CSLAYER1
  6
DASHED
 62
     2
 10
927.660500
 20
1566.891288
 11
883.160500
 21
1566.891288
  0
LINE
  8
CSLAYER1
  6
DASHED
 62
     2
 10
893.660500
 20
1061.103512
 11
888.660500
 21
1061.103512
  0
LINE
  8
CSLAYER1
  6
DASHED
 62
     2
 10
887.660500
 20
1062.103512
 11
887.660500
 21
1075.103512
  0
LINE
  8
CSLAYER1
  6
DASHED
 62
     2
 10
887.660500
 20
1062.103512
 11
888.660500
 21
1061.103512
  0
LINE
  8
CSLAYER1
  6
DASHED
 62
     2
 10
888.660500
 20
1061.103512
 11
893.726759
 21
1056.118831
  0
LINE
  8
CSLAYER1
  6
DASHED
 62
     2
 10
893.660500
 20
1056.184022
 11
888.741011
 21
1061.103512
  0
LINE
  8
CSLAYER1
  6
DASHED
 62
     2
 10
893.660500
 20
1056.466865
 11
889.023853
 21
1061.103512
  0
LINE
  8
CSLAYER1
  6
DASHED
 62
     2
 10
893.660500
 20
1056.749708
 11
889.306696
 21
1061.103512
  0
LINE
  8
CSLAYER1
  6
DASHED
 62
     2
 10
893.660500
 20
1057.032550
 11
889.589539
 21
1061.103512
  0
LINE
  8
CSLAYER1
  6
DASHED
 62
     2
 10
893.660500
 20
1057.315393
 11
889.872381
 21
1061.103512
  0
LINE
  8
CSLAYER1
  6
DASHED
 62
     2
 10
893.660500
 20
1057.598236
 11
890.155224
 21
1061.103512
  0
LINE
  8
CSLAYER1
  6
DASHED
 62
     2
 10
893.660500
 20
1057.881079
 11
890.438067
 21
1061.103512
  0
LINE
  8
CSLAYER1
  6
DASHED
 62
     2
 10
893.660500
 20
1058.163921
 11
890.720909
 21
1061.103512
  0
LINE
  8
CSLAYER1
  6
DASHED
 62
     2
 10
893.660500
 20
1058.446764
 11
891.003752
 21
1061.103512
  0
LINE
  8
CSLAYER1
  6
DASHED
 62
     2
 10
893.660500
 20
1058.729607
 11
891.286595
 21
1061.103512
  0
LINE
  8
CSLAYER1
  6
DASHED
 62
     2
 10
893.660500
 20
1059.012449
 11
891.569438
 21
1061.103512
  0
LINE
  8
CSLAYER1
  6
DASHED
 62
     2
 10
893.660500
 20
1059.295292
 11
891.852280
 21
1061.103512
  0
LINE
  8
CSLAYER1
  6
DASHED
 62
     2
 10
893.660500
 20
1059.578135
 11
892.135123
 21
1061.103512
  0
LINE
  8
CSLAYER1
  6
DASHED
 62
     2
 10
893.660500
 20
1059.860978
 11
892.417966
 21
1061.103512
  0
LINE
  8
CSLAYER1
  6
DASHED
 62
     2
 10
893.660500
 20
1060.143820
 11
892.700808
 21
1061.103512
  0
LINE
  8
CSLAYER1
  6
DASHED
 62
     2
 10
893.660500
 20
1060.426663
 11
892.983651
 21
1061.103512
  0
LINE
  8
CSLAYER1
  6
DASHED
 62
     2
 10
893.660500
 20
1060.709506
 11
893.266494
 21
1061.103512
  0
LINE
  8
CSLAYER1
  6
DASHED
 62
     2
 10
893.660500
 20
1060.992348
 11
893.549337
 21
1061.103512
  0
LINE
  8
CSLAYER1
  6
DASHED
 62
     2
 10
893.660500
 20
1089.103512
 11
888.660500
 21
1089.103512
  0
LINE
  8
CSLAYER1
  6
DASHED
 62
     2
 10
887.660500
 20
1088.103512
 11
887.660500
 21
1075.103512
  0
LINE
  8
CSLAYER1
  6
DASHED
 62
     2
 10
887.660500
 20
1088.103512
 11
888.660500
 21
1089.103512
  0
LINE
  8
CSLAYER1
  6
DASHED
 62
     2
 10
910.660500
 20
1094.103512
 11
911.660500
 21
1095.103512
  0
LINE
  8
CSLAYER1
  6
DASHED
 62
     2
 10
888.660500
 20
1089.103512
 11
893.726759
 21
1094.088193
  0
LINE
  8
CSLAYER1
  6
DASHED
 62
     2
 10
893.660500
 20
1094.023002
 11
888.741011
 21
1089.103512
  0
LINE
  8
CSLAYER1
  6
DASHED
 62
     2
 10
893.660500
 20
1093.740159
 11
889.023853
 21
1089.103512
  0
LINE
  8
CSLAYER1
  6
DASHED
 62
     2
 10
893.660500
 20
1093.457316
 11
889.306696
 21
1089.103512
  0
LINE
  8
CSLAYER1
  6
DASHED
 62
     2
 10
893.660500
 20
1093.174474
 11
889.589539
 21
1089.103512
  0
LINE
  8
CSLAYER1
  6
DASHED
 62
     2
 10
893.660500
 20
1092.891631
 11
889.872381
 21
1089.103512
  0
LINE
  8
CSLAYER1
  6
DASHED
 62
     2
 10
893.660500
 20
1092.608788
 11
890.155224
 21
1089.103512
  0
LINE
  8
CSLAYER1
  6
DASHED
 62
     2
 10
893.660500
 20
1092.325946
 11
890.438067
 21
1089.103512
  0
LINE
  8
CSLAYER1
  6
DASHED
 62
     2
 10
893.660500
 20
1092.043103
 11
890.720909
 21
1089.103512
  0
LINE
  8
CSLAYER1
  6
DASHED
 62
     2
 10
893.660500
 20
1091.760260
 11
891.003752
 21
1089.103512
  0
LINE
  8
CSLAYER1
  6
DASHED
 62
     2
 10
893.660500
 20
1091.477417
 11
891.286595
 21
1089.103512
  0
LINE
  8
CSLAYER1
  6
DASHED
 62
     2
 10
893.660500
 20
1091.194575
 11
891.569438
 21
1089.103512
  0
LINE
  8
CSLAYER1
  6
DASHED
 62
     2
 10
893.660500
 20
1090.911732
 11
891.852280
 21
1089.103512
  0
LINE
  8
CSLAYER1
  6
DASHED
 62
     2
 10
893.660500
 20
1090.628889
 11
892.135123
 21
1089.103512
  0
LINE
  8
CSLAYER1
  6
DASHED
 62
     2
 10
893.660500
 20
1090.346047
 11
892.417966
 21
1089.103512
  0
LINE
  8
CSLAYER1
  6
DASHED
 62
     2
 10
893.660500
 20
1090.063204
 11
892.700808
 21
1089.103512
  0
LINE
  8
CSLAYER1
  6
DASHED
 62
     2
 10
893.660500
 20
1089.780361
 11
892.983651
 21
1089.103512
  0
LINE
  8
CSLAYER1
  6
DASHED
 62
     2
 10
893.660500
 20
1089.497518
 11
893.266494
 21
1089.103512
  0
LINE
  8
CSLAYER1
  6
DASHED
 62
     2
 10
893.660500
 20
1089.214676
 11
893.549337
 21
1089.103512
  0
LINE
  8
CSLAYER1
  6
DASHED
 62
     2
 10
990.633960
 20
1053.753512
 11
949.660500
 21
1053.753512
  0
LINE
  8
CSLAYER1
  6
DASHED
 62
     2
 10
887.660500
 20
1062.103512
 11
887.660500
 21
1075.103512
  0
LINE
  8
CSLAYER1
  6
DASHED
 62
     2
 10
887.660500
 20
1062.103512
 11
888.660500
 21
1061.103512
  0
LINE
  8
CSLAYER1
  6
DASHED
 62
     2
 10
888.660500
 20
1061.103512
 11
888.660500
 21
1075.103512
  0
LINE
  8
CSLAYER1
  6
DASHED
 62
     2
 10
910.660500
 20
1094.103512
 11
910.660500
 21
1056.103512
  0
LINE
  8
CSLAYER1
  6
DASHED
 62
     2
 10
888.660500
 20
1061.103512
 11
893.726759
 21
1056.118831
  0
LINE
  8
CSLAYER1
  6
DASHED
 62
     2
 10
893.660500
 20
1056.184022
 11
888.741011
 21
1061.103512
  0
LINE
  8
CSLAYER1
  6
DASHED
 62
     2
 10
893.660500
 20
1056.466865
 11
889.023853
 21
1061.103512
  0
LINE
  8
CSLAYER1
  6
DASHED
 62
     2
 10
893.660500
 20
1056.749708
 11
889.306696
 21
1061.103512
  0
LINE
  8
CSLAYER1
  6
DASHED
 62
     2
 10
893.660500
 20
1057.032550
 11
889.589539
 21
1061.103512
  0
LINE
  8
CSLAYER1
  6
DASHED
 62
     2
 10
893.660500
 20
1057.315393
 11
889.872381
 21
1061.103512
  0
LINE
  8
CSLAYER1
  6
DASHED
 62
     2
 10
893.660500
 20
1057.598236
 11
890.155224
 21
1061.103512
  0
LINE
  8
CSLAYER1
  6
DASHED
 62
     2
 10
893.660500
 20
1057.881079
 11
890.438067
 21
1061.103512
  0
LINE
  8
CSLAYER1
  6
DASHED
 62
     2
 10
893.660500
 20
1058.163921
 11
890.720909
 21
1061.103512
  0
LINE
  8
CSLAYER1
  6
DASHED
 62
     2
 10
893.660500
 20
1058.446764
 11
891.003752
 21
1061.103512
  0
LINE
  8
CSLAYER1
  6
DASHED
 62
     2
 10
893.660500
 20
1058.729607
 11
891.286595
 21
1061.103512
  0
LINE
  8
CSLAYER1
  6
DASHED
 62
     2
 10
893.660500
 20
1059.012449
 11
891.569438
 21
1061.103512
  0
LINE
  8
CSLAYER1
  6
DASHED
 62
     2
 10
893.660500
 20
1059.295292
 11
891.852280
 21
1061.103512
  0
LINE
  8
CSLAYER1
  6
DASHED
 62
     2
 10
893.660500
 20
1059.578135
 11
892.135123
 21
1061.103512
  0
LINE
  8
CSLAYER1
  6
DASHED
 62
     2
 10
893.660500
 20
1059.860978
 11
892.417966
 21
1061.103512
  0
LINE
  8
CSLAYER1
  6
DASHED
 62
     2
 10
893.660500
 20
1060.143820
 11
892.700808
 21
1061.103512
  0
LINE
  8
CSLAYER1
  6
DASHED
 62
     2
 10
893.660500
 20
1060.426663
 11
892.983651
 21
1061.103512
  0
LINE
  8
CSLAYER1
  6
DASHED
 62
     2
 10
893.660500
 20
1060.709506
 11
893.266494
 21
1061.103512
  0
LINE
  8
CSLAYER1
  6
DASHED
 62
     2
 10
893.660500
 20
1060.992348
 11
893.549337
 21
1061.103512
  0
LINE
  8
CSLAYER1
  6
DASHED
 62
     2
 10
991.633960
 20
1095.453512
 11
991.633960
 21
1054.753512
  0
LINE
  8
CSLAYER1
  6
DASHED
 62
     2
 10
991.633960
 20
1054.753512
 11
990.633960
 21
1053.753512
  0
LINE
  8
CSLAYER1
  6
DASHED
 62
     2
 10
1031.633960
 20
1085.103512
 11
1031.633960
 21
1065.103512
  0
LINE
  8
CSLAYER1
  6
DASHED
 62
     2
 10
1012.633960
 20
1093.603512
 11
1012.633960
 21
1056.603512
  0
LINE
  8
CSLAYER1
  6
DASHED
 62
     2
 10
1017.733960
 20
1092.103512
 11
1017.733960
 21
1058.103512
  0
LINE
  8
CSLAYER1
  6
DASHED
 62
     2
 10
1029.733960
 20
1092.103512
 11
1029.733960
 21
1058.103512
  0
LINE
  8
CSLAYER1
  6
DASHED
 62
     2
 10
1012.633960
 20
1092.103512
 11
1029.733960
 21
1092.103512
  0
LINE
  8
CSLAYER1
  6
DASHED
 62
     2
 10
1017.733960
 20
1085.103512
 11
1031.633960
 21
1085.103512
  0
LINE
  8
CSLAYER1
  6
DASHED
 62
     2
 10
1012.633960
 20
1058.103512
 11
1029.733960
 21
1058.103512
  0
LINE
  8
CSLAYER1
  6
DASHED
 62
     2
 10
1017.733960
 20
1065.103512
 11
1031.633960
 21
1065.103512
  0
LINE
  8
CSLAYER1
  6
DASHED
 62
     2
 10
1009.633960
 20
1093.603512
 11
1012.633960
 21
1093.603512
  0
LINE
  8
CSLAYER1
  6
DASHED
 62
     2
 10
1009.633960
 20
1056.603512
 11
1012.633960
 21
1056.603512
  0
LINE
  8
CSLAYER1
  6
DASHED
 62
     2
 10
1009.633960
 20
1056.603512
 11
1009.633960
 21
1093.603512
  0
LINE
  8
CSLAYER1
  6
DASHED
 62
     2
 10
1009.633960
 20
1062.603512
 11
1008.660500
 21
1062.603512
  0
LINE
  8
CSLAYER1
  6
DASHED
 62
     2
 10
990.633960
 20
1096.453512
 11
949.660500
 21
1096.453512
  0
LINE
  8
CSLAYER1
  6
DASHED
 62
     2
 10
893.660500
 20
1089.103512
 11
890.633960
 21
1089.103512
  0
LINE
  8
CSLAYER1
  6
DASHED
 62
     2
 10
887.660500
 20
1088.103512
 11
887.660500
 21
1075.103512
  0
LINE
  8
CSLAYER1
  6
DASHED
 62
     2
 10
887.660500
 20
1088.103512
 11
888.660500
 21
1089.103512
  0
LINE
  8
CSLAYER1
  6
DASHED
 62
     2
 10
888.660500
 20
1089.103512
 11
888.660500
 21
1075.103512
  0
LINE
  8
CSLAYER1
  6
DASHED
 62
     2
 10
910.660500
 20
1094.103512
 11
911.660500
 21
1095.103512
  0
LINE
  8
CSLAYER1
  6
DASHED
 62
     2
 10
888.660500
 20
1089.103512
 11
893.726759
 21
1094.088193
  0
LINE
  8
CSLAYER1
  6
DASHED
 62
     2
 10
893.660500
 20
1094.023002
 11
888.741011
 21
1089.103512
  0
LINE
  8
CSLAYER1
  6
DASHED
 62
     2
 10
893.660500
 20
1093.740159
 11
889.023853
 21
1089.103512
  0
LINE
  8
CSLAYER1
  6
DASHED
 62
     2
 10
893.660500
 20
1093.457316
 11
889.306696
 21
1089.103512
  0
LINE
  8
CSLAYER1
  6
DASHED
 62
     2
 10
893.660500
 20
1093.174474
 11
889.589539
 21
1089.103512
  0
LINE
  8
CSLAYER1
  6
DASHED
 62
     2
 10
893.660500
 20
1092.891631
 11
889.872381
 21
1089.103512
  0
LINE
  8
CSLAYER1
  6
DASHED
 62
     2
 10
893.660500
 20
1092.608788
 11
890.155224
 21
1089.103512
  0
LINE
  8
CSLAYER1
  6
DASHED
 62
     2
 10
893.660500
 20
1092.325946
 11
890.438067
 21
1089.103512
  0
LINE
  8
CSLAYER1
  6
DASHED
 62
     2
 10
893.660500
 20
1092.043103
 11
890.720909
 21
1089.103512
  0
LINE
  8
CSLAYER1
  6
DASHED
 62
     2
 10
893.660500
 20
1091.760260
 11
891.003752
 21
1089.103512
  0
LINE
  8
CSLAYER1
  6
DASHED
 62
     2
 10
893.660500
 20
1091.477417
 11
891.286595
 21
1089.103512
  0
LINE
  8
CSLAYER1
  6
DASHED
 62
     2
 10
893.660500
 20
1091.194575
 11
891.569438
 21
1089.103512
  0
LINE
  8
CSLAYER1
  6
DASHED
 62
     2
 10
893.660500
 20
1090.911732
 11
891.852280
 21
1089.103512
  0
LINE
  8
CSLAYER1
  6
DASHED
 62
     2
 10
893.660500
 20
1090.628889
 11
892.135123
 21
1089.103512
  0
LINE
  8
CSLAYER1
  6
DASHED
 62
     2
 10
893.660500
 20
1090.346047
 11
892.417966
 21
1089.103512
  0
LINE
  8
CSLAYER1
  6
DASHED
 62
     2
 10
893.660500
 20
1090.063204
 11
892.700808
 21
1089.103512
  0
LINE
  8
CSLAYER1
  6
DASHED
 62
     2
 10
893.660500
 20
1089.780361
 11
892.983651
 21
1089.103512
  0
LINE
  8
CSLAYER1
  6
DASHED
 62
     2
 10
893.660500
 20
1089.497518
 11
893.266494
 21
1089.103512
  0
LINE
  8
CSLAYER1
  6
DASHED
 62
     2
 10
893.660500
 20
1089.214676
 11
893.549337
 21
1089.103512
  0
LINE
  8
CSLAYER1
  6
DASHED
 62
     2
 10
991.633960
 20
1095.453512
 11
990.633960
 21
1096.453512
  0
LINE
  8
CSLAYER1
  6
DASHED
 62
     2
 10
1009.633960
 20
1087.603512
 11
1008.660500
 21
1087.603512
  0
LINE
  8
CSLAYER1
  6
DASHED
 62
     2
 10
954.660500
 20
1053.753512
 11
949.660500
 21
1048.753512
  0
LINE
  8
CSLAYER1
  6
DASHED
 62
     2
 10
949.660500
 20
1049.036355
 11
954.377658
 21
1053.753512
  0
LINE
  8
CSLAYER1
  6
DASHED
 62
     2
 10
949.660500
 20
1049.319198
 11
954.094815
 21
1053.753512
  0
LINE
  8
CSLAYER1
  6
DASHED
 62
     2
 10
949.660500
 20
1049.602040
 11
953.811972
 21
1053.753512
  0
LINE
  8
CSLAYER1
  6
DASHED
 62
     2
 10
949.660500
 20
1049.884883
 11
953.529129
 21
1053.753512
  0
LINE
  8
CSLAYER1
  6
DASHED
 62
     2
 10
949.660500
 20
1050.167726
 11
953.246287
 21
1053.753512
  0
LINE
  8
CSLAYER1
  6
DASHED
 62
     2
 10
949.660500
 20
1050.450568
 11
952.963444
 21
1053.753512
  0
LINE
  8
CSLAYER1
  6
DASHED
 62
     2
 10
949.660500
 20
1050.733411
 11
952.680601
 21
1053.753512
  0
LINE
  8
CSLAYER1
  6
DASHED
 62
     2
 10
949.660500
 20
1051.016254
 11
952.397759
 21
1053.753512
  0
LINE
  8
CSLAYER1
  6
DASHED
 62
     2
 10
949.660500
 20
1051.299097
 11
952.114916
 21
1053.753512
  0
LINE
  8
CSLAYER1
  6
DASHED
 62
     2
 10
949.660500
 20
1051.581939
 11
951.832073
 21
1053.753512
  0
LINE
  8
CSLAYER1
  6
DASHED
 62
     2
 10
949.660500
 20
1051.864782
 11
951.549230
 21
1053.753512
  0
LINE
  8
CSLAYER1
  6
DASHED
 62
     2
 10
949.660500
 20
1052.147625
 11
951.266388
 21
1053.753512
  0
LINE
  8
CSLAYER1
  6
DASHED
 62
     2
 10
949.660500
 20
1052.430467
 11
950.983545
 21
1053.753512
  0
LINE
  8
CSLAYER1
  6
DASHED
 62
     2
 10
949.660500
 20
1052.713310
 11
950.700702
 21
1053.753512
  0
LINE
  8
CSLAYER1
  6
DASHED
 62
     2
 10
949.660500
 20
1052.996153
 11
950.417860
 21
1053.753512
  0
LINE
  8
CSLAYER1
  6
DASHED
 62
     2
 10
949.660500
 20
1053.278996
 11
950.135017
 21
1053.753512
  0
LINE
  8
CSLAYER1
  6
DASHED
 62
     2
 10
949.660500
 20
1053.561838
 11
949.852174
 21
1053.753512
  0
LINE
  8
CSLAYER1
  6
DASHED
 62
     2
 10
933.660500
 20
1099.820669
 11
928.943343
 21
1095.103512
  0
LINE
  8
CSLAYER1
  6
DASHED
 62
     2
 10
933.660500
 20
1099.537827
 11
929.226186
 21
1095.103512
  0
LINE
  8
CSLAYER1
  6
DASHED
 62
     2
 10
933.660500
 20
1099.254984
 11
929.509028
 21
1095.103512
  0
LINE
  8
CSLAYER1
  6
DASHED
 62
     2
 10
933.660500
 20
1098.972141
 11
929.791871
 21
1095.103512
  0
LINE
  8
CSLAYER1
  6
DASHED
 62
     2
 10
933.660500
 20
1098.689299
 11
930.074714
 21
1095.103512
  0
LINE
  8
CSLAYER1
  6
DASHED
 62
     2
 10
933.660500
 20
1098.406456
 11
930.357557
 21
1095.103512
  0
LINE
  8
CSLAYER1
  6
DASHED
 62
     2
 10
933.660500
 20
1098.123613
 11
930.640399
 21
1095.103512
  0
LINE
  8
CSLAYER1
  6
DASHED
 62
     2
 10
933.660500
 20
1097.840770
 11
930.923242
 21
1095.103512
  0
LINE
  8
CSLAYER1
  6
DASHED
 62
     2
 10
933.660500
 20
1097.557928
 11
931.206085
 21
1095.103512
  0
LINE
  8
CSLAYER1
  6
DASHED
 62
     2
 10
933.660500
 20
1097.275085
 11
931.488927
 21
1095.103512
  0
LINE
  8
CSLAYER1
  6
DASHED
 62
     2
 10
933.660500
 20
1096.992242
 11
931.771770
 21
1095.103512
  0
LINE
  8
CSLAYER1
  6
DASHED
 62
     2
 10
933.660500
 20
1096.709400
 11
932.054613
 21
1095.103512
  0
LINE
  8
CSLAYER1
  6
DASHED
 62
     2
 10
933.660500
 20
1096.426557
 11
932.337456
 21
1095.103512
  0
LINE
  8
CSLAYER1
  6
DASHED
 62
     2
 10
933.660500
 20
1096.143714
 11
932.620298
 21
1095.103512
  0
LINE
  8
CSLAYER1
  6
DASHED
 62
     2
 10
933.660500
 20
1095.860871
 11
932.903141
 21
1095.103512
  0
LINE
  8
CSLAYER1
  6
DASHED
 62
     2
 10
933.660500
 20
1095.578029
 11
933.185984
 21
1095.103512
  0
LINE
  8
CSLAYER1
  6
DASHED
 62
     2
 10
933.660500
 20
1095.295186
 11
933.468826
 21
1095.103512
  0
LINE
  8
CSLAYER1
  6
DASHED
 62
     2
 10
954.660500
 20
1096.453512
 11
949.660500
 21
1101.453512
  0
LINE
  8
CSLAYER1
  6
DASHED
 62
     2
 10
949.660500
 20
1101.170669
 11
954.377658
 21
1096.453512
  0
LINE
  8
CSLAYER1
  6
DASHED
 62
     2
 10
949.660500
 20
1100.887827
 11
954.094815
 21
1096.453512
  0
LINE
  8
CSLAYER1
  6
DASHED
 62
     2
 10
949.660500
 20
1100.604984
 11
953.811972
 21
1096.453512
  0
LINE
  8
CSLAYER1
  6
DASHED
 62
     2
 10
949.660500
 20
1100.322141
 11
953.529129
 21
1096.453512
  0
LINE
  8
CSLAYER1
  6
DASHED
 62
     2
 10
949.660500
 20
1100.039299
 11
953.246287
 21
1096.453512
  0
LINE
  8
CSLAYER1
  6
DASHED
 62
     2
 10
949.660500
 20
1099.756456
 11
952.963444
 21
1096.453512
  0
LINE
  8
CSLAYER1
  6
DASHED
 62
     2
 10
949.660500
 20
1099.473613
 11
952.680601
 21
1096.453512
  0
LINE
  8
CSLAYER1
  6
DASHED
 62
     2
 10
949.660500
 20
1099.190770
 11
952.397759
 21
1096.453512
  0
LINE
  8
CSLAYER1
  6
DASHED
 62
     2
 10
949.660500
 20
1098.907928
 11
952.114916
 21
1096.453512
  0
LINE
  8
CSLAYER1
  6
DASHED
 62
     2
 10
949.660500
 20
1098.625085
 11
951.832073
 21
1096.453512
  0
LINE
  8
CSLAYER1
  6
DASHED
 62
     2
 10
949.660500
 20
1098.342242
 11
951.549230
 21
1096.453512
  0
LINE
  8
CSLAYER1
  6
DASHED
 62
     2
 10
949.660500
 20
1098.059400
 11
951.266388
 21
1096.453512
  0
LINE
  8
CSLAYER1
  6
DASHED
 62
     2
 10
949.660500
 20
1097.776557
 11
950.983545
 21
1096.453512
  0
LINE
  8
CSLAYER1
  6
DASHED
 62
     2
 10
949.660500
 20
1097.493714
 11
950.700702
 21
1096.453512
  0
LINE
  8
CSLAYER1
  6
DASHED
 62
     2
 10
949.660500
 20
1097.210871
 11
950.417860
 21
1096.453512
  0
LINE
  8
CSLAYER1
  6
DASHED
 62
     2
 10
949.660500
 20
1096.928029
 11
950.135017
 21
1096.453512
  0
LINE
  8
CSLAYER1
  6
DASHED
 62
     2
 10
949.660500
 20
1096.645186
 11
949.852174
 21
1096.453512
  0
LINE
  8
CSLAYER1
  6
DASHED
 62
     2
 10
933.660500
 20
1096.426557
 11
933.660500
 21
1095.103512
  0
LINE
  8
CSLAYER1
  6
DASHED
 62
     2
 10
932.620298
 20
1095.103512
 11
933.660500
 21
1095.103512
  0
LINE
  8
CSLAYER1
  6
DASHED
 62
     2
 10
893.660500
 20
1051.103512
 11
909.660500
 21
1051.103512
  0
LINE
  8
CSLAYER1
  6
DASHED
 62
     2
 10
931.468826
 20
1095.103512
 11
911.660500
 21
1095.103512
  0
LINE
  8
CSLAYER1
  6
DASHED
 62
     2
 10
910.660500
 20
1090.103512
 11
909.660500
 21
1090.103512
  0
LINE
  8
CSLAYER1
  6
DASHED
 62
     2
 10
910.660500
 20
1060.103512
 11
909.660500
 21
1060.103512
  0
LINE
  8
CSLAYER1
  6
DASHED
 62
     2
 10
910.660500
 20
1060.103512
 11
909.660500
 21
1060.103512
  0
LINE
  8
CSLAYER1
  6
DASHED
 62
     2
 10
992.660500
 20
1090.103512
 11
991.633960
 21
1090.103512
  0
LINE
  8
CSLAYER1
  6
DASHED
 62
     2
 10
992.660500
 20
1060.103512
 11
991.633960
 21
1060.103512
  0
LINE
  8
CSLAYER1
  6
DASHED
 62
     2
 10
910.660500
 20
1056.103512
 11
911.660500
 21
1055.103512
  0
LINE
  8
CSLAYER1
  6
DASHED
 62
     2
 10
910.660500
 20
1056.103512
 11
911.660500
 21
1055.103512
  0
LINE
  8
CSLAYER1
  6
DASHED
 62
     2
 10
933.660500
 20
1050.386355
 11
928.943343
 21
1055.103512
  0
LINE
  8
CSLAYER1
  6
DASHED
 62
     2
 10
933.660500
 20
1050.669198
 11
929.226186
 21
1055.103512
  0
LINE
  8
CSLAYER1
  6
DASHED
 62
     2
 10
933.660500
 20
1050.952040
 11
929.509028
 21
1055.103512
  0
LINE
  8
CSLAYER1
  6
DASHED
 62
     2
 10
933.660500
 20
1051.234883
 11
929.791871
 21
1055.103512
  0
LINE
  8
CSLAYER1
  6
DASHED
 62
     2
 10
933.660500
 20
1051.517726
 11
930.074714
 21
1055.103512
  0
LINE
  8
CSLAYER1
  6
DASHED
 62
     2
 10
933.660500
 20
1051.800568
 11
930.357557
 21
1055.103512
  0
LINE
  8
CSLAYER1
  6
DASHED
 62
     2
 10
933.660500
 20
1052.083411
 11
930.640399
 21
1055.103512
  0
LINE
  8
CSLAYER1
  6
DASHED
 62
     2
 10
933.660500
 20
1052.366254
 11
930.923242
 21
1055.103512
  0
LINE
  8
CSLAYER1
  6
DASHED
 62
     2
 10
933.660500
 20
1052.649097
 11
931.206085
 21
1055.103512
  0
LINE
  8
CSLAYER1
  6
DASHED
 62
     2
 10
933.660500
 20
1052.931939
 11
931.488927
 21
1055.103512
  0
LINE
  8
CSLAYER1
  6
DASHED
 62
     2
 10
933.660500
 20
1053.214782
 11
931.771770
 21
1055.103512
  0
LINE
  8
CSLAYER1
  6
DASHED
 62
     2
 10
933.660500
 20
1053.497625
 11
932.054613
 21
1055.103512
  0
LINE
  8
CSLAYER1
  6
DASHED
 62
     2
 10
933.660500
 20
1053.780467
 11
932.337456
 21
1055.103512
  0
LINE
  8
CSLAYER1
  6
DASHED
 62
     2
 10
933.660500
 20
1054.063310
 11
932.620298
 21
1055.103512
  0
LINE
  8
CSLAYER1
  6
DASHED
 62
     2
 10
933.660500
 20
1054.346153
 11
932.903141
 21
1055.103512
  0
LINE
  8
CSLAYER1
  6
DASHED
 62
     2
 10
933.660500
 20
1054.628996
 11
933.185984
 21
1055.103512
  0
LINE
  8
CSLAYER1
  6
DASHED
 62
     2
 10
933.660500
 20
1054.911838
 11
933.468826
 21
1055.103512
  0
LINE
  8
CSLAYER1
  6
DASHED
 62
     2
 10
933.660500
 20
1053.780467
 11
933.660500
 21
1055.103512
  0
LINE
  8
CSLAYER1
  6
DASHED
 62
     2
 10
932.620298
 20
1055.103512
 11
933.660500
 21
1055.103512
  0
LINE
  8
CSLAYER1
  6
DASHED
 62
     2
 10
931.468826
 20
1055.103512
 11
911.660500
 21
1055.103512
  0
LINE
  8
CSLAYER1
  6
DASHED
 62
     2
 10
909.660500
 20
1166.985864
 11
909.660500
 21
1030.669915
  0
LINE
  8
CSLAYER1
  6
DASHED
 62
     2
 10
893.660500
 20
1166.985864
 11
893.660500
 21
1030.669915
  0
LINE
  8
CSLAYER1
  6
DASHED
 62
     2
 10
992.660500
 20
1030.669915
 11
949.660500
 21
1030.669915
  0
LINE
  8
CSLAYER1
  6
DASHED
 62
     2
 10
952.160500
 20
1557.391288
 11
951.010500
 21
1557.391288
  0
LINE
  8
CSLAYER1
  6
DASHED
 62
     2
 10
951.010500
 20
1556.841288
 11
949.660500
 21
1556.841288
  0
LINE
  8
CSLAYER1
  6
DASHED
 62
     2
 10
951.010500
 20
1559.941288
 11
949.660500
 21
1559.941288
  0
LINE
  8
CSLAYER1
  6
DASHED
 62
     2
 10
951.010500
 20
1559.941288
 11
951.010500
 21
1544.891288
  0
LINE
  8
CSLAYER1
  6
DASHED
 62
     2
 10
953.660500
 20
1544.891288
 11
953.660500
 21
1555.891288
  0
LINE
  8
CSLAYER1
  6
DASHED
 62
     2
 10
953.660500
 20
1555.891288
 11
952.160500
 21
1557.391288
  0
LINE
  8
CSLAYER1
  6
DASHED
 62
     2
 10
952.160500
 20
1557.391288
 11
952.160500
 21
1544.891288
  0
LINE
  8
CSLAYER1
  6
DASHED
 62
     2
 10
952.160500
 20
1532.391288
 11
951.010500
 21
1532.391288
  0
LINE
  8
CSLAYER1
  6
DASHED
 62
     2
 10
951.010500
 20
1532.941288
 11
949.660500
 21
1532.941288
  0
LINE
  8
CSLAYER1
  6
DASHED
 62
     2
 10
951.010500
 20
1529.841288
 11
949.660500
 21
1529.841288
  0
LINE
  8
CSLAYER1
  6
DASHED
 62
     2
 10
951.010500
 20
1529.841288
 11
951.010500
 21
1544.891288
  0
LINE
  8
CSLAYER1
  6
DASHED
 62
     2
 10
953.660500
 20
1544.891288
 11
953.660500
 21
1533.891288
  0
LINE
  8
CSLAYER1
  6
DASHED
 62
     2
 10
953.660500
 20
1533.891288
 11
952.160500
 21
1532.391288
  0
LINE
  8
CSLAYER1
  6
DASHED
 62
     2
 10
952.160500
 20
1532.391288
 11
952.160500
 21
1544.891288
  0
LINE
  8
CSLAYER1
  6
DASHED
 62
     2
 10
842.660500
 20
1007.952136
 11
928.543300
 21
983.577749
  0
LINE
  8
CSLAYER1
  6
DASHED
 62
     2
 10
842.660500
 20
976.817893
 11
928.543300
 21
952.443506
  0
LINE
  8
CSLAYER1
  6
DASHED
 62
     2
 10
928.543300
 20
922.714397
 11
842.660500
 21
898.340009
  0
LINE
  8
CSLAYER1
  6
DASHED
 62
     2
 10
544.660500
 20
1075.103512
 11
544.660500
 21
713.751774
  0
LINE
  8
CSLAYER1
  6
DASHED
 62
     2
 10
560.660500
 20
1432.497392
 11
560.660500
 21
713.751774
  0
LINE
  8
CSLAYER1
  6
DASHED
 62
     2
 10
603.660500
 20
1075.103512
 11
603.660500
 21
713.751774
  0
LINE
  8
CSLAYER1
  6
DASHED
 62
     2
 10
619.660500
 20
1075.103512
 11
619.660500
 21
713.751774
  0
LINE
  8
CSLAYER1
  6
DASHED
 62
     2
 10
528.160500
 20
1620.655253
 11
528.160500
 21
1455.455253
  0
LINE
  8
CSLAYER1
  6
DASHED
 62
     2
 10
569.160500
 20
1570.455253
 11
569.160500
 21
1455.455253
  0
LINE
  8
CSLAYER1
  6
DASHED
 62
     2
 10
521.952648
 20
1474.455253
 11
573.218915
 21
1474.455253
  0
LINE
  8
CSLAYER1
  6
DASHED
 62
     2
 10
524.960500
 20
1497.455253
 11
524.960500
 21
1466.455253
  0
LINE
  8
CSLAYER1
  6
DASHED
 62
     2
 10
524.960500
 20
1470.455253
 11
528.160500
 21
1470.455253
  0
LINE
  8
CSLAYER1
  6
DASHED
 62
     2
 10
520.469626
 20
1489.455253
 11
534.160500
 21
1489.455253
  0
LINE
  8
CSLAYER1
  6
DASHED
 62
     2
 10
524.960500
 20
1497.455253
 11
528.160500
 21
1497.455253
  0
LINE
  8
CSLAYER1
  6
DASHED
 62
     2
 10
570.160500
 20
1474.455253
 11
570.160500
 21
1467.455253
  0
LINE
  8
CSLAYER1
  6
DASHED
 62
     2
 10
570.160500
 20
1467.455253
 11
569.160500
 21
1466.455253
  0
LINE
  8
CSLAYER1
  6
DASHED
 62
     2
 10
524.960500
 20
1466.455253
 11
528.160500
 21
1466.455253
  0
LINE
  8
CSLAYER1
  6
DASHED
 62
     2
 10
528.160500
 20
1455.455253
 11
569.160500
 21
1455.455253
  0
LINE
  8
CSLAYER1
  6
DASHED
 62
     2
 10
570.160500
 20
1474.455253
 11
570.160500
 21
1481.455253
  0
LINE
  8
CSLAYER1
  6
DASHED
 62
     2
 10
570.160500
 20
1481.455253
 11
569.160500
 21
1482.455253
  0
LINE
  8
CSLAYER1
  6
DASHED
 62
     2
 10
524.960500
 20
1478.455253
 11
528.160500
 21
1478.455253
  0
LINE
  8
CSLAYER1
  6
DASHED
 62
     2
 10
544.660500
 20
1455.455253
 11
544.660500
 21
1075.103512
  0
LINE
  8
CSLAYER1
  6
DASHED
 62
     2
 10
560.660500
 20
1455.455253
 11
560.660500
 21
933.990361
  0
LINE
  8
CSLAYER1
  6
DASHED
 62
     2
 10
603.660500
 20
1570.455253
 11
603.660500
 21
1075.103512
  0
LINE
  8
CSLAYER1
  6
DASHED
 62
     2
 10
619.660500
 20
1570.455253
 11
619.660500
 21
1075.103512
  0
LINE
  8
CSLAYER1
  6
DASHED
 62
     2
 10
601.660500
 20
969.146073
 11
601.660500
 21
953.146073
  0
LINE
  8
CSLAYER1
  6
DASHED
 62
     2
 10
591.660500
 20
967.146073
 11
591.660500
 21
953.146073
  0
LINE
  8
CSLAYER1
  6
DASHED
 62
     2
 10
593.660500
 20
969.146073
 11
601.660500
 21
969.146073
  0
LINE
  8
CSLAYER1
  6
DASHED
 62
     2
 10
591.660500
 20
967.146073
 11
593.660500
 21
969.146073
  0
LINE
  8
CSLAYER1
  6
DASHED
 62
     2
 10
593.660500
 20
969.146073
 11
593.660500
 21
953.146073
  0
LINE
  8
CSLAYER1
  6
DASHED
 62
     2
 10
601.660500
 20
937.146073
 11
601.660500
 21
953.146073
  0
LINE
  8
CSLAYER1
  6
DASHED
 62
     2
 10
591.660500
 20
939.146073
 11
591.660500
 21
953.146073
  0
LINE
  8
CSLAYER1
  6
DASHED
 62
     2
 10
593.660500
 20
937.146073
 11
601.660500
 21
937.146073
  0
LINE
  8
CSLAYER1
  6
DASHED
 62
     2
 10
591.660500
 20
939.146073
 11
593.660500
 21
937.146073
  0
LINE
  8
CSLAYER1
  6
DASHED
 62
     2
 10
593.660500
 20
937.146073
 11
593.660500
 21
953.146073
  0
LINE
  8
CSLAYER1
  6
DASHED
 62
     2
 10
601.660500
 20
967.146073
 11
603.660500
 21
967.146073
  0
LINE
  8
CSLAYER1
  6
DASHED
 62
     2
 10
601.660500
 20
939.146073
 11
603.660500
 21
939.146073
  0
LINE
  8
CSLAYER1
  6
DASHED
 62
     2
 10
603.660500
 20
972.582386
 11
560.660500
 21
972.582386
  0
LINE
  8
CSLAYER1
  6
DASHED
 62
     2
 10
700.338216
 20
901.269575
 11
619.660500
 21
901.269575
  0
LINE
  8
CSLAYER1
  6
DASHED
 62
     2
 10
603.660500
 20
901.269575
 11
560.660500
 21
901.269575
  0
LINE
  8
CSLAYER1
  6
DASHED
 62
     2
 10
528.660500
 20
1018.965974
 11
528.660500
 21
713.751774
  0
LINE
  8
CSLAYER1
  6
DASHED
 62
     2
 10
544.660500
 20
1018.965974
 11
528.660500
 21
1018.965974
  0
LINE
  8
CSLAYER1
  6
DASHED
 62
     2
 10
732.110500
 20
1030.669915
 11
619.660500
 21
1030.669915
  0
LINE
  8
CSLAYER1
  6
DASHED
 62
     2
 10
732.110500
 20
1008.238791
 11
619.660500
 21
1008.238791
  0
LINE
  8
CSLAYER1
  6
DASHED
 62
     2
 10
603.660500
 20
1008.238791
 11
560.660500
 21
1008.238791
  0
LINE
  8
CSLAYER1
  6
DASHED
 62
     2
 10
776.660500
 20
1570.455253
 11
536.660500
 21
1570.455253
  0
LINE
  8
CSLAYER1
  6
DASHED
 62
     2
 10
536.660500
 20
1620.655253
 11
536.660500
 21
1570.455253
  0
LINE
  8
CSLAYER1
  6
DASHED
 62
     2
 10
620.660500
 20
978.656299
 11
620.660500
 21
927.635846
  0
LINE
  8
CSLAYER1
  6
DASHED
 62
     2
 10
651.660500
 20
953.146073
 11
651.660500
 21
917.892213
  0
LINE
  8
CSLAYER1
  6
DASHED
 62
     2
 10
776.660500
 20
1007.952136
 11
710.660500
 21
1007.952136
  0
LINE
  8
CSLAYER1
  6
DASHED
 62
     2
 10
776.660500
 20
976.817893
 11
710.660500
 21
976.817893
  0
LINE
  8
CSLAYER1
  6
DASHED
 62
     2
 10
668.494224
 20
937.578951
 11
637.850483
 21
937.578951
  0
ARC
  8
CSLAYER1
  6
DASHED
 62
     2
 10
625.660500
 20
978.656299
 40
5.000000
 50
100.169452
 51
180.000000
  0
ARC
  8
CSLAYER1
  6
DASHED
 62
     2
 10
625.660500
 20
947.522056
 40
5.000000
 50
100.169452
 51
180.000000
  0
ARC
  8
CSLAYER1
  6
DASHED
 62
     2
 10
625.660500
 20
927.635846
 40
5.000000
 50
180.000000
 51
259.830548
  0
POINT
  8
CSLAYER1
 62
     2
 10
619.660500
 20
953.146073
  0
LINE
  8
CSLAYER1
  6
DASHED
 62
     2
 10
746.660500
 20
1521.346016
 11
746.660500
 21
1337.780490
  0
LINE
  8
CSLAYER1
  6
DASHED
 62
     2
 10
732.110500
 20
1316.638362
 11
732.110500
 21
1007.952136
  0
LINE
  8
CSLAYER1
  6
DASHED
 62
     2
 10
732.110500
 20
1316.638362
 11
732.280026
 21
1319.081880
  0
LINE
  8
CSLAYER1
  6
DASHED
 62
     2
 10
732.280026
 20
1319.081880
 11
732.787315
 21
1321.506802
  0
LINE
  8
CSLAYER1
  6
DASHED
 62
     2
 10
732.787315
 20
1321.506802
 11
733.628505
 21
1323.894671
  0
LINE
  8
CSLAYER1
  6
DASHED
 62
     2
 10
733.628505
 20
1323.894671
 11
734.797194
 21
1326.227316
  0
LINE
  8
CSLAYER1
  6
DASHED
 62
     2
 10
734.797194
 20
1326.227316
 11
736.284488
 21
1328.486982
  0
LINE
  8
CSLAYER1
  6
DASHED
 62
     2
 10
736.284488
 20
1328.486982
 11
738.079069
 21
1330.656474
  0
LINE
  8
CSLAYER1
  6
DASHED
 62
     2
 10
738.079069
 20
1330.656474
 11
740.167277
 21
1332.719280
  0
LINE
  8
CSLAYER1
  6
DASHED
 62
     2
 10
740.167277
 20
1332.719280
 11
742.533220
 21
1334.659699
  0
LINE
  8
CSLAYER1
  6
DASHED
 62
     2
 10
742.533220
 20
1334.659699
 11
745.158893
 21
1336.462966
  0
LINE
  8
CSLAYER1
  6
DASHED
 62
     2
 10
745.158893
 20
1336.462966
 11
748.024312
 21
1338.115356
  0
LINE
  8
CSLAYER1
  6
DASHED
 62
     2
 10
748.024312
 20
1338.115356
 11
751.107670
 21
1339.604292
  0
LINE
  8
CSLAYER1
  6
DASHED
 62
     2
 10
751.107670
 20
1339.604292
 11
754.385500
 21
1340.918444
  0
LINE
  8
CSLAYER1
  6
DASHED
 62
     2
 10
754.385500
 20
1340.918444
 11
757.832857
 21
1342.047810
  0
LINE
  8
CSLAYER1
  6
DASHED
 62
     2
 10
757.832857
 20
1342.047810
 11
761.423503
 21
1342.983795
  0
LINE
  8
CSLAYER1
  6
DASHED
 62
     2
 10
761.423503
 20
1342.983795
 11
765.130112
 21
1343.719275
  0
LINE
  8
CSLAYER1
  6
DASHED
 62
     2
 10
765.130112
 20
1343.719275
 11
768.924474
 21
1344.248653
  0
LINE
  8
CSLAYER1
  6
DASHED
 62
     2
 10
768.924474
 20
1344.248653
 11
772.777712
 21
1344.567900
  0
LINE
  8
CSLAYER1
  6
DASHED
 62
     2
 10
772.777712
 20
1344.567900
 11
776.660500
 21
1344.674586
  0
LINE
  8
CSLAYER1
  6
DASHED
 62
     2
 10
746.660500
 20
1521.346016
 11
746.774659
 21
1522.991482
  0
LINE
  8
CSLAYER1
  6
DASHED
 62
     2
 10
746.774659
 20
1522.991482
 11
747.116268
 21
1524.624426
  0
LINE
  8
CSLAYER1
  6
DASHED
 62
     2
 10
747.116268
 20
1524.624426
 11
747.682725
 21
1526.232419
  0
LINE
  8
CSLAYER1
  6
DASHED
 62
     2
 10
747.682725
 20
1526.232419
 11
748.469722
 21
1527.803223
  0
LINE
  8
CSLAYER1
  6
DASHED
 62
     2
 10
748.469722
 20
1527.803223
 11
749.471267
 21
1529.324884
  0
LINE
  8
CSLAYER1
  6
DASHED
 62
     2
 10
749.471267
 20
1529.324884
 11
750.679738
 21
1530.785822
  0
LINE
  8
CSLAYER1
  6
DASHED
 62
     2
 10
750.679738
 20
1530.785822
 11
752.085939
 21
1532.174916
  0
LINE
  8
CSLAYER1
  6
DASHED
 62
     2
 10
752.085939
 20
1532.174916
 11
753.679167
 21
1533.481596
  0
LINE
  8
CSLAYER1
  6
DASHED
 62
     2
 10
753.679167
 20
1533.481596
 11
755.447297
 21
1534.695917
  0
LINE
  8
CSLAYER1
  6
DASHED
 62
     2
 10
755.447297
 20
1534.695917
 11
757.376872
 21
1535.808637
  0
LINE
  8
CSLAYER1
  6
DASHED
 62
     2
 10
757.376872
 20
1535.808637
 11
759.453207
 21
1536.811288
  0
LINE
  8
CSLAYER1
  6
DASHED
 62
     2
 10
759.453207
 20
1536.811288
 11
761.660500
 21
1537.696239
  0
LINE
  8
CSLAYER1
  6
DASHED
 62
     2
 10
761.660500
 20
1537.696239
 11
763.981952
 21
1538.456755
  0
LINE
  8
CSLAYER1
  6
DASHED
 62
     2
 10
763.981952
 20
1538.456755
 11
766.399896
 21
1539.087048
  0
LINE
  8
CSLAYER1
  6
DASHED
 62
     2
 10
766.399896
 20
1539.087048
 11
768.895929
 21
1539.582320
  0
LINE
  8
CSLAYER1
  6
DASHED
 62
     2
 10
768.895929
 20
1539.582320
 11
771.451055
 21
1539.938804
  0
LINE
  8
CSLAYER1
  6
DASHED
 62
     2
 10
771.451055
 20
1539.938804
 11
774.045828
 21
1540.153785
  0
LINE
  8
CSLAYER1
  6
DASHED
 62
     2
 10
774.045828
 20
1540.153785
 11
776.660500
 21
1540.225627
  0
LINE
  8
CSLAYER1
  6
DASHED
 62
     2
 10
746.660500
 20
1514.641288
 11
672.160500
 21
1514.641288
  0
LINE
  8
CSLAYER1
  6
DASHED
 62
     2
 10
643.660500
 20
1166.985864
 11
643.660500
 21
1030.669915
  0
LINE
  8
CSLAYER1
  6
DASHED
 62
     2
 10
659.660500
 20
1166.985864
 11
659.660500
 21
1030.669915
  0
LINE
  8
CSLAYER1
  6
DASHED
 62
     2
 10
710.660500
 20
1007.952136
 11
624.777700
 21
983.577749
  0
LINE
  8
CSLAYER1
  6
DASHED
 62
     2
 10
710.660500
 20
976.817893
 11
624.777700
 21
952.443506
  0
LINE
  8
CSLAYER1
  6
DASHED
 62
     2
 10
624.777700
 20
922.714397
 11
710.660500
 21
898.340009
  0
LINE
  8
CSLAYER1
  6
DASHED
 62
     2
 10
909.420499
 20
750.051774
 11
860.919772
 21
750.051774
  0
LINE
  8
CSLAYER1
  6
DASHED
 62
     2
 10
838.660500
 20
744.051774
 11
908.860500
 21
744.051774
  0
LINE
  8
CSLAYER1
  6
DASHED
 62
     2
 10
907.160500
 20
753.051774
 11
907.160500
 21
750.851774
  0
LINE
  8
CSLAYER1
  6
DASHED
 62
     2
 10
909.639911
 20
751.851774
 11
907.160500
 21
751.851774
  0
LINE
  8
CSLAYER1
  6
DASHED
 62
     2
 10
909.956841
 20
754.451774
 11
908.560500
 21
754.451774
  0
LINE
  8
CSLAYER1
  6
DASHED
 62
     2
 10
906.160500
 20
750.851774
 11
906.160500
 21
750.051774
  0
LINE
  8
CSLAYER1
  6
DASHED
 62
     2
 10
909.518015
 20
750.851774
 11
906.160500
 21
750.851774
  0
ARC
  8
CSLAYER1
  6
DASHED
 62
     2
 10
908.560500
 20
753.051774
 40
1.400000
 50
90.000000
 51
180.000000
  0
LINE
  8
CSLAYER1
  6
DASHED
 62
     2
 10
838.660500
 20
729.051774
 11
844.190706
 21
729.051774
  0
LINE
  8
CSLAYER1
  6
DASHED
 62
     2
 10
861.660500
 20
737.172430
 11
861.660500
 21
713.751774
  0
ARC
  8
CSLAYER1
  6
DASHED
 62
     2
 10
861.660500
 20
729.051774
 40
6.500000
 50
-59.489763
 51
239.489763
  0
ARC
  8
CSLAYER1
  6
DASHED
 62
     2
 10
831.660500
 20
729.051774
 40
10.500000
 50
-55.150095
 51
48.189685
  0
ARC
  8
CSLAYER1
  6
DASHED
 62
     2
 10
861.660500
 20
729.051774
 40
3.300000
 50
0.000000
 51
180.000000
  0
LINE
  8
CSLAYER1
  6
DASHED
 62
     2
 10
837.660500
 20
725.362485
 11
837.660500
 21
713.751774
  0
LINE
  8
CSLAYER1
  6
DASHED
 62
     2
 10
858.360500
 20
729.051774
 11
858.360500
 21
713.751774
  0
LINE
  8
CSLAYER1
  6
DASHED
 62
     2
 10
864.960500
 20
729.051774
 11
864.960500
 21
713.751774
  0
LINE
  8
CSLAYER1
  6
DASHED
 62
     2
 10
852.761357
 20
729.051774
 11
869.422063
 21
729.051774
  0
LINE
  8
CSLAYER1
  6
DASHED
 62
     2
 10
842.531079
 20
838.040215
 11
858.089917
 21
838.040215
  0
LINE
  8
CSLAYER1
  6
DASHED
 62
     2
 10
850.160500
 20
829.354724
 11
850.160500
 21
847.178414
  0
LINE
  8
CSLAYER1
  6
DASHED
 62
     2
 10
840.625930
 20
749.025525
 11
858.660500
 21
749.025525
  0
LINE
  8
CSLAYER1
  6
DASHED
 62
     2
 10
840.625930
 20
849.540215
 11
858.660500
 21
849.540215
  0
LINE
  8
CSLAYER1
  6
DASHED
 62
     2
 10
861.660500
 20
846.540215
 11
861.660500
 21
752.025525
  0
LINE
  8
CSLAYER1
  6
DASHED
 62
     2
 10
840.625930
 20
749.025525
 11
840.625930
 21
849.540215
  0
LINE
  8
CSLAYER1
  6
DASHED
 62
     2
 10
837.106351
 20
776.979196
 11
840.625930
 21
776.979196
  0
CIRCLE
  8
CSLAYER1
  6
DASHED
 62
     2
 10
850.160500
 20
838.040215
 40
6.250000
  0
LINE
  8
CSLAYER1
  6
DASHED
 62
     2
 10
836.660500
 20
803.960108
 11
840.625930
 21
803.960108
  0
ARC
  8
CSLAYER1
  6
DASHED
 62
     2
 10
858.660500
 20
752.025525
 40
3.000000
 50
270.000000
 51
360.000000
  0
ARC
  8
CSLAYER1
  6
DASHED
 62
     2
 10
858.660500
 20
846.540215
 40
3.000000
 50
0.000000
 51
90.000000
  0
LINE
  8
CSLAYER1
  6
DASHED
 62
     2
 10
828.660500
 20
793.197223
 11
828.660500
 21
906.356926
  0
LINE
  8
CSLAYER1
  6
DASHED
 62
     2
 10
808.660500
 20
805.695863
 11
808.660500
 21
918.855566
  0
LINE
  8
CSLAYER1
  6
DASHED
 62
     2
 10
801.660500
 20
807.989088
 11
801.660500
 21
921.300369
  0
LINE
  8
CSLAYER1
  6
DASHED
 62
     2
 10
793.660500
 20
809.972017
 11
793.660500
 21
923.166562
  0
LINE
  8
CSLAYER1
  6
DASHED
 62
     2
 10
722.660500
 20
927.460322
 11
722.660500
 21
904.381256
  0
LINE
  8
CSLAYER1
  6
DASHED
 62
     2
 10
830.660500
 20
927.460322
 11
830.660500
 21
904.381256
  0
LINE
  8
CSLAYER1
  6
DASHED
 62
     2
 10
716.660500
 20
891.404527
 11
716.660500
 21
778.244824
  0
LINE
  8
CSLAYER1
  6
DASHED
 62
     2
 10
836.660500
 20
891.404527
 11
836.660500
 21
778.244824
  0
LINE
  8
CSLAYER1
  6
DASHED
 62
     2
 10
838.660500
 20
772.567462
 11
838.660500
 21
728.201165
  0
LINE
  8
CSLAYER1
  6
DASHED
 62
     2
 10
714.660500
 20
772.567462
 11
714.660500
 21
728.201165
  0
LINE
  8
CSLAYER1
  6
DASHED
 62
     2
 10
759.660500
 20
809.972017
 11
759.660500
 21
923.131720
  0
LINE
  8
CSLAYER1
  6
DASHED
 62
     2
 10
751.660500
 20
807.989088
 11
751.660500
 21
921.148791
  0
LINE
  8
CSLAYER1
  6
DASHED
 62
     2
 10
744.660500
 20
805.695863
 11
744.660500
 21
918.855566
  0
LINE
  8
CSLAYER1
  6
DASHED
 62
     2
 10
724.660500
 20
793.197223
 11
724.660500
 21
906.356926
  0
LINE
  8
CSLAYER1
  6
DASHED
 62
     2
 10
840.625930
 20
788.439263
 11
861.660500
 21
788.439263
  0
LINE
  8
CSLAYER1
  6
DASHED
 62
     2
 10
822.610500
 20
967.035661
 11
822.610500
 21
948.479756
  0
LINE
  8
CSLAYER1
  6
DASHED
 62
     2
 10
834.217294
 20
898.340009
 11
842.660500
 21
898.340009
  0
LINE
  8
CSLAYER1
  6
DASHED
 62
     2
 10
776.660500
 20
972.109220
 11
821.660500
 21
972.109220
  0
LINE
  8
CSLAYER1
  6
DASHED
 62
     2
 10
776.660500
 20
961.990591
 11
821.660500
 21
961.990591
  0
LINE
  8
CSLAYER1
  6
DASHED
 62
     2
 10
831.660500
 20
962.109220
 11
831.660500
 21
903.393421
  0
ARC
  8
CSLAYER1
  6
DASHED
 62
     2
 10
821.660500
 20
962.109220
 40
10.000000
 50
0.000000
 51
90.000000
  0
ARC
  8
CSLAYER1
  6
DASHED
 62
     2
 10
821.660500
 20
951.990591
 40
10.000000
 50
0.000000
 51
90.000000
  0
LINE
  8
CSLAYER1
  6
DASHED
 62
     2
 10
814.786218
 20
956.316289
 11
828.297799
 21
956.316289
  0
LINE
  8
CSLAYER1
  6
DASHED
 62
     2
 10
730.710500
 20
967.035661
 11
730.710500
 21
948.479756
  0
ARC
  8
CSLAYER1
  6
DASHED
 62
     2
 10
731.660500
 20
962.109220
 40
10.000000
 50
90.000000
 51
180.000000
  0
ARC
  8
CSLAYER1
  6
DASHED
 62
     2
 10
731.660500
 20
951.990591
 40
10.000000
 50
90.000000
 51
180.000000
  0
LINE
  8
CSLAYER1
  6
DASHED
 62
     2
 10
776.660500
 20
972.109220
 11
731.660500
 21
972.109220
  0
LINE
  8
CSLAYER1
  6
DASHED
 62
     2
 10
776.660500
 20
961.990591
 11
731.660500
 21
961.990591
  0
LINE
  8
CSLAYER1
  6
DASHED
 62
     2
 10
721.660500
 20
962.109220
 11
721.660500
 21
903.393421
  0
LINE
  8
CSLAYER1
  6
DASHED
 62
     2
 10
767.114475
 20
811.283263
 11
776.660500
 21
811.585326
  0
LINE
  8
CSLAYER1
  6
DASHED
 62
     2
 10
755.455251
 20
809.232261
 11
767.114475
 21
811.283263
  0
LINE
  8
CSLAYER1
  6
DASHED
 62
     2
 10
741.098761
 20
804.529025
 11
755.455251
 21
809.232261
  0
LINE
  8
CSLAYER1
  6
DASHED
 62
     2
 10
729.165745
 20
797.647662
 11
741.098761
 21
804.529025
  0
LINE
  8
CSLAYER1
  6
DASHED
 62
     2
 10
720.469417
 20
789.057124
 11
729.165745
 21
797.647662
  0
LINE
  8
CSLAYER1
  6
DASHED
 62
     2
 10
714.660500
 20
772.567462
 11
720.469417
 21
789.057124
  0
LINE
  8
CSLAYER1
  6
DASHED
 62
     2
 10
786.206526
 20
811.283263
 11
776.660500
 21
811.585326
  0
LINE
  8
CSLAYER1
  6
DASHED
 62
     2
 10
797.865749
 20
809.232261
 11
786.206526
 21
811.283263
  0
LINE
  8
CSLAYER1
  6
DASHED
 62
     2
 10
812.222239
 20
804.529025
 11
797.865749
 21
809.232261
  0
LINE
  8
CSLAYER1
  6
DASHED
 62
     2
 10
824.155256
 20
797.647662
 11
812.222239
 21
804.529025
  0
LINE
  8
CSLAYER1
  6
DASHED
 62
     2
 10
832.851583
 20
789.057124
 11
824.155256
 21
797.647662
  0
LINE
  8
CSLAYER1
  6
DASHED
 62
     2
 10
838.660500
 20
772.567462
 11
832.851583
 21
789.057124
  0
LINE
  8
CSLAYER1
  6
DASHED
 62
     2
 10
767.114475
 20
766.916967
 11
776.660500
 21
767.219030
  0
LINE
  8
CSLAYER1
  6
DASHED
 62
     2
 10
755.455251
 20
764.865965
 11
767.114475
 21
766.916967
  0
LINE
  8
CSLAYER1
  6
DASHED
 62
     2
 10
741.098761
 20
760.162729
 11
755.455251
 21
764.865965
  0
LINE
  8
CSLAYER1
  6
DASHED
 62
     2
 10
729.165745
 20
753.281365
 11
741.098761
 21
760.162729
  0
LINE
  8
CSLAYER1
  6
DASHED
 62
     2
 10
720.469417
 20
744.690827
 11
729.165745
 21
753.281365
  0
LINE
  8
CSLAYER1
  6
DASHED
 62
     2
 10
714.660500
 20
728.201165
 11
720.469417
 21
744.690827
  0
LINE
  8
CSLAYER1
  6
DASHED
 62
     2
 10
786.206526
 20
766.916967
 11
776.660500
 21
767.219030
  0
LINE
  8
CSLAYER1
  6
DASHED
 62
     2
 10
797.865749
 20
764.865965
 11
786.206526
 21
766.916967
  0
LINE
  8
CSLAYER1
  6
DASHED
 62
     2
 10
812.222239
 20
760.162729
 11
797.865749
 21
764.865965
  0
LINE
  8
CSLAYER1
  6
DASHED
 62
     2
 10
824.155256
 20
753.281365
 11
812.222239
 21
760.162729
  0
LINE
  8
CSLAYER1
  6
DASHED
 62
     2
 10
832.851583
 20
744.690827
 11
824.155256
 21
753.281365
  0
LINE
  8
CSLAYER1
  6
DASHED
 62
     2
 10
838.660500
 20
728.201165
 11
832.851583
 21
744.690827
  0
LINE
  8
CSLAYER1
  6
DASHED
 62
     2
 10
714.660500
 20
728.201165
 11
719.750678
 21
713.751774
  0
LINE
  8
CSLAYER1
  6
DASHED
 62
     2
 10
838.660500
 20
728.201165
 11
833.570322
 21
713.751774
  0
LINE
  8
CSLAYER1
  6
DASHED
 62
     2
 10
840.625930
 20
750.051774
 11
838.660500
 21
750.051774
  0
LINE
  8
CSLAYER1
  6
DASHED
 62
     2
 10
913.860500
 20
769.753579
 11
913.860500
 21
785.731512
  0
LINE
  8
CSLAYER1
  6
DASHED
 62
     2
 10
917.860500
 20
769.753579
 11
917.860500
 21
781.692068
  0
LINE
  8
CSLAYER1
  6
DASHED
 62
     2
 10
919.360500
 20
757.441842
 11
921.399682
 21
757.441842
  0
LINE
  8
CSLAYER1
  6
DASHED
 62
     2
 10
767.114475
 20
924.442966
 11
776.660500
 21
924.745029
  0
LINE
  8
CSLAYER1
  6
DASHED
 62
     2
 10
755.455251
 20
922.391964
 11
767.114475
 21
924.442966
  0
LINE
  8
CSLAYER1
  6
DASHED
 62
     2
 10
741.098761
 20
917.688728
 11
755.455251
 21
922.391964
  0
LINE
  8
CSLAYER1
  6
DASHED
 62
     2
 10
729.165745
 20
910.807365
 11
741.098761
 21
917.688728
  0
LINE
  8
CSLAYER1
  6
DASHED
 62
     2
 10
720.469417
 20
902.216827
 11
729.165745
 21
910.807365
  0
LINE
  8
CSLAYER1
  6
DASHED
 62
     2
 10
716.660500
 20
891.404527
 11
720.469417
 21
902.216827
  0
LINE
  8
CSLAYER1
  6
DASHED
 62
     2
 10
786.206526
 20
924.442966
 11
776.660500
 21
924.745029
  0
LINE
  8
CSLAYER1
  6
DASHED
 62
     2
 10
797.865749
 20
922.391964
 11
786.206526
 21
924.442966
  0
LINE
  8
CSLAYER1
  6
DASHED
 62
     2
 10
812.222239
 20
917.688728
 11
797.865749
 21
922.391964
  0
LINE
  8
CSLAYER1
  6
DASHED
 62
     2
 10
824.155256
 20
910.807365
 11
812.222239
 21
917.688728
  0
LINE
  8
CSLAYER1
  6
DASHED
 62
     2
 10
832.851583
 20
902.216827
 11
824.155256
 21
910.807365
  0
LINE
  8
CSLAYER1
  6
DASHED
 62
     2
 10
836.660500
 20
891.404527
 11
832.851583
 21
902.216827
  0
LINE
  8
CSLAYER1
  6
DASHED
 62
     2
 10
776.660500
 20
961.443623
 11
762.684272
 21
960.285670
  0
LINE
  8
CSLAYER1
  6
DASHED
 62
     2
 10
762.684272
 20
960.285670
 11
749.660500
 21
956.890724
  0
LINE
  8
CSLAYER1
  6
DASHED
 62
     2
 10
749.660500
 20
956.890724
 11
738.476734
 21
951.490145
  0
LINE
  8
CSLAYER1
  6
DASHED
 62
     2
 10
738.476734
 20
951.490145
 11
729.895128
 21
944.451973
  0
LINE
  8
CSLAYER1
  6
DASHED
 62
     2
 10
729.895128
 20
944.451973
 11
724.500506
 21
936.255848
  0
LINE
  8
CSLAYER1
  6
DASHED
 62
     2
 10
724.500506
 20
936.255848
 11
722.865987
 21
930.422162
  0
LINE
  8
CSLAYER1
  6
DASHED
 62
     2
 10
722.865987
 20
930.422162
 11
722.660500
 21
927.460322
  0
LINE
  8
CSLAYER1
  6
DASHED
 62
     2
 10
776.660500
 20
961.443623
 11
790.636729
 21
960.285670
  0
LINE
  8
CSLAYER1
  6
DASHED
 62
     2
 10
790.636729
 20
960.285670
 11
803.660500
 21
956.890724
  0
LINE
  8
CSLAYER1
  6
DASHED
 62
     2
 10
803.660500
 20
956.890724
 11
814.844266
 21
951.490145
  0
LINE
  8
CSLAYER1
  6
DASHED
 62
     2
 10
814.844266
 20
951.490145
 11
823.425872
 21
944.451973
  0
LINE
  8
CSLAYER1
  6
DASHED
 62
     2
 10
823.425872
 20
944.451973
 11
828.820495
 21
936.255848
  0
LINE
  8
CSLAYER1
  6
DASHED
 62
     2
 10
828.820495
 20
936.255848
 11
830.455014
 21
930.422162
  0
LINE
  8
CSLAYER1
  6
DASHED
 62
     2
 10
830.455014
 20
930.422162
 11
830.660500
 21
927.460322
  0
LINE
  8
CSLAYER1
  6
DASHED
 62
     2
 10
776.660500
 20
934.979516
 11
762.684272
 21
933.821564
  0
LINE
  8
CSLAYER1
  6
DASHED
 62
     2
 10
762.684272
 20
933.821564
 11
749.660500
 21
930.426617
  0
LINE
  8
CSLAYER1
  6
DASHED
 62
     2
 10
749.660500
 20
930.426617
 11
738.476734
 21
925.026038
  0
LINE
  8
CSLAYER1
  6
DASHED
 62
     2
 10
738.476734
 20
925.026038
 11
729.895128
 21
917.987866
  0
LINE
  8
CSLAYER1
  6
DASHED
 62
     2
 10
729.895128
 20
917.987866
 11
724.500506
 21
909.791741
  0
LINE
  8
CSLAYER1
  6
DASHED
 62
     2
 10
724.500506
 20
909.791741
 11
723.108580
 21
904.823885
  0
LINE
  8
CSLAYER1
  6
DASHED
 62
     2
 10
776.660500
 20
934.979516
 11
790.636729
 21
933.821564
  0
LINE
  8
CSLAYER1
  6
DASHED
 62
     2
 10
790.636729
 20
933.821564
 11
803.660500
 21
930.426617
  0
LINE
  8
CSLAYER1
  6
DASHED
 62
     2
 10
803.660500
 20
930.426617
 11
814.844266
 21
925.026038
  0
LINE
  8
CSLAYER1
  6
DASHED
 62
     2
 10
814.844266
 20
925.026038
 11
823.425872
 21
917.987866
  0
LINE
  8
CSLAYER1
  6
DASHED
 62
     2
 10
823.425872
 20
917.987866
 11
828.820495
 21
909.791741
  0
LINE
  8
CSLAYER1
  6
DASHED
 62
     2
 10
828.820495
 20
909.791741
 11
830.212420
 21
904.823885
  0
POINT
  8
CSLAYER1
 62
     2
 10
901.660500
 20
1457.308596
  0
LINE
  8
CSLAYER1
  6
DASHED
 62
     2
 10
915.785876
 20
1457.308598
 11
887.546787
 21
1457.308598
  0
LINE
  8
CSLAYER1
  6
DASHED
 62
     2
 10
901.660500
 20
1482.308598
 11
911.660500
 21
1482.308598
  0
LINE
  8
CSLAYER1
  6
DASHED
 62
     2
 10
910.160500
 20
1482.308598
 11
911.660500
 21
1479.710521
  0
LINE
  8
CSLAYER1
  6
DASHED
 62
     2
 10
901.660500
 20
1482.308598
 11
891.660500
 21
1482.308598
  0
LINE
  8
CSLAYER1
  6
DASHED
 62
     2
 10
893.160500
 20
1482.308598
 11
891.660500
 21
1479.710521
  0
LINE
  8
CSLAYER1
  6
DASHED
 62
     2
 10
889.660500
 20
1472.308598
 11
913.660500
 21
1472.308598
  0
POINT
  8
CSLAYER1
 62
     2
 10
901.660500
 20
1425.558596
  0
LINE
  8
CSLAYER1
  6
DASHED
 62
     2
 10
915.185500
 20
1409.683596
 11
915.185500
 21
1440.608596
  0
LINE
  8
CSLAYER1
  6
DASHED
 62
     2
 10
911.185500
 20
1409.683596
 11
911.185500
 21
1440.608596
  0
LINE
  8
CSLAYER1
  6
DASHED
 62
     2
 10
911.185500
 20
1440.608596
 11
915.185500
 21
1440.608596
  0
LINE
  8
CSLAYER1
  6
DASHED
 62
     2
 10
911.185500
 20
1417.033596
 11
911.185500
 21
1434.083596
  0
LINE
  8
CSLAYER1
  6
DASHED
 62
     2
 10
910.185500
 20
1416.033596
 11
901.660500
 21
1416.033596
  0
LINE
  8
CSLAYER1
  6
DASHED
 62
     2
 10
901.660500
 20
1435.083596
 11
910.185500
 21
1435.083596
  0
ARC
  8
CSLAYER1
  6
DASHED
 62
     2
 10
910.185500
 20
1417.033596
 40
1.000000
 50
270.000000
 51
360.000000
  0
ARC
  8
CSLAYER1
  6
DASHED
 62
     2
 10
910.185500
 20
1434.083596
 40
1.000000
 50
0.000000
 51
90.000000
  0
LINE
  8
CSLAYER1
  6
DASHED
 62
     2
 10
888.135500
 20
1406.808596
 11
888.135500
 21
1444.308596
  0
LINE
  8
CSLAYER1
  6
DASHED
 62
     2
 10
892.135500
 20
1409.683596
 11
892.135500
 21
1440.608596
  0
LINE
  8
CSLAYER1
  6
DASHED
 62
     2
 10
892.135500
 20
1440.608596
 11
888.135500
 21
1440.608596
  0
LINE
  8
CSLAYER1
  6
DASHED
 62
     2
 10
892.135500
 20
1417.033596
 11
892.135500
 21
1434.083596
  0
LINE
  8
CSLAYER1
  6
DASHED
 62
     2
 10
893.135500
 20
1416.033596
 11
901.660500
 21
1416.033596
  0
LINE
  8
CSLAYER1
  6
DASHED
 62
     2
 10
901.660500
 20
1435.083596
 11
893.135500
 21
1435.083596
  0
ARC
  8
CSLAYER1
  6
DASHED
 62
     2
 10
893.135500
 20
1417.033596
 40
1.000000
 50
180.000000
 51
270.000000
  0
ARC
  8
CSLAYER1
  6
DASHED
 62
     2
 10
893.135500
 20
1434.083596
 40
1.000000
 50
90.000000
 51
180.000000
  0
POINT
  8
CSLAYER1
 62
     2
 10
901.660500
 20
1425.558596
  0
POINT
  8
CSLAYER1
 62
     2
 10
901.660500
 20
1425.558596
  0
LINE
  8
CSLAYER1
  6
DASHED
 62
     2
 10
915.185500
 20
1412.558596
 11
915.185500
 21
1444.308596
  0
LINE
  8
CSLAYER1
  6
DASHED
 62
     2
 10
921.410500
 20
1421.788596
 11
921.410500
 21
1429.338322
  0
LINE
  8
CSLAYER1
  6
DASHED
 62
     2
 10
915.185500
 20
1412.558596
 11
919.560500
 21
1412.558596
  0
LINE
  8
CSLAYER1
  6
DASHED
 62
     2
 10
915.185500
 20
1470.308596
 11
919.560500
 21
1470.308596
  0
LINE
  8
CSLAYER1
  6
DASHED
 62
     2
 10
919.560500
 20
1420.788596
 11
920.410500
 21
1420.788596
  0
LINE
  8
CSLAYER1
  6
DASHED
 62
     2
 10
919.560500
 20
1430.338322
 11
920.410500
 21
1430.338322
  0
ARC
  8
CSLAYER1
  6
DASHED
 62
     2
 10
920.410500
 20
1421.788596
 40
1.000000
 50
270.000000
 51
360.000000
  0
ARC
  8
CSLAYER1
  6
DASHED
 62
     2
 10
920.410500
 20
1429.338322
 40
1.000000
 50
0.000000
 51
90.000000
  0
LINE
  8
CSLAYER1
  6
DASHED
 62
     2
 10
921.410500
 20
1453.538596
 11
921.410500
 21
1461.088322
  0
LINE
  8
CSLAYER1
  6
DASHED
 62
     2
 10
919.560500
 20
1452.538596
 11
920.410500
 21
1452.538596
  0
LINE
  8
CSLAYER1
  6
DASHED
 62
     2
 10
919.560500
 20
1462.088322
 11
920.410500
 21
1462.088322
  0
ARC
  8
CSLAYER1
  6
DASHED
 62
     2
 10
920.410500
 20
1453.538596
 40
1.000000
 50
270.000000
 51
360.000000
  0
ARC
  8
CSLAYER1
  6
DASHED
 62
     2
 10
920.410500
 20
1461.088322
 40
1.000000
 50
0.000000
 51
90.000000
  0
LINE
  8
CSLAYER1
  6
DASHED
 62
     2
 10
888.135500
 20
1412.558596
 11
888.135500
 21
1441.308596
  0
LINE
  8
CSLAYER1
  6
DASHED
 62
     2
 10
881.910500
 20
1421.788596
 11
881.910500
 21
1429.338322
  0
LINE
  8
CSLAYER1
  6
DASHED
 62
     2
 10
888.135500
 20
1412.558596
 11
883.760500
 21
1412.558596
  0
LINE
  8
CSLAYER1
  6
DASHED
 62
     2
 10
888.135500
 20
1470.308596
 11
883.760500
 21
1470.308596
  0
LINE
  8
CSLAYER1
  6
DASHED
 62
     2
 10
883.760500
 20
1420.788596
 11
882.910500
 21
1420.788596
  0
LINE
  8
CSLAYER1
  6
DASHED
 62
     2
 10
883.760500
 20
1430.338322
 11
882.910500
 21
1430.338322
  0
ARC
  8
CSLAYER1
  6
DASHED
 62
     2
 10
882.910500
 20
1421.788596
 40
1.000000
 50
180.000000
 51
270.000000
  0
ARC
  8
CSLAYER1
  6
DASHED
 62
     2
 10
882.910500
 20
1429.338322
 40
1.000000
 50
90.000000
 51
180.000000
  0
LINE
  8
CSLAYER1
  6
DASHED
 62
     2
 10
878.810500
 20
1453.538596
 11
878.810500
 21
1461.088322
  0
LINE
  8
CSLAYER1
  6
DASHED
 62
     2
 10
883.760500
 20
1452.538596
 11
879.810500
 21
1452.538596
  0
LINE
  8
CSLAYER1
  6
DASHED
 62
     2
 10
883.760500
 20
1462.088322
 11
879.810500
 21
1462.088322
  0
ARC
  8
CSLAYER1
  6
DASHED
 62
     2
 10
879.810500
 20
1453.538596
 40
1.000000
 50
180.000000
 51
270.000000
  0
ARC
  8
CSLAYER1
  6
DASHED
 62
     2
 10
879.810500
 20
1461.088322
 40
1.000000
 50
90.000000
 51
180.000000
  0
POINT
  8
CSLAYER1
 62
     2
 10
901.660500
 20
1425.558596
  0
LINE
  8
CSLAYER1
  6
DASHED
 62
     2
 10
878.810500
 20
1453.538596
 11
878.810500
 21
1461.088322
  0
LINE
  8
CSLAYER1
  6
DASHED
 62
     2
 10
888.135500
 20
1462.088322
 11
915.185500
 21
1462.088322
  0
LINE
  8
CSLAYER1
  6
DASHED
 62
     2
 10
888.135500
 20
1452.538596
 11
915.185500
 21
1452.538596
  0
LINE
  8
CSLAYER1
  6
DASHED
 62
     2
 10
915.185500
 20
1444.308596
 11
915.185500
 21
1446.375453
  0
LINE
  8
CSLAYER1
  6
DASHED
 62
     2
 10
888.135500
 20
1444.308596
 11
888.135500
 21
1471.308596
  0
LINE
  8
CSLAYER1
  6
DASHED
 62
     2
 10
890.135500
 20
1472.308596
 11
890.660500
 21
1472.308596
  0
LINE
  8
CSLAYER1
  6
DASHED
 62
     2
 10
890.135500
 20
1442.308596
 11
913.185500
 21
1442.308596
  0
LINE
  8
CSLAYER1
  6
DASHED
 62
     2
 10
915.185500
 20
1446.375453
 11
915.185500
 21
1471.308596
  0
ARC
  8
CSLAYER1
  6
DASHED
 62
     2
 10
913.185500
 20
1444.308596
 40
2.000000
 50
270.000000
 51
360.000000
  0
ARC
  8
CSLAYER1
  6
DASHED
 62
     2
 10
890.135500
 20
1444.308596
 40
2.000000
 50
180.000000
 51
270.000000
  0
POINT
  8
CSLAYER1
 62
     2
 10
901.660500
 20
1457.308596
  0
LINE
  8
CSLAYER1
  6
DASHED
 62
     2
 10
901.660500
 20
1482.308596
 11
911.660500
 21
1482.308596
  0
LINE
  8
CSLAYER1
  6
DASHED
 62
     2
 10
910.160500
 20
1482.308596
 11
911.660500
 21
1479.710519
  0
LINE
  8
CSLAYER1
  6
DASHED
 62
     2
 10
912.660500
 20
1472.308596
 11
913.185500
 21
1472.308596
  0
LINE
  8
CSLAYER1
  6
DASHED
 62
     2
 10
889.135500
 20
1472.308596
 11
889.660500
 21
1472.308596
  0
LINE
  8
CSLAYER1
  6
DASHED
 62
     2
 10
901.660500
 20
1482.308596
 11
891.660500
 21
1482.308596
  0
LINE
  8
CSLAYER1
  6
DASHED
 62
     2
 10
893.160500
 20
1482.308596
 11
891.660500
 21
1479.710519
  0
LINE
  8
CSLAYER1
  6
DASHED
 62
     2
 10
913.660500
 20
1472.308596
 11
914.185500
 21
1472.308596
  0
LINE
  8
CSLAYER1
  6
DASHED
 62
     2
 10
889.660500
 20
1472.308596
 11
913.660500
 21
1472.308596
  0
ARC
  8
CSLAYER1
  6
DASHED
 62
     2
 10
889.660500
 20
1474.308596
 40
2.000000
 50
270.000000
 51
360.000000
  0
ARC
  8
CSLAYER1
  6
DASHED
 62
     2
 10
913.660500
 20
1474.308596
 40
2.000000
 50
180.000000
 51
270.000000
  0
ARC
  8
CSLAYER1
  6
DASHED
 62
     2
 10
889.135500
 20
1471.308596
 40
1.000000
 50
90.000000
 51
180.000000
  0
ARC
  8
CSLAYER1
  6
DASHED
 62
     2
 10
914.185500
 20
1471.308596
 40
1.000000
 50
0.000000
 51
90.000000
  0
POINT
  8
CSLAYER1
 62
     2
 10
901.660500
 20
1472.308596
  0
LINE
  8
CSLAYER1
  6
DASHED
 62
     2
 10
919.560500
 20
1412.558596
 11
919.560500
 21
1470.308596
  0
LINE
  8
CSLAYER1
  6
DASHED
 62
     2
 10
883.760500
 20
1412.558596
 11
883.760500
 21
1470.308596
  0
POINT
  8
CSLAYER1
 62
     2
 10
901.660500
 20
1393.808596
  0
LINE
  8
CSLAYER1
  6
DASHED
 62
     2
 10
915.185500
 20
1409.683596
 11
915.185500
 21
1378.758596
  0
LINE
  8
CSLAYER1
  6
DASHED
 62
     2
 10
911.185500
 20
1409.683596
 11
911.185500
 21
1378.758596
  0
LINE
  8
CSLAYER1
  6
DASHED
 62
     2
 10
911.185500
 20
1378.758596
 11
915.185500
 21
1378.758596
  0
LINE
  8
CSLAYER1
  6
DASHED
 62
     2
 10
911.185500
 20
1402.333596
 11
911.185500
 21
1385.283596
  0
LINE
  8
CSLAYER1
  6
DASHED
 62
     2
 10
910.185500
 20
1403.333596
 11
901.660500
 21
1403.333596
  0
LINE
  8
CSLAYER1
  6
DASHED
 62
     2
 10
901.660500
 20
1384.283596
 11
910.185500
 21
1384.283596
  0
ARC
  8
CSLAYER1
  6
DASHED
 62
     2
 10
910.185500
 20
1402.333596
 40
1.000000
 50
0.000000
 51
90.000000
  0
ARC
  8
CSLAYER1
  6
DASHED
 62
     2
 10
910.185500
 20
1385.283596
 40
1.000000
 50
270.000000
 51
360.000000
  0
LINE
  8
CSLAYER1
  6
DASHED
 62
     2
 10
892.135500
 20
1409.683596
 11
892.135500
 21
1378.758596
  0
LINE
  8
CSLAYER1
  6
DASHED
 62
     2
 10
892.135500
 20
1378.758596
 11
888.135500
 21
1378.758596
  0
LINE
  8
CSLAYER1
  6
DASHED
 62
     2
 10
892.135500
 20
1402.333596
 11
892.135500
 21
1385.283596
  0
LINE
  8
CSLAYER1
  6
DASHED
 62
     2
 10
893.135500
 20
1403.333596
 11
901.660500
 21
1403.333596
  0
LINE
  8
CSLAYER1
  6
DASHED
 62
     2
 10
901.660500
 20
1384.283596
 11
893.135500
 21
1384.283596
  0
ARC
  8
CSLAYER1
  6
DASHED
 62
     2
 10
893.135500
 20
1402.333596
 40
1.000000
 50
90.000000
 51
180.000000
  0
ARC
  8
CSLAYER1
  6
DASHED
 62
     2
 10
893.135500
 20
1385.283596
 40
1.000000
 50
180.000000
 51
270.000000
  0
POINT
  8
CSLAYER1
 62
     2
 10
901.660500
 20
1393.808596
  0
POINT
  8
CSLAYER1
 62
     2
 10
901.660500
 20
1393.808596
  0
LINE
  8
CSLAYER1
  6
DASHED
 62
     2
 10
921.410500
 20
1397.578596
 11
921.410500
 21
1390.028869
  0
LINE
  8
CSLAYER1
  6
DASHED
 62
     2
 10
915.185500
 20
1406.808596
 11
919.560500
 21
1406.808596
  0
LINE
  8
CSLAYER1
  6
DASHED
 62
     2
 10
919.560500
 20
1398.578596
 11
920.410500
 21
1398.578596
  0
LINE
  8
CSLAYER1
  6
DASHED
 62
     2
 10
919.560500
 20
1389.028869
 11
920.410500
 21
1389.028869
  0
ARC
  8
CSLAYER1
  6
DASHED
 62
     2
 10
920.410500
 20
1397.578596
 40
1.000000
 50
0.000000
 51
90.000000
  0
ARC
  8
CSLAYER1
  6
DASHED
 62
     2
 10
920.410500
 20
1390.028869
 40
1.000000
 50
270.000000
 51
360.000000
  0
LINE
  8
CSLAYER1
  6
DASHED
 62
     2
 10
888.135500
 20
1406.808596
 11
888.135500
 21
1378.758596
  0
LINE
  8
CSLAYER1
  6
DASHED
 62
     2
 10
881.910500
 20
1397.578596
 11
881.910500
 21
1390.028869
  0
LINE
  8
CSLAYER1
  6
DASHED
 62
     2
 10
888.135500
 20
1406.808596
 11
883.760500
 21
1406.808596
  0
LINE
  8
CSLAYER1
  6
DASHED
 62
     2
 10
883.760500
 20
1398.578596
 11
882.910500
 21
1398.578596
  0
LINE
  8
CSLAYER1
  6
DASHED
 62
     2
 10
883.760500
 20
1389.028869
 11
882.910500
 21
1389.028869
  0
ARC
  8
CSLAYER1
  6
DASHED
 62
     2
 10
882.910500
 20
1397.578596
 40
1.000000
 50
90.000000
 51
180.000000
  0
ARC
  8
CSLAYER1
  6
DASHED
 62
     2
 10
882.910500
 20
1390.028869
 40
1.000000
 50
180.000000
 51
270.000000
  0
POINT
  8
CSLAYER1
 62
     2
 10
901.660500
 20
1393.808596
  0
LINE
  8
CSLAYER1
  6
DASHED
 62
     2
 10
911.660500
 20
1474.308598
 11
911.660500
 21
1522.891288
  0
LINE
  8
CSLAYER1
  6
DASHED
 62
     2
 10
910.160500
 20
1482.308598
 11
910.160500
 21
1522.891288
  0
LINE
  8
CSLAYER1
  6
DASHED
 62
     2
 10
893.160500
 20
1482.308598
 11
893.160500
 21
1522.891288
  0
LINE
  8
CSLAYER1
  6
DASHED
 62
     2
 10
891.660500
 20
1474.308598
 11
891.660500
 21
1522.891288
  0
LINE
  8
CSLAYER1
  6
DASHED
 62
     2
 10
883.760500
 20
1195.260864
 11
883.760500
 21
1406.808596
  0
LINE
  8
CSLAYER1
  6
DASHED
 62
     2
 10
919.560500
 20
1195.260864
 11
919.560500
 21
1406.808596
  0
POINT
  8
CSLAYER1
 62
     2
 10
901.660500
 20
1144.760864
  0
LINE
  8
CSLAYER1
  6
DASHED
 62
     2
 10
915.185500
 20
1131.760864
 11
915.185500
 21
1144.760864
  0
LINE
  8
CSLAYER1
  6
DASHED
 62
     2
 10
919.560500
 20
1131.760864
 11
919.560500
 21
1144.760864
  0
LINE
  8
CSLAYER1
  6
DASHED
 62
     2
 10
921.410500
 20
1140.990864
 11
921.410500
 21
1148.540590
  0
LINE
  8
CSLAYER1
  6
DASHED
 62
     2
 10
915.185500
 20
1131.760864
 11
919.560500
 21
1131.760864
  0
LINE
  8
CSLAYER1
  6
DASHED
 62
     2
 10
919.560500
 20
1149.540590
 11
920.410500
 21
1149.540590
  0
ARC
  8
CSLAYER1
  6
DASHED
 62
     2
 10
920.410500
 20
1140.990864
 40
1.000000
 50
270.000000
 51
360.000000
  0
ARC
  8
CSLAYER1
  6
DASHED
 62
     2
 10
920.410500
 20
1148.540590
 40
1.000000
 50
0.000000
 51
90.000000
  0
LINE
  8
CSLAYER1
  6
DASHED
 62
     2
 10
888.135500
 20
1131.760864
 11
888.135500
 21
1144.760864
  0
LINE
  8
CSLAYER1
  6
DASHED
 62
     2
 10
883.760500
 20
1131.760864
 11
883.760500
 21
1144.760864
  0
LINE
  8
CSLAYER1
  6
DASHED
 62
     2
 10
881.910500
 20
1140.990864
 11
881.910500
 21
1148.540590
  0
LINE
  8
CSLAYER1
  6
DASHED
 62
     2
 10
888.135500
 20
1131.760864
 11
883.760500
 21
1131.760864
  0
LINE
  8
CSLAYER1
  6
DASHED
 62
     2
 10
883.760500
 20
1139.990864
 11
882.910500
 21
1139.990864
  0
LINE
  8
CSLAYER1
  6
DASHED
 62
     2
 10
883.760500
 20
1149.540590
 11
882.910500
 21
1149.540590
  0
ARC
  8
CSLAYER1
  6
DASHED
 62
     2
 10
882.910500
 20
1140.990864
 40
1.000000
 50
180.000000
 51
270.000000
  0
ARC
  8
CSLAYER1
  6
DASHED
 62
     2
 10
882.910500
 20
1148.540590
 40
1.000000
 50
90.000000
 51
180.000000
  0
LINE
  8
CSLAYER1
  6
DASHED
 62
     2
 10
889.135500
 20
1134.760864
 11
893.660500
 21
1134.760864
  0
LINE
  8
CSLAYER1
  6
DASHED
 62
     2
 10
888.135500
 20
1135.760864
 11
889.135500
 21
1134.760864
  0
LINE
  8
CSLAYER1
  6
DASHED
 62
     2
 10
914.185500
 20
1134.760864
 11
915.185500
 21
1135.760864
  0
LINE
  8
CSLAYER1
  6
DASHED
 62
     2
 10
889.135500
 20
1154.760864
 11
893.660500
 21
1154.760864
  0
LINE
  8
CSLAYER1
  6
DASHED
 62
     2
 10
888.135500
 20
1153.760864
 11
889.135500
 21
1154.760864
  0
LINE
  8
CSLAYER1
  6
DASHED
 62
     2
 10
914.185500
 20
1154.760864
 11
915.185500
 21
1153.760864
  0
POINT
  8
CSLAYER1
 62
     2
 10
901.660500
 20
1144.760864
  0
LINE
  8
CSLAYER1
  6
DASHED
 62
     2
 10
929.143782
 20
1176.510864
 11
876.616065
 21
1176.510864
  0
LINE
  8
CSLAYER1
  6
DASHED
 62
     2
 10
888.135500
 20
1131.760864
 11
888.135500
 21
1139.990864
  0
LINE
  8
CSLAYER1
  6
DASHED
 62
     2
 10
883.760500
 20
1131.760864
 11
883.760500
 21
1139.990864
  0
LINE
  8
CSLAYER1
  6
DASHED
 62
     2
 10
881.910500
 20
1140.990864
 11
881.910500
 21
1148.540590
  0
LINE
  8
CSLAYER1
  6
DASHED
 62
     2
 10
888.135500
 20
1131.760864
 11
883.760500
 21
1131.760864
  0
LINE
  8
CSLAYER1
  6
DASHED
 62
     2
 10
888.135500
 20
1189.510864
 11
883.760500
 21
1189.510864
  0
LINE
  8
CSLAYER1
  6
DASHED
 62
     2
 10
883.760500
 20
1149.540590
 11
882.910500
 21
1149.540590
  0
ARC
  8
CSLAYER1
  6
DASHED
 62
     2
 10
882.910500
 20
1140.990864
 40
1.000000
 50
180.000000
 51
270.000000
  0
ARC
  8
CSLAYER1
  6
DASHED
 62
     2
 10
882.910500
 20
1148.540590
 40
1.000000
 50
90.000000
 51
180.000000
  0
LINE
  8
CSLAYER1
  6
DASHED
 62
     2
 10
881.910500
 20
1172.740864
 11
881.910500
 21
1180.290590
  0
LINE
  8
CSLAYER1
  6
DASHED
 62
     2
 10
883.760500
 20
1171.740864
 11
882.910500
 21
1171.740864
  0
LINE
  8
CSLAYER1
  6
DASHED
 62
     2
 10
883.760500
 20
1181.290590
 11
882.910500
 21
1181.290590
  0
ARC
  8
CSLAYER1
  6
DASHED
 62
     2
 10
882.910500
 20
1172.740864
 40
1.000000
 50
180.000000
 51
270.000000
  0
ARC
  8
CSLAYER1
  6
DASHED
 62
     2
 10
882.910500
 20
1180.290590
 40
1.000000
 50
90.000000
 51
180.000000
  0
LINE
  8
CSLAYER1
  6
DASHED
 62
     2
 10
915.185500
 20
1131.760864
 11
915.185500
 21
1139.990864
  0
LINE
  8
CSLAYER1
  6
DASHED
 62
     2
 10
919.560500
 20
1131.760864
 11
919.560500
 21
1139.990864
  0
LINE
  8
CSLAYER1
  6
DASHED
 62
     2
 10
921.410500
 20
1140.990864
 11
921.410500
 21
1148.540590
  0
LINE
  8
CSLAYER1
  6
DASHED
 62
     2
 10
915.185500
 20
1131.760864
 11
919.560500
 21
1131.760864
  0
LINE
  8
CSLAYER1
  6
DASHED
 62
     2
 10
915.185500
 20
1189.510864
 11
919.560500
 21
1189.510864
  0
LINE
  8
CSLAYER1
  6
DASHED
 62
     2
 10
919.560500
 20
1139.990864
 11
920.410500
 21
1139.990864
  0
LINE
  8
CSLAYER1
  6
DASHED
 62
     2
 10
919.560500
 20
1149.540590
 11
920.410500
 21
1149.540590
  0
ARC
  8
CSLAYER1
  6
DASHED
 62
     2
 10
920.410500
 20
1140.990864
 40
1.000000
 50
270.000000
 51
360.000000
  0
ARC
  8
CSLAYER1
  6
DASHED
 62
     2
 10
920.410500
 20
1148.540590
 40
1.000000
 50
0.000000
 51
90.000000
  0
LINE
  8
CSLAYER1
  6
DASHED
 62
     2
 10
921.410500
 20
1172.740864
 11
921.410500
 21
1180.290590
  0
LINE
  8
CSLAYER1
  6
DASHED
 62
     2
 10
919.560500
 20
1171.740864
 11
920.410500
 21
1171.740864
  0
LINE
  8
CSLAYER1
  6
DASHED
 62
     2
 10
919.560500
 20
1181.290590
 11
920.410500
 21
1181.290590
  0
ARC
  8
CSLAYER1
  6
DASHED
 62
     2
 10
920.410500
 20
1172.740864
 40
1.000000
 50
270.000000
 51
360.000000
  0
ARC
  8
CSLAYER1
  6
DASHED
 62
     2
 10
920.410500
 20
1180.290590
 40
1.000000
 50
0.000000
 51
90.000000
  0
POINT
  8
CSLAYER1
 62
     2
 10
901.660500
 20
1176.510864
  0
LINE
  8
CSLAYER1
  6
DASHED
 62
     2
 10
928.298163
 20
1144.760864
 11
875.820691
 21
1144.760864
  0
LINE
  8
CSLAYER1
  6
DASHED
 62
     2
 10
915.185500
 20
1144.760864
 11
915.185500
 21
1191.560864
  0
LINE
  8
CSLAYER1
  6
DASHED
 62
     2
 10
919.560500
 20
1144.760864
 11
919.560500
 21
1189.510864
  0
LINE
  8
CSLAYER1
  6
DASHED
 62
     2
 10
888.135500
 20
1144.760864
 11
888.135500
 21
1191.560864
  0
LINE
  8
CSLAYER1
  6
DASHED
 62
     2
 10
883.760500
 20
1144.760864
 11
883.760500
 21
1189.510864
  0
LINE
  8
CSLAYER1
  6
DASHED
 62
     2
 10
915.185500
 20
1135.760864
 11
914.185500
 21
1134.760864
  0
LINE
  8
CSLAYER1
  6
DASHED
 62
     2
 10
889.135500
 20
1134.760864
 11
888.135500
 21
1135.760864
  0
LINE
  8
CSLAYER1
  6
DASHED
 62
     2
 10
915.185500
 20
1153.760864
 11
914.185500
 21
1154.760864
  0
LINE
  8
CSLAYER1
  6
DASHED
 62
     2
 10
889.135500
 20
1154.760864
 11
888.135500
 21
1153.760864
  0
POINT
  8
CSLAYER1
 62
     2
 10
901.660500
 20
1208.260864
  0
LINE
  8
CSLAYER1
  6
DASHED
 62
     2
 10
915.185500
 20
1192.385864
 11
915.185500
 21
1223.310864
  0
LINE
  8
CSLAYER1
  6
DASHED
 62
     2
 10
911.185500
 20
1192.385864
 11
911.185500
 21
1223.310864
  0
LINE
  8
CSLAYER1
  6
DASHED
 62
     2
 10
911.185500
 20
1223.310864
 11
915.185500
 21
1223.310864
  0
LINE
  8
CSLAYER1
  6
DASHED
 62
     2
 10
911.185500
 20
1199.735864
 11
911.185500
 21
1216.785864
  0
LINE
  8
CSLAYER1
  6
DASHED
 62
     2
 10
910.185500
 20
1198.735864
 11
901.660500
 21
1198.735864
  0
LINE
  8
CSLAYER1
  6
DASHED
 62
     2
 10
901.660500
 20
1217.785864
 11
910.185500
 21
1217.785864
  0
ARC
  8
CSLAYER1
  6
DASHED
 62
     2
 10
910.185500
 20
1199.735864
 40
1.000000
 50
270.000000
 51
360.000000
  0
ARC
  8
CSLAYER1
  6
DASHED
 62
     2
 10
910.185500
 20
1216.785864
 40
1.000000
 50
0.000000
 51
90.000000
  0
LINE
  8
CSLAYER1
  6
DASHED
 62
     2
 10
888.135500
 20
1161.460864
 11
888.135500
 21
1223.310864
  0
LINE
  8
CSLAYER1
  6
DASHED
 62
     2
 10
892.135500
 20
1192.385864
 11
892.135500
 21
1223.310864
  0
LINE
  8
CSLAYER1
  6
DASHED
 62
     2
 10
892.135500
 20
1223.310864
 11
888.135500
 21
1223.310864
  0
LINE
  8
CSLAYER1
  6
DASHED
 62
     2
 10
892.135500
 20
1199.735864
 11
892.135500
 21
1216.785864
  0
LINE
  8
CSLAYER1
  6
DASHED
 62
     2
 10
893.135500
 20
1198.735864
 11
901.660500
 21
1198.735864
  0
LINE
  8
CSLAYER1
  6
DASHED
 62
     2
 10
901.660500
 20
1217.785864
 11
893.135500
 21
1217.785864
  0
ARC
  8
CSLAYER1
  6
DASHED
 62
     2
 10
893.135500
 20
1199.735864
 40
1.000000
 50
180.000000
 51
270.000000
  0
ARC
  8
CSLAYER1
  6
DASHED
 62
     2
 10
893.135500
 20
1216.785864
 40
1.000000
 50
90.000000
 51
180.000000
  0
POINT
  8
CSLAYER1
 62
     2
 10
901.660500
 20
1208.260864
  0
POINT
  8
CSLAYER1
 62
     2
 10
901.660500
 20
1208.260864
  0
LINE
  8
CSLAYER1
  6
DASHED
 62
     2
 10
921.410500
 20
1204.490864
 11
921.410500
 21
1212.040590
  0
LINE
  8
CSLAYER1
  6
DASHED
 62
     2
 10
915.185500
 20
1195.260864
 11
919.560500
 21
1195.260864
  0
LINE
  8
CSLAYER1
  6
DASHED
 62
     2
 10
919.560500
 20
1203.490864
 11
920.410500
 21
1203.490864
  0
LINE
  8
CSLAYER1
  6
DASHED
 62
     2
 10
919.560500
 20
1213.040590
 11
920.410500
 21
1213.040590
  0
ARC
  8
CSLAYER1
  6
DASHED
 62
     2
 10
920.410500
 20
1204.490864
 40
1.000000
 50
270.000000
 51
360.000000
  0
ARC
  8
CSLAYER1
  6
DASHED
 62
     2
 10
920.410500
 20
1212.040590
 40
1.000000
 50
0.000000
 51
90.000000
  0
LINE
  8
CSLAYER1
  6
DASHED
 62
     2
 10
881.910500
 20
1204.490864
 11
881.910500
 21
1212.040590
  0
LINE
  8
CSLAYER1
  6
DASHED
 62
     2
 10
888.135500
 20
1195.260864
 11
883.760500
 21
1195.260864
  0
LINE
  8
CSLAYER1
  6
DASHED
 62
     2
 10
883.760500
 20
1203.490864
 11
882.910500
 21
1203.490864
  0
LINE
  8
CSLAYER1
  6
DASHED
 62
     2
 10
883.760500
 20
1213.040590
 11
882.910500
 21
1213.040590
  0
ARC
  8
CSLAYER1
  6
DASHED
 62
     2
 10
882.910500
 20
1204.490864
 40
1.000000
 50
180.000000
 51
270.000000
  0
ARC
  8
CSLAYER1
  6
DASHED
 62
     2
 10
882.910500
 20
1212.040590
 40
1.000000
 50
90.000000
 51
180.000000
  0
POINT
  8
CSLAYER1
 62
     2
 10
901.660500
 20
1208.260864
  0
POINT
  8
CSLAYER1
 62
     2
 10
901.660500
 20
1176.510864
  0
LINE
  8
CSLAYER1
  6
DASHED
 62
     2
 10
915.185500
 20
1192.385864
 11
915.185500
 21
1161.460864
  0
LINE
  8
CSLAYER1
  6
DASHED
 62
     2
 10
911.185500
 20
1192.385864
 11
911.185500
 21
1161.460864
  0
LINE
  8
CSLAYER1
  6
DASHED
 62
     2
 10
911.185500
 20
1161.460864
 11
915.185500
 21
1161.460864
  0
LINE
  8
CSLAYER1
  6
DASHED
 62
     2
 10
911.185500
 20
1185.035864
 11
911.185500
 21
1167.985864
  0
LINE
  8
CSLAYER1
  6
DASHED
 62
     2
 10
910.185500
 20
1186.035864
 11
901.660500
 21
1186.035864
  0
LINE
  8
CSLAYER1
  6
DASHED
 62
     2
 10
901.660500
 20
1166.985864
 11
910.185500
 21
1166.985864
  0
ARC
  8
CSLAYER1
  6
DASHED
 62
     2
 10
910.185500
 20
1185.035864
 40
1.000000
 50
0.000000
 51
90.000000
  0
ARC
  8
CSLAYER1
  6
DASHED
 62
     2
 10
910.185500
 20
1167.985864
 40
1.000000
 50
270.000000
 51
360.000000
  0
LINE
  8
CSLAYER1
  6
DASHED
 62
     2
 10
892.135500
 20
1192.385864
 11
892.135500
 21
1161.460864
  0
LINE
  8
CSLAYER1
  6
DASHED
 62
     2
 10
892.135500
 20
1161.460864
 11
888.135500
 21
1161.460864
  0
LINE
  8
CSLAYER1
  6
DASHED
 62
     2
 10
892.135500
 20
1185.035864
 11
892.135500
 21
1167.985864
  0
LINE
  8
CSLAYER1
  6
DASHED
 62
     2
 10
893.135500
 20
1186.035864
 11
901.660500
 21
1186.035864
  0
LINE
  8
CSLAYER1
  6
DASHED
 62
     2
 10
901.660500
 20
1166.985864
 11
893.135500
 21
1166.985864
  0
ARC
  8
CSLAYER1
  6
DASHED
 62
     2
 10
893.135500
 20
1185.035864
 40
1.000000
 50
90.000000
 51
180.000000
  0
ARC
  8
CSLAYER1
  6
DASHED
 62
     2
 10
893.135500
 20
1167.985864
 40
1.000000
 50
180.000000
 51
270.000000
  0
POINT
  8
CSLAYER1
 62
     2
 10
901.660500
 20
1176.510864
  0
POINT
  8
CSLAYER1
 62
     2
 10
901.660500
 20
1176.510864
  0
POINT
  8
CSLAYER1
 62
     2
 10
901.660500
 20
1176.510864
  0
LINE
  8
CSLAYER1
  6
DASHED
 62
     2
 10
909.660500
 20
1161.760864
 11
893.660500
 21
1161.760864
  0
LINE
  8
CSLAYER1
  6
DASHED
 62
     2
 10
909.660500
 20
1154.760864
 11
914.185500
 21
1154.760864
  0
LINE
  8
CSLAYER1
  6
DASHED
 62
     2
 10
909.660500
 20
1134.760864
 11
914.185500
 21
1134.760864
  0
LINE
  8
CSLAYER1
  6
DASHED
 62
     2
 10
919.560500
 20
1139.990864
 11
920.410500
 21
1139.990864
  0
LINE
  8
CSLAYER1
  6
DASHED
 62
     2
 10
919.560500
 20
1149.530864
 11
920.410500
 21
1149.530864
  0
LINE
  8
CSLAYER1
  6
DASHED
 62
     2
 10
928.298163
 20
1208.260864
 11
875.820691
 21
1208.260864
  0
LINE
  8
CSLAYER1
  6
DASHED
 62
     2
 10
620.660500
 20
1570.455253
 11
620.660500
 21
1544.891288
  0
LINE
  8
CSLAYER1
  6
DASHED
 62
     2
 10
625.660500
 20
1566.891288
 11
620.660500
 21
1561.891288
  0
LINE
  8
CSLAYER1
  6
DASHED
 62
     2
 10
625.660500
 20
1566.891288
 11
625.660500
 21
1544.891288
  0
LINE
  8
CSLAYER1
  6
DASHED
 62
     2
 10
620.660500
 20
1514.991288
 11
620.660500
 21
1544.891288
  0
ARC
  8
CSLAYER1
  6
DASHED
 62
     2
 10
619.560500
 20
1514.991288
 40
1.100000
 50
270.000000
 51
360.000000
  0
LINE
  8
CSLAYER1
  6
DASHED
 62
     2
 10
625.660500
 20
1522.891288
 11
620.660500
 21
1527.891288
  0
LINE
  8
CSLAYER1
  6
DASHED
 62
     2
 10
625.660500
 20
1522.891288
 11
625.660500
 21
1544.891288
  0
LINE
  8
CSLAYER1
  6
DASHED
 62
     2
 10
670.160500
 20
1570.455253
 11
670.160500
 21
1522.891288
  0
LINE
  8
CSLAYER1
  6
DASHED
 62
     2
 10
670.160500
 20
1516.641288
 11
670.160500
 21
1522.891288
  0
LINE
  8
CSLAYER1
  6
DASHED
 62
     2
 10
670.160500
 20
1516.641288
 11
672.160500
 21
1514.641288
  0
LINE
  8
CSLAYER1
  6
DASHED
 62
     2
 10
670.160500
 20
1566.891288
 11
633.160500
 21
1566.891288
  0
LINE
  8
CSLAYER1
  6
DASHED
 62
     2
 10
670.160500
 20
1566.891288
 11
670.160500
 21
1570.091288
  0
LINE
  8
CSLAYER1
  6
DASHED
 62
     2
 10
633.160500
 20
1566.891288
 11
633.160500
 21
1570.455253
  0
LINE
  8
CSLAYER1
  6
DASHED
 62
     2
 10
625.660500
 20
1522.891288
 11
670.160500
 21
1522.891288
  0
LINE
  8
CSLAYER1
  6
DASHED
 62
     2
 10
625.660500
 20
1566.891288
 11
670.160500
 21
1566.891288
  0
LINE
  8
CSLAYER1
  6
DASHED
 62
     2
 10
601.160500
 20
1557.391288
 11
602.310500
 21
1557.391288
  0
LINE
  8
CSLAYER1
  6
DASHED
 62
     2
 10
602.310500
 20
1556.841288
 11
603.660500
 21
1556.841288
  0
LINE
  8
CSLAYER1
  6
DASHED
 62
     2
 10
602.310500
 20
1559.941288
 11
603.660500
 21
1559.941288
  0
LINE
  8
CSLAYER1
  6
DASHED
 62
     2
 10
602.310500
 20
1559.941288
 11
602.310500
 21
1544.891288
  0
LINE
  8
CSLAYER1
  6
DASHED
 62
     2
 10
599.660500
 20
1544.891288
 11
599.660500
 21
1555.891288
  0
LINE
  8
CSLAYER1
  6
DASHED
 62
     2
 10
599.660500
 20
1555.891288
 11
601.160500
 21
1557.391288
  0
LINE
  8
CSLAYER1
  6
DASHED
 62
     2
 10
601.160500
 20
1557.391288
 11
601.160500
 21
1544.891288
  0
LINE
  8
CSLAYER1
  6
DASHED
 62
     2
 10
601.160500
 20
1532.391288
 11
602.310500
 21
1532.391288
  0
LINE
  8
CSLAYER1
  6
DASHED
 62
     2
 10
602.310500
 20
1532.941288
 11
603.660500
 21
1532.941288
  0
LINE
  8
CSLAYER1
  6
DASHED
 62
     2
 10
602.310500
 20
1529.841288
 11
603.660500
 21
1529.841288
  0
LINE
  8
CSLAYER1
  6
DASHED
 62
     2
 10
602.310500
 20
1529.841288
 11
602.310500
 21
1544.891288
  0
LINE
  8
CSLAYER1
  6
DASHED
 62
     2
 10
599.660500
 20
1544.891288
 11
599.660500
 21
1533.891288
  0
LINE
  8
CSLAYER1
  6
DASHED
 62
     2
 10
599.660500
 20
1533.891288
 11
601.160500
 21
1532.391288
  0
LINE
  8
CSLAYER1
  6
DASHED
 62
     2
 10
601.160500
 20
1532.391288
 11
601.160500
 21
1544.891288
  0
POINT
  8
CSLAYER1
 62
     2
 10
651.660500
 20
1457.308596
  0
LINE
  8
CSLAYER1
  6
DASHED
 62
     2
 10
637.535124
 20
1457.308598
 11
665.774214
 21
1457.308598
  0
LINE
  8
CSLAYER1
  6
DASHED
 62
     2
 10
651.660500
 20
1482.308598
 11
641.660500
 21
1482.308598
  0
LINE
  8
CSLAYER1
  6
DASHED
 62
     2
 10
643.160500
 20
1482.308598
 11
641.660500
 21
1479.710521
  0
LINE
  8
CSLAYER1
  6
DASHED
 62
     2
 10
651.660500
 20
1482.308598
 11
661.660500
 21
1482.308598
  0
LINE
  8
CSLAYER1
  6
DASHED
 62
     2
 10
660.160500
 20
1482.308598
 11
661.660500
 21
1479.710521
  0
LINE
  8
CSLAYER1
  6
DASHED
 62
     2
 10
663.660500
 20
1472.308598
 11
639.660500
 21
1472.308598
  0
POINT
  8
CSLAYER1
 62
     2
 10
651.660500
 20
1425.558596
  0
LINE
  8
CSLAYER1
  6
DASHED
 62
     2
 10
638.135500
 20
1409.683596
 11
638.135500
 21
1440.608596
  0
LINE
  8
CSLAYER1
  6
DASHED
 62
     2
 10
642.135500
 20
1409.683596
 11
642.135500
 21
1440.608596
  0
LINE
  8
CSLAYER1
  6
DASHED
 62
     2
 10
642.135500
 20
1440.608596
 11
638.135500
 21
1440.608596
  0
LINE
  8
CSLAYER1
  6
DASHED
 62
     2
 10
642.135500
 20
1417.033596
 11
642.135500
 21
1434.083596
  0
LINE
  8
CSLAYER1
  6
DASHED
 62
     2
 10
643.135500
 20
1416.033596
 11
651.660500
 21
1416.033596
  0
LINE
  8
CSLAYER1
  6
DASHED
 62
     2
 10
651.660500
 20
1435.083596
 11
643.135500
 21
1435.083596
  0
ARC
  8
CSLAYER1
  6
DASHED
 62
     2
 10
643.135500
 20
1417.033596
 40
1.000000
 50
180.000000
 51
270.000000
  0
ARC
  8
CSLAYER1
  6
DASHED
 62
     2
 10
643.135500
 20
1434.083596
 40
1.000000
 50
90.000000
 51
180.000000
  0
LINE
  8
CSLAYER1
  6
DASHED
 62
     2
 10
665.185500
 20
1406.808596
 11
665.185500
 21
1444.308596
  0
LINE
  8
CSLAYER1
  6
DASHED
 62
     2
 10
661.185500
 20
1409.683596
 11
661.185500
 21
1440.608596
  0
LINE
  8
CSLAYER1
  6
DASHED
 62
     2
 10
661.185500
 20
1440.608596
 11
665.185500
 21
1440.608596
  0
LINE
  8
CSLAYER1
  6
DASHED
 62
     2
 10
661.185500
 20
1417.033596
 11
661.185500
 21
1434.083596
  0
LINE
  8
CSLAYER1
  6
DASHED
 62
     2
 10
660.185500
 20
1416.033596
 11
651.660500
 21
1416.033596
  0
LINE
  8
CSLAYER1
  6
DASHED
 62
     2
 10
651.660500
 20
1435.083596
 11
660.185500
 21
1435.083596
  0
ARC
  8
CSLAYER1
  6
DASHED
 62
     2
 10
660.185500
 20
1417.033596
 40
1.000000
 50
270.000000
 51
360.000000
  0
ARC
  8
CSLAYER1
  6
DASHED
 62
     2
 10
660.185500
 20
1434.083596
 40
1.000000
 50
0.000000
 51
90.000000
  0
POINT
  8
CSLAYER1
 62
     2
 10
651.660500
 20
1425.558596
  0
POINT
  8
CSLAYER1
 62
     2
 10
651.660500
 20
1425.558596
  0
LINE
  8
CSLAYER1
  6
DASHED
 62
     2
 10
638.135500
 20
1412.558596
 11
638.135500
 21
1444.308596
  0
LINE
  8
CSLAYER1
  6
DASHED
 62
     2
 10
631.910500
 20
1421.788596
 11
631.910500
 21
1429.338322
  0
LINE
  8
CSLAYER1
  6
DASHED
 62
     2
 10
638.135500
 20
1412.558596
 11
633.760500
 21
1412.558596
  0
LINE
  8
CSLAYER1
  6
DASHED
 62
     2
 10
638.135500
 20
1470.308596
 11
633.760500
 21
1470.308596
  0
LINE
  8
CSLAYER1
  6
DASHED
 62
     2
 10
633.760500
 20
1420.788596
 11
632.910500
 21
1420.788596
  0
LINE
  8
CSLAYER1
  6
DASHED
 62
     2
 10
633.760500
 20
1430.338322
 11
632.910500
 21
1430.338322
  0
ARC
  8
CSLAYER1
  6
DASHED
 62
     2
 10
632.910500
 20
1421.788596
 40
1.000000
 50
180.000000
 51
270.000000
  0
ARC
  8
CSLAYER1
  6
DASHED
 62
     2
 10
632.910500
 20
1429.338322
 40
1.000000
 50
90.000000
 51
180.000000
  0
LINE
  8
CSLAYER1
  6
DASHED
 62
     2
 10
631.910500
 20
1453.538596
 11
631.910500
 21
1461.088322
  0
LINE
  8
CSLAYER1
  6
DASHED
 62
     2
 10
633.760500
 20
1452.538596
 11
632.910500
 21
1452.538596
  0
LINE
  8
CSLAYER1
  6
DASHED
 62
     2
 10
633.760500
 20
1462.088322
 11
632.910500
 21
1462.088322
  0
ARC
  8
CSLAYER1
  6
DASHED
 62
     2
 10
632.910500
 20
1453.538596
 40
1.000000
 50
180.000000
 51
270.000000
  0
ARC
  8
CSLAYER1
  6
DASHED
 62
     2
 10
632.910500
 20
1461.088322
 40
1.000000
 50
90.000000
 51
180.000000
  0
LINE
  8
CSLAYER1
  6
DASHED
 62
     2
 10
665.185500
 20
1412.558596
 11
665.185500
 21
1441.308596
  0
LINE
  8
CSLAYER1
  6
DASHED
 62
     2
 10
671.410500
 20
1421.788596
 11
671.410500
 21
1429.338322
  0
LINE
  8
CSLAYER1
  6
DASHED
 62
     2
 10
665.185500
 20
1412.558596
 11
669.560500
 21
1412.558596
  0
LINE
  8
CSLAYER1
  6
DASHED
 62
     2
 10
665.185500
 20
1470.308596
 11
669.560500
 21
1470.308596
  0
LINE
  8
CSLAYER1
  6
DASHED
 62
     2
 10
669.560500
 20
1420.788596
 11
670.410500
 21
1420.788596
  0
LINE
  8
CSLAYER1
  6
DASHED
 62
     2
 10
669.560500
 20
1430.338322
 11
670.410500
 21
1430.338322
  0
ARC
  8
CSLAYER1
  6
DASHED
 62
     2
 10
670.410500
 20
1421.788596
 40
1.000000
 50
270.000000
 51
360.000000
  0
ARC
  8
CSLAYER1
  6
DASHED
 62
     2
 10
670.410500
 20
1429.338322
 40
1.000000
 50
0.000000
 51
90.000000
  0
LINE
  8
CSLAYER1
  6
DASHED
 62
     2
 10
674.510500
 20
1453.538596
 11
674.510500
 21
1461.088322
  0
LINE
  8
CSLAYER1
  6
DASHED
 62
     2
 10
669.560500
 20
1452.538596
 11
673.510500
 21
1452.538596
  0
LINE
  8
CSLAYER1
  6
DASHED
 62
     2
 10
669.560500
 20
1462.088322
 11
673.510500
 21
1462.088322
  0
ARC
  8
CSLAYER1
  6
DASHED
 62
     2
 10
673.510500
 20
1453.538596
 40
1.000000
 50
270.000000
 51
360.000000
  0
ARC
  8
CSLAYER1
  6
DASHED
 62
     2
 10
673.510500
 20
1461.088322
 40
1.000000
 50
0.000000
 51
90.000000
  0
POINT
  8
CSLAYER1
 62
     2
 10
651.660500
 20
1425.558596
  0
LINE
  8
CSLAYER1
  6
DASHED
 62
     2
 10
674.510500
 20
1453.538596
 11
674.510500
 21
1461.088322
  0
LINE
  8
CSLAYER1
  6
DASHED
 62
     2
 10
665.185500
 20
1462.088322
 11
638.135500
 21
1462.088322
  0
LINE
  8
CSLAYER1
  6
DASHED
 62
     2
 10
665.185500
 20
1452.538596
 11
638.135500
 21
1452.538596
  0
LINE
  8
CSLAYER1
  6
DASHED
 62
     2
 10
638.135500
 20
1444.308596
 11
638.135500
 21
1446.375453
  0
LINE
  8
CSLAYER1
  6
DASHED
 62
     2
 10
665.185500
 20
1444.308596
 11
665.185500
 21
1471.308596
  0
LINE
  8
CSLAYER1
  6
DASHED
 62
     2
 10
663.185500
 20
1472.308596
 11
662.660500
 21
1472.308596
  0
LINE
  8
CSLAYER1
  6
DASHED
 62
     2
 10
663.185500
 20
1442.308596
 11
640.135500
 21
1442.308596
  0
LINE
  8
CSLAYER1
  6
DASHED
 62
     2
 10
638.135500
 20
1446.375453
 11
638.135500
 21
1471.308596
  0
ARC
  8
CSLAYER1
  6
DASHED
 62
     2
 10
640.135500
 20
1444.308596
 40
2.000000
 50
180.000000
 51
270.000000
  0
ARC
  8
CSLAYER1
  6
DASHED
 62
     2
 10
663.185500
 20
1444.308596
 40
2.000000
 50
270.000000
 51
360.000000
  0
POINT
  8
CSLAYER1
 62
     2
 10
651.660500
 20
1457.308596
  0
LINE
  8
CSLAYER1
  6
DASHED
 62
     2
 10
651.660500
 20
1482.308596
 11
641.660500
 21
1482.308596
  0
LINE
  8
CSLAYER1
  6
DASHED
 62
     2
 10
643.160500
 20
1482.308596
 11
641.660500
 21
1479.710519
  0
LINE
  8
CSLAYER1
  6
DASHED
 62
     2
 10
640.660500
 20
1472.308596
 11
640.135500
 21
1472.308596
  0
LINE
  8
CSLAYER1
  6
DASHED
 62
     2
 10
664.185500
 20
1472.308596
 11
663.660500
 21
1472.308596
  0
LINE
  8
CSLAYER1
  6
DASHED
 62
     2
 10
651.660500
 20
1482.308596
 11
661.660500
 21
1482.308596
  0
LINE
  8
CSLAYER1
  6
DASHED
 62
     2
 10
660.160500
 20
1482.308596
 11
661.660500
 21
1479.710519
  0
LINE
  8
CSLAYER1
  6
DASHED
 62
     2
 10
639.660500
 20
1472.308596
 11
639.135500
 21
1472.308596
  0
LINE
  8
CSLAYER1
  6
DASHED
 62
     2
 10
663.660500
 20
1472.308596
 11
639.660500
 21
1472.308596
  0
ARC
  8
CSLAYER1
  6
DASHED
 62
     2
 10
663.660500
 20
1474.308596
 40
2.000000
 50
180.000000
 51
270.000000
  0
ARC
  8
CSLAYER1
  6
DASHED
 62
     2
 10
639.660500
 20
1474.308596
 40
2.000000
 50
270.000000
 51
360.000000
  0
ARC
  8
CSLAYER1
  6
DASHED
 62
     2
 10
664.185500
 20
1471.308596
 40
1.000000
 50
0.000000
 51
90.000000
  0
ARC
  8
CSLAYER1
  6
DASHED
 62
     2
 10
639.135500
 20
1471.308596
 40
1.000000
 50
90.000000
 51
180.000000
  0
POINT
  8
CSLAYER1
 62
     2
 10
651.660500
 20
1472.308596
  0
LINE
  8
CSLAYER1
  6
DASHED
 62
     2
 10
633.760500
 20
1412.558596
 11
633.760500
 21
1470.308596
  0
LINE
  8
CSLAYER1
  6
DASHED
 62
     2
 10
669.560500
 20
1412.558596
 11
669.560500
 21
1470.308596
  0
POINT
  8
CSLAYER1
 62
     2
 10
651.660500
 20
1393.808596
  0
LINE
  8
CSLAYER1
  6
DASHED
 62
     2
 10
638.135500
 20
1409.683596
 11
638.135500
 21
1378.758596
  0
LINE
  8
CSLAYER1
  6
DASHED
 62
     2
 10
642.135500
 20
1409.683596
 11
642.135500
 21
1378.758596
  0
LINE
  8
CSLAYER1
  6
DASHED
 62
     2
 10
642.135500
 20
1378.758596
 11
638.135500
 21
1378.758596
  0
LINE
  8
CSLAYER1
  6
DASHED
 62
     2
 10
642.135500
 20
1402.333596
 11
642.135500
 21
1385.283596
  0
LINE
  8
CSLAYER1
  6
DASHED
 62
     2
 10
643.135500
 20
1403.333596
 11
651.660500
 21
1403.333596
  0
LINE
  8
CSLAYER1
  6
DASHED
 62
     2
 10
651.660500
 20
1384.283596
 11
643.135500
 21
1384.283596
  0
ARC
  8
CSLAYER1
  6
DASHED
 62
     2
 10
643.135500
 20
1402.333596
 40
1.000000
 50
90.000000
 51
180.000000
  0
ARC
  8
CSLAYER1
  6
DASHED
 62
     2
 10
643.135500
 20
1385.283596
 40
1.000000
 50
180.000000
 51
270.000000
  0
LINE
  8
CSLAYER1
  6
DASHED
 62
     2
 10
661.185500
 20
1409.683596
 11
661.185500
 21
1378.758596
  0
LINE
  8
CSLAYER1
  6
DASHED
 62
     2
 10
661.185500
 20
1378.758596
 11
665.185500
 21
1378.758596
  0
LINE
  8
CSLAYER1
  6
DASHED
 62
     2
 10
661.185500
 20
1402.333596
 11
661.185500
 21
1385.283596
  0
LINE
  8
CSLAYER1
  6
DASHED
 62
     2
 10
660.185500
 20
1403.333596
 11
651.660500
 21
1403.333596
  0
LINE
  8
CSLAYER1
  6
DASHED
 62
     2
 10
651.660500
 20
1384.283596
 11
660.185500
 21
1384.283596
  0
ARC
  8
CSLAYER1
  6
DASHED
 62
     2
 10
660.185500
 20
1402.333596
 40
1.000000
 50
0.000000
 51
90.000000
  0
ARC
  8
CSLAYER1
  6
DASHED
 62
     2
 10
660.185500
 20
1385.283596
 40
1.000000
 50
270.000000
 51
360.000000
  0
POINT
  8
CSLAYER1
 62
     2
 10
651.660500
 20
1393.808596
  0
POINT
  8
CSLAYER1
 62
     2
 10
651.660500
 20
1393.808596
  0
LINE
  8
CSLAYER1
  6
DASHED
 62
     2
 10
631.910500
 20
1397.578596
 11
631.910500
 21
1390.028869
  0
LINE
  8
CSLAYER1
  6
DASHED
 62
     2
 10
638.135500
 20
1406.808596
 11
633.760500
 21
1406.808596
  0
LINE
  8
CSLAYER1
  6
DASHED
 62
     2
 10
633.760500
 20
1398.578596
 11
632.910500
 21
1398.578596
  0
LINE
  8
CSLAYER1
  6
DASHED
 62
     2
 10
633.760500
 20
1389.028869
 11
632.910500
 21
1389.028869
  0
ARC
  8
CSLAYER1
  6
DASHED
 62
     2
 10
632.910500
 20
1397.578596
 40
1.000000
 50
90.000000
 51
180.000000
  0
ARC
  8
CSLAYER1
  6
DASHED
 62
     2
 10
632.910500
 20
1390.028869
 40
1.000000
 50
180.000000
 51
270.000000
  0
LINE
  8
CSLAYER1
  6
DASHED
 62
     2
 10
665.185500
 20
1406.808596
 11
665.185500
 21
1378.758596
  0
LINE
  8
CSLAYER1
  6
DASHED
 62
     2
 10
671.410500
 20
1397.578596
 11
671.410500
 21
1390.028869
  0
LINE
  8
CSLAYER1
  6
DASHED
 62
     2
 10
665.185500
 20
1406.808596
 11
669.560500
 21
1406.808596
  0
LINE
  8
CSLAYER1
  6
DASHED
 62
     2
 10
669.560500
 20
1398.578596
 11
670.410500
 21
1398.578596
  0
LINE
  8
CSLAYER1
  6
DASHED
 62
     2
 10
669.560500
 20
1389.028869
 11
670.410500
 21
1389.028869
  0
ARC
  8
CSLAYER1
  6
DASHED
 62
     2
 10
670.410500
 20
1397.578596
 40
1.000000
 50
0.000000
 51
90.000000
  0
ARC
  8
CSLAYER1
  6
DASHED
 62
     2
 10
670.410500
 20
1390.028869
 40
1.000000
 50
270.000000
 51
360.000000
  0
POINT
  8
CSLAYER1
 62
     2
 10
651.660500
 20
1393.808596
  0
LINE
  8
CSLAYER1
  6
DASHED
 62
     2
 10
641.660500
 20
1474.308598
 11
641.660500
 21
1522.891288
  0
LINE
  8
CSLAYER1
  6
DASHED
 62
     2
 10
643.160500
 20
1482.308598
 11
643.160500
 21
1522.891288
  0
LINE
  8
CSLAYER1
  6
DASHED
 62
     2
 10
660.160500
 20
1482.308598
 11
660.160500
 21
1522.891288
  0
LINE
  8
CSLAYER1
  6
DASHED
 62
     2
 10
661.660500
 20
1474.308598
 11
661.660500
 21
1522.891288
  0
LINE
  8
CSLAYER1
  6
DASHED
 62
     2
 10
669.560500
 20
1195.260864
 11
669.560500
 21
1406.808596
  0
LINE
  8
CSLAYER1
  6
DASHED
 62
     2
 10
633.760500
 20
1195.260864
 11
633.760500
 21
1406.808596
  0
POINT
  8
CSLAYER1
 62
     2
 10
651.660500
 20
1144.760864
  0
LINE
  8
CSLAYER1
  6
DASHED
 62
     2
 10
638.135500
 20
1131.760864
 11
638.135500
 21
1144.760864
  0
LINE
  8
CSLAYER1
  6
DASHED
 62
     2
 10
633.760500
 20
1131.760864
 11
633.760500
 21
1144.760864
  0
LINE
  8
CSLAYER1
  6
DASHED
 62
     2
 10
631.910500
 20
1140.990864
 11
631.910500
 21
1148.540590
  0
LINE
  8
CSLAYER1
  6
DASHED
 62
     2
 10
638.135500
 20
1131.760864
 11
633.760500
 21
1131.760864
  0
LINE
  8
CSLAYER1
  6
DASHED
 62
     2
 10
633.760500
 20
1149.540590
 11
632.910500
 21
1149.540590
  0
ARC
  8
CSLAYER1
  6
DASHED
 62
     2
 10
632.910500
 20
1140.990864
 40
1.000000
 50
180.000000
 51
270.000000
  0
ARC
  8
CSLAYER1
  6
DASHED
 62
     2
 10
632.910500
 20
1148.540590
 40
1.000000
 50
90.000000
 51
180.000000
  0
LINE
  8
CSLAYER1
  6
DASHED
 62
     2
 10
665.185500
 20
1131.760864
 11
665.185500
 21
1144.760864
  0
LINE
  8
CSLAYER1
  6
DASHED
 62
     2
 10
669.560500
 20
1131.760864
 11
669.560500
 21
1144.760864
  0
LINE
  8
CSLAYER1
  6
DASHED
 62
     2
 10
671.410500
 20
1140.990864
 11
671.410500
 21
1148.540590
  0
LINE
  8
CSLAYER1
  6
DASHED
 62
     2
 10
665.185500
 20
1131.760864
 11
669.560500
 21
1131.760864
  0
LINE
  8
CSLAYER1
  6
DASHED
 62
     2
 10
669.560500
 20
1139.990864
 11
670.410500
 21
1139.990864
  0
LINE
  8
CSLAYER1
  6
DASHED
 62
     2
 10
669.560500
 20
1149.540590
 11
670.410500
 21
1149.540590
  0
ARC
  8
CSLAYER1
  6
DASHED
 62
     2
 10
670.410500
 20
1140.990864
 40
1.000000
 50
270.000000
 51
360.000000
  0
ARC
  8
CSLAYER1
  6
DASHED
 62
     2
 10
670.410500
 20
1148.540590
 40
1.000000
 50
0.000000
 51
90.000000
  0
LINE
  8
CSLAYER1
  6
DASHED
 62
     2
 10
664.185500
 20
1134.760864
 11
659.660500
 21
1134.760864
  0
LINE
  8
CSLAYER1
  6
DASHED
 62
     2
 10
665.185500
 20
1135.760864
 11
664.185500
 21
1134.760864
  0
LINE
  8
CSLAYER1
  6
DASHED
 62
     2
 10
639.135500
 20
1134.760864
 11
638.135500
 21
1135.760864
  0
LINE
  8
CSLAYER1
  6
DASHED
 62
     2
 10
664.185500
 20
1154.760864
 11
659.660500
 21
1154.760864
  0
LINE
  8
CSLAYER1
  6
DASHED
 62
     2
 10
665.185500
 20
1153.760864
 11
664.185500
 21
1154.760864
  0
LINE
  8
CSLAYER1
  6
DASHED
 62
     2
 10
639.135500
 20
1154.760864
 11
638.135500
 21
1153.760864
  0
POINT
  8
CSLAYER1
 62
     2
 10
651.660500
 20
1144.760864
  0
LINE
  8
CSLAYER1
  6
DASHED
 62
     2
 10
624.177219
 20
1176.510864
 11
676.704936
 21
1176.510864
  0
LINE
  8
CSLAYER1
  6
DASHED
 62
     2
 10
665.185500
 20
1131.760864
 11
665.185500
 21
1139.990864
  0
LINE
  8
CSLAYER1
  6
DASHED
 62
     2
 10
669.560500
 20
1131.760864
 11
669.560500
 21
1139.990864
  0
LINE
  8
CSLAYER1
  6
DASHED
 62
     2
 10
671.410500
 20
1140.990864
 11
671.410500
 21
1148.540590
  0
LINE
  8
CSLAYER1
  6
DASHED
 62
     2
 10
665.185500
 20
1131.760864
 11
669.560500
 21
1131.760864
  0
LINE
  8
CSLAYER1
  6
DASHED
 62
     2
 10
665.185500
 20
1189.510864
 11
669.560500
 21
1189.510864
  0
LINE
  8
CSLAYER1
  6
DASHED
 62
     2
 10
669.560500
 20
1149.540590
 11
670.410500
 21
1149.540590
  0
ARC
  8
CSLAYER1
  6
DASHED
 62
     2
 10
670.410500
 20
1140.990864
 40
1.000000
 50
270.000000
 51
360.000000
  0
ARC
  8
CSLAYER1
  6
DASHED
 62
     2
 10
670.410500
 20
1148.540590
 40
1.000000
 50
0.000000
 51
90.000000
  0
LINE
  8
CSLAYER1
  6
DASHED
 62
     2
 10
671.410500
 20
1172.740864
 11
671.410500
 21
1180.290590
  0
LINE
  8
CSLAYER1
  6
DASHED
 62
     2
 10
669.560500
 20
1171.740864
 11
670.410500
 21
1171.740864
  0
LINE
  8
CSLAYER1
  6
DASHED
 62
     2
 10
669.560500
 20
1181.290590
 11
670.410500
 21
1181.290590
  0
ARC
  8
CSLAYER1
  6
DASHED
 62
     2
 10
670.410500
 20
1172.740864
 40
1.000000
 50
270.000000
 51
360.000000
  0
ARC
  8
CSLAYER1
  6
DASHED
 62
     2
 10
670.410500
 20
1180.290590
 40
1.000000
 50
0.000000
 51
90.000000
  0
LINE
  8
CSLAYER1
  6
DASHED
 62
     2
 10
638.135500
 20
1131.760864
 11
638.135500
 21
1139.990864
  0
LINE
  8
CSLAYER1
  6
DASHED
 62
     2
 10
633.760500
 20
1131.760864
 11
633.760500
 21
1139.990864
  0
LINE
  8
CSLAYER1
  6
DASHED
 62
     2
 10
631.910500
 20
1140.990864
 11
631.910500
 21
1148.540590
  0
LINE
  8
CSLAYER1
  6
DASHED
 62
     2
 10
638.135500
 20
1131.760864
 11
633.760500
 21
1131.760864
  0
LINE
  8
CSLAYER1
  6
DASHED
 62
     2
 10
638.135500
 20
1189.510864
 11
633.760500
 21
1189.510864
  0
LINE
  8
CSLAYER1
  6
DASHED
 62
     2
 10
633.760500
 20
1139.990864
 11
632.910500
 21
1139.990864
  0
LINE
  8
CSLAYER1
  6
DASHED
 62
     2
 10
633.760500
 20
1149.540590
 11
632.910500
 21
1149.540590
  0
ARC
  8
CSLAYER1
  6
DASHED
 62
     2
 10
632.910500
 20
1140.990864
 40
1.000000
 50
180.000000
 51
270.000000
  0
ARC
  8
CSLAYER1
  6
DASHED
 62
     2
 10
632.910500
 20
1148.540590
 40
1.000000
 50
90.000000
 51
180.000000
  0
LINE
  8
CSLAYER1
  6
DASHED
 62
     2
 10
631.910500
 20
1172.740864
 11
631.910500
 21
1180.290590
  0
LINE
  8
CSLAYER1
  6
DASHED
 62
     2
 10
633.760500
 20
1171.740864
 11
632.910500
 21
1171.740864
  0
LINE
  8
CSLAYER1
  6
DASHED
 62
     2
 10
633.760500
 20
1181.290590
 11
632.910500
 21
1181.290590
  0
ARC
  8
CSLAYER1
  6
DASHED
 62
     2
 10
632.910500
 20
1172.740864
 40
1.000000
 50
180.000000
 51
270.000000
  0
ARC
  8
CSLAYER1
  6
DASHED
 62
     2
 10
632.910500
 20
1180.290590
 40
1.000000
 50
90.000000
 51
180.000000
  0
POINT
  8
CSLAYER1
 62
     2
 10
651.660500
 20
1176.510864
  0
LINE
  8
CSLAYER1
  6
DASHED
 62
     2
 10
625.022838
 20
1144.760864
 11
677.500310
 21
1144.760864
  0
LINE
  8
CSLAYER1
  6
DASHED
 62
     2
 10
638.135500
 20
1144.760864
 11
638.135500
 21
1191.560864
  0
LINE
  8
CSLAYER1
  6
DASHED
 62
     2
 10
633.760500
 20
1144.760864
 11
633.760500
 21
1189.510864
  0
LINE
  8
CSLAYER1
  6
DASHED
 62
     2
 10
665.185500
 20
1144.760864
 11
665.185500
 21
1191.560864
  0
LINE
  8
CSLAYER1
  6
DASHED
 62
     2
 10
669.560500
 20
1144.760864
 11
669.560500
 21
1189.510864
  0
LINE
  8
CSLAYER1
  6
DASHED
 62
     2
 10
638.135500
 20
1135.760864
 11
639.135500
 21
1134.760864
  0
LINE
  8
CSLAYER1
  6
DASHED
 62
     2
 10
664.185500
 20
1134.760864
 11
665.185500
 21
1135.760864
  0
LINE
  8
CSLAYER1
  6
DASHED
 62
     2
 10
638.135500
 20
1153.760864
 11
639.135500
 21
1154.760864
  0
LINE
  8
CSLAYER1
  6
DASHED
 62
     2
 10
664.185500
 20
1154.760864
 11
665.185500
 21
1153.760864
  0
POINT
  8
CSLAYER1
 62
     2
 10
651.660500
 20
1208.260864
  0
LINE
  8
CSLAYER1
  6
DASHED
 62
     2
 10
638.135500
 20
1192.385864
 11
638.135500
 21
1223.310864
  0
LINE
  8
CSLAYER1
  6
DASHED
 62
     2
 10
642.135500
 20
1192.385864
 11
642.135500
 21
1223.310864
  0
LINE
  8
CSLAYER1
  6
DASHED
 62
     2
 10
642.135500
 20
1223.310864
 11
638.135500
 21
1223.310864
  0
LINE
  8
CSLAYER1
  6
DASHED
 62
     2
 10
642.135500
 20
1199.735864
 11
642.135500
 21
1216.785864
  0
LINE
  8
CSLAYER1
  6
DASHED
 62
     2
 10
643.135500
 20
1198.735864
 11
651.660500
 21
1198.735864
  0
LINE
  8
CSLAYER1
  6
DASHED
 62
     2
 10
651.660500
 20
1217.785864
 11
643.135500
 21
1217.785864
  0
ARC
  8
CSLAYER1
  6
DASHED
 62
     2
 10
643.135500
 20
1199.735864
 40
1.000000
 50
180.000000
 51
270.000000
  0
ARC
  8
CSLAYER1
  6
DASHED
 62
     2
 10
643.135500
 20
1216.785864
 40
1.000000
 50
90.000000
 51
180.000000
  0
LINE
  8
CSLAYER1
  6
DASHED
 62
     2
 10
665.185500
 20
1161.460864
 11
665.185500
 21
1223.310864
  0
LINE
  8
CSLAYER1
  6
DASHED
 62
     2
 10
661.185500
 20
1192.385864
 11
661.185500
 21
1223.310864
  0
LINE
  8
CSLAYER1
  6
DASHED
 62
     2
 10
661.185500
 20
1223.310864
 11
665.185500
 21
1223.310864
  0
LINE
  8
CSLAYER1
  6
DASHED
 62
     2
 10
661.185500
 20
1199.735864
 11
661.185500
 21
1216.785864
  0
LINE
  8
CSLAYER1
  6
DASHED
 62
     2
 10
660.185500
 20
1198.735864
 11
651.660500
 21
1198.735864
  0
LINE
  8
CSLAYER1
  6
DASHED
 62
     2
 10
651.660500
 20
1217.785864
 11
660.185500
 21
1217.785864
  0
ARC
  8
CSLAYER1
  6
DASHED
 62
     2
 10
660.185500
 20
1199.735864
 40
1.000000
 50
270.000000
 51
360.000000
  0
ARC
  8
CSLAYER1
  6
DASHED
 62
     2
 10
660.185500
 20
1216.785864
 40
1.000000
 50
0.000000
 51
90.000000
  0
POINT
  8
CSLAYER1
 62
     2
 10
651.660500
 20
1208.260864
  0
POINT
  8
CSLAYER1
 62
     2
 10
651.660500
 20
1208.260864
  0
LINE
  8
CSLAYER1
  6
DASHED
 62
     2
 10
631.910500
 20
1204.490864
 11
631.910500
 21
1212.040590
  0
LINE
  8
CSLAYER1
  6
DASHED
 62
     2
 10
638.135500
 20
1195.260864
 11
633.760500
 21
1195.260864
  0
LINE
  8
CSLAYER1
  6
DASHED
 62
     2
 10
633.760500
 20
1203.490864
 11
632.910500
 21
1203.490864
  0
LINE
  8
CSLAYER1
  6
DASHED
 62
     2
 10
633.760500
 20
1213.040590
 11
632.910500
 21
1213.040590
  0
ARC
  8
CSLAYER1
  6
DASHED
 62
     2
 10
632.910500
 20
1204.490864
 40
1.000000
 50
180.000000
 51
270.000000
  0
ARC
  8
CSLAYER1
  6
DASHED
 62
     2
 10
632.910500
 20
1212.040590
 40
1.000000
 50
90.000000
 51
180.000000
  0
LINE
  8
CSLAYER1
  6
DASHED
 62
     2
 10
671.410500
 20
1204.490864
 11
671.410500
 21
1212.040590
  0
LINE
  8
CSLAYER1
  6
DASHED
 62
     2
 10
665.185500
 20
1195.260864
 11
669.560500
 21
1195.260864
  0
LINE
  8
CSLAYER1
  6
DASHED
 62
     2
 10
669.560500
 20
1203.490864
 11
670.410500
 21
1203.490864
  0
LINE
  8
CSLAYER1
  6
DASHED
 62
     2
 10
669.560500
 20
1213.040590
 11
670.410500
 21
1213.040590
  0
ARC
  8
CSLAYER1
  6
DASHED
 62
     2
 10
670.410500
 20
1204.490864
 40
1.000000
 50
270.000000
 51
360.000000
  0
ARC
  8
CSLAYER1
  6
DASHED
 62
     2
 10
670.410500
 20
1212.040590
 40
1.000000
 50
0.000000
 51
90.000000
  0
POINT
  8
CSLAYER1
 62
     2
 10
651.660500
 20
1208.260864
  0
POINT
  8
CSLAYER1
 62
     2
 10
651.660500
 20
1176.510864
  0
LINE
  8
CSLAYER1
  6
DASHED
 62
     2
 10
638.135500
 20
1192.385864
 11
638.135500
 21
1161.460864
  0
LINE
  8
CSLAYER1
  6
DASHED
 62
     2
 10
642.135500
 20
1192.385864
 11
642.135500
 21
1161.460864
  0
LINE
  8
CSLAYER1
  6
DASHED
 62
     2
 10
642.135500
 20
1161.460864
 11
638.135500
 21
1161.460864
  0
LINE
  8
CSLAYER1
  6
DASHED
 62
     2
 10
642.135500
 20
1185.035864
 11
642.135500
 21
1167.985864
  0
LINE
  8
CSLAYER1
  6
DASHED
 62
     2
 10
643.135500
 20
1186.035864
 11
651.660500
 21
1186.035864
  0
LINE
  8
CSLAYER1
  6
DASHED
 62
     2
 10
651.660500
 20
1166.985864
 11
643.135500
 21
1166.985864
  0
ARC
  8
CSLAYER1
  6
DASHED
 62
     2
 10
643.135500
 20
1185.035864
 40
1.000000
 50
90.000000
 51
180.000000
  0
ARC
  8
CSLAYER1
  6
DASHED
 62
     2
 10
643.135500
 20
1167.985864
 40
1.000000
 50
180.000000
 51
270.000000
  0
LINE
  8
CSLAYER1
  6
DASHED
 62
     2
 10
661.185500
 20
1192.385864
 11
661.185500
 21
1161.460864
  0
LINE
  8
CSLAYER1
  6
DASHED
 62
     2
 10
661.185500
 20
1161.460864
 11
665.185500
 21
1161.460864
  0
LINE
  8
CSLAYER1
  6
DASHED
 62
     2
 10
661.185500
 20
1185.035864
 11
661.185500
 21
1167.985864
  0
LINE
  8
CSLAYER1
  6
DASHED
 62
     2
 10
660.185500
 20
1186.035864
 11
651.660500
 21
1186.035864
  0
LINE
  8
CSLAYER1
  6
DASHED
 62
     2
 10
651.660500
 20
1166.985864
 11
660.185500
 21
1166.985864
  0
ARC
  8
CSLAYER1
  6
DASHED
 62
     2
 10
660.185500
 20
1185.035864
 40
1.000000
 50
0.000000
 51
90.000000
  0
ARC
  8
CSLAYER1
  6
DASHED
 62
     2
 10
660.185500
 20
1167.985864
 40
1.000000
 50
270.000000
 51
360.000000
  0
POINT
  8
CSLAYER1
 62
     2
 10
651.660500
 20
1176.510864
  0
POINT
  8
CSLAYER1
 62
     2
 10
651.660500
 20
1176.510864
  0
POINT
  8
CSLAYER1
 62
     2
 10
651.660500
 20
1176.510864
  0
LINE
  8
CSLAYER1
  6
DASHED
 62
     2
 10
643.660500
 20
1161.760864
 11
659.660500
 21
1161.760864
  0
LINE
  8
CSLAYER1
  6
DASHED
 62
     2
 10
643.660500
 20
1154.760864
 11
639.135500
 21
1154.760864
  0
LINE
  8
CSLAYER1
  6
DASHED
 62
     2
 10
643.660500
 20
1134.760864
 11
639.135500
 21
1134.760864
  0
LINE
  8
CSLAYER1
  6
DASHED
 62
     2
 10
633.760500
 20
1139.990864
 11
632.910500
 21
1139.990864
  0
LINE
  8
CSLAYER1
  6
DASHED
 62
     2
 10
633.760500
 20
1149.530864
 11
632.910500
 21
1149.530864
  0
LINE
  8
CSLAYER1
  6
DASHED
 62
     2
 10
625.022838
 20
1208.260864
 11
677.500310
 21
1208.260864
  0
LINE
  8
CSLAYER1
  6
DASHED
 62
     2
 10
1031.368353
 20
1474.455253
 11
980.102086
 21
1474.455253
  0
LINE
  8
CSLAYER1
  6
DASHED
 62
     2
 10
1028.360500
 20
1497.455253
 11
1028.360500
 21
1466.455253
  0
LINE
  8
CSLAYER1
  6
DASHED
 62
     2
 10
1028.360500
 20
1470.455253
 11
1025.160500
 21
1470.455253
  0
LINE
  8
CSLAYER1
  6
DASHED
 62
     2
 10
1032.851374
 20
1489.455253
 11
1019.160500
 21
1489.455253
  0
LINE
  8
CSLAYER1
  6
DASHED
 62
     2
 10
1028.360500
 20
1497.455253
 11
1025.160500
 21
1497.455253
  0
LINE
  8
CSLAYER1
  6
DASHED
 62
     2
 10
983.160500
 20
1474.455253
 11
983.160500
 21
1467.455253
  0
LINE
  8
CSLAYER1
  6
DASHED
 62
     2
 10
983.160500
 20
1467.455253
 11
984.160500
 21
1466.455253
  0
LINE
  8
CSLAYER1
  6
DASHED
 62
     2
 10
1028.360500
 20
1466.455253
 11
1025.160500
 21
1466.455253
  0
LINE
  8
CSLAYER1
  6
DASHED
 62
     2
 10
1025.160500
 20
1455.455253
 11
984.160500
 21
1455.455253
  0
LINE
  8
CSLAYER1
  6
DASHED
 62
     2
 10
983.160500
 20
1474.455253
 11
983.160500
 21
1481.455253
  0
LINE
  8
CSLAYER1
  6
DASHED
 62
     2
 10
983.160500
 20
1481.455253
 11
984.160500
 21
1482.455253
  0
LINE
  8
CSLAYER1
  6
DASHED
 62
     2
 10
1028.360500
 20
1478.455253
 11
1025.160500
 21
1478.455253
  0
LINE
  8
CSLAYER1
  6
DASHED
 62
     2
 10
659.660500
 20
1061.103512
 11
664.660500
 21
1061.103512
  0
LINE
  8
CSLAYER1
  6
DASHED
 62
     2
 10
665.660500
 20
1062.103512
 11
665.660500
 21
1075.103512
  0
LINE
  8
CSLAYER1
  6
DASHED
 62
     2
 10
665.660500
 20
1062.103512
 11
664.660500
 21
1061.103512
  0
LINE
  8
CSLAYER1
  6
DASHED
 62
     2
 10
664.660500
 20
1061.103512
 11
659.594242
 21
1056.118831
  0
LINE
  8
CSLAYER1
  6
DASHED
 62
     2
 10
659.660500
 20
1056.184022
 11
664.579990
 21
1061.103512
  0
LINE
  8
CSLAYER1
  6
DASHED
 62
     2
 10
659.660500
 20
1056.466865
 11
664.297147
 21
1061.103512
  0
LINE
  8
CSLAYER1
  6
DASHED
 62
     2
 10
659.660500
 20
1056.749708
 11
664.014305
 21
1061.103512
  0
LINE
  8
CSLAYER1
  6
DASHED
 62
     2
 10
659.660500
 20
1057.032550
 11
663.731462
 21
1061.103512
  0
LINE
  8
CSLAYER1
  6
DASHED
 62
     2
 10
659.660500
 20
1057.315393
 11
663.448619
 21
1061.103512
  0
LINE
  8
CSLAYER1
  6
DASHED
 62
     2
 10
659.660500
 20
1057.598236
 11
663.165776
 21
1061.103512
  0
LINE
  8
CSLAYER1
  6
DASHED
 62
     2
 10
659.660500
 20
1057.881079
 11
662.882934
 21
1061.103512
  0
LINE
  8
CSLAYER1
  6
DASHED
 62
     2
 10
659.660500
 20
1058.163921
 11
662.600091
 21
1061.103512
  0
LINE
  8
CSLAYER1
  6
DASHED
 62
     2
 10
659.660500
 20
1058.446764
 11
662.317248
 21
1061.103512
  0
LINE
  8
CSLAYER1
  6
DASHED
 62
     2
 10
659.660500
 20
1058.729607
 11
662.034406
 21
1061.103512
  0
LINE
  8
CSLAYER1
  6
DASHED
 62
     2
 10
659.660500
 20
1059.012449
 11
661.751563
 21
1061.103512
  0
LINE
  8
CSLAYER1
  6
DASHED
 62
     2
 10
659.660500
 20
1059.295292
 11
661.468720
 21
1061.103512
  0
LINE
  8
CSLAYER1
  6
DASHED
 62
     2
 10
659.660500
 20
1059.578135
 11
661.185877
 21
1061.103512
  0
LINE
  8
CSLAYER1
  6
DASHED
 62
     2
 10
659.660500
 20
1059.860978
 11
660.903035
 21
1061.103512
  0
LINE
  8
CSLAYER1
  6
DASHED
 62
     2
 10
659.660500
 20
1060.143820
 11
660.620192
 21
1061.103512
  0
LINE
  8
CSLAYER1
  6
DASHED
 62
     2
 10
659.660500
 20
1060.426663
 11
660.337349
 21
1061.103512
  0
LINE
  8
CSLAYER1
  6
DASHED
 62
     2
 10
659.660500
 20
1060.709506
 11
660.054507
 21
1061.103512
  0
LINE
  8
CSLAYER1
  6
DASHED
 62
     2
 10
659.660500
 20
1060.992348
 11
659.771664
 21
1061.103512
  0
LINE
  8
CSLAYER1
  6
DASHED
 62
     2
 10
659.660500
 20
1089.103512
 11
664.660500
 21
1089.103512
  0
LINE
  8
CSLAYER1
  6
DASHED
 62
     2
 10
665.660500
 20
1088.103512
 11
665.660500
 21
1075.103512
  0
LINE
  8
CSLAYER1
  6
DASHED
 62
     2
 10
665.660500
 20
1088.103512
 11
664.660500
 21
1089.103512
  0
LINE
  8
CSLAYER1
  6
DASHED
 62
     2
 10
642.660500
 20
1094.103512
 11
641.660500
 21
1095.103512
  0
LINE
  8
CSLAYER1
  6
DASHED
 62
     2
 10
664.660500
 20
1089.103512
 11
659.594242
 21
1094.088193
  0
LINE
  8
CSLAYER1
  6
DASHED
 62
     2
 10
659.660500
 20
1094.023002
 11
664.579990
 21
1089.103512
  0
LINE
  8
CSLAYER1
  6
DASHED
 62
     2
 10
659.660500
 20
1093.740159
 11
664.297147
 21
1089.103512
  0
LINE
  8
CSLAYER1
  6
DASHED
 62
     2
 10
659.660500
 20
1093.457316
 11
664.014305
 21
1089.103512
  0
LINE
  8
CSLAYER1
  6
DASHED
 62
     2
 10
659.660500
 20
1093.174474
 11
663.731462
 21
1089.103512
  0
LINE
  8
CSLAYER1
  6
DASHED
 62
     2
 10
659.660500
 20
1092.891631
 11
663.448619
 21
1089.103512
  0
LINE
  8
CSLAYER1
  6
DASHED
 62
     2
 10
659.660500
 20
1092.608788
 11
663.165776
 21
1089.103512
  0
LINE
  8
CSLAYER1
  6
DASHED
 62
     2
 10
659.660500
 20
1092.325946
 11
662.882934
 21
1089.103512
  0
LINE
  8
CSLAYER1
  6
DASHED
 62
     2
 10
659.660500
 20
1092.043103
 11
662.600091
 21
1089.103512
  0
LINE
  8
CSLAYER1
  6
DASHED
 62
     2
 10
659.660500
 20
1091.760260
 11
662.317248
 21
1089.103512
  0
LINE
  8
CSLAYER1
  6
DASHED
 62
     2
 10
659.660500
 20
1091.477417
 11
662.034406
 21
1089.103512
  0
LINE
  8
CSLAYER1
  6
DASHED
 62
     2
 10
659.660500
 20
1091.194575
 11
661.751563
 21
1089.103512
  0
LINE
  8
CSLAYER1
  6
DASHED
 62
     2
 10
659.660500
 20
1090.911732
 11
661.468720
 21
1089.103512
  0
LINE
  8
CSLAYER1
  6
DASHED
 62
     2
 10
659.660500
 20
1090.628889
 11
661.185877
 21
1089.103512
  0
LINE
  8
CSLAYER1
  6
DASHED
 62
     2
 10
659.660500
 20
1090.346047
 11
660.903035
 21
1089.103512
  0
LINE
  8
CSLAYER1
  6
DASHED
 62
     2
 10
659.660500
 20
1090.063204
 11
660.620192
 21
1089.103512
  0
LINE
  8
CSLAYER1
  6
DASHED
 62
     2
 10
659.660500
 20
1089.780361
 11
660.337349
 21
1089.103512
  0
LINE
  8
CSLAYER1
  6
DASHED
 62
     2
 10
659.660500
 20
1089.497518
 11
660.054507
 21
1089.103512
  0
LINE
  8
CSLAYER1
  6
DASHED
 62
     2
 10
659.660500
 20
1089.214676
 11
659.771664
 21
1089.103512
  0
LINE
  8
CSLAYER1
  6
DASHED
 62
     2
 10
562.687041
 20
1053.753512
 11
603.660500
 21
1053.753512
  0
LINE
  8
CSLAYER1
  6
DASHED
 62
     2
 10
665.660500
 20
1062.103512
 11
665.660500
 21
1075.103512
  0
LINE
  8
CSLAYER1
  6
DASHED
 62
     2
 10
665.660500
 20
1062.103512
 11
664.660500
 21
1061.103512
  0
LINE
  8
CSLAYER1
  6
DASHED
 62
     2
 10
664.660500
 20
1061.103512
 11
664.660500
 21
1075.103512
  0
LINE
  8
CSLAYER1
  6
DASHED
 62
     2
 10
642.660500
 20
1094.103512
 11
642.660500
 21
1056.103512
  0
LINE
  8
CSLAYER1
  6
DASHED
 62
     2
 10
664.660500
 20
1061.103512
 11
659.594242
 21
1056.118831
  0
LINE
  8
CSLAYER1
  6
DASHED
 62
     2
 10
659.660500
 20
1056.184022
 11
664.579990
 21
1061.103512
  0
LINE
  8
CSLAYER1
  6
DASHED
 62
     2
 10
659.660500
 20
1056.466865
 11
664.297147
 21
1061.103512
  0
LINE
  8
CSLAYER1
  6
DASHED
 62
     2
 10
659.660500
 20
1056.749708
 11
664.014305
 21
1061.103512
  0
LINE
  8
CSLAYER1
  6
DASHED
 62
     2
 10
659.660500
 20
1057.032550
 11
663.731462
 21
1061.103512
  0
LINE
  8
CSLAYER1
  6
DASHED
 62
     2
 10
659.660500
 20
1057.315393
 11
663.448619
 21
1061.103512
  0
LINE
  8
CSLAYER1
  6
DASHED
 62
     2
 10
659.660500
 20
1057.598236
 11
663.165776
 21
1061.103512
  0
LINE
  8
CSLAYER1
  6
DASHED
 62
     2
 10
659.660500
 20
1057.881079
 11
662.882934
 21
1061.103512
  0
LINE
  8
CSLAYER1
  6
DASHED
 62
     2
 10
659.660500
 20
1058.163921
 11
662.600091
 21
1061.103512
  0
LINE
  8
CSLAYER1
  6
DASHED
 62
     2
 10
659.660500
 20
1058.446764
 11
662.317248
 21
1061.103512
  0
LINE
  8
CSLAYER1
  6
DASHED
 62
     2
 10
659.660500
 20
1058.729607
 11
662.034406
 21
1061.103512
  0
LINE
  8
CSLAYER1
  6
DASHED
 62
     2
 10
659.660500
 20
1059.012449
 11
661.751563
 21
1061.103512
  0
LINE
  8
CSLAYER1
  6
DASHED
 62
     2
 10
659.660500
 20
1059.295292
 11
661.468720
 21
1061.103512
  0
LINE
  8
CSLAYER1
  6
DASHED
 62
     2
 10
659.660500
 20
1059.578135
 11
661.185877
 21
1061.103512
  0
LINE
  8
CSLAYER1
  6
DASHED
 62
     2
 10
659.660500
 20
1059.860978
 11
660.903035
 21
1061.103512
  0
LINE
  8
CSLAYER1
  6
DASHED
 62
     2
 10
659.660500
 20
1060.143820
 11
660.620192
 21
1061.103512
  0
LINE
  8
CSLAYER1
  6
DASHED
 62
     2
 10
659.660500
 20
1060.426663
 11
660.337349
 21
1061.103512
  0
LINE
  8
CSLAYER1
  6
DASHED
 62
     2
 10
659.660500
 20
1060.709506
 11
660.054507
 21
1061.103512
  0
LINE
  8
CSLAYER1
  6
DASHED
 62
     2
 10
659.660500
 20
1060.992348
 11
659.771664
 21
1061.103512
  0
LINE
  8
CSLAYER1
  6
DASHED
 62
     2
 10
561.687041
 20
1095.453512
 11
561.687041
 21
1054.753512
  0
LINE
  8
CSLAYER1
  6
DASHED
 62
     2
 10
561.687041
 20
1054.753512
 11
562.687041
 21
1053.753512
  0
LINE
  8
CSLAYER1
  6
DASHED
 62
     2
 10
521.687041
 20
1085.103512
 11
521.687041
 21
1065.103512
  0
LINE
  8
CSLAYER1
  6
DASHED
 62
     2
 10
540.687041
 20
1093.603512
 11
540.687041
 21
1056.603512
  0
LINE
  8
CSLAYER1
  6
DASHED
 62
     2
 10
535.587041
 20
1092.103512
 11
535.587041
 21
1058.103512
  0
LINE
  8
CSLAYER1
  6
DASHED
 62
     2
 10
523.587041
 20
1092.103512
 11
523.587041
 21
1058.103512
  0
LINE
  8
CSLAYER1
  6
DASHED
 62
     2
 10
540.687041
 20
1092.103512
 11
523.587041
 21
1092.103512
  0
LINE
  8
CSLAYER1
  6
DASHED
 62
     2
 10
535.587041
 20
1085.103512
 11
521.687041
 21
1085.103512
  0
LINE
  8
CSLAYER1
  6
DASHED
 62
     2
 10
540.687041
 20
1058.103512
 11
523.587041
 21
1058.103512
  0
LINE
  8
CSLAYER1
  6
DASHED
 62
     2
 10
535.587041
 20
1065.103512
 11
521.687041
 21
1065.103512
  0
LINE
  8
CSLAYER1
  6
DASHED
 62
     2
 10
543.687041
 20
1093.603512
 11
540.687041
 21
1093.603512
  0
LINE
  8
CSLAYER1
  6
DASHED
 62
     2
 10
543.687041
 20
1056.603512
 11
540.687041
 21
1056.603512
  0
LINE
  8
CSLAYER1
  6
DASHED
 62
     2
 10
543.687041
 20
1056.603512
 11
543.687041
 21
1093.603512
  0
LINE
  8
CSLAYER1
  6
DASHED
 62
     2
 10
543.687041
 20
1062.603512
 11
544.660500
 21
1062.603512
  0
LINE
  8
CSLAYER1
  6
DASHED
 62
     2
 10
562.687041
 20
1096.453512
 11
603.660500
 21
1096.453512
  0
LINE
  8
CSLAYER1
  6
DASHED
 62
     2
 10
659.660500
 20
1089.103512
 11
662.687041
 21
1089.103512
  0
LINE
  8
CSLAYER1
  6
DASHED
 62
     2
 10
665.660500
 20
1088.103512
 11
665.660500
 21
1075.103512
  0
LINE
  8
CSLAYER1
  6
DASHED
 62
     2
 10
665.660500
 20
1088.103512
 11
664.660500
 21
1089.103512
  0
LINE
  8
CSLAYER1
  6
DASHED
 62
     2
 10
664.660500
 20
1089.103512
 11
664.660500
 21
1075.103512
  0
LINE
  8
CSLAYER1
  6
DASHED
 62
     2
 10
642.660500
 20
1094.103512
 11
641.660500
 21
1095.103512
  0
LINE
  8
CSLAYER1
  6
DASHED
 62
     2
 10
664.660500
 20
1089.103512
 11
659.594242
 21
1094.088193
  0
LINE
  8
CSLAYER1
  6
DASHED
 62
     2
 10
659.660500
 20
1094.023002
 11
664.579990
 21
1089.103512
  0
LINE
  8
CSLAYER1
  6
DASHED
 62
     2
 10
659.660500
 20
1093.740159
 11
664.297147
 21
1089.103512
  0
LINE
  8
CSLAYER1
  6
DASHED
 62
     2
 10
659.660500
 20
1093.457316
 11
664.014305
 21
1089.103512
  0
LINE
  8
CSLAYER1
  6
DASHED
 62
     2
 10
659.660500
 20
1093.174474
 11
663.731462
 21
1089.103512
  0
LINE
  8
CSLAYER1
  6
DASHED
 62
     2
 10
659.660500
 20
1092.891631
 11
663.448619
 21
1089.103512
  0
LINE
  8
CSLAYER1
  6
DASHED
 62
     2
 10
659.660500
 20
1092.608788
 11
663.165776
 21
1089.103512
  0
LINE
  8
CSLAYER1
  6
DASHED
 62
     2
 10
659.660500
 20
1092.325946
 11
662.882934
 21
1089.103512
  0
LINE
  8
CSLAYER1
  6
DASHED
 62
     2
 10
659.660500
 20
1092.043103
 11
662.600091
 21
1089.103512
  0
LINE
  8
CSLAYER1
  6
DASHED
 62
     2
 10
659.660500
 20
1091.760260
 11
662.317248
 21
1089.103512
  0
LINE
  8
CSLAYER1
  6
DASHED
 62
     2
 10
659.660500
 20
1091.477417
 11
662.034406
 21
1089.103512
  0
LINE
  8
CSLAYER1
  6
DASHED
 62
     2
 10
659.660500
 20
1091.194575
 11
661.751563
 21
1089.103512
  0
LINE
  8
CSLAYER1
  6
DASHED
 62
     2
 10
659.660500
 20
1090.911732
 11
661.468720
 21
1089.103512
  0
LINE
  8
CSLAYER1
  6
DASHED
 62
     2
 10
659.660500
 20
1090.628889
 11
661.185877
 21
1089.103512
  0
LINE
  8
CSLAYER1
  6
DASHED
 62
     2
 10
659.660500
 20
1090.346047
 11
660.903035
 21
1089.103512
  0
LINE
  8
CSLAYER1
  6
DASHED
 62
     2
 10
659.660500
 20
1090.063204
 11
660.620192
 21
1089.103512
  0
LINE
  8
CSLAYER1
  6
DASHED
 62
     2
 10
659.660500
 20
1089.780361
 11
660.337349
 21
1089.103512
  0
LINE
  8
CSLAYER1
  6
DASHED
 62
     2
 10
659.660500
 20
1089.497518
 11
660.054507
 21
1089.103512
  0
LINE
  8
CSLAYER1
  6
DASHED
 62
     2
 10
659.660500
 20
1089.214676
 11
659.771664
 21
1089.103512
  0
LINE
  8
CSLAYER1
  6
DASHED
 62
     2
 10
561.687041
 20
1095.453512
 11
562.687041
 21
1096.453512
  0
LINE
  8
CSLAYER1
  6
DASHED
 62
     2
 10
543.687041
 20
1087.603512
 11
544.660500
 21
1087.603512
  0
LINE
  8
CSLAYER1
  6
DASHED
 62
     2
 10
598.660500
 20
1053.753512
 11
603.660500
 21
1048.753512
  0
LINE
  8
CSLAYER1
  6
DASHED
 62
     2
 10
603.660500
 20
1049.036355
 11
598.943343
 21
1053.753512
  0
LINE
  8
CSLAYER1
  6
DASHED
 62
     2
 10
603.660500
 20
1049.319198
 11
599.226186
 21
1053.753512
  0
LINE
  8
CSLAYER1
  6
DASHED
 62
     2
 10
603.660500
 20
1049.602040
 11
599.509028
 21
1053.753512
  0
LINE
  8
CSLAYER1
  6
DASHED
 62
     2
 10
603.660500
 20
1049.884883
 11
599.791871
 21
1053.753512
  0
LINE
  8
CSLAYER1
  6
DASHED
 62
     2
 10
603.660500
 20
1050.167726
 11
600.074714
 21
1053.753512
  0
LINE
  8
CSLAYER1
  6
DASHED
 62
     2
 10
603.660500
 20
1050.450568
 11
600.357557
 21
1053.753512
  0
LINE
  8
CSLAYER1
  6
DASHED
 62
     2
 10
603.660500
 20
1050.733411
 11
600.640399
 21
1053.753512
  0
LINE
  8
CSLAYER1
  6
DASHED
 62
     2
 10
603.660500
 20
1051.016254
 11
600.923242
 21
1053.753512
  0
LINE
  8
CSLAYER1
  6
DASHED
 62
     2
 10
603.660500
 20
1051.299097
 11
601.206085
 21
1053.753512
  0
LINE
  8
CSLAYER1
  6
DASHED
 62
     2
 10
603.660500
 20
1051.581939
 11
601.488927
 21
1053.753512
  0
LINE
  8
CSLAYER1
  6
DASHED
 62
     2
 10
603.660500
 20
1051.864782
 11
601.771770
 21
1053.753512
  0
LINE
  8
CSLAYER1
  6
DASHED
 62
     2
 10
603.660500
 20
1052.147625
 11
602.054613
 21
1053.753512
  0
LINE
  8
CSLAYER1
  6
DASHED
 62
     2
 10
603.660500
 20
1052.430467
 11
602.337456
 21
1053.753512
  0
LINE
  8
CSLAYER1
  6
DASHED
 62
     2
 10
603.660500
 20
1052.713310
 11
602.620298
 21
1053.753512
  0
LINE
  8
CSLAYER1
  6
DASHED
 62
     2
 10
603.660500
 20
1052.996153
 11
602.903141
 21
1053.753512
  0
LINE
  8
CSLAYER1
  6
DASHED
 62
     2
 10
603.660500
 20
1053.278996
 11
603.185984
 21
1053.753512
  0
LINE
  8
CSLAYER1
  6
DASHED
 62
     2
 10
603.660500
 20
1053.561838
 11
603.468826
 21
1053.753512
  0
LINE
  8
CSLAYER1
  6
DASHED
 62
     2
 10
619.660500
 20
1099.820669
 11
624.377658
 21
1095.103512
  0
LINE
  8
CSLAYER1
  6
DASHED
 62
     2
 10
619.660500
 20
1099.537827
 11
624.094815
 21
1095.103512
  0
LINE
  8
CSLAYER1
  6
DASHED
 62
     2
 10
619.660500
 20
1099.254984
 11
623.811972
 21
1095.103512
  0
LINE
  8
CSLAYER1
  6
DASHED
 62
     2
 10
619.660500
 20
1098.972141
 11
623.529129
 21
1095.103512
  0
LINE
  8
CSLAYER1
  6
DASHED
 62
     2
 10
619.660500
 20
1098.689299
 11
623.246287
 21
1095.103512
  0
LINE
  8
CSLAYER1
  6
DASHED
 62
     2
 10
619.660500
 20
1098.406456
 11
622.963444
 21
1095.103512
  0
LINE
  8
CSLAYER1
  6
DASHED
 62
     2
 10
619.660500
 20
1098.123613
 11
622.680601
 21
1095.103512
  0
LINE
  8
CSLAYER1
  6
DASHED
 62
     2
 10
619.660500
 20
1097.840770
 11
622.397759
 21
1095.103512
  0
LINE
  8
CSLAYER1
  6
DASHED
 62
     2
 10
619.660500
 20
1097.557928
 11
622.114916
 21
1095.103512
  0
LINE
  8
CSLAYER1
  6
DASHED
 62
     2
 10
619.660500
 20
1097.275085
 11
621.832073
 21
1095.103512
  0
LINE
  8
CSLAYER1
  6
DASHED
 62
     2
 10
619.660500
 20
1096.992242
 11
621.549230
 21
1095.103512
  0
LINE
  8
CSLAYER1
  6
DASHED
 62
     2
 10
619.660500
 20
1096.709400
 11
621.266388
 21
1095.103512
  0
LINE
  8
CSLAYER1
  6
DASHED
 62
     2
 10
619.660500
 20
1096.426557
 11
620.983545
 21
1095.103512
  0
LINE
  8
CSLAYER1
  6
DASHED
 62
     2
 10
619.660500
 20
1096.143714
 11
620.700702
 21
1095.103512
  0
LINE
  8
CSLAYER1
  6
DASHED
 62
     2
 10
619.660500
 20
1095.860871
 11
620.417860
 21
1095.103512
  0
LINE
  8
CSLAYER1
  6
DASHED
 62
     2
 10
619.660500
 20
1095.578029
 11
620.135017
 21
1095.103512
  0
LINE
  8
CSLAYER1
  6
DASHED
 62
     2
 10
619.660500
 20
1095.295186
 11
619.852174
 21
1095.103512
  0
LINE
  8
CSLAYER1
  6
DASHED
 62
     2
 10
598.660500
 20
1096.453512
 11
603.660500
 21
1101.453512
  0
LINE
  8
CSLAYER1
  6
DASHED
 62
     2
 10
603.660500
 20
1101.170669
 11
598.943343
 21
1096.453512
  0
LINE
  8
CSLAYER1
  6
DASHED
 62
     2
 10
603.660500
 20
1100.887827
 11
599.226186
 21
1096.453512
  0
LINE
  8
CSLAYER1
  6
DASHED
 62
     2
 10
603.660500
 20
1100.604984
 11
599.509028
 21
1096.453512
  0
LINE
  8
CSLAYER1
  6
DASHED
 62
     2
 10
603.660500
 20
1100.322141
 11
599.791871
 21
1096.453512
  0
LINE
  8
CSLAYER1
  6
DASHED
 62
     2
 10
603.660500
 20
1100.039299
 11
600.074714
 21
1096.453512
  0
LINE
  8
CSLAYER1
  6
DASHED
 62
     2
 10
603.660500
 20
1099.756456
 11
600.357557
 21
1096.453512
  0
LINE
  8
CSLAYER1
  6
DASHED
 62
     2
 10
603.660500
 20
1099.473613
 11
600.640399
 21
1096.453512
  0
LINE
  8
CSLAYER1
  6
DASHED
 62
     2
 10
603.660500
 20
1099.190770
 11
600.923242
 21
1096.453512
  0
LINE
  8
CSLAYER1
  6
DASHED
 62
     2
 10
603.660500
 20
1098.907928
 11
601.206085
 21
1096.453512
  0
LINE
  8
CSLAYER1
  6
DASHED
 62
     2
 10
603.660500
 20
1098.625085
 11
601.488927
 21
1096.453512
  0
LINE
  8
CSLAYER1
  6
DASHED
 62
     2
 10
603.660500
 20
1098.342242
 11
601.771770
 21
1096.453512
  0
LINE
  8
CSLAYER1
  6
DASHED
 62
     2
 10
603.660500
 20
1098.059400
 11
602.054613
 21
1096.453512
  0
LINE
  8
CSLAYER1
  6
DASHED
 62
     2
 10
603.660500
 20
1097.776557
 11
602.337456
 21
1096.453512
  0
LINE
  8
CSLAYER1
  6
DASHED
 62
     2
 10
603.660500
 20
1097.493714
 11
602.620298
 21
1096.453512
  0
LINE
  8
CSLAYER1
  6
DASHED
 62
     2
 10
603.660500
 20
1097.210871
 11
602.903141
 21
1096.453512
  0
LINE
  8
CSLAYER1
  6
DASHED
 62
     2
 10
603.660500
 20
1096.928029
 11
603.185984
 21
1096.453512
  0
LINE
  8
CSLAYER1
  6
DASHED
 62
     2
 10
603.660500
 20
1096.645186
 11
603.468826
 21
1096.453512
  0
LINE
  8
CSLAYER1
  6
DASHED
 62
     2
 10
619.660500
 20
1096.426557
 11
619.660500
 21
1095.103512
  0
LINE
  8
CSLAYER1
  6
DASHED
 62
     2
 10
620.700702
 20
1095.103512
 11
619.660500
 21
1095.103512
  0
LINE
  8
CSLAYER1
  6
DASHED
 62
     2
 10
659.660500
 20
1051.103512
 11
643.660500
 21
1051.103512
  0
LINE
  8
CSLAYER1
  6
DASHED
 62
     2
 10
621.852174
 20
1095.103512
 11
641.660500
 21
1095.103512
  0
LINE
  8
CSLAYER1
  6
DASHED
 62
     2
 10
642.660500
 20
1090.103512
 11
643.660500
 21
1090.103512
  0
LINE
  8
CSLAYER1
  6
DASHED
 62
     2
 10
642.660500
 20
1060.103512
 11
643.660500
 21
1060.103512
  0
LINE
  8
CSLAYER1
  6
DASHED
 62
     2
 10
642.660500
 20
1060.103512
 11
643.660500
 21
1060.103512
  0
LINE
  8
CSLAYER1
  6
DASHED
 62
     2
 10
560.660500
 20
1090.103512
 11
561.687041
 21
1090.103512
  0
LINE
  8
CSLAYER1
  6
DASHED
 62
     2
 10
560.660500
 20
1060.103512
 11
561.687041
 21
1060.103512
  0
LINE
  8
CSLAYER1
  6
DASHED
 62
     2
 10
642.660500
 20
1056.103512
 11
641.660500
 21
1055.103512
  0
LINE
  8
CSLAYER1
  6
DASHED
 62
     2
 10
642.660500
 20
1056.103512
 11
641.660500
 21
1055.103512
  0
LINE
  8
CSLAYER1
  6
DASHED
 62
     2
 10
619.660500
 20
1050.386355
 11
624.377658
 21
1055.103512
  0
LINE
  8
CSLAYER1
  6
DASHED
 62
     2
 10
619.660500
 20
1050.669198
 11
624.094815
 21
1055.103512
  0
LINE
  8
CSLAYER1
  6
DASHED
 62
     2
 10
619.660500
 20
1050.952040
 11
623.811972
 21
1055.103512
  0
LINE
  8
CSLAYER1
  6
DASHED
 62
     2
 10
619.660500
 20
1051.234883
 11
623.529129
 21
1055.103512
  0
LINE
  8
CSLAYER1
  6
DASHED
 62
     2
 10
619.660500
 20
1051.517726
 11
623.246287
 21
1055.103512
  0
LINE
  8
CSLAYER1
  6
DASHED
 62
     2
 10
619.660500
 20
1051.800568
 11
622.963444
 21
1055.103512
  0
LINE
  8
CSLAYER1
  6
DASHED
 62
     2
 10
619.660500
 20
1052.083411
 11
622.680601
 21
1055.103512
  0
LINE
  8
CSLAYER1
  6
DASHED
 62
     2
 10
619.660500
 20
1052.366254
 11
622.397759
 21
1055.103512
  0
LINE
  8
CSLAYER1
  6
DASHED
 62
     2
 10
619.660500
 20
1052.649097
 11
622.114916
 21
1055.103512
  0
LINE
  8
CSLAYER1
  6
DASHED
 62
     2
 10
619.660500
 20
1052.931939
 11
621.832073
 21
1055.103512
  0
LINE
  8
CSLAYER1
  6
DASHED
 62
     2
 10
619.660500
 20
1053.214782
 11
621.549230
 21
1055.103512
  0
LINE
  8
CSLAYER1
  6
DASHED
 62
     2
 10
619.660500
 20
1053.497625
 11
621.266388
 21
1055.103512
  0
LINE
  8
CSLAYER1
  6
DASHED
 62
     2
 10
619.660500
 20
1053.780467
 11
620.983545
 21
1055.103512
  0
LINE
  8
CSLAYER1
  6
DASHED
 62
     2
 10
619.660500
 20
1054.063310
 11
620.700702
 21
1055.103512
  0
LINE
  8
CSLAYER1
  6
DASHED
 62
     2
 10
619.660500
 20
1054.346153
 11
620.417860
 21
1055.103512
  0
LINE
  8
CSLAYER1
  6
DASHED
 62
     2
 10
619.660500
 20
1054.628996
 11
620.135017
 21
1055.103512
  0
LINE
  8
CSLAYER1
  6
DASHED
 62
     2
 10
619.660500
 20
1054.911838
 11
619.852174
 21
1055.103512
  0
LINE
  8
CSLAYER1
  6
DASHED
 62
     2
 10
619.660500
 20
1053.780467
 11
619.660500
 21
1055.103512
  0
LINE
  8
CSLAYER1
  6
DASHED
 62
     2
 10
620.700702
 20
1055.103512
 11
619.660500
 21
1055.103512
  0
LINE
  8
CSLAYER1
  6
DASHED
 62
     2
 10
621.852174
 20
1055.103512
 11
641.660500
 21
1055.103512
  0
LINE
  8
CSLAYER1
  6
DASHED
 62
     2
 10
560.660500
 20
1030.669915
 11
603.660500
 21
1030.669915
  0
ENDBLK
  8
0
  0
BLOCK
  8
CSLAYER1
  2
BLKF0002
 70
   64
 10
0.0
 20
0.0
 30
0.0
  0
LINE
  8
CSLAYER1
  6
CONTINUOUS
 62
     3
 10
3526.350319
 20
2641.382824
 11
3526.350319
 21
2703.382824
  0
LINE
  8
CSLAYER1
  6
CONTINUOUS
 62
     3
 10
3528.850319
 20
2638.882824
 11
3613.850319
 21
2638.882824
  0
LINE
  8
CSLAYER1
  6
CENTER
 62
     5
 10
3468.000680
 20
2711.382824
 11
3526.350319
 21
2711.382824
  0
LINE
  8
CSLAYER1
  6
CONTINUOUS
 62
     2
 10
3528.850319
 20
2695.382824
 11
3613.850319
 21
2695.382824
  0
LINE
  8
CSLAYER1
  6
CONTINUOUS
 62
     3
 10
3528.850319
 20
2643.882824
 11
3528.850319
 21
2688.882824
  0
LINE
  8
CSLAYER1
  6
CONTINUOUS
 62
     3
 10
3616.350319
 20
2641.382824
 11
3616.350319
 21
2711.382824
  0
LINE
  8
CSLAYER1
  6
CONTINUOUS
 62
     3
 10
3531.350319
 20
2641.382824
 11
3608.350319
 21
2641.382824
  0
LINE
  8
CSLAYER1
  6
CONTINUOUS
 62
     3
 10
3531.350319
 20
2691.382824
 11
3608.350319
 21
2691.382824
  0
ARC
  8
CSLAYER1
  6
CONTINUOUS
 62
     3
 10
3554.282137
 20
2666.382824
 40
59.568182
 50
-24.814837
 51
24.814837
  0
ARC
  8
CSLAYER1
  6
CONTINUOUS
 62
     3
 10
3531.350319
 20
2643.882824
 40
2.500000
 50
180.000000
 51
270.000000
  0
ARC
  8
CSLAYER1
  6
CONTINUOUS
 62
     3
 10
3531.350319
 20
2688.882824
 40
2.500000
 50
90.000000
 51
180.000000
  0
ARC
  8
CSLAYER1
  6
CONTINUOUS
 62
     3
 10
3528.850319
 20
2641.382824
 40
2.500000
 50
180.000000
 51
270.000000
  0
ARC
  8
CSLAYER1
  6
CONTINUOUS
 62
     3
 10
3613.850319
 20
2641.382824
 40
2.500000
 50
270.000000
 51
360.000000
  0
ARC
  8
CSLAYER1
  6
CONTINUOUS
 62
     2
 10
3613.850319
 20
2697.882824
 40
2.500000
 50
270.000000
 51
360.000000
  0
ARC
  8
CSLAYER1
  6
CONTINUOUS
 62
     2
 10
3528.850319
 20
2697.882824
 40
2.500000
 50
180.000000
 51
270.000000
  0
LINE
  8
CSLAYER1
  6
CONTINUOUS
 62
     3
 10
3526.350319
 20
2781.382824
 11
3526.350319
 21
2719.382824
  0
LINE
  8
CSLAYER1
  6
CONTINUOUS
 62
     3
 10
3528.850319
 20
2783.882824
 11
3613.850319
 21
2783.882824
  0
LINE
  8
CSLAYER1
  6
CONTINUOUS
 62
     2
 10
3528.850319
 20
2727.382824
 11
3613.850319
 21
2727.382824
  0
LINE
  8
CSLAYER1
  6
CONTINUOUS
 62
     3
 10
3616.350319
 20
2781.382824
 11
3616.350319
 21
2711.382824
  0
ARC
  8
CSLAYER1
  6
CONTINUOUS
 62
     3
 10
3528.850319
 20
2781.382824
 40
2.500000
 50
90.000000
 51
180.000000
  0
ARC
  8
CSLAYER1
  6
CONTINUOUS
 62
     3
 10
3613.850319
 20
2781.382824
 40
2.500000
 50
-0.000000
 51
90.000000
  0
ARC
  8
CSLAYER1
  6
CONTINUOUS
 62
     2
 10
3613.850319
 20
2724.882824
 40
2.500000
 50
-0.000000
 51
90.000000
  0
ARC
  8
CSLAYER1
  6
CONTINUOUS
 62
     2
 10
3528.850319
 20
2724.882824
 40
2.500000
 50
90.000000
 51
180.000000
  0
LINE
  8
CSLAYER1
  6
CONTINUOUS
 62
     3
 10
3528.850319
 20
2778.882824
 11
3528.850319
 21
2733.882824
  0
LINE
  8
CSLAYER1
  6
CONTINUOUS
 62
     3
 10
3531.350319
 20
2781.382824
 11
3608.350319
 21
2781.382824
  0
LINE
  8
CSLAYER1
  6
CONTINUOUS
 62
     3
 10
3531.350319
 20
2731.382824
 11
3608.350319
 21
2731.382824
  0
ARC
  8
CSLAYER1
  6
CONTINUOUS
 62
     3
 10
3554.282137
 20
2756.382824
 40
59.568182
 50
-24.814837
 51
24.814837
  0
ARC
  8
CSLAYER1
  6
CONTINUOUS
 62
     3
 10
3531.350319
 20
2778.882824
 40
2.500000
 50
90.000000
 51
180.000000
  0
ARC
  8
CSLAYER1
  6
CONTINUOUS
 62
     3
 10
3531.350319
 20
2733.882824
 40
2.500000
 50
180.000000
 51
270.000000
  0
LINE
  8
CSLAYER1
  6
CONTINUOUS
 62
     3
 10
3519.350319
 20
2718.382824
 11
3519.350319
 21
2714.882824
  0
LINE
  8
CSLAYER1
  6
CONTINUOUS
 62
     3
 10
3468.000680
 20
2714.882824
 11
3519.350319
 21
2714.882824
  0
LINE
  8
CSLAYER1
  6
CONTINUOUS
 62
     3
 10
3520.350319
 20
2719.382824
 11
3526.350319
 21
2719.382824
  0
LINE
  8
CSLAYER1
  6
CONTINUOUS
 62
     3
 10
3520.350319
 20
2703.382824
 11
3526.350319
 21
2703.382824
  0
LINE
  8
CSLAYER1
  6
CONTINUOUS
 62
     3
 10
3468.000680
 20
2707.882824
 11
3519.350319
 21
2707.882824
  0
ARC
  8
CSLAYER1
  6
CONTINUOUS
 62
     3
 10
3520.350319
 20
2704.382824
 40
1.000000
 50
180.000000
 51
270.000000
  0
ARC
  8
CSLAYER1
  6
CONTINUOUS
 62
     3
 10
3520.350319
 20
2718.382824
 40
1.000000
 50
90.000000
 51
180.000000
  0
LINE
  8
CSLAYER1
  6
CONTINUOUS
 62
     3
 10
3519.350319
 20
2707.882824
 11
3519.350319
 21
2704.382824
  0
LINE
  8
CSLAYER1
  6
CONTINUOUS
 62
     2
 10
3519.350319
 20
2714.882824
 11
3519.350319
 21
2707.882824
  0
LINE
  8
CSLAYER1
  6
CONTINUOUS
 62
     2
 10
3526.350319
 20
2703.382824
 11
3526.350319
 21
2711.382824
  0
LINE
  8
CSLAYER1
  6
CONTINUOUS
 62
     2
 10
3526.350319
 20
2719.382824
 11
3526.350319
 21
2711.382824
  0
LINE
  8
CSLAYER1
  6
CONTINUOUS
 62
     2
 10
3545.843330
 20
2699.220165
 11
3536.708330
 21
2699.220165
  0
LINE
  8
CSLAYER1
  6
CONTINUOUS
 62
     2
 10
3545.843330
 20
2722.845165
 11
3536.708330
 21
2722.845165
  0
LINE
  8
CSLAYER1
  6
CONTINUOUS
 62
     2
 10
3535.448330
 20
2700.480165
 11
3535.448330
 21
2721.585165
  0
LINE
  8
CSLAYER1
  6
CONTINUOUS
 62
     2
 10
3547.103330
 20
2700.480165
 11
3547.103330
 21
2721.585165
  0
LINE
  8
CSLAYER1
  6
CONTINUOUS
 62
     2
 10
3545.213330
 20
2720.955165
 11
3537.180830
 21
2720.955165
  0
LINE
  8
CSLAYER1
  6
CONTINUOUS
 62
     2
 10
3545.213330
 20
2717.805165
 11
3544.268330
 21
2717.805165
  0
LINE
  8
CSLAYER1
  6
CONTINUOUS
 62
     2
 10
3545.213330
 20
2709.142665
 11
3544.268330
 21
2709.142665
  0
LINE
  8
CSLAYER1
  6
CONTINUOUS
 62
     2
 10
3545.213330
 20
2704.575165
 11
3540.173330
 21
2704.575165
  0
LINE
  8
CSLAYER1
  6
CONTINUOUS
 62
     2
 10
3546.315830
 20
2705.677665
 11
3546.315830
 21
2708.040165
  0
LINE
  8
CSLAYER1
  6
CONTINUOUS
 62
     2
 10
3539.070830
 20
2705.677665
 11
3539.070830
 21
2708.040165
  0
LINE
  8
CSLAYER1
  6
CONTINUOUS
 62
     2
 10
3536.078330
 20
2718.907665
 11
3536.078330
 21
2719.852665
  0
LINE
  8
CSLAYER1
  6
CONTINUOUS
 62
     2
 10
3543.323330
 20
2710.087665
 11
3543.323330
 21
2716.860165
  0
LINE
  8
CSLAYER1
  6
CONTINUOUS
 62
     2
 10
3542.535830
 20
2710.087665
 11
3542.535830
 21
2716.860165
  0
ARC
  8
CSLAYER1
  6
CONTINUOUS
 62
     2
 10
3545.213330
 20
2705.677665
 40
1.102500
 50
270.000000
 51
360.000000
  0
ARC
  8
CSLAYER1
  6
CONTINUOUS
 62
     2
 10
3540.173330
 20
2705.677665
 40
1.102500
 50
180.000000
 51
270.000000
  0
ARC
  8
CSLAYER1
  6
CONTINUOUS
 62
     2
 10
3540.173330
 20
2708.040165
 40
1.102500
 50
90.000000
 51
180.000000
  0
ARC
  8
CSLAYER1
  6
CONTINUOUS
 62
     2
 10
3545.213330
 20
2708.040165
 40
1.102500
 50
-0.000000
 51
90.000000
  0
ARC
  8
CSLAYER1
  6
CONTINUOUS
 62
     2
 10
3537.180830
 20
2718.907665
 40
1.102500
 50
180.000000
 51
270.000000
  0
ARC
  8
CSLAYER1
  6
CONTINUOUS
 62
     2
 10
3537.180830
 20
2719.852665
 40
1.102500
 50
90.000000
 51
180.000000
  0
ARC
  8
CSLAYER1
  6
CONTINUOUS
 62
     2
 10
3545.213330
 20
2719.852665
 40
1.102500
 50
-0.000000
 51
90.000000
  0
ARC
  8
CSLAYER1
  6
CONTINUOUS
 62
     2
 10
3545.213330
 20
2718.907665
 40
1.102500
 50
270.000000
 51
360.000000
  0
LINE
  8
CSLAYER1
  6
CONTINUOUS
 62
     2
 10
3541.590830
 20
2709.142665
 11
3540.173330
 21
2709.142665
  0
LINE
  8
CSLAYER1
  6
CONTINUOUS
 62
     2
 10
3541.590830
 20
2717.805165
 11
3537.180830
 21
2717.805165
  0
ARC
  8
CSLAYER1
  6
CONTINUOUS
 62
     2
 10
3544.268330
 20
2710.087665
 40
0.945000
 50
180.000000
 51
270.000000
  0
ARC
  8
CSLAYER1
  6
CONTINUOUS
 62
     2
 10
3541.590830
 20
2710.087665
 40
0.945000
 50
270.000000
 51
360.000000
  0
ARC
  8
CSLAYER1
  6
CONTINUOUS
 62
     2
 10
3541.590830
 20
2716.860165
 40
0.945000
 50
-0.000000
 51
90.000000
  0
ARC
  8
CSLAYER1
  6
CONTINUOUS
 62
     2
 10
3545.843330
 20
2700.480165
 40
1.260000
 50
270.000000
 51
360.000000
  0
ARC
  8
CSLAYER1
  6
CONTINUOUS
 62
     2
 10
3536.708330
 20
2700.480165
 40
1.260000
 50
180.000000
 51
270.000000
  0
ARC
  8
CSLAYER1
  6
CONTINUOUS
 62
     2
 10
3536.708330
 20
2721.585165
 40
1.260000
 50
90.000000
 51
180.000000
  0
ARC
  8
CSLAYER1
  6
CONTINUOUS
 62
     2
 10
3545.843330
 20
2721.585165
 40
1.260000
 50
-0.000000
 51
90.000000
  0
ARC
  8
CSLAYER1
  6
CONTINUOUS
 62
     2
 10
3544.268330
 20
2716.860165
 40
0.945000
 50
90.000000
 51
180.000000
  0
LINE
  8
CSLAYER1
  6
CONTINUOUS
 62
     2
 10
3546.315830
 20
2718.907665
 11
3546.315830
 21
2719.852665
  0
CIRCLE
  8
CSLAYER1
  6
CONTINUOUS
 62
     2
 10
3560.850319
 20
2661.382824
 40
2.500000
  0
CIRCLE
  8
CSLAYER1
  6
CONTINUOUS
 62
     2
 10
3560.850319
 20
2651.382824
 40
2.500000
  0
CIRCLE
  8
CSLAYER1
  6
CONTINUOUS
 62
     2
 10
3570.850319
 20
2651.382824
 40
2.500000
  0
CIRCLE
  8
CSLAYER1
  6
CONTINUOUS
 62
     2
 10
3570.850319
 20
2661.382824
 40
2.500000
  0
CIRCLE
  8
CSLAYER1
  6
CONTINUOUS
 62
     2
 10
3580.850319
 20
2661.382824
 40
2.500000
  0
CIRCLE
  8
CSLAYER1
  6
CONTINUOUS
 62
     2
 10
3580.850319
 20
2651.382824
 40
2.500000
  0
CIRCLE
  8
CSLAYER1
  6
CONTINUOUS
 62
     2
 10
3590.850319
 20
2651.382824
 40
2.500000
  0
CIRCLE
  8
CSLAYER1
  6
CONTINUOUS
 62
     2
 10
3590.850319
 20
2661.382824
 40
2.500000
  0
CIRCLE
  8
CSLAYER1
  6
CONTINUOUS
 62
     2
 10
3600.850319
 20
2661.382824
 40
2.500000
  0
CIRCLE
  8
CSLAYER1
  6
CONTINUOUS
 62
     2
 10
3600.850319
 20
2651.382824
 40
2.500000
  0
CIRCLE
  8
CSLAYER1
  6
CONTINUOUS
 62
     2
 10
3560.850319
 20
2671.382824
 40
2.500000
  0
CIRCLE
  8
CSLAYER1
  6
CONTINUOUS
 62
     2
 10
3560.850319
 20
2681.382824
 40
2.500000
  0
CIRCLE
  8
CSLAYER1
  6
CONTINUOUS
 62
     2
 10
3570.850319
 20
2681.382824
 40
2.500000
  0
CIRCLE
  8
CSLAYER1
  6
CONTINUOUS
 62
     2
 10
3570.850319
 20
2671.382824
 40
2.500000
  0
CIRCLE
  8
CSLAYER1
  6
CONTINUOUS
 62
     2
 10
3580.850319
 20
2671.382824
 40
2.500000
  0
CIRCLE
  8
CSLAYER1
  6
CONTINUOUS
 62
     2
 10
3580.850319
 20
2681.382824
 40
2.500000
  0
CIRCLE
  8
CSLAYER1
  6
CONTINUOUS
 62
     2
 10
3590.850319
 20
2681.382824
 40
2.500000
  0
CIRCLE
  8
CSLAYER1
  6
CONTINUOUS
 62
     2
 10
3590.850319
 20
2671.382824
 40
2.500000
  0
CIRCLE
  8
CSLAYER1
  6
CONTINUOUS
 62
     2
 10
3600.850319
 20
2671.382824
 40
2.500000
  0
CIRCLE
  8
CSLAYER1
  6
CONTINUOUS
 62
     2
 10
3600.850319
 20
2681.382824
 40
2.500000
  0
CIRCLE
  8
CSLAYER1
  6
CONTINUOUS
 62
     2
 10
3560.850319
 20
2761.382824
 40
2.500000
  0
CIRCLE
  8
CSLAYER1
  6
CONTINUOUS
 62
     2
 10
3560.850319
 20
2771.382824
 40
2.500000
  0
CIRCLE
  8
CSLAYER1
  6
CONTINUOUS
 62
     2
 10
3570.850319
 20
2771.382824
 40
2.500000
  0
CIRCLE
  8
CSLAYER1
  6
CONTINUOUS
 62
     2
 10
3570.850319
 20
2761.382824
 40
2.500000
  0
CIRCLE
  8
CSLAYER1
  6
CONTINUOUS
 62
     2
 10
3580.850319
 20
2761.382824
 40
2.500000
  0
CIRCLE
  8
CSLAYER1
  6
CONTINUOUS
 62
     2
 10
3580.850319
 20
2771.382824
 40
2.500000
  0
CIRCLE
  8
CSLAYER1
  6
CONTINUOUS
 62
     2
 10
3590.850319
 20
2771.382824
 40
2.500000
  0
CIRCLE
  8
CSLAYER1
  6
CONTINUOUS
 62
     2
 10
3590.850319
 20
2761.382824
 40
2.500000
  0
CIRCLE
  8
CSLAYER1
  6
CONTINUOUS
 62
     2
 10
3600.850319
 20
2761.382824
 40
2.500000
  0
CIRCLE
  8
CSLAYER1
  6
CONTINUOUS
 62
     2
 10
3600.850319
 20
2771.382824
 40
2.500000
  0
CIRCLE
  8
CSLAYER1
  6
CONTINUOUS
 62
     2
 10
3560.850319
 20
2751.382824
 40
2.500000
  0
CIRCLE
  8
CSLAYER1
  6
CONTINUOUS
 62
     2
 10
3560.850319
 20
2741.382824
 40
2.500000
  0
CIRCLE
  8
CSLAYER1
  6
CONTINUOUS
 62
     2
 10
3570.850319
 20
2741.382824
 40
2.500000
  0
CIRCLE
  8
CSLAYER1
  6
CONTINUOUS
 62
     2
 10
3570.850319
 20
2751.382824
 40
2.500000
  0
CIRCLE
  8
CSLAYER1
  6
CONTINUOUS
 62
     2
 10
3580.850319
 20
2751.382824
 40
2.500000
  0
CIRCLE
  8
CSLAYER1
  6
CONTINUOUS
 62
     2
 10
3580.850319
 20
2741.382824
 40
2.500000
  0
CIRCLE
  8
CSLAYER1
  6
CONTINUOUS
 62
     2
 10
3590.850319
 20
2741.382824
 40
2.500000
  0
CIRCLE
  8
CSLAYER1
  6
CONTINUOUS
 62
     2
 10
3590.850319
 20
2751.382824
 40
2.500000
  0
CIRCLE
  8
CSLAYER1
  6
CONTINUOUS
 62
     2
 10
3600.850319
 20
2751.382824
 40
2.500000
  0
CIRCLE
  8
CSLAYER1
  6
CONTINUOUS
 62
     2
 10
3600.850319
 20
2741.382824
 40
2.500000
  0
LINE
  8
CSLAYER1
  6
CONTINUOUS
 62
     2
 10
3534.850319
 20
2738.882824
 11
3534.850319
 21
2773.882824
  0
LINE
  8
CSLAYER1
  6
CONTINUOUS
 62
     2
 10
3550.850319
 20
2738.882824
 11
3550.850319
 21
2773.882824
  0
LINE
  8
CSLAYER1
  6
CONTINUOUS
 62
     2
 10
3536.350319
 20
2737.382824
 11
3549.350319
 21
2737.382824
  0
LINE
  8
CSLAYER1
  6
CONTINUOUS
 62
     2
 10
3535.850319
 20
2738.882824
 11
3535.850319
 21
2773.882824
  0
LINE
  8
CSLAYER1
  6
CONTINUOUS
 62
     2
 10
3549.850319
 20
2738.882824
 11
3549.850319
 21
2773.882824
  0
LINE
  8
CSLAYER1
  6
CONTINUOUS
 62
     2
 10
3536.350319
 20
2738.382824
 11
3549.350319
 21
2738.382824
  0
LINE
  8
CSLAYER1
  6
CONTINUOUS
 62
     2
 10
3536.350319
 20
2775.382824
 11
3549.350319
 21
2775.382824
  0
LINE
  8
CSLAYER1
  6
CONTINUOUS
 62
     2
 10
3536.350319
 20
2774.382824
 11
3549.350319
 21
2774.382824
  0
ARC
  8
CSLAYER1
  6
CONTINUOUS
 62
     2
 10
3536.350319
 20
2738.882824
 40
0.500000
 50
180.000000
 51
270.000000
  0
ARC
  8
CSLAYER1
  6
CONTINUOUS
 62
     2
 10
3549.350319
 20
2738.882824
 40
0.500000
 50
270.000000
 51
360.000000
  0
ARC
  8
CSLAYER1
  6
CONTINUOUS
 62
     2
 10
3536.350319
 20
2773.882824
 40
0.500000
 50
90.000000
 51
180.000000
  0
ARC
  8
CSLAYER1
  6
CONTINUOUS
 62
     2
 10
3549.350319
 20
2773.882824
 40
0.500000
 50
-0.000000
 51
90.000000
  0
ARC
  8
CSLAYER1
  6
CONTINUOUS
 62
     2
 10
3536.350319
 20
2738.882824
 40
1.500000
 50
180.000000
 51
270.000000
  0
ARC
  8
CSLAYER1
  6
CONTINUOUS
 62
     2
 10
3549.350319
 20
2738.882824
 40
1.500000
 50
270.000000
 51
360.000000
  0
ARC
  8
CSLAYER1
  6
CONTINUOUS
 62
     2
 10
3536.350319
 20
2773.882824
 40
1.500000
 50
90.000000
 51
180.000000
  0
ARC
  8
CSLAYER1
  6
CONTINUOUS
 62
     2
 10
3549.350319
 20
2773.882824
 40
1.500000
 50
-0.000000
 51
90.000000
  0
LINE
  8
CSLAYER1
  6
CONTINUOUS
 62
     2
 10
3539.850319
 20
2747.382824
 11
3539.850319
 21
2765.382824
  0
LINE
  8
CSLAYER1
  6
CONTINUOUS
 62
     2
 10
3536.772247
 20
2756.382824
 11
3539.850319
 21
2765.382824
  0
LINE
  8
CSLAYER1
  6
CONTINUOUS
 62
     2
 10
3536.772247
 20
2756.382824
 11
3539.850319
 21
2747.382824
  0
TEXT
  8
CSLAYER1
 62
     2
 10
3548.144113
 20
2747.402901
 40
7.066058
 41
1.574983
  1
UP
 50
90.000000
 51
0.000000
  7
EASYDRAW_FONT
 72
     5
 11
3548.144113
 21
2765.951103
  0
LINE
  8
CSLAYER1
  6
CONTINUOUS
 62
     2
 10
3534.850319
 20
2683.882824
 11
3534.850319
 21
2648.882824
  0
LINE
  8
CSLAYER1
  6
CONTINUOUS
 62
     2
 10
3550.850319
 20
2683.882824
 11
3550.850319
 21
2648.882824
  0
LINE
  8
CSLAYER1
  6
CONTINUOUS
 62
     2
 10
3536.350319
 20
2685.382824
 11
3549.350319
 21
2685.382824
  0
LINE
  8
CSLAYER1
  6
CONTINUOUS
 62
     2
 10
3535.850319
 20
2683.882824
 11
3535.850319
 21
2648.882824
  0
LINE
  8
CSLAYER1
  6
CONTINUOUS
 62
     2
 10
3549.850319
 20
2683.882824
 11
3549.850319
 21
2648.882824
  0
LINE
  8
CSLAYER1
  6
CONTINUOUS
 62
     2
 10
3536.350319
 20
2684.382824
 11
3549.350319
 21
2684.382824
  0
LINE
  8
CSLAYER1
  6
CONTINUOUS
 62
     2
 10
3536.350319
 20
2647.382824
 11
3549.350319
 21
2647.382824
  0
LINE
  8
CSLAYER1
  6
CONTINUOUS
 62
     2
 10
3536.350319
 20
2648.382824
 11
3549.350319
 21
2648.382824
  0
ARC
  8
CSLAYER1
  6
CONTINUOUS
 62
     2
 10
3536.350319
 20
2683.882824
 40
0.500000
 50
90.000000
 51
180.000000
  0
ARC
  8
CSLAYER1
  6
CONTINUOUS
 62
     2
 10
3549.350319
 20
2683.882824
 40
0.500000
 50
-0.000000
 51
90.000000
  0
ARC
  8
CSLAYER1
  6
CONTINUOUS
 62
     2
 10
3536.350319
 20
2648.882824
 40
0.500000
 50
180.000000
 51
270.000000
  0
ARC
  8
CSLAYER1
  6
CONTINUOUS
 62
     2
 10
3549.350319
 20
2648.882824
 40
0.500000
 50
270.000000
 51
360.000000
  0
ARC
  8
CSLAYER1
  6
CONTINUOUS
 62
     2
 10
3536.350319
 20
2683.882824
 40
1.500000
 50
90.000000
 51
180.000000
  0
ARC
  8
CSLAYER1
  6
CONTINUOUS
 62
     2
 10
3549.350319
 20
2683.882824
 40
1.500000
 50
-0.000000
 51
90.000000
  0
ARC
  8
CSLAYER1
  6
CONTINUOUS
 62
     2
 10
3536.350319
 20
2648.882824
 40
1.500000
 50
180.000000
 51
270.000000
  0
ARC
  8
CSLAYER1
  6
CONTINUOUS
 62
     2
 10
3549.350319
 20
2648.882824
 40
1.500000
 50
270.000000
 51
360.000000
  0
LINE
  8
CSLAYER1
  6
CONTINUOUS
 62
     2
 10
3545.323249
 20
2675.382824
 11
3545.323249
 21
2657.382824
  0
LINE
  8
CSLAYER1
  6
CONTINUOUS
 62
     2
 10
3548.401321
 20
2666.382824
 11
3545.323249
 21
2657.382824
  0
LINE
  8
CSLAYER1
  6
CONTINUOUS
 62
     2
 10
3548.401321
 20
2666.382824
 11
3545.323249
 21
2675.382824
  0
TEXT
  8
CSLAYER1
 62
     2
 10
3543.713272
 20
2651.685088
 40
6.383575
 41
1.255870
  1
DOWN
 50
90.000000
 51
0.000000
  7
EASYDRAW_FONT
 72
     5
 11
3543.713272
 21
2681.080537
  0
ENDBLK
  8
0
  0
ENDSEC
  0
SECTION
  2
ENTITIES
  0
LINE
  8
CSLAYER1
  6
CONTINUOUS
 62
     3
 10
180.707488
 20
3599.850540
 11
180.707488
 21
75.393795
  0
LINE
  8
CSLAYER1
  6
CONTINUOUS
 62
     3
 10
5161.512127
 20
3599.850540
 11
180.707488
 21
3599.850540
  0
LINE
  8
CSLAYER1
  6
CONTINUOUS
 62
     3
 10
5161.512127
 20
75.393795
 11
180.707488
 21
75.393795
  0
LINE
  8
CSLAYER1
  6
CONTINUOUS
 62
     3
 10
5161.512127
 20
75.393795
 11
5161.512127
 21
3599.850540
  0
LINE
  8
CSLAYER1
  6
CONTINUOUS
 62
     5
 10
105.707488
 20
1815.393795
 11
30.707488
 21
1815.393795
  0
LINE
  8
CSLAYER1
  6
CONTINUOUS
 62
     5
 10
3961.512127
 20
735.393795
 11
5161.512127
 21
735.393795
  0
LINE
  8
CSLAYER1
  6
CONTINUOUS
 62
     5
 10
3961.512127
 20
195.393795
 11
5161.512127
 21
195.393795
  0
LINE
  8
CSLAYER1
  6
CONTINUOUS
 62
     5
 10
3961.512127
 20
435.393795
 11
5161.512127
 21
435.393795
  0
LINE
  8
CSLAYER1
  6
CONTINUOUS
 62
     5
 10
3961.512127
 20
525.393795
 11
5161.512127
 21
525.393795
  0
LINE
  8
CSLAYER1
  6
CONTINUOUS
 62
     5
 10
3961.512127
 20
615.393795
 11
5161.512127
 21
615.393795
  0
LINE
  8
CSLAYER1
  6
CONTINUOUS
 62
     5
 10
3961.512127
 20
855.393795
 11
5161.512127
 21
855.393795
  0
LINE
  8
CSLAYER1
  6
CONTINUOUS
 62
     5
 10
3961.512127
 20
975.393795
 11
3961.512127
 21
75.393795
  0
LINE
  8
CSLAYER1
  6
CONTINUOUS
 62
     5
 10
4261.512127
 20
975.393795
 11
4261.512127
 21
615.393795
  0
LINE
  8
CSLAYER1
  6
CONTINUOUS
 62
     5
 10
3961.512127
 20
975.393795
 11
5161.512127
 21
975.393795
  0
LINE
  8
CSLAYER1
  6
CONTINUOUS
 62
     5
 10
4711.512127
 20
615.393795
 11
4711.512127
 21
195.393795
  0
TEXT
  8
CSLAYER1
 62
     3
 10
4291.048678
 20
88.237877
 40
89.070541
 41
1.003345
  1
東正車輌株式会社
 50
0.000000
 51
0.000000
  7
EASYDRAW_FONT
 72
     5
 11
4976.207181
 21
88.237877
  0
LINE
  8
CSLAYER1
  6
CONTINUOUS
 62
     5
 10
4336.512127
 20
525.393795
 11
4336.512127
 21
195.393795
  0
TEXT
  8
CSLAYER1
 62
     5
 10
4006.511719
 20
877.893738
 40
75.000000
 41
1.050000
  1
品　名
 50
0.000000
 51
0.000000
  7
EASYDRAW_FONT
 72
     5
 11
4216.511719
 21
877.893738
  0
TEXT
  8
CSLAYER1
 62
     5
 10
4006.511719
 20
757.893738
 40
75.000000
 41
1.050000
  1
型　式
 50
0.000000
 51
0.000000
  7
EASYDRAW_FONT
 72
     5
 11
4216.511719
 21
757.893738
  0
TEXT
  8
CSLAYER1
 62
     5
 10
3969.011719
 20
637.893799
 40
75.000000
 41
1.036364
  1
図面番号
 50
0.000000
 51
0.000000
  7
EASYDRAW_FONT
 72
     5
 11
4254.011719
 21
637.893799
  0
TEXT
  8
CSLAYER1
 62
     5
 10
4036.511719
 20
532.893799
 40
75.000000
 41
0.827586
  1
平成２８年４月１６日
 50
0.000000
 51
0.000000
  7
EASYDRAW_FONT
 72
     5
 11
4636.511719
 21
532.893799
  0
TEXT
  8
CSLAYER1
 62
     5
 10
4831.511719
 20
532.893799
 40
75.000000
 41
1.050000
  1
Ｂ－４
 50
0.000000
 51
0.000000
  7
EASYDRAW_FONT
 72
     5
 11
5041.511719
 21
532.893799
  0
TEXT
  8
CSLAYER1
 62
     5
 10
4044.011719
 20
442.893799
 40
75.000000
 41
1.050000
  1
検　図
 50
0.000000
 51
0.000000
  7
EASYDRAW_FONT
 72
     5
 11
4254.011719
 21
442.893799
  0
TEXT
  8
CSLAYER1
 62
     5
 10
4419.011719
 20
442.893799
 40
75.000000
 41
1.050000
  1
作　図
 50
0.000000
 51
0.000000
  7
EASYDRAW_FONT
 72
     5
 11
4629.011719
 21
442.893799
  0
TEXT
  8
CSLAYER1
 62
     5
 10
4831.511719
 20
442.893799
 40
75.000000
 41
1.050000
  1
尺　度
 50
0.000000
 51
0.000000
  7
EASYDRAW_FONT
 72
     5
 11
5041.511719
 21
442.893799
  0
TEXT
  8
CSLAYER1
 62
     5
 10
4982.620117
 20
217.121689
 40
75.000000
 41
1.080000
  1
１５
 50
0.000000
 51
0.000000
  7
EASYDRAW_FONT
 72
     5
 11
5117.620117
 21
217.121689
  0
TEXT
  8
CSLAYER1
 62
     5
 10
4952.140625
 20
288.678741
 40
75.000000
 41
1.200000
  1
／
 50
0.000000
 51
0.000000
  7
EASYDRAW_FONT
 72
     5
 11
5012.140625
 21
288.678741
  0
TEXT
  8
CSLAYER1
 62
     5
 10
4906.821289
 20
341.153900
 40
75.000000
 41
1.200000
  1
１
 50
0.000000
 51
0.000000
  7
EASYDRAW_FONT
 72
     5
 11
4966.821289
 21
341.153900
  0
TEXT
  8
CSLAYER1
 62
     3
 10
4471.511719
 20
877.893738
 40
75.000000
 41
0.834783
  1
ゴールドリフター
 50
0.000000
 51
0.000000
  7
EASYDRAW_FONT
 72
     5
 11
4951.511719
 21
877.893738
  0
TEXT
  8
CSLAYER1
 62
     3
 10
4291.511719
 20
757.893738
 40
75.000000
 41
0.819512
  1
ＧＬＩ－１０００－０７１３Ｊ
 50
0.000000
 51
0.000000
  7
EASYDRAW_FONT
 72
     5
 11
5131.511719
 21
757.893738
  0
TEXT
  8
CSLAYER1
 62
     3
 10
4561.511719
 20
637.893799
 40
75.000000
 41
0.857143
  1
GI-39
 50
0.000000
 51
0.000000
  7
EASYDRAW_FONT
 72
     5
 11
4861.511719
 21
637.893799
  0
INSERT
  8
CSLAYER1
  2
BLKF0000
 10
0.0
 20
0.0
 30
0.0
  0
LINE
  8
CSLAYER1
  6
CONTINUOUS
 62
     5
 10
1883.066264
 20
1474.455253
 11
1921.066264
 21
1474.455253
  0
LINE
  8
CSLAYER1
  6
CONTINUOUS
 62
     5
 10
1901.066264
 20
1491.226953
 11
1901.066264
 21
1455.455253
  0
LINE
  8
CSLAYER1
  6
CONTINUOUS
 62
     4
 10
1793.066264
 20
1620.655253
 11
3143.066264
 21
1620.655253
  0
LINE
  8
CSLAYER1
  6
CONTINUOUS
 62
     3
 10
1859.066264
 20
707.751774
 11
1859.066264
 21
648.751774
  0
LINE
  8
CSLAYER1
  6
CONTINUOUS
 62
     3
 10
3059.066264
 20
707.751774
 11
3059.066264
 21
648.751774
  0
LINE
  8
CSLAYER1
  6
CONTINUOUS
 62
     5
 10
1881.066264
 20
675.751774
 11
1921.066264
 21
675.751774
  0
LINE
  8
CSLAYER1
  6
CONTINUOUS
 62
     5
 10
1901.066264
 20
695.751774
 11
1901.066264
 21
655.751774
  0
LINE
  8
CSLAYER1
  6
CONTINUOUS
 62
     5
 10
2242.341144
 20
1075.103512
 11
2347.796827
 21
1075.103512
  0
LINE
  8
CSLAYER1
  6
CONTINUOUS
 62
     5
 10
2293.645162
 20
1119.052434
 11
2293.645162
 21
1022.622295
  0
LINE
  8
CSLAYER1
  6
CONTINUOUS
 62
     5
 10
2065.519713
 20
953.146073
 11
2113.719713
 21
953.146073
  0
LINE
  8
CSLAYER1
  6
CONTINUOUS
 62
     5
 10
2089.619713
 20
977.246073
 11
2089.619713
 21
929.046073
  0
LINE
  8
CSLAYER1
  6
CONTINUOUS
 62
     5
 10
2686.224052
 20
695.751774
 11
2686.224052
 21
655.751774
  0
LINE
  8
CSLAYER1
  6
CONTINUOUS
 62
     5
 10
2666.224052
 20
675.751774
 11
2706.224052
 21
675.751774
  0
TEXT
  8
CSLAYER1
 62
     5
 10
3414.704590
 20
2133.936279
 40
60.000000
 41
1.020000
  1
ＵＰ・ＤＯＷＮ
 50
360.000000
 51
0.000000
  7
EASYDRAW_FONT
 72
     5
 11
3822.704590
 21
2133.936279
  0
TEXT
  8
CSLAYER1
 62
     5
 10
3421.048096
 20
2211.870850
 40
60.000000
 41
1.020000
  1
フットスイッチ
 50
360.000000
 51
0.000000
  7
EASYDRAW_FONT
 72
     5
 11
3829.048096
 21
2211.870850
  0
TEXT
  8
CSLAYER1
 62
     5
 10
3738.709961
 20
3237.781006
 40
60.000000
 41
1.028571
  1
電源コード
 50
360.000000
 51
0.000000
  7
EASYDRAW_FONT
 72
     5
 11
4026.709961
 21
3237.781006
  0
TEXT
  8
CSLAYER1
 62
     5
 10
3760.750000
 20
3160.629639
 40
60.000000
 41
1.036364
  1
長サ４ｍ
 50
360.000000
 51
0.000000
  7
EASYDRAW_FONT
 72
     5
 11
3988.750000
 21
3160.629639
  0
LINE
  8
CSLAYER1
  6
PHANTOM
 62
     5
 10
3143.066264
 20
878.751774
 11
3143.066264
 21
825.751774
  0
LINE
  8
CSLAYER1
  6
PHANTOM
 62
     5
 10
1793.066264
 20
878.751774
 11
3143.066264
 21
878.751774
  0
LINE
  8
CSLAYER1
  6
PHANTOM
 62
     5
 10
1793.066264
 20
825.751774
 11
3143.066264
 21
825.751774
  0
LINE
  8
CSLAYER1
  6
PHANTOM
 62
     5
 10
1793.066264
 20
878.751774
 11
1793.066264
 21
825.751774
  0
LINE
  8
CSLAYER1
  6
PHANTOM
 62
     5
 10
3055.866264
 20
728.551774
 11
3055.866264
 21
825.751774
  0
LINE
  8
CSLAYER1
  6
PHANTOM
 62
     5
 10
3043.866264
 20
713.751774
 11
3043.866264
 21
825.751774
  0
LINE
  8
CSLAYER1
  6
PHANTOM
 62
     5
 10
2018.866264
 20
725.551774
 11
3052.866264
 21
725.551774
  0
LINE
  8
CSLAYER1
  6
PHANTOM
 62
     5
 10
1943.866264
 20
800.551774
 11
2018.866264
 21
725.551774
  0
LINE
  8
CSLAYER1
  6
CONTINUOUS
 62
     3
 10
276.924296
 20
648.751774
 11
3722.973891
 21
648.751774
  0
LINE
  8
CSLAYER1
  6
CONTINUOUS
 62
     4
 10
1076.660500
 20
713.751774
 11
1076.660500
 21
648.751774
  0
LINE
  8
CSLAYER1
  6
CENTER
 62
     5
 10
901.660500
 20
1563.877362
 11
901.660500
 21
937.578951
  0
LINE
  8
CSLAYER1
  6
CONTINUOUS
 62
     5
 10
901.660500
 20
953.146073
 11
974.211453
 21
953.146073
  0
LINE
  8
CSLAYER1
  6
CENTER
 62
     5
 10
776.660500
 20
1727.759991
 11
776.660500
 21
615.087931
  0
LINE
  8
CSLAYER1
  6
CENTER
 62
     5
 10
1052.415699
 20
1075.103512
 11
860.624810
 21
1075.103512
  0
LINE
  8
CSLAYER1
  6
CONTINUOUS
 62
     4
 10
1141.660500
 20
713.751774
 11
411.660500
 21
713.751774
  0
LINE
  8
CSLAYER1
  6
CENTER
 62
     5
 10
651.660500
 20
1563.877362
 11
651.660500
 21
937.578951
  0
LINE
  8
CSLAYER1
  6
CONTINUOUS
 62
     5
 10
651.660500
 20
953.146073
 11
584.102232
 21
953.146073
  0
LINE
  8
CSLAYER1
  6
CENTER
 62
     5
 10
776.660500
 20
1544.891288
 11
585.098716
 21
1544.891288
  0
LINE
  8
CSLAYER1
  6
CONTINUOUS
 62
     4
 10
1151.660500
 20
1620.655253
 11
401.660500
 21
1620.655253
  0
LINE
  8
CSLAYER1
  6
CONTINUOUS
 62
     4
 10
1151.660500
 20
1673.655253
 11
401.660500
 21
1673.655253
  0
LINE
  8
CSLAYER1
  6
CENTER
 62
     5
 10
1755.654320
 20
2690.669582
 11
3177.048873
 21
2690.669582
  0
LINE
  8
CSLAYER1
  6
CONTINUOUS
 62
     5
 10
2655.224055
 20
1474.455252
 11
2717.224055
 21
1474.455252
  0
LINE
  8
CSLAYER1
  6
CONTINUOUS
 62
     5
 10
2686.224055
 20
1505.455250
 11
2686.224055
 21
1443.455250
  0
LINE
  8
CSLAYER1
  6
CENTER
 62
     5
 10
507.275756
 20
1075.103512
 11
686.282623
 21
1075.103512
  0
LINE
  8
CSLAYER1
  6
CONTINUOUS
 62
     5
 10
5074.979102
 20
3078.192722
 11
3993.670326
 21
3078.192722
  0
LINE
  8
CSLAYER1
  6
CONTINUOUS
 62
     5
 10
5074.979102
 20
2982.192724
 11
3993.670326
 21
2982.192724
  0
LINE
  8
CSLAYER1
  6
CONTINUOUS
 62
     5
 10
5074.979102
 20
2886.192727
 11
3993.670326
 21
2886.192727
  0
LINE
  8
CSLAYER1
  6
CONTINUOUS
 62
     5
 10
5074.979102
 20
2790.192729
 11
3994.979129
 21
2790.192729
  0
LINE
  8
CSLAYER1
  6
CONTINUOUS
 62
     5
 10
5074.979102
 20
2694.192731
 11
3993.670326
 21
2694.192731
  0
LINE
  8
CSLAYER1
  6
CONTINUOUS
 62
     5
 10
5074.979102
 20
2598.192734
 11
3993.670326
 21
2598.192734
  0
LINE
  8
CSLAYER1
  6
CONTINUOUS
 62
     5
 10
5074.979102
 20
2502.192736
 11
3993.670326
 21
2502.192736
  0
LINE
  8
CSLAYER1
  6
CONTINUOUS
 62
     5
 10
5074.979102
 20
2406.192739
 11
3993.670326
 21
2406.192739
  0
LINE
  8
CSLAYER1
  6
CONTINUOUS
 62
     5
 10
5074.979102
 20
2310.192741
 11
3993.670326
 21
2310.192741
  0
TEXT
  8
CSLAYER1
 62
     5
 10
4287.255859
 20
3197.921143
 40
60.000000
 41
0.857143
  1
仕   様
 50
0.000000
 51
0.000000
  7
EASYDRAW_FONT
 72
     5
 11
4527.255859
 21
3197.921143
  0
TEXT
  8
CSLAYER1
 62
     5
 10
4009.809570
 20
3090.527100
 40
60.000000
 41
0.847059
  1
型    式
 50
0.000000
 51
0.000000
  7
EASYDRAW_FONT
 72
     5
 11
4297.809570
 21
3090.527100
  0
TEXT
  8
CSLAYER1
 62
     5
 10
4007.080566
 20
2906.792236
 40
60.000000
 41
0.847059
  1
テーブル寸法
 50
0.000000
 51
0.000000
  7
EASYDRAW_FONT
 72
     5
 11
4295.080566
 21
2906.792236
  0
TEXT
  8
CSLAYER1
 62
     5
 10
4009.809570
 20
2812.196533
 40
60.000000
 41
0.847059
  1
テーブル高サ
 50
0.000000
 51
0.000000
  7
EASYDRAW_FONT
 72
     5
 11
4297.809570
 21
2812.196533
  0
TEXT
  8
CSLAYER1
 62
     5
 10
4011.979492
 20
2714.872314
 40
60.000000
 41
0.857143
  1
ストローク
 50
0.000000
 51
0.000000
  7
EASYDRAW_FONT
 72
     5
 11
4251.979492
 21
2714.872314
  0
TEXT
  8
CSLAYER1
 62
     5
 10
4011.070801
 20
2617.548096
 40
60.000000
 41
0.857143
  1
全   長
 50
0.000000
 51
0.000000
  7
EASYDRAW_FONT
 72
     5
 11
4251.070801
 21
2617.548096
  0
TEXT
  8
CSLAYER1
 62
     5
 10
4014.477051
 20
2518.772217
 40
60.000000
 41
0.857143
  1
全   巾
 50
0.000000
 51
0.000000
  7
EASYDRAW_FONT
 72
     5
 11
4254.477051
 21
2518.772217
  0
TEXT
  8
CSLAYER1
 62
     5
 10
4012.140625
 20
2422.944092
 40
60.000000
 41
0.857143
  1
全   高
 50
0.000000
 51
0.000000
  7
EASYDRAW_FONT
 72
     5
 11
4252.140625
 21
2422.944092
  0
TEXT
  8
CSLAYER1
 62
     5
 10
4012.140625
 20
2329.454346
 40
60.000000
 41
0.857143
  1
リフト方式
 50
0.000000
 51
0.000000
  7
EASYDRAW_FONT
 72
     5
 11
4252.140625
 21
2329.454346
  0
TEXT
  8
CSLAYER1
 62
     5
 10
4969.178223
 20
2992.780029
 40
60.000000
 41
0.960000
  1
Ｋｇ
 50
0.000000
 51
0.000000
  7
EASYDRAW_FONT
 72
     5
 11
5065.178223
 21
2992.780029
  0
TEXT
  8
CSLAYER1
 62
     5
 10
4432.312500
 20
2326.738525
 40
60.000000
 41
0.834783
  1
電動ボールネジ式
 50
0.000000
 51
0.000000
  7
EASYDRAW_FONT
 72
     5
 11
4816.312500
 21
2326.738525
  0
TEXT
  8
CSLAYER1
 62
     5
 10
4965.406738
 20
2896.624756
 40
60.000000
 41
0.960000
  1
mm
 50
0.000000
 51
0.000000
  7
EASYDRAW_FONT
 72
     5
 11
5061.406738
 21
2896.624756
  0
TEXT
  8
CSLAYER1
 62
     5
 10
4965.406738
 20
2806.125244
 40
60.000000
 41
0.960000
  1
mm
 50
0.000000
 51
0.000000
  7
EASYDRAW_FONT
 72
     5
 11
5061.406738
 21
2806.125244
  0
TEXT
  8
CSLAYER1
 62
     5
 10
4959.750977
 20
2709.969482
 40
60.000000
 41
0.960000
  1
mm
 50
0.000000
 51
0.000000
  7
EASYDRAW_FONT
 72
     5
 11
5055.750977
 21
2709.969482
  0
TEXT
  8
CSLAYER1
 62
     5
 10
4959.750977
 20
2608.156982
 40
60.000000
 41
0.960000
  1
mm
 50
0.000000
 51
0.000000
  7
EASYDRAW_FONT
 72
     5
 11
5055.750977
 21
2608.156982
  0
TEXT
  8
CSLAYER1
 62
     5
 10
4955.980469
 20
2517.657471
 40
60.000000
 41
0.960000
  1
mm
 50
0.000000
 51
0.000000
  7
EASYDRAW_FONT
 72
     5
 11
5051.980469
 21
2517.657471
  0
TEXT
  8
CSLAYER1
 62
     5
 10
4955.980469
 20
2421.500732
 40
60.000000
 41
0.960000
  1
mm
 50
0.000000
 51
0.000000
  7
EASYDRAW_FONT
 72
     5
 11
5051.980469
 21
2421.500732
  0
LINE
  8
CSLAYER1
  6
CONTINUOUS
 62
     5
 10
4569.335733
 20
3174.192719
 11
4256.756775
 21
3174.192719
  0
LINE
  8
CSLAYER1
  6
CONTINUOUS
 62
     5
 10
4569.335733
 20
3186.192719
 11
4256.756775
 21
3186.192719
  0
TEXT
  8
CSLAYER1
 62
     5
 10
4699.311523
 20
2999.792725
 40
60.000000
 41
0.872727
  1
１０００
 50
0.000000
 51
0.000000
  7
EASYDRAW_FONT
 72
     5
 11
4891.311523
 21
2999.792725
  0
TEXT
  8
CSLAYER1
 62
     5
 10
4432.270508
 20
2903.939697
 40
60.000000
 41
0.827586
  1
１３５０Ｌ×７５０Ｗ
 50
0.000000
 51
0.000000
  7
EASYDRAW_FONT
 72
     5
 11
4912.270508
 21
2903.939697
  0
TEXT
  8
CSLAYER1
 62
     5
 10
4506.065430
 20
2808.581299
 40
60.000000
 41
0.834783
  1
２３０～１０１０
 50
0.000000
 51
0.000000
  7
EASYDRAW_FONT
 72
     5
 11
4890.065430
 21
2808.581299
  0
TEXT
  8
CSLAYER1
 62
     5
 10
4735.969238
 20
2710.288330
 40
60.000000
 41
0.900000
  1
７８０
 50
0.000000
 51
0.000000
  7
EASYDRAW_FONT
 72
     5
 11
4879.969238
 21
2710.288330
  0
TEXT
  8
CSLAYER1
 62
     5
 10
4688.599121
 20
2616.079834
 40
60.000000
 41
0.872727
  1
１３５０
 50
0.000000
 51
0.000000
  7
EASYDRAW_FONT
 72
     5
 11
4880.599121
 21
2616.079834
  0
TEXT
  8
CSLAYER1
 62
     5
 10
4730.856934
 20
2518.950439
 40
60.000000
 41
0.900000
  1
７５０
 50
0.000000
 51
0.000000
  7
EASYDRAW_FONT
 72
     5
 11
4874.856934
 21
2518.950439
  0
TEXT
  8
CSLAYER1
 62
     5
 10
4730.126465
 20
2421.820068
 40
60.000000
 41
0.900000
  1
２３０
 50
0.000000
 51
0.000000
  7
EASYDRAW_FONT
 72
     5
 11
4874.126465
 21
2421.820068
  0
LINE
  8
CSLAYER1
  6
CONTINUOUS
 62
     4
 10
1803.066264
 20
713.751774
 11
1803.066264
 21
707.751774
  0
LINE
  8
CSLAYER1
  6
CONTINUOUS
 62
     4
 10
1803.066264
 20
713.751774
 11
3133.066264
 21
713.751774
  0
LINE
  8
CSLAYER1
  6
CONTINUOUS
 62
     4
 10
1803.066264
 20
707.751774
 11
3133.066264
 21
707.751774
  0
LINE
  8
CSLAYER1
  6
CONTINUOUS
 62
     5
 10
1843.066264
 20
719.547756
 11
1843.066264
 21
701.543127
  0
LINE
  8
CSLAYER1
  6
CONTINUOUS
 62
     4
 10
3133.066264
 20
713.751774
 11
3133.066264
 21
707.751774
  0
LINE
  8
CSLAYER1
  6
CONTINUOUS
 62
     4
 10
1793.066264
 20
1673.655253
 11
3143.066264
 21
1673.655253
  0
LINE
  8
CSLAYER1
  6
CONTINUOUS
 62
     4
 10
3143.066264
 20
1673.655253
 11
3143.066264
 21
1620.655253
  0
LINE
  8
CSLAYER1
  6
CONTINUOUS
 62
     4
 10
1793.066264
 20
1673.655253
 11
1793.066264
 21
1620.655253
  0
LINE
  8
CSLAYER1
  6
CONTINUOUS
 62
     3
 10
1793.066264
 20
2315.669582
 11
1793.066264
 21
3065.669582
  0
LINE
  8
CSLAYER1
  6
CONTINUOUS
 62
     3
 10
3143.066264
 20
2315.669582
 11
3143.066264
 21
3065.669582
  0
LINE
  8
CSLAYER1
  6
CONTINUOUS
 62
     3
 10
1793.066264
 20
3065.669582
 11
3143.066264
 21
3065.669582
  0
LINE
  8
CSLAYER1
  6
CONTINUOUS
 62
     3
 10
1793.066264
 20
2315.669582
 11
3143.066264
 21
2315.669582
  0
LINE
  8
CSLAYER1
  6
CONTINUOUS
 62
     4
 10
1141.660500
 20
713.751774
 11
1141.660500
 21
707.751774
  0
LINE
  8
CSLAYER1
  6
CONTINUOUS
 62
     4
 10
1141.660500
 20
707.751774
 11
1076.660500
 21
707.751774
  0
LINE
  8
CSLAYER1
  6
CONTINUOUS
 62
     5
 10
1131.660500
 20
721.297037
 11
1131.660500
 21
702.992999
  0
LINE
  8
CSLAYER1
  6
CONTINUOUS
 62
     4
 10
411.660500
 20
713.751774
 11
411.660500
 21
707.751774
  0
LINE
  8
CSLAYER1
  6
CONTINUOUS
 62
     4
 10
411.660500
 20
707.751774
 11
476.660500
 21
707.751774
  0
LINE
  8
CSLAYER1
  6
CONTINUOUS
 62
     4
 10
476.660500
 20
713.751774
 11
476.660500
 21
648.751774
  0
LINE
  8
CSLAYER1
  6
CONTINUOUS
 62
     5
 10
421.660500
 20
721.297037
 11
421.660500
 21
702.992999
  0
LINE
  8
CSLAYER1
  6
CONTINUOUS
 62
     3
 10
1853.066264
 20
713.751774
 11
1803.066264
 21
744.114117
  0
LINE
  8
CSLAYER1
  6
CONTINUOUS
 62
     3
 10
1803.066264
 20
744.114117
 11
1853.066264
 21
774.476461
  0
LINE
  8
CSLAYER1
  6
CONTINUOUS
 62
     3
 10
1853.066264
 20
774.476461
 11
1803.066264
 21
804.838804
  0
LINE
  8
CSLAYER1
  6
CONTINUOUS
 62
     3
 10
1803.066264
 20
804.838804
 11
1853.066264
 21
835.201148
  0
LINE
  8
CSLAYER1
  6
CONTINUOUS
 62
     3
 10
1853.066264
 20
835.201148
 11
1803.066264
 21
865.563491
  0
LINE
  8
CSLAYER1
  6
CONTINUOUS
 62
     3
 10
1803.066264
 20
865.563491
 11
1853.066264
 21
895.925835
  0
LINE
  8
CSLAYER1
  6
CONTINUOUS
 62
     3
 10
1853.066264
 20
895.925835
 11
1803.066264
 21
926.288178
  0
LINE
  8
CSLAYER1
  6
CONTINUOUS
 62
     3
 10
1803.066264
 20
926.288178
 11
1853.066264
 21
956.650522
  0
LINE
  8
CSLAYER1
  6
CONTINUOUS
 62
     3
 10
1853.066264
 20
956.650522
 11
1803.066264
 21
987.012865
  0
LINE
  8
CSLAYER1
  6
CONTINUOUS
 62
     3
 10
1803.066264
 20
987.012865
 11
1853.066264
 21
1017.375209
  0
LINE
  8
CSLAYER1
  6
CONTINUOUS
 62
     3
 10
1853.066264
 20
1017.375209
 11
1803.066264
 21
1047.737552
  0
LINE
  8
CSLAYER1
  6
CONTINUOUS
 62
     3
 10
1803.066264
 20
1047.737552
 11
1853.066264
 21
1078.099896
  0
LINE
  8
CSLAYER1
  6
CONTINUOUS
 62
     3
 10
1853.066264
 20
1078.099896
 11
1803.066264
 21
1108.462239
  0
LINE
  8
CSLAYER1
  6
CONTINUOUS
 62
     3
 10
1803.066264
 20
1108.462239
 11
1853.066264
 21
1138.824583
  0
LINE
  8
CSLAYER1
  6
CONTINUOUS
 62
     3
 10
1853.066264
 20
1138.824583
 11
1803.066264
 21
1169.186926
  0
LINE
  8
CSLAYER1
  6
CONTINUOUS
 62
     3
 10
1803.066264
 20
1169.186926
 11
1853.066264
 21
1199.549270
  0
LINE
  8
CSLAYER1
  6
CONTINUOUS
 62
     3
 10
1853.066264
 20
1199.549270
 11
1803.066264
 21
1229.911614
  0
LINE
  8
CSLAYER1
  6
CONTINUOUS
 62
     3
 10
1803.066264
 20
1229.911614
 11
1853.066264
 21
1260.273957
  0
LINE
  8
CSLAYER1
  6
CONTINUOUS
 62
     3
 10
1853.066264
 20
1260.273957
 11
1803.066264
 21
1290.636301
  0
LINE
  8
CSLAYER1
  6
CONTINUOUS
 62
     3
 10
1803.066264
 20
1290.636301
 11
1853.066264
 21
1320.998644
  0
LINE
  8
CSLAYER1
  6
CONTINUOUS
 62
     3
 10
1853.066264
 20
1320.998644
 11
1803.066264
 21
1351.360988
  0
LINE
  8
CSLAYER1
  6
CONTINUOUS
 62
     3
 10
1803.066264
 20
1351.360988
 11
1853.066264
 21
1381.723331
  0
LINE
  8
CSLAYER1
  6
CONTINUOUS
 62
     3
 10
1853.066264
 20
1381.723331
 11
1803.066264
 21
1412.085675
  0
LINE
  8
CSLAYER1
  6
CONTINUOUS
 62
     3
 10
1803.066264
 20
1412.085675
 11
1853.066264
 21
1442.448018
  0
LINE
  8
CSLAYER1
  6
CONTINUOUS
 62
     3
 10
1853.066264
 20
1442.448018
 11
1803.066264
 21
1472.810362
  0
LINE
  8
CSLAYER1
  6
CONTINUOUS
 62
     3
 10
1803.066264
 20
1472.810362
 11
1853.066264
 21
1503.172705
  0
LINE
  8
CSLAYER1
  6
CONTINUOUS
 62
     3
 10
1853.066264
 20
1503.172705
 11
1803.066264
 21
1533.535049
  0
LINE
  8
CSLAYER1
  6
CONTINUOUS
 62
     3
 10
3083.066264
 20
713.751774
 11
3133.066264
 21
744.114117
  0
LINE
  8
CSLAYER1
  6
CONTINUOUS
 62
     3
 10
3133.066264
 20
744.114117
 11
3083.066264
 21
774.476461
  0
LINE
  8
CSLAYER1
  6
CONTINUOUS
 62
     3
 10
3083.066264
 20
774.476461
 11
3133.066264
 21
804.838804
  0
LINE
  8
CSLAYER1
  6
CONTINUOUS
 62
     3
 10
3133.066264
 20
804.838804
 11
3083.066264
 21
835.201148
  0
LINE
  8
CSLAYER1
  6
CONTINUOUS
 62
     3
 10
3083.066264
 20
835.201148
 11
3133.066264
 21
865.563491
  0
LINE
  8
CSLAYER1
  6
CONTINUOUS
 62
     3
 10
3133.066264
 20
865.563491
 11
3083.066264
 21
895.925835
  0
LINE
  8
CSLAYER1
  6
CONTINUOUS
 62
     3
 10
3083.066264
 20
895.925835
 11
3133.066264
 21
926.288178
  0
LINE
  8
CSLAYER1
  6
CONTINUOUS
 62
     3
 10
3133.066264
 20
926.288178
 11
3083.066264
 21
956.650522
  0
LINE
  8
CSLAYER1
  6
CONTINUOUS
 62
     3
 10
3083.066264
 20
956.650522
 11
3133.066264
 21
987.012865
  0
LINE
  8
CSLAYER1
  6
CONTINUOUS
 62
     3
 10
3133.066264
 20
987.012865
 11
3083.066264
 21
1017.375209
  0
LINE
  8
CSLAYER1
  6
CONTINUOUS
 62
     3
 10
3083.066264
 20
1017.375209
 11
3133.066264
 21
1047.737552
  0
LINE
  8
CSLAYER1
  6
CONTINUOUS
 62
     3
 10
3133.066264
 20
1047.737552
 11
3083.066264
 21
1078.099896
  0
LINE
  8
CSLAYER1
  6
CONTINUOUS
 62
     3
 10
3083.066264
 20
1078.099896
 11
3133.066264
 21
1108.462239
  0
LINE
  8
CSLAYER1
  6
CONTINUOUS
 62
     3
 10
3133.066264
 20
1108.462239
 11
3083.066264
 21
1138.824583
  0
LINE
  8
CSLAYER1
  6
CONTINUOUS
 62
     3
 10
3083.066264
 20
1138.824583
 11
3133.066264
 21
1169.186926
  0
LINE
  8
CSLAYER1
  6
CONTINUOUS
 62
     3
 10
3133.066264
 20
1169.186926
 11
3083.066264
 21
1199.549270
  0
LINE
  8
CSLAYER1
  6
CONTINUOUS
 62
     3
 10
3083.066264
 20
1199.549270
 11
3133.066264
 21
1229.911614
  0
LINE
  8
CSLAYER1
  6
CONTINUOUS
 62
     3
 10
3133.066264
 20
1229.911614
 11
3083.066264
 21
1260.273957
  0
LINE
  8
CSLAYER1
  6
CONTINUOUS
 62
     3
 10
3083.066264
 20
1260.273957
 11
3133.066264
 21
1290.636301
  0
LINE
  8
CSLAYER1
  6
CONTINUOUS
 62
     3
 10
3133.066264
 20
1290.636301
 11
3083.066264
 21
1320.998644
  0
LINE
  8
CSLAYER1
  6
CONTINUOUS
 62
     3
 10
3083.066264
 20
1320.998644
 11
3133.066264
 21
1351.360988
  0
LINE
  8
CSLAYER1
  6
CONTINUOUS
 62
     3
 10
3133.066264
 20
1351.360988
 11
3083.066264
 21
1381.723331
  0
LINE
  8
CSLAYER1
  6
CONTINUOUS
 62
     3
 10
3083.066264
 20
1381.723331
 11
3133.066264
 21
1412.085675
  0
LINE
  8
CSLAYER1
  6
CONTINUOUS
 62
     3
 10
3133.066264
 20
1412.085675
 11
3083.066264
 21
1442.448018
  0
LINE
  8
CSLAYER1
  6
CONTINUOUS
 62
     3
 10
3083.066264
 20
1442.448018
 11
3133.066264
 21
1472.810362
  0
LINE
  8
CSLAYER1
  6
CONTINUOUS
 62
     3
 10
3133.066264
 20
1472.810362
 11
3083.066264
 21
1503.172705
  0
LINE
  8
CSLAYER1
  6
CONTINUOUS
 62
     3
 10
1091.660500
 20
713.751774
 11
1141.660500
 21
744.114117
  0
LINE
  8
CSLAYER1
  6
CONTINUOUS
 62
     3
 10
1141.660500
 20
744.114117
 11
1091.660500
 21
774.476461
  0
LINE
  8
CSLAYER1
  6
CONTINUOUS
 62
     3
 10
1091.660500
 20
774.476461
 11
1141.660500
 21
804.838804
  0
LINE
  8
CSLAYER1
  6
CONTINUOUS
 62
     3
 10
1141.660500
 20
804.838804
 11
1091.660500
 21
835.201148
  0
LINE
  8
CSLAYER1
  6
CONTINUOUS
 62
     3
 10
1091.660500
 20
835.201148
 11
1141.660500
 21
865.563491
  0
LINE
  8
CSLAYER1
  6
CONTINUOUS
 62
     3
 10
1141.660500
 20
865.563491
 11
1091.660500
 21
895.925835
  0
LINE
  8
CSLAYER1
  6
CONTINUOUS
 62
     3
 10
1091.660500
 20
895.925835
 11
1141.660500
 21
926.288178
  0
LINE
  8
CSLAYER1
  6
CONTINUOUS
 62
     3
 10
1141.660500
 20
926.288178
 11
1091.660500
 21
956.650522
  0
LINE
  8
CSLAYER1
  6
CONTINUOUS
 62
     3
 10
1091.660500
 20
956.650522
 11
1141.660500
 21
987.012865
  0
LINE
  8
CSLAYER1
  6
CONTINUOUS
 62
     3
 10
1141.660500
 20
987.012865
 11
1091.660500
 21
1017.375209
  0
LINE
  8
CSLAYER1
  6
CONTINUOUS
 62
     3
 10
1091.660500
 20
1017.375209
 11
1141.660500
 21
1047.737552
  0
LINE
  8
CSLAYER1
  6
CONTINUOUS
 62
     3
 10
1141.660500
 20
1047.737552
 11
1091.660500
 21
1078.099896
  0
LINE
  8
CSLAYER1
  6
CONTINUOUS
 62
     3
 10
1091.660500
 20
1078.099896
 11
1141.660500
 21
1108.462239
  0
LINE
  8
CSLAYER1
  6
CONTINUOUS
 62
     3
 10
1141.660500
 20
1108.462239
 11
1091.660500
 21
1138.824583
  0
LINE
  8
CSLAYER1
  6
CONTINUOUS
 62
     3
 10
1091.660500
 20
1138.824583
 11
1141.660500
 21
1169.186926
  0
LINE
  8
CSLAYER1
  6
CONTINUOUS
 62
     3
 10
1141.660500
 20
1169.186926
 11
1091.660500
 21
1199.549270
  0
LINE
  8
CSLAYER1
  6
CONTINUOUS
 62
     3
 10
1091.660500
 20
1199.549270
 11
1141.660500
 21
1229.911614
  0
LINE
  8
CSLAYER1
  6
CONTINUOUS
 62
     3
 10
1141.660500
 20
1229.911614
 11
1091.660500
 21
1260.273957
  0
LINE
  8
CSLAYER1
  6
CONTINUOUS
 62
     3
 10
1091.660500
 20
1260.273957
 11
1141.660500
 21
1290.636301
  0
LINE
  8
CSLAYER1
  6
CONTINUOUS
 62
     3
 10
1141.660500
 20
1290.636301
 11
1091.660500
 21
1320.998644
  0
LINE
  8
CSLAYER1
  6
CONTINUOUS
 62
     3
 10
1091.660500
 20
1320.998644
 11
1141.660500
 21
1351.360988
  0
LINE
  8
CSLAYER1
  6
CONTINUOUS
 62
     3
 10
1141.660500
 20
1351.360988
 11
1091.660500
 21
1381.723331
  0
LINE
  8
CSLAYER1
  6
CONTINUOUS
 62
     3
 10
1091.660500
 20
1381.723331
 11
1141.660500
 21
1412.085675
  0
LINE
  8
CSLAYER1
  6
CONTINUOUS
 62
     3
 10
1141.660500
 20
1412.085675
 11
1091.660500
 21
1442.448018
  0
LINE
  8
CSLAYER1
  6
CONTINUOUS
 62
     3
 10
1091.660500
 20
1442.448018
 11
1141.660500
 21
1472.810362
  0
LINE
  8
CSLAYER1
  6
CONTINUOUS
 62
     3
 10
1141.660500
 20
1472.810362
 11
1091.660500
 21
1503.172705
  0
LINE
  8
CSLAYER1
  6
CONTINUOUS
 62
     3
 10
1803.066264
 20
1533.535049
 11
1853.066264
 21
1563.897392
  0
LINE
  8
CSLAYER1
  6
CONTINUOUS
 62
     3
 10
1853.066264
 20
1563.897392
 11
1803.066264
 21
1594.259736
  0
LINE
  8
CSLAYER1
  6
CONTINUOUS
 62
     3
 10
1803.066264
 20
1594.259736
 11
1846.533788
 21
1620.655253
  0
LINE
  8
CSLAYER1
  6
CONTINUOUS
 62
     3
 10
3083.066264
 20
1503.172705
 11
3133.066264
 21
1533.535049
  0
LINE
  8
CSLAYER1
  6
CONTINUOUS
 62
     3
 10
3133.066264
 20
1533.535049
 11
3083.066264
 21
1563.897392
  0
LINE
  8
CSLAYER1
  6
CONTINUOUS
 62
     3
 10
3083.066264
 20
1563.897392
 11
3133.066264
 21
1594.259736
  0
LINE
  8
CSLAYER1
  6
CONTINUOUS
 62
     3
 10
3133.066264
 20
1594.259736
 11
3089.598740
 21
1620.655253
  0
LINE
  8
CSLAYER1
  6
CONTINUOUS
 62
     3
 10
1091.660500
 20
1503.172705
 11
1141.660500
 21
1533.535049
  0
LINE
  8
CSLAYER1
  6
CONTINUOUS
 62
     3
 10
1141.660500
 20
1533.535049
 11
1091.660500
 21
1563.897392
  0
LINE
  8
CSLAYER1
  6
CONTINUOUS
 62
     3
 10
1091.660500
 20
1563.897392
 11
1141.660500
 21
1594.259736
  0
LINE
  8
CSLAYER1
  6
CONTINUOUS
 62
     3
 10
1141.660500
 20
1594.259736
 11
1098.192976
 21
1620.655253
  0
LINE
  8
CSLAYER1
  6
CONTINUOUS
 62
     3
 10
461.660500
 20
713.751774
 11
411.660500
 21
744.114117
  0
LINE
  8
CSLAYER1
  6
CONTINUOUS
 62
     3
 10
411.660500
 20
744.114117
 11
461.660500
 21
774.476461
  0
LINE
  8
CSLAYER1
  6
CONTINUOUS
 62
     3
 10
461.660500
 20
774.476461
 11
411.660500
 21
804.838804
  0
LINE
  8
CSLAYER1
  6
CONTINUOUS
 62
     3
 10
411.660500
 20
804.838804
 11
461.660500
 21
835.201148
  0
LINE
  8
CSLAYER1
  6
CONTINUOUS
 62
     3
 10
461.660500
 20
835.201148
 11
411.660500
 21
865.563491
  0
LINE
  8
CSLAYER1
  6
CONTINUOUS
 62
     3
 10
411.660500
 20
865.563491
 11
461.660500
 21
895.925835
  0
LINE
  8
CSLAYER1
  6
CONTINUOUS
 62
     3
 10
461.660500
 20
895.925835
 11
411.660500
 21
926.288178
  0
LINE
  8
CSLAYER1
  6
CONTINUOUS
 62
     3
 10
411.660500
 20
926.288178
 11
461.660500
 21
956.650522
  0
LINE
  8
CSLAYER1
  6
CONTINUOUS
 62
     3
 10
461.660500
 20
956.650522
 11
411.660500
 21
987.012865
  0
LINE
  8
CSLAYER1
  6
CONTINUOUS
 62
     3
 10
411.660500
 20
987.012865
 11
461.660500
 21
1017.375209
  0
LINE
  8
CSLAYER1
  6
CONTINUOUS
 62
     3
 10
461.660500
 20
1017.375209
 11
411.660500
 21
1047.737552
  0
LINE
  8
CSLAYER1
  6
CONTINUOUS
 62
     3
 10
411.660500
 20
1047.737552
 11
461.660500
 21
1078.099896
  0
LINE
  8
CSLAYER1
  6
CONTINUOUS
 62
     3
 10
461.660500
 20
1078.099896
 11
411.660500
 21
1108.462239
  0
LINE
  8
CSLAYER1
  6
CONTINUOUS
 62
     3
 10
411.660500
 20
1108.462239
 11
461.660500
 21
1138.824583
  0
LINE
  8
CSLAYER1
  6
CONTINUOUS
 62
     3
 10
461.660500
 20
1138.824583
 11
411.660500
 21
1169.186926
  0
LINE
  8
CSLAYER1
  6
CONTINUOUS
 62
     3
 10
411.660500
 20
1169.186926
 11
461.660500
 21
1199.549270
  0
LINE
  8
CSLAYER1
  6
CONTINUOUS
 62
     3
 10
461.660500
 20
1199.549270
 11
411.660500
 21
1229.911614
  0
LINE
  8
CSLAYER1
  6
CONTINUOUS
 62
     3
 10
411.660500
 20
1229.911614
 11
461.660500
 21
1260.273957
  0
LINE
  8
CSLAYER1
  6
CONTINUOUS
 62
     3
 10
461.660500
 20
1260.273957
 11
411.660500
 21
1290.636301
  0
LINE
  8
CSLAYER1
  6
CONTINUOUS
 62
     3
 10
411.660500
 20
1290.636301
 11
461.660500
 21
1320.998644
  0
LINE
  8
CSLAYER1
  6
CONTINUOUS
 62
     3
 10
461.660500
 20
1320.998644
 11
411.660500
 21
1351.360988
  0
LINE
  8
CSLAYER1
  6
CONTINUOUS
 62
     3
 10
411.660500
 20
1351.360988
 11
461.660500
 21
1381.723331
  0
LINE
  8
CSLAYER1
  6
CONTINUOUS
 62
     3
 10
461.660500
 20
1381.723331
 11
411.660500
 21
1412.085675
  0
LINE
  8
CSLAYER1
  6
CONTINUOUS
 62
     3
 10
411.660500
 20
1412.085675
 11
461.660500
 21
1442.448018
  0
LINE
  8
CSLAYER1
  6
CONTINUOUS
 62
     3
 10
461.660500
 20
1442.448018
 11
411.660500
 21
1472.810362
  0
LINE
  8
CSLAYER1
  6
CONTINUOUS
 62
     3
 10
411.660500
 20
1472.810362
 11
461.660500
 21
1503.172705
  0
LINE
  8
CSLAYER1
  6
CONTINUOUS
 62
     3
 10
461.660500
 20
1503.172705
 11
411.660500
 21
1533.535049
  0
LINE
  8
CSLAYER1
  6
CONTINUOUS
 62
     3
 10
411.660500
 20
1533.535049
 11
461.660500
 21
1563.897392
  0
LINE
  8
CSLAYER1
  6
CONTINUOUS
 62
     3
 10
461.660500
 20
1563.897392
 11
411.660500
 21
1594.259736
  0
LINE
  8
CSLAYER1
  6
CONTINUOUS
 62
     3
 10
411.660500
 20
1594.259736
 11
455.128024
 21
1620.655253
  0
INSERT
  8
CSLAYER1
  2
BLKF0001
 10
0.0
 20
0.0
 30
0.0
  0
LINE
  8
CSLAYER1
  6
DASHED
 62
     2
 10
1862.266264
 20
1620.655253
 11
1862.266264
 21
1570.455253
  0
LINE
  8
CSLAYER1
  6
DASHED
 62
     2
 10
1871.066264
 20
1620.655253
 11
1871.066264
 21
1455.455253
  0
LINE
  8
CSLAYER1
  6
DASHED
 62
     2
 10
1921.066264
 20
1620.655253
 11
1921.066264
 21
1470.455253
  0
ARC
  8
CSLAYER1
  6
DASHED
 62
     2
 10
1906.066264
 20
1470.455253
 40
15.000000
 50
270.000000
 51
360.000000
  0
LINE
  8
CSLAYER1
  6
DASHED
 62
     2
 10
1871.066264
 20
1455.455253
 11
1906.066264
 21
1455.455253
  0
LINE
  8
CSLAYER1
  6
DASHED
 62
     2
 10
3055.866264
 20
1523.455253
 11
3055.866264
 21
1620.655253
  0
LINE
  8
CSLAYER1
  6
DASHED
 62
     2
 10
3043.866264
 20
1498.455253
 11
3043.866264
 21
1620.655253
  0
LINE
  8
CSLAYER1
  6
DASHED
 62
     2
 10
2018.866264
 20
1520.455253
 11
3052.866264
 21
1520.455253
  0
LINE
  8
CSLAYER1
  6
DASHED
 62
     2
 10
2596.866264
 20
1495.455253
 11
3040.866264
 21
1495.455253
  0
LINE
  8
CSLAYER1
  6
DASHED
 62
     2
 10
2593.866264
 20
1498.455253
 11
2593.866264
 21
1520.455253
  0
LINE
  8
CSLAYER1
  6
DASHED
 62
     2
 10
2593.866264
 20
1498.455253
 11
2596.866264
 21
1495.455253
  0
LINE
  8
CSLAYER1
  6
DASHED
 62
     2
 10
3040.866264
 20
1495.455253
 11
3043.866264
 21
1498.455253
  0
LINE
  8
CSLAYER1
  6
DASHED
 62
     2
 10
3052.866264
 20
1520.455253
 11
3055.866264
 21
1523.455253
  0
ARC
  8
CSLAYER1
  6
DASHED
 62
     2
 10
2692.545453
 20
1479.459241
 40
17.000000
 50
-33.130284
 51
45.490000
  0
CIRCLE
  8
CSLAYER1
  6
DASHED
 62
     2
 10
2686.224055
 20
1474.455250
 40
21.000000
  0
LINE
  8
CSLAYER1
  6
DASHED
 62
     2
 10
2241.478397
 20
1093.935106
 11
2231.736491
 21
1112.403871
  0
CIRCLE
  8
CSLAYER1
  6
DASHED
 62
     2
 10
2293.645160
 20
1075.103512
 40
15.000000
  0
CIRCLE
  8
CSLAYER1
  6
DASHED
 62
     2
 10
2293.645160
 20
1075.103512
 40
21.350000
  0
LINE
  8
CSLAYER1
  6
DASHED
 62
     2
 10
2463.609847
 20
1520.455253
 11
2395.789166
 21
1451.464517
  0
LINE
  8
CSLAYER1
  6
DASHED
 62
     2
 10
2275.708551
 20
1022.622300
 11
2257.409108
 21
1012.565940
  0
LINE
  8
CSLAYER1
  6
DASHED
 62
     2
 10
2293.645158
 20
1040.868352
 11
2275.708551
 21
1022.622300
  0
LINE
  8
CSLAYER1
  6
DASHED
 62
     2
 10
2337.816745
 20
1152.845847
 11
2441.331899
 21
1258.146864
  0
ARC
  8
CSLAYER1
  6
DASHED
 62
     2
 10
2425.233462
 20
1315.946867
 40
60.000000
 50
285.563565
 51
315.490000
  0
LINE
  8
CSLAYER1
  6
DASHED
 62
     2
 10
2468.021148
 20
1273.884842
 11
2619.444436
 21
1427.920513
  0
LINE
  8
CSLAYER1
  6
DASHED
 62
     2
 10
2619.444436
 20
1427.920513
 11
2682.971964
 21
1453.708590
  0
ARC
  8
CSLAYER1
  6
DASHED
 62
     2
 10
2425.233462
 20
1315.946867
 40
32.500000
 50
148.247532
 51
328.247532
  0
LINE
  8
CSLAYER1
  6
DASHED
 62
     2
 10
2590.019749
 20
1520.455253
 11
2452.869172
 21
1298.843724
  0
CIRCLE
  8
CSLAYER1
  6
DASHED
 62
     2
 10
2686.224057
 20
1474.455256
 40
10.100000
  0
CIRCLE
  8
CSLAYER1
  6
DASHED
 62
     2
 10
2089.619716
 20
953.146077
 40
14.100000
  0
LINE
  8
CSLAYER1
  6
DASHED
 62
     2
 10
1909.961568
 20
793.211871
 11
1891.440888
 21
713.751774
  0
LINE
  8
CSLAYER1
  6
DASHED
 62
     2
 10
1963.662706
 20
713.751774
 11
2257.409101
 21
1012.565937
  0
LINE
  8
CSLAYER1
  6
DASHED
 62
     2
 10
2513.578798
 20
1520.455253
 11
2397.597751
 21
1333.050010
  0
LINE
  8
CSLAYER1
  6
DASHED
 62
     2
 10
2704.463028
 20
1491.582425
 11
2700.523385
 21
1495.455253
  0
LINE
  8
CSLAYER1
  6
DASHED
 62
     2
 10
1909.961568
 20
793.211871
 11
2182.505437
 21
1162.484270
  0
LINE
  8
CSLAYER1
  6
DASHED
 62
     2
 10
2245.044310
 20
1247.218811
 11
2395.789166
 21
1451.464517
  0
LINE
  8
CSLAYER1
  6
DASHED
 62
     2
 10
1862.266264
 20
1570.455253
 11
1871.066264
 21
1570.455253
  0
LINE
  8
CSLAYER1
  6
DASHED
 62
     2
 10
2684.529818
 20
751.651411
 11
2430.405087
 21
1010.160350
  0
ARC
  8
CSLAYER1
  6
DASHED
 62
     2
 10
2407.228424
 20
987.376753
 40
32.500000
 50
44.510000
 51
224.510000
  0
LINE
  8
CSLAYER1
  6
DASHED
 62
     2
 10
2684.529818
 20
751.651411
 11
2694.351347
 21
713.751774
  0
LINE
  8
CSLAYER1
  6
DASHED
 62
     2
 10
2630.638973
 20
713.751774
 11
2384.051760
 21
964.593157
  0
LINE
  8
CSLAYER1
  6
DASHED
 62
     2
 10
2623.627604
 20
713.751774
 11
2329.881219
 21
1012.565932
  0
LINE
  8
CSLAYER1
  6
DASHED
 62
     2
 10
2670.439356
 20
814.484763
 11
2695.364318
 21
713.751774
  0
LINE
  8
CSLAYER1
  6
DASHED
 62
     2
 10
2670.439356
 20
814.484763
 11
2039.508995
 21
1456.300063
  0
LINE
  8
CSLAYER1
  6
DASHED
 62
     2
 10
2231.736485
 20
1112.403878
 11
1894.503128
 21
1455.455253
  0
LINE
  8
CSLAYER1
  6
DASHED
 62
     2
 10
2311.581769
 20
1022.622295
 11
2329.881212
 21
1012.565935
  0
LINE
  8
CSLAYER1
  6
DASHED
 62
     2
 10
2311.581769
 20
1022.622295
 11
2203.234131
 21
1132.839168
  0
LINE
  8
CSLAYER1
  6
DASHED
 62
     2
 10
2039.508995
 20
1456.300063
 11
1921.066264
 21
1487.766307
  0
LINE
  8
CSLAYER1
  6
DASHED
 62
     2
 10
2127.119558
 20
1365.986454
 11
2127.715256
 21
1366.572049
  0
LINE
  8
CSLAYER1
  6
DASHED
 62
     2
 10
1943.866264
 20
1595.455253
 11
1943.866264
 21
1620.655253
  0
LINE
  8
CSLAYER1
  6
DASHED
 62
     2
 10
1943.866264
 20
1595.455253
 11
2018.866264
 21
1520.455253
  0
CIRCLE
  8
CSLAYER1
  6
DASHED
 62
     2
 10
1901.066267
 20
1474.455254
 40
8.000000
  0
LINE
  8
CSLAYER1
  6
DASHED
 62
     2
 10
2406.163771
 20
1297.803670
 11
2570.810372
 21
1501.927552
  0
LINE
  8
CSLAYER1
  6
DASHED
 62
     2
 10
2026.091967
 20
961.990591
 11
2034.253667
 21
972.109220
  0
LINE
  8
CSLAYER1
  6
DASHED
 62
     2
 10
1859.920768
 20
767.126196
 11
1896.924613
 21
737.278844
  0
LINE
  8
CSLAYER1
  6
DASHED
 62
     2
 10
1895.706683
 20
811.492493
 11
1913.099471
 21
797.463446
  0
LINE
  8
CSLAYER1
  6
DASHED
 62
     2
 10
1983.275156
 20
916.871629
 11
1994.529526
 21
907.793839
  0
LINE
  8
CSLAYER1
  6
DASHED
 62
     2
 10
2028.415996
 20
976.817893
 11
2039.108024
 21
968.193689
  0
LINE
  8
CSLAYER1
  6
DASHED
 62
     2
 10
1859.920768
 20
767.126196
 11
1895.706683
 21
811.492493
  0
LINE
  8
CSLAYER1
  6
DASHED
 62
     2
 10
1897.263395
 20
810.236846
 11
1988.297741
 21
923.098478
  0
LINE
  8
CSLAYER1
  6
DASHED
 62
     2
 10
1996.106993
 20
923.223320
 11
2026.870323
 21
961.362768
  0
LINE
  8
CSLAYER1
  6
DASHED
 62
     2
 10
1859.920768
 20
767.126196
 11
1868.908593
 21
749.598532
  0
LINE
  8
CSLAYER1
  6
DASHED
 62
     2
 10
1894.908097
 20
728.627296
 11
1868.908593
 21
749.598532
  0
LINE
  8
CSLAYER1
  6
DASHED
 62
     2
 10
1992.222837
 20
733.642431
 11
1987.199299
 21
737.694424
  0
LINE
  8
CSLAYER1
  6
DASHED
 62
     2
 10
1976.179006
 20
713.751774
 11
1992.222837
 21
733.642431
  0
LINE
  8
CSLAYER1
  6
DASHED
 62
     2
 10
1990.666125
 20
734.898078
 11
2019.081777
 21
770.126945
  0
LINE
  8
CSLAYER1
  6
DASHED
 62
     2
 10
2026.091967
 20
961.990591
 11
2026.870323
 21
961.362768
  0
LINE
  8
CSLAYER1
  6
DASHED
 62
     2
 10
2005.524339
 20
934.898661
 11
2011.172166
 21
930.343116
  0
LINE
  8
CSLAYER1
  6
DASHED
 62
     2
 10
2416.710496
 20
1289.296668
 11
2393.771259
 21
1307.799487
  0
LINE
  8
CSLAYER1
  6
DASHED
 62
     2
 10
1991.110099
 20
923.399544
 11
2000.473326
 21
915.847152
  0
ARC
  8
CSLAYER1
  6
DASHED
 62
     2
 10
1993.771924
 20
925.106789
 40
3.000000
 50
231.110305
 51
321.110305
  0
LINE
  8
CSLAYER1
  6
DASHED
 62
     2
 10
1903.490244
 20
805.214262
 11
1989.502005
 21
911.849045
  0
LINE
  8
CSLAYER1
  6
DASHED
 62
     2
 10
1901.933532
 20
806.469908
 11
1987.945293
 21
913.104691
  0
ARC
  8
CSLAYER1
  6
DASHED
 62
     2
 10
1989.854453
 20
921.842832
 40
2.000000
 50
51.110305
 51
141.110305
  0
LINE
  8
CSLAYER1
  6
DASHED
 62
     2
 10
2053.528919
 20
1007.952136
 11
2062.883223
 21
1000.406943
  0
LINE
  8
CSLAYER1
  6
DASHED
 62
     2
 10
2027.133454
 20
961.150527
 11
2031.381084
 21
957.724382
  0
LINE
  8
CSLAYER1
  6
DASHED
 62
     2
 10
2064.795131
 20
1005.930970
 11
2066.152313
 21
1004.836265
  0
LINE
  8
CSLAYER1
  6
DASHED
 62
     2
 10
2025.877807
 20
959.593815
 11
2030.192325
 21
956.113719
  0
LINE
  8
CSLAYER1
  6
DASHED
 62
     2
 10
2025.877807
 20
959.593815
 11
2027.133454
 21
961.150527
  0
LINE
  8
CSLAYER1
  6
DASHED
 62
     2
 10
2022.730985
 20
953.781112
 11
2026.328855
 21
950.879066
  0
LINE
  8
CSLAYER1
  6
DASHED
 62
     2
 10
2063.647965
 20
1006.110400
 11
2060.559425
 21
1002.281321
  0
LINE
  8
CSLAYER1
  6
DASHED
 62
     2
 10
2022.730985
 20
953.781112
 11
2022.312793
 21
954.864302
  0
LINE
  8
CSLAYER1
  6
DASHED
 62
     2
 10
2064.795131
 20
1005.930970
 11
2063.647965
 21
1006.110400
  0
LINE
  8
CSLAYER1
  6
DASHED
 62
     2
 10
2026.029156
 20
959.471737
 11
2022.312793
 21
954.864302
  0
ARC
  8
CSLAYER1
  6
DASHED
 62
     2
 10
2025.466802
 20
955.785825
 40
3.285875
 50
206.423810
 51
266.074688
  0
ARC
  8
CSLAYER1
  6
DASHED
 62
     2
 10
2063.435363
 20
1002.858100
 40
3.259241
 50
35.493498
 51
76.676204
  0
ARC
  8
CSLAYER1
  6
DASHED
 62
     2
 10
2035.587512
 20
959.367012
 40
12.419443
 50
213.522351
 51
222.386021
  0
LINE
  8
CSLAYER1
  6
DASHED
 62
     2
 10
2028.950153
 20
957.115657
 11
2025.233790
 21
952.508222
  0
LINE
  8
CSLAYER1
  6
DASHED
 62
     2
 10
2023.024343
 20
949.047832
 11
2024.248525
 21
948.060406
  0
LINE
  8
CSLAYER1
  6
DASHED
 62
     2
 10
2022.918970
 20
950.032158
 11
2024.676875
 21
952.211555
  0
LINE
  8
CSLAYER1
  6
DASHED
 62
     2
 10
2023.024343
 20
949.047832
 11
2025.221724
 21
951.772078
  0
LINE
  8
CSLAYER1
  6
DASHED
 62
     2
 10
2022.918970
 20
950.032158
 11
2023.024343
 21
949.047832
  0
LINE
  8
CSLAYER1
  6
DASHED
 62
     2
 10
2022.918970
 20
950.032158
 11
2024.664591
 21
948.624138
  0
LINE
  8
CSLAYER1
  6
DASHED
 62
     2
 10
2028.415996
 20
976.817893
 11
2053.528919
 21
1007.952136
  0
LINE
  8
CSLAYER1
  6
DASHED
 62
     2
 10
2416.710496
 20
1289.296668
 11
2416.861029
 21
1287.890488
  0
LINE
  8
CSLAYER1
  6
DASHED
 62
     2
 10
2394.252683
 20
1306.126411
 11
2416.861029
 21
1287.890488
  0
LINE
  8
CSLAYER1
  6
DASHED
 62
     2
 10
2414.693609
 20
1285.203388
 11
2416.861029
 21
1287.890488
  0
ARC
  8
CSLAYER1
  6
DASHED
 62
     2
 10
2322.891938
 20
1095.210278
 40
124.983369
 50
14.717843
 51
59.265674
  0
LINE
  8
CSLAYER1
  6
DASHED
 62
     2
 10
2473.133714
 20
1015.194362
 11
2443.774437
 21
1126.963447
  0
LINE
  8
CSLAYER1
  6
DASHED
 62
     2
 10
2276.529500
 20
1058.279303
 11
2294.555440
 21
1039.941093
  0
ARC
  8
CSLAYER1
  6
DASHED
 62
     2
 10
2215.360338
 20
1144.758885
 40
17.000000
 50
174.828213
 51
224.507998
  0
LINE
  8
CSLAYER1
  6
PHANTOM
 62
     5
 10
1943.866264
 20
800.551774
 11
1943.866264
 21
825.751774
  0
LINE
  8
CSLAYER1
  6
DASHED
 62
     2
 10
3052.866264
 20
725.551774
 11
3055.866264
 21
728.551774
  0
ARC
  8
CSLAYER1
  6
DASHED
 62
     2
 10
2444.531697
 20
1383.069926
 40
13.000000
 50
99.442655
 51
174.705115
  0
ARC
  8
CSLAYER1
  6
DASHED
 62
     2
 10
2426.556510
 20
1356.428233
 40
15.050000
 50
105.243351
 51
113.204067
  0
ARC
  8
CSLAYER1
  6
DASHED
 62
     2
 10
2418.642640
 20
1385.469250
 40
15.050000
 50
-74.756649
 51
15.108136
  0
LINE
  8
CSLAYER1
  6
DASHED
 62
     2
 10
2570.502883
 20
1503.139143
 11
2549.034892
 21
1520.455253
  0
LINE
  8
CSLAYER1
  6
DASHED
 62
     2
 10
2570.502883
 20
1503.139143
 11
2570.653416
 21
1501.732963
  0
LINE
  8
CSLAYER1
  6
DASHED
 62
     2
 10
2562.567465
 20
1509.539862
 11
2563.944908
 21
1514.440429
  0
LINE
  8
CSLAYER1
  6
DASHED
 62
     2
 10
2563.944908
 20
1514.440429
 11
2557.734817
 21
1513.437882
  0
LINE
  8
CSLAYER1
  6
DASHED
 62
     2
 10
2557.734817
 20
1513.437882
 11
2558.825583
 21
1515.564865
  0
LINE
  8
CSLAYER1
  6
DASHED
 62
     2
 10
2557.734817
 20
1513.437882
 11
2563.847028
 21
1514.092201
  0
LINE
  8
CSLAYER1
  6
DASHED
 62
     2
 10
2557.954969
 20
1513.260307
 11
2563.788737
 21
1513.884818
  0
LINE
  8
CSLAYER1
  6
DASHED
 62
     2
 10
2558.175122
 20
1513.082732
 11
2563.730447
 21
1513.677435
  0
LINE
  8
CSLAYER1
  6
DASHED
 62
     2
 10
2558.395274
 20
1512.905156
 11
2563.672156
 21
1513.470052
  0
LINE
  8
CSLAYER1
  6
DASHED
 62
     2
 10
2558.615426
 20
1512.727581
 11
2563.613865
 21
1513.262670
  0
LINE
  8
CSLAYER1
  6
DASHED
 62
     2
 10
2558.835579
 20
1512.550006
 11
2563.555574
 21
1513.055287
  0
LINE
  8
CSLAYER1
  6
DASHED
 62
     2
 10
2559.055731
 20
1512.372431
 11
2563.497283
 21
1512.847904
  0
LINE
  8
CSLAYER1
  6
DASHED
 62
     2
 10
2559.275883
 20
1512.194856
 11
2563.438993
 21
1512.640521
  0
LINE
  8
CSLAYER1
  6
DASHED
 62
     2
 10
2559.496036
 20
1512.017280
 11
2563.380702
 21
1512.433138
  0
LINE
  8
CSLAYER1
  6
DASHED
 62
     2
 10
2559.716188
 20
1511.839705
 11
2563.322411
 21
1512.225755
  0
LINE
  8
CSLAYER1
  6
DASHED
 62
     2
 10
2559.936340
 20
1511.662130
 11
2563.264120
 21
1512.018373
  0
LINE
  8
CSLAYER1
  6
DASHED
 62
     2
 10
2560.156493
 20
1511.484555
 11
2563.205829
 21
1511.810990
  0
LINE
  8
CSLAYER1
  6
DASHED
 62
     2
 10
2560.376645
 20
1511.306980
 11
2563.147539
 21
1511.603607
  0
LINE
  8
CSLAYER1
  6
DASHED
 62
     2
 10
2560.596797
 20
1511.129405
 11
2563.089248
 21
1511.396224
  0
LINE
  8
CSLAYER1
  6
DASHED
 62
     2
 10
2560.816950
 20
1510.951829
 11
2563.030957
 21
1511.188841
  0
LINE
  8
CSLAYER1
  6
DASHED
 62
     2
 10
2561.037102
 20
1510.774254
 11
2562.972666
 21
1510.981458
  0
LINE
  8
CSLAYER1
  6
DASHED
 62
     2
 10
2561.257254
 20
1510.596679
 11
2562.914376
 21
1510.774076
  0
LINE
  8
CSLAYER1
  6
DASHED
 62
     2
 10
2561.477407
 20
1510.419104
 11
2562.856085
 21
1510.566693
  0
LINE
  8
CSLAYER1
  6
DASHED
 62
     2
 10
2561.697559
 20
1510.241529
 11
2562.797794
 21
1510.359310
  0
LINE
  8
CSLAYER1
  6
DASHED
 62
     2
 10
2561.917712
 20
1510.063954
 11
2562.739503
 21
1510.151927
  0
LINE
  8
CSLAYER1
  6
DASHED
 62
     2
 10
2562.137864
 20
1509.886378
 11
2562.681212
 21
1509.944544
  0
LINE
  8
CSLAYER1
  6
DASHED
 62
     2
 10
2562.358016
 20
1509.708803
 11
2562.622922
 21
1509.737162
  0
LINE
  8
CSLAYER1
  6
DASHED
 62
     2
 10
2557.843959
 20
1513.650708
 11
2563.905319
 21
1514.299584
  0
LINE
  8
CSLAYER1
  6
DASHED
 62
     2
 10
2557.953102
 20
1513.863535
 11
2563.684163
 21
1514.477051
  0
LINE
  8
CSLAYER1
  6
DASHED
 62
     2
 10
2558.062244
 20
1514.076362
 11
2562.921624
 21
1514.596563
  0
LINE
  8
CSLAYER1
  6
DASHED
 62
     2
 10
2558.171386
 20
1514.289188
 11
2562.221389
 21
1514.722745
  0
LINE
  8
CSLAYER1
  6
DASHED
 62
     2
 10
2558.280529
 20
1514.502015
 11
2561.570825
 21
1514.854244
  0
LINE
  8
CSLAYER1
  6
DASHED
 62
     2
 10
2558.389671
 20
1514.714841
 11
2560.961115
 21
1514.990117
  0
LINE
  8
CSLAYER1
  6
DASHED
 62
     2
 10
2558.498814
 20
1514.927668
 11
2560.385816
 21
1515.129673
  0
LINE
  8
CSLAYER1
  6
DASHED
 62
     2
 10
2558.607956
 20
1515.140494
 11
2559.840046
 21
1515.272391
  0
LINE
  8
CSLAYER1
  6
DASHED
 62
     2
 10
2558.717098
 20
1515.353321
 11
2559.320001
 21
1515.417862
  0
ARC
  8
CSLAYER1
  6
DASHED
 62
     2
 10
2566.922205
 20
1544.891283
 40
30.250000
 50
233.881809
 51
306.118205
  0
ARC
  8
CSLAYER1
  6
DASHED
 62
     2
 10
2440.266127
 20
1408.717633
 40
4.770000
 50
-73.875349
 51
10.370413
  0
ARC
  8
CSLAYER1
  6
DASHED
 62
     2
 10
2440.266127
 20
1408.717633
 40
13.000000
 50
-80.557345
 51
42.455299
  0
ARC
  8
CSLAYER1
  6
DASHED
 62
     2
 10
2440.266127
 20
1408.717633
 40
15.050000
 50
259.039634
 51
348.904419
  0
ARC
  8
CSLAYER1
  6
DASHED
 62
     2
 10
2469.803483
 20
1402.925000
 40
15.050000
 50
105.243351
 51
168.904419
  0
ARC
  8
CSLAYER1
  6
DASHED
 62
     2
 10
2440.266127
 20
1408.717633
 40
9.525000
 50
-99.948135
 51
36.443199
  0
LINE
  8
CSLAYER1
  6
DASHED
 62
     2
 10
2528.632125
 20
1520.455253
 11
2546.147105
 21
1504.164446
  0
LINE
  8
CSLAYER1
  6
DASHED
 62
     2
 10
2507.587983
 20
1499.057969
 11
2525.500521
 21
1482.397390
  0
POINT
  8
CSLAYER1
 62
     2
 10
2526.760072
 20
1501.711168
  0
CIRCLE
  8
CSLAYER1
  6
DASHED
 62
     2
 10
2526.760072
 20
1501.711168
 40
4.770000
  0
ARC
  8
CSLAYER1
  6
DASHED
 62
     2
 10
2526.760072
 20
1501.711168
 40
13.000000
 50
-80.557345
 51
174.705115
  0
ARC
  8
CSLAYER1
  6
DASHED
 62
     2
 10
2531.025642
 20
1476.063460
 40
13.000000
 50
99.442655
 51
174.705115
  0
ARC
  8
CSLAYER1
  6
DASHED
 62
     2
 10
2500.871015
 20
1504.110492
 40
13.000000
 50
279.442655
 51
354.705115
  0
LINE
  8
CSLAYER1
  6
DASHED
 62
     2
 10
2505.953140
 20
1502.229400
 11
2522.905135
 21
1520.455253
  0
LINE
  8
CSLAYER1
  6
DASHED
 62
     2
 10
2452.700313
 20
1422.086186
 11
2544.194079
 21
1520.455253
  0
LINE
  8
CSLAYER1
  6
DASHED
 62
     2
 10
2529.818966
 20
1517.715867
 11
2511.018538
 21
1497.502681
  0
ARC
  8
CSLAYER1
  6
DASHED
 62
     2
 10
2524.300942
 20
1516.859134
 40
5.584136
 50
8.825335
 51
40.089884
  0
ARC
  8
CSLAYER1
  6
DASHED
 62
     2
 10
2515.241837
 20
1489.327395
 40
31.912350
 50
31.327706
 51
62.820064
  0
LINE
  8
CSLAYER1
  6
DASHED
 62
     2
 10
2516.417012
 20
1511.331321
 11
2537.094593
 21
1492.098957
  0
ARC
  8
CSLAYER1
  6
DASHED
 62
     2
 10
2511.473915
 20
1503.068219
 40
5.584136
 50
188.639368
 51
265.322435
  0
ARC
  8
CSLAYER1
  6
DASHED
 62
     2
 10
2538.278307
 20
1514.094941
 40
31.912350
 50
211.327706
 51
242.820064
  0
LINE
  8
CSLAYER1
  6
DASHED
 62
     2
 10
2528.781891
 20
1480.996216
 11
2547.567004
 21
1501.192936
  0
LINE
  8
CSLAYER1
  6
DASHED
 62
     2
 10
2542.501606
 20
1505.919654
 11
2523.701178
 21
1485.706468
  0
ARC
  8
CSLAYER1
  6
DASHED
 62
     2
 10
2542.046229
 20
1500.354117
 40
5.584136
 50
8.639368
 51
85.322435
  0
ARC
  8
CSLAYER1
  6
DASHED
 62
     2
 10
2529.219201
 20
1486.563202
 40
5.584136
 50
188.825335
 51
265.508402
  0
LINE
  8
CSLAYER1
  6
DASHED
 62
     2
 10
2543.315233
 20
1520.455253
 11
2551.108765
 21
1513.206435
  0
LINE
  8
CSLAYER1
  6
DASHED
 62
     2
 10
2550.010416
 20
1514.228017
 11
2553.374327
 21
1517.844709
  0
LINE
  8
CSLAYER1
  6
DASHED
 62
     2
 10
2550.010416
 20
1514.228017
 11
2549.339333
 21
1511.304039
  0
LINE
  8
CSLAYER1
  6
DASHED
 62
     2
 10
2545.660327
 20
1507.348574
 11
2554.800899
 21
1517.176014
  0
ARC
  8
CSLAYER1
  6
DASHED
 62
     2
 10
2547.124792
 20
1505.986465
 40
2.000000
 50
137.073885
 51
227.073885
  0
ARC
  8
CSLAYER1
  6
DASHED
 62
     2
 10
2529.551211
 20
1522.331777
 40
2.000000
 50
249.761709
 51
290.238291
  0
POINT
  8
CSLAYER1
 62
     2
 10
2536.975892
 20
1512.694656
  0
POINT
  8
CSLAYER1
 62
     2
 10
2461.889613
 20
1431.966017
  0
ARC
  8
CSLAYER1
  6
DASHED
 62
     2
 10
2461.889613
 20
1431.966017
 40
15.050000
 50
-74.756649
 51
15.108136
  0
ARC
  8
CSLAYER1
  6
DASHED
 62
     2
 10
2461.889613
 20
1431.966017
 40
13.000000
 50
226.644587
 51
354.705115
  0
POINT
  8
CSLAYER1
 62
     2
 10
2483.513099
 20
1455.214400
  0
POINT
  8
CSLAYER1
 62
     2
 10
2505.136586
 20
1478.462784
  0
ARC
  8
CSLAYER1
  6
DASHED
 62
     2
 10
2461.889613
 20
1431.966017
 40
4.770000
 50
-154.992540
 51
91.487604
  0
CIRCLE
  8
CSLAYER1
  6
DASHED
 62
     2
 10
2483.513099
 20
1455.214400
 40
4.770000
  0
ARC
  8
CSLAYER1
  6
DASHED
 62
     2
 10
2483.513099
 20
1455.214400
 40
13.000000
 50
-80.557345
 51
100.655598
  0
ARC
  8
CSLAYER1
  6
DASHED
 62
     2
 10
2483.513099
 20
1455.214400
 40
15.050000
 50
259.039634
 51
348.904419
  0
ARC
  8
CSLAYER1
  6
DASHED
 62
     2
 10
2505.136586
 20
1478.462784
 40
15.050000
 50
-74.756649
 51
15.108136
  0
ARC
  8
CSLAYER1
  6
DASHED
 62
     2
 10
2487.778669
 20
1429.566693
 40
13.000000
 50
99.442655
 51
174.705115
  0
ARC
  8
CSLAYER1
  6
DASHED
 62
     2
 10
2513.050455
 20
1449.421767
 40
15.050000
 50
105.243351
 51
168.904419
  0
ARC
  8
CSLAYER1
  6
DASHED
 62
     2
 10
2475.599230
 20
1484.255417
 40
15.050000
 50
299.897641
 51
348.904419
  0
ARC
  8
CSLAYER1
  6
DASHED
 62
     2
 10
2461.889613
 20
1431.966017
 40
9.525000
 50
-137.685031
 51
74.180096
  0
ARC
  8
CSLAYER1
  6
DASHED
 62
     2
 10
2483.513099
 20
1455.214400
 40
9.525000
 50
-188.744365
 51
125.239429
  0
ARC
  8
CSLAYER1
  6
DASHED
 62
     2
 10
2505.136586
 20
1478.462784
 40
13.000000
 50
99.442655
 51
354.705115
  0
ARC
  8
CSLAYER1
  6
DASHED
 62
     2
 10
2505.136586
 20
1478.462784
 40
15.050000
 50
79.039634
 51
168.904419
  0
CIRCLE
  8
CSLAYER1
  6
DASHED
 62
     2
 10
2505.136586
 20
1478.462784
 40
4.770000
  0
CIRCLE
  8
CSLAYER1
  6
DASHED
 62
     2
 10
2505.136586
 20
1478.462784
 40
9.525000
  0
LINE
  8
CSLAYER1
  6
DASHED
 62
     2
 10
2965.066264
 20
756.463791
 11
2965.066264
 21
747.126753
  0
LINE
  8
CSLAYER1
  6
DASHED
 62
     2
 10
2896.241441
 20
729.051774
 11
2907.094278
 21
729.051774
  0
LINE
  8
CSLAYER1
  6
DASHED
 62
     2
 10
3062.454745
 20
729.051774
 11
3025.534460
 21
729.051774
  0
LINE
  8
CSLAYER1
  6
CONTINUOUS
 62
     5
 10
3060.738604
 20
732.851774
 11
3059.266264
 21
732.851774
  0
LINE
  8
CSLAYER1
  6
DASHED
 62
     2
 10
3031.266264
 20
744.051774
 11
3031.266264
 21
713.751774
  0
LINE
  8
CSLAYER1
  6
DASHED
 62
     2
 10
3059.266264
 20
737.551774
 11
3059.266264
 21
720.551774
  0
LINE
  8
CSLAYER1
  6
DASHED
 62
     2
 10
3055.296698
 20
742.042155
 11
3040.668827
 21
742.042155
  0
LINE
  8
CSLAYER1
  6
DASHED
 62
     2
 10
3056.157170
 20
740.551774
 11
3056.157170
 21
717.551774
  0
LINE
  8
CSLAYER1
  6
DASHED
 62
     2
 10
3039.808355
 20
740.551774
 11
3039.808355
 21
717.551774
  0
LINE
  8
CSLAYER1
  6
DASHED
 62
     2
 10
3056.157170
 20
740.551774
 11
3055.296698
 21
742.042155
  0
LINE
  8
CSLAYER1
  6
DASHED
 62
     2
 10
3039.808355
 20
740.551774
 11
3040.668827
 21
742.042155
  0
LINE
  8
CSLAYER1
  6
DASHED
 62
     2
 10
3055.296698
 20
735.691302
 11
3040.668827
 21
735.691302
  0
ARC
  8
CSLAYER1
  6
DASHED
 62
     2
 10
3030.111145
 20
729.051774
 40
26.046025
 50
-14.768561
 51
14.768561
  0
ARC
  8
CSLAYER1
  6
DASHED
 62
     2
 10
3050.025576
 20
738.866729
 40
6.153702
 50
-31.065581
 51
23.174644
  0
ARC
  8
CSLAYER1
  6
DASHED
 62
     2
 10
3045.939949
 20
738.866729
 40
6.153702
 50
156.825356
 51
211.065581
  0
ARC
  8
CSLAYER1
  6
DASHED
 62
     2
 10
3065.854380
 20
729.051774
 40
26.046025
 50
165.231439
 51
194.768561
  0
LINE
  8
CSLAYER1
  6
DASHED
 62
     2
 10
3056.266264
 20
740.551774
 11
3056.157170
 21
740.551774
  0
ARC
  8
CSLAYER1
  6
DASHED
 62
     2
 10
3056.266264
 20
737.551774
 40
3.000000
 50
0.000000
 51
90.000000
  0
LINE
  8
CSLAYER1
  6
DASHED
 62
     2
 10
3036.266264
 20
740.551774
 11
3036.266264
 21
717.551774
  0
LINE
  8
CSLAYER1
  6
DASHED
 62
     2
 10
3036.266264
 20
740.551774
 11
3035.405792
 21
742.042155
  0
ARC
  8
CSLAYER1
  6
DASHED
 62
     2
 10
3010.220239
 20
729.051774
 40
26.046025
 50
-14.768561
 51
14.768561
  0
ARC
  8
CSLAYER1
  6
DASHED
 62
     2
 10
3030.134671
 20
738.866729
 40
6.153702
 50
-31.065581
 51
23.174644
  0
LINE
  8
CSLAYER1
  6
DASHED
 62
     2
 10
3035.405792
 20
735.691302
 11
3031.266264
 21
735.691302
  0
LINE
  8
CSLAYER1
  6
DASHED
 62
     2
 10
3035.405792
 20
742.042155
 11
3031.266264
 21
742.042155
  0
LINE
  8
CSLAYER1
  6
DASHED
 62
     2
 10
3039.808355
 20
739.387898
 11
3036.266264
 21
739.387898
  0
LINE
  8
CSLAYER1
  6
DASHED
 62
     2
 10
3039.808355
 20
738.741520
 11
3038.201994
 21
738.741520
  0
LINE
  8
CSLAYER1
  6
DASHED
 62
     2
 10
3038.201994
 20
739.387898
 11
3038.201994
 21
718.715650
  0
LINE
  8
CSLAYER1
  6
DASHED
 62
     2
 10
3038.201994
 20
738.741520
 11
3037.067142
 21
739.387898
  0
LINE
  8
CSLAYER1
  6
DASHED
 62
     2
 10
3055.296698
 20
716.061393
 11
3040.668827
 21
716.061393
  0
LINE
  8
CSLAYER1
  6
DASHED
 62
     2
 10
3056.157170
 20
717.551774
 11
3055.296698
 21
716.061393
  0
LINE
  8
CSLAYER1
  6
DASHED
 62
     2
 10
3039.808355
 20
717.551774
 11
3040.668827
 21
716.061393
  0
LINE
  8
CSLAYER1
  6
DASHED
 62
     2
 10
3055.296698
 20
722.412246
 11
3040.668827
 21
722.412246
  0
ARC
  8
CSLAYER1
  6
DASHED
 62
     2
 10
3050.025576
 20
719.236819
 40
6.153702
 50
-23.174644
 51
31.065581
  0
ARC
  8
CSLAYER1
  6
DASHED
 62
     2
 10
3045.939949
 20
719.236819
 40
6.153702
 50
148.934419
 51
203.174644
  0
LINE
  8
CSLAYER1
  6
DASHED
 62
     2
 10
3056.266264
 20
717.551774
 11
3056.157170
 21
717.551774
  0
ARC
  8
CSLAYER1
  6
DASHED
 62
     2
 10
3056.266264
 20
720.551774
 40
3.000000
 50
270.000000
 51
360.000000
  0
LINE
  8
CSLAYER1
  6
DASHED
 62
     2
 10
3036.266264
 20
717.551774
 11
3035.405792
 21
716.061393
  0
ARC
  8
CSLAYER1
  6
DASHED
 62
     2
 10
3030.134671
 20
719.236819
 40
6.153702
 50
-23.174644
 51
31.065581
  0
LINE
  8
CSLAYER1
  6
DASHED
 62
     2
 10
3035.405792
 20
722.412246
 11
3031.266264
 21
722.412246
  0
LINE
  8
CSLAYER1
  6
DASHED
 62
     2
 10
3035.405792
 20
716.061393
 11
3031.266264
 21
716.061393
  0
LINE
  8
CSLAYER1
  6
DASHED
 62
     2
 10
3039.808355
 20
718.715650
 11
3036.266264
 21
718.715650
  0
LINE
  8
CSLAYER1
  6
DASHED
 62
     2
 10
3039.808355
 20
719.362027
 11
3038.201994
 21
719.362027
  0
LINE
  8
CSLAYER1
  6
DASHED
 62
     2
 10
3038.201994
 20
719.362027
 11
3037.067142
 21
718.715650
  0
LINE
  8
CSLAYER1
  6
DASHED
 62
     2
 10
2898.866264
 20
744.051774
 11
2898.866264
 21
713.751774
  0
LINE
  8
CSLAYER1
  6
DASHED
 62
     2
 10
2897.566264
 20
750.051774
 11
3032.566264
 21
750.051774
  0
LINE
  8
CSLAYER1
  6
DASHED
 62
     2
 10
2897.566264
 20
744.051774
 11
3032.566264
 21
744.051774
  0
LINE
  8
CSLAYER1
  6
DASHED
 62
     2
 10
2897.566264
 20
750.051774
 11
2897.566264
 21
744.051774
  0
LINE
  8
CSLAYER1
  6
DASHED
 62
     2
 10
3032.566264
 20
750.051774
 11
3032.566264
 21
744.051774
  0
ARC
  8
CSLAYER1
  6
DASHED
 62
     2
 10
2896.716264
 20
696.901639
 40
25.650135
 50
90.000000
 51
138.934462
  0
ARC
  8
CSLAYER1
  6
DASHED
 62
     2
 10
2896.716264
 20
696.901639
 40
28.654497
 50
89.000180
 51
143.981600
  0
ARC
  8
CSLAYER1
  6
DASHED
 62
     2
 10
2896.716264
 20
696.901639
 40
35.653641
 50
89.196468
 51
151.796391
  0
ARC
  8
CSLAYER1
  6
DASHED
 62
     2
 10
2896.716264
 20
696.901639
 40
38.650135
 50
90.000000
 51
154.153239
  0
LINE
  8
CSLAYER1
  6
CONTINUOUS
 62
     5
 10
3060.738604
 20
725.251774
 11
3059.266264
 21
725.251774
  0
LINE
  8
CSLAYER1
  6
DASHED
 62
     2
 10
2897.716264
 20
739.551774
 11
2898.716264
 21
739.551774
  0
LINE
  8
CSLAYER1
  6
DASHED
 62
     2
 10
2896.716264
 20
738.551774
 11
2896.716264
 21
732.555280
  0
ARC
  8
CSLAYER1
  6
DASHED
 62
     2
 10
2897.716264
 20
738.551774
 40
1.000000
 50
90.000000
 51
180.000000
  0
LINE
  8
CSLAYER1
  6
DASHED
 62
     2
 10
2897.716264
 20
718.551774
 11
2898.716264
 21
718.551774
  0
ARC
  8
CSLAYER1
  6
DASHED
 62
     2
 10
2897.716264
 20
719.551774
 40
1.000000
 50
180.000000
 51
270.000000
  0
LINE
  8
CSLAYER1
  6
DASHED
 62
     2
 10
2897.816264
 20
735.551774
 11
2898.716264
 21
735.551774
  0
LINE
  8
CSLAYER1
  6
DASHED
 62
     2
 10
2897.216264
 20
734.951774
 11
2897.216264
 21
723.151774
  0
ARC
  8
CSLAYER1
  6
DASHED
 62
     2
 10
2897.816264
 20
734.951774
 40
0.600000
 50
90.000000
 51
180.000000
  0
LINE
  8
CSLAYER1
  6
DASHED
 62
     2
 10
2897.816264
 20
722.551774
 11
2898.716264
 21
722.551774
  0
ARC
  8
CSLAYER1
  6
DASHED
 62
     2
 10
2897.816264
 20
723.151774
 40
0.600000
 50
180.000000
 51
270.000000
  0
LINE
  8
CSLAYER1
  6
DASHED
 62
     2
 10
2961.566264
 20
753.051774
 11
2961.566264
 21
750.851774
  0
LINE
  8
CSLAYER1
  6
DASHED
 62
     2
 10
2968.566264
 20
753.051774
 11
2968.566264
 21
750.851774
  0
LINE
  8
CSLAYER1
  6
DASHED
 62
     2
 10
2968.566264
 20
751.851774
 11
2961.566264
 21
751.851774
  0
LINE
  8
CSLAYER1
  6
DASHED
 62
     2
 10
2967.166264
 20
754.451774
 11
2962.966264
 21
754.451774
  0
LINE
  8
CSLAYER1
  6
DASHED
 62
     2
 10
2969.566264
 20
750.851774
 11
2969.566264
 21
750.051774
  0
LINE
  8
CSLAYER1
  6
DASHED
 62
     2
 10
2960.566264
 20
750.851774
 11
2960.566264
 21
750.051774
  0
LINE
  8
CSLAYER1
  6
DASHED
 62
     2
 10
2969.566264
 20
750.851774
 11
2960.566264
 21
750.851774
  0
ARC
  8
CSLAYER1
  6
DASHED
 62
     2
 10
2967.166264
 20
753.051774
 40
1.400000
 50
-0.000000
 51
90.000000
  0
ARC
  8
CSLAYER1
  6
DASHED
 62
     2
 10
2962.966264
 20
753.051774
 40
1.400000
 50
90.000000
 51
180.000000
  0
LINE
  8
CSLAYER1
  6
DASHED
 62
     2
 10
2966.106216
 20
750.851774
 11
2963.721014
 21
751.851774
  0
LINE
  8
CSLAYER1
  6
DASHED
 62
     2
 10
2896.716264
 20
725.556137
 11
2896.716264
 21
719.551774
  0
ARC
  8
CSLAYER1
  6
DASHED
 62
     2
 10
2896.716264
 20
696.901639
 40
32.153641
 50
90.846136
 51
148.395648
  0
LINE
  8
CSLAYER1
  6
CONTINUOUS
 62
     5
 10
3093.066264
 20
719.824243
 11
3093.066264
 21
698.288442
  0
DIMENSION
  8
CSLAYER1
 62
     3
  2
*D0000
 10
3143.066264
 20
1823.655253
 11
2468.066650
 21
1838.655151
 13
1793.066264
 23
1671.049204
 14
3143.066264
 24
1671.049204
 70
1
  0
DIMENSION
  8
CSLAYER1
 62
     3
  2
*D0001
 10
3293.066264
 20
878.751774
 11
3269.501465
 21
764.949707
 13
3138.722383
 23
648.751774
 14
3138.722383
 24
878.751774
 50
90.000000
 70
1
  0
DIMENSION
  8
CSLAYER1
 62
     3
  2
*D0002
 10
3293.066264
 20
878.751774
 11
3278.066406
 21
1276.203613
 13
3293.066264
 23
1673.655253
 14
3293.066264
 24
878.751774
 50
90.000000
 70
1
  0
DIMENSION
  8
CSLAYER1
 62
     3
  2
*D0003
 10
3443.066264
 20
1673.655253
 11
3428.066650
 21
1161.203613
 13
3144.727686
 23
648.751774
 14
3144.727686
 24
1673.655253
 50
90.000000
 70
1
  0
TEXT
  8
CSLAYER1
 62
     5
 10
3555.687988
 20
660.328125
 40
60.000000
 41
1.050000
  1
Ｆ・Ｌ
 50
0.000000
 51
0.000000
  7
EASYDRAW_FONT
 72
     5
 11
3723.687988
 21
660.328125
  0
DIMENSION
  8
CSLAYER1
 62
     3
  2
*D0004
 10
1643.066264
 20
3065.669582
 11
1628.066162
 21
2690.669189
 13
1794.437833
 23
2315.669582
 14
1794.437833
 24
3065.669582
 50
90.000000
 70
1
  0
LINE
  8
CSLAYER1
  6
CONTINUOUS
 62
     5
 10
1803.066264
 20
1351.360988
 11
1689.245575
 21
1496.415456
  0
LINE
  8
CSLAYER1
  6
CONTINUOUS
 62
     5
 10
1803.066264
 20
1351.360988
 11
1767.070833
 21
1378.367078
  0
LINE
  8
CSLAYER1
  6
CONTINUOUS
 62
     5
 10
1803.066264
 20
1351.360988
 11
1785.396351
 21
1392.746664
  0
LINE
  8
CSLAYER1
  6
CONTINUOUS
 62
     5
 10
1689.245575
 20
1496.415456
 11
1271.550907
 21
1496.415456
  0
TEXT
  8
CSLAYER1
 62
     5
 10
1346.246948
 20
1506.815918
 40
60.000000
 41
0.794118
  1
４面ジャバラ
 50
0.000000
 51
0.000000
  7
EASYDRAW_FONT
 72
     5
 11
1616.246948
 21
1506.815918
  0
LINE
  8
CSLAYER1
  6
CONTINUOUS
 62
     5
 10
1991.888455
 20
922.771721
 11
1693.582674
 21
1286.066184
  0
LINE
  8
CSLAYER1
  6
CONTINUOUS
 62
     5
 10
1991.888455
 20
922.771721
 11
1955.303557
 21
948.973730
  0
LINE
  8
CSLAYER1
  6
CONTINUOUS
 62
     5
 10
1991.888455
 20
922.771721
 11
1973.306008
 21
963.755775
  0
LINE
  8
CSLAYER1
  6
CONTINUOUS
 62
     5
 10
1693.582674
 20
1286.066184
 11
1318.582674
 21
1286.066184
  0
TEXT
  8
CSLAYER1
 62
     5
 10
1329.894043
 20
1297.300781
 40
60.000000
 41
0.782609
  1
ギャードモーター
 50
0.000000
 51
0.000000
  7
EASYDRAW_FONT
 72
     5
 11
1689.894043
 21
1297.300781
  0
LINE
  8
CSLAYER1
  6
CONTINUOUS
 62
     5
 10
913.860500
 20
785.532562
 11
1247.166176
 21
1061.676425
  0
LINE
  8
CSLAYER1
  6
CONTINUOUS
 62
     5
 10
913.860500
 20
785.532562
 11
939.901412
 21
822.232302
  0
LINE
  8
CSLAYER1
  6
CONTINUOUS
 62
     5
 10
913.860500
 20
785.532562
 11
954.762461
 21
804.295014
  0
LINE
  8
CSLAYER1
  6
CONTINUOUS
 62
     5
 10
1247.166176
 20
1061.676425
 11
1646.638738
 21
1061.676425
  0
TEXT
  8
CSLAYER1
 62
     5
 10
1326.416504
 20
1072.763184
 40
60.000000
 41
0.803571
  1
上限・下限
 50
0.000000
 51
0.000000
  7
EASYDRAW_FONT
 72
     5
 11
1551.416504
 21
1072.763184
  0
TEXT
  8
CSLAYER1
 62
     5
 10
1263.156006
 20
992.142578
 40
60.000000
 41
0.782609
  1
リミットスイッチ
 50
0.000000
 51
0.000000
  7
EASYDRAW_FONT
 72
     5
 11
1623.156006
 21
992.142578
  0
LINE
  8
CSLAYER1
  6
CONTINUOUS
 62
     4
 10
401.660500
 20
1673.655253
 11
401.660500
 21
1620.655253
  0
LINE
  8
CSLAYER1
  6
CONTINUOUS
 62
     4
 10
1151.660500
 20
1673.655253
 11
1151.660500
 21
1620.655253
  0
LINE
  8
CSLAYER1
  6
CONTINUOUS
 62
     5
 10
2468.066264
 20
719.547756
 11
2468.066264
 21
701.543127
  0
DIMENSION
  8
CSLAYER1
 62
     3
  2
*D0005
 10
1076.660500
 20
498.751774
 11
776.660461
 21
513.751892
 13
476.660500
 23
648.751774
 14
1076.660500
 24
648.751774
 52
270.000000
 70
1
  0
DIMENSION
  8
CSLAYER1
 62
     3
  2
*D0006
 10
1076.660500
 20
498.751774
 11
1226.197510
 21
521.739685
 13
1141.660500
 23
498.751774
 14
1076.660500
 24
498.751774
 52
0.000000
 70
1
  0
DIMENSION
  8
CSLAYER1
 62
     3
  2
*D0007
 10
1141.660500
 20
348.751774
 11
776.660461
 21
363.751862
 13
411.660500
 23
707.751774
 14
1141.660500
 24
707.751774
 52
270.000000
 70
1
  0
DIMENSION
  8
CSLAYER1
 62
     3
  2
*D0008
 10
3059.066264
 20
498.751774
 11
2459.066406
 21
513.751892
 13
1859.066264
 23
648.751774
 14
3059.066264
 24
648.751774
 52
270.000000
 70
1
  0
DIMENSION
  8
CSLAYER1
 62
     3
  2
*D0009
 10
3059.066264
 20
498.751774
 11
3221.861816
 21
517.960876
 13
3133.066264
 23
498.751774
 14
3059.066264
 24
498.751774
 52
0.000000
 70
1
  0
DIMENSION
  8
CSLAYER1
 62
     3
  2
*D0010
 10
3133.066264
 20
348.751774
 11
2468.066406
 21
363.751862
 13
1803.066264
 23
707.751774
 14
3133.066264
 24
707.751774
 52
270.000000
 70
1
  0
LINE
  8
CSLAYER1
  6
CONTINUOUS
 62
     3
 10
3143.066264
 20
2707.882824
 11
3353.857772
 21
2707.882824
  0
LINE
  8
CSLAYER1
  6
CONTINUOUS
 62
     3
 10
3143.066264
 20
2714.882824
 11
3367.311075
 21
2714.882824
  0
LINE
  8
CSLAYER1
  6
CONTINUOUS
 62
     3
 10
3143.066264
 20
2750.082824
 11
3218.634932
 21
2750.082824
  0
LINE
  8
CSLAYER1
  6
CONTINUOUS
 62
     3
 10
3143.066264
 20
2743.082824
 11
3218.634932
 21
2743.082824
  0
LINE
  8
CSLAYER1
  6
DOT
 62
     5
 10
3083.084240
 20
713.632978
 11
3083.974147
 21
707.751774
  0
LINE
  8
CSLAYER1
  6
CONTINUOUS
 62
     5
 10
3085.428535
 20
698.140048
 11
3097.265227
 21
682.245061
  0
LINE
  8
CSLAYER1
  6
CONTINUOUS
 62
     5
 10
3097.265227
 20
682.245061
 11
3116.880317
 21
669.055604
  0
LINE
  8
CSLAYER1
  6
DOT
 62
     5
 10
3075.569778
 20
712.495936
 11
3076.287635
 21
707.751774
  0
LINE
  8
CSLAYER1
  6
CONTINUOUS
 62
     5
 10
3078.198307
 20
695.124565
 11
3091.945938
 21
676.663461
  0
LINE
  8
CSLAYER1
  6
CONTINUOUS
 62
     5
 10
3091.945938
 20
676.663461
 11
3112.639536
 21
662.748800
  0
ARC
  8
CSLAYER1
  6
DOT
 62
     5
 10
3060.738604
 20
710.251774
 40
15.000000
 50
8.604372
 51
90.000000
  0
ARC
  8
CSLAYER1
  6
DOT
 62
     5
 10
3060.738604
 20
710.251774
 40
22.600000
 50
8.604372
 51
90.000000
  0
LINE
  8
CSLAYER1
  6
CONTINUOUS
 62
     5
 10
3076.287635
 20
707.751774
 11
3078.198307
 21
695.124565
  0
LINE
  8
CSLAYER1
  6
CONTINUOUS
 62
     5
 10
3083.974147
 20
707.751774
 11
3085.428535
 21
698.140048
  0
LINE
  8
CSLAYER1
  6
CONTINUOUS
 62
     3
 10
3383.415090
 20
2707.882824
 11
3468.000680
 21
2707.882824
  0
LINE
  8
CSLAYER1
  6
CONTINUOUS
 62
     3
 10
3383.415090
 20
2714.882824
 11
3468.000680
 21
2714.882824
  0
ARC
  8
CSLAYER1
  6
CONTINUOUS
 62
     3
 10
3383.415090
 20
2667.882824
 40
47.000000
 50
-270.000000
 51
52.446082
  0
ARC
  8
CSLAYER1
  6
CONTINUOUS
 62
     3
 10
3383.415090
 20
2667.882824
 40
40.000000
 50
-270.000000
 51
67.815298
  0
LINE
  8
CSLAYER1
  6
CONTINUOUS
 62
     3
 10
3629.727011
 20
3004.688033
 11
3634.797639
 21
3006.597750
  0
LINE
  8
CSLAYER1
  6
CONTINUOUS
 62
     3
 10
3634.797639
 20
3006.597750
 11
3641.222271
 21
3006.776212
  0
LINE
  8
CSLAYER1
  6
CONTINUOUS
 62
     3
 10
3628.672682
 20
3006.077135
 11
3634.321741
 21
3008.441857
  0
LINE
  8
CSLAYER1
  6
CONTINUOUS
 62
     3
 10
3634.321741
 20
3008.441857
 11
3639.675600
 21
3009.750578
  0
LINE
  8
CSLAYER1
  6
CONTINUOUS
 62
     3
 10
3627.830487
 20
3007.186744
 11
3632.715583
 21
3010.048015
  0
LINE
  8
CSLAYER1
  6
CONTINUOUS
 62
     3
 10
3632.715583
 20
3010.048015
 11
3635.035589
 21
3013.379306
  0
ARC
  8
CSLAYER1
  6
CONTINUOUS
 62
     3
 10
3414.761635
 20
2898.075793
 40
47.000000
 50
-10.756396
 51
307.198537
  0
ARC
  8
CSLAYER1
  6
CONTINUOUS
 62
     3
 10
3414.761635
 20
2898.075793
 40
40.000000
 50
-23.471057
 51
307.198537
  0
LINE
  8
CSLAYER1
  6
CONTINUOUS
 62
     3
 10
3630.910765
 20
3003.128412
 11
3443.176837
 21
2860.638162
  0
LINE
  8
CSLAYER1
  6
CONTINUOUS
 62
     3
 10
3626.678713
 20
3008.704230
 11
3438.944786
 21
2866.213979
  0
LINE
  8
CSLAYER1
  6
CONTINUOUS
 62
     3
 10
3630.910765
 20
3003.128412
 11
3626.678713
 21
3008.704230
  0
LINE
  8
CSLAYER1
  6
CONTINUOUS
 62
     3
 10
3430.097371
 20
2850.710833
 11
3343.782738
 21
2785.197935
  0
LINE
  8
CSLAYER1
  6
CONTINUOUS
 62
     3
 10
3412.909365
 20
2846.453067
 11
3339.550687
 21
2790.773753
  0
ARC
  8
CSLAYER1
  6
CONTINUOUS
 62
     3
 10
3218.634932
 20
2950.082824
 40
200.000000
 50
270.000000
 51
307.198537
  0
ARC
  8
CSLAYER1
  6
CONTINUOUS
 62
     3
 10
3218.634932
 20
2950.082824
 40
207.000000
 50
270.000000
 51
307.198537
  0
LINE
  8
CSLAYER1
  6
CONTINUOUS
 62
     5
 10
3639.808671
 20
3020.483881
 11
3722.754846
 21
3231.690780
  0
LINE
  8
CSLAYER1
  6
CONTINUOUS
 62
     5
 10
3639.808671
 20
3020.483881
 11
3644.856901
 21
3065.199822
  0
LINE
  8
CSLAYER1
  6
CONTINUOUS
 62
     5
 10
3639.808671
 20
3020.483881
 11
3666.538537
 21
3056.684907
  0
LINE
  8
CSLAYER1
  6
CONTINUOUS
 62
     5
 10
3722.754846
 20
3231.690780
 11
4038.237878
 21
3231.690780
  0
LINE
  8
CSLAYER1
  6
CONTINUOUS
 62
     5
 10
3526.350319
 20
2664.235249
 11
3378.863968
 21
2202.538845
  0
LINE
  8
CSLAYER1
  6
CONTINUOUS
 62
     5
 10
3526.350319
 20
2664.235249
 11
3524.218139
 21
2619.285790
  0
LINE
  8
CSLAYER1
  6
CONTINUOUS
 62
     5
 10
3526.350319
 20
2664.235249
 11
3502.029068
 21
2626.373966
  0
LINE
  8
CSLAYER1
  6
CONTINUOUS
 62
     5
 10
3378.863968
 20
2202.538845
 11
3843.583063
 21
2202.538845
  0
TEXT
  8
CSLAYER2
 62
     5
 10
4393.588055
 20
3088.681044
 40
49.936253
 41
0.933410
  1
GLI-1000-0713J
 50
0.000000
 51
0.000000
  7
EASYDRAW_FONT
 72
     5
 11
5030.605305
 21
3088.681044
  0
TEXT
  8
CSLAYER1
 62
     4
 10
4008.283203
 20
2146.234131
 40
60.000000
 41
1.036364
  1
操作方式
 50
0.000000
 51
0.000000
  7
EASYDRAW_FONT
 72
     5
 11
4236.283203
 21
2146.234131
  0
TEXT
  8
CSLAYER1
 62
     4
 10
4430.745605
 20
2138.293701
 40
60.000000
 41
1.020000
  1
フットスイッチ
 50
0.000000
 51
0.000000
  7
EASYDRAW_FONT
 72
     5
 11
4838.745605
 21
2138.293701
  0
LINE
  8
CSLAYER1
  6
CONTINUOUS
 62
     5
 10
5074.979102
 20
2128.194737
 11
3993.670326
 21
2128.194737
  0
LINE
  8
CSLAYER1
  6
CONTINUOUS
 62
     5
 10
5074.979102
 20
2032.194739
 11
3993.670326
 21
2032.194739
  0
TEXT
  8
CSLAYER1
 62
     4
 10
4010.429688
 20
2047.124756
 40
60.000000
 41
0.872727
  1
モーター
 50
0.000000
 51
0.000000
  7
EASYDRAW_FONT
 72
     5
 11
4202.429688
 21
2047.124756
  0
LINE
  8
CSLAYER1
  6
CONTINUOUS
 62
     5
 10
5074.979102
 20
1936.194742
 11
3993.670326
 21
1936.194742
  0
LINE
  8
CSLAYER1
  6
CONTINUOUS
 62
     5
 10
5074.979102
 20
1744.194746
 11
3990.462573
 21
1744.194746
  0
LINE
  8
CSLAYER1
  6
CONTINUOUS
 62
     5
 10
5074.979102
 20
1648.194749
 11
3993.670326
 21
1648.194749
  0
LINE
  8
CSLAYER1
  6
CONTINUOUS
 62
     5
 10
5074.979102
 20
1552.194751
 11
3993.670326
 21
1552.194751
  0
TEXT
  8
CSLAYER1
 62
     4
 10
4014.302246
 20
1568.877441
 40
60.000000
 41
0.857143
  1
自  　重
 50
0.000000
 51
0.000000
  7
EASYDRAW_FONT
 72
     5
 11
4254.302246
 21
1568.877441
  0
TEXT
  8
CSLAYER1
 62
     4
 10
4018.726074
 20
1472.770996
 40
60.000000
 41
0.847059
  1
塗　装　色 
 50
0.000000
 51
0.000000
  7
EASYDRAW_FONT
 72
     5
 11
4306.726074
 21
1472.770996
  0
TEXT
  8
CSLAYER1
 62
     4
 10
4357.089355
 20
2048.499756
 40
60.000000
 41
0.819512
  1
３相ＡＣ２００Ｖ、0.4ＫＷ
 50
0.000000
 51
0.000000
  7
EASYDRAW_FONT
 72
     5
 11
5029.089355
 21
2048.499756
  0
TEXT
  8
CSLAYER1
 62
     4
 10
4553.564453
 20
1952.734741
 40
60.000000
 41
0.840000
  1
長サ  ４ ｍ
 50
0.000000
 51
0.000000
  7
EASYDRAW_FONT
 72
     5
 11
4889.564453
 21
1952.734741
  0
TEXT
  8
CSLAYER1
 62
     3
 10
4722.523926
 20
1571.726563
 40
60.000000
 41
0.847059
  1
２０４　Ｋｇ
 50
0.000000
 51
0.000000
  7
EASYDRAW_FONT
 72
     5
 11
5010.523926
 21
1571.726563
  0
LINE
  8
CSLAYER1
  6
CONTINUOUS
 62
     5
 10
5074.979102
 20
1840.194744
 11
3993.670326
 21
1840.194744
  0
TEXT
  8
CSLAYER1
 62
     4
 10
4011.804688
 20
1952.148804
 40
60.000000
 41
0.942857
  1
電源コード
 50
0.000000
 51
0.000000
  7
EASYDRAW_FONT
 72
     5
 11
4275.804688
 21
1952.148804
  0
TEXT
  8
CSLAYER1
 62
     4
 10
4012.447546
 20
1848.466873
 40
71.595306
 41
0.593339
  1
昇降時間 ３６秒（50HZ） ３０秒(60HZ)
 50
0.000000
 51
0.000000
  7
EASYDRAW_FONT
 72
     5
 11
5017.815149
 21
1848.466873
  0
TEXT
  8
CSLAYER1
 62
     4
 10
4014.398926
 20
1660.302246
 40
60.000000
 41
0.912766
  1
上昇端、下降端リミットスイッチ付
 50
0.000000
 51
0.000000
  7
EASYDRAW_FONT
 72
     5
 11
4872.398926
 21
1660.302246
  0
TEXT
  8
CSLAYER1
 62
     4
 10
4017.168809
 20
1757.297684
 40
68.819672
 41
0.605080
  1
最大使用頻度８０回／時間・最大起動頻度１０回／分
 50
0.000000
 51
0.000000
  7
EASYDRAW_FONT
 72
     5
 11
5002.681777
 21
1757.297684
  0
LINE
  8
CSLAYER1
  6
CONTINUOUS
 62
     5
 10
5074.979102
 20
2214.192743
 11
3993.670326
 21
2214.192743
  0
TEXT
  8
CSLAYER1
 62
     4
 10
4308.412598
 20
2231.793213
 40
60.000000
 41
0.825000
  1
マグネットスイッチ制御
 50
0.000000
 51
0.000000
  7
EASYDRAW_FONT
 72
     5
 11
4836.412598
 21
2231.793213
  0
TEXT
  8
CSLAYER1
 62
     4
 10
4013.832031
 20
2228.809326
 40
60.000000
 41
0.872727
  1
制御方式
 50
0.000000
 51
0.000000
  7
EASYDRAW_FONT
 72
     5
 11
4205.832031
 21
2228.809326
  0
INSERT
  8
CSLAYER1
  2
BLKF0002
 10
0.0
 20
0.0
 30
0.0
  0
LINE
  8
CSLAYER1
  6
CONTINUOUS
 62
     5
 10
5074.979102
 20
1456.194754
 11
3993.670326
 21
1456.194754
  0
TEXT
  8
CSLAYER1
 62
     4
 10
4483.491699
 20
1472.201660
 40
60.000000
 41
0.920690
  1
　　　１０Ｒ４／１３
 50
0.000000
 51
0.000000
  7
EASYDRAW_FONT
 72
     5
 11
5017.491699
 21
1472.201660
  0
TEXT
  8
CSLAYER1
 62
     5
 10
3414.704590
 20
2066.933350
 40
60.000000
 41
1.020000
  1
コード長サ２ｍ
 50
360.000000
 51
0.000000
  7
EASYDRAW_FONT
 72
     5
 11
3822.704590
 21
2066.933350
  0
TEXT
  8
CSLAYER1
 62
     5
 10
4008.283203
 20
3000.232178
 40
60.000000
 41
1.036364
  1
積載荷重
 50
0.000000
 51
0.000000
  7
EASYDRAW_FONT
 72
     5
 11
4236.283203
 21
3000.232178
  0
TEXT
  8
CSLAYER1
 62
     5
 10
1297.587708
 20
1408.318604
 40
69.949539
 41
0.348498
  1
ポリエステル地に樹脂コーティング
 50
0.000000
 51
0.000000
  7
EASYDRAW_FONT
 72
     5
 11
1679.498169
 21
1408.318604
  0
ENDSEC
  0
EOF
