  0
SECTION
  2
HEADER
  9
$ACADVER
  1
AC1006
  9
$INSBASE
 10
-890.219870
 20
2419.315961
 30
0.0
  9
$EXTMIN
 10
-890.219870
 20
2419.315961
  9
$EXTMAX
 10
2749.780130
 20
4989.315961
  9
$LIMMIN
 10
-890.219870
 20
2419.315961
  9
$LIMMAX
 10
2749.780130
 20
4989.315961
  9
$VIEWCTR
 10
929.780130
 20
3704.315961
  9
$VIEWSIZE
 40
2570.000000
  9
$SNAPMODE
 70
     0
  9
$SNAPUNIT
 10
1.0
 20
1.0
  9
$SNAPBASE
 10
0.0
 20
0.0
  9
$SNAPANG
 50
0.0
  9
$SNAPSTYLE
 70
     0
  9
$SNAPISOPAIR
 70
     0
  9
$GRIDMODE
 70
     0
  9
$GRIDUNIT
 10
0.0
 20
0.0
  9
$ORTHOMODE
 70
     0
  9
$REGENMODE
 70
     1
  9
$FILLMODE
 70
     1
  9
$QTEXTMODE
 70
     0
  9
$DRAGMODE
 70
     2
  9
$LTSCALE
 40
15.000000
  9
$OSMODE
 70
     0
  9
$ATTMODE
 70
     1
  9
$TEXTSIZE
 40
0.2
  9
$TRACEWID
 40
0.05
  9
$TEXTSTYLE
  7
STANDARD
  9
$CLAYER
  8
CSLAYER1
  9
$CELTYPE
  6
BYLAYER
  9
$CECOLOR
 62
   256
  9
$DIMSCALE
 40
1.0
  9
$DIMASZ
 40
0.18
  9
$DIMEXO
 40
0.0625
  9
$DIMDLI
 40
0.38
  9
$DIMRND
 40
0.0
  9
$DIMDLE
 40
0.0
  9
$DIMEXE
 40
0.18
  9
$DIMTP
 40
0.0
  9
$DIMTM
 40
0.0
  9
$DIMTXT
 40
0.18
  9
$DIMCEN
 40
0.09
  9
$DIMTSZ
 40
0.0
  9
$DIMTOL
 70
     0
  9
$DIMLIM
 70
     0
  9
$DIMTIH
 70
     1
  9
$DIMTOH
 70
     1
  9
$DIMSE1
 70
     0
  9
$DIMSE2
 70
     0
  9
$DIMTAD
 70
     0
  9
$DIMZIN
 70
     0
  9
$DIMBLK
  1

  9
$LUNITS
 70
     2
  9
$LUPREC
 70
     4
  9
$AXISMODE
 70
     0
  9
$AXISUNIT
 10
0.0
 20
0.0
  9
$SKETCHINC
 40
0.1
  9
$FILLETRAD
 40
0.0
  9
$AUNITS
 70
     0
  9
$AUPREC
 70
     0
  9
$MENU
  1
ACAD
  9
$ELEVATION
 40
0.0
  9
$THICKNESS
 40
0.0
  9
$VIEWDIR
 10
0.0
 20
0.0
 30
1.0
  9
$LIMCHECK
 70
     0
  9
$BLIPMODE
 70
     1
  9
$CHAMFERA
 40
0.0
  9
$CHAMFERB
 40
0.0
  9
$FASTZOOM
 70
     1
  9
$SKPOLY
 70
     0
  9
$TDCREATE
 40
2457497.000000
  9
$TDUPDATE
 40
2457497.000000
  9
$TDINDWG
 40
0.0
  9
$TDUSRTIMER
 40
0.0
  9
$USRTIMER
 70
     1
  9
$ANGBASE
 50
0.0
  9
$ANGDIR
 70
     0
  9
$PDMODE
 70
     0
  9
$PDSIZE
 40
0.0
  9
$PLINEWID
 40
0.0
  9
$COORDS
 70
     0
  9
$USERI1
 70
     0
  9
$USERI2
 70
     0
  9
$USERI3
 70
     0
  9
$USERI4
 70
     0
  9
$USERI5
 70
     0
  9
$USERR1
 40
0.0
  9
$USERR2
 40
0.0
  9
$USERR3
 40
0.0
  9
$USERR4
 40
0.0
  9
$USERR5
 40
0.0
  0
ENDSEC
  0
SECTION
  2
TABLES
  0
TABLE
  2
LTYPE
 70
     9
  0
LTYPE
  2
CONTINUOUS
 70
    64
  3
Solid line
 72
    65
 73
     0
 40
0.0
  0
LTYPE
  2
DASHED
 70
    64
  3
__ __ __ __ __ __ __ __ __ __ __ __ __ __ __
 72
    65
 73
     2
 40
0.75
 49
0.5
 49
-0.25
  0
LTYPE
  2
HIDDEN
 70
    64
  3
_ _ _ _ _ _ _ _ _ _ _ _ _ _ _ _ _ _ _ _ _ _ _
 72
    65
 73
     2
 40
0.375
 49
0.25
 49
-0.125
  0
LTYPE
  2
DOT
 70
    64
  3
...............................................
 72
    65
 73
     2
 40
0.25
 49
0.0
 49
-0.25
  0
LTYPE
  2
DASHDOT
 70
    64
  3
__ . __ . __ . __ . __ . __ . __ . __ . __ . __
 72
    65
 73
     4
 40
1.0
 49
0.5
 49
-0.25
 49
0.0
 49
-0.25
  0
LTYPE
  2
DIVIDE
 70
    64
  3
__ . . __ . . __ . . __ . . __ . . __ . . __
 72
    65
 73
     6
 40
1.25
 49
0.5
 49
-0.25
 49
0.0
 49
-0.25
 49
0.0
 49
-0.25
  0
LTYPE
  2
CENTER
 70
    64
  3
____ _ ____ _ ____ _ ____ _ ____ _ ____ _ ____ 
 72
    65
 73
     4
 40
2.0
 49
1.25
 49
-0.25
 49
0.25
 49
-0.25
  0
LTYPE
  2
PHANTOM
 70
    64
  3
______  __  __  ______  __  __  ______  __  __ 
 72
    65
 73
     6
 40
2.5
 49
1.25
 49
-0.25
 49
0.25
 49
-0.25
 49
0.25
 49
-0.25
  0
LTYPE
  2
BORDER
 70
    64
  3
__ __ . __ __ . __ __ . __ __ . __ __ . __ __ .
 72
    65
 73
     6
 40
1.75
 49
0.5
 49
-0.25
 49
0.5
 49
-0.25
 49
0.0
 49
-0.25
  0
ENDTAB
  0
TABLE
  2
LAYER
 70
    16
  0
LAYER
  2
CSLAYER1
 70
    64
 62
     7
  6
CONTINUOUS
  0
LAYER
  2
CSLAYER2
 70
    64
 62
     7
  6
CONTINUOUS
  0
LAYER
  2
CSLAYER3
 70
    64
 62
     7
  6
CONTINUOUS
  0
LAYER
  2
CSLAYER4
 70
    64
 62
     7
  6
CONTINUOUS
  0
LAYER
  2
CSLAYER5
 70
    64
 62
     7
  6
CONTINUOUS
  0
LAYER
  2
CSLAYER6
 70
    64
 62
     7
  6
CONTINUOUS
  0
LAYER
  2
CSLAYER7
 70
    64
 62
     7
  6
CONTINUOUS
  0
LAYER
  2
CSLAYER8
 70
    64
 62
     7
  6
CONTINUOUS
  0
LAYER
  2
CSLAYER9
 70
    64
 62
     7
  6
CONTINUOUS
  0
LAYER
  2
CSLAYER10
 70
    64
 62
     7
  6
CONTINUOUS
  0
LAYER
  2
CSLAYER11
 70
    64
 62
     7
  6
CONTINUOUS
  0
LAYER
  2
CSLAYER12
 70
    64
 62
     7
  6
CONTINUOUS
  0
LAYER
  2
CSLAYER13
 70
    64
 62
     7
  6
CONTINUOUS
  0
LAYER
  2
CSLAYER14
 70
    64
 62
     7
  6
CONTINUOUS
  0
LAYER
  2
CSLAYER15
 70
    64
 62
     7
  6
CONTINUOUS
  0
LAYER
  2
CSLAYER16
 70
    64
 62
     7
  6
CONTINUOUS
  0
ENDTAB
  0
TABLE
  2
STYLE
 70
     1
  0
STYLE
  2
EASYDRAW_FONT
 70
     0
 40
1.0
 41
1.0
 50
0.0
 71
     0
 42
1.0
  3
monotxt
  4
bigfont
  0
ENDTAB
  0
TABLE
  2
VIEW
 70
     0
  0
ENDTAB
  0
ENDSEC
  0
SECTION
  2
BLOCKS
  0
BLOCK
  8
CSLAYER1
  2
*D0000
 70
    65
 10
0.0
 20
0.0
 30
0.0
  0
TEXT
  8
CSLAYER1
 62
     7
 10
2320.954346
 20
414.893402
 40
40.000000
 41
0.843750
  1
230
 50
90.000000
 51
0.000000
  7
EASYDRAW_FONT
 72
     5
 11
2320.954346
 21
504.893402
  0
LINE
  8
CSLAYER1
  6
CONTINUOUS
 62
     5
 10
2234.675204
 20
575.127095
 11
2338.612490
 21
575.127095
  0
LINE
  8
CSLAYER1
  6
CONTINUOUS
 62
     5
 10
2328.612490
 20
345.127095
 11
2328.612490
 21
575.127095
  0
LINE
  8
CSLAYER1
  6
CONTINUOUS
 62
     5
 10
2328.612490
 20
345.127095
 11
2320.847919
 21
374.104870
  0
LINE
  8
CSLAYER1
  6
CONTINUOUS
 62
     5
 10
2328.612490
 20
345.127095
 11
2336.377062
 21
374.104870
  0
LINE
  8
CSLAYER1
  6
CONTINUOUS
 62
     5
 10
2328.612490
 20
575.127095
 11
2320.847919
 21
546.149321
  0
LINE
  8
CSLAYER1
  6
CONTINUOUS
 62
     5
 10
2328.612490
 20
575.127095
 11
2336.377062
 21
546.149321
  0
ENDBLK
  8
0
  0
BLOCK
  8
CSLAYER1
  2
*D0001
 70
    65
 10
0.0
 20
0.0
 30
0.0
  0
TEXT
  8
CSLAYER1
 62
     7
 10
2318.612549
 20
927.578918
 40
40.000000
 41
0.843750
  1
780
 50
90.000000
 51
0.000000
  7
EASYDRAW_FONT
 72
     5
 11
2318.612549
 21
1017.578918
  0
LINE
  8
CSLAYER1
  6
CONTINUOUS
 62
     5
 10
2328.612490
 20
575.127095
 11
2328.612490
 21
1370.030575
  0
LINE
  8
CSLAYER1
  6
CONTINUOUS
 62
     5
 10
2328.612490
 20
575.127095
 11
2320.847919
 21
604.104870
  0
LINE
  8
CSLAYER1
  6
CONTINUOUS
 62
     5
 10
2328.612490
 20
575.127095
 11
2336.377062
 21
604.104870
  0
LINE
  8
CSLAYER1
  6
CONTINUOUS
 62
     5
 10
2328.612490
 20
1370.030575
 11
2320.847919
 21
1341.052800
  0
LINE
  8
CSLAYER1
  6
CONTINUOUS
 62
     5
 10
2328.612490
 20
1370.030575
 11
2336.377062
 21
1341.052800
  0
ENDBLK
  8
0
  0
BLOCK
  8
CSLAYER1
  2
*D0002
 70
    65
 10
0.0
 20
0.0
 30
0.0
  0
TEXT
  8
CSLAYER1
 62
     7
 10
2430.096680
 20
797.578918
 40
40.000000
 41
0.818182
  1
1010
 50
90.000000
 51
0.000000
  7
EASYDRAW_FONT
 72
     5
 11
2430.096680
 21
917.578918
  0
LINE
  8
CSLAYER1
  6
CONTINUOUS
 62
     5
 10
2234.675204
 20
1370.030575
 11
2450.096509
 21
1370.030575
  0
LINE
  8
CSLAYER1
  6
CONTINUOUS
 62
     5
 10
2440.096509
 20
345.127095
 11
2440.096509
 21
1370.030575
  0
LINE
  8
CSLAYER1
  6
CONTINUOUS
 62
     5
 10
2440.096509
 20
345.127095
 11
2432.331937
 21
374.104870
  0
LINE
  8
CSLAYER1
  6
CONTINUOUS
 62
     5
 10
2440.096509
 20
345.127095
 11
2447.861080
 21
374.104870
  0
LINE
  8
CSLAYER1
  6
CONTINUOUS
 62
     5
 10
2440.096509
 20
1370.030575
 11
2432.331937
 21
1341.052800
  0
LINE
  8
CSLAYER1
  6
CONTINUOUS
 62
     5
 10
2440.096509
 20
1370.030575
 11
2447.861080
 21
1341.052800
  0
ENDBLK
  8
0
  0
BLOCK
  8
CSLAYER1
  2
*D0003
 70
    65
 10
0.0
 20
0.0
 30
0.0
  0
TEXT
  8
CSLAYER1
 62
     7
 10
1564.675171
 20
1480.118530
 40
40.000000
 41
0.818182
  1
1200
 50
0.000000
 51
0.000000
  7
EASYDRAW_FONT
 72
     5
 11
1684.675171
 21
1480.118530
  0
LINE
  8
CSLAYER1
  6
CONTINUOUS
 62
     5
 10
1024.675204
 20
1380.030575
 11
1024.675204
 21
1480.118334
  0
LINE
  8
CSLAYER1
  6
CONTINUOUS
 62
     5
 10
1024.675204
 20
1470.118334
 11
2224.675204
 21
1470.118334
  0
LINE
  8
CSLAYER1
  6
CONTINUOUS
 62
     5
 10
1024.675204
 20
1470.118334
 11
1053.652979
 21
1477.882906
  0
LINE
  8
CSLAYER1
  6
CONTINUOUS
 62
     5
 10
1024.675204
 20
1470.118334
 11
1053.652979
 21
1462.353763
  0
LINE
  8
CSLAYER1
  6
CONTINUOUS
 62
     5
 10
2224.675204
 20
1470.118334
 11
2195.697429
 21
1477.882906
  0
LINE
  8
CSLAYER1
  6
CONTINUOUS
 62
     5
 10
2224.675204
 20
1470.118334
 11
2195.697429
 21
1462.353763
  0
LINE
  8
CSLAYER1
  6
CONTINUOUS
 62
     5
 10
2224.675204
 20
1380.030575
 11
2224.675204
 21
1480.118334
  0
ENDBLK
  8
0
  0
BLOCK
  8
CSLAYER1
  2
*D0004
 70
    65
 10
0.0
 20
0.0
 30
0.0
  0
TEXT
  8
CSLAYER1
 62
     7
 10
1564.675171
 20
247.926605
 40
40.000000
 41
0.818182
  1
1200
 50
360.000000
 51
0.000000
  7
EASYDRAW_FONT
 72
     5
 11
1684.675171
 21
247.926605
  0
LINE
  8
CSLAYER1
  6
CONTINUOUS
 62
     5
 10
1024.675204
 20
335.127095
 11
1024.675204
 21
227.926554
  0
LINE
  8
CSLAYER1
  6
CONTINUOUS
 62
     5
 10
1024.675204
 20
237.926554
 11
2224.675204
 21
237.926554
  0
LINE
  8
CSLAYER1
  6
CONTINUOUS
 62
     5
 10
1024.675204
 20
237.926554
 11
1053.652979
 21
245.691125
  0
LINE
  8
CSLAYER1
  6
CONTINUOUS
 62
     5
 10
1024.675204
 20
237.926554
 11
1053.652979
 21
230.161982
  0
LINE
  8
CSLAYER1
  6
CONTINUOUS
 62
     5
 10
2224.675204
 20
237.926554
 11
2195.697429
 21
245.691125
  0
LINE
  8
CSLAYER1
  6
CONTINUOUS
 62
     5
 10
2224.675204
 20
237.926554
 11
2195.697429
 21
230.161982
  0
LINE
  8
CSLAYER1
  6
CONTINUOUS
 62
     5
 10
2224.675204
 20
335.127095
 11
2224.675204
 21
227.926554
  0
ENDBLK
  8
0
  0
BLOCK
  8
CSLAYER1
  2
*D0005
 70
    65
 10
0.0
 20
0.0
 30
0.0
  0
TEXT
  8
CSLAYER1
 62
     7
 10
479.675232
 20
247.926605
 40
40.000000
 41
0.843750
  1
600
 50
0.000000
 51
0.000000
  7
EASYDRAW_FONT
 72
     5
 11
569.675232
 21
247.926605
  0
LINE
  8
CSLAYER1
  6
CONTINUOUS
 62
     5
 10
224.675204
 20
335.127095
 11
224.675204
 21
227.926554
  0
LINE
  8
CSLAYER1
  6
CONTINUOUS
 62
     5
 10
824.675204
 20
335.127095
 11
824.675204
 21
227.926554
  0
LINE
  8
CSLAYER1
  6
CONTINUOUS
 62
     5
 10
224.675204
 20
237.926554
 11
824.675204
 21
237.926554
  0
LINE
  8
CSLAYER1
  6
CONTINUOUS
 62
     5
 10
224.675204
 20
237.926554
 11
253.652979
 21
245.691125
  0
LINE
  8
CSLAYER1
  6
CONTINUOUS
 62
     5
 10
224.675204
 20
237.926554
 11
253.652979
 21
230.161982
  0
LINE
  8
CSLAYER1
  6
CONTINUOUS
 62
     5
 10
824.675204
 20
237.926554
 11
795.697429
 21
245.691125
  0
LINE
  8
CSLAYER1
  6
CONTINUOUS
 62
     5
 10
824.675204
 20
237.926554
 11
795.697429
 21
230.161982
  0
ENDBLK
  8
0
  0
BLOCK
  8
CSLAYER1
  2
*D0006
 70
    65
 10
0.0
 20
0.0
 30
0.0
  0
TEXT
  8
CSLAYER1
 62
     7
 10
904.525635
 20
1783.516479
 40
40.000000
 41
0.843750
  1
600
 50
90.000000
 51
0.000000
  7
EASYDRAW_FONT
 72
     5
 11
904.525635
 21
1873.516479
  0
LINE
  8
CSLAYER1
  6
CONTINUOUS
 62
     5
 10
1014.015706
 20
1528.516710
 11
904.525732
 21
1528.516710
  0
LINE
  8
CSLAYER1
  6
CONTINUOUS
 62
     5
 10
1014.015706
 20
2128.516710
 11
904.525732
 21
2128.516710
  0
LINE
  8
CSLAYER1
  6
CONTINUOUS
 62
     5
 10
914.525732
 20
1528.516710
 11
914.525732
 21
2128.516710
  0
LINE
  8
CSLAYER1
  6
CONTINUOUS
 62
     5
 10
914.525732
 20
1528.516710
 11
906.761161
 21
1557.494485
  0
LINE
  8
CSLAYER1
  6
CONTINUOUS
 62
     5
 10
914.525732
 20
1528.516710
 11
922.290304
 21
1557.494485
  0
LINE
  8
CSLAYER1
  6
CONTINUOUS
 62
     5
 10
914.525732
 20
2128.516710
 11
906.761161
 21
2099.538936
  0
LINE
  8
CSLAYER1
  6
CONTINUOUS
 62
     5
 10
914.525732
 20
2128.516710
 11
922.290304
 21
2099.538936
  0
ENDBLK
  8
0
  0
BLOCK
  8
CSLAYER1
  2
BLKF0000
 70
   64
 10
0.0
 20
0.0
 30
0.0
  0
ARC
  8
CSLAYER1
  6
CONTINUOUS
 62
     5
 10
2781.909508
 20
79.335220
 40
3.549225
 50
6.429109
 51
73.182034
  0
ARC
  8
CSLAYER1
  6
CONTINUOUS
 62
     5
 10
2778.448538
 20
78.176827
 40
6.907754
 50
310.517970
 51
330.092764
  0
ARC
  8
CSLAYER1
  6
CONTINUOUS
 62
     5
 10
2778.387888
 20
78.542345
 40
7.148321
 50
-32.205059
 51
9.585194
  0
ARC
  8
CSLAYER1
  6
CONTINUOUS
 62
     5
 10
2781.680616
 20
75.781346
 40
4.767514
 50
180.000000
 51
218.514150
  0
ARC
  8
CSLAYER1
  6
CONTINUOUS
 62
     5
 10
2780.393895
 20
75.104206
 40
3.348282
 50
222.781148
 51
319.406906
  0
ARC
  8
CSLAYER1
  6
CONTINUOUS
 62
     5
 10
2783.459537
 20
76.194099
 40
6.559434
 50
94.574282
 51
183.607718
  0
LINE
  8
CSLAYER1
  6
CONTINUOUS
 62
     5
 10
2796.903443
 20
71.077266
 11
2796.046407
 21
68.038683
  0
LINE
  8
CSLAYER1
  6
CONTINUOUS
 62
     5
 10
2798.695428
 20
90.944924
 11
2796.591794
 21
93.671857
  0
LINE
  8
CSLAYER1
  6
CONTINUOUS
 62
     5
 10
2796.591794
 20
93.671857
 11
2789.838440
 21
97.429769
  0
LINE
  8
CSLAYER1
  6
CONTINUOUS
 62
     5
 10
2789.838440
 20
97.429769
 11
2782.936412
 21
98.232640
  0
LINE
  8
CSLAYER1
  6
CONTINUOUS
 62
     5
 10
2764.647187
 20
84.853966
 11
2766.793881
 21
89.818197
  0
LINE
  8
CSLAYER1
  6
CONTINUOUS
 62
     5
 10
2766.756884
 20
89.732640
 11
2768.940576
 21
92.367396
  0
LINE
  8
CSLAYER1
  6
CONTINUOUS
 62
     5
 10
2768.940576
 20
92.367396
 11
2772.244998
 21
94.732640
  0
LINE
  8
CSLAYER1
  6
CONTINUOUS
 62
     5
 10
2782.936412
 20
98.232640
 11
2781.418237
 21
97.465795
  0
LINE
  8
CSLAYER1
  6
CONTINUOUS
 62
     5
 10
2781.418237
 20
97.465795
 11
2777.929858
 21
97.465795
  0
LINE
  8
CSLAYER1
  6
CONTINUOUS
 62
     5
 10
2777.929858
 20
97.465795
 11
2774.374396
 21
95.520354
  0
LINE
  8
CSLAYER1
  6
CONTINUOUS
 62
     5
 10
2774.374396
 20
95.520354
 11
2772.244998
 21
94.732640
  0
LINE
  8
CSLAYER1
  6
CONTINUOUS
 62
     5
 10
2764.647187
 20
84.853966
 11
2763.129640
 21
77.305363
  0
LINE
  8
CSLAYER1
  6
CONTINUOUS
 62
     5
 10
2763.129640
 20
77.305363
 11
2762.936412
 21
74.732640
  0
LINE
  8
CSLAYER1
  6
CONTINUOUS
 62
     5
 10
2765.645795
 20
66.892857
 11
2762.936412
 21
72.988969
  0
LINE
  8
CSLAYER1
  6
CONTINUOUS
 62
     5
 10
2762.936412
 20
72.988969
 11
2762.936412
 21
74.732640
  0
LINE
  8
CSLAYER1
  6
CONTINUOUS
 62
     5
 10
2796.046407
 20
68.038683
 11
2794.360620
 21
65.035677
  0
LINE
  8
CSLAYER1
  6
CONTINUOUS
 62
     5
 10
2794.360620
 20
65.035677
 11
2792.936412
 21
63.716966
  0
ARC
  8
CSLAYER1
  6
CONTINUOUS
 62
     5
 10
2780.744468
 20
75.269400
 40
17.266626
 50
208.054813
 51
260.640470
  0
ARC
  8
CSLAYER1
  6
CONTINUOUS
 62
     5
 10
2775.551072
 20
88.011870
 40
29.874611
 50
274.579659
 51
305.587364
  0
ARC
  8
CSLAYER1
  6
CONTINUOUS
 62
     5
 10
2786.523421
 20
82.028147
 40
15.088627
 50
313.467013
 51
331.085078
  0
LINE
  8
CSLAYER1
  6
CONTINUOUS
 62
     5
 10
2801.314754
 20
78.246061
 11
2801.612048
 21
82.028147
  0
LINE
  8
CSLAYER1
  6
CONTINUOUS
 62
     5
 10
2801.612048
 20
82.028147
 11
2800.320051
 21
88.137130
  0
LINE
  8
CSLAYER1
  6
CONTINUOUS
 62
     5
 10
2801.314754
 20
78.246061
 11
2799.731079
 21
74.732640
  0
ARC
  8
CSLAYER1
  6
CONTINUOUS
 62
     5
 10
2786.523421
 20
82.028147
 40
15.088627
 50
23.883193
 51
36.225170
  0
LINE
  8
CSLAYER1
  6
CONTINUOUS
 62
     5
 10
2746.936412
 20
109.732640
 11
2747.936412
 21
110.825284
  0
LINE
  8
CSLAYER1
  6
CONTINUOUS
 62
     5
 10
2746.936412
 20
109.732640
 11
2748.513370
 21
108.287607
  0
LINE
  8
CSLAYER1
  6
CONTINUOUS
 62
     5
 10
2750.052583
 20
106.178315
 11
2750.078851
 21
104.010196
  0
LINE
  8
CSLAYER1
  6
CONTINUOUS
 62
     5
 10
2750.078851
 20
104.010196
 11
2750.286249
 21
103.249737
  0
LINE
  8
CSLAYER1
  6
CONTINUOUS
 62
     5
 10
2750.286249
 20
103.249737
 11
2750.873877
 21
102.523844
  0
LINE
  8
CSLAYER1
  6
CONTINUOUS
 62
     5
 10
2750.873877
 20
102.523844
 11
2751.461504
 21
102.592977
  0
LINE
  8
CSLAYER1
  6
CONTINUOUS
 62
     5
 10
2751.461504
 20
102.592977
 11
2752.083698
 21
102.765808
  0
LINE
  8
CSLAYER1
  6
CONTINUOUS
 62
     5
 10
2752.083698
 20
102.765808
 11
2752.498494
 21
102.592977
  0
LINE
  8
CSLAYER1
  6
CONTINUOUS
 62
     5
 10
2752.498494
 20
102.592977
 11
2753.397219
 21
102.143614
  0
LINE
  8
CSLAYER1
  6
CONTINUOUS
 62
     5
 10
2753.397219
 20
102.143614
 11
2754.173270
 21
101.732640
  0
LINE
  8
CSLAYER1
  6
CONTINUOUS
 62
     5
 10
2754.173270
 20
101.732640
 11
2754.676173
 21
101.763385
  0
LINE
  8
CSLAYER1
  6
CONTINUOUS
 62
     5
 10
2754.676173
 20
101.763385
 11
2757.484045
 21
103.209864
  0
LINE
  8
CSLAYER1
  6
CONTINUOUS
 62
     5
 10
2747.936412
 20
110.825284
 11
2748.269264
 21
112.298991
  0
LINE
  8
CSLAYER1
  6
CONTINUOUS
 62
     5
 10
2748.269264
 20
112.298991
 11
2749.722669
 21
112.449344
  0
LINE
  8
CSLAYER1
  6
CONTINUOUS
 62
     5
 10
2751.216428
 20
115.217802
 11
2752.970601
 21
115.374892
  0
LINE
  8
CSLAYER1
  6
CONTINUOUS
 62
     5
 10
2752.970601
 20
115.374892
 11
2756.505128
 21
116.212706
  0
LINE
  8
CSLAYER1
  6
CONTINUOUS
 62
     5
 10
2756.505128
 20
116.212706
 11
2757.936412
 21
116.544345
  0
LINE
  8
CSLAYER1
  6
CONTINUOUS
 62
     5
 10
2751.216428
 20
115.217802
 11
2749.283537
 21
115.376670
  0
LINE
  8
CSLAYER1
  6
CONTINUOUS
 62
     5
 10
2748.547414
 20
114.507983
 11
2748.640939
 21
114.136822
  0
LINE
  8
CSLAYER1
  6
CONTINUOUS
 62
     5
 10
2748.640939
 20
114.136822
 11
2749.132533
 21
113.599141
  0
LINE
  8
CSLAYER1
  6
CONTINUOUS
 62
     5
 10
2749.132533
 20
113.599141
 11
2749.808475
 21
113.092184
  0
LINE
  8
CSLAYER1
  6
CONTINUOUS
 62
     5
 10
2749.808475
 20
113.092184
 11
2749.931800
 21
112.927751
  0
LINE
  8
CSLAYER1
  6
CONTINUOUS
 62
     5
 10
2748.513370
 20
108.287607
 11
2750.052583
 21
106.178315
  0
ARC
  8
CSLAYER1
  6
CONTINUOUS
 62
     5
 10
2792.923113
 20
-61.926013
 40
180.727463
 50
80.438896
 51
96.353582
  0
ARC
  8
CSLAYER1
  6
CONTINUOUS
 62
     5
 10
2768.024200
 20
83.321887
 40
34.720242
 50
81.866516
 51
106.890578
  0
LINE
  8
CSLAYER1
  6
CONTINUOUS
 62
     5
 10
2827.130674
 20
115.499310
 11
2829.377756
 21
114.477909
  0
LINE
  8
CSLAYER1
  6
CONTINUOUS
 62
     5
 10
2832.952661
 20
112.894737
 11
2829.377756
 21
114.477909
  0
LINE
  8
CSLAYER1
  6
CONTINUOUS
 62
     5
 10
2827.130674
 20
115.499310
 11
2822.936412
 21
116.291881
  0
LINE
  8
CSLAYER1
  6
CONTINUOUS
 62
     5
 10
2832.936412
 20
112.901933
 11
2834.807988
 21
111.333456
  0
LINE
  8
CSLAYER1
  6
CONTINUOUS
 62
     5
 10
2816.179668
 20
113.938783
 11
2817.078943
 21
115.391458
  0
LINE
  8
CSLAYER1
  6
CONTINUOUS
 62
     5
 10
2817.078943
 20
115.391458
 11
2821.754542
 21
114.271949
  0
LINE
  8
CSLAYER1
  6
CONTINUOUS
 62
     5
 10
2821.754542
 20
114.271949
 11
2838.496928
 21
109.732640
  0
LINE
  8
CSLAYER1
  6
CONTINUOUS
 62
     5
 10
2841.436412
 20
109.732640
 11
2834.807988
 21
111.333456
  0
LINE
  8
CSLAYER1
  6
CONTINUOUS
 62
     5
 10
2838.496928
 20
109.732640
 11
2841.436412
 21
109.732640
  0
LINE
  8
CSLAYER1
  6
CONTINUOUS
 62
     5
 10
2782.936412
 20
114.197581
 11
2802.936412
 21
114.732640
  0
LINE
  8
CSLAYER1
  6
CONTINUOUS
 62
     5
 10
2802.936412
 20
114.732640
 11
2816.179668
 21
113.938783
  0
LINE
  8
CSLAYER1
  6
CONTINUOUS
 62
     5
 10
2817.782649
 20
111.878304
 11
2802.936412
 21
113.232640
  0
LINE
  8
CSLAYER1
  6
CONTINUOUS
 62
     5
 10
2802.936412
 20
113.232640
 11
2787.887203
 21
113.641292
  0
LINE
  8
CSLAYER1
  6
CONTINUOUS
 62
     5
 10
2787.936412
 20
113.639956
 11
2782.936412
 21
113.735249
  0
LINE
  8
CSLAYER1
  6
CONTINUOUS
 62
     5
 10
2782.936412
 20
114.197581
 11
2782.936412
 21
113.735249
  0
LINE
  8
CSLAYER1
  6
CONTINUOUS
 62
     5
 10
2840.436412
 20
106.232640
 11
2831.593854
 21
108.543302
  0
LINE
  8
CSLAYER1
  6
CONTINUOUS
 62
     5
 10
2817.782649
 20
111.878304
 11
2827.936412
 21
109.905920
  0
LINE
  8
CSLAYER1
  6
CONTINUOUS
 62
     5
 10
2827.936412
 20
109.905920
 11
2831.593854
 21
108.543302
  0
LINE
  8
CSLAYER1
  6
CONTINUOUS
 62
     5
 10
2840.436412
 20
106.232640
 11
2840.143795
 21
105.393534
  0
LINE
  8
CSLAYER1
  6
CONTINUOUS
 62
     5
 10
2849.936412
 20
100.732640
 11
2849.630385
 21
101.961621
  0
LINE
  8
CSLAYER1
  6
CONTINUOUS
 62
     5
 10
2840.143795
 20
105.393534
 11
2849.630385
 21
101.961621
  0
LINE
  8
CSLAYER1
  6
CONTINUOUS
 62
     5
 10
2786.436412
 20
106.232640
 11
2788.859450
 21
106.232640
  0
LINE
  8
CSLAYER1
  6
CONTINUOUS
 62
     5
 10
2808.936412
 20
106.665135
 11
2808.936412
 21
106.232640
  0
LINE
  8
CSLAYER1
  6
CONTINUOUS
 62
     5
 10
2807.936412
 20
107.199576
 11
2806.225133
 21
107.836755
  0
LINE
  8
CSLAYER1
  6
CONTINUOUS
 62
     5
 10
2806.225133
 20
107.836755
 11
2805.115077
 21
107.887212
  0
LINE
  8
CSLAYER1
  6
CONTINUOUS
 62
     5
 10
2805.115077
 20
107.887212
 11
2804.635735
 21
107.634926
  0
LINE
  8
CSLAYER1
  6
CONTINUOUS
 62
     5
 10
2804.635735
 20
107.634926
 11
2804.534821
 21
107.231270
  0
LINE
  8
CSLAYER1
  6
CONTINUOUS
 62
     5
 10
2804.534821
 20
107.231270
 11
2804.988934
 21
106.928527
  0
LINE
  8
CSLAYER1
  6
CONTINUOUS
 62
     5
 10
2804.988934
 20
106.928527
 11
2806.628790
 21
106.777156
  0
LINE
  8
CSLAYER1
  6
CONTINUOUS
 62
     5
 10
2806.628790
 20
106.777156
 11
2808.936412
 21
106.665135
  0
LINE
  8
CSLAYER1
  6
CONTINUOUS
 62
     5
 10
2849.936412
 20
100.732640
 11
2846.960870
 21
101.919221
  0
LINE
  8
CSLAYER1
  6
CONTINUOUS
 62
     5
 10
2846.960870
 20
101.919221
 11
2836.905180
 21
103.762097
  0
LINE
  8
CSLAYER1
  6
CONTINUOUS
 62
     5
 10
2836.905180
 20
103.762097
 11
2831.879400
 21
104.921892
  0
LINE
  8
CSLAYER1
  6
CONTINUOUS
 62
     5
 10
2809.470633
 20
107.232640
 11
2821.236299
 21
107.232640
  0
LINE
  8
CSLAYER1
  6
CONTINUOUS
 62
     5
 10
2807.936412
 20
107.199576
 11
2808.461072
 21
106.891109
  0
LINE
  8
CSLAYER1
  6
CONTINUOUS
 62
     5
 10
2808.461072
 20
106.891109
 11
2808.757884
 21
106.802065
  0
LINE
  8
CSLAYER1
  6
CONTINUOUS
 62
     5
 10
2808.757884
 20
106.802065
 11
2808.936412
 21
106.827236
  0
LINE
  8
CSLAYER1
  6
CONTINUOUS
 62
     5
 10
2808.936412
 20
106.827236
 11
2809.470633
 21
107.232640
  0
LINE
  8
CSLAYER1
  6
CONTINUOUS
 62
     5
 10
2821.236299
 20
107.232640
 11
2825.686568
 21
106.203814
  0
LINE
  8
CSLAYER1
  6
CONTINUOUS
 62
     5
 10
2825.686568
 20
106.203814
 11
2829.839760
 21
105.038665
  0
LINE
  8
CSLAYER1
  6
CONTINUOUS
 62
     5
 10
2829.839760
 20
105.038665
 11
2831.879400
 21
104.921892
  0
LINE
  8
CSLAYER1
  6
CONTINUOUS
 62
     5
 10
2785.436412
 20
105.232640
 11
2785.436412
 21
104.732640
  0
LINE
  8
CSLAYER1
  6
CONTINUOUS
 62
     5
 10
2782.936412
 20
104.732640
 11
2785.436412
 21
104.732640
  0
ARC
  8
CSLAYER1
  6
CONTINUOUS
 62
     5
 10
2786.436412
 20
105.232640
 40
1.000000
 50
90.000000
 51
180.000000
  0
LINE
  8
CSLAYER1
  6
CONTINUOUS
 62
     5
 10
2788.859450
 20
106.232640
 11
2789.557007
 21
105.660643
  0
LINE
  8
CSLAYER1
  6
CONTINUOUS
 62
     5
 10
2790.159375
 20
105.636683
 11
2791.016972
 21
106.232640
  0
LINE
  8
CSLAYER1
  6
CONTINUOUS
 62
     5
 10
2792.595368
 20
106.232640
 11
2794.262494
 21
105.574564
  0
LINE
  8
CSLAYER1
  6
CONTINUOUS
 62
     5
 10
2794.686203
 20
105.601076
 11
2795.839690
 21
106.232640
  0
LINE
  8
CSLAYER1
  6
CONTINUOUS
 62
     5
 10
2791.016972
 20
106.232640
 11
2792.595368
 21
106.232640
  0
LINE
  8
CSLAYER1
  6
CONTINUOUS
 62
     5
 10
2795.839690
 20
106.232640
 11
2808.936412
 21
106.232640
  0
LINE
  8
CSLAYER1
  6
CONTINUOUS
 62
     5
 10
2761.485395
 20
103.123813
 11
2782.936412
 21
104.732640
  0
LINE
  8
CSLAYER1
  6
CONTINUOUS
 62
     5
 10
2757.484045
 20
103.209864
 11
2761.485395
 21
103.123813
  0
ARC
  8
CSLAYER1
  6
CONTINUOUS
 62
     5
 10
2789.874047
 20
106.047277
 40
0.500000
 50
230.648247
 51
304.796026
  0
ARC
  8
CSLAYER1
  6
CONTINUOUS
 62
     5
 10
2794.446077
 20
106.039642
 40
0.500000
 50
248.459024
 51
298.701829
  0
ARC
  8
CSLAYER1
  6
CONTINUOUS
 62
     5
 10
2749.691800
 20
112.747751
 40
0.300000
 50
-84.093859
 51
36.869898
  0
ARC
  8
CSLAYER1
  6
CONTINUOUS
 62
     5
 10
2749.226196
 20
114.679023
 40
0.700000
 50
85.301319
 51
194.142980
  0
LINE
  8
CSLAYER1
  6
CONTINUOUS
 62
     3
 10
2781.418237
 20
97.465795
 11
2789.528732
 21
97.465795
  0
LINE
  8
CSLAYER1
  6
CONTINUOUS
 62
     3
 10
2775.005720
 20
95.865795
 11
2792.649061
 21
95.865795
  0
LINE
  8
CSLAYER1
  6
CONTINUOUS
 62
     3
 10
2771.592781
 20
94.265795
 11
2795.524426
 21
94.265795
  0
LINE
  8
CSLAYER1
  6
CONTINUOUS
 62
     3
 10
2769.357462
 20
92.665795
 11
2797.367899
 21
92.665795
  0
LINE
  8
CSLAYER1
  6
CONTINUOUS
 62
     3
 10
2767.861806
 20
91.065795
 11
2798.602184
 21
91.065795
  0
LINE
  8
CSLAYER1
  6
CONTINUOUS
 62
     3
 10
2766.641492
 20
89.465795
 11
2799.651561
 21
89.465795
  0
LINE
  8
CSLAYER1
  6
CONTINUOUS
 62
     3
 10
2765.949600
 20
87.865795
 11
2800.377436
 21
87.865795
  0
LINE
  8
CSLAYER1
  6
CONTINUOUS
 62
     3
 10
2765.257708
 20
86.265795
 11
2800.715822
 21
86.265795
  0
LINE
  8
CSLAYER1
  6
CONTINUOUS
 62
     3
 10
2764.609358
 20
84.665795
 11
2801.054208
 21
84.665795
  0
LINE
  8
CSLAYER1
  6
CONTINUOUS
 62
     3
 10
2764.287699
 20
83.065795
 11
2801.392594
 21
83.065795
  0
LINE
  8
CSLAYER1
  6
CONTINUOUS
 62
     3
 10
2763.966040
 20
81.465795
 11
2779.556283
 21
81.465795
  0
LINE
  8
CSLAYER1
  6
CONTINUOUS
 62
     3
 10
2763.644381
 20
79.865795
 11
2778.024022
 21
79.865795
  0
LINE
  8
CSLAYER1
  6
CONTINUOUS
 62
     3
 10
2763.322722
 20
78.265795
 11
2777.235852
 21
78.265795
  0
LINE
  8
CSLAYER1
  6
CONTINUOUS
 62
     3
 10
2763.081604
 20
76.665795
 11
2776.917085
 21
76.665795
  0
LINE
  8
CSLAYER1
  6
CONTINUOUS
 62
     3
 10
2762.961434
 20
75.065795
 11
2776.967106
 21
75.065795
  0
LINE
  8
CSLAYER1
  6
CONTINUOUS
 62
     3
 10
2762.936412
 20
73.465795
 11
2777.513193
 21
73.465795
  0
LINE
  8
CSLAYER1
  6
CONTINUOUS
 62
     3
 10
2763.435600
 20
71.865795
 11
2779.543195
 21
71.865795
  0
LINE
  8
CSLAYER1
  6
CONTINUOUS
 62
     3
 10
2764.146711
 20
70.265795
 11
2796.674567
 21
70.265795
  0
LINE
  8
CSLAYER1
  6
CONTINUOUS
 62
     3
 10
2764.857823
 20
68.665795
 11
2796.223285
 21
68.665795
  0
LINE
  8
CSLAYER1
  6
CONTINUOUS
 62
     3
 10
2765.568934
 20
67.065795
 11
2795.500261
 21
67.065795
  0
LINE
  8
CSLAYER1
  6
CONTINUOUS
 62
     3
 10
2766.530893
 20
65.465795
 11
2794.602074
 21
65.465795
  0
LINE
  8
CSLAYER1
  6
CONTINUOUS
 62
     3
 10
2767.779354
 20
63.865795
 11
2793.097148
 21
63.865795
  0
LINE
  8
CSLAYER1
  6
CONTINUOUS
 62
     3
 10
2769.384774
 20
62.265795
 11
2790.704687
 21
62.265795
  0
LINE
  8
CSLAYER1
  6
CONTINUOUS
 62
     3
 10
2771.531916
 20
60.665795
 11
2787.579564
 21
60.665795
  0
LINE
  8
CSLAYER1
  6
CONTINUOUS
 62
     3
 10
2774.779606
 20
59.065795
 11
2782.941415
 21
59.065795
  0
LINE
  8
CSLAYER1
  6
CONTINUOUS
 62
     3
 10
2784.748107
 20
81.465795
 11
2801.567844
 21
81.465795
  0
LINE
  8
CSLAYER1
  6
CONTINUOUS
 62
     3
 10
2785.418851
 20
79.865795
 11
2801.442074
 21
79.865795
  0
LINE
  8
CSLAYER1
  6
CONTINUOUS
 62
     3
 10
2785.530858
 20
78.265795
 11
2801.316305
 21
78.265795
  0
LINE
  8
CSLAYER1
  6
CONTINUOUS
 62
     3
 10
2785.285501
 20
76.665795
 11
2800.602449
 21
76.665795
  0
LINE
  8
CSLAYER1
  6
CONTINUOUS
 62
     3
 10
2784.633855
 20
75.065795
 11
2799.881249
 21
75.065795
  0
LINE
  8
CSLAYER1
  6
CONTINUOUS
 62
     3
 10
2783.500592
 20
73.465795
 11
2798.947301
 21
73.465795
  0
LINE
  8
CSLAYER1
  6
CONTINUOUS
 62
     3
 10
2781.244595
 20
71.865795
 11
2797.676594
 21
71.865795
  0
TEXT
  8
CSLAYER1
 62
     5
 10
2802.108183
 20
79.476970
 40
4.713448
 41
1.951056
  1
M
 50
0.000000
 51
0.000000
  7
EASYDRAW_FONT
 72
     5
 11
2808.238985
 21
79.476970
  0
TEXT
  8
CSLAYER1
 62
     5
 10
2811.759570
 20
79.418700
 40
4.626621
 41
0.778201
  1
T
 50
0.000000
 51
0.000000
  7
EASYDRAW_FONT
 72
     5
 11
2814.159863
 21
79.418700
  0
TEXT
  8
CSLAYER1
 62
     5
 10
2814.525133
 20
79.453499
 40
4.696183
 41
1.055553
  1
E
 50
0.000000
 51
0.000000
  7
EASYDRAW_FONT
 72
     5
 11
2817.829848
 21
79.453499
  0
TEXT
  8
CSLAYER1
 62
     5
 10
2817.641314
 20
81.069343
 40
0.348283
 41
9.375319
  1
-
 50
0.000000
 51
0.000000
  7
EASYDRAW_FONT
 72
     5
 11
2819.818159
 21
81.069343
  0
TEXT
  8
CSLAYER1
 62
     5
 10
2819.455523
 20
79.422152
 40
4.861659
 41
1.298502
  1
H
 50
0.000000
 51
0.000000
  7
EASYDRAW_FONT
 72
     5
 11
2823.664106
 21
79.422152
  0
TEXT
  8
CSLAYER1
 62
     5
 10
2823.531538
 20
79.452530
 40
4.843139
 41
1.269236
  1
A
 50
0.000000
 51
0.000000
  7
EASYDRAW_FONT
 72
     5
 11
2827.629595
 21
79.452530
  0
TEXT
  8
CSLAYER1
 62
     5
 10
2827.237694
 20
79.411004
 40
4.825362
 41
1.490144
  1
N
 50
0.000000
 51
0.000000
  7
EASYDRAW_FONT
 72
     5
 11
2832.031349
 21
79.411004
  0
TEXT
  8
CSLAYER1
 62
     5
 10
2808.029152
 20
79.388431
 40
4.982325
 41
1.177443
  1
A
 50
0.000000
 51
0.000000
  7
EASYDRAW_FONT
 72
     5
 11
2811.940086
 21
79.388431
  0
TEXT
  8
CSLAYER1
 62
     5
 10
2802.475197
 20
72.393191
 40
4.982325
 41
1.177443
  1
A
 50
0.000000
 51
0.000000
  7
EASYDRAW_FONT
 72
     5
 11
2806.386131
 21
72.393191
  0
TEXT
  8
CSLAYER1
 62
     5
 10
2815.259621
 20
72.421512
 40
4.982325
 41
1.177443
  1
A
 50
0.000000
 51
0.000000
  7
EASYDRAW_FONT
 72
     5
 11
2819.170555
 21
72.421512
  0
TEXT
  8
CSLAYER1
 62
     5
 10
2819.020165
 20
72.478509
 40
4.825362
 41
1.490144
  1
N
 50
0.000000
 51
0.000000
  7
EASYDRAW_FONT
 72
     5
 11
2823.813819
 21
72.478509
  0
TEXT
  8
CSLAYER1
 62
     5
 10
2827.922501
 20
72.486903
 40
4.841775
 41
1.184218
  1
E
 50
0.000000
 51
0.000000
  7
EASYDRAW_FONT
 72
     5
 11
2831.744980
 21
72.486903
  0
TEXT
  8
CSLAYER1
 62
     5
 10
2806.755750
 20
72.391867
 40
4.947865
 41
1.093992
  1
D
 50
0.000000
 51
0.000000
  7
EASYDRAW_FONT
 72
     5
 11
2810.364367
 21
72.391867
  0
TEXT
  8
CSLAYER1
 62
     5
 10
2811.158109
 20
72.386482
 40
4.924210
 41
1.228195
  1
V
 50
0.000000
 51
0.000000
  7
EASYDRAW_FONT
 72
     5
 11
2815.190036
 21
72.386482
  0
TEXT
  8
CSLAYER1
 62
     5
 10
2823.383310
 20
72.407213
 40
5.032894
 41
1.481023
  1
C
 50
0.000000
 51
0.000000
  7
EASYDRAW_FONT
 72
     5
 11
2828.352530
 21
72.407213
  0
LINE
  8
CSLAYER1
  6
CONTINUOUS
 62
     5
 10
2814.013749
 20
83.467612
 11
2813.001687
 21
83.467612
  0
LINE
  8
CSLAYER1
  6
CONTINUOUS
 62
     3
 10
2763.111987
 20
117.692883
 11
2812.909813
 21
117.692883
  0
LINE
  8
CSLAYER1
  6
CONTINUOUS
 62
     3
 10
2755.999623
 20
116.092883
 11
2823.989505
 21
116.092883
  0
LINE
  8
CSLAYER1
  6
CONTINUOUS
 62
     3
 10
2748.551219
 20
114.492883
 11
2793.974529
 21
114.492883
  0
LINE
  8
CSLAYER1
  6
CONTINUOUS
 62
     3
 10
2806.936079
 20
114.492883
 11
2816.522682
 21
114.492883
  0
LINE
  8
CSLAYER1
  6
CONTINUOUS
 62
     3
 10
2820.831816
 20
114.492883
 11
2829.344813
 21
114.492883
  0
LINE
  8
CSLAYER1
  6
CONTINUOUS
 62
     3
 10
2749.954358
 20
112.892883
 11
2806.660827
 21
112.892883
  0
LINE
  8
CSLAYER1
  6
CONTINUOUS
 62
     3
 10
2826.840965
 20
112.892883
 11
2832.947211
 21
112.892883
  0
LINE
  8
CSLAYER1
  6
CONTINUOUS
 62
     3
 10
2748.042024
 20
111.292883
 11
2820.796375
 21
111.292883
  0
LINE
  8
CSLAYER1
  6
CONTINUOUS
 62
     3
 10
2832.742264
 20
111.292883
 11
2834.975986
 21
111.292883
  0
LINE
  8
CSLAYER1
  6
CONTINUOUS
 62
     3
 10
2746.979799
 20
109.692883
 11
2828.508231
 21
109.692883
  0
LINE
  8
CSLAYER1
  6
CONTINUOUS
 62
     3
 10
2748.655466
 20
108.092883
 11
2833.317540
 21
108.092883
  0
LINE
  8
CSLAYER1
  6
CONTINUOUS
 62
     3
 10
2749.823033
 20
106.492883
 11
2808.936412
 21
106.492883
  0
LINE
  8
CSLAYER1
  6
CONTINUOUS
 62
     3
 10
2824.436177
 20
106.492883
 11
2839.440500
 21
106.492883
  0
LINE
  8
CSLAYER1
  6
CONTINUOUS
 62
     3
 10
2750.068157
 20
104.892883
 11
2785.436412
 21
104.892883
  0
LINE
  8
CSLAYER1
  6
CONTINUOUS
 62
     3
 10
2832.005106
 20
104.892883
 11
2841.527709
 21
104.892883
  0
LINE
  8
CSLAYER1
  6
CONTINUOUS
 62
     3
 10
2750.274482
 20
103.292883
 11
2763.739655
 21
103.292883
  0
LINE
  8
CSLAYER1
  6
CONTINUOUS
 62
     3
 10
2839.465455
 20
103.292883
 11
2845.950473
 21
103.292883
  0
LINE
  8
CSLAYER1
  6
CONTINUOUS
 62
     3
 10
2847.528449
 20
101.692883
 11
2849.697303
 21
101.692883
  0
ENDBLK
  8
0
  0
BLOCK
  8
CSLAYER1
  2
BLKF0001
 70
   64
 10
0.0
 20
0.0
 30
0.0
  0
LINE
  8
CSLAYER1
  6
CONTINUOUS
 62
     1
 10
2130.675204
 20
452.627095
 11
2130.675204
 21
450.427095
  0
LINE
  8
CSLAYER1
  6
CONTINUOUS
 62
     1
 10
2137.675204
 20
452.627095
 11
2137.675204
 21
450.427095
  0
LINE
  8
CSLAYER1
  6
CONTINUOUS
 62
     1
 10
2137.675204
 20
451.427095
 11
2130.675204
 21
451.427095
  0
LINE
  8
CSLAYER1
  6
CONTINUOUS
 62
     1
 10
2136.275204
 20
454.027095
 11
2132.075204
 21
454.027095
  0
LINE
  8
CSLAYER1
  6
CONTINUOUS
 62
     1
 10
2138.675204
 20
450.427095
 11
2138.675204
 21
449.627095
  0
LINE
  8
CSLAYER1
  6
CONTINUOUS
 62
     1
 10
2129.675204
 20
450.427095
 11
2129.675204
 21
449.627095
  0
LINE
  8
CSLAYER1
  6
CONTINUOUS
 62
     1
 10
2137.675204
 20
452.627095
 11
2137.675204
 21
451.427095
  0
LINE
  8
CSLAYER1
  6
CONTINUOUS
 62
     1
 10
2138.675204
 20
450.427095
 11
2129.675204
 21
450.427095
  0
ARC
  8
CSLAYER1
  6
CONTINUOUS
 62
     1
 10
2136.275204
 20
452.627095
 40
1.400000
 50
-0.000000
 51
90.000000
  0
ARC
  8
CSLAYER1
  6
CONTINUOUS
 62
     1
 10
2132.075204
 20
452.627095
 40
1.400000
 50
90.000000
 51
180.000000
  0
LINE
  8
CSLAYER1
  6
CONTINUOUS
 62
     1
 10
2135.215156
 20
450.427095
 11
2132.829953
 21
451.427095
  0
LINE
  8
CSLAYER1
  6
CONTINUOUS
 62
     1
 10
2134.175204
 20
456.314760
 11
2134.175204
 21
445.903796
  0
ENDBLK
  8
0
  0
BLOCK
  8
CSLAYER1
  2
BLKF0002
 70
   64
 10
0.0
 20
0.0
 30
0.0
  0
LINE
  8
CSLAYER1
  6
CONTINUOUS
 62
     3
 10
2525.849607
 20
1779.229952
 11
2525.849607
 21
1841.229952
  0
LINE
  8
CSLAYER1
  6
CONTINUOUS
 62
     3
 10
2528.349607
 20
1776.729952
 11
2613.349607
 21
1776.729952
  0
LINE
  8
CSLAYER1
  6
CENTER
 62
     5
 10
2467.499968
 20
1849.229952
 11
2525.849607
 21
1849.229952
  0
LINE
  8
CSLAYER1
  6
CONTINUOUS
 62
     2
 10
2528.349607
 20
1833.229952
 11
2613.349607
 21
1833.229952
  0
LINE
  8
CSLAYER1
  6
CONTINUOUS
 62
     3
 10
2528.349607
 20
1781.729952
 11
2528.349607
 21
1826.729952
  0
LINE
  8
CSLAYER1
  6
CONTINUOUS
 62
     3
 10
2615.849607
 20
1779.229952
 11
2615.849607
 21
1849.229952
  0
LINE
  8
CSLAYER1
  6
CONTINUOUS
 62
     3
 10
2530.849607
 20
1779.229952
 11
2607.849607
 21
1779.229952
  0
LINE
  8
CSLAYER1
  6
CONTINUOUS
 62
     3
 10
2530.849607
 20
1829.229952
 11
2607.849607
 21
1829.229952
  0
ARC
  8
CSLAYER1
  6
CONTINUOUS
 62
     3
 10
2553.781425
 20
1804.229952
 40
59.568182
 50
-24.814837
 51
24.814837
  0
ARC
  8
CSLAYER1
  6
CONTINUOUS
 62
     3
 10
2530.849607
 20
1781.729952
 40
2.500000
 50
180.000000
 51
270.000000
  0
ARC
  8
CSLAYER1
  6
CONTINUOUS
 62
     3
 10
2530.849607
 20
1826.729952
 40
2.500000
 50
90.000000
 51
180.000000
  0
ARC
  8
CSLAYER1
  6
CONTINUOUS
 62
     3
 10
2528.349607
 20
1779.229952
 40
2.500000
 50
180.000000
 51
270.000000
  0
ARC
  8
CSLAYER1
  6
CONTINUOUS
 62
     3
 10
2613.349607
 20
1779.229952
 40
2.500000
 50
270.000000
 51
360.000000
  0
ARC
  8
CSLAYER1
  6
CONTINUOUS
 62
     2
 10
2613.349607
 20
1835.729952
 40
2.500000
 50
270.000000
 51
360.000000
  0
ARC
  8
CSLAYER1
  6
CONTINUOUS
 62
     2
 10
2528.349607
 20
1835.729952
 40
2.500000
 50
180.000000
 51
270.000000
  0
LINE
  8
CSLAYER1
  6
CONTINUOUS
 62
     3
 10
2525.849607
 20
1919.229952
 11
2525.849607
 21
1857.229952
  0
LINE
  8
CSLAYER1
  6
CONTINUOUS
 62
     3
 10
2528.349607
 20
1921.729952
 11
2613.349607
 21
1921.729952
  0
LINE
  8
CSLAYER1
  6
CONTINUOUS
 62
     2
 10
2528.349607
 20
1865.229952
 11
2613.349607
 21
1865.229952
  0
LINE
  8
CSLAYER1
  6
CONTINUOUS
 62
     3
 10
2615.849607
 20
1919.229952
 11
2615.849607
 21
1849.229952
  0
ARC
  8
CSLAYER1
  6
CONTINUOUS
 62
     3
 10
2528.349607
 20
1919.229952
 40
2.500000
 50
90.000000
 51
180.000000
  0
ARC
  8
CSLAYER1
  6
CONTINUOUS
 62
     3
 10
2613.349607
 20
1919.229952
 40
2.500000
 50
-0.000000
 51
90.000000
  0
ARC
  8
CSLAYER1
  6
CONTINUOUS
 62
     2
 10
2613.349607
 20
1862.729952
 40
2.500000
 50
-0.000000
 51
90.000000
  0
ARC
  8
CSLAYER1
  6
CONTINUOUS
 62
     2
 10
2528.349607
 20
1862.729952
 40
2.500000
 50
90.000000
 51
180.000000
  0
LINE
  8
CSLAYER1
  6
CONTINUOUS
 62
     3
 10
2528.349607
 20
1916.729952
 11
2528.349607
 21
1871.729952
  0
LINE
  8
CSLAYER1
  6
CONTINUOUS
 62
     3
 10
2530.849607
 20
1919.229952
 11
2607.849607
 21
1919.229952
  0
LINE
  8
CSLAYER1
  6
CONTINUOUS
 62
     3
 10
2530.849607
 20
1869.229952
 11
2607.849607
 21
1869.229952
  0
ARC
  8
CSLAYER1
  6
CONTINUOUS
 62
     3
 10
2553.781425
 20
1894.229952
 40
59.568182
 50
-24.814837
 51
24.814837
  0
ARC
  8
CSLAYER1
  6
CONTINUOUS
 62
     3
 10
2530.849607
 20
1916.729952
 40
2.500000
 50
90.000000
 51
180.000000
  0
ARC
  8
CSLAYER1
  6
CONTINUOUS
 62
     3
 10
2530.849607
 20
1871.729952
 40
2.500000
 50
180.000000
 51
270.000000
  0
LINE
  8
CSLAYER1
  6
CONTINUOUS
 62
     3
 10
2518.849607
 20
1856.229952
 11
2518.849607
 21
1852.729952
  0
LINE
  8
CSLAYER1
  6
CONTINUOUS
 62
     3
 10
2467.499968
 20
1852.729952
 11
2518.849607
 21
1852.729952
  0
LINE
  8
CSLAYER1
  6
CONTINUOUS
 62
     3
 10
2519.849607
 20
1857.229952
 11
2525.849607
 21
1857.229952
  0
LINE
  8
CSLAYER1
  6
CONTINUOUS
 62
     3
 10
2519.849607
 20
1841.229952
 11
2525.849607
 21
1841.229952
  0
LINE
  8
CSLAYER1
  6
CONTINUOUS
 62
     3
 10
2467.499968
 20
1845.729952
 11
2518.849607
 21
1845.729952
  0
ARC
  8
CSLAYER1
  6
CONTINUOUS
 62
     3
 10
2519.849607
 20
1842.229952
 40
1.000000
 50
180.000000
 51
270.000000
  0
ARC
  8
CSLAYER1
  6
CONTINUOUS
 62
     3
 10
2519.849607
 20
1856.229952
 40
1.000000
 50
90.000000
 51
180.000000
  0
LINE
  8
CSLAYER1
  6
CONTINUOUS
 62
     3
 10
2518.849607
 20
1845.729952
 11
2518.849607
 21
1842.229952
  0
LINE
  8
CSLAYER1
  6
CONTINUOUS
 62
     2
 10
2518.849607
 20
1852.729952
 11
2518.849607
 21
1845.729952
  0
LINE
  8
CSLAYER1
  6
CONTINUOUS
 62
     2
 10
2525.849607
 20
1841.229952
 11
2525.849607
 21
1849.229952
  0
LINE
  8
CSLAYER1
  6
CONTINUOUS
 62
     2
 10
2525.849607
 20
1857.229952
 11
2525.849607
 21
1849.229952
  0
LINE
  8
CSLAYER1
  6
CONTINUOUS
 62
     2
 10
2545.342618
 20
1837.067293
 11
2536.207618
 21
1837.067293
  0
LINE
  8
CSLAYER1
  6
CONTINUOUS
 62
     2
 10
2545.342618
 20
1860.692293
 11
2536.207618
 21
1860.692293
  0
LINE
  8
CSLAYER1
  6
CONTINUOUS
 62
     2
 10
2534.947618
 20
1838.327293
 11
2534.947618
 21
1859.432293
  0
LINE
  8
CSLAYER1
  6
CONTINUOUS
 62
     2
 10
2546.602618
 20
1838.327293
 11
2546.602618
 21
1859.432293
  0
LINE
  8
CSLAYER1
  6
CONTINUOUS
 62
     2
 10
2544.712618
 20
1858.802293
 11
2536.680118
 21
1858.802293
  0
LINE
  8
CSLAYER1
  6
CONTINUOUS
 62
     2
 10
2544.712618
 20
1855.652293
 11
2543.767618
 21
1855.652293
  0
LINE
  8
CSLAYER1
  6
CONTINUOUS
 62
     2
 10
2544.712618
 20
1846.989793
 11
2543.767618
 21
1846.989793
  0
LINE
  8
CSLAYER1
  6
CONTINUOUS
 62
     2
 10
2544.712618
 20
1842.422293
 11
2539.672618
 21
1842.422293
  0
LINE
  8
CSLAYER1
  6
CONTINUOUS
 62
     2
 10
2545.815118
 20
1843.524793
 11
2545.815118
 21
1845.887293
  0
LINE
  8
CSLAYER1
  6
CONTINUOUS
 62
     2
 10
2538.570118
 20
1843.524793
 11
2538.570118
 21
1845.887293
  0
LINE
  8
CSLAYER1
  6
CONTINUOUS
 62
     2
 10
2535.577618
 20
1856.754793
 11
2535.577618
 21
1857.699793
  0
LINE
  8
CSLAYER1
  6
CONTINUOUS
 62
     2
 10
2542.822618
 20
1847.934793
 11
2542.822618
 21
1854.707293
  0
LINE
  8
CSLAYER1
  6
CONTINUOUS
 62
     2
 10
2542.035118
 20
1847.934793
 11
2542.035118
 21
1854.707293
  0
ARC
  8
CSLAYER1
  6
CONTINUOUS
 62
     2
 10
2544.712618
 20
1843.524793
 40
1.102500
 50
270.000000
 51
360.000000
  0
ARC
  8
CSLAYER1
  6
CONTINUOUS
 62
     2
 10
2539.672618
 20
1843.524793
 40
1.102500
 50
180.000000
 51
270.000000
  0
ARC
  8
CSLAYER1
  6
CONTINUOUS
 62
     2
 10
2539.672618
 20
1845.887293
 40
1.102500
 50
90.000000
 51
180.000000
  0
ARC
  8
CSLAYER1
  6
CONTINUOUS
 62
     2
 10
2544.712618
 20
1845.887293
 40
1.102500
 50
-0.000000
 51
90.000000
  0
ARC
  8
CSLAYER1
  6
CONTINUOUS
 62
     2
 10
2536.680118
 20
1856.754793
 40
1.102500
 50
180.000000
 51
270.000000
  0
ARC
  8
CSLAYER1
  6
CONTINUOUS
 62
     2
 10
2536.680118
 20
1857.699793
 40
1.102500
 50
90.000000
 51
180.000000
  0
ARC
  8
CSLAYER1
  6
CONTINUOUS
 62
     2
 10
2544.712618
 20
1857.699793
 40
1.102500
 50
-0.000000
 51
90.000000
  0
ARC
  8
CSLAYER1
  6
CONTINUOUS
 62
     2
 10
2544.712618
 20
1856.754793
 40
1.102500
 50
270.000000
 51
360.000000
  0
LINE
  8
CSLAYER1
  6
CONTINUOUS
 62
     2
 10
2541.090118
 20
1846.989793
 11
2539.672618
 21
1846.989793
  0
LINE
  8
CSLAYER1
  6
CONTINUOUS
 62
     2
 10
2541.090118
 20
1855.652293
 11
2536.680118
 21
1855.652293
  0
ARC
  8
CSLAYER1
  6
CONTINUOUS
 62
     2
 10
2543.767618
 20
1847.934793
 40
0.945000
 50
180.000000
 51
270.000000
  0
ARC
  8
CSLAYER1
  6
CONTINUOUS
 62
     2
 10
2541.090118
 20
1847.934793
 40
0.945000
 50
270.000000
 51
360.000000
  0
ARC
  8
CSLAYER1
  6
CONTINUOUS
 62
     2
 10
2541.090118
 20
1854.707293
 40
0.945000
 50
-0.000000
 51
90.000000
  0
ARC
  8
CSLAYER1
  6
CONTINUOUS
 62
     2
 10
2545.342618
 20
1838.327293
 40
1.260000
 50
270.000000
 51
360.000000
  0
ARC
  8
CSLAYER1
  6
CONTINUOUS
 62
     2
 10
2536.207618
 20
1838.327293
 40
1.260000
 50
180.000000
 51
270.000000
  0
ARC
  8
CSLAYER1
  6
CONTINUOUS
 62
     2
 10
2536.207618
 20
1859.432293
 40
1.260000
 50
90.000000
 51
180.000000
  0
ARC
  8
CSLAYER1
  6
CONTINUOUS
 62
     2
 10
2545.342618
 20
1859.432293
 40
1.260000
 50
-0.000000
 51
90.000000
  0
ARC
  8
CSLAYER1
  6
CONTINUOUS
 62
     2
 10
2543.767618
 20
1854.707293
 40
0.945000
 50
90.000000
 51
180.000000
  0
LINE
  8
CSLAYER1
  6
CONTINUOUS
 62
     2
 10
2545.815118
 20
1856.754793
 11
2545.815118
 21
1857.699793
  0
CIRCLE
  8
CSLAYER1
  6
CONTINUOUS
 62
     2
 10
2560.349607
 20
1799.229952
 40
2.500000
  0
CIRCLE
  8
CSLAYER1
  6
CONTINUOUS
 62
     2
 10
2560.349607
 20
1789.229952
 40
2.500000
  0
CIRCLE
  8
CSLAYER1
  6
CONTINUOUS
 62
     2
 10
2570.349607
 20
1789.229952
 40
2.500000
  0
CIRCLE
  8
CSLAYER1
  6
CONTINUOUS
 62
     2
 10
2570.349607
 20
1799.229952
 40
2.500000
  0
CIRCLE
  8
CSLAYER1
  6
CONTINUOUS
 62
     2
 10
2580.349607
 20
1799.229952
 40
2.500000
  0
CIRCLE
  8
CSLAYER1
  6
CONTINUOUS
 62
     2
 10
2580.349607
 20
1789.229952
 40
2.500000
  0
CIRCLE
  8
CSLAYER1
  6
CONTINUOUS
 62
     2
 10
2590.349607
 20
1789.229952
 40
2.500000
  0
CIRCLE
  8
CSLAYER1
  6
CONTINUOUS
 62
     2
 10
2590.349607
 20
1799.229952
 40
2.500000
  0
CIRCLE
  8
CSLAYER1
  6
CONTINUOUS
 62
     2
 10
2600.349607
 20
1799.229952
 40
2.500000
  0
CIRCLE
  8
CSLAYER1
  6
CONTINUOUS
 62
     2
 10
2600.349607
 20
1789.229952
 40
2.500000
  0
CIRCLE
  8
CSLAYER1
  6
CONTINUOUS
 62
     2
 10
2560.349607
 20
1809.229952
 40
2.500000
  0
CIRCLE
  8
CSLAYER1
  6
CONTINUOUS
 62
     2
 10
2560.349607
 20
1819.229952
 40
2.500000
  0
CIRCLE
  8
CSLAYER1
  6
CONTINUOUS
 62
     2
 10
2570.349607
 20
1819.229952
 40
2.500000
  0
CIRCLE
  8
CSLAYER1
  6
CONTINUOUS
 62
     2
 10
2570.349607
 20
1809.229952
 40
2.500000
  0
CIRCLE
  8
CSLAYER1
  6
CONTINUOUS
 62
     2
 10
2580.349607
 20
1809.229952
 40
2.500000
  0
CIRCLE
  8
CSLAYER1
  6
CONTINUOUS
 62
     2
 10
2580.349607
 20
1819.229952
 40
2.500000
  0
CIRCLE
  8
CSLAYER1
  6
CONTINUOUS
 62
     2
 10
2590.349607
 20
1819.229952
 40
2.500000
  0
CIRCLE
  8
CSLAYER1
  6
CONTINUOUS
 62
     2
 10
2590.349607
 20
1809.229952
 40
2.500000
  0
CIRCLE
  8
CSLAYER1
  6
CONTINUOUS
 62
     2
 10
2600.349607
 20
1809.229952
 40
2.500000
  0
CIRCLE
  8
CSLAYER1
  6
CONTINUOUS
 62
     2
 10
2600.349607
 20
1819.229952
 40
2.500000
  0
CIRCLE
  8
CSLAYER1
  6
CONTINUOUS
 62
     2
 10
2560.349607
 20
1899.229952
 40
2.500000
  0
CIRCLE
  8
CSLAYER1
  6
CONTINUOUS
 62
     2
 10
2560.349607
 20
1909.229952
 40
2.500000
  0
CIRCLE
  8
CSLAYER1
  6
CONTINUOUS
 62
     2
 10
2570.349607
 20
1909.229952
 40
2.500000
  0
CIRCLE
  8
CSLAYER1
  6
CONTINUOUS
 62
     2
 10
2570.349607
 20
1899.229952
 40
2.500000
  0
CIRCLE
  8
CSLAYER1
  6
CONTINUOUS
 62
     2
 10
2580.349607
 20
1899.229952
 40
2.500000
  0
CIRCLE
  8
CSLAYER1
  6
CONTINUOUS
 62
     2
 10
2580.349607
 20
1909.229952
 40
2.500000
  0
CIRCLE
  8
CSLAYER1
  6
CONTINUOUS
 62
     2
 10
2590.349607
 20
1909.229952
 40
2.500000
  0
CIRCLE
  8
CSLAYER1
  6
CONTINUOUS
 62
     2
 10
2590.349607
 20
1899.229952
 40
2.500000
  0
CIRCLE
  8
CSLAYER1
  6
CONTINUOUS
 62
     2
 10
2600.349607
 20
1899.229952
 40
2.500000
  0
CIRCLE
  8
CSLAYER1
  6
CONTINUOUS
 62
     2
 10
2600.349607
 20
1909.229952
 40
2.500000
  0
CIRCLE
  8
CSLAYER1
  6
CONTINUOUS
 62
     2
 10
2560.349607
 20
1889.229952
 40
2.500000
  0
CIRCLE
  8
CSLAYER1
  6
CONTINUOUS
 62
     2
 10
2560.349607
 20
1879.229952
 40
2.500000
  0
CIRCLE
  8
CSLAYER1
  6
CONTINUOUS
 62
     2
 10
2570.349607
 20
1879.229952
 40
2.500000
  0
CIRCLE
  8
CSLAYER1
  6
CONTINUOUS
 62
     2
 10
2570.349607
 20
1889.229952
 40
2.500000
  0
CIRCLE
  8
CSLAYER1
  6
CONTINUOUS
 62
     2
 10
2580.349607
 20
1889.229952
 40
2.500000
  0
CIRCLE
  8
CSLAYER1
  6
CONTINUOUS
 62
     2
 10
2580.349607
 20
1879.229952
 40
2.500000
  0
CIRCLE
  8
CSLAYER1
  6
CONTINUOUS
 62
     2
 10
2590.349607
 20
1879.229952
 40
2.500000
  0
CIRCLE
  8
CSLAYER1
  6
CONTINUOUS
 62
     2
 10
2590.349607
 20
1889.229952
 40
2.500000
  0
CIRCLE
  8
CSLAYER1
  6
CONTINUOUS
 62
     2
 10
2600.349607
 20
1889.229952
 40
2.500000
  0
CIRCLE
  8
CSLAYER1
  6
CONTINUOUS
 62
     2
 10
2600.349607
 20
1879.229952
 40
2.500000
  0
LINE
  8
CSLAYER1
  6
CONTINUOUS
 62
     2
 10
2534.349607
 20
1876.729952
 11
2534.349607
 21
1911.729952
  0
LINE
  8
CSLAYER1
  6
CONTINUOUS
 62
     2
 10
2550.349607
 20
1876.729952
 11
2550.349607
 21
1911.729952
  0
LINE
  8
CSLAYER1
  6
CONTINUOUS
 62
     2
 10
2535.849607
 20
1875.229952
 11
2548.849607
 21
1875.229952
  0
LINE
  8
CSLAYER1
  6
CONTINUOUS
 62
     2
 10
2535.349607
 20
1876.729952
 11
2535.349607
 21
1911.729952
  0
LINE
  8
CSLAYER1
  6
CONTINUOUS
 62
     2
 10
2549.349607
 20
1876.729952
 11
2549.349607
 21
1911.729952
  0
LINE
  8
CSLAYER1
  6
CONTINUOUS
 62
     2
 10
2535.849607
 20
1876.229952
 11
2548.849607
 21
1876.229952
  0
LINE
  8
CSLAYER1
  6
CONTINUOUS
 62
     2
 10
2535.849607
 20
1913.229952
 11
2548.849607
 21
1913.229952
  0
LINE
  8
CSLAYER1
  6
CONTINUOUS
 62
     2
 10
2535.849607
 20
1912.229952
 11
2548.849607
 21
1912.229952
  0
ARC
  8
CSLAYER1
  6
CONTINUOUS
 62
     2
 10
2535.849607
 20
1876.729952
 40
0.500000
 50
180.000000
 51
270.000000
  0
ARC
  8
CSLAYER1
  6
CONTINUOUS
 62
     2
 10
2548.849607
 20
1876.729952
 40
0.500000
 50
270.000000
 51
360.000000
  0
ARC
  8
CSLAYER1
  6
CONTINUOUS
 62
     2
 10
2535.849607
 20
1911.729952
 40
0.500000
 50
90.000000
 51
180.000000
  0
ARC
  8
CSLAYER1
  6
CONTINUOUS
 62
     2
 10
2548.849607
 20
1911.729952
 40
0.500000
 50
-0.000000
 51
90.000000
  0
ARC
  8
CSLAYER1
  6
CONTINUOUS
 62
     2
 10
2535.849607
 20
1876.729952
 40
1.500000
 50
180.000000
 51
270.000000
  0
ARC
  8
CSLAYER1
  6
CONTINUOUS
 62
     2
 10
2548.849607
 20
1876.729952
 40
1.500000
 50
270.000000
 51
360.000000
  0
ARC
  8
CSLAYER1
  6
CONTINUOUS
 62
     2
 10
2535.849607
 20
1911.729952
 40
1.500000
 50
90.000000
 51
180.000000
  0
ARC
  8
CSLAYER1
  6
CONTINUOUS
 62
     2
 10
2548.849607
 20
1911.729952
 40
1.500000
 50
-0.000000
 51
90.000000
  0
LINE
  8
CSLAYER1
  6
CONTINUOUS
 62
     2
 10
2539.349607
 20
1885.229952
 11
2539.349607
 21
1903.229952
  0
LINE
  8
CSLAYER1
  6
CONTINUOUS
 62
     2
 10
2536.271535
 20
1894.229952
 11
2539.349607
 21
1903.229952
  0
LINE
  8
CSLAYER1
  6
CONTINUOUS
 62
     2
 10
2536.271535
 20
1894.229952
 11
2539.349607
 21
1885.229952
  0
TEXT
  8
CSLAYER1
 62
     2
 10
2547.643134
 20
1885.249946
 40
7.066058
 41
1.574983
  1
UP
 50
89.999985
 51
0.000000
  7
EASYDRAW_FONT
 72
     5
 11
2547.643139
 21
1903.798148
  0
LINE
  8
CSLAYER1
  6
CONTINUOUS
 62
     2
 10
2534.349607
 20
1821.729952
 11
2534.349607
 21
1786.729952
  0
LINE
  8
CSLAYER1
  6
CONTINUOUS
 62
     2
 10
2550.349607
 20
1821.729952
 11
2550.349607
 21
1786.729952
  0
LINE
  8
CSLAYER1
  6
CONTINUOUS
 62
     2
 10
2535.849607
 20
1823.229952
 11
2548.849607
 21
1823.229952
  0
LINE
  8
CSLAYER1
  6
CONTINUOUS
 62
     2
 10
2535.349607
 20
1821.729952
 11
2535.349607
 21
1786.729952
  0
LINE
  8
CSLAYER1
  6
CONTINUOUS
 62
     2
 10
2549.349607
 20
1821.729952
 11
2549.349607
 21
1786.729952
  0
LINE
  8
CSLAYER1
  6
CONTINUOUS
 62
     2
 10
2535.849607
 20
1822.229952
 11
2548.849607
 21
1822.229952
  0
LINE
  8
CSLAYER1
  6
CONTINUOUS
 62
     2
 10
2535.849607
 20
1785.229952
 11
2548.849607
 21
1785.229952
  0
LINE
  8
CSLAYER1
  6
CONTINUOUS
 62
     2
 10
2535.849607
 20
1786.229952
 11
2548.849607
 21
1786.229952
  0
ARC
  8
CSLAYER1
  6
CONTINUOUS
 62
     2
 10
2535.849607
 20
1821.729952
 40
0.500000
 50
90.000000
 51
180.000000
  0
ARC
  8
CSLAYER1
  6
CONTINUOUS
 62
     2
 10
2548.849607
 20
1821.729952
 40
0.500000
 50
-0.000000
 51
90.000000
  0
ARC
  8
CSLAYER1
  6
CONTINUOUS
 62
     2
 10
2535.849607
 20
1786.729952
 40
0.500000
 50
180.000000
 51
270.000000
  0
ARC
  8
CSLAYER1
  6
CONTINUOUS
 62
     2
 10
2548.849607
 20
1786.729952
 40
0.500000
 50
270.000000
 51
360.000000
  0
ARC
  8
CSLAYER1
  6
CONTINUOUS
 62
     2
 10
2535.849607
 20
1821.729952
 40
1.500000
 50
90.000000
 51
180.000000
  0
ARC
  8
CSLAYER1
  6
CONTINUOUS
 62
     2
 10
2548.849607
 20
1821.729952
 40
1.500000
 50
-0.000000
 51
90.000000
  0
ARC
  8
CSLAYER1
  6
CONTINUOUS
 62
     2
 10
2535.849607
 20
1786.729952
 40
1.500000
 50
180.000000
 51
270.000000
  0
ARC
  8
CSLAYER1
  6
CONTINUOUS
 62
     2
 10
2548.849607
 20
1786.729952
 40
1.500000
 50
270.000000
 51
360.000000
  0
LINE
  8
CSLAYER1
  6
CONTINUOUS
 62
     2
 10
2544.822537
 20
1813.229952
 11
2544.822537
 21
1795.229952
  0
LINE
  8
CSLAYER1
  6
CONTINUOUS
 62
     2
 10
2547.900609
 20
1804.229952
 11
2544.822537
 21
1795.229952
  0
LINE
  8
CSLAYER1
  6
CONTINUOUS
 62
     2
 10
2547.900609
 20
1804.229952
 11
2544.822537
 21
1813.229952
  0
TEXT
  8
CSLAYER1
 62
     2
 10
2543.212291
 20
1789.532133
 40
6.383575
 41
1.255870
  1
DOWN
 50
89.999985
 51
0.000000
  7
EASYDRAW_FONT
 72
     5
 11
2543.212299
 21
1818.927582
  0
ENDBLK
  8
0
  0
ENDSEC
  0
SECTION
  2
ENTITIES
  0
LINE
  8
CSLAYER1
  6
CONTINUOUS
 62
     3
 10
118.051807
 20
2400.454119
 11
118.051807
 21
51.907189
  0
LINE
  8
CSLAYER1
  6
CONTINUOUS
 62
     3
 10
3440.625117
 20
2400.454119
 11
118.051807
 21
2400.454119
  0
LINE
  8
CSLAYER1
  6
CONTINUOUS
 62
     3
 10
3440.625117
 20
2400.454119
 11
3440.625117
 21
51.907189
  0
LINE
  8
CSLAYER1
  6
CONTINUOUS
 62
     3
 10
3440.625117
 20
51.907189
 11
118.051807
 21
51.907189
  0
LINE
  8
CSLAYER1
  6
CONTINUOUS
 62
     5
 10
68.051807
 20
1211.907189
 11
18.051807
 21
1211.907189
  0
LINE
  8
CSLAYER1
  6
CONTINUOUS
 62
     5
 10
2640.625117
 20
491.907189
 11
3440.625117
 21
491.907189
  0
LINE
  8
CSLAYER1
  6
CONTINUOUS
 62
     5
 10
2640.625117
 20
131.907189
 11
3440.625117
 21
131.907189
  0
LINE
  8
CSLAYER1
  6
CONTINUOUS
 62
     5
 10
2640.625117
 20
291.907189
 11
3440.625117
 21
291.907189
  0
LINE
  8
CSLAYER1
  6
CONTINUOUS
 62
     5
 10
2640.625117
 20
351.907189
 11
3440.625117
 21
351.907189
  0
LINE
  8
CSLAYER1
  6
CONTINUOUS
 62
     5
 10
2640.625117
 20
411.907189
 11
3440.625117
 21
411.907189
  0
LINE
  8
CSLAYER1
  6
CONTINUOUS
 62
     5
 10
2640.625117
 20
571.907189
 11
3440.625117
 21
571.907189
  0
LINE
  8
CSLAYER1
  6
CONTINUOUS
 62
     5
 10
2640.625117
 20
651.907189
 11
2640.625117
 21
51.907189
  0
LINE
  8
CSLAYER1
  6
CONTINUOUS
 62
     5
 10
2840.625117
 20
651.907189
 11
2840.625117
 21
411.907189
  0
LINE
  8
CSLAYER1
  6
CONTINUOUS
 62
     5
 10
2640.625117
 20
651.907189
 11
3440.625117
 21
651.907189
  0
LINE
  8
CSLAYER1
  6
CONTINUOUS
 62
     5
 10
3140.625117
 20
411.907189
 11
3140.625117
 21
131.907189
  0
TEXT
  8
CSLAYER1
 62
     3
 10
2860.316219
 20
60.469913
 40
59.380363
 41
1.003345
  1
東正車輌株式会社
 50
0.000000
 51
0.000000
  7
EASYDRAW_FONT
 72
     5
 11
3317.088566
 21
60.469913
  0
LINE
  8
CSLAYER1
  6
CONTINUOUS
 62
     5
 10
2890.625117
 20
351.907189
 11
2890.625117
 21
131.907189
  0
TEXT
  8
CSLAYER1
 62
     5
 10
2670.625000
 20
586.907166
 40
50.000000
 41
1.050000
  1
品　名
 50
0.000000
 51
0.000000
  7
EASYDRAW_FONT
 72
     5
 11
2810.625000
 21
586.907166
  0
TEXT
  8
CSLAYER1
 62
     5
 10
2670.625000
 20
506.907166
 40
50.000000
 41
1.050000
  1
型　式
 50
0.000000
 51
0.000000
  7
EASYDRAW_FONT
 72
     5
 11
2810.625000
 21
506.907166
  0
TEXT
  8
CSLAYER1
 62
     5
 10
2645.625000
 20
426.907196
 40
50.000000
 41
1.036364
  1
図面番号
 50
0.000000
 51
0.000000
  7
EASYDRAW_FONT
 72
     5
 11
2835.625000
 21
426.907196
  0
TEXT
  8
CSLAYER1
 62
     5
 10
2690.625000
 20
356.907196
 40
50.000000
 41
0.827586
  1
平成２８年４月１６日
 50
0.000000
 51
0.000000
  7
EASYDRAW_FONT
 72
     5
 11
3090.625000
 21
356.907196
  0
TEXT
  8
CSLAYER1
 62
     5
 10
3220.625000
 20
356.907196
 40
50.000000
 41
1.050000
  1
Ｂ－４
 50
0.000000
 51
0.000000
  7
EASYDRAW_FONT
 72
     5
 11
3360.625000
 21
356.907196
  0
TEXT
  8
CSLAYER1
 62
     5
 10
2695.625000
 20
296.907196
 40
50.000000
 41
1.050000
  1
検　図
 50
0.000000
 51
0.000000
  7
EASYDRAW_FONT
 72
     5
 11
2835.625000
 21
296.907196
  0
TEXT
  8
CSLAYER1
 62
     5
 10
2945.625000
 20
296.907196
 40
50.000000
 41
1.050000
  1
作　図
 50
0.000000
 51
0.000000
  7
EASYDRAW_FONT
 72
     5
 11
3085.625000
 21
296.907196
  0
TEXT
  8
CSLAYER1
 62
     5
 10
3220.625000
 20
296.907196
 40
50.000000
 41
1.050000
  1
尺　度
 50
0.000000
 51
0.000000
  7
EASYDRAW_FONT
 72
     5
 11
3360.625000
 21
296.907196
  0
TEXT
  8
CSLAYER1
 62
     5
 10
3321.363770
 20
146.392456
 40
50.000000
 41
1.080000
  1
１０
 50
0.000000
 51
0.000000
  7
EASYDRAW_FONT
 72
     5
 11
3411.363770
 21
146.392456
  0
TEXT
  8
CSLAYER1
 62
     5
 10
3301.044189
 20
194.097153
 40
50.000000
 41
1.200000
  1
／
 50
0.000000
 51
0.000000
  7
EASYDRAW_FONT
 72
     5
 11
3341.044189
 21
194.097153
  0
TEXT
  8
CSLAYER1
 62
     5
 10
3270.831299
 20
229.080597
 40
50.000000
 41
1.200000
  1
１
 50
0.000000
 51
0.000000
  7
EASYDRAW_FONT
 72
     5
 11
3310.831299
 21
229.080597
  0
TEXT
  8
CSLAYER1
 62
     3
 10
2980.625000
 20
586.907166
 40
50.000000
 41
0.834783
  1
ゴールドリフター
 50
0.000000
 51
0.000000
  7
EASYDRAW_FONT
 72
     5
 11
3300.625000
 21
586.907166
  0
TEXT
  8
CSLAYER1
 62
     3
 10
2880.625000
 20
506.907166
 40
50.000000
 41
0.821053
  1
ＧＬＩ－１０００－０６１２
 50
0.000000
 51
0.000000
  7
EASYDRAW_FONT
 72
     5
 11
3400.625000
 21
506.907166
  0
TEXT
  8
CSLAYER1
 62
     3
 10
3040.625000
 20
426.907196
 40
50.000000
 41
0.857143
  1
GI-34
 50
0.000000
 51
0.000000
  7
EASYDRAW_FONT
 72
     5
 11
3240.625000
 21
426.907196
  0
INSERT
  8
CSLAYER1
  2
BLKF0000
 10
0.0
 20
0.0
 30
0.0
  0
LINE
  8
CSLAYER1
  6
CONTINUOUS
 62
     5
 10
3398.459742
 20
1858.246207
 11
2677.587225
 21
1858.246207
  0
LINE
  8
CSLAYER1
  6
CONTINUOUS
 62
     5
 10
3398.459742
 20
1794.246209
 11
2677.587225
 21
1794.246209
  0
LINE
  8
CSLAYER1
  6
CONTINUOUS
 62
     5
 10
3398.459742
 20
1730.246210
 11
2677.587225
 21
1730.246210
  0
LINE
  8
CSLAYER1
  6
CONTINUOUS
 62
     5
 10
3398.459742
 20
1666.246212
 11
2678.459760
 21
1666.246212
  0
LINE
  8
CSLAYER1
  6
CONTINUOUS
 62
     5
 10
3398.459742
 20
1602.246214
 11
2677.587225
 21
1602.246214
  0
LINE
  8
CSLAYER1
  6
CONTINUOUS
 62
     5
 10
3398.459742
 20
1538.246215
 11
2677.587225
 21
1538.246215
  0
LINE
  8
CSLAYER1
  6
CONTINUOUS
 62
     5
 10
3398.459742
 20
1474.246217
 11
2677.587225
 21
1474.246217
  0
LINE
  8
CSLAYER1
  6
CONTINUOUS
 62
     5
 10
3398.459742
 20
1410.246218
 11
2677.587225
 21
1410.246218
  0
LINE
  8
CSLAYER1
  6
CONTINUOUS
 62
     5
 10
3398.459742
 20
1346.246220
 11
2677.587225
 21
1346.246220
  0
TEXT
  8
CSLAYER1
 62
     3
 10
2873.311035
 20
1938.065308
 40
40.000000
 41
0.857143
  1
仕   様
 50
0.000000
 51
0.000000
  7
EASYDRAW_FONT
 72
     5
 11
3033.311035
 21
1938.065308
  0
TEXT
  8
CSLAYER1
 62
     3
 10
2688.346680
 20
1866.469116
 40
40.000000
 41
0.847059
  1
型    式
 50
0.000000
 51
0.000000
  7
EASYDRAW_FONT
 72
     5
 11
2880.346680
 21
1866.469116
  0
TEXT
  8
CSLAYER1
 62
     3
 10
2686.527100
 20
1743.979370
 40
40.000000
 41
0.847059
  1
テーブル寸法
 50
0.000000
 51
0.000000
  7
EASYDRAW_FONT
 72
     5
 11
2878.527100
 21
1743.979370
  0
TEXT
  8
CSLAYER1
 62
     3
 10
2688.346680
 20
1680.915405
 40
40.000000
 41
0.847059
  1
テーブル高サ
 50
0.000000
 51
0.000000
  7
EASYDRAW_FONT
 72
     5
 11
2880.346680
 21
1680.915405
  0
TEXT
  8
CSLAYER1
 62
     3
 10
2689.793457
 20
1616.032593
 40
40.000000
 41
0.857143
  1
ストローク
 50
0.000000
 51
0.000000
  7
EASYDRAW_FONT
 72
     5
 11
2849.793457
 21
1616.032593
  0
TEXT
  8
CSLAYER1
 62
     3
 10
2689.187256
 20
1551.149780
 40
40.000000
 41
0.857143
  1
全   長
 50
0.000000
 51
0.000000
  7
EASYDRAW_FONT
 72
     5
 11
2849.187256
 21
1551.149780
  0
TEXT
  8
CSLAYER1
 62
     3
 10
2691.458496
 20
1485.298706
 40
40.000000
 41
0.857143
  1
全   巾
 50
0.000000
 51
0.000000
  7
EASYDRAW_FONT
 72
     5
 11
2851.458496
 21
1485.298706
  0
TEXT
  8
CSLAYER1
 62
     3
 10
2689.900635
 20
1421.413940
 40
40.000000
 41
0.857143
  1
全   高
 50
0.000000
 51
0.000000
  7
EASYDRAW_FONT
 72
     5
 11
2849.900635
 21
1421.413940
  0
TEXT
  8
CSLAYER1
 62
     3
 10
2689.900635
 20
1359.087280
 40
40.000000
 41
0.857143
  1
リフト方式
 50
0.000000
 51
0.000000
  7
EASYDRAW_FONT
 72
     5
 11
2849.900635
 21
1359.087280
  0
TEXT
  8
CSLAYER1
 62
     3
 10
3141.769043
 20
1804.977417
 40
40.000000
 41
0.872727
  1
1000
 50
0.000000
 51
0.000000
  7
EASYDRAW_FONT
 72
     5
 11
3269.769043
 21
1804.977417
  0
TEXT
  8
CSLAYER1
 62
     3
 10
3327.925781
 20
1801.304077
 40
40.000000
 41
0.960000
  1
Ｋｇ
 50
0.000000
 51
0.000000
  7
EASYDRAW_FONT
 72
     5
 11
3391.925781
 21
1801.304077
  0
TEXT
  8
CSLAYER1
 62
     3
 10
2980.653320
 20
1740.474487
 40
40.000000
 41
0.830769
  1
1200 ×600
 50
0.000000
 51
0.000000
  7
EASYDRAW_FONT
 72
     5
 11
3268.653320
 21
1740.474487
  0
TEXT
  8
CSLAYER1
 62
     3
 10
3274.107666
 20
1752.160522
 40
40.000000
 41
1.200000
  1
Ｗ
 50
0.000000
 51
0.000000
  7
EASYDRAW_FONT
 72
     5
 11
3306.107666
 21
1752.160522
  0
TEXT
  8
CSLAYER1
 62
     3
 10
3102.399902
 20
1753.950562
 40
40.000000
 41
1.200000
  1
Ｌ
 50
0.000000
 51
0.000000
  7
EASYDRAW_FONT
 72
     5
 11
3134.399902
 21
1753.950562
  0
TEXT
  8
CSLAYER1
 62
     3
 10
3008.548828
 20
1678.611694
 40
40.000000
 41
0.834783
  1
230～1010
 50
0.000000
 51
0.000000
  7
EASYDRAW_FONT
 72
     5
 11
3264.548828
 21
1678.611694
  0
TEXT
  8
CSLAYER1
 62
     3
 10
3167.607422
 20
1614.265503
 40
40.000000
 41
0.900000
  1
780
 50
0.000000
 51
0.000000
  7
EASYDRAW_FONT
 72
     5
 11
3263.607422
 21
1614.265503
  0
TEXT
  8
CSLAYER1
 62
     3
 10
3137.985107
 20
1550.694702
 40
40.000000
 41
0.872727
  1
1200
 50
0.000000
 51
0.000000
  7
EASYDRAW_FONT
 72
     5
 11
3265.985107
 21
1550.694702
  0
TEXT
  8
CSLAYER1
 62
     3
 10
3169.726563
 20
1486.175659
 40
40.000000
 41
0.900000
  1
600
 50
0.000000
 51
0.000000
  7
EASYDRAW_FONT
 72
     5
 11
3265.726563
 21
1486.175659
  0
TEXT
  8
CSLAYER1
 62
     3
 10
2960.937744
 20
1360.041870
 40
40.000000
 41
0.827586
  1
電 動 ボールネジ式
 50
0.000000
 51
0.000000
  7
EASYDRAW_FONT
 72
     5
 11
3280.937744
 21
1360.041870
  0
TEXT
  8
CSLAYER1
 62
     3
 10
3167.717773
 20
1421.514526
 40
40.000000
 41
0.900000
  1
230
 50
0.000000
 51
0.000000
  7
EASYDRAW_FONT
 72
     5
 11
3263.717773
 21
1421.514526
  0
TEXT
  8
CSLAYER1
 62
     3
 10
3325.411621
 20
1737.201050
 40
40.000000
 41
0.960000
  1
mm
 50
0.000000
 51
0.000000
  7
EASYDRAW_FONT
 72
     5
 11
3389.411621
 21
1737.201050
  0
TEXT
  8
CSLAYER1
 62
     3
 10
3325.411621
 20
1676.867554
 40
40.000000
 41
0.960000
  1
mm
 50
0.000000
 51
0.000000
  7
EASYDRAW_FONT
 72
     5
 11
3389.411621
 21
1676.867554
  0
TEXT
  8
CSLAYER1
 62
     3
 10
3321.640869
 20
1612.763550
 40
40.000000
 41
0.960000
  1
mm
 50
0.000000
 51
0.000000
  7
EASYDRAW_FONT
 72
     5
 11
3385.640869
 21
1612.763550
  0
TEXT
  8
CSLAYER1
 62
     3
 10
3321.640869
 20
1544.888550
 40
40.000000
 41
0.960000
  1
mm
 50
0.000000
 51
0.000000
  7
EASYDRAW_FONT
 72
     5
 11
3385.640869
 21
1544.888550
  0
TEXT
  8
CSLAYER1
 62
     3
 10
3319.127441
 20
1484.556030
 40
40.000000
 41
0.960000
  1
mm
 50
0.000000
 51
0.000000
  7
EASYDRAW_FONT
 72
     5
 11
3383.127441
 21
1484.556030
  0
TEXT
  8
CSLAYER1
 62
     3
 10
3319.127441
 20
1420.451050
 40
40.000000
 41
0.960000
  1
mm
 50
0.000000
 51
0.000000
  7
EASYDRAW_FONT
 72
     5
 11
3383.127441
 21
1420.451050
  0
LINE
  8
CSLAYER1
  6
CONTINUOUS
 62
     5
 10
3061.364163
 20
1922.246206
 11
2852.978191
 21
1922.246206
  0
LINE
  8
CSLAYER1
  6
CONTINUOUS
 62
     5
 10
3061.364163
 20
1930.246205
 11
2852.978191
 21
1930.246205
  0
LINE
  8
CSLAYER1
  6
CONTINUOUS
 62
     4
 10
824.675204
 20
409.408879
 11
824.675204
 21
345.127095
  0
LINE
  8
CSLAYER1
  6
CONTINUOUS
 62
     4
 10
652.875204
 20
410.127095
 11
652.875204
 21
435.788840
  0
LINE
  8
CSLAYER1
  6
CONTINUOUS
 62
     5
 10
647.046028
 20
428.044162
 11
681.586158
 21
428.044162
  0
LINE
  8
CSLAYER1
  6
CONTINUOUS
 62
     4
 10
651.675204
 20
433.044162
 11
652.875204
 21
433.044162
  0
LINE
  8
CSLAYER1
  6
CONTINUOUS
 62
     4
 10
651.675204
 20
423.044162
 11
652.875204
 21
423.044162
  0
LINE
  8
CSLAYER1
  6
CONTINUOUS
 62
     2
 10
652.875204
 20
422.737871
 11
655.875204
 21
422.737871
  0
LINE
  8
CSLAYER1
  6
CONTINUOUS
 62
     2
 10
652.875204
 20
427.085090
 11
655.875204
 21
427.085090
  0
LINE
  8
CSLAYER1
  6
CONTINUOUS
 62
     4
 10
652.875204
 20
435.788840
 11
656.875204
 21
435.788840
  0
LINE
  8
CSLAYER1
  6
CONTINUOUS
 62
     2
 10
655.875204
 20
410.127095
 11
655.875204
 21
435.788840
  0
LINE
  8
CSLAYER1
  6
CONTINUOUS
 62
     2
 10
660.375204
 20
465.620693
 11
661.875204
 21
465.620693
  0
LINE
  8
CSLAYER1
  6
CONTINUOUS
 62
     4
 10
660.375204
 20
466.128900
 11
661.875204
 21
466.128900
  0
LINE
  8
CSLAYER1
  6
CONTINUOUS
 62
     4
 10
671.875204
 20
410.127095
 11
671.875204
 21
435.788840
  0
LINE
  8
CSLAYER1
  6
CONTINUOUS
 62
     4
 10
660.375204
 20
453.817163
 11
660.375204
 21
466.128900
  0
LINE
  8
CSLAYER1
  6
CONTINUOUS
 62
     4
 10
667.375204
 20
453.817163
 11
667.375204
 21
466.128900
  0
LINE
  8
CSLAYER1
  6
CONTINUOUS
 62
     2
 10
656.875204
 20
426.502666
 11
656.875204
 21
435.788840
  0
LINE
  8
CSLAYER1
  6
CONTINUOUS
 62
     2
 10
670.875204
 20
426.502666
 11
670.875204
 21
435.788840
  0
LINE
  8
CSLAYER1
  6
CONTINUOUS
 62
     2
 10
661.875204
 20
453.817163
 11
661.875204
 21
466.128900
  0
LINE
  8
CSLAYER1
  6
CONTINUOUS
 62
     2
 10
665.875204
 20
453.817163
 11
665.875204
 21
466.128900
  0
LINE
  8
CSLAYER1
  6
CONTINUOUS
 62
     4
 10
658.336022
 20
453.817163
 11
660.375204
 21
453.817163
  0
LINE
  8
CSLAYER1
  6
CONTINUOUS
 62
     4
 10
670.875204
 20
441.833025
 11
669.414386
 21
453.817163
  0
LINE
  8
CSLAYER1
  6
CONTINUOUS
 62
     4
 10
656.875204
 20
441.833025
 11
658.336022
 21
453.817163
  0
LINE
  8
CSLAYER1
  6
CONTINUOUS
 62
     4
 10
667.375204
 20
453.817163
 11
669.414386
 21
453.817163
  0
LINE
  8
CSLAYER1
  6
CONTINUOUS
 62
     2
 10
655.875204
 20
426.502666
 11
671.875204
 21
426.502666
  0
LINE
  8
CSLAYER1
  6
CONTINUOUS
 62
     2
 10
672.875204
 20
420.251703
 11
672.875204
 21
427.851703
  0
LINE
  8
CSLAYER1
  6
CONTINUOUS
 62
     2
 10
672.875204
 20
420.251703
 11
671.875204
 21
420.251703
  0
LINE
  8
CSLAYER1
  6
CONTINUOUS
 62
     2
 10
672.875204
 20
427.851703
 11
671.875204
 21
427.851703
  0
LINE
  8
CSLAYER1
  6
CONTINUOUS
 62
     2
 10
675.475204
 20
422.551703
 11
675.475204
 21
425.551703
  0
LINE
  8
CSLAYER1
  6
CONTINUOUS
 62
     2
 10
673.475204
 20
420.551703
 11
672.875204
 21
420.551703
  0
LINE
  8
CSLAYER1
  6
CONTINUOUS
 62
     2
 10
673.475204
 20
427.551703
 11
672.875204
 21
427.551703
  0
ARC
  8
CSLAYER1
  6
CONTINUOUS
 62
     2
 10
673.475204
 20
422.551703
 40
2.000000
 50
270.000000
 51
360.000000
  0
ARC
  8
CSLAYER1
  6
CONTINUOUS
 62
     2
 10
673.475204
 20
425.551703
 40
2.000000
 50
0.000000
 51
90.000000
  0
LINE
  8
CSLAYER1
  6
CONTINUOUS
 62
     4
 10
670.875204
 20
435.788840
 11
671.875204
 21
435.788840
  0
LINE
  8
CSLAYER1
  6
CONTINUOUS
 62
     2
 10
665.875204
 20
465.620693
 11
667.375204
 21
465.620693
  0
LINE
  8
CSLAYER1
  6
CONTINUOUS
 62
     4
 10
665.875204
 20
466.128900
 11
667.375204
 21
466.128900
  0
LINE
  8
CSLAYER1
  6
CONTINUOUS
 62
     4
 10
659.633449
 20
483.451886
 11
661.129143
 21
482.554470
  0
LINE
  8
CSLAYER1
  6
CONTINUOUS
 62
     4
 10
661.129143
 20
482.554470
 11
670.103303
 21
474.776864
  0
LINE
  8
CSLAYER1
  6
CONTINUOUS
 62
     4
 10
651.675204
 20
433.044162
 11
651.675204
 21
423.044162
  0
LINE
  8
CSLAYER1
  6
CONTINUOUS
 62
     4
 10
671.875204
 20
433.044162
 11
681.675204
 21
433.044162
  0
LINE
  8
CSLAYER1
  6
CONTINUOUS
 62
     4
 10
675.413627
 20
423.044162
 11
681.675204
 21
423.044162
  0
LINE
  8
CSLAYER1
  6
CONTINUOUS
 62
     4
 10
756.675204
 20
410.127095
 11
756.675204
 21
1151.830575
  0
LINE
  8
CSLAYER1
  6
CONTINUOUS
 62
     4
 10
740.675204
 20
410.127095
 11
740.675204
 21
1151.830575
  0
LINE
  8
CSLAYER1
  6
CONTINUOUS
 62
     4
 10
697.675204
 20
410.127095
 11
697.675204
 21
1266.830575
  0
LINE
  8
CSLAYER1
  6
CONTINUOUS
 62
     4
 10
681.675204
 20
410.127095
 11
681.675204
 21
1266.830575
  0
LINE
  8
CSLAYER1
  6
CONTINUOUS
 62
     3
 10
776.375204
 20
1170.830575
 11
776.375204
 21
1180.330575
  0
LINE
  8
CSLAYER1
  6
CONTINUOUS
 62
     4
 10
773.175204
 20
1317.030575
 11
773.175204
 21
1151.830575
  0
LINE
  8
CSLAYER1
  6
CONTINUOUS
 62
     4
 10
732.175204
 20
1266.830575
 11
732.175204
 21
1151.830575
  0
LINE
  8
CSLAYER1
  6
CONTINUOUS
 62
     5
 10
779.383056
 20
1170.830575
 11
728.116789
 21
1170.830575
  0
LINE
  8
CSLAYER1
  6
CONTINUOUS
 62
     4
 10
732.175204
 20
1151.830575
 11
773.175204
 21
1151.830575
  0
LINE
  8
CSLAYER1
  6
CONTINUOUS
 62
     4
 10
824.675204
 20
1367.030575
 11
824.675204
 21
1317.030575
  0
LINE
  8
CSLAYER1
  6
CONTINUOUS
 62
     4
 10
776.375204
 20
1193.830575
 11
776.375204
 21
1162.830575
  0
LINE
  8
CSLAYER1
  6
CONTINUOUS
 62
     4
 10
776.375204
 20
1166.830575
 11
773.175204
 21
1166.830575
  0
LINE
  8
CSLAYER1
  6
CONTINUOUS
 62
     5
 10
780.866078
 20
1185.830575
 11
767.175204
 21
1185.830575
  0
LINE
  8
CSLAYER1
  6
CONTINUOUS
 62
     4
 10
776.375204
 20
1193.830575
 11
773.175204
 21
1193.830575
  0
LINE
  8
CSLAYER1
  6
CONTINUOUS
 62
     4
 10
731.175204
 20
1163.830575
 11
731.175204
 21
1177.830575
  0
LINE
  8
CSLAYER1
  6
CONTINUOUS
 62
     4
 10
731.175204
 20
1163.830575
 11
732.175204
 21
1162.830575
  0
LINE
  8
CSLAYER1
  6
CONTINUOUS
 62
     4
 10
776.375204
 20
1162.830575
 11
773.175204
 21
1162.830575
  0
LINE
  8
CSLAYER1
  6
CONTINUOUS
 62
     4
 10
731.175204
 20
1177.830575
 11
732.175204
 21
1178.830575
  0
LINE
  8
CSLAYER1
  6
CONTINUOUS
 62
     4
 10
824.675204
 20
1317.030575
 11
224.675204
 21
1317.030575
  0
ARC
  8
CSLAYER1
  6
CONTINUOUS
 62
     4
 10
821.675204
 20
1367.030575
 40
3.000000
 50
0.000000
 51
90.000000
  0
LINE
  8
CSLAYER1
  6
CONTINUOUS
 62
     4
 10
776.375204
 20
1174.830575
 11
773.175204
 21
1174.830575
  0
LINE
  8
CSLAYER1
  6
CONTINUOUS
 62
     4
 10
821.675204
 20
1370.030575
 11
227.675204
 21
1370.030575
  0
LINE
  8
CSLAYER1
  6
CENTER
 62
     5
 10
649.675204
 20
1260.252684
 11
649.675204
 21
633.954273
  0
LINE
  8
CSLAYER1
  6
CONTINUOUS
 62
     5
 10
649.675204
 20
649.521394
 11
723.538235
 21
649.521394
  0
LINE
  8
CSLAYER1
  6
CONTINUOUS
 62
     4
 10
699.675204
 20
665.521394
 11
699.675204
 21
633.521394
  0
LINE
  8
CSLAYER1
  6
CONTINUOUS
 62
     4
 10
709.675204
 20
663.521394
 11
709.675204
 21
635.521394
  0
LINE
  8
CSLAYER1
  6
CONTINUOUS
 62
     4
 10
707.675204
 20
665.521394
 11
699.675204
 21
665.521394
  0
LINE
  8
CSLAYER1
  6
CONTINUOUS
 62
     4
 10
709.675204
 20
663.521394
 11
707.675204
 21
665.521394
  0
LINE
  8
CSLAYER1
  6
CONTINUOUS
 62
     4
 10
707.675204
 20
665.521394
 11
707.675204
 21
633.521394
  0
LINE
  8
CSLAYER1
  6
CONTINUOUS
 62
     4
 10
707.675204
 20
633.521394
 11
699.675204
 21
633.521394
  0
LINE
  8
CSLAYER1
  6
CONTINUOUS
 62
     4
 10
709.675204
 20
635.521394
 11
707.675204
 21
633.521394
  0
LINE
  8
CSLAYER1
  6
CONTINUOUS
 62
     4
 10
699.675204
 20
663.521394
 11
697.675204
 21
663.521394
  0
LINE
  8
CSLAYER1
  6
CONTINUOUS
 62
     4
 10
699.675204
 20
635.521394
 11
697.675204
 21
635.521394
  0
LINE
  8
CSLAYER1
  6
CONTINUOUS
 62
     4
 10
667.575204
 20
891.636185
 11
667.575204
 21
1080.658917
  0
LINE
  8
CSLAYER1
  6
CONTINUOUS
 62
     4
 10
631.775204
 20
891.636185
 11
631.775204
 21
1075.133917
  0
LINE
  8
CSLAYER1
  6
CONTINUOUS
 62
     4
 10
697.675204
 20
668.957707
 11
740.675204
 21
668.957707
  0
LINE
  8
CSLAYER1
  6
CONTINUOUS
 62
     4
 10
600.997488
 20
597.644897
 11
681.675204
 21
597.644897
  0
LINE
  8
CSLAYER1
  6
CONTINUOUS
 62
     4
 10
697.675204
 20
597.644897
 11
740.675204
 21
597.644897
  0
LINE
  8
CSLAYER1
  6
CENTER
 62
     5
 10
524.675204
 20
1411.889523
 11
524.675204
 21
314.640373
  0
LINE
  8
CSLAYER1
  6
CONTINUOUS
 62
     4
 10
772.675204
 20
715.341295
 11
772.675204
 21
410.127095
  0
LINE
  8
CSLAYER1
  6
CONTINUOUS
 62
     4
 10
756.675204
 20
715.341295
 11
772.675204
 21
715.341295
  0
LINE
  8
CSLAYER1
  6
CONTINUOUS
 62
     4
 10
569.225204
 20
727.045236
 11
681.675204
 21
727.045236
  0
LINE
  8
CSLAYER1
  6
CONTINUOUS
 62
     4
 10
569.225204
 20
704.614113
 11
681.675204
 21
704.614113
  0
LINE
  8
CSLAYER1
  6
CONTINUOUS
 62
     4
 10
697.675204
 20
704.614113
 11
740.675204
 21
704.614113
  0
LINE
  8
CSLAYER1
  6
CONTINUOUS
 62
     4
 10
764.675204
 20
1266.830575
 11
284.675204
 21
1266.830575
  0
LINE
  8
CSLAYER1
  6
CONTINUOUS
 62
     4
 10
764.675204
 20
1317.030575
 11
764.675204
 21
1266.830575
  0
LINE
  8
CSLAYER1
  6
CONTINUOUS
 62
     3
 10
1024.015706
 20
1528.516710
 11
1024.015706
 21
2128.516710
  0
LINE
  8
CSLAYER1
  6
CONTINUOUS
 62
     3
 10
1024.675204
 20
1370.030575
 11
1024.675204
 21
1317.030575
  0
LINE
  8
CSLAYER1
  6
CONTINUOUS
 62
     3
 10
1027.875204
 20
1317.030575
 11
1027.875204
 21
1266.830575
  0
LINE
  8
CSLAYER1
  6
CONTINUOUS
 62
     3
 10
1036.675204
 20
1317.030575
 11
1036.675204
 21
1151.830575
  0
LINE
  8
CSLAYER1
  6
CONTINUOUS
 62
     3
 10
1024.675204
 20
1370.030575
 11
2224.675204
 21
1370.030575
  0
LINE
  8
CSLAYER1
  6
CONTINUOUS
 62
     3
 10
1086.675204
 20
1317.030575
 11
1086.675204
 21
1166.830575
  0
ARC
  8
CSLAYER1
  6
CONTINUOUS
 62
     3
 10
1071.675204
 20
1166.830575
 40
15.000000
 50
270.000000
 51
360.000000
  0
LINE
  8
CSLAYER1
  6
CONTINUOUS
 62
     3
 10
1036.675204
 20
1151.830575
 11
1071.675204
 21
1151.830575
  0
LINE
  8
CSLAYER1
  6
CONTINUOUS
 62
     5
 10
1048.675204
 20
1170.830575
 11
1090.484761
 21
1170.830575
  0
LINE
  8
CSLAYER1
  6
CONTINUOUS
 62
     5
 10
1066.675204
 20
1191.722757
 11
1066.675204
 21
1151.830575
  0
LINE
  8
CSLAYER1
  6
CONTINUOUS
 62
     3
 10
2224.675204
 20
1370.030575
 11
2224.675204
 21
1317.030575
  0
LINE
  8
CSLAYER1
  6
CONTINUOUS
 62
     3
 10
2221.475204
 20
1219.830575
 11
2221.475204
 21
1317.030575
  0
LINE
  8
CSLAYER1
  6
CONTINUOUS
 62
     3
 10
2224.675204
 20
1317.030575
 11
1024.675204
 21
1317.030575
  0
LINE
  8
CSLAYER1
  6
CONTINUOUS
 62
     3
 10
2209.475204
 20
1194.830575
 11
2209.475204
 21
1317.030575
  0
LINE
  8
CSLAYER1
  6
CONTINUOUS
 62
     3
 10
1184.475204
 20
1216.830575
 11
2218.475204
 21
1216.830575
  0
LINE
  8
CSLAYER1
  6
CONTINUOUS
 62
     3
 10
1762.475204
 20
1191.830575
 11
2206.475204
 21
1191.830575
  0
LINE
  8
CSLAYER1
  6
CONTINUOUS
 62
     3
 10
1759.475204
 20
1194.830575
 11
1759.475204
 21
1216.830575
  0
LINE
  8
CSLAYER1
  6
CONTINUOUS
 62
     3
 10
1759.475204
 20
1194.830575
 11
1762.475204
 21
1191.830575
  0
LINE
  8
CSLAYER1
  6
CONTINUOUS
 62
     3
 10
2206.475204
 20
1191.830575
 11
2209.475204
 21
1194.830575
  0
LINE
  8
CSLAYER1
  6
CONTINUOUS
 62
     3
 10
2218.475204
 20
1216.830575
 11
2221.475204
 21
1219.830575
  0
ARC
  8
CSLAYER1
  6
CONTINUOUS
 62
     3
 10
1858.154393
 20
1175.834563
 40
17.000000
 50
-33.130284
 51
45.490000
  0
CIRCLE
  8
CSLAYER1
  6
CONTINUOUS
 62
     3
 10
1851.832995
 20
1170.830572
 40
21.000000
  0
LINE
  8
CSLAYER1
  6
CONTINUOUS
 62
     3
 10
1407.087336
 20
790.310428
 11
1397.345430
 21
808.779192
  0
LINE
  8
CSLAYER1
  6
CONTINUOUS
 62
     3
 10
1477.190708
 20
718.997616
 11
1368.843071
 21
829.214489
  0
CIRCLE
  8
CSLAYER1
  6
CONTINUOUS
 62
     3
 10
1459.254099
 20
771.478834
 40
15.000000
  0
CIRCLE
  8
CSLAYER1
  6
CONTINUOUS
 62
     3
 10
1459.254099
 20
771.478834
 40
21.350000
  0
LINE
  8
CSLAYER1
  6
CONTINUOUS
 62
     3
 10
1024.675204
 20
410.127095
 11
1024.675204
 21
345.127095
  0
LINE
  8
CSLAYER1
  6
CONTINUOUS
 62
     3
 10
2224.675204
 20
410.127095
 11
2224.675204
 21
345.127095
  0
LINE
  8
CSLAYER1
  6
CONTINUOUS
 62
     3
 10
1024.675204
 20
410.127095
 11
2224.675204
 21
410.127095
  0
LINE
  8
CSLAYER1
  6
CONTINUOUS
 62
     5
 10
1046.675204
 20
372.127095
 11
1086.675204
 21
372.127095
  0
LINE
  8
CSLAYER1
  6
CONTINUOUS
 62
     5
 10
1066.675204
 20
392.127095
 11
1066.675204
 21
352.127095
  0
LINE
  8
CSLAYER1
  6
CONTINUOUS
 62
     5
 10
1407.950083
 20
771.478834
 11
1513.405766
 21
771.478834
  0
LINE
  8
CSLAYER1
  6
CONTINUOUS
 62
     5
 10
1459.254102
 20
815.427756
 11
1459.254102
 21
718.997617
  0
LINE
  8
CSLAYER1
  6
CONTINUOUS
 62
     3
 10
1629.218787
 20
1216.830575
 11
1561.398105
 21
1147.839838
  0
LINE
  8
CSLAYER1
  6
CONTINUOUS
 62
     3
 10
1441.317491
 20
718.997621
 11
1423.018047
 21
708.941262
  0
LINE
  8
CSLAYER1
  6
CONTINUOUS
 62
     3
 10
1459.254097
 20
737.243673
 11
1441.317491
 21
718.997621
  0
LINE
  8
CSLAYER1
  6
CONTINUOUS
 62
     3
 10
1503.425684
 20
849.221169
 11
1606.940838
 21
954.522185
  0
ARC
  8
CSLAYER1
  6
CONTINUOUS
 62
     3
 10
1590.842401
 20
1012.322188
 40
60.000000
 50
285.563565
 51
315.490000
  0
LINE
  8
CSLAYER1
  6
CONTINUOUS
 62
     3
 10
1633.630087
 20
970.260164
 11
1785.053375
 21
1124.295835
  0
LINE
  8
CSLAYER1
  6
CONTINUOUS
 62
     3
 10
1785.053375
 20
1124.295835
 11
1848.580903
 21
1150.083912
  0
ARC
  8
CSLAYER1
  6
CONTINUOUS
 62
     3
 10
1590.842401
 20
1012.322188
 40
32.500000
 50
148.247532
 51
328.247532
  0
LINE
  8
CSLAYER1
  6
CONTINUOUS
 62
     3
 10
1755.628688
 20
1216.830575
 11
1618.478112
 21
995.219045
  0
CIRCLE
  8
CSLAYER1
  6
CONTINUOUS
 62
     3
 10
1851.832996
 20
1170.830577
 40
10.100000
  0
CIRCLE
  8
CSLAYER1
  6
CONTINUOUS
 62
     4
 10
1459.254103
 20
771.478836
 40
20.100000
  0
CIRCLE
  8
CSLAYER1
  6
CONTINUOUS
 62
     3
 10
1255.228655
 20
649.521398
 40
14.100000
  0
LINE
  8
CSLAYER1
  6
CONTINUOUS
 62
     3
 10
1075.570508
 20
489.587192
 11
1057.049827
 21
410.127095
  0
LINE
  8
CSLAYER1
  6
CONTINUOUS
 62
     3
 10
1129.271646
 20
410.127095
 11
1423.018041
 21
708.941258
  0
LINE
  8
CSLAYER1
  6
CONTINUOUS
 62
     3
 10
1679.187738
 20
1216.830575
 11
1563.206690
 21
1029.425331
  0
LINE
  8
CSLAYER1
  6
CONTINUOUS
 62
     3
 10
1870.071968
 20
1187.957746
 11
1866.132324
 21
1191.830575
  0
LINE
  8
CSLAYER1
  6
CONTINUOUS
 62
     3
 10
1075.570508
 20
489.587192
 11
1348.114376
 21
858.859592
  0
LINE
  8
CSLAYER1
  6
CONTINUOUS
 62
     3
 10
1410.653249
 20
943.594133
 11
1561.398105
 21
1147.839838
  0
LINE
  8
CSLAYER1
  6
CONTINUOUS
 62
     3
 10
1027.875204
 20
1266.830575
 11
1036.675204
 21
1266.830575
  0
LINE
  8
CSLAYER1
  6
CONTINUOUS
 62
     3
 10
1850.138757
 20
448.026732
 11
1596.014027
 21
706.535671
  0
POINT
  8
CSLAYER1
 62
     3
 10
1572.837363
 20
683.752074
  0
ARC
  8
CSLAYER1
  6
CONTINUOUS
 62
     3
 10
1572.837363
 20
683.752074
 40
32.500000
 50
44.510000
 51
224.510000
  0
LINE
  8
CSLAYER1
  6
CONTINUOUS
 62
     3
 10
1850.138757
 20
448.026732
 11
1859.960287
 21
410.127095
  0
LINE
  8
CSLAYER1
  6
CONTINUOUS
 62
     3
 10
1796.247913
 20
410.127095
 11
1549.660700
 21
660.968478
  0
LINE
  8
CSLAYER1
  6
CONTINUOUS
 62
     3
 10
1789.236543
 20
410.127095
 11
1495.490158
 21
708.941253
  0
LINE
  8
CSLAYER1
  6
CONTINUOUS
 62
     3
 10
1836.048296
 20
510.860084
 11
1860.973258
 21
410.127095
  0
LINE
  8
CSLAYER1
  6
CONTINUOUS
 62
     3
 10
1836.048296
 20
510.860084
 11
1205.117935
 21
1152.675384
  0
LINE
  8
CSLAYER1
  6
CONTINUOUS
 62
     3
 10
1397.345425
 20
808.779199
 11
1060.112068
 21
1151.830575
  0
LINE
  8
CSLAYER1
  6
CONTINUOUS
 62
     3
 10
1477.190708
 20
718.997616
 11
1495.490151
 21
708.941257
  0
LINE
  8
CSLAYER1
  6
CONTINUOUS
 62
     3
 10
1205.117935
 20
1152.675384
 11
1086.675204
 21
1184.141628
  0
LINE
  8
CSLAYER1
  6
CONTINUOUS
 62
     3
 10
1292.728497
 20
1062.361775
 11
1293.324196
 21
1062.947371
  0
LINE
  8
CSLAYER1
  6
CONTINUOUS
 62
     3
 10
1109.475204
 20
1291.830575
 11
1109.475204
 21
1317.030575
  0
LINE
  8
CSLAYER1
  6
CONTINUOUS
 62
     3
 10
1109.475204
 20
1291.830575
 11
1184.475204
 21
1216.830575
  0
CIRCLE
  8
CSLAYER1
  6
CONTINUOUS
 62
     3
 10
1066.675206
 20
1170.830575
 40
8.000000
  0
LINE
  8
CSLAYER1
  6
CONTINUOUS
 62
     3
 10
1736.111823
 20
1199.514464
 11
1714.643831
 21
1216.830575
  0
LINE
  8
CSLAYER1
  6
CONTINUOUS
 62
     3
 10
1736.111823
 20
1199.514464
 11
1736.262356
 21
1198.108285
  0
LINE
  8
CSLAYER1
  6
CONTINUOUS
 62
     3
 10
1728.176404
 20
1205.915183
 11
1729.553847
 21
1210.815751
  0
LINE
  8
CSLAYER1
  6
CONTINUOUS
 62
     3
 10
1729.553847
 20
1210.815751
 11
1723.343757
 21
1209.813203
  0
LINE
  8
CSLAYER1
  6
CONTINUOUS
 62
     3
 10
1723.343757
 20
1209.813203
 11
1724.434522
 21
1211.940186
  0
LINE
  8
CSLAYER1
  6
CONTINUOUS
 62
     3
 10
1723.343757
 20
1209.813203
 11
1729.455968
 21
1210.467522
  0
LINE
  8
CSLAYER1
  6
CONTINUOUS
 62
     3
 10
1723.563909
 20
1209.635628
 11
1729.397677
 21
1210.260139
  0
LINE
  8
CSLAYER1
  6
CONTINUOUS
 62
     3
 10
1723.784061
 20
1209.458053
 11
1729.339386
 21
1210.052757
  0
LINE
  8
CSLAYER1
  6
CONTINUOUS
 62
     3
 10
1724.004214
 20
1209.280478
 11
1729.281095
 21
1209.845374
  0
LINE
  8
CSLAYER1
  6
CONTINUOUS
 62
     3
 10
1724.224366
 20
1209.102903
 11
1729.222805
 21
1209.637991
  0
LINE
  8
CSLAYER1
  6
CONTINUOUS
 62
     3
 10
1724.444518
 20
1208.925327
 11
1729.164514
 21
1209.430608
  0
LINE
  8
CSLAYER1
  6
CONTINUOUS
 62
     3
 10
1724.664671
 20
1208.747752
 11
1729.106223
 21
1209.223225
  0
LINE
  8
CSLAYER1
  6
CONTINUOUS
 62
     3
 10
1724.884823
 20
1208.570177
 11
1729.047932
 21
1209.015842
  0
LINE
  8
CSLAYER1
  6
CONTINUOUS
 62
     3
 10
1725.104975
 20
1208.392602
 11
1728.989641
 21
1208.808460
  0
LINE
  8
CSLAYER1
  6
CONTINUOUS
 62
     3
 10
1725.325128
 20
1208.215027
 11
1728.931351
 21
1208.601077
  0
LINE
  8
CSLAYER1
  6
CONTINUOUS
 62
     3
 10
1725.545280
 20
1208.037452
 11
1728.873060
 21
1208.393694
  0
LINE
  8
CSLAYER1
  6
CONTINUOUS
 62
     3
 10
1725.765432
 20
1207.859876
 11
1728.814769
 21
1208.186311
  0
LINE
  8
CSLAYER1
  6
CONTINUOUS
 62
     3
 10
1725.985585
 20
1207.682301
 11
1728.756478
 21
1207.978928
  0
LINE
  8
CSLAYER1
  6
CONTINUOUS
 62
     3
 10
1726.205737
 20
1207.504726
 11
1728.698187
 21
1207.771546
  0
LINE
  8
CSLAYER1
  6
CONTINUOUS
 62
     3
 10
1726.425889
 20
1207.327151
 11
1728.639897
 21
1207.564163
  0
LINE
  8
CSLAYER1
  6
CONTINUOUS
 62
     3
 10
1726.646042
 20
1207.149576
 11
1728.581606
 21
1207.356780
  0
LINE
  8
CSLAYER1
  6
CONTINUOUS
 62
     3
 10
1726.866194
 20
1206.972000
 11
1728.523315
 21
1207.149397
  0
LINE
  8
CSLAYER1
  6
CONTINUOUS
 62
     3
 10
1727.086346
 20
1206.794425
 11
1728.465024
 21
1206.942014
  0
LINE
  8
CSLAYER1
  6
CONTINUOUS
 62
     3
 10
1727.306499
 20
1206.616850
 11
1728.406733
 21
1206.734631
  0
LINE
  8
CSLAYER1
  6
CONTINUOUS
 62
     3
 10
1727.526651
 20
1206.439275
 11
1728.348443
 21
1206.527249
  0
LINE
  8
CSLAYER1
  6
CONTINUOUS
 62
     3
 10
1727.746803
 20
1206.261700
 11
1728.290152
 21
1206.319866
  0
LINE
  8
CSLAYER1
  6
CONTINUOUS
 62
     3
 10
1727.966956
 20
1206.084125
 11
1728.231861
 21
1206.112483
  0
LINE
  8
CSLAYER1
  6
CONTINUOUS
 62
     3
 10
1723.452899
 20
1210.026030
 11
1729.514259
 21
1210.674905
  0
LINE
  8
CSLAYER1
  6
CONTINUOUS
 62
     3
 10
1723.562041
 20
1210.238856
 11
1729.293102
 21
1210.852373
  0
LINE
  8
CSLAYER1
  6
CONTINUOUS
 62
     3
 10
1723.671184
 20
1210.451683
 11
1728.530563
 21
1210.971885
  0
LINE
  8
CSLAYER1
  6
CONTINUOUS
 62
     3
 10
1723.780326
 20
1210.664510
 11
1727.830328
 21
1211.098067
  0
LINE
  8
CSLAYER1
  6
CONTINUOUS
 62
     3
 10
1723.889468
 20
1210.877336
 11
1727.179764
 21
1211.229566
  0
LINE
  8
CSLAYER1
  6
CONTINUOUS
 62
     3
 10
1723.998611
 20
1211.090163
 11
1726.570055
 21
1211.365438
  0
LINE
  8
CSLAYER1
  6
CONTINUOUS
 62
     3
 10
1724.107753
 20
1211.302989
 11
1725.994756
 21
1211.504995
  0
LINE
  8
CSLAYER1
  6
CONTINUOUS
 62
     3
 10
1724.216896
 20
1211.515816
 11
1725.448985
 21
1211.647712
  0
LINE
  8
CSLAYER1
  6
CONTINUOUS
 62
     3
 10
1724.326038
 20
1211.728642
 11
1724.928940
 21
1211.793184
  0
LINE
  8
CSLAYER1
  6
CONTINUOUS
 62
     3
 10
1571.772710
 20
994.178992
 11
1736.419311
 21
1198.302874
  0
ARC
  8
CSLAYER1
  6
CONTINUOUS
 62
     3
 10
1732.531144
 20
1241.266605
 40
30.250000
 50
233.881809
 51
306.118205
  0
LINE
  8
CSLAYER1
  6
CONTINUOUS
 62
     3
 10
1191.700907
 20
658.365913
 11
1199.862607
 21
668.484542
  0
LINE
  8
CSLAYER1
  6
CONTINUOUS
 62
     3
 10
1025.529707
 20
463.501517
 11
1062.533553
 21
433.654165
  0
LINE
  8
CSLAYER1
  6
CONTINUOUS
 62
     3
 10
1061.315622
 20
507.867814
 11
1078.708410
 21
493.838768
  0
LINE
  8
CSLAYER1
  6
CONTINUOUS
 62
     3
 10
1148.884096
 20
613.246951
 11
1161.337793
 21
603.201782
  0
LINE
  8
CSLAYER1
  6
CONTINUOUS
 62
     3
 10
1194.024936
 20
673.193215
 11
1204.716964
 21
664.569011
  0
LINE
  8
CSLAYER1
  6
CONTINUOUS
 62
     3
 10
1025.529707
 20
463.501517
 11
1061.315622
 21
507.867814
  0
LINE
  8
CSLAYER1
  6
CONTINUOUS
 62
     3
 10
1062.872335
 20
506.612168
 11
1153.906680
 21
619.473800
  0
LINE
  8
CSLAYER1
  6
CONTINUOUS
 62
     3
 10
1161.715932
 20
619.598642
 11
1192.479263
 21
657.738089
  0
LINE
  8
CSLAYER1
  6
CONTINUOUS
 62
     3
 10
1025.529707
 20
463.501517
 11
1034.517532
 21
445.973853
  0
LINE
  8
CSLAYER1
  6
CONTINUOUS
 62
     3
 10
1060.517037
 20
425.002618
 11
1034.517532
 21
445.973853
  0
LINE
  8
CSLAYER1
  6
CONTINUOUS
 62
     3
 10
1157.831776
 20
430.017753
 11
1152.808238
 21
434.069746
  0
LINE
  8
CSLAYER1
  6
CONTINUOUS
 62
     3
 10
1141.787945
 20
410.127095
 11
1157.831776
 21
430.017753
  0
LINE
  8
CSLAYER1
  6
CONTINUOUS
 62
     3
 10
1156.275064
 20
431.273399
 11
1184.690716
 21
466.502266
  0
LINE
  8
CSLAYER1
  6
CONTINUOUS
 62
     3
 10
1191.700907
 20
658.365913
 11
1192.479263
 21
657.738089
  0
LINE
  8
CSLAYER1
  6
CONTINUOUS
 62
     3
 10
1171.133278
 20
631.273983
 11
1176.781105
 21
626.718438
  0
LINE
  8
CSLAYER1
  6
CONTINUOUS
 62
     3
 10
1582.319435
 20
985.671989
 11
1559.380198
 21
1004.174809
  0
LINE
  8
CSLAYER1
  6
CONTINUOUS
 62
     3
 10
1156.719039
 20
619.774866
 11
1166.082266
 21
612.222474
  0
ARC
  8
CSLAYER1
  6
CONTINUOUS
 62
     3
 10
1159.380864
 20
621.482111
 40
3.000000
 50
231.110305
 51
321.110305
  0
LINE
  8
CSLAYER1
  6
CONTINUOUS
 62
     3
 10
1069.099183
 20
501.589583
 11
1155.458849
 21
608.655688
  0
LINE
  8
CSLAYER1
  6
CONTINUOUS
 62
     3
 10
1067.542471
 20
502.845229
 11
1153.902137
 21
609.911334
  0
ARC
  8
CSLAYER1
  6
CONTINUOUS
 62
     3
 10
1155.463392
 20
618.218153
 40
2.000000
 50
51.110305
 51
141.110305
  0
LINE
  8
CSLAYER1
  6
CONTINUOUS
 62
     3
 10
1219.137859
 20
704.327458
 11
1228.492162
 21
696.782264
  0
LINE
  8
CSLAYER1
  6
CONTINUOUS
 62
     3
 10
1192.742393
 20
657.525848
 11
1196.990024
 21
654.099703
  0
LINE
  8
CSLAYER1
  6
CONTINUOUS
 62
     3
 10
1230.404070
 20
702.306291
 11
1231.761252
 21
701.211586
  0
LINE
  8
CSLAYER1
  6
CONTINUOUS
 62
     3
 10
1191.486747
 20
655.969136
 11
1195.801264
 21
652.489041
  0
LINE
  8
CSLAYER1
  6
CONTINUOUS
 62
     3
 10
1191.486747
 20
655.969136
 11
1192.742393
 21
657.525848
  0
LINE
  8
CSLAYER1
  6
CONTINUOUS
 62
     3
 10
1188.339924
 20
650.156434
 11
1191.937794
 21
647.254387
  0
LINE
  8
CSLAYER1
  6
CONTINUOUS
 62
     3
 10
1229.256905
 20
702.485721
 11
1226.168365
 21
698.656642
  0
LINE
  8
CSLAYER1
  6
CONTINUOUS
 62
     3
 10
1188.339924
 20
650.156434
 11
1187.921732
 21
651.239623
  0
LINE
  8
CSLAYER1
  6
CONTINUOUS
 62
     3
 10
1230.404070
 20
702.306291
 11
1229.256905
 21
702.485721
  0
LINE
  8
CSLAYER1
  6
CONTINUOUS
 62
     3
 10
1191.638096
 20
655.847058
 11
1187.921732
 21
651.239623
  0
ARC
  8
CSLAYER1
  6
CONTINUOUS
 62
     3
 10
1191.075741
 20
652.161146
 40
3.285875
 50
206.423810
 51
266.074688
  0
ARC
  8
CSLAYER1
  6
CONTINUOUS
 62
     3
 10
1229.044302
 20
699.233422
 40
3.259241
 50
35.493498
 51
76.676204
  0
ARC
  8
CSLAYER1
  6
CONTINUOUS
 62
     3
 10
1201.196452
 20
655.742333
 40
12.419443
 50
213.522351
 51
222.386021
  0
LINE
  8
CSLAYER1
  6
CONTINUOUS
 62
     3
 10
1194.559092
 20
653.490978
 11
1190.842729
 21
648.883543
  0
LINE
  8
CSLAYER1
  6
CONTINUOUS
 62
     3
 10
1188.633283
 20
645.423154
 11
1189.857464
 21
644.435727
  0
LINE
  8
CSLAYER1
  6
CONTINUOUS
 62
     3
 10
1188.527910
 20
646.407479
 11
1190.285815
 21
648.586876
  0
LINE
  8
CSLAYER1
  6
CONTINUOUS
 62
     3
 10
1188.633283
 20
645.423154
 11
1190.830664
 21
648.147400
  0
LINE
  8
CSLAYER1
  6
CONTINUOUS
 62
     3
 10
1188.527910
 20
646.407479
 11
1188.633283
 21
645.423154
  0
LINE
  8
CSLAYER1
  6
CONTINUOUS
 62
     3
 10
1188.527910
 20
646.407479
 11
1190.273530
 21
644.999459
  0
LINE
  8
CSLAYER1
  6
CONTINUOUS
 62
     3
 10
1194.024936
 20
673.193215
 11
1219.137859
 21
704.327458
  0
LINE
  8
CSLAYER1
  6
CONTINUOUS
 62
     3
 10
1582.319435
 20
985.671989
 11
1582.469968
 21
984.265810
  0
LINE
  8
CSLAYER1
  6
CONTINUOUS
 62
     3
 10
1559.861623
 20
1002.501732
 11
1582.469968
 21
984.265810
  0
LINE
  8
CSLAYER1
  6
CONTINUOUS
 62
     3
 10
1580.302549
 20
981.578709
 11
1582.469968
 21
984.265810
  0
ARC
  8
CSLAYER1
  6
CONTINUOUS
 62
     3
 10
1605.875066
 20
1105.092955
 40
4.770000
 50
-73.875349
 51
10.370413
  0
ARC
  8
CSLAYER1
  6
CONTINUOUS
 62
     3
 10
1605.875066
 20
1105.092955
 40
13.000000
 50
-80.557345
 51
42.455299
  0
ARC
  8
CSLAYER1
  6
CONTINUOUS
 62
     3
 10
1605.875066
 20
1105.092955
 40
15.050000
 50
259.039634
 51
348.904419
  0
ARC
  8
CSLAYER1
  6
CONTINUOUS
 62
     3
 10
1610.140636
 20
1079.445247
 40
13.000000
 50
99.442655
 51
174.705115
  0
ARC
  8
CSLAYER1
  6
CONTINUOUS
 62
     3
 10
1635.412422
 20
1099.300321
 40
15.050000
 50
105.243351
 51
168.904419
  0
ARC
  8
CSLAYER1
  6
CONTINUOUS
 62
     3
 10
1605.875066
 20
1105.092955
 40
9.525000
 50
-99.948135
 51
36.443199
  0
LINE
  8
CSLAYER1
  6
CONTINUOUS
 62
     3
 10
1673.196922
 20
1195.433290
 11
1691.109460
 21
1178.772712
  0
POINT
  8
CSLAYER1
 62
     3
 10
1692.369011
 20
1198.086489
  0
CIRCLE
  8
CSLAYER1
  6
CONTINUOUS
 62
     3
 10
1692.369011
 20
1198.086489
 40
4.770000
  0
ARC
  8
CSLAYER1
  6
CONTINUOUS
 62
     3
 10
1692.369011
 20
1198.086489
 40
13.000000
 50
-80.557345
 51
174.705115
  0
ARC
  8
CSLAYER1
  6
CONTINUOUS
 62
     3
 10
1696.634582
 20
1172.438781
 40
13.000000
 50
99.442655
 51
174.705115
  0
ARC
  8
CSLAYER1
  6
CONTINUOUS
 62
     3
 10
1666.479955
 20
1200.485813
 40
13.000000
 50
279.442655
 51
354.705115
  0
LINE
  8
CSLAYER1
  6
CONTINUOUS
 62
     3
 10
1671.562079
 20
1198.604721
 11
1688.514075
 21
1216.830575
  0
LINE
  8
CSLAYER1
  6
CONTINUOUS
 62
     3
 10
1677.232571
 20
1181.812621
 11
1709.803018
 21
1216.830575
  0
LINE
  8
CSLAYER1
  6
CONTINUOUS
 62
     3
 10
1695.427905
 20
1214.091189
 11
1676.627478
 21
1193.878003
  0
LINE
  8
CSLAYER1
  6
CONTINUOUS
 62
     5
 10
1618.309252
 20
1118.461508
 11
1709.803018
 21
1216.830575
  0
ARC
  8
CSLAYER1
  6
CONTINUOUS
 62
     3
 10
1689.909882
 20
1213.234455
 40
5.584136
 50
8.825335
 51
40.089884
  0
ARC
  8
CSLAYER1
  6
CONTINUOUS
 62
     3
 10
1680.850776
 20
1185.702716
 40
31.912350
 50
31.327706
 51
62.820064
  0
LINE
  8
CSLAYER1
  6
CONTINUOUS
 62
     5
 10
1682.025951
 20
1207.706643
 11
1702.703532
 21
1188.474278
  0
ARC
  8
CSLAYER1
  6
CONTINUOUS
 62
     3
 10
1677.082854
 20
1199.443540
 40
5.584136
 50
188.639368
 51
265.322435
  0
ARC
  8
CSLAYER1
  6
CONTINUOUS
 62
     3
 10
1703.887246
 20
1210.470262
 40
31.912350
 50
211.327706
 51
242.820064
  0
LINE
  8
CSLAYER1
  6
CONTINUOUS
 62
     3
 10
1711.756044
 20
1200.539768
 11
1694.241064
 21
1216.830575
  0
LINE
  8
CSLAYER1
  6
CONTINUOUS
 62
     3
 10
1694.390831
 20
1177.371537
 11
1713.175944
 21
1197.568257
  0
LINE
  8
CSLAYER1
  6
CONTINUOUS
 62
     3
 10
1708.110545
 20
1202.294976
 11
1689.310118
 21
1182.081790
  0
ARC
  8
CSLAYER1
  6
CONTINUOUS
 62
     3
 10
1707.655169
 20
1196.729438
 40
5.584136
 50
8.639368
 51
85.322435
  0
ARC
  8
CSLAYER1
  6
CONTINUOUS
 62
     3
 10
1694.828141
 20
1182.938523
 40
5.584136
 50
188.825335
 51
265.508402
  0
LINE
  8
CSLAYER1
  6
CONTINUOUS
 62
     3
 10
1708.924173
 20
1216.830575
 11
1716.717704
 21
1209.581756
  0
LINE
  8
CSLAYER1
  6
CONTINUOUS
 62
     3
 10
1715.619355
 20
1210.603338
 11
1718.983266
 21
1214.220030
  0
LINE
  8
CSLAYER1
  6
CONTINUOUS
 62
     3
 10
1715.619355
 20
1210.603338
 11
1714.948272
 21
1207.679360
  0
LINE
  8
CSLAYER1
  6
CONTINUOUS
 62
     3
 10
1711.269267
 20
1203.723896
 11
1720.409838
 21
1213.551336
  0
ARC
  8
CSLAYER1
  6
CONTINUOUS
 62
     3
 10
1712.733732
 20
1202.361786
 40
2.000000
 50
137.073885
 51
227.073885
  0
POINT
  8
CSLAYER1
 62
     3
 10
1702.584832
 20
1209.069977
  0
POINT
  8
CSLAYER1
 62
     3
 10
1627.498553
 20
1128.341338
  0
ARC
  8
CSLAYER1
  6
CONTINUOUS
 62
     3
 10
1627.498553
 20
1128.341338
 40
15.050000
 50
-74.756649
 51
15.108136
  0
ARC
  8
CSLAYER1
  6
CONTINUOUS
 62
     3
 10
1627.498553
 20
1128.341338
 40
13.000000
 50
226.644587
 51
354.705115
  0
POINT
  8
CSLAYER1
 62
     3
 10
1649.122039
 20
1151.589722
  0
POINT
  8
CSLAYER1
 62
     3
 10
1670.745525
 20
1174.838106
  0
ARC
  8
CSLAYER1
  6
CONTINUOUS
 62
     3
 10
1627.498553
 20
1128.341338
 40
4.770000
 50
-154.992540
 51
91.487604
  0
CIRCLE
  8
CSLAYER1
  6
CONTINUOUS
 62
     3
 10
1649.122039
 20
1151.589722
 40
4.770000
  0
ARC
  8
CSLAYER1
  6
CONTINUOUS
 62
     3
 10
1649.122039
 20
1151.589722
 40
13.000000
 50
-80.557345
 51
100.655598
  0
ARC
  8
CSLAYER1
  6
CONTINUOUS
 62
     3
 10
1649.122039
 20
1151.589722
 40
15.050000
 50
259.039634
 51
348.904419
  0
ARC
  8
CSLAYER1
  6
CONTINUOUS
 62
     3
 10
1670.745525
 20
1174.838106
 40
15.050000
 50
-74.756649
 51
15.108136
  0
ARC
  8
CSLAYER1
  6
CONTINUOUS
 62
     3
 10
1653.387609
 20
1125.942014
 40
13.000000
 50
99.442655
 51
174.705115
  0
ARC
  8
CSLAYER1
  6
CONTINUOUS
 62
     3
 10
1678.659395
 20
1145.797089
 40
15.050000
 50
105.243351
 51
168.904419
  0
ARC
  8
CSLAYER1
  6
CONTINUOUS
 62
     3
 10
1641.208169
 20
1180.630739
 40
15.050000
 50
299.897641
 51
348.904419
  0
ARC
  8
CSLAYER1
  6
CONTINUOUS
 62
     3
 10
1627.498553
 20
1128.341338
 40
9.525000
 50
-137.685031
 51
74.180096
  0
ARC
  8
CSLAYER1
  6
CONTINUOUS
 62
     3
 10
1649.122039
 20
1151.589722
 40
9.525000
 50
-188.744365
 51
125.239429
  0
ARC
  8
CSLAYER1
  6
CONTINUOUS
 62
     3
 10
1670.745525
 20
1174.838106
 40
13.000000
 50
99.442655
 51
354.705115
  0
ARC
  8
CSLAYER1
  6
CONTINUOUS
 62
     3
 10
1670.745525
 20
1174.838106
 40
15.050000
 50
79.039634
 51
168.904419
  0
CIRCLE
  8
CSLAYER1
  6
CONTINUOUS
 62
     3
 10
1670.745525
 20
1174.838106
 40
4.770000
  0
CIRCLE
  8
CSLAYER1
  6
CONTINUOUS
 62
     3
 10
1670.745525
 20
1174.838106
 40
9.525000
  0
ARC
  8
CSLAYER1
  6
CONTINUOUS
 62
     3
 10
1592.165450
 20
1052.803554
 40
15.050000
 50
105.243351
 51
113.204067
  0
ARC
  8
CSLAYER1
  6
CONTINUOUS
 62
     3
 10
1584.251580
 20
1081.844571
 40
15.050000
 50
-74.756649
 51
15.108136
  0
ARC
  8
CSLAYER1
  6
CONTINUOUS
 62
     3
 10
1488.500877
 20
791.585599
 40
124.983369
 50
14.717843
 51
59.265674
  0
LINE
  8
CSLAYER1
  6
CONTINUOUS
 62
     3
 10
1638.742654
 20
711.569683
 11
1609.383377
 21
823.338769
  0
LINE
  8
CSLAYER1
  6
CONTINUOUS
 62
     3
 10
1460.164380
 20
736.316414
 11
1407.087998
 21
790.312254
  0
CIRCLE
  8
CSLAYER1
  6
CONTINUOUS
 62
     4
 10
1459.254103
 20
771.478837
 40
14.100000
  0
ARC
  8
CSLAYER1
  6
CONTINUOUS
 62
     3
 10
1380.969277
 20
841.134206
 40
17.000000
 50
174.828213
 51
224.507998
  0
LINE
  8
CSLAYER1
  6
CONTINUOUS
 62
     5
 10
1226.615006
 20
649.521394
 11
1283.138198
 21
649.521394
  0
LINE
  8
CSLAYER1
  6
CONTINUOUS
 62
     5
 10
1255.228653
 20
680.765272
 11
1255.228653
 21
623.467790
  0
LINE
  8
CSLAYER1
  6
CONTINUOUS
 62
     5
 10
1851.832992
 20
392.127095
 11
1851.832992
 21
352.127095
  0
LINE
  8
CSLAYER1
  6
CONTINUOUS
 62
     5
 10
1831.832992
 20
372.127095
 11
1871.832992
 21
372.127095
  0
LINE
  8
CSLAYER1
  6
CENTER
 62
     5
 10
716.236988
 20
1241.266609
 11
333.113419
 21
1241.266609
  0
LINE
  8
CSLAYER1
  6
CONTINUOUS
 62
     7
 10
680.675204
 20
675.031621
 11
680.675204
 21
624.011168
  0
LINE
  8
CSLAYER1
  6
CONTINUOUS
 62
     5
 10
649.675204
 20
649.521394
 11
649.675204
 21
614.267535
  0
LINE
  8
CSLAYER1
  6
CONTINUOUS
 62
     7
 10
590.675204
 20
704.327458
 11
458.675204
 21
704.327458
  0
LINE
  8
CSLAYER1
  6
CONTINUOUS
 62
     7
 10
590.675204
 20
673.193215
 11
458.675204
 21
673.193215
  0
LINE
  8
CSLAYER1
  6
CONTINUOUS
 62
     5
 10
632.841480
 20
633.954273
 11
663.485221
 21
633.954273
  0
ARC
  8
CSLAYER1
  6
CONTINUOUS
 62
     7
 10
675.675204
 20
675.031621
 40
5.000000
 50
0.000000
 51
79.830548
  0
ARC
  8
CSLAYER1
  6
CONTINUOUS
 62
     7
 10
675.675204
 20
643.897377
 40
5.000000
 50
-0.000000
 51
79.830548
  0
ARC
  8
CSLAYER1
  6
CONTINUOUS
 62
     7
 10
675.675204
 20
624.011168
 40
5.000000
 50
280.169452
 51
360.000000
  0
POINT
  8
CSLAYER1
 62
     5
 10
681.675204
 20
649.521394
  0
LINE
  8
CSLAYER1
  6
CONTINUOUS
 62
     7
 10
554.675204
 20
1217.721337
 11
554.675204
 21
1034.155811
  0
LINE
  8
CSLAYER1
  6
CONTINUOUS
 62
     7
 10
569.225204
 20
1013.013684
 11
569.225204
 21
704.327458
  0
LINE
  8
CSLAYER1
  6
CONTINUOUS
 62
     7
 10
569.225204
 20
1013.013684
 11
569.055678
 21
1015.457202
  0
LINE
  8
CSLAYER1
  6
CONTINUOUS
 62
     7
 10
569.055678
 20
1015.457202
 11
568.548389
 21
1017.882123
  0
LINE
  8
CSLAYER1
  6
CONTINUOUS
 62
     7
 10
568.548389
 20
1017.882123
 11
567.707199
 21
1020.269992
  0
LINE
  8
CSLAYER1
  6
CONTINUOUS
 62
     7
 10
567.707199
 20
1020.269992
 11
566.538510
 21
1022.602637
  0
LINE
  8
CSLAYER1
  6
CONTINUOUS
 62
     7
 10
566.538510
 20
1022.602637
 11
565.051216
 21
1024.862304
  0
LINE
  8
CSLAYER1
  6
CONTINUOUS
 62
     7
 10
565.051216
 20
1024.862304
 11
563.256636
 21
1027.031796
  0
LINE
  8
CSLAYER1
  6
CONTINUOUS
 62
     7
 10
563.256636
 20
1027.031796
 11
561.168427
 21
1029.094601
  0
LINE
  8
CSLAYER1
  6
CONTINUOUS
 62
     7
 10
561.168427
 20
1029.094601
 11
558.802484
 21
1031.035021
  0
LINE
  8
CSLAYER1
  6
CONTINUOUS
 62
     7
 10
558.802484
 20
1031.035021
 11
556.176811
 21
1032.838288
  0
LINE
  8
CSLAYER1
  6
CONTINUOUS
 62
     7
 10
556.176811
 20
1032.838288
 11
553.311392
 21
1034.490677
  0
LINE
  8
CSLAYER1
  6
CONTINUOUS
 62
     7
 10
553.311392
 20
1034.490677
 11
550.228034
 21
1035.979614
  0
LINE
  8
CSLAYER1
  6
CONTINUOUS
 62
     7
 10
550.228034
 20
1035.979614
 11
546.950204
 21
1037.293766
  0
LINE
  8
CSLAYER1
  6
CONTINUOUS
 62
     7
 10
546.950204
 20
1037.293766
 11
543.502847
 21
1038.423131
  0
LINE
  8
CSLAYER1
  6
CONTINUOUS
 62
     7
 10
543.502847
 20
1038.423131
 11
539.912201
 21
1039.359116
  0
LINE
  8
CSLAYER1
  6
CONTINUOUS
 62
     7
 10
539.912201
 20
1039.359116
 11
536.205592
 21
1040.094596
  0
LINE
  8
CSLAYER1
  6
CONTINUOUS
 62
     7
 10
536.205592
 20
1040.094596
 11
532.411230
 21
1040.623974
  0
LINE
  8
CSLAYER1
  6
CONTINUOUS
 62
     7
 10
532.411230
 20
1040.623974
 11
528.557992
 21
1040.943221
  0
LINE
  8
CSLAYER1
  6
CONTINUOUS
 62
     7
 10
528.557992
 20
1040.943221
 11
524.675204
 21
1041.049907
  0
LINE
  8
CSLAYER1
  6
CONTINUOUS
 62
     7
 10
554.675204
 20
1217.721337
 11
554.561045
 21
1219.366804
  0
LINE
  8
CSLAYER1
  6
CONTINUOUS
 62
     7
 10
554.561045
 20
1219.366804
 11
554.219436
 21
1220.999747
  0
LINE
  8
CSLAYER1
  6
CONTINUOUS
 62
     7
 10
554.219436
 20
1220.999747
 11
553.652979
 21
1222.607740
  0
LINE
  8
CSLAYER1
  6
CONTINUOUS
 62
     7
 10
553.652979
 20
1222.607740
 11
552.865982
 21
1224.178545
  0
LINE
  8
CSLAYER1
  6
CONTINUOUS
 62
     7
 10
552.865982
 20
1224.178545
 11
551.864437
 21
1225.700206
  0
LINE
  8
CSLAYER1
  6
CONTINUOUS
 62
     7
 10
551.864437
 20
1225.700206
 11
550.655966
 21
1227.161143
  0
LINE
  8
CSLAYER1
  6
CONTINUOUS
 62
     7
 10
550.655966
 20
1227.161143
 11
549.249765
 21
1228.550238
  0
LINE
  8
CSLAYER1
  6
CONTINUOUS
 62
     7
 10
549.249765
 20
1228.550238
 11
547.656537
 21
1229.856918
  0
LINE
  8
CSLAYER1
  6
CONTINUOUS
 62
     7
 10
547.656537
 20
1229.856918
 11
545.888407
 21
1231.071239
  0
LINE
  8
CSLAYER1
  6
CONTINUOUS
 62
     7
 10
545.888407
 20
1231.071239
 11
543.958832
 21
1232.183959
  0
LINE
  8
CSLAYER1
  6
CONTINUOUS
 62
     7
 10
543.958832
 20
1232.183959
 11
541.882497
 21
1233.186610
  0
LINE
  8
CSLAYER1
  6
CONTINUOUS
 62
     7
 10
541.882497
 20
1233.186610
 11
539.675204
 21
1234.071561
  0
LINE
  8
CSLAYER1
  6
CONTINUOUS
 62
     7
 10
539.675204
 20
1234.071561
 11
537.353752
 21
1234.832076
  0
LINE
  8
CSLAYER1
  6
CONTINUOUS
 62
     7
 10
537.353752
 20
1234.832076
 11
534.935808
 21
1235.462369
  0
LINE
  8
CSLAYER1
  6
CONTINUOUS
 62
     7
 10
534.935808
 20
1235.462369
 11
532.439775
 21
1235.957642
  0
LINE
  8
CSLAYER1
  6
CONTINUOUS
 62
     7
 10
532.439775
 20
1235.957642
 11
529.884649
 21
1236.314125
  0
LINE
  8
CSLAYER1
  6
CONTINUOUS
 62
     7
 10
529.884649
 20
1236.314125
 11
527.289876
 21
1236.529106
  0
LINE
  8
CSLAYER1
  6
CONTINUOUS
 62
     7
 10
527.289876
 20
1236.529106
 11
524.675204
 21
1236.600949
  0
LINE
  8
CSLAYER1
  6
CONTINUOUS
 62
     7
 10
554.675204
 20
1211.016609
 11
629.175204
 21
1211.016609
  0
LINE
  8
CSLAYER1
  6
CONTINUOUS
 62
     7
 10
680.675204
 20
1266.830575
 11
680.675204
 21
1211.366609
  0
LINE
  8
CSLAYER1
  6
CONTINUOUS
 62
     7
 10
675.675204
 20
1263.266609
 11
680.675204
 21
1258.266609
  0
LINE
  8
CSLAYER1
  6
CONTINUOUS
 62
     7
 10
675.675204
 20
1263.266609
 11
675.675204
 21
1219.266609
  0
ARC
  8
CSLAYER1
  6
CONTINUOUS
 62
     7
 10
681.775204
 20
1211.366609
 40
1.100000
 50
180.000000
 51
270.000000
  0
LINE
  8
CSLAYER1
  6
CONTINUOUS
 62
     7
 10
675.675204
 20
1219.266609
 11
680.675204
 21
1224.266609
  0
LINE
  8
CSLAYER1
  6
CONTINUOUS
 62
     7
 10
631.175204
 20
1266.830575
 11
631.175204
 21
1219.266609
  0
LINE
  8
CSLAYER1
  6
CONTINUOUS
 62
     7
 10
631.175204
 20
1213.016609
 11
631.175204
 21
1218.016609
  0
LINE
  8
CSLAYER1
  6
CONTINUOUS
 62
     7
 10
631.175204
 20
1213.016609
 11
629.175204
 21
1211.016609
  0
POINT
  8
CSLAYER1
 62
     7
 10
649.675204
 20
1153.683917
  0
LINE
  8
CSLAYER1
  6
CONTINUOUS
 62
     5
 10
663.800580
 20
1153.683919
 11
635.561490
 21
1153.683919
  0
LINE
  8
CSLAYER1
  6
CONTINUOUS
 62
     7
 10
658.175204
 20
1178.683919
 11
658.175204
 21
1219.266609
  0
LINE
  8
CSLAYER1
  6
CONTINUOUS
 62
     7
 10
659.675204
 20
1170.683919
 11
659.675204
 21
1219.266609
  0
LINE
  8
CSLAYER1
  6
CONTINUOUS
 62
     7
 10
675.675204
 20
1263.266609
 11
631.175204
 21
1263.266609
  0
LINE
  8
CSLAYER1
  6
CONTINUOUS
 62
     7
 10
668.175204
 20
1263.266609
 11
668.175204
 21
1266.466609
  0
LINE
  8
CSLAYER1
  6
CONTINUOUS
 62
     7
 10
659.675204
 20
1178.683919
 11
639.675204
 21
1178.683919
  0
LINE
  8
CSLAYER1
  6
CONTINUOUS
 62
     7
 10
658.175204
 20
1178.683919
 11
659.675204
 21
1176.085843
  0
LINE
  8
CSLAYER1
  6
CONTINUOUS
 62
     7
 10
641.175204
 20
1178.683919
 11
641.175204
 21
1219.266609
  0
LINE
  8
CSLAYER1
  6
CONTINUOUS
 62
     7
 10
641.175204
 20
1178.683919
 11
639.675204
 21
1176.085843
  0
LINE
  8
CSLAYER1
  6
CONTINUOUS
 62
     7
 10
639.675204
 20
1170.683919
 11
639.675204
 21
1219.266609
  0
LINE
  8
CSLAYER1
  6
CONTINUOUS
 62
     7
 10
637.150204
 20
1168.683917
 11
662.200204
 21
1168.683917
  0
POINT
  8
CSLAYER1
 62
     7
 10
649.675204
 20
1121.933917
  0
LINE
  8
CSLAYER1
  6
CONTINUOUS
 62
     7
 10
663.200204
 20
1167.683917
 11
663.200204
 21
1075.133917
  0
LINE
  8
CSLAYER1
  6
CONTINUOUS
 62
     7
 10
659.200204
 20
1136.983917
 11
659.200204
 21
1075.133917
  0
LINE
  8
CSLAYER1
  6
CONTINUOUS
 62
     7
 10
659.200204
 20
1136.983917
 11
663.200204
 21
1136.983917
  0
LINE
  8
CSLAYER1
  6
CONTINUOUS
 62
     7
 10
658.200204
 20
1112.408917
 11
641.150204
 21
1112.408917
  0
LINE
  8
CSLAYER1
  6
CONTINUOUS
 62
     7
 10
658.200204
 20
1131.458917
 11
641.150204
 21
1131.458917
  0
ARC
  8
CSLAYER1
  6
CONTINUOUS
 62
     7
 10
658.200204
 20
1113.408917
 40
1.000000
 50
270.000000
 51
360.000000
  0
ARC
  8
CSLAYER1
  6
CONTINUOUS
 62
     7
 10
658.200204
 20
1130.458917
 40
1.000000
 50
0.000000
 51
90.000000
  0
LINE
  8
CSLAYER1
  6
CONTINUOUS
 62
     7
 10
636.150204
 20
1167.683917
 11
636.150204
 21
1074.433917
  0
LINE
  8
CSLAYER1
  6
CONTINUOUS
 62
     7
 10
640.150204
 20
1136.983917
 11
640.150204
 21
1075.133917
  0
LINE
  8
CSLAYER1
  6
CONTINUOUS
 62
     7
 10
640.150204
 20
1136.983917
 11
636.150204
 21
1136.983917
  0
ARC
  8
CSLAYER1
  6
CONTINUOUS
 62
     7
 10
641.150204
 20
1113.408917
 40
1.000000
 50
180.000000
 51
270.000000
  0
ARC
  8
CSLAYER1
  6
CONTINUOUS
 62
     7
 10
641.150204
 20
1130.458917
 40
1.000000
 50
90.000000
 51
180.000000
  0
LINE
  8
CSLAYER1
  6
CONTINUOUS
 62
     7
 10
669.425204
 20
1118.163917
 11
669.425204
 21
1125.713643
  0
LINE
  8
CSLAYER1
  6
CONTINUOUS
 62
     7
 10
663.200204
 20
1108.933917
 11
667.575204
 21
1108.933917
  0
LINE
  8
CSLAYER1
  6
CONTINUOUS
 62
     7
 10
663.200204
 20
1166.683917
 11
667.575204
 21
1166.683917
  0
LINE
  8
CSLAYER1
  6
CONTINUOUS
 62
     7
 10
667.575204
 20
1117.163917
 11
668.425204
 21
1117.163917
  0
LINE
  8
CSLAYER1
  6
CONTINUOUS
 62
     7
 10
667.575204
 20
1126.713643
 11
668.425204
 21
1126.713643
  0
ARC
  8
CSLAYER1
  6
CONTINUOUS
 62
     7
 10
668.425204
 20
1118.163917
 40
1.000000
 50
270.000000
 51
360.000000
  0
ARC
  8
CSLAYER1
  6
CONTINUOUS
 62
     7
 10
668.425204
 20
1125.713643
 40
1.000000
 50
0.000000
 51
90.000000
  0
LINE
  8
CSLAYER1
  6
CONTINUOUS
 62
     7
 10
669.425204
 20
1149.913917
 11
669.425204
 21
1157.463643
  0
LINE
  8
CSLAYER1
  6
CONTINUOUS
 62
     7
 10
667.575204
 20
1148.913917
 11
668.425204
 21
1148.913917
  0
LINE
  8
CSLAYER1
  6
CONTINUOUS
 62
     7
 10
667.575204
 20
1158.463643
 11
668.425204
 21
1158.463643
  0
ARC
  8
CSLAYER1
  6
CONTINUOUS
 62
     7
 10
668.425204
 20
1149.913917
 40
1.000000
 50
270.000000
 51
360.000000
  0
ARC
  8
CSLAYER1
  6
CONTINUOUS
 62
     7
 10
668.425204
 20
1157.463643
 40
1.000000
 50
0.000000
 51
90.000000
  0
LINE
  8
CSLAYER1
  6
CONTINUOUS
 62
     7
 10
629.925204
 20
1118.163917
 11
629.925204
 21
1125.713643
  0
LINE
  8
CSLAYER1
  6
CONTINUOUS
 62
     7
 10
636.150204
 20
1108.933917
 11
631.775204
 21
1108.933917
  0
LINE
  8
CSLAYER1
  6
CONTINUOUS
 62
     7
 10
636.150204
 20
1166.683917
 11
631.775204
 21
1166.683917
  0
LINE
  8
CSLAYER1
  6
CONTINUOUS
 62
     7
 10
631.775204
 20
1117.163917
 11
630.925204
 21
1117.163917
  0
LINE
  8
CSLAYER1
  6
CONTINUOUS
 62
     7
 10
631.775204
 20
1126.713643
 11
630.925204
 21
1126.713643
  0
ARC
  8
CSLAYER1
  6
CONTINUOUS
 62
     7
 10
630.925204
 20
1118.163917
 40
1.000000
 50
180.000000
 51
270.000000
  0
ARC
  8
CSLAYER1
  6
CONTINUOUS
 62
     7
 10
630.925204
 20
1125.713643
 40
1.000000
 50
90.000000
 51
180.000000
  0
LINE
  8
CSLAYER1
  6
CONTINUOUS
 62
     7
 10
626.825204
 20
1149.913917
 11
626.825204
 21
1157.463643
  0
LINE
  8
CSLAYER1
  6
CONTINUOUS
 62
     7
 10
631.775204
 20
1148.913917
 11
627.825204
 21
1148.913917
  0
LINE
  8
CSLAYER1
  6
CONTINUOUS
 62
     7
 10
631.775204
 20
1158.463643
 11
627.825204
 21
1158.463643
  0
ARC
  8
CSLAYER1
  6
CONTINUOUS
 62
     7
 10
627.825204
 20
1149.913917
 40
1.000000
 50
180.000000
 51
270.000000
  0
ARC
  8
CSLAYER1
  6
CONTINUOUS
 62
     7
 10
627.825204
 20
1157.463643
 40
1.000000
 50
90.000000
 51
180.000000
  0
LINE
  8
CSLAYER1
  6
CONTINUOUS
 62
     7
 10
636.150204
 20
1158.463643
 11
663.200204
 21
1158.463643
  0
LINE
  8
CSLAYER1
  6
CONTINUOUS
 62
     7
 10
636.150204
 20
1148.913917
 11
663.200204
 21
1148.913917
  0
LINE
  8
CSLAYER1
  6
CONTINUOUS
 62
     7
 10
638.150204
 20
1138.683917
 11
661.200204
 21
1138.683917
  0
ARC
  8
CSLAYER1
  6
CONTINUOUS
 62
     7
 10
661.200204
 20
1140.683917
 40
2.000000
 50
270.000000
 51
360.000000
  0
ARC
  8
CSLAYER1
  6
CONTINUOUS
 62
     7
 10
638.150204
 20
1140.683917
 40
2.000000
 50
180.000000
 51
270.000000
  0
ARC
  8
CSLAYER1
  6
CONTINUOUS
 62
     7
 10
637.675204
 20
1170.683917
 40
2.000000
 50
270.000000
 51
360.000000
  0
ARC
  8
CSLAYER1
  6
CONTINUOUS
 62
     7
 10
661.675204
 20
1170.683917
 40
2.000000
 50
180.000000
 51
270.000000
  0
ARC
  8
CSLAYER1
  6
CONTINUOUS
 62
     7
 10
637.150204
 20
1167.683917
 40
1.000000
 50
90.000000
 51
180.000000
  0
ARC
  8
CSLAYER1
  6
CONTINUOUS
 62
     7
 10
662.200204
 20
1167.683917
 40
1.000000
 50
0.000000
 51
90.000000
  0
POINT
  8
CSLAYER1
 62
     7
 10
649.675204
 20
1168.683917
  0
LINE
  8
CSLAYER1
  6
CONTINUOUS
 62
     7
 10
667.575204
 20
1108.933917
 11
667.575204
 21
1166.683917
  0
LINE
  8
CSLAYER1
  6
CONTINUOUS
 62
     7
 10
631.775204
 20
1108.933917
 11
631.775204
 21
1166.683917
  0
POINT
  8
CSLAYER1
 62
     7
 10
649.675204
 20
1090.183917
  0
LINE
  8
CSLAYER1
  6
CONTINUOUS
 62
     7
 10
659.200204
 20
1075.133917
 11
663.200204
 21
1075.133917
  0
LINE
  8
CSLAYER1
  6
CONTINUOUS
 62
     7
 10
658.200204
 20
1099.708917
 11
641.150204
 21
1099.708917
  0
LINE
  8
CSLAYER1
  6
CONTINUOUS
 62
     7
 10
658.200204
 20
1080.658917
 11
641.150204
 21
1080.658917
  0
ARC
  8
CSLAYER1
  6
CONTINUOUS
 62
     7
 10
658.200204
 20
1098.708917
 40
1.000000
 50
0.000000
 51
90.000000
  0
ARC
  8
CSLAYER1
  6
CONTINUOUS
 62
     7
 10
658.200204
 20
1081.658917
 40
1.000000
 50
270.000000
 51
360.000000
  0
LINE
  8
CSLAYER1
  6
CONTINUOUS
 62
     7
 10
640.150204
 20
1075.133917
 11
636.150204
 21
1075.133917
  0
ARC
  8
CSLAYER1
  6
CONTINUOUS
 62
     7
 10
641.150204
 20
1098.708917
 40
1.000000
 50
90.000000
 51
180.000000
  0
ARC
  8
CSLAYER1
  6
CONTINUOUS
 62
     7
 10
641.150204
 20
1081.658917
 40
1.000000
 50
180.000000
 51
270.000000
  0
LINE
  8
CSLAYER1
  6
CONTINUOUS
 62
     7
 10
669.425204
 20
1093.953917
 11
669.425204
 21
1086.404191
  0
LINE
  8
CSLAYER1
  6
CONTINUOUS
 62
     7
 10
663.200204
 20
1103.183917
 11
667.575204
 21
1103.183917
  0
LINE
  8
CSLAYER1
  6
CONTINUOUS
 62
     7
 10
667.575204
 20
1094.953917
 11
668.425204
 21
1094.953917
  0
LINE
  8
CSLAYER1
  6
CONTINUOUS
 62
     7
 10
667.575204
 20
1085.404191
 11
668.425204
 21
1085.404191
  0
ARC
  8
CSLAYER1
  6
CONTINUOUS
 62
     7
 10
668.425204
 20
1093.953917
 40
1.000000
 50
0.000000
 51
90.000000
  0
ARC
  8
CSLAYER1
  6
CONTINUOUS
 62
     7
 10
668.425204
 20
1086.404191
 40
1.000000
 50
270.000000
 51
360.000000
  0
LINE
  8
CSLAYER1
  6
CONTINUOUS
 62
     7
 10
629.925204
 20
1093.953917
 11
629.925204
 21
1086.404191
  0
LINE
  8
CSLAYER1
  6
CONTINUOUS
 62
     7
 10
636.150204
 20
1103.183917
 11
631.775204
 21
1103.183917
  0
LINE
  8
CSLAYER1
  6
CONTINUOUS
 62
     7
 10
631.775204
 20
1094.953917
 11
630.925204
 21
1094.953917
  0
LINE
  8
CSLAYER1
  6
CONTINUOUS
 62
     7
 10
631.775204
 20
1085.404191
 11
630.925204
 21
1085.404191
  0
ARC
  8
CSLAYER1
  6
CONTINUOUS
 62
     7
 10
630.925204
 20
1093.953917
 40
1.000000
 50
90.000000
 51
180.000000
  0
ARC
  8
CSLAYER1
  6
CONTINUOUS
 62
     7
 10
630.925204
 20
1086.404191
 40
1.000000
 50
180.000000
 51
270.000000
  0
LINE
  8
CSLAYER1
  6
CONTINUOUS
 62
     7
 10
631.775204
 20
1103.183917
 11
631.775204
 21
1045.433917
  0
LINE
  8
CSLAYER1
  6
CONTINUOUS
 62
     7
 10
667.575204
 20
1103.183917
 11
667.575204
 21
1045.433917
  0
LINE
  8
CSLAYER1
  6
CONTINUOUS
 62
     7
 10
675.675204
 20
1219.266609
 11
631.175204
 21
1219.266609
  0
LINE
  8
CSLAYER1
  6
CONTINUOUS
 62
     4
 10
641.675204
 20
757.478834
 11
638.648663
 21
757.478834
  0
LINE
  8
CSLAYER1
  6
CONTINUOUS
 62
     4
 10
635.675204
 20
758.478834
 11
635.675204
 21
784.478834
  0
LINE
  8
CSLAYER1
  6
CONTINUOUS
 62
     4
 10
635.675204
 20
758.478834
 11
636.675204
 21
757.478834
  0
LINE
  8
CSLAYER1
  6
CONTINUOUS
 62
     4
 10
636.675204
 20
757.478834
 11
636.675204
 21
785.478834
  0
LINE
  8
CSLAYER1
  6
CONTINUOUS
 62
     4
 10
658.675204
 20
790.478834
 11
658.675204
 21
752.478834
  0
LINE
  8
CSLAYER1
  6
CONTINUOUS
 62
     4
 10
636.675204
 20
757.478834
 11
641.741462
 21
752.494152
  0
LINE
  8
CSLAYER1
  6
CONTINUOUS
 62
     4
 10
641.675204
 20
752.559344
 11
636.755714
 21
757.478834
  0
LINE
  8
CSLAYER1
  6
CONTINUOUS
 62
     4
 10
641.675204
 20
752.842186
 11
637.038557
 21
757.478834
  0
LINE
  8
CSLAYER1
  6
CONTINUOUS
 62
     4
 10
641.675204
 20
753.125029
 11
637.321400
 21
757.478834
  0
LINE
  8
CSLAYER1
  6
CONTINUOUS
 62
     4
 10
641.675204
 20
753.407872
 11
637.604242
 21
757.478834
  0
LINE
  8
CSLAYER1
  6
CONTINUOUS
 62
     4
 10
641.675204
 20
753.690715
 11
637.887085
 21
757.478834
  0
LINE
  8
CSLAYER1
  6
CONTINUOUS
 62
     4
 10
641.675204
 20
753.973557
 11
638.169928
 21
757.478834
  0
LINE
  8
CSLAYER1
  6
CONTINUOUS
 62
     4
 10
641.675204
 20
754.256400
 11
638.452770
 21
757.478834
  0
LINE
  8
CSLAYER1
  6
CONTINUOUS
 62
     4
 10
641.675204
 20
754.539243
 11
638.735613
 21
757.478834
  0
LINE
  8
CSLAYER1
  6
CONTINUOUS
 62
     4
 10
641.675204
 20
754.822085
 11
639.018456
 21
757.478834
  0
LINE
  8
CSLAYER1
  6
CONTINUOUS
 62
     4
 10
641.675204
 20
755.104928
 11
639.301299
 21
757.478834
  0
LINE
  8
CSLAYER1
  6
CONTINUOUS
 62
     4
 10
641.675204
 20
755.387771
 11
639.584141
 21
757.478834
  0
LINE
  8
CSLAYER1
  6
CONTINUOUS
 62
     4
 10
641.675204
 20
755.670614
 11
639.866984
 21
757.478834
  0
LINE
  8
CSLAYER1
  6
CONTINUOUS
 62
     4
 10
641.675204
 20
755.953456
 11
640.149827
 21
757.478834
  0
LINE
  8
CSLAYER1
  6
CONTINUOUS
 62
     4
 10
641.675204
 20
756.236299
 11
640.432669
 21
757.478834
  0
LINE
  8
CSLAYER1
  6
CONTINUOUS
 62
     4
 10
641.675204
 20
756.519142
 11
640.715512
 21
757.478834
  0
LINE
  8
CSLAYER1
  6
CONTINUOUS
 62
     4
 10
641.675204
 20
756.801984
 11
640.998355
 21
757.478834
  0
LINE
  8
CSLAYER1
  6
CONTINUOUS
 62
     4
 10
641.675204
 20
757.084827
 11
641.281197
 21
757.478834
  0
LINE
  8
CSLAYER1
  6
CONTINUOUS
 62
     4
 10
641.675204
 20
757.367670
 11
641.564040
 21
757.478834
  0
LINE
  8
CSLAYER1
  6
CONTINUOUS
 62
     4
 10
641.675204
 20
785.478834
 11
638.648663
 21
785.478834
  0
LINE
  8
CSLAYER1
  6
CONTINUOUS
 62
     4
 10
635.675204
 20
784.478834
 11
636.675204
 21
785.478834
  0
LINE
  8
CSLAYER1
  6
CONTINUOUS
 62
     4
 10
658.675204
 20
790.478834
 11
659.675204
 21
791.478834
  0
LINE
  8
CSLAYER1
  6
CONTINUOUS
 62
     4
 10
636.675204
 20
785.478834
 11
641.741462
 21
790.463515
  0
LINE
  8
CSLAYER1
  6
CONTINUOUS
 62
     4
 10
641.675204
 20
790.398323
 11
636.755714
 21
785.478834
  0
LINE
  8
CSLAYER1
  6
CONTINUOUS
 62
     4
 10
641.675204
 20
790.115481
 11
637.038557
 21
785.478834
  0
LINE
  8
CSLAYER1
  6
CONTINUOUS
 62
     4
 10
641.675204
 20
789.832638
 11
637.321400
 21
785.478834
  0
LINE
  8
CSLAYER1
  6
CONTINUOUS
 62
     4
 10
641.675204
 20
789.549795
 11
637.604242
 21
785.478834
  0
LINE
  8
CSLAYER1
  6
CONTINUOUS
 62
     4
 10
641.675204
 20
789.266952
 11
637.887085
 21
785.478834
  0
LINE
  8
CSLAYER1
  6
CONTINUOUS
 62
     4
 10
641.675204
 20
788.984110
 11
638.169928
 21
785.478834
  0
LINE
  8
CSLAYER1
  6
CONTINUOUS
 62
     4
 10
641.675204
 20
788.701267
 11
638.452770
 21
785.478834
  0
LINE
  8
CSLAYER1
  6
CONTINUOUS
 62
     4
 10
641.675204
 20
788.418424
 11
638.735613
 21
785.478834
  0
LINE
  8
CSLAYER1
  6
CONTINUOUS
 62
     4
 10
641.675204
 20
788.135582
 11
639.018456
 21
785.478834
  0
LINE
  8
CSLAYER1
  6
CONTINUOUS
 62
     4
 10
641.675204
 20
787.852739
 11
639.301299
 21
785.478834
  0
LINE
  8
CSLAYER1
  6
CONTINUOUS
 62
     4
 10
641.675204
 20
787.569896
 11
639.584141
 21
785.478834
  0
LINE
  8
CSLAYER1
  6
CONTINUOUS
 62
     4
 10
641.675204
 20
787.287053
 11
639.866984
 21
785.478834
  0
LINE
  8
CSLAYER1
  6
CONTINUOUS
 62
     4
 10
641.675204
 20
787.004211
 11
640.149827
 21
785.478834
  0
LINE
  8
CSLAYER1
  6
CONTINUOUS
 62
     4
 10
641.675204
 20
786.721368
 11
640.432669
 21
785.478834
  0
LINE
  8
CSLAYER1
  6
CONTINUOUS
 62
     4
 10
641.675204
 20
786.438525
 11
640.715512
 21
785.478834
  0
LINE
  8
CSLAYER1
  6
CONTINUOUS
 62
     4
 10
641.675204
 20
786.155683
 11
640.998355
 21
785.478834
  0
LINE
  8
CSLAYER1
  6
CONTINUOUS
 62
     4
 10
641.675204
 20
785.872840
 11
641.281197
 21
785.478834
  0
LINE
  8
CSLAYER1
  6
CONTINUOUS
 62
     4
 10
641.675204
 20
785.589997
 11
641.564040
 21
785.478834
  0
LINE
  8
CSLAYER1
  6
CONTINUOUS
 62
     4
 10
738.648663
 20
750.128834
 11
697.675204
 21
750.128834
  0
LINE
  8
CSLAYER1
  6
CONTINUOUS
 62
     4
 10
739.648663
 20
791.828834
 11
739.648663
 21
751.128834
  0
LINE
  8
CSLAYER1
  6
CONTINUOUS
 62
     4
 10
739.648663
 20
751.128834
 11
738.648663
 21
750.128834
  0
LINE
  8
CSLAYER1
  6
CONTINUOUS
 62
     4
 10
779.648663
 20
781.478834
 11
779.648663
 21
761.478834
  0
LINE
  8
CSLAYER1
  6
CONTINUOUS
 62
     4
 10
760.648663
 20
789.978834
 11
760.648663
 21
752.978834
  0
LINE
  8
CSLAYER1
  6
CONTINUOUS
 62
     4
 10
765.748663
 20
788.478834
 11
765.748663
 21
754.478834
  0
LINE
  8
CSLAYER1
  6
CONTINUOUS
 62
     4
 10
777.748663
 20
788.478834
 11
777.748663
 21
754.478834
  0
LINE
  8
CSLAYER1
  6
CONTINUOUS
 62
     4
 10
760.648663
 20
788.478834
 11
777.748663
 21
788.478834
  0
LINE
  8
CSLAYER1
  6
CONTINUOUS
 62
     4
 10
765.748663
 20
781.478834
 11
779.648663
 21
781.478834
  0
LINE
  8
CSLAYER1
  6
CONTINUOUS
 62
     4
 10
760.648663
 20
754.478834
 11
777.748663
 21
754.478834
  0
LINE
  8
CSLAYER1
  6
CONTINUOUS
 62
     4
 10
765.748663
 20
761.478834
 11
779.648663
 21
761.478834
  0
LINE
  8
CSLAYER1
  6
CONTINUOUS
 62
     4
 10
757.648663
 20
789.978834
 11
760.648663
 21
789.978834
  0
LINE
  8
CSLAYER1
  6
CONTINUOUS
 62
     4
 10
757.648663
 20
752.978834
 11
760.648663
 21
752.978834
  0
LINE
  8
CSLAYER1
  6
CONTINUOUS
 62
     4
 10
757.648663
 20
752.978834
 11
757.648663
 21
789.978834
  0
LINE
  8
CSLAYER1
  6
CENTER
 62
     5
 10
794.832515
 20
771.478834
 11
620.755647
 21
771.478834
  0
LINE
  8
CSLAYER1
  6
CONTINUOUS
 62
     4
 10
757.648663
 20
758.978834
 11
756.675204
 21
758.978834
  0
LINE
  8
CSLAYER1
  6
CONTINUOUS
 62
     4
 10
738.648663
 20
792.828834
 11
697.675204
 21
792.828834
  0
LINE
  8
CSLAYER1
  6
CONTINUOUS
 62
     4
 10
739.648663
 20
791.828834
 11
738.648663
 21
792.828834
  0
LINE
  8
CSLAYER1
  6
CONTINUOUS
 62
     4
 10
757.648663
 20
783.978834
 11
756.675204
 21
783.978834
  0
LINE
  8
CSLAYER1
  6
CONTINUOUS
 62
     4
 10
756.648663
 20
745.371909
 11
756.648663
 21
758.978834
  0
LINE
  8
CSLAYER1
  6
CONTINUOUS
 62
     4
 10
702.675204
 20
750.128834
 11
697.675204
 21
745.128834
  0
LINE
  8
CSLAYER1
  6
CONTINUOUS
 62
     4
 10
697.675204
 20
745.411676
 11
702.392361
 21
750.128834
  0
LINE
  8
CSLAYER1
  6
CONTINUOUS
 62
     4
 10
697.675204
 20
745.694519
 11
702.109518
 21
750.128834
  0
LINE
  8
CSLAYER1
  6
CONTINUOUS
 62
     4
 10
697.675204
 20
745.977362
 11
701.826676
 21
750.128834
  0
LINE
  8
CSLAYER1
  6
CONTINUOUS
 62
     4
 10
697.675204
 20
746.260204
 11
701.543833
 21
750.128834
  0
LINE
  8
CSLAYER1
  6
CONTINUOUS
 62
     4
 10
697.675204
 20
746.543047
 11
701.260990
 21
750.128834
  0
LINE
  8
CSLAYER1
  6
CONTINUOUS
 62
     4
 10
697.675204
 20
746.825890
 11
700.978148
 21
750.128834
  0
LINE
  8
CSLAYER1
  6
CONTINUOUS
 62
     4
 10
697.675204
 20
747.108732
 11
700.695305
 21
750.128834
  0
LINE
  8
CSLAYER1
  6
CONTINUOUS
 62
     4
 10
697.675204
 20
747.391575
 11
700.412462
 21
750.128834
  0
LINE
  8
CSLAYER1
  6
CONTINUOUS
 62
     4
 10
697.675204
 20
747.674418
 11
700.129619
 21
750.128834
  0
LINE
  8
CSLAYER1
  6
CONTINUOUS
 62
     4
 10
697.675204
 20
747.957261
 11
699.846777
 21
750.128834
  0
LINE
  8
CSLAYER1
  6
CONTINUOUS
 62
     4
 10
697.675204
 20
748.240103
 11
699.563934
 21
750.128834
  0
LINE
  8
CSLAYER1
  6
CONTINUOUS
 62
     4
 10
697.675204
 20
748.522946
 11
699.281091
 21
750.128834
  0
LINE
  8
CSLAYER1
  6
CONTINUOUS
 62
     4
 10
697.675204
 20
748.805789
 11
698.998249
 21
750.128834
  0
LINE
  8
CSLAYER1
  6
CONTINUOUS
 62
     4
 10
697.675204
 20
749.088631
 11
698.715406
 21
750.128834
  0
LINE
  8
CSLAYER1
  6
CONTINUOUS
 62
     4
 10
697.675204
 20
749.371474
 11
698.432563
 21
750.128834
  0
LINE
  8
CSLAYER1
  6
CONTINUOUS
 62
     4
 10
697.675204
 20
749.654317
 11
698.149720
 21
750.128834
  0
LINE
  8
CSLAYER1
  6
CONTINUOUS
 62
     4
 10
697.675204
 20
749.937160
 11
697.866878
 21
750.128834
  0
LINE
  8
CSLAYER1
  6
CONTINUOUS
 62
     4
 10
681.675204
 20
796.195991
 11
676.958047
 21
791.478834
  0
LINE
  8
CSLAYER1
  6
CONTINUOUS
 62
     4
 10
681.675204
 20
795.913148
 11
677.240889
 21
791.478834
  0
LINE
  8
CSLAYER1
  6
CONTINUOUS
 62
     4
 10
681.675204
 20
795.630305
 11
677.523732
 21
791.478834
  0
LINE
  8
CSLAYER1
  6
CONTINUOUS
 62
     4
 10
681.675204
 20
795.347463
 11
677.806575
 21
791.478834
  0
LINE
  8
CSLAYER1
  6
CONTINUOUS
 62
     4
 10
681.675204
 20
795.064620
 11
678.089417
 21
791.478834
  0
LINE
  8
CSLAYER1
  6
CONTINUOUS
 62
     4
 10
681.675204
 20
794.781777
 11
678.372260
 21
791.478834
  0
LINE
  8
CSLAYER1
  6
CONTINUOUS
 62
     4
 10
681.675204
 20
794.498935
 11
678.655103
 21
791.478834
  0
LINE
  8
CSLAYER1
  6
CONTINUOUS
 62
     4
 10
681.675204
 20
794.216092
 11
678.937946
 21
791.478834
  0
LINE
  8
CSLAYER1
  6
CONTINUOUS
 62
     4
 10
681.675204
 20
793.933249
 11
679.220788
 21
791.478834
  0
LINE
  8
CSLAYER1
  6
CONTINUOUS
 62
     4
 10
681.675204
 20
793.650406
 11
679.503631
 21
791.478834
  0
LINE
  8
CSLAYER1
  6
CONTINUOUS
 62
     4
 10
681.675204
 20
793.367564
 11
679.786474
 21
791.478834
  0
LINE
  8
CSLAYER1
  6
CONTINUOUS
 62
     4
 10
681.675204
 20
793.084721
 11
680.069316
 21
791.478834
  0
LINE
  8
CSLAYER1
  6
CONTINUOUS
 62
     4
 10
681.675204
 20
792.801878
 11
680.352159
 21
791.478834
  0
LINE
  8
CSLAYER1
  6
CONTINUOUS
 62
     4
 10
681.675204
 20
792.519036
 11
680.635002
 21
791.478834
  0
LINE
  8
CSLAYER1
  6
CONTINUOUS
 62
     4
 10
681.675204
 20
792.236193
 11
680.917845
 21
791.478834
  0
LINE
  8
CSLAYER1
  6
CONTINUOUS
 62
     4
 10
681.675204
 20
791.953350
 11
681.200687
 21
791.478834
  0
LINE
  8
CSLAYER1
  6
CONTINUOUS
 62
     4
 10
681.675204
 20
791.670507
 11
681.483530
 21
791.478834
  0
LINE
  8
CSLAYER1
  6
CONTINUOUS
 62
     4
 10
702.675204
 20
792.828834
 11
697.675204
 21
797.828834
  0
LINE
  8
CSLAYER1
  6
CONTINUOUS
 62
     4
 10
697.675204
 20
797.545991
 11
702.392361
 21
792.828834
  0
LINE
  8
CSLAYER1
  6
CONTINUOUS
 62
     4
 10
697.675204
 20
797.263148
 11
702.109518
 21
792.828834
  0
LINE
  8
CSLAYER1
  6
CONTINUOUS
 62
     4
 10
697.675204
 20
796.980305
 11
701.826676
 21
792.828834
  0
LINE
  8
CSLAYER1
  6
CONTINUOUS
 62
     4
 10
697.675204
 20
796.697463
 11
701.543833
 21
792.828834
  0
LINE
  8
CSLAYER1
  6
CONTINUOUS
 62
     4
 10
697.675204
 20
796.414620
 11
701.260990
 21
792.828834
  0
LINE
  8
CSLAYER1
  6
CONTINUOUS
 62
     4
 10
697.675204
 20
796.131777
 11
700.978148
 21
792.828834
  0
LINE
  8
CSLAYER1
  6
CONTINUOUS
 62
     4
 10
697.675204
 20
795.848935
 11
700.695305
 21
792.828834
  0
LINE
  8
CSLAYER1
  6
CONTINUOUS
 62
     4
 10
697.675204
 20
795.566092
 11
700.412462
 21
792.828834
  0
LINE
  8
CSLAYER1
  6
CONTINUOUS
 62
     4
 10
697.675204
 20
795.283249
 11
700.129619
 21
792.828834
  0
LINE
  8
CSLAYER1
  6
CONTINUOUS
 62
     4
 10
697.675204
 20
795.000406
 11
699.846777
 21
792.828834
  0
LINE
  8
CSLAYER1
  6
CONTINUOUS
 62
     4
 10
697.675204
 20
794.717564
 11
699.563934
 21
792.828834
  0
LINE
  8
CSLAYER1
  6
CONTINUOUS
 62
     4
 10
697.675204
 20
794.434721
 11
699.281091
 21
792.828834
  0
LINE
  8
CSLAYER1
  6
CONTINUOUS
 62
     4
 10
697.675204
 20
794.151878
 11
698.998249
 21
792.828834
  0
LINE
  8
CSLAYER1
  6
CONTINUOUS
 62
     4
 10
697.675204
 20
793.869036
 11
698.715406
 21
792.828834
  0
LINE
  8
CSLAYER1
  6
CONTINUOUS
 62
     4
 10
697.675204
 20
793.586193
 11
698.432563
 21
792.828834
  0
LINE
  8
CSLAYER1
  6
CONTINUOUS
 62
     4
 10
697.675204
 20
793.303350
 11
698.149720
 21
792.828834
  0
LINE
  8
CSLAYER1
  6
CONTINUOUS
 62
     4
 10
697.675204
 20
793.020507
 11
697.866878
 21
792.828834
  0
LINE
  8
CSLAYER1
  6
CONTINUOUS
 62
     4
 10
680.635002
 20
791.478834
 11
681.675204
 21
791.478834
  0
LINE
  8
CSLAYER1
  6
CONTINUOUS
 62
     4
 10
641.675204
 20
747.478834
 11
657.675204
 21
747.478834
  0
LINE
  8
CSLAYER1
  6
CONTINUOUS
 62
     4
 10
679.483530
 20
791.478834
 11
659.675204
 21
791.478834
  0
LINE
  8
CSLAYER1
  6
CONTINUOUS
 62
     4
 10
658.675204
 20
786.478834
 11
657.675204
 21
786.478834
  0
LINE
  8
CSLAYER1
  6
CONTINUOUS
 62
     4
 10
658.675204
 20
756.478834
 11
657.675204
 21
756.478834
  0
LINE
  8
CSLAYER1
  6
CONTINUOUS
 62
     4
 10
740.675204
 20
786.478834
 11
739.648663
 21
786.478834
  0
LINE
  8
CSLAYER1
  6
CONTINUOUS
 62
     4
 10
740.675204
 20
756.478834
 11
739.648663
 21
756.478834
  0
LINE
  8
CSLAYER1
  6
CONTINUOUS
 62
     4
 10
658.675204
 20
752.478834
 11
659.675204
 21
751.478834
  0
LINE
  8
CSLAYER1
  6
CONTINUOUS
 62
     4
 10
681.675204
 20
746.761676
 11
676.958047
 21
751.478834
  0
LINE
  8
CSLAYER1
  6
CONTINUOUS
 62
     4
 10
681.675204
 20
747.044519
 11
677.240889
 21
751.478834
  0
LINE
  8
CSLAYER1
  6
CONTINUOUS
 62
     4
 10
681.675204
 20
747.327362
 11
677.523732
 21
751.478834
  0
LINE
  8
CSLAYER1
  6
CONTINUOUS
 62
     4
 10
681.675204
 20
747.610204
 11
677.806575
 21
751.478834
  0
LINE
  8
CSLAYER1
  6
CONTINUOUS
 62
     4
 10
681.675204
 20
747.893047
 11
678.089417
 21
751.478834
  0
LINE
  8
CSLAYER1
  6
CONTINUOUS
 62
     4
 10
681.675204
 20
748.175890
 11
678.372260
 21
751.478834
  0
LINE
  8
CSLAYER1
  6
CONTINUOUS
 62
     4
 10
681.675204
 20
748.458732
 11
678.655103
 21
751.478834
  0
LINE
  8
CSLAYER1
  6
CONTINUOUS
 62
     4
 10
681.675204
 20
748.741575
 11
678.937946
 21
751.478834
  0
LINE
  8
CSLAYER1
  6
CONTINUOUS
 62
     4
 10
681.675204
 20
749.024418
 11
679.220788
 21
751.478834
  0
LINE
  8
CSLAYER1
  6
CONTINUOUS
 62
     4
 10
681.675204
 20
749.307261
 11
679.503631
 21
751.478834
  0
LINE
  8
CSLAYER1
  6
CONTINUOUS
 62
     4
 10
681.675204
 20
749.590103
 11
679.786474
 21
751.478834
  0
LINE
  8
CSLAYER1
  6
CONTINUOUS
 62
     4
 10
681.675204
 20
749.872946
 11
680.069316
 21
751.478834
  0
LINE
  8
CSLAYER1
  6
CONTINUOUS
 62
     4
 10
681.675204
 20
750.155789
 11
680.352159
 21
751.478834
  0
LINE
  8
CSLAYER1
  6
CONTINUOUS
 62
     4
 10
681.675204
 20
750.438631
 11
680.635002
 21
751.478834
  0
LINE
  8
CSLAYER1
  6
CONTINUOUS
 62
     4
 10
681.675204
 20
750.721474
 11
680.917845
 21
751.478834
  0
LINE
  8
CSLAYER1
  6
CONTINUOUS
 62
     4
 10
681.675204
 20
751.004317
 11
681.200687
 21
751.478834
  0
LINE
  8
CSLAYER1
  6
CONTINUOUS
 62
     4
 10
681.675204
 20
751.287160
 11
681.483530
 21
751.478834
  0
LINE
  8
CSLAYER1
  6
CONTINUOUS
 62
     4
 10
680.635002
 20
751.478834
 11
681.675204
 21
751.478834
  0
LINE
  8
CSLAYER1
  6
CONTINUOUS
 62
     4
 10
679.483530
 20
751.478834
 11
659.675204
 21
751.478834
  0
POINT
  8
CSLAYER1
 62
     4
 10
649.675204
 20
841.136185
  0
LINE
  8
CSLAYER1
  6
CONTINUOUS
 62
     4
 10
667.575204
 20
828.136185
 11
667.575204
 21
885.886185
  0
LINE
  8
CSLAYER1
  6
CONTINUOUS
 62
     4
 10
669.425204
 20
837.366185
 11
669.425204
 21
844.915911
  0
LINE
  8
CSLAYER1
  6
CONTINUOUS
 62
     4
 10
663.200204
 20
828.136185
 11
667.575204
 21
828.136185
  0
LINE
  8
CSLAYER1
  6
CONTINUOUS
 62
     4
 10
667.575204
 20
845.915911
 11
668.425204
 21
845.915911
  0
ARC
  8
CSLAYER1
  6
CONTINUOUS
 62
     4
 10
668.425204
 20
837.366185
 40
1.000000
 50
270.000000
 51
360.000000
  0
ARC
  8
CSLAYER1
  6
CONTINUOUS
 62
     4
 10
668.425204
 20
844.915911
 40
1.000000
 50
0.000000
 51
90.000000
  0
LINE
  8
CSLAYER1
  6
CONTINUOUS
 62
     4
 10
636.150204
 20
828.136185
 11
636.150204
 21
923.386185
  0
LINE
  8
CSLAYER1
  6
CONTINUOUS
 62
     4
 10
631.775204
 20
828.136185
 11
631.775204
 21
885.886185
  0
LINE
  8
CSLAYER1
  6
CONTINUOUS
 62
     4
 10
629.925204
 20
837.366185
 11
629.925204
 21
844.915911
  0
LINE
  8
CSLAYER1
  6
CONTINUOUS
 62
     4
 10
636.150204
 20
828.136185
 11
631.775204
 21
828.136185
  0
LINE
  8
CSLAYER1
  6
CONTINUOUS
 62
     4
 10
631.775204
 20
836.366185
 11
630.925204
 21
836.366185
  0
LINE
  8
CSLAYER1
  6
CONTINUOUS
 62
     4
 10
631.775204
 20
845.915911
 11
630.925204
 21
845.915911
  0
ARC
  8
CSLAYER1
  6
CONTINUOUS
 62
     4
 10
630.925204
 20
837.366185
 40
1.000000
 50
180.000000
 51
270.000000
  0
ARC
  8
CSLAYER1
  6
CONTINUOUS
 62
     4
 10
630.925204
 20
844.915911
 40
1.000000
 50
90.000000
 51
180.000000
  0
LINE
  8
CSLAYER1
  6
CONTINUOUS
 62
     4
 10
637.150204
 20
831.136185
 11
641.675204
 21
831.136185
  0
LINE
  8
CSLAYER1
  6
CONTINUOUS
 62
     4
 10
636.150204
 20
832.136185
 11
637.150204
 21
831.136185
  0
LINE
  8
CSLAYER1
  6
CONTINUOUS
 62
     4
 10
662.200204
 20
831.136185
 11
663.200204
 21
832.136185
  0
LINE
  8
CSLAYER1
  6
CONTINUOUS
 62
     4
 10
637.150204
 20
851.136185
 11
641.675204
 21
851.136185
  0
LINE
  8
CSLAYER1
  6
CONTINUOUS
 62
     4
 10
636.150204
 20
850.136185
 11
637.150204
 21
851.136185
  0
LINE
  8
CSLAYER1
  6
CONTINUOUS
 62
     4
 10
662.200204
 20
851.136185
 11
663.200204
 21
850.136185
  0
LINE
  8
CSLAYER1
  6
CONTINUOUS
 62
     5
 10
677.158485
 20
872.886185
 11
632.622574
 21
872.886185
  0
LINE
  8
CSLAYER1
  6
CONTINUOUS
 62
     4
 10
636.150204
 20
885.886185
 11
631.775204
 21
885.886185
  0
LINE
  8
CSLAYER1
  6
CONTINUOUS
 62
     4
 10
629.925204
 20
869.116185
 11
629.925204
 21
876.665911
  0
LINE
  8
CSLAYER1
  6
CONTINUOUS
 62
     4
 10
631.775204
 20
868.116185
 11
630.925204
 21
868.116185
  0
LINE
  8
CSLAYER1
  6
CONTINUOUS
 62
     4
 10
631.775204
 20
877.665911
 11
630.925204
 21
877.665911
  0
ARC
  8
CSLAYER1
  6
CONTINUOUS
 62
     4
 10
630.925204
 20
869.116185
 40
1.000000
 50
180.000000
 51
270.000000
  0
ARC
  8
CSLAYER1
  6
CONTINUOUS
 62
     4
 10
630.925204
 20
876.665911
 40
1.000000
 50
90.000000
 51
180.000000
  0
LINE
  8
CSLAYER1
  6
CONTINUOUS
 62
     4
 10
663.200204
 20
885.886185
 11
667.575204
 21
885.886185
  0
LINE
  8
CSLAYER1
  6
CONTINUOUS
 62
     4
 10
667.575204
 20
836.366185
 11
668.425204
 21
836.366185
  0
LINE
  8
CSLAYER1
  6
CONTINUOUS
 62
     4
 10
669.425204
 20
869.116185
 11
669.425204
 21
876.665911
  0
LINE
  8
CSLAYER1
  6
CONTINUOUS
 62
     4
 10
667.575204
 20
868.116185
 11
668.425204
 21
868.116185
  0
LINE
  8
CSLAYER1
  6
CONTINUOUS
 62
     4
 10
667.575204
 20
877.665911
 11
668.425204
 21
877.665911
  0
ARC
  8
CSLAYER1
  6
CONTINUOUS
 62
     4
 10
668.425204
 20
869.116185
 40
1.000000
 50
270.000000
 51
360.000000
  0
ARC
  8
CSLAYER1
  6
CONTINUOUS
 62
     4
 10
668.425204
 20
876.665911
 40
1.000000
 50
0.000000
 51
90.000000
  0
POINT
  8
CSLAYER1
 62
     4
 10
649.675204
 20
872.886185
  0
LINE
  8
CSLAYER1
  6
CONTINUOUS
 62
     5
 10
676.312867
 20
841.136185
 11
631.776955
 21
841.136185
  0
POINT
  8
CSLAYER1
 62
     4
 10
649.675204
 20
904.636185
  0
LINE
  8
CSLAYER1
  6
CONTINUOUS
 62
     4
 10
663.200204
 20
828.136185
 11
663.200204
 21
923.386185
  0
LINE
  8
CSLAYER1
  6
CONTINUOUS
 62
     4
 10
659.200204
 20
919.686185
 11
659.200204
 21
857.836185
  0
LINE
  8
CSLAYER1
  6
CONTINUOUS
 62
     4
 10
659.200204
 20
919.686185
 11
663.200204
 21
919.686185
  0
LINE
  8
CSLAYER1
  6
CONTINUOUS
 62
     4
 10
658.200204
 20
895.111185
 11
641.150204
 21
895.111185
  0
LINE
  8
CSLAYER1
  6
CONTINUOUS
 62
     4
 10
658.200204
 20
914.161185
 11
641.150204
 21
914.161185
  0
ARC
  8
CSLAYER1
  6
CONTINUOUS
 62
     4
 10
658.200204
 20
896.111185
 40
1.000000
 50
270.000000
 51
360.000000
  0
ARC
  8
CSLAYER1
  6
CONTINUOUS
 62
     4
 10
658.200204
 20
913.161185
 40
1.000000
 50
0.000000
 51
90.000000
  0
LINE
  8
CSLAYER1
  6
CONTINUOUS
 62
     4
 10
640.150204
 20
919.686185
 11
640.150204
 21
857.836185
  0
LINE
  8
CSLAYER1
  6
CONTINUOUS
 62
     4
 10
640.150204
 20
919.686185
 11
636.150204
 21
919.686185
  0
ARC
  8
CSLAYER1
  6
CONTINUOUS
 62
     4
 10
641.150204
 20
896.111185
 40
1.000000
 50
180.000000
 51
270.000000
  0
ARC
  8
CSLAYER1
  6
CONTINUOUS
 62
     4
 10
641.150204
 20
913.161185
 40
1.000000
 50
90.000000
 51
180.000000
  0
LINE
  8
CSLAYER1
  6
CONTINUOUS
 62
     4
 10
669.425204
 20
900.866185
 11
669.425204
 21
908.415911
  0
LINE
  8
CSLAYER1
  6
CONTINUOUS
 62
     4
 10
663.200204
 20
891.636185
 11
667.575204
 21
891.636185
  0
LINE
  8
CSLAYER1
  6
CONTINUOUS
 62
     4
 10
667.575204
 20
899.866185
 11
668.425204
 21
899.866185
  0
LINE
  8
CSLAYER1
  6
CONTINUOUS
 62
     4
 10
667.575204
 20
909.415911
 11
668.425204
 21
909.415911
  0
ARC
  8
CSLAYER1
  6
CONTINUOUS
 62
     4
 10
668.425204
 20
900.866185
 40
1.000000
 50
270.000000
 51
360.000000
  0
ARC
  8
CSLAYER1
  6
CONTINUOUS
 62
     4
 10
668.425204
 20
908.415911
 40
1.000000
 50
0.000000
 51
90.000000
  0
LINE
  8
CSLAYER1
  6
CONTINUOUS
 62
     4
 10
629.925204
 20
900.866185
 11
629.925204
 21
908.415911
  0
LINE
  8
CSLAYER1
  6
CONTINUOUS
 62
     4
 10
636.150204
 20
891.636185
 11
631.775204
 21
891.636185
  0
LINE
  8
CSLAYER1
  6
CONTINUOUS
 62
     4
 10
631.775204
 20
899.866185
 11
630.925204
 21
899.866185
  0
LINE
  8
CSLAYER1
  6
CONTINUOUS
 62
     4
 10
631.775204
 20
909.415911
 11
630.925204
 21
909.415911
  0
ARC
  8
CSLAYER1
  6
CONTINUOUS
 62
     4
 10
630.925204
 20
900.866185
 40
1.000000
 50
180.000000
 51
270.000000
  0
ARC
  8
CSLAYER1
  6
CONTINUOUS
 62
     4
 10
630.925204
 20
908.415911
 40
1.000000
 50
90.000000
 51
180.000000
  0
LINE
  8
CSLAYER1
  6
CONTINUOUS
 62
     4
 10
659.200204
 20
857.836185
 11
663.200204
 21
857.836185
  0
LINE
  8
CSLAYER1
  6
CONTINUOUS
 62
     4
 10
658.200204
 20
882.411185
 11
641.150204
 21
882.411185
  0
LINE
  8
CSLAYER1
  6
CONTINUOUS
 62
     4
 10
658.200204
 20
863.361185
 11
641.150204
 21
863.361185
  0
ARC
  8
CSLAYER1
  6
CONTINUOUS
 62
     4
 10
658.200204
 20
881.411185
 40
1.000000
 50
0.000000
 51
90.000000
  0
ARC
  8
CSLAYER1
  6
CONTINUOUS
 62
     4
 10
658.200204
 20
864.361185
 40
1.000000
 50
270.000000
 51
360.000000
  0
LINE
  8
CSLAYER1
  6
CONTINUOUS
 62
     4
 10
640.150204
 20
857.836185
 11
636.150204
 21
857.836185
  0
ARC
  8
CSLAYER1
  6
CONTINUOUS
 62
     4
 10
641.150204
 20
881.411185
 40
1.000000
 50
90.000000
 51
180.000000
  0
ARC
  8
CSLAYER1
  6
CONTINUOUS
 62
     4
 10
641.150204
 20
864.361185
 40
1.000000
 50
180.000000
 51
270.000000
  0
LINE
  8
CSLAYER1
  6
CONTINUOUS
 62
     4
 10
657.675204
 20
858.136185
 11
641.675204
 21
858.136185
  0
LINE
  8
CSLAYER1
  6
CONTINUOUS
 62
     4
 10
657.675204
 20
851.136185
 11
662.200204
 21
851.136185
  0
LINE
  8
CSLAYER1
  6
CONTINUOUS
 62
     4
 10
657.675204
 20
831.136185
 11
662.200204
 21
831.136185
  0
LINE
  8
CSLAYER1
  6
CONTINUOUS
 62
     4
 10
657.675204
 20
863.361185
 11
657.675204
 21
727.045236
  0
LINE
  8
CSLAYER1
  6
CONTINUOUS
 62
     4
 10
641.675204
 20
863.361185
 11
641.675204
 21
727.045236
  0
LINE
  8
CSLAYER1
  6
PHANTOM
 62
     5
 10
2224.675204
 20
575.127095
 11
2224.675204
 21
522.127095
  0
LINE
  8
CSLAYER1
  6
PHANTOM
 62
     5
 10
1024.675204
 20
575.127095
 11
2224.675204
 21
575.127095
  0
LINE
  8
CSLAYER1
  6
PHANTOM
 62
     5
 10
1024.675204
 20
522.127095
 11
2224.675204
 21
522.127095
  0
LINE
  8
CSLAYER1
  6
PHANTOM
 62
     5
 10
1024.675204
 20
575.127095
 11
1024.675204
 21
522.127095
  0
LINE
  8
CSLAYER1
  6
PHANTOM
 62
     5
 10
2221.475204
 20
424.927095
 11
2221.475204
 21
522.127095
  0
LINE
  8
CSLAYER1
  6
PHANTOM
 62
     5
 10
2209.475204
 20
410.127095
 11
2209.475204
 21
522.127095
  0
LINE
  8
CSLAYER1
  6
PHANTOM
 62
     5
 10
1184.475204
 20
421.927095
 11
2218.475204
 21
421.927095
  0
LINE
  8
CSLAYER1
  6
PHANTOM
 62
     5
 10
1109.475204
 20
496.927095
 11
1184.475204
 21
421.927095
  0
LINE
  8
CSLAYER1
  6
PHANTOM
 62
     5
 10
1109.475204
 20
496.927095
 11
1109.475204
 21
522.127095
  0
LINE
  8
CSLAYER1
  6
PHANTOM
 62
     5
 10
2218.475204
 20
421.927095
 11
2221.475204
 21
424.927095
  0
LINE
  8
CSLAYER1
  6
CONTINUOUS
 62
     3
 10
150.163178
 20
345.127095
 11
2558.108712
 21
345.127095
  0
DIMENSION
  8
CSLAYER1
 62
     7
  2
*D0000
 10
2328.612490
 20
575.127095
 11
2320.954346
 21
459.893402
 13
2224.675204
 23
345.127095
 14
2224.675204
 24
575.127095
 50
90.000000
 70
1
  0
DIMENSION
  8
CSLAYER1
 62
     7
  2
*D0001
 10
2328.612490
 20
575.127095
 11
2318.612549
 21
972.578918
 13
2328.612490
 23
1370.030575
 14
2328.612490
 24
575.127095
 50
90.000000
 70
1
  0
DIMENSION
  8
CSLAYER1
 62
     7
  2
*D0002
 10
2440.096509
 20
1370.030575
 11
2430.096680
 21
857.578918
 13
2224.675204
 23
345.127095
 14
2224.675204
 24
1370.030575
 50
90.000000
 70
1
  0
DIMENSION
  8
CSLAYER1
 62
     7
  2
*D0003
 10
2224.675204
 20
1470.118334
 11
1624.675171
 21
1480.118530
 13
1024.675204
 23
1370.030575
 14
2224.675204
 24
1370.030575
 70
1
  0
DIMENSION
  8
CSLAYER1
 62
     7
  2
*D0004
 10
2224.675204
 20
237.926554
 11
1624.675171
 21
247.926605
 13
1024.675204
 23
345.127095
 14
2224.675204
 24
345.127095
 52
270.000000
 70
1
  0
LINE
  8
CSLAYER1
  6
CONTINUOUS
 62
     4
 10
740.675204
 20
727.045236
 11
697.675204
 21
727.045236
  0
LINE
  8
CSLAYER1
  6
CONTINUOUS
 62
     4
 10
700.175204
 20
1253.766609
 11
699.025204
 21
1253.766609
  0
LINE
  8
CSLAYER1
  6
CONTINUOUS
 62
     4
 10
699.025204
 20
1253.216609
 11
697.675204
 21
1253.216609
  0
LINE
  8
CSLAYER1
  6
CONTINUOUS
 62
     4
 10
699.025204
 20
1256.316609
 11
697.675204
 21
1256.316609
  0
LINE
  8
CSLAYER1
  6
CONTINUOUS
 62
     4
 10
699.025204
 20
1256.316609
 11
699.025204
 21
1226.216609
  0
LINE
  8
CSLAYER1
  6
CONTINUOUS
 62
     4
 10
701.675204
 20
1252.266609
 11
701.675204
 21
1230.266609
  0
LINE
  8
CSLAYER1
  6
CONTINUOUS
 62
     4
 10
701.675204
 20
1252.266609
 11
700.175204
 21
1253.766609
  0
LINE
  8
CSLAYER1
  6
CONTINUOUS
 62
     4
 10
700.175204
 20
1253.766609
 11
700.175204
 21
1228.766609
  0
LINE
  8
CSLAYER1
  6
CONTINUOUS
 62
     4
 10
700.175204
 20
1228.766609
 11
699.025204
 21
1228.766609
  0
LINE
  8
CSLAYER1
  6
CONTINUOUS
 62
     4
 10
701.507642
 20
1241.266609
 11
697.175204
 21
1241.266609
  0
LINE
  8
CSLAYER1
  6
CONTINUOUS
 62
     4
 10
699.025204
 20
1229.316609
 11
697.675204
 21
1229.316609
  0
LINE
  8
CSLAYER1
  6
CONTINUOUS
 62
     4
 10
699.025204
 20
1226.216609
 11
697.675204
 21
1226.216609
  0
LINE
  8
CSLAYER1
  6
CONTINUOUS
 62
     4
 10
701.675204
 20
1230.266609
 11
700.175204
 21
1228.766609
  0
LINE
  8
CSLAYER1
  6
CONTINUOUS
 62
     3
 10
1024.015706
 20
2128.516710
 11
2224.764565
 21
2128.516710
  0
LINE
  8
CSLAYER1
  6
CONTINUOUS
 62
     3
 10
1024.015706
 20
1528.516710
 11
2224.764565
 21
1528.516710
  0
LINE
  8
CSLAYER1
  6
CONTINUOUS
 62
     7
 10
590.675204
 20
704.327458
 11
676.558004
 21
679.953070
  0
LINE
  8
CSLAYER1
  6
CONTINUOUS
 62
     7
 10
590.675204
 20
673.193215
 11
676.558004
 21
648.818827
  0
LINE
  8
CSLAYER1
  6
CONTINUOUS
 62
     7
 10
676.558004
 20
619.089718
 11
590.675204
 21
594.715330
  0
LINE
  8
CSLAYER1
  6
CONTINUOUS
 62
     4
 10
224.675204
 20
409.408879
 11
224.675204
 21
345.127095
  0
LINE
  8
CSLAYER1
  6
CONTINUOUS
 62
     4
 10
824.675204
 20
410.127095
 11
224.675204
 21
410.127095
  0
LINE
  8
CSLAYER1
  6
CONTINUOUS
 62
     4
 10
292.675204
 20
410.127095
 11
292.675204
 21
1151.830575
  0
LINE
  8
CSLAYER1
  6
CONTINUOUS
 62
     4
 10
308.675204
 20
410.127095
 11
308.675204
 21
1151.830575
  0
LINE
  8
CSLAYER1
  6
CONTINUOUS
 62
     4
 10
351.675204
 20
410.127095
 11
351.675204
 21
1266.830575
  0
LINE
  8
CSLAYER1
  6
CONTINUOUS
 62
     4
 10
367.675204
 20
410.127095
 11
367.675204
 21
1266.830575
  0
LINE
  8
CSLAYER1
  6
CONTINUOUS
 62
     3
 10
272.975204
 20
1170.830575
 11
272.975204
 21
1180.330575
  0
LINE
  8
CSLAYER1
  6
CONTINUOUS
 62
     4
 10
276.175204
 20
1317.030575
 11
276.175204
 21
1151.830575
  0
LINE
  8
CSLAYER1
  6
CONTINUOUS
 62
     4
 10
317.175204
 20
1266.830575
 11
317.175204
 21
1151.830575
  0
LINE
  8
CSLAYER1
  6
CONTINUOUS
 62
     5
 10
269.967351
 20
1170.830575
 11
321.233618
 21
1170.830575
  0
LINE
  8
CSLAYER1
  6
CONTINUOUS
 62
     4
 10
317.175204
 20
1151.830575
 11
276.175204
 21
1151.830575
  0
LINE
  8
CSLAYER1
  6
CONTINUOUS
 62
     4
 10
224.675204
 20
1367.030575
 11
224.675204
 21
1317.030575
  0
LINE
  8
CSLAYER1
  6
CONTINUOUS
 62
     4
 10
272.975204
 20
1193.830575
 11
272.975204
 21
1162.830575
  0
LINE
  8
CSLAYER1
  6
CONTINUOUS
 62
     4
 10
272.975204
 20
1166.830575
 11
276.175204
 21
1166.830575
  0
LINE
  8
CSLAYER1
  6
CONTINUOUS
 62
     5
 10
268.484330
 20
1185.830575
 11
282.175204
 21
1185.830575
  0
LINE
  8
CSLAYER1
  6
CONTINUOUS
 62
     4
 10
272.975204
 20
1193.830575
 11
276.175204
 21
1193.830575
  0
LINE
  8
CSLAYER1
  6
CONTINUOUS
 62
     4
 10
318.175204
 20
1163.830575
 11
318.175204
 21
1177.830575
  0
LINE
  8
CSLAYER1
  6
CONTINUOUS
 62
     4
 10
318.175204
 20
1163.830575
 11
317.175204
 21
1162.830575
  0
LINE
  8
CSLAYER1
  6
CONTINUOUS
 62
     4
 10
272.975204
 20
1162.830575
 11
276.175204
 21
1162.830575
  0
LINE
  8
CSLAYER1
  6
CONTINUOUS
 62
     4
 10
318.175204
 20
1177.830575
 11
317.175204
 21
1178.830575
  0
ARC
  8
CSLAYER1
  6
CONTINUOUS
 62
     4
 10
227.675204
 20
1367.030575
 40
3.000000
 50
90.000000
 51
180.000000
  0
LINE
  8
CSLAYER1
  6
CONTINUOUS
 62
     4
 10
272.975204
 20
1174.830575
 11
276.175204
 21
1174.830575
  0
LINE
  8
CSLAYER1
  6
CENTER
 62
     5
 10
399.675204
 20
1260.252684
 11
399.675204
 21
633.954273
  0
LINE
  8
CSLAYER1
  6
CONTINUOUS
 62
     5
 10
399.675204
 20
649.521394
 11
325.878262
 21
649.521394
  0
LINE
  8
CSLAYER1
  6
CONTINUOUS
 62
     4
 10
349.675204
 20
665.521394
 11
349.675204
 21
633.521394
  0
LINE
  8
CSLAYER1
  6
CONTINUOUS
 62
     4
 10
339.675204
 20
663.521394
 11
339.675204
 21
635.521394
  0
LINE
  8
CSLAYER1
  6
CONTINUOUS
 62
     4
 10
341.675204
 20
665.521394
 11
349.675204
 21
665.521394
  0
LINE
  8
CSLAYER1
  6
CONTINUOUS
 62
     4
 10
339.675204
 20
663.521394
 11
341.675204
 21
665.521394
  0
LINE
  8
CSLAYER1
  6
CONTINUOUS
 62
     4
 10
341.675204
 20
665.521394
 11
341.675204
 21
633.521394
  0
LINE
  8
CSLAYER1
  6
CONTINUOUS
 62
     4
 10
341.675204
 20
633.521394
 11
349.675204
 21
633.521394
  0
LINE
  8
CSLAYER1
  6
CONTINUOUS
 62
     4
 10
339.675204
 20
635.521394
 11
341.675204
 21
633.521394
  0
LINE
  8
CSLAYER1
  6
CONTINUOUS
 62
     4
 10
349.675204
 20
663.521394
 11
351.675204
 21
663.521394
  0
LINE
  8
CSLAYER1
  6
CONTINUOUS
 62
     4
 10
349.675204
 20
635.521394
 11
351.675204
 21
635.521394
  0
LINE
  8
CSLAYER1
  6
CONTINUOUS
 62
     4
 10
381.775204
 20
891.636185
 11
381.775204
 21
1080.658917
  0
LINE
  8
CSLAYER1
  6
CONTINUOUS
 62
     4
 10
417.575204
 20
891.636185
 11
417.575204
 21
1075.133917
  0
LINE
  8
CSLAYER1
  6
CONTINUOUS
 62
     4
 10
351.675204
 20
668.957707
 11
308.675204
 21
668.957707
  0
LINE
  8
CSLAYER1
  6
CONTINUOUS
 62
     4
 10
448.352920
 20
597.644897
 11
367.675204
 21
597.644897
  0
LINE
  8
CSLAYER1
  6
CONTINUOUS
 62
     4
 10
351.675204
 20
597.644897
 11
308.675204
 21
597.644897
  0
LINE
  8
CSLAYER1
  6
CONTINUOUS
 62
     4
 10
276.675204
 20
715.341295
 11
276.675204
 21
410.127095
  0
LINE
  8
CSLAYER1
  6
CONTINUOUS
 62
     4
 10
292.675204
 20
715.341295
 11
276.675204
 21
715.341295
  0
LINE
  8
CSLAYER1
  6
CONTINUOUS
 62
     4
 10
480.125204
 20
727.045236
 11
367.675204
 21
727.045236
  0
LINE
  8
CSLAYER1
  6
CONTINUOUS
 62
     4
 10
480.125204
 20
704.614113
 11
367.675204
 21
704.614113
  0
LINE
  8
CSLAYER1
  6
CONTINUOUS
 62
     4
 10
351.675204
 20
704.614113
 11
308.675204
 21
704.614113
  0
LINE
  8
CSLAYER1
  6
CONTINUOUS
 62
     4
 10
284.675204
 20
1317.030575
 11
284.675204
 21
1266.830575
  0
LINE
  8
CSLAYER1
  6
CONTINUOUS
 62
     7
 10
368.675204
 20
675.031621
 11
368.675204
 21
624.011168
  0
LINE
  8
CSLAYER1
  6
CONTINUOUS
 62
     5
 10
399.675204
 20
649.521394
 11
399.675204
 21
614.267535
  0
LINE
  8
CSLAYER1
  6
CONTINUOUS
 62
     5
 10
416.508928
 20
633.954273
 11
385.865187
 21
633.954273
  0
ARC
  8
CSLAYER1
  6
CONTINUOUS
 62
     7
 10
373.675204
 20
675.031621
 40
5.000000
 50
100.169452
 51
180.000000
  0
ARC
  8
CSLAYER1
  6
CONTINUOUS
 62
     7
 10
373.675204
 20
643.897377
 40
5.000000
 50
100.169452
 51
180.000000
  0
ARC
  8
CSLAYER1
  6
CONTINUOUS
 62
     7
 10
373.675204
 20
624.011168
 40
5.000000
 50
180.000000
 51
259.830548
  0
POINT
  8
CSLAYER1
 62
     5
 10
367.675204
 20
649.521394
  0
LINE
  8
CSLAYER1
  6
CONTINUOUS
 62
     7
 10
494.675204
 20
1217.721337
 11
494.675204
 21
1034.155811
  0
LINE
  8
CSLAYER1
  6
CONTINUOUS
 62
     7
 10
480.125204
 20
1013.013684
 11
480.125204
 21
704.327458
  0
LINE
  8
CSLAYER1
  6
CONTINUOUS
 62
     7
 10
480.125204
 20
1013.013684
 11
480.294730
 21
1015.457202
  0
LINE
  8
CSLAYER1
  6
CONTINUOUS
 62
     7
 10
480.294730
 20
1015.457202
 11
480.802018
 21
1017.882123
  0
LINE
  8
CSLAYER1
  6
CONTINUOUS
 62
     7
 10
480.802018
 20
1017.882123
 11
481.643208
 21
1020.269992
  0
LINE
  8
CSLAYER1
  6
CONTINUOUS
 62
     7
 10
481.643208
 20
1020.269992
 11
482.811898
 21
1022.602637
  0
LINE
  8
CSLAYER1
  6
CONTINUOUS
 62
     7
 10
482.811898
 20
1022.602637
 11
484.299192
 21
1024.862304
  0
LINE
  8
CSLAYER1
  6
CONTINUOUS
 62
     7
 10
484.299192
 20
1024.862304
 11
486.093772
 21
1027.031796
  0
LINE
  8
CSLAYER1
  6
CONTINUOUS
 62
     7
 10
486.093772
 20
1027.031796
 11
488.181980
 21
1029.094601
  0
LINE
  8
CSLAYER1
  6
CONTINUOUS
 62
     7
 10
488.181980
 20
1029.094601
 11
490.547924
 21
1031.035021
  0
LINE
  8
CSLAYER1
  6
CONTINUOUS
 62
     7
 10
490.547924
 20
1031.035021
 11
493.173597
 21
1032.838288
  0
LINE
  8
CSLAYER1
  6
CONTINUOUS
 62
     7
 10
493.173597
 20
1032.838288
 11
496.039016
 21
1034.490677
  0
LINE
  8
CSLAYER1
  6
CONTINUOUS
 62
     7
 10
496.039016
 20
1034.490677
 11
499.122374
 21
1035.979614
  0
LINE
  8
CSLAYER1
  6
CONTINUOUS
 62
     7
 10
499.122374
 20
1035.979614
 11
502.400204
 21
1037.293766
  0
LINE
  8
CSLAYER1
  6
CONTINUOUS
 62
     7
 10
502.400204
 20
1037.293766
 11
505.847560
 21
1038.423131
  0
LINE
  8
CSLAYER1
  6
CONTINUOUS
 62
     7
 10
505.847560
 20
1038.423131
 11
509.438206
 21
1039.359116
  0
LINE
  8
CSLAYER1
  6
CONTINUOUS
 62
     7
 10
509.438206
 20
1039.359116
 11
513.144815
 21
1040.094596
  0
LINE
  8
CSLAYER1
  6
CONTINUOUS
 62
     7
 10
513.144815
 20
1040.094596
 11
516.939178
 21
1040.623974
  0
LINE
  8
CSLAYER1
  6
CONTINUOUS
 62
     7
 10
516.939178
 20
1040.623974
 11
520.792415
 21
1040.943221
  0
LINE
  8
CSLAYER1
  6
CONTINUOUS
 62
     7
 10
520.792415
 20
1040.943221
 11
524.675204
 21
1041.049907
  0
LINE
  8
CSLAYER1
  6
CONTINUOUS
 62
     7
 10
494.675204
 20
1217.721337
 11
494.789363
 21
1219.366804
  0
LINE
  8
CSLAYER1
  6
CONTINUOUS
 62
     7
 10
494.789363
 20
1219.366804
 11
495.130971
 21
1220.999747
  0
LINE
  8
CSLAYER1
  6
CONTINUOUS
 62
     7
 10
495.130971
 20
1220.999747
 11
495.697429
 21
1222.607740
  0
LINE
  8
CSLAYER1
  6
CONTINUOUS
 62
     7
 10
495.697429
 20
1222.607740
 11
496.484425
 21
1224.178545
  0
LINE
  8
CSLAYER1
  6
CONTINUOUS
 62
     7
 10
496.484425
 20
1224.178545
 11
497.485970
 21
1225.700206
  0
LINE
  8
CSLAYER1
  6
CONTINUOUS
 62
     7
 10
497.485970
 20
1225.700206
 11
498.694442
 21
1227.161143
  0
LINE
  8
CSLAYER1
  6
CONTINUOUS
 62
     7
 10
498.694442
 20
1227.161143
 11
500.100643
 21
1228.550238
  0
LINE
  8
CSLAYER1
  6
CONTINUOUS
 62
     7
 10
500.100643
 20
1228.550238
 11
501.693871
 21
1229.856918
  0
LINE
  8
CSLAYER1
  6
CONTINUOUS
 62
     7
 10
501.693871
 20
1229.856918
 11
503.462000
 21
1231.071239
  0
LINE
  8
CSLAYER1
  6
CONTINUOUS
 62
     7
 10
503.462000
 20
1231.071239
 11
505.391576
 21
1232.183959
  0
LINE
  8
CSLAYER1
  6
CONTINUOUS
 62
     7
 10
505.391576
 20
1232.183959
 11
507.467911
 21
1233.186610
  0
LINE
  8
CSLAYER1
  6
CONTINUOUS
 62
     7
 10
507.467911
 20
1233.186610
 11
509.675204
 21
1234.071561
  0
LINE
  8
CSLAYER1
  6
CONTINUOUS
 62
     7
 10
509.675204
 20
1234.071561
 11
511.996656
 21
1234.832076
  0
LINE
  8
CSLAYER1
  6
CONTINUOUS
 62
     7
 10
511.996656
 20
1234.832076
 11
514.414600
 21
1235.462369
  0
LINE
  8
CSLAYER1
  6
CONTINUOUS
 62
     7
 10
514.414600
 20
1235.462369
 11
516.910632
 21
1235.957642
  0
LINE
  8
CSLAYER1
  6
CONTINUOUS
 62
     7
 10
516.910632
 20
1235.957642
 11
519.465759
 21
1236.314125
  0
LINE
  8
CSLAYER1
  6
CONTINUOUS
 62
     7
 10
519.465759
 20
1236.314125
 11
522.060532
 21
1236.529106
  0
LINE
  8
CSLAYER1
  6
CONTINUOUS
 62
     7
 10
522.060532
 20
1236.529106
 11
524.675204
 21
1236.600949
  0
LINE
  8
CSLAYER1
  6
CONTINUOUS
 62
     7
 10
494.675204
 20
1211.016609
 11
420.175204
 21
1211.016609
  0
LINE
  8
CSLAYER1
  6
CONTINUOUS
 62
     7
 10
368.675204
 20
1266.830575
 11
368.675204
 21
1211.366609
  0
LINE
  8
CSLAYER1
  6
CONTINUOUS
 62
     7
 10
373.675204
 20
1263.266609
 11
368.675204
 21
1258.266609
  0
LINE
  8
CSLAYER1
  6
CONTINUOUS
 62
     7
 10
373.675204
 20
1263.266609
 11
373.675204
 21
1219.266609
  0
ARC
  8
CSLAYER1
  6
CONTINUOUS
 62
     7
 10
367.575204
 20
1211.366609
 40
1.100000
 50
270.000000
 51
360.000000
  0
LINE
  8
CSLAYER1
  6
CONTINUOUS
 62
     7
 10
373.675204
 20
1219.266609
 11
368.675204
 21
1224.266609
  0
LINE
  8
CSLAYER1
  6
CONTINUOUS
 62
     7
 10
418.175204
 20
1266.830575
 11
418.175204
 21
1219.266609
  0
LINE
  8
CSLAYER1
  6
CONTINUOUS
 62
     7
 10
418.175204
 20
1213.016609
 11
418.175204
 21
1218.016609
  0
LINE
  8
CSLAYER1
  6
CONTINUOUS
 62
     7
 10
418.175204
 20
1213.016609
 11
420.175204
 21
1211.016609
  0
POINT
  8
CSLAYER1
 62
     7
 10
399.675204
 20
1153.683917
  0
LINE
  8
CSLAYER1
  6
CONTINUOUS
 62
     5
 10
385.549828
 20
1153.683919
 11
413.788918
 21
1153.683919
  0
LINE
  8
CSLAYER1
  6
CONTINUOUS
 62
     7
 10
391.175204
 20
1178.683919
 11
391.175204
 21
1219.266609
  0
LINE
  8
CSLAYER1
  6
CONTINUOUS
 62
     7
 10
389.675204
 20
1170.683919
 11
389.675204
 21
1219.266609
  0
LINE
  8
CSLAYER1
  6
CONTINUOUS
 62
     7
 10
373.675204
 20
1263.266609
 11
418.175204
 21
1263.266609
  0
LINE
  8
CSLAYER1
  6
CONTINUOUS
 62
     7
 10
381.175204
 20
1263.266609
 11
381.175204
 21
1266.466609
  0
LINE
  8
CSLAYER1
  6
CONTINUOUS
 62
     7
 10
389.675204
 20
1178.683919
 11
409.675204
 21
1178.683919
  0
LINE
  8
CSLAYER1
  6
CONTINUOUS
 62
     7
 10
391.175204
 20
1178.683919
 11
389.675204
 21
1176.085843
  0
LINE
  8
CSLAYER1
  6
CONTINUOUS
 62
     7
 10
408.175204
 20
1178.683919
 11
408.175204
 21
1219.266609
  0
LINE
  8
CSLAYER1
  6
CONTINUOUS
 62
     7
 10
408.175204
 20
1178.683919
 11
409.675204
 21
1176.085843
  0
LINE
  8
CSLAYER1
  6
CONTINUOUS
 62
     7
 10
409.675204
 20
1170.683919
 11
409.675204
 21
1219.266609
  0
LINE
  8
CSLAYER1
  6
CONTINUOUS
 62
     7
 10
412.200204
 20
1168.683917
 11
387.150204
 21
1168.683917
  0
POINT
  8
CSLAYER1
 62
     7
 10
399.675204
 20
1121.933917
  0
LINE
  8
CSLAYER1
  6
CONTINUOUS
 62
     7
 10
386.150204
 20
1167.683917
 11
386.150204
 21
1075.133917
  0
LINE
  8
CSLAYER1
  6
CONTINUOUS
 62
     7
 10
390.150204
 20
1136.983917
 11
390.150204
 21
1075.133917
  0
LINE
  8
CSLAYER1
  6
CONTINUOUS
 62
     7
 10
390.150204
 20
1136.983917
 11
386.150204
 21
1136.983917
  0
LINE
  8
CSLAYER1
  6
CONTINUOUS
 62
     7
 10
391.150204
 20
1112.408917
 11
408.200204
 21
1112.408917
  0
LINE
  8
CSLAYER1
  6
CONTINUOUS
 62
     7
 10
391.150204
 20
1131.458917
 11
408.200204
 21
1131.458917
  0
ARC
  8
CSLAYER1
  6
CONTINUOUS
 62
     7
 10
391.150204
 20
1113.408917
 40
1.000000
 50
180.000000
 51
270.000000
  0
ARC
  8
CSLAYER1
  6
CONTINUOUS
 62
     7
 10
391.150204
 20
1130.458917
 40
1.000000
 50
90.000000
 51
180.000000
  0
LINE
  8
CSLAYER1
  6
CONTINUOUS
 62
     7
 10
413.200204
 20
1167.683917
 11
413.200204
 21
1074.433917
  0
LINE
  8
CSLAYER1
  6
CONTINUOUS
 62
     7
 10
409.200204
 20
1136.983917
 11
409.200204
 21
1075.133917
  0
LINE
  8
CSLAYER1
  6
CONTINUOUS
 62
     7
 10
409.200204
 20
1136.983917
 11
413.200204
 21
1136.983917
  0
ARC
  8
CSLAYER1
  6
CONTINUOUS
 62
     7
 10
408.200204
 20
1113.408917
 40
1.000000
 50
270.000000
 51
360.000000
  0
ARC
  8
CSLAYER1
  6
CONTINUOUS
 62
     7
 10
408.200204
 20
1130.458917
 40
1.000000
 50
0.000000
 51
90.000000
  0
LINE
  8
CSLAYER1
  6
CONTINUOUS
 62
     7
 10
379.925204
 20
1118.163917
 11
379.925204
 21
1125.713643
  0
LINE
  8
CSLAYER1
  6
CONTINUOUS
 62
     7
 10
386.150204
 20
1108.933917
 11
381.775204
 21
1108.933917
  0
LINE
  8
CSLAYER1
  6
CONTINUOUS
 62
     7
 10
386.150204
 20
1166.683917
 11
381.775204
 21
1166.683917
  0
LINE
  8
CSLAYER1
  6
CONTINUOUS
 62
     7
 10
381.775204
 20
1117.163917
 11
380.925204
 21
1117.163917
  0
LINE
  8
CSLAYER1
  6
CONTINUOUS
 62
     7
 10
381.775204
 20
1126.713643
 11
380.925204
 21
1126.713643
  0
ARC
  8
CSLAYER1
  6
CONTINUOUS
 62
     7
 10
380.925204
 20
1118.163917
 40
1.000000
 50
180.000000
 51
270.000000
  0
ARC
  8
CSLAYER1
  6
CONTINUOUS
 62
     7
 10
380.925204
 20
1125.713643
 40
1.000000
 50
90.000000
 51
180.000000
  0
LINE
  8
CSLAYER1
  6
CONTINUOUS
 62
     7
 10
379.925204
 20
1149.913917
 11
379.925204
 21
1157.463643
  0
LINE
  8
CSLAYER1
  6
CONTINUOUS
 62
     7
 10
381.775204
 20
1148.913917
 11
380.925204
 21
1148.913917
  0
LINE
  8
CSLAYER1
  6
CONTINUOUS
 62
     7
 10
381.775204
 20
1158.463643
 11
380.925204
 21
1158.463643
  0
ARC
  8
CSLAYER1
  6
CONTINUOUS
 62
     7
 10
380.925204
 20
1149.913917
 40
1.000000
 50
180.000000
 51
270.000000
  0
ARC
  8
CSLAYER1
  6
CONTINUOUS
 62
     7
 10
380.925204
 20
1157.463643
 40
1.000000
 50
90.000000
 51
180.000000
  0
LINE
  8
CSLAYER1
  6
CONTINUOUS
 62
     7
 10
419.425204
 20
1118.163917
 11
419.425204
 21
1125.713643
  0
LINE
  8
CSLAYER1
  6
CONTINUOUS
 62
     7
 10
413.200204
 20
1108.933917
 11
417.575204
 21
1108.933917
  0
LINE
  8
CSLAYER1
  6
CONTINUOUS
 62
     7
 10
413.200204
 20
1166.683917
 11
417.575204
 21
1166.683917
  0
LINE
  8
CSLAYER1
  6
CONTINUOUS
 62
     7
 10
417.575204
 20
1117.163917
 11
418.425204
 21
1117.163917
  0
LINE
  8
CSLAYER1
  6
CONTINUOUS
 62
     7
 10
417.575204
 20
1126.713643
 11
418.425204
 21
1126.713643
  0
ARC
  8
CSLAYER1
  6
CONTINUOUS
 62
     7
 10
418.425204
 20
1118.163917
 40
1.000000
 50
270.000000
 51
360.000000
  0
ARC
  8
CSLAYER1
  6
CONTINUOUS
 62
     7
 10
418.425204
 20
1125.713643
 40
1.000000
 50
0.000000
 51
90.000000
  0
LINE
  8
CSLAYER1
  6
CONTINUOUS
 62
     7
 10
422.525204
 20
1149.913917
 11
422.525204
 21
1157.463643
  0
LINE
  8
CSLAYER1
  6
CONTINUOUS
 62
     7
 10
417.575204
 20
1148.913917
 11
421.525204
 21
1148.913917
  0
LINE
  8
CSLAYER1
  6
CONTINUOUS
 62
     7
 10
417.575204
 20
1158.463643
 11
421.525204
 21
1158.463643
  0
ARC
  8
CSLAYER1
  6
CONTINUOUS
 62
     7
 10
421.525204
 20
1149.913917
 40
1.000000
 50
270.000000
 51
360.000000
  0
ARC
  8
CSLAYER1
  6
CONTINUOUS
 62
     7
 10
421.525204
 20
1157.463643
 40
1.000000
 50
0.000000
 51
90.000000
  0
LINE
  8
CSLAYER1
  6
CONTINUOUS
 62
     7
 10
413.200204
 20
1158.463643
 11
386.150204
 21
1158.463643
  0
LINE
  8
CSLAYER1
  6
CONTINUOUS
 62
     7
 10
413.200204
 20
1148.913917
 11
386.150204
 21
1148.913917
  0
LINE
  8
CSLAYER1
  6
CONTINUOUS
 62
     7
 10
411.200204
 20
1138.683917
 11
388.150204
 21
1138.683917
  0
ARC
  8
CSLAYER1
  6
CONTINUOUS
 62
     7
 10
388.150204
 20
1140.683917
 40
2.000000
 50
180.000000
 51
270.000000
  0
ARC
  8
CSLAYER1
  6
CONTINUOUS
 62
     7
 10
411.200204
 20
1140.683917
 40
2.000000
 50
270.000000
 51
360.000000
  0
ARC
  8
CSLAYER1
  6
CONTINUOUS
 62
     7
 10
411.675204
 20
1170.683917
 40
2.000000
 50
180.000000
 51
270.000000
  0
ARC
  8
CSLAYER1
  6
CONTINUOUS
 62
     7
 10
387.675204
 20
1170.683917
 40
2.000000
 50
270.000000
 51
360.000000
  0
ARC
  8
CSLAYER1
  6
CONTINUOUS
 62
     7
 10
412.200204
 20
1167.683917
 40
1.000000
 50
0.000000
 51
90.000000
  0
ARC
  8
CSLAYER1
  6
CONTINUOUS
 62
     7
 10
387.150204
 20
1167.683917
 40
1.000000
 50
90.000000
 51
180.000000
  0
POINT
  8
CSLAYER1
 62
     7
 10
399.675204
 20
1168.683917
  0
LINE
  8
CSLAYER1
  6
CONTINUOUS
 62
     7
 10
381.775204
 20
1108.933917
 11
381.775204
 21
1166.683917
  0
LINE
  8
CSLAYER1
  6
CONTINUOUS
 62
     7
 10
417.575204
 20
1108.933917
 11
417.575204
 21
1166.683917
  0
POINT
  8
CSLAYER1
 62
     7
 10
399.675204
 20
1090.183917
  0
LINE
  8
CSLAYER1
  6
CONTINUOUS
 62
     7
 10
390.150204
 20
1075.133917
 11
386.150204
 21
1075.133917
  0
LINE
  8
CSLAYER1
  6
CONTINUOUS
 62
     7
 10
391.150204
 20
1099.708917
 11
408.200204
 21
1099.708917
  0
LINE
  8
CSLAYER1
  6
CONTINUOUS
 62
     7
 10
391.150204
 20
1080.658917
 11
408.200204
 21
1080.658917
  0
ARC
  8
CSLAYER1
  6
CONTINUOUS
 62
     7
 10
391.150204
 20
1098.708917
 40
1.000000
 50
90.000000
 51
180.000000
  0
ARC
  8
CSLAYER1
  6
CONTINUOUS
 62
     7
 10
391.150204
 20
1081.658917
 40
1.000000
 50
180.000000
 51
270.000000
  0
LINE
  8
CSLAYER1
  6
CONTINUOUS
 62
     7
 10
409.200204
 20
1075.133917
 11
413.200204
 21
1075.133917
  0
ARC
  8
CSLAYER1
  6
CONTINUOUS
 62
     7
 10
408.200204
 20
1098.708917
 40
1.000000
 50
0.000000
 51
90.000000
  0
ARC
  8
CSLAYER1
  6
CONTINUOUS
 62
     7
 10
408.200204
 20
1081.658917
 40
1.000000
 50
270.000000
 51
360.000000
  0
LINE
  8
CSLAYER1
  6
CONTINUOUS
 62
     7
 10
379.925204
 20
1093.953917
 11
379.925204
 21
1086.404191
  0
LINE
  8
CSLAYER1
  6
CONTINUOUS
 62
     7
 10
386.150204
 20
1103.183917
 11
381.775204
 21
1103.183917
  0
LINE
  8
CSLAYER1
  6
CONTINUOUS
 62
     7
 10
381.775204
 20
1094.953917
 11
380.925204
 21
1094.953917
  0
LINE
  8
CSLAYER1
  6
CONTINUOUS
 62
     7
 10
381.775204
 20
1085.404191
 11
380.925204
 21
1085.404191
  0
ARC
  8
CSLAYER1
  6
CONTINUOUS
 62
     7
 10
380.925204
 20
1093.953917
 40
1.000000
 50
90.000000
 51
180.000000
  0
ARC
  8
CSLAYER1
  6
CONTINUOUS
 62
     7
 10
380.925204
 20
1086.404191
 40
1.000000
 50
180.000000
 51
270.000000
  0
LINE
  8
CSLAYER1
  6
CONTINUOUS
 62
     7
 10
419.425204
 20
1093.953917
 11
419.425204
 21
1086.404191
  0
LINE
  8
CSLAYER1
  6
CONTINUOUS
 62
     7
 10
413.200204
 20
1103.183917
 11
417.575204
 21
1103.183917
  0
LINE
  8
CSLAYER1
  6
CONTINUOUS
 62
     7
 10
417.575204
 20
1094.953917
 11
418.425204
 21
1094.953917
  0
LINE
  8
CSLAYER1
  6
CONTINUOUS
 62
     7
 10
417.575204
 20
1085.404191
 11
418.425204
 21
1085.404191
  0
ARC
  8
CSLAYER1
  6
CONTINUOUS
 62
     7
 10
418.425204
 20
1093.953917
 40
1.000000
 50
0.000000
 51
90.000000
  0
ARC
  8
CSLAYER1
  6
CONTINUOUS
 62
     7
 10
418.425204
 20
1086.404191
 40
1.000000
 50
270.000000
 51
360.000000
  0
LINE
  8
CSLAYER1
  6
CONTINUOUS
 62
     7
 10
417.575204
 20
1103.183917
 11
417.575204
 21
1045.433917
  0
LINE
  8
CSLAYER1
  6
CONTINUOUS
 62
     7
 10
381.775204
 20
1103.183917
 11
381.775204
 21
1045.433917
  0
LINE
  8
CSLAYER1
  6
CONTINUOUS
 62
     7
 10
373.675204
 20
1219.266609
 11
418.175204
 21
1219.266609
  0
LINE
  8
CSLAYER1
  6
CONTINUOUS
 62
     4
 10
407.675204
 20
757.478834
 11
410.701745
 21
757.478834
  0
LINE
  8
CSLAYER1
  6
CONTINUOUS
 62
     4
 10
413.675204
 20
758.478834
 11
413.675204
 21
784.478834
  0
LINE
  8
CSLAYER1
  6
CONTINUOUS
 62
     4
 10
413.675204
 20
758.478834
 11
412.675204
 21
757.478834
  0
LINE
  8
CSLAYER1
  6
CONTINUOUS
 62
     4
 10
412.675204
 20
757.478834
 11
412.675204
 21
785.478834
  0
LINE
  8
CSLAYER1
  6
CONTINUOUS
 62
     4
 10
390.675204
 20
790.478834
 11
390.675204
 21
752.478834
  0
LINE
  8
CSLAYER1
  6
CONTINUOUS
 62
     4
 10
412.675204
 20
757.478834
 11
407.608946
 21
752.494152
  0
LINE
  8
CSLAYER1
  6
CONTINUOUS
 62
     4
 10
407.675204
 20
752.559344
 11
412.594694
 21
757.478834
  0
LINE
  8
CSLAYER1
  6
CONTINUOUS
 62
     4
 10
407.675204
 20
752.842186
 11
412.311851
 21
757.478834
  0
LINE
  8
CSLAYER1
  6
CONTINUOUS
 62
     4
 10
407.675204
 20
753.125029
 11
412.029008
 21
757.478834
  0
LINE
  8
CSLAYER1
  6
CONTINUOUS
 62
     4
 10
407.675204
 20
753.407872
 11
411.746165
 21
757.478834
  0
LINE
  8
CSLAYER1
  6
CONTINUOUS
 62
     4
 10
407.675204
 20
753.690715
 11
411.463323
 21
757.478834
  0
LINE
  8
CSLAYER1
  6
CONTINUOUS
 62
     4
 10
407.675204
 20
753.973557
 11
411.180480
 21
757.478834
  0
LINE
  8
CSLAYER1
  6
CONTINUOUS
 62
     4
 10
407.675204
 20
754.256400
 11
410.897637
 21
757.478834
  0
LINE
  8
CSLAYER1
  6
CONTINUOUS
 62
     4
 10
407.675204
 20
754.539243
 11
410.614795
 21
757.478834
  0
LINE
  8
CSLAYER1
  6
CONTINUOUS
 62
     4
 10
407.675204
 20
754.822085
 11
410.331952
 21
757.478834
  0
LINE
  8
CSLAYER1
  6
CONTINUOUS
 62
     4
 10
407.675204
 20
755.104928
 11
410.049109
 21
757.478834
  0
LINE
  8
CSLAYER1
  6
CONTINUOUS
 62
     4
 10
407.675204
 20
755.387771
 11
409.766266
 21
757.478834
  0
LINE
  8
CSLAYER1
  6
CONTINUOUS
 62
     4
 10
407.675204
 20
755.670614
 11
409.483424
 21
757.478834
  0
LINE
  8
CSLAYER1
  6
CONTINUOUS
 62
     4
 10
407.675204
 20
755.953456
 11
409.200581
 21
757.478834
  0
LINE
  8
CSLAYER1
  6
CONTINUOUS
 62
     4
 10
407.675204
 20
756.236299
 11
408.917738
 21
757.478834
  0
LINE
  8
CSLAYER1
  6
CONTINUOUS
 62
     4
 10
407.675204
 20
756.519142
 11
408.634896
 21
757.478834
  0
LINE
  8
CSLAYER1
  6
CONTINUOUS
 62
     4
 10
407.675204
 20
756.801984
 11
408.352053
 21
757.478834
  0
LINE
  8
CSLAYER1
  6
CONTINUOUS
 62
     4
 10
407.675204
 20
757.084827
 11
408.069210
 21
757.478834
  0
LINE
  8
CSLAYER1
  6
CONTINUOUS
 62
     4
 10
407.675204
 20
757.367670
 11
407.786367
 21
757.478834
  0
LINE
  8
CSLAYER1
  6
CONTINUOUS
 62
     4
 10
407.675204
 20
785.478834
 11
410.701745
 21
785.478834
  0
LINE
  8
CSLAYER1
  6
CONTINUOUS
 62
     4
 10
413.675204
 20
784.478834
 11
412.675204
 21
785.478834
  0
LINE
  8
CSLAYER1
  6
CONTINUOUS
 62
     4
 10
390.675204
 20
790.478834
 11
389.675204
 21
791.478834
  0
LINE
  8
CSLAYER1
  6
CONTINUOUS
 62
     4
 10
412.675204
 20
785.478834
 11
407.608946
 21
790.463515
  0
LINE
  8
CSLAYER1
  6
CONTINUOUS
 62
     4
 10
407.675204
 20
790.398323
 11
412.594694
 21
785.478834
  0
LINE
  8
CSLAYER1
  6
CONTINUOUS
 62
     4
 10
407.675204
 20
790.115481
 11
412.311851
 21
785.478834
  0
LINE
  8
CSLAYER1
  6
CONTINUOUS
 62
     4
 10
407.675204
 20
789.832638
 11
412.029008
 21
785.478834
  0
LINE
  8
CSLAYER1
  6
CONTINUOUS
 62
     4
 10
407.675204
 20
789.549795
 11
411.746165
 21
785.478834
  0
LINE
  8
CSLAYER1
  6
CONTINUOUS
 62
     4
 10
407.675204
 20
789.266952
 11
411.463323
 21
785.478834
  0
LINE
  8
CSLAYER1
  6
CONTINUOUS
 62
     4
 10
407.675204
 20
788.984110
 11
411.180480
 21
785.478834
  0
LINE
  8
CSLAYER1
  6
CONTINUOUS
 62
     4
 10
407.675204
 20
788.701267
 11
410.897637
 21
785.478834
  0
LINE
  8
CSLAYER1
  6
CONTINUOUS
 62
     4
 10
407.675204
 20
788.418424
 11
410.614795
 21
785.478834
  0
LINE
  8
CSLAYER1
  6
CONTINUOUS
 62
     4
 10
407.675204
 20
788.135582
 11
410.331952
 21
785.478834
  0
LINE
  8
CSLAYER1
  6
CONTINUOUS
 62
     4
 10
407.675204
 20
787.852739
 11
410.049109
 21
785.478834
  0
LINE
  8
CSLAYER1
  6
CONTINUOUS
 62
     4
 10
407.675204
 20
787.569896
 11
409.766266
 21
785.478834
  0
LINE
  8
CSLAYER1
  6
CONTINUOUS
 62
     4
 10
407.675204
 20
787.287053
 11
409.483424
 21
785.478834
  0
LINE
  8
CSLAYER1
  6
CONTINUOUS
 62
     4
 10
407.675204
 20
787.004211
 11
409.200581
 21
785.478834
  0
LINE
  8
CSLAYER1
  6
CONTINUOUS
 62
     4
 10
407.675204
 20
786.721368
 11
408.917738
 21
785.478834
  0
LINE
  8
CSLAYER1
  6
CONTINUOUS
 62
     4
 10
407.675204
 20
786.438525
 11
408.634896
 21
785.478834
  0
LINE
  8
CSLAYER1
  6
CONTINUOUS
 62
     4
 10
407.675204
 20
786.155683
 11
408.352053
 21
785.478834
  0
LINE
  8
CSLAYER1
  6
CONTINUOUS
 62
     4
 10
407.675204
 20
785.872840
 11
408.069210
 21
785.478834
  0
LINE
  8
CSLAYER1
  6
CONTINUOUS
 62
     4
 10
407.675204
 20
785.589997
 11
407.786367
 21
785.478834
  0
LINE
  8
CSLAYER1
  6
CONTINUOUS
 62
     4
 10
310.701745
 20
750.128834
 11
351.675204
 21
750.128834
  0
LINE
  8
CSLAYER1
  6
CONTINUOUS
 62
     4
 10
309.701745
 20
791.828834
 11
309.701745
 21
751.128834
  0
LINE
  8
CSLAYER1
  6
CONTINUOUS
 62
     4
 10
309.701745
 20
751.128834
 11
310.701745
 21
750.128834
  0
LINE
  8
CSLAYER1
  6
CONTINUOUS
 62
     4
 10
269.701745
 20
781.478834
 11
269.701745
 21
761.478834
  0
LINE
  8
CSLAYER1
  6
CONTINUOUS
 62
     4
 10
288.701745
 20
789.978834
 11
288.701745
 21
752.978834
  0
LINE
  8
CSLAYER1
  6
CONTINUOUS
 62
     4
 10
283.601745
 20
788.478834
 11
283.601745
 21
754.478834
  0
LINE
  8
CSLAYER1
  6
CONTINUOUS
 62
     4
 10
271.601745
 20
788.478834
 11
271.601745
 21
754.478834
  0
LINE
  8
CSLAYER1
  6
CONTINUOUS
 62
     4
 10
288.701745
 20
788.478834
 11
271.601745
 21
788.478834
  0
LINE
  8
CSLAYER1
  6
CONTINUOUS
 62
     4
 10
283.601745
 20
781.478834
 11
269.701745
 21
781.478834
  0
LINE
  8
CSLAYER1
  6
CONTINUOUS
 62
     4
 10
288.701745
 20
754.478834
 11
271.601745
 21
754.478834
  0
LINE
  8
CSLAYER1
  6
CONTINUOUS
 62
     4
 10
283.601745
 20
761.478834
 11
269.701745
 21
761.478834
  0
LINE
  8
CSLAYER1
  6
CONTINUOUS
 62
     4
 10
291.701745
 20
789.978834
 11
288.701745
 21
789.978834
  0
LINE
  8
CSLAYER1
  6
CONTINUOUS
 62
     4
 10
291.701745
 20
752.978834
 11
288.701745
 21
752.978834
  0
LINE
  8
CSLAYER1
  6
CONTINUOUS
 62
     4
 10
291.701745
 20
752.978834
 11
291.701745
 21
789.978834
  0
LINE
  8
CSLAYER1
  6
CENTER
 62
     5
 10
250.100481
 20
771.478834
 11
423.455131
 21
771.478834
  0
LINE
  8
CSLAYER1
  6
CONTINUOUS
 62
     4
 10
291.701745
 20
758.978834
 11
292.675204
 21
758.978834
  0
LINE
  8
CSLAYER1
  6
CONTINUOUS
 62
     4
 10
310.701745
 20
792.828834
 11
351.675204
 21
792.828834
  0
LINE
  8
CSLAYER1
  6
CONTINUOUS
 62
     4
 10
309.701745
 20
791.828834
 11
310.701745
 21
792.828834
  0
LINE
  8
CSLAYER1
  6
CONTINUOUS
 62
     4
 10
291.701745
 20
783.978834
 11
292.675204
 21
783.978834
  0
LINE
  8
CSLAYER1
  6
CONTINUOUS
 62
     4
 10
292.701745
 20
745.371909
 11
292.701745
 21
758.978834
  0
LINE
  8
CSLAYER1
  6
CONTINUOUS
 62
     4
 10
346.675204
 20
750.128834
 11
351.675204
 21
745.128834
  0
LINE
  8
CSLAYER1
  6
CONTINUOUS
 62
     4
 10
351.675204
 20
745.411676
 11
346.958047
 21
750.128834
  0
LINE
  8
CSLAYER1
  6
CONTINUOUS
 62
     4
 10
351.675204
 20
745.694519
 11
347.240889
 21
750.128834
  0
LINE
  8
CSLAYER1
  6
CONTINUOUS
 62
     4
 10
351.675204
 20
745.977362
 11
347.523732
 21
750.128834
  0
LINE
  8
CSLAYER1
  6
CONTINUOUS
 62
     4
 10
351.675204
 20
746.260204
 11
347.806575
 21
750.128834
  0
LINE
  8
CSLAYER1
  6
CONTINUOUS
 62
     4
 10
351.675204
 20
746.543047
 11
348.089417
 21
750.128834
  0
LINE
  8
CSLAYER1
  6
CONTINUOUS
 62
     4
 10
351.675204
 20
746.825890
 11
348.372260
 21
750.128834
  0
LINE
  8
CSLAYER1
  6
CONTINUOUS
 62
     4
 10
351.675204
 20
747.108732
 11
348.655103
 21
750.128834
  0
LINE
  8
CSLAYER1
  6
CONTINUOUS
 62
     4
 10
351.675204
 20
747.391575
 11
348.937946
 21
750.128834
  0
LINE
  8
CSLAYER1
  6
CONTINUOUS
 62
     4
 10
351.675204
 20
747.674418
 11
349.220788
 21
750.128834
  0
LINE
  8
CSLAYER1
  6
CONTINUOUS
 62
     4
 10
351.675204
 20
747.957261
 11
349.503631
 21
750.128834
  0
LINE
  8
CSLAYER1
  6
CONTINUOUS
 62
     4
 10
351.675204
 20
748.240103
 11
349.786474
 21
750.128834
  0
LINE
  8
CSLAYER1
  6
CONTINUOUS
 62
     4
 10
351.675204
 20
748.522946
 11
350.069316
 21
750.128834
  0
LINE
  8
CSLAYER1
  6
CONTINUOUS
 62
     4
 10
351.675204
 20
748.805789
 11
350.352159
 21
750.128834
  0
LINE
  8
CSLAYER1
  6
CONTINUOUS
 62
     4
 10
351.675204
 20
749.088631
 11
350.635002
 21
750.128834
  0
LINE
  8
CSLAYER1
  6
CONTINUOUS
 62
     4
 10
351.675204
 20
749.371474
 11
350.917845
 21
750.128834
  0
LINE
  8
CSLAYER1
  6
CONTINUOUS
 62
     4
 10
351.675204
 20
749.654317
 11
351.200687
 21
750.128834
  0
LINE
  8
CSLAYER1
  6
CONTINUOUS
 62
     4
 10
351.675204
 20
749.937160
 11
351.483530
 21
750.128834
  0
LINE
  8
CSLAYER1
  6
CONTINUOUS
 62
     4
 10
367.675204
 20
796.195991
 11
372.392361
 21
791.478834
  0
LINE
  8
CSLAYER1
  6
CONTINUOUS
 62
     4
 10
367.675204
 20
795.913148
 11
372.109518
 21
791.478834
  0
LINE
  8
CSLAYER1
  6
CONTINUOUS
 62
     4
 10
367.675204
 20
795.630305
 11
371.826676
 21
791.478834
  0
LINE
  8
CSLAYER1
  6
CONTINUOUS
 62
     4
 10
367.675204
 20
795.347463
 11
371.543833
 21
791.478834
  0
LINE
  8
CSLAYER1
  6
CONTINUOUS
 62
     4
 10
367.675204
 20
795.064620
 11
371.260990
 21
791.478834
  0
LINE
  8
CSLAYER1
  6
CONTINUOUS
 62
     4
 10
367.675204
 20
794.781777
 11
370.978148
 21
791.478834
  0
LINE
  8
CSLAYER1
  6
CONTINUOUS
 62
     4
 10
367.675204
 20
794.498935
 11
370.695305
 21
791.478834
  0
LINE
  8
CSLAYER1
  6
CONTINUOUS
 62
     4
 10
367.675204
 20
794.216092
 11
370.412462
 21
791.478834
  0
LINE
  8
CSLAYER1
  6
CONTINUOUS
 62
     4
 10
367.675204
 20
793.933249
 11
370.129619
 21
791.478834
  0
LINE
  8
CSLAYER1
  6
CONTINUOUS
 62
     4
 10
367.675204
 20
793.650406
 11
369.846777
 21
791.478834
  0
LINE
  8
CSLAYER1
  6
CONTINUOUS
 62
     4
 10
367.675204
 20
793.367564
 11
369.563934
 21
791.478834
  0
LINE
  8
CSLAYER1
  6
CONTINUOUS
 62
     4
 10
367.675204
 20
793.084721
 11
369.281091
 21
791.478834
  0
LINE
  8
CSLAYER1
  6
CONTINUOUS
 62
     4
 10
367.675204
 20
792.801878
 11
368.998249
 21
791.478834
  0
LINE
  8
CSLAYER1
  6
CONTINUOUS
 62
     4
 10
367.675204
 20
792.519036
 11
368.715406
 21
791.478834
  0
LINE
  8
CSLAYER1
  6
CONTINUOUS
 62
     4
 10
367.675204
 20
792.236193
 11
368.432563
 21
791.478834
  0
LINE
  8
CSLAYER1
  6
CONTINUOUS
 62
     4
 10
367.675204
 20
791.953350
 11
368.149720
 21
791.478834
  0
LINE
  8
CSLAYER1
  6
CONTINUOUS
 62
     4
 10
367.675204
 20
791.670507
 11
367.866878
 21
791.478834
  0
LINE
  8
CSLAYER1
  6
CONTINUOUS
 62
     4
 10
346.675204
 20
792.828834
 11
351.675204
 21
797.828834
  0
LINE
  8
CSLAYER1
  6
CONTINUOUS
 62
     4
 10
351.675204
 20
797.545991
 11
346.958047
 21
792.828834
  0
LINE
  8
CSLAYER1
  6
CONTINUOUS
 62
     4
 10
351.675204
 20
797.263148
 11
347.240889
 21
792.828834
  0
LINE
  8
CSLAYER1
  6
CONTINUOUS
 62
     4
 10
351.675204
 20
796.980305
 11
347.523732
 21
792.828834
  0
LINE
  8
CSLAYER1
  6
CONTINUOUS
 62
     4
 10
351.675204
 20
796.697463
 11
347.806575
 21
792.828834
  0
LINE
  8
CSLAYER1
  6
CONTINUOUS
 62
     4
 10
351.675204
 20
796.414620
 11
348.089417
 21
792.828834
  0
LINE
  8
CSLAYER1
  6
CONTINUOUS
 62
     4
 10
351.675204
 20
796.131777
 11
348.372260
 21
792.828834
  0
LINE
  8
CSLAYER1
  6
CONTINUOUS
 62
     4
 10
351.675204
 20
795.848935
 11
348.655103
 21
792.828834
  0
LINE
  8
CSLAYER1
  6
CONTINUOUS
 62
     4
 10
351.675204
 20
795.566092
 11
348.937946
 21
792.828834
  0
LINE
  8
CSLAYER1
  6
CONTINUOUS
 62
     4
 10
351.675204
 20
795.283249
 11
349.220788
 21
792.828834
  0
LINE
  8
CSLAYER1
  6
CONTINUOUS
 62
     4
 10
351.675204
 20
795.000406
 11
349.503631
 21
792.828834
  0
LINE
  8
CSLAYER1
  6
CONTINUOUS
 62
     4
 10
351.675204
 20
794.717564
 11
349.786474
 21
792.828834
  0
LINE
  8
CSLAYER1
  6
CONTINUOUS
 62
     4
 10
351.675204
 20
794.434721
 11
350.069316
 21
792.828834
  0
LINE
  8
CSLAYER1
  6
CONTINUOUS
 62
     4
 10
351.675204
 20
794.151878
 11
350.352159
 21
792.828834
  0
LINE
  8
CSLAYER1
  6
CONTINUOUS
 62
     4
 10
351.675204
 20
793.869036
 11
350.635002
 21
792.828834
  0
LINE
  8
CSLAYER1
  6
CONTINUOUS
 62
     4
 10
351.675204
 20
793.586193
 11
350.917845
 21
792.828834
  0
LINE
  8
CSLAYER1
  6
CONTINUOUS
 62
     4
 10
351.675204
 20
793.303350
 11
351.200687
 21
792.828834
  0
LINE
  8
CSLAYER1
  6
CONTINUOUS
 62
     4
 10
351.675204
 20
793.020507
 11
351.483530
 21
792.828834
  0
LINE
  8
CSLAYER1
  6
CONTINUOUS
 62
     4
 10
368.715406
 20
791.478834
 11
367.675204
 21
791.478834
  0
LINE
  8
CSLAYER1
  6
CONTINUOUS
 62
     4
 10
407.675204
 20
747.478834
 11
391.675204
 21
747.478834
  0
LINE
  8
CSLAYER1
  6
CONTINUOUS
 62
     4
 10
369.866878
 20
791.478834
 11
389.675204
 21
791.478834
  0
LINE
  8
CSLAYER1
  6
CONTINUOUS
 62
     4
 10
390.675204
 20
786.478834
 11
391.675204
 21
786.478834
  0
LINE
  8
CSLAYER1
  6
CONTINUOUS
 62
     4
 10
390.675204
 20
756.478834
 11
391.675204
 21
756.478834
  0
LINE
  8
CSLAYER1
  6
CONTINUOUS
 62
     4
 10
308.675204
 20
786.478834
 11
309.701745
 21
786.478834
  0
LINE
  8
CSLAYER1
  6
CONTINUOUS
 62
     4
 10
308.675204
 20
756.478834
 11
309.701745
 21
756.478834
  0
LINE
  8
CSLAYER1
  6
CONTINUOUS
 62
     4
 10
390.675204
 20
752.478834
 11
389.675204
 21
751.478834
  0
LINE
  8
CSLAYER1
  6
CONTINUOUS
 62
     4
 10
367.675204
 20
746.761676
 11
372.392361
 21
751.478834
  0
LINE
  8
CSLAYER1
  6
CONTINUOUS
 62
     4
 10
367.675204
 20
747.044519
 11
372.109518
 21
751.478834
  0
LINE
  8
CSLAYER1
  6
CONTINUOUS
 62
     4
 10
367.675204
 20
747.327362
 11
371.826676
 21
751.478834
  0
LINE
  8
CSLAYER1
  6
CONTINUOUS
 62
     4
 10
367.675204
 20
747.610204
 11
371.543833
 21
751.478834
  0
LINE
  8
CSLAYER1
  6
CONTINUOUS
 62
     4
 10
367.675204
 20
747.893047
 11
371.260990
 21
751.478834
  0
LINE
  8
CSLAYER1
  6
CONTINUOUS
 62
     4
 10
367.675204
 20
748.175890
 11
370.978148
 21
751.478834
  0
LINE
  8
CSLAYER1
  6
CONTINUOUS
 62
     4
 10
367.675204
 20
748.458732
 11
370.695305
 21
751.478834
  0
LINE
  8
CSLAYER1
  6
CONTINUOUS
 62
     4
 10
367.675204
 20
748.741575
 11
370.412462
 21
751.478834
  0
LINE
  8
CSLAYER1
  6
CONTINUOUS
 62
     4
 10
367.675204
 20
749.024418
 11
370.129619
 21
751.478834
  0
LINE
  8
CSLAYER1
  6
CONTINUOUS
 62
     4
 10
367.675204
 20
749.307261
 11
369.846777
 21
751.478834
  0
LINE
  8
CSLAYER1
  6
CONTINUOUS
 62
     4
 10
367.675204
 20
749.590103
 11
369.563934
 21
751.478834
  0
LINE
  8
CSLAYER1
  6
CONTINUOUS
 62
     4
 10
367.675204
 20
749.872946
 11
369.281091
 21
751.478834
  0
LINE
  8
CSLAYER1
  6
CONTINUOUS
 62
     4
 10
367.675204
 20
750.155789
 11
368.998249
 21
751.478834
  0
LINE
  8
CSLAYER1
  6
CONTINUOUS
 62
     4
 10
367.675204
 20
750.438631
 11
368.715406
 21
751.478834
  0
LINE
  8
CSLAYER1
  6
CONTINUOUS
 62
     4
 10
367.675204
 20
750.721474
 11
368.432563
 21
751.478834
  0
LINE
  8
CSLAYER1
  6
CONTINUOUS
 62
     4
 10
367.675204
 20
751.004317
 11
368.149720
 21
751.478834
  0
LINE
  8
CSLAYER1
  6
CONTINUOUS
 62
     4
 10
367.675204
 20
751.287160
 11
367.866878
 21
751.478834
  0
LINE
  8
CSLAYER1
  6
CONTINUOUS
 62
     4
 10
368.715406
 20
751.478834
 11
367.675204
 21
751.478834
  0
LINE
  8
CSLAYER1
  6
CONTINUOUS
 62
     4
 10
369.866878
 20
751.478834
 11
389.675204
 21
751.478834
  0
POINT
  8
CSLAYER1
 62
     4
 10
399.675204
 20
841.136185
  0
LINE
  8
CSLAYER1
  6
CONTINUOUS
 62
     4
 10
381.775204
 20
828.136185
 11
381.775204
 21
885.886185
  0
LINE
  8
CSLAYER1
  6
CONTINUOUS
 62
     4
 10
379.925204
 20
837.366185
 11
379.925204
 21
844.915911
  0
LINE
  8
CSLAYER1
  6
CONTINUOUS
 62
     4
 10
386.150204
 20
828.136185
 11
381.775204
 21
828.136185
  0
LINE
  8
CSLAYER1
  6
CONTINUOUS
 62
     4
 10
381.775204
 20
845.915911
 11
380.925204
 21
845.915911
  0
ARC
  8
CSLAYER1
  6
CONTINUOUS
 62
     4
 10
380.925204
 20
837.366185
 40
1.000000
 50
180.000000
 51
270.000000
  0
ARC
  8
CSLAYER1
  6
CONTINUOUS
 62
     4
 10
380.925204
 20
844.915911
 40
1.000000
 50
90.000000
 51
180.000000
  0
LINE
  8
CSLAYER1
  6
CONTINUOUS
 62
     4
 10
413.200204
 20
828.136185
 11
413.200204
 21
923.386185
  0
LINE
  8
CSLAYER1
  6
CONTINUOUS
 62
     4
 10
417.575204
 20
828.136185
 11
417.575204
 21
885.886185
  0
LINE
  8
CSLAYER1
  6
CONTINUOUS
 62
     4
 10
419.425204
 20
837.366185
 11
419.425204
 21
844.915911
  0
LINE
  8
CSLAYER1
  6
CONTINUOUS
 62
     4
 10
413.200204
 20
828.136185
 11
417.575204
 21
828.136185
  0
LINE
  8
CSLAYER1
  6
CONTINUOUS
 62
     4
 10
417.575204
 20
836.366185
 11
418.425204
 21
836.366185
  0
LINE
  8
CSLAYER1
  6
CONTINUOUS
 62
     4
 10
417.575204
 20
845.915911
 11
418.425204
 21
845.915911
  0
ARC
  8
CSLAYER1
  6
CONTINUOUS
 62
     4
 10
418.425204
 20
837.366185
 40
1.000000
 50
270.000000
 51
360.000000
  0
ARC
  8
CSLAYER1
  6
CONTINUOUS
 62
     4
 10
418.425204
 20
844.915911
 40
1.000000
 50
0.000000
 51
90.000000
  0
LINE
  8
CSLAYER1
  6
CONTINUOUS
 62
     4
 10
412.200204
 20
831.136185
 11
407.675204
 21
831.136185
  0
LINE
  8
CSLAYER1
  6
CONTINUOUS
 62
     4
 10
413.200204
 20
832.136185
 11
412.200204
 21
831.136185
  0
LINE
  8
CSLAYER1
  6
CONTINUOUS
 62
     4
 10
387.150204
 20
831.136185
 11
386.150204
 21
832.136185
  0
LINE
  8
CSLAYER1
  6
CONTINUOUS
 62
     4
 10
412.200204
 20
851.136185
 11
407.675204
 21
851.136185
  0
LINE
  8
CSLAYER1
  6
CONTINUOUS
 62
     4
 10
413.200204
 20
850.136185
 11
412.200204
 21
851.136185
  0
LINE
  8
CSLAYER1
  6
CONTINUOUS
 62
     4
 10
387.150204
 20
851.136185
 11
386.150204
 21
850.136185
  0
LINE
  8
CSLAYER1
  6
CONTINUOUS
 62
     5
 10
372.191923
 20
872.886185
 11
416.727834
 21
872.886185
  0
LINE
  8
CSLAYER1
  6
CONTINUOUS
 62
     4
 10
413.200204
 20
885.886185
 11
417.575204
 21
885.886185
  0
LINE
  8
CSLAYER1
  6
CONTINUOUS
 62
     4
 10
419.425204
 20
869.116185
 11
419.425204
 21
876.665911
  0
LINE
  8
CSLAYER1
  6
CONTINUOUS
 62
     4
 10
417.575204
 20
868.116185
 11
418.425204
 21
868.116185
  0
LINE
  8
CSLAYER1
  6
CONTINUOUS
 62
     4
 10
417.575204
 20
877.665911
 11
418.425204
 21
877.665911
  0
ARC
  8
CSLAYER1
  6
CONTINUOUS
 62
     4
 10
418.425204
 20
869.116185
 40
1.000000
 50
270.000000
 51
360.000000
  0
ARC
  8
CSLAYER1
  6
CONTINUOUS
 62
     4
 10
418.425204
 20
876.665911
 40
1.000000
 50
0.000000
 51
90.000000
  0
LINE
  8
CSLAYER1
  6
CONTINUOUS
 62
     4
 10
386.150204
 20
885.886185
 11
381.775204
 21
885.886185
  0
LINE
  8
CSLAYER1
  6
CONTINUOUS
 62
     4
 10
381.775204
 20
836.366185
 11
380.925204
 21
836.366185
  0
LINE
  8
CSLAYER1
  6
CONTINUOUS
 62
     4
 10
379.925204
 20
869.116185
 11
379.925204
 21
876.665911
  0
LINE
  8
CSLAYER1
  6
CONTINUOUS
 62
     4
 10
381.775204
 20
868.116185
 11
380.925204
 21
868.116185
  0
LINE
  8
CSLAYER1
  6
CONTINUOUS
 62
     4
 10
381.775204
 20
877.665911
 11
380.925204
 21
877.665911
  0
ARC
  8
CSLAYER1
  6
CONTINUOUS
 62
     4
 10
380.925204
 20
869.116185
 40
1.000000
 50
180.000000
 51
270.000000
  0
ARC
  8
CSLAYER1
  6
CONTINUOUS
 62
     4
 10
380.925204
 20
876.665911
 40
1.000000
 50
90.000000
 51
180.000000
  0
POINT
  8
CSLAYER1
 62
     4
 10
399.675204
 20
872.886185
  0
LINE
  8
CSLAYER1
  6
CONTINUOUS
 62
     5
 10
373.037541
 20
841.136185
 11
417.573453
 21
841.136185
  0
POINT
  8
CSLAYER1
 62
     4
 10
399.675204
 20
904.636185
  0
LINE
  8
CSLAYER1
  6
CONTINUOUS
 62
     4
 10
386.150204
 20
828.136185
 11
386.150204
 21
923.386185
  0
LINE
  8
CSLAYER1
  6
CONTINUOUS
 62
     4
 10
390.150204
 20
919.686185
 11
390.150204
 21
857.836185
  0
LINE
  8
CSLAYER1
  6
CONTINUOUS
 62
     4
 10
390.150204
 20
919.686185
 11
386.150204
 21
919.686185
  0
LINE
  8
CSLAYER1
  6
CONTINUOUS
 62
     4
 10
391.150204
 20
895.111185
 11
408.200204
 21
895.111185
  0
LINE
  8
CSLAYER1
  6
CONTINUOUS
 62
     4
 10
391.150204
 20
914.161185
 11
408.200204
 21
914.161185
  0
ARC
  8
CSLAYER1
  6
CONTINUOUS
 62
     4
 10
391.150204
 20
896.111185
 40
1.000000
 50
180.000000
 51
270.000000
  0
ARC
  8
CSLAYER1
  6
CONTINUOUS
 62
     4
 10
391.150204
 20
913.161185
 40
1.000000
 50
90.000000
 51
180.000000
  0
LINE
  8
CSLAYER1
  6
CONTINUOUS
 62
     4
 10
409.200204
 20
919.686185
 11
409.200204
 21
857.836185
  0
LINE
  8
CSLAYER1
  6
CONTINUOUS
 62
     4
 10
409.200204
 20
919.686185
 11
413.200204
 21
919.686185
  0
ARC
  8
CSLAYER1
  6
CONTINUOUS
 62
     4
 10
408.200204
 20
896.111185
 40
1.000000
 50
270.000000
 51
360.000000
  0
ARC
  8
CSLAYER1
  6
CONTINUOUS
 62
     4
 10
408.200204
 20
913.161185
 40
1.000000
 50
0.000000
 51
90.000000
  0
LINE
  8
CSLAYER1
  6
CONTINUOUS
 62
     4
 10
379.925204
 20
900.866185
 11
379.925204
 21
908.415911
  0
LINE
  8
CSLAYER1
  6
CONTINUOUS
 62
     4
 10
386.150204
 20
891.636185
 11
381.775204
 21
891.636185
  0
LINE
  8
CSLAYER1
  6
CONTINUOUS
 62
     4
 10
381.775204
 20
899.866185
 11
380.925204
 21
899.866185
  0
LINE
  8
CSLAYER1
  6
CONTINUOUS
 62
     4
 10
381.775204
 20
909.415911
 11
380.925204
 21
909.415911
  0
ARC
  8
CSLAYER1
  6
CONTINUOUS
 62
     4
 10
380.925204
 20
900.866185
 40
1.000000
 50
180.000000
 51
270.000000
  0
ARC
  8
CSLAYER1
  6
CONTINUOUS
 62
     4
 10
380.925204
 20
908.415911
 40
1.000000
 50
90.000000
 51
180.000000
  0
LINE
  8
CSLAYER1
  6
CONTINUOUS
 62
     4
 10
419.425204
 20
900.866185
 11
419.425204
 21
908.415911
  0
LINE
  8
CSLAYER1
  6
CONTINUOUS
 62
     4
 10
413.200204
 20
891.636185
 11
417.575204
 21
891.636185
  0
LINE
  8
CSLAYER1
  6
CONTINUOUS
 62
     4
 10
417.575204
 20
899.866185
 11
418.425204
 21
899.866185
  0
LINE
  8
CSLAYER1
  6
CONTINUOUS
 62
     4
 10
417.575204
 20
909.415911
 11
418.425204
 21
909.415911
  0
ARC
  8
CSLAYER1
  6
CONTINUOUS
 62
     4
 10
418.425204
 20
900.866185
 40
1.000000
 50
270.000000
 51
360.000000
  0
ARC
  8
CSLAYER1
  6
CONTINUOUS
 62
     4
 10
418.425204
 20
908.415911
 40
1.000000
 50
0.000000
 51
90.000000
  0
LINE
  8
CSLAYER1
  6
CONTINUOUS
 62
     4
 10
390.150204
 20
857.836185
 11
386.150204
 21
857.836185
  0
LINE
  8
CSLAYER1
  6
CONTINUOUS
 62
     4
 10
391.150204
 20
882.411185
 11
408.200204
 21
882.411185
  0
LINE
  8
CSLAYER1
  6
CONTINUOUS
 62
     4
 10
391.150204
 20
863.361185
 11
408.200204
 21
863.361185
  0
ARC
  8
CSLAYER1
  6
CONTINUOUS
 62
     4
 10
391.150204
 20
881.411185
 40
1.000000
 50
90.000000
 51
180.000000
  0
ARC
  8
CSLAYER1
  6
CONTINUOUS
 62
     4
 10
391.150204
 20
864.361185
 40
1.000000
 50
180.000000
 51
270.000000
  0
LINE
  8
CSLAYER1
  6
CONTINUOUS
 62
     4
 10
409.200204
 20
857.836185
 11
413.200204
 21
857.836185
  0
ARC
  8
CSLAYER1
  6
CONTINUOUS
 62
     4
 10
408.200204
 20
881.411185
 40
1.000000
 50
0.000000
 51
90.000000
  0
ARC
  8
CSLAYER1
  6
CONTINUOUS
 62
     4
 10
408.200204
 20
864.361185
 40
1.000000
 50
270.000000
 51
360.000000
  0
LINE
  8
CSLAYER1
  6
CONTINUOUS
 62
     4
 10
391.675204
 20
858.136185
 11
407.675204
 21
858.136185
  0
LINE
  8
CSLAYER1
  6
CONTINUOUS
 62
     4
 10
391.675204
 20
851.136185
 11
387.150204
 21
851.136185
  0
LINE
  8
CSLAYER1
  6
CONTINUOUS
 62
     4
 10
391.675204
 20
831.136185
 11
387.150204
 21
831.136185
  0
LINE
  8
CSLAYER1
  6
CONTINUOUS
 62
     4
 10
391.675204
 20
863.361185
 11
391.675204
 21
727.045236
  0
LINE
  8
CSLAYER1
  6
CONTINUOUS
 62
     4
 10
407.675204
 20
863.361185
 11
407.675204
 21
727.045236
  0
LINE
  8
CSLAYER1
  6
CONTINUOUS
 62
     4
 10
308.675204
 20
727.045236
 11
351.675204
 21
727.045236
  0
LINE
  8
CSLAYER1
  6
CONTINUOUS
 62
     4
 10
349.175204
 20
1253.766609
 11
350.325204
 21
1253.766609
  0
LINE
  8
CSLAYER1
  6
CONTINUOUS
 62
     4
 10
350.325204
 20
1253.216609
 11
351.675204
 21
1253.216609
  0
LINE
  8
CSLAYER1
  6
CONTINUOUS
 62
     4
 10
350.325204
 20
1256.316609
 11
351.675204
 21
1256.316609
  0
LINE
  8
CSLAYER1
  6
CONTINUOUS
 62
     4
 10
350.325204
 20
1256.316609
 11
350.325204
 21
1226.216609
  0
LINE
  8
CSLAYER1
  6
CONTINUOUS
 62
     4
 10
347.675204
 20
1252.266609
 11
347.675204
 21
1230.266609
  0
LINE
  8
CSLAYER1
  6
CONTINUOUS
 62
     4
 10
347.675204
 20
1252.266609
 11
349.175204
 21
1253.766609
  0
LINE
  8
CSLAYER1
  6
CONTINUOUS
 62
     4
 10
349.175204
 20
1253.766609
 11
349.175204
 21
1228.766609
  0
LINE
  8
CSLAYER1
  6
CONTINUOUS
 62
     4
 10
349.175204
 20
1228.766609
 11
350.325204
 21
1228.766609
  0
LINE
  8
CSLAYER1
  6
CONTINUOUS
 62
     4
 10
347.842766
 20
1241.266609
 11
352.175204
 21
1241.266609
  0
LINE
  8
CSLAYER1
  6
CONTINUOUS
 62
     4
 10
350.325204
 20
1229.316609
 11
351.675204
 21
1229.316609
  0
LINE
  8
CSLAYER1
  6
CONTINUOUS
 62
     4
 10
350.325204
 20
1226.216609
 11
351.675204
 21
1226.216609
  0
LINE
  8
CSLAYER1
  6
CONTINUOUS
 62
     4
 10
347.675204
 20
1230.266609
 11
349.175204
 21
1228.766609
  0
LINE
  8
CSLAYER1
  6
CONTINUOUS
 62
     7
 10
458.675204
 20
704.327458
 11
372.792404
 21
679.953070
  0
LINE
  8
CSLAYER1
  6
CONTINUOUS
 62
     7
 10
458.675204
 20
673.193215
 11
372.792404
 21
648.818827
  0
LINE
  8
CSLAYER1
  6
CONTINUOUS
 62
     7
 10
372.792404
 20
619.089718
 11
458.675204
 21
594.715330
  0
DIMENSION
  8
CSLAYER1
 62
     7
  2
*D0005
 10
824.675204
 20
237.926554
 11
524.675232
 21
247.926605
 13
224.675204
 23
345.127095
 14
824.675204
 24
345.127095
 52
270.000000
 70
1
  0
DIMENSION
  8
CSLAYER1
 62
     7
  2
*D0006
 10
914.525732
 20
2128.516710
 11
904.525635
 21
1828.516479
 13
1024.015706
 23
1528.516710
 14
1024.015706
 24
2128.516710
 50
90.000000
 70
1
  0
TEXT
  8
CSLAYER2
 62
     5
 10
2923.364105
 20
1867.333029
 40
40.809284
 41
0.899282
  1
GLI-1000-0612
 50
0.000000
 51
0.000000
  7
EASYDRAW_FONT
 72
     5
 11
3388.218903
 21
1867.333029
  0
LINE
  8
CSLAYER1
  6
CENTER
 62
     5
 10
996.722708
 20
1828.516710
 11
2242.764623
 21
1828.516710
  0
LINE
  8
CSLAYER1
  6
CONTINUOUS
 62
     3
 10
609.675204
 20
449.627095
 11
657.825269
 21
449.627095
  0
LINE
  8
CSLAYER1
  6
CONTINUOUS
 62
     5
 10
586.675204
 20
443.627095
 11
657.093894
 21
443.627095
  0
LINE
  8
CSLAYER1
  6
CONTINUOUS
 62
     1
 10
655.175204
 20
452.627095
 11
655.175204
 21
450.427095
  0
LINE
  8
CSLAYER1
  6
CONTINUOUS
 62
     1
 10
658.044682
 20
451.427095
 11
655.175204
 21
451.427095
  0
LINE
  8
CSLAYER1
  6
CONTINUOUS
 62
     1
 10
660.375204
 20
454.027095
 11
656.575204
 21
454.027095
  0
LINE
  8
CSLAYER1
  6
CONTINUOUS
 62
     1
 10
654.175204
 20
450.427095
 11
654.175204
 21
449.627095
  0
LINE
  8
CSLAYER1
  6
CONTINUOUS
 62
     1
 10
657.922786
 20
450.427095
 11
654.175204
 21
450.427095
  0
ARC
  8
CSLAYER1
  6
CONTINUOUS
 62
     1
 10
656.575204
 20
452.627095
 40
1.400000
 50
90.000000
 51
180.000000
  0
LINE
  8
CSLAYER1
  6
CONTINUOUS
 62
     1
 10
658.009932
 20
451.142013
 11
657.329953
 21
451.427095
  0
LINE
  8
CSLAYER1
  6
CONTINUOUS
 62
     4
 10
656.875204
 20
435.788840
 11
656.875204
 21
441.833025
  0
LINE
  8
CSLAYER1
  6
CONTINUOUS
 62
     4
 10
670.875204
 20
435.788840
 11
670.875204
 21
441.833025
  0
LINE
  8
CSLAYER1
  6
CONTINUOUS
 62
     2
 10
660.375204
 20
453.817163
 11
667.375204
 21
453.817163
  0
LINE
  8
CSLAYER1
  6
CONTINUOUS
 62
     4
 10
661.875204
 20
466.128900
 11
661.875204
 21
482.106833
  0
LINE
  8
CSLAYER1
  6
CONTINUOUS
 62
     4
 10
665.875204
 20
466.128900
 11
665.875204
 21
478.067389
  0
LINE
  8
CSLAYER1
  6
CONTINUOUS
 62
     3
 10
2203.875204
 20
443.627095
 11
2203.875204
 21
410.127095
  0
LINE
  8
CSLAYER1
  6
CONTINUOUS
 62
     3
 10
2064.475204
 20
443.627095
 11
2064.475204
 21
410.127095
  0
LINE
  8
CSLAYER1
  6
CONTINUOUS
 62
     3
 10
2205.675204
 20
449.627095
 11
2062.675204
 21
449.627095
  0
LINE
  8
CSLAYER1
  6
CONTINUOUS
 62
     3
 10
2205.675204
 20
443.627095
 11
2203.875204
 21
443.627095
  0
LINE
  8
CSLAYER1
  6
CONTINUOUS
 62
     3
 10
2205.675204
 20
449.627095
 11
2205.675204
 21
443.627095
  0
LINE
  8
CSLAYER1
  6
CONTINUOUS
 62
     3
 10
2062.675204
 20
449.627095
 11
2062.675204
 21
443.627095
  0
LINE
  8
CSLAYER1
  6
CONTINUOUS
 62
     5
 10
2233.875204
 20
433.927095
 11
2233.875204
 21
416.927095
  0
LINE
  8
CSLAYER1
  6
CONTINUOUS
 62
     5
 10
2229.905637
 20
438.417476
 11
2215.277767
 21
438.417476
  0
LINE
  8
CSLAYER1
  6
CONTINUOUS
 62
     5
 10
2230.766109
 20
436.927095
 11
2230.766109
 21
413.927095
  0
LINE
  8
CSLAYER1
  6
CONTINUOUS
 62
     5
 10
2214.417295
 20
436.927095
 11
2214.417295
 21
413.927095
  0
LINE
  8
CSLAYER1
  6
CONTINUOUS
 62
     5
 10
2230.766109
 20
436.927095
 11
2229.905637
 21
438.417476
  0
LINE
  8
CSLAYER1
  6
CONTINUOUS
 62
     5
 10
2214.417295
 20
436.927095
 11
2215.277767
 21
438.417476
  0
LINE
  8
CSLAYER1
  6
CONTINUOUS
 62
     5
 10
2229.905637
 20
432.066623
 11
2215.277767
 21
432.066623
  0
ARC
  8
CSLAYER1
  6
CONTINUOUS
 62
     5
 10
2204.720084
 20
425.427095
 40
26.046025
 50
-14.768561
 51
14.768561
  0
ARC
  8
CSLAYER1
  6
CONTINUOUS
 62
     5
 10
2224.634516
 20
435.242050
 40
6.153702
 50
-31.065581
 51
23.174644
  0
ARC
  8
CSLAYER1
  6
CONTINUOUS
 62
     5
 10
2220.548888
 20
435.242050
 40
6.153702
 50
156.825356
 51
211.065581
  0
ARC
  8
CSLAYER1
  6
CONTINUOUS
 62
     5
 10
2240.463320
 20
425.427095
 40
26.046025
 50
165.231439
 51
194.768561
  0
LINE
  8
CSLAYER1
  6
CONTINUOUS
 62
     5
 10
2230.875204
 20
436.927095
 11
2230.766109
 21
436.927095
  0
ARC
  8
CSLAYER1
  6
CONTINUOUS
 62
     5
 10
2230.875204
 20
433.927095
 40
3.000000
 50
0.000000
 51
90.000000
  0
LINE
  8
CSLAYER1
  6
CONTINUOUS
 62
     5
 10
2210.875204
 20
436.927095
 11
2210.875204
 21
413.927095
  0
LINE
  8
CSLAYER1
  6
CONTINUOUS
 62
     5
 10
2210.875204
 20
436.927095
 11
2210.014732
 21
438.417476
  0
ARC
  8
CSLAYER1
  6
CONTINUOUS
 62
     5
 10
2184.829179
 20
425.427095
 40
26.046025
 50
-14.768561
 51
14.768561
  0
ARC
  8
CSLAYER1
  6
CONTINUOUS
 62
     5
 10
2204.743611
 20
435.242050
 40
6.153702
 50
-31.065581
 51
23.174644
  0
LINE
  8
CSLAYER1
  6
CONTINUOUS
 62
     5
 10
2210.014732
 20
432.066623
 11
2203.875204
 21
432.066623
  0
LINE
  8
CSLAYER1
  6
CONTINUOUS
 62
     5
 10
2210.014732
 20
438.417476
 11
2203.875204
 21
438.417476
  0
LINE
  8
CSLAYER1
  6
CONTINUOUS
 62
     5
 10
2214.417295
 20
435.763219
 11
2210.875204
 21
435.763219
  0
LINE
  8
CSLAYER1
  6
CONTINUOUS
 62
     5
 10
2214.417295
 20
435.116842
 11
2212.810933
 21
435.116842
  0
LINE
  8
CSLAYER1
  6
CONTINUOUS
 62
     5
 10
2212.810933
 20
435.763219
 11
2212.810933
 21
415.090971
  0
LINE
  8
CSLAYER1
  6
CONTINUOUS
 62
     5
 10
2212.810933
 20
435.116842
 11
2211.676081
 21
435.763219
  0
LINE
  8
CSLAYER1
  6
CONTINUOUS
 62
     5
 10
2229.905637
 20
412.436714
 11
2215.277767
 21
412.436714
  0
LINE
  8
CSLAYER1
  6
CONTINUOUS
 62
     5
 10
2230.766109
 20
413.927095
 11
2229.905637
 21
412.436714
  0
LINE
  8
CSLAYER1
  6
CONTINUOUS
 62
     5
 10
2214.417295
 20
413.927095
 11
2215.277767
 21
412.436714
  0
LINE
  8
CSLAYER1
  6
CONTINUOUS
 62
     5
 10
2229.905637
 20
418.787567
 11
2215.277767
 21
418.787567
  0
ARC
  8
CSLAYER1
  6
CONTINUOUS
 62
     5
 10
2224.634516
 20
415.612141
 40
6.153702
 50
-23.174644
 51
31.065581
  0
ARC
  8
CSLAYER1
  6
CONTINUOUS
 62
     5
 10
2220.548888
 20
415.612141
 40
6.153702
 50
148.934419
 51
203.174644
  0
LINE
  8
CSLAYER1
  6
CONTINUOUS
 62
     5
 10
2230.875204
 20
413.927095
 11
2230.766109
 21
413.927095
  0
ARC
  8
CSLAYER1
  6
CONTINUOUS
 62
     5
 10
2230.875204
 20
416.927095
 40
3.000000
 50
270.000000
 51
360.000000
  0
LINE
  8
CSLAYER1
  6
CONTINUOUS
 62
     5
 10
2210.875204
 20
413.927095
 11
2210.014732
 21
412.436714
  0
ARC
  8
CSLAYER1
  6
CONTINUOUS
 62
     5
 10
2204.743611
 20
415.612141
 40
6.153702
 50
-23.174644
 51
31.065581
  0
LINE
  8
CSLAYER1
  6
CONTINUOUS
 62
     5
 10
2210.014732
 20
418.787567
 11
2203.875204
 21
418.787567
  0
LINE
  8
CSLAYER1
  6
CONTINUOUS
 62
     5
 10
2210.014732
 20
412.436714
 11
2203.875204
 21
412.436714
  0
LINE
  8
CSLAYER1
  6
CONTINUOUS
 62
     5
 10
2214.417295
 20
415.090971
 11
2210.875204
 21
415.090971
  0
LINE
  8
CSLAYER1
  6
CONTINUOUS
 62
     5
 10
2214.417295
 20
415.737349
 11
2212.810933
 21
415.737349
  0
LINE
  8
CSLAYER1
  6
CONTINUOUS
 62
     5
 10
2212.810933
 20
415.737349
 11
2211.676081
 21
415.090971
  0
LINE
  8
CSLAYER1
  6
CENTER
 62
     5
 10
2267.631225
 20
425.427095
 11
2203.875204
 21
425.427095
  0
LINE
  8
CSLAYER1
  6
CONTINUOUS
 62
     5
 10
2267.443184
 20
429.227095
 11
2233.875204
 21
429.227095
  0
LINE
  8
CSLAYER1
  6
CONTINUOUS
 62
     5
 10
2268.759472
 20
421.627095
 11
2233.875204
 21
421.627095
  0
INSERT
  8
CSLAYER1
  2
BLKF0001
 10
0.0
 20
0.0
 30
0.0
  0
LINE
  8
CSLAYER1
  6
CONTINUOUS
 62
     3
 10
2064.475204
 20
443.627095
 11
2062.675204
 21
443.627095
  0
LINE
  8
CSLAYER1
  6
CONTINUOUS
 62
     5
 10
2203.875204
 20
443.627095
 11
2064.475204
 21
443.627095
  0
LINE
  8
CSLAYER1
  6
CONTINUOUS
 62
     5
 10
1817.392263
 20
1170.830575
 11
1892.324673
 21
1170.830575
  0
LINE
  8
CSLAYER1
  6
CONTINUOUS
 62
     5
 10
1851.832998
 20
1204.004633
 11
1851.832998
 21
1135.677208
  0
LINE
  8
CSLAYER1
  6
CONTINUOUS
 62
     7
 10
586.675204
 20
424.576487
 11
586.439275
 21
427.977118
  0
LINE
  8
CSLAYER1
  6
CONTINUOUS
 62
     7
 10
586.439275
 20
427.977118
 11
585.733285
 21
431.351868
  0
LINE
  8
CSLAYER1
  6
CONTINUOUS
 62
     7
 10
585.733285
 20
431.351868
 11
584.562605
 21
434.675053
  0
LINE
  8
CSLAYER1
  6
CONTINUOUS
 62
     7
 10
584.562605
 20
434.675053
 11
582.936146
 21
437.921382
  0
LINE
  8
CSLAYER1
  6
CONTINUOUS
 62
     7
 10
582.936146
 20
437.921382
 11
580.866287
 21
441.066149
  0
LINE
  8
CSLAYER1
  6
CONTINUOUS
 62
     7
 10
580.866287
 20
441.066149
 11
578.368779
 21
444.085419
  0
LINE
  8
CSLAYER1
  6
CONTINUOUS
 62
     7
 10
578.368779
 20
444.085419
 11
575.462631
 21
446.956214
  0
LINE
  8
CSLAYER1
  6
CONTINUOUS
 62
     7
 10
575.462631
 20
446.956214
 11
572.169959
 21
449.656687
  0
LINE
  8
CSLAYER1
  6
CONTINUOUS
 62
     7
 10
572.169959
 20
449.656687
 11
568.515824
 21
452.166283
  0
LINE
  8
CSLAYER1
  6
CONTINUOUS
 62
     7
 10
568.515824
 20
452.166283
 11
564.528036
 21
454.465905
  0
LINE
  8
CSLAYER1
  6
CONTINUOUS
 62
     7
 10
564.528036
 20
454.465905
 11
560.236943
 21
456.538050
  0
LINE
  8
CSLAYER1
  6
CONTINUOUS
 62
     7
 10
560.236943
 20
456.538050
 11
555.675204
 21
458.366948
  0
LINE
  8
CSLAYER1
  6
CONTINUOUS
 62
     7
 10
555.675204
 20
458.366948
 11
550.877536
 21
459.938681
  0
LINE
  8
CSLAYER1
  6
CONTINUOUS
 62
     7
 10
550.877536
 20
459.938681
 11
545.880453
 21
461.241286
  0
LINE
  8
CSLAYER1
  6
CONTINUOUS
 62
     7
 10
545.880453
 20
461.241286
 11
540.721985
 21
462.264850
  0
LINE
  8
CSLAYER1
  6
CONTINUOUS
 62
     7
 10
540.721985
 20
462.264850
 11
535.441391
 21
463.001582
  0
LINE
  8
CSLAYER1
  6
CONTINUOUS
 62
     7
 10
535.441391
 20
463.001582
 11
530.078860
 21
463.445876
  0
LINE
  8
CSLAYER1
  6
CONTINUOUS
 62
     7
 10
530.078860
 20
463.445876
 11
524.675204
 21
463.594351
  0
LINE
  8
CSLAYER1
  6
CONTINUOUS
 62
     7
 10
524.675204
 20
463.594351
 11
519.271548
 21
463.445876
  0
LINE
  8
CSLAYER1
  6
CONTINUOUS
 62
     7
 10
519.271548
 20
463.445876
 11
513.909017
 21
463.001582
  0
LINE
  8
CSLAYER1
  6
CONTINUOUS
 62
     7
 10
513.909017
 20
463.001582
 11
508.628423
 21
462.264850
  0
LINE
  8
CSLAYER1
  6
CONTINUOUS
 62
     7
 10
508.628423
 20
462.264850
 11
503.469955
 21
461.241286
  0
LINE
  8
CSLAYER1
  6
CONTINUOUS
 62
     7
 10
503.469955
 20
461.241286
 11
498.472872
 21
459.938681
  0
LINE
  8
CSLAYER1
  6
CONTINUOUS
 62
     7
 10
498.472872
 20
459.938681
 11
493.675204
 21
458.366948
  0
LINE
  8
CSLAYER1
  6
CONTINUOUS
 62
     7
 10
493.675204
 20
458.366948
 11
489.113465
 21
456.538050
  0
LINE
  8
CSLAYER1
  6
CONTINUOUS
 62
     7
 10
489.113465
 20
456.538050
 11
484.822372
 21
454.465905
  0
LINE
  8
CSLAYER1
  6
CONTINUOUS
 62
     7
 10
484.822372
 20
454.465905
 11
480.834583
 21
452.166283
  0
LINE
  8
CSLAYER1
  6
CONTINUOUS
 62
     7
 10
480.834583
 20
452.166283
 11
477.180448
 21
449.656687
  0
LINE
  8
CSLAYER1
  6
CONTINUOUS
 62
     7
 10
477.180448
 20
449.656687
 11
473.887777
 21
446.956214
  0
LINE
  8
CSLAYER1
  6
CONTINUOUS
 62
     7
 10
473.887777
 20
446.956214
 11
470.981629
 21
444.085419
  0
LINE
  8
CSLAYER1
  6
CONTINUOUS
 62
     7
 10
470.981629
 20
444.085419
 11
468.484121
 21
441.066149
  0
LINE
  8
CSLAYER1
  6
CONTINUOUS
 62
     7
 10
468.484121
 20
441.066149
 11
466.414261
 21
437.921382
  0
LINE
  8
CSLAYER1
  6
CONTINUOUS
 62
     7
 10
466.414261
 20
437.921382
 11
464.787803
 21
434.675053
  0
LINE
  8
CSLAYER1
  6
CONTINUOUS
 62
     7
 10
464.787803
 20
434.675053
 11
463.617123
 21
431.351868
  0
LINE
  8
CSLAYER1
  6
CONTINUOUS
 62
     7
 10
463.617123
 20
431.351868
 11
462.911133
 21
427.977118
  0
LINE
  8
CSLAYER1
  6
CONTINUOUS
 62
     7
 10
462.911133
 20
427.977118
 11
462.675204
 21
424.576487
  0
LINE
  8
CSLAYER1
  6
CONTINUOUS
 62
     7
 10
462.675204
 20
424.576487
 11
462.911133
 21
421.175856
  0
LINE
  8
CSLAYER1
  6
CONTINUOUS
 62
     7
 10
462.911133
 20
421.175856
 11
463.617123
 21
417.801106
  0
LINE
  8
CSLAYER1
  6
CONTINUOUS
 62
     7
 10
463.617123
 20
417.801106
 11
464.787803
 21
414.477920
  0
LINE
  8
CSLAYER1
  6
CONTINUOUS
 62
     7
 10
464.787803
 20
414.477920
 11
466.414261
 21
411.231591
  0
LINE
  8
CSLAYER1
  6
CONTINUOUS
 62
     7
 10
582.936146
 20
411.231591
 11
584.562605
 21
414.477920
  0
LINE
  8
CSLAYER1
  6
CONTINUOUS
 62
     7
 10
584.562605
 20
414.477920
 11
585.733285
 21
417.801106
  0
LINE
  8
CSLAYER1
  6
CONTINUOUS
 62
     7
 10
585.733285
 20
417.801106
 11
586.439275
 21
421.175856
  0
LINE
  8
CSLAYER1
  6
CONTINUOUS
 62
     7
 10
586.439275
 20
421.175856
 11
586.675204
 21
424.576487
  0
LINE
  8
CSLAYER1
  6
CONTINUOUS
 62
     7
 10
578.675204
 20
623.835643
 11
578.469718
 21
626.797483
  0
LINE
  8
CSLAYER1
  6
CONTINUOUS
 62
     7
 10
578.469718
 20
626.797483
 11
577.854822
 21
629.736782
  0
LINE
  8
CSLAYER1
  6
CONTINUOUS
 62
     7
 10
577.854822
 20
629.736782
 11
576.835198
 21
632.631169
  0
LINE
  8
CSLAYER1
  6
CONTINUOUS
 62
     7
 10
576.835198
 20
632.631169
 11
575.418605
 21
635.458617
  0
LINE
  8
CSLAYER1
  6
CONTINUOUS
 62
     7
 10
575.418605
 20
635.458617
 11
573.615824
 21
638.197607
  0
LINE
  8
CSLAYER1
  6
CONTINUOUS
 62
     7
 10
573.615824
 20
638.197607
 11
571.440576
 21
640.827294
  0
LINE
  8
CSLAYER1
  6
CONTINUOUS
 62
     7
 10
571.440576
 20
640.827294
 11
568.909414
 21
643.327664
  0
LINE
  8
CSLAYER1
  6
CONTINUOUS
 62
     7
 10
568.909414
 20
643.327664
 11
566.041604
 21
645.679688
  0
LINE
  8
CSLAYER1
  6
CONTINUOUS
 62
     7
 10
566.041604
 20
645.679688
 11
562.858970
 21
647.865466
  0
LINE
  8
CSLAYER1
  6
CONTINUOUS
 62
     7
 10
562.858970
 20
647.865466
 11
559.385735
 21
649.868362
  0
LINE
  8
CSLAYER1
  6
CONTINUOUS
 62
     7
 10
559.385735
 20
649.868362
 11
555.648331
 21
651.673134
  0
LINE
  8
CSLAYER1
  6
CONTINUOUS
 62
     7
 10
555.648331
 20
651.673134
 11
551.675204
 21
653.266046
  0
LINE
  8
CSLAYER1
  6
CONTINUOUS
 62
     7
 10
551.675204
 20
653.266046
 11
547.496590
 21
654.634974
  0
LINE
  8
CSLAYER1
  6
CONTINUOUS
 62
     7
 10
547.496590
 20
654.634974
 11
543.144292
 21
655.769501
  0
LINE
  8
CSLAYER1
  6
CONTINUOUS
 62
     7
 10
543.144292
 20
655.769501
 11
538.651432
 21
656.660992
  0
LINE
  8
CSLAYER1
  6
CONTINUOUS
 62
     7
 10
538.651432
 20
656.660992
 11
534.052205
 21
657.302662
  0
LINE
  8
CSLAYER1
  6
CONTINUOUS
 62
     7
 10
534.052205
 20
657.302662
 11
529.381614
 21
657.689628
  0
LINE
  8
CSLAYER1
  6
CONTINUOUS
 62
     7
 10
529.381614
 20
657.689628
 11
524.675204
 21
657.818945
  0
LINE
  8
CSLAYER1
  6
CONTINUOUS
 62
     7
 10
524.675204
 20
657.818945
 11
519.968794
 21
657.689628
  0
LINE
  8
CSLAYER1
  6
CONTINUOUS
 62
     7
 10
519.968794
 20
657.689628
 11
515.298202
 21
657.302662
  0
LINE
  8
CSLAYER1
  6
CONTINUOUS
 62
     7
 10
515.298202
 20
657.302662
 11
510.698975
 21
656.660992
  0
LINE
  8
CSLAYER1
  6
CONTINUOUS
 62
     7
 10
510.698975
 20
656.660992
 11
506.206116
 21
655.769501
  0
LINE
  8
CSLAYER1
  6
CONTINUOUS
 62
     7
 10
506.206116
 20
655.769501
 11
501.853818
 21
654.634974
  0
LINE
  8
CSLAYER1
  6
CONTINUOUS
 62
     7
 10
501.853818
 20
654.634974
 11
497.675204
 21
653.266046
  0
LINE
  8
CSLAYER1
  6
CONTINUOUS
 62
     7
 10
497.675204
 20
653.266046
 11
493.702076
 21
651.673134
  0
LINE
  8
CSLAYER1
  6
CONTINUOUS
 62
     7
 10
493.702076
 20
651.673134
 11
489.964673
 21
649.868362
  0
LINE
  8
CSLAYER1
  6
CONTINUOUS
 62
     7
 10
489.964673
 20
649.868362
 11
486.491438
 21
647.865466
  0
LINE
  8
CSLAYER1
  6
CONTINUOUS
 62
     7
 10
486.491438
 20
647.865466
 11
483.308804
 21
645.679688
  0
LINE
  8
CSLAYER1
  6
CONTINUOUS
 62
     7
 10
483.308804
 20
645.679688
 11
480.440993
 21
643.327664
  0
LINE
  8
CSLAYER1
  6
CONTINUOUS
 62
     7
 10
480.440993
 20
643.327664
 11
477.909832
 21
640.827294
  0
LINE
  8
CSLAYER1
  6
CONTINUOUS
 62
     7
 10
477.909832
 20
640.827294
 11
475.734583
 21
638.197607
  0
LINE
  8
CSLAYER1
  6
CONTINUOUS
 62
     7
 10
475.734583
 20
638.197607
 11
473.931802
 21
635.458617
  0
LINE
  8
CSLAYER1
  6
CONTINUOUS
 62
     7
 10
473.931802
 20
635.458617
 11
472.515209
 21
632.631169
  0
LINE
  8
CSLAYER1
  6
CONTINUOUS
 62
     7
 10
472.515209
 20
632.631169
 11
471.495585
 21
629.736782
  0
LINE
  8
CSLAYER1
  6
CONTINUOUS
 62
     7
 10
471.495585
 20
629.736782
 11
470.880690
 21
626.797483
  0
LINE
  8
CSLAYER1
  6
CONTINUOUS
 62
     7
 10
470.880690
 20
626.797483
 11
470.675204
 21
623.835643
  0
LINE
  8
CSLAYER1
  6
CONTINUOUS
 62
     7
 10
578.493085
 20
599.996565
 11
578.469718
 21
600.333377
  0
LINE
  8
CSLAYER1
  6
CONTINUOUS
 62
     7
 10
578.469718
 20
600.333377
 11
577.854822
 21
603.272675
  0
LINE
  8
CSLAYER1
  6
CONTINUOUS
 62
     7
 10
577.854822
 20
603.272675
 11
576.835198
 21
606.167062
  0
LINE
  8
CSLAYER1
  6
CONTINUOUS
 62
     7
 10
576.835198
 20
606.167062
 11
575.418605
 21
608.994510
  0
LINE
  8
CSLAYER1
  6
CONTINUOUS
 62
     7
 10
575.418605
 20
608.994510
 11
573.615824
 21
611.733500
  0
LINE
  8
CSLAYER1
  6
CONTINUOUS
 62
     7
 10
573.615824
 20
611.733500
 11
571.440576
 21
614.363187
  0
LINE
  8
CSLAYER1
  6
CONTINUOUS
 62
     7
 10
571.440576
 20
614.363187
 11
568.909414
 21
616.863558
  0
LINE
  8
CSLAYER1
  6
CONTINUOUS
 62
     7
 10
568.909414
 20
616.863558
 11
566.041604
 21
619.215582
  0
LINE
  8
CSLAYER1
  6
CONTINUOUS
 62
     7
 10
566.041604
 20
619.215582
 11
562.858970
 21
621.401359
  0
LINE
  8
CSLAYER1
  6
CONTINUOUS
 62
     7
 10
562.858970
 20
621.401359
 11
559.385735
 21
623.404256
  0
LINE
  8
CSLAYER1
  6
CONTINUOUS
 62
     7
 10
559.385735
 20
623.404256
 11
555.648331
 21
625.209027
  0
LINE
  8
CSLAYER1
  6
CONTINUOUS
 62
     7
 10
555.648331
 20
625.209027
 11
551.675204
 21
626.801939
  0
LINE
  8
CSLAYER1
  6
CONTINUOUS
 62
     7
 10
551.675204
 20
626.801939
 11
547.496590
 21
628.170867
  0
LINE
  8
CSLAYER1
  6
CONTINUOUS
 62
     7
 10
547.496590
 20
628.170867
 11
543.144292
 21
629.305394
  0
LINE
  8
CSLAYER1
  6
CONTINUOUS
 62
     7
 10
543.144292
 20
629.305394
 11
538.651432
 21
630.196885
  0
LINE
  8
CSLAYER1
  6
CONTINUOUS
 62
     7
 10
538.651432
 20
630.196885
 11
534.052205
 21
630.838555
  0
LINE
  8
CSLAYER1
  6
CONTINUOUS
 62
     7
 10
534.052205
 20
630.838555
 11
529.381614
 21
631.225521
  0
LINE
  8
CSLAYER1
  6
CONTINUOUS
 62
     7
 10
529.381614
 20
631.225521
 11
524.675204
 21
631.354838
  0
LINE
  8
CSLAYER1
  6
CONTINUOUS
 62
     7
 10
524.675204
 20
631.354838
 11
519.968794
 21
631.225521
  0
LINE
  8
CSLAYER1
  6
CONTINUOUS
 62
     7
 10
519.968794
 20
631.225521
 11
515.298202
 21
630.838555
  0
LINE
  8
CSLAYER1
  6
CONTINUOUS
 62
     7
 10
515.298202
 20
630.838555
 11
510.698975
 21
630.196885
  0
LINE
  8
CSLAYER1
  6
CONTINUOUS
 62
     7
 10
510.698975
 20
630.196885
 11
506.206116
 21
629.305394
  0
LINE
  8
CSLAYER1
  6
CONTINUOUS
 62
     7
 10
506.206116
 20
629.305394
 11
501.853818
 21
628.170867
  0
LINE
  8
CSLAYER1
  6
CONTINUOUS
 62
     7
 10
501.853818
 20
628.170867
 11
497.675204
 21
626.801939
  0
LINE
  8
CSLAYER1
  6
CONTINUOUS
 62
     7
 10
497.675204
 20
626.801939
 11
493.702076
 21
625.209027
  0
LINE
  8
CSLAYER1
  6
CONTINUOUS
 62
     7
 10
493.702076
 20
625.209027
 11
489.964673
 21
623.404256
  0
LINE
  8
CSLAYER1
  6
CONTINUOUS
 62
     7
 10
489.964673
 20
623.404256
 11
486.491438
 21
621.401359
  0
LINE
  8
CSLAYER1
  6
CONTINUOUS
 62
     7
 10
486.491438
 20
621.401359
 11
483.308804
 21
619.215582
  0
LINE
  8
CSLAYER1
  6
CONTINUOUS
 62
     7
 10
483.308804
 20
619.215582
 11
480.440993
 21
616.863558
  0
LINE
  8
CSLAYER1
  6
CONTINUOUS
 62
     7
 10
480.440993
 20
616.863558
 11
477.909832
 21
614.363187
  0
LINE
  8
CSLAYER1
  6
CONTINUOUS
 62
     7
 10
477.909832
 20
614.363187
 11
475.734583
 21
611.733500
  0
LINE
  8
CSLAYER1
  6
CONTINUOUS
 62
     7
 10
475.734583
 20
611.733500
 11
473.931802
 21
608.994510
  0
LINE
  8
CSLAYER1
  6
CONTINUOUS
 62
     7
 10
473.931802
 20
608.994510
 11
472.515209
 21
606.167062
  0
LINE
  8
CSLAYER1
  6
CONTINUOUS
 62
     7
 10
472.515209
 20
606.167062
 11
471.495585
 21
603.272675
  0
LINE
  8
CSLAYER1
  6
CONTINUOUS
 62
     7
 10
471.495585
 20
603.272675
 11
470.880690
 21
600.333377
  0
LINE
  8
CSLAYER1
  6
CONTINUOUS
 62
     7
 10
470.880690
 20
600.333377
 11
470.887890
 21
600.437160
  0
LINE
  8
CSLAYER1
  6
CONTINUOUS
 62
     7
 10
586.675204
 20
468.942783
 11
586.439275
 21
472.343414
  0
LINE
  8
CSLAYER1
  6
CONTINUOUS
 62
     7
 10
586.439275
 20
472.343414
 11
585.733285
 21
475.718164
  0
LINE
  8
CSLAYER1
  6
CONTINUOUS
 62
     7
 10
585.733285
 20
475.718164
 11
584.562605
 21
479.041350
  0
LINE
  8
CSLAYER1
  6
CONTINUOUS
 62
     7
 10
584.562605
 20
479.041350
 11
582.936146
 21
482.287679
  0
LINE
  8
CSLAYER1
  6
CONTINUOUS
 62
     7
 10
582.936146
 20
482.287679
 11
580.866287
 21
485.432445
  0
LINE
  8
CSLAYER1
  6
CONTINUOUS
 62
     7
 10
580.866287
 20
485.432445
 11
578.368779
 21
488.451716
  0
LINE
  8
CSLAYER1
  6
CONTINUOUS
 62
     7
 10
578.368779
 20
488.451716
 11
575.462631
 21
491.322511
  0
LINE
  8
CSLAYER1
  6
CONTINUOUS
 62
     7
 10
575.462631
 20
491.322511
 11
572.169959
 21
494.022983
  0
LINE
  8
CSLAYER1
  6
CONTINUOUS
 62
     7
 10
572.169959
 20
494.022983
 11
568.515824
 21
496.532580
  0
LINE
  8
CSLAYER1
  6
CONTINUOUS
 62
     7
 10
568.515824
 20
496.532580
 11
564.528036
 21
498.832202
  0
LINE
  8
CSLAYER1
  6
CONTINUOUS
 62
     7
 10
564.528036
 20
498.832202
 11
560.236943
 21
500.904347
  0
LINE
  8
CSLAYER1
  6
CONTINUOUS
 62
     7
 10
560.236943
 20
500.904347
 11
555.675204
 21
502.733245
  0
LINE
  8
CSLAYER1
  6
CONTINUOUS
 62
     7
 10
555.675204
 20
502.733245
 11
550.877536
 21
504.304978
  0
LINE
  8
CSLAYER1
  6
CONTINUOUS
 62
     7
 10
550.877536
 20
504.304978
 11
545.880453
 21
505.607583
  0
LINE
  8
CSLAYER1
  6
CONTINUOUS
 62
     7
 10
545.880453
 20
505.607583
 11
540.721985
 21
506.631146
  0
LINE
  8
CSLAYER1
  6
CONTINUOUS
 62
     7
 10
540.721985
 20
506.631146
 11
535.441391
 21
507.367879
  0
LINE
  8
CSLAYER1
  6
CONTINUOUS
 62
     7
 10
535.441391
 20
507.367879
 11
530.078860
 21
507.812173
  0
LINE
  8
CSLAYER1
  6
CONTINUOUS
 62
     7
 10
530.078860
 20
507.812173
 11
524.675204
 21
507.960648
  0
LINE
  8
CSLAYER1
  6
CONTINUOUS
 62
     7
 10
524.675204
 20
507.960648
 11
519.271548
 21
507.812173
  0
LINE
  8
CSLAYER1
  6
CONTINUOUS
 62
     7
 10
519.271548
 20
507.812173
 11
513.909017
 21
507.367879
  0
LINE
  8
CSLAYER1
  6
CONTINUOUS
 62
     7
 10
513.909017
 20
507.367879
 11
508.628423
 21
506.631146
  0
LINE
  8
CSLAYER1
  6
CONTINUOUS
 62
     7
 10
508.628423
 20
506.631146
 11
503.469955
 21
505.607583
  0
LINE
  8
CSLAYER1
  6
CONTINUOUS
 62
     7
 10
503.469955
 20
505.607583
 11
498.472872
 21
504.304978
  0
LINE
  8
CSLAYER1
  6
CONTINUOUS
 62
     7
 10
498.472872
 20
504.304978
 11
493.675204
 21
502.733245
  0
LINE
  8
CSLAYER1
  6
CONTINUOUS
 62
     7
 10
493.675204
 20
502.733245
 11
489.113465
 21
500.904347
  0
LINE
  8
CSLAYER1
  6
CONTINUOUS
 62
     7
 10
489.113465
 20
500.904347
 11
484.822372
 21
498.832202
  0
LINE
  8
CSLAYER1
  6
CONTINUOUS
 62
     7
 10
484.822372
 20
498.832202
 11
480.834583
 21
496.532580
  0
LINE
  8
CSLAYER1
  6
CONTINUOUS
 62
     7
 10
480.834583
 20
496.532580
 11
477.180448
 21
494.022983
  0
LINE
  8
CSLAYER1
  6
CONTINUOUS
 62
     7
 10
477.180448
 20
494.022983
 11
473.887777
 21
491.322511
  0
LINE
  8
CSLAYER1
  6
CONTINUOUS
 62
     7
 10
473.887777
 20
491.322511
 11
470.981629
 21
488.451716
  0
LINE
  8
CSLAYER1
  6
CONTINUOUS
 62
     7
 10
470.981629
 20
488.451716
 11
468.484121
 21
485.432445
  0
LINE
  8
CSLAYER1
  6
CONTINUOUS
 62
     7
 10
468.484121
 20
485.432445
 11
466.414261
 21
482.287679
  0
LINE
  8
CSLAYER1
  6
CONTINUOUS
 62
     7
 10
466.414261
 20
482.287679
 11
464.787803
 21
479.041350
  0
LINE
  8
CSLAYER1
  6
CONTINUOUS
 62
     7
 10
464.787803
 20
479.041350
 11
463.617123
 21
475.718164
  0
LINE
  8
CSLAYER1
  6
CONTINUOUS
 62
     7
 10
463.617123
 20
475.718164
 11
462.911133
 21
472.343414
  0
LINE
  8
CSLAYER1
  6
CONTINUOUS
 62
     7
 10
462.911133
 20
472.343414
 11
462.675204
 21
468.942783
  0
LINE
  8
CSLAYER1
  6
CONTINUOUS
 62
     7
 10
584.675204
 20
583.361127
 11
584.446886
 21
586.652060
  0
LINE
  8
CSLAYER1
  6
CONTINUOUS
 62
     7
 10
584.446886
 20
586.652060
 11
583.763669
 21
589.917948
  0
LINE
  8
CSLAYER1
  6
CONTINUOUS
 62
     7
 10
583.763669
 20
589.917948
 11
582.630753
 21
593.133933
  0
LINE
  8
CSLAYER1
  6
CONTINUOUS
 62
     7
 10
582.630753
 20
593.133933
 11
581.056761
 21
596.275542
  0
LINE
  8
CSLAYER1
  6
CONTINUOUS
 62
     7
 10
581.056761
 20
596.275542
 11
579.053671
 21
599.318865
  0
LINE
  8
CSLAYER1
  6
CONTINUOUS
 62
     7
 10
579.053671
 20
599.318865
 11
576.636728
 21
602.240739
  0
LINE
  8
CSLAYER1
  6
CONTINUOUS
 62
     7
 10
576.636728
 20
602.240739
 11
573.824326
 21
605.018928
  0
LINE
  8
CSLAYER1
  6
CONTINUOUS
 62
     7
 10
573.824326
 20
605.018928
 11
570.637870
 21
607.632288
  0
LINE
  8
CSLAYER1
  6
CONTINUOUS
 62
     7
 10
570.637870
 20
607.632288
 11
567.101611
 21
610.060930
  0
LINE
  8
CSLAYER1
  6
CONTINUOUS
 62
     7
 10
567.101611
 20
610.060930
 11
563.242460
 21
612.286371
  0
LINE
  8
CSLAYER1
  6
CONTINUOUS
 62
     7
 10
563.242460
 20
612.286371
 11
559.089790
 21
614.291672
  0
LINE
  8
CSLAYER1
  6
CONTINUOUS
 62
     7
 10
559.089790
 20
614.291672
 11
554.675204
 21
616.061574
  0
LINE
  8
CSLAYER1
  6
CONTINUOUS
 62
     7
 10
554.675204
 20
616.061574
 11
550.032300
 21
617.582606
  0
LINE
  8
CSLAYER1
  6
CONTINUOUS
 62
     7
 10
550.032300
 20
617.582606
 11
545.196412
 21
618.843191
  0
LINE
  8
CSLAYER1
  6
CONTINUOUS
 62
     7
 10
545.196412
 20
618.843191
 11
540.204347
 21
619.833736
  0
LINE
  8
CSLAYER1
  6
CONTINUOUS
 62
     7
 10
540.204347
 20
619.833736
 11
535.094094
 21
620.546703
  0
LINE
  8
CSLAYER1
  6
CONTINUOUS
 62
     7
 10
535.094094
 20
620.546703
 11
529.904548
 21
620.976666
  0
LINE
  8
CSLAYER1
  6
CONTINUOUS
 62
     7
 10
529.904548
 20
620.976666
 11
524.675204
 21
621.120351
  0
LINE
  8
CSLAYER1
  6
CONTINUOUS
 62
     7
 10
524.675204
 20
621.120351
 11
519.445859
 21
620.976666
  0
LINE
  8
CSLAYER1
  6
CONTINUOUS
 62
     7
 10
519.445859
 20
620.976666
 11
514.256313
 21
620.546703
  0
LINE
  8
CSLAYER1
  6
CONTINUOUS
 62
     7
 10
514.256313
 20
620.546703
 11
509.146061
 21
619.833736
  0
LINE
  8
CSLAYER1
  6
CONTINUOUS
 62
     7
 10
509.146061
 20
619.833736
 11
504.153995
 21
618.843191
  0
LINE
  8
CSLAYER1
  6
CONTINUOUS
 62
     7
 10
504.153995
 20
618.843191
 11
499.318108
 21
617.582606
  0
LINE
  8
CSLAYER1
  6
CONTINUOUS
 62
     7
 10
499.318108
 20
617.582606
 11
494.675204
 21
616.061574
  0
LINE
  8
CSLAYER1
  6
CONTINUOUS
 62
     7
 10
494.675204
 20
616.061574
 11
490.260618
 21
614.291672
  0
LINE
  8
CSLAYER1
  6
CONTINUOUS
 62
     7
 10
490.260618
 20
614.291672
 11
486.107947
 21
612.286371
  0
LINE
  8
CSLAYER1
  6
CONTINUOUS
 62
     7
 10
486.107947
 20
612.286371
 11
482.248797
 21
610.060930
  0
LINE
  8
CSLAYER1
  6
CONTINUOUS
 62
     7
 10
482.248797
 20
610.060930
 11
478.712537
 21
607.632288
  0
LINE
  8
CSLAYER1
  6
CONTINUOUS
 62
     7
 10
478.712537
 20
607.632288
 11
475.526081
 21
605.018928
  0
LINE
  8
CSLAYER1
  6
CONTINUOUS
 62
     7
 10
475.526081
 20
605.018928
 11
472.713680
 21
602.240739
  0
LINE
  8
CSLAYER1
  6
CONTINUOUS
 62
     7
 10
472.713680
 20
602.240739
 11
470.296737
 21
599.318865
  0
LINE
  8
CSLAYER1
  6
CONTINUOUS
 62
     7
 10
470.296737
 20
599.318865
 11
468.293647
 21
596.275542
  0
LINE
  8
CSLAYER1
  6
CONTINUOUS
 62
     7
 10
468.293647
 20
596.275542
 11
466.719654
 21
593.133933
  0
LINE
  8
CSLAYER1
  6
CONTINUOUS
 62
     7
 10
466.719654
 20
593.133933
 11
465.586739
 21
589.917948
  0
LINE
  8
CSLAYER1
  6
CONTINUOUS
 62
     7
 10
465.586739
 20
589.917948
 11
464.903522
 21
586.652060
  0
LINE
  8
CSLAYER1
  6
CONTINUOUS
 62
     7
 10
464.903522
 20
586.652060
 11
464.675204
 21
583.361127
  0
LINE
  8
CSLAYER1
  6
CONTINUOUS
 62
     5
 10
590.545783
 20
534.415537
 11
606.104620
 21
534.415537
  0
LINE
  8
CSLAYER1
  6
CONTINUOUS
 62
     5
 10
598.175204
 20
525.730046
 11
598.175204
 21
543.553735
  0
LINE
  8
CSLAYER1
  6
CONTINUOUS
 62
     7
 10
588.640634
 20
445.400846
 11
606.675204
 21
445.400846
  0
LINE
  8
CSLAYER1
  6
CONTINUOUS
 62
     7
 10
588.640634
 20
545.915537
 11
606.675204
 21
545.915537
  0
LINE
  8
CSLAYER1
  6
CONTINUOUS
 62
     7
 10
609.675204
 20
542.915537
 11
609.675204
 21
448.400846
  0
LINE
  8
CSLAYER1
  6
CONTINUOUS
 62
     7
 10
588.640634
 20
445.400846
 11
588.640634
 21
545.915537
  0
LINE
  8
CSLAYER1
  6
CONTINUOUS
 62
     7
 10
586.227754
 20
473.354518
 11
588.640634
 21
473.354518
  0
CIRCLE
  8
CSLAYER1
  6
CONTINUOUS
 62
     7
 10
598.175204
 20
534.415537
 40
6.250000
  0
LINE
  8
CSLAYER1
  6
CONTINUOUS
 62
     7
 10
584.675204
 20
500.335429
 11
588.640634
 21
500.335429
  0
ARC
  8
CSLAYER1
  6
CONTINUOUS
 62
     7
 10
606.675204
 20
448.400846
 40
3.000000
 50
270.000000
 51
360.000000
  0
ARC
  8
CSLAYER1
  6
CONTINUOUS
 62
     7
 10
606.675204
 20
542.915537
 40
3.000000
 50
0.000000
 51
90.000000
  0
LINE
  8
CSLAYER1
  6
CONTINUOUS
 62
     7
 10
578.675204
 20
623.835643
 11
578.675204
 21
599.776399
  0
LINE
  8
CSLAYER1
  6
CONTINUOUS
 62
     7
 10
576.675204
 20
490.124688
 11
576.675204
 21
601.399118
  0
LINE
  8
CSLAYER1
  6
CONTINUOUS
 62
     7
 10
556.675204
 20
502.332324
 11
556.675204
 21
615.259731
  0
LINE
  8
CSLAYER1
  6
CONTINUOUS
 62
     7
 10
549.675204
 20
504.618393
 11
549.675204
 21
617.675691
  0
LINE
  8
CSLAYER1
  6
CONTINUOUS
 62
     7
 10
541.675204
 20
506.442005
 11
541.675204
 21
619.541883
  0
LINE
  8
CSLAYER1
  6
CONTINUOUS
 62
     7
 10
470.675204
 20
623.835643
 11
470.675204
 21
599.996565
  0
LINE
  8
CSLAYER1
  6
CONTINUOUS
 62
     7
 10
464.675204
 20
583.361127
 11
464.675204
 21
478.721718
  0
LINE
  8
CSLAYER1
  6
CONTINUOUS
 62
     7
 10
584.675204
 20
583.361127
 11
584.675204
 21
478.003717
  0
LINE
  8
CSLAYER1
  6
CONTINUOUS
 62
     7
 10
586.675204
 20
468.942783
 11
586.675204
 21
424.576487
  0
LINE
  8
CSLAYER1
  6
CONTINUOUS
 62
     7
 10
462.675204
 20
468.942783
 11
462.675204
 21
424.576487
  0
LINE
  8
CSLAYER1
  6
CONTINUOUS
 62
     7
 10
507.675204
 20
506.442005
 11
507.675204
 21
619.541883
  0
LINE
  8
CSLAYER1
  6
CONTINUOUS
 62
     7
 10
499.675204
 20
504.618393
 11
499.675204
 21
617.675691
  0
LINE
  8
CSLAYER1
  6
CONTINUOUS
 62
     7
 10
492.675204
 20
502.332324
 11
492.675204
 21
615.259731
  0
LINE
  8
CSLAYER1
  6
CONTINUOUS
 62
     7
 10
472.675204
 20
490.124688
 11
472.675204
 21
601.399118
  0
LINE
  8
CSLAYER1
  6
CONTINUOUS
 62
     7
 10
588.640634
 20
484.814584
 11
609.675204
 21
484.814584
  0
LINE
  8
CSLAYER1
  6
CONTINUOUS
 62
     5
 10
570.625204
 20
663.410982
 11
570.625204
 21
644.855078
  0
LINE
  8
CSLAYER1
  6
CONTINUOUS
 62
     7
 10
581.838450
 20
594.715330
 11
590.675204
 21
594.715330
  0
LINE
  8
CSLAYER1
  6
CONTINUOUS
 62
     7
 10
569.675204
 20
668.484542
 11
479.675204
 21
668.484542
  0
LINE
  8
CSLAYER1
  6
CONTINUOUS
 62
     7
 10
569.675204
 20
658.365913
 11
479.675204
 21
658.365913
  0
LINE
  8
CSLAYER1
  6
CONTINUOUS
 62
     7
 10
579.675204
 20
658.484542
 11
579.675204
 21
598.374561
  0
ARC
  8
CSLAYER1
  6
CONTINUOUS
 62
     7
 10
569.675204
 20
658.484542
 40
10.000000
 50
0.000000
 51
90.000000
  0
ARC
  8
CSLAYER1
  6
CONTINUOUS
 62
     7
 10
569.675204
 20
648.365913
 40
10.000000
 50
0.000000
 51
90.000000
  0
LINE
  8
CSLAYER1
  6
CONTINUOUS
 62
     5
 10
562.800922
 20
652.691610
 11
576.312503
 21
652.691610
  0
LINE
  8
CSLAYER1
  6
CONTINUOUS
 62
     5
 10
478.725204
 20
663.410982
 11
478.725204
 21
644.855078
  0
ARC
  8
CSLAYER1
  6
CONTINUOUS
 62
     7
 10
479.675204
 20
658.484542
 40
10.000000
 50
90.000000
 51
180.000000
  0
ARC
  8
CSLAYER1
  6
CONTINUOUS
 62
     7
 10
479.675204
 20
648.365913
 40
10.000000
 50
90.000000
 51
180.000000
  0
LINE
  8
CSLAYER1
  6
CONTINUOUS
 62
     7
 10
469.675204
 20
658.484542
 11
469.675204
 21
598.374561
  0
TEXT
  8
CSLAYER1
 62
     5
 10
881.287231
 20
842.764465
 40
40.000000
 41
0.782609
  1
ギヤードモ－ター
 50
0.000000
 51
0.000000
  7
EASYDRAW_FONT
 72
     5
 11
1121.287231
 21
842.764465
  0
LINE
  8
CSLAYER1
  6
CONTINUOUS
 62
     5
 10
1130.319111
 20
837.023037
 11
876.874533
 21
837.023037
  0
LINE
  8
CSLAYER1
  6
CONTINUOUS
 62
     3
 10
2308.311862
 20
1845.729952
 11
2518.849607
 21
1845.729952
  0
LINE
  8
CSLAYER1
  6
CONTINUOUS
 62
     3
 10
2307.779225
 20
1852.729952
 11
2518.849607
 21
1852.729952
  0
ARC
  8
CSLAYER1
  6
CONTINUOUS
 62
     3
 10
2314.616622
 20
1806.229952
 40
40.000000
 50
-260.931278
 51
63.817766
  0
ARC
  8
CSLAYER1
  6
CONTINUOUS
 62
     3
 10
2314.616622
 20
1806.229952
 40
47.000000
 50
-261.635125
 51
49.860785
  0
LINE
  8
CSLAYER1
  6
CONTINUOUS
 62
     3
 10
2224.764565
 20
1845.729952
 11
2284.625006
 21
1845.729952
  0
LINE
  8
CSLAYER1
  6
CONTINUOUS
 62
     3
 10
2224.764565
 20
1852.729952
 11
2295.331897
 21
1852.729952
  0
LINE
  8
CSLAYER1
  6
CONTINUOUS
 62
     3
 10
2224.764565
 20
1887.929952
 11
2340.209533
 21
1887.929952
  0
LINE
  8
CSLAYER1
  6
CONTINUOUS
 62
     3
 10
2224.764565
 20
1880.929952
 11
2350.091324
 21
1880.929952
  0
LINE
  8
CSLAYER1
  6
CONTINUOUS
 62
     3
 10
2586.709850
 20
2034.542192
 11
2591.780478
 21
2036.451909
  0
LINE
  8
CSLAYER1
  6
CONTINUOUS
 62
     3
 10
2591.780478
 20
2036.451909
 11
2598.205110
 21
2036.630371
  0
LINE
  8
CSLAYER1
  6
CONTINUOUS
 62
     3
 10
2585.655520
 20
2035.931293
 11
2591.304580
 21
2038.296016
  0
LINE
  8
CSLAYER1
  6
CONTINUOUS
 62
     3
 10
2591.304580
 20
2038.296016
 11
2596.658439
 21
2039.604737
  0
LINE
  8
CSLAYER1
  6
CONTINUOUS
 62
     3
 10
2584.813325
 20
2037.040903
 11
2589.698422
 21
2039.902174
  0
LINE
  8
CSLAYER1
  6
CONTINUOUS
 62
     3
 10
2589.698422
 20
2039.902174
 11
2592.018428
 21
2043.233464
  0
ARC
  8
CSLAYER1
  6
CONTINUOUS
 62
     3
 10
2371.744474
 20
1927.929952
 40
47.000000
 50
-10.756396
 51
307.198537
  0
ARC
  8
CSLAYER1
  6
CONTINUOUS
 62
     3
 10
2371.744474
 20
1927.929952
 40
40.000000
 50
-23.471057
 51
307.198537
  0
LINE
  8
CSLAYER1
  6
CONTINUOUS
 62
     3
 10
2587.893604
 20
2032.982571
 11
2400.159676
 21
1890.492320
  0
LINE
  8
CSLAYER1
  6
CONTINUOUS
 62
     3
 10
2583.661552
 20
2038.558389
 11
2395.927624
 21
1896.068138
  0
LINE
  8
CSLAYER1
  6
CONTINUOUS
 62
     3
 10
2587.893604
 20
2032.982571
 11
2583.661552
 21
2038.558389
  0
LINE
  8
CSLAYER1
  6
CONTINUOUS
 62
     3
 10
2224.764565
 20
1528.516710
 11
2224.764565
 21
2128.516710
  0
TEXT
  8
CSLAYER1
 62
     5
 10
869.627625
 20
685.213684
 40
40.000000
 41
0.803571
  1
上限・下限
 50
0.000000
 51
0.000000
  7
EASYDRAW_FONT
 72
     5
 11
1019.627625
 21
685.213684
  0
TEXT
  8
CSLAYER1
 62
     5
 10
825.651123
 20
634.963440
 40
40.000000
 41
0.782609
  1
リミットスイッチ
 50
0.000000
 51
0.000000
  7
EASYDRAW_FONT
 72
     5
 11
1065.651123
 21
634.963440
  0
LINE
  8
CSLAYER1
  6
CONTINUOUS
 62
     5
 10
667.226673
 20
483.753575
 11
819.419708
 21
680.001118
  0
LINE
  8
CSLAYER1
  6
CONTINUOUS
 62
     5
 10
667.226673
 20
483.753575
 11
678.849311
 21
511.410659
  0
LINE
  8
CSLAYER1
  6
CONTINUOUS
 62
     5
 10
667.226673
 20
483.753575
 11
691.120715
 21
501.893993
  0
LINE
  8
CSLAYER1
  6
CONTINUOUS
 62
     5
 10
819.419708
 20
680.001118
 11
1070.565158
 21
680.001118
  0
LINE
  8
CSLAYER1
  6
CONTINUOUS
 62
     5
 10
1153.104246
 20
626.874691
 11
1130.319111
 21
837.023037
  0
LINE
  8
CSLAYER1
  6
CONTINUOUS
 62
     5
 10
1153.104246
 20
626.874691
 11
1142.261334
 21
654.846664
  0
LINE
  8
CSLAYER1
  6
CONTINUOUS
 62
     5
 10
1153.104246
 20
626.874691
 11
1157.699995
 21
656.520586
  0
TEXT
  8
CSLAYER1
 62
     5
 10
2472.800781
 20
350.249847
 40
40.000000
 41
0.843750
  1
Ｆ.Ｌ
 50
0.000000
 51
0.000000
  7
EASYDRAW_FONT
 72
     5
 11
2562.800781
 21
350.249847
  0
TEXT
  8
CSLAYER1
 62
     5
 10
2829.767822
 20
2120.574463
 40
40.000000
 41
1.020000
  1
ＵＰ・ＤＯＷＮ
 50
360.000000
 51
0.000000
  7
EASYDRAW_FONT
 72
     5
 11
3101.767822
 21
2120.574463
  0
TEXT
  8
CSLAYER1
 62
     5
 10
2828.286133
 20
2176.875244
 40
40.000000
 41
1.020000
  1
フットスイッチ
 50
360.000000
 51
0.000000
  7
EASYDRAW_FONT
 72
     5
 11
3100.286133
 21
2176.875244
  0
TEXT
  8
CSLAYER1
 62
     5
 10
2553.659668
 20
2228.033936
 40
40.000000
 41
1.028571
  1
電源コード
 50
360.000000
 51
0.000000
  7
EASYDRAW_FONT
 72
     5
 11
2745.659668
 21
2228.033936
  0
TEXT
  8
CSLAYER1
 62
     5
 10
2569.454346
 20
2174.940674
 40
40.000000
 41
1.036364
  1
長サ４ｍ
 50
360.000000
 51
0.000000
  7
EASYDRAW_FONT
 72
     5
 11
2721.454346
 21
2174.940674
  0
LINE
  8
CSLAYER1
  6
CONTINUOUS
 62
     5
 10
2534.466307
 20
2221.826777
 11
2745.214207
 21
2221.826777
  0
LINE
  8
CSLAYER1
  6
CONTINUOUS
 62
     5
 10
2800.525847
 20
2168.964764
 11
3107.162608
 21
2168.964764
  0
LINE
  8
CSLAYER1
  6
CONTINUOUS
 62
     5
 10
2584.562128
 20
2044.758012
 11
2534.466307
 21
2221.826777
  0
LINE
  8
CSLAYER1
  6
CONTINUOUS
 62
     5
 10
2584.562128
 20
2044.758012
 11
2569.202134
 21
2070.527579
  0
LINE
  8
CSLAYER1
  6
CONTINUOUS
 62
     5
 10
2584.562128
 20
2044.758012
 11
2584.144766
 21
2074.755108
  0
LINE
  8
CSLAYER1
  6
CONTINUOUS
 62
     5
 10
2615.849607
 20
1882.661954
 11
2800.525847
 21
2168.964764
  0
LINE
  8
CSLAYER1
  6
CONTINUOUS
 62
     5
 10
2615.849607
 20
1882.661954
 11
2625.032211
 21
1911.222062
  0
LINE
  8
CSLAYER1
  6
CONTINUOUS
 62
     5
 10
2615.849607
 20
1882.661954
 11
2638.082029
 21
1902.804431
  0
TEXT
  8
CSLAYER1
 62
     4
 10
2687.329102
 20
1236.940308
 40
40.000000
 41
1.036364
  1
操作方式
 50
0.000000
 51
0.000000
  7
EASYDRAW_FONT
 72
     5
 11
2839.329102
 21
1236.940308
  0
TEXT
  8
CSLAYER1
 62
     4
 10
2968.970703
 20
1231.647339
 40
40.000000
 41
1.020000
  1
フットスイッチ
 50
0.000000
 51
0.000000
  7
EASYDRAW_FONT
 72
     5
 11
3240.970703
 21
1231.647339
  0
LINE
  8
CSLAYER1
  6
CONTINUOUS
 62
     5
 10
3398.459742
 20
1224.914217
 11
2677.587225
 21
1224.914217
  0
LINE
  8
CSLAYER1
  6
CONTINUOUS
 62
     5
 10
3398.459742
 20
1160.914219
 11
2677.587225
 21
1160.914219
  0
TEXT
  8
CSLAYER1
 62
     4
 10
2688.760254
 20
1170.867554
 40
40.000000
 41
0.872727
  1
モーター
 50
0.000000
 51
0.000000
  7
EASYDRAW_FONT
 72
     5
 11
2816.760254
 21
1170.867554
  0
LINE
  8
CSLAYER1
  6
CONTINUOUS
 62
     5
 10
3398.459742
 20
1096.914220
 11
2677.587225
 21
1096.914220
  0
LINE
  8
CSLAYER1
  6
CONTINUOUS
 62
     5
 10
3398.459742
 20
968.914224
 11
2675.448723
 21
968.914224
  0
LINE
  8
CSLAYER1
  6
CONTINUOUS
 62
     5
 10
3398.459742
 20
904.914225
 11
2677.587225
 21
904.914225
  0
LINE
  8
CSLAYER1
  6
CONTINUOUS
 62
     5
 10
3398.459742
 20
840.914227
 11
2677.587225
 21
840.914227
  0
TEXT
  8
CSLAYER1
 62
     4
 10
2691.341797
 20
852.036194
 40
40.000000
 41
0.857143
  1
自  　重
 50
0.000000
 51
0.000000
  7
EASYDRAW_FONT
 72
     5
 11
2851.341797
 21
852.036194
  0
TEXT
  8
CSLAYER1
 62
     4
 10
2694.291016
 20
787.964905
 40
40.000000
 41
0.847059
  1
塗　装　色 
 50
0.000000
 51
0.000000
  7
EASYDRAW_FONT
 72
     5
 11
2886.291016
 21
787.964905
  0
TEXT
  8
CSLAYER1
 62
     4
 10
2919.866699
 20
1171.784546
 40
40.000000
 41
0.819512
  1
３相ＡＣ２００Ｖ、0.4ＫＷ
 50
0.000000
 51
0.000000
  7
EASYDRAW_FONT
 72
     5
 11
3367.866699
 21
1171.784546
  0
TEXT
  8
CSLAYER1
 62
     4
 10
3050.850098
 20
1107.941284
 40
40.000000
 41
0.840000
  1
長サ  ４ ｍ
 50
0.000000
 51
0.000000
  7
EASYDRAW_FONT
 72
     5
 11
3274.850098
 21
1107.941284
  0
TEXT
  8
CSLAYER1
 62
     3
 10
3163.489746
 20
853.935364
 40
40.000000
 41
0.847059
  1
１７４　Ｋｇ
 50
0.000000
 51
0.000000
  7
EASYDRAW_FONT
 72
     5
 11
3355.489746
 21
853.935364
  0
LINE
  8
CSLAYER1
  6
CONTINUOUS
 62
     5
 10
3398.459742
 20
1032.914222
 11
2677.587225
 21
1032.914222
  0
TEXT
  8
CSLAYER1
 62
     4
 10
2689.676514
 20
1107.550659
 40
40.000000
 41
0.942857
  1
電源コード
 50
0.000000
 51
0.000000
  7
EASYDRAW_FONT
 72
     5
 11
2865.676514
 21
1107.550659
  0
TEXT
  8
CSLAYER1
 62
     4
 10
2690.105484
 20
1038.428965
 40
47.730206
 41
0.593339
  1
昇降時間 ３６秒（50HZ） ３０秒(60HZ)
 50
0.000000
 51
0.000000
  7
EASYDRAW_FONT
 72
     5
 11
3360.350570
 21
1038.428965
  0
TEXT
  8
CSLAYER1
 62
     4
 10
2691.406250
 20
912.985901
 40
40.000000
 41
0.912766
  1
上昇端、下降端リミットスイッチ付
 50
0.000000
 51
0.000000
  7
EASYDRAW_FONT
 72
     5
 11
3263.406250
 21
912.985901
  0
TEXT
  8
CSLAYER1
 62
     4
 10
2693.252985
 20
977.649281
 40
45.879784
 41
0.605080
  1
最大使用頻度８０回／時間・最大起動頻度１０回／分
 50
0.000000
 51
0.000000
  7
EASYDRAW_FONT
 72
     5
 11
3350.261664
 21
977.649281
  0
LINE
  8
CSLAYER1
  6
CONTINUOUS
 62
     5
 10
3398.459742
 20
1282.246222
 11
2677.587225
 21
1282.246222
  0
TEXT
  8
CSLAYER1
 62
     4
 10
2887.415527
 20
1293.980347
 40
40.000000
 41
0.825000
  1
マグネットスイッチ制御
 50
0.000000
 51
0.000000
  7
EASYDRAW_FONT
 72
     5
 11
3239.415527
 21
1293.980347
  0
TEXT
  8
CSLAYER1
 62
     4
 10
2691.028320
 20
1291.991089
 40
40.000000
 41
0.872727
  1
制御方式
 50
0.000000
 51
0.000000
  7
EASYDRAW_FONT
 72
     5
 11
2819.028320
 21
1291.991089
  0
TEXT
  8
CSLAYER1
 62
     3
 10
2687.329102
 20
1806.272339
 40
40.000000
 41
1.036364
  1
積載荷重
 50
0.000000
 51
0.000000
  7
EASYDRAW_FONT
 72
     5
 11
2839.329102
 21
1806.272339
  0
LINE
  8
CSLAYER1
  6
CONTINUOUS
 62
     5
 10
3398.459742
 20
776.914228
 11
2677.587225
 21
776.914228
  0
TEXT
  8
CSLAYER1
 62
     4
 10
3002.889160
 20
787.585449
 40
40.000000
 41
0.926087
  1
　１０Ｒ４／１３
 50
0.000000
 51
0.000000
  7
EASYDRAW_FONT
 72
     5
 11
3286.889160
 21
787.585449
  0
TEXT
  8
CSLAYER1
 62
     5
 10
2829.767822
 20
2069.974121
 40
40.000000
 41
1.020000
  1
コード長サ２ｍ
 50
360.000000
 51
0.000000
  7
EASYDRAW_FONT
 72
     5
 11
3101.767822
 21
2069.974121
  0
INSERT
  8
CSLAYER1
  2
BLKF0002
 10
0.0
 20
0.0
 30
0.0
  0
ENDSEC
  0
EOF
