  0
SECTION
  2
HEADER
  9
$ACADVER
  1
AC1006
  9
$INSBASE
 10
-810.692182
 20
2448.615635
 30
0.0
  9
$EXTMIN
 10
-810.692182
 20
2448.615635
  9
$EXTMAX
 10
2829.307818
 20
5018.615635
  9
$LIMMIN
 10
-810.692182
 20
2448.615635
  9
$LIMMAX
 10
2829.307818
 20
5018.615635
  9
$VIEWCTR
 10
1009.307818
 20
3733.615635
  9
$VIEWSIZE
 40
2570.000000
  9
$SNAPMODE
 70
     0
  9
$SNAPUNIT
 10
1.0
 20
1.0
  9
$SNAPBASE
 10
0.0
 20
0.0
  9
$SNAPANG
 50
0.0
  9
$SNAPSTYLE
 70
     0
  9
$SNAPISOPAIR
 70
     0
  9
$GRIDMODE
 70
     0
  9
$GRIDUNIT
 10
0.0
 20
0.0
  9
$ORTHOMODE
 70
     0
  9
$REGENMODE
 70
     1
  9
$FILLMODE
 70
     1
  9
$QTEXTMODE
 70
     0
  9
$DRAGMODE
 70
     2
  9
$LTSCALE
 40
15.000000
  9
$OSMODE
 70
     0
  9
$ATTMODE
 70
     1
  9
$TEXTSIZE
 40
0.2
  9
$TRACEWID
 40
0.05
  9
$TEXTSTYLE
  7
STANDARD
  9
$CLAYER
  8
CSLAYER1
  9
$CELTYPE
  6
BYLAYER
  9
$CECOLOR
 62
   256
  9
$DIMSCALE
 40
1.0
  9
$DIMASZ
 40
0.18
  9
$DIMEXO
 40
0.0625
  9
$DIMDLI
 40
0.38
  9
$DIMRND
 40
0.0
  9
$DIMDLE
 40
0.0
  9
$DIMEXE
 40
0.18
  9
$DIMTP
 40
0.0
  9
$DIMTM
 40
0.0
  9
$DIMTXT
 40
0.18
  9
$DIMCEN
 40
0.09
  9
$DIMTSZ
 40
0.0
  9
$DIMTOL
 70
     0
  9
$DIMLIM
 70
     0
  9
$DIMTIH
 70
     1
  9
$DIMTOH
 70
     1
  9
$DIMSE1
 70
     0
  9
$DIMSE2
 70
     0
  9
$DIMTAD
 70
     0
  9
$DIMZIN
 70
     0
  9
$DIMBLK
  1

  9
$LUNITS
 70
     2
  9
$LUPREC
 70
     4
  9
$AXISMODE
 70
     0
  9
$AXISUNIT
 10
0.0
 20
0.0
  9
$SKETCHINC
 40
0.1
  9
$FILLETRAD
 40
0.0
  9
$AUNITS
 70
     0
  9
$AUPREC
 70
     0
  9
$MENU
  1
ACAD
  9
$ELEVATION
 40
0.0
  9
$THICKNESS
 40
0.0
  9
$VIEWDIR
 10
0.0
 20
0.0
 30
1.0
  9
$LIMCHECK
 70
     0
  9
$BLIPMODE
 70
     1
  9
$CHAMFERA
 40
0.0
  9
$CHAMFERB
 40
0.0
  9
$FASTZOOM
 70
     1
  9
$SKPOLY
 70
     0
  9
$TDCREATE
 40
2457497.000000
  9
$TDUPDATE
 40
2457497.000000
  9
$TDINDWG
 40
0.0
  9
$TDUSRTIMER
 40
0.0
  9
$USRTIMER
 70
     1
  9
$ANGBASE
 50
0.0
  9
$ANGDIR
 70
     0
  9
$PDMODE
 70
     0
  9
$PDSIZE
 40
0.0
  9
$PLINEWID
 40
0.0
  9
$COORDS
 70
     0
  9
$USERI1
 70
     0
  9
$USERI2
 70
     0
  9
$USERI3
 70
     0
  9
$USERI4
 70
     0
  9
$USERI5
 70
     0
  9
$USERR1
 40
0.0
  9
$USERR2
 40
0.0
  9
$USERR3
 40
0.0
  9
$USERR4
 40
0.0
  9
$USERR5
 40
0.0
  0
ENDSEC
  0
SECTION
  2
TABLES
  0
TABLE
  2
LTYPE
 70
     9
  0
LTYPE
  2
CONTINUOUS
 70
    64
  3
Solid line
 72
    65
 73
     0
 40
0.0
  0
LTYPE
  2
DASHED
 70
    64
  3
__ __ __ __ __ __ __ __ __ __ __ __ __ __ __
 72
    65
 73
     2
 40
0.75
 49
0.5
 49
-0.25
  0
LTYPE
  2
HIDDEN
 70
    64
  3
_ _ _ _ _ _ _ _ _ _ _ _ _ _ _ _ _ _ _ _ _ _ _
 72
    65
 73
     2
 40
0.375
 49
0.25
 49
-0.125
  0
LTYPE
  2
DOT
 70
    64
  3
...............................................
 72
    65
 73
     2
 40
0.25
 49
0.0
 49
-0.25
  0
LTYPE
  2
DASHDOT
 70
    64
  3
__ . __ . __ . __ . __ . __ . __ . __ . __ . __
 72
    65
 73
     4
 40
1.0
 49
0.5
 49
-0.25
 49
0.0
 49
-0.25
  0
LTYPE
  2
DIVIDE
 70
    64
  3
__ . . __ . . __ . . __ . . __ . . __ . . __
 72
    65
 73
     6
 40
1.25
 49
0.5
 49
-0.25
 49
0.0
 49
-0.25
 49
0.0
 49
-0.25
  0
LTYPE
  2
CENTER
 70
    64
  3
____ _ ____ _ ____ _ ____ _ ____ _ ____ _ ____ 
 72
    65
 73
     4
 40
2.0
 49
1.25
 49
-0.25
 49
0.25
 49
-0.25
  0
LTYPE
  2
PHANTOM
 70
    64
  3
______  __  __  ______  __  __  ______  __  __ 
 72
    65
 73
     6
 40
2.5
 49
1.25
 49
-0.25
 49
0.25
 49
-0.25
 49
0.25
 49
-0.25
  0
LTYPE
  2
BORDER
 70
    64
  3
__ __ . __ __ . __ __ . __ __ . __ __ . __ __ .
 72
    65
 73
     6
 40
1.75
 49
0.5
 49
-0.25
 49
0.5
 49
-0.25
 49
0.0
 49
-0.25
  0
ENDTAB
  0
TABLE
  2
LAYER
 70
    16
  0
LAYER
  2
CSLAYER1
 70
    64
 62
     7
  6
CONTINUOUS
  0
LAYER
  2
CSLAYER2
 70
    64
 62
     7
  6
CONTINUOUS
  0
LAYER
  2
CSLAYER3
 70
    64
 62
     7
  6
CONTINUOUS
  0
LAYER
  2
CSLAYER4
 70
    64
 62
     7
  6
CONTINUOUS
  0
LAYER
  2
CSLAYER5
 70
    64
 62
     7
  6
CONTINUOUS
  0
LAYER
  2
CSLAYER6
 70
    64
 62
     7
  6
CONTINUOUS
  0
LAYER
  2
CSLAYER7
 70
    64
 62
     7
  6
CONTINUOUS
  0
LAYER
  2
CSLAYER8
 70
    64
 62
     7
  6
CONTINUOUS
  0
LAYER
  2
CSLAYER9
 70
    64
 62
     7
  6
CONTINUOUS
  0
LAYER
  2
CSLAYER10
 70
    64
 62
     7
  6
CONTINUOUS
  0
LAYER
  2
CSLAYER11
 70
    64
 62
     7
  6
CONTINUOUS
  0
LAYER
  2
CSLAYER12
 70
    64
 62
     7
  6
CONTINUOUS
  0
LAYER
  2
CSLAYER13
 70
    64
 62
     7
  6
CONTINUOUS
  0
LAYER
  2
CSLAYER14
 70
    64
 62
     7
  6
CONTINUOUS
  0
LAYER
  2
CSLAYER15
 70
    64
 62
     7
  6
CONTINUOUS
  0
LAYER
  2
CSLAYER16
 70
    64
 62
     7
  6
CONTINUOUS
  0
ENDTAB
  0
TABLE
  2
STYLE
 70
     1
  0
STYLE
  2
EASYDRAW_FONT
 70
     0
 40
1.0
 41
1.0
 50
0.0
 71
     0
 42
1.0
  3
monotxt
  4
bigfont
  0
ENDTAB
  0
TABLE
  2
VIEW
 70
     0
  0
ENDTAB
  0
ENDSEC
  0
SECTION
  2
BLOCKS
  0
BLOCK
  8
CSLAYER1
  2
*D0000
 70
    65
 10
0.0
 20
0.0
 30
0.0
  0
TEXT
  8
CSLAYER1
 62
     7
 10
2255.718262
 20
480.920166
 40
40.000000
 41
0.843750
  1
205
 50
90.000000
 51
0.000000
  7
EASYDRAW_FONT
 72
     5
 11
2255.718262
 21
570.920166
  0
LINE
  8
CSLAYER1
  6
CONTINUOUS
 62
     5
 10
2115.828674
 20
628.358013
 11
2215.828674
 21
628.358013
  0
LINE
  8
CSLAYER1
  6
CONTINUOUS
 62
     5
 10
2205.828674
 20
423.358013
 11
2205.828674
 21
628.358013
  0
LINE
  8
CSLAYER1
  6
CONTINUOUS
 62
     5
 10
2205.828674
 20
423.358013
 11
2198.064102
 21
452.335788
  0
LINE
  8
CSLAYER1
  6
CONTINUOUS
 62
     5
 10
2205.828674
 20
423.358013
 11
2213.593245
 21
452.335788
  0
LINE
  8
CSLAYER1
  6
CONTINUOUS
 62
     5
 10
2205.828674
 20
628.358013
 11
2198.064102
 21
599.380238
  0
LINE
  8
CSLAYER1
  6
CONTINUOUS
 62
     5
 10
2205.828674
 20
628.358013
 11
2213.593245
 21
599.380238
  0
ENDBLK
  8
0
  0
BLOCK
  8
CSLAYER1
  2
*D0001
 70
    65
 10
0.0
 20
0.0
 30
0.0
  0
TEXT
  8
CSLAYER1
 62
     7
 10
2195.828369
 20
848.087646
 40
40.000000
 41
0.843750
  1
500
 50
90.000000
 51
0.000000
  7
EASYDRAW_FONT
 72
     5
 11
2195.828369
 21
938.087646
  0
LINE
  8
CSLAYER1
  6
CONTINUOUS
 62
     5
 10
2205.828674
 20
628.358013
 11
2205.828674
 21
1157.817442
  0
LINE
  8
CSLAYER1
  6
CONTINUOUS
 62
     5
 10
2205.828674
 20
628.358013
 11
2198.064102
 21
657.335788
  0
LINE
  8
CSLAYER1
  6
CONTINUOUS
 62
     5
 10
2205.828674
 20
628.358013
 11
2213.593245
 21
657.335788
  0
LINE
  8
CSLAYER1
  6
CONTINUOUS
 62
     5
 10
2205.828674
 20
1157.817442
 11
2198.064102
 21
1128.839667
  0
LINE
  8
CSLAYER1
  6
CONTINUOUS
 62
     5
 10
2205.828674
 20
1157.817442
 11
2213.593245
 21
1128.839667
  0
ENDBLK
  8
0
  0
BLOCK
  8
CSLAYER1
  2
*D0002
 70
    65
 10
0.0
 20
0.0
 30
0.0
  0
TEXT
  8
CSLAYER1
 62
     7
 10
2295.828369
 20
745.587646
 40
40.000000
 41
0.843750
  1
705
 50
90.000000
 51
0.000000
  7
EASYDRAW_FONT
 72
     5
 11
2295.828369
 21
835.587646
  0
LINE
  8
CSLAYER1
  6
CONTINUOUS
 62
     5
 10
2112.803498
 20
1157.817442
 11
2315.828674
 21
1157.817442
  0
LINE
  8
CSLAYER1
  6
CONTINUOUS
 62
     5
 10
2305.828674
 20
423.358013
 11
2305.828674
 21
1157.817442
  0
LINE
  8
CSLAYER1
  6
CONTINUOUS
 62
     5
 10
2305.828674
 20
423.358013
 11
2298.064102
 21
452.335788
  0
LINE
  8
CSLAYER1
  6
CONTINUOUS
 62
     5
 10
2305.828674
 20
423.358013
 11
2313.593245
 21
452.335788
  0
LINE
  8
CSLAYER1
  6
CONTINUOUS
 62
     5
 10
2305.828674
 20
1157.817442
 11
2298.064102
 21
1128.839667
  0
LINE
  8
CSLAYER1
  6
CONTINUOUS
 62
     5
 10
2305.828674
 20
1157.817442
 11
2313.593245
 21
1128.839667
  0
ENDBLK
  8
0
  0
BLOCK
  8
CSLAYER1
  2
*D0003
 70
    65
 10
0.0
 20
0.0
 30
0.0
  0
TEXT
  8
CSLAYER1
 62
     7
 10
1520.828735
 20
1260.686768
 40
40.000000
 41
0.818182
  1
1050
 50
0.000000
 51
0.000000
  7
EASYDRAW_FONT
 72
     5
 11
1640.828735
 21
1260.686768
  0
LINE
  8
CSLAYER1
  6
CONTINUOUS
 62
     5
 10
1055.828674
 20
1164.617442
 11
1055.828674
 21
1260.686780
  0
LINE
  8
CSLAYER1
  6
CONTINUOUS
 62
     5
 10
2105.828674
 20
1164.817442
 11
2105.828674
 21
1260.686780
  0
LINE
  8
CSLAYER1
  6
CONTINUOUS
 62
     5
 10
1055.828674
 20
1250.686780
 11
2105.828674
 21
1250.686780
  0
LINE
  8
CSLAYER1
  6
CONTINUOUS
 62
     5
 10
1055.828674
 20
1250.686780
 11
1084.806449
 21
1258.451352
  0
LINE
  8
CSLAYER1
  6
CONTINUOUS
 62
     5
 10
1055.828674
 20
1250.686780
 11
1084.806449
 21
1242.922209
  0
LINE
  8
CSLAYER1
  6
CONTINUOUS
 62
     5
 10
2105.828674
 20
1250.686780
 11
2076.850899
 21
1258.451352
  0
LINE
  8
CSLAYER1
  6
CONTINUOUS
 62
     5
 10
2105.828674
 20
1250.686780
 11
2076.850899
 21
1242.922209
  0
ENDBLK
  8
0
  0
BLOCK
  8
CSLAYER1
  2
*D0004
 70
    65
 10
0.0
 20
0.0
 30
0.0
  0
TEXT
  8
CSLAYER1
 62
     7
 10
1520.828735
 20
321.874023
 40
40.000000
 41
0.818182
  1
1050
 50
0.000000
 51
0.000000
  7
EASYDRAW_FONT
 72
     5
 11
1640.828735
 21
321.874023
  0
LINE
  8
CSLAYER1
  6
CONTINUOUS
 62
     5
 10
1055.828674
 20
413.358013
 11
1055.828674
 21
301.873995
  0
LINE
  8
CSLAYER1
  6
CONTINUOUS
 62
     5
 10
2105.828674
 20
413.358013
 11
2105.828674
 21
301.873995
  0
LINE
  8
CSLAYER1
  6
CONTINUOUS
 62
     5
 10
1055.828674
 20
311.873995
 11
2105.828674
 21
311.873995
  0
LINE
  8
CSLAYER1
  6
CONTINUOUS
 62
     5
 10
1055.828674
 20
311.873995
 11
1084.806449
 21
319.638566
  0
LINE
  8
CSLAYER1
  6
CONTINUOUS
 62
     5
 10
1055.828674
 20
311.873995
 11
1084.806449
 21
304.109424
  0
LINE
  8
CSLAYER1
  6
CONTINUOUS
 62
     5
 10
2105.828674
 20
311.873995
 11
2076.850899
 21
319.638566
  0
LINE
  8
CSLAYER1
  6
CONTINUOUS
 62
     5
 10
2105.828674
 20
311.873995
 11
2076.850899
 21
304.109424
  0
ENDBLK
  8
0
  0
BLOCK
  8
CSLAYER1
  2
*D0005
 70
    65
 10
0.0
 20
0.0
 30
0.0
  0
TEXT
  8
CSLAYER1
 62
     7
 10
470.198792
 20
321.874023
 40
40.000000
 41
0.843750
  1
500
 50
0.000000
 51
0.000000
  7
EASYDRAW_FONT
 72
     5
 11
560.198792
 21
321.874023
  0
LINE
  8
CSLAYER1
  6
CONTINUOUS
 62
     5
 10
265.198800
 20
413.358013
 11
265.198800
 21
301.873995
  0
LINE
  8
CSLAYER1
  6
CONTINUOUS
 62
     5
 10
765.198800
 20
413.358013
 11
765.198800
 21
301.873995
  0
LINE
  8
CSLAYER1
  6
CONTINUOUS
 62
     5
 10
265.198800
 20
311.873995
 11
765.198800
 21
311.873995
  0
LINE
  8
CSLAYER1
  6
CONTINUOUS
 62
     5
 10
265.198800
 20
311.873995
 11
294.176575
 21
319.638566
  0
LINE
  8
CSLAYER1
  6
CONTINUOUS
 62
     5
 10
265.198800
 20
311.873995
 11
294.176575
 21
304.109424
  0
LINE
  8
CSLAYER1
  6
CONTINUOUS
 62
     5
 10
765.198800
 20
311.873995
 11
736.221025
 21
319.638566
  0
LINE
  8
CSLAYER1
  6
CONTINUOUS
 62
     5
 10
765.198800
 20
311.873995
 11
736.221025
 21
304.109424
  0
ENDBLK
  8
0
  0
BLOCK
  8
CSLAYER1
  2
BLKF0000
 70
   64
 10
0.0
 20
0.0
 30
0.0
  0
ARC
  8
CSLAYER1
  6
CONTINUOUS
 62
     5
 10
2781.909508
 20
79.335220
 40
3.549225
 50
6.429109
 51
73.182034
  0
ARC
  8
CSLAYER1
  6
CONTINUOUS
 62
     5
 10
2778.448538
 20
78.176827
 40
6.907754
 50
310.517970
 51
330.092764
  0
ARC
  8
CSLAYER1
  6
CONTINUOUS
 62
     5
 10
2778.387888
 20
78.542345
 40
7.148321
 50
-32.205059
 51
9.585194
  0
ARC
  8
CSLAYER1
  6
CONTINUOUS
 62
     5
 10
2781.680616
 20
75.781346
 40
4.767514
 50
180.000000
 51
218.514150
  0
ARC
  8
CSLAYER1
  6
CONTINUOUS
 62
     5
 10
2780.393895
 20
75.104206
 40
3.348282
 50
222.781148
 51
319.406906
  0
ARC
  8
CSLAYER1
  6
CONTINUOUS
 62
     5
 10
2783.459537
 20
76.194099
 40
6.559434
 50
94.574282
 51
183.607718
  0
LINE
  8
CSLAYER1
  6
CONTINUOUS
 62
     5
 10
2796.903443
 20
71.077266
 11
2796.046407
 21
68.038683
  0
LINE
  8
CSLAYER1
  6
CONTINUOUS
 62
     5
 10
2798.695428
 20
90.944924
 11
2796.591794
 21
93.671857
  0
LINE
  8
CSLAYER1
  6
CONTINUOUS
 62
     5
 10
2796.591794
 20
93.671857
 11
2789.838440
 21
97.429769
  0
LINE
  8
CSLAYER1
  6
CONTINUOUS
 62
     5
 10
2789.838440
 20
97.429769
 11
2782.936412
 21
98.232640
  0
LINE
  8
CSLAYER1
  6
CONTINUOUS
 62
     5
 10
2764.647187
 20
84.853966
 11
2766.793881
 21
89.818197
  0
LINE
  8
CSLAYER1
  6
CONTINUOUS
 62
     5
 10
2766.756884
 20
89.732640
 11
2768.940576
 21
92.367396
  0
LINE
  8
CSLAYER1
  6
CONTINUOUS
 62
     5
 10
2768.940576
 20
92.367396
 11
2772.244998
 21
94.732640
  0
LINE
  8
CSLAYER1
  6
CONTINUOUS
 62
     5
 10
2782.936412
 20
98.232640
 11
2781.418237
 21
97.465795
  0
LINE
  8
CSLAYER1
  6
CONTINUOUS
 62
     5
 10
2781.418237
 20
97.465795
 11
2777.929858
 21
97.465795
  0
LINE
  8
CSLAYER1
  6
CONTINUOUS
 62
     5
 10
2777.929858
 20
97.465795
 11
2774.374396
 21
95.520354
  0
LINE
  8
CSLAYER1
  6
CONTINUOUS
 62
     5
 10
2774.374396
 20
95.520354
 11
2772.244998
 21
94.732640
  0
LINE
  8
CSLAYER1
  6
CONTINUOUS
 62
     5
 10
2764.647187
 20
84.853966
 11
2763.129640
 21
77.305363
  0
LINE
  8
CSLAYER1
  6
CONTINUOUS
 62
     5
 10
2763.129640
 20
77.305363
 11
2762.936412
 21
74.732640
  0
LINE
  8
CSLAYER1
  6
CONTINUOUS
 62
     5
 10
2765.645795
 20
66.892857
 11
2762.936412
 21
72.988969
  0
LINE
  8
CSLAYER1
  6
CONTINUOUS
 62
     5
 10
2762.936412
 20
72.988969
 11
2762.936412
 21
74.732640
  0
LINE
  8
CSLAYER1
  6
CONTINUOUS
 62
     5
 10
2796.046407
 20
68.038683
 11
2794.360620
 21
65.035677
  0
LINE
  8
CSLAYER1
  6
CONTINUOUS
 62
     5
 10
2794.360620
 20
65.035677
 11
2792.936412
 21
63.716966
  0
ARC
  8
CSLAYER1
  6
CONTINUOUS
 62
     5
 10
2780.744468
 20
75.269400
 40
17.266626
 50
208.054813
 51
260.640470
  0
ARC
  8
CSLAYER1
  6
CONTINUOUS
 62
     5
 10
2775.551072
 20
88.011870
 40
29.874611
 50
274.579659
 51
305.587364
  0
ARC
  8
CSLAYER1
  6
CONTINUOUS
 62
     5
 10
2786.523421
 20
82.028147
 40
15.088627
 50
313.467013
 51
331.085078
  0
LINE
  8
CSLAYER1
  6
CONTINUOUS
 62
     5
 10
2801.314754
 20
78.246061
 11
2801.612048
 21
82.028147
  0
LINE
  8
CSLAYER1
  6
CONTINUOUS
 62
     5
 10
2801.612048
 20
82.028147
 11
2800.320051
 21
88.137130
  0
LINE
  8
CSLAYER1
  6
CONTINUOUS
 62
     5
 10
2801.314754
 20
78.246061
 11
2799.731079
 21
74.732640
  0
ARC
  8
CSLAYER1
  6
CONTINUOUS
 62
     5
 10
2786.523421
 20
82.028147
 40
15.088627
 50
23.883193
 51
36.225170
  0
LINE
  8
CSLAYER1
  6
CONTINUOUS
 62
     5
 10
2746.936412
 20
109.732640
 11
2747.936412
 21
110.825284
  0
LINE
  8
CSLAYER1
  6
CONTINUOUS
 62
     5
 10
2746.936412
 20
109.732640
 11
2748.513370
 21
108.287607
  0
LINE
  8
CSLAYER1
  6
CONTINUOUS
 62
     5
 10
2750.052583
 20
106.178315
 11
2750.078851
 21
104.010196
  0
LINE
  8
CSLAYER1
  6
CONTINUOUS
 62
     5
 10
2750.078851
 20
104.010196
 11
2750.286249
 21
103.249737
  0
LINE
  8
CSLAYER1
  6
CONTINUOUS
 62
     5
 10
2750.286249
 20
103.249737
 11
2750.873877
 21
102.523844
  0
LINE
  8
CSLAYER1
  6
CONTINUOUS
 62
     5
 10
2750.873877
 20
102.523844
 11
2751.461504
 21
102.592977
  0
LINE
  8
CSLAYER1
  6
CONTINUOUS
 62
     5
 10
2751.461504
 20
102.592977
 11
2752.083698
 21
102.765808
  0
LINE
  8
CSLAYER1
  6
CONTINUOUS
 62
     5
 10
2752.083698
 20
102.765808
 11
2752.498494
 21
102.592977
  0
LINE
  8
CSLAYER1
  6
CONTINUOUS
 62
     5
 10
2752.498494
 20
102.592977
 11
2753.397219
 21
102.143614
  0
LINE
  8
CSLAYER1
  6
CONTINUOUS
 62
     5
 10
2753.397219
 20
102.143614
 11
2754.173270
 21
101.732640
  0
LINE
  8
CSLAYER1
  6
CONTINUOUS
 62
     5
 10
2754.173270
 20
101.732640
 11
2754.676173
 21
101.763385
  0
LINE
  8
CSLAYER1
  6
CONTINUOUS
 62
     5
 10
2754.676173
 20
101.763385
 11
2757.484045
 21
103.209864
  0
LINE
  8
CSLAYER1
  6
CONTINUOUS
 62
     5
 10
2747.936412
 20
110.825284
 11
2748.269264
 21
112.298991
  0
LINE
  8
CSLAYER1
  6
CONTINUOUS
 62
     5
 10
2748.269264
 20
112.298991
 11
2749.722669
 21
112.449344
  0
LINE
  8
CSLAYER1
  6
CONTINUOUS
 62
     5
 10
2751.216428
 20
115.217802
 11
2752.970601
 21
115.374892
  0
LINE
  8
CSLAYER1
  6
CONTINUOUS
 62
     5
 10
2752.970601
 20
115.374892
 11
2756.505128
 21
116.212706
  0
LINE
  8
CSLAYER1
  6
CONTINUOUS
 62
     5
 10
2756.505128
 20
116.212706
 11
2757.936412
 21
116.544345
  0
LINE
  8
CSLAYER1
  6
CONTINUOUS
 62
     5
 10
2751.216428
 20
115.217802
 11
2749.283537
 21
115.376670
  0
LINE
  8
CSLAYER1
  6
CONTINUOUS
 62
     5
 10
2748.547414
 20
114.507983
 11
2748.640939
 21
114.136822
  0
LINE
  8
CSLAYER1
  6
CONTINUOUS
 62
     5
 10
2748.640939
 20
114.136822
 11
2749.132533
 21
113.599141
  0
LINE
  8
CSLAYER1
  6
CONTINUOUS
 62
     5
 10
2749.132533
 20
113.599141
 11
2749.808475
 21
113.092184
  0
LINE
  8
CSLAYER1
  6
CONTINUOUS
 62
     5
 10
2749.808475
 20
113.092184
 11
2749.931800
 21
112.927751
  0
LINE
  8
CSLAYER1
  6
CONTINUOUS
 62
     5
 10
2748.513370
 20
108.287607
 11
2750.052583
 21
106.178315
  0
ARC
  8
CSLAYER1
  6
CONTINUOUS
 62
     5
 10
2792.923113
 20
-61.926013
 40
180.727463
 50
80.438896
 51
96.353582
  0
ARC
  8
CSLAYER1
  6
CONTINUOUS
 62
     5
 10
2768.024200
 20
83.321887
 40
34.720242
 50
81.866516
 51
106.890578
  0
LINE
  8
CSLAYER1
  6
CONTINUOUS
 62
     5
 10
2827.130674
 20
115.499310
 11
2829.377756
 21
114.477909
  0
LINE
  8
CSLAYER1
  6
CONTINUOUS
 62
     5
 10
2832.952661
 20
112.894737
 11
2829.377756
 21
114.477909
  0
LINE
  8
CSLAYER1
  6
CONTINUOUS
 62
     5
 10
2827.130674
 20
115.499310
 11
2822.936412
 21
116.291881
  0
LINE
  8
CSLAYER1
  6
CONTINUOUS
 62
     5
 10
2832.936412
 20
112.901933
 11
2834.807988
 21
111.333456
  0
LINE
  8
CSLAYER1
  6
CONTINUOUS
 62
     5
 10
2816.179668
 20
113.938783
 11
2817.078943
 21
115.391458
  0
LINE
  8
CSLAYER1
  6
CONTINUOUS
 62
     5
 10
2817.078943
 20
115.391458
 11
2821.754542
 21
114.271949
  0
LINE
  8
CSLAYER1
  6
CONTINUOUS
 62
     5
 10
2821.754542
 20
114.271949
 11
2838.496928
 21
109.732640
  0
LINE
  8
CSLAYER1
  6
CONTINUOUS
 62
     5
 10
2841.436412
 20
109.732640
 11
2834.807988
 21
111.333456
  0
LINE
  8
CSLAYER1
  6
CONTINUOUS
 62
     5
 10
2838.496928
 20
109.732640
 11
2841.436412
 21
109.732640
  0
LINE
  8
CSLAYER1
  6
CONTINUOUS
 62
     5
 10
2782.936412
 20
114.197581
 11
2802.936412
 21
114.732640
  0
LINE
  8
CSLAYER1
  6
CONTINUOUS
 62
     5
 10
2802.936412
 20
114.732640
 11
2816.179668
 21
113.938783
  0
LINE
  8
CSLAYER1
  6
CONTINUOUS
 62
     5
 10
2817.782649
 20
111.878304
 11
2802.936412
 21
113.232640
  0
LINE
  8
CSLAYER1
  6
CONTINUOUS
 62
     5
 10
2802.936412
 20
113.232640
 11
2787.887203
 21
113.641292
  0
LINE
  8
CSLAYER1
  6
CONTINUOUS
 62
     5
 10
2787.936412
 20
113.639956
 11
2782.936412
 21
113.735249
  0
LINE
  8
CSLAYER1
  6
CONTINUOUS
 62
     5
 10
2782.936412
 20
114.197581
 11
2782.936412
 21
113.735249
  0
LINE
  8
CSLAYER1
  6
CONTINUOUS
 62
     5
 10
2840.436412
 20
106.232640
 11
2831.593854
 21
108.543302
  0
LINE
  8
CSLAYER1
  6
CONTINUOUS
 62
     5
 10
2817.782649
 20
111.878304
 11
2827.936412
 21
109.905920
  0
LINE
  8
CSLAYER1
  6
CONTINUOUS
 62
     5
 10
2827.936412
 20
109.905920
 11
2831.593854
 21
108.543302
  0
LINE
  8
CSLAYER1
  6
CONTINUOUS
 62
     5
 10
2840.436412
 20
106.232640
 11
2840.143795
 21
105.393534
  0
LINE
  8
CSLAYER1
  6
CONTINUOUS
 62
     5
 10
2849.936412
 20
100.732640
 11
2849.630385
 21
101.961621
  0
LINE
  8
CSLAYER1
  6
CONTINUOUS
 62
     5
 10
2840.143795
 20
105.393534
 11
2849.630385
 21
101.961621
  0
LINE
  8
CSLAYER1
  6
CONTINUOUS
 62
     5
 10
2786.436412
 20
106.232640
 11
2788.859450
 21
106.232640
  0
LINE
  8
CSLAYER1
  6
CONTINUOUS
 62
     5
 10
2808.936412
 20
106.665135
 11
2808.936412
 21
106.232640
  0
LINE
  8
CSLAYER1
  6
CONTINUOUS
 62
     5
 10
2807.936412
 20
107.199576
 11
2806.225133
 21
107.836755
  0
LINE
  8
CSLAYER1
  6
CONTINUOUS
 62
     5
 10
2806.225133
 20
107.836755
 11
2805.115077
 21
107.887212
  0
LINE
  8
CSLAYER1
  6
CONTINUOUS
 62
     5
 10
2805.115077
 20
107.887212
 11
2804.635735
 21
107.634926
  0
LINE
  8
CSLAYER1
  6
CONTINUOUS
 62
     5
 10
2804.635735
 20
107.634926
 11
2804.534821
 21
107.231270
  0
LINE
  8
CSLAYER1
  6
CONTINUOUS
 62
     5
 10
2804.534821
 20
107.231270
 11
2804.988934
 21
106.928527
  0
LINE
  8
CSLAYER1
  6
CONTINUOUS
 62
     5
 10
2804.988934
 20
106.928527
 11
2806.628790
 21
106.777156
  0
LINE
  8
CSLAYER1
  6
CONTINUOUS
 62
     5
 10
2806.628790
 20
106.777156
 11
2808.936412
 21
106.665135
  0
LINE
  8
CSLAYER1
  6
CONTINUOUS
 62
     5
 10
2849.936412
 20
100.732640
 11
2846.960870
 21
101.919221
  0
LINE
  8
CSLAYER1
  6
CONTINUOUS
 62
     5
 10
2846.960870
 20
101.919221
 11
2836.905180
 21
103.762097
  0
LINE
  8
CSLAYER1
  6
CONTINUOUS
 62
     5
 10
2836.905180
 20
103.762097
 11
2831.879400
 21
104.921892
  0
LINE
  8
CSLAYER1
  6
CONTINUOUS
 62
     5
 10
2809.470633
 20
107.232640
 11
2821.236299
 21
107.232640
  0
LINE
  8
CSLAYER1
  6
CONTINUOUS
 62
     5
 10
2807.936412
 20
107.199576
 11
2808.461072
 21
106.891109
  0
LINE
  8
CSLAYER1
  6
CONTINUOUS
 62
     5
 10
2808.461072
 20
106.891109
 11
2808.757884
 21
106.802065
  0
LINE
  8
CSLAYER1
  6
CONTINUOUS
 62
     5
 10
2808.757884
 20
106.802065
 11
2808.936412
 21
106.827236
  0
LINE
  8
CSLAYER1
  6
CONTINUOUS
 62
     5
 10
2808.936412
 20
106.827236
 11
2809.470633
 21
107.232640
  0
LINE
  8
CSLAYER1
  6
CONTINUOUS
 62
     5
 10
2821.236299
 20
107.232640
 11
2825.686568
 21
106.203814
  0
LINE
  8
CSLAYER1
  6
CONTINUOUS
 62
     5
 10
2825.686568
 20
106.203814
 11
2829.839760
 21
105.038665
  0
LINE
  8
CSLAYER1
  6
CONTINUOUS
 62
     5
 10
2829.839760
 20
105.038665
 11
2831.879400
 21
104.921892
  0
LINE
  8
CSLAYER1
  6
CONTINUOUS
 62
     5
 10
2785.436412
 20
105.232640
 11
2785.436412
 21
104.732640
  0
LINE
  8
CSLAYER1
  6
CONTINUOUS
 62
     5
 10
2782.936412
 20
104.732640
 11
2785.436412
 21
104.732640
  0
ARC
  8
CSLAYER1
  6
CONTINUOUS
 62
     5
 10
2786.436412
 20
105.232640
 40
1.000000
 50
90.000000
 51
180.000000
  0
LINE
  8
CSLAYER1
  6
CONTINUOUS
 62
     5
 10
2788.859450
 20
106.232640
 11
2789.557007
 21
105.660643
  0
LINE
  8
CSLAYER1
  6
CONTINUOUS
 62
     5
 10
2790.159375
 20
105.636683
 11
2791.016972
 21
106.232640
  0
LINE
  8
CSLAYER1
  6
CONTINUOUS
 62
     5
 10
2792.595368
 20
106.232640
 11
2794.262494
 21
105.574564
  0
LINE
  8
CSLAYER1
  6
CONTINUOUS
 62
     5
 10
2794.686203
 20
105.601076
 11
2795.839690
 21
106.232640
  0
LINE
  8
CSLAYER1
  6
CONTINUOUS
 62
     5
 10
2791.016972
 20
106.232640
 11
2792.595368
 21
106.232640
  0
LINE
  8
CSLAYER1
  6
CONTINUOUS
 62
     5
 10
2795.839690
 20
106.232640
 11
2808.936412
 21
106.232640
  0
LINE
  8
CSLAYER1
  6
CONTINUOUS
 62
     5
 10
2761.485395
 20
103.123813
 11
2782.936412
 21
104.732640
  0
LINE
  8
CSLAYER1
  6
CONTINUOUS
 62
     5
 10
2757.484045
 20
103.209864
 11
2761.485395
 21
103.123813
  0
ARC
  8
CSLAYER1
  6
CONTINUOUS
 62
     5
 10
2789.874047
 20
106.047277
 40
0.500000
 50
230.648247
 51
304.796026
  0
ARC
  8
CSLAYER1
  6
CONTINUOUS
 62
     5
 10
2794.446077
 20
106.039642
 40
0.500000
 50
248.459024
 51
298.701829
  0
ARC
  8
CSLAYER1
  6
CONTINUOUS
 62
     5
 10
2749.691800
 20
112.747751
 40
0.300000
 50
-84.093859
 51
36.869898
  0
ARC
  8
CSLAYER1
  6
CONTINUOUS
 62
     5
 10
2749.226196
 20
114.679023
 40
0.700000
 50
85.301319
 51
194.142980
  0
LINE
  8
CSLAYER1
  6
CONTINUOUS
 62
     3
 10
2781.418237
 20
97.465795
 11
2789.528732
 21
97.465795
  0
LINE
  8
CSLAYER1
  6
CONTINUOUS
 62
     3
 10
2775.005720
 20
95.865795
 11
2792.649061
 21
95.865795
  0
LINE
  8
CSLAYER1
  6
CONTINUOUS
 62
     3
 10
2771.592781
 20
94.265795
 11
2795.524426
 21
94.265795
  0
LINE
  8
CSLAYER1
  6
CONTINUOUS
 62
     3
 10
2769.357462
 20
92.665795
 11
2797.367899
 21
92.665795
  0
LINE
  8
CSLAYER1
  6
CONTINUOUS
 62
     3
 10
2767.861806
 20
91.065795
 11
2798.602184
 21
91.065795
  0
LINE
  8
CSLAYER1
  6
CONTINUOUS
 62
     3
 10
2766.641492
 20
89.465795
 11
2799.651561
 21
89.465795
  0
LINE
  8
CSLAYER1
  6
CONTINUOUS
 62
     3
 10
2765.949600
 20
87.865795
 11
2800.377436
 21
87.865795
  0
LINE
  8
CSLAYER1
  6
CONTINUOUS
 62
     3
 10
2765.257708
 20
86.265795
 11
2800.715822
 21
86.265795
  0
LINE
  8
CSLAYER1
  6
CONTINUOUS
 62
     3
 10
2764.609358
 20
84.665795
 11
2801.054208
 21
84.665795
  0
LINE
  8
CSLAYER1
  6
CONTINUOUS
 62
     3
 10
2764.287699
 20
83.065795
 11
2801.392594
 21
83.065795
  0
LINE
  8
CSLAYER1
  6
CONTINUOUS
 62
     3
 10
2763.966040
 20
81.465795
 11
2779.556283
 21
81.465795
  0
LINE
  8
CSLAYER1
  6
CONTINUOUS
 62
     3
 10
2763.644381
 20
79.865795
 11
2778.024022
 21
79.865795
  0
LINE
  8
CSLAYER1
  6
CONTINUOUS
 62
     3
 10
2763.322722
 20
78.265795
 11
2777.235852
 21
78.265795
  0
LINE
  8
CSLAYER1
  6
CONTINUOUS
 62
     3
 10
2763.081604
 20
76.665795
 11
2776.917085
 21
76.665795
  0
LINE
  8
CSLAYER1
  6
CONTINUOUS
 62
     3
 10
2762.961434
 20
75.065795
 11
2776.967106
 21
75.065795
  0
LINE
  8
CSLAYER1
  6
CONTINUOUS
 62
     3
 10
2762.936412
 20
73.465795
 11
2777.513193
 21
73.465795
  0
LINE
  8
CSLAYER1
  6
CONTINUOUS
 62
     3
 10
2763.435600
 20
71.865795
 11
2779.543195
 21
71.865795
  0
LINE
  8
CSLAYER1
  6
CONTINUOUS
 62
     3
 10
2764.146711
 20
70.265795
 11
2796.674567
 21
70.265795
  0
LINE
  8
CSLAYER1
  6
CONTINUOUS
 62
     3
 10
2764.857823
 20
68.665795
 11
2796.223285
 21
68.665795
  0
LINE
  8
CSLAYER1
  6
CONTINUOUS
 62
     3
 10
2765.568934
 20
67.065795
 11
2795.500261
 21
67.065795
  0
LINE
  8
CSLAYER1
  6
CONTINUOUS
 62
     3
 10
2766.530893
 20
65.465795
 11
2794.602074
 21
65.465795
  0
LINE
  8
CSLAYER1
  6
CONTINUOUS
 62
     3
 10
2767.779354
 20
63.865795
 11
2793.097148
 21
63.865795
  0
LINE
  8
CSLAYER1
  6
CONTINUOUS
 62
     3
 10
2769.384774
 20
62.265795
 11
2790.704687
 21
62.265795
  0
LINE
  8
CSLAYER1
  6
CONTINUOUS
 62
     3
 10
2771.531916
 20
60.665795
 11
2787.579564
 21
60.665795
  0
LINE
  8
CSLAYER1
  6
CONTINUOUS
 62
     3
 10
2774.779606
 20
59.065795
 11
2782.941415
 21
59.065795
  0
LINE
  8
CSLAYER1
  6
CONTINUOUS
 62
     3
 10
2784.748107
 20
81.465795
 11
2801.567844
 21
81.465795
  0
LINE
  8
CSLAYER1
  6
CONTINUOUS
 62
     3
 10
2785.418851
 20
79.865795
 11
2801.442074
 21
79.865795
  0
LINE
  8
CSLAYER1
  6
CONTINUOUS
 62
     3
 10
2785.530858
 20
78.265795
 11
2801.316305
 21
78.265795
  0
LINE
  8
CSLAYER1
  6
CONTINUOUS
 62
     3
 10
2785.285501
 20
76.665795
 11
2800.602449
 21
76.665795
  0
LINE
  8
CSLAYER1
  6
CONTINUOUS
 62
     3
 10
2784.633855
 20
75.065795
 11
2799.881249
 21
75.065795
  0
LINE
  8
CSLAYER1
  6
CONTINUOUS
 62
     3
 10
2783.500592
 20
73.465795
 11
2798.947301
 21
73.465795
  0
LINE
  8
CSLAYER1
  6
CONTINUOUS
 62
     3
 10
2781.244595
 20
71.865795
 11
2797.676594
 21
71.865795
  0
TEXT
  8
CSLAYER1
 62
     5
 10
2802.108183
 20
79.476970
 40
4.713448
 41
1.951056
  1
M
 50
0.000000
 51
0.000000
  7
EASYDRAW_FONT
 72
     5
 11
2808.238985
 21
79.476970
  0
TEXT
  8
CSLAYER1
 62
     5
 10
2811.759570
 20
79.418700
 40
4.626621
 41
0.778201
  1
T
 50
0.000000
 51
0.000000
  7
EASYDRAW_FONT
 72
     5
 11
2814.159863
 21
79.418700
  0
TEXT
  8
CSLAYER1
 62
     5
 10
2814.525133
 20
79.453499
 40
4.696183
 41
1.055553
  1
E
 50
0.000000
 51
0.000000
  7
EASYDRAW_FONT
 72
     5
 11
2817.829848
 21
79.453499
  0
TEXT
  8
CSLAYER1
 62
     5
 10
2817.641314
 20
81.069343
 40
0.348283
 41
9.375319
  1
-
 50
0.000000
 51
0.000000
  7
EASYDRAW_FONT
 72
     5
 11
2819.818159
 21
81.069343
  0
TEXT
  8
CSLAYER1
 62
     5
 10
2819.455523
 20
79.422152
 40
4.861659
 41
1.298502
  1
H
 50
0.000000
 51
0.000000
  7
EASYDRAW_FONT
 72
     5
 11
2823.664106
 21
79.422152
  0
TEXT
  8
CSLAYER1
 62
     5
 10
2823.531538
 20
79.452530
 40
4.843139
 41
1.269236
  1
A
 50
0.000000
 51
0.000000
  7
EASYDRAW_FONT
 72
     5
 11
2827.629595
 21
79.452530
  0
TEXT
  8
CSLAYER1
 62
     5
 10
2827.237694
 20
79.411004
 40
4.825362
 41
1.490144
  1
N
 50
0.000000
 51
0.000000
  7
EASYDRAW_FONT
 72
     5
 11
2832.031349
 21
79.411004
  0
TEXT
  8
CSLAYER1
 62
     5
 10
2808.029152
 20
79.388431
 40
4.982325
 41
1.177443
  1
A
 50
0.000000
 51
0.000000
  7
EASYDRAW_FONT
 72
     5
 11
2811.940086
 21
79.388431
  0
TEXT
  8
CSLAYER1
 62
     5
 10
2802.475197
 20
72.393191
 40
4.982325
 41
1.177443
  1
A
 50
0.000000
 51
0.000000
  7
EASYDRAW_FONT
 72
     5
 11
2806.386131
 21
72.393191
  0
TEXT
  8
CSLAYER1
 62
     5
 10
2815.259621
 20
72.421512
 40
4.982325
 41
1.177443
  1
A
 50
0.000000
 51
0.000000
  7
EASYDRAW_FONT
 72
     5
 11
2819.170555
 21
72.421512
  0
TEXT
  8
CSLAYER1
 62
     5
 10
2819.020165
 20
72.478509
 40
4.825362
 41
1.490144
  1
N
 50
0.000000
 51
0.000000
  7
EASYDRAW_FONT
 72
     5
 11
2823.813819
 21
72.478509
  0
TEXT
  8
CSLAYER1
 62
     5
 10
2827.922501
 20
72.486903
 40
4.841775
 41
1.184218
  1
E
 50
0.000000
 51
0.000000
  7
EASYDRAW_FONT
 72
     5
 11
2831.744980
 21
72.486903
  0
TEXT
  8
CSLAYER1
 62
     5
 10
2806.755750
 20
72.391867
 40
4.947865
 41
1.093992
  1
D
 50
0.000000
 51
0.000000
  7
EASYDRAW_FONT
 72
     5
 11
2810.364367
 21
72.391867
  0
TEXT
  8
CSLAYER1
 62
     5
 10
2811.158109
 20
72.386482
 40
4.924210
 41
1.228195
  1
V
 50
0.000000
 51
0.000000
  7
EASYDRAW_FONT
 72
     5
 11
2815.190036
 21
72.386482
  0
TEXT
  8
CSLAYER1
 62
     5
 10
2823.383310
 20
72.407213
 40
5.032894
 41
1.481023
  1
C
 50
0.000000
 51
0.000000
  7
EASYDRAW_FONT
 72
     5
 11
2828.352530
 21
72.407213
  0
LINE
  8
CSLAYER1
  6
CONTINUOUS
 62
     5
 10
2814.013749
 20
83.467612
 11
2813.001687
 21
83.467612
  0
LINE
  8
CSLAYER1
  6
CONTINUOUS
 62
     3
 10
2763.111987
 20
117.692883
 11
2812.909813
 21
117.692883
  0
LINE
  8
CSLAYER1
  6
CONTINUOUS
 62
     3
 10
2755.999623
 20
116.092883
 11
2823.989505
 21
116.092883
  0
LINE
  8
CSLAYER1
  6
CONTINUOUS
 62
     3
 10
2748.551219
 20
114.492883
 11
2793.974529
 21
114.492883
  0
LINE
  8
CSLAYER1
  6
CONTINUOUS
 62
     3
 10
2806.936079
 20
114.492883
 11
2816.522682
 21
114.492883
  0
LINE
  8
CSLAYER1
  6
CONTINUOUS
 62
     3
 10
2820.831816
 20
114.492883
 11
2829.344813
 21
114.492883
  0
LINE
  8
CSLAYER1
  6
CONTINUOUS
 62
     3
 10
2749.954358
 20
112.892883
 11
2806.660827
 21
112.892883
  0
LINE
  8
CSLAYER1
  6
CONTINUOUS
 62
     3
 10
2826.840965
 20
112.892883
 11
2832.947211
 21
112.892883
  0
LINE
  8
CSLAYER1
  6
CONTINUOUS
 62
     3
 10
2748.042024
 20
111.292883
 11
2820.796375
 21
111.292883
  0
LINE
  8
CSLAYER1
  6
CONTINUOUS
 62
     3
 10
2832.742264
 20
111.292883
 11
2834.975986
 21
111.292883
  0
LINE
  8
CSLAYER1
  6
CONTINUOUS
 62
     3
 10
2746.979799
 20
109.692883
 11
2828.508231
 21
109.692883
  0
LINE
  8
CSLAYER1
  6
CONTINUOUS
 62
     3
 10
2748.655466
 20
108.092883
 11
2833.317540
 21
108.092883
  0
LINE
  8
CSLAYER1
  6
CONTINUOUS
 62
     3
 10
2749.823033
 20
106.492883
 11
2808.936412
 21
106.492883
  0
LINE
  8
CSLAYER1
  6
CONTINUOUS
 62
     3
 10
2824.436177
 20
106.492883
 11
2839.440500
 21
106.492883
  0
LINE
  8
CSLAYER1
  6
CONTINUOUS
 62
     3
 10
2750.068157
 20
104.892883
 11
2785.436412
 21
104.892883
  0
LINE
  8
CSLAYER1
  6
CONTINUOUS
 62
     3
 10
2832.005106
 20
104.892883
 11
2841.527709
 21
104.892883
  0
LINE
  8
CSLAYER1
  6
CONTINUOUS
 62
     3
 10
2750.274482
 20
103.292883
 11
2763.739655
 21
103.292883
  0
LINE
  8
CSLAYER1
  6
CONTINUOUS
 62
     3
 10
2839.465455
 20
103.292883
 11
2845.950473
 21
103.292883
  0
LINE
  8
CSLAYER1
  6
CONTINUOUS
 62
     3
 10
2847.528449
 20
101.692883
 11
2849.697303
 21
101.692883
  0
ENDBLK
  8
0
  0
BLOCK
  8
CSLAYER1
  2
BLKF0001
 70
   64
 10
0.0
 20
0.0
 30
0.0
  0
LINE
  8
CSLAYER1
  6
CONTINUOUS
 62
     1
 10
2011.828674
 20
530.858013
 11
2011.828674
 21
528.658013
  0
LINE
  8
CSLAYER1
  6
CONTINUOUS
 62
     1
 10
2018.828674
 20
530.858013
 11
2018.828674
 21
528.658013
  0
LINE
  8
CSLAYER1
  6
CONTINUOUS
 62
     1
 10
2018.828674
 20
529.658013
 11
2011.828674
 21
529.658013
  0
LINE
  8
CSLAYER1
  6
CONTINUOUS
 62
     1
 10
2017.428674
 20
532.258013
 11
2013.228674
 21
532.258013
  0
LINE
  8
CSLAYER1
  6
CONTINUOUS
 62
     1
 10
2019.828674
 20
528.658013
 11
2019.828674
 21
527.858013
  0
LINE
  8
CSLAYER1
  6
CONTINUOUS
 62
     1
 10
2010.828674
 20
528.658013
 11
2010.828674
 21
527.858013
  0
LINE
  8
CSLAYER1
  6
CONTINUOUS
 62
     1
 10
2018.828674
 20
530.858013
 11
2018.828674
 21
529.658013
  0
LINE
  8
CSLAYER1
  6
CONTINUOUS
 62
     1
 10
2019.828674
 20
528.658013
 11
2010.828674
 21
528.658013
  0
ARC
  8
CSLAYER1
  6
CONTINUOUS
 62
     1
 10
2017.428674
 20
530.858013
 40
1.400000
 50
-0.000000
 51
90.000000
  0
ARC
  8
CSLAYER1
  6
CONTINUOUS
 62
     1
 10
2013.228674
 20
530.858013
 40
1.400000
 50
90.000000
 51
180.000000
  0
LINE
  8
CSLAYER1
  6
CONTINUOUS
 62
     1
 10
2016.368626
 20
528.658013
 11
2013.983423
 21
529.658013
  0
ENDBLK
  8
0
  0
BLOCK
  8
CSLAYER1
  2
BLKF0002
 70
   64
 10
0.0
 20
0.0
 30
0.0
  0
LINE
  8
CSLAYER1
  6
CONTINUOUS
 62
     1
 10
427.698800
 20
530.858013
 11
427.698800
 21
528.658013
  0
LINE
  8
CSLAYER1
  6
CONTINUOUS
 62
     1
 10
434.698800
 20
530.858013
 11
434.698800
 21
528.658013
  0
LINE
  8
CSLAYER1
  6
CONTINUOUS
 62
     1
 10
434.698800
 20
529.658013
 11
427.698800
 21
529.658013
  0
LINE
  8
CSLAYER1
  6
CONTINUOUS
 62
     1
 10
433.298800
 20
532.258013
 11
429.098800
 21
532.258013
  0
LINE
  8
CSLAYER1
  6
CONTINUOUS
 62
     1
 10
435.698800
 20
528.658013
 11
435.698800
 21
527.858013
  0
LINE
  8
CSLAYER1
  6
CONTINUOUS
 62
     1
 10
426.698800
 20
528.658013
 11
426.698800
 21
527.858013
  0
LINE
  8
CSLAYER1
  6
CONTINUOUS
 62
     1
 10
434.698800
 20
530.858013
 11
434.698800
 21
529.658013
  0
LINE
  8
CSLAYER1
  6
CONTINUOUS
 62
     1
 10
435.698800
 20
528.658013
 11
426.698800
 21
528.658013
  0
ARC
  8
CSLAYER1
  6
CONTINUOUS
 62
     1
 10
433.298800
 20
530.858013
 40
1.400000
 50
-0.000000
 51
90.000000
  0
ARC
  8
CSLAYER1
  6
CONTINUOUS
 62
     1
 10
429.098800
 20
530.858013
 40
1.400000
 50
90.000000
 51
180.000000
  0
LINE
  8
CSLAYER1
  6
CONTINUOUS
 62
     1
 10
432.238752
 20
528.658013
 11
429.853549
 21
529.658013
  0
LINE
  8
CSLAYER1
  6
CONTINUOUS
 62
     1
 10
431.198800
 20
534.741803
 11
431.198800
 21
525.626050
  0
ENDBLK
  8
0
  0
BLOCK
  8
CSLAYER1
  2
BLKF0003
 70
   64
 10
0.0
 20
0.0
 30
0.0
  0
LINE
  8
CSLAYER1
  6
CONTINUOUS
 62
     3
 10
2406.915420
 20
1708.820114
 11
2406.915420
 21
1770.820114
  0
LINE
  8
CSLAYER1
  6
CONTINUOUS
 62
     3
 10
2409.415420
 20
1706.320114
 11
2494.415420
 21
1706.320114
  0
LINE
  8
CSLAYER1
  6
CENTER
 62
     5
 10
2348.565781
 20
1778.820114
 11
2406.915420
 21
1778.820114
  0
LINE
  8
CSLAYER1
  6
CONTINUOUS
 62
     2
 10
2409.415420
 20
1762.820114
 11
2494.415420
 21
1762.820114
  0
LINE
  8
CSLAYER1
  6
CONTINUOUS
 62
     3
 10
2409.415420
 20
1711.320114
 11
2409.415420
 21
1756.320114
  0
LINE
  8
CSLAYER1
  6
CONTINUOUS
 62
     3
 10
2496.915420
 20
1708.820114
 11
2496.915420
 21
1778.820114
  0
LINE
  8
CSLAYER1
  6
CONTINUOUS
 62
     3
 10
2411.915420
 20
1708.820114
 11
2488.915420
 21
1708.820114
  0
LINE
  8
CSLAYER1
  6
CONTINUOUS
 62
     3
 10
2411.915420
 20
1758.820114
 11
2488.915420
 21
1758.820114
  0
ARC
  8
CSLAYER1
  6
CONTINUOUS
 62
     3
 10
2434.847238
 20
1733.820114
 40
59.568182
 50
-24.814837
 51
24.814837
  0
ARC
  8
CSLAYER1
  6
CONTINUOUS
 62
     3
 10
2411.915420
 20
1711.320114
 40
2.500000
 50
180.000000
 51
270.000000
  0
ARC
  8
CSLAYER1
  6
CONTINUOUS
 62
     3
 10
2411.915420
 20
1756.320114
 40
2.500000
 50
90.000000
 51
180.000000
  0
ARC
  8
CSLAYER1
  6
CONTINUOUS
 62
     3
 10
2409.415420
 20
1708.820114
 40
2.500000
 50
180.000000
 51
270.000000
  0
ARC
  8
CSLAYER1
  6
CONTINUOUS
 62
     3
 10
2494.415420
 20
1708.820114
 40
2.500000
 50
270.000000
 51
360.000000
  0
ARC
  8
CSLAYER1
  6
CONTINUOUS
 62
     2
 10
2494.415420
 20
1765.320114
 40
2.500000
 50
270.000000
 51
360.000000
  0
ARC
  8
CSLAYER1
  6
CONTINUOUS
 62
     2
 10
2409.415420
 20
1765.320114
 40
2.500000
 50
180.000000
 51
270.000000
  0
LINE
  8
CSLAYER1
  6
CONTINUOUS
 62
     3
 10
2406.915420
 20
1848.820114
 11
2406.915420
 21
1786.820114
  0
LINE
  8
CSLAYER1
  6
CONTINUOUS
 62
     3
 10
2409.415420
 20
1851.320114
 11
2494.415420
 21
1851.320114
  0
LINE
  8
CSLAYER1
  6
CONTINUOUS
 62
     2
 10
2409.415420
 20
1794.820114
 11
2494.415420
 21
1794.820114
  0
LINE
  8
CSLAYER1
  6
CONTINUOUS
 62
     3
 10
2496.915420
 20
1848.820114
 11
2496.915420
 21
1778.820114
  0
ARC
  8
CSLAYER1
  6
CONTINUOUS
 62
     3
 10
2409.415420
 20
1848.820114
 40
2.500000
 50
90.000000
 51
180.000000
  0
ARC
  8
CSLAYER1
  6
CONTINUOUS
 62
     3
 10
2494.415420
 20
1848.820114
 40
2.500000
 50
-0.000000
 51
90.000000
  0
ARC
  8
CSLAYER1
  6
CONTINUOUS
 62
     2
 10
2494.415420
 20
1792.320114
 40
2.500000
 50
-0.000000
 51
90.000000
  0
ARC
  8
CSLAYER1
  6
CONTINUOUS
 62
     2
 10
2409.415420
 20
1792.320114
 40
2.500000
 50
90.000000
 51
180.000000
  0
LINE
  8
CSLAYER1
  6
CONTINUOUS
 62
     3
 10
2409.415420
 20
1846.320114
 11
2409.415420
 21
1801.320114
  0
LINE
  8
CSLAYER1
  6
CONTINUOUS
 62
     3
 10
2411.915420
 20
1848.820114
 11
2488.915420
 21
1848.820114
  0
LINE
  8
CSLAYER1
  6
CONTINUOUS
 62
     3
 10
2411.915420
 20
1798.820114
 11
2488.915420
 21
1798.820114
  0
ARC
  8
CSLAYER1
  6
CONTINUOUS
 62
     3
 10
2434.847238
 20
1823.820114
 40
59.568182
 50
-24.814837
 51
24.814837
  0
ARC
  8
CSLAYER1
  6
CONTINUOUS
 62
     3
 10
2411.915420
 20
1846.320114
 40
2.500000
 50
90.000000
 51
180.000000
  0
ARC
  8
CSLAYER1
  6
CONTINUOUS
 62
     3
 10
2411.915420
 20
1801.320114
 40
2.500000
 50
180.000000
 51
270.000000
  0
LINE
  8
CSLAYER1
  6
CONTINUOUS
 62
     3
 10
2399.915420
 20
1785.820114
 11
2399.915420
 21
1782.320114
  0
LINE
  8
CSLAYER1
  6
CONTINUOUS
 62
     3
 10
2348.565781
 20
1782.320114
 11
2399.915420
 21
1782.320114
  0
LINE
  8
CSLAYER1
  6
CONTINUOUS
 62
     3
 10
2400.915420
 20
1786.820114
 11
2406.915420
 21
1786.820114
  0
LINE
  8
CSLAYER1
  6
CONTINUOUS
 62
     3
 10
2400.915420
 20
1770.820114
 11
2406.915420
 21
1770.820114
  0
LINE
  8
CSLAYER1
  6
CONTINUOUS
 62
     3
 10
2348.565781
 20
1775.320114
 11
2399.915420
 21
1775.320114
  0
ARC
  8
CSLAYER1
  6
CONTINUOUS
 62
     3
 10
2400.915420
 20
1771.820114
 40
1.000000
 50
180.000000
 51
270.000000
  0
ARC
  8
CSLAYER1
  6
CONTINUOUS
 62
     3
 10
2400.915420
 20
1785.820114
 40
1.000000
 50
90.000000
 51
180.000000
  0
LINE
  8
CSLAYER1
  6
CONTINUOUS
 62
     3
 10
2399.915420
 20
1775.320114
 11
2399.915420
 21
1771.820114
  0
LINE
  8
CSLAYER1
  6
CONTINUOUS
 62
     2
 10
2399.915420
 20
1782.320114
 11
2399.915420
 21
1775.320114
  0
LINE
  8
CSLAYER1
  6
CONTINUOUS
 62
     2
 10
2406.915420
 20
1770.820114
 11
2406.915420
 21
1778.820114
  0
LINE
  8
CSLAYER1
  6
CONTINUOUS
 62
     2
 10
2406.915420
 20
1786.820114
 11
2406.915420
 21
1778.820114
  0
LINE
  8
CSLAYER1
  6
CONTINUOUS
 62
     2
 10
2426.408431
 20
1766.657454
 11
2417.273431
 21
1766.657454
  0
LINE
  8
CSLAYER1
  6
CONTINUOUS
 62
     2
 10
2426.408431
 20
1790.282454
 11
2417.273431
 21
1790.282454
  0
LINE
  8
CSLAYER1
  6
CONTINUOUS
 62
     2
 10
2416.013431
 20
1767.917454
 11
2416.013431
 21
1789.022454
  0
LINE
  8
CSLAYER1
  6
CONTINUOUS
 62
     2
 10
2427.668431
 20
1767.917454
 11
2427.668431
 21
1789.022454
  0
LINE
  8
CSLAYER1
  6
CONTINUOUS
 62
     2
 10
2425.778431
 20
1788.392454
 11
2417.745931
 21
1788.392454
  0
LINE
  8
CSLAYER1
  6
CONTINUOUS
 62
     2
 10
2425.778431
 20
1785.242454
 11
2424.833431
 21
1785.242454
  0
LINE
  8
CSLAYER1
  6
CONTINUOUS
 62
     2
 10
2425.778431
 20
1776.579954
 11
2424.833431
 21
1776.579954
  0
LINE
  8
CSLAYER1
  6
CONTINUOUS
 62
     2
 10
2425.778431
 20
1772.012454
 11
2420.738431
 21
1772.012454
  0
LINE
  8
CSLAYER1
  6
CONTINUOUS
 62
     2
 10
2426.880931
 20
1773.114954
 11
2426.880931
 21
1775.477454
  0
LINE
  8
CSLAYER1
  6
CONTINUOUS
 62
     2
 10
2419.635931
 20
1773.114954
 11
2419.635931
 21
1775.477454
  0
LINE
  8
CSLAYER1
  6
CONTINUOUS
 62
     2
 10
2416.643431
 20
1786.344954
 11
2416.643431
 21
1787.289954
  0
LINE
  8
CSLAYER1
  6
CONTINUOUS
 62
     2
 10
2423.888431
 20
1777.524954
 11
2423.888431
 21
1784.297454
  0
LINE
  8
CSLAYER1
  6
CONTINUOUS
 62
     2
 10
2423.100931
 20
1777.524954
 11
2423.100931
 21
1784.297454
  0
ARC
  8
CSLAYER1
  6
CONTINUOUS
 62
     2
 10
2425.778431
 20
1773.114954
 40
1.102500
 50
270.000000
 51
360.000000
  0
ARC
  8
CSLAYER1
  6
CONTINUOUS
 62
     2
 10
2420.738431
 20
1773.114954
 40
1.102500
 50
180.000000
 51
270.000000
  0
ARC
  8
CSLAYER1
  6
CONTINUOUS
 62
     2
 10
2420.738431
 20
1775.477454
 40
1.102500
 50
90.000000
 51
180.000000
  0
ARC
  8
CSLAYER1
  6
CONTINUOUS
 62
     2
 10
2425.778431
 20
1775.477454
 40
1.102500
 50
-0.000000
 51
90.000000
  0
ARC
  8
CSLAYER1
  6
CONTINUOUS
 62
     2
 10
2417.745931
 20
1786.344954
 40
1.102500
 50
180.000000
 51
270.000000
  0
ARC
  8
CSLAYER1
  6
CONTINUOUS
 62
     2
 10
2417.745931
 20
1787.289954
 40
1.102500
 50
90.000000
 51
180.000000
  0
ARC
  8
CSLAYER1
  6
CONTINUOUS
 62
     2
 10
2425.778431
 20
1787.289954
 40
1.102500
 50
-0.000000
 51
90.000000
  0
ARC
  8
CSLAYER1
  6
CONTINUOUS
 62
     2
 10
2425.778431
 20
1786.344954
 40
1.102500
 50
270.000000
 51
360.000000
  0
LINE
  8
CSLAYER1
  6
CONTINUOUS
 62
     2
 10
2422.155931
 20
1776.579954
 11
2420.738431
 21
1776.579954
  0
LINE
  8
CSLAYER1
  6
CONTINUOUS
 62
     2
 10
2422.155931
 20
1785.242454
 11
2417.745931
 21
1785.242454
  0
ARC
  8
CSLAYER1
  6
CONTINUOUS
 62
     2
 10
2424.833431
 20
1777.524954
 40
0.945000
 50
180.000000
 51
270.000000
  0
ARC
  8
CSLAYER1
  6
CONTINUOUS
 62
     2
 10
2422.155931
 20
1777.524954
 40
0.945000
 50
270.000000
 51
360.000000
  0
ARC
  8
CSLAYER1
  6
CONTINUOUS
 62
     2
 10
2422.155931
 20
1784.297454
 40
0.945000
 50
-0.000000
 51
90.000000
  0
ARC
  8
CSLAYER1
  6
CONTINUOUS
 62
     2
 10
2426.408431
 20
1767.917454
 40
1.260000
 50
270.000000
 51
360.000000
  0
ARC
  8
CSLAYER1
  6
CONTINUOUS
 62
     2
 10
2417.273431
 20
1767.917454
 40
1.260000
 50
180.000000
 51
270.000000
  0
ARC
  8
CSLAYER1
  6
CONTINUOUS
 62
     2
 10
2417.273431
 20
1789.022454
 40
1.260000
 50
90.000000
 51
180.000000
  0
ARC
  8
CSLAYER1
  6
CONTINUOUS
 62
     2
 10
2426.408431
 20
1789.022454
 40
1.260000
 50
-0.000000
 51
90.000000
  0
ARC
  8
CSLAYER1
  6
CONTINUOUS
 62
     2
 10
2424.833431
 20
1784.297454
 40
0.945000
 50
90.000000
 51
180.000000
  0
LINE
  8
CSLAYER1
  6
CONTINUOUS
 62
     2
 10
2426.880931
 20
1786.344954
 11
2426.880931
 21
1787.289954
  0
CIRCLE
  8
CSLAYER1
  6
CONTINUOUS
 62
     2
 10
2441.415420
 20
1728.820114
 40
2.500000
  0
CIRCLE
  8
CSLAYER1
  6
CONTINUOUS
 62
     2
 10
2441.415420
 20
1718.820114
 40
2.500000
  0
CIRCLE
  8
CSLAYER1
  6
CONTINUOUS
 62
     2
 10
2451.415420
 20
1718.820114
 40
2.500000
  0
CIRCLE
  8
CSLAYER1
  6
CONTINUOUS
 62
     2
 10
2451.415420
 20
1728.820114
 40
2.500000
  0
CIRCLE
  8
CSLAYER1
  6
CONTINUOUS
 62
     2
 10
2461.415420
 20
1728.820114
 40
2.500000
  0
CIRCLE
  8
CSLAYER1
  6
CONTINUOUS
 62
     2
 10
2461.415420
 20
1718.820114
 40
2.500000
  0
CIRCLE
  8
CSLAYER1
  6
CONTINUOUS
 62
     2
 10
2471.415420
 20
1718.820114
 40
2.500000
  0
CIRCLE
  8
CSLAYER1
  6
CONTINUOUS
 62
     2
 10
2471.415420
 20
1728.820114
 40
2.500000
  0
CIRCLE
  8
CSLAYER1
  6
CONTINUOUS
 62
     2
 10
2481.415420
 20
1728.820114
 40
2.500000
  0
CIRCLE
  8
CSLAYER1
  6
CONTINUOUS
 62
     2
 10
2481.415420
 20
1718.820114
 40
2.500000
  0
CIRCLE
  8
CSLAYER1
  6
CONTINUOUS
 62
     2
 10
2441.415420
 20
1738.820114
 40
2.500000
  0
CIRCLE
  8
CSLAYER1
  6
CONTINUOUS
 62
     2
 10
2441.415420
 20
1748.820114
 40
2.500000
  0
CIRCLE
  8
CSLAYER1
  6
CONTINUOUS
 62
     2
 10
2451.415420
 20
1748.820114
 40
2.500000
  0
CIRCLE
  8
CSLAYER1
  6
CONTINUOUS
 62
     2
 10
2451.415420
 20
1738.820114
 40
2.500000
  0
CIRCLE
  8
CSLAYER1
  6
CONTINUOUS
 62
     2
 10
2461.415420
 20
1738.820114
 40
2.500000
  0
CIRCLE
  8
CSLAYER1
  6
CONTINUOUS
 62
     2
 10
2461.415420
 20
1748.820114
 40
2.500000
  0
CIRCLE
  8
CSLAYER1
  6
CONTINUOUS
 62
     2
 10
2471.415420
 20
1748.820114
 40
2.500000
  0
CIRCLE
  8
CSLAYER1
  6
CONTINUOUS
 62
     2
 10
2471.415420
 20
1738.820114
 40
2.500000
  0
CIRCLE
  8
CSLAYER1
  6
CONTINUOUS
 62
     2
 10
2481.415420
 20
1738.820114
 40
2.500000
  0
CIRCLE
  8
CSLAYER1
  6
CONTINUOUS
 62
     2
 10
2481.415420
 20
1748.820114
 40
2.500000
  0
CIRCLE
  8
CSLAYER1
  6
CONTINUOUS
 62
     2
 10
2441.415420
 20
1828.820114
 40
2.500000
  0
CIRCLE
  8
CSLAYER1
  6
CONTINUOUS
 62
     2
 10
2441.415420
 20
1838.820114
 40
2.500000
  0
CIRCLE
  8
CSLAYER1
  6
CONTINUOUS
 62
     2
 10
2451.415420
 20
1838.820114
 40
2.500000
  0
CIRCLE
  8
CSLAYER1
  6
CONTINUOUS
 62
     2
 10
2451.415420
 20
1828.820114
 40
2.500000
  0
CIRCLE
  8
CSLAYER1
  6
CONTINUOUS
 62
     2
 10
2461.415420
 20
1828.820114
 40
2.500000
  0
CIRCLE
  8
CSLAYER1
  6
CONTINUOUS
 62
     2
 10
2461.415420
 20
1838.820114
 40
2.500000
  0
CIRCLE
  8
CSLAYER1
  6
CONTINUOUS
 62
     2
 10
2471.415420
 20
1838.820114
 40
2.500000
  0
CIRCLE
  8
CSLAYER1
  6
CONTINUOUS
 62
     2
 10
2471.415420
 20
1828.820114
 40
2.500000
  0
CIRCLE
  8
CSLAYER1
  6
CONTINUOUS
 62
     2
 10
2481.415420
 20
1828.820114
 40
2.500000
  0
CIRCLE
  8
CSLAYER1
  6
CONTINUOUS
 62
     2
 10
2481.415420
 20
1838.820114
 40
2.500000
  0
CIRCLE
  8
CSLAYER1
  6
CONTINUOUS
 62
     2
 10
2441.415420
 20
1818.820114
 40
2.500000
  0
CIRCLE
  8
CSLAYER1
  6
CONTINUOUS
 62
     2
 10
2441.415420
 20
1808.820114
 40
2.500000
  0
CIRCLE
  8
CSLAYER1
  6
CONTINUOUS
 62
     2
 10
2451.415420
 20
1808.820114
 40
2.500000
  0
CIRCLE
  8
CSLAYER1
  6
CONTINUOUS
 62
     2
 10
2451.415420
 20
1818.820114
 40
2.500000
  0
CIRCLE
  8
CSLAYER1
  6
CONTINUOUS
 62
     2
 10
2461.415420
 20
1818.820114
 40
2.500000
  0
CIRCLE
  8
CSLAYER1
  6
CONTINUOUS
 62
     2
 10
2461.415420
 20
1808.820114
 40
2.500000
  0
CIRCLE
  8
CSLAYER1
  6
CONTINUOUS
 62
     2
 10
2471.415420
 20
1808.820114
 40
2.500000
  0
CIRCLE
  8
CSLAYER1
  6
CONTINUOUS
 62
     2
 10
2471.415420
 20
1818.820114
 40
2.500000
  0
CIRCLE
  8
CSLAYER1
  6
CONTINUOUS
 62
     2
 10
2481.415420
 20
1818.820114
 40
2.500000
  0
CIRCLE
  8
CSLAYER1
  6
CONTINUOUS
 62
     2
 10
2481.415420
 20
1808.820114
 40
2.500000
  0
LINE
  8
CSLAYER1
  6
CONTINUOUS
 62
     2
 10
2415.415420
 20
1806.320114
 11
2415.415420
 21
1841.320114
  0
LINE
  8
CSLAYER1
  6
CONTINUOUS
 62
     2
 10
2431.415420
 20
1806.320114
 11
2431.415420
 21
1841.320114
  0
LINE
  8
CSLAYER1
  6
CONTINUOUS
 62
     2
 10
2416.915420
 20
1804.820114
 11
2429.915420
 21
1804.820114
  0
LINE
  8
CSLAYER1
  6
CONTINUOUS
 62
     2
 10
2416.415420
 20
1806.320114
 11
2416.415420
 21
1841.320114
  0
LINE
  8
CSLAYER1
  6
CONTINUOUS
 62
     2
 10
2430.415420
 20
1806.320114
 11
2430.415420
 21
1841.320114
  0
LINE
  8
CSLAYER1
  6
CONTINUOUS
 62
     2
 10
2416.915420
 20
1805.820114
 11
2429.915420
 21
1805.820114
  0
LINE
  8
CSLAYER1
  6
CONTINUOUS
 62
     2
 10
2416.915420
 20
1842.820114
 11
2429.915420
 21
1842.820114
  0
LINE
  8
CSLAYER1
  6
CONTINUOUS
 62
     2
 10
2416.915420
 20
1841.820114
 11
2429.915420
 21
1841.820114
  0
ARC
  8
CSLAYER1
  6
CONTINUOUS
 62
     2
 10
2416.915420
 20
1806.320114
 40
0.500000
 50
180.000000
 51
270.000000
  0
ARC
  8
CSLAYER1
  6
CONTINUOUS
 62
     2
 10
2429.915420
 20
1806.320114
 40
0.500000
 50
270.000000
 51
360.000000
  0
ARC
  8
CSLAYER1
  6
CONTINUOUS
 62
     2
 10
2416.915420
 20
1841.320114
 40
0.500000
 50
90.000000
 51
180.000000
  0
ARC
  8
CSLAYER1
  6
CONTINUOUS
 62
     2
 10
2429.915420
 20
1841.320114
 40
0.500000
 50
-0.000000
 51
90.000000
  0
ARC
  8
CSLAYER1
  6
CONTINUOUS
 62
     2
 10
2416.915420
 20
1806.320114
 40
1.500000
 50
180.000000
 51
270.000000
  0
ARC
  8
CSLAYER1
  6
CONTINUOUS
 62
     2
 10
2429.915420
 20
1806.320114
 40
1.500000
 50
270.000000
 51
360.000000
  0
ARC
  8
CSLAYER1
  6
CONTINUOUS
 62
     2
 10
2416.915420
 20
1841.320114
 40
1.500000
 50
90.000000
 51
180.000000
  0
ARC
  8
CSLAYER1
  6
CONTINUOUS
 62
     2
 10
2429.915420
 20
1841.320114
 40
1.500000
 50
-0.000000
 51
90.000000
  0
LINE
  8
CSLAYER1
  6
CONTINUOUS
 62
     2
 10
2420.415420
 20
1814.820114
 11
2420.415420
 21
1832.820114
  0
LINE
  8
CSLAYER1
  6
CONTINUOUS
 62
     2
 10
2417.337348
 20
1823.820114
 11
2420.415420
 21
1832.820114
  0
LINE
  8
CSLAYER1
  6
CONTINUOUS
 62
     2
 10
2417.337348
 20
1823.820114
 11
2420.415420
 21
1814.820114
  0
TEXT
  8
CSLAYER1
 62
     2
 10
2428.709052
 20
1814.840155
 40
7.066058
 41
1.574983
  1
UP
 50
89.999985
 51
0.000000
  7
EASYDRAW_FONT
 72
     5
 11
2428.709057
 21
1833.388358
  0
LINE
  8
CSLAYER1
  6
CONTINUOUS
 62
     2
 10
2415.415420
 20
1751.320114
 11
2415.415420
 21
1716.320114
  0
LINE
  8
CSLAYER1
  6
CONTINUOUS
 62
     2
 10
2431.415420
 20
1751.320114
 11
2431.415420
 21
1716.320114
  0
LINE
  8
CSLAYER1
  6
CONTINUOUS
 62
     2
 10
2416.915420
 20
1752.820114
 11
2429.915420
 21
1752.820114
  0
LINE
  8
CSLAYER1
  6
CONTINUOUS
 62
     2
 10
2416.415420
 20
1751.320114
 11
2416.415420
 21
1716.320114
  0
LINE
  8
CSLAYER1
  6
CONTINUOUS
 62
     2
 10
2430.415420
 20
1751.320114
 11
2430.415420
 21
1716.320114
  0
LINE
  8
CSLAYER1
  6
CONTINUOUS
 62
     2
 10
2416.915420
 20
1751.820114
 11
2429.915420
 21
1751.820114
  0
LINE
  8
CSLAYER1
  6
CONTINUOUS
 62
     2
 10
2416.915420
 20
1714.820114
 11
2429.915420
 21
1714.820114
  0
LINE
  8
CSLAYER1
  6
CONTINUOUS
 62
     2
 10
2416.915420
 20
1715.820114
 11
2429.915420
 21
1715.820114
  0
ARC
  8
CSLAYER1
  6
CONTINUOUS
 62
     2
 10
2416.915420
 20
1751.320114
 40
0.500000
 50
90.000000
 51
180.000000
  0
ARC
  8
CSLAYER1
  6
CONTINUOUS
 62
     2
 10
2429.915420
 20
1751.320114
 40
0.500000
 50
-0.000000
 51
90.000000
  0
ARC
  8
CSLAYER1
  6
CONTINUOUS
 62
     2
 10
2416.915420
 20
1716.320114
 40
0.500000
 50
180.000000
 51
270.000000
  0
ARC
  8
CSLAYER1
  6
CONTINUOUS
 62
     2
 10
2429.915420
 20
1716.320114
 40
0.500000
 50
270.000000
 51
360.000000
  0
ARC
  8
CSLAYER1
  6
CONTINUOUS
 62
     2
 10
2416.915420
 20
1751.320114
 40
1.500000
 50
90.000000
 51
180.000000
  0
ARC
  8
CSLAYER1
  6
CONTINUOUS
 62
     2
 10
2429.915420
 20
1751.320114
 40
1.500000
 50
-0.000000
 51
90.000000
  0
ARC
  8
CSLAYER1
  6
CONTINUOUS
 62
     2
 10
2416.915420
 20
1716.320114
 40
1.500000
 50
180.000000
 51
270.000000
  0
ARC
  8
CSLAYER1
  6
CONTINUOUS
 62
     2
 10
2429.915420
 20
1716.320114
 40
1.500000
 50
270.000000
 51
360.000000
  0
LINE
  8
CSLAYER1
  6
CONTINUOUS
 62
     2
 10
2425.888350
 20
1742.820114
 11
2425.888350
 21
1724.820114
  0
LINE
  8
CSLAYER1
  6
CONTINUOUS
 62
     2
 10
2428.966422
 20
1733.820114
 11
2425.888350
 21
1724.820114
  0
LINE
  8
CSLAYER1
  6
CONTINUOUS
 62
     2
 10
2428.966422
 20
1733.820114
 11
2425.888350
 21
1742.820114
  0
TEXT
  8
CSLAYER1
 62
     2
 10
2424.278209
 20
1719.122343
 40
6.383575
 41
1.255870
  1
DOWN
 50
89.999985
 51
0.000000
  7
EASYDRAW_FONT
 72
     5
 11
2424.278217
 21
1748.517792
  0
ENDBLK
  8
0
  0
ENDSEC
  0
SECTION
  2
ENTITIES
  0
LINE
  8
CSLAYER1
  6
CONTINUOUS
 62
     3
 10
118.051807
 20
2400.454119
 11
118.051807
 21
51.907189
  0
LINE
  8
CSLAYER1
  6
CONTINUOUS
 62
     3
 10
3440.625117
 20
2400.454119
 11
118.051807
 21
2400.454119
  0
LINE
  8
CSLAYER1
  6
CONTINUOUS
 62
     3
 10
3440.625117
 20
2400.454119
 11
3440.625117
 21
51.907189
  0
LINE
  8
CSLAYER1
  6
CONTINUOUS
 62
     3
 10
3440.625117
 20
51.907189
 11
118.051807
 21
51.907189
  0
LINE
  8
CSLAYER1
  6
CONTINUOUS
 62
     5
 10
68.051807
 20
1211.907189
 11
18.051807
 21
1211.907189
  0
LINE
  8
CSLAYER1
  6
CONTINUOUS
 62
     5
 10
2640.625117
 20
491.907189
 11
3440.625117
 21
491.907189
  0
LINE
  8
CSLAYER1
  6
CONTINUOUS
 62
     5
 10
2640.625117
 20
131.907189
 11
3440.625117
 21
131.907189
  0
LINE
  8
CSLAYER1
  6
CONTINUOUS
 62
     5
 10
2640.625117
 20
291.907189
 11
3440.625117
 21
291.907189
  0
LINE
  8
CSLAYER1
  6
CONTINUOUS
 62
     5
 10
2640.625117
 20
351.907189
 11
3440.625117
 21
351.907189
  0
LINE
  8
CSLAYER1
  6
CONTINUOUS
 62
     5
 10
2640.625117
 20
411.907189
 11
3440.625117
 21
411.907189
  0
LINE
  8
CSLAYER1
  6
CONTINUOUS
 62
     5
 10
2640.625117
 20
571.907189
 11
3440.625117
 21
571.907189
  0
LINE
  8
CSLAYER1
  6
CONTINUOUS
 62
     5
 10
2640.625117
 20
651.907189
 11
2640.625117
 21
51.907189
  0
LINE
  8
CSLAYER1
  6
CONTINUOUS
 62
     5
 10
2840.625117
 20
651.907189
 11
2840.625117
 21
411.907189
  0
LINE
  8
CSLAYER1
  6
CONTINUOUS
 62
     5
 10
2640.625117
 20
651.907189
 11
3440.625117
 21
651.907189
  0
LINE
  8
CSLAYER1
  6
CONTINUOUS
 62
     5
 10
3140.625117
 20
411.907189
 11
3140.625117
 21
131.907189
  0
TEXT
  8
CSLAYER1
 62
     3
 10
2860.316219
 20
60.469913
 40
59.380363
 41
1.003345
  1
東正車輌株式会社
 50
0.000000
 51
0.000000
  7
EASYDRAW_FONT
 72
     5
 11
3317.088566
 21
60.469913
  0
LINE
  8
CSLAYER1
  6
CONTINUOUS
 62
     5
 10
2890.625117
 20
351.907189
 11
2890.625117
 21
131.907189
  0
TEXT
  8
CSLAYER1
 62
     5
 10
2670.625000
 20
586.907166
 40
50.000000
 41
1.050000
  1
品　名
 50
0.000000
 51
0.000000
  7
EASYDRAW_FONT
 72
     5
 11
2810.625000
 21
586.907166
  0
TEXT
  8
CSLAYER1
 62
     5
 10
2670.625000
 20
506.907166
 40
50.000000
 41
1.050000
  1
型　式
 50
0.000000
 51
0.000000
  7
EASYDRAW_FONT
 72
     5
 11
2810.625000
 21
506.907166
  0
TEXT
  8
CSLAYER1
 62
     5
 10
2645.625000
 20
426.907196
 40
50.000000
 41
1.036364
  1
図面番号
 50
0.000000
 51
0.000000
  7
EASYDRAW_FONT
 72
     5
 11
2835.625000
 21
426.907196
  0
TEXT
  8
CSLAYER1
 62
     5
 10
2690.625000
 20
356.907196
 40
50.000000
 41
0.827586
  1
平成２８年４月１６日
 50
0.000000
 51
0.000000
  7
EASYDRAW_FONT
 72
     5
 11
3090.625000
 21
356.907196
  0
TEXT
  8
CSLAYER1
 62
     5
 10
3220.625000
 20
356.907196
 40
50.000000
 41
1.050000
  1
Ｂ－４
 50
0.000000
 51
0.000000
  7
EASYDRAW_FONT
 72
     5
 11
3360.625000
 21
356.907196
  0
TEXT
  8
CSLAYER1
 62
     5
 10
2695.625000
 20
296.907196
 40
50.000000
 41
1.050000
  1
検　図
 50
0.000000
 51
0.000000
  7
EASYDRAW_FONT
 72
     5
 11
2835.625000
 21
296.907196
  0
TEXT
  8
CSLAYER1
 62
     5
 10
2945.625000
 20
296.907196
 40
50.000000
 41
1.050000
  1
作　図
 50
0.000000
 51
0.000000
  7
EASYDRAW_FONT
 72
     5
 11
3085.625000
 21
296.907196
  0
TEXT
  8
CSLAYER1
 62
     5
 10
3220.625000
 20
296.907196
 40
50.000000
 41
1.050000
  1
尺　度
 50
0.000000
 51
0.000000
  7
EASYDRAW_FONT
 72
     5
 11
3360.625000
 21
296.907196
  0
TEXT
  8
CSLAYER1
 62
     5
 10
3321.363770
 20
146.392456
 40
50.000000
 41
1.080000
  1
１０
 50
0.000000
 51
0.000000
  7
EASYDRAW_FONT
 72
     5
 11
3411.363770
 21
146.392456
  0
TEXT
  8
CSLAYER1
 62
     5
 10
3301.044189
 20
194.097153
 40
50.000000
 41
1.200000
  1
／
 50
0.000000
 51
0.000000
  7
EASYDRAW_FONT
 72
     5
 11
3341.044189
 21
194.097153
  0
TEXT
  8
CSLAYER1
 62
     5
 10
3270.831299
 20
229.080597
 40
50.000000
 41
1.200000
  1
１
 50
0.000000
 51
0.000000
  7
EASYDRAW_FONT
 72
     5
 11
3310.831299
 21
229.080597
  0
TEXT
  8
CSLAYER1
 62
     3
 10
2980.625000
 20
586.907166
 40
50.000000
 41
0.834783
  1
ゴールドリフター
 50
0.000000
 51
0.000000
  7
EASYDRAW_FONT
 72
     5
 11
3300.625000
 21
586.907166
  0
TEXT
  8
CSLAYER1
 62
     3
 10
2880.625000
 20
506.907166
 40
50.000000
 41
0.821053
  1
ＧＬＩ－１０００－０６１０
 50
0.000000
 51
0.000000
  7
EASYDRAW_FONT
 72
     5
 11
3400.625000
 21
506.907166
  0
TEXT
  8
CSLAYER1
 62
     3
 10
3040.625000
 20
426.907196
 40
50.000000
 41
0.857143
  1
GI-32
 50
0.000000
 51
0.000000
  7
EASYDRAW_FONT
 72
     5
 11
3240.625000
 21
426.907196
  0
INSERT
  8
CSLAYER1
  2
BLKF0000
 10
0.0
 20
0.0
 30
0.0
  0
LINE
  8
CSLAYER1
  6
CONTINUOUS
 62
     5
 10
1084.228674
 20
983.617442
 11
1111.428674
 21
983.617442
  0
LINE
  8
CSLAYER1
  6
CONTINUOUS
 62
     5
 10
1097.828674
 20
997.217442
 11
1097.828674
 21
970.017442
  0
CIRCLE
  8
CSLAYER1
  6
CONTINUOUS
 62
     4
 10
1097.828674
 20
983.617442
 40
8.000000
  0
LINE
  8
CSLAYER1
  6
CONTINUOUS
 62
     3
 10
181.154444
 20
423.358013
 11
2482.378067
 21
423.358013
  0
LINE
  8
CSLAYER1
  6
CONTINUOUS
 62
     7
 10
1055.828674
 20
488.358013
 11
1055.828674
 21
423.358013
  0
LINE
  8
CSLAYER1
  6
CONTINUOUS
 62
     7
 10
2105.828674
 20
488.358013
 11
2105.828674
 21
423.358013
  0
LINE
  8
CSLAYER1
  6
CONTINUOUS
 62
     7
 10
2105.828674
 20
488.358013
 11
1055.828674
 21
488.358013
  0
LINE
  8
CSLAYER1
  6
CONTINUOUS
 62
     7
 10
1059.028674
 20
1157.817442
 11
2102.803498
 21
1157.817442
  0
LINE
  8
CSLAYER1
  6
CONTINUOUS
 62
     7
 10
1055.828674
 20
1154.617442
 11
1055.828674
 21
1104.817442
  0
LINE
  8
CSLAYER1
  6
CONTINUOUS
 62
     7
 10
2105.828674
 20
1154.817442
 11
2105.828674
 21
1104.817442
  0
LINE
  8
CSLAYER1
  6
CONTINUOUS
 62
     7
 10
2102.628674
 20
1104.817442
 11
2102.628674
 21
1032.617442
  0
ARC
  8
CSLAYER1
  6
CONTINUOUS
 62
     7
 10
2102.828674
 20
1154.817442
 40
3.000000
 50
0.000000
 51
90.000000
  0
LINE
  8
CSLAYER1
  6
CONTINUOUS
 62
     7
 10
1055.828674
 20
1104.817442
 11
2105.828674
 21
1104.817442
  0
LINE
  8
CSLAYER1
  6
CONTINUOUS
 62
     7
 10
2087.628674
 20
1004.617442
 11
1640.628674
 21
1004.617442
  0
LINE
  8
CSLAYER1
  6
CONTINUOUS
 62
     3
 10
1067.828674
 20
1104.817442
 11
1067.828674
 21
964.617442
  0
LINE
  8
CSLAYER1
  6
CONTINUOUS
 62
     3
 10
1117.828674
 20
1104.817442
 11
1117.828674
 21
979.617442
  0
ARC
  8
CSLAYER1
  6
CONTINUOUS
 62
     3
 10
1102.828674
 20
979.617442
 40
15.000000
 50
270.000000
 51
360.000000
  0
LINE
  8
CSLAYER1
  6
CONTINUOUS
 62
     3
 10
1067.828674
 20
964.617442
 11
1102.828674
 21
964.617442
  0
LINE
  8
CSLAYER1
  6
CONTINUOUS
 62
     7
 10
2090.628674
 20
1104.817442
 11
2090.628674
 21
1007.617442
  0
LINE
  8
CSLAYER1
  6
CONTINUOUS
 62
     2
 10
1744.998289
 20
1004.617442
 11
1623.374561
 21
931.458343
  0
POINT
  8
CSLAYER1
 62
     1
 10
1636.029271
 20
939.070403
  0
ARC
  8
CSLAYER1
  6
CONTINUOUS
 62
     1
 10
1636.029271
 20
939.070403
 40
15.050000
 50
269.197215
 51
359.061999
  0
ARC
  8
CSLAYER1
  6
CONTINUOUS
 62
     1
 10
1635.607546
 20
908.973357
 40
15.050000
 50
89.197215
 51
118.570329
  0
ARC
  8
CSLAYER1
  6
CONTINUOUS
 62
     1
 10
1636.029271
 20
939.070403
 40
13.000000
 50
83.396518
 51
338.658978
  0
ARC
  8
CSLAYER1
  6
CONTINUOUS
 62
     1
 10
1636.029271
 20
939.070403
 40
15.050000
 50
62.993497
 51
163.588605
  0
POINT
  8
CSLAYER1
 62
     1
 10
1663.236410
 20
955.436040
  0
POINT
  8
CSLAYER1
 62
     1
 10
1690.443549
 20
971.801677
  0
CIRCLE
  8
CSLAYER1
  6
CONTINUOUS
 62
     1
 10
1636.029271
 20
939.070403
 40
4.770000
  0
CIRCLE
  8
CSLAYER1
  6
CONTINUOUS
 62
     1
 10
1663.236410
 20
955.436040
 40
4.770000
  0
ARC
  8
CSLAYER1
  6
CONTINUOUS
 62
     1
 10
1663.236410
 20
955.436040
 40
13.000000
 50
-96.603482
 51
158.658978
  0
ARC
  8
CSLAYER1
  6
CONTINUOUS
 62
     1
 10
1663.236410
 20
955.436040
 40
15.050000
 50
242.993497
 51
332.858282
  0
ARC
  8
CSLAYER1
  6
CONTINUOUS
 62
     1
 10
1690.443549
 20
971.801677
 40
15.050000
 50
-90.802785
 51
152.858282
  0
ARC
  8
CSLAYER1
  6
CONTINUOUS
 62
     1
 10
1660.246474
 20
929.608530
 40
13.000000
 50
83.396518
 51
158.658978
  0
ARC
  8
CSLAYER1
  6
CONTINUOUS
 62
     1
 10
1639.019206
 20
964.897913
 40
13.000000
 50
263.396518
 51
338.658978
  0
ARC
  8
CSLAYER1
  6
CONTINUOUS
 62
     1
 10
1690.021824
 20
941.704632
 40
15.050000
 50
89.197215
 51
152.858282
  0
ARC
  8
CSLAYER1
  6
CONTINUOUS
 62
     1
 10
1663.658134
 20
985.533086
 40
15.050000
 50
269.197215
 51
332.858282
  0
CIRCLE
  8
CSLAYER1
  6
CONTINUOUS
 62
     4
 10
1636.029271
 20
939.070403
 40
9.525000
  0
CIRCLE
  8
CSLAYER1
  6
CONTINUOUS
 62
     4
 10
1663.236410
 20
955.436040
 40
9.525000
  0
ARC
  8
CSLAYER1
  6
CONTINUOUS
 62
     1
 10
1663.236410
 20
955.436040
 40
15.050000
 50
89.197215
 51
179.061999
  0
ARC
  8
CSLAYER1
  6
CONTINUOUS
 62
     1
 10
1690.443549
 20
971.801677
 40
13.000000
 50
83.396518
 51
338.658978
  0
POINT
  8
CSLAYER1
 62
     5
 10
1717.650688
 20
988.167314
  0
CIRCLE
  8
CSLAYER1
  6
CONTINUOUS
 62
     1
 10
1690.443549
 20
971.801677
 40
4.770000
  0
ARC
  8
CSLAYER1
  6
CONTINUOUS
 62
     1
 10
1717.650688
 20
988.167314
 40
13.000000
 50
-96.603482
 51
158.658978
  0
ARC
  8
CSLAYER1
  6
CONTINUOUS
 62
     1
 10
1714.660753
 20
962.339804
 40
13.000000
 50
83.396518
 51
158.658978
  0
ARC
  8
CSLAYER1
  6
CONTINUOUS
 62
     1
 10
1693.433484
 20
997.629187
 40
13.000000
 50
263.396518
 51
338.658978
  0
CIRCLE
  8
CSLAYER1
  6
CONTINUOUS
 62
     4
 10
1690.443549
 20
971.801677
 40
9.525000
  0
LINE
  8
CSLAYER1
  6
CONTINUOUS
 62
     1
 10
1725.260205
 20
1004.617442
 11
1736.960505
 21
985.166216
  0
LINE
  8
CSLAYER1
  6
CONTINUOUS
 62
     1
 10
1698.492180
 20
990.916868
 11
1711.101663
 21
969.954167
  0
POINT
  8
CSLAYER1
 62
     1
 10
1717.650688
 20
988.167314
  0
CIRCLE
  8
CSLAYER1
  6
CONTINUOUS
 62
     1
 10
1717.650688
 20
988.167314
 40
4.770000
  0
LINE
  8
CSLAYER1
  6
CONTINUOUS
 62
     1
 10
1697.797651
 20
994.416627
 11
1714.756049
 21
1004.617442
  0
LINE
  8
CSLAYER1
  6
CONTINUOUS
 62
     1
 10
1725.014286
 20
1002.702949
 11
1701.359180
 21
988.473931
  0
ARC
  8
CSLAYER1
  6
CONTINUOUS
 62
     1
 10
1719.474437
 20
1003.404838
 40
5.584136
 50
-7.220802
 51
12.541786
  0
ARC
  8
CSLAYER1
  6
CONTINUOUS
 62
     1
 10
1703.158195
 20
979.449791
 40
31.912350
 50
15.281570
 51
46.773927
  0
LINE
  8
CSLAYER1
  6
CONTINUOUS
 62
     1
 10
1710.369719
 20
1000.271600
 11
1724.925646
 21
976.073022
  0
ARC
  8
CSLAYER1
  6
CONTINUOUS
 62
     1
 10
1703.335192
 20
993.696761
 40
5.584136
 50
172.593231
 51
249.276298
  0
ARC
  8
CSLAYER1
  6
CONTINUOUS
 62
     1
 10
1732.143181
 20
996.884838
 40
31.912350
 50
195.281570
 51
226.773927
  0
LINE
  8
CSLAYER1
  6
CONTINUOUS
 62
     1
 10
1713.867889
 20
967.700575
 11
1737.503725
 21
981.918002
  0
LINE
  8
CSLAYER1
  6
CONTINUOUS
 62
     1
 10
1733.942196
 20
987.860698
 11
1710.287090
 21
973.631680
  0
ARC
  8
CSLAYER1
  6
CONTINUOUS
 62
     1
 10
1731.966183
 20
982.637868
 40
5.584136
 50
-7.406769
 51
69.276298
  0
ARC
  8
CSLAYER1
  6
CONTINUOUS
 62
     1
 10
1715.826939
 20
972.929791
 40
5.584136
 50
172.779198
 51
249.462265
  0
LINE
  8
CSLAYER1
  6
CONTINUOUS
 62
     1
 10
1736.929936
 20
1004.617442
 11
1744.228164
 21
992.484465
  0
LINE
  8
CSLAYER1
  6
CONTINUOUS
 62
     1
 10
1743.454984
 20
993.769842
 11
1761.488634
 21
1004.617442
  0
LINE
  8
CSLAYER1
  6
CONTINUOUS
 62
     1
 10
1743.454984
 20
993.769842
 11
1742.001826
 21
991.145279
  0
LINE
  8
CSLAYER1
  6
CONTINUOUS
 62
     1
 10
1737.372821
 20
988.360840
 11
1764.398694
 21
1004.617442
  0
ARC
  8
CSLAYER1
  6
CONTINUOUS
 62
     1
 10
1738.403728
 20
986.647004
 40
2.000000
 50
121.027748
 51
211.027748
  0
POINT
  8
CSLAYER1
 62
     1
 10
1730.504455
 20
995.899111
  0
CIRCLE
  8
CSLAYER1
  6
CONTINUOUS
 62
     4
 10
1908.096766
 20
983.617442
 40
21.000000
  0
CIRCLE
  8
CSLAYER1
  6
CONTINUOUS
 62
     4
 10
1908.096766
 20
983.617442
 40
7.500000
  0
LINE
  8
CSLAYER1
  6
CONTINUOUS
 62
     3
 10
1055.828674
 20
1454.020114
 11
1055.828674
 21
2104.020114
  0
LINE
  8
CSLAYER1
  6
CENTER
 62
     5
 10
515.198800
 20
1198.579780
 11
515.198800
 21
396.919778
  0
LINE
  8
CSLAYER1
  6
CONTINUOUS
 62
     7
 10
1640.628674
 20
1029.617442
 11
1640.628674
 21
1004.617442
  0
LINE
  8
CSLAYER1
  6
CONTINUOUS
 62
     3
 10
2105.828674
 20
2104.020114
 11
2105.828674
 21
1454.020114
  0
LINE
  8
CSLAYER1
  6
CONTINUOUS
 62
     1
 10
1630.603387
 20
953.108290
 11
1701.740738
 21
1004.617442
  0
LINE
  8
CSLAYER1
  6
CONTINUOUS
 62
     1
 10
1784.148993
 20
991.444916
 11
1774.611027
 21
1004.617442
  0
LINE
  8
CSLAYER1
  6
CONTINUOUS
 62
     1
 10
1784.148993
 20
991.444916
 11
1783.925508
 21
990.048473
  0
LINE
  8
CSLAYER1
  6
CONTINUOUS
 62
     1
 10
1660.658082
 20
884.063832
 11
1660.434596
 21
882.667388
  0
LINE
  8
CSLAYER1
  6
CONTINUOUS
 62
     4
 10
1188.310314
 20
488.358013
 11
1454.385301
 21
663.469186
  0
LINE
  8
CSLAYER1
  6
CONTINUOUS
 62
     4
 10
1603.984617
 20
804.518013
 11
1570.881275
 21
763.270915
  0
LINE
  8
CSLAYER1
  6
CONTINUOUS
 62
     4
 10
1820.385248
 20
949.834803
 11
1615.491682
 21
814.988785
  0
ARC
  8
CSLAYER1
  6
CONTINUOUS
 62
     4
 10
1642.979281
 20
773.222388
 40
50.000000
 50
123.350000
 51
141.250806
  0
LINE
  8
CSLAYER1
  6
CONTINUOUS
 62
     4
 10
1640.628674
 20
1006.313779
 11
1574.016541
 21
962.474526
  0
LINE
  8
CSLAYER1
  6
CONTINUOUS
 62
     4
 10
1917.186192
 20
1002.548431
 11
1915.824520
 21
1004.617442
  0
LINE
  8
CSLAYER1
  6
CONTINUOUS
 62
     4
 10
1842.034452
 20
957.726368
 11
1899.455929
 21
964.477538
  0
ARC
  8
CSLAYER1
  6
CONTINUOUS
 62
     4
 10
1847.872847
 20
908.068407
 40
50.000000
 50
96.705606
 51
123.350000
  0
LINE
  8
CSLAYER1
  6
CONTINUOUS
 62
     4
 10
1689.892711
 20
1004.617442
 11
1636.203804
 21
969.283315
  0
LINE
  8
CSLAYER1
  6
CONTINUOUS
 62
     4
 10
1808.127845
 20
1004.617442
 11
1671.937684
 21
914.987000
  0
ARC
  8
CSLAYER1
  6
CONTINUOUS
 62
     4
 10
1654.070744
 20
942.135157
 40
32.500000
 50
123.350000
 51
303.350000
  0
LINE
  8
CSLAYER1
  6
CONTINUOUS
 62
     4
 10
1474.390371
 20
669.452258
 11
1454.385301
 21
663.469186
  0
LINE
  8
CSLAYER1
  6
CONTINUOUS
 62
     4
 10
1474.390371
 20
669.452258
 11
1502.962720
 21
688.256496
  0
LINE
  8
CSLAYER1
  6
CONTINUOUS
 62
     4
 10
1214.789339
 20
997.624686
 11
1117.828674
 21
1000.943428
  0
LINE
  8
CSLAYER1
  6
CONTINUOUS
 62
     4
 10
1214.789339
 20
997.624686
 11
1874.698404
 21
563.320615
  0
LINE
  8
CSLAYER1
  6
CONTINUOUS
 62
     4
 10
1093.956438
 20
964.617442
 11
1434.594229
 21
740.434464
  0
LINE
  8
CSLAYER1
  6
CONTINUOUS
 62
     4
 10
1531.535069
 20
669.452258
 11
1448.002276
 21
724.427457
  0
LINE
  8
CSLAYER1
  6
CONTINUOUS
 62
     4
 10
1531.535069
 20
669.452258
 11
1551.540139
 21
663.469186
  0
LINE
  8
CSLAYER1
  6
CONTINUOUS
 62
     4
 10
1551.540139
 20
663.469186
 11
1817.615127
 21
488.358013
  0
LINE
  8
CSLAYER1
  6
CONTINUOUS
 62
     4
 10
1874.698404
 20
563.320615
 11
1910.069599
 21
488.358013
  0
LINE
  8
CSLAYER1
  6
CONTINUOUS
 62
     4
 10
1448.002276
 20
724.427457
 11
1434.594229
 21
740.434464
  0
LINE
  8
CSLAYER1
  6
CONTINUOUS
 62
     4
 10
1712.976424
 20
669.754240
 11
1606.157319
 21
804.388471
  0
ARC
  8
CSLAYER1
  6
CONTINUOUS
 62
     7
 10
1059.028674
 20
1154.617442
 40
3.200000
 50
90.000000
 51
180.000000
  0
LINE
  8
CSLAYER1
  6
CONTINUOUS
 62
     7
 10
2102.628674
 20
1032.617442
 11
2099.628674
 21
1029.617442
  0
LINE
  8
CSLAYER1
  6
CONTINUOUS
 62
     7
 10
2090.628674
 20
1007.617442
 11
2087.628674
 21
1004.617442
  0
LINE
  8
CSLAYER1
  6
CONTINUOUS
 62
     7
 10
1098.433985
 20
506.275079
 11
1100.846307
 21
498.934367
  0
LINE
  8
CSLAYER1
  6
CONTINUOUS
 62
     7
 10
1098.433985
 20
506.275079
 11
1105.388387
 21
508.560451
  0
LINE
  8
CSLAYER1
  6
CONTINUOUS
 62
     7
 10
1093.647844
 20
530.491248
 11
1103.122752
 21
533.604915
  0
LINE
  8
CSLAYER1
  6
CONTINUOUS
 62
     7
 10
1093.803496
 20
521.967240
 11
1098.908994
 21
506.431178
  0
LINE
  8
CSLAYER1
  6
CONTINUOUS
 62
     7
 10
1108.053757
 20
526.650194
 11
1110.463719
 21
519.316665
  0
LINE
  8
CSLAYER1
  6
CONTINUOUS
 62
     7
 10
1095.342205
 20
541.308235
 11
1105.810133
 21
509.454263
  0
LINE
  8
CSLAYER1
  6
CONTINUOUS
 62
     7
 10
1103.122752
 20
533.604915
 11
1108.053757
 21
526.650194
  0
LINE
  8
CSLAYER1
  6
CONTINUOUS
 62
     7
 10
1093.647844
 20
530.491248
 11
1093.803496
 21
521.967240
  0
LINE
  8
CSLAYER1
  6
CONTINUOUS
 62
     7
 10
1096.613165
 20
543.846907
 11
1100.285333
 21
532.672475
  0
LINE
  8
CSLAYER1
  6
CONTINUOUS
 62
     7
 10
1092.813095
 20
542.598119
 11
1096.485263
 21
531.423687
  0
ARC
  8
CSLAYER1
  6
CONTINUOUS
 62
     7
 10
1087.112991
 20
540.724937
 40
10.000000
 50
18.191680
 51
172.646207
  0
ARC
  8
CSLAYER1
  6
CONTINUOUS
 62
     7
 10
1087.112991
 20
540.724937
 40
6.000000
 50
18.191680
 51
179.490121
  0
LINE
  8
CSLAYER1
  6
CONTINUOUS
 62
     7
 10
1098.528987
 20
506.306299
 11
1100.908355
 21
499.065866
  0
CIRCLE
  8
CSLAYER1
  6
CONTINUOUS
 62
     7
 10
1337.860011
 20
704.099924
 40
14.100000
  0
LINE
  8
CSLAYER1
  6
CONTINUOUS
 62
     7
 10
1181.395037
 20
633.732625
 11
1185.811922
 21
627.632631
  0
LINE
  8
CSLAYER1
  6
CENTER
 62
     5
 10
1271.113463
 20
712.515703
 11
1336.483204
 21
759.848642
  0
CIRCLE
  8
CSLAYER1
  6
CONTINUOUS
 62
     7
 10
1405.668787
 20
626.650134
 40
0.500000
  0
LINE
  8
CSLAYER1
  6
CONTINUOUS
 62
     7
 10
1278.874835
 20
729.294148
 11
1289.404371
 21
736.918378
  0
LINE
  8
CSLAYER1
  6
CONTINUOUS
 62
     7
 10
1067.418616
 20
584.825232
 11
1112.195132
 21
522.986070
  0
LINE
  8
CSLAYER1
  6
CONTINUOUS
 62
     7
 10
1113.586582
 20
618.254545
 11
1131.180957
 21
593.955615
  0
LINE
  8
CSLAYER1
  6
CONTINUOUS
 62
     7
 10
1225.724651
 20
696.982262
 11
1246.909405
 21
667.724795
  0
LINE
  8
CSLAYER1
  6
CONTINUOUS
 62
     7
 10
1285.005777
 20
742.993110
 11
1302.945249
 21
718.217579
  0
LINE
  8
CSLAYER1
  6
CONTINUOUS
 62
     7
 10
1067.418616
 20
584.825232
 11
1113.586582
 21
618.254545
  0
LINE
  8
CSLAYER1
  6
CONTINUOUS
 62
     7
 10
1114.759541
 20
616.634616
 11
1232.204366
 21
701.674095
  0
LINE
  8
CSLAYER1
  6
CONTINUOUS
 62
     7
 10
1239.773062
 20
699.746705
 11
1279.461314
 21
728.484184
  0
LINE
  8
CSLAYER1
  6
CONTINUOUS
 62
     7
 10
1067.418616
 20
584.825232
 11
1071.495527
 21
565.554041
  0
LINE
  8
CSLAYER1
  6
CONTINUOUS
 62
     7
 10
1194.092700
 20
635.804899
 11
1200.960013
 21
626.320712
  0
LINE
  8
CSLAYER1
  6
CONTINUOUS
 62
     7
 10
1128.080609
 20
588.006847
 11
1139.937650
 21
571.631534
  0
LINE
  8
CSLAYER1
  6
CONTINUOUS
 62
     7
 10
1128.751064
 20
592.196178
 11
1242.146068
 21
674.303261
  0
LINE
  8
CSLAYER1
  6
CONTINUOUS
 62
     7
 10
1096.261812
 20
531.350256
 11
1085.326383
 21
546.452767
  0
ARC
  8
CSLAYER1
  6
CONTINUOUS
 62
     7
 10
1130.510502
 20
589.766285
 40
3.000000
 50
125.907555
 51
215.907555
  0
ARC
  8
CSLAYER1
  6
CONTINUOUS
 62
     7
 10
1191.662807
 20
634.045462
 40
3.000000
 50
35.907555
 51
125.907555
  0
LINE
  8
CSLAYER1
  6
CONTINUOUS
 62
     7
 10
1278.874835
 20
729.294148
 11
1293.232370
 21
709.465497
  0
LINE
  8
CSLAYER1
  6
CONTINUOUS
 62
     7
 10
1251.922527
 20
708.543892
 11
1267.829454
 21
686.575435
  0
LINE
  8
CSLAYER1
  6
CONTINUOUS
 62
     7
 10
1234.997253
 20
701.227125
 11
1254.380851
 21
674.457166
  0
ARC
  8
CSLAYER1
  6
CONTINUOUS
 62
     7
 10
1238.013625
 20
702.176598
 40
3.000000
 50
215.907555
 51
305.907555
  0
LINE
  8
CSLAYER1
  6
CONTINUOUS
 62
     7
 10
1196.438617
 20
632.565042
 11
1246.251422
 21
668.633511
  0
LINE
  8
CSLAYER1
  6
CONTINUOUS
 62
     7
 10
1119.451374
 20
610.154901
 11
1230.416485
 21
690.502547
  0
LINE
  8
CSLAYER1
  6
CONTINUOUS
 62
     7
 10
1118.278416
 20
611.774830
 11
1229.243526
 21
692.122476
  0
ARC
  8
CSLAYER1
  6
CONTINUOUS
 62
     7
 10
1233.377324
 20
700.054166
 40
2.000000
 50
35.907555
 51
125.907555
  0
LINE
  8
CSLAYER1
  6
CONTINUOUS
 62
     7
 10
1317.404349
 20
766.452277
 11
1332.831033
 21
745.147064
  0
LINE
  8
CSLAYER1
  6
CONTINUOUS
 62
     7
 10
1327.746266
 20
761.547442
 11
1335.370495
 21
751.017906
  0
LINE
  8
CSLAYER1
  6
CONTINUOUS
 62
     7
 10
1278.039650
 20
727.037410
 11
1287.071429
 21
714.563959
  0
LINE
  8
CSLAYER1
  6
CONTINUOUS
 62
     7
 10
1278.039650
 20
727.037410
 11
1279.659579
 21
728.210368
  0
LINE
  8
CSLAYER1
  6
CONTINUOUS
 62
     7
 10
1273.478657
 20
722.253338
 11
1281.102886
 21
711.723802
  0
LINE
  8
CSLAYER1
  6
CONTINUOUS
 62
     7
 10
1326.686300
 20
762.021420
 11
1322.701726
 21
759.136269
  0
LINE
  8
CSLAYER1
  6
CONTINUOUS
 62
     7
 10
1328.887225
 20
758.981805
 11
1324.902651
 21
756.096654
  0
LINE
  8
CSLAYER1
  6
CONTINUOUS
 62
     7
 10
1273.478657
 20
722.253338
 11
1273.359151
 21
723.408285
  0
LINE
  8
CSLAYER1
  6
CONTINUOUS
 62
     7
 10
1327.746266
 20
761.547442
 11
1326.686300
 21
762.021420
  0
LINE
  8
CSLAYER1
  6
CONTINUOUS
 62
     7
 10
1278.153689
 20
726.879915
 11
1273.359151
 21
723.408285
  0
ARC
  8
CSLAYER1
  6
CONTINUOUS
 62
     7
 10
1276.644438
 20
723.470465
 40
3.285875
 50
191.221060
 51
250.871938
  0
ARC
  8
CSLAYER1
  6
CONTINUOUS
 62
     7
 10
1325.628269
 20
758.938690
 40
3.259241
 50
0.535937
 51
61.473454
  0
ARC
  8
CSLAYER1
  6
CONTINUOUS
 62
     7
 10
1321.499074
 20
748.998929
 40
12.419443
 50
18.319601
 51
53.495509
  0
ARC
  8
CSLAYER1
  6
CONTINUOUS
 62
     7
 10
1287.350077
 20
724.272315
 40
12.419443
 50
198.319601
 51
233.495509
  0
LINE
  8
CSLAYER1
  6
CONTINUOUS
 62
     7
 10
1280.354614
 20
723.840300
 11
1275.560076
 21
720.368670
  0
LINE
  8
CSLAYER1
  6
CONTINUOUS
 62
     7
 10
1272.520515
 20
717.608775
 11
1276.391278
 21
712.263011
  0
LINE
  8
CSLAYER1
  6
CONTINUOUS
 62
     7
 10
1272.676955
 20
718.586286
 11
1274.944855
 21
720.228427
  0
LINE
  8
CSLAYER1
  6
CONTINUOUS
 62
     7
 10
1272.520515
 20
717.608775
 11
1275.355390
 21
719.661452
  0
LINE
  8
CSLAYER1
  6
CONTINUOUS
 62
     7
 10
1272.676955
 20
718.586286
 11
1272.520515
 21
717.608775
  0
LINE
  8
CSLAYER1
  6
CONTINUOUS
 62
     7
 10
1272.676955
 20
718.586286
 11
1277.368788
 21
712.106571
  0
LINE
  8
CSLAYER1
  6
CONTINUOUS
 62
     7
 10
1287.071429
 20
714.563959
 11
1288.691358
 21
715.736918
  0
LINE
  8
CSLAYER1
  6
CONTINUOUS
 62
     7
 10
1281.102886
 20
711.723802
 11
1282.162852
 21
711.249824
  0
LINE
  8
CSLAYER1
  6
CONTINUOUS
 62
     7
 10
1286.957390
 20
714.721454
 11
1282.162852
 21
711.249824
  0
ARC
  8
CSLAYER1
  6
CONTINUOUS
 62
     7
 10
1283.247214
 20
714.351620
 40
3.285875
 50
180.943172
 51
240.594050
  0
LINE
  8
CSLAYER1
  6
CONTINUOUS
 62
     7
 10
1284.756465
 20
717.761069
 11
1279.961927
 21
714.289439
  0
LINE
  8
CSLAYER1
  6
CONTINUOUS
 62
     7
 10
1277.368788
 20
712.106571
 11
1279.636688
 21
713.748713
  0
LINE
  8
CSLAYER1
  6
CONTINUOUS
 62
     7
 10
1276.391278
 20
712.263011
 11
1279.226153
 21
714.315688
  0
LINE
  8
CSLAYER1
  6
CONTINUOUS
 62
     7
 10
1277.368788
 20
712.106571
 11
1276.391278
 21
712.263011
  0
LINE
  8
CSLAYER1
  6
CONTINUOUS
 62
     7
 10
1283.241819
 20
723.263071
 11
1283.810933
 21
719.066908
  0
LINE
  8
CSLAYER1
  6
CONTINUOUS
 62
     7
 10
1285.005777
 20
742.993110
 11
1317.404349
 21
766.452277
  0
LINE
  8
CSLAYER1
  6
CONTINUOUS
 62
     4
 10
1131.227036
 20
563.320615
 11
1095.855842
 21
488.358013
  0
LINE
  8
CSLAYER1
  6
CONTINUOUS
 62
     7
 10
1082.905201
 20
549.796569
 11
1071.495527
 21
565.554041
  0
CIRCLE
  8
CSLAYER1
  6
CONTINUOUS
 62
     7
 10
1502.962720
 20
716.987728
 40
9.000000
  0
CIRCLE
  8
CSLAYER1
  6
CONTINUOUS
 62
     7
 10
1502.962720
 20
716.987728
 40
10.000000
  0
CIRCLE
  8
CSLAYER1
  6
CONTINUOUS
 62
     7
 10
1502.962720
 20
716.987728
 40
15.000000
  0
LINE
  8
CSLAYER1
  6
CONTINUOUS
 62
     7
 10
1517.962720
 20
725.647982
 11
1502.962720
 21
734.308236
  0
LINE
  8
CSLAYER1
  6
CONTINUOUS
 62
     7
 10
1502.962720
 20
734.308236
 11
1487.962720
 21
725.647982
  0
LINE
  8
CSLAYER1
  6
CONTINUOUS
 62
     7
 10
1487.962720
 20
725.647982
 11
1487.962720
 21
708.327474
  0
LINE
  8
CSLAYER1
  6
CONTINUOUS
 62
     7
 10
1487.962720
 20
708.327474
 11
1502.962720
 21
699.667219
  0
LINE
  8
CSLAYER1
  6
CONTINUOUS
 62
     7
 10
1502.962720
 20
699.667219
 11
1517.962720
 21
708.327474
  0
LINE
  8
CSLAYER1
  6
CONTINUOUS
 62
     7
 10
1517.962720
 20
708.327474
 11
1517.962720
 21
725.647982
  0
LINE
  8
CSLAYER1
  6
CONTINUOUS
 62
     5
 10
1470.297332
 20
716.987728
 11
1534.899096
 21
716.987728
  0
LINE
  8
CSLAYER1
  6
CONTINUOUS
 62
     5
 10
1502.962720
 20
751.849806
 11
1502.962720
 21
692.661661
  0
LINE
  8
CSLAYER1
  6
CONTINUOUS
 62
     5
 10
1908.096766
 20
470.358013
 11
1908.096766
 21
430.358013
  0
LINE
  8
CSLAYER1
  6
CONTINUOUS
 62
     5
 10
1888.096766
 20
450.358013
 11
1928.096766
 21
450.358013
  0
LINE
  8
CSLAYER1
  6
CONTINUOUS
 62
     5
 10
1874.476114
 20
983.936314
 11
1939.017960
 21
983.936314
  0
LINE
  8
CSLAYER1
  6
CONTINUOUS
 62
     5
 10
1908.096766
 20
1012.790754
 11
1908.096766
 21
952.687064
  0
LINE
  8
CSLAYER1
  6
CONTINUOUS
 62
     5
 10
1309.239201
 20
704.099924
 11
1360.176453
 21
704.099924
  0
LINE
  8
CSLAYER1
  6
CONTINUOUS
 62
     5
 10
1337.860011
 20
730.435927
 11
1337.860011
 21
680.738219
  0
LINE
  8
CSLAYER1
  6
CONTINUOUS
 62
     5
 10
1080.588674
 20
450.358013
 11
1112.966617
 21
450.358013
  0
LINE
  8
CSLAYER1
  6
CONTINUOUS
 62
     5
 10
1097.828674
 20
466.846268
 11
1097.828674
 21
434.697347
  0
LINE
  8
CSLAYER1
  6
CONTINUOUS
 62
     5
 10
3403.790621
 20
1867.952866
 11
2682.918104
 21
1867.952866
  0
LINE
  8
CSLAYER1
  6
CONTINUOUS
 62
     5
 10
3403.790621
 20
1803.952868
 11
2682.918104
 21
1803.952868
  0
LINE
  8
CSLAYER1
  6
CONTINUOUS
 62
     5
 10
3403.790621
 20
1739.952870
 11
2682.918104
 21
1739.952870
  0
LINE
  8
CSLAYER1
  6
CONTINUOUS
 62
     5
 10
3403.790621
 20
1675.952871
 11
2683.790639
 21
1675.952871
  0
LINE
  8
CSLAYER1
  6
CONTINUOUS
 62
     5
 10
3403.790621
 20
1611.952873
 11
2682.918104
 21
1611.952873
  0
LINE
  8
CSLAYER1
  6
CONTINUOUS
 62
     5
 10
3403.790621
 20
1547.952874
 11
2682.918104
 21
1547.952874
  0
LINE
  8
CSLAYER1
  6
CONTINUOUS
 62
     5
 10
3403.790621
 20
1483.952876
 11
2682.918104
 21
1483.952876
  0
LINE
  8
CSLAYER1
  6
CONTINUOUS
 62
     5
 10
3403.790621
 20
1419.952878
 11
2682.918104
 21
1419.952878
  0
LINE
  8
CSLAYER1
  6
CONTINUOUS
 62
     5
 10
3403.790621
 20
1355.952879
 11
2682.918104
 21
1355.952879
  0
TEXT
  8
CSLAYER1
 62
     3
 10
2994.503418
 20
1971.856689
 40
40.000000
 41
0.857143
  1
仕   様
 50
0.000000
 51
0.000000
  7
EASYDRAW_FONT
 72
     5
 11
3154.503418
 21
1971.856689
  0
TEXT
  8
CSLAYER1
 62
     3
 10
2693.677490
 20
1876.175537
 40
40.000000
 41
0.847059
  1
型    式
 50
0.000000
 51
0.000000
  7
EASYDRAW_FONT
 72
     5
 11
2885.677490
 21
1876.175537
  0
TEXT
  8
CSLAYER1
 62
     3
 10
2691.857910
 20
1753.685791
 40
40.000000
 41
0.847059
  1
テーブル寸法
 50
0.000000
 51
0.000000
  7
EASYDRAW_FONT
 72
     5
 11
2883.857910
 21
1753.685791
  0
TEXT
  8
CSLAYER1
 62
     3
 10
2693.677490
 20
1690.621826
 40
40.000000
 41
0.847059
  1
テーブル高サ
 50
0.000000
 51
0.000000
  7
EASYDRAW_FONT
 72
     5
 11
2885.677490
 21
1690.621826
  0
TEXT
  8
CSLAYER1
 62
     3
 10
2695.124268
 20
1625.739014
 40
40.000000
 41
0.857143
  1
ストローク
 50
0.000000
 51
0.000000
  7
EASYDRAW_FONT
 72
     5
 11
2855.124268
 21
1625.739014
  0
TEXT
  8
CSLAYER1
 62
     3
 10
2694.518066
 20
1560.856201
 40
40.000000
 41
0.857143
  1
全   長
 50
0.000000
 51
0.000000
  7
EASYDRAW_FONT
 72
     5
 11
2854.518066
 21
1560.856201
  0
TEXT
  8
CSLAYER1
 62
     3
 10
2696.789307
 20
1495.005615
 40
40.000000
 41
0.857143
  1
全   巾
 50
0.000000
 51
0.000000
  7
EASYDRAW_FONT
 72
     5
 11
2856.789307
 21
1495.005615
  0
TEXT
  8
CSLAYER1
 62
     3
 10
2695.231445
 20
1431.120361
 40
40.000000
 41
0.857143
  1
全   高
 50
0.000000
 51
0.000000
  7
EASYDRAW_FONT
 72
     5
 11
2855.231445
 21
1431.120361
  0
TEXT
  8
CSLAYER1
 62
     3
 10
2695.231445
 20
1368.793701
 40
40.000000
 41
0.857143
  1
リフト方式
 50
0.000000
 51
0.000000
  7
EASYDRAW_FONT
 72
     5
 11
2855.231445
 21
1368.793701
  0
TEXT
  8
CSLAYER1
 62
     3
 10
3147.099854
 20
1814.684326
 40
40.000000
 41
0.872727
  1
1000
 50
0.000000
 51
0.000000
  7
EASYDRAW_FONT
 72
     5
 11
3275.099854
 21
1814.684326
  0
TEXT
  8
CSLAYER1
 62
     3
 10
3333.256592
 20
1811.010986
 40
40.000000
 41
0.960000
  1
Ｋｇ
 50
0.000000
 51
0.000000
  7
EASYDRAW_FONT
 72
     5
 11
3397.256592
 21
1811.010986
  0
TEXT
  8
CSLAYER1
 62
     3
 10
2985.984131
 20
1750.180908
 40
40.000000
 41
0.830769
  1
1050 ×650
 50
0.000000
 51
0.000000
  7
EASYDRAW_FONT
 72
     5
 11
3273.984131
 21
1750.180908
  0
TEXT
  8
CSLAYER1
 62
     3
 10
3279.438477
 20
1761.867432
 40
40.000000
 41
1.200000
  1
Ｗ
 50
0.000000
 51
0.000000
  7
EASYDRAW_FONT
 72
     5
 11
3311.438477
 21
1761.867432
  0
TEXT
  8
CSLAYER1
 62
     3
 10
3108.517822
 20
1766.004150
 40
40.000000
 41
1.200000
  1
Ｌ
 50
0.000000
 51
0.000000
  7
EASYDRAW_FONT
 72
     5
 11
3140.517822
 21
1766.004150
  0
TEXT
  8
CSLAYER1
 62
     3
 10
3046.691650
 20
1687.647217
 40
40.000000
 41
0.840000
  1
205～705
 50
0.000000
 51
0.000000
  7
EASYDRAW_FONT
 72
     5
 11
3270.691650
 21
1687.647217
  0
TEXT
  8
CSLAYER1
 62
     3
 10
3172.938232
 20
1623.972412
 40
40.000000
 41
0.900000
  1
500
 50
0.000000
 51
0.000000
  7
EASYDRAW_FONT
 72
     5
 11
3268.938232
 21
1623.972412
  0
TEXT
  8
CSLAYER1
 62
     3
 10
3143.315918
 20
1560.401611
 40
40.000000
 41
0.872727
  1
1050
 50
0.000000
 51
0.000000
  7
EASYDRAW_FONT
 72
     5
 11
3271.315918
 21
1560.401611
  0
TEXT
  8
CSLAYER1
 62
     3
 10
3175.057373
 20
1495.882568
 40
40.000000
 41
0.900000
  1
650
 50
0.000000
 51
0.000000
  7
EASYDRAW_FONT
 72
     5
 11
3271.057373
 21
1495.882568
  0
TEXT
  8
CSLAYER1
 62
     3
 10
2966.268555
 20
1369.748291
 40
40.000000
 41
0.827586
  1
電 動 ボールネジ式
 50
0.000000
 51
0.000000
  7
EASYDRAW_FONT
 72
     5
 11
3286.268555
 21
1369.748291
  0
TEXT
  8
CSLAYER1
 62
     3
 10
3173.048584
 20
1431.220947
 40
40.000000
 41
0.900000
  1
205
 50
0.000000
 51
0.000000
  7
EASYDRAW_FONT
 72
     5
 11
3269.048584
 21
1431.220947
  0
TEXT
  8
CSLAYER1
 62
     3
 10
3330.742432
 20
1746.907471
 40
40.000000
 41
0.960000
  1
mm
 50
0.000000
 51
0.000000
  7
EASYDRAW_FONT
 72
     5
 11
3394.742432
 21
1746.907471
  0
TEXT
  8
CSLAYER1
 62
     3
 10
3330.742432
 20
1686.574463
 40
40.000000
 41
0.960000
  1
mm
 50
0.000000
 51
0.000000
  7
EASYDRAW_FONT
 72
     5
 11
3394.742432
 21
1686.574463
  0
TEXT
  8
CSLAYER1
 62
     3
 10
3326.971680
 20
1622.470459
 40
40.000000
 41
0.960000
  1
mm
 50
0.000000
 51
0.000000
  7
EASYDRAW_FONT
 72
     5
 11
3390.971680
 21
1622.470459
  0
TEXT
  8
CSLAYER1
 62
     3
 10
3326.971680
 20
1554.595459
 40
40.000000
 41
0.960000
  1
mm
 50
0.000000
 51
0.000000
  7
EASYDRAW_FONT
 72
     5
 11
3390.971680
 21
1554.595459
  0
TEXT
  8
CSLAYER1
 62
     3
 10
3324.458252
 20
1494.262451
 40
40.000000
 41
0.960000
  1
mm
 50
0.000000
 51
0.000000
  7
EASYDRAW_FONT
 72
     5
 11
3388.458252
 21
1494.262451
  0
TEXT
  8
CSLAYER1
 62
     3
 10
3324.458252
 20
1430.157959
 40
40.000000
 41
0.960000
  1
mm
 50
0.000000
 51
0.000000
  7
EASYDRAW_FONT
 72
     5
 11
3388.458252
 21
1430.157959
  0
LINE
  8
CSLAYER1
  6
CONTINUOUS
 62
     5
 10
3182.556492
 20
1956.037672
 11
2974.170520
 21
1956.037672
  0
LINE
  8
CSLAYER1
  6
CONTINUOUS
 62
     5
 10
3182.556492
 20
1964.037671
 11
2974.170520
 21
1964.037671
  0
LINE
  8
CSLAYER1
  6
PHANTOM
 62
     5
 10
1055.828674
 20
628.358013
 11
2105.828674
 21
628.358013
  0
LINE
  8
CSLAYER1
  6
PHANTOM
 62
     5
 10
1055.828674
 20
575.358013
 11
2105.828674
 21
575.358013
  0
LINE
  8
CSLAYER1
  6
PHANTOM
 62
     5
 10
1055.828674
 20
628.358013
 11
1055.828674
 21
575.358013
  0
LINE
  8
CSLAYER1
  6
PHANTOM
 62
     5
 10
2105.828674
 20
628.358013
 11
2105.828674
 21
575.358013
  0
DIMENSION
  8
CSLAYER1
 62
     7
  2
*D0000
 10
2205.828674
 20
628.358013
 11
2255.718262
 21
525.920166
 13
2105.828674
 23
423.358013
 14
2105.828674
 24
628.358013
 50
90.000000
 70
1
  0
DIMENSION
  8
CSLAYER1
 62
     7
  2
*D0001
 10
2205.828674
 20
628.358013
 11
2195.828369
 21
893.087646
 13
2205.828674
 23
1157.817442
 14
2205.828674
 24
628.358013
 50
90.000000
 70
1
  0
DIMENSION
  8
CSLAYER1
 62
     7
  2
*D0002
 10
2305.828674
 20
1157.817442
 11
2295.828369
 21
790.587646
 13
2102.803498
 23
423.358013
 14
2102.803498
 24
1157.817442
 50
90.000000
 70
1
  0
DIMENSION
  8
CSLAYER1
 62
     7
  2
*D0003
 10
2105.828674
 20
1250.686780
 11
1580.828735
 21
1260.686768
 13
1055.828674
 23
1154.617442
 14
2105.828674
 24
1154.817442
  0
DIMENSION
  8
CSLAYER1
 62
     7
  2
*D0004
 10
2105.828674
 20
311.873995
 11
1580.828735
 21
321.874023
 13
1055.828674
 23
423.358013
 14
2105.828674
 24
423.358013
 52
270.000000
 70
1
  0
LINE
  8
CSLAYER1
  6
CONTINUOUS
 62
     3
 10
1200.603498
 20
1029.617442
 11
2099.628674
 21
1029.617442
  0
LINE
  8
CSLAYER1
  6
CONTINUOUS
 62
     4
 10
1578.139627
 20
966.189757
 11
1444.933627
 21
846.160481
  0
LINE
  8
CSLAYER1
  6
CONTINUOUS
 62
     7
 10
1335.490001
 20
749.862959
 11
1331.505427
 21
746.977808
  0
LINE
  8
CSLAYER1
  6
CONTINUOUS
 62
     7
 10
1333.289076
 20
752.902575
 11
1329.304502
 21
750.017424
  0
LINE
  8
CSLAYER1
  6
CONTINUOUS
 62
     7
 10
1335.370495
 20
751.017906
 11
1335.490001
 21
749.862959
  0
ARC
  8
CSLAYER1
  6
CONTINUOUS
 62
     7
 10
1332.231045
 20
749.819845
 40
3.259241
 50
10.341657
 51
71.279173
  0
LINE
  8
CSLAYER1
  6
CONTINUOUS
 62
     4
 10
1372.761916
 20
781.127988
 11
1131.089002
 21
563.361334
  0
TEXT
  8
CSLAYER2
 62
     5
 10
2911.521820
 20
1876.255758
 40
40.809284
 41
0.899282
  1
GLI-1000-0610
 50
0.000000
 51
0.000000
  7
EASYDRAW_FONT
 72
     5
 11
3376.376617
 21
1876.255758
  0
LINE
  8
CSLAYER1
  6
CONTINUOUS
 62
     4
 10
190.198800
 20
1157.817442
 11
840.198800
 21
1157.817442
  0
LINE
  8
CSLAYER1
  6
CONTINUOUS
 62
     4
 10
358.198800
 20
1054.617442
 11
358.198800
 21
1004.866051
  0
LINE
  8
CSLAYER1
  6
CONTINUOUS
 62
     4
 10
383.198800
 20
1004.866051
 11
383.198800
 21
1054.617442
  0
LINE
  8
CSLAYER1
  6
CONTINUOUS
 62
     4
 10
367.698800
 20
1054.617442
 11
367.698800
 21
1029.866051
  0
LINE
  8
CSLAYER1
  6
CONTINUOUS
 62
     4
 10
373.698800
 20
1054.617442
 11
373.698800
 21
1029.866051
  0
LINE
  8
CSLAYER1
  6
CONTINUOUS
 62
     4
 10
190.198800
 20
1104.817442
 11
840.198800
 21
1104.817442
  0
LINE
  8
CSLAYER1
  6
CENTER
 62
     5
 10
313.172732
 20
983.617442
 11
717.224868
 21
983.617442
  0
LINE
  8
CSLAYER1
  6
CONTINUOUS
 62
     4
 10
387.198800
 20
993.617442
 11
392.198800
 21
993.617442
  0
LINE
  8
CSLAYER1
  6
CONTINUOUS
 62
     4
 10
387.198800
 20
973.617442
 11
392.198800
 21
973.617442
  0
LINE
  8
CSLAYER1
  6
CENTER
 62
     5
 10
384.217105
 20
1032.674876
 11
644.788284
 21
1032.674876
  0
LINE
  8
CSLAYER1
  6
CONTINUOUS
 62
     4
 10
484.948800
 20
1002.424876
 11
460.698800
 21
1002.424876
  0
LINE
  8
CSLAYER1
  6
CONTINUOUS
 62
     4
 10
414.198800
 20
1010.674876
 11
458.698800
 21
1010.674876
  0
LINE
  8
CSLAYER1
  6
CONTINUOUS
 62
     4
 10
458.698800
 20
1004.424876
 11
458.698800
 21
1054.617442
  0
LINE
  8
CSLAYER1
  6
CONTINUOUS
 62
     4
 10
458.698800
 20
1004.424876
 11
460.698800
 21
1002.424876
  0
LINE
  8
CSLAYER1
  6
CONTINUOUS
 62
     4
 10
414.198800
 20
1010.674876
 11
409.198800
 21
1015.674876
  0
LINE
  8
CSLAYER1
  6
CONTINUOUS
 62
     4
 10
414.198800
 20
1010.674876
 11
414.198800
 21
1054.617442
  0
LINE
  8
CSLAYER1
  6
CONTINUOUS
 62
     4
 10
431.698800
 20
970.092186
 11
431.698800
 21
1010.674876
  0
LINE
  8
CSLAYER1
  6
CONTINUOUS
 62
     4
 10
430.198800
 20
962.092186
 11
430.198800
 21
1010.674876
  0
LINE
  8
CSLAYER1
  6
CONTINUOUS
 62
     4
 10
448.698800
 20
970.092186
 11
448.698800
 21
1010.674876
  0
LINE
  8
CSLAYER1
  6
CONTINUOUS
 62
     4
 10
450.198800
 20
962.092186
 11
450.198800
 21
1010.674876
  0
POINT
  8
CSLAYER1
 62
     4
 10
440.198800
 20
945.092184
  0
LINE
  8
CSLAYER1
  6
CONTINUOUS
 62
     5
 10
426.073424
 20
945.092186
 11
454.312514
 21
945.092186
  0
LINE
  8
CSLAYER1
  6
CONTINUOUS
 62
     4
 10
430.198800
 20
970.092186
 11
450.198800
 21
970.092186
  0
LINE
  8
CSLAYER1
  6
CONTINUOUS
 62
     4
 10
431.698800
 20
970.092186
 11
430.198800
 21
967.494110
  0
LINE
  8
CSLAYER1
  6
CONTINUOUS
 62
     4
 10
448.698800
 20
970.092186
 11
450.198800
 21
967.494110
  0
LINE
  8
CSLAYER1
  6
CONTINUOUS
 62
     4
 10
452.723800
 20
960.092184
 11
427.673800
 21
960.092184
  0
POINT
  8
CSLAYER1
 62
     4
 10
440.198800
 20
913.342184
  0
LINE
  8
CSLAYER1
  6
CONTINUOUS
 62
     4
 10
426.673800
 20
959.092184
 11
426.673800
 21
866.542184
  0
LINE
  8
CSLAYER1
  6
CONTINUOUS
 62
     4
 10
430.673800
 20
928.392184
 11
430.673800
 21
866.542184
  0
LINE
  8
CSLAYER1
  6
CONTINUOUS
 62
     4
 10
430.673800
 20
928.392184
 11
426.673800
 21
928.392184
  0
LINE
  8
CSLAYER1
  6
CONTINUOUS
 62
     4
 10
431.673800
 20
903.817184
 11
448.723800
 21
903.817184
  0
LINE
  8
CSLAYER1
  6
CONTINUOUS
 62
     4
 10
431.673800
 20
922.867184
 11
448.723800
 21
922.867184
  0
ARC
  8
CSLAYER1
  6
CONTINUOUS
 62
     4
 10
431.673800
 20
904.817184
 40
1.000000
 50
180.000000
 51
270.000000
  0
ARC
  8
CSLAYER1
  6
CONTINUOUS
 62
     4
 10
431.673800
 20
921.867184
 40
1.000000
 50
90.000000
 51
180.000000
  0
LINE
  8
CSLAYER1
  6
CONTINUOUS
 62
     4
 10
453.723800
 20
959.092184
 11
453.723800
 21
865.842184
  0
LINE
  8
CSLAYER1
  6
CONTINUOUS
 62
     4
 10
449.723800
 20
928.392184
 11
449.723800
 21
866.542184
  0
LINE
  8
CSLAYER1
  6
CONTINUOUS
 62
     4
 10
449.723800
 20
928.392184
 11
453.723800
 21
928.392184
  0
ARC
  8
CSLAYER1
  6
CONTINUOUS
 62
     4
 10
448.723800
 20
904.817184
 40
1.000000
 50
270.000000
 51
360.000000
  0
ARC
  8
CSLAYER1
  6
CONTINUOUS
 62
     4
 10
448.723800
 20
921.867184
 40
1.000000
 50
0.000000
 51
90.000000
  0
LINE
  8
CSLAYER1
  6
CONTINUOUS
 62
     4
 10
420.448800
 20
909.572184
 11
420.448800
 21
917.121911
  0
LINE
  8
CSLAYER1
  6
CONTINUOUS
 62
     4
 10
426.673800
 20
900.342184
 11
422.298800
 21
900.342184
  0
LINE
  8
CSLAYER1
  6
CONTINUOUS
 62
     4
 10
426.673800
 20
958.092184
 11
422.298800
 21
958.092184
  0
LINE
  8
CSLAYER1
  6
CONTINUOUS
 62
     4
 10
422.298800
 20
908.572184
 11
421.448800
 21
908.572184
  0
LINE
  8
CSLAYER1
  6
CONTINUOUS
 62
     4
 10
422.298800
 20
918.121911
 11
421.448800
 21
918.121911
  0
ARC
  8
CSLAYER1
  6
CONTINUOUS
 62
     4
 10
421.448800
 20
909.572184
 40
1.000000
 50
180.000000
 51
270.000000
  0
ARC
  8
CSLAYER1
  6
CONTINUOUS
 62
     4
 10
421.448800
 20
917.121911
 40
1.000000
 50
90.000000
 51
180.000000
  0
LINE
  8
CSLAYER1
  6
CONTINUOUS
 62
     4
 10
420.448800
 20
941.322184
 11
420.448800
 21
948.871911
  0
LINE
  8
CSLAYER1
  6
CONTINUOUS
 62
     4
 10
422.298800
 20
940.322184
 11
421.448800
 21
940.322184
  0
LINE
  8
CSLAYER1
  6
CONTINUOUS
 62
     4
 10
422.298800
 20
949.871911
 11
421.448800
 21
949.871911
  0
ARC
  8
CSLAYER1
  6
CONTINUOUS
 62
     4
 10
421.448800
 20
941.322184
 40
1.000000
 50
180.000000
 51
270.000000
  0
ARC
  8
CSLAYER1
  6
CONTINUOUS
 62
     4
 10
421.448800
 20
948.871911
 40
1.000000
 50
90.000000
 51
180.000000
  0
LINE
  8
CSLAYER1
  6
CONTINUOUS
 62
     4
 10
459.948800
 20
909.572184
 11
459.948800
 21
917.121911
  0
LINE
  8
CSLAYER1
  6
CONTINUOUS
 62
     4
 10
453.723800
 20
900.342184
 11
458.098800
 21
900.342184
  0
LINE
  8
CSLAYER1
  6
CONTINUOUS
 62
     4
 10
453.723800
 20
958.092184
 11
458.098800
 21
958.092184
  0
LINE
  8
CSLAYER1
  6
CONTINUOUS
 62
     4
 10
458.098800
 20
908.572184
 11
458.948800
 21
908.572184
  0
LINE
  8
CSLAYER1
  6
CONTINUOUS
 62
     4
 10
458.098800
 20
918.121911
 11
458.948800
 21
918.121911
  0
ARC
  8
CSLAYER1
  6
CONTINUOUS
 62
     4
 10
458.948800
 20
909.572184
 40
1.000000
 50
270.000000
 51
360.000000
  0
ARC
  8
CSLAYER1
  6
CONTINUOUS
 62
     4
 10
458.948800
 20
917.121911
 40
1.000000
 50
0.000000
 51
90.000000
  0
LINE
  8
CSLAYER1
  6
CONTINUOUS
 62
     4
 10
463.048800
 20
941.322184
 11
463.048800
 21
948.871911
  0
LINE
  8
CSLAYER1
  6
CONTINUOUS
 62
     4
 10
458.098800
 20
940.322184
 11
462.048800
 21
940.322184
  0
LINE
  8
CSLAYER1
  6
CONTINUOUS
 62
     4
 10
458.098800
 20
949.871911
 11
462.048800
 21
949.871911
  0
ARC
  8
CSLAYER1
  6
CONTINUOUS
 62
     4
 10
462.048800
 20
941.322184
 40
1.000000
 50
270.000000
 51
360.000000
  0
ARC
  8
CSLAYER1
  6
CONTINUOUS
 62
     4
 10
462.048800
 20
948.871911
 40
1.000000
 50
0.000000
 51
90.000000
  0
LINE
  8
CSLAYER1
  6
CONTINUOUS
 62
     4
 10
453.723800
 20
949.871911
 11
426.673800
 21
949.871911
  0
LINE
  8
CSLAYER1
  6
CONTINUOUS
 62
     4
 10
453.723800
 20
940.322184
 11
426.673800
 21
940.322184
  0
LINE
  8
CSLAYER1
  6
CONTINUOUS
 62
     4
 10
451.723800
 20
930.092184
 11
428.673800
 21
930.092184
  0
ARC
  8
CSLAYER1
  6
CONTINUOUS
 62
     4
 10
428.673800
 20
932.092184
 40
2.000000
 50
180.000000
 51
270.000000
  0
ARC
  8
CSLAYER1
  6
CONTINUOUS
 62
     4
 10
451.723800
 20
932.092184
 40
2.000000
 50
270.000000
 51
360.000000
  0
ARC
  8
CSLAYER1
  6
CONTINUOUS
 62
     4
 10
452.198800
 20
962.092184
 40
2.000000
 50
180.000000
 51
270.000000
  0
ARC
  8
CSLAYER1
  6
CONTINUOUS
 62
     4
 10
428.198800
 20
962.092184
 40
2.000000
 50
270.000000
 51
360.000000
  0
ARC
  8
CSLAYER1
  6
CONTINUOUS
 62
     4
 10
452.723800
 20
959.092184
 40
1.000000
 50
0.000000
 51
90.000000
  0
ARC
  8
CSLAYER1
  6
CONTINUOUS
 62
     4
 10
427.673800
 20
959.092184
 40
1.000000
 50
90.000000
 51
180.000000
  0
POINT
  8
CSLAYER1
 62
     4
 10
440.198800
 20
960.092184
  0
LINE
  8
CSLAYER1
  6
CONTINUOUS
 62
     4
 10
422.298800
 20
900.342184
 11
422.298800
 21
958.092184
  0
LINE
  8
CSLAYER1
  6
CONTINUOUS
 62
     4
 10
458.098800
 20
900.342184
 11
458.098800
 21
958.092184
  0
POINT
  8
CSLAYER1
 62
     4
 10
440.198800
 20
881.592184
  0
LINE
  8
CSLAYER1
  6
CONTINUOUS
 62
     4
 10
430.673800
 20
866.542184
 11
426.673800
 21
866.542184
  0
LINE
  8
CSLAYER1
  6
CONTINUOUS
 62
     4
 10
431.673800
 20
891.117184
 11
448.723800
 21
891.117184
  0
LINE
  8
CSLAYER1
  6
CONTINUOUS
 62
     4
 10
431.673800
 20
872.067184
 11
448.723800
 21
872.067184
  0
ARC
  8
CSLAYER1
  6
CONTINUOUS
 62
     4
 10
431.673800
 20
890.117184
 40
1.000000
 50
90.000000
 51
180.000000
  0
ARC
  8
CSLAYER1
  6
CONTINUOUS
 62
     4
 10
431.673800
 20
873.067184
 40
1.000000
 50
180.000000
 51
270.000000
  0
LINE
  8
CSLAYER1
  6
CONTINUOUS
 62
     4
 10
449.723800
 20
866.542184
 11
453.723800
 21
866.542184
  0
ARC
  8
CSLAYER1
  6
CONTINUOUS
 62
     4
 10
448.723800
 20
890.117184
 40
1.000000
 50
0.000000
 51
90.000000
  0
ARC
  8
CSLAYER1
  6
CONTINUOUS
 62
     4
 10
448.723800
 20
873.067184
 40
1.000000
 50
270.000000
 51
360.000000
  0
LINE
  8
CSLAYER1
  6
CONTINUOUS
 62
     4
 10
420.448800
 20
885.362184
 11
420.448800
 21
877.812458
  0
LINE
  8
CSLAYER1
  6
CONTINUOUS
 62
     4
 10
426.673800
 20
894.592184
 11
422.298800
 21
894.592184
  0
LINE
  8
CSLAYER1
  6
CONTINUOUS
 62
     4
 10
422.298800
 20
886.362184
 11
421.448800
 21
886.362184
  0
LINE
  8
CSLAYER1
  6
CONTINUOUS
 62
     4
 10
422.298800
 20
876.812458
 11
421.448800
 21
876.812458
  0
ARC
  8
CSLAYER1
  6
CONTINUOUS
 62
     4
 10
421.448800
 20
885.362184
 40
1.000000
 50
90.000000
 51
180.000000
  0
ARC
  8
CSLAYER1
  6
CONTINUOUS
 62
     4
 10
421.448800
 20
877.812458
 40
1.000000
 50
180.000000
 51
270.000000
  0
LINE
  8
CSLAYER1
  6
CONTINUOUS
 62
     4
 10
459.948800
 20
885.362184
 11
459.948800
 21
877.812458
  0
LINE
  8
CSLAYER1
  6
CONTINUOUS
 62
     4
 10
453.723800
 20
894.592184
 11
458.098800
 21
894.592184
  0
LINE
  8
CSLAYER1
  6
CONTINUOUS
 62
     4
 10
458.098800
 20
886.362184
 11
458.948800
 21
886.362184
  0
LINE
  8
CSLAYER1
  6
CONTINUOUS
 62
     4
 10
458.098800
 20
876.812458
 11
458.948800
 21
876.812458
  0
ARC
  8
CSLAYER1
  6
CONTINUOUS
 62
     4
 10
458.948800
 20
885.362184
 40
1.000000
 50
0.000000
 51
90.000000
  0
ARC
  8
CSLAYER1
  6
CONTINUOUS
 62
     4
 10
458.948800
 20
877.812458
 40
1.000000
 50
270.000000
 51
360.000000
  0
LINE
  8
CSLAYER1
  6
CONTINUOUS
 62
     4
 10
458.098800
 20
894.592184
 11
458.098800
 21
810.256955
  0
LINE
  8
CSLAYER1
  6
CONTINUOUS
 62
     4
 10
422.298800
 20
894.592184
 11
422.298800
 21
810.256955
  0
LINE
  8
CSLAYER1
  6
CONTINUOUS
 62
     4
 10
484.948800
 20
1002.424876
 11
484.948800
 21
896.405257
  0
LINE
  8
CSLAYER1
  6
CONTINUOUS
 62
     4
 10
460.698800
 20
1002.424876
 11
460.698800
 21
1054.617442
  0
LINE
  8
CSLAYER1
  6
CONTINUOUS
 62
     4
 10
515.198800
 20
1018.900207
 11
512.562339
 21
1018.837513
  0
LINE
  8
CSLAYER1
  6
CONTINUOUS
 62
     4
 10
512.562339
 20
1018.837513
 11
509.945942
 21
1018.649910
  0
LINE
  8
CSLAYER1
  6
CONTINUOUS
 62
     4
 10
509.945942
 20
1018.649910
 11
507.369524
 21
1018.338824
  0
LINE
  8
CSLAYER1
  6
CONTINUOUS
 62
     4
 10
507.369524
 20
1018.338824
 11
504.852690
 21
1017.906623
  0
LINE
  8
CSLAYER1
  6
CONTINUOUS
 62
     4
 10
504.852690
 20
1017.906623
 11
502.414597
 21
1017.356597
  0
LINE
  8
CSLAYER1
  6
CONTINUOUS
 62
     4
 10
502.414597
 20
1017.356597
 11
500.073800
 21
1016.692931
  0
LINE
  8
CSLAYER1
  6
CONTINUOUS
 62
     4
 10
500.073800
 20
1016.692931
 11
497.848113
 21
1015.920677
  0
LINE
  8
CSLAYER1
  6
CONTINUOUS
 62
     4
 10
497.848113
 20
1015.920677
 11
495.754475
 21
1015.045712
  0
LINE
  8
CSLAYER1
  6
CONTINUOUS
 62
     4
 10
495.754475
 20
1015.045712
 11
493.808820
 21
1014.074694
  0
LINE
  8
CSLAYER1
  6
CONTINUOUS
 62
     4
 10
493.808820
 20
1014.074694
 11
492.025955
 21
1013.015015
  0
LINE
  8
CSLAYER1
  6
CONTINUOUS
 62
     4
 10
492.025955
 20
1013.015015
 11
490.419450
 21
1011.874738
  0
LINE
  8
CSLAYER1
  6
CONTINUOUS
 62
     4
 10
490.419450
 20
1011.874738
 11
489.001531
 21
1010.662542
  0
LINE
  8
CSLAYER1
  6
CONTINUOUS
 62
     4
 10
489.001531
 20
1010.662542
 11
487.782989
 21
1009.387652
  0
LINE
  8
CSLAYER1
  6
CONTINUOUS
 62
     4
 10
487.782989
 20
1009.387652
 11
486.773098
 21
1008.059771
  0
LINE
  8
CSLAYER1
  6
CONTINUOUS
 62
     4
 10
486.773098
 20
1008.059771
 11
485.979544
 21
1006.689006
  0
LINE
  8
CSLAYER1
  6
CONTINUOUS
 62
     4
 10
485.979544
 20
1006.689006
 11
485.408365
 21
1005.285787
  0
LINE
  8
CSLAYER1
  6
CONTINUOUS
 62
     4
 10
485.408365
 20
1005.285787
 11
485.063910
 21
1003.860796
  0
LINE
  8
CSLAYER1
  6
CONTINUOUS
 62
     4
 10
485.063910
 20
1003.860796
 11
484.948800
 21
1002.424876
  0
LINE
  8
CSLAYER1
  6
CONTINUOUS
 62
     4
 10
515.198800
 20
902.423085
 11
511.316011
 21
902.330754
  0
LINE
  8
CSLAYER1
  6
CONTINUOUS
 62
     4
 10
511.316011
 20
902.330754
 11
507.462773
 21
902.054465
  0
LINE
  8
CSLAYER1
  6
CONTINUOUS
 62
     4
 10
507.462773
 20
902.054465
 11
503.668411
 21
901.596321
  0
LINE
  8
CSLAYER1
  6
CONTINUOUS
 62
     4
 10
503.668411
 20
901.596321
 11
499.961802
 21
900.959807
  0
LINE
  8
CSLAYER1
  6
CONTINUOUS
 62
     4
 10
499.961802
 20
900.959807
 11
496.371156
 21
900.149768
  0
LINE
  8
CSLAYER1
  6
CONTINUOUS
 62
     4
 10
496.371156
 20
900.149768
 11
492.923800
 21
899.172370
  0
LINE
  8
CSLAYER1
  6
CONTINUOUS
 62
     4
 10
492.923800
 20
899.172370
 11
489.645970
 21
898.035050
  0
LINE
  8
CSLAYER1
  6
CONTINUOUS
 62
     4
 10
489.645970
 20
898.035050
 11
486.562612
 21
896.746465
  0
LINE
  8
CSLAYER1
  6
CONTINUOUS
 62
     4
 10
486.562612
 20
896.746465
 11
483.697193
 21
895.316421
  0
LINE
  8
CSLAYER1
  6
CONTINUOUS
 62
     4
 10
483.697193
 20
895.316421
 11
481.071520
 21
893.755802
  0
LINE
  8
CSLAYER1
  6
CONTINUOUS
 62
     4
 10
481.071520
 20
893.755802
 11
478.705576
 21
892.076485
  0
LINE
  8
CSLAYER1
  6
CONTINUOUS
 62
     4
 10
478.705576
 20
892.076485
 11
476.617368
 21
890.291251
  0
LINE
  8
CSLAYER1
  6
CONTINUOUS
 62
     4
 10
476.617368
 20
890.291251
 11
474.822788
 21
888.413686
  0
LINE
  8
CSLAYER1
  6
CONTINUOUS
 62
     4
 10
474.822788
 20
888.413686
 11
473.335494
 21
886.458080
  0
LINE
  8
CSLAYER1
  6
CONTINUOUS
 62
     4
 10
473.335494
 20
886.458080
 11
472.166804
 21
884.439316
  0
LINE
  8
CSLAYER1
  6
CONTINUOUS
 62
     4
 10
472.166804
 20
884.439316
 11
471.325614
 21
882.372758
  0
LINE
  8
CSLAYER1
  6
CONTINUOUS
 62
     4
 10
471.325614
 20
882.372758
 11
470.818326
 21
880.274134
  0
LINE
  8
CSLAYER1
  6
CONTINUOUS
 62
     4
 10
470.818326
 20
880.274134
 11
470.648800
 21
878.159416
  0
LINE
  8
CSLAYER1
  6
CONTINUOUS
 62
     4
 10
409.198800
 20
1002.774876
 11
409.198800
 21
1054.617442
  0
ARC
  8
CSLAYER1
  6
CONTINUOUS
 62
     4
 10
408.098800
 20
1002.774876
 40
1.100000
 50
270.000000
 51
360.000000
  0
LINE
  8
CSLAYER1
  6
CONTINUOUS
 62
     4
 10
603.723800
 20
748.207830
 11
603.723800
 21
754.986955
  0
LINE
  8
CSLAYER1
  6
CONTINUOUS
 62
     4
 10
608.098800
 20
744.664237
 11
608.098800
 21
754.986955
  0
LINE
  8
CSLAYER1
  6
CONTINUOUS
 62
     4
 10
609.948800
 20
755.986955
 11
609.948800
 21
763.536682
  0
LINE
  8
CSLAYER1
  6
CONTINUOUS
 62
     4
 10
595.354141
 20
754.986955
 11
608.948800
 21
754.986955
  0
ARC
  8
CSLAYER1
  6
CONTINUOUS
 62
     4
 10
608.948800
 20
755.986955
 40
1.000000
 50
270.000000
 51
360.000000
  0
ARC
  8
CSLAYER1
  6
CONTINUOUS
 62
     4
 10
608.948800
 20
763.536682
 40
1.000000
 50
0.000000
 51
90.000000
  0
LINE
  8
CSLAYER1
  6
CONTINUOUS
 62
     4
 10
601.811216
 20
749.756955
 11
602.723800
 21
749.756955
  0
LINE
  8
CSLAYER1
  6
CONTINUOUS
 62
     4
 10
602.723800
 20
749.756955
 11
603.723800
 21
750.756955
  0
LINE
  8
CSLAYER1
  6
CONTINUOUS
 62
     4
 10
577.673800
 20
769.756955
 11
602.723800
 21
769.756955
  0
LINE
  8
CSLAYER1
  6
CONTINUOUS
 62
     4
 10
576.673800
 20
768.756955
 11
577.673800
 21
769.756955
  0
LINE
  8
CSLAYER1
  6
CONTINUOUS
 62
     4
 10
602.723800
 20
769.756955
 11
603.723800
 21
768.756955
  0
LINE
  8
CSLAYER1
  6
CONTINUOUS
 62
     5
 10
617.682081
 20
791.506955
 11
573.146170
 21
791.506955
  0
LINE
  8
CSLAYER1
  6
CONTINUOUS
 62
     4
 10
576.673800
 20
804.506955
 11
572.298800
 21
804.506955
  0
LINE
  8
CSLAYER1
  6
CONTINUOUS
 62
     4
 10
570.448800
 20
787.736955
 11
570.448800
 21
795.286682
  0
LINE
  8
CSLAYER1
  6
CONTINUOUS
 62
     4
 10
572.298800
 20
786.736955
 11
571.448800
 21
786.736955
  0
LINE
  8
CSLAYER1
  6
CONTINUOUS
 62
     4
 10
572.298800
 20
796.286682
 11
571.448800
 21
796.286682
  0
ARC
  8
CSLAYER1
  6
CONTINUOUS
 62
     4
 10
571.448800
 20
787.736955
 40
1.000000
 50
180.000000
 51
270.000000
  0
ARC
  8
CSLAYER1
  6
CONTINUOUS
 62
     4
 10
571.448800
 20
795.286682
 40
1.000000
 50
90.000000
 51
180.000000
  0
LINE
  8
CSLAYER1
  6
CONTINUOUS
 62
     4
 10
603.723800
 20
804.506955
 11
608.098800
 21
804.506955
  0
LINE
  8
CSLAYER1
  6
CONTINUOUS
 62
     4
 10
583.575845
 20
764.526955
 11
608.948800
 21
764.526955
  0
LINE
  8
CSLAYER1
  6
CONTINUOUS
 62
     4
 10
609.948800
 20
787.736955
 11
609.948800
 21
795.286682
  0
LINE
  8
CSLAYER1
  6
CONTINUOUS
 62
     4
 10
608.098800
 20
786.736955
 11
608.948800
 21
786.736955
  0
LINE
  8
CSLAYER1
  6
CONTINUOUS
 62
     4
 10
608.098800
 20
796.286682
 11
608.948800
 21
796.286682
  0
ARC
  8
CSLAYER1
  6
CONTINUOUS
 62
     4
 10
608.948800
 20
787.736955
 40
1.000000
 50
270.000000
 51
360.000000
  0
ARC
  8
CSLAYER1
  6
CONTINUOUS
 62
     4
 10
608.948800
 20
795.286682
 40
1.000000
 50
0.000000
 51
90.000000
  0
POINT
  8
CSLAYER1
 62
     4
 10
590.198800
 20
791.506955
  0
LINE
  8
CSLAYER1
  6
CONTINUOUS
 62
     5
 10
616.836462
 20
759.756955
 11
572.300551
 21
759.756955
  0
LINE
  8
CSLAYER1
  6
CONTINUOUS
 62
     4
 10
608.098800
 20
764.536682
 11
608.098800
 21
804.506955
  0
LINE
  8
CSLAYER1
  6
CONTINUOUS
 62
     4
 10
576.673800
 20
766.403825
 11
576.673800
 21
842.006955
  0
LINE
  8
CSLAYER1
  6
CONTINUOUS
 62
     4
 10
572.298800
 20
766.452277
 11
572.298800
 21
804.506955
  0
LINE
  8
CSLAYER1
  6
CONTINUOUS
 62
     4
 10
598.198800
 20
781.981955
 11
598.198800
 21
769.756955
  0
LINE
  8
CSLAYER1
  6
CONTINUOUS
 62
     4
 10
582.198800
 20
781.981955
 11
582.198800
 21
769.756955
  0
POINT
  8
CSLAYER1
 62
     4
 10
590.198800
 20
823.256955
  0
LINE
  8
CSLAYER1
  6
CONTINUOUS
 62
     4
 10
603.723800
 20
764.526955
 11
603.723800
 21
842.006955
  0
LINE
  8
CSLAYER1
  6
CONTINUOUS
 62
     4
 10
599.723800
 20
838.306955
 11
599.723800
 21
776.456955
  0
LINE
  8
CSLAYER1
  6
CONTINUOUS
 62
     4
 10
599.723800
 20
838.306955
 11
603.723800
 21
838.306955
  0
LINE
  8
CSLAYER1
  6
CONTINUOUS
 62
     4
 10
598.723800
 20
813.731955
 11
581.673800
 21
813.731955
  0
LINE
  8
CSLAYER1
  6
CONTINUOUS
 62
     4
 10
598.723800
 20
832.781955
 11
581.673800
 21
832.781955
  0
ARC
  8
CSLAYER1
  6
CONTINUOUS
 62
     4
 10
598.723800
 20
814.731955
 40
1.000000
 50
270.000000
 51
360.000000
  0
ARC
  8
CSLAYER1
  6
CONTINUOUS
 62
     4
 10
598.723800
 20
831.781955
 40
1.000000
 50
0.000000
 51
90.000000
  0
LINE
  8
CSLAYER1
  6
CONTINUOUS
 62
     4
 10
580.673800
 20
838.306955
 11
580.673800
 21
776.456955
  0
LINE
  8
CSLAYER1
  6
CONTINUOUS
 62
     4
 10
580.673800
 20
838.306955
 11
576.673800
 21
838.306955
  0
ARC
  8
CSLAYER1
  6
CONTINUOUS
 62
     4
 10
581.673800
 20
814.731955
 40
1.000000
 50
180.000000
 51
270.000000
  0
ARC
  8
CSLAYER1
  6
CONTINUOUS
 62
     4
 10
581.673800
 20
831.781955
 40
1.000000
 50
90.000000
 51
180.000000
  0
LINE
  8
CSLAYER1
  6
CONTINUOUS
 62
     4
 10
609.948800
 20
819.486955
 11
609.948800
 21
827.036682
  0
LINE
  8
CSLAYER1
  6
CONTINUOUS
 62
     4
 10
603.723800
 20
810.256955
 11
608.098800
 21
810.256955
  0
LINE
  8
CSLAYER1
  6
CONTINUOUS
 62
     4
 10
608.098800
 20
818.486955
 11
608.948800
 21
818.486955
  0
LINE
  8
CSLAYER1
  6
CONTINUOUS
 62
     4
 10
608.098800
 20
828.036682
 11
608.948800
 21
828.036682
  0
ARC
  8
CSLAYER1
  6
CONTINUOUS
 62
     4
 10
608.948800
 20
819.486955
 40
1.000000
 50
270.000000
 51
360.000000
  0
ARC
  8
CSLAYER1
  6
CONTINUOUS
 62
     4
 10
608.948800
 20
827.036682
 40
1.000000
 50
0.000000
 51
90.000000
  0
LINE
  8
CSLAYER1
  6
CONTINUOUS
 62
     4
 10
570.448800
 20
819.486955
 11
570.448800
 21
827.036682
  0
LINE
  8
CSLAYER1
  6
CONTINUOUS
 62
     4
 10
576.673800
 20
810.256955
 11
572.298800
 21
810.256955
  0
LINE
  8
CSLAYER1
  6
CONTINUOUS
 62
     4
 10
572.298800
 20
818.486955
 11
571.448800
 21
818.486955
  0
LINE
  8
CSLAYER1
  6
CONTINUOUS
 62
     4
 10
572.298800
 20
828.036682
 11
571.448800
 21
828.036682
  0
ARC
  8
CSLAYER1
  6
CONTINUOUS
 62
     4
 10
571.448800
 20
819.486955
 40
1.000000
 50
180.000000
 51
270.000000
  0
ARC
  8
CSLAYER1
  6
CONTINUOUS
 62
     4
 10
571.448800
 20
827.036682
 40
1.000000
 50
90.000000
 51
180.000000
  0
LINE
  8
CSLAYER1
  6
CONTINUOUS
 62
     4
 10
608.098800
 20
810.256955
 11
608.098800
 21
894.592184
  0
LINE
  8
CSLAYER1
  6
CONTINUOUS
 62
     4
 10
572.298800
 20
810.256955
 11
572.298800
 21
894.592184
  0
LINE
  8
CSLAYER1
  6
CONTINUOUS
 62
     4
 10
599.723800
 20
776.456955
 11
603.723800
 21
776.456955
  0
LINE
  8
CSLAYER1
  6
CONTINUOUS
 62
     4
 10
598.723800
 20
801.031955
 11
581.673800
 21
801.031955
  0
LINE
  8
CSLAYER1
  6
CONTINUOUS
 62
     4
 10
598.723800
 20
781.981955
 11
581.673800
 21
781.981955
  0
ARC
  8
CSLAYER1
  6
CONTINUOUS
 62
     4
 10
598.723800
 20
800.031955
 40
1.000000
 50
0.000000
 51
90.000000
  0
ARC
  8
CSLAYER1
  6
CONTINUOUS
 62
     4
 10
598.723800
 20
782.981955
 40
1.000000
 50
270.000000
 51
360.000000
  0
LINE
  8
CSLAYER1
  6
CONTINUOUS
 62
     4
 10
580.673800
 20
776.456955
 11
576.673800
 21
776.456955
  0
ARC
  8
CSLAYER1
  6
CONTINUOUS
 62
     4
 10
581.673800
 20
800.031955
 40
1.000000
 50
90.000000
 51
180.000000
  0
ARC
  8
CSLAYER1
  6
CONTINUOUS
 62
     4
 10
581.673800
 20
782.981955
 40
1.000000
 50
180.000000
 51
270.000000
  0
LINE
  8
CSLAYER1
  6
CONTINUOUS
 62
     4
 10
598.198800
 20
776.756955
 11
582.198800
 21
776.756955
  0
LINE
  8
CSLAYER1
  6
CONTINUOUS
 62
     4
 10
351.225340
 20
695.637728
 11
380.198800
 21
695.637728
  0
LINE
  8
CSLAYER1
  6
CONTINUOUS
 62
     4
 10
350.225340
 20
737.337728
 11
350.225340
 21
696.637728
  0
LINE
  8
CSLAYER1
  6
CONTINUOUS
 62
     4
 10
350.225340
 20
696.637728
 11
351.225340
 21
695.637728
  0
LINE
  8
CSLAYER1
  6
CONTINUOUS
 62
     4
 10
310.225340
 20
726.987728
 11
310.225340
 21
706.987728
  0
LINE
  8
CSLAYER1
  6
CONTINUOUS
 62
     4
 10
329.225340
 20
735.487728
 11
329.225340
 21
698.487728
  0
LINE
  8
CSLAYER1
  6
CONTINUOUS
 62
     4
 10
324.125340
 20
733.987728
 11
324.125340
 21
699.987728
  0
LINE
  8
CSLAYER1
  6
CONTINUOUS
 62
     4
 10
312.125340
 20
733.987728
 11
312.125340
 21
699.987728
  0
LINE
  8
CSLAYER1
  6
CONTINUOUS
 62
     4
 10
329.225340
 20
733.987728
 11
312.125340
 21
733.987728
  0
LINE
  8
CSLAYER1
  6
CONTINUOUS
 62
     4
 10
324.125340
 20
726.987728
 11
310.225340
 21
726.987728
  0
LINE
  8
CSLAYER1
  6
CONTINUOUS
 62
     4
 10
329.225340
 20
699.987728
 11
312.125340
 21
699.987728
  0
LINE
  8
CSLAYER1
  6
CONTINUOUS
 62
     4
 10
324.125340
 20
706.987728
 11
310.225340
 21
706.987728
  0
LINE
  8
CSLAYER1
  6
CONTINUOUS
 62
     4
 10
332.225340
 20
735.487728
 11
329.225340
 21
735.487728
  0
LINE
  8
CSLAYER1
  6
CONTINUOUS
 62
     4
 10
332.225340
 20
698.487728
 11
329.225340
 21
698.487728
  0
LINE
  8
CSLAYER1
  6
CONTINUOUS
 62
     4
 10
332.225340
 20
698.487728
 11
332.225340
 21
735.487728
  0
LINE
  8
CSLAYER1
  6
CENTER
 62
     5
 10
293.832942
 20
716.987728
 11
739.023008
 21
716.987728
  0
LINE
  8
CSLAYER1
  6
CONTINUOUS
 62
     4
 10
332.225340
 20
704.487728
 11
333.198800
 21
704.487728
  0
LINE
  8
CSLAYER1
  6
CONTINUOUS
 62
     4
 10
351.225340
 20
738.337728
 11
392.198800
 21
738.337728
  0
LINE
  8
CSLAYER1
  6
CONTINUOUS
 62
     4
 10
350.225340
 20
737.337728
 11
351.225340
 21
738.337728
  0
LINE
  8
CSLAYER1
  6
CONTINUOUS
 62
     4
 10
332.225340
 20
729.487728
 11
333.198800
 21
729.487728
  0
LINE
  8
CSLAYER1
  6
CONTINUOUS
 62
     4
 10
333.225340
 20
690.880803
 11
333.225340
 21
704.487728
  0
LINE
  8
CSLAYER1
  6
CONTINUOUS
 62
     4
 10
408.198800
 20
741.704885
 11
412.915957
 21
736.987728
  0
LINE
  8
CSLAYER1
  6
CONTINUOUS
 62
     4
 10
408.198800
 20
741.422042
 11
412.633114
 21
736.987728
  0
LINE
  8
CSLAYER1
  6
CONTINUOUS
 62
     4
 10
408.198800
 20
741.139199
 11
412.350272
 21
736.987728
  0
LINE
  8
CSLAYER1
  6
CONTINUOUS
 62
     4
 10
408.198800
 20
740.856357
 11
412.067429
 21
736.987728
  0
LINE
  8
CSLAYER1
  6
CONTINUOUS
 62
     4
 10
408.198800
 20
740.573514
 11
411.784586
 21
736.987728
  0
LINE
  8
CSLAYER1
  6
CONTINUOUS
 62
     4
 10
408.198800
 20
740.290671
 11
411.501744
 21
736.987728
  0
LINE
  8
CSLAYER1
  6
CONTINUOUS
 62
     4
 10
408.198800
 20
740.007829
 11
411.218901
 21
736.987728
  0
LINE
  8
CSLAYER1
  6
CONTINUOUS
 62
     4
 10
408.198800
 20
739.724986
 11
410.936058
 21
736.987728
  0
LINE
  8
CSLAYER1
  6
CONTINUOUS
 62
     4
 10
408.198800
 20
739.442143
 11
410.653215
 21
736.987728
  0
LINE
  8
CSLAYER1
  6
CONTINUOUS
 62
     4
 10
408.198800
 20
739.159300
 11
410.370373
 21
736.987728
  0
LINE
  8
CSLAYER1
  6
CONTINUOUS
 62
     4
 10
408.198800
 20
738.876458
 11
410.087530
 21
736.987728
  0
LINE
  8
CSLAYER1
  6
CONTINUOUS
 62
     4
 10
408.198800
 20
738.593615
 11
409.804687
 21
736.987728
  0
LINE
  8
CSLAYER1
  6
CONTINUOUS
 62
     4
 10
408.198800
 20
738.310772
 11
409.521845
 21
736.987728
  0
LINE
  8
CSLAYER1
  6
CONTINUOUS
 62
     4
 10
408.198800
 20
738.027930
 11
409.239002
 21
736.987728
  0
LINE
  8
CSLAYER1
  6
CONTINUOUS
 62
     4
 10
408.198800
 20
737.745087
 11
408.956159
 21
736.987728
  0
LINE
  8
CSLAYER1
  6
CONTINUOUS
 62
     4
 10
408.198800
 20
737.462244
 11
408.673316
 21
736.987728
  0
LINE
  8
CSLAYER1
  6
CONTINUOUS
 62
     4
 10
408.198800
 20
737.179401
 11
408.390474
 21
736.987728
  0
LINE
  8
CSLAYER1
  6
CONTINUOUS
 62
     4
 10
387.198800
 20
738.337728
 11
392.198800
 21
743.337728
  0
LINE
  8
CSLAYER1
  6
CONTINUOUS
 62
     4
 10
392.198800
 20
743.054885
 11
387.481642
 21
738.337728
  0
LINE
  8
CSLAYER1
  6
CONTINUOUS
 62
     4
 10
392.198800
 20
742.772042
 11
387.764485
 21
738.337728
  0
LINE
  8
CSLAYER1
  6
CONTINUOUS
 62
     4
 10
392.198800
 20
742.489199
 11
388.047328
 21
738.337728
  0
LINE
  8
CSLAYER1
  6
CONTINUOUS
 62
     4
 10
392.198800
 20
742.206357
 11
388.330171
 21
738.337728
  0
LINE
  8
CSLAYER1
  6
CONTINUOUS
 62
     4
 10
392.198800
 20
741.923514
 11
388.613013
 21
738.337728
  0
LINE
  8
CSLAYER1
  6
CONTINUOUS
 62
     4
 10
392.198800
 20
741.640671
 11
388.895856
 21
738.337728
  0
LINE
  8
CSLAYER1
  6
CONTINUOUS
 62
     4
 10
392.198800
 20
741.357829
 11
389.178699
 21
738.337728
  0
LINE
  8
CSLAYER1
  6
CONTINUOUS
 62
     4
 10
392.198800
 20
741.074986
 11
389.461541
 21
738.337728
  0
LINE
  8
CSLAYER1
  6
CONTINUOUS
 62
     4
 10
392.198800
 20
740.792143
 11
389.744384
 21
738.337728
  0
LINE
  8
CSLAYER1
  6
CONTINUOUS
 62
     4
 10
392.198800
 20
740.509300
 11
390.027227
 21
738.337728
  0
LINE
  8
CSLAYER1
  6
CONTINUOUS
 62
     4
 10
392.198800
 20
740.226458
 11
390.310070
 21
738.337728
  0
LINE
  8
CSLAYER1
  6
CONTINUOUS
 62
     4
 10
392.198800
 20
739.943615
 11
390.592912
 21
738.337728
  0
LINE
  8
CSLAYER1
  6
CONTINUOUS
 62
     4
 10
392.198800
 20
739.660772
 11
390.875755
 21
738.337728
  0
LINE
  8
CSLAYER1
  6
CONTINUOUS
 62
     4
 10
392.198800
 20
739.377930
 11
391.158598
 21
738.337728
  0
LINE
  8
CSLAYER1
  6
CONTINUOUS
 62
     4
 10
392.198800
 20
739.095087
 11
391.441440
 21
738.337728
  0
LINE
  8
CSLAYER1
  6
CONTINUOUS
 62
     4
 10
392.198800
 20
738.812244
 11
391.724283
 21
738.337728
  0
LINE
  8
CSLAYER1
  6
CONTINUOUS
 62
     4
 10
392.198800
 20
738.529401
 11
392.007126
 21
738.337728
  0
LINE
  8
CSLAYER1
  6
CONTINUOUS
 62
     4
 10
408.198800
 20
1054.617442
 11
408.198800
 21
488.358013
  0
LINE
  8
CSLAYER1
  6
CONTINUOUS
 62
     4
 10
409.239002
 20
736.987728
 11
408.198800
 21
736.987728
  0
LINE
  8
CSLAYER1
  6
CONTINUOUS
 62
     4
 10
422.298800
 20
746.756955
 11
422.298800
 21
804.506955
  0
LINE
  8
CSLAYER1
  6
CONTINUOUS
 62
     4
 10
420.448800
 20
755.986955
 11
420.448800
 21
763.536682
  0
LINE
  8
CSLAYER1
  6
CONTINUOUS
 62
     4
 10
426.673800
 20
746.756955
 11
422.298800
 21
746.756955
  0
LINE
  8
CSLAYER1
  6
CONTINUOUS
 62
     4
 10
422.298800
 20
764.536682
 11
421.448800
 21
764.536682
  0
ARC
  8
CSLAYER1
  6
CONTINUOUS
 62
     4
 10
421.448800
 20
755.986955
 40
1.000000
 50
180.000000
 51
270.000000
  0
ARC
  8
CSLAYER1
  6
CONTINUOUS
 62
     4
 10
421.448800
 20
763.536682
 40
1.000000
 50
90.000000
 51
180.000000
  0
LINE
  8
CSLAYER1
  6
CONTINUOUS
 62
     4
 10
427.673800
 20
749.756955
 11
426.673800
 21
750.756955
  0
LINE
  8
CSLAYER1
  6
CONTINUOUS
 62
     4
 10
452.723800
 20
769.756955
 11
448.198800
 21
769.756955
  0
LINE
  8
CSLAYER1
  6
CONTINUOUS
 62
     4
 10
453.723800
 20
768.756955
 11
452.723800
 21
769.756955
  0
LINE
  8
CSLAYER1
  6
CONTINUOUS
 62
     4
 10
427.673800
 20
769.756955
 11
426.673800
 21
768.756955
  0
LINE
  8
CSLAYER1
  6
CONTINUOUS
 62
     5
 10
412.715518
 20
791.506955
 11
457.251430
 21
791.506955
  0
LINE
  8
CSLAYER1
  6
CONTINUOUS
 62
     4
 10
453.723800
 20
804.506955
 11
458.098800
 21
804.506955
  0
LINE
  8
CSLAYER1
  6
CONTINUOUS
 62
     4
 10
459.948800
 20
787.736955
 11
459.948800
 21
795.286682
  0
LINE
  8
CSLAYER1
  6
CONTINUOUS
 62
     4
 10
458.098800
 20
786.736955
 11
458.948800
 21
786.736955
  0
LINE
  8
CSLAYER1
  6
CONTINUOUS
 62
     4
 10
458.098800
 20
796.286682
 11
458.948800
 21
796.286682
  0
ARC
  8
CSLAYER1
  6
CONTINUOUS
 62
     4
 10
458.948800
 20
787.736955
 40
1.000000
 50
270.000000
 51
360.000000
  0
ARC
  8
CSLAYER1
  6
CONTINUOUS
 62
     4
 10
458.948800
 20
795.286682
 40
1.000000
 50
0.000000
 51
90.000000
  0
LINE
  8
CSLAYER1
  6
CONTINUOUS
 62
     4
 10
426.673800
 20
804.506955
 11
422.298800
 21
804.506955
  0
LINE
  8
CSLAYER1
  6
CONTINUOUS
 62
     4
 10
422.298800
 20
754.986955
 11
421.448800
 21
754.986955
  0
LINE
  8
CSLAYER1
  6
CONTINUOUS
 62
     4
 10
420.448800
 20
787.736955
 11
420.448800
 21
795.286682
  0
LINE
  8
CSLAYER1
  6
CONTINUOUS
 62
     4
 10
422.298800
 20
786.736955
 11
421.448800
 21
786.736955
  0
LINE
  8
CSLAYER1
  6
CONTINUOUS
 62
     4
 10
422.298800
 20
796.286682
 11
421.448800
 21
796.286682
  0
ARC
  8
CSLAYER1
  6
CONTINUOUS
 62
     4
 10
421.448800
 20
787.736955
 40
1.000000
 50
180.000000
 51
270.000000
  0
ARC
  8
CSLAYER1
  6
CONTINUOUS
 62
     4
 10
421.448800
 20
795.286682
 40
1.000000
 50
90.000000
 51
180.000000
  0
POINT
  8
CSLAYER1
 62
     4
 10
440.198800
 20
791.506955
  0
LINE
  8
CSLAYER1
  6
CONTINUOUS
 62
     5
 10
413.561137
 20
759.756955
 11
458.097049
 21
759.756955
  0
LINE
  8
CSLAYER1
  6
CONTINUOUS
 62
     4
 10
453.723800
 20
766.452277
 11
453.723800
 21
842.006955
  0
LINE
  8
CSLAYER1
  6
CONTINUOUS
 62
     4
 10
458.098800
 20
766.452277
 11
458.098800
 21
804.506955
  0
LINE
  8
CSLAYER1
  6
CONTINUOUS
 62
     4
 10
432.198800
 20
781.981955
 11
432.198800
 21
759.756955
  0
LINE
  8
CSLAYER1
  6
CONTINUOUS
 62
     4
 10
448.198800
 20
781.981955
 11
448.198800
 21
765.361377
  0
POINT
  8
CSLAYER1
 62
     4
 10
440.198800
 20
823.256955
  0
LINE
  8
CSLAYER1
  6
CONTINUOUS
 62
     4
 10
426.673800
 20
746.756955
 11
426.673800
 21
842.006955
  0
LINE
  8
CSLAYER1
  6
CONTINUOUS
 62
     4
 10
430.673800
 20
838.306955
 11
430.673800
 21
776.456955
  0
LINE
  8
CSLAYER1
  6
CONTINUOUS
 62
     4
 10
430.673800
 20
838.306955
 11
426.673800
 21
838.306955
  0
LINE
  8
CSLAYER1
  6
CONTINUOUS
 62
     4
 10
431.673800
 20
813.731955
 11
448.723800
 21
813.731955
  0
LINE
  8
CSLAYER1
  6
CONTINUOUS
 62
     4
 10
431.673800
 20
832.781955
 11
448.723800
 21
832.781955
  0
ARC
  8
CSLAYER1
  6
CONTINUOUS
 62
     4
 10
431.673800
 20
814.731955
 40
1.000000
 50
180.000000
 51
270.000000
  0
ARC
  8
CSLAYER1
  6
CONTINUOUS
 62
     4
 10
431.673800
 20
831.781955
 40
1.000000
 50
90.000000
 51
180.000000
  0
LINE
  8
CSLAYER1
  6
CONTINUOUS
 62
     4
 10
449.723800
 20
838.306955
 11
449.723800
 21
776.456955
  0
LINE
  8
CSLAYER1
  6
CONTINUOUS
 62
     4
 10
449.723800
 20
838.306955
 11
453.723800
 21
838.306955
  0
ARC
  8
CSLAYER1
  6
CONTINUOUS
 62
     4
 10
448.723800
 20
814.731955
 40
1.000000
 50
270.000000
 51
360.000000
  0
ARC
  8
CSLAYER1
  6
CONTINUOUS
 62
     4
 10
448.723800
 20
831.781955
 40
1.000000
 50
0.000000
 51
90.000000
  0
LINE
  8
CSLAYER1
  6
CONTINUOUS
 62
     4
 10
420.448800
 20
819.486955
 11
420.448800
 21
827.036682
  0
LINE
  8
CSLAYER1
  6
CONTINUOUS
 62
     4
 10
426.673800
 20
810.256955
 11
422.298800
 21
810.256955
  0
LINE
  8
CSLAYER1
  6
CONTINUOUS
 62
     4
 10
422.298800
 20
818.486955
 11
421.448800
 21
818.486955
  0
LINE
  8
CSLAYER1
  6
CONTINUOUS
 62
     4
 10
422.298800
 20
828.036682
 11
421.448800
 21
828.036682
  0
ARC
  8
CSLAYER1
  6
CONTINUOUS
 62
     4
 10
421.448800
 20
819.486955
 40
1.000000
 50
180.000000
 51
270.000000
  0
ARC
  8
CSLAYER1
  6
CONTINUOUS
 62
     4
 10
421.448800
 20
827.036682
 40
1.000000
 50
90.000000
 51
180.000000
  0
LINE
  8
CSLAYER1
  6
CONTINUOUS
 62
     4
 10
459.948800
 20
819.486955
 11
459.948800
 21
827.036682
  0
LINE
  8
CSLAYER1
  6
CONTINUOUS
 62
     4
 10
453.723800
 20
810.256955
 11
458.098800
 21
810.256955
  0
LINE
  8
CSLAYER1
  6
CONTINUOUS
 62
     4
 10
458.098800
 20
818.486955
 11
458.948800
 21
818.486955
  0
LINE
  8
CSLAYER1
  6
CONTINUOUS
 62
     4
 10
458.098800
 20
828.036682
 11
458.948800
 21
828.036682
  0
ARC
  8
CSLAYER1
  6
CONTINUOUS
 62
     4
 10
458.948800
 20
819.486955
 40
1.000000
 50
270.000000
 51
360.000000
  0
ARC
  8
CSLAYER1
  6
CONTINUOUS
 62
     4
 10
458.948800
 20
827.036682
 40
1.000000
 50
0.000000
 51
90.000000
  0
LINE
  8
CSLAYER1
  6
CONTINUOUS
 62
     4
 10
430.673800
 20
776.456955
 11
426.673800
 21
776.456955
  0
LINE
  8
CSLAYER1
  6
CONTINUOUS
 62
     4
 10
431.673800
 20
801.031955
 11
448.723800
 21
801.031955
  0
LINE
  8
CSLAYER1
  6
CONTINUOUS
 62
     4
 10
431.673800
 20
781.981955
 11
448.723800
 21
781.981955
  0
ARC
  8
CSLAYER1
  6
CONTINUOUS
 62
     4
 10
431.673800
 20
800.031955
 40
1.000000
 50
90.000000
 51
180.000000
  0
ARC
  8
CSLAYER1
  6
CONTINUOUS
 62
     4
 10
431.673800
 20
782.981955
 40
1.000000
 50
180.000000
 51
270.000000
  0
LINE
  8
CSLAYER1
  6
CONTINUOUS
 62
     4
 10
449.723800
 20
776.456955
 11
453.723800
 21
776.456955
  0
ARC
  8
CSLAYER1
  6
CONTINUOUS
 62
     4
 10
448.723800
 20
800.031955
 40
1.000000
 50
0.000000
 51
90.000000
  0
ARC
  8
CSLAYER1
  6
CONTINUOUS
 62
     4
 10
448.723800
 20
782.981955
 40
1.000000
 50
270.000000
 51
360.000000
  0
LINE
  8
CSLAYER1
  6
CONTINUOUS
 62
     4
 10
432.198800
 20
776.756955
 11
448.198800
 21
776.756955
  0
LINE
  8
CSLAYER1
  6
CONTINUOUS
 62
     4
 10
432.198800
 20
769.756955
 11
427.673800
 21
769.756955
  0
LINE
  8
CSLAYER1
  6
CONTINUOUS
 62
     4
 10
428.586384
 20
749.756955
 11
427.673800
 21
749.756955
  0
LINE
  8
CSLAYER1
  6
CONTINUOUS
 62
     4
 10
410.390474
 20
736.987728
 11
412.821211
 21
736.987728
  0
LINE
  8
CSLAYER1
  6
CONTINUOUS
 62
     4
 10
349.198800
 20
731.987728
 11
350.225340
 21
731.987728
  0
LINE
  8
CSLAYER1
  6
CONTINUOUS
 62
     4
 10
349.198800
 20
701.987728
 11
350.225340
 21
701.987728
  0
LINE
  8
CSLAYER1
  6
CONTINUOUS
 62
     4
 10
408.198800
 20
696.987728
 11
409.198800
 21
696.987728
  0
LINE
  8
CSLAYER1
  6
CONTINUOUS
 62
     4
 10
765.198800
 20
487.639797
 11
765.198800
 21
423.358013
  0
LINE
  8
CSLAYER1
  6
CONTINUOUS
 62
     4
 10
593.398800
 20
488.358013
 11
593.398800
 21
514.019758
  0
LINE
  8
CSLAYER1
  6
CONTINUOUS
 62
     5
 10
587.569624
 20
506.275079
 11
622.109753
 21
506.275079
  0
LINE
  8
CSLAYER1
  6
CONTINUOUS
 62
     4
 10
592.198800
 20
511.275079
 11
593.398800
 21
511.275079
  0
LINE
  8
CSLAYER1
  6
CONTINUOUS
 62
     4
 10
592.198800
 20
501.275079
 11
593.398800
 21
501.275079
  0
LINE
  8
CSLAYER1
  6
CONTINUOUS
 62
     4
 10
593.398800
 20
500.968788
 11
596.398800
 21
500.968788
  0
LINE
  8
CSLAYER1
  6
CONTINUOUS
 62
     4
 10
265.198800
 20
487.639797
 11
265.198800
 21
423.358013
  0
LINE
  8
CSLAYER1
  6
CONTINUOUS
 62
     4
 10
765.198800
 20
488.358013
 11
265.198800
 21
488.358013
  0
LINE
  8
CSLAYER1
  6
CONTINUOUS
 62
     4
 10
593.398800
 20
505.316008
 11
596.398800
 21
505.316008
  0
LINE
  8
CSLAYER1
  6
CONTINUOUS
 62
     4
 10
593.398800
 20
514.019758
 11
597.398800
 21
514.019758
  0
LINE
  8
CSLAYER1
  6
CONTINUOUS
 62
     4
 10
596.398800
 20
488.358013
 11
596.398800
 21
514.019758
  0
LINE
  8
CSLAYER1
  6
CONTINUOUS
 62
     4
 10
600.898800
 20
543.851611
 11
602.398800
 21
543.851611
  0
LINE
  8
CSLAYER1
  6
CONTINUOUS
 62
     4
 10
600.898800
 20
544.359818
 11
602.398800
 21
544.359818
  0
LINE
  8
CSLAYER1
  6
CONTINUOUS
 62
     4
 10
612.398800
 20
488.358013
 11
612.398800
 21
514.019758
  0
LINE
  8
CSLAYER1
  6
CONTINUOUS
 62
     4
 10
600.898800
 20
532.048081
 11
600.898800
 21
544.359818
  0
LINE
  8
CSLAYER1
  6
CONTINUOUS
 62
     4
 10
607.898800
 20
532.048081
 11
607.898800
 21
544.359818
  0
LINE
  8
CSLAYER1
  6
CONTINUOUS
 62
     4
 10
597.398800
 20
504.733584
 11
597.398800
 21
520.063943
  0
LINE
  8
CSLAYER1
  6
CONTINUOUS
 62
     4
 10
611.398800
 20
504.733584
 11
611.398800
 21
520.063943
  0
LINE
  8
CSLAYER1
  6
CONTINUOUS
 62
     4
 10
602.398800
 20
532.048081
 11
602.398800
 21
560.337751
  0
LINE
  8
CSLAYER1
  6
CONTINUOUS
 62
     4
 10
606.398800
 20
532.048081
 11
606.398800
 21
556.298307
  0
LINE
  8
CSLAYER1
  6
CONTINUOUS
 62
     4
 10
598.859618
 20
532.048081
 11
609.937982
 21
532.048081
  0
LINE
  8
CSLAYER1
  6
CONTINUOUS
 62
     4
 10
596.398800
 20
504.733584
 11
612.398800
 21
504.733584
  0
LINE
  8
CSLAYER1
  6
CONTINUOUS
 62
     4
 10
611.398800
 20
520.063943
 11
609.937982
 21
532.048081
  0
LINE
  8
CSLAYER1
  6
CONTINUOUS
 62
     4
 10
597.398800
 20
520.063943
 11
598.859618
 21
532.048081
  0
LINE
  8
CSLAYER1
  6
CONTINUOUS
 62
     4
 10
613.398800
 20
498.482621
 11
613.398800
 21
506.082621
  0
LINE
  8
CSLAYER1
  6
CONTINUOUS
 62
     4
 10
613.398800
 20
498.482621
 11
612.398800
 21
498.482621
  0
LINE
  8
CSLAYER1
  6
CONTINUOUS
 62
     4
 10
613.398800
 20
506.082621
 11
612.398800
 21
506.082621
  0
LINE
  8
CSLAYER1
  6
CONTINUOUS
 62
     4
 10
615.998800
 20
500.782621
 11
615.998800
 21
503.782621
  0
LINE
  8
CSLAYER1
  6
CONTINUOUS
 62
     4
 10
613.998800
 20
498.782621
 11
613.398800
 21
498.782621
  0
LINE
  8
CSLAYER1
  6
CONTINUOUS
 62
     4
 10
613.998800
 20
505.782621
 11
613.398800
 21
505.782621
  0
ARC
  8
CSLAYER1
  6
CONTINUOUS
 62
     4
 10
613.998800
 20
500.782621
 40
2.000000
 50
270.000000
 51
360.000000
  0
ARC
  8
CSLAYER1
  6
CONTINUOUS
 62
     4
 10
613.998800
 20
503.782621
 40
2.000000
 50
0.000000
 51
90.000000
  0
LINE
  8
CSLAYER1
  6
CONTINUOUS
 62
     4
 10
611.398800
 20
514.019758
 11
612.398800
 21
514.019758
  0
LINE
  8
CSLAYER1
  6
CONTINUOUS
 62
     4
 10
606.398800
 20
543.851611
 11
607.898800
 21
543.851611
  0
LINE
  8
CSLAYER1
  6
CONTINUOUS
 62
     4
 10
606.398800
 20
544.359818
 11
607.898800
 21
544.359818
  0
LINE
  8
CSLAYER1
  6
CONTINUOUS
 62
     4
 10
600.157045
 20
561.682803
 11
601.652739
 21
560.785387
  0
LINE
  8
CSLAYER1
  6
CONTINUOUS
 62
     4
 10
601.652739
 20
560.785387
 11
610.626899
 21
553.007782
  0
LINE
  8
CSLAYER1
  6
CONTINUOUS
 62
     4
 10
592.198800
 20
511.275079
 11
592.198800
 21
501.275079
  0
LINE
  8
CSLAYER1
  6
CONTINUOUS
 62
     4
 10
612.398800
 20
511.275079
 11
622.198800
 21
511.275079
  0
LINE
  8
CSLAYER1
  6
CONTINUOUS
 62
     4
 10
615.937223
 20
501.275079
 11
622.198800
 21
501.275079
  0
LINE
  8
CSLAYER1
  6
CONTINUOUS
 62
     4
 10
333.198800
 20
964.617442
 11
333.198800
 21
488.358013
  0
LINE
  8
CSLAYER1
  6
CONTINUOUS
 62
     4
 10
349.198800
 20
964.617442
 11
349.198800
 21
488.358013
  0
LINE
  8
CSLAYER1
  6
CONTINUOUS
 62
     4
 10
697.198800
 20
964.617442
 11
697.198800
 21
488.358013
  0
LINE
  8
CSLAYER1
  6
CONTINUOUS
 62
     4
 10
681.198800
 20
964.617442
 11
681.198800
 21
488.358013
  0
LINE
  8
CSLAYER1
  6
CONTINUOUS
 62
     4
 10
390.198800
 20
720.099924
 11
390.198800
 21
688.099924
  0
LINE
  8
CSLAYER1
  6
CONTINUOUS
 62
     4
 10
380.198800
 20
718.099924
 11
380.198800
 21
690.099924
  0
LINE
  8
CSLAYER1
  6
CONTINUOUS
 62
     4
 10
382.198800
 20
720.099924
 11
390.198800
 21
720.099924
  0
LINE
  8
CSLAYER1
  6
CONTINUOUS
 62
     4
 10
380.198800
 20
718.099924
 11
382.198800
 21
720.099924
  0
LINE
  8
CSLAYER1
  6
CONTINUOUS
 62
     4
 10
382.198800
 20
720.099924
 11
382.198800
 21
688.099924
  0
LINE
  8
CSLAYER1
  6
CONTINUOUS
 62
     4
 10
382.198800
 20
688.099924
 11
390.198800
 21
688.099924
  0
LINE
  8
CSLAYER1
  6
CONTINUOUS
 62
     4
 10
380.198800
 20
690.099924
 11
382.198800
 21
688.099924
  0
LINE
  8
CSLAYER1
  6
CONTINUOUS
 62
     4
 10
390.198800
 20
718.099924
 11
392.198800
 21
718.099924
  0
LINE
  8
CSLAYER1
  6
CONTINUOUS
 62
     4
 10
390.198800
 20
690.099924
 11
392.198800
 21
690.099924
  0
LINE
  8
CSLAYER1
  6
CONTINUOUS
 62
     4
 10
679.172259
 20
695.637728
 11
650.198800
 21
695.637728
  0
LINE
  8
CSLAYER1
  6
CONTINUOUS
 62
     4
 10
680.172259
 20
737.337728
 11
680.172259
 21
696.637728
  0
LINE
  8
CSLAYER1
  6
CONTINUOUS
 62
     4
 10
680.172259
 20
696.637728
 11
679.172259
 21
695.637728
  0
LINE
  8
CSLAYER1
  6
CONTINUOUS
 62
     4
 10
720.172259
 20
726.987728
 11
720.172259
 21
706.987728
  0
LINE
  8
CSLAYER1
  6
CONTINUOUS
 62
     4
 10
701.172259
 20
735.487728
 11
701.172259
 21
698.487728
  0
LINE
  8
CSLAYER1
  6
CONTINUOUS
 62
     4
 10
706.272259
 20
733.987728
 11
706.272259
 21
699.987728
  0
LINE
  8
CSLAYER1
  6
CONTINUOUS
 62
     4
 10
718.272259
 20
733.987728
 11
718.272259
 21
699.987728
  0
LINE
  8
CSLAYER1
  6
CONTINUOUS
 62
     4
 10
701.172259
 20
733.987728
 11
718.272259
 21
733.987728
  0
LINE
  8
CSLAYER1
  6
CONTINUOUS
 62
     4
 10
706.272259
 20
726.987728
 11
720.172259
 21
726.987728
  0
LINE
  8
CSLAYER1
  6
CONTINUOUS
 62
     4
 10
701.172259
 20
699.987728
 11
718.272259
 21
699.987728
  0
LINE
  8
CSLAYER1
  6
CONTINUOUS
 62
     4
 10
706.272259
 20
706.987728
 11
720.172259
 21
706.987728
  0
LINE
  8
CSLAYER1
  6
CONTINUOUS
 62
     4
 10
698.172259
 20
735.487728
 11
701.172259
 21
735.487728
  0
LINE
  8
CSLAYER1
  6
CONTINUOUS
 62
     4
 10
698.172259
 20
698.487728
 11
701.172259
 21
698.487728
  0
LINE
  8
CSLAYER1
  6
CONTINUOUS
 62
     4
 10
698.172259
 20
698.487728
 11
698.172259
 21
735.487728
  0
LINE
  8
CSLAYER1
  6
CONTINUOUS
 62
     4
 10
698.172259
 20
704.487728
 11
697.198800
 21
704.487728
  0
LINE
  8
CSLAYER1
  6
CONTINUOUS
 62
     4
 10
679.172259
 20
738.337728
 11
638.198800
 21
738.337728
  0
LINE
  8
CSLAYER1
  6
CONTINUOUS
 62
     4
 10
680.172259
 20
737.337728
 11
679.172259
 21
738.337728
  0
LINE
  8
CSLAYER1
  6
CONTINUOUS
 62
     4
 10
698.172259
 20
729.487728
 11
697.198800
 21
729.487728
  0
LINE
  8
CSLAYER1
  6
CONTINUOUS
 62
     4
 10
697.172259
 20
690.880803
 11
697.172259
 21
704.487728
  0
LINE
  8
CSLAYER1
  6
CONTINUOUS
 62
     4
 10
622.198800
 20
741.704885
 11
617.481642
 21
736.987728
  0
LINE
  8
CSLAYER1
  6
CONTINUOUS
 62
     4
 10
622.198800
 20
741.422042
 11
617.764485
 21
736.987728
  0
LINE
  8
CSLAYER1
  6
CONTINUOUS
 62
     4
 10
622.198800
 20
741.139199
 11
618.047328
 21
736.987728
  0
LINE
  8
CSLAYER1
  6
CONTINUOUS
 62
     4
 10
622.198800
 20
740.856357
 11
618.330171
 21
736.987728
  0
LINE
  8
CSLAYER1
  6
CONTINUOUS
 62
     4
 10
622.198800
 20
740.573514
 11
618.613013
 21
736.987728
  0
LINE
  8
CSLAYER1
  6
CONTINUOUS
 62
     4
 10
622.198800
 20
740.290671
 11
618.895856
 21
736.987728
  0
LINE
  8
CSLAYER1
  6
CONTINUOUS
 62
     4
 10
622.198800
 20
740.007829
 11
619.178699
 21
736.987728
  0
LINE
  8
CSLAYER1
  6
CONTINUOUS
 62
     4
 10
622.198800
 20
739.724986
 11
619.461541
 21
736.987728
  0
LINE
  8
CSLAYER1
  6
CONTINUOUS
 62
     4
 10
622.198800
 20
739.442143
 11
619.744384
 21
736.987728
  0
LINE
  8
CSLAYER1
  6
CONTINUOUS
 62
     4
 10
622.198800
 20
739.159300
 11
620.027227
 21
736.987728
  0
LINE
  8
CSLAYER1
  6
CONTINUOUS
 62
     4
 10
622.198800
 20
738.876458
 11
620.310070
 21
736.987728
  0
LINE
  8
CSLAYER1
  6
CONTINUOUS
 62
     4
 10
622.198800
 20
738.593615
 11
620.592912
 21
736.987728
  0
LINE
  8
CSLAYER1
  6
CONTINUOUS
 62
     4
 10
622.198800
 20
738.310772
 11
620.875755
 21
736.987728
  0
LINE
  8
CSLAYER1
  6
CONTINUOUS
 62
     4
 10
622.198800
 20
738.027930
 11
621.158598
 21
736.987728
  0
LINE
  8
CSLAYER1
  6
CONTINUOUS
 62
     4
 10
622.198800
 20
737.745087
 11
621.441440
 21
736.987728
  0
LINE
  8
CSLAYER1
  6
CONTINUOUS
 62
     4
 10
622.198800
 20
737.462244
 11
621.724283
 21
736.987728
  0
LINE
  8
CSLAYER1
  6
CONTINUOUS
 62
     4
 10
622.198800
 20
737.179401
 11
622.007126
 21
736.987728
  0
LINE
  8
CSLAYER1
  6
CONTINUOUS
 62
     4
 10
643.198800
 20
738.337728
 11
638.198800
 21
743.337728
  0
LINE
  8
CSLAYER1
  6
CONTINUOUS
 62
     4
 10
638.198800
 20
743.054885
 11
642.915957
 21
738.337728
  0
LINE
  8
CSLAYER1
  6
CONTINUOUS
 62
     4
 10
638.198800
 20
742.772042
 11
642.633114
 21
738.337728
  0
LINE
  8
CSLAYER1
  6
CONTINUOUS
 62
     4
 10
638.198800
 20
742.489199
 11
642.350272
 21
738.337728
  0
LINE
  8
CSLAYER1
  6
CONTINUOUS
 62
     4
 10
638.198800
 20
742.206357
 11
642.067429
 21
738.337728
  0
LINE
  8
CSLAYER1
  6
CONTINUOUS
 62
     4
 10
638.198800
 20
741.923514
 11
641.784586
 21
738.337728
  0
LINE
  8
CSLAYER1
  6
CONTINUOUS
 62
     4
 10
638.198800
 20
741.640671
 11
641.501744
 21
738.337728
  0
LINE
  8
CSLAYER1
  6
CONTINUOUS
 62
     4
 10
638.198800
 20
741.357829
 11
641.218901
 21
738.337728
  0
LINE
  8
CSLAYER1
  6
CONTINUOUS
 62
     4
 10
638.198800
 20
741.074986
 11
640.936058
 21
738.337728
  0
LINE
  8
CSLAYER1
  6
CONTINUOUS
 62
     4
 10
638.198800
 20
740.792143
 11
640.653215
 21
738.337728
  0
LINE
  8
CSLAYER1
  6
CONTINUOUS
 62
     4
 10
638.198800
 20
740.509300
 11
640.370373
 21
738.337728
  0
LINE
  8
CSLAYER1
  6
CONTINUOUS
 62
     4
 10
638.198800
 20
740.226458
 11
640.087530
 21
738.337728
  0
LINE
  8
CSLAYER1
  6
CONTINUOUS
 62
     4
 10
638.198800
 20
739.943615
 11
639.804687
 21
738.337728
  0
LINE
  8
CSLAYER1
  6
CONTINUOUS
 62
     4
 10
638.198800
 20
739.660772
 11
639.521845
 21
738.337728
  0
LINE
  8
CSLAYER1
  6
CONTINUOUS
 62
     4
 10
638.198800
 20
739.377930
 11
639.239002
 21
738.337728
  0
LINE
  8
CSLAYER1
  6
CONTINUOUS
 62
     4
 10
638.198800
 20
739.095087
 11
638.956159
 21
738.337728
  0
LINE
  8
CSLAYER1
  6
CONTINUOUS
 62
     4
 10
638.198800
 20
738.812244
 11
638.673316
 21
738.337728
  0
LINE
  8
CSLAYER1
  6
CONTINUOUS
 62
     4
 10
638.198800
 20
738.529401
 11
638.390474
 21
738.337728
  0
LINE
  8
CSLAYER1
  6
CONTINUOUS
 62
     4
 10
622.198800
 20
1054.617442
 11
622.198800
 21
488.358013
  0
LINE
  8
CSLAYER1
  6
CONTINUOUS
 62
     4
 10
621.158598
 20
736.987728
 11
622.198800
 21
736.987728
  0
LINE
  8
CSLAYER1
  6
CONTINUOUS
 62
     4
 10
620.007126
 20
736.987728
 11
617.576389
 21
736.987728
  0
LINE
  8
CSLAYER1
  6
CONTINUOUS
 62
     4
 10
681.198800
 20
731.987728
 11
680.172259
 21
731.987728
  0
LINE
  8
CSLAYER1
  6
CONTINUOUS
 62
     4
 10
681.198800
 20
701.987728
 11
680.172259
 21
701.987728
  0
LINE
  8
CSLAYER1
  6
CONTINUOUS
 62
     4
 10
622.198800
 20
696.987728
 11
621.198800
 21
696.987728
  0
LINE
  8
CSLAYER1
  6
CONTINUOUS
 62
     4
 10
640.198800
 20
720.099924
 11
640.198800
 21
688.099924
  0
LINE
  8
CSLAYER1
  6
CONTINUOUS
 62
     4
 10
650.198800
 20
718.099924
 11
650.198800
 21
690.099924
  0
LINE
  8
CSLAYER1
  6
CONTINUOUS
 62
     4
 10
648.198800
 20
720.099924
 11
640.198800
 21
720.099924
  0
LINE
  8
CSLAYER1
  6
CONTINUOUS
 62
     4
 10
650.198800
 20
718.099924
 11
648.198800
 21
720.099924
  0
LINE
  8
CSLAYER1
  6
CONTINUOUS
 62
     4
 10
648.198800
 20
720.099924
 11
648.198800
 21
688.099924
  0
LINE
  8
CSLAYER1
  6
CONTINUOUS
 62
     4
 10
648.198800
 20
688.099924
 11
640.198800
 21
688.099924
  0
LINE
  8
CSLAYER1
  6
CONTINUOUS
 62
     4
 10
650.198800
 20
690.099924
 11
648.198800
 21
688.099924
  0
LINE
  8
CSLAYER1
  6
CONTINUOUS
 62
     4
 10
640.198800
 20
718.099924
 11
638.198800
 21
718.099924
  0
LINE
  8
CSLAYER1
  6
CONTINUOUS
 62
     4
 10
640.198800
 20
690.099924
 11
638.198800
 21
690.099924
  0
LINE
  8
CSLAYER1
  6
CONTINUOUS
 62
     4
 10
470.648800
 20
878.159416
 11
470.648800
 21
766.452277
  0
LINE
  8
CSLAYER1
  6
CONTINUOUS
 62
     4
 10
559.748800
 20
878.159416
 11
559.748800
 21
766.452277
  0
LINE
  8
CSLAYER1
  6
CONTINUOUS
 62
     1
 10
577.657001
 20
766.452277
 11
452.740598
 21
766.452277
  0
LINE
  8
CSLAYER1
  6
CONTINUOUS
 62
     1
 10
577.657001
 20
742.993110
 11
452.740598
 21
742.993110
  0
LINE
  8
CSLAYER1
  6
CONTINUOUS
 62
     1
 10
581.198800
 20
641.747571
 11
575.198800
 21
641.747571
  0
LINE
  8
CSLAYER1
  6
CONTINUOUS
 62
     1
 10
569.198800
 20
684.746111
 11
568.993313
 21
688.553677
  0
LINE
  8
CSLAYER1
  6
CONTINUOUS
 62
     1
 10
568.993313
 20
688.553677
 11
568.378418
 21
692.332265
  0
LINE
  8
CSLAYER1
  6
CONTINUOUS
 62
     1
 10
568.378418
 20
692.332265
 11
567.358794
 21
696.053118
  0
LINE
  8
CSLAYER1
  6
CONTINUOUS
 62
     1
 10
567.358794
 20
696.053118
 11
565.942201
 21
699.687917
  0
LINE
  8
CSLAYER1
  6
CONTINUOUS
 62
     1
 10
565.942201
 20
699.687917
 11
564.139420
 21
703.209000
  0
LINE
  8
CSLAYER1
  6
CONTINUOUS
 62
     1
 10
564.139420
 20
703.209000
 11
561.964172
 21
706.589570
  0
LINE
  8
CSLAYER1
  6
CONTINUOUS
 62
     1
 10
561.964172
 20
706.589570
 11
559.433010
 21
709.803898
  0
LINE
  8
CSLAYER1
  6
CONTINUOUS
 62
     1
 10
559.433010
 20
709.803898
 11
556.565200
 21
712.827521
  0
LINE
  8
CSLAYER1
  6
CONTINUOUS
 62
     1
 10
556.565200
 20
712.827521
 11
553.382566
 21
715.637427
  0
LINE
  8
CSLAYER1
  6
CONTINUOUS
 62
     1
 10
553.382566
 20
715.637427
 11
549.909331
 21
718.212232
  0
LINE
  8
CSLAYER1
  6
CONTINUOUS
 62
     1
 10
549.909331
 20
718.212232
 11
546.171927
 21
720.532339
  0
LINE
  8
CSLAYER1
  6
CONTINUOUS
 62
     1
 10
546.171927
 20
720.532339
 11
542.198800
 21
722.580092
  0
LINE
  8
CSLAYER1
  6
CONTINUOUS
 62
     1
 10
542.198800
 20
722.580092
 11
538.020186
 21
724.339905
  0
LINE
  8
CSLAYER1
  6
CONTINUOUS
 62
     1
 10
538.020186
 20
724.339905
 11
533.667888
 21
725.798385
  0
LINE
  8
CSLAYER1
  6
CONTINUOUS
 62
     1
 10
533.667888
 20
725.798385
 11
529.175028
 21
726.944433
  0
LINE
  8
CSLAYER1
  6
CONTINUOUS
 62
     1
 10
529.175028
 20
726.944433
 11
524.575801
 21
727.769326
  0
LINE
  8
CSLAYER1
  6
CONTINUOUS
 62
     1
 10
524.575801
 20
727.769326
 11
519.905210
 21
728.266787
  0
LINE
  8
CSLAYER1
  6
CONTINUOUS
 62
     1
 10
519.905210
 20
728.266787
 11
515.198800
 21
728.433029
  0
LINE
  8
CSLAYER1
  6
CONTINUOUS
 62
     1
 10
575.198800
 20
654.249195
 11
574.970482
 21
658.479823
  0
LINE
  8
CSLAYER1
  6
CONTINUOUS
 62
     1
 10
574.970482
 20
658.479823
 11
574.287265
 21
662.678254
  0
LINE
  8
CSLAYER1
  6
CONTINUOUS
 62
     1
 10
574.287265
 20
662.678254
 11
573.154349
 21
666.812535
  0
LINE
  8
CSLAYER1
  6
CONTINUOUS
 62
     1
 10
573.154349
 20
666.812535
 11
571.580357
 21
670.851201
  0
LINE
  8
CSLAYER1
  6
CONTINUOUS
 62
     1
 10
571.580357
 20
670.851201
 11
569.577267
 21
674.763516
  0
LINE
  8
CSLAYER1
  6
CONTINUOUS
 62
     1
 10
569.577267
 20
674.763516
 11
567.160324
 21
678.519704
  0
LINE
  8
CSLAYER1
  6
CONTINUOUS
 62
     1
 10
567.160324
 20
678.519704
 11
564.347922
 21
682.091180
  0
LINE
  8
CSLAYER1
  6
CONTINUOUS
 62
     1
 10
564.347922
 20
682.091180
 11
561.161466
 21
685.450761
  0
LINE
  8
CSLAYER1
  6
CONTINUOUS
 62
     1
 10
561.161466
 20
685.450761
 11
557.625207
 21
688.572879
  0
LINE
  8
CSLAYER1
  6
CONTINUOUS
 62
     1
 10
557.625207
 20
688.572879
 11
553.766056
 21
691.433773
  0
LINE
  8
CSLAYER1
  6
CONTINUOUS
 62
     1
 10
553.766056
 20
691.433773
 11
549.613386
 21
694.011670
  0
LINE
  8
CSLAYER1
  6
CONTINUOUS
 62
     1
 10
549.613386
 20
694.011670
 11
545.198800
 21
696.286951
  0
LINE
  8
CSLAYER1
  6
CONTINUOUS
 62
     1
 10
545.198800
 20
696.286951
 11
540.555895
 21
698.242299
  0
LINE
  8
CSLAYER1
  6
CONTINUOUS
 62
     1
 10
540.555895
 20
698.242299
 11
535.720008
 21
699.862833
  0
LINE
  8
CSLAYER1
  6
CONTINUOUS
 62
     1
 10
535.720008
 20
699.862833
 11
530.727942
 21
701.136219
  0
LINE
  8
CSLAYER1
  6
CONTINUOUS
 62
     1
 10
530.727942
 20
701.136219
 11
525.617690
 21
702.052767
  0
LINE
  8
CSLAYER1
  6
CONTINUOUS
 62
     1
 10
525.617690
 20
702.052767
 11
520.428144
 21
702.605501
  0
LINE
  8
CSLAYER1
  6
CONTINUOUS
 62
     1
 10
520.428144
 20
702.605501
 11
515.198800
 21
702.790214
  0
LINE
  8
CSLAYER1
  6
CONTINUOUS
 62
     1
 10
577.198800
 20
568.036757
 11
576.962871
 21
572.408407
  0
LINE
  8
CSLAYER1
  6
CONTINUOUS
 62
     1
 10
576.962871
 20
572.408407
 11
576.256880
 21
576.746785
  0
LINE
  8
CSLAYER1
  6
CONTINUOUS
 62
     1
 10
576.256880
 20
576.746785
 11
575.086201
 21
581.018876
  0
LINE
  8
CSLAYER1
  6
CONTINUOUS
 62
     1
 10
575.086201
 20
581.018876
 11
573.459742
 21
585.192164
  0
LINE
  8
CSLAYER1
  6
CONTINUOUS
 62
     1
 10
573.459742
 20
585.192164
 11
571.389883
 21
589.234889
  0
LINE
  8
CSLAYER1
  6
CONTINUOUS
 62
     1
 10
571.389883
 20
589.234889
 11
568.892375
 21
593.116284
  0
LINE
  8
CSLAYER1
  6
CONTINUOUS
 62
     1
 10
568.892375
 20
593.116284
 11
565.986227
 21
596.806808
  0
LINE
  8
CSLAYER1
  6
CONTINUOUS
 62
     1
 10
565.986227
 20
596.806808
 11
562.693555
 21
600.278375
  0
LINE
  8
CSLAYER1
  6
CONTINUOUS
 62
     1
 10
562.693555
 20
600.278375
 11
559.039420
 21
603.504564
  0
LINE
  8
CSLAYER1
  6
CONTINUOUS
 62
     1
 10
559.039420
 20
603.504564
 11
555.051632
 21
606.460822
  0
LINE
  8
CSLAYER1
  6
CONTINUOUS
 62
     1
 10
555.051632
 20
606.460822
 11
550.760539
 21
609.124649
  0
LINE
  8
CSLAYER1
  6
CONTINUOUS
 62
     1
 10
550.760539
 20
609.124649
 11
546.198800
 21
611.475772
  0
LINE
  8
CSLAYER1
  6
CONTINUOUS
 62
     1
 10
546.198800
 20
611.475772
 11
541.401132
 21
613.496298
  0
LINE
  8
CSLAYER1
  6
CONTINUOUS
 62
     1
 10
541.401132
 20
613.496298
 11
536.404049
 21
615.170850
  0
LINE
  8
CSLAYER1
  6
CONTINUOUS
 62
     1
 10
536.404049
 20
615.170850
 11
531.245581
 21
616.486683
  0
LINE
  8
CSLAYER1
  6
CONTINUOUS
 62
     1
 10
531.245581
 20
616.486683
 11
525.964987
 21
617.433782
  0
LINE
  8
CSLAYER1
  6
CONTINUOUS
 62
     1
 10
525.964987
 20
617.433782
 11
520.602456
 21
618.004941
  0
LINE
  8
CSLAYER1
  6
CONTINUOUS
 62
     1
 10
520.602456
 20
618.004941
 11
515.198800
 21
618.195811
  0
LINE
  8
CSLAYER1
  6
CONTINUOUS
 62
     1
 10
577.198800
 20
534.607445
 11
576.962871
 21
538.979094
  0
LINE
  8
CSLAYER1
  6
CONTINUOUS
 62
     1
 10
576.962871
 20
538.979094
 11
576.256880
 21
543.317473
  0
LINE
  8
CSLAYER1
  6
CONTINUOUS
 62
     1
 10
576.256880
 20
543.317473
 11
575.086201
 21
547.589563
  0
LINE
  8
CSLAYER1
  6
CONTINUOUS
 62
     1
 10
575.086201
 20
547.589563
 11
573.459742
 21
551.762851
  0
LINE
  8
CSLAYER1
  6
CONTINUOUS
 62
     1
 10
573.459742
 20
551.762851
 11
571.389883
 21
555.805577
  0
LINE
  8
CSLAYER1
  6
CONTINUOUS
 62
     1
 10
571.389883
 20
555.805577
 11
568.892375
 21
559.686972
  0
LINE
  8
CSLAYER1
  6
CONTINUOUS
 62
     1
 10
568.892375
 20
559.686972
 11
565.986227
 21
563.377496
  0
LINE
  8
CSLAYER1
  6
CONTINUOUS
 62
     1
 10
565.986227
 20
563.377496
 11
562.693555
 21
566.849063
  0
LINE
  8
CSLAYER1
  6
CONTINUOUS
 62
     1
 10
562.693555
 20
566.849063
 11
559.039420
 21
570.075252
  0
LINE
  8
CSLAYER1
  6
CONTINUOUS
 62
     1
 10
559.039420
 20
570.075252
 11
555.051632
 21
573.031509
  0
LINE
  8
CSLAYER1
  6
CONTINUOUS
 62
     1
 10
555.051632
 20
573.031509
 11
550.760539
 21
575.695336
  0
LINE
  8
CSLAYER1
  6
CONTINUOUS
 62
     1
 10
550.760539
 20
575.695336
 11
546.198800
 21
578.046459
  0
LINE
  8
CSLAYER1
  6
CONTINUOUS
 62
     1
 10
546.198800
 20
578.046459
 11
541.401132
 21
580.066986
  0
LINE
  8
CSLAYER1
  6
CONTINUOUS
 62
     1
 10
541.401132
 20
580.066986
 11
536.404049
 21
581.741537
  0
LINE
  8
CSLAYER1
  6
CONTINUOUS
 62
     1
 10
536.404049
 20
581.741537
 11
531.245581
 21
583.057370
  0
LINE
  8
CSLAYER1
  6
CONTINUOUS
 62
     1
 10
531.245581
 20
583.057370
 11
525.964987
 21
584.004470
  0
LINE
  8
CSLAYER1
  6
CONTINUOUS
 62
     1
 10
525.964987
 20
584.004470
 11
520.602456
 21
584.575628
  0
LINE
  8
CSLAYER1
  6
CONTINUOUS
 62
     1
 10
520.602456
 20
584.575628
 11
515.198800
 21
584.766498
  0
LINE
  8
CSLAYER1
  6
CONTINUOUS
 62
     1
 10
539.043994
 20
488.358013
 11
541.401132
 21
489.147904
  0
LINE
  8
CSLAYER1
  6
CONTINUOUS
 62
     1
 10
541.401132
 20
489.147904
 11
546.198800
 21
491.168430
  0
LINE
  8
CSLAYER1
  6
CONTINUOUS
 62
     1
 10
546.198800
 20
491.168430
 11
550.760539
 21
493.519553
  0
LINE
  8
CSLAYER1
  6
CONTINUOUS
 62
     1
 10
550.760539
 20
493.519553
 11
555.051632
 21
496.183380
  0
LINE
  8
CSLAYER1
  6
CONTINUOUS
 62
     1
 10
555.051632
 20
496.183380
 11
559.039420
 21
499.139638
  0
LINE
  8
CSLAYER1
  6
CONTINUOUS
 62
     1
 10
559.039420
 20
499.139638
 11
562.693555
 21
502.365827
  0
LINE
  8
CSLAYER1
  6
CONTINUOUS
 62
     1
 10
562.693555
 20
502.365827
 11
565.986227
 21
505.837394
  0
LINE
  8
CSLAYER1
  6
CONTINUOUS
 62
     1
 10
565.986227
 20
505.837394
 11
568.892375
 21
509.527918
  0
LINE
  8
CSLAYER1
  6
CONTINUOUS
 62
     1
 10
568.892375
 20
509.527918
 11
571.389883
 21
513.409313
  0
LINE
  8
CSLAYER1
  6
CONTINUOUS
 62
     1
 10
571.389883
 20
513.409313
 11
573.459742
 21
517.452038
  0
LINE
  8
CSLAYER1
  6
CONTINUOUS
 62
     1
 10
573.459742
 20
517.452038
 11
575.086201
 21
521.625326
  0
LINE
  8
CSLAYER1
  6
CONTINUOUS
 62
     1
 10
575.086201
 20
521.625326
 11
576.256880
 21
525.897417
  0
LINE
  8
CSLAYER1
  6
CONTINUOUS
 62
     1
 10
576.256880
 20
525.897417
 11
576.962871
 21
530.235795
  0
LINE
  8
CSLAYER1
  6
CONTINUOUS
 62
     1
 10
576.962871
 20
530.235795
 11
577.198800
 21
534.607445
  0
LINE
  8
CSLAYER1
  6
CONTINUOUS
 62
     1
 10
569.198800
 20
684.746111
 11
569.198800
 21
592.640067
  0
LINE
  8
CSLAYER1
  6
CONTINUOUS
 62
     1
 10
575.198800
 20
654.249195
 11
575.198800
 21
580.230446
  0
LINE
  8
CSLAYER1
  6
CONTINUOUS
 62
     1
 10
577.198800
 20
568.036757
 11
577.198800
 21
534.607445
  0
LINE
  8
CSLAYER1
  6
CONTINUOUS
 62
     1
 10
581.069379
 20
625.545462
 11
596.628216
 21
625.545462
  0
LINE
  8
CSLAYER1
  6
CONTINUOUS
 62
     1
 10
572.648042
 20
581.525778
 11
583.265406
 21
581.525778
  0
LINE
  8
CSLAYER1
  6
CONTINUOUS
 62
     1
 10
588.698800
 20
616.859971
 11
588.698800
 21
634.683660
  0
LINE
  8
CSLAYER1
  6
CONTINUOUS
 62
     1
 10
579.164230
 20
562.036757
 11
597.198800
 21
562.036757
  0
LINE
  8
CSLAYER1
  6
CONTINUOUS
 62
     1
 10
579.164230
 20
637.045462
 11
597.198800
 21
637.045462
  0
LINE
  8
CSLAYER1
  6
CONTINUOUS
 62
     1
 10
600.198800
 20
634.045462
 11
600.198800
 21
543.358462
  0
LINE
  8
CSLAYER1
  6
CONTINUOUS
 62
     1
 10
579.164230
 20
540.358462
 11
579.164230
 21
637.045462
  0
LINE
  8
CSLAYER1
  6
CONTINUOUS
 62
     1
 10
577.198800
 20
568.035322
 11
579.164230
 21
568.035322
  0
LINE
  8
CSLAYER1
  6
CONTINUOUS
 62
     1
 10
575.198800
 20
595.016234
 11
579.164230
 21
595.016234
  0
ARC
  8
CSLAYER1
  6
CONTINUOUS
 62
     1
 10
597.198800
 20
565.036757
 40
3.000000
 50
270.000000
 51
360.000000
  0
ARC
  8
CSLAYER1
  6
CONTINUOUS
 62
     1
 10
597.198800
 20
634.045462
 40
3.000000
 50
0.000000
 51
90.000000
  0
LINE
  8
CSLAYER1
  6
CONTINUOUS
 62
     1
 10
567.198800
 20
595.266959
 11
567.198800
 21
678.459909
  0
LINE
  8
CSLAYER1
  6
CONTINUOUS
 62
     1
 10
547.198800
 20
610.960371
 11
547.198800
 21
695.256149
  0
LINE
  8
CSLAYER1
  6
CONTINUOUS
 62
     1
 10
540.198800
 20
613.899207
 11
540.198800
 21
698.392689
  0
LINE
  8
CSLAYER1
  6
CONTINUOUS
 62
     1
 10
532.198800
 20
616.243533
 11
532.198800
 21
700.761030
  0
ARC
  8
CSLAYER1
  6
CONTINUOUS
 62
     1
 10
597.198800
 20
543.358462
 40
3.000000
 50
270.000000
 51
360.000000
  0
LINE
  8
CSLAYER1
  6
CONTINUOUS
 62
     1
 10
579.164230
 20
540.358462
 11
597.198800
 21
540.358462
  0
ARC
  8
CSLAYER1
  6
CONTINUOUS
 62
     1
 10
597.198800
 20
595.196178
 40
3.000000
 50
270.000000
 51
360.000000
  0
LINE
  8
CSLAYER1
  6
CONTINUOUS
 62
     1
 10
579.164230
 20
592.196178
 11
597.198800
 21
592.196178
  0
LINE
  8
CSLAYER1
  6
CONTINUOUS
 62
     1
 10
594.948800
 20
625.545462
 11
594.853848
 21
626.423489
  0
LINE
  8
CSLAYER1
  6
CONTINUOUS
 62
     1
 10
594.853848
 20
626.423489
 11
594.571879
 21
627.274837
  0
LINE
  8
CSLAYER1
  6
CONTINUOUS
 62
     1
 10
594.571879
 20
627.274837
 11
594.111459
 21
628.073640
  0
LINE
  8
CSLAYER1
  6
CONTINUOUS
 62
     1
 10
594.111459
 20
628.073640
 11
593.486578
 21
628.795625
  0
LINE
  8
CSLAYER1
  6
CONTINUOUS
 62
     1
 10
593.486578
 20
628.795625
 11
592.716222
 21
629.418855
  0
LINE
  8
CSLAYER1
  6
CONTINUOUS
 62
     1
 10
592.716222
 20
629.418855
 11
591.823800
 21
629.924395
  0
LINE
  8
CSLAYER1
  6
CONTINUOUS
 62
     1
 10
591.823800
 20
629.924395
 11
590.836426
 21
630.296882
  0
LINE
  8
CSLAYER1
  6
CONTINUOUS
 62
     1
 10
590.836426
 20
630.296882
 11
589.784101
 21
630.525001
  0
LINE
  8
CSLAYER1
  6
CONTINUOUS
 62
     1
 10
589.784101
 20
630.525001
 11
588.698800
 21
630.601818
  0
LINE
  8
CSLAYER1
  6
CONTINUOUS
 62
     1
 10
588.698800
 20
630.601818
 11
587.613499
 21
630.525001
  0
LINE
  8
CSLAYER1
  6
CONTINUOUS
 62
     1
 10
587.613499
 20
630.525001
 11
586.561174
 21
630.296882
  0
LINE
  8
CSLAYER1
  6
CONTINUOUS
 62
     1
 10
586.561174
 20
630.296882
 11
585.573800
 21
629.924395
  0
LINE
  8
CSLAYER1
  6
CONTINUOUS
 62
     1
 10
585.573800
 20
629.924395
 11
584.681377
 21
629.418855
  0
LINE
  8
CSLAYER1
  6
CONTINUOUS
 62
     1
 10
584.681377
 20
629.418855
 11
583.911022
 21
628.795625
  0
LINE
  8
CSLAYER1
  6
CONTINUOUS
 62
     1
 10
583.911022
 20
628.795625
 11
583.286141
 21
628.073640
  0
LINE
  8
CSLAYER1
  6
CONTINUOUS
 62
     1
 10
583.286141
 20
628.073640
 11
582.825721
 21
627.274837
  0
LINE
  8
CSLAYER1
  6
CONTINUOUS
 62
     1
 10
582.825721
 20
627.274837
 11
582.543751
 21
626.423489
  0
LINE
  8
CSLAYER1
  6
CONTINUOUS
 62
     1
 10
582.543751
 20
626.423489
 11
582.448800
 21
625.545462
  0
LINE
  8
CSLAYER1
  6
CONTINUOUS
 62
     1
 10
582.448800
 20
625.545462
 11
582.543751
 21
624.667435
  0
LINE
  8
CSLAYER1
  6
CONTINUOUS
 62
     1
 10
582.543751
 20
624.667435
 11
582.825721
 21
623.816086
  0
LINE
  8
CSLAYER1
  6
CONTINUOUS
 62
     1
 10
582.825721
 20
623.816086
 11
583.286141
 21
623.017284
  0
LINE
  8
CSLAYER1
  6
CONTINUOUS
 62
     1
 10
583.286141
 20
623.017284
 11
583.911022
 21
622.295299
  0
LINE
  8
CSLAYER1
  6
CONTINUOUS
 62
     1
 10
583.911022
 20
622.295299
 11
584.681377
 21
621.672068
  0
LINE
  8
CSLAYER1
  6
CONTINUOUS
 62
     1
 10
584.681377
 20
621.672068
 11
585.573800
 21
621.166529
  0
LINE
  8
CSLAYER1
  6
CONTINUOUS
 62
     1
 10
585.573800
 20
621.166529
 11
586.561174
 21
620.794041
  0
LINE
  8
CSLAYER1
  6
CONTINUOUS
 62
     1
 10
586.561174
 20
620.794041
 11
587.613499
 21
620.565923
  0
LINE
  8
CSLAYER1
  6
CONTINUOUS
 62
     1
 10
587.613499
 20
620.565923
 11
588.698800
 21
620.489106
  0
LINE
  8
CSLAYER1
  6
CONTINUOUS
 62
     1
 10
588.698800
 20
620.489106
 11
589.784101
 21
620.565923
  0
LINE
  8
CSLAYER1
  6
CONTINUOUS
 62
     1
 10
589.784101
 20
620.565923
 11
590.836426
 21
620.794041
  0
LINE
  8
CSLAYER1
  6
CONTINUOUS
 62
     1
 10
590.836426
 20
620.794041
 11
591.823800
 21
621.166529
  0
LINE
  8
CSLAYER1
  6
CONTINUOUS
 62
     1
 10
591.823800
 20
621.166529
 11
592.716222
 21
621.672068
  0
LINE
  8
CSLAYER1
  6
CONTINUOUS
 62
     1
 10
592.716222
 20
621.672068
 11
593.486578
 21
622.295299
  0
LINE
  8
CSLAYER1
  6
CONTINUOUS
 62
     1
 10
593.486578
 20
622.295299
 11
594.111459
 21
623.017284
  0
LINE
  8
CSLAYER1
  6
CONTINUOUS
 62
     1
 10
594.111459
 20
623.017284
 11
594.571879
 21
623.816086
  0
LINE
  8
CSLAYER1
  6
CONTINUOUS
 62
     1
 10
594.571879
 20
623.816086
 11
594.853848
 21
624.667435
  0
LINE
  8
CSLAYER1
  6
CONTINUOUS
 62
     1
 10
594.853848
 20
624.667435
 11
594.948800
 21
625.545462
  0
LINE
  8
CSLAYER1
  6
CONTINUOUS
 62
     1
 10
621.198800
 20
729.284617
 11
621.198800
 21
678.915230
  0
LINE
  8
CSLAYER1
  6
CONTINUOUS
 62
     1
 10
581.198800
 20
765.804050
 11
581.198800
 21
742.344883
  0
LINE
  8
CSLAYER1
  6
CONTINUOUS
 62
     1
 10
583.951051
 20
764.223051
 11
617.492850
 21
737.055391
  0
LINE
  8
CSLAYER1
  6
CONTINUOUS
 62
     1
 10
583.951051
 20
740.763884
 11
617.492850
 21
713.596225
  0
LINE
  8
CSLAYER1
  6
CONTINUOUS
 62
     1
 10
617.492850
 20
671.144456
 11
581.198800
 21
641.747571
  0
LINE
  8
CSLAYER1
  6
CONTINUOUS
 62
     1
 10
570.198800
 20
726.918378
 11
570.198800
 21
673.549576
  0
LINE
  8
CSLAYER1
  6
CONTINUOUS
 62
     1
 10
560.198800
 20
736.918378
 11
470.198800
 21
736.918378
  0
LINE
  8
CSLAYER1
  6
CONTINUOUS
 62
     1
 10
528.810531
 20
727.037410
 11
560.198800
 21
727.037410
  0
LINE
  8
CSLAYER1
  6
CONTINUOUS
 62
     1
 10
599.198800
 20
686.694434
 11
599.164552
 21
687.329029
  0
LINE
  8
CSLAYER1
  6
CONTINUOUS
 62
     1
 10
599.164552
 20
687.329029
 11
599.062070
 21
687.958793
  0
LINE
  8
CSLAYER1
  6
CONTINUOUS
 62
     1
 10
599.062070
 20
687.958793
 11
598.892132
 21
688.578936
  0
LINE
  8
CSLAYER1
  6
CONTINUOUS
 62
     1
 10
598.892132
 20
688.578936
 11
598.656033
 21
689.184735
  0
LINE
  8
CSLAYER1
  6
CONTINUOUS
 62
     1
 10
598.656033
 20
689.184735
 11
598.355570
 21
689.771583
  0
LINE
  8
CSLAYER1
  6
CONTINUOUS
 62
     1
 10
598.355570
 20
689.771583
 11
597.993028
 21
690.335011
  0
LINE
  8
CSLAYER1
  6
CONTINUOUS
 62
     1
 10
597.993028
 20
690.335011
 11
597.571168
 21
690.870732
  0
LINE
  8
CSLAYER1
  6
CONTINUOUS
 62
     1
 10
597.571168
 20
690.870732
 11
597.093200
 21
691.374669
  0
LINE
  8
CSLAYER1
  6
CONTINUOUS
 62
     1
 10
597.093200
 20
691.374669
 11
596.562761
 21
691.842987
  0
LINE
  8
CSLAYER1
  6
CONTINUOUS
 62
     1
 10
596.562761
 20
691.842987
 11
595.983888
 21
692.272121
  0
LINE
  8
CSLAYER1
  6
CONTINUOUS
 62
     1
 10
595.983888
 20
692.272121
 11
595.360988
 21
692.658806
  0
LINE
  8
CSLAYER1
  6
CONTINUOUS
 62
     1
 10
595.360988
 20
692.658806
 11
594.698800
 21
693.000098
  0
LINE
  8
CSLAYER1
  6
CONTINUOUS
 62
     1
 10
594.698800
 20
693.000098
 11
594.002364
 21
693.293400
  0
LINE
  8
CSLAYER1
  6
CONTINUOUS
 62
     1
 10
594.002364
 20
693.293400
 11
593.276981
 21
693.536480
  0
LINE
  8
CSLAYER1
  6
CONTINUOUS
 62
     1
 10
593.276981
 20
693.536480
 11
592.528171
 21
693.727488
  0
LINE
  8
CSLAYER1
  6
CONTINUOUS
 62
     1
 10
592.528171
 20
693.727488
 11
591.761633
 21
693.864970
  0
LINE
  8
CSLAYER1
  6
CONTINUOUS
 62
     1
 10
591.761633
 20
693.864970
 11
590.983201
 21
693.947880
  0
LINE
  8
CSLAYER1
  6
CONTINUOUS
 62
     1
 10
590.983201
 20
693.947880
 11
590.198800
 21
693.975587
  0
LINE
  8
CSLAYER1
  6
CONTINUOUS
 62
     1
 10
590.198800
 20
693.975587
 11
589.414398
 21
693.947880
  0
LINE
  8
CSLAYER1
  6
CONTINUOUS
 62
     1
 10
589.414398
 20
693.947880
 11
588.635966
 21
693.864970
  0
LINE
  8
CSLAYER1
  6
CONTINUOUS
 62
     1
 10
588.635966
 20
693.864970
 11
587.869428
 21
693.727488
  0
LINE
  8
CSLAYER1
  6
CONTINUOUS
 62
     1
 10
587.869428
 20
693.727488
 11
587.120618
 21
693.536480
  0
LINE
  8
CSLAYER1
  6
CONTINUOUS
 62
     1
 10
587.120618
 20
693.536480
 11
586.395235
 21
693.293400
  0
LINE
  8
CSLAYER1
  6
CONTINUOUS
 62
     1
 10
586.395235
 20
693.293400
 11
585.698800
 21
693.000098
  0
LINE
  8
CSLAYER1
  6
CONTINUOUS
 62
     1
 10
585.698800
 20
693.000098
 11
585.036612
 21
692.658806
  0
LINE
  8
CSLAYER1
  6
CONTINUOUS
 62
     1
 10
585.036612
 20
692.658806
 11
584.413711
 21
692.272121
  0
LINE
  8
CSLAYER1
  6
CONTINUOUS
 62
     1
 10
584.413711
 20
692.272121
 11
583.834839
 21
691.842987
  0
LINE
  8
CSLAYER1
  6
CONTINUOUS
 62
     1
 10
583.834839
 20
691.842987
 11
583.304400
 21
691.374669
  0
LINE
  8
CSLAYER1
  6
CONTINUOUS
 62
     1
 10
583.304400
 20
691.374669
 11
582.826431
 21
690.870732
  0
LINE
  8
CSLAYER1
  6
CONTINUOUS
 62
     1
 10
582.826431
 20
690.870732
 11
582.404571
 21
690.335011
  0
LINE
  8
CSLAYER1
  6
CONTINUOUS
 62
     1
 10
582.404571
 20
690.335011
 11
582.042030
 21
689.771583
  0
LINE
  8
CSLAYER1
  6
CONTINUOUS
 62
     1
 10
582.042030
 20
689.771583
 11
581.741566
 21
689.184735
  0
LINE
  8
CSLAYER1
  6
CONTINUOUS
 62
     1
 10
581.741566
 20
689.184735
 11
581.505467
 21
688.578936
  0
LINE
  8
CSLAYER1
  6
CONTINUOUS
 62
     1
 10
581.505467
 20
688.578936
 11
581.335530
 21
687.958793
  0
LINE
  8
CSLAYER1
  6
CONTINUOUS
 62
     1
 10
581.335530
 20
687.958793
 11
581.233047
 21
687.329029
  0
LINE
  8
CSLAYER1
  6
CONTINUOUS
 62
     1
 10
581.233047
 20
687.329029
 11
581.198800
 21
686.694434
  0
LINE
  8
CSLAYER1
  6
CONTINUOUS
 62
     1
 10
581.198800
 20
686.694434
 11
581.233047
 21
686.059840
  0
LINE
  8
CSLAYER1
  6
CONTINUOUS
 62
     1
 10
581.233047
 20
686.059840
 11
581.335530
 21
685.430076
  0
LINE
  8
CSLAYER1
  6
CONTINUOUS
 62
     1
 10
581.335530
 20
685.430076
 11
581.505467
 21
684.809933
  0
LINE
  8
CSLAYER1
  6
CONTINUOUS
 62
     1
 10
581.505467
 20
684.809933
 11
581.741566
 21
684.204134
  0
LINE
  8
CSLAYER1
  6
CONTINUOUS
 62
     1
 10
581.741566
 20
684.204134
 11
582.042030
 21
683.617286
  0
LINE
  8
CSLAYER1
  6
CONTINUOUS
 62
     1
 10
582.042030
 20
683.617286
 11
582.404571
 21
683.053858
  0
LINE
  8
CSLAYER1
  6
CONTINUOUS
 62
     1
 10
582.404571
 20
683.053858
 11
582.826431
 21
682.518137
  0
LINE
  8
CSLAYER1
  6
CONTINUOUS
 62
     1
 10
582.826431
 20
682.518137
 11
583.304400
 21
682.014200
  0
LINE
  8
CSLAYER1
  6
CONTINUOUS
 62
     1
 10
583.304400
 20
682.014200
 11
583.834839
 21
681.545882
  0
LINE
  8
CSLAYER1
  6
CONTINUOUS
 62
     1
 10
583.834839
 20
681.545882
 11
584.413711
 21
681.116748
  0
LINE
  8
CSLAYER1
  6
CONTINUOUS
 62
     1
 10
584.413711
 20
681.116748
 11
585.036612
 21
680.730063
  0
LINE
  8
CSLAYER1
  6
CONTINUOUS
 62
     1
 10
585.036612
 20
680.730063
 11
585.698800
 21
680.388771
  0
LINE
  8
CSLAYER1
  6
CONTINUOUS
 62
     1
 10
585.698800
 20
680.388771
 11
586.395235
 21
680.095469
  0
LINE
  8
CSLAYER1
  6
CONTINUOUS
 62
     1
 10
586.395235
 20
680.095469
 11
587.120618
 21
679.852389
  0
LINE
  8
CSLAYER1
  6
CONTINUOUS
 62
     1
 10
587.120618
 20
679.852389
 11
587.869428
 21
679.661381
  0
LINE
  8
CSLAYER1
  6
CONTINUOUS
 62
     1
 10
587.869428
 20
679.661381
 11
588.635966
 21
679.523899
  0
LINE
  8
CSLAYER1
  6
CONTINUOUS
 62
     1
 10
588.635966
 20
679.523899
 11
589.414398
 21
679.440989
  0
LINE
  8
CSLAYER1
  6
CONTINUOUS
 62
     1
 10
589.414398
 20
679.440989
 11
590.198800
 21
679.413282
  0
LINE
  8
CSLAYER1
  6
CONTINUOUS
 62
     1
 10
590.198800
 20
679.413282
 11
590.983201
 21
679.440989
  0
LINE
  8
CSLAYER1
  6
CONTINUOUS
 62
     1
 10
590.983201
 20
679.440989
 11
591.761633
 21
679.523899
  0
LINE
  8
CSLAYER1
  6
CONTINUOUS
 62
     1
 10
591.761633
 20
679.523899
 11
592.528171
 21
679.661381
  0
LINE
  8
CSLAYER1
  6
CONTINUOUS
 62
     1
 10
592.528171
 20
679.661381
 11
593.276981
 21
679.852389
  0
LINE
  8
CSLAYER1
  6
CONTINUOUS
 62
     1
 10
593.276981
 20
679.852389
 11
594.002364
 21
680.095469
  0
LINE
  8
CSLAYER1
  6
CONTINUOUS
 62
     1
 10
594.002364
 20
680.095469
 11
594.698800
 21
680.388771
  0
LINE
  8
CSLAYER1
  6
CONTINUOUS
 62
     1
 10
594.698800
 20
680.388771
 11
595.360988
 21
680.730063
  0
LINE
  8
CSLAYER1
  6
CONTINUOUS
 62
     1
 10
595.360988
 20
680.730063
 11
595.983888
 21
681.116748
  0
LINE
  8
CSLAYER1
  6
CONTINUOUS
 62
     1
 10
595.983888
 20
681.116748
 11
596.562761
 21
681.545882
  0
LINE
  8
CSLAYER1
  6
CONTINUOUS
 62
     1
 10
596.562761
 20
681.545882
 11
597.093200
 21
682.014200
  0
LINE
  8
CSLAYER1
  6
CONTINUOUS
 62
     1
 10
597.093200
 20
682.014200
 11
597.571168
 21
682.518137
  0
LINE
  8
CSLAYER1
  6
CONTINUOUS
 62
     1
 10
597.571168
 20
682.518137
 11
597.993028
 21
683.053858
  0
LINE
  8
CSLAYER1
  6
CONTINUOUS
 62
     1
 10
597.993028
 20
683.053858
 11
598.355570
 21
683.617286
  0
LINE
  8
CSLAYER1
  6
CONTINUOUS
 62
     1
 10
598.355570
 20
683.617286
 11
598.656033
 21
684.204134
  0
LINE
  8
CSLAYER1
  6
CONTINUOUS
 62
     1
 10
598.656033
 20
684.204134
 11
598.892132
 21
684.809933
  0
LINE
  8
CSLAYER1
  6
CONTINUOUS
 62
     1
 10
598.892132
 20
684.809933
 11
599.062070
 21
685.430076
  0
LINE
  8
CSLAYER1
  6
CONTINUOUS
 62
     1
 10
599.062070
 20
685.430076
 11
599.164552
 21
686.059840
  0
LINE
  8
CSLAYER1
  6
CONTINUOUS
 62
     1
 10
599.164552
 20
686.059840
 11
599.198800
 21
686.694434
  0
LINE
  8
CSLAYER1
  6
CONTINUOUS
 62
     1
 10
599.198800
 20
692.370340
 11
599.164552
 21
693.004935
  0
LINE
  8
CSLAYER1
  6
CONTINUOUS
 62
     1
 10
599.164552
 20
693.004935
 11
599.062070
 21
693.634699
  0
LINE
  8
CSLAYER1
  6
CONTINUOUS
 62
     1
 10
599.062070
 20
693.634699
 11
598.892132
 21
694.254841
  0
LINE
  8
CSLAYER1
  6
CONTINUOUS
 62
     1
 10
598.892132
 20
694.254841
 11
598.656033
 21
694.860641
  0
LINE
  8
CSLAYER1
  6
CONTINUOUS
 62
     1
 10
598.656033
 20
694.860641
 11
598.355570
 21
695.447489
  0
LINE
  8
CSLAYER1
  6
CONTINUOUS
 62
     1
 10
598.355570
 20
695.447489
 11
597.993028
 21
696.010917
  0
LINE
  8
CSLAYER1
  6
CONTINUOUS
 62
     1
 10
597.993028
 20
696.010917
 11
597.571168
 21
696.546638
  0
LINE
  8
CSLAYER1
  6
CONTINUOUS
 62
     1
 10
597.571168
 20
696.546638
 11
597.093200
 21
697.050575
  0
LINE
  8
CSLAYER1
  6
CONTINUOUS
 62
     1
 10
597.093200
 20
697.050575
 11
596.562761
 21
697.518893
  0
LINE
  8
CSLAYER1
  6
CONTINUOUS
 62
     1
 10
596.562761
 20
697.518893
 11
595.983888
 21
697.948027
  0
LINE
  8
CSLAYER1
  6
CONTINUOUS
 62
     1
 10
595.983888
 20
697.948027
 11
595.360988
 21
698.334712
  0
LINE
  8
CSLAYER1
  6
CONTINUOUS
 62
     1
 10
595.360988
 20
698.334712
 11
594.698800
 21
698.676004
  0
LINE
  8
CSLAYER1
  6
CONTINUOUS
 62
     1
 10
594.698800
 20
698.676004
 11
594.002364
 21
698.969306
  0
LINE
  8
CSLAYER1
  6
CONTINUOUS
 62
     1
 10
594.002364
 20
698.969306
 11
593.276981
 21
699.212386
  0
LINE
  8
CSLAYER1
  6
CONTINUOUS
 62
     1
 10
593.276981
 20
699.212386
 11
592.528171
 21
699.403394
  0
LINE
  8
CSLAYER1
  6
CONTINUOUS
 62
     1
 10
592.528171
 20
699.403394
 11
591.761633
 21
699.540876
  0
LINE
  8
CSLAYER1
  6
CONTINUOUS
 62
     1
 10
591.761633
 20
699.540876
 11
590.983201
 21
699.623786
  0
LINE
  8
CSLAYER1
  6
CONTINUOUS
 62
     1
 10
590.983201
 20
699.623786
 11
590.198800
 21
699.651493
  0
LINE
  8
CSLAYER1
  6
CONTINUOUS
 62
     1
 10
590.198800
 20
699.651493
 11
589.414398
 21
699.623786
  0
LINE
  8
CSLAYER1
  6
CONTINUOUS
 62
     1
 10
589.414398
 20
699.623786
 11
588.635966
 21
699.540876
  0
LINE
  8
CSLAYER1
  6
CONTINUOUS
 62
     1
 10
588.635966
 20
699.540876
 11
587.869428
 21
699.403394
  0
LINE
  8
CSLAYER1
  6
CONTINUOUS
 62
     1
 10
587.869428
 20
699.403394
 11
587.120618
 21
699.212386
  0
LINE
  8
CSLAYER1
  6
CONTINUOUS
 62
     1
 10
587.120618
 20
699.212386
 11
586.395235
 21
698.969306
  0
LINE
  8
CSLAYER1
  6
CONTINUOUS
 62
     1
 10
586.395235
 20
698.969306
 11
585.698800
 21
698.676004
  0
LINE
  8
CSLAYER1
  6
CONTINUOUS
 62
     1
 10
585.698800
 20
698.676004
 11
585.036612
 21
698.334712
  0
LINE
  8
CSLAYER1
  6
CONTINUOUS
 62
     1
 10
585.036612
 20
698.334712
 11
584.413711
 21
697.948027
  0
LINE
  8
CSLAYER1
  6
CONTINUOUS
 62
     1
 10
584.413711
 20
697.948027
 11
583.834839
 21
697.518893
  0
LINE
  8
CSLAYER1
  6
CONTINUOUS
 62
     1
 10
583.834839
 20
697.518893
 11
583.304400
 21
697.050575
  0
LINE
  8
CSLAYER1
  6
CONTINUOUS
 62
     1
 10
583.304400
 20
697.050575
 11
582.826431
 21
696.546638
  0
LINE
  8
CSLAYER1
  6
CONTINUOUS
 62
     1
 10
582.826431
 20
696.546638
 11
582.404571
 21
696.010917
  0
LINE
  8
CSLAYER1
  6
CONTINUOUS
 62
     1
 10
582.404571
 20
696.010917
 11
582.042030
 21
695.447489
  0
LINE
  8
CSLAYER1
  6
CONTINUOUS
 62
     1
 10
582.042030
 20
695.447489
 11
581.741566
 21
694.860641
  0
LINE
  8
CSLAYER1
  6
CONTINUOUS
 62
     1
 10
581.741566
 20
694.860641
 11
581.505467
 21
694.254841
  0
LINE
  8
CSLAYER1
  6
CONTINUOUS
 62
     1
 10
581.505467
 20
694.254841
 11
581.335530
 21
693.634699
  0
LINE
  8
CSLAYER1
  6
CONTINUOUS
 62
     1
 10
581.335530
 20
693.634699
 11
581.233047
 21
693.004935
  0
LINE
  8
CSLAYER1
  6
CONTINUOUS
 62
     1
 10
581.233047
 20
693.004935
 11
581.198800
 21
692.370340
  0
LINE
  8
CSLAYER1
  6
CONTINUOUS
 62
     1
 10
599.198800
 20
692.370340
 11
599.198800
 21
686.694434
  0
LINE
  8
CSLAYER1
  6
CONTINUOUS
 62
     1
 10
581.198800
 20
692.370340
 11
581.198800
 21
686.694434
  0
ARC
  8
CSLAYER1
  6
CONTINUOUS
 62
     1
 10
577.657001
 20
756.452277
 40
10.000000
 50
50.993762
 51
90.000000
  0
ARC
  8
CSLAYER1
  6
CONTINUOUS
 62
     1
 10
577.657001
 20
732.993110
 40
10.000000
 50
50.993762
 51
90.000000
  0
ARC
  8
CSLAYER1
  6
CONTINUOUS
 62
     1
 10
611.198800
 20
729.284617
 40
10.000000
 50
0.000000
 51
50.993762
  0
ARC
  8
CSLAYER1
  6
CONTINUOUS
 62
     1
 10
611.198800
 20
705.825450
 40
10.000000
 50
0.000000
 51
50.993762
  0
ARC
  8
CSLAYER1
  6
CONTINUOUS
 62
     1
 10
611.198800
 20
678.915230
 40
10.000000
 50
309.006238
 51
360.000000
  0
ARC
  8
CSLAYER1
  6
CONTINUOUS
 62
     1
 10
560.198800
 20
726.918378
 40
10.000000
 50
0.000000
 51
90.000000
  0
ARC
  8
CSLAYER1
  6
CONTINUOUS
 62
     1
 10
560.198800
 20
717.037410
 40
10.000000
 50
0.000000
 51
90.000000
  0
LINE
  8
CSLAYER1
  6
CONTINUOUS
 62
     1
 10
449.198800
 20
641.747571
 11
455.198800
 21
641.747571
  0
LINE
  8
CSLAYER1
  6
CONTINUOUS
 62
     1
 10
461.198800
 20
684.746111
 11
461.404286
 21
688.553677
  0
LINE
  8
CSLAYER1
  6
CONTINUOUS
 62
     1
 10
461.404286
 20
688.553677
 11
462.019181
 21
692.332265
  0
LINE
  8
CSLAYER1
  6
CONTINUOUS
 62
     1
 10
462.019181
 20
692.332265
 11
463.038805
 21
696.053118
  0
LINE
  8
CSLAYER1
  6
CONTINUOUS
 62
     1
 10
463.038805
 20
696.053118
 11
464.455398
 21
699.687917
  0
LINE
  8
CSLAYER1
  6
CONTINUOUS
 62
     1
 10
464.455398
 20
699.687917
 11
466.258179
 21
703.209000
  0
LINE
  8
CSLAYER1
  6
CONTINUOUS
 62
     1
 10
466.258179
 20
703.209000
 11
468.433428
 21
706.589570
  0
LINE
  8
CSLAYER1
  6
CONTINUOUS
 62
     1
 10
468.433428
 20
706.589570
 11
470.964589
 21
709.803898
  0
LINE
  8
CSLAYER1
  6
CONTINUOUS
 62
     1
 10
470.964589
 20
709.803898
 11
473.832400
 21
712.827521
  0
LINE
  8
CSLAYER1
  6
CONTINUOUS
 62
     1
 10
473.832400
 20
712.827521
 11
477.015034
 21
715.637427
  0
LINE
  8
CSLAYER1
  6
CONTINUOUS
 62
     1
 10
477.015034
 20
715.637427
 11
480.488269
 21
718.212232
  0
LINE
  8
CSLAYER1
  6
CONTINUOUS
 62
     1
 10
480.488269
 20
718.212232
 11
484.225672
 21
720.532339
  0
LINE
  8
CSLAYER1
  6
CONTINUOUS
 62
     1
 10
484.225672
 20
720.532339
 11
488.198800
 21
722.580092
  0
LINE
  8
CSLAYER1
  6
CONTINUOUS
 62
     1
 10
488.198800
 20
722.580092
 11
492.377414
 21
724.339905
  0
LINE
  8
CSLAYER1
  6
CONTINUOUS
 62
     1
 10
492.377414
 20
724.339905
 11
496.729712
 21
725.798385
  0
LINE
  8
CSLAYER1
  6
CONTINUOUS
 62
     1
 10
496.729712
 20
725.798385
 11
501.222571
 21
726.944433
  0
LINE
  8
CSLAYER1
  6
CONTINUOUS
 62
     1
 10
501.222571
 20
726.944433
 11
505.821798
 21
727.769326
  0
LINE
  8
CSLAYER1
  6
CONTINUOUS
 62
     1
 10
505.821798
 20
727.769326
 11
510.492390
 21
728.266787
  0
LINE
  8
CSLAYER1
  6
CONTINUOUS
 62
     1
 10
510.492390
 20
728.266787
 11
515.198800
 21
728.433029
  0
LINE
  8
CSLAYER1
  6
CONTINUOUS
 62
     1
 10
455.198800
 20
654.249195
 11
455.427118
 21
658.479823
  0
LINE
  8
CSLAYER1
  6
CONTINUOUS
 62
     1
 10
455.427118
 20
658.479823
 11
456.110335
 21
662.678254
  0
LINE
  8
CSLAYER1
  6
CONTINUOUS
 62
     1
 10
456.110335
 20
662.678254
 11
457.243250
 21
666.812535
  0
LINE
  8
CSLAYER1
  6
CONTINUOUS
 62
     1
 10
457.243250
 20
666.812535
 11
458.817243
 21
670.851201
  0
LINE
  8
CSLAYER1
  6
CONTINUOUS
 62
     1
 10
458.817243
 20
670.851201
 11
460.820333
 21
674.763516
  0
LINE
  8
CSLAYER1
  6
CONTINUOUS
 62
     1
 10
460.820333
 20
674.763516
 11
463.237276
 21
678.519704
  0
LINE
  8
CSLAYER1
  6
CONTINUOUS
 62
     1
 10
463.237276
 20
678.519704
 11
466.049677
 21
682.091180
  0
LINE
  8
CSLAYER1
  6
CONTINUOUS
 62
     1
 10
466.049677
 20
682.091180
 11
469.236133
 21
685.450761
  0
LINE
  8
CSLAYER1
  6
CONTINUOUS
 62
     1
 10
469.236133
 20
685.450761
 11
472.772393
 21
688.572879
  0
LINE
  8
CSLAYER1
  6
CONTINUOUS
 62
     1
 10
472.772393
 20
688.572879
 11
476.631543
 21
691.433773
  0
LINE
  8
CSLAYER1
  6
CONTINUOUS
 62
     1
 10
476.631543
 20
691.433773
 11
480.784214
 21
694.011670
  0
LINE
  8
CSLAYER1
  6
CONTINUOUS
 62
     1
 10
480.784214
 20
694.011670
 11
485.198800
 21
696.286951
  0
LINE
  8
CSLAYER1
  6
CONTINUOUS
 62
     1
 10
485.198800
 20
696.286951
 11
489.841704
 21
698.242299
  0
LINE
  8
CSLAYER1
  6
CONTINUOUS
 62
     1
 10
489.841704
 20
698.242299
 11
494.677591
 21
699.862833
  0
LINE
  8
CSLAYER1
  6
CONTINUOUS
 62
     1
 10
494.677591
 20
699.862833
 11
499.669657
 21
701.136219
  0
LINE
  8
CSLAYER1
  6
CONTINUOUS
 62
     1
 10
499.669657
 20
701.136219
 11
504.779909
 21
702.052767
  0
LINE
  8
CSLAYER1
  6
CONTINUOUS
 62
     1
 10
504.779909
 20
702.052767
 11
509.969455
 21
702.605501
  0
LINE
  8
CSLAYER1
  6
CONTINUOUS
 62
     1
 10
509.969455
 20
702.605501
 11
515.198800
 21
702.790214
  0
LINE
  8
CSLAYER1
  6
CONTINUOUS
 62
     1
 10
453.198800
 20
568.036757
 11
453.434728
 21
572.408407
  0
LINE
  8
CSLAYER1
  6
CONTINUOUS
 62
     1
 10
453.434728
 20
572.408407
 11
454.140719
 21
576.746785
  0
LINE
  8
CSLAYER1
  6
CONTINUOUS
 62
     1
 10
454.140719
 20
576.746785
 11
455.311399
 21
581.018876
  0
LINE
  8
CSLAYER1
  6
CONTINUOUS
 62
     1
 10
455.311399
 20
581.018876
 11
456.937857
 21
585.192164
  0
LINE
  8
CSLAYER1
  6
CONTINUOUS
 62
     1
 10
456.937857
 20
585.192164
 11
459.007717
 21
589.234889
  0
LINE
  8
CSLAYER1
  6
CONTINUOUS
 62
     1
 10
459.007717
 20
589.234889
 11
461.505225
 21
593.116284
  0
LINE
  8
CSLAYER1
  6
CONTINUOUS
 62
     1
 10
461.505225
 20
593.116284
 11
464.411373
 21
596.806808
  0
LINE
  8
CSLAYER1
  6
CONTINUOUS
 62
     1
 10
464.411373
 20
596.806808
 11
467.704044
 21
600.278375
  0
LINE
  8
CSLAYER1
  6
CONTINUOUS
 62
     1
 10
467.704044
 20
600.278375
 11
471.358179
 21
603.504564
  0
LINE
  8
CSLAYER1
  6
CONTINUOUS
 62
     1
 10
471.358179
 20
603.504564
 11
475.345968
 21
606.460822
  0
LINE
  8
CSLAYER1
  6
CONTINUOUS
 62
     1
 10
475.345968
 20
606.460822
 11
479.637061
 21
609.124649
  0
LINE
  8
CSLAYER1
  6
CONTINUOUS
 62
     1
 10
479.637061
 20
609.124649
 11
484.198800
 21
611.475772
  0
LINE
  8
CSLAYER1
  6
CONTINUOUS
 62
     1
 10
484.198800
 20
611.475772
 11
488.996468
 21
613.496298
  0
LINE
  8
CSLAYER1
  6
CONTINUOUS
 62
     1
 10
488.996468
 20
613.496298
 11
493.993551
 21
615.170850
  0
LINE
  8
CSLAYER1
  6
CONTINUOUS
 62
     1
 10
493.993551
 20
615.170850
 11
499.152019
 21
616.486683
  0
LINE
  8
CSLAYER1
  6
CONTINUOUS
 62
     1
 10
499.152019
 20
616.486683
 11
504.432613
 21
617.433782
  0
LINE
  8
CSLAYER1
  6
CONTINUOUS
 62
     1
 10
504.432613
 20
617.433782
 11
509.795144
 21
618.004941
  0
LINE
  8
CSLAYER1
  6
CONTINUOUS
 62
     1
 10
509.795144
 20
618.004941
 11
515.198800
 21
618.195811
  0
LINE
  8
CSLAYER1
  6
CONTINUOUS
 62
     1
 10
453.198800
 20
534.607445
 11
453.434728
 21
538.979094
  0
LINE
  8
CSLAYER1
  6
CONTINUOUS
 62
     1
 10
453.434728
 20
538.979094
 11
454.140719
 21
543.317473
  0
LINE
  8
CSLAYER1
  6
CONTINUOUS
 62
     1
 10
454.140719
 20
543.317473
 11
455.311399
 21
547.589563
  0
LINE
  8
CSLAYER1
  6
CONTINUOUS
 62
     1
 10
455.311399
 20
547.589563
 11
456.937857
 21
551.762851
  0
LINE
  8
CSLAYER1
  6
CONTINUOUS
 62
     1
 10
456.937857
 20
551.762851
 11
459.007717
 21
555.805577
  0
LINE
  8
CSLAYER1
  6
CONTINUOUS
 62
     1
 10
459.007717
 20
555.805577
 11
461.505225
 21
559.686972
  0
LINE
  8
CSLAYER1
  6
CONTINUOUS
 62
     1
 10
461.505225
 20
559.686972
 11
464.411373
 21
563.377496
  0
LINE
  8
CSLAYER1
  6
CONTINUOUS
 62
     1
 10
464.411373
 20
563.377496
 11
467.704044
 21
566.849063
  0
LINE
  8
CSLAYER1
  6
CONTINUOUS
 62
     1
 10
467.704044
 20
566.849063
 11
471.358179
 21
570.075252
  0
LINE
  8
CSLAYER1
  6
CONTINUOUS
 62
     1
 10
471.358179
 20
570.075252
 11
475.345968
 21
573.031509
  0
LINE
  8
CSLAYER1
  6
CONTINUOUS
 62
     1
 10
475.345968
 20
573.031509
 11
479.637061
 21
575.695336
  0
LINE
  8
CSLAYER1
  6
CONTINUOUS
 62
     1
 10
479.637061
 20
575.695336
 11
484.198800
 21
578.046459
  0
LINE
  8
CSLAYER1
  6
CONTINUOUS
 62
     1
 10
484.198800
 20
578.046459
 11
488.996468
 21
580.066986
  0
LINE
  8
CSLAYER1
  6
CONTINUOUS
 62
     1
 10
488.996468
 20
580.066986
 11
493.993551
 21
581.741537
  0
LINE
  8
CSLAYER1
  6
CONTINUOUS
 62
     1
 10
493.993551
 20
581.741537
 11
499.152019
 21
583.057370
  0
LINE
  8
CSLAYER1
  6
CONTINUOUS
 62
     1
 10
499.152019
 20
583.057370
 11
504.432613
 21
584.004470
  0
LINE
  8
CSLAYER1
  6
CONTINUOUS
 62
     1
 10
504.432613
 20
584.004470
 11
509.795144
 21
584.575628
  0
LINE
  8
CSLAYER1
  6
CONTINUOUS
 62
     1
 10
509.795144
 20
584.575628
 11
515.198800
 21
584.766498
  0
LINE
  8
CSLAYER1
  6
CONTINUOUS
 62
     1
 10
491.353606
 20
488.358013
 11
488.996468
 21
489.147904
  0
LINE
  8
CSLAYER1
  6
CONTINUOUS
 62
     1
 10
488.996468
 20
489.147904
 11
484.198800
 21
491.168430
  0
LINE
  8
CSLAYER1
  6
CONTINUOUS
 62
     1
 10
484.198800
 20
491.168430
 11
479.637061
 21
493.519553
  0
LINE
  8
CSLAYER1
  6
CONTINUOUS
 62
     1
 10
479.637061
 20
493.519553
 11
475.345968
 21
496.183380
  0
LINE
  8
CSLAYER1
  6
CONTINUOUS
 62
     1
 10
475.345968
 20
496.183380
 11
471.358179
 21
499.139638
  0
LINE
  8
CSLAYER1
  6
CONTINUOUS
 62
     1
 10
471.358179
 20
499.139638
 11
467.704044
 21
502.365827
  0
LINE
  8
CSLAYER1
  6
CONTINUOUS
 62
     1
 10
467.704044
 20
502.365827
 11
464.411373
 21
505.837394
  0
LINE
  8
CSLAYER1
  6
CONTINUOUS
 62
     1
 10
464.411373
 20
505.837394
 11
461.505225
 21
509.527918
  0
LINE
  8
CSLAYER1
  6
CONTINUOUS
 62
     1
 10
461.505225
 20
509.527918
 11
459.007717
 21
513.409313
  0
LINE
  8
CSLAYER1
  6
CONTINUOUS
 62
     1
 10
459.007717
 20
513.409313
 11
456.937857
 21
517.452038
  0
LINE
  8
CSLAYER1
  6
CONTINUOUS
 62
     1
 10
456.937857
 20
517.452038
 11
455.311399
 21
521.625326
  0
LINE
  8
CSLAYER1
  6
CONTINUOUS
 62
     1
 10
455.311399
 20
521.625326
 11
454.140719
 21
525.897417
  0
LINE
  8
CSLAYER1
  6
CONTINUOUS
 62
     1
 10
454.140719
 20
525.897417
 11
453.434728
 21
530.235795
  0
LINE
  8
CSLAYER1
  6
CONTINUOUS
 62
     1
 10
453.434728
 20
530.235795
 11
453.198800
 21
534.607445
  0
LINE
  8
CSLAYER1
  6
CONTINUOUS
 62
     1
 10
461.198800
 20
684.746111
 11
461.198800
 21
592.640067
  0
LINE
  8
CSLAYER1
  6
CONTINUOUS
 62
     1
 10
455.198800
 20
654.249195
 11
455.198800
 21
580.230446
  0
LINE
  8
CSLAYER1
  6
CONTINUOUS
 62
     1
 10
453.198800
 20
568.036757
 11
453.198800
 21
534.607445
  0
LINE
  8
CSLAYER1
  6
CONTINUOUS
 62
     1
 10
463.198800
 20
595.266959
 11
463.198800
 21
678.459909
  0
LINE
  8
CSLAYER1
  6
CONTINUOUS
 62
     1
 10
483.198800
 20
610.960371
 11
483.198800
 21
695.256149
  0
LINE
  8
CSLAYER1
  6
CONTINUOUS
 62
     1
 10
490.198800
 20
613.899207
 11
490.198800
 21
698.392689
  0
LINE
  8
CSLAYER1
  6
CONTINUOUS
 62
     1
 10
498.198800
 20
616.243533
 11
498.198800
 21
700.761030
  0
LINE
  8
CSLAYER1
  6
CONTINUOUS
 62
     1
 10
409.198800
 20
729.284617
 11
409.198800
 21
678.915230
  0
LINE
  8
CSLAYER1
  6
CONTINUOUS
 62
     1
 10
449.198800
 20
765.804050
 11
449.198800
 21
742.344883
  0
LINE
  8
CSLAYER1
  6
CONTINUOUS
 62
     1
 10
446.446548
 20
764.223051
 11
412.904750
 21
737.055391
  0
LINE
  8
CSLAYER1
  6
CONTINUOUS
 62
     1
 10
446.446548
 20
740.763884
 11
412.904750
 21
713.596225
  0
LINE
  8
CSLAYER1
  6
CONTINUOUS
 62
     1
 10
412.904750
 20
671.144456
 11
449.198800
 21
641.747571
  0
LINE
  8
CSLAYER1
  6
CONTINUOUS
 62
     1
 10
460.198800
 20
726.918378
 11
460.198800
 21
673.549576
  0
LINE
  8
CSLAYER1
  6
CONTINUOUS
 62
     1
 10
501.587068
 20
727.037410
 11
470.198800
 21
727.037410
  0
LINE
  8
CSLAYER1
  6
CONTINUOUS
 62
     1
 10
431.198800
 20
686.694434
 11
431.233047
 21
687.329029
  0
LINE
  8
CSLAYER1
  6
CONTINUOUS
 62
     1
 10
431.233047
 20
687.329029
 11
431.335530
 21
687.958793
  0
LINE
  8
CSLAYER1
  6
CONTINUOUS
 62
     1
 10
431.335530
 20
687.958793
 11
431.505467
 21
688.578936
  0
LINE
  8
CSLAYER1
  6
CONTINUOUS
 62
     1
 10
431.505467
 20
688.578936
 11
431.741566
 21
689.184735
  0
LINE
  8
CSLAYER1
  6
CONTINUOUS
 62
     1
 10
431.741566
 20
689.184735
 11
432.042030
 21
689.771583
  0
LINE
  8
CSLAYER1
  6
CONTINUOUS
 62
     1
 10
432.042030
 20
689.771583
 11
432.404571
 21
690.335011
  0
LINE
  8
CSLAYER1
  6
CONTINUOUS
 62
     1
 10
432.404571
 20
690.335011
 11
432.826431
 21
690.870732
  0
LINE
  8
CSLAYER1
  6
CONTINUOUS
 62
     1
 10
432.826431
 20
690.870732
 11
433.304400
 21
691.374669
  0
LINE
  8
CSLAYER1
  6
CONTINUOUS
 62
     1
 10
433.304400
 20
691.374669
 11
433.834839
 21
691.842987
  0
LINE
  8
CSLAYER1
  6
CONTINUOUS
 62
     1
 10
433.834839
 20
691.842987
 11
434.413711
 21
692.272121
  0
LINE
  8
CSLAYER1
  6
CONTINUOUS
 62
     1
 10
434.413711
 20
692.272121
 11
435.036612
 21
692.658806
  0
LINE
  8
CSLAYER1
  6
CONTINUOUS
 62
     1
 10
435.036612
 20
692.658806
 11
435.698800
 21
693.000098
  0
LINE
  8
CSLAYER1
  6
CONTINUOUS
 62
     1
 10
435.698800
 20
693.000098
 11
436.395235
 21
693.293400
  0
LINE
  8
CSLAYER1
  6
CONTINUOUS
 62
     1
 10
436.395235
 20
693.293400
 11
437.120618
 21
693.536480
  0
LINE
  8
CSLAYER1
  6
CONTINUOUS
 62
     1
 10
437.120618
 20
693.536480
 11
437.869428
 21
693.727488
  0
LINE
  8
CSLAYER1
  6
CONTINUOUS
 62
     1
 10
437.869428
 20
693.727488
 11
438.635966
 21
693.864970
  0
LINE
  8
CSLAYER1
  6
CONTINUOUS
 62
     1
 10
438.635966
 20
693.864970
 11
439.414398
 21
693.947880
  0
LINE
  8
CSLAYER1
  6
CONTINUOUS
 62
     1
 10
439.414398
 20
693.947880
 11
440.198800
 21
693.975587
  0
LINE
  8
CSLAYER1
  6
CONTINUOUS
 62
     1
 10
440.198800
 20
693.975587
 11
440.983201
 21
693.947880
  0
LINE
  8
CSLAYER1
  6
CONTINUOUS
 62
     1
 10
440.983201
 20
693.947880
 11
441.761633
 21
693.864970
  0
LINE
  8
CSLAYER1
  6
CONTINUOUS
 62
     1
 10
441.761633
 20
693.864970
 11
442.528171
 21
693.727488
  0
LINE
  8
CSLAYER1
  6
CONTINUOUS
 62
     1
 10
442.528171
 20
693.727488
 11
443.276981
 21
693.536480
  0
LINE
  8
CSLAYER1
  6
CONTINUOUS
 62
     1
 10
443.276981
 20
693.536480
 11
444.002364
 21
693.293400
  0
LINE
  8
CSLAYER1
  6
CONTINUOUS
 62
     1
 10
444.002364
 20
693.293400
 11
444.698800
 21
693.000098
  0
LINE
  8
CSLAYER1
  6
CONTINUOUS
 62
     1
 10
444.698800
 20
693.000098
 11
445.360988
 21
692.658806
  0
LINE
  8
CSLAYER1
  6
CONTINUOUS
 62
     1
 10
445.360988
 20
692.658806
 11
445.983888
 21
692.272121
  0
LINE
  8
CSLAYER1
  6
CONTINUOUS
 62
     1
 10
445.983888
 20
692.272121
 11
446.562761
 21
691.842987
  0
LINE
  8
CSLAYER1
  6
CONTINUOUS
 62
     1
 10
446.562761
 20
691.842987
 11
447.093200
 21
691.374669
  0
LINE
  8
CSLAYER1
  6
CONTINUOUS
 62
     1
 10
447.093200
 20
691.374669
 11
447.571168
 21
690.870732
  0
LINE
  8
CSLAYER1
  6
CONTINUOUS
 62
     1
 10
447.571168
 20
690.870732
 11
447.993028
 21
690.335011
  0
LINE
  8
CSLAYER1
  6
CONTINUOUS
 62
     1
 10
447.993028
 20
690.335011
 11
448.355570
 21
689.771583
  0
LINE
  8
CSLAYER1
  6
CONTINUOUS
 62
     1
 10
448.355570
 20
689.771583
 11
448.656033
 21
689.184735
  0
LINE
  8
CSLAYER1
  6
CONTINUOUS
 62
     1
 10
448.656033
 20
689.184735
 11
448.892132
 21
688.578936
  0
LINE
  8
CSLAYER1
  6
CONTINUOUS
 62
     1
 10
448.892132
 20
688.578936
 11
449.062070
 21
687.958793
  0
LINE
  8
CSLAYER1
  6
CONTINUOUS
 62
     1
 10
449.062070
 20
687.958793
 11
449.164552
 21
687.329029
  0
LINE
  8
CSLAYER1
  6
CONTINUOUS
 62
     1
 10
449.164552
 20
687.329029
 11
449.198800
 21
686.694434
  0
LINE
  8
CSLAYER1
  6
CONTINUOUS
 62
     1
 10
449.198800
 20
686.694434
 11
449.164552
 21
686.059840
  0
LINE
  8
CSLAYER1
  6
CONTINUOUS
 62
     1
 10
449.164552
 20
686.059840
 11
449.062070
 21
685.430076
  0
LINE
  8
CSLAYER1
  6
CONTINUOUS
 62
     1
 10
449.062070
 20
685.430076
 11
448.892132
 21
684.809933
  0
LINE
  8
CSLAYER1
  6
CONTINUOUS
 62
     1
 10
448.892132
 20
684.809933
 11
448.656033
 21
684.204134
  0
LINE
  8
CSLAYER1
  6
CONTINUOUS
 62
     1
 10
448.656033
 20
684.204134
 11
448.355570
 21
683.617286
  0
LINE
  8
CSLAYER1
  6
CONTINUOUS
 62
     1
 10
448.355570
 20
683.617286
 11
447.993028
 21
683.053858
  0
LINE
  8
CSLAYER1
  6
CONTINUOUS
 62
     1
 10
447.993028
 20
683.053858
 11
447.571168
 21
682.518137
  0
LINE
  8
CSLAYER1
  6
CONTINUOUS
 62
     1
 10
447.571168
 20
682.518137
 11
447.093200
 21
682.014200
  0
LINE
  8
CSLAYER1
  6
CONTINUOUS
 62
     1
 10
447.093200
 20
682.014200
 11
446.562761
 21
681.545882
  0
LINE
  8
CSLAYER1
  6
CONTINUOUS
 62
     1
 10
446.562761
 20
681.545882
 11
445.983888
 21
681.116748
  0
LINE
  8
CSLAYER1
  6
CONTINUOUS
 62
     1
 10
445.983888
 20
681.116748
 11
445.360988
 21
680.730063
  0
LINE
  8
CSLAYER1
  6
CONTINUOUS
 62
     1
 10
445.360988
 20
680.730063
 11
444.698800
 21
680.388771
  0
LINE
  8
CSLAYER1
  6
CONTINUOUS
 62
     1
 10
444.698800
 20
680.388771
 11
444.002364
 21
680.095469
  0
LINE
  8
CSLAYER1
  6
CONTINUOUS
 62
     1
 10
444.002364
 20
680.095469
 11
443.276981
 21
679.852389
  0
LINE
  8
CSLAYER1
  6
CONTINUOUS
 62
     1
 10
443.276981
 20
679.852389
 11
442.528171
 21
679.661381
  0
LINE
  8
CSLAYER1
  6
CONTINUOUS
 62
     1
 10
442.528171
 20
679.661381
 11
441.761633
 21
679.523899
  0
LINE
  8
CSLAYER1
  6
CONTINUOUS
 62
     1
 10
441.761633
 20
679.523899
 11
440.983201
 21
679.440989
  0
LINE
  8
CSLAYER1
  6
CONTINUOUS
 62
     1
 10
440.983201
 20
679.440989
 11
440.198800
 21
679.413282
  0
LINE
  8
CSLAYER1
  6
CONTINUOUS
 62
     1
 10
440.198800
 20
679.413282
 11
439.414398
 21
679.440989
  0
LINE
  8
CSLAYER1
  6
CONTINUOUS
 62
     1
 10
439.414398
 20
679.440989
 11
438.635966
 21
679.523899
  0
LINE
  8
CSLAYER1
  6
CONTINUOUS
 62
     1
 10
438.635966
 20
679.523899
 11
437.869428
 21
679.661381
  0
LINE
  8
CSLAYER1
  6
CONTINUOUS
 62
     1
 10
437.869428
 20
679.661381
 11
437.120618
 21
679.852389
  0
LINE
  8
CSLAYER1
  6
CONTINUOUS
 62
     1
 10
437.120618
 20
679.852389
 11
436.395235
 21
680.095469
  0
LINE
  8
CSLAYER1
  6
CONTINUOUS
 62
     1
 10
436.395235
 20
680.095469
 11
435.698800
 21
680.388771
  0
LINE
  8
CSLAYER1
  6
CONTINUOUS
 62
     1
 10
435.698800
 20
680.388771
 11
435.036612
 21
680.730063
  0
LINE
  8
CSLAYER1
  6
CONTINUOUS
 62
     1
 10
435.036612
 20
680.730063
 11
434.413711
 21
681.116748
  0
LINE
  8
CSLAYER1
  6
CONTINUOUS
 62
     1
 10
434.413711
 20
681.116748
 11
433.834839
 21
681.545882
  0
LINE
  8
CSLAYER1
  6
CONTINUOUS
 62
     1
 10
433.834839
 20
681.545882
 11
433.304400
 21
682.014200
  0
LINE
  8
CSLAYER1
  6
CONTINUOUS
 62
     1
 10
433.304400
 20
682.014200
 11
432.826431
 21
682.518137
  0
LINE
  8
CSLAYER1
  6
CONTINUOUS
 62
     1
 10
432.826431
 20
682.518137
 11
432.404571
 21
683.053858
  0
LINE
  8
CSLAYER1
  6
CONTINUOUS
 62
     1
 10
432.404571
 20
683.053858
 11
432.042030
 21
683.617286
  0
LINE
  8
CSLAYER1
  6
CONTINUOUS
 62
     1
 10
432.042030
 20
683.617286
 11
431.741566
 21
684.204134
  0
LINE
  8
CSLAYER1
  6
CONTINUOUS
 62
     1
 10
431.741566
 20
684.204134
 11
431.505467
 21
684.809933
  0
LINE
  8
CSLAYER1
  6
CONTINUOUS
 62
     1
 10
431.505467
 20
684.809933
 11
431.335530
 21
685.430076
  0
LINE
  8
CSLAYER1
  6
CONTINUOUS
 62
     1
 10
431.335530
 20
685.430076
 11
431.233047
 21
686.059840
  0
LINE
  8
CSLAYER1
  6
CONTINUOUS
 62
     1
 10
431.233047
 20
686.059840
 11
431.198800
 21
686.694434
  0
LINE
  8
CSLAYER1
  6
CONTINUOUS
 62
     1
 10
431.198800
 20
692.370340
 11
431.233047
 21
693.004935
  0
LINE
  8
CSLAYER1
  6
CONTINUOUS
 62
     1
 10
431.233047
 20
693.004935
 11
431.335530
 21
693.634699
  0
LINE
  8
CSLAYER1
  6
CONTINUOUS
 62
     1
 10
431.335530
 20
693.634699
 11
431.505467
 21
694.254841
  0
LINE
  8
CSLAYER1
  6
CONTINUOUS
 62
     1
 10
431.505467
 20
694.254841
 11
431.741566
 21
694.860641
  0
LINE
  8
CSLAYER1
  6
CONTINUOUS
 62
     1
 10
431.741566
 20
694.860641
 11
432.042030
 21
695.447489
  0
LINE
  8
CSLAYER1
  6
CONTINUOUS
 62
     1
 10
432.042030
 20
695.447489
 11
432.404571
 21
696.010917
  0
LINE
  8
CSLAYER1
  6
CONTINUOUS
 62
     1
 10
432.404571
 20
696.010917
 11
432.826431
 21
696.546638
  0
LINE
  8
CSLAYER1
  6
CONTINUOUS
 62
     1
 10
432.826431
 20
696.546638
 11
433.304400
 21
697.050575
  0
LINE
  8
CSLAYER1
  6
CONTINUOUS
 62
     1
 10
433.304400
 20
697.050575
 11
433.834839
 21
697.518893
  0
LINE
  8
CSLAYER1
  6
CONTINUOUS
 62
     1
 10
433.834839
 20
697.518893
 11
434.413711
 21
697.948027
  0
LINE
  8
CSLAYER1
  6
CONTINUOUS
 62
     1
 10
434.413711
 20
697.948027
 11
435.036612
 21
698.334712
  0
LINE
  8
CSLAYER1
  6
CONTINUOUS
 62
     1
 10
435.036612
 20
698.334712
 11
435.698800
 21
698.676004
  0
LINE
  8
CSLAYER1
  6
CONTINUOUS
 62
     1
 10
435.698800
 20
698.676004
 11
436.395235
 21
698.969306
  0
LINE
  8
CSLAYER1
  6
CONTINUOUS
 62
     1
 10
436.395235
 20
698.969306
 11
437.120618
 21
699.212386
  0
LINE
  8
CSLAYER1
  6
CONTINUOUS
 62
     1
 10
437.120618
 20
699.212386
 11
437.869428
 21
699.403394
  0
LINE
  8
CSLAYER1
  6
CONTINUOUS
 62
     1
 10
437.869428
 20
699.403394
 11
438.635966
 21
699.540876
  0
LINE
  8
CSLAYER1
  6
CONTINUOUS
 62
     1
 10
438.635966
 20
699.540876
 11
439.414398
 21
699.623786
  0
LINE
  8
CSLAYER1
  6
CONTINUOUS
 62
     1
 10
439.414398
 20
699.623786
 11
440.198800
 21
699.651493
  0
LINE
  8
CSLAYER1
  6
CONTINUOUS
 62
     1
 10
440.198800
 20
699.651493
 11
440.983201
 21
699.623786
  0
LINE
  8
CSLAYER1
  6
CONTINUOUS
 62
     1
 10
440.983201
 20
699.623786
 11
441.761633
 21
699.540876
  0
LINE
  8
CSLAYER1
  6
CONTINUOUS
 62
     1
 10
441.761633
 20
699.540876
 11
442.528171
 21
699.403394
  0
LINE
  8
CSLAYER1
  6
CONTINUOUS
 62
     1
 10
442.528171
 20
699.403394
 11
443.276981
 21
699.212386
  0
LINE
  8
CSLAYER1
  6
CONTINUOUS
 62
     1
 10
443.276981
 20
699.212386
 11
444.002364
 21
698.969306
  0
LINE
  8
CSLAYER1
  6
CONTINUOUS
 62
     1
 10
444.002364
 20
698.969306
 11
444.698800
 21
698.676004
  0
LINE
  8
CSLAYER1
  6
CONTINUOUS
 62
     1
 10
444.698800
 20
698.676004
 11
445.360988
 21
698.334712
  0
LINE
  8
CSLAYER1
  6
CONTINUOUS
 62
     1
 10
445.360988
 20
698.334712
 11
445.983888
 21
697.948027
  0
LINE
  8
CSLAYER1
  6
CONTINUOUS
 62
     1
 10
445.983888
 20
697.948027
 11
446.562761
 21
697.518893
  0
LINE
  8
CSLAYER1
  6
CONTINUOUS
 62
     1
 10
446.562761
 20
697.518893
 11
447.093200
 21
697.050575
  0
LINE
  8
CSLAYER1
  6
CONTINUOUS
 62
     1
 10
447.093200
 20
697.050575
 11
447.571168
 21
696.546638
  0
LINE
  8
CSLAYER1
  6
CONTINUOUS
 62
     1
 10
447.571168
 20
696.546638
 11
447.993028
 21
696.010917
  0
LINE
  8
CSLAYER1
  6
CONTINUOUS
 62
     1
 10
447.993028
 20
696.010917
 11
448.355570
 21
695.447489
  0
LINE
  8
CSLAYER1
  6
CONTINUOUS
 62
     1
 10
448.355570
 20
695.447489
 11
448.656033
 21
694.860641
  0
LINE
  8
CSLAYER1
  6
CONTINUOUS
 62
     1
 10
448.656033
 20
694.860641
 11
448.892132
 21
694.254841
  0
LINE
  8
CSLAYER1
  6
CONTINUOUS
 62
     1
 10
448.892132
 20
694.254841
 11
449.062070
 21
693.634699
  0
LINE
  8
CSLAYER1
  6
CONTINUOUS
 62
     1
 10
449.062070
 20
693.634699
 11
449.164552
 21
693.004935
  0
LINE
  8
CSLAYER1
  6
CONTINUOUS
 62
     1
 10
449.164552
 20
693.004935
 11
449.198800
 21
692.370340
  0
LINE
  8
CSLAYER1
  6
CONTINUOUS
 62
     1
 10
431.198800
 20
692.370340
 11
431.198800
 21
686.694434
  0
LINE
  8
CSLAYER1
  6
CONTINUOUS
 62
     1
 10
449.198800
 20
692.370340
 11
449.198800
 21
686.694434
  0
ARC
  8
CSLAYER1
  6
CONTINUOUS
 62
     1
 10
452.740598
 20
756.452277
 40
10.000000
 50
90.000000
 51
129.006238
  0
ARC
  8
CSLAYER1
  6
CONTINUOUS
 62
     1
 10
452.740598
 20
732.993110
 40
10.000000
 50
90.000000
 51
129.006238
  0
ARC
  8
CSLAYER1
  6
CONTINUOUS
 62
     1
 10
419.198800
 20
729.284617
 40
10.000000
 50
129.006238
 51
180.000000
  0
ARC
  8
CSLAYER1
  6
CONTINUOUS
 62
     1
 10
419.198800
 20
705.825450
 40
10.000000
 50
129.006238
 51
180.000000
  0
ARC
  8
CSLAYER1
  6
CONTINUOUS
 62
     1
 10
419.198800
 20
678.915230
 40
10.000000
 50
180.000000
 51
230.993762
  0
ARC
  8
CSLAYER1
  6
CONTINUOUS
 62
     1
 10
470.198800
 20
726.918378
 40
10.000000
 50
90.000000
 51
180.000000
  0
ARC
  8
CSLAYER1
  6
CONTINUOUS
 62
     1
 10
470.198800
 20
717.037410
 40
10.000000
 50
90.000000
 51
180.000000
  0
POINT
  8
CSLAYER1
 62
     5
 10
622.198800
 20
704.099924
  0
LINE
  8
CSLAYER1
  6
CONTINUOUS
 62
     3
 10
313.498800
 20
983.617442
 11
313.498800
 21
993.117442
  0
LINE
  8
CSLAYER1
  6
CONTINUOUS
 62
     4
 10
316.698800
 20
1104.817442
 11
316.698800
 21
964.617442
  0
LINE
  8
CSLAYER1
  6
CONTINUOUS
 62
     4
 10
357.698800
 20
1054.617442
 11
357.698800
 21
964.617442
  0
LINE
  8
CSLAYER1
  6
CONTINUOUS
 62
     4
 10
357.698800
 20
964.617442
 11
316.698800
 21
964.617442
  0
LINE
  8
CSLAYER1
  6
CONTINUOUS
 62
     4
 10
313.498800
 20
1006.617442
 11
313.498800
 21
975.617442
  0
LINE
  8
CSLAYER1
  6
CONTINUOUS
 62
     4
 10
313.498800
 20
979.617442
 11
316.698800
 21
979.617442
  0
LINE
  8
CSLAYER1
  6
CONTINUOUS
 62
     5
 10
309.007926
 20
998.617442
 11
322.698800
 21
998.617442
  0
LINE
  8
CSLAYER1
  6
CONTINUOUS
 62
     4
 10
313.498800
 20
1006.617442
 11
316.698800
 21
1006.617442
  0
LINE
  8
CSLAYER1
  6
CONTINUOUS
 62
     4
 10
313.498800
 20
975.617442
 11
316.698800
 21
975.617442
  0
LINE
  8
CSLAYER1
  6
CONTINUOUS
 62
     4
 10
313.498800
 20
987.617442
 11
316.698800
 21
987.617442
  0
LINE
  8
CSLAYER1
  6
CONTINUOUS
 62
     4
 10
672.198800
 20
1054.617442
 11
672.198800
 21
1004.617442
  0
LINE
  8
CSLAYER1
  6
CONTINUOUS
 62
     4
 10
600.198800
 20
962.092186
 11
600.198800
 21
1010.674876
  0
LINE
  8
CSLAYER1
  6
CONTINUOUS
 62
     4
 10
580.198800
 20
962.092186
 11
580.198800
 21
1010.674876
  0
POINT
  8
CSLAYER1
 62
     4
 10
590.198800
 20
945.092184
  0
LINE
  8
CSLAYER1
  6
CONTINUOUS
 62
     5
 10
604.324176
 20
945.092186
 11
576.085086
 21
945.092186
  0
LINE
  8
CSLAYER1
  6
CONTINUOUS
 62
     4
 10
577.673800
 20
960.092184
 11
602.723800
 21
960.092184
  0
POINT
  8
CSLAYER1
 62
     4
 10
590.198800
 20
913.342184
  0
LINE
  8
CSLAYER1
  6
CONTINUOUS
 62
     4
 10
603.723800
 20
959.092184
 11
603.723800
 21
866.542184
  0
LINE
  8
CSLAYER1
  6
CONTINUOUS
 62
     4
 10
599.723800
 20
928.392184
 11
599.723800
 21
866.542184
  0
LINE
  8
CSLAYER1
  6
CONTINUOUS
 62
     4
 10
599.723800
 20
928.392184
 11
603.723800
 21
928.392184
  0
LINE
  8
CSLAYER1
  6
CONTINUOUS
 62
     4
 10
598.723800
 20
903.817184
 11
581.673800
 21
903.817184
  0
LINE
  8
CSLAYER1
  6
CONTINUOUS
 62
     4
 10
598.723800
 20
922.867184
 11
581.673800
 21
922.867184
  0
ARC
  8
CSLAYER1
  6
CONTINUOUS
 62
     4
 10
598.723800
 20
904.817184
 40
1.000000
 50
270.000000
 51
360.000000
  0
ARC
  8
CSLAYER1
  6
CONTINUOUS
 62
     4
 10
598.723800
 20
921.867184
 40
1.000000
 50
0.000000
 51
90.000000
  0
LINE
  8
CSLAYER1
  6
CONTINUOUS
 62
     4
 10
576.673800
 20
959.092184
 11
576.673800
 21
865.842184
  0
LINE
  8
CSLAYER1
  6
CONTINUOUS
 62
     4
 10
580.673800
 20
928.392184
 11
580.673800
 21
866.542184
  0
LINE
  8
CSLAYER1
  6
CONTINUOUS
 62
     4
 10
580.673800
 20
928.392184
 11
576.673800
 21
928.392184
  0
ARC
  8
CSLAYER1
  6
CONTINUOUS
 62
     4
 10
581.673800
 20
904.817184
 40
1.000000
 50
180.000000
 51
270.000000
  0
ARC
  8
CSLAYER1
  6
CONTINUOUS
 62
     4
 10
581.673800
 20
921.867184
 40
1.000000
 50
90.000000
 51
180.000000
  0
LINE
  8
CSLAYER1
  6
CONTINUOUS
 62
     4
 10
609.948800
 20
909.572184
 11
609.948800
 21
917.121911
  0
LINE
  8
CSLAYER1
  6
CONTINUOUS
 62
     4
 10
603.723800
 20
900.342184
 11
608.098800
 21
900.342184
  0
LINE
  8
CSLAYER1
  6
CONTINUOUS
 62
     4
 10
603.723800
 20
958.092184
 11
608.098800
 21
958.092184
  0
LINE
  8
CSLAYER1
  6
CONTINUOUS
 62
     4
 10
608.098800
 20
908.572184
 11
608.948800
 21
908.572184
  0
LINE
  8
CSLAYER1
  6
CONTINUOUS
 62
     4
 10
608.098800
 20
918.121911
 11
608.948800
 21
918.121911
  0
ARC
  8
CSLAYER1
  6
CONTINUOUS
 62
     4
 10
608.948800
 20
909.572184
 40
1.000000
 50
270.000000
 51
360.000000
  0
ARC
  8
CSLAYER1
  6
CONTINUOUS
 62
     4
 10
608.948800
 20
917.121911
 40
1.000000
 50
0.000000
 51
90.000000
  0
LINE
  8
CSLAYER1
  6
CONTINUOUS
 62
     4
 10
609.948800
 20
941.322184
 11
609.948800
 21
948.871911
  0
LINE
  8
CSLAYER1
  6
CONTINUOUS
 62
     4
 10
608.098800
 20
940.322184
 11
608.948800
 21
940.322184
  0
LINE
  8
CSLAYER1
  6
CONTINUOUS
 62
     4
 10
608.098800
 20
949.871911
 11
608.948800
 21
949.871911
  0
ARC
  8
CSLAYER1
  6
CONTINUOUS
 62
     4
 10
608.948800
 20
941.322184
 40
1.000000
 50
270.000000
 51
360.000000
  0
ARC
  8
CSLAYER1
  6
CONTINUOUS
 62
     4
 10
608.948800
 20
948.871911
 40
1.000000
 50
0.000000
 51
90.000000
  0
LINE
  8
CSLAYER1
  6
CONTINUOUS
 62
     4
 10
570.448800
 20
909.572184
 11
570.448800
 21
917.121911
  0
LINE
  8
CSLAYER1
  6
CONTINUOUS
 62
     4
 10
576.673800
 20
900.342184
 11
572.298800
 21
900.342184
  0
LINE
  8
CSLAYER1
  6
CONTINUOUS
 62
     4
 10
576.673800
 20
958.092184
 11
572.298800
 21
958.092184
  0
LINE
  8
CSLAYER1
  6
CONTINUOUS
 62
     4
 10
572.298800
 20
908.572184
 11
571.448800
 21
908.572184
  0
LINE
  8
CSLAYER1
  6
CONTINUOUS
 62
     4
 10
572.298800
 20
918.121911
 11
571.448800
 21
918.121911
  0
ARC
  8
CSLAYER1
  6
CONTINUOUS
 62
     4
 10
571.448800
 20
909.572184
 40
1.000000
 50
180.000000
 51
270.000000
  0
ARC
  8
CSLAYER1
  6
CONTINUOUS
 62
     4
 10
571.448800
 20
917.121911
 40
1.000000
 50
90.000000
 51
180.000000
  0
LINE
  8
CSLAYER1
  6
CONTINUOUS
 62
     4
 10
567.348800
 20
941.322184
 11
567.348800
 21
948.871911
  0
LINE
  8
CSLAYER1
  6
CONTINUOUS
 62
     4
 10
572.298800
 20
940.322184
 11
568.348800
 21
940.322184
  0
LINE
  8
CSLAYER1
  6
CONTINUOUS
 62
     4
 10
572.298800
 20
949.871911
 11
568.348800
 21
949.871911
  0
ARC
  8
CSLAYER1
  6
CONTINUOUS
 62
     4
 10
568.348800
 20
941.322184
 40
1.000000
 50
180.000000
 51
270.000000
  0
ARC
  8
CSLAYER1
  6
CONTINUOUS
 62
     4
 10
568.348800
 20
948.871911
 40
1.000000
 50
90.000000
 51
180.000000
  0
LINE
  8
CSLAYER1
  6
CONTINUOUS
 62
     4
 10
576.673800
 20
949.871911
 11
603.723800
 21
949.871911
  0
LINE
  8
CSLAYER1
  6
CONTINUOUS
 62
     4
 10
576.673800
 20
940.322184
 11
603.723800
 21
940.322184
  0
LINE
  8
CSLAYER1
  6
CONTINUOUS
 62
     4
 10
578.673800
 20
930.092184
 11
601.723800
 21
930.092184
  0
ARC
  8
CSLAYER1
  6
CONTINUOUS
 62
     4
 10
601.723800
 20
932.092184
 40
2.000000
 50
270.000000
 51
360.000000
  0
ARC
  8
CSLAYER1
  6
CONTINUOUS
 62
     4
 10
578.673800
 20
932.092184
 40
2.000000
 50
180.000000
 51
270.000000
  0
ARC
  8
CSLAYER1
  6
CONTINUOUS
 62
     4
 10
578.198800
 20
962.092184
 40
2.000000
 50
270.000000
 51
360.000000
  0
ARC
  8
CSLAYER1
  6
CONTINUOUS
 62
     4
 10
602.198800
 20
962.092184
 40
2.000000
 50
180.000000
 51
270.000000
  0
ARC
  8
CSLAYER1
  6
CONTINUOUS
 62
     4
 10
577.673800
 20
959.092184
 40
1.000000
 50
90.000000
 51
180.000000
  0
ARC
  8
CSLAYER1
  6
CONTINUOUS
 62
     4
 10
602.723800
 20
959.092184
 40
1.000000
 50
0.000000
 51
90.000000
  0
POINT
  8
CSLAYER1
 62
     4
 10
590.198800
 20
960.092184
  0
LINE
  8
CSLAYER1
  6
CONTINUOUS
 62
     4
 10
608.098800
 20
900.342184
 11
608.098800
 21
958.092184
  0
LINE
  8
CSLAYER1
  6
CONTINUOUS
 62
     4
 10
572.298800
 20
900.342184
 11
572.298800
 21
958.092184
  0
POINT
  8
CSLAYER1
 62
     4
 10
590.198800
 20
881.592184
  0
LINE
  8
CSLAYER1
  6
CONTINUOUS
 62
     4
 10
599.723800
 20
866.542184
 11
603.723800
 21
866.542184
  0
LINE
  8
CSLAYER1
  6
CONTINUOUS
 62
     4
 10
598.723800
 20
891.117184
 11
581.673800
 21
891.117184
  0
LINE
  8
CSLAYER1
  6
CONTINUOUS
 62
     4
 10
598.723800
 20
872.067184
 11
581.673800
 21
872.067184
  0
ARC
  8
CSLAYER1
  6
CONTINUOUS
 62
     4
 10
598.723800
 20
890.117184
 40
1.000000
 50
0.000000
 51
90.000000
  0
ARC
  8
CSLAYER1
  6
CONTINUOUS
 62
     4
 10
598.723800
 20
873.067184
 40
1.000000
 50
270.000000
 51
360.000000
  0
LINE
  8
CSLAYER1
  6
CONTINUOUS
 62
     4
 10
580.673800
 20
866.542184
 11
576.673800
 21
866.542184
  0
ARC
  8
CSLAYER1
  6
CONTINUOUS
 62
     4
 10
581.673800
 20
890.117184
 40
1.000000
 50
90.000000
 51
180.000000
  0
ARC
  8
CSLAYER1
  6
CONTINUOUS
 62
     4
 10
581.673800
 20
873.067184
 40
1.000000
 50
180.000000
 51
270.000000
  0
LINE
  8
CSLAYER1
  6
CONTINUOUS
 62
     4
 10
609.948800
 20
885.362184
 11
609.948800
 21
877.812458
  0
LINE
  8
CSLAYER1
  6
CONTINUOUS
 62
     4
 10
603.723800
 20
894.592184
 11
608.098800
 21
894.592184
  0
LINE
  8
CSLAYER1
  6
CONTINUOUS
 62
     4
 10
608.098800
 20
886.362184
 11
608.948800
 21
886.362184
  0
LINE
  8
CSLAYER1
  6
CONTINUOUS
 62
     4
 10
608.098800
 20
876.812458
 11
608.948800
 21
876.812458
  0
ARC
  8
CSLAYER1
  6
CONTINUOUS
 62
     4
 10
608.948800
 20
885.362184
 40
1.000000
 50
0.000000
 51
90.000000
  0
ARC
  8
CSLAYER1
  6
CONTINUOUS
 62
     4
 10
608.948800
 20
877.812458
 40
1.000000
 50
270.000000
 51
360.000000
  0
LINE
  8
CSLAYER1
  6
CONTINUOUS
 62
     4
 10
570.448800
 20
885.362184
 11
570.448800
 21
877.812458
  0
LINE
  8
CSLAYER1
  6
CONTINUOUS
 62
     4
 10
576.673800
 20
894.592184
 11
572.298800
 21
894.592184
  0
LINE
  8
CSLAYER1
  6
CONTINUOUS
 62
     4
 10
572.298800
 20
886.362184
 11
571.448800
 21
886.362184
  0
LINE
  8
CSLAYER1
  6
CONTINUOUS
 62
     4
 10
572.298800
 20
876.812458
 11
571.448800
 21
876.812458
  0
ARC
  8
CSLAYER1
  6
CONTINUOUS
 62
     4
 10
571.448800
 20
885.362184
 40
1.000000
 50
90.000000
 51
180.000000
  0
ARC
  8
CSLAYER1
  6
CONTINUOUS
 62
     4
 10
571.448800
 20
877.812458
 40
1.000000
 50
180.000000
 51
270.000000
  0
LINE
  8
CSLAYER1
  6
CONTINUOUS
 62
     4
 10
545.448800
 20
1002.424876
 11
545.448800
 21
896.405257
  0
LINE
  8
CSLAYER1
  6
CONTINUOUS
 62
     4
 10
515.198800
 20
1018.900207
 11
517.835261
 21
1018.837513
  0
LINE
  8
CSLAYER1
  6
CONTINUOUS
 62
     4
 10
515.198800
 20
902.423085
 11
519.081588
 21
902.330754
  0
LINE
  8
CSLAYER1
  6
CONTINUOUS
 62
     4
 10
519.081588
 20
902.330754
 11
522.934826
 21
902.054465
  0
LINE
  8
CSLAYER1
  6
CONTINUOUS
 62
     4
 10
522.934826
 20
902.054465
 11
526.729188
 21
901.596321
  0
LINE
  8
CSLAYER1
  6
CONTINUOUS
 62
     4
 10
526.729188
 20
901.596321
 11
530.435797
 21
900.959807
  0
LINE
  8
CSLAYER1
  6
CONTINUOUS
 62
     4
 10
530.435797
 20
900.959807
 11
534.026443
 21
900.149768
  0
LINE
  8
CSLAYER1
  6
CONTINUOUS
 62
     4
 10
534.026443
 20
900.149768
 11
537.473800
 21
899.172370
  0
LINE
  8
CSLAYER1
  6
CONTINUOUS
 62
     4
 10
537.473800
 20
899.172370
 11
540.751630
 21
898.035050
  0
LINE
  8
CSLAYER1
  6
CONTINUOUS
 62
     4
 10
540.751630
 20
898.035050
 11
543.834988
 21
896.746465
  0
LINE
  8
CSLAYER1
  6
CONTINUOUS
 62
     4
 10
543.834988
 20
896.746465
 11
546.700407
 21
895.316421
  0
LINE
  8
CSLAYER1
  6
CONTINUOUS
 62
     4
 10
546.700407
 20
895.316421
 11
549.326080
 21
893.755802
  0
LINE
  8
CSLAYER1
  6
CONTINUOUS
 62
     4
 10
549.326080
 20
893.755802
 11
551.692023
 21
892.076485
  0
LINE
  8
CSLAYER1
  6
CONTINUOUS
 62
     4
 10
551.692023
 20
892.076485
 11
553.780232
 21
890.291251
  0
LINE
  8
CSLAYER1
  6
CONTINUOUS
 62
     4
 10
553.780232
 20
890.291251
 11
555.574812
 21
888.413686
  0
LINE
  8
CSLAYER1
  6
CONTINUOUS
 62
     4
 10
555.574812
 20
888.413686
 11
557.062106
 21
886.458080
  0
LINE
  8
CSLAYER1
  6
CONTINUOUS
 62
     4
 10
557.062106
 20
886.458080
 11
558.230795
 21
884.439316
  0
LINE
  8
CSLAYER1
  6
CONTINUOUS
 62
     4
 10
558.230795
 20
884.439316
 11
559.071985
 21
882.372758
  0
LINE
  8
CSLAYER1
  6
CONTINUOUS
 62
     4
 10
559.071985
 20
882.372758
 11
559.579274
 21
880.274134
  0
LINE
  8
CSLAYER1
  6
CONTINUOUS
 62
     4
 10
559.579274
 20
880.274134
 11
559.748800
 21
878.159416
  0
LINE
  8
CSLAYER1
  6
CONTINUOUS
 62
     4
 10
713.698800
 20
1104.817442
 11
713.698800
 21
964.617442
  0
LINE
  8
CSLAYER1
  6
CONTINUOUS
 62
     4
 10
672.698800
 20
1054.617442
 11
672.698800
 21
964.617442
  0
LINE
  8
CSLAYER1
  6
CONTINUOUS
 62
     4
 10
349.198800
 20
625.064769
 11
392.198800
 21
625.064769
  0
LINE
  8
CSLAYER1
  6
CONTINUOUS
 62
     4
 10
349.198800
 20
604.181570
 11
392.198800
 21
604.181570
  0
LINE
  8
CSLAYER1
  6
CONTINUOUS
 62
     4
 10
349.198800
 20
549.206372
 11
392.198800
 21
549.206372
  0
LINE
  8
CSLAYER1
  6
CONTINUOUS
 62
     4
 10
408.198800
 20
625.064769
 11
455.198800
 21
625.064769
  0
LINE
  8
CSLAYER1
  6
CONTINUOUS
 62
     4
 10
408.198800
 20
604.181570
 11
455.198800
 21
604.181570
  0
LINE
  8
CSLAYER1
  6
CONTINUOUS
 62
     4
 10
408.198800
 20
549.206372
 11
453.198800
 21
549.206372
  0
LINE
  8
CSLAYER1
  6
CONTINUOUS
 62
     4
 10
600.198800
 20
625.064769
 11
622.198800
 21
625.064769
  0
LINE
  8
CSLAYER1
  6
CONTINUOUS
 62
     4
 10
600.198800
 20
604.181570
 11
622.198800
 21
604.181570
  0
LINE
  8
CSLAYER1
  6
CONTINUOUS
 62
     4
 10
638.198800
 20
625.064769
 11
681.198800
 21
625.064769
  0
LINE
  8
CSLAYER1
  6
CONTINUOUS
 62
     4
 10
638.198800
 20
604.181570
 11
681.198800
 21
604.181570
  0
LINE
  8
CSLAYER1
  6
CONTINUOUS
 62
     4
 10
638.198800
 20
549.206372
 11
681.198800
 21
549.206372
  0
LINE
  8
CSLAYER1
  6
CONTINUOUS
 62
     4
 10
606.398800
 20
549.206372
 11
622.198800
 21
549.206372
  0
LINE
  8
CSLAYER1
  6
CONTINUOUS
 62
     4
 10
638.198800
 20
1054.617442
 11
638.198800
 21
488.358013
  0
LINE
  8
CSLAYER1
  6
CONTINUOUS
 62
     4
 10
392.198800
 20
1054.617442
 11
392.198800
 21
488.358013
  0
LINE
  8
CSLAYER1
  6
CONTINUOUS
 62
     3
 10
325.198800
 20
1054.617442
 11
705.198800
 21
1054.617442
  0
LINE
  8
CSLAYER1
  6
CONTINUOUS
 62
     4
 10
383.198800
 20
1029.866051
 11
358.198800
 21
1029.866051
  0
LINE
  8
CSLAYER1
  6
CONTINUOUS
 62
     4
 10
358.198800
 20
1004.866051
 11
385.698800
 21
1004.866051
  0
ARC
  8
CSLAYER1
  6
CONTINUOUS
 62
     4
 10
385.698800
 20
1003.866051
 40
1.000000
 50
0.000000
 51
90.000000
  0
ARC
  8
CSLAYER1
  6
CONTINUOUS
 62
     4
 10
361.698800
 20
1003.866051
 40
1.000000
 50
90.000000
 51
180.000000
  0
ARC
  8
CSLAYER1
  6
CONTINUOUS
 62
     4
 10
372.698800
 20
1003.866051
 40
1.000000
 50
0.000000
 51
90.000000
  0
ARC
  8
CSLAYER1
  6
CONTINUOUS
 62
     4
 10
374.698800
 20
1003.866051
 40
1.000000
 50
90.000000
 51
180.000000
  0
LINE
  8
CSLAYER1
  6
CONTINUOUS
 62
     3
 10
325.198800
 20
1104.817442
 11
325.198800
 21
1054.617442
  0
LINE
  8
CSLAYER1
  6
CONTINUOUS
 62
     4
 10
414.141365
 20
1054.617442
 11
409.198800
 21
1049.674876
  0
LINE
  8
CSLAYER1
  6
CONTINUOUS
 62
     4
 10
389.698800
 20
1045.174876
 11
390.848800
 21
1045.174876
  0
LINE
  8
CSLAYER1
  6
CONTINUOUS
 62
     4
 10
390.848800
 20
1047.724876
 11
392.198800
 21
1047.724876
  0
LINE
  8
CSLAYER1
  6
CONTINUOUS
 62
     4
 10
390.848800
 20
1047.724876
 11
390.848800
 21
1017.624876
  0
LINE
  8
CSLAYER1
  6
CONTINUOUS
 62
     4
 10
388.198800
 20
1043.674876
 11
388.198800
 21
1021.674876
  0
LINE
  8
CSLAYER1
  6
CONTINUOUS
 62
     4
 10
388.198800
 20
1043.674876
 11
389.698800
 21
1045.174876
  0
LINE
  8
CSLAYER1
  6
CONTINUOUS
 62
     4
 10
389.698800
 20
1045.174876
 11
389.698800
 21
1020.174876
  0
LINE
  8
CSLAYER1
  6
CONTINUOUS
 62
     4
 10
389.698800
 20
1020.174876
 11
390.848800
 21
1020.174876
  0
LINE
  8
CSLAYER1
  6
CONTINUOUS
 62
     4
 10
388.366362
 20
1032.674876
 11
392.698800
 21
1032.674876
  0
LINE
  8
CSLAYER1
  6
CONTINUOUS
 62
     4
 10
390.848800
 20
1017.624876
 11
392.198800
 21
1017.624876
  0
LINE
  8
CSLAYER1
  6
CONTINUOUS
 62
     4
 10
388.198800
 20
1021.674876
 11
389.698800
 21
1020.174876
  0
LINE
  8
CSLAYER1
  6
CONTINUOUS
 62
     4
 10
386.698800
 20
1003.866051
 11
386.698800
 21
963.866051
  0
LINE
  8
CSLAYER1
  6
CONTINUOUS
 62
     4
 10
360.198800
 20
995.417694
 11
360.198800
 21
972.314409
  0
LINE
  8
CSLAYER1
  6
CONTINUOUS
 62
     4
 10
359.048800
 20
995.417694
 11
359.048800
 21
972.314409
  0
LINE
  8
CSLAYER1
  6
CONTINUOUS
 62
     4
 10
357.698800
 20
991.366051
 11
358.990963
 21
991.366051
  0
LINE
  8
CSLAYER1
  6
CONTINUOUS
 62
     4
 10
359.048800
 20
995.417694
 11
360.198800
 21
995.417694
  0
LINE
  8
CSLAYER1
  6
CONTINUOUS
 62
     4
 10
360.198800
 20
991.366051
 11
360.698800
 21
991.366051
  0
LINE
  8
CSLAYER1
  6
CONTINUOUS
 62
     4
 10
360.698800
 20
1003.866051
 11
360.698800
 21
963.866051
  0
LINE
  8
CSLAYER1
  6
CONTINUOUS
 62
     4
 10
361.698800
 20
962.866051
 11
372.698800
 21
962.866051
  0
LINE
  8
CSLAYER1
  6
CONTINUOUS
 62
     4
 10
357.698800
 20
976.366051
 11
358.990963
 21
976.366051
  0
LINE
  8
CSLAYER1
  6
CONTINUOUS
 62
     4
 10
359.048800
 20
972.314409
 11
360.198800
 21
972.314409
  0
LINE
  8
CSLAYER1
  6
CONTINUOUS
 62
     4
 10
360.198800
 20
976.366051
 11
360.698800
 21
976.366051
  0
ARC
  8
CSLAYER1
  6
CONTINUOUS
 62
     4
 10
385.698800
 20
963.866051
 40
1.000000
 50
270.000000
 51
360.000000
  0
ARC
  8
CSLAYER1
  6
CONTINUOUS
 62
     4
 10
361.698800
 20
963.866051
 40
1.000000
 50
180.000000
 51
270.000000
  0
ARC
  8
CSLAYER1
  6
CONTINUOUS
 62
     4
 10
372.698800
 20
963.866051
 40
1.000000
 50
270.000000
 51
360.000000
  0
ARC
  8
CSLAYER1
  6
CONTINUOUS
 62
     4
 10
374.698800
 20
963.866051
 40
1.000000
 50
180.000000
 51
270.000000
  0
LINE
  8
CSLAYER1
  6
CONTINUOUS
 62
     4
 10
385.698800
 20
962.866051
 11
374.698800
 21
962.866051
  0
LINE
  8
CSLAYER1
  6
CONTINUOUS
 62
     4
 10
386.698800
 20
983.866051
 11
387.698800
 21
983.866051
  0
LINE
  8
CSLAYER1
  6
CONTINUOUS
 62
     4
 10
387.198800
 20
993.866051
 11
386.698800
 21
993.366051
  0
LINE
  8
CSLAYER1
  6
CONTINUOUS
 62
     4
 10
387.198800
 20
973.866051
 11
386.698800
 21
974.366051
  0
LINE
  8
CSLAYER1
  6
CONTINUOUS
 62
     4
 10
373.698800
 20
963.866051
 11
373.698800
 21
1003.866051
  0
LINE
  8
CSLAYER1
  6
CONTINUOUS
 62
     4
 10
387.198800
 20
993.866051
 11
392.198800
 21
993.866051
  0
LINE
  8
CSLAYER1
  6
CONTINUOUS
 62
     4
 10
387.198800
 20
973.866051
 11
392.198800
 21
973.866051
  0
LINE
  8
CSLAYER1
  6
CONTINUOUS
 62
     4
 10
647.198800
 20
1004.866051
 11
647.198800
 21
1054.617442
  0
LINE
  8
CSLAYER1
  6
CONTINUOUS
 62
     4
 10
662.698800
 20
1054.617442
 11
662.698800
 21
1029.866051
  0
LINE
  8
CSLAYER1
  6
CONTINUOUS
 62
     4
 10
656.698800
 20
1054.617442
 11
656.698800
 21
1029.866051
  0
LINE
  8
CSLAYER1
  6
CONTINUOUS
 62
     4
 10
643.198800
 20
993.617442
 11
638.198800
 21
993.617442
  0
LINE
  8
CSLAYER1
  6
CONTINUOUS
 62
     4
 10
643.198800
 20
973.617442
 11
638.198800
 21
973.617442
  0
LINE
  8
CSLAYER1
  6
CONTINUOUS
 62
     4
 10
545.448800
 20
1002.424876
 11
569.698800
 21
1002.424876
  0
LINE
  8
CSLAYER1
  6
CONTINUOUS
 62
     4
 10
616.198800
 20
1010.674876
 11
571.698800
 21
1010.674876
  0
LINE
  8
CSLAYER1
  6
CONTINUOUS
 62
     4
 10
571.698800
 20
1004.424876
 11
571.698800
 21
1054.617442
  0
LINE
  8
CSLAYER1
  6
CONTINUOUS
 62
     4
 10
571.698800
 20
1004.424876
 11
569.698800
 21
1002.424876
  0
LINE
  8
CSLAYER1
  6
CONTINUOUS
 62
     4
 10
616.198800
 20
1010.674876
 11
621.198800
 21
1015.674876
  0
LINE
  8
CSLAYER1
  6
CONTINUOUS
 62
     4
 10
616.198800
 20
1010.674876
 11
616.198800
 21
1054.617442
  0
LINE
  8
CSLAYER1
  6
CONTINUOUS
 62
     4
 10
598.698800
 20
970.092186
 11
598.698800
 21
1010.674876
  0
LINE
  8
CSLAYER1
  6
CONTINUOUS
 62
     4
 10
581.698800
 20
970.092186
 11
581.698800
 21
1010.674876
  0
LINE
  8
CSLAYER1
  6
CONTINUOUS
 62
     4
 10
600.198800
 20
970.092186
 11
580.198800
 21
970.092186
  0
LINE
  8
CSLAYER1
  6
CONTINUOUS
 62
     4
 10
598.698800
 20
970.092186
 11
600.198800
 21
967.494110
  0
LINE
  8
CSLAYER1
  6
CONTINUOUS
 62
     4
 10
581.698800
 20
970.092186
 11
580.198800
 21
967.494110
  0
LINE
  8
CSLAYER1
  6
CONTINUOUS
 62
     4
 10
569.698800
 20
1002.424876
 11
569.698800
 21
1054.617442
  0
LINE
  8
CSLAYER1
  6
CONTINUOUS
 62
     4
 10
517.835261
 20
1018.837513
 11
520.451657
 21
1018.649910
  0
LINE
  8
CSLAYER1
  6
CONTINUOUS
 62
     4
 10
520.451657
 20
1018.649910
 11
523.028076
 21
1018.338824
  0
LINE
  8
CSLAYER1
  6
CONTINUOUS
 62
     4
 10
523.028076
 20
1018.338824
 11
525.544909
 21
1017.906623
  0
LINE
  8
CSLAYER1
  6
CONTINUOUS
 62
     4
 10
525.544909
 20
1017.906623
 11
527.983002
 21
1017.356597
  0
LINE
  8
CSLAYER1
  6
CONTINUOUS
 62
     4
 10
527.983002
 20
1017.356597
 11
530.323800
 21
1016.692931
  0
LINE
  8
CSLAYER1
  6
CONTINUOUS
 62
     4
 10
530.323800
 20
1016.692931
 11
532.549487
 21
1015.920677
  0
LINE
  8
CSLAYER1
  6
CONTINUOUS
 62
     4
 10
532.549487
 20
1015.920677
 11
534.643125
 21
1015.045712
  0
LINE
  8
CSLAYER1
  6
CONTINUOUS
 62
     4
 10
534.643125
 20
1015.045712
 11
536.588780
 21
1014.074694
  0
LINE
  8
CSLAYER1
  6
CONTINUOUS
 62
     4
 10
536.588780
 20
1014.074694
 11
538.371644
 21
1013.015015
  0
LINE
  8
CSLAYER1
  6
CONTINUOUS
 62
     4
 10
538.371644
 20
1013.015015
 11
539.978149
 21
1011.874738
  0
LINE
  8
CSLAYER1
  6
CONTINUOUS
 62
     4
 10
539.978149
 20
1011.874738
 11
541.396068
 21
1010.662542
  0
LINE
  8
CSLAYER1
  6
CONTINUOUS
 62
     4
 10
541.396068
 20
1010.662542
 11
542.614610
 21
1009.387652
  0
LINE
  8
CSLAYER1
  6
CONTINUOUS
 62
     4
 10
542.614610
 20
1009.387652
 11
543.624502
 21
1008.059771
  0
LINE
  8
CSLAYER1
  6
CONTINUOUS
 62
     4
 10
543.624502
 20
1008.059771
 11
544.418056
 21
1006.689006
  0
LINE
  8
CSLAYER1
  6
CONTINUOUS
 62
     4
 10
544.418056
 20
1006.689006
 11
544.989234
 21
1005.285787
  0
LINE
  8
CSLAYER1
  6
CONTINUOUS
 62
     4
 10
544.989234
 20
1005.285787
 11
545.333689
 21
1003.860796
  0
LINE
  8
CSLAYER1
  6
CONTINUOUS
 62
     4
 10
545.333689
 20
1003.860796
 11
545.448800
 21
1002.424876
  0
LINE
  8
CSLAYER1
  6
CONTINUOUS
 62
     4
 10
621.198800
 20
1002.774876
 11
621.198800
 21
1054.617442
  0
ARC
  8
CSLAYER1
  6
CONTINUOUS
 62
     4
 10
622.298800
 20
1002.774876
 40
1.100000
 50
180.000000
 51
270.000000
  0
LINE
  8
CSLAYER1
  6
CONTINUOUS
 62
     3
 10
716.898800
 20
983.617442
 11
716.898800
 21
993.117442
  0
LINE
  8
CSLAYER1
  6
CONTINUOUS
 62
     4
 10
672.698800
 20
964.617442
 11
713.698800
 21
964.617442
  0
LINE
  8
CSLAYER1
  6
CONTINUOUS
 62
     4
 10
716.898800
 20
1006.617442
 11
716.898800
 21
975.617442
  0
LINE
  8
CSLAYER1
  6
CONTINUOUS
 62
     4
 10
716.898800
 20
979.617442
 11
713.698800
 21
979.617442
  0
LINE
  8
CSLAYER1
  6
CONTINUOUS
 62
     5
 10
721.389674
 20
998.617442
 11
707.698800
 21
998.617442
  0
LINE
  8
CSLAYER1
  6
CONTINUOUS
 62
     4
 10
716.898800
 20
1006.617442
 11
713.698800
 21
1006.617442
  0
LINE
  8
CSLAYER1
  6
CONTINUOUS
 62
     4
 10
716.898800
 20
975.617442
 11
713.698800
 21
975.617442
  0
LINE
  8
CSLAYER1
  6
CONTINUOUS
 62
     4
 10
716.898800
 20
987.617442
 11
713.698800
 21
987.617442
  0
LINE
  8
CSLAYER1
  6
CONTINUOUS
 62
     4
 10
647.198800
 20
1029.866051
 11
672.198800
 21
1029.866051
  0
LINE
  8
CSLAYER1
  6
CONTINUOUS
 62
     4
 10
672.198800
 20
1004.866051
 11
644.698800
 21
1004.866051
  0
ARC
  8
CSLAYER1
  6
CONTINUOUS
 62
     4
 10
644.698800
 20
1003.866051
 40
1.000000
 50
90.000000
 51
180.000000
  0
ARC
  8
CSLAYER1
  6
CONTINUOUS
 62
     4
 10
668.698800
 20
1003.866051
 40
1.000000
 50
0.000000
 51
90.000000
  0
ARC
  8
CSLAYER1
  6
CONTINUOUS
 62
     4
 10
657.698800
 20
1003.866051
 40
1.000000
 50
90.000000
 51
180.000000
  0
ARC
  8
CSLAYER1
  6
CONTINUOUS
 62
     4
 10
655.698800
 20
1003.866051
 40
1.000000
 50
0.000000
 51
90.000000
  0
LINE
  8
CSLAYER1
  6
CONTINUOUS
 62
     3
 10
705.198800
 20
1104.817442
 11
705.198800
 21
1054.617442
  0
LINE
  8
CSLAYER1
  6
CONTINUOUS
 62
     4
 10
616.256234
 20
1054.617442
 11
621.198800
 21
1049.674876
  0
LINE
  8
CSLAYER1
  6
CONTINUOUS
 62
     4
 10
640.698800
 20
1045.174876
 11
639.548800
 21
1045.174876
  0
LINE
  8
CSLAYER1
  6
CONTINUOUS
 62
     4
 10
639.548800
 20
1047.724876
 11
638.198800
 21
1047.724876
  0
LINE
  8
CSLAYER1
  6
CONTINUOUS
 62
     4
 10
639.548800
 20
1047.724876
 11
639.548800
 21
1017.624876
  0
LINE
  8
CSLAYER1
  6
CONTINUOUS
 62
     4
 10
642.198800
 20
1043.674876
 11
642.198800
 21
1021.674876
  0
LINE
  8
CSLAYER1
  6
CONTINUOUS
 62
     4
 10
642.198800
 20
1043.674876
 11
640.698800
 21
1045.174876
  0
LINE
  8
CSLAYER1
  6
CONTINUOUS
 62
     4
 10
640.698800
 20
1045.174876
 11
640.698800
 21
1020.174876
  0
LINE
  8
CSLAYER1
  6
CONTINUOUS
 62
     4
 10
640.698800
 20
1020.174876
 11
639.548800
 21
1020.174876
  0
LINE
  8
CSLAYER1
  6
CONTINUOUS
 62
     4
 10
639.548800
 20
1017.624876
 11
638.198800
 21
1017.624876
  0
LINE
  8
CSLAYER1
  6
CONTINUOUS
 62
     4
 10
642.198800
 20
1021.674876
 11
640.698800
 21
1020.174876
  0
LINE
  8
CSLAYER1
  6
CONTINUOUS
 62
     4
 10
643.698800
 20
1003.866051
 11
643.698800
 21
963.866051
  0
LINE
  8
CSLAYER1
  6
CONTINUOUS
 62
     4
 10
670.198800
 20
995.417694
 11
670.198800
 21
972.314409
  0
LINE
  8
CSLAYER1
  6
CONTINUOUS
 62
     4
 10
671.348800
 20
995.417694
 11
671.348800
 21
972.314409
  0
LINE
  8
CSLAYER1
  6
CONTINUOUS
 62
     4
 10
672.698800
 20
991.366051
 11
671.406637
 21
991.366051
  0
LINE
  8
CSLAYER1
  6
CONTINUOUS
 62
     4
 10
671.348800
 20
995.417694
 11
670.198800
 21
995.417694
  0
LINE
  8
CSLAYER1
  6
CONTINUOUS
 62
     4
 10
670.198800
 20
991.366051
 11
669.698800
 21
991.366051
  0
LINE
  8
CSLAYER1
  6
CONTINUOUS
 62
     4
 10
669.698800
 20
1003.866051
 11
669.698800
 21
963.866051
  0
LINE
  8
CSLAYER1
  6
CONTINUOUS
 62
     4
 10
668.698800
 20
962.866051
 11
657.698800
 21
962.866051
  0
LINE
  8
CSLAYER1
  6
CONTINUOUS
 62
     4
 10
672.698800
 20
976.366051
 11
671.406637
 21
976.366051
  0
LINE
  8
CSLAYER1
  6
CONTINUOUS
 62
     4
 10
671.348800
 20
972.314409
 11
670.198800
 21
972.314409
  0
LINE
  8
CSLAYER1
  6
CONTINUOUS
 62
     4
 10
670.198800
 20
976.366051
 11
669.698800
 21
976.366051
  0
ARC
  8
CSLAYER1
  6
CONTINUOUS
 62
     4
 10
644.698800
 20
963.866051
 40
1.000000
 50
180.000000
 51
270.000000
  0
ARC
  8
CSLAYER1
  6
CONTINUOUS
 62
     4
 10
668.698800
 20
963.866051
 40
1.000000
 50
270.000000
 51
360.000000
  0
ARC
  8
CSLAYER1
  6
CONTINUOUS
 62
     4
 10
657.698800
 20
963.866051
 40
1.000000
 50
180.000000
 51
270.000000
  0
ARC
  8
CSLAYER1
  6
CONTINUOUS
 62
     4
 10
655.698800
 20
963.866051
 40
1.000000
 50
270.000000
 51
360.000000
  0
LINE
  8
CSLAYER1
  6
CONTINUOUS
 62
     4
 10
644.698800
 20
962.866051
 11
655.698800
 21
962.866051
  0
LINE
  8
CSLAYER1
  6
CONTINUOUS
 62
     4
 10
643.698800
 20
983.866051
 11
642.698800
 21
983.866051
  0
LINE
  8
CSLAYER1
  6
CONTINUOUS
 62
     4
 10
643.198800
 20
993.866051
 11
643.698800
 21
993.366051
  0
LINE
  8
CSLAYER1
  6
CONTINUOUS
 62
     4
 10
643.198800
 20
973.866051
 11
643.698800
 21
974.366051
  0
LINE
  8
CSLAYER1
  6
CONTINUOUS
 62
     4
 10
656.698800
 20
963.866051
 11
656.698800
 21
1003.866051
  0
LINE
  8
CSLAYER1
  6
CONTINUOUS
 62
     4
 10
643.198800
 20
993.866051
 11
638.198800
 21
993.866051
  0
LINE
  8
CSLAYER1
  6
CONTINUOUS
 62
     4
 10
643.198800
 20
973.866051
 11
638.198800
 21
973.866051
  0
DIMENSION
  8
CSLAYER1
 62
     7
  2
*D0005
 10
765.198800
 20
311.873995
 11
515.198792
 21
321.874023
 13
265.198800
 23
423.358013
 14
765.198800
 24
423.358013
 52
270.000000
 70
1
  0
LINE
  8
CSLAYER1
  6
CONTINUOUS
 62
     3
 10
1059.028674
 20
1054.617442
 11
1067.828674
 21
1054.617442
  0
LINE
  8
CSLAYER1
  6
CONTINUOUS
 62
     3
 10
1058.828674
 20
1104.817442
 11
1058.828674
 21
1054.617442
  0
LINE
  8
CSLAYER1
  6
CONTINUOUS
 62
     3
 10
1140.603498
 20
1104.817442
 11
1140.603498
 21
1089.617442
  0
LINE
  8
CSLAYER1
  6
CONTINUOUS
 62
     3
 10
1140.603498
 20
1089.617442
 11
1200.603498
 21
1029.617442
  0
LINE
  8
CSLAYER1
  6
CONTINUOUS
 62
     3
 10
2085.028674
 20
521.858013
 11
2085.028674
 21
488.358013
  0
LINE
  8
CSLAYER1
  6
CONTINUOUS
 62
     3
 10
1945.628674
 20
521.858013
 11
1945.628674
 21
488.358013
  0
LINE
  8
CSLAYER1
  6
CONTINUOUS
 62
     5
 10
2015.328674
 20
535.470000
 11
2015.328674
 21
523.943748
  0
LINE
  8
CSLAYER1
  6
CONTINUOUS
 62
     3
 10
2086.828674
 20
527.858013
 11
1943.828674
 21
527.858013
  0
LINE
  8
CSLAYER1
  6
CONTINUOUS
 62
     3
 10
2086.828674
 20
521.858013
 11
2085.028674
 21
521.858013
  0
LINE
  8
CSLAYER1
  6
CONTINUOUS
 62
     3
 10
2086.828674
 20
527.858013
 11
2086.828674
 21
521.858013
  0
LINE
  8
CSLAYER1
  6
CONTINUOUS
 62
     3
 10
1943.828674
 20
527.858013
 11
1943.828674
 21
521.858013
  0
LINE
  8
CSLAYER1
  6
CONTINUOUS
 62
     5
 10
2115.028674
 20
512.158013
 11
2115.028674
 21
495.158013
  0
LINE
  8
CSLAYER1
  6
CONTINUOUS
 62
     5
 10
2111.059107
 20
516.648394
 11
2096.431237
 21
516.648394
  0
LINE
  8
CSLAYER1
  6
CONTINUOUS
 62
     5
 10
2111.919579
 20
515.158013
 11
2111.919579
 21
492.158013
  0
LINE
  8
CSLAYER1
  6
CONTINUOUS
 62
     5
 10
2095.570765
 20
515.158013
 11
2095.570765
 21
492.158013
  0
LINE
  8
CSLAYER1
  6
CONTINUOUS
 62
     5
 10
2111.919579
 20
515.158013
 11
2111.059107
 21
516.648394
  0
LINE
  8
CSLAYER1
  6
CONTINUOUS
 62
     5
 10
2095.570765
 20
515.158013
 11
2096.431237
 21
516.648394
  0
LINE
  8
CSLAYER1
  6
CONTINUOUS
 62
     5
 10
2111.059107
 20
510.297541
 11
2096.431237
 21
510.297541
  0
ARC
  8
CSLAYER1
  6
CONTINUOUS
 62
     5
 10
2085.873554
 20
503.658013
 40
26.046025
 50
-14.768561
 51
14.768561
  0
ARC
  8
CSLAYER1
  6
CONTINUOUS
 62
     5
 10
2105.787986
 20
513.472968
 40
6.153702
 50
-31.065581
 51
23.174644
  0
ARC
  8
CSLAYER1
  6
CONTINUOUS
 62
     5
 10
2101.702358
 20
513.472968
 40
6.153702
 50
156.825356
 51
211.065581
  0
ARC
  8
CSLAYER1
  6
CONTINUOUS
 62
     5
 10
2121.616790
 20
503.658013
 40
26.046025
 50
165.231439
 51
194.768561
  0
LINE
  8
CSLAYER1
  6
CONTINUOUS
 62
     5
 10
2112.028674
 20
515.158013
 11
2111.919579
 21
515.158013
  0
ARC
  8
CSLAYER1
  6
CONTINUOUS
 62
     5
 10
2112.028674
 20
512.158013
 40
3.000000
 50
0.000000
 51
90.000000
  0
LINE
  8
CSLAYER1
  6
CONTINUOUS
 62
     5
 10
2092.028674
 20
515.158013
 11
2092.028674
 21
492.158013
  0
LINE
  8
CSLAYER1
  6
CONTINUOUS
 62
     5
 10
2092.028674
 20
515.158013
 11
2091.168202
 21
516.648394
  0
ARC
  8
CSLAYER1
  6
CONTINUOUS
 62
     5
 10
2065.982649
 20
503.658013
 40
26.046025
 50
-14.768561
 51
14.768561
  0
ARC
  8
CSLAYER1
  6
CONTINUOUS
 62
     5
 10
2085.897081
 20
513.472968
 40
6.153702
 50
-31.065581
 51
23.174644
  0
LINE
  8
CSLAYER1
  6
CONTINUOUS
 62
     5
 10
2091.168202
 20
510.297541
 11
2085.028674
 21
510.297541
  0
LINE
  8
CSLAYER1
  6
CONTINUOUS
 62
     5
 10
2091.168202
 20
516.648394
 11
2085.028674
 21
516.648394
  0
LINE
  8
CSLAYER1
  6
CONTINUOUS
 62
     5
 10
2095.570765
 20
513.994137
 11
2092.028674
 21
513.994137
  0
LINE
  8
CSLAYER1
  6
CONTINUOUS
 62
     5
 10
2095.570765
 20
513.347760
 11
2093.964403
 21
513.347760
  0
LINE
  8
CSLAYER1
  6
CONTINUOUS
 62
     5
 10
2093.964403
 20
513.994137
 11
2093.964403
 21
493.321889
  0
LINE
  8
CSLAYER1
  6
CONTINUOUS
 62
     5
 10
2093.964403
 20
513.347760
 11
2092.829551
 21
513.994137
  0
LINE
  8
CSLAYER1
  6
CONTINUOUS
 62
     5
 10
2111.059107
 20
490.667632
 11
2096.431237
 21
490.667632
  0
LINE
  8
CSLAYER1
  6
CONTINUOUS
 62
     5
 10
2111.919579
 20
492.158013
 11
2111.059107
 21
490.667632
  0
LINE
  8
CSLAYER1
  6
CONTINUOUS
 62
     5
 10
2095.570765
 20
492.158013
 11
2096.431237
 21
490.667632
  0
LINE
  8
CSLAYER1
  6
CONTINUOUS
 62
     5
 10
2111.059107
 20
497.018485
 11
2096.431237
 21
497.018485
  0
ARC
  8
CSLAYER1
  6
CONTINUOUS
 62
     5
 10
2105.787986
 20
493.843059
 40
6.153702
 50
-23.174644
 51
31.065581
  0
ARC
  8
CSLAYER1
  6
CONTINUOUS
 62
     5
 10
2101.702358
 20
493.843059
 40
6.153702
 50
148.934419
 51
203.174644
  0
LINE
  8
CSLAYER1
  6
CONTINUOUS
 62
     5
 10
2112.028674
 20
492.158013
 11
2111.919579
 21
492.158013
  0
ARC
  8
CSLAYER1
  6
CONTINUOUS
 62
     5
 10
2112.028674
 20
495.158013
 40
3.000000
 50
270.000000
 51
360.000000
  0
LINE
  8
CSLAYER1
  6
CONTINUOUS
 62
     5
 10
2092.028674
 20
492.158013
 11
2091.168202
 21
490.667632
  0
ARC
  8
CSLAYER1
  6
CONTINUOUS
 62
     5
 10
2085.897081
 20
493.843059
 40
6.153702
 50
-23.174644
 51
31.065581
  0
LINE
  8
CSLAYER1
  6
CONTINUOUS
 62
     5
 10
2091.168202
 20
497.018485
 11
2085.028674
 21
497.018485
  0
LINE
  8
CSLAYER1
  6
CONTINUOUS
 62
     5
 10
2091.168202
 20
490.667632
 11
2085.028674
 21
490.667632
  0
LINE
  8
CSLAYER1
  6
CONTINUOUS
 62
     5
 10
2095.570765
 20
493.321889
 11
2092.028674
 21
493.321889
  0
LINE
  8
CSLAYER1
  6
CONTINUOUS
 62
     5
 10
2095.570765
 20
493.968267
 11
2093.964403
 21
493.968267
  0
LINE
  8
CSLAYER1
  6
CONTINUOUS
 62
     5
 10
2093.964403
 20
493.968267
 11
2092.829551
 21
493.321889
  0
LINE
  8
CSLAYER1
  6
CENTER
 62
     5
 10
2148.784695
 20
503.658013
 11
2077.977980
 21
503.658013
  0
LINE
  8
CSLAYER1
  6
CONTINUOUS
 62
     5
 10
2148.596654
 20
507.458013
 11
2115.028674
 21
507.458013
  0
LINE
  8
CSLAYER1
  6
CONTINUOUS
 62
     5
 10
2149.912942
 20
499.858013
 11
2115.028674
 21
499.858013
  0
LINE
  8
CSLAYER1
  6
CONTINUOUS
 62
     5
 10
2085.028674
 20
521.858013
 11
1945.628674
 21
521.858013
  0
LINE
  8
CSLAYER1
  6
CONTINUOUS
 62
     3
 10
1945.628674
 20
521.858013
 11
1943.828674
 21
521.858013
  0
INSERT
  8
CSLAYER1
  2
BLKF0001
 10
0.0
 20
0.0
 30
0.0
  0
LINE
  8
CSLAYER1
  6
CONTINUOUS
 62
     3
 10
425.198800
 20
521.858013
 11
425.198800
 21
488.358013
  0
LINE
  8
CSLAYER1
  6
CONTINUOUS
 62
     3
 10
423.198800
 20
521.858013
 11
423.198800
 21
527.858013
  0
LINE
  8
CSLAYER1
  6
CONTINUOUS
 62
     3
 10
423.198800
 20
527.858013
 11
453.821668
 21
527.858013
  0
LINE
  8
CSLAYER1
  6
CONTINUOUS
 62
     3
 10
423.198800
 20
521.858013
 11
425.198800
 21
521.858013
  0
INSERT
  8
CSLAYER1
  2
BLKF0002
 10
0.0
 20
0.0
 30
0.0
  0
LINE
  8
CSLAYER1
  6
CONTINUOUS
 62
     5
 10
425.198800
 20
521.858013
 11
455.247635
 21
521.858013
  0
LINE
  8
CSLAYER1
  6
CONTINUOUS
 62
     1
 10
595.698800
 20
530.858013
 11
595.698800
 21
528.658013
  0
LINE
  8
CSLAYER1
  6
CONTINUOUS
 62
     1
 10
598.568278
 20
529.658013
 11
595.698800
 21
529.658013
  0
LINE
  8
CSLAYER1
  6
CONTINUOUS
 62
     1
 10
600.898800
 20
532.258013
 11
597.098800
 21
532.258013
  0
LINE
  8
CSLAYER1
  6
CONTINUOUS
 62
     1
 10
594.698800
 20
528.658013
 11
594.698800
 21
527.858013
  0
LINE
  8
CSLAYER1
  6
CONTINUOUS
 62
     1
 10
598.446382
 20
528.658013
 11
594.698800
 21
528.658013
  0
ARC
  8
CSLAYER1
  6
CONTINUOUS
 62
     1
 10
597.098800
 20
530.858013
 40
1.400000
 50
90.000000
 51
180.000000
  0
LINE
  8
CSLAYER1
  6
CONTINUOUS
 62
     1
 10
598.533528
 20
529.372931
 11
597.853549
 21
529.658013
  0
LINE
  8
CSLAYER1
  6
CONTINUOUS
 62
     3
 10
576.575931
 20
527.858013
 11
598.348865
 21
527.858013
  0
LINE
  8
CSLAYER1
  6
CONTINUOUS
 62
     5
 10
575.149964
 20
521.858013
 11
597.617490
 21
521.858013
  0
LINE
  8
CSLAYER1
  6
CONTINUOUS
 62
     5
 10
372.037444
 20
704.099924
 11
422.381527
 21
704.099924
  0
LINE
  8
CSLAYER1
  6
CONTINUOUS
 62
     5
 10
658.360155
 20
704.099924
 11
608.016073
 21
704.099924
  0
LINE
  8
CSLAYER1
  6
CONTINUOUS
 62
     3
 10
2189.377675
 20
1775.320114
 11
2399.915420
 21
1775.320114
  0
LINE
  8
CSLAYER1
  6
CONTINUOUS
 62
     3
 10
2188.845038
 20
1782.320114
 11
2399.915420
 21
1782.320114
  0
ARC
  8
CSLAYER1
  6
CONTINUOUS
 62
     3
 10
2195.682435
 20
1735.820114
 40
40.000000
 50
-260.931278
 51
63.817766
  0
ARC
  8
CSLAYER1
  6
CONTINUOUS
 62
     3
 10
2195.682435
 20
1735.820114
 40
47.000000
 50
-261.635125
 51
49.860785
  0
LINE
  8
CSLAYER1
  6
CONTINUOUS
 62
     3
 10
2105.830378
 20
1775.320114
 11
2165.690819
 21
1775.320114
  0
LINE
  8
CSLAYER1
  6
CONTINUOUS
 62
     3
 10
2105.830378
 20
1782.320114
 11
2176.397710
 21
1782.320114
  0
LINE
  8
CSLAYER1
  6
CONTINUOUS
 62
     3
 10
2105.830378
 20
1817.520114
 11
2221.275346
 21
1817.520114
  0
LINE
  8
CSLAYER1
  6
CONTINUOUS
 62
     3
 10
2105.830378
 20
1810.520114
 11
2231.157137
 21
1810.520114
  0
LINE
  8
CSLAYER1
  6
CONTINUOUS
 62
     3
 10
2467.775663
 20
1964.132353
 11
2472.846291
 21
1966.042070
  0
LINE
  8
CSLAYER1
  6
CONTINUOUS
 62
     3
 10
2472.846291
 20
1966.042070
 11
2479.270923
 21
1966.220532
  0
LINE
  8
CSLAYER1
  6
CONTINUOUS
 62
     3
 10
2466.721333
 20
1965.521455
 11
2472.370393
 21
1967.886177
  0
LINE
  8
CSLAYER1
  6
CONTINUOUS
 62
     3
 10
2472.370393
 20
1967.886177
 11
2477.724252
 21
1969.194899
  0
LINE
  8
CSLAYER1
  6
CONTINUOUS
 62
     3
 10
2465.879138
 20
1966.631065
 11
2470.764235
 21
1969.492335
  0
LINE
  8
CSLAYER1
  6
CONTINUOUS
 62
     3
 10
2470.764235
 20
1969.492335
 11
2473.084241
 21
1972.823626
  0
ARC
  8
CSLAYER1
  6
CONTINUOUS
 62
     3
 10
2252.810287
 20
1857.520114
 40
47.000000
 50
-10.756396
 51
307.198537
  0
ARC
  8
CSLAYER1
  6
CONTINUOUS
 62
     3
 10
2252.810287
 20
1857.520114
 40
40.000000
 50
-23.471057
 51
307.198537
  0
LINE
  8
CSLAYER1
  6
CONTINUOUS
 62
     3
 10
2468.959417
 20
1962.572733
 11
2281.225489
 21
1820.082482
  0
LINE
  8
CSLAYER1
  6
CONTINUOUS
 62
     3
 10
2464.727365
 20
1968.148550
 11
2276.993437
 21
1825.658299
  0
LINE
  8
CSLAYER1
  6
CONTINUOUS
 62
     3
 10
2468.959417
 20
1962.572733
 11
2464.727365
 21
1968.148550
  0
LINE
  8
CSLAYER1
  6
CENTER
 62
     5
 10
1025.597043
 20
1779.020114
 11
2105.830378
 21
1779.020114
  0
LINE
  8
CSLAYER1
  6
CONTINUOUS
 62
     5
 10
1087.165295
 20
851.691347
 11
833.892704
 21
851.691347
  0
TEXT
  8
CSLAYER1
 62
     5
 10
837.323608
 20
856.141357
 40
40.000000
 41
0.782609
  1
ギヤードモーター
 50
0.000000
 51
0.000000
  7
EASYDRAW_FONT
 72
     5
 11
1077.323608
 21
856.141357
  0
TEXT
  8
CSLAYER1
 62
     5
 10
858.046692
 20
725.473145
 40
40.000000
 41
0.803571
  1
上限・下限
 50
0.000000
 51
0.000000
  7
EASYDRAW_FONT
 72
     5
 11
1008.046692
 21
725.473145
  0
TEXT
  8
CSLAYER1
 62
     5
 10
814.125000
 20
674.887207
 40
40.000000
 41
0.782609
  1
リミットスイッチ
 50
0.000000
 51
0.000000
  7
EASYDRAW_FONT
 72
     5
 11
1054.125000
 21
674.887207
  0
LINE
  8
CSLAYER1
  6
CONTINUOUS
 62
     5
 10
605.781657
 20
557.937500
 11
805.538792
 21
720.078376
  0
LINE
  8
CSLAYER1
  6
CONTINUOUS
 62
     5
 10
605.781657
 20
557.937500
 11
623.387290
 21
582.228273
  0
LINE
  8
CSLAYER1
  6
CONTINUOUS
 62
     5
 10
605.781657
 20
557.937500
 11
633.173970
 21
570.171110
  0
LINE
  8
CSLAYER1
  6
CONTINUOUS
 62
     5
 10
805.538792
 20
720.078376
 11
1056.314716
 21
720.078376
  0
LINE
  8
CSLAYER1
  6
CONTINUOUS
 62
     5
 10
1189.810671
 20
670.977657
 11
1087.165295
 21
851.691347
  0
LINE
  8
CSLAYER1
  6
CONTINUOUS
 62
     5
 10
1189.810671
 20
670.977657
 11
1168.747356
 21
692.339698
  0
LINE
  8
CSLAYER1
  6
CONTINUOUS
 62
     5
 10
1189.810671
 20
670.977657
 11
1182.250326
 21
700.009385
  0
TEXT
  8
CSLAYER1
 62
     5
 10
2388.042236
 20
428.555176
 40
40.000000
 41
0.843750
  1
Ｆ.Ｌ
 50
0.000000
 51
0.000000
  7
EASYDRAW_FONT
 72
     5
 11
2478.042236
 21
428.555176
  0
LINE
  8
CSLAYER1
  6
CONTINUOUS
 62
     3
 10
1055.828674
 20
2104.020114
 11
2105.830378
 21
2104.020114
  0
LINE
  8
CSLAYER1
  6
CONTINUOUS
 62
     3
 10
1055.828674
 20
1454.020114
 11
2105.830378
 21
1454.020114
  0
LINE
  8
CSLAYER1
  6
CONTINUOUS
 62
     5
 10
947.754624
 20
1454.020114
 11
947.754624
 21
2104.020114
  0
LINE
  8
CSLAYER1
  6
CONTINUOUS
 62
     5
 10
947.754624
 20
1454.020114
 11
939.990053
 21
1482.997888
  0
LINE
  8
CSLAYER1
  6
CONTINUOUS
 62
     5
 10
947.754624
 20
1454.020114
 11
955.519195
 21
1482.997888
  0
LINE
  8
CSLAYER1
  6
CONTINUOUS
 62
     5
 10
947.754624
 20
2104.020114
 11
939.990053
 21
2075.042339
  0
LINE
  8
CSLAYER1
  6
CONTINUOUS
 62
     5
 10
947.754624
 20
2104.020114
 11
955.519195
 21
2075.042339
  0
TEXT
  8
CSLAYER1
 62
     7
 10
937.754578
 20
1734.020264
 40
40.000000
 41
0.843750
  1
650
 50
90.000000
 51
0.000000
  7
EASYDRAW_FONT
 72
     5
 11
937.754578
 21
1824.020264
  0
LINE
  8
CSLAYER1
  6
CONTINUOUS
 62
     5
 10
1045.828674
 20
2104.020114
 11
937.754624
 21
2104.020114
  0
LINE
  8
CSLAYER1
  6
CONTINUOUS
 62
     5
 10
1045.828674
 20
1454.020114
 11
937.754624
 21
1454.020114
  0
LINE
  8
CSLAYER1
  6
CONTINUOUS
 62
     4
 10
190.198800
 20
1154.817442
 11
190.198800
 21
1104.817442
  0
LINE
  8
CSLAYER1
  6
CONTINUOUS
 62
     4
 10
840.198800
 20
1154.817442
 11
840.198800
 21
1104.817442
  0
TEXT
  8
CSLAYER1
 62
     5
 10
2460.659668
 20
2255.680908
 40
40.000000
 41
1.028571
  1
電源コード
 50
360.000000
 51
0.000000
  7
EASYDRAW_FONT
 72
     5
 11
2652.659668
 21
2255.680908
  0
LINE
  8
CSLAYER1
  6
CONTINUOUS
 62
     5
 10
2450.646627
 20
2250.106713
 11
2661.558252
 21
2250.106713
  0
TEXT
  8
CSLAYER1
 62
     5
 10
2478.406982
 20
2205.217529
 40
40.000000
 41
1.036364
  1
長サ４ｍ
 50
360.000000
 51
0.000000
  7
EASYDRAW_FONT
 72
     5
 11
2630.406982
 21
2205.217529
  0
TEXT
  8
CSLAYER1
 62
     5
 10
2644.462158
 20
2149.025146
 40
40.000000
 41
1.020000
  1
フットスイッチ
 50
360.000000
 51
0.000000
  7
EASYDRAW_FONT
 72
     5
 11
2916.462158
 21
2149.025146
  0
LINE
  8
CSLAYER1
  6
CONTINUOUS
 62
     5
 10
2639.035442
 20
2141.927165
 11
2925.101550
 21
2141.927165
  0
TEXT
  8
CSLAYER1
 62
     5
 10
2648.826660
 20
2096.167236
 40
40.000000
 41
1.020000
  1
ＵＰ・ＤＯＷＮ
 50
360.000000
 51
0.000000
  7
EASYDRAW_FONT
 72
     5
 11
2920.826660
 21
2096.167236
  0
TEXT
  8
CSLAYER1
 62
     4
 10
2692.659912
 20
1246.647217
 40
40.000000
 41
1.036364
  1
操作方式
 50
0.000000
 51
0.000000
  7
EASYDRAW_FONT
 72
     5
 11
2844.659912
 21
1246.647217
  0
TEXT
  8
CSLAYER1
 62
     4
 10
2971.770508
 20
1240.371338
 40
40.000000
 41
1.020000
  1
フットスイッチ
 50
0.000000
 51
0.000000
  7
EASYDRAW_FONT
 72
     5
 11
3243.770508
 21
1240.371338
  0
LINE
  8
CSLAYER1
  6
CONTINUOUS
 62
     5
 10
3403.790621
 20
1234.620876
 11
2682.918104
 21
1234.620876
  0
LINE
  8
CSLAYER1
  6
CONTINUOUS
 62
     5
 10
3403.790621
 20
1170.620878
 11
2682.918104
 21
1170.620878
  0
TEXT
  8
CSLAYER1
 62
     4
 10
2694.091064
 20
1180.574463
 40
40.000000
 41
0.872727
  1
モーター
 50
0.000000
 51
0.000000
  7
EASYDRAW_FONT
 72
     5
 11
2822.091064
 21
1180.574463
  0
LINE
  8
CSLAYER1
  6
CONTINUOUS
 62
     5
 10
3403.790621
 20
1106.620880
 11
2682.918104
 21
1106.620880
  0
LINE
  8
CSLAYER1
  6
CONTINUOUS
 62
     5
 10
3403.790621
 20
978.620883
 11
2680.779602
 21
978.620883
  0
LINE
  8
CSLAYER1
  6
CONTINUOUS
 62
     5
 10
3403.790621
 20
914.620884
 11
2682.918104
 21
914.620884
  0
LINE
  8
CSLAYER1
  6
CONTINUOUS
 62
     5
 10
3403.790621
 20
850.620886
 11
2682.918104
 21
850.620886
  0
TEXT
  8
CSLAYER1
 62
     4
 10
2696.672607
 20
861.742676
 40
40.000000
 41
0.857143
  1
自  　重
 50
0.000000
 51
0.000000
  7
EASYDRAW_FONT
 72
     5
 11
2856.672607
 21
861.742676
  0
TEXT
  8
CSLAYER1
 62
     4
 10
2700.437012
 20
798.317383
 40
40.000000
 41
0.847059
  1
塗　装　色 
 50
0.000000
 51
0.000000
  7
EASYDRAW_FONT
 72
     5
 11
2892.437012
 21
798.317383
  0
TEXT
  8
CSLAYER1
 62
     4
 10
2925.197510
 20
1181.490967
 40
40.000000
 41
0.819512
  1
３相ＡＣ２００Ｖ、0.4ＫＷ
 50
0.000000
 51
0.000000
  7
EASYDRAW_FONT
 72
     5
 11
3373.197510
 21
1181.490967
  0
TEXT
  8
CSLAYER1
 62
     4
 10
3056.180908
 20
1117.647705
 40
40.000000
 41
0.840000
  1
長サ  ４ ｍ
 50
0.000000
 51
0.000000
  7
EASYDRAW_FONT
 72
     5
 11
3280.180908
 21
1117.647705
  0
TEXT
  8
CSLAYER1
 62
     4
 10
3168.820557
 20
863.642090
 40
40.000000
 41
0.847059
  1
１５３　Ｋｇ
 50
0.000000
 51
0.000000
  7
EASYDRAW_FONT
 72
     5
 11
3360.820557
 21
863.642090
  0
LINE
  8
CSLAYER1
  6
CONTINUOUS
 62
     5
 10
3403.790621
 20
1042.620881
 11
2682.918104
 21
1042.620881
  0
TEXT
  8
CSLAYER1
 62
     4
 10
2695.007324
 20
1117.257080
 40
40.000000
 41
0.942857
  1
電源コード
 50
0.000000
 51
0.000000
  7
EASYDRAW_FONT
 72
     5
 11
2871.007324
 21
1117.257080
  0
TEXT
  8
CSLAYER1
 62
     4
 10
2695.436295
 20
1048.135630
 40
47.730206
 41
0.593339
  1
昇降時間 ２２秒（50HZ） １８秒(60HZ)
 50
0.000000
 51
0.000000
  7
EASYDRAW_FONT
 72
     5
 11
3365.681381
 21
1048.135630
  0
TEXT
  8
CSLAYER1
 62
     4
 10
2696.737061
 20
922.692383
 40
40.000000
 41
0.912766
  1
上昇端、下降端リミットスイッチ付
 50
0.000000
 51
0.000000
  7
EASYDRAW_FONT
 72
     5
 11
3268.737061
 21
922.692383
  0
TEXT
  8
CSLAYER1
 62
     4
 10
2698.583795
 20
987.356007
 40
45.879784
 41
0.605080
  1
最大使用頻度８０回／時間・最大起動頻度１０回／分
 50
0.000000
 51
0.000000
  7
EASYDRAW_FONT
 72
     5
 11
3355.592474
 21
987.356007
  0
LINE
  8
CSLAYER1
  6
CONTINUOUS
 62
     5
 10
3403.790621
 20
1291.952881
 11
2682.918104
 21
1291.952881
  0
TEXT
  8
CSLAYER1
 62
     4
 10
2893.608887
 20
1301.191162
 40
40.000000
 41
0.825000
  1
マグネットスイッチ制御
 50
0.000000
 51
0.000000
  7
EASYDRAW_FONT
 72
     5
 11
3245.608887
 21
1301.191162
  0
TEXT
  8
CSLAYER1
 62
     4
 10
2696.359131
 20
1301.697510
 40
40.000000
 41
0.872727
  1
制御方式
 50
0.000000
 51
0.000000
  7
EASYDRAW_FONT
 72
     5
 11
2824.359131
 21
1301.697510
  0
TEXT
  8
CSLAYER1
 62
     3
 10
2692.659912
 20
1815.979248
 40
40.000000
 41
1.036364
  1
積載荷重
 50
0.000000
 51
0.000000
  7
EASYDRAW_FONT
 72
     5
 11
2844.659912
 21
1815.979248
  0
LINE
  8
CSLAYER1
  6
CONTINUOUS
 62
     5
 10
3403.790621
 20
786.620888
 11
2682.918104
 21
786.620888
  0
TEXT
  8
CSLAYER1
 62
     4
 10
3008.219971
 20
797.292114
 40
40.000000
 41
0.926087
  1
　１０Ｒ４／１３
 50
0.000000
 51
0.000000
  7
EASYDRAW_FONT
 72
     5
 11
3292.219971
 21
797.292114
  0
LINE
  8
CSLAYER1
  6
CONTINUOUS
 62
     5
 10
2450.646627
 20
2250.106713
 11
2350.853689
 21
1881.718309
  0
LINE
  8
CSLAYER1
  6
CONTINUOUS
 62
     5
 10
2350.853689
 20
1881.718309
 11
2350.935958
 21
1911.718196
  0
LINE
  8
CSLAYER1
  6
CONTINUOUS
 62
     5
 10
2350.853689
 20
1881.718309
 11
2365.924879
 21
1907.657839
  0
LINE
  8
CSLAYER1
  6
CONTINUOUS
 62
     5
 10
2639.035442
 20
2141.927165
 11
2496.915420
 21
1843.339802
  0
LINE
  8
CSLAYER1
  6
CONTINUOUS
 62
     5
 10
2496.915420
 20
1843.339802
 11
2502.358423
 21
1872.841899
  0
LINE
  8
CSLAYER1
  6
CONTINUOUS
 62
     5
 10
2496.915420
 20
1843.339802
 11
2516.380247
 21
1866.167866
  0
TEXT
  8
CSLAYER1
 62
     5
 10
2648.826660
 20
2049.818359
 40
40.000000
 41
1.020000
  1
コード長サ２ｍ
 50
360.000000
 51
0.000000
  7
EASYDRAW_FONT
 72
     5
 11
2920.826660
 21
2049.818359
  0
INSERT
  8
CSLAYER1
  2
BLKF0003
 10
0.0
 20
0.0
 30
0.0
  0
ENDSEC
  0
EOF
