  0
SECTION
  2
HEADER
  9
$ACADVER
  1
AC1006
  9
$INSBASE
 10
-404.682410
 20
2343.973941
 30
0.0
  9
$EXTMIN
 10
-404.682410
 20
2343.973941
  9
$EXTMAX
 10
3235.317590
 20
4913.973941
  9
$LIMMIN
 10
-404.682410
 20
2343.973941
  9
$LIMMAX
 10
3235.317590
 20
4913.973941
  9
$VIEWCTR
 10
1415.317590
 20
3628.973941
  9
$VIEWSIZE
 40
2570.000000
  9
$SNAPMODE
 70
     0
  9
$SNAPUNIT
 10
1.0
 20
1.0
  9
$SNAPBASE
 10
0.0
 20
0.0
  9
$SNAPANG
 50
0.0
  9
$SNAPSTYLE
 70
     0
  9
$SNAPISOPAIR
 70
     0
  9
$GRIDMODE
 70
     0
  9
$GRIDUNIT
 10
0.0
 20
0.0
  9
$ORTHOMODE
 70
     0
  9
$REGENMODE
 70
     1
  9
$FILLMODE
 70
     1
  9
$QTEXTMODE
 70
     0
  9
$DRAGMODE
 70
     2
  9
$LTSCALE
 40
15.000000
  9
$OSMODE
 70
     0
  9
$ATTMODE
 70
     1
  9
$TEXTSIZE
 40
0.2
  9
$TRACEWID
 40
0.05
  9
$TEXTSTYLE
  7
STANDARD
  9
$CLAYER
  8
CSLAYER1
  9
$CELTYPE
  6
BYLAYER
  9
$CECOLOR
 62
   256
  9
$DIMSCALE
 40
1.0
  9
$DIMASZ
 40
0.18
  9
$DIMEXO
 40
0.0625
  9
$DIMDLI
 40
0.38
  9
$DIMRND
 40
0.0
  9
$DIMDLE
 40
0.0
  9
$DIMEXE
 40
0.18
  9
$DIMTP
 40
0.0
  9
$DIMTM
 40
0.0
  9
$DIMTXT
 40
0.18
  9
$DIMCEN
 40
0.09
  9
$DIMTSZ
 40
0.0
  9
$DIMTOL
 70
     0
  9
$DIMLIM
 70
     0
  9
$DIMTIH
 70
     1
  9
$DIMTOH
 70
     1
  9
$DIMSE1
 70
     0
  9
$DIMSE2
 70
     0
  9
$DIMTAD
 70
     0
  9
$DIMZIN
 70
     0
  9
$DIMBLK
  1

  9
$LUNITS
 70
     2
  9
$LUPREC
 70
     4
  9
$AXISMODE
 70
     0
  9
$AXISUNIT
 10
0.0
 20
0.0
  9
$SKETCHINC
 40
0.1
  9
$FILLETRAD
 40
0.0
  9
$AUNITS
 70
     0
  9
$AUPREC
 70
     0
  9
$MENU
  1
ACAD
  9
$ELEVATION
 40
0.0
  9
$THICKNESS
 40
0.0
  9
$VIEWDIR
 10
0.0
 20
0.0
 30
1.0
  9
$LIMCHECK
 70
     0
  9
$BLIPMODE
 70
     1
  9
$CHAMFERA
 40
0.0
  9
$CHAMFERB
 40
0.0
  9
$FASTZOOM
 70
     1
  9
$SKPOLY
 70
     0
  9
$TDCREATE
 40
2457497.000000
  9
$TDUPDATE
 40
2457497.000000
  9
$TDINDWG
 40
0.0
  9
$TDUSRTIMER
 40
0.0
  9
$USRTIMER
 70
     1
  9
$ANGBASE
 50
0.0
  9
$ANGDIR
 70
     0
  9
$PDMODE
 70
     0
  9
$PDSIZE
 40
0.0
  9
$PLINEWID
 40
0.0
  9
$COORDS
 70
     0
  9
$USERI1
 70
     0
  9
$USERI2
 70
     0
  9
$USERI3
 70
     0
  9
$USERI4
 70
     0
  9
$USERI5
 70
     0
  9
$USERR1
 40
0.0
  9
$USERR2
 40
0.0
  9
$USERR3
 40
0.0
  9
$USERR4
 40
0.0
  9
$USERR5
 40
0.0
  0
ENDSEC
  0
SECTION
  2
TABLES
  0
TABLE
  2
LTYPE
 70
     9
  0
LTYPE
  2
CONTINUOUS
 70
    64
  3
Solid line
 72
    65
 73
     0
 40
0.0
  0
LTYPE
  2
DASHED
 70
    64
  3
__ __ __ __ __ __ __ __ __ __ __ __ __ __ __
 72
    65
 73
     2
 40
0.75
 49
0.5
 49
-0.25
  0
LTYPE
  2
HIDDEN
 70
    64
  3
_ _ _ _ _ _ _ _ _ _ _ _ _ _ _ _ _ _ _ _ _ _ _
 72
    65
 73
     2
 40
0.375
 49
0.25
 49
-0.125
  0
LTYPE
  2
DOT
 70
    64
  3
...............................................
 72
    65
 73
     2
 40
0.25
 49
0.0
 49
-0.25
  0
LTYPE
  2
DASHDOT
 70
    64
  3
__ . __ . __ . __ . __ . __ . __ . __ . __ . __
 72
    65
 73
     4
 40
1.0
 49
0.5
 49
-0.25
 49
0.0
 49
-0.25
  0
LTYPE
  2
DIVIDE
 70
    64
  3
__ . . __ . . __ . . __ . . __ . . __ . . __
 72
    65
 73
     6
 40
1.25
 49
0.5
 49
-0.25
 49
0.0
 49
-0.25
 49
0.0
 49
-0.25
  0
LTYPE
  2
CENTER
 70
    64
  3
____ _ ____ _ ____ _ ____ _ ____ _ ____ _ ____ 
 72
    65
 73
     4
 40
2.0
 49
1.25
 49
-0.25
 49
0.25
 49
-0.25
  0
LTYPE
  2
PHANTOM
 70
    64
  3
______  __  __  ______  __  __  ______  __  __ 
 72
    65
 73
     6
 40
2.5
 49
1.25
 49
-0.25
 49
0.25
 49
-0.25
 49
0.25
 49
-0.25
  0
LTYPE
  2
BORDER
 70
    64
  3
__ __ . __ __ . __ __ . __ __ . __ __ . __ __ .
 72
    65
 73
     6
 40
1.75
 49
0.5
 49
-0.25
 49
0.5
 49
-0.25
 49
0.0
 49
-0.25
  0
ENDTAB
  0
TABLE
  2
LAYER
 70
    16
  0
LAYER
  2
CSLAYER1
 70
    64
 62
     7
  6
CONTINUOUS
  0
LAYER
  2
CSLAYER2
 70
    64
 62
     7
  6
CONTINUOUS
  0
LAYER
  2
CSLAYER3
 70
    64
 62
     7
  6
CONTINUOUS
  0
LAYER
  2
CSLAYER4
 70
    64
 62
     7
  6
CONTINUOUS
  0
LAYER
  2
CSLAYER5
 70
    64
 62
     7
  6
CONTINUOUS
  0
LAYER
  2
CSLAYER6
 70
    64
 62
     7
  6
CONTINUOUS
  0
LAYER
  2
CSLAYER7
 70
    64
 62
     7
  6
CONTINUOUS
  0
LAYER
  2
CSLAYER8
 70
    64
 62
     7
  6
CONTINUOUS
  0
LAYER
  2
CSLAYER9
 70
    64
 62
     7
  6
CONTINUOUS
  0
LAYER
  2
CSLAYER10
 70
    64
 62
     7
  6
CONTINUOUS
  0
LAYER
  2
CSLAYER11
 70
    64
 62
     7
  6
CONTINUOUS
  0
LAYER
  2
CSLAYER12
 70
    64
 62
     7
  6
CONTINUOUS
  0
LAYER
  2
CSLAYER13
 70
    64
 62
     7
  6
CONTINUOUS
  0
LAYER
  2
CSLAYER14
 70
    64
 62
     7
  6
CONTINUOUS
  0
LAYER
  2
CSLAYER15
 70
    64
 62
     7
  6
CONTINUOUS
  0
LAYER
  2
CSLAYER16
 70
    64
 62
     7
  6
CONTINUOUS
  0
ENDTAB
  0
TABLE
  2
STYLE
 70
     1
  0
STYLE
  2
EASYDRAW_FONT
 70
     0
 40
1.0
 41
1.0
 50
0.0
 71
     0
 42
1.0
  3
monotxt
  4
bigfont
  0
ENDTAB
  0
TABLE
  2
VIEW
 70
     0
  0
ENDTAB
  0
ENDSEC
  0
SECTION
  2
BLOCKS
  0
BLOCK
  8
CSLAYER1
  2
*D0000
 70
    65
 10
0.0
 20
0.0
 30
0.0
  0
TEXT
  8
CSLAYER1
 62
     7
 10
2257.201904
 20
537.174561
 40
40.000000
 41
0.843750
  1
205
 50
90.000000
 51
0.000000
  7
EASYDRAW_FONT
 72
     5
 11
2257.201904
 21
627.174561
  0
LINE
  8
CSLAYER1
  6
CONTINUOUS
 62
     5
 10
2117.311937
 20
684.612334
 11
2217.311937
 21
684.612334
  0
LINE
  8
CSLAYER1
  6
CONTINUOUS
 62
     5
 10
2207.311937
 20
479.612334
 11
2207.311937
 21
684.612334
  0
LINE
  8
CSLAYER1
  6
CONTINUOUS
 62
     5
 10
2207.311937
 20
479.612334
 11
2199.547365
 21
508.590109
  0
LINE
  8
CSLAYER1
  6
CONTINUOUS
 62
     5
 10
2207.311937
 20
479.612334
 11
2215.076508
 21
508.590109
  0
LINE
  8
CSLAYER1
  6
CONTINUOUS
 62
     5
 10
2207.311937
 20
684.612334
 11
2199.547365
 21
655.634559
  0
LINE
  8
CSLAYER1
  6
CONTINUOUS
 62
     5
 10
2207.311937
 20
684.612334
 11
2215.076508
 21
655.634559
  0
ENDBLK
  8
0
  0
BLOCK
  8
CSLAYER1
  2
*D0001
 70
    65
 10
0.0
 20
0.0
 30
0.0
  0
TEXT
  8
CSLAYER1
 62
     7
 10
2197.312012
 20
904.341980
 40
40.000000
 41
0.843750
  1
500
 50
90.000000
 51
0.000000
  7
EASYDRAW_FONT
 72
     5
 11
2197.312012
 21
994.341980
  0
LINE
  8
CSLAYER1
  6
CONTINUOUS
 62
     5
 10
2207.311937
 20
684.612334
 11
2207.311937
 21
1214.071763
  0
LINE
  8
CSLAYER1
  6
CONTINUOUS
 62
     5
 10
2207.311937
 20
684.612334
 11
2199.547365
 21
713.590109
  0
LINE
  8
CSLAYER1
  6
CONTINUOUS
 62
     5
 10
2207.311937
 20
684.612334
 11
2215.076508
 21
713.590109
  0
LINE
  8
CSLAYER1
  6
CONTINUOUS
 62
     5
 10
2207.311937
 20
1214.071763
 11
2199.547365
 21
1185.093988
  0
LINE
  8
CSLAYER1
  6
CONTINUOUS
 62
     5
 10
2207.311937
 20
1214.071763
 11
2215.076508
 21
1185.093988
  0
ENDBLK
  8
0
  0
BLOCK
  8
CSLAYER1
  2
*D0002
 70
    65
 10
0.0
 20
0.0
 30
0.0
  0
TEXT
  8
CSLAYER1
 62
     7
 10
2297.312012
 20
801.842041
 40
40.000000
 41
0.843750
  1
705
 50
90.000000
 51
0.000000
  7
EASYDRAW_FONT
 72
     5
 11
2297.312012
 21
891.842041
  0
LINE
  8
CSLAYER1
  6
CONTINUOUS
 62
     5
 10
2114.286761
 20
1214.071763
 11
2317.311937
 21
1214.071763
  0
LINE
  8
CSLAYER1
  6
CONTINUOUS
 62
     5
 10
2307.311937
 20
479.612334
 11
2307.311937
 21
1214.071763
  0
LINE
  8
CSLAYER1
  6
CONTINUOUS
 62
     5
 10
2307.311937
 20
479.612334
 11
2299.547365
 21
508.590109
  0
LINE
  8
CSLAYER1
  6
CONTINUOUS
 62
     5
 10
2307.311937
 20
479.612334
 11
2315.076508
 21
508.590109
  0
LINE
  8
CSLAYER1
  6
CONTINUOUS
 62
     5
 10
2307.311937
 20
1214.071763
 11
2299.547365
 21
1185.093988
  0
LINE
  8
CSLAYER1
  6
CONTINUOUS
 62
     5
 10
2307.311937
 20
1214.071763
 11
2315.076508
 21
1185.093988
  0
ENDBLK
  8
0
  0
BLOCK
  8
CSLAYER1
  2
*D0003
 70
    65
 10
0.0
 20
0.0
 30
0.0
  0
TEXT
  8
CSLAYER1
 62
     7
 10
940.895752
 20
1740.274536
 40
40.000000
 41
0.843750
  1
500
 50
90.000000
 51
0.000000
  7
EASYDRAW_FONT
 72
     5
 11
940.895752
 21
1830.274536
  0
LINE
  8
CSLAYER1
  6
CONTINUOUS
 62
     5
 10
1047.311937
 20
1535.274435
 11
940.895749
 21
1535.274435
  0
LINE
  8
CSLAYER1
  6
CONTINUOUS
 62
     5
 10
1047.311937
 20
2035.274435
 11
940.895749
 21
2035.274435
  0
LINE
  8
CSLAYER1
  6
CONTINUOUS
 62
     5
 10
950.895749
 20
1535.274435
 11
950.895749
 21
2035.274435
  0
LINE
  8
CSLAYER1
  6
CONTINUOUS
 62
     5
 10
950.895749
 20
1535.274435
 11
943.131178
 21
1564.252209
  0
LINE
  8
CSLAYER1
  6
CONTINUOUS
 62
     5
 10
950.895749
 20
1535.274435
 11
958.660321
 21
1564.252209
  0
LINE
  8
CSLAYER1
  6
CONTINUOUS
 62
     5
 10
950.895749
 20
2035.274435
 11
943.131178
 21
2006.296660
  0
LINE
  8
CSLAYER1
  6
CONTINUOUS
 62
     5
 10
950.895749
 20
2035.274435
 11
958.660321
 21
2006.296660
  0
ENDBLK
  8
0
  0
BLOCK
  8
CSLAYER1
  2
*D0004
 70
    65
 10
0.0
 20
0.0
 30
0.0
  0
TEXT
  8
CSLAYER1
 62
     7
 10
1522.312012
 20
1316.941040
 40
40.000000
 41
0.818182
  1
1050
 50
0.000000
 51
0.000000
  7
EASYDRAW_FONT
 72
     5
 11
1642.312012
 21
1316.941040
  0
LINE
  8
CSLAYER1
  6
CONTINUOUS
 62
     5
 10
1057.311937
 20
1220.871763
 11
1057.311937
 21
1316.941101
  0
LINE
  8
CSLAYER1
  6
CONTINUOUS
 62
     5
 10
2107.311937
 20
1221.071763
 11
2107.311937
 21
1316.941101
  0
LINE
  8
CSLAYER1
  6
CONTINUOUS
 62
     5
 10
1057.311937
 20
1306.941101
 11
2107.311937
 21
1306.941101
  0
LINE
  8
CSLAYER1
  6
CONTINUOUS
 62
     5
 10
1057.311937
 20
1306.941101
 11
1086.289711
 21
1314.705673
  0
LINE
  8
CSLAYER1
  6
CONTINUOUS
 62
     5
 10
1057.311937
 20
1306.941101
 11
1086.289711
 21
1299.176530
  0
LINE
  8
CSLAYER1
  6
CONTINUOUS
 62
     5
 10
2107.311937
 20
1306.941101
 11
2078.334162
 21
1314.705673
  0
LINE
  8
CSLAYER1
  6
CONTINUOUS
 62
     5
 10
2107.311937
 20
1306.941101
 11
2078.334162
 21
1299.176530
  0
ENDBLK
  8
0
  0
BLOCK
  8
CSLAYER1
  2
*D0005
 70
    65
 10
0.0
 20
0.0
 30
0.0
  0
TEXT
  8
CSLAYER1
 62
     7
 10
1522.312012
 20
378.128357
 40
40.000000
 41
0.818182
  1
1050
 50
0.000000
 51
0.000000
  7
EASYDRAW_FONT
 72
     5
 11
1642.312012
 21
378.128357
  0
LINE
  8
CSLAYER1
  6
CONTINUOUS
 62
     5
 10
1057.311937
 20
469.612334
 11
1057.311937
 21
358.128316
  0
LINE
  8
CSLAYER1
  6
CONTINUOUS
 62
     5
 10
2107.311937
 20
469.612334
 11
2107.311937
 21
358.128316
  0
LINE
  8
CSLAYER1
  6
CONTINUOUS
 62
     5
 10
1057.311937
 20
368.128316
 11
2107.311937
 21
368.128316
  0
LINE
  8
CSLAYER1
  6
CONTINUOUS
 62
     5
 10
1057.311937
 20
368.128316
 11
1086.289711
 21
375.892887
  0
LINE
  8
CSLAYER1
  6
CONTINUOUS
 62
     5
 10
1057.311937
 20
368.128316
 11
1086.289711
 21
360.363745
  0
LINE
  8
CSLAYER1
  6
CONTINUOUS
 62
     5
 10
2107.311937
 20
368.128316
 11
2078.334162
 21
375.892887
  0
LINE
  8
CSLAYER1
  6
CONTINUOUS
 62
     5
 10
2107.311937
 20
368.128316
 11
2078.334162
 21
360.363745
  0
ENDBLK
  8
0
  0
BLOCK
  8
CSLAYER1
  2
*D0006
 70
    65
 10
0.0
 20
0.0
 30
0.0
  0
TEXT
  8
CSLAYER1
 62
     7
 10
471.682007
 20
378.128357
 40
40.000000
 41
0.843750
  1
500
 50
0.000000
 51
0.000000
  7
EASYDRAW_FONT
 72
     5
 11
561.682007
 21
378.128357
  0
LINE
  8
CSLAYER1
  6
CONTINUOUS
 62
     5
 10
266.682063
 20
469.612334
 11
266.682063
 21
358.128316
  0
LINE
  8
CSLAYER1
  6
CONTINUOUS
 62
     5
 10
766.682063
 20
469.612334
 11
766.682063
 21
358.128316
  0
LINE
  8
CSLAYER1
  6
CONTINUOUS
 62
     5
 10
266.682063
 20
368.128316
 11
766.682063
 21
368.128316
  0
LINE
  8
CSLAYER1
  6
CONTINUOUS
 62
     5
 10
266.682063
 20
368.128316
 11
295.659837
 21
375.892887
  0
LINE
  8
CSLAYER1
  6
CONTINUOUS
 62
     5
 10
266.682063
 20
368.128316
 11
295.659837
 21
360.363745
  0
LINE
  8
CSLAYER1
  6
CONTINUOUS
 62
     5
 10
766.682063
 20
368.128316
 11
737.704288
 21
375.892887
  0
LINE
  8
CSLAYER1
  6
CONTINUOUS
 62
     5
 10
766.682063
 20
368.128316
 11
737.704288
 21
360.363745
  0
ENDBLK
  8
0
  0
BLOCK
  8
CSLAYER1
  2
BLKF0000
 70
   64
 10
0.0
 20
0.0
 30
0.0
  0
ARC
  8
CSLAYER1
  6
CONTINUOUS
 62
     5
 10
2781.909508
 20
79.335220
 40
3.549225
 50
6.429109
 51
73.182034
  0
ARC
  8
CSLAYER1
  6
CONTINUOUS
 62
     5
 10
2778.448538
 20
78.176827
 40
6.907754
 50
310.517970
 51
330.092764
  0
ARC
  8
CSLAYER1
  6
CONTINUOUS
 62
     5
 10
2778.387888
 20
78.542345
 40
7.148321
 50
-32.205059
 51
9.585194
  0
ARC
  8
CSLAYER1
  6
CONTINUOUS
 62
     5
 10
2781.680616
 20
75.781346
 40
4.767514
 50
180.000000
 51
218.514150
  0
ARC
  8
CSLAYER1
  6
CONTINUOUS
 62
     5
 10
2780.393895
 20
75.104206
 40
3.348282
 50
222.781148
 51
319.406906
  0
ARC
  8
CSLAYER1
  6
CONTINUOUS
 62
     5
 10
2783.459537
 20
76.194099
 40
6.559434
 50
94.574282
 51
183.607718
  0
LINE
  8
CSLAYER1
  6
CONTINUOUS
 62
     5
 10
2796.903443
 20
71.077266
 11
2796.046407
 21
68.038683
  0
LINE
  8
CSLAYER1
  6
CONTINUOUS
 62
     5
 10
2798.695428
 20
90.944924
 11
2796.591794
 21
93.671857
  0
LINE
  8
CSLAYER1
  6
CONTINUOUS
 62
     5
 10
2796.591794
 20
93.671857
 11
2789.838440
 21
97.429769
  0
LINE
  8
CSLAYER1
  6
CONTINUOUS
 62
     5
 10
2789.838440
 20
97.429769
 11
2782.936412
 21
98.232640
  0
LINE
  8
CSLAYER1
  6
CONTINUOUS
 62
     5
 10
2764.647187
 20
84.853966
 11
2766.793881
 21
89.818197
  0
LINE
  8
CSLAYER1
  6
CONTINUOUS
 62
     5
 10
2766.756884
 20
89.732640
 11
2768.940576
 21
92.367396
  0
LINE
  8
CSLAYER1
  6
CONTINUOUS
 62
     5
 10
2768.940576
 20
92.367396
 11
2772.244998
 21
94.732640
  0
LINE
  8
CSLAYER1
  6
CONTINUOUS
 62
     5
 10
2782.936412
 20
98.232640
 11
2781.418237
 21
97.465795
  0
LINE
  8
CSLAYER1
  6
CONTINUOUS
 62
     5
 10
2781.418237
 20
97.465795
 11
2777.929858
 21
97.465795
  0
LINE
  8
CSLAYER1
  6
CONTINUOUS
 62
     5
 10
2777.929858
 20
97.465795
 11
2774.374396
 21
95.520354
  0
LINE
  8
CSLAYER1
  6
CONTINUOUS
 62
     5
 10
2774.374396
 20
95.520354
 11
2772.244998
 21
94.732640
  0
LINE
  8
CSLAYER1
  6
CONTINUOUS
 62
     5
 10
2764.647187
 20
84.853966
 11
2763.129640
 21
77.305363
  0
LINE
  8
CSLAYER1
  6
CONTINUOUS
 62
     5
 10
2763.129640
 20
77.305363
 11
2762.936412
 21
74.732640
  0
LINE
  8
CSLAYER1
  6
CONTINUOUS
 62
     5
 10
2765.645795
 20
66.892857
 11
2762.936412
 21
72.988969
  0
LINE
  8
CSLAYER1
  6
CONTINUOUS
 62
     5
 10
2762.936412
 20
72.988969
 11
2762.936412
 21
74.732640
  0
LINE
  8
CSLAYER1
  6
CONTINUOUS
 62
     5
 10
2796.046407
 20
68.038683
 11
2794.360620
 21
65.035677
  0
LINE
  8
CSLAYER1
  6
CONTINUOUS
 62
     5
 10
2794.360620
 20
65.035677
 11
2792.936412
 21
63.716966
  0
ARC
  8
CSLAYER1
  6
CONTINUOUS
 62
     5
 10
2780.744468
 20
75.269400
 40
17.266626
 50
208.054813
 51
260.640470
  0
ARC
  8
CSLAYER1
  6
CONTINUOUS
 62
     5
 10
2775.551072
 20
88.011870
 40
29.874611
 50
274.579659
 51
305.587364
  0
ARC
  8
CSLAYER1
  6
CONTINUOUS
 62
     5
 10
2786.523421
 20
82.028147
 40
15.088627
 50
313.467013
 51
331.085078
  0
LINE
  8
CSLAYER1
  6
CONTINUOUS
 62
     5
 10
2801.314754
 20
78.246061
 11
2801.612048
 21
82.028147
  0
LINE
  8
CSLAYER1
  6
CONTINUOUS
 62
     5
 10
2801.612048
 20
82.028147
 11
2800.320051
 21
88.137130
  0
LINE
  8
CSLAYER1
  6
CONTINUOUS
 62
     5
 10
2801.314754
 20
78.246061
 11
2799.731079
 21
74.732640
  0
ARC
  8
CSLAYER1
  6
CONTINUOUS
 62
     5
 10
2786.523421
 20
82.028147
 40
15.088627
 50
23.883193
 51
36.225170
  0
LINE
  8
CSLAYER1
  6
CONTINUOUS
 62
     5
 10
2746.936412
 20
109.732640
 11
2747.936412
 21
110.825284
  0
LINE
  8
CSLAYER1
  6
CONTINUOUS
 62
     5
 10
2746.936412
 20
109.732640
 11
2748.513370
 21
108.287607
  0
LINE
  8
CSLAYER1
  6
CONTINUOUS
 62
     5
 10
2750.052583
 20
106.178315
 11
2750.078851
 21
104.010196
  0
LINE
  8
CSLAYER1
  6
CONTINUOUS
 62
     5
 10
2750.078851
 20
104.010196
 11
2750.286249
 21
103.249737
  0
LINE
  8
CSLAYER1
  6
CONTINUOUS
 62
     5
 10
2750.286249
 20
103.249737
 11
2750.873877
 21
102.523844
  0
LINE
  8
CSLAYER1
  6
CONTINUOUS
 62
     5
 10
2750.873877
 20
102.523844
 11
2751.461504
 21
102.592977
  0
LINE
  8
CSLAYER1
  6
CONTINUOUS
 62
     5
 10
2751.461504
 20
102.592977
 11
2752.083698
 21
102.765808
  0
LINE
  8
CSLAYER1
  6
CONTINUOUS
 62
     5
 10
2752.083698
 20
102.765808
 11
2752.498494
 21
102.592977
  0
LINE
  8
CSLAYER1
  6
CONTINUOUS
 62
     5
 10
2752.498494
 20
102.592977
 11
2753.397219
 21
102.143614
  0
LINE
  8
CSLAYER1
  6
CONTINUOUS
 62
     5
 10
2753.397219
 20
102.143614
 11
2754.173270
 21
101.732640
  0
LINE
  8
CSLAYER1
  6
CONTINUOUS
 62
     5
 10
2754.173270
 20
101.732640
 11
2754.676173
 21
101.763385
  0
LINE
  8
CSLAYER1
  6
CONTINUOUS
 62
     5
 10
2754.676173
 20
101.763385
 11
2757.484045
 21
103.209864
  0
LINE
  8
CSLAYER1
  6
CONTINUOUS
 62
     5
 10
2747.936412
 20
110.825284
 11
2748.269264
 21
112.298991
  0
LINE
  8
CSLAYER1
  6
CONTINUOUS
 62
     5
 10
2748.269264
 20
112.298991
 11
2749.722669
 21
112.449344
  0
LINE
  8
CSLAYER1
  6
CONTINUOUS
 62
     5
 10
2751.216428
 20
115.217802
 11
2752.970601
 21
115.374892
  0
LINE
  8
CSLAYER1
  6
CONTINUOUS
 62
     5
 10
2752.970601
 20
115.374892
 11
2756.505128
 21
116.212706
  0
LINE
  8
CSLAYER1
  6
CONTINUOUS
 62
     5
 10
2756.505128
 20
116.212706
 11
2757.936412
 21
116.544345
  0
LINE
  8
CSLAYER1
  6
CONTINUOUS
 62
     5
 10
2751.216428
 20
115.217802
 11
2749.283537
 21
115.376670
  0
LINE
  8
CSLAYER1
  6
CONTINUOUS
 62
     5
 10
2748.547414
 20
114.507983
 11
2748.640939
 21
114.136822
  0
LINE
  8
CSLAYER1
  6
CONTINUOUS
 62
     5
 10
2748.640939
 20
114.136822
 11
2749.132533
 21
113.599141
  0
LINE
  8
CSLAYER1
  6
CONTINUOUS
 62
     5
 10
2749.132533
 20
113.599141
 11
2749.808475
 21
113.092184
  0
LINE
  8
CSLAYER1
  6
CONTINUOUS
 62
     5
 10
2749.808475
 20
113.092184
 11
2749.931800
 21
112.927751
  0
LINE
  8
CSLAYER1
  6
CONTINUOUS
 62
     5
 10
2748.513370
 20
108.287607
 11
2750.052583
 21
106.178315
  0
ARC
  8
CSLAYER1
  6
CONTINUOUS
 62
     5
 10
2792.923113
 20
-61.926013
 40
180.727463
 50
80.438896
 51
96.353582
  0
ARC
  8
CSLAYER1
  6
CONTINUOUS
 62
     5
 10
2768.024200
 20
83.321887
 40
34.720242
 50
81.866516
 51
106.890578
  0
LINE
  8
CSLAYER1
  6
CONTINUOUS
 62
     5
 10
2827.130674
 20
115.499310
 11
2829.377756
 21
114.477909
  0
LINE
  8
CSLAYER1
  6
CONTINUOUS
 62
     5
 10
2832.952661
 20
112.894737
 11
2829.377756
 21
114.477909
  0
LINE
  8
CSLAYER1
  6
CONTINUOUS
 62
     5
 10
2827.130674
 20
115.499310
 11
2822.936412
 21
116.291881
  0
LINE
  8
CSLAYER1
  6
CONTINUOUS
 62
     5
 10
2832.936412
 20
112.901933
 11
2834.807988
 21
111.333456
  0
LINE
  8
CSLAYER1
  6
CONTINUOUS
 62
     5
 10
2816.179668
 20
113.938783
 11
2817.078943
 21
115.391458
  0
LINE
  8
CSLAYER1
  6
CONTINUOUS
 62
     5
 10
2817.078943
 20
115.391458
 11
2821.754542
 21
114.271949
  0
LINE
  8
CSLAYER1
  6
CONTINUOUS
 62
     5
 10
2821.754542
 20
114.271949
 11
2838.496928
 21
109.732640
  0
LINE
  8
CSLAYER1
  6
CONTINUOUS
 62
     5
 10
2841.436412
 20
109.732640
 11
2834.807988
 21
111.333456
  0
LINE
  8
CSLAYER1
  6
CONTINUOUS
 62
     5
 10
2838.496928
 20
109.732640
 11
2841.436412
 21
109.732640
  0
LINE
  8
CSLAYER1
  6
CONTINUOUS
 62
     5
 10
2782.936412
 20
114.197581
 11
2802.936412
 21
114.732640
  0
LINE
  8
CSLAYER1
  6
CONTINUOUS
 62
     5
 10
2802.936412
 20
114.732640
 11
2816.179668
 21
113.938783
  0
LINE
  8
CSLAYER1
  6
CONTINUOUS
 62
     5
 10
2817.782649
 20
111.878304
 11
2802.936412
 21
113.232640
  0
LINE
  8
CSLAYER1
  6
CONTINUOUS
 62
     5
 10
2802.936412
 20
113.232640
 11
2787.887203
 21
113.641292
  0
LINE
  8
CSLAYER1
  6
CONTINUOUS
 62
     5
 10
2787.936412
 20
113.639956
 11
2782.936412
 21
113.735249
  0
LINE
  8
CSLAYER1
  6
CONTINUOUS
 62
     5
 10
2782.936412
 20
114.197581
 11
2782.936412
 21
113.735249
  0
LINE
  8
CSLAYER1
  6
CONTINUOUS
 62
     5
 10
2840.436412
 20
106.232640
 11
2831.593854
 21
108.543302
  0
LINE
  8
CSLAYER1
  6
CONTINUOUS
 62
     5
 10
2817.782649
 20
111.878304
 11
2827.936412
 21
109.905920
  0
LINE
  8
CSLAYER1
  6
CONTINUOUS
 62
     5
 10
2827.936412
 20
109.905920
 11
2831.593854
 21
108.543302
  0
LINE
  8
CSLAYER1
  6
CONTINUOUS
 62
     5
 10
2840.436412
 20
106.232640
 11
2840.143795
 21
105.393534
  0
LINE
  8
CSLAYER1
  6
CONTINUOUS
 62
     5
 10
2849.936412
 20
100.732640
 11
2849.630385
 21
101.961621
  0
LINE
  8
CSLAYER1
  6
CONTINUOUS
 62
     5
 10
2840.143795
 20
105.393534
 11
2849.630385
 21
101.961621
  0
LINE
  8
CSLAYER1
  6
CONTINUOUS
 62
     5
 10
2786.436412
 20
106.232640
 11
2788.859450
 21
106.232640
  0
LINE
  8
CSLAYER1
  6
CONTINUOUS
 62
     5
 10
2808.936412
 20
106.665135
 11
2808.936412
 21
106.232640
  0
LINE
  8
CSLAYER1
  6
CONTINUOUS
 62
     5
 10
2807.936412
 20
107.199576
 11
2806.225133
 21
107.836755
  0
LINE
  8
CSLAYER1
  6
CONTINUOUS
 62
     5
 10
2806.225133
 20
107.836755
 11
2805.115077
 21
107.887212
  0
LINE
  8
CSLAYER1
  6
CONTINUOUS
 62
     5
 10
2805.115077
 20
107.887212
 11
2804.635735
 21
107.634926
  0
LINE
  8
CSLAYER1
  6
CONTINUOUS
 62
     5
 10
2804.635735
 20
107.634926
 11
2804.534821
 21
107.231270
  0
LINE
  8
CSLAYER1
  6
CONTINUOUS
 62
     5
 10
2804.534821
 20
107.231270
 11
2804.988934
 21
106.928527
  0
LINE
  8
CSLAYER1
  6
CONTINUOUS
 62
     5
 10
2804.988934
 20
106.928527
 11
2806.628790
 21
106.777156
  0
LINE
  8
CSLAYER1
  6
CONTINUOUS
 62
     5
 10
2806.628790
 20
106.777156
 11
2808.936412
 21
106.665135
  0
LINE
  8
CSLAYER1
  6
CONTINUOUS
 62
     5
 10
2849.936412
 20
100.732640
 11
2846.960870
 21
101.919221
  0
LINE
  8
CSLAYER1
  6
CONTINUOUS
 62
     5
 10
2846.960870
 20
101.919221
 11
2836.905180
 21
103.762097
  0
LINE
  8
CSLAYER1
  6
CONTINUOUS
 62
     5
 10
2836.905180
 20
103.762097
 11
2831.879400
 21
104.921892
  0
LINE
  8
CSLAYER1
  6
CONTINUOUS
 62
     5
 10
2809.470633
 20
107.232640
 11
2821.236299
 21
107.232640
  0
LINE
  8
CSLAYER1
  6
CONTINUOUS
 62
     5
 10
2807.936412
 20
107.199576
 11
2808.461072
 21
106.891109
  0
LINE
  8
CSLAYER1
  6
CONTINUOUS
 62
     5
 10
2808.461072
 20
106.891109
 11
2808.757884
 21
106.802065
  0
LINE
  8
CSLAYER1
  6
CONTINUOUS
 62
     5
 10
2808.757884
 20
106.802065
 11
2808.936412
 21
106.827236
  0
LINE
  8
CSLAYER1
  6
CONTINUOUS
 62
     5
 10
2808.936412
 20
106.827236
 11
2809.470633
 21
107.232640
  0
LINE
  8
CSLAYER1
  6
CONTINUOUS
 62
     5
 10
2821.236299
 20
107.232640
 11
2825.686568
 21
106.203814
  0
LINE
  8
CSLAYER1
  6
CONTINUOUS
 62
     5
 10
2825.686568
 20
106.203814
 11
2829.839760
 21
105.038665
  0
LINE
  8
CSLAYER1
  6
CONTINUOUS
 62
     5
 10
2829.839760
 20
105.038665
 11
2831.879400
 21
104.921892
  0
LINE
  8
CSLAYER1
  6
CONTINUOUS
 62
     5
 10
2785.436412
 20
105.232640
 11
2785.436412
 21
104.732640
  0
LINE
  8
CSLAYER1
  6
CONTINUOUS
 62
     5
 10
2782.936412
 20
104.732640
 11
2785.436412
 21
104.732640
  0
ARC
  8
CSLAYER1
  6
CONTINUOUS
 62
     5
 10
2786.436412
 20
105.232640
 40
1.000000
 50
90.000000
 51
180.000000
  0
LINE
  8
CSLAYER1
  6
CONTINUOUS
 62
     5
 10
2788.859450
 20
106.232640
 11
2789.557007
 21
105.660643
  0
LINE
  8
CSLAYER1
  6
CONTINUOUS
 62
     5
 10
2790.159375
 20
105.636683
 11
2791.016972
 21
106.232640
  0
LINE
  8
CSLAYER1
  6
CONTINUOUS
 62
     5
 10
2792.595368
 20
106.232640
 11
2794.262494
 21
105.574564
  0
LINE
  8
CSLAYER1
  6
CONTINUOUS
 62
     5
 10
2794.686203
 20
105.601076
 11
2795.839690
 21
106.232640
  0
LINE
  8
CSLAYER1
  6
CONTINUOUS
 62
     5
 10
2791.016972
 20
106.232640
 11
2792.595368
 21
106.232640
  0
LINE
  8
CSLAYER1
  6
CONTINUOUS
 62
     5
 10
2795.839690
 20
106.232640
 11
2808.936412
 21
106.232640
  0
LINE
  8
CSLAYER1
  6
CONTINUOUS
 62
     5
 10
2761.485395
 20
103.123813
 11
2782.936412
 21
104.732640
  0
LINE
  8
CSLAYER1
  6
CONTINUOUS
 62
     5
 10
2757.484045
 20
103.209864
 11
2761.485395
 21
103.123813
  0
ARC
  8
CSLAYER1
  6
CONTINUOUS
 62
     5
 10
2789.874047
 20
106.047277
 40
0.500000
 50
230.648247
 51
304.796026
  0
ARC
  8
CSLAYER1
  6
CONTINUOUS
 62
     5
 10
2794.446077
 20
106.039642
 40
0.500000
 50
248.459024
 51
298.701829
  0
ARC
  8
CSLAYER1
  6
CONTINUOUS
 62
     5
 10
2749.691800
 20
112.747751
 40
0.300000
 50
-84.093859
 51
36.869898
  0
ARC
  8
CSLAYER1
  6
CONTINUOUS
 62
     5
 10
2749.226196
 20
114.679023
 40
0.700000
 50
85.301319
 51
194.142980
  0
LINE
  8
CSLAYER1
  6
CONTINUOUS
 62
     3
 10
2781.418237
 20
97.465795
 11
2789.528732
 21
97.465795
  0
LINE
  8
CSLAYER1
  6
CONTINUOUS
 62
     3
 10
2775.005720
 20
95.865795
 11
2792.649061
 21
95.865795
  0
LINE
  8
CSLAYER1
  6
CONTINUOUS
 62
     3
 10
2771.592781
 20
94.265795
 11
2795.524426
 21
94.265795
  0
LINE
  8
CSLAYER1
  6
CONTINUOUS
 62
     3
 10
2769.357462
 20
92.665795
 11
2797.367899
 21
92.665795
  0
LINE
  8
CSLAYER1
  6
CONTINUOUS
 62
     3
 10
2767.861806
 20
91.065795
 11
2798.602184
 21
91.065795
  0
LINE
  8
CSLAYER1
  6
CONTINUOUS
 62
     3
 10
2766.641492
 20
89.465795
 11
2799.651561
 21
89.465795
  0
LINE
  8
CSLAYER1
  6
CONTINUOUS
 62
     3
 10
2765.949600
 20
87.865795
 11
2800.377436
 21
87.865795
  0
LINE
  8
CSLAYER1
  6
CONTINUOUS
 62
     3
 10
2765.257708
 20
86.265795
 11
2800.715822
 21
86.265795
  0
LINE
  8
CSLAYER1
  6
CONTINUOUS
 62
     3
 10
2764.609358
 20
84.665795
 11
2801.054208
 21
84.665795
  0
LINE
  8
CSLAYER1
  6
CONTINUOUS
 62
     3
 10
2764.287699
 20
83.065795
 11
2801.392594
 21
83.065795
  0
LINE
  8
CSLAYER1
  6
CONTINUOUS
 62
     3
 10
2763.966040
 20
81.465795
 11
2779.556283
 21
81.465795
  0
LINE
  8
CSLAYER1
  6
CONTINUOUS
 62
     3
 10
2763.644381
 20
79.865795
 11
2778.024022
 21
79.865795
  0
LINE
  8
CSLAYER1
  6
CONTINUOUS
 62
     3
 10
2763.322722
 20
78.265795
 11
2777.235852
 21
78.265795
  0
LINE
  8
CSLAYER1
  6
CONTINUOUS
 62
     3
 10
2763.081604
 20
76.665795
 11
2776.917085
 21
76.665795
  0
LINE
  8
CSLAYER1
  6
CONTINUOUS
 62
     3
 10
2762.961434
 20
75.065795
 11
2776.967106
 21
75.065795
  0
LINE
  8
CSLAYER1
  6
CONTINUOUS
 62
     3
 10
2762.936412
 20
73.465795
 11
2777.513193
 21
73.465795
  0
LINE
  8
CSLAYER1
  6
CONTINUOUS
 62
     3
 10
2763.435600
 20
71.865795
 11
2779.543195
 21
71.865795
  0
LINE
  8
CSLAYER1
  6
CONTINUOUS
 62
     3
 10
2764.146711
 20
70.265795
 11
2796.674567
 21
70.265795
  0
LINE
  8
CSLAYER1
  6
CONTINUOUS
 62
     3
 10
2764.857823
 20
68.665795
 11
2796.223285
 21
68.665795
  0
LINE
  8
CSLAYER1
  6
CONTINUOUS
 62
     3
 10
2765.568934
 20
67.065795
 11
2795.500261
 21
67.065795
  0
LINE
  8
CSLAYER1
  6
CONTINUOUS
 62
     3
 10
2766.530893
 20
65.465795
 11
2794.602074
 21
65.465795
  0
LINE
  8
CSLAYER1
  6
CONTINUOUS
 62
     3
 10
2767.779354
 20
63.865795
 11
2793.097148
 21
63.865795
  0
LINE
  8
CSLAYER1
  6
CONTINUOUS
 62
     3
 10
2769.384774
 20
62.265795
 11
2790.704687
 21
62.265795
  0
LINE
  8
CSLAYER1
  6
CONTINUOUS
 62
     3
 10
2771.531916
 20
60.665795
 11
2787.579564
 21
60.665795
  0
LINE
  8
CSLAYER1
  6
CONTINUOUS
 62
     3
 10
2774.779606
 20
59.065795
 11
2782.941415
 21
59.065795
  0
LINE
  8
CSLAYER1
  6
CONTINUOUS
 62
     3
 10
2784.748107
 20
81.465795
 11
2801.567844
 21
81.465795
  0
LINE
  8
CSLAYER1
  6
CONTINUOUS
 62
     3
 10
2785.418851
 20
79.865795
 11
2801.442074
 21
79.865795
  0
LINE
  8
CSLAYER1
  6
CONTINUOUS
 62
     3
 10
2785.530858
 20
78.265795
 11
2801.316305
 21
78.265795
  0
LINE
  8
CSLAYER1
  6
CONTINUOUS
 62
     3
 10
2785.285501
 20
76.665795
 11
2800.602449
 21
76.665795
  0
LINE
  8
CSLAYER1
  6
CONTINUOUS
 62
     3
 10
2784.633855
 20
75.065795
 11
2799.881249
 21
75.065795
  0
LINE
  8
CSLAYER1
  6
CONTINUOUS
 62
     3
 10
2783.500592
 20
73.465795
 11
2798.947301
 21
73.465795
  0
LINE
  8
CSLAYER1
  6
CONTINUOUS
 62
     3
 10
2781.244595
 20
71.865795
 11
2797.676594
 21
71.865795
  0
TEXT
  8
CSLAYER1
 62
     5
 10
2802.108183
 20
79.476970
 40
4.713448
 41
1.951056
  1
M
 50
0.000000
 51
0.000000
  7
EASYDRAW_FONT
 72
     5
 11
2808.238985
 21
79.476970
  0
TEXT
  8
CSLAYER1
 62
     5
 10
2811.759570
 20
79.418700
 40
4.626621
 41
0.778201
  1
T
 50
0.000000
 51
0.000000
  7
EASYDRAW_FONT
 72
     5
 11
2814.159863
 21
79.418700
  0
TEXT
  8
CSLAYER1
 62
     5
 10
2814.525133
 20
79.453499
 40
4.696183
 41
1.055553
  1
E
 50
0.000000
 51
0.000000
  7
EASYDRAW_FONT
 72
     5
 11
2817.829848
 21
79.453499
  0
TEXT
  8
CSLAYER1
 62
     5
 10
2817.641314
 20
81.069343
 40
0.348283
 41
9.375319
  1
-
 50
0.000000
 51
0.000000
  7
EASYDRAW_FONT
 72
     5
 11
2819.818159
 21
81.069343
  0
TEXT
  8
CSLAYER1
 62
     5
 10
2819.455523
 20
79.422152
 40
4.861659
 41
1.298502
  1
H
 50
0.000000
 51
0.000000
  7
EASYDRAW_FONT
 72
     5
 11
2823.664106
 21
79.422152
  0
TEXT
  8
CSLAYER1
 62
     5
 10
2823.531538
 20
79.452530
 40
4.843139
 41
1.269236
  1
A
 50
0.000000
 51
0.000000
  7
EASYDRAW_FONT
 72
     5
 11
2827.629595
 21
79.452530
  0
TEXT
  8
CSLAYER1
 62
     5
 10
2827.237694
 20
79.411004
 40
4.825362
 41
1.490144
  1
N
 50
0.000000
 51
0.000000
  7
EASYDRAW_FONT
 72
     5
 11
2832.031349
 21
79.411004
  0
TEXT
  8
CSLAYER1
 62
     5
 10
2808.029152
 20
79.388431
 40
4.982325
 41
1.177443
  1
A
 50
0.000000
 51
0.000000
  7
EASYDRAW_FONT
 72
     5
 11
2811.940086
 21
79.388431
  0
TEXT
  8
CSLAYER1
 62
     5
 10
2802.475197
 20
72.393191
 40
4.982325
 41
1.177443
  1
A
 50
0.000000
 51
0.000000
  7
EASYDRAW_FONT
 72
     5
 11
2806.386131
 21
72.393191
  0
TEXT
  8
CSLAYER1
 62
     5
 10
2815.259621
 20
72.421512
 40
4.982325
 41
1.177443
  1
A
 50
0.000000
 51
0.000000
  7
EASYDRAW_FONT
 72
     5
 11
2819.170555
 21
72.421512
  0
TEXT
  8
CSLAYER1
 62
     5
 10
2819.020165
 20
72.478509
 40
4.825362
 41
1.490144
  1
N
 50
0.000000
 51
0.000000
  7
EASYDRAW_FONT
 72
     5
 11
2823.813819
 21
72.478509
  0
TEXT
  8
CSLAYER1
 62
     5
 10
2827.922501
 20
72.486903
 40
4.841775
 41
1.184218
  1
E
 50
0.000000
 51
0.000000
  7
EASYDRAW_FONT
 72
     5
 11
2831.744980
 21
72.486903
  0
TEXT
  8
CSLAYER1
 62
     5
 10
2806.755750
 20
72.391867
 40
4.947865
 41
1.093992
  1
D
 50
0.000000
 51
0.000000
  7
EASYDRAW_FONT
 72
     5
 11
2810.364367
 21
72.391867
  0
TEXT
  8
CSLAYER1
 62
     5
 10
2811.158109
 20
72.386482
 40
4.924210
 41
1.228195
  1
V
 50
0.000000
 51
0.000000
  7
EASYDRAW_FONT
 72
     5
 11
2815.190036
 21
72.386482
  0
TEXT
  8
CSLAYER1
 62
     5
 10
2823.383310
 20
72.407213
 40
5.032894
 41
1.481023
  1
C
 50
0.000000
 51
0.000000
  7
EASYDRAW_FONT
 72
     5
 11
2828.352530
 21
72.407213
  0
LINE
  8
CSLAYER1
  6
CONTINUOUS
 62
     5
 10
2814.013749
 20
83.467612
 11
2813.001687
 21
83.467612
  0
LINE
  8
CSLAYER1
  6
CONTINUOUS
 62
     3
 10
2763.111987
 20
117.692883
 11
2812.909813
 21
117.692883
  0
LINE
  8
CSLAYER1
  6
CONTINUOUS
 62
     3
 10
2755.999623
 20
116.092883
 11
2823.989505
 21
116.092883
  0
LINE
  8
CSLAYER1
  6
CONTINUOUS
 62
     3
 10
2748.551219
 20
114.492883
 11
2793.974529
 21
114.492883
  0
LINE
  8
CSLAYER1
  6
CONTINUOUS
 62
     3
 10
2806.936079
 20
114.492883
 11
2816.522682
 21
114.492883
  0
LINE
  8
CSLAYER1
  6
CONTINUOUS
 62
     3
 10
2820.831816
 20
114.492883
 11
2829.344813
 21
114.492883
  0
LINE
  8
CSLAYER1
  6
CONTINUOUS
 62
     3
 10
2749.954358
 20
112.892883
 11
2806.660827
 21
112.892883
  0
LINE
  8
CSLAYER1
  6
CONTINUOUS
 62
     3
 10
2826.840965
 20
112.892883
 11
2832.947211
 21
112.892883
  0
LINE
  8
CSLAYER1
  6
CONTINUOUS
 62
     3
 10
2748.042024
 20
111.292883
 11
2820.796375
 21
111.292883
  0
LINE
  8
CSLAYER1
  6
CONTINUOUS
 62
     3
 10
2832.742264
 20
111.292883
 11
2834.975986
 21
111.292883
  0
LINE
  8
CSLAYER1
  6
CONTINUOUS
 62
     3
 10
2746.979799
 20
109.692883
 11
2828.508231
 21
109.692883
  0
LINE
  8
CSLAYER1
  6
CONTINUOUS
 62
     3
 10
2748.655466
 20
108.092883
 11
2833.317540
 21
108.092883
  0
LINE
  8
CSLAYER1
  6
CONTINUOUS
 62
     3
 10
2749.823033
 20
106.492883
 11
2808.936412
 21
106.492883
  0
LINE
  8
CSLAYER1
  6
CONTINUOUS
 62
     3
 10
2824.436177
 20
106.492883
 11
2839.440500
 21
106.492883
  0
LINE
  8
CSLAYER1
  6
CONTINUOUS
 62
     3
 10
2750.068157
 20
104.892883
 11
2785.436412
 21
104.892883
  0
LINE
  8
CSLAYER1
  6
CONTINUOUS
 62
     3
 10
2832.005106
 20
104.892883
 11
2841.527709
 21
104.892883
  0
LINE
  8
CSLAYER1
  6
CONTINUOUS
 62
     3
 10
2750.274482
 20
103.292883
 11
2763.739655
 21
103.292883
  0
LINE
  8
CSLAYER1
  6
CONTINUOUS
 62
     3
 10
2839.465455
 20
103.292883
 11
2845.950473
 21
103.292883
  0
LINE
  8
CSLAYER1
  6
CONTINUOUS
 62
     3
 10
2847.528449
 20
101.692883
 11
2849.697303
 21
101.692883
  0
ENDBLK
  8
0
  0
BLOCK
  8
CSLAYER1
  2
BLKF0001
 70
   64
 10
0.0
 20
0.0
 30
0.0
  0
LINE
  8
CSLAYER1
  6
CONTINUOUS
 62
     1
 10
2013.311937
 20
587.112334
 11
2013.311937
 21
584.912334
  0
LINE
  8
CSLAYER1
  6
CONTINUOUS
 62
     1
 10
2020.311937
 20
587.112334
 11
2020.311937
 21
584.912334
  0
LINE
  8
CSLAYER1
  6
CONTINUOUS
 62
     1
 10
2020.311937
 20
585.912334
 11
2013.311937
 21
585.912334
  0
LINE
  8
CSLAYER1
  6
CONTINUOUS
 62
     1
 10
2018.911937
 20
588.512334
 11
2014.711937
 21
588.512334
  0
LINE
  8
CSLAYER1
  6
CONTINUOUS
 62
     1
 10
2021.311937
 20
584.912334
 11
2021.311937
 21
584.112334
  0
LINE
  8
CSLAYER1
  6
CONTINUOUS
 62
     1
 10
2012.311937
 20
584.912334
 11
2012.311937
 21
584.112334
  0
LINE
  8
CSLAYER1
  6
CONTINUOUS
 62
     1
 10
2020.311937
 20
587.112334
 11
2020.311937
 21
585.912334
  0
LINE
  8
CSLAYER1
  6
CONTINUOUS
 62
     1
 10
2021.311937
 20
584.912334
 11
2012.311937
 21
584.912334
  0
ARC
  8
CSLAYER1
  6
CONTINUOUS
 62
     1
 10
2018.911937
 20
587.112334
 40
1.400000
 50
-0.000000
 51
90.000000
  0
ARC
  8
CSLAYER1
  6
CONTINUOUS
 62
     1
 10
2014.711937
 20
587.112334
 40
1.400000
 50
90.000000
 51
180.000000
  0
LINE
  8
CSLAYER1
  6
CONTINUOUS
 62
     1
 10
2017.851889
 20
584.912334
 11
2015.466686
 21
585.912334
  0
ENDBLK
  8
0
  0
BLOCK
  8
CSLAYER1
  2
BLKF0002
 70
   64
 10
0.0
 20
0.0
 30
0.0
  0
LINE
  8
CSLAYER1
  6
CONTINUOUS
 62
     1
 10
429.182063
 20
587.112334
 11
429.182063
 21
584.912334
  0
LINE
  8
CSLAYER1
  6
CONTINUOUS
 62
     1
 10
436.182063
 20
587.112334
 11
436.182063
 21
584.912334
  0
LINE
  8
CSLAYER1
  6
CONTINUOUS
 62
     1
 10
436.182063
 20
585.912334
 11
429.182063
 21
585.912334
  0
LINE
  8
CSLAYER1
  6
CONTINUOUS
 62
     1
 10
434.782063
 20
588.512334
 11
430.582063
 21
588.512334
  0
LINE
  8
CSLAYER1
  6
CONTINUOUS
 62
     1
 10
437.182063
 20
584.912334
 11
437.182063
 21
584.112334
  0
LINE
  8
CSLAYER1
  6
CONTINUOUS
 62
     1
 10
428.182063
 20
584.912334
 11
428.182063
 21
584.112334
  0
LINE
  8
CSLAYER1
  6
CONTINUOUS
 62
     1
 10
436.182063
 20
587.112334
 11
436.182063
 21
585.912334
  0
LINE
  8
CSLAYER1
  6
CONTINUOUS
 62
     1
 10
437.182063
 20
584.912334
 11
428.182063
 21
584.912334
  0
ARC
  8
CSLAYER1
  6
CONTINUOUS
 62
     1
 10
434.782063
 20
587.112334
 40
1.400000
 50
-0.000000
 51
90.000000
  0
ARC
  8
CSLAYER1
  6
CONTINUOUS
 62
     1
 10
430.582063
 20
587.112334
 40
1.400000
 50
90.000000
 51
180.000000
  0
LINE
  8
CSLAYER1
  6
CONTINUOUS
 62
     1
 10
433.722015
 20
584.912334
 11
431.336812
 21
585.912334
  0
LINE
  8
CSLAYER1
  6
CONTINUOUS
 62
     1
 10
432.682063
 20
590.996124
 11
432.682063
 21
581.880371
  0
ENDBLK
  8
0
  0
BLOCK
  8
CSLAYER1
  2
BLKF0003
 70
   64
 10
0.0
 20
0.0
 30
0.0
  0
LINE
  8
CSLAYER1
  6
CONTINUOUS
 62
     3
 10
2408.398683
 20
1715.074435
 11
2408.398683
 21
1777.074435
  0
LINE
  8
CSLAYER1
  6
CONTINUOUS
 62
     3
 10
2410.898683
 20
1712.574435
 11
2495.898683
 21
1712.574435
  0
LINE
  8
CSLAYER1
  6
CENTER
 62
     5
 10
2350.049044
 20
1785.074435
 11
2408.398683
 21
1785.074435
  0
LINE
  8
CSLAYER1
  6
CONTINUOUS
 62
     2
 10
2410.898683
 20
1769.074435
 11
2495.898683
 21
1769.074435
  0
LINE
  8
CSLAYER1
  6
CONTINUOUS
 62
     3
 10
2410.898683
 20
1717.574435
 11
2410.898683
 21
1762.574435
  0
LINE
  8
CSLAYER1
  6
CONTINUOUS
 62
     3
 10
2498.398683
 20
1715.074435
 11
2498.398683
 21
1785.074435
  0
LINE
  8
CSLAYER1
  6
CONTINUOUS
 62
     3
 10
2413.398683
 20
1715.074435
 11
2490.398683
 21
1715.074435
  0
LINE
  8
CSLAYER1
  6
CONTINUOUS
 62
     3
 10
2413.398683
 20
1765.074435
 11
2490.398683
 21
1765.074435
  0
ARC
  8
CSLAYER1
  6
CONTINUOUS
 62
     3
 10
2436.330501
 20
1740.074435
 40
59.568182
 50
-24.814837
 51
24.814837
  0
ARC
  8
CSLAYER1
  6
CONTINUOUS
 62
     3
 10
2413.398683
 20
1717.574435
 40
2.500000
 50
180.000000
 51
270.000000
  0
ARC
  8
CSLAYER1
  6
CONTINUOUS
 62
     3
 10
2413.398683
 20
1762.574435
 40
2.500000
 50
90.000000
 51
180.000000
  0
ARC
  8
CSLAYER1
  6
CONTINUOUS
 62
     3
 10
2410.898683
 20
1715.074435
 40
2.500000
 50
180.000000
 51
270.000000
  0
ARC
  8
CSLAYER1
  6
CONTINUOUS
 62
     3
 10
2495.898683
 20
1715.074435
 40
2.500000
 50
270.000000
 51
360.000000
  0
ARC
  8
CSLAYER1
  6
CONTINUOUS
 62
     2
 10
2495.898683
 20
1771.574435
 40
2.500000
 50
270.000000
 51
360.000000
  0
ARC
  8
CSLAYER1
  6
CONTINUOUS
 62
     2
 10
2410.898683
 20
1771.574435
 40
2.500000
 50
180.000000
 51
270.000000
  0
LINE
  8
CSLAYER1
  6
CONTINUOUS
 62
     3
 10
2408.398683
 20
1855.074435
 11
2408.398683
 21
1793.074435
  0
LINE
  8
CSLAYER1
  6
CONTINUOUS
 62
     3
 10
2410.898683
 20
1857.574435
 11
2495.898683
 21
1857.574435
  0
LINE
  8
CSLAYER1
  6
CONTINUOUS
 62
     2
 10
2410.898683
 20
1801.074435
 11
2495.898683
 21
1801.074435
  0
LINE
  8
CSLAYER1
  6
CONTINUOUS
 62
     3
 10
2498.398683
 20
1855.074435
 11
2498.398683
 21
1785.074435
  0
ARC
  8
CSLAYER1
  6
CONTINUOUS
 62
     3
 10
2410.898683
 20
1855.074435
 40
2.500000
 50
90.000000
 51
180.000000
  0
ARC
  8
CSLAYER1
  6
CONTINUOUS
 62
     3
 10
2495.898683
 20
1855.074435
 40
2.500000
 50
-0.000000
 51
90.000000
  0
ARC
  8
CSLAYER1
  6
CONTINUOUS
 62
     2
 10
2495.898683
 20
1798.574435
 40
2.500000
 50
-0.000000
 51
90.000000
  0
ARC
  8
CSLAYER1
  6
CONTINUOUS
 62
     2
 10
2410.898683
 20
1798.574435
 40
2.500000
 50
90.000000
 51
180.000000
  0
LINE
  8
CSLAYER1
  6
CONTINUOUS
 62
     3
 10
2410.898683
 20
1852.574435
 11
2410.898683
 21
1807.574435
  0
LINE
  8
CSLAYER1
  6
CONTINUOUS
 62
     3
 10
2413.398683
 20
1855.074435
 11
2490.398683
 21
1855.074435
  0
LINE
  8
CSLAYER1
  6
CONTINUOUS
 62
     3
 10
2413.398683
 20
1805.074435
 11
2490.398683
 21
1805.074435
  0
ARC
  8
CSLAYER1
  6
CONTINUOUS
 62
     3
 10
2436.330501
 20
1830.074435
 40
59.568182
 50
-24.814837
 51
24.814837
  0
ARC
  8
CSLAYER1
  6
CONTINUOUS
 62
     3
 10
2413.398683
 20
1852.574435
 40
2.500000
 50
90.000000
 51
180.000000
  0
ARC
  8
CSLAYER1
  6
CONTINUOUS
 62
     3
 10
2413.398683
 20
1807.574435
 40
2.500000
 50
180.000000
 51
270.000000
  0
LINE
  8
CSLAYER1
  6
CONTINUOUS
 62
     3
 10
2401.398683
 20
1792.074435
 11
2401.398683
 21
1788.574435
  0
LINE
  8
CSLAYER1
  6
CONTINUOUS
 62
     3
 10
2350.049044
 20
1788.574435
 11
2401.398683
 21
1788.574435
  0
LINE
  8
CSLAYER1
  6
CONTINUOUS
 62
     3
 10
2402.398683
 20
1793.074435
 11
2408.398683
 21
1793.074435
  0
LINE
  8
CSLAYER1
  6
CONTINUOUS
 62
     3
 10
2402.398683
 20
1777.074435
 11
2408.398683
 21
1777.074435
  0
LINE
  8
CSLAYER1
  6
CONTINUOUS
 62
     3
 10
2350.049044
 20
1781.574435
 11
2401.398683
 21
1781.574435
  0
ARC
  8
CSLAYER1
  6
CONTINUOUS
 62
     3
 10
2402.398683
 20
1778.074435
 40
1.000000
 50
180.000000
 51
270.000000
  0
ARC
  8
CSLAYER1
  6
CONTINUOUS
 62
     3
 10
2402.398683
 20
1792.074435
 40
1.000000
 50
90.000000
 51
180.000000
  0
LINE
  8
CSLAYER1
  6
CONTINUOUS
 62
     3
 10
2401.398683
 20
1781.574435
 11
2401.398683
 21
1778.074435
  0
LINE
  8
CSLAYER1
  6
CONTINUOUS
 62
     2
 10
2401.398683
 20
1788.574435
 11
2401.398683
 21
1781.574435
  0
LINE
  8
CSLAYER1
  6
CONTINUOUS
 62
     2
 10
2408.398683
 20
1777.074435
 11
2408.398683
 21
1785.074435
  0
LINE
  8
CSLAYER1
  6
CONTINUOUS
 62
     2
 10
2408.398683
 20
1793.074435
 11
2408.398683
 21
1785.074435
  0
LINE
  8
CSLAYER1
  6
CONTINUOUS
 62
     2
 10
2427.891694
 20
1772.911775
 11
2418.756694
 21
1772.911775
  0
LINE
  8
CSLAYER1
  6
CONTINUOUS
 62
     2
 10
2427.891694
 20
1796.536775
 11
2418.756694
 21
1796.536775
  0
LINE
  8
CSLAYER1
  6
CONTINUOUS
 62
     2
 10
2417.496694
 20
1774.171775
 11
2417.496694
 21
1795.276775
  0
LINE
  8
CSLAYER1
  6
CONTINUOUS
 62
     2
 10
2429.151694
 20
1774.171775
 11
2429.151694
 21
1795.276775
  0
LINE
  8
CSLAYER1
  6
CONTINUOUS
 62
     2
 10
2427.261694
 20
1794.646775
 11
2419.229194
 21
1794.646775
  0
LINE
  8
CSLAYER1
  6
CONTINUOUS
 62
     2
 10
2427.261694
 20
1791.496775
 11
2426.316694
 21
1791.496775
  0
LINE
  8
CSLAYER1
  6
CONTINUOUS
 62
     2
 10
2427.261694
 20
1782.834275
 11
2426.316694
 21
1782.834275
  0
LINE
  8
CSLAYER1
  6
CONTINUOUS
 62
     2
 10
2427.261694
 20
1778.266775
 11
2422.221694
 21
1778.266775
  0
LINE
  8
CSLAYER1
  6
CONTINUOUS
 62
     2
 10
2428.364194
 20
1779.369275
 11
2428.364194
 21
1781.731775
  0
LINE
  8
CSLAYER1
  6
CONTINUOUS
 62
     2
 10
2421.119194
 20
1779.369275
 11
2421.119194
 21
1781.731775
  0
LINE
  8
CSLAYER1
  6
CONTINUOUS
 62
     2
 10
2418.126694
 20
1792.599275
 11
2418.126694
 21
1793.544275
  0
LINE
  8
CSLAYER1
  6
CONTINUOUS
 62
     2
 10
2425.371694
 20
1783.779275
 11
2425.371694
 21
1790.551775
  0
LINE
  8
CSLAYER1
  6
CONTINUOUS
 62
     2
 10
2424.584194
 20
1783.779275
 11
2424.584194
 21
1790.551775
  0
ARC
  8
CSLAYER1
  6
CONTINUOUS
 62
     2
 10
2427.261694
 20
1779.369275
 40
1.102500
 50
270.000000
 51
360.000000
  0
ARC
  8
CSLAYER1
  6
CONTINUOUS
 62
     2
 10
2422.221694
 20
1779.369275
 40
1.102500
 50
180.000000
 51
270.000000
  0
ARC
  8
CSLAYER1
  6
CONTINUOUS
 62
     2
 10
2422.221694
 20
1781.731775
 40
1.102500
 50
90.000000
 51
180.000000
  0
ARC
  8
CSLAYER1
  6
CONTINUOUS
 62
     2
 10
2427.261694
 20
1781.731775
 40
1.102500
 50
-0.000000
 51
90.000000
  0
ARC
  8
CSLAYER1
  6
CONTINUOUS
 62
     2
 10
2419.229194
 20
1792.599275
 40
1.102500
 50
180.000000
 51
270.000000
  0
ARC
  8
CSLAYER1
  6
CONTINUOUS
 62
     2
 10
2419.229194
 20
1793.544275
 40
1.102500
 50
90.000000
 51
180.000000
  0
ARC
  8
CSLAYER1
  6
CONTINUOUS
 62
     2
 10
2427.261694
 20
1793.544275
 40
1.102500
 50
-0.000000
 51
90.000000
  0
ARC
  8
CSLAYER1
  6
CONTINUOUS
 62
     2
 10
2427.261694
 20
1792.599275
 40
1.102500
 50
270.000000
 51
360.000000
  0
LINE
  8
CSLAYER1
  6
CONTINUOUS
 62
     2
 10
2423.639194
 20
1782.834275
 11
2422.221694
 21
1782.834275
  0
LINE
  8
CSLAYER1
  6
CONTINUOUS
 62
     2
 10
2423.639194
 20
1791.496775
 11
2419.229194
 21
1791.496775
  0
ARC
  8
CSLAYER1
  6
CONTINUOUS
 62
     2
 10
2426.316694
 20
1783.779275
 40
0.945000
 50
180.000000
 51
270.000000
  0
ARC
  8
CSLAYER1
  6
CONTINUOUS
 62
     2
 10
2423.639194
 20
1783.779275
 40
0.945000
 50
270.000000
 51
360.000000
  0
ARC
  8
CSLAYER1
  6
CONTINUOUS
 62
     2
 10
2423.639194
 20
1790.551775
 40
0.945000
 50
-0.000000
 51
90.000000
  0
ARC
  8
CSLAYER1
  6
CONTINUOUS
 62
     2
 10
2427.891694
 20
1774.171775
 40
1.260000
 50
270.000000
 51
360.000000
  0
ARC
  8
CSLAYER1
  6
CONTINUOUS
 62
     2
 10
2418.756694
 20
1774.171775
 40
1.260000
 50
180.000000
 51
270.000000
  0
ARC
  8
CSLAYER1
  6
CONTINUOUS
 62
     2
 10
2418.756694
 20
1795.276775
 40
1.260000
 50
90.000000
 51
180.000000
  0
ARC
  8
CSLAYER1
  6
CONTINUOUS
 62
     2
 10
2427.891694
 20
1795.276775
 40
1.260000
 50
-0.000000
 51
90.000000
  0
ARC
  8
CSLAYER1
  6
CONTINUOUS
 62
     2
 10
2426.316694
 20
1790.551775
 40
0.945000
 50
90.000000
 51
180.000000
  0
LINE
  8
CSLAYER1
  6
CONTINUOUS
 62
     2
 10
2428.364194
 20
1792.599275
 11
2428.364194
 21
1793.544275
  0
CIRCLE
  8
CSLAYER1
  6
CONTINUOUS
 62
     2
 10
2442.898683
 20
1735.074435
 40
2.500000
  0
CIRCLE
  8
CSLAYER1
  6
CONTINUOUS
 62
     2
 10
2442.898683
 20
1725.074435
 40
2.500000
  0
CIRCLE
  8
CSLAYER1
  6
CONTINUOUS
 62
     2
 10
2452.898683
 20
1725.074435
 40
2.500000
  0
CIRCLE
  8
CSLAYER1
  6
CONTINUOUS
 62
     2
 10
2452.898683
 20
1735.074435
 40
2.500000
  0
CIRCLE
  8
CSLAYER1
  6
CONTINUOUS
 62
     2
 10
2462.898683
 20
1735.074435
 40
2.500000
  0
CIRCLE
  8
CSLAYER1
  6
CONTINUOUS
 62
     2
 10
2462.898683
 20
1725.074435
 40
2.500000
  0
CIRCLE
  8
CSLAYER1
  6
CONTINUOUS
 62
     2
 10
2472.898683
 20
1725.074435
 40
2.500000
  0
CIRCLE
  8
CSLAYER1
  6
CONTINUOUS
 62
     2
 10
2472.898683
 20
1735.074435
 40
2.500000
  0
CIRCLE
  8
CSLAYER1
  6
CONTINUOUS
 62
     2
 10
2482.898683
 20
1735.074435
 40
2.500000
  0
CIRCLE
  8
CSLAYER1
  6
CONTINUOUS
 62
     2
 10
2482.898683
 20
1725.074435
 40
2.500000
  0
CIRCLE
  8
CSLAYER1
  6
CONTINUOUS
 62
     2
 10
2442.898683
 20
1745.074435
 40
2.500000
  0
CIRCLE
  8
CSLAYER1
  6
CONTINUOUS
 62
     2
 10
2442.898683
 20
1755.074435
 40
2.500000
  0
CIRCLE
  8
CSLAYER1
  6
CONTINUOUS
 62
     2
 10
2452.898683
 20
1755.074435
 40
2.500000
  0
CIRCLE
  8
CSLAYER1
  6
CONTINUOUS
 62
     2
 10
2452.898683
 20
1745.074435
 40
2.500000
  0
CIRCLE
  8
CSLAYER1
  6
CONTINUOUS
 62
     2
 10
2462.898683
 20
1745.074435
 40
2.500000
  0
CIRCLE
  8
CSLAYER1
  6
CONTINUOUS
 62
     2
 10
2462.898683
 20
1755.074435
 40
2.500000
  0
CIRCLE
  8
CSLAYER1
  6
CONTINUOUS
 62
     2
 10
2472.898683
 20
1755.074435
 40
2.500000
  0
CIRCLE
  8
CSLAYER1
  6
CONTINUOUS
 62
     2
 10
2472.898683
 20
1745.074435
 40
2.500000
  0
CIRCLE
  8
CSLAYER1
  6
CONTINUOUS
 62
     2
 10
2482.898683
 20
1745.074435
 40
2.500000
  0
CIRCLE
  8
CSLAYER1
  6
CONTINUOUS
 62
     2
 10
2482.898683
 20
1755.074435
 40
2.500000
  0
CIRCLE
  8
CSLAYER1
  6
CONTINUOUS
 62
     2
 10
2442.898683
 20
1835.074435
 40
2.500000
  0
CIRCLE
  8
CSLAYER1
  6
CONTINUOUS
 62
     2
 10
2442.898683
 20
1845.074435
 40
2.500000
  0
CIRCLE
  8
CSLAYER1
  6
CONTINUOUS
 62
     2
 10
2452.898683
 20
1845.074435
 40
2.500000
  0
CIRCLE
  8
CSLAYER1
  6
CONTINUOUS
 62
     2
 10
2452.898683
 20
1835.074435
 40
2.500000
  0
CIRCLE
  8
CSLAYER1
  6
CONTINUOUS
 62
     2
 10
2462.898683
 20
1835.074435
 40
2.500000
  0
CIRCLE
  8
CSLAYER1
  6
CONTINUOUS
 62
     2
 10
2462.898683
 20
1845.074435
 40
2.500000
  0
CIRCLE
  8
CSLAYER1
  6
CONTINUOUS
 62
     2
 10
2472.898683
 20
1845.074435
 40
2.500000
  0
CIRCLE
  8
CSLAYER1
  6
CONTINUOUS
 62
     2
 10
2472.898683
 20
1835.074435
 40
2.500000
  0
CIRCLE
  8
CSLAYER1
  6
CONTINUOUS
 62
     2
 10
2482.898683
 20
1835.074435
 40
2.500000
  0
CIRCLE
  8
CSLAYER1
  6
CONTINUOUS
 62
     2
 10
2482.898683
 20
1845.074435
 40
2.500000
  0
CIRCLE
  8
CSLAYER1
  6
CONTINUOUS
 62
     2
 10
2442.898683
 20
1825.074435
 40
2.500000
  0
CIRCLE
  8
CSLAYER1
  6
CONTINUOUS
 62
     2
 10
2442.898683
 20
1815.074435
 40
2.500000
  0
CIRCLE
  8
CSLAYER1
  6
CONTINUOUS
 62
     2
 10
2452.898683
 20
1815.074435
 40
2.500000
  0
CIRCLE
  8
CSLAYER1
  6
CONTINUOUS
 62
     2
 10
2452.898683
 20
1825.074435
 40
2.500000
  0
CIRCLE
  8
CSLAYER1
  6
CONTINUOUS
 62
     2
 10
2462.898683
 20
1825.074435
 40
2.500000
  0
CIRCLE
  8
CSLAYER1
  6
CONTINUOUS
 62
     2
 10
2462.898683
 20
1815.074435
 40
2.500000
  0
CIRCLE
  8
CSLAYER1
  6
CONTINUOUS
 62
     2
 10
2472.898683
 20
1815.074435
 40
2.500000
  0
CIRCLE
  8
CSLAYER1
  6
CONTINUOUS
 62
     2
 10
2472.898683
 20
1825.074435
 40
2.500000
  0
CIRCLE
  8
CSLAYER1
  6
CONTINUOUS
 62
     2
 10
2482.898683
 20
1825.074435
 40
2.500000
  0
CIRCLE
  8
CSLAYER1
  6
CONTINUOUS
 62
     2
 10
2482.898683
 20
1815.074435
 40
2.500000
  0
LINE
  8
CSLAYER1
  6
CONTINUOUS
 62
     2
 10
2416.898683
 20
1812.574435
 11
2416.898683
 21
1847.574435
  0
LINE
  8
CSLAYER1
  6
CONTINUOUS
 62
     2
 10
2432.898683
 20
1812.574435
 11
2432.898683
 21
1847.574435
  0
LINE
  8
CSLAYER1
  6
CONTINUOUS
 62
     2
 10
2418.398683
 20
1811.074435
 11
2431.398683
 21
1811.074435
  0
LINE
  8
CSLAYER1
  6
CONTINUOUS
 62
     2
 10
2417.898683
 20
1812.574435
 11
2417.898683
 21
1847.574435
  0
LINE
  8
CSLAYER1
  6
CONTINUOUS
 62
     2
 10
2431.898683
 20
1812.574435
 11
2431.898683
 21
1847.574435
  0
LINE
  8
CSLAYER1
  6
CONTINUOUS
 62
     2
 10
2418.398683
 20
1812.074435
 11
2431.398683
 21
1812.074435
  0
LINE
  8
CSLAYER1
  6
CONTINUOUS
 62
     2
 10
2418.398683
 20
1849.074435
 11
2431.398683
 21
1849.074435
  0
LINE
  8
CSLAYER1
  6
CONTINUOUS
 62
     2
 10
2418.398683
 20
1848.074435
 11
2431.398683
 21
1848.074435
  0
ARC
  8
CSLAYER1
  6
CONTINUOUS
 62
     2
 10
2418.398683
 20
1812.574435
 40
0.500000
 50
180.000000
 51
270.000000
  0
ARC
  8
CSLAYER1
  6
CONTINUOUS
 62
     2
 10
2431.398683
 20
1812.574435
 40
0.500000
 50
270.000000
 51
360.000000
  0
ARC
  8
CSLAYER1
  6
CONTINUOUS
 62
     2
 10
2418.398683
 20
1847.574435
 40
0.500000
 50
90.000000
 51
180.000000
  0
ARC
  8
CSLAYER1
  6
CONTINUOUS
 62
     2
 10
2431.398683
 20
1847.574435
 40
0.500000
 50
-0.000000
 51
90.000000
  0
ARC
  8
CSLAYER1
  6
CONTINUOUS
 62
     2
 10
2418.398683
 20
1812.574435
 40
1.500000
 50
180.000000
 51
270.000000
  0
ARC
  8
CSLAYER1
  6
CONTINUOUS
 62
     2
 10
2431.398683
 20
1812.574435
 40
1.500000
 50
270.000000
 51
360.000000
  0
ARC
  8
CSLAYER1
  6
CONTINUOUS
 62
     2
 10
2418.398683
 20
1847.574435
 40
1.500000
 50
90.000000
 51
180.000000
  0
ARC
  8
CSLAYER1
  6
CONTINUOUS
 62
     2
 10
2431.398683
 20
1847.574435
 40
1.500000
 50
-0.000000
 51
90.000000
  0
LINE
  8
CSLAYER1
  6
CONTINUOUS
 62
     2
 10
2421.898683
 20
1821.074435
 11
2421.898683
 21
1839.074435
  0
LINE
  8
CSLAYER1
  6
CONTINUOUS
 62
     2
 10
2418.820611
 20
1830.074435
 11
2421.898683
 21
1839.074435
  0
LINE
  8
CSLAYER1
  6
CONTINUOUS
 62
     2
 10
2418.820611
 20
1830.074435
 11
2421.898683
 21
1821.074435
  0
TEXT
  8
CSLAYER1
 62
     2
 10
2430.192206
 20
1821.094428
 40
7.066058
 41
1.574983
  1
UP
 50
89.999985
 51
0.000000
  7
EASYDRAW_FONT
 72
     5
 11
2430.192211
 21
1839.642631
  0
LINE
  8
CSLAYER1
  6
CONTINUOUS
 62
     2
 10
2416.898683
 20
1757.574435
 11
2416.898683
 21
1722.574435
  0
LINE
  8
CSLAYER1
  6
CONTINUOUS
 62
     2
 10
2432.898683
 20
1757.574435
 11
2432.898683
 21
1722.574435
  0
LINE
  8
CSLAYER1
  6
CONTINUOUS
 62
     2
 10
2418.398683
 20
1759.074435
 11
2431.398683
 21
1759.074435
  0
LINE
  8
CSLAYER1
  6
CONTINUOUS
 62
     2
 10
2417.898683
 20
1757.574435
 11
2417.898683
 21
1722.574435
  0
LINE
  8
CSLAYER1
  6
CONTINUOUS
 62
     2
 10
2431.898683
 20
1757.574435
 11
2431.898683
 21
1722.574435
  0
LINE
  8
CSLAYER1
  6
CONTINUOUS
 62
     2
 10
2418.398683
 20
1758.074435
 11
2431.398683
 21
1758.074435
  0
LINE
  8
CSLAYER1
  6
CONTINUOUS
 62
     2
 10
2418.398683
 20
1721.074435
 11
2431.398683
 21
1721.074435
  0
LINE
  8
CSLAYER1
  6
CONTINUOUS
 62
     2
 10
2418.398683
 20
1722.074435
 11
2431.398683
 21
1722.074435
  0
ARC
  8
CSLAYER1
  6
CONTINUOUS
 62
     2
 10
2418.398683
 20
1757.574435
 40
0.500000
 50
90.000000
 51
180.000000
  0
ARC
  8
CSLAYER1
  6
CONTINUOUS
 62
     2
 10
2431.398683
 20
1757.574435
 40
0.500000
 50
-0.000000
 51
90.000000
  0
ARC
  8
CSLAYER1
  6
CONTINUOUS
 62
     2
 10
2418.398683
 20
1722.574435
 40
0.500000
 50
180.000000
 51
270.000000
  0
ARC
  8
CSLAYER1
  6
CONTINUOUS
 62
     2
 10
2431.398683
 20
1722.574435
 40
0.500000
 50
270.000000
 51
360.000000
  0
ARC
  8
CSLAYER1
  6
CONTINUOUS
 62
     2
 10
2418.398683
 20
1757.574435
 40
1.500000
 50
90.000000
 51
180.000000
  0
ARC
  8
CSLAYER1
  6
CONTINUOUS
 62
     2
 10
2431.398683
 20
1757.574435
 40
1.500000
 50
-0.000000
 51
90.000000
  0
ARC
  8
CSLAYER1
  6
CONTINUOUS
 62
     2
 10
2418.398683
 20
1722.574435
 40
1.500000
 50
180.000000
 51
270.000000
  0
ARC
  8
CSLAYER1
  6
CONTINUOUS
 62
     2
 10
2431.398683
 20
1722.574435
 40
1.500000
 50
270.000000
 51
360.000000
  0
LINE
  8
CSLAYER1
  6
CONTINUOUS
 62
     2
 10
2427.371613
 20
1749.074435
 11
2427.371613
 21
1731.074435
  0
LINE
  8
CSLAYER1
  6
CONTINUOUS
 62
     2
 10
2430.449685
 20
1740.074435
 11
2427.371613
 21
1731.074435
  0
LINE
  8
CSLAYER1
  6
CONTINUOUS
 62
     2
 10
2430.449685
 20
1740.074435
 11
2427.371613
 21
1749.074435
  0
TEXT
  8
CSLAYER1
 62
     2
 10
2425.761364
 20
1725.376615
 40
6.383575
 41
1.255870
  1
DOWN
 50
89.999985
 51
0.000000
  7
EASYDRAW_FONT
 72
     5
 11
2425.761371
 21
1754.772065
  0
ENDBLK
  8
0
  0
ENDSEC
  0
SECTION
  2
ENTITIES
  0
LINE
  8
CSLAYER1
  6
CONTINUOUS
 62
     3
 10
118.051807
 20
2400.454119
 11
118.051807
 21
51.907189
  0
LINE
  8
CSLAYER1
  6
CONTINUOUS
 62
     3
 10
3440.625117
 20
2400.454119
 11
118.051807
 21
2400.454119
  0
LINE
  8
CSLAYER1
  6
CONTINUOUS
 62
     3
 10
3440.625117
 20
2400.454119
 11
3440.625117
 21
51.907189
  0
LINE
  8
CSLAYER1
  6
CONTINUOUS
 62
     3
 10
3440.625117
 20
51.907189
 11
118.051807
 21
51.907189
  0
LINE
  8
CSLAYER1
  6
CONTINUOUS
 62
     5
 10
68.051807
 20
1211.907189
 11
18.051807
 21
1211.907189
  0
LINE
  8
CSLAYER1
  6
CONTINUOUS
 62
     5
 10
2640.625117
 20
491.907189
 11
3440.625117
 21
491.907189
  0
LINE
  8
CSLAYER1
  6
CONTINUOUS
 62
     5
 10
2640.625117
 20
131.907189
 11
3440.625117
 21
131.907189
  0
LINE
  8
CSLAYER1
  6
CONTINUOUS
 62
     5
 10
2640.625117
 20
291.907189
 11
3440.625117
 21
291.907189
  0
LINE
  8
CSLAYER1
  6
CONTINUOUS
 62
     5
 10
2640.625117
 20
351.907189
 11
3440.625117
 21
351.907189
  0
LINE
  8
CSLAYER1
  6
CONTINUOUS
 62
     5
 10
2640.625117
 20
411.907189
 11
3440.625117
 21
411.907189
  0
LINE
  8
CSLAYER1
  6
CONTINUOUS
 62
     5
 10
2640.625117
 20
571.907189
 11
3440.625117
 21
571.907189
  0
LINE
  8
CSLAYER1
  6
CONTINUOUS
 62
     5
 10
2640.625117
 20
651.907189
 11
2640.625117
 21
51.907189
  0
LINE
  8
CSLAYER1
  6
CONTINUOUS
 62
     5
 10
2840.625117
 20
651.907189
 11
2840.625117
 21
411.907189
  0
LINE
  8
CSLAYER1
  6
CONTINUOUS
 62
     5
 10
2640.625117
 20
651.907189
 11
3440.625117
 21
651.907189
  0
LINE
  8
CSLAYER1
  6
CONTINUOUS
 62
     5
 10
3140.625117
 20
411.907189
 11
3140.625117
 21
131.907189
  0
TEXT
  8
CSLAYER1
 62
     3
 10
2860.316219
 20
60.469913
 40
59.380363
 41
1.003345
  1
東正車輌株式会社
 50
0.000000
 51
0.000000
  7
EASYDRAW_FONT
 72
     5
 11
3317.088566
 21
60.469913
  0
LINE
  8
CSLAYER1
  6
CONTINUOUS
 62
     5
 10
2890.625117
 20
351.907189
 11
2890.625117
 21
131.907189
  0
TEXT
  8
CSLAYER1
 62
     5
 10
2670.625000
 20
586.907166
 40
50.000000
 41
1.050000
  1
品　名
 50
0.000000
 51
0.000000
  7
EASYDRAW_FONT
 72
     5
 11
2810.625000
 21
586.907166
  0
TEXT
  8
CSLAYER1
 62
     5
 10
2670.625000
 20
506.907166
 40
50.000000
 41
1.050000
  1
型　式
 50
0.000000
 51
0.000000
  7
EASYDRAW_FONT
 72
     5
 11
2810.625000
 21
506.907166
  0
TEXT
  8
CSLAYER1
 62
     5
 10
2645.625000
 20
426.907196
 40
50.000000
 41
1.036364
  1
図面番号
 50
0.000000
 51
0.000000
  7
EASYDRAW_FONT
 72
     5
 11
2835.625000
 21
426.907196
  0
TEXT
  8
CSLAYER1
 62
     5
 10
2690.625000
 20
356.907196
 40
50.000000
 41
0.827586
  1
平成２８年４月１６日
 50
0.000000
 51
0.000000
  7
EASYDRAW_FONT
 72
     5
 11
3090.625000
 21
356.907196
  0
TEXT
  8
CSLAYER1
 62
     5
 10
3220.625000
 20
356.907196
 40
50.000000
 41
1.050000
  1
Ｂ－４
 50
0.000000
 51
0.000000
  7
EASYDRAW_FONT
 72
     5
 11
3360.625000
 21
356.907196
  0
TEXT
  8
CSLAYER1
 62
     5
 10
2695.625000
 20
296.907196
 40
50.000000
 41
1.050000
  1
検　図
 50
0.000000
 51
0.000000
  7
EASYDRAW_FONT
 72
     5
 11
2835.625000
 21
296.907196
  0
TEXT
  8
CSLAYER1
 62
     5
 10
2945.625000
 20
296.907196
 40
50.000000
 41
1.050000
  1
作　図
 50
0.000000
 51
0.000000
  7
EASYDRAW_FONT
 72
     5
 11
3085.625000
 21
296.907196
  0
TEXT
  8
CSLAYER1
 62
     5
 10
3220.625000
 20
296.907196
 40
50.000000
 41
1.050000
  1
尺　度
 50
0.000000
 51
0.000000
  7
EASYDRAW_FONT
 72
     5
 11
3360.625000
 21
296.907196
  0
TEXT
  8
CSLAYER1
 62
     5
 10
3321.363770
 20
146.392456
 40
50.000000
 41
1.080000
  1
１０
 50
0.000000
 51
0.000000
  7
EASYDRAW_FONT
 72
     5
 11
3411.363770
 21
146.392456
  0
TEXT
  8
CSLAYER1
 62
     5
 10
3301.044189
 20
194.097153
 40
50.000000
 41
1.200000
  1
／
 50
0.000000
 51
0.000000
  7
EASYDRAW_FONT
 72
     5
 11
3341.044189
 21
194.097153
  0
TEXT
  8
CSLAYER1
 62
     5
 10
3270.831299
 20
229.080597
 40
50.000000
 41
1.200000
  1
１
 50
0.000000
 51
0.000000
  7
EASYDRAW_FONT
 72
     5
 11
3310.831299
 21
229.080597
  0
TEXT
  8
CSLAYER1
 62
     3
 10
2980.625000
 20
586.907166
 40
50.000000
 41
0.834783
  1
ゴールドリフター
 50
0.000000
 51
0.000000
  7
EASYDRAW_FONT
 72
     5
 11
3300.625000
 21
586.907166
  0
TEXT
  8
CSLAYER1
 62
     3
 10
2880.625000
 20
506.907166
 40
50.000000
 41
0.821053
  1
ＧＬＩ－１０００－０５１０
 50
0.000000
 51
0.000000
  7
EASYDRAW_FONT
 72
     5
 11
3400.625000
 21
506.907166
  0
TEXT
  8
CSLAYER1
 62
     3
 10
3040.625000
 20
426.907196
 40
50.000000
 41
0.857143
  1
GI-31
 50
0.000000
 51
0.000000
  7
EASYDRAW_FONT
 72
     5
 11
3240.625000
 21
426.907196
  0
INSERT
  8
CSLAYER1
  2
BLKF0000
 10
0.0
 20
0.0
 30
0.0
  0
LINE
  8
CSLAYER1
  6
CONTINUOUS
 62
     5
 10
1085.711937
 20
1039.871763
 11
1112.911937
 21
1039.871763
  0
LINE
  8
CSLAYER1
  6
CONTINUOUS
 62
     5
 10
1099.311937
 20
1053.471763
 11
1099.311937
 21
1026.271763
  0
CIRCLE
  8
CSLAYER1
  6
CONTINUOUS
 62
     4
 10
1099.311937
 20
1039.871763
 40
8.000000
  0
LINE
  8
CSLAYER1
  6
CONTINUOUS
 62
     3
 10
180.661948
 20
479.612334
 11
2477.460202
 21
479.612334
  0
LINE
  8
CSLAYER1
  6
CONTINUOUS
 62
     7
 10
1057.311937
 20
544.612334
 11
1057.311937
 21
479.612334
  0
LINE
  8
CSLAYER1
  6
CONTINUOUS
 62
     7
 10
2107.311937
 20
544.612334
 11
2107.311937
 21
479.612334
  0
LINE
  8
CSLAYER1
  6
CONTINUOUS
 62
     7
 10
2107.311937
 20
544.612334
 11
1057.311937
 21
544.612334
  0
LINE
  8
CSLAYER1
  6
CONTINUOUS
 62
     7
 10
1060.511937
 20
1214.071763
 11
2104.286761
 21
1214.071763
  0
LINE
  8
CSLAYER1
  6
CONTINUOUS
 62
     7
 10
1057.311937
 20
1210.871763
 11
1057.311937
 21
1161.071763
  0
LINE
  8
CSLAYER1
  6
CONTINUOUS
 62
     7
 10
2107.311937
 20
1211.071763
 11
2107.311937
 21
1161.071763
  0
LINE
  8
CSLAYER1
  6
CONTINUOUS
 62
     7
 10
2104.111937
 20
1161.071763
 11
2104.111937
 21
1088.871763
  0
ARC
  8
CSLAYER1
  6
CONTINUOUS
 62
     7
 10
2104.311937
 20
1211.071763
 40
3.000000
 50
0.000000
 51
90.000000
  0
LINE
  8
CSLAYER1
  6
CONTINUOUS
 62
     7
 10
1057.311937
 20
1161.071763
 11
2107.311937
 21
1161.071763
  0
LINE
  8
CSLAYER1
  6
CONTINUOUS
 62
     7
 10
2089.111937
 20
1060.871763
 11
1642.111937
 21
1060.871763
  0
LINE
  8
CSLAYER1
  6
CONTINUOUS
 62
     3
 10
1069.311937
 20
1161.071763
 11
1069.311937
 21
1020.871763
  0
LINE
  8
CSLAYER1
  6
CONTINUOUS
 62
     3
 10
1119.311937
 20
1161.071763
 11
1119.311937
 21
1035.871763
  0
ARC
  8
CSLAYER1
  6
CONTINUOUS
 62
     3
 10
1104.311937
 20
1035.871763
 40
15.000000
 50
270.000000
 51
360.000000
  0
LINE
  8
CSLAYER1
  6
CONTINUOUS
 62
     3
 10
1069.311937
 20
1020.871763
 11
1104.311937
 21
1020.871763
  0
LINE
  8
CSLAYER1
  6
CONTINUOUS
 62
     7
 10
2092.111937
 20
1161.071763
 11
2092.111937
 21
1063.871763
  0
LINE
  8
CSLAYER1
  6
CONTINUOUS
 62
     2
 10
1746.481552
 20
1060.871763
 11
1624.857824
 21
987.712664
  0
POINT
  8
CSLAYER1
 62
     1
 10
1637.512533
 20
995.324724
  0
ARC
  8
CSLAYER1
  6
CONTINUOUS
 62
     1
 10
1637.512533
 20
995.324724
 40
15.050000
 50
269.197215
 51
359.061999
  0
ARC
  8
CSLAYER1
  6
CONTINUOUS
 62
     1
 10
1637.090809
 20
965.227678
 40
15.050000
 50
89.197215
 51
118.570329
  0
ARC
  8
CSLAYER1
  6
CONTINUOUS
 62
     1
 10
1637.512533
 20
995.324724
 40
13.000000
 50
83.396518
 51
338.658978
  0
ARC
  8
CSLAYER1
  6
CONTINUOUS
 62
     1
 10
1637.512533
 20
995.324724
 40
15.050000
 50
62.993497
 51
163.588605
  0
POINT
  8
CSLAYER1
 62
     1
 10
1664.719673
 20
1011.690361
  0
POINT
  8
CSLAYER1
 62
     1
 10
1691.926812
 20
1028.055998
  0
CIRCLE
  8
CSLAYER1
  6
CONTINUOUS
 62
     1
 10
1637.512533
 20
995.324724
 40
4.770000
  0
CIRCLE
  8
CSLAYER1
  6
CONTINUOUS
 62
     1
 10
1664.719673
 20
1011.690361
 40
4.770000
  0
ARC
  8
CSLAYER1
  6
CONTINUOUS
 62
     1
 10
1664.719673
 20
1011.690361
 40
13.000000
 50
-96.603482
 51
158.658978
  0
ARC
  8
CSLAYER1
  6
CONTINUOUS
 62
     1
 10
1664.719673
 20
1011.690361
 40
15.050000
 50
242.993497
 51
332.858282
  0
ARC
  8
CSLAYER1
  6
CONTINUOUS
 62
     1
 10
1691.926812
 20
1028.055998
 40
15.050000
 50
-90.802785
 51
152.858282
  0
ARC
  8
CSLAYER1
  6
CONTINUOUS
 62
     1
 10
1661.729737
 20
985.862851
 40
13.000000
 50
83.396518
 51
158.658978
  0
ARC
  8
CSLAYER1
  6
CONTINUOUS
 62
     1
 10
1640.502469
 20
1021.152234
 40
13.000000
 50
263.396518
 51
338.658978
  0
ARC
  8
CSLAYER1
  6
CONTINUOUS
 62
     1
 10
1691.505087
 20
997.958953
 40
15.050000
 50
89.197215
 51
152.858282
  0
ARC
  8
CSLAYER1
  6
CONTINUOUS
 62
     1
 10
1665.141397
 20
1041.787407
 40
15.050000
 50
269.197215
 51
332.858282
  0
CIRCLE
  8
CSLAYER1
  6
CONTINUOUS
 62
     4
 10
1637.512533
 20
995.324724
 40
9.525000
  0
CIRCLE
  8
CSLAYER1
  6
CONTINUOUS
 62
     4
 10
1664.719673
 20
1011.690361
 40
9.525000
  0
ARC
  8
CSLAYER1
  6
CONTINUOUS
 62
     1
 10
1664.719673
 20
1011.690361
 40
15.050000
 50
89.197215
 51
179.061999
  0
ARC
  8
CSLAYER1
  6
CONTINUOUS
 62
     1
 10
1691.926812
 20
1028.055998
 40
13.000000
 50
83.396518
 51
338.658978
  0
POINT
  8
CSLAYER1
 62
     5
 10
1719.133951
 20
1044.421635
  0
CIRCLE
  8
CSLAYER1
  6
CONTINUOUS
 62
     1
 10
1691.926812
 20
1028.055998
 40
4.770000
  0
ARC
  8
CSLAYER1
  6
CONTINUOUS
 62
     1
 10
1719.133951
 20
1044.421635
 40
13.000000
 50
-96.603482
 51
158.658978
  0
ARC
  8
CSLAYER1
  6
CONTINUOUS
 62
     1
 10
1716.144015
 20
1018.594125
 40
13.000000
 50
83.396518
 51
158.658978
  0
ARC
  8
CSLAYER1
  6
CONTINUOUS
 62
     1
 10
1694.916747
 20
1053.883509
 40
13.000000
 50
263.396518
 51
338.658978
  0
CIRCLE
  8
CSLAYER1
  6
CONTINUOUS
 62
     4
 10
1691.926812
 20
1028.055998
 40
9.525000
  0
LINE
  8
CSLAYER1
  6
CONTINUOUS
 62
     1
 10
1726.743468
 20
1060.871763
 11
1738.443768
 21
1041.420537
  0
LINE
  8
CSLAYER1
  6
CONTINUOUS
 62
     1
 10
1699.975443
 20
1047.171189
 11
1712.584926
 21
1026.208488
  0
POINT
  8
CSLAYER1
 62
     1
 10
1719.133951
 20
1044.421635
  0
CIRCLE
  8
CSLAYER1
  6
CONTINUOUS
 62
     1
 10
1719.133951
 20
1044.421635
 40
4.770000
  0
LINE
  8
CSLAYER1
  6
CONTINUOUS
 62
     1
 10
1699.280914
 20
1050.670948
 11
1716.239312
 21
1060.871763
  0
LINE
  8
CSLAYER1
  6
CONTINUOUS
 62
     1
 10
1726.497548
 20
1058.957270
 11
1702.842443
 21
1044.728252
  0
ARC
  8
CSLAYER1
  6
CONTINUOUS
 62
     1
 10
1720.957700
 20
1059.659159
 40
5.584136
 50
-7.220802
 51
12.541786
  0
ARC
  8
CSLAYER1
  6
CONTINUOUS
 62
     1
 10
1704.641458
 20
1035.704112
 40
31.912350
 50
15.281570
 51
46.773927
  0
LINE
  8
CSLAYER1
  6
CONTINUOUS
 62
     1
 10
1711.852981
 20
1056.525921
 11
1726.408909
 21
1032.327343
  0
ARC
  8
CSLAYER1
  6
CONTINUOUS
 62
     1
 10
1704.818455
 20
1049.951082
 40
5.584136
 50
172.593231
 51
249.276298
  0
ARC
  8
CSLAYER1
  6
CONTINUOUS
 62
     1
 10
1733.626444
 20
1053.139159
 40
31.912350
 50
195.281570
 51
226.773927
  0
LINE
  8
CSLAYER1
  6
CONTINUOUS
 62
     1
 10
1715.351152
 20
1023.954896
 11
1738.986988
 21
1038.172323
  0
LINE
  8
CSLAYER1
  6
CONTINUOUS
 62
     1
 10
1735.425459
 20
1044.115019
 11
1711.770353
 21
1029.886001
  0
ARC
  8
CSLAYER1
  6
CONTINUOUS
 62
     1
 10
1733.449446
 20
1038.892189
 40
5.584136
 50
-7.406769
 51
69.276298
  0
ARC
  8
CSLAYER1
  6
CONTINUOUS
 62
     1
 10
1717.310202
 20
1029.184112
 40
5.584136
 50
172.779198
 51
249.462265
  0
LINE
  8
CSLAYER1
  6
CONTINUOUS
 62
     1
 10
1738.413199
 20
1060.871763
 11
1745.711426
 21
1048.738786
  0
LINE
  8
CSLAYER1
  6
CONTINUOUS
 62
     1
 10
1744.938247
 20
1050.024163
 11
1762.971896
 21
1060.871763
  0
LINE
  8
CSLAYER1
  6
CONTINUOUS
 62
     1
 10
1744.938247
 20
1050.024163
 11
1743.485089
 21
1047.399600
  0
LINE
  8
CSLAYER1
  6
CONTINUOUS
 62
     1
 10
1738.856084
 20
1044.615161
 11
1765.881957
 21
1060.871763
  0
ARC
  8
CSLAYER1
  6
CONTINUOUS
 62
     1
 10
1739.886991
 20
1042.901325
 40
2.000000
 50
121.027748
 51
211.027748
  0
POINT
  8
CSLAYER1
 62
     1
 10
1731.987717
 20
1052.153432
  0
CIRCLE
  8
CSLAYER1
  6
CONTINUOUS
 62
     4
 10
1909.580029
 20
1039.871763
 40
21.000000
  0
CIRCLE
  8
CSLAYER1
  6
CONTINUOUS
 62
     4
 10
1909.580029
 20
1039.871763
 40
7.500000
  0
LINE
  8
CSLAYER1
  6
CONTINUOUS
 62
     3
 10
1057.311937
 20
1535.274435
 11
2107.311937
 21
1535.274435
  0
LINE
  8
CSLAYER1
  6
CONTINUOUS
 62
     3
 10
1057.311937
 20
1535.274435
 11
1057.311937
 21
2035.274435
  0
LINE
  8
CSLAYER1
  6
CONTINUOUS
 62
     3
 10
1057.311937
 20
2035.274435
 11
2107.313641
 21
2035.274435
  0
LINE
  8
CSLAYER1
  6
CONTINUOUS
 62
     4
 10
269.682063
 20
1214.071763
 11
763.682063
 21
1214.071763
  0
LINE
  8
CSLAYER1
  6
CONTINUOUS
 62
     4
 10
266.682063
 20
1211.071763
 11
266.682063
 21
1161.071763
  0
LINE
  8
CSLAYER1
  6
CONTINUOUS
 62
     4
 10
359.682063
 20
1110.871763
 11
359.682063
 21
1061.120372
  0
LINE
  8
CSLAYER1
  6
CONTINUOUS
 62
     4
 10
384.682063
 20
1061.120372
 11
384.682063
 21
1110.871763
  0
LINE
  8
CSLAYER1
  6
CONTINUOUS
 62
     4
 10
369.182063
 20
1110.871763
 11
369.182063
 21
1086.120372
  0
LINE
  8
CSLAYER1
  6
CONTINUOUS
 62
     4
 10
375.182063
 20
1110.871763
 11
375.182063
 21
1086.120372
  0
LINE
  8
CSLAYER1
  6
CENTER
 62
     5
 10
314.655994
 20
1039.871763
 11
718.708131
 21
1039.871763
  0
LINE
  8
CSLAYER1
  6
CONTINUOUS
 62
     4
 10
388.682063
 20
1049.871763
 11
393.682063
 21
1049.871763
  0
LINE
  8
CSLAYER1
  6
CONTINUOUS
 62
     4
 10
388.682063
 20
1029.871763
 11
393.682063
 21
1029.871763
  0
ARC
  8
CSLAYER1
  6
CONTINUOUS
 62
     4
 10
269.682063
 20
1211.071763
 40
3.000000
 50
90.000000
 51
180.000000
  0
LINE
  8
CSLAYER1
  6
CENTER
 62
     5
 10
385.700367
 20
1088.929197
 11
646.271547
 21
1088.929197
  0
LINE
  8
CSLAYER1
  6
CONTINUOUS
 62
     4
 10
486.432063
 20
1058.679197
 11
462.182063
 21
1058.679197
  0
LINE
  8
CSLAYER1
  6
CONTINUOUS
 62
     4
 10
415.682063
 20
1066.929197
 11
460.182063
 21
1066.929197
  0
LINE
  8
CSLAYER1
  6
CONTINUOUS
 62
     4
 10
460.182063
 20
1060.679197
 11
460.182063
 21
1110.871763
  0
LINE
  8
CSLAYER1
  6
CONTINUOUS
 62
     4
 10
460.182063
 20
1060.679197
 11
462.182063
 21
1058.679197
  0
LINE
  8
CSLAYER1
  6
CONTINUOUS
 62
     4
 10
415.682063
 20
1066.929197
 11
410.682063
 21
1071.929197
  0
LINE
  8
CSLAYER1
  6
CONTINUOUS
 62
     4
 10
415.682063
 20
1066.929197
 11
415.682063
 21
1110.871763
  0
LINE
  8
CSLAYER1
  6
CONTINUOUS
 62
     4
 10
433.182063
 20
1026.346507
 11
433.182063
 21
1066.929197
  0
LINE
  8
CSLAYER1
  6
CONTINUOUS
 62
     4
 10
431.682063
 20
1018.346507
 11
431.682063
 21
1066.929197
  0
LINE
  8
CSLAYER1
  6
CONTINUOUS
 62
     4
 10
450.182063
 20
1026.346507
 11
450.182063
 21
1066.929197
  0
LINE
  8
CSLAYER1
  6
CONTINUOUS
 62
     4
 10
451.682063
 20
1018.346507
 11
451.682063
 21
1066.929197
  0
POINT
  8
CSLAYER1
 62
     4
 10
441.682063
 20
1001.346505
  0
LINE
  8
CSLAYER1
  6
CONTINUOUS
 62
     5
 10
427.556686
 20
1001.346507
 11
455.795776
 21
1001.346507
  0
LINE
  8
CSLAYER1
  6
CONTINUOUS
 62
     4
 10
431.682063
 20
1026.346507
 11
451.682063
 21
1026.346507
  0
LINE
  8
CSLAYER1
  6
CONTINUOUS
 62
     4
 10
433.182063
 20
1026.346507
 11
431.682063
 21
1023.748431
  0
LINE
  8
CSLAYER1
  6
CONTINUOUS
 62
     4
 10
450.182063
 20
1026.346507
 11
451.682063
 21
1023.748431
  0
LINE
  8
CSLAYER1
  6
CONTINUOUS
 62
     4
 10
454.207063
 20
1016.346505
 11
429.157063
 21
1016.346505
  0
POINT
  8
CSLAYER1
 62
     4
 10
441.682063
 20
969.596505
  0
LINE
  8
CSLAYER1
  6
CONTINUOUS
 62
     4
 10
428.157063
 20
1015.346505
 11
428.157063
 21
922.796505
  0
LINE
  8
CSLAYER1
  6
CONTINUOUS
 62
     4
 10
432.157063
 20
984.646505
 11
432.157063
 21
922.796505
  0
LINE
  8
CSLAYER1
  6
CONTINUOUS
 62
     4
 10
432.157063
 20
984.646505
 11
428.157063
 21
984.646505
  0
LINE
  8
CSLAYER1
  6
CONTINUOUS
 62
     4
 10
433.157063
 20
960.071505
 11
450.207063
 21
960.071505
  0
LINE
  8
CSLAYER1
  6
CONTINUOUS
 62
     4
 10
433.157063
 20
979.121505
 11
450.207063
 21
979.121505
  0
ARC
  8
CSLAYER1
  6
CONTINUOUS
 62
     4
 10
433.157063
 20
961.071505
 40
1.000000
 50
180.000000
 51
270.000000
  0
ARC
  8
CSLAYER1
  6
CONTINUOUS
 62
     4
 10
433.157063
 20
978.121505
 40
1.000000
 50
90.000000
 51
180.000000
  0
LINE
  8
CSLAYER1
  6
CONTINUOUS
 62
     4
 10
455.207063
 20
1015.346505
 11
455.207063
 21
922.096505
  0
LINE
  8
CSLAYER1
  6
CONTINUOUS
 62
     4
 10
451.207063
 20
984.646505
 11
451.207063
 21
922.796505
  0
LINE
  8
CSLAYER1
  6
CONTINUOUS
 62
     4
 10
451.207063
 20
984.646505
 11
455.207063
 21
984.646505
  0
ARC
  8
CSLAYER1
  6
CONTINUOUS
 62
     4
 10
450.207063
 20
961.071505
 40
1.000000
 50
270.000000
 51
360.000000
  0
ARC
  8
CSLAYER1
  6
CONTINUOUS
 62
     4
 10
450.207063
 20
978.121505
 40
1.000000
 50
0.000000
 51
90.000000
  0
LINE
  8
CSLAYER1
  6
CONTINUOUS
 62
     4
 10
421.932063
 20
965.826505
 11
421.932063
 21
973.376232
  0
LINE
  8
CSLAYER1
  6
CONTINUOUS
 62
     4
 10
428.157063
 20
956.596505
 11
423.782063
 21
956.596505
  0
LINE
  8
CSLAYER1
  6
CONTINUOUS
 62
     4
 10
428.157063
 20
1014.346505
 11
423.782063
 21
1014.346505
  0
LINE
  8
CSLAYER1
  6
CONTINUOUS
 62
     4
 10
423.782063
 20
964.826505
 11
422.932063
 21
964.826505
  0
LINE
  8
CSLAYER1
  6
CONTINUOUS
 62
     4
 10
423.782063
 20
974.376232
 11
422.932063
 21
974.376232
  0
ARC
  8
CSLAYER1
  6
CONTINUOUS
 62
     4
 10
422.932063
 20
965.826505
 40
1.000000
 50
180.000000
 51
270.000000
  0
ARC
  8
CSLAYER1
  6
CONTINUOUS
 62
     4
 10
422.932063
 20
973.376232
 40
1.000000
 50
90.000000
 51
180.000000
  0
LINE
  8
CSLAYER1
  6
CONTINUOUS
 62
     4
 10
421.932063
 20
997.576505
 11
421.932063
 21
1005.126232
  0
LINE
  8
CSLAYER1
  6
CONTINUOUS
 62
     4
 10
423.782063
 20
996.576505
 11
422.932063
 21
996.576505
  0
LINE
  8
CSLAYER1
  6
CONTINUOUS
 62
     4
 10
423.782063
 20
1006.126232
 11
422.932063
 21
1006.126232
  0
ARC
  8
CSLAYER1
  6
CONTINUOUS
 62
     4
 10
422.932063
 20
997.576505
 40
1.000000
 50
180.000000
 51
270.000000
  0
ARC
  8
CSLAYER1
  6
CONTINUOUS
 62
     4
 10
422.932063
 20
1005.126232
 40
1.000000
 50
90.000000
 51
180.000000
  0
LINE
  8
CSLAYER1
  6
CONTINUOUS
 62
     4
 10
461.432063
 20
965.826505
 11
461.432063
 21
973.376232
  0
LINE
  8
CSLAYER1
  6
CONTINUOUS
 62
     4
 10
455.207063
 20
956.596505
 11
459.582063
 21
956.596505
  0
LINE
  8
CSLAYER1
  6
CONTINUOUS
 62
     4
 10
455.207063
 20
1014.346505
 11
459.582063
 21
1014.346505
  0
LINE
  8
CSLAYER1
  6
CONTINUOUS
 62
     4
 10
459.582063
 20
964.826505
 11
460.432063
 21
964.826505
  0
LINE
  8
CSLAYER1
  6
CONTINUOUS
 62
     4
 10
459.582063
 20
974.376232
 11
460.432063
 21
974.376232
  0
ARC
  8
CSLAYER1
  6
CONTINUOUS
 62
     4
 10
460.432063
 20
965.826505
 40
1.000000
 50
270.000000
 51
360.000000
  0
ARC
  8
CSLAYER1
  6
CONTINUOUS
 62
     4
 10
460.432063
 20
973.376232
 40
1.000000
 50
0.000000
 51
90.000000
  0
LINE
  8
CSLAYER1
  6
CONTINUOUS
 62
     4
 10
464.532063
 20
997.576505
 11
464.532063
 21
1005.126232
  0
LINE
  8
CSLAYER1
  6
CONTINUOUS
 62
     4
 10
459.582063
 20
996.576505
 11
463.532063
 21
996.576505
  0
LINE
  8
CSLAYER1
  6
CONTINUOUS
 62
     4
 10
459.582063
 20
1006.126232
 11
463.532063
 21
1006.126232
  0
ARC
  8
CSLAYER1
  6
CONTINUOUS
 62
     4
 10
463.532063
 20
997.576505
 40
1.000000
 50
270.000000
 51
360.000000
  0
ARC
  8
CSLAYER1
  6
CONTINUOUS
 62
     4
 10
463.532063
 20
1005.126232
 40
1.000000
 50
0.000000
 51
90.000000
  0
LINE
  8
CSLAYER1
  6
CONTINUOUS
 62
     4
 10
455.207063
 20
1006.126232
 11
428.157063
 21
1006.126232
  0
LINE
  8
CSLAYER1
  6
CONTINUOUS
 62
     4
 10
455.207063
 20
996.576505
 11
428.157063
 21
996.576505
  0
LINE
  8
CSLAYER1
  6
CONTINUOUS
 62
     4
 10
453.207063
 20
986.346505
 11
430.157063
 21
986.346505
  0
ARC
  8
CSLAYER1
  6
CONTINUOUS
 62
     4
 10
430.157063
 20
988.346505
 40
2.000000
 50
180.000000
 51
270.000000
  0
ARC
  8
CSLAYER1
  6
CONTINUOUS
 62
     4
 10
453.207063
 20
988.346505
 40
2.000000
 50
270.000000
 51
360.000000
  0
ARC
  8
CSLAYER1
  6
CONTINUOUS
 62
     4
 10
453.682063
 20
1018.346505
 40
2.000000
 50
180.000000
 51
270.000000
  0
ARC
  8
CSLAYER1
  6
CONTINUOUS
 62
     4
 10
429.682063
 20
1018.346505
 40
2.000000
 50
270.000000
 51
360.000000
  0
ARC
  8
CSLAYER1
  6
CONTINUOUS
 62
     4
 10
454.207063
 20
1015.346505
 40
1.000000
 50
0.000000
 51
90.000000
  0
ARC
  8
CSLAYER1
  6
CONTINUOUS
 62
     4
 10
429.157063
 20
1015.346505
 40
1.000000
 50
90.000000
 51
180.000000
  0
POINT
  8
CSLAYER1
 62
     4
 10
441.682063
 20
1016.346505
  0
LINE
  8
CSLAYER1
  6
CONTINUOUS
 62
     4
 10
423.782063
 20
956.596505
 11
423.782063
 21
1014.346505
  0
LINE
  8
CSLAYER1
  6
CONTINUOUS
 62
     4
 10
459.582063
 20
956.596505
 11
459.582063
 21
1014.346505
  0
POINT
  8
CSLAYER1
 62
     4
 10
441.682063
 20
937.846505
  0
LINE
  8
CSLAYER1
  6
CONTINUOUS
 62
     4
 10
432.157063
 20
922.796505
 11
428.157063
 21
922.796505
  0
LINE
  8
CSLAYER1
  6
CONTINUOUS
 62
     4
 10
433.157063
 20
947.371505
 11
450.207063
 21
947.371505
  0
LINE
  8
CSLAYER1
  6
CONTINUOUS
 62
     4
 10
433.157063
 20
928.321505
 11
450.207063
 21
928.321505
  0
ARC
  8
CSLAYER1
  6
CONTINUOUS
 62
     4
 10
433.157063
 20
946.371505
 40
1.000000
 50
90.000000
 51
180.000000
  0
ARC
  8
CSLAYER1
  6
CONTINUOUS
 62
     4
 10
433.157063
 20
929.321505
 40
1.000000
 50
180.000000
 51
270.000000
  0
LINE
  8
CSLAYER1
  6
CONTINUOUS
 62
     4
 10
451.207063
 20
922.796505
 11
455.207063
 21
922.796505
  0
ARC
  8
CSLAYER1
  6
CONTINUOUS
 62
     4
 10
450.207063
 20
946.371505
 40
1.000000
 50
0.000000
 51
90.000000
  0
ARC
  8
CSLAYER1
  6
CONTINUOUS
 62
     4
 10
450.207063
 20
929.321505
 40
1.000000
 50
270.000000
 51
360.000000
  0
LINE
  8
CSLAYER1
  6
CONTINUOUS
 62
     4
 10
421.932063
 20
941.616505
 11
421.932063
 21
934.066779
  0
LINE
  8
CSLAYER1
  6
CONTINUOUS
 62
     4
 10
428.157063
 20
950.846505
 11
423.782063
 21
950.846505
  0
LINE
  8
CSLAYER1
  6
CONTINUOUS
 62
     4
 10
423.782063
 20
942.616505
 11
422.932063
 21
942.616505
  0
LINE
  8
CSLAYER1
  6
CONTINUOUS
 62
     4
 10
423.782063
 20
933.066779
 11
422.932063
 21
933.066779
  0
ARC
  8
CSLAYER1
  6
CONTINUOUS
 62
     4
 10
422.932063
 20
941.616505
 40
1.000000
 50
90.000000
 51
180.000000
  0
ARC
  8
CSLAYER1
  6
CONTINUOUS
 62
     4
 10
422.932063
 20
934.066779
 40
1.000000
 50
180.000000
 51
270.000000
  0
LINE
  8
CSLAYER1
  6
CONTINUOUS
 62
     4
 10
461.432063
 20
941.616505
 11
461.432063
 21
934.066779
  0
LINE
  8
CSLAYER1
  6
CONTINUOUS
 62
     4
 10
455.207063
 20
950.846505
 11
459.582063
 21
950.846505
  0
LINE
  8
CSLAYER1
  6
CONTINUOUS
 62
     4
 10
459.582063
 20
942.616505
 11
460.432063
 21
942.616505
  0
LINE
  8
CSLAYER1
  6
CONTINUOUS
 62
     4
 10
459.582063
 20
933.066779
 11
460.432063
 21
933.066779
  0
ARC
  8
CSLAYER1
  6
CONTINUOUS
 62
     4
 10
460.432063
 20
941.616505
 40
1.000000
 50
0.000000
 51
90.000000
  0
ARC
  8
CSLAYER1
  6
CONTINUOUS
 62
     4
 10
460.432063
 20
934.066779
 40
1.000000
 50
270.000000
 51
360.000000
  0
LINE
  8
CSLAYER1
  6
CONTINUOUS
 62
     4
 10
459.582063
 20
950.846505
 11
459.582063
 21
866.511276
  0
LINE
  8
CSLAYER1
  6
CONTINUOUS
 62
     4
 10
423.782063
 20
950.846505
 11
423.782063
 21
866.511276
  0
LINE
  8
CSLAYER1
  6
CONTINUOUS
 62
     4
 10
486.432063
 20
1058.679197
 11
486.432063
 21
952.659578
  0
LINE
  8
CSLAYER1
  6
CONTINUOUS
 62
     4
 10
462.182063
 20
1058.679197
 11
462.182063
 21
1110.871763
  0
LINE
  8
CSLAYER1
  6
CONTINUOUS
 62
     4
 10
516.682063
 20
1075.154528
 11
514.045601
 21
1075.091834
  0
LINE
  8
CSLAYER1
  6
CONTINUOUS
 62
     4
 10
514.045601
 20
1075.091834
 11
511.429205
 21
1074.904231
  0
LINE
  8
CSLAYER1
  6
CONTINUOUS
 62
     4
 10
511.429205
 20
1074.904231
 11
508.852787
 21
1074.593145
  0
LINE
  8
CSLAYER1
  6
CONTINUOUS
 62
     4
 10
508.852787
 20
1074.593145
 11
506.335953
 21
1074.160944
  0
LINE
  8
CSLAYER1
  6
CONTINUOUS
 62
     4
 10
506.335953
 20
1074.160944
 11
503.897860
 21
1073.610918
  0
LINE
  8
CSLAYER1
  6
CONTINUOUS
 62
     4
 10
503.897860
 20
1073.610918
 11
501.557063
 21
1072.947252
  0
LINE
  8
CSLAYER1
  6
CONTINUOUS
 62
     4
 10
501.557063
 20
1072.947252
 11
499.331375
 21
1072.174998
  0
LINE
  8
CSLAYER1
  6
CONTINUOUS
 62
     4
 10
499.331375
 20
1072.174998
 11
497.237737
 21
1071.300033
  0
LINE
  8
CSLAYER1
  6
CONTINUOUS
 62
     4
 10
497.237737
 20
1071.300033
 11
495.292082
 21
1070.329015
  0
LINE
  8
CSLAYER1
  6
CONTINUOUS
 62
     4
 10
495.292082
 20
1070.329015
 11
493.509218
 21
1069.269336
  0
LINE
  8
CSLAYER1
  6
CONTINUOUS
 62
     4
 10
493.509218
 20
1069.269336
 11
491.902713
 21
1068.129059
  0
LINE
  8
CSLAYER1
  6
CONTINUOUS
 62
     4
 10
491.902713
 20
1068.129059
 11
490.484794
 21
1066.916863
  0
LINE
  8
CSLAYER1
  6
CONTINUOUS
 62
     4
 10
490.484794
 20
1066.916863
 11
489.266252
 21
1065.641973
  0
LINE
  8
CSLAYER1
  6
CONTINUOUS
 62
     4
 10
489.266252
 20
1065.641973
 11
488.256361
 21
1064.314092
  0
LINE
  8
CSLAYER1
  6
CONTINUOUS
 62
     4
 10
488.256361
 20
1064.314092
 11
487.462806
 21
1062.943327
  0
LINE
  8
CSLAYER1
  6
CONTINUOUS
 62
     4
 10
487.462806
 20
1062.943327
 11
486.891628
 21
1061.540108
  0
LINE
  8
CSLAYER1
  6
CONTINUOUS
 62
     4
 10
486.891628
 20
1061.540108
 11
486.547173
 21
1060.115117
  0
LINE
  8
CSLAYER1
  6
CONTINUOUS
 62
     4
 10
486.547173
 20
1060.115117
 11
486.432063
 21
1058.679197
  0
LINE
  8
CSLAYER1
  6
CONTINUOUS
 62
     4
 10
516.682063
 20
958.677406
 11
512.799274
 21
958.585075
  0
LINE
  8
CSLAYER1
  6
CONTINUOUS
 62
     4
 10
512.799274
 20
958.585075
 11
508.946036
 21
958.308786
  0
LINE
  8
CSLAYER1
  6
CONTINUOUS
 62
     4
 10
508.946036
 20
958.308786
 11
505.151674
 21
957.850642
  0
LINE
  8
CSLAYER1
  6
CONTINUOUS
 62
     4
 10
505.151674
 20
957.850642
 11
501.445065
 21
957.214128
  0
LINE
  8
CSLAYER1
  6
CONTINUOUS
 62
     4
 10
501.445065
 20
957.214128
 11
497.854419
 21
956.404089
  0
LINE
  8
CSLAYER1
  6
CONTINUOUS
 62
     4
 10
497.854419
 20
956.404089
 11
494.407063
 21
955.426691
  0
LINE
  8
CSLAYER1
  6
CONTINUOUS
 62
     4
 10
494.407063
 20
955.426691
 11
491.129232
 21
954.289371
  0
LINE
  8
CSLAYER1
  6
CONTINUOUS
 62
     4
 10
491.129232
 20
954.289371
 11
488.045875
 21
953.000786
  0
LINE
  8
CSLAYER1
  6
CONTINUOUS
 62
     4
 10
488.045875
 20
953.000786
 11
485.180456
 21
951.570742
  0
LINE
  8
CSLAYER1
  6
CONTINUOUS
 62
     4
 10
485.180456
 20
951.570742
 11
482.554783
 21
950.010123
  0
LINE
  8
CSLAYER1
  6
CONTINUOUS
 62
     4
 10
482.554783
 20
950.010123
 11
480.188839
 21
948.330806
  0
LINE
  8
CSLAYER1
  6
CONTINUOUS
 62
     4
 10
480.188839
 20
948.330806
 11
478.100631
 21
946.545572
  0
LINE
  8
CSLAYER1
  6
CONTINUOUS
 62
     4
 10
478.100631
 20
946.545572
 11
476.306051
 21
944.668007
  0
LINE
  8
CSLAYER1
  6
CONTINUOUS
 62
     4
 10
476.306051
 20
944.668007
 11
474.818756
 21
942.712401
  0
LINE
  8
CSLAYER1
  6
CONTINUOUS
 62
     4
 10
474.818756
 20
942.712401
 11
473.650067
 21
940.693637
  0
LINE
  8
CSLAYER1
  6
CONTINUOUS
 62
     4
 10
473.650067
 20
940.693637
 11
472.808877
 21
938.627079
  0
LINE
  8
CSLAYER1
  6
CONTINUOUS
 62
     4
 10
472.808877
 20
938.627079
 11
472.301589
 21
936.528455
  0
LINE
  8
CSLAYER1
  6
CONTINUOUS
 62
     4
 10
472.301589
 20
936.528455
 11
472.132063
 21
934.413737
  0
LINE
  8
CSLAYER1
  6
CONTINUOUS
 62
     4
 10
410.682063
 20
1059.029197
 11
410.682063
 21
1110.871763
  0
ARC
  8
CSLAYER1
  6
CONTINUOUS
 62
     4
 10
409.582063
 20
1059.029197
 40
1.100000
 50
270.000000
 51
360.000000
  0
LINE
  8
CSLAYER1
  6
CONTINUOUS
 62
     4
 10
605.207063
 20
804.462151
 11
605.207063
 21
811.241276
  0
LINE
  8
CSLAYER1
  6
CONTINUOUS
 62
     4
 10
609.582063
 20
800.918558
 11
609.582063
 21
811.241276
  0
LINE
  8
CSLAYER1
  6
CONTINUOUS
 62
     4
 10
611.432063
 20
812.241276
 11
611.432063
 21
819.791003
  0
LINE
  8
CSLAYER1
  6
CONTINUOUS
 62
     4
 10
596.837404
 20
811.241276
 11
610.432063
 21
811.241276
  0
ARC
  8
CSLAYER1
  6
CONTINUOUS
 62
     4
 10
610.432063
 20
812.241276
 40
1.000000
 50
270.000000
 51
360.000000
  0
ARC
  8
CSLAYER1
  6
CONTINUOUS
 62
     4
 10
610.432063
 20
819.791003
 40
1.000000
 50
0.000000
 51
90.000000
  0
LINE
  8
CSLAYER1
  6
CONTINUOUS
 62
     4
 10
603.294479
 20
806.011276
 11
604.207063
 21
806.011276
  0
LINE
  8
CSLAYER1
  6
CONTINUOUS
 62
     4
 10
604.207063
 20
806.011276
 11
605.207063
 21
807.011276
  0
LINE
  8
CSLAYER1
  6
CONTINUOUS
 62
     4
 10
579.157063
 20
826.011276
 11
604.207063
 21
826.011276
  0
LINE
  8
CSLAYER1
  6
CONTINUOUS
 62
     4
 10
578.157063
 20
825.011276
 11
579.157063
 21
826.011276
  0
LINE
  8
CSLAYER1
  6
CONTINUOUS
 62
     4
 10
604.207063
 20
826.011276
 11
605.207063
 21
825.011276
  0
LINE
  8
CSLAYER1
  6
CONTINUOUS
 62
     5
 10
619.165344
 20
847.761276
 11
574.629432
 21
847.761276
  0
LINE
  8
CSLAYER1
  6
CONTINUOUS
 62
     4
 10
578.157063
 20
860.761276
 11
573.782063
 21
860.761276
  0
LINE
  8
CSLAYER1
  6
CONTINUOUS
 62
     4
 10
571.932063
 20
843.991276
 11
571.932063
 21
851.541003
  0
LINE
  8
CSLAYER1
  6
CONTINUOUS
 62
     4
 10
573.782063
 20
842.991276
 11
572.932063
 21
842.991276
  0
LINE
  8
CSLAYER1
  6
CONTINUOUS
 62
     4
 10
573.782063
 20
852.541003
 11
572.932063
 21
852.541003
  0
ARC
  8
CSLAYER1
  6
CONTINUOUS
 62
     4
 10
572.932063
 20
843.991276
 40
1.000000
 50
180.000000
 51
270.000000
  0
ARC
  8
CSLAYER1
  6
CONTINUOUS
 62
     4
 10
572.932063
 20
851.541003
 40
1.000000
 50
90.000000
 51
180.000000
  0
LINE
  8
CSLAYER1
  6
CONTINUOUS
 62
     4
 10
605.207063
 20
860.761276
 11
609.582063
 21
860.761276
  0
LINE
  8
CSLAYER1
  6
CONTINUOUS
 62
     4
 10
585.059107
 20
820.781276
 11
610.432063
 21
820.781276
  0
LINE
  8
CSLAYER1
  6
CONTINUOUS
 62
     4
 10
611.432063
 20
843.991276
 11
611.432063
 21
851.541003
  0
LINE
  8
CSLAYER1
  6
CONTINUOUS
 62
     4
 10
609.582063
 20
842.991276
 11
610.432063
 21
842.991276
  0
LINE
  8
CSLAYER1
  6
CONTINUOUS
 62
     4
 10
609.582063
 20
852.541003
 11
610.432063
 21
852.541003
  0
ARC
  8
CSLAYER1
  6
CONTINUOUS
 62
     4
 10
610.432063
 20
843.991276
 40
1.000000
 50
270.000000
 51
360.000000
  0
ARC
  8
CSLAYER1
  6
CONTINUOUS
 62
     4
 10
610.432063
 20
851.541003
 40
1.000000
 50
0.000000
 51
90.000000
  0
POINT
  8
CSLAYER1
 62
     4
 10
591.682063
 20
847.761276
  0
LINE
  8
CSLAYER1
  6
CONTINUOUS
 62
     5
 10
618.319725
 20
816.011276
 11
590.948256
 21
816.011276
  0
LINE
  8
CSLAYER1
  6
CONTINUOUS
 62
     4
 10
609.582063
 20
820.791003
 11
609.582063
 21
860.761276
  0
LINE
  8
CSLAYER1
  6
CONTINUOUS
 62
     4
 10
578.157063
 20
822.658146
 11
578.157063
 21
898.261276
  0
LINE
  8
CSLAYER1
  6
CONTINUOUS
 62
     4
 10
573.782063
 20
822.706598
 11
573.782063
 21
860.761276
  0
LINE
  8
CSLAYER1
  6
CONTINUOUS
 62
     4
 10
599.682063
 20
838.236276
 11
599.682063
 21
826.011276
  0
LINE
  8
CSLAYER1
  6
CONTINUOUS
 62
     4
 10
583.682063
 20
838.236276
 11
583.682063
 21
826.011276
  0
POINT
  8
CSLAYER1
 62
     4
 10
591.682063
 20
879.511276
  0
LINE
  8
CSLAYER1
  6
CONTINUOUS
 62
     4
 10
605.207063
 20
820.781276
 11
605.207063
 21
898.261276
  0
LINE
  8
CSLAYER1
  6
CONTINUOUS
 62
     4
 10
601.207063
 20
894.561276
 11
601.207063
 21
832.711276
  0
LINE
  8
CSLAYER1
  6
CONTINUOUS
 62
     4
 10
601.207063
 20
894.561276
 11
605.207063
 21
894.561276
  0
LINE
  8
CSLAYER1
  6
CONTINUOUS
 62
     4
 10
600.207063
 20
869.986276
 11
583.157063
 21
869.986276
  0
LINE
  8
CSLAYER1
  6
CONTINUOUS
 62
     4
 10
600.207063
 20
889.036276
 11
583.157063
 21
889.036276
  0
ARC
  8
CSLAYER1
  6
CONTINUOUS
 62
     4
 10
600.207063
 20
870.986276
 40
1.000000
 50
270.000000
 51
360.000000
  0
ARC
  8
CSLAYER1
  6
CONTINUOUS
 62
     4
 10
600.207063
 20
888.036276
 40
1.000000
 50
0.000000
 51
90.000000
  0
LINE
  8
CSLAYER1
  6
CONTINUOUS
 62
     4
 10
582.157063
 20
894.561276
 11
582.157063
 21
832.711276
  0
LINE
  8
CSLAYER1
  6
CONTINUOUS
 62
     4
 10
582.157063
 20
894.561276
 11
578.157063
 21
894.561276
  0
ARC
  8
CSLAYER1
  6
CONTINUOUS
 62
     4
 10
583.157063
 20
870.986276
 40
1.000000
 50
180.000000
 51
270.000000
  0
ARC
  8
CSLAYER1
  6
CONTINUOUS
 62
     4
 10
583.157063
 20
888.036276
 40
1.000000
 50
90.000000
 51
180.000000
  0
LINE
  8
CSLAYER1
  6
CONTINUOUS
 62
     4
 10
611.432063
 20
875.741276
 11
611.432063
 21
883.291003
  0
LINE
  8
CSLAYER1
  6
CONTINUOUS
 62
     4
 10
605.207063
 20
866.511276
 11
609.582063
 21
866.511276
  0
LINE
  8
CSLAYER1
  6
CONTINUOUS
 62
     4
 10
609.582063
 20
874.741276
 11
610.432063
 21
874.741276
  0
LINE
  8
CSLAYER1
  6
CONTINUOUS
 62
     4
 10
609.582063
 20
884.291003
 11
610.432063
 21
884.291003
  0
ARC
  8
CSLAYER1
  6
CONTINUOUS
 62
     4
 10
610.432063
 20
875.741276
 40
1.000000
 50
270.000000
 51
360.000000
  0
ARC
  8
CSLAYER1
  6
CONTINUOUS
 62
     4
 10
610.432063
 20
883.291003
 40
1.000000
 50
0.000000
 51
90.000000
  0
LINE
  8
CSLAYER1
  6
CONTINUOUS
 62
     4
 10
571.932063
 20
875.741276
 11
571.932063
 21
883.291003
  0
LINE
  8
CSLAYER1
  6
CONTINUOUS
 62
     4
 10
578.157063
 20
866.511276
 11
573.782063
 21
866.511276
  0
LINE
  8
CSLAYER1
  6
CONTINUOUS
 62
     4
 10
573.782063
 20
874.741276
 11
572.932063
 21
874.741276
  0
LINE
  8
CSLAYER1
  6
CONTINUOUS
 62
     4
 10
573.782063
 20
884.291003
 11
572.932063
 21
884.291003
  0
ARC
  8
CSLAYER1
  6
CONTINUOUS
 62
     4
 10
572.932063
 20
875.741276
 40
1.000000
 50
180.000000
 51
270.000000
  0
ARC
  8
CSLAYER1
  6
CONTINUOUS
 62
     4
 10
572.932063
 20
883.291003
 40
1.000000
 50
90.000000
 51
180.000000
  0
LINE
  8
CSLAYER1
  6
CONTINUOUS
 62
     4
 10
609.582063
 20
866.511276
 11
609.582063
 21
950.846505
  0
LINE
  8
CSLAYER1
  6
CONTINUOUS
 62
     4
 10
573.782063
 20
866.511276
 11
573.782063
 21
950.846505
  0
LINE
  8
CSLAYER1
  6
CONTINUOUS
 62
     4
 10
601.207063
 20
832.711276
 11
605.207063
 21
832.711276
  0
LINE
  8
CSLAYER1
  6
CONTINUOUS
 62
     4
 10
600.207063
 20
857.286276
 11
583.157063
 21
857.286276
  0
LINE
  8
CSLAYER1
  6
CONTINUOUS
 62
     4
 10
600.207063
 20
838.236276
 11
583.157063
 21
838.236276
  0
ARC
  8
CSLAYER1
  6
CONTINUOUS
 62
     4
 10
600.207063
 20
856.286276
 40
1.000000
 50
0.000000
 51
90.000000
  0
ARC
  8
CSLAYER1
  6
CONTINUOUS
 62
     4
 10
600.207063
 20
839.236276
 40
1.000000
 50
270.000000
 51
360.000000
  0
LINE
  8
CSLAYER1
  6
CONTINUOUS
 62
     4
 10
582.157063
 20
832.711276
 11
578.157063
 21
832.711276
  0
ARC
  8
CSLAYER1
  6
CONTINUOUS
 62
     4
 10
583.157063
 20
856.286276
 40
1.000000
 50
90.000000
 51
180.000000
  0
ARC
  8
CSLAYER1
  6
CONTINUOUS
 62
     4
 10
583.157063
 20
839.236276
 40
1.000000
 50
180.000000
 51
270.000000
  0
LINE
  8
CSLAYER1
  6
CONTINUOUS
 62
     4
 10
599.682063
 20
833.011276
 11
583.682063
 21
833.011276
  0
LINE
  8
CSLAYER1
  6
CONTINUOUS
 62
     4
 10
352.708603
 20
751.892049
 11
381.682063
 21
751.892049
  0
LINE
  8
CSLAYER1
  6
CONTINUOUS
 62
     4
 10
351.708603
 20
793.592049
 11
351.708603
 21
752.892049
  0
LINE
  8
CSLAYER1
  6
CONTINUOUS
 62
     4
 10
351.708603
 20
752.892049
 11
352.708603
 21
751.892049
  0
LINE
  8
CSLAYER1
  6
CONTINUOUS
 62
     4
 10
311.708603
 20
783.242049
 11
311.708603
 21
763.242049
  0
LINE
  8
CSLAYER1
  6
CONTINUOUS
 62
     4
 10
330.708603
 20
791.742049
 11
330.708603
 21
754.742049
  0
LINE
  8
CSLAYER1
  6
CONTINUOUS
 62
     4
 10
325.608603
 20
790.242049
 11
325.608603
 21
756.242049
  0
LINE
  8
CSLAYER1
  6
CONTINUOUS
 62
     4
 10
313.608603
 20
790.242049
 11
313.608603
 21
756.242049
  0
LINE
  8
CSLAYER1
  6
CONTINUOUS
 62
     4
 10
330.708603
 20
790.242049
 11
313.608603
 21
790.242049
  0
LINE
  8
CSLAYER1
  6
CONTINUOUS
 62
     4
 10
325.608603
 20
783.242049
 11
311.708603
 21
783.242049
  0
LINE
  8
CSLAYER1
  6
CONTINUOUS
 62
     4
 10
330.708603
 20
756.242049
 11
313.608603
 21
756.242049
  0
LINE
  8
CSLAYER1
  6
CONTINUOUS
 62
     4
 10
325.608603
 20
763.242049
 11
311.708603
 21
763.242049
  0
LINE
  8
CSLAYER1
  6
CONTINUOUS
 62
     4
 10
333.708603
 20
791.742049
 11
330.708603
 21
791.742049
  0
LINE
  8
CSLAYER1
  6
CONTINUOUS
 62
     4
 10
333.708603
 20
754.742049
 11
330.708603
 21
754.742049
  0
LINE
  8
CSLAYER1
  6
CONTINUOUS
 62
     4
 10
333.708603
 20
754.742049
 11
333.708603
 21
791.742049
  0
LINE
  8
CSLAYER1
  6
CENTER
 62
     5
 10
293.928483
 20
773.242049
 11
733.294269
 21
773.242049
  0
LINE
  8
CSLAYER1
  6
CONTINUOUS
 62
     4
 10
333.708603
 20
760.742049
 11
334.682063
 21
760.742049
  0
LINE
  8
CSLAYER1
  6
CONTINUOUS
 62
     4
 10
352.708603
 20
794.592049
 11
393.682063
 21
794.592049
  0
LINE
  8
CSLAYER1
  6
CONTINUOUS
 62
     4
 10
351.708603
 20
793.592049
 11
352.708603
 21
794.592049
  0
LINE
  8
CSLAYER1
  6
CONTINUOUS
 62
     4
 10
333.708603
 20
785.742049
 11
334.682063
 21
785.742049
  0
LINE
  8
CSLAYER1
  6
CONTINUOUS
 62
     4
 10
334.708603
 20
747.135124
 11
334.708603
 21
760.742049
  0
LINE
  8
CSLAYER1
  6
CONTINUOUS
 62
     4
 10
409.682063
 20
797.959206
 11
414.399220
 21
793.242049
  0
LINE
  8
CSLAYER1
  6
CONTINUOUS
 62
     4
 10
409.682063
 20
797.676363
 11
414.116377
 21
793.242049
  0
LINE
  8
CSLAYER1
  6
CONTINUOUS
 62
     4
 10
409.682063
 20
797.393520
 11
413.833534
 21
793.242049
  0
LINE
  8
CSLAYER1
  6
CONTINUOUS
 62
     4
 10
409.682063
 20
797.110678
 11
413.550692
 21
793.242049
  0
LINE
  8
CSLAYER1
  6
CONTINUOUS
 62
     4
 10
409.682063
 20
796.827835
 11
413.267849
 21
793.242049
  0
LINE
  8
CSLAYER1
  6
CONTINUOUS
 62
     4
 10
409.682063
 20
796.544992
 11
412.985006
 21
793.242049
  0
LINE
  8
CSLAYER1
  6
CONTINUOUS
 62
     4
 10
409.682063
 20
796.262150
 11
412.702164
 21
793.242049
  0
LINE
  8
CSLAYER1
  6
CONTINUOUS
 62
     4
 10
409.682063
 20
795.979307
 11
412.419321
 21
793.242049
  0
LINE
  8
CSLAYER1
  6
CONTINUOUS
 62
     4
 10
409.682063
 20
795.696464
 11
412.136478
 21
793.242049
  0
LINE
  8
CSLAYER1
  6
CONTINUOUS
 62
     4
 10
409.682063
 20
795.413621
 11
411.853636
 21
793.242049
  0
LINE
  8
CSLAYER1
  6
CONTINUOUS
 62
     4
 10
409.682063
 20
795.130779
 11
411.570793
 21
793.242049
  0
LINE
  8
CSLAYER1
  6
CONTINUOUS
 62
     4
 10
409.682063
 20
794.847936
 11
411.287950
 21
793.242049
  0
LINE
  8
CSLAYER1
  6
CONTINUOUS
 62
     4
 10
409.682063
 20
794.565093
 11
411.005107
 21
793.242049
  0
LINE
  8
CSLAYER1
  6
CONTINUOUS
 62
     4
 10
409.682063
 20
794.282251
 11
410.722265
 21
793.242049
  0
LINE
  8
CSLAYER1
  6
CONTINUOUS
 62
     4
 10
409.682063
 20
793.999408
 11
410.439422
 21
793.242049
  0
LINE
  8
CSLAYER1
  6
CONTINUOUS
 62
     4
 10
409.682063
 20
793.716565
 11
410.156579
 21
793.242049
  0
LINE
  8
CSLAYER1
  6
CONTINUOUS
 62
     4
 10
409.682063
 20
793.433722
 11
409.873737
 21
793.242049
  0
LINE
  8
CSLAYER1
  6
CONTINUOUS
 62
     4
 10
388.682063
 20
794.592049
 11
393.682063
 21
799.592049
  0
LINE
  8
CSLAYER1
  6
CONTINUOUS
 62
     4
 10
393.682063
 20
799.309206
 11
388.964905
 21
794.592049
  0
LINE
  8
CSLAYER1
  6
CONTINUOUS
 62
     4
 10
393.682063
 20
799.026363
 11
389.247748
 21
794.592049
  0
LINE
  8
CSLAYER1
  6
CONTINUOUS
 62
     4
 10
393.682063
 20
798.743520
 11
389.530591
 21
794.592049
  0
LINE
  8
CSLAYER1
  6
CONTINUOUS
 62
     4
 10
393.682063
 20
798.460678
 11
389.813433
 21
794.592049
  0
LINE
  8
CSLAYER1
  6
CONTINUOUS
 62
     4
 10
393.682063
 20
798.177835
 11
390.096276
 21
794.592049
  0
LINE
  8
CSLAYER1
  6
CONTINUOUS
 62
     4
 10
393.682063
 20
797.894992
 11
390.379119
 21
794.592049
  0
LINE
  8
CSLAYER1
  6
CONTINUOUS
 62
     4
 10
393.682063
 20
797.612150
 11
390.661962
 21
794.592049
  0
LINE
  8
CSLAYER1
  6
CONTINUOUS
 62
     4
 10
393.682063
 20
797.329307
 11
390.944804
 21
794.592049
  0
LINE
  8
CSLAYER1
  6
CONTINUOUS
 62
     4
 10
393.682063
 20
797.046464
 11
391.227647
 21
794.592049
  0
LINE
  8
CSLAYER1
  6
CONTINUOUS
 62
     4
 10
393.682063
 20
796.763621
 11
391.510490
 21
794.592049
  0
LINE
  8
CSLAYER1
  6
CONTINUOUS
 62
     4
 10
393.682063
 20
796.480779
 11
391.793332
 21
794.592049
  0
LINE
  8
CSLAYER1
  6
CONTINUOUS
 62
     4
 10
393.682063
 20
796.197936
 11
392.076175
 21
794.592049
  0
LINE
  8
CSLAYER1
  6
CONTINUOUS
 62
     4
 10
393.682063
 20
795.915093
 11
392.359018
 21
794.592049
  0
LINE
  8
CSLAYER1
  6
CONTINUOUS
 62
     4
 10
393.682063
 20
795.632251
 11
392.641861
 21
794.592049
  0
LINE
  8
CSLAYER1
  6
CONTINUOUS
 62
     4
 10
393.682063
 20
795.349408
 11
392.924703
 21
794.592049
  0
LINE
  8
CSLAYER1
  6
CONTINUOUS
 62
     4
 10
393.682063
 20
795.066565
 11
393.207546
 21
794.592049
  0
LINE
  8
CSLAYER1
  6
CONTINUOUS
 62
     4
 10
393.682063
 20
794.783722
 11
393.490389
 21
794.592049
  0
LINE
  8
CSLAYER1
  6
CONTINUOUS
 62
     4
 10
409.682063
 20
1110.871763
 11
409.682063
 21
544.612334
  0
LINE
  8
CSLAYER1
  6
CONTINUOUS
 62
     4
 10
410.722265
 20
793.242049
 11
409.682063
 21
793.242049
  0
LINE
  8
CSLAYER1
  6
CONTINUOUS
 62
     4
 10
423.782063
 20
803.011276
 11
423.782063
 21
860.761276
  0
LINE
  8
CSLAYER1
  6
CONTINUOUS
 62
     4
 10
421.932063
 20
812.241276
 11
421.932063
 21
819.791003
  0
LINE
  8
CSLAYER1
  6
CONTINUOUS
 62
     4
 10
428.157063
 20
803.011276
 11
423.782063
 21
803.011276
  0
LINE
  8
CSLAYER1
  6
CONTINUOUS
 62
     4
 10
423.782063
 20
820.791003
 11
422.932063
 21
820.791003
  0
ARC
  8
CSLAYER1
  6
CONTINUOUS
 62
     4
 10
422.932063
 20
812.241276
 40
1.000000
 50
180.000000
 51
270.000000
  0
ARC
  8
CSLAYER1
  6
CONTINUOUS
 62
     4
 10
422.932063
 20
819.791003
 40
1.000000
 50
90.000000
 51
180.000000
  0
LINE
  8
CSLAYER1
  6
CONTINUOUS
 62
     4
 10
429.157063
 20
806.011276
 11
428.157063
 21
807.011276
  0
LINE
  8
CSLAYER1
  6
CONTINUOUS
 62
     4
 10
454.207063
 20
826.011276
 11
449.682063
 21
826.011276
  0
LINE
  8
CSLAYER1
  6
CONTINUOUS
 62
     4
 10
455.207063
 20
825.011276
 11
454.207063
 21
826.011276
  0
LINE
  8
CSLAYER1
  6
CONTINUOUS
 62
     4
 10
429.157063
 20
826.011276
 11
428.157063
 21
825.011276
  0
LINE
  8
CSLAYER1
  6
CONTINUOUS
 62
     5
 10
414.198781
 20
847.761276
 11
458.734693
 21
847.761276
  0
LINE
  8
CSLAYER1
  6
CONTINUOUS
 62
     4
 10
455.207063
 20
860.761276
 11
459.582063
 21
860.761276
  0
LINE
  8
CSLAYER1
  6
CONTINUOUS
 62
     4
 10
461.432063
 20
843.991276
 11
461.432063
 21
851.541003
  0
LINE
  8
CSLAYER1
  6
CONTINUOUS
 62
     4
 10
459.582063
 20
842.991276
 11
460.432063
 21
842.991276
  0
LINE
  8
CSLAYER1
  6
CONTINUOUS
 62
     4
 10
459.582063
 20
852.541003
 11
460.432063
 21
852.541003
  0
ARC
  8
CSLAYER1
  6
CONTINUOUS
 62
     4
 10
460.432063
 20
843.991276
 40
1.000000
 50
270.000000
 51
360.000000
  0
ARC
  8
CSLAYER1
  6
CONTINUOUS
 62
     4
 10
460.432063
 20
851.541003
 40
1.000000
 50
0.000000
 51
90.000000
  0
LINE
  8
CSLAYER1
  6
CONTINUOUS
 62
     4
 10
428.157063
 20
860.761276
 11
423.782063
 21
860.761276
  0
LINE
  8
CSLAYER1
  6
CONTINUOUS
 62
     4
 10
423.782063
 20
811.241276
 11
422.932063
 21
811.241276
  0
LINE
  8
CSLAYER1
  6
CONTINUOUS
 62
     4
 10
421.932063
 20
843.991276
 11
421.932063
 21
851.541003
  0
LINE
  8
CSLAYER1
  6
CONTINUOUS
 62
     4
 10
423.782063
 20
842.991276
 11
422.932063
 21
842.991276
  0
LINE
  8
CSLAYER1
  6
CONTINUOUS
 62
     4
 10
423.782063
 20
852.541003
 11
422.932063
 21
852.541003
  0
ARC
  8
CSLAYER1
  6
CONTINUOUS
 62
     4
 10
422.932063
 20
843.991276
 40
1.000000
 50
180.000000
 51
270.000000
  0
ARC
  8
CSLAYER1
  6
CONTINUOUS
 62
     4
 10
422.932063
 20
851.541003
 40
1.000000
 50
90.000000
 51
180.000000
  0
POINT
  8
CSLAYER1
 62
     4
 10
441.682063
 20
847.761276
  0
LINE
  8
CSLAYER1
  6
CONTINUOUS
 62
     5
 10
415.044400
 20
816.011276
 11
442.415870
 21
816.011276
  0
LINE
  8
CSLAYER1
  6
CONTINUOUS
 62
     4
 10
455.207063
 20
822.706598
 11
455.207063
 21
898.261276
  0
LINE
  8
CSLAYER1
  6
CONTINUOUS
 62
     4
 10
459.582063
 20
822.706598
 11
459.582063
 21
860.761276
  0
LINE
  8
CSLAYER1
  6
CONTINUOUS
 62
     4
 10
433.682063
 20
838.236276
 11
433.682063
 21
816.011276
  0
LINE
  8
CSLAYER1
  6
CONTINUOUS
 62
     4
 10
449.682063
 20
838.236276
 11
449.682063
 21
821.615698
  0
POINT
  8
CSLAYER1
 62
     4
 10
441.682063
 20
879.511276
  0
LINE
  8
CSLAYER1
  6
CONTINUOUS
 62
     4
 10
428.157063
 20
803.011276
 11
428.157063
 21
898.261276
  0
LINE
  8
CSLAYER1
  6
CONTINUOUS
 62
     4
 10
432.157063
 20
894.561276
 11
432.157063
 21
832.711276
  0
LINE
  8
CSLAYER1
  6
CONTINUOUS
 62
     4
 10
432.157063
 20
894.561276
 11
428.157063
 21
894.561276
  0
LINE
  8
CSLAYER1
  6
CONTINUOUS
 62
     4
 10
433.157063
 20
869.986276
 11
450.207063
 21
869.986276
  0
LINE
  8
CSLAYER1
  6
CONTINUOUS
 62
     4
 10
433.157063
 20
889.036276
 11
450.207063
 21
889.036276
  0
ARC
  8
CSLAYER1
  6
CONTINUOUS
 62
     4
 10
433.157063
 20
870.986276
 40
1.000000
 50
180.000000
 51
270.000000
  0
ARC
  8
CSLAYER1
  6
CONTINUOUS
 62
     4
 10
433.157063
 20
888.036276
 40
1.000000
 50
90.000000
 51
180.000000
  0
LINE
  8
CSLAYER1
  6
CONTINUOUS
 62
     4
 10
451.207063
 20
894.561276
 11
451.207063
 21
832.711276
  0
LINE
  8
CSLAYER1
  6
CONTINUOUS
 62
     4
 10
451.207063
 20
894.561276
 11
455.207063
 21
894.561276
  0
ARC
  8
CSLAYER1
  6
CONTINUOUS
 62
     4
 10
450.207063
 20
870.986276
 40
1.000000
 50
270.000000
 51
360.000000
  0
ARC
  8
CSLAYER1
  6
CONTINUOUS
 62
     4
 10
450.207063
 20
888.036276
 40
1.000000
 50
0.000000
 51
90.000000
  0
LINE
  8
CSLAYER1
  6
CONTINUOUS
 62
     4
 10
421.932063
 20
875.741276
 11
421.932063
 21
883.291003
  0
LINE
  8
CSLAYER1
  6
CONTINUOUS
 62
     4
 10
428.157063
 20
866.511276
 11
423.782063
 21
866.511276
  0
LINE
  8
CSLAYER1
  6
CONTINUOUS
 62
     4
 10
423.782063
 20
874.741276
 11
422.932063
 21
874.741276
  0
LINE
  8
CSLAYER1
  6
CONTINUOUS
 62
     4
 10
423.782063
 20
884.291003
 11
422.932063
 21
884.291003
  0
ARC
  8
CSLAYER1
  6
CONTINUOUS
 62
     4
 10
422.932063
 20
875.741276
 40
1.000000
 50
180.000000
 51
270.000000
  0
ARC
  8
CSLAYER1
  6
CONTINUOUS
 62
     4
 10
422.932063
 20
883.291003
 40
1.000000
 50
90.000000
 51
180.000000
  0
LINE
  8
CSLAYER1
  6
CONTINUOUS
 62
     4
 10
461.432063
 20
875.741276
 11
461.432063
 21
883.291003
  0
LINE
  8
CSLAYER1
  6
CONTINUOUS
 62
     4
 10
455.207063
 20
866.511276
 11
459.582063
 21
866.511276
  0
LINE
  8
CSLAYER1
  6
CONTINUOUS
 62
     4
 10
459.582063
 20
874.741276
 11
460.432063
 21
874.741276
  0
LINE
  8
CSLAYER1
  6
CONTINUOUS
 62
     4
 10
459.582063
 20
884.291003
 11
460.432063
 21
884.291003
  0
ARC
  8
CSLAYER1
  6
CONTINUOUS
 62
     4
 10
460.432063
 20
875.741276
 40
1.000000
 50
270.000000
 51
360.000000
  0
ARC
  8
CSLAYER1
  6
CONTINUOUS
 62
     4
 10
460.432063
 20
883.291003
 40
1.000000
 50
0.000000
 51
90.000000
  0
LINE
  8
CSLAYER1
  6
CONTINUOUS
 62
     4
 10
432.157063
 20
832.711276
 11
428.157063
 21
832.711276
  0
LINE
  8
CSLAYER1
  6
CONTINUOUS
 62
     4
 10
433.157063
 20
857.286276
 11
450.207063
 21
857.286276
  0
LINE
  8
CSLAYER1
  6
CONTINUOUS
 62
     4
 10
433.157063
 20
838.236276
 11
450.207063
 21
838.236276
  0
ARC
  8
CSLAYER1
  6
CONTINUOUS
 62
     4
 10
433.157063
 20
856.286276
 40
1.000000
 50
90.000000
 51
180.000000
  0
ARC
  8
CSLAYER1
  6
CONTINUOUS
 62
     4
 10
433.157063
 20
839.236276
 40
1.000000
 50
180.000000
 51
270.000000
  0
LINE
  8
CSLAYER1
  6
CONTINUOUS
 62
     4
 10
451.207063
 20
832.711276
 11
455.207063
 21
832.711276
  0
ARC
  8
CSLAYER1
  6
CONTINUOUS
 62
     4
 10
450.207063
 20
856.286276
 40
1.000000
 50
0.000000
 51
90.000000
  0
ARC
  8
CSLAYER1
  6
CONTINUOUS
 62
     4
 10
450.207063
 20
839.236276
 40
1.000000
 50
270.000000
 51
360.000000
  0
LINE
  8
CSLAYER1
  6
CONTINUOUS
 62
     4
 10
433.682063
 20
833.011276
 11
449.682063
 21
833.011276
  0
LINE
  8
CSLAYER1
  6
CONTINUOUS
 62
     4
 10
433.682063
 20
826.011276
 11
429.157063
 21
826.011276
  0
LINE
  8
CSLAYER1
  6
CONTINUOUS
 62
     4
 10
430.069647
 20
806.011276
 11
429.157063
 21
806.011276
  0
LINE
  8
CSLAYER1
  6
CONTINUOUS
 62
     4
 10
411.873737
 20
793.242049
 11
414.304473
 21
793.242049
  0
LINE
  8
CSLAYER1
  6
CONTINUOUS
 62
     4
 10
350.682063
 20
788.242049
 11
351.708603
 21
788.242049
  0
LINE
  8
CSLAYER1
  6
CONTINUOUS
 62
     4
 10
350.682063
 20
758.242049
 11
351.708603
 21
758.242049
  0
LINE
  8
CSLAYER1
  6
CONTINUOUS
 62
     4
 10
409.682063
 20
753.242049
 11
410.682063
 21
753.242049
  0
LINE
  8
CSLAYER1
  6
CONTINUOUS
 62
     4
 10
766.682063
 20
543.894118
 11
766.682063
 21
479.612334
  0
LINE
  8
CSLAYER1
  6
CONTINUOUS
 62
     4
 10
594.882063
 20
544.612334
 11
594.882063
 21
570.274079
  0
LINE
  8
CSLAYER1
  6
CONTINUOUS
 62
     5
 10
589.052886
 20
562.529400
 11
623.593016
 21
562.529400
  0
LINE
  8
CSLAYER1
  6
CONTINUOUS
 62
     4
 10
593.682063
 20
567.529400
 11
594.882063
 21
567.529400
  0
LINE
  8
CSLAYER1
  6
CONTINUOUS
 62
     4
 10
593.682063
 20
557.529400
 11
594.882063
 21
557.529400
  0
LINE
  8
CSLAYER1
  6
CONTINUOUS
 62
     2
 10
594.882063
 20
557.223110
 11
597.882063
 21
557.223110
  0
LINE
  8
CSLAYER1
  6
CONTINUOUS
 62
     4
 10
266.682063
 20
543.894118
 11
266.682063
 21
479.612334
  0
LINE
  8
CSLAYER1
  6
CONTINUOUS
 62
     4
 10
766.682063
 20
544.612334
 11
266.682063
 21
544.612334
  0
LINE
  8
CSLAYER1
  6
CONTINUOUS
 62
     2
 10
594.882063
 20
561.570329
 11
597.882063
 21
561.570329
  0
LINE
  8
CSLAYER1
  6
CONTINUOUS
 62
     4
 10
594.882063
 20
570.274079
 11
598.882063
 21
570.274079
  0
LINE
  8
CSLAYER1
  6
CONTINUOUS
 62
     2
 10
602.382063
 20
600.105932
 11
603.882063
 21
600.105932
  0
LINE
  8
CSLAYER1
  6
CONTINUOUS
 62
     4
 10
602.382063
 20
600.614139
 11
603.882063
 21
600.614139
  0
LINE
  8
CSLAYER1
  6
CONTINUOUS
 62
     4
 10
613.882063
 20
544.612334
 11
613.882063
 21
570.274079
  0
LINE
  8
CSLAYER1
  6
CONTINUOUS
 62
     2
 10
597.882063
 20
544.612334
 11
597.882063
 21
570.308894
  0
LINE
  8
CSLAYER1
  6
CONTINUOUS
 62
     4
 10
602.382063
 20
588.302402
 11
602.382063
 21
600.614139
  0
LINE
  8
CSLAYER1
  6
CONTINUOUS
 62
     4
 10
609.382063
 20
588.302402
 11
609.382063
 21
600.614139
  0
LINE
  8
CSLAYER1
  6
CONTINUOUS
 62
     2
 10
598.882063
 20
560.987905
 11
598.882063
 21
570.274079
  0
LINE
  8
CSLAYER1
  6
CONTINUOUS
 62
     2
 10
612.882063
 20
560.987905
 11
612.882063
 21
570.274079
  0
LINE
  8
CSLAYER1
  6
CONTINUOUS
 62
     2
 10
603.882063
 20
588.302402
 11
603.882063
 21
600.614139
  0
LINE
  8
CSLAYER1
  6
CONTINUOUS
 62
     2
 10
607.882063
 20
588.302402
 11
607.882063
 21
600.614139
  0
LINE
  8
CSLAYER1
  6
CONTINUOUS
 62
     4
 10
600.342880
 20
588.302402
 11
602.382063
 21
588.302402
  0
LINE
  8
CSLAYER1
  6
CONTINUOUS
 62
     4
 10
612.882063
 20
576.318264
 11
611.421245
 21
588.302402
  0
LINE
  8
CSLAYER1
  6
CONTINUOUS
 62
     4
 10
598.882063
 20
576.318264
 11
600.342880
 21
588.302402
  0
LINE
  8
CSLAYER1
  6
CONTINUOUS
 62
     4
 10
609.382063
 20
588.302402
 11
611.421245
 21
588.302402
  0
LINE
  8
CSLAYER1
  6
CONTINUOUS
 62
     2
 10
597.882063
 20
560.987905
 11
613.882063
 21
560.987905
  0
LINE
  8
CSLAYER1
  6
CONTINUOUS
 62
     2
 10
614.882063
 20
554.736942
 11
614.882063
 21
562.336942
  0
LINE
  8
CSLAYER1
  6
CONTINUOUS
 62
     2
 10
614.882063
 20
554.736942
 11
613.882063
 21
554.736942
  0
LINE
  8
CSLAYER1
  6
CONTINUOUS
 62
     2
 10
614.882063
 20
562.336942
 11
613.882063
 21
562.336942
  0
LINE
  8
CSLAYER1
  6
CONTINUOUS
 62
     2
 10
617.482063
 20
557.036942
 11
617.482063
 21
560.036942
  0
LINE
  8
CSLAYER1
  6
CONTINUOUS
 62
     2
 10
615.482063
 20
555.036942
 11
614.882063
 21
555.036942
  0
LINE
  8
CSLAYER1
  6
CONTINUOUS
 62
     2
 10
615.482063
 20
562.036942
 11
614.882063
 21
562.036942
  0
ARC
  8
CSLAYER1
  6
CONTINUOUS
 62
     2
 10
615.482063
 20
557.036942
 40
2.000000
 50
270.000000
 51
360.000000
  0
ARC
  8
CSLAYER1
  6
CONTINUOUS
 62
     2
 10
615.482063
 20
560.036942
 40
2.000000
 50
0.000000
 51
90.000000
  0
LINE
  8
CSLAYER1
  6
CONTINUOUS
 62
     4
 10
612.882063
 20
570.274079
 11
613.882063
 21
570.274079
  0
LINE
  8
CSLAYER1
  6
CONTINUOUS
 62
     2
 10
607.882063
 20
600.105932
 11
609.382063
 21
600.105932
  0
LINE
  8
CSLAYER1
  6
CONTINUOUS
 62
     4
 10
607.882063
 20
600.614139
 11
609.382063
 21
600.614139
  0
LINE
  8
CSLAYER1
  6
CONTINUOUS
 62
     4
 10
601.640308
 20
617.937125
 11
603.136001
 21
617.039708
  0
LINE
  8
CSLAYER1
  6
CONTINUOUS
 62
     4
 10
603.136001
 20
617.039708
 11
612.110162
 21
609.262103
  0
LINE
  8
CSLAYER1
  6
CONTINUOUS
 62
     4
 10
593.682063
 20
567.529400
 11
593.682063
 21
557.529400
  0
LINE
  8
CSLAYER1
  6
CONTINUOUS
 62
     4
 10
613.882063
 20
567.529400
 11
623.682063
 21
567.529400
  0
LINE
  8
CSLAYER1
  6
CONTINUOUS
 62
     4
 10
617.482063
 20
557.529400
 11
623.682063
 21
557.529400
  0
LINE
  8
CSLAYER1
  6
CONTINUOUS
 62
     4
 10
334.682063
 20
1020.871763
 11
334.682063
 21
544.612334
  0
LINE
  8
CSLAYER1
  6
CONTINUOUS
 62
     4
 10
350.682063
 20
1020.871763
 11
350.682063
 21
544.612334
  0
LINE
  8
CSLAYER1
  6
CONTINUOUS
 62
     4
 10
698.682063
 20
1020.871763
 11
698.682063
 21
544.612334
  0
LINE
  8
CSLAYER1
  6
CONTINUOUS
 62
     4
 10
682.682063
 20
1020.871763
 11
682.682063
 21
544.612334
  0
LINE
  8
CSLAYER1
  6
CONTINUOUS
 62
     4
 10
391.682063
 20
776.354245
 11
391.682063
 21
744.354245
  0
LINE
  8
CSLAYER1
  6
CONTINUOUS
 62
     4
 10
381.682063
 20
774.354245
 11
381.682063
 21
746.354245
  0
LINE
  8
CSLAYER1
  6
CONTINUOUS
 62
     4
 10
383.682063
 20
776.354245
 11
391.682063
 21
776.354245
  0
LINE
  8
CSLAYER1
  6
CONTINUOUS
 62
     4
 10
381.682063
 20
774.354245
 11
383.682063
 21
776.354245
  0
LINE
  8
CSLAYER1
  6
CONTINUOUS
 62
     4
 10
383.682063
 20
776.354245
 11
383.682063
 21
744.354245
  0
LINE
  8
CSLAYER1
  6
CONTINUOUS
 62
     4
 10
383.682063
 20
744.354245
 11
391.682063
 21
744.354245
  0
LINE
  8
CSLAYER1
  6
CONTINUOUS
 62
     4
 10
381.682063
 20
746.354245
 11
383.682063
 21
744.354245
  0
LINE
  8
CSLAYER1
  6
CONTINUOUS
 62
     4
 10
391.682063
 20
774.354245
 11
393.682063
 21
774.354245
  0
LINE
  8
CSLAYER1
  6
CONTINUOUS
 62
     4
 10
391.682063
 20
746.354245
 11
393.682063
 21
746.354245
  0
LINE
  8
CSLAYER1
  6
CONTINUOUS
 62
     4
 10
680.655522
 20
751.892049
 11
651.682063
 21
751.892049
  0
LINE
  8
CSLAYER1
  6
CONTINUOUS
 62
     4
 10
681.655522
 20
793.592049
 11
681.655522
 21
752.892049
  0
LINE
  8
CSLAYER1
  6
CONTINUOUS
 62
     4
 10
681.655522
 20
752.892049
 11
680.655522
 21
751.892049
  0
LINE
  8
CSLAYER1
  6
CONTINUOUS
 62
     4
 10
721.655522
 20
783.242049
 11
721.655522
 21
763.242049
  0
LINE
  8
CSLAYER1
  6
CONTINUOUS
 62
     4
 10
702.655522
 20
791.742049
 11
702.655522
 21
754.742049
  0
LINE
  8
CSLAYER1
  6
CONTINUOUS
 62
     4
 10
707.755522
 20
790.242049
 11
707.755522
 21
756.242049
  0
LINE
  8
CSLAYER1
  6
CONTINUOUS
 62
     4
 10
719.755522
 20
790.242049
 11
719.755522
 21
756.242049
  0
LINE
  8
CSLAYER1
  6
CONTINUOUS
 62
     4
 10
702.655522
 20
790.242049
 11
719.755522
 21
790.242049
  0
LINE
  8
CSLAYER1
  6
CONTINUOUS
 62
     4
 10
707.755522
 20
783.242049
 11
721.655522
 21
783.242049
  0
LINE
  8
CSLAYER1
  6
CONTINUOUS
 62
     4
 10
702.655522
 20
756.242049
 11
719.755522
 21
756.242049
  0
LINE
  8
CSLAYER1
  6
CONTINUOUS
 62
     4
 10
707.755522
 20
763.242049
 11
721.655522
 21
763.242049
  0
LINE
  8
CSLAYER1
  6
CONTINUOUS
 62
     4
 10
699.655522
 20
791.742049
 11
702.655522
 21
791.742049
  0
LINE
  8
CSLAYER1
  6
CONTINUOUS
 62
     4
 10
699.655522
 20
754.742049
 11
702.655522
 21
754.742049
  0
LINE
  8
CSLAYER1
  6
CONTINUOUS
 62
     4
 10
699.655522
 20
754.742049
 11
699.655522
 21
791.742049
  0
LINE
  8
CSLAYER1
  6
CONTINUOUS
 62
     4
 10
699.655522
 20
760.742049
 11
698.682063
 21
760.742049
  0
LINE
  8
CSLAYER1
  6
CONTINUOUS
 62
     4
 10
680.655522
 20
794.592049
 11
639.682063
 21
794.592049
  0
LINE
  8
CSLAYER1
  6
CONTINUOUS
 62
     4
 10
681.655522
 20
793.592049
 11
680.655522
 21
794.592049
  0
LINE
  8
CSLAYER1
  6
CONTINUOUS
 62
     4
 10
699.655522
 20
785.742049
 11
698.682063
 21
785.742049
  0
LINE
  8
CSLAYER1
  6
CONTINUOUS
 62
     4
 10
698.655522
 20
747.135124
 11
698.655522
 21
760.742049
  0
LINE
  8
CSLAYER1
  6
CONTINUOUS
 62
     4
 10
623.682063
 20
797.959206
 11
618.964905
 21
793.242049
  0
LINE
  8
CSLAYER1
  6
CONTINUOUS
 62
     4
 10
623.682063
 20
797.676363
 11
619.247748
 21
793.242049
  0
LINE
  8
CSLAYER1
  6
CONTINUOUS
 62
     4
 10
623.682063
 20
797.393520
 11
619.530591
 21
793.242049
  0
LINE
  8
CSLAYER1
  6
CONTINUOUS
 62
     4
 10
623.682063
 20
797.110678
 11
619.813433
 21
793.242049
  0
LINE
  8
CSLAYER1
  6
CONTINUOUS
 62
     4
 10
623.682063
 20
796.827835
 11
620.096276
 21
793.242049
  0
LINE
  8
CSLAYER1
  6
CONTINUOUS
 62
     4
 10
623.682063
 20
796.544992
 11
620.379119
 21
793.242049
  0
LINE
  8
CSLAYER1
  6
CONTINUOUS
 62
     4
 10
623.682063
 20
796.262150
 11
620.661962
 21
793.242049
  0
LINE
  8
CSLAYER1
  6
CONTINUOUS
 62
     4
 10
623.682063
 20
795.979307
 11
620.944804
 21
793.242049
  0
LINE
  8
CSLAYER1
  6
CONTINUOUS
 62
     4
 10
623.682063
 20
795.696464
 11
621.227647
 21
793.242049
  0
LINE
  8
CSLAYER1
  6
CONTINUOUS
 62
     4
 10
623.682063
 20
795.413621
 11
621.510490
 21
793.242049
  0
LINE
  8
CSLAYER1
  6
CONTINUOUS
 62
     4
 10
623.682063
 20
795.130779
 11
621.793332
 21
793.242049
  0
LINE
  8
CSLAYER1
  6
CONTINUOUS
 62
     4
 10
623.682063
 20
794.847936
 11
622.076175
 21
793.242049
  0
LINE
  8
CSLAYER1
  6
CONTINUOUS
 62
     4
 10
623.682063
 20
794.565093
 11
622.359018
 21
793.242049
  0
LINE
  8
CSLAYER1
  6
CONTINUOUS
 62
     4
 10
623.682063
 20
794.282251
 11
622.641861
 21
793.242049
  0
LINE
  8
CSLAYER1
  6
CONTINUOUS
 62
     4
 10
623.682063
 20
793.999408
 11
622.924703
 21
793.242049
  0
LINE
  8
CSLAYER1
  6
CONTINUOUS
 62
     4
 10
623.682063
 20
793.716565
 11
623.207546
 21
793.242049
  0
LINE
  8
CSLAYER1
  6
CONTINUOUS
 62
     4
 10
623.682063
 20
793.433722
 11
623.490389
 21
793.242049
  0
LINE
  8
CSLAYER1
  6
CONTINUOUS
 62
     4
 10
644.682063
 20
794.592049
 11
639.682063
 21
799.592049
  0
LINE
  8
CSLAYER1
  6
CONTINUOUS
 62
     4
 10
639.682063
 20
799.309206
 11
644.399220
 21
794.592049
  0
LINE
  8
CSLAYER1
  6
CONTINUOUS
 62
     4
 10
639.682063
 20
799.026363
 11
644.116377
 21
794.592049
  0
LINE
  8
CSLAYER1
  6
CONTINUOUS
 62
     4
 10
639.682063
 20
798.743520
 11
643.833534
 21
794.592049
  0
LINE
  8
CSLAYER1
  6
CONTINUOUS
 62
     4
 10
639.682063
 20
798.460678
 11
643.550692
 21
794.592049
  0
LINE
  8
CSLAYER1
  6
CONTINUOUS
 62
     4
 10
639.682063
 20
798.177835
 11
643.267849
 21
794.592049
  0
LINE
  8
CSLAYER1
  6
CONTINUOUS
 62
     4
 10
639.682063
 20
797.894992
 11
642.985006
 21
794.592049
  0
LINE
  8
CSLAYER1
  6
CONTINUOUS
 62
     4
 10
639.682063
 20
797.612150
 11
642.702164
 21
794.592049
  0
LINE
  8
CSLAYER1
  6
CONTINUOUS
 62
     4
 10
639.682063
 20
797.329307
 11
642.419321
 21
794.592049
  0
LINE
  8
CSLAYER1
  6
CONTINUOUS
 62
     4
 10
639.682063
 20
797.046464
 11
642.136478
 21
794.592049
  0
LINE
  8
CSLAYER1
  6
CONTINUOUS
 62
     4
 10
639.682063
 20
796.763621
 11
641.853636
 21
794.592049
  0
LINE
  8
CSLAYER1
  6
CONTINUOUS
 62
     4
 10
639.682063
 20
796.480779
 11
641.570793
 21
794.592049
  0
LINE
  8
CSLAYER1
  6
CONTINUOUS
 62
     4
 10
639.682063
 20
796.197936
 11
641.287950
 21
794.592049
  0
LINE
  8
CSLAYER1
  6
CONTINUOUS
 62
     4
 10
639.682063
 20
795.915093
 11
641.005107
 21
794.592049
  0
LINE
  8
CSLAYER1
  6
CONTINUOUS
 62
     4
 10
639.682063
 20
795.632251
 11
640.722265
 21
794.592049
  0
LINE
  8
CSLAYER1
  6
CONTINUOUS
 62
     4
 10
639.682063
 20
795.349408
 11
640.439422
 21
794.592049
  0
LINE
  8
CSLAYER1
  6
CONTINUOUS
 62
     4
 10
639.682063
 20
795.066565
 11
640.156579
 21
794.592049
  0
LINE
  8
CSLAYER1
  6
CONTINUOUS
 62
     4
 10
639.682063
 20
794.783722
 11
639.873737
 21
794.592049
  0
LINE
  8
CSLAYER1
  6
CONTINUOUS
 62
     4
 10
623.682063
 20
1110.871763
 11
623.682063
 21
544.612334
  0
LINE
  8
CSLAYER1
  6
CONTINUOUS
 62
     4
 10
622.641861
 20
793.242049
 11
623.682063
 21
793.242049
  0
LINE
  8
CSLAYER1
  6
CONTINUOUS
 62
     4
 10
621.490389
 20
793.242049
 11
619.059652
 21
793.242049
  0
LINE
  8
CSLAYER1
  6
CONTINUOUS
 62
     4
 10
682.682063
 20
788.242049
 11
681.655522
 21
788.242049
  0
LINE
  8
CSLAYER1
  6
CONTINUOUS
 62
     4
 10
682.682063
 20
758.242049
 11
681.655522
 21
758.242049
  0
LINE
  8
CSLAYER1
  6
CONTINUOUS
 62
     4
 10
623.682063
 20
753.242049
 11
622.682063
 21
753.242049
  0
LINE
  8
CSLAYER1
  6
CONTINUOUS
 62
     4
 10
641.682063
 20
776.354245
 11
641.682063
 21
744.354245
  0
LINE
  8
CSLAYER1
  6
CONTINUOUS
 62
     4
 10
651.682063
 20
774.354245
 11
651.682063
 21
746.354245
  0
LINE
  8
CSLAYER1
  6
CONTINUOUS
 62
     4
 10
649.682063
 20
776.354245
 11
641.682063
 21
776.354245
  0
LINE
  8
CSLAYER1
  6
CONTINUOUS
 62
     4
 10
651.682063
 20
774.354245
 11
649.682063
 21
776.354245
  0
LINE
  8
CSLAYER1
  6
CONTINUOUS
 62
     4
 10
649.682063
 20
776.354245
 11
649.682063
 21
744.354245
  0
LINE
  8
CSLAYER1
  6
CONTINUOUS
 62
     4
 10
649.682063
 20
744.354245
 11
641.682063
 21
744.354245
  0
LINE
  8
CSLAYER1
  6
CONTINUOUS
 62
     4
 10
651.682063
 20
746.354245
 11
649.682063
 21
744.354245
  0
LINE
  8
CSLAYER1
  6
CONTINUOUS
 62
     4
 10
641.682063
 20
774.354245
 11
639.682063
 21
774.354245
  0
LINE
  8
CSLAYER1
  6
CONTINUOUS
 62
     4
 10
641.682063
 20
746.354245
 11
639.682063
 21
746.354245
  0
LINE
  8
CSLAYER1
  6
CENTER
 62
     5
 10
516.682063
 20
1250.356471
 11
516.682063
 21
453.174099
  0
LINE
  8
CSLAYER1
  6
CONTINUOUS
 62
     4
 10
472.132063
 20
934.413737
 11
472.132063
 21
822.706598
  0
LINE
  8
CSLAYER1
  6
CONTINUOUS
 62
     4
 10
561.232063
 20
934.413737
 11
561.232063
 21
822.706598
  0
LINE
  8
CSLAYER1
  6
CONTINUOUS
 62
     7
 10
1642.111937
 20
1085.871763
 11
1642.111937
 21
1060.871763
  0
LINE
  8
CSLAYER1
  6
CONTINUOUS
 62
     3
 10
2107.311937
 20
2035.274435
 11
2107.311937
 21
1535.274435
  0
LINE
  8
CSLAYER1
  6
CONTINUOUS
 62
     1
 10
579.140264
 20
822.706598
 11
454.223861
 21
822.706598
  0
LINE
  8
CSLAYER1
  6
CONTINUOUS
 62
     1
 10
579.140264
 20
799.247431
 11
454.223861
 21
799.247431
  0
LINE
  8
CSLAYER1
  6
CONTINUOUS
 62
     1
 10
582.682063
 20
698.001892
 11
576.682063
 21
698.001892
  0
LINE
  8
CSLAYER1
  6
CONTINUOUS
 62
     1
 10
570.682063
 20
741.000432
 11
570.476576
 21
744.807998
  0
LINE
  8
CSLAYER1
  6
CONTINUOUS
 62
     1
 10
570.476576
 20
744.807998
 11
569.861681
 21
748.586586
  0
LINE
  8
CSLAYER1
  6
CONTINUOUS
 62
     1
 10
569.861681
 20
748.586586
 11
568.842057
 21
752.307439
  0
LINE
  8
CSLAYER1
  6
CONTINUOUS
 62
     1
 10
568.842057
 20
752.307439
 11
567.425464
 21
755.942238
  0
LINE
  8
CSLAYER1
  6
CONTINUOUS
 62
     1
 10
567.425464
 20
755.942238
 11
565.622683
 21
759.463321
  0
LINE
  8
CSLAYER1
  6
CONTINUOUS
 62
     1
 10
565.622683
 20
759.463321
 11
563.447434
 21
762.843891
  0
LINE
  8
CSLAYER1
  6
CONTINUOUS
 62
     1
 10
563.447434
 20
762.843891
 11
560.916273
 21
766.058219
  0
LINE
  8
CSLAYER1
  6
CONTINUOUS
 62
     1
 10
560.916273
 20
766.058219
 11
558.048463
 21
769.081842
  0
LINE
  8
CSLAYER1
  6
CONTINUOUS
 62
     1
 10
558.048463
 20
769.081842
 11
554.865829
 21
771.891748
  0
LINE
  8
CSLAYER1
  6
CONTINUOUS
 62
     1
 10
554.865829
 20
771.891748
 11
551.392594
 21
774.466553
  0
LINE
  8
CSLAYER1
  6
CONTINUOUS
 62
     1
 10
551.392594
 20
774.466553
 11
547.655190
 21
776.786660
  0
LINE
  8
CSLAYER1
  6
CONTINUOUS
 62
     1
 10
547.655190
 20
776.786660
 11
543.682063
 21
778.834413
  0
LINE
  8
CSLAYER1
  6
CONTINUOUS
 62
     1
 10
543.682063
 20
778.834413
 11
539.503449
 21
780.594226
  0
LINE
  8
CSLAYER1
  6
CONTINUOUS
 62
     1
 10
539.503449
 20
780.594226
 11
535.151150
 21
782.052706
  0
LINE
  8
CSLAYER1
  6
CONTINUOUS
 62
     1
 10
535.151150
 20
782.052706
 11
530.658291
 21
783.198754
  0
LINE
  8
CSLAYER1
  6
CONTINUOUS
 62
     1
 10
530.658291
 20
783.198754
 11
526.059064
 21
784.023647
  0
LINE
  8
CSLAYER1
  6
CONTINUOUS
 62
     1
 10
526.059064
 20
784.023647
 11
521.388473
 21
784.521108
  0
LINE
  8
CSLAYER1
  6
CONTINUOUS
 62
     1
 10
521.388473
 20
784.521108
 11
516.682063
 21
784.687350
  0
LINE
  8
CSLAYER1
  6
CONTINUOUS
 62
     1
 10
576.682063
 20
710.503516
 11
576.453745
 21
714.734144
  0
LINE
  8
CSLAYER1
  6
CONTINUOUS
 62
     1
 10
576.453745
 20
714.734144
 11
575.770528
 21
718.932575
  0
LINE
  8
CSLAYER1
  6
CONTINUOUS
 62
     1
 10
575.770528
 20
718.932575
 11
574.637612
 21
723.066856
  0
LINE
  8
CSLAYER1
  6
CONTINUOUS
 62
     1
 10
574.637612
 20
723.066856
 11
573.063620
 21
727.105522
  0
LINE
  8
CSLAYER1
  6
CONTINUOUS
 62
     1
 10
573.063620
 20
727.105522
 11
571.060530
 21
731.017837
  0
LINE
  8
CSLAYER1
  6
CONTINUOUS
 62
     1
 10
571.060530
 20
731.017837
 11
568.643587
 21
734.774025
  0
LINE
  8
CSLAYER1
  6
CONTINUOUS
 62
     1
 10
568.643587
 20
734.774025
 11
565.831185
 21
738.345501
  0
LINE
  8
CSLAYER1
  6
CONTINUOUS
 62
     1
 10
565.831185
 20
738.345501
 11
562.644729
 21
741.705082
  0
LINE
  8
CSLAYER1
  6
CONTINUOUS
 62
     1
 10
562.644729
 20
741.705082
 11
559.108469
 21
744.827200
  0
LINE
  8
CSLAYER1
  6
CONTINUOUS
 62
     1
 10
559.108469
 20
744.827200
 11
555.249319
 21
747.688094
  0
LINE
  8
CSLAYER1
  6
CONTINUOUS
 62
     1
 10
555.249319
 20
747.688094
 11
551.096649
 21
750.265991
  0
LINE
  8
CSLAYER1
  6
CONTINUOUS
 62
     1
 10
551.096649
 20
750.265991
 11
546.682063
 21
752.541272
  0
LINE
  8
CSLAYER1
  6
CONTINUOUS
 62
     1
 10
546.682063
 20
752.541272
 11
542.039158
 21
754.496620
  0
LINE
  8
CSLAYER1
  6
CONTINUOUS
 62
     1
 10
542.039158
 20
754.496620
 11
537.203271
 21
756.117154
  0
LINE
  8
CSLAYER1
  6
CONTINUOUS
 62
     1
 10
537.203271
 20
756.117154
 11
532.211205
 21
757.390540
  0
LINE
  8
CSLAYER1
  6
CONTINUOUS
 62
     1
 10
532.211205
 20
757.390540
 11
527.100953
 21
758.307088
  0
LINE
  8
CSLAYER1
  6
CONTINUOUS
 62
     1
 10
527.100953
 20
758.307088
 11
521.911407
 21
758.859822
  0
LINE
  8
CSLAYER1
  6
CONTINUOUS
 62
     1
 10
521.911407
 20
758.859822
 11
516.682063
 21
759.044535
  0
LINE
  8
CSLAYER1
  6
CONTINUOUS
 62
     1
 10
578.682063
 20
624.291078
 11
578.446134
 21
628.662728
  0
LINE
  8
CSLAYER1
  6
CONTINUOUS
 62
     1
 10
578.446134
 20
628.662728
 11
577.740143
 21
633.001107
  0
LINE
  8
CSLAYER1
  6
CONTINUOUS
 62
     1
 10
577.740143
 20
633.001107
 11
576.569464
 21
637.273197
  0
LINE
  8
CSLAYER1
  6
CONTINUOUS
 62
     1
 10
576.569464
 20
637.273197
 11
574.943005
 21
641.446485
  0
LINE
  8
CSLAYER1
  6
CONTINUOUS
 62
     1
 10
574.943005
 20
641.446485
 11
572.873145
 21
645.489210
  0
LINE
  8
CSLAYER1
  6
CONTINUOUS
 62
     1
 10
572.873145
 20
645.489210
 11
570.375638
 21
649.370605
  0
LINE
  8
CSLAYER1
  6
CONTINUOUS
 62
     1
 10
570.375638
 20
649.370605
 11
567.469489
 21
653.061129
  0
LINE
  8
CSLAYER1
  6
CONTINUOUS
 62
     1
 10
567.469489
 20
653.061129
 11
564.176818
 21
656.532696
  0
LINE
  8
CSLAYER1
  6
CONTINUOUS
 62
     1
 10
564.176818
 20
656.532696
 11
560.522683
 21
659.758885
  0
LINE
  8
CSLAYER1
  6
CONTINUOUS
 62
     1
 10
560.522683
 20
659.758885
 11
556.534894
 21
662.715143
  0
LINE
  8
CSLAYER1
  6
CONTINUOUS
 62
     1
 10
556.534894
 20
662.715143
 11
552.243802
 21
665.378970
  0
LINE
  8
CSLAYER1
  6
CONTINUOUS
 62
     1
 10
552.243802
 20
665.378970
 11
547.682063
 21
667.730093
  0
LINE
  8
CSLAYER1
  6
CONTINUOUS
 62
     1
 10
547.682063
 20
667.730093
 11
542.884395
 21
669.750619
  0
LINE
  8
CSLAYER1
  6
CONTINUOUS
 62
     1
 10
542.884395
 20
669.750619
 11
537.887312
 21
671.425171
  0
LINE
  8
CSLAYER1
  6
CONTINUOUS
 62
     1
 10
537.887312
 20
671.425171
 11
532.728843
 21
672.741004
  0
LINE
  8
CSLAYER1
  6
CONTINUOUS
 62
     1
 10
532.728843
 20
672.741004
 11
527.448250
 21
673.688103
  0
LINE
  8
CSLAYER1
  6
CONTINUOUS
 62
     1
 10
527.448250
 20
673.688103
 11
522.085719
 21
674.259262
  0
LINE
  8
CSLAYER1
  6
CONTINUOUS
 62
     1
 10
522.085719
 20
674.259262
 11
516.682063
 21
674.450132
  0
LINE
  8
CSLAYER1
  6
CONTINUOUS
 62
     1
 10
578.682063
 20
590.861766
 11
578.446134
 21
595.233415
  0
LINE
  8
CSLAYER1
  6
CONTINUOUS
 62
     1
 10
578.446134
 20
595.233415
 11
577.740143
 21
599.571794
  0
LINE
  8
CSLAYER1
  6
CONTINUOUS
 62
     1
 10
577.740143
 20
599.571794
 11
576.569464
 21
603.843884
  0
LINE
  8
CSLAYER1
  6
CONTINUOUS
 62
     1
 10
576.569464
 20
603.843884
 11
574.943005
 21
608.017173
  0
LINE
  8
CSLAYER1
  6
CONTINUOUS
 62
     1
 10
574.943005
 20
608.017173
 11
572.873145
 21
612.059898
  0
LINE
  8
CSLAYER1
  6
CONTINUOUS
 62
     1
 10
572.873145
 20
612.059898
 11
570.375638
 21
615.941293
  0
LINE
  8
CSLAYER1
  6
CONTINUOUS
 62
     1
 10
570.375638
 20
615.941293
 11
567.469489
 21
619.631817
  0
LINE
  8
CSLAYER1
  6
CONTINUOUS
 62
     1
 10
567.469489
 20
619.631817
 11
564.176818
 21
623.103384
  0
LINE
  8
CSLAYER1
  6
CONTINUOUS
 62
     1
 10
564.176818
 20
623.103384
 11
560.522683
 21
626.329573
  0
LINE
  8
CSLAYER1
  6
CONTINUOUS
 62
     1
 10
560.522683
 20
626.329573
 11
556.534894
 21
629.285830
  0
LINE
  8
CSLAYER1
  6
CONTINUOUS
 62
     1
 10
556.534894
 20
629.285830
 11
552.243802
 21
631.949657
  0
LINE
  8
CSLAYER1
  6
CONTINUOUS
 62
     1
 10
552.243802
 20
631.949657
 11
547.682063
 21
634.300780
  0
LINE
  8
CSLAYER1
  6
CONTINUOUS
 62
     1
 10
547.682063
 20
634.300780
 11
542.884395
 21
636.321307
  0
LINE
  8
CSLAYER1
  6
CONTINUOUS
 62
     1
 10
542.884395
 20
636.321307
 11
537.887312
 21
637.995858
  0
LINE
  8
CSLAYER1
  6
CONTINUOUS
 62
     1
 10
537.887312
 20
637.995858
 11
532.728843
 21
639.311691
  0
LINE
  8
CSLAYER1
  6
CONTINUOUS
 62
     1
 10
532.728843
 20
639.311691
 11
527.448250
 21
640.258791
  0
LINE
  8
CSLAYER1
  6
CONTINUOUS
 62
     1
 10
527.448250
 20
640.258791
 11
522.085719
 21
640.829949
  0
LINE
  8
CSLAYER1
  6
CONTINUOUS
 62
     1
 10
522.085719
 20
640.829949
 11
516.682063
 21
641.020819
  0
LINE
  8
CSLAYER1
  6
CONTINUOUS
 62
     1
 10
540.527257
 20
544.612334
 11
542.884395
 21
545.402225
  0
LINE
  8
CSLAYER1
  6
CONTINUOUS
 62
     1
 10
542.884395
 20
545.402225
 11
547.682063
 21
547.422751
  0
LINE
  8
CSLAYER1
  6
CONTINUOUS
 62
     1
 10
547.682063
 20
547.422751
 11
552.243802
 21
549.773874
  0
LINE
  8
CSLAYER1
  6
CONTINUOUS
 62
     1
 10
552.243802
 20
549.773874
 11
556.534894
 21
552.437701
  0
LINE
  8
CSLAYER1
  6
CONTINUOUS
 62
     1
 10
556.534894
 20
552.437701
 11
560.522683
 21
555.393959
  0
LINE
  8
CSLAYER1
  6
CONTINUOUS
 62
     1
 10
560.522683
 20
555.393959
 11
564.176818
 21
558.620148
  0
LINE
  8
CSLAYER1
  6
CONTINUOUS
 62
     1
 10
564.176818
 20
558.620148
 11
567.469489
 21
562.091715
  0
LINE
  8
CSLAYER1
  6
CONTINUOUS
 62
     1
 10
567.469489
 20
562.091715
 11
570.375638
 21
565.782239
  0
LINE
  8
CSLAYER1
  6
CONTINUOUS
 62
     1
 10
570.375638
 20
565.782239
 11
572.873145
 21
569.663634
  0
LINE
  8
CSLAYER1
  6
CONTINUOUS
 62
     1
 10
572.873145
 20
569.663634
 11
574.943005
 21
573.706359
  0
LINE
  8
CSLAYER1
  6
CONTINUOUS
 62
     1
 10
574.943005
 20
573.706359
 11
576.569464
 21
577.879647
  0
LINE
  8
CSLAYER1
  6
CONTINUOUS
 62
     1
 10
576.569464
 20
577.879647
 11
577.740143
 21
582.151738
  0
LINE
  8
CSLAYER1
  6
CONTINUOUS
 62
     1
 10
577.740143
 20
582.151738
 11
578.446134
 21
586.490116
  0
LINE
  8
CSLAYER1
  6
CONTINUOUS
 62
     1
 10
578.446134
 20
586.490116
 11
578.682063
 21
590.861766
  0
LINE
  8
CSLAYER1
  6
CONTINUOUS
 62
     1
 10
570.682063
 20
741.000432
 11
570.682063
 21
648.894388
  0
LINE
  8
CSLAYER1
  6
CONTINUOUS
 62
     1
 10
576.682063
 20
710.503516
 11
576.682063
 21
636.484767
  0
LINE
  8
CSLAYER1
  6
CONTINUOUS
 62
     1
 10
578.682063
 20
624.291078
 11
578.682063
 21
590.861766
  0
LINE
  8
CSLAYER1
  6
CONTINUOUS
 62
     1
 10
582.552642
 20
681.799783
 11
598.111479
 21
681.799783
  0
LINE
  8
CSLAYER1
  6
CONTINUOUS
 62
     1
 10
574.131305
 20
637.780099
 11
584.748669
 21
637.780099
  0
LINE
  8
CSLAYER1
  6
CONTINUOUS
 62
     1
 10
590.182063
 20
673.114292
 11
590.182063
 21
690.937981
  0
LINE
  8
CSLAYER1
  6
CONTINUOUS
 62
     1
 10
580.647493
 20
618.291078
 11
598.682063
 21
618.291078
  0
LINE
  8
CSLAYER1
  6
CONTINUOUS
 62
     1
 10
580.647493
 20
693.299783
 11
598.682063
 21
693.299783
  0
LINE
  8
CSLAYER1
  6
CONTINUOUS
 62
     1
 10
601.682063
 20
690.299783
 11
601.682063
 21
599.612783
  0
LINE
  8
CSLAYER1
  6
CONTINUOUS
 62
     1
 10
580.647493
 20
596.612783
 11
580.647493
 21
693.299783
  0
LINE
  8
CSLAYER1
  6
CONTINUOUS
 62
     1
 10
578.682063
 20
624.289643
 11
580.647493
 21
624.289643
  0
LINE
  8
CSLAYER1
  6
CONTINUOUS
 62
     1
 10
576.682063
 20
651.270555
 11
580.647493
 21
651.270555
  0
ARC
  8
CSLAYER1
  6
CONTINUOUS
 62
     1
 10
598.682063
 20
621.291078
 40
3.000000
 50
270.000000
 51
360.000000
  0
ARC
  8
CSLAYER1
  6
CONTINUOUS
 62
     1
 10
598.682063
 20
690.299783
 40
3.000000
 50
0.000000
 51
90.000000
  0
LINE
  8
CSLAYER1
  6
CONTINUOUS
 62
     1
 10
568.682063
 20
651.521280
 11
568.682063
 21
734.714230
  0
LINE
  8
CSLAYER1
  6
CONTINUOUS
 62
     1
 10
548.682063
 20
667.214692
 11
548.682063
 21
751.510470
  0
LINE
  8
CSLAYER1
  6
CONTINUOUS
 62
     1
 10
541.682063
 20
670.153528
 11
541.682063
 21
754.647010
  0
LINE
  8
CSLAYER1
  6
CONTINUOUS
 62
     1
 10
533.682063
 20
672.497854
 11
533.682063
 21
757.015351
  0
ARC
  8
CSLAYER1
  6
CONTINUOUS
 62
     1
 10
598.682063
 20
599.612783
 40
3.000000
 50
270.000000
 51
360.000000
  0
LINE
  8
CSLAYER1
  6
CONTINUOUS
 62
     1
 10
580.647493
 20
596.612783
 11
598.682063
 21
596.612783
  0
ARC
  8
CSLAYER1
  6
CONTINUOUS
 62
     1
 10
598.682063
 20
651.450499
 40
3.000000
 50
270.000000
 51
360.000000
  0
LINE
  8
CSLAYER1
  6
CONTINUOUS
 62
     1
 10
580.647493
 20
648.450499
 11
598.682063
 21
648.450499
  0
LINE
  8
CSLAYER1
  6
CONTINUOUS
 62
     1
 10
596.432063
 20
681.799783
 11
596.337111
 21
682.677810
  0
LINE
  8
CSLAYER1
  6
CONTINUOUS
 62
     1
 10
596.337111
 20
682.677810
 11
596.055142
 21
683.529159
  0
LINE
  8
CSLAYER1
  6
CONTINUOUS
 62
     1
 10
596.055142
 20
683.529159
 11
595.594721
 21
684.327961
  0
LINE
  8
CSLAYER1
  6
CONTINUOUS
 62
     1
 10
595.594721
 20
684.327961
 11
594.969840
 21
685.049946
  0
LINE
  8
CSLAYER1
  6
CONTINUOUS
 62
     1
 10
594.969840
 20
685.049946
 11
594.199485
 21
685.673176
  0
LINE
  8
CSLAYER1
  6
CONTINUOUS
 62
     1
 10
594.199485
 20
685.673176
 11
593.307063
 21
686.178716
  0
LINE
  8
CSLAYER1
  6
CONTINUOUS
 62
     1
 10
593.307063
 20
686.178716
 11
592.319689
 21
686.551203
  0
LINE
  8
CSLAYER1
  6
CONTINUOUS
 62
     1
 10
592.319689
 20
686.551203
 11
591.267364
 21
686.779322
  0
LINE
  8
CSLAYER1
  6
CONTINUOUS
 62
     1
 10
591.267364
 20
686.779322
 11
590.182063
 21
686.856139
  0
LINE
  8
CSLAYER1
  6
CONTINUOUS
 62
     1
 10
590.182063
 20
686.856139
 11
589.096762
 21
686.779322
  0
LINE
  8
CSLAYER1
  6
CONTINUOUS
 62
     1
 10
589.096762
 20
686.779322
 11
588.044437
 21
686.551203
  0
LINE
  8
CSLAYER1
  6
CONTINUOUS
 62
     1
 10
588.044437
 20
686.551203
 11
587.057063
 21
686.178716
  0
LINE
  8
CSLAYER1
  6
CONTINUOUS
 62
     1
 10
587.057063
 20
686.178716
 11
586.164640
 21
685.673176
  0
LINE
  8
CSLAYER1
  6
CONTINUOUS
 62
     1
 10
586.164640
 20
685.673176
 11
585.394285
 21
685.049946
  0
LINE
  8
CSLAYER1
  6
CONTINUOUS
 62
     1
 10
585.394285
 20
685.049946
 11
584.769404
 21
684.327961
  0
LINE
  8
CSLAYER1
  6
CONTINUOUS
 62
     1
 10
584.769404
 20
684.327961
 11
584.308984
 21
683.529159
  0
LINE
  8
CSLAYER1
  6
CONTINUOUS
 62
     1
 10
584.308984
 20
683.529159
 11
584.027014
 21
682.677810
  0
LINE
  8
CSLAYER1
  6
CONTINUOUS
 62
     1
 10
584.027014
 20
682.677810
 11
583.932063
 21
681.799783
  0
LINE
  8
CSLAYER1
  6
CONTINUOUS
 62
     1
 10
583.932063
 20
681.799783
 11
584.027014
 21
680.921756
  0
LINE
  8
CSLAYER1
  6
CONTINUOUS
 62
     1
 10
584.027014
 20
680.921756
 11
584.308984
 21
680.070407
  0
LINE
  8
CSLAYER1
  6
CONTINUOUS
 62
     1
 10
584.308984
 20
680.070407
 11
584.769404
 21
679.271605
  0
LINE
  8
CSLAYER1
  6
CONTINUOUS
 62
     1
 10
584.769404
 20
679.271605
 11
585.394285
 21
678.549620
  0
LINE
  8
CSLAYER1
  6
CONTINUOUS
 62
     1
 10
585.394285
 20
678.549620
 11
586.164640
 21
677.926389
  0
LINE
  8
CSLAYER1
  6
CONTINUOUS
 62
     1
 10
586.164640
 20
677.926389
 11
587.057063
 21
677.420850
  0
LINE
  8
CSLAYER1
  6
CONTINUOUS
 62
     1
 10
587.057063
 20
677.420850
 11
588.044437
 21
677.048362
  0
LINE
  8
CSLAYER1
  6
CONTINUOUS
 62
     1
 10
588.044437
 20
677.048362
 11
589.096762
 21
676.820244
  0
LINE
  8
CSLAYER1
  6
CONTINUOUS
 62
     1
 10
589.096762
 20
676.820244
 11
590.182063
 21
676.743427
  0
LINE
  8
CSLAYER1
  6
CONTINUOUS
 62
     1
 10
590.182063
 20
676.743427
 11
591.267364
 21
676.820244
  0
LINE
  8
CSLAYER1
  6
CONTINUOUS
 62
     1
 10
591.267364
 20
676.820244
 11
592.319689
 21
677.048362
  0
LINE
  8
CSLAYER1
  6
CONTINUOUS
 62
     1
 10
592.319689
 20
677.048362
 11
593.307063
 21
677.420850
  0
LINE
  8
CSLAYER1
  6
CONTINUOUS
 62
     1
 10
593.307063
 20
677.420850
 11
594.199485
 21
677.926389
  0
LINE
  8
CSLAYER1
  6
CONTINUOUS
 62
     1
 10
594.199485
 20
677.926389
 11
594.969840
 21
678.549620
  0
LINE
  8
CSLAYER1
  6
CONTINUOUS
 62
     1
 10
594.969840
 20
678.549620
 11
595.594721
 21
679.271605
  0
LINE
  8
CSLAYER1
  6
CONTINUOUS
 62
     1
 10
595.594721
 20
679.271605
 11
596.055142
 21
680.070407
  0
LINE
  8
CSLAYER1
  6
CONTINUOUS
 62
     1
 10
596.055142
 20
680.070407
 11
596.337111
 21
680.921756
  0
LINE
  8
CSLAYER1
  6
CONTINUOUS
 62
     1
 10
596.337111
 20
680.921756
 11
596.432063
 21
681.799783
  0
LINE
  8
CSLAYER1
  6
CONTINUOUS
 62
     1
 10
622.682063
 20
785.538938
 11
622.682063
 21
735.169551
  0
LINE
  8
CSLAYER1
  6
CONTINUOUS
 62
     1
 10
582.682063
 20
822.058371
 11
582.682063
 21
798.599204
  0
LINE
  8
CSLAYER1
  6
CONTINUOUS
 62
     1
 10
585.434314
 20
820.477372
 11
618.976113
 21
793.309712
  0
LINE
  8
CSLAYER1
  6
CONTINUOUS
 62
     1
 10
585.434314
 20
797.018205
 11
618.976113
 21
769.850546
  0
LINE
  8
CSLAYER1
  6
CONTINUOUS
 62
     1
 10
618.976113
 20
727.398777
 11
582.682063
 21
698.001892
  0
LINE
  8
CSLAYER1
  6
CONTINUOUS
 62
     1
 10
571.682063
 20
783.172699
 11
571.682063
 21
729.803897
  0
LINE
  8
CSLAYER1
  6
CONTINUOUS
 62
     1
 10
561.682063
 20
793.172699
 11
471.682063
 21
793.172699
  0
LINE
  8
CSLAYER1
  6
CONTINUOUS
 62
     1
 10
530.293794
 20
783.291731
 11
561.682063
 21
783.291731
  0
LINE
  8
CSLAYER1
  6
CONTINUOUS
 62
     1
 10
600.682063
 20
742.948756
 11
600.647815
 21
743.583350
  0
LINE
  8
CSLAYER1
  6
CONTINUOUS
 62
     1
 10
600.647815
 20
743.583350
 11
600.545332
 21
744.213114
  0
LINE
  8
CSLAYER1
  6
CONTINUOUS
 62
     1
 10
600.545332
 20
744.213114
 11
600.375395
 21
744.833257
  0
LINE
  8
CSLAYER1
  6
CONTINUOUS
 62
     1
 10
600.375395
 20
744.833257
 11
600.139296
 21
745.439057
  0
LINE
  8
CSLAYER1
  6
CONTINUOUS
 62
     1
 10
600.139296
 20
745.439057
 11
599.838833
 21
746.025904
  0
LINE
  8
CSLAYER1
  6
CONTINUOUS
 62
     1
 10
599.838833
 20
746.025904
 11
599.476291
 21
746.589332
  0
LINE
  8
CSLAYER1
  6
CONTINUOUS
 62
     1
 10
599.476291
 20
746.589332
 11
599.054431
 21
747.125053
  0
LINE
  8
CSLAYER1
  6
CONTINUOUS
 62
     1
 10
599.054431
 20
747.125053
 11
598.576463
 21
747.628990
  0
LINE
  8
CSLAYER1
  6
CONTINUOUS
 62
     1
 10
598.576463
 20
747.628990
 11
598.046024
 21
748.097308
  0
LINE
  8
CSLAYER1
  6
CONTINUOUS
 62
     1
 10
598.046024
 20
748.097308
 11
597.467151
 21
748.526442
  0
LINE
  8
CSLAYER1
  6
CONTINUOUS
 62
     1
 10
597.467151
 20
748.526442
 11
596.844251
 21
748.913127
  0
LINE
  8
CSLAYER1
  6
CONTINUOUS
 62
     1
 10
596.844251
 20
748.913127
 11
596.182063
 21
749.254419
  0
LINE
  8
CSLAYER1
  6
CONTINUOUS
 62
     1
 10
596.182063
 20
749.254419
 11
595.485627
 21
749.547721
  0
LINE
  8
CSLAYER1
  6
CONTINUOUS
 62
     1
 10
595.485627
 20
749.547721
 11
594.760244
 21
749.790801
  0
LINE
  8
CSLAYER1
  6
CONTINUOUS
 62
     1
 10
594.760244
 20
749.790801
 11
594.011434
 21
749.981809
  0
LINE
  8
CSLAYER1
  6
CONTINUOUS
 62
     1
 10
594.011434
 20
749.981809
 11
593.244896
 21
750.119291
  0
LINE
  8
CSLAYER1
  6
CONTINUOUS
 62
     1
 10
593.244896
 20
750.119291
 11
592.466464
 21
750.202201
  0
LINE
  8
CSLAYER1
  6
CONTINUOUS
 62
     1
 10
592.466464
 20
750.202201
 11
591.682063
 21
750.229908
  0
LINE
  8
CSLAYER1
  6
CONTINUOUS
 62
     1
 10
591.682063
 20
750.229908
 11
590.897661
 21
750.202201
  0
LINE
  8
CSLAYER1
  6
CONTINUOUS
 62
     1
 10
590.897661
 20
750.202201
 11
590.119229
 21
750.119291
  0
LINE
  8
CSLAYER1
  6
CONTINUOUS
 62
     1
 10
590.119229
 20
750.119291
 11
589.352691
 21
749.981809
  0
LINE
  8
CSLAYER1
  6
CONTINUOUS
 62
     1
 10
589.352691
 20
749.981809
 11
588.603881
 21
749.790801
  0
LINE
  8
CSLAYER1
  6
CONTINUOUS
 62
     1
 10
588.603881
 20
749.790801
 11
587.878498
 21
749.547721
  0
LINE
  8
CSLAYER1
  6
CONTINUOUS
 62
     1
 10
587.878498
 20
749.547721
 11
587.182063
 21
749.254419
  0
LINE
  8
CSLAYER1
  6
CONTINUOUS
 62
     1
 10
587.182063
 20
749.254419
 11
586.519875
 21
748.913127
  0
LINE
  8
CSLAYER1
  6
CONTINUOUS
 62
     1
 10
586.519875
 20
748.913127
 11
585.896974
 21
748.526442
  0
LINE
  8
CSLAYER1
  6
CONTINUOUS
 62
     1
 10
585.896974
 20
748.526442
 11
585.318102
 21
748.097308
  0
LINE
  8
CSLAYER1
  6
CONTINUOUS
 62
     1
 10
585.318102
 20
748.097308
 11
584.787663
 21
747.628990
  0
LINE
  8
CSLAYER1
  6
CONTINUOUS
 62
     1
 10
584.787663
 20
747.628990
 11
584.309694
 21
747.125053
  0
LINE
  8
CSLAYER1
  6
CONTINUOUS
 62
     1
 10
584.309694
 20
747.125053
 11
583.887834
 21
746.589332
  0
LINE
  8
CSLAYER1
  6
CONTINUOUS
 62
     1
 10
583.887834
 20
746.589332
 11
583.525293
 21
746.025904
  0
LINE
  8
CSLAYER1
  6
CONTINUOUS
 62
     1
 10
583.525293
 20
746.025904
 11
583.224829
 21
745.439057
  0
LINE
  8
CSLAYER1
  6
CONTINUOUS
 62
     1
 10
583.224829
 20
745.439057
 11
582.988730
 21
744.833257
  0
LINE
  8
CSLAYER1
  6
CONTINUOUS
 62
     1
 10
582.988730
 20
744.833257
 11
582.818793
 21
744.213114
  0
LINE
  8
CSLAYER1
  6
CONTINUOUS
 62
     1
 10
582.818793
 20
744.213114
 11
582.716310
 21
743.583350
  0
LINE
  8
CSLAYER1
  6
CONTINUOUS
 62
     1
 10
582.716310
 20
743.583350
 11
582.682063
 21
742.948756
  0
LINE
  8
CSLAYER1
  6
CONTINUOUS
 62
     1
 10
582.682063
 20
742.948756
 11
582.716310
 21
742.314161
  0
LINE
  8
CSLAYER1
  6
CONTINUOUS
 62
     1
 10
582.716310
 20
742.314161
 11
582.818793
 21
741.684397
  0
LINE
  8
CSLAYER1
  6
CONTINUOUS
 62
     1
 10
582.818793
 20
741.684397
 11
582.988730
 21
741.064254
  0
LINE
  8
CSLAYER1
  6
CONTINUOUS
 62
     1
 10
582.988730
 20
741.064254
 11
583.224829
 21
740.458455
  0
LINE
  8
CSLAYER1
  6
CONTINUOUS
 62
     1
 10
583.224829
 20
740.458455
 11
583.525293
 21
739.871607
  0
LINE
  8
CSLAYER1
  6
CONTINUOUS
 62
     1
 10
583.525293
 20
739.871607
 11
583.887834
 21
739.308179
  0
LINE
  8
CSLAYER1
  6
CONTINUOUS
 62
     1
 10
583.887834
 20
739.308179
 11
584.309694
 21
738.772458
  0
LINE
  8
CSLAYER1
  6
CONTINUOUS
 62
     1
 10
584.309694
 20
738.772458
 11
584.787663
 21
738.268521
  0
LINE
  8
CSLAYER1
  6
CONTINUOUS
 62
     1
 10
584.787663
 20
738.268521
 11
585.318102
 21
737.800203
  0
LINE
  8
CSLAYER1
  6
CONTINUOUS
 62
     1
 10
585.318102
 20
737.800203
 11
585.896974
 21
737.371069
  0
LINE
  8
CSLAYER1
  6
CONTINUOUS
 62
     1
 10
585.896974
 20
737.371069
 11
586.519875
 21
736.984384
  0
LINE
  8
CSLAYER1
  6
CONTINUOUS
 62
     1
 10
586.519875
 20
736.984384
 11
587.182063
 21
736.643092
  0
LINE
  8
CSLAYER1
  6
CONTINUOUS
 62
     1
 10
587.182063
 20
736.643092
 11
587.878498
 21
736.349790
  0
LINE
  8
CSLAYER1
  6
CONTINUOUS
 62
     1
 10
587.878498
 20
736.349790
 11
588.603881
 21
736.106710
  0
LINE
  8
CSLAYER1
  6
CONTINUOUS
 62
     1
 10
588.603881
 20
736.106710
 11
589.352691
 21
735.915702
  0
LINE
  8
CSLAYER1
  6
CONTINUOUS
 62
     1
 10
589.352691
 20
735.915702
 11
590.119229
 21
735.778220
  0
LINE
  8
CSLAYER1
  6
CONTINUOUS
 62
     1
 10
590.119229
 20
735.778220
 11
590.897661
 21
735.695310
  0
LINE
  8
CSLAYER1
  6
CONTINUOUS
 62
     1
 10
590.897661
 20
735.695310
 11
591.682063
 21
735.667603
  0
LINE
  8
CSLAYER1
  6
CONTINUOUS
 62
     1
 10
591.682063
 20
735.667603
 11
592.466464
 21
735.695310
  0
LINE
  8
CSLAYER1
  6
CONTINUOUS
 62
     1
 10
592.466464
 20
735.695310
 11
593.244896
 21
735.778220
  0
LINE
  8
CSLAYER1
  6
CONTINUOUS
 62
     1
 10
593.244896
 20
735.778220
 11
594.011434
 21
735.915702
  0
LINE
  8
CSLAYER1
  6
CONTINUOUS
 62
     1
 10
594.011434
 20
735.915702
 11
594.760244
 21
736.106710
  0
LINE
  8
CSLAYER1
  6
CONTINUOUS
 62
     1
 10
594.760244
 20
736.106710
 11
595.485627
 21
736.349790
  0
LINE
  8
CSLAYER1
  6
CONTINUOUS
 62
     1
 10
595.485627
 20
736.349790
 11
596.182063
 21
736.643092
  0
LINE
  8
CSLAYER1
  6
CONTINUOUS
 62
     1
 10
596.182063
 20
736.643092
 11
596.844251
 21
736.984384
  0
LINE
  8
CSLAYER1
  6
CONTINUOUS
 62
     1
 10
596.844251
 20
736.984384
 11
597.467151
 21
737.371069
  0
LINE
  8
CSLAYER1
  6
CONTINUOUS
 62
     1
 10
597.467151
 20
737.371069
 11
598.046024
 21
737.800203
  0
LINE
  8
CSLAYER1
  6
CONTINUOUS
 62
     1
 10
598.046024
 20
737.800203
 11
598.576463
 21
738.268521
  0
LINE
  8
CSLAYER1
  6
CONTINUOUS
 62
     1
 10
598.576463
 20
738.268521
 11
599.054431
 21
738.772458
  0
LINE
  8
CSLAYER1
  6
CONTINUOUS
 62
     1
 10
599.054431
 20
738.772458
 11
599.476291
 21
739.308179
  0
LINE
  8
CSLAYER1
  6
CONTINUOUS
 62
     1
 10
599.476291
 20
739.308179
 11
599.838833
 21
739.871607
  0
LINE
  8
CSLAYER1
  6
CONTINUOUS
 62
     1
 10
599.838833
 20
739.871607
 11
600.139296
 21
740.458455
  0
LINE
  8
CSLAYER1
  6
CONTINUOUS
 62
     1
 10
600.139296
 20
740.458455
 11
600.375395
 21
741.064254
  0
LINE
  8
CSLAYER1
  6
CONTINUOUS
 62
     1
 10
600.375395
 20
741.064254
 11
600.545332
 21
741.684397
  0
LINE
  8
CSLAYER1
  6
CONTINUOUS
 62
     1
 10
600.545332
 20
741.684397
 11
600.647815
 21
742.314161
  0
LINE
  8
CSLAYER1
  6
CONTINUOUS
 62
     1
 10
600.647815
 20
742.314161
 11
600.682063
 21
742.948756
  0
LINE
  8
CSLAYER1
  6
CONTINUOUS
 62
     1
 10
600.682063
 20
748.624661
 11
600.647815
 21
749.259256
  0
LINE
  8
CSLAYER1
  6
CONTINUOUS
 62
     1
 10
600.647815
 20
749.259256
 11
600.545332
 21
749.889020
  0
LINE
  8
CSLAYER1
  6
CONTINUOUS
 62
     1
 10
600.545332
 20
749.889020
 11
600.375395
 21
750.509162
  0
LINE
  8
CSLAYER1
  6
CONTINUOUS
 62
     1
 10
600.375395
 20
750.509162
 11
600.139296
 21
751.114962
  0
LINE
  8
CSLAYER1
  6
CONTINUOUS
 62
     1
 10
600.139296
 20
751.114962
 11
599.838833
 21
751.701810
  0
LINE
  8
CSLAYER1
  6
CONTINUOUS
 62
     1
 10
599.838833
 20
751.701810
 11
599.476291
 21
752.265238
  0
LINE
  8
CSLAYER1
  6
CONTINUOUS
 62
     1
 10
599.476291
 20
752.265238
 11
599.054431
 21
752.800959
  0
LINE
  8
CSLAYER1
  6
CONTINUOUS
 62
     1
 10
599.054431
 20
752.800959
 11
598.576463
 21
753.304896
  0
LINE
  8
CSLAYER1
  6
CONTINUOUS
 62
     1
 10
598.576463
 20
753.304896
 11
598.046024
 21
753.773214
  0
LINE
  8
CSLAYER1
  6
CONTINUOUS
 62
     1
 10
598.046024
 20
753.773214
 11
597.467151
 21
754.202348
  0
LINE
  8
CSLAYER1
  6
CONTINUOUS
 62
     1
 10
597.467151
 20
754.202348
 11
596.844251
 21
754.589033
  0
LINE
  8
CSLAYER1
  6
CONTINUOUS
 62
     1
 10
596.844251
 20
754.589033
 11
596.182063
 21
754.930325
  0
LINE
  8
CSLAYER1
  6
CONTINUOUS
 62
     1
 10
596.182063
 20
754.930325
 11
595.485627
 21
755.223627
  0
LINE
  8
CSLAYER1
  6
CONTINUOUS
 62
     1
 10
595.485627
 20
755.223627
 11
594.760244
 21
755.466707
  0
LINE
  8
CSLAYER1
  6
CONTINUOUS
 62
     1
 10
594.760244
 20
755.466707
 11
594.011434
 21
755.657715
  0
LINE
  8
CSLAYER1
  6
CONTINUOUS
 62
     1
 10
594.011434
 20
755.657715
 11
593.244896
 21
755.795197
  0
LINE
  8
CSLAYER1
  6
CONTINUOUS
 62
     1
 10
593.244896
 20
755.795197
 11
592.466464
 21
755.878107
  0
LINE
  8
CSLAYER1
  6
CONTINUOUS
 62
     1
 10
592.466464
 20
755.878107
 11
591.682063
 21
755.905814
  0
LINE
  8
CSLAYER1
  6
CONTINUOUS
 62
     1
 10
591.682063
 20
755.905814
 11
590.897661
 21
755.878107
  0
LINE
  8
CSLAYER1
  6
CONTINUOUS
 62
     1
 10
590.897661
 20
755.878107
 11
590.119229
 21
755.795197
  0
LINE
  8
CSLAYER1
  6
CONTINUOUS
 62
     1
 10
590.119229
 20
755.795197
 11
589.352691
 21
755.657715
  0
LINE
  8
CSLAYER1
  6
CONTINUOUS
 62
     1
 10
589.352691
 20
755.657715
 11
588.603881
 21
755.466707
  0
LINE
  8
CSLAYER1
  6
CONTINUOUS
 62
     1
 10
588.603881
 20
755.466707
 11
587.878498
 21
755.223627
  0
LINE
  8
CSLAYER1
  6
CONTINUOUS
 62
     1
 10
587.878498
 20
755.223627
 11
587.182063
 21
754.930325
  0
LINE
  8
CSLAYER1
  6
CONTINUOUS
 62
     1
 10
587.182063
 20
754.930325
 11
586.519875
 21
754.589033
  0
LINE
  8
CSLAYER1
  6
CONTINUOUS
 62
     1
 10
586.519875
 20
754.589033
 11
585.896974
 21
754.202348
  0
LINE
  8
CSLAYER1
  6
CONTINUOUS
 62
     1
 10
585.896974
 20
754.202348
 11
585.318102
 21
753.773214
  0
LINE
  8
CSLAYER1
  6
CONTINUOUS
 62
     1
 10
585.318102
 20
753.773214
 11
584.787663
 21
753.304896
  0
LINE
  8
CSLAYER1
  6
CONTINUOUS
 62
     1
 10
584.787663
 20
753.304896
 11
584.309694
 21
752.800959
  0
LINE
  8
CSLAYER1
  6
CONTINUOUS
 62
     1
 10
584.309694
 20
752.800959
 11
583.887834
 21
752.265238
  0
LINE
  8
CSLAYER1
  6
CONTINUOUS
 62
     1
 10
583.887834
 20
752.265238
 11
583.525293
 21
751.701810
  0
LINE
  8
CSLAYER1
  6
CONTINUOUS
 62
     1
 10
583.525293
 20
751.701810
 11
583.224829
 21
751.114962
  0
LINE
  8
CSLAYER1
  6
CONTINUOUS
 62
     1
 10
583.224829
 20
751.114962
 11
582.988730
 21
750.509162
  0
LINE
  8
CSLAYER1
  6
CONTINUOUS
 62
     1
 10
582.988730
 20
750.509162
 11
582.818793
 21
749.889020
  0
LINE
  8
CSLAYER1
  6
CONTINUOUS
 62
     1
 10
582.818793
 20
749.889020
 11
582.716310
 21
749.259256
  0
LINE
  8
CSLAYER1
  6
CONTINUOUS
 62
     1
 10
582.716310
 20
749.259256
 11
582.682063
 21
748.624661
  0
LINE
  8
CSLAYER1
  6
CONTINUOUS
 62
     1
 10
600.682063
 20
748.624661
 11
600.682063
 21
742.948756
  0
LINE
  8
CSLAYER1
  6
CONTINUOUS
 62
     1
 10
582.682063
 20
748.624661
 11
582.682063
 21
742.948756
  0
ARC
  8
CSLAYER1
  6
CONTINUOUS
 62
     1
 10
579.140264
 20
812.706598
 40
10.000000
 50
50.993762
 51
90.000000
  0
ARC
  8
CSLAYER1
  6
CONTINUOUS
 62
     1
 10
579.140264
 20
789.247431
 40
10.000000
 50
50.993762
 51
90.000000
  0
ARC
  8
CSLAYER1
  6
CONTINUOUS
 62
     1
 10
612.682063
 20
785.538938
 40
10.000000
 50
0.000000
 51
50.993762
  0
ARC
  8
CSLAYER1
  6
CONTINUOUS
 62
     1
 10
612.682063
 20
762.079771
 40
10.000000
 50
0.000000
 51
50.993762
  0
ARC
  8
CSLAYER1
  6
CONTINUOUS
 62
     1
 10
612.682063
 20
735.169551
 40
10.000000
 50
309.006238
 51
360.000000
  0
ARC
  8
CSLAYER1
  6
CONTINUOUS
 62
     1
 10
561.682063
 20
783.172699
 40
10.000000
 50
0.000000
 51
90.000000
  0
ARC
  8
CSLAYER1
  6
CONTINUOUS
 62
     1
 10
561.682063
 20
773.291731
 40
10.000000
 50
0.000000
 51
90.000000
  0
LINE
  8
CSLAYER1
  6
CONTINUOUS
 62
     1
 10
450.682063
 20
698.001892
 11
456.682063
 21
698.001892
  0
LINE
  8
CSLAYER1
  6
CONTINUOUS
 62
     1
 10
462.682063
 20
741.000432
 11
462.887549
 21
744.807998
  0
LINE
  8
CSLAYER1
  6
CONTINUOUS
 62
     1
 10
462.887549
 20
744.807998
 11
463.502444
 21
748.586586
  0
LINE
  8
CSLAYER1
  6
CONTINUOUS
 62
     1
 10
463.502444
 20
748.586586
 11
464.522068
 21
752.307439
  0
LINE
  8
CSLAYER1
  6
CONTINUOUS
 62
     1
 10
464.522068
 20
752.307439
 11
465.938661
 21
755.942238
  0
LINE
  8
CSLAYER1
  6
CONTINUOUS
 62
     1
 10
465.938661
 20
755.942238
 11
467.741442
 21
759.463321
  0
LINE
  8
CSLAYER1
  6
CONTINUOUS
 62
     1
 10
467.741442
 20
759.463321
 11
469.916691
 21
762.843891
  0
LINE
  8
CSLAYER1
  6
CONTINUOUS
 62
     1
 10
469.916691
 20
762.843891
 11
472.447852
 21
766.058219
  0
LINE
  8
CSLAYER1
  6
CONTINUOUS
 62
     1
 10
472.447852
 20
766.058219
 11
475.315663
 21
769.081842
  0
LINE
  8
CSLAYER1
  6
CONTINUOUS
 62
     1
 10
475.315663
 20
769.081842
 11
478.498296
 21
771.891748
  0
LINE
  8
CSLAYER1
  6
CONTINUOUS
 62
     1
 10
478.498296
 20
771.891748
 11
481.971532
 21
774.466553
  0
LINE
  8
CSLAYER1
  6
CONTINUOUS
 62
     1
 10
481.971532
 20
774.466553
 11
485.708935
 21
776.786660
  0
LINE
  8
CSLAYER1
  6
CONTINUOUS
 62
     1
 10
485.708935
 20
776.786660
 11
489.682063
 21
778.834413
  0
LINE
  8
CSLAYER1
  6
CONTINUOUS
 62
     1
 10
489.682063
 20
778.834413
 11
493.860676
 21
780.594226
  0
LINE
  8
CSLAYER1
  6
CONTINUOUS
 62
     1
 10
493.860676
 20
780.594226
 11
498.212975
 21
782.052706
  0
LINE
  8
CSLAYER1
  6
CONTINUOUS
 62
     1
 10
498.212975
 20
782.052706
 11
502.705834
 21
783.198754
  0
LINE
  8
CSLAYER1
  6
CONTINUOUS
 62
     1
 10
502.705834
 20
783.198754
 11
507.305061
 21
784.023647
  0
LINE
  8
CSLAYER1
  6
CONTINUOUS
 62
     1
 10
507.305061
 20
784.023647
 11
511.975653
 21
784.521108
  0
LINE
  8
CSLAYER1
  6
CONTINUOUS
 62
     1
 10
511.975653
 20
784.521108
 11
516.682063
 21
784.687350
  0
LINE
  8
CSLAYER1
  6
CONTINUOUS
 62
     1
 10
456.682063
 20
710.503516
 11
456.910381
 21
714.734144
  0
LINE
  8
CSLAYER1
  6
CONTINUOUS
 62
     1
 10
456.910381
 20
714.734144
 11
457.593597
 21
718.932575
  0
LINE
  8
CSLAYER1
  6
CONTINUOUS
 62
     1
 10
457.593597
 20
718.932575
 11
458.726513
 21
723.066856
  0
LINE
  8
CSLAYER1
  6
CONTINUOUS
 62
     1
 10
458.726513
 20
723.066856
 11
460.300505
 21
727.105522
  0
LINE
  8
CSLAYER1
  6
CONTINUOUS
 62
     1
 10
460.300505
 20
727.105522
 11
462.303595
 21
731.017837
  0
LINE
  8
CSLAYER1
  6
CONTINUOUS
 62
     1
 10
462.303595
 20
731.017837
 11
464.720538
 21
734.774025
  0
LINE
  8
CSLAYER1
  6
CONTINUOUS
 62
     1
 10
464.720538
 20
734.774025
 11
467.532940
 21
738.345501
  0
LINE
  8
CSLAYER1
  6
CONTINUOUS
 62
     1
 10
467.532940
 20
738.345501
 11
470.719396
 21
741.705082
  0
LINE
  8
CSLAYER1
  6
CONTINUOUS
 62
     1
 10
470.719396
 20
741.705082
 11
474.255656
 21
744.827200
  0
LINE
  8
CSLAYER1
  6
CONTINUOUS
 62
     1
 10
474.255656
 20
744.827200
 11
478.114806
 21
747.688094
  0
LINE
  8
CSLAYER1
  6
CONTINUOUS
 62
     1
 10
478.114806
 20
747.688094
 11
482.267476
 21
750.265991
  0
LINE
  8
CSLAYER1
  6
CONTINUOUS
 62
     1
 10
482.267476
 20
750.265991
 11
486.682063
 21
752.541272
  0
LINE
  8
CSLAYER1
  6
CONTINUOUS
 62
     1
 10
486.682063
 20
752.541272
 11
491.324967
 21
754.496620
  0
LINE
  8
CSLAYER1
  6
CONTINUOUS
 62
     1
 10
491.324967
 20
754.496620
 11
496.160854
 21
756.117154
  0
LINE
  8
CSLAYER1
  6
CONTINUOUS
 62
     1
 10
496.160854
 20
756.117154
 11
501.152920
 21
757.390540
  0
LINE
  8
CSLAYER1
  6
CONTINUOUS
 62
     1
 10
501.152920
 20
757.390540
 11
506.263172
 21
758.307088
  0
LINE
  8
CSLAYER1
  6
CONTINUOUS
 62
     1
 10
506.263172
 20
758.307088
 11
511.452718
 21
758.859822
  0
LINE
  8
CSLAYER1
  6
CONTINUOUS
 62
     1
 10
511.452718
 20
758.859822
 11
516.682063
 21
759.044535
  0
LINE
  8
CSLAYER1
  6
CONTINUOUS
 62
     1
 10
454.682063
 20
624.291078
 11
454.917991
 21
628.662728
  0
LINE
  8
CSLAYER1
  6
CONTINUOUS
 62
     1
 10
454.917991
 20
628.662728
 11
455.623982
 21
633.001107
  0
LINE
  8
CSLAYER1
  6
CONTINUOUS
 62
     1
 10
455.623982
 20
633.001107
 11
456.794661
 21
637.273197
  0
LINE
  8
CSLAYER1
  6
CONTINUOUS
 62
     1
 10
456.794661
 20
637.273197
 11
458.421120
 21
641.446485
  0
LINE
  8
CSLAYER1
  6
CONTINUOUS
 62
     1
 10
458.421120
 20
641.446485
 11
460.490980
 21
645.489210
  0
LINE
  8
CSLAYER1
  6
CONTINUOUS
 62
     1
 10
460.490980
 20
645.489210
 11
462.988488
 21
649.370605
  0
LINE
  8
CSLAYER1
  6
CONTINUOUS
 62
     1
 10
462.988488
 20
649.370605
 11
465.894636
 21
653.061129
  0
LINE
  8
CSLAYER1
  6
CONTINUOUS
 62
     1
 10
465.894636
 20
653.061129
 11
469.187307
 21
656.532696
  0
LINE
  8
CSLAYER1
  6
CONTINUOUS
 62
     1
 10
469.187307
 20
656.532696
 11
472.841442
 21
659.758885
  0
LINE
  8
CSLAYER1
  6
CONTINUOUS
 62
     1
 10
472.841442
 20
659.758885
 11
476.829231
 21
662.715143
  0
LINE
  8
CSLAYER1
  6
CONTINUOUS
 62
     1
 10
476.829231
 20
662.715143
 11
481.120324
 21
665.378970
  0
LINE
  8
CSLAYER1
  6
CONTINUOUS
 62
     1
 10
481.120324
 20
665.378970
 11
485.682063
 21
667.730093
  0
LINE
  8
CSLAYER1
  6
CONTINUOUS
 62
     1
 10
485.682063
 20
667.730093
 11
490.479730
 21
669.750619
  0
LINE
  8
CSLAYER1
  6
CONTINUOUS
 62
     1
 10
490.479730
 20
669.750619
 11
495.476814
 21
671.425171
  0
LINE
  8
CSLAYER1
  6
CONTINUOUS
 62
     1
 10
495.476814
 20
671.425171
 11
500.635282
 21
672.741004
  0
LINE
  8
CSLAYER1
  6
CONTINUOUS
 62
     1
 10
500.635282
 20
672.741004
 11
505.915876
 21
673.688103
  0
LINE
  8
CSLAYER1
  6
CONTINUOUS
 62
     1
 10
505.915876
 20
673.688103
 11
511.278407
 21
674.259262
  0
LINE
  8
CSLAYER1
  6
CONTINUOUS
 62
     1
 10
511.278407
 20
674.259262
 11
516.682063
 21
674.450132
  0
LINE
  8
CSLAYER1
  6
CONTINUOUS
 62
     1
 10
454.682063
 20
590.861766
 11
454.917991
 21
595.233415
  0
LINE
  8
CSLAYER1
  6
CONTINUOUS
 62
     1
 10
454.917991
 20
595.233415
 11
455.623982
 21
599.571794
  0
LINE
  8
CSLAYER1
  6
CONTINUOUS
 62
     1
 10
455.623982
 20
599.571794
 11
456.794661
 21
603.843884
  0
LINE
  8
CSLAYER1
  6
CONTINUOUS
 62
     1
 10
456.794661
 20
603.843884
 11
458.421120
 21
608.017173
  0
LINE
  8
CSLAYER1
  6
CONTINUOUS
 62
     1
 10
458.421120
 20
608.017173
 11
460.490980
 21
612.059898
  0
LINE
  8
CSLAYER1
  6
CONTINUOUS
 62
     1
 10
460.490980
 20
612.059898
 11
462.988488
 21
615.941293
  0
LINE
  8
CSLAYER1
  6
CONTINUOUS
 62
     1
 10
462.988488
 20
615.941293
 11
465.894636
 21
619.631817
  0
LINE
  8
CSLAYER1
  6
CONTINUOUS
 62
     1
 10
465.894636
 20
619.631817
 11
469.187307
 21
623.103384
  0
LINE
  8
CSLAYER1
  6
CONTINUOUS
 62
     1
 10
469.187307
 20
623.103384
 11
472.841442
 21
626.329573
  0
LINE
  8
CSLAYER1
  6
CONTINUOUS
 62
     1
 10
472.841442
 20
626.329573
 11
476.829231
 21
629.285830
  0
LINE
  8
CSLAYER1
  6
CONTINUOUS
 62
     1
 10
476.829231
 20
629.285830
 11
481.120324
 21
631.949657
  0
LINE
  8
CSLAYER1
  6
CONTINUOUS
 62
     1
 10
481.120324
 20
631.949657
 11
485.682063
 21
634.300780
  0
LINE
  8
CSLAYER1
  6
CONTINUOUS
 62
     1
 10
485.682063
 20
634.300780
 11
490.479730
 21
636.321307
  0
LINE
  8
CSLAYER1
  6
CONTINUOUS
 62
     1
 10
490.479730
 20
636.321307
 11
495.476814
 21
637.995858
  0
LINE
  8
CSLAYER1
  6
CONTINUOUS
 62
     1
 10
495.476814
 20
637.995858
 11
500.635282
 21
639.311691
  0
LINE
  8
CSLAYER1
  6
CONTINUOUS
 62
     1
 10
500.635282
 20
639.311691
 11
505.915876
 21
640.258791
  0
LINE
  8
CSLAYER1
  6
CONTINUOUS
 62
     1
 10
505.915876
 20
640.258791
 11
511.278407
 21
640.829949
  0
LINE
  8
CSLAYER1
  6
CONTINUOUS
 62
     1
 10
511.278407
 20
640.829949
 11
516.682063
 21
641.020819
  0
LINE
  8
CSLAYER1
  6
CONTINUOUS
 62
     1
 10
492.836868
 20
544.612334
 11
490.479730
 21
545.402225
  0
LINE
  8
CSLAYER1
  6
CONTINUOUS
 62
     1
 10
490.479730
 20
545.402225
 11
485.682063
 21
547.422751
  0
LINE
  8
CSLAYER1
  6
CONTINUOUS
 62
     1
 10
485.682063
 20
547.422751
 11
481.120324
 21
549.773874
  0
LINE
  8
CSLAYER1
  6
CONTINUOUS
 62
     1
 10
481.120324
 20
549.773874
 11
476.829231
 21
552.437701
  0
LINE
  8
CSLAYER1
  6
CONTINUOUS
 62
     1
 10
476.829231
 20
552.437701
 11
472.841442
 21
555.393959
  0
LINE
  8
CSLAYER1
  6
CONTINUOUS
 62
     1
 10
472.841442
 20
555.393959
 11
469.187307
 21
558.620148
  0
LINE
  8
CSLAYER1
  6
CONTINUOUS
 62
     1
 10
469.187307
 20
558.620148
 11
465.894636
 21
562.091715
  0
LINE
  8
CSLAYER1
  6
CONTINUOUS
 62
     1
 10
465.894636
 20
562.091715
 11
462.988488
 21
565.782239
  0
LINE
  8
CSLAYER1
  6
CONTINUOUS
 62
     1
 10
462.988488
 20
565.782239
 11
460.490980
 21
569.663634
  0
LINE
  8
CSLAYER1
  6
CONTINUOUS
 62
     1
 10
460.490980
 20
569.663634
 11
458.421120
 21
573.706359
  0
LINE
  8
CSLAYER1
  6
CONTINUOUS
 62
     1
 10
458.421120
 20
573.706359
 11
456.794661
 21
577.879647
  0
LINE
  8
CSLAYER1
  6
CONTINUOUS
 62
     1
 10
456.794661
 20
577.879647
 11
455.623982
 21
582.151738
  0
LINE
  8
CSLAYER1
  6
CONTINUOUS
 62
     1
 10
455.623982
 20
582.151738
 11
454.917991
 21
586.490116
  0
LINE
  8
CSLAYER1
  6
CONTINUOUS
 62
     1
 10
454.917991
 20
586.490116
 11
454.682063
 21
590.861766
  0
LINE
  8
CSLAYER1
  6
CONTINUOUS
 62
     1
 10
462.682063
 20
741.000432
 11
462.682063
 21
648.894388
  0
LINE
  8
CSLAYER1
  6
CONTINUOUS
 62
     1
 10
456.682063
 20
710.503516
 11
456.682063
 21
636.484767
  0
LINE
  8
CSLAYER1
  6
CONTINUOUS
 62
     1
 10
454.682063
 20
624.291078
 11
454.682063
 21
590.861766
  0
LINE
  8
CSLAYER1
  6
CONTINUOUS
 62
     1
 10
464.682063
 20
651.521280
 11
464.682063
 21
734.714230
  0
LINE
  8
CSLAYER1
  6
CONTINUOUS
 62
     1
 10
484.682063
 20
667.214692
 11
484.682063
 21
751.510470
  0
LINE
  8
CSLAYER1
  6
CONTINUOUS
 62
     1
 10
491.682063
 20
670.153528
 11
491.682063
 21
754.647010
  0
LINE
  8
CSLAYER1
  6
CONTINUOUS
 62
     1
 10
499.682063
 20
672.497854
 11
499.682063
 21
757.015351
  0
LINE
  8
CSLAYER1
  6
CONTINUOUS
 62
     1
 10
410.682063
 20
785.538938
 11
410.682063
 21
735.169551
  0
LINE
  8
CSLAYER1
  6
CONTINUOUS
 62
     1
 10
450.682063
 20
822.058371
 11
450.682063
 21
798.599204
  0
LINE
  8
CSLAYER1
  6
CONTINUOUS
 62
     1
 10
447.929811
 20
820.477372
 11
414.388013
 21
793.309712
  0
LINE
  8
CSLAYER1
  6
CONTINUOUS
 62
     1
 10
447.929811
 20
797.018205
 11
414.388013
 21
769.850546
  0
LINE
  8
CSLAYER1
  6
CONTINUOUS
 62
     1
 10
414.388013
 20
727.398777
 11
450.682063
 21
698.001892
  0
LINE
  8
CSLAYER1
  6
CONTINUOUS
 62
     1
 10
461.682063
 20
783.172699
 11
461.682063
 21
729.803897
  0
LINE
  8
CSLAYER1
  6
CONTINUOUS
 62
     1
 10
503.070331
 20
783.291731
 11
471.682063
 21
783.291731
  0
LINE
  8
CSLAYER1
  6
CONTINUOUS
 62
     1
 10
432.682063
 20
742.948756
 11
432.716310
 21
743.583350
  0
LINE
  8
CSLAYER1
  6
CONTINUOUS
 62
     1
 10
432.716310
 20
743.583350
 11
432.818793
 21
744.213114
  0
LINE
  8
CSLAYER1
  6
CONTINUOUS
 62
     1
 10
432.818793
 20
744.213114
 11
432.988730
 21
744.833257
  0
LINE
  8
CSLAYER1
  6
CONTINUOUS
 62
     1
 10
432.988730
 20
744.833257
 11
433.224829
 21
745.439057
  0
LINE
  8
CSLAYER1
  6
CONTINUOUS
 62
     1
 10
433.224829
 20
745.439057
 11
433.525293
 21
746.025904
  0
LINE
  8
CSLAYER1
  6
CONTINUOUS
 62
     1
 10
433.525293
 20
746.025904
 11
433.887834
 21
746.589332
  0
LINE
  8
CSLAYER1
  6
CONTINUOUS
 62
     1
 10
433.887834
 20
746.589332
 11
434.309694
 21
747.125053
  0
LINE
  8
CSLAYER1
  6
CONTINUOUS
 62
     1
 10
434.309694
 20
747.125053
 11
434.787663
 21
747.628990
  0
LINE
  8
CSLAYER1
  6
CONTINUOUS
 62
     1
 10
434.787663
 20
747.628990
 11
435.318102
 21
748.097308
  0
LINE
  8
CSLAYER1
  6
CONTINUOUS
 62
     1
 10
435.318102
 20
748.097308
 11
435.896974
 21
748.526442
  0
LINE
  8
CSLAYER1
  6
CONTINUOUS
 62
     1
 10
435.896974
 20
748.526442
 11
436.519875
 21
748.913127
  0
LINE
  8
CSLAYER1
  6
CONTINUOUS
 62
     1
 10
436.519875
 20
748.913127
 11
437.182063
 21
749.254419
  0
LINE
  8
CSLAYER1
  6
CONTINUOUS
 62
     1
 10
437.182063
 20
749.254419
 11
437.878498
 21
749.547721
  0
LINE
  8
CSLAYER1
  6
CONTINUOUS
 62
     1
 10
437.878498
 20
749.547721
 11
438.603881
 21
749.790801
  0
LINE
  8
CSLAYER1
  6
CONTINUOUS
 62
     1
 10
438.603881
 20
749.790801
 11
439.352691
 21
749.981809
  0
LINE
  8
CSLAYER1
  6
CONTINUOUS
 62
     1
 10
439.352691
 20
749.981809
 11
440.119229
 21
750.119291
  0
LINE
  8
CSLAYER1
  6
CONTINUOUS
 62
     1
 10
440.119229
 20
750.119291
 11
440.897661
 21
750.202201
  0
LINE
  8
CSLAYER1
  6
CONTINUOUS
 62
     1
 10
440.897661
 20
750.202201
 11
441.682063
 21
750.229908
  0
LINE
  8
CSLAYER1
  6
CONTINUOUS
 62
     1
 10
441.682063
 20
750.229908
 11
442.466464
 21
750.202201
  0
LINE
  8
CSLAYER1
  6
CONTINUOUS
 62
     1
 10
442.466464
 20
750.202201
 11
443.244896
 21
750.119291
  0
LINE
  8
CSLAYER1
  6
CONTINUOUS
 62
     1
 10
443.244896
 20
750.119291
 11
444.011434
 21
749.981809
  0
LINE
  8
CSLAYER1
  6
CONTINUOUS
 62
     1
 10
444.011434
 20
749.981809
 11
444.760244
 21
749.790801
  0
LINE
  8
CSLAYER1
  6
CONTINUOUS
 62
     1
 10
444.760244
 20
749.790801
 11
445.485627
 21
749.547721
  0
LINE
  8
CSLAYER1
  6
CONTINUOUS
 62
     1
 10
445.485627
 20
749.547721
 11
446.182063
 21
749.254419
  0
LINE
  8
CSLAYER1
  6
CONTINUOUS
 62
     1
 10
446.182063
 20
749.254419
 11
446.844251
 21
748.913127
  0
LINE
  8
CSLAYER1
  6
CONTINUOUS
 62
     1
 10
446.844251
 20
748.913127
 11
447.467151
 21
748.526442
  0
LINE
  8
CSLAYER1
  6
CONTINUOUS
 62
     1
 10
447.467151
 20
748.526442
 11
448.046024
 21
748.097308
  0
LINE
  8
CSLAYER1
  6
CONTINUOUS
 62
     1
 10
448.046024
 20
748.097308
 11
448.576463
 21
747.628990
  0
LINE
  8
CSLAYER1
  6
CONTINUOUS
 62
     1
 10
448.576463
 20
747.628990
 11
449.054431
 21
747.125053
  0
LINE
  8
CSLAYER1
  6
CONTINUOUS
 62
     1
 10
449.054431
 20
747.125053
 11
449.476291
 21
746.589332
  0
LINE
  8
CSLAYER1
  6
CONTINUOUS
 62
     1
 10
449.476291
 20
746.589332
 11
449.838833
 21
746.025904
  0
LINE
  8
CSLAYER1
  6
CONTINUOUS
 62
     1
 10
449.838833
 20
746.025904
 11
450.139296
 21
745.439057
  0
LINE
  8
CSLAYER1
  6
CONTINUOUS
 62
     1
 10
450.139296
 20
745.439057
 11
450.375395
 21
744.833257
  0
LINE
  8
CSLAYER1
  6
CONTINUOUS
 62
     1
 10
450.375395
 20
744.833257
 11
450.545332
 21
744.213114
  0
LINE
  8
CSLAYER1
  6
CONTINUOUS
 62
     1
 10
450.545332
 20
744.213114
 11
450.647815
 21
743.583350
  0
LINE
  8
CSLAYER1
  6
CONTINUOUS
 62
     1
 10
450.647815
 20
743.583350
 11
450.682063
 21
742.948756
  0
LINE
  8
CSLAYER1
  6
CONTINUOUS
 62
     1
 10
450.682063
 20
742.948756
 11
450.647815
 21
742.314161
  0
LINE
  8
CSLAYER1
  6
CONTINUOUS
 62
     1
 10
450.647815
 20
742.314161
 11
450.545332
 21
741.684397
  0
LINE
  8
CSLAYER1
  6
CONTINUOUS
 62
     1
 10
450.545332
 20
741.684397
 11
450.375395
 21
741.064254
  0
LINE
  8
CSLAYER1
  6
CONTINUOUS
 62
     1
 10
450.375395
 20
741.064254
 11
450.139296
 21
740.458455
  0
LINE
  8
CSLAYER1
  6
CONTINUOUS
 62
     1
 10
450.139296
 20
740.458455
 11
449.838833
 21
739.871607
  0
LINE
  8
CSLAYER1
  6
CONTINUOUS
 62
     1
 10
449.838833
 20
739.871607
 11
449.476291
 21
739.308179
  0
LINE
  8
CSLAYER1
  6
CONTINUOUS
 62
     1
 10
449.476291
 20
739.308179
 11
449.054431
 21
738.772458
  0
LINE
  8
CSLAYER1
  6
CONTINUOUS
 62
     1
 10
449.054431
 20
738.772458
 11
448.576463
 21
738.268521
  0
LINE
  8
CSLAYER1
  6
CONTINUOUS
 62
     1
 10
448.576463
 20
738.268521
 11
448.046024
 21
737.800203
  0
LINE
  8
CSLAYER1
  6
CONTINUOUS
 62
     1
 10
448.046024
 20
737.800203
 11
447.467151
 21
737.371069
  0
LINE
  8
CSLAYER1
  6
CONTINUOUS
 62
     1
 10
447.467151
 20
737.371069
 11
446.844251
 21
736.984384
  0
LINE
  8
CSLAYER1
  6
CONTINUOUS
 62
     1
 10
446.844251
 20
736.984384
 11
446.182063
 21
736.643092
  0
LINE
  8
CSLAYER1
  6
CONTINUOUS
 62
     1
 10
446.182063
 20
736.643092
 11
445.485627
 21
736.349790
  0
LINE
  8
CSLAYER1
  6
CONTINUOUS
 62
     1
 10
445.485627
 20
736.349790
 11
444.760244
 21
736.106710
  0
LINE
  8
CSLAYER1
  6
CONTINUOUS
 62
     1
 10
444.760244
 20
736.106710
 11
444.011434
 21
735.915702
  0
LINE
  8
CSLAYER1
  6
CONTINUOUS
 62
     1
 10
444.011434
 20
735.915702
 11
443.244896
 21
735.778220
  0
LINE
  8
CSLAYER1
  6
CONTINUOUS
 62
     1
 10
443.244896
 20
735.778220
 11
442.466464
 21
735.695310
  0
LINE
  8
CSLAYER1
  6
CONTINUOUS
 62
     1
 10
442.466464
 20
735.695310
 11
441.682063
 21
735.667603
  0
LINE
  8
CSLAYER1
  6
CONTINUOUS
 62
     1
 10
441.682063
 20
735.667603
 11
440.897661
 21
735.695310
  0
LINE
  8
CSLAYER1
  6
CONTINUOUS
 62
     1
 10
440.897661
 20
735.695310
 11
440.119229
 21
735.778220
  0
LINE
  8
CSLAYER1
  6
CONTINUOUS
 62
     1
 10
440.119229
 20
735.778220
 11
439.352691
 21
735.915702
  0
LINE
  8
CSLAYER1
  6
CONTINUOUS
 62
     1
 10
439.352691
 20
735.915702
 11
438.603881
 21
736.106710
  0
LINE
  8
CSLAYER1
  6
CONTINUOUS
 62
     1
 10
438.603881
 20
736.106710
 11
437.878498
 21
736.349790
  0
LINE
  8
CSLAYER1
  6
CONTINUOUS
 62
     1
 10
437.878498
 20
736.349790
 11
437.182063
 21
736.643092
  0
LINE
  8
CSLAYER1
  6
CONTINUOUS
 62
     1
 10
437.182063
 20
736.643092
 11
436.519875
 21
736.984384
  0
LINE
  8
CSLAYER1
  6
CONTINUOUS
 62
     1
 10
436.519875
 20
736.984384
 11
435.896974
 21
737.371069
  0
LINE
  8
CSLAYER1
  6
CONTINUOUS
 62
     1
 10
435.896974
 20
737.371069
 11
435.318102
 21
737.800203
  0
LINE
  8
CSLAYER1
  6
CONTINUOUS
 62
     1
 10
435.318102
 20
737.800203
 11
434.787663
 21
738.268521
  0
LINE
  8
CSLAYER1
  6
CONTINUOUS
 62
     1
 10
434.787663
 20
738.268521
 11
434.309694
 21
738.772458
  0
LINE
  8
CSLAYER1
  6
CONTINUOUS
 62
     1
 10
434.309694
 20
738.772458
 11
433.887834
 21
739.308179
  0
LINE
  8
CSLAYER1
  6
CONTINUOUS
 62
     1
 10
433.887834
 20
739.308179
 11
433.525293
 21
739.871607
  0
LINE
  8
CSLAYER1
  6
CONTINUOUS
 62
     1
 10
433.525293
 20
739.871607
 11
433.224829
 21
740.458455
  0
LINE
  8
CSLAYER1
  6
CONTINUOUS
 62
     1
 10
433.224829
 20
740.458455
 11
432.988730
 21
741.064254
  0
LINE
  8
CSLAYER1
  6
CONTINUOUS
 62
     1
 10
432.988730
 20
741.064254
 11
432.818793
 21
741.684397
  0
LINE
  8
CSLAYER1
  6
CONTINUOUS
 62
     1
 10
432.818793
 20
741.684397
 11
432.716310
 21
742.314161
  0
LINE
  8
CSLAYER1
  6
CONTINUOUS
 62
     1
 10
432.716310
 20
742.314161
 11
432.682063
 21
742.948756
  0
LINE
  8
CSLAYER1
  6
CONTINUOUS
 62
     1
 10
432.682063
 20
748.624661
 11
432.716310
 21
749.259256
  0
LINE
  8
CSLAYER1
  6
CONTINUOUS
 62
     1
 10
432.716310
 20
749.259256
 11
432.818793
 21
749.889020
  0
LINE
  8
CSLAYER1
  6
CONTINUOUS
 62
     1
 10
432.818793
 20
749.889020
 11
432.988730
 21
750.509162
  0
LINE
  8
CSLAYER1
  6
CONTINUOUS
 62
     1
 10
432.988730
 20
750.509162
 11
433.224829
 21
751.114962
  0
LINE
  8
CSLAYER1
  6
CONTINUOUS
 62
     1
 10
433.224829
 20
751.114962
 11
433.525293
 21
751.701810
  0
LINE
  8
CSLAYER1
  6
CONTINUOUS
 62
     1
 10
433.525293
 20
751.701810
 11
433.887834
 21
752.265238
  0
LINE
  8
CSLAYER1
  6
CONTINUOUS
 62
     1
 10
433.887834
 20
752.265238
 11
434.309694
 21
752.800959
  0
LINE
  8
CSLAYER1
  6
CONTINUOUS
 62
     1
 10
434.309694
 20
752.800959
 11
434.787663
 21
753.304896
  0
LINE
  8
CSLAYER1
  6
CONTINUOUS
 62
     1
 10
434.787663
 20
753.304896
 11
435.318102
 21
753.773214
  0
LINE
  8
CSLAYER1
  6
CONTINUOUS
 62
     1
 10
435.318102
 20
753.773214
 11
435.896974
 21
754.202348
  0
LINE
  8
CSLAYER1
  6
CONTINUOUS
 62
     1
 10
435.896974
 20
754.202348
 11
436.519875
 21
754.589033
  0
LINE
  8
CSLAYER1
  6
CONTINUOUS
 62
     1
 10
436.519875
 20
754.589033
 11
437.182063
 21
754.930325
  0
LINE
  8
CSLAYER1
  6
CONTINUOUS
 62
     1
 10
437.182063
 20
754.930325
 11
437.878498
 21
755.223627
  0
LINE
  8
CSLAYER1
  6
CONTINUOUS
 62
     1
 10
437.878498
 20
755.223627
 11
438.603881
 21
755.466707
  0
LINE
  8
CSLAYER1
  6
CONTINUOUS
 62
     1
 10
438.603881
 20
755.466707
 11
439.352691
 21
755.657715
  0
LINE
  8
CSLAYER1
  6
CONTINUOUS
 62
     1
 10
439.352691
 20
755.657715
 11
440.119229
 21
755.795197
  0
LINE
  8
CSLAYER1
  6
CONTINUOUS
 62
     1
 10
440.119229
 20
755.795197
 11
440.897661
 21
755.878107
  0
LINE
  8
CSLAYER1
  6
CONTINUOUS
 62
     1
 10
440.897661
 20
755.878107
 11
441.682063
 21
755.905814
  0
LINE
  8
CSLAYER1
  6
CONTINUOUS
 62
     1
 10
441.682063
 20
755.905814
 11
442.466464
 21
755.878107
  0
LINE
  8
CSLAYER1
  6
CONTINUOUS
 62
     1
 10
442.466464
 20
755.878107
 11
443.244896
 21
755.795197
  0
LINE
  8
CSLAYER1
  6
CONTINUOUS
 62
     1
 10
443.244896
 20
755.795197
 11
444.011434
 21
755.657715
  0
LINE
  8
CSLAYER1
  6
CONTINUOUS
 62
     1
 10
444.011434
 20
755.657715
 11
444.760244
 21
755.466707
  0
LINE
  8
CSLAYER1
  6
CONTINUOUS
 62
     1
 10
444.760244
 20
755.466707
 11
445.485627
 21
755.223627
  0
LINE
  8
CSLAYER1
  6
CONTINUOUS
 62
     1
 10
445.485627
 20
755.223627
 11
446.182063
 21
754.930325
  0
LINE
  8
CSLAYER1
  6
CONTINUOUS
 62
     1
 10
446.182063
 20
754.930325
 11
446.844251
 21
754.589033
  0
LINE
  8
CSLAYER1
  6
CONTINUOUS
 62
     1
 10
446.844251
 20
754.589033
 11
447.467151
 21
754.202348
  0
LINE
  8
CSLAYER1
  6
CONTINUOUS
 62
     1
 10
447.467151
 20
754.202348
 11
448.046024
 21
753.773214
  0
LINE
  8
CSLAYER1
  6
CONTINUOUS
 62
     1
 10
448.046024
 20
753.773214
 11
448.576463
 21
753.304896
  0
LINE
  8
CSLAYER1
  6
CONTINUOUS
 62
     1
 10
448.576463
 20
753.304896
 11
449.054431
 21
752.800959
  0
LINE
  8
CSLAYER1
  6
CONTINUOUS
 62
     1
 10
449.054431
 20
752.800959
 11
449.476291
 21
752.265238
  0
LINE
  8
CSLAYER1
  6
CONTINUOUS
 62
     1
 10
449.476291
 20
752.265238
 11
449.838833
 21
751.701810
  0
LINE
  8
CSLAYER1
  6
CONTINUOUS
 62
     1
 10
449.838833
 20
751.701810
 11
450.139296
 21
751.114962
  0
LINE
  8
CSLAYER1
  6
CONTINUOUS
 62
     1
 10
450.139296
 20
751.114962
 11
450.375395
 21
750.509162
  0
LINE
  8
CSLAYER1
  6
CONTINUOUS
 62
     1
 10
450.375395
 20
750.509162
 11
450.545332
 21
749.889020
  0
LINE
  8
CSLAYER1
  6
CONTINUOUS
 62
     1
 10
450.545332
 20
749.889020
 11
450.647815
 21
749.259256
  0
LINE
  8
CSLAYER1
  6
CONTINUOUS
 62
     1
 10
450.647815
 20
749.259256
 11
450.682063
 21
748.624661
  0
LINE
  8
CSLAYER1
  6
CONTINUOUS
 62
     1
 10
432.682063
 20
748.624661
 11
432.682063
 21
742.948756
  0
LINE
  8
CSLAYER1
  6
CONTINUOUS
 62
     1
 10
450.682063
 20
748.624661
 11
450.682063
 21
742.948756
  0
ARC
  8
CSLAYER1
  6
CONTINUOUS
 62
     1
 10
454.223861
 20
812.706598
 40
10.000000
 50
90.000000
 51
129.006238
  0
ARC
  8
CSLAYER1
  6
CONTINUOUS
 62
     1
 10
454.223861
 20
789.247431
 40
10.000000
 50
90.000000
 51
129.006238
  0
ARC
  8
CSLAYER1
  6
CONTINUOUS
 62
     1
 10
420.682063
 20
785.538938
 40
10.000000
 50
129.006238
 51
180.000000
  0
ARC
  8
CSLAYER1
  6
CONTINUOUS
 62
     1
 10
420.682063
 20
762.079771
 40
10.000000
 50
129.006238
 51
180.000000
  0
ARC
  8
CSLAYER1
  6
CONTINUOUS
 62
     1
 10
420.682063
 20
735.169551
 40
10.000000
 50
180.000000
 51
230.993762
  0
ARC
  8
CSLAYER1
  6
CONTINUOUS
 62
     1
 10
471.682063
 20
783.172699
 40
10.000000
 50
90.000000
 51
180.000000
  0
ARC
  8
CSLAYER1
  6
CONTINUOUS
 62
     1
 10
471.682063
 20
773.291731
 40
10.000000
 50
90.000000
 51
180.000000
  0
POINT
  8
CSLAYER1
 62
     5
 10
623.682063
 20
760.354245
  0
LINE
  8
CSLAYER1
  6
CONTINUOUS
 62
     3
 10
314.982063
 20
1039.871763
 11
314.982063
 21
1049.371763
  0
LINE
  8
CSLAYER1
  6
CONTINUOUS
 62
     4
 10
318.182063
 20
1161.071763
 11
318.182063
 21
1020.871763
  0
LINE
  8
CSLAYER1
  6
CONTINUOUS
 62
     4
 10
359.182063
 20
1110.871763
 11
359.182063
 21
1020.871763
  0
LINE
  8
CSLAYER1
  6
CONTINUOUS
 62
     4
 10
359.182063
 20
1020.871763
 11
318.182063
 21
1020.871763
  0
LINE
  8
CSLAYER1
  6
CONTINUOUS
 62
     4
 10
314.982063
 20
1062.871763
 11
314.982063
 21
1031.871763
  0
LINE
  8
CSLAYER1
  6
CONTINUOUS
 62
     4
 10
314.982063
 20
1035.871763
 11
318.182063
 21
1035.871763
  0
LINE
  8
CSLAYER1
  6
CONTINUOUS
 62
     5
 10
310.491189
 20
1054.871763
 11
324.182063
 21
1054.871763
  0
LINE
  8
CSLAYER1
  6
CONTINUOUS
 62
     4
 10
314.982063
 20
1062.871763
 11
318.182063
 21
1062.871763
  0
LINE
  8
CSLAYER1
  6
CONTINUOUS
 62
     4
 10
314.982063
 20
1031.871763
 11
318.182063
 21
1031.871763
  0
LINE
  8
CSLAYER1
  6
CONTINUOUS
 62
     4
 10
314.982063
 20
1043.871763
 11
318.182063
 21
1043.871763
  0
LINE
  8
CSLAYER1
  6
CONTINUOUS
 62
     4
 10
766.682063
 20
1161.071763
 11
266.682063
 21
1161.071763
  0
LINE
  8
CSLAYER1
  6
CONTINUOUS
 62
     4
 10
766.682063
 20
1211.071763
 11
766.682063
 21
1161.071763
  0
LINE
  8
CSLAYER1
  6
CONTINUOUS
 62
     4
 10
673.682063
 20
1110.871763
 11
673.682063
 21
1060.871763
  0
ARC
  8
CSLAYER1
  6
CONTINUOUS
 62
     4
 10
763.682063
 20
1211.071763
 40
3.000000
 50
0.000000
 51
90.000000
  0
LINE
  8
CSLAYER1
  6
CONTINUOUS
 62
     4
 10
601.682063
 20
1018.346507
 11
601.682063
 21
1066.929197
  0
LINE
  8
CSLAYER1
  6
CONTINUOUS
 62
     4
 10
581.682063
 20
1018.346507
 11
581.682063
 21
1066.929197
  0
POINT
  8
CSLAYER1
 62
     4
 10
591.682063
 20
1001.346505
  0
LINE
  8
CSLAYER1
  6
CONTINUOUS
 62
     5
 10
605.807439
 20
1001.346507
 11
577.568349
 21
1001.346507
  0
LINE
  8
CSLAYER1
  6
CONTINUOUS
 62
     4
 10
579.157063
 20
1016.346505
 11
604.207063
 21
1016.346505
  0
POINT
  8
CSLAYER1
 62
     4
 10
591.682063
 20
969.596505
  0
LINE
  8
CSLAYER1
  6
CONTINUOUS
 62
     4
 10
605.207063
 20
1015.346505
 11
605.207063
 21
922.796505
  0
LINE
  8
CSLAYER1
  6
CONTINUOUS
 62
     4
 10
601.207063
 20
984.646505
 11
601.207063
 21
922.796505
  0
LINE
  8
CSLAYER1
  6
CONTINUOUS
 62
     4
 10
601.207063
 20
984.646505
 11
605.207063
 21
984.646505
  0
LINE
  8
CSLAYER1
  6
CONTINUOUS
 62
     4
 10
600.207063
 20
960.071505
 11
583.157063
 21
960.071505
  0
LINE
  8
CSLAYER1
  6
CONTINUOUS
 62
     4
 10
600.207063
 20
979.121505
 11
583.157063
 21
979.121505
  0
ARC
  8
CSLAYER1
  6
CONTINUOUS
 62
     4
 10
600.207063
 20
961.071505
 40
1.000000
 50
270.000000
 51
360.000000
  0
ARC
  8
CSLAYER1
  6
CONTINUOUS
 62
     4
 10
600.207063
 20
978.121505
 40
1.000000
 50
0.000000
 51
90.000000
  0
LINE
  8
CSLAYER1
  6
CONTINUOUS
 62
     4
 10
578.157063
 20
1015.346505
 11
578.157063
 21
922.096505
  0
LINE
  8
CSLAYER1
  6
CONTINUOUS
 62
     4
 10
582.157063
 20
984.646505
 11
582.157063
 21
922.796505
  0
LINE
  8
CSLAYER1
  6
CONTINUOUS
 62
     4
 10
582.157063
 20
984.646505
 11
578.157063
 21
984.646505
  0
ARC
  8
CSLAYER1
  6
CONTINUOUS
 62
     4
 10
583.157063
 20
961.071505
 40
1.000000
 50
180.000000
 51
270.000000
  0
ARC
  8
CSLAYER1
  6
CONTINUOUS
 62
     4
 10
583.157063
 20
978.121505
 40
1.000000
 50
90.000000
 51
180.000000
  0
LINE
  8
CSLAYER1
  6
CONTINUOUS
 62
     4
 10
611.432063
 20
965.826505
 11
611.432063
 21
973.376232
  0
LINE
  8
CSLAYER1
  6
CONTINUOUS
 62
     4
 10
605.207063
 20
956.596505
 11
609.582063
 21
956.596505
  0
LINE
  8
CSLAYER1
  6
CONTINUOUS
 62
     4
 10
605.207063
 20
1014.346505
 11
609.582063
 21
1014.346505
  0
LINE
  8
CSLAYER1
  6
CONTINUOUS
 62
     4
 10
609.582063
 20
964.826505
 11
610.432063
 21
964.826505
  0
LINE
  8
CSLAYER1
  6
CONTINUOUS
 62
     4
 10
609.582063
 20
974.376232
 11
610.432063
 21
974.376232
  0
ARC
  8
CSLAYER1
  6
CONTINUOUS
 62
     4
 10
610.432063
 20
965.826505
 40
1.000000
 50
270.000000
 51
360.000000
  0
ARC
  8
CSLAYER1
  6
CONTINUOUS
 62
     4
 10
610.432063
 20
973.376232
 40
1.000000
 50
0.000000
 51
90.000000
  0
LINE
  8
CSLAYER1
  6
CONTINUOUS
 62
     4
 10
611.432063
 20
997.576505
 11
611.432063
 21
1005.126232
  0
LINE
  8
CSLAYER1
  6
CONTINUOUS
 62
     4
 10
609.582063
 20
996.576505
 11
610.432063
 21
996.576505
  0
LINE
  8
CSLAYER1
  6
CONTINUOUS
 62
     4
 10
609.582063
 20
1006.126232
 11
610.432063
 21
1006.126232
  0
ARC
  8
CSLAYER1
  6
CONTINUOUS
 62
     4
 10
610.432063
 20
997.576505
 40
1.000000
 50
270.000000
 51
360.000000
  0
ARC
  8
CSLAYER1
  6
CONTINUOUS
 62
     4
 10
610.432063
 20
1005.126232
 40
1.000000
 50
0.000000
 51
90.000000
  0
LINE
  8
CSLAYER1
  6
CONTINUOUS
 62
     4
 10
571.932063
 20
965.826505
 11
571.932063
 21
973.376232
  0
LINE
  8
CSLAYER1
  6
CONTINUOUS
 62
     4
 10
578.157063
 20
956.596505
 11
573.782063
 21
956.596505
  0
LINE
  8
CSLAYER1
  6
CONTINUOUS
 62
     4
 10
578.157063
 20
1014.346505
 11
573.782063
 21
1014.346505
  0
LINE
  8
CSLAYER1
  6
CONTINUOUS
 62
     4
 10
573.782063
 20
964.826505
 11
572.932063
 21
964.826505
  0
LINE
  8
CSLAYER1
  6
CONTINUOUS
 62
     4
 10
573.782063
 20
974.376232
 11
572.932063
 21
974.376232
  0
ARC
  8
CSLAYER1
  6
CONTINUOUS
 62
     4
 10
572.932063
 20
965.826505
 40
1.000000
 50
180.000000
 51
270.000000
  0
ARC
  8
CSLAYER1
  6
CONTINUOUS
 62
     4
 10
572.932063
 20
973.376232
 40
1.000000
 50
90.000000
 51
180.000000
  0
LINE
  8
CSLAYER1
  6
CONTINUOUS
 62
     4
 10
568.832063
 20
997.576505
 11
568.832063
 21
1005.126232
  0
LINE
  8
CSLAYER1
  6
CONTINUOUS
 62
     4
 10
573.782063
 20
996.576505
 11
569.832063
 21
996.576505
  0
LINE
  8
CSLAYER1
  6
CONTINUOUS
 62
     4
 10
573.782063
 20
1006.126232
 11
569.832063
 21
1006.126232
  0
ARC
  8
CSLAYER1
  6
CONTINUOUS
 62
     4
 10
569.832063
 20
997.576505
 40
1.000000
 50
180.000000
 51
270.000000
  0
ARC
  8
CSLAYER1
  6
CONTINUOUS
 62
     4
 10
569.832063
 20
1005.126232
 40
1.000000
 50
90.000000
 51
180.000000
  0
LINE
  8
CSLAYER1
  6
CONTINUOUS
 62
     4
 10
578.157063
 20
1006.126232
 11
605.207063
 21
1006.126232
  0
LINE
  8
CSLAYER1
  6
CONTINUOUS
 62
     4
 10
578.157063
 20
996.576505
 11
605.207063
 21
996.576505
  0
LINE
  8
CSLAYER1
  6
CONTINUOUS
 62
     4
 10
580.157063
 20
986.346505
 11
603.207063
 21
986.346505
  0
ARC
  8
CSLAYER1
  6
CONTINUOUS
 62
     4
 10
603.207063
 20
988.346505
 40
2.000000
 50
270.000000
 51
360.000000
  0
ARC
  8
CSLAYER1
  6
CONTINUOUS
 62
     4
 10
580.157063
 20
988.346505
 40
2.000000
 50
180.000000
 51
270.000000
  0
ARC
  8
CSLAYER1
  6
CONTINUOUS
 62
     4
 10
579.682063
 20
1018.346505
 40
2.000000
 50
270.000000
 51
360.000000
  0
ARC
  8
CSLAYER1
  6
CONTINUOUS
 62
     4
 10
603.682063
 20
1018.346505
 40
2.000000
 50
180.000000
 51
270.000000
  0
ARC
  8
CSLAYER1
  6
CONTINUOUS
 62
     4
 10
579.157063
 20
1015.346505
 40
1.000000
 50
90.000000
 51
180.000000
  0
ARC
  8
CSLAYER1
  6
CONTINUOUS
 62
     4
 10
604.207063
 20
1015.346505
 40
1.000000
 50
0.000000
 51
90.000000
  0
POINT
  8
CSLAYER1
 62
     4
 10
591.682063
 20
1016.346505
  0
LINE
  8
CSLAYER1
  6
CONTINUOUS
 62
     4
 10
609.582063
 20
956.596505
 11
609.582063
 21
1014.346505
  0
LINE
  8
CSLAYER1
  6
CONTINUOUS
 62
     4
 10
573.782063
 20
956.596505
 11
573.782063
 21
1014.346505
  0
POINT
  8
CSLAYER1
 62
     4
 10
591.682063
 20
937.846505
  0
LINE
  8
CSLAYER1
  6
CONTINUOUS
 62
     4
 10
601.207063
 20
922.796505
 11
605.207063
 21
922.796505
  0
LINE
  8
CSLAYER1
  6
CONTINUOUS
 62
     4
 10
600.207063
 20
947.371505
 11
583.157063
 21
947.371505
  0
LINE
  8
CSLAYER1
  6
CONTINUOUS
 62
     4
 10
600.207063
 20
928.321505
 11
583.157063
 21
928.321505
  0
ARC
  8
CSLAYER1
  6
CONTINUOUS
 62
     4
 10
600.207063
 20
946.371505
 40
1.000000
 50
0.000000
 51
90.000000
  0
ARC
  8
CSLAYER1
  6
CONTINUOUS
 62
     4
 10
600.207063
 20
929.321505
 40
1.000000
 50
270.000000
 51
360.000000
  0
LINE
  8
CSLAYER1
  6
CONTINUOUS
 62
     4
 10
582.157063
 20
922.796505
 11
578.157063
 21
922.796505
  0
ARC
  8
CSLAYER1
  6
CONTINUOUS
 62
     4
 10
583.157063
 20
946.371505
 40
1.000000
 50
90.000000
 51
180.000000
  0
ARC
  8
CSLAYER1
  6
CONTINUOUS
 62
     4
 10
583.157063
 20
929.321505
 40
1.000000
 50
180.000000
 51
270.000000
  0
LINE
  8
CSLAYER1
  6
CONTINUOUS
 62
     4
 10
611.432063
 20
941.616505
 11
611.432063
 21
934.066779
  0
LINE
  8
CSLAYER1
  6
CONTINUOUS
 62
     4
 10
605.207063
 20
950.846505
 11
609.582063
 21
950.846505
  0
LINE
  8
CSLAYER1
  6
CONTINUOUS
 62
     4
 10
609.582063
 20
942.616505
 11
610.432063
 21
942.616505
  0
LINE
  8
CSLAYER1
  6
CONTINUOUS
 62
     4
 10
609.582063
 20
933.066779
 11
610.432063
 21
933.066779
  0
ARC
  8
CSLAYER1
  6
CONTINUOUS
 62
     4
 10
610.432063
 20
941.616505
 40
1.000000
 50
0.000000
 51
90.000000
  0
ARC
  8
CSLAYER1
  6
CONTINUOUS
 62
     4
 10
610.432063
 20
934.066779
 40
1.000000
 50
270.000000
 51
360.000000
  0
LINE
  8
CSLAYER1
  6
CONTINUOUS
 62
     4
 10
571.932063
 20
941.616505
 11
571.932063
 21
934.066779
  0
LINE
  8
CSLAYER1
  6
CONTINUOUS
 62
     4
 10
578.157063
 20
950.846505
 11
573.782063
 21
950.846505
  0
LINE
  8
CSLAYER1
  6
CONTINUOUS
 62
     4
 10
573.782063
 20
942.616505
 11
572.932063
 21
942.616505
  0
LINE
  8
CSLAYER1
  6
CONTINUOUS
 62
     4
 10
573.782063
 20
933.066779
 11
572.932063
 21
933.066779
  0
ARC
  8
CSLAYER1
  6
CONTINUOUS
 62
     4
 10
572.932063
 20
941.616505
 40
1.000000
 50
90.000000
 51
180.000000
  0
ARC
  8
CSLAYER1
  6
CONTINUOUS
 62
     4
 10
572.932063
 20
934.066779
 40
1.000000
 50
180.000000
 51
270.000000
  0
LINE
  8
CSLAYER1
  6
CONTINUOUS
 62
     4
 10
546.932063
 20
1058.679197
 11
546.932063
 21
952.659578
  0
LINE
  8
CSLAYER1
  6
CONTINUOUS
 62
     4
 10
516.682063
 20
1075.154528
 11
519.318524
 21
1075.091834
  0
LINE
  8
CSLAYER1
  6
CONTINUOUS
 62
     4
 10
516.682063
 20
958.677406
 11
520.564851
 21
958.585075
  0
LINE
  8
CSLAYER1
  6
CONTINUOUS
 62
     4
 10
520.564851
 20
958.585075
 11
524.418089
 21
958.308786
  0
LINE
  8
CSLAYER1
  6
CONTINUOUS
 62
     4
 10
524.418089
 20
958.308786
 11
528.212451
 21
957.850642
  0
LINE
  8
CSLAYER1
  6
CONTINUOUS
 62
     4
 10
528.212451
 20
957.850642
 11
531.919060
 21
957.214128
  0
LINE
  8
CSLAYER1
  6
CONTINUOUS
 62
     4
 10
531.919060
 20
957.214128
 11
535.509706
 21
956.404089
  0
LINE
  8
CSLAYER1
  6
CONTINUOUS
 62
     4
 10
535.509706
 20
956.404089
 11
538.957063
 21
955.426691
  0
LINE
  8
CSLAYER1
  6
CONTINUOUS
 62
     4
 10
538.957063
 20
955.426691
 11
542.234893
 21
954.289371
  0
LINE
  8
CSLAYER1
  6
CONTINUOUS
 62
     4
 10
542.234893
 20
954.289371
 11
545.318251
 21
953.000786
  0
LINE
  8
CSLAYER1
  6
CONTINUOUS
 62
     4
 10
545.318251
 20
953.000786
 11
548.183670
 21
951.570742
  0
LINE
  8
CSLAYER1
  6
CONTINUOUS
 62
     4
 10
548.183670
 20
951.570742
 11
550.809343
 21
950.010123
  0
LINE
  8
CSLAYER1
  6
CONTINUOUS
 62
     4
 10
550.809343
 20
950.010123
 11
553.175286
 21
948.330806
  0
LINE
  8
CSLAYER1
  6
CONTINUOUS
 62
     4
 10
553.175286
 20
948.330806
 11
555.263494
 21
946.545572
  0
LINE
  8
CSLAYER1
  6
CONTINUOUS
 62
     4
 10
555.263494
 20
946.545572
 11
557.058075
 21
944.668007
  0
LINE
  8
CSLAYER1
  6
CONTINUOUS
 62
     4
 10
557.058075
 20
944.668007
 11
558.545369
 21
942.712401
  0
LINE
  8
CSLAYER1
  6
CONTINUOUS
 62
     4
 10
558.545369
 20
942.712401
 11
559.714058
 21
940.693637
  0
LINE
  8
CSLAYER1
  6
CONTINUOUS
 62
     4
 10
559.714058
 20
940.693637
 11
560.555248
 21
938.627079
  0
LINE
  8
CSLAYER1
  6
CONTINUOUS
 62
     4
 10
560.555248
 20
938.627079
 11
561.062536
 21
936.528455
  0
LINE
  8
CSLAYER1
  6
CONTINUOUS
 62
     4
 10
561.062536
 20
936.528455
 11
561.232063
 21
934.413737
  0
LINE
  8
CSLAYER1
  6
CONTINUOUS
 62
     4
 10
715.182063
 20
1161.071763
 11
715.182063
 21
1020.871763
  0
LINE
  8
CSLAYER1
  6
CONTINUOUS
 62
     4
 10
674.182063
 20
1110.871763
 11
674.182063
 21
1020.871763
  0
LINE
  8
CSLAYER1
  6
CONTINUOUS
 62
     1
 10
1632.086650
 20
1009.362611
 11
1703.224001
 21
1060.871763
  0
LINE
  8
CSLAYER1
  6
CONTINUOUS
 62
     1
 10
1785.632256
 20
1047.699237
 11
1776.094290
 21
1060.871763
  0
LINE
  8
CSLAYER1
  6
CONTINUOUS
 62
     1
 10
1785.632256
 20
1047.699237
 11
1785.408770
 21
1046.302794
  0
LINE
  8
CSLAYER1
  6
CONTINUOUS
 62
     4
 10
1189.793576
 20
544.612334
 11
1455.868564
 21
719.723507
  0
LINE
  8
CSLAYER1
  6
CONTINUOUS
 62
     4
 10
1605.467880
 20
860.772334
 11
1572.364538
 21
819.525236
  0
LINE
  8
CSLAYER1
  6
CONTINUOUS
 62
     4
 10
1821.868511
 20
1006.089124
 11
1616.974945
 21
871.243106
  0
ARC
  8
CSLAYER1
  6
CONTINUOUS
 62
     4
 10
1644.462544
 20
829.476710
 40
50.000000
 50
123.350000
 51
141.250806
  0
LINE
  8
CSLAYER1
  6
CONTINUOUS
 62
     4
 10
1642.111937
 20
1062.568100
 11
1575.499804
 21
1018.728847
  0
LINE
  8
CSLAYER1
  6
CONTINUOUS
 62
     4
 10
1918.669455
 20
1058.802752
 11
1917.307783
 21
1060.871763
  0
LINE
  8
CSLAYER1
  6
CONTINUOUS
 62
     4
 10
1843.517714
 20
1013.980689
 11
1900.939192
 21
1020.731859
  0
ARC
  8
CSLAYER1
  6
CONTINUOUS
 62
     4
 10
1849.356110
 20
964.322728
 40
50.000000
 50
96.705606
 51
123.350000
  0
LINE
  8
CSLAYER1
  6
CONTINUOUS
 62
     4
 10
1691.375974
 20
1060.871763
 11
1637.687067
 21
1025.537636
  0
LINE
  8
CSLAYER1
  6
CONTINUOUS
 62
     4
 10
1809.611107
 20
1060.871763
 11
1673.420946
 21
971.241321
  0
ARC
  8
CSLAYER1
  6
CONTINUOUS
 62
     4
 10
1655.554007
 20
998.389478
 40
32.500000
 50
123.350000
 51
303.350000
  0
LINE
  8
CSLAYER1
  6
CONTINUOUS
 62
     4
 10
1475.873634
 20
725.706579
 11
1455.868564
 21
719.723507
  0
LINE
  8
CSLAYER1
  6
CONTINUOUS
 62
     4
 10
1475.873634
 20
725.706579
 11
1504.445983
 21
744.510817
  0
LINE
  8
CSLAYER1
  6
CONTINUOUS
 62
     4
 10
1216.272602
 20
1053.879007
 11
1119.311937
 21
1057.197749
  0
LINE
  8
CSLAYER1
  6
CONTINUOUS
 62
     4
 10
1216.272602
 20
1053.879007
 11
1876.181667
 21
619.574936
  0
LINE
  8
CSLAYER1
  6
CONTINUOUS
 62
     4
 10
1095.439701
 20
1020.871763
 11
1436.077492
 21
796.688785
  0
LINE
  8
CSLAYER1
  6
CONTINUOUS
 62
     4
 10
1533.018332
 20
725.706579
 11
1449.485539
 21
780.681778
  0
LINE
  8
CSLAYER1
  6
CONTINUOUS
 62
     4
 10
1533.018332
 20
725.706579
 11
1553.023402
 21
719.723507
  0
LINE
  8
CSLAYER1
  6
CONTINUOUS
 62
     4
 10
1553.023402
 20
719.723507
 11
1819.098389
 21
544.612334
  0
LINE
  8
CSLAYER1
  6
CONTINUOUS
 62
     4
 10
1876.181667
 20
619.574936
 11
1911.552861
 21
544.612334
  0
LINE
  8
CSLAYER1
  6
CONTINUOUS
 62
     4
 10
1449.485539
 20
780.681778
 11
1436.077492
 21
796.688785
  0
LINE
  8
CSLAYER1
  6
CONTINUOUS
 62
     4
 10
1714.459687
 20
726.008561
 11
1607.640582
 21
860.642793
  0
ARC
  8
CSLAYER1
  6
CONTINUOUS
 62
     7
 10
1060.511937
 20
1210.871763
 40
3.200000
 50
90.000000
 51
180.000000
  0
LINE
  8
CSLAYER1
  6
CONTINUOUS
 62
     7
 10
2104.111937
 20
1088.871763
 11
2101.111937
 21
1085.871763
  0
LINE
  8
CSLAYER1
  6
CONTINUOUS
 62
     7
 10
2092.111937
 20
1063.871763
 11
2089.111937
 21
1060.871763
  0
LINE
  8
CSLAYER1
  6
CONTINUOUS
 62
     7
 10
1099.917248
 20
562.529400
 11
1102.329570
 21
555.188688
  0
LINE
  8
CSLAYER1
  6
CONTINUOUS
 62
     7
 10
1099.917248
 20
562.529400
 11
1106.871649
 21
564.814772
  0
LINE
  8
CSLAYER1
  6
CONTINUOUS
 62
     7
 10
1095.131107
 20
586.745569
 11
1104.606015
 21
589.859236
  0
LINE
  8
CSLAYER1
  6
CONTINUOUS
 62
     7
 10
1095.286759
 20
578.221561
 11
1100.392256
 21
562.685499
  0
LINE
  8
CSLAYER1
  6
CONTINUOUS
 62
     7
 10
1109.537020
 20
582.904515
 11
1111.946982
 21
575.570986
  0
LINE
  8
CSLAYER1
  6
CONTINUOUS
 62
     7
 10
1096.825467
 20
597.562556
 11
1107.293395
 21
565.708584
  0
LINE
  8
CSLAYER1
  6
CONTINUOUS
 62
     7
 10
1104.606015
 20
589.859236
 11
1109.537020
 21
582.904515
  0
LINE
  8
CSLAYER1
  6
CONTINUOUS
 62
     7
 10
1095.131107
 20
586.745569
 11
1095.286759
 21
578.221561
  0
LINE
  8
CSLAYER1
  6
CONTINUOUS
 62
     7
 10
1098.096428
 20
600.101228
 11
1101.768596
 21
588.926796
  0
LINE
  8
CSLAYER1
  6
CONTINUOUS
 62
     7
 10
1094.296358
 20
598.852440
 11
1097.968526
 21
587.678008
  0
ARC
  8
CSLAYER1
  6
CONTINUOUS
 62
     7
 10
1088.596254
 20
596.979258
 40
10.000000
 50
18.191680
 51
172.646207
  0
ARC
  8
CSLAYER1
  6
CONTINUOUS
 62
     7
 10
1088.596254
 20
596.979258
 40
6.000000
 50
18.191680
 51
179.490121
  0
LINE
  8
CSLAYER1
  6
CONTINUOUS
 62
     7
 10
1100.012249
 20
562.560620
 11
1102.391618
 21
555.320187
  0
CIRCLE
  8
CSLAYER1
  6
CONTINUOUS
 62
     7
 10
1339.343274
 20
760.354245
 40
14.100000
  0
LINE
  8
CSLAYER1
  6
CONTINUOUS
 62
     7
 10
1184.501936
 20
687.744603
 11
1193.851113
 21
674.832806
  0
LINE
  8
CSLAYER1
  6
CENTER
 62
     5
 10
1272.596726
 20
768.770024
 11
1337.355403
 21
815.660503
  0
CIRCLE
  8
CSLAYER1
  6
CONTINUOUS
 62
     7
 10
1407.152049
 20
682.904455
 40
0.500000
  0
LINE
  8
CSLAYER1
  6
CONTINUOUS
 62
     7
 10
1280.358097
 20
785.548469
 11
1290.887634
 21
793.172699
  0
LINE
  8
CSLAYER1
  6
CONTINUOUS
 62
     7
 10
1068.901879
 20
641.079553
 11
1113.678395
 21
579.240391
  0
LINE
  8
CSLAYER1
  6
CONTINUOUS
 62
     7
 10
1115.069845
 20
674.508866
 11
1132.664220
 21
650.209936
  0
LINE
  8
CSLAYER1
  6
CONTINUOUS
 62
     7
 10
1227.207914
 20
753.236583
 11
1248.392668
 21
723.979116
  0
LINE
  8
CSLAYER1
  6
CONTINUOUS
 62
     7
 10
1286.489040
 20
799.247431
 11
1304.428512
 21
774.471900
  0
LINE
  8
CSLAYER1
  6
CONTINUOUS
 62
     7
 10
1068.901879
 20
641.079553
 11
1115.069845
 21
674.508866
  0
LINE
  8
CSLAYER1
  6
CONTINUOUS
 62
     7
 10
1116.242803
 20
672.888937
 11
1233.687629
 21
757.928416
  0
LINE
  8
CSLAYER1
  6
CONTINUOUS
 62
     7
 10
1241.256325
 20
756.001026
 11
1280.944577
 21
784.738505
  0
LINE
  8
CSLAYER1
  6
CONTINUOUS
 62
     7
 10
1068.901879
 20
641.079553
 11
1072.978790
 21
621.808362
  0
LINE
  8
CSLAYER1
  6
CONTINUOUS
 62
     7
 10
1195.575963
 20
692.059220
 11
1202.443276
 21
682.575033
  0
LINE
  8
CSLAYER1
  6
CONTINUOUS
 62
     7
 10
1129.563872
 20
644.261168
 11
1141.420913
 21
627.885855
  0
LINE
  8
CSLAYER1
  6
CONTINUOUS
 62
     7
 10
1130.234327
 20
648.450499
 11
1243.629331
 21
730.557582
  0
LINE
  8
CSLAYER1
  6
CONTINUOUS
 62
     7
 10
1097.745075
 20
587.604577
 11
1086.809645
 21
602.707088
  0
ARC
  8
CSLAYER1
  6
CONTINUOUS
 62
     7
 10
1131.993765
 20
646.020606
 40
3.000000
 50
125.907555
 51
215.907555
  0
ARC
  8
CSLAYER1
  6
CONTINUOUS
 62
     7
 10
1193.146070
 20
690.299783
 40
3.000000
 50
35.907555
 51
125.907555
  0
LINE
  8
CSLAYER1
  6
CONTINUOUS
 62
     7
 10
1280.358097
 20
785.548469
 11
1294.715633
 21
765.719818
  0
LINE
  8
CSLAYER1
  6
CONTINUOUS
 62
     7
 10
1253.405790
 20
764.798213
 11
1269.312717
 21
742.829756
  0
LINE
  8
CSLAYER1
  6
CONTINUOUS
 62
     7
 10
1236.480516
 20
757.481446
 11
1255.864114
 21
730.711487
  0
ARC
  8
CSLAYER1
  6
CONTINUOUS
 62
     7
 10
1239.496888
 20
758.430919
 40
3.000000
 50
215.907555
 51
305.907555
  0
LINE
  8
CSLAYER1
  6
CONTINUOUS
 62
     7
 10
1197.921880
 20
688.819363
 11
1247.734685
 21
724.887832
  0
LINE
  8
CSLAYER1
  6
CONTINUOUS
 62
     7
 10
1120.934637
 20
666.409223
 11
1231.899748
 21
746.756868
  0
LINE
  8
CSLAYER1
  6
CONTINUOUS
 62
     7
 10
1119.761678
 20
668.029151
 11
1230.726789
 21
748.376797
  0
ARC
  8
CSLAYER1
  6
CONTINUOUS
 62
     7
 10
1234.860587
 20
756.308487
 40
2.000000
 50
35.907555
 51
125.907555
  0
LINE
  8
CSLAYER1
  6
CONTINUOUS
 62
     7
 10
1318.887612
 20
822.706598
 11
1334.314296
 21
801.401385
  0
LINE
  8
CSLAYER1
  6
CONTINUOUS
 62
     7
 10
1329.229529
 20
817.801763
 11
1336.853758
 21
807.272227
  0
LINE
  8
CSLAYER1
  6
CONTINUOUS
 62
     7
 10
1279.522913
 20
783.291731
 11
1288.554692
 21
770.818280
  0
LINE
  8
CSLAYER1
  6
CONTINUOUS
 62
     7
 10
1279.522913
 20
783.291731
 11
1281.142841
 21
784.464689
  0
LINE
  8
CSLAYER1
  6
CONTINUOUS
 62
     7
 10
1274.961920
 20
778.507659
 11
1282.586149
 21
767.978123
  0
LINE
  8
CSLAYER1
  6
CONTINUOUS
 62
     7
 10
1328.169562
 20
818.275741
 11
1324.184989
 21
815.390590
  0
LINE
  8
CSLAYER1
  6
CONTINUOUS
 62
     7
 10
1330.370488
 20
815.236126
 11
1326.385914
 21
812.350975
  0
LINE
  8
CSLAYER1
  6
CONTINUOUS
 62
     7
 10
1274.961920
 20
778.507659
 11
1274.842414
 21
779.662606
  0
LINE
  8
CSLAYER1
  6
CONTINUOUS
 62
     7
 10
1329.229529
 20
817.801763
 11
1328.169562
 21
818.275741
  0
LINE
  8
CSLAYER1
  6
CONTINUOUS
 62
     7
 10
1279.636952
 20
783.134236
 11
1274.842414
 21
779.662606
  0
ARC
  8
CSLAYER1
  6
CONTINUOUS
 62
     7
 10
1278.127700
 20
779.724786
 40
3.285875
 50
191.221060
 51
250.871938
  0
ARC
  8
CSLAYER1
  6
CONTINUOUS
 62
     7
 10
1327.111532
 20
815.193011
 40
3.259241
 50
0.535937
 51
61.473454
  0
ARC
  8
CSLAYER1
  6
CONTINUOUS
 62
     7
 10
1322.982337
 20
805.253250
 40
12.419443
 50
18.319601
 51
53.495509
  0
ARC
  8
CSLAYER1
  6
CONTINUOUS
 62
     7
 10
1288.833340
 20
780.526636
 40
12.419443
 50
198.319601
 51
233.495509
  0
LINE
  8
CSLAYER1
  6
CONTINUOUS
 62
     7
 10
1281.837877
 20
780.094621
 11
1277.043339
 21
776.622991
  0
LINE
  8
CSLAYER1
  6
CONTINUOUS
 62
     7
 10
1274.003778
 20
773.863096
 11
1277.874540
 21
768.517332
  0
LINE
  8
CSLAYER1
  6
CONTINUOUS
 62
     7
 10
1274.160218
 20
774.840607
 11
1276.428118
 21
776.482748
  0
LINE
  8
CSLAYER1
  6
CONTINUOUS
 62
     7
 10
1274.003778
 20
773.863096
 11
1276.838653
 21
775.915773
  0
LINE
  8
CSLAYER1
  6
CONTINUOUS
 62
     7
 10
1274.160218
 20
774.840607
 11
1274.003778
 21
773.863096
  0
LINE
  8
CSLAYER1
  6
CONTINUOUS
 62
     7
 10
1274.160218
 20
774.840607
 11
1278.852051
 21
768.360892
  0
LINE
  8
CSLAYER1
  6
CONTINUOUS
 62
     7
 10
1288.554692
 20
770.818280
 11
1290.174621
 21
771.991239
  0
LINE
  8
CSLAYER1
  6
CONTINUOUS
 62
     7
 10
1282.586149
 20
767.978123
 11
1283.646115
 21
767.504145
  0
LINE
  8
CSLAYER1
  6
CONTINUOUS
 62
     7
 10
1288.440653
 20
770.975775
 11
1283.646115
 21
767.504145
  0
ARC
  8
CSLAYER1
  6
CONTINUOUS
 62
     7
 10
1284.730477
 20
770.605941
 40
3.285875
 50
180.943172
 51
240.594050
  0
LINE
  8
CSLAYER1
  6
CONTINUOUS
 62
     7
 10
1286.239728
 20
774.015390
 11
1281.445190
 21
770.543760
  0
LINE
  8
CSLAYER1
  6
CONTINUOUS
 62
     7
 10
1278.852051
 20
768.360892
 11
1281.119951
 21
770.003034
  0
LINE
  8
CSLAYER1
  6
CONTINUOUS
 62
     7
 10
1277.874540
 20
768.517332
 11
1280.709416
 21
770.570009
  0
LINE
  8
CSLAYER1
  6
CONTINUOUS
 62
     7
 10
1278.852051
 20
768.360892
 11
1277.874540
 21
768.517332
  0
LINE
  8
CSLAYER1
  6
CONTINUOUS
 62
     7
 10
1284.725082
 20
779.517392
 11
1285.294196
 21
775.321229
  0
LINE
  8
CSLAYER1
  6
CONTINUOUS
 62
     7
 10
1286.489040
 20
799.247431
 11
1318.887612
 21
822.706598
  0
LINE
  8
CSLAYER1
  6
CONTINUOUS
 62
     4
 10
1132.710299
 20
619.574936
 11
1097.339104
 21
544.612334
  0
LINE
  8
CSLAYER1
  6
CONTINUOUS
 62
     7
 10
1084.388464
 20
606.050890
 11
1072.978790
 21
621.808362
  0
CIRCLE
  8
CSLAYER1
  6
CONTINUOUS
 62
     7
 10
1504.445983
 20
773.242049
 40
9.000000
  0
CIRCLE
  8
CSLAYER1
  6
CONTINUOUS
 62
     7
 10
1504.445983
 20
773.242049
 40
10.000000
  0
CIRCLE
  8
CSLAYER1
  6
CONTINUOUS
 62
     7
 10
1504.445983
 20
773.242049
 40
15.000000
  0
LINE
  8
CSLAYER1
  6
CONTINUOUS
 62
     7
 10
1519.445983
 20
781.902303
 11
1504.445983
 21
790.562557
  0
LINE
  8
CSLAYER1
  6
CONTINUOUS
 62
     7
 10
1504.445983
 20
790.562557
 11
1489.445983
 21
781.902303
  0
LINE
  8
CSLAYER1
  6
CONTINUOUS
 62
     7
 10
1489.445983
 20
781.902303
 11
1489.445983
 21
764.581795
  0
LINE
  8
CSLAYER1
  6
CONTINUOUS
 62
     7
 10
1489.445983
 20
764.581795
 11
1504.445983
 21
755.921540
  0
LINE
  8
CSLAYER1
  6
CONTINUOUS
 62
     7
 10
1504.445983
 20
755.921540
 11
1519.445983
 21
764.581795
  0
LINE
  8
CSLAYER1
  6
CONTINUOUS
 62
     7
 10
1519.445983
 20
764.581795
 11
1519.445983
 21
781.902303
  0
LINE
  8
CSLAYER1
  6
CONTINUOUS
 62
     5
 10
1474.222031
 20
773.242049
 11
1533.304521
 21
773.242049
  0
LINE
  8
CSLAYER1
  6
CONTINUOUS
 62
     5
 10
1504.445983
 20
804.669957
 11
1504.445983
 21
744.510817
  0
LINE
  8
CSLAYER1
  6
CONTINUOUS
 62
     5
 10
1909.580029
 20
526.612334
 11
1909.580029
 21
486.612334
  0
LINE
  8
CSLAYER1
  6
CONTINUOUS
 62
     5
 10
1889.580029
 20
506.612334
 11
1929.580029
 21
506.612334
  0
LINE
  8
CSLAYER1
  6
CONTINUOUS
 62
     5
 10
1909.580029
 20
1069.045075
 11
1909.580029
 21
1009.812213
  0
LINE
  8
CSLAYER1
  6
CONTINUOUS
 62
     5
 10
1312.738685
 20
760.354245
 11
1365.589181
 21
760.354245
  0
LINE
  8
CSLAYER1
  6
CONTINUOUS
 62
     5
 10
1339.343274
 20
786.690248
 11
1339.343274
 21
736.992540
  0
LINE
  8
CSLAYER1
  6
CONTINUOUS
 62
     5
 10
1079.311937
 20
506.612334
 11
1119.311937
 21
506.612334
  0
LINE
  8
CSLAYER1
  6
CONTINUOUS
 62
     5
 10
1099.311937
 20
526.612334
 11
1099.311937
 21
486.612334
  0
LINE
  8
CSLAYER1
  6
CONTINUOUS
 62
     5
 10
3400.647141
 20
1879.126521
 11
2679.774624
 21
1879.126521
  0
LINE
  8
CSLAYER1
  6
CONTINUOUS
 62
     5
 10
3400.647141
 20
1815.126522
 11
2679.774624
 21
1815.126522
  0
LINE
  8
CSLAYER1
  6
CONTINUOUS
 62
     5
 10
3400.647141
 20
1751.126524
 11
2679.774624
 21
1751.126524
  0
LINE
  8
CSLAYER1
  6
CONTINUOUS
 62
     5
 10
3400.647141
 20
1687.126525
 11
2680.647160
 21
1687.126525
  0
LINE
  8
CSLAYER1
  6
CONTINUOUS
 62
     5
 10
3400.647141
 20
1623.126527
 11
2679.774624
 21
1623.126527
  0
LINE
  8
CSLAYER1
  6
CONTINUOUS
 62
     5
 10
3400.647141
 20
1559.126529
 11
2679.774624
 21
1559.126529
  0
LINE
  8
CSLAYER1
  6
CONTINUOUS
 62
     5
 10
3400.647141
 20
1495.126530
 11
2679.774624
 21
1495.126530
  0
LINE
  8
CSLAYER1
  6
CONTINUOUS
 62
     5
 10
3400.647141
 20
1431.126532
 11
2679.774624
 21
1431.126532
  0
LINE
  8
CSLAYER1
  6
CONTINUOUS
 62
     5
 10
3400.647141
 20
1367.126533
 11
2679.774624
 21
1367.126533
  0
TEXT
  8
CSLAYER1
 62
     3
 10
2995.443359
 20
1990.668091
 40
40.000000
 41
0.857143
  1
仕   様
 50
0.000000
 51
0.000000
  7
EASYDRAW_FONT
 72
     5
 11
3155.443359
 21
1990.668091
  0
TEXT
  8
CSLAYER1
 62
     3
 10
2690.534424
 20
1887.349243
 40
40.000000
 41
0.847059
  1
型    式
 50
0.000000
 51
0.000000
  7
EASYDRAW_FONT
 72
     5
 11
2882.534424
 21
1887.349243
  0
TEXT
  8
CSLAYER1
 62
     3
 10
2688.714844
 20
1764.859497
 40
40.000000
 41
0.847059
  1
テーブル寸法
 50
0.000000
 51
0.000000
  7
EASYDRAW_FONT
 72
     5
 11
2880.714844
 21
1764.859497
  0
TEXT
  8
CSLAYER1
 62
     3
 10
2690.534424
 20
1701.795532
 40
40.000000
 41
0.847059
  1
テーブル高サ
 50
0.000000
 51
0.000000
  7
EASYDRAW_FONT
 72
     5
 11
2882.534424
 21
1701.795532
  0
TEXT
  8
CSLAYER1
 62
     3
 10
2691.981201
 20
1636.912720
 40
40.000000
 41
0.857143
  1
ストローク
 50
0.000000
 51
0.000000
  7
EASYDRAW_FONT
 72
     5
 11
2851.981201
 21
1636.912720
  0
TEXT
  8
CSLAYER1
 62
     3
 10
2691.375000
 20
1572.029907
 40
40.000000
 41
0.857143
  1
全   長
 50
0.000000
 51
0.000000
  7
EASYDRAW_FONT
 72
     5
 11
2851.375000
 21
1572.029907
  0
TEXT
  8
CSLAYER1
 62
     3
 10
2693.646240
 20
1506.179321
 40
40.000000
 41
0.857143
  1
全   巾
 50
0.000000
 51
0.000000
  7
EASYDRAW_FONT
 72
     5
 11
2853.646240
 21
1506.179321
  0
TEXT
  8
CSLAYER1
 62
     3
 10
2692.088379
 20
1442.294067
 40
40.000000
 41
0.857143
  1
全   高
 50
0.000000
 51
0.000000
  7
EASYDRAW_FONT
 72
     5
 11
2852.088379
 21
1442.294067
  0
TEXT
  8
CSLAYER1
 62
     3
 10
2692.088379
 20
1379.967407
 40
40.000000
 41
0.857143
  1
リフト方式
 50
0.000000
 51
0.000000
  7
EASYDRAW_FONT
 72
     5
 11
2852.088379
 21
1379.967407
  0
TEXT
  8
CSLAYER1
 62
     3
 10
3143.956787
 20
1825.858032
 40
40.000000
 41
0.872727
  1
1000
 50
0.000000
 51
0.000000
  7
EASYDRAW_FONT
 72
     5
 11
3271.956787
 21
1825.858032
  0
TEXT
  8
CSLAYER1
 62
     3
 10
3330.113525
 20
1822.184692
 40
40.000000
 41
0.960000
  1
Ｋｇ
 50
0.000000
 51
0.000000
  7
EASYDRAW_FONT
 72
     5
 11
3394.113525
 21
1822.184692
  0
TEXT
  8
CSLAYER1
 62
     3
 10
2982.841064
 20
1761.354614
 40
40.000000
 41
0.830769
  1
1050 ×500
 50
0.000000
 51
0.000000
  7
EASYDRAW_FONT
 72
     5
 11
3270.841064
 21
1761.354614
  0
TEXT
  8
CSLAYER1
 62
     3
 10
3276.295410
 20
1773.041138
 40
40.000000
 41
1.200000
  1
Ｗ
 50
0.000000
 51
0.000000
  7
EASYDRAW_FONT
 72
     5
 11
3308.295410
 21
1773.041138
  0
TEXT
  8
CSLAYER1
 62
     3
 10
3103.569092
 20
1775.651489
 40
40.000000
 41
1.200000
  1
Ｌ
 50
0.000000
 51
0.000000
  7
EASYDRAW_FONT
 72
     5
 11
3135.569092
 21
1775.651489
  0
TEXT
  8
CSLAYER1
 62
     3
 10
3043.548584
 20
1698.820923
 40
40.000000
 41
0.840000
  1
205～705
 50
0.000000
 51
0.000000
  7
EASYDRAW_FONT
 72
     5
 11
3267.548584
 21
1698.820923
  0
TEXT
  8
CSLAYER1
 62
     3
 10
3169.795166
 20
1635.146118
 40
40.000000
 41
0.900000
  1
500
 50
0.000000
 51
0.000000
  7
EASYDRAW_FONT
 72
     5
 11
3265.795166
 21
1635.146118
  0
TEXT
  8
CSLAYER1
 62
     3
 10
3140.172852
 20
1571.575317
 40
40.000000
 41
0.872727
  1
1050
 50
0.000000
 51
0.000000
  7
EASYDRAW_FONT
 72
     5
 11
3268.172852
 21
1571.575317
  0
TEXT
  8
CSLAYER1
 62
     3
 10
3171.914307
 20
1507.056274
 40
40.000000
 41
0.900000
  1
500
 50
0.000000
 51
0.000000
  7
EASYDRAW_FONT
 72
     5
 11
3267.914307
 21
1507.056274
  0
TEXT
  8
CSLAYER1
 62
     3
 10
2963.125488
 20
1380.921997
 40
40.000000
 41
0.827586
  1
電 動 ボールネジ式
 50
0.000000
 51
0.000000
  7
EASYDRAW_FONT
 72
     5
 11
3283.125488
 21
1380.921997
  0
TEXT
  8
CSLAYER1
 62
     3
 10
3169.905518
 20
1442.394653
 40
40.000000
 41
0.900000
  1
205
 50
0.000000
 51
0.000000
  7
EASYDRAW_FONT
 72
     5
 11
3265.905518
 21
1442.394653
  0
TEXT
  8
CSLAYER1
 62
     3
 10
3327.599365
 20
1758.081177
 40
40.000000
 41
0.960000
  1
mm
 50
0.000000
 51
0.000000
  7
EASYDRAW_FONT
 72
     5
 11
3391.599365
 21
1758.081177
  0
TEXT
  8
CSLAYER1
 62
     3
 10
3327.599365
 20
1697.748169
 40
40.000000
 41
0.960000
  1
mm
 50
0.000000
 51
0.000000
  7
EASYDRAW_FONT
 72
     5
 11
3391.599365
 21
1697.748169
  0
TEXT
  8
CSLAYER1
 62
     3
 10
3323.828613
 20
1633.644165
 40
40.000000
 41
0.960000
  1
mm
 50
0.000000
 51
0.000000
  7
EASYDRAW_FONT
 72
     5
 11
3387.828613
 21
1633.644165
  0
TEXT
  8
CSLAYER1
 62
     3
 10
3323.828613
 20
1565.769165
 40
40.000000
 41
0.960000
  1
mm
 50
0.000000
 51
0.000000
  7
EASYDRAW_FONT
 72
     5
 11
3387.828613
 21
1565.769165
  0
TEXT
  8
CSLAYER1
 62
     3
 10
3321.315186
 20
1505.436157
 40
40.000000
 41
0.960000
  1
mm
 50
0.000000
 51
0.000000
  7
EASYDRAW_FONT
 72
     5
 11
3385.315186
 21
1505.436157
  0
TEXT
  8
CSLAYER1
 62
     3
 10
3321.315186
 20
1441.331665
 40
40.000000
 41
0.960000
  1
mm
 50
0.000000
 51
0.000000
  7
EASYDRAW_FONT
 72
     5
 11
3385.315186
 21
1441.331665
  0
LINE
  8
CSLAYER1
  6
CONTINUOUS
 62
     5
 10
3183.496081
 20
1974.849215
 11
2975.110109
 21
1974.849215
  0
LINE
  8
CSLAYER1
  6
CONTINUOUS
 62
     5
 10
3183.496081
 20
1982.849215
 11
2975.110109
 21
1982.849215
  0
LINE
  8
CSLAYER1
  6
PHANTOM
 62
     5
 10
1057.311937
 20
684.612334
 11
2107.311937
 21
684.612334
  0
LINE
  8
CSLAYER1
  6
PHANTOM
 62
     5
 10
1057.311937
 20
631.612334
 11
2107.311937
 21
631.612334
  0
LINE
  8
CSLAYER1
  6
PHANTOM
 62
     5
 10
1057.311937
 20
684.612334
 11
1057.311937
 21
631.612334
  0
LINE
  8
CSLAYER1
  6
PHANTOM
 62
     5
 10
2107.311937
 20
684.612334
 11
2107.311937
 21
631.612334
  0
DIMENSION
  8
CSLAYER1
 62
     7
  2
*D0000
 10
2207.311937
 20
684.612334
 11
2257.201904
 21
582.174561
 13
2107.311937
 23
479.612334
 14
2107.311937
 24
684.612334
 50
90.000000
 70
1
  0
DIMENSION
  8
CSLAYER1
 62
     7
  2
*D0001
 10
2207.311937
 20
684.612334
 11
2197.312012
 21
949.341980
 13
2207.311937
 23
1214.071763
 14
2207.311937
 24
684.612334
 50
90.000000
 70
1
  0
DIMENSION
  8
CSLAYER1
 62
     7
  2
*D0002
 10
2307.311937
 20
1214.071763
 11
2297.312012
 21
846.842041
 13
2104.286761
 23
479.612334
 14
2104.286761
 24
1214.071763
 50
90.000000
 70
1
  0
DIMENSION
  8
CSLAYER1
 62
     7
  2
*D0003
 10
950.895749
 20
2035.274435
 11
940.895752
 21
1785.274536
 13
1057.311937
 23
1535.274435
 14
1057.311937
 24
2035.274435
 50
90.000000
 70
1
  0
DIMENSION
  8
CSLAYER1
 62
     7
  2
*D0004
 10
2107.311937
 20
1306.941101
 11
1582.312012
 21
1316.941040
 13
1057.311937
 23
1210.871763
 14
2107.311937
 24
1211.071763
  0
DIMENSION
  8
CSLAYER1
 62
     7
  2
*D0005
 10
2107.311937
 20
368.128316
 11
1582.312012
 21
378.128357
 13
1057.311937
 23
479.612334
 14
2107.311937
 24
479.612334
 52
270.000000
 70
1
  0
DIMENSION
  8
CSLAYER1
 62
     7
  2
*D0006
 10
766.682063
 20
368.128316
 11
516.682007
 21
378.128357
 13
266.682063
 23
479.612334
 14
766.682063
 24
479.612334
 52
270.000000
 70
1
  0
LINE
  8
CSLAYER1
  6
CONTINUOUS
 62
     4
 10
350.682063
 20
681.319090
 11
393.682063
 21
681.319090
  0
LINE
  8
CSLAYER1
  6
CONTINUOUS
 62
     4
 10
350.682063
 20
660.435891
 11
393.682063
 21
660.435891
  0
LINE
  8
CSLAYER1
  6
CONTINUOUS
 62
     4
 10
350.682063
 20
605.460693
 11
393.682063
 21
605.460693
  0
LINE
  8
CSLAYER1
  6
CONTINUOUS
 62
     4
 10
409.682063
 20
681.319090
 11
456.682063
 21
681.319090
  0
LINE
  8
CSLAYER1
  6
CONTINUOUS
 62
     4
 10
409.682063
 20
660.435891
 11
456.682063
 21
660.435891
  0
LINE
  8
CSLAYER1
  6
CONTINUOUS
 62
     4
 10
409.682063
 20
605.460693
 11
454.682063
 21
605.460693
  0
LINE
  8
CSLAYER1
  6
CONTINUOUS
 62
     4
 10
601.682063
 20
681.319090
 11
623.682063
 21
681.319090
  0
LINE
  8
CSLAYER1
  6
CONTINUOUS
 62
     4
 10
601.682063
 20
660.435891
 11
623.682063
 21
660.435891
  0
LINE
  8
CSLAYER1
  6
CONTINUOUS
 62
     4
 10
639.682063
 20
681.319090
 11
682.682063
 21
681.319090
  0
LINE
  8
CSLAYER1
  6
CONTINUOUS
 62
     4
 10
639.682063
 20
660.435891
 11
682.682063
 21
660.435891
  0
LINE
  8
CSLAYER1
  6
CONTINUOUS
 62
     4
 10
639.682063
 20
605.460693
 11
682.682063
 21
605.460693
  0
LINE
  8
CSLAYER1
  6
CONTINUOUS
 62
     4
 10
607.882063
 20
605.460693
 11
623.682063
 21
605.460693
  0
LINE
  8
CSLAYER1
  6
CONTINUOUS
 62
     3
 10
1202.086761
 20
1085.871763
 11
2104.086761
 21
1085.871763
  0
LINE
  8
CSLAYER1
  6
CONTINUOUS
 62
     4
 10
639.682063
 20
1110.871763
 11
639.682063
 21
544.612334
  0
LINE
  8
CSLAYER1
  6
CONTINUOUS
 62
     4
 10
393.682063
 20
1110.871763
 11
393.682063
 21
544.612334
  0
LINE
  8
CSLAYER1
  6
CONTINUOUS
 62
     4
 10
1575.499804
 20
1018.728847
 11
1446.416890
 21
902.414802
  0
LINE
  8
CSLAYER1
  6
CONTINUOUS
 62
     7
 10
1336.973264
 20
806.117280
 11
1332.988690
 21
803.232129
  0
LINE
  8
CSLAYER1
  6
CONTINUOUS
 62
     7
 10
1334.772338
 20
809.156896
 11
1330.787765
 21
806.271745
  0
LINE
  8
CSLAYER1
  6
CONTINUOUS
 62
     7
 10
1336.853758
 20
807.272227
 11
1336.973264
 21
806.117280
  0
ARC
  8
CSLAYER1
  6
CONTINUOUS
 62
     7
 10
1333.714308
 20
806.074166
 40
3.259241
 50
10.341657
 51
71.279173
  0
LINE
  8
CSLAYER1
  6
CONTINUOUS
 62
     4
 10
1374.245179
 20
837.382309
 11
1132.572265
 21
619.615655
  0
TEXT
  8
CSLAYER2
 62
     5
 10
2917.951263
 20
1887.581320
 40
40.809284
 41
0.899282
  1
GLI-1000-0510
 50
0.000000
 51
0.000000
  7
EASYDRAW_FONT
 72
     5
 11
3382.806061
 21
1887.581320
  0
LINE
  8
CSLAYER1
  6
CONTINUOUS
 62
     3
 10
1142.086761
 20
1161.071763
 11
1142.086761
 21
1145.871763
  0
LINE
  8
CSLAYER1
  6
CONTINUOUS
 62
     3
 10
1142.086761
 20
1145.871763
 11
1202.086761
 21
1085.871763
  0
LINE
  8
CSLAYER1
  6
CONTINUOUS
 62
     3
 10
326.682063
 20
1110.871763
 11
706.682063
 21
1110.871763
  0
LINE
  8
CSLAYER1
  6
CONTINUOUS
 62
     4
 10
384.682063
 20
1086.120372
 11
359.682063
 21
1086.120372
  0
LINE
  8
CSLAYER1
  6
CONTINUOUS
 62
     4
 10
359.682063
 20
1061.120372
 11
387.182063
 21
1061.120372
  0
ARC
  8
CSLAYER1
  6
CONTINUOUS
 62
     4
 10
387.182063
 20
1060.120372
 40
1.000000
 50
0.000000
 51
90.000000
  0
ARC
  8
CSLAYER1
  6
CONTINUOUS
 62
     4
 10
363.182063
 20
1060.120372
 40
1.000000
 50
90.000000
 51
180.000000
  0
ARC
  8
CSLAYER1
  6
CONTINUOUS
 62
     4
 10
374.182063
 20
1060.120372
 40
1.000000
 50
0.000000
 51
90.000000
  0
ARC
  8
CSLAYER1
  6
CONTINUOUS
 62
     4
 10
376.182063
 20
1060.120372
 40
1.000000
 50
90.000000
 51
180.000000
  0
LINE
  8
CSLAYER1
  6
CONTINUOUS
 62
     3
 10
326.682063
 20
1161.071763
 11
326.682063
 21
1110.871763
  0
LINE
  8
CSLAYER1
  6
CONTINUOUS
 62
     4
 10
415.624628
 20
1110.871763
 11
410.682063
 21
1105.929197
  0
LINE
  8
CSLAYER1
  6
CONTINUOUS
 62
     4
 10
391.182063
 20
1101.429197
 11
392.332063
 21
1101.429197
  0
LINE
  8
CSLAYER1
  6
CONTINUOUS
 62
     4
 10
392.332063
 20
1103.979197
 11
393.682063
 21
1103.979197
  0
LINE
  8
CSLAYER1
  6
CONTINUOUS
 62
     4
 10
392.332063
 20
1103.979197
 11
392.332063
 21
1073.879197
  0
LINE
  8
CSLAYER1
  6
CONTINUOUS
 62
     4
 10
389.682063
 20
1099.929197
 11
389.682063
 21
1077.929197
  0
LINE
  8
CSLAYER1
  6
CONTINUOUS
 62
     4
 10
389.682063
 20
1099.929197
 11
391.182063
 21
1101.429197
  0
LINE
  8
CSLAYER1
  6
CONTINUOUS
 62
     4
 10
391.182063
 20
1101.429197
 11
391.182063
 21
1076.429197
  0
LINE
  8
CSLAYER1
  6
CONTINUOUS
 62
     4
 10
391.182063
 20
1076.429197
 11
392.332063
 21
1076.429197
  0
LINE
  8
CSLAYER1
  6
CONTINUOUS
 62
     4
 10
389.849625
 20
1088.929197
 11
394.182063
 21
1088.929197
  0
LINE
  8
CSLAYER1
  6
CONTINUOUS
 62
     4
 10
392.332063
 20
1073.879197
 11
393.682063
 21
1073.879197
  0
LINE
  8
CSLAYER1
  6
CONTINUOUS
 62
     4
 10
389.682063
 20
1077.929197
 11
391.182063
 21
1076.429197
  0
LINE
  8
CSLAYER1
  6
CONTINUOUS
 62
     4
 10
388.182063
 20
1060.120372
 11
388.182063
 21
1020.120372
  0
LINE
  8
CSLAYER1
  6
CONTINUOUS
 62
     4
 10
361.682063
 20
1051.672015
 11
361.682063
 21
1028.568730
  0
LINE
  8
CSLAYER1
  6
CONTINUOUS
 62
     4
 10
360.532063
 20
1051.672015
 11
360.532063
 21
1028.568730
  0
LINE
  8
CSLAYER1
  6
CONTINUOUS
 62
     4
 10
359.182063
 20
1047.620372
 11
360.474226
 21
1047.620372
  0
LINE
  8
CSLAYER1
  6
CONTINUOUS
 62
     4
 10
360.532063
 20
1051.672015
 11
361.682063
 21
1051.672015
  0
LINE
  8
CSLAYER1
  6
CONTINUOUS
 62
     4
 10
361.682063
 20
1047.620372
 11
362.182063
 21
1047.620372
  0
LINE
  8
CSLAYER1
  6
CONTINUOUS
 62
     4
 10
362.182063
 20
1060.120372
 11
362.182063
 21
1020.120372
  0
LINE
  8
CSLAYER1
  6
CONTINUOUS
 62
     4
 10
363.182063
 20
1019.120372
 11
374.182063
 21
1019.120372
  0
LINE
  8
CSLAYER1
  6
CONTINUOUS
 62
     4
 10
359.182063
 20
1032.620372
 11
360.474226
 21
1032.620372
  0
LINE
  8
CSLAYER1
  6
CONTINUOUS
 62
     4
 10
360.532063
 20
1028.568730
 11
361.682063
 21
1028.568730
  0
LINE
  8
CSLAYER1
  6
CONTINUOUS
 62
     4
 10
361.682063
 20
1032.620372
 11
362.182063
 21
1032.620372
  0
ARC
  8
CSLAYER1
  6
CONTINUOUS
 62
     4
 10
387.182063
 20
1020.120372
 40
1.000000
 50
270.000000
 51
360.000000
  0
ARC
  8
CSLAYER1
  6
CONTINUOUS
 62
     4
 10
363.182063
 20
1020.120372
 40
1.000000
 50
180.000000
 51
270.000000
  0
ARC
  8
CSLAYER1
  6
CONTINUOUS
 62
     4
 10
374.182063
 20
1020.120372
 40
1.000000
 50
270.000000
 51
360.000000
  0
ARC
  8
CSLAYER1
  6
CONTINUOUS
 62
     4
 10
376.182063
 20
1020.120372
 40
1.000000
 50
180.000000
 51
270.000000
  0
LINE
  8
CSLAYER1
  6
CONTINUOUS
 62
     4
 10
387.182063
 20
1019.120372
 11
376.182063
 21
1019.120372
  0
LINE
  8
CSLAYER1
  6
CONTINUOUS
 62
     4
 10
388.182063
 20
1040.120372
 11
389.182063
 21
1040.120372
  0
LINE
  8
CSLAYER1
  6
CONTINUOUS
 62
     4
 10
388.682063
 20
1050.120372
 11
388.182063
 21
1049.620372
  0
LINE
  8
CSLAYER1
  6
CONTINUOUS
 62
     4
 10
388.682063
 20
1030.120372
 11
388.182063
 21
1030.620372
  0
LINE
  8
CSLAYER1
  6
CONTINUOUS
 62
     4
 10
375.182063
 20
1020.120372
 11
375.182063
 21
1060.120372
  0
LINE
  8
CSLAYER1
  6
CONTINUOUS
 62
     4
 10
388.682063
 20
1050.120372
 11
393.682063
 21
1050.120372
  0
LINE
  8
CSLAYER1
  6
CONTINUOUS
 62
     4
 10
388.682063
 20
1030.120372
 11
393.682063
 21
1030.120372
  0
LINE
  8
CSLAYER1
  6
CONTINUOUS
 62
     4
 10
648.682063
 20
1061.120372
 11
648.682063
 21
1110.871763
  0
LINE
  8
CSLAYER1
  6
CONTINUOUS
 62
     4
 10
664.182063
 20
1110.871763
 11
664.182063
 21
1086.120372
  0
LINE
  8
CSLAYER1
  6
CONTINUOUS
 62
     4
 10
658.182063
 20
1110.871763
 11
658.182063
 21
1086.120372
  0
LINE
  8
CSLAYER1
  6
CONTINUOUS
 62
     4
 10
644.682063
 20
1049.871763
 11
639.682063
 21
1049.871763
  0
LINE
  8
CSLAYER1
  6
CONTINUOUS
 62
     4
 10
644.682063
 20
1029.871763
 11
639.682063
 21
1029.871763
  0
LINE
  8
CSLAYER1
  6
CONTINUOUS
 62
     4
 10
546.932063
 20
1058.679197
 11
571.182063
 21
1058.679197
  0
LINE
  8
CSLAYER1
  6
CONTINUOUS
 62
     4
 10
617.682063
 20
1066.929197
 11
573.182063
 21
1066.929197
  0
LINE
  8
CSLAYER1
  6
CONTINUOUS
 62
     4
 10
573.182063
 20
1060.679197
 11
573.182063
 21
1110.871763
  0
LINE
  8
CSLAYER1
  6
CONTINUOUS
 62
     4
 10
573.182063
 20
1060.679197
 11
571.182063
 21
1058.679197
  0
LINE
  8
CSLAYER1
  6
CONTINUOUS
 62
     4
 10
617.682063
 20
1066.929197
 11
622.682063
 21
1071.929197
  0
LINE
  8
CSLAYER1
  6
CONTINUOUS
 62
     4
 10
617.682063
 20
1066.929197
 11
617.682063
 21
1110.871763
  0
LINE
  8
CSLAYER1
  6
CONTINUOUS
 62
     4
 10
600.182063
 20
1026.346507
 11
600.182063
 21
1066.929197
  0
LINE
  8
CSLAYER1
  6
CONTINUOUS
 62
     4
 10
583.182063
 20
1026.346507
 11
583.182063
 21
1066.929197
  0
LINE
  8
CSLAYER1
  6
CONTINUOUS
 62
     4
 10
601.682063
 20
1026.346507
 11
581.682063
 21
1026.346507
  0
LINE
  8
CSLAYER1
  6
CONTINUOUS
 62
     4
 10
600.182063
 20
1026.346507
 11
601.682063
 21
1023.748431
  0
LINE
  8
CSLAYER1
  6
CONTINUOUS
 62
     4
 10
583.182063
 20
1026.346507
 11
581.682063
 21
1023.748431
  0
LINE
  8
CSLAYER1
  6
CONTINUOUS
 62
     4
 10
571.182063
 20
1058.679197
 11
571.182063
 21
1110.871763
  0
LINE
  8
CSLAYER1
  6
CONTINUOUS
 62
     4
 10
519.318524
 20
1075.091834
 11
521.934920
 21
1074.904231
  0
LINE
  8
CSLAYER1
  6
CONTINUOUS
 62
     4
 10
521.934920
 20
1074.904231
 11
524.511339
 21
1074.593145
  0
LINE
  8
CSLAYER1
  6
CONTINUOUS
 62
     4
 10
524.511339
 20
1074.593145
 11
527.028172
 21
1074.160944
  0
LINE
  8
CSLAYER1
  6
CONTINUOUS
 62
     4
 10
527.028172
 20
1074.160944
 11
529.466265
 21
1073.610918
  0
LINE
  8
CSLAYER1
  6
CONTINUOUS
 62
     4
 10
529.466265
 20
1073.610918
 11
531.807063
 21
1072.947252
  0
LINE
  8
CSLAYER1
  6
CONTINUOUS
 62
     4
 10
531.807063
 20
1072.947252
 11
534.032750
 21
1072.174998
  0
LINE
  8
CSLAYER1
  6
CONTINUOUS
 62
     4
 10
534.032750
 20
1072.174998
 11
536.126388
 21
1071.300033
  0
LINE
  8
CSLAYER1
  6
CONTINUOUS
 62
     4
 10
536.126388
 20
1071.300033
 11
538.072043
 21
1070.329015
  0
LINE
  8
CSLAYER1
  6
CONTINUOUS
 62
     4
 10
538.072043
 20
1070.329015
 11
539.854907
 21
1069.269336
  0
LINE
  8
CSLAYER1
  6
CONTINUOUS
 62
     4
 10
539.854907
 20
1069.269336
 11
541.461412
 21
1068.129059
  0
LINE
  8
CSLAYER1
  6
CONTINUOUS
 62
     4
 10
541.461412
 20
1068.129059
 11
542.879331
 21
1066.916863
  0
LINE
  8
CSLAYER1
  6
CONTINUOUS
 62
     4
 10
542.879331
 20
1066.916863
 11
544.097873
 21
1065.641973
  0
LINE
  8
CSLAYER1
  6
CONTINUOUS
 62
     4
 10
544.097873
 20
1065.641973
 11
545.107764
 21
1064.314092
  0
LINE
  8
CSLAYER1
  6
CONTINUOUS
 62
     4
 10
545.107764
 20
1064.314092
 11
545.901319
 21
1062.943327
  0
LINE
  8
CSLAYER1
  6
CONTINUOUS
 62
     4
 10
545.901319
 20
1062.943327
 11
546.472497
 21
1061.540108
  0
LINE
  8
CSLAYER1
  6
CONTINUOUS
 62
     4
 10
546.472497
 20
1061.540108
 11
546.816952
 21
1060.115117
  0
LINE
  8
CSLAYER1
  6
CONTINUOUS
 62
     4
 10
546.816952
 20
1060.115117
 11
546.932063
 21
1058.679197
  0
LINE
  8
CSLAYER1
  6
CONTINUOUS
 62
     4
 10
622.682063
 20
1059.029197
 11
622.682063
 21
1110.871763
  0
ARC
  8
CSLAYER1
  6
CONTINUOUS
 62
     4
 10
623.782063
 20
1059.029197
 40
1.100000
 50
180.000000
 51
270.000000
  0
LINE
  8
CSLAYER1
  6
CONTINUOUS
 62
     3
 10
718.382063
 20
1039.871763
 11
718.382063
 21
1049.371763
  0
LINE
  8
CSLAYER1
  6
CONTINUOUS
 62
     4
 10
674.182063
 20
1020.871763
 11
715.182063
 21
1020.871763
  0
LINE
  8
CSLAYER1
  6
CONTINUOUS
 62
     4
 10
718.382063
 20
1062.871763
 11
718.382063
 21
1031.871763
  0
LINE
  8
CSLAYER1
  6
CONTINUOUS
 62
     4
 10
718.382063
 20
1035.871763
 11
715.182063
 21
1035.871763
  0
LINE
  8
CSLAYER1
  6
CONTINUOUS
 62
     5
 10
722.872937
 20
1054.871763
 11
709.182063
 21
1054.871763
  0
LINE
  8
CSLAYER1
  6
CONTINUOUS
 62
     4
 10
718.382063
 20
1062.871763
 11
715.182063
 21
1062.871763
  0
LINE
  8
CSLAYER1
  6
CONTINUOUS
 62
     4
 10
718.382063
 20
1031.871763
 11
715.182063
 21
1031.871763
  0
LINE
  8
CSLAYER1
  6
CONTINUOUS
 62
     4
 10
718.382063
 20
1043.871763
 11
715.182063
 21
1043.871763
  0
LINE
  8
CSLAYER1
  6
CONTINUOUS
 62
     4
 10
648.682063
 20
1086.120372
 11
673.682063
 21
1086.120372
  0
LINE
  8
CSLAYER1
  6
CONTINUOUS
 62
     4
 10
673.682063
 20
1061.120372
 11
646.182063
 21
1061.120372
  0
ARC
  8
CSLAYER1
  6
CONTINUOUS
 62
     4
 10
646.182063
 20
1060.120372
 40
1.000000
 50
90.000000
 51
180.000000
  0
ARC
  8
CSLAYER1
  6
CONTINUOUS
 62
     4
 10
670.182063
 20
1060.120372
 40
1.000000
 50
0.000000
 51
90.000000
  0
ARC
  8
CSLAYER1
  6
CONTINUOUS
 62
     4
 10
659.182063
 20
1060.120372
 40
1.000000
 50
90.000000
 51
180.000000
  0
ARC
  8
CSLAYER1
  6
CONTINUOUS
 62
     4
 10
657.182063
 20
1060.120372
 40
1.000000
 50
0.000000
 51
90.000000
  0
LINE
  8
CSLAYER1
  6
CONTINUOUS
 62
     3
 10
706.682063
 20
1161.071763
 11
706.682063
 21
1110.871763
  0
LINE
  8
CSLAYER1
  6
CONTINUOUS
 62
     4
 10
617.739497
 20
1110.871763
 11
622.682063
 21
1105.929197
  0
LINE
  8
CSLAYER1
  6
CONTINUOUS
 62
     4
 10
642.182063
 20
1101.429197
 11
641.032063
 21
1101.429197
  0
LINE
  8
CSLAYER1
  6
CONTINUOUS
 62
     4
 10
641.032063
 20
1103.979197
 11
639.682063
 21
1103.979197
  0
LINE
  8
CSLAYER1
  6
CONTINUOUS
 62
     4
 10
641.032063
 20
1103.979197
 11
641.032063
 21
1073.879197
  0
LINE
  8
CSLAYER1
  6
CONTINUOUS
 62
     4
 10
643.682063
 20
1099.929197
 11
643.682063
 21
1077.929197
  0
LINE
  8
CSLAYER1
  6
CONTINUOUS
 62
     4
 10
643.682063
 20
1099.929197
 11
642.182063
 21
1101.429197
  0
LINE
  8
CSLAYER1
  6
CONTINUOUS
 62
     4
 10
642.182063
 20
1101.429197
 11
642.182063
 21
1076.429197
  0
LINE
  8
CSLAYER1
  6
CONTINUOUS
 62
     4
 10
642.182063
 20
1076.429197
 11
641.032063
 21
1076.429197
  0
LINE
  8
CSLAYER1
  6
CONTINUOUS
 62
     4
 10
641.032063
 20
1073.879197
 11
639.682063
 21
1073.879197
  0
LINE
  8
CSLAYER1
  6
CONTINUOUS
 62
     4
 10
643.682063
 20
1077.929197
 11
642.182063
 21
1076.429197
  0
LINE
  8
CSLAYER1
  6
CONTINUOUS
 62
     4
 10
645.182063
 20
1060.120372
 11
645.182063
 21
1020.120372
  0
LINE
  8
CSLAYER1
  6
CONTINUOUS
 62
     4
 10
671.682063
 20
1051.672015
 11
671.682063
 21
1028.568730
  0
LINE
  8
CSLAYER1
  6
CONTINUOUS
 62
     4
 10
672.832063
 20
1051.672015
 11
672.832063
 21
1028.568730
  0
LINE
  8
CSLAYER1
  6
CONTINUOUS
 62
     4
 10
674.182063
 20
1047.620372
 11
672.889899
 21
1047.620372
  0
LINE
  8
CSLAYER1
  6
CONTINUOUS
 62
     4
 10
672.832063
 20
1051.672015
 11
671.682063
 21
1051.672015
  0
LINE
  8
CSLAYER1
  6
CONTINUOUS
 62
     4
 10
671.682063
 20
1047.620372
 11
671.182063
 21
1047.620372
  0
LINE
  8
CSLAYER1
  6
CONTINUOUS
 62
     4
 10
671.182063
 20
1060.120372
 11
671.182063
 21
1020.120372
  0
LINE
  8
CSLAYER1
  6
CONTINUOUS
 62
     4
 10
670.182063
 20
1019.120372
 11
659.182063
 21
1019.120372
  0
LINE
  8
CSLAYER1
  6
CONTINUOUS
 62
     4
 10
674.182063
 20
1032.620372
 11
672.889899
 21
1032.620372
  0
LINE
  8
CSLAYER1
  6
CONTINUOUS
 62
     4
 10
672.832063
 20
1028.568730
 11
671.682063
 21
1028.568730
  0
LINE
  8
CSLAYER1
  6
CONTINUOUS
 62
     4
 10
671.682063
 20
1032.620372
 11
671.182063
 21
1032.620372
  0
ARC
  8
CSLAYER1
  6
CONTINUOUS
 62
     4
 10
646.182063
 20
1020.120372
 40
1.000000
 50
180.000000
 51
270.000000
  0
ARC
  8
CSLAYER1
  6
CONTINUOUS
 62
     4
 10
670.182063
 20
1020.120372
 40
1.000000
 50
270.000000
 51
360.000000
  0
ARC
  8
CSLAYER1
  6
CONTINUOUS
 62
     4
 10
659.182063
 20
1020.120372
 40
1.000000
 50
180.000000
 51
270.000000
  0
ARC
  8
CSLAYER1
  6
CONTINUOUS
 62
     4
 10
657.182063
 20
1020.120372
 40
1.000000
 50
270.000000
 51
360.000000
  0
LINE
  8
CSLAYER1
  6
CONTINUOUS
 62
     4
 10
646.182063
 20
1019.120372
 11
657.182063
 21
1019.120372
  0
LINE
  8
CSLAYER1
  6
CONTINUOUS
 62
     4
 10
645.182063
 20
1040.120372
 11
644.182063
 21
1040.120372
  0
LINE
  8
CSLAYER1
  6
CONTINUOUS
 62
     4
 10
644.682063
 20
1050.120372
 11
645.182063
 21
1049.620372
  0
LINE
  8
CSLAYER1
  6
CONTINUOUS
 62
     4
 10
644.682063
 20
1030.120372
 11
645.182063
 21
1030.620372
  0
LINE
  8
CSLAYER1
  6
CONTINUOUS
 62
     4
 10
658.182063
 20
1020.120372
 11
658.182063
 21
1060.120372
  0
LINE
  8
CSLAYER1
  6
CONTINUOUS
 62
     4
 10
644.682063
 20
1050.120372
 11
639.682063
 21
1050.120372
  0
LINE
  8
CSLAYER1
  6
CONTINUOUS
 62
     4
 10
644.682063
 20
1030.120372
 11
639.682063
 21
1030.120372
  0
LINE
  8
CSLAYER1
  6
CONTINUOUS
 62
     3
 10
1060.511937
 20
1110.871763
 11
1069.311937
 21
1110.871763
  0
LINE
  8
CSLAYER1
  6
CONTINUOUS
 62
     3
 10
1060.311937
 20
1161.071763
 11
1060.311937
 21
1110.871763
  0
LINE
  8
CSLAYER1
  6
CENTER
 62
     5
 10
1021.925243
 20
1785.274435
 11
2107.313641
 21
1785.274435
  0
LINE
  8
CSLAYER1
  6
CONTINUOUS
 62
     3
 10
2086.511937
 20
578.112334
 11
2086.511937
 21
544.612334
  0
LINE
  8
CSLAYER1
  6
CONTINUOUS
 62
     3
 10
1947.111937
 20
578.112334
 11
1947.111937
 21
544.612334
  0
LINE
  8
CSLAYER1
  6
CONTINUOUS
 62
     5
 10
2016.811937
 20
591.724321
 11
2016.811937
 21
580.198069
  0
LINE
  8
CSLAYER1
  6
CONTINUOUS
 62
     3
 10
2088.311937
 20
584.112334
 11
1945.311937
 21
584.112334
  0
LINE
  8
CSLAYER1
  6
CONTINUOUS
 62
     3
 10
2088.311937
 20
578.112334
 11
2086.511937
 21
578.112334
  0
LINE
  8
CSLAYER1
  6
CONTINUOUS
 62
     3
 10
2088.311937
 20
584.112334
 11
2088.311937
 21
578.112334
  0
LINE
  8
CSLAYER1
  6
CONTINUOUS
 62
     3
 10
1945.311937
 20
584.112334
 11
1945.311937
 21
578.112334
  0
LINE
  8
CSLAYER1
  6
CONTINUOUS
 62
     5
 10
2116.511937
 20
568.412334
 11
2116.511937
 21
551.412334
  0
LINE
  8
CSLAYER1
  6
CONTINUOUS
 62
     5
 10
2112.542370
 20
572.902715
 11
2097.914500
 21
572.902715
  0
LINE
  8
CSLAYER1
  6
CONTINUOUS
 62
     5
 10
2113.402842
 20
571.412334
 11
2113.402842
 21
548.412334
  0
LINE
  8
CSLAYER1
  6
CONTINUOUS
 62
     5
 10
2097.054028
 20
571.412334
 11
2097.054028
 21
548.412334
  0
LINE
  8
CSLAYER1
  6
CONTINUOUS
 62
     5
 10
2113.402842
 20
571.412334
 11
2112.542370
 21
572.902715
  0
LINE
  8
CSLAYER1
  6
CONTINUOUS
 62
     5
 10
2097.054028
 20
571.412334
 11
2097.914500
 21
572.902715
  0
LINE
  8
CSLAYER1
  6
CONTINUOUS
 62
     5
 10
2112.542370
 20
566.551862
 11
2097.914500
 21
566.551862
  0
ARC
  8
CSLAYER1
  6
CONTINUOUS
 62
     5
 10
2087.356817
 20
559.912334
 40
26.046025
 50
-14.768561
 51
14.768561
  0
ARC
  8
CSLAYER1
  6
CONTINUOUS
 62
     5
 10
2107.271249
 20
569.727289
 40
6.153702
 50
-31.065581
 51
23.174644
  0
ARC
  8
CSLAYER1
  6
CONTINUOUS
 62
     5
 10
2103.185621
 20
569.727289
 40
6.153702
 50
156.825356
 51
211.065581
  0
ARC
  8
CSLAYER1
  6
CONTINUOUS
 62
     5
 10
2123.100053
 20
559.912334
 40
26.046025
 50
165.231439
 51
194.768561
  0
LINE
  8
CSLAYER1
  6
CONTINUOUS
 62
     5
 10
2113.511937
 20
571.412334
 11
2113.402842
 21
571.412334
  0
ARC
  8
CSLAYER1
  6
CONTINUOUS
 62
     5
 10
2113.511937
 20
568.412334
 40
3.000000
 50
0.000000
 51
90.000000
  0
LINE
  8
CSLAYER1
  6
CONTINUOUS
 62
     5
 10
2093.511937
 20
571.412334
 11
2093.511937
 21
548.412334
  0
LINE
  8
CSLAYER1
  6
CONTINUOUS
 62
     5
 10
2093.511937
 20
571.412334
 11
2092.651465
 21
572.902715
  0
ARC
  8
CSLAYER1
  6
CONTINUOUS
 62
     5
 10
2067.465912
 20
559.912334
 40
26.046025
 50
-14.768561
 51
14.768561
  0
ARC
  8
CSLAYER1
  6
CONTINUOUS
 62
     5
 10
2087.380343
 20
569.727289
 40
6.153702
 50
-31.065581
 51
23.174644
  0
LINE
  8
CSLAYER1
  6
CONTINUOUS
 62
     5
 10
2092.651465
 20
566.551862
 11
2086.511937
 21
566.551862
  0
LINE
  8
CSLAYER1
  6
CONTINUOUS
 62
     5
 10
2092.651465
 20
572.902715
 11
2086.511937
 21
572.902715
  0
LINE
  8
CSLAYER1
  6
CONTINUOUS
 62
     5
 10
2097.054028
 20
570.248458
 11
2093.511937
 21
570.248458
  0
LINE
  8
CSLAYER1
  6
CONTINUOUS
 62
     5
 10
2097.054028
 20
569.602081
 11
2095.447666
 21
569.602081
  0
LINE
  8
CSLAYER1
  6
CONTINUOUS
 62
     5
 10
2095.447666
 20
570.248458
 11
2095.447666
 21
549.576210
  0
LINE
  8
CSLAYER1
  6
CONTINUOUS
 62
     5
 10
2095.447666
 20
569.602081
 11
2094.312814
 21
570.248458
  0
LINE
  8
CSLAYER1
  6
CONTINUOUS
 62
     5
 10
2112.542370
 20
546.921953
 11
2097.914500
 21
546.921953
  0
LINE
  8
CSLAYER1
  6
CONTINUOUS
 62
     5
 10
2113.402842
 20
548.412334
 11
2112.542370
 21
546.921953
  0
LINE
  8
CSLAYER1
  6
CONTINUOUS
 62
     5
 10
2097.054028
 20
548.412334
 11
2097.914500
 21
546.921953
  0
LINE
  8
CSLAYER1
  6
CONTINUOUS
 62
     5
 10
2112.542370
 20
553.272806
 11
2097.914500
 21
553.272806
  0
ARC
  8
CSLAYER1
  6
CONTINUOUS
 62
     5
 10
2107.271249
 20
550.097380
 40
6.153702
 50
-23.174644
 51
31.065581
  0
ARC
  8
CSLAYER1
  6
CONTINUOUS
 62
     5
 10
2103.185621
 20
550.097380
 40
6.153702
 50
148.934419
 51
203.174644
  0
LINE
  8
CSLAYER1
  6
CONTINUOUS
 62
     5
 10
2113.511937
 20
548.412334
 11
2113.402842
 21
548.412334
  0
ARC
  8
CSLAYER1
  6
CONTINUOUS
 62
     5
 10
2113.511937
 20
551.412334
 40
3.000000
 50
270.000000
 51
360.000000
  0
LINE
  8
CSLAYER1
  6
CONTINUOUS
 62
     5
 10
2093.511937
 20
548.412334
 11
2092.651465
 21
546.921953
  0
ARC
  8
CSLAYER1
  6
CONTINUOUS
 62
     5
 10
2087.380343
 20
550.097380
 40
6.153702
 50
-23.174644
 51
31.065581
  0
LINE
  8
CSLAYER1
  6
CONTINUOUS
 62
     5
 10
2092.651465
 20
553.272806
 11
2086.511937
 21
553.272806
  0
LINE
  8
CSLAYER1
  6
CONTINUOUS
 62
     5
 10
2092.651465
 20
546.921953
 11
2086.511937
 21
546.921953
  0
LINE
  8
CSLAYER1
  6
CONTINUOUS
 62
     5
 10
2097.054028
 20
549.576210
 11
2093.511937
 21
549.576210
  0
LINE
  8
CSLAYER1
  6
CONTINUOUS
 62
     5
 10
2097.054028
 20
550.222588
 11
2095.447666
 21
550.222588
  0
LINE
  8
CSLAYER1
  6
CONTINUOUS
 62
     5
 10
2095.447666
 20
550.222588
 11
2094.312814
 21
549.576210
  0
LINE
  8
CSLAYER1
  6
CENTER
 62
     5
 10
2150.267958
 20
559.912334
 11
2079.461243
 21
559.912334
  0
LINE
  8
CSLAYER1
  6
CONTINUOUS
 62
     5
 10
2150.079917
 20
563.712334
 11
2116.511937
 21
563.712334
  0
LINE
  8
CSLAYER1
  6
CONTINUOUS
 62
     5
 10
2151.396205
 20
556.112334
 11
2116.511937
 21
556.112334
  0
LINE
  8
CSLAYER1
  6
CONTINUOUS
 62
     5
 10
2086.511937
 20
578.112334
 11
1947.111937
 21
578.112334
  0
LINE
  8
CSLAYER1
  6
CONTINUOUS
 62
     3
 10
1947.111937
 20
578.112334
 11
1945.311937
 21
578.112334
  0
INSERT
  8
CSLAYER1
  2
BLKF0001
 10
0.0
 20
0.0
 30
0.0
  0
LINE
  8
CSLAYER1
  6
CONTINUOUS
 62
     3
 10
426.682063
 20
578.112334
 11
426.682063
 21
544.612334
  0
LINE
  8
CSLAYER1
  6
CONTINUOUS
 62
     3
 10
424.682063
 20
578.112334
 11
424.682063
 21
584.112334
  0
LINE
  8
CSLAYER1
  6
CONTINUOUS
 62
     3
 10
424.682063
 20
584.112334
 11
455.304931
 21
584.112334
  0
LINE
  8
CSLAYER1
  6
CONTINUOUS
 62
     3
 10
424.682063
 20
578.112334
 11
426.682063
 21
578.112334
  0
LINE
  8
CSLAYER1
  6
CONTINUOUS
 62
     1
 10
597.182063
 20
587.112334
 11
597.182063
 21
584.912334
  0
LINE
  8
CSLAYER1
  6
CONTINUOUS
 62
     1
 10
600.051541
 20
585.912334
 11
597.182063
 21
585.912334
  0
LINE
  8
CSLAYER1
  6
CONTINUOUS
 62
     1
 10
602.382063
 20
588.512334
 11
598.582063
 21
588.512334
  0
LINE
  8
CSLAYER1
  6
CONTINUOUS
 62
     1
 10
596.182063
 20
584.912334
 11
596.182063
 21
584.112334
  0
LINE
  8
CSLAYER1
  6
CONTINUOUS
 62
     1
 10
599.929645
 20
584.912334
 11
596.182063
 21
584.912334
  0
ARC
  8
CSLAYER1
  6
CONTINUOUS
 62
     1
 10
598.582063
 20
587.112334
 40
1.400000
 50
90.000000
 51
180.000000
  0
LINE
  8
CSLAYER1
  6
CONTINUOUS
 62
     1
 10
600.016791
 20
585.627252
 11
599.336812
 21
585.912334
  0
LINE
  8
CSLAYER1
  6
CONTINUOUS
 62
     5
 10
576.633227
 20
578.112334
 11
599.100752
 21
578.112334
  0
LINE
  8
CSLAYER1
  6
CONTINUOUS
 62
     5
 10
578.059194
 20
584.112334
 11
599.832128
 21
584.112334
  0
INSERT
  8
CSLAYER1
  2
BLKF0002
 10
0.0
 20
0.0
 30
0.0
  0
LINE
  8
CSLAYER1
  6
CONTINUOUS
 62
     5
 10
426.682063
 20
578.112334
 11
456.730898
 21
578.112334
  0
LINE
  8
CSLAYER1
  6
CONTINUOUS
 62
     4
 10
598.882063
 20
570.274079
 11
598.882063
 21
576.318264
  0
LINE
  8
CSLAYER1
  6
CONTINUOUS
 62
     4
 10
612.882063
 20
570.274079
 11
612.882063
 21
576.318264
  0
LINE
  8
CSLAYER1
  6
CONTINUOUS
 62
     4
 10
603.882063
 20
600.614139
 11
603.882063
 21
616.592072
  0
LINE
  8
CSLAYER1
  6
CONTINUOUS
 62
     4
 10
607.882063
 20
600.614139
 11
607.882063
 21
612.552628
  0
LINE
  8
CSLAYER1
  6
CONTINUOUS
 62
     2
 10
602.382063
 20
588.302402
 11
609.382063
 21
588.302402
  0
LINE
  8
CSLAYER1
  6
CONTINUOUS
 62
     5
 10
375.486169
 20
760.354245
 11
426.698470
 21
760.354245
  0
LINE
  8
CSLAYER1
  6
CONTINUOUS
 62
     5
 10
657.877956
 20
760.354245
 11
606.665655
 21
760.354245
  0
TEXT
  8
CSLAYER1
 62
     5
 10
831.811279
 20
878.737061
 40
40.000000
 41
0.782609
  1
ギヤードモーター
 50
0.000000
 51
0.000000
  7
EASYDRAW_FONT
 72
     5
 11
1071.811279
 21
878.737061
  0
TEXT
  8
CSLAYER1
 62
     5
 10
811.990845
 20
744.008057
 40
40.000000
 41
0.803571
  1
上限・下限
 50
0.000000
 51
0.000000
  7
EASYDRAW_FONT
 72
     5
 11
961.990845
 21
744.008057
  0
TEXT
  8
CSLAYER1
 62
     5
 10
2388.102295
 20
483.957489
 40
40.000000
 41
0.843750
  1
Ｆ.Ｌ
 50
0.000000
 51
0.000000
  7
EASYDRAW_FONT
 72
     5
 11
2478.102295
 21
483.957489
  0
LINE
  8
CSLAYER1
  6
CONTINUOUS
 62
     5
 10
606.374196
 20
614.379592
 11
768.105398
 21
737.170594
  0
LINE
  8
CSLAYER1
  6
CONTINUOUS
 62
     5
 10
606.374196
 20
614.379592
 11
624.758587
 21
638.086430
  0
LINE
  8
CSLAYER1
  6
CONTINUOUS
 62
     5
 10
606.374196
 20
614.379592
 11
634.148964
 21
625.718121
  0
LINE
  8
CSLAYER1
  6
CONTINUOUS
 62
     5
 10
768.105398
 20
737.170594
 11
1017.919189
 21
737.170594
  0
LINE
  8
CSLAYER1
  6
CONTINUOUS
 62
     5
 10
1209.343978
 20
740.301659
 11
1074.693666
 21
873.195662
  0
LINE
  8
CSLAYER1
  6
CONTINUOUS
 62
     5
 10
1209.343978
 20
740.301659
 11
1183.265309
 21
755.130788
  0
LINE
  8
CSLAYER1
  6
CONTINUOUS
 62
     5
 10
1209.343978
 20
740.301659
 11
1194.173753
 21
766.183395
  0
LINE
  8
CSLAYER1
  6
CONTINUOUS
 62
     5
 10
1879.357000
 20
1039.871763
 11
1937.753796
 21
1039.871763
  0
TEXT
  8
CSLAYER1
 62
     5
 10
776.335754
 20
690.554199
 40
40.000000
 41
0.782609
  1
リミットスイッチ
 50
0.000000
 51
0.000000
  7
EASYDRAW_FONT
 72
     5
 11
1016.335754
 21
690.554199
  0
LINE
  8
CSLAYER1
  6
CONTINUOUS
 62
     3
 10
2190.860938
 20
1781.574435
 11
2401.398683
 21
1781.574435
  0
LINE
  8
CSLAYER1
  6
CONTINUOUS
 62
     3
 10
2190.328301
 20
1788.574435
 11
2401.398683
 21
1788.574435
  0
ARC
  8
CSLAYER1
  6
CONTINUOUS
 62
     3
 10
2197.165698
 20
1742.074435
 40
40.000000
 50
-260.931278
 51
63.817766
  0
ARC
  8
CSLAYER1
  6
CONTINUOUS
 62
     3
 10
2197.165698
 20
1742.074435
 40
47.000000
 50
-261.635125
 51
49.860785
  0
LINE
  8
CSLAYER1
  6
CONTINUOUS
 62
     3
 10
2107.313641
 20
1781.574435
 11
2167.174082
 21
1781.574435
  0
LINE
  8
CSLAYER1
  6
CONTINUOUS
 62
     3
 10
2107.313641
 20
1788.574435
 11
2177.880973
 21
1788.574435
  0
LINE
  8
CSLAYER1
  6
CONTINUOUS
 62
     3
 10
2107.313641
 20
1823.774435
 11
2222.758609
 21
1823.774435
  0
LINE
  8
CSLAYER1
  6
CONTINUOUS
 62
     3
 10
2107.313641
 20
1816.774435
 11
2232.640399
 21
1816.774435
  0
LINE
  8
CSLAYER1
  6
CONTINUOUS
 62
     3
 10
2469.258926
 20
1970.386674
 11
2474.329554
 21
1972.296391
  0
LINE
  8
CSLAYER1
  6
CONTINUOUS
 62
     3
 10
2474.329554
 20
1972.296391
 11
2480.754186
 21
1972.474853
  0
LINE
  8
CSLAYER1
  6
CONTINUOUS
 62
     3
 10
2468.204596
 20
1971.775776
 11
2473.853655
 21
1974.140498
  0
LINE
  8
CSLAYER1
  6
CONTINUOUS
 62
     3
 10
2473.853655
 20
1974.140498
 11
2479.207515
 21
1975.449220
  0
LINE
  8
CSLAYER1
  6
CONTINUOUS
 62
     3
 10
2467.362401
 20
1972.885386
 11
2472.247498
 21
1975.746656
  0
LINE
  8
CSLAYER1
  6
CONTINUOUS
 62
     3
 10
2472.247498
 20
1975.746656
 11
2474.567503
 21
1979.077947
  0
ARC
  8
CSLAYER1
  6
CONTINUOUS
 62
     3
 10
2254.293549
 20
1863.774435
 40
47.000000
 50
-10.756396
 51
307.198537
  0
ARC
  8
CSLAYER1
  6
CONTINUOUS
 62
     3
 10
2254.293549
 20
1863.774435
 40
40.000000
 50
-23.471057
 51
307.198537
  0
LINE
  8
CSLAYER1
  6
CONTINUOUS
 62
     3
 10
2470.442680
 20
1968.827054
 11
2282.708752
 21
1826.336803
  0
LINE
  8
CSLAYER1
  6
CONTINUOUS
 62
     3
 10
2466.210628
 20
1974.402871
 11
2278.476700
 21
1831.912620
  0
LINE
  8
CSLAYER1
  6
CONTINUOUS
 62
     3
 10
2470.442680
 20
1968.827054
 11
2466.210628
 21
1974.402871
  0
TEXT
  8
CSLAYER1
 62
     5
 10
2462.143311
 20
2261.772461
 40
40.000000
 41
1.028571
  1
電源コード
 50
360.000000
 51
0.000000
  7
EASYDRAW_FONT
 72
     5
 11
2654.143311
 21
2261.772461
  0
LINE
  8
CSLAYER1
  6
CONTINUOUS
 62
     5
 10
2452.129889
 20
2256.198093
 11
2663.041515
 21
2256.198093
  0
TEXT
  8
CSLAYER1
 62
     5
 10
2479.890625
 20
2211.309082
 40
40.000000
 41
1.036364
  1
長サ４ｍ
 50
360.000000
 51
0.000000
  7
EASYDRAW_FONT
 72
     5
 11
2631.890625
 21
2211.309082
  0
TEXT
  8
CSLAYER1
 62
     5
 10
2645.945801
 20
2155.116699
 40
40.000000
 41
1.020000
  1
フットスイッチ
 50
360.000000
 51
0.000000
  7
EASYDRAW_FONT
 72
     5
 11
2917.945801
 21
2155.116699
  0
LINE
  8
CSLAYER1
  6
CONTINUOUS
 62
     5
 10
2640.518705
 20
2148.018545
 11
2926.584813
 21
2148.018545
  0
TEXT
  8
CSLAYER1
 62
     5
 10
2650.310303
 20
2102.258545
 40
40.000000
 41
1.020000
  1
ＵＰ・ＤＯＷＮ
 50
360.000000
 51
0.000000
  7
EASYDRAW_FONT
 72
     5
 11
2922.310303
 21
2102.258545
  0
LINE
  8
CSLAYER1
  6
CONTINUOUS
 62
     5
 10
826.607262
 20
873.195662
 11
1074.693666
 21
873.195662
  0
TEXT
  8
CSLAYER1
 62
     4
 10
2689.516846
 20
1257.820435
 40
40.000000
 41
1.036364
  1
操作方式
 50
0.000000
 51
0.000000
  7
EASYDRAW_FONT
 72
     5
 11
2841.516846
 21
1257.820435
  0
TEXT
  8
CSLAYER1
 62
     4
 10
2968.627441
 20
1251.545044
 40
40.000000
 41
1.020000
  1
フットスイッチ
 50
0.000000
 51
0.000000
  7
EASYDRAW_FONT
 72
     5
 11
3240.627441
 21
1251.545044
  0
LINE
  8
CSLAYER1
  6
CONTINUOUS
 62
     5
 10
3400.647141
 20
1245.794531
 11
2679.774624
 21
1245.794531
  0
LINE
  8
CSLAYER1
  6
CONTINUOUS
 62
     5
 10
3400.647141
 20
1181.794532
 11
2679.774624
 21
1181.794532
  0
TEXT
  8
CSLAYER1
 62
     4
 10
2690.947998
 20
1191.747681
 40
40.000000
 41
0.872727
  1
モーター
 50
0.000000
 51
0.000000
  7
EASYDRAW_FONT
 72
     5
 11
2818.947998
 21
1191.747681
  0
LINE
  8
CSLAYER1
  6
CONTINUOUS
 62
     5
 10
3400.647141
 20
1117.794534
 11
2679.774624
 21
1117.794534
  0
LINE
  8
CSLAYER1
  6
CONTINUOUS
 62
     5
 10
3400.647141
 20
989.794537
 11
2677.636122
 21
989.794537
  0
LINE
  8
CSLAYER1
  6
CONTINUOUS
 62
     5
 10
3400.647141
 20
925.794539
 11
2679.774624
 21
925.794539
  0
LINE
  8
CSLAYER1
  6
CONTINUOUS
 62
     5
 10
3400.647141
 20
861.794540
 11
2679.774624
 21
861.794540
  0
LINE
  8
CSLAYER1
  6
CONTINUOUS
 62
     5
 10
3400.647141
 20
797.794542
 11
2679.774624
 21
797.794542
  0
TEXT
  8
CSLAYER1
 62
     4
 10
2693.529541
 20
872.916443
 40
40.000000
 41
0.857143
  1
自  　重
 50
0.000000
 51
0.000000
  7
EASYDRAW_FONT
 72
     5
 11
2853.529541
 21
872.916443
  0
TEXT
  8
CSLAYER1
 62
     4
 10
2697.293945
 20
809.491150
 40
40.000000
 41
0.847059
  1
塗　装　色 
 50
0.000000
 51
0.000000
  7
EASYDRAW_FONT
 72
     5
 11
2889.293945
 21
809.491150
  0
TEXT
  8
CSLAYER1
 62
     4
 10
2922.054443
 20
1192.664673
 40
40.000000
 41
0.819512
  1
３相ＡＣ２００Ｖ、0.4ＫＷ
 50
0.000000
 51
0.000000
  7
EASYDRAW_FONT
 72
     5
 11
3370.054443
 21
1192.664673
  0
TEXT
  8
CSLAYER1
 62
     4
 10
3053.037842
 20
1128.821167
 40
40.000000
 41
0.840000
  1
長サ  ４ ｍ
 50
0.000000
 51
0.000000
  7
EASYDRAW_FONT
 72
     5
 11
3277.037842
 21
1128.821167
  0
TEXT
  8
CSLAYER1
 62
     4
 10
3165.677490
 20
874.815613
 40
40.000000
 41
0.847059
  1
１４９　Ｋｇ
 50
0.000000
 51
0.000000
  7
EASYDRAW_FONT
 72
     5
 11
3357.677490
 21
874.815613
  0
LINE
  8
CSLAYER1
  6
CONTINUOUS
 62
     5
 10
3400.647141
 20
1053.794535
 11
2679.774624
 21
1053.794535
  0
TEXT
  8
CSLAYER1
 62
     4
 10
2691.864258
 20
1128.430542
 40
40.000000
 41
0.942857
  1
電源コード
 50
0.000000
 51
0.000000
  7
EASYDRAW_FONT
 72
     5
 11
2867.864258
 21
1128.430542
  0
TEXT
  8
CSLAYER1
 62
     4
 10
3005.076416
 20
808.465759
 40
40.000000
 41
0.926087
  1
　１０Ｒ４／１３
 50
0.000000
 51
0.000000
  7
EASYDRAW_FONT
 72
     5
 11
3289.076416
 21
808.465759
  0
TEXT
  8
CSLAYER1
 62
     4
 10
2692.293229
 20
1059.309092
 40
47.730206
 41
0.593339
  1
昇降時間 ２２秒（50HZ） １８秒(60HZ)
 50
0.000000
 51
0.000000
  7
EASYDRAW_FONT
 72
     5
 11
3362.538314
 21
1059.309092
  0
TEXT
  8
CSLAYER1
 62
     4
 10
2693.593994
 20
933.866150
 40
40.000000
 41
0.912766
  1
上昇端、下降端リミットスイッチ付
 50
0.000000
 51
0.000000
  7
EASYDRAW_FONT
 72
     5
 11
3265.593994
 21
933.866150
  0
TEXT
  8
CSLAYER1
 62
     4
 10
2695.440729
 20
998.529530
 40
45.879784
 41
0.605080
  1
最大使用頻度８０回／時間・最大起動頻度１０回／分
 50
0.000000
 51
0.000000
  7
EASYDRAW_FONT
 72
     5
 11
3352.449408
 21
998.529530
  0
LINE
  8
CSLAYER1
  6
CONTINUOUS
 62
     5
 10
3400.647141
 20
1303.126535
 11
2679.774624
 21
1303.126535
  0
TEXT
  8
CSLAYER1
 62
     4
 10
2890.465820
 20
1312.364868
 40
40.000000
 41
0.825000
  1
マグネットスイッチ制御
 50
0.000000
 51
0.000000
  7
EASYDRAW_FONT
 72
     5
 11
3242.465820
 21
1312.364868
  0
TEXT
  8
CSLAYER1
 62
     4
 10
2693.216064
 20
1312.871216
 40
40.000000
 41
0.872727
  1
制御方式
 50
0.000000
 51
0.000000
  7
EASYDRAW_FONT
 72
     5
 11
2821.216064
 21
1312.871216
  0
TEXT
  8
CSLAYER1
 62
     3
 10
2689.516846
 20
1827.152466
 40
40.000000
 41
1.036364
  1
積載荷重
 50
0.000000
 51
0.000000
  7
EASYDRAW_FONT
 72
     5
 11
2841.516846
 21
1827.152466
  0
TEXT
  8
CSLAYER1
 62
     5
 10
2650.310303
 20
2048.422607
 40
40.000000
 41
1.020000
  1
コード長サ２ｍ
 50
360.000000
 51
0.000000
  7
EASYDRAW_FONT
 72
     5
 11
2922.310303
 21
2048.422607
  0
LINE
  8
CSLAYER1
  6
CONTINUOUS
 62
     5
 10
2452.129889
 20
2256.198093
 11
2352.336952
 21
1887.972630
  0
LINE
  8
CSLAYER1
  6
CONTINUOUS
 62
     5
 10
2352.336952
 20
1887.972630
 11
2352.422571
 21
1917.972508
  0
LINE
  8
CSLAYER1
  6
CONTINUOUS
 62
     5
 10
2352.336952
 20
1887.972630
 11
2367.411039
 21
1913.910476
  0
LINE
  8
CSLAYER1
  6
CONTINUOUS
 62
     5
 10
2640.518705
 20
2148.018545
 11
2498.398683
 21
1849.594123
  0
LINE
  8
CSLAYER1
  6
CONTINUOUS
 62
     5
 10
2498.398683
 20
1849.594123
 11
2503.847936
 21
1879.095066
  0
LINE
  8
CSLAYER1
  6
CONTINUOUS
 62
     5
 10
2498.398683
 20
1849.594123
 11
2517.868346
 21
1872.418063
  0
INSERT
  8
CSLAYER1
  2
BLKF0003
 10
0.0
 20
0.0
 30
0.0
  0
ENDSEC
  0
EOF
