  0
SECTION
  2
HEADER
  9
$ACADVER
  1
AC1006
  9
$INSBASE
 10
1227.292035
 20
5464.420354
 30
0.0
  9
$EXTMIN
 10
1227.292035
 20
5464.420354
  9
$EXTMAX
 10
6687.292035
 20
9319.420354
  9
$LIMMIN
 10
1227.292035
 20
5464.420354
  9
$LIMMAX
 10
6687.292035
 20
9319.420354
  9
$VIEWCTR
 10
3957.292035
 20
7391.920354
  9
$VIEWSIZE
 40
3855.000000
  9
$SNAPMODE
 70
     0
  9
$SNAPUNIT
 10
1.0
 20
1.0
  9
$SNAPBASE
 10
0.0
 20
0.0
  9
$SNAPANG
 50
0.0
  9
$SNAPSTYLE
 70
     0
  9
$SNAPISOPAIR
 70
     0
  9
$GRIDMODE
 70
     0
  9
$GRIDUNIT
 10
0.0
 20
0.0
  9
$ORTHOMODE
 70
     0
  9
$REGENMODE
 70
     1
  9
$FILLMODE
 70
     1
  9
$QTEXTMODE
 70
     0
  9
$DRAGMODE
 70
     2
  9
$LTSCALE
 40
15.000000
  9
$OSMODE
 70
     0
  9
$ATTMODE
 70
     1
  9
$TEXTSIZE
 40
0.2
  9
$TRACEWID
 40
0.05
  9
$TEXTSTYLE
  7
STANDARD
  9
$CLAYER
  8
CSLAYER1
  9
$CELTYPE
  6
BYLAYER
  9
$CECOLOR
 62
   256
  9
$DIMSCALE
 40
1.0
  9
$DIMASZ
 40
0.18
  9
$DIMEXO
 40
0.0625
  9
$DIMDLI
 40
0.38
  9
$DIMRND
 40
0.0
  9
$DIMDLE
 40
0.0
  9
$DIMEXE
 40
0.18
  9
$DIMTP
 40
0.0
  9
$DIMTM
 40
0.0
  9
$DIMTXT
 40
0.18
  9
$DIMCEN
 40
0.09
  9
$DIMTSZ
 40
0.0
  9
$DIMTOL
 70
     0
  9
$DIMLIM
 70
     0
  9
$DIMTIH
 70
     1
  9
$DIMTOH
 70
     1
  9
$DIMSE1
 70
     0
  9
$DIMSE2
 70
     0
  9
$DIMTAD
 70
     0
  9
$DIMZIN
 70
     0
  9
$DIMBLK
  1

  9
$LUNITS
 70
     2
  9
$LUPREC
 70
     4
  9
$AXISMODE
 70
     0
  9
$AXISUNIT
 10
0.0
 20
0.0
  9
$SKETCHINC
 40
0.1
  9
$FILLETRAD
 40
0.0
  9
$AUNITS
 70
     0
  9
$AUPREC
 70
     0
  9
$MENU
  1
ACAD
  9
$ELEVATION
 40
0.0
  9
$THICKNESS
 40
0.0
  9
$VIEWDIR
 10
0.0
 20
0.0
 30
1.0
  9
$LIMCHECK
 70
     0
  9
$BLIPMODE
 70
     1
  9
$CHAMFERA
 40
0.0
  9
$CHAMFERB
 40
0.0
  9
$FASTZOOM
 70
     1
  9
$SKPOLY
 70
     0
  9
$TDCREATE
 40
2457497.000000
  9
$TDUPDATE
 40
2457497.000000
  9
$TDINDWG
 40
0.0
  9
$TDUSRTIMER
 40
0.0
  9
$USRTIMER
 70
     1
  9
$ANGBASE
 50
0.0
  9
$ANGDIR
 70
     0
  9
$PDMODE
 70
     0
  9
$PDSIZE
 40
0.0
  9
$PLINEWID
 40
0.0
  9
$COORDS
 70
     0
  9
$USERI1
 70
     0
  9
$USERI2
 70
     0
  9
$USERI3
 70
     0
  9
$USERI4
 70
     0
  9
$USERI5
 70
     0
  9
$USERR1
 40
0.0
  9
$USERR2
 40
0.0
  9
$USERR3
 40
0.0
  9
$USERR4
 40
0.0
  9
$USERR5
 40
0.0
  0
ENDSEC
  0
SECTION
  2
TABLES
  0
TABLE
  2
LTYPE
 70
     9
  0
LTYPE
  2
CONTINUOUS
 70
    64
  3
Solid line
 72
    65
 73
     0
 40
0.0
  0
LTYPE
  2
DASHED
 70
    64
  3
__ __ __ __ __ __ __ __ __ __ __ __ __ __ __
 72
    65
 73
     2
 40
0.75
 49
0.5
 49
-0.25
  0
LTYPE
  2
HIDDEN
 70
    64
  3
_ _ _ _ _ _ _ _ _ _ _ _ _ _ _ _ _ _ _ _ _ _ _
 72
    65
 73
     2
 40
0.375
 49
0.25
 49
-0.125
  0
LTYPE
  2
DOT
 70
    64
  3
...............................................
 72
    65
 73
     2
 40
0.25
 49
0.0
 49
-0.25
  0
LTYPE
  2
DASHDOT
 70
    64
  3
__ . __ . __ . __ . __ . __ . __ . __ . __ . __
 72
    65
 73
     4
 40
1.0
 49
0.5
 49
-0.25
 49
0.0
 49
-0.25
  0
LTYPE
  2
DIVIDE
 70
    64
  3
__ . . __ . . __ . . __ . . __ . . __ . . __
 72
    65
 73
     6
 40
1.25
 49
0.5
 49
-0.25
 49
0.0
 49
-0.25
 49
0.0
 49
-0.25
  0
LTYPE
  2
CENTER
 70
    64
  3
____ _ ____ _ ____ _ ____ _ ____ _ ____ _ ____ 
 72
    65
 73
     4
 40
2.0
 49
1.25
 49
-0.25
 49
0.25
 49
-0.25
  0
LTYPE
  2
PHANTOM
 70
    64
  3
______  __  __  ______  __  __  ______  __  __ 
 72
    65
 73
     6
 40
2.5
 49
1.25
 49
-0.25
 49
0.25
 49
-0.25
 49
0.25
 49
-0.25
  0
LTYPE
  2
BORDER
 70
    64
  3
__ __ . __ __ . __ __ . __ __ . __ __ . __ __ .
 72
    65
 73
     6
 40
1.75
 49
0.5
 49
-0.25
 49
0.5
 49
-0.25
 49
0.0
 49
-0.25
  0
ENDTAB
  0
TABLE
  2
LAYER
 70
    16
  0
LAYER
  2
CSLAYER1
 70
    64
 62
     7
  6
CONTINUOUS
  0
LAYER
  2
CSLAYER2
 70
    64
 62
     7
  6
CONTINUOUS
  0
LAYER
  2
CSLAYER3
 70
    64
 62
     7
  6
CONTINUOUS
  0
LAYER
  2
CSLAYER4
 70
    64
 62
     7
  6
CONTINUOUS
  0
LAYER
  2
CSLAYER5
 70
    64
 62
     7
  6
CONTINUOUS
  0
LAYER
  2
CSLAYER6
 70
    64
 62
     7
  6
CONTINUOUS
  0
LAYER
  2
CSLAYER7
 70
    64
 62
     7
  6
CONTINUOUS
  0
LAYER
  2
CSLAYER8
 70
    64
 62
     7
  6
CONTINUOUS
  0
LAYER
  2
CSLAYER9
 70
    64
 62
     7
  6
CONTINUOUS
  0
LAYER
  2
CSLAYER10
 70
    64
 62
     7
  6
CONTINUOUS
  0
LAYER
  2
CSLAYER11
 70
    64
 62
     7
  6
CONTINUOUS
  0
LAYER
  2
CSLAYER12
 70
    64
 62
     7
  6
CONTINUOUS
  0
LAYER
  2
CSLAYER13
 70
    64
 62
     7
  6
CONTINUOUS
  0
LAYER
  2
CSLAYER14
 70
    64
 62
     7
  6
CONTINUOUS
  0
LAYER
  2
CSLAYER15
 70
    64
 62
     7
  6
CONTINUOUS
  0
LAYER
  2
CSLAYER16
 70
    64
 62
     7
  6
CONTINUOUS
  0
ENDTAB
  0
TABLE
  2
STYLE
 70
     1
  0
STYLE
  2
EASYDRAW_FONT
 70
     0
 40
1.0
 41
1.0
 50
0.0
 71
     0
 42
1.0
  3
monotxt
  4
bigfont
  0
ENDTAB
  0
TABLE
  2
VIEW
 70
     0
  0
ENDTAB
  0
ENDSEC
  0
SECTION
  2
BLOCKS
  0
BLOCK
  8
CSLAYER1
  2
EASYDRAWDIM0000
 70
   64
 10
0.0
 20
0.0
 30
0.0
  0
TEXT
  8
CSLAYER1
 62
     3
 10
1464.594238
 20
987.303101
 40
60.000000
 41
0.775862
  1
下限アジャストボルト
 50
0.000000
 51
0.000000
  7
EASYDRAW_FONT
 72
     5
 11
1914.594238
 21
987.303101
  0
LINE
  8
CSLAYER1
  6
CONTINUOUS
 62
     5
 10
1457.101423
 20
972.303030
 11
1929.594230
 21
972.303030
  0
ENDBLK
  8
0
  0
BLOCK
  8
CSLAYER1
  2
EASYDRAWDIM0001
 70
   64
 10
0.0
 20
0.0
 30
0.0
  0
TEXT
  8
CSLAYER1
 62
     3
 10
1384.008789
 20
1108.445679
 40
60.000000
 41
0.769737
  1
上限・下限リミットスイッチ
 50
0.000000
 51
0.000000
  7
EASYDRAW_FONT
 72
     5
 11
1969.008789
 21
1108.445679
  0
LINE
  8
CSLAYER1
  6
CONTINUOUS
 62
     5
 10
1132.891628
 20
698.793085
 11
1376.295886
 21
1093.445562
  0
LINE
  8
CSLAYER1
  6
CONTINUOUS
 62
     5
 10
1132.891628
 20
698.793085
 11
1145.796110
 21
741.903111
  0
LINE
  8
CSLAYER1
  6
CONTINUOUS
 62
     5
 10
1132.891628
 20
698.793085
 11
1165.622251
 21
729.675221
  0
LINE
  8
CSLAYER1
  6
CONTINUOUS
 62
     5
 10
1376.295886
 20
1093.445562
 11
1984.008784
 21
1093.445562
  0
ENDBLK
  8
0
  0
BLOCK
  8
CSLAYER1
  2
*D0000
 70
    65
 10
0.0
 20
0.0
 30
0.0
  0
TEXT
  8
CSLAYER1
 62
     3
 10
2374.253174
 20
2556.231689
 40
60.000000
 41
0.843750
  1
800
 50
0.000000
 51
0.000000
  7
EASYDRAW_FONT
 72
     5
 11
2509.253174
 21
2556.231689
  0
LINE
  8
CSLAYER1
  6
CONTINUOUS
 62
     5
 10
2041.753272
 20
2663.451672
 11
2041.753272
 21
2526.231650
  0
LINE
  8
CSLAYER1
  6
CONTINUOUS
 62
     5
 10
2841.753272
 20
2663.451672
 11
2841.753272
 21
2526.231650
  0
LINE
  8
CSLAYER1
  6
CONTINUOUS
 62
     5
 10
2041.753272
 20
2541.231650
 11
2841.753272
 21
2541.231650
  0
LINE
  8
CSLAYER1
  6
CONTINUOUS
 62
     5
 10
2041.753272
 20
2541.231650
 11
2085.219934
 21
2552.878507
  0
LINE
  8
CSLAYER1
  6
CONTINUOUS
 62
     5
 10
2041.753272
 20
2541.231650
 11
2085.219934
 21
2529.584793
  0
LINE
  8
CSLAYER1
  6
CONTINUOUS
 62
     5
 10
2841.753272
 20
2541.231650
 11
2798.286610
 21
2552.878507
  0
LINE
  8
CSLAYER1
  6
CONTINUOUS
 62
     5
 10
2841.753272
 20
2541.231650
 11
2798.286610
 21
2529.584793
  0
ENDBLK
  8
0
  0
BLOCK
  8
CSLAYER1
  2
*D0001
 70
    65
 10
0.0
 20
0.0
 30
0.0
  0
TEXT
  8
CSLAYER1
 62
     3
 10
956.179504
 20
430.587677
 40
60.000000
 41
0.843750
  1
440
 50
0.000000
 51
0.000000
  7
EASYDRAW_FONT
 72
     5
 11
1091.179504
 21
430.587677
  0
LINE
  8
CSLAYER1
  6
CONTINUOUS
 62
     5
 10
803.391628
 20
419.544851
 11
1243.391628
 21
419.544851
  0
LINE
  8
CSLAYER1
  6
CONTINUOUS
 62
     5
 10
803.391628
 20
419.544851
 11
846.858290
 21
431.191708
  0
LINE
  8
CSLAYER1
  6
CONTINUOUS
 62
     5
 10
803.391628
 20
419.544851
 11
846.858290
 21
407.897994
  0
LINE
  8
CSLAYER1
  6
CONTINUOUS
 62
     5
 10
1243.391628
 20
419.544851
 11
1199.924966
 21
431.191708
  0
LINE
  8
CSLAYER1
  6
CONTINUOUS
 62
     5
 10
1243.391628
 20
419.544851
 11
1199.924966
 21
407.897994
  0
ENDBLK
  8
0
  0
BLOCK
  8
CSLAYER1
  2
*D0002
 70
    65
 10
0.0
 20
0.0
 30
0.0
  0
TEXT
  8
CSLAYER1
 62
     3
 10
952.575500
 20
279.214172
 40
60.000000
 41
0.843750
  1
500
 50
0.000000
 51
0.000000
  7
EASYDRAW_FONT
 72
     5
 11
1087.575500
 21
279.214172
  0
LINE
  8
CSLAYER1
  6
CONTINUOUS
 62
     5
 10
773.391628
 20
550.872649
 11
773.391628
 21
257.774976
  0
LINE
  8
CSLAYER1
  6
CONTINUOUS
 62
     5
 10
1273.391628
 20
550.872649
 11
1273.391628
 21
257.774976
  0
LINE
  8
CSLAYER1
  6
CONTINUOUS
 62
     5
 10
773.391628
 20
272.774976
 11
1273.391628
 21
272.774976
  0
LINE
  8
CSLAYER1
  6
CONTINUOUS
 62
     5
 10
773.391628
 20
272.774976
 11
816.858290
 21
284.421833
  0
LINE
  8
CSLAYER1
  6
CONTINUOUS
 62
     5
 10
773.391628
 20
272.774976
 11
816.858290
 21
261.128119
  0
LINE
  8
CSLAYER1
  6
CONTINUOUS
 62
     5
 10
1273.391628
 20
272.774976
 11
1229.924966
 21
284.421833
  0
LINE
  8
CSLAYER1
  6
CONTINUOUS
 62
     5
 10
1273.391628
 20
272.774976
 11
1229.924966
 21
261.128119
  0
ENDBLK
  8
0
  0
BLOCK
  8
CSLAYER1
  2
*D0003
 70
    65
 10
0.0
 20
0.0
 30
0.0
  0
TEXT
  8
CSLAYER1
 62
     3
 10
1383.256104
 20
585.955383
 40
60.000000
 41
0.843750
  1
4.5
 50
90.000000
 51
0.000000
  7
EASYDRAW_FONT
 72
     5
 11
1383.256104
 21
720.955383
  0
LINE
  8
CSLAYER1
  6
CONTINUOUS
 62
     5
 10
1288.391628
 20
565.872649
 11
1412.829208
 21
565.872649
  0
LINE
  8
CSLAYER1
  6
CONTINUOUS
 62
     5
 10
1283.711238
 20
571.372649
 11
1412.829208
 21
571.372649
  0
LINE
  8
CSLAYER1
  6
CONTINUOUS
 62
     5
 10
1397.829208
 20
565.872649
 11
1397.829208
 21
490.872649
  0
LINE
  8
CSLAYER1
  6
CONTINUOUS
 62
     5
 10
1397.829208
 20
565.872649
 11
1386.182351
 21
522.405987
  0
LINE
  8
CSLAYER1
  6
CONTINUOUS
 62
     5
 10
1397.829208
 20
565.872649
 11
1409.476065
 21
522.405987
  0
LINE
  8
CSLAYER1
  6
CONTINUOUS
 62
     5
 10
1397.829208
 20
571.372649
 11
1397.829208
 21
653.455420
  0
LINE
  8
CSLAYER1
  6
CONTINUOUS
 62
     5
 10
1397.829208
 20
571.372649
 11
1386.182351
 21
614.839311
  0
LINE
  8
CSLAYER1
  6
CONTINUOUS
 62
     5
 10
1397.829208
 20
571.372649
 11
1409.476065
 21
614.839311
  0
LINE
  8
CSLAYER1
  6
CONTINUOUS
 62
     5
 10
1397.829208
 20
565.872649
 11
1397.829208
 21
571.372649
  0
ENDBLK
  8
0
  0
BLOCK
  8
CSLAYER1
  2
*D0004
 70
    65
 10
0.0
 20
0.0
 30
0.0
  0
TEXT
  8
CSLAYER1
 62
     3
 10
2977.872070
 20
2910.951904
 40
60.000000
 41
0.843750
  1
600
 50
90.000000
 51
0.000000
  7
EASYDRAW_FONT
 72
     5
 11
2977.872070
 21
3045.951904
  0
LINE
  8
CSLAYER1
  6
CONTINUOUS
 62
     5
 10
2856.753272
 20
2678.451672
 11
3007.872049
 21
2678.451672
  0
LINE
  8
CSLAYER1
  6
CONTINUOUS
 62
     5
 10
2856.753272
 20
3278.451672
 11
3007.872049
 21
3278.451672
  0
LINE
  8
CSLAYER1
  6
CONTINUOUS
 62
     5
 10
2992.872049
 20
2678.451672
 11
2992.872049
 21
3278.451672
  0
LINE
  8
CSLAYER1
  6
CONTINUOUS
 62
     5
 10
2992.872049
 20
2678.451672
 11
2981.225192
 21
2721.918335
  0
LINE
  8
CSLAYER1
  6
CONTINUOUS
 62
     5
 10
2992.872049
 20
2678.451672
 11
3004.518906
 21
2721.918335
  0
LINE
  8
CSLAYER1
  6
CONTINUOUS
 62
     5
 10
2992.872049
 20
3278.451672
 11
2981.225192
 21
3234.985010
  0
LINE
  8
CSLAYER1
  6
CONTINUOUS
 62
     5
 10
2992.872049
 20
3278.451672
 11
3004.518906
 21
3234.985010
  0
ENDBLK
  8
0
  0
BLOCK
  8
CSLAYER1
  2
EASYDRAWDIM0002
 70
   64
 10
0.0
 20
0.0
 30
0.0
  0
TEXT
  8
CSLAYER1
 62
     3
 10
2651.199219
 20
1058.814331
 40
58.837482
 41
0.648771
  1
ギヤードモーター
 50
0.000000
 51
0.000000
  7
EASYDRAW_FONT
 72
     5
 11
2943.851746
 21
1058.814331
  0
LINE
  8
CSLAYER1
  6
CONTINUOUS
 62
     5
 10
2492.874973
 20
853.318710
 11
2644.936067
 21
1048.787697
  0
LINE
  8
CSLAYER1
  6
CONTINUOUS
 62
     5
 10
2492.874973
 20
853.318710
 11
2510.371369
 21
894.778041
  0
LINE
  8
CSLAYER1
  6
CONTINUOUS
 62
     5
 10
2492.874973
 20
853.318710
 11
2528.756962
 21
880.475346
  0
LINE
  8
CSLAYER1
  6
CONTINUOUS
 62
     5
 10
2644.936067
 20
1048.787697
 11
2935.157888
 21
1048.787697
  0
ENDBLK
  8
0
  0
BLOCK
  8
CSLAYER1
  2
*D0005
 70
    65
 10
0.0
 20
0.0
 30
0.0
  0
TEXT
  8
CSLAYER1
 62
     3
 10
3116.845215
 20
1396.467163
 40
60.000000
 41
0.818182
  1
1800
 50
90.000000
 51
0.000000
  7
EASYDRAW_FONT
 72
     5
 11
3116.845215
 21
1576.467163
  0
LINE
  8
CSLAYER1
  6
CONTINUOUS
 62
     5
 10
2854.953272
 20
565.872649
 11
3146.845278
 21
565.872649
  0
LINE
  8
CSLAYER1
  6
CONTINUOUS
 62
     5
 10
2856.753272
 20
2407.061616
 11
3146.845278
 21
2407.061616
  0
LINE
  8
CSLAYER1
  6
CONTINUOUS
 62
     5
 10
3131.845278
 20
565.872649
 11
3131.845278
 21
2407.061616
  0
LINE
  8
CSLAYER1
  6
CONTINUOUS
 62
     5
 10
3131.845278
 20
565.872649
 11
3120.198421
 21
609.339311
  0
LINE
  8
CSLAYER1
  6
CONTINUOUS
 62
     5
 10
3131.845278
 20
565.872649
 11
3143.492135
 21
609.339311
  0
LINE
  8
CSLAYER1
  6
CONTINUOUS
 62
     5
 10
3131.845278
 20
2407.061616
 11
3120.198421
 21
2363.594954
  0
LINE
  8
CSLAYER1
  6
CONTINUOUS
 62
     5
 10
3131.845278
 20
2407.061616
 11
3143.492135
 21
2363.594954
  0
ENDBLK
  8
0
  0
BLOCK
  8
CSLAYER1
  2
*D0006
 70
    65
 10
0.0
 20
0.0
 30
0.0
  0
TEXT
  8
CSLAYER1
 62
     3
 10
2977.872070
 20
673.372864
 40
60.000000
 41
0.843750
  1
350
 50
90.000000
 51
0.000000
  7
EASYDRAW_FONT
 72
     5
 11
2977.872070
 21
808.372864
  0
LINE
  8
CSLAYER1
  6
CONTINUOUS
 62
     5
 10
2856.753272
 20
915.872649
 11
3007.872049
 21
915.872649
  0
LINE
  8
CSLAYER1
  6
CONTINUOUS
 62
     5
 10
2992.872049
 20
565.872649
 11
2992.872049
 21
915.872649
  0
LINE
  8
CSLAYER1
  6
CONTINUOUS
 62
     5
 10
2992.872049
 20
565.872649
 11
2981.225192
 21
609.339311
  0
LINE
  8
CSLAYER1
  6
CONTINUOUS
 62
     5
 10
2992.872049
 20
565.872649
 11
3004.518906
 21
609.339311
  0
LINE
  8
CSLAYER1
  6
CONTINUOUS
 62
     5
 10
2992.872049
 20
915.872649
 11
2981.225192
 21
872.405987
  0
LINE
  8
CSLAYER1
  6
CONTINUOUS
 62
     5
 10
2992.872049
 20
915.872649
 11
3004.518906
 21
872.405987
  0
ENDBLK
  8
0
  0
BLOCK
  8
CSLAYER1
  2
*D0007
 70
    65
 10
0.0
 20
0.0
 30
0.0
  0
TEXT
  8
CSLAYER1
 62
     3
 10
2977.872070
 20
1571.467163
 40
60.000000
 41
0.818182
  1
1450
 50
90.000000
 51
0.000000
  7
EASYDRAW_FONT
 72
     5
 11
2977.872070
 21
1751.467163
  0
LINE
  8
CSLAYER1
  6
CONTINUOUS
 62
     5
 10
2992.872049
 20
915.872649
 11
2992.872049
 21
2407.061616
  0
LINE
  8
CSLAYER1
  6
CONTINUOUS
 62
     5
 10
2992.872049
 20
915.872649
 11
2981.225192
 21
959.339311
  0
LINE
  8
CSLAYER1
  6
CONTINUOUS
 62
     5
 10
2992.872049
 20
915.872649
 11
3004.518906
 21
959.339311
  0
LINE
  8
CSLAYER1
  6
CONTINUOUS
 62
     5
 10
2992.872049
 20
2407.061616
 11
2981.225192
 21
2363.594954
  0
LINE
  8
CSLAYER1
  6
CONTINUOUS
 62
     5
 10
2992.872049
 20
2407.061616
 11
3004.518906
 21
2363.594954
  0
ENDBLK
  8
0
  0
BLOCK
  8
CSLAYER1
  2
EASYDRAWDIM0003
 70
   64
 10
0.0
 20
0.0
 30
0.0
  0
TEXT
  8
CSLAYER1
 62
     3
 10
1430.267700
 20
418.415314
 40
60.000000
 41
0.803571
  1
4-%%c13
 50
0.000000
 51
0.000000
  7
EASYDRAW_FONT
 72
     5
 11
1655.267700
 21
418.415314
  0
LINE
  8
CSLAYER1
  6
CONTINUOUS
 62
     5
 10
2090.953272
 20
565.872649
 11
1879.136167
 21
408.766891
  0
LINE
  8
CSLAYER1
  6
CONTINUOUS
 62
     5
 10
2090.953272
 20
565.872649
 11
2062.979779
 21
530.623766
  0
LINE
  8
CSLAYER1
  6
CONTINUOUS
 62
     5
 10
2090.953272
 20
565.872649
 11
2049.103075
 21
549.332967
  0
LINE
  8
CSLAYER1
  6
CONTINUOUS
 62
     5
 10
1879.136167
 20
408.766891
 11
1409.961032
 21
408.766891
  0
ENDBLK
  8
0
  0
BLOCK
  8
CSLAYER1
  2
*D0008
 70
    65
 10
0.0
 20
0.0
 30
0.0
  0
TEXT
  8
CSLAYER1
 62
     3
 10
2372.953125
 20
287.774719
 40
60.000000
 41
0.843750
  1
800
 50
0.000000
 51
0.000000
  7
EASYDRAW_FONT
 72
     5
 11
2507.953125
 21
287.774719
  0
LINE
  8
CSLAYER1
  6
CONTINUOUS
 62
     5
 10
2040.953272
 20
550.872649
 11
2040.953272
 21
257.774976
  0
LINE
  8
CSLAYER1
  6
CONTINUOUS
 62
     5
 10
2839.953272
 20
550.872649
 11
2839.953272
 21
257.774976
  0
LINE
  8
CSLAYER1
  6
CONTINUOUS
 62
     5
 10
2040.953272
 20
272.774976
 11
2839.953272
 21
272.774976
  0
LINE
  8
CSLAYER1
  6
CONTINUOUS
 62
     5
 10
2040.953272
 20
272.774976
 11
2084.419934
 21
284.421833
  0
LINE
  8
CSLAYER1
  6
CONTINUOUS
 62
     5
 10
2040.953272
 20
272.774976
 11
2084.419934
 21
261.128119
  0
LINE
  8
CSLAYER1
  6
CONTINUOUS
 62
     5
 10
2839.953272
 20
272.774976
 11
2796.486610
 21
284.421833
  0
LINE
  8
CSLAYER1
  6
CONTINUOUS
 62
     5
 10
2839.953272
 20
272.774976
 11
2796.486610
 21
261.128119
  0
ENDBLK
  8
0
  0
BLOCK
  8
CSLAYER1
  2
*D0009
 70
    65
 10
0.0
 20
0.0
 30
0.0
  0
TEXT
  8
CSLAYER1
 62
     3
 10
2053.773438
 20
338.457336
 40
60.000000
 41
0.900000
  1
50
 50
0.000000
 51
0.000000
  7
EASYDRAW_FONT
 72
     5
 11
2143.773438
 21
338.457336
  0
LINE
  8
CSLAYER1
  6
CONTINUOUS
 62
     5
 10
2040.953272
 20
419.544851
 11
2090.953272
 21
419.544851
  0
LINE
  8
CSLAYER1
  6
CONTINUOUS
 62
     5
 10
2040.953272
 20
419.544851
 11
2084.419934
 21
431.191708
  0
LINE
  8
CSLAYER1
  6
CONTINUOUS
 62
     5
 10
2040.953272
 20
419.544851
 11
2084.419934
 21
407.897994
  0
LINE
  8
CSLAYER1
  6
CONTINUOUS
 62
     5
 10
2090.953272
 20
419.544851
 11
2047.486610
 21
431.191708
  0
LINE
  8
CSLAYER1
  6
CONTINUOUS
 62
     5
 10
2090.953272
 20
419.544851
 11
2047.486610
 21
407.897994
  0
ENDBLK
  8
0
  0
BLOCK
  8
CSLAYER1
  2
*D0010
 70
    65
 10
0.0
 20
0.0
 30
0.0
  0
TEXT
  8
CSLAYER1
 62
     3
 10
2218.885742
 20
430.546661
 40
60.000000
 41
0.843750
  1
400
 50
0.000000
 51
0.000000
  7
EASYDRAW_FONT
 72
     5
 11
2353.885742
 21
430.546661
  0
LINE
  8
CSLAYER1
  6
CONTINUOUS
 62
     5
 10
2090.953272
 20
419.544851
 11
2490.953272
 21
419.544851
  0
LINE
  8
CSLAYER1
  6
CONTINUOUS
 62
     5
 10
2090.953272
 20
419.544851
 11
2134.419934
 21
431.191708
  0
LINE
  8
CSLAYER1
  6
CONTINUOUS
 62
     5
 10
2090.953272
 20
419.544851
 11
2134.419934
 21
407.897994
  0
LINE
  8
CSLAYER1
  6
CONTINUOUS
 62
     5
 10
2490.953272
 20
419.544851
 11
2447.486610
 21
431.191708
  0
LINE
  8
CSLAYER1
  6
CONTINUOUS
 62
     5
 10
2490.953272
 20
419.544851
 11
2447.486610
 21
407.897994
  0
ENDBLK
  8
0
  0
BLOCK
  8
CSLAYER1
  2
EASYDRAWDIM0004
 70
   64
 10
0.0
 20
0.0
 30
0.0
  0
TEXT
  8
CSLAYER1
 62
     3
 10
1425.904861
 20
347.170227
 40
50.470764
 41
0.839416
  1
アンカーボルト取付穴
 50
0.000000
 51
0.000000
  7
EASYDRAW_FONT
 72
     5
 11
1835.442749
 21
347.170227
  0
ENDBLK
  8
0
  0
BLOCK
  8
CSLAYER1
  2
BLKF0000
 70
   64
 10
0.0
 20
0.0
 30
0.0
  0
ARC
  8
CSLAYER1
  6
CONTINUOUS
 62
     5
 10
4169.771750
 20
120.742239
 40
5.323837
 50
6.429109
 51
73.182034
  0
ARC
  8
CSLAYER1
  6
CONTINUOUS
 62
     5
 10
4164.580294
 20
119.004650
 40
10.361631
 50
310.517970
 51
330.092764
  0
ARC
  8
CSLAYER1
  6
CONTINUOUS
 62
     5
 10
4164.489320
 20
119.552927
 40
10.722482
 50
-32.205059
 51
9.585194
  0
ARC
  8
CSLAYER1
  6
CONTINUOUS
 62
     5
 10
4169.428412
 20
115.411429
 40
7.151272
 50
180.000000
 51
218.514150
  0
ARC
  8
CSLAYER1
  6
CONTINUOUS
 62
     5
 10
4167.498330
 20
114.395718
 40
5.022423
 50
222.781148
 51
319.406906
  0
ARC
  8
CSLAYER1
  6
CONTINUOUS
 62
     5
 10
4172.096793
 20
116.030557
 40
9.839152
 50
94.574282
 51
183.607718
  0
LINE
  8
CSLAYER1
  6
CONTINUOUS
 62
     5
 10
4192.262653
 20
108.355309
 11
4190.977098
 21
103.797435
  0
LINE
  8
CSLAYER1
  6
CONTINUOUS
 62
     5
 10
4194.950630
 20
138.156795
 11
4191.795178
 21
142.247195
  0
LINE
  8
CSLAYER1
  6
CONTINUOUS
 62
     5
 10
4191.795178
 20
142.247195
 11
4181.665147
 21
147.884063
  0
LINE
  8
CSLAYER1
  6
CONTINUOUS
 62
     5
 10
4181.665147
 20
147.884063
 11
4171.312106
 21
149.088369
  0
LINE
  8
CSLAYER1
  6
CONTINUOUS
 62
     5
 10
4143.878268
 20
129.020359
 11
4147.098310
 21
136.466705
  0
LINE
  8
CSLAYER1
  6
CONTINUOUS
 62
     5
 10
4147.042813
 20
136.338369
 11
4150.318351
 21
140.290504
  0
LINE
  8
CSLAYER1
  6
CONTINUOUS
 62
     5
 10
4150.318351
 20
140.290504
 11
4155.274984
 21
143.838369
  0
LINE
  8
CSLAYER1
  6
CONTINUOUS
 62
     5
 10
4171.312106
 20
149.088369
 11
4169.034843
 21
147.938103
  0
LINE
  8
CSLAYER1
  6
CONTINUOUS
 62
     5
 10
4169.034843
 20
147.938103
 11
4163.802275
 21
147.938103
  0
LINE
  8
CSLAYER1
  6
CONTINUOUS
 62
     5
 10
4163.802275
 20
147.938103
 11
4158.469081
 21
145.019940
  0
LINE
  8
CSLAYER1
  6
CONTINUOUS
 62
     5
 10
4158.469081
 20
145.019940
 11
4155.274984
 21
143.838369
  0
LINE
  8
CSLAYER1
  6
CONTINUOUS
 62
     5
 10
4143.878268
 20
129.020359
 11
4141.601947
 21
117.697454
  0
LINE
  8
CSLAYER1
  6
CONTINUOUS
 62
     5
 10
4141.601947
 20
117.697454
 11
4141.312106
 21
113.838369
  0
LINE
  8
CSLAYER1
  6
CONTINUOUS
 62
     5
 10
4145.376180
 20
102.078696
 11
4141.312106
 21
111.222862
  0
LINE
  8
CSLAYER1
  6
CONTINUOUS
 62
     5
 10
4141.312106
 20
111.222862
 11
4141.312106
 21
113.838369
  0
LINE
  8
CSLAYER1
  6
CONTINUOUS
 62
     5
 10
4190.977098
 20
103.797435
 11
4188.448418
 21
99.292925
  0
LINE
  8
CSLAYER1
  6
CONTINUOUS
 62
     5
 10
4188.448418
 20
99.292925
 11
4186.312106
 21
97.314859
  0
ARC
  8
CSLAYER1
  6
CONTINUOUS
 62
     5
 10
4168.024189
 20
114.643510
 40
25.899940
 50
208.054813
 51
260.640470
  0
ARC
  8
CSLAYER1
  6
CONTINUOUS
 62
     5
 10
4160.234096
 20
133.757214
 40
44.811916
 50
274.579659
 51
305.587364
  0
ARC
  8
CSLAYER1
  6
CONTINUOUS
 62
     5
 10
4176.692620
 20
124.781631
 40
22.632940
 50
313.467013
 51
331.085078
  0
LINE
  8
CSLAYER1
  6
CONTINUOUS
 62
     5
 10
4198.879618
 20
119.108501
 11
4199.325560
 21
124.781631
  0
LINE
  8
CSLAYER1
  6
CONTINUOUS
 62
     5
 10
4199.325560
 20
124.781631
 11
4197.387563
 21
133.945105
  0
LINE
  8
CSLAYER1
  6
CONTINUOUS
 62
     5
 10
4198.879618
 20
119.108501
 11
4196.504106
 21
113.838369
  0
ARC
  8
CSLAYER1
  6
CONTINUOUS
 62
     5
 10
4176.692620
 20
124.781631
 40
22.632940
 50
23.883193
 51
36.225170
  0
LINE
  8
CSLAYER1
  6
CONTINUOUS
 62
     5
 10
4117.312106
 20
166.338369
 11
4118.812106
 21
167.977336
  0
LINE
  8
CSLAYER1
  6
CONTINUOUS
 62
     5
 10
4117.312106
 20
166.338369
 11
4119.677543
 21
164.170820
  0
LINE
  8
CSLAYER1
  6
CONTINUOUS
 62
     5
 10
4121.986362
 20
161.006882
 11
4122.025764
 21
157.754704
  0
LINE
  8
CSLAYER1
  6
CONTINUOUS
 62
     5
 10
4122.025764
 20
157.754704
 11
4122.336861
 21
156.614015
  0
LINE
  8
CSLAYER1
  6
CONTINUOUS
 62
     5
 10
4122.336861
 20
156.614015
 11
4123.218303
 21
155.525175
  0
LINE
  8
CSLAYER1
  6
CONTINUOUS
 62
     5
 10
4123.218303
 20
155.525175
 11
4124.099744
 21
155.628874
  0
LINE
  8
CSLAYER1
  6
CONTINUOUS
 62
     5
 10
4124.099744
 20
155.628874
 11
4125.033035
 21
155.888122
  0
LINE
  8
CSLAYER1
  6
CONTINUOUS
 62
     5
 10
4125.033035
 20
155.888122
 11
4125.655229
 21
155.628874
  0
LINE
  8
CSLAYER1
  6
CONTINUOUS
 62
     5
 10
4125.655229
 20
155.628874
 11
4127.003316
 21
154.954831
  0
LINE
  8
CSLAYER1
  6
CONTINUOUS
 62
     5
 10
4127.003316
 20
154.954831
 11
4128.167393
 21
154.338369
  0
LINE
  8
CSLAYER1
  6
CONTINUOUS
 62
     5
 10
4128.167393
 20
154.338369
 11
4128.921747
 21
154.384486
  0
LINE
  8
CSLAYER1
  6
CONTINUOUS
 62
     5
 10
4128.921747
 20
154.384486
 11
4133.133555
 21
156.554206
  0
LINE
  8
CSLAYER1
  6
CONTINUOUS
 62
     5
 10
4118.812106
 20
167.977336
 11
4119.311384
 21
170.187897
  0
LINE
  8
CSLAYER1
  6
CONTINUOUS
 62
     5
 10
4119.311384
 20
170.187897
 11
4121.491492
 21
170.413425
  0
LINE
  8
CSLAYER1
  6
CONTINUOUS
 62
     5
 10
4123.732129
 20
174.566113
 11
4126.363389
 21
174.801748
  0
LINE
  8
CSLAYER1
  6
CONTINUOUS
 62
     5
 10
4126.363389
 20
174.801748
 11
4131.665180
 21
176.058469
  0
LINE
  8
CSLAYER1
  6
CONTINUOUS
 62
     5
 10
4131.665180
 20
176.058469
 11
4133.812106
 21
176.555928
  0
LINE
  8
CSLAYER1
  6
CONTINUOUS
 62
     5
 10
4123.732129
 20
174.566113
 11
4120.832793
 21
174.804415
  0
LINE
  8
CSLAYER1
  6
CONTINUOUS
 62
     5
 10
4119.728608
 20
173.501384
 11
4119.868896
 21
172.944642
  0
LINE
  8
CSLAYER1
  6
CONTINUOUS
 62
     5
 10
4119.868896
 20
172.944642
 11
4120.606287
 21
172.138120
  0
LINE
  8
CSLAYER1
  6
CONTINUOUS
 62
     5
 10
4120.606287
 20
172.138120
 11
4121.620200
 21
171.377686
  0
LINE
  8
CSLAYER1
  6
CONTINUOUS
 62
     5
 10
4121.620200
 20
171.377686
 11
4121.805187
 21
171.131036
  0
LINE
  8
CSLAYER1
  6
CONTINUOUS
 62
     5
 10
4119.677543
 20
164.170820
 11
4121.986362
 21
161.006882
  0
ARC
  8
CSLAYER1
  6
CONTINUOUS
 62
     5
 10
4186.292157
 20
-91.149610
 40
271.091195
 50
80.438896
 51
96.353582
  0
ARC
  8
CSLAYER1
  6
CONTINUOUS
 62
     5
 10
4148.943787
 20
126.722240
 40
52.080363
 50
81.866516
 51
106.890578
  0
LINE
  8
CSLAYER1
  6
CONTINUOUS
 62
     5
 10
4237.603498
 20
174.988375
 11
4240.974122
 21
173.456273
  0
LINE
  8
CSLAYER1
  6
CONTINUOUS
 62
     5
 10
4246.336478
 20
171.081515
 11
4240.974122
 21
173.456273
  0
LINE
  8
CSLAYER1
  6
CONTINUOUS
 62
     5
 10
4237.603498
 20
174.988375
 11
4231.312106
 21
176.177232
  0
LINE
  8
CSLAYER1
  6
CONTINUOUS
 62
     5
 10
4246.312106
 20
171.092308
 11
4249.119469
 21
168.739593
  0
LINE
  8
CSLAYER1
  6
CONTINUOUS
 62
     5
 10
4221.176990
 20
172.647585
 11
4222.525902
 21
174.826597
  0
LINE
  8
CSLAYER1
  6
CONTINUOUS
 62
     5
 10
4222.525902
 20
174.826597
 11
4229.539300
 21
173.147333
  0
LINE
  8
CSLAYER1
  6
CONTINUOUS
 62
     5
 10
4229.539300
 20
173.147333
 11
4254.652879
 21
166.338369
  0
LINE
  8
CSLAYER1
  6
CONTINUOUS
 62
     5
 10
4259.062106
 20
166.338369
 11
4249.119469
 21
168.739593
  0
LINE
  8
CSLAYER1
  6
CONTINUOUS
 62
     5
 10
4254.652879
 20
166.338369
 11
4259.062106
 21
166.338369
  0
LINE
  8
CSLAYER1
  6
CONTINUOUS
 62
     5
 10
4171.312106
 20
173.035781
 11
4201.312106
 21
173.838369
  0
LINE
  8
CSLAYER1
  6
CONTINUOUS
 62
     5
 10
4201.312106
 20
173.838369
 11
4221.176990
 21
172.647585
  0
LINE
  8
CSLAYER1
  6
CONTINUOUS
 62
     5
 10
4223.581462
 20
169.556865
 11
4201.312106
 21
171.588369
  0
LINE
  8
CSLAYER1
  6
CONTINUOUS
 62
     5
 10
4201.312106
 20
171.588369
 11
4178.738292
 21
172.201347
  0
LINE
  8
CSLAYER1
  6
CONTINUOUS
 62
     5
 10
4178.812106
 20
172.199343
 11
4171.312106
 21
172.342284
  0
LINE
  8
CSLAYER1
  6
CONTINUOUS
 62
     5
 10
4171.312106
 20
173.035781
 11
4171.312106
 21
172.342284
  0
LINE
  8
CSLAYER1
  6
CONTINUOUS
 62
     5
 10
4257.562106
 20
161.088369
 11
4244.298268
 21
164.554363
  0
LINE
  8
CSLAYER1
  6
CONTINUOUS
 62
     5
 10
4223.581462
 20
169.556865
 11
4238.812106
 21
166.598290
  0
LINE
  8
CSLAYER1
  6
CONTINUOUS
 62
     5
 10
4238.812106
 20
166.598290
 11
4244.298268
 21
164.554363
  0
LINE
  8
CSLAYER1
  6
CONTINUOUS
 62
     5
 10
4257.562106
 20
161.088369
 11
4257.123180
 21
159.829711
  0
LINE
  8
CSLAYER1
  6
CONTINUOUS
 62
     5
 10
4271.812106
 20
152.838369
 11
4271.353065
 21
154.681841
  0
LINE
  8
CSLAYER1
  6
CONTINUOUS
 62
     5
 10
4257.123180
 20
159.829711
 11
4271.353065
 21
154.681841
  0
LINE
  8
CSLAYER1
  6
CONTINUOUS
 62
     5
 10
4176.562106
 20
161.088369
 11
4180.196663
 21
161.088369
  0
LINE
  8
CSLAYER1
  6
CONTINUOUS
 62
     5
 10
4210.312106
 20
161.737113
 11
4210.312106
 21
161.088369
  0
LINE
  8
CSLAYER1
  6
CONTINUOUS
 62
     5
 10
4208.812106
 20
162.538774
 11
4206.245187
 21
163.494542
  0
LINE
  8
CSLAYER1
  6
CONTINUOUS
 62
     5
 10
4206.245187
 20
163.494542
 11
4204.580103
 21
163.570227
  0
LINE
  8
CSLAYER1
  6
CONTINUOUS
 62
     5
 10
4204.580103
 20
163.570227
 11
4203.861090
 21
163.191799
  0
LINE
  8
CSLAYER1
  6
CONTINUOUS
 62
     5
 10
4203.861090
 20
163.191799
 11
4203.709718
 21
162.586314
  0
LINE
  8
CSLAYER1
  6
CONTINUOUS
 62
     5
 10
4203.709718
 20
162.586314
 11
4204.390889
 21
162.132200
  0
LINE
  8
CSLAYER1
  6
CONTINUOUS
 62
     5
 10
4204.390889
 20
162.132200
 11
4206.850672
 21
161.905143
  0
LINE
  8
CSLAYER1
  6
CONTINUOUS
 62
     5
 10
4206.850672
 20
161.905143
 11
4210.312106
 21
161.737113
  0
LINE
  8
CSLAYER1
  6
CONTINUOUS
 62
     5
 10
4271.812106
 20
152.838369
 11
4267.348792
 21
154.618242
  0
LINE
  8
CSLAYER1
  6
CONTINUOUS
 62
     5
 10
4267.348792
 20
154.618242
 11
4252.265258
 21
157.382555
  0
LINE
  8
CSLAYER1
  6
CONTINUOUS
 62
     5
 10
4252.265258
 20
157.382555
 11
4244.726588
 21
159.122248
  0
LINE
  8
CSLAYER1
  6
CONTINUOUS
 62
     5
 10
4211.113437
 20
162.588369
 11
4228.761936
 21
162.588369
  0
LINE
  8
CSLAYER1
  6
CONTINUOUS
 62
     5
 10
4208.812106
 20
162.538774
 11
4209.599096
 21
162.076073
  0
LINE
  8
CSLAYER1
  6
CONTINUOUS
 62
     5
 10
4209.599096
 20
162.076073
 11
4210.044314
 21
161.942508
  0
LINE
  8
CSLAYER1
  6
CONTINUOUS
 62
     5
 10
4210.044314
 20
161.942508
 11
4210.312106
 21
161.980263
  0
LINE
  8
CSLAYER1
  6
CONTINUOUS
 62
     5
 10
4210.312106
 20
161.980263
 11
4211.113437
 21
162.588369
  0
LINE
  8
CSLAYER1
  6
CONTINUOUS
 62
     5
 10
4228.761936
 20
162.588369
 11
4235.437340
 21
161.045131
  0
LINE
  8
CSLAYER1
  6
CONTINUOUS
 62
     5
 10
4235.437340
 20
161.045131
 11
4241.667127
 21
159.297408
  0
LINE
  8
CSLAYER1
  6
CONTINUOUS
 62
     5
 10
4241.667127
 20
159.297408
 11
4244.726588
 21
159.122248
  0
LINE
  8
CSLAYER1
  6
CONTINUOUS
 62
     5
 10
4175.062106
 20
159.588369
 11
4175.062106
 21
158.838369
  0
LINE
  8
CSLAYER1
  6
CONTINUOUS
 62
     5
 10
4171.312106
 20
158.838369
 11
4175.062106
 21
158.838369
  0
ARC
  8
CSLAYER1
  6
CONTINUOUS
 62
     5
 10
4176.562106
 20
159.588369
 40
1.500000
 50
90.000000
 51
180.000000
  0
LINE
  8
CSLAYER1
  6
CONTINUOUS
 62
     5
 10
4180.196663
 20
161.088369
 11
4181.242998
 21
160.230375
  0
LINE
  8
CSLAYER1
  6
CONTINUOUS
 62
     5
 10
4182.146550
 20
160.194434
 11
4183.432945
 21
161.088369
  0
LINE
  8
CSLAYER1
  6
CONTINUOUS
 62
     5
 10
4185.800540
 20
161.088369
 11
4188.301228
 21
160.101256
  0
LINE
  8
CSLAYER1
  6
CONTINUOUS
 62
     5
 10
4188.936791
 20
160.141024
 11
4190.667022
 21
161.088369
  0
LINE
  8
CSLAYER1
  6
CONTINUOUS
 62
     5
 10
4183.432945
 20
161.088369
 11
4185.800540
 21
161.088369
  0
LINE
  8
CSLAYER1
  6
CONTINUOUS
 62
     5
 10
4190.667022
 20
161.088369
 11
4210.312106
 21
161.088369
  0
LINE
  8
CSLAYER1
  6
CONTINUOUS
 62
     5
 10
4139.135581
 20
156.425130
 11
4171.312106
 21
158.838369
  0
LINE
  8
CSLAYER1
  6
CONTINUOUS
 62
     5
 10
4133.133555
 20
156.554206
 11
4139.135581
 21
156.425130
  0
ARC
  8
CSLAYER1
  6
CONTINUOUS
 62
     5
 10
4181.718558
 20
160.810325
 40
0.750000
 50
230.648247
 51
304.796026
  0
ARC
  8
CSLAYER1
  6
CONTINUOUS
 62
     5
 10
4188.576603
 20
160.798872
 40
0.750000
 50
248.459024
 51
298.701829
  0
ARC
  8
CSLAYER1
  6
CONTINUOUS
 62
     5
 10
4121.445187
 20
170.861036
 40
0.450000
 50
-84.093859
 51
36.869898
  0
ARC
  8
CSLAYER1
  6
CONTINUOUS
 62
     5
 10
4120.746781
 20
173.757944
 40
1.050000
 50
85.301319
 51
194.142980
  0
LINE
  8
CSLAYER1
  6
CONTINUOUS
 62
     3
 10
4169.034843
 20
147.938103
 11
4181.200586
 21
147.938103
  0
LINE
  8
CSLAYER1
  6
CONTINUOUS
 62
     3
 10
4159.416068
 20
145.538103
 11
4185.881079
 21
145.538103
  0
LINE
  8
CSLAYER1
  6
CONTINUOUS
 62
     3
 10
4154.296660
 20
143.138103
 11
4190.194126
 21
143.138103
  0
LINE
  8
CSLAYER1
  6
CONTINUOUS
 62
     3
 10
4150.943680
 20
140.738103
 11
4192.959335
 21
140.738103
  0
LINE
  8
CSLAYER1
  6
CONTINUOUS
 62
     3
 10
4148.700197
 20
138.338103
 11
4194.810764
 21
138.338103
  0
LINE
  8
CSLAYER1
  6
CONTINUOUS
 62
     3
 10
4146.869725
 20
135.938103
 11
4196.384829
 21
135.938103
  0
LINE
  8
CSLAYER1
  6
CONTINUOUS
 62
     3
 10
4145.831887
 20
133.538103
 11
4197.473641
 21
133.538103
  0
LINE
  8
CSLAYER1
  6
CONTINUOUS
 62
     3
 10
4144.794049
 20
131.138103
 11
4197.981220
 21
131.138103
  0
LINE
  8
CSLAYER1
  6
CONTINUOUS
 62
     3
 10
4143.821524
 20
128.738103
 11
4198.488800
 21
128.738103
  0
LINE
  8
CSLAYER1
  6
CONTINUOUS
 62
     3
 10
4143.339036
 20
126.338103
 11
4198.996379
 21
126.338103
  0
LINE
  8
CSLAYER1
  6
CONTINUOUS
 62
     3
 10
4142.856547
 20
123.938103
 11
4166.241912
 21
123.938103
  0
LINE
  8
CSLAYER1
  6
CONTINUOUS
 62
     3
 10
4142.374059
 20
121.538103
 11
4163.943521
 21
121.538103
  0
LINE
  8
CSLAYER1
  6
CONTINUOUS
 62
     3
 10
4141.891571
 20
119.138103
 11
4162.761266
 21
119.138103
  0
LINE
  8
CSLAYER1
  6
CONTINUOUS
 62
     3
 10
4141.529894
 20
116.738103
 11
4162.283115
 21
116.738103
  0
LINE
  8
CSLAYER1
  6
CONTINUOUS
 62
     3
 10
4141.349639
 20
114.338103
 11
4162.358146
 21
114.338103
  0
LINE
  8
CSLAYER1
  6
CONTINUOUS
 62
     3
 10
4141.312106
 20
111.938103
 11
4163.177277
 21
111.938103
  0
LINE
  8
CSLAYER1
  6
CONTINUOUS
 62
     3
 10
4142.060888
 20
109.538103
 11
4166.222280
 21
109.538103
  0
LINE
  8
CSLAYER1
  6
CONTINUOUS
 62
     3
 10
4143.127555
 20
107.138103
 11
4191.919338
 21
107.138103
  0
LINE
  8
CSLAYER1
  6
CONTINUOUS
 62
     3
 10
4144.194221
 20
104.738103
 11
4191.242415
 21
104.738103
  0
LINE
  8
CSLAYER1
  6
CONTINUOUS
 62
     3
 10
4145.260888
 20
102.338103
 11
4190.157878
 21
102.338103
  0
LINE
  8
CSLAYER1
  6
CONTINUOUS
 62
     3
 10
4146.703826
 20
99.938103
 11
4188.810599
 21
99.938103
  0
LINE
  8
CSLAYER1
  6
CONTINUOUS
 62
     3
 10
4148.576518
 20
97.538103
 11
4186.553209
 21
97.538103
  0
LINE
  8
CSLAYER1
  6
CONTINUOUS
 62
     3
 10
4150.984648
 20
95.138103
 11
4182.964518
 21
95.138103
  0
LINE
  8
CSLAYER1
  6
CONTINUOUS
 62
     3
 10
4154.205361
 20
92.738103
 11
4178.276833
 21
92.738103
  0
LINE
  8
CSLAYER1
  6
CONTINUOUS
 62
     3
 10
4159.076897
 20
90.338103
 11
4171.319610
 21
90.338103
  0
LINE
  8
CSLAYER1
  6
CONTINUOUS
 62
     3
 10
4174.029648
 20
123.938103
 11
4199.259253
 21
123.938103
  0
LINE
  8
CSLAYER1
  6
CONTINUOUS
 62
     3
 10
4175.035764
 20
121.538103
 11
4199.070599
 21
121.538103
  0
LINE
  8
CSLAYER1
  6
CONTINUOUS
 62
     3
 10
4175.203774
 20
119.138103
 11
4198.881945
 21
119.138103
  0
LINE
  8
CSLAYER1
  6
CONTINUOUS
 62
     3
 10
4174.835739
 20
116.738103
 11
4197.811161
 21
116.738103
  0
LINE
  8
CSLAYER1
  6
CONTINUOUS
 62
     3
 10
4173.858270
 20
114.338103
 11
4196.729361
 21
114.338103
  0
LINE
  8
CSLAYER1
  6
CONTINUOUS
 62
     3
 10
4172.158375
 20
111.938103
 11
4195.328439
 21
111.938103
  0
LINE
  8
CSLAYER1
  6
CONTINUOUS
 62
     3
 10
4168.774380
 20
109.538103
 11
4193.422378
 21
109.538103
  0
TEXT
  8
CSLAYER1
 62
     5
 10
4200.069867
 20
120.954866
 40
7.070172
 41
1.951056
  1
M
 50
0.000000
 51
0.000000
  7
EASYDRAW_FONT
 72
     5
 11
4209.266070
 21
120.954866
  0
TEXT
  8
CSLAYER1
 62
     5
 10
4214.546948
 20
120.867460
 40
6.939931
 41
0.778201
  1
T
 50
0.000000
 51
0.000000
  7
EASYDRAW_FONT
 72
     5
 11
4218.147388
 21
120.867460
  0
TEXT
  8
CSLAYER1
 62
     5
 10
4218.695292
 20
120.919658
 40
7.044274
 41
1.055553
  1
E
 50
0.000000
 51
0.000000
  7
EASYDRAW_FONT
 72
     5
 11
4223.652364
 21
120.919658
  0
TEXT
  8
CSLAYER1
 62
     5
 10
4223.369808
 20
123.343425
 40
0.522425
 41
9.375319
  1
-
 50
0.000000
 51
0.000000
  7
EASYDRAW_FONT
 72
     5
 11
4226.635075
 21
123.343425
  0
TEXT
  8
CSLAYER1
 62
     5
 10
4226.090633
 20
120.872638
 40
7.292489
 41
1.298502
  1
H
 50
0.000000
 51
0.000000
  7
EASYDRAW_FONT
 72
     5
 11
4232.403507
 21
120.872638
  0
TEXT
  8
CSLAYER1
 62
     5
 10
4232.204778
 20
120.918206
 40
7.264708
 41
1.269236
  1
A
 50
0.000000
 51
0.000000
  7
EASYDRAW_FONT
 72
     5
 11
4238.351862
 21
120.918206
  0
TEXT
  8
CSLAYER1
 62
     5
 10
4237.764134
 20
120.855916
 40
7.238043
 41
1.490144
  1
N
 50
0.000000
 51
0.000000
  7
EASYDRAW_FONT
 72
     5
 11
4244.954616
 21
120.855916
  0
TEXT
  8
CSLAYER1
 62
     5
 10
4208.951077
 20
120.822056
 40
7.473487
 41
1.177443
  1
A
 50
0.000000
 51
0.000000
  7
EASYDRAW_FONT
 72
     5
 11
4214.817478
 21
120.822056
  0
TEXT
  8
CSLAYER1
 62
     5
 10
4200.620022
 20
110.329197
 40
7.473487
 41
1.177443
  1
A
 50
0.000000
 51
0.000000
  7
EASYDRAW_FONT
 72
     5
 11
4206.486423
 21
110.329197
  0
TEXT
  8
CSLAYER1
 62
     5
 10
4219.797268
 20
110.371678
 40
7.473487
 41
1.177443
  1
A
 50
0.000000
 51
0.000000
  7
EASYDRAW_FONT
 72
     5
 11
4225.663670
 21
110.371678
  0
TEXT
  8
CSLAYER1
 62
     5
 10
4225.437962
 20
110.457173
 40
7.238043
 41
1.490144
  1
N
 50
0.000000
 51
0.000000
  7
EASYDRAW_FONT
 72
     5
 11
4232.628444
 21
110.457173
  0
TEXT
  8
CSLAYER1
 62
     5
 10
4238.791344
 20
110.469766
 40
7.262663
 41
1.184218
  1
E
 50
0.000000
 51
0.000000
  7
EASYDRAW_FONT
 72
     5
 11
4244.525062
 21
110.469766
  0
TEXT
  8
CSLAYER1
 62
     5
 10
4207.041096
 20
110.327210
 40
7.421797
 41
1.093992
  1
D
 50
0.000000
 51
0.000000
  7
EASYDRAW_FONT
 72
     5
 11
4212.454021
 21
110.327210
  0
TEXT
  8
CSLAYER1
 62
     5
 10
4213.645000
 20
110.319133
 40
7.386315
 41
1.228195
  1
V
 50
0.000000
 51
0.000000
  7
EASYDRAW_FONT
 72
     5
 11
4219.692891
 21
110.319133
  0
TEXT
  8
CSLAYER1
 62
     5
 10
4231.982558
 20
110.350231
 40
7.549340
 41
1.481023
  1
C
 50
0.000000
 51
0.000000
  7
EASYDRAW_FONT
 72
     5
 11
4239.436388
 21
110.350231
  0
LINE
  8
CSLAYER1
  6
CONTINUOUS
 62
     5
 10
4217.928111
 20
126.940827
 11
4216.410018
 21
126.940827
  0
LINE
  8
CSLAYER1
  6
CONTINUOUS
 62
     3
 10
4141.575468
 20
178.278734
 11
4216.272208
 21
178.278734
  0
LINE
  8
CSLAYER1
  6
CONTINUOUS
 62
     3
 10
4130.906922
 20
175.878734
 11
4232.891745
 21
175.878734
  0
LINE
  8
CSLAYER1
  6
CONTINUOUS
 62
     3
 10
4119.734315
 20
173.478734
 11
4187.869281
 21
173.478734
  0
LINE
  8
CSLAYER1
  6
CONTINUOUS
 62
     3
 10
4207.311605
 20
173.478734
 11
4221.691511
 21
173.478734
  0
LINE
  8
CSLAYER1
  6
CONTINUOUS
 62
     3
 10
4228.155211
 20
173.478734
 11
4240.924707
 21
173.478734
  0
LINE
  8
CSLAYER1
  6
CONTINUOUS
 62
     3
 10
4121.839024
 20
171.078734
 11
4206.898728
 21
171.078734
  0
LINE
  8
CSLAYER1
  6
CONTINUOUS
 62
     3
 10
4237.168936
 20
171.078734
 11
4246.328303
 21
171.078734
  0
LINE
  8
CSLAYER1
  6
CONTINUOUS
 62
     3
 10
4118.970524
 20
168.678734
 11
4228.102050
 21
168.678734
  0
LINE
  8
CSLAYER1
  6
CONTINUOUS
 62
     3
 10
4246.020884
 20
168.678734
 11
4249.371466
 21
168.678734
  0
LINE
  8
CSLAYER1
  6
CONTINUOUS
 62
     3
 10
4117.377186
 20
166.278734
 11
4239.669834
 21
166.278734
  0
LINE
  8
CSLAYER1
  6
CONTINUOUS
 62
     3
 10
4119.890686
 20
163.878734
 11
4246.883797
 21
163.878734
  0
LINE
  8
CSLAYER1
  6
CONTINUOUS
 62
     3
 10
4121.642038
 20
161.478734
 11
4210.312106
 21
161.478734
  0
LINE
  8
CSLAYER1
  6
CONTINUOUS
 62
     3
 10
4233.561753
 20
161.478734
 11
4256.068238
 21
161.478734
  0
LINE
  8
CSLAYER1
  6
CONTINUOUS
 62
     3
 10
4122.009723
 20
159.078734
 11
4175.062106
 21
159.078734
  0
LINE
  8
CSLAYER1
  6
CONTINUOUS
 62
     3
 10
4244.915147
 20
159.078734
 11
4259.199051
 21
159.078734
  0
LINE
  8
CSLAYER1
  6
CONTINUOUS
 62
     3
 10
4122.319210
 20
156.678734
 11
4142.516971
 21
156.678734
  0
LINE
  8
CSLAYER1
  6
CONTINUOUS
 62
     3
 10
4256.105670
 20
156.678734
 11
4265.833197
 21
156.678734
  0
LINE
  8
CSLAYER1
  6
CONTINUOUS
 62
     3
 10
4268.200161
 20
154.278734
 11
4271.453442
 21
154.278734
  0
ENDBLK
  8
0
  0
BLOCK
  8
CSLAYER1
  2
BLKF0001
 70
   64
 10
0.0
 20
0.0
 30
0.0
  0
LINE
  8
CSLAYER1
  6
CONTINUOUS
 62
     3
 10
1201.391628
 20
887.287477
 11
1201.391628
 21
878.287477
  0
LINE
  8
CSLAYER1
  6
CONTINUOUS
 62
     3
 10
1202.391628
 20
899.287477
 11
1202.391628
 21
875.287477
  0
LINE
  8
CSLAYER1
  6
CONTINUOUS
 62
     3
 10
1218.391628
 20
892.487477
 11
1218.391628
 21
882.087477
  0
LINE
  8
CSLAYER1
  6
CONTINUOUS
 62
     3
 10
1202.391628
 20
879.287477
 11
1201.391628
 21
878.287477
  0
LINE
  8
CSLAYER1
  6
CONTINUOUS
 62
     3
 10
1204.691628
 20
899.287477
 11
1204.691628
 21
875.287477
  0
LINE
  8
CSLAYER1
  6
CONTINUOUS
 62
     3
 10
1202.391628
 20
875.287477
 11
1204.691628
 21
875.287477
  0
LINE
  8
CSLAYER1
  6
CONTINUOUS
 62
     3
 10
1207.691628
 20
898.257132
 11
1207.691628
 21
876.317822
  0
LINE
  8
CSLAYER1
  6
CONTINUOUS
 62
     3
 10
1204.691628
 20
876.537477
 11
1207.691628
 21
876.537477
  0
LINE
  8
CSLAYER1
  6
CONTINUOUS
 62
     3
 10
1217.691628
 20
887.287477
 11
1217.691628
 21
877.787477
  0
LINE
  8
CSLAYER1
  6
CONTINUOUS
 62
     3
 10
1216.843122
 20
876.317822
 11
1207.691628
 21
876.317822
  0
LINE
  8
CSLAYER1
  6
CONTINUOUS
 62
     3
 10
1216.843122
 20
881.802649
 11
1207.691628
 21
881.802649
  0
LINE
  8
CSLAYER1
  6
CONTINUOUS
 62
     3
 10
1217.691628
 20
877.787477
 11
1216.843122
 21
876.317822
  0
ARC
  8
CSLAYER1
  6
CONTINUOUS
 62
     3
 10
1199.540134
 20
887.287477
 40
18.151494
 50
-17.587954
 51
0.000000
  0
ARC
  8
CSLAYER1
  6
CONTINUOUS
 62
     3
 10
1212.838372
 20
879.060235
 40
4.853746
 50
-25.597034
 51
34.402966
  0
LINE
  8
CSLAYER1
  6
CONTINUOUS
 62
     3
 10
1217.691628
 20
887.287477
 11
1217.691628
 21
896.787477
  0
LINE
  8
CSLAYER1
  6
CONTINUOUS
 62
     3
 10
1216.843122
 20
898.257132
 11
1207.691628
 21
898.257132
  0
LINE
  8
CSLAYER1
  6
CONTINUOUS
 62
     3
 10
1216.843122
 20
892.772304
 11
1207.691628
 21
892.772304
  0
LINE
  8
CSLAYER1
  6
CONTINUOUS
 62
     3
 10
1217.691628
 20
896.787477
 11
1216.843122
 21
898.257132
  0
ARC
  8
CSLAYER1
  6
CONTINUOUS
 62
     3
 10
1199.540134
 20
887.287477
 40
18.151494
 50
-0.000000
 51
17.587954
  0
ARC
  8
CSLAYER1
  6
CONTINUOUS
 62
     3
 10
1212.838372
 20
895.514718
 40
4.853746
 50
-34.402966
 51
25.597034
  0
LINE
  8
CSLAYER1
  6
CONTINUOUS
 62
     3
 10
1201.391628
 20
887.287477
 11
1201.391628
 21
896.287477
  0
LINE
  8
CSLAYER1
  6
CONTINUOUS
 62
     3
 10
1202.391628
 20
895.287477
 11
1201.391628
 21
896.287477
  0
LINE
  8
CSLAYER1
  6
CONTINUOUS
 62
     3
 10
1202.391628
 20
899.287477
 11
1204.691628
 21
899.287477
  0
LINE
  8
CSLAYER1
  6
CONTINUOUS
 62
     3
 10
1204.691628
 20
898.037477
 11
1207.691628
 21
898.037477
  0
LINE
  8
CSLAYER1
  6
CONTINUOUS
 62
     3
 10
1217.691628
 20
882.087477
 11
1218.391628
 21
882.087477
  0
LINE
  8
CSLAYER1
  6
CONTINUOUS
 62
     3
 10
1218.391628
 20
882.087477
 11
1217.691628
 21
881.287477
  0
LINE
  8
CSLAYER1
  6
CONTINUOUS
 62
     3
 10
1217.691628
 20
892.487477
 11
1218.391628
 21
892.487477
  0
LINE
  8
CSLAYER1
  6
CONTINUOUS
 62
     3
 10
1218.391628
 20
892.487477
 11
1217.691628
 21
893.287477
  0
POINT
  8
CSLAYER1
 62
     3
 10
1201.391628
 20
887.287477
  0
ENDBLK
  8
0
  0
BLOCK
  8
CSLAYER1
  2
BLKF0002
 70
   64
 10
0.0
 20
0.0
 30
0.0
  0
LINE
  8
CSLAYER1
  6
CONTINUOUS
 62
     3
 10
1201.391628
 20
1481.117132
 11
1201.391628
 21
1472.117132
  0
LINE
  8
CSLAYER1
  6
CONTINUOUS
 62
     3
 10
1202.391628
 20
1493.117132
 11
1202.391628
 21
1469.117132
  0
LINE
  8
CSLAYER1
  6
CONTINUOUS
 62
     3
 10
1218.391628
 20
1486.317132
 11
1218.391628
 21
1475.917132
  0
LINE
  8
CSLAYER1
  6
CONTINUOUS
 62
     3
 10
1202.391628
 20
1473.117132
 11
1201.391628
 21
1472.117132
  0
LINE
  8
CSLAYER1
  6
CONTINUOUS
 62
     3
 10
1204.691628
 20
1493.117132
 11
1204.691628
 21
1469.117132
  0
LINE
  8
CSLAYER1
  6
CONTINUOUS
 62
     3
 10
1202.391628
 20
1469.117132
 11
1204.691628
 21
1469.117132
  0
LINE
  8
CSLAYER1
  6
CONTINUOUS
 62
     3
 10
1207.691628
 20
1492.086788
 11
1207.691628
 21
1470.147477
  0
LINE
  8
CSLAYER1
  6
CONTINUOUS
 62
     3
 10
1204.691628
 20
1470.367132
 11
1207.691628
 21
1470.367132
  0
LINE
  8
CSLAYER1
  6
CONTINUOUS
 62
     3
 10
1217.691628
 20
1481.117132
 11
1217.691628
 21
1471.617132
  0
LINE
  8
CSLAYER1
  6
CONTINUOUS
 62
     3
 10
1216.843122
 20
1470.147477
 11
1207.691628
 21
1470.147477
  0
LINE
  8
CSLAYER1
  6
CONTINUOUS
 62
     3
 10
1216.843122
 20
1475.632305
 11
1207.691628
 21
1475.632305
  0
LINE
  8
CSLAYER1
  6
CONTINUOUS
 62
     3
 10
1217.691628
 20
1471.617132
 11
1216.843122
 21
1470.147477
  0
ARC
  8
CSLAYER1
  6
CONTINUOUS
 62
     3
 10
1199.540134
 20
1481.117132
 40
18.151494
 50
-17.587954
 51
0.000000
  0
ARC
  8
CSLAYER1
  6
CONTINUOUS
 62
     3
 10
1212.838372
 20
1472.889891
 40
4.853746
 50
-25.597034
 51
34.402966
  0
LINE
  8
CSLAYER1
  6
CONTINUOUS
 62
     3
 10
1217.691628
 20
1481.117132
 11
1217.691628
 21
1490.617132
  0
LINE
  8
CSLAYER1
  6
CONTINUOUS
 62
     3
 10
1216.843122
 20
1492.086788
 11
1207.691628
 21
1492.086788
  0
LINE
  8
CSLAYER1
  6
CONTINUOUS
 62
     3
 10
1216.843122
 20
1486.601960
 11
1207.691628
 21
1486.601960
  0
LINE
  8
CSLAYER1
  6
CONTINUOUS
 62
     3
 10
1217.691628
 20
1490.617132
 11
1216.843122
 21
1492.086788
  0
ARC
  8
CSLAYER1
  6
CONTINUOUS
 62
     3
 10
1199.540134
 20
1481.117132
 40
18.151494
 50
-0.000000
 51
17.587954
  0
ARC
  8
CSLAYER1
  6
CONTINUOUS
 62
     3
 10
1212.838372
 20
1489.344374
 40
4.853746
 50
-34.402966
 51
25.597034
  0
LINE
  8
CSLAYER1
  6
CONTINUOUS
 62
     3
 10
1201.391628
 20
1481.117132
 11
1201.391628
 21
1490.117132
  0
LINE
  8
CSLAYER1
  6
CONTINUOUS
 62
     3
 10
1202.391628
 20
1489.117132
 11
1201.391628
 21
1490.117132
  0
LINE
  8
CSLAYER1
  6
CONTINUOUS
 62
     3
 10
1202.391628
 20
1493.117132
 11
1204.691628
 21
1493.117132
  0
LINE
  8
CSLAYER1
  6
CONTINUOUS
 62
     3
 10
1204.691628
 20
1491.867132
 11
1207.691628
 21
1491.867132
  0
LINE
  8
CSLAYER1
  6
CONTINUOUS
 62
     3
 10
1217.691628
 20
1475.917132
 11
1218.391628
 21
1475.917132
  0
LINE
  8
CSLAYER1
  6
CONTINUOUS
 62
     3
 10
1218.391628
 20
1475.917132
 11
1217.691628
 21
1475.117132
  0
LINE
  8
CSLAYER1
  6
CONTINUOUS
 62
     3
 10
1217.691628
 20
1486.317132
 11
1218.391628
 21
1486.317132
  0
LINE
  8
CSLAYER1
  6
CONTINUOUS
 62
     3
 10
1218.391628
 20
1486.317132
 11
1217.691628
 21
1487.117132
  0
POINT
  8
CSLAYER1
 62
     3
 10
1201.391628
 20
1481.117132
  0
ENDBLK
  8
0
  0
BLOCK
  8
CSLAYER1
  2
BLKF0003
 70
   64
 10
0.0
 20
0.0
 30
0.0
  0
LINE
  8
CSLAYER1
  6
CONTINUOUS
 62
     3
 10
1247.891628
 20
736.872649
 11
1266.891628
 21
736.872649
  0
LINE
  8
CSLAYER1
  6
CONTINUOUS
 62
     3
 10
1247.891628
 20
746.872649
 11
1266.891628
 21
746.872649
  0
LINE
  8
CSLAYER1
  6
CONTINUOUS
 62
     3
 10
1246.421973
 20
746.024143
 11
1246.421973
 21
737.721155
  0
LINE
  8
CSLAYER1
  6
CONTINUOUS
 62
     3
 10
1251.906800
 20
746.024143
 11
1251.906800
 21
737.721155
  0
LINE
  8
CSLAYER1
  6
CONTINUOUS
 62
     3
 10
1247.891628
 20
746.872649
 11
1246.421973
 21
746.024143
  0
ARC
  8
CSLAYER1
  6
CONTINUOUS
 62
     3
 10
1257.391628
 20
728.721155
 40
18.151494
 50
90.000000
 51
107.587954
  0
ARC
  8
CSLAYER1
  6
CONTINUOUS
 62
     3
 10
1249.164387
 20
742.030256
 40
4.844787
 50
55.524449
 51
115.524449
  0
LINE
  8
CSLAYER1
  6
CONTINUOUS
 62
     3
 10
1268.361283
 20
746.024143
 11
1268.361283
 21
737.721155
  0
LINE
  8
CSLAYER1
  6
CONTINUOUS
 62
     3
 10
1262.876455
 20
746.024143
 11
1262.876455
 21
737.721155
  0
LINE
  8
CSLAYER1
  6
CONTINUOUS
 62
     3
 10
1266.891628
 20
746.872649
 11
1268.361283
 21
746.024143
  0
ARC
  8
CSLAYER1
  6
CONTINUOUS
 62
     3
 10
1257.391628
 20
728.721155
 40
18.151494
 50
72.412046
 51
90.000000
  0
ARC
  8
CSLAYER1
  6
CONTINUOUS
 62
     3
 10
1265.618869
 20
742.030256
 40
4.844787
 50
64.475551
 51
124.475551
  0
LINE
  8
CSLAYER1
  6
CONTINUOUS
 62
     3
 10
1247.891628
 20
736.872649
 11
1266.891628
 21
736.872649
  0
LINE
  8
CSLAYER1
  6
CONTINUOUS
 62
     3
 10
1247.891628
 20
736.872649
 11
1246.421973
 21
737.721155
  0
ARC
  8
CSLAYER1
  6
CONTINUOUS
 62
     3
 10
1257.391628
 20
755.024143
 40
18.151494
 50
252.412046
 51
270.000000
  0
ARC
  8
CSLAYER1
  6
CONTINUOUS
 62
     3
 10
1249.164387
 20
741.715041
 40
4.844787
 50
244.475551
 51
304.475551
  0
LINE
  8
CSLAYER1
  6
CONTINUOUS
 62
     3
 10
1266.891628
 20
736.872649
 11
1268.361283
 21
737.721155
  0
ARC
  8
CSLAYER1
  6
CONTINUOUS
 62
     3
 10
1257.391628
 20
755.024143
 40
18.151494
 50
270.000000
 51
287.587954
  0
ARC
  8
CSLAYER1
  6
CONTINUOUS
 62
     3
 10
1265.618869
 20
741.715041
 40
4.844787
 50
235.524449
 51
295.524449
  0
POINT
  8
CSLAYER1
 62
     3
 10
1257.391628
 20
746.872649
  0
ENDBLK
  8
0
  0
BLOCK
  8
CSLAYER1
  2
BLKF0004
 70
   64
 10
0.0
 20
0.0
 30
0.0
  0
LINE
  8
CSLAYER1
  6
CONTINUOUS
 62
     3
 10
1188.891628
 20
1466.117132
 11
1191.891628
 21
1466.117132
  0
LINE
  8
CSLAYER1
  6
CONTINUOUS
 62
     3
 10
1188.891628
 20
1466.117132
 11
1188.891628
 21
1496.117132
  0
LINE
  8
CSLAYER1
  6
CONTINUOUS
 62
     3
 10
1191.891628
 20
1466.117132
 11
1191.891628
 21
1496.117132
  0
LINE
  8
CSLAYER1
  6
CONTINUOUS
 62
     3
 10
1188.891628
 20
1496.117132
 11
1191.891628
 21
1496.117132
  0
ENDBLK
  8
0
  0
BLOCK
  8
CSLAYER1
  2
BLKF0005
 70
   64
 10
0.0
 20
0.0
 30
0.0
  0
LINE
  8
CSLAYER1
  6
CONTINUOUS
 62
     3
 10
1188.891628
 20
872.287477
 11
1191.891628
 21
872.287477
  0
LINE
  8
CSLAYER1
  6
CONTINUOUS
 62
     3
 10
1188.891628
 20
872.287477
 11
1188.891628
 21
902.287477
  0
LINE
  8
CSLAYER1
  6
CONTINUOUS
 62
     3
 10
1191.891628
 20
872.287477
 11
1191.891628
 21
902.287477
  0
LINE
  8
CSLAYER1
  6
CONTINUOUS
 62
     3
 10
1188.891628
 20
902.287477
 11
1191.891628
 21
902.287477
  0
ENDBLK
  8
0
  0
BLOCK
  8
CSLAYER1
  2
BLKF0006
 70
   64
 10
0.0
 20
0.0
 30
0.0
  0
LINE
  8
CSLAYER1
  6
CONTINUOUS
 62
     3
 10
1188.891628
 20
1169.202305
 11
1191.891628
 21
1169.202305
  0
LINE
  8
CSLAYER1
  6
CONTINUOUS
 62
     3
 10
1188.891628
 20
1169.202305
 11
1188.891628
 21
1199.202305
  0
LINE
  8
CSLAYER1
  6
CONTINUOUS
 62
     3
 10
1191.891628
 20
1169.202305
 11
1191.891628
 21
1199.202305
  0
LINE
  8
CSLAYER1
  6
CONTINUOUS
 62
     3
 10
1188.891628
 20
1199.202305
 11
1191.891628
 21
1199.202305
  0
ENDBLK
  8
0
  0
BLOCK
  8
CSLAYER1
  2
BLKF0007
 70
   64
 10
0.0
 20
0.0
 30
0.0
  0
LINE
  8
CSLAYER1
  6
CONTINUOUS
 62
     4
 10
1114.391628
 20
908.178153
 11
1114.391628
 21
896.287477
  0
LINE
  8
CSLAYER1
  6
CONTINUOUS
 62
     4
 10
1125.391628
 20
896.287477
 11
1125.391628
 21
905.678153
  0
LINE
  8
CSLAYER1
  6
CONTINUOUS
 62
     4
 10
1131.391628
 20
896.287477
 11
1131.391628
 21
905.178153
  0
LINE
  8
CSLAYER1
  6
CONTINUOUS
 62
     4
 10
1130.391628
 20
906.178153
 11
1125.891628
 21
906.178153
  0
LINE
  8
CSLAYER1
  6
CONTINUOUS
 62
     4
 10
1131.391628
 20
905.178153
 11
1130.391628
 21
906.178153
  0
LINE
  8
CSLAYER1
  6
CONTINUOUS
 62
     4
 10
1125.891628
 20
906.178153
 11
1125.391628
 21
905.678153
  0
LINE
  8
CSLAYER1
  6
CONTINUOUS
 62
     4
 10
1130.391628
 20
906.178153
 11
1130.391628
 21
896.287477
  0
LINE
  8
CSLAYER1
  6
CONTINUOUS
 62
     4
 10
1125.891628
 20
906.178153
 11
1125.891628
 21
896.287477
  0
LINE
  8
CSLAYER1
  6
CONTINUOUS
 62
     4
 10
1125.391628
 20
902.178153
 11
1124.391628
 21
902.178153
  0
LINE
  8
CSLAYER1
  6
CONTINUOUS
 62
     4
 10
1115.391628
 20
902.178153
 11
1114.391628
 21
902.178153
  0
ENDBLK
  8
0
  0
BLOCK
  8
CSLAYER1
  2
BLKF0008
 70
   64
 10
0.0
 20
0.0
 30
0.0
  0
LINE
  8
CSLAYER1
  6
CONTINUOUS
 62
     3
 10
845.391628
 20
887.287477
 11
845.391628
 21
878.287477
  0
LINE
  8
CSLAYER1
  6
CONTINUOUS
 62
     3
 10
844.391628
 20
899.287477
 11
844.391628
 21
875.287477
  0
LINE
  8
CSLAYER1
  6
CONTINUOUS
 62
     3
 10
828.391628
 20
892.487477
 11
828.391628
 21
882.087477
  0
LINE
  8
CSLAYER1
  6
CONTINUOUS
 62
     3
 10
844.391628
 20
879.287477
 11
845.391628
 21
878.287477
  0
LINE
  8
CSLAYER1
  6
CONTINUOUS
 62
     3
 10
842.091628
 20
899.287477
 11
842.091628
 21
875.287477
  0
LINE
  8
CSLAYER1
  6
CONTINUOUS
 62
     3
 10
844.391628
 20
875.287477
 11
842.091628
 21
875.287477
  0
LINE
  8
CSLAYER1
  6
CONTINUOUS
 62
     3
 10
839.091628
 20
898.257132
 11
839.091628
 21
876.317822
  0
LINE
  8
CSLAYER1
  6
CONTINUOUS
 62
     3
 10
842.091628
 20
876.537477
 11
839.091628
 21
876.537477
  0
LINE
  8
CSLAYER1
  6
CONTINUOUS
 62
     3
 10
829.091628
 20
887.287477
 11
829.091628
 21
877.787477
  0
LINE
  8
CSLAYER1
  6
CONTINUOUS
 62
     3
 10
829.940134
 20
876.317822
 11
839.091628
 21
876.317822
  0
LINE
  8
CSLAYER1
  6
CONTINUOUS
 62
     3
 10
829.940134
 20
881.802649
 11
839.091628
 21
881.802649
  0
LINE
  8
CSLAYER1
  6
CONTINUOUS
 62
     3
 10
829.091628
 20
877.787477
 11
829.940134
 21
876.317822
  0
ARC
  8
CSLAYER1
  6
CONTINUOUS
 62
     3
 10
847.243122
 20
887.287477
 40
18.151494
 50
180.000000
 51
197.587954
  0
ARC
  8
CSLAYER1
  6
CONTINUOUS
 62
     3
 10
833.944883
 20
879.060235
 40
4.853746
 50
145.597034
 51
205.597034
  0
LINE
  8
CSLAYER1
  6
CONTINUOUS
 62
     3
 10
829.091628
 20
887.287477
 11
829.091628
 21
896.787477
  0
LINE
  8
CSLAYER1
  6
CONTINUOUS
 62
     3
 10
829.940134
 20
898.257132
 11
839.091628
 21
898.257132
  0
LINE
  8
CSLAYER1
  6
CONTINUOUS
 62
     3
 10
829.940134
 20
892.772304
 11
839.091628
 21
892.772304
  0
LINE
  8
CSLAYER1
  6
CONTINUOUS
 62
     3
 10
829.091628
 20
896.787477
 11
829.940134
 21
898.257132
  0
ARC
  8
CSLAYER1
  6
CONTINUOUS
 62
     3
 10
847.243122
 20
887.287477
 40
18.151494
 50
162.412046
 51
180.000000
  0
ARC
  8
CSLAYER1
  6
CONTINUOUS
 62
     3
 10
833.944883
 20
895.514718
 40
4.853746
 50
154.402966
 51
214.402966
  0
LINE
  8
CSLAYER1
  6
CONTINUOUS
 62
     3
 10
845.391628
 20
887.287477
 11
845.391628
 21
896.287477
  0
LINE
  8
CSLAYER1
  6
CONTINUOUS
 62
     3
 10
844.391628
 20
895.287477
 11
845.391628
 21
896.287477
  0
LINE
  8
CSLAYER1
  6
CONTINUOUS
 62
     3
 10
844.391628
 20
899.287477
 11
842.091628
 21
899.287477
  0
LINE
  8
CSLAYER1
  6
CONTINUOUS
 62
     3
 10
842.091628
 20
898.037477
 11
839.091628
 21
898.037477
  0
LINE
  8
CSLAYER1
  6
CONTINUOUS
 62
     3
 10
829.091628
 20
882.087477
 11
828.391628
 21
882.087477
  0
LINE
  8
CSLAYER1
  6
CONTINUOUS
 62
     3
 10
828.391628
 20
882.087477
 11
829.091628
 21
881.287477
  0
LINE
  8
CSLAYER1
  6
CONTINUOUS
 62
     3
 10
829.091628
 20
892.487477
 11
828.391628
 21
892.487477
  0
LINE
  8
CSLAYER1
  6
CONTINUOUS
 62
     3
 10
828.391628
 20
892.487477
 11
829.091628
 21
893.287477
  0
POINT
  8
CSLAYER1
 62
     3
 10
845.391628
 20
887.287477
  0
ENDBLK
  8
0
  0
BLOCK
  8
CSLAYER1
  2
BLKF0009
 70
   64
 10
0.0
 20
0.0
 30
0.0
  0
LINE
  8
CSLAYER1
  6
CONTINUOUS
 62
     3
 10
845.391628
 20
1481.117132
 11
845.391628
 21
1472.117132
  0
LINE
  8
CSLAYER1
  6
CONTINUOUS
 62
     3
 10
844.391628
 20
1493.117132
 11
844.391628
 21
1469.117132
  0
LINE
  8
CSLAYER1
  6
CONTINUOUS
 62
     3
 10
828.391628
 20
1486.317132
 11
828.391628
 21
1475.917132
  0
LINE
  8
CSLAYER1
  6
CONTINUOUS
 62
     3
 10
844.391628
 20
1473.117132
 11
845.391628
 21
1472.117132
  0
LINE
  8
CSLAYER1
  6
CONTINUOUS
 62
     3
 10
842.091628
 20
1493.117132
 11
842.091628
 21
1469.117132
  0
LINE
  8
CSLAYER1
  6
CONTINUOUS
 62
     3
 10
844.391628
 20
1469.117132
 11
842.091628
 21
1469.117132
  0
LINE
  8
CSLAYER1
  6
CONTINUOUS
 62
     3
 10
839.091628
 20
1492.086788
 11
839.091628
 21
1470.147477
  0
LINE
  8
CSLAYER1
  6
CONTINUOUS
 62
     3
 10
842.091628
 20
1470.367132
 11
839.091628
 21
1470.367132
  0
LINE
  8
CSLAYER1
  6
CONTINUOUS
 62
     3
 10
829.091628
 20
1481.117132
 11
829.091628
 21
1471.617132
  0
LINE
  8
CSLAYER1
  6
CONTINUOUS
 62
     3
 10
829.940134
 20
1470.147477
 11
839.091628
 21
1470.147477
  0
LINE
  8
CSLAYER1
  6
CONTINUOUS
 62
     3
 10
829.940134
 20
1475.632305
 11
839.091628
 21
1475.632305
  0
LINE
  8
CSLAYER1
  6
CONTINUOUS
 62
     3
 10
829.091628
 20
1471.617132
 11
829.940134
 21
1470.147477
  0
ARC
  8
CSLAYER1
  6
CONTINUOUS
 62
     3
 10
847.243122
 20
1481.117132
 40
18.151494
 50
180.000000
 51
197.587954
  0
ARC
  8
CSLAYER1
  6
CONTINUOUS
 62
     3
 10
833.944883
 20
1472.889891
 40
4.853746
 50
145.597034
 51
205.597034
  0
LINE
  8
CSLAYER1
  6
CONTINUOUS
 62
     3
 10
829.091628
 20
1481.117132
 11
829.091628
 21
1490.617132
  0
LINE
  8
CSLAYER1
  6
CONTINUOUS
 62
     3
 10
829.940134
 20
1492.086788
 11
839.091628
 21
1492.086788
  0
LINE
  8
CSLAYER1
  6
CONTINUOUS
 62
     3
 10
829.940134
 20
1486.601960
 11
839.091628
 21
1486.601960
  0
LINE
  8
CSLAYER1
  6
CONTINUOUS
 62
     3
 10
829.091628
 20
1490.617132
 11
829.940134
 21
1492.086788
  0
ARC
  8
CSLAYER1
  6
CONTINUOUS
 62
     3
 10
847.243122
 20
1481.117132
 40
18.151494
 50
162.412046
 51
180.000000
  0
ARC
  8
CSLAYER1
  6
CONTINUOUS
 62
     3
 10
833.944883
 20
1489.344374
 40
4.853746
 50
154.402966
 51
214.402966
  0
LINE
  8
CSLAYER1
  6
CONTINUOUS
 62
     3
 10
845.391628
 20
1481.117132
 11
845.391628
 21
1490.117132
  0
LINE
  8
CSLAYER1
  6
CONTINUOUS
 62
     3
 10
844.391628
 20
1489.117132
 11
845.391628
 21
1490.117132
  0
LINE
  8
CSLAYER1
  6
CONTINUOUS
 62
     3
 10
844.391628
 20
1493.117132
 11
842.091628
 21
1493.117132
  0
LINE
  8
CSLAYER1
  6
CONTINUOUS
 62
     3
 10
842.091628
 20
1491.867132
 11
839.091628
 21
1491.867132
  0
LINE
  8
CSLAYER1
  6
CONTINUOUS
 62
     3
 10
829.091628
 20
1475.917132
 11
828.391628
 21
1475.917132
  0
LINE
  8
CSLAYER1
  6
CONTINUOUS
 62
     3
 10
828.391628
 20
1475.917132
 11
829.091628
 21
1475.117132
  0
LINE
  8
CSLAYER1
  6
CONTINUOUS
 62
     3
 10
829.091628
 20
1486.317132
 11
828.391628
 21
1486.317132
  0
LINE
  8
CSLAYER1
  6
CONTINUOUS
 62
     3
 10
828.391628
 20
1486.317132
 11
829.091628
 21
1487.117132
  0
POINT
  8
CSLAYER1
 62
     3
 10
845.391628
 20
1481.117132
  0
ENDBLK
  8
0
  0
BLOCK
  8
CSLAYER1
  2
BLKF0010
 70
   64
 10
0.0
 20
0.0
 30
0.0
  0
LINE
  8
CSLAYER1
  6
CONTINUOUS
 62
     3
 10
857.891628
 20
1466.117132
 11
854.891628
 21
1466.117132
  0
LINE
  8
CSLAYER1
  6
CONTINUOUS
 62
     3
 10
857.891628
 20
1466.117132
 11
857.891628
 21
1496.117132
  0
LINE
  8
CSLAYER1
  6
CONTINUOUS
 62
     3
 10
854.891628
 20
1466.117132
 11
854.891628
 21
1496.117132
  0
LINE
  8
CSLAYER1
  6
CONTINUOUS
 62
     3
 10
857.891628
 20
1496.117132
 11
854.891628
 21
1496.117132
  0
ENDBLK
  8
0
  0
BLOCK
  8
CSLAYER1
  2
BLKF0011
 70
   64
 10
0.0
 20
0.0
 30
0.0
  0
LINE
  8
CSLAYER1
  6
CONTINUOUS
 62
     3
 10
857.891628
 20
872.287477
 11
854.891628
 21
872.287477
  0
LINE
  8
CSLAYER1
  6
CONTINUOUS
 62
     3
 10
857.891628
 20
872.287477
 11
857.891628
 21
902.287477
  0
LINE
  8
CSLAYER1
  6
CONTINUOUS
 62
     3
 10
854.891628
 20
872.287477
 11
854.891628
 21
902.287477
  0
LINE
  8
CSLAYER1
  6
CONTINUOUS
 62
     3
 10
857.891628
 20
902.287477
 11
854.891628
 21
902.287477
  0
ENDBLK
  8
0
  0
BLOCK
  8
CSLAYER1
  2
BLKF0012
 70
   64
 10
0.0
 20
0.0
 30
0.0
  0
LINE
  8
CSLAYER1
  6
CONTINUOUS
 62
     3
 10
857.891628
 20
1169.202305
 11
854.891628
 21
1169.202305
  0
LINE
  8
CSLAYER1
  6
CONTINUOUS
 62
     3
 10
857.891628
 20
1169.202305
 11
857.891628
 21
1199.202305
  0
LINE
  8
CSLAYER1
  6
CONTINUOUS
 62
     3
 10
854.891628
 20
1169.202305
 11
854.891628
 21
1199.202305
  0
LINE
  8
CSLAYER1
  6
CONTINUOUS
 62
     3
 10
857.891628
 20
1199.202305
 11
854.891628
 21
1199.202305
  0
ENDBLK
  8
0
  0
BLOCK
  8
CSLAYER1
  2
BLKF0013
 70
   64
 10
0.0
 20
0.0
 30
0.0
  0
LINE
  8
CSLAYER1
  6
CONTINUOUS
 62
     4
 10
932.391628
 20
908.178153
 11
932.391628
 21
896.287477
  0
LINE
  8
CSLAYER1
  6
CONTINUOUS
 62
     4
 10
921.391628
 20
896.287477
 11
921.391628
 21
905.678153
  0
LINE
  8
CSLAYER1
  6
CONTINUOUS
 62
     4
 10
915.391628
 20
896.287477
 11
915.391628
 21
905.178153
  0
LINE
  8
CSLAYER1
  6
CONTINUOUS
 62
     4
 10
916.391628
 20
906.178153
 11
920.891628
 21
906.178153
  0
LINE
  8
CSLAYER1
  6
CONTINUOUS
 62
     4
 10
915.391628
 20
905.178153
 11
916.391628
 21
906.178153
  0
LINE
  8
CSLAYER1
  6
CONTINUOUS
 62
     4
 10
920.891628
 20
906.178153
 11
921.391628
 21
905.678153
  0
LINE
  8
CSLAYER1
  6
CONTINUOUS
 62
     4
 10
916.391628
 20
906.178153
 11
916.391628
 21
896.287477
  0
LINE
  8
CSLAYER1
  6
CONTINUOUS
 62
     4
 10
920.891628
 20
906.178153
 11
920.891628
 21
896.287477
  0
LINE
  8
CSLAYER1
  6
CONTINUOUS
 62
     4
 10
921.391628
 20
902.178153
 11
922.391628
 21
902.178153
  0
LINE
  8
CSLAYER1
  6
CONTINUOUS
 62
     4
 10
931.391628
 20
902.178153
 11
932.391628
 21
902.178153
  0
ENDBLK
  8
0
  0
BLOCK
  8
CSLAYER1
  2
BLKF0014
 70
   64
 10
0.0
 20
0.0
 30
0.0
  0
LINE
  8
CSLAYER1
  6
CONTINUOUS
 62
     7
 10
1068.891628
 20
668.172649
 11
1068.891628
 21
665.972649
  0
LINE
  8
CSLAYER1
  6
CONTINUOUS
 62
     7
 10
1075.891628
 20
668.172649
 11
1075.891628
 21
665.972649
  0
LINE
  8
CSLAYER1
  6
CONTINUOUS
 62
     7
 10
1075.891628
 20
666.972649
 11
1068.891628
 21
666.972649
  0
LINE
  8
CSLAYER1
  6
CONTINUOUS
 62
     7
 10
1074.491628
 20
669.572649
 11
1070.291628
 21
669.572649
  0
LINE
  8
CSLAYER1
  6
CONTINUOUS
 62
     7
 10
1076.891628
 20
665.972649
 11
1076.891628
 21
665.172649
  0
LINE
  8
CSLAYER1
  6
CONTINUOUS
 62
     7
 10
1067.891628
 20
665.972649
 11
1067.891628
 21
665.172649
  0
LINE
  8
CSLAYER1
  6
CONTINUOUS
 62
     7
 10
1075.891628
 20
668.172649
 11
1075.891628
 21
666.972649
  0
LINE
  8
CSLAYER1
  6
CONTINUOUS
 62
     7
 10
1076.891628
 20
665.972649
 11
1067.891628
 21
665.972649
  0
LINE
  8
CSLAYER1
  6
CONTINUOUS
 62
     7
 10
1076.891628
 20
665.172649
 11
1067.891628
 21
665.172649
  0
ARC
  8
CSLAYER1
  6
CONTINUOUS
 62
     7
 10
1074.491628
 20
668.172649
 40
1.400000
 50
-0.000000
 51
90.000000
  0
ARC
  8
CSLAYER1
  6
CONTINUOUS
 62
     7
 10
1070.291628
 20
668.172649
 40
1.400000
 50
90.000000
 51
180.000000
  0
LINE
  8
CSLAYER1
  6
CONTINUOUS
 62
     7
 10
1073.431580
 20
665.972649
 11
1071.046378
 21
666.972649
  0
LINE
  8
CSLAYER1
  6
CENTER
 62
     5
 10
1072.391628
 20
671.400998
 11
1072.391628
 21
656.202820
  0
ENDBLK
  8
0
  0
BLOCK
  8
CSLAYER1
  2
BLKF0015
 70
   64
 10
0.0
 20
0.0
 30
0.0
  0
LINE
  8
CSLAYER1
  6
CONTINUOUS
 62
     7
 10
907.891628
 20
668.172649
 11
907.891628
 21
665.972649
  0
LINE
  8
CSLAYER1
  6
CONTINUOUS
 62
     7
 10
900.891628
 20
668.172649
 11
900.891628
 21
665.972649
  0
LINE
  8
CSLAYER1
  6
CONTINUOUS
 62
     7
 10
900.891628
 20
666.972649
 11
907.891628
 21
666.972649
  0
LINE
  8
CSLAYER1
  6
CONTINUOUS
 62
     7
 10
902.291628
 20
669.572649
 11
906.491628
 21
669.572649
  0
LINE
  8
CSLAYER1
  6
CONTINUOUS
 62
     7
 10
899.891628
 20
665.972649
 11
899.891628
 21
665.172649
  0
LINE
  8
CSLAYER1
  6
CONTINUOUS
 62
     7
 10
908.891628
 20
665.972649
 11
908.891628
 21
665.172649
  0
LINE
  8
CSLAYER1
  6
CONTINUOUS
 62
     7
 10
900.891628
 20
668.172649
 11
900.891628
 21
666.972649
  0
LINE
  8
CSLAYER1
  6
CONTINUOUS
 62
     7
 10
899.891628
 20
665.972649
 11
908.891628
 21
665.972649
  0
LINE
  8
CSLAYER1
  6
CONTINUOUS
 62
     7
 10
899.891628
 20
665.172649
 11
908.891628
 21
665.172649
  0
ARC
  8
CSLAYER1
  6
CONTINUOUS
 62
     7
 10
902.291628
 20
668.172649
 40
1.400000
 50
90.000000
 51
180.000000
  0
ARC
  8
CSLAYER1
  6
CONTINUOUS
 62
     7
 10
906.491628
 20
668.172649
 40
1.400000
 50
0.000000
 51
90.000000
  0
LINE
  8
CSLAYER1
  6
CONTINUOUS
 62
     7
 10
903.351676
 20
665.972649
 11
905.736878
 21
666.972649
  0
LINE
  8
CSLAYER1
  6
CENTER
 62
     5
 10
904.391628
 20
671.400998
 11
904.391628
 21
656.202820
  0
ENDBLK
  8
0
  0
BLOCK
  8
CSLAYER1
  2
BLKF0016
 70
   64
 10
0.0
 20
0.0
 30
0.0
  0
LINE
  8
CSLAYER1
  6
CONTINUOUS
 62
     7
 10
1179.391628
 20
691.091527
 11
1135.236208
 21
691.091527
  0
LINE
  8
CSLAYER1
  6
CONTINUOUS
 62
     7
 10
1179.391628
 20
681.091527
 11
1136.891628
 21
681.091527
  0
ENDBLK
  8
0
  0
BLOCK
  8
CSLAYER1
  2
BLKF0017
 70
   64
 10
0.0
 20
0.0
 30
0.0
  0
LINE
  8
CSLAYER1
  6
CONTINUOUS
 62
     7
 10
1123.391628
 20
643.378399
 11
1123.391628
 21
651.378399
  0
LINE
  8
CSLAYER1
  6
CONTINUOUS
 62
     7
 10
1179.391628
 20
652.378399
 11
1124.391628
 21
652.378399
  0
LINE
  8
CSLAYER1
  6
CONTINUOUS
 62
     7
 10
1179.391628
 20
642.378399
 11
1124.391628
 21
642.378399
  0
LINE
  8
CSLAYER1
  6
CONTINUOUS
 62
     7
 10
1124.391628
 20
642.378399
 11
1124.391628
 21
652.378399
  0
LINE
  8
CSLAYER1
  6
CONTINUOUS
 62
     7
 10
1123.391628
 20
643.378399
 11
1124.391628
 21
642.378399
  0
LINE
  8
CSLAYER1
  6
CONTINUOUS
 62
     7
 10
1123.391628
 20
651.378399
 11
1124.391628
 21
652.378399
  0
ENDBLK
  8
0
  0
BLOCK
  8
CSLAYER1
  2
BLKF0018
 70
   64
 10
0.0
 20
0.0
 30
0.0
  0
LINE
  8
CSLAYER1
  6
CONTINUOUS
 62
     4
 10
1205.891628
 20
1194.017259
 11
1205.891628
 21
1174.387350
  0
LINE
  8
CSLAYER1
  6
CONTINUOUS
 62
     4
 10
1212.891628
 20
1192.702305
 11
1212.891628
 21
1175.702305
  0
LINE
  8
CSLAYER1
  6
CONTINUOUS
 62
     4
 10
1203.391628
 20
1194.702305
 11
1203.391628
 21
1173.702305
  0
LINE
  8
CSLAYER1
  6
CONTINUOUS
 62
     4
 10
1201.391628
 20
1194.702305
 11
1201.391628
 21
1173.702305
  0
LINE
  8
CSLAYER1
  6
CONTINUOUS
 62
     4
 10
1201.391628
 20
1194.702305
 11
1203.391628
 21
1194.702305
  0
LINE
  8
CSLAYER1
  6
CONTINUOUS
 62
     4
 10
1203.391628
 20
1193.402305
 11
1205.891628
 21
1193.402305
  0
LINE
  8
CSLAYER1
  6
CONTINUOUS
 62
     4
 10
1201.391628
 20
1173.702305
 11
1203.391628
 21
1173.702305
  0
LINE
  8
CSLAYER1
  6
CONTINUOUS
 62
     4
 10
1203.391628
 20
1175.002305
 11
1205.891628
 21
1175.002305
  0
LINE
  8
CSLAYER1
  6
CONTINUOUS
 62
     4
 10
1205.891628
 20
1194.017259
 11
1212.132438
 21
1194.017259
  0
LINE
  8
CSLAYER1
  6
CONTINUOUS
 62
     4
 10
1205.891628
 20
1189.109782
 11
1212.132438
 21
1189.109782
  0
LINE
  8
CSLAYER1
  6
CONTINUOUS
 62
     4
 10
1212.891628
 20
1192.702305
 11
1212.132438
 21
1194.017259
  0
ARC
  8
CSLAYER1
  6
CONTINUOUS
 62
     4
 10
1196.650817
 20
1184.202305
 40
16.240811
 50
0.000000
 51
17.587954
  0
ARC
  8
CSLAYER1
  6
CONTINUOUS
 62
     4
 10
1208.551845
 20
1191.563520
 40
4.340677
 50
-34.422385
 51
25.577615
  0
LINE
  8
CSLAYER1
  6
CONTINUOUS
 62
     4
 10
1205.891628
 20
1174.387350
 11
1212.132438
 21
1174.387350
  0
LINE
  8
CSLAYER1
  6
CONTINUOUS
 62
     4
 10
1205.891628
 20
1179.294827
 11
1212.132438
 21
1179.294827
  0
LINE
  8
CSLAYER1
  6
CONTINUOUS
 62
     4
 10
1212.891628
 20
1175.702305
 11
1212.132438
 21
1174.387350
  0
ARC
  8
CSLAYER1
  6
CONTINUOUS
 62
     4
 10
1196.650817
 20
1184.202305
 40
16.240811
 50
342.412046
 51
360.000000
  0
ARC
  8
CSLAYER1
  6
CONTINUOUS
 62
     4
 10
1208.551845
 20
1176.841089
 40
4.340677
 50
-25.577615
 51
34.422385
  0
LINE
  8
CSLAYER1
  6
CONTINUOUS
 62
     4
 10
1205.891628
 20
1185.567258
 11
1203.391628
 21
1182.825322
  0
ENDBLK
  8
0
  0
BLOCK
  8
CSLAYER1
  2
BLKF0019
 70
   64
 10
0.0
 20
0.0
 30
0.0
  0
LINE
  8
CSLAYER1
  6
CONTINUOUS
 62
     4
 10
840.891628
 20
1194.017259
 11
840.891628
 21
1174.387350
  0
LINE
  8
CSLAYER1
  6
CONTINUOUS
 62
     4
 10
833.891628
 20
1192.702305
 11
833.891628
 21
1175.702305
  0
LINE
  8
CSLAYER1
  6
CONTINUOUS
 62
     4
 10
843.391628
 20
1194.702305
 11
843.391628
 21
1173.702305
  0
LINE
  8
CSLAYER1
  6
CONTINUOUS
 62
     4
 10
845.391628
 20
1194.702305
 11
845.391628
 21
1173.702305
  0
LINE
  8
CSLAYER1
  6
CONTINUOUS
 62
     4
 10
845.391628
 20
1194.702305
 11
843.391628
 21
1194.702305
  0
LINE
  8
CSLAYER1
  6
CONTINUOUS
 62
     4
 10
843.391628
 20
1193.402305
 11
840.891628
 21
1193.402305
  0
LINE
  8
CSLAYER1
  6
CONTINUOUS
 62
     4
 10
845.391628
 20
1173.702305
 11
843.391628
 21
1173.702305
  0
LINE
  8
CSLAYER1
  6
CONTINUOUS
 62
     4
 10
843.391628
 20
1175.002305
 11
840.891628
 21
1175.002305
  0
LINE
  8
CSLAYER1
  6
CONTINUOUS
 62
     4
 10
840.891628
 20
1194.017259
 11
834.650817
 21
1194.017259
  0
LINE
  8
CSLAYER1
  6
CONTINUOUS
 62
     4
 10
840.891628
 20
1189.109782
 11
834.650817
 21
1189.109782
  0
LINE
  8
CSLAYER1
  6
CONTINUOUS
 62
     4
 10
833.891628
 20
1192.702305
 11
834.650817
 21
1194.017259
  0
ARC
  8
CSLAYER1
  6
CONTINUOUS
 62
     4
 10
850.132438
 20
1184.202305
 40
16.240811
 50
162.412046
 51
180.000000
  0
ARC
  8
CSLAYER1
  6
CONTINUOUS
 62
     4
 10
838.231410
 20
1191.563520
 40
4.340677
 50
154.422385
 51
214.422385
  0
LINE
  8
CSLAYER1
  6
CONTINUOUS
 62
     4
 10
840.891628
 20
1174.387350
 11
834.650817
 21
1174.387350
  0
LINE
  8
CSLAYER1
  6
CONTINUOUS
 62
     4
 10
840.891628
 20
1179.294827
 11
834.650817
 21
1179.294827
  0
LINE
  8
CSLAYER1
  6
CONTINUOUS
 62
     4
 10
833.891628
 20
1175.702305
 11
834.650817
 21
1174.387350
  0
ARC
  8
CSLAYER1
  6
CONTINUOUS
 62
     4
 10
850.132438
 20
1184.202305
 40
16.240811
 50
180.000000
 51
197.587954
  0
ARC
  8
CSLAYER1
  6
CONTINUOUS
 62
     4
 10
838.231410
 20
1176.841089
 40
4.340677
 50
145.577615
 51
205.577615
  0
LINE
  8
CSLAYER1
  6
CONTINUOUS
 62
     4
 10
840.891628
 20
1185.567258
 11
843.391628
 21
1182.825322
  0
ENDBLK
  8
0
  0
BLOCK
  8
CSLAYER1
  2
BLKF0020
 70
   64
 10
0.0
 20
0.0
 30
0.0
  0
LINE
  8
CSLAYER1
  6
CONTINUOUS
 62
     3
 10
1188.891628
 20
1763.031960
 11
1191.891628
 21
1763.031960
  0
LINE
  8
CSLAYER1
  6
CONTINUOUS
 62
     3
 10
1188.891628
 20
1763.031960
 11
1188.891628
 21
1793.031960
  0
LINE
  8
CSLAYER1
  6
CONTINUOUS
 62
     3
 10
1191.891628
 20
1763.031960
 11
1191.891628
 21
1793.031960
  0
LINE
  8
CSLAYER1
  6
CONTINUOUS
 62
     3
 10
1188.891628
 20
1793.031960
 11
1191.891628
 21
1793.031960
  0
ENDBLK
  8
0
  0
BLOCK
  8
CSLAYER1
  2
BLKF0021
 70
   64
 10
0.0
 20
0.0
 30
0.0
  0
LINE
  8
CSLAYER1
  6
CONTINUOUS
 62
     3
 10
857.891628
 20
1763.031960
 11
854.891628
 21
1763.031960
  0
LINE
  8
CSLAYER1
  6
CONTINUOUS
 62
     3
 10
857.891628
 20
1763.031960
 11
857.891628
 21
1793.031960
  0
LINE
  8
CSLAYER1
  6
CONTINUOUS
 62
     3
 10
854.891628
 20
1763.031960
 11
854.891628
 21
1793.031960
  0
LINE
  8
CSLAYER1
  6
CONTINUOUS
 62
     3
 10
857.891628
 20
1793.031960
 11
854.891628
 21
1793.031960
  0
ENDBLK
  8
0
  0
BLOCK
  8
CSLAYER1
  2
BLKF0022
 70
   64
 10
0.0
 20
0.0
 30
0.0
  0
LINE
  8
CSLAYER1
  6
CONTINUOUS
 62
     3
 10
1201.391628
 20
2074.946788
 11
1201.391628
 21
2065.946788
  0
LINE
  8
CSLAYER1
  6
CONTINUOUS
 62
     3
 10
1202.391628
 20
2086.946788
 11
1202.391628
 21
2062.946788
  0
LINE
  8
CSLAYER1
  6
CONTINUOUS
 62
     3
 10
1218.391628
 20
2080.146788
 11
1218.391628
 21
2069.746788
  0
LINE
  8
CSLAYER1
  6
CONTINUOUS
 62
     3
 10
1202.391628
 20
2066.946788
 11
1201.391628
 21
2065.946788
  0
LINE
  8
CSLAYER1
  6
CONTINUOUS
 62
     3
 10
1204.691628
 20
2086.946788
 11
1204.691628
 21
2062.946788
  0
LINE
  8
CSLAYER1
  6
CONTINUOUS
 62
     3
 10
1202.391628
 20
2062.946788
 11
1204.691628
 21
2062.946788
  0
LINE
  8
CSLAYER1
  6
CONTINUOUS
 62
     3
 10
1207.691628
 20
2085.916443
 11
1207.691628
 21
2063.977133
  0
LINE
  8
CSLAYER1
  6
CONTINUOUS
 62
     3
 10
1204.691628
 20
2064.196788
 11
1207.691628
 21
2064.196788
  0
LINE
  8
CSLAYER1
  6
CONTINUOUS
 62
     3
 10
1217.691628
 20
2074.946788
 11
1217.691628
 21
2065.446788
  0
LINE
  8
CSLAYER1
  6
CONTINUOUS
 62
     3
 10
1216.843122
 20
2063.977133
 11
1207.691628
 21
2063.977133
  0
LINE
  8
CSLAYER1
  6
CONTINUOUS
 62
     3
 10
1216.843122
 20
2069.461961
 11
1207.691628
 21
2069.461961
  0
LINE
  8
CSLAYER1
  6
CONTINUOUS
 62
     3
 10
1217.691628
 20
2065.446788
 11
1216.843122
 21
2063.977133
  0
ARC
  8
CSLAYER1
  6
CONTINUOUS
 62
     3
 10
1199.540134
 20
2074.946788
 40
18.151494
 50
-17.587954
 51
0.000000
  0
ARC
  8
CSLAYER1
  6
CONTINUOUS
 62
     3
 10
1212.838372
 20
2066.719547
 40
4.853746
 50
-25.597034
 51
34.402966
  0
LINE
  8
CSLAYER1
  6
CONTINUOUS
 62
     3
 10
1217.691628
 20
2074.946788
 11
1217.691628
 21
2084.446788
  0
LINE
  8
CSLAYER1
  6
CONTINUOUS
 62
     3
 10
1216.843122
 20
2085.916443
 11
1207.691628
 21
2085.916443
  0
LINE
  8
CSLAYER1
  6
CONTINUOUS
 62
     3
 10
1216.843122
 20
2080.431616
 11
1207.691628
 21
2080.431616
  0
LINE
  8
CSLAYER1
  6
CONTINUOUS
 62
     3
 10
1217.691628
 20
2084.446788
 11
1216.843122
 21
2085.916443
  0
ARC
  8
CSLAYER1
  6
CONTINUOUS
 62
     3
 10
1199.540134
 20
2074.946788
 40
18.151494
 50
-0.000000
 51
17.587954
  0
ARC
  8
CSLAYER1
  6
CONTINUOUS
 62
     3
 10
1212.838372
 20
2083.174029
 40
4.853746
 50
-34.402966
 51
25.597034
  0
LINE
  8
CSLAYER1
  6
CONTINUOUS
 62
     3
 10
1201.391628
 20
2074.946788
 11
1201.391628
 21
2083.946788
  0
LINE
  8
CSLAYER1
  6
CONTINUOUS
 62
     3
 10
1202.391628
 20
2082.946788
 11
1201.391628
 21
2083.946788
  0
LINE
  8
CSLAYER1
  6
CONTINUOUS
 62
     3
 10
1202.391628
 20
2086.946788
 11
1204.691628
 21
2086.946788
  0
LINE
  8
CSLAYER1
  6
CONTINUOUS
 62
     3
 10
1204.691628
 20
2085.696788
 11
1207.691628
 21
2085.696788
  0
LINE
  8
CSLAYER1
  6
CONTINUOUS
 62
     3
 10
1217.691628
 20
2069.746788
 11
1218.391628
 21
2069.746788
  0
LINE
  8
CSLAYER1
  6
CONTINUOUS
 62
     3
 10
1218.391628
 20
2069.746788
 11
1217.691628
 21
2068.946788
  0
LINE
  8
CSLAYER1
  6
CONTINUOUS
 62
     3
 10
1217.691628
 20
2080.146788
 11
1218.391628
 21
2080.146788
  0
LINE
  8
CSLAYER1
  6
CONTINUOUS
 62
     3
 10
1218.391628
 20
2080.146788
 11
1217.691628
 21
2080.946788
  0
POINT
  8
CSLAYER1
 62
     3
 10
1201.391628
 20
2074.946788
  0
ENDBLK
  8
0
  0
BLOCK
  8
CSLAYER1
  2
BLKF0023
 70
   64
 10
0.0
 20
0.0
 30
0.0
  0
LINE
  8
CSLAYER1
  6
CONTINUOUS
 62
     3
 10
1188.891628
 20
2059.946788
 11
1191.891628
 21
2059.946788
  0
LINE
  8
CSLAYER1
  6
CONTINUOUS
 62
     3
 10
1188.891628
 20
2059.946788
 11
1188.891628
 21
2089.946788
  0
LINE
  8
CSLAYER1
  6
CONTINUOUS
 62
     3
 10
1191.891628
 20
2059.946788
 11
1191.891628
 21
2089.946788
  0
LINE
  8
CSLAYER1
  6
CONTINUOUS
 62
     3
 10
1188.891628
 20
2089.946788
 11
1191.891628
 21
2089.946788
  0
ENDBLK
  8
0
  0
BLOCK
  8
CSLAYER1
  2
BLKF0024
 70
   64
 10
0.0
 20
0.0
 30
0.0
  0
LINE
  8
CSLAYER1
  6
CONTINUOUS
 62
     3
 10
845.391628
 20
2074.946788
 11
845.391628
 21
2065.946788
  0
LINE
  8
CSLAYER1
  6
CONTINUOUS
 62
     3
 10
844.391628
 20
2086.946788
 11
844.391628
 21
2062.946788
  0
LINE
  8
CSLAYER1
  6
CONTINUOUS
 62
     3
 10
828.391628
 20
2080.146788
 11
828.391628
 21
2069.746788
  0
LINE
  8
CSLAYER1
  6
CONTINUOUS
 62
     3
 10
844.391628
 20
2066.946788
 11
845.391628
 21
2065.946788
  0
LINE
  8
CSLAYER1
  6
CONTINUOUS
 62
     3
 10
842.091628
 20
2086.946788
 11
842.091628
 21
2062.946788
  0
LINE
  8
CSLAYER1
  6
CONTINUOUS
 62
     3
 10
844.391628
 20
2062.946788
 11
842.091628
 21
2062.946788
  0
LINE
  8
CSLAYER1
  6
CONTINUOUS
 62
     3
 10
839.091628
 20
2085.916443
 11
839.091628
 21
2063.977133
  0
LINE
  8
CSLAYER1
  6
CONTINUOUS
 62
     3
 10
842.091628
 20
2064.196788
 11
839.091628
 21
2064.196788
  0
LINE
  8
CSLAYER1
  6
CONTINUOUS
 62
     3
 10
829.091628
 20
2074.946788
 11
829.091628
 21
2065.446788
  0
LINE
  8
CSLAYER1
  6
CONTINUOUS
 62
     3
 10
829.940134
 20
2063.977133
 11
839.091628
 21
2063.977133
  0
LINE
  8
CSLAYER1
  6
CONTINUOUS
 62
     3
 10
829.940134
 20
2069.461961
 11
839.091628
 21
2069.461961
  0
LINE
  8
CSLAYER1
  6
CONTINUOUS
 62
     3
 10
829.091628
 20
2065.446788
 11
829.940134
 21
2063.977133
  0
ARC
  8
CSLAYER1
  6
CONTINUOUS
 62
     3
 10
847.243122
 20
2074.946788
 40
18.151494
 50
180.000000
 51
197.587954
  0
ARC
  8
CSLAYER1
  6
CONTINUOUS
 62
     3
 10
833.944883
 20
2066.719547
 40
4.853746
 50
145.597034
 51
205.597034
  0
LINE
  8
CSLAYER1
  6
CONTINUOUS
 62
     3
 10
829.091628
 20
2074.946788
 11
829.091628
 21
2084.446788
  0
LINE
  8
CSLAYER1
  6
CONTINUOUS
 62
     3
 10
829.940134
 20
2085.916443
 11
839.091628
 21
2085.916443
  0
LINE
  8
CSLAYER1
  6
CONTINUOUS
 62
     3
 10
829.940134
 20
2080.431616
 11
839.091628
 21
2080.431616
  0
LINE
  8
CSLAYER1
  6
CONTINUOUS
 62
     3
 10
829.091628
 20
2084.446788
 11
829.940134
 21
2085.916443
  0
ARC
  8
CSLAYER1
  6
CONTINUOUS
 62
     3
 10
847.243122
 20
2074.946788
 40
18.151494
 50
162.412046
 51
180.000000
  0
ARC
  8
CSLAYER1
  6
CONTINUOUS
 62
     3
 10
833.944883
 20
2083.174029
 40
4.853746
 50
154.402966
 51
214.402966
  0
LINE
  8
CSLAYER1
  6
CONTINUOUS
 62
     3
 10
845.391628
 20
2074.946788
 11
845.391628
 21
2083.946788
  0
LINE
  8
CSLAYER1
  6
CONTINUOUS
 62
     3
 10
844.391628
 20
2082.946788
 11
845.391628
 21
2083.946788
  0
LINE
  8
CSLAYER1
  6
CONTINUOUS
 62
     3
 10
844.391628
 20
2086.946788
 11
842.091628
 21
2086.946788
  0
LINE
  8
CSLAYER1
  6
CONTINUOUS
 62
     3
 10
842.091628
 20
2085.696788
 11
839.091628
 21
2085.696788
  0
LINE
  8
CSLAYER1
  6
CONTINUOUS
 62
     3
 10
829.091628
 20
2069.746788
 11
828.391628
 21
2069.746788
  0
LINE
  8
CSLAYER1
  6
CONTINUOUS
 62
     3
 10
828.391628
 20
2069.746788
 11
829.091628
 21
2068.946788
  0
LINE
  8
CSLAYER1
  6
CONTINUOUS
 62
     3
 10
829.091628
 20
2080.146788
 11
828.391628
 21
2080.146788
  0
LINE
  8
CSLAYER1
  6
CONTINUOUS
 62
     3
 10
828.391628
 20
2080.146788
 11
829.091628
 21
2080.946788
  0
POINT
  8
CSLAYER1
 62
     3
 10
845.391628
 20
2074.946788
  0
ENDBLK
  8
0
  0
BLOCK
  8
CSLAYER1
  2
BLKF0025
 70
   64
 10
0.0
 20
0.0
 30
0.0
  0
LINE
  8
CSLAYER1
  6
CONTINUOUS
 62
     3
 10
857.891628
 20
2059.946788
 11
854.891628
 21
2059.946788
  0
LINE
  8
CSLAYER1
  6
CONTINUOUS
 62
     3
 10
857.891628
 20
2059.946788
 11
857.891628
 21
2089.946788
  0
LINE
  8
CSLAYER1
  6
CONTINUOUS
 62
     3
 10
854.891628
 20
2059.946788
 11
854.891628
 21
2089.946788
  0
LINE
  8
CSLAYER1
  6
CONTINUOUS
 62
     3
 10
857.891628
 20
2089.946788
 11
854.891628
 21
2089.946788
  0
ENDBLK
  8
0
  0
BLOCK
  8
CSLAYER1
  2
BLKF0026
 70
   64
 10
0.0
 20
0.0
 30
0.0
  0
LINE
  8
CSLAYER1
  6
CONTINUOUS
 62
     4
 10
1205.891628
 20
1787.846915
 11
1205.891628
 21
1768.217006
  0
LINE
  8
CSLAYER1
  6
CONTINUOUS
 62
     4
 10
1212.891628
 20
1786.531960
 11
1212.891628
 21
1769.531960
  0
LINE
  8
CSLAYER1
  6
CONTINUOUS
 62
     4
 10
1203.391628
 20
1788.531960
 11
1203.391628
 21
1767.531960
  0
LINE
  8
CSLAYER1
  6
CONTINUOUS
 62
     4
 10
1201.391628
 20
1788.531960
 11
1201.391628
 21
1767.531960
  0
LINE
  8
CSLAYER1
  6
CONTINUOUS
 62
     4
 10
1201.391628
 20
1788.531960
 11
1203.391628
 21
1788.531960
  0
LINE
  8
CSLAYER1
  6
CONTINUOUS
 62
     4
 10
1203.391628
 20
1787.231960
 11
1205.891628
 21
1787.231960
  0
LINE
  8
CSLAYER1
  6
CONTINUOUS
 62
     4
 10
1201.391628
 20
1767.531960
 11
1203.391628
 21
1767.531960
  0
LINE
  8
CSLAYER1
  6
CONTINUOUS
 62
     4
 10
1203.391628
 20
1768.831960
 11
1205.891628
 21
1768.831960
  0
LINE
  8
CSLAYER1
  6
CONTINUOUS
 62
     4
 10
1205.891628
 20
1787.846915
 11
1212.132438
 21
1787.846915
  0
LINE
  8
CSLAYER1
  6
CONTINUOUS
 62
     4
 10
1205.891628
 20
1782.939438
 11
1212.132438
 21
1782.939438
  0
LINE
  8
CSLAYER1
  6
CONTINUOUS
 62
     4
 10
1212.891628
 20
1786.531960
 11
1212.132438
 21
1787.846915
  0
ARC
  8
CSLAYER1
  6
CONTINUOUS
 62
     4
 10
1196.650817
 20
1778.031960
 40
16.240811
 50
0.000000
 51
17.587954
  0
ARC
  8
CSLAYER1
  6
CONTINUOUS
 62
     4
 10
1208.551845
 20
1785.393176
 40
4.340677
 50
-34.422385
 51
25.577615
  0
LINE
  8
CSLAYER1
  6
CONTINUOUS
 62
     4
 10
1205.891628
 20
1768.217006
 11
1212.132438
 21
1768.217006
  0
LINE
  8
CSLAYER1
  6
CONTINUOUS
 62
     4
 10
1205.891628
 20
1773.124483
 11
1212.132438
 21
1773.124483
  0
LINE
  8
CSLAYER1
  6
CONTINUOUS
 62
     4
 10
1212.891628
 20
1769.531960
 11
1212.132438
 21
1768.217006
  0
ARC
  8
CSLAYER1
  6
CONTINUOUS
 62
     4
 10
1196.650817
 20
1778.031960
 40
16.240811
 50
342.412046
 51
360.000000
  0
ARC
  8
CSLAYER1
  6
CONTINUOUS
 62
     4
 10
1208.551845
 20
1770.670744
 40
4.340677
 50
-25.577615
 51
34.422385
  0
LINE
  8
CSLAYER1
  6
CONTINUOUS
 62
     4
 10
1205.891628
 20
1779.396914
 11
1203.391628
 21
1776.654978
  0
ENDBLK
  8
0
  0
BLOCK
  8
CSLAYER1
  2
BLKF0027
 70
   64
 10
0.0
 20
0.0
 30
0.0
  0
LINE
  8
CSLAYER1
  6
CONTINUOUS
 62
     4
 10
840.891628
 20
1787.846915
 11
840.891628
 21
1768.217006
  0
LINE
  8
CSLAYER1
  6
CONTINUOUS
 62
     4
 10
833.891628
 20
1786.531960
 11
833.891628
 21
1769.531960
  0
LINE
  8
CSLAYER1
  6
CONTINUOUS
 62
     4
 10
843.391628
 20
1788.531960
 11
843.391628
 21
1767.531960
  0
LINE
  8
CSLAYER1
  6
CONTINUOUS
 62
     4
 10
845.391628
 20
1788.531960
 11
845.391628
 21
1767.531960
  0
LINE
  8
CSLAYER1
  6
CONTINUOUS
 62
     4
 10
845.391628
 20
1788.531960
 11
843.391628
 21
1788.531960
  0
LINE
  8
CSLAYER1
  6
CONTINUOUS
 62
     4
 10
843.391628
 20
1787.231960
 11
840.891628
 21
1787.231960
  0
LINE
  8
CSLAYER1
  6
CONTINUOUS
 62
     4
 10
845.391628
 20
1767.531960
 11
843.391628
 21
1767.531960
  0
LINE
  8
CSLAYER1
  6
CONTINUOUS
 62
     4
 10
843.391628
 20
1768.831960
 11
840.891628
 21
1768.831960
  0
LINE
  8
CSLAYER1
  6
CONTINUOUS
 62
     4
 10
840.891628
 20
1787.846915
 11
834.650817
 21
1787.846915
  0
LINE
  8
CSLAYER1
  6
CONTINUOUS
 62
     4
 10
840.891628
 20
1782.939438
 11
834.650817
 21
1782.939438
  0
LINE
  8
CSLAYER1
  6
CONTINUOUS
 62
     4
 10
833.891628
 20
1786.531960
 11
834.650817
 21
1787.846915
  0
ARC
  8
CSLAYER1
  6
CONTINUOUS
 62
     4
 10
850.132438
 20
1778.031960
 40
16.240811
 50
162.412046
 51
180.000000
  0
ARC
  8
CSLAYER1
  6
CONTINUOUS
 62
     4
 10
838.231410
 20
1785.393176
 40
4.340677
 50
154.422385
 51
214.422385
  0
LINE
  8
CSLAYER1
  6
CONTINUOUS
 62
     4
 10
840.891628
 20
1768.217006
 11
834.650817
 21
1768.217006
  0
LINE
  8
CSLAYER1
  6
CONTINUOUS
 62
     4
 10
840.891628
 20
1773.124483
 11
834.650817
 21
1773.124483
  0
LINE
  8
CSLAYER1
  6
CONTINUOUS
 62
     4
 10
833.891628
 20
1769.531960
 11
834.650817
 21
1768.217006
  0
ARC
  8
CSLAYER1
  6
CONTINUOUS
 62
     4
 10
850.132438
 20
1778.031960
 40
16.240811
 50
180.000000
 51
197.587954
  0
ARC
  8
CSLAYER1
  6
CONTINUOUS
 62
     4
 10
838.231410
 20
1770.670744
 40
4.340677
 50
145.577615
 51
205.577615
  0
LINE
  8
CSLAYER1
  6
CONTINUOUS
 62
     4
 10
840.891628
 20
1779.396914
 11
843.391628
 21
1776.654978
  0
ENDBLK
  8
0
  0
BLOCK
  8
CSLAYER1
  2
BLKF0028
 70
   64
 10
0.0
 20
0.0
 30
0.0
  0
LINE
  8
CSLAYER1
  6
CONTINUOUS
 62
     3
 10
798.891628
 20
736.872649
 11
779.891628
 21
736.872649
  0
LINE
  8
CSLAYER1
  6
CONTINUOUS
 62
     3
 10
798.891628
 20
746.872649
 11
779.891628
 21
746.872649
  0
LINE
  8
CSLAYER1
  6
CONTINUOUS
 62
     3
 10
800.361283
 20
746.024143
 11
800.361283
 21
737.721155
  0
LINE
  8
CSLAYER1
  6
CONTINUOUS
 62
     3
 10
794.876455
 20
746.024143
 11
794.876455
 21
737.721155
  0
LINE
  8
CSLAYER1
  6
CONTINUOUS
 62
     3
 10
798.891628
 20
746.872649
 11
800.361283
 21
746.024143
  0
ARC
  8
CSLAYER1
  6
CONTINUOUS
 62
     3
 10
789.391628
 20
728.721155
 40
18.151494
 50
72.412046
 51
90.000000
  0
ARC
  8
CSLAYER1
  6
CONTINUOUS
 62
     3
 10
797.618869
 20
742.030256
 40
4.844787
 50
64.475551
 51
124.475551
  0
LINE
  8
CSLAYER1
  6
CONTINUOUS
 62
     3
 10
778.421973
 20
746.024143
 11
778.421973
 21
737.721155
  0
LINE
  8
CSLAYER1
  6
CONTINUOUS
 62
     3
 10
783.906800
 20
746.024143
 11
783.906800
 21
737.721155
  0
LINE
  8
CSLAYER1
  6
CONTINUOUS
 62
     3
 10
779.891628
 20
746.872649
 11
778.421973
 21
746.024143
  0
ARC
  8
CSLAYER1
  6
CONTINUOUS
 62
     3
 10
789.391628
 20
728.721155
 40
18.151494
 50
90.000000
 51
107.587954
  0
ARC
  8
CSLAYER1
  6
CONTINUOUS
 62
     3
 10
781.164387
 20
742.030256
 40
4.844787
 50
55.524449
 51
115.524449
  0
LINE
  8
CSLAYER1
  6
CONTINUOUS
 62
     3
 10
798.891628
 20
736.872649
 11
779.891628
 21
736.872649
  0
LINE
  8
CSLAYER1
  6
CONTINUOUS
 62
     3
 10
798.891628
 20
736.872649
 11
800.361283
 21
737.721155
  0
ARC
  8
CSLAYER1
  6
CONTINUOUS
 62
     3
 10
789.391628
 20
755.024143
 40
18.151494
 50
270.000000
 51
287.587954
  0
ARC
  8
CSLAYER1
  6
CONTINUOUS
 62
     3
 10
797.618869
 20
741.715041
 40
4.844787
 50
235.524449
 51
295.524449
  0
LINE
  8
CSLAYER1
  6
CONTINUOUS
 62
     3
 10
779.891628
 20
736.872649
 11
778.421973
 21
737.721155
  0
ARC
  8
CSLAYER1
  6
CONTINUOUS
 62
     3
 10
789.391628
 20
755.024143
 40
18.151494
 50
252.412046
 51
270.000000
  0
ARC
  8
CSLAYER1
  6
CONTINUOUS
 62
     3
 10
781.164387
 20
741.715041
 40
4.844787
 50
244.475551
 51
304.475551
  0
POINT
  8
CSLAYER1
 62
     3
 10
789.391628
 20
746.872649
  0
ENDBLK
  8
0
  0
BLOCK
  8
CSLAYER1
  2
BLKF0029
 70
   64
 10
0.0
 20
0.0
 30
0.0
  0
CIRCLE
  8
CSLAYER1
  6
CONTINUOUS
 62
     4
 10
2068.953272
 20
1184.202305
 40
10.500000
  0
ARC
  8
CSLAYER1
  6
CONTINUOUS
 62
     4
 10
2068.953272
 20
1184.202305
 40
9.200000
 50
97.505018
 51
142.494982
  0
CIRCLE
  8
CSLAYER1
  6
CONTINUOUS
 62
     4
 10
2068.953272
 20
1184.202305
 40
8.500000
  0
LINE
  8
CSLAYER1
  6
CONTINUOUS
 62
     4
 10
2077.453272
 20
1189.109782
 11
2068.953272
 21
1194.017259
  0
LINE
  8
CSLAYER1
  6
CONTINUOUS
 62
     4
 10
2068.953272
 20
1194.017259
 11
2060.453272
 21
1189.109782
  0
LINE
  8
CSLAYER1
  6
CONTINUOUS
 62
     4
 10
2060.453272
 20
1189.109782
 11
2060.453272
 21
1179.294827
  0
LINE
  8
CSLAYER1
  6
CONTINUOUS
 62
     4
 10
2060.453272
 20
1179.294827
 11
2068.953272
 21
1174.387350
  0
LINE
  8
CSLAYER1
  6
CONTINUOUS
 62
     4
 10
2068.953272
 20
1174.387350
 11
2077.453272
 21
1179.294827
  0
LINE
  8
CSLAYER1
  6
CONTINUOUS
 62
     4
 10
2077.453272
 20
1179.294827
 11
2077.453272
 21
1189.109782
  0
ARC
  8
CSLAYER1
  6
CONTINUOUS
 62
     4
 10
2068.953272
 20
1184.202305
 40
9.200000
 50
37.505018
 51
82.494982
  0
ARC
  8
CSLAYER1
  6
CONTINUOUS
 62
     4
 10
2068.953272
 20
1184.202305
 40
9.200000
 50
-22.494982
 51
22.494982
  0
ARC
  8
CSLAYER1
  6
CONTINUOUS
 62
     4
 10
2068.953272
 20
1184.202305
 40
9.200000
 50
277.505018
 51
322.494982
  0
ARC
  8
CSLAYER1
  6
CONTINUOUS
 62
     4
 10
2068.953272
 20
1184.202305
 40
9.200000
 50
217.505018
 51
262.494982
  0
ARC
  8
CSLAYER1
  6
CONTINUOUS
 62
     4
 10
2068.953272
 20
1184.202305
 40
9.200000
 50
157.505018
 51
202.494982
  0
ENDBLK
  8
0
  0
BLOCK
  8
CSLAYER1
  2
BLKF0030
 70
   64
 10
0.0
 20
0.0
 30
0.0
  0
CIRCLE
  8
CSLAYER1
  6
CONTINUOUS
 62
     4
 10
2527.064980
 20
1184.202305
 40
10.500000
  0
ARC
  8
CSLAYER1
  6
CONTINUOUS
 62
     4
 10
2527.064980
 20
1184.202305
 40
9.200000
 50
97.505018
 51
142.494982
  0
CIRCLE
  8
CSLAYER1
  6
CONTINUOUS
 62
     4
 10
2527.064980
 20
1184.202305
 40
8.500000
  0
LINE
  8
CSLAYER1
  6
CONTINUOUS
 62
     4
 10
2535.564980
 20
1189.109782
 11
2527.064980
 21
1194.017259
  0
LINE
  8
CSLAYER1
  6
CONTINUOUS
 62
     4
 10
2527.064980
 20
1194.017259
 11
2518.564980
 21
1189.109782
  0
LINE
  8
CSLAYER1
  6
CONTINUOUS
 62
     4
 10
2518.564980
 20
1189.109782
 11
2518.564980
 21
1179.294827
  0
LINE
  8
CSLAYER1
  6
CONTINUOUS
 62
     4
 10
2518.564980
 20
1179.294827
 11
2527.064980
 21
1174.387350
  0
LINE
  8
CSLAYER1
  6
CONTINUOUS
 62
     4
 10
2527.064980
 20
1174.387350
 11
2535.564980
 21
1179.294827
  0
LINE
  8
CSLAYER1
  6
CONTINUOUS
 62
     4
 10
2535.564980
 20
1179.294827
 11
2535.564980
 21
1189.109782
  0
ARC
  8
CSLAYER1
  6
CONTINUOUS
 62
     4
 10
2527.064980
 20
1184.202305
 40
9.200000
 50
37.505018
 51
82.494982
  0
ARC
  8
CSLAYER1
  6
CONTINUOUS
 62
     4
 10
2527.064980
 20
1184.202305
 40
9.200000
 50
-22.494982
 51
22.494982
  0
ARC
  8
CSLAYER1
  6
CONTINUOUS
 62
     4
 10
2527.064980
 20
1184.202305
 40
9.200000
 50
277.505018
 51
322.494982
  0
ARC
  8
CSLAYER1
  6
CONTINUOUS
 62
     4
 10
2527.064980
 20
1184.202305
 40
9.200000
 50
217.505018
 51
262.494982
  0
ARC
  8
CSLAYER1
  6
CONTINUOUS
 62
     4
 10
2527.064980
 20
1184.202305
 40
9.200000
 50
157.505018
 51
202.494982
  0
ENDBLK
  8
0
  0
BLOCK
  8
CSLAYER1
  2
BLKF0031
 70
   64
 10
0.0
 20
0.0
 30
0.0
  0
CIRCLE
  8
CSLAYER1
  6
CONTINUOUS
 62
     4
 10
2298.009126
 20
1481.117132
 40
12.000000
  0
CIRCLE
  8
CSLAYER1
  6
CONTINUOUS
 62
     4
 10
2298.009126
 20
1481.117132
 40
6.000000
  0
CIRCLE
  8
CSLAYER1
  6
CONTINUOUS
 62
     4
 10
2298.009126
 20
1481.117132
 40
5.200000
  0
CIRCLE
  8
CSLAYER1
  6
CONTINUOUS
 62
     4
 10
2298.009126
 20
1481.117132
 40
9.500000
  0
LINE
  8
CSLAYER1
  6
CONTINUOUS
 62
     4
 10
2307.509126
 20
1486.601960
 11
2298.009126
 21
1492.086788
  0
LINE
  8
CSLAYER1
  6
CONTINUOUS
 62
     4
 10
2298.009126
 20
1492.086788
 11
2288.509126
 21
1486.601960
  0
LINE
  8
CSLAYER1
  6
CONTINUOUS
 62
     4
 10
2288.509126
 20
1486.601960
 11
2288.509126
 21
1475.632305
  0
LINE
  8
CSLAYER1
  6
CONTINUOUS
 62
     4
 10
2288.509126
 20
1475.632305
 11
2298.009126
 21
1470.147477
  0
LINE
  8
CSLAYER1
  6
CONTINUOUS
 62
     4
 10
2298.009126
 20
1470.147477
 11
2307.509126
 21
1475.632305
  0
LINE
  8
CSLAYER1
  6
CONTINUOUS
 62
     4
 10
2307.509126
 20
1475.632305
 11
2307.509126
 21
1486.601960
  0
ENDBLK
  8
0
  0
BLOCK
  8
CSLAYER1
  2
BLKF0032
 70
   64
 10
0.0
 20
0.0
 30
0.0
  0
CIRCLE
  8
CSLAYER1
  6
CONTINUOUS
 62
     4
 10
2298.009126
 20
887.287477
 40
12.000000
  0
CIRCLE
  8
CSLAYER1
  6
CONTINUOUS
 62
     4
 10
2298.009126
 20
887.287477
 40
6.000000
  0
CIRCLE
  8
CSLAYER1
  6
CONTINUOUS
 62
     4
 10
2298.009126
 20
887.287477
 40
5.200000
  0
CIRCLE
  8
CSLAYER1
  6
CONTINUOUS
 62
     4
 10
2298.009126
 20
887.287477
 40
9.500000
  0
LINE
  8
CSLAYER1
  6
CONTINUOUS
 62
     4
 10
2307.509126
 20
892.772304
 11
2298.009126
 21
898.257132
  0
LINE
  8
CSLAYER1
  6
CONTINUOUS
 62
     4
 10
2298.009126
 20
898.257132
 11
2288.509126
 21
892.772304
  0
LINE
  8
CSLAYER1
  6
CONTINUOUS
 62
     4
 10
2288.509126
 20
892.772304
 11
2288.509126
 21
881.802649
  0
LINE
  8
CSLAYER1
  6
CONTINUOUS
 62
     4
 10
2288.509126
 20
881.802649
 11
2298.009126
 21
876.317822
  0
LINE
  8
CSLAYER1
  6
CONTINUOUS
 62
     4
 10
2298.009126
 20
876.317822
 11
2307.509126
 21
881.802649
  0
LINE
  8
CSLAYER1
  6
CONTINUOUS
 62
     4
 10
2307.509126
 20
881.802649
 11
2307.509126
 21
892.772304
  0
ENDBLK
  8
0
  0
BLOCK
  8
CSLAYER1
  2
BLKF0033
 70
   64
 10
0.0
 20
0.0
 30
0.0
  0
CIRCLE
  8
CSLAYER1
  6
CONTINUOUS
 62
     4
 10
2068.953272
 20
1778.031960
 40
10.500000
  0
ARC
  8
CSLAYER1
  6
CONTINUOUS
 62
     4
 10
2068.953272
 20
1778.031960
 40
9.200000
 50
97.505018
 51
142.494982
  0
CIRCLE
  8
CSLAYER1
  6
CONTINUOUS
 62
     4
 10
2068.953272
 20
1778.031960
 40
8.500000
  0
LINE
  8
CSLAYER1
  6
CONTINUOUS
 62
     4
 10
2077.453272
 20
1782.939438
 11
2068.953272
 21
1787.846915
  0
LINE
  8
CSLAYER1
  6
CONTINUOUS
 62
     4
 10
2068.953272
 20
1787.846915
 11
2060.453272
 21
1782.939438
  0
LINE
  8
CSLAYER1
  6
CONTINUOUS
 62
     4
 10
2060.453272
 20
1782.939438
 11
2060.453272
 21
1773.124483
  0
LINE
  8
CSLAYER1
  6
CONTINUOUS
 62
     4
 10
2060.453272
 20
1773.124483
 11
2068.953272
 21
1768.217006
  0
LINE
  8
CSLAYER1
  6
CONTINUOUS
 62
     4
 10
2068.953272
 20
1768.217006
 11
2077.453272
 21
1773.124483
  0
LINE
  8
CSLAYER1
  6
CONTINUOUS
 62
     4
 10
2077.453272
 20
1773.124483
 11
2077.453272
 21
1782.939438
  0
ARC
  8
CSLAYER1
  6
CONTINUOUS
 62
     4
 10
2068.953272
 20
1778.031960
 40
9.200000
 50
37.505018
 51
82.494982
  0
ARC
  8
CSLAYER1
  6
CONTINUOUS
 62
     4
 10
2068.953272
 20
1778.031960
 40
9.200000
 50
-22.494982
 51
22.494982
  0
ARC
  8
CSLAYER1
  6
CONTINUOUS
 62
     4
 10
2068.953272
 20
1778.031960
 40
9.200000
 50
277.505018
 51
322.494982
  0
ARC
  8
CSLAYER1
  6
CONTINUOUS
 62
     4
 10
2068.953272
 20
1778.031960
 40
9.200000
 50
217.505018
 51
262.494982
  0
ARC
  8
CSLAYER1
  6
CONTINUOUS
 62
     4
 10
2068.953272
 20
1778.031960
 40
9.200000
 50
157.505018
 51
202.494982
  0
ENDBLK
  8
0
  0
BLOCK
  8
CSLAYER1
  2
BLKF0034
 70
   64
 10
0.0
 20
0.0
 30
0.0
  0
CIRCLE
  8
CSLAYER1
  6
CONTINUOUS
 62
     4
 10
2527.064980
 20
1778.031960
 40
10.500000
  0
ARC
  8
CSLAYER1
  6
CONTINUOUS
 62
     4
 10
2527.064980
 20
1778.031960
 40
9.200000
 50
97.505018
 51
142.494982
  0
CIRCLE
  8
CSLAYER1
  6
CONTINUOUS
 62
     4
 10
2527.064980
 20
1778.031960
 40
8.500000
  0
LINE
  8
CSLAYER1
  6
CONTINUOUS
 62
     4
 10
2535.564980
 20
1782.939438
 11
2527.064980
 21
1787.846915
  0
LINE
  8
CSLAYER1
  6
CONTINUOUS
 62
     4
 10
2527.064980
 20
1787.846915
 11
2518.564980
 21
1782.939438
  0
LINE
  8
CSLAYER1
  6
CONTINUOUS
 62
     4
 10
2518.564980
 20
1782.939438
 11
2518.564980
 21
1773.124483
  0
LINE
  8
CSLAYER1
  6
CONTINUOUS
 62
     4
 10
2518.564980
 20
1773.124483
 11
2527.064980
 21
1768.217006
  0
LINE
  8
CSLAYER1
  6
CONTINUOUS
 62
     4
 10
2527.064980
 20
1768.217006
 11
2535.564980
 21
1773.124483
  0
LINE
  8
CSLAYER1
  6
CONTINUOUS
 62
     4
 10
2535.564980
 20
1773.124483
 11
2535.564980
 21
1782.939438
  0
ARC
  8
CSLAYER1
  6
CONTINUOUS
 62
     4
 10
2527.064980
 20
1778.031960
 40
9.200000
 50
37.505018
 51
82.494982
  0
ARC
  8
CSLAYER1
  6
CONTINUOUS
 62
     4
 10
2527.064980
 20
1778.031960
 40
9.200000
 50
-22.494982
 51
22.494982
  0
ARC
  8
CSLAYER1
  6
CONTINUOUS
 62
     4
 10
2527.064980
 20
1778.031960
 40
9.200000
 50
277.505018
 51
322.494982
  0
ARC
  8
CSLAYER1
  6
CONTINUOUS
 62
     4
 10
2527.064980
 20
1778.031960
 40
9.200000
 50
217.505018
 51
262.494982
  0
ARC
  8
CSLAYER1
  6
CONTINUOUS
 62
     4
 10
2527.064980
 20
1778.031960
 40
9.200000
 50
157.505018
 51
202.494982
  0
ENDBLK
  8
0
  0
BLOCK
  8
CSLAYER1
  2
BLKF0035
 70
   64
 10
0.0
 20
0.0
 30
0.0
  0
CIRCLE
  8
CSLAYER1
  6
CONTINUOUS
 62
     4
 10
2298.009126
 20
2074.946788
 40
12.000000
  0
CIRCLE
  8
CSLAYER1
  6
CONTINUOUS
 62
     4
 10
2298.009126
 20
2074.946788
 40
6.000000
  0
CIRCLE
  8
CSLAYER1
  6
CONTINUOUS
 62
     4
 10
2298.009126
 20
2074.946788
 40
5.200000
  0
CIRCLE
  8
CSLAYER1
  6
CONTINUOUS
 62
     4
 10
2298.009126
 20
2074.946788
 40
9.500000
  0
LINE
  8
CSLAYER1
  6
CONTINUOUS
 62
     4
 10
2307.509126
 20
2080.431616
 11
2298.009126
 21
2085.916443
  0
LINE
  8
CSLAYER1
  6
CONTINUOUS
 62
     4
 10
2298.009126
 20
2085.916443
 11
2288.509126
 21
2080.431616
  0
LINE
  8
CSLAYER1
  6
CONTINUOUS
 62
     4
 10
2288.509126
 20
2080.431616
 11
2288.509126
 21
2069.461961
  0
LINE
  8
CSLAYER1
  6
CONTINUOUS
 62
     4
 10
2288.509126
 20
2069.461961
 11
2298.009126
 21
2063.977133
  0
LINE
  8
CSLAYER1
  6
CONTINUOUS
 62
     4
 10
2298.009126
 20
2063.977133
 11
2307.509126
 21
2069.461961
  0
LINE
  8
CSLAYER1
  6
CONTINUOUS
 62
     4
 10
2307.509126
 20
2069.461961
 11
2307.509126
 21
2080.431616
  0
ENDBLK
  8
0
  0
BLOCK
  8
CSLAYER1
  2
BLKF0036
 70
   64
 10
0.0
 20
0.0
 30
0.0
  0
LINE
  8
CSLAYER1
  6
CONTINUOUS
 62
     3
 10
1631.901119
 20
2892.432796
 11
1631.901119
 21
2830.432796
  0
LINE
  8
CSLAYER1
  6
CONTINUOUS
 62
     3
 10
1629.401119
 20
2894.932796
 11
1544.401119
 21
2894.932796
  0
LINE
  8
CSLAYER1
  6
CENTER
 62
     5
 10
1690.250758
 20
2822.432796
 11
1631.901119
 21
2822.432796
  0
LINE
  8
CSLAYER1
  6
CONTINUOUS
 62
     2
 10
1629.401119
 20
2838.432796
 11
1544.401119
 21
2838.432796
  0
LINE
  8
CSLAYER1
  6
CONTINUOUS
 62
     3
 10
1629.401119
 20
2889.932796
 11
1629.401119
 21
2844.932796
  0
LINE
  8
CSLAYER1
  6
CONTINUOUS
 62
     3
 10
1541.901119
 20
2892.432796
 11
1541.901119
 21
2822.432796
  0
LINE
  8
CSLAYER1
  6
CONTINUOUS
 62
     3
 10
1626.901119
 20
2892.432796
 11
1549.901119
 21
2892.432796
  0
LINE
  8
CSLAYER1
  6
CONTINUOUS
 62
     3
 10
1626.901119
 20
2842.432796
 11
1549.901119
 21
2842.432796
  0
ARC
  8
CSLAYER1
  6
CONTINUOUS
 62
     3
 10
1603.969301
 20
2867.432796
 40
59.568182
 50
155.185163
 51
204.814837
  0
ARC
  8
CSLAYER1
  6
CONTINUOUS
 62
     3
 10
1626.901119
 20
2889.932796
 40
2.500000
 50
0.000000
 51
90.000000
  0
ARC
  8
CSLAYER1
  6
CONTINUOUS
 62
     3
 10
1626.901119
 20
2844.932796
 40
2.500000
 50
270.000000
 51
360.000000
  0
ARC
  8
CSLAYER1
  6
CONTINUOUS
 62
     3
 10
1629.401119
 20
2892.432796
 40
2.500000
 50
0.000000
 51
90.000000
  0
ARC
  8
CSLAYER1
  6
CONTINUOUS
 62
     3
 10
1544.401119
 20
2892.432796
 40
2.500000
 50
90.000000
 51
180.000000
  0
ARC
  8
CSLAYER1
  6
CONTINUOUS
 62
     2
 10
1544.401119
 20
2835.932796
 40
2.500000
 50
90.000000
 51
180.000000
  0
ARC
  8
CSLAYER1
  6
CONTINUOUS
 62
     2
 10
1629.401119
 20
2835.932796
 40
2.500000
 50
0.000000
 51
90.000000
  0
LINE
  8
CSLAYER1
  6
CONTINUOUS
 62
     3
 10
1631.901119
 20
2752.432796
 11
1631.901119
 21
2814.432796
  0
LINE
  8
CSLAYER1
  6
CONTINUOUS
 62
     3
 10
1629.401119
 20
2749.932796
 11
1544.401119
 21
2749.932796
  0
LINE
  8
CSLAYER1
  6
CONTINUOUS
 62
     2
 10
1629.401119
 20
2806.432796
 11
1544.401119
 21
2806.432796
  0
LINE
  8
CSLAYER1
  6
CONTINUOUS
 62
     3
 10
1541.901119
 20
2752.432796
 11
1541.901119
 21
2822.432796
  0
ARC
  8
CSLAYER1
  6
CONTINUOUS
 62
     3
 10
1629.401119
 20
2752.432796
 40
2.500000
 50
270.000000
 51
360.000000
  0
ARC
  8
CSLAYER1
  6
CONTINUOUS
 62
     3
 10
1544.401119
 20
2752.432796
 40
2.500000
 50
180.000000
 51
270.000000
  0
ARC
  8
CSLAYER1
  6
CONTINUOUS
 62
     2
 10
1544.401119
 20
2808.932796
 40
2.500000
 50
180.000000
 51
270.000000
  0
ARC
  8
CSLAYER1
  6
CONTINUOUS
 62
     2
 10
1629.401119
 20
2808.932796
 40
2.500000
 50
270.000000
 51
360.000000
  0
LINE
  8
CSLAYER1
  6
CONTINUOUS
 62
     3
 10
1629.401119
 20
2754.932796
 11
1629.401119
 21
2799.932796
  0
LINE
  8
CSLAYER1
  6
CONTINUOUS
 62
     3
 10
1626.901119
 20
2752.432796
 11
1549.901119
 21
2752.432796
  0
LINE
  8
CSLAYER1
  6
CONTINUOUS
 62
     3
 10
1626.901119
 20
2802.432796
 11
1549.901119
 21
2802.432796
  0
ARC
  8
CSLAYER1
  6
CONTINUOUS
 62
     3
 10
1603.969301
 20
2777.432796
 40
59.568182
 50
155.185163
 51
204.814837
  0
ARC
  8
CSLAYER1
  6
CONTINUOUS
 62
     3
 10
1626.901119
 20
2754.932796
 40
2.500000
 50
270.000000
 51
360.000000
  0
ARC
  8
CSLAYER1
  6
CONTINUOUS
 62
     3
 10
1626.901119
 20
2799.932796
 40
2.500000
 50
0.000000
 51
90.000000
  0
LINE
  8
CSLAYER1
  6
CONTINUOUS
 62
     3
 10
1638.901119
 20
2815.432796
 11
1638.901119
 21
2818.932796
  0
LINE
  8
CSLAYER1
  6
CONTINUOUS
 62
     3
 10
1690.250758
 20
2818.932796
 11
1638.901119
 21
2818.932796
  0
LINE
  8
CSLAYER1
  6
CONTINUOUS
 62
     3
 10
1637.901119
 20
2814.432796
 11
1631.901119
 21
2814.432796
  0
LINE
  8
CSLAYER1
  6
CONTINUOUS
 62
     3
 10
1637.901119
 20
2830.432796
 11
1631.901119
 21
2830.432796
  0
LINE
  8
CSLAYER1
  6
CONTINUOUS
 62
     3
 10
1690.250758
 20
2825.932796
 11
1638.901119
 21
2825.932796
  0
ARC
  8
CSLAYER1
  6
CONTINUOUS
 62
     3
 10
1637.901119
 20
2829.432796
 40
1.000000
 50
0.000000
 51
90.000000
  0
ARC
  8
CSLAYER1
  6
CONTINUOUS
 62
     3
 10
1637.901119
 20
2815.432796
 40
1.000000
 50
270.000000
 51
360.000000
  0
LINE
  8
CSLAYER1
  6
CONTINUOUS
 62
     3
 10
1638.901119
 20
2825.932796
 11
1638.901119
 21
2829.432796
  0
LINE
  8
CSLAYER1
  6
CONTINUOUS
 62
     2
 10
1638.901119
 20
2818.932796
 11
1638.901119
 21
2825.932796
  0
LINE
  8
CSLAYER1
  6
CONTINUOUS
 62
     2
 10
1631.901119
 20
2830.432796
 11
1631.901119
 21
2822.432796
  0
LINE
  8
CSLAYER1
  6
CONTINUOUS
 62
     2
 10
1631.901119
 20
2814.432796
 11
1631.901119
 21
2822.432796
  0
LINE
  8
CSLAYER1
  6
CONTINUOUS
 62
     2
 10
1612.408108
 20
2834.595456
 11
1621.543108
 21
2834.595456
  0
LINE
  8
CSLAYER1
  6
CONTINUOUS
 62
     2
 10
1612.408108
 20
2810.970456
 11
1621.543108
 21
2810.970456
  0
LINE
  8
CSLAYER1
  6
CONTINUOUS
 62
     2
 10
1622.803108
 20
2833.335456
 11
1622.803108
 21
2812.230456
  0
LINE
  8
CSLAYER1
  6
CONTINUOUS
 62
     2
 10
1611.148108
 20
2833.335456
 11
1611.148108
 21
2812.230456
  0
LINE
  8
CSLAYER1
  6
CONTINUOUS
 62
     2
 10
1613.038108
 20
2812.860456
 11
1621.070608
 21
2812.860456
  0
LINE
  8
CSLAYER1
  6
CONTINUOUS
 62
     2
 10
1613.038108
 20
2816.010456
 11
1613.983108
 21
2816.010456
  0
LINE
  8
CSLAYER1
  6
CONTINUOUS
 62
     2
 10
1613.038108
 20
2824.672956
 11
1613.983108
 21
2824.672956
  0
LINE
  8
CSLAYER1
  6
CONTINUOUS
 62
     2
 10
1613.038108
 20
2829.240456
 11
1618.078108
 21
2829.240456
  0
LINE
  8
CSLAYER1
  6
CONTINUOUS
 62
     2
 10
1611.935608
 20
2828.137956
 11
1611.935608
 21
2825.775456
  0
LINE
  8
CSLAYER1
  6
CONTINUOUS
 62
     2
 10
1619.180608
 20
2828.137956
 11
1619.180608
 21
2825.775456
  0
LINE
  8
CSLAYER1
  6
CONTINUOUS
 62
     2
 10
1622.173108
 20
2814.907956
 11
1622.173108
 21
2813.962956
  0
LINE
  8
CSLAYER1
  6
CONTINUOUS
 62
     2
 10
1614.928108
 20
2823.727956
 11
1614.928108
 21
2816.955456
  0
LINE
  8
CSLAYER1
  6
CONTINUOUS
 62
     2
 10
1615.715608
 20
2823.727956
 11
1615.715608
 21
2816.955456
  0
ARC
  8
CSLAYER1
  6
CONTINUOUS
 62
     2
 10
1613.038108
 20
2828.137956
 40
1.102500
 50
90.000000
 51
180.000000
  0
ARC
  8
CSLAYER1
  6
CONTINUOUS
 62
     2
 10
1618.078108
 20
2828.137956
 40
1.102500
 50
0.000000
 51
90.000000
  0
ARC
  8
CSLAYER1
  6
CONTINUOUS
 62
     2
 10
1618.078108
 20
2825.775456
 40
1.102500
 50
270.000000
 51
360.000000
  0
ARC
  8
CSLAYER1
  6
CONTINUOUS
 62
     2
 10
1613.038108
 20
2825.775456
 40
1.102500
 50
180.000000
 51
270.000000
  0
ARC
  8
CSLAYER1
  6
CONTINUOUS
 62
     2
 10
1621.070608
 20
2814.907956
 40
1.102500
 50
0.000000
 51
90.000000
  0
ARC
  8
CSLAYER1
  6
CONTINUOUS
 62
     2
 10
1621.070608
 20
2813.962956
 40
1.102500
 50
270.000000
 51
360.000000
  0
ARC
  8
CSLAYER1
  6
CONTINUOUS
 62
     2
 10
1613.038108
 20
2813.962956
 40
1.102500
 50
180.000000
 51
270.000000
  0
ARC
  8
CSLAYER1
  6
CONTINUOUS
 62
     2
 10
1613.038108
 20
2814.907956
 40
1.102500
 50
90.000000
 51
180.000000
  0
LINE
  8
CSLAYER1
  6
CONTINUOUS
 62
     2
 10
1616.660608
 20
2824.672956
 11
1618.078108
 21
2824.672956
  0
LINE
  8
CSLAYER1
  6
CONTINUOUS
 62
     2
 10
1616.660608
 20
2816.010456
 11
1621.070608
 21
2816.010456
  0
ARC
  8
CSLAYER1
  6
CONTINUOUS
 62
     2
 10
1613.983108
 20
2823.727956
 40
0.945000
 50
0.000000
 51
90.000000
  0
ARC
  8
CSLAYER1
  6
CONTINUOUS
 62
     2
 10
1616.660608
 20
2823.727956
 40
0.945000
 50
90.000000
 51
180.000000
  0
ARC
  8
CSLAYER1
  6
CONTINUOUS
 62
     2
 10
1616.660608
 20
2816.955456
 40
0.945000
 50
180.000000
 51
270.000000
  0
ARC
  8
CSLAYER1
  6
CONTINUOUS
 62
     2
 10
1612.408108
 20
2833.335456
 40
1.260000
 50
90.000000
 51
180.000000
  0
ARC
  8
CSLAYER1
  6
CONTINUOUS
 62
     2
 10
1621.543108
 20
2833.335456
 40
1.260000
 50
0.000000
 51
90.000000
  0
ARC
  8
CSLAYER1
  6
CONTINUOUS
 62
     2
 10
1621.543108
 20
2812.230456
 40
1.260000
 50
270.000000
 51
360.000000
  0
ARC
  8
CSLAYER1
  6
CONTINUOUS
 62
     2
 10
1612.408108
 20
2812.230456
 40
1.260000
 50
180.000000
 51
270.000000
  0
ARC
  8
CSLAYER1
  6
CONTINUOUS
 62
     2
 10
1613.983108
 20
2816.955456
 40
0.945000
 50
270.000000
 51
360.000000
  0
LINE
  8
CSLAYER1
  6
CONTINUOUS
 62
     2
 10
1611.935608
 20
2814.907956
 11
1611.935608
 21
2813.962956
  0
CIRCLE
  8
CSLAYER1
  6
CONTINUOUS
 62
     2
 10
1597.401119
 20
2872.432796
 40
2.500000
  0
CIRCLE
  8
CSLAYER1
  6
CONTINUOUS
 62
     2
 10
1597.401119
 20
2882.432796
 40
2.500000
  0
CIRCLE
  8
CSLAYER1
  6
CONTINUOUS
 62
     2
 10
1587.401119
 20
2882.432796
 40
2.500000
  0
CIRCLE
  8
CSLAYER1
  6
CONTINUOUS
 62
     2
 10
1587.401119
 20
2872.432796
 40
2.500000
  0
CIRCLE
  8
CSLAYER1
  6
CONTINUOUS
 62
     2
 10
1577.401119
 20
2872.432796
 40
2.500000
  0
CIRCLE
  8
CSLAYER1
  6
CONTINUOUS
 62
     2
 10
1577.401119
 20
2882.432796
 40
2.500000
  0
CIRCLE
  8
CSLAYER1
  6
CONTINUOUS
 62
     2
 10
1567.401119
 20
2882.432796
 40
2.500000
  0
CIRCLE
  8
CSLAYER1
  6
CONTINUOUS
 62
     2
 10
1567.401119
 20
2872.432796
 40
2.500000
  0
CIRCLE
  8
CSLAYER1
  6
CONTINUOUS
 62
     2
 10
1557.401119
 20
2872.432796
 40
2.500000
  0
CIRCLE
  8
CSLAYER1
  6
CONTINUOUS
 62
     2
 10
1557.401119
 20
2882.432796
 40
2.500000
  0
CIRCLE
  8
CSLAYER1
  6
CONTINUOUS
 62
     2
 10
1597.401119
 20
2862.432796
 40
2.500000
  0
CIRCLE
  8
CSLAYER1
  6
CONTINUOUS
 62
     2
 10
1597.401119
 20
2852.432796
 40
2.500000
  0
CIRCLE
  8
CSLAYER1
  6
CONTINUOUS
 62
     2
 10
1587.401119
 20
2852.432796
 40
2.500000
  0
CIRCLE
  8
CSLAYER1
  6
CONTINUOUS
 62
     2
 10
1587.401119
 20
2862.432796
 40
2.500000
  0
CIRCLE
  8
CSLAYER1
  6
CONTINUOUS
 62
     2
 10
1577.401119
 20
2862.432796
 40
2.500000
  0
CIRCLE
  8
CSLAYER1
  6
CONTINUOUS
 62
     2
 10
1577.401119
 20
2852.432796
 40
2.500000
  0
CIRCLE
  8
CSLAYER1
  6
CONTINUOUS
 62
     2
 10
1567.401119
 20
2852.432796
 40
2.500000
  0
CIRCLE
  8
CSLAYER1
  6
CONTINUOUS
 62
     2
 10
1567.401119
 20
2862.432796
 40
2.500000
  0
CIRCLE
  8
CSLAYER1
  6
CONTINUOUS
 62
     2
 10
1557.401119
 20
2862.432796
 40
2.500000
  0
CIRCLE
  8
CSLAYER1
  6
CONTINUOUS
 62
     2
 10
1557.401119
 20
2852.432796
 40
2.500000
  0
CIRCLE
  8
CSLAYER1
  6
CONTINUOUS
 62
     2
 10
1597.401119
 20
2772.432796
 40
2.500000
  0
CIRCLE
  8
CSLAYER1
  6
CONTINUOUS
 62
     2
 10
1597.401119
 20
2762.432796
 40
2.500000
  0
CIRCLE
  8
CSLAYER1
  6
CONTINUOUS
 62
     2
 10
1587.401119
 20
2762.432796
 40
2.500000
  0
CIRCLE
  8
CSLAYER1
  6
CONTINUOUS
 62
     2
 10
1587.401119
 20
2772.432796
 40
2.500000
  0
CIRCLE
  8
CSLAYER1
  6
CONTINUOUS
 62
     2
 10
1577.401119
 20
2772.432796
 40
2.500000
  0
CIRCLE
  8
CSLAYER1
  6
CONTINUOUS
 62
     2
 10
1577.401119
 20
2762.432796
 40
2.500000
  0
CIRCLE
  8
CSLAYER1
  6
CONTINUOUS
 62
     2
 10
1567.401119
 20
2762.432796
 40
2.500000
  0
CIRCLE
  8
CSLAYER1
  6
CONTINUOUS
 62
     2
 10
1567.401119
 20
2772.432796
 40
2.500000
  0
CIRCLE
  8
CSLAYER1
  6
CONTINUOUS
 62
     2
 10
1557.401119
 20
2772.432796
 40
2.500000
  0
CIRCLE
  8
CSLAYER1
  6
CONTINUOUS
 62
     2
 10
1557.401119
 20
2762.432796
 40
2.500000
  0
CIRCLE
  8
CSLAYER1
  6
CONTINUOUS
 62
     2
 10
1597.401119
 20
2782.432796
 40
2.500000
  0
CIRCLE
  8
CSLAYER1
  6
CONTINUOUS
 62
     2
 10
1597.401119
 20
2792.432796
 40
2.500000
  0
CIRCLE
  8
CSLAYER1
  6
CONTINUOUS
 62
     2
 10
1587.401119
 20
2792.432796
 40
2.500000
  0
CIRCLE
  8
CSLAYER1
  6
CONTINUOUS
 62
     2
 10
1587.401119
 20
2782.432796
 40
2.500000
  0
CIRCLE
  8
CSLAYER1
  6
CONTINUOUS
 62
     2
 10
1577.401119
 20
2782.432796
 40
2.500000
  0
CIRCLE
  8
CSLAYER1
  6
CONTINUOUS
 62
     2
 10
1577.401119
 20
2792.432796
 40
2.500000
  0
CIRCLE
  8
CSLAYER1
  6
CONTINUOUS
 62
     2
 10
1567.401119
 20
2792.432796
 40
2.500000
  0
CIRCLE
  8
CSLAYER1
  6
CONTINUOUS
 62
     2
 10
1567.401119
 20
2782.432796
 40
2.500000
  0
CIRCLE
  8
CSLAYER1
  6
CONTINUOUS
 62
     2
 10
1557.401119
 20
2782.432796
 40
2.500000
  0
CIRCLE
  8
CSLAYER1
  6
CONTINUOUS
 62
     2
 10
1557.401119
 20
2792.432796
 40
2.500000
  0
LINE
  8
CSLAYER1
  6
CONTINUOUS
 62
     2
 10
1623.401119
 20
2794.932796
 11
1623.401119
 21
2759.932796
  0
LINE
  8
CSLAYER1
  6
CONTINUOUS
 62
     2
 10
1607.401119
 20
2794.932796
 11
1607.401119
 21
2759.932796
  0
LINE
  8
CSLAYER1
  6
CONTINUOUS
 62
     2
 10
1621.901119
 20
2796.432796
 11
1608.901119
 21
2796.432796
  0
LINE
  8
CSLAYER1
  6
CONTINUOUS
 62
     2
 10
1622.401119
 20
2794.932796
 11
1622.401119
 21
2759.932796
  0
LINE
  8
CSLAYER1
  6
CONTINUOUS
 62
     2
 10
1608.401119
 20
2794.932796
 11
1608.401119
 21
2759.932796
  0
LINE
  8
CSLAYER1
  6
CONTINUOUS
 62
     2
 10
1621.901119
 20
2795.432796
 11
1608.901119
 21
2795.432796
  0
LINE
  8
CSLAYER1
  6
CONTINUOUS
 62
     2
 10
1621.901119
 20
2758.432796
 11
1608.901119
 21
2758.432796
  0
LINE
  8
CSLAYER1
  6
CONTINUOUS
 62
     2
 10
1621.901119
 20
2759.432796
 11
1608.901119
 21
2759.432796
  0
ARC
  8
CSLAYER1
  6
CONTINUOUS
 62
     2
 10
1621.901119
 20
2794.932796
 40
0.500000
 50
0.000000
 51
90.000000
  0
ARC
  8
CSLAYER1
  6
CONTINUOUS
 62
     2
 10
1608.901119
 20
2794.932796
 40
0.500000
 50
90.000000
 51
180.000000
  0
ARC
  8
CSLAYER1
  6
CONTINUOUS
 62
     2
 10
1621.901119
 20
2759.932796
 40
0.500000
 50
270.000000
 51
360.000000
  0
ARC
  8
CSLAYER1
  6
CONTINUOUS
 62
     2
 10
1608.901119
 20
2759.932796
 40
0.500000
 50
180.000000
 51
270.000000
  0
ARC
  8
CSLAYER1
  6
CONTINUOUS
 62
     2
 10
1621.901119
 20
2794.932796
 40
1.500000
 50
0.000000
 51
90.000000
  0
ARC
  8
CSLAYER1
  6
CONTINUOUS
 62
     2
 10
1608.901119
 20
2794.932796
 40
1.500000
 50
90.000000
 51
180.000000
  0
ARC
  8
CSLAYER1
  6
CONTINUOUS
 62
     2
 10
1621.901119
 20
2759.932796
 40
1.500000
 50
270.000000
 51
360.000000
  0
ARC
  8
CSLAYER1
  6
CONTINUOUS
 62
     2
 10
1608.901119
 20
2759.932796
 40
1.500000
 50
180.000000
 51
270.000000
  0
LINE
  8
CSLAYER1
  6
CONTINUOUS
 62
     2
 10
1618.401119
 20
2786.432796
 11
1618.401119
 21
2768.432796
  0
LINE
  8
CSLAYER1
  6
CONTINUOUS
 62
     2
 10
1621.479191
 20
2777.432796
 11
1618.401119
 21
2768.432796
  0
LINE
  8
CSLAYER1
  6
CONTINUOUS
 62
     2
 10
1621.479191
 20
2777.432796
 11
1618.401119
 21
2786.432796
  0
TEXT
  8
CSLAYER1
 62
     2
 10
1610.107108
 20
2786.413017
 40
7.066058
 41
1.574983
  1
UP
 50
270.000000
 51
0.000000
  7
EASYDRAW_FONT
 72
     5
 11
1610.107108
 21
2767.864815
  0
LINE
  8
CSLAYER1
  6
CONTINUOUS
 62
     2
 10
1623.401119
 20
2849.932796
 11
1623.401119
 21
2884.932796
  0
LINE
  8
CSLAYER1
  6
CONTINUOUS
 62
     2
 10
1607.401119
 20
2849.932796
 11
1607.401119
 21
2884.932796
  0
LINE
  8
CSLAYER1
  6
CONTINUOUS
 62
     2
 10
1621.901119
 20
2848.432796
 11
1608.901119
 21
2848.432796
  0
LINE
  8
CSLAYER1
  6
CONTINUOUS
 62
     2
 10
1622.401119
 20
2849.932796
 11
1622.401119
 21
2884.932796
  0
LINE
  8
CSLAYER1
  6
CONTINUOUS
 62
     2
 10
1608.401119
 20
2849.932796
 11
1608.401119
 21
2884.932796
  0
LINE
  8
CSLAYER1
  6
CONTINUOUS
 62
     2
 10
1621.901119
 20
2849.432796
 11
1608.901119
 21
2849.432796
  0
LINE
  8
CSLAYER1
  6
CONTINUOUS
 62
     2
 10
1621.901119
 20
2886.432796
 11
1608.901119
 21
2886.432796
  0
LINE
  8
CSLAYER1
  6
CONTINUOUS
 62
     2
 10
1621.901119
 20
2885.432796
 11
1608.901119
 21
2885.432796
  0
ARC
  8
CSLAYER1
  6
CONTINUOUS
 62
     2
 10
1621.901119
 20
2849.932796
 40
0.500000
 50
270.000000
 51
360.000000
  0
ARC
  8
CSLAYER1
  6
CONTINUOUS
 62
     2
 10
1608.901119
 20
2849.932796
 40
0.500000
 50
180.000000
 51
270.000000
  0
ARC
  8
CSLAYER1
  6
CONTINUOUS
 62
     2
 10
1621.901119
 20
2884.932796
 40
0.500000
 50
0.000000
 51
90.000000
  0
ARC
  8
CSLAYER1
  6
CONTINUOUS
 62
     2
 10
1608.901119
 20
2884.932796
 40
0.500000
 50
90.000000
 51
180.000000
  0
ARC
  8
CSLAYER1
  6
CONTINUOUS
 62
     2
 10
1621.901119
 20
2849.932796
 40
1.500000
 50
270.000000
 51
360.000000
  0
ARC
  8
CSLAYER1
  6
CONTINUOUS
 62
     2
 10
1608.901119
 20
2849.932796
 40
1.500000
 50
180.000000
 51
270.000000
  0
ARC
  8
CSLAYER1
  6
CONTINUOUS
 62
     2
 10
1621.901119
 20
2884.932796
 40
1.500000
 50
0.000000
 51
90.000000
  0
ARC
  8
CSLAYER1
  6
CONTINUOUS
 62
     2
 10
1608.901119
 20
2884.932796
 40
1.500000
 50
90.000000
 51
180.000000
  0
LINE
  8
CSLAYER1
  6
CONTINUOUS
 62
     2
 10
1612.928189
 20
2858.432796
 11
1612.928189
 21
2876.432796
  0
LINE
  8
CSLAYER1
  6
CONTINUOUS
 62
     2
 10
1609.850117
 20
2867.432796
 11
1612.928189
 21
2876.432796
  0
LINE
  8
CSLAYER1
  6
CONTINUOUS
 62
     2
 10
1609.850117
 20
2867.432796
 11
1612.928189
 21
2858.432796
  0
TEXT
  8
CSLAYER1
 62
     2
 10
1614.538193
 20
2882.130830
 40
6.383575
 41
1.255870
  1
DOWN
 50
270.000000
 51
0.000000
  7
EASYDRAW_FONT
 72
     5
 11
1614.538193
 21
2852.735381
  0
ENDBLK
  8
0
  0
ENDSEC
  0
SECTION
  2
ENTITIES
  0
LINE
  8
CSLAYER1
  6
CONTINUOUS
 62
     3
 10
180.707488
 20
3599.850540
 11
180.707488
 21
75.393795
  0
LINE
  8
CSLAYER1
  6
CONTINUOUS
 62
     3
 10
5161.512127
 20
3599.850540
 11
180.707488
 21
3599.850540
  0
LINE
  8
CSLAYER1
  6
CONTINUOUS
 62
     3
 10
5161.512127
 20
75.393795
 11
180.707488
 21
75.393795
  0
LINE
  8
CSLAYER1
  6
CONTINUOUS
 62
     3
 10
5161.512127
 20
75.393795
 11
5161.512127
 21
3599.850540
  0
LINE
  8
CSLAYER1
  6
CONTINUOUS
 62
     5
 10
105.707488
 20
1815.393795
 11
30.707488
 21
1815.393795
  0
LINE
  8
CSLAYER1
  6
CONTINUOUS
 62
     5
 10
3961.512127
 20
735.393795
 11
5161.512127
 21
735.393795
  0
LINE
  8
CSLAYER1
  6
CONTINUOUS
 62
     5
 10
3961.512127
 20
195.393795
 11
5161.512127
 21
195.393795
  0
LINE
  8
CSLAYER1
  6
CONTINUOUS
 62
     5
 10
3961.512127
 20
435.393795
 11
5161.512127
 21
435.393795
  0
LINE
  8
CSLAYER1
  6
CONTINUOUS
 62
     5
 10
3961.512127
 20
525.393795
 11
5161.512127
 21
525.393795
  0
LINE
  8
CSLAYER1
  6
CONTINUOUS
 62
     5
 10
3961.512127
 20
615.393795
 11
5161.512127
 21
615.393795
  0
LINE
  8
CSLAYER1
  6
CONTINUOUS
 62
     5
 10
3961.512127
 20
855.393795
 11
5161.512127
 21
855.393795
  0
LINE
  8
CSLAYER1
  6
CONTINUOUS
 62
     5
 10
3961.512127
 20
975.393795
 11
3961.512127
 21
75.393795
  0
LINE
  8
CSLAYER1
  6
CONTINUOUS
 62
     5
 10
4261.512127
 20
975.393795
 11
4261.512127
 21
615.393795
  0
LINE
  8
CSLAYER1
  6
CONTINUOUS
 62
     5
 10
3961.512127
 20
975.393795
 11
5161.512127
 21
975.393795
  0
LINE
  8
CSLAYER1
  6
CONTINUOUS
 62
     5
 10
4711.512127
 20
615.393795
 11
4711.512127
 21
195.393795
  0
TEXT
  8
CSLAYER1
 62
     3
 10
4291.048678
 20
88.237877
 40
89.070541
 41
1.003345
  1
東正車輌株式会社
 50
0.000000
 51
0.000000
  7
EASYDRAW_FONT
 72
     5
 11
4976.207181
 21
88.237877
  0
LINE
  8
CSLAYER1
  6
CONTINUOUS
 62
     5
 10
4336.512127
 20
525.393795
 11
4336.512127
 21
195.393795
  0
TEXT
  8
CSLAYER1
 62
     5
 10
4006.511719
 20
877.893738
 40
75.000000
 41
1.050000
  1
品　名
 50
0.000000
 51
0.000000
  7
EASYDRAW_FONT
 72
     5
 11
4216.511719
 21
877.893738
  0
TEXT
  8
CSLAYER1
 62
     5
 10
4006.511719
 20
757.893738
 40
75.000000
 41
1.050000
  1
型　式
 50
0.000000
 51
0.000000
  7
EASYDRAW_FONT
 72
     5
 11
4216.511719
 21
757.893738
  0
TEXT
  8
CSLAYER1
 62
     5
 10
3969.011719
 20
637.893799
 40
75.000000
 41
1.036364
  1
図面番号
 50
0.000000
 51
0.000000
  7
EASYDRAW_FONT
 72
     5
 11
4254.011719
 21
637.893799
  0
TEXT
  8
CSLAYER1
 62
     5
 10
4036.511719
 20
532.893799
 40
75.000000
 41
0.827586
  1
平成２８年４月１６日
 50
0.000000
 51
0.000000
  7
EASYDRAW_FONT
 72
     5
 11
4636.511719
 21
532.893799
  0
TEXT
  8
CSLAYER1
 62
     5
 10
4831.511719
 20
532.893799
 40
75.000000
 41
1.050000
  1
Ｂ－４
 50
0.000000
 51
0.000000
  7
EASYDRAW_FONT
 72
     5
 11
5041.511719
 21
532.893799
  0
TEXT
  8
CSLAYER1
 62
     5
 10
4044.011719
 20
442.893799
 40
75.000000
 41
1.050000
  1
検　図
 50
0.000000
 51
0.000000
  7
EASYDRAW_FONT
 72
     5
 11
4254.011719
 21
442.893799
  0
TEXT
  8
CSLAYER1
 62
     5
 10
4419.011719
 20
442.893799
 40
75.000000
 41
1.050000
  1
作　図
 50
0.000000
 51
0.000000
  7
EASYDRAW_FONT
 72
     5
 11
4629.011719
 21
442.893799
  0
TEXT
  8
CSLAYER1
 62
     5
 10
4831.511719
 20
442.893799
 40
75.000000
 41
1.050000
  1
尺　度
 50
0.000000
 51
0.000000
  7
EASYDRAW_FONT
 72
     5
 11
5041.511719
 21
442.893799
  0
TEXT
  8
CSLAYER1
 62
     5
 10
4982.620117
 20
217.121689
 40
75.000000
 41
1.080000
  1
１５
 50
0.000000
 51
0.000000
  7
EASYDRAW_FONT
 72
     5
 11
5117.620117
 21
217.121689
  0
TEXT
  8
CSLAYER1
 62
     5
 10
4952.140625
 20
288.678741
 40
75.000000
 41
1.200000
  1
／
 50
0.000000
 51
0.000000
  7
EASYDRAW_FONT
 72
     5
 11
5012.140625
 21
288.678741
  0
TEXT
  8
CSLAYER1
 62
     5
 10
4906.821289
 20
341.153900
 40
75.000000
 41
1.200000
  1
１
 50
0.000000
 51
0.000000
  7
EASYDRAW_FONT
 72
     5
 11
4966.821289
 21
341.153900
  0
TEXT
  8
CSLAYER1
 62
     3
 10
4471.511719
 20
877.893738
 40
75.000000
 41
0.834783
  1
ゴールドリフター
 50
0.000000
 51
0.000000
  7
EASYDRAW_FONT
 72
     5
 11
4951.511719
 21
877.893738
  0
TEXT
  8
CSLAYER1
 62
     3
 10
4291.511719
 20
757.893738
 40
75.000000
 41
0.819512
  1
ＧＬＩ－１００－０６０８Ｗ３
 50
0.000000
 51
0.000000
  7
EASYDRAW_FONT
 72
     5
 11
5131.511719
 21
757.893738
  0
TEXT
  8
CSLAYER1
 62
     3
 10
4561.511719
 20
637.893799
 40
75.000000
 41
0.857143
  1
ＧＩ－１６
 50
0.000000
 51
0.000000
  7
EASYDRAW_FONT
 72
     5
 11
4861.511719
 21
637.893799
  0
INSERT
  8
CSLAYER1
  2
BLKF0000
 10
0.0
 20
0.0
 30
0.0
  0
TEXT
  8
CSLAYER1
 62
     5
 10
3712.969019
 20
573.437805
 40
41.233814
 41
0.726099
  1
Ｆ.Ｌ
 50
0.000000
 51
0.000000
  7
EASYDRAW_FONT
 72
     5
 11
3792.808594
 21
573.437805
  0
LINE
  8
CSLAYER1
  6
CONTINUOUS
 62
     3
 10
2041.753272
 20
2982.093074
 11
1979.630764
 21
2982.093074
  0
LINE
  8
CSLAYER1
  6
CONTINUOUS
 62
     3
 10
2041.753272
 20
2975.093074
 11
1979.630764
 21
2975.093074
  0
LINE
  8
CSLAYER1
  6
CONTINUOUS
 62
     3
 10
2041.753272
 20
2939.893074
 11
2023.239057
 21
2939.893074
  0
LINE
  8
CSLAYER1
  6
CONTINUOUS
 62
     3
 10
2041.753272
 20
2946.893074
 11
2023.239057
 21
2946.893074
  0
TEXT
  8
CSLAYER1
 62
     5
 10
958.056966
 20
3008.408155
 40
59.399998
 41
1.020000
  1
ＵＰ・ＤＯＷＮ
 50
0.000000
 51
0.000000
  7
EASYDRAW_FONT
 72
     5
 11
1361.976970
 21
3008.408155
  0
TEXT
  8
CSLAYER1
 62
     5
 10
959.624349
 20
3089.911085
 40
59.399998
 41
1.020000
  1
フットスイッチ
 50
0.000000
 51
0.000000
  7
EASYDRAW_FONT
 72
     5
 11
1363.544353
 21
3089.911085
  0
TEXT
  8
CSLAYER1
 62
     5
 10
1094.177963
 20
2693.431593
 40
59.399998
 41
1.036364
  1
長サ４ｍ
 50
0.000000
 51
0.000000
  7
EASYDRAW_FONT
 72
     5
 11
1319.897965
 21
2693.431593
  0
TEXT
  8
CSLAYER1
 62
     5
 10
1089.555843
 20
2770.232862
 40
59.399998
 41
1.028571
  1
電源コード
 50
0.000000
 51
0.000000
  7
EASYDRAW_FONT
 72
     5
 11
1374.675846
 21
2770.232862
  0
LINE
  8
CSLAYER1
  6
CONTINUOUS
 62
     3
 10
1752.963504
 20
2818.932796
 11
1638.901119
 21
2818.932796
  0
LINE
  8
CSLAYER1
  6
CONTINUOUS
 62
     3
 10
1752.963504
 20
2825.932796
 11
1638.901119
 21
2825.932796
  0
ARC
  8
CSLAYER1
  6
CONTINUOUS
 62
     3
 10
1752.963504
 20
2865.932796
 40
40.000000
 50
-90.000000
 51
243.051119
  0
ARC
  8
CSLAYER1
  6
CONTINUOUS
 62
     3
 10
1752.963504
 20
2865.932796
 40
47.000000
 50
-90.000000
 51
230.026912
  0
LINE
  8
CSLAYER1
  6
CONTINUOUS
 62
     3
 10
1944.100551
 20
2901.024872
 11
1845.651501
 21
2773.577112
  0
LINE
  8
CSLAYER1
  6
CONTINUOUS
 62
     3
 10
1938.560855
 20
2905.304098
 11
1832.344775
 21
2767.801487
  0
LINE
  8
CSLAYER1
  6
CONTINUOUS
 62
     3
 10
1911.808235
 20
2948.578478
 11
1798.933813
 21
2844.402297
  0
LINE
  8
CSLAYER1
  6
CONTINUOUS
 62
     3
 10
1907.060658
 20
2953.722456
 11
1804.407623
 21
2858.979990
  0
ARC
  8
CSLAYER1
  6
CONTINUOUS
 62
     3
 10
1855.723021
 20
2721.182859
 40
47.000000
 50
-190.756396
 51
127.198537
  0
ARC
  8
CSLAYER1
  6
CONTINUOUS
 62
     3
 10
1855.723021
 20
2721.182859
 40
40.000000
 50
-203.471057
 51
127.198537
  0
LINE
  8
CSLAYER1
  6
CONTINUOUS
 62
     3
 10
1673.344869
 20
2632.974499
 11
1831.539870
 21
2753.044673
  0
LINE
  8
CSLAYER1
  6
CONTINUOUS
 62
     3
 10
1669.112817
 20
2638.550316
 11
1827.307818
 21
2758.620490
  0
ARC
  8
CSLAYER1
  6
CONTINUOUS
 62
     3
 10
2023.239057
 20
2839.893074
 40
100.000000
 50
90.000000
 51
142.315137
  0
ARC
  8
CSLAYER1
  6
CONTINUOUS
 62
     3
 10
2023.239057
 20
2839.893074
 40
107.000000
 50
90.000000
 51
142.315137
  0
ARC
  8
CSLAYER1
  6
CONTINUOUS
 62
     3
 10
1979.630764
 20
2875.093074
 40
100.000000
 50
90.000000
 51
132.705116
  0
ARC
  8
CSLAYER1
  6
CONTINUOUS
 62
     3
 10
1979.630764
 20
2875.093074
 40
107.000000
 50
90.000000
 51
132.705116
  0
LINE
  8
CSLAYER1
  6
CONTINUOUS
 62
     5
 10
1418.450645
 20
2762.739602
 11
1097.600843
 21
2762.739602
  0
LINE
  8
CSLAYER1
  6
CONTINUOUS
 62
     5
 10
1371.004649
 20
3078.921369
 11
956.259176
 21
3078.921369
  0
LINE
  8
CSLAYER1
  6
CONTINUOUS
 62
     3
 10
2041.753272
 20
2678.451672
 11
2041.753272
 21
3278.451672
  0
LINE
  8
CSLAYER1
  6
CENTER
 62
     5
 10
2041.753272
 20
2978.451672
 11
2841.753272
 21
2978.451672
  0
LINE
  8
CSLAYER1
  6
CONTINUOUS
 62
     3
 10
2841.753272
 20
2678.451672
 11
2841.753272
 21
3278.451672
  0
LINE
  8
CSLAYER1
  6
CONTINUOUS
 62
     3
 10
326.177548
 20
565.872649
 11
3790.139517
 21
565.872649
  0
LINE
  8
CSLAYER1
  6
CENTER
 62
     5
 10
1023.391628
 20
565.872649
 11
1023.391628
 21
2407.061616
  0
LINE
  8
CSLAYER1
  6
CENTER
 62
     5
 10
828.391628
 20
1481.117132
 11
1218.391628
 21
1481.117132
  0
LINE
  8
CSLAYER1
  6
CENTER
 62
     5
 10
985.391628
 20
1294.026834
 11
1061.391628
 21
1294.026834
  0
LINE
  8
CSLAYER1
  6
CENTER
 62
     5
 10
830.932307
 20
1184.202305
 11
1215.850949
 21
1184.202305
  0
LINE
  8
CSLAYER1
  6
CENTER
 62
     5
 10
867.391628
 20
852.901618
 11
1179.391628
 21
852.901618
  0
LINE
  8
CSLAYER1
  6
CONTINUOUS
 62
     3
 10
773.391628
 20
615.872649
 11
1273.391628
 21
615.872649
  0
LINE
  8
CSLAYER1
  6
CONTINUOUS
 62
     7
 10
1179.391628
 20
615.872649
 11
1179.391628
 21
2362.061616
  0
LINE
  8
CSLAYER1
  6
CONTINUOUS
 62
     7
 10
1192.391628
 20
615.872649
 11
1192.391628
 21
2362.061616
  0
LINE
  8
CSLAYER1
  6
CONTINUOUS
 62
     7
 10
1188.391628
 20
615.872649
 11
1188.391628
 21
2362.061616
  0
LINE
  8
CSLAYER1
  6
CONTINUOUS
 62
     7
 10
1201.391628
 20
615.872649
 11
1201.391628
 21
2362.061616
  0
LINE
  8
CSLAYER1
  6
CENTER
 62
     5
 10
1257.391628
 20
615.872649
 11
1257.391628
 21
862.672649
  0
INSERT
  8
CSLAYER1
  2
BLKF0001
 10
0.0
 20
0.0
 30
0.0
  0
INSERT
  8
CSLAYER1
  2
BLKF0002
 10
0.0
 20
0.0
 30
0.0
  0
LINE
  8
CSLAYER1
  6
CONTINUOUS
 62
     3
 10
773.391628
 20
565.872649
 11
773.391628
 21
615.872649
  0
LINE
  8
CSLAYER1
  6
CONTINUOUS
 62
     3
 10
1273.391628
 20
565.872649
 11
1273.391628
 21
615.872649
  0
INSERT
  8
CSLAYER1
  2
BLKF0003
 10
0.0
 20
0.0
 30
0.0
  0
LINE
  8
CSLAYER1
  6
CONTINUOUS
 62
     3
 10
1267.391628
 20
615.872649
 11
1267.391628
 21
736.872649
  0
LINE
  8
CSLAYER1
  6
CONTINUOUS
 62
     3
 10
1247.391628
 20
615.872649
 11
1247.391628
 21
736.872649
  0
LINE
  8
CSLAYER1
  6
CONTINUOUS
 62
     3
 10
1247.891628
 20
862.672649
 11
1266.891628
 21
862.672649
  0
LINE
  8
CSLAYER1
  6
CONTINUOUS
 62
     3
 10
1246.421973
 20
854.672649
 11
1268.361283
 21
854.672649
  0
LINE
  8
CSLAYER1
  6
CONTINUOUS
 62
     3
 10
1246.421973
 20
861.824143
 11
1246.421973
 21
854.672649
  0
LINE
  8
CSLAYER1
  6
CONTINUOUS
 62
     3
 10
1251.906800
 20
861.824143
 11
1251.906800
 21
854.672649
  0
LINE
  8
CSLAYER1
  6
CONTINUOUS
 62
     3
 10
1247.891628
 20
862.672649
 11
1246.421973
 21
861.824143
  0
ARC
  8
CSLAYER1
  6
CONTINUOUS
 62
     3
 10
1257.391628
 20
844.521155
 40
18.151494
 50
72.412046
 51
107.587954
  0
ARC
  8
CSLAYER1
  6
CONTINUOUS
 62
     3
 10
1249.164387
 20
857.830256
 40
4.844787
 50
55.524449
 51
115.524449
  0
LINE
  8
CSLAYER1
  6
CONTINUOUS
 62
     3
 10
1268.361283
 20
861.824143
 11
1268.361283
 21
854.672649
  0
LINE
  8
CSLAYER1
  6
CONTINUOUS
 62
     3
 10
1262.876455
 20
861.824143
 11
1262.876455
 21
854.672649
  0
LINE
  8
CSLAYER1
  6
CONTINUOUS
 62
     3
 10
1266.891628
 20
862.672649
 11
1268.361283
 21
861.824143
  0
ARC
  8
CSLAYER1
  6
CONTINUOUS
 62
     3
 10
1265.618869
 20
857.830256
 40
4.844787
 50
64.475551
 51
124.475551
  0
LINE
  8
CSLAYER1
  6
CONTINUOUS
 62
     5
 10
1251.391628
 20
854.672649
 11
1252.391628
 21
852.940598
  0
LINE
  8
CSLAYER1
  6
CONTINUOUS
 62
     5
 10
1263.391628
 20
854.672649
 11
1262.391628
 21
852.940598
  0
POINT
  8
CSLAYER1
 62
     3
 10
1257.391628
 20
854.672649
  0
LINE
  8
CSLAYER1
  6
CONTINUOUS
 62
     3
 10
1251.391628
 20
854.672649
 11
1251.391628
 21
746.872649
  0
LINE
  8
CSLAYER1
  6
CONTINUOUS
 62
     5
 10
1252.391628
 20
852.940598
 11
1252.391628
 21
746.872649
  0
LINE
  8
CSLAYER1
  6
CONTINUOUS
 62
     5
 10
1262.391628
 20
852.940598
 11
1262.391628
 21
746.872649
  0
LINE
  8
CSLAYER1
  6
CONTINUOUS
 62
     3
 10
1263.391628
 20
854.672649
 11
1263.391628
 21
746.872649
  0
INSERT
  8
CSLAYER1
  2
BLKF0004
 10
0.0
 20
0.0
 30
0.0
  0
LINE
  8
CSLAYER1
  6
CONTINUOUS
 62
     3
 10
1179.391628
 20
1490.117132
 11
867.391628
 21
1490.117132
  0
LINE
  8
CSLAYER1
  6
CONTINUOUS
 62
     3
 10
1179.391628
 20
1472.117132
 11
867.391628
 21
1472.117132
  0
INSERT
  8
CSLAYER1
  2
BLKF0005
 10
0.0
 20
0.0
 30
0.0
  0
LINE
  8
CSLAYER1
  6
CONTINUOUS
 62
     3
 10
1179.391628
 20
896.287477
 11
867.391628
 21
896.287477
  0
INSERT
  8
CSLAYER1
  2
BLKF0006
 10
0.0
 20
0.0
 30
0.0
  0
LINE
  8
CSLAYER1
  6
CONTINUOUS
 62
     4
 10
985.391628
 20
1206.931207
 11
985.391628
 21
1314.026834
  0
LINE
  8
CSLAYER1
  6
CONTINUOUS
 62
     4
 10
994.391628
 20
1206.931207
 11
994.391628
 21
1314.026834
  0
LINE
  8
CSLAYER1
  6
CONTINUOUS
 62
     4
 10
1052.391628
 20
1206.931207
 11
1052.391628
 21
1314.026834
  0
LINE
  8
CSLAYER1
  6
CONTINUOUS
 62
     4
 10
1061.391628
 20
1206.931207
 11
1061.391628
 21
1314.026834
  0
POINT
  8
CSLAYER1
 62
     5
 10
1023.391628
 20
1294.026834
  0
LINE
  8
CSLAYER1
  6
CONTINUOUS
 62
     4
 10
994.391628
 20
1314.026834
 11
985.391628
 21
1314.026834
  0
LINE
  8
CSLAYER1
  6
CONTINUOUS
 62
     4
 10
1009.391628
 20
1276.526834
 11
1009.391628
 21
1311.526834
  0
LINE
  8
CSLAYER1
  6
CONTINUOUS
 62
     4
 10
1009.391628
 20
1311.526834
 11
994.391628
 21
1311.526834
  0
LINE
  8
CSLAYER1
  6
CONTINUOUS
 62
     4
 10
1009.391628
 20
1276.526834
 11
994.391628
 21
1276.526834
  0
LINE
  8
CSLAYER1
  6
CONTINUOUS
 62
     4
 10
1013.391628
 20
1306.526834
 11
1009.391628
 21
1306.526834
  0
LINE
  8
CSLAYER1
  6
CONTINUOUS
 62
     4
 10
1013.391628
 20
1281.526834
 11
1009.391628
 21
1281.526834
  0
LINE
  8
CSLAYER1
  6
CONTINUOUS
 62
     4
 10
1052.391628
 20
1314.026834
 11
1061.391628
 21
1314.026834
  0
LINE
  8
CSLAYER1
  6
CONTINUOUS
 62
     4
 10
1037.391628
 20
1276.526834
 11
1037.391628
 21
1311.526834
  0
LINE
  8
CSLAYER1
  6
CONTINUOUS
 62
     4
 10
1037.391628
 20
1311.526834
 11
1052.391628
 21
1311.526834
  0
LINE
  8
CSLAYER1
  6
CONTINUOUS
 62
     4
 10
1037.391628
 20
1276.526834
 11
1052.391628
 21
1276.526834
  0
LINE
  8
CSLAYER1
  6
CONTINUOUS
 62
     4
 10
1033.391628
 20
1306.526834
 11
1037.391628
 21
1306.526834
  0
LINE
  8
CSLAYER1
  6
CONTINUOUS
 62
     4
 10
1033.391628
 20
1281.526834
 11
1037.391628
 21
1281.526834
  0
LINE
  8
CSLAYER1
  6
CONTINUOUS
 62
     4
 10
1013.391628
 20
1318.069828
 11
1033.391628
 21
1318.069828
  0
LINE
  8
CSLAYER1
  6
CONTINUOUS
 62
     4
 10
994.391628
 20
1224.687626
 11
1052.391628
 21
1224.687626
  0
LINE
  8
CSLAYER1
  6
CONTINUOUS
 62
     4
 10
1179.391628
 20
1164.187626
 11
867.391628
 21
1164.187626
  0
LINE
  8
CSLAYER1
  6
CONTINUOUS
 62
     4
 10
985.391628
 20
1206.931207
 11
994.391628
 21
1206.931207
  0
LINE
  8
CSLAYER1
  6
CONTINUOUS
 62
     4
 10
1061.391628
 20
1224.687626
 11
1170.391628
 21
1224.687626
  0
LINE
  8
CSLAYER1
  6
CONTINUOUS
 62
     4
 10
1052.391628
 20
1206.931207
 11
1061.391628
 21
1206.931207
  0
LINE
  8
CSLAYER1
  6
CONTINUOUS
 62
     4
 10
1013.391628
 20
1261.219339
 11
1013.391628
 21
1318.069828
  0
LINE
  8
CSLAYER1
  6
CONTINUOUS
 62
     4
 10
1033.391628
 20
1261.219339
 11
1033.391628
 21
1318.069828
  0
LINE
  8
CSLAYER1
  6
CONTINUOUS
 62
     7
 10
1170.391628
 20
1352.899693
 11
1179.391628
 21
1352.899693
  0
LINE
  8
CSLAYER1
  6
CONTINUOUS
 62
     4
 10
1179.391628
 20
883.151618
 11
867.391628
 21
883.151618
  0
LINE
  8
CSLAYER1
  6
CONTINUOUS
 62
     4
 10
1179.391628
 20
822.651618
 11
867.391628
 21
822.651618
  0
LINE
  8
CSLAYER1
  6
CONTINUOUS
 62
     4
 10
1115.391628
 20
913.981528
 11
1124.391628
 21
913.981528
  0
LINE
  8
CSLAYER1
  6
CONTINUOUS
 62
     4
 10
1115.391628
 20
896.287477
 11
1115.391628
 21
913.981528
  0
LINE
  8
CSLAYER1
  6
CONTINUOUS
 62
     4
 10
1124.391628
 20
896.287477
 11
1124.391628
 21
913.981528
  0
INSERT
  8
CSLAYER1
  2
BLKF0007
 10
0.0
 20
0.0
 30
0.0
  0
LINE
  8
CSLAYER1
  6
CONTINUOUS
 62
     4
 10
1179.391628
 20
816.060829
 11
867.391628
 21
816.060829
  0
LINE
  8
CSLAYER1
  6
CONTINUOUS
 62
     4
 10
1179.391628
 20
720.544557
 11
867.391628
 21
720.544557
  0
LINE
  8
CSLAYER1
  6
CONTINUOUS
 62
     4
 10
1188.391628
 20
816.060829
 11
1192.391628
 21
816.060829
  0
LINE
  8
CSLAYER1
  6
CONTINUOUS
 62
     4
 10
1188.391628
 20
720.544557
 11
1192.391628
 21
720.544557
  0
LINE
  8
CSLAYER1
  6
CENTER
 62
     5
 10
828.391628
 20
887.287477
 11
1218.391628
 21
887.287477
  0
LINE
  8
CSLAYER1
  6
CONTINUOUS
 62
     7
 10
1170.391628
 20
1164.187626
 11
1170.391628
 21
1352.899693
  0
LINE
  8
CSLAYER1
  6
CONTINUOUS
 62
     4
 10
1085.391628
 20
673.697316
 11
1085.391628
 21
720.544557
  0
LINE
  8
CSLAYER1
  6
CONTINUOUS
 62
     4
 10
961.391628
 20
673.697316
 11
961.391628
 21
720.544557
  0
LINE
  8
CSLAYER1
  6
CONTINUOUS
 62
     4
 10
961.391628
 20
673.697316
 11
961.627557
 21
670.318720
  0
LINE
  8
CSLAYER1
  6
CONTINUOUS
 62
     4
 10
961.627557
 20
670.318720
 11
962.333547
 21
666.965837
  0
LINE
  8
CSLAYER1
  6
CONTINUOUS
 62
     4
 10
962.333547
 20
666.965837
 11
962.969365
 21
665.172649
  0
LINE
  8
CSLAYER1
  6
CONTINUOUS
 62
     4
 10
1078.391628
 20
655.883915
 11
1079.582711
 21
657.314501
  0
LINE
  8
CSLAYER1
  6
CONTINUOUS
 62
     4
 10
1079.582711
 20
657.314501
 11
1081.652570
 21
660.438890
  0
LINE
  8
CSLAYER1
  6
CONTINUOUS
 62
     4
 10
1081.652570
 20
660.438890
 11
1083.279029
 21
663.664185
  0
LINE
  8
CSLAYER1
  6
CONTINUOUS
 62
     4
 10
1083.279029
 20
663.664185
 11
1084.449709
 21
666.965837
  0
LINE
  8
CSLAYER1
  6
CONTINUOUS
 62
     4
 10
1084.449709
 20
666.965837
 11
1085.155699
 21
670.318720
  0
LINE
  8
CSLAYER1
  6
CONTINUOUS
 62
     4
 10
1085.155699
 20
670.318720
 11
1085.391628
 21
673.697316
  0
LINE
  8
CSLAYER1
  6
CONTINUOUS
 62
     4
 10
985.241628
 20
946.018073
 11
985.241628
 21
1150.453713
  0
LINE
  8
CSLAYER1
  6
CONTINUOUS
 62
     4
 10
985.241628
 20
946.018073
 11
985.386800
 21
943.939147
  0
LINE
  8
CSLAYER1
  6
CONTINUOUS
 62
     4
 10
985.386800
 20
943.939147
 11
985.821212
 21
941.876042
  0
LINE
  8
CSLAYER1
  6
CONTINUOUS
 62
     4
 10
985.821212
 20
941.876042
 11
986.541558
 21
939.844461
  0
LINE
  8
CSLAYER1
  6
CONTINUOUS
 62
     4
 10
986.541558
 20
939.844461
 11
987.542354
 21
937.859864
  0
LINE
  8
CSLAYER1
  6
CONTINUOUS
 62
     4
 10
987.542354
 20
937.859864
 11
988.815986
 21
935.937357
  0
LINE
  8
CSLAYER1
  6
CONTINUOUS
 62
     4
 10
988.815986
 20
935.937357
 11
990.352759
 21
934.091569
  0
LINE
  8
CSLAYER1
  6
CONTINUOUS
 62
     4
 10
990.352759
 20
934.091569
 11
992.140977
 21
932.336550
  0
LINE
  8
CSLAYER1
  6
CONTINUOUS
 62
     4
 10
992.140977
 20
932.336550
 11
994.167032
 21
930.685656
  0
LINE
  8
CSLAYER1
  6
CONTINUOUS
 62
     4
 10
994.167032
 20
930.685656
 11
996.415504
 21
929.151450
  0
LINE
  8
CSLAYER1
  6
CONTINUOUS
 62
     4
 10
996.415504
 20
929.151450
 11
998.869281
 21
927.745609
  0
LINE
  8
CSLAYER1
  6
CONTINUOUS
 62
     4
 10
998.869281
 20
927.745609
 11
1001.509687
 21
926.478833
  0
LINE
  8
CSLAYER1
  6
CONTINUOUS
 62
     4
 10
1001.509687
 20
926.478833
 11
1004.316628
 21
925.360763
  0
LINE
  8
CSLAYER1
  6
CONTINUOUS
 62
     4
 10
1004.316628
 20
925.360763
 11
1007.268741
 21
924.399907
  0
LINE
  8
CSLAYER1
  6
CONTINUOUS
 62
     4
 10
1007.268741
 20
924.399907
 11
1010.343559
 21
923.603578
  0
LINE
  8
CSLAYER1
  6
CONTINUOUS
 62
     4
 10
1010.343559
 20
923.603578
 11
1013.517681
 21
922.977837
  0
LINE
  8
CSLAYER1
  6
CONTINUOUS
 62
     4
 10
1013.517681
 20
922.977837
 11
1016.766950
 21
922.527447
  0
LINE
  8
CSLAYER1
  6
CONTINUOUS
 62
     4
 10
1016.766950
 20
922.527447
 11
1020.066636
 21
922.255834
  0
LINE
  8
CSLAYER1
  6
CONTINUOUS
 62
     4
 10
1020.066636
 20
922.255834
 11
1023.391628
 21
922.165066
  0
LINE
  8
CSLAYER1
  6
CONTINUOUS
 62
     4
 10
1023.391628
 20
922.165066
 11
1026.716619
 21
922.255834
  0
LINE
  8
CSLAYER1
  6
CONTINUOUS
 62
     4
 10
1026.716619
 20
922.255834
 11
1030.016306
 21
922.527447
  0
LINE
  8
CSLAYER1
  6
CONTINUOUS
 62
     4
 10
1030.016306
 20
922.527447
 11
1033.265574
 21
922.977837
  0
LINE
  8
CSLAYER1
  6
CONTINUOUS
 62
     4
 10
1033.265574
 20
922.977837
 11
1036.439696
 21
923.603578
  0
LINE
  8
CSLAYER1
  6
CONTINUOUS
 62
     4
 10
1036.439696
 20
923.603578
 11
1039.514515
 21
924.399907
  0
LINE
  8
CSLAYER1
  6
CONTINUOUS
 62
     4
 10
1039.514515
 20
924.399907
 11
1042.466628
 21
925.360763
  0
LINE
  8
CSLAYER1
  6
CONTINUOUS
 62
     4
 10
1042.466628
 20
925.360763
 11
1045.273569
 21
926.478833
  0
LINE
  8
CSLAYER1
  6
CONTINUOUS
 62
     4
 10
1045.273569
 20
926.478833
 11
1047.913975
 21
927.745609
  0
LINE
  8
CSLAYER1
  6
CONTINUOUS
 62
     4
 10
1047.913975
 20
927.745609
 11
1050.367752
 21
929.151450
  0
LINE
  8
CSLAYER1
  6
CONTINUOUS
 62
     4
 10
1050.367752
 20
929.151450
 11
1052.616223
 21
930.685656
  0
LINE
  8
CSLAYER1
  6
CONTINUOUS
 62
     4
 10
1052.616223
 20
930.685656
 11
1054.642278
 21
932.336550
  0
LINE
  8
CSLAYER1
  6
CONTINUOUS
 62
     4
 10
1054.642278
 20
932.336550
 11
1056.430497
 21
934.091569
  0
LINE
  8
CSLAYER1
  6
CONTINUOUS
 62
     4
 10
1056.430497
 20
934.091569
 11
1057.967270
 21
935.937357
  0
LINE
  8
CSLAYER1
  6
CONTINUOUS
 62
     4
 10
1057.967270
 20
935.937357
 11
1059.240901
 21
937.859864
  0
LINE
  8
CSLAYER1
  6
CONTINUOUS
 62
     4
 10
1059.240901
 20
937.859864
 11
1060.241698
 21
939.844461
  0
LINE
  8
CSLAYER1
  6
CONTINUOUS
 62
     4
 10
1060.241698
 20
939.844461
 11
1060.962044
 21
941.876042
  0
LINE
  8
CSLAYER1
  6
CONTINUOUS
 62
     4
 10
1060.962044
 20
941.876042
 11
1061.396456
 21
943.939147
  0
LINE
  8
CSLAYER1
  6
CONTINUOUS
 62
     4
 10
1061.396456
 20
943.939147
 11
1061.541628
 21
946.018073
  0
LINE
  8
CSLAYER1
  6
CONTINUOUS
 62
     4
 10
1065.891628
 20
946.018073
 11
1065.729903
 21
948.334046
  0
LINE
  8
CSLAYER1
  6
CONTINUOUS
 62
     4
 10
1065.729903
 20
948.334046
 11
1065.245957
 21
950.632394
  0
LINE
  8
CSLAYER1
  6
CONTINUOUS
 62
     4
 10
1065.245957
 20
950.632394
 11
1064.443475
 21
952.895623
  0
LINE
  8
CSLAYER1
  6
CONTINUOUS
 62
     4
 10
1064.443475
 20
952.895623
 11
1063.328564
 21
955.106510
  0
LINE
  8
CSLAYER1
  6
CONTINUOUS
 62
     4
 10
1063.328564
 20
955.106510
 11
1061.909709
 21
957.248229
  0
LINE
  8
CSLAYER1
  6
CONTINUOUS
 62
     4
 10
1061.909709
 20
957.248229
 11
1061.541628
 21
957.690324
  0
LINE
  8
CSLAYER1
  6
CONTINUOUS
 62
     4
 10
985.241628
 20
957.690324
 11
984.873547
 21
957.248229
  0
LINE
  8
CSLAYER1
  6
CONTINUOUS
 62
     4
 10
984.873547
 20
957.248229
 11
983.454691
 21
955.106510
  0
LINE
  8
CSLAYER1
  6
CONTINUOUS
 62
     4
 10
983.454691
 20
955.106510
 11
982.339780
 21
952.895623
  0
LINE
  8
CSLAYER1
  6
CONTINUOUS
 62
     4
 10
982.339780
 20
952.895623
 11
981.537298
 21
950.632394
  0
LINE
  8
CSLAYER1
  6
CONTINUOUS
 62
     4
 10
981.537298
 20
950.632394
 11
981.053353
 21
948.334046
  0
LINE
  8
CSLAYER1
  6
CONTINUOUS
 62
     4
 10
981.053353
 20
948.334046
 11
980.891628
 21
946.018073
  0
LINE
  8
CSLAYER1
  6
CONTINUOUS
 62
     4
 10
980.891628
 20
946.018073
 11
981.053353
 21
943.702100
  0
LINE
  8
CSLAYER1
  6
CONTINUOUS
 62
     4
 10
981.053353
 20
943.702100
 11
981.537298
 21
941.403753
  0
LINE
  8
CSLAYER1
  6
CONTINUOUS
 62
     4
 10
981.537298
 20
941.403753
 11
982.339780
 21
939.140523
  0
LINE
  8
CSLAYER1
  6
CONTINUOUS
 62
     4
 10
982.339780
 20
939.140523
 11
983.454691
 21
936.929636
  0
LINE
  8
CSLAYER1
  6
CONTINUOUS
 62
     4
 10
983.454691
 20
936.929636
 11
984.873547
 21
934.787917
  0
LINE
  8
CSLAYER1
  6
CONTINUOUS
 62
     4
 10
984.873547
 20
934.787917
 11
986.585548
 21
932.731667
  0
LINE
  8
CSLAYER1
  6
CONTINUOUS
 62
     4
 10
986.585548
 20
932.731667
 11
988.577666
 21
930.776534
  0
LINE
  8
CSLAYER1
  6
CONTINUOUS
 62
     4
 10
988.577666
 20
930.776534
 11
990.834739
 21
928.937398
  0
LINE
  8
CSLAYER1
  6
CONTINUOUS
 62
     4
 10
990.834739
 20
928.937398
 11
993.339590
 21
927.228257
  0
LINE
  8
CSLAYER1
  6
CONTINUOUS
 62
     4
 10
993.339590
 20
927.228257
 11
996.073154
 21
925.662117
  0
LINE
  8
CSLAYER1
  6
CONTINUOUS
 62
     4
 10
996.073154
 20
925.662117
 11
999.014629
 21
924.250899
  0
LINE
  8
CSLAYER1
  6
CONTINUOUS
 62
     4
 10
999.014629
 20
924.250899
 11
1002.141628
 21
923.005342
  0
LINE
  8
CSLAYER1
  6
CONTINUOUS
 62
     4
 10
1002.141628
 20
923.005342
 11
1005.430352
 21
921.934926
  0
LINE
  8
CSLAYER1
  6
CONTINUOUS
 62
     4
 10
1005.430352
 20
921.934926
 11
1008.855772
 21
921.047797
  0
LINE
  8
CSLAYER1
  6
CONTINUOUS
 62
     4
 10
1008.855772
 20
921.047797
 11
1012.391818
 21
920.350707
  0
LINE
  8
CSLAYER1
  6
CONTINUOUS
 62
     4
 10
1012.391818
 20
920.350707
 11
1016.011580
 21
919.848961
  0
LINE
  8
CSLAYER1
  6
CONTINUOUS
 62
     4
 10
1016.011580
 20
919.848961
 11
1019.687509
 21
919.546378
  0
LINE
  8
CSLAYER1
  6
CONTINUOUS
 62
     4
 10
1019.687509
 20
919.546378
 11
1023.391628
 21
919.445260
  0
LINE
  8
CSLAYER1
  6
CONTINUOUS
 62
     4
 10
1023.391628
 20
919.445260
 11
1027.095747
 21
919.546378
  0
LINE
  8
CSLAYER1
  6
CONTINUOUS
 62
     4
 10
1027.095747
 20
919.546378
 11
1030.771675
 21
919.848961
  0
LINE
  8
CSLAYER1
  6
CONTINUOUS
 62
     4
 10
1030.771675
 20
919.848961
 11
1034.391437
 21
920.350707
  0
LINE
  8
CSLAYER1
  6
CONTINUOUS
 62
     4
 10
1034.391437
 20
920.350707
 11
1037.927484
 21
921.047797
  0
LINE
  8
CSLAYER1
  6
CONTINUOUS
 62
     4
 10
1037.927484
 20
921.047797
 11
1041.352904
 21
921.934926
  0
LINE
  8
CSLAYER1
  6
CONTINUOUS
 62
     4
 10
1041.352904
 20
921.934926
 11
1044.641628
 21
923.005342
  0
LINE
  8
CSLAYER1
  6
CONTINUOUS
 62
     4
 10
1044.641628
 20
923.005342
 11
1047.768626
 21
924.250899
  0
LINE
  8
CSLAYER1
  6
CONTINUOUS
 62
     4
 10
1047.768626
 20
924.250899
 11
1050.710101
 21
925.662117
  0
LINE
  8
CSLAYER1
  6
CONTINUOUS
 62
     4
 10
1050.710101
 20
925.662117
 11
1053.443666
 21
927.228257
  0
LINE
  8
CSLAYER1
  6
CONTINUOUS
 62
     4
 10
1053.443666
 20
927.228257
 11
1055.948517
 21
928.937398
  0
LINE
  8
CSLAYER1
  6
CONTINUOUS
 62
     4
 10
1055.948517
 20
928.937398
 11
1058.205590
 21
930.776534
  0
LINE
  8
CSLAYER1
  6
CONTINUOUS
 62
     4
 10
1058.205590
 20
930.776534
 11
1060.197708
 21
932.731667
  0
LINE
  8
CSLAYER1
  6
CONTINUOUS
 62
     4
 10
1060.197708
 20
932.731667
 11
1061.909709
 21
934.787917
  0
LINE
  8
CSLAYER1
  6
CONTINUOUS
 62
     4
 10
1061.909709
 20
934.787917
 11
1063.328564
 21
936.929636
  0
LINE
  8
CSLAYER1
  6
CONTINUOUS
 62
     4
 10
1063.328564
 20
936.929636
 11
1064.443475
 21
939.140523
  0
LINE
  8
CSLAYER1
  6
CONTINUOUS
 62
     4
 10
1064.443475
 20
939.140523
 11
1065.245957
 21
941.403753
  0
LINE
  8
CSLAYER1
  6
CONTINUOUS
 62
     4
 10
1065.245957
 20
941.403753
 11
1065.729903
 21
943.702100
  0
LINE
  8
CSLAYER1
  6
CONTINUOUS
 62
     4
 10
1065.729903
 20
943.702100
 11
1065.891628
 21
946.018073
  0
LINE
  8
CSLAYER1
  6
CONTINUOUS
 62
     4
 10
1061.541628
 20
946.018073
 11
1061.541628
 21
1150.453713
  0
LINE
  8
CSLAYER1
  6
CONTINUOUS
 62
     4
 10
999.891628
 20
1274.519616
 11
999.891628
 21
1269.837884
  0
LINE
  8
CSLAYER1
  6
CONTINUOUS
 62
     4
 10
1046.891628
 20
1274.519616
 11
1046.891628
 21
1269.837884
  0
LINE
  8
CSLAYER1
  6
CONTINUOUS
 62
     4
 10
999.891628
 20
1269.837884
 11
999.981052
 21
1268.557287
  0
LINE
  8
CSLAYER1
  6
CONTINUOUS
 62
     4
 10
999.981052
 20
1268.557287
 11
1000.248646
 21
1267.286436
  0
LINE
  8
CSLAYER1
  6
CONTINUOUS
 62
     4
 10
1000.248646
 20
1267.286436
 11
1000.692371
 21
1266.035003
  0
LINE
  8
CSLAYER1
  6
CONTINUOUS
 62
     4
 10
1000.692371
 20
1266.035003
 11
1001.308851
 21
1264.812513
  0
LINE
  8
CSLAYER1
  6
CONTINUOUS
 62
     4
 10
1001.308851
 20
1264.812513
 11
1002.093395
 21
1263.628268
  0
LINE
  8
CSLAYER1
  6
CONTINUOUS
 62
     4
 10
1002.093395
 20
1263.628268
 11
1003.040031
 21
1262.491283
  0
LINE
  8
CSLAYER1
  6
CONTINUOUS
 62
     4
 10
1003.040031
 20
1262.491283
 11
1004.141555
 21
1261.410209
  0
LINE
  8
CSLAYER1
  6
CONTINUOUS
 62
     4
 10
1004.141555
 20
1261.410209
 11
1005.389583
 21
1260.393276
  0
LINE
  8
CSLAYER1
  6
CONTINUOUS
 62
     4
 10
1005.389583
 20
1260.393276
 11
1006.774619
 21
1259.448221
  0
LINE
  8
CSLAYER1
  6
CONTINUOUS
 62
     4
 10
1006.774619
 20
1259.448221
 11
1008.286119
 21
1258.582238
  0
LINE
  8
CSLAYER1
  6
CONTINUOUS
 62
     4
 10
1008.286119
 20
1258.582238
 11
1009.912582
 21
1257.801917
  0
LINE
  8
CSLAYER1
  6
CONTINUOUS
 62
     4
 10
1009.912582
 20
1257.801917
 11
1011.641628
 21
1257.113197
  0
LINE
  8
CSLAYER1
  6
CONTINUOUS
 62
     4
 10
1011.641628
 20
1257.113197
 11
1013.460099
 21
1256.521320
  0
LINE
  8
CSLAYER1
  6
CONTINUOUS
 62
     4
 10
1013.460099
 20
1256.521320
 11
1015.354154
 21
1256.030790
  0
LINE
  8
CSLAYER1
  6
CONTINUOUS
 62
     4
 10
1015.354154
 20
1256.030790
 11
1017.309380
 21
1255.645340
  0
LINE
  8
CSLAYER1
  6
CONTINUOUS
 62
     4
 10
1017.309380
 20
1255.645340
 11
1019.310896
 21
1255.367904
  0
LINE
  8
CSLAYER1
  6
CONTINUOUS
 62
     4
 10
1019.310896
 20
1255.367904
 11
1021.343468
 21
1255.200594
  0
LINE
  8
CSLAYER1
  6
CONTINUOUS
 62
     4
 10
1021.343468
 20
1255.200594
 11
1023.391628
 21
1255.144682
  0
LINE
  8
CSLAYER1
  6
CONTINUOUS
 62
     4
 10
1023.391628
 20
1255.144682
 11
1025.439788
 21
1255.200594
  0
LINE
  8
CSLAYER1
  6
CONTINUOUS
 62
     4
 10
1025.439788
 20
1255.200594
 11
1027.472360
 21
1255.367904
  0
LINE
  8
CSLAYER1
  6
CONTINUOUS
 62
     4
 10
1027.472360
 20
1255.367904
 11
1029.473875
 21
1255.645340
  0
LINE
  8
CSLAYER1
  6
CONTINUOUS
 62
     4
 10
1029.473875
 20
1255.645340
 11
1031.429101
 21
1256.030790
  0
LINE
  8
CSLAYER1
  6
CONTINUOUS
 62
     4
 10
1031.429101
 20
1256.030790
 11
1033.323157
 21
1256.521320
  0
LINE
  8
CSLAYER1
  6
CONTINUOUS
 62
     4
 10
1033.323157
 20
1256.521320
 11
1035.141628
 21
1257.113197
  0
LINE
  8
CSLAYER1
  6
CONTINUOUS
 62
     4
 10
1035.141628
 20
1257.113197
 11
1036.870674
 21
1257.801917
  0
LINE
  8
CSLAYER1
  6
CONTINUOUS
 62
     4
 10
1036.870674
 20
1257.801917
 11
1038.497137
 21
1258.582238
  0
LINE
  8
CSLAYER1
  6
CONTINUOUS
 62
     4
 10
1038.497137
 20
1258.582238
 11
1040.008637
 21
1259.448221
  0
LINE
  8
CSLAYER1
  6
CONTINUOUS
 62
     4
 10
1040.008637
 20
1259.448221
 11
1041.393672
 21
1260.393276
  0
LINE
  8
CSLAYER1
  6
CONTINUOUS
 62
     4
 10
1041.393672
 20
1260.393276
 11
1042.641701
 21
1261.410209
  0
LINE
  8
CSLAYER1
  6
CONTINUOUS
 62
     4
 10
1042.641701
 20
1261.410209
 11
1043.743225
 21
1262.491283
  0
LINE
  8
CSLAYER1
  6
CONTINUOUS
 62
     4
 10
1043.743225
 20
1262.491283
 11
1044.689861
 21
1263.628268
  0
LINE
  8
CSLAYER1
  6
CONTINUOUS
 62
     4
 10
1044.689861
 20
1263.628268
 11
1045.474404
 21
1264.812513
  0
LINE
  8
CSLAYER1
  6
CONTINUOUS
 62
     4
 10
1045.474404
 20
1264.812513
 11
1046.090885
 21
1266.035003
  0
LINE
  8
CSLAYER1
  6
CONTINUOUS
 62
     4
 10
1046.090885
 20
1266.035003
 11
1046.534610
 21
1267.286436
  0
LINE
  8
CSLAYER1
  6
CONTINUOUS
 62
     4
 10
1046.534610
 20
1267.286436
 11
1046.802203
 21
1268.557287
  0
LINE
  8
CSLAYER1
  6
CONTINUOUS
 62
     4
 10
1046.802203
 20
1268.557287
 11
1046.891628
 21
1269.837884
  0
LINE
  8
CSLAYER1
  6
CONTINUOUS
 62
     4
 10
1046.891628
 20
1274.519616
 11
1046.802203
 21
1275.800213
  0
LINE
  8
CSLAYER1
  6
CONTINUOUS
 62
     4
 10
1046.802203
 20
1275.800213
 11
1046.649204
 21
1276.526834
  0
LINE
  8
CSLAYER1
  6
CONTINUOUS
 62
     4
 10
1000.134051
 20
1276.526834
 11
999.981052
 21
1275.800213
  0
LINE
  8
CSLAYER1
  6
CONTINUOUS
 62
     4
 10
999.981052
 20
1275.800213
 11
999.891628
 21
1274.519616
  0
LINE
  8
CSLAYER1
  6
CONTINUOUS
 62
     4
 10
999.891628
 20
1274.519616
 11
999.981052
 21
1273.239019
  0
LINE
  8
CSLAYER1
  6
CONTINUOUS
 62
     4
 10
999.981052
 20
1273.239019
 11
1000.248646
 21
1271.968168
  0
LINE
  8
CSLAYER1
  6
CONTINUOUS
 62
     4
 10
1000.248646
 20
1271.968168
 11
1000.692371
 21
1270.716736
  0
LINE
  8
CSLAYER1
  6
CONTINUOUS
 62
     4
 10
1000.692371
 20
1270.716736
 11
1001.308851
 21
1269.494245
  0
LINE
  8
CSLAYER1
  6
CONTINUOUS
 62
     4
 10
1001.308851
 20
1269.494245
 11
1002.093395
 21
1268.310001
  0
LINE
  8
CSLAYER1
  6
CONTINUOUS
 62
     4
 10
1002.093395
 20
1268.310001
 11
1003.040031
 21
1267.173015
  0
LINE
  8
CSLAYER1
  6
CONTINUOUS
 62
     4
 10
1003.040031
 20
1267.173015
 11
1004.141555
 21
1266.091942
  0
LINE
  8
CSLAYER1
  6
CONTINUOUS
 62
     4
 10
1004.141555
 20
1266.091942
 11
1005.389583
 21
1265.075008
  0
LINE
  8
CSLAYER1
  6
CONTINUOUS
 62
     4
 10
1005.389583
 20
1265.075008
 11
1006.774619
 21
1264.129953
  0
LINE
  8
CSLAYER1
  6
CONTINUOUS
 62
     4
 10
1006.774619
 20
1264.129953
 11
1008.286119
 21
1263.263970
  0
LINE
  8
CSLAYER1
  6
CONTINUOUS
 62
     4
 10
1008.286119
 20
1263.263970
 11
1009.912582
 21
1262.483649
  0
LINE
  8
CSLAYER1
  6
CONTINUOUS
 62
     4
 10
1009.912582
 20
1262.483649
 11
1011.641628
 21
1261.794930
  0
LINE
  8
CSLAYER1
  6
CONTINUOUS
 62
     4
 10
1011.641628
 20
1261.794930
 11
1013.460099
 21
1261.203052
  0
LINE
  8
CSLAYER1
  6
CONTINUOUS
 62
     4
 10
1033.323157
 20
1261.203052
 11
1035.141628
 21
1261.794930
  0
LINE
  8
CSLAYER1
  6
CONTINUOUS
 62
     4
 10
1035.141628
 20
1261.794930
 11
1036.870674
 21
1262.483649
  0
LINE
  8
CSLAYER1
  6
CONTINUOUS
 62
     4
 10
1036.870674
 20
1262.483649
 11
1038.497137
 21
1263.263970
  0
LINE
  8
CSLAYER1
  6
CONTINUOUS
 62
     4
 10
1038.497137
 20
1263.263970
 11
1040.008637
 21
1264.129953
  0
LINE
  8
CSLAYER1
  6
CONTINUOUS
 62
     4
 10
1040.008637
 20
1264.129953
 11
1041.393672
 21
1265.075008
  0
LINE
  8
CSLAYER1
  6
CONTINUOUS
 62
     4
 10
1041.393672
 20
1265.075008
 11
1042.641701
 21
1266.091942
  0
LINE
  8
CSLAYER1
  6
CONTINUOUS
 62
     4
 10
1042.641701
 20
1266.091942
 11
1043.743225
 21
1267.173015
  0
LINE
  8
CSLAYER1
  6
CONTINUOUS
 62
     4
 10
1043.743225
 20
1267.173015
 11
1044.689861
 21
1268.310001
  0
LINE
  8
CSLAYER1
  6
CONTINUOUS
 62
     4
 10
1044.689861
 20
1268.310001
 11
1045.474404
 21
1269.494245
  0
LINE
  8
CSLAYER1
  6
CONTINUOUS
 62
     4
 10
1045.474404
 20
1269.494245
 11
1046.090885
 21
1270.716736
  0
LINE
  8
CSLAYER1
  6
CONTINUOUS
 62
     4
 10
1046.090885
 20
1270.716736
 11
1046.534610
 21
1271.968168
  0
LINE
  8
CSLAYER1
  6
CONTINUOUS
 62
     4
 10
1046.534610
 20
1271.968168
 11
1046.802203
 21
1273.239019
  0
LINE
  8
CSLAYER1
  6
CONTINUOUS
 62
     4
 10
1046.802203
 20
1273.239019
 11
1046.891628
 21
1274.519616
  0
LINE
  8
CSLAYER1
  6
CONTINUOUS
 62
     4
 10
1002.041628
 20
1150.453713
 11
1002.041628
 21
1164.187626
  0
LINE
  8
CSLAYER1
  6
CONTINUOUS
 62
     4
 10
1044.741628
 20
1150.453713
 11
1044.741628
 21
1164.187626
  0
LINE
  8
CSLAYER1
  6
CONTINUOUS
 62
     4
 10
1002.041628
 20
1150.453713
 11
1002.122871
 21
1149.290277
  0
LINE
  8
CSLAYER1
  6
CONTINUOUS
 62
     4
 10
1002.122871
 20
1149.290277
 11
1002.365982
 21
1148.135695
  0
LINE
  8
CSLAYER1
  6
CONTINUOUS
 62
     4
 10
1002.365982
 20
1148.135695
 11
1002.769111
 21
1146.998755
  0
LINE
  8
CSLAYER1
  6
CONTINUOUS
 62
     4
 10
1002.769111
 20
1146.998755
 11
1003.329190
 21
1145.888110
  0
LINE
  8
CSLAYER1
  6
CONTINUOUS
 62
     4
 10
1003.329190
 20
1145.888110
 11
1004.041957
 21
1144.812211
  0
LINE
  8
CSLAYER1
  6
CONTINUOUS
 62
     4
 10
1004.041957
 20
1144.812211
 11
1004.901985
 21
1143.779247
  0
LINE
  8
CSLAYER1
  6
CONTINUOUS
 62
     4
 10
1004.901985
 20
1143.779247
 11
1005.902732
 21
1142.797081
  0
LINE
  8
CSLAYER1
  6
CONTINUOUS
 62
     4
 10
1005.902732
 20
1142.797081
 11
1007.036579
 21
1141.873186
  0
LINE
  8
CSLAYER1
  6
CONTINUOUS
 62
     4
 10
1007.036579
 20
1141.873186
 11
1008.294898
 21
1141.014593
  0
LINE
  8
CSLAYER1
  6
CONTINUOUS
 62
     4
 10
1008.294898
 20
1141.014593
 11
1009.668112
 21
1140.227839
  0
LINE
  8
CSLAYER1
  6
CONTINUOUS
 62
     4
 10
1009.668112
 20
1140.227839
 11
1011.145771
 21
1139.518909
  0
LINE
  8
CSLAYER1
  6
CONTINUOUS
 62
     4
 10
1011.145771
 20
1139.518909
 11
1012.716628
 21
1138.893200
  0
LINE
  8
CSLAYER1
  6
CONTINUOUS
 62
     4
 10
1012.716628
 20
1138.893200
 11
1014.368728
 21
1138.355473
  0
LINE
  8
CSLAYER1
  6
CONTINUOUS
 62
     4
 10
1014.368728
 20
1138.355473
 11
1016.089498
 21
1137.909821
  0
LINE
  8
CSLAYER1
  6
CONTINUOUS
 62
     4
 10
1016.089498
 20
1137.909821
 11
1017.865841
 21
1137.559636
  0
LINE
  8
CSLAYER1
  6
CONTINUOUS
 62
     4
 10
1017.865841
 20
1137.559636
 11
1019.684239
 21
1137.307582
  0
LINE
  8
CSLAYER1
  6
CONTINUOUS
 62
     4
 10
1019.684239
 20
1137.307582
 11
1021.530853
 21
1137.155579
  0
LINE
  8
CSLAYER1
  6
CONTINUOUS
 62
     4
 10
1021.530853
 20
1137.155579
 11
1023.391628
 21
1137.104782
  0
LINE
  8
CSLAYER1
  6
CONTINUOUS
 62
     4
 10
1023.391628
 20
1137.104782
 11
1025.252403
 21
1137.155579
  0
LINE
  8
CSLAYER1
  6
CONTINUOUS
 62
     4
 10
1025.252403
 20
1137.155579
 11
1027.099016
 21
1137.307582
  0
LINE
  8
CSLAYER1
  6
CONTINUOUS
 62
     4
 10
1027.099016
 20
1137.307582
 11
1028.917414
 21
1137.559636
  0
LINE
  8
CSLAYER1
  6
CONTINUOUS
 62
     4
 10
1028.917414
 20
1137.559636
 11
1030.693758
 21
1137.909821
  0
LINE
  8
CSLAYER1
  6
CONTINUOUS
 62
     4
 10
1030.693758
 20
1137.909821
 11
1032.414528
 21
1138.355473
  0
LINE
  8
CSLAYER1
  6
CONTINUOUS
 62
     4
 10
1032.414528
 20
1138.355473
 11
1034.066628
 21
1138.893200
  0
LINE
  8
CSLAYER1
  6
CONTINUOUS
 62
     4
 10
1034.066628
 20
1138.893200
 11
1035.637485
 21
1139.518909
  0
LINE
  8
CSLAYER1
  6
CONTINUOUS
 62
     4
 10
1035.637485
 20
1139.518909
 11
1037.115143
 21
1140.227839
  0
LINE
  8
CSLAYER1
  6
CONTINUOUS
 62
     4
 10
1037.115143
 20
1140.227839
 11
1038.488358
 21
1141.014593
  0
LINE
  8
CSLAYER1
  6
CONTINUOUS
 62
     4
 10
1038.488358
 20
1141.014593
 11
1039.746677
 21
1141.873186
  0
LINE
  8
CSLAYER1
  6
CONTINUOUS
 62
     4
 10
1039.746677
 20
1141.873186
 11
1040.880524
 21
1142.797081
  0
LINE
  8
CSLAYER1
  6
CONTINUOUS
 62
     4
 10
1040.880524
 20
1142.797081
 11
1041.881270
 21
1143.779247
  0
LINE
  8
CSLAYER1
  6
CONTINUOUS
 62
     4
 10
1041.881270
 20
1143.779247
 11
1042.741299
 21
1144.812211
  0
LINE
  8
CSLAYER1
  6
CONTINUOUS
 62
     4
 10
1042.741299
 20
1144.812211
 11
1043.454065
 21
1145.888110
  0
LINE
  8
CSLAYER1
  6
CONTINUOUS
 62
     4
 10
1043.454065
 20
1145.888110
 11
1044.014144
 21
1146.998755
  0
LINE
  8
CSLAYER1
  6
CONTINUOUS
 62
     4
 10
1044.014144
 20
1146.998755
 11
1044.417273
 21
1148.135695
  0
LINE
  8
CSLAYER1
  6
CONTINUOUS
 62
     4
 10
1044.417273
 20
1148.135695
 11
1044.660385
 21
1149.290277
  0
LINE
  8
CSLAYER1
  6
CONTINUOUS
 62
     4
 10
1044.660385
 20
1149.290277
 11
1044.741628
 21
1150.453713
  0
LINE
  8
CSLAYER1
  6
CONTINUOUS
 62
     4
 10
1061.541628
 20
1150.453713
 11
1061.396456
 21
1152.532639
  0
LINE
  8
CSLAYER1
  6
CONTINUOUS
 62
     4
 10
1061.396456
 20
1152.532639
 11
1060.962044
 21
1154.595744
  0
LINE
  8
CSLAYER1
  6
CONTINUOUS
 62
     4
 10
1060.962044
 20
1154.595744
 11
1060.241698
 21
1156.627325
  0
LINE
  8
CSLAYER1
  6
CONTINUOUS
 62
     4
 10
1060.241698
 20
1156.627325
 11
1059.240901
 21
1158.611922
  0
LINE
  8
CSLAYER1
  6
CONTINUOUS
 62
     4
 10
1059.240901
 20
1158.611922
 11
1057.967270
 21
1160.534429
  0
LINE
  8
CSLAYER1
  6
CONTINUOUS
 62
     4
 10
1057.967270
 20
1160.534429
 11
1056.430497
 21
1162.380216
  0
LINE
  8
CSLAYER1
  6
CONTINUOUS
 62
     4
 10
1056.430497
 20
1162.380216
 11
1054.642278
 21
1164.135236
  0
LINE
  8
CSLAYER1
  6
CONTINUOUS
 62
     4
 10
992.140977
 20
1164.135236
 11
990.352759
 21
1162.380216
  0
LINE
  8
CSLAYER1
  6
CONTINUOUS
 62
     4
 10
990.352759
 20
1162.380216
 11
988.815986
 21
1160.534429
  0
LINE
  8
CSLAYER1
  6
CONTINUOUS
 62
     4
 10
988.815986
 20
1160.534429
 11
987.542354
 21
1158.611922
  0
LINE
  8
CSLAYER1
  6
CONTINUOUS
 62
     4
 10
987.542354
 20
1158.611922
 11
986.541558
 21
1156.627325
  0
LINE
  8
CSLAYER1
  6
CONTINUOUS
 62
     4
 10
986.541558
 20
1156.627325
 11
985.821212
 21
1154.595744
  0
LINE
  8
CSLAYER1
  6
CONTINUOUS
 62
     4
 10
985.821212
 20
1154.595744
 11
985.386800
 21
1152.532639
  0
LINE
  8
CSLAYER1
  6
CONTINUOUS
 62
     4
 10
985.386800
 20
1152.532639
 11
985.241628
 21
1150.453713
  0
LINE
  8
CSLAYER1
  6
CONTINUOUS
 62
     4
 10
985.241628
 20
1150.453713
 11
985.386800
 21
1148.374786
  0
LINE
  8
CSLAYER1
  6
CONTINUOUS
 62
     4
 10
985.386800
 20
1148.374786
 11
985.821212
 21
1146.311682
  0
LINE
  8
CSLAYER1
  6
CONTINUOUS
 62
     4
 10
985.821212
 20
1146.311682
 11
986.541558
 21
1144.280100
  0
LINE
  8
CSLAYER1
  6
CONTINUOUS
 62
     4
 10
986.541558
 20
1144.280100
 11
987.542354
 21
1142.295504
  0
LINE
  8
CSLAYER1
  6
CONTINUOUS
 62
     4
 10
987.542354
 20
1142.295504
 11
988.815986
 21
1140.372996
  0
LINE
  8
CSLAYER1
  6
CONTINUOUS
 62
     4
 10
988.815986
 20
1140.372996
 11
990.352759
 21
1138.527209
  0
LINE
  8
CSLAYER1
  6
CONTINUOUS
 62
     4
 10
990.352759
 20
1138.527209
 11
992.140977
 21
1136.772190
  0
LINE
  8
CSLAYER1
  6
CONTINUOUS
 62
     4
 10
992.140977
 20
1136.772190
 11
994.167032
 21
1135.121295
  0
LINE
  8
CSLAYER1
  6
CONTINUOUS
 62
     4
 10
994.167032
 20
1135.121295
 11
996.415504
 21
1133.587090
  0
LINE
  8
CSLAYER1
  6
CONTINUOUS
 62
     4
 10
996.415504
 20
1133.587090
 11
998.869281
 21
1132.181249
  0
LINE
  8
CSLAYER1
  6
CONTINUOUS
 62
     4
 10
998.869281
 20
1132.181249
 11
1001.509687
 21
1130.914473
  0
LINE
  8
CSLAYER1
  6
CONTINUOUS
 62
     4
 10
1001.509687
 20
1130.914473
 11
1004.316628
 21
1129.796402
  0
LINE
  8
CSLAYER1
  6
CONTINUOUS
 62
     4
 10
1004.316628
 20
1129.796402
 11
1007.268741
 21
1128.835546
  0
LINE
  8
CSLAYER1
  6
CONTINUOUS
 62
     4
 10
1007.268741
 20
1128.835546
 11
1010.343559
 21
1128.039218
  0
LINE
  8
CSLAYER1
  6
CONTINUOUS
 62
     4
 10
1010.343559
 20
1128.039218
 11
1013.517681
 21
1127.413477
  0
LINE
  8
CSLAYER1
  6
CONTINUOUS
 62
     4
 10
1013.517681
 20
1127.413477
 11
1016.766950
 21
1126.963086
  0
LINE
  8
CSLAYER1
  6
CONTINUOUS
 62
     4
 10
1016.766950
 20
1126.963086
 11
1020.066636
 21
1126.691473
  0
LINE
  8
CSLAYER1
  6
CONTINUOUS
 62
     4
 10
1020.066636
 20
1126.691473
 11
1023.391628
 21
1126.600705
  0
LINE
  8
CSLAYER1
  6
CONTINUOUS
 62
     4
 10
1023.391628
 20
1126.600705
 11
1026.716619
 21
1126.691473
  0
LINE
  8
CSLAYER1
  6
CONTINUOUS
 62
     4
 10
1026.716619
 20
1126.691473
 11
1030.016306
 21
1126.963086
  0
LINE
  8
CSLAYER1
  6
CONTINUOUS
 62
     4
 10
1030.016306
 20
1126.963086
 11
1033.265574
 21
1127.413477
  0
LINE
  8
CSLAYER1
  6
CONTINUOUS
 62
     4
 10
1033.265574
 20
1127.413477
 11
1036.439696
 21
1128.039218
  0
LINE
  8
CSLAYER1
  6
CONTINUOUS
 62
     4
 10
1036.439696
 20
1128.039218
 11
1039.514515
 21
1128.835546
  0
LINE
  8
CSLAYER1
  6
CONTINUOUS
 62
     4
 10
1039.514515
 20
1128.835546
 11
1042.466628
 21
1129.796402
  0
LINE
  8
CSLAYER1
  6
CONTINUOUS
 62
     4
 10
1042.466628
 20
1129.796402
 11
1045.273569
 21
1130.914473
  0
LINE
  8
CSLAYER1
  6
CONTINUOUS
 62
     4
 10
1045.273569
 20
1130.914473
 11
1047.913975
 21
1132.181249
  0
LINE
  8
CSLAYER1
  6
CONTINUOUS
 62
     4
 10
1047.913975
 20
1132.181249
 11
1050.367752
 21
1133.587090
  0
LINE
  8
CSLAYER1
  6
CONTINUOUS
 62
     4
 10
1050.367752
 20
1133.587090
 11
1052.616223
 21
1135.121295
  0
LINE
  8
CSLAYER1
  6
CONTINUOUS
 62
     4
 10
1052.616223
 20
1135.121295
 11
1054.642278
 21
1136.772190
  0
LINE
  8
CSLAYER1
  6
CONTINUOUS
 62
     4
 10
1054.642278
 20
1136.772190
 11
1056.430497
 21
1138.527209
  0
LINE
  8
CSLAYER1
  6
CONTINUOUS
 62
     4
 10
1056.430497
 20
1138.527209
 11
1057.967270
 21
1140.372996
  0
LINE
  8
CSLAYER1
  6
CONTINUOUS
 62
     4
 10
1057.967270
 20
1140.372996
 11
1059.240901
 21
1142.295504
  0
LINE
  8
CSLAYER1
  6
CONTINUOUS
 62
     4
 10
1059.240901
 20
1142.295504
 11
1060.241698
 21
1144.280100
  0
LINE
  8
CSLAYER1
  6
CONTINUOUS
 62
     4
 10
1060.241698
 20
1144.280100
 11
1060.962044
 21
1146.311682
  0
LINE
  8
CSLAYER1
  6
CONTINUOUS
 62
     4
 10
1060.962044
 20
1146.311682
 11
1061.396456
 21
1148.374786
  0
LINE
  8
CSLAYER1
  6
CONTINUOUS
 62
     4
 10
1061.396456
 20
1148.374786
 11
1061.541628
 21
1150.453713
  0
LINE
  8
CSLAYER1
  6
CONTINUOUS
 62
     4
 10
1044.741628
 20
1224.687626
 11
1044.741628
 21
1263.690445
  0
LINE
  8
CSLAYER1
  6
CONTINUOUS
 62
     4
 10
1002.041628
 20
1224.687626
 11
1002.041628
 21
1263.690445
  0
LINE
  8
CSLAYER1
  6
CONTINUOUS
 62
     4
 10
1141.391628
 20
671.409466
 11
1141.391628
 21
681.091527
  0
LINE
  8
CSLAYER1
  6
CONTINUOUS
 62
     4
 10
1136.991628
 20
668.568877
 11
1136.991628
 21
681.091527
  0
LINE
  8
CSLAYER1
  6
CONTINUOUS
 62
     4
 10
1131.991628
 20
698.793085
 11
1131.991628
 21
720.544557
  0
LINE
  8
CSLAYER1
  6
CONTINUOUS
 62
     4
 10
1141.391628
 20
671.409466
 11
1136.991628
 21
671.409466
  0
LINE
  8
CSLAYER1
  6
CONTINUOUS
 62
     4
 10
1121.891628
 20
671.409466
 11
1105.391628
 21
671.409466
  0
LINE
  8
CSLAYER1
  6
CONTINUOUS
 62
     4
 10
1065.891628
 20
946.018073
 11
1065.891628
 21
896.287477
  0
LINE
  8
CSLAYER1
  6
CONTINUOUS
 62
     4
 10
1114.391628
 20
896.287477
 11
1114.391628
 21
924.988905
  0
LINE
  8
CSLAYER1
  6
CONTINUOUS
 62
     4
 10
1065.891628
 20
943.751490
 11
1084.391628
 21
943.751490
  0
LINE
  8
CSLAYER1
  6
CONTINUOUS
 62
     4
 10
1084.391628
 20
943.751490
 11
1114.391628
 21
924.988905
  0
LINE
  8
CSLAYER1
  6
CENTER
 62
     5
 10
789.391628
 20
615.872649
 11
789.391628
 21
862.672649
  0
INSERT
  8
CSLAYER1
  2
BLKF0008
 10
0.0
 20
0.0
 30
0.0
  0
INSERT
  8
CSLAYER1
  2
BLKF0009
 10
0.0
 20
0.0
 30
0.0
  0
INSERT
  8
CSLAYER1
  2
BLKF0010
 10
0.0
 20
0.0
 30
0.0
  0
INSERT
  8
CSLAYER1
  2
BLKF0011
 10
0.0
 20
0.0
 30
0.0
  0
INSERT
  8
CSLAYER1
  2
BLKF0012
 10
0.0
 20
0.0
 30
0.0
  0
LINE
  8
CSLAYER1
  6
CONTINUOUS
 62
     4
 10
985.391628
 20
1224.687626
 11
876.391628
 21
1224.687626
  0
LINE
  8
CSLAYER1
  6
CONTINUOUS
 62
     7
 10
876.391628
 20
1352.899693
 11
867.391628
 21
1352.899693
  0
LINE
  8
CSLAYER1
  6
CONTINUOUS
 62
     4
 10
931.391628
 20
913.981528
 11
922.391628
 21
913.981528
  0
LINE
  8
CSLAYER1
  6
CONTINUOUS
 62
     4
 10
931.391628
 20
896.287477
 11
931.391628
 21
913.981528
  0
LINE
  8
CSLAYER1
  6
CONTINUOUS
 62
     4
 10
922.391628
 20
896.287477
 11
922.391628
 21
913.981528
  0
INSERT
  8
CSLAYER1
  2
BLKF0013
 10
0.0
 20
0.0
 30
0.0
  0
LINE
  8
CSLAYER1
  6
CONTINUOUS
 62
     4
 10
858.391628
 20
816.060829
 11
854.391628
 21
816.060829
  0
LINE
  8
CSLAYER1
  6
CONTINUOUS
 62
     4
 10
858.391628
 20
720.544557
 11
854.391628
 21
720.544557
  0
LINE
  8
CSLAYER1
  6
CONTINUOUS
 62
     7
 10
876.391628
 20
1164.187626
 11
876.391628
 21
1352.899693
  0
LINE
  8
CSLAYER1
  6
CONTINUOUS
 62
     4
 10
980.891628
 20
946.018073
 11
980.891628
 21
896.287477
  0
LINE
  8
CSLAYER1
  6
CONTINUOUS
 62
     4
 10
932.391628
 20
896.287477
 11
932.391628
 21
924.988905
  0
LINE
  8
CSLAYER1
  6
CONTINUOUS
 62
     4
 10
980.891628
 20
943.751490
 11
962.391628
 21
943.751490
  0
LINE
  8
CSLAYER1
  6
CONTINUOUS
 62
     4
 10
962.391628
 20
943.751490
 11
932.391628
 21
924.988905
  0
LINE
  8
CSLAYER1
  6
CONTINUOUS
 62
     7
 10
867.391628
 20
615.872649
 11
867.391628
 21
2362.061616
  0
LINE
  8
CSLAYER1
  6
CONTINUOUS
 62
     7
 10
858.391628
 20
615.872649
 11
858.391628
 21
2362.061616
  0
LINE
  8
CSLAYER1
  6
CONTINUOUS
 62
     7
 10
845.391628
 20
615.872649
 11
845.391628
 21
2362.061616
  0
LINE
  8
CSLAYER1
  6
CONTINUOUS
 62
     7
 10
854.391628
 20
615.872649
 11
854.391628
 21
2362.061616
  0
LINE
  8
CSLAYER1
  6
CONTINUOUS
 62
     7
 10
1079.891628
 20
665.172649
 11
896.891628
 21
665.172649
  0
LINE
  8
CSLAYER1
  6
CONTINUOUS
 62
     1
 10
1079.891628
 20
659.172649
 11
1078.391628
 21
659.172649
  0
LINE
  8
CSLAYER1
  6
CONTINUOUS
 62
     1
 10
1079.891628
 20
659.172649
 11
1079.891628
 21
665.172649
  0
LINE
  8
CSLAYER1
  6
CENTER
 62
     5
 10
1043.834790
 20
644.172649
 11
1072.228376
 21
644.172649
  0
CIRCLE
  8
CSLAYER1
  6
CONTINUOUS
 62
     4
 10
1058.391628
 20
644.172649
 40
11.500000
  0
LINE
  8
CSLAYER1
  6
CONTINUOUS
 62
     4
 10
1057.891628
 20
657.163030
 11
1047.391628
 21
651.100852
  0
LINE
  8
CSLAYER1
  6
CONTINUOUS
 62
     4
 10
1046.891628
 20
650.234827
 11
1046.891628
 21
638.110471
  0
LINE
  8
CSLAYER1
  6
CONTINUOUS
 62
     4
 10
1047.391628
 20
637.244445
 11
1057.891628
 21
631.182268
  0
ARC
  8
CSLAYER1
  6
CONTINUOUS
 62
     4
 10
1058.391628
 20
644.172649
 40
13.000000
 50
87.795772
 51
92.204228
  0
ARC
  8
CSLAYER1
  6
CONTINUOUS
 62
     4
 10
1058.391628
 20
644.172649
 40
13.000000
 50
267.795772
 51
272.204228
  0
ARC
  8
CSLAYER1
  6
CONTINUOUS
 62
     4
 10
1058.391628
 20
644.172649
 40
13.000000
 50
207.795772
 51
212.204228
  0
ARC
  8
CSLAYER1
  6
CONTINUOUS
 62
     4
 10
1058.391628
 20
644.172649
 40
13.000000
 50
147.795772
 51
152.204228
  0
CIRCLE
  8
CSLAYER1
  6
CONTINUOUS
 62
     4
 10
1058.391628
 20
644.172649
 40
4.000000
  0
CIRCLE
  8
CSLAYER1
  6
CONTINUOUS
 62
     4
 10
1058.391628
 20
644.172649
 40
10.359534
  0
CIRCLE
  8
CSLAYER1
  6
CONTINUOUS
 62
     4
 10
1058.391628
 20
644.172649
 40
4.761355
  0
LINE
  8
CSLAYER1
  6
CONTINUOUS
 62
     4
 10
1058.891628
 20
657.163030
 11
1069.391628
 21
651.100852
  0
LINE
  8
CSLAYER1
  6
CONTINUOUS
 62
     4
 10
1069.891628
 20
650.234827
 11
1069.891628
 21
638.110471
  0
LINE
  8
CSLAYER1
  6
CONTINUOUS
 62
     4
 10
1069.391628
 20
637.244445
 11
1058.891628
 21
631.182268
  0
ARC
  8
CSLAYER1
  6
CONTINUOUS
 62
     4
 10
1058.391628
 20
644.172649
 40
13.000000
 50
327.795772
 51
332.204228
  0
ARC
  8
CSLAYER1
  6
CONTINUOUS
 62
     4
 10
1058.391628
 20
644.172649
 40
13.000000
 50
27.795772
 51
32.204228
  0
LINE
  8
CSLAYER1
  6
CENTER
 62
     5
 10
1058.391628
 20
660.093514
 11
1058.391628
 21
627.874885
  0
LINE
  8
CSLAYER1
  6
CENTER
 62
     5
 10
1008.834790
 20
644.172649
 11
1037.228376
 21
644.172649
  0
CIRCLE
  8
CSLAYER1
  6
CONTINUOUS
 62
     4
 10
1023.391628
 20
644.172649
 40
11.500000
  0
LINE
  8
CSLAYER1
  6
CONTINUOUS
 62
     4
 10
1022.891628
 20
657.163030
 11
1012.391628
 21
651.100852
  0
LINE
  8
CSLAYER1
  6
CONTINUOUS
 62
     4
 10
1011.891628
 20
650.234827
 11
1011.891628
 21
638.110471
  0
LINE
  8
CSLAYER1
  6
CONTINUOUS
 62
     4
 10
1012.391628
 20
637.244445
 11
1022.891628
 21
631.182268
  0
ARC
  8
CSLAYER1
  6
CONTINUOUS
 62
     4
 10
1023.391628
 20
644.172649
 40
13.000000
 50
87.795772
 51
92.204228
  0
ARC
  8
CSLAYER1
  6
CONTINUOUS
 62
     4
 10
1023.391628
 20
644.172649
 40
13.000000
 50
267.795772
 51
272.204228
  0
ARC
  8
CSLAYER1
  6
CONTINUOUS
 62
     4
 10
1023.391628
 20
644.172649
 40
13.000000
 50
207.795772
 51
212.204228
  0
ARC
  8
CSLAYER1
  6
CONTINUOUS
 62
     4
 10
1023.391628
 20
644.172649
 40
13.000000
 50
147.795772
 51
152.204228
  0
CIRCLE
  8
CSLAYER1
  6
CONTINUOUS
 62
     4
 10
1023.391628
 20
644.172649
 40
4.000000
  0
CIRCLE
  8
CSLAYER1
  6
CONTINUOUS
 62
     4
 10
1023.391628
 20
644.172649
 40
10.359534
  0
CIRCLE
  8
CSLAYER1
  6
CONTINUOUS
 62
     4
 10
1023.391628
 20
644.172649
 40
4.761355
  0
LINE
  8
CSLAYER1
  6
CONTINUOUS
 62
     4
 10
1023.891628
 20
657.163030
 11
1034.391628
 21
651.100852
  0
LINE
  8
CSLAYER1
  6
CONTINUOUS
 62
     4
 10
1034.891628
 20
650.234827
 11
1034.891628
 21
638.110471
  0
LINE
  8
CSLAYER1
  6
CONTINUOUS
 62
     4
 10
1034.391628
 20
637.244445
 11
1023.891628
 21
631.182268
  0
ARC
  8
CSLAYER1
  6
CONTINUOUS
 62
     4
 10
1023.391628
 20
644.172649
 40
13.000000
 50
327.795772
 51
332.204228
  0
ARC
  8
CSLAYER1
  6
CONTINUOUS
 62
     4
 10
1023.391628
 20
644.172649
 40
13.000000
 50
27.795772
 51
32.204228
  0
LINE
  8
CSLAYER1
  6
CONTINUOUS
 62
     7
 10
1079.891628
 20
659.172649
 11
896.891628
 21
659.172649
  0
INSERT
  8
CSLAYER1
  2
BLKF0014
 10
0.0
 20
0.0
 30
0.0
  0
LINE
  8
CSLAYER1
  6
CONTINUOUS
 62
     5
 10
1023.391628
 20
660.093514
 11
1023.391628
 21
627.874885
  0
LINE
  8
CSLAYER1
  6
CONTINUOUS
 62
     1
 10
1079.891628
 20
665.172649
 11
896.891628
 21
665.172649
  0
LINE
  8
CSLAYER1
  6
CONTINUOUS
 62
     5
 10
1043.834790
 20
644.172649
 11
1072.228376
 21
644.172649
  0
LINE
  8
CSLAYER1
  6
CONTINUOUS
 62
     5
 10
1058.391628
 20
660.093514
 11
1058.391628
 21
627.874885
  0
LINE
  8
CSLAYER1
  6
CONTINUOUS
 62
     5
 10
1008.834790
 20
644.172649
 11
1037.228376
 21
644.172649
  0
LINE
  8
CSLAYER1
  6
CONTINUOUS
 62
     7
 10
1078.391628
 20
659.172649
 11
1078.391628
 21
615.872649
  0
LINE
  8
CSLAYER1
  6
CONTINUOUS
 62
     7
 10
1079.891628
 20
665.172649
 11
1079.891628
 21
659.172649
  0
LINE
  8
CSLAYER1
  6
CONTINUOUS
 62
     1
 10
896.891628
 20
659.172649
 11
898.391628
 21
659.172649
  0
LINE
  8
CSLAYER1
  6
CONTINUOUS
 62
     1
 10
896.891628
 20
659.172649
 11
896.891628
 21
665.172649
  0
INSERT
  8
CSLAYER1
  2
BLKF0015
 10
0.0
 20
0.0
 30
0.0
  0
LINE
  8
CSLAYER1
  6
CONTINUOUS
 62
     7
 10
896.891628
 20
665.172649
 11
896.891628
 21
659.172649
  0
LINE
  8
CSLAYER1
  6
CONTINUOUS
 62
     7
 10
898.391628
 20
659.172649
 11
898.391628
 21
615.872649
  0
LINE
  8
CSLAYER1
  6
CENTER
 62
     5
 10
867.391628
 20
1722.051476
 11
1179.391628
 21
1722.051476
  0
LINE
  8
CSLAYER1
  6
CONTINUOUS
 62
     7
 10
867.391628
 20
1752.301476
 11
1179.391628
 21
1752.301476
  0
LINE
  8
CSLAYER1
  6
CONTINUOUS
 62
     7
 10
867.391628
 20
1691.801476
 11
1179.391628
 21
1691.801476
  0
LINE
  8
CSLAYER1
  6
CONTINUOUS
 62
     7
 10
1192.391628
 20
1200.202305
 11
1201.391628
 21
1200.202305
  0
LINE
  8
CSLAYER1
  6
CONTINUOUS
 62
     7
 10
1179.391628
 20
1168.202305
 11
1188.391628
 21
1168.202305
  0
LINE
  8
CSLAYER1
  6
CONTINUOUS
 62
     7
 10
854.391628
 20
1200.202305
 11
845.391628
 21
1200.202305
  0
LINE
  8
CSLAYER1
  6
CONTINUOUS
 62
     7
 10
867.391628
 20
1168.202305
 11
858.391628
 21
1168.202305
  0
LINE
  8
CSLAYER1
  6
CENTER
 62
     5
 10
1182.323199
 20
686.091527
 11
1123.391628
 21
686.091527
  0
INSERT
  8
CSLAYER1
  2
BLKF0016
 10
0.0
 20
0.0
 30
0.0
  0
LINE
  8
CSLAYER1
  6
CENTER
 62
     5
 10
1182.323199
 20
647.378399
 11
1123.391628
 21
647.378399
  0
INSERT
  8
CSLAYER1
  2
BLKF0017
 10
0.0
 20
0.0
 30
0.0
  0
LINE
  8
CSLAYER1
  6
CONTINUOUS
 62
     3
 10
1121.391628
 20
615.872649
 11
1121.391628
 21
668.568877
  0
LINE
  8
CSLAYER1
  6
CONTINUOUS
 62
     3
 10
1118.391628
 20
615.872649
 11
1118.391628
 21
668.568877
  0
LINE
  8
CSLAYER1
  6
CONTINUOUS
 62
     3
 10
1125.891628
 20
698.793085
 11
1127.391628
 21
698.793085
  0
LINE
  8
CSLAYER1
  6
CONTINUOUS
 62
     3
 10
1137.391628
 20
632.100845
 11
1137.391628
 21
642.378399
  0
LINE
  8
CSLAYER1
  6
CONTINUOUS
 62
     1
 10
1121.391628
 20
632.100845
 11
1121.391628
 21
668.568877
  0
LINE
  8
CSLAYER1
  6
CONTINUOUS
 62
     1
 10
1137.391628
 20
632.100845
 11
1121.391628
 21
632.100845
  0
LINE
  8
CSLAYER1
  6
CONTINUOUS
 62
     3
 10
1137.391628
 20
668.568877
 11
1118.391628
 21
668.568877
  0
LINE
  8
CSLAYER1
  6
CONTINUOUS
 62
     3
 10
1138.391628
 20
634.652804
 11
1138.391628
 21
642.252804
  0
LINE
  8
CSLAYER1
  6
CONTINUOUS
 62
     3
 10
1138.391628
 20
634.652804
 11
1137.391628
 21
634.652804
  0
LINE
  8
CSLAYER1
  6
CONTINUOUS
 62
     3
 10
1138.391628
 20
642.252804
 11
1137.391628
 21
642.252804
  0
LINE
  8
CSLAYER1
  6
CONTINUOUS
 62
     3
 10
1140.991628
 20
636.952804
 11
1140.991628
 21
639.952804
  0
LINE
  8
CSLAYER1
  6
CONTINUOUS
 62
     3
 10
1138.991628
 20
634.952804
 11
1138.391628
 21
634.952804
  0
LINE
  8
CSLAYER1
  6
CONTINUOUS
 62
     3
 10
1138.991628
 20
641.952804
 11
1138.391628
 21
641.952804
  0
ARC
  8
CSLAYER1
  6
CONTINUOUS
 62
     3
 10
1138.991628
 20
636.952804
 40
2.000000
 50
270.000000
 51
360.000000
  0
ARC
  8
CSLAYER1
  6
CONTINUOUS
 62
     3
 10
1138.991628
 20
639.952804
 40
2.000000
 50
0.000000
 51
90.000000
  0
LINE
  8
CSLAYER1
  6
CONTINUOUS
 62
     3
 10
1138.391628
 20
656.241010
 11
1138.391628
 21
663.841010
  0
LINE
  8
CSLAYER1
  6
CONTINUOUS
 62
     3
 10
1138.391628
 20
656.241010
 11
1137.391628
 21
656.241010
  0
LINE
  8
CSLAYER1
  6
CONTINUOUS
 62
     3
 10
1138.391628
 20
663.841010
 11
1137.391628
 21
663.841010
  0
LINE
  8
CSLAYER1
  6
CONTINUOUS
 62
     3
 10
1140.991628
 20
658.541010
 11
1140.991628
 21
661.541010
  0
LINE
  8
CSLAYER1
  6
CONTINUOUS
 62
     3
 10
1138.991628
 20
656.541010
 11
1138.391628
 21
656.541010
  0
LINE
  8
CSLAYER1
  6
CONTINUOUS
 62
     3
 10
1138.991628
 20
663.541010
 11
1138.391628
 21
663.541010
  0
ARC
  8
CSLAYER1
  6
CONTINUOUS
 62
     3
 10
1138.991628
 20
658.541010
 40
2.000000
 50
270.000000
 51
360.000000
  0
ARC
  8
CSLAYER1
  6
CONTINUOUS
 62
     3
 10
1138.991628
 20
661.541010
 40
2.000000
 50
0.000000
 51
90.000000
  0
LINE
  8
CSLAYER1
  6
CENTER
 62
     5
 10
1111.001652
 20
626.872649
 11
1126.163329
 21
626.872649
  0
LINE
  8
CSLAYER1
  6
CONTINUOUS
 62
     3
 10
1121.391628
 20
632.100845
 11
1137.391628
 21
632.100845
  0
LINE
  8
CSLAYER1
  6
CONTINUOUS
 62
     4
 10
1141.391628
 20
691.091527
 11
1141.391628
 21
720.544557
  0
LINE
  8
CSLAYER1
  6
CONTINUOUS
 62
     4
 10
1136.991628
 20
691.091527
 11
1136.991628
 21
720.544557
  0
LINE
  8
CSLAYER1
  6
CONTINUOUS
 62
     3
 10
1132.891628
 20
693.872232
 11
1132.891628
 21
698.793085
  0
LINE
  8
CSLAYER1
  6
CONTINUOUS
 62
     3
 10
1125.891628
 20
693.872232
 11
1125.891628
 21
698.793085
  0
LINE
  8
CSLAYER1
  6
CONTINUOUS
 62
     3
 10
1124.404925
 20
693.872232
 11
1134.378331
 21
693.872232
  0
LINE
  8
CSLAYER1
  6
CONTINUOUS
 62
     3
 10
1121.891628
 20
685.725681
 11
1121.891628
 21
669.372232
  0
LINE
  8
CSLAYER1
  6
CONTINUOUS
 62
     3
 10
1136.891628
 20
685.725681
 11
1136.891628
 21
669.372232
  0
LINE
  8
CSLAYER1
  6
CONTINUOUS
 62
     3
 10
1134.378331
 20
693.872232
 11
1136.891628
 21
685.725681
  0
LINE
  8
CSLAYER1
  6
CONTINUOUS
 62
     3
 10
1124.404925
 20
693.872232
 11
1121.891628
 21
685.725681
  0
LINE
  8
CSLAYER1
  6
CONTINUOUS
 62
     3
 10
1131.391628
 20
705.634576
 11
1131.391628
 21
693.872232
  0
LINE
  8
CSLAYER1
  6
CONTINUOUS
 62
     3
 10
1127.391628
 20
705.634576
 11
1127.391628
 21
693.872232
  0
LINE
  8
CSLAYER1
  6
CONTINUOUS
 62
     3
 10
1131.391628
 20
698.793085
 11
1132.891628
 21
698.793085
  0
LINE
  8
CSLAYER1
  6
CONTINUOUS
 62
     3
 10
1137.391628
 20
652.378399
 11
1137.391628
 21
668.568877
  0
LINE
  8
CSLAYER1
  6
CONTINUOUS
 62
     3
 10
1083.391628
 20
633.672649
 11
1083.391628
 21
636.872649
  0
LINE
  8
CSLAYER1
  6
CONTINUOUS
 62
     3
 10
1115.191628
 20
615.872649
 11
1115.191628
 21
633.672649
  0
LINE
  8
CSLAYER1
  6
CENTER
 62
     5
 10
1098.391628
 20
615.872649
 11
1098.391628
 21
712.964035
  0
LINE
  8
CSLAYER1
  6
CONTINUOUS
 62
     3
 10
1083.391628
 20
636.872649
 11
1118.391628
 21
636.872649
  0
LINE
  8
CSLAYER1
  6
CONTINUOUS
 62
     3
 10
1083.391628
 20
633.672649
 11
1115.191628
 21
633.672649
  0
LINE
  8
CSLAYER1
  6
CONTINUOUS
 62
     4
 10
1091.391628
 20
671.409466
 11
1085.231866
 21
671.409466
  0
LINE
  8
CSLAYER1
  6
CONTINUOUS
 62
     7
 10
1106.891628
 20
664.872649
 11
1089.891628
 21
664.872649
  0
LINE
  8
CSLAYER1
  6
CONTINUOUS
 62
     7
 10
1107.841628
 20
626.872649
 11
1088.941628
 21
626.872649
  0
LINE
  8
CSLAYER1
  6
CONTINUOUS
 62
     7
 10
1108.841628
 20
627.872649
 11
1107.841628
 21
626.872649
  0
LINE
  8
CSLAYER1
  6
CONTINUOUS
 62
     7
 10
1112.728722
 20
633.672649
 11
1112.728722
 21
629.259383
  0
LINE
  8
CSLAYER1
  6
CONTINUOUS
 62
     7
 10
1112.728722
 20
629.259383
 11
1084.054534
 21
629.259383
  0
LINE
  8
CSLAYER1
  6
CONTINUOUS
 62
     7
 10
1108.841628
 20
629.259383
 11
1108.841628
 21
627.872649
  0
LINE
  8
CSLAYER1
  6
CONTINUOUS
 62
     7
 10
1107.841628
 20
629.259383
 11
1107.841628
 21
626.872649
  0
LINE
  8
CSLAYER1
  6
CONTINUOUS
 62
     7
 10
1107.437220
 20
633.672649
 11
1107.437220
 21
629.259383
  0
LINE
  8
CSLAYER1
  6
CONTINUOUS
 62
     7
 10
1103.683130
 20
633.672649
 11
1103.683130
 21
629.259383
  0
LINE
  8
CSLAYER1
  6
CONTINUOUS
 62
     7
 10
1109.891628
 20
641.872649
 11
1086.891628
 21
641.872649
  0
LINE
  8
CSLAYER1
  6
CONTINUOUS
 62
     7
 10
1111.391628
 20
661.763554
 11
1085.391628
 21
661.763554
  0
LINE
  8
CSLAYER1
  6
CONTINUOUS
 62
     7
 10
1111.391628
 20
645.414740
 11
1085.391628
 21
645.414740
  0
ARC
  8
CSLAYER1
  6
CONTINUOUS
 62
     7
 10
1106.891628
 20
661.872649
 40
3.000000
 50
0.000000
 51
90.000000
  0
LINE
  8
CSLAYER1
  6
CONTINUOUS
 62
     7
 10
1109.891628
 20
641.872649
 11
1111.382009
 21
641.012177
  0
ARC
  8
CSLAYER1
  6
CONTINUOUS
 62
     7
 10
1098.391628
 20
615.826624
 40
26.046025
 50
75.231439
 51
104.768561
  0
ARC
  8
CSLAYER1
  6
CONTINUOUS
 62
     7
 10
1108.206582
 20
635.741055
 40
6.153702
 50
66.825356
 51
121.065581
  0
LINE
  8
CSLAYER1
  6
CONTINUOUS
 62
     7
 10
1105.031156
 20
641.012177
 11
1105.031156
 21
636.872649
  0
LINE
  8
CSLAYER1
  6
CONTINUOUS
 62
     7
 10
1111.382009
 20
641.012177
 11
1111.382009
 21
636.872649
  0
LINE
  8
CSLAYER1
  6
CONTINUOUS
 62
     7
 10
1108.727752
 20
645.414740
 11
1108.727752
 21
641.872649
  0
LINE
  8
CSLAYER1
  6
CONTINUOUS
 62
     7
 10
1108.081374
 20
645.414740
 11
1108.081374
 21
643.808378
  0
LINE
  8
CSLAYER1
  6
CONTINUOUS
 62
     7
 10
1108.727752
 20
643.808378
 11
1088.055504
 21
643.808378
  0
LINE
  8
CSLAYER1
  6
CONTINUOUS
 62
     7
 10
1108.081374
 20
643.808378
 11
1108.727752
 21
642.673526
  0
LINE
  8
CSLAYER1
  6
CONTINUOUS
 62
     7
 10
1108.841628
 20
627.920451
 11
1087.941628
 21
627.920451
  0
LINE
  8
CSLAYER1
  6
CONTINUOUS
 62
     7
 10
1087.941628
 20
627.872649
 11
1088.941628
 21
626.872649
  0
LINE
  8
CSLAYER1
  6
CONTINUOUS
 62
     7
 10
1084.054534
 20
633.672649
 11
1084.054534
 21
629.259383
  0
LINE
  8
CSLAYER1
  6
CONTINUOUS
 62
     7
 10
1087.941628
 20
629.259383
 11
1087.941628
 21
627.872649
  0
LINE
  8
CSLAYER1
  6
CONTINUOUS
 62
     7
 10
1088.941628
 20
629.259383
 11
1088.941628
 21
626.872649
  0
LINE
  8
CSLAYER1
  6
CONTINUOUS
 62
     7
 10
1089.346036
 20
633.672649
 11
1089.346036
 21
629.259383
  0
LINE
  8
CSLAYER1
  6
CONTINUOUS
 62
     7
 10
1093.100125
 20
633.672649
 11
1093.100125
 21
629.259383
  0
LINE
  8
CSLAYER1
  6
CONTINUOUS
 62
     7
 10
1086.891628
 20
641.872649
 11
1085.401247
 21
641.012177
  0
ARC
  8
CSLAYER1
  6
CONTINUOUS
 62
     7
 10
1088.576673
 20
635.741055
 40
6.153702
 50
58.934419
 51
113.174644
  0
LINE
  8
CSLAYER1
  6
CONTINUOUS
 62
     7
 10
1091.752100
 20
641.012177
 11
1091.752100
 21
636.872649
  0
LINE
  8
CSLAYER1
  6
CONTINUOUS
 62
     7
 10
1085.401247
 20
641.012177
 11
1085.401247
 21
636.872649
  0
LINE
  8
CSLAYER1
  6
CONTINUOUS
 62
     7
 10
1088.055504
 20
645.414740
 11
1088.055504
 21
641.872649
  0
LINE
  8
CSLAYER1
  6
CONTINUOUS
 62
     7
 10
1088.701881
 20
645.414740
 11
1088.701881
 21
643.808378
  0
LINE
  8
CSLAYER1
  6
CONTINUOUS
 62
     7
 10
1088.701881
 20
643.808378
 11
1088.055504
 21
642.673526
  0
LINE
  8
CSLAYER1
  6
CONTINUOUS
 62
     7
 10
1113.229654
 20
660.702369
 11
1113.229654
 21
646.475925
  0
LINE
  8
CSLAYER1
  6
CONTINUOUS
 62
     7
 10
1105.897181
 20
660.702369
 11
1105.897181
 21
646.475925
  0
LINE
  8
CSLAYER1
  6
CONTINUOUS
 62
     7
 10
1111.391628
 20
661.763554
 11
1113.229654
 21
660.702369
  0
ARC
  8
CSLAYER1
  6
CONTINUOUS
 62
     7
 10
1109.563418
 20
654.901963
 40
6.861924
 50
62.295563
 51
121.731450
  0
ARC
  8
CSLAYER1
  6
CONTINUOUS
 62
     7
 10
1098.391628
 20
634.690300
 40
27.073254
 50
73.904971
 51
106.095029
  0
LINE
  8
CSLAYER1
  6
CONTINUOUS
 62
     7
 10
1111.391628
 20
645.414740
 11
1113.229654
 21
646.475925
  0
ARC
  8
CSLAYER1
  6
CONTINUOUS
 62
     7
 10
1109.563418
 20
652.276331
 40
6.861924
 50
238.268550
 51
297.704437
  0
ARC
  8
CSLAYER1
  6
CONTINUOUS
 62
     7
 10
1098.391628
 20
672.487994
 40
27.073254
 50
253.904971
 51
286.095029
  0
LINE
  8
CSLAYER1
  6
CONTINUOUS
 62
     7
 10
1083.553602
 20
660.702369
 11
1083.553602
 21
646.475925
  0
LINE
  8
CSLAYER1
  6
CONTINUOUS
 62
     7
 10
1090.886074
 20
660.702369
 11
1090.886074
 21
646.475925
  0
LINE
  8
CSLAYER1
  6
CONTINUOUS
 62
     7
 10
1085.391628
 20
661.763554
 11
1083.553602
 21
660.702369
  0
ARC
  8
CSLAYER1
  6
CONTINUOUS
 62
     7
 10
1087.219838
 20
654.901963
 40
6.861924
 50
58.268550
 51
117.704437
  0
LINE
  8
CSLAYER1
  6
CONTINUOUS
 62
     7
 10
1085.391628
 20
645.414740
 11
1083.553602
 21
646.475925
  0
ARC
  8
CSLAYER1
  6
CONTINUOUS
 62
     7
 10
1087.219838
 20
652.276331
 40
6.861924
 50
242.295563
 51
301.731450
  0
ARC
  8
CSLAYER1
  6
CONTINUOUS
 62
     7
 10
1089.891628
 20
661.872649
 40
3.000000
 50
90.000000
 51
180.000000
  0
LINE
  8
CSLAYER1
  6
CONTINUOUS
 62
     7
 10
1105.391628
 20
715.321784
 11
1105.391628
 21
664.872649
  0
LINE
  8
CSLAYER1
  6
CONTINUOUS
 62
     7
 10
1091.391628
 20
713.553473
 11
1091.391628
 21
664.872649
  0
LINE
  8
CSLAYER1
  6
CONTINUOUS
 62
     7
 10
1105.391628
 20
626.872649
 11
1105.391628
 21
615.872649
  0
LINE
  8
CSLAYER1
  6
CONTINUOUS
 62
     7
 10
1091.391628
 20
626.872649
 11
1091.391628
 21
615.872649
  0
LINE
  8
CSLAYER1
  6
CONTINUOUS
 62
     5
 10
1666.896842
 20
2636.868389
 11
1418.450645
 21
2762.739602
  0
LINE
  8
CSLAYER1
  6
CONTINUOUS
 62
     5
 10
1666.896842
 20
2636.868389
 11
1622.858812
 21
2646.123221
  0
LINE
  8
CSLAYER1
  6
CONTINUOUS
 62
     5
 10
1666.896842
 20
2636.868389
 11
1633.386205
 21
2666.902323
  0
INSERT
  8
CSLAYER1
  2
BLKF0018
 10
0.0
 20
0.0
 30
0.0
  0
INSERT
  8
CSLAYER1
  2
BLKF0019
 10
0.0
 20
0.0
 30
0.0
  0
LINE
  8
CSLAYER1
  6
CONTINUOUS
 62
     3
 10
1673.344869
 20
2632.974499
 11
1669.112817
 21
2638.550316
  0
LINE
  8
CSLAYER1
  6
CONTINUOUS
 62
     3
 10
1670.258244
 20
2637.041193
 11
1632.647488
 21
2632.339849
  0
LINE
  8
CSLAYER1
  6
CONTINUOUS
 62
     7
 10
845.391628
 20
1706.023982
 11
854.391628
 21
1706.023982
  0
LINE
  8
CSLAYER1
  6
CONTINUOUS
 62
     7
 10
867.391628
 20
1230.638864
 11
876.391628
 21
1230.638864
  0
LINE
  8
CSLAYER1
  6
CONTINUOUS
 62
     7
 10
858.391628
 20
1256.210282
 11
867.391628
 21
1256.210282
  0
LINE
  8
CSLAYER1
  6
CONTINUOUS
 62
     7
 10
845.391628
 20
1112.194327
 11
854.391628
 21
1112.194327
  0
LINE
  8
CSLAYER1
  6
CONTINUOUS
 62
     7
 10
858.391628
 20
662.380627
 11
867.391628
 21
662.380627
  0
LINE
  8
CSLAYER1
  6
CONTINUOUS
 62
     7
 10
1179.391628
 20
662.380627
 11
1188.391628
 21
662.380627
  0
LINE
  8
CSLAYER1
  6
CONTINUOUS
 62
     7
 10
1192.391628
 20
1112.194327
 11
1201.391628
 21
1112.194327
  0
LINE
  8
CSLAYER1
  6
CONTINUOUS
 62
     7
 10
1179.391628
 20
1256.210282
 11
1188.391628
 21
1256.210282
  0
LINE
  8
CSLAYER1
  6
CONTINUOUS
 62
     7
 10
1170.391628
 20
1230.638864
 11
1179.391628
 21
1230.638864
  0
LINE
  8
CSLAYER1
  6
CONTINUOUS
 62
     7
 10
1192.391628
 20
1706.023982
 11
1201.391628
 21
1706.023982
  0
INSERT
  8
CSLAYER1
  2
EASYDRAWDIM0000
 10
0.0
 20
0.0
 30
0.0
  0
INSERT
  8
CSLAYER1
  2
EASYDRAWDIM0001
 10
0.0
 20
0.0
 30
0.0
  0
DIMENSION
  8
CSLAYER1
 62
     3
  2
*D0000
 10
2841.753272
 20
2541.231650
 11
2441.753174
 21
2556.231689
 13
2041.753272
 23
2678.451672
 14
2841.753272
 24
2678.451672
 52
270.000000
 70
1
  0
LINE
  8
CSLAYER1
  6
CONTINUOUS
 62
     3
 10
1671.186147
 20
2635.818661
 11
1638.395450
 21
2619.490232
  0
LINE
  8
CSLAYER1
  6
CONTINUOUS
 62
     3
 10
1672.085309
 20
2634.633996
 11
1644.935753
 21
2609.879990
  0
LINE
  8
CSLAYER1
  6
CONTINUOUS
 62
     3
 10
1672.737327
 20
2633.774948
 11
1655.880751
 21
2602.004931
  0
LINE
  8
CSLAYER1
  6
DASHED
 62
     3
 10
778.718937
 20
571.372649
 11
1268.711238
 21
571.372649
  0
LINE
  8
CSLAYER1
  6
CONTINUOUS
 62
     5
 10
803.391628
 20
583.040020
 11
803.391628
 21
404.544851
  0
LINE
  8
CSLAYER1
  6
CONTINUOUS
 62
     5
 10
1243.391628
 20
583.040020
 11
1243.391628
 21
404.544851
  0
DIMENSION
  8
CSLAYER1
 62
     3
  2
*D0001
 10
803.391628
 20
419.544851
 11
1023.679504
 21
430.587677
 13
1243.391628
 23
419.544851
 14
803.391628
 24
419.544851
 52
0.000000
 70
1
  0
DIMENSION
  8
CSLAYER1
 62
     3
  2
*D0002
 10
1273.391628
 20
272.774976
 11
1020.075500
 21
279.214172
 13
773.391628
 23
565.872649
 14
1273.391628
 24
565.872649
 52
270.000000
 70
1
  0
TEXT
  8
CSLAYER1
 62
     5
 10
912.470778
 20
371.444752
 40
38.994835
 41
1.022858
  1
取付穴ピッチ
 50
0.000000
 51
0.000000
  7
EASYDRAW_FONT
 72
     5
 11
1138.492357
 21
371.444752
  0
DIMENSION
  8
CSLAYER1
 62
     3
  2
*D0003
 10
1397.829208
 20
571.372649
 11
1383.256104
 21
653.455383
 13
1273.391628
 23
565.872649
 14
1268.711238
 24
571.372649
 50
90.000000
  0
LINE
  8
CSLAYER1
  6
CONTINUOUS
 62
     3
 10
723.391628
 20
2407.061616
 11
1323.391628
 21
2407.061616
  0
LINE
  8
CSLAYER1
  6
CONTINUOUS
 62
     3
 10
723.391628
 20
2362.061616
 11
1323.391628
 21
2362.061616
  0
LINE
  8
CSLAYER1
  6
CONTINUOUS
 62
     4
 10
777.591628
 20
2353.861616
 11
800.591628
 21
2353.861616
  0
LINE
  8
CSLAYER1
  6
CONTINUOUS
 62
     4
 10
776.591628
 20
2354.861616
 11
801.591628
 21
2354.861616
  0
LINE
  8
CSLAYER1
  6
CONTINUOUS
 62
     4
 10
777.591628
 20
2353.861616
 11
776.591628
 21
2354.861616
  0
LINE
  8
CSLAYER1
  6
CONTINUOUS
 62
     4
 10
800.591628
 20
2353.861616
 11
801.591628
 21
2354.861616
  0
LINE
  8
CSLAYER1
  6
CONTINUOUS
 62
     4
 10
801.591628
 20
2362.061616
 11
801.591628
 21
2354.861616
  0
LINE
  8
CSLAYER1
  6
CONTINUOUS
 62
     4
 10
776.591628
 20
2362.061616
 11
776.591628
 21
2354.861616
  0
LINE
  8
CSLAYER1
  6
CENTER
 62
     5
 10
789.091628
 20
2353.861616
 11
789.091628
 21
2362.061616
  0
LINE
  8
CSLAYER1
  6
CONTINUOUS
 62
     4
 10
1269.191628
 20
2353.861616
 11
1246.191628
 21
2353.861616
  0
LINE
  8
CSLAYER1
  6
CONTINUOUS
 62
     4
 10
1270.191628
 20
2354.861616
 11
1245.191628
 21
2354.861616
  0
LINE
  8
CSLAYER1
  6
CONTINUOUS
 62
     4
 10
1269.191628
 20
2353.861616
 11
1270.191628
 21
2354.861616
  0
LINE
  8
CSLAYER1
  6
CONTINUOUS
 62
     4
 10
1246.191628
 20
2353.861616
 11
1245.191628
 21
2354.861616
  0
LINE
  8
CSLAYER1
  6
CONTINUOUS
 62
     4
 10
1245.191628
 20
2362.061616
 11
1245.191628
 21
2354.861616
  0
LINE
  8
CSLAYER1
  6
CONTINUOUS
 62
     4
 10
1270.191628
 20
2362.061616
 11
1270.191628
 21
2354.861616
  0
LINE
  8
CSLAYER1
  6
CENTER
 62
     5
 10
1257.691628
 20
2353.861616
 11
1257.691628
 21
2362.061616
  0
LINE
  8
CSLAYER1
  6
CONTINUOUS
 62
     7
 10
1242.391628
 20
2362.061616
 11
1242.391628
 21
2353.861616
  0
LINE
  8
CSLAYER1
  6
CONTINUOUS
 62
     7
 10
1230.391628
 20
2362.061616
 11
1230.391628
 21
2353.861616
  0
LINE
  8
CSLAYER1
  6
CONTINUOUS
 62
     7
 10
1230.891628
 20
2353.361616
 11
1241.891628
 21
2353.361616
  0
LINE
  8
CSLAYER1
  6
CONTINUOUS
 62
     7
 10
1242.891628
 20
2353.361616
 11
1253.891628
 21
2353.361616
  0
ARC
  8
CSLAYER1
  6
CONTINUOUS
 62
     7
 10
1241.891628
 20
2353.861616
 40
0.500000
 50
270.000000
 51
360.000000
  0
ARC
  8
CSLAYER1
  6
CONTINUOUS
 62
     7
 10
1230.891628
 20
2353.861616
 40
0.500000
 50
180.000000
 51
270.000000
  0
ARC
  8
CSLAYER1
  6
CONTINUOUS
 62
     7
 10
1253.891628
 20
2353.861616
 40
0.500000
 50
270.000000
 51
360.000000
  0
ARC
  8
CSLAYER1
  6
CONTINUOUS
 62
     7
 10
1242.891628
 20
2353.861616
 40
0.500000
 50
180.000000
 51
270.000000
  0
LINE
  8
CSLAYER1
  6
CONTINUOUS
 62
     7
 10
804.391628
 20
2362.061616
 11
804.391628
 21
2353.861616
  0
LINE
  8
CSLAYER1
  6
CONTINUOUS
 62
     7
 10
816.391628
 20
2362.061616
 11
816.391628
 21
2353.861616
  0
LINE
  8
CSLAYER1
  6
CONTINUOUS
 62
     7
 10
815.891628
 20
2353.361616
 11
804.891628
 21
2353.361616
  0
ARC
  8
CSLAYER1
  6
CONTINUOUS
 62
     7
 10
804.891628
 20
2353.861616
 40
0.500000
 50
180.000000
 51
270.000000
  0
ARC
  8
CSLAYER1
  6
CONTINUOUS
 62
     7
 10
815.891628
 20
2353.861616
 40
0.500000
 50
270.000000
 51
360.000000
  0
ARC
  8
CSLAYER1
  6
CONTINUOUS
 62
     7
 10
803.891628
 20
2353.861616
 40
0.500000
 50
270.000000
 51
360.000000
  0
LINE
  8
CSLAYER1
  6
CONTINUOUS
 62
     7
 10
803.891628
 20
2353.361616
 11
792.891628
 21
2353.361616
  0
ARC
  8
CSLAYER1
  6
CONTINUOUS
 62
     7
 10
792.891628
 20
2353.861616
 40
0.500000
 50
180.000000
 51
270.000000
  0
LINE
  8
CSLAYER1
  6
CONTINUOUS
 62
     7
 10
867.391628
 20
2105.196788
 11
1179.391628
 21
2105.196788
  0
LINE
  8
CSLAYER1
  6
CONTINUOUS
 62
     7
 10
867.391628
 20
2044.696788
 11
1179.391628
 21
2044.696788
  0
LINE
  8
CSLAYER1
  6
CENTER
 62
     5
 10
830.932307
 20
1778.031960
 11
1215.850949
 21
1778.031960
  0
INSERT
  8
CSLAYER1
  2
BLKF0020
 10
0.0
 20
0.0
 30
0.0
  0
LINE
  8
CSLAYER1
  6
CONTINUOUS
 62
     3
 10
1179.391628
 20
1787.031960
 11
867.391628
 21
1787.031960
  0
LINE
  8
CSLAYER1
  6
CONTINUOUS
 62
     3
 10
1179.391628
 20
1769.031960
 11
867.391628
 21
1769.031960
  0
INSERT
  8
CSLAYER1
  2
BLKF0021
 10
0.0
 20
0.0
 30
0.0
  0
LINE
  8
CSLAYER1
  6
CONTINUOUS
 62
     7
 10
1192.391628
 20
1794.031960
 11
1201.391628
 21
1794.031960
  0
LINE
  8
CSLAYER1
  6
CONTINUOUS
 62
     7
 10
1179.391628
 20
1762.031960
 11
1188.391628
 21
1762.031960
  0
LINE
  8
CSLAYER1
  6
CONTINUOUS
 62
     7
 10
854.391628
 20
1794.031960
 11
845.391628
 21
1794.031960
  0
LINE
  8
CSLAYER1
  6
CONTINUOUS
 62
     7
 10
867.391628
 20
1762.031960
 11
858.391628
 21
1762.031960
  0
LINE
  8
CSLAYER1
  6
CENTER
 62
     5
 10
828.391628
 20
2074.946788
 11
1218.391628
 21
2074.946788
  0
INSERT
  8
CSLAYER1
  2
BLKF0022
 10
0.0
 20
0.0
 30
0.0
  0
INSERT
  8
CSLAYER1
  2
BLKF0023
 10
0.0
 20
0.0
 30
0.0
  0
INSERT
  8
CSLAYER1
  2
BLKF0024
 10
0.0
 20
0.0
 30
0.0
  0
INSERT
  8
CSLAYER1
  2
BLKF0025
 10
0.0
 20
0.0
 30
0.0
  0
INSERT
  8
CSLAYER1
  2
BLKF0026
 10
0.0
 20
0.0
 30
0.0
  0
INSERT
  8
CSLAYER1
  2
BLKF0027
 10
0.0
 20
0.0
 30
0.0
  0
LINE
  8
CSLAYER1
  6
CONTINUOUS
 62
     7
 10
845.391628
 20
2299.853638
 11
854.391628
 21
2299.853638
  0
LINE
  8
CSLAYER1
  6
CONTINUOUS
 62
     7
 10
858.391628
 20
1850.039938
 11
867.391628
 21
1850.039938
  0
LINE
  8
CSLAYER1
  6
CONTINUOUS
 62
     7
 10
1192.391628
 20
2299.853638
 11
1201.391628
 21
2299.853638
  0
LINE
  8
CSLAYER1
  6
CONTINUOUS
 62
     7
 10
1179.391628
 20
1850.039938
 11
1188.391628
 21
1850.039938
  0
INSERT
  8
CSLAYER1
  2
BLKF0028
 10
0.0
 20
0.0
 30
0.0
  0
LINE
  8
CSLAYER1
  6
CONTINUOUS
 62
     3
 10
779.391628
 20
615.872649
 11
779.391628
 21
736.872649
  0
LINE
  8
CSLAYER1
  6
CONTINUOUS
 62
     3
 10
799.391628
 20
615.872649
 11
799.391628
 21
736.872649
  0
LINE
  8
CSLAYER1
  6
CONTINUOUS
 62
     3
 10
798.891628
 20
862.672649
 11
779.891628
 21
862.672649
  0
LINE
  8
CSLAYER1
  6
CONTINUOUS
 62
     3
 10
800.361283
 20
854.672649
 11
778.421973
 21
854.672649
  0
LINE
  8
CSLAYER1
  6
CONTINUOUS
 62
     3
 10
800.361283
 20
861.824143
 11
800.361283
 21
854.672649
  0
LINE
  8
CSLAYER1
  6
CONTINUOUS
 62
     3
 10
794.876455
 20
861.824143
 11
794.876455
 21
854.672649
  0
LINE
  8
CSLAYER1
  6
CONTINUOUS
 62
     3
 10
798.891628
 20
862.672649
 11
800.361283
 21
861.824143
  0
ARC
  8
CSLAYER1
  6
CONTINUOUS
 62
     3
 10
789.391628
 20
844.521155
 40
18.151494
 50
72.412046
 51
107.587954
  0
ARC
  8
CSLAYER1
  6
CONTINUOUS
 62
     3
 10
797.618869
 20
857.830256
 40
4.844787
 50
64.475551
 51
124.475551
  0
LINE
  8
CSLAYER1
  6
CONTINUOUS
 62
     3
 10
778.421973
 20
861.824143
 11
778.421973
 21
854.672649
  0
LINE
  8
CSLAYER1
  6
CONTINUOUS
 62
     3
 10
783.906800
 20
861.824143
 11
783.906800
 21
854.672649
  0
LINE
  8
CSLAYER1
  6
CONTINUOUS
 62
     3
 10
779.891628
 20
862.672649
 11
778.421973
 21
861.824143
  0
ARC
  8
CSLAYER1
  6
CONTINUOUS
 62
     3
 10
781.164387
 20
857.830256
 40
4.844787
 50
55.524449
 51
115.524449
  0
LINE
  8
CSLAYER1
  6
CONTINUOUS
 62
     5
 10
795.391628
 20
854.672649
 11
794.391628
 21
852.940598
  0
LINE
  8
CSLAYER1
  6
CONTINUOUS
 62
     5
 10
783.391628
 20
854.672649
 11
784.391628
 21
852.940598
  0
POINT
  8
CSLAYER1
 62
     3
 10
789.391628
 20
854.672649
  0
LINE
  8
CSLAYER1
  6
CONTINUOUS
 62
     3
 10
795.391628
 20
854.672649
 11
795.391628
 21
746.872649
  0
LINE
  8
CSLAYER1
  6
CONTINUOUS
 62
     5
 10
794.391628
 20
852.940598
 11
794.391628
 21
746.872649
  0
LINE
  8
CSLAYER1
  6
CONTINUOUS
 62
     5
 10
784.391628
 20
852.940598
 11
784.391628
 21
746.872649
  0
LINE
  8
CSLAYER1
  6
CONTINUOUS
 62
     3
 10
783.391628
 20
854.672649
 11
783.391628
 21
746.872649
  0
LINE
  8
CSLAYER1
  6
CONTINUOUS
 62
     5
 10
1265.771183
 20
862.672649
 11
1457.101423
 21
972.303030
  0
LINE
  8
CSLAYER1
  6
CONTINUOUS
 62
     5
 10
1265.771183
 20
862.672649
 11
1297.695062
 21
894.388038
  0
LINE
  8
CSLAYER1
  6
CONTINUOUS
 62
     5
 10
1265.771183
 20
862.672649
 11
1309.275768
 21
874.177042
  0
LINE
  8
CSLAYER1
  6
CONTINUOUS
 62
     3
 10
2041.753272
 20
2678.451672
 11
2841.753272
 21
2678.451672
  0
LINE
  8
CSLAYER1
  6
CONTINUOUS
 62
     3
 10
2041.753272
 20
3278.451672
 11
2841.753272
 21
3278.451672
  0
DIMENSION
  8
CSLAYER1
 62
     3
  2
*D0004
 10
2992.872049
 20
3278.451672
 11
2977.872070
 21
2978.451904
 13
2841.753272
 23
2678.451672
 14
2841.753272
 24
3278.451672
 50
90.000000
 70
1
  0
LINE
  8
CSLAYER1
  6
CONTINUOUS
 62
     5
 10
5128.577536
 20
3253.945053
 11
4047.268760
 21
3253.945053
  0
LINE
  8
CSLAYER1
  6
CONTINUOUS
 62
     5
 10
5128.577536
 20
3157.945055
 11
4047.268760
 21
3157.945055
  0
LINE
  8
CSLAYER1
  6
CONTINUOUS
 62
     5
 10
5128.577536
 20
3061.945058
 11
4047.268760
 21
3061.945058
  0
LINE
  8
CSLAYER1
  6
CONTINUOUS
 62
     5
 10
5128.577536
 20
2965.945060
 11
4048.577563
 21
2965.945060
  0
LINE
  8
CSLAYER1
  6
CONTINUOUS
 62
     5
 10
5128.577536
 20
2869.945062
 11
4047.268760
 21
2869.945062
  0
LINE
  8
CSLAYER1
  6
CONTINUOUS
 62
     5
 10
5128.577536
 20
2773.945065
 11
4047.268760
 21
2773.945065
  0
LINE
  8
CSLAYER1
  6
CONTINUOUS
 62
     5
 10
5128.577536
 20
2677.945067
 11
4047.268760
 21
2677.945067
  0
LINE
  8
CSLAYER1
  6
CONTINUOUS
 62
     5
 10
5128.577536
 20
2581.945070
 11
4047.268760
 21
2581.945070
  0
LINE
  8
CSLAYER1
  6
CONTINUOUS
 62
     5
 10
5128.577536
 20
2485.945072
 11
4047.268760
 21
2485.945072
  0
LINE
  8
CSLAYER1
  6
CONTINUOUS
 62
     5
 10
5128.577536
 20
2293.945077
 11
4047.268760
 21
2293.945077
  0
LINE
  8
CSLAYER1
  6
CONTINUOUS
 62
     5
 10
5128.577536
 20
2197.945079
 11
4047.268760
 21
2197.945079
  0
TEXT
  8
CSLAYER1
 62
     3
 10
4340.854492
 20
3373.673340
 40
60.000000
 41
0.857143
  1
仕   様
 50
0.000000
 51
0.000000
  7
EASYDRAW_FONT
 72
     5
 11
4580.854492
 21
3373.673340
  0
TEXT
  8
CSLAYER1
 62
     3
 10
4063.408203
 20
3266.279297
 40
60.000000
 41
0.847059
  1
型    式
 50
0.000000
 51
0.000000
  7
EASYDRAW_FONT
 72
     5
 11
4351.408203
 21
3266.279297
  0
TEXT
  8
CSLAYER1
 62
     3
 10
4060.679199
 20
3082.544922
 40
60.000000
 41
0.847059
  1
テーブル寸法
 50
0.000000
 51
0.000000
  7
EASYDRAW_FONT
 72
     5
 11
4348.679199
 21
3082.544922
  0
TEXT
  8
CSLAYER1
 62
     3
 10
4063.408203
 20
2987.948730
 40
60.000000
 41
0.847059
  1
テーブル高サ
 50
0.000000
 51
0.000000
  7
EASYDRAW_FONT
 72
     5
 11
4351.408203
 21
2987.948730
  0
TEXT
  8
CSLAYER1
 62
     3
 10
4065.578125
 20
2890.624512
 40
60.000000
 41
0.857143
  1
ストローク
 50
0.000000
 51
0.000000
  7
EASYDRAW_FONT
 72
     5
 11
4305.578125
 21
2890.624512
  0
TEXT
  8
CSLAYER1
 62
     3
 10
4064.669434
 20
2793.300293
 40
60.000000
 41
0.857143
  1
全   長
 50
0.000000
 51
0.000000
  7
EASYDRAW_FONT
 72
     5
 11
4304.669434
 21
2793.300293
  0
TEXT
  8
CSLAYER1
 62
     3
 10
4068.075684
 20
2694.523926
 40
60.000000
 41
0.857143
  1
全   巾
 50
0.000000
 51
0.000000
  7
EASYDRAW_FONT
 72
     5
 11
4308.075684
 21
2694.523926
  0
TEXT
  8
CSLAYER1
 62
     3
 10
4065.739258
 20
2598.696289
 40
60.000000
 41
0.857143
  1
全   高
 50
0.000000
 51
0.000000
  7
EASYDRAW_FONT
 72
     5
 11
4305.739258
 21
2598.696289
  0
TEXT
  8
CSLAYER1
 62
     3
 10
4065.739258
 20
2505.206543
 40
60.000000
 41
0.857143
  1
リフト方式
 50
0.000000
 51
0.000000
  7
EASYDRAW_FONT
 72
     5
 11
4305.739258
 21
2505.206543
  0
TEXT
  8
CSLAYER1
 62
     3
 10
4064.028320
 20
2212.875488
 40
60.000000
 41
0.872727
  1
モーター
 50
0.000000
 51
0.000000
  7
EASYDRAW_FONT
 72
     5
 11
4256.028320
 21
2212.875488
  0
LINE
  8
CSLAYER1
  6
CONTINUOUS
 62
     5
 10
5128.577536
 20
2101.945082
 11
4047.268760
 21
2101.945082
  0
LINE
  8
CSLAYER1
  6
CONTINUOUS
 62
     5
 10
5128.577536
 20
1909.945086
 11
4044.061007
 21
1909.945086
  0
LINE
  8
CSLAYER1
  6
CONTINUOUS
 62
     5
 10
5128.577536
 20
1813.945089
 11
4047.268760
 21
1813.945089
  0
LINE
  8
CSLAYER1
  6
CONTINUOUS
 62
     5
 10
5128.577536
 20
1717.945091
 11
4047.268760
 21
1717.945091
  0
LINE
  8
CSLAYER1
  6
CONTINUOUS
 62
     5
 10
5128.577536
 20
1621.945094
 11
4047.268760
 21
1621.945094
  0
TEXT
  8
CSLAYER1
 62
     3
 10
4067.900879
 20
1734.627930
 40
60.000000
 41
0.857143
  1
自  　重
 50
0.000000
 51
0.000000
  7
EASYDRAW_FONT
 72
     5
 11
4307.900879
 21
1734.627930
  0
TEXT
  8
CSLAYER1
 62
     3
 10
4063.257324
 20
1639.618652
 40
60.000000
 41
0.847059
  1
塗　装　色 
 50
0.000000
 51
0.000000
  7
EASYDRAW_FONT
 72
     5
 11
4351.257324
 21
1639.618652
  0
TEXT
  8
CSLAYER1
 62
     3
 10
4743.541504
 20
3174.041992
 40
60.000000
 41
0.872727
  1
 100
 50
0.000000
 51
0.000000
  7
EASYDRAW_FONT
 72
     5
 11
4935.541504
 21
3174.041992
  0
TEXT
  8
CSLAYER1
 62
     3
 10
5022.776855
 20
3168.532227
 40
60.000000
 41
0.960000
  1
Ｋｇ
 50
0.000000
 51
0.000000
  7
EASYDRAW_FONT
 72
     5
 11
5118.776855
 21
3168.532227
  0
TEXT
  8
CSLAYER1
 62
     3
 10
4501.868164
 20
3077.287109
 40
60.000000
 41
0.830769
  1
800L×600W
 50
0.000000
 51
0.000000
  7
EASYDRAW_FONT
 72
     5
 11
4933.868164
 21
3077.287109
  0
TEXT
  8
CSLAYER1
 62
     3
 10
4539.976074
 20
2982.536621
 40
60.000000
 41
0.834783
  1
350～1800
 50
0.000000
 51
0.000000
  7
EASYDRAW_FONT
 72
     5
 11
4923.976074
 21
2982.536621
  0
TEXT
  8
CSLAYER1
 62
     3
 10
4738.089844
 20
2881.936523
 40
60.000000
 41
0.872727
  1
1450
 50
0.000000
 51
0.000000
  7
EASYDRAW_FONT
 72
     5
 11
4930.089844
 21
2881.936523
  0
TEXT
  8
CSLAYER1
 62
     3
 10
4782.023926
 20
2789.743164
 40
60.000000
 41
0.900000
  1
800
 50
0.000000
 51
0.000000
  7
EASYDRAW_FONT
 72
     5
 11
4926.023926
 21
2789.743164
  0
TEXT
  8
CSLAYER1
 62
     3
 10
4785.478027
 20
2695.839355
 40
60.000000
 41
0.900000
  1
600
 50
0.000000
 51
0.000000
  7
EASYDRAW_FONT
 72
     5
 11
4929.478027
 21
2695.839355
  0
TEXT
  8
CSLAYER1
 62
     3
 10
4414.849121
 20
2504.332031
 40
60.000000
 41
0.827586
  1
電 動 ボールネジ式
 50
0.000000
 51
0.000000
  7
EASYDRAW_FONT
 72
     5
 11
4894.849121
 21
2504.332031
  0
TEXT
  8
CSLAYER1
 62
     3
 10
4410.687988
 20
2214.250977
 40
60.000000
 41
0.819512
  1
３相ＡＣ２００Ｖ、0.2ＫＷ
 50
0.000000
 51
0.000000
  7
EASYDRAW_FONT
 72
     5
 11
5082.687988
 21
2214.250977
  0
TEXT
  8
CSLAYER1
 62
     3
 10
4607.163086
 20
2118.485352
 40
60.000000
 41
0.840000
  1
長サ  ４ ｍ
 50
0.000000
 51
0.000000
  7
EASYDRAW_FONT
 72
     5
 11
4943.163086
 21
2118.485352
  0
TEXT
  8
CSLAYER1
 62
     3
 10
4776.122559
 20
1737.477051
 40
60.000000
 41
0.847059
  1
１２３　Ｋｇ
 50
0.000000
 51
0.000000
  7
EASYDRAW_FONT
 72
     5
 11
5064.122559
 21
1737.477051
  0
TEXT
  8
CSLAYER1
 62
     3
 10
4782.464844
 20
2598.847656
 40
60.000000
 41
0.900000
  1
350
 50
0.000000
 51
0.000000
  7
EASYDRAW_FONT
 72
     5
 11
4926.464844
 21
2598.847656
  0
TEXT
  8
CSLAYER1
 62
     3
 10
5019.005371
 20
3072.376953
 40
60.000000
 41
0.960000
  1
mm
 50
0.000000
 51
0.000000
  7
EASYDRAW_FONT
 72
     5
 11
5115.005371
 21
3072.376953
  0
TEXT
  8
CSLAYER1
 62
     3
 10
5019.005371
 20
2981.877441
 40
60.000000
 41
0.960000
  1
mm
 50
0.000000
 51
0.000000
  7
EASYDRAW_FONT
 72
     5
 11
5115.005371
 21
2981.877441
  0
TEXT
  8
CSLAYER1
 62
     3
 10
5013.349609
 20
2885.721191
 40
60.000000
 41
0.960000
  1
mm
 50
0.000000
 51
0.000000
  7
EASYDRAW_FONT
 72
     5
 11
5109.349609
 21
2885.721191
  0
TEXT
  8
CSLAYER1
 62
     3
 10
5013.349609
 20
2783.908691
 40
60.000000
 41
0.960000
  1
mm
 50
0.000000
 51
0.000000
  7
EASYDRAW_FONT
 72
     5
 11
5109.349609
 21
2783.908691
  0
TEXT
  8
CSLAYER1
 62
     3
 10
5009.579102
 20
2693.409668
 40
60.000000
 41
0.960000
  1
mm
 50
0.000000
 51
0.000000
  7
EASYDRAW_FONT
 72
     5
 11
5105.579102
 21
2693.409668
  0
TEXT
  8
CSLAYER1
 62
     3
 10
5009.579102
 20
2597.252441
 40
60.000000
 41
0.960000
  1
mm
 50
0.000000
 51
0.000000
  7
EASYDRAW_FONT
 72
     5
 11
5105.579102
 21
2597.252441
  0
LINE
  8
CSLAYER1
  6
CONTINUOUS
 62
     5
 10
4622.934167
 20
3349.945050
 11
4310.355209
 21
3349.945050
  0
LINE
  8
CSLAYER1
  6
CONTINUOUS
 62
     5
 10
4622.934167
 20
3361.945050
 11
4310.355209
 21
3361.945050
  0
TEXT
  8
CSLAYER1
 62
     3
 10
4069.401367
 20
2308.704102
 40
60.000000
 41
1.036364
  1
操作方式
 50
0.000000
 51
0.000000
  7
EASYDRAW_FONT
 72
     5
 11
4297.401367
 21
2308.704102
  0
LINE
  8
CSLAYER1
  6
CONTINUOUS
 62
     5
 10
5128.577536
 20
2005.945084
 11
4047.268760
 21
2005.945084
  0
TEXT
  8
CSLAYER1
 62
     3
 10
4065.403320
 20
2117.899414
 40
60.000000
 41
0.942857
  1
電源コード
 50
0.000000
 51
0.000000
  7
EASYDRAW_FONT
 72
     5
 11
4329.403320
 21
2117.899414
  0
TEXT
  8
CSLAYER2
 62
     5
 10
4385.117836
 20
3262.394909
 40
54.222878
 41
0.682677
  1
    GLI-100-0608W3
 50
0.000000
 51
0.000000
  7
EASYDRAW_FONT
 72
     5
 11
5039.079430
 21
3262.394909
  0
TEXT
  8
CSLAYER1
 62
     3
 10
4411.363281
 20
2308.301758
 40
60.000000
 41
1.020000
  1
フットスイッチ
 50
0.000000
 51
0.000000
  7
EASYDRAW_FONT
 72
     5
 11
4819.363281
 21
2308.301758
  0
TEXT
  8
CSLAYER1
 62
     4
 10
4066.046179
 20
2014.217484
 40
71.595306
 41
0.593339
  1
昇降時間 ２８秒（50HZ） ２４秒(60HZ)
 50
0.000000
 51
0.000000
  7
EASYDRAW_FONT
 72
     5
 11
5071.413782
 21
2014.217484
  0
TEXT
  8
CSLAYER1
 62
     4
 10
4067.997559
 20
1826.052734
 40
60.000000
 41
0.912766
  1
上昇端、下降端リミットスイッチ付
 50
0.000000
 51
0.000000
  7
EASYDRAW_FONT
 72
     5
 11
4925.997559
 21
1826.052734
  0
TEXT
  8
CSLAYER1
 62
     4
 10
4070.767442
 20
1923.048172
 40
68.819672
 41
0.605080
  1
最大使用頻度８０回／時間・最大起動頻度１０回／分
 50
0.000000
 51
0.000000
  7
EASYDRAW_FONT
 72
     5
 11
5056.280409
 21
1923.048172
  0
LINE
  8
CSLAYER1
  6
CONTINUOUS
 62
     5
 10
5128.577536
 20
2389.945074
 11
4047.268760
 21
2389.945074
  0
TEXT
  8
CSLAYER1
 62
     3
 10
4299.550293
 20
2404.562012
 40
60.000000
 41
0.825000
  1
マグネットスイッチ制御
 50
0.000000
 51
0.000000
  7
EASYDRAW_FONT
 72
     5
 11
4827.550293
 21
2404.562012
  0
TEXT
  8
CSLAYER1
 62
     3
 10
4067.430664
 20
2404.562012
 40
60.000000
 41
0.872727
  1
制御方式
 50
0.000000
 51
0.000000
  7
EASYDRAW_FONT
 72
     5
 11
4259.430664
 21
2404.562012
  0
ARC
  8
CSLAYER1
  6
CONTINUOUS
 62
     7
 10
2068.953272
 20
1184.202305
 40
16.000000
 50
40.170329
 51
190.170329
  0
LINE
  8
CSLAYER1
  6
CONTINUOUS
 62
     7
 10
2530.402612
 20
1706.023982
 11
2340.541146
 21
1481.117132
  0
LINE
  8
CSLAYER1
  6
CONTINUOUS
 62
     7
 10
2053.204677
 20
1187.027505
 11
2065.615640
 21
1256.210282
  0
LINE
  8
CSLAYER1
  6
CONTINUOUS
 62
     7
 10
2530.402612
 20
1706.023982
 11
2542.813575
 21
1775.206760
  0
POINT
  8
CSLAYER1
 62
     7
 10
2068.953272
 20
1184.202305
  0
LINE
  8
CSLAYER1
  6
CENTER
 62
     5
 10
2527.064980
 20
1778.031960
 11
2068.953272
 21
1184.202305
  0
POINT
  8
CSLAYER1
 62
     7
 10
2298.009126
 20
1481.117132
  0
LINE
  8
CSLAYER1
  6
CONTINUOUS
 62
     7
 10
2065.615640
 20
1256.210282
 11
2255.477106
 21
1481.117132
  0
LINE
  8
CSLAYER1
  6
CONTINUOUS
 62
     7
 10
2065.615640
 20
1112.194327
 11
2484.599595
 21
615.872649
  0
LINE
  8
CSLAYER1
  6
CONTINUOUS
 62
     7
 10
2530.402612
 20
662.380627
 11
2081.179355
 21
1194.523298
  0
LINE
  8
CSLAYER1
  6
CONTINUOUS
 62
     7
 10
2053.204677
 20
1181.377104
 11
2065.615640
 21
1112.194327
  0
LINE
  8
CSLAYER1
  6
CONTINUOUS
 62
     7
 10
2530.402612
 20
662.380627
 11
2538.745856
 21
615.872649
  0
POINT
  8
CSLAYER1
 62
     7
 10
2527.064980
 20
590.372649
  0
LINE
  8
CSLAYER1
  6
CENTER
 62
     5
 10
2527.064980
 20
590.372649
 11
2068.953272
 21
1184.202305
  0
POINT
  8
CSLAYER1
 62
     7
 10
2298.009126
 20
887.287477
  0
CIRCLE
  8
CSLAYER1
  6
DASHED
 62
     5
 10
2527.064980
 20
590.372649
 40
9.000000
  0
CIRCLE
  8
CSLAYER1
  6
DASHED
 62
     5
 10
2527.064980
 20
590.372649
 40
18.500000
  0
POINT
  8
CSLAYER1
 62
     4
 10
2527.064980
 20
590.372649
  0
POINT
  8
CSLAYER1
 62
     3
 10
2068.953272
 20
590.372649
  0
LINE
  8
CSLAYER1
  6
CONTINUOUS
 62
     3
 10
2040.953272
 20
615.872649
 11
2040.953272
 21
565.872649
  0
LINE
  8
CSLAYER1
  6
CONTINUOUS
 62
     3
 10
2040.953272
 20
615.872649
 11
2839.953272
 21
615.872649
  0
LINE
  8
CSLAYER1
  6
CONTINUOUS
 62
     3
 10
2839.953272
 20
615.872649
 11
2839.953272
 21
565.872649
  0
LINE
  8
CSLAYER1
  6
CENTER
 62
     5
 10
2500.724453
 20
590.372649
 11
2550.928384
 21
590.372649
  0
LINE
  8
CSLAYER1
  6
CENTER
 62
     5
 10
2527.064980
 20
613.727371
 11
2527.064980
 21
568.440320
  0
LINE
  8
CSLAYER1
  6
CONTINUOUS
 62
     3
 10
2047.453272
 20
736.872649
 11
2066.453272
 21
736.872649
  0
LINE
  8
CSLAYER1
  6
CONTINUOUS
 62
     3
 10
2047.453272
 20
746.872649
 11
2066.453272
 21
746.872649
  0
LINE
  8
CSLAYER1
  6
CONTINUOUS
 62
     3
 10
2045.983617
 20
746.024143
 11
2045.983617
 21
737.721155
  0
LINE
  8
CSLAYER1
  6
CONTINUOUS
 62
     3
 10
2051.468444
 20
746.024143
 11
2051.468444
 21
737.721155
  0
LINE
  8
CSLAYER1
  6
CONTINUOUS
 62
     3
 10
2047.453272
 20
746.872649
 11
2045.983617
 21
746.024143
  0
ARC
  8
CSLAYER1
  6
CONTINUOUS
 62
     3
 10
2056.953272
 20
728.721155
 40
18.151494
 50
72.412046
 51
107.587954
  0
ARC
  8
CSLAYER1
  6
CONTINUOUS
 62
     3
 10
2048.726030
 20
742.030256
 40
4.844787
 50
55.524449
 51
115.524449
  0
LINE
  8
CSLAYER1
  6
CONTINUOUS
 62
     3
 10
2067.922927
 20
746.024143
 11
2067.922927
 21
737.721155
  0
LINE
  8
CSLAYER1
  6
CONTINUOUS
 62
     3
 10
2062.438099
 20
746.024143
 11
2062.438099
 21
737.721155
  0
LINE
  8
CSLAYER1
  6
CONTINUOUS
 62
     3
 10
2066.453272
 20
746.872649
 11
2067.922927
 21
746.024143
  0
ARC
  8
CSLAYER1
  6
CONTINUOUS
 62
     3
 10
2065.180513
 20
742.030256
 40
4.844787
 50
64.475551
 51
124.475551
  0
LINE
  8
CSLAYER1
  6
CONTINUOUS
 62
     3
 10
2047.453272
 20
736.872649
 11
2045.983617
 21
737.721155
  0
ARC
  8
CSLAYER1
  6
CONTINUOUS
 62
     3
 10
2056.953272
 20
755.024143
 40
18.151494
 50
252.412046
 51
287.587954
  0
ARC
  8
CSLAYER1
  6
CONTINUOUS
 62
     3
 10
2048.726030
 20
741.715041
 40
4.844787
 50
244.475551
 51
304.475551
  0
LINE
  8
CSLAYER1
  6
CONTINUOUS
 62
     3
 10
2066.453272
 20
736.872649
 11
2067.922927
 21
737.721155
  0
ARC
  8
CSLAYER1
  6
CONTINUOUS
 62
     3
 10
2065.180513
 20
741.715041
 40
4.844787
 50
235.524449
 51
295.524449
  0
POINT
  8
CSLAYER1
 62
     3
 10
2056.953272
 20
746.872649
  0
LINE
  8
CSLAYER1
  6
CONTINUOUS
 62
     3
 10
2047.453272
 20
862.672649
 11
2066.453272
 21
862.672649
  0
LINE
  8
CSLAYER1
  6
CONTINUOUS
 62
     3
 10
2045.983617
 20
854.672649
 11
2067.922927
 21
854.672649
  0
LINE
  8
CSLAYER1
  6
CONTINUOUS
 62
     3
 10
2045.983617
 20
861.824143
 11
2045.983617
 21
854.672649
  0
LINE
  8
CSLAYER1
  6
CONTINUOUS
 62
     3
 10
2051.468444
 20
861.824143
 11
2051.468444
 21
854.672649
  0
LINE
  8
CSLAYER1
  6
CONTINUOUS
 62
     3
 10
2047.453272
 20
862.672649
 11
2045.983617
 21
861.824143
  0
ARC
  8
CSLAYER1
  6
CONTINUOUS
 62
     3
 10
2056.953272
 20
844.521155
 40
18.151494
 50
72.412046
 51
107.587954
  0
ARC
  8
CSLAYER1
  6
CONTINUOUS
 62
     3
 10
2048.726030
 20
857.830256
 40
4.844787
 50
55.524449
 51
115.524449
  0
LINE
  8
CSLAYER1
  6
CONTINUOUS
 62
     3
 10
2067.922927
 20
861.824143
 11
2067.922927
 21
854.672649
  0
LINE
  8
CSLAYER1
  6
CONTINUOUS
 62
     3
 10
2062.438099
 20
861.824143
 11
2062.438099
 21
854.672649
  0
LINE
  8
CSLAYER1
  6
CONTINUOUS
 62
     3
 10
2066.453272
 20
862.672649
 11
2067.922927
 21
861.824143
  0
ARC
  8
CSLAYER1
  6
CONTINUOUS
 62
     3
 10
2065.180513
 20
857.830256
 40
4.844787
 50
64.475551
 51
124.475551
  0
LINE
  8
CSLAYER1
  6
CONTINUOUS
 62
     5
 10
2050.953272
 20
854.672649
 11
2051.953272
 21
852.940598
  0
LINE
  8
CSLAYER1
  6
CONTINUOUS
 62
     5
 10
2062.953272
 20
854.672649
 11
2061.953272
 21
852.940598
  0
POINT
  8
CSLAYER1
 62
     3
 10
2056.953272
 20
854.672649
  0
LINE
  8
CSLAYER1
  6
CONTINUOUS
 62
     3
 10
2050.953272
 20
854.672649
 11
2050.953272
 21
746.872649
  0
LINE
  8
CSLAYER1
  6
CONTINUOUS
 62
     5
 10
2051.953272
 20
852.940598
 11
2051.953272
 21
746.872649
  0
LINE
  8
CSLAYER1
  6
CONTINUOUS
 62
     5
 10
2061.953272
 20
852.940598
 11
2061.953272
 21
746.872649
  0
LINE
  8
CSLAYER1
  6
CONTINUOUS
 62
     3
 10
2062.953272
 20
854.672649
 11
2062.953272
 21
746.872649
  0
LINE
  8
CSLAYER1
  6
CENTER
 62
     5
 10
2056.953272
 20
615.872649
 11
2056.953272
 21
863.672649
  0
LINE
  8
CSLAYER1
  6
CONTINUOUS
 62
     3
 10
2046.953272
 20
615.872649
 11
2046.953272
 21
736.872649
  0
LINE
  8
CSLAYER1
  6
CONTINUOUS
 62
     3
 10
2066.953272
 20
615.872649
 11
2066.953272
 21
736.872649
  0
LINE
  8
CSLAYER1
  6
CONTINUOUS
 62
     5
 10
2371.932371
 20
907.460756
 11
2393.396424
 21
882.034782
  0
LINE
  8
CSLAYER1
  6
CONTINUOUS
 62
     5
 10
2395.433739
 20
901.126549
 11
2374.754897
 21
883.669921
  0
POINT
  8
CSLAYER1
 62
     4
 10
2384.833612
 20
892.178153
  0
POINT
  8
CSLAYER1
 62
     5
 10
2384.833612
 20
892.178153
  0
CIRCLE
  8
CSLAYER1
  6
CONTINUOUS
 62
     4
 10
2384.833612
 20
892.178153
 40
10.000000
  0
ARC
  8
CSLAYER1
  6
CONTINUOUS
 62
     4
 10
2387.126003
 20
894.113339
 40
20.000000
 50
40.170329
 51
130.170329
  0
LINE
  8
CSLAYER1
  6
CONTINUOUS
 62
     4
 10
2402.408606
 20
907.014580
 11
2414.805252
 21
892.329712
  0
ARC
  8
CSLAYER1
  6
CONTINUOUS
 62
     4
 10
2399.522649
 20
879.428471
 40
20.000000
 50
-16.488964
 51
40.170329
  0
LINE
  8
CSLAYER1
  6
CONTINUOUS
 62
     4
 10
2418.700137
 20
873.751858
 11
2401.375633
 21
815.223917
  0
LINE
  8
CSLAYER1
  6
CONTINUOUS
 62
     4
 10
2374.224761
 20
909.395943
 11
2343.659554
 21
883.593460
  0
LINE
  8
CSLAYER1
  6
CONTINUOUS
 62
     4
 10
2306.892334
 20
826.381822
 11
2294.666251
 21
816.060829
  0
LINE
  8
CSLAYER1
  6
CONTINUOUS
 62
     4
 10
2294.666251
 20
816.060829
 11
2375.299009
 21
720.544557
  0
LINE
  8
CSLAYER1
  6
CONTINUOUS
 62
     4
 10
2387.525091
 20
730.865550
 11
2375.299009
 21
720.544557
  0
POINT
  8
CSLAYER1
 62
     4
 10
2071.797388
 20
1194.437626
  0
LINE
  8
CSLAYER1
  6
CENTER
 62
     5
 10
2071.797388
 20
1194.437626
 11
2062.742573
 21
1294.026834
  0
POINT
  8
CSLAYER1
 62
     4
 10
2062.742573
 20
1294.026834
  0
ARC
  8
CSLAYER1
  6
CONTINUOUS
 62
     4
 10
2062.742573
 20
1294.026834
 40
20.000000
 50
17.161807
 51
179.076890
  0
LINE
  8
CSLAYER1
  6
CONTINUOUS
 62
     4
 10
2041.369243
 20
1208.955212
 11
2042.745169
 21
1294.349046
  0
LINE
  8
CSLAYER1
  6
CONTINUOUS
 62
     4
 10
2081.852078
 20
1299.928258
 11
2087.388185
 21
1282.001691
  0
ARC
  8
CSLAYER1
  6
CONTINUOUS
 62
     4
 10
2043.368983
 20
1208.922991
 40
2.000000
 50
177.071261
 51
240.119957
  0
ARC
  8
CSLAYER1
  6
CONTINUOUS
 62
     4
 10
2071.797388
 20
1194.437626
 40
30.250000
 50
175.960104
 51
237.231731
  0
LINE
  8
CSLAYER1
  6
CONTINUOUS
 62
     4
 10
2112.800522
 20
1172.583279
 11
2101.774880
 21
1170.126169
  0
LINE
  8
CSLAYER1
  6
CONTINUOUS
 62
     4
 10
2151.504246
 20
1218.431090
 11
2112.800522
 21
1172.583279
  0
LINE
  8
CSLAYER1
  6
CONTINUOUS
 62
     4
 10
2196.907197
 20
1310.970659
 11
2151.504246
 21
1218.431090
  0
POINT
  8
CSLAYER1
 62
     4
 10
2068.953272
 20
1184.202305
  0
ARC
  8
CSLAYER1
  6
CONTINUOUS
 62
     7
 10
2527.064980
 20
1184.202305
 40
16.000000
 50
-139.829671
 51
10.170329
  0
LINE
  8
CSLAYER1
  6
CONTINUOUS
 62
     7
 10
2065.615640
 20
1706.023982
 11
2514.838897
 21
1173.881311
  0
LINE
  8
CSLAYER1
  6
CONTINUOUS
 62
     7
 10
2542.813575
 20
1187.027505
 11
2530.402612
 21
1256.210282
  0
LINE
  8
CSLAYER1
  6
CONTINUOUS
 62
     7
 10
2065.615640
 20
1706.023982
 11
2053.204677
 21
1775.206760
  0
POINT
  8
CSLAYER1
 62
     7
 10
2527.064980
 20
1184.202305
  0
LINE
  8
CSLAYER1
  6
CENTER
 62
     5
 10
2078.210708
 20
1766.031960
 11
2527.064980
 21
1184.202305
  0
LINE
  8
CSLAYER1
  6
CONTINUOUS
 62
     7
 10
2530.402612
 20
1256.210282
 11
2081.179355
 21
1788.352953
  0
LINE
  8
CSLAYER1
  6
CONTINUOUS
 62
     7
 10
2298.009126
 20
836.904728
 11
2111.418657
 21
615.872649
  0
LINE
  8
CSLAYER1
  6
CONTINUOUS
 62
     7
 10
2530.402612
 20
1112.194327
 11
2340.541146
 21
887.287477
  0
LINE
  8
CSLAYER1
  6
CONTINUOUS
 62
     7
 10
2066.953272
 20
663.965164
 11
2255.477106
 21
887.287477
  0
LINE
  8
CSLAYER1
  6
CONTINUOUS
 62
     7
 10
2542.813575
 20
1181.377104
 11
2530.402612
 21
1112.194327
  0
POINT
  8
CSLAYER1
 62
     7
 10
2068.953272
 20
590.372649
  0
LINE
  8
CSLAYER1
  6
CENTER
 62
     5
 10
2068.953272
 20
590.372649
 11
2527.064980
 21
1184.202305
  0
CIRCLE
  8
CSLAYER1
  6
CONTINUOUS
 62
     5
 10
2068.953272
 20
1184.202305
 40
9.000000
  0
CIRCLE
  8
CSLAYER1
  6
CONTINUOUS
 62
     5
 10
2527.064980
 20
1184.202305
 40
9.000000
  0
LINE
  8
CSLAYER1
  6
CONTINUOUS
 62
     4
 10
2075.450582
 20
1315.746790
 11
2095.138940
 21
1291.183111
  0
LINE
  8
CSLAYER1
  6
CONTINUOUS
 62
     4
 10
2073.707550
 20
1314.349710
 11
2093.670427
 21
1289.443534
  0
LINE
  8
CSLAYER1
  6
CONTINUOUS
 62
     4
 10
2038.777013
 20
1286.352074
 11
2042.540657
 21
1281.656460
  0
LINE
  8
CSLAYER1
  6
CONTINUOUS
 62
     4
 10
2040.520045
 20
1287.749155
 11
2042.597073
 21
1285.157804
  0
CIRCLE
  8
CSLAYER1
  6
CONTINUOUS
 62
     4
 10
2062.742573
 20
1294.026834
 40
12.500000
  0
LINE
  8
CSLAYER1
  6
CONTINUOUS
 62
     4
 10
2194.478923
 20
1163.806419
 11
2151.089640
 21
1217.939954
  0
LINE
  8
CSLAYER1
  6
CONTINUOUS
 62
     4
 10
2161.160596
 20
1137.101007
 11
2123.018783
 21
1184.687667
  0
LINE
  8
CSLAYER1
  6
CONTINUOUS
 62
     4
 10
2404.549363
 20
935.534688
 11
2393.211562
 21
949.680007
  0
LINE
  8
CSLAYER1
  6
CENTER
 62
     5
 10
2396.094728
 20
901.204199
 11
2373.572496
 21
883.152107
  0
LINE
  8
CSLAYER1
  6
CENTER
 62
     5
 10
2564.954426
 20
667.455007
 11
2047.732505
 21
1312.753763
  0
LINE
  8
CSLAYER1
  6
CENTER
 62
     5
 10
2449.845446
 20
884.557573
 11
2404.511868
 21
941.116857
  0
LINE
  8
CSLAYER1
  6
CONTINUOUS
 62
     4
 10
2445.886656
 20
903.947853
 11
2437.756203
 21
914.091606
  0
LINE
  8
CSLAYER1
  6
CONTINUOUS
 62
     4
 10
2443.608368
 20
918.782252
 11
2413.110392
 21
894.337417
  0
LINE
  8
CSLAYER1
  6
CONTINUOUS
 62
     4
 10
2472.624825
 20
868.989730
 11
2445.106367
 21
903.322433
  0
LINE
  8
CSLAYER1
  6
CONTINUOUS
 62
     4
 10
2445.886656
 20
903.947853
 11
2419.267637
 21
882.612091
  0
LINE
  8
CSLAYER1
  6
CONTINUOUS
 62
     4
 10
2463.243533
 20
880.694061
 11
2407.538909
 21
836.045512
  0
LINE
  8
CSLAYER1
  6
CONTINUOUS
 62
     4
 10
2446.093422
 20
901.550427
 11
2434.076976
 21
891.918967
  0
LINE
  8
CSLAYER1
  6
CONTINUOUS
 62
     4
 10
2446.093422
 20
901.550427
 11
2444.842583
 21
903.111004
  0
LINE
  8
CSLAYER1
  6
CONTINUOUS
 62
     4
 10
2449.222303
 20
895.728047
 11
2439.078550
 21
887.597593
  0
LINE
  8
CSLAYER1
  6
CONTINUOUS
 62
     4
 10
2449.222303
 20
895.728047
 11
2449.643833
 21
896.809941
  0
LINE
  8
CSLAYER1
  6
CONTINUOUS
 62
     4
 10
2445.941698
 20
901.428816
 11
2449.643833
 21
896.809941
  0
ARC
  8
CSLAYER1
  6
CONTINUOUS
 62
     4
 10
2446.492682
 20
897.741188
 40
3.285875
 50
273.748601
 51
333.399479
  0
ARC
  8
CSLAYER1
  6
CONTINUOUS
 62
     4
 10
2436.383064
 20
901.353572
 40
12.419443
 50
291.125030
 51
326.300938
  0
LINE
  8
CSLAYER1
  6
CONTINUOUS
 62
     4
 10
2443.013449
 20
899.081756
 11
2446.715584
 21
894.462882
  0
LINE
  8
CSLAYER1
  6
CONTINUOUS
 62
     4
 10
2448.914347
 20
890.995694
 11
2443.764442
 21
886.867925
  0
LINE
  8
CSLAYER1
  6
CONTINUOUS
 62
     4
 10
2449.022756
 20
891.979690
 11
2447.271581
 21
894.164498
  0
LINE
  8
CSLAYER1
  6
CONTINUOUS
 62
     4
 10
2448.914347
 20
890.995694
 11
2446.725379
 21
893.726704
  0
LINE
  8
CSLAYER1
  6
CONTINUOUS
 62
     4
 10
2449.022756
 20
891.979690
 11
2448.914347
 21
890.995694
  0
LINE
  8
CSLAYER1
  6
CONTINUOUS
 62
     4
 10
2449.022756
 20
891.979690
 11
2442.780446
 21
886.976334
  0
LINE
  8
CSLAYER1
  6
CONTINUOUS
 62
     4
 10
2434.076976
 20
891.918967
 11
2432.826137
 21
893.479544
  0
LINE
  8
CSLAYER1
  6
CONTINUOUS
 62
     4
 10
2439.078550
 20
887.597593
 11
2437.930836
 21
887.421702
  0
LINE
  8
CSLAYER1
  6
CONTINUOUS
 62
     4
 10
2434.228701
 20
892.040577
 11
2437.930836
 21
887.421702
  0
ARC
  8
CSLAYER1
  6
CONTINUOUS
 62
     4
 10
2437.707934
 20
890.700009
 40
3.285875
 50
284.026489
 51
343.677367
  0
LINE
  8
CSLAYER1
  6
CONTINUOUS
 62
     4
 10
2437.156950
 20
894.387637
 11
2440.859085
 21
889.768762
  0
LINE
  8
CSLAYER1
  6
CONTINUOUS
 62
     4
 10
2442.780446
 20
886.976334
 11
2441.029271
 21
889.161142
  0
LINE
  8
CSLAYER1
  6
CONTINUOUS
 62
     4
 10
2443.764442
 20
886.867925
 11
2441.575473
 21
889.598936
  0
LINE
  8
CSLAYER1
  6
CONTINUOUS
 62
     4
 10
2442.780446
 20
886.976334
 11
2443.764442
 21
886.867925
  0
LINE
  8
CSLAYER1
  6
CONTINUOUS
 62
     4
 10
2440.076546
 20
899.290914
 11
2438.414945
 21
895.395949
  0
LINE
  8
CSLAYER1
  6
CONTINUOUS
 62
     4
 10
2348.922254
 20
997.981102
 11
2208.213193
 21
1173.533178
  0
LINE
  8
CSLAYER1
  6
CONTINUOUS
 62
     4
 10
2206.807485
 20
1173.688047
 11
2148.832034
 21
1127.219379
  0
LINE
  8
CSLAYER1
  6
CONTINUOUS
 62
     4
 10
2443.608368
 20
918.782252
 11
2423.594944
 21
943.751490
  0
LINE
  8
CSLAYER1
  6
CONTINUOUS
 62
     4
 10
2423.594944
 20
943.751490
 11
2386.609332
 21
914.106664
  0
LINE
  8
CSLAYER1
  6
CONTINUOUS
 62
     4
 10
2298.762856
 20
938.563082
 11
2148.677165
 21
1125.813670
  0
LINE
  8
CSLAYER1
  6
CONTINUOUS
 62
     4
 10
2208.213193
 20
1173.533178
 11
2206.807485
 21
1173.688047
  0
LINE
  8
CSLAYER1
  6
CONTINUOUS
 62
     4
 10
2148.677165
 20
1125.813670
 11
2148.832034
 21
1127.219379
  0
LINE
  8
CSLAYER1
  6
CENTER
 62
     5
 10
2305.142491
 20
1060.269295
 11
2295.938677
 21
1052.892225
  0
LINE
  8
CSLAYER1
  6
CONTINUOUS
 62
     4
 10
2299.363627
 20
1064.608441
 11
2308.119500
 21
1053.684399
  0
LINE
  8
CSLAYER1
  6
CONTINUOUS
 62
     4
 10
2299.363627
 20
1064.608441
 11
2296.710051
 21
1063.122327
  0
LINE
  8
CSLAYER1
  6
CONTINUOUS
 62
     4
 10
2308.119500
 20
1053.684399
 11
2306.091344
 21
1051.417996
  0
LINE
  8
CSLAYER1
  6
CONTINUOUS
 62
     4
 10
2412.322553
 20
941.765080
 11
2402.178799
 21
933.634627
  0
LINE
  8
CSLAYER1
  6
CONTINUOUS
 62
     4
 10
2413.470266
 20
941.940971
 11
2416.546982
 21
938.102385
  0
LINE
  8
CSLAYER1
  6
CONTINUOUS
 62
     4
 10
2410.542017
 20
939.593912
 11
2413.618733
 21
935.755325
  0
LINE
  8
CSLAYER1
  6
CONTINUOUS
 62
     4
 10
2412.322553
 20
941.765080
 11
2413.470266
 21
941.940971
  0
ARC
  8
CSLAYER1
  6
CONTINUOUS
 62
     4
 10
2413.672837
 20
938.688031
 40
3.259241
 50
103.147085
 51
164.084602
  0
ARC
  8
CSLAYER1
  6
CONTINUOUS
 62
     4
 10
2415.018038
 20
928.009102
 40
12.419443
 50
111.125030
 51
146.300938
  0
LINE
  8
CSLAYER1
  6
CONTINUOUS
 62
     4
 10
2401.757269
 20
932.552732
 11
2404.833985
 21
928.714146
  0
LINE
  8
CSLAYER1
  6
CONTINUOUS
 62
     4
 10
2404.685518
 20
934.899792
 11
2407.762234
 21
931.061206
  0
LINE
  8
CSLAYER1
  6
CONTINUOUS
 62
     4
 10
2402.178799
 20
933.634627
 11
2401.757269
 21
932.552732
  0
ARC
  8
CSLAYER1
  6
CONTINUOUS
 62
     4
 10
2404.888089
 20
931.646852
 40
3.259241
 50
93.341366
 51
154.278882
  0
LINE
  8
CSLAYER1
  6
CONTINUOUS
 62
     4
 10
2608.328970
 20
712.473325
 11
2532.342288
 21
651.568237
  0
LINE
  8
CSLAYER1
  6
CONTINUOUS
 62
     4
 10
2485.437011
 20
862.598494
 11
2411.446876
 21
803.293685
  0
LINE
  8
CSLAYER1
  6
CONTINUOUS
 62
     4
 10
2608.328970
 20
712.473325
 11
2572.054639
 21
757.730070
  0
LINE
  8
CSLAYER1
  6
CONTINUOUS
 62
     4
 10
2570.494062
 20
756.479231
 11
2480.433655
 21
868.840804
  0
LINE
  8
CSLAYER1
  6
CONTINUOUS
 62
     4
 10
2608.328970
 20
712.473325
 11
2599.287129
 21
694.973465
  0
LINE
  8
CSLAYER1
  6
CONTINUOUS
 62
     4
 10
2533.950327
 20
642.604502
 11
2599.287129
 21
694.973465
  0
LINE
  8
CSLAYER1
  6
CONTINUOUS
 62
     4
 10
2477.622238
 20
869.150542
 11
2404.994168
 21
810.937459
  0
ARC
  8
CSLAYER1
  6
CONTINUOUS
 62
     4
 10
2474.965691
 20
870.865989
 40
3.000000
 50
218.712984
 51
308.712984
  0
LINE
  8
CSLAYER1
  6
CONTINUOUS
 62
     4
 10
2536.941648
 20
729.586192
 11
2451.884596
 21
835.705456
  0
LINE
  8
CSLAYER1
  6
CONTINUOUS
 62
     4
 10
2543.183957
 20
734.589548
 11
2458.126906
 21
840.708812
  0
LINE
  8
CSLAYER1
  6
CONTINUOUS
 62
     4
 10
2548.645978
 20
738.967485
 11
2463.588927
 21
845.086748
  0
LINE
  8
CSLAYER1
  6
CONTINUOUS
 62
     4
 10
2564.251752
 20
751.475875
 11
2479.194701
 21
857.595138
  0
LINE
  8
CSLAYER1
  6
CONTINUOUS
 62
     4
 10
2565.812330
 20
752.726714
 11
2480.755278
 21
858.845977
  0
LINE
  8
CSLAYER1
  6
CONTINUOUS
 62
     4
 10
2498.707501
 20
698.940637
 11
2413.650450
 21
805.059901
  0
LINE
  8
CSLAYER1
  6
CONTINUOUS
 62
     4
 10
2504.169522
 20
703.318574
 11
2419.112471
 21
809.437837
  0
LINE
  8
CSLAYER1
  6
CONTINUOUS
 62
     4
 10
2510.411832
 20
708.321930
 11
2425.354781
 21
814.441193
  0
ARC
  8
CSLAYER1
  6
CONTINUOUS
 62
     4
 10
2478.873077
 20
867.589965
 40
2.000000
 50
38.712984
 51
128.712984
  0
LINE
  8
CSLAYER1
  6
CONTINUOUS
 62
     4
 10
2054.364959
 20
1318.069828
 11
2041.100051
 21
1307.437697
  0
LINE
  8
CSLAYER1
  6
CONTINUOUS
 62
     4
 10
2054.364959
 20
1318.069828
 11
2075.450582
 21
1315.746790
  0
LINE
  8
CSLAYER1
  6
CONTINUOUS
 62
     4
 10
2075.450582
 20
1315.746790
 11
2073.707550
 21
1314.349710
  0
LINE
  8
CSLAYER1
  6
CONTINUOUS
 62
     4
 10
2073.707550
 20
1314.349710
 11
2056.473521
 21
1317.837524
  0
LINE
  8
CSLAYER1
  6
CONTINUOUS
 62
     4
 10
2056.473521
 20
1317.837524
 11
2040.867747
 21
1305.329135
  0
LINE
  8
CSLAYER1
  6
CONTINUOUS
 62
     4
 10
2041.100051
 20
1307.437697
 11
2038.777013
 21
1286.352074
  0
LINE
  8
CSLAYER1
  6
CONTINUOUS
 62
     4
 10
2038.777013
 20
1286.352074
 11
2040.520045
 21
1287.749155
  0
LINE
  8
CSLAYER1
  6
CONTINUOUS
 62
     4
 10
2040.520045
 20
1287.749155
 11
2040.867747
 21
1305.329135
  0
LINE
  8
CSLAYER1
  6
CONTINUOUS
 62
     3
 10
2128.753272
 20
628.555065
 11
2128.753272
 21
615.872649
  0
LINE
  8
CSLAYER1
  6
CONTINUOUS
 62
     3
 10
2261.153272
 20
659.172649
 11
2261.153272
 21
615.872649
  0
LINE
  8
CSLAYER1
  6
CONTINUOUS
 62
     3
 10
2262.453272
 20
665.172649
 11
2199.953272
 21
665.172649
  0
LINE
  8
CSLAYER1
  6
CONTINUOUS
 62
     3
 10
2262.453272
 20
659.172649
 11
2207.791298
 21
659.172649
  0
LINE
  8
CSLAYER1
  6
CONTINUOUS
 62
     3
 10
2262.453272
 20
665.172649
 11
2262.453272
 21
659.172649
  0
LINE
  8
CSLAYER1
  6
CONTINUOUS
 62
     3
 10
2262.303272
 20
654.672649
 11
2261.153272
 21
654.672649
  0
LINE
  8
CSLAYER1
  6
CONTINUOUS
 62
     3
 10
2263.303272
 20
653.672649
 11
2263.303272
 21
634.672649
  0
ARC
  8
CSLAYER1
  6
CONTINUOUS
 62
     3
 10
2262.303272
 20
653.672649
 40
1.000000
 50
0.000000
 51
90.000000
  0
ARC
  8
CSLAYER1
  6
CONTINUOUS
 62
     3
 10
2262.303272
 20
634.672649
 40
1.000000
 50
270.000000
 51
360.000000
  0
ARC
  8
CSLAYER1
  6
CONTINUOUS
 62
     3
 10
2263.303272
 20
612.022514
 40
28.654497
 50
17.068130
 51
90.000000
  0
ARC
  8
CSLAYER1
  6
CONTINUOUS
 62
     3
 10
2263.303272
 20
612.022514
 40
35.653641
 50
17.069547
 51
90.000000
  0
LINE
  8
CSLAYER1
  6
CONTINUOUS
 62
     3
 10
2297.386340
 20
622.488008
 11
2299.417642
 21
615.872649
  0
LINE
  8
CSLAYER1
  6
CONTINUOUS
 62
     3
 10
2290.695722
 20
620.432856
 11
2292.095849
 21
615.872649
  0
LINE
  8
CSLAYER1
  6
CONTINUOUS
 62
     3
 10
2262.303272
 20
633.672649
 11
2261.153272
 21
633.672649
  0
LINE
  8
CSLAYER1
  6
CONTINUOUS
 62
     4
 10
2367.347590
 20
903.590384
 11
2370.250369
 21
900.151798
  0
LINE
  8
CSLAYER1
  6
CONTINUOUS
 62
     4
 10
2370.250369
 20
900.151798
 11
2346.562333
 21
880.154874
  0
LINE
  8
CSLAYER1
  6
CONTINUOUS
 62
     7
 10
2206.953272
 20
636.872649
 11
2156.476281
 21
636.872649
  0
LINE
  8
CSLAYER1
  6
CONTINUOUS
 62
     7
 10
2206.953272
 20
636.872649
 11
2206.953272
 21
615.872649
  0
LINE
  8
CSLAYER1
  6
CONTINUOUS
 62
     3
 10
2127.725947
 20
635.190003
 11
2127.814455
 21
633.953008
  0
LINE
  8
CSLAYER1
  6
CONTINUOUS
 62
     3
 10
2129.952091
 20
632.100845
 11
2153.990637
 21
633.820821
  0
CIRCLE
  8
CSLAYER1
  6
CONTINUOUS
 62
     3
 10
2133.756163
 20
636.383255
 40
2.250000
  0
CIRCLE
  8
CSLAYER1
  6
CONTINUOUS
 62
     3
 10
2151.638896
 20
638.665335
 40
1.000000
  0
LINE
  8
CSLAYER1
  6
CONTINUOUS
 62
     3
 10
2127.814455
 20
633.953008
 11
2129.952091
 21
632.100845
  0
LINE
  8
CSLAYER1
  6
CONTINUOUS
 62
     3
 10
2153.696569
 20
665.954386
 11
2154.991085
 21
647.862108
  0
LINE
  8
CSLAYER1
  6
CONTINUOUS
 62
     3
 10
2154.443992
 20
634.344051
 11
2153.990637
 21
633.820821
  0
LINE
  8
CSLAYER1
  6
CONTINUOUS
 62
     3
 10
2160.420901
 20
673.919922
 11
2156.293161
 21
635.152813
  0
LINE
  8
CSLAYER1
  6
CONTINUOUS
 62
     3
 10
2159.270099
 20
672.556700
 11
2156.622243
 21
647.688430
  0
LINE
  8
CSLAYER1
  6
CONTINUOUS
 62
     3
 10
2155.192905
 20
634.264310
 11
2148.232250
 21
635.005448
  0
LINE
  8
CSLAYER1
  6
CONTINUOUS
 62
     3
 10
2156.622243
 20
647.688430
 11
2149.661588
 21
648.429568
  0
LINE
  8
CSLAYER1
  6
CONTINUOUS
 62
     3
 10
2149.661588
 20
648.429568
 11
2148.232250
 21
635.005448
  0
ARC
  8
CSLAYER1
  6
CONTINUOUS
 62
     3
 10
2155.298782
 20
635.258690
 40
1.000000
 50
263.922313
 51
353.922313
  0
LINE
  8
CSLAYER1
  6
CONTINUOUS
 62
     3
 10
2157.416319
 20
655.146275
 11
2154.447278
 21
655.462404
  0
LINE
  8
CSLAYER1
  6
CONTINUOUS
 62
     3
 10
2157.522196
 20
656.140654
 11
2154.374771
 21
656.475777
  0
CIRCLE
  8
CSLAYER1
  6
CONTINUOUS
 62
     3
 10
2140.953272
 20
626.872649
 40
3.500000
  0
LINE
  8
CSLAYER1
  6
CONTINUOUS
 62
     3
 10
2127.818369
 20
635.299485
 11
2128.271041
 21
628.972895
  0
LINE
  8
CSLAYER1
  6
CONTINUOUS
 62
     3
 10
2150.923905
 20
662.669932
 11
2151.960326
 21
648.184809
  0
LINE
  8
CSLAYER1
  6
CONTINUOUS
 62
     3
 10
2138.959225
 20
619.712078
 11
2143.946475
 21
620.068919
  0
CIRCLE
  8
CSLAYER1
  6
CONTINUOUS
 62
     3
 10
2133.756163
 20
636.383255
 40
2.000000
  0
CIRCLE
  8
CSLAYER1
  6
CONTINUOUS
 62
     3
 10
2140.953272
 20
626.872649
 40
3.000000
  0
LINE
  8
CSLAYER1
  6
CONTINUOUS
 62
     3
 10
2153.207292
 20
630.757103
 11
2143.946475
 21
620.068919
  0
LINE
  8
CSLAYER1
  6
CONTINUOUS
 62
     3
 10
2128.271041
 20
628.972895
 11
2138.959225
 21
619.712078
  0
LINE
  8
CSLAYER1
  6
CONTINUOUS
 62
     3
 10
2152.993187
 20
633.749453
 11
2153.207292
 21
630.757103
  0
LINE
  8
CSLAYER1
  6
CONTINUOUS
 62
     2
 10
2113.006206
 20
617.196992
 11
2112.757069
 21
616.228523
  0
LINE
  8
CSLAYER1
  6
CONTINUOUS
 62
     7
 10
2298.009126
 20
1531.499881
 11
2506.126140
 21
1778.031960
  0
LINE
  8
CSLAYER1
  6
CONTINUOUS
 62
     7
 10
2298.009126
 20
1430.734383
 11
2089.892112
 21
1184.202305
  0
LINE
  8
CSLAYER1
  6
CONTINUOUS
 62
     7
 10
2298.009126
 20
937.670226
 11
2506.126140
 21
1184.202305
  0
LINE
  8
CSLAYER1
  6
CONTINUOUS
 62
     4
 10
2499.203703
 20
699.338354
 11
2572.054639
 21
757.730070
  0
POINT
  8
CSLAYER1
 62
     5
 10
2151.638896
 20
638.665335
  0
POINT
  8
CSLAYER1
 62
     5
 10
2140.953272
 20
626.872649
  0
LINE
  8
CSLAYER1
  6
CONTINUOUS
 62
     3
 10
2158.483880
 20
665.172649
 11
2153.752503
 21
665.172649
  0
LINE
  8
CSLAYER1
  6
CONTINUOUS
 62
     3
 10
2157.845028
 20
659.172649
 11
2154.181807
 21
659.172649
  0
POINT
  8
CSLAYER1
 62
     5
 10
2133.756163
 20
636.383255
  0
LINE
  8
CSLAYER1
  6
CENTER
 62
     5
 10
2048.449132
 20
590.372649
 11
2090.129979
 21
590.372649
  0
LINE
  8
CSLAYER1
  6
CENTER
 62
     5
 10
2068.953272
 20
607.523217
 11
2068.953272
 21
573.722331
  0
LINE
  8
CSLAYER1
  6
CENTER
 62
     5
 10
2062.742573
 20
1314.026834
 11
2062.742573
 21
1270.766253
  0
LINE
  8
CSLAYER1
  6
CENTER
 62
     5
 10
2036.389825
 20
1294.026834
 11
2087.773067
 21
1294.026834
  0
LINE
  8
CSLAYER1
  6
CONTINUOUS
 62
     3
 10
2178.115246
 20
659.172649
 11
2158.850681
 21
659.172649
  0
LINE
  8
CSLAYER1
  6
CONTINUOUS
 62
     3
 10
2185.953272
 20
665.172649
 11
2159.489533
 21
665.172649
  0
LINE
  8
CSLAYER1
  6
CONTINUOUS
 62
     7
 10
2201.453272
 20
664.872649
 11
2184.453272
 21
664.872649
  0
LINE
  8
CSLAYER1
  6
CONTINUOUS
 62
     7
 10
2204.453272
 20
641.872649
 11
2181.453272
 21
641.872649
  0
LINE
  8
CSLAYER1
  6
CONTINUOUS
 62
     7
 10
2205.953272
 20
661.763554
 11
2179.953272
 21
661.763554
  0
LINE
  8
CSLAYER1
  6
CONTINUOUS
 62
     7
 10
2205.953272
 20
645.414740
 11
2179.953272
 21
645.414740
  0
ARC
  8
CSLAYER1
  6
CONTINUOUS
 62
     7
 10
2201.453272
 20
661.872649
 40
3.000000
 50
0.000000
 51
90.000000
  0
LINE
  8
CSLAYER1
  6
CONTINUOUS
 62
     7
 10
2204.453272
 20
641.872649
 11
2205.943653
 21
641.012177
  0
ARC
  8
CSLAYER1
  6
CONTINUOUS
 62
     7
 10
2192.953272
 20
615.826624
 40
26.046025
 50
75.231439
 51
104.768561
  0
ARC
  8
CSLAYER1
  6
CONTINUOUS
 62
     7
 10
2202.768226
 20
635.741055
 40
6.153702
 50
66.825356
 51
121.065581
  0
LINE
  8
CSLAYER1
  6
CONTINUOUS
 62
     7
 10
2199.592800
 20
641.012177
 11
2199.592800
 21
636.872649
  0
LINE
  8
CSLAYER1
  6
CONTINUOUS
 62
     7
 10
2205.943653
 20
641.012177
 11
2205.943653
 21
636.872649
  0
LINE
  8
CSLAYER1
  6
CONTINUOUS
 62
     7
 10
2203.289396
 20
645.414740
 11
2203.289396
 21
641.872649
  0
LINE
  8
CSLAYER1
  6
CONTINUOUS
 62
     7
 10
2202.643018
 20
645.414740
 11
2202.643018
 21
643.808378
  0
LINE
  8
CSLAYER1
  6
CONTINUOUS
 62
     7
 10
2203.289396
 20
643.808378
 11
2182.617148
 21
643.808378
  0
LINE
  8
CSLAYER1
  6
CONTINUOUS
 62
     7
 10
2202.643018
 20
643.808378
 11
2203.289396
 21
642.673526
  0
LINE
  8
CSLAYER1
  6
CONTINUOUS
 62
     7
 10
2181.453272
 20
641.872649
 11
2179.962891
 21
641.012177
  0
ARC
  8
CSLAYER1
  6
CONTINUOUS
 62
     7
 10
2183.138317
 20
635.741055
 40
6.153702
 50
58.934419
 51
113.174644
  0
LINE
  8
CSLAYER1
  6
CONTINUOUS
 62
     7
 10
2186.313744
 20
641.012177
 11
2186.313744
 21
636.872649
  0
LINE
  8
CSLAYER1
  6
CONTINUOUS
 62
     7
 10
2179.962891
 20
641.012177
 11
2179.962891
 21
636.872649
  0
LINE
  8
CSLAYER1
  6
CONTINUOUS
 62
     7
 10
2182.617148
 20
645.414740
 11
2182.617148
 21
641.872649
  0
LINE
  8
CSLAYER1
  6
CONTINUOUS
 62
     7
 10
2183.263525
 20
645.414740
 11
2183.263525
 21
643.808378
  0
LINE
  8
CSLAYER1
  6
CONTINUOUS
 62
     7
 10
2183.263525
 20
643.808378
 11
2182.617148
 21
642.673526
  0
LINE
  8
CSLAYER1
  6
CENTER
 62
     5
 10
2192.953272
 20
712.457246
 11
2192.953272
 21
619.999355
  0
LINE
  8
CSLAYER1
  6
CONTINUOUS
 62
     7
 10
2207.791298
 20
660.702369
 11
2207.791298
 21
646.475925
  0
LINE
  8
CSLAYER1
  6
CONTINUOUS
 62
     7
 10
2200.458825
 20
660.702369
 11
2200.458825
 21
646.475925
  0
LINE
  8
CSLAYER1
  6
CONTINUOUS
 62
     7
 10
2205.953272
 20
661.763554
 11
2207.791298
 21
660.702369
  0
ARC
  8
CSLAYER1
  6
CONTINUOUS
 62
     7
 10
2204.125061
 20
654.901963
 40
6.861924
 50
62.295563
 51
121.731450
  0
ARC
  8
CSLAYER1
  6
CONTINUOUS
 62
     7
 10
2192.953272
 20
634.690300
 40
27.073254
 50
73.904971
 51
106.095029
  0
LINE
  8
CSLAYER1
  6
CONTINUOUS
 62
     7
 10
2205.953272
 20
645.414740
 11
2207.791298
 21
646.475925
  0
ARC
  8
CSLAYER1
  6
CONTINUOUS
 62
     7
 10
2204.125061
 20
652.276331
 40
6.861924
 50
238.268550
 51
297.704437
  0
ARC
  8
CSLAYER1
  6
CONTINUOUS
 62
     7
 10
2192.953272
 20
672.487994
 40
27.073254
 50
253.904971
 51
286.095029
  0
LINE
  8
CSLAYER1
  6
CONTINUOUS
 62
     7
 10
2178.115246
 20
660.702369
 11
2178.115246
 21
646.475925
  0
LINE
  8
CSLAYER1
  6
CONTINUOUS
 62
     7
 10
2185.447718
 20
660.702369
 11
2185.447718
 21
646.475925
  0
LINE
  8
CSLAYER1
  6
CONTINUOUS
 62
     7
 10
2179.953272
 20
661.763554
 11
2178.115246
 21
660.702369
  0
ARC
  8
CSLAYER1
  6
CONTINUOUS
 62
     7
 10
2181.781482
 20
654.901963
 40
6.861924
 50
58.268550
 51
117.704437
  0
LINE
  8
CSLAYER1
  6
CONTINUOUS
 62
     7
 10
2179.953272
 20
645.414740
 11
2178.115246
 21
646.475925
  0
ARC
  8
CSLAYER1
  6
CONTINUOUS
 62
     7
 10
2181.781482
 20
652.276331
 40
6.861924
 50
242.295563
 51
301.731450
  0
ARC
  8
CSLAYER1
  6
CONTINUOUS
 62
     7
 10
2184.453272
 20
661.872649
 40
3.000000
 50
90.000000
 51
180.000000
  0
LINE
  8
CSLAYER1
  6
CONTINUOUS
 62
     7
 10
2199.953272
 20
720.749334
 11
2199.953272
 21
664.872649
  0
LINE
  8
CSLAYER1
  6
CONTINUOUS
 62
     7
 10
2185.953272
 20
704.165159
 11
2185.953272
 21
664.872649
  0
POINT
  8
CSLAYER1
 62
     3
 10
2068.953272
 20
880.672649
  0
LINE
  8
CSLAYER1
  6
PHANTOM
 62
     5
 10
2044.953272
 20
870.872649
 11
2044.953272
 21
863.672649
  0
LINE
  8
CSLAYER1
  6
PHANTOM
 62
     5
 10
2069.953272
 20
868.672649
 11
2082.953272
 21
868.672649
  0
LINE
  8
CSLAYER1
  6
PHANTOM
 62
     5
 10
2082.953272
 20
870.872649
 11
2082.953272
 21
868.672649
  0
LINE
  8
CSLAYER1
  6
PHANTOM
 62
     5
 10
2045.953272
 20
862.672649
 11
2068.953272
 21
862.672649
  0
LINE
  8
CSLAYER1
  6
PHANTOM
 62
     5
 10
2044.953272
 20
863.672649
 11
2069.953272
 21
863.672649
  0
LINE
  8
CSLAYER1
  6
PHANTOM
 62
     5
 10
2069.953272
 20
870.872649
 11
2069.953272
 21
863.672649
  0
LINE
  8
CSLAYER1
  6
PHANTOM
 62
     5
 10
2045.953272
 20
862.672649
 11
2044.953272
 21
863.672649
  0
LINE
  8
CSLAYER1
  6
PHANTOM
 62
     5
 10
2068.953272
 20
862.672649
 11
2069.953272
 21
863.672649
  0
POINT
  8
CSLAYER1
 62
     7
 10
2068.953272
 20
780.672649
  0
LINE
  8
CSLAYER1
  6
CENTER
 62
     5
 10
2047.892378
 20
880.672649
 11
2089.882687
 21
880.672649
  0
LINE
  8
CSLAYER1
  6
CENTER
 62
     5
 10
2068.953272
 20
901.975365
 11
2068.953272
 21
859.171291
  0
LINE
  8
CSLAYER1
  6
PHANTOM
 62
     5
 10
2041.753272
 20
915.872649
 11
2841.753272
 21
915.872649
  0
LINE
  8
CSLAYER1
  6
PHANTOM
 62
     5
 10
2041.753272
 20
870.872649
 11
2841.753272
 21
870.872649
  0
LINE
  8
CSLAYER1
  6
PHANTOM
 62
     5
 10
2841.753272
 20
915.872649
 11
2841.753272
 21
870.872649
  0
LINE
  8
CSLAYER1
  6
PHANTOM
 62
     5
 10
2041.753272
 20
915.872649
 11
2041.753272
 21
870.872649
  0
INSERT
  8
CSLAYER1
  2
BLKF0029
 10
0.0
 20
0.0
 30
0.0
  0
INSERT
  8
CSLAYER1
  2
BLKF0030
 10
0.0
 20
0.0
 30
0.0
  0
INSERT
  8
CSLAYER1
  2
BLKF0031
 10
0.0
 20
0.0
 30
0.0
  0
INSERT
  8
CSLAYER1
  2
BLKF0032
 10
0.0
 20
0.0
 30
0.0
  0
LINE
  8
CSLAYER1
  6
CENTER
 62
     5
 10
2068.953272
 20
590.372649
 11
2812.893105
 21
685.522649
  0
LINE
  8
CSLAYER1
  6
CENTER
 62
     5
 10
2812.893105
 20
590.372649
 11
2068.953272
 21
685.522649
  0
LINE
  8
CSLAYER1
  6
CENTER
 62
     5
 10
2068.953272
 20
880.672649
 11
2812.893105
 21
785.522649
  0
LINE
  8
CSLAYER1
  6
CONTINUOUS
 62
     4
 10
2044.028806
 20
1230.638864
 11
2041.622552
 21
1196.568771
  0
LINE
  8
CSLAYER1
  6
CONTINUOUS
 62
     4
 10
2065.615640
 20
1256.210282
 11
2044.028806
 21
1230.638864
  0
INSERT
  8
CSLAYER1
  2
EASYDRAWDIM0002
 10
0.0
 20
0.0
 30
0.0
  0
LINE
  8
CSLAYER1
  6
CONTINUOUS
 62
     5
 10
2090.953272
 20
583.040020
 11
2090.953272
 21
404.544851
  0
LINE
  8
CSLAYER1
  6
CONTINUOUS
 62
     5
 10
2490.953272
 20
583.040020
 11
2490.953272
 21
404.544851
  0
CIRCLE
  8
CSLAYER1
  6
DASHED
 62
     5
 10
2527.064980
 20
2371.861616
 40
9.000000
  0
ARC
  8
CSLAYER1
  6
DASHED
 62
     5
 10
2527.064980
 20
2371.861616
 40
18.500000
 50
-31.987196
 51
211.987196
  0
POINT
  8
CSLAYER1
 62
     3
 10
2068.953272
 20
2371.861616
  0
POINT
  8
CSLAYER1
 62
     7
 10
2527.064980
 20
1778.031960
  0
POINT
  8
CSLAYER1
 62
     3
 10
2068.953272
 20
1778.031960
  0
LINE
  8
CSLAYER1
  6
CONTINUOUS
 62
     3
 10
2044.953272
 20
2362.061616
 11
2044.953272
 21
2354.861616
  0
LINE
  8
CSLAYER1
  6
CONTINUOUS
 62
     3
 10
2069.953272
 20
2359.861616
 11
2082.953272
 21
2359.861616
  0
LINE
  8
CSLAYER1
  6
CONTINUOUS
 62
     3
 10
2082.953272
 20
2362.061616
 11
2082.953272
 21
2359.861616
  0
LINE
  8
CSLAYER1
  6
CONTINUOUS
 62
     4
 10
2045.953272
 20
2353.861616
 11
2068.953272
 21
2353.861616
  0
LINE
  8
CSLAYER1
  6
CONTINUOUS
 62
     4
 10
2044.953272
 20
2354.861616
 11
2069.953272
 21
2354.861616
  0
LINE
  8
CSLAYER1
  6
CONTINUOUS
 62
     4
 10
2069.953272
 20
2362.061616
 11
2069.953272
 21
2354.861616
  0
LINE
  8
CSLAYER1
  6
CONTINUOUS
 62
     4
 10
2045.953272
 20
2353.861616
 11
2044.953272
 21
2354.861616
  0
LINE
  8
CSLAYER1
  6
CONTINUOUS
 62
     4
 10
2068.953272
 20
2353.861616
 11
2069.953272
 21
2354.861616
  0
POINT
  8
CSLAYER1
 62
     7
 10
2068.953272
 20
1778.031960
  0
LINE
  8
CSLAYER1
  6
CONTINUOUS
 62
     3
 10
2041.753272
 20
2407.061616
 11
2841.753272
 21
2407.061616
  0
LINE
  8
CSLAYER1
  6
CONTINUOUS
 62
     3
 10
2041.753272
 20
2362.061616
 11
2841.753272
 21
2362.061616
  0
LINE
  8
CSLAYER1
  6
CONTINUOUS
 62
     3
 10
2841.753272
 20
2407.061616
 11
2841.753272
 21
2362.061616
  0
LINE
  8
CSLAYER1
  6
CONTINUOUS
 62
     3
 10
2041.753272
 20
2407.061616
 11
2041.753272
 21
2362.061616
  0
ARC
  8
CSLAYER1
  6
CONTINUOUS
 62
     3
 10
2527.064980
 20
2371.861616
 40
18.500000
 50
211.987196
 51
328.012804
  0
LINE
  8
CSLAYER1
  6
CONTINUOUS
 62
     3
 10
2298.009126
 20
2024.564039
 11
2089.892112
 21
1778.031960
  0
ARC
  8
CSLAYER1
  6
CONTINUOUS
 62
     3
 10
2068.953272
 20
1778.031960
 40
16.000000
 50
40.170329
 51
190.170329
  0
LINE
  8
CSLAYER1
  6
CONTINUOUS
 62
     3
 10
2065.615640
 20
1850.039938
 11
2255.477106
 21
2074.946788
  0
LINE
  8
CSLAYER1
  6
CONTINUOUS
 62
     3
 10
2541.173707
 20
2359.895254
 11
2530.402612
 21
2299.853638
  0
LINE
  8
CSLAYER1
  6
CONTINUOUS
 62
     3
 10
2065.615640
 20
1850.039938
 11
2053.204677
 21
1780.857161
  0
POINT
  8
CSLAYER1
 62
     3
 10
2527.064980
 20
2371.861616
  0
LINE
  8
CSLAYER1
  6
CENTER
 62
     5
 10
2068.953272
 20
1778.031960
 11
2527.064980
 21
2371.861616
  0
POINT
  8
CSLAYER1
 62
     3
 10
2298.009126
 20
2074.946788
  0
LINE
  8
CSLAYER1
  6
CONTINUOUS
 62
     3
 10
2530.402612
 20
2299.853638
 11
2340.541146
 21
2074.946788
  0
LINE
  8
CSLAYER1
  6
CONTINUOUS
 62
     3
 10
2065.615640
 20
2299.853638
 11
2514.838897
 21
1767.710967
  0
ARC
  8
CSLAYER1
  6
CONTINUOUS
 62
     3
 10
2527.064980
 20
1778.031960
 40
16.000000
 50
-140.139822
 51
10.170329
  0
LINE
  8
CSLAYER1
  6
CONTINUOUS
 62
     3
 10
2530.402612
 20
1850.039938
 11
2098.165059
 21
2362.061616
  0
LINE
  8
CSLAYER1
  6
CONTINUOUS
 62
     3
 10
2055.926942
 20
2353.861616
 11
2065.615640
 21
2299.853638
  0
LINE
  8
CSLAYER1
  6
CONTINUOUS
 62
     3
 10
2530.402612
 20
1850.039938
 11
2542.813575
 21
1780.857161
  0
POINT
  8
CSLAYER1
 62
     3
 10
2527.064980
 20
1778.031960
  0
LINE
  8
CSLAYER1
  6
CENTER
 62
     5
 10
2527.064980
 20
1778.031960
 11
2068.953272
 21
2371.861616
  0
LINE
  8
CSLAYER1
  6
CONTINUOUS
 62
     3
 10
2298.009126
 20
2125.329537
 11
2497.853193
 21
2362.061616
  0
INSERT
  8
CSLAYER1
  2
BLKF0033
 10
0.0
 20
0.0
 30
0.0
  0
INSERT
  8
CSLAYER1
  2
BLKF0034
 10
0.0
 20
0.0
 30
0.0
  0
INSERT
  8
CSLAYER1
  2
BLKF0035
 10
0.0
 20
0.0
 30
0.0
  0
LINE
  8
CSLAYER1
  6
CENTER
 62
     5
 10
2051.050603
 20
2371.861616
 11
2090.050307
 21
2371.861616
  0
LINE
  8
CSLAYER1
  6
CENTER
 62
     5
 10
2068.953272
 20
2388.037838
 11
2068.953272
 21
2364.009585
  0
LINE
  8
CSLAYER1
  6
CENTER
 62
     5
 10
2527.064980
 20
2394.022817
 11
2527.064980
 21
2349.795048
  0
LINE
  8
CSLAYER1
  6
CENTER
 62
     5
 10
2505.125938
 20
2371.861616
 11
2549.353707
 21
2371.861616
  0
DIMENSION
  8
CSLAYER1
 62
     3
  2
*D0005
 10
3131.845278
 20
2407.061616
 11
3116.845215
 21
1486.467163
 13
2839.953272
 23
565.872649
 14
2841.753272
 24
2407.061616
 50
90.000000
  0
LINE
  8
CSLAYER1
  6
CENTER
 62
     5
 10
2812.893105
 20
785.522649
 11
2068.953272
 21
685.522649
  0
LINE
  8
CSLAYER1
  6
CENTER
 62
     5
 10
2812.893105
 20
685.522649
 11
2068.953272
 21
780.672649
  0
LINE
  8
CSLAYER1
  6
CENTER
 62
     5
 10
2812.893105
 20
880.672649
 11
2068.953272
 21
780.672649
  0
DIMENSION
  8
CSLAYER1
 62
     3
  2
*D0006
 10
2992.872049
 20
915.872649
 11
2977.872070
 21
740.872864
 13
2841.753272
 23
565.872649
 14
2841.753272
 24
915.872649
 50
90.000000
 70
1
  0
DIMENSION
  8
CSLAYER1
 62
     3
  2
*D0007
 10
2992.872049
 20
915.872649
 11
2977.872070
 21
1661.467163
 13
2992.872049
 23
2407.061616
 14
2992.872049
 24
915.872649
 50
90.000000
 70
1
  0
LINE
  8
CSLAYER1
  6
CONTINUOUS
 62
     3
 10
2833.453272
 20
736.872649
 11
2814.453272
 21
736.872649
  0
LINE
  8
CSLAYER1
  6
CONTINUOUS
 62
     3
 10
2833.453272
 20
746.872649
 11
2814.453272
 21
746.872649
  0
LINE
  8
CSLAYER1
  6
CONTINUOUS
 62
     3
 10
2834.922927
 20
746.024143
 11
2834.922927
 21
737.721155
  0
LINE
  8
CSLAYER1
  6
CONTINUOUS
 62
     3
 10
2829.438099
 20
746.024143
 11
2829.438099
 21
737.721155
  0
LINE
  8
CSLAYER1
  6
CONTINUOUS
 62
     3
 10
2833.453272
 20
746.872649
 11
2834.922927
 21
746.024143
  0
ARC
  8
CSLAYER1
  6
CONTINUOUS
 62
     3
 10
2823.953272
 20
728.721155
 40
18.151494
 50
72.412046
 51
107.587954
  0
ARC
  8
CSLAYER1
  6
CONTINUOUS
 62
     3
 10
2832.180513
 20
742.030256
 40
4.844787
 50
64.475551
 51
124.475551
  0
LINE
  8
CSLAYER1
  6
CONTINUOUS
 62
     3
 10
2812.983617
 20
746.024143
 11
2812.983617
 21
737.721155
  0
LINE
  8
CSLAYER1
  6
CONTINUOUS
 62
     3
 10
2818.468444
 20
746.024143
 11
2818.468444
 21
737.721155
  0
LINE
  8
CSLAYER1
  6
CONTINUOUS
 62
     3
 10
2814.453272
 20
746.872649
 11
2812.983617
 21
746.024143
  0
ARC
  8
CSLAYER1
  6
CONTINUOUS
 62
     3
 10
2815.726030
 20
742.030256
 40
4.844787
 50
55.524449
 51
115.524449
  0
LINE
  8
CSLAYER1
  6
CONTINUOUS
 62
     3
 10
2833.453272
 20
736.872649
 11
2834.922927
 21
737.721155
  0
ARC
  8
CSLAYER1
  6
CONTINUOUS
 62
     3
 10
2823.953272
 20
755.024143
 40
18.151494
 50
252.412046
 51
287.587954
  0
ARC
  8
CSLAYER1
  6
CONTINUOUS
 62
     3
 10
2832.180513
 20
741.715041
 40
4.844787
 50
235.524449
 51
295.524449
  0
LINE
  8
CSLAYER1
  6
CONTINUOUS
 62
     3
 10
2814.453272
 20
736.872649
 11
2812.983617
 21
737.721155
  0
ARC
  8
CSLAYER1
  6
CONTINUOUS
 62
     3
 10
2815.726030
 20
741.715041
 40
4.844787
 50
244.475551
 51
304.475551
  0
POINT
  8
CSLAYER1
 62
     3
 10
2823.953272
 20
746.872649
  0
LINE
  8
CSLAYER1
  6
CONTINUOUS
 62
     3
 10
2833.453272
 20
862.672649
 11
2814.453272
 21
862.672649
  0
LINE
  8
CSLAYER1
  6
CONTINUOUS
 62
     3
 10
2834.922927
 20
854.672649
 11
2812.983617
 21
854.672649
  0
LINE
  8
CSLAYER1
  6
CONTINUOUS
 62
     3
 10
2834.922927
 20
861.824143
 11
2834.922927
 21
854.672649
  0
LINE
  8
CSLAYER1
  6
CONTINUOUS
 62
     3
 10
2829.438099
 20
861.824143
 11
2829.438099
 21
854.672649
  0
LINE
  8
CSLAYER1
  6
CONTINUOUS
 62
     3
 10
2833.453272
 20
862.672649
 11
2834.922927
 21
861.824143
  0
ARC
  8
CSLAYER1
  6
CONTINUOUS
 62
     3
 10
2823.953272
 20
844.521155
 40
18.151494
 50
72.412046
 51
107.587954
  0
ARC
  8
CSLAYER1
  6
CONTINUOUS
 62
     3
 10
2832.180513
 20
857.830256
 40
4.844787
 50
64.475551
 51
124.475551
  0
LINE
  8
CSLAYER1
  6
CONTINUOUS
 62
     3
 10
2812.983617
 20
861.824143
 11
2812.983617
 21
854.672649
  0
LINE
  8
CSLAYER1
  6
CONTINUOUS
 62
     3
 10
2818.468444
 20
861.824143
 11
2818.468444
 21
854.672649
  0
LINE
  8
CSLAYER1
  6
CONTINUOUS
 62
     3
 10
2814.453272
 20
862.672649
 11
2812.983617
 21
861.824143
  0
ARC
  8
CSLAYER1
  6
CONTINUOUS
 62
     3
 10
2815.726030
 20
857.830256
 40
4.844787
 50
55.524449
 51
115.524449
  0
LINE
  8
CSLAYER1
  6
CONTINUOUS
 62
     5
 10
2829.953272
 20
854.672649
 11
2828.953272
 21
852.940598
  0
LINE
  8
CSLAYER1
  6
CONTINUOUS
 62
     5
 10
2817.953272
 20
854.672649
 11
2818.953272
 21
852.940598
  0
POINT
  8
CSLAYER1
 62
     3
 10
2823.953272
 20
854.672649
  0
LINE
  8
CSLAYER1
  6
CONTINUOUS
 62
     3
 10
2829.953272
 20
854.672649
 11
2829.953272
 21
746.872649
  0
LINE
  8
CSLAYER1
  6
CONTINUOUS
 62
     5
 10
2828.953272
 20
852.940598
 11
2828.953272
 21
746.872649
  0
LINE
  8
CSLAYER1
  6
CONTINUOUS
 62
     5
 10
2818.953272
 20
852.940598
 11
2818.953272
 21
746.872649
  0
LINE
  8
CSLAYER1
  6
CONTINUOUS
 62
     3
 10
2817.953272
 20
854.672649
 11
2817.953272
 21
746.872649
  0
LINE
  8
CSLAYER1
  6
CENTER
 62
     5
 10
2823.953272
 20
615.872649
 11
2823.953272
 21
863.672649
  0
LINE
  8
CSLAYER1
  6
CONTINUOUS
 62
     3
 10
2833.953272
 20
615.872649
 11
2833.953272
 21
736.872649
  0
LINE
  8
CSLAYER1
  6
CONTINUOUS
 62
     3
 10
2813.953272
 20
615.872649
 11
2813.953272
 21
736.872649
  0
LINE
  8
CSLAYER1
  6
PHANTOM
 62
     5
 10
2835.953272
 20
870.872649
 11
2835.953272
 21
863.672649
  0
LINE
  8
CSLAYER1
  6
PHANTOM
 62
     5
 10
2834.953272
 20
862.672649
 11
2811.953272
 21
862.672649
  0
LINE
  8
CSLAYER1
  6
PHANTOM
 62
     5
 10
2835.953272
 20
863.672649
 11
2810.953272
 21
863.672649
  0
LINE
  8
CSLAYER1
  6
PHANTOM
 62
     5
 10
2810.953272
 20
870.872649
 11
2810.953272
 21
863.672649
  0
LINE
  8
CSLAYER1
  6
PHANTOM
 62
     5
 10
2834.953272
 20
862.672649
 11
2835.953272
 21
863.672649
  0
LINE
  8
CSLAYER1
  6
PHANTOM
 62
     5
 10
2811.953272
 20
862.672649
 11
2810.953272
 21
863.672649
  0
LINE
  8
CSLAYER1
  6
CONTINUOUS
 62
     3
 10
2838.553272
 20
2362.061616
 11
2838.553272
 21
2354.861616
  0
LINE
  8
CSLAYER1
  6
CONTINUOUS
 62
     4
 10
2837.553272
 20
2353.861616
 11
2814.553272
 21
2353.861616
  0
LINE
  8
CSLAYER1
  6
CONTINUOUS
 62
     4
 10
2838.553272
 20
2354.861616
 11
2813.553272
 21
2354.861616
  0
LINE
  8
CSLAYER1
  6
CONTINUOUS
 62
     4
 10
2813.553272
 20
2362.061616
 11
2813.553272
 21
2354.861616
  0
LINE
  8
CSLAYER1
  6
CONTINUOUS
 62
     4
 10
2837.553272
 20
2353.861616
 11
2838.553272
 21
2354.861616
  0
LINE
  8
CSLAYER1
  6
CONTINUOUS
 62
     4
 10
2814.553272
 20
2353.861616
 11
2813.553272
 21
2354.861616
  0
LINE
  8
CSLAYER1
  6
CONTINUOUS
 62
     3
 10
1922.385629
 20
647.972649
 11
2046.953272
 21
647.972649
  0
LINE
  8
CSLAYER1
  6
CONTINUOUS
 62
     3
 10
1922.385629
 20
640.372649
 11
2046.953272
 21
640.372649
  0
INSERT
  8
CSLAYER1
  2
EASYDRAWDIM0003
 10
0.0
 20
0.0
 30
0.0
  0
DIMENSION
  8
CSLAYER1
 62
     3
  2
*D0008
 10
2839.953272
 20
272.774976
 11
2440.453125
 21
287.774719
 13
2040.953272
 23
565.872649
 14
2839.953272
 24
565.872649
 52
270.000000
 70
1
  0
DIMENSION
  8
CSLAYER1
 62
     3
  2
*D0009
 10
2040.953272
 20
419.544851
 11
2098.773438
 21
338.457336
 13
2090.953272
 23
419.544851
 14
2040.953272
 24
419.544851
 52
0.000000
 70
1
  0
DIMENSION
  8
CSLAYER1
 62
     3
  2
*D0010
 10
2090.953272
 20
419.544851
 11
2286.385742
 21
430.546661
 13
2490.953272
 23
419.544851
 14
2090.953272
 24
419.544851
 52
0.000000
 70
1
  0
TEXT
  8
CSLAYER1
 62
     5
 10
2190.314406
 20
371.523853
 40
38.994835
 41
1.022858
  1
取付穴ピッチ
 50
0.000000
 51
0.000000
  7
EASYDRAW_FONT
 72
     5
 11
2416.335985
 21
371.523853
  0
INSERT
  8
CSLAYER1
  2
EASYDRAWDIM0004
 10
0.0
 20
0.0
 30
0.0
  0
LINE
  8
CSLAYER1
  6
CONTINUOUS
 62
     3
 10
723.391628
 20
2362.061616
 11
723.391628
 21
2407.061616
  0
LINE
  8
CSLAYER1
  6
CONTINUOUS
 62
     3
 10
1323.391628
 20
2362.061616
 11
1323.391628
 21
2407.061616
  0
TEXT
  8
CSLAYER1
 62
     3
 10
4542.057617
 20
1637.952148
 40
60.000000
 41
0.926087
  1
　１０Ｒ４／１３
 50
0.000000
 51
0.000000
  7
EASYDRAW_FONT
 72
     5
 11
4968.057617
 21
1637.952148
  0
LINE
  8
CSLAYER1
  6
CONTINUOUS
 62
     5
 10
5128.577536
 20
1621.945094
 11
4384.536043
 21
1621.945094
  0
TEXT
  8
CSLAYER1
 62
     3
 10
4069.401367
 20
3172.704102
 40
60.000000
 41
1.036364
  1
積載荷重
 50
0.000000
 51
0.000000
  7
EASYDRAW_FONT
 72
     5
 11
4297.401367
 21
3172.704102
  0
TEXT
  8
CSLAYER1
 62
     5
 10
958.056966
 20
2942.174513
 40
59.399998
 41
1.020000
  1
コード長サ２ｍ
 50
0.000000
 51
0.000000
  7
EASYDRAW_FONT
 72
     5
 11
1361.976970
 21
2942.174513
  0
LINE
  8
CSLAYER1
  6
CONTINUOUS
 62
     5
 10
1371.004649
 20
3078.921369
 11
1532.126758
 21
2894.932796
  0
LINE
  8
CSLAYER1
  6
CONTINUOUS
 62
     5
 10
1532.126758
 20
2894.932796
 11
1494.728430
 21
2919.960083
  0
LINE
  8
CSLAYER1
  6
CONTINUOUS
 62
     5
 10
1532.126758
 20
2894.932796
 11
1512.252499
 21
2935.306226
  0
INSERT
  8
CSLAYER1
  2
BLKF0036
 10
0.0
 20
0.0
 30
0.0
  0
ENDSEC
  0
EOF
