  0
SECTION
  2
HEADER
  9
$ACADVER
  1
AC1006
  9
$INSBASE
 10
521.840708
 20
5821.977876
 30
0.0
  9
$EXTMIN
 10
521.840708
 20
5821.977876
  9
$EXTMAX
 10
5981.840708
 20
9676.977876
  9
$LIMMIN
 10
521.840708
 20
5821.977876
  9
$LIMMAX
 10
5981.840708
 20
9676.977876
  9
$VIEWCTR
 10
3251.840708
 20
7749.477876
  9
$VIEWSIZE
 40
3855.000000
  9
$SNAPMODE
 70
     0
  9
$SNAPUNIT
 10
1.0
 20
1.0
  9
$SNAPBASE
 10
0.0
 20
0.0
  9
$SNAPANG
 50
0.0
  9
$SNAPSTYLE
 70
     0
  9
$SNAPISOPAIR
 70
     0
  9
$GRIDMODE
 70
     0
  9
$GRIDUNIT
 10
0.0
 20
0.0
  9
$ORTHOMODE
 70
     0
  9
$REGENMODE
 70
     1
  9
$FILLMODE
 70
     1
  9
$QTEXTMODE
 70
     0
  9
$DRAGMODE
 70
     2
  9
$LTSCALE
 40
15.000000
  9
$OSMODE
 70
     0
  9
$ATTMODE
 70
     1
  9
$TEXTSIZE
 40
0.2
  9
$TRACEWID
 40
0.05
  9
$TEXTSTYLE
  7
STANDARD
  9
$CLAYER
  8
CSLAYER1
  9
$CELTYPE
  6
BYLAYER
  9
$CECOLOR
 62
   256
  9
$DIMSCALE
 40
1.0
  9
$DIMASZ
 40
0.18
  9
$DIMEXO
 40
0.0625
  9
$DIMDLI
 40
0.38
  9
$DIMRND
 40
0.0
  9
$DIMDLE
 40
0.0
  9
$DIMEXE
 40
0.18
  9
$DIMTP
 40
0.0
  9
$DIMTM
 40
0.0
  9
$DIMTXT
 40
0.18
  9
$DIMCEN
 40
0.09
  9
$DIMTSZ
 40
0.0
  9
$DIMTOL
 70
     0
  9
$DIMLIM
 70
     0
  9
$DIMTIH
 70
     1
  9
$DIMTOH
 70
     1
  9
$DIMSE1
 70
     0
  9
$DIMSE2
 70
     0
  9
$DIMTAD
 70
     0
  9
$DIMZIN
 70
     0
  9
$DIMBLK
  1

  9
$LUNITS
 70
     2
  9
$LUPREC
 70
     4
  9
$AXISMODE
 70
     0
  9
$AXISUNIT
 10
0.0
 20
0.0
  9
$SKETCHINC
 40
0.1
  9
$FILLETRAD
 40
0.0
  9
$AUNITS
 70
     0
  9
$AUPREC
 70
     0
  9
$MENU
  1
ACAD
  9
$ELEVATION
 40
0.0
  9
$THICKNESS
 40
0.0
  9
$VIEWDIR
 10
0.0
 20
0.0
 30
1.0
  9
$LIMCHECK
 70
     0
  9
$BLIPMODE
 70
     1
  9
$CHAMFERA
 40
0.0
  9
$CHAMFERB
 40
0.0
  9
$FASTZOOM
 70
     1
  9
$SKPOLY
 70
     0
  9
$TDCREATE
 40
2457497.000000
  9
$TDUPDATE
 40
2457497.000000
  9
$TDINDWG
 40
0.0
  9
$TDUSRTIMER
 40
0.0
  9
$USRTIMER
 70
     1
  9
$ANGBASE
 50
0.0
  9
$ANGDIR
 70
     0
  9
$PDMODE
 70
     0
  9
$PDSIZE
 40
0.0
  9
$PLINEWID
 40
0.0
  9
$COORDS
 70
     0
  9
$USERI1
 70
     0
  9
$USERI2
 70
     0
  9
$USERI3
 70
     0
  9
$USERI4
 70
     0
  9
$USERI5
 70
     0
  9
$USERR1
 40
0.0
  9
$USERR2
 40
0.0
  9
$USERR3
 40
0.0
  9
$USERR4
 40
0.0
  9
$USERR5
 40
0.0
  0
ENDSEC
  0
SECTION
  2
TABLES
  0
TABLE
  2
LTYPE
 70
     9
  0
LTYPE
  2
CONTINUOUS
 70
    64
  3
Solid line
 72
    65
 73
     0
 40
0.0
  0
LTYPE
  2
DASHED
 70
    64
  3
__ __ __ __ __ __ __ __ __ __ __ __ __ __ __
 72
    65
 73
     2
 40
0.75
 49
0.5
 49
-0.25
  0
LTYPE
  2
HIDDEN
 70
    64
  3
_ _ _ _ _ _ _ _ _ _ _ _ _ _ _ _ _ _ _ _ _ _ _
 72
    65
 73
     2
 40
0.375
 49
0.25
 49
-0.125
  0
LTYPE
  2
DOT
 70
    64
  3
...............................................
 72
    65
 73
     2
 40
0.25
 49
0.0
 49
-0.25
  0
LTYPE
  2
DASHDOT
 70
    64
  3
__ . __ . __ . __ . __ . __ . __ . __ . __ . __
 72
    65
 73
     4
 40
1.0
 49
0.5
 49
-0.25
 49
0.0
 49
-0.25
  0
LTYPE
  2
DIVIDE
 70
    64
  3
__ . . __ . . __ . . __ . . __ . . __ . . __
 72
    65
 73
     6
 40
1.25
 49
0.5
 49
-0.25
 49
0.0
 49
-0.25
 49
0.0
 49
-0.25
  0
LTYPE
  2
CENTER
 70
    64
  3
____ _ ____ _ ____ _ ____ _ ____ _ ____ _ ____ 
 72
    65
 73
     4
 40
2.0
 49
1.25
 49
-0.25
 49
0.25
 49
-0.25
  0
LTYPE
  2
PHANTOM
 70
    64
  3
______  __  __  ______  __  __  ______  __  __ 
 72
    65
 73
     6
 40
2.5
 49
1.25
 49
-0.25
 49
0.25
 49
-0.25
 49
0.25
 49
-0.25
  0
LTYPE
  2
BORDER
 70
    64
  3
__ __ . __ __ . __ __ . __ __ . __ __ . __ __ .
 72
    65
 73
     6
 40
1.75
 49
0.5
 49
-0.25
 49
0.5
 49
-0.25
 49
0.0
 49
-0.25
  0
ENDTAB
  0
TABLE
  2
LAYER
 70
    16
  0
LAYER
  2
CSLAYER1
 70
    64
 62
     7
  6
CONTINUOUS
  0
LAYER
  2
CSLAYER2
 70
    64
 62
     7
  6
CONTINUOUS
  0
LAYER
  2
CSLAYER3
 70
    64
 62
     7
  6
CONTINUOUS
  0
LAYER
  2
CSLAYER4
 70
    64
 62
     7
  6
CONTINUOUS
  0
LAYER
  2
CSLAYER5
 70
    64
 62
     7
  6
CONTINUOUS
  0
LAYER
  2
CSLAYER6
 70
    64
 62
     7
  6
CONTINUOUS
  0
LAYER
  2
CSLAYER7
 70
    64
 62
     7
  6
CONTINUOUS
  0
LAYER
  2
CSLAYER8
 70
    64
 62
     7
  6
CONTINUOUS
  0
LAYER
  2
CSLAYER9
 70
    64
 62
     7
  6
CONTINUOUS
  0
LAYER
  2
CSLAYER10
 70
    64
 62
     7
  6
CONTINUOUS
  0
LAYER
  2
CSLAYER11
 70
    64
 62
     7
  6
CONTINUOUS
  0
LAYER
  2
CSLAYER12
 70
    64
 62
     7
  6
CONTINUOUS
  0
LAYER
  2
CSLAYER13
 70
    64
 62
     7
  6
CONTINUOUS
  0
LAYER
  2
CSLAYER14
 70
    64
 62
     7
  6
CONTINUOUS
  0
LAYER
  2
CSLAYER15
 70
    64
 62
     7
  6
CONTINUOUS
  0
LAYER
  2
CSLAYER16
 70
    64
 62
     7
  6
CONTINUOUS
  0
ENDTAB
  0
TABLE
  2
STYLE
 70
     1
  0
STYLE
  2
EASYDRAW_FONT
 70
     0
 40
1.0
 41
1.0
 50
0.0
 71
     0
 42
1.0
  3
monotxt
  4
bigfont
  0
ENDTAB
  0
TABLE
  2
VIEW
 70
     0
  0
ENDTAB
  0
ENDSEC
  0
SECTION
  2
BLOCKS
  0
BLOCK
  8
CSLAYER1
  2
EASYDRAWDIM0000
 70
   64
 10
0.0
 20
0.0
 30
0.0
  0
TEXT
  8
CSLAYER1
 62
     3
 10
2725.712891
 20
1125.329834
 40
58.837482
 41
0.648771
  1
ギヤードモーター
 50
0.000000
 51
0.000000
  7
EASYDRAW_FONT
 72
     5
 11
3018.365417
 21
1125.329834
  0
LINE
  8
CSLAYER1
  6
CONTINUOUS
 62
     5
 10
2567.388469
 20
919.834219
 11
2719.449564
 21
1115.303206
  0
LINE
  8
CSLAYER1
  6
CONTINUOUS
 62
     5
 10
2567.388469
 20
919.834219
 11
2584.884866
 21
961.293549
  0
LINE
  8
CSLAYER1
  6
CONTINUOUS
 62
     5
 10
2567.388469
 20
919.834219
 11
2603.270459
 21
946.990854
  0
LINE
  8
CSLAYER1
  6
CONTINUOUS
 62
     5
 10
2719.449564
 20
1115.303206
 11
3009.671385
 21
1115.303206
  0
ENDBLK
  8
0
  0
BLOCK
  8
CSLAYER1
  2
EASYDRAWDIM0001
 70
   64
 10
0.0
 20
0.0
 30
0.0
  0
TEXT
  8
CSLAYER1
 62
     3
 10
1539.107666
 20
1053.818604
 40
60.000000
 41
0.775862
  1
下限アジャストボルト
 50
0.000000
 51
0.000000
  7
EASYDRAW_FONT
 72
     5
 11
1989.107666
 21
1053.818604
  0
LINE
  8
CSLAYER1
  6
CONTINUOUS
 62
     5
 10
1531.614920
 20
1038.818538
 11
2004.107727
 21
1038.818538
  0
ENDBLK
  8
0
  0
BLOCK
  8
CSLAYER1
  2
EASYDRAWDIM0002
 70
   64
 10
0.0
 20
0.0
 30
0.0
  0
TEXT
  8
CSLAYER1
 62
     3
 10
1458.522217
 20
1174.961182
 40
60.000000
 41
0.769737
  1
上限・下限リミットスイッチ
 50
0.000000
 51
0.000000
  7
EASYDRAW_FONT
 72
     5
 11
2043.522217
 21
1174.961182
  0
LINE
  8
CSLAYER1
  6
CONTINUOUS
 62
     5
 10
1207.405125
 20
765.308593
 11
1450.809383
 21
1159.961071
  0
LINE
  8
CSLAYER1
  6
CONTINUOUS
 62
     5
 10
1207.405125
 20
765.308593
 11
1220.309607
 21
808.418619
  0
LINE
  8
CSLAYER1
  6
CONTINUOUS
 62
     5
 10
1207.405125
 20
765.308593
 11
1240.135747
 21
796.190730
  0
LINE
  8
CSLAYER1
  6
CONTINUOUS
 62
     5
 10
1450.809383
 20
1159.961071
 11
2058.522281
 21
1159.961071
  0
ENDBLK
  8
0
  0
BLOCK
  8
CSLAYER1
  2
*D0000
 70
    65
 10
0.0
 20
0.0
 30
0.0
  0
TEXT
  8
CSLAYER1
 62
     3
 10
3041.956543
 20
2977.467041
 40
60.000000
 41
0.843750
  1
500
 50
90.000000
 51
0.000000
  7
EASYDRAW_FONT
 72
     5
 11
3041.956543
 21
3112.467041
  0
LINE
  8
CSLAYER1
  6
CONTINUOUS
 62
     5
 10
2931.266768
 20
2794.967181
 11
3071.956526
 21
2794.967181
  0
LINE
  8
CSLAYER1
  6
CONTINUOUS
 62
     5
 10
2931.266768
 20
3294.967181
 11
3071.956526
 21
3294.967181
  0
LINE
  8
CSLAYER1
  6
CONTINUOUS
 62
     5
 10
3056.956526
 20
2794.967181
 11
3056.956526
 21
3294.967181
  0
LINE
  8
CSLAYER1
  6
CONTINUOUS
 62
     5
 10
3056.956526
 20
2794.967181
 11
3045.309669
 21
2838.433843
  0
LINE
  8
CSLAYER1
  6
CONTINUOUS
 62
     5
 10
3056.956526
 20
2794.967181
 11
3068.603383
 21
2838.433843
  0
LINE
  8
CSLAYER1
  6
CONTINUOUS
 62
     5
 10
3056.956526
 20
3294.967181
 11
3045.309669
 21
3251.500519
  0
LINE
  8
CSLAYER1
  6
CONTINUOUS
 62
     5
 10
3056.956526
 20
3294.967181
 11
3068.603383
 21
3251.500519
  0
ENDBLK
  8
0
  0
BLOCK
  8
CSLAYER1
  2
*D0001
 70
    65
 10
0.0
 20
0.0
 30
0.0
  0
TEXT
  8
CSLAYER1
 62
     3
 10
2448.766846
 20
2672.747314
 40
60.000000
 41
0.843750
  1
800
 50
0.000000
 51
0.000000
  7
EASYDRAW_FONT
 72
     5
 11
2583.766846
 21
2672.747314
  0
LINE
  8
CSLAYER1
  6
CONTINUOUS
 62
     5
 10
2116.266768
 20
2779.967181
 11
2116.266768
 21
2642.747158
  0
LINE
  8
CSLAYER1
  6
CONTINUOUS
 62
     5
 10
2916.266768
 20
2779.967181
 11
2916.266768
 21
2642.747158
  0
LINE
  8
CSLAYER1
  6
CONTINUOUS
 62
     5
 10
2116.266768
 20
2657.747158
 11
2916.266768
 21
2657.747158
  0
LINE
  8
CSLAYER1
  6
CONTINUOUS
 62
     5
 10
2116.266768
 20
2657.747158
 11
2159.733431
 21
2669.394015
  0
LINE
  8
CSLAYER1
  6
CONTINUOUS
 62
     5
 10
2116.266768
 20
2657.747158
 11
2159.733431
 21
2646.100301
  0
LINE
  8
CSLAYER1
  6
CONTINUOUS
 62
     5
 10
2916.266768
 20
2657.747158
 11
2872.800106
 21
2669.394015
  0
LINE
  8
CSLAYER1
  6
CONTINUOUS
 62
     5
 10
2916.266768
 20
2657.747158
 11
2872.800106
 21
2646.100301
  0
ENDBLK
  8
0
  0
BLOCK
  8
CSLAYER1
  2
*D0002
 70
    65
 10
0.0
 20
0.0
 30
0.0
  0
TEXT
  8
CSLAYER1
 62
     3
 10
1030.692993
 20
497.103180
 40
60.000000
 41
0.843750
  1
440
 50
0.000000
 51
0.000000
  7
EASYDRAW_FONT
 72
     5
 11
1165.692993
 21
497.103180
  0
LINE
  8
CSLAYER1
  6
CONTINUOUS
 62
     5
 10
877.905125
 20
486.060360
 11
1317.905125
 21
486.060360
  0
LINE
  8
CSLAYER1
  6
CONTINUOUS
 62
     5
 10
877.905125
 20
486.060360
 11
921.371787
 21
497.707217
  0
LINE
  8
CSLAYER1
  6
CONTINUOUS
 62
     5
 10
877.905125
 20
486.060360
 11
921.371787
 21
474.413503
  0
LINE
  8
CSLAYER1
  6
CONTINUOUS
 62
     5
 10
1317.905125
 20
486.060360
 11
1274.438462
 21
497.707217
  0
LINE
  8
CSLAYER1
  6
CONTINUOUS
 62
     5
 10
1317.905125
 20
486.060360
 11
1274.438462
 21
474.413503
  0
ENDBLK
  8
0
  0
BLOCK
  8
CSLAYER1
  2
*D0003
 70
    65
 10
0.0
 20
0.0
 30
0.0
  0
TEXT
  8
CSLAYER1
 62
     3
 10
1027.088989
 20
345.730133
 40
60.000000
 41
0.843750
  1
500
 50
0.000000
 51
0.000000
  7
EASYDRAW_FONT
 72
     5
 11
1162.088989
 21
345.730133
  0
LINE
  8
CSLAYER1
  6
CONTINUOUS
 62
     5
 10
847.905125
 20
617.388157
 11
847.905125
 21
324.290484
  0
LINE
  8
CSLAYER1
  6
CONTINUOUS
 62
     5
 10
1347.905125
 20
617.388157
 11
1347.905125
 21
324.290484
  0
LINE
  8
CSLAYER1
  6
CONTINUOUS
 62
     5
 10
847.905125
 20
339.290484
 11
1347.905125
 21
339.290484
  0
LINE
  8
CSLAYER1
  6
CONTINUOUS
 62
     5
 10
847.905125
 20
339.290484
 11
891.371787
 21
350.937341
  0
LINE
  8
CSLAYER1
  6
CONTINUOUS
 62
     5
 10
847.905125
 20
339.290484
 11
891.371787
 21
327.643627
  0
LINE
  8
CSLAYER1
  6
CONTINUOUS
 62
     5
 10
1347.905125
 20
339.290484
 11
1304.438462
 21
350.937341
  0
LINE
  8
CSLAYER1
  6
CONTINUOUS
 62
     5
 10
1347.905125
 20
339.290484
 11
1304.438462
 21
327.643627
  0
ENDBLK
  8
0
  0
BLOCK
  8
CSLAYER1
  2
*D0004
 70
    65
 10
0.0
 20
0.0
 30
0.0
  0
TEXT
  8
CSLAYER1
 62
     3
 10
2128.287109
 20
404.972809
 40
60.000000
 41
0.900000
  1
50
 50
0.000000
 51
0.000000
  7
EASYDRAW_FONT
 72
     5
 11
2218.287109
 21
404.972809
  0
LINE
  8
CSLAYER1
  6
CONTINUOUS
 62
     5
 10
2115.466768
 20
617.388157
 11
2115.466768
 21
324.290484
  0
LINE
  8
CSLAYER1
  6
CONTINUOUS
 62
     5
 10
2115.466768
 20
486.060360
 11
2165.466768
 21
486.060360
  0
LINE
  8
CSLAYER1
  6
CONTINUOUS
 62
     5
 10
2115.466768
 20
486.060360
 11
2158.933431
 21
497.707217
  0
LINE
  8
CSLAYER1
  6
CONTINUOUS
 62
     5
 10
2115.466768
 20
486.060360
 11
2158.933431
 21
474.413503
  0
LINE
  8
CSLAYER1
  6
CONTINUOUS
 62
     5
 10
2165.466768
 20
486.060360
 11
2122.000106
 21
497.707217
  0
LINE
  8
CSLAYER1
  6
CONTINUOUS
 62
     5
 10
2165.466768
 20
486.060360
 11
2122.000106
 21
474.413503
  0
ENDBLK
  8
0
  0
BLOCK
  8
CSLAYER1
  2
*D0005
 70
    65
 10
0.0
 20
0.0
 30
0.0
  0
TEXT
  8
CSLAYER1
 62
     3
 10
2293.399414
 20
497.062164
 40
60.000000
 41
0.843750
  1
400
 50
0.000000
 51
0.000000
  7
EASYDRAW_FONT
 72
     5
 11
2428.399414
 21
497.062164
  0
LINE
  8
CSLAYER1
  6
CONTINUOUS
 62
     5
 10
2165.466768
 20
486.060360
 11
2565.466768
 21
486.060360
  0
LINE
  8
CSLAYER1
  6
CONTINUOUS
 62
     5
 10
2165.466768
 20
486.060360
 11
2208.933431
 21
497.707217
  0
LINE
  8
CSLAYER1
  6
CONTINUOUS
 62
     5
 10
2165.466768
 20
486.060360
 11
2208.933431
 21
474.413503
  0
LINE
  8
CSLAYER1
  6
CONTINUOUS
 62
     5
 10
2565.466768
 20
486.060360
 11
2522.000106
 21
497.707217
  0
LINE
  8
CSLAYER1
  6
CONTINUOUS
 62
     5
 10
2565.466768
 20
486.060360
 11
2522.000106
 21
474.413503
  0
ENDBLK
  8
0
  0
BLOCK
  8
CSLAYER1
  2
*D0006
 70
    65
 10
0.0
 20
0.0
 30
0.0
  0
TEXT
  8
CSLAYER1
 62
     3
 10
2447.466797
 20
354.290680
 40
60.000000
 41
0.843750
  1
800
 50
0.000000
 51
0.000000
  7
EASYDRAW_FONT
 72
     5
 11
2582.466797
 21
354.290680
  0
LINE
  8
CSLAYER1
  6
CONTINUOUS
 62
     5
 10
2914.466768
 20
617.388157
 11
2914.466768
 21
324.290484
  0
LINE
  8
CSLAYER1
  6
CONTINUOUS
 62
     5
 10
2115.466768
 20
339.290484
 11
2914.466768
 21
339.290484
  0
LINE
  8
CSLAYER1
  6
CONTINUOUS
 62
     5
 10
2115.466768
 20
339.290484
 11
2158.933431
 21
350.937341
  0
LINE
  8
CSLAYER1
  6
CONTINUOUS
 62
     5
 10
2115.466768
 20
339.290484
 11
2158.933431
 21
327.643627
  0
LINE
  8
CSLAYER1
  6
CONTINUOUS
 62
     5
 10
2914.466768
 20
339.290484
 11
2871.000106
 21
350.937341
  0
LINE
  8
CSLAYER1
  6
CONTINUOUS
 62
     5
 10
2914.466768
 20
339.290484
 11
2871.000106
 21
327.643627
  0
ENDBLK
  8
0
  0
BLOCK
  8
CSLAYER1
  2
*D0007
 70
    65
 10
0.0
 20
0.0
 30
0.0
  0
TEXT
  8
CSLAYER1
 62
     3
 10
1457.769531
 20
652.470825
 40
60.000000
 41
0.843750
  1
4.5
 50
90.000000
 51
0.000000
  7
EASYDRAW_FONT
 72
     5
 11
1457.769531
 21
787.470825
  0
LINE
  8
CSLAYER1
  6
CONTINUOUS
 62
     5
 10
1362.905125
 20
632.388157
 11
1487.342705
 21
632.388157
  0
LINE
  8
CSLAYER1
  6
CONTINUOUS
 62
     5
 10
1358.224735
 20
637.888157
 11
1487.342705
 21
637.888157
  0
LINE
  8
CSLAYER1
  6
CONTINUOUS
 62
     5
 10
1472.342705
 20
632.388157
 11
1472.342705
 21
557.388157
  0
LINE
  8
CSLAYER1
  6
CONTINUOUS
 62
     5
 10
1472.342705
 20
632.388157
 11
1460.695848
 21
588.921495
  0
LINE
  8
CSLAYER1
  6
CONTINUOUS
 62
     5
 10
1472.342705
 20
632.388157
 11
1483.989562
 21
588.921495
  0
LINE
  8
CSLAYER1
  6
CONTINUOUS
 62
     5
 10
1472.342705
 20
637.888157
 11
1472.342705
 21
719.970928
  0
LINE
  8
CSLAYER1
  6
CONTINUOUS
 62
     5
 10
1472.342705
 20
637.888157
 11
1460.695848
 21
681.354819
  0
LINE
  8
CSLAYER1
  6
CONTINUOUS
 62
     5
 10
1472.342705
 20
637.888157
 11
1483.989562
 21
681.354819
  0
LINE
  8
CSLAYER1
  6
CONTINUOUS
 62
     5
 10
1472.342705
 20
632.388157
 11
1472.342705
 21
637.888157
  0
ENDBLK
  8
0
  0
BLOCK
  8
CSLAYER1
  2
EASYDRAWDIM0003
 70
   64
 10
0.0
 20
0.0
 30
0.0
  0
TEXT
  8
CSLAYER1
 62
     3
 10
1504.781128
 20
484.930817
 40
60.000000
 41
0.803571
  1
4-%%c13
 50
0.000000
 51
0.000000
  7
EASYDRAW_FONT
 72
     5
 11
1729.781128
 21
484.930817
  0
LINE
  8
CSLAYER1
  6
CONTINUOUS
 62
     5
 10
2165.466768
 20
632.388157
 11
1953.649664
 21
475.282399
  0
LINE
  8
CSLAYER1
  6
CONTINUOUS
 62
     5
 10
2165.466768
 20
632.388157
 11
2137.493276
 21
597.139275
  0
LINE
  8
CSLAYER1
  6
CONTINUOUS
 62
     5
 10
2165.466768
 20
632.388157
 11
2123.616572
 21
615.848476
  0
LINE
  8
CSLAYER1
  6
CONTINUOUS
 62
     5
 10
1953.649664
 20
475.282399
 11
1484.474529
 21
475.282399
  0
ENDBLK
  8
0
  0
BLOCK
  8
CSLAYER1
  2
EASYDRAWDIM0004
 70
   64
 10
0.0
 20
0.0
 30
0.0
  0
TEXT
  8
CSLAYER1
 62
     3
 10
1500.418289
 20
413.685699
 40
50.470764
 41
0.839416
  1
アンカーボルト取付穴
 50
0.000000
 51
0.000000
  7
EASYDRAW_FONT
 72
     5
 11
1909.956177
 21
413.685699
  0
ENDBLK
  8
0
  0
BLOCK
  8
CSLAYER1
  2
*D0008
 70
    65
 10
0.0
 20
0.0
 30
0.0
  0
TEXT
  8
CSLAYER1
 62
     3
 10
3191.358887
 20
1462.982666
 40
60.000000
 41
0.818182
  1
1800
 50
90.000000
 51
0.000000
  7
EASYDRAW_FONT
 72
     5
 11
3191.358887
 21
1642.982666
  0
LINE
  8
CSLAYER1
  6
CONTINUOUS
 62
     5
 10
2929.466768
 20
632.388157
 11
3221.358774
 21
632.388157
  0
LINE
  8
CSLAYER1
  6
CONTINUOUS
 62
     5
 10
2931.266768
 20
2473.577125
 11
3221.358774
 21
2473.577125
  0
LINE
  8
CSLAYER1
  6
CONTINUOUS
 62
     5
 10
3206.358774
 20
632.388157
 11
3206.358774
 21
2473.577125
  0
LINE
  8
CSLAYER1
  6
CONTINUOUS
 62
     5
 10
3206.358774
 20
632.388157
 11
3194.711917
 21
675.854819
  0
LINE
  8
CSLAYER1
  6
CONTINUOUS
 62
     5
 10
3206.358774
 20
632.388157
 11
3218.005631
 21
675.854819
  0
LINE
  8
CSLAYER1
  6
CONTINUOUS
 62
     5
 10
3206.358774
 20
2473.577125
 11
3194.711917
 21
2430.110462
  0
LINE
  8
CSLAYER1
  6
CONTINUOUS
 62
     5
 10
3206.358774
 20
2473.577125
 11
3218.005631
 21
2430.110462
  0
ENDBLK
  8
0
  0
BLOCK
  8
CSLAYER1
  2
*D0009
 70
    65
 10
0.0
 20
0.0
 30
0.0
  0
TEXT
  8
CSLAYER1
 62
     3
 10
3052.385742
 20
739.888306
 40
60.000000
 41
0.843750
  1
350
 50
90.000000
 51
0.000000
  7
EASYDRAW_FONT
 72
     5
 11
3052.385742
 21
874.888306
  0
LINE
  8
CSLAYER1
  6
CONTINUOUS
 62
     5
 10
2931.266768
 20
982.388157
 11
3082.385546
 21
982.388157
  0
LINE
  8
CSLAYER1
  6
CONTINUOUS
 62
     5
 10
3067.385546
 20
632.388157
 11
3067.385546
 21
982.388157
  0
LINE
  8
CSLAYER1
  6
CONTINUOUS
 62
     5
 10
3067.385546
 20
632.388157
 11
3055.738689
 21
675.854819
  0
LINE
  8
CSLAYER1
  6
CONTINUOUS
 62
     5
 10
3067.385546
 20
632.388157
 11
3079.032403
 21
675.854819
  0
LINE
  8
CSLAYER1
  6
CONTINUOUS
 62
     5
 10
3067.385546
 20
982.388157
 11
3055.738689
 21
938.921495
  0
LINE
  8
CSLAYER1
  6
CONTINUOUS
 62
     5
 10
3067.385546
 20
982.388157
 11
3079.032403
 21
938.921495
  0
ENDBLK
  8
0
  0
BLOCK
  8
CSLAYER1
  2
*D0010
 70
    65
 10
0.0
 20
0.0
 30
0.0
  0
TEXT
  8
CSLAYER1
 62
     3
 10
3052.385742
 20
1637.982666
 40
60.000000
 41
0.818182
  1
1450
 50
90.000000
 51
0.000000
  7
EASYDRAW_FONT
 72
     5
 11
3052.385742
 21
1817.982666
  0
LINE
  8
CSLAYER1
  6
CONTINUOUS
 62
     5
 10
3067.385546
 20
982.388157
 11
3067.385546
 21
2473.577125
  0
LINE
  8
CSLAYER1
  6
CONTINUOUS
 62
     5
 10
3067.385546
 20
982.388157
 11
3055.738689
 21
1025.854819
  0
LINE
  8
CSLAYER1
  6
CONTINUOUS
 62
     5
 10
3067.385546
 20
982.388157
 11
3079.032403
 21
1025.854819
  0
LINE
  8
CSLAYER1
  6
CONTINUOUS
 62
     5
 10
3067.385546
 20
2473.577125
 11
3055.738689
 21
2430.110462
  0
LINE
  8
CSLAYER1
  6
CONTINUOUS
 62
     5
 10
3067.385546
 20
2473.577125
 11
3079.032403
 21
2430.110462
  0
ENDBLK
  8
0
  0
BLOCK
  8
CSLAYER1
  2
BLKF0000
 70
   64
 10
0.0
 20
0.0
 30
0.0
  0
ARC
  8
CSLAYER1
  6
CONTINUOUS
 62
     5
 10
4169.771750
 20
120.742239
 40
5.323837
 50
6.429109
 51
73.182034
  0
ARC
  8
CSLAYER1
  6
CONTINUOUS
 62
     5
 10
4164.580294
 20
119.004650
 40
10.361631
 50
310.517970
 51
330.092764
  0
ARC
  8
CSLAYER1
  6
CONTINUOUS
 62
     5
 10
4164.489320
 20
119.552927
 40
10.722482
 50
-32.205059
 51
9.585194
  0
ARC
  8
CSLAYER1
  6
CONTINUOUS
 62
     5
 10
4169.428412
 20
115.411429
 40
7.151272
 50
180.000000
 51
218.514150
  0
ARC
  8
CSLAYER1
  6
CONTINUOUS
 62
     5
 10
4167.498330
 20
114.395718
 40
5.022423
 50
222.781148
 51
319.406906
  0
ARC
  8
CSLAYER1
  6
CONTINUOUS
 62
     5
 10
4172.096793
 20
116.030557
 40
9.839152
 50
94.574282
 51
183.607718
  0
LINE
  8
CSLAYER1
  6
CONTINUOUS
 62
     5
 10
4192.262653
 20
108.355309
 11
4190.977098
 21
103.797435
  0
LINE
  8
CSLAYER1
  6
CONTINUOUS
 62
     5
 10
4194.950630
 20
138.156795
 11
4191.795178
 21
142.247195
  0
LINE
  8
CSLAYER1
  6
CONTINUOUS
 62
     5
 10
4191.795178
 20
142.247195
 11
4181.665147
 21
147.884063
  0
LINE
  8
CSLAYER1
  6
CONTINUOUS
 62
     5
 10
4181.665147
 20
147.884063
 11
4171.312106
 21
149.088369
  0
LINE
  8
CSLAYER1
  6
CONTINUOUS
 62
     5
 10
4143.878268
 20
129.020359
 11
4147.098310
 21
136.466705
  0
LINE
  8
CSLAYER1
  6
CONTINUOUS
 62
     5
 10
4147.042813
 20
136.338369
 11
4150.318351
 21
140.290504
  0
LINE
  8
CSLAYER1
  6
CONTINUOUS
 62
     5
 10
4150.318351
 20
140.290504
 11
4155.274984
 21
143.838369
  0
LINE
  8
CSLAYER1
  6
CONTINUOUS
 62
     5
 10
4171.312106
 20
149.088369
 11
4169.034843
 21
147.938103
  0
LINE
  8
CSLAYER1
  6
CONTINUOUS
 62
     5
 10
4169.034843
 20
147.938103
 11
4163.802275
 21
147.938103
  0
LINE
  8
CSLAYER1
  6
CONTINUOUS
 62
     5
 10
4163.802275
 20
147.938103
 11
4158.469081
 21
145.019940
  0
LINE
  8
CSLAYER1
  6
CONTINUOUS
 62
     5
 10
4158.469081
 20
145.019940
 11
4155.274984
 21
143.838369
  0
LINE
  8
CSLAYER1
  6
CONTINUOUS
 62
     5
 10
4143.878268
 20
129.020359
 11
4141.601947
 21
117.697454
  0
LINE
  8
CSLAYER1
  6
CONTINUOUS
 62
     5
 10
4141.601947
 20
117.697454
 11
4141.312106
 21
113.838369
  0
LINE
  8
CSLAYER1
  6
CONTINUOUS
 62
     5
 10
4145.376180
 20
102.078696
 11
4141.312106
 21
111.222862
  0
LINE
  8
CSLAYER1
  6
CONTINUOUS
 62
     5
 10
4141.312106
 20
111.222862
 11
4141.312106
 21
113.838369
  0
LINE
  8
CSLAYER1
  6
CONTINUOUS
 62
     5
 10
4190.977098
 20
103.797435
 11
4188.448418
 21
99.292925
  0
LINE
  8
CSLAYER1
  6
CONTINUOUS
 62
     5
 10
4188.448418
 20
99.292925
 11
4186.312106
 21
97.314859
  0
ARC
  8
CSLAYER1
  6
CONTINUOUS
 62
     5
 10
4168.024189
 20
114.643510
 40
25.899940
 50
208.054813
 51
260.640470
  0
ARC
  8
CSLAYER1
  6
CONTINUOUS
 62
     5
 10
4160.234096
 20
133.757214
 40
44.811916
 50
274.579659
 51
305.587364
  0
ARC
  8
CSLAYER1
  6
CONTINUOUS
 62
     5
 10
4176.692620
 20
124.781631
 40
22.632940
 50
313.467013
 51
331.085078
  0
LINE
  8
CSLAYER1
  6
CONTINUOUS
 62
     5
 10
4198.879618
 20
119.108501
 11
4199.325560
 21
124.781631
  0
LINE
  8
CSLAYER1
  6
CONTINUOUS
 62
     5
 10
4199.325560
 20
124.781631
 11
4197.387563
 21
133.945105
  0
LINE
  8
CSLAYER1
  6
CONTINUOUS
 62
     5
 10
4198.879618
 20
119.108501
 11
4196.504106
 21
113.838369
  0
ARC
  8
CSLAYER1
  6
CONTINUOUS
 62
     5
 10
4176.692620
 20
124.781631
 40
22.632940
 50
23.883193
 51
36.225170
  0
LINE
  8
CSLAYER1
  6
CONTINUOUS
 62
     5
 10
4117.312106
 20
166.338369
 11
4118.812106
 21
167.977336
  0
LINE
  8
CSLAYER1
  6
CONTINUOUS
 62
     5
 10
4117.312106
 20
166.338369
 11
4119.677543
 21
164.170820
  0
LINE
  8
CSLAYER1
  6
CONTINUOUS
 62
     5
 10
4121.986362
 20
161.006882
 11
4122.025764
 21
157.754704
  0
LINE
  8
CSLAYER1
  6
CONTINUOUS
 62
     5
 10
4122.025764
 20
157.754704
 11
4122.336861
 21
156.614015
  0
LINE
  8
CSLAYER1
  6
CONTINUOUS
 62
     5
 10
4122.336861
 20
156.614015
 11
4123.218303
 21
155.525175
  0
LINE
  8
CSLAYER1
  6
CONTINUOUS
 62
     5
 10
4123.218303
 20
155.525175
 11
4124.099744
 21
155.628874
  0
LINE
  8
CSLAYER1
  6
CONTINUOUS
 62
     5
 10
4124.099744
 20
155.628874
 11
4125.033035
 21
155.888122
  0
LINE
  8
CSLAYER1
  6
CONTINUOUS
 62
     5
 10
4125.033035
 20
155.888122
 11
4125.655229
 21
155.628874
  0
LINE
  8
CSLAYER1
  6
CONTINUOUS
 62
     5
 10
4125.655229
 20
155.628874
 11
4127.003316
 21
154.954831
  0
LINE
  8
CSLAYER1
  6
CONTINUOUS
 62
     5
 10
4127.003316
 20
154.954831
 11
4128.167393
 21
154.338369
  0
LINE
  8
CSLAYER1
  6
CONTINUOUS
 62
     5
 10
4128.167393
 20
154.338369
 11
4128.921747
 21
154.384486
  0
LINE
  8
CSLAYER1
  6
CONTINUOUS
 62
     5
 10
4128.921747
 20
154.384486
 11
4133.133555
 21
156.554206
  0
LINE
  8
CSLAYER1
  6
CONTINUOUS
 62
     5
 10
4118.812106
 20
167.977336
 11
4119.311384
 21
170.187897
  0
LINE
  8
CSLAYER1
  6
CONTINUOUS
 62
     5
 10
4119.311384
 20
170.187897
 11
4121.491492
 21
170.413425
  0
LINE
  8
CSLAYER1
  6
CONTINUOUS
 62
     5
 10
4123.732129
 20
174.566113
 11
4126.363389
 21
174.801748
  0
LINE
  8
CSLAYER1
  6
CONTINUOUS
 62
     5
 10
4126.363389
 20
174.801748
 11
4131.665180
 21
176.058469
  0
LINE
  8
CSLAYER1
  6
CONTINUOUS
 62
     5
 10
4131.665180
 20
176.058469
 11
4133.812106
 21
176.555928
  0
LINE
  8
CSLAYER1
  6
CONTINUOUS
 62
     5
 10
4123.732129
 20
174.566113
 11
4120.832793
 21
174.804415
  0
LINE
  8
CSLAYER1
  6
CONTINUOUS
 62
     5
 10
4119.728608
 20
173.501384
 11
4119.868896
 21
172.944642
  0
LINE
  8
CSLAYER1
  6
CONTINUOUS
 62
     5
 10
4119.868896
 20
172.944642
 11
4120.606287
 21
172.138120
  0
LINE
  8
CSLAYER1
  6
CONTINUOUS
 62
     5
 10
4120.606287
 20
172.138120
 11
4121.620200
 21
171.377686
  0
LINE
  8
CSLAYER1
  6
CONTINUOUS
 62
     5
 10
4121.620200
 20
171.377686
 11
4121.805187
 21
171.131036
  0
LINE
  8
CSLAYER1
  6
CONTINUOUS
 62
     5
 10
4119.677543
 20
164.170820
 11
4121.986362
 21
161.006882
  0
ARC
  8
CSLAYER1
  6
CONTINUOUS
 62
     5
 10
4186.292157
 20
-91.149610
 40
271.091195
 50
80.438896
 51
96.353582
  0
ARC
  8
CSLAYER1
  6
CONTINUOUS
 62
     5
 10
4148.943787
 20
126.722240
 40
52.080363
 50
81.866516
 51
106.890578
  0
LINE
  8
CSLAYER1
  6
CONTINUOUS
 62
     5
 10
4237.603498
 20
174.988375
 11
4240.974122
 21
173.456273
  0
LINE
  8
CSLAYER1
  6
CONTINUOUS
 62
     5
 10
4246.336478
 20
171.081515
 11
4240.974122
 21
173.456273
  0
LINE
  8
CSLAYER1
  6
CONTINUOUS
 62
     5
 10
4237.603498
 20
174.988375
 11
4231.312106
 21
176.177232
  0
LINE
  8
CSLAYER1
  6
CONTINUOUS
 62
     5
 10
4246.312106
 20
171.092308
 11
4249.119469
 21
168.739593
  0
LINE
  8
CSLAYER1
  6
CONTINUOUS
 62
     5
 10
4221.176990
 20
172.647585
 11
4222.525902
 21
174.826597
  0
LINE
  8
CSLAYER1
  6
CONTINUOUS
 62
     5
 10
4222.525902
 20
174.826597
 11
4229.539300
 21
173.147333
  0
LINE
  8
CSLAYER1
  6
CONTINUOUS
 62
     5
 10
4229.539300
 20
173.147333
 11
4254.652879
 21
166.338369
  0
LINE
  8
CSLAYER1
  6
CONTINUOUS
 62
     5
 10
4259.062106
 20
166.338369
 11
4249.119469
 21
168.739593
  0
LINE
  8
CSLAYER1
  6
CONTINUOUS
 62
     5
 10
4254.652879
 20
166.338369
 11
4259.062106
 21
166.338369
  0
LINE
  8
CSLAYER1
  6
CONTINUOUS
 62
     5
 10
4171.312106
 20
173.035781
 11
4201.312106
 21
173.838369
  0
LINE
  8
CSLAYER1
  6
CONTINUOUS
 62
     5
 10
4201.312106
 20
173.838369
 11
4221.176990
 21
172.647585
  0
LINE
  8
CSLAYER1
  6
CONTINUOUS
 62
     5
 10
4223.581462
 20
169.556865
 11
4201.312106
 21
171.588369
  0
LINE
  8
CSLAYER1
  6
CONTINUOUS
 62
     5
 10
4201.312106
 20
171.588369
 11
4178.738292
 21
172.201347
  0
LINE
  8
CSLAYER1
  6
CONTINUOUS
 62
     5
 10
4178.812106
 20
172.199343
 11
4171.312106
 21
172.342284
  0
LINE
  8
CSLAYER1
  6
CONTINUOUS
 62
     5
 10
4171.312106
 20
173.035781
 11
4171.312106
 21
172.342284
  0
LINE
  8
CSLAYER1
  6
CONTINUOUS
 62
     5
 10
4257.562106
 20
161.088369
 11
4244.298268
 21
164.554363
  0
LINE
  8
CSLAYER1
  6
CONTINUOUS
 62
     5
 10
4223.581462
 20
169.556865
 11
4238.812106
 21
166.598290
  0
LINE
  8
CSLAYER1
  6
CONTINUOUS
 62
     5
 10
4238.812106
 20
166.598290
 11
4244.298268
 21
164.554363
  0
LINE
  8
CSLAYER1
  6
CONTINUOUS
 62
     5
 10
4257.562106
 20
161.088369
 11
4257.123180
 21
159.829711
  0
LINE
  8
CSLAYER1
  6
CONTINUOUS
 62
     5
 10
4271.812106
 20
152.838369
 11
4271.353065
 21
154.681841
  0
LINE
  8
CSLAYER1
  6
CONTINUOUS
 62
     5
 10
4257.123180
 20
159.829711
 11
4271.353065
 21
154.681841
  0
LINE
  8
CSLAYER1
  6
CONTINUOUS
 62
     5
 10
4176.562106
 20
161.088369
 11
4180.196663
 21
161.088369
  0
LINE
  8
CSLAYER1
  6
CONTINUOUS
 62
     5
 10
4210.312106
 20
161.737113
 11
4210.312106
 21
161.088369
  0
LINE
  8
CSLAYER1
  6
CONTINUOUS
 62
     5
 10
4208.812106
 20
162.538774
 11
4206.245187
 21
163.494542
  0
LINE
  8
CSLAYER1
  6
CONTINUOUS
 62
     5
 10
4206.245187
 20
163.494542
 11
4204.580103
 21
163.570227
  0
LINE
  8
CSLAYER1
  6
CONTINUOUS
 62
     5
 10
4204.580103
 20
163.570227
 11
4203.861090
 21
163.191799
  0
LINE
  8
CSLAYER1
  6
CONTINUOUS
 62
     5
 10
4203.861090
 20
163.191799
 11
4203.709718
 21
162.586314
  0
LINE
  8
CSLAYER1
  6
CONTINUOUS
 62
     5
 10
4203.709718
 20
162.586314
 11
4204.390889
 21
162.132200
  0
LINE
  8
CSLAYER1
  6
CONTINUOUS
 62
     5
 10
4204.390889
 20
162.132200
 11
4206.850672
 21
161.905143
  0
LINE
  8
CSLAYER1
  6
CONTINUOUS
 62
     5
 10
4206.850672
 20
161.905143
 11
4210.312106
 21
161.737113
  0
LINE
  8
CSLAYER1
  6
CONTINUOUS
 62
     5
 10
4271.812106
 20
152.838369
 11
4267.348792
 21
154.618242
  0
LINE
  8
CSLAYER1
  6
CONTINUOUS
 62
     5
 10
4267.348792
 20
154.618242
 11
4252.265258
 21
157.382555
  0
LINE
  8
CSLAYER1
  6
CONTINUOUS
 62
     5
 10
4252.265258
 20
157.382555
 11
4244.726588
 21
159.122248
  0
LINE
  8
CSLAYER1
  6
CONTINUOUS
 62
     5
 10
4211.113437
 20
162.588369
 11
4228.761936
 21
162.588369
  0
LINE
  8
CSLAYER1
  6
CONTINUOUS
 62
     5
 10
4208.812106
 20
162.538774
 11
4209.599096
 21
162.076073
  0
LINE
  8
CSLAYER1
  6
CONTINUOUS
 62
     5
 10
4209.599096
 20
162.076073
 11
4210.044314
 21
161.942508
  0
LINE
  8
CSLAYER1
  6
CONTINUOUS
 62
     5
 10
4210.044314
 20
161.942508
 11
4210.312106
 21
161.980263
  0
LINE
  8
CSLAYER1
  6
CONTINUOUS
 62
     5
 10
4210.312106
 20
161.980263
 11
4211.113437
 21
162.588369
  0
LINE
  8
CSLAYER1
  6
CONTINUOUS
 62
     5
 10
4228.761936
 20
162.588369
 11
4235.437340
 21
161.045131
  0
LINE
  8
CSLAYER1
  6
CONTINUOUS
 62
     5
 10
4235.437340
 20
161.045131
 11
4241.667127
 21
159.297408
  0
LINE
  8
CSLAYER1
  6
CONTINUOUS
 62
     5
 10
4241.667127
 20
159.297408
 11
4244.726588
 21
159.122248
  0
LINE
  8
CSLAYER1
  6
CONTINUOUS
 62
     5
 10
4175.062106
 20
159.588369
 11
4175.062106
 21
158.838369
  0
LINE
  8
CSLAYER1
  6
CONTINUOUS
 62
     5
 10
4171.312106
 20
158.838369
 11
4175.062106
 21
158.838369
  0
ARC
  8
CSLAYER1
  6
CONTINUOUS
 62
     5
 10
4176.562106
 20
159.588369
 40
1.500000
 50
90.000000
 51
180.000000
  0
LINE
  8
CSLAYER1
  6
CONTINUOUS
 62
     5
 10
4180.196663
 20
161.088369
 11
4181.242998
 21
160.230375
  0
LINE
  8
CSLAYER1
  6
CONTINUOUS
 62
     5
 10
4182.146550
 20
160.194434
 11
4183.432945
 21
161.088369
  0
LINE
  8
CSLAYER1
  6
CONTINUOUS
 62
     5
 10
4185.800540
 20
161.088369
 11
4188.301228
 21
160.101256
  0
LINE
  8
CSLAYER1
  6
CONTINUOUS
 62
     5
 10
4188.936791
 20
160.141024
 11
4190.667022
 21
161.088369
  0
LINE
  8
CSLAYER1
  6
CONTINUOUS
 62
     5
 10
4183.432945
 20
161.088369
 11
4185.800540
 21
161.088369
  0
LINE
  8
CSLAYER1
  6
CONTINUOUS
 62
     5
 10
4190.667022
 20
161.088369
 11
4210.312106
 21
161.088369
  0
LINE
  8
CSLAYER1
  6
CONTINUOUS
 62
     5
 10
4139.135581
 20
156.425130
 11
4171.312106
 21
158.838369
  0
LINE
  8
CSLAYER1
  6
CONTINUOUS
 62
     5
 10
4133.133555
 20
156.554206
 11
4139.135581
 21
156.425130
  0
ARC
  8
CSLAYER1
  6
CONTINUOUS
 62
     5
 10
4181.718558
 20
160.810325
 40
0.750000
 50
230.648247
 51
304.796026
  0
ARC
  8
CSLAYER1
  6
CONTINUOUS
 62
     5
 10
4188.576603
 20
160.798872
 40
0.750000
 50
248.459024
 51
298.701829
  0
ARC
  8
CSLAYER1
  6
CONTINUOUS
 62
     5
 10
4121.445187
 20
170.861036
 40
0.450000
 50
-84.093859
 51
36.869898
  0
ARC
  8
CSLAYER1
  6
CONTINUOUS
 62
     5
 10
4120.746781
 20
173.757944
 40
1.050000
 50
85.301319
 51
194.142980
  0
LINE
  8
CSLAYER1
  6
CONTINUOUS
 62
     3
 10
4169.034843
 20
147.938103
 11
4181.200586
 21
147.938103
  0
LINE
  8
CSLAYER1
  6
CONTINUOUS
 62
     3
 10
4159.416068
 20
145.538103
 11
4185.881079
 21
145.538103
  0
LINE
  8
CSLAYER1
  6
CONTINUOUS
 62
     3
 10
4154.296660
 20
143.138103
 11
4190.194126
 21
143.138103
  0
LINE
  8
CSLAYER1
  6
CONTINUOUS
 62
     3
 10
4150.943680
 20
140.738103
 11
4192.959335
 21
140.738103
  0
LINE
  8
CSLAYER1
  6
CONTINUOUS
 62
     3
 10
4148.700197
 20
138.338103
 11
4194.810764
 21
138.338103
  0
LINE
  8
CSLAYER1
  6
CONTINUOUS
 62
     3
 10
4146.869725
 20
135.938103
 11
4196.384829
 21
135.938103
  0
LINE
  8
CSLAYER1
  6
CONTINUOUS
 62
     3
 10
4145.831887
 20
133.538103
 11
4197.473641
 21
133.538103
  0
LINE
  8
CSLAYER1
  6
CONTINUOUS
 62
     3
 10
4144.794049
 20
131.138103
 11
4197.981220
 21
131.138103
  0
LINE
  8
CSLAYER1
  6
CONTINUOUS
 62
     3
 10
4143.821524
 20
128.738103
 11
4198.488800
 21
128.738103
  0
LINE
  8
CSLAYER1
  6
CONTINUOUS
 62
     3
 10
4143.339036
 20
126.338103
 11
4198.996379
 21
126.338103
  0
LINE
  8
CSLAYER1
  6
CONTINUOUS
 62
     3
 10
4142.856547
 20
123.938103
 11
4166.241912
 21
123.938103
  0
LINE
  8
CSLAYER1
  6
CONTINUOUS
 62
     3
 10
4142.374059
 20
121.538103
 11
4163.943521
 21
121.538103
  0
LINE
  8
CSLAYER1
  6
CONTINUOUS
 62
     3
 10
4141.891571
 20
119.138103
 11
4162.761266
 21
119.138103
  0
LINE
  8
CSLAYER1
  6
CONTINUOUS
 62
     3
 10
4141.529894
 20
116.738103
 11
4162.283115
 21
116.738103
  0
LINE
  8
CSLAYER1
  6
CONTINUOUS
 62
     3
 10
4141.349639
 20
114.338103
 11
4162.358146
 21
114.338103
  0
LINE
  8
CSLAYER1
  6
CONTINUOUS
 62
     3
 10
4141.312106
 20
111.938103
 11
4163.177277
 21
111.938103
  0
LINE
  8
CSLAYER1
  6
CONTINUOUS
 62
     3
 10
4142.060888
 20
109.538103
 11
4166.222280
 21
109.538103
  0
LINE
  8
CSLAYER1
  6
CONTINUOUS
 62
     3
 10
4143.127555
 20
107.138103
 11
4191.919338
 21
107.138103
  0
LINE
  8
CSLAYER1
  6
CONTINUOUS
 62
     3
 10
4144.194221
 20
104.738103
 11
4191.242415
 21
104.738103
  0
LINE
  8
CSLAYER1
  6
CONTINUOUS
 62
     3
 10
4145.260888
 20
102.338103
 11
4190.157878
 21
102.338103
  0
LINE
  8
CSLAYER1
  6
CONTINUOUS
 62
     3
 10
4146.703826
 20
99.938103
 11
4188.810599
 21
99.938103
  0
LINE
  8
CSLAYER1
  6
CONTINUOUS
 62
     3
 10
4148.576518
 20
97.538103
 11
4186.553209
 21
97.538103
  0
LINE
  8
CSLAYER1
  6
CONTINUOUS
 62
     3
 10
4150.984648
 20
95.138103
 11
4182.964518
 21
95.138103
  0
LINE
  8
CSLAYER1
  6
CONTINUOUS
 62
     3
 10
4154.205361
 20
92.738103
 11
4178.276833
 21
92.738103
  0
LINE
  8
CSLAYER1
  6
CONTINUOUS
 62
     3
 10
4159.076897
 20
90.338103
 11
4171.319610
 21
90.338103
  0
LINE
  8
CSLAYER1
  6
CONTINUOUS
 62
     3
 10
4174.029648
 20
123.938103
 11
4199.259253
 21
123.938103
  0
LINE
  8
CSLAYER1
  6
CONTINUOUS
 62
     3
 10
4175.035764
 20
121.538103
 11
4199.070599
 21
121.538103
  0
LINE
  8
CSLAYER1
  6
CONTINUOUS
 62
     3
 10
4175.203774
 20
119.138103
 11
4198.881945
 21
119.138103
  0
LINE
  8
CSLAYER1
  6
CONTINUOUS
 62
     3
 10
4174.835739
 20
116.738103
 11
4197.811161
 21
116.738103
  0
LINE
  8
CSLAYER1
  6
CONTINUOUS
 62
     3
 10
4173.858270
 20
114.338103
 11
4196.729361
 21
114.338103
  0
LINE
  8
CSLAYER1
  6
CONTINUOUS
 62
     3
 10
4172.158375
 20
111.938103
 11
4195.328439
 21
111.938103
  0
LINE
  8
CSLAYER1
  6
CONTINUOUS
 62
     3
 10
4168.774380
 20
109.538103
 11
4193.422378
 21
109.538103
  0
TEXT
  8
CSLAYER1
 62
     5
 10
4200.069867
 20
120.954866
 40
7.070172
 41
1.951056
  1
M
 50
0.000000
 51
0.000000
  7
EASYDRAW_FONT
 72
     5
 11
4209.266070
 21
120.954866
  0
TEXT
  8
CSLAYER1
 62
     5
 10
4214.546948
 20
120.867460
 40
6.939931
 41
0.778201
  1
T
 50
0.000000
 51
0.000000
  7
EASYDRAW_FONT
 72
     5
 11
4218.147388
 21
120.867460
  0
TEXT
  8
CSLAYER1
 62
     5
 10
4218.695292
 20
120.919658
 40
7.044274
 41
1.055553
  1
E
 50
0.000000
 51
0.000000
  7
EASYDRAW_FONT
 72
     5
 11
4223.652364
 21
120.919658
  0
TEXT
  8
CSLAYER1
 62
     5
 10
4223.369808
 20
123.343425
 40
0.522425
 41
9.375319
  1
-
 50
0.000000
 51
0.000000
  7
EASYDRAW_FONT
 72
     5
 11
4226.635075
 21
123.343425
  0
TEXT
  8
CSLAYER1
 62
     5
 10
4226.090633
 20
120.872638
 40
7.292489
 41
1.298502
  1
H
 50
0.000000
 51
0.000000
  7
EASYDRAW_FONT
 72
     5
 11
4232.403507
 21
120.872638
  0
TEXT
  8
CSLAYER1
 62
     5
 10
4232.204778
 20
120.918206
 40
7.264708
 41
1.269236
  1
A
 50
0.000000
 51
0.000000
  7
EASYDRAW_FONT
 72
     5
 11
4238.351862
 21
120.918206
  0
TEXT
  8
CSLAYER1
 62
     5
 10
4237.764134
 20
120.855916
 40
7.238043
 41
1.490144
  1
N
 50
0.000000
 51
0.000000
  7
EASYDRAW_FONT
 72
     5
 11
4244.954616
 21
120.855916
  0
TEXT
  8
CSLAYER1
 62
     5
 10
4208.951077
 20
120.822056
 40
7.473487
 41
1.177443
  1
A
 50
0.000000
 51
0.000000
  7
EASYDRAW_FONT
 72
     5
 11
4214.817478
 21
120.822056
  0
TEXT
  8
CSLAYER1
 62
     5
 10
4200.620022
 20
110.329197
 40
7.473487
 41
1.177443
  1
A
 50
0.000000
 51
0.000000
  7
EASYDRAW_FONT
 72
     5
 11
4206.486423
 21
110.329197
  0
TEXT
  8
CSLAYER1
 62
     5
 10
4219.797268
 20
110.371678
 40
7.473487
 41
1.177443
  1
A
 50
0.000000
 51
0.000000
  7
EASYDRAW_FONT
 72
     5
 11
4225.663670
 21
110.371678
  0
TEXT
  8
CSLAYER1
 62
     5
 10
4225.437962
 20
110.457173
 40
7.238043
 41
1.490144
  1
N
 50
0.000000
 51
0.000000
  7
EASYDRAW_FONT
 72
     5
 11
4232.628444
 21
110.457173
  0
TEXT
  8
CSLAYER1
 62
     5
 10
4238.791344
 20
110.469766
 40
7.262663
 41
1.184218
  1
E
 50
0.000000
 51
0.000000
  7
EASYDRAW_FONT
 72
     5
 11
4244.525062
 21
110.469766
  0
TEXT
  8
CSLAYER1
 62
     5
 10
4207.041096
 20
110.327210
 40
7.421797
 41
1.093992
  1
D
 50
0.000000
 51
0.000000
  7
EASYDRAW_FONT
 72
     5
 11
4212.454021
 21
110.327210
  0
TEXT
  8
CSLAYER1
 62
     5
 10
4213.645000
 20
110.319133
 40
7.386315
 41
1.228195
  1
V
 50
0.000000
 51
0.000000
  7
EASYDRAW_FONT
 72
     5
 11
4219.692891
 21
110.319133
  0
TEXT
  8
CSLAYER1
 62
     5
 10
4231.982558
 20
110.350231
 40
7.549340
 41
1.481023
  1
C
 50
0.000000
 51
0.000000
  7
EASYDRAW_FONT
 72
     5
 11
4239.436388
 21
110.350231
  0
LINE
  8
CSLAYER1
  6
CONTINUOUS
 62
     5
 10
4217.928111
 20
126.940827
 11
4216.410018
 21
126.940827
  0
LINE
  8
CSLAYER1
  6
CONTINUOUS
 62
     3
 10
4141.575468
 20
178.278734
 11
4216.272208
 21
178.278734
  0
LINE
  8
CSLAYER1
  6
CONTINUOUS
 62
     3
 10
4130.906922
 20
175.878734
 11
4232.891745
 21
175.878734
  0
LINE
  8
CSLAYER1
  6
CONTINUOUS
 62
     3
 10
4119.734315
 20
173.478734
 11
4187.869281
 21
173.478734
  0
LINE
  8
CSLAYER1
  6
CONTINUOUS
 62
     3
 10
4207.311605
 20
173.478734
 11
4221.691511
 21
173.478734
  0
LINE
  8
CSLAYER1
  6
CONTINUOUS
 62
     3
 10
4228.155211
 20
173.478734
 11
4240.924707
 21
173.478734
  0
LINE
  8
CSLAYER1
  6
CONTINUOUS
 62
     3
 10
4121.839024
 20
171.078734
 11
4206.898728
 21
171.078734
  0
LINE
  8
CSLAYER1
  6
CONTINUOUS
 62
     3
 10
4237.168936
 20
171.078734
 11
4246.328303
 21
171.078734
  0
LINE
  8
CSLAYER1
  6
CONTINUOUS
 62
     3
 10
4118.970524
 20
168.678734
 11
4228.102050
 21
168.678734
  0
LINE
  8
CSLAYER1
  6
CONTINUOUS
 62
     3
 10
4246.020884
 20
168.678734
 11
4249.371466
 21
168.678734
  0
LINE
  8
CSLAYER1
  6
CONTINUOUS
 62
     3
 10
4117.377186
 20
166.278734
 11
4239.669834
 21
166.278734
  0
LINE
  8
CSLAYER1
  6
CONTINUOUS
 62
     3
 10
4119.890686
 20
163.878734
 11
4246.883797
 21
163.878734
  0
LINE
  8
CSLAYER1
  6
CONTINUOUS
 62
     3
 10
4121.642038
 20
161.478734
 11
4210.312106
 21
161.478734
  0
LINE
  8
CSLAYER1
  6
CONTINUOUS
 62
     3
 10
4233.561753
 20
161.478734
 11
4256.068238
 21
161.478734
  0
LINE
  8
CSLAYER1
  6
CONTINUOUS
 62
     3
 10
4122.009723
 20
159.078734
 11
4175.062106
 21
159.078734
  0
LINE
  8
CSLAYER1
  6
CONTINUOUS
 62
     3
 10
4244.915147
 20
159.078734
 11
4259.199051
 21
159.078734
  0
LINE
  8
CSLAYER1
  6
CONTINUOUS
 62
     3
 10
4122.319210
 20
156.678734
 11
4142.516971
 21
156.678734
  0
LINE
  8
CSLAYER1
  6
CONTINUOUS
 62
     3
 10
4256.105670
 20
156.678734
 11
4265.833197
 21
156.678734
  0
LINE
  8
CSLAYER1
  6
CONTINUOUS
 62
     3
 10
4268.200161
 20
154.278734
 11
4271.453442
 21
154.278734
  0
ENDBLK
  8
0
  0
BLOCK
  8
CSLAYER1
  2
BLKF0001
 70
   64
 10
0.0
 20
0.0
 30
0.0
  0
LINE
  8
CSLAYER1
  6
CONTINUOUS
 62
     3
 10
1275.905125
 20
953.802985
 11
1275.905125
 21
944.802985
  0
LINE
  8
CSLAYER1
  6
CONTINUOUS
 62
     3
 10
1276.905125
 20
965.802985
 11
1276.905125
 21
941.802985
  0
LINE
  8
CSLAYER1
  6
CONTINUOUS
 62
     3
 10
1292.905125
 20
959.002985
 11
1292.905125
 21
948.602985
  0
LINE
  8
CSLAYER1
  6
CONTINUOUS
 62
     3
 10
1276.905125
 20
945.802985
 11
1275.905125
 21
944.802985
  0
LINE
  8
CSLAYER1
  6
CONTINUOUS
 62
     3
 10
1279.205125
 20
965.802985
 11
1279.205125
 21
941.802985
  0
LINE
  8
CSLAYER1
  6
CONTINUOUS
 62
     3
 10
1276.905125
 20
941.802985
 11
1279.205125
 21
941.802985
  0
LINE
  8
CSLAYER1
  6
CONTINUOUS
 62
     3
 10
1282.205125
 20
964.772640
 11
1282.205125
 21
942.833330
  0
LINE
  8
CSLAYER1
  6
CONTINUOUS
 62
     3
 10
1279.205125
 20
943.052985
 11
1282.205125
 21
943.052985
  0
LINE
  8
CSLAYER1
  6
CONTINUOUS
 62
     3
 10
1292.205125
 20
953.802985
 11
1292.205125
 21
944.302985
  0
LINE
  8
CSLAYER1
  6
CONTINUOUS
 62
     3
 10
1291.356619
 20
942.833330
 11
1282.205125
 21
942.833330
  0
LINE
  8
CSLAYER1
  6
CONTINUOUS
 62
     3
 10
1291.356619
 20
948.318158
 11
1282.205125
 21
948.318158
  0
LINE
  8
CSLAYER1
  6
CONTINUOUS
 62
     3
 10
1292.205125
 20
944.302985
 11
1291.356619
 21
942.833330
  0
ARC
  8
CSLAYER1
  6
CONTINUOUS
 62
     3
 10
1274.053630
 20
953.802985
 40
18.151494
 50
-17.587954
 51
0.000000
  0
ARC
  8
CSLAYER1
  6
CONTINUOUS
 62
     3
 10
1287.351869
 20
945.575744
 40
4.853746
 50
-25.597034
 51
34.402966
  0
LINE
  8
CSLAYER1
  6
CONTINUOUS
 62
     3
 10
1292.205125
 20
953.802985
 11
1292.205125
 21
963.302985
  0
LINE
  8
CSLAYER1
  6
CONTINUOUS
 62
     3
 10
1291.356619
 20
964.772640
 11
1282.205125
 21
964.772640
  0
LINE
  8
CSLAYER1
  6
CONTINUOUS
 62
     3
 10
1291.356619
 20
959.287813
 11
1282.205125
 21
959.287813
  0
LINE
  8
CSLAYER1
  6
CONTINUOUS
 62
     3
 10
1292.205125
 20
963.302985
 11
1291.356619
 21
964.772640
  0
ARC
  8
CSLAYER1
  6
CONTINUOUS
 62
     3
 10
1274.053630
 20
953.802985
 40
18.151494
 50
-0.000000
 51
17.587954
  0
ARC
  8
CSLAYER1
  6
CONTINUOUS
 62
     3
 10
1287.351869
 20
962.030226
 40
4.853746
 50
-34.402966
 51
25.597034
  0
LINE
  8
CSLAYER1
  6
CONTINUOUS
 62
     3
 10
1275.905125
 20
953.802985
 11
1275.905125
 21
962.802985
  0
LINE
  8
CSLAYER1
  6
CONTINUOUS
 62
     3
 10
1276.905125
 20
961.802985
 11
1275.905125
 21
962.802985
  0
LINE
  8
CSLAYER1
  6
CONTINUOUS
 62
     3
 10
1276.905125
 20
965.802985
 11
1279.205125
 21
965.802985
  0
LINE
  8
CSLAYER1
  6
CONTINUOUS
 62
     3
 10
1279.205125
 20
964.552985
 11
1282.205125
 21
964.552985
  0
LINE
  8
CSLAYER1
  6
CONTINUOUS
 62
     3
 10
1292.205125
 20
948.602985
 11
1292.905125
 21
948.602985
  0
LINE
  8
CSLAYER1
  6
CONTINUOUS
 62
     3
 10
1292.905125
 20
948.602985
 11
1292.205125
 21
947.802985
  0
LINE
  8
CSLAYER1
  6
CONTINUOUS
 62
     3
 10
1292.205125
 20
959.002985
 11
1292.905125
 21
959.002985
  0
LINE
  8
CSLAYER1
  6
CONTINUOUS
 62
     3
 10
1292.905125
 20
959.002985
 11
1292.205125
 21
959.802985
  0
POINT
  8
CSLAYER1
 62
     3
 10
1275.905125
 20
953.802985
  0
ENDBLK
  8
0
  0
BLOCK
  8
CSLAYER1
  2
BLKF0002
 70
   64
 10
0.0
 20
0.0
 30
0.0
  0
LINE
  8
CSLAYER1
  6
CONTINUOUS
 62
     3
 10
1275.905125
 20
1547.632641
 11
1275.905125
 21
1538.632641
  0
LINE
  8
CSLAYER1
  6
CONTINUOUS
 62
     3
 10
1276.905125
 20
1559.632641
 11
1276.905125
 21
1535.632641
  0
LINE
  8
CSLAYER1
  6
CONTINUOUS
 62
     3
 10
1292.905125
 20
1552.832641
 11
1292.905125
 21
1542.432641
  0
LINE
  8
CSLAYER1
  6
CONTINUOUS
 62
     3
 10
1276.905125
 20
1539.632641
 11
1275.905125
 21
1538.632641
  0
LINE
  8
CSLAYER1
  6
CONTINUOUS
 62
     3
 10
1279.205125
 20
1559.632641
 11
1279.205125
 21
1535.632641
  0
LINE
  8
CSLAYER1
  6
CONTINUOUS
 62
     3
 10
1276.905125
 20
1535.632641
 11
1279.205125
 21
1535.632641
  0
LINE
  8
CSLAYER1
  6
CONTINUOUS
 62
     3
 10
1282.205125
 20
1558.602296
 11
1282.205125
 21
1536.662986
  0
LINE
  8
CSLAYER1
  6
CONTINUOUS
 62
     3
 10
1279.205125
 20
1536.882641
 11
1282.205125
 21
1536.882641
  0
LINE
  8
CSLAYER1
  6
CONTINUOUS
 62
     3
 10
1292.205125
 20
1547.632641
 11
1292.205125
 21
1538.132641
  0
LINE
  8
CSLAYER1
  6
CONTINUOUS
 62
     3
 10
1291.356619
 20
1536.662986
 11
1282.205125
 21
1536.662986
  0
LINE
  8
CSLAYER1
  6
CONTINUOUS
 62
     3
 10
1291.356619
 20
1542.147813
 11
1282.205125
 21
1542.147813
  0
LINE
  8
CSLAYER1
  6
CONTINUOUS
 62
     3
 10
1292.205125
 20
1538.132641
 11
1291.356619
 21
1536.662986
  0
ARC
  8
CSLAYER1
  6
CONTINUOUS
 62
     3
 10
1274.053630
 20
1547.632641
 40
18.151494
 50
-17.587954
 51
0.000000
  0
ARC
  8
CSLAYER1
  6
CONTINUOUS
 62
     3
 10
1287.351869
 20
1539.405400
 40
4.853746
 50
-25.597034
 51
34.402966
  0
LINE
  8
CSLAYER1
  6
CONTINUOUS
 62
     3
 10
1292.205125
 20
1547.632641
 11
1292.205125
 21
1557.132641
  0
LINE
  8
CSLAYER1
  6
CONTINUOUS
 62
     3
 10
1291.356619
 20
1558.602296
 11
1282.205125
 21
1558.602296
  0
LINE
  8
CSLAYER1
  6
CONTINUOUS
 62
     3
 10
1291.356619
 20
1553.117468
 11
1282.205125
 21
1553.117468
  0
LINE
  8
CSLAYER1
  6
CONTINUOUS
 62
     3
 10
1292.205125
 20
1557.132641
 11
1291.356619
 21
1558.602296
  0
ARC
  8
CSLAYER1
  6
CONTINUOUS
 62
     3
 10
1274.053630
 20
1547.632641
 40
18.151494
 50
-0.000000
 51
17.587954
  0
ARC
  8
CSLAYER1
  6
CONTINUOUS
 62
     3
 10
1287.351869
 20
1555.859882
 40
4.853746
 50
-34.402966
 51
25.597034
  0
LINE
  8
CSLAYER1
  6
CONTINUOUS
 62
     3
 10
1275.905125
 20
1547.632641
 11
1275.905125
 21
1556.632641
  0
LINE
  8
CSLAYER1
  6
CONTINUOUS
 62
     3
 10
1276.905125
 20
1555.632641
 11
1275.905125
 21
1556.632641
  0
LINE
  8
CSLAYER1
  6
CONTINUOUS
 62
     3
 10
1276.905125
 20
1559.632641
 11
1279.205125
 21
1559.632641
  0
LINE
  8
CSLAYER1
  6
CONTINUOUS
 62
     3
 10
1279.205125
 20
1558.382641
 11
1282.205125
 21
1558.382641
  0
LINE
  8
CSLAYER1
  6
CONTINUOUS
 62
     3
 10
1292.205125
 20
1542.432641
 11
1292.905125
 21
1542.432641
  0
LINE
  8
CSLAYER1
  6
CONTINUOUS
 62
     3
 10
1292.905125
 20
1542.432641
 11
1292.205125
 21
1541.632641
  0
LINE
  8
CSLAYER1
  6
CONTINUOUS
 62
     3
 10
1292.205125
 20
1552.832641
 11
1292.905125
 21
1552.832641
  0
LINE
  8
CSLAYER1
  6
CONTINUOUS
 62
     3
 10
1292.905125
 20
1552.832641
 11
1292.205125
 21
1553.632641
  0
POINT
  8
CSLAYER1
 62
     3
 10
1275.905125
 20
1547.632641
  0
ENDBLK
  8
0
  0
BLOCK
  8
CSLAYER1
  2
BLKF0003
 70
   64
 10
0.0
 20
0.0
 30
0.0
  0
LINE
  8
CSLAYER1
  6
CONTINUOUS
 62
     3
 10
1322.405125
 20
803.388157
 11
1341.405125
 21
803.388157
  0
LINE
  8
CSLAYER1
  6
CONTINUOUS
 62
     3
 10
1322.405125
 20
813.388157
 11
1341.405125
 21
813.388157
  0
LINE
  8
CSLAYER1
  6
CONTINUOUS
 62
     3
 10
1320.935469
 20
812.539651
 11
1320.935469
 21
804.236663
  0
LINE
  8
CSLAYER1
  6
CONTINUOUS
 62
     3
 10
1326.420297
 20
812.539651
 11
1326.420297
 21
804.236663
  0
LINE
  8
CSLAYER1
  6
CONTINUOUS
 62
     3
 10
1322.405125
 20
813.388157
 11
1320.935469
 21
812.539651
  0
ARC
  8
CSLAYER1
  6
CONTINUOUS
 62
     3
 10
1331.905125
 20
795.236663
 40
18.151494
 50
90.000000
 51
107.587954
  0
ARC
  8
CSLAYER1
  6
CONTINUOUS
 62
     3
 10
1323.677883
 20
808.545765
 40
4.844787
 50
55.524449
 51
115.524449
  0
LINE
  8
CSLAYER1
  6
CONTINUOUS
 62
     3
 10
1342.874780
 20
812.539651
 11
1342.874780
 21
804.236663
  0
LINE
  8
CSLAYER1
  6
CONTINUOUS
 62
     3
 10
1337.389952
 20
812.539651
 11
1337.389952
 21
804.236663
  0
LINE
  8
CSLAYER1
  6
CONTINUOUS
 62
     3
 10
1341.405125
 20
813.388157
 11
1342.874780
 21
812.539651
  0
ARC
  8
CSLAYER1
  6
CONTINUOUS
 62
     3
 10
1331.905125
 20
795.236663
 40
18.151494
 50
72.412046
 51
90.000000
  0
ARC
  8
CSLAYER1
  6
CONTINUOUS
 62
     3
 10
1340.132366
 20
808.545765
 40
4.844787
 50
64.475551
 51
124.475551
  0
LINE
  8
CSLAYER1
  6
CONTINUOUS
 62
     3
 10
1322.405125
 20
803.388157
 11
1341.405125
 21
803.388157
  0
LINE
  8
CSLAYER1
  6
CONTINUOUS
 62
     3
 10
1322.405125
 20
803.388157
 11
1320.935469
 21
804.236663
  0
ARC
  8
CSLAYER1
  6
CONTINUOUS
 62
     3
 10
1331.905125
 20
821.539651
 40
18.151494
 50
252.412046
 51
270.000000
  0
ARC
  8
CSLAYER1
  6
CONTINUOUS
 62
     3
 10
1323.677883
 20
808.230550
 40
4.844787
 50
244.475551
 51
304.475551
  0
LINE
  8
CSLAYER1
  6
CONTINUOUS
 62
     3
 10
1341.405125
 20
803.388157
 11
1342.874780
 21
804.236663
  0
ARC
  8
CSLAYER1
  6
CONTINUOUS
 62
     3
 10
1331.905125
 20
821.539651
 40
18.151494
 50
270.000000
 51
287.587954
  0
ARC
  8
CSLAYER1
  6
CONTINUOUS
 62
     3
 10
1340.132366
 20
808.230550
 40
4.844787
 50
235.524449
 51
295.524449
  0
POINT
  8
CSLAYER1
 62
     3
 10
1331.905125
 20
813.388157
  0
ENDBLK
  8
0
  0
BLOCK
  8
CSLAYER1
  2
BLKF0004
 70
   64
 10
0.0
 20
0.0
 30
0.0
  0
LINE
  8
CSLAYER1
  6
CONTINUOUS
 62
     3
 10
1263.405125
 20
1532.632641
 11
1266.405125
 21
1532.632641
  0
LINE
  8
CSLAYER1
  6
CONTINUOUS
 62
     3
 10
1263.405125
 20
1532.632641
 11
1263.405125
 21
1562.632641
  0
LINE
  8
CSLAYER1
  6
CONTINUOUS
 62
     3
 10
1266.405125
 20
1532.632641
 11
1266.405125
 21
1562.632641
  0
LINE
  8
CSLAYER1
  6
CONTINUOUS
 62
     3
 10
1263.405125
 20
1562.632641
 11
1266.405125
 21
1562.632641
  0
ENDBLK
  8
0
  0
BLOCK
  8
CSLAYER1
  2
BLKF0005
 70
   64
 10
0.0
 20
0.0
 30
0.0
  0
LINE
  8
CSLAYER1
  6
CONTINUOUS
 62
     3
 10
1263.405125
 20
938.802985
 11
1266.405125
 21
938.802985
  0
LINE
  8
CSLAYER1
  6
CONTINUOUS
 62
     3
 10
1263.405125
 20
938.802985
 11
1263.405125
 21
968.802985
  0
LINE
  8
CSLAYER1
  6
CONTINUOUS
 62
     3
 10
1266.405125
 20
938.802985
 11
1266.405125
 21
968.802985
  0
LINE
  8
CSLAYER1
  6
CONTINUOUS
 62
     3
 10
1263.405125
 20
968.802985
 11
1266.405125
 21
968.802985
  0
ENDBLK
  8
0
  0
BLOCK
  8
CSLAYER1
  2
BLKF0006
 70
   64
 10
0.0
 20
0.0
 30
0.0
  0
LINE
  8
CSLAYER1
  6
CONTINUOUS
 62
     3
 10
1263.405125
 20
1235.717813
 11
1266.405125
 21
1235.717813
  0
LINE
  8
CSLAYER1
  6
CONTINUOUS
 62
     3
 10
1263.405125
 20
1235.717813
 11
1263.405125
 21
1265.717813
  0
LINE
  8
CSLAYER1
  6
CONTINUOUS
 62
     3
 10
1266.405125
 20
1235.717813
 11
1266.405125
 21
1265.717813
  0
LINE
  8
CSLAYER1
  6
CONTINUOUS
 62
     3
 10
1263.405125
 20
1265.717813
 11
1266.405125
 21
1265.717813
  0
ENDBLK
  8
0
  0
BLOCK
  8
CSLAYER1
  2
BLKF0007
 70
   64
 10
0.0
 20
0.0
 30
0.0
  0
LINE
  8
CSLAYER1
  6
CONTINUOUS
 62
     4
 10
1188.905125
 20
974.693661
 11
1188.905125
 21
962.802985
  0
LINE
  8
CSLAYER1
  6
CONTINUOUS
 62
     4
 10
1199.905125
 20
962.802985
 11
1199.905125
 21
972.193661
  0
LINE
  8
CSLAYER1
  6
CONTINUOUS
 62
     4
 10
1205.905125
 20
962.802985
 11
1205.905125
 21
971.693661
  0
LINE
  8
CSLAYER1
  6
CONTINUOUS
 62
     4
 10
1204.905125
 20
972.693661
 11
1200.405125
 21
972.693661
  0
LINE
  8
CSLAYER1
  6
CONTINUOUS
 62
     4
 10
1205.905125
 20
971.693661
 11
1204.905125
 21
972.693661
  0
LINE
  8
CSLAYER1
  6
CONTINUOUS
 62
     4
 10
1200.405125
 20
972.693661
 11
1199.905125
 21
972.193661
  0
LINE
  8
CSLAYER1
  6
CONTINUOUS
 62
     4
 10
1204.905125
 20
972.693661
 11
1204.905125
 21
962.802985
  0
LINE
  8
CSLAYER1
  6
CONTINUOUS
 62
     4
 10
1200.405125
 20
972.693661
 11
1200.405125
 21
962.802985
  0
LINE
  8
CSLAYER1
  6
CONTINUOUS
 62
     4
 10
1199.905125
 20
968.693661
 11
1198.905125
 21
968.693661
  0
LINE
  8
CSLAYER1
  6
CONTINUOUS
 62
     4
 10
1189.905125
 20
968.693661
 11
1188.905125
 21
968.693661
  0
ENDBLK
  8
0
  0
BLOCK
  8
CSLAYER1
  2
BLKF0008
 70
   64
 10
0.0
 20
0.0
 30
0.0
  0
LINE
  8
CSLAYER1
  6
CONTINUOUS
 62
     3
 10
919.905125
 20
953.802985
 11
919.905125
 21
944.802985
  0
LINE
  8
CSLAYER1
  6
CONTINUOUS
 62
     3
 10
918.905125
 20
965.802985
 11
918.905125
 21
941.802985
  0
LINE
  8
CSLAYER1
  6
CONTINUOUS
 62
     3
 10
902.905125
 20
959.002985
 11
902.905125
 21
948.602985
  0
LINE
  8
CSLAYER1
  6
CONTINUOUS
 62
     3
 10
918.905125
 20
945.802985
 11
919.905125
 21
944.802985
  0
LINE
  8
CSLAYER1
  6
CONTINUOUS
 62
     3
 10
916.605125
 20
965.802985
 11
916.605125
 21
941.802985
  0
LINE
  8
CSLAYER1
  6
CONTINUOUS
 62
     3
 10
918.905125
 20
941.802985
 11
916.605125
 21
941.802985
  0
LINE
  8
CSLAYER1
  6
CONTINUOUS
 62
     3
 10
913.605125
 20
964.772640
 11
913.605125
 21
942.833330
  0
LINE
  8
CSLAYER1
  6
CONTINUOUS
 62
     3
 10
916.605125
 20
943.052985
 11
913.605125
 21
943.052985
  0
LINE
  8
CSLAYER1
  6
CONTINUOUS
 62
     3
 10
903.605125
 20
953.802985
 11
903.605125
 21
944.302985
  0
LINE
  8
CSLAYER1
  6
CONTINUOUS
 62
     3
 10
904.453630
 20
942.833330
 11
913.605125
 21
942.833330
  0
LINE
  8
CSLAYER1
  6
CONTINUOUS
 62
     3
 10
904.453630
 20
948.318158
 11
913.605125
 21
948.318158
  0
LINE
  8
CSLAYER1
  6
CONTINUOUS
 62
     3
 10
903.605125
 20
944.302985
 11
904.453630
 21
942.833330
  0
ARC
  8
CSLAYER1
  6
CONTINUOUS
 62
     3
 10
921.756619
 20
953.802985
 40
18.151494
 50
180.000000
 51
197.587954
  0
ARC
  8
CSLAYER1
  6
CONTINUOUS
 62
     3
 10
908.458380
 20
945.575744
 40
4.853746
 50
145.597034
 51
205.597034
  0
LINE
  8
CSLAYER1
  6
CONTINUOUS
 62
     3
 10
903.605125
 20
953.802985
 11
903.605125
 21
963.302985
  0
LINE
  8
CSLAYER1
  6
CONTINUOUS
 62
     3
 10
904.453630
 20
964.772640
 11
913.605125
 21
964.772640
  0
LINE
  8
CSLAYER1
  6
CONTINUOUS
 62
     3
 10
904.453630
 20
959.287813
 11
913.605125
 21
959.287813
  0
LINE
  8
CSLAYER1
  6
CONTINUOUS
 62
     3
 10
903.605125
 20
963.302985
 11
904.453630
 21
964.772640
  0
ARC
  8
CSLAYER1
  6
CONTINUOUS
 62
     3
 10
921.756619
 20
953.802985
 40
18.151494
 50
162.412046
 51
180.000000
  0
ARC
  8
CSLAYER1
  6
CONTINUOUS
 62
     3
 10
908.458380
 20
962.030226
 40
4.853746
 50
154.402966
 51
214.402966
  0
LINE
  8
CSLAYER1
  6
CONTINUOUS
 62
     3
 10
919.905125
 20
953.802985
 11
919.905125
 21
962.802985
  0
LINE
  8
CSLAYER1
  6
CONTINUOUS
 62
     3
 10
918.905125
 20
961.802985
 11
919.905125
 21
962.802985
  0
LINE
  8
CSLAYER1
  6
CONTINUOUS
 62
     3
 10
918.905125
 20
965.802985
 11
916.605125
 21
965.802985
  0
LINE
  8
CSLAYER1
  6
CONTINUOUS
 62
     3
 10
916.605125
 20
964.552985
 11
913.605125
 21
964.552985
  0
LINE
  8
CSLAYER1
  6
CONTINUOUS
 62
     3
 10
903.605125
 20
948.602985
 11
902.905125
 21
948.602985
  0
LINE
  8
CSLAYER1
  6
CONTINUOUS
 62
     3
 10
902.905125
 20
948.602985
 11
903.605125
 21
947.802985
  0
LINE
  8
CSLAYER1
  6
CONTINUOUS
 62
     3
 10
903.605125
 20
959.002985
 11
902.905125
 21
959.002985
  0
LINE
  8
CSLAYER1
  6
CONTINUOUS
 62
     3
 10
902.905125
 20
959.002985
 11
903.605125
 21
959.802985
  0
POINT
  8
CSLAYER1
 62
     3
 10
919.905125
 20
953.802985
  0
ENDBLK
  8
0
  0
BLOCK
  8
CSLAYER1
  2
BLKF0009
 70
   64
 10
0.0
 20
0.0
 30
0.0
  0
LINE
  8
CSLAYER1
  6
CONTINUOUS
 62
     3
 10
919.905125
 20
1547.632641
 11
919.905125
 21
1538.632641
  0
LINE
  8
CSLAYER1
  6
CONTINUOUS
 62
     3
 10
918.905125
 20
1559.632641
 11
918.905125
 21
1535.632641
  0
LINE
  8
CSLAYER1
  6
CONTINUOUS
 62
     3
 10
902.905125
 20
1552.832641
 11
902.905125
 21
1542.432641
  0
LINE
  8
CSLAYER1
  6
CONTINUOUS
 62
     3
 10
918.905125
 20
1539.632641
 11
919.905125
 21
1538.632641
  0
LINE
  8
CSLAYER1
  6
CONTINUOUS
 62
     3
 10
916.605125
 20
1559.632641
 11
916.605125
 21
1535.632641
  0
LINE
  8
CSLAYER1
  6
CONTINUOUS
 62
     3
 10
918.905125
 20
1535.632641
 11
916.605125
 21
1535.632641
  0
LINE
  8
CSLAYER1
  6
CONTINUOUS
 62
     3
 10
913.605125
 20
1558.602296
 11
913.605125
 21
1536.662986
  0
LINE
  8
CSLAYER1
  6
CONTINUOUS
 62
     3
 10
916.605125
 20
1536.882641
 11
913.605125
 21
1536.882641
  0
LINE
  8
CSLAYER1
  6
CONTINUOUS
 62
     3
 10
903.605125
 20
1547.632641
 11
903.605125
 21
1538.132641
  0
LINE
  8
CSLAYER1
  6
CONTINUOUS
 62
     3
 10
904.453630
 20
1536.662986
 11
913.605125
 21
1536.662986
  0
LINE
  8
CSLAYER1
  6
CONTINUOUS
 62
     3
 10
904.453630
 20
1542.147813
 11
913.605125
 21
1542.147813
  0
LINE
  8
CSLAYER1
  6
CONTINUOUS
 62
     3
 10
903.605125
 20
1538.132641
 11
904.453630
 21
1536.662986
  0
ARC
  8
CSLAYER1
  6
CONTINUOUS
 62
     3
 10
921.756619
 20
1547.632641
 40
18.151494
 50
180.000000
 51
197.587954
  0
ARC
  8
CSLAYER1
  6
CONTINUOUS
 62
     3
 10
908.458380
 20
1539.405400
 40
4.853746
 50
145.597034
 51
205.597034
  0
LINE
  8
CSLAYER1
  6
CONTINUOUS
 62
     3
 10
903.605125
 20
1547.632641
 11
903.605125
 21
1557.132641
  0
LINE
  8
CSLAYER1
  6
CONTINUOUS
 62
     3
 10
904.453630
 20
1558.602296
 11
913.605125
 21
1558.602296
  0
LINE
  8
CSLAYER1
  6
CONTINUOUS
 62
     3
 10
904.453630
 20
1553.117468
 11
913.605125
 21
1553.117468
  0
LINE
  8
CSLAYER1
  6
CONTINUOUS
 62
     3
 10
903.605125
 20
1557.132641
 11
904.453630
 21
1558.602296
  0
ARC
  8
CSLAYER1
  6
CONTINUOUS
 62
     3
 10
921.756619
 20
1547.632641
 40
18.151494
 50
162.412046
 51
180.000000
  0
ARC
  8
CSLAYER1
  6
CONTINUOUS
 62
     3
 10
908.458380
 20
1555.859882
 40
4.853746
 50
154.402966
 51
214.402966
  0
LINE
  8
CSLAYER1
  6
CONTINUOUS
 62
     3
 10
919.905125
 20
1547.632641
 11
919.905125
 21
1556.632641
  0
LINE
  8
CSLAYER1
  6
CONTINUOUS
 62
     3
 10
918.905125
 20
1555.632641
 11
919.905125
 21
1556.632641
  0
LINE
  8
CSLAYER1
  6
CONTINUOUS
 62
     3
 10
918.905125
 20
1559.632641
 11
916.605125
 21
1559.632641
  0
LINE
  8
CSLAYER1
  6
CONTINUOUS
 62
     3
 10
916.605125
 20
1558.382641
 11
913.605125
 21
1558.382641
  0
LINE
  8
CSLAYER1
  6
CONTINUOUS
 62
     3
 10
903.605125
 20
1542.432641
 11
902.905125
 21
1542.432641
  0
LINE
  8
CSLAYER1
  6
CONTINUOUS
 62
     3
 10
902.905125
 20
1542.432641
 11
903.605125
 21
1541.632641
  0
LINE
  8
CSLAYER1
  6
CONTINUOUS
 62
     3
 10
903.605125
 20
1552.832641
 11
902.905125
 21
1552.832641
  0
LINE
  8
CSLAYER1
  6
CONTINUOUS
 62
     3
 10
902.905125
 20
1552.832641
 11
903.605125
 21
1553.632641
  0
POINT
  8
CSLAYER1
 62
     3
 10
919.905125
 20
1547.632641
  0
ENDBLK
  8
0
  0
BLOCK
  8
CSLAYER1
  2
BLKF0010
 70
   64
 10
0.0
 20
0.0
 30
0.0
  0
LINE
  8
CSLAYER1
  6
CONTINUOUS
 62
     3
 10
932.405125
 20
1532.632641
 11
929.405125
 21
1532.632641
  0
LINE
  8
CSLAYER1
  6
CONTINUOUS
 62
     3
 10
932.405125
 20
1532.632641
 11
932.405125
 21
1562.632641
  0
LINE
  8
CSLAYER1
  6
CONTINUOUS
 62
     3
 10
929.405125
 20
1532.632641
 11
929.405125
 21
1562.632641
  0
LINE
  8
CSLAYER1
  6
CONTINUOUS
 62
     3
 10
932.405125
 20
1562.632641
 11
929.405125
 21
1562.632641
  0
ENDBLK
  8
0
  0
BLOCK
  8
CSLAYER1
  2
BLKF0011
 70
   64
 10
0.0
 20
0.0
 30
0.0
  0
LINE
  8
CSLAYER1
  6
CONTINUOUS
 62
     3
 10
932.405125
 20
938.802985
 11
929.405125
 21
938.802985
  0
LINE
  8
CSLAYER1
  6
CONTINUOUS
 62
     3
 10
932.405125
 20
938.802985
 11
932.405125
 21
968.802985
  0
LINE
  8
CSLAYER1
  6
CONTINUOUS
 62
     3
 10
929.405125
 20
938.802985
 11
929.405125
 21
968.802985
  0
LINE
  8
CSLAYER1
  6
CONTINUOUS
 62
     3
 10
932.405125
 20
968.802985
 11
929.405125
 21
968.802985
  0
ENDBLK
  8
0
  0
BLOCK
  8
CSLAYER1
  2
BLKF0012
 70
   64
 10
0.0
 20
0.0
 30
0.0
  0
LINE
  8
CSLAYER1
  6
CONTINUOUS
 62
     3
 10
932.405125
 20
1235.717813
 11
929.405125
 21
1235.717813
  0
LINE
  8
CSLAYER1
  6
CONTINUOUS
 62
     3
 10
932.405125
 20
1235.717813
 11
932.405125
 21
1265.717813
  0
LINE
  8
CSLAYER1
  6
CONTINUOUS
 62
     3
 10
929.405125
 20
1235.717813
 11
929.405125
 21
1265.717813
  0
LINE
  8
CSLAYER1
  6
CONTINUOUS
 62
     3
 10
932.405125
 20
1265.717813
 11
929.405125
 21
1265.717813
  0
ENDBLK
  8
0
  0
BLOCK
  8
CSLAYER1
  2
BLKF0013
 70
   64
 10
0.0
 20
0.0
 30
0.0
  0
LINE
  8
CSLAYER1
  6
CONTINUOUS
 62
     4
 10
1006.905125
 20
974.693661
 11
1006.905125
 21
962.802985
  0
LINE
  8
CSLAYER1
  6
CONTINUOUS
 62
     4
 10
995.905125
 20
962.802985
 11
995.905125
 21
972.193661
  0
LINE
  8
CSLAYER1
  6
CONTINUOUS
 62
     4
 10
989.905125
 20
962.802985
 11
989.905125
 21
971.693661
  0
LINE
  8
CSLAYER1
  6
CONTINUOUS
 62
     4
 10
990.905125
 20
972.693661
 11
995.405125
 21
972.693661
  0
LINE
  8
CSLAYER1
  6
CONTINUOUS
 62
     4
 10
989.905125
 20
971.693661
 11
990.905125
 21
972.693661
  0
LINE
  8
CSLAYER1
  6
CONTINUOUS
 62
     4
 10
995.405125
 20
972.693661
 11
995.905125
 21
972.193661
  0
LINE
  8
CSLAYER1
  6
CONTINUOUS
 62
     4
 10
990.905125
 20
972.693661
 11
990.905125
 21
962.802985
  0
LINE
  8
CSLAYER1
  6
CONTINUOUS
 62
     4
 10
995.405125
 20
972.693661
 11
995.405125
 21
962.802985
  0
LINE
  8
CSLAYER1
  6
CONTINUOUS
 62
     4
 10
995.905125
 20
968.693661
 11
996.905125
 21
968.693661
  0
LINE
  8
CSLAYER1
  6
CONTINUOUS
 62
     4
 10
1005.905125
 20
968.693661
 11
1006.905125
 21
968.693661
  0
ENDBLK
  8
0
  0
BLOCK
  8
CSLAYER1
  2
BLKF0014
 70
   64
 10
0.0
 20
0.0
 30
0.0
  0
LINE
  8
CSLAYER1
  6
CONTINUOUS
 62
     7
 10
1143.405125
 20
734.688157
 11
1143.405125
 21
732.488157
  0
LINE
  8
CSLAYER1
  6
CONTINUOUS
 62
     7
 10
1150.405125
 20
734.688157
 11
1150.405125
 21
732.488157
  0
LINE
  8
CSLAYER1
  6
CONTINUOUS
 62
     7
 10
1150.405125
 20
733.488157
 11
1143.405125
 21
733.488157
  0
LINE
  8
CSLAYER1
  6
CONTINUOUS
 62
     7
 10
1149.005125
 20
736.088157
 11
1144.805125
 21
736.088157
  0
LINE
  8
CSLAYER1
  6
CONTINUOUS
 62
     7
 10
1151.405125
 20
732.488157
 11
1151.405125
 21
731.688157
  0
LINE
  8
CSLAYER1
  6
CONTINUOUS
 62
     7
 10
1142.405125
 20
732.488157
 11
1142.405125
 21
731.688157
  0
LINE
  8
CSLAYER1
  6
CONTINUOUS
 62
     7
 10
1150.405125
 20
734.688157
 11
1150.405125
 21
733.488157
  0
LINE
  8
CSLAYER1
  6
CONTINUOUS
 62
     7
 10
1151.405125
 20
732.488157
 11
1142.405125
 21
732.488157
  0
LINE
  8
CSLAYER1
  6
CONTINUOUS
 62
     7
 10
1151.405125
 20
731.688157
 11
1142.405125
 21
731.688157
  0
ARC
  8
CSLAYER1
  6
CONTINUOUS
 62
     7
 10
1149.005125
 20
734.688157
 40
1.400000
 50
-0.000000
 51
90.000000
  0
ARC
  8
CSLAYER1
  6
CONTINUOUS
 62
     7
 10
1144.805125
 20
734.688157
 40
1.400000
 50
90.000000
 51
180.000000
  0
LINE
  8
CSLAYER1
  6
CONTINUOUS
 62
     7
 10
1147.945077
 20
732.488157
 11
1145.559874
 21
733.488157
  0
LINE
  8
CSLAYER1
  6
CENTER
 62
     5
 10
1146.905125
 20
737.916506
 11
1146.905125
 21
722.718328
  0
ENDBLK
  8
0
  0
BLOCK
  8
CSLAYER1
  2
BLKF0015
 70
   64
 10
0.0
 20
0.0
 30
0.0
  0
LINE
  8
CSLAYER1
  6
CONTINUOUS
 62
     7
 10
982.405125
 20
734.688157
 11
982.405125
 21
732.488157
  0
LINE
  8
CSLAYER1
  6
CONTINUOUS
 62
     7
 10
975.405125
 20
734.688157
 11
975.405125
 21
732.488157
  0
LINE
  8
CSLAYER1
  6
CONTINUOUS
 62
     7
 10
975.405125
 20
733.488157
 11
982.405125
 21
733.488157
  0
LINE
  8
CSLAYER1
  6
CONTINUOUS
 62
     7
 10
976.805125
 20
736.088157
 11
981.005125
 21
736.088157
  0
LINE
  8
CSLAYER1
  6
CONTINUOUS
 62
     7
 10
974.405125
 20
732.488157
 11
974.405125
 21
731.688157
  0
LINE
  8
CSLAYER1
  6
CONTINUOUS
 62
     7
 10
983.405125
 20
732.488157
 11
983.405125
 21
731.688157
  0
LINE
  8
CSLAYER1
  6
CONTINUOUS
 62
     7
 10
975.405125
 20
734.688157
 11
975.405125
 21
733.488157
  0
LINE
  8
CSLAYER1
  6
CONTINUOUS
 62
     7
 10
974.405125
 20
732.488157
 11
983.405125
 21
732.488157
  0
LINE
  8
CSLAYER1
  6
CONTINUOUS
 62
     7
 10
974.405125
 20
731.688157
 11
983.405125
 21
731.688157
  0
ARC
  8
CSLAYER1
  6
CONTINUOUS
 62
     7
 10
976.805125
 20
734.688157
 40
1.400000
 50
90.000000
 51
180.000000
  0
ARC
  8
CSLAYER1
  6
CONTINUOUS
 62
     7
 10
981.005125
 20
734.688157
 40
1.400000
 50
0.000000
 51
90.000000
  0
LINE
  8
CSLAYER1
  6
CONTINUOUS
 62
     7
 10
977.865173
 20
732.488157
 11
980.250375
 21
733.488157
  0
LINE
  8
CSLAYER1
  6
CENTER
 62
     5
 10
978.905125
 20
737.916506
 11
978.905125
 21
722.718328
  0
ENDBLK
  8
0
  0
BLOCK
  8
CSLAYER1
  2
BLKF0016
 70
   64
 10
0.0
 20
0.0
 30
0.0
  0
LINE
  8
CSLAYER1
  6
CONTINUOUS
 62
     7
 10
1253.905125
 20
757.607035
 11
1209.749704
 21
757.607035
  0
LINE
  8
CSLAYER1
  6
CONTINUOUS
 62
     7
 10
1253.905125
 20
747.607035
 11
1211.405125
 21
747.607035
  0
ENDBLK
  8
0
  0
BLOCK
  8
CSLAYER1
  2
BLKF0017
 70
   64
 10
0.0
 20
0.0
 30
0.0
  0
LINE
  8
CSLAYER1
  6
CONTINUOUS
 62
     7
 10
1197.905125
 20
709.893907
 11
1197.905125
 21
717.893907
  0
LINE
  8
CSLAYER1
  6
CONTINUOUS
 62
     7
 10
1253.905125
 20
718.893907
 11
1198.905125
 21
718.893907
  0
LINE
  8
CSLAYER1
  6
CONTINUOUS
 62
     7
 10
1253.905125
 20
708.893907
 11
1198.905125
 21
708.893907
  0
LINE
  8
CSLAYER1
  6
CONTINUOUS
 62
     7
 10
1198.905125
 20
708.893907
 11
1198.905125
 21
718.893907
  0
LINE
  8
CSLAYER1
  6
CONTINUOUS
 62
     7
 10
1197.905125
 20
709.893907
 11
1198.905125
 21
708.893907
  0
LINE
  8
CSLAYER1
  6
CONTINUOUS
 62
     7
 10
1197.905125
 20
717.893907
 11
1198.905125
 21
718.893907
  0
ENDBLK
  8
0
  0
BLOCK
  8
CSLAYER1
  2
BLKF0018
 70
   64
 10
0.0
 20
0.0
 30
0.0
  0
LINE
  8
CSLAYER1
  6
CONTINUOUS
 62
     4
 10
1280.405125
 20
1260.532768
 11
1280.405125
 21
1240.902858
  0
LINE
  8
CSLAYER1
  6
CONTINUOUS
 62
     4
 10
1287.405125
 20
1259.217813
 11
1287.405125
 21
1242.217813
  0
LINE
  8
CSLAYER1
  6
CONTINUOUS
 62
     4
 10
1277.905125
 20
1261.217813
 11
1277.905125
 21
1240.217813
  0
LINE
  8
CSLAYER1
  6
CONTINUOUS
 62
     4
 10
1275.905125
 20
1261.217813
 11
1275.905125
 21
1240.217813
  0
LINE
  8
CSLAYER1
  6
CONTINUOUS
 62
     4
 10
1275.905125
 20
1261.217813
 11
1277.905125
 21
1261.217813
  0
LINE
  8
CSLAYER1
  6
CONTINUOUS
 62
     4
 10
1277.905125
 20
1259.917813
 11
1280.405125
 21
1259.917813
  0
LINE
  8
CSLAYER1
  6
CONTINUOUS
 62
     4
 10
1275.905125
 20
1240.217813
 11
1277.905125
 21
1240.217813
  0
LINE
  8
CSLAYER1
  6
CONTINUOUS
 62
     4
 10
1277.905125
 20
1241.517813
 11
1280.405125
 21
1241.517813
  0
LINE
  8
CSLAYER1
  6
CONTINUOUS
 62
     4
 10
1280.405125
 20
1260.532768
 11
1286.645935
 21
1260.532768
  0
LINE
  8
CSLAYER1
  6
CONTINUOUS
 62
     4
 10
1280.405125
 20
1255.625290
 11
1286.645935
 21
1255.625290
  0
LINE
  8
CSLAYER1
  6
CONTINUOUS
 62
     4
 10
1287.405125
 20
1259.217813
 11
1286.645935
 21
1260.532768
  0
ARC
  8
CSLAYER1
  6
CONTINUOUS
 62
     4
 10
1271.164314
 20
1250.717813
 40
16.240811
 50
0.000000
 51
17.587954
  0
ARC
  8
CSLAYER1
  6
CONTINUOUS
 62
     4
 10
1283.065342
 20
1258.079029
 40
4.340677
 50
-34.422385
 51
25.577615
  0
LINE
  8
CSLAYER1
  6
CONTINUOUS
 62
     4
 10
1280.405125
 20
1240.902858
 11
1286.645935
 21
1240.902858
  0
LINE
  8
CSLAYER1
  6
CONTINUOUS
 62
     4
 10
1280.405125
 20
1245.810336
 11
1286.645935
 21
1245.810336
  0
LINE
  8
CSLAYER1
  6
CONTINUOUS
 62
     4
 10
1287.405125
 20
1242.217813
 11
1286.645935
 21
1240.902858
  0
ARC
  8
CSLAYER1
  6
CONTINUOUS
 62
     4
 10
1271.164314
 20
1250.717813
 40
16.240811
 50
342.412046
 51
360.000000
  0
ARC
  8
CSLAYER1
  6
CONTINUOUS
 62
     4
 10
1283.065342
 20
1243.356597
 40
4.340677
 50
-25.577615
 51
34.422385
  0
LINE
  8
CSLAYER1
  6
CONTINUOUS
 62
     4
 10
1280.405125
 20
1252.082766
 11
1277.905125
 21
1249.340831
  0
ENDBLK
  8
0
  0
BLOCK
  8
CSLAYER1
  2
BLKF0019
 70
   64
 10
0.0
 20
0.0
 30
0.0
  0
LINE
  8
CSLAYER1
  6
CONTINUOUS
 62
     4
 10
915.405125
 20
1260.532768
 11
915.405125
 21
1240.902858
  0
LINE
  8
CSLAYER1
  6
CONTINUOUS
 62
     4
 10
908.405125
 20
1259.217813
 11
908.405125
 21
1242.217813
  0
LINE
  8
CSLAYER1
  6
CONTINUOUS
 62
     4
 10
917.905125
 20
1261.217813
 11
917.905125
 21
1240.217813
  0
LINE
  8
CSLAYER1
  6
CONTINUOUS
 62
     4
 10
919.905125
 20
1261.217813
 11
919.905125
 21
1240.217813
  0
LINE
  8
CSLAYER1
  6
CONTINUOUS
 62
     4
 10
919.905125
 20
1261.217813
 11
917.905125
 21
1261.217813
  0
LINE
  8
CSLAYER1
  6
CONTINUOUS
 62
     4
 10
917.905125
 20
1259.917813
 11
915.405125
 21
1259.917813
  0
LINE
  8
CSLAYER1
  6
CONTINUOUS
 62
     4
 10
919.905125
 20
1240.217813
 11
917.905125
 21
1240.217813
  0
LINE
  8
CSLAYER1
  6
CONTINUOUS
 62
     4
 10
917.905125
 20
1241.517813
 11
915.405125
 21
1241.517813
  0
LINE
  8
CSLAYER1
  6
CONTINUOUS
 62
     4
 10
915.405125
 20
1260.532768
 11
909.164314
 21
1260.532768
  0
LINE
  8
CSLAYER1
  6
CONTINUOUS
 62
     4
 10
915.405125
 20
1255.625290
 11
909.164314
 21
1255.625290
  0
LINE
  8
CSLAYER1
  6
CONTINUOUS
 62
     4
 10
908.405125
 20
1259.217813
 11
909.164314
 21
1260.532768
  0
ARC
  8
CSLAYER1
  6
CONTINUOUS
 62
     4
 10
924.645935
 20
1250.717813
 40
16.240811
 50
162.412046
 51
180.000000
  0
ARC
  8
CSLAYER1
  6
CONTINUOUS
 62
     4
 10
912.744907
 20
1258.079029
 40
4.340677
 50
154.422385
 51
214.422385
  0
LINE
  8
CSLAYER1
  6
CONTINUOUS
 62
     4
 10
915.405125
 20
1240.902858
 11
909.164314
 21
1240.902858
  0
LINE
  8
CSLAYER1
  6
CONTINUOUS
 62
     4
 10
915.405125
 20
1245.810336
 11
909.164314
 21
1245.810336
  0
LINE
  8
CSLAYER1
  6
CONTINUOUS
 62
     4
 10
908.405125
 20
1242.217813
 11
909.164314
 21
1240.902858
  0
ARC
  8
CSLAYER1
  6
CONTINUOUS
 62
     4
 10
924.645935
 20
1250.717813
 40
16.240811
 50
180.000000
 51
197.587954
  0
ARC
  8
CSLAYER1
  6
CONTINUOUS
 62
     4
 10
912.744907
 20
1243.356597
 40
4.340677
 50
145.577615
 51
205.577615
  0
LINE
  8
CSLAYER1
  6
CONTINUOUS
 62
     4
 10
915.405125
 20
1252.082766
 11
917.905125
 21
1249.340831
  0
ENDBLK
  8
0
  0
BLOCK
  8
CSLAYER1
  2
BLKF0020
 70
   64
 10
0.0
 20
0.0
 30
0.0
  0
CIRCLE
  8
CSLAYER1
  6
CONTINUOUS
 62
     4
 10
2143.466768
 20
1250.717813
 40
10.500000
  0
ARC
  8
CSLAYER1
  6
CONTINUOUS
 62
     4
 10
2143.466768
 20
1250.717813
 40
9.200000
 50
97.505018
 51
142.494982
  0
CIRCLE
  8
CSLAYER1
  6
CONTINUOUS
 62
     4
 10
2143.466768
 20
1250.717813
 40
8.500000
  0
LINE
  8
CSLAYER1
  6
CONTINUOUS
 62
     4
 10
2151.966768
 20
1255.625290
 11
2143.466768
 21
1260.532768
  0
LINE
  8
CSLAYER1
  6
CONTINUOUS
 62
     4
 10
2143.466768
 20
1260.532768
 11
2134.966768
 21
1255.625290
  0
LINE
  8
CSLAYER1
  6
CONTINUOUS
 62
     4
 10
2134.966768
 20
1255.625290
 11
2134.966768
 21
1245.810336
  0
LINE
  8
CSLAYER1
  6
CONTINUOUS
 62
     4
 10
2134.966768
 20
1245.810336
 11
2143.466768
 21
1240.902858
  0
LINE
  8
CSLAYER1
  6
CONTINUOUS
 62
     4
 10
2143.466768
 20
1240.902858
 11
2151.966768
 21
1245.810336
  0
LINE
  8
CSLAYER1
  6
CONTINUOUS
 62
     4
 10
2151.966768
 20
1245.810336
 11
2151.966768
 21
1255.625290
  0
ARC
  8
CSLAYER1
  6
CONTINUOUS
 62
     4
 10
2143.466768
 20
1250.717813
 40
9.200000
 50
37.505018
 51
82.494982
  0
ARC
  8
CSLAYER1
  6
CONTINUOUS
 62
     4
 10
2143.466768
 20
1250.717813
 40
9.200000
 50
-22.494982
 51
22.494982
  0
ARC
  8
CSLAYER1
  6
CONTINUOUS
 62
     4
 10
2143.466768
 20
1250.717813
 40
9.200000
 50
277.505018
 51
322.494982
  0
ARC
  8
CSLAYER1
  6
CONTINUOUS
 62
     4
 10
2143.466768
 20
1250.717813
 40
9.200000
 50
217.505018
 51
262.494982
  0
ARC
  8
CSLAYER1
  6
CONTINUOUS
 62
     4
 10
2143.466768
 20
1250.717813
 40
9.200000
 50
157.505018
 51
202.494982
  0
ENDBLK
  8
0
  0
BLOCK
  8
CSLAYER1
  2
BLKF0021
 70
   64
 10
0.0
 20
0.0
 30
0.0
  0
CIRCLE
  8
CSLAYER1
  6
CONTINUOUS
 62
     4
 10
2601.578477
 20
1250.717813
 40
10.500000
  0
ARC
  8
CSLAYER1
  6
CONTINUOUS
 62
     4
 10
2601.578477
 20
1250.717813
 40
9.200000
 50
97.505018
 51
142.494982
  0
CIRCLE
  8
CSLAYER1
  6
CONTINUOUS
 62
     4
 10
2601.578477
 20
1250.717813
 40
8.500000
  0
LINE
  8
CSLAYER1
  6
CONTINUOUS
 62
     4
 10
2610.078477
 20
1255.625290
 11
2601.578477
 21
1260.532768
  0
LINE
  8
CSLAYER1
  6
CONTINUOUS
 62
     4
 10
2601.578477
 20
1260.532768
 11
2593.078477
 21
1255.625290
  0
LINE
  8
CSLAYER1
  6
CONTINUOUS
 62
     4
 10
2593.078477
 20
1255.625290
 11
2593.078477
 21
1245.810336
  0
LINE
  8
CSLAYER1
  6
CONTINUOUS
 62
     4
 10
2593.078477
 20
1245.810336
 11
2601.578477
 21
1240.902858
  0
LINE
  8
CSLAYER1
  6
CONTINUOUS
 62
     4
 10
2601.578477
 20
1240.902858
 11
2610.078477
 21
1245.810336
  0
LINE
  8
CSLAYER1
  6
CONTINUOUS
 62
     4
 10
2610.078477
 20
1245.810336
 11
2610.078477
 21
1255.625290
  0
ARC
  8
CSLAYER1
  6
CONTINUOUS
 62
     4
 10
2601.578477
 20
1250.717813
 40
9.200000
 50
37.505018
 51
82.494982
  0
ARC
  8
CSLAYER1
  6
CONTINUOUS
 62
     4
 10
2601.578477
 20
1250.717813
 40
9.200000
 50
-22.494982
 51
22.494982
  0
ARC
  8
CSLAYER1
  6
CONTINUOUS
 62
     4
 10
2601.578477
 20
1250.717813
 40
9.200000
 50
277.505018
 51
322.494982
  0
ARC
  8
CSLAYER1
  6
CONTINUOUS
 62
     4
 10
2601.578477
 20
1250.717813
 40
9.200000
 50
217.505018
 51
262.494982
  0
ARC
  8
CSLAYER1
  6
CONTINUOUS
 62
     4
 10
2601.578477
 20
1250.717813
 40
9.200000
 50
157.505018
 51
202.494982
  0
ENDBLK
  8
0
  0
BLOCK
  8
CSLAYER1
  2
BLKF0022
 70
   64
 10
0.0
 20
0.0
 30
0.0
  0
CIRCLE
  8
CSLAYER1
  6
CONTINUOUS
 62
     4
 10
2372.522623
 20
1547.632641
 40
12.000000
  0
CIRCLE
  8
CSLAYER1
  6
CONTINUOUS
 62
     4
 10
2372.522623
 20
1547.632641
 40
6.000000
  0
CIRCLE
  8
CSLAYER1
  6
CONTINUOUS
 62
     4
 10
2372.522623
 20
1547.632641
 40
5.200000
  0
CIRCLE
  8
CSLAYER1
  6
CONTINUOUS
 62
     4
 10
2372.522623
 20
1547.632641
 40
9.500000
  0
LINE
  8
CSLAYER1
  6
CONTINUOUS
 62
     4
 10
2382.022623
 20
1553.117468
 11
2372.522623
 21
1558.602296
  0
LINE
  8
CSLAYER1
  6
CONTINUOUS
 62
     4
 10
2372.522623
 20
1558.602296
 11
2363.022623
 21
1553.117468
  0
LINE
  8
CSLAYER1
  6
CONTINUOUS
 62
     4
 10
2363.022623
 20
1553.117468
 11
2363.022623
 21
1542.147813
  0
LINE
  8
CSLAYER1
  6
CONTINUOUS
 62
     4
 10
2363.022623
 20
1542.147813
 11
2372.522623
 21
1536.662986
  0
LINE
  8
CSLAYER1
  6
CONTINUOUS
 62
     4
 10
2372.522623
 20
1536.662986
 11
2382.022623
 21
1542.147813
  0
LINE
  8
CSLAYER1
  6
CONTINUOUS
 62
     4
 10
2382.022623
 20
1542.147813
 11
2382.022623
 21
1553.117468
  0
ENDBLK
  8
0
  0
BLOCK
  8
CSLAYER1
  2
BLKF0023
 70
   64
 10
0.0
 20
0.0
 30
0.0
  0
CIRCLE
  8
CSLAYER1
  6
CONTINUOUS
 62
     4
 10
2372.522623
 20
953.802985
 40
12.000000
  0
CIRCLE
  8
CSLAYER1
  6
CONTINUOUS
 62
     4
 10
2372.522623
 20
953.802985
 40
6.000000
  0
CIRCLE
  8
CSLAYER1
  6
CONTINUOUS
 62
     4
 10
2372.522623
 20
953.802985
 40
5.200000
  0
CIRCLE
  8
CSLAYER1
  6
CONTINUOUS
 62
     4
 10
2372.522623
 20
953.802985
 40
9.500000
  0
LINE
  8
CSLAYER1
  6
CONTINUOUS
 62
     4
 10
2382.022623
 20
959.287813
 11
2372.522623
 21
964.772640
  0
LINE
  8
CSLAYER1
  6
CONTINUOUS
 62
     4
 10
2372.522623
 20
964.772640
 11
2363.022623
 21
959.287813
  0
LINE
  8
CSLAYER1
  6
CONTINUOUS
 62
     4
 10
2363.022623
 20
959.287813
 11
2363.022623
 21
948.318158
  0
LINE
  8
CSLAYER1
  6
CONTINUOUS
 62
     4
 10
2363.022623
 20
948.318158
 11
2372.522623
 21
942.833330
  0
LINE
  8
CSLAYER1
  6
CONTINUOUS
 62
     4
 10
2372.522623
 20
942.833330
 11
2382.022623
 21
948.318158
  0
LINE
  8
CSLAYER1
  6
CONTINUOUS
 62
     4
 10
2382.022623
 20
948.318158
 11
2382.022623
 21
959.287813
  0
ENDBLK
  8
0
  0
BLOCK
  8
CSLAYER1
  2
BLKF0024
 70
   64
 10
0.0
 20
0.0
 30
0.0
  0
CIRCLE
  8
CSLAYER1
  6
CONTINUOUS
 62
     4
 10
2143.466768
 20
1844.547469
 40
10.500000
  0
ARC
  8
CSLAYER1
  6
CONTINUOUS
 62
     4
 10
2143.466768
 20
1844.547469
 40
9.200000
 50
97.505018
 51
142.494982
  0
CIRCLE
  8
CSLAYER1
  6
CONTINUOUS
 62
     4
 10
2143.466768
 20
1844.547469
 40
8.500000
  0
LINE
  8
CSLAYER1
  6
CONTINUOUS
 62
     4
 10
2151.966768
 20
1849.454946
 11
2143.466768
 21
1854.362423
  0
LINE
  8
CSLAYER1
  6
CONTINUOUS
 62
     4
 10
2143.466768
 20
1854.362423
 11
2134.966768
 21
1849.454946
  0
LINE
  8
CSLAYER1
  6
CONTINUOUS
 62
     4
 10
2134.966768
 20
1849.454946
 11
2134.966768
 21
1839.639991
  0
LINE
  8
CSLAYER1
  6
CONTINUOUS
 62
     4
 10
2134.966768
 20
1839.639991
 11
2143.466768
 21
1834.732514
  0
LINE
  8
CSLAYER1
  6
CONTINUOUS
 62
     4
 10
2143.466768
 20
1834.732514
 11
2151.966768
 21
1839.639991
  0
LINE
  8
CSLAYER1
  6
CONTINUOUS
 62
     4
 10
2151.966768
 20
1839.639991
 11
2151.966768
 21
1849.454946
  0
ARC
  8
CSLAYER1
  6
CONTINUOUS
 62
     4
 10
2143.466768
 20
1844.547469
 40
9.200000
 50
37.505018
 51
82.494982
  0
ARC
  8
CSLAYER1
  6
CONTINUOUS
 62
     4
 10
2143.466768
 20
1844.547469
 40
9.200000
 50
-22.494982
 51
22.494982
  0
ARC
  8
CSLAYER1
  6
CONTINUOUS
 62
     4
 10
2143.466768
 20
1844.547469
 40
9.200000
 50
277.505018
 51
322.494982
  0
ARC
  8
CSLAYER1
  6
CONTINUOUS
 62
     4
 10
2143.466768
 20
1844.547469
 40
9.200000
 50
217.505018
 51
262.494982
  0
ARC
  8
CSLAYER1
  6
CONTINUOUS
 62
     4
 10
2143.466768
 20
1844.547469
 40
9.200000
 50
157.505018
 51
202.494982
  0
ENDBLK
  8
0
  0
BLOCK
  8
CSLAYER1
  2
BLKF0025
 70
   64
 10
0.0
 20
0.0
 30
0.0
  0
CIRCLE
  8
CSLAYER1
  6
CONTINUOUS
 62
     4
 10
2601.578477
 20
1844.547469
 40
10.500000
  0
ARC
  8
CSLAYER1
  6
CONTINUOUS
 62
     4
 10
2601.578477
 20
1844.547469
 40
9.200000
 50
97.505018
 51
142.494982
  0
CIRCLE
  8
CSLAYER1
  6
CONTINUOUS
 62
     4
 10
2601.578477
 20
1844.547469
 40
8.500000
  0
LINE
  8
CSLAYER1
  6
CONTINUOUS
 62
     4
 10
2610.078477
 20
1849.454946
 11
2601.578477
 21
1854.362423
  0
LINE
  8
CSLAYER1
  6
CONTINUOUS
 62
     4
 10
2601.578477
 20
1854.362423
 11
2593.078477
 21
1849.454946
  0
LINE
  8
CSLAYER1
  6
CONTINUOUS
 62
     4
 10
2593.078477
 20
1849.454946
 11
2593.078477
 21
1839.639991
  0
LINE
  8
CSLAYER1
  6
CONTINUOUS
 62
     4
 10
2593.078477
 20
1839.639991
 11
2601.578477
 21
1834.732514
  0
LINE
  8
CSLAYER1
  6
CONTINUOUS
 62
     4
 10
2601.578477
 20
1834.732514
 11
2610.078477
 21
1839.639991
  0
LINE
  8
CSLAYER1
  6
CONTINUOUS
 62
     4
 10
2610.078477
 20
1839.639991
 11
2610.078477
 21
1849.454946
  0
ARC
  8
CSLAYER1
  6
CONTINUOUS
 62
     4
 10
2601.578477
 20
1844.547469
 40
9.200000
 50
37.505018
 51
82.494982
  0
ARC
  8
CSLAYER1
  6
CONTINUOUS
 62
     4
 10
2601.578477
 20
1844.547469
 40
9.200000
 50
-22.494982
 51
22.494982
  0
ARC
  8
CSLAYER1
  6
CONTINUOUS
 62
     4
 10
2601.578477
 20
1844.547469
 40
9.200000
 50
277.505018
 51
322.494982
  0
ARC
  8
CSLAYER1
  6
CONTINUOUS
 62
     4
 10
2601.578477
 20
1844.547469
 40
9.200000
 50
217.505018
 51
262.494982
  0
ARC
  8
CSLAYER1
  6
CONTINUOUS
 62
     4
 10
2601.578477
 20
1844.547469
 40
9.200000
 50
157.505018
 51
202.494982
  0
ENDBLK
  8
0
  0
BLOCK
  8
CSLAYER1
  2
BLKF0026
 70
   64
 10
0.0
 20
0.0
 30
0.0
  0
CIRCLE
  8
CSLAYER1
  6
CONTINUOUS
 62
     4
 10
2372.522623
 20
2141.462297
 40
12.000000
  0
CIRCLE
  8
CSLAYER1
  6
CONTINUOUS
 62
     4
 10
2372.522623
 20
2141.462297
 40
6.000000
  0
CIRCLE
  8
CSLAYER1
  6
CONTINUOUS
 62
     4
 10
2372.522623
 20
2141.462297
 40
5.200000
  0
CIRCLE
  8
CSLAYER1
  6
CONTINUOUS
 62
     4
 10
2372.522623
 20
2141.462297
 40
9.500000
  0
LINE
  8
CSLAYER1
  6
CONTINUOUS
 62
     4
 10
2382.022623
 20
2146.947124
 11
2372.522623
 21
2152.431952
  0
LINE
  8
CSLAYER1
  6
CONTINUOUS
 62
     4
 10
2372.522623
 20
2152.431952
 11
2363.022623
 21
2146.947124
  0
LINE
  8
CSLAYER1
  6
CONTINUOUS
 62
     4
 10
2363.022623
 20
2146.947124
 11
2363.022623
 21
2135.977469
  0
LINE
  8
CSLAYER1
  6
CONTINUOUS
 62
     4
 10
2363.022623
 20
2135.977469
 11
2372.522623
 21
2130.492642
  0
LINE
  8
CSLAYER1
  6
CONTINUOUS
 62
     4
 10
2372.522623
 20
2130.492642
 11
2382.022623
 21
2135.977469
  0
LINE
  8
CSLAYER1
  6
CONTINUOUS
 62
     4
 10
2382.022623
 20
2135.977469
 11
2382.022623
 21
2146.947124
  0
ENDBLK
  8
0
  0
BLOCK
  8
CSLAYER1
  2
BLKF0027
 70
   64
 10
0.0
 20
0.0
 30
0.0
  0
LINE
  8
CSLAYER1
  6
CONTINUOUS
 62
     3
 10
1263.405125
 20
1829.547469
 11
1266.405125
 21
1829.547469
  0
LINE
  8
CSLAYER1
  6
CONTINUOUS
 62
     3
 10
1263.405125
 20
1829.547469
 11
1263.405125
 21
1859.547469
  0
LINE
  8
CSLAYER1
  6
CONTINUOUS
 62
     3
 10
1266.405125
 20
1829.547469
 11
1266.405125
 21
1859.547469
  0
LINE
  8
CSLAYER1
  6
CONTINUOUS
 62
     3
 10
1263.405125
 20
1859.547469
 11
1266.405125
 21
1859.547469
  0
ENDBLK
  8
0
  0
BLOCK
  8
CSLAYER1
  2
BLKF0028
 70
   64
 10
0.0
 20
0.0
 30
0.0
  0
LINE
  8
CSLAYER1
  6
CONTINUOUS
 62
     3
 10
932.405125
 20
1829.547469
 11
929.405125
 21
1829.547469
  0
LINE
  8
CSLAYER1
  6
CONTINUOUS
 62
     3
 10
932.405125
 20
1829.547469
 11
932.405125
 21
1859.547469
  0
LINE
  8
CSLAYER1
  6
CONTINUOUS
 62
     3
 10
929.405125
 20
1829.547469
 11
929.405125
 21
1859.547469
  0
LINE
  8
CSLAYER1
  6
CONTINUOUS
 62
     3
 10
932.405125
 20
1859.547469
 11
929.405125
 21
1859.547469
  0
ENDBLK
  8
0
  0
BLOCK
  8
CSLAYER1
  2
BLKF0029
 70
   64
 10
0.0
 20
0.0
 30
0.0
  0
LINE
  8
CSLAYER1
  6
CONTINUOUS
 62
     3
 10
1275.905125
 20
2141.462297
 11
1275.905125
 21
2132.462297
  0
LINE
  8
CSLAYER1
  6
CONTINUOUS
 62
     3
 10
1276.905125
 20
2153.462297
 11
1276.905125
 21
2129.462297
  0
LINE
  8
CSLAYER1
  6
CONTINUOUS
 62
     3
 10
1292.905125
 20
2146.662297
 11
1292.905125
 21
2136.262297
  0
LINE
  8
CSLAYER1
  6
CONTINUOUS
 62
     3
 10
1276.905125
 20
2133.462297
 11
1275.905125
 21
2132.462297
  0
LINE
  8
CSLAYER1
  6
CONTINUOUS
 62
     3
 10
1279.205125
 20
2153.462297
 11
1279.205125
 21
2129.462297
  0
LINE
  8
CSLAYER1
  6
CONTINUOUS
 62
     3
 10
1276.905125
 20
2129.462297
 11
1279.205125
 21
2129.462297
  0
LINE
  8
CSLAYER1
  6
CONTINUOUS
 62
     3
 10
1282.205125
 20
2152.431952
 11
1282.205125
 21
2130.492642
  0
LINE
  8
CSLAYER1
  6
CONTINUOUS
 62
     3
 10
1279.205125
 20
2130.712297
 11
1282.205125
 21
2130.712297
  0
LINE
  8
CSLAYER1
  6
CONTINUOUS
 62
     3
 10
1292.205125
 20
2141.462297
 11
1292.205125
 21
2131.962297
  0
LINE
  8
CSLAYER1
  6
CONTINUOUS
 62
     3
 10
1291.356619
 20
2130.492642
 11
1282.205125
 21
2130.492642
  0
LINE
  8
CSLAYER1
  6
CONTINUOUS
 62
     3
 10
1291.356619
 20
2135.977469
 11
1282.205125
 21
2135.977469
  0
LINE
  8
CSLAYER1
  6
CONTINUOUS
 62
     3
 10
1292.205125
 20
2131.962297
 11
1291.356619
 21
2130.492642
  0
ARC
  8
CSLAYER1
  6
CONTINUOUS
 62
     3
 10
1274.053630
 20
2141.462297
 40
18.151494
 50
-17.587954
 51
0.000000
  0
ARC
  8
CSLAYER1
  6
CONTINUOUS
 62
     3
 10
1287.351869
 20
2133.235055
 40
4.853746
 50
-25.597034
 51
34.402966
  0
LINE
  8
CSLAYER1
  6
CONTINUOUS
 62
     3
 10
1292.205125
 20
2141.462297
 11
1292.205125
 21
2150.962297
  0
LINE
  8
CSLAYER1
  6
CONTINUOUS
 62
     3
 10
1291.356619
 20
2152.431952
 11
1282.205125
 21
2152.431952
  0
LINE
  8
CSLAYER1
  6
CONTINUOUS
 62
     3
 10
1291.356619
 20
2146.947124
 11
1282.205125
 21
2146.947124
  0
LINE
  8
CSLAYER1
  6
CONTINUOUS
 62
     3
 10
1292.205125
 20
2150.962297
 11
1291.356619
 21
2152.431952
  0
ARC
  8
CSLAYER1
  6
CONTINUOUS
 62
     3
 10
1274.053630
 20
2141.462297
 40
18.151494
 50
-0.000000
 51
17.587954
  0
ARC
  8
CSLAYER1
  6
CONTINUOUS
 62
     3
 10
1287.351869
 20
2149.689538
 40
4.853746
 50
-34.402966
 51
25.597034
  0
LINE
  8
CSLAYER1
  6
CONTINUOUS
 62
     3
 10
1275.905125
 20
2141.462297
 11
1275.905125
 21
2150.462297
  0
LINE
  8
CSLAYER1
  6
CONTINUOUS
 62
     3
 10
1276.905125
 20
2149.462297
 11
1275.905125
 21
2150.462297
  0
LINE
  8
CSLAYER1
  6
CONTINUOUS
 62
     3
 10
1276.905125
 20
2153.462297
 11
1279.205125
 21
2153.462297
  0
LINE
  8
CSLAYER1
  6
CONTINUOUS
 62
     3
 10
1279.205125
 20
2152.212297
 11
1282.205125
 21
2152.212297
  0
LINE
  8
CSLAYER1
  6
CONTINUOUS
 62
     3
 10
1292.205125
 20
2136.262297
 11
1292.905125
 21
2136.262297
  0
LINE
  8
CSLAYER1
  6
CONTINUOUS
 62
     3
 10
1292.905125
 20
2136.262297
 11
1292.205125
 21
2135.462297
  0
LINE
  8
CSLAYER1
  6
CONTINUOUS
 62
     3
 10
1292.205125
 20
2146.662297
 11
1292.905125
 21
2146.662297
  0
LINE
  8
CSLAYER1
  6
CONTINUOUS
 62
     3
 10
1292.905125
 20
2146.662297
 11
1292.205125
 21
2147.462297
  0
POINT
  8
CSLAYER1
 62
     3
 10
1275.905125
 20
2141.462297
  0
ENDBLK
  8
0
  0
BLOCK
  8
CSLAYER1
  2
BLKF0030
 70
   64
 10
0.0
 20
0.0
 30
0.0
  0
LINE
  8
CSLAYER1
  6
CONTINUOUS
 62
     3
 10
1263.405125
 20
2126.462297
 11
1266.405125
 21
2126.462297
  0
LINE
  8
CSLAYER1
  6
CONTINUOUS
 62
     3
 10
1263.405125
 20
2126.462297
 11
1263.405125
 21
2156.462297
  0
LINE
  8
CSLAYER1
  6
CONTINUOUS
 62
     3
 10
1266.405125
 20
2126.462297
 11
1266.405125
 21
2156.462297
  0
LINE
  8
CSLAYER1
  6
CONTINUOUS
 62
     3
 10
1263.405125
 20
2156.462297
 11
1266.405125
 21
2156.462297
  0
ENDBLK
  8
0
  0
BLOCK
  8
CSLAYER1
  2
BLKF0031
 70
   64
 10
0.0
 20
0.0
 30
0.0
  0
LINE
  8
CSLAYER1
  6
CONTINUOUS
 62
     3
 10
919.905125
 20
2141.462297
 11
919.905125
 21
2132.462297
  0
LINE
  8
CSLAYER1
  6
CONTINUOUS
 62
     3
 10
918.905125
 20
2153.462297
 11
918.905125
 21
2129.462297
  0
LINE
  8
CSLAYER1
  6
CONTINUOUS
 62
     3
 10
902.905125
 20
2146.662297
 11
902.905125
 21
2136.262297
  0
LINE
  8
CSLAYER1
  6
CONTINUOUS
 62
     3
 10
918.905125
 20
2133.462297
 11
919.905125
 21
2132.462297
  0
LINE
  8
CSLAYER1
  6
CONTINUOUS
 62
     3
 10
916.605125
 20
2153.462297
 11
916.605125
 21
2129.462297
  0
LINE
  8
CSLAYER1
  6
CONTINUOUS
 62
     3
 10
918.905125
 20
2129.462297
 11
916.605125
 21
2129.462297
  0
LINE
  8
CSLAYER1
  6
CONTINUOUS
 62
     3
 10
913.605125
 20
2152.431952
 11
913.605125
 21
2130.492642
  0
LINE
  8
CSLAYER1
  6
CONTINUOUS
 62
     3
 10
916.605125
 20
2130.712297
 11
913.605125
 21
2130.712297
  0
LINE
  8
CSLAYER1
  6
CONTINUOUS
 62
     3
 10
903.605125
 20
2141.462297
 11
903.605125
 21
2131.962297
  0
LINE
  8
CSLAYER1
  6
CONTINUOUS
 62
     3
 10
904.453630
 20
2130.492642
 11
913.605125
 21
2130.492642
  0
LINE
  8
CSLAYER1
  6
CONTINUOUS
 62
     3
 10
904.453630
 20
2135.977469
 11
913.605125
 21
2135.977469
  0
LINE
  8
CSLAYER1
  6
CONTINUOUS
 62
     3
 10
903.605125
 20
2131.962297
 11
904.453630
 21
2130.492642
  0
ARC
  8
CSLAYER1
  6
CONTINUOUS
 62
     3
 10
921.756619
 20
2141.462297
 40
18.151494
 50
180.000000
 51
197.587954
  0
ARC
  8
CSLAYER1
  6
CONTINUOUS
 62
     3
 10
908.458380
 20
2133.235055
 40
4.853746
 50
145.597034
 51
205.597034
  0
LINE
  8
CSLAYER1
  6
CONTINUOUS
 62
     3
 10
903.605125
 20
2141.462297
 11
903.605125
 21
2150.962297
  0
LINE
  8
CSLAYER1
  6
CONTINUOUS
 62
     3
 10
904.453630
 20
2152.431952
 11
913.605125
 21
2152.431952
  0
LINE
  8
CSLAYER1
  6
CONTINUOUS
 62
     3
 10
904.453630
 20
2146.947124
 11
913.605125
 21
2146.947124
  0
LINE
  8
CSLAYER1
  6
CONTINUOUS
 62
     3
 10
903.605125
 20
2150.962297
 11
904.453630
 21
2152.431952
  0
ARC
  8
CSLAYER1
  6
CONTINUOUS
 62
     3
 10
921.756619
 20
2141.462297
 40
18.151494
 50
162.412046
 51
180.000000
  0
ARC
  8
CSLAYER1
  6
CONTINUOUS
 62
     3
 10
908.458380
 20
2149.689538
 40
4.853746
 50
154.402966
 51
214.402966
  0
LINE
  8
CSLAYER1
  6
CONTINUOUS
 62
     3
 10
919.905125
 20
2141.462297
 11
919.905125
 21
2150.462297
  0
LINE
  8
CSLAYER1
  6
CONTINUOUS
 62
     3
 10
918.905125
 20
2149.462297
 11
919.905125
 21
2150.462297
  0
LINE
  8
CSLAYER1
  6
CONTINUOUS
 62
     3
 10
918.905125
 20
2153.462297
 11
916.605125
 21
2153.462297
  0
LINE
  8
CSLAYER1
  6
CONTINUOUS
 62
     3
 10
916.605125
 20
2152.212297
 11
913.605125
 21
2152.212297
  0
LINE
  8
CSLAYER1
  6
CONTINUOUS
 62
     3
 10
903.605125
 20
2136.262297
 11
902.905125
 21
2136.262297
  0
LINE
  8
CSLAYER1
  6
CONTINUOUS
 62
     3
 10
902.905125
 20
2136.262297
 11
903.605125
 21
2135.462297
  0
LINE
  8
CSLAYER1
  6
CONTINUOUS
 62
     3
 10
903.605125
 20
2146.662297
 11
902.905125
 21
2146.662297
  0
LINE
  8
CSLAYER1
  6
CONTINUOUS
 62
     3
 10
902.905125
 20
2146.662297
 11
903.605125
 21
2147.462297
  0
POINT
  8
CSLAYER1
 62
     3
 10
919.905125
 20
2141.462297
  0
ENDBLK
  8
0
  0
BLOCK
  8
CSLAYER1
  2
BLKF0032
 70
   64
 10
0.0
 20
0.0
 30
0.0
  0
LINE
  8
CSLAYER1
  6
CONTINUOUS
 62
     3
 10
932.405125
 20
2126.462297
 11
929.405125
 21
2126.462297
  0
LINE
  8
CSLAYER1
  6
CONTINUOUS
 62
     3
 10
932.405125
 20
2126.462297
 11
932.405125
 21
2156.462297
  0
LINE
  8
CSLAYER1
  6
CONTINUOUS
 62
     3
 10
929.405125
 20
2126.462297
 11
929.405125
 21
2156.462297
  0
LINE
  8
CSLAYER1
  6
CONTINUOUS
 62
     3
 10
932.405125
 20
2156.462297
 11
929.405125
 21
2156.462297
  0
ENDBLK
  8
0
  0
BLOCK
  8
CSLAYER1
  2
BLKF0033
 70
   64
 10
0.0
 20
0.0
 30
0.0
  0
LINE
  8
CSLAYER1
  6
CONTINUOUS
 62
     4
 10
1280.405125
 20
1854.362423
 11
1280.405125
 21
1834.732514
  0
LINE
  8
CSLAYER1
  6
CONTINUOUS
 62
     4
 10
1287.405125
 20
1853.047469
 11
1287.405125
 21
1836.047469
  0
LINE
  8
CSLAYER1
  6
CONTINUOUS
 62
     4
 10
1277.905125
 20
1855.047469
 11
1277.905125
 21
1834.047469
  0
LINE
  8
CSLAYER1
  6
CONTINUOUS
 62
     4
 10
1275.905125
 20
1855.047469
 11
1275.905125
 21
1834.047469
  0
LINE
  8
CSLAYER1
  6
CONTINUOUS
 62
     4
 10
1275.905125
 20
1855.047469
 11
1277.905125
 21
1855.047469
  0
LINE
  8
CSLAYER1
  6
CONTINUOUS
 62
     4
 10
1277.905125
 20
1853.747469
 11
1280.405125
 21
1853.747469
  0
LINE
  8
CSLAYER1
  6
CONTINUOUS
 62
     4
 10
1275.905125
 20
1834.047469
 11
1277.905125
 21
1834.047469
  0
LINE
  8
CSLAYER1
  6
CONTINUOUS
 62
     4
 10
1277.905125
 20
1835.347469
 11
1280.405125
 21
1835.347469
  0
LINE
  8
CSLAYER1
  6
CONTINUOUS
 62
     4
 10
1280.405125
 20
1854.362423
 11
1286.645935
 21
1854.362423
  0
LINE
  8
CSLAYER1
  6
CONTINUOUS
 62
     4
 10
1280.405125
 20
1849.454946
 11
1286.645935
 21
1849.454946
  0
LINE
  8
CSLAYER1
  6
CONTINUOUS
 62
     4
 10
1287.405125
 20
1853.047469
 11
1286.645935
 21
1854.362423
  0
ARC
  8
CSLAYER1
  6
CONTINUOUS
 62
     4
 10
1271.164314
 20
1844.547469
 40
16.240811
 50
0.000000
 51
17.587954
  0
ARC
  8
CSLAYER1
  6
CONTINUOUS
 62
     4
 10
1283.065342
 20
1851.908685
 40
4.340677
 50
-34.422385
 51
25.577615
  0
LINE
  8
CSLAYER1
  6
CONTINUOUS
 62
     4
 10
1280.405125
 20
1834.732514
 11
1286.645935
 21
1834.732514
  0
LINE
  8
CSLAYER1
  6
CONTINUOUS
 62
     4
 10
1280.405125
 20
1839.639991
 11
1286.645935
 21
1839.639991
  0
LINE
  8
CSLAYER1
  6
CONTINUOUS
 62
     4
 10
1287.405125
 20
1836.047469
 11
1286.645935
 21
1834.732514
  0
ARC
  8
CSLAYER1
  6
CONTINUOUS
 62
     4
 10
1271.164314
 20
1844.547469
 40
16.240811
 50
342.412046
 51
360.000000
  0
ARC
  8
CSLAYER1
  6
CONTINUOUS
 62
     4
 10
1283.065342
 20
1837.186253
 40
4.340677
 50
-25.577615
 51
34.422385
  0
LINE
  8
CSLAYER1
  6
CONTINUOUS
 62
     4
 10
1280.405125
 20
1845.912422
 11
1277.905125
 21
1843.170487
  0
ENDBLK
  8
0
  0
BLOCK
  8
CSLAYER1
  2
BLKF0034
 70
   64
 10
0.0
 20
0.0
 30
0.0
  0
LINE
  8
CSLAYER1
  6
CONTINUOUS
 62
     4
 10
915.405125
 20
1854.362423
 11
915.405125
 21
1834.732514
  0
LINE
  8
CSLAYER1
  6
CONTINUOUS
 62
     4
 10
908.405125
 20
1853.047469
 11
908.405125
 21
1836.047469
  0
LINE
  8
CSLAYER1
  6
CONTINUOUS
 62
     4
 10
917.905125
 20
1855.047469
 11
917.905125
 21
1834.047469
  0
LINE
  8
CSLAYER1
  6
CONTINUOUS
 62
     4
 10
919.905125
 20
1855.047469
 11
919.905125
 21
1834.047469
  0
LINE
  8
CSLAYER1
  6
CONTINUOUS
 62
     4
 10
919.905125
 20
1855.047469
 11
917.905125
 21
1855.047469
  0
LINE
  8
CSLAYER1
  6
CONTINUOUS
 62
     4
 10
917.905125
 20
1853.747469
 11
915.405125
 21
1853.747469
  0
LINE
  8
CSLAYER1
  6
CONTINUOUS
 62
     4
 10
919.905125
 20
1834.047469
 11
917.905125
 21
1834.047469
  0
LINE
  8
CSLAYER1
  6
CONTINUOUS
 62
     4
 10
917.905125
 20
1835.347469
 11
915.405125
 21
1835.347469
  0
LINE
  8
CSLAYER1
  6
CONTINUOUS
 62
     4
 10
915.405125
 20
1854.362423
 11
909.164314
 21
1854.362423
  0
LINE
  8
CSLAYER1
  6
CONTINUOUS
 62
     4
 10
915.405125
 20
1849.454946
 11
909.164314
 21
1849.454946
  0
LINE
  8
CSLAYER1
  6
CONTINUOUS
 62
     4
 10
908.405125
 20
1853.047469
 11
909.164314
 21
1854.362423
  0
ARC
  8
CSLAYER1
  6
CONTINUOUS
 62
     4
 10
924.645935
 20
1844.547469
 40
16.240811
 50
162.412046
 51
180.000000
  0
ARC
  8
CSLAYER1
  6
CONTINUOUS
 62
     4
 10
912.744907
 20
1851.908685
 40
4.340677
 50
154.422385
 51
214.422385
  0
LINE
  8
CSLAYER1
  6
CONTINUOUS
 62
     4
 10
915.405125
 20
1834.732514
 11
909.164314
 21
1834.732514
  0
LINE
  8
CSLAYER1
  6
CONTINUOUS
 62
     4
 10
915.405125
 20
1839.639991
 11
909.164314
 21
1839.639991
  0
LINE
  8
CSLAYER1
  6
CONTINUOUS
 62
     4
 10
908.405125
 20
1836.047469
 11
909.164314
 21
1834.732514
  0
ARC
  8
CSLAYER1
  6
CONTINUOUS
 62
     4
 10
924.645935
 20
1844.547469
 40
16.240811
 50
180.000000
 51
197.587954
  0
ARC
  8
CSLAYER1
  6
CONTINUOUS
 62
     4
 10
912.744907
 20
1837.186253
 40
4.340677
 50
145.577615
 51
205.577615
  0
LINE
  8
CSLAYER1
  6
CONTINUOUS
 62
     4
 10
915.405125
 20
1845.912422
 11
917.905125
 21
1843.170487
  0
ENDBLK
  8
0
  0
BLOCK
  8
CSLAYER1
  2
BLKF0035
 70
   64
 10
0.0
 20
0.0
 30
0.0
  0
LINE
  8
CSLAYER1
  6
CONTINUOUS
 62
     3
 10
873.405125
 20
803.388157
 11
854.405125
 21
803.388157
  0
LINE
  8
CSLAYER1
  6
CONTINUOUS
 62
     3
 10
873.405125
 20
813.388157
 11
854.405125
 21
813.388157
  0
LINE
  8
CSLAYER1
  6
CONTINUOUS
 62
     3
 10
874.874780
 20
812.539651
 11
874.874780
 21
804.236663
  0
LINE
  8
CSLAYER1
  6
CONTINUOUS
 62
     3
 10
869.389952
 20
812.539651
 11
869.389952
 21
804.236663
  0
LINE
  8
CSLAYER1
  6
CONTINUOUS
 62
     3
 10
873.405125
 20
813.388157
 11
874.874780
 21
812.539651
  0
ARC
  8
CSLAYER1
  6
CONTINUOUS
 62
     3
 10
863.905125
 20
795.236663
 40
18.151494
 50
72.412046
 51
90.000000
  0
ARC
  8
CSLAYER1
  6
CONTINUOUS
 62
     3
 10
872.132366
 20
808.545765
 40
4.844787
 50
64.475551
 51
124.475551
  0
LINE
  8
CSLAYER1
  6
CONTINUOUS
 62
     3
 10
852.935469
 20
812.539651
 11
852.935469
 21
804.236663
  0
LINE
  8
CSLAYER1
  6
CONTINUOUS
 62
     3
 10
858.420297
 20
812.539651
 11
858.420297
 21
804.236663
  0
LINE
  8
CSLAYER1
  6
CONTINUOUS
 62
     3
 10
854.405125
 20
813.388157
 11
852.935469
 21
812.539651
  0
ARC
  8
CSLAYER1
  6
CONTINUOUS
 62
     3
 10
863.905125
 20
795.236663
 40
18.151494
 50
90.000000
 51
107.587954
  0
ARC
  8
CSLAYER1
  6
CONTINUOUS
 62
     3
 10
855.677883
 20
808.545765
 40
4.844787
 50
55.524449
 51
115.524449
  0
LINE
  8
CSLAYER1
  6
CONTINUOUS
 62
     3
 10
873.405125
 20
803.388157
 11
854.405125
 21
803.388157
  0
LINE
  8
CSLAYER1
  6
CONTINUOUS
 62
     3
 10
873.405125
 20
803.388157
 11
874.874780
 21
804.236663
  0
ARC
  8
CSLAYER1
  6
CONTINUOUS
 62
     3
 10
863.905125
 20
821.539651
 40
18.151494
 50
270.000000
 51
287.587954
  0
ARC
  8
CSLAYER1
  6
CONTINUOUS
 62
     3
 10
872.132366
 20
808.230550
 40
4.844787
 50
235.524449
 51
295.524449
  0
LINE
  8
CSLAYER1
  6
CONTINUOUS
 62
     3
 10
854.405125
 20
803.388157
 11
852.935469
 21
804.236663
  0
ARC
  8
CSLAYER1
  6
CONTINUOUS
 62
     3
 10
863.905125
 20
821.539651
 40
18.151494
 50
252.412046
 51
270.000000
  0
ARC
  8
CSLAYER1
  6
CONTINUOUS
 62
     3
 10
855.677883
 20
808.230550
 40
4.844787
 50
244.475551
 51
304.475551
  0
POINT
  8
CSLAYER1
 62
     3
 10
863.905125
 20
813.388157
  0
ENDBLK
  8
0
  0
BLOCK
  8
CSLAYER1
  2
BLKF0036
 70
   64
 10
0.0
 20
0.0
 30
0.0
  0
LINE
  8
CSLAYER1
  6
CONTINUOUS
 62
     3
 10
1706.414616
 20
2958.948305
 11
1706.414616
 21
2896.948305
  0
LINE
  8
CSLAYER1
  6
CONTINUOUS
 62
     3
 10
1703.914616
 20
2961.448305
 11
1618.914616
 21
2961.448305
  0
LINE
  8
CSLAYER1
  6
CENTER
 62
     5
 10
1764.764255
 20
2888.948305
 11
1706.414616
 21
2888.948305
  0
LINE
  8
CSLAYER1
  6
CONTINUOUS
 62
     2
 10
1703.914616
 20
2904.948305
 11
1618.914616
 21
2904.948305
  0
LINE
  8
CSLAYER1
  6
CONTINUOUS
 62
     3
 10
1703.914616
 20
2956.448305
 11
1703.914616
 21
2911.448305
  0
LINE
  8
CSLAYER1
  6
CONTINUOUS
 62
     3
 10
1616.414616
 20
2958.948305
 11
1616.414616
 21
2888.948305
  0
LINE
  8
CSLAYER1
  6
CONTINUOUS
 62
     3
 10
1701.414616
 20
2958.948305
 11
1624.414616
 21
2958.948305
  0
LINE
  8
CSLAYER1
  6
CONTINUOUS
 62
     3
 10
1701.414616
 20
2908.948305
 11
1624.414616
 21
2908.948305
  0
ARC
  8
CSLAYER1
  6
CONTINUOUS
 62
     3
 10
1678.482798
 20
2933.948305
 40
59.568182
 50
155.185163
 51
204.814837
  0
ARC
  8
CSLAYER1
  6
CONTINUOUS
 62
     3
 10
1701.414616
 20
2956.448305
 40
2.500000
 50
0.000000
 51
90.000000
  0
ARC
  8
CSLAYER1
  6
CONTINUOUS
 62
     3
 10
1701.414616
 20
2911.448305
 40
2.500000
 50
270.000000
 51
360.000000
  0
ARC
  8
CSLAYER1
  6
CONTINUOUS
 62
     3
 10
1703.914616
 20
2958.948305
 40
2.500000
 50
0.000000
 51
90.000000
  0
ARC
  8
CSLAYER1
  6
CONTINUOUS
 62
     3
 10
1618.914616
 20
2958.948305
 40
2.500000
 50
90.000000
 51
180.000000
  0
ARC
  8
CSLAYER1
  6
CONTINUOUS
 62
     2
 10
1618.914616
 20
2902.448305
 40
2.500000
 50
90.000000
 51
180.000000
  0
ARC
  8
CSLAYER1
  6
CONTINUOUS
 62
     2
 10
1703.914616
 20
2902.448305
 40
2.500000
 50
0.000000
 51
90.000000
  0
LINE
  8
CSLAYER1
  6
CONTINUOUS
 62
     3
 10
1706.414616
 20
2818.948305
 11
1706.414616
 21
2880.948305
  0
LINE
  8
CSLAYER1
  6
CONTINUOUS
 62
     3
 10
1703.914616
 20
2816.448305
 11
1618.914616
 21
2816.448305
  0
LINE
  8
CSLAYER1
  6
CONTINUOUS
 62
     2
 10
1703.914616
 20
2872.948305
 11
1618.914616
 21
2872.948305
  0
LINE
  8
CSLAYER1
  6
CONTINUOUS
 62
     3
 10
1616.414616
 20
2818.948305
 11
1616.414616
 21
2888.948305
  0
ARC
  8
CSLAYER1
  6
CONTINUOUS
 62
     3
 10
1703.914616
 20
2818.948305
 40
2.500000
 50
270.000000
 51
360.000000
  0
ARC
  8
CSLAYER1
  6
CONTINUOUS
 62
     3
 10
1618.914616
 20
2818.948305
 40
2.500000
 50
180.000000
 51
270.000000
  0
ARC
  8
CSLAYER1
  6
CONTINUOUS
 62
     2
 10
1618.914616
 20
2875.448305
 40
2.500000
 50
180.000000
 51
270.000000
  0
ARC
  8
CSLAYER1
  6
CONTINUOUS
 62
     2
 10
1703.914616
 20
2875.448305
 40
2.500000
 50
270.000000
 51
360.000000
  0
LINE
  8
CSLAYER1
  6
CONTINUOUS
 62
     3
 10
1703.914616
 20
2821.448305
 11
1703.914616
 21
2866.448305
  0
LINE
  8
CSLAYER1
  6
CONTINUOUS
 62
     3
 10
1701.414616
 20
2818.948305
 11
1624.414616
 21
2818.948305
  0
LINE
  8
CSLAYER1
  6
CONTINUOUS
 62
     3
 10
1701.414616
 20
2868.948305
 11
1624.414616
 21
2868.948305
  0
ARC
  8
CSLAYER1
  6
CONTINUOUS
 62
     3
 10
1678.482798
 20
2843.948305
 40
59.568182
 50
155.185163
 51
204.814837
  0
ARC
  8
CSLAYER1
  6
CONTINUOUS
 62
     3
 10
1701.414616
 20
2821.448305
 40
2.500000
 50
270.000000
 51
360.000000
  0
ARC
  8
CSLAYER1
  6
CONTINUOUS
 62
     3
 10
1701.414616
 20
2866.448305
 40
2.500000
 50
0.000000
 51
90.000000
  0
LINE
  8
CSLAYER1
  6
CONTINUOUS
 62
     3
 10
1713.414616
 20
2881.948305
 11
1713.414616
 21
2885.448305
  0
LINE
  8
CSLAYER1
  6
CONTINUOUS
 62
     3
 10
1764.764255
 20
2885.448305
 11
1713.414616
 21
2885.448305
  0
LINE
  8
CSLAYER1
  6
CONTINUOUS
 62
     3
 10
1712.414616
 20
2880.948305
 11
1706.414616
 21
2880.948305
  0
LINE
  8
CSLAYER1
  6
CONTINUOUS
 62
     3
 10
1712.414616
 20
2896.948305
 11
1706.414616
 21
2896.948305
  0
LINE
  8
CSLAYER1
  6
CONTINUOUS
 62
     3
 10
1764.764255
 20
2892.448305
 11
1713.414616
 21
2892.448305
  0
ARC
  8
CSLAYER1
  6
CONTINUOUS
 62
     3
 10
1712.414616
 20
2895.948305
 40
1.000000
 50
0.000000
 51
90.000000
  0
ARC
  8
CSLAYER1
  6
CONTINUOUS
 62
     3
 10
1712.414616
 20
2881.948305
 40
1.000000
 50
270.000000
 51
360.000000
  0
LINE
  8
CSLAYER1
  6
CONTINUOUS
 62
     3
 10
1713.414616
 20
2892.448305
 11
1713.414616
 21
2895.948305
  0
LINE
  8
CSLAYER1
  6
CONTINUOUS
 62
     2
 10
1713.414616
 20
2885.448305
 11
1713.414616
 21
2892.448305
  0
LINE
  8
CSLAYER1
  6
CONTINUOUS
 62
     2
 10
1706.414616
 20
2896.948305
 11
1706.414616
 21
2888.948305
  0
LINE
  8
CSLAYER1
  6
CONTINUOUS
 62
     2
 10
1706.414616
 20
2880.948305
 11
1706.414616
 21
2888.948305
  0
LINE
  8
CSLAYER1
  6
CONTINUOUS
 62
     2
 10
1686.921604
 20
2901.110964
 11
1696.056604
 21
2901.110964
  0
LINE
  8
CSLAYER1
  6
CONTINUOUS
 62
     2
 10
1686.921604
 20
2877.485964
 11
1696.056604
 21
2877.485964
  0
LINE
  8
CSLAYER1
  6
CONTINUOUS
 62
     2
 10
1697.316604
 20
2899.850964
 11
1697.316604
 21
2878.745964
  0
LINE
  8
CSLAYER1
  6
CONTINUOUS
 62
     2
 10
1685.661604
 20
2899.850964
 11
1685.661604
 21
2878.745964
  0
LINE
  8
CSLAYER1
  6
CONTINUOUS
 62
     2
 10
1687.551604
 20
2879.375964
 11
1695.584104
 21
2879.375964
  0
LINE
  8
CSLAYER1
  6
CONTINUOUS
 62
     2
 10
1687.551604
 20
2882.525964
 11
1688.496604
 21
2882.525964
  0
LINE
  8
CSLAYER1
  6
CONTINUOUS
 62
     2
 10
1687.551604
 20
2891.188464
 11
1688.496604
 21
2891.188464
  0
LINE
  8
CSLAYER1
  6
CONTINUOUS
 62
     2
 10
1687.551604
 20
2895.755964
 11
1692.591604
 21
2895.755964
  0
LINE
  8
CSLAYER1
  6
CONTINUOUS
 62
     2
 10
1686.449104
 20
2894.653464
 11
1686.449104
 21
2892.290964
  0
LINE
  8
CSLAYER1
  6
CONTINUOUS
 62
     2
 10
1693.694104
 20
2894.653464
 11
1693.694104
 21
2892.290964
  0
LINE
  8
CSLAYER1
  6
CONTINUOUS
 62
     2
 10
1696.686604
 20
2881.423464
 11
1696.686604
 21
2880.478464
  0
LINE
  8
CSLAYER1
  6
CONTINUOUS
 62
     2
 10
1689.441604
 20
2890.243464
 11
1689.441604
 21
2883.470964
  0
LINE
  8
CSLAYER1
  6
CONTINUOUS
 62
     2
 10
1690.229104
 20
2890.243464
 11
1690.229104
 21
2883.470964
  0
ARC
  8
CSLAYER1
  6
CONTINUOUS
 62
     2
 10
1687.551604
 20
2894.653464
 40
1.102500
 50
90.000000
 51
180.000000
  0
ARC
  8
CSLAYER1
  6
CONTINUOUS
 62
     2
 10
1692.591604
 20
2894.653464
 40
1.102500
 50
0.000000
 51
90.000000
  0
ARC
  8
CSLAYER1
  6
CONTINUOUS
 62
     2
 10
1692.591604
 20
2892.290964
 40
1.102500
 50
270.000000
 51
360.000000
  0
ARC
  8
CSLAYER1
  6
CONTINUOUS
 62
     2
 10
1687.551604
 20
2892.290964
 40
1.102500
 50
180.000000
 51
270.000000
  0
ARC
  8
CSLAYER1
  6
CONTINUOUS
 62
     2
 10
1695.584104
 20
2881.423464
 40
1.102500
 50
0.000000
 51
90.000000
  0
ARC
  8
CSLAYER1
  6
CONTINUOUS
 62
     2
 10
1695.584104
 20
2880.478464
 40
1.102500
 50
270.000000
 51
360.000000
  0
ARC
  8
CSLAYER1
  6
CONTINUOUS
 62
     2
 10
1687.551604
 20
2880.478464
 40
1.102500
 50
180.000000
 51
270.000000
  0
ARC
  8
CSLAYER1
  6
CONTINUOUS
 62
     2
 10
1687.551604
 20
2881.423464
 40
1.102500
 50
90.000000
 51
180.000000
  0
LINE
  8
CSLAYER1
  6
CONTINUOUS
 62
     2
 10
1691.174104
 20
2891.188464
 11
1692.591604
 21
2891.188464
  0
LINE
  8
CSLAYER1
  6
CONTINUOUS
 62
     2
 10
1691.174104
 20
2882.525964
 11
1695.584104
 21
2882.525964
  0
ARC
  8
CSLAYER1
  6
CONTINUOUS
 62
     2
 10
1688.496604
 20
2890.243464
 40
0.945000
 50
0.000000
 51
90.000000
  0
ARC
  8
CSLAYER1
  6
CONTINUOUS
 62
     2
 10
1691.174104
 20
2890.243464
 40
0.945000
 50
90.000000
 51
180.000000
  0
ARC
  8
CSLAYER1
  6
CONTINUOUS
 62
     2
 10
1691.174104
 20
2883.470964
 40
0.945000
 50
180.000000
 51
270.000000
  0
ARC
  8
CSLAYER1
  6
CONTINUOUS
 62
     2
 10
1686.921604
 20
2899.850964
 40
1.260000
 50
90.000000
 51
180.000000
  0
ARC
  8
CSLAYER1
  6
CONTINUOUS
 62
     2
 10
1696.056604
 20
2899.850964
 40
1.260000
 50
0.000000
 51
90.000000
  0
ARC
  8
CSLAYER1
  6
CONTINUOUS
 62
     2
 10
1696.056604
 20
2878.745964
 40
1.260000
 50
270.000000
 51
360.000000
  0
ARC
  8
CSLAYER1
  6
CONTINUOUS
 62
     2
 10
1686.921604
 20
2878.745964
 40
1.260000
 50
180.000000
 51
270.000000
  0
ARC
  8
CSLAYER1
  6
CONTINUOUS
 62
     2
 10
1688.496604
 20
2883.470964
 40
0.945000
 50
270.000000
 51
360.000000
  0
LINE
  8
CSLAYER1
  6
CONTINUOUS
 62
     2
 10
1686.449104
 20
2881.423464
 11
1686.449104
 21
2880.478464
  0
CIRCLE
  8
CSLAYER1
  6
CONTINUOUS
 62
     2
 10
1671.914616
 20
2938.948305
 40
2.500000
  0
CIRCLE
  8
CSLAYER1
  6
CONTINUOUS
 62
     2
 10
1671.914616
 20
2948.948305
 40
2.500000
  0
CIRCLE
  8
CSLAYER1
  6
CONTINUOUS
 62
     2
 10
1661.914616
 20
2948.948305
 40
2.500000
  0
CIRCLE
  8
CSLAYER1
  6
CONTINUOUS
 62
     2
 10
1661.914616
 20
2938.948305
 40
2.500000
  0
CIRCLE
  8
CSLAYER1
  6
CONTINUOUS
 62
     2
 10
1651.914616
 20
2938.948305
 40
2.500000
  0
CIRCLE
  8
CSLAYER1
  6
CONTINUOUS
 62
     2
 10
1651.914616
 20
2948.948305
 40
2.500000
  0
CIRCLE
  8
CSLAYER1
  6
CONTINUOUS
 62
     2
 10
1641.914616
 20
2948.948305
 40
2.500000
  0
CIRCLE
  8
CSLAYER1
  6
CONTINUOUS
 62
     2
 10
1641.914616
 20
2938.948305
 40
2.500000
  0
CIRCLE
  8
CSLAYER1
  6
CONTINUOUS
 62
     2
 10
1631.914616
 20
2938.948305
 40
2.500000
  0
CIRCLE
  8
CSLAYER1
  6
CONTINUOUS
 62
     2
 10
1631.914616
 20
2948.948305
 40
2.500000
  0
CIRCLE
  8
CSLAYER1
  6
CONTINUOUS
 62
     2
 10
1671.914616
 20
2928.948305
 40
2.500000
  0
CIRCLE
  8
CSLAYER1
  6
CONTINUOUS
 62
     2
 10
1671.914616
 20
2918.948305
 40
2.500000
  0
CIRCLE
  8
CSLAYER1
  6
CONTINUOUS
 62
     2
 10
1661.914616
 20
2918.948305
 40
2.500000
  0
CIRCLE
  8
CSLAYER1
  6
CONTINUOUS
 62
     2
 10
1661.914616
 20
2928.948305
 40
2.500000
  0
CIRCLE
  8
CSLAYER1
  6
CONTINUOUS
 62
     2
 10
1651.914616
 20
2928.948305
 40
2.500000
  0
CIRCLE
  8
CSLAYER1
  6
CONTINUOUS
 62
     2
 10
1651.914616
 20
2918.948305
 40
2.500000
  0
CIRCLE
  8
CSLAYER1
  6
CONTINUOUS
 62
     2
 10
1641.914616
 20
2918.948305
 40
2.500000
  0
CIRCLE
  8
CSLAYER1
  6
CONTINUOUS
 62
     2
 10
1641.914616
 20
2928.948305
 40
2.500000
  0
CIRCLE
  8
CSLAYER1
  6
CONTINUOUS
 62
     2
 10
1631.914616
 20
2928.948305
 40
2.500000
  0
CIRCLE
  8
CSLAYER1
  6
CONTINUOUS
 62
     2
 10
1631.914616
 20
2918.948305
 40
2.500000
  0
CIRCLE
  8
CSLAYER1
  6
CONTINUOUS
 62
     2
 10
1671.914616
 20
2838.948305
 40
2.500000
  0
CIRCLE
  8
CSLAYER1
  6
CONTINUOUS
 62
     2
 10
1671.914616
 20
2828.948305
 40
2.500000
  0
CIRCLE
  8
CSLAYER1
  6
CONTINUOUS
 62
     2
 10
1661.914616
 20
2828.948305
 40
2.500000
  0
CIRCLE
  8
CSLAYER1
  6
CONTINUOUS
 62
     2
 10
1661.914616
 20
2838.948305
 40
2.500000
  0
CIRCLE
  8
CSLAYER1
  6
CONTINUOUS
 62
     2
 10
1651.914616
 20
2838.948305
 40
2.500000
  0
CIRCLE
  8
CSLAYER1
  6
CONTINUOUS
 62
     2
 10
1651.914616
 20
2828.948305
 40
2.500000
  0
CIRCLE
  8
CSLAYER1
  6
CONTINUOUS
 62
     2
 10
1641.914616
 20
2828.948305
 40
2.500000
  0
CIRCLE
  8
CSLAYER1
  6
CONTINUOUS
 62
     2
 10
1641.914616
 20
2838.948305
 40
2.500000
  0
CIRCLE
  8
CSLAYER1
  6
CONTINUOUS
 62
     2
 10
1631.914616
 20
2838.948305
 40
2.500000
  0
CIRCLE
  8
CSLAYER1
  6
CONTINUOUS
 62
     2
 10
1631.914616
 20
2828.948305
 40
2.500000
  0
CIRCLE
  8
CSLAYER1
  6
CONTINUOUS
 62
     2
 10
1671.914616
 20
2848.948305
 40
2.500000
  0
CIRCLE
  8
CSLAYER1
  6
CONTINUOUS
 62
     2
 10
1671.914616
 20
2858.948305
 40
2.500000
  0
CIRCLE
  8
CSLAYER1
  6
CONTINUOUS
 62
     2
 10
1661.914616
 20
2858.948305
 40
2.500000
  0
CIRCLE
  8
CSLAYER1
  6
CONTINUOUS
 62
     2
 10
1661.914616
 20
2848.948305
 40
2.500000
  0
CIRCLE
  8
CSLAYER1
  6
CONTINUOUS
 62
     2
 10
1651.914616
 20
2848.948305
 40
2.500000
  0
CIRCLE
  8
CSLAYER1
  6
CONTINUOUS
 62
     2
 10
1651.914616
 20
2858.948305
 40
2.500000
  0
CIRCLE
  8
CSLAYER1
  6
CONTINUOUS
 62
     2
 10
1641.914616
 20
2858.948305
 40
2.500000
  0
CIRCLE
  8
CSLAYER1
  6
CONTINUOUS
 62
     2
 10
1641.914616
 20
2848.948305
 40
2.500000
  0
CIRCLE
  8
CSLAYER1
  6
CONTINUOUS
 62
     2
 10
1631.914616
 20
2848.948305
 40
2.500000
  0
CIRCLE
  8
CSLAYER1
  6
CONTINUOUS
 62
     2
 10
1631.914616
 20
2858.948305
 40
2.500000
  0
LINE
  8
CSLAYER1
  6
CONTINUOUS
 62
     2
 10
1697.914616
 20
2861.448305
 11
1697.914616
 21
2826.448305
  0
LINE
  8
CSLAYER1
  6
CONTINUOUS
 62
     2
 10
1681.914616
 20
2861.448305
 11
1681.914616
 21
2826.448305
  0
LINE
  8
CSLAYER1
  6
CONTINUOUS
 62
     2
 10
1696.414616
 20
2862.948305
 11
1683.414616
 21
2862.948305
  0
LINE
  8
CSLAYER1
  6
CONTINUOUS
 62
     2
 10
1696.914616
 20
2861.448305
 11
1696.914616
 21
2826.448305
  0
LINE
  8
CSLAYER1
  6
CONTINUOUS
 62
     2
 10
1682.914616
 20
2861.448305
 11
1682.914616
 21
2826.448305
  0
LINE
  8
CSLAYER1
  6
CONTINUOUS
 62
     2
 10
1696.414616
 20
2861.948305
 11
1683.414616
 21
2861.948305
  0
LINE
  8
CSLAYER1
  6
CONTINUOUS
 62
     2
 10
1696.414616
 20
2824.948305
 11
1683.414616
 21
2824.948305
  0
LINE
  8
CSLAYER1
  6
CONTINUOUS
 62
     2
 10
1696.414616
 20
2825.948305
 11
1683.414616
 21
2825.948305
  0
ARC
  8
CSLAYER1
  6
CONTINUOUS
 62
     2
 10
1696.414616
 20
2861.448305
 40
0.500000
 50
0.000000
 51
90.000000
  0
ARC
  8
CSLAYER1
  6
CONTINUOUS
 62
     2
 10
1683.414616
 20
2861.448305
 40
0.500000
 50
90.000000
 51
180.000000
  0
ARC
  8
CSLAYER1
  6
CONTINUOUS
 62
     2
 10
1696.414616
 20
2826.448305
 40
0.500000
 50
270.000000
 51
360.000000
  0
ARC
  8
CSLAYER1
  6
CONTINUOUS
 62
     2
 10
1683.414616
 20
2826.448305
 40
0.500000
 50
180.000000
 51
270.000000
  0
ARC
  8
CSLAYER1
  6
CONTINUOUS
 62
     2
 10
1696.414616
 20
2861.448305
 40
1.500000
 50
0.000000
 51
90.000000
  0
ARC
  8
CSLAYER1
  6
CONTINUOUS
 62
     2
 10
1683.414616
 20
2861.448305
 40
1.500000
 50
90.000000
 51
180.000000
  0
ARC
  8
CSLAYER1
  6
CONTINUOUS
 62
     2
 10
1696.414616
 20
2826.448305
 40
1.500000
 50
270.000000
 51
360.000000
  0
ARC
  8
CSLAYER1
  6
CONTINUOUS
 62
     2
 10
1683.414616
 20
2826.448305
 40
1.500000
 50
180.000000
 51
270.000000
  0
LINE
  8
CSLAYER1
  6
CONTINUOUS
 62
     2
 10
1692.914616
 20
2852.948305
 11
1692.914616
 21
2834.948305
  0
LINE
  8
CSLAYER1
  6
CONTINUOUS
 62
     2
 10
1695.992688
 20
2843.948305
 11
1692.914616
 21
2834.948305
  0
LINE
  8
CSLAYER1
  6
CONTINUOUS
 62
     2
 10
1695.992688
 20
2843.948305
 11
1692.914616
 21
2852.948305
  0
TEXT
  8
CSLAYER1
 62
     2
 10
1684.620657
 20
2852.928398
 40
7.066058
 41
1.574983
  1
UP
 50
270.000000
 51
0.000000
  7
EASYDRAW_FONT
 72
     5
 11
1684.620657
 21
2834.380195
  0
LINE
  8
CSLAYER1
  6
CONTINUOUS
 62
     2
 10
1697.914616
 20
2916.448305
 11
1697.914616
 21
2951.448305
  0
LINE
  8
CSLAYER1
  6
CONTINUOUS
 62
     2
 10
1681.914616
 20
2916.448305
 11
1681.914616
 21
2951.448305
  0
LINE
  8
CSLAYER1
  6
CONTINUOUS
 62
     2
 10
1696.414616
 20
2914.948305
 11
1683.414616
 21
2914.948305
  0
LINE
  8
CSLAYER1
  6
CONTINUOUS
 62
     2
 10
1696.914616
 20
2916.448305
 11
1696.914616
 21
2951.448305
  0
LINE
  8
CSLAYER1
  6
CONTINUOUS
 62
     2
 10
1682.914616
 20
2916.448305
 11
1682.914616
 21
2951.448305
  0
LINE
  8
CSLAYER1
  6
CONTINUOUS
 62
     2
 10
1696.414616
 20
2915.948305
 11
1683.414616
 21
2915.948305
  0
LINE
  8
CSLAYER1
  6
CONTINUOUS
 62
     2
 10
1696.414616
 20
2952.948305
 11
1683.414616
 21
2952.948305
  0
LINE
  8
CSLAYER1
  6
CONTINUOUS
 62
     2
 10
1696.414616
 20
2951.948305
 11
1683.414616
 21
2951.948305
  0
ARC
  8
CSLAYER1
  6
CONTINUOUS
 62
     2
 10
1696.414616
 20
2916.448305
 40
0.500000
 50
270.000000
 51
360.000000
  0
ARC
  8
CSLAYER1
  6
CONTINUOUS
 62
     2
 10
1683.414616
 20
2916.448305
 40
0.500000
 50
180.000000
 51
270.000000
  0
ARC
  8
CSLAYER1
  6
CONTINUOUS
 62
     2
 10
1696.414616
 20
2951.448305
 40
0.500000
 50
0.000000
 51
90.000000
  0
ARC
  8
CSLAYER1
  6
CONTINUOUS
 62
     2
 10
1683.414616
 20
2951.448305
 40
0.500000
 50
90.000000
 51
180.000000
  0
ARC
  8
CSLAYER1
  6
CONTINUOUS
 62
     2
 10
1696.414616
 20
2916.448305
 40
1.500000
 50
270.000000
 51
360.000000
  0
ARC
  8
CSLAYER1
  6
CONTINUOUS
 62
     2
 10
1683.414616
 20
2916.448305
 40
1.500000
 50
180.000000
 51
270.000000
  0
ARC
  8
CSLAYER1
  6
CONTINUOUS
 62
     2
 10
1696.414616
 20
2951.448305
 40
1.500000
 50
0.000000
 51
90.000000
  0
ARC
  8
CSLAYER1
  6
CONTINUOUS
 62
     2
 10
1683.414616
 20
2951.448305
 40
1.500000
 50
90.000000
 51
180.000000
  0
LINE
  8
CSLAYER1
  6
CONTINUOUS
 62
     2
 10
1687.441685
 20
2924.948305
 11
1687.441685
 21
2942.948305
  0
LINE
  8
CSLAYER1
  6
CONTINUOUS
 62
     2
 10
1684.363614
 20
2933.948305
 11
1687.441685
 21
2942.948305
  0
LINE
  8
CSLAYER1
  6
CONTINUOUS
 62
     2
 10
1684.363614
 20
2933.948305
 11
1687.441685
 21
2924.948305
  0
TEXT
  8
CSLAYER1
 62
     2
 10
1689.051743
 20
2948.646211
 40
6.383575
 41
1.255870
  1
DOWN
 50
270.000000
 51
0.000000
  7
EASYDRAW_FONT
 72
     5
 11
1689.051743
 21
2919.250762
  0
ENDBLK
  8
0
  0
ENDSEC
  0
SECTION
  2
ENTITIES
  0
LINE
  8
CSLAYER1
  6
CONTINUOUS
 62
     3
 10
180.707488
 20
3599.850540
 11
180.707488
 21
75.393795
  0
LINE
  8
CSLAYER1
  6
CONTINUOUS
 62
     3
 10
5161.512127
 20
3599.850540
 11
180.707488
 21
3599.850540
  0
LINE
  8
CSLAYER1
  6
CONTINUOUS
 62
     3
 10
5161.512127
 20
75.393795
 11
180.707488
 21
75.393795
  0
LINE
  8
CSLAYER1
  6
CONTINUOUS
 62
     3
 10
5161.512127
 20
75.393795
 11
5161.512127
 21
3599.850540
  0
LINE
  8
CSLAYER1
  6
CONTINUOUS
 62
     5
 10
105.707488
 20
1815.393795
 11
30.707488
 21
1815.393795
  0
LINE
  8
CSLAYER1
  6
CONTINUOUS
 62
     5
 10
3961.512127
 20
735.393795
 11
5161.512127
 21
735.393795
  0
LINE
  8
CSLAYER1
  6
CONTINUOUS
 62
     5
 10
3961.512127
 20
195.393795
 11
5161.512127
 21
195.393795
  0
LINE
  8
CSLAYER1
  6
CONTINUOUS
 62
     5
 10
3961.512127
 20
435.393795
 11
5161.512127
 21
435.393795
  0
LINE
  8
CSLAYER1
  6
CONTINUOUS
 62
     5
 10
3961.512127
 20
525.393795
 11
5161.512127
 21
525.393795
  0
LINE
  8
CSLAYER1
  6
CONTINUOUS
 62
     5
 10
3961.512127
 20
615.393795
 11
5161.512127
 21
615.393795
  0
LINE
  8
CSLAYER1
  6
CONTINUOUS
 62
     5
 10
3961.512127
 20
855.393795
 11
5161.512127
 21
855.393795
  0
LINE
  8
CSLAYER1
  6
CONTINUOUS
 62
     5
 10
3961.512127
 20
975.393795
 11
3961.512127
 21
75.393795
  0
LINE
  8
CSLAYER1
  6
CONTINUOUS
 62
     5
 10
4261.512127
 20
975.393795
 11
4261.512127
 21
615.393795
  0
LINE
  8
CSLAYER1
  6
CONTINUOUS
 62
     5
 10
3961.512127
 20
975.393795
 11
5161.512127
 21
975.393795
  0
LINE
  8
CSLAYER1
  6
CONTINUOUS
 62
     5
 10
4711.512127
 20
615.393795
 11
4711.512127
 21
195.393795
  0
TEXT
  8
CSLAYER1
 62
     3
 10
4291.048678
 20
88.237877
 40
89.070541
 41
1.003345
  1
東正車輌株式会社
 50
0.000000
 51
0.000000
  7
EASYDRAW_FONT
 72
     5
 11
4976.207181
 21
88.237877
  0
LINE
  8
CSLAYER1
  6
CONTINUOUS
 62
     5
 10
4336.512127
 20
525.393795
 11
4336.512127
 21
195.393795
  0
TEXT
  8
CSLAYER1
 62
     5
 10
4006.511719
 20
877.893738
 40
75.000000
 41
1.050000
  1
品　名
 50
0.000000
 51
0.000000
  7
EASYDRAW_FONT
 72
     5
 11
4216.511719
 21
877.893738
  0
TEXT
  8
CSLAYER1
 62
     5
 10
4006.511719
 20
757.893738
 40
75.000000
 41
1.050000
  1
型　式
 50
0.000000
 51
0.000000
  7
EASYDRAW_FONT
 72
     5
 11
4216.511719
 21
757.893738
  0
TEXT
  8
CSLAYER1
 62
     5
 10
3969.011719
 20
637.893799
 40
75.000000
 41
1.036364
  1
図面番号
 50
0.000000
 51
0.000000
  7
EASYDRAW_FONT
 72
     5
 11
4254.011719
 21
637.893799
  0
TEXT
  8
CSLAYER1
 62
     5
 10
4036.511719
 20
532.893799
 40
75.000000
 41
0.827586
  1
平成２８年４月１６日
 50
0.000000
 51
0.000000
  7
EASYDRAW_FONT
 72
     5
 11
4636.511719
 21
532.893799
  0
TEXT
  8
CSLAYER1
 62
     5
 10
4831.511719
 20
532.893799
 40
75.000000
 41
1.050000
  1
Ｂ－４
 50
0.000000
 51
0.000000
  7
EASYDRAW_FONT
 72
     5
 11
5041.511719
 21
532.893799
  0
TEXT
  8
CSLAYER1
 62
     5
 10
4044.011719
 20
442.893799
 40
75.000000
 41
1.050000
  1
検　図
 50
0.000000
 51
0.000000
  7
EASYDRAW_FONT
 72
     5
 11
4254.011719
 21
442.893799
  0
TEXT
  8
CSLAYER1
 62
     5
 10
4419.011719
 20
442.893799
 40
75.000000
 41
1.050000
  1
作　図
 50
0.000000
 51
0.000000
  7
EASYDRAW_FONT
 72
     5
 11
4629.011719
 21
442.893799
  0
TEXT
  8
CSLAYER1
 62
     5
 10
4831.511719
 20
442.893799
 40
75.000000
 41
1.050000
  1
尺　度
 50
0.000000
 51
0.000000
  7
EASYDRAW_FONT
 72
     5
 11
5041.511719
 21
442.893799
  0
TEXT
  8
CSLAYER1
 62
     5
 10
4982.620117
 20
217.121689
 40
75.000000
 41
1.080000
  1
１５
 50
0.000000
 51
0.000000
  7
EASYDRAW_FONT
 72
     5
 11
5117.620117
 21
217.121689
  0
TEXT
  8
CSLAYER1
 62
     5
 10
4952.140625
 20
288.678741
 40
75.000000
 41
1.200000
  1
／
 50
0.000000
 51
0.000000
  7
EASYDRAW_FONT
 72
     5
 11
5012.140625
 21
288.678741
  0
TEXT
  8
CSLAYER1
 62
     5
 10
4906.821289
 20
341.153900
 40
75.000000
 41
1.200000
  1
１
 50
0.000000
 51
0.000000
  7
EASYDRAW_FONT
 72
     5
 11
4966.821289
 21
341.153900
  0
TEXT
  8
CSLAYER1
 62
     3
 10
4471.511719
 20
877.893738
 40
75.000000
 41
0.834783
  1
ゴールドリフター
 50
0.000000
 51
0.000000
  7
EASYDRAW_FONT
 72
     5
 11
4951.511719
 21
877.893738
  0
TEXT
  8
CSLAYER1
 62
     3
 10
4291.511719
 20
757.893738
 40
75.000000
 41
0.819512
  1
ＧＬＩ－１００－０５０８Ｗ３
 50
0.000000
 51
0.000000
  7
EASYDRAW_FONT
 72
     5
 11
5131.511719
 21
757.893738
  0
TEXT
  8
CSLAYER1
 62
     3
 10
4561.511719
 20
637.893799
 40
75.000000
 41
0.857143
  1
ＧＩ－１５
 50
0.000000
 51
0.000000
  7
EASYDRAW_FONT
 72
     5
 11
4861.511719
 21
637.893799
  0
INSERT
  8
CSLAYER1
  2
BLKF0000
 10
0.0
 20
0.0
 30
0.0
  0
TEXT
  8
CSLAYER1
 62
     5
 10
3732.322266
 20
639.953735
 40
60.000000
 41
0.843750
  1
Ｆ.Ｌ
 50
0.000000
 51
0.000000
  7
EASYDRAW_FONT
 72
     5
 11
3867.322266
 21
639.953735
  0
LINE
  8
CSLAYER1
  6
CONTINUOUS
 62
     3
 10
2116.266768
 20
3048.608582
 11
2054.144260
 21
3048.608582
  0
LINE
  8
CSLAYER1
  6
CONTINUOUS
 62
     3
 10
2116.266768
 20
3041.608582
 11
2054.144260
 21
3041.608582
  0
LINE
  8
CSLAYER1
  6
CONTINUOUS
 62
     3
 10
2116.266768
 20
3006.408582
 11
2097.752554
 21
3006.408582
  0
LINE
  8
CSLAYER1
  6
CONTINUOUS
 62
     3
 10
2116.266768
 20
3013.408582
 11
2097.752554
 21
3013.408582
  0
TEXT
  8
CSLAYER1
 62
     5
 10
1032.570394
 20
3069.231398
 40
59.399998
 41
1.020000
  1
ＵＰ・ＤＯＷＮ
 50
0.000000
 51
0.000000
  7
EASYDRAW_FONT
 72
     5
 11
1436.490397
 21
3069.231398
  0
TEXT
  8
CSLAYER1
 62
     5
 10
1034.137776
 20
3150.734327
 40
59.399998
 41
1.020000
  1
フットスイッチ
 50
0.000000
 51
0.000000
  7
EASYDRAW_FONT
 72
     5
 11
1438.057780
 21
3150.734327
  0
TEXT
  8
CSLAYER1
 62
     5
 10
1168.691391
 20
2759.947218
 40
59.399998
 41
1.036364
  1
長サ４ｍ
 50
0.000000
 51
0.000000
  7
EASYDRAW_FONT
 72
     5
 11
1394.411393
 21
2759.947218
  0
TEXT
  8
CSLAYER1
 62
     5
 10
1164.069271
 20
2836.748487
 40
59.399998
 41
1.028571
  1
電源コード
 50
0.000000
 51
0.000000
  7
EASYDRAW_FONT
 72
     5
 11
1449.189274
 21
2836.748487
  0
LINE
  8
CSLAYER1
  6
CONTINUOUS
 62
     3
 10
1827.477001
 20
2885.448305
 11
1713.414616
 21
2885.448305
  0
LINE
  8
CSLAYER1
  6
CONTINUOUS
 62
     3
 10
1827.477001
 20
2892.448305
 11
1713.414616
 21
2892.448305
  0
ARC
  8
CSLAYER1
  6
CONTINUOUS
 62
     3
 10
1827.477001
 20
2932.448305
 40
40.000000
 50
-90.000000
 51
243.051119
  0
ARC
  8
CSLAYER1
  6
CONTINUOUS
 62
     3
 10
1827.477001
 20
2932.448305
 40
47.000000
 50
-90.000000
 51
230.026912
  0
LINE
  8
CSLAYER1
  6
CONTINUOUS
 62
     3
 10
2018.614048
 20
2967.540381
 11
1920.164997
 21
2840.092620
  0
LINE
  8
CSLAYER1
  6
CONTINUOUS
 62
     3
 10
2013.074352
 20
2971.819607
 11
1906.858272
 21
2834.316995
  0
LINE
  8
CSLAYER1
  6
CONTINUOUS
 62
     3
 10
1986.321731
 20
3015.093986
 11
1873.447310
 21
2910.917806
  0
LINE
  8
CSLAYER1
  6
CONTINUOUS
 62
     3
 10
1981.574154
 20
3020.237964
 11
1878.921120
 21
2925.495498
  0
ARC
  8
CSLAYER1
  6
CONTINUOUS
 62
     3
 10
1930.236518
 20
2787.698367
 40
47.000000
 50
-190.756396
 51
127.198537
  0
ARC
  8
CSLAYER1
  6
CONTINUOUS
 62
     3
 10
1930.236518
 20
2787.698367
 40
40.000000
 50
-203.471057
 51
127.198537
  0
LINE
  8
CSLAYER1
  6
CONTINUOUS
 62
     3
 10
1747.858366
 20
2699.490007
 11
1906.053367
 21
2819.560181
  0
LINE
  8
CSLAYER1
  6
CONTINUOUS
 62
     3
 10
1743.626314
 20
2705.065825
 11
1901.821315
 21
2825.135999
  0
ARC
  8
CSLAYER1
  6
CONTINUOUS
 62
     3
 10
2097.752554
 20
2906.408582
 40
100.000000
 50
90.000000
 51
142.315137
  0
ARC
  8
CSLAYER1
  6
CONTINUOUS
 62
     3
 10
2097.752554
 20
2906.408582
 40
107.000000
 50
90.000000
 51
142.315137
  0
ARC
  8
CSLAYER1
  6
CONTINUOUS
 62
     3
 10
2054.144260
 20
2941.608582
 40
100.000000
 50
90.000000
 51
132.705116
  0
ARC
  8
CSLAYER1
  6
CONTINUOUS
 62
     3
 10
2054.144260
 20
2941.608582
 40
107.000000
 50
90.000000
 51
132.705116
  0
LINE
  8
CSLAYER1
  6
CONTINUOUS
 62
     5
 10
1492.964142
 20
2829.255110
 11
1172.114340
 21
2829.255110
  0
LINE
  8
CSLAYER1
  6
CONTINUOUS
 62
     5
 10
1445.518146
 20
3139.744468
 11
1030.772673
 21
3139.744468
  0
LINE
  8
CSLAYER1
  6
CONTINUOUS
 62
     3
 10
2116.266768
 20
3294.967181
 11
2916.266768
 21
3294.967181
  0
LINE
  8
CSLAYER1
  6
CONTINUOUS
 62
     3
 10
2116.266768
 20
2794.967181
 11
2116.266768
 21
3294.967181
  0
LINE
  8
CSLAYER1
  6
CENTER
 62
     5
 10
2116.266768
 20
3044.967181
 11
2916.266768
 21
3044.967181
  0
LINE
  8
CSLAYER1
  6
CONTINUOUS
 62
     3
 10
2116.266768
 20
2794.967181
 11
2916.266768
 21
2794.967181
  0
LINE
  8
CSLAYER1
  6
CONTINUOUS
 62
     3
 10
2916.266768
 20
2794.967181
 11
2916.266768
 21
3294.967181
  0
ARC
  8
CSLAYER1
  6
CONTINUOUS
 62
     7
 10
2143.466768
 20
1250.717813
 40
16.000000
 50
40.170329
 51
190.170329
  0
LINE
  8
CSLAYER1
  6
CONTINUOUS
 62
     7
 10
2604.916109
 20
1772.539491
 11
2415.054642
 21
1547.632641
  0
LINE
  8
CSLAYER1
  6
CONTINUOUS
 62
     7
 10
2127.718174
 20
1253.543014
 11
2140.129137
 21
1322.725791
  0
LINE
  8
CSLAYER1
  6
CONTINUOUS
 62
     7
 10
2604.916109
 20
1772.539491
 11
2617.327072
 21
1841.722268
  0
POINT
  8
CSLAYER1
 62
     7
 10
2143.466768
 20
1250.717813
  0
LINE
  8
CSLAYER1
  6
CENTER
 62
     5
 10
2601.578477
 20
1844.547469
 11
2143.466768
 21
1250.717813
  0
POINT
  8
CSLAYER1
 62
     7
 10
2372.522623
 20
1547.632641
  0
LINE
  8
CSLAYER1
  6
CONTINUOUS
 62
     7
 10
2140.129137
 20
1322.725791
 11
2329.990603
 21
1547.632641
  0
LINE
  8
CSLAYER1
  6
CONTINUOUS
 62
     7
 10
2140.129137
 20
1178.709835
 11
2559.113091
 21
682.388157
  0
LINE
  8
CSLAYER1
  6
CONTINUOUS
 62
     7
 10
2604.916109
 20
728.896135
 11
2155.692851
 21
1261.038806
  0
LINE
  8
CSLAYER1
  6
CONTINUOUS
 62
     7
 10
2127.718174
 20
1247.892612
 11
2140.129137
 21
1178.709835
  0
LINE
  8
CSLAYER1
  6
CONTINUOUS
 62
     7
 10
2604.916109
 20
728.896135
 11
2613.259353
 21
682.388157
  0
POINT
  8
CSLAYER1
 62
     7
 10
2601.578477
 20
656.888157
  0
LINE
  8
CSLAYER1
  6
CENTER
 62
     5
 10
2601.578477
 20
656.888157
 11
2143.466768
 21
1250.717813
  0
POINT
  8
CSLAYER1
 62
     7
 10
2372.522623
 20
953.802985
  0
CIRCLE
  8
CSLAYER1
  6
DASHED
 62
     5
 10
2601.578477
 20
656.888157
 40
9.000000
  0
CIRCLE
  8
CSLAYER1
  6
DASHED
 62
     5
 10
2601.578477
 20
656.888157
 40
18.500000
  0
POINT
  8
CSLAYER1
 62
     4
 10
2601.578477
 20
656.888157
  0
POINT
  8
CSLAYER1
 62
     3
 10
2143.466768
 20
656.888157
  0
LINE
  8
CSLAYER1
  6
CONTINUOUS
 62
     3
 10
2115.466768
 20
682.388157
 11
2115.466768
 21
632.388157
  0
LINE
  8
CSLAYER1
  6
CONTINUOUS
 62
     3
 10
2115.466768
 20
682.388157
 11
2914.466768
 21
682.388157
  0
LINE
  8
CSLAYER1
  6
CONTINUOUS
 62
     3
 10
400.691044
 20
632.388157
 11
3864.653013
 21
632.388157
  0
LINE
  8
CSLAYER1
  6
CONTINUOUS
 62
     3
 10
2914.466768
 20
682.388157
 11
2914.466768
 21
632.388157
  0
LINE
  8
CSLAYER1
  6
CENTER
 62
     5
 10
2575.237950
 20
656.888157
 11
2625.441881
 21
656.888157
  0
LINE
  8
CSLAYER1
  6
CENTER
 62
     5
 10
2601.578477
 20
680.242879
 11
2601.578477
 21
634.955828
  0
LINE
  8
CSLAYER1
  6
CONTINUOUS
 62
     3
 10
2121.966768
 20
803.388157
 11
2140.966768
 21
803.388157
  0
LINE
  8
CSLAYER1
  6
CONTINUOUS
 62
     3
 10
2121.966768
 20
813.388157
 11
2140.966768
 21
813.388157
  0
LINE
  8
CSLAYER1
  6
CONTINUOUS
 62
     3
 10
2120.497113
 20
812.539651
 11
2120.497113
 21
804.236663
  0
LINE
  8
CSLAYER1
  6
CONTINUOUS
 62
     3
 10
2125.981941
 20
812.539651
 11
2125.981941
 21
804.236663
  0
LINE
  8
CSLAYER1
  6
CONTINUOUS
 62
     3
 10
2121.966768
 20
813.388157
 11
2120.497113
 21
812.539651
  0
ARC
  8
CSLAYER1
  6
CONTINUOUS
 62
     3
 10
2131.466768
 20
795.236663
 40
18.151494
 50
72.412046
 51
107.587954
  0
ARC
  8
CSLAYER1
  6
CONTINUOUS
 62
     3
 10
2123.239527
 20
808.545765
 40
4.844787
 50
55.524449
 51
115.524449
  0
LINE
  8
CSLAYER1
  6
CONTINUOUS
 62
     3
 10
2142.436424
 20
812.539651
 11
2142.436424
 21
804.236663
  0
LINE
  8
CSLAYER1
  6
CONTINUOUS
 62
     3
 10
2136.951596
 20
812.539651
 11
2136.951596
 21
804.236663
  0
LINE
  8
CSLAYER1
  6
CONTINUOUS
 62
     3
 10
2140.966768
 20
813.388157
 11
2142.436424
 21
812.539651
  0
ARC
  8
CSLAYER1
  6
CONTINUOUS
 62
     3
 10
2139.694010
 20
808.545765
 40
4.844787
 50
64.475551
 51
124.475551
  0
LINE
  8
CSLAYER1
  6
CONTINUOUS
 62
     3
 10
2121.966768
 20
803.388157
 11
2120.497113
 21
804.236663
  0
ARC
  8
CSLAYER1
  6
CONTINUOUS
 62
     3
 10
2131.466768
 20
821.539651
 40
18.151494
 50
252.412046
 51
287.587954
  0
ARC
  8
CSLAYER1
  6
CONTINUOUS
 62
     3
 10
2123.239527
 20
808.230550
 40
4.844787
 50
244.475551
 51
304.475551
  0
LINE
  8
CSLAYER1
  6
CONTINUOUS
 62
     3
 10
2140.966768
 20
803.388157
 11
2142.436424
 21
804.236663
  0
ARC
  8
CSLAYER1
  6
CONTINUOUS
 62
     3
 10
2139.694010
 20
808.230550
 40
4.844787
 50
235.524449
 51
295.524449
  0
POINT
  8
CSLAYER1
 62
     3
 10
2131.466768
 20
813.388157
  0
LINE
  8
CSLAYER1
  6
CONTINUOUS
 62
     3
 10
2121.966768
 20
929.188157
 11
2140.966768
 21
929.188157
  0
LINE
  8
CSLAYER1
  6
CONTINUOUS
 62
     3
 10
2120.497113
 20
921.188157
 11
2142.436424
 21
921.188157
  0
LINE
  8
CSLAYER1
  6
CONTINUOUS
 62
     3
 10
2120.497113
 20
928.339651
 11
2120.497113
 21
921.188157
  0
LINE
  8
CSLAYER1
  6
CONTINUOUS
 62
     3
 10
2125.981941
 20
928.339651
 11
2125.981941
 21
921.188157
  0
LINE
  8
CSLAYER1
  6
CONTINUOUS
 62
     3
 10
2121.966768
 20
929.188157
 11
2120.497113
 21
928.339651
  0
ARC
  8
CSLAYER1
  6
CONTINUOUS
 62
     3
 10
2131.466768
 20
911.036663
 40
18.151494
 50
72.412046
 51
107.587954
  0
ARC
  8
CSLAYER1
  6
CONTINUOUS
 62
     3
 10
2123.239527
 20
924.345765
 40
4.844787
 50
55.524449
 51
115.524449
  0
LINE
  8
CSLAYER1
  6
CONTINUOUS
 62
     3
 10
2142.436424
 20
928.339651
 11
2142.436424
 21
921.188157
  0
LINE
  8
CSLAYER1
  6
CONTINUOUS
 62
     3
 10
2136.951596
 20
928.339651
 11
2136.951596
 21
921.188157
  0
LINE
  8
CSLAYER1
  6
CONTINUOUS
 62
     3
 10
2140.966768
 20
929.188157
 11
2142.436424
 21
928.339651
  0
ARC
  8
CSLAYER1
  6
CONTINUOUS
 62
     3
 10
2139.694010
 20
924.345765
 40
4.844787
 50
64.475551
 51
124.475551
  0
LINE
  8
CSLAYER1
  6
CONTINUOUS
 62
     5
 10
2125.466768
 20
921.188157
 11
2126.466768
 21
919.456106
  0
LINE
  8
CSLAYER1
  6
CONTINUOUS
 62
     5
 10
2137.466768
 20
921.188157
 11
2136.466768
 21
919.456106
  0
POINT
  8
CSLAYER1
 62
     3
 10
2131.466768
 20
921.188157
  0
LINE
  8
CSLAYER1
  6
CONTINUOUS
 62
     3
 10
2125.466768
 20
921.188157
 11
2125.466768
 21
813.388157
  0
LINE
  8
CSLAYER1
  6
CONTINUOUS
 62
     5
 10
2126.466768
 20
919.456106
 11
2126.466768
 21
813.388157
  0
LINE
  8
CSLAYER1
  6
CONTINUOUS
 62
     5
 10
2136.466768
 20
919.456106
 11
2136.466768
 21
813.388157
  0
LINE
  8
CSLAYER1
  6
CONTINUOUS
 62
     3
 10
2137.466768
 20
921.188157
 11
2137.466768
 21
813.388157
  0
LINE
  8
CSLAYER1
  6
CENTER
 62
     5
 10
2131.466768
 20
682.388157
 11
2131.466768
 21
930.188157
  0
LINE
  8
CSLAYER1
  6
CONTINUOUS
 62
     3
 10
2121.466768
 20
682.388157
 11
2121.466768
 21
803.388157
  0
LINE
  8
CSLAYER1
  6
CONTINUOUS
 62
     3
 10
2141.466768
 20
682.388157
 11
2141.466768
 21
803.388157
  0
LINE
  8
CSLAYER1
  6
CONTINUOUS
 62
     5
 10
2446.445868
 20
973.976265
 11
2467.909921
 21
948.550291
  0
LINE
  8
CSLAYER1
  6
CONTINUOUS
 62
     5
 10
2469.947236
 20
967.642058
 11
2449.268394
 21
950.185429
  0
POINT
  8
CSLAYER1
 62
     4
 10
2459.347109
 20
958.693661
  0
POINT
  8
CSLAYER1
 62
     5
 10
2459.347109
 20
958.693661
  0
CIRCLE
  8
CSLAYER1
  6
CONTINUOUS
 62
     4
 10
2459.347109
 20
958.693661
 40
10.000000
  0
ARC
  8
CSLAYER1
  6
CONTINUOUS
 62
     4
 10
2461.639499
 20
960.628847
 40
20.000000
 50
40.170329
 51
130.170329
  0
LINE
  8
CSLAYER1
  6
CONTINUOUS
 62
     4
 10
2476.922103
 20
973.530089
 11
2489.318749
 21
958.845221
  0
ARC
  8
CSLAYER1
  6
CONTINUOUS
 62
     4
 10
2474.036145
 20
945.943979
 40
20.000000
 50
-16.488964
 51
40.170329
  0
LINE
  8
CSLAYER1
  6
CONTINUOUS
 62
     4
 10
2493.213634
 20
940.267366
 11
2475.889130
 21
881.739426
  0
LINE
  8
CSLAYER1
  6
CONTINUOUS
 62
     4
 10
2448.738258
 20
975.911451
 11
2418.173051
 21
950.108969
  0
LINE
  8
CSLAYER1
  6
CONTINUOUS
 62
     4
 10
2381.405830
 20
892.897331
 11
2369.179747
 21
882.576338
  0
LINE
  8
CSLAYER1
  6
CONTINUOUS
 62
     4
 10
2369.179747
 20
882.576338
 11
2449.812505
 21
787.060065
  0
LINE
  8
CSLAYER1
  6
CONTINUOUS
 62
     4
 10
2462.038588
 20
797.381058
 11
2449.812505
 21
787.060065
  0
POINT
  8
CSLAYER1
 62
     4
 10
2146.310885
 20
1260.953134
  0
LINE
  8
CSLAYER1
  6
CENTER
 62
     5
 10
2146.310885
 20
1260.953134
 11
2137.256070
 21
1360.542342
  0
POINT
  8
CSLAYER1
 62
     4
 10
2137.256070
 20
1360.542342
  0
ARC
  8
CSLAYER1
  6
CONTINUOUS
 62
     4
 10
2137.256070
 20
1360.542342
 40
20.000000
 50
17.161807
 51
179.076890
  0
LINE
  8
CSLAYER1
  6
CONTINUOUS
 62
     4
 10
2115.882739
 20
1275.470721
 11
2117.258665
 21
1360.864555
  0
LINE
  8
CSLAYER1
  6
CONTINUOUS
 62
     4
 10
2156.365575
 20
1366.443766
 11
2161.901682
 21
1348.517199
  0
ARC
  8
CSLAYER1
  6
CONTINUOUS
 62
     4
 10
2117.882480
 20
1275.438500
 40
2.000000
 50
177.071261
 51
240.119957
  0
ARC
  8
CSLAYER1
  6
CONTINUOUS
 62
     4
 10
2146.310885
 20
1260.953134
 40
30.250000
 50
175.960104
 51
237.231731
  0
LINE
  8
CSLAYER1
  6
CONTINUOUS
 62
     4
 10
2187.314019
 20
1239.098787
 11
2176.288376
 21
1236.641677
  0
LINE
  8
CSLAYER1
  6
CONTINUOUS
 62
     4
 10
2226.017742
 20
1284.946598
 11
2187.314019
 21
1239.098787
  0
LINE
  8
CSLAYER1
  6
CONTINUOUS
 62
     4
 10
2271.420694
 20
1377.486168
 11
2226.017742
 21
1284.946598
  0
POINT
  8
CSLAYER1
 62
     4
 10
2143.466768
 20
1250.717813
  0
ARC
  8
CSLAYER1
  6
CONTINUOUS
 62
     7
 10
2601.578477
 20
1250.717813
 40
16.000000
 50
-139.829671
 51
10.170329
  0
LINE
  8
CSLAYER1
  6
CONTINUOUS
 62
     7
 10
2140.129137
 20
1772.539491
 11
2589.352394
 21
1240.396820
  0
LINE
  8
CSLAYER1
  6
CONTINUOUS
 62
     7
 10
2617.327072
 20
1253.543014
 11
2604.916109
 21
1322.725791
  0
LINE
  8
CSLAYER1
  6
CONTINUOUS
 62
     7
 10
2140.129137
 20
1772.539491
 11
2127.718174
 21
1841.722268
  0
POINT
  8
CSLAYER1
 62
     7
 10
2601.578477
 20
1250.717813
  0
LINE
  8
CSLAYER1
  6
CENTER
 62
     5
 10
2152.724205
 20
1832.547469
 11
2601.578477
 21
1250.717813
  0
LINE
  8
CSLAYER1
  6
CONTINUOUS
 62
     7
 10
2604.916109
 20
1322.725791
 11
2155.692851
 21
1854.868462
  0
LINE
  8
CSLAYER1
  6
CONTINUOUS
 62
     7
 10
2372.522623
 20
903.420236
 11
2185.932154
 21
682.388157
  0
LINE
  8
CSLAYER1
  6
CONTINUOUS
 62
     7
 10
2604.916109
 20
1178.709835
 11
2415.054642
 21
953.802985
  0
LINE
  8
CSLAYER1
  6
CONTINUOUS
 62
     7
 10
2141.466768
 20
730.480672
 11
2329.990603
 21
953.802985
  0
LINE
  8
CSLAYER1
  6
CONTINUOUS
 62
     7
 10
2617.327072
 20
1247.892612
 11
2604.916109
 21
1178.709835
  0
POINT
  8
CSLAYER1
 62
     7
 10
2143.466768
 20
656.888157
  0
LINE
  8
CSLAYER1
  6
CENTER
 62
     5
 10
2143.466768
 20
656.888157
 11
2601.578477
 21
1250.717813
  0
CIRCLE
  8
CSLAYER1
  6
CONTINUOUS
 62
     5
 10
2143.466768
 20
1250.717813
 40
9.000000
  0
CIRCLE
  8
CSLAYER1
  6
CONTINUOUS
 62
     5
 10
2601.578477
 20
1250.717813
 40
9.000000
  0
LINE
  8
CSLAYER1
  6
CONTINUOUS
 62
     4
 10
2149.964079
 20
1382.262299
 11
2169.652437
 21
1357.698620
  0
LINE
  8
CSLAYER1
  6
CONTINUOUS
 62
     4
 10
2148.221047
 20
1380.865218
 11
2168.183924
 21
1355.959042
  0
LINE
  8
CSLAYER1
  6
CONTINUOUS
 62
     4
 10
2113.290510
 20
1352.867582
 11
2117.054153
 21
1348.171968
  0
LINE
  8
CSLAYER1
  6
CONTINUOUS
 62
     4
 10
2115.033542
 20
1354.264663
 11
2117.110569
 21
1351.673312
  0
CIRCLE
  8
CSLAYER1
  6
CONTINUOUS
 62
     4
 10
2137.256070
 20
1360.542342
 40
12.500000
  0
LINE
  8
CSLAYER1
  6
CONTINUOUS
 62
     4
 10
2268.992420
 20
1230.321927
 11
2225.603136
 21
1284.455462
  0
LINE
  8
CSLAYER1
  6
CONTINUOUS
 62
     4
 10
2235.674093
 20
1203.616515
 11
2197.532280
 21
1251.203176
  0
LINE
  8
CSLAYER1
  6
CONTINUOUS
 62
     4
 10
2479.062859
 20
1002.050197
 11
2467.725058
 21
1016.195516
  0
LINE
  8
CSLAYER1
  6
CENTER
 62
     5
 10
2470.608225
 20
967.719707
 11
2448.085992
 21
949.667615
  0
LINE
  8
CSLAYER1
  6
CENTER
 62
     5
 10
2639.467923
 20
733.970515
 11
2122.246002
 21
1379.269271
  0
LINE
  8
CSLAYER1
  6
CENTER
 62
     5
 10
2524.358943
 20
951.073082
 11
2479.025365
 21
1007.632366
  0
LINE
  8
CSLAYER1
  6
CONTINUOUS
 62
     4
 10
2520.400153
 20
970.463361
 11
2512.269699
 21
980.607114
  0
LINE
  8
CSLAYER1
  6
CONTINUOUS
 62
     4
 10
2518.121864
 20
985.297760
 11
2487.623888
 21
960.852925
  0
LINE
  8
CSLAYER1
  6
CONTINUOUS
 62
     4
 10
2547.138322
 20
935.505239
 11
2519.619864
 21
969.837942
  0
LINE
  8
CSLAYER1
  6
CONTINUOUS
 62
     4
 10
2520.400153
 20
970.463361
 11
2493.781134
 21
949.127600
  0
LINE
  8
CSLAYER1
  6
CONTINUOUS
 62
     4
 10
2537.757029
 20
947.209569
 11
2482.052405
 21
902.561021
  0
LINE
  8
CSLAYER1
  6
CONTINUOUS
 62
     4
 10
2520.606919
 20
968.065935
 11
2508.590473
 21
958.434475
  0
LINE
  8
CSLAYER1
  6
CONTINUOUS
 62
     4
 10
2520.606919
 20
968.065935
 11
2519.356080
 21
969.626513
  0
LINE
  8
CSLAYER1
  6
CONTINUOUS
 62
     4
 10
2523.735799
 20
962.243555
 11
2513.592046
 21
954.113102
  0
LINE
  8
CSLAYER1
  6
CONTINUOUS
 62
     4
 10
2523.735799
 20
962.243555
 11
2524.157330
 21
963.325450
  0
LINE
  8
CSLAYER1
  6
CONTINUOUS
 62
     4
 10
2520.455195
 20
967.944325
 11
2524.157330
 21
963.325450
  0
ARC
  8
CSLAYER1
  6
CONTINUOUS
 62
     4
 10
2521.006178
 20
964.256696
 40
3.285875
 50
273.748601
 51
333.399479
  0
ARC
  8
CSLAYER1
  6
CONTINUOUS
 62
     4
 10
2510.896561
 20
967.869080
 40
12.419443
 50
291.125030
 51
326.300938
  0
LINE
  8
CSLAYER1
  6
CONTINUOUS
 62
     4
 10
2517.526945
 20
965.597265
 11
2521.229081
 21
960.978390
  0
LINE
  8
CSLAYER1
  6
CONTINUOUS
 62
     4
 10
2523.427844
 20
957.511203
 11
2518.277938
 21
953.383434
  0
LINE
  8
CSLAYER1
  6
CONTINUOUS
 62
     4
 10
2523.536252
 20
958.495198
 11
2521.785078
 21
960.680007
  0
LINE
  8
CSLAYER1
  6
CONTINUOUS
 62
     4
 10
2523.427844
 20
957.511203
 11
2521.238876
 21
960.242213
  0
LINE
  8
CSLAYER1
  6
CONTINUOUS
 62
     4
 10
2523.536252
 20
958.495198
 11
2523.427844
 21
957.511203
  0
LINE
  8
CSLAYER1
  6
CONTINUOUS
 62
     4
 10
2523.536252
 20
958.495198
 11
2517.293943
 21
953.491842
  0
LINE
  8
CSLAYER1
  6
CONTINUOUS
 62
     4
 10
2508.590473
 20
958.434475
 11
2507.339634
 21
959.995053
  0
LINE
  8
CSLAYER1
  6
CONTINUOUS
 62
     4
 10
2513.592046
 20
954.113102
 11
2512.444333
 21
953.937211
  0
LINE
  8
CSLAYER1
  6
CONTINUOUS
 62
     4
 10
2508.742198
 20
958.556086
 11
2512.444333
 21
953.937211
  0
ARC
  8
CSLAYER1
  6
CONTINUOUS
 62
     4
 10
2512.221431
 20
957.215517
 40
3.285875
 50
284.026489
 51
343.677367
  0
LINE
  8
CSLAYER1
  6
CONTINUOUS
 62
     4
 10
2511.670447
 20
960.903145
 11
2515.372582
 21
956.284271
  0
LINE
  8
CSLAYER1
  6
CONTINUOUS
 62
     4
 10
2517.293943
 20
953.491842
 11
2515.542768
 21
955.676651
  0
LINE
  8
CSLAYER1
  6
CONTINUOUS
 62
     4
 10
2518.277938
 20
953.383434
 11
2516.088970
 21
956.114444
  0
LINE
  8
CSLAYER1
  6
CONTINUOUS
 62
     4
 10
2517.293943
 20
953.491842
 11
2518.277938
 21
953.383434
  0
LINE
  8
CSLAYER1
  6
CONTINUOUS
 62
     4
 10
2514.590042
 20
965.806423
 11
2512.928442
 21
961.911458
  0
LINE
  8
CSLAYER1
  6
CONTINUOUS
 62
     4
 10
2423.435751
 20
1064.496610
 11
2282.726690
 21
1240.048686
  0
LINE
  8
CSLAYER1
  6
CONTINUOUS
 62
     4
 10
2281.320982
 20
1240.203555
 11
2223.345531
 21
1193.734887
  0
LINE
  8
CSLAYER1
  6
CONTINUOUS
 62
     4
 10
2518.121864
 20
985.297760
 11
2498.108441
 21
1010.266999
  0
LINE
  8
CSLAYER1
  6
CONTINUOUS
 62
     4
 10
2498.108441
 20
1010.266999
 11
2461.122828
 21
980.622173
  0
LINE
  8
CSLAYER1
  6
CONTINUOUS
 62
     4
 10
2373.276352
 20
1005.078590
 11
2223.190662
 21
1192.329179
  0
LINE
  8
CSLAYER1
  6
CONTINUOUS
 62
     4
 10
2282.726690
 20
1240.048686
 11
2281.320982
 21
1240.203555
  0
LINE
  8
CSLAYER1
  6
CONTINUOUS
 62
     4
 10
2223.190662
 20
1192.329179
 11
2223.345531
 21
1193.734887
  0
LINE
  8
CSLAYER1
  6
CENTER
 62
     5
 10
2379.655988
 20
1126.784804
 11
2370.452173
 21
1119.407733
  0
LINE
  8
CSLAYER1
  6
CONTINUOUS
 62
     4
 10
2373.877124
 20
1131.123949
 11
2382.632997
 21
1120.199907
  0
LINE
  8
CSLAYER1
  6
CONTINUOUS
 62
     4
 10
2373.877124
 20
1131.123949
 11
2371.223548
 21
1129.637835
  0
LINE
  8
CSLAYER1
  6
CONTINUOUS
 62
     4
 10
2382.632997
 20
1120.199907
 11
2380.604841
 21
1117.933505
  0
LINE
  8
CSLAYER1
  6
CONTINUOUS
 62
     4
 10
2486.836049
 20
1008.280589
 11
2476.692296
 21
1000.150135
  0
LINE
  8
CSLAYER1
  6
CONTINUOUS
 62
     4
 10
2487.983763
 20
1008.456480
 11
2491.060479
 21
1004.617894
  0
LINE
  8
CSLAYER1
  6
CONTINUOUS
 62
     4
 10
2485.055513
 20
1006.109420
 11
2488.132229
 21
1002.270834
  0
LINE
  8
CSLAYER1
  6
CONTINUOUS
 62
     4
 10
2486.836049
 20
1008.280589
 11
2487.983763
 21
1008.456480
  0
ARC
  8
CSLAYER1
  6
CONTINUOUS
 62
     4
 10
2488.186333
 20
1005.203540
 40
3.259241
 50
103.147085
 51
164.084602
  0
ARC
  8
CSLAYER1
  6
CONTINUOUS
 62
     4
 10
2489.531535
 20
994.524611
 40
12.419443
 50
111.125030
 51
146.300938
  0
LINE
  8
CSLAYER1
  6
CONTINUOUS
 62
     4
 10
2476.270766
 20
999.068241
 11
2479.347481
 21
995.229655
  0
LINE
  8
CSLAYER1
  6
CONTINUOUS
 62
     4
 10
2479.199015
 20
1001.415301
 11
2482.275731
 21
997.576714
  0
LINE
  8
CSLAYER1
  6
CONTINUOUS
 62
     4
 10
2476.692296
 20
1000.150135
 11
2476.270766
 21
999.068241
  0
ARC
  8
CSLAYER1
  6
CONTINUOUS
 62
     4
 10
2479.401585
 20
998.162361
 40
3.259241
 50
93.341366
 51
154.278882
  0
LINE
  8
CSLAYER1
  6
CONTINUOUS
 62
     4
 10
2682.842466
 20
778.988834
 11
2606.855785
 21
718.083745
  0
LINE
  8
CSLAYER1
  6
CONTINUOUS
 62
     4
 10
2559.950507
 20
929.114003
 11
2485.960373
 21
869.809193
  0
LINE
  8
CSLAYER1
  6
CONTINUOUS
 62
     4
 10
2682.842466
 20
778.988834
 11
2646.568136
 21
824.245578
  0
LINE
  8
CSLAYER1
  6
CONTINUOUS
 62
     4
 10
2645.007558
 20
822.994739
 11
2554.947151
 21
935.356312
  0
LINE
  8
CSLAYER1
  6
CONTINUOUS
 62
     4
 10
2682.842466
 20
778.988834
 11
2673.800626
 21
761.488973
  0
LINE
  8
CSLAYER1
  6
CONTINUOUS
 62
     4
 10
2608.463823
 20
709.120010
 11
2673.800626
 21
761.488973
  0
LINE
  8
CSLAYER1
  6
CONTINUOUS
 62
     4
 10
2552.135735
 20
935.666051
 11
2479.507665
 21
877.452968
  0
ARC
  8
CSLAYER1
  6
CONTINUOUS
 62
     4
 10
2549.479188
 20
937.381497
 40
3.000000
 50
218.712984
 51
308.712984
  0
LINE
  8
CSLAYER1
  6
CONTINUOUS
 62
     4
 10
2611.455144
 20
796.101701
 11
2526.398093
 21
902.220964
  0
LINE
  8
CSLAYER1
  6
CONTINUOUS
 62
     4
 10
2617.697454
 20
801.105057
 11
2532.640403
 21
907.224320
  0
LINE
  8
CSLAYER1
  6
CONTINUOUS
 62
     4
 10
2623.159475
 20
805.482993
 11
2538.102424
 21
911.602257
  0
LINE
  8
CSLAYER1
  6
CONTINUOUS
 62
     4
 10
2638.765249
 20
817.991383
 11
2553.708198
 21
924.110647
  0
LINE
  8
CSLAYER1
  6
CONTINUOUS
 62
     4
 10
2640.325826
 20
819.242222
 11
2555.268775
 21
925.361486
  0
LINE
  8
CSLAYER1
  6
CONTINUOUS
 62
     4
 10
2573.220998
 20
765.456146
 11
2488.163947
 21
871.575409
  0
LINE
  8
CSLAYER1
  6
CONTINUOUS
 62
     4
 10
2578.683019
 20
769.834082
 11
2493.625968
 21
875.953346
  0
LINE
  8
CSLAYER1
  6
CONTINUOUS
 62
     4
 10
2584.925328
 20
774.837438
 11
2499.868277
 21
880.956702
  0
ARC
  8
CSLAYER1
  6
CONTINUOUS
 62
     4
 10
2553.386574
 20
934.105473
 40
2.000000
 50
38.712984
 51
128.712984
  0
LINE
  8
CSLAYER1
  6
CONTINUOUS
 62
     4
 10
2128.878456
 20
1384.585337
 11
2115.613548
 21
1373.953205
  0
LINE
  8
CSLAYER1
  6
CONTINUOUS
 62
     4
 10
2128.878456
 20
1384.585337
 11
2149.964079
 21
1382.262299
  0
LINE
  8
CSLAYER1
  6
CONTINUOUS
 62
     4
 10
2149.964079
 20
1382.262299
 11
2148.221047
 21
1380.865218
  0
LINE
  8
CSLAYER1
  6
CONTINUOUS
 62
     4
 10
2148.221047
 20
1380.865218
 11
2130.987018
 21
1384.353033
  0
LINE
  8
CSLAYER1
  6
CONTINUOUS
 62
     4
 10
2130.987018
 20
1384.353033
 11
2115.381244
 21
1371.844643
  0
LINE
  8
CSLAYER1
  6
CONTINUOUS
 62
     4
 10
2115.613548
 20
1373.953205
 11
2113.290510
 21
1352.867582
  0
LINE
  8
CSLAYER1
  6
CONTINUOUS
 62
     4
 10
2113.290510
 20
1352.867582
 11
2115.033542
 21
1354.264663
  0
LINE
  8
CSLAYER1
  6
CONTINUOUS
 62
     4
 10
2115.033542
 20
1354.264663
 11
2115.381244
 21
1371.844643
  0
LINE
  8
CSLAYER1
  6
CONTINUOUS
 62
     3
 10
2203.266768
 20
695.070573
 11
2203.266768
 21
682.388157
  0
LINE
  8
CSLAYER1
  6
CENTER
 62
     5
 10
1996.899125
 20
710.688157
 11
2121.466768
 21
710.688157
  0
LINE
  8
CSLAYER1
  6
CONTINUOUS
 62
     3
 10
1996.899125
 20
714.488157
 11
2121.466768
 21
714.488157
  0
LINE
  8
CSLAYER1
  6
CONTINUOUS
 62
     3
 10
1996.899125
 20
706.888157
 11
2121.466768
 21
706.888157
  0
LINE
  8
CSLAYER1
  6
CONTINUOUS
 62
     3
 10
2335.666768
 20
725.688157
 11
2335.666768
 21
682.388157
  0
LINE
  8
CSLAYER1
  6
CONTINUOUS
 62
     3
 10
2336.966768
 20
731.688157
 11
2274.466768
 21
731.688157
  0
LINE
  8
CSLAYER1
  6
CONTINUOUS
 62
     3
 10
2336.966768
 20
725.688157
 11
2282.304794
 21
725.688157
  0
LINE
  8
CSLAYER1
  6
CONTINUOUS
 62
     3
 10
2336.966768
 20
731.688157
 11
2336.966768
 21
725.688157
  0
LINE
  8
CSLAYER1
  6
CONTINUOUS
 62
     3
 10
2336.816768
 20
721.188157
 11
2335.666768
 21
721.188157
  0
LINE
  8
CSLAYER1
  6
CONTINUOUS
 62
     3
 10
2337.816768
 20
720.188157
 11
2337.816768
 21
701.188157
  0
ARC
  8
CSLAYER1
  6
CONTINUOUS
 62
     3
 10
2336.816768
 20
720.188157
 40
1.000000
 50
0.000000
 51
90.000000
  0
ARC
  8
CSLAYER1
  6
CONTINUOUS
 62
     3
 10
2336.816768
 20
701.188157
 40
1.000000
 50
270.000000
 51
360.000000
  0
ARC
  8
CSLAYER1
  6
CONTINUOUS
 62
     3
 10
2337.816768
 20
678.538023
 40
28.654497
 50
17.068130
 51
90.000000
  0
ARC
  8
CSLAYER1
  6
CONTINUOUS
 62
     3
 10
2337.816768
 20
678.538023
 40
35.653641
 50
17.069547
 51
90.000000
  0
LINE
  8
CSLAYER1
  6
CONTINUOUS
 62
     3
 10
2371.899836
 20
689.003517
 11
2373.931139
 21
682.388157
  0
LINE
  8
CSLAYER1
  6
CONTINUOUS
 62
     3
 10
2365.209219
 20
686.948365
 11
2366.609346
 21
682.388157
  0
LINE
  8
CSLAYER1
  6
CONTINUOUS
 62
     3
 10
2336.816768
 20
700.188157
 11
2335.666768
 21
700.188157
  0
LINE
  8
CSLAYER1
  6
CONTINUOUS
 62
     4
 10
2441.861086
 20
970.105893
 11
2444.763866
 21
966.667307
  0
LINE
  8
CSLAYER1
  6
CONTINUOUS
 62
     4
 10
2444.763866
 20
966.667307
 11
2421.075830
 21
946.670383
  0
LINE
  8
CSLAYER1
  6
CONTINUOUS
 62
     7
 10
2281.466768
 20
703.388157
 11
2230.989778
 21
703.388157
  0
LINE
  8
CSLAYER1
  6
CONTINUOUS
 62
     7
 10
2281.466768
 20
703.388157
 11
2281.466768
 21
682.388157
  0
LINE
  8
CSLAYER1
  6
CONTINUOUS
 62
     3
 10
2202.239444
 20
701.705511
 11
2202.327951
 21
700.468517
  0
LINE
  8
CSLAYER1
  6
CONTINUOUS
 62
     3
 10
2204.465588
 20
698.616353
 11
2228.504134
 21
700.336330
  0
CIRCLE
  8
CSLAYER1
  6
CONTINUOUS
 62
     3
 10
2208.269660
 20
702.898763
 40
2.250000
  0
CIRCLE
  8
CSLAYER1
  6
CONTINUOUS
 62
     3
 10
2226.152392
 20
705.180843
 40
1.000000
  0
LINE
  8
CSLAYER1
  6
CONTINUOUS
 62
     3
 10
2202.327951
 20
700.468517
 11
2204.465588
 21
698.616353
  0
LINE
  8
CSLAYER1
  6
CONTINUOUS
 62
     3
 10
2228.210066
 20
732.469894
 11
2229.504582
 21
714.377617
  0
LINE
  8
CSLAYER1
  6
CONTINUOUS
 62
     3
 10
2228.957489
 20
700.859560
 11
2228.504134
 21
700.336330
  0
LINE
  8
CSLAYER1
  6
CONTINUOUS
 62
     3
 10
2234.934398
 20
740.435430
 11
2230.806658
 21
701.668321
  0
LINE
  8
CSLAYER1
  6
CONTINUOUS
 62
     3
 10
2233.783596
 20
739.072209
 11
2231.135739
 21
714.203939
  0
LINE
  8
CSLAYER1
  6
CONTINUOUS
 62
     3
 10
2229.706402
 20
700.779819
 11
2222.745747
 21
701.520957
  0
LINE
  8
CSLAYER1
  6
CONTINUOUS
 62
     3
 10
2231.135739
 20
714.203939
 11
2224.175085
 21
714.945077
  0
LINE
  8
CSLAYER1
  6
CONTINUOUS
 62
     3
 10
2224.175085
 20
714.945077
 11
2222.745747
 21
701.520957
  0
ARC
  8
CSLAYER1
  6
CONTINUOUS
 62
     3
 10
2229.812279
 20
701.774198
 40
1.000000
 50
263.922313
 51
353.922313
  0
LINE
  8
CSLAYER1
  6
CONTINUOUS
 62
     3
 10
2231.929816
 20
721.661783
 11
2228.960775
 21
721.977913
  0
LINE
  8
CSLAYER1
  6
CONTINUOUS
 62
     3
 10
2232.035692
 20
722.656162
 11
2228.888267
 21
722.991285
  0
CIRCLE
  8
CSLAYER1
  6
CONTINUOUS
 62
     3
 10
2215.466768
 20
693.388157
 40
3.500000
  0
LINE
  8
CSLAYER1
  6
CONTINUOUS
 62
     3
 10
2202.331866
 20
701.814993
 11
2202.784538
 21
695.488403
  0
LINE
  8
CSLAYER1
  6
CONTINUOUS
 62
     3
 10
2225.437401
 20
729.185440
 11
2226.473823
 21
714.700318
  0
LINE
  8
CSLAYER1
  6
CONTINUOUS
 62
     3
 10
2213.472722
 20
686.227586
 11
2218.459972
 21
686.584428
  0
CIRCLE
  8
CSLAYER1
  6
CONTINUOUS
 62
     3
 10
2208.269660
 20
702.898763
 40
2.000000
  0
CIRCLE
  8
CSLAYER1
  6
CONTINUOUS
 62
     3
 10
2215.466768
 20
693.388157
 40
3.000000
  0
LINE
  8
CSLAYER1
  6
CONTINUOUS
 62
     3
 10
2227.720789
 20
697.272611
 11
2218.459972
 21
686.584428
  0
LINE
  8
CSLAYER1
  6
CONTINUOUS
 62
     3
 10
2202.784538
 20
695.488403
 11
2213.472722
 21
686.227586
  0
LINE
  8
CSLAYER1
  6
CONTINUOUS
 62
     3
 10
2227.506684
 20
700.264961
 11
2227.720789
 21
697.272611
  0
LINE
  8
CSLAYER1
  6
CONTINUOUS
 62
     2
 10
2187.519702
 20
683.712500
 11
2187.270566
 21
682.744032
  0
LINE
  8
CSLAYER1
  6
CONTINUOUS
 62
     7
 10
2372.522623
 20
1598.015390
 11
2580.639636
 21
1844.547469
  0
LINE
  8
CSLAYER1
  6
CONTINUOUS
 62
     7
 10
2372.522623
 20
1497.249892
 11
2164.405609
 21
1250.717813
  0
LINE
  8
CSLAYER1
  6
CONTINUOUS
 62
     7
 10
2372.522623
 20
1004.185734
 11
2580.639636
 21
1250.717813
  0
LINE
  8
CSLAYER1
  6
CONTINUOUS
 62
     4
 10
2573.717200
 20
765.853863
 11
2646.568136
 21
824.245578
  0
POINT
  8
CSLAYER1
 62
     5
 10
2226.152392
 20
705.180843
  0
POINT
  8
CSLAYER1
 62
     5
 10
2215.466768
 20
693.388157
  0
LINE
  8
CSLAYER1
  6
CONTINUOUS
 62
     3
 10
2232.997377
 20
731.688157
 11
2228.266000
 21
731.688157
  0
LINE
  8
CSLAYER1
  6
CONTINUOUS
 62
     3
 10
2232.358525
 20
725.688157
 11
2228.695304
 21
725.688157
  0
POINT
  8
CSLAYER1
 62
     5
 10
2208.269660
 20
702.898763
  0
LINE
  8
CSLAYER1
  6
CENTER
 62
     5
 10
2122.962628
 20
656.888157
 11
2164.643476
 21
656.888157
  0
LINE
  8
CSLAYER1
  6
CENTER
 62
     5
 10
2143.466768
 20
674.038726
 11
2143.466768
 21
640.237839
  0
LINE
  8
CSLAYER1
  6
CENTER
 62
     5
 10
2137.256070
 20
1380.542342
 11
2137.256070
 21
1337.281762
  0
LINE
  8
CSLAYER1
  6
CENTER
 62
     5
 10
2110.903322
 20
1360.542342
 11
2162.286564
 21
1360.542342
  0
LINE
  8
CSLAYER1
  6
CONTINUOUS
 62
     3
 10
2252.628743
 20
725.688157
 11
2233.364178
 21
725.688157
  0
LINE
  8
CSLAYER1
  6
CONTINUOUS
 62
     3
 10
2260.466768
 20
731.688157
 11
2234.003029
 21
731.688157
  0
LINE
  8
CSLAYER1
  6
CONTINUOUS
 62
     7
 10
2275.966768
 20
731.388157
 11
2258.966768
 21
731.388157
  0
LINE
  8
CSLAYER1
  6
CONTINUOUS
 62
     7
 10
2278.966768
 20
708.388157
 11
2255.966768
 21
708.388157
  0
LINE
  8
CSLAYER1
  6
CONTINUOUS
 62
     7
 10
2280.466768
 20
728.279063
 11
2254.466768
 21
728.279063
  0
LINE
  8
CSLAYER1
  6
CONTINUOUS
 62
     7
 10
2280.466768
 20
711.930248
 11
2254.466768
 21
711.930248
  0
ARC
  8
CSLAYER1
  6
CONTINUOUS
 62
     7
 10
2275.966768
 20
728.388157
 40
3.000000
 50
0.000000
 51
90.000000
  0
LINE
  8
CSLAYER1
  6
CONTINUOUS
 62
     7
 10
2278.966768
 20
708.388157
 11
2280.457149
 21
707.527685
  0
ARC
  8
CSLAYER1
  6
CONTINUOUS
 62
     7
 10
2267.466768
 20
682.342132
 40
26.046025
 50
75.231439
 51
104.768561
  0
ARC
  8
CSLAYER1
  6
CONTINUOUS
 62
     7
 10
2277.281723
 20
702.256564
 40
6.153702
 50
66.825356
 51
121.065581
  0
LINE
  8
CSLAYER1
  6
CONTINUOUS
 62
     7
 10
2274.106297
 20
707.527685
 11
2274.106297
 21
703.388157
  0
LINE
  8
CSLAYER1
  6
CONTINUOUS
 62
     7
 10
2280.457149
 20
707.527685
 11
2280.457149
 21
703.388157
  0
LINE
  8
CSLAYER1
  6
CONTINUOUS
 62
     7
 10
2277.802893
 20
711.930248
 11
2277.802893
 21
708.388157
  0
LINE
  8
CSLAYER1
  6
CONTINUOUS
 62
     7
 10
2277.156515
 20
711.930248
 11
2277.156515
 21
710.323887
  0
LINE
  8
CSLAYER1
  6
CONTINUOUS
 62
     7
 10
2277.802893
 20
710.323887
 11
2257.130644
 21
710.323887
  0
LINE
  8
CSLAYER1
  6
CONTINUOUS
 62
     7
 10
2277.156515
 20
710.323887
 11
2277.802893
 21
709.189035
  0
LINE
  8
CSLAYER1
  6
CONTINUOUS
 62
     7
 10
2255.966768
 20
708.388157
 11
2254.476387
 21
707.527685
  0
ARC
  8
CSLAYER1
  6
CONTINUOUS
 62
     7
 10
2257.651814
 20
702.256564
 40
6.153702
 50
58.934419
 51
113.174644
  0
LINE
  8
CSLAYER1
  6
CONTINUOUS
 62
     7
 10
2260.827240
 20
707.527685
 11
2260.827240
 21
703.388157
  0
LINE
  8
CSLAYER1
  6
CONTINUOUS
 62
     7
 10
2254.476387
 20
707.527685
 11
2254.476387
 21
703.388157
  0
LINE
  8
CSLAYER1
  6
CONTINUOUS
 62
     7
 10
2257.130644
 20
711.930248
 11
2257.130644
 21
708.388157
  0
LINE
  8
CSLAYER1
  6
CONTINUOUS
 62
     7
 10
2257.777022
 20
711.930248
 11
2257.777022
 21
710.323887
  0
LINE
  8
CSLAYER1
  6
CONTINUOUS
 62
     7
 10
2257.777022
 20
710.323887
 11
2257.130644
 21
709.189035
  0
LINE
  8
CSLAYER1
  6
CENTER
 62
     5
 10
2267.466768
 20
778.972755
 11
2267.466768
 21
686.514864
  0
LINE
  8
CSLAYER1
  6
CONTINUOUS
 62
     7
 10
2282.304794
 20
727.217878
 11
2282.304794
 21
712.991433
  0
LINE
  8
CSLAYER1
  6
CONTINUOUS
 62
     7
 10
2274.972322
 20
727.217878
 11
2274.972322
 21
712.991433
  0
LINE
  8
CSLAYER1
  6
CONTINUOUS
 62
     7
 10
2280.466768
 20
728.279063
 11
2282.304794
 21
727.217878
  0
ARC
  8
CSLAYER1
  6
CONTINUOUS
 62
     7
 10
2278.638558
 20
721.417471
 40
6.861924
 50
62.295563
 51
121.731450
  0
ARC
  8
CSLAYER1
  6
CONTINUOUS
 62
     7
 10
2267.466768
 20
701.205808
 40
27.073254
 50
73.904971
 51
106.095029
  0
LINE
  8
CSLAYER1
  6
CONTINUOUS
 62
     7
 10
2280.466768
 20
711.930248
 11
2282.304794
 21
712.991433
  0
ARC
  8
CSLAYER1
  6
CONTINUOUS
 62
     7
 10
2278.638558
 20
718.791840
 40
6.861924
 50
238.268550
 51
297.704437
  0
ARC
  8
CSLAYER1
  6
CONTINUOUS
 62
     7
 10
2267.466768
 20
739.003503
 40
27.073254
 50
253.904971
 51
286.095029
  0
LINE
  8
CSLAYER1
  6
CONTINUOUS
 62
     7
 10
2252.628743
 20
727.217878
 11
2252.628743
 21
712.991433
  0
LINE
  8
CSLAYER1
  6
CONTINUOUS
 62
     7
 10
2259.961215
 20
727.217878
 11
2259.961215
 21
712.991433
  0
LINE
  8
CSLAYER1
  6
CONTINUOUS
 62
     7
 10
2254.466768
 20
728.279063
 11
2252.628743
 21
727.217878
  0
ARC
  8
CSLAYER1
  6
CONTINUOUS
 62
     7
 10
2256.294979
 20
721.417471
 40
6.861924
 50
58.268550
 51
117.704437
  0
LINE
  8
CSLAYER1
  6
CONTINUOUS
 62
     7
 10
2254.466768
 20
711.930248
 11
2252.628743
 21
712.991433
  0
ARC
  8
CSLAYER1
  6
CONTINUOUS
 62
     7
 10
2256.294979
 20
718.791840
 40
6.861924
 50
242.295563
 51
301.731450
  0
ARC
  8
CSLAYER1
  6
CONTINUOUS
 62
     7
 10
2258.966768
 20
728.388157
 40
3.000000
 50
90.000000
 51
180.000000
  0
LINE
  8
CSLAYER1
  6
CONTINUOUS
 62
     7
 10
2274.466768
 20
787.264843
 11
2274.466768
 21
731.388157
  0
LINE
  8
CSLAYER1
  6
CONTINUOUS
 62
     7
 10
2260.466768
 20
770.680667
 11
2260.466768
 21
731.388157
  0
LINE
  8
CSLAYER1
  6
CENTER
 62
     5
 10
1097.905125
 20
632.388157
 11
1097.905125
 21
2473.577125
  0
LINE
  8
CSLAYER1
  6
CENTER
 62
     5
 10
902.905125
 20
1547.632641
 11
1292.905125
 21
1547.632641
  0
LINE
  8
CSLAYER1
  6
CENTER
 62
     5
 10
1059.905125
 20
1360.542342
 11
1135.905125
 21
1360.542342
  0
LINE
  8
CSLAYER1
  6
CENTER
 62
     5
 10
905.445804
 20
1250.717813
 11
1290.364445
 21
1250.717813
  0
LINE
  8
CSLAYER1
  6
CENTER
 62
     5
 10
941.905125
 20
919.417127
 11
1253.905125
 21
919.417127
  0
LINE
  8
CSLAYER1
  6
CONTINUOUS
 62
     3
 10
847.905125
 20
682.388157
 11
1347.905125
 21
682.388157
  0
LINE
  8
CSLAYER1
  6
CONTINUOUS
 62
     7
 10
1253.905125
 20
682.388157
 11
1253.905125
 21
2428.577125
  0
LINE
  8
CSLAYER1
  6
CONTINUOUS
 62
     7
 10
1266.905125
 20
682.388157
 11
1266.905125
 21
2428.577125
  0
LINE
  8
CSLAYER1
  6
CONTINUOUS
 62
     7
 10
1262.905125
 20
682.388157
 11
1262.905125
 21
2428.577125
  0
LINE
  8
CSLAYER1
  6
CONTINUOUS
 62
     7
 10
1275.905125
 20
682.388157
 11
1275.905125
 21
2428.577125
  0
LINE
  8
CSLAYER1
  6
CENTER
 62
     5
 10
1331.905125
 20
682.388157
 11
1331.905125
 21
929.188157
  0
INSERT
  8
CSLAYER1
  2
BLKF0001
 10
0.0
 20
0.0
 30
0.0
  0
INSERT
  8
CSLAYER1
  2
BLKF0002
 10
0.0
 20
0.0
 30
0.0
  0
LINE
  8
CSLAYER1
  6
CONTINUOUS
 62
     3
 10
847.905125
 20
632.388157
 11
847.905125
 21
682.388157
  0
LINE
  8
CSLAYER1
  6
CONTINUOUS
 62
     3
 10
1347.905125
 20
632.388157
 11
1347.905125
 21
682.388157
  0
INSERT
  8
CSLAYER1
  2
BLKF0003
 10
0.0
 20
0.0
 30
0.0
  0
LINE
  8
CSLAYER1
  6
CONTINUOUS
 62
     3
 10
1341.905125
 20
682.388157
 11
1341.905125
 21
803.388157
  0
LINE
  8
CSLAYER1
  6
CONTINUOUS
 62
     3
 10
1321.905125
 20
682.388157
 11
1321.905125
 21
803.388157
  0
LINE
  8
CSLAYER1
  6
CONTINUOUS
 62
     3
 10
1322.405125
 20
929.188157
 11
1341.405125
 21
929.188157
  0
LINE
  8
CSLAYER1
  6
CONTINUOUS
 62
     3
 10
1320.935469
 20
921.188157
 11
1342.874780
 21
921.188157
  0
LINE
  8
CSLAYER1
  6
CONTINUOUS
 62
     3
 10
1320.935469
 20
928.339651
 11
1320.935469
 21
921.188157
  0
LINE
  8
CSLAYER1
  6
CONTINUOUS
 62
     3
 10
1326.420297
 20
928.339651
 11
1326.420297
 21
921.188157
  0
LINE
  8
CSLAYER1
  6
CONTINUOUS
 62
     3
 10
1322.405125
 20
929.188157
 11
1320.935469
 21
928.339651
  0
ARC
  8
CSLAYER1
  6
CONTINUOUS
 62
     3
 10
1331.905125
 20
911.036663
 40
18.151494
 50
72.412046
 51
107.587954
  0
ARC
  8
CSLAYER1
  6
CONTINUOUS
 62
     3
 10
1323.677883
 20
924.345765
 40
4.844787
 50
55.524449
 51
115.524449
  0
LINE
  8
CSLAYER1
  6
CONTINUOUS
 62
     3
 10
1342.874780
 20
928.339651
 11
1342.874780
 21
921.188157
  0
LINE
  8
CSLAYER1
  6
CONTINUOUS
 62
     3
 10
1337.389952
 20
928.339651
 11
1337.389952
 21
921.188157
  0
LINE
  8
CSLAYER1
  6
CONTINUOUS
 62
     3
 10
1341.405125
 20
929.188157
 11
1342.874780
 21
928.339651
  0
ARC
  8
CSLAYER1
  6
CONTINUOUS
 62
     3
 10
1340.132366
 20
924.345765
 40
4.844787
 50
64.475551
 51
124.475551
  0
LINE
  8
CSLAYER1
  6
CONTINUOUS
 62
     5
 10
1325.905125
 20
921.188157
 11
1326.905125
 21
919.456106
  0
LINE
  8
CSLAYER1
  6
CONTINUOUS
 62
     5
 10
1337.905125
 20
921.188157
 11
1336.905125
 21
919.456106
  0
POINT
  8
CSLAYER1
 62
     3
 10
1331.905125
 20
921.188157
  0
LINE
  8
CSLAYER1
  6
CONTINUOUS
 62
     3
 10
1325.905125
 20
921.188157
 11
1325.905125
 21
813.388157
  0
LINE
  8
CSLAYER1
  6
CONTINUOUS
 62
     5
 10
1326.905125
 20
919.456106
 11
1326.905125
 21
813.388157
  0
LINE
  8
CSLAYER1
  6
CONTINUOUS
 62
     5
 10
1336.905125
 20
919.456106
 11
1336.905125
 21
813.388157
  0
LINE
  8
CSLAYER1
  6
CONTINUOUS
 62
     3
 10
1337.905125
 20
921.188157
 11
1337.905125
 21
813.388157
  0
INSERT
  8
CSLAYER1
  2
BLKF0004
 10
0.0
 20
0.0
 30
0.0
  0
LINE
  8
CSLAYER1
  6
CONTINUOUS
 62
     3
 10
1253.905125
 20
1556.632641
 11
941.905125
 21
1556.632641
  0
LINE
  8
CSLAYER1
  6
CONTINUOUS
 62
     3
 10
1253.905125
 20
1538.632641
 11
941.905125
 21
1538.632641
  0
INSERT
  8
CSLAYER1
  2
BLKF0005
 10
0.0
 20
0.0
 30
0.0
  0
LINE
  8
CSLAYER1
  6
CONTINUOUS
 62
     3
 10
1253.905125
 20
962.802985
 11
941.905125
 21
962.802985
  0
INSERT
  8
CSLAYER1
  2
BLKF0006
 10
0.0
 20
0.0
 30
0.0
  0
LINE
  8
CSLAYER1
  6
CONTINUOUS
 62
     4
 10
1059.905125
 20
1273.446715
 11
1059.905125
 21
1380.542342
  0
LINE
  8
CSLAYER1
  6
CONTINUOUS
 62
     4
 10
1068.905125
 20
1273.446715
 11
1068.905125
 21
1380.542342
  0
LINE
  8
CSLAYER1
  6
CONTINUOUS
 62
     4
 10
1126.905125
 20
1273.446715
 11
1126.905125
 21
1380.542342
  0
LINE
  8
CSLAYER1
  6
CONTINUOUS
 62
     4
 10
1135.905125
 20
1273.446715
 11
1135.905125
 21
1380.542342
  0
POINT
  8
CSLAYER1
 62
     5
 10
1097.905125
 20
1360.542342
  0
LINE
  8
CSLAYER1
  6
CONTINUOUS
 62
     4
 10
1068.905125
 20
1380.542342
 11
1059.905125
 21
1380.542342
  0
LINE
  8
CSLAYER1
  6
CONTINUOUS
 62
     4
 10
1083.905125
 20
1343.042342
 11
1083.905125
 21
1378.042342
  0
LINE
  8
CSLAYER1
  6
CONTINUOUS
 62
     4
 10
1083.905125
 20
1378.042342
 11
1068.905125
 21
1378.042342
  0
LINE
  8
CSLAYER1
  6
CONTINUOUS
 62
     4
 10
1083.905125
 20
1343.042342
 11
1068.905125
 21
1343.042342
  0
LINE
  8
CSLAYER1
  6
CONTINUOUS
 62
     4
 10
1087.905125
 20
1373.042342
 11
1083.905125
 21
1373.042342
  0
LINE
  8
CSLAYER1
  6
CONTINUOUS
 62
     4
 10
1087.905125
 20
1348.042342
 11
1083.905125
 21
1348.042342
  0
LINE
  8
CSLAYER1
  6
CONTINUOUS
 62
     4
 10
1126.905125
 20
1380.542342
 11
1135.905125
 21
1380.542342
  0
LINE
  8
CSLAYER1
  6
CONTINUOUS
 62
     4
 10
1111.905125
 20
1343.042342
 11
1111.905125
 21
1378.042342
  0
LINE
  8
CSLAYER1
  6
CONTINUOUS
 62
     4
 10
1111.905125
 20
1378.042342
 11
1126.905125
 21
1378.042342
  0
LINE
  8
CSLAYER1
  6
CONTINUOUS
 62
     4
 10
1111.905125
 20
1343.042342
 11
1126.905125
 21
1343.042342
  0
LINE
  8
CSLAYER1
  6
CONTINUOUS
 62
     4
 10
1107.905125
 20
1373.042342
 11
1111.905125
 21
1373.042342
  0
LINE
  8
CSLAYER1
  6
CONTINUOUS
 62
     4
 10
1107.905125
 20
1348.042342
 11
1111.905125
 21
1348.042342
  0
LINE
  8
CSLAYER1
  6
CONTINUOUS
 62
     4
 10
1087.905125
 20
1384.585337
 11
1107.905125
 21
1384.585337
  0
LINE
  8
CSLAYER1
  6
CONTINUOUS
 62
     4
 10
1068.905125
 20
1291.203134
 11
1126.905125
 21
1291.203134
  0
LINE
  8
CSLAYER1
  6
CONTINUOUS
 62
     4
 10
1253.905125
 20
1230.703134
 11
941.905125
 21
1230.703134
  0
LINE
  8
CSLAYER1
  6
CONTINUOUS
 62
     4
 10
1059.905125
 20
1273.446715
 11
1068.905125
 21
1273.446715
  0
LINE
  8
CSLAYER1
  6
CONTINUOUS
 62
     4
 10
1135.905125
 20
1291.203134
 11
1244.905125
 21
1291.203134
  0
LINE
  8
CSLAYER1
  6
CONTINUOUS
 62
     4
 10
1126.905125
 20
1273.446715
 11
1135.905125
 21
1273.446715
  0
LINE
  8
CSLAYER1
  6
CONTINUOUS
 62
     4
 10
1087.905125
 20
1327.734847
 11
1087.905125
 21
1384.585337
  0
LINE
  8
CSLAYER1
  6
CONTINUOUS
 62
     4
 10
1107.905125
 20
1327.734847
 11
1107.905125
 21
1384.585337
  0
LINE
  8
CSLAYER1
  6
CONTINUOUS
 62
     7
 10
1244.905125
 20
1419.415202
 11
1253.905125
 21
1419.415202
  0
LINE
  8
CSLAYER1
  6
CONTINUOUS
 62
     4
 10
1253.905125
 20
949.667127
 11
941.905125
 21
949.667127
  0
LINE
  8
CSLAYER1
  6
CONTINUOUS
 62
     4
 10
1253.905125
 20
889.167127
 11
941.905125
 21
889.167127
  0
LINE
  8
CSLAYER1
  6
CONTINUOUS
 62
     4
 10
1189.905125
 20
980.497037
 11
1198.905125
 21
980.497037
  0
LINE
  8
CSLAYER1
  6
CONTINUOUS
 62
     4
 10
1189.905125
 20
962.802985
 11
1189.905125
 21
980.497037
  0
LINE
  8
CSLAYER1
  6
CONTINUOUS
 62
     4
 10
1198.905125
 20
962.802985
 11
1198.905125
 21
980.497037
  0
INSERT
  8
CSLAYER1
  2
BLKF0007
 10
0.0
 20
0.0
 30
0.0
  0
LINE
  8
CSLAYER1
  6
CONTINUOUS
 62
     4
 10
1253.905125
 20
882.576338
 11
941.905125
 21
882.576338
  0
LINE
  8
CSLAYER1
  6
CONTINUOUS
 62
     4
 10
1253.905125
 20
787.060065
 11
941.905125
 21
787.060065
  0
LINE
  8
CSLAYER1
  6
CONTINUOUS
 62
     4
 10
1262.905125
 20
882.576338
 11
1266.905125
 21
882.576338
  0
LINE
  8
CSLAYER1
  6
CONTINUOUS
 62
     4
 10
1262.905125
 20
787.060065
 11
1266.905125
 21
787.060065
  0
LINE
  8
CSLAYER1
  6
CENTER
 62
     5
 10
902.905125
 20
953.802985
 11
1292.905125
 21
953.802985
  0
LINE
  8
CSLAYER1
  6
CONTINUOUS
 62
     7
 10
1244.905125
 20
1230.703134
 11
1244.905125
 21
1419.415202
  0
LINE
  8
CSLAYER1
  6
CONTINUOUS
 62
     4
 10
1159.905125
 20
740.212825
 11
1159.905125
 21
787.060065
  0
LINE
  8
CSLAYER1
  6
CONTINUOUS
 62
     4
 10
1035.905125
 20
740.212825
 11
1035.905125
 21
787.060065
  0
LINE
  8
CSLAYER1
  6
CONTINUOUS
 62
     4
 10
1035.905125
 20
740.212825
 11
1036.141053
 21
736.834229
  0
LINE
  8
CSLAYER1
  6
CONTINUOUS
 62
     4
 10
1036.141053
 20
736.834229
 11
1036.847044
 21
733.481346
  0
LINE
  8
CSLAYER1
  6
CONTINUOUS
 62
     4
 10
1036.847044
 20
733.481346
 11
1037.482861
 21
731.688157
  0
LINE
  8
CSLAYER1
  6
CONTINUOUS
 62
     4
 10
1152.905125
 20
722.399423
 11
1154.096207
 21
723.830009
  0
LINE
  8
CSLAYER1
  6
CONTINUOUS
 62
     4
 10
1154.096207
 20
723.830009
 11
1156.166067
 21
726.954399
  0
LINE
  8
CSLAYER1
  6
CONTINUOUS
 62
     4
 10
1156.166067
 20
726.954399
 11
1157.792526
 21
730.179693
  0
LINE
  8
CSLAYER1
  6
CONTINUOUS
 62
     4
 10
1157.792526
 20
730.179693
 11
1158.963205
 21
733.481346
  0
LINE
  8
CSLAYER1
  6
CONTINUOUS
 62
     4
 10
1158.963205
 20
733.481346
 11
1159.669196
 21
736.834229
  0
LINE
  8
CSLAYER1
  6
CONTINUOUS
 62
     4
 10
1159.669196
 20
736.834229
 11
1159.905125
 21
740.212825
  0
LINE
  8
CSLAYER1
  6
CONTINUOUS
 62
     4
 10
1059.755125
 20
1012.533582
 11
1059.755125
 21
1216.969221
  0
LINE
  8
CSLAYER1
  6
CONTINUOUS
 62
     4
 10
1059.755125
 20
1012.533582
 11
1059.900297
 21
1010.454655
  0
LINE
  8
CSLAYER1
  6
CONTINUOUS
 62
     4
 10
1059.900297
 20
1010.454655
 11
1060.334709
 21
1008.391550
  0
LINE
  8
CSLAYER1
  6
CONTINUOUS
 62
     4
 10
1060.334709
 20
1008.391550
 11
1061.055054
 21
1006.359969
  0
LINE
  8
CSLAYER1
  6
CONTINUOUS
 62
     4
 10
1061.055054
 20
1006.359969
 11
1062.055851
 21
1004.375373
  0
LINE
  8
CSLAYER1
  6
CONTINUOUS
 62
     4
 10
1062.055851
 20
1004.375373
 11
1063.329482
 21
1002.452865
  0
LINE
  8
CSLAYER1
  6
CONTINUOUS
 62
     4
 10
1063.329482
 20
1002.452865
 11
1064.866255
 21
1000.607078
  0
LINE
  8
CSLAYER1
  6
CONTINUOUS
 62
     4
 10
1064.866255
 20
1000.607078
 11
1066.654474
 21
998.852059
  0
LINE
  8
CSLAYER1
  6
CONTINUOUS
 62
     4
 10
1066.654474
 20
998.852059
 11
1068.680529
 21
997.201164
  0
LINE
  8
CSLAYER1
  6
CONTINUOUS
 62
     4
 10
1068.680529
 20
997.201164
 11
1070.929001
 21
995.666958
  0
LINE
  8
CSLAYER1
  6
CONTINUOUS
 62
     4
 10
1070.929001
 20
995.666958
 11
1073.382777
 21
994.261118
  0
LINE
  8
CSLAYER1
  6
CONTINUOUS
 62
     4
 10
1073.382777
 20
994.261118
 11
1076.023184
 21
992.994342
  0
LINE
  8
CSLAYER1
  6
CONTINUOUS
 62
     4
 10
1076.023184
 20
992.994342
 11
1078.830125
 21
991.876271
  0
LINE
  8
CSLAYER1
  6
CONTINUOUS
 62
     4
 10
1078.830125
 20
991.876271
 11
1081.782238
 21
990.915415
  0
LINE
  8
CSLAYER1
  6
CONTINUOUS
 62
     4
 10
1081.782238
 20
990.915415
 11
1084.857056
 21
990.119087
  0
LINE
  8
CSLAYER1
  6
CONTINUOUS
 62
     4
 10
1084.857056
 20
990.119087
 11
1088.031178
 21
989.493346
  0
LINE
  8
CSLAYER1
  6
CONTINUOUS
 62
     4
 10
1088.031178
 20
989.493346
 11
1091.280447
 21
989.042955
  0
LINE
  8
CSLAYER1
  6
CONTINUOUS
 62
     4
 10
1091.280447
 20
989.042955
 11
1094.580133
 21
988.771342
  0
LINE
  8
CSLAYER1
  6
CONTINUOUS
 62
     4
 10
1094.580133
 20
988.771342
 11
1097.905125
 21
988.680574
  0
LINE
  8
CSLAYER1
  6
CONTINUOUS
 62
     4
 10
1097.905125
 20
988.680574
 11
1101.230116
 21
988.771342
  0
LINE
  8
CSLAYER1
  6
CONTINUOUS
 62
     4
 10
1101.230116
 20
988.771342
 11
1104.529803
 21
989.042955
  0
LINE
  8
CSLAYER1
  6
CONTINUOUS
 62
     4
 10
1104.529803
 20
989.042955
 11
1107.779071
 21
989.493346
  0
LINE
  8
CSLAYER1
  6
CONTINUOUS
 62
     4
 10
1107.779071
 20
989.493346
 11
1110.953193
 21
990.119087
  0
LINE
  8
CSLAYER1
  6
CONTINUOUS
 62
     4
 10
1110.953193
 20
990.119087
 11
1114.028011
 21
990.915415
  0
LINE
  8
CSLAYER1
  6
CONTINUOUS
 62
     4
 10
1114.028011
 20
990.915415
 11
1116.980125
 21
991.876271
  0
LINE
  8
CSLAYER1
  6
CONTINUOUS
 62
     4
 10
1116.980125
 20
991.876271
 11
1119.787066
 21
992.994342
  0
LINE
  8
CSLAYER1
  6
CONTINUOUS
 62
     4
 10
1119.787066
 20
992.994342
 11
1122.427472
 21
994.261118
  0
LINE
  8
CSLAYER1
  6
CONTINUOUS
 62
     4
 10
1122.427472
 20
994.261118
 11
1124.881248
 21
995.666958
  0
LINE
  8
CSLAYER1
  6
CONTINUOUS
 62
     4
 10
1124.881248
 20
995.666958
 11
1127.129720
 21
997.201164
  0
LINE
  8
CSLAYER1
  6
CONTINUOUS
 62
     4
 10
1127.129720
 20
997.201164
 11
1129.155775
 21
998.852059
  0
LINE
  8
CSLAYER1
  6
CONTINUOUS
 62
     4
 10
1129.155775
 20
998.852059
 11
1130.943994
 21
1000.607078
  0
LINE
  8
CSLAYER1
  6
CONTINUOUS
 62
     4
 10
1130.943994
 20
1000.607078
 11
1132.480767
 21
1002.452865
  0
LINE
  8
CSLAYER1
  6
CONTINUOUS
 62
     4
 10
1132.480767
 20
1002.452865
 11
1133.754398
 21
1004.375373
  0
LINE
  8
CSLAYER1
  6
CONTINUOUS
 62
     4
 10
1133.754398
 20
1004.375373
 11
1134.755195
 21
1006.359969
  0
LINE
  8
CSLAYER1
  6
CONTINUOUS
 62
     4
 10
1134.755195
 20
1006.359969
 11
1135.475540
 21
1008.391550
  0
LINE
  8
CSLAYER1
  6
CONTINUOUS
 62
     4
 10
1135.475540
 20
1008.391550
 11
1135.909952
 21
1010.454655
  0
LINE
  8
CSLAYER1
  6
CONTINUOUS
 62
     4
 10
1135.909952
 20
1010.454655
 11
1136.055125
 21
1012.533582
  0
LINE
  8
CSLAYER1
  6
CONTINUOUS
 62
     4
 10
1140.405125
 20
1012.533582
 11
1140.243399
 21
1014.849555
  0
LINE
  8
CSLAYER1
  6
CONTINUOUS
 62
     4
 10
1140.243399
 20
1014.849555
 11
1139.759454
 21
1017.147902
  0
LINE
  8
CSLAYER1
  6
CONTINUOUS
 62
     4
 10
1139.759454
 20
1017.147902
 11
1138.956972
 21
1019.411132
  0
LINE
  8
CSLAYER1
  6
CONTINUOUS
 62
     4
 10
1138.956972
 20
1019.411132
 11
1137.842061
 21
1021.622019
  0
LINE
  8
CSLAYER1
  6
CONTINUOUS
 62
     4
 10
1137.842061
 20
1021.622019
 11
1136.423206
 21
1023.763738
  0
LINE
  8
CSLAYER1
  6
CONTINUOUS
 62
     4
 10
1136.423206
 20
1023.763738
 11
1136.055125
 21
1024.205832
  0
LINE
  8
CSLAYER1
  6
CONTINUOUS
 62
     4
 10
1059.755125
 20
1024.205832
 11
1059.387044
 21
1023.763738
  0
LINE
  8
CSLAYER1
  6
CONTINUOUS
 62
     4
 10
1059.387044
 20
1023.763738
 11
1057.968188
 21
1021.622019
  0
LINE
  8
CSLAYER1
  6
CONTINUOUS
 62
     4
 10
1057.968188
 20
1021.622019
 11
1056.853277
 21
1019.411132
  0
LINE
  8
CSLAYER1
  6
CONTINUOUS
 62
     4
 10
1056.853277
 20
1019.411132
 11
1056.050795
 21
1017.147902
  0
LINE
  8
CSLAYER1
  6
CONTINUOUS
 62
     4
 10
1056.050795
 20
1017.147902
 11
1055.566850
 21
1014.849555
  0
LINE
  8
CSLAYER1
  6
CONTINUOUS
 62
     4
 10
1055.566850
 20
1014.849555
 11
1055.405125
 21
1012.533582
  0
LINE
  8
CSLAYER1
  6
CONTINUOUS
 62
     4
 10
1055.405125
 20
1012.533582
 11
1055.566850
 21
1010.217608
  0
LINE
  8
CSLAYER1
  6
CONTINUOUS
 62
     4
 10
1055.566850
 20
1010.217608
 11
1056.050795
 21
1007.919261
  0
LINE
  8
CSLAYER1
  6
CONTINUOUS
 62
     4
 10
1056.050795
 20
1007.919261
 11
1056.853277
 21
1005.656032
  0
LINE
  8
CSLAYER1
  6
CONTINUOUS
 62
     4
 10
1056.853277
 20
1005.656032
 11
1057.968188
 21
1003.445144
  0
LINE
  8
CSLAYER1
  6
CONTINUOUS
 62
     4
 10
1057.968188
 20
1003.445144
 11
1059.387044
 21
1001.303426
  0
LINE
  8
CSLAYER1
  6
CONTINUOUS
 62
     4
 10
1059.387044
 20
1001.303426
 11
1061.099045
 21
999.247175
  0
LINE
  8
CSLAYER1
  6
CONTINUOUS
 62
     4
 10
1061.099045
 20
999.247175
 11
1063.091163
 21
997.292042
  0
LINE
  8
CSLAYER1
  6
CONTINUOUS
 62
     4
 10
1063.091163
 20
997.292042
 11
1065.348236
 21
995.452907
  0
LINE
  8
CSLAYER1
  6
CONTINUOUS
 62
     4
 10
1065.348236
 20
995.452907
 11
1067.853086
 21
993.743765
  0
LINE
  8
CSLAYER1
  6
CONTINUOUS
 62
     4
 10
1067.853086
 20
993.743765
 11
1070.586651
 21
992.177626
  0
LINE
  8
CSLAYER1
  6
CONTINUOUS
 62
     4
 10
1070.586651
 20
992.177626
 11
1073.528126
 21
990.766408
  0
LINE
  8
CSLAYER1
  6
CONTINUOUS
 62
     4
 10
1073.528126
 20
990.766408
 11
1076.655125
 21
989.520851
  0
LINE
  8
CSLAYER1
  6
CONTINUOUS
 62
     4
 10
1076.655125
 20
989.520851
 11
1079.943848
 21
988.450434
  0
LINE
  8
CSLAYER1
  6
CONTINUOUS
 62
     4
 10
1079.943848
 20
988.450434
 11
1083.369268
 21
987.563305
  0
LINE
  8
CSLAYER1
  6
CONTINUOUS
 62
     4
 10
1083.369268
 20
987.563305
 11
1086.905315
 21
986.866215
  0
LINE
  8
CSLAYER1
  6
CONTINUOUS
 62
     4
 10
1086.905315
 20
986.866215
 11
1090.525077
 21
986.364469
  0
LINE
  8
CSLAYER1
  6
CONTINUOUS
 62
     4
 10
1090.525077
 20
986.364469
 11
1094.201006
 21
986.061886
  0
LINE
  8
CSLAYER1
  6
CONTINUOUS
 62
     4
 10
1094.201006
 20
986.061886
 11
1097.905125
 21
985.960769
  0
LINE
  8
CSLAYER1
  6
CONTINUOUS
 62
     4
 10
1097.905125
 20
985.960769
 11
1101.609244
 21
986.061886
  0
LINE
  8
CSLAYER1
  6
CONTINUOUS
 62
     4
 10
1101.609244
 20
986.061886
 11
1105.285172
 21
986.364469
  0
LINE
  8
CSLAYER1
  6
CONTINUOUS
 62
     4
 10
1105.285172
 20
986.364469
 11
1108.904934
 21
986.866215
  0
LINE
  8
CSLAYER1
  6
CONTINUOUS
 62
     4
 10
1108.904934
 20
986.866215
 11
1112.440981
 21
987.563305
  0
LINE
  8
CSLAYER1
  6
CONTINUOUS
 62
     4
 10
1112.440981
 20
987.563305
 11
1115.866401
 21
988.450434
  0
LINE
  8
CSLAYER1
  6
CONTINUOUS
 62
     4
 10
1115.866401
 20
988.450434
 11
1119.155125
 21
989.520851
  0
LINE
  8
CSLAYER1
  6
CONTINUOUS
 62
     4
 10
1119.155125
 20
989.520851
 11
1122.282123
 21
990.766408
  0
LINE
  8
CSLAYER1
  6
CONTINUOUS
 62
     4
 10
1122.282123
 20
990.766408
 11
1125.223598
 21
992.177626
  0
LINE
  8
CSLAYER1
  6
CONTINUOUS
 62
     4
 10
1125.223598
 20
992.177626
 11
1127.957163
 21
993.743765
  0
LINE
  8
CSLAYER1
  6
CONTINUOUS
 62
     4
 10
1127.957163
 20
993.743765
 11
1130.462013
 21
995.452907
  0
LINE
  8
CSLAYER1
  6
CONTINUOUS
 62
     4
 10
1130.462013
 20
995.452907
 11
1132.719086
 21
997.292042
  0
LINE
  8
CSLAYER1
  6
CONTINUOUS
 62
     4
 10
1132.719086
 20
997.292042
 11
1134.711204
 21
999.247175
  0
LINE
  8
CSLAYER1
  6
CONTINUOUS
 62
     4
 10
1134.711204
 20
999.247175
 11
1136.423206
 21
1001.303426
  0
LINE
  8
CSLAYER1
  6
CONTINUOUS
 62
     4
 10
1136.423206
 20
1001.303426
 11
1137.842061
 21
1003.445144
  0
LINE
  8
CSLAYER1
  6
CONTINUOUS
 62
     4
 10
1137.842061
 20
1003.445144
 11
1138.956972
 21
1005.656032
  0
LINE
  8
CSLAYER1
  6
CONTINUOUS
 62
     4
 10
1138.956972
 20
1005.656032
 11
1139.759454
 21
1007.919261
  0
LINE
  8
CSLAYER1
  6
CONTINUOUS
 62
     4
 10
1139.759454
 20
1007.919261
 11
1140.243399
 21
1010.217608
  0
LINE
  8
CSLAYER1
  6
CONTINUOUS
 62
     4
 10
1140.243399
 20
1010.217608
 11
1140.405125
 21
1012.533582
  0
LINE
  8
CSLAYER1
  6
CONTINUOUS
 62
     4
 10
1136.055125
 20
1012.533582
 11
1136.055125
 21
1216.969221
  0
LINE
  8
CSLAYER1
  6
CONTINUOUS
 62
     4
 10
1074.405125
 20
1341.035125
 11
1074.405125
 21
1336.353393
  0
LINE
  8
CSLAYER1
  6
CONTINUOUS
 62
     4
 10
1121.405125
 20
1341.035125
 11
1121.405125
 21
1336.353393
  0
LINE
  8
CSLAYER1
  6
CONTINUOUS
 62
     4
 10
1074.405125
 20
1336.353393
 11
1074.494549
 21
1335.072796
  0
LINE
  8
CSLAYER1
  6
CONTINUOUS
 62
     4
 10
1074.494549
 20
1335.072796
 11
1074.762142
 21
1333.801945
  0
LINE
  8
CSLAYER1
  6
CONTINUOUS
 62
     4
 10
1074.762142
 20
1333.801945
 11
1075.205868
 21
1332.550512
  0
LINE
  8
CSLAYER1
  6
CONTINUOUS
 62
     4
 10
1075.205868
 20
1332.550512
 11
1075.822348
 21
1331.328021
  0
LINE
  8
CSLAYER1
  6
CONTINUOUS
 62
     4
 10
1075.822348
 20
1331.328021
 11
1076.606892
 21
1330.143777
  0
LINE
  8
CSLAYER1
  6
CONTINUOUS
 62
     4
 10
1076.606892
 20
1330.143777
 11
1077.553528
 21
1329.006791
  0
LINE
  8
CSLAYER1
  6
CONTINUOUS
 62
     4
 10
1077.553528
 20
1329.006791
 11
1078.655052
 21
1327.925718
  0
LINE
  8
CSLAYER1
  6
CONTINUOUS
 62
     4
 10
1078.655052
 20
1327.925718
 11
1079.903080
 21
1326.908784
  0
LINE
  8
CSLAYER1
  6
CONTINUOUS
 62
     4
 10
1079.903080
 20
1326.908784
 11
1081.288115
 21
1325.963729
  0
LINE
  8
CSLAYER1
  6
CONTINUOUS
 62
     4
 10
1081.288115
 20
1325.963729
 11
1082.799616
 21
1325.097746
  0
LINE
  8
CSLAYER1
  6
CONTINUOUS
 62
     4
 10
1082.799616
 20
1325.097746
 11
1084.426078
 21
1324.317426
  0
LINE
  8
CSLAYER1
  6
CONTINUOUS
 62
     4
 10
1084.426078
 20
1324.317426
 11
1086.155125
 21
1323.628706
  0
LINE
  8
CSLAYER1
  6
CONTINUOUS
 62
     4
 10
1086.155125
 20
1323.628706
 11
1087.973595
 21
1323.036829
  0
LINE
  8
CSLAYER1
  6
CONTINUOUS
 62
     4
 10
1087.973595
 20
1323.036829
 11
1089.867651
 21
1322.546299
  0
LINE
  8
CSLAYER1
  6
CONTINUOUS
 62
     4
 10
1089.867651
 20
1322.546299
 11
1091.822877
 21
1322.160849
  0
LINE
  8
CSLAYER1
  6
CONTINUOUS
 62
     4
 10
1091.822877
 20
1322.160849
 11
1093.824392
 21
1321.883413
  0
LINE
  8
CSLAYER1
  6
CONTINUOUS
 62
     4
 10
1093.824392
 20
1321.883413
 11
1095.856965
 21
1321.716102
  0
LINE
  8
CSLAYER1
  6
CONTINUOUS
 62
     4
 10
1095.856965
 20
1321.716102
 11
1097.905125
 21
1321.660190
  0
LINE
  8
CSLAYER1
  6
CONTINUOUS
 62
     4
 10
1097.905125
 20
1321.660190
 11
1099.953285
 21
1321.716102
  0
LINE
  8
CSLAYER1
  6
CONTINUOUS
 62
     4
 10
1099.953285
 20
1321.716102
 11
1101.985857
 21
1321.883413
  0
LINE
  8
CSLAYER1
  6
CONTINUOUS
 62
     4
 10
1101.985857
 20
1321.883413
 11
1103.987372
 21
1322.160849
  0
LINE
  8
CSLAYER1
  6
CONTINUOUS
 62
     4
 10
1103.987372
 20
1322.160849
 11
1105.942598
 21
1322.546299
  0
LINE
  8
CSLAYER1
  6
CONTINUOUS
 62
     4
 10
1105.942598
 20
1322.546299
 11
1107.836654
 21
1323.036829
  0
LINE
  8
CSLAYER1
  6
CONTINUOUS
 62
     4
 10
1107.836654
 20
1323.036829
 11
1109.655125
 21
1323.628706
  0
LINE
  8
CSLAYER1
  6
CONTINUOUS
 62
     4
 10
1109.655125
 20
1323.628706
 11
1111.384171
 21
1324.317426
  0
LINE
  8
CSLAYER1
  6
CONTINUOUS
 62
     4
 10
1111.384171
 20
1324.317426
 11
1113.010633
 21
1325.097746
  0
LINE
  8
CSLAYER1
  6
CONTINUOUS
 62
     4
 10
1113.010633
 20
1325.097746
 11
1114.522134
 21
1325.963729
  0
LINE
  8
CSLAYER1
  6
CONTINUOUS
 62
     4
 10
1114.522134
 20
1325.963729
 11
1115.907169
 21
1326.908784
  0
LINE
  8
CSLAYER1
  6
CONTINUOUS
 62
     4
 10
1115.907169
 20
1326.908784
 11
1117.155198
 21
1327.925718
  0
LINE
  8
CSLAYER1
  6
CONTINUOUS
 62
     4
 10
1117.155198
 20
1327.925718
 11
1118.256722
 21
1329.006791
  0
LINE
  8
CSLAYER1
  6
CONTINUOUS
 62
     4
 10
1118.256722
 20
1329.006791
 11
1119.203358
 21
1330.143777
  0
LINE
  8
CSLAYER1
  6
CONTINUOUS
 62
     4
 10
1119.203358
 20
1330.143777
 11
1119.987901
 21
1331.328021
  0
LINE
  8
CSLAYER1
  6
CONTINUOUS
 62
     4
 10
1119.987901
 20
1331.328021
 11
1120.604381
 21
1332.550512
  0
LINE
  8
CSLAYER1
  6
CONTINUOUS
 62
     4
 10
1120.604381
 20
1332.550512
 11
1121.048107
 21
1333.801945
  0
LINE
  8
CSLAYER1
  6
CONTINUOUS
 62
     4
 10
1121.048107
 20
1333.801945
 11
1121.315700
 21
1335.072796
  0
LINE
  8
CSLAYER1
  6
CONTINUOUS
 62
     4
 10
1121.315700
 20
1335.072796
 11
1121.405125
 21
1336.353393
  0
LINE
  8
CSLAYER1
  6
CONTINUOUS
 62
     4
 10
1121.405125
 20
1341.035125
 11
1121.315700
 21
1342.315722
  0
LINE
  8
CSLAYER1
  6
CONTINUOUS
 62
     4
 10
1121.315700
 20
1342.315722
 11
1121.162701
 21
1343.042342
  0
LINE
  8
CSLAYER1
  6
CONTINUOUS
 62
     4
 10
1074.647548
 20
1343.042342
 11
1074.494549
 21
1342.315722
  0
LINE
  8
CSLAYER1
  6
CONTINUOUS
 62
     4
 10
1074.494549
 20
1342.315722
 11
1074.405125
 21
1341.035125
  0
LINE
  8
CSLAYER1
  6
CONTINUOUS
 62
     4
 10
1074.405125
 20
1341.035125
 11
1074.494549
 21
1339.754528
  0
LINE
  8
CSLAYER1
  6
CONTINUOUS
 62
     4
 10
1074.494549
 20
1339.754528
 11
1074.762142
 21
1338.483677
  0
LINE
  8
CSLAYER1
  6
CONTINUOUS
 62
     4
 10
1074.762142
 20
1338.483677
 11
1075.205868
 21
1337.232244
  0
LINE
  8
CSLAYER1
  6
CONTINUOUS
 62
     4
 10
1075.205868
 20
1337.232244
 11
1075.822348
 21
1336.009754
  0
LINE
  8
CSLAYER1
  6
CONTINUOUS
 62
     4
 10
1075.822348
 20
1336.009754
 11
1076.606892
 21
1334.825509
  0
LINE
  8
CSLAYER1
  6
CONTINUOUS
 62
     4
 10
1076.606892
 20
1334.825509
 11
1077.553528
 21
1333.688524
  0
LINE
  8
CSLAYER1
  6
CONTINUOUS
 62
     4
 10
1077.553528
 20
1333.688524
 11
1078.655052
 21
1332.607450
  0
LINE
  8
CSLAYER1
  6
CONTINUOUS
 62
     4
 10
1078.655052
 20
1332.607450
 11
1079.903080
 21
1331.590516
  0
LINE
  8
CSLAYER1
  6
CONTINUOUS
 62
     4
 10
1079.903080
 20
1331.590516
 11
1081.288115
 21
1330.645462
  0
LINE
  8
CSLAYER1
  6
CONTINUOUS
 62
     4
 10
1081.288115
 20
1330.645462
 11
1082.799616
 21
1329.779479
  0
LINE
  8
CSLAYER1
  6
CONTINUOUS
 62
     4
 10
1082.799616
 20
1329.779479
 11
1084.426078
 21
1328.999158
  0
LINE
  8
CSLAYER1
  6
CONTINUOUS
 62
     4
 10
1084.426078
 20
1328.999158
 11
1086.155125
 21
1328.310438
  0
LINE
  8
CSLAYER1
  6
CONTINUOUS
 62
     4
 10
1086.155125
 20
1328.310438
 11
1087.973595
 21
1327.718561
  0
LINE
  8
CSLAYER1
  6
CONTINUOUS
 62
     4
 10
1107.836654
 20
1327.718561
 11
1109.655125
 21
1328.310438
  0
LINE
  8
CSLAYER1
  6
CONTINUOUS
 62
     4
 10
1109.655125
 20
1328.310438
 11
1111.384171
 21
1328.999158
  0
LINE
  8
CSLAYER1
  6
CONTINUOUS
 62
     4
 10
1111.384171
 20
1328.999158
 11
1113.010633
 21
1329.779479
  0
LINE
  8
CSLAYER1
  6
CONTINUOUS
 62
     4
 10
1113.010633
 20
1329.779479
 11
1114.522134
 21
1330.645462
  0
LINE
  8
CSLAYER1
  6
CONTINUOUS
 62
     4
 10
1114.522134
 20
1330.645462
 11
1115.907169
 21
1331.590516
  0
LINE
  8
CSLAYER1
  6
CONTINUOUS
 62
     4
 10
1115.907169
 20
1331.590516
 11
1117.155198
 21
1332.607450
  0
LINE
  8
CSLAYER1
  6
CONTINUOUS
 62
     4
 10
1117.155198
 20
1332.607450
 11
1118.256722
 21
1333.688524
  0
LINE
  8
CSLAYER1
  6
CONTINUOUS
 62
     4
 10
1118.256722
 20
1333.688524
 11
1119.203358
 21
1334.825509
  0
LINE
  8
CSLAYER1
  6
CONTINUOUS
 62
     4
 10
1119.203358
 20
1334.825509
 11
1119.987901
 21
1336.009754
  0
LINE
  8
CSLAYER1
  6
CONTINUOUS
 62
     4
 10
1119.987901
 20
1336.009754
 11
1120.604381
 21
1337.232244
  0
LINE
  8
CSLAYER1
  6
CONTINUOUS
 62
     4
 10
1120.604381
 20
1337.232244
 11
1121.048107
 21
1338.483677
  0
LINE
  8
CSLAYER1
  6
CONTINUOUS
 62
     4
 10
1121.048107
 20
1338.483677
 11
1121.315700
 21
1339.754528
  0
LINE
  8
CSLAYER1
  6
CONTINUOUS
 62
     4
 10
1121.315700
 20
1339.754528
 11
1121.405125
 21
1341.035125
  0
LINE
  8
CSLAYER1
  6
CONTINUOUS
 62
     4
 10
1076.555125
 20
1216.969221
 11
1076.555125
 21
1230.703134
  0
LINE
  8
CSLAYER1
  6
CONTINUOUS
 62
     4
 10
1119.255125
 20
1216.969221
 11
1119.255125
 21
1230.703134
  0
LINE
  8
CSLAYER1
  6
CONTINUOUS
 62
     4
 10
1076.555125
 20
1216.969221
 11
1076.636368
 21
1215.805785
  0
LINE
  8
CSLAYER1
  6
CONTINUOUS
 62
     4
 10
1076.636368
 20
1215.805785
 11
1076.879479
 21
1214.651204
  0
LINE
  8
CSLAYER1
  6
CONTINUOUS
 62
     4
 10
1076.879479
 20
1214.651204
 11
1077.282608
 21
1213.514264
  0
LINE
  8
CSLAYER1
  6
CONTINUOUS
 62
     4
 10
1077.282608
 20
1213.514264
 11
1077.842687
 21
1212.403618
  0
LINE
  8
CSLAYER1
  6
CONTINUOUS
 62
     4
 10
1077.842687
 20
1212.403618
 11
1078.555453
 21
1211.327719
  0
LINE
  8
CSLAYER1
  6
CONTINUOUS
 62
     4
 10
1078.555453
 20
1211.327719
 11
1079.415482
 21
1210.294756
  0
LINE
  8
CSLAYER1
  6
CONTINUOUS
 62
     4
 10
1079.415482
 20
1210.294756
 11
1080.416228
 21
1209.312589
  0
LINE
  8
CSLAYER1
  6
CONTINUOUS
 62
     4
 10
1080.416228
 20
1209.312589
 11
1081.550076
 21
1208.388694
  0
LINE
  8
CSLAYER1
  6
CONTINUOUS
 62
     4
 10
1081.550076
 20
1208.388694
 11
1082.808395
 21
1207.530102
  0
LINE
  8
CSLAYER1
  6
CONTINUOUS
 62
     4
 10
1082.808395
 20
1207.530102
 11
1084.181609
 21
1206.743347
  0
LINE
  8
CSLAYER1
  6
CONTINUOUS
 62
     4
 10
1084.181609
 20
1206.743347
 11
1085.659268
 21
1206.034417
  0
LINE
  8
CSLAYER1
  6
CONTINUOUS
 62
     4
 10
1085.659268
 20
1206.034417
 11
1087.230125
 21
1205.408708
  0
LINE
  8
CSLAYER1
  6
CONTINUOUS
 62
     4
 10
1087.230125
 20
1205.408708
 11
1088.882225
 21
1204.870981
  0
LINE
  8
CSLAYER1
  6
CONTINUOUS
 62
     4
 10
1088.882225
 20
1204.870981
 11
1090.602995
 21
1204.425330
  0
LINE
  8
CSLAYER1
  6
CONTINUOUS
 62
     4
 10
1090.602995
 20
1204.425330
 11
1092.379338
 21
1204.075144
  0
LINE
  8
CSLAYER1
  6
CONTINUOUS
 62
     4
 10
1092.379338
 20
1204.075144
 11
1094.197736
 21
1203.823091
  0
LINE
  8
CSLAYER1
  6
CONTINUOUS
 62
     4
 10
1094.197736
 20
1203.823091
 11
1096.044349
 21
1203.671087
  0
LINE
  8
CSLAYER1
  6
CONTINUOUS
 62
     4
 10
1096.044349
 20
1203.671087
 11
1097.905125
 21
1203.620291
  0
LINE
  8
CSLAYER1
  6
CONTINUOUS
 62
     4
 10
1097.905125
 20
1203.620291
 11
1099.765900
 21
1203.671087
  0
LINE
  8
CSLAYER1
  6
CONTINUOUS
 62
     4
 10
1099.765900
 20
1203.671087
 11
1101.612513
 21
1203.823091
  0
LINE
  8
CSLAYER1
  6
CONTINUOUS
 62
     4
 10
1101.612513
 20
1203.823091
 11
1103.430911
 21
1204.075144
  0
LINE
  8
CSLAYER1
  6
CONTINUOUS
 62
     4
 10
1103.430911
 20
1204.075144
 11
1105.207255
 21
1204.425330
  0
LINE
  8
CSLAYER1
  6
CONTINUOUS
 62
     4
 10
1105.207255
 20
1204.425330
 11
1106.928024
 21
1204.870981
  0
LINE
  8
CSLAYER1
  6
CONTINUOUS
 62
     4
 10
1106.928024
 20
1204.870981
 11
1108.580125
 21
1205.408708
  0
LINE
  8
CSLAYER1
  6
CONTINUOUS
 62
     4
 10
1108.580125
 20
1205.408708
 11
1110.150981
 21
1206.034417
  0
LINE
  8
CSLAYER1
  6
CONTINUOUS
 62
     4
 10
1110.150981
 20
1206.034417
 11
1111.628640
 21
1206.743347
  0
LINE
  8
CSLAYER1
  6
CONTINUOUS
 62
     4
 10
1111.628640
 20
1206.743347
 11
1113.001854
 21
1207.530102
  0
LINE
  8
CSLAYER1
  6
CONTINUOUS
 62
     4
 10
1113.001854
 20
1207.530102
 11
1114.260173
 21
1208.388694
  0
LINE
  8
CSLAYER1
  6
CONTINUOUS
 62
     4
 10
1114.260173
 20
1208.388694
 11
1115.394021
 21
1209.312589
  0
LINE
  8
CSLAYER1
  6
CONTINUOUS
 62
     4
 10
1115.394021
 20
1209.312589
 11
1116.394767
 21
1210.294756
  0
LINE
  8
CSLAYER1
  6
CONTINUOUS
 62
     4
 10
1116.394767
 20
1210.294756
 11
1117.254796
 21
1211.327719
  0
LINE
  8
CSLAYER1
  6
CONTINUOUS
 62
     4
 10
1117.254796
 20
1211.327719
 11
1117.967562
 21
1212.403618
  0
LINE
  8
CSLAYER1
  6
CONTINUOUS
 62
     4
 10
1117.967562
 20
1212.403618
 11
1118.527641
 21
1213.514264
  0
LINE
  8
CSLAYER1
  6
CONTINUOUS
 62
     4
 10
1118.527641
 20
1213.514264
 11
1118.930770
 21
1214.651204
  0
LINE
  8
CSLAYER1
  6
CONTINUOUS
 62
     4
 10
1118.930770
 20
1214.651204
 11
1119.173881
 21
1215.805785
  0
LINE
  8
CSLAYER1
  6
CONTINUOUS
 62
     4
 10
1119.173881
 20
1215.805785
 11
1119.255125
 21
1216.969221
  0
LINE
  8
CSLAYER1
  6
CONTINUOUS
 62
     4
 10
1136.055125
 20
1216.969221
 11
1135.909952
 21
1219.048148
  0
LINE
  8
CSLAYER1
  6
CONTINUOUS
 62
     4
 10
1135.909952
 20
1219.048148
 11
1135.475540
 21
1221.111253
  0
LINE
  8
CSLAYER1
  6
CONTINUOUS
 62
     4
 10
1135.475540
 20
1221.111253
 11
1134.755195
 21
1223.142834
  0
LINE
  8
CSLAYER1
  6
CONTINUOUS
 62
     4
 10
1134.755195
 20
1223.142834
 11
1133.754398
 21
1225.127430
  0
LINE
  8
CSLAYER1
  6
CONTINUOUS
 62
     4
 10
1133.754398
 20
1225.127430
 11
1132.480767
 21
1227.049938
  0
LINE
  8
CSLAYER1
  6
CONTINUOUS
 62
     4
 10
1132.480767
 20
1227.049938
 11
1130.943994
 21
1228.895725
  0
LINE
  8
CSLAYER1
  6
CONTINUOUS
 62
     4
 10
1130.943994
 20
1228.895725
 11
1129.155775
 21
1230.650744
  0
LINE
  8
CSLAYER1
  6
CONTINUOUS
 62
     4
 10
1066.654474
 20
1230.650744
 11
1064.866255
 21
1228.895725
  0
LINE
  8
CSLAYER1
  6
CONTINUOUS
 62
     4
 10
1064.866255
 20
1228.895725
 11
1063.329482
 21
1227.049938
  0
LINE
  8
CSLAYER1
  6
CONTINUOUS
 62
     4
 10
1063.329482
 20
1227.049938
 11
1062.055851
 21
1225.127430
  0
LINE
  8
CSLAYER1
  6
CONTINUOUS
 62
     4
 10
1062.055851
 20
1225.127430
 11
1061.055054
 21
1223.142834
  0
LINE
  8
CSLAYER1
  6
CONTINUOUS
 62
     4
 10
1061.055054
 20
1223.142834
 11
1060.334709
 21
1221.111253
  0
LINE
  8
CSLAYER1
  6
CONTINUOUS
 62
     4
 10
1060.334709
 20
1221.111253
 11
1059.900297
 21
1219.048148
  0
LINE
  8
CSLAYER1
  6
CONTINUOUS
 62
     4
 10
1059.900297
 20
1219.048148
 11
1059.755125
 21
1216.969221
  0
LINE
  8
CSLAYER1
  6
CONTINUOUS
 62
     4
 10
1059.755125
 20
1216.969221
 11
1059.900297
 21
1214.890295
  0
LINE
  8
CSLAYER1
  6
CONTINUOUS
 62
     4
 10
1059.900297
 20
1214.890295
 11
1060.334709
 21
1212.827190
  0
LINE
  8
CSLAYER1
  6
CONTINUOUS
 62
     4
 10
1060.334709
 20
1212.827190
 11
1061.055054
 21
1210.795609
  0
LINE
  8
CSLAYER1
  6
CONTINUOUS
 62
     4
 10
1061.055054
 20
1210.795609
 11
1062.055851
 21
1208.811012
  0
LINE
  8
CSLAYER1
  6
CONTINUOUS
 62
     4
 10
1062.055851
 20
1208.811012
 11
1063.329482
 21
1206.888505
  0
LINE
  8
CSLAYER1
  6
CONTINUOUS
 62
     4
 10
1063.329482
 20
1206.888505
 11
1064.866255
 21
1205.042718
  0
LINE
  8
CSLAYER1
  6
CONTINUOUS
 62
     4
 10
1064.866255
 20
1205.042718
 11
1066.654474
 21
1203.287698
  0
LINE
  8
CSLAYER1
  6
CONTINUOUS
 62
     4
 10
1066.654474
 20
1203.287698
 11
1068.680529
 21
1201.636804
  0
LINE
  8
CSLAYER1
  6
CONTINUOUS
 62
     4
 10
1068.680529
 20
1201.636804
 11
1070.929001
 21
1200.102598
  0
LINE
  8
CSLAYER1
  6
CONTINUOUS
 62
     4
 10
1070.929001
 20
1200.102598
 11
1073.382777
 21
1198.696758
  0
LINE
  8
CSLAYER1
  6
CONTINUOUS
 62
     4
 10
1073.382777
 20
1198.696758
 11
1076.023184
 21
1197.429982
  0
LINE
  8
CSLAYER1
  6
CONTINUOUS
 62
     4
 10
1076.023184
 20
1197.429982
 11
1078.830125
 21
1196.311911
  0
LINE
  8
CSLAYER1
  6
CONTINUOUS
 62
     4
 10
1078.830125
 20
1196.311911
 11
1081.782238
 21
1195.351055
  0
LINE
  8
CSLAYER1
  6
CONTINUOUS
 62
     4
 10
1081.782238
 20
1195.351055
 11
1084.857056
 21
1194.554726
  0
LINE
  8
CSLAYER1
  6
CONTINUOUS
 62
     4
 10
1084.857056
 20
1194.554726
 11
1088.031178
 21
1193.928985
  0
LINE
  8
CSLAYER1
  6
CONTINUOUS
 62
     4
 10
1088.031178
 20
1193.928985
 11
1091.280447
 21
1193.478595
  0
LINE
  8
CSLAYER1
  6
CONTINUOUS
 62
     4
 10
1091.280447
 20
1193.478595
 11
1094.580133
 21
1193.206982
  0
LINE
  8
CSLAYER1
  6
CONTINUOUS
 62
     4
 10
1094.580133
 20
1193.206982
 11
1097.905125
 21
1193.116214
  0
LINE
  8
CSLAYER1
  6
CONTINUOUS
 62
     4
 10
1097.905125
 20
1193.116214
 11
1101.230116
 21
1193.206982
  0
LINE
  8
CSLAYER1
  6
CONTINUOUS
 62
     4
 10
1101.230116
 20
1193.206982
 11
1104.529803
 21
1193.478595
  0
LINE
  8
CSLAYER1
  6
CONTINUOUS
 62
     4
 10
1104.529803
 20
1193.478595
 11
1107.779071
 21
1193.928985
  0
LINE
  8
CSLAYER1
  6
CONTINUOUS
 62
     4
 10
1107.779071
 20
1193.928985
 11
1110.953193
 21
1194.554726
  0
LINE
  8
CSLAYER1
  6
CONTINUOUS
 62
     4
 10
1110.953193
 20
1194.554726
 11
1114.028011
 21
1195.351055
  0
LINE
  8
CSLAYER1
  6
CONTINUOUS
 62
     4
 10
1114.028011
 20
1195.351055
 11
1116.980125
 21
1196.311911
  0
LINE
  8
CSLAYER1
  6
CONTINUOUS
 62
     4
 10
1116.980125
 20
1196.311911
 11
1119.787066
 21
1197.429982
  0
LINE
  8
CSLAYER1
  6
CONTINUOUS
 62
     4
 10
1119.787066
 20
1197.429982
 11
1122.427472
 21
1198.696758
  0
LINE
  8
CSLAYER1
  6
CONTINUOUS
 62
     4
 10
1122.427472
 20
1198.696758
 11
1124.881248
 21
1200.102598
  0
LINE
  8
CSLAYER1
  6
CONTINUOUS
 62
     4
 10
1124.881248
 20
1200.102598
 11
1127.129720
 21
1201.636804
  0
LINE
  8
CSLAYER1
  6
CONTINUOUS
 62
     4
 10
1127.129720
 20
1201.636804
 11
1129.155775
 21
1203.287698
  0
LINE
  8
CSLAYER1
  6
CONTINUOUS
 62
     4
 10
1129.155775
 20
1203.287698
 11
1130.943994
 21
1205.042718
  0
LINE
  8
CSLAYER1
  6
CONTINUOUS
 62
     4
 10
1130.943994
 20
1205.042718
 11
1132.480767
 21
1206.888505
  0
LINE
  8
CSLAYER1
  6
CONTINUOUS
 62
     4
 10
1132.480767
 20
1206.888505
 11
1133.754398
 21
1208.811012
  0
LINE
  8
CSLAYER1
  6
CONTINUOUS
 62
     4
 10
1133.754398
 20
1208.811012
 11
1134.755195
 21
1210.795609
  0
LINE
  8
CSLAYER1
  6
CONTINUOUS
 62
     4
 10
1134.755195
 20
1210.795609
 11
1135.475540
 21
1212.827190
  0
LINE
  8
CSLAYER1
  6
CONTINUOUS
 62
     4
 10
1135.475540
 20
1212.827190
 11
1135.909952
 21
1214.890295
  0
LINE
  8
CSLAYER1
  6
CONTINUOUS
 62
     4
 10
1135.909952
 20
1214.890295
 11
1136.055125
 21
1216.969221
  0
LINE
  8
CSLAYER1
  6
CONTINUOUS
 62
     4
 10
1119.255125
 20
1291.203134
 11
1119.255125
 21
1330.205953
  0
LINE
  8
CSLAYER1
  6
CONTINUOUS
 62
     4
 10
1076.555125
 20
1291.203134
 11
1076.555125
 21
1330.205953
  0
LINE
  8
CSLAYER1
  6
CONTINUOUS
 62
     4
 10
1215.905125
 20
737.924975
 11
1215.905125
 21
747.607035
  0
LINE
  8
CSLAYER1
  6
CONTINUOUS
 62
     4
 10
1211.505125
 20
735.084386
 11
1211.505125
 21
747.607035
  0
LINE
  8
CSLAYER1
  6
CONTINUOUS
 62
     4
 10
1206.505125
 20
765.308593
 11
1206.505125
 21
787.060065
  0
LINE
  8
CSLAYER1
  6
CONTINUOUS
 62
     4
 10
1215.905125
 20
737.924975
 11
1211.505125
 21
737.924975
  0
LINE
  8
CSLAYER1
  6
CONTINUOUS
 62
     4
 10
1196.405125
 20
737.924975
 11
1179.905125
 21
737.924975
  0
LINE
  8
CSLAYER1
  6
CONTINUOUS
 62
     4
 10
1140.405125
 20
1012.533582
 11
1140.405125
 21
962.802985
  0
LINE
  8
CSLAYER1
  6
CONTINUOUS
 62
     4
 10
1188.905125
 20
962.802985
 11
1188.905125
 21
991.504414
  0
LINE
  8
CSLAYER1
  6
CONTINUOUS
 62
     4
 10
1140.405125
 20
1010.266999
 11
1158.905125
 21
1010.266999
  0
LINE
  8
CSLAYER1
  6
CONTINUOUS
 62
     4
 10
1158.905125
 20
1010.266999
 11
1188.905125
 21
991.504414
  0
LINE
  8
CSLAYER1
  6
CENTER
 62
     5
 10
863.905125
 20
682.388157
 11
863.905125
 21
929.188157
  0
INSERT
  8
CSLAYER1
  2
BLKF0008
 10
0.0
 20
0.0
 30
0.0
  0
INSERT
  8
CSLAYER1
  2
BLKF0009
 10
0.0
 20
0.0
 30
0.0
  0
INSERT
  8
CSLAYER1
  2
BLKF0010
 10
0.0
 20
0.0
 30
0.0
  0
INSERT
  8
CSLAYER1
  2
BLKF0011
 10
0.0
 20
0.0
 30
0.0
  0
INSERT
  8
CSLAYER1
  2
BLKF0012
 10
0.0
 20
0.0
 30
0.0
  0
LINE
  8
CSLAYER1
  6
CONTINUOUS
 62
     4
 10
1059.905125
 20
1291.203134
 11
950.905125
 21
1291.203134
  0
LINE
  8
CSLAYER1
  6
CONTINUOUS
 62
     7
 10
950.905125
 20
1419.415202
 11
941.905125
 21
1419.415202
  0
LINE
  8
CSLAYER1
  6
CONTINUOUS
 62
     4
 10
1005.905125
 20
980.497037
 11
996.905125
 21
980.497037
  0
LINE
  8
CSLAYER1
  6
CONTINUOUS
 62
     4
 10
1005.905125
 20
962.802985
 11
1005.905125
 21
980.497037
  0
LINE
  8
CSLAYER1
  6
CONTINUOUS
 62
     4
 10
996.905125
 20
962.802985
 11
996.905125
 21
980.497037
  0
INSERT
  8
CSLAYER1
  2
BLKF0013
 10
0.0
 20
0.0
 30
0.0
  0
LINE
  8
CSLAYER1
  6
CONTINUOUS
 62
     4
 10
932.905125
 20
882.576338
 11
928.905125
 21
882.576338
  0
LINE
  8
CSLAYER1
  6
CONTINUOUS
 62
     4
 10
932.905125
 20
787.060065
 11
928.905125
 21
787.060065
  0
LINE
  8
CSLAYER1
  6
CONTINUOUS
 62
     7
 10
950.905125
 20
1230.703134
 11
950.905125
 21
1419.415202
  0
LINE
  8
CSLAYER1
  6
CONTINUOUS
 62
     4
 10
1055.405125
 20
1012.533582
 11
1055.405125
 21
962.802985
  0
LINE
  8
CSLAYER1
  6
CONTINUOUS
 62
     4
 10
1006.905125
 20
962.802985
 11
1006.905125
 21
991.504414
  0
LINE
  8
CSLAYER1
  6
CONTINUOUS
 62
     4
 10
1055.405125
 20
1010.266999
 11
1036.905125
 21
1010.266999
  0
LINE
  8
CSLAYER1
  6
CONTINUOUS
 62
     4
 10
1036.905125
 20
1010.266999
 11
1006.905125
 21
991.504414
  0
LINE
  8
CSLAYER1
  6
CONTINUOUS
 62
     7
 10
941.905125
 20
682.388157
 11
941.905125
 21
2428.577125
  0
LINE
  8
CSLAYER1
  6
CONTINUOUS
 62
     7
 10
932.905125
 20
682.388157
 11
932.905125
 21
2428.577125
  0
LINE
  8
CSLAYER1
  6
CONTINUOUS
 62
     7
 10
919.905125
 20
682.388157
 11
919.905125
 21
2428.577125
  0
LINE
  8
CSLAYER1
  6
CONTINUOUS
 62
     7
 10
928.905125
 20
682.388157
 11
928.905125
 21
2428.577125
  0
LINE
  8
CSLAYER1
  6
CONTINUOUS
 62
     7
 10
1154.405125
 20
731.688157
 11
971.405125
 21
731.688157
  0
LINE
  8
CSLAYER1
  6
CONTINUOUS
 62
     1
 10
1154.405125
 20
725.688157
 11
1152.905125
 21
725.688157
  0
LINE
  8
CSLAYER1
  6
CONTINUOUS
 62
     1
 10
1154.405125
 20
725.688157
 11
1154.405125
 21
731.688157
  0
LINE
  8
CSLAYER1
  6
CENTER
 62
     5
 10
1118.348287
 20
710.688157
 11
1146.741873
 21
710.688157
  0
CIRCLE
  8
CSLAYER1
  6
CONTINUOUS
 62
     4
 10
1132.905125
 20
710.688157
 40
11.500000
  0
LINE
  8
CSLAYER1
  6
CONTINUOUS
 62
     4
 10
1132.405125
 20
723.678538
 11
1121.905125
 21
717.616360
  0
LINE
  8
CSLAYER1
  6
CONTINUOUS
 62
     4
 10
1121.405125
 20
716.750335
 11
1121.405125
 21
704.625979
  0
LINE
  8
CSLAYER1
  6
CONTINUOUS
 62
     4
 10
1121.905125
 20
703.759954
 11
1132.405125
 21
697.697776
  0
ARC
  8
CSLAYER1
  6
CONTINUOUS
 62
     4
 10
1132.905125
 20
710.688157
 40
13.000000
 50
87.795772
 51
92.204228
  0
ARC
  8
CSLAYER1
  6
CONTINUOUS
 62
     4
 10
1132.905125
 20
710.688157
 40
13.000000
 50
267.795772
 51
272.204228
  0
ARC
  8
CSLAYER1
  6
CONTINUOUS
 62
     4
 10
1132.905125
 20
710.688157
 40
13.000000
 50
207.795772
 51
212.204228
  0
ARC
  8
CSLAYER1
  6
CONTINUOUS
 62
     4
 10
1132.905125
 20
710.688157
 40
13.000000
 50
147.795772
 51
152.204228
  0
CIRCLE
  8
CSLAYER1
  6
CONTINUOUS
 62
     4
 10
1132.905125
 20
710.688157
 40
4.000000
  0
CIRCLE
  8
CSLAYER1
  6
CONTINUOUS
 62
     4
 10
1132.905125
 20
710.688157
 40
10.359534
  0
CIRCLE
  8
CSLAYER1
  6
CONTINUOUS
 62
     4
 10
1132.905125
 20
710.688157
 40
4.761355
  0
LINE
  8
CSLAYER1
  6
CONTINUOUS
 62
     4
 10
1133.405125
 20
723.678538
 11
1143.905125
 21
717.616360
  0
LINE
  8
CSLAYER1
  6
CONTINUOUS
 62
     4
 10
1144.405125
 20
716.750335
 11
1144.405125
 21
704.625979
  0
LINE
  8
CSLAYER1
  6
CONTINUOUS
 62
     4
 10
1143.905125
 20
703.759954
 11
1133.405125
 21
697.697776
  0
ARC
  8
CSLAYER1
  6
CONTINUOUS
 62
     4
 10
1132.905125
 20
710.688157
 40
13.000000
 50
327.795772
 51
332.204228
  0
ARC
  8
CSLAYER1
  6
CONTINUOUS
 62
     4
 10
1132.905125
 20
710.688157
 40
13.000000
 50
27.795772
 51
32.204228
  0
LINE
  8
CSLAYER1
  6
CENTER
 62
     5
 10
1132.905125
 20
726.609023
 11
1132.905125
 21
694.390393
  0
LINE
  8
CSLAYER1
  6
CENTER
 62
     5
 10
1083.348287
 20
710.688157
 11
1111.741873
 21
710.688157
  0
CIRCLE
  8
CSLAYER1
  6
CONTINUOUS
 62
     4
 10
1097.905125
 20
710.688157
 40
11.500000
  0
LINE
  8
CSLAYER1
  6
CONTINUOUS
 62
     4
 10
1097.405125
 20
723.678538
 11
1086.905125
 21
717.616360
  0
LINE
  8
CSLAYER1
  6
CONTINUOUS
 62
     4
 10
1086.405125
 20
716.750335
 11
1086.405125
 21
704.625979
  0
LINE
  8
CSLAYER1
  6
CONTINUOUS
 62
     4
 10
1086.905125
 20
703.759954
 11
1097.405125
 21
697.697776
  0
ARC
  8
CSLAYER1
  6
CONTINUOUS
 62
     4
 10
1097.905125
 20
710.688157
 40
13.000000
 50
87.795772
 51
92.204228
  0
ARC
  8
CSLAYER1
  6
CONTINUOUS
 62
     4
 10
1097.905125
 20
710.688157
 40
13.000000
 50
267.795772
 51
272.204228
  0
ARC
  8
CSLAYER1
  6
CONTINUOUS
 62
     4
 10
1097.905125
 20
710.688157
 40
13.000000
 50
207.795772
 51
212.204228
  0
ARC
  8
CSLAYER1
  6
CONTINUOUS
 62
     4
 10
1097.905125
 20
710.688157
 40
13.000000
 50
147.795772
 51
152.204228
  0
CIRCLE
  8
CSLAYER1
  6
CONTINUOUS
 62
     4
 10
1097.905125
 20
710.688157
 40
4.000000
  0
CIRCLE
  8
CSLAYER1
  6
CONTINUOUS
 62
     4
 10
1097.905125
 20
710.688157
 40
10.359534
  0
CIRCLE
  8
CSLAYER1
  6
CONTINUOUS
 62
     4
 10
1097.905125
 20
710.688157
 40
4.761355
  0
LINE
  8
CSLAYER1
  6
CONTINUOUS
 62
     4
 10
1098.405125
 20
723.678538
 11
1108.905125
 21
717.616360
  0
LINE
  8
CSLAYER1
  6
CONTINUOUS
 62
     4
 10
1109.405125
 20
716.750335
 11
1109.405125
 21
704.625979
  0
LINE
  8
CSLAYER1
  6
CONTINUOUS
 62
     4
 10
1108.905125
 20
703.759954
 11
1098.405125
 21
697.697776
  0
ARC
  8
CSLAYER1
  6
CONTINUOUS
 62
     4
 10
1097.905125
 20
710.688157
 40
13.000000
 50
327.795772
 51
332.204228
  0
ARC
  8
CSLAYER1
  6
CONTINUOUS
 62
     4
 10
1097.905125
 20
710.688157
 40
13.000000
 50
27.795772
 51
32.204228
  0
LINE
  8
CSLAYER1
  6
CONTINUOUS
 62
     7
 10
1154.405125
 20
725.688157
 11
971.405125
 21
725.688157
  0
INSERT
  8
CSLAYER1
  2
BLKF0014
 10
0.0
 20
0.0
 30
0.0
  0
LINE
  8
CSLAYER1
  6
CONTINUOUS
 62
     5
 10
1097.905125
 20
726.609023
 11
1097.905125
 21
694.390393
  0
LINE
  8
CSLAYER1
  6
CONTINUOUS
 62
     1
 10
1154.405125
 20
731.688157
 11
971.405125
 21
731.688157
  0
LINE
  8
CSLAYER1
  6
CONTINUOUS
 62
     5
 10
1118.348287
 20
710.688157
 11
1146.741873
 21
710.688157
  0
LINE
  8
CSLAYER1
  6
CONTINUOUS
 62
     5
 10
1132.905125
 20
726.609023
 11
1132.905125
 21
694.390393
  0
LINE
  8
CSLAYER1
  6
CONTINUOUS
 62
     5
 10
1083.348287
 20
710.688157
 11
1111.741873
 21
710.688157
  0
LINE
  8
CSLAYER1
  6
CONTINUOUS
 62
     7
 10
1152.905125
 20
725.688157
 11
1152.905125
 21
682.388157
  0
LINE
  8
CSLAYER1
  6
CONTINUOUS
 62
     7
 10
1154.405125
 20
731.688157
 11
1154.405125
 21
725.688157
  0
LINE
  8
CSLAYER1
  6
CONTINUOUS
 62
     1
 10
971.405125
 20
725.688157
 11
972.905125
 21
725.688157
  0
LINE
  8
CSLAYER1
  6
CONTINUOUS
 62
     1
 10
971.405125
 20
725.688157
 11
971.405125
 21
731.688157
  0
INSERT
  8
CSLAYER1
  2
BLKF0015
 10
0.0
 20
0.0
 30
0.0
  0
LINE
  8
CSLAYER1
  6
CONTINUOUS
 62
     7
 10
971.405125
 20
731.688157
 11
971.405125
 21
725.688157
  0
LINE
  8
CSLAYER1
  6
CONTINUOUS
 62
     7
 10
972.905125
 20
725.688157
 11
972.905125
 21
682.388157
  0
LINE
  8
CSLAYER1
  6
CENTER
 62
     5
 10
941.905125
 20
1788.566985
 11
1253.905125
 21
1788.566985
  0
LINE
  8
CSLAYER1
  6
CONTINUOUS
 62
     7
 10
941.905125
 20
1818.816985
 11
1253.905125
 21
1818.816985
  0
LINE
  8
CSLAYER1
  6
CONTINUOUS
 62
     7
 10
941.905125
 20
1758.316985
 11
1253.905125
 21
1758.316985
  0
LINE
  8
CSLAYER1
  6
CONTINUOUS
 62
     7
 10
1266.905125
 20
1266.717813
 11
1275.905125
 21
1266.717813
  0
LINE
  8
CSLAYER1
  6
CONTINUOUS
 62
     7
 10
1253.905125
 20
1234.717813
 11
1262.905125
 21
1234.717813
  0
LINE
  8
CSLAYER1
  6
CONTINUOUS
 62
     7
 10
928.905125
 20
1266.717813
 11
919.905125
 21
1266.717813
  0
LINE
  8
CSLAYER1
  6
CONTINUOUS
 62
     7
 10
941.905125
 20
1234.717813
 11
932.905125
 21
1234.717813
  0
LINE
  8
CSLAYER1
  6
CENTER
 62
     5
 10
1256.836696
 20
752.607035
 11
1197.905125
 21
752.607035
  0
INSERT
  8
CSLAYER1
  2
BLKF0016
 10
0.0
 20
0.0
 30
0.0
  0
LINE
  8
CSLAYER1
  6
CENTER
 62
     5
 10
1256.836696
 20
713.893907
 11
1197.905125
 21
713.893907
  0
INSERT
  8
CSLAYER1
  2
BLKF0017
 10
0.0
 20
0.0
 30
0.0
  0
LINE
  8
CSLAYER1
  6
CONTINUOUS
 62
     3
 10
1195.905125
 20
682.388157
 11
1195.905125
 21
735.084386
  0
LINE
  8
CSLAYER1
  6
CONTINUOUS
 62
     3
 10
1192.905125
 20
682.388157
 11
1192.905125
 21
735.084386
  0
LINE
  8
CSLAYER1
  6
CONTINUOUS
 62
     3
 10
1200.405125
 20
765.308593
 11
1201.905125
 21
765.308593
  0
LINE
  8
CSLAYER1
  6
CONTINUOUS
 62
     3
 10
1211.905125
 20
698.616353
 11
1211.905125
 21
708.893907
  0
LINE
  8
CSLAYER1
  6
CONTINUOUS
 62
     1
 10
1195.905125
 20
698.616353
 11
1195.905125
 21
735.084386
  0
LINE
  8
CSLAYER1
  6
CONTINUOUS
 62
     1
 10
1211.905125
 20
698.616353
 11
1195.905125
 21
698.616353
  0
LINE
  8
CSLAYER1
  6
CONTINUOUS
 62
     3
 10
1211.905125
 20
735.084386
 11
1192.905125
 21
735.084386
  0
LINE
  8
CSLAYER1
  6
CONTINUOUS
 62
     3
 10
1212.905125
 20
701.168313
 11
1212.905125
 21
708.768313
  0
LINE
  8
CSLAYER1
  6
CONTINUOUS
 62
     3
 10
1212.905125
 20
701.168313
 11
1211.905125
 21
701.168313
  0
LINE
  8
CSLAYER1
  6
CONTINUOUS
 62
     3
 10
1212.905125
 20
708.768313
 11
1211.905125
 21
708.768313
  0
LINE
  8
CSLAYER1
  6
CONTINUOUS
 62
     3
 10
1215.505125
 20
703.468313
 11
1215.505125
 21
706.468313
  0
LINE
  8
CSLAYER1
  6
CONTINUOUS
 62
     3
 10
1213.505125
 20
701.468313
 11
1212.905125
 21
701.468313
  0
LINE
  8
CSLAYER1
  6
CONTINUOUS
 62
     3
 10
1213.505125
 20
708.468313
 11
1212.905125
 21
708.468313
  0
ARC
  8
CSLAYER1
  6
CONTINUOUS
 62
     3
 10
1213.505125
 20
703.468313
 40
2.000000
 50
270.000000
 51
360.000000
  0
ARC
  8
CSLAYER1
  6
CONTINUOUS
 62
     3
 10
1213.505125
 20
706.468313
 40
2.000000
 50
0.000000
 51
90.000000
  0
LINE
  8
CSLAYER1
  6
CONTINUOUS
 62
     3
 10
1212.905125
 20
722.756518
 11
1212.905125
 21
730.356518
  0
LINE
  8
CSLAYER1
  6
CONTINUOUS
 62
     3
 10
1212.905125
 20
722.756518
 11
1211.905125
 21
722.756518
  0
LINE
  8
CSLAYER1
  6
CONTINUOUS
 62
     3
 10
1212.905125
 20
730.356518
 11
1211.905125
 21
730.356518
  0
LINE
  8
CSLAYER1
  6
CONTINUOUS
 62
     3
 10
1215.505125
 20
725.056518
 11
1215.505125
 21
728.056518
  0
LINE
  8
CSLAYER1
  6
CONTINUOUS
 62
     3
 10
1213.505125
 20
723.056518
 11
1212.905125
 21
723.056518
  0
LINE
  8
CSLAYER1
  6
CONTINUOUS
 62
     3
 10
1213.505125
 20
730.056518
 11
1212.905125
 21
730.056518
  0
ARC
  8
CSLAYER1
  6
CONTINUOUS
 62
     3
 10
1213.505125
 20
725.056518
 40
2.000000
 50
270.000000
 51
360.000000
  0
ARC
  8
CSLAYER1
  6
CONTINUOUS
 62
     3
 10
1213.505125
 20
728.056518
 40
2.000000
 50
0.000000
 51
90.000000
  0
LINE
  8
CSLAYER1
  6
CENTER
 62
     5
 10
1185.515149
 20
693.388157
 11
1200.676826
 21
693.388157
  0
LINE
  8
CSLAYER1
  6
CONTINUOUS
 62
     3
 10
1195.905125
 20
698.616353
 11
1211.905125
 21
698.616353
  0
LINE
  8
CSLAYER1
  6
CONTINUOUS
 62
     4
 10
1215.905125
 20
757.607035
 11
1215.905125
 21
787.060065
  0
LINE
  8
CSLAYER1
  6
CONTINUOUS
 62
     4
 10
1211.505125
 20
757.607035
 11
1211.505125
 21
787.060065
  0
LINE
  8
CSLAYER1
  6
CONTINUOUS
 62
     3
 10
1207.405125
 20
760.387740
 11
1207.405125
 21
765.308593
  0
LINE
  8
CSLAYER1
  6
CONTINUOUS
 62
     3
 10
1200.405125
 20
760.387740
 11
1200.405125
 21
765.308593
  0
LINE
  8
CSLAYER1
  6
CONTINUOUS
 62
     3
 10
1198.918422
 20
760.387740
 11
1208.891827
 21
760.387740
  0
LINE
  8
CSLAYER1
  6
CONTINUOUS
 62
     3
 10
1196.405125
 20
752.241190
 11
1196.405125
 21
735.887740
  0
LINE
  8
CSLAYER1
  6
CONTINUOUS
 62
     3
 10
1211.405125
 20
752.241190
 11
1211.405125
 21
735.887740
  0
LINE
  8
CSLAYER1
  6
CONTINUOUS
 62
     3
 10
1208.891827
 20
760.387740
 11
1211.405125
 21
752.241190
  0
LINE
  8
CSLAYER1
  6
CONTINUOUS
 62
     3
 10
1198.918422
 20
760.387740
 11
1196.405125
 21
752.241190
  0
LINE
  8
CSLAYER1
  6
CONTINUOUS
 62
     3
 10
1205.905125
 20
772.150084
 11
1205.905125
 21
760.387740
  0
LINE
  8
CSLAYER1
  6
CONTINUOUS
 62
     3
 10
1201.905125
 20
772.150084
 11
1201.905125
 21
760.387740
  0
LINE
  8
CSLAYER1
  6
CONTINUOUS
 62
     3
 10
1205.905125
 20
765.308593
 11
1207.405125
 21
765.308593
  0
LINE
  8
CSLAYER1
  6
CONTINUOUS
 62
     3
 10
1211.905125
 20
718.893907
 11
1211.905125
 21
735.084386
  0
LINE
  8
CSLAYER1
  6
CONTINUOUS
 62
     3
 10
1157.905125
 20
700.188157
 11
1157.905125
 21
703.388157
  0
LINE
  8
CSLAYER1
  6
CONTINUOUS
 62
     3
 10
1189.705125
 20
682.388157
 11
1189.705125
 21
700.188157
  0
LINE
  8
CSLAYER1
  6
CENTER
 62
     5
 10
1172.905125
 20
682.388157
 11
1172.905125
 21
779.479544
  0
LINE
  8
CSLAYER1
  6
CONTINUOUS
 62
     3
 10
1157.905125
 20
703.388157
 11
1192.905125
 21
703.388157
  0
LINE
  8
CSLAYER1
  6
CONTINUOUS
 62
     3
 10
1157.905125
 20
700.188157
 11
1189.705125
 21
700.188157
  0
LINE
  8
CSLAYER1
  6
CONTINUOUS
 62
     4
 10
1165.905125
 20
737.924975
 11
1159.745363
 21
737.924975
  0
LINE
  8
CSLAYER1
  6
CONTINUOUS
 62
     7
 10
1181.405125
 20
731.388157
 11
1164.405125
 21
731.388157
  0
LINE
  8
CSLAYER1
  6
CONTINUOUS
 62
     7
 10
1182.355125
 20
693.388157
 11
1163.455125
 21
693.388157
  0
LINE
  8
CSLAYER1
  6
CONTINUOUS
 62
     7
 10
1183.355125
 20
694.388157
 11
1182.355125
 21
693.388157
  0
LINE
  8
CSLAYER1
  6
CONTINUOUS
 62
     7
 10
1187.242219
 20
700.188157
 11
1187.242219
 21
695.774892
  0
LINE
  8
CSLAYER1
  6
CONTINUOUS
 62
     7
 10
1187.242219
 20
695.774892
 11
1158.568030
 21
695.774892
  0
LINE
  8
CSLAYER1
  6
CONTINUOUS
 62
     7
 10
1183.355125
 20
695.774892
 11
1183.355125
 21
694.388157
  0
LINE
  8
CSLAYER1
  6
CONTINUOUS
 62
     7
 10
1182.355125
 20
695.774892
 11
1182.355125
 21
693.388157
  0
LINE
  8
CSLAYER1
  6
CONTINUOUS
 62
     7
 10
1181.950716
 20
700.188157
 11
1181.950716
 21
695.774892
  0
LINE
  8
CSLAYER1
  6
CONTINUOUS
 62
     7
 10
1178.196627
 20
700.188157
 11
1178.196627
 21
695.774892
  0
LINE
  8
CSLAYER1
  6
CONTINUOUS
 62
     7
 10
1184.405125
 20
708.388157
 11
1161.405125
 21
708.388157
  0
LINE
  8
CSLAYER1
  6
CONTINUOUS
 62
     7
 10
1185.905125
 20
728.279063
 11
1159.905125
 21
728.279063
  0
LINE
  8
CSLAYER1
  6
CONTINUOUS
 62
     7
 10
1185.905125
 20
711.930248
 11
1159.905125
 21
711.930248
  0
ARC
  8
CSLAYER1
  6
CONTINUOUS
 62
     7
 10
1181.405125
 20
728.388157
 40
3.000000
 50
0.000000
 51
90.000000
  0
LINE
  8
CSLAYER1
  6
CONTINUOUS
 62
     7
 10
1184.405125
 20
708.388157
 11
1185.895506
 21
707.527685
  0
ARC
  8
CSLAYER1
  6
CONTINUOUS
 62
     7
 10
1172.905125
 20
682.342132
 40
26.046025
 50
75.231439
 51
104.768561
  0
ARC
  8
CSLAYER1
  6
CONTINUOUS
 62
     7
 10
1182.720079
 20
702.256564
 40
6.153702
 50
66.825356
 51
121.065581
  0
LINE
  8
CSLAYER1
  6
CONTINUOUS
 62
     7
 10
1179.544653
 20
707.527685
 11
1179.544653
 21
703.388157
  0
LINE
  8
CSLAYER1
  6
CONTINUOUS
 62
     7
 10
1185.895506
 20
707.527685
 11
1185.895506
 21
703.388157
  0
LINE
  8
CSLAYER1
  6
CONTINUOUS
 62
     7
 10
1183.241249
 20
711.930248
 11
1183.241249
 21
708.388157
  0
LINE
  8
CSLAYER1
  6
CONTINUOUS
 62
     7
 10
1182.594871
 20
711.930248
 11
1182.594871
 21
710.323887
  0
LINE
  8
CSLAYER1
  6
CONTINUOUS
 62
     7
 10
1183.241249
 20
710.323887
 11
1162.569000
 21
710.323887
  0
LINE
  8
CSLAYER1
  6
CONTINUOUS
 62
     7
 10
1182.594871
 20
710.323887
 11
1183.241249
 21
709.189035
  0
LINE
  8
CSLAYER1
  6
CONTINUOUS
 62
     7
 10
1183.355125
 20
694.435959
 11
1162.455125
 21
694.435959
  0
LINE
  8
CSLAYER1
  6
CONTINUOUS
 62
     7
 10
1162.455125
 20
694.388157
 11
1163.455125
 21
693.388157
  0
LINE
  8
CSLAYER1
  6
CONTINUOUS
 62
     7
 10
1158.568030
 20
700.188157
 11
1158.568030
 21
695.774892
  0
LINE
  8
CSLAYER1
  6
CONTINUOUS
 62
     7
 10
1162.455125
 20
695.774892
 11
1162.455125
 21
694.388157
  0
LINE
  8
CSLAYER1
  6
CONTINUOUS
 62
     7
 10
1163.455125
 20
695.774892
 11
1163.455125
 21
693.388157
  0
LINE
  8
CSLAYER1
  6
CONTINUOUS
 62
     7
 10
1163.859533
 20
700.188157
 11
1163.859533
 21
695.774892
  0
LINE
  8
CSLAYER1
  6
CONTINUOUS
 62
     7
 10
1167.613622
 20
700.188157
 11
1167.613622
 21
695.774892
  0
LINE
  8
CSLAYER1
  6
CONTINUOUS
 62
     7
 10
1161.405125
 20
708.388157
 11
1159.914744
 21
707.527685
  0
ARC
  8
CSLAYER1
  6
CONTINUOUS
 62
     7
 10
1163.090170
 20
702.256564
 40
6.153702
 50
58.934419
 51
113.174644
  0
LINE
  8
CSLAYER1
  6
CONTINUOUS
 62
     7
 10
1166.265596
 20
707.527685
 11
1166.265596
 21
703.388157
  0
LINE
  8
CSLAYER1
  6
CONTINUOUS
 62
     7
 10
1159.914744
 20
707.527685
 11
1159.914744
 21
703.388157
  0
LINE
  8
CSLAYER1
  6
CONTINUOUS
 62
     7
 10
1162.569000
 20
711.930248
 11
1162.569000
 21
708.388157
  0
LINE
  8
CSLAYER1
  6
CONTINUOUS
 62
     7
 10
1163.215378
 20
711.930248
 11
1163.215378
 21
710.323887
  0
LINE
  8
CSLAYER1
  6
CONTINUOUS
 62
     7
 10
1163.215378
 20
710.323887
 11
1162.569000
 21
709.189035
  0
LINE
  8
CSLAYER1
  6
CONTINUOUS
 62
     7
 10
1187.743150
 20
727.217878
 11
1187.743150
 21
712.991433
  0
LINE
  8
CSLAYER1
  6
CONTINUOUS
 62
     7
 10
1180.410678
 20
727.217878
 11
1180.410678
 21
712.991433
  0
LINE
  8
CSLAYER1
  6
CONTINUOUS
 62
     7
 10
1185.905125
 20
728.279063
 11
1187.743150
 21
727.217878
  0
ARC
  8
CSLAYER1
  6
CONTINUOUS
 62
     7
 10
1184.076914
 20
721.417471
 40
6.861924
 50
62.295563
 51
121.731450
  0
ARC
  8
CSLAYER1
  6
CONTINUOUS
 62
     7
 10
1172.905125
 20
701.205808
 40
27.073254
 50
73.904971
 51
106.095029
  0
LINE
  8
CSLAYER1
  6
CONTINUOUS
 62
     7
 10
1185.905125
 20
711.930248
 11
1187.743150
 21
712.991433
  0
ARC
  8
CSLAYER1
  6
CONTINUOUS
 62
     7
 10
1184.076914
 20
718.791840
 40
6.861924
 50
238.268550
 51
297.704437
  0
ARC
  8
CSLAYER1
  6
CONTINUOUS
 62
     7
 10
1172.905125
 20
739.003503
 40
27.073254
 50
253.904971
 51
286.095029
  0
LINE
  8
CSLAYER1
  6
CONTINUOUS
 62
     7
 10
1158.067099
 20
727.217878
 11
1158.067099
 21
712.991433
  0
LINE
  8
CSLAYER1
  6
CONTINUOUS
 62
     7
 10
1165.399571
 20
727.217878
 11
1165.399571
 21
712.991433
  0
LINE
  8
CSLAYER1
  6
CONTINUOUS
 62
     7
 10
1159.905125
 20
728.279063
 11
1158.067099
 21
727.217878
  0
ARC
  8
CSLAYER1
  6
CONTINUOUS
 62
     7
 10
1161.733335
 20
721.417471
 40
6.861924
 50
58.268550
 51
117.704437
  0
LINE
  8
CSLAYER1
  6
CONTINUOUS
 62
     7
 10
1159.905125
 20
711.930248
 11
1158.067099
 21
712.991433
  0
ARC
  8
CSLAYER1
  6
CONTINUOUS
 62
     7
 10
1161.733335
 20
718.791840
 40
6.861924
 50
242.295563
 51
301.731450
  0
ARC
  8
CSLAYER1
  6
CONTINUOUS
 62
     7
 10
1164.405125
 20
728.388157
 40
3.000000
 50
90.000000
 51
180.000000
  0
LINE
  8
CSLAYER1
  6
CONTINUOUS
 62
     7
 10
1179.905125
 20
781.837293
 11
1179.905125
 21
731.388157
  0
LINE
  8
CSLAYER1
  6
CONTINUOUS
 62
     7
 10
1165.905125
 20
780.068981
 11
1165.905125
 21
731.388157
  0
LINE
  8
CSLAYER1
  6
CONTINUOUS
 62
     7
 10
1179.905125
 20
693.388157
 11
1179.905125
 21
682.388157
  0
LINE
  8
CSLAYER1
  6
CONTINUOUS
 62
     7
 10
1165.905125
 20
693.388157
 11
1165.905125
 21
682.388157
  0
POINT
  8
CSLAYER1
 62
     3
 10
2143.466768
 20
947.188157
  0
LINE
  8
CSLAYER1
  6
PHANTOM
 62
     5
 10
2119.466768
 20
937.388157
 11
2119.466768
 21
930.188157
  0
LINE
  8
CSLAYER1
  6
PHANTOM
 62
     5
 10
2144.466768
 20
935.188157
 11
2157.466768
 21
935.188157
  0
LINE
  8
CSLAYER1
  6
PHANTOM
 62
     5
 10
2157.466768
 20
937.388157
 11
2157.466768
 21
935.188157
  0
LINE
  8
CSLAYER1
  6
PHANTOM
 62
     5
 10
2120.466768
 20
929.188157
 11
2143.466768
 21
929.188157
  0
LINE
  8
CSLAYER1
  6
PHANTOM
 62
     5
 10
2119.466768
 20
930.188157
 11
2144.466768
 21
930.188157
  0
LINE
  8
CSLAYER1
  6
PHANTOM
 62
     5
 10
2144.466768
 20
937.388157
 11
2144.466768
 21
930.188157
  0
LINE
  8
CSLAYER1
  6
PHANTOM
 62
     5
 10
2120.466768
 20
929.188157
 11
2119.466768
 21
930.188157
  0
LINE
  8
CSLAYER1
  6
PHANTOM
 62
     5
 10
2143.466768
 20
929.188157
 11
2144.466768
 21
930.188157
  0
POINT
  8
CSLAYER1
 62
     7
 10
2143.466768
 20
847.188157
  0
LINE
  8
CSLAYER1
  6
CENTER
 62
     5
 10
2122.405875
 20
947.188157
 11
2164.396183
 21
947.188157
  0
LINE
  8
CSLAYER1
  6
CENTER
 62
     5
 10
2143.466768
 20
968.490874
 11
2143.466768
 21
925.686800
  0
LINE
  8
CSLAYER1
  6
PHANTOM
 62
     5
 10
2116.266768
 20
982.388157
 11
2916.266768
 21
982.388157
  0
LINE
  8
CSLAYER1
  6
PHANTOM
 62
     5
 10
2116.266768
 20
937.388157
 11
2916.266768
 21
937.388157
  0
LINE
  8
CSLAYER1
  6
PHANTOM
 62
     5
 10
2916.266768
 20
982.388157
 11
2916.266768
 21
937.388157
  0
LINE
  8
CSLAYER1
  6
PHANTOM
 62
     5
 10
2116.266768
 20
982.388157
 11
2116.266768
 21
937.388157
  0
LINE
  8
CSLAYER1
  6
CONTINUOUS
 62
     5
 10
1741.410339
 20
2703.383897
 11
1492.964142
 21
2829.255110
  0
LINE
  8
CSLAYER1
  6
CONTINUOUS
 62
     5
 10
1741.410339
 20
2703.383897
 11
1697.372309
 21
2712.638729
  0
LINE
  8
CSLAYER1
  6
CONTINUOUS
 62
     5
 10
1741.410339
 20
2703.383897
 11
1707.899702
 21
2733.417832
  0
INSERT
  8
CSLAYER1
  2
BLKF0018
 10
0.0
 20
0.0
 30
0.0
  0
INSERT
  8
CSLAYER1
  2
BLKF0019
 10
0.0
 20
0.0
 30
0.0
  0
INSERT
  8
CSLAYER1
  2
BLKF0020
 10
0.0
 20
0.0
 30
0.0
  0
INSERT
  8
CSLAYER1
  2
BLKF0021
 10
0.0
 20
0.0
 30
0.0
  0
INSERT
  8
CSLAYER1
  2
BLKF0022
 10
0.0
 20
0.0
 30
0.0
  0
INSERT
  8
CSLAYER1
  2
BLKF0023
 10
0.0
 20
0.0
 30
0.0
  0
LINE
  8
CSLAYER1
  6
CENTER
 62
     5
 10
2143.466768
 20
656.888157
 11
2887.406601
 21
752.038157
  0
LINE
  8
CSLAYER1
  6
CENTER
 62
     5
 10
2887.406601
 20
656.888157
 11
2143.466768
 21
752.038157
  0
LINE
  8
CSLAYER1
  6
CENTER
 62
     5
 10
2143.466768
 20
947.188157
 11
2887.406601
 21
852.038157
  0
LINE
  8
CSLAYER1
  6
CONTINUOUS
 62
     3
 10
1747.858366
 20
2699.490007
 11
1743.626314
 21
2705.065825
  0
LINE
  8
CSLAYER1
  6
CONTINUOUS
 62
     3
 10
1744.771740
 20
2703.556701
 11
1707.160985
 21
2698.855357
  0
LINE
  8
CSLAYER1
  6
CONTINUOUS
 62
     4
 10
2118.542302
 20
1297.154373
 11
2116.136049
 21
1263.084279
  0
LINE
  8
CSLAYER1
  6
CONTINUOUS
 62
     4
 10
2140.129137
 20
1322.725791
 11
2118.542302
 21
1297.154373
  0
LINE
  8
CSLAYER1
  6
CONTINUOUS
 62
     7
 10
919.905125
 20
1772.539491
 11
928.905125
 21
1772.539491
  0
LINE
  8
CSLAYER1
  6
CONTINUOUS
 62
     7
 10
941.905125
 20
1297.154373
 11
950.905125
 21
1297.154373
  0
LINE
  8
CSLAYER1
  6
CONTINUOUS
 62
     7
 10
932.905125
 20
1322.725791
 11
941.905125
 21
1322.725791
  0
LINE
  8
CSLAYER1
  6
CONTINUOUS
 62
     7
 10
919.905125
 20
1178.709835
 11
928.905125
 21
1178.709835
  0
LINE
  8
CSLAYER1
  6
CONTINUOUS
 62
     7
 10
932.905125
 20
728.896135
 11
941.905125
 21
728.896135
  0
LINE
  8
CSLAYER1
  6
CONTINUOUS
 62
     7
 10
1253.905125
 20
728.896135
 11
1262.905125
 21
728.896135
  0
LINE
  8
CSLAYER1
  6
CONTINUOUS
 62
     7
 10
1266.905125
 20
1178.709835
 11
1275.905125
 21
1178.709835
  0
LINE
  8
CSLAYER1
  6
CONTINUOUS
 62
     7
 10
1253.905125
 20
1322.725791
 11
1262.905125
 21
1322.725791
  0
LINE
  8
CSLAYER1
  6
CONTINUOUS
 62
     7
 10
1244.905125
 20
1297.154373
 11
1253.905125
 21
1297.154373
  0
LINE
  8
CSLAYER1
  6
CONTINUOUS
 62
     7
 10
1266.905125
 20
1772.539491
 11
1275.905125
 21
1772.539491
  0
INSERT
  8
CSLAYER1
  2
EASYDRAWDIM0000
 10
0.0
 20
0.0
 30
0.0
  0
INSERT
  8
CSLAYER1
  2
EASYDRAWDIM0001
 10
0.0
 20
0.0
 30
0.0
  0
INSERT
  8
CSLAYER1
  2
EASYDRAWDIM0002
 10
0.0
 20
0.0
 30
0.0
  0
DIMENSION
  8
CSLAYER1
 62
     3
  2
*D0000
 10
3056.956526
 20
3294.967181
 11
3041.956543
 21
3044.967041
 13
2916.266768
 23
2794.967181
 14
2916.266768
 24
3294.967181
 50
90.000000
 70
1
  0
DIMENSION
  8
CSLAYER1
 62
     3
  2
*D0001
 10
2916.266768
 20
2657.747158
 11
2516.266846
 21
2672.747314
 13
2116.266768
 23
2794.967181
 14
2916.266768
 24
2794.967181
 52
270.000000
 70
1
  0
LINE
  8
CSLAYER1
  6
CONTINUOUS
 62
     3
 10
1745.699644
 20
2702.334170
 11
1712.908946
 21
2686.005741
  0
LINE
  8
CSLAYER1
  6
CONTINUOUS
 62
     3
 10
1746.598805
 20
2701.149505
 11
1719.449250
 21
2676.395499
  0
LINE
  8
CSLAYER1
  6
CONTINUOUS
 62
     3
 10
1747.250824
 20
2700.290456
 11
1730.394248
 21
2668.520439
  0
LINE
  8
CSLAYER1
  6
DASHED
 62
     3
 10
853.232434
 20
637.888157
 11
1343.224735
 21
637.888157
  0
LINE
  8
CSLAYER1
  6
CONTINUOUS
 62
     5
 10
877.905125
 20
649.555528
 11
877.905125
 21
471.060360
  0
LINE
  8
CSLAYER1
  6
CONTINUOUS
 62
     5
 10
1317.905125
 20
649.555528
 11
1317.905125
 21
471.060360
  0
DIMENSION
  8
CSLAYER1
 62
     3
  2
*D0002
 10
877.905125
 20
486.060360
 11
1098.192993
 21
497.103180
 13
1317.905125
 23
486.060360
 14
877.905125
 24
486.060360
 52
0.000000
 70
1
  0
DIMENSION
  8
CSLAYER1
 62
     3
  2
*D0003
 10
1347.905125
 20
339.290484
 11
1094.588989
 21
345.730133
 13
847.905125
 23
632.388157
 14
1347.905125
 24
632.388157
 52
270.000000
 70
1
  0
LINE
  8
CSLAYER1
  6
CONTINUOUS
 62
     5
 10
2165.466768
 20
649.555528
 11
2165.466768
 21
471.060360
  0
LINE
  8
CSLAYER1
  6
CONTINUOUS
 62
     5
 10
2565.466768
 20
649.555528
 11
2565.466768
 21
471.060360
  0
DIMENSION
  8
CSLAYER1
 62
     3
  2
*D0004
 10
2165.466768
 20
486.060360
 11
2173.287109
 21
404.972809
 13
2115.466768
 23
662.830235
 14
2165.466768
 24
662.830235
 52
270.000000
 70
1
  0
DIMENSION
  8
CSLAYER1
 62
     3
  2
*D0005
 10
2165.466768
 20
486.060360
 11
2360.899414
 21
497.062164
 13
2565.466768
 23
486.060360
 14
2165.466768
 24
486.060360
 52
0.000000
 70
1
  0
DIMENSION
  8
CSLAYER1
 62
     3
  2
*D0006
 10
2914.466768
 20
339.290484
 11
2514.966797
 21
354.290680
 13
2115.466768
 23
632.388157
 14
2914.466768
 24
632.388157
 52
270.000000
 70
1
  0
TEXT
  8
CSLAYER1
 62
     5
 10
2264.828078
 20
438.039356
 40
38.994835
 41
1.022858
  1
取付穴ピッチ
 50
0.000000
 51
0.000000
  7
EASYDRAW_FONT
 72
     5
 11
2490.849657
 21
438.039356
  0
TEXT
  8
CSLAYER1
 62
     5
 10
986.984328
 20
437.960255
 40
38.994835
 41
1.022858
  1
取付穴ピッチ
 50
0.000000
 51
0.000000
  7
EASYDRAW_FONT
 72
     5
 11
1213.005907
 21
437.960255
  0
DIMENSION
  8
CSLAYER1
 62
     3
  2
*D0007
 10
1472.342705
 20
637.888157
 11
1457.769531
 21
719.970825
 13
1347.905125
 23
632.388157
 14
1343.224735
 24
637.888157
 50
90.000000
  0
INSERT
  8
CSLAYER1
  2
EASYDRAWDIM0003
 10
0.0
 20
0.0
 30
0.0
  0
INSERT
  8
CSLAYER1
  2
EASYDRAWDIM0004
 10
0.0
 20
0.0
 30
0.0
  0
CIRCLE
  8
CSLAYER1
  6
DASHED
 62
     5
 10
2601.578477
 20
2438.377125
 40
9.000000
  0
ARC
  8
CSLAYER1
  6
DASHED
 62
     5
 10
2601.578477
 20
2438.377125
 40
18.500000
 50
-31.987196
 51
211.987196
  0
POINT
  8
CSLAYER1
 62
     3
 10
2143.466768
 20
2438.377125
  0
POINT
  8
CSLAYER1
 62
     7
 10
2601.578477
 20
1844.547469
  0
POINT
  8
CSLAYER1
 62
     3
 10
2143.466768
 20
1844.547469
  0
LINE
  8
CSLAYER1
  6
CONTINUOUS
 62
     3
 10
2119.466768
 20
2428.577125
 11
2119.466768
 21
2421.377125
  0
LINE
  8
CSLAYER1
  6
CONTINUOUS
 62
     3
 10
2144.466768
 20
2426.377125
 11
2157.466768
 21
2426.377125
  0
LINE
  8
CSLAYER1
  6
CONTINUOUS
 62
     3
 10
2157.466768
 20
2428.577125
 11
2157.466768
 21
2426.377125
  0
LINE
  8
CSLAYER1
  6
CONTINUOUS
 62
     4
 10
2120.466768
 20
2420.377125
 11
2143.466768
 21
2420.377125
  0
LINE
  8
CSLAYER1
  6
CONTINUOUS
 62
     4
 10
2119.466768
 20
2421.377125
 11
2144.466768
 21
2421.377125
  0
LINE
  8
CSLAYER1
  6
CONTINUOUS
 62
     4
 10
2144.466768
 20
2428.577125
 11
2144.466768
 21
2421.377125
  0
LINE
  8
CSLAYER1
  6
CONTINUOUS
 62
     4
 10
2120.466768
 20
2420.377125
 11
2119.466768
 21
2421.377125
  0
LINE
  8
CSLAYER1
  6
CONTINUOUS
 62
     4
 10
2143.466768
 20
2420.377125
 11
2144.466768
 21
2421.377125
  0
POINT
  8
CSLAYER1
 62
     7
 10
2143.466768
 20
1844.547469
  0
LINE
  8
CSLAYER1
  6
CONTINUOUS
 62
     3
 10
2116.266768
 20
2473.577125
 11
2916.266768
 21
2473.577125
  0
LINE
  8
CSLAYER1
  6
CONTINUOUS
 62
     3
 10
2116.266768
 20
2428.577125
 11
2916.266768
 21
2428.577125
  0
LINE
  8
CSLAYER1
  6
CONTINUOUS
 62
     3
 10
2916.266768
 20
2473.577125
 11
2916.266768
 21
2428.577125
  0
LINE
  8
CSLAYER1
  6
CONTINUOUS
 62
     3
 10
2116.266768
 20
2473.577125
 11
2116.266768
 21
2428.577125
  0
ARC
  8
CSLAYER1
  6
CONTINUOUS
 62
     3
 10
2601.578477
 20
2438.377125
 40
18.500000
 50
211.987196
 51
328.012804
  0
LINE
  8
CSLAYER1
  6
CONTINUOUS
 62
     3
 10
2372.522623
 20
2091.079548
 11
2164.405609
 21
1844.547469
  0
ARC
  8
CSLAYER1
  6
CONTINUOUS
 62
     3
 10
2143.466768
 20
1844.547469
 40
16.000000
 50
40.170329
 51
190.170329
  0
LINE
  8
CSLAYER1
  6
CONTINUOUS
 62
     3
 10
2140.129137
 20
1916.555447
 11
2329.990603
 21
2141.462297
  0
LINE
  8
CSLAYER1
  6
CONTINUOUS
 62
     3
 10
2615.687204
 20
2426.410762
 11
2604.916109
 21
2366.369147
  0
LINE
  8
CSLAYER1
  6
CONTINUOUS
 62
     3
 10
2140.129137
 20
1916.555447
 11
2127.718174
 21
1847.372669
  0
POINT
  8
CSLAYER1
 62
     3
 10
2601.578477
 20
2438.377125
  0
LINE
  8
CSLAYER1
  6
CENTER
 62
     5
 10
2143.466768
 20
1844.547469
 11
2601.578477
 21
2438.377125
  0
POINT
  8
CSLAYER1
 62
     3
 10
2372.522623
 20
2141.462297
  0
LINE
  8
CSLAYER1
  6
CONTINUOUS
 62
     3
 10
2604.916109
 20
2366.369147
 11
2415.054642
 21
2141.462297
  0
LINE
  8
CSLAYER1
  6
CONTINUOUS
 62
     3
 10
2140.129137
 20
2366.369147
 11
2589.352394
 21
1834.226476
  0
ARC
  8
CSLAYER1
  6
CONTINUOUS
 62
     3
 10
2601.578477
 20
1844.547469
 40
16.000000
 50
-140.139822
 51
10.170329
  0
LINE
  8
CSLAYER1
  6
CONTINUOUS
 62
     3
 10
2604.916109
 20
1916.555447
 11
2172.678556
 21
2428.577125
  0
LINE
  8
CSLAYER1
  6
CONTINUOUS
 62
     3
 10
2130.440439
 20
2420.377125
 11
2140.129137
 21
2366.369147
  0
LINE
  8
CSLAYER1
  6
CONTINUOUS
 62
     3
 10
2604.916109
 20
1916.555447
 11
2617.327072
 21
1847.372669
  0
POINT
  8
CSLAYER1
 62
     3
 10
2601.578477
 20
1844.547469
  0
LINE
  8
CSLAYER1
  6
CENTER
 62
     5
 10
2601.578477
 20
1844.547469
 11
2143.466768
 21
2438.377125
  0
LINE
  8
CSLAYER1
  6
CONTINUOUS
 62
     3
 10
2372.522623
 20
2191.845046
 11
2572.366690
 21
2428.577125
  0
INSERT
  8
CSLAYER1
  2
BLKF0024
 10
0.0
 20
0.0
 30
0.0
  0
INSERT
  8
CSLAYER1
  2
BLKF0025
 10
0.0
 20
0.0
 30
0.0
  0
INSERT
  8
CSLAYER1
  2
BLKF0026
 10
0.0
 20
0.0
 30
0.0
  0
LINE
  8
CSLAYER1
  6
CENTER
 62
     5
 10
2125.564100
 20
2438.377125
 11
2164.563804
 21
2438.377125
  0
LINE
  8
CSLAYER1
  6
CENTER
 62
     5
 10
2143.466768
 20
2454.553347
 11
2143.466768
 21
2430.525093
  0
LINE
  8
CSLAYER1
  6
CENTER
 62
     5
 10
2601.578477
 20
2460.538326
 11
2601.578477
 21
2416.310557
  0
LINE
  8
CSLAYER1
  6
CENTER
 62
     5
 10
2579.639435
 20
2438.377125
 11
2623.867204
 21
2438.377125
  0
LINE
  8
CSLAYER1
  6
CONTINUOUS
 62
     3
 10
797.905125
 20
2473.577125
 11
1397.905125
 21
2473.577125
  0
LINE
  8
CSLAYER1
  6
CONTINUOUS
 62
     3
 10
797.905125
 20
2428.577125
 11
1397.905125
 21
2428.577125
  0
LINE
  8
CSLAYER1
  6
CONTINUOUS
 62
     4
 10
852.105125
 20
2420.377125
 11
875.105125
 21
2420.377125
  0
LINE
  8
CSLAYER1
  6
CONTINUOUS
 62
     4
 10
851.105125
 20
2421.377125
 11
876.105125
 21
2421.377125
  0
LINE
  8
CSLAYER1
  6
CONTINUOUS
 62
     4
 10
852.105125
 20
2420.377125
 11
851.105125
 21
2421.377125
  0
LINE
  8
CSLAYER1
  6
CONTINUOUS
 62
     4
 10
875.105125
 20
2420.377125
 11
876.105125
 21
2421.377125
  0
LINE
  8
CSLAYER1
  6
CONTINUOUS
 62
     4
 10
876.105125
 20
2428.577125
 11
876.105125
 21
2421.377125
  0
LINE
  8
CSLAYER1
  6
CONTINUOUS
 62
     4
 10
851.105125
 20
2428.577125
 11
851.105125
 21
2421.377125
  0
LINE
  8
CSLAYER1
  6
CENTER
 62
     5
 10
863.605125
 20
2420.377125
 11
863.605125
 21
2428.577125
  0
LINE
  8
CSLAYER1
  6
CONTINUOUS
 62
     3
 10
797.905125
 20
2428.577125
 11
797.905125
 21
2473.577125
  0
LINE
  8
CSLAYER1
  6
CONTINUOUS
 62
     4
 10
1343.705125
 20
2420.377125
 11
1320.705125
 21
2420.377125
  0
LINE
  8
CSLAYER1
  6
CONTINUOUS
 62
     4
 10
1344.705125
 20
2421.377125
 11
1319.705125
 21
2421.377125
  0
LINE
  8
CSLAYER1
  6
CONTINUOUS
 62
     4
 10
1343.705125
 20
2420.377125
 11
1344.705125
 21
2421.377125
  0
LINE
  8
CSLAYER1
  6
CONTINUOUS
 62
     4
 10
1320.705125
 20
2420.377125
 11
1319.705125
 21
2421.377125
  0
LINE
  8
CSLAYER1
  6
CONTINUOUS
 62
     4
 10
1319.705125
 20
2428.577125
 11
1319.705125
 21
2421.377125
  0
LINE
  8
CSLAYER1
  6
CONTINUOUS
 62
     4
 10
1344.705125
 20
2428.577125
 11
1344.705125
 21
2421.377125
  0
LINE
  8
CSLAYER1
  6
CENTER
 62
     5
 10
1332.205125
 20
2420.377125
 11
1332.205125
 21
2428.577125
  0
LINE
  8
CSLAYER1
  6
CONTINUOUS
 62
     3
 10
1397.905125
 20
2428.577125
 11
1397.905125
 21
2473.577125
  0
LINE
  8
CSLAYER1
  6
CONTINUOUS
 62
     7
 10
1316.905125
 20
2428.577125
 11
1316.905125
 21
2420.377125
  0
LINE
  8
CSLAYER1
  6
CONTINUOUS
 62
     7
 10
1304.905125
 20
2428.577125
 11
1304.905125
 21
2420.377125
  0
LINE
  8
CSLAYER1
  6
CONTINUOUS
 62
     7
 10
1305.405125
 20
2419.877125
 11
1316.405125
 21
2419.877125
  0
LINE
  8
CSLAYER1
  6
CONTINUOUS
 62
     7
 10
1317.405125
 20
2419.877125
 11
1328.405125
 21
2419.877125
  0
ARC
  8
CSLAYER1
  6
CONTINUOUS
 62
     7
 10
1316.405125
 20
2420.377125
 40
0.500000
 50
270.000000
 51
360.000000
  0
ARC
  8
CSLAYER1
  6
CONTINUOUS
 62
     7
 10
1305.405125
 20
2420.377125
 40
0.500000
 50
180.000000
 51
270.000000
  0
ARC
  8
CSLAYER1
  6
CONTINUOUS
 62
     7
 10
1328.405125
 20
2420.377125
 40
0.500000
 50
270.000000
 51
360.000000
  0
ARC
  8
CSLAYER1
  6
CONTINUOUS
 62
     7
 10
1317.405125
 20
2420.377125
 40
0.500000
 50
180.000000
 51
270.000000
  0
LINE
  8
CSLAYER1
  6
CONTINUOUS
 62
     7
 10
878.905125
 20
2428.577125
 11
878.905125
 21
2420.377125
  0
LINE
  8
CSLAYER1
  6
CONTINUOUS
 62
     7
 10
890.905125
 20
2428.577125
 11
890.905125
 21
2420.377125
  0
LINE
  8
CSLAYER1
  6
CONTINUOUS
 62
     7
 10
890.405125
 20
2419.877125
 11
879.405125
 21
2419.877125
  0
ARC
  8
CSLAYER1
  6
CONTINUOUS
 62
     7
 10
879.405125
 20
2420.377125
 40
0.500000
 50
180.000000
 51
270.000000
  0
ARC
  8
CSLAYER1
  6
CONTINUOUS
 62
     7
 10
890.405125
 20
2420.377125
 40
0.500000
 50
270.000000
 51
360.000000
  0
ARC
  8
CSLAYER1
  6
CONTINUOUS
 62
     7
 10
878.405125
 20
2420.377125
 40
0.500000
 50
270.000000
 51
360.000000
  0
LINE
  8
CSLAYER1
  6
CONTINUOUS
 62
     7
 10
878.405125
 20
2419.877125
 11
867.405125
 21
2419.877125
  0
ARC
  8
CSLAYER1
  6
CONTINUOUS
 62
     7
 10
867.405125
 20
2420.377125
 40
0.500000
 50
180.000000
 51
270.000000
  0
LINE
  8
CSLAYER1
  6
CONTINUOUS
 62
     7
 10
941.905125
 20
2171.712297
 11
1253.905125
 21
2171.712297
  0
LINE
  8
CSLAYER1
  6
CONTINUOUS
 62
     7
 10
941.905125
 20
2111.212297
 11
1253.905125
 21
2111.212297
  0
LINE
  8
CSLAYER1
  6
CENTER
 62
     5
 10
905.445804
 20
1844.547469
 11
1290.364445
 21
1844.547469
  0
INSERT
  8
CSLAYER1
  2
BLKF0027
 10
0.0
 20
0.0
 30
0.0
  0
LINE
  8
CSLAYER1
  6
CONTINUOUS
 62
     3
 10
1253.905125
 20
1853.547469
 11
941.905125
 21
1853.547469
  0
LINE
  8
CSLAYER1
  6
CONTINUOUS
 62
     3
 10
1253.905125
 20
1835.547469
 11
941.905125
 21
1835.547469
  0
INSERT
  8
CSLAYER1
  2
BLKF0028
 10
0.0
 20
0.0
 30
0.0
  0
LINE
  8
CSLAYER1
  6
CONTINUOUS
 62
     7
 10
1266.905125
 20
1860.547469
 11
1275.905125
 21
1860.547469
  0
LINE
  8
CSLAYER1
  6
CONTINUOUS
 62
     7
 10
1253.905125
 20
1828.547469
 11
1262.905125
 21
1828.547469
  0
LINE
  8
CSLAYER1
  6
CONTINUOUS
 62
     7
 10
928.905125
 20
1860.547469
 11
919.905125
 21
1860.547469
  0
LINE
  8
CSLAYER1
  6
CONTINUOUS
 62
     7
 10
941.905125
 20
1828.547469
 11
932.905125
 21
1828.547469
  0
LINE
  8
CSLAYER1
  6
CENTER
 62
     5
 10
902.905125
 20
2141.462297
 11
1292.905125
 21
2141.462297
  0
INSERT
  8
CSLAYER1
  2
BLKF0029
 10
0.0
 20
0.0
 30
0.0
  0
INSERT
  8
CSLAYER1
  2
BLKF0030
 10
0.0
 20
0.0
 30
0.0
  0
INSERT
  8
CSLAYER1
  2
BLKF0031
 10
0.0
 20
0.0
 30
0.0
  0
INSERT
  8
CSLAYER1
  2
BLKF0032
 10
0.0
 20
0.0
 30
0.0
  0
INSERT
  8
CSLAYER1
  2
BLKF0033
 10
0.0
 20
0.0
 30
0.0
  0
INSERT
  8
CSLAYER1
  2
BLKF0034
 10
0.0
 20
0.0
 30
0.0
  0
LINE
  8
CSLAYER1
  6
CONTINUOUS
 62
     7
 10
919.905125
 20
2366.369147
 11
928.905125
 21
2366.369147
  0
LINE
  8
CSLAYER1
  6
CONTINUOUS
 62
     7
 10
932.905125
 20
1916.555447
 11
941.905125
 21
1916.555447
  0
LINE
  8
CSLAYER1
  6
CONTINUOUS
 62
     7
 10
1266.905125
 20
2366.369147
 11
1275.905125
 21
2366.369147
  0
LINE
  8
CSLAYER1
  6
CONTINUOUS
 62
     7
 10
1253.905125
 20
1916.555447
 11
1262.905125
 21
1916.555447
  0
DIMENSION
  8
CSLAYER1
 62
     3
  2
*D0008
 10
3206.358774
 20
2473.577125
 11
3191.358887
 21
1552.982666
 13
2914.466768
 23
632.388157
 14
2916.266768
 24
2473.577125
 50
90.000000
  0
LINE
  8
CSLAYER1
  6
CENTER
 62
     5
 10
2887.406601
 20
852.038157
 11
2143.466768
 21
752.038157
  0
LINE
  8
CSLAYER1
  6
CENTER
 62
     5
 10
2887.406601
 20
752.038157
 11
2143.466768
 21
847.188157
  0
LINE
  8
CSLAYER1
  6
CENTER
 62
     5
 10
2887.406601
 20
947.188157
 11
2143.466768
 21
847.188157
  0
INSERT
  8
CSLAYER1
  2
BLKF0035
 10
0.0
 20
0.0
 30
0.0
  0
LINE
  8
CSLAYER1
  6
CONTINUOUS
 62
     3
 10
853.905125
 20
682.388157
 11
853.905125
 21
803.388157
  0
LINE
  8
CSLAYER1
  6
CONTINUOUS
 62
     3
 10
873.905125
 20
682.388157
 11
873.905125
 21
803.388157
  0
LINE
  8
CSLAYER1
  6
CONTINUOUS
 62
     3
 10
873.405125
 20
929.188157
 11
854.405125
 21
929.188157
  0
LINE
  8
CSLAYER1
  6
CONTINUOUS
 62
     3
 10
874.874780
 20
921.188157
 11
852.935469
 21
921.188157
  0
LINE
  8
CSLAYER1
  6
CONTINUOUS
 62
     3
 10
874.874780
 20
928.339651
 11
874.874780
 21
921.188157
  0
LINE
  8
CSLAYER1
  6
CONTINUOUS
 62
     3
 10
869.389952
 20
928.339651
 11
869.389952
 21
921.188157
  0
LINE
  8
CSLAYER1
  6
CONTINUOUS
 62
     3
 10
873.405125
 20
929.188157
 11
874.874780
 21
928.339651
  0
ARC
  8
CSLAYER1
  6
CONTINUOUS
 62
     3
 10
863.905125
 20
911.036663
 40
18.151494
 50
72.412046
 51
107.587954
  0
ARC
  8
CSLAYER1
  6
CONTINUOUS
 62
     3
 10
872.132366
 20
924.345765
 40
4.844787
 50
64.475551
 51
124.475551
  0
LINE
  8
CSLAYER1
  6
CONTINUOUS
 62
     3
 10
852.935469
 20
928.339651
 11
852.935469
 21
921.188157
  0
LINE
  8
CSLAYER1
  6
CONTINUOUS
 62
     3
 10
858.420297
 20
928.339651
 11
858.420297
 21
921.188157
  0
LINE
  8
CSLAYER1
  6
CONTINUOUS
 62
     3
 10
854.405125
 20
929.188157
 11
852.935469
 21
928.339651
  0
ARC
  8
CSLAYER1
  6
CONTINUOUS
 62
     3
 10
855.677883
 20
924.345765
 40
4.844787
 50
55.524449
 51
115.524449
  0
LINE
  8
CSLAYER1
  6
CONTINUOUS
 62
     5
 10
869.905125
 20
921.188157
 11
868.905125
 21
919.456106
  0
LINE
  8
CSLAYER1
  6
CONTINUOUS
 62
     5
 10
857.905125
 20
921.188157
 11
858.905125
 21
919.456106
  0
POINT
  8
CSLAYER1
 62
     3
 10
863.905125
 20
921.188157
  0
LINE
  8
CSLAYER1
  6
CONTINUOUS
 62
     3
 10
869.905125
 20
921.188157
 11
869.905125
 21
813.388157
  0
LINE
  8
CSLAYER1
  6
CONTINUOUS
 62
     5
 10
868.905125
 20
919.456106
 11
868.905125
 21
813.388157
  0
LINE
  8
CSLAYER1
  6
CONTINUOUS
 62
     5
 10
858.905125
 20
919.456106
 11
858.905125
 21
813.388157
  0
LINE
  8
CSLAYER1
  6
CONTINUOUS
 62
     3
 10
857.905125
 20
921.188157
 11
857.905125
 21
813.388157
  0
LINE
  8
CSLAYER1
  6
CONTINUOUS
 62
     5
 10
1340.284679
 20
929.188157
 11
1531.614920
 21
1038.818538
  0
LINE
  8
CSLAYER1
  6
CONTINUOUS
 62
     5
 10
1340.284679
 20
929.188157
 11
1372.208559
 21
960.903546
  0
LINE
  8
CSLAYER1
  6
CONTINUOUS
 62
     5
 10
1340.284679
 20
929.188157
 11
1383.789265
 21
940.692550
  0
DIMENSION
  8
CSLAYER1
 62
     3
  2
*D0009
 10
3067.385546
 20
982.388157
 11
3052.385742
 21
807.388306
 13
2916.266768
 23
632.388157
 14
2916.266768
 24
982.388157
 50
90.000000
 70
1
  0
DIMENSION
  8
CSLAYER1
 62
     3
  2
*D0010
 10
3067.385546
 20
982.388157
 11
3052.385742
 21
1727.982666
 13
3067.385546
 23
2473.577125
 14
3067.385546
 24
982.388157
 50
90.000000
 70
1
  0
LINE
  8
CSLAYER1
  6
CONTINUOUS
 62
     5
 10
5128.577536
 20
3293.488301
 11
4047.268760
 21
3293.488301
  0
LINE
  8
CSLAYER1
  6
CONTINUOUS
 62
     5
 10
5128.577536
 20
3197.488303
 11
4047.268760
 21
3197.488303
  0
LINE
  8
CSLAYER1
  6
CONTINUOUS
 62
     5
 10
5128.577536
 20
3101.488306
 11
4047.268760
 21
3101.488306
  0
LINE
  8
CSLAYER1
  6
CONTINUOUS
 62
     5
 10
5128.577536
 20
3005.488308
 11
4048.577563
 21
3005.488308
  0
LINE
  8
CSLAYER1
  6
CONTINUOUS
 62
     5
 10
5128.577536
 20
2909.488310
 11
4047.268760
 21
2909.488310
  0
LINE
  8
CSLAYER1
  6
CONTINUOUS
 62
     5
 10
5128.577536
 20
2813.488313
 11
4047.268760
 21
2813.488313
  0
LINE
  8
CSLAYER1
  6
CONTINUOUS
 62
     5
 10
5128.577536
 20
2717.488315
 11
4047.268760
 21
2717.488315
  0
LINE
  8
CSLAYER1
  6
CONTINUOUS
 62
     5
 10
5128.577536
 20
2621.488318
 11
4047.268760
 21
2621.488318
  0
LINE
  8
CSLAYER1
  6
CONTINUOUS
 62
     5
 10
5128.577536
 20
2525.488320
 11
4047.268760
 21
2525.488320
  0
LINE
  8
CSLAYER1
  6
CONTINUOUS
 62
     5
 10
5128.577536
 20
2333.488325
 11
4047.268760
 21
2333.488325
  0
LINE
  8
CSLAYER1
  6
CONTINUOUS
 62
     5
 10
5128.577536
 20
2237.488327
 11
4047.268760
 21
2237.488327
  0
TEXT
  8
CSLAYER1
 62
     3
 10
4340.854004
 20
3413.216553
 40
60.000000
 41
0.857143
  1
仕   様
 50
0.000000
 51
0.000000
  7
EASYDRAW_FONT
 72
     5
 11
4580.854004
 21
3413.216553
  0
TEXT
  8
CSLAYER1
 62
     3
 10
4063.407715
 20
3305.822510
 40
60.000000
 41
0.847059
  1
型    式
 50
0.000000
 51
0.000000
  7
EASYDRAW_FONT
 72
     5
 11
4351.407715
 21
3305.822510
  0
TEXT
  8
CSLAYER1
 62
     3
 10
4060.678711
 20
3122.088135
 40
60.000000
 41
0.847059
  1
テーブル寸法
 50
0.000000
 51
0.000000
  7
EASYDRAW_FONT
 72
     5
 11
4348.678711
 21
3122.088135
  0
TEXT
  8
CSLAYER1
 62
     3
 10
4063.407715
 20
3027.491943
 40
60.000000
 41
0.847059
  1
テーブル高サ
 50
0.000000
 51
0.000000
  7
EASYDRAW_FONT
 72
     5
 11
4351.407715
 21
3027.491943
  0
TEXT
  8
CSLAYER1
 62
     3
 10
4065.577637
 20
2930.167725
 40
60.000000
 41
0.857143
  1
ストローク
 50
0.000000
 51
0.000000
  7
EASYDRAW_FONT
 72
     5
 11
4305.577637
 21
2930.167725
  0
TEXT
  8
CSLAYER1
 62
     3
 10
4064.668945
 20
2832.843506
 40
60.000000
 41
0.857143
  1
全   長
 50
0.000000
 51
0.000000
  7
EASYDRAW_FONT
 72
     5
 11
4304.668945
 21
2832.843506
  0
TEXT
  8
CSLAYER1
 62
     3
 10
4068.075195
 20
2734.067139
 40
60.000000
 41
0.857143
  1
全   巾
 50
0.000000
 51
0.000000
  7
EASYDRAW_FONT
 72
     5
 11
4308.075195
 21
2734.067139
  0
TEXT
  8
CSLAYER1
 62
     3
 10
4065.738770
 20
2638.239502
 40
60.000000
 41
0.857143
  1
全   高
 50
0.000000
 51
0.000000
  7
EASYDRAW_FONT
 72
     5
 11
4305.738770
 21
2638.239502
  0
TEXT
  8
CSLAYER1
 62
     3
 10
4065.738770
 20
2544.749756
 40
60.000000
 41
0.857143
  1
リフト方式
 50
0.000000
 51
0.000000
  7
EASYDRAW_FONT
 72
     5
 11
4305.738770
 21
2544.749756
  0
TEXT
  8
CSLAYER1
 62
     3
 10
4064.027832
 20
2252.418701
 40
60.000000
 41
0.872727
  1
モーター
 50
0.000000
 51
0.000000
  7
EASYDRAW_FONT
 72
     5
 11
4256.027832
 21
2252.418701
  0
LINE
  8
CSLAYER1
  6
CONTINUOUS
 62
     5
 10
5128.577536
 20
2141.488330
 11
4047.268760
 21
2141.488330
  0
LINE
  8
CSLAYER1
  6
CONTINUOUS
 62
     5
 10
5128.577536
 20
1949.488335
 11
4044.061007
 21
1949.488335
  0
LINE
  8
CSLAYER1
  6
CONTINUOUS
 62
     5
 10
5128.577536
 20
1853.488337
 11
4047.268760
 21
1853.488337
  0
LINE
  8
CSLAYER1
  6
CONTINUOUS
 62
     5
 10
5128.577536
 20
1757.488339
 11
4047.268760
 21
1757.488339
  0
LINE
  8
CSLAYER1
  6
CONTINUOUS
 62
     5
 10
5128.577536
 20
1661.488342
 11
4047.268760
 21
1661.488342
  0
TEXT
  8
CSLAYER1
 62
     3
 10
4067.900391
 20
1774.171143
 40
60.000000
 41
0.857143
  1
自  　重
 50
0.000000
 51
0.000000
  7
EASYDRAW_FONT
 72
     5
 11
4307.900391
 21
1774.171143
  0
TEXT
  8
CSLAYER1
 62
     3
 10
4063.256836
 20
1679.161865
 40
60.000000
 41
0.847059
  1
塗　装　色 
 50
0.000000
 51
0.000000
  7
EASYDRAW_FONT
 72
     5
 11
4351.256836
 21
1679.161865
  0
TEXT
  8
CSLAYER1
 62
     3
 10
4743.541016
 20
3213.585205
 40
60.000000
 41
0.872727
  1
 100
 50
0.000000
 51
0.000000
  7
EASYDRAW_FONT
 72
     5
 11
4935.541016
 21
3213.585205
  0
TEXT
  8
CSLAYER1
 62
     3
 10
5022.776367
 20
3208.075439
 40
60.000000
 41
0.960000
  1
Ｋｇ
 50
0.000000
 51
0.000000
  7
EASYDRAW_FONT
 72
     5
 11
5118.776367
 21
3208.075439
  0
TEXT
  8
CSLAYER1
 62
     3
 10
4501.867676
 20
3116.830322
 40
60.000000
 41
0.830769
  1
800L×500W
 50
0.000000
 51
0.000000
  7
EASYDRAW_FONT
 72
     5
 11
4933.867676
 21
3116.830322
  0
TEXT
  8
CSLAYER1
 62
     3
 10
4539.975586
 20
3022.079834
 40
60.000000
 41
0.834783
  1
350～1800
 50
0.000000
 51
0.000000
  7
EASYDRAW_FONT
 72
     5
 11
4923.975586
 21
3022.079834
  0
TEXT
  8
CSLAYER1
 62
     3
 10
4738.089355
 20
2921.479736
 40
60.000000
 41
0.872727
  1
1450
 50
0.000000
 51
0.000000
  7
EASYDRAW_FONT
 72
     5
 11
4930.089355
 21
2921.479736
  0
TEXT
  8
CSLAYER1
 62
     3
 10
4782.023438
 20
2829.286377
 40
60.000000
 41
0.900000
  1
800
 50
0.000000
 51
0.000000
  7
EASYDRAW_FONT
 72
     5
 11
4926.023438
 21
2829.286377
  0
TEXT
  8
CSLAYER1
 62
     3
 10
4785.477539
 20
2735.382568
 40
60.000000
 41
0.900000
  1
500
 50
0.000000
 51
0.000000
  7
EASYDRAW_FONT
 72
     5
 11
4929.477539
 21
2735.382568
  0
TEXT
  8
CSLAYER1
 62
     3
 10
4414.848633
 20
2543.875244
 40
60.000000
 41
0.827586
  1
電 動 ボールネジ式
 50
0.000000
 51
0.000000
  7
EASYDRAW_FONT
 72
     5
 11
4894.848633
 21
2543.875244
  0
TEXT
  8
CSLAYER1
 62
     3
 10
4410.687500
 20
2253.794189
 40
60.000000
 41
0.819512
  1
３相ＡＣ２００Ｖ、0.2ＫＷ
 50
0.000000
 51
0.000000
  7
EASYDRAW_FONT
 72
     5
 11
5082.687500
 21
2253.794189
  0
TEXT
  8
CSLAYER1
 62
     3
 10
4607.162598
 20
2158.028564
 40
60.000000
 41
0.840000
  1
長サ  ４ ｍ
 50
0.000000
 51
0.000000
  7
EASYDRAW_FONT
 72
     5
 11
4943.162598
 21
2158.028564
  0
TEXT
  8
CSLAYER1
 62
     3
 10
4776.122070
 20
1777.020264
 40
60.000000
 41
0.847059
  1
１２１　Ｋｇ
 50
0.000000
 51
0.000000
  7
EASYDRAW_FONT
 72
     5
 11
5064.122070
 21
1777.020264
  0
TEXT
  8
CSLAYER1
 62
     3
 10
4782.464355
 20
2638.390869
 40
60.000000
 41
0.900000
  1
350
 50
0.000000
 51
0.000000
  7
EASYDRAW_FONT
 72
     5
 11
4926.464355
 21
2638.390869
  0
TEXT
  8
CSLAYER1
 62
     3
 10
5019.004883
 20
3111.920166
 40
60.000000
 41
0.960000
  1
mm
 50
0.000000
 51
0.000000
  7
EASYDRAW_FONT
 72
     5
 11
5115.004883
 21
3111.920166
  0
TEXT
  8
CSLAYER1
 62
     3
 10
5019.004883
 20
3021.420654
 40
60.000000
 41
0.960000
  1
mm
 50
0.000000
 51
0.000000
  7
EASYDRAW_FONT
 72
     5
 11
5115.004883
 21
3021.420654
  0
TEXT
  8
CSLAYER1
 62
     3
 10
5013.349121
 20
2925.264404
 40
60.000000
 41
0.960000
  1
mm
 50
0.000000
 51
0.000000
  7
EASYDRAW_FONT
 72
     5
 11
5109.349121
 21
2925.264404
  0
TEXT
  8
CSLAYER1
 62
     3
 10
5013.349121
 20
2823.451904
 40
60.000000
 41
0.960000
  1
mm
 50
0.000000
 51
0.000000
  7
EASYDRAW_FONT
 72
     5
 11
5109.349121
 21
2823.451904
  0
TEXT
  8
CSLAYER1
 62
     3
 10
5009.578613
 20
2732.952881
 40
60.000000
 41
0.960000
  1
mm
 50
0.000000
 51
0.000000
  7
EASYDRAW_FONT
 72
     5
 11
5105.578613
 21
2732.952881
  0
TEXT
  8
CSLAYER1
 62
     3
 10
5009.578613
 20
2636.795654
 40
60.000000
 41
0.960000
  1
mm
 50
0.000000
 51
0.000000
  7
EASYDRAW_FONT
 72
     5
 11
5105.578613
 21
2636.795654
  0
LINE
  8
CSLAYER1
  6
CONTINUOUS
 62
     5
 10
4622.934167
 20
3389.488298
 11
4310.355209
 21
3389.488298
  0
LINE
  8
CSLAYER1
  6
CONTINUOUS
 62
     5
 10
4622.934167
 20
3401.488298
 11
4310.355209
 21
3401.488298
  0
TEXT
  8
CSLAYER1
 62
     3
 10
4069.400879
 20
2348.247314
 40
60.000000
 41
1.036364
  1
操作方式
 50
0.000000
 51
0.000000
  7
EASYDRAW_FONT
 72
     5
 11
4297.400879
 21
2348.247314
  0
LINE
  8
CSLAYER1
  6
CONTINUOUS
 62
     5
 10
5128.577536
 20
2045.488332
 11
4047.268760
 21
2045.488332
  0
TEXT
  8
CSLAYER1
 62
     3
 10
4065.402832
 20
2157.442627
 40
60.000000
 41
0.942857
  1
電源コード
 50
0.000000
 51
0.000000
  7
EASYDRAW_FONT
 72
     5
 11
4329.402832
 21
2157.442627
  0
TEXT
  8
CSLAYER1
 62
     3
 10
4542.057617
 20
1677.495361
 40
60.000000
 41
0.926087
  1
　１０Ｒ４／１３
 50
0.000000
 51
0.000000
  7
EASYDRAW_FONT
 72
     5
 11
4968.057617
 21
1677.495361
  0
TEXT
  8
CSLAYER2
 62
     5
 10
4385.117348
 20
3301.938122
 40
54.222878
 41
0.682677
  1
    GLI-100-0508W3
 50
0.000000
 51
0.000000
  7
EASYDRAW_FONT
 72
     5
 11
5039.078941
 21
3301.938122
  0
TEXT
  8
CSLAYER1
 62
     3
 10
4411.362793
 20
2347.844971
 40
60.000000
 41
1.020000
  1
フットスイッチ
 50
0.000000
 51
0.000000
  7
EASYDRAW_FONT
 72
     5
 11
4819.362793
 21
2347.844971
  0
TEXT
  8
CSLAYER1
 62
     4
 10
4066.045691
 20
2053.760696
 40
71.595306
 41
0.593339
  1
昇降時間 ２８秒（50HZ） ２４秒(60HZ)
 50
0.000000
 51
0.000000
  7
EASYDRAW_FONT
 72
     5
 11
5071.413294
 21
2053.760696
  0
TEXT
  8
CSLAYER1
 62
     4
 10
4067.997070
 20
1865.595947
 40
60.000000
 41
0.912766
  1
上昇端、下降端リミットスイッチ付
 50
0.000000
 51
0.000000
  7
EASYDRAW_FONT
 72
     5
 11
4925.997070
 21
1865.595947
  0
TEXT
  8
CSLAYER1
 62
     4
 10
4070.766954
 20
1962.591385
 40
68.819672
 41
0.605080
  1
最大使用頻度８０回／時間・最大起動頻度１０回／分
 50
0.000000
 51
0.000000
  7
EASYDRAW_FONT
 72
     5
 11
5056.279921
 21
1962.591385
  0
LINE
  8
CSLAYER1
  6
CONTINUOUS
 62
     5
 10
5128.577536
 20
2429.488323
 11
4047.268760
 21
2429.488323
  0
TEXT
  8
CSLAYER1
 62
     3
 10
4299.549805
 20
2444.105225
 40
60.000000
 41
0.825000
  1
マグネットスイッチ制御
 50
0.000000
 51
0.000000
  7
EASYDRAW_FONT
 72
     5
 11
4827.549805
 21
2444.105225
  0
TEXT
  8
CSLAYER1
 62
     3
 10
4067.430176
 20
2444.105225
 40
60.000000
 41
0.872727
  1
制御方式
 50
0.000000
 51
0.000000
  7
EASYDRAW_FONT
 72
     5
 11
4259.430176
 21
2444.105225
  0
LINE
  8
CSLAYER1
  6
CONTINUOUS
 62
     3
 10
2888.966768
 20
803.388157
 11
2907.966768
 21
803.388157
  0
LINE
  8
CSLAYER1
  6
CONTINUOUS
 62
     3
 10
2888.966768
 20
813.388157
 11
2907.966768
 21
813.388157
  0
LINE
  8
CSLAYER1
  6
CONTINUOUS
 62
     3
 10
2887.497113
 20
812.539651
 11
2887.497113
 21
804.236663
  0
LINE
  8
CSLAYER1
  6
CONTINUOUS
 62
     3
 10
2892.981941
 20
812.539651
 11
2892.981941
 21
804.236663
  0
LINE
  8
CSLAYER1
  6
CONTINUOUS
 62
     3
 10
2888.966768
 20
813.388157
 11
2887.497113
 21
812.539651
  0
ARC
  8
CSLAYER1
  6
CONTINUOUS
 62
     3
 10
2898.466768
 20
795.236663
 40
18.151494
 50
72.412046
 51
107.587954
  0
ARC
  8
CSLAYER1
  6
CONTINUOUS
 62
     3
 10
2890.239527
 20
808.545765
 40
4.844787
 50
55.524449
 51
115.524449
  0
LINE
  8
CSLAYER1
  6
CONTINUOUS
 62
     3
 10
2909.436424
 20
812.539651
 11
2909.436424
 21
804.236663
  0
LINE
  8
CSLAYER1
  6
CONTINUOUS
 62
     3
 10
2903.951596
 20
812.539651
 11
2903.951596
 21
804.236663
  0
LINE
  8
CSLAYER1
  6
CONTINUOUS
 62
     3
 10
2907.966768
 20
813.388157
 11
2909.436424
 21
812.539651
  0
ARC
  8
CSLAYER1
  6
CONTINUOUS
 62
     3
 10
2906.694010
 20
808.545765
 40
4.844787
 50
64.475551
 51
124.475551
  0
LINE
  8
CSLAYER1
  6
CONTINUOUS
 62
     3
 10
2888.966768
 20
803.388157
 11
2887.497113
 21
804.236663
  0
ARC
  8
CSLAYER1
  6
CONTINUOUS
 62
     3
 10
2898.466768
 20
821.539651
 40
18.151494
 50
252.412046
 51
287.587954
  0
ARC
  8
CSLAYER1
  6
CONTINUOUS
 62
     3
 10
2890.239527
 20
808.230550
 40
4.844787
 50
244.475551
 51
304.475551
  0
LINE
  8
CSLAYER1
  6
CONTINUOUS
 62
     3
 10
2907.966768
 20
803.388157
 11
2909.436424
 21
804.236663
  0
ARC
  8
CSLAYER1
  6
CONTINUOUS
 62
     3
 10
2906.694010
 20
808.230550
 40
4.844787
 50
235.524449
 51
295.524449
  0
POINT
  8
CSLAYER1
 62
     3
 10
2898.466768
 20
813.388157
  0
LINE
  8
CSLAYER1
  6
CONTINUOUS
 62
     3
 10
2888.966768
 20
929.188157
 11
2907.966768
 21
929.188157
  0
LINE
  8
CSLAYER1
  6
CONTINUOUS
 62
     3
 10
2887.497113
 20
921.188157
 11
2909.436424
 21
921.188157
  0
LINE
  8
CSLAYER1
  6
CONTINUOUS
 62
     3
 10
2887.497113
 20
928.339651
 11
2887.497113
 21
921.188157
  0
LINE
  8
CSLAYER1
  6
CONTINUOUS
 62
     3
 10
2892.981941
 20
928.339651
 11
2892.981941
 21
921.188157
  0
LINE
  8
CSLAYER1
  6
CONTINUOUS
 62
     3
 10
2888.966768
 20
929.188157
 11
2887.497113
 21
928.339651
  0
ARC
  8
CSLAYER1
  6
CONTINUOUS
 62
     3
 10
2898.466768
 20
911.036663
 40
18.151494
 50
72.412046
 51
107.587954
  0
ARC
  8
CSLAYER1
  6
CONTINUOUS
 62
     3
 10
2890.239527
 20
924.345765
 40
4.844787
 50
55.524449
 51
115.524449
  0
LINE
  8
CSLAYER1
  6
CONTINUOUS
 62
     3
 10
2909.436424
 20
928.339651
 11
2909.436424
 21
921.188157
  0
LINE
  8
CSLAYER1
  6
CONTINUOUS
 62
     3
 10
2903.951596
 20
928.339651
 11
2903.951596
 21
921.188157
  0
LINE
  8
CSLAYER1
  6
CONTINUOUS
 62
     3
 10
2907.966768
 20
929.188157
 11
2909.436424
 21
928.339651
  0
ARC
  8
CSLAYER1
  6
CONTINUOUS
 62
     3
 10
2906.694010
 20
924.345765
 40
4.844787
 50
64.475551
 51
124.475551
  0
LINE
  8
CSLAYER1
  6
CONTINUOUS
 62
     5
 10
2892.466768
 20
921.188157
 11
2893.466768
 21
919.456106
  0
LINE
  8
CSLAYER1
  6
CONTINUOUS
 62
     5
 10
2904.466768
 20
921.188157
 11
2903.466768
 21
919.456106
  0
POINT
  8
CSLAYER1
 62
     3
 10
2898.466768
 20
921.188157
  0
LINE
  8
CSLAYER1
  6
CONTINUOUS
 62
     3
 10
2892.466768
 20
921.188157
 11
2892.466768
 21
813.388157
  0
LINE
  8
CSLAYER1
  6
CONTINUOUS
 62
     5
 10
2893.466768
 20
919.456106
 11
2893.466768
 21
813.388157
  0
LINE
  8
CSLAYER1
  6
CONTINUOUS
 62
     5
 10
2903.466768
 20
919.456106
 11
2903.466768
 21
813.388157
  0
LINE
  8
CSLAYER1
  6
CONTINUOUS
 62
     3
 10
2904.466768
 20
921.188157
 11
2904.466768
 21
813.388157
  0
LINE
  8
CSLAYER1
  6
PHANTOM
 62
     5
 10
2886.466768
 20
937.388157
 11
2886.466768
 21
930.188157
  0
LINE
  8
CSLAYER1
  6
PHANTOM
 62
     5
 10
2887.466768
 20
929.188157
 11
2910.466768
 21
929.188157
  0
LINE
  8
CSLAYER1
  6
PHANTOM
 62
     5
 10
2886.466768
 20
930.188157
 11
2911.466768
 21
930.188157
  0
LINE
  8
CSLAYER1
  6
PHANTOM
 62
     5
 10
2911.466768
 20
937.388157
 11
2911.466768
 21
930.188157
  0
LINE
  8
CSLAYER1
  6
PHANTOM
 62
     5
 10
2887.466768
 20
929.188157
 11
2886.466768
 21
930.188157
  0
LINE
  8
CSLAYER1
  6
PHANTOM
 62
     5
 10
2910.466768
 20
929.188157
 11
2911.466768
 21
930.188157
  0
LINE
  8
CSLAYER1
  6
CONTINUOUS
 62
     3
 10
2888.466768
 20
682.388157
 11
2888.466768
 21
803.388157
  0
LINE
  8
CSLAYER1
  6
CONTINUOUS
 62
     3
 10
2908.466768
 20
682.388157
 11
2908.466768
 21
803.388157
  0
LINE
  8
CSLAYER1
  6
CENTER
 62
     5
 10
2898.466768
 20
682.388157
 11
2898.466768
 21
930.188157
  0
TEXT
  8
CSLAYER1
 62
     3
 10
4069.400879
 20
3212.247314
 40
60.000000
 41
1.036364
  1
積載荷重
 50
0.000000
 51
0.000000
  7
EASYDRAW_FONT
 72
     5
 11
4297.400879
 21
3212.247314
  0
TEXT
  8
CSLAYER1
 62
     5
 10
1032.570394
 20
2998.524611
 40
59.399998
 41
1.020000
  1
コード長サ２ｍ
 50
0.000000
 51
0.000000
  7
EASYDRAW_FONT
 72
     5
 11
1436.490397
 21
2998.524611
  0
LINE
  8
CSLAYER1
  6
CONTINUOUS
 62
     5
 10
1445.518146
 20
3139.744468
 11
1606.640254
 21
2961.448305
  0
LINE
  8
CSLAYER1
  6
CONTINUOUS
 62
     5
 10
1606.640254
 20
2961.448305
 11
1568.855914
 21
2985.888919
  0
LINE
  8
CSLAYER1
  6
CONTINUOUS
 62
     5
 10
1606.640254
 20
2961.448305
 11
1586.138363
 21
3001.506668
  0
INSERT
  8
CSLAYER1
  2
BLKF0036
 10
0.0
 20
0.0
 30
0.0
  0
ENDSEC
  0
EOF
