  0
SECTION
  2
HEADER
  9
$ACADVER
  1
AC1006
  9
$INSBASE
 10
0.000000
 20
0.000000
 30
0.0
  9
$EXTMIN
 10
0.000000
 20
0.000000
  9
$EXTMAX
 10
3640.000000
 20
2570.000000
  9
$LIMMIN
 10
0.000000
 20
0.000000
  9
$LIMMAX
 10
3640.000000
 20
2570.000000
  9
$VIEWCTR
 10
1820.000000
 20
1285.000000
  9
$VIEWSIZE
 40
2570.000000
  9
$SNAPMODE
 70
     0
  9
$SNAPUNIT
 10
1.0
 20
1.0
  9
$SNAPBASE
 10
0.0
 20
0.0
  9
$SNAPANG
 50
0.0
  9
$SNAPSTYLE
 70
     0
  9
$SNAPISOPAIR
 70
     0
  9
$GRIDMODE
 70
     0
  9
$GRIDUNIT
 10
0.0
 20
0.0
  9
$ORTHOMODE
 70
     0
  9
$REGENMODE
 70
     1
  9
$FILLMODE
 70
     1
  9
$QTEXTMODE
 70
     0
  9
$DRAGMODE
 70
     2
  9
$LTSCALE
 40
15.000000
  9
$OSMODE
 70
     0
  9
$ATTMODE
 70
     1
  9
$TEXTSIZE
 40
0.2
  9
$TRACEWID
 40
0.05
  9
$TEXTSTYLE
  7
STANDARD
  9
$CLAYER
  8
CSLAYER1
  9
$CELTYPE
  6
BYLAYER
  9
$CECOLOR
 62
   256
  9
$DIMSCALE
 40
1.0
  9
$DIMASZ
 40
0.18
  9
$DIMEXO
 40
0.0625
  9
$DIMDLI
 40
0.38
  9
$DIMRND
 40
0.0
  9
$DIMDLE
 40
0.0
  9
$DIMEXE
 40
0.18
  9
$DIMTP
 40
0.0
  9
$DIMTM
 40
0.0
  9
$DIMTXT
 40
0.18
  9
$DIMCEN
 40
0.09
  9
$DIMTSZ
 40
0.0
  9
$DIMTOL
 70
     0
  9
$DIMLIM
 70
     0
  9
$DIMTIH
 70
     1
  9
$DIMTOH
 70
     1
  9
$DIMSE1
 70
     0
  9
$DIMSE2
 70
     0
  9
$DIMTAD
 70
     0
  9
$DIMZIN
 70
     0
  9
$DIMBLK
  1

  9
$LUNITS
 70
     2
  9
$LUPREC
 70
     4
  9
$AXISMODE
 70
     0
  9
$AXISUNIT
 10
0.0
 20
0.0
  9
$SKETCHINC
 40
0.1
  9
$FILLETRAD
 40
0.0
  9
$AUNITS
 70
     0
  9
$AUPREC
 70
     0
  9
$MENU
  1
ACAD
  9
$ELEVATION
 40
0.0
  9
$THICKNESS
 40
0.0
  9
$VIEWDIR
 10
0.0
 20
0.0
 30
1.0
  9
$LIMCHECK
 70
     0
  9
$BLIPMODE
 70
     1
  9
$CHAMFERA
 40
0.0
  9
$CHAMFERB
 40
0.0
  9
$FASTZOOM
 70
     1
  9
$SKPOLY
 70
     0
  9
$TDCREATE
 40
2456685.000000
  9
$TDUPDATE
 40
2456685.000000
  9
$TDINDWG
 40
0.0
  9
$TDUSRTIMER
 40
0.0
  9
$USRTIMER
 70
     1
  9
$ANGBASE
 50
0.0
  9
$ANGDIR
 70
     0
  9
$PDMODE
 70
     0
  9
$PDSIZE
 40
0.0
  9
$PLINEWID
 40
0.0
  9
$COORDS
 70
     0
  9
$USERI1
 70
     0
  9
$USERI2
 70
     0
  9
$USERI3
 70
     0
  9
$USERI4
 70
     0
  9
$USERI5
 70
     0
  9
$USERR1
 40
0.0
  9
$USERR2
 40
0.0
  9
$USERR3
 40
0.0
  9
$USERR4
 40
0.0
  9
$USERR5
 40
0.0
  0
ENDSEC
  0
SECTION
  2
TABLES
  0
TABLE
  2
LTYPE
 70
     9
  0
LTYPE
  2
CONTINUOUS
 70
    64
  3
Solid line
 72
    65
 73
     0
 40
0.0
  0
LTYPE
  2
DASHED
 70
    64
  3
__ __ __ __ __ __ __ __ __ __ __ __ __ __ __
 72
    65
 73
     2
 40
0.75
 49
0.5
 49
-0.25
  0
LTYPE
  2
HIDDEN
 70
    64
  3
_ _ _ _ _ _ _ _ _ _ _ _ _ _ _ _ _ _ _ _ _ _ _
 72
    65
 73
     2
 40
0.375
 49
0.25
 49
-0.125
  0
LTYPE
  2
DOT
 70
    64
  3
...............................................
 72
    65
 73
     2
 40
0.25
 49
0.0
 49
-0.25
  0
LTYPE
  2
DASHDOT
 70
    64
  3
__ . __ . __ . __ . __ . __ . __ . __ . __ . __
 72
    65
 73
     4
 40
1.0
 49
0.5
 49
-0.25
 49
0.0
 49
-0.25
  0
LTYPE
  2
DIVIDE
 70
    64
  3
__ . . __ . . __ . . __ . . __ . . __ . . __
 72
    65
 73
     6
 40
1.25
 49
0.5
 49
-0.25
 49
0.0
 49
-0.25
 49
0.0
 49
-0.25
  0
LTYPE
  2
CENTER
 70
    64
  3
____ _ ____ _ ____ _ ____ _ ____ _ ____ _ ____ 
 72
    65
 73
     4
 40
2.0
 49
1.25
 49
-0.25
 49
0.25
 49
-0.25
  0
LTYPE
  2
PHANTOM
 70
    64
  3
______  __  __  ______  __  __  ______  __  __ 
 72
    65
 73
     6
 40
2.5
 49
1.25
 49
-0.25
 49
0.25
 49
-0.25
 49
0.25
 49
-0.25
  0
LTYPE
  2
BORDER
 70
    64
  3
__ __ . __ __ . __ __ . __ __ . __ __ . __ __ .
 72
    65
 73
     6
 40
1.75
 49
0.5
 49
-0.25
 49
0.5
 49
-0.25
 49
0.0
 49
-0.25
  0
ENDTAB
  0
TABLE
  2
LAYER
 70
    16
  0
LAYER
  2
CSLAYER1
 70
    64
 62
     7
  6
CONTINUOUS
  0
LAYER
  2
CSLAYER2
 70
    64
 62
     7
  6
CONTINUOUS
  0
LAYER
  2
CSLAYER3
 70
    64
 62
     7
  6
CONTINUOUS
  0
LAYER
  2
CSLAYER4
 70
    64
 62
     7
  6
CONTINUOUS
  0
LAYER
  2
CSLAYER5
 70
    64
 62
     7
  6
CONTINUOUS
  0
LAYER
  2
CSLAYER6
 70
    64
 62
     7
  6
CONTINUOUS
  0
LAYER
  2
CSLAYER7
 70
    64
 62
     7
  6
CONTINUOUS
  0
LAYER
  2
CSLAYER8
 70
    64
 62
     7
  6
CONTINUOUS
  0
LAYER
  2
CSLAYER9
 70
    64
 62
     7
  6
CONTINUOUS
  0
LAYER
  2
CSLAYER10
 70
    64
 62
     7
  6
CONTINUOUS
  0
LAYER
  2
CSLAYER11
 70
    64
 62
     7
  6
CONTINUOUS
  0
LAYER
  2
CSLAYER12
 70
    64
 62
     7
  6
CONTINUOUS
  0
LAYER
  2
CSLAYER13
 70
    64
 62
     7
  6
CONTINUOUS
  0
LAYER
  2
CSLAYER14
 70
    64
 62
     7
  6
CONTINUOUS
  0
LAYER
  2
CSLAYER15
 70
    64
 62
     7
  6
CONTINUOUS
  0
LAYER
  2
CSLAYER16
 70
    64
 62
     7
  6
CONTINUOUS
  0
ENDTAB
  0
TABLE
  2
STYLE
 70
     1
  0
STYLE
  2
EASYDRAW_FONT
 70
     0
 40
1.0
 41
1.0
 50
0.0
 71
     0
 42
1.0
  3
monotxt
  4
bigfont
  0
ENDTAB
  0
TABLE
  2
VIEW
 70
     0
  0
ENDTAB
  0
ENDSEC
  0
SECTION
  2
BLOCKS
  0
BLOCK
  8
CSLAYER1
  2
EASYDRAWDIM0000
 70
   64
 10
0.0
 20
0.0
 30
0.0
  0
TEXT
  8
CSLAYER1
 62
     3
 10
2268.853271
 20
1696.106201
 40
40.000000
 41
0.843750
  1
900
 50
90.000000
 51
0.000000
  7
EASYDRAW_FONT
 72
     5
 11
2268.853271
 21
1786.106201
  0
LINE
  8
CSLAYER1
  6
CONTINUOUS
 62
     5
 10
2278.853264
 20
1291.106260
 11
2278.853264
 21
2191.106260
  0
LINE
  8
CSLAYER1
  6
CONTINUOUS
 62
     5
 10
2278.853264
 20
1291.106260
 11
2271.088693
 21
1320.084035
  0
LINE
  8
CSLAYER1
  6
CONTINUOUS
 62
     5
 10
2278.853264
 20
1291.106260
 11
2286.617836
 21
1320.084035
  0
LINE
  8
CSLAYER1
  6
CONTINUOUS
 62
     5
 10
2278.853264
 20
2191.106260
 11
2271.088693
 21
2162.128485
  0
LINE
  8
CSLAYER1
  6
CONTINUOUS
 62
     5
 10
2278.853264
 20
2191.106260
 11
2286.617836
 21
2162.128485
  0
ENDBLK
  8
0
  0
BLOCK
  8
CSLAYER1
  2
*D0000
 70
    65
 10
0.0
 20
0.0
 30
0.0
  0
TEXT
  8
CSLAYER1
 62
     3
 10
2268.653320
 20
375.059265
 40
40.000000
 41
0.843750
  1
155
 50
90.000000
 51
0.000000
  7
EASYDRAW_FONT
 72
     5
 11
2268.653320
 21
465.059265
  0
LINE
  8
CSLAYER1
  6
CONTINUOUS
 62
     5
 10
2188.653264
 20
497.559330
 11
2288.653264
 21
497.559330
  0
LINE
  8
CSLAYER1
  6
CONTINUOUS
 62
     5
 10
2278.653264
 20
342.559330
 11
2278.653264
 21
497.559330
  0
LINE
  8
CSLAYER1
  6
CONTINUOUS
 62
     5
 10
2278.653264
 20
342.559330
 11
2270.888693
 21
371.537104
  0
LINE
  8
CSLAYER1
  6
CONTINUOUS
 62
     5
 10
2278.653264
 20
342.559330
 11
2286.417836
 21
371.537104
  0
LINE
  8
CSLAYER1
  6
CONTINUOUS
 62
     5
 10
2278.653264
 20
497.559330
 11
2270.888693
 21
468.581555
  0
LINE
  8
CSLAYER1
  6
CONTINUOUS
 62
     5
 10
2278.653264
 20
497.559330
 11
2286.417836
 21
468.581555
  0
ENDBLK
  8
0
  0
BLOCK
  8
CSLAYER1
  2
*D0001
 70
    65
 10
0.0
 20
0.0
 30
0.0
  0
TEXT
  8
CSLAYER1
 62
     3
 10
2268.653320
 20
762.559265
 40
40.000000
 41
0.843750
  1
620
 50
90.000000
 51
0.000000
  7
EASYDRAW_FONT
 72
     5
 11
2268.653320
 21
852.559265
  0
LINE
  8
CSLAYER1
  6
CONTINUOUS
 62
     5
 10
2278.653264
 20
497.559330
 11
2278.653264
 21
1117.559330
  0
LINE
  8
CSLAYER1
  6
CONTINUOUS
 62
     5
 10
2278.653264
 20
497.559330
 11
2270.888693
 21
526.537104
  0
LINE
  8
CSLAYER1
  6
CONTINUOUS
 62
     5
 10
2278.653264
 20
497.559330
 11
2286.417836
 21
526.537104
  0
LINE
  8
CSLAYER1
  6
CONTINUOUS
 62
     5
 10
2278.653264
 20
1117.559330
 11
2270.888693
 21
1088.581555
  0
LINE
  8
CSLAYER1
  6
CONTINUOUS
 62
     5
 10
2278.653264
 20
1117.559330
 11
2286.417836
 21
1088.581555
  0
ENDBLK
  8
0
  0
BLOCK
  8
CSLAYER1
  2
*D0002
 70
    65
 10
0.0
 20
0.0
 30
0.0
  0
TEXT
  8
CSLAYER1
 62
     3
 10
2368.653320
 20
685.059265
 40
40.000000
 41
0.843750
  1
775
 50
90.000000
 51
0.000000
  7
EASYDRAW_FONT
 72
     5
 11
2368.653320
 21
775.059265
  0
LINE
  8
CSLAYER1
  6
CONTINUOUS
 62
     5
 10
2188.653264
 20
1117.559330
 11
2388.653264
 21
1117.559330
  0
LINE
  8
CSLAYER1
  6
CONTINUOUS
 62
     5
 10
2378.653264
 20
342.559330
 11
2378.653264
 21
1117.559330
  0
LINE
  8
CSLAYER1
  6
CONTINUOUS
 62
     5
 10
2378.653264
 20
342.559330
 11
2370.888693
 21
371.537104
  0
LINE
  8
CSLAYER1
  6
CONTINUOUS
 62
     5
 10
2378.653264
 20
342.559330
 11
2386.417836
 21
371.537104
  0
LINE
  8
CSLAYER1
  6
CONTINUOUS
 62
     5
 10
2378.653264
 20
1117.559330
 11
2370.888693
 21
1088.581555
  0
LINE
  8
CSLAYER1
  6
CONTINUOUS
 62
     5
 10
2378.653264
 20
1117.559330
 11
2386.417836
 21
1088.581555
  0
ENDBLK
  8
0
  0
BLOCK
  8
CSLAYER1
  2
*D0003
 70
    65
 10
0.0
 20
0.0
 30
0.0
  0
TEXT
  8
CSLAYER1
 62
     3
 10
1683.653320
 20
1227.559326
 40
40.000000
 41
0.843750
  1
900
 50
0.000000
 51
0.000000
  7
EASYDRAW_FONT
 72
     5
 11
1773.653320
 21
1227.559326
  0
LINE
  8
CSLAYER1
  6
CONTINUOUS
 62
     5
 10
1278.653264
 20
1127.559330
 11
1278.653264
 21
1227.559330
  0
LINE
  8
CSLAYER1
  6
CONTINUOUS
 62
     5
 10
2178.653264
 20
1127.559330
 11
2178.653264
 21
1227.559330
  0
LINE
  8
CSLAYER1
  6
CONTINUOUS
 62
     5
 10
1278.653264
 20
1217.559330
 11
2178.653264
 21
1217.559330
  0
LINE
  8
CSLAYER1
  6
CONTINUOUS
 62
     5
 10
1278.653264
 20
1217.559330
 11
1307.631039
 21
1225.323901
  0
LINE
  8
CSLAYER1
  6
CONTINUOUS
 62
     5
 10
1278.653264
 20
1217.559330
 11
1307.631039
 21
1209.794758
  0
LINE
  8
CSLAYER1
  6
CONTINUOUS
 62
     5
 10
2178.653264
 20
1217.559330
 11
2149.675489
 21
1225.323901
  0
LINE
  8
CSLAYER1
  6
CONTINUOUS
 62
     5
 10
2178.653264
 20
1217.559330
 11
2149.675489
 21
1209.794758
  0
ENDBLK
  8
0
  0
BLOCK
  8
CSLAYER1
  2
EASYDRAWDIM0001
 70
   64
 10
0.0
 20
0.0
 30
0.0
  0
TEXT
  8
CSLAYER1
 62
     3
 10
633.853271
 20
252.559280
 40
40.000000
 41
0.843750
  1
800
 50
0.000000
 51
0.000000
  7
EASYDRAW_FONT
 72
     5
 11
723.853271
 21
252.559280
  0
LINE
  8
CSLAYER1
  6
CONTINUOUS
 62
     5
 10
278.853264
 20
242.559330
 11
1078.853264
 21
242.559330
  0
LINE
  8
CSLAYER1
  6
CONTINUOUS
 62
     5
 10
278.853264
 20
242.559330
 11
307.831039
 21
250.323901
  0
LINE
  8
CSLAYER1
  6
CONTINUOUS
 62
     5
 10
278.853264
 20
242.559330
 11
307.831039
 21
234.794758
  0
LINE
  8
CSLAYER1
  6
CONTINUOUS
 62
     5
 10
1078.853264
 20
242.559330
 11
1049.875489
 21
250.323901
  0
LINE
  8
CSLAYER1
  6
CONTINUOUS
 62
     5
 10
1078.853264
 20
242.559330
 11
1049.875489
 21
234.794758
  0
ENDBLK
  8
0
  0
BLOCK
  8
CSLAYER1
  2
*D0004
 70
    65
 10
0.0
 20
0.0
 30
0.0
  0
TEXT
  8
CSLAYER1
 62
     3
 10
1683.853394
 20
252.559280
 40
40.000000
 41
0.843750
  1
900
 50
0.000000
 51
0.000000
  7
EASYDRAW_FONT
 72
     5
 11
1773.853394
 21
252.559280
  0
LINE
  8
CSLAYER1
  6
CONTINUOUS
 62
     5
 10
1278.853264
 20
332.559330
 11
1278.853264
 21
232.559330
  0
LINE
  8
CSLAYER1
  6
CONTINUOUS
 62
     5
 10
2178.853264
 20
332.559330
 11
2178.853264
 21
232.559330
  0
LINE
  8
CSLAYER1
  6
CONTINUOUS
 62
     5
 10
1278.853264
 20
242.559330
 11
2178.853264
 21
242.559330
  0
LINE
  8
CSLAYER1
  6
CONTINUOUS
 62
     5
 10
1278.853264
 20
242.559330
 11
1307.831039
 21
250.323901
  0
LINE
  8
CSLAYER1
  6
CONTINUOUS
 62
     5
 10
1278.853264
 20
242.559330
 11
1307.831039
 21
234.794758
  0
LINE
  8
CSLAYER1
  6
CONTINUOUS
 62
     5
 10
2178.853264
 20
242.559330
 11
2149.875489
 21
250.323901
  0
LINE
  8
CSLAYER1
  6
CONTINUOUS
 62
     5
 10
2178.853264
 20
242.559330
 11
2149.875489
 21
234.794758
  0
ENDBLK
  8
0
  0
BLOCK
  8
CSLAYER1
  2
BLKF0000
 70
   64
 10
0.0
 20
0.0
 30
0.0
  0
ARC
  8
CSLAYER1
  6
CONTINUOUS
 62
     5
 10
2781.909508
 20
79.335220
 40
3.549225
 50
6.429109
 51
73.182034
  0
ARC
  8
CSLAYER1
  6
CONTINUOUS
 62
     5
 10
2778.448538
 20
78.176827
 40
6.907754
 50
310.517970
 51
330.092764
  0
ARC
  8
CSLAYER1
  6
CONTINUOUS
 62
     5
 10
2778.387888
 20
78.542345
 40
7.148321
 50
-32.205059
 51
9.585194
  0
ARC
  8
CSLAYER1
  6
CONTINUOUS
 62
     5
 10
2781.680616
 20
75.781346
 40
4.767514
 50
180.000000
 51
218.514150
  0
ARC
  8
CSLAYER1
  6
CONTINUOUS
 62
     5
 10
2780.393895
 20
75.104206
 40
3.348282
 50
222.781148
 51
319.406906
  0
ARC
  8
CSLAYER1
  6
CONTINUOUS
 62
     5
 10
2783.459537
 20
76.194099
 40
6.559434
 50
94.574282
 51
183.607718
  0
LINE
  8
CSLAYER1
  6
CONTINUOUS
 62
     5
 10
2796.903443
 20
71.077266
 11
2796.046407
 21
68.038683
  0
LINE
  8
CSLAYER1
  6
CONTINUOUS
 62
     5
 10
2798.695428
 20
90.944924
 11
2796.591794
 21
93.671857
  0
LINE
  8
CSLAYER1
  6
CONTINUOUS
 62
     5
 10
2796.591794
 20
93.671857
 11
2789.838440
 21
97.429769
  0
LINE
  8
CSLAYER1
  6
CONTINUOUS
 62
     5
 10
2789.838440
 20
97.429769
 11
2782.936412
 21
98.232640
  0
LINE
  8
CSLAYER1
  6
CONTINUOUS
 62
     5
 10
2764.647187
 20
84.853966
 11
2766.793881
 21
89.818197
  0
LINE
  8
CSLAYER1
  6
CONTINUOUS
 62
     5
 10
2766.756884
 20
89.732640
 11
2768.940576
 21
92.367396
  0
LINE
  8
CSLAYER1
  6
CONTINUOUS
 62
     5
 10
2768.940576
 20
92.367396
 11
2772.244998
 21
94.732640
  0
LINE
  8
CSLAYER1
  6
CONTINUOUS
 62
     5
 10
2782.936412
 20
98.232640
 11
2781.418237
 21
97.465795
  0
LINE
  8
CSLAYER1
  6
CONTINUOUS
 62
     5
 10
2781.418237
 20
97.465795
 11
2777.929858
 21
97.465795
  0
LINE
  8
CSLAYER1
  6
CONTINUOUS
 62
     5
 10
2777.929858
 20
97.465795
 11
2774.374396
 21
95.520354
  0
LINE
  8
CSLAYER1
  6
CONTINUOUS
 62
     5
 10
2774.374396
 20
95.520354
 11
2772.244998
 21
94.732640
  0
LINE
  8
CSLAYER1
  6
CONTINUOUS
 62
     5
 10
2764.647187
 20
84.853966
 11
2763.129640
 21
77.305363
  0
LINE
  8
CSLAYER1
  6
CONTINUOUS
 62
     5
 10
2763.129640
 20
77.305363
 11
2762.936412
 21
74.732640
  0
LINE
  8
CSLAYER1
  6
CONTINUOUS
 62
     5
 10
2765.645795
 20
66.892857
 11
2762.936412
 21
72.988969
  0
LINE
  8
CSLAYER1
  6
CONTINUOUS
 62
     5
 10
2762.936412
 20
72.988969
 11
2762.936412
 21
74.732640
  0
LINE
  8
CSLAYER1
  6
CONTINUOUS
 62
     5
 10
2796.046407
 20
68.038683
 11
2794.360620
 21
65.035677
  0
LINE
  8
CSLAYER1
  6
CONTINUOUS
 62
     5
 10
2794.360620
 20
65.035677
 11
2792.936412
 21
63.716966
  0
ARC
  8
CSLAYER1
  6
CONTINUOUS
 62
     5
 10
2780.744468
 20
75.269400
 40
17.266626
 50
208.054813
 51
260.640470
  0
ARC
  8
CSLAYER1
  6
CONTINUOUS
 62
     5
 10
2775.551072
 20
88.011870
 40
29.874611
 50
274.579659
 51
305.587364
  0
ARC
  8
CSLAYER1
  6
CONTINUOUS
 62
     5
 10
2786.523421
 20
82.028147
 40
15.088627
 50
313.467013
 51
331.085078
  0
LINE
  8
CSLAYER1
  6
CONTINUOUS
 62
     5
 10
2801.314754
 20
78.246061
 11
2801.612048
 21
82.028147
  0
LINE
  8
CSLAYER1
  6
CONTINUOUS
 62
     5
 10
2801.612048
 20
82.028147
 11
2800.320051
 21
88.137130
  0
LINE
  8
CSLAYER1
  6
CONTINUOUS
 62
     5
 10
2801.314754
 20
78.246061
 11
2799.731079
 21
74.732640
  0
ARC
  8
CSLAYER1
  6
CONTINUOUS
 62
     5
 10
2786.523421
 20
82.028147
 40
15.088627
 50
23.883193
 51
36.225170
  0
LINE
  8
CSLAYER1
  6
CONTINUOUS
 62
     5
 10
2746.936412
 20
109.732640
 11
2747.936412
 21
110.825284
  0
LINE
  8
CSLAYER1
  6
CONTINUOUS
 62
     5
 10
2746.936412
 20
109.732640
 11
2748.513370
 21
108.287607
  0
LINE
  8
CSLAYER1
  6
CONTINUOUS
 62
     5
 10
2750.052583
 20
106.178315
 11
2750.078851
 21
104.010196
  0
LINE
  8
CSLAYER1
  6
CONTINUOUS
 62
     5
 10
2750.078851
 20
104.010196
 11
2750.286249
 21
103.249737
  0
LINE
  8
CSLAYER1
  6
CONTINUOUS
 62
     5
 10
2750.286249
 20
103.249737
 11
2750.873877
 21
102.523844
  0
LINE
  8
CSLAYER1
  6
CONTINUOUS
 62
     5
 10
2750.873877
 20
102.523844
 11
2751.461504
 21
102.592977
  0
LINE
  8
CSLAYER1
  6
CONTINUOUS
 62
     5
 10
2751.461504
 20
102.592977
 11
2752.083698
 21
102.765808
  0
LINE
  8
CSLAYER1
  6
CONTINUOUS
 62
     5
 10
2752.083698
 20
102.765808
 11
2752.498494
 21
102.592977
  0
LINE
  8
CSLAYER1
  6
CONTINUOUS
 62
     5
 10
2752.498494
 20
102.592977
 11
2753.397219
 21
102.143614
  0
LINE
  8
CSLAYER1
  6
CONTINUOUS
 62
     5
 10
2753.397219
 20
102.143614
 11
2754.173270
 21
101.732640
  0
LINE
  8
CSLAYER1
  6
CONTINUOUS
 62
     5
 10
2754.173270
 20
101.732640
 11
2754.676173
 21
101.763385
  0
LINE
  8
CSLAYER1
  6
CONTINUOUS
 62
     5
 10
2754.676173
 20
101.763385
 11
2757.484045
 21
103.209864
  0
LINE
  8
CSLAYER1
  6
CONTINUOUS
 62
     5
 10
2747.936412
 20
110.825284
 11
2748.269264
 21
112.298991
  0
LINE
  8
CSLAYER1
  6
CONTINUOUS
 62
     5
 10
2748.269264
 20
112.298991
 11
2749.722669
 21
112.449344
  0
LINE
  8
CSLAYER1
  6
CONTINUOUS
 62
     5
 10
2751.216428
 20
115.217802
 11
2752.970601
 21
115.374892
  0
LINE
  8
CSLAYER1
  6
CONTINUOUS
 62
     5
 10
2752.970601
 20
115.374892
 11
2756.505128
 21
116.212706
  0
LINE
  8
CSLAYER1
  6
CONTINUOUS
 62
     5
 10
2756.505128
 20
116.212706
 11
2757.936412
 21
116.544345
  0
LINE
  8
CSLAYER1
  6
CONTINUOUS
 62
     5
 10
2751.216428
 20
115.217802
 11
2749.283537
 21
115.376670
  0
LINE
  8
CSLAYER1
  6
CONTINUOUS
 62
     5
 10
2748.547414
 20
114.507983
 11
2748.640939
 21
114.136822
  0
LINE
  8
CSLAYER1
  6
CONTINUOUS
 62
     5
 10
2748.640939
 20
114.136822
 11
2749.132533
 21
113.599141
  0
LINE
  8
CSLAYER1
  6
CONTINUOUS
 62
     5
 10
2749.132533
 20
113.599141
 11
2749.808475
 21
113.092184
  0
LINE
  8
CSLAYER1
  6
CONTINUOUS
 62
     5
 10
2749.808475
 20
113.092184
 11
2749.931800
 21
112.927751
  0
LINE
  8
CSLAYER1
  6
CONTINUOUS
 62
     5
 10
2748.513370
 20
108.287607
 11
2750.052583
 21
106.178315
  0
ARC
  8
CSLAYER1
  6
CONTINUOUS
 62
     5
 10
2792.923113
 20
-61.926013
 40
180.727463
 50
80.438896
 51
96.353582
  0
ARC
  8
CSLAYER1
  6
CONTINUOUS
 62
     5
 10
2768.024200
 20
83.321887
 40
34.720242
 50
81.866516
 51
106.890578
  0
LINE
  8
CSLAYER1
  6
CONTINUOUS
 62
     5
 10
2827.130674
 20
115.499310
 11
2829.377756
 21
114.477909
  0
LINE
  8
CSLAYER1
  6
CONTINUOUS
 62
     5
 10
2832.952661
 20
112.894737
 11
2829.377756
 21
114.477909
  0
LINE
  8
CSLAYER1
  6
CONTINUOUS
 62
     5
 10
2827.130674
 20
115.499310
 11
2822.936412
 21
116.291881
  0
LINE
  8
CSLAYER1
  6
CONTINUOUS
 62
     5
 10
2832.936412
 20
112.901933
 11
2834.807988
 21
111.333456
  0
LINE
  8
CSLAYER1
  6
CONTINUOUS
 62
     5
 10
2816.179668
 20
113.938783
 11
2817.078943
 21
115.391458
  0
LINE
  8
CSLAYER1
  6
CONTINUOUS
 62
     5
 10
2817.078943
 20
115.391458
 11
2821.754542
 21
114.271949
  0
LINE
  8
CSLAYER1
  6
CONTINUOUS
 62
     5
 10
2821.754542
 20
114.271949
 11
2838.496928
 21
109.732640
  0
LINE
  8
CSLAYER1
  6
CONTINUOUS
 62
     5
 10
2841.436412
 20
109.732640
 11
2834.807988
 21
111.333456
  0
LINE
  8
CSLAYER1
  6
CONTINUOUS
 62
     5
 10
2838.496928
 20
109.732640
 11
2841.436412
 21
109.732640
  0
LINE
  8
CSLAYER1
  6
CONTINUOUS
 62
     5
 10
2782.936412
 20
114.197581
 11
2802.936412
 21
114.732640
  0
LINE
  8
CSLAYER1
  6
CONTINUOUS
 62
     5
 10
2802.936412
 20
114.732640
 11
2816.179668
 21
113.938783
  0
LINE
  8
CSLAYER1
  6
CONTINUOUS
 62
     5
 10
2817.782649
 20
111.878304
 11
2802.936412
 21
113.232640
  0
LINE
  8
CSLAYER1
  6
CONTINUOUS
 62
     5
 10
2802.936412
 20
113.232640
 11
2787.887203
 21
113.641292
  0
LINE
  8
CSLAYER1
  6
CONTINUOUS
 62
     5
 10
2787.936412
 20
113.639956
 11
2782.936412
 21
113.735249
  0
LINE
  8
CSLAYER1
  6
CONTINUOUS
 62
     5
 10
2782.936412
 20
114.197581
 11
2782.936412
 21
113.735249
  0
LINE
  8
CSLAYER1
  6
CONTINUOUS
 62
     5
 10
2840.436412
 20
106.232640
 11
2831.593854
 21
108.543302
  0
LINE
  8
CSLAYER1
  6
CONTINUOUS
 62
     5
 10
2817.782649
 20
111.878304
 11
2827.936412
 21
109.905920
  0
LINE
  8
CSLAYER1
  6
CONTINUOUS
 62
     5
 10
2827.936412
 20
109.905920
 11
2831.593854
 21
108.543302
  0
LINE
  8
CSLAYER1
  6
CONTINUOUS
 62
     5
 10
2840.436412
 20
106.232640
 11
2840.143795
 21
105.393534
  0
LINE
  8
CSLAYER1
  6
CONTINUOUS
 62
     5
 10
2849.936412
 20
100.732640
 11
2849.630385
 21
101.961621
  0
LINE
  8
CSLAYER1
  6
CONTINUOUS
 62
     5
 10
2840.143795
 20
105.393534
 11
2849.630385
 21
101.961621
  0
LINE
  8
CSLAYER1
  6
CONTINUOUS
 62
     5
 10
2786.436412
 20
106.232640
 11
2788.859450
 21
106.232640
  0
LINE
  8
CSLAYER1
  6
CONTINUOUS
 62
     5
 10
2808.936412
 20
106.665135
 11
2808.936412
 21
106.232640
  0
LINE
  8
CSLAYER1
  6
CONTINUOUS
 62
     5
 10
2807.936412
 20
107.199576
 11
2806.225133
 21
107.836755
  0
LINE
  8
CSLAYER1
  6
CONTINUOUS
 62
     5
 10
2806.225133
 20
107.836755
 11
2805.115077
 21
107.887212
  0
LINE
  8
CSLAYER1
  6
CONTINUOUS
 62
     5
 10
2805.115077
 20
107.887212
 11
2804.635735
 21
107.634926
  0
LINE
  8
CSLAYER1
  6
CONTINUOUS
 62
     5
 10
2804.635735
 20
107.634926
 11
2804.534821
 21
107.231270
  0
LINE
  8
CSLAYER1
  6
CONTINUOUS
 62
     5
 10
2804.534821
 20
107.231270
 11
2804.988934
 21
106.928527
  0
LINE
  8
CSLAYER1
  6
CONTINUOUS
 62
     5
 10
2804.988934
 20
106.928527
 11
2806.628790
 21
106.777156
  0
LINE
  8
CSLAYER1
  6
CONTINUOUS
 62
     5
 10
2806.628790
 20
106.777156
 11
2808.936412
 21
106.665135
  0
LINE
  8
CSLAYER1
  6
CONTINUOUS
 62
     5
 10
2849.936412
 20
100.732640
 11
2846.960870
 21
101.919221
  0
LINE
  8
CSLAYER1
  6
CONTINUOUS
 62
     5
 10
2846.960870
 20
101.919221
 11
2836.905180
 21
103.762097
  0
LINE
  8
CSLAYER1
  6
CONTINUOUS
 62
     5
 10
2836.905180
 20
103.762097
 11
2831.879400
 21
104.921892
  0
LINE
  8
CSLAYER1
  6
CONTINUOUS
 62
     5
 10
2809.470633
 20
107.232640
 11
2821.236299
 21
107.232640
  0
LINE
  8
CSLAYER1
  6
CONTINUOUS
 62
     5
 10
2807.936412
 20
107.199576
 11
2808.461072
 21
106.891109
  0
LINE
  8
CSLAYER1
  6
CONTINUOUS
 62
     5
 10
2808.461072
 20
106.891109
 11
2808.757884
 21
106.802065
  0
LINE
  8
CSLAYER1
  6
CONTINUOUS
 62
     5
 10
2808.757884
 20
106.802065
 11
2808.936412
 21
106.827236
  0
LINE
  8
CSLAYER1
  6
CONTINUOUS
 62
     5
 10
2808.936412
 20
106.827236
 11
2809.470633
 21
107.232640
  0
LINE
  8
CSLAYER1
  6
CONTINUOUS
 62
     5
 10
2821.236299
 20
107.232640
 11
2825.686568
 21
106.203814
  0
LINE
  8
CSLAYER1
  6
CONTINUOUS
 62
     5
 10
2825.686568
 20
106.203814
 11
2829.839760
 21
105.038665
  0
LINE
  8
CSLAYER1
  6
CONTINUOUS
 62
     5
 10
2829.839760
 20
105.038665
 11
2831.879400
 21
104.921892
  0
LINE
  8
CSLAYER1
  6
CONTINUOUS
 62
     5
 10
2785.436412
 20
105.232640
 11
2785.436412
 21
104.732640
  0
LINE
  8
CSLAYER1
  6
CONTINUOUS
 62
     5
 10
2782.936412
 20
104.732640
 11
2785.436412
 21
104.732640
  0
ARC
  8
CSLAYER1
  6
CONTINUOUS
 62
     5
 10
2786.436412
 20
105.232640
 40
1.000000
 50
90.000000
 51
180.000000
  0
LINE
  8
CSLAYER1
  6
CONTINUOUS
 62
     5
 10
2788.859450
 20
106.232640
 11
2789.557007
 21
105.660643
  0
LINE
  8
CSLAYER1
  6
CONTINUOUS
 62
     5
 10
2790.159375
 20
105.636683
 11
2791.016972
 21
106.232640
  0
LINE
  8
CSLAYER1
  6
CONTINUOUS
 62
     5
 10
2792.595368
 20
106.232640
 11
2794.262494
 21
105.574564
  0
LINE
  8
CSLAYER1
  6
CONTINUOUS
 62
     5
 10
2794.686203
 20
105.601076
 11
2795.839690
 21
106.232640
  0
LINE
  8
CSLAYER1
  6
CONTINUOUS
 62
     5
 10
2791.016972
 20
106.232640
 11
2792.595368
 21
106.232640
  0
LINE
  8
CSLAYER1
  6
CONTINUOUS
 62
     5
 10
2795.839690
 20
106.232640
 11
2808.936412
 21
106.232640
  0
LINE
  8
CSLAYER1
  6
CONTINUOUS
 62
     5
 10
2761.485395
 20
103.123813
 11
2782.936412
 21
104.732640
  0
LINE
  8
CSLAYER1
  6
CONTINUOUS
 62
     5
 10
2757.484045
 20
103.209864
 11
2761.485395
 21
103.123813
  0
ARC
  8
CSLAYER1
  6
CONTINUOUS
 62
     5
 10
2789.874047
 20
106.047277
 40
0.500000
 50
230.648247
 51
304.796026
  0
ARC
  8
CSLAYER1
  6
CONTINUOUS
 62
     5
 10
2794.446077
 20
106.039642
 40
0.500000
 50
248.459024
 51
298.701829
  0
ARC
  8
CSLAYER1
  6
CONTINUOUS
 62
     5
 10
2749.691800
 20
112.747751
 40
0.300000
 50
-84.093859
 51
36.869898
  0
ARC
  8
CSLAYER1
  6
CONTINUOUS
 62
     5
 10
2749.226196
 20
114.679023
 40
0.700000
 50
85.301319
 51
194.142980
  0
LINE
  8
CSLAYER1
  6
CONTINUOUS
 62
     3
 10
2781.418237
 20
97.465795
 11
2789.528732
 21
97.465795
  0
LINE
  8
CSLAYER1
  6
CONTINUOUS
 62
     3
 10
2775.005720
 20
95.865795
 11
2792.649061
 21
95.865795
  0
LINE
  8
CSLAYER1
  6
CONTINUOUS
 62
     3
 10
2771.592781
 20
94.265795
 11
2795.524426
 21
94.265795
  0
LINE
  8
CSLAYER1
  6
CONTINUOUS
 62
     3
 10
2769.357462
 20
92.665795
 11
2797.367899
 21
92.665795
  0
LINE
  8
CSLAYER1
  6
CONTINUOUS
 62
     3
 10
2767.861806
 20
91.065795
 11
2798.602184
 21
91.065795
  0
LINE
  8
CSLAYER1
  6
CONTINUOUS
 62
     3
 10
2766.641492
 20
89.465795
 11
2799.651561
 21
89.465795
  0
LINE
  8
CSLAYER1
  6
CONTINUOUS
 62
     3
 10
2765.949600
 20
87.865795
 11
2800.377436
 21
87.865795
  0
LINE
  8
CSLAYER1
  6
CONTINUOUS
 62
     3
 10
2765.257708
 20
86.265795
 11
2800.715822
 21
86.265795
  0
LINE
  8
CSLAYER1
  6
CONTINUOUS
 62
     3
 10
2764.609358
 20
84.665795
 11
2801.054208
 21
84.665795
  0
LINE
  8
CSLAYER1
  6
CONTINUOUS
 62
     3
 10
2764.287699
 20
83.065795
 11
2801.392594
 21
83.065795
  0
LINE
  8
CSLAYER1
  6
CONTINUOUS
 62
     3
 10
2763.966040
 20
81.465795
 11
2779.556283
 21
81.465795
  0
LINE
  8
CSLAYER1
  6
CONTINUOUS
 62
     3
 10
2763.644381
 20
79.865795
 11
2778.024022
 21
79.865795
  0
LINE
  8
CSLAYER1
  6
CONTINUOUS
 62
     3
 10
2763.322722
 20
78.265795
 11
2777.235852
 21
78.265795
  0
LINE
  8
CSLAYER1
  6
CONTINUOUS
 62
     3
 10
2763.081604
 20
76.665795
 11
2776.917085
 21
76.665795
  0
LINE
  8
CSLAYER1
  6
CONTINUOUS
 62
     3
 10
2762.961434
 20
75.065795
 11
2776.967106
 21
75.065795
  0
LINE
  8
CSLAYER1
  6
CONTINUOUS
 62
     3
 10
2762.936412
 20
73.465795
 11
2777.513193
 21
73.465795
  0
LINE
  8
CSLAYER1
  6
CONTINUOUS
 62
     3
 10
2763.435600
 20
71.865795
 11
2779.543195
 21
71.865795
  0
LINE
  8
CSLAYER1
  6
CONTINUOUS
 62
     3
 10
2764.146711
 20
70.265795
 11
2796.674567
 21
70.265795
  0
LINE
  8
CSLAYER1
  6
CONTINUOUS
 62
     3
 10
2764.857823
 20
68.665795
 11
2796.223285
 21
68.665795
  0
LINE
  8
CSLAYER1
  6
CONTINUOUS
 62
     3
 10
2765.568934
 20
67.065795
 11
2795.500261
 21
67.065795
  0
LINE
  8
CSLAYER1
  6
CONTINUOUS
 62
     3
 10
2766.530893
 20
65.465795
 11
2794.602074
 21
65.465795
  0
LINE
  8
CSLAYER1
  6
CONTINUOUS
 62
     3
 10
2767.779354
 20
63.865795
 11
2793.097148
 21
63.865795
  0
LINE
  8
CSLAYER1
  6
CONTINUOUS
 62
     3
 10
2769.384774
 20
62.265795
 11
2790.704687
 21
62.265795
  0
LINE
  8
CSLAYER1
  6
CONTINUOUS
 62
     3
 10
2771.531916
 20
60.665795
 11
2787.579564
 21
60.665795
  0
LINE
  8
CSLAYER1
  6
CONTINUOUS
 62
     3
 10
2774.779606
 20
59.065795
 11
2782.941415
 21
59.065795
  0
LINE
  8
CSLAYER1
  6
CONTINUOUS
 62
     3
 10
2784.748107
 20
81.465795
 11
2801.567844
 21
81.465795
  0
LINE
  8
CSLAYER1
  6
CONTINUOUS
 62
     3
 10
2785.418851
 20
79.865795
 11
2801.442074
 21
79.865795
  0
LINE
  8
CSLAYER1
  6
CONTINUOUS
 62
     3
 10
2785.530858
 20
78.265795
 11
2801.316305
 21
78.265795
  0
LINE
  8
CSLAYER1
  6
CONTINUOUS
 62
     3
 10
2785.285501
 20
76.665795
 11
2800.602449
 21
76.665795
  0
LINE
  8
CSLAYER1
  6
CONTINUOUS
 62
     3
 10
2784.633855
 20
75.065795
 11
2799.881249
 21
75.065795
  0
LINE
  8
CSLAYER1
  6
CONTINUOUS
 62
     3
 10
2783.500592
 20
73.465795
 11
2798.947301
 21
73.465795
  0
LINE
  8
CSLAYER1
  6
CONTINUOUS
 62
     3
 10
2781.244595
 20
71.865795
 11
2797.676594
 21
71.865795
  0
TEXT
  8
CSLAYER1
 62
     5
 10
2802.108183
 20
79.476970
 40
4.713448
 41
1.951056
  1
M
 50
0.000000
 51
0.000000
  7
EASYDRAW_FONT
 72
     5
 11
2808.238985
 21
79.476970
  0
TEXT
  8
CSLAYER1
 62
     5
 10
2811.759570
 20
79.418700
 40
4.626621
 41
0.778201
  1
T
 50
0.000000
 51
0.000000
  7
EASYDRAW_FONT
 72
     5
 11
2814.159863
 21
79.418700
  0
TEXT
  8
CSLAYER1
 62
     5
 10
2814.525133
 20
79.453499
 40
4.696183
 41
1.055553
  1
E
 50
0.000000
 51
0.000000
  7
EASYDRAW_FONT
 72
     5
 11
2817.829848
 21
79.453499
  0
TEXT
  8
CSLAYER1
 62
     5
 10
2817.641314
 20
81.069343
 40
0.348283
 41
9.375319
  1
-
 50
0.000000
 51
0.000000
  7
EASYDRAW_FONT
 72
     5
 11
2819.818159
 21
81.069343
  0
TEXT
  8
CSLAYER1
 62
     5
 10
2819.455523
 20
79.422152
 40
4.861659
 41
1.298502
  1
H
 50
0.000000
 51
0.000000
  7
EASYDRAW_FONT
 72
     5
 11
2823.664106
 21
79.422152
  0
TEXT
  8
CSLAYER1
 62
     5
 10
2823.531538
 20
79.452530
 40
4.843139
 41
1.269236
  1
A
 50
0.000000
 51
0.000000
  7
EASYDRAW_FONT
 72
     5
 11
2827.629595
 21
79.452530
  0
TEXT
  8
CSLAYER1
 62
     5
 10
2827.237694
 20
79.411004
 40
4.825362
 41
1.490144
  1
N
 50
0.000000
 51
0.000000
  7
EASYDRAW_FONT
 72
     5
 11
2832.031349
 21
79.411004
  0
TEXT
  8
CSLAYER1
 62
     5
 10
2808.029152
 20
79.388431
 40
4.982325
 41
1.177443
  1
A
 50
0.000000
 51
0.000000
  7
EASYDRAW_FONT
 72
     5
 11
2811.940086
 21
79.388431
  0
TEXT
  8
CSLAYER1
 62
     5
 10
2802.475197
 20
72.393191
 40
4.982325
 41
1.177443
  1
A
 50
0.000000
 51
0.000000
  7
EASYDRAW_FONT
 72
     5
 11
2806.386131
 21
72.393191
  0
TEXT
  8
CSLAYER1
 62
     5
 10
2815.259621
 20
72.421512
 40
4.982325
 41
1.177443
  1
A
 50
0.000000
 51
0.000000
  7
EASYDRAW_FONT
 72
     5
 11
2819.170555
 21
72.421512
  0
TEXT
  8
CSLAYER1
 62
     5
 10
2819.020165
 20
72.478509
 40
4.825362
 41
1.490144
  1
N
 50
0.000000
 51
0.000000
  7
EASYDRAW_FONT
 72
     5
 11
2823.813819
 21
72.478509
  0
TEXT
  8
CSLAYER1
 62
     5
 10
2827.922501
 20
72.486903
 40
4.841775
 41
1.184218
  1
E
 50
0.000000
 51
0.000000
  7
EASYDRAW_FONT
 72
     5
 11
2831.744980
 21
72.486903
  0
TEXT
  8
CSLAYER1
 62
     5
 10
2806.755750
 20
72.391867
 40
4.947865
 41
1.093992
  1
D
 50
0.000000
 51
0.000000
  7
EASYDRAW_FONT
 72
     5
 11
2810.364367
 21
72.391867
  0
TEXT
  8
CSLAYER1
 62
     5
 10
2811.158109
 20
72.386482
 40
4.924210
 41
1.228195
  1
V
 50
0.000000
 51
0.000000
  7
EASYDRAW_FONT
 72
     5
 11
2815.190036
 21
72.386482
  0
TEXT
  8
CSLAYER1
 62
     5
 10
2823.383310
 20
72.407213
 40
5.032894
 41
1.481023
  1
C
 50
0.000000
 51
0.000000
  7
EASYDRAW_FONT
 72
     5
 11
2828.352530
 21
72.407213
  0
LINE
  8
CSLAYER1
  6
CONTINUOUS
 62
     5
 10
2814.013749
 20
83.467612
 11
2813.001687
 21
83.467612
  0
LINE
  8
CSLAYER1
  6
CONTINUOUS
 62
     3
 10
2763.111987
 20
117.692883
 11
2812.909813
 21
117.692883
  0
LINE
  8
CSLAYER1
  6
CONTINUOUS
 62
     3
 10
2755.999623
 20
116.092883
 11
2823.989505
 21
116.092883
  0
LINE
  8
CSLAYER1
  6
CONTINUOUS
 62
     3
 10
2748.551219
 20
114.492883
 11
2793.974529
 21
114.492883
  0
LINE
  8
CSLAYER1
  6
CONTINUOUS
 62
     3
 10
2806.936079
 20
114.492883
 11
2816.522682
 21
114.492883
  0
LINE
  8
CSLAYER1
  6
CONTINUOUS
 62
     3
 10
2820.831816
 20
114.492883
 11
2829.344813
 21
114.492883
  0
LINE
  8
CSLAYER1
  6
CONTINUOUS
 62
     3
 10
2749.954358
 20
112.892883
 11
2806.660827
 21
112.892883
  0
LINE
  8
CSLAYER1
  6
CONTINUOUS
 62
     3
 10
2826.840965
 20
112.892883
 11
2832.947211
 21
112.892883
  0
LINE
  8
CSLAYER1
  6
CONTINUOUS
 62
     3
 10
2748.042024
 20
111.292883
 11
2820.796375
 21
111.292883
  0
LINE
  8
CSLAYER1
  6
CONTINUOUS
 62
     3
 10
2832.742264
 20
111.292883
 11
2834.975986
 21
111.292883
  0
LINE
  8
CSLAYER1
  6
CONTINUOUS
 62
     3
 10
2746.979799
 20
109.692883
 11
2828.508231
 21
109.692883
  0
LINE
  8
CSLAYER1
  6
CONTINUOUS
 62
     3
 10
2748.655466
 20
108.092883
 11
2833.317540
 21
108.092883
  0
LINE
  8
CSLAYER1
  6
CONTINUOUS
 62
     3
 10
2749.823033
 20
106.492883
 11
2808.936412
 21
106.492883
  0
LINE
  8
CSLAYER1
  6
CONTINUOUS
 62
     3
 10
2824.436177
 20
106.492883
 11
2839.440500
 21
106.492883
  0
LINE
  8
CSLAYER1
  6
CONTINUOUS
 62
     3
 10
2750.068157
 20
104.892883
 11
2785.436412
 21
104.892883
  0
LINE
  8
CSLAYER1
  6
CONTINUOUS
 62
     3
 10
2832.005106
 20
104.892883
 11
2841.527709
 21
104.892883
  0
LINE
  8
CSLAYER1
  6
CONTINUOUS
 62
     3
 10
2750.274482
 20
103.292883
 11
2763.739655
 21
103.292883
  0
LINE
  8
CSLAYER1
  6
CONTINUOUS
 62
     3
 10
2839.465455
 20
103.292883
 11
2845.950473
 21
103.292883
  0
LINE
  8
CSLAYER1
  6
CONTINUOUS
 62
     3
 10
2847.528449
 20
101.692883
 11
2849.697303
 21
101.692883
  0
ENDBLK
  8
0
  0
BLOCK
  8
CSLAYER1
  2
BLKF0001
 70
   64
 10
0.0
 20
0.0
 30
0.0
  0
LINE
  8
CSLAYER1
  6
CONTINUOUS
 62
     3
 10
851.853264
 20
1557.606260
 11
851.853264
 21
1495.606260
  0
LINE
  8
CSLAYER1
  6
CONTINUOUS
 62
     3
 10
849.353264
 20
1560.106260
 11
764.353264
 21
1560.106260
  0
LINE
  8
CSLAYER1
  6
CENTER
 62
     5
 10
910.202903
 20
1487.606260
 11
851.853264
 21
1487.606260
  0
LINE
  8
CSLAYER1
  6
CONTINUOUS
 62
     2
 10
849.353264
 20
1503.606260
 11
764.353264
 21
1503.606260
  0
LINE
  8
CSLAYER1
  6
CONTINUOUS
 62
     3
 10
849.353264
 20
1555.106260
 11
849.353264
 21
1510.106260
  0
LINE
  8
CSLAYER1
  6
CONTINUOUS
 62
     3
 10
761.853264
 20
1557.606260
 11
761.853264
 21
1487.606260
  0
LINE
  8
CSLAYER1
  6
CONTINUOUS
 62
     3
 10
846.853264
 20
1557.606260
 11
769.853264
 21
1557.606260
  0
LINE
  8
CSLAYER1
  6
CONTINUOUS
 62
     3
 10
846.853264
 20
1507.606260
 11
769.853264
 21
1507.606260
  0
ARC
  8
CSLAYER1
  6
CONTINUOUS
 62
     3
 10
823.921446
 20
1532.606260
 40
59.568182
 50
155.185163
 51
204.814837
  0
ARC
  8
CSLAYER1
  6
CONTINUOUS
 62
     3
 10
846.853264
 20
1555.106260
 40
2.500000
 50
0.000000
 51
90.000000
  0
ARC
  8
CSLAYER1
  6
CONTINUOUS
 62
     3
 10
846.853264
 20
1510.106260
 40
2.500000
 50
-90.000000
 51
0.000000
  0
ARC
  8
CSLAYER1
  6
CONTINUOUS
 62
     3
 10
849.353264
 20
1557.606260
 40
2.500000
 50
0.000000
 51
90.000000
  0
ARC
  8
CSLAYER1
  6
CONTINUOUS
 62
     3
 10
764.353264
 20
1557.606260
 40
2.500000
 50
90.000000
 51
180.000000
  0
ARC
  8
CSLAYER1
  6
CONTINUOUS
 62
     2
 10
764.353264
 20
1501.106260
 40
2.500000
 50
90.000000
 51
180.000000
  0
ARC
  8
CSLAYER1
  6
CONTINUOUS
 62
     2
 10
849.353264
 20
1501.106260
 40
2.500000
 50
0.000000
 51
90.000000
  0
LINE
  8
CSLAYER1
  6
CONTINUOUS
 62
     3
 10
851.853264
 20
1417.606260
 11
851.853264
 21
1479.606260
  0
LINE
  8
CSLAYER1
  6
CONTINUOUS
 62
     3
 10
849.353264
 20
1415.106260
 11
764.353264
 21
1415.106260
  0
LINE
  8
CSLAYER1
  6
CONTINUOUS
 62
     2
 10
849.353264
 20
1471.606260
 11
764.353264
 21
1471.606260
  0
LINE
  8
CSLAYER1
  6
CONTINUOUS
 62
     3
 10
761.853264
 20
1417.606260
 11
761.853264
 21
1487.606260
  0
ARC
  8
CSLAYER1
  6
CONTINUOUS
 62
     3
 10
849.353264
 20
1417.606260
 40
2.500000
 50
-90.000000
 51
0.000000
  0
ARC
  8
CSLAYER1
  6
CONTINUOUS
 62
     3
 10
764.353264
 20
1417.606260
 40
2.500000
 50
180.000000
 51
270.000000
  0
ARC
  8
CSLAYER1
  6
CONTINUOUS
 62
     2
 10
764.353264
 20
1474.106260
 40
2.500000
 50
180.000000
 51
270.000000
  0
ARC
  8
CSLAYER1
  6
CONTINUOUS
 62
     2
 10
849.353264
 20
1474.106260
 40
2.500000
 50
-90.000000
 51
0.000000
  0
LINE
  8
CSLAYER1
  6
CONTINUOUS
 62
     3
 10
849.353264
 20
1420.106260
 11
849.353264
 21
1465.106260
  0
LINE
  8
CSLAYER1
  6
CONTINUOUS
 62
     3
 10
846.853264
 20
1417.606260
 11
769.853264
 21
1417.606260
  0
LINE
  8
CSLAYER1
  6
CONTINUOUS
 62
     3
 10
846.853264
 20
1467.606260
 11
769.853264
 21
1467.606260
  0
ARC
  8
CSLAYER1
  6
CONTINUOUS
 62
     3
 10
823.921446
 20
1442.606260
 40
59.568182
 50
155.185163
 51
204.814837
  0
ARC
  8
CSLAYER1
  6
CONTINUOUS
 62
     3
 10
846.853264
 20
1420.106260
 40
2.500000
 50
-90.000000
 51
0.000000
  0
ARC
  8
CSLAYER1
  6
CONTINUOUS
 62
     3
 10
846.853264
 20
1465.106260
 40
2.500000
 50
0.000000
 51
90.000000
  0
LINE
  8
CSLAYER1
  6
CONTINUOUS
 62
     3
 10
858.853264
 20
1480.606260
 11
858.853264
 21
1484.106260
  0
LINE
  8
CSLAYER1
  6
CONTINUOUS
 62
     3
 10
910.202903
 20
1484.106260
 11
858.853264
 21
1484.106260
  0
LINE
  8
CSLAYER1
  6
CONTINUOUS
 62
     3
 10
857.853264
 20
1479.606260
 11
851.853264
 21
1479.606260
  0
LINE
  8
CSLAYER1
  6
CONTINUOUS
 62
     3
 10
857.853264
 20
1495.606260
 11
851.853264
 21
1495.606260
  0
LINE
  8
CSLAYER1
  6
CONTINUOUS
 62
     3
 10
910.202903
 20
1491.106260
 11
858.853264
 21
1491.106260
  0
ARC
  8
CSLAYER1
  6
CONTINUOUS
 62
     3
 10
857.853264
 20
1494.606260
 40
1.000000
 50
0.000000
 51
90.000000
  0
ARC
  8
CSLAYER1
  6
CONTINUOUS
 62
     3
 10
857.853264
 20
1480.606260
 40
1.000000
 50
-90.000000
 51
0.000000
  0
LINE
  8
CSLAYER1
  6
CONTINUOUS
 62
     3
 10
858.853264
 20
1491.106260
 11
858.853264
 21
1494.606260
  0
LINE
  8
CSLAYER1
  6
CONTINUOUS
 62
     2
 10
858.853264
 20
1484.106260
 11
858.853264
 21
1491.106260
  0
LINE
  8
CSLAYER1
  6
CONTINUOUS
 62
     2
 10
851.853264
 20
1495.606260
 11
851.853264
 21
1487.606260
  0
LINE
  8
CSLAYER1
  6
CONTINUOUS
 62
     2
 10
851.853264
 20
1479.606260
 11
851.853264
 21
1487.606260
  0
LINE
  8
CSLAYER1
  6
CONTINUOUS
 62
     2
 10
832.360253
 20
1499.768919
 11
841.495253
 21
1499.768919
  0
LINE
  8
CSLAYER1
  6
CONTINUOUS
 62
     2
 10
832.360253
 20
1476.143919
 11
841.495253
 21
1476.143919
  0
LINE
  8
CSLAYER1
  6
CONTINUOUS
 62
     2
 10
842.755253
 20
1498.508919
 11
842.755253
 21
1477.403919
  0
LINE
  8
CSLAYER1
  6
CONTINUOUS
 62
     2
 10
831.100253
 20
1498.508919
 11
831.100253
 21
1477.403919
  0
LINE
  8
CSLAYER1
  6
CONTINUOUS
 62
     2
 10
832.990253
 20
1478.033919
 11
841.022753
 21
1478.033919
  0
LINE
  8
CSLAYER1
  6
CONTINUOUS
 62
     2
 10
832.990253
 20
1481.183919
 11
833.935253
 21
1481.183919
  0
LINE
  8
CSLAYER1
  6
CONTINUOUS
 62
     2
 10
832.990253
 20
1489.846419
 11
833.935253
 21
1489.846419
  0
LINE
  8
CSLAYER1
  6
CONTINUOUS
 62
     2
 10
832.990253
 20
1494.413919
 11
838.030253
 21
1494.413919
  0
LINE
  8
CSLAYER1
  6
CONTINUOUS
 62
     2
 10
831.887753
 20
1493.311419
 11
831.887753
 21
1490.948919
  0
LINE
  8
CSLAYER1
  6
CONTINUOUS
 62
     2
 10
839.132753
 20
1493.311419
 11
839.132753
 21
1490.948919
  0
LINE
  8
CSLAYER1
  6
CONTINUOUS
 62
     2
 10
842.125253
 20
1480.081419
 11
842.125253
 21
1479.136419
  0
LINE
  8
CSLAYER1
  6
CONTINUOUS
 62
     2
 10
834.880253
 20
1488.901419
 11
834.880253
 21
1482.128919
  0
LINE
  8
CSLAYER1
  6
CONTINUOUS
 62
     2
 10
835.667753
 20
1488.901419
 11
835.667753
 21
1482.128919
  0
ARC
  8
CSLAYER1
  6
CONTINUOUS
 62
     2
 10
832.990253
 20
1493.311419
 40
1.102500
 50
90.000000
 51
180.000000
  0
ARC
  8
CSLAYER1
  6
CONTINUOUS
 62
     2
 10
838.030253
 20
1493.311419
 40
1.102500
 50
0.000000
 51
90.000000
  0
ARC
  8
CSLAYER1
  6
CONTINUOUS
 62
     2
 10
838.030253
 20
1490.948919
 40
1.102500
 50
-90.000000
 51
0.000000
  0
ARC
  8
CSLAYER1
  6
CONTINUOUS
 62
     2
 10
832.990253
 20
1490.948919
 40
1.102500
 50
180.000000
 51
270.000000
  0
ARC
  8
CSLAYER1
  6
CONTINUOUS
 62
     2
 10
841.022753
 20
1480.081419
 40
1.102500
 50
0.000000
 51
90.000000
  0
ARC
  8
CSLAYER1
  6
CONTINUOUS
 62
     2
 10
841.022753
 20
1479.136419
 40
1.102500
 50
-90.000000
 51
0.000000
  0
ARC
  8
CSLAYER1
  6
CONTINUOUS
 62
     2
 10
832.990253
 20
1479.136419
 40
1.102500
 50
180.000000
 51
270.000000
  0
ARC
  8
CSLAYER1
  6
CONTINUOUS
 62
     2
 10
832.990253
 20
1480.081419
 40
1.102500
 50
90.000000
 51
180.000000
  0
LINE
  8
CSLAYER1
  6
CONTINUOUS
 62
     2
 10
836.612753
 20
1489.846419
 11
838.030253
 21
1489.846419
  0
LINE
  8
CSLAYER1
  6
CONTINUOUS
 62
     2
 10
836.612753
 20
1481.183919
 11
841.022753
 21
1481.183919
  0
ARC
  8
CSLAYER1
  6
CONTINUOUS
 62
     2
 10
833.935253
 20
1488.901419
 40
0.945000
 50
0.000000
 51
90.000000
  0
ARC
  8
CSLAYER1
  6
CONTINUOUS
 62
     2
 10
836.612753
 20
1488.901419
 40
0.945000
 50
90.000000
 51
180.000000
  0
ARC
  8
CSLAYER1
  6
CONTINUOUS
 62
     2
 10
836.612753
 20
1482.128919
 40
0.945000
 50
180.000000
 51
270.000000
  0
ARC
  8
CSLAYER1
  6
CONTINUOUS
 62
     2
 10
832.360253
 20
1498.508919
 40
1.260000
 50
90.000000
 51
180.000000
  0
ARC
  8
CSLAYER1
  6
CONTINUOUS
 62
     2
 10
841.495253
 20
1498.508919
 40
1.260000
 50
0.000000
 51
90.000000
  0
ARC
  8
CSLAYER1
  6
CONTINUOUS
 62
     2
 10
841.495253
 20
1477.403919
 40
1.260000
 50
-90.000000
 51
0.000000
  0
ARC
  8
CSLAYER1
  6
CONTINUOUS
 62
     2
 10
832.360253
 20
1477.403919
 40
1.260000
 50
180.000000
 51
270.000000
  0
ARC
  8
CSLAYER1
  6
CONTINUOUS
 62
     2
 10
833.935253
 20
1482.128919
 40
0.945000
 50
-90.000000
 51
0.000000
  0
LINE
  8
CSLAYER1
  6
CONTINUOUS
 62
     2
 10
831.887753
 20
1480.081419
 11
831.887753
 21
1479.136419
  0
CIRCLE
  8
CSLAYER1
  6
CONTINUOUS
 62
     2
 10
817.353264
 20
1537.606260
 40
2.500000
  0
CIRCLE
  8
CSLAYER1
  6
CONTINUOUS
 62
     2
 10
817.353264
 20
1547.606260
 40
2.500000
  0
CIRCLE
  8
CSLAYER1
  6
CONTINUOUS
 62
     2
 10
807.353264
 20
1547.606260
 40
2.500000
  0
CIRCLE
  8
CSLAYER1
  6
CONTINUOUS
 62
     2
 10
807.353264
 20
1537.606260
 40
2.500000
  0
CIRCLE
  8
CSLAYER1
  6
CONTINUOUS
 62
     2
 10
797.353264
 20
1537.606260
 40
2.500000
  0
CIRCLE
  8
CSLAYER1
  6
CONTINUOUS
 62
     2
 10
797.353264
 20
1547.606260
 40
2.500000
  0
CIRCLE
  8
CSLAYER1
  6
CONTINUOUS
 62
     2
 10
787.353264
 20
1547.606260
 40
2.500000
  0
CIRCLE
  8
CSLAYER1
  6
CONTINUOUS
 62
     2
 10
787.353264
 20
1537.606260
 40
2.500000
  0
CIRCLE
  8
CSLAYER1
  6
CONTINUOUS
 62
     2
 10
777.353264
 20
1537.606260
 40
2.500000
  0
CIRCLE
  8
CSLAYER1
  6
CONTINUOUS
 62
     2
 10
777.353264
 20
1547.606260
 40
2.500000
  0
CIRCLE
  8
CSLAYER1
  6
CONTINUOUS
 62
     2
 10
817.353264
 20
1527.606260
 40
2.500000
  0
CIRCLE
  8
CSLAYER1
  6
CONTINUOUS
 62
     2
 10
817.353264
 20
1517.606260
 40
2.500000
  0
CIRCLE
  8
CSLAYER1
  6
CONTINUOUS
 62
     2
 10
807.353264
 20
1517.606260
 40
2.500000
  0
CIRCLE
  8
CSLAYER1
  6
CONTINUOUS
 62
     2
 10
807.353264
 20
1527.606260
 40
2.500000
  0
CIRCLE
  8
CSLAYER1
  6
CONTINUOUS
 62
     2
 10
797.353264
 20
1527.606260
 40
2.500000
  0
CIRCLE
  8
CSLAYER1
  6
CONTINUOUS
 62
     2
 10
797.353264
 20
1517.606260
 40
2.500000
  0
CIRCLE
  8
CSLAYER1
  6
CONTINUOUS
 62
     2
 10
787.353264
 20
1517.606260
 40
2.500000
  0
CIRCLE
  8
CSLAYER1
  6
CONTINUOUS
 62
     2
 10
787.353264
 20
1527.606260
 40
2.500000
  0
CIRCLE
  8
CSLAYER1
  6
CONTINUOUS
 62
     2
 10
777.353264
 20
1527.606260
 40
2.500000
  0
CIRCLE
  8
CSLAYER1
  6
CONTINUOUS
 62
     2
 10
777.353264
 20
1517.606260
 40
2.500000
  0
CIRCLE
  8
CSLAYER1
  6
CONTINUOUS
 62
     2
 10
817.353264
 20
1437.606260
 40
2.500000
  0
CIRCLE
  8
CSLAYER1
  6
CONTINUOUS
 62
     2
 10
817.353264
 20
1427.606260
 40
2.500000
  0
CIRCLE
  8
CSLAYER1
  6
CONTINUOUS
 62
     2
 10
807.353264
 20
1427.606260
 40
2.500000
  0
CIRCLE
  8
CSLAYER1
  6
CONTINUOUS
 62
     2
 10
807.353264
 20
1437.606260
 40
2.500000
  0
CIRCLE
  8
CSLAYER1
  6
CONTINUOUS
 62
     2
 10
797.353264
 20
1437.606260
 40
2.500000
  0
CIRCLE
  8
CSLAYER1
  6
CONTINUOUS
 62
     2
 10
797.353264
 20
1427.606260
 40
2.500000
  0
CIRCLE
  8
CSLAYER1
  6
CONTINUOUS
 62
     2
 10
787.353264
 20
1427.606260
 40
2.500000
  0
CIRCLE
  8
CSLAYER1
  6
CONTINUOUS
 62
     2
 10
787.353264
 20
1437.606260
 40
2.500000
  0
CIRCLE
  8
CSLAYER1
  6
CONTINUOUS
 62
     2
 10
777.353264
 20
1437.606260
 40
2.500000
  0
CIRCLE
  8
CSLAYER1
  6
CONTINUOUS
 62
     2
 10
777.353264
 20
1427.606260
 40
2.500000
  0
CIRCLE
  8
CSLAYER1
  6
CONTINUOUS
 62
     2
 10
817.353264
 20
1447.606260
 40
2.500000
  0
CIRCLE
  8
CSLAYER1
  6
CONTINUOUS
 62
     2
 10
817.353264
 20
1457.606260
 40
2.500000
  0
CIRCLE
  8
CSLAYER1
  6
CONTINUOUS
 62
     2
 10
807.353264
 20
1457.606260
 40
2.500000
  0
CIRCLE
  8
CSLAYER1
  6
CONTINUOUS
 62
     2
 10
807.353264
 20
1447.606260
 40
2.500000
  0
CIRCLE
  8
CSLAYER1
  6
CONTINUOUS
 62
     2
 10
797.353264
 20
1447.606260
 40
2.500000
  0
CIRCLE
  8
CSLAYER1
  6
CONTINUOUS
 62
     2
 10
797.353264
 20
1457.606260
 40
2.500000
  0
CIRCLE
  8
CSLAYER1
  6
CONTINUOUS
 62
     2
 10
787.353264
 20
1457.606260
 40
2.500000
  0
CIRCLE
  8
CSLAYER1
  6
CONTINUOUS
 62
     2
 10
787.353264
 20
1447.606260
 40
2.500000
  0
CIRCLE
  8
CSLAYER1
  6
CONTINUOUS
 62
     2
 10
777.353264
 20
1447.606260
 40
2.500000
  0
CIRCLE
  8
CSLAYER1
  6
CONTINUOUS
 62
     2
 10
777.353264
 20
1457.606260
 40
2.500000
  0
LINE
  8
CSLAYER1
  6
CONTINUOUS
 62
     2
 10
843.353264
 20
1460.106260
 11
843.353264
 21
1425.106260
  0
LINE
  8
CSLAYER1
  6
CONTINUOUS
 62
     2
 10
827.353264
 20
1460.106260
 11
827.353264
 21
1425.106260
  0
LINE
  8
CSLAYER1
  6
CONTINUOUS
 62
     2
 10
841.853264
 20
1461.606260
 11
828.853264
 21
1461.606260
  0
LINE
  8
CSLAYER1
  6
CONTINUOUS
 62
     2
 10
842.353264
 20
1460.106260
 11
842.353264
 21
1425.106260
  0
LINE
  8
CSLAYER1
  6
CONTINUOUS
 62
     2
 10
828.353264
 20
1460.106260
 11
828.353264
 21
1425.106260
  0
LINE
  8
CSLAYER1
  6
CONTINUOUS
 62
     2
 10
841.853264
 20
1460.606260
 11
828.853264
 21
1460.606260
  0
LINE
  8
CSLAYER1
  6
CONTINUOUS
 62
     2
 10
841.853264
 20
1423.606260
 11
828.853264
 21
1423.606260
  0
LINE
  8
CSLAYER1
  6
CONTINUOUS
 62
     2
 10
841.853264
 20
1424.606260
 11
828.853264
 21
1424.606260
  0
ARC
  8
CSLAYER1
  6
CONTINUOUS
 62
     2
 10
841.853264
 20
1460.106260
 40
0.500000
 50
0.000000
 51
90.000000
  0
ARC
  8
CSLAYER1
  6
CONTINUOUS
 62
     2
 10
828.853264
 20
1460.106260
 40
0.500000
 50
90.000000
 51
180.000000
  0
ARC
  8
CSLAYER1
  6
CONTINUOUS
 62
     2
 10
841.853264
 20
1425.106260
 40
0.500000
 50
-90.000000
 51
0.000000
  0
ARC
  8
CSLAYER1
  6
CONTINUOUS
 62
     2
 10
828.853264
 20
1425.106260
 40
0.500000
 50
180.000000
 51
270.000000
  0
ARC
  8
CSLAYER1
  6
CONTINUOUS
 62
     2
 10
841.853264
 20
1460.106260
 40
1.500000
 50
0.000000
 51
90.000000
  0
ARC
  8
CSLAYER1
  6
CONTINUOUS
 62
     2
 10
828.853264
 20
1460.106260
 40
1.500000
 50
90.000000
 51
180.000000
  0
ARC
  8
CSLAYER1
  6
CONTINUOUS
 62
     2
 10
841.853264
 20
1425.106260
 40
1.500000
 50
-90.000000
 51
0.000000
  0
ARC
  8
CSLAYER1
  6
CONTINUOUS
 62
     2
 10
828.853264
 20
1425.106260
 40
1.500000
 50
180.000000
 51
270.000000
  0
LINE
  8
CSLAYER1
  6
CONTINUOUS
 62
     2
 10
838.353264
 20
1451.606260
 11
838.353264
 21
1433.606260
  0
LINE
  8
CSLAYER1
  6
CONTINUOUS
 62
     2
 10
841.431336
 20
1442.606260
 11
838.353264
 21
1433.606260
  0
LINE
  8
CSLAYER1
  6
CONTINUOUS
 62
     2
 10
841.431336
 20
1442.606260
 11
838.353264
 21
1451.606260
  0
TEXT
  8
CSLAYER1
 62
     2
 10
830.059500
 20
1451.586357
 40
7.066058
 41
1.574983
  1
UP
 50
270.000000
 51
0.000000
  7
EASYDRAW_FONT
 72
     5
 11
830.059500
 21
1433.038154
  0
LINE
  8
CSLAYER1
  6
CONTINUOUS
 62
     2
 10
843.353264
 20
1515.106260
 11
843.353264
 21
1550.106260
  0
LINE
  8
CSLAYER1
  6
CONTINUOUS
 62
     2
 10
827.353264
 20
1515.106260
 11
827.353264
 21
1550.106260
  0
LINE
  8
CSLAYER1
  6
CONTINUOUS
 62
     2
 10
841.853264
 20
1513.606260
 11
828.853264
 21
1513.606260
  0
LINE
  8
CSLAYER1
  6
CONTINUOUS
 62
     2
 10
842.353264
 20
1515.106260
 11
842.353264
 21
1550.106260
  0
LINE
  8
CSLAYER1
  6
CONTINUOUS
 62
     2
 10
828.353264
 20
1515.106260
 11
828.353264
 21
1550.106260
  0
LINE
  8
CSLAYER1
  6
CONTINUOUS
 62
     2
 10
841.853264
 20
1514.606260
 11
828.853264
 21
1514.606260
  0
LINE
  8
CSLAYER1
  6
CONTINUOUS
 62
     2
 10
841.853264
 20
1551.606260
 11
828.853264
 21
1551.606260
  0
LINE
  8
CSLAYER1
  6
CONTINUOUS
 62
     2
 10
841.853264
 20
1550.606260
 11
828.853264
 21
1550.606260
  0
ARC
  8
CSLAYER1
  6
CONTINUOUS
 62
     2
 10
841.853264
 20
1515.106260
 40
0.500000
 50
-90.000000
 51
0.000000
  0
ARC
  8
CSLAYER1
  6
CONTINUOUS
 62
     2
 10
828.853264
 20
1515.106260
 40
0.500000
 50
180.000000
 51
270.000000
  0
ARC
  8
CSLAYER1
  6
CONTINUOUS
 62
     2
 10
841.853264
 20
1550.106260
 40
0.500000
 50
0.000000
 51
90.000000
  0
ARC
  8
CSLAYER1
  6
CONTINUOUS
 62
     2
 10
828.853264
 20
1550.106260
 40
0.500000
 50
90.000000
 51
180.000000
  0
ARC
  8
CSLAYER1
  6
CONTINUOUS
 62
     2
 10
841.853264
 20
1515.106260
 40
1.500000
 50
-90.000000
 51
0.000000
  0
ARC
  8
CSLAYER1
  6
CONTINUOUS
 62
     2
 10
828.853264
 20
1515.106260
 40
1.500000
 50
180.000000
 51
270.000000
  0
ARC
  8
CSLAYER1
  6
CONTINUOUS
 62
     2
 10
841.853264
 20
1550.106260
 40
1.500000
 50
0.000000
 51
90.000000
  0
ARC
  8
CSLAYER1
  6
CONTINUOUS
 62
     2
 10
828.853264
 20
1550.106260
 40
1.500000
 50
90.000000
 51
180.000000
  0
LINE
  8
CSLAYER1
  6
CONTINUOUS
 62
     2
 10
832.880334
 20
1523.606260
 11
832.880334
 21
1541.606260
  0
LINE
  8
CSLAYER1
  6
CONTINUOUS
 62
     2
 10
829.802262
 20
1532.606260
 11
832.880334
 21
1541.606260
  0
LINE
  8
CSLAYER1
  6
CONTINUOUS
 62
     2
 10
829.802262
 20
1532.606260
 11
832.880334
 21
1523.606260
  0
TEXT
  8
CSLAYER1
 62
     2
 10
834.490341
 20
1547.303926
 40
6.383575
 41
1.255870
  1
DOWN
 50
270.000000
 51
0.000000
  7
EASYDRAW_FONT
 72
     5
 11
834.490341
 21
1517.908476
  0
ENDBLK
  8
0
  0
BLOCK
  8
CSLAYER1
  2
BLKF0002
 70
   64
 10
0.0
 20
0.0
 30
0.0
  0
LINE
  8
CSLAYER1
  6
CONTINUOUS
 62
     5
 10
1042.853264
 20
428.558089
 11
1042.834238
 21
428.808041
  0
LINE
  8
CSLAYER1
  6
CONTINUOUS
 62
     5
 10
1042.834238
 20
428.808041
 11
1042.777303
 21
429.056092
  0
LINE
  8
CSLAYER1
  6
CONTINUOUS
 62
     5
 10
1042.777303
 20
429.056092
 11
1042.682893
 21
429.300352
  0
LINE
  8
CSLAYER1
  6
CONTINUOUS
 62
     5
 10
1042.682893
 20
429.300352
 11
1042.551727
 21
429.538962
  0
LINE
  8
CSLAYER1
  6
CONTINUOUS
 62
     5
 10
1042.551727
 20
429.538962
 11
1042.384803
 21
429.770108
  0
LINE
  8
CSLAYER1
  6
CONTINUOUS
 62
     5
 10
1042.384803
 20
429.770108
 11
1042.183391
 21
429.992030
  0
LINE
  8
CSLAYER1
  6
CONTINUOUS
 62
     5
 10
1042.183391
 20
429.992030
 11
1041.949024
 21
430.203039
  0
LINE
  8
CSLAYER1
  6
CONTINUOUS
 62
     5
 10
1041.949024
 20
430.203039
 11
1041.683486
 21
430.401528
  0
LINE
  8
CSLAYER1
  6
CONTINUOUS
 62
     5
 10
1041.683486
 20
430.401528
 11
1041.388798
 21
430.585988
  0
LINE
  8
CSLAYER1
  6
CONTINUOUS
 62
     5
 10
1041.388798
 20
430.585988
 11
1041.067202
 21
430.755014
  0
LINE
  8
CSLAYER1
  6
CONTINUOUS
 62
     5
 10
1041.067202
 20
430.755014
 11
1040.721146
 21
430.907321
  0
LINE
  8
CSLAYER1
  6
CONTINUOUS
 62
     5
 10
1040.721146
 20
430.907321
 11
1040.353264
 21
431.041748
  0
LINE
  8
CSLAYER1
  6
CONTINUOUS
 62
     5
 10
1040.353264
 20
431.041748
 11
1039.966356
 21
431.157273
  0
LINE
  8
CSLAYER1
  6
CONTINUOUS
 62
     5
 10
1039.966356
 20
431.157273
 11
1039.563365
 21
431.253017
  0
LINE
  8
CSLAYER1
  6
CONTINUOUS
 62
     5
 10
1039.563365
 20
431.253017
 11
1039.147359
 21
431.328250
  0
LINE
  8
CSLAYER1
  6
CONTINUOUS
 62
     5
 10
1039.147359
 20
431.328250
 11
1038.721505
 21
431.382402
  0
LINE
  8
CSLAYER1
  6
CONTINUOUS
 62
     5
 10
1038.721505
 20
431.382402
 11
1038.289043
 21
431.415058
  0
LINE
  8
CSLAYER1
  6
CONTINUOUS
 62
     5
 10
1038.289043
 20
431.415058
 11
1037.853264
 21
431.425971
  0
LINE
  8
CSLAYER1
  6
CONTINUOUS
 62
     5
 10
1037.853264
 20
431.425971
 11
1037.417486
 21
431.415058
  0
LINE
  8
CSLAYER1
  6
CONTINUOUS
 62
     5
 10
1037.417486
 20
431.415058
 11
1036.985023
 21
431.382402
  0
LINE
  8
CSLAYER1
  6
CONTINUOUS
 62
     5
 10
1036.985023
 20
431.382402
 11
1036.559169
 21
431.328250
  0
LINE
  8
CSLAYER1
  6
CONTINUOUS
 62
     5
 10
1036.559169
 20
431.328250
 11
1036.143164
 21
431.253017
  0
LINE
  8
CSLAYER1
  6
CONTINUOUS
 62
     5
 10
1036.143164
 20
431.253017
 11
1035.740173
 21
431.157273
  0
LINE
  8
CSLAYER1
  6
CONTINUOUS
 62
     5
 10
1035.740173
 20
431.157273
 11
1035.353264
 21
431.041748
  0
LINE
  8
CSLAYER1
  6
CONTINUOUS
 62
     5
 10
1035.353264
 20
431.041748
 11
1034.985382
 21
430.907321
  0
LINE
  8
CSLAYER1
  6
CONTINUOUS
 62
     5
 10
1034.985382
 20
430.907321
 11
1034.639326
 21
430.755014
  0
LINE
  8
CSLAYER1
  6
CONTINUOUS
 62
     5
 10
1034.639326
 20
430.755014
 11
1034.317730
 21
430.585988
  0
LINE
  8
CSLAYER1
  6
CONTINUOUS
 62
     5
 10
1034.317730
 20
430.585988
 11
1034.023042
 21
430.401528
  0
LINE
  8
CSLAYER1
  6
CONTINUOUS
 62
     5
 10
1034.023042
 20
430.401528
 11
1033.757504
 21
430.203039
  0
LINE
  8
CSLAYER1
  6
CONTINUOUS
 62
     5
 10
1033.757504
 20
430.203039
 11
1033.523137
 21
429.992030
  0
LINE
  8
CSLAYER1
  6
CONTINUOUS
 62
     5
 10
1033.523137
 20
429.992030
 11
1033.321725
 21
429.770108
  0
LINE
  8
CSLAYER1
  6
CONTINUOUS
 62
     5
 10
1033.321725
 20
429.770108
 11
1033.154801
 21
429.538962
  0
LINE
  8
CSLAYER1
  6
CONTINUOUS
 62
     5
 10
1033.154801
 20
429.538962
 11
1033.023635
 21
429.300352
  0
LINE
  8
CSLAYER1
  6
CONTINUOUS
 62
     5
 10
1033.023635
 20
429.300352
 11
1032.929225
 21
429.056092
  0
LINE
  8
CSLAYER1
  6
CONTINUOUS
 62
     5
 10
1032.929225
 20
429.056092
 11
1032.872291
 21
428.808041
  0
LINE
  8
CSLAYER1
  6
CONTINUOUS
 62
     5
 10
1032.872291
 20
428.808041
 11
1032.853264
 21
428.558089
  0
LINE
  8
CSLAYER1
  6
CONTINUOUS
 62
     5
 10
1032.853264
 20
428.558089
 11
1032.872291
 21
428.308137
  0
LINE
  8
CSLAYER1
  6
CONTINUOUS
 62
     5
 10
1032.872291
 20
428.308137
 11
1032.929225
 21
428.060086
  0
LINE
  8
CSLAYER1
  6
CONTINUOUS
 62
     5
 10
1032.929225
 20
428.060086
 11
1033.023635
 21
427.815826
  0
LINE
  8
CSLAYER1
  6
CONTINUOUS
 62
     5
 10
1033.023635
 20
427.815826
 11
1033.154801
 21
427.577216
  0
LINE
  8
CSLAYER1
  6
CONTINUOUS
 62
     5
 10
1033.154801
 20
427.577216
 11
1033.321725
 21
427.346070
  0
LINE
  8
CSLAYER1
  6
CONTINUOUS
 62
     5
 10
1033.321725
 20
427.346070
 11
1033.523137
 21
427.124148
  0
LINE
  8
CSLAYER1
  6
CONTINUOUS
 62
     5
 10
1033.523137
 20
427.124148
 11
1033.757504
 21
426.913139
  0
LINE
  8
CSLAYER1
  6
CONTINUOUS
 62
     5
 10
1033.757504
 20
426.913139
 11
1034.023042
 21
426.714650
  0
LINE
  8
CSLAYER1
  6
CONTINUOUS
 62
     5
 10
1034.023042
 20
426.714650
 11
1034.317730
 21
426.530190
  0
LINE
  8
CSLAYER1
  6
CONTINUOUS
 62
     5
 10
1034.317730
 20
426.530190
 11
1034.639326
 21
426.361164
  0
LINE
  8
CSLAYER1
  6
CONTINUOUS
 62
     5
 10
1034.639326
 20
426.361164
 11
1034.985382
 21
426.208857
  0
LINE
  8
CSLAYER1
  6
CONTINUOUS
 62
     5
 10
1034.985382
 20
426.208857
 11
1035.353264
 21
426.074430
  0
LINE
  8
CSLAYER1
  6
CONTINUOUS
 62
     5
 10
1035.353264
 20
426.074430
 11
1035.740173
 21
425.958905
  0
LINE
  8
CSLAYER1
  6
CONTINUOUS
 62
     5
 10
1035.740173
 20
425.958905
 11
1036.143164
 21
425.863161
  0
LINE
  8
CSLAYER1
  6
CONTINUOUS
 62
     5
 10
1036.143164
 20
425.863161
 11
1036.559169
 21
425.787928
  0
LINE
  8
CSLAYER1
  6
CONTINUOUS
 62
     5
 10
1036.559169
 20
425.787928
 11
1036.985023
 21
425.733776
  0
LINE
  8
CSLAYER1
  6
CONTINUOUS
 62
     5
 10
1036.985023
 20
425.733776
 11
1037.417486
 21
425.701120
  0
LINE
  8
CSLAYER1
  6
CONTINUOUS
 62
     5
 10
1037.417486
 20
425.701120
 11
1037.853264
 21
425.690207
  0
LINE
  8
CSLAYER1
  6
CONTINUOUS
 62
     5
 10
1037.853264
 20
425.690207
 11
1038.289043
 21
425.701120
  0
LINE
  8
CSLAYER1
  6
CONTINUOUS
 62
     5
 10
1038.289043
 20
425.701120
 11
1038.721505
 21
425.733776
  0
LINE
  8
CSLAYER1
  6
CONTINUOUS
 62
     5
 10
1038.721505
 20
425.733776
 11
1039.147359
 21
425.787928
  0
LINE
  8
CSLAYER1
  6
CONTINUOUS
 62
     5
 10
1039.147359
 20
425.787928
 11
1039.563365
 21
425.863161
  0
LINE
  8
CSLAYER1
  6
CONTINUOUS
 62
     5
 10
1039.563365
 20
425.863161
 11
1039.966356
 21
425.958905
  0
LINE
  8
CSLAYER1
  6
CONTINUOUS
 62
     5
 10
1039.966356
 20
425.958905
 11
1040.353264
 21
426.074430
  0
LINE
  8
CSLAYER1
  6
CONTINUOUS
 62
     5
 10
1040.353264
 20
426.074430
 11
1040.721146
 21
426.208857
  0
LINE
  8
CSLAYER1
  6
CONTINUOUS
 62
     5
 10
1040.721146
 20
426.208857
 11
1041.067202
 21
426.361164
  0
LINE
  8
CSLAYER1
  6
CONTINUOUS
 62
     5
 10
1041.067202
 20
426.361164
 11
1041.388798
 21
426.530190
  0
LINE
  8
CSLAYER1
  6
CONTINUOUS
 62
     5
 10
1041.388798
 20
426.530190
 11
1041.683486
 21
426.714650
  0
LINE
  8
CSLAYER1
  6
CONTINUOUS
 62
     5
 10
1041.683486
 20
426.714650
 11
1041.949024
 21
426.913139
  0
LINE
  8
CSLAYER1
  6
CONTINUOUS
 62
     5
 10
1041.949024
 20
426.913139
 11
1042.183391
 21
427.124148
  0
LINE
  8
CSLAYER1
  6
CONTINUOUS
 62
     5
 10
1042.183391
 20
427.124148
 11
1042.384803
 21
427.346070
  0
LINE
  8
CSLAYER1
  6
CONTINUOUS
 62
     5
 10
1042.384803
 20
427.346070
 11
1042.551727
 21
427.577216
  0
LINE
  8
CSLAYER1
  6
CONTINUOUS
 62
     5
 10
1042.551727
 20
427.577216
 11
1042.682893
 21
427.815826
  0
LINE
  8
CSLAYER1
  6
CONTINUOUS
 62
     5
 10
1042.682893
 20
427.815826
 11
1042.777303
 21
428.060086
  0
LINE
  8
CSLAYER1
  6
CONTINUOUS
 62
     5
 10
1042.777303
 20
428.060086
 11
1042.834238
 21
428.308137
  0
LINE
  8
CSLAYER1
  6
CONTINUOUS
 62
     5
 10
1042.834238
 20
428.308137
 11
1042.853264
 21
428.558089
  0
ENDBLK
  8
0
  0
BLOCK
  8
CSLAYER1
  2
BLKF0003
 70
   64
 10
0.0
 20
0.0
 30
0.0
  0
LINE
  8
CSLAYER1
  6
CONTINUOUS
 62
     5
 10
314.853264
 20
428.558089
 11
314.872291
 21
428.808041
  0
LINE
  8
CSLAYER1
  6
CONTINUOUS
 62
     5
 10
314.872291
 20
428.808041
 11
314.929225
 21
429.056092
  0
LINE
  8
CSLAYER1
  6
CONTINUOUS
 62
     5
 10
314.929225
 20
429.056092
 11
315.023635
 21
429.300352
  0
LINE
  8
CSLAYER1
  6
CONTINUOUS
 62
     5
 10
315.023635
 20
429.300352
 11
315.154801
 21
429.538962
  0
LINE
  8
CSLAYER1
  6
CONTINUOUS
 62
     5
 10
315.154801
 20
429.538962
 11
315.321725
 21
429.770108
  0
LINE
  8
CSLAYER1
  6
CONTINUOUS
 62
     5
 10
315.321725
 20
429.770108
 11
315.523137
 21
429.992030
  0
LINE
  8
CSLAYER1
  6
CONTINUOUS
 62
     5
 10
315.523137
 20
429.992030
 11
315.757504
 21
430.203039
  0
LINE
  8
CSLAYER1
  6
CONTINUOUS
 62
     5
 10
315.757504
 20
430.203039
 11
316.023042
 21
430.401528
  0
LINE
  8
CSLAYER1
  6
CONTINUOUS
 62
     5
 10
316.023042
 20
430.401528
 11
316.317730
 21
430.585988
  0
LINE
  8
CSLAYER1
  6
CONTINUOUS
 62
     5
 10
316.317730
 20
430.585988
 11
316.639326
 21
430.755014
  0
LINE
  8
CSLAYER1
  6
CONTINUOUS
 62
     5
 10
316.639326
 20
430.755014
 11
316.985382
 21
430.907321
  0
LINE
  8
CSLAYER1
  6
CONTINUOUS
 62
     5
 10
316.985382
 20
430.907321
 11
317.353264
 21
431.041748
  0
LINE
  8
CSLAYER1
  6
CONTINUOUS
 62
     5
 10
317.353264
 20
431.041748
 11
317.740173
 21
431.157273
  0
LINE
  8
CSLAYER1
  6
CONTINUOUS
 62
     5
 10
317.740173
 20
431.157273
 11
318.143164
 21
431.253017
  0
LINE
  8
CSLAYER1
  6
CONTINUOUS
 62
     5
 10
318.143164
 20
431.253017
 11
318.559169
 21
431.328250
  0
LINE
  8
CSLAYER1
  6
CONTINUOUS
 62
     5
 10
318.559169
 20
431.328250
 11
318.985023
 21
431.382402
  0
LINE
  8
CSLAYER1
  6
CONTINUOUS
 62
     5
 10
318.985023
 20
431.382402
 11
319.417486
 21
431.415058
  0
LINE
  8
CSLAYER1
  6
CONTINUOUS
 62
     5
 10
319.417486
 20
431.415058
 11
319.853264
 21
431.425971
  0
LINE
  8
CSLAYER1
  6
CONTINUOUS
 62
     5
 10
319.853264
 20
431.425971
 11
320.289043
 21
431.415058
  0
LINE
  8
CSLAYER1
  6
CONTINUOUS
 62
     5
 10
320.289043
 20
431.415058
 11
320.721505
 21
431.382402
  0
LINE
  8
CSLAYER1
  6
CONTINUOUS
 62
     5
 10
320.721505
 20
431.382402
 11
321.147359
 21
431.328250
  0
LINE
  8
CSLAYER1
  6
CONTINUOUS
 62
     5
 10
321.147359
 20
431.328250
 11
321.563365
 21
431.253017
  0
LINE
  8
CSLAYER1
  6
CONTINUOUS
 62
     5
 10
321.563365
 20
431.253017
 11
321.966356
 21
431.157273
  0
LINE
  8
CSLAYER1
  6
CONTINUOUS
 62
     5
 10
321.966356
 20
431.157273
 11
322.353264
 21
431.041748
  0
LINE
  8
CSLAYER1
  6
CONTINUOUS
 62
     5
 10
322.353264
 20
431.041748
 11
322.721146
 21
430.907321
  0
LINE
  8
CSLAYER1
  6
CONTINUOUS
 62
     5
 10
322.721146
 20
430.907321
 11
323.067202
 21
430.755014
  0
LINE
  8
CSLAYER1
  6
CONTINUOUS
 62
     5
 10
323.067202
 20
430.755014
 11
323.388798
 21
430.585988
  0
LINE
  8
CSLAYER1
  6
CONTINUOUS
 62
     5
 10
323.388798
 20
430.585988
 11
323.683486
 21
430.401528
  0
LINE
  8
CSLAYER1
  6
CONTINUOUS
 62
     5
 10
323.683486
 20
430.401528
 11
323.949024
 21
430.203039
  0
LINE
  8
CSLAYER1
  6
CONTINUOUS
 62
     5
 10
323.949024
 20
430.203039
 11
324.183391
 21
429.992030
  0
LINE
  8
CSLAYER1
  6
CONTINUOUS
 62
     5
 10
324.183391
 20
429.992030
 11
324.384803
 21
429.770108
  0
LINE
  8
CSLAYER1
  6
CONTINUOUS
 62
     5
 10
324.384803
 20
429.770108
 11
324.551727
 21
429.538962
  0
LINE
  8
CSLAYER1
  6
CONTINUOUS
 62
     5
 10
324.551727
 20
429.538962
 11
324.682893
 21
429.300352
  0
LINE
  8
CSLAYER1
  6
CONTINUOUS
 62
     5
 10
324.682893
 20
429.300352
 11
324.777303
 21
429.056092
  0
LINE
  8
CSLAYER1
  6
CONTINUOUS
 62
     5
 10
324.777303
 20
429.056092
 11
324.834238
 21
428.808041
  0
LINE
  8
CSLAYER1
  6
CONTINUOUS
 62
     5
 10
324.834238
 20
428.808041
 11
324.853264
 21
428.558089
  0
LINE
  8
CSLAYER1
  6
CONTINUOUS
 62
     5
 10
324.853264
 20
428.558089
 11
324.834238
 21
428.308137
  0
LINE
  8
CSLAYER1
  6
CONTINUOUS
 62
     5
 10
324.834238
 20
428.308137
 11
324.777303
 21
428.060086
  0
LINE
  8
CSLAYER1
  6
CONTINUOUS
 62
     5
 10
324.777303
 20
428.060086
 11
324.682893
 21
427.815826
  0
LINE
  8
CSLAYER1
  6
CONTINUOUS
 62
     5
 10
324.682893
 20
427.815826
 11
324.551727
 21
427.577216
  0
LINE
  8
CSLAYER1
  6
CONTINUOUS
 62
     5
 10
324.551727
 20
427.577216
 11
324.384803
 21
427.346070
  0
LINE
  8
CSLAYER1
  6
CONTINUOUS
 62
     5
 10
324.384803
 20
427.346070
 11
324.183391
 21
427.124148
  0
LINE
  8
CSLAYER1
  6
CONTINUOUS
 62
     5
 10
324.183391
 20
427.124148
 11
323.949024
 21
426.913139
  0
LINE
  8
CSLAYER1
  6
CONTINUOUS
 62
     5
 10
323.949024
 20
426.913139
 11
323.683486
 21
426.714650
  0
LINE
  8
CSLAYER1
  6
CONTINUOUS
 62
     5
 10
323.683486
 20
426.714650
 11
323.388798
 21
426.530190
  0
LINE
  8
CSLAYER1
  6
CONTINUOUS
 62
     5
 10
323.388798
 20
426.530190
 11
323.067202
 21
426.361164
  0
LINE
  8
CSLAYER1
  6
CONTINUOUS
 62
     5
 10
323.067202
 20
426.361164
 11
322.721146
 21
426.208857
  0
LINE
  8
CSLAYER1
  6
CONTINUOUS
 62
     5
 10
322.721146
 20
426.208857
 11
322.353264
 21
426.074430
  0
LINE
  8
CSLAYER1
  6
CONTINUOUS
 62
     5
 10
322.353264
 20
426.074430
 11
321.966356
 21
425.958905
  0
LINE
  8
CSLAYER1
  6
CONTINUOUS
 62
     5
 10
321.966356
 20
425.958905
 11
321.563365
 21
425.863161
  0
LINE
  8
CSLAYER1
  6
CONTINUOUS
 62
     5
 10
321.563365
 20
425.863161
 11
321.147359
 21
425.787928
  0
LINE
  8
CSLAYER1
  6
CONTINUOUS
 62
     5
 10
321.147359
 20
425.787928
 11
320.721505
 21
425.733776
  0
LINE
  8
CSLAYER1
  6
CONTINUOUS
 62
     5
 10
320.721505
 20
425.733776
 11
320.289043
 21
425.701120
  0
LINE
  8
CSLAYER1
  6
CONTINUOUS
 62
     5
 10
320.289043
 20
425.701120
 11
319.853264
 21
425.690207
  0
LINE
  8
CSLAYER1
  6
CONTINUOUS
 62
     5
 10
319.853264
 20
425.690207
 11
319.417486
 21
425.701120
  0
LINE
  8
CSLAYER1
  6
CONTINUOUS
 62
     5
 10
319.417486
 20
425.701120
 11
318.985023
 21
425.733776
  0
LINE
  8
CSLAYER1
  6
CONTINUOUS
 62
     5
 10
318.985023
 20
425.733776
 11
318.559169
 21
425.787928
  0
LINE
  8
CSLAYER1
  6
CONTINUOUS
 62
     5
 10
318.559169
 20
425.787928
 11
318.143164
 21
425.863161
  0
LINE
  8
CSLAYER1
  6
CONTINUOUS
 62
     5
 10
318.143164
 20
425.863161
 11
317.740173
 21
425.958905
  0
LINE
  8
CSLAYER1
  6
CONTINUOUS
 62
     5
 10
317.740173
 20
425.958905
 11
317.353264
 21
426.074430
  0
LINE
  8
CSLAYER1
  6
CONTINUOUS
 62
     5
 10
317.353264
 20
426.074430
 11
316.985382
 21
426.208857
  0
LINE
  8
CSLAYER1
  6
CONTINUOUS
 62
     5
 10
316.985382
 20
426.208857
 11
316.639326
 21
426.361164
  0
LINE
  8
CSLAYER1
  6
CONTINUOUS
 62
     5
 10
316.639326
 20
426.361164
 11
316.317730
 21
426.530190
  0
LINE
  8
CSLAYER1
  6
CONTINUOUS
 62
     5
 10
316.317730
 20
426.530190
 11
316.023042
 21
426.714650
  0
LINE
  8
CSLAYER1
  6
CONTINUOUS
 62
     5
 10
316.023042
 20
426.714650
 11
315.757504
 21
426.913139
  0
LINE
  8
CSLAYER1
  6
CONTINUOUS
 62
     5
 10
315.757504
 20
426.913139
 11
315.523137
 21
427.124148
  0
LINE
  8
CSLAYER1
  6
CONTINUOUS
 62
     5
 10
315.523137
 20
427.124148
 11
315.321725
 21
427.346070
  0
LINE
  8
CSLAYER1
  6
CONTINUOUS
 62
     5
 10
315.321725
 20
427.346070
 11
315.154801
 21
427.577216
  0
LINE
  8
CSLAYER1
  6
CONTINUOUS
 62
     5
 10
315.154801
 20
427.577216
 11
315.023635
 21
427.815826
  0
LINE
  8
CSLAYER1
  6
CONTINUOUS
 62
     5
 10
315.023635
 20
427.815826
 11
314.929225
 21
428.060086
  0
LINE
  8
CSLAYER1
  6
CONTINUOUS
 62
     5
 10
314.929225
 20
428.060086
 11
314.872291
 21
428.308137
  0
LINE
  8
CSLAYER1
  6
CONTINUOUS
 62
     5
 10
314.872291
 20
428.308137
 11
314.853264
 21
428.558089
  0
ENDBLK
  8
0
  0
ENDSEC
  0
SECTION
  2
ENTITIES
  0
LINE
  8
CSLAYER1
  6
CONTINUOUS
 62
     3
 10
118.051807
 20
2400.454119
 11
118.051807
 21
51.907189
  0
LINE
  8
CSLAYER1
  6
CONTINUOUS
 62
     3
 10
3440.625117
 20
2400.454119
 11
118.051807
 21
2400.454119
  0
LINE
  8
CSLAYER1
  6
CONTINUOUS
 62
     3
 10
3440.625117
 20
2400.454119
 11
3440.625117
 21
51.907189
  0
LINE
  8
CSLAYER1
  6
CONTINUOUS
 62
     3
 10
3440.625117
 20
51.907189
 11
118.051807
 21
51.907189
  0
LINE
  8
CSLAYER1
  6
CONTINUOUS
 62
     5
 10
68.051807
 20
1211.907189
 11
18.051807
 21
1211.907189
  0
LINE
  8
CSLAYER1
  6
CONTINUOUS
 62
     5
 10
2640.625117
 20
491.907189
 11
3440.625117
 21
491.907189
  0
LINE
  8
CSLAYER1
  6
CONTINUOUS
 62
     5
 10
2640.625117
 20
131.907189
 11
3440.625117
 21
131.907189
  0
LINE
  8
CSLAYER1
  6
CONTINUOUS
 62
     5
 10
2640.625117
 20
291.907189
 11
3440.625117
 21
291.907189
  0
LINE
  8
CSLAYER1
  6
CONTINUOUS
 62
     5
 10
2640.625117
 20
351.907189
 11
3440.625117
 21
351.907189
  0
LINE
  8
CSLAYER1
  6
CONTINUOUS
 62
     5
 10
2640.625117
 20
411.907189
 11
3440.625117
 21
411.907189
  0
LINE
  8
CSLAYER1
  6
CONTINUOUS
 62
     5
 10
2640.625117
 20
571.907189
 11
3440.625117
 21
571.907189
  0
LINE
  8
CSLAYER1
  6
CONTINUOUS
 62
     5
 10
2640.625117
 20
651.907189
 11
2640.625117
 21
51.907189
  0
LINE
  8
CSLAYER1
  6
CONTINUOUS
 62
     5
 10
2840.625117
 20
651.907189
 11
2840.625117
 21
411.907189
  0
LINE
  8
CSLAYER1
  6
CONTINUOUS
 62
     5
 10
2640.625117
 20
651.907189
 11
3440.625117
 21
651.907189
  0
LINE
  8
CSLAYER1
  6
CONTINUOUS
 62
     5
 10
3140.625117
 20
411.907189
 11
3140.625117
 21
131.907189
  0
TEXT
  8
CSLAYER1
 62
     3
 10
2860.316219
 20
60.469913
 40
59.380363
 41
1.003345
  1
東正車輌株式会社
 50
0.000000
 51
0.000000
  7
EASYDRAW_FONT
 72
     5
 11
3317.088566
 21
60.469913
  0
LINE
  8
CSLAYER1
  6
CONTINUOUS
 62
     5
 10
2890.625117
 20
351.907189
 11
2890.625117
 21
131.907189
  0
TEXT
  8
CSLAYER1
 62
     5
 10
2670.625000
 20
586.907166
 40
50.000000
 41
1.050000
  1
品　名
 50
0.000000
 51
0.000000
  7
EASYDRAW_FONT
 72
     5
 11
2810.625000
 21
586.907166
  0
TEXT
  8
CSLAYER1
 62
     5
 10
2670.625000
 20
506.907166
 40
50.000000
 41
1.050000
  1
型　式
 50
0.000000
 51
0.000000
  7
EASYDRAW_FONT
 72
     5
 11
2810.625000
 21
506.907166
  0
TEXT
  8
CSLAYER1
 62
     5
 10
2645.625000
 20
426.907196
 40
50.000000
 41
1.036364
  1
図面番号
 50
0.000000
 51
0.000000
  7
EASYDRAW_FONT
 72
     5
 11
2835.625000
 21
426.907196
  0
TEXT
  8
CSLAYER1
 62
     5
 10
2710.625000
 20
356.907196
 40
50.000000
 41
0.830769
  1
平成１３年３月７日
 50
0.000000
 51
0.000000
  7
EASYDRAW_FONT
 72
     5
 11
3070.625000
 21
356.907196
  0
TEXT
  8
CSLAYER1
 62
     5
 10
3220.625000
 20
356.907196
 40
50.000000
 41
1.050000
  1
Ｂ－４
 50
0.000000
 51
0.000000
  7
EASYDRAW_FONT
 72
     5
 11
3360.625000
 21
356.907196
  0
TEXT
  8
CSLAYER1
 62
     5
 10
2695.625000
 20
296.907196
 40
50.000000
 41
1.050000
  1
検　図
 50
0.000000
 51
0.000000
  7
EASYDRAW_FONT
 72
     5
 11
2835.625000
 21
296.907196
  0
TEXT
  8
CSLAYER1
 62
     5
 10
2945.625000
 20
296.907196
 40
50.000000
 41
1.050000
  1
作　図
 50
0.000000
 51
0.000000
  7
EASYDRAW_FONT
 72
     5
 11
3085.625000
 21
296.907196
  0
TEXT
  8
CSLAYER1
 62
     5
 10
3220.625000
 20
296.907196
 40
50.000000
 41
1.050000
  1
尺　度
 50
0.000000
 51
0.000000
  7
EASYDRAW_FONT
 72
     5
 11
3360.625000
 21
296.907196
  0
TEXT
  8
CSLAYER1
 62
     5
 10
3321.363770
 20
146.392456
 40
50.000000
 41
1.080000
  1
１０
 50
0.000000
 51
0.000000
  7
EASYDRAW_FONT
 72
     5
 11
3411.363770
 21
146.392456
  0
TEXT
  8
CSLAYER1
 62
     5
 10
3301.044189
 20
194.097153
 40
50.000000
 41
1.200000
  1
／
 50
0.000000
 51
0.000000
  7
EASYDRAW_FONT
 72
     5
 11
3341.044189
 21
194.097153
  0
TEXT
  8
CSLAYER1
 62
     5
 10
3270.831299
 20
229.080597
 40
50.000000
 41
1.200000
  1
１
 50
0.000000
 51
0.000000
  7
EASYDRAW_FONT
 72
     5
 11
3310.831299
 21
229.080597
  0
TEXT
  8
CSLAYER1
 62
     3
 10
2980.625000
 20
586.907166
 40
50.000000
 41
0.834783
  1
ゴールドリフター
 50
0.000000
 51
0.000000
  7
EASYDRAW_FONT
 72
     5
 11
3300.625000
 21
586.907166
  0
TEXT
  8
CSLAYER1
 62
     3
 10
2900.625000
 20
506.907166
 40
50.000000
 41
0.822857
  1
ＧＬＥ－５００－０９０９
 50
0.000000
 51
0.000000
  7
EASYDRAW_FONT
 72
     5
 11
3380.625000
 21
506.907166
  0
TEXT
  8
CSLAYER1
 62
     3
 10
3020.625000
 20
426.907196
 40
50.000000
 41
0.847059
  1
GT-12 
 50
0.000000
 51
0.000000
  7
EASYDRAW_FONT
 72
     5
 11
3260.625000
 21
426.907196
  0
INSERT
  8
CSLAYER1
  2
BLKF0000
 10
0.0
 20
0.0
 30
0.0
  0
INSERT
  8
CSLAYER1
  2
BLKF0001
 10
0.0
 20
0.0
 30
0.0
  0
LINE
  8
CSLAYER1
  6
CONTINUOUS
 62
     3
 10
2581.364953
 20
342.559330
 11
195.313672
 21
342.559330
  0
LINE
  8
CSLAYER1
  6
CONTINUOUS
 62
     3
 10
1278.853264
 20
407.559330
 11
1278.853264
 21
342.559330
  0
LINE
  8
CSLAYER1
  6
CONTINUOUS
 62
     3
 10
2178.853264
 20
407.559330
 11
2178.853264
 21
342.559330
  0
LINE
  8
CSLAYER1
  6
CONTINUOUS
 62
     3
 10
2178.853264
 20
1291.106260
 11
2178.853264
 21
2191.106260
  0
LINE
  8
CSLAYER1
  6
CENTER
 62
     5
 10
678.853264
 20
1145.096025
 11
678.853264
 21
323.335028
  0
LINE
  8
CSLAYER1
  6
CONTINUOUS
 62
     3
 10
228.853264
 20
1117.559330
 11
1128.853264
 21
1117.559330
  0
LINE
  8
CSLAYER1
  6
CONTINUOUS
 62
     3
 10
228.853264
 20
1067.559330
 11
1128.853264
 21
1067.559330
  0
LINE
  8
CSLAYER1
  6
CONTINUOUS
 62
     3
 10
1008.853264
 20
1067.559330
 11
1008.853264
 21
407.559330
  0
LINE
  8
CSLAYER1
  6
CONTINUOUS
 62
     3
 10
1020.853264
 20
1067.559330
 11
1020.853264
 21
407.559330
  0
LINE
  8
CSLAYER1
  6
CONTINUOUS
 62
     3
 10
1027.853264
 20
1067.559330
 11
1027.853264
 21
437.789279
  0
LINE
  8
CSLAYER1
  6
CONTINUOUS
 62
     3
 10
1039.853264
 20
1067.559330
 11
1039.853264
 21
437.789279
  0
LINE
  8
CSLAYER1
  6
CENTER
 62
     5
 10
1084.301241
 20
729.959330
 11
271.098568
 21
729.959330
  0
LINE
  8
CSLAYER1
  6
CENTER
 62
     5
 10
1008.853264
 20
725.486302
 11
348.853264
 21
725.486302
  0
LINE
  8
CSLAYER1
  6
CONTINUOUS
 62
     3
 10
707.853264
 20
755.736302
 11
649.853264
 21
755.736302
  0
LINE
  8
CSLAYER1
  6
CONTINUOUS
 62
     3
 10
1008.853264
 20
695.236302
 11
348.853264
 21
695.236302
  0
LINE
  8
CSLAYER1
  6
CONTINUOUS
 62
     5
 10
1058.853264
 20
737.959330
 11
1058.853264
 21
721.959330
  0
LINE
  8
CSLAYER1
  6
CONTINUOUS
 62
     5
 10
1020.853264
 20
754.959330
 11
1027.853264
 21
754.959330
  0
LINE
  8
CSLAYER1
  6
CONTINUOUS
 62
     5
 10
1020.853264
 20
704.959330
 11
1027.853264
 21
704.959330
  0
LINE
  8
CSLAYER1
  6
CONTINUOUS
 62
     5
 10
1042.853264
 20
744.959330
 11
1042.853264
 21
714.959330
  0
LINE
  8
CSLAYER1
  6
CONTINUOUS
 62
     5
 10
1046.853264
 20
743.959330
 11
1046.853264
 21
715.959330
  0
LINE
  8
CSLAYER1
  6
CONTINUOUS
 62
     5
 10
1046.853264
 20
737.959330
 11
1058.853264
 21
737.959330
  0
LINE
  8
CSLAYER1
  6
CONTINUOUS
 62
     5
 10
1046.853264
 20
721.959330
 11
1058.853264
 21
721.959330
  0
LINE
  8
CSLAYER1
  6
CONTINUOUS
 62
     5
 10
1042.853264
 20
743.959330
 11
1056.853264
 21
743.959330
  0
LINE
  8
CSLAYER1
  6
CONTINUOUS
 62
     5
 10
1042.853264
 20
715.959330
 11
1056.853264
 21
715.959330
  0
LINE
  8
CSLAYER1
  6
CONTINUOUS
 62
     5
 10
1056.853264
 20
743.959330
 11
1056.853264
 21
715.959330
  0
LINE
  8
CSLAYER1
  6
CONTINUOUS
 62
     5
 10
1039.853264
 20
744.959330
 11
1042.853264
 21
744.959330
  0
LINE
  8
CSLAYER1
  6
CONTINUOUS
 62
     5
 10
1039.853264
 20
714.959330
 11
1042.853264
 21
714.959330
  0
LINE
  8
CSLAYER1
  6
CONTINUOUS
 62
     3
 10
707.853264
 20
845.335790
 11
707.853264
 21
746.158387
  0
LINE
  8
CSLAYER1
  6
CONTINUOUS
 62
     3
 10
716.853264
 20
845.335790
 11
716.853264
 21
746.158387
  0
LINE
  8
CSLAYER1
  6
CONTINUOUS
 62
     3
 10
692.853264
 20
850.053859
 11
692.853264
 21
807.835785
  0
LINE
  8
CSLAYER1
  6
CONTINUOUS
 62
     5
 10
1548.301389
 20
862.898278
 11
1548.301389
 21
804.128270
  0
LINE
  8
CSLAYER1
  6
CONTINUOUS
 62
     3
 10
707.853264
 20
845.335790
 11
716.853264
 21
845.335790
  0
LINE
  8
CSLAYER1
  6
CONTINUOUS
 62
     3
 10
707.853264
 20
746.158387
 11
716.853264
 21
746.158387
  0
LINE
  8
CSLAYER1
  6
CONTINUOUS
 62
     3
 10
707.853264
 20
748.489530
 11
716.853264
 21
748.489530
  0
LINE
  8
CSLAYER1
  6
CONTINUOUS
 62
     5
 10
727.841570
 20
825.335785
 11
629.864958
 21
825.335785
  0
LINE
  8
CSLAYER1
  6
CONTINUOUS
 62
     3
 10
716.853264
 20
755.736302
 11
1008.853264
 21
755.736302
  0
LINE
  8
CSLAYER1
  6
CONTINUOUS
 62
     3
 10
692.853264
 20
842.835785
 11
707.853264
 21
842.835785
  0
LINE
  8
CSLAYER1
  6
CONTINUOUS
 62
     3
 10
692.853264
 20
807.835785
 11
707.853264
 21
807.835785
  0
LINE
  8
CSLAYER1
  6
CONTINUOUS
 62
     3
 10
692.853264
 20
850.053859
 11
664.853264
 21
850.053859
  0
LINE
  8
CSLAYER1
  6
CONTINUOUS
 62
     3
 10
692.853264
 20
837.598422
 11
664.853264
 21
837.598422
  0
LINE
  8
CSLAYER1
  6
CONTINUOUS
 62
     3
 10
703.853264
 20
807.835785
 11
703.853264
 21
755.736302
  0
LINE
  8
CSLAYER1
  6
CONTINUOUS
 62
     3
 10
703.853264
 20
695.236302
 11
703.853264
 21
661.159336
  0
LINE
  8
CSLAYER1
  6
CONTINUOUS
 62
     3
 10
653.853264
 20
695.236302
 11
653.853264
 21
661.159336
  0
ARC
  8
CSLAYER1
  6
CONTINUOUS
 62
     3
 10
678.853264
 20
689.191506
 40
37.560652
 50
228.272384
 51
311.727616
  0
LINE
  8
CSLAYER1
  6
CONTINUOUS
 62
     3
 10
712.353264
 20
661.159336
 11
712.353264
 21
604.301501
  0
LINE
  8
CSLAYER1
  6
CONTINUOUS
 62
     3
 10
645.353264
 20
661.159336
 11
645.353264
 21
604.301501
  0
ARC
  8
CSLAYER1
  6
CONTINUOUS
 62
     3
 10
678.853264
 20
698.722444
 40
50.331273
 50
228.272384
 51
311.727616
  0
ARC
  8
CSLAYER1
  6
CONTINUOUS
 62
     3
 10
678.853264
 20
623.596228
 40
50.331273
 50
48.272384
 51
60.217488
  0
ARC
  8
CSLAYER1
  6
CONTINUOUS
 62
     3
 10
678.853264
 20
623.596228
 40
50.331273
 50
119.782512
 51
131.727616
  0
LINE
  8
CSLAYER1
  6
CONTINUOUS
 62
     3
 10
713.853264
 20
604.301501
 11
713.853264
 21
582.575337
  0
LINE
  8
CSLAYER1
  6
CONTINUOUS
 62
     3
 10
643.853264
 20
604.301501
 11
643.853264
 21
582.575337
  0
ARC
  8
CSLAYER1
  6
CONTINUOUS
 62
     3
 10
678.853264
 20
641.864609
 40
50.331273
 50
228.272384
 51
311.727616
  0
ARC
  8
CSLAYER1
  6
CONTINUOUS
 62
     3
 10
678.853264
 20
643.546539
 40
52.584913
 50
228.272384
 51
311.727616
  0
ARC
  8
CSLAYER1
  6
CONTINUOUS
 62
     3
 10
678.853264
 20
621.820375
 40
52.584913
 50
228.272384
 51
311.727616
  0
ARC
  8
CSLAYER1
  6
CONTINUOUS
 62
     3
 10
678.853264
 20
565.056463
 40
52.584913
 50
48.272384
 51
50.426700
  0
ARC
  8
CSLAYER1
  6
CONTINUOUS
 62
     3
 10
678.853264
 20
565.056463
 40
52.584913
 50
129.573300
 51
131.727616
  0
LINE
  8
CSLAYER1
  6
CONTINUOUS
 62
     3
 10
646.353264
 20
580.481253
 11
646.353264
 21
434.680845
  0
LINE
  8
CSLAYER1
  6
CONTINUOUS
 62
     3
 10
711.353264
 20
580.481253
 11
711.353264
 21
485.371351
  0
LINE
  8
CSLAYER1
  6
CONTINUOUS
 62
     5
 10
2178.653264
 20
497.559330
 11
2162.684933
 21
497.559330
  0
LINE
  8
CSLAYER1
  6
CONTINUOUS
 62
     5
 10
2178.653264
 20
447.559330
 11
2163.298594
 21
447.559330
  0
LINE
  8
CSLAYER1
  6
CONTINUOUS
 62
     5
 10
1278.653264
 20
447.559330
 11
1278.653264
 21
456.579689
  0
LINE
  8
CSLAYER1
  6
CONTINUOUS
 62
     5
 10
2178.653264
 20
447.559330
 11
2178.653264
 21
455.764154
  0
LINE
  8
CSLAYER1
  6
CONTINUOUS
 62
     5
 10
298.853264
 20
737.959330
 11
298.853264
 21
721.959330
  0
LINE
  8
CSLAYER1
  6
CONTINUOUS
 62
     5
 10
336.853264
 20
754.959330
 11
329.853264
 21
754.959330
  0
LINE
  8
CSLAYER1
  6
CONTINUOUS
 62
     5
 10
336.853264
 20
704.959330
 11
329.853264
 21
704.959330
  0
LINE
  8
CSLAYER1
  6
CONTINUOUS
 62
     5
 10
314.853264
 20
744.959330
 11
314.853264
 21
714.959330
  0
LINE
  8
CSLAYER1
  6
CONTINUOUS
 62
     5
 10
310.853264
 20
743.959330
 11
310.853264
 21
715.959330
  0
LINE
  8
CSLAYER1
  6
CONTINUOUS
 62
     5
 10
310.853264
 20
737.959330
 11
298.853264
 21
737.959330
  0
LINE
  8
CSLAYER1
  6
CONTINUOUS
 62
     5
 10
310.853264
 20
721.959330
 11
298.853264
 21
721.959330
  0
LINE
  8
CSLAYER1
  6
CONTINUOUS
 62
     5
 10
314.853264
 20
743.959330
 11
300.853264
 21
743.959330
  0
LINE
  8
CSLAYER1
  6
CONTINUOUS
 62
     5
 10
314.853264
 20
715.959330
 11
300.853264
 21
715.959330
  0
LINE
  8
CSLAYER1
  6
CONTINUOUS
 62
     5
 10
300.853264
 20
743.959330
 11
300.853264
 21
715.959330
  0
LINE
  8
CSLAYER1
  6
CONTINUOUS
 62
     5
 10
317.853264
 20
744.959330
 11
314.853264
 21
744.959330
  0
LINE
  8
CSLAYER1
  6
CONTINUOUS
 62
     5
 10
317.853264
 20
714.959330
 11
314.853264
 21
714.959330
  0
LINE
  8
CSLAYER1
  6
CONTINUOUS
 62
     3
 10
649.853264
 20
845.335790
 11
649.853264
 21
746.158387
  0
LINE
  8
CSLAYER1
  6
CONTINUOUS
 62
     3
 10
640.853264
 20
845.335790
 11
640.853264
 21
746.158387
  0
LINE
  8
CSLAYER1
  6
CONTINUOUS
 62
     3
 10
664.853264
 20
850.053859
 11
664.853264
 21
807.835785
  0
LINE
  8
CSLAYER1
  6
CONTINUOUS
 62
     3
 10
649.853264
 20
845.335790
 11
640.853264
 21
845.335790
  0
LINE
  8
CSLAYER1
  6
CONTINUOUS
 62
     3
 10
649.853264
 20
746.158387
 11
640.853264
 21
746.158387
  0
LINE
  8
CSLAYER1
  6
CONTINUOUS
 62
     3
 10
649.853264
 20
748.489530
 11
640.853264
 21
748.489530
  0
LINE
  8
CSLAYER1
  6
CONTINUOUS
 62
     3
 10
640.853264
 20
755.736302
 11
348.853264
 21
755.736302
  0
LINE
  8
CSLAYER1
  6
CONTINUOUS
 62
     3
 10
664.853264
 20
842.835785
 11
649.853264
 21
842.835785
  0
LINE
  8
CSLAYER1
  6
CONTINUOUS
 62
     3
 10
664.853264
 20
807.835785
 11
649.853264
 21
807.835785
  0
LINE
  8
CSLAYER1
  6
CONTINUOUS
 62
     3
 10
653.853264
 20
807.835785
 11
653.853264
 21
755.736302
  0
LINE
  8
CSLAYER1
  6
CONTINUOUS
 62
     3
 10
348.853264
 20
1067.559330
 11
348.853264
 21
407.559330
  0
LINE
  8
CSLAYER1
  6
CONTINUOUS
 62
     3
 10
336.853264
 20
1067.559330
 11
336.853264
 21
407.559330
  0
LINE
  8
CSLAYER1
  6
CONTINUOUS
 62
     3
 10
329.853264
 20
1067.559330
 11
329.853264
 21
437.789279
  0
LINE
  8
CSLAYER1
  6
CONTINUOUS
 62
     3
 10
317.853264
 20
1067.559330
 11
317.853264
 21
437.789279
  0
LINE
  8
CSLAYER1
  6
CONTINUOUS
 62
     3
 10
885.415764
 20
430.759330
 11
936.353264
 21
430.759330
  0
LINE
  8
CSLAYER1
  6
CONTINUOUS
 62
     3
 10
1487.439931
 20
407.559330
 11
1492.853264
 21
430.759330
  0
LINE
  8
CSLAYER1
  6
CONTINUOUS
 62
     3
 10
1598.853264
 20
430.759330
 11
1604.266598
 21
407.559330
  0
LINE
  8
CSLAYER1
  6
CONTINUOUS
 62
     3
 10
1492.853264
 20
430.759330
 11
1598.853264
 21
430.759330
  0
LINE
  8
CSLAYER1
  6
CONTINUOUS
 62
     3
 10
936.353264
 20
430.759330
 11
939.833264
 21
407.559330
  0
TEXT
  8
CSLAYER1
 62
     3
 10
461.623840
 20
1703.361572
 40
50.000000
 41
1.020000
  1
ＵＰ・ＤＯＷＮ
 50
0.000000
 51
0.000000
  7
EASYDRAW_FONT
 72
     5
 11
801.623840
 21
1703.361572
  0
TEXT
  8
CSLAYER1
 62
     3
 10
462.368713
 20
1774.863037
 40
50.000000
 41
1.020000
  1
フットスイッチ
 50
0.000000
 51
0.000000
  7
EASYDRAW_FONT
 72
     5
 11
802.368713
 21
1774.863037
  0
LINE
  8
CSLAYER1
  6
CONTINUOUS
 62
     3
 10
1131.853748
 20
1491.106260
 11
858.853264
 21
1491.106260
  0
LINE
  8
CSLAYER1
  6
CONTINUOUS
 62
     3
 10
1132.386385
 20
1484.106260
 11
858.853264
 21
1484.106260
  0
ARC
  8
CSLAYER1
  6
CONTINUOUS
 62
     3
 10
1125.548987
 20
1530.606260
 40
40.000000
 50
-80.931278
 51
243.817766
  0
ARC
  8
CSLAYER1
  6
CONTINUOUS
 62
     3
 10
1125.548987
 20
1530.606260
 40
47.000000
 50
-81.635125
 51
229.860785
  0
LINE
  8
CSLAYER1
  6
CONTINUOUS
 62
     3
 10
1278.853264
 20
1491.106260
 11
1155.540604
 21
1491.106260
  0
LINE
  8
CSLAYER1
  6
CONTINUOUS
 62
     3
 10
1278.853264
 20
1484.106260
 11
1144.833712
 21
1484.106260
  0
LINE
  8
CSLAYER1
  6
CONTINUOUS
 62
     3
 10
1278.853264
 20
1462.106260
 11
1099.956077
 21
1462.106260
  0
LINE
  8
CSLAYER1
  6
CONTINUOUS
 62
     3
 10
1278.853264
 20
1469.106260
 11
1090.074286
 21
1469.106260
  0
TEXT
  8
CSLAYER1
 62
     3
 10
383.407135
 20
1377.865479
 40
50.000000
 41
1.028571
  1
電源コード
 50
0.000000
 51
0.000000
  7
EASYDRAW_FONT
 72
     5
 11
623.407135
 21
1377.865479
  0
TEXT
  8
CSLAYER1
 62
     3
 10
400.467682
 20
1307.733643
 40
50.000000
 41
1.036364
  1
長サ４ｍ
 50
0.000000
 51
0.000000
  7
EASYDRAW_FONT
 72
     5
 11
590.467682
 21
1307.733643
  0
LINE
  8
CSLAYER1
  6
CONTINUOUS
 62
     5
 10
642.468785
 20
1366.534750
 11
837.794473
 21
1314.197390
  0
LINE
  8
CSLAYER1
  6
CONTINUOUS
 62
     5
 10
837.794473
 20
1314.197390
 11
807.794473
 21
1314.197390
  0
LINE
  8
CSLAYER1
  6
CONTINUOUS
 62
     5
 10
837.794473
 20
1314.197390
 11
811.813711
 21
1329.197390
  0
LINE
  8
CSLAYER1
  6
CONTINUOUS
 62
     5
 10
445.422018
 20
1764.225211
 11
848.997248
 21
1764.225211
  0
LINE
  8
CSLAYER1
  6
CONTINUOUS
 62
     5
 10
365.790631
 20
1366.534750
 11
642.468785
 21
1366.534750
  0
LINE
  8
CSLAYER1
  6
CONTINUOUS
 62
     3
 10
1278.853264
 20
1291.106260
 11
1278.853264
 21
2191.106260
  0
LINE
  8
CSLAYER1
  6
CONTINUOUS
 62
     3
 10
853.455759
 20
1315.494021
 11
848.385131
 21
1313.584303
  0
LINE
  8
CSLAYER1
  6
CONTINUOUS
 62
     3
 10
848.385131
 20
1313.584303
 11
841.960500
 21
1313.405841
  0
LINE
  8
CSLAYER1
  6
CONTINUOUS
 62
     3
 10
854.510089
 20
1314.104919
 11
848.861030
 21
1311.740196
  0
LINE
  8
CSLAYER1
  6
CONTINUOUS
 62
     3
 10
848.861030
 20
1311.740196
 11
843.507170
 21
1310.431475
  0
LINE
  8
CSLAYER1
  6
CONTINUOUS
 62
     3
 10
855.352284
 20
1312.995309
 11
850.467188
 21
1310.134038
  0
LINE
  8
CSLAYER1
  6
CONTINUOUS
 62
     3
 10
850.467188
 20
1310.134038
 11
848.147182
 21
1306.802748
  0
LINE
  8
CSLAYER1
  6
PHANTOM
 62
     5
 10
2162.684933
 20
497.559330
 11
1292.892643
 21
497.559330
  0
LINE
  8
CSLAYER1
  6
PHANTOM
 62
     5
 10
2163.298594
 20
447.559330
 11
1294.637978
 21
447.559330
  0
LINE
  8
CSLAYER1
  6
CONTINUOUS
 62
     5
 10
2178.653264
 20
485.720510
 11
2178.653264
 21
497.559330
  0
LINE
  8
CSLAYER1
  6
CONTINUOUS
 62
     5
 10
2178.653264
 20
465.276362
 11
2178.653264
 21
479.615660
  0
LINE
  8
CSLAYER1
  6
CONTINUOUS
 62
     5
 10
1292.892643
 20
497.559330
 11
1278.653264
 21
497.559330
  0
LINE
  8
CSLAYER1
  6
CONTINUOUS
 62
     5
 10
1294.637978
 20
447.559330
 11
1278.653264
 21
447.559330
  0
LINE
  8
CSLAYER1
  6
CONTINUOUS
 62
     5
 10
1278.653264
 20
485.847619
 11
1278.653264
 21
497.559330
  0
LINE
  8
CSLAYER1
  6
CONTINUOUS
 62
     5
 10
1278.653264
 20
464.232313
 11
1278.653264
 21
478.732022
  0
INSERT
  8
CSLAYER1
  2
EASYDRAWDIM0000
 10
0.0
 20
0.0
 30
0.0
  0
DIMENSION
  8
CSLAYER1
 62
     3
  2
*D0000
 10
2278.653264
 20
497.559330
 11
2268.653320
 21
420.059265
 13
2178.653264
 23
342.559330
 14
2178.653264
 24
497.559330
 50
90.000000
 70
1
  0
DIMENSION
  8
CSLAYER1
 62
     3
  2
*D0001
 10
2278.653264
 20
497.559330
 11
2268.653320
 21
807.559265
 13
2278.653264
 23
1117.559330
 14
2278.653264
 24
497.559330
 50
90.000000
 70
1
  0
DIMENSION
  8
CSLAYER1
 62
     3
  2
*D0002
 10
2378.653264
 20
1117.559330
 11
2368.653320
 21
730.059265
 13
2178.653264
 23
342.559330
 14
2178.653264
 24
1117.559330
 50
90.000000
 70
1
  0
LINE
  8
CSLAYER1
  6
CENTER
 62
     5
 10
2201.265947
 20
1741.106260
 11
1249.771269
 21
1741.106260
  0
DIMENSION
  8
CSLAYER1
 62
     3
  2
*D0003
 10
2178.653264
 20
1217.559330
 11
1728.653320
 21
1227.559326
 13
1278.653264
 23
1117.559330
 14
2178.653264
 24
1117.559330
 70
1
  0
INSERT
  8
CSLAYER1
  2
EASYDRAWDIM0001
 10
0.0
 20
0.0
 30
0.0
  0
DIMENSION
  8
CSLAYER1
 62
     3
  2
*D0004
 10
2178.853264
 20
242.559330
 11
1728.853394
 21
252.559280
 13
1278.853264
 23
342.559330
 14
2178.853264
 24
342.559330
 52
270.000000
 70
1
  0
ARC
  8
CSLAYER1
  6
CONTINUOUS
 62
     3
 10
1068.421136
 20
1422.106260
 40
47.000000
 50
-190.756396
 51
127.198537
  0
ARC
  8
CSLAYER1
  6
CONTINUOUS
 62
     3
 10
1068.421136
 20
1422.106260
 40
40.000000
 50
-203.471057
 51
127.198537
  0
LINE
  8
CSLAYER1
  6
CONTINUOUS
 62
     3
 10
852.272006
 20
1317.053641
 11
1040.005934
 21
1459.543892
  0
LINE
  8
CSLAYER1
  6
CONTINUOUS
 62
     3
 10
856.504057
 20
1311.477823
 11
1044.237985
 21
1453.968074
  0
LINE
  8
CSLAYER1
  6
CONTINUOUS
 62
     3
 10
852.272006
 20
1317.053641
 11
856.504057
 21
1311.477823
  0
TEXT
  8
CSLAYER1
 62
     3
 10
2443.499512
 20
355.831726
 40
50.000000
 41
1.050000
  1
F.L
 50
0.000000
 51
0.000000
  7
EASYDRAW_FONT
 72
     5
 11
2583.499512
 21
355.831726
  0
LINE
  8
CSLAYER1
  6
CONTINUOUS
 62
     5
 10
805.818239
 20
1560.106260
 11
848.790317
 21
1763.246995
  0
LINE
  8
CSLAYER1
  6
CONTINUOUS
 62
     5
 10
805.818239
 20
1560.106260
 11
804.218972
 21
1590.063602
  0
LINE
  8
CSLAYER1
  6
CONTINUOUS
 62
     5
 10
805.818239
 20
1560.106260
 11
819.411904
 21
1586.849712
  0
TEXT
  8
CSLAYER1
 62
     3
 10
1115.723389
 20
720.899353
 40
50.000000
 41
1.023529
  1
油圧ユニット
 50
0.000000
 51
0.000000
  7
EASYDRAW_FONT
 72
     5
 11
1405.723389
 21
720.899353
  0
LINE
  8
CSLAYER1
  6
CONTINUOUS
 62
     5
 10
1104.338110
 20
712.463682
 11
1412.681100
 21
712.463682
  0
LINE
  8
CSLAYER1
  6
CONTINUOUS
 62
     3
 10
1299.373405
 20
436.915692
 11
1489.762406
 21
729.959330
  0
LINE
  8
CSLAYER1
  6
CONTINUOUS
 62
     3
 10
1357.814514
 20
407.559330
 11
1528.519302
 21
670.305349
  0
LINE
  8
CSLAYER1
  6
CONTINUOUS
 62
     3
 10
1297.828953
 20
407.559330
 11
1299.373405
 21
436.915692
  0
LINE
  8
CSLAYER1
  6
CONTINUOUS
 62
     3
 10
1757.665199
 20
1023.002967
 11
1760.009332
 21
1067.559330
  0
LINE
  8
CSLAYER1
  6
CENTER
 62
     5
 10
1744.185340
 20
1090.359330
 11
1312.853264
 21
369.559330
  0
ARC
  8
CSLAYER1
  6
CONTINUOUS
 62
     3
 10
1548.301387
 20
825.335790
 40
20.000000
 50
48.728034
 51
153.218365
  0
LINE
  8
CSLAYER1
  6
CONTINUOUS
 62
     3
 10
1516.896982
 20
807.502196
 11
1530.446781
 21
834.347618
  0
LINE
  8
CSLAYER1
  6
CONTINUOUS
 62
     3
 10
1330.557422
 20
407.559330
 11
1317.668760
 21
419.326899
  0
LINE
  8
CSLAYER1
  6
CONTINUOUS
 62
     3
 10
1352.987608
 20
420.932809
 11
1334.525229
 21
437.789279
  0
LINE
  8
CSLAYER1
  6
CONTINUOUS
 62
     3
 10
1340.777392
 20
407.559330
 11
1352.987608
 21
420.932809
  0
LINE
  8
CSLAYER1
  6
CONTINUOUS
 62
     3
 10
1317.668760
 20
419.326899
 11
1334.525229
 21
437.789279
  0
LINE
  8
CSLAYER1
  6
CONTINUOUS
 62
     5
 10
1348.561842
 20
408.047297
 11
1322.821196
 21
431.548949
  0
LINE
  8
CSLAYER1
  6
CONTINUOUS
 62
     3
 10
1299.373405
 20
1023.002967
 11
1699.224091
 21
407.559330
  0
LINE
  8
CSLAYER1
  6
CONTINUOUS
 62
     3
 10
1347.939149
 20
1067.559330
 11
1757.665199
 21
436.915692
  0
LINE
  8
CSLAYER1
  6
CONTINUOUS
 62
     3
 10
1297.029273
 20
1067.559330
 11
1299.373405
 21
1023.002967
  0
LINE
  8
CSLAYER1
  6
CONTINUOUS
 62
     3
 10
1757.665199
 20
436.915692
 11
1759.209652
 21
407.559330
  0
LINE
  8
CSLAYER1
  6
CENTER
 62
     5
 10
1744.185340
 20
369.559330
 11
1312.853264
 21
1090.359330
  0
LINE
  8
CSLAYER1
  6
CONTINUOUS
 62
     3
 10
1769.422755
 20
435.722942
 11
1766.619112
 21
426.451729
  0
ARC
  8
CSLAYER1
  6
CONTINUOUS
 62
     3
 10
1766.551182
 20
436.591314
 40
3.000000
 50
-16.825477
 51
98.232139
  0
LINE
  8
CSLAYER1
  6
CONTINUOUS
 62
     3
 10
1766.121630
 20
439.560402
 11
1756.821139
 21
438.214855
  0
ARC
  8
CSLAYER1
  6
CONTINUOUS
 62
     3
 10
1771.156311
 20
396.543932
 40
30.250000
 50
21.354997
 51
115.051597
  0
LINE
  8
CSLAYER1
  6
CONTINUOUS
 62
     3
 10
1682.009080
 20
422.293819
 11
1688.036714
 21
424.778756
  0
LINE
  8
CSLAYER1
  6
CONTINUOUS
 62
     3
 10
1678.173229
 20
425.039042
 11
1685.819594
 21
428.191312
  0
LINE
  8
CSLAYER1
  6
CONTINUOUS
 62
     3
 10
1612.822176
 20
659.855706
 11
1645.568914
 21
673.355792
  0
LINE
  8
CSLAYER1
  6
CONTINUOUS
 62
     3
 10
1659.935992
 20
587.338891
 11
1680.739305
 21
595.915211
  0
LINE
  8
CSLAYER1
  6
CONTINUOUS
 62
     3
 10
1646.078987
 20
608.667366
 11
1669.824047
 21
618.456443
  0
LINE
  8
CSLAYER1
  6
CONTINUOUS
 62
     3
 10
1671.782532
 20
617.641375
 11
1680.739305
 21
595.915211
  0
LINE
  8
CSLAYER1
  6
CONTINUOUS
 62
     3
 10
1647.527400
 20
672.540725
 11
1669.824047
 21
618.456443
  0
LINE
  8
CSLAYER1
  6
CONTINUOUS
 62
     3
 10
1646.910407
 20
607.387657
 11
1671.782532
 21
617.641375
  0
LINE
  8
CSLAYER1
  6
CONTINUOUS
 62
     3
 10
1671.782532
 20
617.641375
 11
1669.824047
 21
618.456443
  0
LINE
  8
CSLAYER1
  6
CONTINUOUS
 62
     3
 10
1647.527400
 20
672.540725
 11
1645.568914
 21
673.355792
  0
LINE
  8
CSLAYER1
  6
CONTINUOUS
 62
     3
 10
1613.653596
 20
658.575997
 11
1647.527400
 21
672.540725
  0
LINE
  8
CSLAYER1
  6
CONTINUOUS
 62
     3
 10
1661.341103
 20
465.868205
 11
1678.173229
 21
425.039042
  0
LINE
  8
CSLAYER1
  6
CONTINUOUS
 62
     3
 10
1678.428011
 20
594.962363
 11
1719.134935
 21
496.220845
  0
LINE
  8
CSLAYER1
  6
CONTINUOUS
 62
     3
 10
1680.484523
 20
425.991890
 11
1682.009080
 21
422.293819
  0
LINE
  8
CSLAYER1
  6
CONTINUOUS
 62
     3
 10
1684.320374
 20
423.246667
 11
1696.837800
 21
407.559330
  0
LINE
  8
CSLAYER1
  6
CENTER
 62
     5
 10
1548.301388
 20
825.335788
 11
1718.510812
 21
412.464092
  0
LINE
  8
CSLAYER1
  6
CONTINUOUS
 62
     3
 10
1596.266602
 20
774.580885
 11
1639.097291
 21
670.687817
  0
LINE
  8
CSLAYER1
  6
CONTINUOUS
 62
     3
 10
1525.572219
 20
837.598422
 11
1555.784986
 21
850.053859
  0
LINE
  8
CSLAYER1
  6
CONTINUOUS
 62
     3
 10
1563.785118
 20
843.893878
 11
1555.784986
 21
850.053859
  0
LINE
  8
CSLAYER1
  6
CONTINUOUS
 62
     3
 10
1523.282750
 20
820.429894
 11
1525.572219
 21
837.598422
  0
LINE
  8
CSLAYER1
  6
CONTINUOUS
 62
     3
 10
1622.853264
 20
488.359330
 11
1465.853264
 21
488.359330
  0
LINE
  8
CSLAYER1
  6
CONTINUOUS
 62
     3
 10
1633.853264
 20
447.109330
 11
1633.853264
 21
407.559330
  0
LINE
  8
CSLAYER1
  6
CONTINUOUS
 62
     3
 10
1622.853264
 20
488.359330
 11
1622.853264
 21
407.559330
  0
LINE
  8
CSLAYER1
  6
CONTINUOUS
 62
     3
 10
1633.853264
 20
447.109330
 11
1622.853264
 21
447.109330
  0
LINE
  8
CSLAYER1
  6
CONTINUOUS
 62
     5
 10
1633.853264
 20
482.759330
 11
1618.250642
 21
482.759330
  0
LINE
  8
CSLAYER1
  6
CONTINUOUS
 62
     5
 10
1628.553264
 20
485.259330
 11
1628.553264
 21
480.259330
  0
LINE
  8
CSLAYER1
  6
CONTINUOUS
 62
     5
 10
1623.853264
 20
487.759330
 11
1623.853264
 21
477.759330
  0
LINE
  8
CSLAYER1
  6
CONTINUOUS
 62
     5
 10
1624.853264
 20
487.759330
 11
1624.853264
 21
477.759330
  0
LINE
  8
CSLAYER1
  6
CONTINUOUS
 62
     5
 10
1626.153264
 20
487.759330
 11
1622.853264
 21
487.759330
  0
LINE
  8
CSLAYER1
  6
CONTINUOUS
 62
     5
 10
1626.153264
 20
477.759330
 11
1622.853264
 21
477.759330
  0
LINE
  8
CSLAYER1
  6
CONTINUOUS
 62
     5
 10
1626.153264
 20
487.759330
 11
1626.153264
 21
477.759330
  0
LINE
  8
CSLAYER1
  6
CONTINUOUS
 62
     5
 10
1626.553264
 20
487.259330
 11
1626.153264
 21
487.259330
  0
LINE
  8
CSLAYER1
  6
CONTINUOUS
 62
     5
 10
1626.553264
 20
478.259330
 11
1626.153264
 21
478.259330
  0
ARC
  8
CSLAYER1
  6
CONTINUOUS
 62
     5
 10
1626.553264
 20
485.259330
 40
2.000000
 50
0.000000
 51
90.000000
  0
ARC
  8
CSLAYER1
  6
CONTINUOUS
 62
     5
 10
1626.553264
 20
480.259330
 40
2.000000
 50
270.000000
 51
360.000000
  0
LINE
  8
CSLAYER1
  6
CONTINUOUS
 62
     5
 10
1624.853264
 20
481.633497
 11
1626.153264
 21
483.885163
  0
LINE
  8
CSLAYER1
  6
CONTINUOUS
 62
     5
 10
1612.853264
 20
461.341282
 11
1612.853264
 21
420.909733
  0
LINE
  8
CSLAYER1
  6
CONTINUOUS
 62
     5
 10
1590.853264
 20
482.759330
 11
1590.853264
 21
430.759330
  0
LINE
  8
CSLAYER1
  6
CONTINUOUS
 62
     5
 10
1554.853264
 20
461.341282
 11
1554.853264
 21
459.737042
  0
LINE
  8
CSLAYER1
  6
CONTINUOUS
 62
     5
 10
1599.854094
 20
426.470060
 11
1605.853264
 21
426.470060
  0
LINE
  8
CSLAYER1
  6
CONTINUOUS
 62
     5
 10
1572.853264
 20
462.841282
 11
1608.853264
 21
462.841282
  0
LINE
  8
CSLAYER1
  6
CONTINUOUS
 62
     5
 10
1600.635271
 20
423.122157
 11
1608.853264
 21
423.122157
  0
ARC
  8
CSLAYER1
  6
CONTINUOUS
 62
     5
 10
1590.853264
 20
444.655671
 40
12.500000
 50
-170.165413
 51
140.165413
  0
LINE
  8
CSLAYER1
  6
CONTINUOUS
 62
     5
 10
1608.853264
 20
462.841282
 11
1608.853264
 21
423.122157
  0
LINE
  8
CSLAYER1
  6
CONTINUOUS
 62
     5
 10
1605.853264
 20
462.841282
 11
1605.853264
 21
426.470060
  0
LINE
  8
CSLAYER1
  6
CONTINUOUS
 62
     5
 10
1572.853264
 20
462.841282
 11
1572.853264
 21
454.913956
  0
LINE
  8
CSLAYER1
  6
CONTINUOUS
 62
     5
 10
1558.853264
 20
461.341282
 11
1558.853264
 21
458.665245
  0
ARC
  8
CSLAYER1
  6
CONTINUOUS
 62
     5
 10
1590.853264
 20
444.655671
 40
5.250000
 50
-105.000000
 51
75.000000
  0
LINE
  8
CSLAYER1
  6
CONTINUOUS
 62
     5
 10
1558.853264
 20
461.341282
 11
1572.853264
 21
462.841282
  0
LINE
  8
CSLAYER1
  6
CONTINUOUS
 62
     5
 10
1605.853264
 20
426.470060
 11
1608.853264
 21
423.122157
  0
LINE
  8
CSLAYER1
  6
CONTINUOUS
 62
     5
 10
1556.853264
 20
463.341282
 11
1573.785972
 21
463.341282
  0
ARC
  8
CSLAYER1
  6
CONTINUOUS
 62
     5
 10
1590.853264
 20
449.685647
 40
20.284880
 50
47.545857
 51
84.719619
  0
CIRCLE
  8
CSLAYER1
  6
CONTINUOUS
 62
     5
 10
1590.853264
 20
467.536036
 40
3.000000
  0
ARC
  8
CSLAYER1
  6
CONTINUOUS
 62
     5
 10
1590.853264
 20
426.467124
 40
16.796254
 50
314.594132
 51
324.821469
  0
LINE
  8
CSLAYER1
  6
CONTINUOUS
 62
     5
 10
1584.137961
 20
467.536036
 11
1596.899040
 21
467.536036
  0
ARC
  8
CSLAYER1
  6
CONTINUOUS
 62
     5
 10
1590.853264
 20
449.685647
 40
20.284880
 50
95.280381
 51
132.454143
  0
LINE
  8
CSLAYER1
  6
CONTINUOUS
 62
     5
 10
1607.920556
 20
463.341282
 11
1610.853264
 21
463.341282
  0
ARC
  8
CSLAYER1
  6
CONTINUOUS
 62
     5
 10
1573.785972
 20
468.341282
 40
5.000000
 50
270.000000
 51
312.454143
  0
ARC
  8
CSLAYER1
  6
CONTINUOUS
 62
     5
 10
1607.920556
 20
468.341282
 40
5.000000
 50
227.545857
 51
270.000000
  0
LINE
  8
CSLAYER1
  6
CONTINUOUS
 62
     5
 10
1608.668669
 20
418.909733
 11
1610.853264
 21
418.909733
  0
ARC
  8
CSLAYER1
  6
CONTINUOUS
 62
     5
 10
1608.668669
 20
413.909733
 40
5.000000
 50
90.000000
 51
144.821469
  0
LINE
  8
CSLAYER1
  6
CONTINUOUS
 62
     5
 10
1558.853264
 20
447.794845
 11
1558.853264
 21
430.759330
  0
LINE
  8
CSLAYER1
  6
CONTINUOUS
 62
     5
 10
1554.853264
 20
448.866642
 11
1554.853264
 21
430.759330
  0
LINE
  8
CSLAYER1
  6
CONTINUOUS
 62
     5
 10
1572.853264
 20
444.043557
 11
1572.853264
 21
430.759330
  0
LINE
  8
CSLAYER1
  6
CONTINUOUS
 62
     5
 10
1578.795669
 20
444.655671
 11
1605.853264
 21
444.655671
  0
LINE
  8
CSLAYER1
  6
CONTINUOUS
 62
     3
 10
1327.858400
 20
480.759330
 11
1303.853264
 21
480.759330
  0
LINE
  8
CSLAYER1
  6
CONTINUOUS
 62
     2
 10
1331.106875
 20
485.759330
 11
1310.853264
 21
485.759330
  0
LINE
  8
CSLAYER1
  6
CONTINUOUS
 62
     2
 10
1310.853264
 20
485.759330
 11
1310.853264
 21
480.759330
  0
LINE
  8
CSLAYER1
  6
CONTINUOUS
 62
     2
 10
1327.853264
 20
485.759330
 11
1327.853264
 21
480.759330
  0
LINE
  8
CSLAYER1
  6
CONTINUOUS
 62
     2
 10
1315.853264
 20
485.759330
 11
1315.853264
 21
480.759330
  0
CIRCLE
  8
CSLAYER1
  6
CONTINUOUS
 62
     2
 10
1321.853264
 20
481.759330
 40
0.500000
  0
LINE
  8
CSLAYER1
  6
CONTINUOUS
 62
     5
 10
1614.853264
 20
488.359330
 11
1614.853264
 21
407.559330
  0
LINE
  8
CSLAYER1
  6
CONTINUOUS
 62
     3
 10
1298.523411
 20
420.759330
 11
1290.853264
 21
420.759330
  0
ARC
  8
CSLAYER1
  6
CONTINUOUS
 62
     5
 10
1556.853264
 20
461.341282
 40
2.000000
 50
90.000000
 51
180.000000
  0
ARC
  8
CSLAYER1
  6
CONTINUOUS
 62
     5
 10
1610.853264
 20
420.909733
 40
2.000000
 50
270.000000
 51
360.000000
  0
ARC
  8
CSLAYER1
  6
CONTINUOUS
 62
     5
 10
1610.853264
 20
461.341282
 40
2.000000
 50
0.000000
 51
90.000000
  0
LINE
  8
CSLAYER1
  6
CONTINUOUS
 62
     5
 10
1628.553264
 20
425.259330
 11
1628.553264
 21
420.259330
  0
LINE
  8
CSLAYER1
  6
CONTINUOUS
 62
     5
 10
1623.853264
 20
427.759330
 11
1623.853264
 21
417.759330
  0
LINE
  8
CSLAYER1
  6
CONTINUOUS
 62
     5
 10
1624.853264
 20
427.759330
 11
1624.853264
 21
417.759330
  0
LINE
  8
CSLAYER1
  6
CONTINUOUS
 62
     5
 10
1626.153264
 20
427.759330
 11
1622.853264
 21
427.759330
  0
LINE
  8
CSLAYER1
  6
CONTINUOUS
 62
     5
 10
1626.153264
 20
417.759330
 11
1622.853264
 21
417.759330
  0
LINE
  8
CSLAYER1
  6
CONTINUOUS
 62
     5
 10
1626.153264
 20
427.759330
 11
1626.153264
 21
417.759330
  0
LINE
  8
CSLAYER1
  6
CONTINUOUS
 62
     5
 10
1626.553264
 20
427.259330
 11
1626.153264
 21
427.259330
  0
LINE
  8
CSLAYER1
  6
CONTINUOUS
 62
     5
 10
1626.553264
 20
418.259330
 11
1626.153264
 21
418.259330
  0
ARC
  8
CSLAYER1
  6
CONTINUOUS
 62
     5
 10
1626.553264
 20
425.259330
 40
2.000000
 50
0.000000
 51
90.000000
  0
ARC
  8
CSLAYER1
  6
CONTINUOUS
 62
     5
 10
1626.553264
 20
420.259330
 40
2.000000
 50
270.000000
 51
360.000000
  0
LINE
  8
CSLAYER1
  6
CONTINUOUS
 62
     5
 10
1624.853264
 20
421.633497
 11
1626.153264
 21
423.885163
  0
LINE
  8
CSLAYER1
  6
CONTINUOUS
 62
     5
 10
1321.853264
 20
488.359330
 11
1321.853264
 21
477.971859
  0
LINE
  8
CSLAYER1
  6
CENTER
 62
     5
 10
1641.326217
 20
422.759330
 11
1278.853264
 21
422.759330
  0
LINE
  8
CSLAYER1
  6
CONTINUOUS
 62
     3
 10
1290.853264
 20
420.759330
 11
1291.378341
 21
407.559330
  0
LINE
  8
CSLAYER1
  6
CONTINUOUS
 62
     3
 10
1286.853264
 20
420.759330
 11
1287.388717
 21
407.559330
  0
ARC
  8
CSLAYER1
  6
CONTINUOUS
 62
     3
 10
1303.853264
 20
465.759330
 40
15.000000
 50
90.000000
 51
180.000000
  0
LINE
  8
CSLAYER1
  6
CONTINUOUS
 62
     3
 10
1286.853264
 20
420.759330
 11
1288.867842
 21
466.420489
  0
LINE
  8
CSLAYER1
  6
CONTINUOUS
 62
     5
 10
1525.379997
 20
467.634380
 11
1592.212064
 21
449.726782
  0
LINE
  8
CSLAYER1
  6
CONTINUOUS
 62
     5
 10
1517.591349
 20
464.286142
 11
1590.853264
 21
444.655671
  0
LINE
  8
CSLAYER1
  6
CONTINUOUS
 62
     5
 10
1519.688664
 20
458.288968
 11
1589.494464
 21
439.584560
  0
LINE
  8
CSLAYER1
  6
CONTINUOUS
 62
     3
 10
1278.653264
 20
1117.559330
 11
2178.653264
 21
1117.559330
  0
LINE
  8
CSLAYER1
  6
CONTINUOUS
 62
     3
 10
1278.653264
 20
1067.559330
 11
2178.653264
 21
1067.559330
  0
LINE
  8
CSLAYER1
  6
CONTINUOUS
 62
     3
 10
1278.653264
 20
1117.559330
 11
1278.653264
 21
1067.559330
  0
LINE
  8
CSLAYER1
  6
CONTINUOUS
 62
     3
 10
2178.653264
 20
1117.559330
 11
2178.653264
 21
1067.559330
  0
LINE
  8
CSLAYER1
  6
CONTINUOUS
 62
     5
 10
1293.440027
 20
1090.359330
 11
1333.318868
 21
1090.359330
  0
LINE
  8
CSLAYER1
  6
CONTINUOUS
 62
     5
 10
1312.853264
 20
1108.272681
 11
1312.853264
 21
1072.941428
  0
LINE
  8
CSLAYER1
  6
CONTINUOUS
 62
     5
 10
1727.089992
 20
1090.359330
 11
1764.382140
 21
1090.359330
  0
LINE
  8
CSLAYER1
  6
CONTINUOUS
 62
     5
 10
1744.185340
 20
1107.950661
 11
1744.185340
 21
1075.017336
  0
LINE
  8
CSLAYER1
  6
CONTINUOUS
 62
     3
 10
1528.519302
 20
789.613310
 11
1709.099455
 21
1067.559330
  0
LINE
  8
CSLAYER1
  6
CONTINUOUS
 62
     3
 10
1567.276198
 20
729.959330
 11
1757.665199
 21
1023.002967
  0
LINE
  8
CSLAYER1
  6
CONTINUOUS
 62
     5
 10
1515.454648
 20
825.335793
 11
1575.582868
 21
825.335793
  0
CIRCLE
  8
CSLAYER1
  6
CONTINUOUS
 62
     3
 10
1528.519302
 20
729.959330
 40
15.000000
  0
LINE
  8
CSLAYER1
  6
CONTINUOUS
 62
     5
 10
1489.762406
 20
729.959330
 11
1571.031786
 21
729.959330
  0
LINE
  8
CSLAYER1
  6
CONTINUOUS
 62
     5
 10
1528.519302
 20
772.221462
 11
1528.519302
 21
689.801434
  0
LINE
  8
CSLAYER1
  6
CONTINUOUS
 62
     5
 10
1501.913160
 20
725.486302
 11
1529.722522
 21
725.486302
  0
LINE
  8
CSLAYER1
  6
CONTINUOUS
 62
     5
 10
1516.519635
 20
750.012001
 11
1516.519635
 21
709.906658
  0
ARC
  8
CSLAYER1
  6
CONTINUOUS
 62
     3
 10
1548.301387
 20
825.335790
 40
12.500000
 50
43.698696
 51
250.278138
  0
LINE
  8
CSLAYER1
  6
CONTINUOUS
 62
     5
 10
1771.156311
 20
431.443037
 11
1771.156311
 21
376.058499
  0
LINE
  8
CSLAYER1
  6
CONTINUOUS
 62
     5
 10
1702.794418
 20
412.464092
 11
1735.352053
 21
412.464092
  0
LINE
  8
CSLAYER1
  6
CONTINUOUS
 62
     5
 10
1718.510812
 20
432.696101
 11
1718.510812
 21
394.185069
  0
LINE
  8
CSLAYER1
  6
CONTINUOUS
 62
     5
 10
1744.185340
 20
388.806900
 11
1744.185340
 21
351.154646
  0
LINE
  8
CSLAYER1
  6
CONTINUOUS
 62
     5
 10
1766.686886
 20
369.559330
 11
1719.843925
 21
369.559330
  0
LINE
  8
CSLAYER1
  6
CONTINUOUS
 62
     5
 10
1747.416048
 20
396.543932
 11
1797.512880
 21
396.543932
  0
LINE
  8
CSLAYER1
  6
CONTINUOUS
 62
     3
 10
1020.853264
 20
437.789279
 11
1049.853264
 21
437.789279
  0
LINE
  8
CSLAYER1
  6
CONTINUOUS
 62
     3
 10
1020.853264
 20
419.326899
 11
1049.853264
 21
419.326899
  0
LINE
  8
CSLAYER1
  6
CONTINUOUS
 62
     3
 10
1049.853264
 20
437.789279
 11
1049.853264
 21
407.559330
  0
INSERT
  8
CSLAYER1
  2
BLKF0002
 10
0.0
 20
0.0
 30
0.0
  0
LINE
  8
CSLAYER1
  6
CONTINUOUS
 62
     5
 10
1037.853264
 20
434.720497
 11
1037.853264
 21
422.235593
  0
LINE
  8
CSLAYER1
  6
CONTINUOUS
 62
     5
 10
1029.834826
 20
428.558089
 11
1046.278358
 21
428.558089
  0
LINE
  8
CSLAYER1
  6
CONTINUOUS
 62
     3
 10
336.853264
 20
437.789279
 11
307.853264
 21
437.789279
  0
LINE
  8
CSLAYER1
  6
CONTINUOUS
 62
     3
 10
336.853264
 20
419.326899
 11
307.853264
 21
419.326899
  0
LINE
  8
CSLAYER1
  6
CONTINUOUS
 62
     3
 10
307.853264
 20
437.789279
 11
307.853264
 21
407.559330
  0
INSERT
  8
CSLAYER1
  2
BLKF0003
 10
0.0
 20
0.0
 30
0.0
  0
LINE
  8
CSLAYER1
  6
CONTINUOUS
 62
     5
 10
319.853264
 20
434.720497
 11
319.853264
 21
422.235593
  0
LINE
  8
CSLAYER1
  6
CONTINUOUS
 62
     5
 10
327.871703
 20
428.558089
 11
311.428171
 21
428.558089
  0
ARC
  8
CSLAYER1
  6
CONTINUOUS
 62
     3
 10
842.353264
 20
479.759330
 40
7.500000
 50
60.034358
 51
88.397139
  0
ARC
  8
CSLAYER1
  6
CONTINUOUS
 62
     3
 10
735.353264
 20
479.759330
 40
7.500000
 50
91.602861
 51
119.965642
  0
LINE
  8
CSLAYER1
  6
CONTINUOUS
 62
     3
 10
735.353264
 20
488.759330
 11
844.353264
 21
488.759330
  0
LINE
  8
CSLAYER1
  6
CONTINUOUS
 62
     3
 10
697.353264
 20
484.759330
 11
788.853264
 21
488.759330
  0
LINE
  8
CSLAYER1
  6
CONTINUOUS
 62
     3
 10
788.853264
 20
488.759330
 11
880.353264
 21
484.759330
  0
LINE
  8
CSLAYER1
  6
CONTINUOUS
 62
     3
 10
691.353264
 20
420.759330
 11
711.924275
 21
420.759330
  0
LINE
  8
CSLAYER1
  6
CONTINUOUS
 62
     3
 10
880.353264
 20
484.759330
 11
886.353264
 21
420.759330
  0
LINE
  8
CSLAYER1
  6
CONTINUOUS
 62
     3
 10
697.353264
 20
484.759330
 11
691.353264
 21
420.759330
  0
LINE
  8
CSLAYER1
  6
CONTINUOUS
 62
     3
 10
859.618495
 20
420.759330
 11
886.353264
 21
420.759330
  0
LINE
  8
CSLAYER1
  6
CONTINUOUS
 62
     2
 10
693.543889
 20
465.459330
 11
695.543889
 21
465.459330
  0
LINE
  8
CSLAYER1
  6
CONTINUOUS
 62
     2
 10
693.543889
 20
484.059330
 11
695.543889
 21
484.059330
  0
LINE
  8
CSLAYER1
  6
CONTINUOUS
 62
     2
 10
695.543889
 20
484.059330
 11
695.543889
 21
465.459330
  0
LINE
  8
CSLAYER1
  6
CONTINUOUS
 62
     2
 10
693.543889
 20
484.059330
 11
693.543889
 21
465.459330
  0
LINE
  8
CSLAYER1
  6
CONTINUOUS
 62
     2
 10
690.043889
 20
480.359330
 11
690.043889
 21
469.159330
  0
LINE
  8
CSLAYER1
  6
CONTINUOUS
 62
     2
 10
690.043889
 20
469.159330
 11
693.543889
 21
469.159330
  0
LINE
  8
CSLAYER1
  6
CONTINUOUS
 62
     2
 10
690.043889
 20
480.359330
 11
693.543889
 21
480.359330
  0
LINE
  8
CSLAYER1
  6
CONTINUOUS
 62
     2
 10
690.043889
 20
477.759330
 11
693.543889
 21
477.759330
  0
LINE
  8
CSLAYER1
  6
CONTINUOUS
 62
     2
 10
690.043889
 20
471.759330
 11
693.543889
 21
471.759330
  0
LINE
  8
CSLAYER1
  6
CONTINUOUS
 62
     2
 10
695.543889
 20
479.509330
 11
696.861077
 21
479.509330
  0
LINE
  8
CSLAYER1
  6
CONTINUOUS
 62
     2
 10
695.543889
 20
478.509330
 11
696.767327
 21
478.509330
  0
LINE
  8
CSLAYER1
  6
CONTINUOUS
 62
     5
 10
686.453934
 20
474.759330
 11
698.602633
 21
474.759330
  0
LINE
  8
CSLAYER1
  6
CONTINUOUS
 62
     3
 10
691.353264
 20
420.759330
 11
692.590764
 21
407.559330
  0
LINE
  8
CSLAYER1
  6
CONTINUOUS
 62
     3
 10
886.353264
 20
420.759330
 11
885.115764
 21
407.559330
  0
LINE
  8
CSLAYER1
  6
CONTINUOUS
 62
     3
 10
844.353264
 20
488.759330
 11
844.353264
 21
486.987746
  0
LINE
  8
CSLAYER1
  6
CONTINUOUS
 62
     3
 10
735.353264
 20
488.759330
 11
735.353264
 21
487.262265
  0
LINE
  8
CSLAYER1
  6
CONTINUOUS
 62
     5
 10
738.353264
 20
488.359330
 11
738.353264
 21
469.112357
  0
LINE
  8
CSLAYER1
  6
CONTINUOUS
 62
     2
 10
749.353264
 20
485.759330
 11
727.353264
 21
485.759330
  0
LINE
  8
CSLAYER1
  6
CONTINUOUS
 62
     2
 10
731.840544
 20
478.259330
 11
722.853264
 21
478.259330
  0
LINE
  8
CSLAYER1
  6
CONTINUOUS
 62
     2
 10
727.353264
 20
485.759330
 11
727.353264
 21
480.759330
  0
LINE
  8
CSLAYER1
  6
CONTINUOUS
 62
     2
 10
749.353264
 20
485.759330
 11
749.353264
 21
480.759330
  0
LINE
  8
CSLAYER1
  6
CONTINUOUS
 62
     2
 10
744.353264
 20
485.759330
 11
744.353264
 21
480.759330
  0
LINE
  8
CSLAYER1
  6
CONTINUOUS
 62
     2
 10
732.353264
 20
485.759330
 11
732.353264
 21
480.759330
  0
LINE
  8
CSLAYER1
  6
CONTINUOUS
 62
     2
 10
722.853264
 20
480.759330
 11
722.853264
 21
478.259330
  0
LINE
  8
CSLAYER1
  6
CONTINUOUS
 62
     2
 10
753.853264
 20
480.759330
 11
753.853264
 21
479.221634
  0
LINE
  8
CSLAYER1
  6
CONTINUOUS
 62
     2
 10
753.853264
 20
480.759330
 11
722.853264
 21
480.759330
  0
LINE
  8
CSLAYER1
  6
CONTINUOUS
 62
     3
 10
709.658734
 20
477.289633
 11
788.853264
 21
480.751689
  0
LINE
  8
CSLAYER1
  6
CONTINUOUS
 62
     3
 10
788.853264
 20
480.751689
 11
868.047795
 21
477.289633
  0
ARC
  8
CSLAYER1
  6
CONTINUOUS
 62
     3
 10
710.313846
 20
462.303946
 40
15.000000
 50
92.503140
 51
174.644175
  0
ARC
  8
CSLAYER1
  6
CONTINUOUS
 62
     3
 10
867.392683
 20
462.303946
 40
15.000000
 50
5.355825
 51
87.496860
  0
LINE
  8
CSLAYER1
  6
CONTINUOUS
 62
     3
 10
788.853264
 20
488.759330
 11
842.563051
 21
487.256395
  0
LINE
  8
CSLAYER1
  6
CONTINUOUS
 62
     3
 10
788.853264
 20
488.759330
 11
735.143478
 21
487.256395
  0
LINE
  8
CSLAYER1
  6
CONTINUOUS
 62
     1
 10
886.353264
 20
430.959330
 11
886.353264
 21
457.559330
  0
LINE
  8
CSLAYER1
  6
CONTINUOUS
 62
     1
 10
890.353264
 20
438.485827
 11
890.353264
 21
450.032832
  0
LINE
  8
CSLAYER1
  6
CONTINUOUS
 62
     1
 10
892.353264
 20
441.259330
 11
892.353264
 21
447.259330
  0
LINE
  8
CSLAYER1
  6
CONTINUOUS
 62
     1
 10
886.353264
 20
457.559330
 11
882.903264
 21
457.559330
  0
LINE
  8
CSLAYER1
  6
CONTINUOUS
 62
     1
 10
886.353264
 20
438.524349
 11
884.687794
 21
438.524349
  0
LINE
  8
CSLAYER1
  6
CONTINUOUS
 62
     1
 10
886.353264
 20
436.734515
 11
884.855591
 21
436.734515
  0
LINE
  8
CSLAYER1
  6
CONTINUOUS
 62
     1
 10
886.353264
 20
430.959330
 11
885.397014
 21
430.959330
  0
LINE
  8
CSLAYER1
  6
CONTINUOUS
 62
     1
 10
890.353264
 20
450.032832
 11
886.353264
 21
450.032832
  0
LINE
  8
CSLAYER1
  6
CONTINUOUS
 62
     1
 10
890.353264
 20
447.146081
 11
886.353264
 21
447.146081
  0
LINE
  8
CSLAYER1
  6
CONTINUOUS
 62
     1
 10
890.353264
 20
441.372578
 11
886.353264
 21
441.372578
  0
LINE
  8
CSLAYER1
  6
CONTINUOUS
 62
     1
 10
890.353264
 20
438.485827
 11
886.353264
 21
438.485827
  0
LINE
  8
CSLAYER1
  6
CONTINUOUS
 62
     1
 10
890.353264
 20
447.259330
 11
892.353264
 21
447.259330
  0
LINE
  8
CSLAYER1
  6
CONTINUOUS
 62
     1
 10
890.353264
 20
441.259330
 11
892.353264
 21
441.259330
  0
LINE
  8
CSLAYER1
  6
CONTINUOUS
 62
     1
 10
914.453264
 20
407.559330
 11
914.453264
 21
409.259330
  0
LINE
  8
CSLAYER1
  6
CONTINUOUS
 62
     1
 10
914.053264
 20
407.559330
 11
914.053264
 21
413.259330
  0
LINE
  8
CSLAYER1
  6
CONTINUOUS
 62
     1
 10
914.053264
 20
409.259330
 11
914.453264
 21
409.259330
  0
LINE
  8
CSLAYER1
  6
CONTINUOUS
 62
     1
 10
885.733629
 20
414.149884
 11
914.053264
 21
413.259330
  0
LINE
  8
CSLAYER1
  6
CONTINUOUS
 62
     5
 10
895.359231
 20
444.259330
 11
877.128573
 21
444.259330
  0
LINE
  8
CSLAYER1
  6
CONTINUOUS
 62
     1
 10
886.353264
 20
449.994310
 11
883.612485
 21
449.994310
  0
LINE
  8
CSLAYER1
  6
CONTINUOUS
 62
     1
 10
886.353264
 20
451.784144
 11
883.444688
 21
451.784144
  0
LINE
  8
CSLAYER1
  6
CENTER
 62
     5
 10
788.853264
 20
506.164041
 11
788.853264
 21
342.559330
  0
LINE
  8
CSLAYER1
  6
CENTER
 62
     5
 10
905.228527
 20
422.759330
 11
678.853264
 21
422.759330
  0
LINE
  8
CSLAYER1
  6
CONTINUOUS
 62
     5
 10
1312.853264
 20
383.936535
 11
1312.853264
 21
354.245004
  0
LINE
  8
CSLAYER1
  6
CONTINUOUS
 62
     5
 10
1332.933387
 20
369.559330
 11
1294.539165
 21
369.559330
  0
LINE
  8
CSLAYER1
  6
CONTINUOUS
 62
     3
 10
2178.853264
 20
407.559330
 11
1278.853264
 21
407.559330
  0
LINE
  8
CSLAYER1
  6
CONTINUOUS
 62
     3
 10
278.853264
 20
407.559330
 11
278.853264
 21
342.559330
  0
LINE
  8
CSLAYER1
  6
CONTINUOUS
 62
     3
 10
1078.853264
 20
407.559330
 11
278.853264
 21
407.559330
  0
ARC
  8
CSLAYER1
  6
CONTINUOUS
 62
     3
 10
678.853264
 20
473.867889
 40
48.828847
 50
228.272384
 51
285.523468
  0
ARC
  8
CSLAYER1
  6
CONTINUOUS
 62
     3
 10
678.853264
 20
471.122667
 40
48.828847
 50
228.272384
 51
285.202005
  0
LINE
  8
CSLAYER1
  6
CONTINUOUS
 62
     3
 10
664.853264
 20
424.343864
 11
664.853264
 21
407.559330
  0
LINE
  8
CSLAYER1
  6
CONTINUOUS
 62
     3
 10
652.853264
 20
429.791609
 11
652.853264
 21
407.559330
  0
LINE
  8
CSLAYER1
  6
CONTINUOUS
 62
     5
 10
640.902133
 20
412.464092
 11
692.130943
 21
412.464092
  0
LINE
  8
CSLAYER1
  6
CONTINUOUS
 62
     3
 10
348.853264
 20
426.793932
 11
652.853264
 21
426.793932
  0
LINE
  8
CSLAYER1
  6
CONTINUOUS
 62
     3
 10
936.948074
 20
426.793932
 11
1008.853264
 21
426.793932
  0
LINE
  8
CSLAYER1
  6
CONTINUOUS
 62
     5
 10
1078.853264
 20
332.559330
 11
1078.853264
 21
232.559330
  0
LINE
  8
CSLAYER1
  6
CONTINUOUS
 62
     5
 10
278.853264
 20
332.559330
 11
278.853264
 21
232.559330
  0
LINE
  8
CSLAYER1
  6
CONTINUOUS
 62
     5
 10
1529.978272
 20
488.359330
 11
1412.681100
 21
712.463682
  0
LINE
  8
CSLAYER1
  6
CONTINUOUS
 62
     5
 10
1529.978272
 20
488.359330
 11
1509.661299
 21
510.432404
  0
LINE
  8
CSLAYER1
  6
CONTINUOUS
 62
     5
 10
1529.978272
 20
488.359330
 11
1523.419795
 21
517.633659
  0
LINE
  8
CSLAYER1
  6
CONTINUOUS
 62
     3
 10
1078.853264
 20
407.559330
 11
1078.853264
 21
342.559330
  0
LINE
  8
CSLAYER1
  6
CONTINUOUS
 62
     3
 10
2178.853264
 20
2191.106260
 11
1278.853264
 21
2191.106260
  0
LINE
  8
CSLAYER1
  6
CONTINUOUS
 62
     5
 10
2188.853264
 20
2191.106260
 11
2288.853264
 21
2191.106260
  0
LINE
  8
CSLAYER1
  6
CONTINUOUS
 62
     3
 10
2178.853264
 20
1291.106260
 11
1278.853264
 21
1291.106260
  0
LINE
  8
CSLAYER1
  6
CONTINUOUS
 62
     5
 10
2188.853264
 20
1291.106260
 11
2288.853264
 21
1291.106260
  0
LINE
  8
CSLAYER1
  6
CONTINUOUS
 62
     3
 10
228.853264
 20
1117.559330
 11
228.853264
 21
1067.559330
  0
LINE
  8
CSLAYER1
  6
CONTINUOUS
 62
     3
 10
1128.853264
 20
1117.559330
 11
1128.853264
 21
1067.559330
  0
CIRCLE
  8
CSLAYER1
  6
CONTINUOUS
 62
     3
 10
1528.519302
 20
729.959330
 40
8.000000
  0
LINE
  8
CSLAYER1
  6
CONTINUOUS
 62
     3
 10
1425.853264
 20
488.759330
 11
1425.853264
 21
407.559330
  0
LINE
  8
CSLAYER1
  6
CONTINUOUS
 62
     3
 10
1465.853264
 20
488.759330
 11
1465.853264
 21
407.559330
  0
LINE
  8
CSLAYER1
  6
CONTINUOUS
 62
     3
 10
1465.853264
 20
488.759330
 11
1410.569752
 21
488.759330
  0
LINE
  8
CSLAYER1
  6
CONTINUOUS
 62
     3
 10
1390.853264
 20
458.412034
 11
1390.853264
 21
432.759330
  0
LINE
  8
CSLAYER1
  6
CONTINUOUS
 62
     3
 10
1416.853264
 20
488.759330
 11
1416.853264
 21
439.483019
  0
LINE
  8
CSLAYER1
  6
CONTINUOUS
 62
     3
 10
1416.853264
 20
452.759330
 11
1390.853264
 21
452.759330
  0
LINE
  8
CSLAYER1
  6
CONTINUOUS
 62
     5
 10
1413.753264
 20
476.759330
 11
1409.753264
 21
476.759330
  0
LINE
  8
CSLAYER1
  6
CONTINUOUS
 62
     5
 10
1415.253264
 20
474.009330
 11
1409.753264
 21
474.009330
  0
LINE
  8
CSLAYER1
  6
CONTINUOUS
 62
     5
 10
1413.753264
 20
482.759330
 11
1409.753264
 21
482.759330
  0
LINE
  8
CSLAYER1
  6
CONTINUOUS
 62
     5
 10
1415.253264
 20
485.509330
 11
1409.753264
 21
485.509330
  0
LINE
  8
CSLAYER1
  6
CONTINUOUS
 62
     5
 10
1415.253264
 20
486.009330
 11
1415.253264
 21
473.509330
  0
LINE
  8
CSLAYER1
  6
CONTINUOUS
 62
     5
 10
1413.753264
 20
485.509330
 11
1413.753264
 21
474.009330
  0
LINE
  8
CSLAYER1
  6
CONTINUOUS
 62
     5
 10
1409.753264
 20
485.509330
 11
1409.753264
 21
474.009330
  0
LINE
  8
CSLAYER1
  6
CONTINUOUS
 62
     5
 10
1416.853264
 20
486.009330
 11
1415.253264
 21
486.009330
  0
LINE
  8
CSLAYER1
  6
CONTINUOUS
 62
     5
 10
1416.853264
 20
473.509330
 11
1415.253264
 21
473.509330
  0
LINE
  8
CSLAYER1
  6
CONTINUOUS
 62
     5
 10
1430.249131
 20
479.759330
 11
1406.645774
 21
479.759330
  0
LINE
  8
CSLAYER1
  6
CONTINUOUS
 62
     5
 10
1465.853264
 20
444.259330
 11
1425.853264
 21
444.259330
  0
CIRCLE
  8
CSLAYER1
  6
CONTINUOUS
 62
     1
 10
1447.353264
 20
475.259330
 40
3.500000
  0
ARC
  8
CSLAYER1
  6
CONTINUOUS
 62
     1
 10
1447.353264
 20
475.259330
 40
10.000000
 50
-69.512685
 51
249.512685
  0
CIRCLE
  8
CSLAYER1
  6
CONTINUOUS
 62
     1
 10
1447.353264
 20
444.259330
 40
17.000000
  0
CIRCLE
  8
CSLAYER1
  6
CONTINUOUS
 62
     1
 10
1447.353264
 20
444.259330
 40
12.000000
  0
ARC
  8
CSLAYER1
  6
CONTINUOUS
 62
     1
 10
1447.353264
 20
444.259330
 40
13.300000
 50
-4.456163
 51
4.456163
  0
LINE
  8
CSLAYER1
  6
CONTINUOUS
 62
     1
 10
1443.853264
 20
465.891833
 11
1443.853264
 21
460.895134
  0
LINE
  8
CSLAYER1
  6
CONTINUOUS
 62
     1
 10
1450.853264
 20
465.891833
 11
1450.853264
 21
460.895134
  0
LINE
  8
CSLAYER1
  6
CONTINUOUS
 62
     5
 10
1460.988832
 20
475.259330
 11
1435.049431
 21
475.259330
  0
LINE
  8
CSLAYER1
  6
CONTINUOUS
 62
     1
 10
1465.853264
 20
472.259330
 11
1456.892656
 21
472.259330
  0
LINE
  8
CSLAYER1
  6
CONTINUOUS
 62
     1
 10
1437.813872
 20
472.259330
 11
1425.853264
 21
472.259330
  0
CIRCLE
  8
CSLAYER1
  6
CONTINUOUS
 62
     1
 10
1447.353264
 20
444.259330
 40
5.000000
  0
LINE
  8
CSLAYER1
  6
CONTINUOUS
 62
     1
 10
1453.088245
 20
456.259330
 11
1441.618284
 21
456.259330
  0
LINE
  8
CSLAYER1
  6
CONTINUOUS
 62
     1
 10
1453.088245
 20
432.259330
 11
1441.618284
 21
432.259330
  0
LINE
  8
CSLAYER1
  6
CONTINUOUS
 62
     1
 10
1460.613059
 20
445.292691
 11
1454.878079
 21
455.225968
  0
LINE
  8
CSLAYER1
  6
CONTINUOUS
 62
     1
 10
1439.828450
 20
433.292691
 11
1434.093469
 21
443.225968
  0
LINE
  8
CSLAYER1
  6
CONTINUOUS
 62
     1
 10
1434.093469
 20
445.292691
 11
1439.828450
 21
455.225968
  0
LINE
  8
CSLAYER1
  6
CONTINUOUS
 62
     1
 10
1454.878079
 20
433.292691
 11
1460.613059
 21
443.225968
  0
LINE
  8
CSLAYER1
  6
CONTINUOUS
 62
     1
 10
1441.579762
 20
444.259330
 11
1444.466513
 21
449.259330
  0
LINE
  8
CSLAYER1
  6
CONTINUOUS
 62
     1
 10
1450.240016
 20
439.259330
 11
1453.126767
 21
444.259330
  0
LINE
  8
CSLAYER1
  6
CONTINUOUS
 62
     1
 10
1444.466513
 20
439.259330
 11
1441.579762
 21
444.259330
  0
LINE
  8
CSLAYER1
  6
CONTINUOUS
 62
     1
 10
1453.126767
 20
444.259330
 11
1450.240016
 21
449.259330
  0
LINE
  8
CSLAYER1
  6
CONTINUOUS
 62
     1
 10
1450.240016
 20
449.259330
 11
1444.466513
 21
449.259330
  0
LINE
  8
CSLAYER1
  6
CONTINUOUS
 62
     1
 10
1450.240016
 20
439.259330
 11
1444.466513
 21
439.259330
  0
CIRCLE
  8
CSLAYER1
  6
CONTINUOUS
 62
     1
 10
1447.353264
 20
444.259330
 40
3.000000
  0
LINE
  8
CSLAYER1
  6
CONTINUOUS
 62
     1
 10
1448.219290
 20
445.759330
 11
1446.487239
 21
445.759330
  0
LINE
  8
CSLAYER1
  6
CONTINUOUS
 62
     1
 10
1448.219290
 20
442.759330
 11
1446.487239
 21
442.759330
  0
LINE
  8
CSLAYER1
  6
CONTINUOUS
 62
     1
 10
1445.621213
 20
444.259330
 11
1446.487239
 21
445.759330
  0
LINE
  8
CSLAYER1
  6
CONTINUOUS
 62
     1
 10
1448.219290
 20
442.759330
 11
1449.085315
 21
444.259330
  0
LINE
  8
CSLAYER1
  6
CONTINUOUS
 62
     1
 10
1445.621213
 20
444.259330
 11
1446.487239
 21
442.759330
  0
LINE
  8
CSLAYER1
  6
CONTINUOUS
 62
     1
 10
1448.219290
 20
445.759330
 11
1449.085315
 21
444.259330
  0
ARC
  8
CSLAYER1
  6
CONTINUOUS
 62
     1
 10
1447.353264
 20
444.259330
 40
13.300000
 50
115.543837
 51
124.456163
  0
ARC
  8
CSLAYER1
  6
CONTINUOUS
 62
     1
 10
1447.353264
 20
444.259330
 40
13.300000
 50
55.543837
 51
64.456163
  0
ARC
  8
CSLAYER1
  6
CONTINUOUS
 62
     1
 10
1447.353264
 20
444.259330
 40
13.300000
 50
175.543837
 51
184.456163
  0
ARC
  8
CSLAYER1
  6
CONTINUOUS
 62
     1
 10
1447.353264
 20
444.259330
 40
13.300000
 50
295.543837
 51
304.456163
  0
ARC
  8
CSLAYER1
  6
CONTINUOUS
 62
     1
 10
1447.353264
 20
444.259330
 40
13.300000
 50
235.543837
 51
244.456163
  0
LINE
  8
CSLAYER1
  6
CONTINUOUS
 62
     1
 10
1452.853264
 20
428.173622
 11
1452.853264
 21
414.759330
  0
LINE
  8
CSLAYER1
  6
CONTINUOUS
 62
     1
 10
1458.353264
 20
414.759330
 11
1436.353264
 21
414.759330
  0
ARC
  8
CSLAYER1
  6
CONTINUOUS
 62
     1
 10
1447.353264
 20
396.759330
 40
12.500000
 50
59.768714
 51
120.231286
  0
LINE
  8
CSLAYER1
  6
CONTINUOUS
 62
     1
 10
1457.853264
 20
413.259330
 11
1436.853264
 21
413.259330
  0
LINE
  8
CSLAYER1
  6
CONTINUOUS
 62
     1
 10
1436.853264
 20
413.259330
 11
1431.153264
 21
407.559330
  0
LINE
  8
CSLAYER1
  6
CONTINUOUS
 62
     1
 10
1457.853264
 20
413.259330
 11
1463.553264
 21
407.559330
  0
LINE
  8
CSLAYER1
  6
CONTINUOUS
 62
     1
 10
1429.353264
 20
407.759330
 11
1436.353264
 21
414.759330
  0
LINE
  8
CSLAYER1
  6
CONTINUOUS
 62
     1
 10
1458.353264
 20
414.759330
 11
1465.353264
 21
407.759330
  0
ARC
  8
CSLAYER1
  6
CONTINUOUS
 62
     1
 10
1446.193608
 20
422.824459
 40
12.340516
 50
139.190298
 51
220.809702
  0
LINE
  8
CSLAYER1
  6
CONTINUOUS
 62
     1
 10
1430.353264
 20
444.259330
 11
1430.353264
 21
408.759330
  0
LINE
  8
CSLAYER1
  6
CONTINUOUS
 62
     5
 10
1472.353264
 20
488.359330
 11
1472.353264
 21
407.559330
  0
LINE
  8
CSLAYER1
  6
CONTINUOUS
 62
     5
 10
1447.353264
 20
488.759330
 11
1447.353264
 21
407.559330
  0
LINE
  8
CSLAYER1
  6
CONTINUOUS
 62
     5
 10
3381.461696
 20
2190.236056
 11
2660.589179
 21
2190.236056
  0
LINE
  8
CSLAYER1
  6
CONTINUOUS
 62
     5
 10
3381.461696
 20
2126.236058
 11
2660.589179
 21
2126.236058
  0
LINE
  8
CSLAYER1
  6
CONTINUOUS
 62
     5
 10
3381.461696
 20
2062.236060
 11
2660.589179
 21
2062.236060
  0
LINE
  8
CSLAYER1
  6
CONTINUOUS
 62
     5
 10
3381.461696
 20
1998.236061
 11
2661.461715
 21
1998.236061
  0
LINE
  8
CSLAYER1
  6
CONTINUOUS
 62
     5
 10
3381.461696
 20
1934.236063
 11
2660.589179
 21
1934.236063
  0
LINE
  8
CSLAYER1
  6
CONTINUOUS
 62
     5
 10
3381.461696
 20
1870.236064
 11
2660.589179
 21
1870.236064
  0
LINE
  8
CSLAYER1
  6
CONTINUOUS
 62
     5
 10
3381.461696
 20
1806.236066
 11
2660.589179
 21
1806.236066
  0
LINE
  8
CSLAYER1
  6
CONTINUOUS
 62
     5
 10
3381.461696
 20
1742.236068
 11
2660.589179
 21
1742.236068
  0
LINE
  8
CSLAYER1
  6
CONTINUOUS
 62
     5
 10
3381.461696
 20
1678.236069
 11
2660.589179
 21
1678.236069
  0
LINE
  8
CSLAYER1
  6
CONTINUOUS
 62
     5
 10
3381.461696
 20
1614.236071
 11
2660.589179
 21
1614.236071
  0
LINE
  8
CSLAYER1
  6
CONTINUOUS
 62
     5
 10
3381.461696
 20
1550.236072
 11
2660.589179
 21
1550.236072
  0
TEXT
  8
CSLAYER1
 62
     3
 10
2856.313232
 20
2270.055176
 40
40.000000
 41
0.857143
  1
仕   様
 50
0.000000
 51
0.000000
  7
EASYDRAW_FONT
 72
     5
 11
3016.313232
 21
2270.055176
  0
TEXT
  8
CSLAYER1
 62
     3
 10
2671.348877
 20
2198.459229
 40
40.000000
 41
0.847059
  1
型    式
 50
0.000000
 51
0.000000
  7
EASYDRAW_FONT
 72
     5
 11
2863.348877
 21
2198.459229
  0
TEXT
  8
CSLAYER1
 62
     3
 10
2669.529297
 20
2075.969238
 40
40.000000
 41
0.847059
  1
テーブル寸法
 50
0.000000
 51
0.000000
  7
EASYDRAW_FONT
 72
     5
 11
2861.529297
 21
2075.969238
  0
TEXT
  8
CSLAYER1
 62
     3
 10
2671.348877
 20
2012.905273
 40
40.000000
 41
0.847059
  1
テーブル高サ
 50
0.000000
 51
0.000000
  7
EASYDRAW_FONT
 72
     5
 11
2863.348877
 21
2012.905273
  0
TEXT
  8
CSLAYER1
 62
     3
 10
2672.795654
 20
1948.022461
 40
40.000000
 41
0.857143
  1
ストローク
 50
0.000000
 51
0.000000
  7
EASYDRAW_FONT
 72
     5
 11
2832.795654
 21
1948.022461
  0
TEXT
  8
CSLAYER1
 62
     3
 10
2672.189453
 20
1883.139648
 40
40.000000
 41
0.857143
  1
全   長
 50
0.000000
 51
0.000000
  7
EASYDRAW_FONT
 72
     5
 11
2832.189453
 21
1883.139648
  0
TEXT
  8
CSLAYER1
 62
     3
 10
2674.460449
 20
1817.288818
 40
40.000000
 41
0.857143
  1
全   巾
 50
0.000000
 51
0.000000
  7
EASYDRAW_FONT
 72
     5
 11
2834.460449
 21
1817.288818
  0
TEXT
  8
CSLAYER1
 62
     3
 10
2672.902588
 20
1753.403687
 40
40.000000
 41
0.857143
  1
全   高
 50
0.000000
 51
0.000000
  7
EASYDRAW_FONT
 72
     5
 11
2832.902588
 21
1753.403687
  0
TEXT
  8
CSLAYER1
 62
     3
 10
2672.902588
 20
1691.077148
 40
40.000000
 41
0.857143
  1
リフト方式
 50
0.000000
 51
0.000000
  7
EASYDRAW_FONT
 72
     5
 11
2832.902588
 21
1691.077148
  0
TEXT
  8
CSLAYER1
 62
     3
 10
2671.762451
 20
1560.189575
 40
40.000000
 41
0.872727
  1
モーター
 50
0.000000
 51
0.000000
  7
EASYDRAW_FONT
 72
     5
 11
2799.762451
 21
1560.189575
  0
LINE
  8
CSLAYER1
  6
CONTINUOUS
 62
     5
 10
3381.461696
 20
1486.236074
 11
2660.589179
 21
1486.236074
  0
LINE
  8
CSLAYER1
  6
CONTINUOUS
 62
     5
 10
3381.461696
 20
1358.236077
 11
2658.450677
 21
1358.236077
  0
LINE
  8
CSLAYER1
  6
CONTINUOUS
 62
     5
 10
3381.461696
 20
1294.236079
 11
2660.589179
 21
1294.236079
  0
LINE
  8
CSLAYER1
  6
CONTINUOUS
 62
     5
 10
3381.461696
 20
1230.236080
 11
2660.589179
 21
1230.236080
  0
LINE
  8
CSLAYER1
  6
CONTINUOUS
 62
     5
 10
3381.461696
 20
1166.236082
 11
2660.589179
 21
1166.236082
  0
TEXT
  8
CSLAYER1
 62
     3
 10
2674.343994
 20
1241.358032
 40
40.000000
 41
0.857143
  1
自  　重
 50
0.000000
 51
0.000000
  7
EASYDRAW_FONT
 72
     5
 11
2834.343994
 21
1241.358032
  0
TEXT
  8
CSLAYER1
 62
     3
 10
2664.631348
 20
1178.018555
 40
40.000000
 41
0.825000
  1
塗装色（マンセル値） 
 50
0.000000
 51
0.000000
  7
EASYDRAW_FONT
 72
     5
 11
3016.631348
 21
1178.018555
  0
TEXT
  8
CSLAYER1
 62
     3
 10
3153.015381
 20
2134.575195
 40
40.000000
 41
0.900000
  1
500
 50
0.000000
 51
0.000000
  7
EASYDRAW_FONT
 72
     5
 11
3249.015381
 21
2134.575195
  0
TEXT
  8
CSLAYER1
 62
     3
 10
3310.927979
 20
2133.294434
 40
40.000000
 41
0.960000
  1
Ｋｇ
 50
0.000000
 51
0.000000
  7
EASYDRAW_FONT
 72
     5
 11
3374.927979
 21
2133.294434
  0
TEXT
  8
CSLAYER1
 62
     3
 10
2993.828857
 20
2070.978760
 40
40.000000
 41
0.834783
  1
900 ×900
 50
0.000000
 51
0.000000
  7
EASYDRAW_FONT
 72
     5
 11
3249.828857
 21
2070.978760
  0
TEXT
  8
CSLAYER1
 62
     3
 10
3253.123291
 20
2082.802246
 40
40.000000
 41
1.200000
  1
Ｗ
 50
0.000000
 51
0.000000
  7
EASYDRAW_FONT
 72
     5
 11
3285.123291
 21
2082.802246
  0
TEXT
  8
CSLAYER1
 62
     3
 10
3086.707031
 20
2088.965820
 40
40.000000
 41
1.200000
  1
Ｌ
 50
0.000000
 51
0.000000
  7
EASYDRAW_FONT
 72
     5
 11
3118.707031
 21
2088.965820
  0
TEXT
  8
CSLAYER1
 62
     3
 10
3024.362793
 20
2009.930298
 40
40.000000
 41
0.840000
  1
155～775
 50
0.000000
 51
0.000000
  7
EASYDRAW_FONT
 72
     5
 11
3248.362793
 21
2009.930298
  0
TEXT
  8
CSLAYER1
 62
     3
 10
3154.951172
 20
1945.961548
 40
40.000000
 41
0.900000
  1
620
 50
0.000000
 51
0.000000
  7
EASYDRAW_FONT
 72
     5
 11
3250.951172
 21
1945.961548
  0
TEXT
  8
CSLAYER1
 62
     3
 10
3154.951172
 20
1880.952515
 40
40.000000
 41
0.900000
  1
900
 50
0.000000
 51
0.000000
  7
EASYDRAW_FONT
 72
     5
 11
3250.951172
 21
1880.952515
  0
TEXT
  8
CSLAYER1
 62
     3
 10
3152.728760
 20
1818.165771
 40
40.000000
 41
0.900000
  1
900
 50
0.000000
 51
0.000000
  7
EASYDRAW_FONT
 72
     5
 11
3248.728760
 21
1818.165771
  0
TEXT
  8
CSLAYER1
 62
     3
 10
2959.939697
 20
1692.031860
 40
40.000000
 41
0.830769
  1
電 動 油 圧 式
 50
0.000000
 51
0.000000
  7
EASYDRAW_FONT
 72
     5
 11
3247.939697
 21
1692.031860
  0
TEXT
  8
CSLAYER1
 62
     3
 10
2881.223145
 20
1563.829468
 40
40.000000
 41
0.817021
  1
ＡＣ2００Ｖ，3相,0.55ＫＷ
 50
0.000000
 51
0.000000
  7
EASYDRAW_FONT
 72
     5
 11
3393.223145
 21
1563.829468
  0
TEXT
  8
CSLAYER1
 62
     3
 10
3033.852051
 20
1497.262817
 40
40.000000
 41
0.840000
  1
長 サ ４ ｍ
 50
0.000000
 51
0.000000
  7
EASYDRAW_FONT
 72
     5
 11
3257.852051
 21
1497.262817
  0
TEXT
  8
CSLAYER1
 62
     3
 10
2880.018997
 20
1430.429516
 40
38.786964
 41
0.594698
  1
１5ｓｅｃ／50ＨＺ,１2sec/60HZ
 50
0.000000
 51
0.000000
  7
EASYDRAW_FONT
 72
     5
 11
3356.727585
 21
1430.429516
  0
TEXT
  8
CSLAYER1
 62
     3
 10
3128.523193
 20
1242.491577
 40
40.000000
 41
0.834783
  1
115  　Ｋｇ
 50
0.000000
 51
0.000000
  7
EASYDRAW_FONT
 72
     5
 11
3384.523193
 21
1242.491577
  0
TEXT
  8
CSLAYER1
 62
     3
 10
3150.719971
 20
1753.504517
 40
40.000000
 41
0.900000
  1
155
 50
0.000000
 51
0.000000
  7
EASYDRAW_FONT
 72
     5
 11
3246.719971
 21
1753.504517
  0
TEXT
  8
CSLAYER1
 62
     3
 10
3308.413818
 20
2069.190918
 40
40.000000
 41
0.960000
  1
mm
 50
0.000000
 51
0.000000
  7
EASYDRAW_FONT
 72
     5
 11
3372.413818
 21
2069.190918
  0
TEXT
  8
CSLAYER1
 62
     3
 10
3308.413818
 20
2008.857544
 40
40.000000
 41
0.960000
  1
mm
 50
0.000000
 51
0.000000
  7
EASYDRAW_FONT
 72
     5
 11
3372.413818
 21
2008.857544
  0
TEXT
  8
CSLAYER1
 62
     3
 10
3304.642822
 20
1944.753662
 40
40.000000
 41
0.960000
  1
mm
 50
0.000000
 51
0.000000
  7
EASYDRAW_FONT
 72
     5
 11
3368.642822
 21
1944.753662
  0
TEXT
  8
CSLAYER1
 62
     3
 10
3304.642822
 20
1876.878662
 40
40.000000
 41
0.960000
  1
mm
 50
0.000000
 51
0.000000
  7
EASYDRAW_FONT
 72
     5
 11
3368.642822
 21
1876.878662
  0
TEXT
  8
CSLAYER1
 62
     3
 10
3302.129395
 20
1816.545898
 40
40.000000
 41
0.960000
  1
mm
 50
0.000000
 51
0.000000
  7
EASYDRAW_FONT
 72
     5
 11
3366.129395
 21
1816.545898
  0
TEXT
  8
CSLAYER1
 62
     3
 10
3302.129395
 20
1752.441162
 40
40.000000
 41
0.960000
  1
mm
 50
0.000000
 51
0.000000
  7
EASYDRAW_FONT
 72
     5
 11
3366.129395
 21
1752.441162
  0
LINE
  8
CSLAYER1
  6
CONTINUOUS
 62
     5
 10
3044.366117
 20
2254.236055
 11
2835.980145
 21
2254.236055
  0
LINE
  8
CSLAYER1
  6
CONTINUOUS
 62
     5
 10
3044.366117
 20
2262.236055
 11
2835.980145
 21
2262.236055
  0
TEXT
  8
CSLAYER1
 62
     3
 10
2675.344238
 20
1624.075562
 40
40.000000
 41
1.036364
  1
操作方式
 50
0.000000
 51
0.000000
  7
EASYDRAW_FONT
 72
     5
 11
2827.344238
 21
1624.075562
  0
LINE
  8
CSLAYER1
  6
CONTINUOUS
 62
     5
 10
3381.461696
 20
1422.236076
 11
2660.589179
 21
1422.236076
  0
TEXT
  8
CSLAYER1
 62
     3
 10
2672.678711
 20
1496.872192
 40
40.000000
 41
0.942857
  1
電源コード
 50
0.000000
 51
0.000000
  7
EASYDRAW_FONT
 72
     5
 11
2848.678711
 21
1496.872192
  0
TEXT
  8
CSLAYER1
 62
     3
 10
3079.807373
 20
1177.203735
 40
40.000000
 41
0.930000
  1
１０Ｒ４／１３
 50
0.000000
 51
0.000000
  7
EASYDRAW_FONT
 72
     5
 11
3327.807373
 21
1177.203735
  0
TEXT
  8
CSLAYER1
 62
     3
 10
2670.061523
 20
1432.595703
 40
40.000000
 41
0.954545
  1
上昇時間
 50
0.000000
 51
0.000000
  7
EASYDRAW_FONT
 72
     5
 11
2810.061523
 21
1432.595703
  0
TEXT
  8
CSLAYER1
 62
     3
 10
2796.000000
 20
1370.905396
 40
40.000000
 41
0.917143
  1
上昇端リミットスイッチ付
 50
0.000000
 51
0.000000
  7
EASYDRAW_FONT
 72
     5
 11
3224.000000
 21
1370.905396
  0
TEXT
  8
CSLAYER1
 62
     3
 10
2924.361119
 20
2199.968649
 40
40.809284
 41
0.900085
  1
GLE-500-0909
 50
0.000000
 51
0.000000
  7
EASYDRAW_FONT
 72
     5
 11
3352.899135
 21
2199.968649
  0
TEXT
  8
CSLAYER1
 62
     3
 10
2959.310791
 20
1629.163818
 40
40.000000
 41
1.020000
  1
フットスイッチ
 50
0.000000
 51
0.000000
  7
EASYDRAW_FONT
 72
     5
 11
3231.310791
 21
1629.163818
  0
TEXT
  8
CSLAYER1
 62
     3
 10
2675.344238
 20
2136.075439
 40
40.000000
 41
1.036364
  1
積載荷重
 50
0.000000
 51
0.000000
  7
EASYDRAW_FONT
 72
     5
 11
2827.344238
 21
2136.075439
  0
TEXT
  8
CSLAYER1
 62
     3
 10
461.623840
 20
1641.505737
 40
50.000000
 41
1.020000
  1
コード長サ２ｍ
 50
0.000000
 51
0.000000
  7
EASYDRAW_FONT
 72
     5
 11
801.623840
 21
1641.505737
  0
ENDSEC
  0
EOF
