  0
SECTION
  2
HEADER
  9
$ACADVER
  1
AC1006
  9
$INSBASE
 10
0.000000
 20
0.000000
 30
0.0
  9
$EXTMIN
 10
0.000000
 20
0.000000
  9
$EXTMAX
 10
3640.000000
 20
2570.000000
  9
$LIMMIN
 10
0.000000
 20
0.000000
  9
$LIMMAX
 10
3640.000000
 20
2570.000000
  9
$VIEWCTR
 10
1820.000000
 20
1285.000000
  9
$VIEWSIZE
 40
2570.000000
  9
$SNAPMODE
 70
     0
  9
$SNAPUNIT
 10
1.0
 20
1.0
  9
$SNAPBASE
 10
0.0
 20
0.0
  9
$SNAPANG
 50
0.0
  9
$SNAPSTYLE
 70
     0
  9
$SNAPISOPAIR
 70
     0
  9
$GRIDMODE
 70
     0
  9
$GRIDUNIT
 10
0.0
 20
0.0
  9
$ORTHOMODE
 70
     0
  9
$REGENMODE
 70
     1
  9
$FILLMODE
 70
     1
  9
$QTEXTMODE
 70
     0
  9
$DRAGMODE
 70
     2
  9
$LTSCALE
 40
15.000000
  9
$OSMODE
 70
     0
  9
$ATTMODE
 70
     1
  9
$TEXTSIZE
 40
0.2
  9
$TRACEWID
 40
0.05
  9
$TEXTSTYLE
  7
STANDARD
  9
$CLAYER
  8
CSLAYER1
  9
$CELTYPE
  6
BYLAYER
  9
$CECOLOR
 62
   256
  9
$DIMSCALE
 40
1.0
  9
$DIMASZ
 40
0.18
  9
$DIMEXO
 40
0.0625
  9
$DIMDLI
 40
0.38
  9
$DIMRND
 40
0.0
  9
$DIMDLE
 40
0.0
  9
$DIMEXE
 40
0.18
  9
$DIMTP
 40
0.0
  9
$DIMTM
 40
0.0
  9
$DIMTXT
 40
0.18
  9
$DIMCEN
 40
0.09
  9
$DIMTSZ
 40
0.0
  9
$DIMTOL
 70
     0
  9
$DIMLIM
 70
     0
  9
$DIMTIH
 70
     1
  9
$DIMTOH
 70
     1
  9
$DIMSE1
 70
     0
  9
$DIMSE2
 70
     0
  9
$DIMTAD
 70
     0
  9
$DIMZIN
 70
     0
  9
$DIMBLK
  1

  9
$LUNITS
 70
     2
  9
$LUPREC
 70
     4
  9
$AXISMODE
 70
     0
  9
$AXISUNIT
 10
0.0
 20
0.0
  9
$SKETCHINC
 40
0.1
  9
$FILLETRAD
 40
0.0
  9
$AUNITS
 70
     0
  9
$AUPREC
 70
     0
  9
$MENU
  1
ACAD
  9
$ELEVATION
 40
0.0
  9
$THICKNESS
 40
0.0
  9
$VIEWDIR
 10
0.0
 20
0.0
 30
1.0
  9
$LIMCHECK
 70
     0
  9
$BLIPMODE
 70
     1
  9
$CHAMFERA
 40
0.0
  9
$CHAMFERB
 40
0.0
  9
$FASTZOOM
 70
     1
  9
$SKPOLY
 70
     0
  9
$TDCREATE
 40
2456685.000000
  9
$TDUPDATE
 40
2456685.000000
  9
$TDINDWG
 40
0.0
  9
$TDUSRTIMER
 40
0.0
  9
$USRTIMER
 70
     1
  9
$ANGBASE
 50
0.0
  9
$ANGDIR
 70
     0
  9
$PDMODE
 70
     0
  9
$PDSIZE
 40
0.0
  9
$PLINEWID
 40
0.0
  9
$COORDS
 70
     0
  9
$USERI1
 70
     0
  9
$USERI2
 70
     0
  9
$USERI3
 70
     0
  9
$USERI4
 70
     0
  9
$USERI5
 70
     0
  9
$USERR1
 40
0.0
  9
$USERR2
 40
0.0
  9
$USERR3
 40
0.0
  9
$USERR4
 40
0.0
  9
$USERR5
 40
0.0
  0
ENDSEC
  0
SECTION
  2
TABLES
  0
TABLE
  2
LTYPE
 70
     9
  0
LTYPE
  2
CONTINUOUS
 70
    64
  3
Solid line
 72
    65
 73
     0
 40
0.0
  0
LTYPE
  2
DASHED
 70
    64
  3
__ __ __ __ __ __ __ __ __ __ __ __ __ __ __
 72
    65
 73
     2
 40
0.75
 49
0.5
 49
-0.25
  0
LTYPE
  2
HIDDEN
 70
    64
  3
_ _ _ _ _ _ _ _ _ _ _ _ _ _ _ _ _ _ _ _ _ _ _
 72
    65
 73
     2
 40
0.375
 49
0.25
 49
-0.125
  0
LTYPE
  2
DOT
 70
    64
  3
...............................................
 72
    65
 73
     2
 40
0.25
 49
0.0
 49
-0.25
  0
LTYPE
  2
DASHDOT
 70
    64
  3
__ . __ . __ . __ . __ . __ . __ . __ . __ . __
 72
    65
 73
     4
 40
1.0
 49
0.5
 49
-0.25
 49
0.0
 49
-0.25
  0
LTYPE
  2
DIVIDE
 70
    64
  3
__ . . __ . . __ . . __ . . __ . . __ . . __
 72
    65
 73
     6
 40
1.25
 49
0.5
 49
-0.25
 49
0.0
 49
-0.25
 49
0.0
 49
-0.25
  0
LTYPE
  2
CENTER
 70
    64
  3
____ _ ____ _ ____ _ ____ _ ____ _ ____ _ ____ 
 72
    65
 73
     4
 40
2.0
 49
1.25
 49
-0.25
 49
0.25
 49
-0.25
  0
LTYPE
  2
PHANTOM
 70
    64
  3
______  __  __  ______  __  __  ______  __  __ 
 72
    65
 73
     6
 40
2.5
 49
1.25
 49
-0.25
 49
0.25
 49
-0.25
 49
0.25
 49
-0.25
  0
LTYPE
  2
BORDER
 70
    64
  3
__ __ . __ __ . __ __ . __ __ . __ __ . __ __ .
 72
    65
 73
     6
 40
1.75
 49
0.5
 49
-0.25
 49
0.5
 49
-0.25
 49
0.0
 49
-0.25
  0
ENDTAB
  0
TABLE
  2
LAYER
 70
    16
  0
LAYER
  2
CSLAYER1
 70
    64
 62
     7
  6
CONTINUOUS
  0
LAYER
  2
CSLAYER2
 70
    64
 62
     7
  6
CONTINUOUS
  0
LAYER
  2
CSLAYER3
 70
    64
 62
     7
  6
CONTINUOUS
  0
LAYER
  2
CSLAYER4
 70
    64
 62
     7
  6
CONTINUOUS
  0
LAYER
  2
CSLAYER5
 70
    64
 62
     7
  6
CONTINUOUS
  0
LAYER
  2
CSLAYER6
 70
    64
 62
     7
  6
CONTINUOUS
  0
LAYER
  2
CSLAYER7
 70
    64
 62
     7
  6
CONTINUOUS
  0
LAYER
  2
CSLAYER8
 70
    64
 62
     7
  6
CONTINUOUS
  0
LAYER
  2
CSLAYER9
 70
    64
 62
     7
  6
CONTINUOUS
  0
LAYER
  2
CSLAYER10
 70
    64
 62
     7
  6
CONTINUOUS
  0
LAYER
  2
CSLAYER11
 70
    64
 62
     7
  6
CONTINUOUS
  0
LAYER
  2
CSLAYER12
 70
    64
 62
     7
  6
CONTINUOUS
  0
LAYER
  2
CSLAYER13
 70
    64
 62
     7
  6
CONTINUOUS
  0
LAYER
  2
CSLAYER14
 70
    64
 62
     7
  6
CONTINUOUS
  0
LAYER
  2
CSLAYER15
 70
    64
 62
     7
  6
CONTINUOUS
  0
LAYER
  2
CSLAYER16
 70
    64
 62
     7
  6
CONTINUOUS
  0
ENDTAB
  0
TABLE
  2
STYLE
 70
     1
  0
STYLE
  2
EASYDRAW_FONT
 70
     0
 40
1.0
 41
1.0
 50
0.0
 71
     0
 42
1.0
  3
monotxt
  4
bigfont
  0
ENDTAB
  0
TABLE
  2
VIEW
 70
     0
  0
ENDTAB
  0
ENDSEC
  0
SECTION
  2
BLOCKS
  0
BLOCK
  8
CSLAYER1
  2
EASYDRAWDIM0000
 70
   64
 10
0.0
 20
0.0
 30
0.0
  0
TEXT
  8
CSLAYER1
 62
     3
 10
2274.754395
 20
1713.034912
 40
40.000000
 41
0.843750
  1
800
 50
90.000000
 51
0.000000
  7
EASYDRAW_FONT
 72
     5
 11
2274.754395
 21
1803.034912
  0
LINE
  8
CSLAYER1
  6
CONTINUOUS
 62
     5
 10
2284.754431
 20
1358.034739
 11
2284.754431
 21
2158.034739
  0
LINE
  8
CSLAYER1
  6
CONTINUOUS
 62
     5
 10
2284.754431
 20
1358.034739
 11
2276.989860
 21
1387.012514
  0
LINE
  8
CSLAYER1
  6
CONTINUOUS
 62
     5
 10
2284.754431
 20
1358.034739
 11
2292.519003
 21
1387.012514
  0
LINE
  8
CSLAYER1
  6
CONTINUOUS
 62
     5
 10
2284.754431
 20
2158.034739
 11
2276.989860
 21
2129.056964
  0
LINE
  8
CSLAYER1
  6
CONTINUOUS
 62
     5
 10
2284.754431
 20
2158.034739
 11
2292.519003
 21
2129.056964
  0
ENDBLK
  8
0
  0
BLOCK
  8
CSLAYER1
  2
*D0000
 70
    65
 10
0.0
 20
0.0
 30
0.0
  0
TEXT
  8
CSLAYER1
 62
     3
 10
2274.554443
 20
391.987823
 40
40.000000
 41
0.843750
  1
155
 50
90.000000
 51
0.000000
  7
EASYDRAW_FONT
 72
     5
 11
2274.554443
 21
481.987823
  0
LINE
  8
CSLAYER1
  6
CONTINUOUS
 62
     5
 10
2194.554431
 20
514.487809
 11
2294.554431
 21
514.487809
  0
LINE
  8
CSLAYER1
  6
CONTINUOUS
 62
     5
 10
2284.554431
 20
359.487809
 11
2284.554431
 21
514.487809
  0
LINE
  8
CSLAYER1
  6
CONTINUOUS
 62
     5
 10
2284.554431
 20
359.487809
 11
2276.789860
 21
388.465583
  0
LINE
  8
CSLAYER1
  6
CONTINUOUS
 62
     5
 10
2284.554431
 20
359.487809
 11
2292.319003
 21
388.465583
  0
LINE
  8
CSLAYER1
  6
CONTINUOUS
 62
     5
 10
2284.554431
 20
514.487809
 11
2276.789860
 21
485.510034
  0
LINE
  8
CSLAYER1
  6
CONTINUOUS
 62
     5
 10
2284.554431
 20
514.487809
 11
2292.319003
 21
485.510034
  0
ENDBLK
  8
0
  0
BLOCK
  8
CSLAYER1
  2
*D0001
 70
    65
 10
0.0
 20
0.0
 30
0.0
  0
TEXT
  8
CSLAYER1
 62
     3
 10
2274.554443
 20
779.487732
 40
40.000000
 41
0.843750
  1
620
 50
90.000000
 51
0.000000
  7
EASYDRAW_FONT
 72
     5
 11
2274.554443
 21
869.487732
  0
LINE
  8
CSLAYER1
  6
CONTINUOUS
 62
     5
 10
2284.554431
 20
514.487809
 11
2284.554431
 21
1134.487809
  0
LINE
  8
CSLAYER1
  6
CONTINUOUS
 62
     5
 10
2284.554431
 20
514.487809
 11
2276.789860
 21
543.465583
  0
LINE
  8
CSLAYER1
  6
CONTINUOUS
 62
     5
 10
2284.554431
 20
514.487809
 11
2292.319003
 21
543.465583
  0
LINE
  8
CSLAYER1
  6
CONTINUOUS
 62
     5
 10
2284.554431
 20
1134.487809
 11
2276.789860
 21
1105.510034
  0
LINE
  8
CSLAYER1
  6
CONTINUOUS
 62
     5
 10
2284.554431
 20
1134.487809
 11
2292.319003
 21
1105.510034
  0
ENDBLK
  8
0
  0
BLOCK
  8
CSLAYER1
  2
*D0002
 70
    65
 10
0.0
 20
0.0
 30
0.0
  0
TEXT
  8
CSLAYER1
 62
     3
 10
2374.554443
 20
701.987793
 40
40.000000
 41
0.843750
  1
775
 50
90.000000
 51
0.000000
  7
EASYDRAW_FONT
 72
     5
 11
2374.554443
 21
791.987793
  0
LINE
  8
CSLAYER1
  6
CONTINUOUS
 62
     5
 10
2194.554431
 20
1134.487809
 11
2394.554431
 21
1134.487809
  0
LINE
  8
CSLAYER1
  6
CONTINUOUS
 62
     5
 10
2384.554431
 20
359.487809
 11
2384.554431
 21
1134.487809
  0
LINE
  8
CSLAYER1
  6
CONTINUOUS
 62
     5
 10
2384.554431
 20
359.487809
 11
2376.789860
 21
388.465583
  0
LINE
  8
CSLAYER1
  6
CONTINUOUS
 62
     5
 10
2384.554431
 20
359.487809
 11
2392.319003
 21
388.465583
  0
LINE
  8
CSLAYER1
  6
CONTINUOUS
 62
     5
 10
2384.554431
 20
1134.487809
 11
2376.789860
 21
1105.510034
  0
LINE
  8
CSLAYER1
  6
CONTINUOUS
 62
     5
 10
2384.554431
 20
1134.487809
 11
2392.319003
 21
1105.510034
  0
ENDBLK
  8
0
  0
BLOCK
  8
CSLAYER1
  2
*D0003
 70
    65
 10
0.0
 20
0.0
 30
0.0
  0
TEXT
  8
CSLAYER1
 62
     3
 10
1689.554443
 20
1244.487793
 40
40.000000
 41
0.843750
  1
900
 50
0.000000
 51
0.000000
  7
EASYDRAW_FONT
 72
     5
 11
1779.554443
 21
1244.487793
  0
LINE
  8
CSLAYER1
  6
CONTINUOUS
 62
     5
 10
1284.554431
 20
1144.487809
 11
1284.554431
 21
1244.487809
  0
LINE
  8
CSLAYER1
  6
CONTINUOUS
 62
     5
 10
2184.554431
 20
1144.487809
 11
2184.554431
 21
1244.487809
  0
LINE
  8
CSLAYER1
  6
CONTINUOUS
 62
     5
 10
1284.554431
 20
1234.487809
 11
2184.554431
 21
1234.487809
  0
LINE
  8
CSLAYER1
  6
CONTINUOUS
 62
     5
 10
1284.554431
 20
1234.487809
 11
1313.532206
 21
1242.252380
  0
LINE
  8
CSLAYER1
  6
CONTINUOUS
 62
     5
 10
1284.554431
 20
1234.487809
 11
1313.532206
 21
1226.723237
  0
LINE
  8
CSLAYER1
  6
CONTINUOUS
 62
     5
 10
2184.554431
 20
1234.487809
 11
2155.576657
 21
1242.252380
  0
LINE
  8
CSLAYER1
  6
CONTINUOUS
 62
     5
 10
2184.554431
 20
1234.487809
 11
2155.576657
 21
1226.723237
  0
ENDBLK
  8
0
  0
BLOCK
  8
CSLAYER1
  2
EASYDRAWDIM0001
 70
   64
 10
0.0
 20
0.0
 30
0.0
  0
TEXT
  8
CSLAYER1
 62
     3
 10
639.754456
 20
269.487823
 40
40.000000
 41
0.843750
  1
800
 50
0.000000
 51
0.000000
  7
EASYDRAW_FONT
 72
     5
 11
729.754456
 21
269.487823
  0
LINE
  8
CSLAYER1
  6
CONTINUOUS
 62
     5
 10
284.754431
 20
259.487809
 11
1084.754431
 21
259.487809
  0
LINE
  8
CSLAYER1
  6
CONTINUOUS
 62
     5
 10
284.754431
 20
259.487809
 11
313.732206
 21
267.252380
  0
LINE
  8
CSLAYER1
  6
CONTINUOUS
 62
     5
 10
284.754431
 20
259.487809
 11
313.732206
 21
251.723237
  0
LINE
  8
CSLAYER1
  6
CONTINUOUS
 62
     5
 10
1084.754431
 20
259.487809
 11
1055.776657
 21
267.252380
  0
LINE
  8
CSLAYER1
  6
CONTINUOUS
 62
     5
 10
1084.754431
 20
259.487809
 11
1055.776657
 21
251.723237
  0
ENDBLK
  8
0
  0
BLOCK
  8
CSLAYER1
  2
*D0004
 70
    65
 10
0.0
 20
0.0
 30
0.0
  0
TEXT
  8
CSLAYER1
 62
     3
 10
1689.754517
 20
269.487823
 40
40.000000
 41
0.843750
  1
900
 50
0.000000
 51
0.000000
  7
EASYDRAW_FONT
 72
     5
 11
1779.754517
 21
269.487823
  0
LINE
  8
CSLAYER1
  6
CONTINUOUS
 62
     5
 10
1284.754431
 20
349.487809
 11
1284.754431
 21
249.487809
  0
LINE
  8
CSLAYER1
  6
CONTINUOUS
 62
     5
 10
2184.754431
 20
349.487809
 11
2184.754431
 21
249.487809
  0
LINE
  8
CSLAYER1
  6
CONTINUOUS
 62
     5
 10
1284.754431
 20
259.487809
 11
2184.754431
 21
259.487809
  0
LINE
  8
CSLAYER1
  6
CONTINUOUS
 62
     5
 10
1284.754431
 20
259.487809
 11
1313.732206
 21
267.252380
  0
LINE
  8
CSLAYER1
  6
CONTINUOUS
 62
     5
 10
1284.754431
 20
259.487809
 11
1313.732206
 21
251.723237
  0
LINE
  8
CSLAYER1
  6
CONTINUOUS
 62
     5
 10
2184.754431
 20
259.487809
 11
2155.776657
 21
267.252380
  0
LINE
  8
CSLAYER1
  6
CONTINUOUS
 62
     5
 10
2184.754431
 20
259.487809
 11
2155.776657
 21
251.723237
  0
ENDBLK
  8
0
  0
BLOCK
  8
CSLAYER1
  2
BLKF0000
 70
   64
 10
0.0
 20
0.0
 30
0.0
  0
ARC
  8
CSLAYER1
  6
CONTINUOUS
 62
     5
 10
2781.909508
 20
79.335220
 40
3.549225
 50
6.429109
 51
73.182034
  0
ARC
  8
CSLAYER1
  6
CONTINUOUS
 62
     5
 10
2778.448538
 20
78.176827
 40
6.907754
 50
310.517970
 51
330.092764
  0
ARC
  8
CSLAYER1
  6
CONTINUOUS
 62
     5
 10
2778.387888
 20
78.542345
 40
7.148321
 50
-32.205059
 51
9.585194
  0
ARC
  8
CSLAYER1
  6
CONTINUOUS
 62
     5
 10
2781.680616
 20
75.781346
 40
4.767514
 50
180.000000
 51
218.514150
  0
ARC
  8
CSLAYER1
  6
CONTINUOUS
 62
     5
 10
2780.393895
 20
75.104206
 40
3.348282
 50
222.781148
 51
319.406906
  0
ARC
  8
CSLAYER1
  6
CONTINUOUS
 62
     5
 10
2783.459537
 20
76.194099
 40
6.559434
 50
94.574282
 51
183.607718
  0
LINE
  8
CSLAYER1
  6
CONTINUOUS
 62
     5
 10
2796.903443
 20
71.077266
 11
2796.046407
 21
68.038683
  0
LINE
  8
CSLAYER1
  6
CONTINUOUS
 62
     5
 10
2798.695428
 20
90.944924
 11
2796.591794
 21
93.671857
  0
LINE
  8
CSLAYER1
  6
CONTINUOUS
 62
     5
 10
2796.591794
 20
93.671857
 11
2789.838440
 21
97.429769
  0
LINE
  8
CSLAYER1
  6
CONTINUOUS
 62
     5
 10
2789.838440
 20
97.429769
 11
2782.936412
 21
98.232640
  0
LINE
  8
CSLAYER1
  6
CONTINUOUS
 62
     5
 10
2764.647187
 20
84.853966
 11
2766.793881
 21
89.818197
  0
LINE
  8
CSLAYER1
  6
CONTINUOUS
 62
     5
 10
2766.756884
 20
89.732640
 11
2768.940576
 21
92.367396
  0
LINE
  8
CSLAYER1
  6
CONTINUOUS
 62
     5
 10
2768.940576
 20
92.367396
 11
2772.244998
 21
94.732640
  0
LINE
  8
CSLAYER1
  6
CONTINUOUS
 62
     5
 10
2782.936412
 20
98.232640
 11
2781.418237
 21
97.465795
  0
LINE
  8
CSLAYER1
  6
CONTINUOUS
 62
     5
 10
2781.418237
 20
97.465795
 11
2777.929858
 21
97.465795
  0
LINE
  8
CSLAYER1
  6
CONTINUOUS
 62
     5
 10
2777.929858
 20
97.465795
 11
2774.374396
 21
95.520354
  0
LINE
  8
CSLAYER1
  6
CONTINUOUS
 62
     5
 10
2774.374396
 20
95.520354
 11
2772.244998
 21
94.732640
  0
LINE
  8
CSLAYER1
  6
CONTINUOUS
 62
     5
 10
2764.647187
 20
84.853966
 11
2763.129640
 21
77.305363
  0
LINE
  8
CSLAYER1
  6
CONTINUOUS
 62
     5
 10
2763.129640
 20
77.305363
 11
2762.936412
 21
74.732640
  0
LINE
  8
CSLAYER1
  6
CONTINUOUS
 62
     5
 10
2765.645795
 20
66.892857
 11
2762.936412
 21
72.988969
  0
LINE
  8
CSLAYER1
  6
CONTINUOUS
 62
     5
 10
2762.936412
 20
72.988969
 11
2762.936412
 21
74.732640
  0
LINE
  8
CSLAYER1
  6
CONTINUOUS
 62
     5
 10
2796.046407
 20
68.038683
 11
2794.360620
 21
65.035677
  0
LINE
  8
CSLAYER1
  6
CONTINUOUS
 62
     5
 10
2794.360620
 20
65.035677
 11
2792.936412
 21
63.716966
  0
ARC
  8
CSLAYER1
  6
CONTINUOUS
 62
     5
 10
2780.744468
 20
75.269400
 40
17.266626
 50
208.054813
 51
260.640470
  0
ARC
  8
CSLAYER1
  6
CONTINUOUS
 62
     5
 10
2775.551072
 20
88.011870
 40
29.874611
 50
274.579659
 51
305.587364
  0
ARC
  8
CSLAYER1
  6
CONTINUOUS
 62
     5
 10
2786.523421
 20
82.028147
 40
15.088627
 50
313.467013
 51
331.085078
  0
LINE
  8
CSLAYER1
  6
CONTINUOUS
 62
     5
 10
2801.314754
 20
78.246061
 11
2801.612048
 21
82.028147
  0
LINE
  8
CSLAYER1
  6
CONTINUOUS
 62
     5
 10
2801.612048
 20
82.028147
 11
2800.320051
 21
88.137130
  0
LINE
  8
CSLAYER1
  6
CONTINUOUS
 62
     5
 10
2801.314754
 20
78.246061
 11
2799.731079
 21
74.732640
  0
ARC
  8
CSLAYER1
  6
CONTINUOUS
 62
     5
 10
2786.523421
 20
82.028147
 40
15.088627
 50
23.883193
 51
36.225170
  0
LINE
  8
CSLAYER1
  6
CONTINUOUS
 62
     5
 10
2746.936412
 20
109.732640
 11
2747.936412
 21
110.825284
  0
LINE
  8
CSLAYER1
  6
CONTINUOUS
 62
     5
 10
2746.936412
 20
109.732640
 11
2748.513370
 21
108.287607
  0
LINE
  8
CSLAYER1
  6
CONTINUOUS
 62
     5
 10
2750.052583
 20
106.178315
 11
2750.078851
 21
104.010196
  0
LINE
  8
CSLAYER1
  6
CONTINUOUS
 62
     5
 10
2750.078851
 20
104.010196
 11
2750.286249
 21
103.249737
  0
LINE
  8
CSLAYER1
  6
CONTINUOUS
 62
     5
 10
2750.286249
 20
103.249737
 11
2750.873877
 21
102.523844
  0
LINE
  8
CSLAYER1
  6
CONTINUOUS
 62
     5
 10
2750.873877
 20
102.523844
 11
2751.461504
 21
102.592977
  0
LINE
  8
CSLAYER1
  6
CONTINUOUS
 62
     5
 10
2751.461504
 20
102.592977
 11
2752.083698
 21
102.765808
  0
LINE
  8
CSLAYER1
  6
CONTINUOUS
 62
     5
 10
2752.083698
 20
102.765808
 11
2752.498494
 21
102.592977
  0
LINE
  8
CSLAYER1
  6
CONTINUOUS
 62
     5
 10
2752.498494
 20
102.592977
 11
2753.397219
 21
102.143614
  0
LINE
  8
CSLAYER1
  6
CONTINUOUS
 62
     5
 10
2753.397219
 20
102.143614
 11
2754.173270
 21
101.732640
  0
LINE
  8
CSLAYER1
  6
CONTINUOUS
 62
     5
 10
2754.173270
 20
101.732640
 11
2754.676173
 21
101.763385
  0
LINE
  8
CSLAYER1
  6
CONTINUOUS
 62
     5
 10
2754.676173
 20
101.763385
 11
2757.484045
 21
103.209864
  0
LINE
  8
CSLAYER1
  6
CONTINUOUS
 62
     5
 10
2747.936412
 20
110.825284
 11
2748.269264
 21
112.298991
  0
LINE
  8
CSLAYER1
  6
CONTINUOUS
 62
     5
 10
2748.269264
 20
112.298991
 11
2749.722669
 21
112.449344
  0
LINE
  8
CSLAYER1
  6
CONTINUOUS
 62
     5
 10
2751.216428
 20
115.217802
 11
2752.970601
 21
115.374892
  0
LINE
  8
CSLAYER1
  6
CONTINUOUS
 62
     5
 10
2752.970601
 20
115.374892
 11
2756.505128
 21
116.212706
  0
LINE
  8
CSLAYER1
  6
CONTINUOUS
 62
     5
 10
2756.505128
 20
116.212706
 11
2757.936412
 21
116.544345
  0
LINE
  8
CSLAYER1
  6
CONTINUOUS
 62
     5
 10
2751.216428
 20
115.217802
 11
2749.283537
 21
115.376670
  0
LINE
  8
CSLAYER1
  6
CONTINUOUS
 62
     5
 10
2748.547414
 20
114.507983
 11
2748.640939
 21
114.136822
  0
LINE
  8
CSLAYER1
  6
CONTINUOUS
 62
     5
 10
2748.640939
 20
114.136822
 11
2749.132533
 21
113.599141
  0
LINE
  8
CSLAYER1
  6
CONTINUOUS
 62
     5
 10
2749.132533
 20
113.599141
 11
2749.808475
 21
113.092184
  0
LINE
  8
CSLAYER1
  6
CONTINUOUS
 62
     5
 10
2749.808475
 20
113.092184
 11
2749.931800
 21
112.927751
  0
LINE
  8
CSLAYER1
  6
CONTINUOUS
 62
     5
 10
2748.513370
 20
108.287607
 11
2750.052583
 21
106.178315
  0
ARC
  8
CSLAYER1
  6
CONTINUOUS
 62
     5
 10
2792.923113
 20
-61.926013
 40
180.727463
 50
80.438896
 51
96.353582
  0
ARC
  8
CSLAYER1
  6
CONTINUOUS
 62
     5
 10
2768.024200
 20
83.321887
 40
34.720242
 50
81.866516
 51
106.890578
  0
LINE
  8
CSLAYER1
  6
CONTINUOUS
 62
     5
 10
2827.130674
 20
115.499310
 11
2829.377756
 21
114.477909
  0
LINE
  8
CSLAYER1
  6
CONTINUOUS
 62
     5
 10
2832.952661
 20
112.894737
 11
2829.377756
 21
114.477909
  0
LINE
  8
CSLAYER1
  6
CONTINUOUS
 62
     5
 10
2827.130674
 20
115.499310
 11
2822.936412
 21
116.291881
  0
LINE
  8
CSLAYER1
  6
CONTINUOUS
 62
     5
 10
2832.936412
 20
112.901933
 11
2834.807988
 21
111.333456
  0
LINE
  8
CSLAYER1
  6
CONTINUOUS
 62
     5
 10
2816.179668
 20
113.938783
 11
2817.078943
 21
115.391458
  0
LINE
  8
CSLAYER1
  6
CONTINUOUS
 62
     5
 10
2817.078943
 20
115.391458
 11
2821.754542
 21
114.271949
  0
LINE
  8
CSLAYER1
  6
CONTINUOUS
 62
     5
 10
2821.754542
 20
114.271949
 11
2838.496928
 21
109.732640
  0
LINE
  8
CSLAYER1
  6
CONTINUOUS
 62
     5
 10
2841.436412
 20
109.732640
 11
2834.807988
 21
111.333456
  0
LINE
  8
CSLAYER1
  6
CONTINUOUS
 62
     5
 10
2838.496928
 20
109.732640
 11
2841.436412
 21
109.732640
  0
LINE
  8
CSLAYER1
  6
CONTINUOUS
 62
     5
 10
2782.936412
 20
114.197581
 11
2802.936412
 21
114.732640
  0
LINE
  8
CSLAYER1
  6
CONTINUOUS
 62
     5
 10
2802.936412
 20
114.732640
 11
2816.179668
 21
113.938783
  0
LINE
  8
CSLAYER1
  6
CONTINUOUS
 62
     5
 10
2817.782649
 20
111.878304
 11
2802.936412
 21
113.232640
  0
LINE
  8
CSLAYER1
  6
CONTINUOUS
 62
     5
 10
2802.936412
 20
113.232640
 11
2787.887203
 21
113.641292
  0
LINE
  8
CSLAYER1
  6
CONTINUOUS
 62
     5
 10
2787.936412
 20
113.639956
 11
2782.936412
 21
113.735249
  0
LINE
  8
CSLAYER1
  6
CONTINUOUS
 62
     5
 10
2782.936412
 20
114.197581
 11
2782.936412
 21
113.735249
  0
LINE
  8
CSLAYER1
  6
CONTINUOUS
 62
     5
 10
2840.436412
 20
106.232640
 11
2831.593854
 21
108.543302
  0
LINE
  8
CSLAYER1
  6
CONTINUOUS
 62
     5
 10
2817.782649
 20
111.878304
 11
2827.936412
 21
109.905920
  0
LINE
  8
CSLAYER1
  6
CONTINUOUS
 62
     5
 10
2827.936412
 20
109.905920
 11
2831.593854
 21
108.543302
  0
LINE
  8
CSLAYER1
  6
CONTINUOUS
 62
     5
 10
2840.436412
 20
106.232640
 11
2840.143795
 21
105.393534
  0
LINE
  8
CSLAYER1
  6
CONTINUOUS
 62
     5
 10
2849.936412
 20
100.732640
 11
2849.630385
 21
101.961621
  0
LINE
  8
CSLAYER1
  6
CONTINUOUS
 62
     5
 10
2840.143795
 20
105.393534
 11
2849.630385
 21
101.961621
  0
LINE
  8
CSLAYER1
  6
CONTINUOUS
 62
     5
 10
2786.436412
 20
106.232640
 11
2788.859450
 21
106.232640
  0
LINE
  8
CSLAYER1
  6
CONTINUOUS
 62
     5
 10
2808.936412
 20
106.665135
 11
2808.936412
 21
106.232640
  0
LINE
  8
CSLAYER1
  6
CONTINUOUS
 62
     5
 10
2807.936412
 20
107.199576
 11
2806.225133
 21
107.836755
  0
LINE
  8
CSLAYER1
  6
CONTINUOUS
 62
     5
 10
2806.225133
 20
107.836755
 11
2805.115077
 21
107.887212
  0
LINE
  8
CSLAYER1
  6
CONTINUOUS
 62
     5
 10
2805.115077
 20
107.887212
 11
2804.635735
 21
107.634926
  0
LINE
  8
CSLAYER1
  6
CONTINUOUS
 62
     5
 10
2804.635735
 20
107.634926
 11
2804.534821
 21
107.231270
  0
LINE
  8
CSLAYER1
  6
CONTINUOUS
 62
     5
 10
2804.534821
 20
107.231270
 11
2804.988934
 21
106.928527
  0
LINE
  8
CSLAYER1
  6
CONTINUOUS
 62
     5
 10
2804.988934
 20
106.928527
 11
2806.628790
 21
106.777156
  0
LINE
  8
CSLAYER1
  6
CONTINUOUS
 62
     5
 10
2806.628790
 20
106.777156
 11
2808.936412
 21
106.665135
  0
LINE
  8
CSLAYER1
  6
CONTINUOUS
 62
     5
 10
2849.936412
 20
100.732640
 11
2846.960870
 21
101.919221
  0
LINE
  8
CSLAYER1
  6
CONTINUOUS
 62
     5
 10
2846.960870
 20
101.919221
 11
2836.905180
 21
103.762097
  0
LINE
  8
CSLAYER1
  6
CONTINUOUS
 62
     5
 10
2836.905180
 20
103.762097
 11
2831.879400
 21
104.921892
  0
LINE
  8
CSLAYER1
  6
CONTINUOUS
 62
     5
 10
2809.470633
 20
107.232640
 11
2821.236299
 21
107.232640
  0
LINE
  8
CSLAYER1
  6
CONTINUOUS
 62
     5
 10
2807.936412
 20
107.199576
 11
2808.461072
 21
106.891109
  0
LINE
  8
CSLAYER1
  6
CONTINUOUS
 62
     5
 10
2808.461072
 20
106.891109
 11
2808.757884
 21
106.802065
  0
LINE
  8
CSLAYER1
  6
CONTINUOUS
 62
     5
 10
2808.757884
 20
106.802065
 11
2808.936412
 21
106.827236
  0
LINE
  8
CSLAYER1
  6
CONTINUOUS
 62
     5
 10
2808.936412
 20
106.827236
 11
2809.470633
 21
107.232640
  0
LINE
  8
CSLAYER1
  6
CONTINUOUS
 62
     5
 10
2821.236299
 20
107.232640
 11
2825.686568
 21
106.203814
  0
LINE
  8
CSLAYER1
  6
CONTINUOUS
 62
     5
 10
2825.686568
 20
106.203814
 11
2829.839760
 21
105.038665
  0
LINE
  8
CSLAYER1
  6
CONTINUOUS
 62
     5
 10
2829.839760
 20
105.038665
 11
2831.879400
 21
104.921892
  0
LINE
  8
CSLAYER1
  6
CONTINUOUS
 62
     5
 10
2785.436412
 20
105.232640
 11
2785.436412
 21
104.732640
  0
LINE
  8
CSLAYER1
  6
CONTINUOUS
 62
     5
 10
2782.936412
 20
104.732640
 11
2785.436412
 21
104.732640
  0
ARC
  8
CSLAYER1
  6
CONTINUOUS
 62
     5
 10
2786.436412
 20
105.232640
 40
1.000000
 50
90.000000
 51
180.000000
  0
LINE
  8
CSLAYER1
  6
CONTINUOUS
 62
     5
 10
2788.859450
 20
106.232640
 11
2789.557007
 21
105.660643
  0
LINE
  8
CSLAYER1
  6
CONTINUOUS
 62
     5
 10
2790.159375
 20
105.636683
 11
2791.016972
 21
106.232640
  0
LINE
  8
CSLAYER1
  6
CONTINUOUS
 62
     5
 10
2792.595368
 20
106.232640
 11
2794.262494
 21
105.574564
  0
LINE
  8
CSLAYER1
  6
CONTINUOUS
 62
     5
 10
2794.686203
 20
105.601076
 11
2795.839690
 21
106.232640
  0
LINE
  8
CSLAYER1
  6
CONTINUOUS
 62
     5
 10
2791.016972
 20
106.232640
 11
2792.595368
 21
106.232640
  0
LINE
  8
CSLAYER1
  6
CONTINUOUS
 62
     5
 10
2795.839690
 20
106.232640
 11
2808.936412
 21
106.232640
  0
LINE
  8
CSLAYER1
  6
CONTINUOUS
 62
     5
 10
2761.485395
 20
103.123813
 11
2782.936412
 21
104.732640
  0
LINE
  8
CSLAYER1
  6
CONTINUOUS
 62
     5
 10
2757.484045
 20
103.209864
 11
2761.485395
 21
103.123813
  0
ARC
  8
CSLAYER1
  6
CONTINUOUS
 62
     5
 10
2789.874047
 20
106.047277
 40
0.500000
 50
230.648247
 51
304.796026
  0
ARC
  8
CSLAYER1
  6
CONTINUOUS
 62
     5
 10
2794.446077
 20
106.039642
 40
0.500000
 50
248.459024
 51
298.701829
  0
ARC
  8
CSLAYER1
  6
CONTINUOUS
 62
     5
 10
2749.691800
 20
112.747751
 40
0.300000
 50
-84.093859
 51
36.869898
  0
ARC
  8
CSLAYER1
  6
CONTINUOUS
 62
     5
 10
2749.226196
 20
114.679023
 40
0.700000
 50
85.301319
 51
194.142980
  0
LINE
  8
CSLAYER1
  6
CONTINUOUS
 62
     3
 10
2781.418237
 20
97.465795
 11
2789.528732
 21
97.465795
  0
LINE
  8
CSLAYER1
  6
CONTINUOUS
 62
     3
 10
2775.005720
 20
95.865795
 11
2792.649061
 21
95.865795
  0
LINE
  8
CSLAYER1
  6
CONTINUOUS
 62
     3
 10
2771.592781
 20
94.265795
 11
2795.524426
 21
94.265795
  0
LINE
  8
CSLAYER1
  6
CONTINUOUS
 62
     3
 10
2769.357462
 20
92.665795
 11
2797.367899
 21
92.665795
  0
LINE
  8
CSLAYER1
  6
CONTINUOUS
 62
     3
 10
2767.861806
 20
91.065795
 11
2798.602184
 21
91.065795
  0
LINE
  8
CSLAYER1
  6
CONTINUOUS
 62
     3
 10
2766.641492
 20
89.465795
 11
2799.651561
 21
89.465795
  0
LINE
  8
CSLAYER1
  6
CONTINUOUS
 62
     3
 10
2765.949600
 20
87.865795
 11
2800.377436
 21
87.865795
  0
LINE
  8
CSLAYER1
  6
CONTINUOUS
 62
     3
 10
2765.257708
 20
86.265795
 11
2800.715822
 21
86.265795
  0
LINE
  8
CSLAYER1
  6
CONTINUOUS
 62
     3
 10
2764.609358
 20
84.665795
 11
2801.054208
 21
84.665795
  0
LINE
  8
CSLAYER1
  6
CONTINUOUS
 62
     3
 10
2764.287699
 20
83.065795
 11
2801.392594
 21
83.065795
  0
LINE
  8
CSLAYER1
  6
CONTINUOUS
 62
     3
 10
2763.966040
 20
81.465795
 11
2779.556283
 21
81.465795
  0
LINE
  8
CSLAYER1
  6
CONTINUOUS
 62
     3
 10
2763.644381
 20
79.865795
 11
2778.024022
 21
79.865795
  0
LINE
  8
CSLAYER1
  6
CONTINUOUS
 62
     3
 10
2763.322722
 20
78.265795
 11
2777.235852
 21
78.265795
  0
LINE
  8
CSLAYER1
  6
CONTINUOUS
 62
     3
 10
2763.081604
 20
76.665795
 11
2776.917085
 21
76.665795
  0
LINE
  8
CSLAYER1
  6
CONTINUOUS
 62
     3
 10
2762.961434
 20
75.065795
 11
2776.967106
 21
75.065795
  0
LINE
  8
CSLAYER1
  6
CONTINUOUS
 62
     3
 10
2762.936412
 20
73.465795
 11
2777.513193
 21
73.465795
  0
LINE
  8
CSLAYER1
  6
CONTINUOUS
 62
     3
 10
2763.435600
 20
71.865795
 11
2779.543195
 21
71.865795
  0
LINE
  8
CSLAYER1
  6
CONTINUOUS
 62
     3
 10
2764.146711
 20
70.265795
 11
2796.674567
 21
70.265795
  0
LINE
  8
CSLAYER1
  6
CONTINUOUS
 62
     3
 10
2764.857823
 20
68.665795
 11
2796.223285
 21
68.665795
  0
LINE
  8
CSLAYER1
  6
CONTINUOUS
 62
     3
 10
2765.568934
 20
67.065795
 11
2795.500261
 21
67.065795
  0
LINE
  8
CSLAYER1
  6
CONTINUOUS
 62
     3
 10
2766.530893
 20
65.465795
 11
2794.602074
 21
65.465795
  0
LINE
  8
CSLAYER1
  6
CONTINUOUS
 62
     3
 10
2767.779354
 20
63.865795
 11
2793.097148
 21
63.865795
  0
LINE
  8
CSLAYER1
  6
CONTINUOUS
 62
     3
 10
2769.384774
 20
62.265795
 11
2790.704687
 21
62.265795
  0
LINE
  8
CSLAYER1
  6
CONTINUOUS
 62
     3
 10
2771.531916
 20
60.665795
 11
2787.579564
 21
60.665795
  0
LINE
  8
CSLAYER1
  6
CONTINUOUS
 62
     3
 10
2774.779606
 20
59.065795
 11
2782.941415
 21
59.065795
  0
LINE
  8
CSLAYER1
  6
CONTINUOUS
 62
     3
 10
2784.748107
 20
81.465795
 11
2801.567844
 21
81.465795
  0
LINE
  8
CSLAYER1
  6
CONTINUOUS
 62
     3
 10
2785.418851
 20
79.865795
 11
2801.442074
 21
79.865795
  0
LINE
  8
CSLAYER1
  6
CONTINUOUS
 62
     3
 10
2785.530858
 20
78.265795
 11
2801.316305
 21
78.265795
  0
LINE
  8
CSLAYER1
  6
CONTINUOUS
 62
     3
 10
2785.285501
 20
76.665795
 11
2800.602449
 21
76.665795
  0
LINE
  8
CSLAYER1
  6
CONTINUOUS
 62
     3
 10
2784.633855
 20
75.065795
 11
2799.881249
 21
75.065795
  0
LINE
  8
CSLAYER1
  6
CONTINUOUS
 62
     3
 10
2783.500592
 20
73.465795
 11
2798.947301
 21
73.465795
  0
LINE
  8
CSLAYER1
  6
CONTINUOUS
 62
     3
 10
2781.244595
 20
71.865795
 11
2797.676594
 21
71.865795
  0
TEXT
  8
CSLAYER1
 62
     5
 10
2802.108183
 20
79.476970
 40
4.713448
 41
1.951056
  1
M
 50
0.000000
 51
0.000000
  7
EASYDRAW_FONT
 72
     5
 11
2808.238985
 21
79.476970
  0
TEXT
  8
CSLAYER1
 62
     5
 10
2811.759570
 20
79.418700
 40
4.626621
 41
0.778201
  1
T
 50
0.000000
 51
0.000000
  7
EASYDRAW_FONT
 72
     5
 11
2814.159863
 21
79.418700
  0
TEXT
  8
CSLAYER1
 62
     5
 10
2814.525133
 20
79.453499
 40
4.696183
 41
1.055553
  1
E
 50
0.000000
 51
0.000000
  7
EASYDRAW_FONT
 72
     5
 11
2817.829848
 21
79.453499
  0
TEXT
  8
CSLAYER1
 62
     5
 10
2817.641314
 20
81.069343
 40
0.348283
 41
9.375319
  1
-
 50
0.000000
 51
0.000000
  7
EASYDRAW_FONT
 72
     5
 11
2819.818159
 21
81.069343
  0
TEXT
  8
CSLAYER1
 62
     5
 10
2819.455523
 20
79.422152
 40
4.861659
 41
1.298502
  1
H
 50
0.000000
 51
0.000000
  7
EASYDRAW_FONT
 72
     5
 11
2823.664106
 21
79.422152
  0
TEXT
  8
CSLAYER1
 62
     5
 10
2823.531538
 20
79.452530
 40
4.843139
 41
1.269236
  1
A
 50
0.000000
 51
0.000000
  7
EASYDRAW_FONT
 72
     5
 11
2827.629595
 21
79.452530
  0
TEXT
  8
CSLAYER1
 62
     5
 10
2827.237694
 20
79.411004
 40
4.825362
 41
1.490144
  1
N
 50
0.000000
 51
0.000000
  7
EASYDRAW_FONT
 72
     5
 11
2832.031349
 21
79.411004
  0
TEXT
  8
CSLAYER1
 62
     5
 10
2808.029152
 20
79.388431
 40
4.982325
 41
1.177443
  1
A
 50
0.000000
 51
0.000000
  7
EASYDRAW_FONT
 72
     5
 11
2811.940086
 21
79.388431
  0
TEXT
  8
CSLAYER1
 62
     5
 10
2802.475197
 20
72.393191
 40
4.982325
 41
1.177443
  1
A
 50
0.000000
 51
0.000000
  7
EASYDRAW_FONT
 72
     5
 11
2806.386131
 21
72.393191
  0
TEXT
  8
CSLAYER1
 62
     5
 10
2815.259621
 20
72.421512
 40
4.982325
 41
1.177443
  1
A
 50
0.000000
 51
0.000000
  7
EASYDRAW_FONT
 72
     5
 11
2819.170555
 21
72.421512
  0
TEXT
  8
CSLAYER1
 62
     5
 10
2819.020165
 20
72.478509
 40
4.825362
 41
1.490144
  1
N
 50
0.000000
 51
0.000000
  7
EASYDRAW_FONT
 72
     5
 11
2823.813819
 21
72.478509
  0
TEXT
  8
CSLAYER1
 62
     5
 10
2827.922501
 20
72.486903
 40
4.841775
 41
1.184218
  1
E
 50
0.000000
 51
0.000000
  7
EASYDRAW_FONT
 72
     5
 11
2831.744980
 21
72.486903
  0
TEXT
  8
CSLAYER1
 62
     5
 10
2806.755750
 20
72.391867
 40
4.947865
 41
1.093992
  1
D
 50
0.000000
 51
0.000000
  7
EASYDRAW_FONT
 72
     5
 11
2810.364367
 21
72.391867
  0
TEXT
  8
CSLAYER1
 62
     5
 10
2811.158109
 20
72.386482
 40
4.924210
 41
1.228195
  1
V
 50
0.000000
 51
0.000000
  7
EASYDRAW_FONT
 72
     5
 11
2815.190036
 21
72.386482
  0
TEXT
  8
CSLAYER1
 62
     5
 10
2823.383310
 20
72.407213
 40
5.032894
 41
1.481023
  1
C
 50
0.000000
 51
0.000000
  7
EASYDRAW_FONT
 72
     5
 11
2828.352530
 21
72.407213
  0
LINE
  8
CSLAYER1
  6
CONTINUOUS
 62
     5
 10
2814.013749
 20
83.467612
 11
2813.001687
 21
83.467612
  0
LINE
  8
CSLAYER1
  6
CONTINUOUS
 62
     3
 10
2763.111987
 20
117.692883
 11
2812.909813
 21
117.692883
  0
LINE
  8
CSLAYER1
  6
CONTINUOUS
 62
     3
 10
2755.999623
 20
116.092883
 11
2823.989505
 21
116.092883
  0
LINE
  8
CSLAYER1
  6
CONTINUOUS
 62
     3
 10
2748.551219
 20
114.492883
 11
2793.974529
 21
114.492883
  0
LINE
  8
CSLAYER1
  6
CONTINUOUS
 62
     3
 10
2806.936079
 20
114.492883
 11
2816.522682
 21
114.492883
  0
LINE
  8
CSLAYER1
  6
CONTINUOUS
 62
     3
 10
2820.831816
 20
114.492883
 11
2829.344813
 21
114.492883
  0
LINE
  8
CSLAYER1
  6
CONTINUOUS
 62
     3
 10
2749.954358
 20
112.892883
 11
2806.660827
 21
112.892883
  0
LINE
  8
CSLAYER1
  6
CONTINUOUS
 62
     3
 10
2826.840965
 20
112.892883
 11
2832.947211
 21
112.892883
  0
LINE
  8
CSLAYER1
  6
CONTINUOUS
 62
     3
 10
2748.042024
 20
111.292883
 11
2820.796375
 21
111.292883
  0
LINE
  8
CSLAYER1
  6
CONTINUOUS
 62
     3
 10
2832.742264
 20
111.292883
 11
2834.975986
 21
111.292883
  0
LINE
  8
CSLAYER1
  6
CONTINUOUS
 62
     3
 10
2746.979799
 20
109.692883
 11
2828.508231
 21
109.692883
  0
LINE
  8
CSLAYER1
  6
CONTINUOUS
 62
     3
 10
2748.655466
 20
108.092883
 11
2833.317540
 21
108.092883
  0
LINE
  8
CSLAYER1
  6
CONTINUOUS
 62
     3
 10
2749.823033
 20
106.492883
 11
2808.936412
 21
106.492883
  0
LINE
  8
CSLAYER1
  6
CONTINUOUS
 62
     3
 10
2824.436177
 20
106.492883
 11
2839.440500
 21
106.492883
  0
LINE
  8
CSLAYER1
  6
CONTINUOUS
 62
     3
 10
2750.068157
 20
104.892883
 11
2785.436412
 21
104.892883
  0
LINE
  8
CSLAYER1
  6
CONTINUOUS
 62
     3
 10
2832.005106
 20
104.892883
 11
2841.527709
 21
104.892883
  0
LINE
  8
CSLAYER1
  6
CONTINUOUS
 62
     3
 10
2750.274482
 20
103.292883
 11
2763.739655
 21
103.292883
  0
LINE
  8
CSLAYER1
  6
CONTINUOUS
 62
     3
 10
2839.465455
 20
103.292883
 11
2845.950473
 21
103.292883
  0
LINE
  8
CSLAYER1
  6
CONTINUOUS
 62
     3
 10
2847.528449
 20
101.692883
 11
2849.697303
 21
101.692883
  0
ENDBLK
  8
0
  0
BLOCK
  8
CSLAYER1
  2
BLKF0001
 70
   64
 10
0.0
 20
0.0
 30
0.0
  0
LINE
  8
CSLAYER1
  6
CONTINUOUS
 62
     3
 10
857.754431
 20
1574.534739
 11
857.754431
 21
1512.534739
  0
LINE
  8
CSLAYER1
  6
CONTINUOUS
 62
     3
 10
855.254431
 20
1577.034739
 11
770.254431
 21
1577.034739
  0
LINE
  8
CSLAYER1
  6
CENTER
 62
     5
 10
916.104070
 20
1504.534739
 11
857.754431
 21
1504.534739
  0
LINE
  8
CSLAYER1
  6
CONTINUOUS
 62
     2
 10
855.254431
 20
1520.534739
 11
770.254431
 21
1520.534739
  0
LINE
  8
CSLAYER1
  6
CONTINUOUS
 62
     3
 10
855.254431
 20
1572.034739
 11
855.254431
 21
1527.034739
  0
LINE
  8
CSLAYER1
  6
CONTINUOUS
 62
     3
 10
767.754431
 20
1574.534739
 11
767.754431
 21
1504.534739
  0
LINE
  8
CSLAYER1
  6
CONTINUOUS
 62
     3
 10
852.754431
 20
1574.534739
 11
775.754431
 21
1574.534739
  0
LINE
  8
CSLAYER1
  6
CONTINUOUS
 62
     3
 10
852.754431
 20
1524.534739
 11
775.754431
 21
1524.534739
  0
ARC
  8
CSLAYER1
  6
CONTINUOUS
 62
     3
 10
829.822613
 20
1549.534739
 40
59.568182
 50
155.185163
 51
204.814837
  0
ARC
  8
CSLAYER1
  6
CONTINUOUS
 62
     3
 10
852.754431
 20
1572.034739
 40
2.500000
 50
0.000000
 51
90.000000
  0
ARC
  8
CSLAYER1
  6
CONTINUOUS
 62
     3
 10
852.754431
 20
1527.034739
 40
2.500000
 50
-90.000000
 51
0.000000
  0
ARC
  8
CSLAYER1
  6
CONTINUOUS
 62
     3
 10
855.254431
 20
1574.534739
 40
2.500000
 50
0.000000
 51
90.000000
  0
ARC
  8
CSLAYER1
  6
CONTINUOUS
 62
     3
 10
770.254431
 20
1574.534739
 40
2.500000
 50
90.000000
 51
180.000000
  0
ARC
  8
CSLAYER1
  6
CONTINUOUS
 62
     2
 10
770.254431
 20
1518.034739
 40
2.500000
 50
90.000000
 51
180.000000
  0
ARC
  8
CSLAYER1
  6
CONTINUOUS
 62
     2
 10
855.254431
 20
1518.034739
 40
2.500000
 50
0.000000
 51
90.000000
  0
LINE
  8
CSLAYER1
  6
CONTINUOUS
 62
     3
 10
857.754431
 20
1434.534739
 11
857.754431
 21
1496.534739
  0
LINE
  8
CSLAYER1
  6
CONTINUOUS
 62
     3
 10
855.254431
 20
1432.034739
 11
770.254431
 21
1432.034739
  0
LINE
  8
CSLAYER1
  6
CONTINUOUS
 62
     2
 10
855.254431
 20
1488.534739
 11
770.254431
 21
1488.534739
  0
LINE
  8
CSLAYER1
  6
CONTINUOUS
 62
     3
 10
767.754431
 20
1434.534739
 11
767.754431
 21
1504.534739
  0
ARC
  8
CSLAYER1
  6
CONTINUOUS
 62
     3
 10
855.254431
 20
1434.534739
 40
2.500000
 50
-90.000000
 51
0.000000
  0
ARC
  8
CSLAYER1
  6
CONTINUOUS
 62
     3
 10
770.254431
 20
1434.534739
 40
2.500000
 50
180.000000
 51
270.000000
  0
ARC
  8
CSLAYER1
  6
CONTINUOUS
 62
     2
 10
770.254431
 20
1491.034739
 40
2.500000
 50
180.000000
 51
270.000000
  0
ARC
  8
CSLAYER1
  6
CONTINUOUS
 62
     2
 10
855.254431
 20
1491.034739
 40
2.500000
 50
-90.000000
 51
0.000000
  0
LINE
  8
CSLAYER1
  6
CONTINUOUS
 62
     3
 10
855.254431
 20
1437.034739
 11
855.254431
 21
1482.034739
  0
LINE
  8
CSLAYER1
  6
CONTINUOUS
 62
     3
 10
852.754431
 20
1434.534739
 11
775.754431
 21
1434.534739
  0
LINE
  8
CSLAYER1
  6
CONTINUOUS
 62
     3
 10
852.754431
 20
1484.534739
 11
775.754431
 21
1484.534739
  0
ARC
  8
CSLAYER1
  6
CONTINUOUS
 62
     3
 10
829.822613
 20
1459.534739
 40
59.568182
 50
155.185163
 51
204.814837
  0
ARC
  8
CSLAYER1
  6
CONTINUOUS
 62
     3
 10
852.754431
 20
1437.034739
 40
2.500000
 50
-90.000000
 51
0.000000
  0
ARC
  8
CSLAYER1
  6
CONTINUOUS
 62
     3
 10
852.754431
 20
1482.034739
 40
2.500000
 50
0.000000
 51
90.000000
  0
LINE
  8
CSLAYER1
  6
CONTINUOUS
 62
     3
 10
864.754431
 20
1497.534739
 11
864.754431
 21
1501.034739
  0
LINE
  8
CSLAYER1
  6
CONTINUOUS
 62
     3
 10
916.104070
 20
1501.034739
 11
864.754431
 21
1501.034739
  0
LINE
  8
CSLAYER1
  6
CONTINUOUS
 62
     3
 10
863.754431
 20
1496.534739
 11
857.754431
 21
1496.534739
  0
LINE
  8
CSLAYER1
  6
CONTINUOUS
 62
     3
 10
863.754431
 20
1512.534739
 11
857.754431
 21
1512.534739
  0
LINE
  8
CSLAYER1
  6
CONTINUOUS
 62
     3
 10
916.104070
 20
1508.034739
 11
864.754431
 21
1508.034739
  0
ARC
  8
CSLAYER1
  6
CONTINUOUS
 62
     3
 10
863.754431
 20
1511.534739
 40
1.000000
 50
0.000000
 51
90.000000
  0
ARC
  8
CSLAYER1
  6
CONTINUOUS
 62
     3
 10
863.754431
 20
1497.534739
 40
1.000000
 50
-90.000000
 51
0.000000
  0
LINE
  8
CSLAYER1
  6
CONTINUOUS
 62
     3
 10
864.754431
 20
1508.034739
 11
864.754431
 21
1511.534739
  0
LINE
  8
CSLAYER1
  6
CONTINUOUS
 62
     2
 10
864.754431
 20
1501.034739
 11
864.754431
 21
1508.034739
  0
LINE
  8
CSLAYER1
  6
CONTINUOUS
 62
     2
 10
857.754431
 20
1512.534739
 11
857.754431
 21
1504.534739
  0
LINE
  8
CSLAYER1
  6
CONTINUOUS
 62
     2
 10
857.754431
 20
1496.534739
 11
857.754431
 21
1504.534739
  0
LINE
  8
CSLAYER1
  6
CONTINUOUS
 62
     2
 10
838.261420
 20
1516.697398
 11
847.396420
 21
1516.697398
  0
LINE
  8
CSLAYER1
  6
CONTINUOUS
 62
     2
 10
838.261420
 20
1493.072398
 11
847.396420
 21
1493.072398
  0
LINE
  8
CSLAYER1
  6
CONTINUOUS
 62
     2
 10
848.656420
 20
1515.437398
 11
848.656420
 21
1494.332398
  0
LINE
  8
CSLAYER1
  6
CONTINUOUS
 62
     2
 10
837.001420
 20
1515.437398
 11
837.001420
 21
1494.332398
  0
LINE
  8
CSLAYER1
  6
CONTINUOUS
 62
     2
 10
838.891420
 20
1494.962398
 11
846.923920
 21
1494.962398
  0
LINE
  8
CSLAYER1
  6
CONTINUOUS
 62
     2
 10
838.891420
 20
1498.112398
 11
839.836420
 21
1498.112398
  0
LINE
  8
CSLAYER1
  6
CONTINUOUS
 62
     2
 10
838.891420
 20
1506.774898
 11
839.836420
 21
1506.774898
  0
LINE
  8
CSLAYER1
  6
CONTINUOUS
 62
     2
 10
838.891420
 20
1511.342398
 11
843.931420
 21
1511.342398
  0
LINE
  8
CSLAYER1
  6
CONTINUOUS
 62
     2
 10
837.788920
 20
1510.239898
 11
837.788920
 21
1507.877398
  0
LINE
  8
CSLAYER1
  6
CONTINUOUS
 62
     2
 10
845.033920
 20
1510.239898
 11
845.033920
 21
1507.877398
  0
LINE
  8
CSLAYER1
  6
CONTINUOUS
 62
     2
 10
848.026420
 20
1497.009898
 11
848.026420
 21
1496.064898
  0
LINE
  8
CSLAYER1
  6
CONTINUOUS
 62
     2
 10
840.781420
 20
1505.829898
 11
840.781420
 21
1499.057398
  0
LINE
  8
CSLAYER1
  6
CONTINUOUS
 62
     2
 10
841.568920
 20
1505.829898
 11
841.568920
 21
1499.057398
  0
ARC
  8
CSLAYER1
  6
CONTINUOUS
 62
     2
 10
838.891420
 20
1510.239898
 40
1.102500
 50
90.000000
 51
180.000000
  0
ARC
  8
CSLAYER1
  6
CONTINUOUS
 62
     2
 10
843.931420
 20
1510.239898
 40
1.102500
 50
0.000000
 51
90.000000
  0
ARC
  8
CSLAYER1
  6
CONTINUOUS
 62
     2
 10
843.931420
 20
1507.877398
 40
1.102500
 50
-90.000000
 51
0.000000
  0
ARC
  8
CSLAYER1
  6
CONTINUOUS
 62
     2
 10
838.891420
 20
1507.877398
 40
1.102500
 50
180.000000
 51
270.000000
  0
ARC
  8
CSLAYER1
  6
CONTINUOUS
 62
     2
 10
846.923920
 20
1497.009898
 40
1.102500
 50
0.000000
 51
90.000000
  0
ARC
  8
CSLAYER1
  6
CONTINUOUS
 62
     2
 10
846.923920
 20
1496.064898
 40
1.102500
 50
-90.000000
 51
0.000000
  0
ARC
  8
CSLAYER1
  6
CONTINUOUS
 62
     2
 10
838.891420
 20
1496.064898
 40
1.102500
 50
180.000000
 51
270.000000
  0
ARC
  8
CSLAYER1
  6
CONTINUOUS
 62
     2
 10
838.891420
 20
1497.009898
 40
1.102500
 50
90.000000
 51
180.000000
  0
LINE
  8
CSLAYER1
  6
CONTINUOUS
 62
     2
 10
842.513920
 20
1506.774898
 11
843.931420
 21
1506.774898
  0
LINE
  8
CSLAYER1
  6
CONTINUOUS
 62
     2
 10
842.513920
 20
1498.112398
 11
846.923920
 21
1498.112398
  0
ARC
  8
CSLAYER1
  6
CONTINUOUS
 62
     2
 10
839.836420
 20
1505.829898
 40
0.945000
 50
0.000000
 51
90.000000
  0
ARC
  8
CSLAYER1
  6
CONTINUOUS
 62
     2
 10
842.513920
 20
1505.829898
 40
0.945000
 50
90.000000
 51
180.000000
  0
ARC
  8
CSLAYER1
  6
CONTINUOUS
 62
     2
 10
842.513920
 20
1499.057398
 40
0.945000
 50
180.000000
 51
270.000000
  0
ARC
  8
CSLAYER1
  6
CONTINUOUS
 62
     2
 10
838.261420
 20
1515.437398
 40
1.260000
 50
90.000000
 51
180.000000
  0
ARC
  8
CSLAYER1
  6
CONTINUOUS
 62
     2
 10
847.396420
 20
1515.437398
 40
1.260000
 50
0.000000
 51
90.000000
  0
ARC
  8
CSLAYER1
  6
CONTINUOUS
 62
     2
 10
847.396420
 20
1494.332398
 40
1.260000
 50
-90.000000
 51
0.000000
  0
ARC
  8
CSLAYER1
  6
CONTINUOUS
 62
     2
 10
838.261420
 20
1494.332398
 40
1.260000
 50
180.000000
 51
270.000000
  0
ARC
  8
CSLAYER1
  6
CONTINUOUS
 62
     2
 10
839.836420
 20
1499.057398
 40
0.945000
 50
-90.000000
 51
0.000000
  0
LINE
  8
CSLAYER1
  6
CONTINUOUS
 62
     2
 10
837.788920
 20
1497.009898
 11
837.788920
 21
1496.064898
  0
CIRCLE
  8
CSLAYER1
  6
CONTINUOUS
 62
     2
 10
823.254431
 20
1554.534739
 40
2.500000
  0
CIRCLE
  8
CSLAYER1
  6
CONTINUOUS
 62
     2
 10
823.254431
 20
1564.534739
 40
2.500000
  0
CIRCLE
  8
CSLAYER1
  6
CONTINUOUS
 62
     2
 10
813.254431
 20
1564.534739
 40
2.500000
  0
CIRCLE
  8
CSLAYER1
  6
CONTINUOUS
 62
     2
 10
813.254431
 20
1554.534739
 40
2.500000
  0
CIRCLE
  8
CSLAYER1
  6
CONTINUOUS
 62
     2
 10
803.254431
 20
1554.534739
 40
2.500000
  0
CIRCLE
  8
CSLAYER1
  6
CONTINUOUS
 62
     2
 10
803.254431
 20
1564.534739
 40
2.500000
  0
CIRCLE
  8
CSLAYER1
  6
CONTINUOUS
 62
     2
 10
793.254431
 20
1564.534739
 40
2.500000
  0
CIRCLE
  8
CSLAYER1
  6
CONTINUOUS
 62
     2
 10
793.254431
 20
1554.534739
 40
2.500000
  0
CIRCLE
  8
CSLAYER1
  6
CONTINUOUS
 62
     2
 10
783.254431
 20
1554.534739
 40
2.500000
  0
CIRCLE
  8
CSLAYER1
  6
CONTINUOUS
 62
     2
 10
783.254431
 20
1564.534739
 40
2.500000
  0
CIRCLE
  8
CSLAYER1
  6
CONTINUOUS
 62
     2
 10
823.254431
 20
1544.534739
 40
2.500000
  0
CIRCLE
  8
CSLAYER1
  6
CONTINUOUS
 62
     2
 10
823.254431
 20
1534.534739
 40
2.500000
  0
CIRCLE
  8
CSLAYER1
  6
CONTINUOUS
 62
     2
 10
813.254431
 20
1534.534739
 40
2.500000
  0
CIRCLE
  8
CSLAYER1
  6
CONTINUOUS
 62
     2
 10
813.254431
 20
1544.534739
 40
2.500000
  0
CIRCLE
  8
CSLAYER1
  6
CONTINUOUS
 62
     2
 10
803.254431
 20
1544.534739
 40
2.500000
  0
CIRCLE
  8
CSLAYER1
  6
CONTINUOUS
 62
     2
 10
803.254431
 20
1534.534739
 40
2.500000
  0
CIRCLE
  8
CSLAYER1
  6
CONTINUOUS
 62
     2
 10
793.254431
 20
1534.534739
 40
2.500000
  0
CIRCLE
  8
CSLAYER1
  6
CONTINUOUS
 62
     2
 10
793.254431
 20
1544.534739
 40
2.500000
  0
CIRCLE
  8
CSLAYER1
  6
CONTINUOUS
 62
     2
 10
783.254431
 20
1544.534739
 40
2.500000
  0
CIRCLE
  8
CSLAYER1
  6
CONTINUOUS
 62
     2
 10
783.254431
 20
1534.534739
 40
2.500000
  0
CIRCLE
  8
CSLAYER1
  6
CONTINUOUS
 62
     2
 10
823.254431
 20
1454.534739
 40
2.500000
  0
CIRCLE
  8
CSLAYER1
  6
CONTINUOUS
 62
     2
 10
823.254431
 20
1444.534739
 40
2.500000
  0
CIRCLE
  8
CSLAYER1
  6
CONTINUOUS
 62
     2
 10
813.254431
 20
1444.534739
 40
2.500000
  0
CIRCLE
  8
CSLAYER1
  6
CONTINUOUS
 62
     2
 10
813.254431
 20
1454.534739
 40
2.500000
  0
CIRCLE
  8
CSLAYER1
  6
CONTINUOUS
 62
     2
 10
803.254431
 20
1454.534739
 40
2.500000
  0
CIRCLE
  8
CSLAYER1
  6
CONTINUOUS
 62
     2
 10
803.254431
 20
1444.534739
 40
2.500000
  0
CIRCLE
  8
CSLAYER1
  6
CONTINUOUS
 62
     2
 10
793.254431
 20
1444.534739
 40
2.500000
  0
CIRCLE
  8
CSLAYER1
  6
CONTINUOUS
 62
     2
 10
793.254431
 20
1454.534739
 40
2.500000
  0
CIRCLE
  8
CSLAYER1
  6
CONTINUOUS
 62
     2
 10
783.254431
 20
1454.534739
 40
2.500000
  0
CIRCLE
  8
CSLAYER1
  6
CONTINUOUS
 62
     2
 10
783.254431
 20
1444.534739
 40
2.500000
  0
CIRCLE
  8
CSLAYER1
  6
CONTINUOUS
 62
     2
 10
823.254431
 20
1464.534739
 40
2.500000
  0
CIRCLE
  8
CSLAYER1
  6
CONTINUOUS
 62
     2
 10
823.254431
 20
1474.534739
 40
2.500000
  0
CIRCLE
  8
CSLAYER1
  6
CONTINUOUS
 62
     2
 10
813.254431
 20
1474.534739
 40
2.500000
  0
CIRCLE
  8
CSLAYER1
  6
CONTINUOUS
 62
     2
 10
813.254431
 20
1464.534739
 40
2.500000
  0
CIRCLE
  8
CSLAYER1
  6
CONTINUOUS
 62
     2
 10
803.254431
 20
1464.534739
 40
2.500000
  0
CIRCLE
  8
CSLAYER1
  6
CONTINUOUS
 62
     2
 10
803.254431
 20
1474.534739
 40
2.500000
  0
CIRCLE
  8
CSLAYER1
  6
CONTINUOUS
 62
     2
 10
793.254431
 20
1474.534739
 40
2.500000
  0
CIRCLE
  8
CSLAYER1
  6
CONTINUOUS
 62
     2
 10
793.254431
 20
1464.534739
 40
2.500000
  0
CIRCLE
  8
CSLAYER1
  6
CONTINUOUS
 62
     2
 10
783.254431
 20
1464.534739
 40
2.500000
  0
CIRCLE
  8
CSLAYER1
  6
CONTINUOUS
 62
     2
 10
783.254431
 20
1474.534739
 40
2.500000
  0
LINE
  8
CSLAYER1
  6
CONTINUOUS
 62
     2
 10
849.254431
 20
1477.034739
 11
849.254431
 21
1442.034739
  0
LINE
  8
CSLAYER1
  6
CONTINUOUS
 62
     2
 10
833.254431
 20
1477.034739
 11
833.254431
 21
1442.034739
  0
LINE
  8
CSLAYER1
  6
CONTINUOUS
 62
     2
 10
847.754431
 20
1478.534739
 11
834.754431
 21
1478.534739
  0
LINE
  8
CSLAYER1
  6
CONTINUOUS
 62
     2
 10
848.254431
 20
1477.034739
 11
848.254431
 21
1442.034739
  0
LINE
  8
CSLAYER1
  6
CONTINUOUS
 62
     2
 10
834.254431
 20
1477.034739
 11
834.254431
 21
1442.034739
  0
LINE
  8
CSLAYER1
  6
CONTINUOUS
 62
     2
 10
847.754431
 20
1477.534739
 11
834.754431
 21
1477.534739
  0
LINE
  8
CSLAYER1
  6
CONTINUOUS
 62
     2
 10
847.754431
 20
1440.534739
 11
834.754431
 21
1440.534739
  0
LINE
  8
CSLAYER1
  6
CONTINUOUS
 62
     2
 10
847.754431
 20
1441.534739
 11
834.754431
 21
1441.534739
  0
ARC
  8
CSLAYER1
  6
CONTINUOUS
 62
     2
 10
847.754431
 20
1477.034739
 40
0.500000
 50
0.000000
 51
90.000000
  0
ARC
  8
CSLAYER1
  6
CONTINUOUS
 62
     2
 10
834.754431
 20
1477.034739
 40
0.500000
 50
90.000000
 51
180.000000
  0
ARC
  8
CSLAYER1
  6
CONTINUOUS
 62
     2
 10
847.754431
 20
1442.034739
 40
0.500000
 50
-90.000000
 51
0.000000
  0
ARC
  8
CSLAYER1
  6
CONTINUOUS
 62
     2
 10
834.754431
 20
1442.034739
 40
0.500000
 50
180.000000
 51
270.000000
  0
ARC
  8
CSLAYER1
  6
CONTINUOUS
 62
     2
 10
847.754431
 20
1477.034739
 40
1.500000
 50
0.000000
 51
90.000000
  0
ARC
  8
CSLAYER1
  6
CONTINUOUS
 62
     2
 10
834.754431
 20
1477.034739
 40
1.500000
 50
90.000000
 51
180.000000
  0
ARC
  8
CSLAYER1
  6
CONTINUOUS
 62
     2
 10
847.754431
 20
1442.034739
 40
1.500000
 50
-90.000000
 51
0.000000
  0
ARC
  8
CSLAYER1
  6
CONTINUOUS
 62
     2
 10
834.754431
 20
1442.034739
 40
1.500000
 50
180.000000
 51
270.000000
  0
LINE
  8
CSLAYER1
  6
CONTINUOUS
 62
     2
 10
844.254431
 20
1468.534739
 11
844.254431
 21
1450.534739
  0
LINE
  8
CSLAYER1
  6
CONTINUOUS
 62
     2
 10
847.332503
 20
1459.534739
 11
844.254431
 21
1450.534739
  0
LINE
  8
CSLAYER1
  6
CONTINUOUS
 62
     2
 10
847.332503
 20
1459.534739
 11
844.254431
 21
1468.534739
  0
TEXT
  8
CSLAYER1
 62
     2
 10
835.960623
 20
1468.514824
 40
7.066058
 41
1.574983
  1
UP
 50
270.000000
 51
0.000000
  7
EASYDRAW_FONT
 72
     5
 11
835.960623
 21
1449.966621
  0
LINE
  8
CSLAYER1
  6
CONTINUOUS
 62
     2
 10
849.254431
 20
1532.034739
 11
849.254431
 21
1567.034739
  0
LINE
  8
CSLAYER1
  6
CONTINUOUS
 62
     2
 10
833.254431
 20
1532.034739
 11
833.254431
 21
1567.034739
  0
LINE
  8
CSLAYER1
  6
CONTINUOUS
 62
     2
 10
847.754431
 20
1530.534739
 11
834.754431
 21
1530.534739
  0
LINE
  8
CSLAYER1
  6
CONTINUOUS
 62
     2
 10
848.254431
 20
1532.034739
 11
848.254431
 21
1567.034739
  0
LINE
  8
CSLAYER1
  6
CONTINUOUS
 62
     2
 10
834.254431
 20
1532.034739
 11
834.254431
 21
1567.034739
  0
LINE
  8
CSLAYER1
  6
CONTINUOUS
 62
     2
 10
847.754431
 20
1531.534739
 11
834.754431
 21
1531.534739
  0
LINE
  8
CSLAYER1
  6
CONTINUOUS
 62
     2
 10
847.754431
 20
1568.534739
 11
834.754431
 21
1568.534739
  0
LINE
  8
CSLAYER1
  6
CONTINUOUS
 62
     2
 10
847.754431
 20
1567.534739
 11
834.754431
 21
1567.534739
  0
ARC
  8
CSLAYER1
  6
CONTINUOUS
 62
     2
 10
847.754431
 20
1532.034739
 40
0.500000
 50
-90.000000
 51
0.000000
  0
ARC
  8
CSLAYER1
  6
CONTINUOUS
 62
     2
 10
834.754431
 20
1532.034739
 40
0.500000
 50
180.000000
 51
270.000000
  0
ARC
  8
CSLAYER1
  6
CONTINUOUS
 62
     2
 10
847.754431
 20
1567.034739
 40
0.500000
 50
0.000000
 51
90.000000
  0
ARC
  8
CSLAYER1
  6
CONTINUOUS
 62
     2
 10
834.754431
 20
1567.034739
 40
0.500000
 50
90.000000
 51
180.000000
  0
ARC
  8
CSLAYER1
  6
CONTINUOUS
 62
     2
 10
847.754431
 20
1532.034739
 40
1.500000
 50
-90.000000
 51
0.000000
  0
ARC
  8
CSLAYER1
  6
CONTINUOUS
 62
     2
 10
834.754431
 20
1532.034739
 40
1.500000
 50
180.000000
 51
270.000000
  0
ARC
  8
CSLAYER1
  6
CONTINUOUS
 62
     2
 10
847.754431
 20
1567.034739
 40
1.500000
 50
0.000000
 51
90.000000
  0
ARC
  8
CSLAYER1
  6
CONTINUOUS
 62
     2
 10
834.754431
 20
1567.034739
 40
1.500000
 50
90.000000
 51
180.000000
  0
LINE
  8
CSLAYER1
  6
CONTINUOUS
 62
     2
 10
838.781501
 20
1540.534739
 11
838.781501
 21
1558.534739
  0
LINE
  8
CSLAYER1
  6
CONTINUOUS
 62
     2
 10
835.703429
 20
1549.534739
 11
838.781501
 21
1558.534739
  0
LINE
  8
CSLAYER1
  6
CONTINUOUS
 62
     2
 10
835.703429
 20
1549.534739
 11
838.781501
 21
1540.534739
  0
TEXT
  8
CSLAYER1
 62
     2
 10
840.391464
 20
1564.232393
 40
6.383575
 41
1.255870
  1
DOWN
 50
270.000000
 51
0.000000
  7
EASYDRAW_FONT
 72
     5
 11
840.391464
 21
1534.836943
  0
ENDBLK
  8
0
  0
BLOCK
  8
CSLAYER1
  2
BLKF0002
 70
   64
 10
0.0
 20
0.0
 30
0.0
  0
LINE
  8
CSLAYER1
  6
CONTINUOUS
 62
     5
 10
1048.754431
 20
445.486568
 11
1048.735405
 21
445.736520
  0
LINE
  8
CSLAYER1
  6
CONTINUOUS
 62
     5
 10
1048.735405
 20
445.736520
 11
1048.678470
 21
445.984570
  0
LINE
  8
CSLAYER1
  6
CONTINUOUS
 62
     5
 10
1048.678470
 20
445.984570
 11
1048.584061
 21
446.228830
  0
LINE
  8
CSLAYER1
  6
CONTINUOUS
 62
     5
 10
1048.584061
 20
446.228830
 11
1048.452895
 21
446.467441
  0
LINE
  8
CSLAYER1
  6
CONTINUOUS
 62
     5
 10
1048.452895
 20
446.467441
 11
1048.285970
 21
446.698587
  0
LINE
  8
CSLAYER1
  6
CONTINUOUS
 62
     5
 10
1048.285970
 20
446.698587
 11
1048.084559
 21
446.920509
  0
LINE
  8
CSLAYER1
  6
CONTINUOUS
 62
     5
 10
1048.084559
 20
446.920509
 11
1047.850192
 21
447.131518
  0
LINE
  8
CSLAYER1
  6
CONTINUOUS
 62
     5
 10
1047.850192
 20
447.131518
 11
1047.584654
 21
447.330007
  0
LINE
  8
CSLAYER1
  6
CONTINUOUS
 62
     5
 10
1047.584654
 20
447.330007
 11
1047.289965
 21
447.514467
  0
LINE
  8
CSLAYER1
  6
CONTINUOUS
 62
     5
 10
1047.289965
 20
447.514467
 11
1046.968370
 21
447.683493
  0
LINE
  8
CSLAYER1
  6
CONTINUOUS
 62
     5
 10
1046.968370
 20
447.683493
 11
1046.622314
 21
447.835799
  0
LINE
  8
CSLAYER1
  6
CONTINUOUS
 62
     5
 10
1046.622314
 20
447.835799
 11
1046.254431
 21
447.970227
  0
LINE
  8
CSLAYER1
  6
CONTINUOUS
 62
     5
 10
1046.254431
 20
447.970227
 11
1045.867523
 21
448.085752
  0
LINE
  8
CSLAYER1
  6
CONTINUOUS
 62
     5
 10
1045.867523
 20
448.085752
 11
1045.464532
 21
448.181496
  0
LINE
  8
CSLAYER1
  6
CONTINUOUS
 62
     5
 10
1045.464532
 20
448.181496
 11
1045.048527
 21
448.256729
  0
LINE
  8
CSLAYER1
  6
CONTINUOUS
 62
     5
 10
1045.048527
 20
448.256729
 11
1044.622672
 21
448.310881
  0
LINE
  8
CSLAYER1
  6
CONTINUOUS
 62
     5
 10
1044.622672
 20
448.310881
 11
1044.190210
 21
448.343537
  0
LINE
  8
CSLAYER1
  6
CONTINUOUS
 62
     5
 10
1044.190210
 20
448.343537
 11
1043.754431
 21
448.354450
  0
LINE
  8
CSLAYER1
  6
CONTINUOUS
 62
     5
 10
1043.754431
 20
448.354450
 11
1043.318653
 21
448.343537
  0
LINE
  8
CSLAYER1
  6
CONTINUOUS
 62
     5
 10
1043.318653
 20
448.343537
 11
1042.886191
 21
448.310881
  0
LINE
  8
CSLAYER1
  6
CONTINUOUS
 62
     5
 10
1042.886191
 20
448.310881
 11
1042.460336
 21
448.256729
  0
LINE
  8
CSLAYER1
  6
CONTINUOUS
 62
     5
 10
1042.460336
 20
448.256729
 11
1042.044331
 21
448.181496
  0
LINE
  8
CSLAYER1
  6
CONTINUOUS
 62
     5
 10
1042.044331
 20
448.181496
 11
1041.641340
 21
448.085752
  0
LINE
  8
CSLAYER1
  6
CONTINUOUS
 62
     5
 10
1041.641340
 20
448.085752
 11
1041.254431
 21
447.970227
  0
LINE
  8
CSLAYER1
  6
CONTINUOUS
 62
     5
 10
1041.254431
 20
447.970227
 11
1040.886549
 21
447.835799
  0
LINE
  8
CSLAYER1
  6
CONTINUOUS
 62
     5
 10
1040.886549
 20
447.835799
 11
1040.540493
 21
447.683493
  0
LINE
  8
CSLAYER1
  6
CONTINUOUS
 62
     5
 10
1040.540493
 20
447.683493
 11
1040.218898
 21
447.514467
  0
LINE
  8
CSLAYER1
  6
CONTINUOUS
 62
     5
 10
1040.218898
 20
447.514467
 11
1039.924209
 21
447.330007
  0
LINE
  8
CSLAYER1
  6
CONTINUOUS
 62
     5
 10
1039.924209
 20
447.330007
 11
1039.658671
 21
447.131518
  0
LINE
  8
CSLAYER1
  6
CONTINUOUS
 62
     5
 10
1039.658671
 20
447.131518
 11
1039.424304
 21
446.920509
  0
LINE
  8
CSLAYER1
  6
CONTINUOUS
 62
     5
 10
1039.424304
 20
446.920509
 11
1039.222893
 21
446.698587
  0
LINE
  8
CSLAYER1
  6
CONTINUOUS
 62
     5
 10
1039.222893
 20
446.698587
 11
1039.055968
 21
446.467441
  0
LINE
  8
CSLAYER1
  6
CONTINUOUS
 62
     5
 10
1039.055968
 20
446.467441
 11
1038.924802
 21
446.228830
  0
LINE
  8
CSLAYER1
  6
CONTINUOUS
 62
     5
 10
1038.924802
 20
446.228830
 11
1038.830393
 21
445.984570
  0
LINE
  8
CSLAYER1
  6
CONTINUOUS
 62
     5
 10
1038.830393
 20
445.984570
 11
1038.773458
 21
445.736520
  0
LINE
  8
CSLAYER1
  6
CONTINUOUS
 62
     5
 10
1038.773458
 20
445.736520
 11
1038.754431
 21
445.486568
  0
LINE
  8
CSLAYER1
  6
CONTINUOUS
 62
     5
 10
1038.754431
 20
445.486568
 11
1038.773458
 21
445.236616
  0
LINE
  8
CSLAYER1
  6
CONTINUOUS
 62
     5
 10
1038.773458
 20
445.236616
 11
1038.830393
 21
444.988565
  0
LINE
  8
CSLAYER1
  6
CONTINUOUS
 62
     5
 10
1038.830393
 20
444.988565
 11
1038.924802
 21
444.744305
  0
LINE
  8
CSLAYER1
  6
CONTINUOUS
 62
     5
 10
1038.924802
 20
444.744305
 11
1039.055968
 21
444.505694
  0
LINE
  8
CSLAYER1
  6
CONTINUOUS
 62
     5
 10
1039.055968
 20
444.505694
 11
1039.222893
 21
444.274549
  0
LINE
  8
CSLAYER1
  6
CONTINUOUS
 62
     5
 10
1039.222893
 20
444.274549
 11
1039.424304
 21
444.052627
  0
LINE
  8
CSLAYER1
  6
CONTINUOUS
 62
     5
 10
1039.424304
 20
444.052627
 11
1039.658671
 21
443.841618
  0
LINE
  8
CSLAYER1
  6
CONTINUOUS
 62
     5
 10
1039.658671
 20
443.841618
 11
1039.924209
 21
443.643129
  0
LINE
  8
CSLAYER1
  6
CONTINUOUS
 62
     5
 10
1039.924209
 20
443.643129
 11
1040.218898
 21
443.458669
  0
LINE
  8
CSLAYER1
  6
CONTINUOUS
 62
     5
 10
1040.218898
 20
443.458669
 11
1040.540493
 21
443.289643
  0
LINE
  8
CSLAYER1
  6
CONTINUOUS
 62
     5
 10
1040.540493
 20
443.289643
 11
1040.886549
 21
443.137336
  0
LINE
  8
CSLAYER1
  6
CONTINUOUS
 62
     5
 10
1040.886549
 20
443.137336
 11
1041.254431
 21
443.002909
  0
LINE
  8
CSLAYER1
  6
CONTINUOUS
 62
     5
 10
1041.254431
 20
443.002909
 11
1041.641340
 21
442.887384
  0
LINE
  8
CSLAYER1
  6
CONTINUOUS
 62
     5
 10
1041.641340
 20
442.887384
 11
1042.044331
 21
442.791640
  0
LINE
  8
CSLAYER1
  6
CONTINUOUS
 62
     5
 10
1042.044331
 20
442.791640
 11
1042.460336
 21
442.716406
  0
LINE
  8
CSLAYER1
  6
CONTINUOUS
 62
     5
 10
1042.460336
 20
442.716406
 11
1042.886191
 21
442.662255
  0
LINE
  8
CSLAYER1
  6
CONTINUOUS
 62
     5
 10
1042.886191
 20
442.662255
 11
1043.318653
 21
442.629599
  0
LINE
  8
CSLAYER1
  6
CONTINUOUS
 62
     5
 10
1043.318653
 20
442.629599
 11
1043.754431
 21
442.618686
  0
LINE
  8
CSLAYER1
  6
CONTINUOUS
 62
     5
 10
1043.754431
 20
442.618686
 11
1044.190210
 21
442.629599
  0
LINE
  8
CSLAYER1
  6
CONTINUOUS
 62
     5
 10
1044.190210
 20
442.629599
 11
1044.622672
 21
442.662255
  0
LINE
  8
CSLAYER1
  6
CONTINUOUS
 62
     5
 10
1044.622672
 20
442.662255
 11
1045.048527
 21
442.716406
  0
LINE
  8
CSLAYER1
  6
CONTINUOUS
 62
     5
 10
1045.048527
 20
442.716406
 11
1045.464532
 21
442.791640
  0
LINE
  8
CSLAYER1
  6
CONTINUOUS
 62
     5
 10
1045.464532
 20
442.791640
 11
1045.867523
 21
442.887384
  0
LINE
  8
CSLAYER1
  6
CONTINUOUS
 62
     5
 10
1045.867523
 20
442.887384
 11
1046.254431
 21
443.002909
  0
LINE
  8
CSLAYER1
  6
CONTINUOUS
 62
     5
 10
1046.254431
 20
443.002909
 11
1046.622314
 21
443.137336
  0
LINE
  8
CSLAYER1
  6
CONTINUOUS
 62
     5
 10
1046.622314
 20
443.137336
 11
1046.968370
 21
443.289643
  0
LINE
  8
CSLAYER1
  6
CONTINUOUS
 62
     5
 10
1046.968370
 20
443.289643
 11
1047.289965
 21
443.458669
  0
LINE
  8
CSLAYER1
  6
CONTINUOUS
 62
     5
 10
1047.289965
 20
443.458669
 11
1047.584654
 21
443.643129
  0
LINE
  8
CSLAYER1
  6
CONTINUOUS
 62
     5
 10
1047.584654
 20
443.643129
 11
1047.850192
 21
443.841618
  0
LINE
  8
CSLAYER1
  6
CONTINUOUS
 62
     5
 10
1047.850192
 20
443.841618
 11
1048.084559
 21
444.052627
  0
LINE
  8
CSLAYER1
  6
CONTINUOUS
 62
     5
 10
1048.084559
 20
444.052627
 11
1048.285970
 21
444.274549
  0
LINE
  8
CSLAYER1
  6
CONTINUOUS
 62
     5
 10
1048.285970
 20
444.274549
 11
1048.452895
 21
444.505694
  0
LINE
  8
CSLAYER1
  6
CONTINUOUS
 62
     5
 10
1048.452895
 20
444.505694
 11
1048.584061
 21
444.744305
  0
LINE
  8
CSLAYER1
  6
CONTINUOUS
 62
     5
 10
1048.584061
 20
444.744305
 11
1048.678470
 21
444.988565
  0
LINE
  8
CSLAYER1
  6
CONTINUOUS
 62
     5
 10
1048.678470
 20
444.988565
 11
1048.735405
 21
445.236616
  0
LINE
  8
CSLAYER1
  6
CONTINUOUS
 62
     5
 10
1048.735405
 20
445.236616
 11
1048.754431
 21
445.486568
  0
ENDBLK
  8
0
  0
BLOCK
  8
CSLAYER1
  2
BLKF0003
 70
   64
 10
0.0
 20
0.0
 30
0.0
  0
LINE
  8
CSLAYER1
  6
CONTINUOUS
 62
     5
 10
320.754431
 20
445.486568
 11
320.773458
 21
445.736520
  0
LINE
  8
CSLAYER1
  6
CONTINUOUS
 62
     5
 10
320.773458
 20
445.736520
 11
320.830393
 21
445.984570
  0
LINE
  8
CSLAYER1
  6
CONTINUOUS
 62
     5
 10
320.830393
 20
445.984570
 11
320.924802
 21
446.228830
  0
LINE
  8
CSLAYER1
  6
CONTINUOUS
 62
     5
 10
320.924802
 20
446.228830
 11
321.055968
 21
446.467441
  0
LINE
  8
CSLAYER1
  6
CONTINUOUS
 62
     5
 10
321.055968
 20
446.467441
 11
321.222893
 21
446.698587
  0
LINE
  8
CSLAYER1
  6
CONTINUOUS
 62
     5
 10
321.222893
 20
446.698587
 11
321.424304
 21
446.920509
  0
LINE
  8
CSLAYER1
  6
CONTINUOUS
 62
     5
 10
321.424304
 20
446.920509
 11
321.658671
 21
447.131518
  0
LINE
  8
CSLAYER1
  6
CONTINUOUS
 62
     5
 10
321.658671
 20
447.131518
 11
321.924209
 21
447.330007
  0
LINE
  8
CSLAYER1
  6
CONTINUOUS
 62
     5
 10
321.924209
 20
447.330007
 11
322.218898
 21
447.514467
  0
LINE
  8
CSLAYER1
  6
CONTINUOUS
 62
     5
 10
322.218898
 20
447.514467
 11
322.540493
 21
447.683493
  0
LINE
  8
CSLAYER1
  6
CONTINUOUS
 62
     5
 10
322.540493
 20
447.683493
 11
322.886549
 21
447.835799
  0
LINE
  8
CSLAYER1
  6
CONTINUOUS
 62
     5
 10
322.886549
 20
447.835799
 11
323.254431
 21
447.970227
  0
LINE
  8
CSLAYER1
  6
CONTINUOUS
 62
     5
 10
323.254431
 20
447.970227
 11
323.641340
 21
448.085752
  0
LINE
  8
CSLAYER1
  6
CONTINUOUS
 62
     5
 10
323.641340
 20
448.085752
 11
324.044331
 21
448.181496
  0
LINE
  8
CSLAYER1
  6
CONTINUOUS
 62
     5
 10
324.044331
 20
448.181496
 11
324.460336
 21
448.256729
  0
LINE
  8
CSLAYER1
  6
CONTINUOUS
 62
     5
 10
324.460336
 20
448.256729
 11
324.886191
 21
448.310881
  0
LINE
  8
CSLAYER1
  6
CONTINUOUS
 62
     5
 10
324.886191
 20
448.310881
 11
325.318653
 21
448.343537
  0
LINE
  8
CSLAYER1
  6
CONTINUOUS
 62
     5
 10
325.318653
 20
448.343537
 11
325.754431
 21
448.354450
  0
LINE
  8
CSLAYER1
  6
CONTINUOUS
 62
     5
 10
325.754431
 20
448.354450
 11
326.190210
 21
448.343537
  0
LINE
  8
CSLAYER1
  6
CONTINUOUS
 62
     5
 10
326.190210
 20
448.343537
 11
326.622672
 21
448.310881
  0
LINE
  8
CSLAYER1
  6
CONTINUOUS
 62
     5
 10
326.622672
 20
448.310881
 11
327.048527
 21
448.256729
  0
LINE
  8
CSLAYER1
  6
CONTINUOUS
 62
     5
 10
327.048527
 20
448.256729
 11
327.464532
 21
448.181496
  0
LINE
  8
CSLAYER1
  6
CONTINUOUS
 62
     5
 10
327.464532
 20
448.181496
 11
327.867523
 21
448.085752
  0
LINE
  8
CSLAYER1
  6
CONTINUOUS
 62
     5
 10
327.867523
 20
448.085752
 11
328.254431
 21
447.970227
  0
LINE
  8
CSLAYER1
  6
CONTINUOUS
 62
     5
 10
328.254431
 20
447.970227
 11
328.622314
 21
447.835799
  0
LINE
  8
CSLAYER1
  6
CONTINUOUS
 62
     5
 10
328.622314
 20
447.835799
 11
328.968370
 21
447.683493
  0
LINE
  8
CSLAYER1
  6
CONTINUOUS
 62
     5
 10
328.968370
 20
447.683493
 11
329.289965
 21
447.514467
  0
LINE
  8
CSLAYER1
  6
CONTINUOUS
 62
     5
 10
329.289965
 20
447.514467
 11
329.584654
 21
447.330007
  0
LINE
  8
CSLAYER1
  6
CONTINUOUS
 62
     5
 10
329.584654
 20
447.330007
 11
329.850192
 21
447.131518
  0
LINE
  8
CSLAYER1
  6
CONTINUOUS
 62
     5
 10
329.850192
 20
447.131518
 11
330.084559
 21
446.920509
  0
LINE
  8
CSLAYER1
  6
CONTINUOUS
 62
     5
 10
330.084559
 20
446.920509
 11
330.285970
 21
446.698587
  0
LINE
  8
CSLAYER1
  6
CONTINUOUS
 62
     5
 10
330.285970
 20
446.698587
 11
330.452895
 21
446.467441
  0
LINE
  8
CSLAYER1
  6
CONTINUOUS
 62
     5
 10
330.452895
 20
446.467441
 11
330.584061
 21
446.228830
  0
LINE
  8
CSLAYER1
  6
CONTINUOUS
 62
     5
 10
330.584061
 20
446.228830
 11
330.678470
 21
445.984570
  0
LINE
  8
CSLAYER1
  6
CONTINUOUS
 62
     5
 10
330.678470
 20
445.984570
 11
330.735405
 21
445.736520
  0
LINE
  8
CSLAYER1
  6
CONTINUOUS
 62
     5
 10
330.735405
 20
445.736520
 11
330.754431
 21
445.486568
  0
LINE
  8
CSLAYER1
  6
CONTINUOUS
 62
     5
 10
330.754431
 20
445.486568
 11
330.735405
 21
445.236616
  0
LINE
  8
CSLAYER1
  6
CONTINUOUS
 62
     5
 10
330.735405
 20
445.236616
 11
330.678470
 21
444.988565
  0
LINE
  8
CSLAYER1
  6
CONTINUOUS
 62
     5
 10
330.678470
 20
444.988565
 11
330.584061
 21
444.744305
  0
LINE
  8
CSLAYER1
  6
CONTINUOUS
 62
     5
 10
330.584061
 20
444.744305
 11
330.452895
 21
444.505694
  0
LINE
  8
CSLAYER1
  6
CONTINUOUS
 62
     5
 10
330.452895
 20
444.505694
 11
330.285970
 21
444.274549
  0
LINE
  8
CSLAYER1
  6
CONTINUOUS
 62
     5
 10
330.285970
 20
444.274549
 11
330.084559
 21
444.052627
  0
LINE
  8
CSLAYER1
  6
CONTINUOUS
 62
     5
 10
330.084559
 20
444.052627
 11
329.850192
 21
443.841618
  0
LINE
  8
CSLAYER1
  6
CONTINUOUS
 62
     5
 10
329.850192
 20
443.841618
 11
329.584654
 21
443.643129
  0
LINE
  8
CSLAYER1
  6
CONTINUOUS
 62
     5
 10
329.584654
 20
443.643129
 11
329.289965
 21
443.458669
  0
LINE
  8
CSLAYER1
  6
CONTINUOUS
 62
     5
 10
329.289965
 20
443.458669
 11
328.968370
 21
443.289643
  0
LINE
  8
CSLAYER1
  6
CONTINUOUS
 62
     5
 10
328.968370
 20
443.289643
 11
328.622314
 21
443.137336
  0
LINE
  8
CSLAYER1
  6
CONTINUOUS
 62
     5
 10
328.622314
 20
443.137336
 11
328.254431
 21
443.002909
  0
LINE
  8
CSLAYER1
  6
CONTINUOUS
 62
     5
 10
328.254431
 20
443.002909
 11
327.867523
 21
442.887384
  0
LINE
  8
CSLAYER1
  6
CONTINUOUS
 62
     5
 10
327.867523
 20
442.887384
 11
327.464532
 21
442.791640
  0
LINE
  8
CSLAYER1
  6
CONTINUOUS
 62
     5
 10
327.464532
 20
442.791640
 11
327.048527
 21
442.716406
  0
LINE
  8
CSLAYER1
  6
CONTINUOUS
 62
     5
 10
327.048527
 20
442.716406
 11
326.622672
 21
442.662255
  0
LINE
  8
CSLAYER1
  6
CONTINUOUS
 62
     5
 10
326.622672
 20
442.662255
 11
326.190210
 21
442.629599
  0
LINE
  8
CSLAYER1
  6
CONTINUOUS
 62
     5
 10
326.190210
 20
442.629599
 11
325.754431
 21
442.618686
  0
LINE
  8
CSLAYER1
  6
CONTINUOUS
 62
     5
 10
325.754431
 20
442.618686
 11
325.318653
 21
442.629599
  0
LINE
  8
CSLAYER1
  6
CONTINUOUS
 62
     5
 10
325.318653
 20
442.629599
 11
324.886191
 21
442.662255
  0
LINE
  8
CSLAYER1
  6
CONTINUOUS
 62
     5
 10
324.886191
 20
442.662255
 11
324.460336
 21
442.716406
  0
LINE
  8
CSLAYER1
  6
CONTINUOUS
 62
     5
 10
324.460336
 20
442.716406
 11
324.044331
 21
442.791640
  0
LINE
  8
CSLAYER1
  6
CONTINUOUS
 62
     5
 10
324.044331
 20
442.791640
 11
323.641340
 21
442.887384
  0
LINE
  8
CSLAYER1
  6
CONTINUOUS
 62
     5
 10
323.641340
 20
442.887384
 11
323.254431
 21
443.002909
  0
LINE
  8
CSLAYER1
  6
CONTINUOUS
 62
     5
 10
323.254431
 20
443.002909
 11
322.886549
 21
443.137336
  0
LINE
  8
CSLAYER1
  6
CONTINUOUS
 62
     5
 10
322.886549
 20
443.137336
 11
322.540493
 21
443.289643
  0
LINE
  8
CSLAYER1
  6
CONTINUOUS
 62
     5
 10
322.540493
 20
443.289643
 11
322.218898
 21
443.458669
  0
LINE
  8
CSLAYER1
  6
CONTINUOUS
 62
     5
 10
322.218898
 20
443.458669
 11
321.924209
 21
443.643129
  0
LINE
  8
CSLAYER1
  6
CONTINUOUS
 62
     5
 10
321.924209
 20
443.643129
 11
321.658671
 21
443.841618
  0
LINE
  8
CSLAYER1
  6
CONTINUOUS
 62
     5
 10
321.658671
 20
443.841618
 11
321.424304
 21
444.052627
  0
LINE
  8
CSLAYER1
  6
CONTINUOUS
 62
     5
 10
321.424304
 20
444.052627
 11
321.222893
 21
444.274549
  0
LINE
  8
CSLAYER1
  6
CONTINUOUS
 62
     5
 10
321.222893
 20
444.274549
 11
321.055968
 21
444.505694
  0
LINE
  8
CSLAYER1
  6
CONTINUOUS
 62
     5
 10
321.055968
 20
444.505694
 11
320.924802
 21
444.744305
  0
LINE
  8
CSLAYER1
  6
CONTINUOUS
 62
     5
 10
320.924802
 20
444.744305
 11
320.830393
 21
444.988565
  0
LINE
  8
CSLAYER1
  6
CONTINUOUS
 62
     5
 10
320.830393
 20
444.988565
 11
320.773458
 21
445.236616
  0
LINE
  8
CSLAYER1
  6
CONTINUOUS
 62
     5
 10
320.773458
 20
445.236616
 11
320.754431
 21
445.486568
  0
ENDBLK
  8
0
  0
ENDSEC
  0
SECTION
  2
ENTITIES
  0
LINE
  8
CSLAYER1
  6
CONTINUOUS
 62
     3
 10
118.051807
 20
2400.454119
 11
118.051807
 21
51.907189
  0
LINE
  8
CSLAYER1
  6
CONTINUOUS
 62
     3
 10
3440.625117
 20
2400.454119
 11
118.051807
 21
2400.454119
  0
LINE
  8
CSLAYER1
  6
CONTINUOUS
 62
     3
 10
3440.625117
 20
2400.454119
 11
3440.625117
 21
51.907189
  0
LINE
  8
CSLAYER1
  6
CONTINUOUS
 62
     3
 10
3440.625117
 20
51.907189
 11
118.051807
 21
51.907189
  0
LINE
  8
CSLAYER1
  6
CONTINUOUS
 62
     5
 10
68.051807
 20
1211.907189
 11
18.051807
 21
1211.907189
  0
LINE
  8
CSLAYER1
  6
CONTINUOUS
 62
     5
 10
2640.625117
 20
491.907189
 11
3440.625117
 21
491.907189
  0
LINE
  8
CSLAYER1
  6
CONTINUOUS
 62
     5
 10
2640.625117
 20
131.907189
 11
3440.625117
 21
131.907189
  0
LINE
  8
CSLAYER1
  6
CONTINUOUS
 62
     5
 10
2640.625117
 20
291.907189
 11
3440.625117
 21
291.907189
  0
LINE
  8
CSLAYER1
  6
CONTINUOUS
 62
     5
 10
2640.625117
 20
351.907189
 11
3440.625117
 21
351.907189
  0
LINE
  8
CSLAYER1
  6
CONTINUOUS
 62
     5
 10
2640.625117
 20
411.907189
 11
3440.625117
 21
411.907189
  0
LINE
  8
CSLAYER1
  6
CONTINUOUS
 62
     5
 10
2640.625117
 20
571.907189
 11
3440.625117
 21
571.907189
  0
LINE
  8
CSLAYER1
  6
CONTINUOUS
 62
     5
 10
2640.625117
 20
651.907189
 11
2640.625117
 21
51.907189
  0
LINE
  8
CSLAYER1
  6
CONTINUOUS
 62
     5
 10
2840.625117
 20
651.907189
 11
2840.625117
 21
411.907189
  0
LINE
  8
CSLAYER1
  6
CONTINUOUS
 62
     5
 10
2640.625117
 20
651.907189
 11
3440.625117
 21
651.907189
  0
LINE
  8
CSLAYER1
  6
CONTINUOUS
 62
     5
 10
3140.625117
 20
411.907189
 11
3140.625117
 21
131.907189
  0
TEXT
  8
CSLAYER1
 62
     3
 10
2860.316219
 20
60.469913
 40
59.380363
 41
1.003345
  1
東正車輌株式会社
 50
0.000000
 51
0.000000
  7
EASYDRAW_FONT
 72
     5
 11
3317.088566
 21
60.469913
  0
LINE
  8
CSLAYER1
  6
CONTINUOUS
 62
     5
 10
2890.625117
 20
351.907189
 11
2890.625117
 21
131.907189
  0
TEXT
  8
CSLAYER1
 62
     5
 10
2670.625000
 20
586.907166
 40
50.000000
 41
1.050000
  1
品　名
 50
0.000000
 51
0.000000
  7
EASYDRAW_FONT
 72
     5
 11
2810.625000
 21
586.907166
  0
TEXT
  8
CSLAYER1
 62
     5
 10
2670.625000
 20
506.907166
 40
50.000000
 41
1.050000
  1
型　式
 50
0.000000
 51
0.000000
  7
EASYDRAW_FONT
 72
     5
 11
2810.625000
 21
506.907166
  0
TEXT
  8
CSLAYER1
 62
     5
 10
2645.625000
 20
426.907196
 40
50.000000
 41
1.036364
  1
図面番号
 50
0.000000
 51
0.000000
  7
EASYDRAW_FONT
 72
     5
 11
2835.625000
 21
426.907196
  0
TEXT
  8
CSLAYER1
 62
     5
 10
2710.625000
 20
356.907196
 40
50.000000
 41
0.830769
  1
平成１３年３月７日
 50
0.000000
 51
0.000000
  7
EASYDRAW_FONT
 72
     5
 11
3070.625000
 21
356.907196
  0
TEXT
  8
CSLAYER1
 62
     5
 10
3220.625000
 20
356.907196
 40
50.000000
 41
1.050000
  1
Ｂ－４
 50
0.000000
 51
0.000000
  7
EASYDRAW_FONT
 72
     5
 11
3360.625000
 21
356.907196
  0
TEXT
  8
CSLAYER1
 62
     5
 10
2695.625000
 20
296.907196
 40
50.000000
 41
1.050000
  1
検　図
 50
0.000000
 51
0.000000
  7
EASYDRAW_FONT
 72
     5
 11
2835.625000
 21
296.907196
  0
TEXT
  8
CSLAYER1
 62
     5
 10
2945.625000
 20
296.907196
 40
50.000000
 41
1.050000
  1
作　図
 50
0.000000
 51
0.000000
  7
EASYDRAW_FONT
 72
     5
 11
3085.625000
 21
296.907196
  0
TEXT
  8
CSLAYER1
 62
     5
 10
3220.625000
 20
296.907196
 40
50.000000
 41
1.050000
  1
尺　度
 50
0.000000
 51
0.000000
  7
EASYDRAW_FONT
 72
     5
 11
3360.625000
 21
296.907196
  0
TEXT
  8
CSLAYER1
 62
     5
 10
3321.363770
 20
146.392456
 40
50.000000
 41
1.080000
  1
１０
 50
0.000000
 51
0.000000
  7
EASYDRAW_FONT
 72
     5
 11
3411.363770
 21
146.392456
  0
TEXT
  8
CSLAYER1
 62
     5
 10
3301.044189
 20
194.097153
 40
50.000000
 41
1.200000
  1
／
 50
0.000000
 51
0.000000
  7
EASYDRAW_FONT
 72
     5
 11
3341.044189
 21
194.097153
  0
TEXT
  8
CSLAYER1
 62
     5
 10
3270.831299
 20
229.080597
 40
50.000000
 41
1.200000
  1
１
 50
0.000000
 51
0.000000
  7
EASYDRAW_FONT
 72
     5
 11
3310.831299
 21
229.080597
  0
TEXT
  8
CSLAYER1
 62
     3
 10
2980.625000
 20
586.907166
 40
50.000000
 41
0.834783
  1
ゴールドリフター
 50
0.000000
 51
0.000000
  7
EASYDRAW_FONT
 72
     5
 11
3300.625000
 21
586.907166
  0
TEXT
  8
CSLAYER1
 62
     3
 10
2900.625000
 20
506.907166
 40
50.000000
 41
0.822857
  1
ＧＬＥ－５００－０８０９
 50
0.000000
 51
0.000000
  7
EASYDRAW_FONT
 72
     5
 11
3380.625000
 21
506.907166
  0
TEXT
  8
CSLAYER1
 62
     3
 10
3020.625000
 20
426.907196
 40
50.000000
 41
0.847059
  1
GT-11 
 50
0.000000
 51
0.000000
  7
EASYDRAW_FONT
 72
     5
 11
3260.625000
 21
426.907196
  0
INSERT
  8
CSLAYER1
  2
BLKF0000
 10
0.0
 20
0.0
 30
0.0
  0
INSERT
  8
CSLAYER1
  2
BLKF0001
 10
0.0
 20
0.0
 30
0.0
  0
LINE
  8
CSLAYER1
  6
CONTINUOUS
 62
     3
 10
2587.266121
 20
359.487809
 11
201.214840
 21
359.487809
  0
LINE
  8
CSLAYER1
  6
CONTINUOUS
 62
     3
 10
1284.754431
 20
424.487809
 11
1284.754431
 21
359.487809
  0
LINE
  8
CSLAYER1
  6
CONTINUOUS
 62
     3
 10
2184.754431
 20
424.487809
 11
2184.754431
 21
359.487809
  0
LINE
  8
CSLAYER1
  6
CONTINUOUS
 62
     3
 10
2184.754431
 20
1358.034739
 11
2184.754431
 21
2158.034739
  0
LINE
  8
CSLAYER1
  6
CENTER
 62
     5
 10
684.754431
 20
1162.024503
 11
684.754431
 21
340.263507
  0
LINE
  8
CSLAYER1
  6
CONTINUOUS
 62
     3
 10
284.754431
 20
1134.487809
 11
1084.754431
 21
1134.487809
  0
LINE
  8
CSLAYER1
  6
CONTINUOUS
 62
     3
 10
284.754431
 20
1084.487809
 11
1084.754431
 21
1084.487809
  0
LINE
  8
CSLAYER1
  6
CONTINUOUS
 62
     3
 10
1014.754431
 20
1084.487809
 11
1014.754431
 21
424.487809
  0
LINE
  8
CSLAYER1
  6
CONTINUOUS
 62
     3
 10
1026.754431
 20
1084.487809
 11
1026.754431
 21
424.487809
  0
LINE
  8
CSLAYER1
  6
CONTINUOUS
 62
     3
 10
1033.754431
 20
1084.487809
 11
1033.754431
 21
454.717758
  0
LINE
  8
CSLAYER1
  6
CONTINUOUS
 62
     3
 10
1045.754431
 20
1084.487809
 11
1045.754431
 21
454.717758
  0
LINE
  8
CSLAYER1
  6
CENTER
 62
     5
 10
1085.458333
 20
746.887809
 11
286.187431
 21
746.887809
  0
LINE
  8
CSLAYER1
  6
CENTER
 62
     5
 10
1014.754431
 20
742.414781
 11
354.754431
 21
742.414781
  0
LINE
  8
CSLAYER1
  6
CONTINUOUS
 62
     3
 10
713.754431
 20
772.664781
 11
655.754431
 21
772.664781
  0
LINE
  8
CSLAYER1
  6
CONTINUOUS
 62
     3
 10
1014.754431
 20
712.164781
 11
354.754431
 21
712.164781
  0
LINE
  8
CSLAYER1
  6
CONTINUOUS
 62
     5
 10
1064.754431
 20
754.887809
 11
1064.754431
 21
738.887809
  0
LINE
  8
CSLAYER1
  6
CONTINUOUS
 62
     5
 10
1026.754431
 20
771.887809
 11
1033.754431
 21
771.887809
  0
LINE
  8
CSLAYER1
  6
CONTINUOUS
 62
     5
 10
1026.754431
 20
721.887809
 11
1033.754431
 21
721.887809
  0
LINE
  8
CSLAYER1
  6
CONTINUOUS
 62
     5
 10
1048.754431
 20
761.887809
 11
1048.754431
 21
731.887809
  0
LINE
  8
CSLAYER1
  6
CONTINUOUS
 62
     5
 10
1052.754431
 20
760.887809
 11
1052.754431
 21
732.887809
  0
LINE
  8
CSLAYER1
  6
CONTINUOUS
 62
     5
 10
1052.754431
 20
754.887809
 11
1064.754431
 21
754.887809
  0
LINE
  8
CSLAYER1
  6
CONTINUOUS
 62
     5
 10
1052.754431
 20
738.887809
 11
1064.754431
 21
738.887809
  0
LINE
  8
CSLAYER1
  6
CONTINUOUS
 62
     5
 10
1048.754431
 20
760.887809
 11
1062.754431
 21
760.887809
  0
LINE
  8
CSLAYER1
  6
CONTINUOUS
 62
     5
 10
1048.754431
 20
732.887809
 11
1062.754431
 21
732.887809
  0
LINE
  8
CSLAYER1
  6
CONTINUOUS
 62
     5
 10
1062.754431
 20
760.887809
 11
1062.754431
 21
732.887809
  0
LINE
  8
CSLAYER1
  6
CONTINUOUS
 62
     5
 10
1045.754431
 20
761.887809
 11
1048.754431
 21
761.887809
  0
LINE
  8
CSLAYER1
  6
CONTINUOUS
 62
     5
 10
1045.754431
 20
731.887809
 11
1048.754431
 21
731.887809
  0
LINE
  8
CSLAYER1
  6
CONTINUOUS
 62
     3
 10
713.754431
 20
862.264269
 11
713.754431
 21
763.086866
  0
LINE
  8
CSLAYER1
  6
CONTINUOUS
 62
     3
 10
722.754431
 20
862.264269
 11
722.754431
 21
763.086866
  0
LINE
  8
CSLAYER1
  6
CONTINUOUS
 62
     3
 10
698.754431
 20
866.982338
 11
698.754431
 21
824.764264
  0
LINE
  8
CSLAYER1
  6
CONTINUOUS
 62
     5
 10
1554.202556
 20
880.706011
 11
1554.202556
 21
821.056749
  0
LINE
  8
CSLAYER1
  6
CONTINUOUS
 62
     3
 10
713.754431
 20
862.264269
 11
722.754431
 21
862.264269
  0
LINE
  8
CSLAYER1
  6
CONTINUOUS
 62
     3
 10
713.754431
 20
763.086866
 11
722.754431
 21
763.086866
  0
LINE
  8
CSLAYER1
  6
CONTINUOUS
 62
     3
 10
713.754431
 20
765.418009
 11
722.754431
 21
765.418009
  0
LINE
  8
CSLAYER1
  6
CONTINUOUS
 62
     5
 10
733.742737
 20
842.264264
 11
635.766126
 21
842.264264
  0
LINE
  8
CSLAYER1
  6
CONTINUOUS
 62
     3
 10
722.754431
 20
772.664781
 11
1014.754431
 21
772.664781
  0
LINE
  8
CSLAYER1
  6
CONTINUOUS
 62
     3
 10
698.754431
 20
859.764264
 11
713.754431
 21
859.764264
  0
LINE
  8
CSLAYER1
  6
CONTINUOUS
 62
     3
 10
698.754431
 20
824.764264
 11
713.754431
 21
824.764264
  0
LINE
  8
CSLAYER1
  6
CONTINUOUS
 62
     3
 10
698.754431
 20
866.982338
 11
670.754431
 21
866.982338
  0
LINE
  8
CSLAYER1
  6
CONTINUOUS
 62
     3
 10
698.754431
 20
854.526901
 11
670.754431
 21
854.526901
  0
LINE
  8
CSLAYER1
  6
CONTINUOUS
 62
     3
 10
709.754431
 20
824.764264
 11
709.754431
 21
772.664781
  0
LINE
  8
CSLAYER1
  6
CONTINUOUS
 62
     3
 10
709.754431
 20
712.164781
 11
709.754431
 21
678.087815
  0
LINE
  8
CSLAYER1
  6
CONTINUOUS
 62
     3
 10
659.754431
 20
712.164781
 11
659.754431
 21
678.087815
  0
ARC
  8
CSLAYER1
  6
CONTINUOUS
 62
     3
 10
684.754431
 20
706.119985
 40
37.560652
 50
228.272384
 51
311.727616
  0
LINE
  8
CSLAYER1
  6
CONTINUOUS
 62
     3
 10
718.254431
 20
678.087815
 11
718.254431
 21
621.229980
  0
LINE
  8
CSLAYER1
  6
CONTINUOUS
 62
     3
 10
651.254431
 20
678.087815
 11
651.254431
 21
621.229980
  0
ARC
  8
CSLAYER1
  6
CONTINUOUS
 62
     3
 10
684.754431
 20
715.650923
 40
50.331273
 50
228.272384
 51
311.727616
  0
ARC
  8
CSLAYER1
  6
CONTINUOUS
 62
     3
 10
684.754431
 20
640.524707
 40
50.331273
 50
48.272384
 51
60.217488
  0
ARC
  8
CSLAYER1
  6
CONTINUOUS
 62
     3
 10
684.754431
 20
640.524707
 40
50.331273
 50
119.782512
 51
131.727616
  0
LINE
  8
CSLAYER1
  6
CONTINUOUS
 62
     3
 10
719.754431
 20
621.229980
 11
719.754431
 21
599.503816
  0
LINE
  8
CSLAYER1
  6
CONTINUOUS
 62
     3
 10
649.754431
 20
621.229980
 11
649.754431
 21
599.503816
  0
ARC
  8
CSLAYER1
  6
CONTINUOUS
 62
     3
 10
684.754431
 20
658.793088
 40
50.331273
 50
228.272384
 51
311.727616
  0
ARC
  8
CSLAYER1
  6
CONTINUOUS
 62
     3
 10
684.754431
 20
660.475018
 40
52.584913
 50
228.272384
 51
311.727616
  0
ARC
  8
CSLAYER1
  6
CONTINUOUS
 62
     3
 10
684.754431
 20
638.748854
 40
52.584913
 50
228.272384
 51
311.727616
  0
ARC
  8
CSLAYER1
  6
CONTINUOUS
 62
     3
 10
684.754431
 20
581.984942
 40
52.584913
 50
48.272384
 51
50.426700
  0
ARC
  8
CSLAYER1
  6
CONTINUOUS
 62
     3
 10
684.754431
 20
581.984942
 40
52.584913
 50
129.573300
 51
131.727616
  0
LINE
  8
CSLAYER1
  6
CONTINUOUS
 62
     3
 10
652.254431
 20
597.409732
 11
652.254431
 21
451.609324
  0
LINE
  8
CSLAYER1
  6
CONTINUOUS
 62
     3
 10
717.254431
 20
597.409732
 11
717.254431
 21
502.299830
  0
LINE
  8
CSLAYER1
  6
CONTINUOUS
 62
     5
 10
2184.554431
 20
514.487809
 11
2168.586100
 21
514.487809
  0
LINE
  8
CSLAYER1
  6
CONTINUOUS
 62
     5
 10
2184.554431
 20
464.487809
 11
2169.199761
 21
464.487809
  0
LINE
  8
CSLAYER1
  6
CONTINUOUS
 62
     5
 10
1284.554431
 20
464.487809
 11
1284.554431
 21
473.508168
  0
LINE
  8
CSLAYER1
  6
CONTINUOUS
 62
     5
 10
2184.554431
 20
464.487809
 11
2184.554431
 21
472.692633
  0
LINE
  8
CSLAYER1
  6
CONTINUOUS
 62
     5
 10
304.754431
 20
754.887809
 11
304.754431
 21
738.887809
  0
LINE
  8
CSLAYER1
  6
CONTINUOUS
 62
     5
 10
342.754431
 20
771.887809
 11
335.754431
 21
771.887809
  0
LINE
  8
CSLAYER1
  6
CONTINUOUS
 62
     5
 10
342.754431
 20
721.887809
 11
335.754431
 21
721.887809
  0
LINE
  8
CSLAYER1
  6
CONTINUOUS
 62
     5
 10
320.754431
 20
761.887809
 11
320.754431
 21
731.887809
  0
LINE
  8
CSLAYER1
  6
CONTINUOUS
 62
     5
 10
316.754431
 20
760.887809
 11
316.754431
 21
732.887809
  0
LINE
  8
CSLAYER1
  6
CONTINUOUS
 62
     5
 10
316.754431
 20
754.887809
 11
304.754431
 21
754.887809
  0
LINE
  8
CSLAYER1
  6
CONTINUOUS
 62
     5
 10
316.754431
 20
738.887809
 11
304.754431
 21
738.887809
  0
LINE
  8
CSLAYER1
  6
CONTINUOUS
 62
     5
 10
320.754431
 20
760.887809
 11
306.754431
 21
760.887809
  0
LINE
  8
CSLAYER1
  6
CONTINUOUS
 62
     5
 10
320.754431
 20
732.887809
 11
306.754431
 21
732.887809
  0
LINE
  8
CSLAYER1
  6
CONTINUOUS
 62
     5
 10
306.754431
 20
760.887809
 11
306.754431
 21
732.887809
  0
LINE
  8
CSLAYER1
  6
CONTINUOUS
 62
     5
 10
323.754431
 20
761.887809
 11
320.754431
 21
761.887809
  0
LINE
  8
CSLAYER1
  6
CONTINUOUS
 62
     5
 10
323.754431
 20
731.887809
 11
320.754431
 21
731.887809
  0
LINE
  8
CSLAYER1
  6
CONTINUOUS
 62
     3
 10
655.754431
 20
862.264269
 11
655.754431
 21
763.086866
  0
LINE
  8
CSLAYER1
  6
CONTINUOUS
 62
     3
 10
646.754431
 20
862.264269
 11
646.754431
 21
763.086866
  0
LINE
  8
CSLAYER1
  6
CONTINUOUS
 62
     3
 10
670.754431
 20
866.982338
 11
670.754431
 21
824.764264
  0
LINE
  8
CSLAYER1
  6
CONTINUOUS
 62
     3
 10
655.754431
 20
862.264269
 11
646.754431
 21
862.264269
  0
LINE
  8
CSLAYER1
  6
CONTINUOUS
 62
     3
 10
655.754431
 20
763.086866
 11
646.754431
 21
763.086866
  0
LINE
  8
CSLAYER1
  6
CONTINUOUS
 62
     3
 10
655.754431
 20
765.418009
 11
646.754431
 21
765.418009
  0
LINE
  8
CSLAYER1
  6
CONTINUOUS
 62
     3
 10
646.754431
 20
772.664781
 11
354.754431
 21
772.664781
  0
LINE
  8
CSLAYER1
  6
CONTINUOUS
 62
     3
 10
670.754431
 20
859.764264
 11
655.754431
 21
859.764264
  0
LINE
  8
CSLAYER1
  6
CONTINUOUS
 62
     3
 10
670.754431
 20
824.764264
 11
655.754431
 21
824.764264
  0
LINE
  8
CSLAYER1
  6
CONTINUOUS
 62
     3
 10
659.754431
 20
824.764264
 11
659.754431
 21
772.664781
  0
LINE
  8
CSLAYER1
  6
CONTINUOUS
 62
     3
 10
354.754431
 20
1084.487809
 11
354.754431
 21
424.487809
  0
LINE
  8
CSLAYER1
  6
CONTINUOUS
 62
     3
 10
342.754431
 20
1084.487809
 11
342.754431
 21
424.487809
  0
LINE
  8
CSLAYER1
  6
CONTINUOUS
 62
     3
 10
335.754431
 20
1084.487809
 11
335.754431
 21
454.717758
  0
LINE
  8
CSLAYER1
  6
CONTINUOUS
 62
     3
 10
323.754431
 20
1084.487809
 11
323.754431
 21
454.717758
  0
LINE
  8
CSLAYER1
  6
CONTINUOUS
 62
     3
 10
891.316931
 20
447.687809
 11
942.254431
 21
447.687809
  0
LINE
  8
CSLAYER1
  6
CONTINUOUS
 62
     3
 10
1493.341098
 20
424.487809
 11
1498.754431
 21
447.687809
  0
LINE
  8
CSLAYER1
  6
CONTINUOUS
 62
     3
 10
1604.754431
 20
447.687809
 11
1610.167765
 21
424.487809
  0
LINE
  8
CSLAYER1
  6
CONTINUOUS
 62
     3
 10
1498.754431
 20
447.687809
 11
1604.754431
 21
447.687809
  0
LINE
  8
CSLAYER1
  6
CONTINUOUS
 62
     3
 10
942.254431
 20
447.687809
 11
945.734431
 21
424.487809
  0
TEXT
  8
CSLAYER1
 62
     3
 10
467.525024
 20
1720.290283
 40
50.000000
 41
1.020000
  1
ＵＰ・ＤＯＷＮ
 50
0.000000
 51
0.000000
  7
EASYDRAW_FONT
 72
     5
 11
807.525024
 21
1720.290283
  0
TEXT
  8
CSLAYER1
 62
     3
 10
468.269897
 20
1791.791748
 40
50.000000
 41
1.020000
  1
フットスイッチ
 50
0.000000
 51
0.000000
  7
EASYDRAW_FONT
 72
     5
 11
808.269897
 21
1791.791748
  0
LINE
  8
CSLAYER1
  6
CONTINUOUS
 62
     3
 10
1137.754915
 20
1508.034739
 11
864.754431
 21
1508.034739
  0
LINE
  8
CSLAYER1
  6
CONTINUOUS
 62
     3
 10
1138.287552
 20
1501.034739
 11
864.754431
 21
1501.034739
  0
ARC
  8
CSLAYER1
  6
CONTINUOUS
 62
     3
 10
1131.450155
 20
1547.534739
 40
40.000000
 50
-80.931278
 51
243.817766
  0
ARC
  8
CSLAYER1
  6
CONTINUOUS
 62
     3
 10
1131.450155
 20
1547.534739
 40
47.000000
 50
-81.635125
 51
229.860785
  0
LINE
  8
CSLAYER1
  6
CONTINUOUS
 62
     3
 10
1284.754431
 20
1508.034739
 11
1161.441771
 21
1508.034739
  0
LINE
  8
CSLAYER1
  6
CONTINUOUS
 62
     3
 10
1284.754431
 20
1501.034739
 11
1150.734880
 21
1501.034739
  0
LINE
  8
CSLAYER1
  6
CONTINUOUS
 62
     3
 10
1284.754431
 20
1479.034739
 11
1105.857244
 21
1479.034739
  0
LINE
  8
CSLAYER1
  6
CONTINUOUS
 62
     3
 10
1284.754431
 20
1486.034739
 11
1095.975453
 21
1486.034739
  0
TEXT
  8
CSLAYER1
 62
     3
 10
389.308289
 20
1394.793701
 40
50.000000
 41
1.028571
  1
電源コード
 50
0.000000
 51
0.000000
  7
EASYDRAW_FONT
 72
     5
 11
629.308289
 21
1394.793701
  0
TEXT
  8
CSLAYER1
 62
     3
 10
406.368835
 20
1324.662354
 40
50.000000
 41
1.036364
  1
長サ４ｍ
 50
0.000000
 51
0.000000
  7
EASYDRAW_FONT
 72
     5
 11
596.368835
 21
1324.662354
  0
LINE
  8
CSLAYER1
  6
CONTINUOUS
 62
     5
 10
648.369952
 20
1383.463229
 11
843.695640
 21
1331.125869
  0
LINE
  8
CSLAYER1
  6
CONTINUOUS
 62
     5
 10
843.695640
 20
1331.125869
 11
813.695640
 21
1331.125869
  0
LINE
  8
CSLAYER1
  6
CONTINUOUS
 62
     5
 10
843.695640
 20
1331.125869
 11
817.714878
 21
1346.125869
  0
LINE
  8
CSLAYER1
  6
CONTINUOUS
 62
     5
 10
451.323185
 20
1781.153690
 11
854.898415
 21
1781.153690
  0
LINE
  8
CSLAYER1
  6
CONTINUOUS
 62
     5
 10
371.691798
 20
1383.463229
 11
648.369952
 21
1383.463229
  0
LINE
  8
CSLAYER1
  6
CONTINUOUS
 62
     3
 10
1284.754431
 20
1358.034739
 11
1284.754431
 21
2158.034739
  0
LINE
  8
CSLAYER1
  6
CONTINUOUS
 62
     3
 10
859.356927
 20
1332.422499
 11
854.286299
 21
1330.512782
  0
LINE
  8
CSLAYER1
  6
CONTINUOUS
 62
     3
 10
854.286299
 20
1330.512782
 11
847.861667
 21
1330.334320
  0
LINE
  8
CSLAYER1
  6
CONTINUOUS
 62
     3
 10
860.411256
 20
1331.033398
 11
854.762197
 21
1328.668675
  0
LINE
  8
CSLAYER1
  6
CONTINUOUS
 62
     3
 10
854.762197
 20
1328.668675
 11
849.408337
 21
1327.359954
  0
LINE
  8
CSLAYER1
  6
CONTINUOUS
 62
     3
 10
861.253451
 20
1329.923788
 11
856.368355
 21
1327.062517
  0
LINE
  8
CSLAYER1
  6
CONTINUOUS
 62
     3
 10
856.368355
 20
1327.062517
 11
854.048349
 21
1323.731227
  0
LINE
  8
CSLAYER1
  6
PHANTOM
 62
     5
 10
2168.586100
 20
514.487809
 11
1298.793810
 21
514.487809
  0
LINE
  8
CSLAYER1
  6
PHANTOM
 62
     5
 10
2169.199761
 20
464.487809
 11
1300.539146
 21
464.487809
  0
LINE
  8
CSLAYER1
  6
CONTINUOUS
 62
     5
 10
2184.554431
 20
502.648989
 11
2184.554431
 21
514.487809
  0
LINE
  8
CSLAYER1
  6
CONTINUOUS
 62
     5
 10
2184.554431
 20
482.204841
 11
2184.554431
 21
496.544139
  0
LINE
  8
CSLAYER1
  6
CONTINUOUS
 62
     5
 10
1298.793810
 20
514.487809
 11
1284.554431
 21
514.487809
  0
LINE
  8
CSLAYER1
  6
CONTINUOUS
 62
     5
 10
1300.539146
 20
464.487809
 11
1284.554431
 21
464.487809
  0
LINE
  8
CSLAYER1
  6
CONTINUOUS
 62
     5
 10
1284.554431
 20
502.776098
 11
1284.554431
 21
514.487809
  0
LINE
  8
CSLAYER1
  6
CONTINUOUS
 62
     5
 10
1284.554431
 20
481.160792
 11
1284.554431
 21
495.660501
  0
INSERT
  8
CSLAYER1
  2
EASYDRAWDIM0000
 10
0.0
 20
0.0
 30
0.0
  0
DIMENSION
  8
CSLAYER1
 62
     3
  2
*D0000
 10
2284.554431
 20
514.487809
 11
2274.554443
 21
436.987823
 13
2184.554431
 23
359.487809
 14
2184.554431
 24
514.487809
 50
90.000000
 70
1
  0
DIMENSION
  8
CSLAYER1
 62
     3
  2
*D0001
 10
2284.554431
 20
514.487809
 11
2274.554443
 21
824.487732
 13
2284.554431
 23
1134.487809
 14
2284.554431
 24
514.487809
 50
90.000000
 70
1
  0
DIMENSION
  8
CSLAYER1
 62
     3
  2
*D0002
 10
2384.554431
 20
1134.487809
 11
2374.554443
 21
746.987793
 13
2184.554431
 23
359.487809
 14
2184.554431
 24
1134.487809
 50
90.000000
 70
1
  0
LINE
  8
CSLAYER1
  6
CENTER
 62
     5
 10
2207.167115
 20
1758.034739
 11
1255.672436
 21
1758.034739
  0
DIMENSION
  8
CSLAYER1
 62
     3
  2
*D0003
 10
2184.554431
 20
1234.487809
 11
1734.554443
 21
1244.487793
 13
1284.554431
 23
1134.487809
 14
2184.554431
 24
1134.487809
 70
1
  0
INSERT
  8
CSLAYER1
  2
EASYDRAWDIM0001
 10
0.0
 20
0.0
 30
0.0
  0
DIMENSION
  8
CSLAYER1
 62
     3
  2
*D0004
 10
2184.754431
 20
259.487809
 11
1734.754517
 21
269.487823
 13
1284.754431
 23
359.487809
 14
2184.754431
 24
359.487809
 52
270.000000
 70
1
  0
ARC
  8
CSLAYER1
  6
CONTINUOUS
 62
     3
 10
1074.322303
 20
1439.034739
 40
47.000000
 50
-190.756396
 51
127.198537
  0
ARC
  8
CSLAYER1
  6
CONTINUOUS
 62
     3
 10
1074.322303
 20
1439.034739
 40
40.000000
 50
-203.471057
 51
127.198537
  0
LINE
  8
CSLAYER1
  6
CONTINUOUS
 62
     3
 10
858.173173
 20
1333.982120
 11
1045.907101
 21
1476.472371
  0
LINE
  8
CSLAYER1
  6
CONTINUOUS
 62
     3
 10
862.405225
 20
1328.406302
 11
1050.139152
 21
1470.896553
  0
LINE
  8
CSLAYER1
  6
CONTINUOUS
 62
     3
 10
858.173173
 20
1333.982120
 11
862.405225
 21
1328.406302
  0
TEXT
  8
CSLAYER1
 62
     3
 10
2449.400635
 20
372.760040
 40
50.000000
 41
1.050000
  1
F.L
 50
0.000000
 51
0.000000
  7
EASYDRAW_FONT
 72
     5
 11
2589.400635
 21
372.760040
  0
LINE
  8
CSLAYER1
  6
CONTINUOUS
 62
     5
 10
811.719406
 20
1577.034739
 11
854.691485
 21
1780.175474
  0
LINE
  8
CSLAYER1
  6
CONTINUOUS
 62
     5
 10
811.719406
 20
1577.034739
 11
810.120139
 21
1606.992081
  0
LINE
  8
CSLAYER1
  6
CONTINUOUS
 62
     5
 10
811.719406
 20
1577.034739
 11
825.313071
 21
1603.778191
  0
TEXT
  8
CSLAYER1
 62
     3
 10
1121.624512
 20
737.827820
 40
50.000000
 41
1.023529
  1
油圧ユニット
 50
0.000000
 51
0.000000
  7
EASYDRAW_FONT
 72
     5
 11
1411.624512
 21
737.827820
  0
LINE
  8
CSLAYER1
  6
CONTINUOUS
 62
     5
 10
1110.239277
 20
729.392160
 11
1418.582268
 21
729.392160
  0
LINE
  8
CSLAYER1
  6
CONTINUOUS
 62
     3
 10
1305.274573
 20
453.844171
 11
1495.663574
 21
746.887809
  0
LINE
  8
CSLAYER1
  6
CONTINUOUS
 62
     3
 10
1363.715681
 20
424.487809
 11
1534.420470
 21
687.233828
  0
LINE
  8
CSLAYER1
  6
CONTINUOUS
 62
     3
 10
1303.730120
 20
424.487809
 11
1305.274573
 21
453.844171
  0
LINE
  8
CSLAYER1
  6
CONTINUOUS
 62
     3
 10
1763.566367
 20
1039.931446
 11
1765.910499
 21
1084.487809
  0
LINE
  8
CSLAYER1
  6
CENTER
 62
     5
 10
1750.086508
 20
1107.287809
 11
1318.754431
 21
386.487809
  0
ARC
  8
CSLAYER1
  6
CONTINUOUS
 62
     3
 10
1554.202554
 20
842.264269
 40
20.000000
 50
48.728034
 51
153.218365
  0
LINE
  8
CSLAYER1
  6
CONTINUOUS
 62
     3
 10
1522.798149
 20
824.430675
 11
1536.347948
 21
851.276097
  0
LINE
  8
CSLAYER1
  6
CONTINUOUS
 62
     3
 10
1336.458589
 20
424.487809
 11
1323.569927
 21
436.255378
  0
LINE
  8
CSLAYER1
  6
CONTINUOUS
 62
     3
 10
1358.888776
 20
437.861288
 11
1340.426396
 21
454.717758
  0
LINE
  8
CSLAYER1
  6
CONTINUOUS
 62
     3
 10
1346.678559
 20
424.487809
 11
1358.888776
 21
437.861288
  0
LINE
  8
CSLAYER1
  6
CONTINUOUS
 62
     3
 10
1323.569927
 20
436.255378
 11
1340.426396
 21
454.717758
  0
LINE
  8
CSLAYER1
  6
CONTINUOUS
 62
     5
 10
1354.463010
 20
424.975776
 11
1328.722363
 21
448.477428
  0
LINE
  8
CSLAYER1
  6
CONTINUOUS
 62
     3
 10
1305.274573
 20
1039.931446
 11
1705.125258
 21
424.487809
  0
LINE
  8
CSLAYER1
  6
CONTINUOUS
 62
     3
 10
1353.840317
 20
1084.487809
 11
1763.566367
 21
453.844171
  0
LINE
  8
CSLAYER1
  6
CONTINUOUS
 62
     3
 10
1302.930440
 20
1084.487809
 11
1305.274573
 21
1039.931446
  0
LINE
  8
CSLAYER1
  6
CONTINUOUS
 62
     3
 10
1763.566367
 20
453.844171
 11
1765.110819
 21
424.487809
  0
LINE
  8
CSLAYER1
  6
CENTER
 62
     5
 10
1750.086508
 20
386.487809
 11
1318.754431
 21
1107.287809
  0
LINE
  8
CSLAYER1
  6
CONTINUOUS
 62
     3
 10
1775.323922
 20
452.651421
 11
1772.520279
 21
443.380208
  0
ARC
  8
CSLAYER1
  6
CONTINUOUS
 62
     3
 10
1772.452349
 20
453.519793
 40
3.000000
 50
-16.825477
 51
98.232139
  0
LINE
  8
CSLAYER1
  6
CONTINUOUS
 62
     3
 10
1772.022797
 20
456.488881
 11
1762.722307
 21
455.143334
  0
ARC
  8
CSLAYER1
  6
CONTINUOUS
 62
     3
 10
1777.057478
 20
413.472411
 40
30.250000
 50
21.354997
 51
115.051597
  0
LINE
  8
CSLAYER1
  6
CONTINUOUS
 62
     3
 10
1687.910247
 20
439.222298
 11
1693.937882
 21
441.707235
  0
LINE
  8
CSLAYER1
  6
CONTINUOUS
 62
     3
 10
1684.074396
 20
441.967521
 11
1691.720761
 21
445.119791
  0
LINE
  8
CSLAYER1
  6
CONTINUOUS
 62
     3
 10
1618.723343
 20
676.784185
 11
1651.470081
 21
690.284271
  0
LINE
  8
CSLAYER1
  6
CONTINUOUS
 62
     3
 10
1665.837159
 20
604.267370
 11
1686.640472
 21
612.843690
  0
LINE
  8
CSLAYER1
  6
CONTINUOUS
 62
     3
 10
1651.980154
 20
625.595845
 11
1675.725214
 21
635.384922
  0
LINE
  8
CSLAYER1
  6
CONTINUOUS
 62
     3
 10
1677.683699
 20
634.569854
 11
1686.640472
 21
612.843690
  0
LINE
  8
CSLAYER1
  6
CONTINUOUS
 62
     3
 10
1653.428567
 20
689.469204
 11
1675.725214
 21
635.384922
  0
LINE
  8
CSLAYER1
  6
CONTINUOUS
 62
     3
 10
1652.811575
 20
624.316136
 11
1677.683699
 21
634.569854
  0
LINE
  8
CSLAYER1
  6
CONTINUOUS
 62
     3
 10
1677.683699
 20
634.569854
 11
1675.725214
 21
635.384922
  0
LINE
  8
CSLAYER1
  6
CONTINUOUS
 62
     3
 10
1653.428567
 20
689.469204
 11
1651.470081
 21
690.284271
  0
LINE
  8
CSLAYER1
  6
CONTINUOUS
 62
     3
 10
1619.554763
 20
675.504476
 11
1653.428567
 21
689.469204
  0
LINE
  8
CSLAYER1
  6
CONTINUOUS
 62
     3
 10
1667.242270
 20
482.796684
 11
1684.074396
 21
441.967521
  0
LINE
  8
CSLAYER1
  6
CONTINUOUS
 62
     3
 10
1684.329178
 20
611.890842
 11
1725.036102
 21
513.149324
  0
LINE
  8
CSLAYER1
  6
CONTINUOUS
 62
     3
 10
1686.385690
 20
442.920369
 11
1687.910247
 21
439.222298
  0
LINE
  8
CSLAYER1
  6
CONTINUOUS
 62
     3
 10
1690.221541
 20
440.175146
 11
1702.738967
 21
424.487809
  0
LINE
  8
CSLAYER1
  6
CENTER
 62
     5
 10
1554.202555
 20
842.264267
 11
1724.411979
 21
429.392570
  0
LINE
  8
CSLAYER1
  6
CONTINUOUS
 62
     3
 10
1602.167769
 20
791.509364
 11
1644.998458
 21
687.616296
  0
LINE
  8
CSLAYER1
  6
CONTINUOUS
 62
     3
 10
1531.473386
 20
854.526901
 11
1561.686153
 21
866.982338
  0
LINE
  8
CSLAYER1
  6
CONTINUOUS
 62
     3
 10
1569.686285
 20
860.822356
 11
1561.686153
 21
866.982338
  0
LINE
  8
CSLAYER1
  6
CONTINUOUS
 62
     3
 10
1529.183918
 20
837.358373
 11
1531.473386
 21
854.526901
  0
LINE
  8
CSLAYER1
  6
CONTINUOUS
 62
     3
 10
1628.754431
 20
505.287809
 11
1471.754431
 21
505.287809
  0
LINE
  8
CSLAYER1
  6
CONTINUOUS
 62
     3
 10
1639.754431
 20
464.037809
 11
1639.754431
 21
424.487809
  0
LINE
  8
CSLAYER1
  6
CONTINUOUS
 62
     3
 10
1628.754431
 20
505.287809
 11
1628.754431
 21
424.487809
  0
LINE
  8
CSLAYER1
  6
CONTINUOUS
 62
     3
 10
1639.754431
 20
464.037809
 11
1628.754431
 21
464.037809
  0
LINE
  8
CSLAYER1
  6
CONTINUOUS
 62
     5
 10
1639.754431
 20
499.687809
 11
1624.151810
 21
499.687809
  0
LINE
  8
CSLAYER1
  6
CONTINUOUS
 62
     5
 10
1634.454431
 20
502.187809
 11
1634.454431
 21
497.187809
  0
LINE
  8
CSLAYER1
  6
CONTINUOUS
 62
     5
 10
1629.754431
 20
504.687809
 11
1629.754431
 21
494.687809
  0
LINE
  8
CSLAYER1
  6
CONTINUOUS
 62
     5
 10
1630.754431
 20
504.687809
 11
1630.754431
 21
494.687809
  0
LINE
  8
CSLAYER1
  6
CONTINUOUS
 62
     5
 10
1632.054431
 20
504.687809
 11
1628.754431
 21
504.687809
  0
LINE
  8
CSLAYER1
  6
CONTINUOUS
 62
     5
 10
1632.054431
 20
494.687809
 11
1628.754431
 21
494.687809
  0
LINE
  8
CSLAYER1
  6
CONTINUOUS
 62
     5
 10
1632.054431
 20
504.687809
 11
1632.054431
 21
494.687809
  0
LINE
  8
CSLAYER1
  6
CONTINUOUS
 62
     5
 10
1632.454431
 20
504.187809
 11
1632.054431
 21
504.187809
  0
LINE
  8
CSLAYER1
  6
CONTINUOUS
 62
     5
 10
1632.454431
 20
495.187809
 11
1632.054431
 21
495.187809
  0
ARC
  8
CSLAYER1
  6
CONTINUOUS
 62
     5
 10
1632.454431
 20
502.187809
 40
2.000000
 50
0.000000
 51
90.000000
  0
ARC
  8
CSLAYER1
  6
CONTINUOUS
 62
     5
 10
1632.454431
 20
497.187809
 40
2.000000
 50
270.000000
 51
360.000000
  0
LINE
  8
CSLAYER1
  6
CONTINUOUS
 62
     5
 10
1630.754431
 20
498.561976
 11
1632.054431
 21
500.813642
  0
LINE
  8
CSLAYER1
  6
CONTINUOUS
 62
     5
 10
1618.754431
 20
478.269761
 11
1618.754431
 21
437.838212
  0
LINE
  8
CSLAYER1
  6
CONTINUOUS
 62
     5
 10
1596.754431
 20
499.687809
 11
1596.754431
 21
447.687809
  0
LINE
  8
CSLAYER1
  6
CONTINUOUS
 62
     5
 10
1560.754431
 20
478.269761
 11
1560.754431
 21
476.665521
  0
LINE
  8
CSLAYER1
  6
CONTINUOUS
 62
     5
 10
1605.755261
 20
443.398539
 11
1611.754431
 21
443.398539
  0
LINE
  8
CSLAYER1
  6
CONTINUOUS
 62
     5
 10
1578.754431
 20
479.769761
 11
1614.754431
 21
479.769761
  0
LINE
  8
CSLAYER1
  6
CONTINUOUS
 62
     5
 10
1606.536438
 20
440.050636
 11
1614.754431
 21
440.050636
  0
ARC
  8
CSLAYER1
  6
CONTINUOUS
 62
     5
 10
1596.754431
 20
461.584150
 40
12.500000
 50
-170.165413
 51
140.165413
  0
LINE
  8
CSLAYER1
  6
CONTINUOUS
 62
     5
 10
1614.754431
 20
479.769761
 11
1614.754431
 21
440.050636
  0
LINE
  8
CSLAYER1
  6
CONTINUOUS
 62
     5
 10
1611.754431
 20
479.769761
 11
1611.754431
 21
443.398539
  0
LINE
  8
CSLAYER1
  6
CONTINUOUS
 62
     5
 10
1578.754431
 20
479.769761
 11
1578.754431
 21
471.842435
  0
LINE
  8
CSLAYER1
  6
CONTINUOUS
 62
     5
 10
1564.754431
 20
478.269761
 11
1564.754431
 21
475.593724
  0
ARC
  8
CSLAYER1
  6
CONTINUOUS
 62
     5
 10
1596.754431
 20
461.584150
 40
5.250000
 50
-105.000000
 51
75.000000
  0
LINE
  8
CSLAYER1
  6
CONTINUOUS
 62
     5
 10
1564.754431
 20
478.269761
 11
1578.754431
 21
479.769761
  0
LINE
  8
CSLAYER1
  6
CONTINUOUS
 62
     5
 10
1611.754431
 20
443.398539
 11
1614.754431
 21
440.050636
  0
LINE
  8
CSLAYER1
  6
CONTINUOUS
 62
     5
 10
1562.754431
 20
480.269761
 11
1579.687140
 21
480.269761
  0
ARC
  8
CSLAYER1
  6
CONTINUOUS
 62
     5
 10
1596.754431
 20
466.614126
 40
20.284880
 50
47.545857
 51
84.719619
  0
CIRCLE
  8
CSLAYER1
  6
CONTINUOUS
 62
     5
 10
1596.754431
 20
484.464515
 40
3.000000
  0
ARC
  8
CSLAYER1
  6
CONTINUOUS
 62
     5
 10
1596.754431
 20
443.395602
 40
16.796254
 50
314.594132
 51
324.821469
  0
LINE
  8
CSLAYER1
  6
CONTINUOUS
 62
     5
 10
1590.039129
 20
484.464515
 11
1602.800207
 21
484.464515
  0
ARC
  8
CSLAYER1
  6
CONTINUOUS
 62
     5
 10
1596.754431
 20
466.614126
 40
20.284880
 50
95.280381
 51
132.454143
  0
LINE
  8
CSLAYER1
  6
CONTINUOUS
 62
     5
 10
1613.821723
 20
480.269761
 11
1616.754431
 21
480.269761
  0
ARC
  8
CSLAYER1
  6
CONTINUOUS
 62
     5
 10
1579.687140
 20
485.269761
 40
5.000000
 50
270.000000
 51
312.454143
  0
ARC
  8
CSLAYER1
  6
CONTINUOUS
 62
     5
 10
1613.821723
 20
485.269761
 40
5.000000
 50
227.545857
 51
270.000000
  0
LINE
  8
CSLAYER1
  6
CONTINUOUS
 62
     5
 10
1614.569836
 20
435.838212
 11
1616.754431
 21
435.838212
  0
ARC
  8
CSLAYER1
  6
CONTINUOUS
 62
     5
 10
1614.569836
 20
430.838212
 40
5.000000
 50
90.000000
 51
144.821469
  0
LINE
  8
CSLAYER1
  6
CONTINUOUS
 62
     5
 10
1564.754431
 20
464.723324
 11
1564.754431
 21
447.687809
  0
LINE
  8
CSLAYER1
  6
CONTINUOUS
 62
     5
 10
1560.754431
 20
465.795121
 11
1560.754431
 21
447.687809
  0
LINE
  8
CSLAYER1
  6
CONTINUOUS
 62
     5
 10
1578.754431
 20
460.972036
 11
1578.754431
 21
447.687809
  0
LINE
  8
CSLAYER1
  6
CONTINUOUS
 62
     5
 10
1584.696836
 20
461.584150
 11
1611.754431
 21
461.584150
  0
LINE
  8
CSLAYER1
  6
CONTINUOUS
 62
     3
 10
1333.759567
 20
497.687809
 11
1309.754431
 21
497.687809
  0
LINE
  8
CSLAYER1
  6
CONTINUOUS
 62
     2
 10
1337.008042
 20
502.687809
 11
1316.754431
 21
502.687809
  0
LINE
  8
CSLAYER1
  6
CONTINUOUS
 62
     2
 10
1316.754431
 20
502.687809
 11
1316.754431
 21
497.687809
  0
LINE
  8
CSLAYER1
  6
CONTINUOUS
 62
     2
 10
1333.754431
 20
502.687809
 11
1333.754431
 21
497.687809
  0
LINE
  8
CSLAYER1
  6
CONTINUOUS
 62
     2
 10
1321.754431
 20
502.687809
 11
1321.754431
 21
497.687809
  0
CIRCLE
  8
CSLAYER1
  6
CONTINUOUS
 62
     2
 10
1327.754431
 20
498.687809
 40
0.500000
  0
LINE
  8
CSLAYER1
  6
CONTINUOUS
 62
     5
 10
1620.754431
 20
505.287809
 11
1620.754431
 21
424.487809
  0
LINE
  8
CSLAYER1
  6
CONTINUOUS
 62
     3
 10
1304.424578
 20
437.687809
 11
1296.754431
 21
437.687809
  0
ARC
  8
CSLAYER1
  6
CONTINUOUS
 62
     5
 10
1562.754431
 20
478.269761
 40
2.000000
 50
90.000000
 51
180.000000
  0
ARC
  8
CSLAYER1
  6
CONTINUOUS
 62
     5
 10
1616.754431
 20
437.838212
 40
2.000000
 50
270.000000
 51
360.000000
  0
ARC
  8
CSLAYER1
  6
CONTINUOUS
 62
     5
 10
1616.754431
 20
478.269761
 40
2.000000
 50
0.000000
 51
90.000000
  0
LINE
  8
CSLAYER1
  6
CONTINUOUS
 62
     5
 10
1634.454431
 20
442.187809
 11
1634.454431
 21
437.187809
  0
LINE
  8
CSLAYER1
  6
CONTINUOUS
 62
     5
 10
1629.754431
 20
444.687809
 11
1629.754431
 21
434.687809
  0
LINE
  8
CSLAYER1
  6
CONTINUOUS
 62
     5
 10
1630.754431
 20
444.687809
 11
1630.754431
 21
434.687809
  0
LINE
  8
CSLAYER1
  6
CONTINUOUS
 62
     5
 10
1632.054431
 20
444.687809
 11
1628.754431
 21
444.687809
  0
LINE
  8
CSLAYER1
  6
CONTINUOUS
 62
     5
 10
1632.054431
 20
434.687809
 11
1628.754431
 21
434.687809
  0
LINE
  8
CSLAYER1
  6
CONTINUOUS
 62
     5
 10
1632.054431
 20
444.687809
 11
1632.054431
 21
434.687809
  0
LINE
  8
CSLAYER1
  6
CONTINUOUS
 62
     5
 10
1632.454431
 20
444.187809
 11
1632.054431
 21
444.187809
  0
LINE
  8
CSLAYER1
  6
CONTINUOUS
 62
     5
 10
1632.454431
 20
435.187809
 11
1632.054431
 21
435.187809
  0
ARC
  8
CSLAYER1
  6
CONTINUOUS
 62
     5
 10
1632.454431
 20
442.187809
 40
2.000000
 50
0.000000
 51
90.000000
  0
ARC
  8
CSLAYER1
  6
CONTINUOUS
 62
     5
 10
1632.454431
 20
437.187809
 40
2.000000
 50
270.000000
 51
360.000000
  0
LINE
  8
CSLAYER1
  6
CONTINUOUS
 62
     5
 10
1630.754431
 20
438.561976
 11
1632.054431
 21
440.813642
  0
LINE
  8
CSLAYER1
  6
CONTINUOUS
 62
     5
 10
1327.754431
 20
505.287809
 11
1327.754431
 21
494.900337
  0
LINE
  8
CSLAYER1
  6
CENTER
 62
     5
 10
1647.227384
 20
439.687809
 11
1284.754431
 21
439.687809
  0
LINE
  8
CSLAYER1
  6
CONTINUOUS
 62
     3
 10
1296.754431
 20
437.687809
 11
1297.279508
 21
424.487809
  0
LINE
  8
CSLAYER1
  6
CONTINUOUS
 62
     3
 10
1292.754431
 20
437.687809
 11
1293.289884
 21
424.487809
  0
ARC
  8
CSLAYER1
  6
CONTINUOUS
 62
     3
 10
1309.754431
 20
482.687809
 40
15.000000
 50
90.000000
 51
180.000000
  0
LINE
  8
CSLAYER1
  6
CONTINUOUS
 62
     3
 10
1292.754431
 20
437.687809
 11
1294.769010
 21
483.348968
  0
LINE
  8
CSLAYER1
  6
CONTINUOUS
 62
     5
 10
1531.281164
 20
484.562859
 11
1598.113231
 21
466.655261
  0
LINE
  8
CSLAYER1
  6
CONTINUOUS
 62
     5
 10
1523.492516
 20
481.214621
 11
1596.754431
 21
461.584150
  0
LINE
  8
CSLAYER1
  6
CONTINUOUS
 62
     5
 10
1525.589832
 20
475.217447
 11
1595.395632
 21
456.513039
  0
LINE
  8
CSLAYER1
  6
CONTINUOUS
 62
     3
 10
1284.554431
 20
1134.487809
 11
2184.554431
 21
1134.487809
  0
LINE
  8
CSLAYER1
  6
CONTINUOUS
 62
     3
 10
1284.554431
 20
1084.487809
 11
2184.554431
 21
1084.487809
  0
LINE
  8
CSLAYER1
  6
CONTINUOUS
 62
     3
 10
1284.554431
 20
1134.487809
 11
1284.554431
 21
1084.487809
  0
LINE
  8
CSLAYER1
  6
CONTINUOUS
 62
     3
 10
2184.554431
 20
1134.487809
 11
2184.554431
 21
1084.487809
  0
LINE
  8
CSLAYER1
  6
CONTINUOUS
 62
     5
 10
1299.341195
 20
1107.287809
 11
1339.220035
 21
1107.287809
  0
LINE
  8
CSLAYER1
  6
CONTINUOUS
 62
     5
 10
1318.754431
 20
1125.201160
 11
1318.754431
 21
1089.869907
  0
LINE
  8
CSLAYER1
  6
CONTINUOUS
 62
     5
 10
1732.991159
 20
1107.287809
 11
1770.283307
 21
1107.287809
  0
LINE
  8
CSLAYER1
  6
CONTINUOUS
 62
     5
 10
1750.086508
 20
1124.879140
 11
1750.086508
 21
1091.945815
  0
LINE
  8
CSLAYER1
  6
CONTINUOUS
 62
     3
 10
1534.420470
 20
806.541789
 11
1715.000623
 21
1084.487809
  0
LINE
  8
CSLAYER1
  6
CONTINUOUS
 62
     3
 10
1573.177366
 20
746.887809
 11
1763.566367
 21
1039.931446
  0
LINE
  8
CSLAYER1
  6
CONTINUOUS
 62
     5
 10
1521.355815
 20
842.264272
 11
1581.484035
 21
842.264272
  0
CIRCLE
  8
CSLAYER1
  6
CONTINUOUS
 62
     3
 10
1534.420470
 20
746.887809
 40
15.000000
  0
LINE
  8
CSLAYER1
  6
CONTINUOUS
 62
     5
 10
1495.663574
 20
746.887809
 11
1576.932953
 21
746.887809
  0
LINE
  8
CSLAYER1
  6
CONTINUOUS
 62
     5
 10
1534.420470
 20
789.149941
 11
1534.420470
 21
706.729913
  0
LINE
  8
CSLAYER1
  6
CONTINUOUS
 62
     5
 10
1507.814327
 20
742.414781
 11
1535.623689
 21
742.414781
  0
LINE
  8
CSLAYER1
  6
CONTINUOUS
 62
     5
 10
1522.420802
 20
766.940480
 11
1522.420802
 21
726.835137
  0
ARC
  8
CSLAYER1
  6
CONTINUOUS
 62
     3
 10
1554.202554
 20
842.264269
 40
12.500000
 50
43.698696
 51
250.278138
  0
LINE
  8
CSLAYER1
  6
CONTINUOUS
 62
     5
 10
1777.057478
 20
448.371516
 11
1777.057478
 21
392.986978
  0
LINE
  8
CSLAYER1
  6
CONTINUOUS
 62
     5
 10
1708.695585
 20
429.392570
 11
1741.253220
 21
429.392570
  0
LINE
  8
CSLAYER1
  6
CONTINUOUS
 62
     5
 10
1724.411979
 20
449.624580
 11
1724.411979
 21
411.113548
  0
LINE
  8
CSLAYER1
  6
CONTINUOUS
 62
     5
 10
1750.086508
 20
405.735379
 11
1750.086508
 21
368.083125
  0
LINE
  8
CSLAYER1
  6
CONTINUOUS
 62
     5
 10
1772.588054
 20
386.487809
 11
1725.745092
 21
386.487809
  0
LINE
  8
CSLAYER1
  6
CONTINUOUS
 62
     5
 10
1753.317215
 20
413.472411
 11
1803.414047
 21
413.472411
  0
LINE
  8
CSLAYER1
  6
CONTINUOUS
 62
     3
 10
1026.754431
 20
454.717758
 11
1055.754431
 21
454.717758
  0
LINE
  8
CSLAYER1
  6
CONTINUOUS
 62
     3
 10
1026.754431
 20
436.255378
 11
1055.754431
 21
436.255378
  0
LINE
  8
CSLAYER1
  6
CONTINUOUS
 62
     3
 10
1055.754431
 20
454.717758
 11
1055.754431
 21
424.487809
  0
INSERT
  8
CSLAYER1
  2
BLKF0002
 10
0.0
 20
0.0
 30
0.0
  0
LINE
  8
CSLAYER1
  6
CONTINUOUS
 62
     5
 10
1043.754431
 20
451.648976
 11
1043.754431
 21
439.164072
  0
LINE
  8
CSLAYER1
  6
CONTINUOUS
 62
     5
 10
1035.735993
 20
445.486568
 11
1052.179525
 21
445.486568
  0
LINE
  8
CSLAYER1
  6
CONTINUOUS
 62
     3
 10
342.754431
 20
454.717758
 11
313.754431
 21
454.717758
  0
LINE
  8
CSLAYER1
  6
CONTINUOUS
 62
     3
 10
342.754431
 20
436.255378
 11
313.754431
 21
436.255378
  0
LINE
  8
CSLAYER1
  6
CONTINUOUS
 62
     3
 10
313.754431
 20
454.717758
 11
313.754431
 21
424.487809
  0
INSERT
  8
CSLAYER1
  2
BLKF0003
 10
0.0
 20
0.0
 30
0.0
  0
LINE
  8
CSLAYER1
  6
CONTINUOUS
 62
     5
 10
325.754431
 20
451.648976
 11
325.754431
 21
439.164072
  0
LINE
  8
CSLAYER1
  6
CONTINUOUS
 62
     5
 10
333.772870
 20
445.486568
 11
317.329338
 21
445.486568
  0
ARC
  8
CSLAYER1
  6
CONTINUOUS
 62
     3
 10
848.254431
 20
496.687809
 40
7.500000
 50
60.034358
 51
88.397139
  0
ARC
  8
CSLAYER1
  6
CONTINUOUS
 62
     3
 10
741.254431
 20
496.687809
 40
7.500000
 50
91.602861
 51
119.965642
  0
LINE
  8
CSLAYER1
  6
CONTINUOUS
 62
     3
 10
741.254431
 20
505.687809
 11
850.254431
 21
505.687809
  0
LINE
  8
CSLAYER1
  6
CONTINUOUS
 62
     3
 10
703.254431
 20
501.687809
 11
794.754431
 21
505.687809
  0
LINE
  8
CSLAYER1
  6
CONTINUOUS
 62
     3
 10
794.754431
 20
505.687809
 11
886.254431
 21
501.687809
  0
LINE
  8
CSLAYER1
  6
CONTINUOUS
 62
     3
 10
697.254431
 20
437.687809
 11
717.825442
 21
437.687809
  0
LINE
  8
CSLAYER1
  6
CONTINUOUS
 62
     3
 10
886.254431
 20
501.687809
 11
892.254431
 21
437.687809
  0
LINE
  8
CSLAYER1
  6
CONTINUOUS
 62
     3
 10
703.254431
 20
501.687809
 11
697.254431
 21
437.687809
  0
LINE
  8
CSLAYER1
  6
CONTINUOUS
 62
     3
 10
865.519663
 20
437.687809
 11
892.254431
 21
437.687809
  0
LINE
  8
CSLAYER1
  6
CONTINUOUS
 62
     2
 10
699.445056
 20
482.387809
 11
701.445056
 21
482.387809
  0
LINE
  8
CSLAYER1
  6
CONTINUOUS
 62
     2
 10
699.445056
 20
500.987809
 11
701.445056
 21
500.987809
  0
LINE
  8
CSLAYER1
  6
CONTINUOUS
 62
     2
 10
701.445056
 20
500.987809
 11
701.445056
 21
482.387809
  0
LINE
  8
CSLAYER1
  6
CONTINUOUS
 62
     2
 10
699.445056
 20
500.987809
 11
699.445056
 21
482.387809
  0
LINE
  8
CSLAYER1
  6
CONTINUOUS
 62
     2
 10
695.945056
 20
497.287809
 11
695.945056
 21
486.087809
  0
LINE
  8
CSLAYER1
  6
CONTINUOUS
 62
     2
 10
695.945056
 20
486.087809
 11
699.445056
 21
486.087809
  0
LINE
  8
CSLAYER1
  6
CONTINUOUS
 62
     2
 10
695.945056
 20
497.287809
 11
699.445056
 21
497.287809
  0
LINE
  8
CSLAYER1
  6
CONTINUOUS
 62
     2
 10
695.945056
 20
494.687809
 11
699.445056
 21
494.687809
  0
LINE
  8
CSLAYER1
  6
CONTINUOUS
 62
     2
 10
695.945056
 20
488.687809
 11
699.445056
 21
488.687809
  0
LINE
  8
CSLAYER1
  6
CONTINUOUS
 62
     2
 10
701.445056
 20
496.437809
 11
702.762244
 21
496.437809
  0
LINE
  8
CSLAYER1
  6
CONTINUOUS
 62
     2
 10
701.445056
 20
495.437809
 11
702.668494
 21
495.437809
  0
LINE
  8
CSLAYER1
  6
CONTINUOUS
 62
     5
 10
692.355101
 20
491.687809
 11
704.503800
 21
491.687809
  0
LINE
  8
CSLAYER1
  6
CONTINUOUS
 62
     3
 10
697.254431
 20
437.687809
 11
698.491931
 21
424.487809
  0
LINE
  8
CSLAYER1
  6
CONTINUOUS
 62
     3
 10
892.254431
 20
437.687809
 11
891.016931
 21
424.487809
  0
LINE
  8
CSLAYER1
  6
CONTINUOUS
 62
     3
 10
850.254431
 20
505.687809
 11
850.254431
 21
503.916225
  0
LINE
  8
CSLAYER1
  6
CONTINUOUS
 62
     3
 10
741.254431
 20
505.687809
 11
741.254431
 21
504.190744
  0
LINE
  8
CSLAYER1
  6
CONTINUOUS
 62
     5
 10
744.254431
 20
505.287809
 11
744.254431
 21
486.040836
  0
LINE
  8
CSLAYER1
  6
CONTINUOUS
 62
     2
 10
755.254431
 20
502.687809
 11
733.254431
 21
502.687809
  0
LINE
  8
CSLAYER1
  6
CONTINUOUS
 62
     2
 10
737.741711
 20
495.187809
 11
728.754431
 21
495.187809
  0
LINE
  8
CSLAYER1
  6
CONTINUOUS
 62
     2
 10
733.254431
 20
502.687809
 11
733.254431
 21
497.687809
  0
LINE
  8
CSLAYER1
  6
CONTINUOUS
 62
     2
 10
755.254431
 20
502.687809
 11
755.254431
 21
497.687809
  0
LINE
  8
CSLAYER1
  6
CONTINUOUS
 62
     2
 10
750.254431
 20
502.687809
 11
750.254431
 21
497.687809
  0
LINE
  8
CSLAYER1
  6
CONTINUOUS
 62
     2
 10
738.254431
 20
502.687809
 11
738.254431
 21
497.687809
  0
LINE
  8
CSLAYER1
  6
CONTINUOUS
 62
     2
 10
728.754431
 20
497.687809
 11
728.754431
 21
495.187809
  0
LINE
  8
CSLAYER1
  6
CONTINUOUS
 62
     2
 10
759.754431
 20
497.687809
 11
759.754431
 21
496.150113
  0
LINE
  8
CSLAYER1
  6
CONTINUOUS
 62
     2
 10
759.754431
 20
497.687809
 11
728.754431
 21
497.687809
  0
LINE
  8
CSLAYER1
  6
CONTINUOUS
 62
     3
 10
715.559901
 20
494.218112
 11
794.754431
 21
497.680168
  0
LINE
  8
CSLAYER1
  6
CONTINUOUS
 62
     3
 10
794.754431
 20
497.680168
 11
873.948962
 21
494.218112
  0
ARC
  8
CSLAYER1
  6
CONTINUOUS
 62
     3
 10
716.215013
 20
479.232424
 40
15.000000
 50
92.503140
 51
174.644175
  0
ARC
  8
CSLAYER1
  6
CONTINUOUS
 62
     3
 10
873.293850
 20
479.232424
 40
15.000000
 50
5.355825
 51
87.496860
  0
LINE
  8
CSLAYER1
  6
CONTINUOUS
 62
     3
 10
794.754431
 20
505.687809
 11
848.464218
 21
504.184874
  0
LINE
  8
CSLAYER1
  6
CONTINUOUS
 62
     3
 10
794.754431
 20
505.687809
 11
741.044645
 21
504.184874
  0
LINE
  8
CSLAYER1
  6
CONTINUOUS
 62
     1
 10
892.254431
 20
447.887809
 11
892.254431
 21
474.487809
  0
LINE
  8
CSLAYER1
  6
CONTINUOUS
 62
     1
 10
896.254431
 20
455.414306
 11
896.254431
 21
466.961311
  0
LINE
  8
CSLAYER1
  6
CONTINUOUS
 62
     1
 10
898.254431
 20
458.187809
 11
898.254431
 21
464.187809
  0
LINE
  8
CSLAYER1
  6
CONTINUOUS
 62
     1
 10
892.254431
 20
474.487809
 11
888.804431
 21
474.487809
  0
LINE
  8
CSLAYER1
  6
CONTINUOUS
 62
     1
 10
892.254431
 20
455.452828
 11
890.588961
 21
455.452828
  0
LINE
  8
CSLAYER1
  6
CONTINUOUS
 62
     1
 10
892.254431
 20
453.662994
 11
890.756758
 21
453.662994
  0
LINE
  8
CSLAYER1
  6
CONTINUOUS
 62
     1
 10
892.254431
 20
447.887809
 11
891.298181
 21
447.887809
  0
LINE
  8
CSLAYER1
  6
CONTINUOUS
 62
     1
 10
896.254431
 20
466.961311
 11
892.254431
 21
466.961311
  0
LINE
  8
CSLAYER1
  6
CONTINUOUS
 62
     1
 10
896.254431
 20
464.074560
 11
892.254431
 21
464.074560
  0
LINE
  8
CSLAYER1
  6
CONTINUOUS
 62
     1
 10
896.254431
 20
458.301057
 11
892.254431
 21
458.301057
  0
LINE
  8
CSLAYER1
  6
CONTINUOUS
 62
     1
 10
896.254431
 20
455.414306
 11
892.254431
 21
455.414306
  0
LINE
  8
CSLAYER1
  6
CONTINUOUS
 62
     1
 10
896.254431
 20
464.187809
 11
898.254431
 21
464.187809
  0
LINE
  8
CSLAYER1
  6
CONTINUOUS
 62
     1
 10
896.254431
 20
458.187809
 11
898.254431
 21
458.187809
  0
LINE
  8
CSLAYER1
  6
CONTINUOUS
 62
     1
 10
920.354431
 20
424.487809
 11
920.354431
 21
426.187809
  0
LINE
  8
CSLAYER1
  6
CONTINUOUS
 62
     1
 10
919.954431
 20
424.487809
 11
919.954431
 21
430.187809
  0
LINE
  8
CSLAYER1
  6
CONTINUOUS
 62
     1
 10
919.954431
 20
426.187809
 11
920.354431
 21
426.187809
  0
LINE
  8
CSLAYER1
  6
CONTINUOUS
 62
     1
 10
891.634796
 20
431.078363
 11
919.954431
 21
430.187809
  0
LINE
  8
CSLAYER1
  6
CONTINUOUS
 62
     5
 10
901.260398
 20
461.187809
 11
883.029740
 21
461.187809
  0
LINE
  8
CSLAYER1
  6
CONTINUOUS
 62
     1
 10
892.254431
 20
466.922789
 11
889.513652
 21
466.922789
  0
LINE
  8
CSLAYER1
  6
CONTINUOUS
 62
     1
 10
892.254431
 20
468.712623
 11
889.345855
 21
468.712623
  0
LINE
  8
CSLAYER1
  6
CENTER
 62
     5
 10
794.754431
 20
523.092520
 11
794.754431
 21
359.487809
  0
LINE
  8
CSLAYER1
  6
CENTER
 62
     5
 10
911.129694
 20
439.687809
 11
684.754431
 21
439.687809
  0
LINE
  8
CSLAYER1
  6
CONTINUOUS
 62
     5
 10
1318.754431
 20
400.865014
 11
1318.754431
 21
371.173483
  0
LINE
  8
CSLAYER1
  6
CONTINUOUS
 62
     5
 10
1338.834554
 20
386.487809
 11
1300.440333
 21
386.487809
  0
LINE
  8
CSLAYER1
  6
CONTINUOUS
 62
     3
 10
2184.754431
 20
2158.034739
 11
1284.754431
 21
2158.034739
  0
LINE
  8
CSLAYER1
  6
CONTINUOUS
 62
     3
 10
2184.754431
 20
1358.034739
 11
1284.754431
 21
1358.034739
  0
LINE
  8
CSLAYER1
  6
CONTINUOUS
 62
     5
 10
2194.754431
 20
2158.034739
 11
2294.754431
 21
2158.034739
  0
LINE
  8
CSLAYER1
  6
CONTINUOUS
 62
     5
 10
2194.754431
 20
1358.034739
 11
2294.754431
 21
1358.034739
  0
LINE
  8
CSLAYER1
  6
CONTINUOUS
 62
     3
 10
284.754431
 20
1134.487809
 11
284.754431
 21
1084.487809
  0
LINE
  8
CSLAYER1
  6
CONTINUOUS
 62
     3
 10
1084.754431
 20
1134.487809
 11
1084.754431
 21
1084.487809
  0
LINE
  8
CSLAYER1
  6
CONTINUOUS
 62
     3
 10
2184.754431
 20
424.487809
 11
1284.754431
 21
424.487809
  0
LINE
  8
CSLAYER1
  6
CONTINUOUS
 62
     3
 10
284.754431
 20
424.487809
 11
284.754431
 21
359.487809
  0
LINE
  8
CSLAYER1
  6
CONTINUOUS
 62
     3
 10
1084.754431
 20
424.487809
 11
284.754431
 21
424.487809
  0
ARC
  8
CSLAYER1
  6
CONTINUOUS
 62
     3
 10
684.754431
 20
490.796368
 40
48.828847
 50
228.272384
 51
285.523468
  0
ARC
  8
CSLAYER1
  6
CONTINUOUS
 62
     3
 10
684.754431
 20
488.051146
 40
48.828847
 50
228.272384
 51
285.202005
  0
LINE
  8
CSLAYER1
  6
CONTINUOUS
 62
     3
 10
670.754431
 20
441.272343
 11
670.754431
 21
424.487809
  0
LINE
  8
CSLAYER1
  6
CONTINUOUS
 62
     3
 10
658.754431
 20
446.720088
 11
658.754431
 21
424.487809
  0
LINE
  8
CSLAYER1
  6
CONTINUOUS
 62
     5
 10
646.803300
 20
429.392570
 11
698.032110
 21
429.392570
  0
LINE
  8
CSLAYER1
  6
CONTINUOUS
 62
     3
 10
354.754431
 20
443.722411
 11
658.754431
 21
443.722411
  0
LINE
  8
CSLAYER1
  6
CONTINUOUS
 62
     3
 10
942.849241
 20
443.722411
 11
1014.754431
 21
443.722411
  0
LINE
  8
CSLAYER1
  6
CONTINUOUS
 62
     5
 10
1084.754431
 20
349.487809
 11
1084.754431
 21
249.487809
  0
LINE
  8
CSLAYER1
  6
CONTINUOUS
 62
     5
 10
284.754431
 20
349.487809
 11
284.754431
 21
249.487809
  0
LINE
  8
CSLAYER1
  6
CONTINUOUS
 62
     5
 10
1535.879439
 20
505.287809
 11
1418.582268
 21
729.392160
  0
LINE
  8
CSLAYER1
  6
CONTINUOUS
 62
     5
 10
1535.879439
 20
505.287809
 11
1515.562466
 21
527.360883
  0
LINE
  8
CSLAYER1
  6
CONTINUOUS
 62
     5
 10
1535.879439
 20
505.287809
 11
1529.320962
 21
534.562138
  0
LINE
  8
CSLAYER1
  6
CONTINUOUS
 62
     3
 10
1084.754431
 20
424.487809
 11
1084.754431
 21
359.487809
  0
CIRCLE
  8
CSLAYER1
  6
CONTINUOUS
 62
     3
 10
1534.420470
 20
746.887809
 40
8.000000
  0
LINE
  8
CSLAYER1
  6
CONTINUOUS
 62
     3
 10
1431.754431
 20
505.687809
 11
1431.754431
 21
424.487809
  0
LINE
  8
CSLAYER1
  6
CONTINUOUS
 62
     3
 10
1471.754431
 20
505.687809
 11
1471.754431
 21
424.487809
  0
LINE
  8
CSLAYER1
  6
CONTINUOUS
 62
     3
 10
1471.754431
 20
505.687809
 11
1416.470919
 21
505.687809
  0
LINE
  8
CSLAYER1
  6
CONTINUOUS
 62
     3
 10
1396.754431
 20
475.340513
 11
1396.754431
 21
449.687809
  0
LINE
  8
CSLAYER1
  6
CONTINUOUS
 62
     3
 10
1422.754431
 20
505.687809
 11
1422.754431
 21
456.411498
  0
LINE
  8
CSLAYER1
  6
CONTINUOUS
 62
     3
 10
1422.754431
 20
469.687809
 11
1396.754431
 21
469.687809
  0
LINE
  8
CSLAYER1
  6
CONTINUOUS
 62
     5
 10
1419.654431
 20
493.687809
 11
1415.654431
 21
493.687809
  0
LINE
  8
CSLAYER1
  6
CONTINUOUS
 62
     5
 10
1421.154431
 20
490.937809
 11
1415.654431
 21
490.937809
  0
LINE
  8
CSLAYER1
  6
CONTINUOUS
 62
     5
 10
1419.654431
 20
499.687809
 11
1415.654431
 21
499.687809
  0
LINE
  8
CSLAYER1
  6
CONTINUOUS
 62
     5
 10
1421.154431
 20
502.437809
 11
1415.654431
 21
502.437809
  0
LINE
  8
CSLAYER1
  6
CONTINUOUS
 62
     5
 10
1421.154431
 20
502.937809
 11
1421.154431
 21
490.437809
  0
LINE
  8
CSLAYER1
  6
CONTINUOUS
 62
     5
 10
1419.654431
 20
502.437809
 11
1419.654431
 21
490.937809
  0
LINE
  8
CSLAYER1
  6
CONTINUOUS
 62
     5
 10
1415.654431
 20
502.437809
 11
1415.654431
 21
490.937809
  0
LINE
  8
CSLAYER1
  6
CONTINUOUS
 62
     5
 10
1422.754431
 20
502.937809
 11
1421.154431
 21
502.937809
  0
LINE
  8
CSLAYER1
  6
CONTINUOUS
 62
     5
 10
1422.754431
 20
490.437809
 11
1421.154431
 21
490.437809
  0
LINE
  8
CSLAYER1
  6
CONTINUOUS
 62
     5
 10
1436.150298
 20
496.687809
 11
1412.546941
 21
496.687809
  0
LINE
  8
CSLAYER1
  6
CONTINUOUS
 62
     5
 10
1471.754431
 20
461.187809
 11
1431.754431
 21
461.187809
  0
CIRCLE
  8
CSLAYER1
  6
CONTINUOUS
 62
     1
 10
1453.254431
 20
492.187809
 40
3.500000
  0
ARC
  8
CSLAYER1
  6
CONTINUOUS
 62
     1
 10
1453.254431
 20
492.187809
 40
10.000000
 50
-69.512685
 51
249.512685
  0
CIRCLE
  8
CSLAYER1
  6
CONTINUOUS
 62
     1
 10
1453.254431
 20
461.187809
 40
17.000000
  0
CIRCLE
  8
CSLAYER1
  6
CONTINUOUS
 62
     1
 10
1453.254431
 20
461.187809
 40
12.000000
  0
ARC
  8
CSLAYER1
  6
CONTINUOUS
 62
     1
 10
1453.254431
 20
461.187809
 40
13.300000
 50
-4.456163
 51
4.456163
  0
LINE
  8
CSLAYER1
  6
CONTINUOUS
 62
     1
 10
1449.754431
 20
482.820312
 11
1449.754431
 21
477.823613
  0
LINE
  8
CSLAYER1
  6
CONTINUOUS
 62
     1
 10
1456.754431
 20
482.820312
 11
1456.754431
 21
477.823613
  0
LINE
  8
CSLAYER1
  6
CONTINUOUS
 62
     5
 10
1466.889999
 20
492.187809
 11
1440.950598
 21
492.187809
  0
LINE
  8
CSLAYER1
  6
CONTINUOUS
 62
     1
 10
1471.754431
 20
489.187809
 11
1462.793824
 21
489.187809
  0
LINE
  8
CSLAYER1
  6
CONTINUOUS
 62
     1
 10
1443.715039
 20
489.187809
 11
1431.754431
 21
489.187809
  0
CIRCLE
  8
CSLAYER1
  6
CONTINUOUS
 62
     1
 10
1453.254431
 20
461.187809
 40
5.000000
  0
LINE
  8
CSLAYER1
  6
CONTINUOUS
 62
     1
 10
1458.989412
 20
473.187809
 11
1447.519451
 21
473.187809
  0
LINE
  8
CSLAYER1
  6
CONTINUOUS
 62
     1
 10
1458.989412
 20
449.187809
 11
1447.519451
 21
449.187809
  0
LINE
  8
CSLAYER1
  6
CONTINUOUS
 62
     1
 10
1466.514227
 20
462.221170
 11
1460.779246
 21
472.154447
  0
LINE
  8
CSLAYER1
  6
CONTINUOUS
 62
     1
 10
1445.729617
 20
450.221170
 11
1439.994636
 21
460.154447
  0
LINE
  8
CSLAYER1
  6
CONTINUOUS
 62
     1
 10
1439.994636
 20
462.221170
 11
1445.729617
 21
472.154447
  0
LINE
  8
CSLAYER1
  6
CONTINUOUS
 62
     1
 10
1460.779246
 20
450.221170
 11
1466.514227
 21
460.154447
  0
LINE
  8
CSLAYER1
  6
CONTINUOUS
 62
     1
 10
1447.480929
 20
461.187809
 11
1450.367680
 21
466.187809
  0
LINE
  8
CSLAYER1
  6
CONTINUOUS
 62
     1
 10
1456.141183
 20
456.187809
 11
1459.027934
 21
461.187809
  0
LINE
  8
CSLAYER1
  6
CONTINUOUS
 62
     1
 10
1450.367680
 20
456.187809
 11
1447.480929
 21
461.187809
  0
LINE
  8
CSLAYER1
  6
CONTINUOUS
 62
     1
 10
1459.027934
 20
461.187809
 11
1456.141183
 21
466.187809
  0
LINE
  8
CSLAYER1
  6
CONTINUOUS
 62
     1
 10
1456.141183
 20
466.187809
 11
1450.367680
 21
466.187809
  0
LINE
  8
CSLAYER1
  6
CONTINUOUS
 62
     1
 10
1456.141183
 20
456.187809
 11
1450.367680
 21
456.187809
  0
CIRCLE
  8
CSLAYER1
  6
CONTINUOUS
 62
     1
 10
1453.254431
 20
461.187809
 40
3.000000
  0
LINE
  8
CSLAYER1
  6
CONTINUOUS
 62
     1
 10
1454.120457
 20
462.687809
 11
1452.388406
 21
462.687809
  0
LINE
  8
CSLAYER1
  6
CONTINUOUS
 62
     1
 10
1454.120457
 20
459.687809
 11
1452.388406
 21
459.687809
  0
LINE
  8
CSLAYER1
  6
CONTINUOUS
 62
     1
 10
1451.522381
 20
461.187809
 11
1452.388406
 21
462.687809
  0
LINE
  8
CSLAYER1
  6
CONTINUOUS
 62
     1
 10
1454.120457
 20
459.687809
 11
1454.986482
 21
461.187809
  0
LINE
  8
CSLAYER1
  6
CONTINUOUS
 62
     1
 10
1451.522381
 20
461.187809
 11
1452.388406
 21
459.687809
  0
LINE
  8
CSLAYER1
  6
CONTINUOUS
 62
     1
 10
1454.120457
 20
462.687809
 11
1454.986482
 21
461.187809
  0
ARC
  8
CSLAYER1
  6
CONTINUOUS
 62
     1
 10
1453.254431
 20
461.187809
 40
13.300000
 50
115.543837
 51
124.456163
  0
ARC
  8
CSLAYER1
  6
CONTINUOUS
 62
     1
 10
1453.254431
 20
461.187809
 40
13.300000
 50
55.543837
 51
64.456163
  0
ARC
  8
CSLAYER1
  6
CONTINUOUS
 62
     1
 10
1453.254431
 20
461.187809
 40
13.300000
 50
175.543837
 51
184.456163
  0
ARC
  8
CSLAYER1
  6
CONTINUOUS
 62
     1
 10
1453.254431
 20
461.187809
 40
13.300000
 50
295.543837
 51
304.456163
  0
ARC
  8
CSLAYER1
  6
CONTINUOUS
 62
     1
 10
1453.254431
 20
461.187809
 40
13.300000
 50
235.543837
 51
244.456163
  0
LINE
  8
CSLAYER1
  6
CONTINUOUS
 62
     1
 10
1458.754431
 20
445.102101
 11
1458.754431
 21
431.687809
  0
LINE
  8
CSLAYER1
  6
CONTINUOUS
 62
     1
 10
1464.254431
 20
431.687809
 11
1442.254431
 21
431.687809
  0
LINE
  8
CSLAYER1
  6
CONTINUOUS
 62
     1
 10
1463.754431
 20
430.187809
 11
1442.754431
 21
430.187809
  0
LINE
  8
CSLAYER1
  6
CONTINUOUS
 62
     1
 10
1442.754431
 20
430.187809
 11
1437.054431
 21
424.487809
  0
LINE
  8
CSLAYER1
  6
CONTINUOUS
 62
     1
 10
1463.754431
 20
430.187809
 11
1469.454431
 21
424.487809
  0
LINE
  8
CSLAYER1
  6
CONTINUOUS
 62
     1
 10
1435.254431
 20
424.687809
 11
1442.254431
 21
431.687809
  0
LINE
  8
CSLAYER1
  6
CONTINUOUS
 62
     1
 10
1464.254431
 20
431.687809
 11
1471.254431
 21
424.687809
  0
ARC
  8
CSLAYER1
  6
CONTINUOUS
 62
     1
 10
1452.094776
 20
439.752938
 40
12.340516
 50
139.190298
 51
220.809702
  0
LINE
  8
CSLAYER1
  6
CONTINUOUS
 62
     1
 10
1436.254431
 20
461.187809
 11
1436.254431
 21
425.687809
  0
LINE
  8
CSLAYER1
  6
CONTINUOUS
 62
     5
 10
1478.254431
 20
505.287809
 11
1478.254431
 21
424.487809
  0
LINE
  8
CSLAYER1
  6
CONTINUOUS
 62
     5
 10
1453.254431
 20
505.687809
 11
1453.254431
 21
424.487809
  0
ARC
  8
CSLAYER1
  6
CONTINUOUS
 62
     1
 10
1453.254431
 20
413.687809
 40
12.500000
 50
59.768714
 51
120.231286
  0
LINE
  8
CSLAYER1
  6
CONTINUOUS
 62
     5
 10
3381.461696
 20
2190.236056
 11
2660.589179
 21
2190.236056
  0
LINE
  8
CSLAYER1
  6
CONTINUOUS
 62
     5
 10
3381.461696
 20
2126.236058
 11
2660.589179
 21
2126.236058
  0
LINE
  8
CSLAYER1
  6
CONTINUOUS
 62
     5
 10
3381.461696
 20
2062.236060
 11
2660.589179
 21
2062.236060
  0
LINE
  8
CSLAYER1
  6
CONTINUOUS
 62
     5
 10
3381.461696
 20
1998.236061
 11
2661.461715
 21
1998.236061
  0
LINE
  8
CSLAYER1
  6
CONTINUOUS
 62
     5
 10
3381.461696
 20
1934.236063
 11
2660.589179
 21
1934.236063
  0
LINE
  8
CSLAYER1
  6
CONTINUOUS
 62
     5
 10
3381.461696
 20
1870.236064
 11
2660.589179
 21
1870.236064
  0
LINE
  8
CSLAYER1
  6
CONTINUOUS
 62
     5
 10
3381.461696
 20
1806.236066
 11
2660.589179
 21
1806.236066
  0
LINE
  8
CSLAYER1
  6
CONTINUOUS
 62
     5
 10
3381.461696
 20
1742.236068
 11
2660.589179
 21
1742.236068
  0
LINE
  8
CSLAYER1
  6
CONTINUOUS
 62
     5
 10
3381.461696
 20
1678.236069
 11
2660.589179
 21
1678.236069
  0
LINE
  8
CSLAYER1
  6
CONTINUOUS
 62
     5
 10
3381.461696
 20
1614.236071
 11
2660.589179
 21
1614.236071
  0
LINE
  8
CSLAYER1
  6
CONTINUOUS
 62
     5
 10
3381.461696
 20
1550.236072
 11
2660.589179
 21
1550.236072
  0
TEXT
  8
CSLAYER1
 62
     3
 10
2856.312988
 20
2270.055176
 40
40.000000
 41
0.857143
  1
仕   様
 50
0.000000
 51
0.000000
  7
EASYDRAW_FONT
 72
     5
 11
3016.312988
 21
2270.055176
  0
TEXT
  8
CSLAYER1
 62
     3
 10
2671.348633
 20
2198.458984
 40
40.000000
 41
0.847059
  1
型    式
 50
0.000000
 51
0.000000
  7
EASYDRAW_FONT
 72
     5
 11
2863.348633
 21
2198.458984
  0
TEXT
  8
CSLAYER1
 62
     3
 10
2669.529053
 20
2075.969238
 40
40.000000
 41
0.847059
  1
テーブル寸法
 50
0.000000
 51
0.000000
  7
EASYDRAW_FONT
 72
     5
 11
2861.529053
 21
2075.969238
  0
TEXT
  8
CSLAYER1
 62
     3
 10
2671.348633
 20
2012.905029
 40
40.000000
 41
0.847059
  1
テーブル高サ
 50
0.000000
 51
0.000000
  7
EASYDRAW_FONT
 72
     5
 11
2863.348633
 21
2012.905029
  0
TEXT
  8
CSLAYER1
 62
     3
 10
2672.795410
 20
1948.022217
 40
40.000000
 41
0.857143
  1
ストローク
 50
0.000000
 51
0.000000
  7
EASYDRAW_FONT
 72
     5
 11
2832.795410
 21
1948.022217
  0
TEXT
  8
CSLAYER1
 62
     3
 10
2672.189209
 20
1883.139404
 40
40.000000
 41
0.857143
  1
全   長
 50
0.000000
 51
0.000000
  7
EASYDRAW_FONT
 72
     5
 11
2832.189209
 21
1883.139404
  0
TEXT
  8
CSLAYER1
 62
     3
 10
2674.460205
 20
1817.288696
 40
40.000000
 41
0.857143
  1
全   巾
 50
0.000000
 51
0.000000
  7
EASYDRAW_FONT
 72
     5
 11
2834.460205
 21
1817.288696
  0
TEXT
  8
CSLAYER1
 62
     3
 10
2672.902588
 20
1753.403442
 40
40.000000
 41
0.857143
  1
全   高
 50
0.000000
 51
0.000000
  7
EASYDRAW_FONT
 72
     5
 11
2832.902588
 21
1753.403442
  0
TEXT
  8
CSLAYER1
 62
     3
 10
2672.902588
 20
1691.076904
 40
40.000000
 41
0.857143
  1
リフト方式
 50
0.000000
 51
0.000000
  7
EASYDRAW_FONT
 72
     5
 11
2832.902588
 21
1691.076904
  0
TEXT
  8
CSLAYER1
 62
     3
 10
2671.762207
 20
1560.189453
 40
40.000000
 41
0.872727
  1
モーター
 50
0.000000
 51
0.000000
  7
EASYDRAW_FONT
 72
     5
 11
2799.762207
 21
1560.189453
  0
LINE
  8
CSLAYER1
  6
CONTINUOUS
 62
     5
 10
3381.461696
 20
1486.236074
 11
2660.589179
 21
1486.236074
  0
LINE
  8
CSLAYER1
  6
CONTINUOUS
 62
     5
 10
3381.461696
 20
1358.236077
 11
2658.450677
 21
1358.236077
  0
LINE
  8
CSLAYER1
  6
CONTINUOUS
 62
     5
 10
3381.461696
 20
1294.236079
 11
2660.589179
 21
1294.236079
  0
LINE
  8
CSLAYER1
  6
CONTINUOUS
 62
     5
 10
3381.461696
 20
1230.236080
 11
2660.589179
 21
1230.236080
  0
LINE
  8
CSLAYER1
  6
CONTINUOUS
 62
     5
 10
3381.461696
 20
1166.236082
 11
2660.589179
 21
1166.236082
  0
TEXT
  8
CSLAYER1
 62
     3
 10
2674.343750
 20
1241.358032
 40
40.000000
 41
0.857143
  1
自  　重
 50
0.000000
 51
0.000000
  7
EASYDRAW_FONT
 72
     5
 11
2834.343750
 21
1241.358032
  0
TEXT
  8
CSLAYER1
 62
     3
 10
2668.370117
 20
1178.018555
 40
40.000000
 41
0.825000
  1
塗装色（マンセル値） 
 50
0.000000
 51
0.000000
  7
EASYDRAW_FONT
 72
     5
 11
3020.370117
 21
1178.018555
  0
TEXT
  8
CSLAYER1
 62
     3
 10
3153.015137
 20
2134.574951
 40
40.000000
 41
0.900000
  1
500
 50
0.000000
 51
0.000000
  7
EASYDRAW_FONT
 72
     5
 11
3249.015137
 21
2134.574951
  0
TEXT
  8
CSLAYER1
 62
     3
 10
3310.927734
 20
2133.294189
 40
40.000000
 41
0.960000
  1
Ｋｇ
 50
0.000000
 51
0.000000
  7
EASYDRAW_FONT
 72
     5
 11
3374.927734
 21
2133.294189
  0
TEXT
  8
CSLAYER1
 62
     3
 10
2993.828613
 20
2070.978516
 40
40.000000
 41
0.834783
  1
900 ×800
 50
0.000000
 51
0.000000
  7
EASYDRAW_FONT
 72
     5
 11
3249.828613
 21
2070.978516
  0
TEXT
  8
CSLAYER1
 62
     3
 10
3253.123291
 20
2082.802002
 40
40.000000
 41
1.200000
  1
Ｗ
 50
0.000000
 51
0.000000
  7
EASYDRAW_FONT
 72
     5
 11
3285.123291
 21
2082.802002
  0
TEXT
  8
CSLAYER1
 62
     3
 10
3086.706787
 20
2088.965576
 40
40.000000
 41
1.200000
  1
Ｌ
 50
0.000000
 51
0.000000
  7
EASYDRAW_FONT
 72
     5
 11
3118.706787
 21
2088.965576
  0
TEXT
  8
CSLAYER1
 62
     3
 10
3024.362549
 20
2009.930420
 40
40.000000
 41
0.840000
  1
155～775
 50
0.000000
 51
0.000000
  7
EASYDRAW_FONT
 72
     5
 11
3248.362549
 21
2009.930420
  0
TEXT
  8
CSLAYER1
 62
     3
 10
3154.950928
 20
1945.961304
 40
40.000000
 41
0.900000
  1
620
 50
0.000000
 51
0.000000
  7
EASYDRAW_FONT
 72
     5
 11
3250.950928
 21
1945.961304
  0
TEXT
  8
CSLAYER1
 62
     3
 10
3154.950928
 20
1880.952271
 40
40.000000
 41
0.900000
  1
900
 50
0.000000
 51
0.000000
  7
EASYDRAW_FONT
 72
     5
 11
3250.950928
 21
1880.952271
  0
TEXT
  8
CSLAYER1
 62
     3
 10
3152.728516
 20
1818.165649
 40
40.000000
 41
0.900000
  1
800
 50
0.000000
 51
0.000000
  7
EASYDRAW_FONT
 72
     5
 11
3248.728516
 21
1818.165649
  0
TEXT
  8
CSLAYER1
 62
     3
 10
2959.939697
 20
1692.031616
 40
40.000000
 41
0.830769
  1
電 動 油 圧 式
 50
0.000000
 51
0.000000
  7
EASYDRAW_FONT
 72
     5
 11
3247.939697
 21
1692.031616
  0
TEXT
  8
CSLAYER1
 62
     3
 10
2881.222900
 20
1563.829224
 40
40.000000
 41
0.817021
  1
ＡＣ2００Ｖ，3相,0.55ＫＷ
 50
0.000000
 51
0.000000
  7
EASYDRAW_FONT
 72
     5
 11
3393.222900
 21
1563.829224
  0
TEXT
  8
CSLAYER1
 62
     3
 10
3033.851807
 20
1497.262817
 40
40.000000
 41
0.840000
  1
長 サ ４ ｍ
 50
0.000000
 51
0.000000
  7
EASYDRAW_FONT
 72
     5
 11
3257.851807
 21
1497.262817
  0
TEXT
  8
CSLAYER1
 62
     3
 10
2880.018997
 20
1430.429516
 40
38.786964
 41
0.594698
  1
１5ｓｅｃ／50ＨＺ,１2sec/60HZ
 50
0.000000
 51
0.000000
  7
EASYDRAW_FONT
 72
     5
 11
3356.727585
 21
1430.429516
  0
TEXT
  8
CSLAYER1
 62
     3
 10
3128.522949
 20
1242.491577
 40
40.000000
 41
0.834783
  1
112  　Ｋｇ
 50
0.000000
 51
0.000000
  7
EASYDRAW_FONT
 72
     5
 11
3384.522949
 21
1242.491577
  0
TEXT
  8
CSLAYER1
 62
     3
 10
3150.719727
 20
1753.504272
 40
40.000000
 41
0.900000
  1
155
 50
0.000000
 51
0.000000
  7
EASYDRAW_FONT
 72
     5
 11
3246.719727
 21
1753.504272
  0
TEXT
  8
CSLAYER1
 62
     3
 10
3308.413574
 20
2069.190674
 40
40.000000
 41
0.960000
  1
mm
 50
0.000000
 51
0.000000
  7
EASYDRAW_FONT
 72
     5
 11
3372.413574
 21
2069.190674
  0
TEXT
  8
CSLAYER1
 62
     3
 10
3308.413574
 20
2008.857422
 40
40.000000
 41
0.960000
  1
mm
 50
0.000000
 51
0.000000
  7
EASYDRAW_FONT
 72
     5
 11
3372.413574
 21
2008.857422
  0
TEXT
  8
CSLAYER1
 62
     3
 10
3304.642822
 20
1944.753540
 40
40.000000
 41
0.960000
  1
mm
 50
0.000000
 51
0.000000
  7
EASYDRAW_FONT
 72
     5
 11
3368.642822
 21
1944.753540
  0
TEXT
  8
CSLAYER1
 62
     3
 10
3304.642822
 20
1876.878540
 40
40.000000
 41
0.960000
  1
mm
 50
0.000000
 51
0.000000
  7
EASYDRAW_FONT
 72
     5
 11
3368.642822
 21
1876.878540
  0
TEXT
  8
CSLAYER1
 62
     3
 10
3302.129150
 20
1816.545654
 40
40.000000
 41
0.960000
  1
mm
 50
0.000000
 51
0.000000
  7
EASYDRAW_FONT
 72
     5
 11
3366.129150
 21
1816.545654
  0
TEXT
  8
CSLAYER1
 62
     3
 10
3302.129150
 20
1752.441040
 40
40.000000
 41
0.960000
  1
mm
 50
0.000000
 51
0.000000
  7
EASYDRAW_FONT
 72
     5
 11
3366.129150
 21
1752.441040
  0
LINE
  8
CSLAYER1
  6
CONTINUOUS
 62
     5
 10
3044.366117
 20
2254.236055
 11
2835.980145
 21
2254.236055
  0
LINE
  8
CSLAYER1
  6
CONTINUOUS
 62
     5
 10
3044.366117
 20
2262.236055
 11
2835.980145
 21
2262.236055
  0
TEXT
  8
CSLAYER1
 62
     3
 10
2675.343994
 20
1624.075317
 40
40.000000
 41
1.036364
  1
操作方式
 50
0.000000
 51
0.000000
  7
EASYDRAW_FONT
 72
     5
 11
2827.343994
 21
1624.075317
  0
LINE
  8
CSLAYER1
  6
CONTINUOUS
 62
     5
 10
3381.461696
 20
1422.236076
 11
2660.589179
 21
1422.236076
  0
TEXT
  8
CSLAYER1
 62
     3
 10
2672.678467
 20
1496.872192
 40
40.000000
 41
0.942857
  1
電源コード
 50
0.000000
 51
0.000000
  7
EASYDRAW_FONT
 72
     5
 11
2848.678467
 21
1496.872192
  0
TEXT
  8
CSLAYER1
 62
     3
 10
3055.773682
 20
1177.203735
 40
40.000000
 41
0.930000
  1
１０Ｒ４／１３
 50
0.000000
 51
0.000000
  7
EASYDRAW_FONT
 72
     5
 11
3303.773682
 21
1177.203735
  0
TEXT
  8
CSLAYER1
 62
     3
 10
2670.061279
 20
1432.595703
 40
40.000000
 41
0.954545
  1
上昇時間
 50
0.000000
 51
0.000000
  7
EASYDRAW_FONT
 72
     5
 11
2810.061279
 21
1432.595703
  0
TEXT
  8
CSLAYER1
 62
     3
 10
2795.999756
 20
1370.905396
 40
40.000000
 41
0.917143
  1
上昇端リミットスイッチ付
 50
0.000000
 51
0.000000
  7
EASYDRAW_FONT
 72
     5
 11
3223.999756
 21
1370.905396
  0
TEXT
  8
CSLAYER1
 62
     3
 10
2924.360875
 20
2199.968405
 40
40.809284
 41
0.900085
  1
GLE-500-0809
 50
0.000000
 51
0.000000
  7
EASYDRAW_FONT
 72
     5
 11
3352.898891
 21
2199.968405
  0
TEXT
  8
CSLAYER1
 62
     3
 10
2959.310791
 20
1629.163696
 40
40.000000
 41
1.020000
  1
フットスイッチ
 50
0.000000
 51
0.000000
  7
EASYDRAW_FONT
 72
     5
 11
3231.310791
 21
1629.163696
  0
TEXT
  8
CSLAYER1
 62
     3
 10
2675.343994
 20
2136.075195
 40
40.000000
 41
1.036364
  1
積載荷重
 50
0.000000
 51
0.000000
  7
EASYDRAW_FONT
 72
     5
 11
2827.343994
 21
2136.075195
  0
TEXT
  8
CSLAYER1
 62
     3
 10
467.525024
 20
1659.500244
 40
50.000000
 41
1.020000
  1
コード長サ２ｍ
 50
0.000000
 51
0.000000
  7
EASYDRAW_FONT
 72
     5
 11
807.525024
 21
1659.500244
  0
ENDSEC
  0
EOF
