  0
SECTION
  2
HEADER
  9
$ACADVER
  1
AC1006
  9
$INSBASE
 10
0.000000
 20
0.000000
 30
0.0
  9
$EXTMIN
 10
0.000000
 20
0.000000
  9
$EXTMAX
 10
3640.000000
 20
2570.000000
  9
$LIMMIN
 10
0.000000
 20
0.000000
  9
$LIMMAX
 10
3640.000000
 20
2570.000000
  9
$VIEWCTR
 10
1820.000000
 20
1285.000000
  9
$VIEWSIZE
 40
2570.000000
  9
$SNAPMODE
 70
     0
  9
$SNAPUNIT
 10
1.0
 20
1.0
  9
$SNAPBASE
 10
0.0
 20
0.0
  9
$SNAPANG
 50
0.0
  9
$SNAPSTYLE
 70
     0
  9
$SNAPISOPAIR
 70
     0
  9
$GRIDMODE
 70
     0
  9
$GRIDUNIT
 10
0.0
 20
0.0
  9
$ORTHOMODE
 70
     0
  9
$REGENMODE
 70
     1
  9
$FILLMODE
 70
     1
  9
$QTEXTMODE
 70
     0
  9
$DRAGMODE
 70
     2
  9
$LTSCALE
 40
15.000000
  9
$OSMODE
 70
     0
  9
$ATTMODE
 70
     1
  9
$TEXTSIZE
 40
0.2
  9
$TRACEWID
 40
0.05
  9
$TEXTSTYLE
  7
STANDARD
  9
$CLAYER
  8
CSLAYER1
  9
$CELTYPE
  6
BYLAYER
  9
$CECOLOR
 62
   256
  9
$DIMSCALE
 40
1.0
  9
$DIMASZ
 40
0.18
  9
$DIMEXO
 40
0.0625
  9
$DIMDLI
 40
0.38
  9
$DIMRND
 40
0.0
  9
$DIMDLE
 40
0.0
  9
$DIMEXE
 40
0.18
  9
$DIMTP
 40
0.0
  9
$DIMTM
 40
0.0
  9
$DIMTXT
 40
0.18
  9
$DIMCEN
 40
0.09
  9
$DIMTSZ
 40
0.0
  9
$DIMTOL
 70
     0
  9
$DIMLIM
 70
     0
  9
$DIMTIH
 70
     1
  9
$DIMTOH
 70
     1
  9
$DIMSE1
 70
     0
  9
$DIMSE2
 70
     0
  9
$DIMTAD
 70
     0
  9
$DIMZIN
 70
     0
  9
$DIMBLK
  1

  9
$LUNITS
 70
     2
  9
$LUPREC
 70
     4
  9
$AXISMODE
 70
     0
  9
$AXISUNIT
 10
0.0
 20
0.0
  9
$SKETCHINC
 40
0.1
  9
$FILLETRAD
 40
0.0
  9
$AUNITS
 70
     0
  9
$AUPREC
 70
     0
  9
$MENU
  1
ACAD
  9
$ELEVATION
 40
0.0
  9
$THICKNESS
 40
0.0
  9
$VIEWDIR
 10
0.0
 20
0.0
 30
1.0
  9
$LIMCHECK
 70
     0
  9
$BLIPMODE
 70
     1
  9
$CHAMFERA
 40
0.0
  9
$CHAMFERB
 40
0.0
  9
$FASTZOOM
 70
     1
  9
$SKPOLY
 70
     0
  9
$TDCREATE
 40
2456685.000000
  9
$TDUPDATE
 40
2456685.000000
  9
$TDINDWG
 40
0.0
  9
$TDUSRTIMER
 40
0.0
  9
$USRTIMER
 70
     1
  9
$ANGBASE
 50
0.0
  9
$ANGDIR
 70
     0
  9
$PDMODE
 70
     0
  9
$PDSIZE
 40
0.0
  9
$PLINEWID
 40
0.0
  9
$COORDS
 70
     0
  9
$USERI1
 70
     0
  9
$USERI2
 70
     0
  9
$USERI3
 70
     0
  9
$USERI4
 70
     0
  9
$USERI5
 70
     0
  9
$USERR1
 40
0.0
  9
$USERR2
 40
0.0
  9
$USERR3
 40
0.0
  9
$USERR4
 40
0.0
  9
$USERR5
 40
0.0
  0
ENDSEC
  0
SECTION
  2
TABLES
  0
TABLE
  2
LTYPE
 70
     9
  0
LTYPE
  2
CONTINUOUS
 70
    64
  3
Solid line
 72
    65
 73
     0
 40
0.0
  0
LTYPE
  2
DASHED
 70
    64
  3
__ __ __ __ __ __ __ __ __ __ __ __ __ __ __
 72
    65
 73
     2
 40
0.75
 49
0.5
 49
-0.25
  0
LTYPE
  2
HIDDEN
 70
    64
  3
_ _ _ _ _ _ _ _ _ _ _ _ _ _ _ _ _ _ _ _ _ _ _
 72
    65
 73
     2
 40
0.375
 49
0.25
 49
-0.125
  0
LTYPE
  2
DOT
 70
    64
  3
...............................................
 72
    65
 73
     2
 40
0.25
 49
0.0
 49
-0.25
  0
LTYPE
  2
DASHDOT
 70
    64
  3
__ . __ . __ . __ . __ . __ . __ . __ . __ . __
 72
    65
 73
     4
 40
1.0
 49
0.5
 49
-0.25
 49
0.0
 49
-0.25
  0
LTYPE
  2
DIVIDE
 70
    64
  3
__ . . __ . . __ . . __ . . __ . . __ . . __
 72
    65
 73
     6
 40
1.25
 49
0.5
 49
-0.25
 49
0.0
 49
-0.25
 49
0.0
 49
-0.25
  0
LTYPE
  2
CENTER
 70
    64
  3
____ _ ____ _ ____ _ ____ _ ____ _ ____ _ ____ 
 72
    65
 73
     4
 40
2.0
 49
1.25
 49
-0.25
 49
0.25
 49
-0.25
  0
LTYPE
  2
PHANTOM
 70
    64
  3
______  __  __  ______  __  __  ______  __  __ 
 72
    65
 73
     6
 40
2.5
 49
1.25
 49
-0.25
 49
0.25
 49
-0.25
 49
0.25
 49
-0.25
  0
LTYPE
  2
BORDER
 70
    64
  3
__ __ . __ __ . __ __ . __ __ . __ __ . __ __ .
 72
    65
 73
     6
 40
1.75
 49
0.5
 49
-0.25
 49
0.5
 49
-0.25
 49
0.0
 49
-0.25
  0
ENDTAB
  0
TABLE
  2
LAYER
 70
    16
  0
LAYER
  2
CSLAYER1
 70
    64
 62
     7
  6
CONTINUOUS
  0
LAYER
  2
CSLAYER2
 70
    64
 62
     7
  6
CONTINUOUS
  0
LAYER
  2
CSLAYER3
 70
    64
 62
     7
  6
CONTINUOUS
  0
LAYER
  2
CSLAYER4
 70
    64
 62
     7
  6
CONTINUOUS
  0
LAYER
  2
CSLAYER5
 70
    64
 62
     7
  6
CONTINUOUS
  0
LAYER
  2
CSLAYER6
 70
    64
 62
     7
  6
CONTINUOUS
  0
LAYER
  2
CSLAYER7
 70
    64
 62
     7
  6
CONTINUOUS
  0
LAYER
  2
CSLAYER8
 70
    64
 62
     7
  6
CONTINUOUS
  0
LAYER
  2
CSLAYER9
 70
    64
 62
     7
  6
CONTINUOUS
  0
LAYER
  2
CSLAYER10
 70
    64
 62
     7
  6
CONTINUOUS
  0
LAYER
  2
CSLAYER11
 70
    64
 62
     7
  6
CONTINUOUS
  0
LAYER
  2
CSLAYER12
 70
    64
 62
     7
  6
CONTINUOUS
  0
LAYER
  2
CSLAYER13
 70
    64
 62
     7
  6
CONTINUOUS
  0
LAYER
  2
CSLAYER14
 70
    64
 62
     7
  6
CONTINUOUS
  0
LAYER
  2
CSLAYER15
 70
    64
 62
     7
  6
CONTINUOUS
  0
LAYER
  2
CSLAYER16
 70
    64
 62
     7
  6
CONTINUOUS
  0
ENDTAB
  0
TABLE
  2
STYLE
 70
     1
  0
STYLE
  2
EASYDRAW_FONT
 70
     0
 40
1.0
 41
1.0
 50
0.0
 71
     0
 42
1.0
  3
monotxt
  4
bigfont
  0
ENDTAB
  0
TABLE
  2
VIEW
 70
     0
  0
ENDTAB
  0
ENDSEC
  0
SECTION
  2
BLOCKS
  0
BLOCK
  8
CSLAYER1
  2
EASYDRAWDIM0000
 70
   64
 10
0.0
 20
0.0
 30
0.0
  0
TEXT
  8
CSLAYER1
 62
     3
 10
2177.315674
 20
1800.149536
 40
40.000000
 41
0.843750
  1
600
 50
90.000000
 51
0.000000
  7
EASYDRAW_FONT
 72
     5
 11
2177.315674
 21
1890.149536
  0
LINE
  8
CSLAYER1
  6
CONTINUOUS
 62
     5
 10
2187.315649
 20
1545.149310
 11
2187.315649
 21
2145.149310
  0
LINE
  8
CSLAYER1
  6
CONTINUOUS
 62
     5
 10
2187.315649
 20
1545.149310
 11
2179.551078
 21
1574.127085
  0
LINE
  8
CSLAYER1
  6
CONTINUOUS
 62
     5
 10
2187.315649
 20
1545.149310
 11
2195.080221
 21
1574.127085
  0
LINE
  8
CSLAYER1
  6
CONTINUOUS
 62
     5
 10
2187.315649
 20
2145.149310
 11
2179.551078
 21
2116.171536
  0
LINE
  8
CSLAYER1
  6
CONTINUOUS
 62
     5
 10
2187.315649
 20
2145.149310
 11
2195.080221
 21
2116.171536
  0
ENDBLK
  8
0
  0
BLOCK
  8
CSLAYER1
  2
*D0000
 70
    65
 10
0.0
 20
0.0
 30
0.0
  0
TEXT
  8
CSLAYER1
 62
     3
 10
2177.115723
 20
479.102417
 40
40.000000
 41
0.843750
  1
155
 50
90.000000
 51
0.000000
  7
EASYDRAW_FONT
 72
     5
 11
2177.115723
 21
569.102417
  0
LINE
  8
CSLAYER1
  6
CONTINUOUS
 62
     5
 10
2097.115649
 20
601.602380
 11
2197.115649
 21
601.602380
  0
LINE
  8
CSLAYER1
  6
CONTINUOUS
 62
     5
 10
2187.115649
 20
446.602380
 11
2187.115649
 21
601.602380
  0
LINE
  8
CSLAYER1
  6
CONTINUOUS
 62
     5
 10
2187.115649
 20
446.602380
 11
2179.351078
 21
475.580155
  0
LINE
  8
CSLAYER1
  6
CONTINUOUS
 62
     5
 10
2187.115649
 20
446.602380
 11
2194.880221
 21
475.580155
  0
LINE
  8
CSLAYER1
  6
CONTINUOUS
 62
     5
 10
2187.115649
 20
601.602380
 11
2179.351078
 21
572.624605
  0
LINE
  8
CSLAYER1
  6
CONTINUOUS
 62
     5
 10
2187.115649
 20
601.602380
 11
2194.880221
 21
572.624605
  0
ENDBLK
  8
0
  0
BLOCK
  8
CSLAYER1
  2
*D0001
 70
    65
 10
0.0
 20
0.0
 30
0.0
  0
TEXT
  8
CSLAYER1
 62
     3
 10
2177.115723
 20
866.602478
 40
40.000000
 41
0.843750
  1
620
 50
90.000000
 51
0.000000
  7
EASYDRAW_FONT
 72
     5
 11
2177.115723
 21
956.602478
  0
LINE
  8
CSLAYER1
  6
CONTINUOUS
 62
     5
 10
2187.115649
 20
601.602380
 11
2187.115649
 21
1221.602380
  0
LINE
  8
CSLAYER1
  6
CONTINUOUS
 62
     5
 10
2187.115649
 20
601.602380
 11
2179.351078
 21
630.580155
  0
LINE
  8
CSLAYER1
  6
CONTINUOUS
 62
     5
 10
2187.115649
 20
601.602380
 11
2194.880221
 21
630.580155
  0
LINE
  8
CSLAYER1
  6
CONTINUOUS
 62
     5
 10
2187.115649
 20
1221.602380
 11
2179.351078
 21
1192.624605
  0
LINE
  8
CSLAYER1
  6
CONTINUOUS
 62
     5
 10
2187.115649
 20
1221.602380
 11
2194.880221
 21
1192.624605
  0
ENDBLK
  8
0
  0
BLOCK
  8
CSLAYER1
  2
*D0002
 70
    65
 10
0.0
 20
0.0
 30
0.0
  0
TEXT
  8
CSLAYER1
 62
     3
 10
2277.115723
 20
789.102417
 40
40.000000
 41
0.843750
  1
775
 50
90.000000
 51
0.000000
  7
EASYDRAW_FONT
 72
     5
 11
2277.115723
 21
879.102417
  0
LINE
  8
CSLAYER1
  6
CONTINUOUS
 62
     5
 10
2097.115649
 20
1221.602380
 11
2297.115649
 21
1221.602380
  0
LINE
  8
CSLAYER1
  6
CONTINUOUS
 62
     5
 10
2287.115649
 20
446.602380
 11
2287.115649
 21
1221.602380
  0
LINE
  8
CSLAYER1
  6
CONTINUOUS
 62
     5
 10
2287.115649
 20
446.602380
 11
2279.351078
 21
475.580155
  0
LINE
  8
CSLAYER1
  6
CONTINUOUS
 62
     5
 10
2287.115649
 20
446.602380
 11
2294.880221
 21
475.580155
  0
LINE
  8
CSLAYER1
  6
CONTINUOUS
 62
     5
 10
2287.115649
 20
1221.602380
 11
2279.351078
 21
1192.624605
  0
LINE
  8
CSLAYER1
  6
CONTINUOUS
 62
     5
 10
2287.115649
 20
1221.602380
 11
2294.880221
 21
1192.624605
  0
ENDBLK
  8
0
  0
BLOCK
  8
CSLAYER1
  2
*D0003
 70
    65
 10
0.0
 20
0.0
 30
0.0
  0
TEXT
  8
CSLAYER1
 62
     3
 10
1592.115723
 20
1331.602661
 40
40.000000
 41
0.843750
  1
900
 50
0.000000
 51
0.000000
  7
EASYDRAW_FONT
 72
     5
 11
1682.115723
 21
1331.602661
  0
LINE
  8
CSLAYER1
  6
CONTINUOUS
 62
     5
 10
1187.115649
 20
1231.602380
 11
1187.115649
 21
1331.602380
  0
LINE
  8
CSLAYER1
  6
CONTINUOUS
 62
     5
 10
2087.115649
 20
1231.602380
 11
2087.115649
 21
1331.602380
  0
LINE
  8
CSLAYER1
  6
CONTINUOUS
 62
     5
 10
1187.115649
 20
1321.602380
 11
2087.115649
 21
1321.602380
  0
LINE
  8
CSLAYER1
  6
CONTINUOUS
 62
     5
 10
1187.115649
 20
1321.602380
 11
1216.093424
 21
1329.366952
  0
LINE
  8
CSLAYER1
  6
CONTINUOUS
 62
     5
 10
1187.115649
 20
1321.602380
 11
1216.093424
 21
1313.837809
  0
LINE
  8
CSLAYER1
  6
CONTINUOUS
 62
     5
 10
2087.115649
 20
1321.602380
 11
2058.137875
 21
1329.366952
  0
LINE
  8
CSLAYER1
  6
CONTINUOUS
 62
     5
 10
2087.115649
 20
1321.602380
 11
2058.137875
 21
1313.837809
  0
ENDBLK
  8
0
  0
BLOCK
  8
CSLAYER1
  2
*D0004
 70
    65
 10
0.0
 20
0.0
 30
0.0
  0
TEXT
  8
CSLAYER1
 62
     3
 10
592.315674
 20
356.602386
 40
40.000000
 41
0.843750
  1
500
 50
0.000000
 51
0.000000
  7
EASYDRAW_FONT
 72
     5
 11
682.315674
 21
356.602386
  0
LINE
  8
CSLAYER1
  6
CONTINUOUS
 62
     5
 10
387.315649
 20
436.602380
 11
387.315649
 21
336.602380
  0
LINE
  8
CSLAYER1
  6
CONTINUOUS
 62
     5
 10
887.315649
 20
436.602380
 11
887.315649
 21
336.602380
  0
LINE
  8
CSLAYER1
  6
CONTINUOUS
 62
     5
 10
387.315649
 20
346.602380
 11
887.315649
 21
346.602380
  0
LINE
  8
CSLAYER1
  6
CONTINUOUS
 62
     5
 10
387.315649
 20
346.602380
 11
416.293424
 21
354.366952
  0
LINE
  8
CSLAYER1
  6
CONTINUOUS
 62
     5
 10
387.315649
 20
346.602380
 11
416.293424
 21
338.837809
  0
LINE
  8
CSLAYER1
  6
CONTINUOUS
 62
     5
 10
887.315649
 20
346.602380
 11
858.337875
 21
354.366952
  0
LINE
  8
CSLAYER1
  6
CONTINUOUS
 62
     5
 10
887.315649
 20
346.602380
 11
858.337875
 21
338.837809
  0
ENDBLK
  8
0
  0
BLOCK
  8
CSLAYER1
  2
*D0005
 70
    65
 10
0.0
 20
0.0
 30
0.0
  0
TEXT
  8
CSLAYER1
 62
     3
 10
1592.315796
 20
356.602386
 40
40.000000
 41
0.843750
  1
900
 50
0.000000
 51
0.000000
  7
EASYDRAW_FONT
 72
     5
 11
1682.315796
 21
356.602386
  0
LINE
  8
CSLAYER1
  6
CONTINUOUS
 62
     5
 10
1187.315649
 20
436.602380
 11
1187.315649
 21
336.602380
  0
LINE
  8
CSLAYER1
  6
CONTINUOUS
 62
     5
 10
2087.315649
 20
436.602380
 11
2087.315649
 21
336.602380
  0
LINE
  8
CSLAYER1
  6
CONTINUOUS
 62
     5
 10
1187.315649
 20
346.602380
 11
2087.315649
 21
346.602380
  0
LINE
  8
CSLAYER1
  6
CONTINUOUS
 62
     5
 10
1187.315649
 20
346.602380
 11
1216.293424
 21
354.366952
  0
LINE
  8
CSLAYER1
  6
CONTINUOUS
 62
     5
 10
1187.315649
 20
346.602380
 11
1216.293424
 21
338.837809
  0
LINE
  8
CSLAYER1
  6
CONTINUOUS
 62
     5
 10
2087.315649
 20
346.602380
 11
2058.337875
 21
354.366952
  0
LINE
  8
CSLAYER1
  6
CONTINUOUS
 62
     5
 10
2087.315649
 20
346.602380
 11
2058.337875
 21
338.837809
  0
ENDBLK
  8
0
  0
BLOCK
  8
CSLAYER1
  2
BLKF0000
 70
   64
 10
0.0
 20
0.0
 30
0.0
  0
ARC
  8
CSLAYER1
  6
CONTINUOUS
 62
     5
 10
2781.909508
 20
79.335220
 40
3.549225
 50
6.429109
 51
73.182034
  0
ARC
  8
CSLAYER1
  6
CONTINUOUS
 62
     5
 10
2778.448538
 20
78.176827
 40
6.907754
 50
310.517970
 51
330.092764
  0
ARC
  8
CSLAYER1
  6
CONTINUOUS
 62
     5
 10
2778.387888
 20
78.542345
 40
7.148321
 50
-32.205059
 51
9.585194
  0
ARC
  8
CSLAYER1
  6
CONTINUOUS
 62
     5
 10
2781.680616
 20
75.781346
 40
4.767514
 50
180.000000
 51
218.514150
  0
ARC
  8
CSLAYER1
  6
CONTINUOUS
 62
     5
 10
2780.393895
 20
75.104206
 40
3.348282
 50
222.781148
 51
319.406906
  0
ARC
  8
CSLAYER1
  6
CONTINUOUS
 62
     5
 10
2783.459537
 20
76.194099
 40
6.559434
 50
94.574282
 51
183.607718
  0
LINE
  8
CSLAYER1
  6
CONTINUOUS
 62
     5
 10
2796.903443
 20
71.077266
 11
2796.046407
 21
68.038683
  0
LINE
  8
CSLAYER1
  6
CONTINUOUS
 62
     5
 10
2798.695428
 20
90.944924
 11
2796.591794
 21
93.671857
  0
LINE
  8
CSLAYER1
  6
CONTINUOUS
 62
     5
 10
2796.591794
 20
93.671857
 11
2789.838440
 21
97.429769
  0
LINE
  8
CSLAYER1
  6
CONTINUOUS
 62
     5
 10
2789.838440
 20
97.429769
 11
2782.936412
 21
98.232640
  0
LINE
  8
CSLAYER1
  6
CONTINUOUS
 62
     5
 10
2764.647187
 20
84.853966
 11
2766.793881
 21
89.818197
  0
LINE
  8
CSLAYER1
  6
CONTINUOUS
 62
     5
 10
2766.756884
 20
89.732640
 11
2768.940576
 21
92.367396
  0
LINE
  8
CSLAYER1
  6
CONTINUOUS
 62
     5
 10
2768.940576
 20
92.367396
 11
2772.244998
 21
94.732640
  0
LINE
  8
CSLAYER1
  6
CONTINUOUS
 62
     5
 10
2782.936412
 20
98.232640
 11
2781.418237
 21
97.465795
  0
LINE
  8
CSLAYER1
  6
CONTINUOUS
 62
     5
 10
2781.418237
 20
97.465795
 11
2777.929858
 21
97.465795
  0
LINE
  8
CSLAYER1
  6
CONTINUOUS
 62
     5
 10
2777.929858
 20
97.465795
 11
2774.374396
 21
95.520354
  0
LINE
  8
CSLAYER1
  6
CONTINUOUS
 62
     5
 10
2774.374396
 20
95.520354
 11
2772.244998
 21
94.732640
  0
LINE
  8
CSLAYER1
  6
CONTINUOUS
 62
     5
 10
2764.647187
 20
84.853966
 11
2763.129640
 21
77.305363
  0
LINE
  8
CSLAYER1
  6
CONTINUOUS
 62
     5
 10
2763.129640
 20
77.305363
 11
2762.936412
 21
74.732640
  0
LINE
  8
CSLAYER1
  6
CONTINUOUS
 62
     5
 10
2765.645795
 20
66.892857
 11
2762.936412
 21
72.988969
  0
LINE
  8
CSLAYER1
  6
CONTINUOUS
 62
     5
 10
2762.936412
 20
72.988969
 11
2762.936412
 21
74.732640
  0
LINE
  8
CSLAYER1
  6
CONTINUOUS
 62
     5
 10
2796.046407
 20
68.038683
 11
2794.360620
 21
65.035677
  0
LINE
  8
CSLAYER1
  6
CONTINUOUS
 62
     5
 10
2794.360620
 20
65.035677
 11
2792.936412
 21
63.716966
  0
ARC
  8
CSLAYER1
  6
CONTINUOUS
 62
     5
 10
2780.744468
 20
75.269400
 40
17.266626
 50
208.054813
 51
260.640470
  0
ARC
  8
CSLAYER1
  6
CONTINUOUS
 62
     5
 10
2775.551072
 20
88.011870
 40
29.874611
 50
274.579659
 51
305.587364
  0
ARC
  8
CSLAYER1
  6
CONTINUOUS
 62
     5
 10
2786.523421
 20
82.028147
 40
15.088627
 50
313.467013
 51
331.085078
  0
LINE
  8
CSLAYER1
  6
CONTINUOUS
 62
     5
 10
2801.314754
 20
78.246061
 11
2801.612048
 21
82.028147
  0
LINE
  8
CSLAYER1
  6
CONTINUOUS
 62
     5
 10
2801.612048
 20
82.028147
 11
2800.320051
 21
88.137130
  0
LINE
  8
CSLAYER1
  6
CONTINUOUS
 62
     5
 10
2801.314754
 20
78.246061
 11
2799.731079
 21
74.732640
  0
ARC
  8
CSLAYER1
  6
CONTINUOUS
 62
     5
 10
2786.523421
 20
82.028147
 40
15.088627
 50
23.883193
 51
36.225170
  0
LINE
  8
CSLAYER1
  6
CONTINUOUS
 62
     5
 10
2746.936412
 20
109.732640
 11
2747.936412
 21
110.825284
  0
LINE
  8
CSLAYER1
  6
CONTINUOUS
 62
     5
 10
2746.936412
 20
109.732640
 11
2748.513370
 21
108.287607
  0
LINE
  8
CSLAYER1
  6
CONTINUOUS
 62
     5
 10
2750.052583
 20
106.178315
 11
2750.078851
 21
104.010196
  0
LINE
  8
CSLAYER1
  6
CONTINUOUS
 62
     5
 10
2750.078851
 20
104.010196
 11
2750.286249
 21
103.249737
  0
LINE
  8
CSLAYER1
  6
CONTINUOUS
 62
     5
 10
2750.286249
 20
103.249737
 11
2750.873877
 21
102.523844
  0
LINE
  8
CSLAYER1
  6
CONTINUOUS
 62
     5
 10
2750.873877
 20
102.523844
 11
2751.461504
 21
102.592977
  0
LINE
  8
CSLAYER1
  6
CONTINUOUS
 62
     5
 10
2751.461504
 20
102.592977
 11
2752.083698
 21
102.765808
  0
LINE
  8
CSLAYER1
  6
CONTINUOUS
 62
     5
 10
2752.083698
 20
102.765808
 11
2752.498494
 21
102.592977
  0
LINE
  8
CSLAYER1
  6
CONTINUOUS
 62
     5
 10
2752.498494
 20
102.592977
 11
2753.397219
 21
102.143614
  0
LINE
  8
CSLAYER1
  6
CONTINUOUS
 62
     5
 10
2753.397219
 20
102.143614
 11
2754.173270
 21
101.732640
  0
LINE
  8
CSLAYER1
  6
CONTINUOUS
 62
     5
 10
2754.173270
 20
101.732640
 11
2754.676173
 21
101.763385
  0
LINE
  8
CSLAYER1
  6
CONTINUOUS
 62
     5
 10
2754.676173
 20
101.763385
 11
2757.484045
 21
103.209864
  0
LINE
  8
CSLAYER1
  6
CONTINUOUS
 62
     5
 10
2747.936412
 20
110.825284
 11
2748.269264
 21
112.298991
  0
LINE
  8
CSLAYER1
  6
CONTINUOUS
 62
     5
 10
2748.269264
 20
112.298991
 11
2749.722669
 21
112.449344
  0
LINE
  8
CSLAYER1
  6
CONTINUOUS
 62
     5
 10
2751.216428
 20
115.217802
 11
2752.970601
 21
115.374892
  0
LINE
  8
CSLAYER1
  6
CONTINUOUS
 62
     5
 10
2752.970601
 20
115.374892
 11
2756.505128
 21
116.212706
  0
LINE
  8
CSLAYER1
  6
CONTINUOUS
 62
     5
 10
2756.505128
 20
116.212706
 11
2757.936412
 21
116.544345
  0
LINE
  8
CSLAYER1
  6
CONTINUOUS
 62
     5
 10
2751.216428
 20
115.217802
 11
2749.283537
 21
115.376670
  0
LINE
  8
CSLAYER1
  6
CONTINUOUS
 62
     5
 10
2748.547414
 20
114.507983
 11
2748.640939
 21
114.136822
  0
LINE
  8
CSLAYER1
  6
CONTINUOUS
 62
     5
 10
2748.640939
 20
114.136822
 11
2749.132533
 21
113.599141
  0
LINE
  8
CSLAYER1
  6
CONTINUOUS
 62
     5
 10
2749.132533
 20
113.599141
 11
2749.808475
 21
113.092184
  0
LINE
  8
CSLAYER1
  6
CONTINUOUS
 62
     5
 10
2749.808475
 20
113.092184
 11
2749.931800
 21
112.927751
  0
LINE
  8
CSLAYER1
  6
CONTINUOUS
 62
     5
 10
2748.513370
 20
108.287607
 11
2750.052583
 21
106.178315
  0
ARC
  8
CSLAYER1
  6
CONTINUOUS
 62
     5
 10
2792.923113
 20
-61.926013
 40
180.727463
 50
80.438896
 51
96.353582
  0
ARC
  8
CSLAYER1
  6
CONTINUOUS
 62
     5
 10
2768.024200
 20
83.321887
 40
34.720242
 50
81.866516
 51
106.890578
  0
LINE
  8
CSLAYER1
  6
CONTINUOUS
 62
     5
 10
2827.130674
 20
115.499310
 11
2829.377756
 21
114.477909
  0
LINE
  8
CSLAYER1
  6
CONTINUOUS
 62
     5
 10
2832.952661
 20
112.894737
 11
2829.377756
 21
114.477909
  0
LINE
  8
CSLAYER1
  6
CONTINUOUS
 62
     5
 10
2827.130674
 20
115.499310
 11
2822.936412
 21
116.291881
  0
LINE
  8
CSLAYER1
  6
CONTINUOUS
 62
     5
 10
2832.936412
 20
112.901933
 11
2834.807988
 21
111.333456
  0
LINE
  8
CSLAYER1
  6
CONTINUOUS
 62
     5
 10
2816.179668
 20
113.938783
 11
2817.078943
 21
115.391458
  0
LINE
  8
CSLAYER1
  6
CONTINUOUS
 62
     5
 10
2817.078943
 20
115.391458
 11
2821.754542
 21
114.271949
  0
LINE
  8
CSLAYER1
  6
CONTINUOUS
 62
     5
 10
2821.754542
 20
114.271949
 11
2838.496928
 21
109.732640
  0
LINE
  8
CSLAYER1
  6
CONTINUOUS
 62
     5
 10
2841.436412
 20
109.732640
 11
2834.807988
 21
111.333456
  0
LINE
  8
CSLAYER1
  6
CONTINUOUS
 62
     5
 10
2838.496928
 20
109.732640
 11
2841.436412
 21
109.732640
  0
LINE
  8
CSLAYER1
  6
CONTINUOUS
 62
     5
 10
2782.936412
 20
114.197581
 11
2802.936412
 21
114.732640
  0
LINE
  8
CSLAYER1
  6
CONTINUOUS
 62
     5
 10
2802.936412
 20
114.732640
 11
2816.179668
 21
113.938783
  0
LINE
  8
CSLAYER1
  6
CONTINUOUS
 62
     5
 10
2817.782649
 20
111.878304
 11
2802.936412
 21
113.232640
  0
LINE
  8
CSLAYER1
  6
CONTINUOUS
 62
     5
 10
2802.936412
 20
113.232640
 11
2787.887203
 21
113.641292
  0
LINE
  8
CSLAYER1
  6
CONTINUOUS
 62
     5
 10
2787.936412
 20
113.639956
 11
2782.936412
 21
113.735249
  0
LINE
  8
CSLAYER1
  6
CONTINUOUS
 62
     5
 10
2782.936412
 20
114.197581
 11
2782.936412
 21
113.735249
  0
LINE
  8
CSLAYER1
  6
CONTINUOUS
 62
     5
 10
2840.436412
 20
106.232640
 11
2831.593854
 21
108.543302
  0
LINE
  8
CSLAYER1
  6
CONTINUOUS
 62
     5
 10
2817.782649
 20
111.878304
 11
2827.936412
 21
109.905920
  0
LINE
  8
CSLAYER1
  6
CONTINUOUS
 62
     5
 10
2827.936412
 20
109.905920
 11
2831.593854
 21
108.543302
  0
LINE
  8
CSLAYER1
  6
CONTINUOUS
 62
     5
 10
2840.436412
 20
106.232640
 11
2840.143795
 21
105.393534
  0
LINE
  8
CSLAYER1
  6
CONTINUOUS
 62
     5
 10
2849.936412
 20
100.732640
 11
2849.630385
 21
101.961621
  0
LINE
  8
CSLAYER1
  6
CONTINUOUS
 62
     5
 10
2840.143795
 20
105.393534
 11
2849.630385
 21
101.961621
  0
LINE
  8
CSLAYER1
  6
CONTINUOUS
 62
     5
 10
2786.436412
 20
106.232640
 11
2788.859450
 21
106.232640
  0
LINE
  8
CSLAYER1
  6
CONTINUOUS
 62
     5
 10
2808.936412
 20
106.665135
 11
2808.936412
 21
106.232640
  0
LINE
  8
CSLAYER1
  6
CONTINUOUS
 62
     5
 10
2807.936412
 20
107.199576
 11
2806.225133
 21
107.836755
  0
LINE
  8
CSLAYER1
  6
CONTINUOUS
 62
     5
 10
2806.225133
 20
107.836755
 11
2805.115077
 21
107.887212
  0
LINE
  8
CSLAYER1
  6
CONTINUOUS
 62
     5
 10
2805.115077
 20
107.887212
 11
2804.635735
 21
107.634926
  0
LINE
  8
CSLAYER1
  6
CONTINUOUS
 62
     5
 10
2804.635735
 20
107.634926
 11
2804.534821
 21
107.231270
  0
LINE
  8
CSLAYER1
  6
CONTINUOUS
 62
     5
 10
2804.534821
 20
107.231270
 11
2804.988934
 21
106.928527
  0
LINE
  8
CSLAYER1
  6
CONTINUOUS
 62
     5
 10
2804.988934
 20
106.928527
 11
2806.628790
 21
106.777156
  0
LINE
  8
CSLAYER1
  6
CONTINUOUS
 62
     5
 10
2806.628790
 20
106.777156
 11
2808.936412
 21
106.665135
  0
LINE
  8
CSLAYER1
  6
CONTINUOUS
 62
     5
 10
2849.936412
 20
100.732640
 11
2846.960870
 21
101.919221
  0
LINE
  8
CSLAYER1
  6
CONTINUOUS
 62
     5
 10
2846.960870
 20
101.919221
 11
2836.905180
 21
103.762097
  0
LINE
  8
CSLAYER1
  6
CONTINUOUS
 62
     5
 10
2836.905180
 20
103.762097
 11
2831.879400
 21
104.921892
  0
LINE
  8
CSLAYER1
  6
CONTINUOUS
 62
     5
 10
2809.470633
 20
107.232640
 11
2821.236299
 21
107.232640
  0
LINE
  8
CSLAYER1
  6
CONTINUOUS
 62
     5
 10
2807.936412
 20
107.199576
 11
2808.461072
 21
106.891109
  0
LINE
  8
CSLAYER1
  6
CONTINUOUS
 62
     5
 10
2808.461072
 20
106.891109
 11
2808.757884
 21
106.802065
  0
LINE
  8
CSLAYER1
  6
CONTINUOUS
 62
     5
 10
2808.757884
 20
106.802065
 11
2808.936412
 21
106.827236
  0
LINE
  8
CSLAYER1
  6
CONTINUOUS
 62
     5
 10
2808.936412
 20
106.827236
 11
2809.470633
 21
107.232640
  0
LINE
  8
CSLAYER1
  6
CONTINUOUS
 62
     5
 10
2821.236299
 20
107.232640
 11
2825.686568
 21
106.203814
  0
LINE
  8
CSLAYER1
  6
CONTINUOUS
 62
     5
 10
2825.686568
 20
106.203814
 11
2829.839760
 21
105.038665
  0
LINE
  8
CSLAYER1
  6
CONTINUOUS
 62
     5
 10
2829.839760
 20
105.038665
 11
2831.879400
 21
104.921892
  0
LINE
  8
CSLAYER1
  6
CONTINUOUS
 62
     5
 10
2785.436412
 20
105.232640
 11
2785.436412
 21
104.732640
  0
LINE
  8
CSLAYER1
  6
CONTINUOUS
 62
     5
 10
2782.936412
 20
104.732640
 11
2785.436412
 21
104.732640
  0
ARC
  8
CSLAYER1
  6
CONTINUOUS
 62
     5
 10
2786.436412
 20
105.232640
 40
1.000000
 50
90.000000
 51
180.000000
  0
LINE
  8
CSLAYER1
  6
CONTINUOUS
 62
     5
 10
2788.859450
 20
106.232640
 11
2789.557007
 21
105.660643
  0
LINE
  8
CSLAYER1
  6
CONTINUOUS
 62
     5
 10
2790.159375
 20
105.636683
 11
2791.016972
 21
106.232640
  0
LINE
  8
CSLAYER1
  6
CONTINUOUS
 62
     5
 10
2792.595368
 20
106.232640
 11
2794.262494
 21
105.574564
  0
LINE
  8
CSLAYER1
  6
CONTINUOUS
 62
     5
 10
2794.686203
 20
105.601076
 11
2795.839690
 21
106.232640
  0
LINE
  8
CSLAYER1
  6
CONTINUOUS
 62
     5
 10
2791.016972
 20
106.232640
 11
2792.595368
 21
106.232640
  0
LINE
  8
CSLAYER1
  6
CONTINUOUS
 62
     5
 10
2795.839690
 20
106.232640
 11
2808.936412
 21
106.232640
  0
LINE
  8
CSLAYER1
  6
CONTINUOUS
 62
     5
 10
2761.485395
 20
103.123813
 11
2782.936412
 21
104.732640
  0
LINE
  8
CSLAYER1
  6
CONTINUOUS
 62
     5
 10
2757.484045
 20
103.209864
 11
2761.485395
 21
103.123813
  0
ARC
  8
CSLAYER1
  6
CONTINUOUS
 62
     5
 10
2789.874047
 20
106.047277
 40
0.500000
 50
230.648247
 51
304.796026
  0
ARC
  8
CSLAYER1
  6
CONTINUOUS
 62
     5
 10
2794.446077
 20
106.039642
 40
0.500000
 50
248.459024
 51
298.701829
  0
ARC
  8
CSLAYER1
  6
CONTINUOUS
 62
     5
 10
2749.691800
 20
112.747751
 40
0.300000
 50
-84.093859
 51
36.869898
  0
ARC
  8
CSLAYER1
  6
CONTINUOUS
 62
     5
 10
2749.226196
 20
114.679023
 40
0.700000
 50
85.301319
 51
194.142980
  0
LINE
  8
CSLAYER1
  6
CONTINUOUS
 62
     3
 10
2781.418237
 20
97.465795
 11
2789.528732
 21
97.465795
  0
LINE
  8
CSLAYER1
  6
CONTINUOUS
 62
     3
 10
2775.005720
 20
95.865795
 11
2792.649061
 21
95.865795
  0
LINE
  8
CSLAYER1
  6
CONTINUOUS
 62
     3
 10
2771.592781
 20
94.265795
 11
2795.524426
 21
94.265795
  0
LINE
  8
CSLAYER1
  6
CONTINUOUS
 62
     3
 10
2769.357462
 20
92.665795
 11
2797.367899
 21
92.665795
  0
LINE
  8
CSLAYER1
  6
CONTINUOUS
 62
     3
 10
2767.861806
 20
91.065795
 11
2798.602184
 21
91.065795
  0
LINE
  8
CSLAYER1
  6
CONTINUOUS
 62
     3
 10
2766.641492
 20
89.465795
 11
2799.651561
 21
89.465795
  0
LINE
  8
CSLAYER1
  6
CONTINUOUS
 62
     3
 10
2765.949600
 20
87.865795
 11
2800.377436
 21
87.865795
  0
LINE
  8
CSLAYER1
  6
CONTINUOUS
 62
     3
 10
2765.257708
 20
86.265795
 11
2800.715822
 21
86.265795
  0
LINE
  8
CSLAYER1
  6
CONTINUOUS
 62
     3
 10
2764.609358
 20
84.665795
 11
2801.054208
 21
84.665795
  0
LINE
  8
CSLAYER1
  6
CONTINUOUS
 62
     3
 10
2764.287699
 20
83.065795
 11
2801.392594
 21
83.065795
  0
LINE
  8
CSLAYER1
  6
CONTINUOUS
 62
     3
 10
2763.966040
 20
81.465795
 11
2779.556283
 21
81.465795
  0
LINE
  8
CSLAYER1
  6
CONTINUOUS
 62
     3
 10
2763.644381
 20
79.865795
 11
2778.024022
 21
79.865795
  0
LINE
  8
CSLAYER1
  6
CONTINUOUS
 62
     3
 10
2763.322722
 20
78.265795
 11
2777.235852
 21
78.265795
  0
LINE
  8
CSLAYER1
  6
CONTINUOUS
 62
     3
 10
2763.081604
 20
76.665795
 11
2776.917085
 21
76.665795
  0
LINE
  8
CSLAYER1
  6
CONTINUOUS
 62
     3
 10
2762.961434
 20
75.065795
 11
2776.967106
 21
75.065795
  0
LINE
  8
CSLAYER1
  6
CONTINUOUS
 62
     3
 10
2762.936412
 20
73.465795
 11
2777.513193
 21
73.465795
  0
LINE
  8
CSLAYER1
  6
CONTINUOUS
 62
     3
 10
2763.435600
 20
71.865795
 11
2779.543195
 21
71.865795
  0
LINE
  8
CSLAYER1
  6
CONTINUOUS
 62
     3
 10
2764.146711
 20
70.265795
 11
2796.674567
 21
70.265795
  0
LINE
  8
CSLAYER1
  6
CONTINUOUS
 62
     3
 10
2764.857823
 20
68.665795
 11
2796.223285
 21
68.665795
  0
LINE
  8
CSLAYER1
  6
CONTINUOUS
 62
     3
 10
2765.568934
 20
67.065795
 11
2795.500261
 21
67.065795
  0
LINE
  8
CSLAYER1
  6
CONTINUOUS
 62
     3
 10
2766.530893
 20
65.465795
 11
2794.602074
 21
65.465795
  0
LINE
  8
CSLAYER1
  6
CONTINUOUS
 62
     3
 10
2767.779354
 20
63.865795
 11
2793.097148
 21
63.865795
  0
LINE
  8
CSLAYER1
  6
CONTINUOUS
 62
     3
 10
2769.384774
 20
62.265795
 11
2790.704687
 21
62.265795
  0
LINE
  8
CSLAYER1
  6
CONTINUOUS
 62
     3
 10
2771.531916
 20
60.665795
 11
2787.579564
 21
60.665795
  0
LINE
  8
CSLAYER1
  6
CONTINUOUS
 62
     3
 10
2774.779606
 20
59.065795
 11
2782.941415
 21
59.065795
  0
LINE
  8
CSLAYER1
  6
CONTINUOUS
 62
     3
 10
2784.748107
 20
81.465795
 11
2801.567844
 21
81.465795
  0
LINE
  8
CSLAYER1
  6
CONTINUOUS
 62
     3
 10
2785.418851
 20
79.865795
 11
2801.442074
 21
79.865795
  0
LINE
  8
CSLAYER1
  6
CONTINUOUS
 62
     3
 10
2785.530858
 20
78.265795
 11
2801.316305
 21
78.265795
  0
LINE
  8
CSLAYER1
  6
CONTINUOUS
 62
     3
 10
2785.285501
 20
76.665795
 11
2800.602449
 21
76.665795
  0
LINE
  8
CSLAYER1
  6
CONTINUOUS
 62
     3
 10
2784.633855
 20
75.065795
 11
2799.881249
 21
75.065795
  0
LINE
  8
CSLAYER1
  6
CONTINUOUS
 62
     3
 10
2783.500592
 20
73.465795
 11
2798.947301
 21
73.465795
  0
LINE
  8
CSLAYER1
  6
CONTINUOUS
 62
     3
 10
2781.244595
 20
71.865795
 11
2797.676594
 21
71.865795
  0
TEXT
  8
CSLAYER1
 62
     5
 10
2802.108183
 20
79.476970
 40
4.713448
 41
1.951056
  1
M
 50
0.000000
 51
0.000000
  7
EASYDRAW_FONT
 72
     5
 11
2808.238985
 21
79.476970
  0
TEXT
  8
CSLAYER1
 62
     5
 10
2811.759570
 20
79.418700
 40
4.626621
 41
0.778201
  1
T
 50
0.000000
 51
0.000000
  7
EASYDRAW_FONT
 72
     5
 11
2814.159863
 21
79.418700
  0
TEXT
  8
CSLAYER1
 62
     5
 10
2814.525133
 20
79.453499
 40
4.696183
 41
1.055553
  1
E
 50
0.000000
 51
0.000000
  7
EASYDRAW_FONT
 72
     5
 11
2817.829848
 21
79.453499
  0
TEXT
  8
CSLAYER1
 62
     5
 10
2817.641314
 20
81.069343
 40
0.348283
 41
9.375319
  1
-
 50
0.000000
 51
0.000000
  7
EASYDRAW_FONT
 72
     5
 11
2819.818159
 21
81.069343
  0
TEXT
  8
CSLAYER1
 62
     5
 10
2819.455523
 20
79.422152
 40
4.861659
 41
1.298502
  1
H
 50
0.000000
 51
0.000000
  7
EASYDRAW_FONT
 72
     5
 11
2823.664106
 21
79.422152
  0
TEXT
  8
CSLAYER1
 62
     5
 10
2823.531538
 20
79.452530
 40
4.843139
 41
1.269236
  1
A
 50
0.000000
 51
0.000000
  7
EASYDRAW_FONT
 72
     5
 11
2827.629595
 21
79.452530
  0
TEXT
  8
CSLAYER1
 62
     5
 10
2827.237694
 20
79.411004
 40
4.825362
 41
1.490144
  1
N
 50
0.000000
 51
0.000000
  7
EASYDRAW_FONT
 72
     5
 11
2832.031349
 21
79.411004
  0
TEXT
  8
CSLAYER1
 62
     5
 10
2808.029152
 20
79.388431
 40
4.982325
 41
1.177443
  1
A
 50
0.000000
 51
0.000000
  7
EASYDRAW_FONT
 72
     5
 11
2811.940086
 21
79.388431
  0
TEXT
  8
CSLAYER1
 62
     5
 10
2802.475197
 20
72.393191
 40
4.982325
 41
1.177443
  1
A
 50
0.000000
 51
0.000000
  7
EASYDRAW_FONT
 72
     5
 11
2806.386131
 21
72.393191
  0
TEXT
  8
CSLAYER1
 62
     5
 10
2815.259621
 20
72.421512
 40
4.982325
 41
1.177443
  1
A
 50
0.000000
 51
0.000000
  7
EASYDRAW_FONT
 72
     5
 11
2819.170555
 21
72.421512
  0
TEXT
  8
CSLAYER1
 62
     5
 10
2819.020165
 20
72.478509
 40
4.825362
 41
1.490144
  1
N
 50
0.000000
 51
0.000000
  7
EASYDRAW_FONT
 72
     5
 11
2823.813819
 21
72.478509
  0
TEXT
  8
CSLAYER1
 62
     5
 10
2827.922501
 20
72.486903
 40
4.841775
 41
1.184218
  1
E
 50
0.000000
 51
0.000000
  7
EASYDRAW_FONT
 72
     5
 11
2831.744980
 21
72.486903
  0
TEXT
  8
CSLAYER1
 62
     5
 10
2806.755750
 20
72.391867
 40
4.947865
 41
1.093992
  1
D
 50
0.000000
 51
0.000000
  7
EASYDRAW_FONT
 72
     5
 11
2810.364367
 21
72.391867
  0
TEXT
  8
CSLAYER1
 62
     5
 10
2811.158109
 20
72.386482
 40
4.924210
 41
1.228195
  1
V
 50
0.000000
 51
0.000000
  7
EASYDRAW_FONT
 72
     5
 11
2815.190036
 21
72.386482
  0
TEXT
  8
CSLAYER1
 62
     5
 10
2823.383310
 20
72.407213
 40
5.032894
 41
1.481023
  1
C
 50
0.000000
 51
0.000000
  7
EASYDRAW_FONT
 72
     5
 11
2828.352530
 21
72.407213
  0
LINE
  8
CSLAYER1
  6
CONTINUOUS
 62
     5
 10
2814.013749
 20
83.467612
 11
2813.001687
 21
83.467612
  0
LINE
  8
CSLAYER1
  6
CONTINUOUS
 62
     3
 10
2763.111987
 20
117.692883
 11
2812.909813
 21
117.692883
  0
LINE
  8
CSLAYER1
  6
CONTINUOUS
 62
     3
 10
2755.999623
 20
116.092883
 11
2823.989505
 21
116.092883
  0
LINE
  8
CSLAYER1
  6
CONTINUOUS
 62
     3
 10
2748.551219
 20
114.492883
 11
2793.974529
 21
114.492883
  0
LINE
  8
CSLAYER1
  6
CONTINUOUS
 62
     3
 10
2806.936079
 20
114.492883
 11
2816.522682
 21
114.492883
  0
LINE
  8
CSLAYER1
  6
CONTINUOUS
 62
     3
 10
2820.831816
 20
114.492883
 11
2829.344813
 21
114.492883
  0
LINE
  8
CSLAYER1
  6
CONTINUOUS
 62
     3
 10
2749.954358
 20
112.892883
 11
2806.660827
 21
112.892883
  0
LINE
  8
CSLAYER1
  6
CONTINUOUS
 62
     3
 10
2826.840965
 20
112.892883
 11
2832.947211
 21
112.892883
  0
LINE
  8
CSLAYER1
  6
CONTINUOUS
 62
     3
 10
2748.042024
 20
111.292883
 11
2820.796375
 21
111.292883
  0
LINE
  8
CSLAYER1
  6
CONTINUOUS
 62
     3
 10
2832.742264
 20
111.292883
 11
2834.975986
 21
111.292883
  0
LINE
  8
CSLAYER1
  6
CONTINUOUS
 62
     3
 10
2746.979799
 20
109.692883
 11
2828.508231
 21
109.692883
  0
LINE
  8
CSLAYER1
  6
CONTINUOUS
 62
     3
 10
2748.655466
 20
108.092883
 11
2833.317540
 21
108.092883
  0
LINE
  8
CSLAYER1
  6
CONTINUOUS
 62
     3
 10
2749.823033
 20
106.492883
 11
2808.936412
 21
106.492883
  0
LINE
  8
CSLAYER1
  6
CONTINUOUS
 62
     3
 10
2824.436177
 20
106.492883
 11
2839.440500
 21
106.492883
  0
LINE
  8
CSLAYER1
  6
CONTINUOUS
 62
     3
 10
2750.068157
 20
104.892883
 11
2785.436412
 21
104.892883
  0
LINE
  8
CSLAYER1
  6
CONTINUOUS
 62
     3
 10
2832.005106
 20
104.892883
 11
2841.527709
 21
104.892883
  0
LINE
  8
CSLAYER1
  6
CONTINUOUS
 62
     3
 10
2750.274482
 20
103.292883
 11
2763.739655
 21
103.292883
  0
LINE
  8
CSLAYER1
  6
CONTINUOUS
 62
     3
 10
2839.465455
 20
103.292883
 11
2845.950473
 21
103.292883
  0
LINE
  8
CSLAYER1
  6
CONTINUOUS
 62
     3
 10
2847.528449
 20
101.692883
 11
2849.697303
 21
101.692883
  0
ENDBLK
  8
0
  0
BLOCK
  8
CSLAYER1
  2
BLKF0001
 70
   64
 10
0.0
 20
0.0
 30
0.0
  0
LINE
  8
CSLAYER1
  6
CONTINUOUS
 62
     3
 10
760.315649
 20
1791.649310
 11
760.315649
 21
1729.649310
  0
LINE
  8
CSLAYER1
  6
CONTINUOUS
 62
     3
 10
757.815649
 20
1794.149310
 11
672.815649
 21
1794.149310
  0
LINE
  8
CSLAYER1
  6
CENTER
 62
     5
 10
818.665288
 20
1721.649310
 11
760.315649
 21
1721.649310
  0
LINE
  8
CSLAYER1
  6
CONTINUOUS
 62
     2
 10
757.815649
 20
1737.649310
 11
672.815649
 21
1737.649310
  0
LINE
  8
CSLAYER1
  6
CONTINUOUS
 62
     3
 10
757.815649
 20
1789.149310
 11
757.815649
 21
1744.149310
  0
LINE
  8
CSLAYER1
  6
CONTINUOUS
 62
     3
 10
670.315649
 20
1791.649310
 11
670.315649
 21
1721.649310
  0
LINE
  8
CSLAYER1
  6
CONTINUOUS
 62
     3
 10
755.315649
 20
1791.649310
 11
678.315649
 21
1791.649310
  0
LINE
  8
CSLAYER1
  6
CONTINUOUS
 62
     3
 10
755.315649
 20
1741.649310
 11
678.315649
 21
1741.649310
  0
ARC
  8
CSLAYER1
  6
CONTINUOUS
 62
     3
 10
732.383831
 20
1766.649310
 40
59.568182
 50
155.185163
 51
204.814837
  0
ARC
  8
CSLAYER1
  6
CONTINUOUS
 62
     3
 10
755.315649
 20
1789.149310
 40
2.500000
 50
0.000000
 51
90.000000
  0
ARC
  8
CSLAYER1
  6
CONTINUOUS
 62
     3
 10
755.315649
 20
1744.149310
 40
2.500000
 50
-90.000000
 51
0.000000
  0
ARC
  8
CSLAYER1
  6
CONTINUOUS
 62
     3
 10
757.815649
 20
1791.649310
 40
2.500000
 50
0.000000
 51
90.000000
  0
ARC
  8
CSLAYER1
  6
CONTINUOUS
 62
     3
 10
672.815649
 20
1791.649310
 40
2.500000
 50
90.000000
 51
180.000000
  0
ARC
  8
CSLAYER1
  6
CONTINUOUS
 62
     2
 10
672.815649
 20
1735.149310
 40
2.500000
 50
90.000000
 51
180.000000
  0
ARC
  8
CSLAYER1
  6
CONTINUOUS
 62
     2
 10
757.815649
 20
1735.149310
 40
2.500000
 50
0.000000
 51
90.000000
  0
LINE
  8
CSLAYER1
  6
CONTINUOUS
 62
     3
 10
760.315649
 20
1651.649310
 11
760.315649
 21
1713.649310
  0
LINE
  8
CSLAYER1
  6
CONTINUOUS
 62
     3
 10
757.815649
 20
1649.149310
 11
672.815649
 21
1649.149310
  0
LINE
  8
CSLAYER1
  6
CONTINUOUS
 62
     2
 10
757.815649
 20
1705.649310
 11
672.815649
 21
1705.649310
  0
LINE
  8
CSLAYER1
  6
CONTINUOUS
 62
     3
 10
670.315649
 20
1651.649310
 11
670.315649
 21
1721.649310
  0
ARC
  8
CSLAYER1
  6
CONTINUOUS
 62
     3
 10
757.815649
 20
1651.649310
 40
2.500000
 50
-90.000000
 51
0.000000
  0
ARC
  8
CSLAYER1
  6
CONTINUOUS
 62
     3
 10
672.815649
 20
1651.649310
 40
2.500000
 50
180.000000
 51
270.000000
  0
ARC
  8
CSLAYER1
  6
CONTINUOUS
 62
     2
 10
672.815649
 20
1708.149310
 40
2.500000
 50
180.000000
 51
270.000000
  0
ARC
  8
CSLAYER1
  6
CONTINUOUS
 62
     2
 10
757.815649
 20
1708.149310
 40
2.500000
 50
-90.000000
 51
0.000000
  0
LINE
  8
CSLAYER1
  6
CONTINUOUS
 62
     3
 10
757.815649
 20
1654.149310
 11
757.815649
 21
1699.149310
  0
LINE
  8
CSLAYER1
  6
CONTINUOUS
 62
     3
 10
755.315649
 20
1651.649310
 11
678.315649
 21
1651.649310
  0
LINE
  8
CSLAYER1
  6
CONTINUOUS
 62
     3
 10
755.315649
 20
1701.649310
 11
678.315649
 21
1701.649310
  0
ARC
  8
CSLAYER1
  6
CONTINUOUS
 62
     3
 10
732.383831
 20
1676.649310
 40
59.568182
 50
155.185163
 51
204.814837
  0
ARC
  8
CSLAYER1
  6
CONTINUOUS
 62
     3
 10
755.315649
 20
1654.149310
 40
2.500000
 50
-90.000000
 51
0.000000
  0
ARC
  8
CSLAYER1
  6
CONTINUOUS
 62
     3
 10
755.315649
 20
1699.149310
 40
2.500000
 50
0.000000
 51
90.000000
  0
LINE
  8
CSLAYER1
  6
CONTINUOUS
 62
     3
 10
767.315649
 20
1714.649310
 11
767.315649
 21
1718.149310
  0
LINE
  8
CSLAYER1
  6
CONTINUOUS
 62
     3
 10
818.665288
 20
1718.149310
 11
767.315649
 21
1718.149310
  0
LINE
  8
CSLAYER1
  6
CONTINUOUS
 62
     3
 10
766.315649
 20
1713.649310
 11
760.315649
 21
1713.649310
  0
LINE
  8
CSLAYER1
  6
CONTINUOUS
 62
     3
 10
766.315649
 20
1729.649310
 11
760.315649
 21
1729.649310
  0
LINE
  8
CSLAYER1
  6
CONTINUOUS
 62
     3
 10
818.665288
 20
1725.149310
 11
767.315649
 21
1725.149310
  0
ARC
  8
CSLAYER1
  6
CONTINUOUS
 62
     3
 10
766.315649
 20
1728.649310
 40
1.000000
 50
0.000000
 51
90.000000
  0
ARC
  8
CSLAYER1
  6
CONTINUOUS
 62
     3
 10
766.315649
 20
1714.649310
 40
1.000000
 50
-90.000000
 51
0.000000
  0
LINE
  8
CSLAYER1
  6
CONTINUOUS
 62
     3
 10
767.315649
 20
1725.149310
 11
767.315649
 21
1728.649310
  0
LINE
  8
CSLAYER1
  6
CONTINUOUS
 62
     2
 10
767.315649
 20
1718.149310
 11
767.315649
 21
1725.149310
  0
LINE
  8
CSLAYER1
  6
CONTINUOUS
 62
     2
 10
760.315649
 20
1729.649310
 11
760.315649
 21
1721.649310
  0
LINE
  8
CSLAYER1
  6
CONTINUOUS
 62
     2
 10
760.315649
 20
1713.649310
 11
760.315649
 21
1721.649310
  0
LINE
  8
CSLAYER1
  6
CONTINUOUS
 62
     2
 10
740.822638
 20
1733.811970
 11
749.957638
 21
1733.811970
  0
LINE
  8
CSLAYER1
  6
CONTINUOUS
 62
     2
 10
740.822638
 20
1710.186970
 11
749.957638
 21
1710.186970
  0
LINE
  8
CSLAYER1
  6
CONTINUOUS
 62
     2
 10
751.217638
 20
1732.551970
 11
751.217638
 21
1711.446970
  0
LINE
  8
CSLAYER1
  6
CONTINUOUS
 62
     2
 10
739.562638
 20
1732.551970
 11
739.562638
 21
1711.446970
  0
LINE
  8
CSLAYER1
  6
CONTINUOUS
 62
     2
 10
741.452638
 20
1712.076970
 11
749.485138
 21
1712.076970
  0
LINE
  8
CSLAYER1
  6
CONTINUOUS
 62
     2
 10
741.452638
 20
1715.226970
 11
742.397638
 21
1715.226970
  0
LINE
  8
CSLAYER1
  6
CONTINUOUS
 62
     2
 10
741.452638
 20
1723.889470
 11
742.397638
 21
1723.889470
  0
LINE
  8
CSLAYER1
  6
CONTINUOUS
 62
     2
 10
741.452638
 20
1728.456970
 11
746.492638
 21
1728.456970
  0
LINE
  8
CSLAYER1
  6
CONTINUOUS
 62
     2
 10
740.350138
 20
1727.354470
 11
740.350138
 21
1724.991970
  0
LINE
  8
CSLAYER1
  6
CONTINUOUS
 62
     2
 10
747.595138
 20
1727.354470
 11
747.595138
 21
1724.991970
  0
LINE
  8
CSLAYER1
  6
CONTINUOUS
 62
     2
 10
750.587638
 20
1714.124470
 11
750.587638
 21
1713.179470
  0
LINE
  8
CSLAYER1
  6
CONTINUOUS
 62
     2
 10
743.342638
 20
1722.944470
 11
743.342638
 21
1716.171970
  0
LINE
  8
CSLAYER1
  6
CONTINUOUS
 62
     2
 10
744.130138
 20
1722.944470
 11
744.130138
 21
1716.171970
  0
ARC
  8
CSLAYER1
  6
CONTINUOUS
 62
     2
 10
741.452638
 20
1727.354470
 40
1.102500
 50
90.000000
 51
180.000000
  0
ARC
  8
CSLAYER1
  6
CONTINUOUS
 62
     2
 10
746.492638
 20
1727.354470
 40
1.102500
 50
0.000000
 51
90.000000
  0
ARC
  8
CSLAYER1
  6
CONTINUOUS
 62
     2
 10
746.492638
 20
1724.991970
 40
1.102500
 50
-90.000000
 51
0.000000
  0
ARC
  8
CSLAYER1
  6
CONTINUOUS
 62
     2
 10
741.452638
 20
1724.991970
 40
1.102500
 50
180.000000
 51
270.000000
  0
ARC
  8
CSLAYER1
  6
CONTINUOUS
 62
     2
 10
749.485138
 20
1714.124470
 40
1.102500
 50
0.000000
 51
90.000000
  0
ARC
  8
CSLAYER1
  6
CONTINUOUS
 62
     2
 10
749.485138
 20
1713.179470
 40
1.102500
 50
-90.000000
 51
0.000000
  0
ARC
  8
CSLAYER1
  6
CONTINUOUS
 62
     2
 10
741.452638
 20
1713.179470
 40
1.102500
 50
180.000000
 51
270.000000
  0
ARC
  8
CSLAYER1
  6
CONTINUOUS
 62
     2
 10
741.452638
 20
1714.124470
 40
1.102500
 50
90.000000
 51
180.000000
  0
LINE
  8
CSLAYER1
  6
CONTINUOUS
 62
     2
 10
745.075138
 20
1723.889470
 11
746.492638
 21
1723.889470
  0
LINE
  8
CSLAYER1
  6
CONTINUOUS
 62
     2
 10
745.075138
 20
1715.226970
 11
749.485138
 21
1715.226970
  0
ARC
  8
CSLAYER1
  6
CONTINUOUS
 62
     2
 10
742.397638
 20
1722.944470
 40
0.945000
 50
0.000000
 51
90.000000
  0
ARC
  8
CSLAYER1
  6
CONTINUOUS
 62
     2
 10
745.075138
 20
1722.944470
 40
0.945000
 50
90.000000
 51
180.000000
  0
ARC
  8
CSLAYER1
  6
CONTINUOUS
 62
     2
 10
745.075138
 20
1716.171970
 40
0.945000
 50
180.000000
 51
270.000000
  0
ARC
  8
CSLAYER1
  6
CONTINUOUS
 62
     2
 10
740.822638
 20
1732.551970
 40
1.260000
 50
90.000000
 51
180.000000
  0
ARC
  8
CSLAYER1
  6
CONTINUOUS
 62
     2
 10
749.957638
 20
1732.551970
 40
1.260000
 50
0.000000
 51
90.000000
  0
ARC
  8
CSLAYER1
  6
CONTINUOUS
 62
     2
 10
749.957638
 20
1711.446970
 40
1.260000
 50
-90.000000
 51
0.000000
  0
ARC
  8
CSLAYER1
  6
CONTINUOUS
 62
     2
 10
740.822638
 20
1711.446970
 40
1.260000
 50
180.000000
 51
270.000000
  0
ARC
  8
CSLAYER1
  6
CONTINUOUS
 62
     2
 10
742.397638
 20
1716.171970
 40
0.945000
 50
-90.000000
 51
0.000000
  0
LINE
  8
CSLAYER1
  6
CONTINUOUS
 62
     2
 10
740.350138
 20
1714.124470
 11
740.350138
 21
1713.179470
  0
CIRCLE
  8
CSLAYER1
  6
CONTINUOUS
 62
     2
 10
725.815649
 20
1771.649310
 40
2.500000
  0
CIRCLE
  8
CSLAYER1
  6
CONTINUOUS
 62
     2
 10
725.815649
 20
1781.649310
 40
2.500000
  0
CIRCLE
  8
CSLAYER1
  6
CONTINUOUS
 62
     2
 10
715.815649
 20
1781.649310
 40
2.500000
  0
CIRCLE
  8
CSLAYER1
  6
CONTINUOUS
 62
     2
 10
715.815649
 20
1771.649310
 40
2.500000
  0
CIRCLE
  8
CSLAYER1
  6
CONTINUOUS
 62
     2
 10
705.815649
 20
1771.649310
 40
2.500000
  0
CIRCLE
  8
CSLAYER1
  6
CONTINUOUS
 62
     2
 10
705.815649
 20
1781.649310
 40
2.500000
  0
CIRCLE
  8
CSLAYER1
  6
CONTINUOUS
 62
     2
 10
695.815649
 20
1781.649310
 40
2.500000
  0
CIRCLE
  8
CSLAYER1
  6
CONTINUOUS
 62
     2
 10
695.815649
 20
1771.649310
 40
2.500000
  0
CIRCLE
  8
CSLAYER1
  6
CONTINUOUS
 62
     2
 10
685.815649
 20
1771.649310
 40
2.500000
  0
CIRCLE
  8
CSLAYER1
  6
CONTINUOUS
 62
     2
 10
685.815649
 20
1781.649310
 40
2.500000
  0
CIRCLE
  8
CSLAYER1
  6
CONTINUOUS
 62
     2
 10
725.815649
 20
1761.649310
 40
2.500000
  0
CIRCLE
  8
CSLAYER1
  6
CONTINUOUS
 62
     2
 10
725.815649
 20
1751.649310
 40
2.500000
  0
CIRCLE
  8
CSLAYER1
  6
CONTINUOUS
 62
     2
 10
715.815649
 20
1751.649310
 40
2.500000
  0
CIRCLE
  8
CSLAYER1
  6
CONTINUOUS
 62
     2
 10
715.815649
 20
1761.649310
 40
2.500000
  0
CIRCLE
  8
CSLAYER1
  6
CONTINUOUS
 62
     2
 10
705.815649
 20
1761.649310
 40
2.500000
  0
CIRCLE
  8
CSLAYER1
  6
CONTINUOUS
 62
     2
 10
705.815649
 20
1751.649310
 40
2.500000
  0
CIRCLE
  8
CSLAYER1
  6
CONTINUOUS
 62
     2
 10
695.815649
 20
1751.649310
 40
2.500000
  0
CIRCLE
  8
CSLAYER1
  6
CONTINUOUS
 62
     2
 10
695.815649
 20
1761.649310
 40
2.500000
  0
CIRCLE
  8
CSLAYER1
  6
CONTINUOUS
 62
     2
 10
685.815649
 20
1761.649310
 40
2.500000
  0
CIRCLE
  8
CSLAYER1
  6
CONTINUOUS
 62
     2
 10
685.815649
 20
1751.649310
 40
2.500000
  0
CIRCLE
  8
CSLAYER1
  6
CONTINUOUS
 62
     2
 10
725.815649
 20
1671.649310
 40
2.500000
  0
CIRCLE
  8
CSLAYER1
  6
CONTINUOUS
 62
     2
 10
725.815649
 20
1661.649310
 40
2.500000
  0
CIRCLE
  8
CSLAYER1
  6
CONTINUOUS
 62
     2
 10
715.815649
 20
1661.649310
 40
2.500000
  0
CIRCLE
  8
CSLAYER1
  6
CONTINUOUS
 62
     2
 10
715.815649
 20
1671.649310
 40
2.500000
  0
CIRCLE
  8
CSLAYER1
  6
CONTINUOUS
 62
     2
 10
705.815649
 20
1671.649310
 40
2.500000
  0
CIRCLE
  8
CSLAYER1
  6
CONTINUOUS
 62
     2
 10
705.815649
 20
1661.649310
 40
2.500000
  0
CIRCLE
  8
CSLAYER1
  6
CONTINUOUS
 62
     2
 10
695.815649
 20
1661.649310
 40
2.500000
  0
CIRCLE
  8
CSLAYER1
  6
CONTINUOUS
 62
     2
 10
695.815649
 20
1671.649310
 40
2.500000
  0
CIRCLE
  8
CSLAYER1
  6
CONTINUOUS
 62
     2
 10
685.815649
 20
1671.649310
 40
2.500000
  0
CIRCLE
  8
CSLAYER1
  6
CONTINUOUS
 62
     2
 10
685.815649
 20
1661.649310
 40
2.500000
  0
CIRCLE
  8
CSLAYER1
  6
CONTINUOUS
 62
     2
 10
725.815649
 20
1681.649310
 40
2.500000
  0
CIRCLE
  8
CSLAYER1
  6
CONTINUOUS
 62
     2
 10
725.815649
 20
1691.649310
 40
2.500000
  0
CIRCLE
  8
CSLAYER1
  6
CONTINUOUS
 62
     2
 10
715.815649
 20
1691.649310
 40
2.500000
  0
CIRCLE
  8
CSLAYER1
  6
CONTINUOUS
 62
     2
 10
715.815649
 20
1681.649310
 40
2.500000
  0
CIRCLE
  8
CSLAYER1
  6
CONTINUOUS
 62
     2
 10
705.815649
 20
1681.649310
 40
2.500000
  0
CIRCLE
  8
CSLAYER1
  6
CONTINUOUS
 62
     2
 10
705.815649
 20
1691.649310
 40
2.500000
  0
CIRCLE
  8
CSLAYER1
  6
CONTINUOUS
 62
     2
 10
695.815649
 20
1691.649310
 40
2.500000
  0
CIRCLE
  8
CSLAYER1
  6
CONTINUOUS
 62
     2
 10
695.815649
 20
1681.649310
 40
2.500000
  0
CIRCLE
  8
CSLAYER1
  6
CONTINUOUS
 62
     2
 10
685.815649
 20
1681.649310
 40
2.500000
  0
CIRCLE
  8
CSLAYER1
  6
CONTINUOUS
 62
     2
 10
685.815649
 20
1691.649310
 40
2.500000
  0
LINE
  8
CSLAYER1
  6
CONTINUOUS
 62
     2
 10
751.815649
 20
1694.149310
 11
751.815649
 21
1659.149310
  0
LINE
  8
CSLAYER1
  6
CONTINUOUS
 62
     2
 10
735.815649
 20
1694.149310
 11
735.815649
 21
1659.149310
  0
LINE
  8
CSLAYER1
  6
CONTINUOUS
 62
     2
 10
750.315649
 20
1695.649310
 11
737.315649
 21
1695.649310
  0
LINE
  8
CSLAYER1
  6
CONTINUOUS
 62
     2
 10
750.815649
 20
1694.149310
 11
750.815649
 21
1659.149310
  0
LINE
  8
CSLAYER1
  6
CONTINUOUS
 62
     2
 10
736.815649
 20
1694.149310
 11
736.815649
 21
1659.149310
  0
LINE
  8
CSLAYER1
  6
CONTINUOUS
 62
     2
 10
750.315649
 20
1694.649310
 11
737.315649
 21
1694.649310
  0
LINE
  8
CSLAYER1
  6
CONTINUOUS
 62
     2
 10
750.315649
 20
1657.649310
 11
737.315649
 21
1657.649310
  0
LINE
  8
CSLAYER1
  6
CONTINUOUS
 62
     2
 10
750.315649
 20
1658.649310
 11
737.315649
 21
1658.649310
  0
ARC
  8
CSLAYER1
  6
CONTINUOUS
 62
     2
 10
750.315649
 20
1694.149310
 40
0.500000
 50
0.000000
 51
90.000000
  0
ARC
  8
CSLAYER1
  6
CONTINUOUS
 62
     2
 10
737.315649
 20
1694.149310
 40
0.500000
 50
90.000000
 51
180.000000
  0
ARC
  8
CSLAYER1
  6
CONTINUOUS
 62
     2
 10
750.315649
 20
1659.149310
 40
0.500000
 50
-90.000000
 51
0.000000
  0
ARC
  8
CSLAYER1
  6
CONTINUOUS
 62
     2
 10
737.315649
 20
1659.149310
 40
0.500000
 50
180.000000
 51
270.000000
  0
ARC
  8
CSLAYER1
  6
CONTINUOUS
 62
     2
 10
750.315649
 20
1694.149310
 40
1.500000
 50
0.000000
 51
90.000000
  0
ARC
  8
CSLAYER1
  6
CONTINUOUS
 62
     2
 10
737.315649
 20
1694.149310
 40
1.500000
 50
90.000000
 51
180.000000
  0
ARC
  8
CSLAYER1
  6
CONTINUOUS
 62
     2
 10
750.315649
 20
1659.149310
 40
1.500000
 50
-90.000000
 51
0.000000
  0
ARC
  8
CSLAYER1
  6
CONTINUOUS
 62
     2
 10
737.315649
 20
1659.149310
 40
1.500000
 50
180.000000
 51
270.000000
  0
LINE
  8
CSLAYER1
  6
CONTINUOUS
 62
     2
 10
746.815649
 20
1685.649310
 11
746.815649
 21
1667.649310
  0
LINE
  8
CSLAYER1
  6
CONTINUOUS
 62
     2
 10
749.893721
 20
1676.649310
 11
746.815649
 21
1667.649310
  0
LINE
  8
CSLAYER1
  6
CONTINUOUS
 62
     2
 10
749.893721
 20
1676.649310
 11
746.815649
 21
1685.649310
  0
TEXT
  8
CSLAYER1
 62
     2
 10
738.521842
 20
1685.629448
 40
7.066058
 41
1.574983
  1
UP
 50
270.000000
 51
0.000000
  7
EASYDRAW_FONT
 72
     5
 11
738.521842
 21
1667.081245
  0
LINE
  8
CSLAYER1
  6
CONTINUOUS
 62
     2
 10
751.815649
 20
1749.149310
 11
751.815649
 21
1784.149310
  0
LINE
  8
CSLAYER1
  6
CONTINUOUS
 62
     2
 10
735.815649
 20
1749.149310
 11
735.815649
 21
1784.149310
  0
LINE
  8
CSLAYER1
  6
CONTINUOUS
 62
     2
 10
750.315649
 20
1747.649310
 11
737.315649
 21
1747.649310
  0
LINE
  8
CSLAYER1
  6
CONTINUOUS
 62
     2
 10
750.815649
 20
1749.149310
 11
750.815649
 21
1784.149310
  0
LINE
  8
CSLAYER1
  6
CONTINUOUS
 62
     2
 10
736.815649
 20
1749.149310
 11
736.815649
 21
1784.149310
  0
LINE
  8
CSLAYER1
  6
CONTINUOUS
 62
     2
 10
750.315649
 20
1748.649310
 11
737.315649
 21
1748.649310
  0
LINE
  8
CSLAYER1
  6
CONTINUOUS
 62
     2
 10
750.315649
 20
1785.649310
 11
737.315649
 21
1785.649310
  0
LINE
  8
CSLAYER1
  6
CONTINUOUS
 62
     2
 10
750.315649
 20
1784.649310
 11
737.315649
 21
1784.649310
  0
ARC
  8
CSLAYER1
  6
CONTINUOUS
 62
     2
 10
750.315649
 20
1749.149310
 40
0.500000
 50
-90.000000
 51
0.000000
  0
ARC
  8
CSLAYER1
  6
CONTINUOUS
 62
     2
 10
737.315649
 20
1749.149310
 40
0.500000
 50
180.000000
 51
270.000000
  0
ARC
  8
CSLAYER1
  6
CONTINUOUS
 62
     2
 10
750.315649
 20
1784.149310
 40
0.500000
 50
0.000000
 51
90.000000
  0
ARC
  8
CSLAYER1
  6
CONTINUOUS
 62
     2
 10
737.315649
 20
1784.149310
 40
0.500000
 50
90.000000
 51
180.000000
  0
ARC
  8
CSLAYER1
  6
CONTINUOUS
 62
     2
 10
750.315649
 20
1749.149310
 40
1.500000
 50
-90.000000
 51
0.000000
  0
ARC
  8
CSLAYER1
  6
CONTINUOUS
 62
     2
 10
737.315649
 20
1749.149310
 40
1.500000
 50
180.000000
 51
270.000000
  0
ARC
  8
CSLAYER1
  6
CONTINUOUS
 62
     2
 10
750.315649
 20
1784.149310
 40
1.500000
 50
0.000000
 51
90.000000
  0
ARC
  8
CSLAYER1
  6
CONTINUOUS
 62
     2
 10
737.315649
 20
1784.149310
 40
1.500000
 50
90.000000
 51
180.000000
  0
LINE
  8
CSLAYER1
  6
CONTINUOUS
 62
     2
 10
741.342719
 20
1757.649310
 11
741.342719
 21
1775.649310
  0
LINE
  8
CSLAYER1
  6
CONTINUOUS
 62
     2
 10
738.264647
 20
1766.649310
 11
741.342719
 21
1775.649310
  0
LINE
  8
CSLAYER1
  6
CONTINUOUS
 62
     2
 10
738.264647
 20
1766.649310
 11
741.342719
 21
1757.649310
  0
TEXT
  8
CSLAYER1
 62
     2
 10
742.952683
 20
1781.347017
 40
6.383575
 41
1.255870
  1
DOWN
 50
270.000000
 51
0.000000
  7
EASYDRAW_FONT
 72
     5
 11
742.952683
 21
1751.951567
  0
ENDBLK
  8
0
  0
BLOCK
  8
CSLAYER1
  2
BLKF0002
 70
   64
 10
0.0
 20
0.0
 30
0.0
  0
LINE
  8
CSLAYER1
  6
CONTINUOUS
 62
     5
 10
851.315649
 20
532.601140
 11
851.296623
 21
532.851092
  0
LINE
  8
CSLAYER1
  6
CONTINUOUS
 62
     5
 10
851.296623
 20
532.851092
 11
851.239688
 21
533.099142
  0
LINE
  8
CSLAYER1
  6
CONTINUOUS
 62
     5
 10
851.239688
 20
533.099142
 11
851.145279
 21
533.343402
  0
LINE
  8
CSLAYER1
  6
CONTINUOUS
 62
     5
 10
851.145279
 20
533.343402
 11
851.014113
 21
533.582013
  0
LINE
  8
CSLAYER1
  6
CONTINUOUS
 62
     5
 10
851.014113
 20
533.582013
 11
850.847188
 21
533.813159
  0
LINE
  8
CSLAYER1
  6
CONTINUOUS
 62
     5
 10
850.847188
 20
533.813159
 11
850.645776
 21
534.035081
  0
LINE
  8
CSLAYER1
  6
CONTINUOUS
 62
     5
 10
850.645776
 20
534.035081
 11
850.411410
 21
534.246089
  0
LINE
  8
CSLAYER1
  6
CONTINUOUS
 62
     5
 10
850.411410
 20
534.246089
 11
850.145872
 21
534.444579
  0
LINE
  8
CSLAYER1
  6
CONTINUOUS
 62
     5
 10
850.145872
 20
534.444579
 11
849.851183
 21
534.629039
  0
LINE
  8
CSLAYER1
  6
CONTINUOUS
 62
     5
 10
849.851183
 20
534.629039
 11
849.529587
 21
534.798065
  0
LINE
  8
CSLAYER1
  6
CONTINUOUS
 62
     5
 10
849.529587
 20
534.798065
 11
849.183532
 21
534.950371
  0
LINE
  8
CSLAYER1
  6
CONTINUOUS
 62
     5
 10
849.183532
 20
534.950371
 11
848.815649
 21
535.084798
  0
LINE
  8
CSLAYER1
  6
CONTINUOUS
 62
     5
 10
848.815649
 20
535.084798
 11
848.428741
 21
535.200324
  0
LINE
  8
CSLAYER1
  6
CONTINUOUS
 62
     5
 10
848.428741
 20
535.200324
 11
848.025750
 21
535.296067
  0
LINE
  8
CSLAYER1
  6
CONTINUOUS
 62
     5
 10
848.025750
 20
535.296067
 11
847.609745
 21
535.371301
  0
LINE
  8
CSLAYER1
  6
CONTINUOUS
 62
     5
 10
847.609745
 20
535.371301
 11
847.183890
 21
535.425452
  0
LINE
  8
CSLAYER1
  6
CONTINUOUS
 62
     5
 10
847.183890
 20
535.425452
 11
846.751428
 21
535.458109
  0
LINE
  8
CSLAYER1
  6
CONTINUOUS
 62
     5
 10
846.751428
 20
535.458109
 11
846.315649
 21
535.469022
  0
LINE
  8
CSLAYER1
  6
CONTINUOUS
 62
     5
 10
846.315649
 20
535.469022
 11
845.879871
 21
535.458109
  0
LINE
  8
CSLAYER1
  6
CONTINUOUS
 62
     5
 10
845.879871
 20
535.458109
 11
845.447409
 21
535.425452
  0
LINE
  8
CSLAYER1
  6
CONTINUOUS
 62
     5
 10
845.447409
 20
535.425452
 11
845.021554
 21
535.371301
  0
LINE
  8
CSLAYER1
  6
CONTINUOUS
 62
     5
 10
845.021554
 20
535.371301
 11
844.605549
 21
535.296067
  0
LINE
  8
CSLAYER1
  6
CONTINUOUS
 62
     5
 10
844.605549
 20
535.296067
 11
844.202558
 21
535.200324
  0
LINE
  8
CSLAYER1
  6
CONTINUOUS
 62
     5
 10
844.202558
 20
535.200324
 11
843.815649
 21
535.084798
  0
LINE
  8
CSLAYER1
  6
CONTINUOUS
 62
     5
 10
843.815649
 20
535.084798
 11
843.447767
 21
534.950371
  0
LINE
  8
CSLAYER1
  6
CONTINUOUS
 62
     5
 10
843.447767
 20
534.950371
 11
843.101711
 21
534.798065
  0
LINE
  8
CSLAYER1
  6
CONTINUOUS
 62
     5
 10
843.101711
 20
534.798065
 11
842.780116
 21
534.629039
  0
LINE
  8
CSLAYER1
  6
CONTINUOUS
 62
     5
 10
842.780116
 20
534.629039
 11
842.485427
 21
534.444579
  0
LINE
  8
CSLAYER1
  6
CONTINUOUS
 62
     5
 10
842.485427
 20
534.444579
 11
842.219889
 21
534.246089
  0
LINE
  8
CSLAYER1
  6
CONTINUOUS
 62
     5
 10
842.219889
 20
534.246089
 11
841.985522
 21
534.035081
  0
LINE
  8
CSLAYER1
  6
CONTINUOUS
 62
     5
 10
841.985522
 20
534.035081
 11
841.784110
 21
533.813159
  0
LINE
  8
CSLAYER1
  6
CONTINUOUS
 62
     5
 10
841.784110
 20
533.813159
 11
841.617186
 21
533.582013
  0
LINE
  8
CSLAYER1
  6
CONTINUOUS
 62
     5
 10
841.617186
 20
533.582013
 11
841.486020
 21
533.343402
  0
LINE
  8
CSLAYER1
  6
CONTINUOUS
 62
     5
 10
841.486020
 20
533.343402
 11
841.391611
 21
533.099142
  0
LINE
  8
CSLAYER1
  6
CONTINUOUS
 62
     5
 10
841.391611
 20
533.099142
 11
841.334676
 21
532.851092
  0
LINE
  8
CSLAYER1
  6
CONTINUOUS
 62
     5
 10
841.334676
 20
532.851092
 11
841.315649
 21
532.601140
  0
LINE
  8
CSLAYER1
  6
CONTINUOUS
 62
     5
 10
841.315649
 20
532.601140
 11
841.334676
 21
532.351187
  0
LINE
  8
CSLAYER1
  6
CONTINUOUS
 62
     5
 10
841.334676
 20
532.351187
 11
841.391611
 21
532.103137
  0
LINE
  8
CSLAYER1
  6
CONTINUOUS
 62
     5
 10
841.391611
 20
532.103137
 11
841.486020
 21
531.858877
  0
LINE
  8
CSLAYER1
  6
CONTINUOUS
 62
     5
 10
841.486020
 20
531.858877
 11
841.617186
 21
531.620266
  0
LINE
  8
CSLAYER1
  6
CONTINUOUS
 62
     5
 10
841.617186
 20
531.620266
 11
841.784110
 21
531.389120
  0
LINE
  8
CSLAYER1
  6
CONTINUOUS
 62
     5
 10
841.784110
 20
531.389120
 11
841.985522
 21
531.167198
  0
LINE
  8
CSLAYER1
  6
CONTINUOUS
 62
     5
 10
841.985522
 20
531.167198
 11
842.219889
 21
530.956190
  0
LINE
  8
CSLAYER1
  6
CONTINUOUS
 62
     5
 10
842.219889
 20
530.956190
 11
842.485427
 21
530.757700
  0
LINE
  8
CSLAYER1
  6
CONTINUOUS
 62
     5
 10
842.485427
 20
530.757700
 11
842.780116
 21
530.573241
  0
LINE
  8
CSLAYER1
  6
CONTINUOUS
 62
     5
 10
842.780116
 20
530.573241
 11
843.101711
 21
530.404214
  0
LINE
  8
CSLAYER1
  6
CONTINUOUS
 62
     5
 10
843.101711
 20
530.404214
 11
843.447767
 21
530.251908
  0
LINE
  8
CSLAYER1
  6
CONTINUOUS
 62
     5
 10
843.447767
 20
530.251908
 11
843.815649
 21
530.117481
  0
LINE
  8
CSLAYER1
  6
CONTINUOUS
 62
     5
 10
843.815649
 20
530.117481
 11
844.202558
 21
530.001956
  0
LINE
  8
CSLAYER1
  6
CONTINUOUS
 62
     5
 10
844.202558
 20
530.001956
 11
844.605549
 21
529.906212
  0
LINE
  8
CSLAYER1
  6
CONTINUOUS
 62
     5
 10
844.605549
 20
529.906212
 11
845.021554
 21
529.830978
  0
LINE
  8
CSLAYER1
  6
CONTINUOUS
 62
     5
 10
845.021554
 20
529.830978
 11
845.447409
 21
529.776827
  0
LINE
  8
CSLAYER1
  6
CONTINUOUS
 62
     5
 10
845.447409
 20
529.776827
 11
845.879871
 21
529.744171
  0
LINE
  8
CSLAYER1
  6
CONTINUOUS
 62
     5
 10
845.879871
 20
529.744171
 11
846.315649
 21
529.733257
  0
LINE
  8
CSLAYER1
  6
CONTINUOUS
 62
     5
 10
846.315649
 20
529.733257
 11
846.751428
 21
529.744171
  0
LINE
  8
CSLAYER1
  6
CONTINUOUS
 62
     5
 10
846.751428
 20
529.744171
 11
847.183890
 21
529.776827
  0
LINE
  8
CSLAYER1
  6
CONTINUOUS
 62
     5
 10
847.183890
 20
529.776827
 11
847.609745
 21
529.830978
  0
LINE
  8
CSLAYER1
  6
CONTINUOUS
 62
     5
 10
847.609745
 20
529.830978
 11
848.025750
 21
529.906212
  0
LINE
  8
CSLAYER1
  6
CONTINUOUS
 62
     5
 10
848.025750
 20
529.906212
 11
848.428741
 21
530.001956
  0
LINE
  8
CSLAYER1
  6
CONTINUOUS
 62
     5
 10
848.428741
 20
530.001956
 11
848.815649
 21
530.117481
  0
LINE
  8
CSLAYER1
  6
CONTINUOUS
 62
     5
 10
848.815649
 20
530.117481
 11
849.183532
 21
530.251908
  0
LINE
  8
CSLAYER1
  6
CONTINUOUS
 62
     5
 10
849.183532
 20
530.251908
 11
849.529587
 21
530.404214
  0
LINE
  8
CSLAYER1
  6
CONTINUOUS
 62
     5
 10
849.529587
 20
530.404214
 11
849.851183
 21
530.573241
  0
LINE
  8
CSLAYER1
  6
CONTINUOUS
 62
     5
 10
849.851183
 20
530.573241
 11
850.145872
 21
530.757700
  0
LINE
  8
CSLAYER1
  6
CONTINUOUS
 62
     5
 10
850.145872
 20
530.757700
 11
850.411410
 21
530.956190
  0
LINE
  8
CSLAYER1
  6
CONTINUOUS
 62
     5
 10
850.411410
 20
530.956190
 11
850.645776
 21
531.167198
  0
LINE
  8
CSLAYER1
  6
CONTINUOUS
 62
     5
 10
850.645776
 20
531.167198
 11
850.847188
 21
531.389120
  0
LINE
  8
CSLAYER1
  6
CONTINUOUS
 62
     5
 10
850.847188
 20
531.389120
 11
851.014113
 21
531.620266
  0
LINE
  8
CSLAYER1
  6
CONTINUOUS
 62
     5
 10
851.014113
 20
531.620266
 11
851.145279
 21
531.858877
  0
LINE
  8
CSLAYER1
  6
CONTINUOUS
 62
     5
 10
851.145279
 20
531.858877
 11
851.239688
 21
532.103137
  0
LINE
  8
CSLAYER1
  6
CONTINUOUS
 62
     5
 10
851.239688
 20
532.103137
 11
851.296623
 21
532.351187
  0
LINE
  8
CSLAYER1
  6
CONTINUOUS
 62
     5
 10
851.296623
 20
532.351187
 11
851.315649
 21
532.601140
  0
ENDBLK
  8
0
  0
BLOCK
  8
CSLAYER1
  2
BLKF0003
 70
   64
 10
0.0
 20
0.0
 30
0.0
  0
LINE
  8
CSLAYER1
  6
CONTINUOUS
 62
     5
 10
423.315649
 20
532.601140
 11
423.334676
 21
532.851092
  0
LINE
  8
CSLAYER1
  6
CONTINUOUS
 62
     5
 10
423.334676
 20
532.851092
 11
423.391611
 21
533.099142
  0
LINE
  8
CSLAYER1
  6
CONTINUOUS
 62
     5
 10
423.391611
 20
533.099142
 11
423.486020
 21
533.343402
  0
LINE
  8
CSLAYER1
  6
CONTINUOUS
 62
     5
 10
423.486020
 20
533.343402
 11
423.617186
 21
533.582013
  0
LINE
  8
CSLAYER1
  6
CONTINUOUS
 62
     5
 10
423.617186
 20
533.582013
 11
423.784110
 21
533.813159
  0
LINE
  8
CSLAYER1
  6
CONTINUOUS
 62
     5
 10
423.784110
 20
533.813159
 11
423.985522
 21
534.035081
  0
LINE
  8
CSLAYER1
  6
CONTINUOUS
 62
     5
 10
423.985522
 20
534.035081
 11
424.219889
 21
534.246089
  0
LINE
  8
CSLAYER1
  6
CONTINUOUS
 62
     5
 10
424.219889
 20
534.246089
 11
424.485427
 21
534.444579
  0
LINE
  8
CSLAYER1
  6
CONTINUOUS
 62
     5
 10
424.485427
 20
534.444579
 11
424.780116
 21
534.629039
  0
LINE
  8
CSLAYER1
  6
CONTINUOUS
 62
     5
 10
424.780116
 20
534.629039
 11
425.101711
 21
534.798065
  0
LINE
  8
CSLAYER1
  6
CONTINUOUS
 62
     5
 10
425.101711
 20
534.798065
 11
425.447767
 21
534.950371
  0
LINE
  8
CSLAYER1
  6
CONTINUOUS
 62
     5
 10
425.447767
 20
534.950371
 11
425.815649
 21
535.084798
  0
LINE
  8
CSLAYER1
  6
CONTINUOUS
 62
     5
 10
425.815649
 20
535.084798
 11
426.202558
 21
535.200324
  0
LINE
  8
CSLAYER1
  6
CONTINUOUS
 62
     5
 10
426.202558
 20
535.200324
 11
426.605549
 21
535.296067
  0
LINE
  8
CSLAYER1
  6
CONTINUOUS
 62
     5
 10
426.605549
 20
535.296067
 11
427.021554
 21
535.371301
  0
LINE
  8
CSLAYER1
  6
CONTINUOUS
 62
     5
 10
427.021554
 20
535.371301
 11
427.447409
 21
535.425452
  0
LINE
  8
CSLAYER1
  6
CONTINUOUS
 62
     5
 10
427.447409
 20
535.425452
 11
427.879871
 21
535.458109
  0
LINE
  8
CSLAYER1
  6
CONTINUOUS
 62
     5
 10
427.879871
 20
535.458109
 11
428.315649
 21
535.469022
  0
LINE
  8
CSLAYER1
  6
CONTINUOUS
 62
     5
 10
428.315649
 20
535.469022
 11
428.751428
 21
535.458109
  0
LINE
  8
CSLAYER1
  6
CONTINUOUS
 62
     5
 10
428.751428
 20
535.458109
 11
429.183890
 21
535.425452
  0
LINE
  8
CSLAYER1
  6
CONTINUOUS
 62
     5
 10
429.183890
 20
535.425452
 11
429.609745
 21
535.371301
  0
LINE
  8
CSLAYER1
  6
CONTINUOUS
 62
     5
 10
429.609745
 20
535.371301
 11
430.025750
 21
535.296067
  0
LINE
  8
CSLAYER1
  6
CONTINUOUS
 62
     5
 10
430.025750
 20
535.296067
 11
430.428741
 21
535.200324
  0
LINE
  8
CSLAYER1
  6
CONTINUOUS
 62
     5
 10
430.428741
 20
535.200324
 11
430.815649
 21
535.084798
  0
LINE
  8
CSLAYER1
  6
CONTINUOUS
 62
     5
 10
430.815649
 20
535.084798
 11
431.183532
 21
534.950371
  0
LINE
  8
CSLAYER1
  6
CONTINUOUS
 62
     5
 10
431.183532
 20
534.950371
 11
431.529587
 21
534.798065
  0
LINE
  8
CSLAYER1
  6
CONTINUOUS
 62
     5
 10
431.529587
 20
534.798065
 11
431.851183
 21
534.629039
  0
LINE
  8
CSLAYER1
  6
CONTINUOUS
 62
     5
 10
431.851183
 20
534.629039
 11
432.145872
 21
534.444579
  0
LINE
  8
CSLAYER1
  6
CONTINUOUS
 62
     5
 10
432.145872
 20
534.444579
 11
432.411410
 21
534.246089
  0
LINE
  8
CSLAYER1
  6
CONTINUOUS
 62
     5
 10
432.411410
 20
534.246089
 11
432.645776
 21
534.035081
  0
LINE
  8
CSLAYER1
  6
CONTINUOUS
 62
     5
 10
432.645776
 20
534.035081
 11
432.847188
 21
533.813159
  0
LINE
  8
CSLAYER1
  6
CONTINUOUS
 62
     5
 10
432.847188
 20
533.813159
 11
433.014113
 21
533.582013
  0
LINE
  8
CSLAYER1
  6
CONTINUOUS
 62
     5
 10
433.014113
 20
533.582013
 11
433.145279
 21
533.343402
  0
LINE
  8
CSLAYER1
  6
CONTINUOUS
 62
     5
 10
433.145279
 20
533.343402
 11
433.239688
 21
533.099142
  0
LINE
  8
CSLAYER1
  6
CONTINUOUS
 62
     5
 10
433.239688
 20
533.099142
 11
433.296623
 21
532.851092
  0
LINE
  8
CSLAYER1
  6
CONTINUOUS
 62
     5
 10
433.296623
 20
532.851092
 11
433.315649
 21
532.601140
  0
LINE
  8
CSLAYER1
  6
CONTINUOUS
 62
     5
 10
433.315649
 20
532.601140
 11
433.296623
 21
532.351187
  0
LINE
  8
CSLAYER1
  6
CONTINUOUS
 62
     5
 10
433.296623
 20
532.351187
 11
433.239688
 21
532.103137
  0
LINE
  8
CSLAYER1
  6
CONTINUOUS
 62
     5
 10
433.239688
 20
532.103137
 11
433.145279
 21
531.858877
  0
LINE
  8
CSLAYER1
  6
CONTINUOUS
 62
     5
 10
433.145279
 20
531.858877
 11
433.014113
 21
531.620266
  0
LINE
  8
CSLAYER1
  6
CONTINUOUS
 62
     5
 10
433.014113
 20
531.620266
 11
432.847188
 21
531.389120
  0
LINE
  8
CSLAYER1
  6
CONTINUOUS
 62
     5
 10
432.847188
 20
531.389120
 11
432.645776
 21
531.167198
  0
LINE
  8
CSLAYER1
  6
CONTINUOUS
 62
     5
 10
432.645776
 20
531.167198
 11
432.411410
 21
530.956190
  0
LINE
  8
CSLAYER1
  6
CONTINUOUS
 62
     5
 10
432.411410
 20
530.956190
 11
432.145872
 21
530.757700
  0
LINE
  8
CSLAYER1
  6
CONTINUOUS
 62
     5
 10
432.145872
 20
530.757700
 11
431.851183
 21
530.573241
  0
LINE
  8
CSLAYER1
  6
CONTINUOUS
 62
     5
 10
431.851183
 20
530.573241
 11
431.529587
 21
530.404214
  0
LINE
  8
CSLAYER1
  6
CONTINUOUS
 62
     5
 10
431.529587
 20
530.404214
 11
431.183532
 21
530.251908
  0
LINE
  8
CSLAYER1
  6
CONTINUOUS
 62
     5
 10
431.183532
 20
530.251908
 11
430.815649
 21
530.117481
  0
LINE
  8
CSLAYER1
  6
CONTINUOUS
 62
     5
 10
430.815649
 20
530.117481
 11
430.428741
 21
530.001956
  0
LINE
  8
CSLAYER1
  6
CONTINUOUS
 62
     5
 10
430.428741
 20
530.001956
 11
430.025750
 21
529.906212
  0
LINE
  8
CSLAYER1
  6
CONTINUOUS
 62
     5
 10
430.025750
 20
529.906212
 11
429.609745
 21
529.830978
  0
LINE
  8
CSLAYER1
  6
CONTINUOUS
 62
     5
 10
429.609745
 20
529.830978
 11
429.183890
 21
529.776827
  0
LINE
  8
CSLAYER1
  6
CONTINUOUS
 62
     5
 10
429.183890
 20
529.776827
 11
428.751428
 21
529.744171
  0
LINE
  8
CSLAYER1
  6
CONTINUOUS
 62
     5
 10
428.751428
 20
529.744171
 11
428.315649
 21
529.733257
  0
LINE
  8
CSLAYER1
  6
CONTINUOUS
 62
     5
 10
428.315649
 20
529.733257
 11
427.879871
 21
529.744171
  0
LINE
  8
CSLAYER1
  6
CONTINUOUS
 62
     5
 10
427.879871
 20
529.744171
 11
427.447409
 21
529.776827
  0
LINE
  8
CSLAYER1
  6
CONTINUOUS
 62
     5
 10
427.447409
 20
529.776827
 11
427.021554
 21
529.830978
  0
LINE
  8
CSLAYER1
  6
CONTINUOUS
 62
     5
 10
427.021554
 20
529.830978
 11
426.605549
 21
529.906212
  0
LINE
  8
CSLAYER1
  6
CONTINUOUS
 62
     5
 10
426.605549
 20
529.906212
 11
426.202558
 21
530.001956
  0
LINE
  8
CSLAYER1
  6
CONTINUOUS
 62
     5
 10
426.202558
 20
530.001956
 11
425.815649
 21
530.117481
  0
LINE
  8
CSLAYER1
  6
CONTINUOUS
 62
     5
 10
425.815649
 20
530.117481
 11
425.447767
 21
530.251908
  0
LINE
  8
CSLAYER1
  6
CONTINUOUS
 62
     5
 10
425.447767
 20
530.251908
 11
425.101711
 21
530.404214
  0
LINE
  8
CSLAYER1
  6
CONTINUOUS
 62
     5
 10
425.101711
 20
530.404214
 11
424.780116
 21
530.573241
  0
LINE
  8
CSLAYER1
  6
CONTINUOUS
 62
     5
 10
424.780116
 20
530.573241
 11
424.485427
 21
530.757700
  0
LINE
  8
CSLAYER1
  6
CONTINUOUS
 62
     5
 10
424.485427
 20
530.757700
 11
424.219889
 21
530.956190
  0
LINE
  8
CSLAYER1
  6
CONTINUOUS
 62
     5
 10
424.219889
 20
530.956190
 11
423.985522
 21
531.167198
  0
LINE
  8
CSLAYER1
  6
CONTINUOUS
 62
     5
 10
423.985522
 20
531.167198
 11
423.784110
 21
531.389120
  0
LINE
  8
CSLAYER1
  6
CONTINUOUS
 62
     5
 10
423.784110
 20
531.389120
 11
423.617186
 21
531.620266
  0
LINE
  8
CSLAYER1
  6
CONTINUOUS
 62
     5
 10
423.617186
 20
531.620266
 11
423.486020
 21
531.858877
  0
LINE
  8
CSLAYER1
  6
CONTINUOUS
 62
     5
 10
423.486020
 20
531.858877
 11
423.391611
 21
532.103137
  0
LINE
  8
CSLAYER1
  6
CONTINUOUS
 62
     5
 10
423.391611
 20
532.103137
 11
423.334676
 21
532.351187
  0
LINE
  8
CSLAYER1
  6
CONTINUOUS
 62
     5
 10
423.334676
 20
532.351187
 11
423.315649
 21
532.601140
  0
ENDBLK
  8
0
  0
ENDSEC
  0
SECTION
  2
ENTITIES
  0
LINE
  8
CSLAYER1
  6
CONTINUOUS
 62
     3
 10
118.051807
 20
2400.454119
 11
118.051807
 21
51.907189
  0
LINE
  8
CSLAYER1
  6
CONTINUOUS
 62
     3
 10
3440.625117
 20
2400.454119
 11
118.051807
 21
2400.454119
  0
LINE
  8
CSLAYER1
  6
CONTINUOUS
 62
     3
 10
3440.625117
 20
2400.454119
 11
3440.625117
 21
51.907189
  0
LINE
  8
CSLAYER1
  6
CONTINUOUS
 62
     3
 10
3440.625117
 20
51.907189
 11
118.051807
 21
51.907189
  0
LINE
  8
CSLAYER1
  6
CONTINUOUS
 62
     5
 10
68.051807
 20
1211.907189
 11
18.051807
 21
1211.907189
  0
LINE
  8
CSLAYER1
  6
CONTINUOUS
 62
     5
 10
2640.625117
 20
491.907189
 11
3440.625117
 21
491.907189
  0
LINE
  8
CSLAYER1
  6
CONTINUOUS
 62
     5
 10
2640.625117
 20
131.907189
 11
3440.625117
 21
131.907189
  0
LINE
  8
CSLAYER1
  6
CONTINUOUS
 62
     5
 10
2640.625117
 20
291.907189
 11
3440.625117
 21
291.907189
  0
LINE
  8
CSLAYER1
  6
CONTINUOUS
 62
     5
 10
2640.625117
 20
351.907189
 11
3440.625117
 21
351.907189
  0
LINE
  8
CSLAYER1
  6
CONTINUOUS
 62
     5
 10
2640.625117
 20
411.907189
 11
3440.625117
 21
411.907189
  0
LINE
  8
CSLAYER1
  6
CONTINUOUS
 62
     5
 10
2640.625117
 20
571.907189
 11
3440.625117
 21
571.907189
  0
LINE
  8
CSLAYER1
  6
CONTINUOUS
 62
     5
 10
2640.625117
 20
651.907189
 11
2640.625117
 21
51.907189
  0
LINE
  8
CSLAYER1
  6
CONTINUOUS
 62
     5
 10
2840.625117
 20
651.907189
 11
2840.625117
 21
411.907189
  0
LINE
  8
CSLAYER1
  6
CONTINUOUS
 62
     5
 10
2640.625117
 20
651.907189
 11
3440.625117
 21
651.907189
  0
LINE
  8
CSLAYER1
  6
CONTINUOUS
 62
     5
 10
3140.625117
 20
411.907189
 11
3140.625117
 21
131.907189
  0
TEXT
  8
CSLAYER1
 62
     3
 10
2860.316219
 20
60.469913
 40
59.380363
 41
1.003345
  1
東正車輌株式会社
 50
0.000000
 51
0.000000
  7
EASYDRAW_FONT
 72
     5
 11
3317.088566
 21
60.469913
  0
LINE
  8
CSLAYER1
  6
CONTINUOUS
 62
     5
 10
2890.625117
 20
351.907189
 11
2890.625117
 21
131.907189
  0
TEXT
  8
CSLAYER1
 62
     5
 10
2670.625000
 20
586.907166
 40
50.000000
 41
1.050000
  1
品　名
 50
0.000000
 51
0.000000
  7
EASYDRAW_FONT
 72
     5
 11
2810.625000
 21
586.907166
  0
TEXT
  8
CSLAYER1
 62
     5
 10
2670.625000
 20
506.907166
 40
50.000000
 41
1.050000
  1
型　式
 50
0.000000
 51
0.000000
  7
EASYDRAW_FONT
 72
     5
 11
2810.625000
 21
506.907166
  0
TEXT
  8
CSLAYER1
 62
     5
 10
2645.625000
 20
426.907196
 40
50.000000
 41
1.036364
  1
図面番号
 50
0.000000
 51
0.000000
  7
EASYDRAW_FONT
 72
     5
 11
2835.625000
 21
426.907196
  0
TEXT
  8
CSLAYER1
 62
     5
 10
2710.625000
 20
356.907196
 40
50.000000
 41
0.830769
  1
平成１３年３月７日
 50
0.000000
 51
0.000000
  7
EASYDRAW_FONT
 72
     5
 11
3070.625000
 21
356.907196
  0
TEXT
  8
CSLAYER1
 62
     5
 10
3220.625000
 20
356.907196
 40
50.000000
 41
1.050000
  1
Ｂ－４
 50
0.000000
 51
0.000000
  7
EASYDRAW_FONT
 72
     5
 11
3360.625000
 21
356.907196
  0
TEXT
  8
CSLAYER1
 62
     5
 10
2695.625000
 20
296.907196
 40
50.000000
 41
1.050000
  1
検　図
 50
0.000000
 51
0.000000
  7
EASYDRAW_FONT
 72
     5
 11
2835.625000
 21
296.907196
  0
TEXT
  8
CSLAYER1
 62
     5
 10
2945.625000
 20
296.907196
 40
50.000000
 41
1.050000
  1
作　図
 50
0.000000
 51
0.000000
  7
EASYDRAW_FONT
 72
     5
 11
3085.625000
 21
296.907196
  0
TEXT
  8
CSLAYER1
 62
     5
 10
3220.625000
 20
296.907196
 40
50.000000
 41
1.050000
  1
尺　度
 50
0.000000
 51
0.000000
  7
EASYDRAW_FONT
 72
     5
 11
3360.625000
 21
296.907196
  0
TEXT
  8
CSLAYER1
 62
     5
 10
3321.363770
 20
146.392456
 40
50.000000
 41
1.080000
  1
１０
 50
0.000000
 51
0.000000
  7
EASYDRAW_FONT
 72
     5
 11
3411.363770
 21
146.392456
  0
TEXT
  8
CSLAYER1
 62
     5
 10
3301.044189
 20
194.097153
 40
50.000000
 41
1.200000
  1
／
 50
0.000000
 51
0.000000
  7
EASYDRAW_FONT
 72
     5
 11
3341.044189
 21
194.097153
  0
TEXT
  8
CSLAYER1
 62
     5
 10
3270.831299
 20
229.080597
 40
50.000000
 41
1.200000
  1
１
 50
0.000000
 51
0.000000
  7
EASYDRAW_FONT
 72
     5
 11
3310.831299
 21
229.080597
  0
TEXT
  8
CSLAYER1
 62
     3
 10
2980.625000
 20
586.907166
 40
50.000000
 41
0.834783
  1
ゴールドリフター
 50
0.000000
 51
0.000000
  7
EASYDRAW_FONT
 72
     5
 11
3300.625000
 21
586.907166
  0
TEXT
  8
CSLAYER1
 62
     3
 10
2900.625000
 20
506.907166
 40
50.000000
 41
0.822857
  1
ＧＬＥ－５００－０６０９
 50
0.000000
 51
0.000000
  7
EASYDRAW_FONT
 72
     5
 11
3380.625000
 21
506.907166
  0
TEXT
  8
CSLAYER1
 62
     3
 10
3020.625000
 20
426.907196
 40
50.000000
 41
0.847059
  1
GT-10 
 50
0.000000
 51
0.000000
  7
EASYDRAW_FONT
 72
     5
 11
3260.625000
 21
426.907196
  0
INSERT
  8
CSLAYER1
  2
BLKF0000
 10
0.0
 20
0.0
 30
0.0
  0
INSERT
  8
CSLAYER1
  2
BLKF0001
 10
0.0
 20
0.0
 30
0.0
  0
LINE
  8
CSLAYER1
  6
CONTINUOUS
 62
     3
 10
2587.241983
 20
446.602380
 11
302.553580
 21
446.602380
  0
LINE
  8
CSLAYER1
  6
CONTINUOUS
 62
     3
 10
1187.315649
 20
496.602380
 11
1187.315649
 21
446.602380
  0
LINE
  8
CSLAYER1
  6
CONTINUOUS
 62
     3
 10
2087.315649
 20
496.602380
 11
2087.315649
 21
446.602380
  0
LINE
  8
CSLAYER1
  6
CONTINUOUS
 62
     3
 10
2087.315649
 20
496.602380
 11
1187.315649
 21
496.602380
  0
LINE
  8
CSLAYER1
  6
CONTINUOUS
 62
     3
 10
2087.315649
 20
1545.149310
 11
2087.315649
 21
2145.149310
  0
LINE
  8
CSLAYER1
  6
CENTER
 62
     5
 10
637.315649
 20
1249.139075
 11
637.315649
 21
427.378079
  0
LINE
  8
CSLAYER1
  6
CONTINUOUS
 62
     3
 10
887.315649
 20
496.602380
 11
387.315649
 21
496.602380
  0
LINE
  8
CSLAYER1
  6
CONTINUOUS
 62
     3
 10
387.315649
 20
496.602380
 11
387.315649
 21
446.602380
  0
LINE
  8
CSLAYER1
  6
CONTINUOUS
 62
     3
 10
887.315649
 20
496.602380
 11
887.315649
 21
446.602380
  0
LINE
  8
CSLAYER1
  6
CONTINUOUS
 62
     3
 10
337.315649
 20
1221.602380
 11
937.315649
 21
1221.602380
  0
LINE
  8
CSLAYER1
  6
CONTINUOUS
 62
     3
 10
337.315649
 20
1171.602380
 11
937.315649
 21
1171.602380
  0
LINE
  8
CSLAYER1
  6
CONTINUOUS
 62
     3
 10
817.315649
 20
1171.602380
 11
817.315649
 21
496.602380
  0
LINE
  8
CSLAYER1
  6
CONTINUOUS
 62
     3
 10
829.315649
 20
1171.602380
 11
829.315649
 21
496.602380
  0
LINE
  8
CSLAYER1
  6
CONTINUOUS
 62
     3
 10
836.315649
 20
1171.602380
 11
836.315649
 21
541.832329
  0
LINE
  8
CSLAYER1
  6
CONTINUOUS
 62
     3
 10
848.315649
 20
1171.602380
 11
848.315649
 21
541.832329
  0
LINE
  8
CSLAYER1
  6
CENTER
 62
     5
 10
899.352759
 20
834.002380
 11
381.311570
 21
834.002380
  0
LINE
  8
CSLAYER1
  6
CENTER
 62
     5
 10
817.315649
 20
829.529352
 11
457.315649
 21
829.529352
  0
LINE
  8
CSLAYER1
  6
CONTINUOUS
 62
     3
 10
666.315649
 20
859.779352
 11
608.315649
 21
859.779352
  0
LINE
  8
CSLAYER1
  6
CONTINUOUS
 62
     3
 10
817.315649
 20
799.279352
 11
457.315649
 21
799.279352
  0
LINE
  8
CSLAYER1
  6
CONTINUOUS
 62
     5
 10
867.315649
 20
842.002380
 11
867.315649
 21
826.002380
  0
LINE
  8
CSLAYER1
  6
CONTINUOUS
 62
     5
 10
829.315649
 20
859.002380
 11
836.315649
 21
859.002380
  0
LINE
  8
CSLAYER1
  6
CONTINUOUS
 62
     5
 10
829.315649
 20
809.002380
 11
836.315649
 21
809.002380
  0
LINE
  8
CSLAYER1
  6
CONTINUOUS
 62
     5
 10
851.315649
 20
849.002380
 11
851.315649
 21
819.002380
  0
LINE
  8
CSLAYER1
  6
CONTINUOUS
 62
     5
 10
855.315649
 20
848.002380
 11
855.315649
 21
820.002380
  0
LINE
  8
CSLAYER1
  6
CONTINUOUS
 62
     5
 10
855.315649
 20
842.002380
 11
867.315649
 21
842.002380
  0
LINE
  8
CSLAYER1
  6
CONTINUOUS
 62
     5
 10
855.315649
 20
826.002380
 11
867.315649
 21
826.002380
  0
LINE
  8
CSLAYER1
  6
CONTINUOUS
 62
     5
 10
851.315649
 20
848.002380
 11
865.315649
 21
848.002380
  0
LINE
  8
CSLAYER1
  6
CONTINUOUS
 62
     5
 10
851.315649
 20
820.002380
 11
865.315649
 21
820.002380
  0
LINE
  8
CSLAYER1
  6
CONTINUOUS
 62
     5
 10
865.315649
 20
848.002380
 11
865.315649
 21
820.002380
  0
LINE
  8
CSLAYER1
  6
CONTINUOUS
 62
     5
 10
848.315649
 20
849.002380
 11
851.315649
 21
849.002380
  0
LINE
  8
CSLAYER1
  6
CONTINUOUS
 62
     5
 10
848.315649
 20
819.002380
 11
851.315649
 21
819.002380
  0
LINE
  8
CSLAYER1
  6
CONTINUOUS
 62
     3
 10
666.315649
 20
949.378840
 11
666.315649
 21
850.201438
  0
LINE
  8
CSLAYER1
  6
CONTINUOUS
 62
     3
 10
675.315649
 20
949.378840
 11
675.315649
 21
850.201438
  0
LINE
  8
CSLAYER1
  6
CONTINUOUS
 62
     3
 10
651.315649
 20
954.096910
 11
651.315649
 21
911.878835
  0
LINE
  8
CSLAYER1
  6
CONTINUOUS
 62
     5
 10
1456.763774
 20
968.669093
 11
1456.763774
 21
908.171321
  0
LINE
  8
CSLAYER1
  6
CONTINUOUS
 62
     3
 10
666.315649
 20
949.378840
 11
675.315649
 21
949.378840
  0
LINE
  8
CSLAYER1
  6
CONTINUOUS
 62
     3
 10
666.315649
 20
850.201438
 11
675.315649
 21
850.201438
  0
LINE
  8
CSLAYER1
  6
CONTINUOUS
 62
     3
 10
666.315649
 20
852.532581
 11
675.315649
 21
852.532581
  0
LINE
  8
CSLAYER1
  6
CONTINUOUS
 62
     5
 10
686.303955
 20
929.378835
 11
588.327344
 21
929.378835
  0
LINE
  8
CSLAYER1
  6
CONTINUOUS
 62
     3
 10
675.315649
 20
859.779352
 11
817.315649
 21
859.779352
  0
LINE
  8
CSLAYER1
  6
CONTINUOUS
 62
     3
 10
651.315649
 20
946.878835
 11
666.315649
 21
946.878835
  0
LINE
  8
CSLAYER1
  6
CONTINUOUS
 62
     3
 10
651.315649
 20
911.878835
 11
666.315649
 21
911.878835
  0
LINE
  8
CSLAYER1
  6
CONTINUOUS
 62
     3
 10
651.315649
 20
954.096910
 11
623.315649
 21
954.096910
  0
LINE
  8
CSLAYER1
  6
CONTINUOUS
 62
     3
 10
651.315649
 20
941.641472
 11
623.315649
 21
941.641472
  0
LINE
  8
CSLAYER1
  6
CONTINUOUS
 62
     3
 10
662.315649
 20
911.878835
 11
662.315649
 21
859.779352
  0
LINE
  8
CSLAYER1
  6
CONTINUOUS
 62
     3
 10
662.315649
 20
799.279352
 11
662.315649
 21
765.202386
  0
LINE
  8
CSLAYER1
  6
CONTINUOUS
 62
     3
 10
612.315649
 20
799.279352
 11
612.315649
 21
765.202386
  0
ARC
  8
CSLAYER1
  6
CONTINUOUS
 62
     3
 10
637.315649
 20
793.234557
 40
37.560652
 50
228.272384
 51
311.727616
  0
LINE
  8
CSLAYER1
  6
CONTINUOUS
 62
     3
 10
670.815649
 20
765.202386
 11
670.815649
 21
708.344552
  0
LINE
  8
CSLAYER1
  6
CONTINUOUS
 62
     3
 10
603.815649
 20
765.202386
 11
603.815649
 21
708.344552
  0
ARC
  8
CSLAYER1
  6
CONTINUOUS
 62
     3
 10
637.315649
 20
802.765494
 40
50.331273
 50
228.272384
 51
311.727616
  0
ARC
  8
CSLAYER1
  6
CONTINUOUS
 62
     3
 10
637.315649
 20
727.639278
 40
50.331273
 50
48.272384
 51
60.217488
  0
ARC
  8
CSLAYER1
  6
CONTINUOUS
 62
     3
 10
637.315649
 20
727.639278
 40
50.331273
 50
119.782512
 51
131.727616
  0
LINE
  8
CSLAYER1
  6
CONTINUOUS
 62
     3
 10
672.315649
 20
708.344552
 11
672.315649
 21
686.618387
  0
LINE
  8
CSLAYER1
  6
CONTINUOUS
 62
     3
 10
602.315649
 20
708.344552
 11
602.315649
 21
686.618387
  0
ARC
  8
CSLAYER1
  6
CONTINUOUS
 62
     3
 10
637.315649
 20
745.907660
 40
50.331273
 50
228.272384
 51
311.727616
  0
ARC
  8
CSLAYER1
  6
CONTINUOUS
 62
     3
 10
637.315649
 20
747.589590
 40
52.584913
 50
228.272384
 51
311.727616
  0
ARC
  8
CSLAYER1
  6
CONTINUOUS
 62
     3
 10
637.315649
 20
725.863426
 40
52.584913
 50
228.272384
 51
311.727616
  0
ARC
  8
CSLAYER1
  6
CONTINUOUS
 62
     3
 10
637.315649
 20
669.099513
 40
52.584913
 50
48.272384
 51
50.426700
  0
ARC
  8
CSLAYER1
  6
CONTINUOUS
 62
     3
 10
637.315649
 20
669.099513
 40
52.584913
 50
129.573300
 51
131.727616
  0
LINE
  8
CSLAYER1
  6
CONTINUOUS
 62
     3
 10
604.815649
 20
684.524303
 11
604.815649
 21
592.802380
  0
LINE
  8
CSLAYER1
  6
CONTINUOUS
 62
     3
 10
669.815649
 20
684.524303
 11
669.815649
 21
590.288719
  0
LINE
  8
CSLAYER1
  6
CONTINUOUS
 62
     5
 10
2087.115649
 20
601.602380
 11
2071.147318
 21
601.602380
  0
LINE
  8
CSLAYER1
  6
CONTINUOUS
 62
     5
 10
2087.115649
 20
551.602380
 11
2071.760979
 21
551.602380
  0
LINE
  8
CSLAYER1
  6
CONTINUOUS
 62
     5
 10
1187.115649
 20
551.602380
 11
1187.115649
 21
560.622739
  0
LINE
  8
CSLAYER1
  6
CONTINUOUS
 62
     5
 10
2087.115649
 20
551.602380
 11
2087.115649
 21
559.807205
  0
LINE
  8
CSLAYER1
  6
CONTINUOUS
 62
     5
 10
407.315649
 20
842.002380
 11
407.315649
 21
826.002380
  0
LINE
  8
CSLAYER1
  6
CONTINUOUS
 62
     5
 10
445.315649
 20
859.002380
 11
438.315649
 21
859.002380
  0
LINE
  8
CSLAYER1
  6
CONTINUOUS
 62
     5
 10
445.315649
 20
809.002380
 11
438.315649
 21
809.002380
  0
LINE
  8
CSLAYER1
  6
CONTINUOUS
 62
     5
 10
423.315649
 20
849.002380
 11
423.315649
 21
819.002380
  0
LINE
  8
CSLAYER1
  6
CONTINUOUS
 62
     5
 10
419.315649
 20
848.002380
 11
419.315649
 21
820.002380
  0
LINE
  8
CSLAYER1
  6
CONTINUOUS
 62
     5
 10
419.315649
 20
842.002380
 11
407.315649
 21
842.002380
  0
LINE
  8
CSLAYER1
  6
CONTINUOUS
 62
     5
 10
419.315649
 20
826.002380
 11
407.315649
 21
826.002380
  0
LINE
  8
CSLAYER1
  6
CONTINUOUS
 62
     5
 10
423.315649
 20
848.002380
 11
409.315649
 21
848.002380
  0
LINE
  8
CSLAYER1
  6
CONTINUOUS
 62
     5
 10
423.315649
 20
820.002380
 11
409.315649
 21
820.002380
  0
LINE
  8
CSLAYER1
  6
CONTINUOUS
 62
     5
 10
409.315649
 20
848.002380
 11
409.315649
 21
820.002380
  0
LINE
  8
CSLAYER1
  6
CONTINUOUS
 62
     5
 10
426.315649
 20
849.002380
 11
423.315649
 21
849.002380
  0
LINE
  8
CSLAYER1
  6
CONTINUOUS
 62
     5
 10
426.315649
 20
819.002380
 11
423.315649
 21
819.002380
  0
LINE
  8
CSLAYER1
  6
CONTINUOUS
 62
     3
 10
608.315649
 20
949.378840
 11
608.315649
 21
850.201438
  0
LINE
  8
CSLAYER1
  6
CONTINUOUS
 62
     3
 10
599.315649
 20
949.378840
 11
599.315649
 21
850.201438
  0
LINE
  8
CSLAYER1
  6
CONTINUOUS
 62
     3
 10
623.315649
 20
954.096910
 11
623.315649
 21
911.878835
  0
LINE
  8
CSLAYER1
  6
CONTINUOUS
 62
     3
 10
608.315649
 20
949.378840
 11
599.315649
 21
949.378840
  0
LINE
  8
CSLAYER1
  6
CONTINUOUS
 62
     3
 10
608.315649
 20
850.201438
 11
599.315649
 21
850.201438
  0
LINE
  8
CSLAYER1
  6
CONTINUOUS
 62
     3
 10
608.315649
 20
852.532581
 11
599.315649
 21
852.532581
  0
LINE
  8
CSLAYER1
  6
CONTINUOUS
 62
     3
 10
599.315649
 20
859.779352
 11
457.315649
 21
859.779352
  0
LINE
  8
CSLAYER1
  6
CONTINUOUS
 62
     3
 10
623.315649
 20
946.878835
 11
608.315649
 21
946.878835
  0
LINE
  8
CSLAYER1
  6
CONTINUOUS
 62
     3
 10
623.315649
 20
911.878835
 11
608.315649
 21
911.878835
  0
LINE
  8
CSLAYER1
  6
CONTINUOUS
 62
     3
 10
612.315649
 20
911.878835
 11
612.315649
 21
859.779352
  0
LINE
  8
CSLAYER1
  6
CONTINUOUS
 62
     3
 10
457.315649
 20
1171.602380
 11
457.315649
 21
496.602380
  0
LINE
  8
CSLAYER1
  6
CONTINUOUS
 62
     3
 10
445.315649
 20
1171.602380
 11
445.315649
 21
496.602380
  0
LINE
  8
CSLAYER1
  6
CONTINUOUS
 62
     3
 10
438.315649
 20
1171.602380
 11
438.315649
 21
541.832329
  0
LINE
  8
CSLAYER1
  6
CONTINUOUS
 62
     3
 10
426.315649
 20
1171.602380
 11
426.315649
 21
541.832329
  0
LINE
  8
CSLAYER1
  6
CONTINUOUS
 62
     3
 10
1514.315649
 20
504.802380
 11
1514.315649
 21
496.602380
  0
LINE
  8
CSLAYER1
  6
CONTINUOUS
 62
     3
 10
1394.315649
 20
504.802380
 11
1394.315649
 21
496.602380
  0
LINE
  8
CSLAYER1
  6
CONTINUOUS
 62
     3
 10
740.299963
 20
504.802380
 11
764.315649
 21
504.802380
  0
LINE
  8
CSLAYER1
  6
CONTINUOUS
 62
     3
 10
708.878149
 20
534.802380
 11
759.815649
 21
534.802380
  0
LINE
  8
CSLAYER1
  6
CONTINUOUS
 62
     3
 10
1394.315649
 20
504.802380
 11
1401.315649
 21
534.802380
  0
LINE
  8
CSLAYER1
  6
CONTINUOUS
 62
     3
 10
1507.315649
 20
534.802380
 11
1514.315649
 21
504.802380
  0
LINE
  8
CSLAYER1
  6
CONTINUOUS
 62
     3
 10
764.315649
 20
504.802380
 11
764.315649
 21
496.602380
  0
LINE
  8
CSLAYER1
  6
CONTINUOUS
 62
     3
 10
1401.315649
 20
534.802380
 11
1507.315649
 21
534.802380
  0
LINE
  8
CSLAYER1
  6
CONTINUOUS
 62
     3
 10
1394.315649
 20
504.802380
 11
1514.315649
 21
504.802380
  0
LINE
  8
CSLAYER1
  6
CONTINUOUS
 62
     3
 10
759.815649
 20
534.802380
 11
764.315649
 21
504.802380
  0
TEXT
  8
CSLAYER1
 62
     3
 10
370.086243
 20
1937.404785
 40
50.000000
 41
1.020000
  1
ＵＰ・ＤＯＷＮ
 50
0.000000
 51
0.000000
  7
EASYDRAW_FONT
 72
     5
 11
710.086243
 21
1937.404785
  0
TEXT
  8
CSLAYER1
 62
     3
 10
370.831055
 20
2008.906250
 40
50.000000
 41
1.020000
  1
フットスイッチ
 50
0.000000
 51
0.000000
  7
EASYDRAW_FONT
 72
     5
 11
710.831055
 21
2008.906250
  0
LINE
  8
CSLAYER1
  6
CONTINUOUS
 62
     3
 10
1040.316133
 20
1725.149310
 11
767.315649
 21
1725.149310
  0
LINE
  8
CSLAYER1
  6
CONTINUOUS
 62
     3
 10
1040.848770
 20
1718.149310
 11
767.315649
 21
1718.149310
  0
ARC
  8
CSLAYER1
  6
CONTINUOUS
 62
     3
 10
1034.011373
 20
1764.649310
 40
40.000000
 50
-80.931278
 51
243.817766
  0
ARC
  8
CSLAYER1
  6
CONTINUOUS
 62
     3
 10
1034.011373
 20
1764.649310
 40
47.000000
 50
-81.635125
 51
229.860785
  0
LINE
  8
CSLAYER1
  6
CONTINUOUS
 62
     3
 10
1187.315649
 20
1725.149310
 11
1064.002989
 21
1725.149310
  0
LINE
  8
CSLAYER1
  6
CONTINUOUS
 62
     3
 10
1187.315649
 20
1718.149310
 11
1053.296098
 21
1718.149310
  0
LINE
  8
CSLAYER1
  6
CONTINUOUS
 62
     3
 10
1187.315649
 20
1696.149310
 11
1008.418462
 21
1696.149310
  0
LINE
  8
CSLAYER1
  6
CONTINUOUS
 62
     3
 10
1187.315649
 20
1703.149310
 11
998.536671
 21
1703.149310
  0
TEXT
  8
CSLAYER1
 62
     3
 10
291.869507
 20
1611.908325
 40
50.000000
 41
1.028571
  1
電源コード
 50
0.000000
 51
0.000000
  7
EASYDRAW_FONT
 72
     5
 11
531.869507
 21
1611.908325
  0
TEXT
  8
CSLAYER1
 62
     3
 10
308.930054
 20
1541.776978
 40
50.000000
 41
1.036364
  1
長サ４ｍ
 50
0.000000
 51
0.000000
  7
EASYDRAW_FONT
 72
     5
 11
498.930054
 21
1541.776978
  0
LINE
  8
CSLAYER1
  6
CONTINUOUS
 62
     5
 10
550.931170
 20
1600.577801
 11
746.256858
 21
1548.240440
  0
LINE
  8
CSLAYER1
  6
CONTINUOUS
 62
     5
 10
746.256858
 20
1548.240440
 11
716.256858
 21
1548.240440
  0
LINE
  8
CSLAYER1
  6
CONTINUOUS
 62
     5
 10
746.256858
 20
1548.240440
 11
720.276096
 21
1563.240440
  0
LINE
  8
CSLAYER1
  6
CONTINUOUS
 62
     5
 10
353.884403
 20
1998.268261
 11
757.459633
 21
1998.268261
  0
LINE
  8
CSLAYER1
  6
CONTINUOUS
 62
     5
 10
274.253016
 20
1600.577801
 11
550.931170
 21
1600.577801
  0
LINE
  8
CSLAYER1
  6
CONTINUOUS
 62
     3
 10
1187.315649
 20
1545.149310
 11
1187.315649
 21
2145.149310
  0
LINE
  8
CSLAYER1
  6
CONTINUOUS
 62
     3
 10
761.918145
 20
1549.537071
 11
756.847517
 21
1547.627354
  0
LINE
  8
CSLAYER1
  6
CONTINUOUS
 62
     3
 10
756.847517
 20
1547.627354
 11
750.422885
 21
1547.448892
  0
LINE
  8
CSLAYER1
  6
CONTINUOUS
 62
     3
 10
762.972474
 20
1548.147969
 11
757.323415
 21
1545.783247
  0
LINE
  8
CSLAYER1
  6
CONTINUOUS
 62
     3
 10
757.323415
 20
1545.783247
 11
751.969555
 21
1544.474526
  0
LINE
  8
CSLAYER1
  6
CONTINUOUS
 62
     3
 10
763.814669
 20
1547.038359
 11
758.929573
 21
1544.177089
  0
LINE
  8
CSLAYER1
  6
CONTINUOUS
 62
     3
 10
758.929573
 20
1544.177089
 11
756.609567
 21
1540.845798
  0
LINE
  8
CSLAYER1
  6
PHANTOM
 62
     5
 10
2071.147318
 20
601.602380
 11
1201.355028
 21
601.602380
  0
LINE
  8
CSLAYER1
  6
PHANTOM
 62
     5
 10
2071.760979
 20
551.602380
 11
1203.100364
 21
551.602380
  0
LINE
  8
CSLAYER1
  6
CONTINUOUS
 62
     5
 10
2087.115649
 20
589.763561
 11
2087.115649
 21
601.602380
  0
LINE
  8
CSLAYER1
  6
CONTINUOUS
 62
     5
 10
2087.115649
 20
569.319413
 11
2087.115649
 21
583.658711
  0
LINE
  8
CSLAYER1
  6
CONTINUOUS
 62
     5
 10
1201.355028
 20
601.602380
 11
1187.115649
 21
601.602380
  0
LINE
  8
CSLAYER1
  6
CONTINUOUS
 62
     5
 10
1203.100364
 20
551.602380
 11
1187.115649
 21
551.602380
  0
LINE
  8
CSLAYER1
  6
CONTINUOUS
 62
     5
 10
1187.115649
 20
589.890670
 11
1187.115649
 21
601.602380
  0
LINE
  8
CSLAYER1
  6
CONTINUOUS
 62
     5
 10
1187.115649
 20
568.275363
 11
1187.115649
 21
582.775072
  0
INSERT
  8
CSLAYER1
  2
EASYDRAWDIM0000
 10
0.0
 20
0.0
 30
0.0
  0
DIMENSION
  8
CSLAYER1
 62
     3
  2
*D0000
 10
2187.115649
 20
601.602380
 11
2177.115723
 21
524.102417
 13
2087.115649
 23
446.602380
 14
2087.115649
 24
601.602380
 50
90.000000
 70
1
  0
DIMENSION
  8
CSLAYER1
 62
     3
  2
*D0001
 10
2187.115649
 20
601.602380
 11
2177.115723
 21
911.602478
 13
2187.115649
 23
1221.602380
 14
2187.115649
 24
601.602380
 50
90.000000
 70
1
  0
DIMENSION
  8
CSLAYER1
 62
     3
  2
*D0002
 10
2287.115649
 20
1221.602380
 11
2277.115723
 21
834.102417
 13
2087.115649
 23
446.602380
 14
2087.115649
 24
1221.602380
 50
90.000000
 70
1
  0
LINE
  8
CSLAYER1
  6
CENTER
 62
     5
 10
2109.728333
 20
1845.149310
 11
1158.233654
 21
1845.149310
  0
DIMENSION
  8
CSLAYER1
 62
     3
  2
*D0003
 10
2087.115649
 20
1321.602380
 11
1637.115723
 21
1331.602661
 13
1187.115649
 23
1221.602380
 14
2087.115649
 24
1221.602380
 70
1
  0
DIMENSION
  8
CSLAYER1
 62
     3
  2
*D0004
 10
887.315649
 20
346.602380
 11
637.315674
 21
356.602386
 13
387.315649
 23
446.602380
 14
887.315649
 24
446.602380
 52
270.000000
 70
1
  0
DIMENSION
  8
CSLAYER1
 62
     3
  2
*D0005
 10
2087.315649
 20
346.602380
 11
1637.315796
 21
356.602386
 13
1187.315649
 23
446.602380
 14
2087.315649
 24
446.602380
 52
270.000000
 70
1
  0
ARC
  8
CSLAYER1
  6
CONTINUOUS
 62
     3
 10
976.883521
 20
1656.149310
 40
47.000000
 50
-190.756396
 51
127.198537
  0
ARC
  8
CSLAYER1
  6
CONTINUOUS
 62
     3
 10
976.883521
 20
1656.149310
 40
40.000000
 50
-203.471057
 51
127.198537
  0
LINE
  8
CSLAYER1
  6
CONTINUOUS
 62
     3
 10
760.734391
 20
1551.096691
 11
948.468319
 21
1693.586942
  0
LINE
  8
CSLAYER1
  6
CONTINUOUS
 62
     3
 10
764.966442
 20
1545.520874
 11
952.700370
 21
1688.011125
  0
LINE
  8
CSLAYER1
  6
CONTINUOUS
 62
     3
 10
760.734391
 20
1551.096691
 11
764.966442
 21
1545.520874
  0
TEXT
  8
CSLAYER1
 62
     3
 10
2431.355225
 20
459.011322
 40
50.000000
 41
1.050000
  1
F.L
 50
0.000000
 51
0.000000
  7
EASYDRAW_FONT
 72
     5
 11
2571.355225
 21
459.011322
  0
LINE
  8
CSLAYER1
  6
CONTINUOUS
 62
     5
 10
714.280624
 20
1794.149310
 11
757.252702
 21
1997.290046
  0
LINE
  8
CSLAYER1
  6
CONTINUOUS
 62
     5
 10
714.280624
 20
1794.149310
 11
712.681357
 21
1824.106653
  0
LINE
  8
CSLAYER1
  6
CONTINUOUS
 62
     5
 10
714.280624
 20
1794.149310
 11
727.874289
 21
1820.892763
  0
TEXT
  8
CSLAYER1
 62
     3
 10
960.504639
 20
760.678345
 40
50.000000
 41
1.023529
  1
油圧ユニット
 50
0.000000
 51
0.000000
  7
EASYDRAW_FONT
 72
     5
 11
1250.504639
 21
760.678345
  0
LINE
  8
CSLAYER1
  6
CONTINUOUS
 62
     5
 10
949.119332
 20
752.242626
 11
1257.462322
 21
752.242626
  0
LINE
  8
CSLAYER1
  6
CONTINUOUS
 62
     5
 10
1446.189359
 20
592.402380
 11
1257.462322
 21
752.242626
  0
LINE
  8
CSLAYER1
  6
CONTINUOUS
 62
     5
 10
1446.189359
 20
592.402380
 11
1419.058510
 21
605.205389
  0
LINE
  8
CSLAYER1
  6
CONTINUOUS
 62
     5
 10
1446.189359
 20
592.402380
 11
1429.094859
 21
617.055535
  0
LINE
  8
CSLAYER1
  6
CONTINUOUS
 62
     3
 10
1207.835791
 20
540.958743
 11
1398.224792
 21
834.002380
  0
LINE
  8
CSLAYER1
  6
CONTINUOUS
 62
     3
 10
1256.531474
 20
496.602380
 11
1436.981688
 21
774.348399
  0
LINE
  8
CSLAYER1
  6
CONTINUOUS
 62
     3
 10
1205.502180
 20
496.602380
 11
1207.835791
 21
540.958743
  0
LINE
  8
CSLAYER1
  6
CONTINUOUS
 62
     3
 10
1666.127584
 20
1127.046018
 11
1668.471717
 21
1171.602380
  0
LINE
  8
CSLAYER1
  6
CENTER
 62
     5
 10
1652.647726
 20
1194.402380
 11
1221.315649
 21
473.602380
  0
ARC
  8
CSLAYER1
  6
CONTINUOUS
 62
     3
 10
1456.763772
 20
929.378840
 40
20.000000
 50
48.728034
 51
153.218365
  0
LINE
  8
CSLAYER1
  6
CONTINUOUS
 62
     3
 10
1425.359367
 20
911.545247
 11
1438.909166
 21
938.390668
  0
LINE
  8
CSLAYER1
  6
CONTINUOUS
 62
     3
 10
1244.593524
 20
506.513481
 11
1226.131145
 21
523.369950
  0
LINE
  8
CSLAYER1
  6
CONTINUOUS
 62
     3
 10
1261.449993
 20
524.975860
 11
1242.987614
 21
541.832329
  0
LINE
  8
CSLAYER1
  6
CONTINUOUS
 62
     3
 10
1244.593524
 20
506.513481
 11
1261.449993
 21
524.975860
  0
LINE
  8
CSLAYER1
  6
CONTINUOUS
 62
     3
 10
1226.131145
 20
523.369950
 11
1242.987614
 21
541.832329
  0
LINE
  8
CSLAYER1
  6
CONTINUOUS
 62
     5
 10
1257.024228
 20
512.090348
 11
1231.283581
 21
535.592000
  0
LINE
  8
CSLAYER1
  6
CONTINUOUS
 62
     3
 10
1207.835791
 20
1127.046018
 11
1617.431902
 21
496.602380
  0
LINE
  8
CSLAYER1
  6
CONTINUOUS
 62
     3
 10
1256.401535
 20
1171.602380
 11
1666.127584
 21
540.958743
  0
LINE
  8
CSLAYER1
  6
CONTINUOUS
 62
     3
 10
1205.491658
 20
1171.602380
 11
1207.835791
 21
1127.046018
  0
LINE
  8
CSLAYER1
  6
CONTINUOUS
 62
     3
 10
1666.127584
 20
540.958743
 11
1668.461195
 21
496.602380
  0
LINE
  8
CSLAYER1
  6
CENTER
 62
     5
 10
1652.647726
 20
473.602380
 11
1221.315649
 21
1194.402380
  0
LINE
  8
CSLAYER1
  6
CONTINUOUS
 62
     3
 10
1677.885140
 20
539.765992
 11
1675.081497
 21
530.494780
  0
ARC
  8
CSLAYER1
  6
CONTINUOUS
 62
     3
 10
1675.013567
 20
540.634364
 40
3.000000
 50
-16.825477
 51
98.232139
  0
LINE
  8
CSLAYER1
  6
CONTINUOUS
 62
     3
 10
1674.584015
 20
543.603453
 11
1665.283525
 21
542.257906
  0
ARC
  8
CSLAYER1
  6
CONTINUOUS
 62
     3
 10
1626.973197
 20
516.507142
 40
20.000000
 50
193.446534
 51
232.576632
  0
ARC
  8
CSLAYER1
  6
CONTINUOUS
 62
     3
 10
1679.618696
 20
500.586983
 40
30.250000
 50
-7.569134
 51
115.051597
  0
LINE
  8
CSLAYER1
  6
CONTINUOUS
 62
     3
 10
1590.471465
 20
526.336870
 11
1596.499100
 21
528.821807
  0
LINE
  8
CSLAYER1
  6
CONTINUOUS
 62
     3
 10
1586.635614
 20
529.082092
 11
1594.281979
 21
532.234363
  0
LINE
  8
CSLAYER1
  6
CONTINUOUS
 62
     3
 10
1521.284561
 20
763.898757
 11
1554.031299
 21
777.398843
  0
LINE
  8
CSLAYER1
  6
CONTINUOUS
 62
     3
 10
1568.398377
 20
691.381941
 11
1589.201690
 21
699.958262
  0
LINE
  8
CSLAYER1
  6
CONTINUOUS
 62
     3
 10
1554.541372
 20
712.710416
 11
1578.286432
 21
722.499494
  0
LINE
  8
CSLAYER1
  6
CONTINUOUS
 62
     3
 10
1580.244917
 20
721.684426
 11
1589.201690
 21
699.958262
  0
LINE
  8
CSLAYER1
  6
CONTINUOUS
 62
     3
 10
1555.989785
 20
776.583775
 11
1578.286432
 21
722.499494
  0
LINE
  8
CSLAYER1
  6
CONTINUOUS
 62
     3
 10
1555.372792
 20
711.430708
 11
1580.244917
 21
721.684426
  0
LINE
  8
CSLAYER1
  6
CONTINUOUS
 62
     3
 10
1580.244917
 20
721.684426
 11
1578.286432
 21
722.499494
  0
LINE
  8
CSLAYER1
  6
CONTINUOUS
 62
     3
 10
1555.989785
 20
776.583775
 11
1554.031299
 21
777.398843
  0
LINE
  8
CSLAYER1
  6
CONTINUOUS
 62
     3
 10
1522.115981
 20
762.619048
 11
1555.989785
 21
776.583775
  0
LINE
  8
CSLAYER1
  6
CONTINUOUS
 62
     3
 10
1569.803488
 20
569.911256
 11
1586.635614
 21
529.082092
  0
LINE
  8
CSLAYER1
  6
CONTINUOUS
 62
     3
 10
1586.890396
 20
699.005413
 11
1627.597320
 21
600.263896
  0
LINE
  8
CSLAYER1
  6
CONTINUOUS
 62
     3
 10
1588.946908
 20
530.034940
 11
1590.471465
 21
526.336870
  0
LINE
  8
CSLAYER1
  6
CONTINUOUS
 62
     3
 10
1592.782759
 20
527.289718
 11
1611.340062
 21
504.032966
  0
LINE
  8
CSLAYER1
  6
CENTER
 62
     5
 10
1456.763773
 20
929.378838
 11
1626.973197
 21
516.507142
  0
LINE
  8
CSLAYER1
  6
CONTINUOUS
 62
     3
 10
1504.728987
 20
878.623935
 11
1547.559676
 21
774.730868
  0
LINE
  8
CSLAYER1
  6
CONTINUOUS
 62
     3
 10
1434.034604
 20
941.641472
 11
1464.247371
 21
954.096910
  0
LINE
  8
CSLAYER1
  6
CONTINUOUS
 62
     3
 10
1472.247503
 20
947.936928
 11
1464.247371
 21
954.096910
  0
LINE
  8
CSLAYER1
  6
CONTINUOUS
 62
     3
 10
1431.745136
 20
924.472945
 11
1434.034604
 21
941.641472
  0
LINE
  8
CSLAYER1
  6
CONTINUOUS
 62
     3
 10
1531.315649
 20
592.402380
 11
1374.315649
 21
592.402380
  0
LINE
  8
CSLAYER1
  6
CONTINUOUS
 62
     3
 10
1542.315649
 20
551.152380
 11
1542.315649
 21
502.452380
  0
LINE
  8
CSLAYER1
  6
CONTINUOUS
 62
     3
 10
1531.315649
 20
592.402380
 11
1531.315649
 21
496.602380
  0
LINE
  8
CSLAYER1
  6
CONTINUOUS
 62
     3
 10
1542.315649
 20
502.452380
 11
1531.315649
 21
502.452380
  0
LINE
  8
CSLAYER1
  6
CONTINUOUS
 62
     3
 10
1542.315649
 20
551.152380
 11
1531.315649
 21
551.152380
  0
LINE
  8
CSLAYER1
  6
CONTINUOUS
 62
     5
 10
1542.315649
 20
586.802380
 11
1526.713028
 21
586.802380
  0
LINE
  8
CSLAYER1
  6
CONTINUOUS
 62
     5
 10
1537.015649
 20
589.302380
 11
1537.015649
 21
584.302380
  0
LINE
  8
CSLAYER1
  6
CONTINUOUS
 62
     5
 10
1532.315649
 20
591.802380
 11
1532.315649
 21
581.802380
  0
LINE
  8
CSLAYER1
  6
CONTINUOUS
 62
     5
 10
1533.315649
 20
591.802380
 11
1533.315649
 21
581.802380
  0
LINE
  8
CSLAYER1
  6
CONTINUOUS
 62
     5
 10
1534.615649
 20
591.802380
 11
1531.315649
 21
591.802380
  0
LINE
  8
CSLAYER1
  6
CONTINUOUS
 62
     5
 10
1534.615649
 20
581.802380
 11
1531.315649
 21
581.802380
  0
LINE
  8
CSLAYER1
  6
CONTINUOUS
 62
     5
 10
1534.615649
 20
591.802380
 11
1534.615649
 21
581.802380
  0
LINE
  8
CSLAYER1
  6
CONTINUOUS
 62
     5
 10
1535.015649
 20
591.302380
 11
1534.615649
 21
591.302380
  0
LINE
  8
CSLAYER1
  6
CONTINUOUS
 62
     5
 10
1535.015649
 20
582.302380
 11
1534.615649
 21
582.302380
  0
ARC
  8
CSLAYER1
  6
CONTINUOUS
 62
     5
 10
1535.015649
 20
589.302380
 40
2.000000
 50
0.000000
 51
90.000000
  0
ARC
  8
CSLAYER1
  6
CONTINUOUS
 62
     5
 10
1535.015649
 20
584.302380
 40
2.000000
 50
270.000000
 51
360.000000
  0
LINE
  8
CSLAYER1
  6
CONTINUOUS
 62
     5
 10
1533.315649
 20
585.676547
 11
1534.615649
 21
587.928213
  0
LINE
  8
CSLAYER1
  6
CONTINUOUS
 62
     5
 10
1521.315649
 20
565.384333
 11
1521.315649
 21
524.952784
  0
LINE
  8
CSLAYER1
  6
CONTINUOUS
 62
     5
 10
1499.315649
 20
586.802380
 11
1499.315649
 21
534.802380
  0
LINE
  8
CSLAYER1
  6
CONTINUOUS
 62
     5
 10
1463.315649
 20
565.384333
 11
1463.315649
 21
563.780093
  0
LINE
  8
CSLAYER1
  6
CONTINUOUS
 62
     5
 10
1508.316479
 20
530.513110
 11
1514.315649
 21
530.513110
  0
LINE
  8
CSLAYER1
  6
CONTINUOUS
 62
     5
 10
1481.315649
 20
566.884333
 11
1517.315649
 21
566.884333
  0
LINE
  8
CSLAYER1
  6
CONTINUOUS
 62
     5
 10
1509.097656
 20
527.165207
 11
1517.315649
 21
527.165207
  0
ARC
  8
CSLAYER1
  6
CONTINUOUS
 62
     5
 10
1499.315649
 20
548.698722
 40
12.500000
 50
-170.165413
 51
140.165413
  0
LINE
  8
CSLAYER1
  6
CONTINUOUS
 62
     5
 10
1517.315649
 20
566.884333
 11
1517.315649
 21
527.165207
  0
LINE
  8
CSLAYER1
  6
CONTINUOUS
 62
     5
 10
1514.315649
 20
566.884333
 11
1514.315649
 21
530.513110
  0
LINE
  8
CSLAYER1
  6
CONTINUOUS
 62
     5
 10
1481.315649
 20
566.884333
 11
1481.315649
 21
558.957007
  0
LINE
  8
CSLAYER1
  6
CONTINUOUS
 62
     5
 10
1467.315649
 20
565.384333
 11
1467.315649
 21
562.708296
  0
ARC
  8
CSLAYER1
  6
CONTINUOUS
 62
     5
 10
1499.315649
 20
548.698722
 40
5.250000
 50
-105.000000
 51
75.000000
  0
LINE
  8
CSLAYER1
  6
CONTINUOUS
 62
     5
 10
1467.315649
 20
565.384333
 11
1481.315649
 21
566.884333
  0
LINE
  8
CSLAYER1
  6
CONTINUOUS
 62
     5
 10
1514.315649
 20
530.513110
 11
1517.315649
 21
527.165207
  0
LINE
  8
CSLAYER1
  6
CONTINUOUS
 62
     5
 10
1465.315649
 20
567.384333
 11
1482.248358
 21
567.384333
  0
ARC
  8
CSLAYER1
  6
CONTINUOUS
 62
     5
 10
1499.315649
 20
553.728698
 40
20.284880
 50
47.545857
 51
84.719619
  0
CIRCLE
  8
CSLAYER1
  6
CONTINUOUS
 62
     5
 10
1499.315649
 20
571.579087
 40
3.000000
  0
ARC
  8
CSLAYER1
  6
CONTINUOUS
 62
     5
 10
1499.315649
 20
530.510174
 40
16.796254
 50
314.594132
 51
324.821469
  0
LINE
  8
CSLAYER1
  6
CONTINUOUS
 62
     5
 10
1492.600346
 20
571.579087
 11
1505.361425
 21
571.579087
  0
ARC
  8
CSLAYER1
  6
CONTINUOUS
 62
     5
 10
1499.315649
 20
553.728698
 40
20.284880
 50
95.280381
 51
132.454143
  0
LINE
  8
CSLAYER1
  6
CONTINUOUS
 62
     5
 10
1516.382941
 20
567.384333
 11
1519.315649
 21
567.384333
  0
ARC
  8
CSLAYER1
  6
CONTINUOUS
 62
     5
 10
1482.248358
 20
572.384333
 40
5.000000
 50
270.000000
 51
312.454143
  0
ARC
  8
CSLAYER1
  6
CONTINUOUS
 62
     5
 10
1516.382941
 20
572.384333
 40
5.000000
 50
227.545857
 51
270.000000
  0
LINE
  8
CSLAYER1
  6
CONTINUOUS
 62
     5
 10
1517.131054
 20
522.952784
 11
1519.315649
 21
522.952784
  0
ARC
  8
CSLAYER1
  6
CONTINUOUS
 62
     5
 10
1517.131054
 20
517.952784
 40
5.000000
 50
90.000000
 51
144.821469
  0
LINE
  8
CSLAYER1
  6
CONTINUOUS
 62
     5
 10
1467.315649
 20
551.837896
 11
1467.315649
 21
534.802380
  0
LINE
  8
CSLAYER1
  6
CONTINUOUS
 62
     5
 10
1463.315649
 20
552.909693
 11
1463.315649
 21
534.802380
  0
LINE
  8
CSLAYER1
  6
CONTINUOUS
 62
     5
 10
1481.315649
 20
548.086607
 11
1481.315649
 21
534.802380
  0
LINE
  8
CSLAYER1
  6
CONTINUOUS
 62
     5
 10
1487.258054
 20
548.698722
 11
1514.315649
 21
548.698722
  0
LINE
  8
CSLAYER1
  6
CONTINUOUS
 62
     3
 10
1236.320785
 20
584.802380
 11
1212.315649
 21
584.802380
  0
LINE
  8
CSLAYER1
  6
CONTINUOUS
 62
     2
 10
1239.569260
 20
589.802380
 11
1219.315649
 21
589.802380
  0
LINE
  8
CSLAYER1
  6
CONTINUOUS
 62
     2
 10
1219.315649
 20
589.802380
 11
1219.315649
 21
584.802380
  0
LINE
  8
CSLAYER1
  6
CONTINUOUS
 62
     2
 10
1236.315649
 20
589.802380
 11
1236.315649
 21
584.802380
  0
LINE
  8
CSLAYER1
  6
CONTINUOUS
 62
     2
 10
1224.315649
 20
589.802380
 11
1224.315649
 21
584.802380
  0
CIRCLE
  8
CSLAYER1
  6
CONTINUOUS
 62
     2
 10
1230.315649
 20
585.802380
 40
0.500000
  0
LINE
  8
CSLAYER1
  6
CONTINUOUS
 62
     5
 10
1523.315649
 20
592.402380
 11
1523.315649
 21
496.602380
  0
LINE
  8
CSLAYER1
  6
CONTINUOUS
 62
     3
 10
1206.985796
 20
524.802380
 11
1199.315649
 21
524.802380
  0
ARC
  8
CSLAYER1
  6
CONTINUOUS
 62
     5
 10
1465.315649
 20
565.384333
 40
2.000000
 50
90.000000
 51
180.000000
  0
ARC
  8
CSLAYER1
  6
CONTINUOUS
 62
     5
 10
1519.315649
 20
524.952784
 40
2.000000
 50
270.000000
 51
360.000000
  0
ARC
  8
CSLAYER1
  6
CONTINUOUS
 62
     5
 10
1519.315649
 20
565.384333
 40
2.000000
 50
0.000000
 51
90.000000
  0
LINE
  8
CSLAYER1
  6
CONTINUOUS
 62
     5
 10
1537.015649
 20
529.302380
 11
1537.015649
 21
524.302380
  0
LINE
  8
CSLAYER1
  6
CONTINUOUS
 62
     5
 10
1532.315649
 20
531.802380
 11
1532.315649
 21
521.802380
  0
LINE
  8
CSLAYER1
  6
CONTINUOUS
 62
     5
 10
1533.315649
 20
531.802380
 11
1533.315649
 21
521.802380
  0
LINE
  8
CSLAYER1
  6
CONTINUOUS
 62
     5
 10
1534.615649
 20
531.802380
 11
1531.315649
 21
531.802380
  0
LINE
  8
CSLAYER1
  6
CONTINUOUS
 62
     5
 10
1534.615649
 20
521.802380
 11
1531.315649
 21
521.802380
  0
LINE
  8
CSLAYER1
  6
CONTINUOUS
 62
     5
 10
1534.615649
 20
531.802380
 11
1534.615649
 21
521.802380
  0
LINE
  8
CSLAYER1
  6
CONTINUOUS
 62
     5
 10
1535.015649
 20
531.302380
 11
1534.615649
 21
531.302380
  0
LINE
  8
CSLAYER1
  6
CONTINUOUS
 62
     5
 10
1535.015649
 20
522.302380
 11
1534.615649
 21
522.302380
  0
ARC
  8
CSLAYER1
  6
CONTINUOUS
 62
     5
 10
1535.015649
 20
529.302380
 40
2.000000
 50
0.000000
 51
90.000000
  0
ARC
  8
CSLAYER1
  6
CONTINUOUS
 62
     5
 10
1535.015649
 20
524.302380
 40
2.000000
 50
270.000000
 51
360.000000
  0
LINE
  8
CSLAYER1
  6
CONTINUOUS
 62
     5
 10
1533.315649
 20
525.676547
 11
1534.615649
 21
527.928213
  0
LINE
  8
CSLAYER1
  6
CONTINUOUS
 62
     5
 10
1230.315649
 20
592.402380
 11
1230.315649
 21
582.014909
  0
LINE
  8
CSLAYER1
  6
CENTER
 62
     5
 10
1549.788602
 20
526.802380
 11
1187.315649
 21
526.802380
  0
LINE
  8
CSLAYER1
  6
CONTINUOUS
 62
     3
 10
1199.315649
 20
524.802380
 11
1200.437405
 21
496.602380
  0
LINE
  8
CSLAYER1
  6
CONTINUOUS
 62
     3
 10
1195.315649
 20
524.802380
 11
1196.459570
 21
496.602380
  0
ARC
  8
CSLAYER1
  6
CONTINUOUS
 62
     3
 10
1212.315649
 20
569.802380
 40
15.000000
 50
90.000000
 51
180.000000
  0
LINE
  8
CSLAYER1
  6
CONTINUOUS
 62
     3
 10
1195.315649
 20
524.802380
 11
1197.330228
 21
570.463540
  0
LINE
  8
CSLAYER1
  6
CONTINUOUS
 62
     5
 10
1433.842382
 20
571.677431
 11
1500.674449
 21
553.769832
  0
LINE
  8
CSLAYER1
  6
CONTINUOUS
 62
     5
 10
1426.053734
 20
568.329193
 11
1499.315649
 21
548.698722
  0
LINE
  8
CSLAYER1
  6
CONTINUOUS
 62
     5
 10
1428.151049
 20
562.332019
 11
1497.956849
 21
543.627611
  0
LINE
  8
CSLAYER1
  6
CONTINUOUS
 62
     3
 10
1187.115649
 20
1221.602380
 11
2087.115649
 21
1221.602380
  0
LINE
  8
CSLAYER1
  6
CONTINUOUS
 62
     3
 10
1187.115649
 20
1171.602380
 11
2087.115649
 21
1171.602380
  0
LINE
  8
CSLAYER1
  6
CONTINUOUS
 62
     3
 10
1187.115649
 20
1221.602380
 11
1187.115649
 21
1171.602380
  0
LINE
  8
CSLAYER1
  6
CONTINUOUS
 62
     3
 10
2087.115649
 20
1221.602380
 11
2087.115649
 21
1171.602380
  0
LINE
  8
CSLAYER1
  6
CONTINUOUS
 62
     5
 10
1201.902413
 20
1194.402380
 11
1241.781253
 21
1194.402380
  0
LINE
  8
CSLAYER1
  6
CONTINUOUS
 62
     5
 10
1221.315649
 20
1212.315732
 11
1221.315649
 21
1176.984478
  0
LINE
  8
CSLAYER1
  6
CONTINUOUS
 62
     5
 10
1635.552377
 20
1194.402380
 11
1672.844525
 21
1194.402380
  0
LINE
  8
CSLAYER1
  6
CONTINUOUS
 62
     5
 10
1652.647726
 20
1211.993712
 11
1652.647726
 21
1179.060387
  0
LINE
  8
CSLAYER1
  6
CONTINUOUS
 62
     3
 10
1436.981688
 20
893.656361
 11
1617.561841
 21
1171.602380
  0
LINE
  8
CSLAYER1
  6
CONTINUOUS
 62
     3
 10
1475.738584
 20
834.002380
 11
1666.127584
 21
1127.046018
  0
LINE
  8
CSLAYER1
  6
CONTINUOUS
 62
     5
 10
1423.917033
 20
929.378844
 11
1484.045253
 21
929.378844
  0
CIRCLE
  8
CSLAYER1
  6
CONTINUOUS
 62
     3
 10
1436.981688
 20
834.002380
 40
15.000000
  0
LINE
  8
CSLAYER1
  6
CONTINUOUS
 62
     5
 10
1398.224792
 20
834.002380
 11
1479.494171
 21
834.002380
  0
LINE
  8
CSLAYER1
  6
CONTINUOUS
 62
     5
 10
1436.981688
 20
876.264513
 11
1436.981688
 21
793.844485
  0
LINE
  8
CSLAYER1
  6
CONTINUOUS
 62
     5
 10
1410.375545
 20
829.529352
 11
1438.184907
 21
829.529352
  0
LINE
  8
CSLAYER1
  6
CONTINUOUS
 62
     5
 10
1424.982020
 20
854.055052
 11
1424.982020
 21
813.949709
  0
ARC
  8
CSLAYER1
  6
CONTINUOUS
 62
     3
 10
1456.763772
 20
929.378840
 40
12.500000
 50
43.698696
 51
250.278138
  0
LINE
  8
CSLAYER1
  6
CONTINUOUS
 62
     5
 10
1679.618696
 20
535.486087
 11
1679.618696
 21
480.101550
  0
LINE
  8
CSLAYER1
  6
CONTINUOUS
 62
     5
 10
1611.256803
 20
516.507142
 11
1643.814438
 21
516.507142
  0
LINE
  8
CSLAYER1
  6
CONTINUOUS
 62
     5
 10
1626.973197
 20
536.739151
 11
1626.973197
 21
498.228120
  0
LINE
  8
CSLAYER1
  6
CONTINUOUS
 62
     5
 10
1652.647726
 20
492.849951
 11
1652.647726
 21
455.197697
  0
LINE
  8
CSLAYER1
  6
CONTINUOUS
 62
     5
 10
1675.149272
 20
473.602380
 11
1628.306310
 21
473.602380
  0
LINE
  8
CSLAYER1
  6
CONTINUOUS
 62
     5
 10
1655.878433
 20
500.586983
 11
1716.341510
 21
500.586983
  0
LINE
  8
CSLAYER1
  6
CONTINUOUS
 62
     3
 10
829.315649
 20
541.832329
 11
858.315649
 21
541.832329
  0
LINE
  8
CSLAYER1
  6
CONTINUOUS
 62
     3
 10
829.315649
 20
523.369950
 11
858.315649
 21
523.369950
  0
LINE
  8
CSLAYER1
  6
CONTINUOUS
 62
     3
 10
829.315649
 20
506.513481
 11
858.315649
 21
506.513481
  0
LINE
  8
CSLAYER1
  6
CONTINUOUS
 62
     3
 10
858.315649
 20
541.832329
 11
858.315649
 21
506.513481
  0
LINE
  8
CSLAYER1
  6
CONTINUOUS
 62
     3
 10
836.315649
 20
506.513481
 11
836.315649
 21
496.602380
  0
LINE
  8
CSLAYER1
  6
CONTINUOUS
 62
     3
 10
848.315649
 20
506.513481
 11
848.315649
 21
496.602380
  0
INSERT
  8
CSLAYER1
  2
BLKF0002
 10
0.0
 20
0.0
 30
0.0
  0
LINE
  8
CSLAYER1
  6
CONTINUOUS
 62
     5
 10
846.315649
 20
538.763548
 11
846.315649
 21
526.278644
  0
LINE
  8
CSLAYER1
  6
CONTINUOUS
 62
     5
 10
838.297211
 20
532.601140
 11
854.740743
 21
532.601140
  0
LINE
  8
CSLAYER1
  6
CONTINUOUS
 62
     3
 10
445.315649
 20
541.832329
 11
416.315649
 21
541.832329
  0
LINE
  8
CSLAYER1
  6
CONTINUOUS
 62
     3
 10
445.315649
 20
523.369950
 11
416.315649
 21
523.369950
  0
LINE
  8
CSLAYER1
  6
CONTINUOUS
 62
     3
 10
445.315649
 20
506.513481
 11
416.315649
 21
506.513481
  0
LINE
  8
CSLAYER1
  6
CONTINUOUS
 62
     3
 10
416.315649
 20
541.832329
 11
416.315649
 21
506.513481
  0
INSERT
  8
CSLAYER1
  2
BLKF0003
 10
0.0
 20
0.0
 30
0.0
  0
LINE
  8
CSLAYER1
  6
CONTINUOUS
 62
     5
 10
428.315649
 20
538.763548
 11
428.315649
 21
526.278644
  0
LINE
  8
CSLAYER1
  6
CONTINUOUS
 62
     5
 10
436.334088
 20
532.601140
 11
419.890556
 21
532.601140
  0
LINE
  8
CSLAYER1
  6
CONTINUOUS
 62
     3
 10
426.315649
 20
506.513481
 11
426.315649
 21
496.602380
  0
LINE
  8
CSLAYER1
  6
CONTINUOUS
 62
     3
 10
438.315649
 20
506.513481
 11
438.315649
 21
496.602380
  0
ARC
  8
CSLAYER1
  6
CONTINUOUS
 62
     3
 10
665.815649
 20
583.802380
 40
7.500000
 50
60.034358
 51
88.397139
  0
ARC
  8
CSLAYER1
  6
CONTINUOUS
 62
     3
 10
558.815649
 20
583.802380
 40
7.500000
 50
91.602861
 51
119.965642
  0
LINE
  8
CSLAYER1
  6
CONTINUOUS
 62
     3
 10
558.815649
 20
592.802380
 11
667.815649
 21
592.802380
  0
LINE
  8
CSLAYER1
  6
CONTINUOUS
 62
     3
 10
520.815649
 20
588.802380
 11
612.315649
 21
592.802380
  0
LINE
  8
CSLAYER1
  6
CONTINUOUS
 62
     3
 10
612.315649
 20
592.802380
 11
703.815649
 21
588.802380
  0
LINE
  8
CSLAYER1
  6
CONTINUOUS
 62
     3
 10
514.815649
 20
524.802380
 11
535.386660
 21
524.802380
  0
LINE
  8
CSLAYER1
  6
CONTINUOUS
 62
     3
 10
703.815649
 20
588.802380
 11
709.815649
 21
524.802380
  0
LINE
  8
CSLAYER1
  6
CONTINUOUS
 62
     3
 10
520.815649
 20
588.802380
 11
514.815649
 21
524.802380
  0
LINE
  8
CSLAYER1
  6
CONTINUOUS
 62
     3
 10
683.080881
 20
524.802380
 11
709.815649
 21
524.802380
  0
LINE
  8
CSLAYER1
  6
CONTINUOUS
 62
     2
 10
517.006274
 20
569.502380
 11
519.006274
 21
569.502380
  0
LINE
  8
CSLAYER1
  6
CONTINUOUS
 62
     2
 10
517.006274
 20
588.102380
 11
519.006274
 21
588.102380
  0
LINE
  8
CSLAYER1
  6
CONTINUOUS
 62
     2
 10
519.006274
 20
588.102380
 11
519.006274
 21
569.502380
  0
LINE
  8
CSLAYER1
  6
CONTINUOUS
 62
     2
 10
517.006274
 20
588.102380
 11
517.006274
 21
569.502380
  0
LINE
  8
CSLAYER1
  6
CONTINUOUS
 62
     2
 10
513.506274
 20
584.402380
 11
513.506274
 21
573.202380
  0
LINE
  8
CSLAYER1
  6
CONTINUOUS
 62
     2
 10
513.506274
 20
573.202380
 11
517.006274
 21
573.202380
  0
LINE
  8
CSLAYER1
  6
CONTINUOUS
 62
     2
 10
513.506274
 20
584.402380
 11
517.006274
 21
584.402380
  0
LINE
  8
CSLAYER1
  6
CONTINUOUS
 62
     2
 10
513.506274
 20
581.802380
 11
517.006274
 21
581.802380
  0
LINE
  8
CSLAYER1
  6
CONTINUOUS
 62
     2
 10
513.506274
 20
575.802380
 11
517.006274
 21
575.802380
  0
LINE
  8
CSLAYER1
  6
CONTINUOUS
 62
     2
 10
519.006274
 20
583.552380
 11
520.323462
 21
583.552380
  0
LINE
  8
CSLAYER1
  6
CONTINUOUS
 62
     2
 10
519.006274
 20
582.552380
 11
520.229712
 21
582.552380
  0
LINE
  8
CSLAYER1
  6
CONTINUOUS
 62
     5
 10
509.916319
 20
578.802380
 11
522.065018
 21
578.802380
  0
LINE
  8
CSLAYER1
  6
CONTINUOUS
 62
     3
 10
514.815649
 20
524.802380
 11
517.459399
 21
496.602380
  0
LINE
  8
CSLAYER1
  6
CONTINUOUS
 62
     3
 10
709.815649
 20
524.802380
 11
707.171899
 21
496.602380
  0
LINE
  8
CSLAYER1
  6
CONTINUOUS
 62
     3
 10
667.815649
 20
592.802380
 11
667.815649
 21
591.030796
  0
LINE
  8
CSLAYER1
  6
CONTINUOUS
 62
     3
 10
558.815649
 20
592.802380
 11
558.815649
 21
591.305316
  0
LINE
  8
CSLAYER1
  6
CONTINUOUS
 62
     5
 10
561.815649
 20
592.402380
 11
561.815649
 21
573.155408
  0
LINE
  8
CSLAYER1
  6
CONTINUOUS
 62
     2
 10
572.815649
 20
589.802380
 11
550.815649
 21
589.802380
  0
LINE
  8
CSLAYER1
  6
CONTINUOUS
 62
     2
 10
555.302929
 20
582.302380
 11
546.315649
 21
582.302380
  0
LINE
  8
CSLAYER1
  6
CONTINUOUS
 62
     2
 10
550.815649
 20
589.802380
 11
550.815649
 21
584.802380
  0
LINE
  8
CSLAYER1
  6
CONTINUOUS
 62
     2
 10
572.815649
 20
589.802380
 11
572.815649
 21
584.802380
  0
LINE
  8
CSLAYER1
  6
CONTINUOUS
 62
     2
 10
567.815649
 20
589.802380
 11
567.815649
 21
584.802380
  0
LINE
  8
CSLAYER1
  6
CONTINUOUS
 62
     2
 10
555.815649
 20
589.802380
 11
555.815649
 21
584.802380
  0
LINE
  8
CSLAYER1
  6
CONTINUOUS
 62
     2
 10
546.315649
 20
584.802380
 11
546.315649
 21
582.302380
  0
LINE
  8
CSLAYER1
  6
CONTINUOUS
 62
     2
 10
577.315649
 20
584.802380
 11
577.315649
 21
583.264685
  0
LINE
  8
CSLAYER1
  6
CONTINUOUS
 62
     2
 10
577.315649
 20
584.802380
 11
546.315649
 21
584.802380
  0
LINE
  8
CSLAYER1
  6
CONTINUOUS
 62
     3
 10
533.121119
 20
581.332684
 11
612.315649
 21
584.794740
  0
LINE
  8
CSLAYER1
  6
CONTINUOUS
 62
     3
 10
612.315649
 20
584.794740
 11
691.510180
 21
581.332684
  0
ARC
  8
CSLAYER1
  6
CONTINUOUS
 62
     3
 10
533.776231
 20
566.346996
 40
15.000000
 50
92.503140
 51
174.644175
  0
ARC
  8
CSLAYER1
  6
CONTINUOUS
 62
     3
 10
690.855068
 20
566.346996
 40
15.000000
 50
5.355825
 51
87.496860
  0
LINE
  8
CSLAYER1
  6
CONTINUOUS
 62
     3
 10
612.315649
 20
592.802380
 11
666.025436
 21
591.299446
  0
LINE
  8
CSLAYER1
  6
CONTINUOUS
 62
     3
 10
612.315649
 20
592.802380
 11
558.605863
 21
591.299446
  0
LINE
  8
CSLAYER1
  6
CONTINUOUS
 62
     1
 10
709.815649
 20
535.002380
 11
709.815649
 21
561.602380
  0
LINE
  8
CSLAYER1
  6
CONTINUOUS
 62
     1
 10
713.815649
 20
542.528877
 11
713.815649
 21
554.075883
  0
LINE
  8
CSLAYER1
  6
CONTINUOUS
 62
     1
 10
715.815649
 20
545.302380
 11
715.815649
 21
551.302380
  0
LINE
  8
CSLAYER1
  6
CONTINUOUS
 62
     1
 10
709.815649
 20
561.602380
 11
706.365649
 21
561.602380
  0
LINE
  8
CSLAYER1
  6
CONTINUOUS
 62
     1
 10
709.815649
 20
542.567400
 11
708.150179
 21
542.567400
  0
LINE
  8
CSLAYER1
  6
CONTINUOUS
 62
     1
 10
709.815649
 20
540.777566
 11
708.317976
 21
540.777566
  0
LINE
  8
CSLAYER1
  6
CONTINUOUS
 62
     1
 10
709.815649
 20
535.002380
 11
708.859399
 21
535.002380
  0
LINE
  8
CSLAYER1
  6
CONTINUOUS
 62
     1
 10
713.815649
 20
554.075883
 11
709.815649
 21
554.075883
  0
LINE
  8
CSLAYER1
  6
CONTINUOUS
 62
     1
 10
713.815649
 20
551.189132
 11
709.815649
 21
551.189132
  0
LINE
  8
CSLAYER1
  6
CONTINUOUS
 62
     1
 10
713.815649
 20
545.415629
 11
709.815649
 21
545.415629
  0
LINE
  8
CSLAYER1
  6
CONTINUOUS
 62
     1
 10
713.815649
 20
542.528877
 11
709.815649
 21
542.528877
  0
LINE
  8
CSLAYER1
  6
CONTINUOUS
 62
     1
 10
713.815649
 20
551.302380
 11
715.815649
 21
551.302380
  0
LINE
  8
CSLAYER1
  6
CONTINUOUS
 62
     1
 10
713.815649
 20
545.302380
 11
715.815649
 21
545.302380
  0
LINE
  8
CSLAYER1
  6
CONTINUOUS
 62
     1
 10
741.315649
 20
499.052380
 11
741.315649
 21
502.552380
  0
LINE
  8
CSLAYER1
  6
CONTINUOUS
 62
     1
 10
737.915649
 20
496.602380
 11
737.915649
 21
513.302380
  0
LINE
  8
CSLAYER1
  6
CONTINUOUS
 62
     1
 10
737.515649
 20
496.602380
 11
737.515649
 21
517.302380
  0
LINE
  8
CSLAYER1
  6
CONTINUOUS
 62
     1
 10
737.515649
 20
513.302380
 11
737.915649
 21
513.302380
  0
LINE
  8
CSLAYER1
  6
CONTINUOUS
 62
     1
 10
737.915649
 20
505.552380
 11
738.315649
 21
505.552380
  0
ARC
  8
CSLAYER1
  6
CONTINUOUS
 62
     1
 10
738.315649
 20
502.552380
 40
3.000000
 50
0.000000
 51
90.000000
  0
ARC
  8
CSLAYER1
  6
CONTINUOUS
 62
     1
 10
738.315649
 20
499.052380
 40
3.000000
 50
305.247507
 51
360.000000
  0
LINE
  8
CSLAYER1
  6
CONTINUOUS
 62
     1
 10
737.515649
 20
511.302380
 11
708.578461
 21
511.605705
  0
LINE
  8
CSLAYER1
  6
CONTINUOUS
 62
     1
 10
709.196014
 20
518.192935
 11
737.515649
 21
517.302380
  0
LINE
  8
CSLAYER1
  6
CONTINUOUS
 62
     5
 10
718.821616
 20
548.302380
 11
700.590958
 21
548.302380
  0
LINE
  8
CSLAYER1
  6
CONTINUOUS
 62
     1
 10
507.315649
 20
496.602380
 11
507.315649
 21
507.617335
  0
LINE
  8
CSLAYER1
  6
CONTINUOUS
 62
     1
 10
516.886823
 20
502.709857
 11
507.315649
 21
502.709857
  0
LINE
  8
CSLAYER1
  6
CONTINUOUS
 62
     1
 10
516.426747
 20
507.617335
 11
507.315649
 21
507.617335
  0
LINE
  8
CSLAYER1
  6
CONTINUOUS
 62
     5
 10
500.630694
 20
497.802380
 11
525.815649
 21
497.802380
  0
LINE
  8
CSLAYER1
  6
CONTINUOUS
 62
     5
 10
697.797884
 20
500.802380
 11
745.844335
 21
500.802380
  0
LINE
  8
CSLAYER1
  6
CONTINUOUS
 62
     1
 10
709.815649
 20
554.037361
 11
707.074870
 21
554.037361
  0
LINE
  8
CSLAYER1
  6
CONTINUOUS
 62
     1
 10
709.815649
 20
555.827195
 11
706.907073
 21
555.827195
  0
LINE
  8
CSLAYER1
  6
CENTER
 62
     5
 10
612.315649
 20
610.207092
 11
612.315649
 21
446.602380
  0
LINE
  8
CSLAYER1
  6
CENTER
 62
     5
 10
728.690912
 20
526.802380
 11
495.744492
 21
526.802380
  0
LINE
  8
CSLAYER1
  6
CONTINUOUS
 62
     5
 10
1221.315649
 20
487.979586
 11
1221.315649
 21
458.288054
  0
LINE
  8
CSLAYER1
  6
CONTINUOUS
 62
     5
 10
1241.395772
 20
473.602380
 11
1203.001551
 21
473.602380
  0
LINE
  8
CSLAYER1
  6
CONTINUOUS
 62
     3
 10
2087.315649
 20
2145.149310
 11
1187.315649
 21
2145.149310
  0
LINE
  8
CSLAYER1
  6
CONTINUOUS
 62
     3
 10
2087.315649
 20
1545.149310
 11
1187.315649
 21
1545.149310
  0
LINE
  8
CSLAYER1
  6
CONTINUOUS
 62
     5
 10
2097.315649
 20
2145.149310
 11
2197.315649
 21
2145.149310
  0
LINE
  8
CSLAYER1
  6
CONTINUOUS
 62
     5
 10
2097.315649
 20
1545.149310
 11
2197.315649
 21
1545.149310
  0
LINE
  8
CSLAYER1
  6
CONTINUOUS
 62
     3
 10
337.315649
 20
1221.602380
 11
337.315649
 21
1171.602380
  0
LINE
  8
CSLAYER1
  6
CONTINUOUS
 62
     3
 10
937.315649
 20
1221.602380
 11
937.315649
 21
1171.602380
  0
LINE
  8
CSLAYER1
  6
CONTINUOUS
 62
     3
 10
457.315649
 20
530.836983
 11
515.381393
 21
530.836983
  0
LINE
  8
CSLAYER1
  6
CENTER
 62
     5
 10
438.315649
 20
500.586983
 11
836.315649
 21
500.586983
  0
LINE
  8
CSLAYER1
  6
CONTINUOUS
 62
     3
 10
760.410459
 20
530.836983
 11
817.315649
 21
530.836983
  0
CIRCLE
  8
CSLAYER1
  6
CONTINUOUS
 62
     3
 10
1436.981688
 20
834.002380
 40
8.000000
  0
LINE
  8
CSLAYER1
  6
CONTINUOUS
 62
     3
 10
1334.315649
 20
592.802380
 11
1334.315649
 21
496.602380
  0
LINE
  8
CSLAYER1
  6
CONTINUOUS
 62
     3
 10
1374.315649
 20
592.802380
 11
1374.315649
 21
510.802380
  0
LINE
  8
CSLAYER1
  6
CONTINUOUS
 62
     3
 10
1374.315649
 20
592.802380
 11
1319.032137
 21
592.802380
  0
LINE
  8
CSLAYER1
  6
CONTINUOUS
 62
     3
 10
1299.315649
 20
562.455084
 11
1299.315649
 21
536.802380
  0
LINE
  8
CSLAYER1
  6
CONTINUOUS
 62
     3
 10
1325.315649
 20
592.802380
 11
1325.315649
 21
543.526069
  0
LINE
  8
CSLAYER1
  6
CONTINUOUS
 62
     3
 10
1325.315649
 20
506.991136
 11
1325.315649
 21
496.602380
  0
LINE
  8
CSLAYER1
  6
CONTINUOUS
 62
     3
 10
1325.315649
 20
556.802380
 11
1299.315649
 21
556.802380
  0
LINE
  8
CSLAYER1
  6
CONTINUOUS
 62
     3
 10
1325.315649
 20
496.802380
 11
1299.315649
 21
496.802380
  0
LINE
  8
CSLAYER1
  6
CONTINUOUS
 62
     5
 10
1322.215649
 20
580.802380
 11
1318.215649
 21
580.802380
  0
LINE
  8
CSLAYER1
  6
CONTINUOUS
 62
     5
 10
1323.715649
 20
578.052380
 11
1318.215649
 21
578.052380
  0
LINE
  8
CSLAYER1
  6
CONTINUOUS
 62
     5
 10
1322.215649
 20
586.802380
 11
1318.215649
 21
586.802380
  0
LINE
  8
CSLAYER1
  6
CONTINUOUS
 62
     5
 10
1323.715649
 20
589.552380
 11
1318.215649
 21
589.552380
  0
LINE
  8
CSLAYER1
  6
CONTINUOUS
 62
     5
 10
1323.715649
 20
590.052380
 11
1323.715649
 21
577.552380
  0
LINE
  8
CSLAYER1
  6
CONTINUOUS
 62
     5
 10
1322.215649
 20
589.552380
 11
1322.215649
 21
578.052380
  0
LINE
  8
CSLAYER1
  6
CONTINUOUS
 62
     5
 10
1318.215649
 20
589.552380
 11
1318.215649
 21
578.052380
  0
LINE
  8
CSLAYER1
  6
CONTINUOUS
 62
     5
 10
1325.315649
 20
590.052380
 11
1323.715649
 21
590.052380
  0
LINE
  8
CSLAYER1
  6
CONTINUOUS
 62
     5
 10
1325.315649
 20
577.552380
 11
1323.715649
 21
577.552380
  0
LINE
  8
CSLAYER1
  6
CONTINUOUS
 62
     5
 10
1338.711516
 20
583.802380
 11
1315.108159
 21
583.802380
  0
LINE
  8
CSLAYER1
  6
CONTINUOUS
 62
     3
 10
1299.315649
 20
516.802380
 11
1299.315649
 21
496.602380
  0
LINE
  8
CSLAYER1
  6
CONTINUOUS
 62
     5
 10
1376.815649
 20
500.802380
 11
1334.315649
 21
500.802380
  0
LINE
  8
CSLAYER1
  6
CONTINUOUS
 62
     5
 10
1374.315649
 20
548.302380
 11
1334.315649
 21
548.302380
  0
CIRCLE
  8
CSLAYER1
  6
CONTINUOUS
 62
     1
 10
1355.815649
 20
579.302380
 40
3.500000
  0
ARC
  8
CSLAYER1
  6
CONTINUOUS
 62
     1
 10
1355.815649
 20
579.302380
 40
10.000000
 50
-69.512685
 51
249.512685
  0
CIRCLE
  8
CSLAYER1
  6
CONTINUOUS
 62
     1
 10
1355.815649
 20
548.302380
 40
17.000000
  0
CIRCLE
  8
CSLAYER1
  6
CONTINUOUS
 62
     1
 10
1355.815649
 20
548.302380
 40
12.000000
  0
ARC
  8
CSLAYER1
  6
CONTINUOUS
 62
     1
 10
1355.815649
 20
548.302380
 40
13.300000
 50
-4.456163
 51
4.456163
  0
LINE
  8
CSLAYER1
  6
CONTINUOUS
 62
     1
 10
1352.315649
 20
569.934883
 11
1352.315649
 21
564.938185
  0
LINE
  8
CSLAYER1
  6
CONTINUOUS
 62
     1
 10
1359.315649
 20
569.934883
 11
1359.315649
 21
564.938185
  0
LINE
  8
CSLAYER1
  6
CONTINUOUS
 62
     5
 10
1369.451217
 20
579.302380
 11
1343.511816
 21
579.302380
  0
LINE
  8
CSLAYER1
  6
CONTINUOUS
 62
     1
 10
1374.315649
 20
576.302380
 11
1365.355041
 21
576.302380
  0
LINE
  8
CSLAYER1
  6
CONTINUOUS
 62
     1
 10
1346.276257
 20
576.302380
 11
1334.315649
 21
576.302380
  0
CIRCLE
  8
CSLAYER1
  6
CONTINUOUS
 62
     1
 10
1355.815649
 20
548.302380
 40
5.000000
  0
LINE
  8
CSLAYER1
  6
CONTINUOUS
 62
     1
 10
1361.550630
 20
560.302380
 11
1350.080669
 21
560.302380
  0
LINE
  8
CSLAYER1
  6
CONTINUOUS
 62
     1
 10
1361.550630
 20
536.302380
 11
1350.080669
 21
536.302380
  0
LINE
  8
CSLAYER1
  6
CONTINUOUS
 62
     1
 10
1369.075444
 20
549.335741
 11
1363.340464
 21
559.269019
  0
LINE
  8
CSLAYER1
  6
CONTINUOUS
 62
     1
 10
1348.290835
 20
537.335741
 11
1342.555854
 21
547.269019
  0
LINE
  8
CSLAYER1
  6
CONTINUOUS
 62
     1
 10
1342.555854
 20
549.335741
 11
1348.290835
 21
559.269019
  0
LINE
  8
CSLAYER1
  6
CONTINUOUS
 62
     1
 10
1363.340464
 20
537.335741
 11
1369.075444
 21
547.269019
  0
LINE
  8
CSLAYER1
  6
CONTINUOUS
 62
     1
 10
1350.042147
 20
548.302380
 11
1352.928898
 21
553.302380
  0
LINE
  8
CSLAYER1
  6
CONTINUOUS
 62
     1
 10
1358.702401
 20
543.302380
 11
1361.589152
 21
548.302380
  0
LINE
  8
CSLAYER1
  6
CONTINUOUS
 62
     1
 10
1352.928898
 20
543.302380
 11
1350.042147
 21
548.302380
  0
LINE
  8
CSLAYER1
  6
CONTINUOUS
 62
     1
 10
1361.589152
 20
548.302380
 11
1358.702401
 21
553.302380
  0
LINE
  8
CSLAYER1
  6
CONTINUOUS
 62
     1
 10
1358.702401
 20
553.302380
 11
1352.928898
 21
553.302380
  0
LINE
  8
CSLAYER1
  6
CONTINUOUS
 62
     1
 10
1358.702401
 20
543.302380
 11
1352.928898
 21
543.302380
  0
CIRCLE
  8
CSLAYER1
  6
CONTINUOUS
 62
     1
 10
1355.815649
 20
548.302380
 40
3.000000
  0
LINE
  8
CSLAYER1
  6
CONTINUOUS
 62
     1
 10
1356.681675
 20
549.802380
 11
1354.949624
 21
549.802380
  0
LINE
  8
CSLAYER1
  6
CONTINUOUS
 62
     1
 10
1356.681675
 20
546.802380
 11
1354.949624
 21
546.802380
  0
LINE
  8
CSLAYER1
  6
CONTINUOUS
 62
     1
 10
1354.083599
 20
548.302380
 11
1354.949624
 21
549.802380
  0
LINE
  8
CSLAYER1
  6
CONTINUOUS
 62
     1
 10
1356.681675
 20
546.802380
 11
1357.547700
 21
548.302380
  0
LINE
  8
CSLAYER1
  6
CONTINUOUS
 62
     1
 10
1354.083599
 20
548.302380
 11
1354.949624
 21
546.802380
  0
LINE
  8
CSLAYER1
  6
CONTINUOUS
 62
     1
 10
1356.681675
 20
549.802380
 11
1357.547700
 21
548.302380
  0
ARC
  8
CSLAYER1
  6
CONTINUOUS
 62
     1
 10
1355.815649
 20
548.302380
 40
13.300000
 50
115.543837
 51
124.456163
  0
ARC
  8
CSLAYER1
  6
CONTINUOUS
 62
     1
 10
1355.815649
 20
548.302380
 40
13.300000
 50
55.543837
 51
64.456163
  0
ARC
  8
CSLAYER1
  6
CONTINUOUS
 62
     1
 10
1355.815649
 20
548.302380
 40
13.300000
 50
175.543837
 51
184.456163
  0
ARC
  8
CSLAYER1
  6
CONTINUOUS
 62
     1
 10
1355.815649
 20
548.302380
 40
13.300000
 50
295.543837
 51
304.456163
  0
ARC
  8
CSLAYER1
  6
CONTINUOUS
 62
     1
 10
1355.815649
 20
548.302380
 40
13.300000
 50
235.543837
 51
244.456163
  0
LINE
  8
CSLAYER1
  6
CONTINUOUS
 62
     1
 10
1361.315649
 20
532.216672
 11
1361.315649
 21
518.802380
  0
LINE
  8
CSLAYER1
  6
CONTINUOUS
 62
     1
 10
1337.815649
 20
511.802380
 11
1337.815649
 21
496.602380
  0
LINE
  8
CSLAYER1
  6
CONTINUOUS
 62
     1
 10
1373.815649
 20
511.802380
 11
1373.815649
 21
496.602380
  0
LINE
  8
CSLAYER1
  6
CONTINUOUS
 62
     1
 10
1366.815649
 20
518.802380
 11
1344.815649
 21
518.802380
  0
ARC
  8
CSLAYER1
  6
CONTINUOUS
 62
     1
 10
1355.815649
 20
500.802380
 40
12.500000
 50
-19.633359
 51
199.633359
  0
ARC
  8
CSLAYER1
  6
CONTINUOUS
 62
     1
 10
1355.815649
 20
500.802380
 40
4.750000
 50
-62.154524
 51
242.154524
  0
LINE
  8
CSLAYER1
  6
CONTINUOUS
 62
     1
 10
1339.315649
 20
511.302380
 11
1339.315649
 21
496.602380
  0
LINE
  8
CSLAYER1
  6
CONTINUOUS
 62
     1
 10
1372.315649
 20
511.302380
 11
1372.315649
 21
496.602380
  0
LINE
  8
CSLAYER1
  6
CONTINUOUS
 62
     1
 10
1366.315649
 20
517.302380
 11
1345.315649
 21
517.302380
  0
LINE
  8
CSLAYER1
  6
CONTINUOUS
 62
     1
 10
1356.681675
 20
502.302380
 11
1354.949624
 21
502.302380
  0
LINE
  8
CSLAYER1
  6
CONTINUOUS
 62
     1
 10
1356.681675
 20
499.302380
 11
1354.949624
 21
499.302380
  0
LINE
  8
CSLAYER1
  6
CONTINUOUS
 62
     1
 10
1356.681675
 20
499.302380
 11
1357.547700
 21
500.802380
  0
LINE
  8
CSLAYER1
  6
CONTINUOUS
 62
     1
 10
1354.083599
 20
500.802380
 11
1354.949624
 21
502.302380
  0
LINE
  8
CSLAYER1
  6
CONTINUOUS
 62
     1
 10
1354.083599
 20
500.802380
 11
1354.949624
 21
499.302380
  0
LINE
  8
CSLAYER1
  6
CONTINUOUS
 62
     1
 10
1356.681675
 20
502.302380
 11
1357.547700
 21
500.802380
  0
LINE
  8
CSLAYER1
  6
CONTINUOUS
 62
     1
 10
1345.315649
 20
517.302380
 11
1339.315649
 21
511.302380
  0
LINE
  8
CSLAYER1
  6
CONTINUOUS
 62
     1
 10
1366.315649
 20
517.302380
 11
1372.315649
 21
511.302380
  0
LINE
  8
CSLAYER1
  6
CONTINUOUS
 62
     1
 10
1337.815649
 20
511.802380
 11
1344.815649
 21
518.802380
  0
LINE
  8
CSLAYER1
  6
CONTINUOUS
 62
     1
 10
1366.815649
 20
518.802380
 11
1373.815649
 21
511.802380
  0
LINE
  8
CSLAYER1
  6
CONTINUOUS
 62
     1
 10
1376.815649
 20
510.802380
 11
1376.815649
 21
496.602380
  0
LINE
  8
CSLAYER1
  6
CONTINUOUS
 62
     1
 10
1379.315649
 20
508.802380
 11
1379.315649
 21
496.602380
  0
LINE
  8
CSLAYER1
  6
CONTINUOUS
 62
     1
 10
1376.815649
 20
510.802380
 11
1373.815649
 21
510.802380
  0
LINE
  8
CSLAYER1
  6
CONTINUOUS
 62
     1
 10
1379.315649
 20
508.802380
 11
1376.815649
 21
508.802380
  0
LINE
  8
CSLAYER1
  6
CONTINUOUS
 62
     5
 10
1394.315649
 20
504.802380
 11
1372.315649
 21
504.802380
  0
LINE
  8
CSLAYER1
  6
CONTINUOUS
 62
     5
 10
1394.315649
 20
496.802380
 11
1372.315649
 21
496.802380
  0
LINE
  8
CSLAYER1
  6
CONTINUOUS
 62
     1
 10
1394.315649
 20
503.302380
 11
1379.315649
 21
503.302380
  0
LINE
  8
CSLAYER1
  6
CONTINUOUS
 62
     1
 10
1394.665649
 20
506.302380
 11
1379.315649
 21
506.302380
  0
LINE
  8
CSLAYER1
  6
CONTINUOUS
 62
     1
 10
1394.315649
 20
498.302380
 11
1379.315649
 21
498.302380
  0
LINE
  8
CSLAYER1
  6
CONTINUOUS
 62
     5
 10
1380.815649
 20
503.302380
 11
1380.815649
 21
498.302380
  0
ARC
  8
CSLAYER1
  6
CONTINUOUS
 62
     1
 10
1354.655993
 20
526.867509
 40
12.340516
 50
139.190298
 51
220.809702
  0
LINE
  8
CSLAYER1
  6
CONTINUOUS
 62
     1
 10
1338.815649
 20
548.302380
 11
1338.815649
 21
512.802380
  0
LINE
  8
CSLAYER1
  6
CONTINUOUS
 62
     5
 10
1380.815649
 20
592.402380
 11
1380.815649
 21
506.302380
  0
LINE
  8
CSLAYER1
  6
CONTINUOUS
 62
     5
 10
1355.815649
 20
592.802380
 11
1355.815649
 21
496.602380
  0
LINE
  8
CSLAYER1
  6
CONTINUOUS
 62
     5
 10
3354.260236
 20
2191.054554
 11
2633.387719
 21
2191.054554
  0
LINE
  8
CSLAYER1
  6
CONTINUOUS
 62
     5
 10
3354.260236
 20
2127.054556
 11
2633.387719
 21
2127.054556
  0
LINE
  8
CSLAYER1
  6
CONTINUOUS
 62
     5
 10
3354.260236
 20
2063.054557
 11
2633.387719
 21
2063.054557
  0
LINE
  8
CSLAYER1
  6
CONTINUOUS
 62
     5
 10
3354.260236
 20
1999.054559
 11
2634.260254
 21
1999.054559
  0
LINE
  8
CSLAYER1
  6
CONTINUOUS
 62
     5
 10
3354.260236
 20
1935.054561
 11
2633.387719
 21
1935.054561
  0
LINE
  8
CSLAYER1
  6
CONTINUOUS
 62
     5
 10
3354.260236
 20
1871.054562
 11
2633.387719
 21
1871.054562
  0
LINE
  8
CSLAYER1
  6
CONTINUOUS
 62
     5
 10
3354.260236
 20
1807.054564
 11
2633.387719
 21
1807.054564
  0
LINE
  8
CSLAYER1
  6
CONTINUOUS
 62
     5
 10
3354.260236
 20
1743.054565
 11
2633.387719
 21
1743.054565
  0
LINE
  8
CSLAYER1
  6
CONTINUOUS
 62
     5
 10
3354.260236
 20
1679.054567
 11
2633.387719
 21
1679.054567
  0
LINE
  8
CSLAYER1
  6
CONTINUOUS
 62
     5
 10
3354.260236
 20
1615.054569
 11
2633.387719
 21
1615.054569
  0
LINE
  8
CSLAYER1
  6
CONTINUOUS
 62
     5
 10
3354.260236
 20
1551.054570
 11
2633.387719
 21
1551.054570
  0
TEXT
  8
CSLAYER1
 62
     3
 10
2829.111572
 20
2270.873779
 40
40.000000
 41
0.857143
  1
仕   様
 50
0.000000
 51
0.000000
  7
EASYDRAW_FONT
 72
     5
 11
2989.111572
 21
2270.873779
  0
TEXT
  8
CSLAYER1
 62
     3
 10
2644.147217
 20
2199.277832
 40
40.000000
 41
0.847059
  1
型    式
 50
0.000000
 51
0.000000
  7
EASYDRAW_FONT
 72
     5
 11
2836.147217
 21
2199.277832
  0
TEXT
  8
CSLAYER1
 62
     3
 10
2642.327637
 20
2076.787842
 40
40.000000
 41
0.847059
  1
テーブル寸法
 50
0.000000
 51
0.000000
  7
EASYDRAW_FONT
 72
     5
 11
2834.327637
 21
2076.787842
  0
TEXT
  8
CSLAYER1
 62
     3
 10
2644.147217
 20
2013.723755
 40
40.000000
 41
0.847059
  1
テーブル高サ
 50
0.000000
 51
0.000000
  7
EASYDRAW_FONT
 72
     5
 11
2836.147217
 21
2013.723755
  0
TEXT
  8
CSLAYER1
 62
     3
 10
2645.593994
 20
1948.841064
 40
40.000000
 41
0.857143
  1
ストローク
 50
0.000000
 51
0.000000
  7
EASYDRAW_FONT
 72
     5
 11
2805.593994
 21
1948.841064
  0
TEXT
  8
CSLAYER1
 62
     3
 10
2644.987793
 20
1883.958252
 40
40.000000
 41
0.857143
  1
全   長
 50
0.000000
 51
0.000000
  7
EASYDRAW_FONT
 72
     5
 11
2804.987793
 21
1883.958252
  0
TEXT
  8
CSLAYER1
 62
     3
 10
2647.259033
 20
1818.107544
 40
40.000000
 41
0.857143
  1
全   巾
 50
0.000000
 51
0.000000
  7
EASYDRAW_FONT
 72
     5
 11
2807.259033
 21
1818.107544
  0
TEXT
  8
CSLAYER1
 62
     3
 10
2645.701172
 20
1754.222290
 40
40.000000
 41
0.857143
  1
全   高
 50
0.000000
 51
0.000000
  7
EASYDRAW_FONT
 72
     5
 11
2805.701172
 21
1754.222290
  0
TEXT
  8
CSLAYER1
 62
     3
 10
2645.701172
 20
1691.895752
 40
40.000000
 41
0.857143
  1
リフト方式
 50
0.000000
 51
0.000000
  7
EASYDRAW_FONT
 72
     5
 11
2805.701172
 21
1691.895752
  0
TEXT
  8
CSLAYER1
 62
     3
 10
2644.560791
 20
1561.008301
 40
40.000000
 41
0.872727
  1
モーター
 50
0.000000
 51
0.000000
  7
EASYDRAW_FONT
 72
     5
 11
2772.560791
 21
1561.008301
  0
LINE
  8
CSLAYER1
  6
CONTINUOUS
 62
     5
 10
3354.260236
 20
1487.054572
 11
2633.387719
 21
1487.054572
  0
LINE
  8
CSLAYER1
  6
CONTINUOUS
 62
     5
 10
3354.260236
 20
1359.054575
 11
2631.249217
 21
1359.054575
  0
LINE
  8
CSLAYER1
  6
CONTINUOUS
 62
     5
 10
3354.260236
 20
1295.054577
 11
2633.387719
 21
1295.054577
  0
LINE
  8
CSLAYER1
  6
CONTINUOUS
 62
     5
 10
3354.260236
 20
1231.054578
 11
2633.387719
 21
1231.054578
  0
LINE
  8
CSLAYER1
  6
CONTINUOUS
 62
     5
 10
3354.260236
 20
1167.054580
 11
2633.387719
 21
1167.054580
  0
TEXT
  8
CSLAYER1
 62
     3
 10
2647.142334
 20
1242.176392
 40
40.000000
 41
0.857143
  1
自  　重
 50
0.000000
 51
0.000000
  7
EASYDRAW_FONT
 72
     5
 11
2807.142334
 21
1242.176392
  0
TEXT
  8
CSLAYER1
 62
     3
 10
2643.802246
 20
1178.837036
 40
40.000000
 41
0.825000
  1
塗装色（マンセル値） 
 50
0.000000
 51
0.000000
  7
EASYDRAW_FONT
 72
     5
 11
2995.802246
 21
1178.837036
  0
TEXT
  8
CSLAYER1
 62
     3
 10
3125.813721
 20
2135.393799
 40
40.000000
 41
0.900000
  1
500
 50
0.000000
 51
0.000000
  7
EASYDRAW_FONT
 72
     5
 11
3221.813721
 21
2135.393799
  0
TEXT
  8
CSLAYER1
 62
     3
 10
3283.726318
 20
2134.112793
 40
40.000000
 41
0.960000
  1
Ｋｇ
 50
0.000000
 51
0.000000
  7
EASYDRAW_FONT
 72
     5
 11
3347.726318
 21
2134.112793
  0
TEXT
  8
CSLAYER1
 62
     3
 10
2966.627197
 20
2071.797363
 40
40.000000
 41
0.834783
  1
900 ×600
 50
0.000000
 51
0.000000
  7
EASYDRAW_FONT
 72
     5
 11
3222.627197
 21
2071.797363
  0
TEXT
  8
CSLAYER1
 62
     3
 10
3225.921875
 20
2083.620605
 40
40.000000
 41
1.200000
  1
Ｗ
 50
0.000000
 51
0.000000
  7
EASYDRAW_FONT
 72
     5
 11
3257.921875
 21
2083.620605
  0
TEXT
  8
CSLAYER1
 62
     3
 10
3059.505371
 20
2089.784424
 40
40.000000
 41
1.200000
  1
Ｌ
 50
0.000000
 51
0.000000
  7
EASYDRAW_FONT
 72
     5
 11
3091.505371
 21
2089.784424
  0
TEXT
  8
CSLAYER1
 62
     3
 10
2997.161377
 20
2010.748779
 40
40.000000
 41
0.840000
  1
155～775
 50
0.000000
 51
0.000000
  7
EASYDRAW_FONT
 72
     5
 11
3221.161377
 21
2010.748779
  0
TEXT
  8
CSLAYER1
 62
     3
 10
3127.749512
 20
1946.780151
 40
40.000000
 41
0.900000
  1
620
 50
0.000000
 51
0.000000
  7
EASYDRAW_FONT
 72
     5
 11
3223.749512
 21
1946.780151
  0
TEXT
  8
CSLAYER1
 62
     3
 10
3127.749512
 20
1881.771118
 40
40.000000
 41
0.900000
  1
900
 50
0.000000
 51
0.000000
  7
EASYDRAW_FONT
 72
     5
 11
3223.749512
 21
1881.771118
  0
TEXT
  8
CSLAYER1
 62
     3
 10
3125.527100
 20
1818.984497
 40
40.000000
 41
0.900000
  1
600
 50
0.000000
 51
0.000000
  7
EASYDRAW_FONT
 72
     5
 11
3221.527100
 21
1818.984497
  0
TEXT
  8
CSLAYER1
 62
     3
 10
2932.738281
 20
1692.850464
 40
40.000000
 41
0.830769
  1
電 動 油 圧 式
 50
0.000000
 51
0.000000
  7
EASYDRAW_FONT
 72
     5
 11
3220.738281
 21
1692.850464
  0
TEXT
  8
CSLAYER1
 62
     3
 10
2854.021729
 20
1564.648071
 40
40.000000
 41
0.817021
  1
ＡＣ2００Ｖ，3相,0.55ＫＷ
 50
0.000000
 51
0.000000
  7
EASYDRAW_FONT
 72
     5
 11
3366.021729
 21
1564.648071
  0
TEXT
  8
CSLAYER1
 62
     3
 10
3006.650635
 20
1498.081665
 40
40.000000
 41
0.840000
  1
長 サ ４ ｍ
 50
0.000000
 51
0.000000
  7
EASYDRAW_FONT
 72
     5
 11
3230.650635
 21
1498.081665
  0
TEXT
  8
CSLAYER1
 62
     3
 10
2852.817581
 20
1431.248241
 40
38.786964
 41
0.594698
  1
１5ｓｅｃ／50ＨＺ,１2sec/60HZ
 50
0.000000
 51
0.000000
  7
EASYDRAW_FONT
 72
     5
 11
3329.526169
 21
1431.248241
  0
TEXT
  8
CSLAYER1
 62
     3
 10
3117.321533
 20
1243.310059
 40
40.000000
 41
0.840000
  1
98  　Ｋｇ
 50
0.000000
 51
0.000000
  7
EASYDRAW_FONT
 72
     5
 11
3341.321533
 21
1243.310059
  0
TEXT
  8
CSLAYER1
 62
     3
 10
3123.518311
 20
1754.323120
 40
40.000000
 41
0.900000
  1
155
 50
0.000000
 51
0.000000
  7
EASYDRAW_FONT
 72
     5
 11
3219.518311
 21
1754.323120
  0
TEXT
  8
CSLAYER1
 62
     3
 10
3281.212158
 20
2070.009277
 40
40.000000
 41
0.960000
  1
mm
 50
0.000000
 51
0.000000
  7
EASYDRAW_FONT
 72
     5
 11
3345.212158
 21
2070.009277
  0
TEXT
  8
CSLAYER1
 62
     3
 10
3281.212158
 20
2009.676147
 40
40.000000
 41
0.960000
  1
mm
 50
0.000000
 51
0.000000
  7
EASYDRAW_FONT
 72
     5
 11
3345.212158
 21
2009.676147
  0
TEXT
  8
CSLAYER1
 62
     3
 10
3277.441406
 20
1945.572388
 40
40.000000
 41
0.960000
  1
mm
 50
0.000000
 51
0.000000
  7
EASYDRAW_FONT
 72
     5
 11
3341.441406
 21
1945.572388
  0
TEXT
  8
CSLAYER1
 62
     3
 10
3277.441406
 20
1877.697388
 40
40.000000
 41
0.960000
  1
mm
 50
0.000000
 51
0.000000
  7
EASYDRAW_FONT
 72
     5
 11
3341.441406
 21
1877.697388
  0
TEXT
  8
CSLAYER1
 62
     3
 10
3274.927979
 20
1817.364502
 40
40.000000
 41
0.960000
  1
mm
 50
0.000000
 51
0.000000
  7
EASYDRAW_FONT
 72
     5
 11
3338.927979
 21
1817.364502
  0
TEXT
  8
CSLAYER1
 62
     3
 10
3274.927979
 20
1753.259888
 40
40.000000
 41
0.960000
  1
mm
 50
0.000000
 51
0.000000
  7
EASYDRAW_FONT
 72
     5
 11
3338.927979
 21
1753.259888
  0
LINE
  8
CSLAYER1
  6
CONTINUOUS
 62
     5
 10
3017.164657
 20
2255.054553
 11
2808.778685
 21
2255.054553
  0
LINE
  8
CSLAYER1
  6
CONTINUOUS
 62
     5
 10
3017.164657
 20
2263.054552
 11
2808.778685
 21
2263.054552
  0
TEXT
  8
CSLAYER1
 62
     3
 10
2648.142822
 20
1624.894165
 40
40.000000
 41
1.036364
  1
操作方式
 50
0.000000
 51
0.000000
  7
EASYDRAW_FONT
 72
     5
 11
2800.142822
 21
1624.894165
  0
LINE
  8
CSLAYER1
  6
CONTINUOUS
 62
     5
 10
3354.260236
 20
1423.054573
 11
2633.387719
 21
1423.054573
  0
TEXT
  8
CSLAYER1
 62
     3
 10
2645.477051
 20
1497.691040
 40
40.000000
 41
0.942857
  1
電源コード
 50
0.000000
 51
0.000000
  7
EASYDRAW_FONT
 72
     5
 11
2821.477051
 21
1497.691040
  0
TEXT
  8
CSLAYER1
 62
     3
 10
3009.842773
 20
1178.022095
 40
40.000000
 41
0.930000
  1
１０Ｒ４／１３
 50
0.000000
 51
0.000000
  7
EASYDRAW_FONT
 72
     5
 11
3257.842773
 21
1178.022095
  0
TEXT
  8
CSLAYER1
 62
     3
 10
2642.859863
 20
1433.414307
 40
40.000000
 41
0.954545
  1
上昇時間
 50
0.000000
 51
0.000000
  7
EASYDRAW_FONT
 72
     5
 11
2782.859863
 21
1433.414307
  0
TEXT
  8
CSLAYER1
 62
     3
 10
2768.798340
 20
1371.724121
 40
40.000000
 41
0.917143
  1
上昇端リミットスイッチ付
 50
0.000000
 51
0.000000
  7
EASYDRAW_FONT
 72
     5
 11
3196.798340
 21
1371.724121
  0
TEXT
  8
CSLAYER1
 62
     3
 10
2897.159459
 20
2200.787252
 40
40.809284
 41
0.900085
  1
GLE-500-0609
 50
0.000000
 51
0.000000
  7
EASYDRAW_FONT
 72
     5
 11
3325.697475
 21
2200.787252
  0
TEXT
  8
CSLAYER1
 62
     3
 10
2932.109375
 20
1629.982544
 40
40.000000
 41
1.020000
  1
フットスイッチ
 50
0.000000
 51
0.000000
  7
EASYDRAW_FONT
 72
     5
 11
3204.109375
 21
1629.982544
  0
TEXT
  8
CSLAYER1
 62
     3
 10
370.086243
 20
1877.933350
 40
50.000000
 41
1.020000
  1
コード長サ２ｍ
 50
0.000000
 51
0.000000
  7
EASYDRAW_FONT
 72
     5
 11
710.086243
 21
1877.933350
  0
TEXT
  8
CSLAYER1
 62
     3
 10
2648.142822
 20
2136.894043
 40
40.000000
 41
1.036364
  1
積載荷重
 50
0.000000
 51
0.000000
  7
EASYDRAW_FONT
 72
     5
 11
2800.142822
 21
2136.894043
  0
ENDSEC
  0
EOF
