  0
SECTION
  2
HEADER
  9
$ACADVER
  1
AC1006
  9
$INSBASE
 10
0.000000
 20
0.000000
 30
0.0
  9
$EXTMIN
 10
0.000000
 20
0.000000
  9
$EXTMAX
 10
3640.000000
 20
2570.000000
  9
$LIMMIN
 10
0.000000
 20
0.000000
  9
$LIMMAX
 10
3640.000000
 20
2570.000000
  9
$VIEWCTR
 10
1820.000000
 20
1285.000000
  9
$VIEWSIZE
 40
2570.000000
  9
$SNAPMODE
 70
     0
  9
$SNAPUNIT
 10
1.0
 20
1.0
  9
$SNAPBASE
 10
0.0
 20
0.0
  9
$SNAPANG
 50
0.0
  9
$SNAPSTYLE
 70
     0
  9
$SNAPISOPAIR
 70
     0
  9
$GRIDMODE
 70
     0
  9
$GRIDUNIT
 10
0.0
 20
0.0
  9
$ORTHOMODE
 70
     0
  9
$REGENMODE
 70
     1
  9
$FILLMODE
 70
     1
  9
$QTEXTMODE
 70
     0
  9
$DRAGMODE
 70
     2
  9
$LTSCALE
 40
15.000000
  9
$OSMODE
 70
     0
  9
$ATTMODE
 70
     1
  9
$TEXTSIZE
 40
0.2
  9
$TRACEWID
 40
0.05
  9
$TEXTSTYLE
  7
STANDARD
  9
$CLAYER
  8
CSLAYER1
  9
$CELTYPE
  6
BYLAYER
  9
$CECOLOR
 62
   256
  9
$DIMSCALE
 40
1.0
  9
$DIMASZ
 40
0.18
  9
$DIMEXO
 40
0.0625
  9
$DIMDLI
 40
0.38
  9
$DIMRND
 40
0.0
  9
$DIMDLE
 40
0.0
  9
$DIMEXE
 40
0.18
  9
$DIMTP
 40
0.0
  9
$DIMTM
 40
0.0
  9
$DIMTXT
 40
0.18
  9
$DIMCEN
 40
0.09
  9
$DIMTSZ
 40
0.0
  9
$DIMTOL
 70
     0
  9
$DIMLIM
 70
     0
  9
$DIMTIH
 70
     1
  9
$DIMTOH
 70
     1
  9
$DIMSE1
 70
     0
  9
$DIMSE2
 70
     0
  9
$DIMTAD
 70
     0
  9
$DIMZIN
 70
     0
  9
$DIMBLK
  1

  9
$LUNITS
 70
     2
  9
$LUPREC
 70
     4
  9
$AXISMODE
 70
     0
  9
$AXISUNIT
 10
0.0
 20
0.0
  9
$SKETCHINC
 40
0.1
  9
$FILLETRAD
 40
0.0
  9
$AUNITS
 70
     0
  9
$AUPREC
 70
     0
  9
$MENU
  1
ACAD
  9
$ELEVATION
 40
0.0
  9
$THICKNESS
 40
0.0
  9
$VIEWDIR
 10
0.0
 20
0.0
 30
1.0
  9
$LIMCHECK
 70
     0
  9
$BLIPMODE
 70
     1
  9
$CHAMFERA
 40
0.0
  9
$CHAMFERB
 40
0.0
  9
$FASTZOOM
 70
     1
  9
$SKPOLY
 70
     0
  9
$TDCREATE
 40
2456685.000000
  9
$TDUPDATE
 40
2456685.000000
  9
$TDINDWG
 40
0.0
  9
$TDUSRTIMER
 40
0.0
  9
$USRTIMER
 70
     1
  9
$ANGBASE
 50
0.0
  9
$ANGDIR
 70
     0
  9
$PDMODE
 70
     0
  9
$PDSIZE
 40
0.0
  9
$PLINEWID
 40
0.0
  9
$COORDS
 70
     0
  9
$USERI1
 70
     0
  9
$USERI2
 70
     0
  9
$USERI3
 70
     0
  9
$USERI4
 70
     0
  9
$USERI5
 70
     0
  9
$USERR1
 40
0.0
  9
$USERR2
 40
0.0
  9
$USERR3
 40
0.0
  9
$USERR4
 40
0.0
  9
$USERR5
 40
0.0
  0
ENDSEC
  0
SECTION
  2
TABLES
  0
TABLE
  2
LTYPE
 70
     9
  0
LTYPE
  2
CONTINUOUS
 70
    64
  3
Solid line
 72
    65
 73
     0
 40
0.0
  0
LTYPE
  2
DASHED
 70
    64
  3
__ __ __ __ __ __ __ __ __ __ __ __ __ __ __
 72
    65
 73
     2
 40
0.75
 49
0.5
 49
-0.25
  0
LTYPE
  2
HIDDEN
 70
    64
  3
_ _ _ _ _ _ _ _ _ _ _ _ _ _ _ _ _ _ _ _ _ _ _
 72
    65
 73
     2
 40
0.375
 49
0.25
 49
-0.125
  0
LTYPE
  2
DOT
 70
    64
  3
...............................................
 72
    65
 73
     2
 40
0.25
 49
0.0
 49
-0.25
  0
LTYPE
  2
DASHDOT
 70
    64
  3
__ . __ . __ . __ . __ . __ . __ . __ . __ . __
 72
    65
 73
     4
 40
1.0
 49
0.5
 49
-0.25
 49
0.0
 49
-0.25
  0
LTYPE
  2
DIVIDE
 70
    64
  3
__ . . __ . . __ . . __ . . __ . . __ . . __
 72
    65
 73
     6
 40
1.25
 49
0.5
 49
-0.25
 49
0.0
 49
-0.25
 49
0.0
 49
-0.25
  0
LTYPE
  2
CENTER
 70
    64
  3
____ _ ____ _ ____ _ ____ _ ____ _ ____ _ ____ 
 72
    65
 73
     4
 40
2.0
 49
1.25
 49
-0.25
 49
0.25
 49
-0.25
  0
LTYPE
  2
PHANTOM
 70
    64
  3
______  __  __  ______  __  __  ______  __  __ 
 72
    65
 73
     6
 40
2.5
 49
1.25
 49
-0.25
 49
0.25
 49
-0.25
 49
0.25
 49
-0.25
  0
LTYPE
  2
BORDER
 70
    64
  3
__ __ . __ __ . __ __ . __ __ . __ __ . __ __ .
 72
    65
 73
     6
 40
1.75
 49
0.5
 49
-0.25
 49
0.5
 49
-0.25
 49
0.0
 49
-0.25
  0
ENDTAB
  0
TABLE
  2
LAYER
 70
    16
  0
LAYER
  2
CSLAYER1
 70
    64
 62
     7
  6
CONTINUOUS
  0
LAYER
  2
CSLAYER2
 70
    64
 62
     7
  6
CONTINUOUS
  0
LAYER
  2
CSLAYER3
 70
    64
 62
     7
  6
CONTINUOUS
  0
LAYER
  2
CSLAYER4
 70
    64
 62
     7
  6
CONTINUOUS
  0
LAYER
  2
CSLAYER5
 70
    64
 62
     7
  6
CONTINUOUS
  0
LAYER
  2
CSLAYER6
 70
    64
 62
     7
  6
CONTINUOUS
  0
LAYER
  2
CSLAYER7
 70
    64
 62
     7
  6
CONTINUOUS
  0
LAYER
  2
CSLAYER8
 70
    64
 62
     7
  6
CONTINUOUS
  0
LAYER
  2
CSLAYER9
 70
    64
 62
     7
  6
CONTINUOUS
  0
LAYER
  2
CSLAYER10
 70
    64
 62
     7
  6
CONTINUOUS
  0
LAYER
  2
CSLAYER11
 70
    64
 62
     7
  6
CONTINUOUS
  0
LAYER
  2
CSLAYER12
 70
    64
 62
     7
  6
CONTINUOUS
  0
LAYER
  2
CSLAYER13
 70
    64
 62
     7
  6
CONTINUOUS
  0
LAYER
  2
CSLAYER14
 70
    64
 62
     7
  6
CONTINUOUS
  0
LAYER
  2
CSLAYER15
 70
    64
 62
     7
  6
CONTINUOUS
  0
LAYER
  2
CSLAYER16
 70
    64
 62
     7
  6
CONTINUOUS
  0
ENDTAB
  0
TABLE
  2
STYLE
 70
     1
  0
STYLE
  2
EASYDRAW_FONT
 70
     0
 40
1.0
 41
1.0
 50
0.0
 71
     0
 42
1.0
  3
monotxt
  4
bigfont
  0
ENDTAB
  0
TABLE
  2
VIEW
 70
     0
  0
ENDTAB
  0
ENDSEC
  0
SECTION
  2
BLOCKS
  0
BLOCK
  8
CSLAYER1
  2
*D0000
 70
    65
 10
0.0
 20
0.0
 30
0.0
  0
TEXT
  8
CSLAYER1
 62
     3
 10
2171.760986
 20
1771.994995
 40
40.000000
 41
0.843750
  1
500
 50
90.000000
 51
0.000000
  7
EASYDRAW_FONT
 72
     5
 11
2171.760986
 21
1861.994995
  0
LINE
  8
CSLAYER1
  6
CONTINUOUS
 62
     5
 10
2091.761233
 20
1566.995124
 11
2191.761233
 21
1566.995124
  0
LINE
  8
CSLAYER1
  6
CONTINUOUS
 62
     5
 10
2091.761233
 20
2066.995124
 11
2191.761233
 21
2066.995124
  0
LINE
  8
CSLAYER1
  6
CONTINUOUS
 62
     5
 10
2181.761233
 20
1566.995124
 11
2181.761233
 21
2066.995124
  0
LINE
  8
CSLAYER1
  6
CONTINUOUS
 62
     5
 10
2181.761233
 20
1566.995124
 11
2173.996662
 21
1595.972898
  0
LINE
  8
CSLAYER1
  6
CONTINUOUS
 62
     5
 10
2181.761233
 20
1566.995124
 11
2189.525805
 21
1595.972898
  0
LINE
  8
CSLAYER1
  6
CONTINUOUS
 62
     5
 10
2181.761233
 20
2066.995124
 11
2173.996662
 21
2038.017349
  0
LINE
  8
CSLAYER1
  6
CONTINUOUS
 62
     5
 10
2181.761233
 20
2066.995124
 11
2189.525805
 21
2038.017349
  0
ENDBLK
  8
0
  0
BLOCK
  8
CSLAYER1
  2
*D0001
 70
    65
 10
0.0
 20
0.0
 30
0.0
  0
TEXT
  8
CSLAYER1
 62
     3
 10
2171.561035
 20
450.948151
 40
40.000000
 41
0.843750
  1
155
 50
90.000000
 51
0.000000
  7
EASYDRAW_FONT
 72
     5
 11
2171.561035
 21
540.948151
  0
LINE
  8
CSLAYER1
  6
CONTINUOUS
 62
     5
 10
2091.561233
 20
573.448193
 11
2191.561233
 21
573.448193
  0
LINE
  8
CSLAYER1
  6
CONTINUOUS
 62
     5
 10
2181.561233
 20
418.448193
 11
2181.561233
 21
573.448193
  0
LINE
  8
CSLAYER1
  6
CONTINUOUS
 62
     5
 10
2181.561233
 20
418.448193
 11
2173.796662
 21
447.425968
  0
LINE
  8
CSLAYER1
  6
CONTINUOUS
 62
     5
 10
2181.561233
 20
418.448193
 11
2189.325805
 21
447.425968
  0
LINE
  8
CSLAYER1
  6
CONTINUOUS
 62
     5
 10
2181.561233
 20
573.448193
 11
2173.796662
 21
544.470419
  0
LINE
  8
CSLAYER1
  6
CONTINUOUS
 62
     5
 10
2181.561233
 20
573.448193
 11
2189.325805
 21
544.470419
  0
ENDBLK
  8
0
  0
BLOCK
  8
CSLAYER1
  2
*D0002
 70
    65
 10
0.0
 20
0.0
 30
0.0
  0
TEXT
  8
CSLAYER1
 62
     3
 10
2171.561035
 20
838.448120
 40
40.000000
 41
0.843750
  1
620
 50
90.000000
 51
0.000000
  7
EASYDRAW_FONT
 72
     5
 11
2171.561035
 21
928.448120
  0
LINE
  8
CSLAYER1
  6
CONTINUOUS
 62
     5
 10
2181.561233
 20
573.448193
 11
2181.561233
 21
1193.448193
  0
LINE
  8
CSLAYER1
  6
CONTINUOUS
 62
     5
 10
2181.561233
 20
573.448193
 11
2173.796662
 21
602.425968
  0
LINE
  8
CSLAYER1
  6
CONTINUOUS
 62
     5
 10
2181.561233
 20
573.448193
 11
2189.325805
 21
602.425968
  0
LINE
  8
CSLAYER1
  6
CONTINUOUS
 62
     5
 10
2181.561233
 20
1193.448193
 11
2173.796662
 21
1164.470419
  0
LINE
  8
CSLAYER1
  6
CONTINUOUS
 62
     5
 10
2181.561233
 20
1193.448193
 11
2189.325805
 21
1164.470419
  0
ENDBLK
  8
0
  0
BLOCK
  8
CSLAYER1
  2
*D0003
 70
    65
 10
0.0
 20
0.0
 30
0.0
  0
TEXT
  8
CSLAYER1
 62
     3
 10
2271.561035
 20
760.948120
 40
40.000000
 41
0.843750
  1
775
 50
90.000000
 51
0.000000
  7
EASYDRAW_FONT
 72
     5
 11
2271.561035
 21
850.948120
  0
LINE
  8
CSLAYER1
  6
CONTINUOUS
 62
     5
 10
2091.561233
 20
1193.448193
 11
2291.561233
 21
1193.448193
  0
LINE
  8
CSLAYER1
  6
CONTINUOUS
 62
     5
 10
2281.561233
 20
418.448193
 11
2281.561233
 21
1193.448193
  0
LINE
  8
CSLAYER1
  6
CONTINUOUS
 62
     5
 10
2281.561233
 20
418.448193
 11
2273.796662
 21
447.425968
  0
LINE
  8
CSLAYER1
  6
CONTINUOUS
 62
     5
 10
2281.561233
 20
418.448193
 11
2289.325805
 21
447.425968
  0
LINE
  8
CSLAYER1
  6
CONTINUOUS
 62
     5
 10
2281.561233
 20
1193.448193
 11
2273.796662
 21
1164.470419
  0
LINE
  8
CSLAYER1
  6
CONTINUOUS
 62
     5
 10
2281.561233
 20
1193.448193
 11
2289.325805
 21
1164.470419
  0
ENDBLK
  8
0
  0
BLOCK
  8
CSLAYER1
  2
*D0004
 70
    65
 10
0.0
 20
0.0
 30
0.0
  0
TEXT
  8
CSLAYER1
 62
     3
 10
1586.561279
 20
1303.448120
 40
40.000000
 41
0.843750
  1
900
 50
0.000000
 51
0.000000
  7
EASYDRAW_FONT
 72
     5
 11
1676.561279
 21
1303.448120
  0
LINE
  8
CSLAYER1
  6
CONTINUOUS
 62
     5
 10
1181.561233
 20
1203.448193
 11
1181.561233
 21
1303.448193
  0
LINE
  8
CSLAYER1
  6
CONTINUOUS
 62
     5
 10
2081.561233
 20
1203.448193
 11
2081.561233
 21
1303.448193
  0
LINE
  8
CSLAYER1
  6
CONTINUOUS
 62
     5
 10
1181.561233
 20
1293.448193
 11
2081.561233
 21
1293.448193
  0
LINE
  8
CSLAYER1
  6
CONTINUOUS
 62
     5
 10
1181.561233
 20
1293.448193
 11
1210.539008
 21
1301.212765
  0
LINE
  8
CSLAYER1
  6
CONTINUOUS
 62
     5
 10
1181.561233
 20
1293.448193
 11
1210.539008
 21
1285.683622
  0
LINE
  8
CSLAYER1
  6
CONTINUOUS
 62
     5
 10
2081.561233
 20
1293.448193
 11
2052.583458
 21
1301.212765
  0
LINE
  8
CSLAYER1
  6
CONTINUOUS
 62
     5
 10
2081.561233
 20
1293.448193
 11
2052.583458
 21
1285.683622
  0
ENDBLK
  8
0
  0
BLOCK
  8
CSLAYER1
  2
*D0005
 70
    65
 10
0.0
 20
0.0
 30
0.0
  0
TEXT
  8
CSLAYER1
 62
     3
 10
586.761230
 20
328.448151
 40
40.000000
 41
0.843750
  1
500
 50
0.000000
 51
0.000000
  7
EASYDRAW_FONT
 72
     5
 11
676.761230
 21
328.448151
  0
LINE
  8
CSLAYER1
  6
CONTINUOUS
 62
     5
 10
381.761233
 20
408.448193
 11
381.761233
 21
308.448193
  0
LINE
  8
CSLAYER1
  6
CONTINUOUS
 62
     5
 10
881.761233
 20
408.448193
 11
881.761233
 21
308.448193
  0
LINE
  8
CSLAYER1
  6
CONTINUOUS
 62
     5
 10
381.761233
 20
318.448193
 11
881.761233
 21
318.448193
  0
LINE
  8
CSLAYER1
  6
CONTINUOUS
 62
     5
 10
381.761233
 20
318.448193
 11
410.739008
 21
326.212765
  0
LINE
  8
CSLAYER1
  6
CONTINUOUS
 62
     5
 10
381.761233
 20
318.448193
 11
410.739008
 21
310.683622
  0
LINE
  8
CSLAYER1
  6
CONTINUOUS
 62
     5
 10
881.761233
 20
318.448193
 11
852.783458
 21
326.212765
  0
LINE
  8
CSLAYER1
  6
CONTINUOUS
 62
     5
 10
881.761233
 20
318.448193
 11
852.783458
 21
310.683622
  0
ENDBLK
  8
0
  0
BLOCK
  8
CSLAYER1
  2
*D0006
 70
    65
 10
0.0
 20
0.0
 30
0.0
  0
TEXT
  8
CSLAYER1
 62
     3
 10
1586.761353
 20
328.448151
 40
40.000000
 41
0.843750
  1
900
 50
0.000000
 51
0.000000
  7
EASYDRAW_FONT
 72
     5
 11
1676.761353
 21
328.448151
  0
LINE
  8
CSLAYER1
  6
CONTINUOUS
 62
     5
 10
1181.761233
 20
408.448193
 11
1181.761233
 21
308.448193
  0
LINE
  8
CSLAYER1
  6
CONTINUOUS
 62
     5
 10
2081.761233
 20
408.448193
 11
2081.761233
 21
308.448193
  0
LINE
  8
CSLAYER1
  6
CONTINUOUS
 62
     5
 10
1181.761233
 20
318.448193
 11
2081.761233
 21
318.448193
  0
LINE
  8
CSLAYER1
  6
CONTINUOUS
 62
     5
 10
1181.761233
 20
318.448193
 11
1210.739008
 21
326.212765
  0
LINE
  8
CSLAYER1
  6
CONTINUOUS
 62
     5
 10
1181.761233
 20
318.448193
 11
1210.739008
 21
310.683622
  0
LINE
  8
CSLAYER1
  6
CONTINUOUS
 62
     5
 10
2081.761233
 20
318.448193
 11
2052.783458
 21
326.212765
  0
LINE
  8
CSLAYER1
  6
CONTINUOUS
 62
     5
 10
2081.761233
 20
318.448193
 11
2052.783458
 21
310.683622
  0
ENDBLK
  8
0
  0
BLOCK
  8
CSLAYER1
  2
BLKF0000
 70
   64
 10
0.0
 20
0.0
 30
0.0
  0
ARC
  8
CSLAYER1
  6
CONTINUOUS
 62
     5
 10
2781.909508
 20
79.335220
 40
3.549225
 50
6.429109
 51
73.182034
  0
ARC
  8
CSLAYER1
  6
CONTINUOUS
 62
     5
 10
2778.448538
 20
78.176827
 40
6.907754
 50
310.517970
 51
330.092764
  0
ARC
  8
CSLAYER1
  6
CONTINUOUS
 62
     5
 10
2778.387888
 20
78.542345
 40
7.148321
 50
-32.205059
 51
9.585194
  0
ARC
  8
CSLAYER1
  6
CONTINUOUS
 62
     5
 10
2781.680616
 20
75.781346
 40
4.767514
 50
180.000000
 51
218.514150
  0
ARC
  8
CSLAYER1
  6
CONTINUOUS
 62
     5
 10
2780.393895
 20
75.104206
 40
3.348282
 50
222.781148
 51
319.406906
  0
ARC
  8
CSLAYER1
  6
CONTINUOUS
 62
     5
 10
2783.459537
 20
76.194099
 40
6.559434
 50
94.574282
 51
183.607718
  0
LINE
  8
CSLAYER1
  6
CONTINUOUS
 62
     5
 10
2796.903443
 20
71.077266
 11
2796.046407
 21
68.038683
  0
LINE
  8
CSLAYER1
  6
CONTINUOUS
 62
     5
 10
2798.695428
 20
90.944924
 11
2796.591794
 21
93.671857
  0
LINE
  8
CSLAYER1
  6
CONTINUOUS
 62
     5
 10
2796.591794
 20
93.671857
 11
2789.838440
 21
97.429769
  0
LINE
  8
CSLAYER1
  6
CONTINUOUS
 62
     5
 10
2789.838440
 20
97.429769
 11
2782.936412
 21
98.232640
  0
LINE
  8
CSLAYER1
  6
CONTINUOUS
 62
     5
 10
2764.647187
 20
84.853966
 11
2766.793881
 21
89.818197
  0
LINE
  8
CSLAYER1
  6
CONTINUOUS
 62
     5
 10
2766.756884
 20
89.732640
 11
2768.940576
 21
92.367396
  0
LINE
  8
CSLAYER1
  6
CONTINUOUS
 62
     5
 10
2768.940576
 20
92.367396
 11
2772.244998
 21
94.732640
  0
LINE
  8
CSLAYER1
  6
CONTINUOUS
 62
     5
 10
2782.936412
 20
98.232640
 11
2781.418237
 21
97.465795
  0
LINE
  8
CSLAYER1
  6
CONTINUOUS
 62
     5
 10
2781.418237
 20
97.465795
 11
2777.929858
 21
97.465795
  0
LINE
  8
CSLAYER1
  6
CONTINUOUS
 62
     5
 10
2777.929858
 20
97.465795
 11
2774.374396
 21
95.520354
  0
LINE
  8
CSLAYER1
  6
CONTINUOUS
 62
     5
 10
2774.374396
 20
95.520354
 11
2772.244998
 21
94.732640
  0
LINE
  8
CSLAYER1
  6
CONTINUOUS
 62
     5
 10
2764.647187
 20
84.853966
 11
2763.129640
 21
77.305363
  0
LINE
  8
CSLAYER1
  6
CONTINUOUS
 62
     5
 10
2763.129640
 20
77.305363
 11
2762.936412
 21
74.732640
  0
LINE
  8
CSLAYER1
  6
CONTINUOUS
 62
     5
 10
2765.645795
 20
66.892857
 11
2762.936412
 21
72.988969
  0
LINE
  8
CSLAYER1
  6
CONTINUOUS
 62
     5
 10
2762.936412
 20
72.988969
 11
2762.936412
 21
74.732640
  0
LINE
  8
CSLAYER1
  6
CONTINUOUS
 62
     5
 10
2796.046407
 20
68.038683
 11
2794.360620
 21
65.035677
  0
LINE
  8
CSLAYER1
  6
CONTINUOUS
 62
     5
 10
2794.360620
 20
65.035677
 11
2792.936412
 21
63.716966
  0
ARC
  8
CSLAYER1
  6
CONTINUOUS
 62
     5
 10
2780.744468
 20
75.269400
 40
17.266626
 50
208.054813
 51
260.640470
  0
ARC
  8
CSLAYER1
  6
CONTINUOUS
 62
     5
 10
2775.551072
 20
88.011870
 40
29.874611
 50
274.579659
 51
305.587364
  0
ARC
  8
CSLAYER1
  6
CONTINUOUS
 62
     5
 10
2786.523421
 20
82.028147
 40
15.088627
 50
313.467013
 51
331.085078
  0
LINE
  8
CSLAYER1
  6
CONTINUOUS
 62
     5
 10
2801.314754
 20
78.246061
 11
2801.612048
 21
82.028147
  0
LINE
  8
CSLAYER1
  6
CONTINUOUS
 62
     5
 10
2801.612048
 20
82.028147
 11
2800.320051
 21
88.137130
  0
LINE
  8
CSLAYER1
  6
CONTINUOUS
 62
     5
 10
2801.314754
 20
78.246061
 11
2799.731079
 21
74.732640
  0
ARC
  8
CSLAYER1
  6
CONTINUOUS
 62
     5
 10
2786.523421
 20
82.028147
 40
15.088627
 50
23.883193
 51
36.225170
  0
LINE
  8
CSLAYER1
  6
CONTINUOUS
 62
     5
 10
2746.936412
 20
109.732640
 11
2747.936412
 21
110.825284
  0
LINE
  8
CSLAYER1
  6
CONTINUOUS
 62
     5
 10
2746.936412
 20
109.732640
 11
2748.513370
 21
108.287607
  0
LINE
  8
CSLAYER1
  6
CONTINUOUS
 62
     5
 10
2750.052583
 20
106.178315
 11
2750.078851
 21
104.010196
  0
LINE
  8
CSLAYER1
  6
CONTINUOUS
 62
     5
 10
2750.078851
 20
104.010196
 11
2750.286249
 21
103.249737
  0
LINE
  8
CSLAYER1
  6
CONTINUOUS
 62
     5
 10
2750.286249
 20
103.249737
 11
2750.873877
 21
102.523844
  0
LINE
  8
CSLAYER1
  6
CONTINUOUS
 62
     5
 10
2750.873877
 20
102.523844
 11
2751.461504
 21
102.592977
  0
LINE
  8
CSLAYER1
  6
CONTINUOUS
 62
     5
 10
2751.461504
 20
102.592977
 11
2752.083698
 21
102.765808
  0
LINE
  8
CSLAYER1
  6
CONTINUOUS
 62
     5
 10
2752.083698
 20
102.765808
 11
2752.498494
 21
102.592977
  0
LINE
  8
CSLAYER1
  6
CONTINUOUS
 62
     5
 10
2752.498494
 20
102.592977
 11
2753.397219
 21
102.143614
  0
LINE
  8
CSLAYER1
  6
CONTINUOUS
 62
     5
 10
2753.397219
 20
102.143614
 11
2754.173270
 21
101.732640
  0
LINE
  8
CSLAYER1
  6
CONTINUOUS
 62
     5
 10
2754.173270
 20
101.732640
 11
2754.676173
 21
101.763385
  0
LINE
  8
CSLAYER1
  6
CONTINUOUS
 62
     5
 10
2754.676173
 20
101.763385
 11
2757.484045
 21
103.209864
  0
LINE
  8
CSLAYER1
  6
CONTINUOUS
 62
     5
 10
2747.936412
 20
110.825284
 11
2748.269264
 21
112.298991
  0
LINE
  8
CSLAYER1
  6
CONTINUOUS
 62
     5
 10
2748.269264
 20
112.298991
 11
2749.722669
 21
112.449344
  0
LINE
  8
CSLAYER1
  6
CONTINUOUS
 62
     5
 10
2751.216428
 20
115.217802
 11
2752.970601
 21
115.374892
  0
LINE
  8
CSLAYER1
  6
CONTINUOUS
 62
     5
 10
2752.970601
 20
115.374892
 11
2756.505128
 21
116.212706
  0
LINE
  8
CSLAYER1
  6
CONTINUOUS
 62
     5
 10
2756.505128
 20
116.212706
 11
2757.936412
 21
116.544345
  0
LINE
  8
CSLAYER1
  6
CONTINUOUS
 62
     5
 10
2751.216428
 20
115.217802
 11
2749.283537
 21
115.376670
  0
LINE
  8
CSLAYER1
  6
CONTINUOUS
 62
     5
 10
2748.547414
 20
114.507983
 11
2748.640939
 21
114.136822
  0
LINE
  8
CSLAYER1
  6
CONTINUOUS
 62
     5
 10
2748.640939
 20
114.136822
 11
2749.132533
 21
113.599141
  0
LINE
  8
CSLAYER1
  6
CONTINUOUS
 62
     5
 10
2749.132533
 20
113.599141
 11
2749.808475
 21
113.092184
  0
LINE
  8
CSLAYER1
  6
CONTINUOUS
 62
     5
 10
2749.808475
 20
113.092184
 11
2749.931800
 21
112.927751
  0
LINE
  8
CSLAYER1
  6
CONTINUOUS
 62
     5
 10
2748.513370
 20
108.287607
 11
2750.052583
 21
106.178315
  0
ARC
  8
CSLAYER1
  6
CONTINUOUS
 62
     5
 10
2792.923113
 20
-61.926013
 40
180.727463
 50
80.438896
 51
96.353582
  0
ARC
  8
CSLAYER1
  6
CONTINUOUS
 62
     5
 10
2768.024200
 20
83.321887
 40
34.720242
 50
81.866516
 51
106.890578
  0
LINE
  8
CSLAYER1
  6
CONTINUOUS
 62
     5
 10
2827.130674
 20
115.499310
 11
2829.377756
 21
114.477909
  0
LINE
  8
CSLAYER1
  6
CONTINUOUS
 62
     5
 10
2832.952661
 20
112.894737
 11
2829.377756
 21
114.477909
  0
LINE
  8
CSLAYER1
  6
CONTINUOUS
 62
     5
 10
2827.130674
 20
115.499310
 11
2822.936412
 21
116.291881
  0
LINE
  8
CSLAYER1
  6
CONTINUOUS
 62
     5
 10
2832.936412
 20
112.901933
 11
2834.807988
 21
111.333456
  0
LINE
  8
CSLAYER1
  6
CONTINUOUS
 62
     5
 10
2816.179668
 20
113.938783
 11
2817.078943
 21
115.391458
  0
LINE
  8
CSLAYER1
  6
CONTINUOUS
 62
     5
 10
2817.078943
 20
115.391458
 11
2821.754542
 21
114.271949
  0
LINE
  8
CSLAYER1
  6
CONTINUOUS
 62
     5
 10
2821.754542
 20
114.271949
 11
2838.496928
 21
109.732640
  0
LINE
  8
CSLAYER1
  6
CONTINUOUS
 62
     5
 10
2841.436412
 20
109.732640
 11
2834.807988
 21
111.333456
  0
LINE
  8
CSLAYER1
  6
CONTINUOUS
 62
     5
 10
2838.496928
 20
109.732640
 11
2841.436412
 21
109.732640
  0
LINE
  8
CSLAYER1
  6
CONTINUOUS
 62
     5
 10
2782.936412
 20
114.197581
 11
2802.936412
 21
114.732640
  0
LINE
  8
CSLAYER1
  6
CONTINUOUS
 62
     5
 10
2802.936412
 20
114.732640
 11
2816.179668
 21
113.938783
  0
LINE
  8
CSLAYER1
  6
CONTINUOUS
 62
     5
 10
2817.782649
 20
111.878304
 11
2802.936412
 21
113.232640
  0
LINE
  8
CSLAYER1
  6
CONTINUOUS
 62
     5
 10
2802.936412
 20
113.232640
 11
2787.887203
 21
113.641292
  0
LINE
  8
CSLAYER1
  6
CONTINUOUS
 62
     5
 10
2787.936412
 20
113.639956
 11
2782.936412
 21
113.735249
  0
LINE
  8
CSLAYER1
  6
CONTINUOUS
 62
     5
 10
2782.936412
 20
114.197581
 11
2782.936412
 21
113.735249
  0
LINE
  8
CSLAYER1
  6
CONTINUOUS
 62
     5
 10
2840.436412
 20
106.232640
 11
2831.593854
 21
108.543302
  0
LINE
  8
CSLAYER1
  6
CONTINUOUS
 62
     5
 10
2817.782649
 20
111.878304
 11
2827.936412
 21
109.905920
  0
LINE
  8
CSLAYER1
  6
CONTINUOUS
 62
     5
 10
2827.936412
 20
109.905920
 11
2831.593854
 21
108.543302
  0
LINE
  8
CSLAYER1
  6
CONTINUOUS
 62
     5
 10
2840.436412
 20
106.232640
 11
2840.143795
 21
105.393534
  0
LINE
  8
CSLAYER1
  6
CONTINUOUS
 62
     5
 10
2849.936412
 20
100.732640
 11
2849.630385
 21
101.961621
  0
LINE
  8
CSLAYER1
  6
CONTINUOUS
 62
     5
 10
2840.143795
 20
105.393534
 11
2849.630385
 21
101.961621
  0
LINE
  8
CSLAYER1
  6
CONTINUOUS
 62
     5
 10
2786.436412
 20
106.232640
 11
2788.859450
 21
106.232640
  0
LINE
  8
CSLAYER1
  6
CONTINUOUS
 62
     5
 10
2808.936412
 20
106.665135
 11
2808.936412
 21
106.232640
  0
LINE
  8
CSLAYER1
  6
CONTINUOUS
 62
     5
 10
2807.936412
 20
107.199576
 11
2806.225133
 21
107.836755
  0
LINE
  8
CSLAYER1
  6
CONTINUOUS
 62
     5
 10
2806.225133
 20
107.836755
 11
2805.115077
 21
107.887212
  0
LINE
  8
CSLAYER1
  6
CONTINUOUS
 62
     5
 10
2805.115077
 20
107.887212
 11
2804.635735
 21
107.634926
  0
LINE
  8
CSLAYER1
  6
CONTINUOUS
 62
     5
 10
2804.635735
 20
107.634926
 11
2804.534821
 21
107.231270
  0
LINE
  8
CSLAYER1
  6
CONTINUOUS
 62
     5
 10
2804.534821
 20
107.231270
 11
2804.988934
 21
106.928527
  0
LINE
  8
CSLAYER1
  6
CONTINUOUS
 62
     5
 10
2804.988934
 20
106.928527
 11
2806.628790
 21
106.777156
  0
LINE
  8
CSLAYER1
  6
CONTINUOUS
 62
     5
 10
2806.628790
 20
106.777156
 11
2808.936412
 21
106.665135
  0
LINE
  8
CSLAYER1
  6
CONTINUOUS
 62
     5
 10
2849.936412
 20
100.732640
 11
2846.960870
 21
101.919221
  0
LINE
  8
CSLAYER1
  6
CONTINUOUS
 62
     5
 10
2846.960870
 20
101.919221
 11
2836.905180
 21
103.762097
  0
LINE
  8
CSLAYER1
  6
CONTINUOUS
 62
     5
 10
2836.905180
 20
103.762097
 11
2831.879400
 21
104.921892
  0
LINE
  8
CSLAYER1
  6
CONTINUOUS
 62
     5
 10
2809.470633
 20
107.232640
 11
2821.236299
 21
107.232640
  0
LINE
  8
CSLAYER1
  6
CONTINUOUS
 62
     5
 10
2807.936412
 20
107.199576
 11
2808.461072
 21
106.891109
  0
LINE
  8
CSLAYER1
  6
CONTINUOUS
 62
     5
 10
2808.461072
 20
106.891109
 11
2808.757884
 21
106.802065
  0
LINE
  8
CSLAYER1
  6
CONTINUOUS
 62
     5
 10
2808.757884
 20
106.802065
 11
2808.936412
 21
106.827236
  0
LINE
  8
CSLAYER1
  6
CONTINUOUS
 62
     5
 10
2808.936412
 20
106.827236
 11
2809.470633
 21
107.232640
  0
LINE
  8
CSLAYER1
  6
CONTINUOUS
 62
     5
 10
2821.236299
 20
107.232640
 11
2825.686568
 21
106.203814
  0
LINE
  8
CSLAYER1
  6
CONTINUOUS
 62
     5
 10
2825.686568
 20
106.203814
 11
2829.839760
 21
105.038665
  0
LINE
  8
CSLAYER1
  6
CONTINUOUS
 62
     5
 10
2829.839760
 20
105.038665
 11
2831.879400
 21
104.921892
  0
LINE
  8
CSLAYER1
  6
CONTINUOUS
 62
     5
 10
2785.436412
 20
105.232640
 11
2785.436412
 21
104.732640
  0
LINE
  8
CSLAYER1
  6
CONTINUOUS
 62
     5
 10
2782.936412
 20
104.732640
 11
2785.436412
 21
104.732640
  0
ARC
  8
CSLAYER1
  6
CONTINUOUS
 62
     5
 10
2786.436412
 20
105.232640
 40
1.000000
 50
90.000000
 51
180.000000
  0
LINE
  8
CSLAYER1
  6
CONTINUOUS
 62
     5
 10
2788.859450
 20
106.232640
 11
2789.557007
 21
105.660643
  0
LINE
  8
CSLAYER1
  6
CONTINUOUS
 62
     5
 10
2790.159375
 20
105.636683
 11
2791.016972
 21
106.232640
  0
LINE
  8
CSLAYER1
  6
CONTINUOUS
 62
     5
 10
2792.595368
 20
106.232640
 11
2794.262494
 21
105.574564
  0
LINE
  8
CSLAYER1
  6
CONTINUOUS
 62
     5
 10
2794.686203
 20
105.601076
 11
2795.839690
 21
106.232640
  0
LINE
  8
CSLAYER1
  6
CONTINUOUS
 62
     5
 10
2791.016972
 20
106.232640
 11
2792.595368
 21
106.232640
  0
LINE
  8
CSLAYER1
  6
CONTINUOUS
 62
     5
 10
2795.839690
 20
106.232640
 11
2808.936412
 21
106.232640
  0
LINE
  8
CSLAYER1
  6
CONTINUOUS
 62
     5
 10
2761.485395
 20
103.123813
 11
2782.936412
 21
104.732640
  0
LINE
  8
CSLAYER1
  6
CONTINUOUS
 62
     5
 10
2757.484045
 20
103.209864
 11
2761.485395
 21
103.123813
  0
ARC
  8
CSLAYER1
  6
CONTINUOUS
 62
     5
 10
2789.874047
 20
106.047277
 40
0.500000
 50
230.648247
 51
304.796026
  0
ARC
  8
CSLAYER1
  6
CONTINUOUS
 62
     5
 10
2794.446077
 20
106.039642
 40
0.500000
 50
248.459024
 51
298.701829
  0
ARC
  8
CSLAYER1
  6
CONTINUOUS
 62
     5
 10
2749.691800
 20
112.747751
 40
0.300000
 50
-84.093859
 51
36.869898
  0
ARC
  8
CSLAYER1
  6
CONTINUOUS
 62
     5
 10
2749.226196
 20
114.679023
 40
0.700000
 50
85.301319
 51
194.142980
  0
LINE
  8
CSLAYER1
  6
CONTINUOUS
 62
     3
 10
2781.418237
 20
97.465795
 11
2789.528732
 21
97.465795
  0
LINE
  8
CSLAYER1
  6
CONTINUOUS
 62
     3
 10
2775.005720
 20
95.865795
 11
2792.649061
 21
95.865795
  0
LINE
  8
CSLAYER1
  6
CONTINUOUS
 62
     3
 10
2771.592781
 20
94.265795
 11
2795.524426
 21
94.265795
  0
LINE
  8
CSLAYER1
  6
CONTINUOUS
 62
     3
 10
2769.357462
 20
92.665795
 11
2797.367899
 21
92.665795
  0
LINE
  8
CSLAYER1
  6
CONTINUOUS
 62
     3
 10
2767.861806
 20
91.065795
 11
2798.602184
 21
91.065795
  0
LINE
  8
CSLAYER1
  6
CONTINUOUS
 62
     3
 10
2766.641492
 20
89.465795
 11
2799.651561
 21
89.465795
  0
LINE
  8
CSLAYER1
  6
CONTINUOUS
 62
     3
 10
2765.949600
 20
87.865795
 11
2800.377436
 21
87.865795
  0
LINE
  8
CSLAYER1
  6
CONTINUOUS
 62
     3
 10
2765.257708
 20
86.265795
 11
2800.715822
 21
86.265795
  0
LINE
  8
CSLAYER1
  6
CONTINUOUS
 62
     3
 10
2764.609358
 20
84.665795
 11
2801.054208
 21
84.665795
  0
LINE
  8
CSLAYER1
  6
CONTINUOUS
 62
     3
 10
2764.287699
 20
83.065795
 11
2801.392594
 21
83.065795
  0
LINE
  8
CSLAYER1
  6
CONTINUOUS
 62
     3
 10
2763.966040
 20
81.465795
 11
2779.556283
 21
81.465795
  0
LINE
  8
CSLAYER1
  6
CONTINUOUS
 62
     3
 10
2763.644381
 20
79.865795
 11
2778.024022
 21
79.865795
  0
LINE
  8
CSLAYER1
  6
CONTINUOUS
 62
     3
 10
2763.322722
 20
78.265795
 11
2777.235852
 21
78.265795
  0
LINE
  8
CSLAYER1
  6
CONTINUOUS
 62
     3
 10
2763.081604
 20
76.665795
 11
2776.917085
 21
76.665795
  0
LINE
  8
CSLAYER1
  6
CONTINUOUS
 62
     3
 10
2762.961434
 20
75.065795
 11
2776.967106
 21
75.065795
  0
LINE
  8
CSLAYER1
  6
CONTINUOUS
 62
     3
 10
2762.936412
 20
73.465795
 11
2777.513193
 21
73.465795
  0
LINE
  8
CSLAYER1
  6
CONTINUOUS
 62
     3
 10
2763.435600
 20
71.865795
 11
2779.543195
 21
71.865795
  0
LINE
  8
CSLAYER1
  6
CONTINUOUS
 62
     3
 10
2764.146711
 20
70.265795
 11
2796.674567
 21
70.265795
  0
LINE
  8
CSLAYER1
  6
CONTINUOUS
 62
     3
 10
2764.857823
 20
68.665795
 11
2796.223285
 21
68.665795
  0
LINE
  8
CSLAYER1
  6
CONTINUOUS
 62
     3
 10
2765.568934
 20
67.065795
 11
2795.500261
 21
67.065795
  0
LINE
  8
CSLAYER1
  6
CONTINUOUS
 62
     3
 10
2766.530893
 20
65.465795
 11
2794.602074
 21
65.465795
  0
LINE
  8
CSLAYER1
  6
CONTINUOUS
 62
     3
 10
2767.779354
 20
63.865795
 11
2793.097148
 21
63.865795
  0
LINE
  8
CSLAYER1
  6
CONTINUOUS
 62
     3
 10
2769.384774
 20
62.265795
 11
2790.704687
 21
62.265795
  0
LINE
  8
CSLAYER1
  6
CONTINUOUS
 62
     3
 10
2771.531916
 20
60.665795
 11
2787.579564
 21
60.665795
  0
LINE
  8
CSLAYER1
  6
CONTINUOUS
 62
     3
 10
2774.779606
 20
59.065795
 11
2782.941415
 21
59.065795
  0
LINE
  8
CSLAYER1
  6
CONTINUOUS
 62
     3
 10
2784.748107
 20
81.465795
 11
2801.567844
 21
81.465795
  0
LINE
  8
CSLAYER1
  6
CONTINUOUS
 62
     3
 10
2785.418851
 20
79.865795
 11
2801.442074
 21
79.865795
  0
LINE
  8
CSLAYER1
  6
CONTINUOUS
 62
     3
 10
2785.530858
 20
78.265795
 11
2801.316305
 21
78.265795
  0
LINE
  8
CSLAYER1
  6
CONTINUOUS
 62
     3
 10
2785.285501
 20
76.665795
 11
2800.602449
 21
76.665795
  0
LINE
  8
CSLAYER1
  6
CONTINUOUS
 62
     3
 10
2784.633855
 20
75.065795
 11
2799.881249
 21
75.065795
  0
LINE
  8
CSLAYER1
  6
CONTINUOUS
 62
     3
 10
2783.500592
 20
73.465795
 11
2798.947301
 21
73.465795
  0
LINE
  8
CSLAYER1
  6
CONTINUOUS
 62
     3
 10
2781.244595
 20
71.865795
 11
2797.676594
 21
71.865795
  0
TEXT
  8
CSLAYER1
 62
     5
 10
2802.108183
 20
79.476970
 40
4.713448
 41
1.951056
  1
M
 50
0.000000
 51
0.000000
  7
EASYDRAW_FONT
 72
     5
 11
2808.238985
 21
79.476970
  0
TEXT
  8
CSLAYER1
 62
     5
 10
2811.759570
 20
79.418700
 40
4.626621
 41
0.778201
  1
T
 50
0.000000
 51
0.000000
  7
EASYDRAW_FONT
 72
     5
 11
2814.159863
 21
79.418700
  0
TEXT
  8
CSLAYER1
 62
     5
 10
2814.525133
 20
79.453499
 40
4.696183
 41
1.055553
  1
E
 50
0.000000
 51
0.000000
  7
EASYDRAW_FONT
 72
     5
 11
2817.829848
 21
79.453499
  0
TEXT
  8
CSLAYER1
 62
     5
 10
2817.641314
 20
81.069343
 40
0.348283
 41
9.375319
  1
-
 50
0.000000
 51
0.000000
  7
EASYDRAW_FONT
 72
     5
 11
2819.818159
 21
81.069343
  0
TEXT
  8
CSLAYER1
 62
     5
 10
2819.455523
 20
79.422152
 40
4.861659
 41
1.298502
  1
H
 50
0.000000
 51
0.000000
  7
EASYDRAW_FONT
 72
     5
 11
2823.664106
 21
79.422152
  0
TEXT
  8
CSLAYER1
 62
     5
 10
2823.531538
 20
79.452530
 40
4.843139
 41
1.269236
  1
A
 50
0.000000
 51
0.000000
  7
EASYDRAW_FONT
 72
     5
 11
2827.629595
 21
79.452530
  0
TEXT
  8
CSLAYER1
 62
     5
 10
2827.237694
 20
79.411004
 40
4.825362
 41
1.490144
  1
N
 50
0.000000
 51
0.000000
  7
EASYDRAW_FONT
 72
     5
 11
2832.031349
 21
79.411004
  0
TEXT
  8
CSLAYER1
 62
     5
 10
2808.029152
 20
79.388431
 40
4.982325
 41
1.177443
  1
A
 50
0.000000
 51
0.000000
  7
EASYDRAW_FONT
 72
     5
 11
2811.940086
 21
79.388431
  0
TEXT
  8
CSLAYER1
 62
     5
 10
2802.475197
 20
72.393191
 40
4.982325
 41
1.177443
  1
A
 50
0.000000
 51
0.000000
  7
EASYDRAW_FONT
 72
     5
 11
2806.386131
 21
72.393191
  0
TEXT
  8
CSLAYER1
 62
     5
 10
2815.259621
 20
72.421512
 40
4.982325
 41
1.177443
  1
A
 50
0.000000
 51
0.000000
  7
EASYDRAW_FONT
 72
     5
 11
2819.170555
 21
72.421512
  0
TEXT
  8
CSLAYER1
 62
     5
 10
2819.020165
 20
72.478509
 40
4.825362
 41
1.490144
  1
N
 50
0.000000
 51
0.000000
  7
EASYDRAW_FONT
 72
     5
 11
2823.813819
 21
72.478509
  0
TEXT
  8
CSLAYER1
 62
     5
 10
2827.922501
 20
72.486903
 40
4.841775
 41
1.184218
  1
E
 50
0.000000
 51
0.000000
  7
EASYDRAW_FONT
 72
     5
 11
2831.744980
 21
72.486903
  0
TEXT
  8
CSLAYER1
 62
     5
 10
2806.755750
 20
72.391867
 40
4.947865
 41
1.093992
  1
D
 50
0.000000
 51
0.000000
  7
EASYDRAW_FONT
 72
     5
 11
2810.364367
 21
72.391867
  0
TEXT
  8
CSLAYER1
 62
     5
 10
2811.158109
 20
72.386482
 40
4.924210
 41
1.228195
  1
V
 50
0.000000
 51
0.000000
  7
EASYDRAW_FONT
 72
     5
 11
2815.190036
 21
72.386482
  0
TEXT
  8
CSLAYER1
 62
     5
 10
2823.383310
 20
72.407213
 40
5.032894
 41
1.481023
  1
C
 50
0.000000
 51
0.000000
  7
EASYDRAW_FONT
 72
     5
 11
2828.352530
 21
72.407213
  0
LINE
  8
CSLAYER1
  6
CONTINUOUS
 62
     5
 10
2814.013749
 20
83.467612
 11
2813.001687
 21
83.467612
  0
LINE
  8
CSLAYER1
  6
CONTINUOUS
 62
     3
 10
2763.111987
 20
117.692883
 11
2812.909813
 21
117.692883
  0
LINE
  8
CSLAYER1
  6
CONTINUOUS
 62
     3
 10
2755.999623
 20
116.092883
 11
2823.989505
 21
116.092883
  0
LINE
  8
CSLAYER1
  6
CONTINUOUS
 62
     3
 10
2748.551219
 20
114.492883
 11
2793.974529
 21
114.492883
  0
LINE
  8
CSLAYER1
  6
CONTINUOUS
 62
     3
 10
2806.936079
 20
114.492883
 11
2816.522682
 21
114.492883
  0
LINE
  8
CSLAYER1
  6
CONTINUOUS
 62
     3
 10
2820.831816
 20
114.492883
 11
2829.344813
 21
114.492883
  0
LINE
  8
CSLAYER1
  6
CONTINUOUS
 62
     3
 10
2749.954358
 20
112.892883
 11
2806.660827
 21
112.892883
  0
LINE
  8
CSLAYER1
  6
CONTINUOUS
 62
     3
 10
2826.840965
 20
112.892883
 11
2832.947211
 21
112.892883
  0
LINE
  8
CSLAYER1
  6
CONTINUOUS
 62
     3
 10
2748.042024
 20
111.292883
 11
2820.796375
 21
111.292883
  0
LINE
  8
CSLAYER1
  6
CONTINUOUS
 62
     3
 10
2832.742264
 20
111.292883
 11
2834.975986
 21
111.292883
  0
LINE
  8
CSLAYER1
  6
CONTINUOUS
 62
     3
 10
2746.979799
 20
109.692883
 11
2828.508231
 21
109.692883
  0
LINE
  8
CSLAYER1
  6
CONTINUOUS
 62
     3
 10
2748.655466
 20
108.092883
 11
2833.317540
 21
108.092883
  0
LINE
  8
CSLAYER1
  6
CONTINUOUS
 62
     3
 10
2749.823033
 20
106.492883
 11
2808.936412
 21
106.492883
  0
LINE
  8
CSLAYER1
  6
CONTINUOUS
 62
     3
 10
2824.436177
 20
106.492883
 11
2839.440500
 21
106.492883
  0
LINE
  8
CSLAYER1
  6
CONTINUOUS
 62
     3
 10
2750.068157
 20
104.892883
 11
2785.436412
 21
104.892883
  0
LINE
  8
CSLAYER1
  6
CONTINUOUS
 62
     3
 10
2832.005106
 20
104.892883
 11
2841.527709
 21
104.892883
  0
LINE
  8
CSLAYER1
  6
CONTINUOUS
 62
     3
 10
2750.274482
 20
103.292883
 11
2763.739655
 21
103.292883
  0
LINE
  8
CSLAYER1
  6
CONTINUOUS
 62
     3
 10
2839.465455
 20
103.292883
 11
2845.950473
 21
103.292883
  0
LINE
  8
CSLAYER1
  6
CONTINUOUS
 62
     3
 10
2847.528449
 20
101.692883
 11
2849.697303
 21
101.692883
  0
ENDBLK
  8
0
  0
BLOCK
  8
CSLAYER1
  2
BLKF0001
 70
   64
 10
0.0
 20
0.0
 30
0.0
  0
LINE
  8
CSLAYER1
  6
CONTINUOUS
 62
     3
 10
754.761233
 20
1763.495124
 11
754.761233
 21
1701.495124
  0
LINE
  8
CSLAYER1
  6
CONTINUOUS
 62
     3
 10
752.261233
 20
1765.995124
 11
667.261233
 21
1765.995124
  0
LINE
  8
CSLAYER1
  6
CENTER
 62
     5
 10
813.110872
 20
1693.495124
 11
754.761233
 21
1693.495124
  0
LINE
  8
CSLAYER1
  6
CONTINUOUS
 62
     2
 10
752.261233
 20
1709.495124
 11
667.261233
 21
1709.495124
  0
LINE
  8
CSLAYER1
  6
CONTINUOUS
 62
     3
 10
752.261233
 20
1760.995124
 11
752.261233
 21
1715.995124
  0
LINE
  8
CSLAYER1
  6
CONTINUOUS
 62
     3
 10
664.761233
 20
1763.495124
 11
664.761233
 21
1693.495124
  0
LINE
  8
CSLAYER1
  6
CONTINUOUS
 62
     3
 10
749.761233
 20
1763.495124
 11
672.761233
 21
1763.495124
  0
LINE
  8
CSLAYER1
  6
CONTINUOUS
 62
     3
 10
749.761233
 20
1713.495124
 11
672.761233
 21
1713.495124
  0
ARC
  8
CSLAYER1
  6
CONTINUOUS
 62
     3
 10
726.829415
 20
1738.495124
 40
59.568182
 50
155.185163
 51
204.814837
  0
ARC
  8
CSLAYER1
  6
CONTINUOUS
 62
     3
 10
749.761233
 20
1760.995124
 40
2.500000
 50
0.000000
 51
90.000000
  0
ARC
  8
CSLAYER1
  6
CONTINUOUS
 62
     3
 10
749.761233
 20
1715.995124
 40
2.500000
 50
-90.000000
 51
0.000000
  0
ARC
  8
CSLAYER1
  6
CONTINUOUS
 62
     3
 10
752.261233
 20
1763.495124
 40
2.500000
 50
0.000000
 51
90.000000
  0
ARC
  8
CSLAYER1
  6
CONTINUOUS
 62
     3
 10
667.261233
 20
1763.495124
 40
2.500000
 50
90.000000
 51
180.000000
  0
ARC
  8
CSLAYER1
  6
CONTINUOUS
 62
     2
 10
667.261233
 20
1706.995124
 40
2.500000
 50
90.000000
 51
180.000000
  0
ARC
  8
CSLAYER1
  6
CONTINUOUS
 62
     2
 10
752.261233
 20
1706.995124
 40
2.500000
 50
0.000000
 51
90.000000
  0
LINE
  8
CSLAYER1
  6
CONTINUOUS
 62
     3
 10
754.761233
 20
1623.495124
 11
754.761233
 21
1685.495124
  0
LINE
  8
CSLAYER1
  6
CONTINUOUS
 62
     3
 10
752.261233
 20
1620.995124
 11
667.261233
 21
1620.995124
  0
LINE
  8
CSLAYER1
  6
CONTINUOUS
 62
     2
 10
752.261233
 20
1677.495124
 11
667.261233
 21
1677.495124
  0
LINE
  8
CSLAYER1
  6
CONTINUOUS
 62
     3
 10
664.761233
 20
1623.495124
 11
664.761233
 21
1693.495124
  0
ARC
  8
CSLAYER1
  6
CONTINUOUS
 62
     3
 10
752.261233
 20
1623.495124
 40
2.500000
 50
-90.000000
 51
0.000000
  0
ARC
  8
CSLAYER1
  6
CONTINUOUS
 62
     3
 10
667.261233
 20
1623.495124
 40
2.500000
 50
180.000000
 51
270.000000
  0
ARC
  8
CSLAYER1
  6
CONTINUOUS
 62
     2
 10
667.261233
 20
1679.995124
 40
2.500000
 50
180.000000
 51
270.000000
  0
ARC
  8
CSLAYER1
  6
CONTINUOUS
 62
     2
 10
752.261233
 20
1679.995124
 40
2.500000
 50
-90.000000
 51
0.000000
  0
LINE
  8
CSLAYER1
  6
CONTINUOUS
 62
     3
 10
752.261233
 20
1625.995124
 11
752.261233
 21
1670.995124
  0
LINE
  8
CSLAYER1
  6
CONTINUOUS
 62
     3
 10
749.761233
 20
1623.495124
 11
672.761233
 21
1623.495124
  0
LINE
  8
CSLAYER1
  6
CONTINUOUS
 62
     3
 10
749.761233
 20
1673.495124
 11
672.761233
 21
1673.495124
  0
ARC
  8
CSLAYER1
  6
CONTINUOUS
 62
     3
 10
726.829415
 20
1648.495124
 40
59.568182
 50
155.185163
 51
204.814837
  0
ARC
  8
CSLAYER1
  6
CONTINUOUS
 62
     3
 10
749.761233
 20
1625.995124
 40
2.500000
 50
-90.000000
 51
0.000000
  0
ARC
  8
CSLAYER1
  6
CONTINUOUS
 62
     3
 10
749.761233
 20
1670.995124
 40
2.500000
 50
0.000000
 51
90.000000
  0
LINE
  8
CSLAYER1
  6
CONTINUOUS
 62
     3
 10
761.761233
 20
1686.495124
 11
761.761233
 21
1689.995124
  0
LINE
  8
CSLAYER1
  6
CONTINUOUS
 62
     3
 10
813.110872
 20
1689.995124
 11
761.761233
 21
1689.995124
  0
LINE
  8
CSLAYER1
  6
CONTINUOUS
 62
     3
 10
760.761233
 20
1685.495124
 11
754.761233
 21
1685.495124
  0
LINE
  8
CSLAYER1
  6
CONTINUOUS
 62
     3
 10
760.761233
 20
1701.495124
 11
754.761233
 21
1701.495124
  0
LINE
  8
CSLAYER1
  6
CONTINUOUS
 62
     3
 10
813.110872
 20
1696.995124
 11
761.761233
 21
1696.995124
  0
ARC
  8
CSLAYER1
  6
CONTINUOUS
 62
     3
 10
760.761233
 20
1700.495124
 40
1.000000
 50
0.000000
 51
90.000000
  0
ARC
  8
CSLAYER1
  6
CONTINUOUS
 62
     3
 10
760.761233
 20
1686.495124
 40
1.000000
 50
-90.000000
 51
0.000000
  0
LINE
  8
CSLAYER1
  6
CONTINUOUS
 62
     3
 10
761.761233
 20
1696.995124
 11
761.761233
 21
1700.495124
  0
LINE
  8
CSLAYER1
  6
CONTINUOUS
 62
     2
 10
761.761233
 20
1689.995124
 11
761.761233
 21
1696.995124
  0
LINE
  8
CSLAYER1
  6
CONTINUOUS
 62
     2
 10
754.761233
 20
1701.495124
 11
754.761233
 21
1693.495124
  0
LINE
  8
CSLAYER1
  6
CONTINUOUS
 62
     2
 10
754.761233
 20
1685.495124
 11
754.761233
 21
1693.495124
  0
LINE
  8
CSLAYER1
  6
CONTINUOUS
 62
     2
 10
735.268222
 20
1705.657783
 11
744.403222
 21
1705.657783
  0
LINE
  8
CSLAYER1
  6
CONTINUOUS
 62
     2
 10
735.268222
 20
1682.032783
 11
744.403222
 21
1682.032783
  0
LINE
  8
CSLAYER1
  6
CONTINUOUS
 62
     2
 10
745.663222
 20
1704.397783
 11
745.663222
 21
1683.292783
  0
LINE
  8
CSLAYER1
  6
CONTINUOUS
 62
     2
 10
734.008222
 20
1704.397783
 11
734.008222
 21
1683.292783
  0
LINE
  8
CSLAYER1
  6
CONTINUOUS
 62
     2
 10
735.898222
 20
1683.922783
 11
743.930722
 21
1683.922783
  0
LINE
  8
CSLAYER1
  6
CONTINUOUS
 62
     2
 10
735.898222
 20
1687.072783
 11
736.843222
 21
1687.072783
  0
LINE
  8
CSLAYER1
  6
CONTINUOUS
 62
     2
 10
735.898222
 20
1695.735283
 11
736.843222
 21
1695.735283
  0
LINE
  8
CSLAYER1
  6
CONTINUOUS
 62
     2
 10
735.898222
 20
1700.302783
 11
740.938222
 21
1700.302783
  0
LINE
  8
CSLAYER1
  6
CONTINUOUS
 62
     2
 10
734.795722
 20
1699.200283
 11
734.795722
 21
1696.837783
  0
LINE
  8
CSLAYER1
  6
CONTINUOUS
 62
     2
 10
742.040722
 20
1699.200283
 11
742.040722
 21
1696.837783
  0
LINE
  8
CSLAYER1
  6
CONTINUOUS
 62
     2
 10
745.033222
 20
1685.970283
 11
745.033222
 21
1685.025283
  0
LINE
  8
CSLAYER1
  6
CONTINUOUS
 62
     2
 10
737.788222
 20
1694.790283
 11
737.788222
 21
1688.017783
  0
LINE
  8
CSLAYER1
  6
CONTINUOUS
 62
     2
 10
738.575722
 20
1694.790283
 11
738.575722
 21
1688.017783
  0
ARC
  8
CSLAYER1
  6
CONTINUOUS
 62
     2
 10
735.898222
 20
1699.200283
 40
1.102500
 50
90.000000
 51
180.000000
  0
ARC
  8
CSLAYER1
  6
CONTINUOUS
 62
     2
 10
740.938222
 20
1699.200283
 40
1.102500
 50
0.000000
 51
90.000000
  0
ARC
  8
CSLAYER1
  6
CONTINUOUS
 62
     2
 10
740.938222
 20
1696.837783
 40
1.102500
 50
-90.000000
 51
0.000000
  0
ARC
  8
CSLAYER1
  6
CONTINUOUS
 62
     2
 10
735.898222
 20
1696.837783
 40
1.102500
 50
180.000000
 51
270.000000
  0
ARC
  8
CSLAYER1
  6
CONTINUOUS
 62
     2
 10
743.930722
 20
1685.970283
 40
1.102500
 50
0.000000
 51
90.000000
  0
ARC
  8
CSLAYER1
  6
CONTINUOUS
 62
     2
 10
743.930722
 20
1685.025283
 40
1.102500
 50
-90.000000
 51
0.000000
  0
ARC
  8
CSLAYER1
  6
CONTINUOUS
 62
     2
 10
735.898222
 20
1685.025283
 40
1.102500
 50
180.000000
 51
270.000000
  0
ARC
  8
CSLAYER1
  6
CONTINUOUS
 62
     2
 10
735.898222
 20
1685.970283
 40
1.102500
 50
90.000000
 51
180.000000
  0
LINE
  8
CSLAYER1
  6
CONTINUOUS
 62
     2
 10
739.520722
 20
1695.735283
 11
740.938222
 21
1695.735283
  0
LINE
  8
CSLAYER1
  6
CONTINUOUS
 62
     2
 10
739.520722
 20
1687.072783
 11
743.930722
 21
1687.072783
  0
ARC
  8
CSLAYER1
  6
CONTINUOUS
 62
     2
 10
736.843222
 20
1694.790283
 40
0.945000
 50
0.000000
 51
90.000000
  0
ARC
  8
CSLAYER1
  6
CONTINUOUS
 62
     2
 10
739.520722
 20
1694.790283
 40
0.945000
 50
90.000000
 51
180.000000
  0
ARC
  8
CSLAYER1
  6
CONTINUOUS
 62
     2
 10
739.520722
 20
1688.017783
 40
0.945000
 50
180.000000
 51
270.000000
  0
ARC
  8
CSLAYER1
  6
CONTINUOUS
 62
     2
 10
735.268222
 20
1704.397783
 40
1.260000
 50
90.000000
 51
180.000000
  0
ARC
  8
CSLAYER1
  6
CONTINUOUS
 62
     2
 10
744.403222
 20
1704.397783
 40
1.260000
 50
0.000000
 51
90.000000
  0
ARC
  8
CSLAYER1
  6
CONTINUOUS
 62
     2
 10
744.403222
 20
1683.292783
 40
1.260000
 50
-90.000000
 51
0.000000
  0
ARC
  8
CSLAYER1
  6
CONTINUOUS
 62
     2
 10
735.268222
 20
1683.292783
 40
1.260000
 50
180.000000
 51
270.000000
  0
ARC
  8
CSLAYER1
  6
CONTINUOUS
 62
     2
 10
736.843222
 20
1688.017783
 40
0.945000
 50
-90.000000
 51
0.000000
  0
LINE
  8
CSLAYER1
  6
CONTINUOUS
 62
     2
 10
734.795722
 20
1685.970283
 11
734.795722
 21
1685.025283
  0
CIRCLE
  8
CSLAYER1
  6
CONTINUOUS
 62
     2
 10
720.261233
 20
1743.495124
 40
2.500000
  0
CIRCLE
  8
CSLAYER1
  6
CONTINUOUS
 62
     2
 10
720.261233
 20
1753.495124
 40
2.500000
  0
CIRCLE
  8
CSLAYER1
  6
CONTINUOUS
 62
     2
 10
710.261233
 20
1753.495124
 40
2.500000
  0
CIRCLE
  8
CSLAYER1
  6
CONTINUOUS
 62
     2
 10
710.261233
 20
1743.495124
 40
2.500000
  0
CIRCLE
  8
CSLAYER1
  6
CONTINUOUS
 62
     2
 10
700.261233
 20
1743.495124
 40
2.500000
  0
CIRCLE
  8
CSLAYER1
  6
CONTINUOUS
 62
     2
 10
700.261233
 20
1753.495124
 40
2.500000
  0
CIRCLE
  8
CSLAYER1
  6
CONTINUOUS
 62
     2
 10
690.261233
 20
1753.495124
 40
2.500000
  0
CIRCLE
  8
CSLAYER1
  6
CONTINUOUS
 62
     2
 10
690.261233
 20
1743.495124
 40
2.500000
  0
CIRCLE
  8
CSLAYER1
  6
CONTINUOUS
 62
     2
 10
680.261233
 20
1743.495124
 40
2.500000
  0
CIRCLE
  8
CSLAYER1
  6
CONTINUOUS
 62
     2
 10
680.261233
 20
1753.495124
 40
2.500000
  0
CIRCLE
  8
CSLAYER1
  6
CONTINUOUS
 62
     2
 10
720.261233
 20
1733.495124
 40
2.500000
  0
CIRCLE
  8
CSLAYER1
  6
CONTINUOUS
 62
     2
 10
720.261233
 20
1723.495124
 40
2.500000
  0
CIRCLE
  8
CSLAYER1
  6
CONTINUOUS
 62
     2
 10
710.261233
 20
1723.495124
 40
2.500000
  0
CIRCLE
  8
CSLAYER1
  6
CONTINUOUS
 62
     2
 10
710.261233
 20
1733.495124
 40
2.500000
  0
CIRCLE
  8
CSLAYER1
  6
CONTINUOUS
 62
     2
 10
700.261233
 20
1733.495124
 40
2.500000
  0
CIRCLE
  8
CSLAYER1
  6
CONTINUOUS
 62
     2
 10
700.261233
 20
1723.495124
 40
2.500000
  0
CIRCLE
  8
CSLAYER1
  6
CONTINUOUS
 62
     2
 10
690.261233
 20
1723.495124
 40
2.500000
  0
CIRCLE
  8
CSLAYER1
  6
CONTINUOUS
 62
     2
 10
690.261233
 20
1733.495124
 40
2.500000
  0
CIRCLE
  8
CSLAYER1
  6
CONTINUOUS
 62
     2
 10
680.261233
 20
1733.495124
 40
2.500000
  0
CIRCLE
  8
CSLAYER1
  6
CONTINUOUS
 62
     2
 10
680.261233
 20
1723.495124
 40
2.500000
  0
CIRCLE
  8
CSLAYER1
  6
CONTINUOUS
 62
     2
 10
720.261233
 20
1643.495124
 40
2.500000
  0
CIRCLE
  8
CSLAYER1
  6
CONTINUOUS
 62
     2
 10
720.261233
 20
1633.495124
 40
2.500000
  0
CIRCLE
  8
CSLAYER1
  6
CONTINUOUS
 62
     2
 10
710.261233
 20
1633.495124
 40
2.500000
  0
CIRCLE
  8
CSLAYER1
  6
CONTINUOUS
 62
     2
 10
710.261233
 20
1643.495124
 40
2.500000
  0
CIRCLE
  8
CSLAYER1
  6
CONTINUOUS
 62
     2
 10
700.261233
 20
1643.495124
 40
2.500000
  0
CIRCLE
  8
CSLAYER1
  6
CONTINUOUS
 62
     2
 10
700.261233
 20
1633.495124
 40
2.500000
  0
CIRCLE
  8
CSLAYER1
  6
CONTINUOUS
 62
     2
 10
690.261233
 20
1633.495124
 40
2.500000
  0
CIRCLE
  8
CSLAYER1
  6
CONTINUOUS
 62
     2
 10
690.261233
 20
1643.495124
 40
2.500000
  0
CIRCLE
  8
CSLAYER1
  6
CONTINUOUS
 62
     2
 10
680.261233
 20
1643.495124
 40
2.500000
  0
CIRCLE
  8
CSLAYER1
  6
CONTINUOUS
 62
     2
 10
680.261233
 20
1633.495124
 40
2.500000
  0
CIRCLE
  8
CSLAYER1
  6
CONTINUOUS
 62
     2
 10
720.261233
 20
1653.495124
 40
2.500000
  0
CIRCLE
  8
CSLAYER1
  6
CONTINUOUS
 62
     2
 10
720.261233
 20
1663.495124
 40
2.500000
  0
CIRCLE
  8
CSLAYER1
  6
CONTINUOUS
 62
     2
 10
710.261233
 20
1663.495124
 40
2.500000
  0
CIRCLE
  8
CSLAYER1
  6
CONTINUOUS
 62
     2
 10
710.261233
 20
1653.495124
 40
2.500000
  0
CIRCLE
  8
CSLAYER1
  6
CONTINUOUS
 62
     2
 10
700.261233
 20
1653.495124
 40
2.500000
  0
CIRCLE
  8
CSLAYER1
  6
CONTINUOUS
 62
     2
 10
700.261233
 20
1663.495124
 40
2.500000
  0
CIRCLE
  8
CSLAYER1
  6
CONTINUOUS
 62
     2
 10
690.261233
 20
1663.495124
 40
2.500000
  0
CIRCLE
  8
CSLAYER1
  6
CONTINUOUS
 62
     2
 10
690.261233
 20
1653.495124
 40
2.500000
  0
CIRCLE
  8
CSLAYER1
  6
CONTINUOUS
 62
     2
 10
680.261233
 20
1653.495124
 40
2.500000
  0
CIRCLE
  8
CSLAYER1
  6
CONTINUOUS
 62
     2
 10
680.261233
 20
1663.495124
 40
2.500000
  0
LINE
  8
CSLAYER1
  6
CONTINUOUS
 62
     2
 10
746.261233
 20
1665.995124
 11
746.261233
 21
1630.995124
  0
LINE
  8
CSLAYER1
  6
CONTINUOUS
 62
     2
 10
730.261233
 20
1665.995124
 11
730.261233
 21
1630.995124
  0
LINE
  8
CSLAYER1
  6
CONTINUOUS
 62
     2
 10
744.761233
 20
1667.495124
 11
731.761233
 21
1667.495124
  0
LINE
  8
CSLAYER1
  6
CONTINUOUS
 62
     2
 10
745.261233
 20
1665.995124
 11
745.261233
 21
1630.995124
  0
LINE
  8
CSLAYER1
  6
CONTINUOUS
 62
     2
 10
731.261233
 20
1665.995124
 11
731.261233
 21
1630.995124
  0
LINE
  8
CSLAYER1
  6
CONTINUOUS
 62
     2
 10
744.761233
 20
1666.495124
 11
731.761233
 21
1666.495124
  0
LINE
  8
CSLAYER1
  6
CONTINUOUS
 62
     2
 10
744.761233
 20
1629.495124
 11
731.761233
 21
1629.495124
  0
LINE
  8
CSLAYER1
  6
CONTINUOUS
 62
     2
 10
744.761233
 20
1630.495124
 11
731.761233
 21
1630.495124
  0
ARC
  8
CSLAYER1
  6
CONTINUOUS
 62
     2
 10
744.761233
 20
1665.995124
 40
0.500000
 50
0.000000
 51
90.000000
  0
ARC
  8
CSLAYER1
  6
CONTINUOUS
 62
     2
 10
731.761233
 20
1665.995124
 40
0.500000
 50
90.000000
 51
180.000000
  0
ARC
  8
CSLAYER1
  6
CONTINUOUS
 62
     2
 10
744.761233
 20
1630.995124
 40
0.500000
 50
-90.000000
 51
0.000000
  0
ARC
  8
CSLAYER1
  6
CONTINUOUS
 62
     2
 10
731.761233
 20
1630.995124
 40
0.500000
 50
180.000000
 51
270.000000
  0
ARC
  8
CSLAYER1
  6
CONTINUOUS
 62
     2
 10
744.761233
 20
1665.995124
 40
1.500000
 50
0.000000
 51
90.000000
  0
ARC
  8
CSLAYER1
  6
CONTINUOUS
 62
     2
 10
731.761233
 20
1665.995124
 40
1.500000
 50
90.000000
 51
180.000000
  0
ARC
  8
CSLAYER1
  6
CONTINUOUS
 62
     2
 10
744.761233
 20
1630.995124
 40
1.500000
 50
-90.000000
 51
0.000000
  0
ARC
  8
CSLAYER1
  6
CONTINUOUS
 62
     2
 10
731.761233
 20
1630.995124
 40
1.500000
 50
180.000000
 51
270.000000
  0
LINE
  8
CSLAYER1
  6
CONTINUOUS
 62
     2
 10
741.261233
 20
1657.495124
 11
741.261233
 21
1639.495124
  0
LINE
  8
CSLAYER1
  6
CONTINUOUS
 62
     2
 10
744.339305
 20
1648.495124
 11
741.261233
 21
1639.495124
  0
LINE
  8
CSLAYER1
  6
CONTINUOUS
 62
     2
 10
744.339305
 20
1648.495124
 11
741.261233
 21
1657.495124
  0
TEXT
  8
CSLAYER1
 62
     2
 10
732.967459
 20
1657.475151
 40
7.066058
 41
1.574983
  1
UP
 50
270.000000
 51
0.000000
  7
EASYDRAW_FONT
 72
     5
 11
732.967459
 21
1638.926948
  0
LINE
  8
CSLAYER1
  6
CONTINUOUS
 62
     2
 10
746.261233
 20
1720.995124
 11
746.261233
 21
1755.995124
  0
LINE
  8
CSLAYER1
  6
CONTINUOUS
 62
     2
 10
730.261233
 20
1720.995124
 11
730.261233
 21
1755.995124
  0
LINE
  8
CSLAYER1
  6
CONTINUOUS
 62
     2
 10
744.761233
 20
1719.495124
 11
731.761233
 21
1719.495124
  0
LINE
  8
CSLAYER1
  6
CONTINUOUS
 62
     2
 10
745.261233
 20
1720.995124
 11
745.261233
 21
1755.995124
  0
LINE
  8
CSLAYER1
  6
CONTINUOUS
 62
     2
 10
731.261233
 20
1720.995124
 11
731.261233
 21
1755.995124
  0
LINE
  8
CSLAYER1
  6
CONTINUOUS
 62
     2
 10
744.761233
 20
1720.495124
 11
731.761233
 21
1720.495124
  0
LINE
  8
CSLAYER1
  6
CONTINUOUS
 62
     2
 10
744.761233
 20
1757.495124
 11
731.761233
 21
1757.495124
  0
LINE
  8
CSLAYER1
  6
CONTINUOUS
 62
     2
 10
744.761233
 20
1756.495124
 11
731.761233
 21
1756.495124
  0
ARC
  8
CSLAYER1
  6
CONTINUOUS
 62
     2
 10
744.761233
 20
1720.995124
 40
0.500000
 50
-90.000000
 51
0.000000
  0
ARC
  8
CSLAYER1
  6
CONTINUOUS
 62
     2
 10
731.761233
 20
1720.995124
 40
0.500000
 50
180.000000
 51
270.000000
  0
ARC
  8
CSLAYER1
  6
CONTINUOUS
 62
     2
 10
744.761233
 20
1755.995124
 40
0.500000
 50
0.000000
 51
90.000000
  0
ARC
  8
CSLAYER1
  6
CONTINUOUS
 62
     2
 10
731.761233
 20
1755.995124
 40
0.500000
 50
90.000000
 51
180.000000
  0
ARC
  8
CSLAYER1
  6
CONTINUOUS
 62
     2
 10
744.761233
 20
1720.995124
 40
1.500000
 50
-90.000000
 51
0.000000
  0
ARC
  8
CSLAYER1
  6
CONTINUOUS
 62
     2
 10
731.761233
 20
1720.995124
 40
1.500000
 50
180.000000
 51
270.000000
  0
ARC
  8
CSLAYER1
  6
CONTINUOUS
 62
     2
 10
744.761233
 20
1755.995124
 40
1.500000
 50
0.000000
 51
90.000000
  0
ARC
  8
CSLAYER1
  6
CONTINUOUS
 62
     2
 10
731.761233
 20
1755.995124
 40
1.500000
 50
90.000000
 51
180.000000
  0
LINE
  8
CSLAYER1
  6
CONTINUOUS
 62
     2
 10
735.788303
 20
1729.495124
 11
735.788303
 21
1747.495124
  0
LINE
  8
CSLAYER1
  6
CONTINUOUS
 62
     2
 10
732.710231
 20
1738.495124
 11
735.788303
 21
1747.495124
  0
LINE
  8
CSLAYER1
  6
CONTINUOUS
 62
     2
 10
732.710231
 20
1738.495124
 11
735.788303
 21
1729.495124
  0
TEXT
  8
CSLAYER1
 62
     2
 10
737.398300
 20
1753.192720
 40
6.383575
 41
1.255870
  1
DOWN
 50
270.000000
 51
0.000000
  7
EASYDRAW_FONT
 72
     5
 11
737.398300
 21
1723.797270
  0
ENDBLK
  8
0
  0
BLOCK
  8
CSLAYER1
  2
BLKF0002
 70
   64
 10
0.0
 20
0.0
 30
0.0
  0
LINE
  8
CSLAYER1
  6
CONTINUOUS
 62
     5
 10
845.761233
 20
504.446953
 11
845.742207
 21
504.696905
  0
LINE
  8
CSLAYER1
  6
CONTINUOUS
 62
     5
 10
845.742207
 20
504.696905
 11
845.685272
 21
504.944955
  0
LINE
  8
CSLAYER1
  6
CONTINUOUS
 62
     5
 10
845.685272
 20
504.944955
 11
845.590862
 21
505.189215
  0
LINE
  8
CSLAYER1
  6
CONTINUOUS
 62
     5
 10
845.590862
 20
505.189215
 11
845.459696
 21
505.427826
  0
LINE
  8
CSLAYER1
  6
CONTINUOUS
 62
     5
 10
845.459696
 20
505.427826
 11
845.292772
 21
505.658972
  0
LINE
  8
CSLAYER1
  6
CONTINUOUS
 62
     5
 10
845.292772
 20
505.658972
 11
845.091360
 21
505.880894
  0
LINE
  8
CSLAYER1
  6
CONTINUOUS
 62
     5
 10
845.091360
 20
505.880894
 11
844.856993
 21
506.091902
  0
LINE
  8
CSLAYER1
  6
CONTINUOUS
 62
     5
 10
844.856993
 20
506.091902
 11
844.591455
 21
506.290392
  0
LINE
  8
CSLAYER1
  6
CONTINUOUS
 62
     5
 10
844.591455
 20
506.290392
 11
844.296767
 21
506.474852
  0
LINE
  8
CSLAYER1
  6
CONTINUOUS
 62
     5
 10
844.296767
 20
506.474852
 11
843.975171
 21
506.643878
  0
LINE
  8
CSLAYER1
  6
CONTINUOUS
 62
     5
 10
843.975171
 20
506.643878
 11
843.629115
 21
506.796184
  0
LINE
  8
CSLAYER1
  6
CONTINUOUS
 62
     5
 10
843.629115
 20
506.796184
 11
843.261233
 21
506.930612
  0
LINE
  8
CSLAYER1
  6
CONTINUOUS
 62
     5
 10
843.261233
 20
506.930612
 11
842.874325
 21
507.046137
  0
LINE
  8
CSLAYER1
  6
CONTINUOUS
 62
     5
 10
842.874325
 20
507.046137
 11
842.471334
 21
507.141880
  0
LINE
  8
CSLAYER1
  6
CONTINUOUS
 62
     5
 10
842.471334
 20
507.141880
 11
842.055328
 21
507.217114
  0
LINE
  8
CSLAYER1
  6
CONTINUOUS
 62
     5
 10
842.055328
 20
507.217114
 11
841.629474
 21
507.271265
  0
LINE
  8
CSLAYER1
  6
CONTINUOUS
 62
     5
 10
841.629474
 20
507.271265
 11
841.197012
 21
507.303922
  0
LINE
  8
CSLAYER1
  6
CONTINUOUS
 62
     5
 10
841.197012
 20
507.303922
 11
840.761233
 21
507.314835
  0
LINE
  8
CSLAYER1
  6
CONTINUOUS
 62
     5
 10
840.761233
 20
507.314835
 11
840.325454
 21
507.303922
  0
LINE
  8
CSLAYER1
  6
CONTINUOUS
 62
     5
 10
840.325454
 20
507.303922
 11
839.892992
 21
507.271265
  0
LINE
  8
CSLAYER1
  6
CONTINUOUS
 62
     5
 10
839.892992
 20
507.271265
 11
839.467138
 21
507.217114
  0
LINE
  8
CSLAYER1
  6
CONTINUOUS
 62
     5
 10
839.467138
 20
507.217114
 11
839.051132
 21
507.141880
  0
LINE
  8
CSLAYER1
  6
CONTINUOUS
 62
     5
 10
839.051132
 20
507.141880
 11
838.648142
 21
507.046137
  0
LINE
  8
CSLAYER1
  6
CONTINUOUS
 62
     5
 10
838.648142
 20
507.046137
 11
838.261233
 21
506.930612
  0
LINE
  8
CSLAYER1
  6
CONTINUOUS
 62
     5
 10
838.261233
 20
506.930612
 11
837.893351
 21
506.796184
  0
LINE
  8
CSLAYER1
  6
CONTINUOUS
 62
     5
 10
837.893351
 20
506.796184
 11
837.547295
 21
506.643878
  0
LINE
  8
CSLAYER1
  6
CONTINUOUS
 62
     5
 10
837.547295
 20
506.643878
 11
837.225699
 21
506.474852
  0
LINE
  8
CSLAYER1
  6
CONTINUOUS
 62
     5
 10
837.225699
 20
506.474852
 11
836.931011
 21
506.290392
  0
LINE
  8
CSLAYER1
  6
CONTINUOUS
 62
     5
 10
836.931011
 20
506.290392
 11
836.665473
 21
506.091902
  0
LINE
  8
CSLAYER1
  6
CONTINUOUS
 62
     5
 10
836.665473
 20
506.091902
 11
836.431106
 21
505.880894
  0
LINE
  8
CSLAYER1
  6
CONTINUOUS
 62
     5
 10
836.431106
 20
505.880894
 11
836.229694
 21
505.658972
  0
LINE
  8
CSLAYER1
  6
CONTINUOUS
 62
     5
 10
836.229694
 20
505.658972
 11
836.062770
 21
505.427826
  0
LINE
  8
CSLAYER1
  6
CONTINUOUS
 62
     5
 10
836.062770
 20
505.427826
 11
835.931604
 21
505.189215
  0
LINE
  8
CSLAYER1
  6
CONTINUOUS
 62
     5
 10
835.931604
 20
505.189215
 11
835.837194
 21
504.944955
  0
LINE
  8
CSLAYER1
  6
CONTINUOUS
 62
     5
 10
835.837194
 20
504.944955
 11
835.780260
 21
504.696905
  0
LINE
  8
CSLAYER1
  6
CONTINUOUS
 62
     5
 10
835.780260
 20
504.696905
 11
835.761233
 21
504.446953
  0
LINE
  8
CSLAYER1
  6
CONTINUOUS
 62
     5
 10
835.761233
 20
504.446953
 11
835.780260
 21
504.197000
  0
LINE
  8
CSLAYER1
  6
CONTINUOUS
 62
     5
 10
835.780260
 20
504.197000
 11
835.837194
 21
503.948950
  0
LINE
  8
CSLAYER1
  6
CONTINUOUS
 62
     5
 10
835.837194
 20
503.948950
 11
835.931604
 21
503.704690
  0
LINE
  8
CSLAYER1
  6
CONTINUOUS
 62
     5
 10
835.931604
 20
503.704690
 11
836.062770
 21
503.466079
  0
LINE
  8
CSLAYER1
  6
CONTINUOUS
 62
     5
 10
836.062770
 20
503.466079
 11
836.229694
 21
503.234933
  0
LINE
  8
CSLAYER1
  6
CONTINUOUS
 62
     5
 10
836.229694
 20
503.234933
 11
836.431106
 21
503.013012
  0
LINE
  8
CSLAYER1
  6
CONTINUOUS
 62
     5
 10
836.431106
 20
503.013012
 11
836.665473
 21
502.802003
  0
LINE
  8
CSLAYER1
  6
CONTINUOUS
 62
     5
 10
836.665473
 20
502.802003
 11
836.931011
 21
502.603514
  0
LINE
  8
CSLAYER1
  6
CONTINUOUS
 62
     5
 10
836.931011
 20
502.603514
 11
837.225699
 21
502.419054
  0
LINE
  8
CSLAYER1
  6
CONTINUOUS
 62
     5
 10
837.225699
 20
502.419054
 11
837.547295
 21
502.250028
  0
LINE
  8
CSLAYER1
  6
CONTINUOUS
 62
     5
 10
837.547295
 20
502.250028
 11
837.893351
 21
502.097721
  0
LINE
  8
CSLAYER1
  6
CONTINUOUS
 62
     5
 10
837.893351
 20
502.097721
 11
838.261233
 21
501.963294
  0
LINE
  8
CSLAYER1
  6
CONTINUOUS
 62
     5
 10
838.261233
 20
501.963294
 11
838.648142
 21
501.847769
  0
LINE
  8
CSLAYER1
  6
CONTINUOUS
 62
     5
 10
838.648142
 20
501.847769
 11
839.051132
 21
501.752025
  0
LINE
  8
CSLAYER1
  6
CONTINUOUS
 62
     5
 10
839.051132
 20
501.752025
 11
839.467138
 21
501.676791
  0
LINE
  8
CSLAYER1
  6
CONTINUOUS
 62
     5
 10
839.467138
 20
501.676791
 11
839.892992
 21
501.622640
  0
LINE
  8
CSLAYER1
  6
CONTINUOUS
 62
     5
 10
839.892992
 20
501.622640
 11
840.325454
 21
501.589984
  0
LINE
  8
CSLAYER1
  6
CONTINUOUS
 62
     5
 10
840.325454
 20
501.589984
 11
840.761233
 21
501.579071
  0
LINE
  8
CSLAYER1
  6
CONTINUOUS
 62
     5
 10
840.761233
 20
501.579071
 11
841.197012
 21
501.589984
  0
LINE
  8
CSLAYER1
  6
CONTINUOUS
 62
     5
 10
841.197012
 20
501.589984
 11
841.629474
 21
501.622640
  0
LINE
  8
CSLAYER1
  6
CONTINUOUS
 62
     5
 10
841.629474
 20
501.622640
 11
842.055328
 21
501.676791
  0
LINE
  8
CSLAYER1
  6
CONTINUOUS
 62
     5
 10
842.055328
 20
501.676791
 11
842.471334
 21
501.752025
  0
LINE
  8
CSLAYER1
  6
CONTINUOUS
 62
     5
 10
842.471334
 20
501.752025
 11
842.874325
 21
501.847769
  0
LINE
  8
CSLAYER1
  6
CONTINUOUS
 62
     5
 10
842.874325
 20
501.847769
 11
843.261233
 21
501.963294
  0
LINE
  8
CSLAYER1
  6
CONTINUOUS
 62
     5
 10
843.261233
 20
501.963294
 11
843.629115
 21
502.097721
  0
LINE
  8
CSLAYER1
  6
CONTINUOUS
 62
     5
 10
843.629115
 20
502.097721
 11
843.975171
 21
502.250028
  0
LINE
  8
CSLAYER1
  6
CONTINUOUS
 62
     5
 10
843.975171
 20
502.250028
 11
844.296767
 21
502.419054
  0
LINE
  8
CSLAYER1
  6
CONTINUOUS
 62
     5
 10
844.296767
 20
502.419054
 11
844.591455
 21
502.603514
  0
LINE
  8
CSLAYER1
  6
CONTINUOUS
 62
     5
 10
844.591455
 20
502.603514
 11
844.856993
 21
502.802003
  0
LINE
  8
CSLAYER1
  6
CONTINUOUS
 62
     5
 10
844.856993
 20
502.802003
 11
845.091360
 21
503.013012
  0
LINE
  8
CSLAYER1
  6
CONTINUOUS
 62
     5
 10
845.091360
 20
503.013012
 11
845.292772
 21
503.234933
  0
LINE
  8
CSLAYER1
  6
CONTINUOUS
 62
     5
 10
845.292772
 20
503.234933
 11
845.459696
 21
503.466079
  0
LINE
  8
CSLAYER1
  6
CONTINUOUS
 62
     5
 10
845.459696
 20
503.466079
 11
845.590862
 21
503.704690
  0
LINE
  8
CSLAYER1
  6
CONTINUOUS
 62
     5
 10
845.590862
 20
503.704690
 11
845.685272
 21
503.948950
  0
LINE
  8
CSLAYER1
  6
CONTINUOUS
 62
     5
 10
845.685272
 20
503.948950
 11
845.742207
 21
504.197000
  0
LINE
  8
CSLAYER1
  6
CONTINUOUS
 62
     5
 10
845.742207
 20
504.197000
 11
845.761233
 21
504.446953
  0
ENDBLK
  8
0
  0
BLOCK
  8
CSLAYER1
  2
BLKF0003
 70
   64
 10
0.0
 20
0.0
 30
0.0
  0
LINE
  8
CSLAYER1
  6
CONTINUOUS
 62
     5
 10
417.761233
 20
504.446953
 11
417.780260
 21
504.696905
  0
LINE
  8
CSLAYER1
  6
CONTINUOUS
 62
     5
 10
417.780260
 20
504.696905
 11
417.837194
 21
504.944955
  0
LINE
  8
CSLAYER1
  6
CONTINUOUS
 62
     5
 10
417.837194
 20
504.944955
 11
417.931604
 21
505.189215
  0
LINE
  8
CSLAYER1
  6
CONTINUOUS
 62
     5
 10
417.931604
 20
505.189215
 11
418.062770
 21
505.427826
  0
LINE
  8
CSLAYER1
  6
CONTINUOUS
 62
     5
 10
418.062770
 20
505.427826
 11
418.229694
 21
505.658972
  0
LINE
  8
CSLAYER1
  6
CONTINUOUS
 62
     5
 10
418.229694
 20
505.658972
 11
418.431106
 21
505.880894
  0
LINE
  8
CSLAYER1
  6
CONTINUOUS
 62
     5
 10
418.431106
 20
505.880894
 11
418.665473
 21
506.091902
  0
LINE
  8
CSLAYER1
  6
CONTINUOUS
 62
     5
 10
418.665473
 20
506.091902
 11
418.931011
 21
506.290392
  0
LINE
  8
CSLAYER1
  6
CONTINUOUS
 62
     5
 10
418.931011
 20
506.290392
 11
419.225699
 21
506.474852
  0
LINE
  8
CSLAYER1
  6
CONTINUOUS
 62
     5
 10
419.225699
 20
506.474852
 11
419.547295
 21
506.643878
  0
LINE
  8
CSLAYER1
  6
CONTINUOUS
 62
     5
 10
419.547295
 20
506.643878
 11
419.893351
 21
506.796184
  0
LINE
  8
CSLAYER1
  6
CONTINUOUS
 62
     5
 10
419.893351
 20
506.796184
 11
420.261233
 21
506.930612
  0
LINE
  8
CSLAYER1
  6
CONTINUOUS
 62
     5
 10
420.261233
 20
506.930612
 11
420.648142
 21
507.046137
  0
LINE
  8
CSLAYER1
  6
CONTINUOUS
 62
     5
 10
420.648142
 20
507.046137
 11
421.051132
 21
507.141880
  0
LINE
  8
CSLAYER1
  6
CONTINUOUS
 62
     5
 10
421.051132
 20
507.141880
 11
421.467138
 21
507.217114
  0
LINE
  8
CSLAYER1
  6
CONTINUOUS
 62
     5
 10
421.467138
 20
507.217114
 11
421.892992
 21
507.271265
  0
LINE
  8
CSLAYER1
  6
CONTINUOUS
 62
     5
 10
421.892992
 20
507.271265
 11
422.325454
 21
507.303922
  0
LINE
  8
CSLAYER1
  6
CONTINUOUS
 62
     5
 10
422.325454
 20
507.303922
 11
422.761233
 21
507.314835
  0
LINE
  8
CSLAYER1
  6
CONTINUOUS
 62
     5
 10
422.761233
 20
507.314835
 11
423.197012
 21
507.303922
  0
LINE
  8
CSLAYER1
  6
CONTINUOUS
 62
     5
 10
423.197012
 20
507.303922
 11
423.629474
 21
507.271265
  0
LINE
  8
CSLAYER1
  6
CONTINUOUS
 62
     5
 10
423.629474
 20
507.271265
 11
424.055328
 21
507.217114
  0
LINE
  8
CSLAYER1
  6
CONTINUOUS
 62
     5
 10
424.055328
 20
507.217114
 11
424.471334
 21
507.141880
  0
LINE
  8
CSLAYER1
  6
CONTINUOUS
 62
     5
 10
424.471334
 20
507.141880
 11
424.874325
 21
507.046137
  0
LINE
  8
CSLAYER1
  6
CONTINUOUS
 62
     5
 10
424.874325
 20
507.046137
 11
425.261233
 21
506.930612
  0
LINE
  8
CSLAYER1
  6
CONTINUOUS
 62
     5
 10
425.261233
 20
506.930612
 11
425.629115
 21
506.796184
  0
LINE
  8
CSLAYER1
  6
CONTINUOUS
 62
     5
 10
425.629115
 20
506.796184
 11
425.975171
 21
506.643878
  0
LINE
  8
CSLAYER1
  6
CONTINUOUS
 62
     5
 10
425.975171
 20
506.643878
 11
426.296767
 21
506.474852
  0
LINE
  8
CSLAYER1
  6
CONTINUOUS
 62
     5
 10
426.296767
 20
506.474852
 11
426.591455
 21
506.290392
  0
LINE
  8
CSLAYER1
  6
CONTINUOUS
 62
     5
 10
426.591455
 20
506.290392
 11
426.856993
 21
506.091902
  0
LINE
  8
CSLAYER1
  6
CONTINUOUS
 62
     5
 10
426.856993
 20
506.091902
 11
427.091360
 21
505.880894
  0
LINE
  8
CSLAYER1
  6
CONTINUOUS
 62
     5
 10
427.091360
 20
505.880894
 11
427.292772
 21
505.658972
  0
LINE
  8
CSLAYER1
  6
CONTINUOUS
 62
     5
 10
427.292772
 20
505.658972
 11
427.459696
 21
505.427826
  0
LINE
  8
CSLAYER1
  6
CONTINUOUS
 62
     5
 10
427.459696
 20
505.427826
 11
427.590862
 21
505.189215
  0
LINE
  8
CSLAYER1
  6
CONTINUOUS
 62
     5
 10
427.590862
 20
505.189215
 11
427.685272
 21
504.944955
  0
LINE
  8
CSLAYER1
  6
CONTINUOUS
 62
     5
 10
427.685272
 20
504.944955
 11
427.742207
 21
504.696905
  0
LINE
  8
CSLAYER1
  6
CONTINUOUS
 62
     5
 10
427.742207
 20
504.696905
 11
427.761233
 21
504.446953
  0
LINE
  8
CSLAYER1
  6
CONTINUOUS
 62
     5
 10
427.761233
 20
504.446953
 11
427.742207
 21
504.197000
  0
LINE
  8
CSLAYER1
  6
CONTINUOUS
 62
     5
 10
427.742207
 20
504.197000
 11
427.685272
 21
503.948950
  0
LINE
  8
CSLAYER1
  6
CONTINUOUS
 62
     5
 10
427.685272
 20
503.948950
 11
427.590862
 21
503.704690
  0
LINE
  8
CSLAYER1
  6
CONTINUOUS
 62
     5
 10
427.590862
 20
503.704690
 11
427.459696
 21
503.466079
  0
LINE
  8
CSLAYER1
  6
CONTINUOUS
 62
     5
 10
427.459696
 20
503.466079
 11
427.292772
 21
503.234933
  0
LINE
  8
CSLAYER1
  6
CONTINUOUS
 62
     5
 10
427.292772
 20
503.234933
 11
427.091360
 21
503.013012
  0
LINE
  8
CSLAYER1
  6
CONTINUOUS
 62
     5
 10
427.091360
 20
503.013012
 11
426.856993
 21
502.802003
  0
LINE
  8
CSLAYER1
  6
CONTINUOUS
 62
     5
 10
426.856993
 20
502.802003
 11
426.591455
 21
502.603514
  0
LINE
  8
CSLAYER1
  6
CONTINUOUS
 62
     5
 10
426.591455
 20
502.603514
 11
426.296767
 21
502.419054
  0
LINE
  8
CSLAYER1
  6
CONTINUOUS
 62
     5
 10
426.296767
 20
502.419054
 11
425.975171
 21
502.250028
  0
LINE
  8
CSLAYER1
  6
CONTINUOUS
 62
     5
 10
425.975171
 20
502.250028
 11
425.629115
 21
502.097721
  0
LINE
  8
CSLAYER1
  6
CONTINUOUS
 62
     5
 10
425.629115
 20
502.097721
 11
425.261233
 21
501.963294
  0
LINE
  8
CSLAYER1
  6
CONTINUOUS
 62
     5
 10
425.261233
 20
501.963294
 11
424.874325
 21
501.847769
  0
LINE
  8
CSLAYER1
  6
CONTINUOUS
 62
     5
 10
424.874325
 20
501.847769
 11
424.471334
 21
501.752025
  0
LINE
  8
CSLAYER1
  6
CONTINUOUS
 62
     5
 10
424.471334
 20
501.752025
 11
424.055328
 21
501.676791
  0
LINE
  8
CSLAYER1
  6
CONTINUOUS
 62
     5
 10
424.055328
 20
501.676791
 11
423.629474
 21
501.622640
  0
LINE
  8
CSLAYER1
  6
CONTINUOUS
 62
     5
 10
423.629474
 20
501.622640
 11
423.197012
 21
501.589984
  0
LINE
  8
CSLAYER1
  6
CONTINUOUS
 62
     5
 10
423.197012
 20
501.589984
 11
422.761233
 21
501.579071
  0
LINE
  8
CSLAYER1
  6
CONTINUOUS
 62
     5
 10
422.761233
 20
501.579071
 11
422.325454
 21
501.589984
  0
LINE
  8
CSLAYER1
  6
CONTINUOUS
 62
     5
 10
422.325454
 20
501.589984
 11
421.892992
 21
501.622640
  0
LINE
  8
CSLAYER1
  6
CONTINUOUS
 62
     5
 10
421.892992
 20
501.622640
 11
421.467138
 21
501.676791
  0
LINE
  8
CSLAYER1
  6
CONTINUOUS
 62
     5
 10
421.467138
 20
501.676791
 11
421.051132
 21
501.752025
  0
LINE
  8
CSLAYER1
  6
CONTINUOUS
 62
     5
 10
421.051132
 20
501.752025
 11
420.648142
 21
501.847769
  0
LINE
  8
CSLAYER1
  6
CONTINUOUS
 62
     5
 10
420.648142
 20
501.847769
 11
420.261233
 21
501.963294
  0
LINE
  8
CSLAYER1
  6
CONTINUOUS
 62
     5
 10
420.261233
 20
501.963294
 11
419.893351
 21
502.097721
  0
LINE
  8
CSLAYER1
  6
CONTINUOUS
 62
     5
 10
419.893351
 20
502.097721
 11
419.547295
 21
502.250028
  0
LINE
  8
CSLAYER1
  6
CONTINUOUS
 62
     5
 10
419.547295
 20
502.250028
 11
419.225699
 21
502.419054
  0
LINE
  8
CSLAYER1
  6
CONTINUOUS
 62
     5
 10
419.225699
 20
502.419054
 11
418.931011
 21
502.603514
  0
LINE
  8
CSLAYER1
  6
CONTINUOUS
 62
     5
 10
418.931011
 20
502.603514
 11
418.665473
 21
502.802003
  0
LINE
  8
CSLAYER1
  6
CONTINUOUS
 62
     5
 10
418.665473
 20
502.802003
 11
418.431106
 21
503.013012
  0
LINE
  8
CSLAYER1
  6
CONTINUOUS
 62
     5
 10
418.431106
 20
503.013012
 11
418.229694
 21
503.234933
  0
LINE
  8
CSLAYER1
  6
CONTINUOUS
 62
     5
 10
418.229694
 20
503.234933
 11
418.062770
 21
503.466079
  0
LINE
  8
CSLAYER1
  6
CONTINUOUS
 62
     5
 10
418.062770
 20
503.466079
 11
417.931604
 21
503.704690
  0
LINE
  8
CSLAYER1
  6
CONTINUOUS
 62
     5
 10
417.931604
 20
503.704690
 11
417.837194
 21
503.948950
  0
LINE
  8
CSLAYER1
  6
CONTINUOUS
 62
     5
 10
417.837194
 20
503.948950
 11
417.780260
 21
504.197000
  0
LINE
  8
CSLAYER1
  6
CONTINUOUS
 62
     5
 10
417.780260
 20
504.197000
 11
417.761233
 21
504.446953
  0
ENDBLK
  8
0
  0
ENDSEC
  0
SECTION
  2
ENTITIES
  0
LINE
  8
CSLAYER1
  6
CONTINUOUS
 62
     3
 10
118.051807
 20
2400.454119
 11
118.051807
 21
51.907189
  0
LINE
  8
CSLAYER1
  6
CONTINUOUS
 62
     3
 10
3440.625117
 20
2400.454119
 11
118.051807
 21
2400.454119
  0
LINE
  8
CSLAYER1
  6
CONTINUOUS
 62
     3
 10
3440.625117
 20
2400.454119
 11
3440.625117
 21
51.907189
  0
LINE
  8
CSLAYER1
  6
CONTINUOUS
 62
     3
 10
3440.625117
 20
51.907189
 11
118.051807
 21
51.907189
  0
LINE
  8
CSLAYER1
  6
CONTINUOUS
 62
     5
 10
68.051807
 20
1211.907189
 11
18.051807
 21
1211.907189
  0
LINE
  8
CSLAYER1
  6
CONTINUOUS
 62
     5
 10
2640.625117
 20
491.907189
 11
3440.625117
 21
491.907189
  0
LINE
  8
CSLAYER1
  6
CONTINUOUS
 62
     5
 10
2640.625117
 20
131.907189
 11
3440.625117
 21
131.907189
  0
LINE
  8
CSLAYER1
  6
CONTINUOUS
 62
     5
 10
2640.625117
 20
291.907189
 11
3440.625117
 21
291.907189
  0
LINE
  8
CSLAYER1
  6
CONTINUOUS
 62
     5
 10
2640.625117
 20
351.907189
 11
3440.625117
 21
351.907189
  0
LINE
  8
CSLAYER1
  6
CONTINUOUS
 62
     5
 10
2640.625117
 20
411.907189
 11
3440.625117
 21
411.907189
  0
LINE
  8
CSLAYER1
  6
CONTINUOUS
 62
     5
 10
2640.625117
 20
571.907189
 11
3440.625117
 21
571.907189
  0
LINE
  8
CSLAYER1
  6
CONTINUOUS
 62
     5
 10
2640.625117
 20
651.907189
 11
2640.625117
 21
51.907189
  0
LINE
  8
CSLAYER1
  6
CONTINUOUS
 62
     5
 10
2840.625117
 20
651.907189
 11
2840.625117
 21
411.907189
  0
LINE
  8
CSLAYER1
  6
CONTINUOUS
 62
     5
 10
2640.625117
 20
651.907189
 11
3440.625117
 21
651.907189
  0
LINE
  8
CSLAYER1
  6
CONTINUOUS
 62
     5
 10
3140.625117
 20
411.907189
 11
3140.625117
 21
131.907189
  0
TEXT
  8
CSLAYER1
 62
     3
 10
2860.316219
 20
60.469913
 40
59.380363
 41
1.003345
  1
東正車輌株式会社
 50
0.000000
 51
0.000000
  7
EASYDRAW_FONT
 72
     5
 11
3317.088566
 21
60.469913
  0
LINE
  8
CSLAYER1
  6
CONTINUOUS
 62
     5
 10
2890.625117
 20
351.907189
 11
2890.625117
 21
131.907189
  0
TEXT
  8
CSLAYER1
 62
     5
 10
2670.625000
 20
586.907166
 40
50.000000
 41
1.050000
  1
品　名
 50
0.000000
 51
0.000000
  7
EASYDRAW_FONT
 72
     5
 11
2810.625000
 21
586.907166
  0
TEXT
  8
CSLAYER1
 62
     5
 10
2670.625000
 20
506.907166
 40
50.000000
 41
1.050000
  1
型　式
 50
0.000000
 51
0.000000
  7
EASYDRAW_FONT
 72
     5
 11
2810.625000
 21
506.907166
  0
TEXT
  8
CSLAYER1
 62
     5
 10
2645.625000
 20
426.907196
 40
50.000000
 41
1.036364
  1
図面番号
 50
0.000000
 51
0.000000
  7
EASYDRAW_FONT
 72
     5
 11
2835.625000
 21
426.907196
  0
TEXT
  8
CSLAYER1
 62
     5
 10
2710.625000
 20
356.907196
 40
50.000000
 41
0.830769
  1
平成１３年３月７日
 50
0.000000
 51
0.000000
  7
EASYDRAW_FONT
 72
     5
 11
3070.625000
 21
356.907196
  0
TEXT
  8
CSLAYER1
 62
     5
 10
3220.625000
 20
356.907196
 40
50.000000
 41
1.050000
  1
Ｂ－４
 50
0.000000
 51
0.000000
  7
EASYDRAW_FONT
 72
     5
 11
3360.625000
 21
356.907196
  0
TEXT
  8
CSLAYER1
 62
     5
 10
2695.625000
 20
296.907196
 40
50.000000
 41
1.050000
  1
検　図
 50
0.000000
 51
0.000000
  7
EASYDRAW_FONT
 72
     5
 11
2835.625000
 21
296.907196
  0
TEXT
  8
CSLAYER1
 62
     5
 10
2945.625000
 20
296.907196
 40
50.000000
 41
1.050000
  1
作　図
 50
0.000000
 51
0.000000
  7
EASYDRAW_FONT
 72
     5
 11
3085.625000
 21
296.907196
  0
TEXT
  8
CSLAYER1
 62
     5
 10
3220.625000
 20
296.907196
 40
50.000000
 41
1.050000
  1
尺　度
 50
0.000000
 51
0.000000
  7
EASYDRAW_FONT
 72
     5
 11
3360.625000
 21
296.907196
  0
TEXT
  8
CSLAYER1
 62
     5
 10
3321.363770
 20
146.392456
 40
50.000000
 41
1.080000
  1
１０
 50
0.000000
 51
0.000000
  7
EASYDRAW_FONT
 72
     5
 11
3411.363770
 21
146.392456
  0
TEXT
  8
CSLAYER1
 62
     5
 10
3301.044189
 20
194.097153
 40
50.000000
 41
1.200000
  1
／
 50
0.000000
 51
0.000000
  7
EASYDRAW_FONT
 72
     5
 11
3341.044189
 21
194.097153
  0
TEXT
  8
CSLAYER1
 62
     5
 10
3270.831299
 20
229.080597
 40
50.000000
 41
1.200000
  1
１
 50
0.000000
 51
0.000000
  7
EASYDRAW_FONT
 72
     5
 11
3310.831299
 21
229.080597
  0
TEXT
  8
CSLAYER1
 62
     3
 10
2980.625000
 20
586.907166
 40
50.000000
 41
0.834783
  1
ゴールドリフター
 50
0.000000
 51
0.000000
  7
EASYDRAW_FONT
 72
     5
 11
3300.625000
 21
586.907166
  0
TEXT
  8
CSLAYER1
 62
     3
 10
2900.625000
 20
506.907166
 40
50.000000
 41
0.822857
  1
ＧＬＥ－５００－０５０９
 50
0.000000
 51
0.000000
  7
EASYDRAW_FONT
 72
     5
 11
3380.625000
 21
506.907166
  0
TEXT
  8
CSLAYER1
 62
     3
 10
3020.625000
 20
426.907196
 40
50.000000
 41
0.847059
  1
GT-09 
 50
0.000000
 51
0.000000
  7
EASYDRAW_FONT
 72
     5
 11
3260.625000
 21
426.907196
  0
INSERT
  8
CSLAYER1
  2
BLKF0000
 10
0.0
 20
0.0
 30
0.0
  0
INSERT
  8
CSLAYER1
  2
BLKF0001
 10
0.0
 20
0.0
 30
0.0
  0
LINE
  8
CSLAYER1
  6
CONTINUOUS
 62
     3
 10
2581.687567
 20
418.448193
 11
296.999164
 21
418.448193
  0
LINE
  8
CSLAYER1
  6
CONTINUOUS
 62
     3
 10
1181.761233
 20
468.448193
 11
1181.761233
 21
418.448193
  0
LINE
  8
CSLAYER1
  6
CONTINUOUS
 62
     3
 10
2081.761233
 20
468.448193
 11
2081.761233
 21
418.448193
  0
LINE
  8
CSLAYER1
  6
CONTINUOUS
 62
     3
 10
2081.761233
 20
468.448193
 11
1181.761233
 21
468.448193
  0
LINE
  8
CSLAYER1
  6
CONTINUOUS
 62
     3
 10
2081.761233
 20
2066.995124
 11
1181.761233
 21
2066.995124
  0
LINE
  8
CSLAYER1
  6
CONTINUOUS
 62
     3
 10
2081.761233
 20
1566.995124
 11
1181.761233
 21
1566.995124
  0
LINE
  8
CSLAYER1
  6
CONTINUOUS
 62
     3
 10
2081.761233
 20
1566.995124
 11
2081.761233
 21
2066.995124
  0
LINE
  8
CSLAYER1
  6
CONTINUOUS
 62
     3
 10
881.761233
 20
1193.448193
 11
881.761233
 21
1143.448193
  0
LINE
  8
CSLAYER1
  6
CENTER
 62
     5
 10
631.761233
 20
1220.984888
 11
631.761233
 21
399.223892
  0
LINE
  8
CSLAYER1
  6
CONTINUOUS
 62
     3
 10
881.761233
 20
468.448193
 11
381.761233
 21
468.448193
  0
LINE
  8
CSLAYER1
  6
CONTINUOUS
 62
     3
 10
381.761233
 20
468.448193
 11
381.761233
 21
418.448193
  0
LINE
  8
CSLAYER1
  6
CONTINUOUS
 62
     3
 10
881.761233
 20
468.448193
 11
881.761233
 21
418.448193
  0
LINE
  8
CSLAYER1
  6
CONTINUOUS
 62
     3
 10
381.761233
 20
1193.448193
 11
881.761233
 21
1193.448193
  0
LINE
  8
CSLAYER1
  6
CONTINUOUS
 62
     3
 10
381.761233
 20
1143.448193
 11
881.761233
 21
1143.448193
  0
LINE
  8
CSLAYER1
  6
CONTINUOUS
 62
     3
 10
811.761233
 20
1143.448193
 11
811.761233
 21
468.448193
  0
LINE
  8
CSLAYER1
  6
CONTINUOUS
 62
     3
 10
823.761233
 20
1143.448193
 11
823.761233
 21
468.448193
  0
LINE
  8
CSLAYER1
  6
CONTINUOUS
 62
     3
 10
830.761233
 20
1143.448193
 11
830.761233
 21
513.678142
  0
LINE
  8
CSLAYER1
  6
CONTINUOUS
 62
     3
 10
842.761233
 20
1143.448193
 11
842.761233
 21
513.678142
  0
LINE
  8
CSLAYER1
  6
CENTER
 62
     5
 10
888.425070
 20
805.848193
 11
374.729651
 21
805.848193
  0
LINE
  8
CSLAYER1
  6
CENTER
 62
     5
 10
811.761233
 20
801.375165
 11
451.761233
 21
801.375165
  0
LINE
  8
CSLAYER1
  6
CONTINUOUS
 62
     3
 10
660.761233
 20
831.625165
 11
602.761233
 21
831.625165
  0
LINE
  8
CSLAYER1
  6
CONTINUOUS
 62
     3
 10
811.761233
 20
771.125165
 11
451.761233
 21
771.125165
  0
LINE
  8
CSLAYER1
  6
CONTINUOUS
 62
     5
 10
861.761233
 20
813.848193
 11
861.761233
 21
797.848193
  0
LINE
  8
CSLAYER1
  6
CONTINUOUS
 62
     5
 10
823.761233
 20
830.848193
 11
830.761233
 21
830.848193
  0
LINE
  8
CSLAYER1
  6
CONTINUOUS
 62
     5
 10
823.761233
 20
780.848193
 11
830.761233
 21
780.848193
  0
LINE
  8
CSLAYER1
  6
CONTINUOUS
 62
     5
 10
845.761233
 20
820.848193
 11
845.761233
 21
790.848193
  0
LINE
  8
CSLAYER1
  6
CONTINUOUS
 62
     5
 10
849.761233
 20
819.848193
 11
849.761233
 21
791.848193
  0
LINE
  8
CSLAYER1
  6
CONTINUOUS
 62
     5
 10
849.761233
 20
813.848193
 11
861.761233
 21
813.848193
  0
LINE
  8
CSLAYER1
  6
CONTINUOUS
 62
     5
 10
849.761233
 20
797.848193
 11
861.761233
 21
797.848193
  0
LINE
  8
CSLAYER1
  6
CONTINUOUS
 62
     5
 10
845.761233
 20
819.848193
 11
859.761233
 21
819.848193
  0
LINE
  8
CSLAYER1
  6
CONTINUOUS
 62
     5
 10
845.761233
 20
791.848193
 11
859.761233
 21
791.848193
  0
LINE
  8
CSLAYER1
  6
CONTINUOUS
 62
     5
 10
859.761233
 20
819.848193
 11
859.761233
 21
791.848193
  0
LINE
  8
CSLAYER1
  6
CONTINUOUS
 62
     5
 10
842.761233
 20
820.848193
 11
845.761233
 21
820.848193
  0
LINE
  8
CSLAYER1
  6
CONTINUOUS
 62
     5
 10
842.761233
 20
790.848193
 11
845.761233
 21
790.848193
  0
LINE
  8
CSLAYER1
  6
CONTINUOUS
 62
     3
 10
660.761233
 20
921.224653
 11
660.761233
 21
822.047251
  0
LINE
  8
CSLAYER1
  6
CONTINUOUS
 62
     3
 10
669.761233
 20
921.224653
 11
669.761233
 21
822.047251
  0
LINE
  8
CSLAYER1
  6
CONTINUOUS
 62
     3
 10
645.761233
 20
925.942723
 11
645.761233
 21
883.724648
  0
LINE
  8
CSLAYER1
  6
CONTINUOUS
 62
     5
 10
1451.209358
 20
940.356673
 11
1451.209358
 21
880.017134
  0
LINE
  8
CSLAYER1
  6
CONTINUOUS
 62
     3
 10
660.761233
 20
921.224653
 11
669.761233
 21
921.224653
  0
LINE
  8
CSLAYER1
  6
CONTINUOUS
 62
     3
 10
660.761233
 20
822.047251
 11
669.761233
 21
822.047251
  0
LINE
  8
CSLAYER1
  6
CONTINUOUS
 62
     3
 10
660.761233
 20
824.378394
 11
669.761233
 21
824.378394
  0
LINE
  8
CSLAYER1
  6
CONTINUOUS
 62
     5
 10
680.749539
 20
901.224648
 11
582.772927
 21
901.224648
  0
LINE
  8
CSLAYER1
  6
CONTINUOUS
 62
     3
 10
669.761233
 20
831.625165
 11
811.761233
 21
831.625165
  0
LINE
  8
CSLAYER1
  6
CONTINUOUS
 62
     3
 10
645.761233
 20
918.724648
 11
660.761233
 21
918.724648
  0
LINE
  8
CSLAYER1
  6
CONTINUOUS
 62
     3
 10
645.761233
 20
883.724648
 11
660.761233
 21
883.724648
  0
LINE
  8
CSLAYER1
  6
CONTINUOUS
 62
     3
 10
645.761233
 20
925.942723
 11
617.761233
 21
925.942723
  0
LINE
  8
CSLAYER1
  6
CONTINUOUS
 62
     3
 10
645.761233
 20
913.487286
 11
617.761233
 21
913.487286
  0
LINE
  8
CSLAYER1
  6
CONTINUOUS
 62
     3
 10
656.761233
 20
883.724648
 11
656.761233
 21
831.625165
  0
LINE
  8
CSLAYER1
  6
CONTINUOUS
 62
     3
 10
656.761233
 20
771.125165
 11
656.761233
 21
737.048200
  0
LINE
  8
CSLAYER1
  6
CONTINUOUS
 62
     3
 10
606.761233
 20
771.125165
 11
606.761233
 21
737.048200
  0
ARC
  8
CSLAYER1
  6
CONTINUOUS
 62
     3
 10
631.761233
 20
765.080370
 40
37.560652
 50
228.272384
 51
311.727616
  0
LINE
  8
CSLAYER1
  6
CONTINUOUS
 62
     3
 10
665.261233
 20
737.048200
 11
665.261233
 21
680.190365
  0
LINE
  8
CSLAYER1
  6
CONTINUOUS
 62
     3
 10
598.261233
 20
737.048200
 11
598.261233
 21
680.190365
  0
ARC
  8
CSLAYER1
  6
CONTINUOUS
 62
     3
 10
631.761233
 20
774.611308
 40
50.331273
 50
228.272384
 51
311.727616
  0
ARC
  8
CSLAYER1
  6
CONTINUOUS
 62
     3
 10
631.761233
 20
699.485091
 40
50.331273
 50
48.272384
 51
60.217488
  0
ARC
  8
CSLAYER1
  6
CONTINUOUS
 62
     3
 10
631.761233
 20
699.485091
 40
50.331273
 50
119.782512
 51
131.727616
  0
LINE
  8
CSLAYER1
  6
CONTINUOUS
 62
     3
 10
666.761233
 20
680.190365
 11
666.761233
 21
658.464200
  0
LINE
  8
CSLAYER1
  6
CONTINUOUS
 62
     3
 10
596.761233
 20
680.190365
 11
596.761233
 21
658.464200
  0
ARC
  8
CSLAYER1
  6
CONTINUOUS
 62
     3
 10
631.761233
 20
717.753473
 40
50.331273
 50
228.272384
 51
311.727616
  0
ARC
  8
CSLAYER1
  6
CONTINUOUS
 62
     3
 10
631.761233
 20
719.435403
 40
52.584913
 50
228.272384
 51
311.727616
  0
ARC
  8
CSLAYER1
  6
CONTINUOUS
 62
     3
 10
631.761233
 20
697.709239
 40
52.584913
 50
228.272384
 51
311.727616
  0
ARC
  8
CSLAYER1
  6
CONTINUOUS
 62
     3
 10
631.761233
 20
640.945327
 40
52.584913
 50
48.272384
 51
50.426700
  0
ARC
  8
CSLAYER1
  6
CONTINUOUS
 62
     3
 10
631.761233
 20
640.945327
 40
52.584913
 50
129.573300
 51
131.727616
  0
LINE
  8
CSLAYER1
  6
CONTINUOUS
 62
     3
 10
599.261233
 20
656.370116
 11
599.261233
 21
564.648193
  0
LINE
  8
CSLAYER1
  6
CONTINUOUS
 62
     3
 10
664.261233
 20
656.370116
 11
664.261233
 21
562.134532
  0
LINE
  8
CSLAYER1
  6
CONTINUOUS
 62
     5
 10
2081.561233
 20
573.448193
 11
2065.592902
 21
573.448193
  0
LINE
  8
CSLAYER1
  6
CONTINUOUS
 62
     5
 10
2081.561233
 20
523.448193
 11
2066.206563
 21
523.448193
  0
LINE
  8
CSLAYER1
  6
CONTINUOUS
 62
     5
 10
1181.561233
 20
523.448193
 11
1181.561233
 21
532.468553
  0
LINE
  8
CSLAYER1
  6
CONTINUOUS
 62
     5
 10
2081.561233
 20
523.448193
 11
2081.561233
 21
531.653018
  0
LINE
  8
CSLAYER1
  6
CONTINUOUS
 62
     5
 10
401.761233
 20
813.848193
 11
401.761233
 21
797.848193
  0
LINE
  8
CSLAYER1
  6
CONTINUOUS
 62
     5
 10
439.761233
 20
830.848193
 11
432.761233
 21
830.848193
  0
LINE
  8
CSLAYER1
  6
CONTINUOUS
 62
     5
 10
439.761233
 20
780.848193
 11
432.761233
 21
780.848193
  0
LINE
  8
CSLAYER1
  6
CONTINUOUS
 62
     5
 10
417.761233
 20
820.848193
 11
417.761233
 21
790.848193
  0
LINE
  8
CSLAYER1
  6
CONTINUOUS
 62
     5
 10
413.761233
 20
819.848193
 11
413.761233
 21
791.848193
  0
LINE
  8
CSLAYER1
  6
CONTINUOUS
 62
     5
 10
413.761233
 20
813.848193
 11
401.761233
 21
813.848193
  0
LINE
  8
CSLAYER1
  6
CONTINUOUS
 62
     5
 10
413.761233
 20
797.848193
 11
401.761233
 21
797.848193
  0
LINE
  8
CSLAYER1
  6
CONTINUOUS
 62
     5
 10
417.761233
 20
819.848193
 11
403.761233
 21
819.848193
  0
LINE
  8
CSLAYER1
  6
CONTINUOUS
 62
     5
 10
417.761233
 20
791.848193
 11
403.761233
 21
791.848193
  0
LINE
  8
CSLAYER1
  6
CONTINUOUS
 62
     5
 10
403.761233
 20
819.848193
 11
403.761233
 21
791.848193
  0
LINE
  8
CSLAYER1
  6
CONTINUOUS
 62
     5
 10
420.761233
 20
820.848193
 11
417.761233
 21
820.848193
  0
LINE
  8
CSLAYER1
  6
CONTINUOUS
 62
     5
 10
420.761233
 20
790.848193
 11
417.761233
 21
790.848193
  0
LINE
  8
CSLAYER1
  6
CONTINUOUS
 62
     3
 10
602.761233
 20
921.224653
 11
602.761233
 21
822.047251
  0
LINE
  8
CSLAYER1
  6
CONTINUOUS
 62
     3
 10
593.761233
 20
921.224653
 11
593.761233
 21
822.047251
  0
LINE
  8
CSLAYER1
  6
CONTINUOUS
 62
     3
 10
617.761233
 20
925.942723
 11
617.761233
 21
883.724648
  0
LINE
  8
CSLAYER1
  6
CONTINUOUS
 62
     3
 10
602.761233
 20
921.224653
 11
593.761233
 21
921.224653
  0
LINE
  8
CSLAYER1
  6
CONTINUOUS
 62
     3
 10
602.761233
 20
822.047251
 11
593.761233
 21
822.047251
  0
LINE
  8
CSLAYER1
  6
CONTINUOUS
 62
     3
 10
602.761233
 20
824.378394
 11
593.761233
 21
824.378394
  0
LINE
  8
CSLAYER1
  6
CONTINUOUS
 62
     3
 10
593.761233
 20
831.625165
 11
451.761233
 21
831.625165
  0
LINE
  8
CSLAYER1
  6
CONTINUOUS
 62
     3
 10
617.761233
 20
918.724648
 11
602.761233
 21
918.724648
  0
LINE
  8
CSLAYER1
  6
CONTINUOUS
 62
     3
 10
617.761233
 20
883.724648
 11
602.761233
 21
883.724648
  0
LINE
  8
CSLAYER1
  6
CONTINUOUS
 62
     3
 10
606.761233
 20
883.724648
 11
606.761233
 21
831.625165
  0
LINE
  8
CSLAYER1
  6
CONTINUOUS
 62
     3
 10
451.761233
 20
1143.448193
 11
451.761233
 21
468.448193
  0
LINE
  8
CSLAYER1
  6
CONTINUOUS
 62
     3
 10
439.761233
 20
1143.448193
 11
439.761233
 21
468.448193
  0
LINE
  8
CSLAYER1
  6
CONTINUOUS
 62
     3
 10
432.761233
 20
1143.448193
 11
432.761233
 21
513.678142
  0
LINE
  8
CSLAYER1
  6
CONTINUOUS
 62
     3
 10
420.761233
 20
1143.448193
 11
420.761233
 21
513.678142
  0
LINE
  8
CSLAYER1
  6
CONTINUOUS
 62
     3
 10
1508.761233
 20
476.648193
 11
1508.761233
 21
468.448193
  0
LINE
  8
CSLAYER1
  6
CONTINUOUS
 62
     3
 10
1388.761233
 20
476.648193
 11
1388.761233
 21
468.448193
  0
LINE
  8
CSLAYER1
  6
CONTINUOUS
 62
     3
 10
734.745547
 20
476.648193
 11
758.761233
 21
476.648193
  0
LINE
  8
CSLAYER1
  6
CONTINUOUS
 62
     3
 10
703.323733
 20
506.648193
 11
754.261233
 21
506.648193
  0
LINE
  8
CSLAYER1
  6
CONTINUOUS
 62
     3
 10
1388.761233
 20
476.648193
 11
1395.761233
 21
506.648193
  0
LINE
  8
CSLAYER1
  6
CONTINUOUS
 62
     3
 10
1501.761233
 20
506.648193
 11
1508.761233
 21
476.648193
  0
LINE
  8
CSLAYER1
  6
CONTINUOUS
 62
     3
 10
758.761233
 20
476.648193
 11
758.761233
 21
468.448193
  0
LINE
  8
CSLAYER1
  6
CONTINUOUS
 62
     3
 10
1395.761233
 20
506.648193
 11
1501.761233
 21
506.648193
  0
LINE
  8
CSLAYER1
  6
CONTINUOUS
 62
     3
 10
1388.761233
 20
476.648193
 11
1508.761233
 21
476.648193
  0
LINE
  8
CSLAYER1
  6
CONTINUOUS
 62
     3
 10
754.261233
 20
506.648193
 11
758.761233
 21
476.648193
  0
TEXT
  8
CSLAYER1
 62
     3
 10
364.531799
 20
1909.250366
 40
50.000000
 41
1.020000
  1
ＵＰ・ＤＯＷＮ
 50
0.000000
 51
0.000000
  7
EASYDRAW_FONT
 72
     5
 11
704.531799
 21
1909.250366
  0
TEXT
  8
CSLAYER1
 62
     3
 10
365.276611
 20
1980.751831
 40
50.000000
 41
1.020000
  1
フットスイッチ
 50
0.000000
 51
0.000000
  7
EASYDRAW_FONT
 72
     5
 11
705.276611
 21
1980.751831
  0
LINE
  8
CSLAYER1
  6
CONTINUOUS
 62
     3
 10
1034.761717
 20
1696.995124
 11
761.761233
 21
1696.995124
  0
LINE
  8
CSLAYER1
  6
CONTINUOUS
 62
     3
 10
1035.294354
 20
1689.995124
 11
761.761233
 21
1689.995124
  0
ARC
  8
CSLAYER1
  6
CONTINUOUS
 62
     3
 10
1028.456956
 20
1736.495124
 40
40.000000
 50
-80.931278
 51
243.817766
  0
ARC
  8
CSLAYER1
  6
CONTINUOUS
 62
     3
 10
1028.456956
 20
1736.495124
 40
47.000000
 50
-81.635125
 51
229.860785
  0
LINE
  8
CSLAYER1
  6
CONTINUOUS
 62
     3
 10
1181.761233
 20
1696.995124
 11
1058.448573
 21
1696.995124
  0
LINE
  8
CSLAYER1
  6
CONTINUOUS
 62
     3
 10
1181.761233
 20
1689.995124
 11
1047.741681
 21
1689.995124
  0
LINE
  8
CSLAYER1
  6
CONTINUOUS
 62
     3
 10
1181.761233
 20
1667.995124
 11
1002.864046
 21
1667.995124
  0
LINE
  8
CSLAYER1
  6
CONTINUOUS
 62
     3
 10
1181.761233
 20
1674.995124
 11
992.982255
 21
1674.995124
  0
TEXT
  8
CSLAYER1
 62
     3
 10
286.315094
 20
1583.754272
 40
50.000000
 41
1.028571
  1
電源コード
 50
0.000000
 51
0.000000
  7
EASYDRAW_FONT
 72
     5
 11
526.315094
 21
1583.754272
  0
TEXT
  8
CSLAYER1
 62
     3
 10
303.375641
 20
1513.622437
 40
50.000000
 41
1.036364
  1
長サ４ｍ
 50
0.000000
 51
0.000000
  7
EASYDRAW_FONT
 72
     5
 11
493.375641
 21
1513.622437
  0
LINE
  8
CSLAYER1
  6
CONTINUOUS
 62
     5
 10
545.376754
 20
1572.423614
 11
740.702442
 21
1520.086254
  0
LINE
  8
CSLAYER1
  6
CONTINUOUS
 62
     5
 10
740.702442
 20
1520.086254
 11
710.702442
 21
1520.086254
  0
LINE
  8
CSLAYER1
  6
CONTINUOUS
 62
     5
 10
740.702442
 20
1520.086254
 11
714.721680
 21
1535.086254
  0
LINE
  8
CSLAYER1
  6
CONTINUOUS
 62
     5
 10
348.329987
 20
1970.114075
 11
751.905216
 21
1970.114075
  0
LINE
  8
CSLAYER1
  6
CONTINUOUS
 62
     5
 10
268.698600
 20
1572.423614
 11
545.376754
 21
1572.423614
  0
LINE
  8
CSLAYER1
  6
CONTINUOUS
 62
     3
 10
1181.761233
 20
1566.995124
 11
1181.761233
 21
2066.995124
  0
LINE
  8
CSLAYER1
  6
CONTINUOUS
 62
     3
 10
756.363728
 20
1521.382884
 11
751.293100
 21
1519.473167
  0
LINE
  8
CSLAYER1
  6
CONTINUOUS
 62
     3
 10
751.293100
 20
1519.473167
 11
744.868469
 21
1519.294705
  0
LINE
  8
CSLAYER1
  6
CONTINUOUS
 62
     3
 10
757.418058
 20
1519.993782
 11
751.768999
 21
1517.629060
  0
LINE
  8
CSLAYER1
  6
CONTINUOUS
 62
     3
 10
751.768999
 20
1517.629060
 11
746.415139
 21
1516.320339
  0
LINE
  8
CSLAYER1
  6
CONTINUOUS
 62
     3
 10
758.260253
 20
1518.884173
 11
753.375157
 21
1516.022902
  0
LINE
  8
CSLAYER1
  6
CONTINUOUS
 62
     3
 10
753.375157
 20
1516.022902
 11
751.055151
 21
1512.691612
  0
LINE
  8
CSLAYER1
  6
PHANTOM
 62
     5
 10
2065.592902
 20
573.448193
 11
1195.800612
 21
573.448193
  0
LINE
  8
CSLAYER1
  6
PHANTOM
 62
     5
 10
2066.206563
 20
523.448193
 11
1197.545947
 21
523.448193
  0
LINE
  8
CSLAYER1
  6
CONTINUOUS
 62
     5
 10
2081.561233
 20
561.609374
 11
2081.561233
 21
573.448193
  0
LINE
  8
CSLAYER1
  6
CONTINUOUS
 62
     5
 10
2081.561233
 20
541.165226
 11
2081.561233
 21
555.504524
  0
LINE
  8
CSLAYER1
  6
CONTINUOUS
 62
     5
 10
1195.800612
 20
573.448193
 11
1181.561233
 21
573.448193
  0
LINE
  8
CSLAYER1
  6
CONTINUOUS
 62
     5
 10
1197.545947
 20
523.448193
 11
1181.561233
 21
523.448193
  0
LINE
  8
CSLAYER1
  6
CONTINUOUS
 62
     5
 10
1181.561233
 20
561.736483
 11
1181.561233
 21
573.448193
  0
LINE
  8
CSLAYER1
  6
CONTINUOUS
 62
     5
 10
1181.561233
 20
540.121177
 11
1181.561233
 21
554.620885
  0
DIMENSION
  8
CSLAYER1
 62
     3
  2
*D0000
 10
2181.761233
 20
2066.995124
 11
2171.760986
 21
1816.994995
 13
2081.761233
 23
1566.995124
 14
2081.761233
 24
2066.995124
 50
90.000000
 70
1
  0
DIMENSION
  8
CSLAYER1
 62
     3
  2
*D0001
 10
2181.561233
 20
573.448193
 11
2171.561035
 21
495.948151
 13
2081.561233
 23
418.448193
 14
2081.561233
 24
573.448193
 50
90.000000
 70
1
  0
DIMENSION
  8
CSLAYER1
 62
     3
  2
*D0002
 10
2181.561233
 20
573.448193
 11
2171.561035
 21
883.448120
 13
2181.561233
 23
1193.448193
 14
2181.561233
 24
573.448193
 50
90.000000
 70
1
  0
DIMENSION
  8
CSLAYER1
 62
     3
  2
*D0003
 10
2281.561233
 20
1193.448193
 11
2271.561035
 21
805.948120
 13
2081.561233
 23
418.448193
 14
2081.561233
 24
1193.448193
 50
90.000000
 70
1
  0
LINE
  8
CSLAYER1
  6
CENTER
 62
     5
 10
2104.173916
 20
1816.995124
 11
1152.679238
 21
1816.995124
  0
DIMENSION
  8
CSLAYER1
 62
     3
  2
*D0004
 10
2081.561233
 20
1293.448193
 11
1631.561279
 21
1303.448120
 13
1181.561233
 23
1193.448193
 14
2081.561233
 24
1193.448193
 70
1
  0
DIMENSION
  8
CSLAYER1
 62
     3
  2
*D0005
 10
881.761233
 20
318.448193
 11
631.761230
 21
328.448151
 13
381.761233
 23
418.448193
 14
881.761233
 24
418.448193
 52
270.000000
 70
1
  0
DIMENSION
  8
CSLAYER1
 62
     3
  2
*D0006
 10
2081.761233
 20
318.448193
 11
1631.761353
 21
328.448151
 13
1181.761233
 23
418.448193
 14
2081.761233
 24
418.448193
 52
270.000000
 70
1
  0
ARC
  8
CSLAYER1
  6
CONTINUOUS
 62
     3
 10
971.329105
 20
1627.995124
 40
47.000000
 50
-190.756396
 51
127.198537
  0
ARC
  8
CSLAYER1
  6
CONTINUOUS
 62
     3
 10
971.329105
 20
1627.995124
 40
40.000000
 50
-203.471057
 51
127.198537
  0
LINE
  8
CSLAYER1
  6
CONTINUOUS
 62
     3
 10
755.179975
 20
1522.942505
 11
942.913903
 21
1665.432755
  0
LINE
  8
CSLAYER1
  6
CONTINUOUS
 62
     3
 10
759.412026
 20
1517.366687
 11
947.145954
 21
1659.856938
  0
LINE
  8
CSLAYER1
  6
CONTINUOUS
 62
     3
 10
755.179975
 20
1522.942505
 11
759.412026
 21
1517.366687
  0
TEXT
  8
CSLAYER1
 62
     3
 10
2425.800537
 20
430.857086
 40
50.000000
 41
1.050000
  1
F.L
 50
0.000000
 51
0.000000
  7
EASYDRAW_FONT
 72
     5
 11
2565.800537
 21
430.857086
  0
LINE
  8
CSLAYER1
  6
CONTINUOUS
 62
     5
 10
708.726208
 20
1765.995124
 11
751.698286
 21
1969.135859
  0
LINE
  8
CSLAYER1
  6
CONTINUOUS
 62
     5
 10
708.726208
 20
1765.995124
 11
707.126941
 21
1795.952466
  0
LINE
  8
CSLAYER1
  6
CONTINUOUS
 62
     5
 10
708.726208
 20
1765.995124
 11
722.319873
 21
1792.738576
  0
TEXT
  8
CSLAYER1
 62
     3
 10
954.950195
 20
732.524048
 40
50.000000
 41
1.023529
  1
油圧ユニット
 50
0.000000
 51
0.000000
  7
EASYDRAW_FONT
 72
     5
 11
1244.950195
 21
732.524048
  0
LINE
  8
CSLAYER1
  6
CONTINUOUS
 62
     5
 10
943.564915
 20
724.088439
 11
1251.907906
 21
724.088439
  0
LINE
  8
CSLAYER1
  6
CONTINUOUS
 62
     5
 10
1440.634943
 20
564.248193
 11
1251.907906
 21
724.088439
  0
LINE
  8
CSLAYER1
  6
CONTINUOUS
 62
     5
 10
1440.634943
 20
564.248193
 11
1413.504094
 21
577.051202
  0
LINE
  8
CSLAYER1
  6
CONTINUOUS
 62
     5
 10
1440.634943
 20
564.248193
 11
1423.540443
 21
588.901348
  0
LINE
  8
CSLAYER1
  6
CONTINUOUS
 62
     3
 10
381.761233
 20
1193.448193
 11
381.761233
 21
1143.448193
  0
LINE
  8
CSLAYER1
  6
CONTINUOUS
 62
     3
 10
1202.281374
 20
512.804556
 11
1392.670375
 21
805.848193
  0
LINE
  8
CSLAYER1
  6
CONTINUOUS
 62
     3
 10
1250.977057
 20
468.448193
 11
1431.427271
 21
746.194213
  0
LINE
  8
CSLAYER1
  6
CONTINUOUS
 62
     3
 10
1199.947764
 20
468.448193
 11
1202.281374
 21
512.804556
  0
LINE
  8
CSLAYER1
  6
CONTINUOUS
 62
     3
 10
1660.573168
 20
1098.891831
 11
1662.917301
 21
1143.448193
  0
LINE
  8
CSLAYER1
  6
CENTER
 62
     5
 10
1647.093309
 20
1166.248193
 11
1215.761233
 21
445.448193
  0
ARC
  8
CSLAYER1
  6
CONTINUOUS
 62
     3
 10
1451.209356
 20
901.224653
 40
20.000000
 50
48.728034
 51
153.218365
  0
LINE
  8
CSLAYER1
  6
CONTINUOUS
 62
     3
 10
1419.804951
 20
883.391060
 11
1433.354750
 21
910.236482
  0
LINE
  8
CSLAYER1
  6
CONTINUOUS
 62
     3
 10
1239.039108
 20
478.359294
 11
1220.576729
 21
495.215763
  0
LINE
  8
CSLAYER1
  6
CONTINUOUS
 62
     3
 10
1255.895577
 20
496.821673
 11
1237.433198
 21
513.678142
  0
LINE
  8
CSLAYER1
  6
CONTINUOUS
 62
     3
 10
1239.039108
 20
478.359294
 11
1255.895577
 21
496.821673
  0
LINE
  8
CSLAYER1
  6
CONTINUOUS
 62
     3
 10
1220.576729
 20
495.215763
 11
1237.433198
 21
513.678142
  0
LINE
  8
CSLAYER1
  6
CONTINUOUS
 62
     5
 10
1251.469811
 20
483.936161
 11
1225.729165
 21
507.437813
  0
LINE
  8
CSLAYER1
  6
CONTINUOUS
 62
     3
 10
1202.281374
 20
1098.891831
 11
1611.877485
 21
468.448193
  0
LINE
  8
CSLAYER1
  6
CONTINUOUS
 62
     3
 10
1250.847118
 20
1143.448193
 11
1660.573168
 21
512.804556
  0
LINE
  8
CSLAYER1
  6
CONTINUOUS
 62
     3
 10
1199.937242
 20
1143.448193
 11
1202.281374
 21
1098.891831
  0
LINE
  8
CSLAYER1
  6
CONTINUOUS
 62
     3
 10
1660.573168
 20
512.804556
 11
1662.906779
 21
468.448193
  0
LINE
  8
CSLAYER1
  6
CENTER
 62
     5
 10
1647.093309
 20
445.448193
 11
1215.761233
 21
1166.248193
  0
LINE
  8
CSLAYER1
  6
CONTINUOUS
 62
     3
 10
1672.330724
 20
511.611805
 11
1669.527081
 21
502.340593
  0
ARC
  8
CSLAYER1
  6
CONTINUOUS
 62
     3
 10
1669.459151
 20
512.480178
 40
3.000000
 50
-16.825477
 51
98.232139
  0
LINE
  8
CSLAYER1
  6
CONTINUOUS
 62
     3
 10
1669.029599
 20
515.449266
 11
1659.729108
 21
514.103719
  0
ARC
  8
CSLAYER1
  6
CONTINUOUS
 62
     3
 10
1621.418781
 20
488.352955
 40
20.000000
 50
193.446534
 51
232.576632
  0
ARC
  8
CSLAYER1
  6
CONTINUOUS
 62
     3
 10
1674.064280
 20
472.432796
 40
30.250000
 50
-7.569134
 51
115.051597
  0
LINE
  8
CSLAYER1
  6
CONTINUOUS
 62
     3
 10
1584.917049
 20
498.182683
 11
1590.944683
 21
500.667620
  0
LINE
  8
CSLAYER1
  6
CONTINUOUS
 62
     3
 10
1581.081198
 20
500.927905
 11
1588.727563
 21
504.080176
  0
LINE
  8
CSLAYER1
  6
CONTINUOUS
 62
     3
 10
1515.730145
 20
735.744570
 11
1548.476883
 21
749.244656
  0
LINE
  8
CSLAYER1
  6
CONTINUOUS
 62
     3
 10
1562.843961
 20
663.227754
 11
1583.647274
 21
671.804075
  0
LINE
  8
CSLAYER1
  6
CONTINUOUS
 62
     3
 10
1548.986956
 20
684.556229
 11
1572.732016
 21
694.345307
  0
LINE
  8
CSLAYER1
  6
CONTINUOUS
 62
     3
 10
1574.690501
 20
693.530239
 11
1583.647274
 21
671.804075
  0
LINE
  8
CSLAYER1
  6
CONTINUOUS
 62
     3
 10
1550.435369
 20
748.429588
 11
1572.732016
 21
694.345307
  0
LINE
  8
CSLAYER1
  6
CONTINUOUS
 62
     3
 10
1549.818376
 20
683.276521
 11
1574.690501
 21
693.530239
  0
LINE
  8
CSLAYER1
  6
CONTINUOUS
 62
     3
 10
1574.690501
 20
693.530239
 11
1572.732016
 21
694.345307
  0
LINE
  8
CSLAYER1
  6
CONTINUOUS
 62
     3
 10
1550.435369
 20
748.429588
 11
1548.476883
 21
749.244656
  0
LINE
  8
CSLAYER1
  6
CONTINUOUS
 62
     3
 10
1516.561565
 20
734.464861
 11
1550.435369
 21
748.429588
  0
LINE
  8
CSLAYER1
  6
CONTINUOUS
 62
     3
 10
1564.249072
 20
541.757069
 11
1581.081198
 21
500.927905
  0
LINE
  8
CSLAYER1
  6
CONTINUOUS
 62
     3
 10
1581.335980
 20
670.851227
 11
1622.042904
 21
572.109709
  0
LINE
  8
CSLAYER1
  6
CONTINUOUS
 62
     3
 10
1583.392492
 20
501.880753
 11
1584.917049
 21
498.182683
  0
LINE
  8
CSLAYER1
  6
CONTINUOUS
 62
     3
 10
1587.228343
 20
499.135531
 11
1605.785646
 21
475.878779
  0
LINE
  8
CSLAYER1
  6
CENTER
 62
     5
 10
1451.209357
 20
901.224652
 11
1621.418781
 21
488.352955
  0
LINE
  8
CSLAYER1
  6
CONTINUOUS
 62
     3
 10
1499.174571
 20
850.469748
 11
1542.005260
 21
746.576681
  0
LINE
  8
CSLAYER1
  6
CONTINUOUS
 62
     3
 10
1428.480188
 20
913.487286
 11
1458.692955
 21
925.942723
  0
LINE
  8
CSLAYER1
  6
CONTINUOUS
 62
     3
 10
1466.693087
 20
919.782741
 11
1458.692955
 21
925.942723
  0
LINE
  8
CSLAYER1
  6
CONTINUOUS
 62
     3
 10
1426.190719
 20
896.318758
 11
1428.480188
 21
913.487286
  0
LINE
  8
CSLAYER1
  6
CONTINUOUS
 62
     3
 10
1525.761233
 20
564.248193
 11
1368.761233
 21
564.248193
  0
LINE
  8
CSLAYER1
  6
CONTINUOUS
 62
     3
 10
1536.761233
 20
522.998193
 11
1536.761233
 21
474.298193
  0
LINE
  8
CSLAYER1
  6
CONTINUOUS
 62
     3
 10
1525.761233
 20
564.248193
 11
1525.761233
 21
468.448193
  0
LINE
  8
CSLAYER1
  6
CONTINUOUS
 62
     3
 10
1536.761233
 20
474.298193
 11
1525.761233
 21
474.298193
  0
LINE
  8
CSLAYER1
  6
CONTINUOUS
 62
     3
 10
1536.761233
 20
522.998193
 11
1525.761233
 21
522.998193
  0
LINE
  8
CSLAYER1
  6
CONTINUOUS
 62
     5
 10
1536.761233
 20
558.648193
 11
1521.158611
 21
558.648193
  0
LINE
  8
CSLAYER1
  6
CONTINUOUS
 62
     5
 10
1531.461233
 20
561.148193
 11
1531.461233
 21
556.148193
  0
LINE
  8
CSLAYER1
  6
CONTINUOUS
 62
     5
 10
1526.761233
 20
563.648193
 11
1526.761233
 21
553.648193
  0
LINE
  8
CSLAYER1
  6
CONTINUOUS
 62
     5
 10
1527.761233
 20
563.648193
 11
1527.761233
 21
553.648193
  0
LINE
  8
CSLAYER1
  6
CONTINUOUS
 62
     5
 10
1529.061233
 20
563.648193
 11
1525.761233
 21
563.648193
  0
LINE
  8
CSLAYER1
  6
CONTINUOUS
 62
     5
 10
1529.061233
 20
553.648193
 11
1525.761233
 21
553.648193
  0
LINE
  8
CSLAYER1
  6
CONTINUOUS
 62
     5
 10
1529.061233
 20
563.648193
 11
1529.061233
 21
553.648193
  0
LINE
  8
CSLAYER1
  6
CONTINUOUS
 62
     5
 10
1529.461233
 20
563.148193
 11
1529.061233
 21
563.148193
  0
LINE
  8
CSLAYER1
  6
CONTINUOUS
 62
     5
 10
1529.461233
 20
554.148193
 11
1529.061233
 21
554.148193
  0
ARC
  8
CSLAYER1
  6
CONTINUOUS
 62
     5
 10
1529.461233
 20
561.148193
 40
2.000000
 50
0.000000
 51
90.000000
  0
ARC
  8
CSLAYER1
  6
CONTINUOUS
 62
     5
 10
1529.461233
 20
556.148193
 40
2.000000
 50
270.000000
 51
360.000000
  0
LINE
  8
CSLAYER1
  6
CONTINUOUS
 62
     5
 10
1527.761233
 20
557.522360
 11
1529.061233
 21
559.774026
  0
LINE
  8
CSLAYER1
  6
CONTINUOUS
 62
     5
 10
1515.761233
 20
537.230146
 11
1515.761233
 21
496.798597
  0
LINE
  8
CSLAYER1
  6
CONTINUOUS
 62
     5
 10
1493.761233
 20
558.648193
 11
1493.761233
 21
506.648193
  0
LINE
  8
CSLAYER1
  6
CONTINUOUS
 62
     5
 10
1457.761233
 20
537.230146
 11
1457.761233
 21
535.625906
  0
LINE
  8
CSLAYER1
  6
CONTINUOUS
 62
     5
 10
1502.762063
 20
502.358924
 11
1508.761233
 21
502.358924
  0
LINE
  8
CSLAYER1
  6
CONTINUOUS
 62
     5
 10
1475.761233
 20
538.730146
 11
1511.761233
 21
538.730146
  0
LINE
  8
CSLAYER1
  6
CONTINUOUS
 62
     5
 10
1503.543240
 20
499.011021
 11
1511.761233
 21
499.011021
  0
ARC
  8
CSLAYER1
  6
CONTINUOUS
 62
     5
 10
1493.761233
 20
520.544535
 40
12.500000
 50
-170.165413
 51
140.165413
  0
LINE
  8
CSLAYER1
  6
CONTINUOUS
 62
     5
 10
1511.761233
 20
538.730146
 11
1511.761233
 21
499.011021
  0
LINE
  8
CSLAYER1
  6
CONTINUOUS
 62
     5
 10
1508.761233
 20
538.730146
 11
1508.761233
 21
502.358924
  0
LINE
  8
CSLAYER1
  6
CONTINUOUS
 62
     5
 10
1475.761233
 20
538.730146
 11
1475.761233
 21
530.802820
  0
LINE
  8
CSLAYER1
  6
CONTINUOUS
 62
     5
 10
1461.761233
 20
537.230146
 11
1461.761233
 21
534.554109
  0
ARC
  8
CSLAYER1
  6
CONTINUOUS
 62
     5
 10
1493.761233
 20
520.544535
 40
5.250000
 50
-105.000000
 51
75.000000
  0
LINE
  8
CSLAYER1
  6
CONTINUOUS
 62
     5
 10
1461.761233
 20
537.230146
 11
1475.761233
 21
538.730146
  0
LINE
  8
CSLAYER1
  6
CONTINUOUS
 62
     5
 10
1508.761233
 20
502.358924
 11
1511.761233
 21
499.011021
  0
LINE
  8
CSLAYER1
  6
CONTINUOUS
 62
     5
 10
1459.761233
 20
539.230146
 11
1476.693941
 21
539.230146
  0
ARC
  8
CSLAYER1
  6
CONTINUOUS
 62
     5
 10
1493.761233
 20
525.574511
 40
20.284880
 50
47.545857
 51
84.719619
  0
CIRCLE
  8
CSLAYER1
  6
CONTINUOUS
 62
     5
 10
1493.761233
 20
543.424900
 40
3.000000
  0
ARC
  8
CSLAYER1
  6
CONTINUOUS
 62
     5
 10
1493.761233
 20
502.355987
 40
16.796254
 50
314.594132
 51
324.821469
  0
LINE
  8
CSLAYER1
  6
CONTINUOUS
 62
     5
 10
1487.045930
 20
543.424900
 11
1499.807009
 21
543.424900
  0
ARC
  8
CSLAYER1
  6
CONTINUOUS
 62
     5
 10
1493.761233
 20
525.574511
 40
20.284880
 50
95.280381
 51
132.454143
  0
LINE
  8
CSLAYER1
  6
CONTINUOUS
 62
     5
 10
1510.828525
 20
539.230146
 11
1513.761233
 21
539.230146
  0
ARC
  8
CSLAYER1
  6
CONTINUOUS
 62
     5
 10
1476.693941
 20
544.230146
 40
5.000000
 50
270.000000
 51
312.454143
  0
ARC
  8
CSLAYER1
  6
CONTINUOUS
 62
     5
 10
1510.828525
 20
544.230146
 40
5.000000
 50
227.545857
 51
270.000000
  0
LINE
  8
CSLAYER1
  6
CONTINUOUS
 62
     5
 10
1511.576638
 20
494.798597
 11
1513.761233
 21
494.798597
  0
ARC
  8
CSLAYER1
  6
CONTINUOUS
 62
     5
 10
1511.576638
 20
489.798597
 40
5.000000
 50
90.000000
 51
144.821469
  0
LINE
  8
CSLAYER1
  6
CONTINUOUS
 62
     5
 10
1461.761233
 20
523.683709
 11
1461.761233
 21
506.648193
  0
LINE
  8
CSLAYER1
  6
CONTINUOUS
 62
     5
 10
1457.761233
 20
524.755506
 11
1457.761233
 21
506.648193
  0
LINE
  8
CSLAYER1
  6
CONTINUOUS
 62
     5
 10
1475.761233
 20
519.932420
 11
1475.761233
 21
506.648193
  0
LINE
  8
CSLAYER1
  6
CONTINUOUS
 62
     5
 10
1481.703638
 20
520.544535
 11
1508.761233
 21
520.544535
  0
LINE
  8
CSLAYER1
  6
CONTINUOUS
 62
     3
 10
1230.766369
 20
556.648193
 11
1206.761233
 21
556.648193
  0
LINE
  8
CSLAYER1
  6
CONTINUOUS
 62
     2
 10
1234.014844
 20
561.648193
 11
1213.761233
 21
561.648193
  0
LINE
  8
CSLAYER1
  6
CONTINUOUS
 62
     2
 10
1213.761233
 20
561.648193
 11
1213.761233
 21
556.648193
  0
LINE
  8
CSLAYER1
  6
CONTINUOUS
 62
     2
 10
1230.761233
 20
561.648193
 11
1230.761233
 21
556.648193
  0
LINE
  8
CSLAYER1
  6
CONTINUOUS
 62
     2
 10
1218.761233
 20
561.648193
 11
1218.761233
 21
556.648193
  0
CIRCLE
  8
CSLAYER1
  6
CONTINUOUS
 62
     2
 10
1224.761233
 20
557.648193
 40
0.500000
  0
LINE
  8
CSLAYER1
  6
CONTINUOUS
 62
     5
 10
1517.761233
 20
564.248193
 11
1517.761233
 21
468.448193
  0
LINE
  8
CSLAYER1
  6
CONTINUOUS
 62
     3
 10
1201.431380
 20
496.648193
 11
1193.761233
 21
496.648193
  0
ARC
  8
CSLAYER1
  6
CONTINUOUS
 62
     5
 10
1459.761233
 20
537.230146
 40
2.000000
 50
90.000000
 51
180.000000
  0
ARC
  8
CSLAYER1
  6
CONTINUOUS
 62
     5
 10
1513.761233
 20
496.798597
 40
2.000000
 50
270.000000
 51
360.000000
  0
ARC
  8
CSLAYER1
  6
CONTINUOUS
 62
     5
 10
1513.761233
 20
537.230146
 40
2.000000
 50
0.000000
 51
90.000000
  0
LINE
  8
CSLAYER1
  6
CONTINUOUS
 62
     5
 10
1531.461233
 20
501.148193
 11
1531.461233
 21
496.148193
  0
LINE
  8
CSLAYER1
  6
CONTINUOUS
 62
     5
 10
1526.761233
 20
503.648193
 11
1526.761233
 21
493.648193
  0
LINE
  8
CSLAYER1
  6
CONTINUOUS
 62
     5
 10
1527.761233
 20
503.648193
 11
1527.761233
 21
493.648193
  0
LINE
  8
CSLAYER1
  6
CONTINUOUS
 62
     5
 10
1529.061233
 20
503.648193
 11
1525.761233
 21
503.648193
  0
LINE
  8
CSLAYER1
  6
CONTINUOUS
 62
     5
 10
1529.061233
 20
493.648193
 11
1525.761233
 21
493.648193
  0
LINE
  8
CSLAYER1
  6
CONTINUOUS
 62
     5
 10
1529.061233
 20
503.648193
 11
1529.061233
 21
493.648193
  0
LINE
  8
CSLAYER1
  6
CONTINUOUS
 62
     5
 10
1529.461233
 20
503.148193
 11
1529.061233
 21
503.148193
  0
LINE
  8
CSLAYER1
  6
CONTINUOUS
 62
     5
 10
1529.461233
 20
494.148193
 11
1529.061233
 21
494.148193
  0
ARC
  8
CSLAYER1
  6
CONTINUOUS
 62
     5
 10
1529.461233
 20
501.148193
 40
2.000000
 50
0.000000
 51
90.000000
  0
ARC
  8
CSLAYER1
  6
CONTINUOUS
 62
     5
 10
1529.461233
 20
496.148193
 40
2.000000
 50
270.000000
 51
360.000000
  0
LINE
  8
CSLAYER1
  6
CONTINUOUS
 62
     5
 10
1527.761233
 20
497.522360
 11
1529.061233
 21
499.774026
  0
LINE
  8
CSLAYER1
  6
CONTINUOUS
 62
     5
 10
1224.761233
 20
564.248193
 11
1224.761233
 21
553.860722
  0
LINE
  8
CSLAYER1
  6
CENTER
 62
     5
 10
1544.234186
 20
498.648193
 11
1181.761233
 21
498.648193
  0
LINE
  8
CSLAYER1
  6
CONTINUOUS
 62
     3
 10
1193.761233
 20
496.648193
 11
1194.882989
 21
468.448193
  0
LINE
  8
CSLAYER1
  6
CONTINUOUS
 62
     3
 10
1189.761233
 20
496.648193
 11
1190.905154
 21
468.448193
  0
ARC
  8
CSLAYER1
  6
CONTINUOUS
 62
     3
 10
1206.761233
 20
541.648193
 40
15.000000
 50
90.000000
 51
180.000000
  0
LINE
  8
CSLAYER1
  6
CONTINUOUS
 62
     3
 10
1189.761233
 20
496.648193
 11
1191.775811
 21
542.309353
  0
LINE
  8
CSLAYER1
  6
CONTINUOUS
 62
     5
 10
1428.287966
 20
543.523244
 11
1495.120033
 21
525.615645
  0
LINE
  8
CSLAYER1
  6
CONTINUOUS
 62
     5
 10
1420.499318
 20
540.175006
 11
1493.761233
 21
520.544535
  0
LINE
  8
CSLAYER1
  6
CONTINUOUS
 62
     5
 10
1422.596633
 20
534.177832
 11
1492.402433
 21
515.473424
  0
LINE
  8
CSLAYER1
  6
CONTINUOUS
 62
     3
 10
1181.561233
 20
1193.448193
 11
2081.561233
 21
1193.448193
  0
LINE
  8
CSLAYER1
  6
CONTINUOUS
 62
     3
 10
1181.561233
 20
1143.448193
 11
2081.561233
 21
1143.448193
  0
LINE
  8
CSLAYER1
  6
CONTINUOUS
 62
     3
 10
1181.561233
 20
1193.448193
 11
1181.561233
 21
1143.448193
  0
LINE
  8
CSLAYER1
  6
CONTINUOUS
 62
     3
 10
2081.561233
 20
1193.448193
 11
2081.561233
 21
1143.448193
  0
LINE
  8
CSLAYER1
  6
CONTINUOUS
 62
     5
 10
1196.347996
 20
1166.248193
 11
1236.226837
 21
1166.248193
  0
LINE
  8
CSLAYER1
  6
CONTINUOUS
 62
     5
 10
1215.761233
 20
1184.161545
 11
1215.761233
 21
1148.830292
  0
LINE
  8
CSLAYER1
  6
CONTINUOUS
 62
     5
 10
1629.997961
 20
1166.248193
 11
1667.290108
 21
1166.248193
  0
LINE
  8
CSLAYER1
  6
CONTINUOUS
 62
     5
 10
1647.093309
 20
1183.839525
 11
1647.093309
 21
1150.906200
  0
LINE
  8
CSLAYER1
  6
CONTINUOUS
 62
     3
 10
1431.427271
 20
865.502174
 11
1612.007424
 21
1143.448193
  0
LINE
  8
CSLAYER1
  6
CONTINUOUS
 62
     3
 10
1470.184167
 20
805.848193
 11
1660.573168
 21
1098.891831
  0
LINE
  8
CSLAYER1
  6
CONTINUOUS
 62
     5
 10
1418.362617
 20
901.224657
 11
1478.490836
 21
901.224657
  0
CIRCLE
  8
CSLAYER1
  6
CONTINUOUS
 62
     3
 10
1431.427271
 20
805.848193
 40
15.000000
  0
LINE
  8
CSLAYER1
  6
CONTINUOUS
 62
     5
 10
1392.670375
 20
805.848193
 11
1473.939754
 21
805.848193
  0
LINE
  8
CSLAYER1
  6
CONTINUOUS
 62
     5
 10
1431.427271
 20
848.110326
 11
1431.427271
 21
765.690298
  0
LINE
  8
CSLAYER1
  6
CONTINUOUS
 62
     5
 10
1404.821129
 20
801.375165
 11
1432.630491
 21
801.375165
  0
LINE
  8
CSLAYER1
  6
CONTINUOUS
 62
     5
 10
1419.427604
 20
825.900865
 11
1419.427604
 21
785.795522
  0
ARC
  8
CSLAYER1
  6
CONTINUOUS
 62
     3
 10
1451.209356
 20
901.224653
 40
12.500000
 50
43.698696
 51
250.278138
  0
LINE
  8
CSLAYER1
  6
CONTINUOUS
 62
     5
 10
1674.064280
 20
507.331900
 11
1674.064280
 21
451.947363
  0
LINE
  8
CSLAYER1
  6
CONTINUOUS
 62
     5
 10
1605.702387
 20
488.352955
 11
1638.260022
 21
488.352955
  0
LINE
  8
CSLAYER1
  6
CONTINUOUS
 62
     5
 10
1621.418781
 20
508.584964
 11
1621.418781
 21
470.073933
  0
LINE
  8
CSLAYER1
  6
CONTINUOUS
 62
     5
 10
1647.093309
 20
464.695764
 11
1647.093309
 21
427.043510
  0
LINE
  8
CSLAYER1
  6
CONTINUOUS
 62
     5
 10
1669.594855
 20
445.448193
 11
1622.751894
 21
445.448193
  0
LINE
  8
CSLAYER1
  6
CONTINUOUS
 62
     5
 10
1650.324017
 20
472.432796
 11
1710.787094
 21
472.432796
  0
LINE
  8
CSLAYER1
  6
CONTINUOUS
 62
     3
 10
823.761233
 20
513.678142
 11
852.761233
 21
513.678142
  0
LINE
  8
CSLAYER1
  6
CONTINUOUS
 62
     3
 10
823.761233
 20
495.215763
 11
852.761233
 21
495.215763
  0
LINE
  8
CSLAYER1
  6
CONTINUOUS
 62
     3
 10
823.761233
 20
478.359294
 11
852.761233
 21
478.359294
  0
LINE
  8
CSLAYER1
  6
CONTINUOUS
 62
     3
 10
852.761233
 20
513.678142
 11
852.761233
 21
478.359294
  0
LINE
  8
CSLAYER1
  6
CONTINUOUS
 62
     3
 10
830.761233
 20
478.359294
 11
830.761233
 21
468.448193
  0
LINE
  8
CSLAYER1
  6
CONTINUOUS
 62
     3
 10
842.761233
 20
478.359294
 11
842.761233
 21
468.448193
  0
INSERT
  8
CSLAYER1
  2
BLKF0002
 10
0.0
 20
0.0
 30
0.0
  0
LINE
  8
CSLAYER1
  6
CONTINUOUS
 62
     5
 10
840.761233
 20
510.609361
 11
840.761233
 21
498.124457
  0
LINE
  8
CSLAYER1
  6
CONTINUOUS
 62
     5
 10
832.742795
 20
504.446953
 11
849.186327
 21
504.446953
  0
LINE
  8
CSLAYER1
  6
CONTINUOUS
 62
     3
 10
439.761233
 20
513.678142
 11
410.761233
 21
513.678142
  0
LINE
  8
CSLAYER1
  6
CONTINUOUS
 62
     3
 10
439.761233
 20
495.215763
 11
410.761233
 21
495.215763
  0
LINE
  8
CSLAYER1
  6
CONTINUOUS
 62
     3
 10
439.761233
 20
478.359294
 11
410.761233
 21
478.359294
  0
LINE
  8
CSLAYER1
  6
CONTINUOUS
 62
     3
 10
410.761233
 20
513.678142
 11
410.761233
 21
478.359294
  0
INSERT
  8
CSLAYER1
  2
BLKF0003
 10
0.0
 20
0.0
 30
0.0
  0
LINE
  8
CSLAYER1
  6
CONTINUOUS
 62
     5
 10
422.761233
 20
510.609361
 11
422.761233
 21
498.124457
  0
LINE
  8
CSLAYER1
  6
CONTINUOUS
 62
     5
 10
430.779672
 20
504.446953
 11
414.336140
 21
504.446953
  0
LINE
  8
CSLAYER1
  6
CONTINUOUS
 62
     3
 10
420.761233
 20
478.359294
 11
420.761233
 21
468.448193
  0
LINE
  8
CSLAYER1
  6
CONTINUOUS
 62
     3
 10
432.761233
 20
478.359294
 11
432.761233
 21
468.448193
  0
ARC
  8
CSLAYER1
  6
CONTINUOUS
 62
     3
 10
660.261233
 20
555.648193
 40
7.500000
 50
60.034358
 51
88.397139
  0
ARC
  8
CSLAYER1
  6
CONTINUOUS
 62
     3
 10
553.261233
 20
555.648193
 40
7.500000
 50
91.602861
 51
119.965642
  0
LINE
  8
CSLAYER1
  6
CONTINUOUS
 62
     3
 10
553.261233
 20
564.648193
 11
662.261233
 21
564.648193
  0
LINE
  8
CSLAYER1
  6
CONTINUOUS
 62
     3
 10
515.261233
 20
560.648193
 11
606.761233
 21
564.648193
  0
LINE
  8
CSLAYER1
  6
CONTINUOUS
 62
     3
 10
606.761233
 20
564.648193
 11
698.261233
 21
560.648193
  0
LINE
  8
CSLAYER1
  6
CONTINUOUS
 62
     3
 10
509.261233
 20
496.648193
 11
529.832244
 21
496.648193
  0
LINE
  8
CSLAYER1
  6
CONTINUOUS
 62
     3
 10
698.261233
 20
560.648193
 11
704.261233
 21
496.648193
  0
LINE
  8
CSLAYER1
  6
CONTINUOUS
 62
     3
 10
515.261233
 20
560.648193
 11
509.261233
 21
496.648193
  0
LINE
  8
CSLAYER1
  6
CONTINUOUS
 62
     3
 10
677.526464
 20
496.648193
 11
704.261233
 21
496.648193
  0
LINE
  8
CSLAYER1
  6
CONTINUOUS
 62
     2
 10
511.451858
 20
541.348193
 11
513.451858
 21
541.348193
  0
LINE
  8
CSLAYER1
  6
CONTINUOUS
 62
     2
 10
511.451858
 20
559.948193
 11
513.451858
 21
559.948193
  0
LINE
  8
CSLAYER1
  6
CONTINUOUS
 62
     2
 10
513.451858
 20
559.948193
 11
513.451858
 21
541.348193
  0
LINE
  8
CSLAYER1
  6
CONTINUOUS
 62
     2
 10
511.451858
 20
559.948193
 11
511.451858
 21
541.348193
  0
LINE
  8
CSLAYER1
  6
CONTINUOUS
 62
     2
 10
507.951858
 20
556.248193
 11
507.951858
 21
545.048193
  0
LINE
  8
CSLAYER1
  6
CONTINUOUS
 62
     2
 10
507.951858
 20
545.048193
 11
511.451858
 21
545.048193
  0
LINE
  8
CSLAYER1
  6
CONTINUOUS
 62
     2
 10
507.951858
 20
556.248193
 11
511.451858
 21
556.248193
  0
LINE
  8
CSLAYER1
  6
CONTINUOUS
 62
     2
 10
507.951858
 20
553.648193
 11
511.451858
 21
553.648193
  0
LINE
  8
CSLAYER1
  6
CONTINUOUS
 62
     2
 10
507.951858
 20
547.648193
 11
511.451858
 21
547.648193
  0
LINE
  8
CSLAYER1
  6
CONTINUOUS
 62
     2
 10
513.451858
 20
555.398193
 11
514.769046
 21
555.398193
  0
LINE
  8
CSLAYER1
  6
CONTINUOUS
 62
     2
 10
513.451858
 20
554.398193
 11
514.675296
 21
554.398193
  0
LINE
  8
CSLAYER1
  6
CONTINUOUS
 62
     5
 10
504.361903
 20
550.648193
 11
516.510602
 21
550.648193
  0
LINE
  8
CSLAYER1
  6
CONTINUOUS
 62
     3
 10
509.261233
 20
496.648193
 11
511.904983
 21
468.448193
  0
LINE
  8
CSLAYER1
  6
CONTINUOUS
 62
     3
 10
704.261233
 20
496.648193
 11
701.617483
 21
468.448193
  0
LINE
  8
CSLAYER1
  6
CONTINUOUS
 62
     3
 10
662.261233
 20
564.648193
 11
662.261233
 21
562.876609
  0
LINE
  8
CSLAYER1
  6
CONTINUOUS
 62
     3
 10
553.261233
 20
564.648193
 11
553.261233
 21
563.151129
  0
LINE
  8
CSLAYER1
  6
CONTINUOUS
 62
     5
 10
556.261233
 20
564.248193
 11
556.261233
 21
545.001221
  0
LINE
  8
CSLAYER1
  6
CONTINUOUS
 62
     2
 10
567.261233
 20
561.648193
 11
545.261233
 21
561.648193
  0
LINE
  8
CSLAYER1
  6
CONTINUOUS
 62
     2
 10
549.748513
 20
554.148193
 11
540.761233
 21
554.148193
  0
LINE
  8
CSLAYER1
  6
CONTINUOUS
 62
     2
 10
545.261233
 20
561.648193
 11
545.261233
 21
556.648193
  0
LINE
  8
CSLAYER1
  6
CONTINUOUS
 62
     2
 10
567.261233
 20
561.648193
 11
567.261233
 21
556.648193
  0
LINE
  8
CSLAYER1
  6
CONTINUOUS
 62
     2
 10
562.261233
 20
561.648193
 11
562.261233
 21
556.648193
  0
LINE
  8
CSLAYER1
  6
CONTINUOUS
 62
     2
 10
550.261233
 20
561.648193
 11
550.261233
 21
556.648193
  0
LINE
  8
CSLAYER1
  6
CONTINUOUS
 62
     2
 10
540.761233
 20
556.648193
 11
540.761233
 21
554.148193
  0
LINE
  8
CSLAYER1
  6
CONTINUOUS
 62
     2
 10
571.761233
 20
556.648193
 11
571.761233
 21
555.110498
  0
LINE
  8
CSLAYER1
  6
CONTINUOUS
 62
     2
 10
571.761233
 20
556.648193
 11
540.761233
 21
556.648193
  0
LINE
  8
CSLAYER1
  6
CONTINUOUS
 62
     3
 10
527.566703
 20
553.178497
 11
606.761233
 21
556.640553
  0
LINE
  8
CSLAYER1
  6
CONTINUOUS
 62
     3
 10
606.761233
 20
556.640553
 11
685.955764
 21
553.178497
  0
ARC
  8
CSLAYER1
  6
CONTINUOUS
 62
     3
 10
528.221815
 20
538.192809
 40
15.000000
 50
92.503140
 51
174.644175
  0
ARC
  8
CSLAYER1
  6
CONTINUOUS
 62
     3
 10
685.300652
 20
538.192809
 40
15.000000
 50
5.355825
 51
87.496860
  0
LINE
  8
CSLAYER1
  6
CONTINUOUS
 62
     3
 10
606.761233
 20
564.648193
 11
660.471020
 21
563.145259
  0
LINE
  8
CSLAYER1
  6
CONTINUOUS
 62
     3
 10
606.761233
 20
564.648193
 11
553.051447
 21
563.145259
  0
LINE
  8
CSLAYER1
  6
CONTINUOUS
 62
     1
 10
704.261233
 20
506.848193
 11
704.261233
 21
533.448193
  0
LINE
  8
CSLAYER1
  6
CONTINUOUS
 62
     1
 10
708.261233
 20
514.374691
 11
708.261233
 21
525.921696
  0
LINE
  8
CSLAYER1
  6
CONTINUOUS
 62
     1
 10
710.261233
 20
517.148193
 11
710.261233
 21
523.148193
  0
LINE
  8
CSLAYER1
  6
CONTINUOUS
 62
     1
 10
704.261233
 20
533.448193
 11
700.811233
 21
533.448193
  0
LINE
  8
CSLAYER1
  6
CONTINUOUS
 62
     1
 10
704.261233
 20
514.413213
 11
702.595763
 21
514.413213
  0
LINE
  8
CSLAYER1
  6
CONTINUOUS
 62
     1
 10
704.261233
 20
512.623379
 11
702.763560
 21
512.623379
  0
LINE
  8
CSLAYER1
  6
CONTINUOUS
 62
     1
 10
704.261233
 20
506.848193
 11
703.304983
 21
506.848193
  0
LINE
  8
CSLAYER1
  6
CONTINUOUS
 62
     1
 10
708.261233
 20
525.921696
 11
704.261233
 21
525.921696
  0
LINE
  8
CSLAYER1
  6
CONTINUOUS
 62
     1
 10
708.261233
 20
523.034945
 11
704.261233
 21
523.034945
  0
LINE
  8
CSLAYER1
  6
CONTINUOUS
 62
     7
 10
708.261233
 20
517.261442
 11
704.261233
 21
517.261442
  0
LINE
  8
CSLAYER1
  6
CONTINUOUS
 62
     1
 10
708.261233
 20
514.374691
 11
704.261233
 21
514.374691
  0
LINE
  8
CSLAYER1
  6
CONTINUOUS
 62
     1
 10
708.261233
 20
523.148193
 11
710.261233
 21
523.148193
  0
LINE
  8
CSLAYER1
  6
CONTINUOUS
 62
     7
 10
708.261233
 20
517.148193
 11
710.261233
 21
517.148193
  0
LINE
  8
CSLAYER1
  6
CONTINUOUS
 62
     1
 10
735.761233
 20
470.898193
 11
735.761233
 21
474.398193
  0
LINE
  8
CSLAYER1
  6
CONTINUOUS
 62
     1
 10
732.361233
 20
468.448193
 11
732.361233
 21
485.148193
  0
LINE
  8
CSLAYER1
  6
CONTINUOUS
 62
     1
 10
731.961233
 20
468.448193
 11
731.961233
 21
489.148193
  0
LINE
  8
CSLAYER1
  6
CONTINUOUS
 62
     1
 10
731.961233
 20
485.148193
 11
732.361233
 21
485.148193
  0
LINE
  8
CSLAYER1
  6
CONTINUOUS
 62
     1
 10
732.361233
 20
477.398193
 11
732.761233
 21
477.398193
  0
ARC
  8
CSLAYER1
  6
CONTINUOUS
 62
     1
 10
732.761233
 20
474.398193
 40
3.000000
 50
0.000000
 51
90.000000
  0
ARC
  8
CSLAYER1
  6
CONTINUOUS
 62
     1
 10
732.761233
 20
470.898193
 40
3.000000
 50
305.247507
 51
360.000000
  0
LINE
  8
CSLAYER1
  6
CONTINUOUS
 62
     1
 10
731.961233
 20
483.148193
 11
703.024045
 21
483.451518
  0
LINE
  8
CSLAYER1
  6
CONTINUOUS
 62
     1
 10
703.641598
 20
490.038748
 11
731.961233
 21
489.148193
  0
LINE
  8
CSLAYER1
  6
CONTINUOUS
 62
     5
 10
713.267200
 20
520.148193
 11
695.036542
 21
520.148193
  0
LINE
  8
CSLAYER1
  6
CONTINUOUS
 62
     1
 10
501.761233
 20
468.448193
 11
501.761233
 21
479.463148
  0
LINE
  8
CSLAYER1
  6
CONTINUOUS
 62
     1
 10
511.332407
 20
474.555671
 11
501.761233
 21
474.555671
  0
LINE
  8
CSLAYER1
  6
CONTINUOUS
 62
     1
 10
510.872331
 20
479.463148
 11
501.761233
 21
479.463148
  0
LINE
  8
CSLAYER1
  6
CONTINUOUS
 62
     5
 10
495.076278
 20
469.648193
 11
520.261233
 21
469.648193
  0
LINE
  8
CSLAYER1
  6
CONTINUOUS
 62
     5
 10
692.243468
 20
472.648193
 11
740.289918
 21
472.648193
  0
LINE
  8
CSLAYER1
  6
CONTINUOUS
 62
     1
 10
704.261233
 20
525.883174
 11
701.520454
 21
525.883174
  0
LINE
  8
CSLAYER1
  6
CONTINUOUS
 62
     1
 10
704.261233
 20
527.673008
 11
701.352657
 21
527.673008
  0
LINE
  8
CSLAYER1
  6
CENTER
 62
     5
 10
606.761233
 20
582.052905
 11
606.761233
 21
418.448193
  0
LINE
  8
CSLAYER1
  6
CENTER
 62
     5
 10
723.136496
 20
498.648193
 11
490.190076
 21
498.648193
  0
LINE
  8
CSLAYER1
  6
CONTINUOUS
 62
     5
 10
1215.761233
 20
459.825399
 11
1215.761233
 21
430.133868
  0
LINE
  8
CSLAYER1
  6
CONTINUOUS
 62
     5
 10
1235.841356
 20
445.448193
 11
1197.447134
 21
445.448193
  0
LINE
  8
CSLAYER1
  6
CONTINUOUS
 62
     3
 10
451.761233
 20
502.682796
 11
509.826977
 21
502.682796
  0
LINE
  8
CSLAYER1
  6
CENTER
 62
     5
 10
432.761233
 20
472.432796
 11
830.761233
 21
472.432796
  0
LINE
  8
CSLAYER1
  6
CONTINUOUS
 62
     3
 10
754.856043
 20
502.682796
 11
811.761233
 21
502.682796
  0
CIRCLE
  8
CSLAYER1
  6
CONTINUOUS
 62
     3
 10
1431.427271
 20
805.848193
 40
8.000000
  0
LINE
  8
CSLAYER1
  6
CONTINUOUS
 62
     3
 10
1328.761233
 20
564.648193
 11
1328.761233
 21
468.448193
  0
LINE
  8
CSLAYER1
  6
CONTINUOUS
 62
     3
 10
1368.761233
 20
564.648193
 11
1368.761233
 21
482.648193
  0
LINE
  8
CSLAYER1
  6
CONTINUOUS
 62
     3
 10
1368.761233
 20
564.648193
 11
1313.477721
 21
564.648193
  0
LINE
  8
CSLAYER1
  6
CONTINUOUS
 62
     3
 10
1293.761233
 20
534.300897
 11
1293.761233
 21
508.648193
  0
LINE
  8
CSLAYER1
  6
CONTINUOUS
 62
     3
 10
1319.761233
 20
564.648193
 11
1319.761233
 21
515.371883
  0
LINE
  8
CSLAYER1
  6
CONTINUOUS
 62
     3
 10
1319.761233
 20
478.836949
 11
1319.761233
 21
468.448193
  0
LINE
  8
CSLAYER1
  6
CONTINUOUS
 62
     3
 10
1319.761233
 20
528.648193
 11
1293.761233
 21
528.648193
  0
LINE
  8
CSLAYER1
  6
CONTINUOUS
 62
     5
 10
1316.661233
 20
552.648193
 11
1312.661233
 21
552.648193
  0
LINE
  8
CSLAYER1
  6
CONTINUOUS
 62
     5
 10
1318.161233
 20
549.898193
 11
1312.661233
 21
549.898193
  0
LINE
  8
CSLAYER1
  6
CONTINUOUS
 62
     5
 10
1316.661233
 20
558.648193
 11
1312.661233
 21
558.648193
  0
LINE
  8
CSLAYER1
  6
CONTINUOUS
 62
     5
 10
1318.161233
 20
561.398193
 11
1312.661233
 21
561.398193
  0
LINE
  8
CSLAYER1
  6
CONTINUOUS
 62
     5
 10
1318.161233
 20
561.898193
 11
1318.161233
 21
549.398193
  0
LINE
  8
CSLAYER1
  6
CONTINUOUS
 62
     5
 10
1316.661233
 20
561.398193
 11
1316.661233
 21
549.898193
  0
LINE
  8
CSLAYER1
  6
CONTINUOUS
 62
     5
 10
1312.661233
 20
561.398193
 11
1312.661233
 21
549.898193
  0
LINE
  8
CSLAYER1
  6
CONTINUOUS
 62
     5
 10
1319.761233
 20
561.898193
 11
1318.161233
 21
561.898193
  0
LINE
  8
CSLAYER1
  6
CONTINUOUS
 62
     5
 10
1319.761233
 20
549.398193
 11
1318.161233
 21
549.398193
  0
LINE
  8
CSLAYER1
  6
CONTINUOUS
 62
     5
 10
1333.157100
 20
555.648193
 11
1309.553743
 21
555.648193
  0
LINE
  8
CSLAYER1
  6
CONTINUOUS
 62
     3
 10
1293.761233
 20
488.648193
 11
1293.761233
 21
468.448193
  0
LINE
  8
CSLAYER1
  6
CONTINUOUS
 62
     5
 10
1371.261233
 20
472.648193
 11
1328.761233
 21
472.648193
  0
LINE
  8
CSLAYER1
  6
CONTINUOUS
 62
     5
 10
1368.761233
 20
520.148193
 11
1328.761233
 21
520.148193
  0
CIRCLE
  8
CSLAYER1
  6
CONTINUOUS
 62
     1
 10
1350.261233
 20
551.148193
 40
3.500000
  0
ARC
  8
CSLAYER1
  6
CONTINUOUS
 62
     1
 10
1350.261233
 20
551.148193
 40
10.000000
 50
-69.512685
 51
249.512685
  0
CIRCLE
  8
CSLAYER1
  6
CONTINUOUS
 62
     1
 10
1350.261233
 20
520.148193
 40
17.000000
  0
CIRCLE
  8
CSLAYER1
  6
CONTINUOUS
 62
     1
 10
1350.261233
 20
520.148193
 40
12.000000
  0
ARC
  8
CSLAYER1
  6
CONTINUOUS
 62
     1
 10
1350.261233
 20
520.148193
 40
13.300000
 50
0.000000
 51
4.456163
  0
LINE
  8
CSLAYER1
  6
CONTINUOUS
 62
     1
 10
1346.761233
 20
541.780696
 11
1346.761233
 21
536.783998
  0
LINE
  8
CSLAYER1
  6
CONTINUOUS
 62
     1
 10
1353.761233
 20
541.780696
 11
1353.761233
 21
536.783998
  0
LINE
  8
CSLAYER1
  6
CONTINUOUS
 62
     5
 10
1363.896801
 20
551.148193
 11
1337.957400
 21
551.148193
  0
LINE
  8
CSLAYER1
  6
CONTINUOUS
 62
     1
 10
1368.761233
 20
548.148193
 11
1359.800625
 21
548.148193
  0
LINE
  8
CSLAYER1
  6
CONTINUOUS
 62
     1
 10
1340.721841
 20
548.148193
 11
1328.761233
 21
548.148193
  0
CIRCLE
  8
CSLAYER1
  6
CONTINUOUS
 62
     1
 10
1350.261233
 20
520.148193
 40
5.000000
  0
LINE
  8
CSLAYER1
  6
CONTINUOUS
 62
     1
 10
1355.996214
 20
532.148193
 11
1344.526253
 21
532.148193
  0
LINE
  8
CSLAYER1
  6
CONTINUOUS
 62
     1
 10
1355.996214
 20
508.148193
 11
1344.526253
 21
508.148193
  0
LINE
  8
CSLAYER1
  6
CONTINUOUS
 62
     1
 10
1363.521028
 20
521.181555
 11
1357.786048
 21
531.114832
  0
LINE
  8
CSLAYER1
  6
CONTINUOUS
 62
     1
 10
1342.736419
 20
509.181555
 11
1337.001438
 21
519.114832
  0
LINE
  8
CSLAYER1
  6
CONTINUOUS
 62
     1
 10
1337.001438
 20
521.181555
 11
1342.736419
 21
531.114832
  0
LINE
  8
CSLAYER1
  6
CONTINUOUS
 62
     1
 10
1357.786048
 20
509.181555
 11
1363.521028
 21
519.114832
  0
LINE
  8
CSLAYER1
  6
CONTINUOUS
 62
     1
 10
1344.487731
 20
520.148193
 11
1347.374482
 21
525.148193
  0
LINE
  8
CSLAYER1
  6
CONTINUOUS
 62
     1
 10
1353.147985
 20
515.148193
 11
1356.034736
 21
520.148193
  0
LINE
  8
CSLAYER1
  6
CONTINUOUS
 62
     1
 10
1347.374482
 20
515.148193
 11
1344.487731
 21
520.148193
  0
LINE
  8
CSLAYER1
  6
CONTINUOUS
 62
     1
 10
1356.034736
 20
520.148193
 11
1353.147985
 21
525.148193
  0
LINE
  8
CSLAYER1
  6
CONTINUOUS
 62
     1
 10
1353.147985
 20
525.148193
 11
1347.374482
 21
525.148193
  0
LINE
  8
CSLAYER1
  6
CONTINUOUS
 62
     1
 10
1353.147985
 20
515.148193
 11
1347.374482
 21
515.148193
  0
CIRCLE
  8
CSLAYER1
  6
CONTINUOUS
 62
     1
 10
1350.261233
 20
520.148193
 40
3.000000
  0
LINE
  8
CSLAYER1
  6
CONTINUOUS
 62
     1
 10
1351.127259
 20
521.648193
 11
1349.395208
 21
521.648193
  0
LINE
  8
CSLAYER1
  6
CONTINUOUS
 62
     1
 10
1351.127259
 20
518.648193
 11
1349.395208
 21
518.648193
  0
LINE
  8
CSLAYER1
  6
CONTINUOUS
 62
     1
 10
1348.529182
 20
520.148193
 11
1349.395208
 21
521.648193
  0
LINE
  8
CSLAYER1
  6
CONTINUOUS
 62
     1
 10
1351.127259
 20
518.648193
 11
1351.993284
 21
520.148193
  0
LINE
  8
CSLAYER1
  6
CONTINUOUS
 62
     1
 10
1348.529182
 20
520.148193
 11
1349.395208
 21
518.648193
  0
LINE
  8
CSLAYER1
  6
CONTINUOUS
 62
     1
 10
1351.127259
 20
521.648193
 11
1351.993284
 21
520.148193
  0
ARC
  8
CSLAYER1
  6
CONTINUOUS
 62
     1
 10
1350.261233
 20
520.148193
 40
13.300000
 50
115.543837
 51
124.456163
  0
ARC
  8
CSLAYER1
  6
CONTINUOUS
 62
     1
 10
1350.261233
 20
520.148193
 40
13.300000
 50
55.543837
 51
64.456163
  0
ARC
  8
CSLAYER1
  6
CONTINUOUS
 62
     1
 10
1350.261233
 20
520.148193
 40
13.300000
 50
175.543837
 51
184.456163
  0
ARC
  8
CSLAYER1
  6
CONTINUOUS
 62
     7
 10
1350.261233
 20
520.148193
 40
13.300000
 50
355.543837
 51
360.000000
  0
ARC
  8
CSLAYER1
  6
CONTINUOUS
 62
     1
 10
1350.261233
 20
520.148193
 40
13.300000
 50
295.543837
 51
304.456163
  0
ARC
  8
CSLAYER1
  6
CONTINUOUS
 62
     1
 10
1350.261233
 20
520.148193
 40
13.300000
 50
235.543837
 51
244.456163
  0
LINE
  8
CSLAYER1
  6
CONTINUOUS
 62
     1
 10
1355.761233
 20
504.062485
 11
1355.761233
 21
490.648193
  0
LINE
  8
CSLAYER1
  6
CONTINUOUS
 62
     1
 10
1332.261233
 20
483.648193
 11
1332.261233
 21
468.448193
  0
LINE
  8
CSLAYER1
  6
CONTINUOUS
 62
     1
 10
1368.261233
 20
483.648193
 11
1368.261233
 21
468.448193
  0
LINE
  8
CSLAYER1
  6
CONTINUOUS
 62
     1
 10
1361.261233
 20
490.648193
 11
1339.261233
 21
490.648193
  0
ARC
  8
CSLAYER1
  6
CONTINUOUS
 62
     1
 10
1350.261233
 20
472.648193
 40
12.500000
 50
-19.633359
 51
199.633359
  0
ARC
  8
CSLAYER1
  6
CONTINUOUS
 62
     1
 10
1350.261233
 20
472.648193
 40
4.750000
 50
-62.154524
 51
242.154524
  0
LINE
  8
CSLAYER1
  6
CONTINUOUS
 62
     1
 10
1333.761233
 20
483.148193
 11
1333.761233
 21
468.448193
  0
LINE
  8
CSLAYER1
  6
CONTINUOUS
 62
     1
 10
1366.761233
 20
483.148193
 11
1366.761233
 21
468.448193
  0
LINE
  8
CSLAYER1
  6
CONTINUOUS
 62
     1
 10
1360.761233
 20
489.148193
 11
1339.761233
 21
489.148193
  0
LINE
  8
CSLAYER1
  6
CONTINUOUS
 62
     1
 10
1351.127259
 20
474.148193
 11
1349.395208
 21
474.148193
  0
LINE
  8
CSLAYER1
  6
CONTINUOUS
 62
     1
 10
1351.127259
 20
471.148193
 11
1349.395208
 21
471.148193
  0
LINE
  8
CSLAYER1
  6
CONTINUOUS
 62
     1
 10
1351.127259
 20
471.148193
 11
1351.993284
 21
472.648193
  0
LINE
  8
CSLAYER1
  6
CONTINUOUS
 62
     1
 10
1348.529182
 20
472.648193
 11
1349.395208
 21
474.148193
  0
LINE
  8
CSLAYER1
  6
CONTINUOUS
 62
     1
 10
1348.529182
 20
472.648193
 11
1349.395208
 21
471.148193
  0
LINE
  8
CSLAYER1
  6
CONTINUOUS
 62
     1
 10
1351.127259
 20
474.148193
 11
1351.993284
 21
472.648193
  0
LINE
  8
CSLAYER1
  6
CONTINUOUS
 62
     1
 10
1339.761233
 20
489.148193
 11
1333.761233
 21
483.148193
  0
LINE
  8
CSLAYER1
  6
CONTINUOUS
 62
     1
 10
1360.761233
 20
489.148193
 11
1366.761233
 21
483.148193
  0
LINE
  8
CSLAYER1
  6
CONTINUOUS
 62
     1
 10
1332.261233
 20
483.648193
 11
1339.261233
 21
490.648193
  0
LINE
  8
CSLAYER1
  6
CONTINUOUS
 62
     1
 10
1361.261233
 20
490.648193
 11
1368.261233
 21
483.648193
  0
LINE
  8
CSLAYER1
  6
CONTINUOUS
 62
     1
 10
1371.261233
 20
482.648193
 11
1371.261233
 21
468.448193
  0
LINE
  8
CSLAYER1
  6
CONTINUOUS
 62
     1
 10
1373.761233
 20
480.648193
 11
1373.761233
 21
468.448193
  0
LINE
  8
CSLAYER1
  6
CONTINUOUS
 62
     1
 10
1371.261233
 20
482.648193
 11
1368.261233
 21
482.648193
  0
LINE
  8
CSLAYER1
  6
CONTINUOUS
 62
     1
 10
1373.761233
 20
480.648193
 11
1371.261233
 21
480.648193
  0
LINE
  8
CSLAYER1
  6
CONTINUOUS
 62
     5
 10
1388.761233
 20
476.648193
 11
1366.761233
 21
476.648193
  0
LINE
  8
CSLAYER1
  6
CONTINUOUS
 62
     5
 10
1388.761233
 20
468.648193
 11
1366.761233
 21
468.648193
  0
LINE
  8
CSLAYER1
  6
CONTINUOUS
 62
     1
 10
1388.761233
 20
475.148193
 11
1373.761233
 21
475.148193
  0
LINE
  8
CSLAYER1
  6
CONTINUOUS
 62
     1
 10
1389.111233
 20
478.148193
 11
1373.761233
 21
478.148193
  0
LINE
  8
CSLAYER1
  6
CONTINUOUS
 62
     1
 10
1388.761233
 20
470.148193
 11
1373.761233
 21
470.148193
  0
LINE
  8
CSLAYER1
  6
CONTINUOUS
 62
     5
 10
1375.261233
 20
475.148193
 11
1375.261233
 21
470.148193
  0
ARC
  8
CSLAYER1
  6
CONTINUOUS
 62
     1
 10
1349.101577
 20
498.713322
 40
12.340516
 50
139.190298
 51
220.809702
  0
LINE
  8
CSLAYER1
  6
CONTINUOUS
 62
     1
 10
1333.261233
 20
520.148193
 11
1333.261233
 21
484.648193
  0
LINE
  8
CSLAYER1
  6
CONTINUOUS
 62
     5
 10
1375.261233
 20
564.248193
 11
1375.261233
 21
478.148193
  0
LINE
  8
CSLAYER1
  6
CONTINUOUS
 62
     5
 10
1350.261233
 20
564.648193
 11
1350.261233
 21
468.448193
  0
LINE
  8
CSLAYER1
  6
CONTINUOUS
 62
     5
 10
3354.260236
 20
2191.054554
 11
2633.387719
 21
2191.054554
  0
LINE
  8
CSLAYER1
  6
CONTINUOUS
 62
     5
 10
3354.260236
 20
2127.054556
 11
2633.387719
 21
2127.054556
  0
LINE
  8
CSLAYER1
  6
CONTINUOUS
 62
     5
 10
3354.260236
 20
2063.054557
 11
2633.387719
 21
2063.054557
  0
LINE
  8
CSLAYER1
  6
CONTINUOUS
 62
     5
 10
3354.260236
 20
1999.054559
 11
2634.260254
 21
1999.054559
  0
LINE
  8
CSLAYER1
  6
CONTINUOUS
 62
     5
 10
3354.260236
 20
1935.054561
 11
2633.387719
 21
1935.054561
  0
LINE
  8
CSLAYER1
  6
CONTINUOUS
 62
     5
 10
3354.260236
 20
1871.054562
 11
2633.387719
 21
1871.054562
  0
LINE
  8
CSLAYER1
  6
CONTINUOUS
 62
     5
 10
3354.260236
 20
1807.054564
 11
2633.387719
 21
1807.054564
  0
LINE
  8
CSLAYER1
  6
CONTINUOUS
 62
     5
 10
3354.260236
 20
1743.054565
 11
2633.387719
 21
1743.054565
  0
LINE
  8
CSLAYER1
  6
CONTINUOUS
 62
     5
 10
3354.260236
 20
1679.054567
 11
2633.387719
 21
1679.054567
  0
LINE
  8
CSLAYER1
  6
CONTINUOUS
 62
     5
 10
3354.260236
 20
1615.054569
 11
2633.387719
 21
1615.054569
  0
LINE
  8
CSLAYER1
  6
CONTINUOUS
 62
     5
 10
3354.260236
 20
1551.054570
 11
2633.387719
 21
1551.054570
  0
TEXT
  8
CSLAYER1
 62
     3
 10
2829.111572
 20
2270.873535
 40
40.000000
 41
0.857143
  1
仕   様
 50
0.000000
 51
0.000000
  7
EASYDRAW_FONT
 72
     5
 11
2989.111572
 21
2270.873535
  0
TEXT
  8
CSLAYER1
 62
     3
 10
2644.146973
 20
2199.277588
 40
40.000000
 41
0.847059
  1
型    式
 50
0.000000
 51
0.000000
  7
EASYDRAW_FONT
 72
     5
 11
2836.146973
 21
2199.277588
  0
TEXT
  8
CSLAYER1
 62
     3
 10
2642.327393
 20
2076.787598
 40
40.000000
 41
0.847059
  1
テーブル寸法
 50
0.000000
 51
0.000000
  7
EASYDRAW_FONT
 72
     5
 11
2834.327393
 21
2076.787598
  0
TEXT
  8
CSLAYER1
 62
     3
 10
2644.146973
 20
2013.723633
 40
40.000000
 41
0.847059
  1
テーブル高サ
 50
0.000000
 51
0.000000
  7
EASYDRAW_FONT
 72
     5
 11
2836.146973
 21
2013.723633
  0
TEXT
  8
CSLAYER1
 62
     3
 10
2645.593994
 20
1948.840820
 40
40.000000
 41
0.857143
  1
ストローク
 50
0.000000
 51
0.000000
  7
EASYDRAW_FONT
 72
     5
 11
2805.593994
 21
1948.840820
  0
TEXT
  8
CSLAYER1
 62
     3
 10
2644.987549
 20
1883.958008
 40
40.000000
 41
0.857143
  1
全   長
 50
0.000000
 51
0.000000
  7
EASYDRAW_FONT
 72
     5
 11
2804.987549
 21
1883.958008
  0
TEXT
  8
CSLAYER1
 62
     3
 10
2647.258789
 20
1818.107178
 40
40.000000
 41
0.857143
  1
全   巾
 50
0.000000
 51
0.000000
  7
EASYDRAW_FONT
 72
     5
 11
2807.258789
 21
1818.107178
  0
TEXT
  8
CSLAYER1
 62
     3
 10
2645.700928
 20
1754.222046
 40
40.000000
 41
0.857143
  1
全   高
 50
0.000000
 51
0.000000
  7
EASYDRAW_FONT
 72
     5
 11
2805.700928
 21
1754.222046
  0
TEXT
  8
CSLAYER1
 62
     3
 10
2645.700928
 20
1691.895508
 40
40.000000
 41
0.857143
  1
リフト方式
 50
0.000000
 51
0.000000
  7
EASYDRAW_FONT
 72
     5
 11
2805.700928
 21
1691.895508
  0
TEXT
  8
CSLAYER1
 62
     3
 10
2644.560791
 20
1561.007935
 40
40.000000
 41
0.872727
  1
モーター
 50
0.000000
 51
0.000000
  7
EASYDRAW_FONT
 72
     5
 11
2772.560791
 21
1561.007935
  0
LINE
  8
CSLAYER1
  6
CONTINUOUS
 62
     5
 10
3354.260236
 20
1487.054572
 11
2633.387719
 21
1487.054572
  0
LINE
  8
CSLAYER1
  6
CONTINUOUS
 62
     5
 10
3354.260236
 20
1359.054575
 11
2631.249217
 21
1359.054575
  0
LINE
  8
CSLAYER1
  6
CONTINUOUS
 62
     5
 10
3354.260236
 20
1295.054577
 11
2633.387719
 21
1295.054577
  0
LINE
  8
CSLAYER1
  6
CONTINUOUS
 62
     5
 10
3354.260236
 20
1231.054578
 11
2633.387719
 21
1231.054578
  0
LINE
  8
CSLAYER1
  6
CONTINUOUS
 62
     5
 10
3354.260236
 20
1167.054580
 11
2633.387719
 21
1167.054580
  0
TEXT
  8
CSLAYER1
 62
     3
 10
2647.142090
 20
1242.176392
 40
40.000000
 41
0.857143
  1
自  　重
 50
0.000000
 51
0.000000
  7
EASYDRAW_FONT
 72
     5
 11
2807.142090
 21
1242.176392
  0
TEXT
  8
CSLAYER1
 62
     3
 10
2642.734131
 20
1178.837036
 40
40.000000
 41
0.825000
  1
塗装色（マンセル値） 
 50
0.000000
 51
0.000000
  7
EASYDRAW_FONT
 72
     5
 11
2994.734131
 21
1178.837036
  0
TEXT
  8
CSLAYER1
 62
     3
 10
3125.813721
 20
2135.393555
 40
40.000000
 41
0.900000
  1
500
 50
0.000000
 51
0.000000
  7
EASYDRAW_FONT
 72
     5
 11
3221.813721
 21
2135.393555
  0
TEXT
  8
CSLAYER1
 62
     3
 10
3283.726074
 20
2134.112793
 40
40.000000
 41
0.960000
  1
Ｋｇ
 50
0.000000
 51
0.000000
  7
EASYDRAW_FONT
 72
     5
 11
3347.726074
 21
2134.112793
  0
TEXT
  8
CSLAYER1
 62
     3
 10
2966.627197
 20
2071.797119
 40
40.000000
 41
0.834783
  1
900 ×5００
 50
0.000000
 51
0.000000
  7
EASYDRAW_FONT
 72
     5
 11
3222.627197
 21
2071.797119
  0
TEXT
  8
CSLAYER1
 62
     3
 10
3225.921631
 20
2083.620605
 40
40.000000
 41
1.200000
  1
Ｗ
 50
0.000000
 51
0.000000
  7
EASYDRAW_FONT
 72
     5
 11
3257.921631
 21
2083.620605
  0
TEXT
  8
CSLAYER1
 62
     3
 10
3059.505127
 20
2089.784180
 40
40.000000
 41
1.200000
  1
Ｌ
 50
0.000000
 51
0.000000
  7
EASYDRAW_FONT
 72
     5
 11
3091.505127
 21
2089.784180
  0
TEXT
  8
CSLAYER1
 62
     3
 10
2997.161133
 20
2010.749023
 40
40.000000
 41
0.840000
  1
155～775
 50
0.000000
 51
0.000000
  7
EASYDRAW_FONT
 72
     5
 11
3221.161133
 21
2010.749023
  0
TEXT
  8
CSLAYER1
 62
     3
 10
3127.749268
 20
1946.779907
 40
40.000000
 41
0.900000
  1
620
 50
0.000000
 51
0.000000
  7
EASYDRAW_FONT
 72
     5
 11
3223.749268
 21
1946.779907
  0
TEXT
  8
CSLAYER1
 62
     3
 10
3127.749268
 20
1881.770874
 40
40.000000
 41
0.900000
  1
900
 50
0.000000
 51
0.000000
  7
EASYDRAW_FONT
 72
     5
 11
3223.749268
 21
1881.770874
  0
TEXT
  8
CSLAYER1
 62
     3
 10
3125.526855
 20
1818.984131
 40
40.000000
 41
0.900000
  1
500
 50
0.000000
 51
0.000000
  7
EASYDRAW_FONT
 72
     5
 11
3221.526855
 21
1818.984131
  0
TEXT
  8
CSLAYER1
 62
     3
 10
2932.738037
 20
1692.850220
 40
40.000000
 41
0.830769
  1
電 動 油 圧 式
 50
0.000000
 51
0.000000
  7
EASYDRAW_FONT
 72
     5
 11
3220.738037
 21
1692.850220
  0
TEXT
  8
CSLAYER1
 62
     3
 10
2854.021484
 20
1564.647827
 40
40.000000
 41
0.817021
  1
ＡＣ2００Ｖ，3相,0.55ＫＷ
 50
0.000000
 51
0.000000
  7
EASYDRAW_FONT
 72
     5
 11
3366.021484
 21
1564.647827
  0
TEXT
  8
CSLAYER1
 62
     3
 10
3006.650391
 20
1498.081421
 40
40.000000
 41
0.840000
  1
長 サ ４ ｍ
 50
0.000000
 51
0.000000
  7
EASYDRAW_FONT
 72
     5
 11
3230.650391
 21
1498.081421
  0
TEXT
  8
CSLAYER1
 62
     3
 10
2852.817337
 20
1431.248119
 40
38.786964
 41
0.594698
  1
１5ｓｅｃ／50ＨＺ,１2sec/60HZ
 50
0.000000
 51
0.000000
  7
EASYDRAW_FONT
 72
     5
 11
3329.525925
 21
1431.248119
  0
TEXT
  8
CSLAYER1
 62
     3
 10
3117.321533
 20
1243.309937
 40
40.000000
 41
0.840000
  1
95  　Ｋｇ
 50
0.000000
 51
0.000000
  7
EASYDRAW_FONT
 72
     5
 11
3341.321533
 21
1243.309937
  0
TEXT
  8
CSLAYER1
 62
     3
 10
3123.518066
 20
1754.322876
 40
40.000000
 41
0.900000
  1
155
 50
0.000000
 51
0.000000
  7
EASYDRAW_FONT
 72
     5
 11
3219.518066
 21
1754.322876
  0
TEXT
  8
CSLAYER1
 62
     3
 10
3281.212158
 20
2070.009277
 40
40.000000
 41
0.960000
  1
mm
 50
0.000000
 51
0.000000
  7
EASYDRAW_FONT
 72
     5
 11
3345.212158
 21
2070.009277
  0
TEXT
  8
CSLAYER1
 62
     3
 10
3281.212158
 20
2009.675903
 40
40.000000
 41
0.960000
  1
mm
 50
0.000000
 51
0.000000
  7
EASYDRAW_FONT
 72
     5
 11
3345.212158
 21
2009.675903
  0
TEXT
  8
CSLAYER1
 62
     3
 10
3277.441162
 20
1945.572021
 40
40.000000
 41
0.960000
  1
mm
 50
0.000000
 51
0.000000
  7
EASYDRAW_FONT
 72
     5
 11
3341.441162
 21
1945.572021
  0
TEXT
  8
CSLAYER1
 62
     3
 10
3277.441162
 20
1877.697021
 40
40.000000
 41
0.960000
  1
mm
 50
0.000000
 51
0.000000
  7
EASYDRAW_FONT
 72
     5
 11
3341.441162
 21
1877.697021
  0
TEXT
  8
CSLAYER1
 62
     3
 10
3274.927734
 20
1817.364258
 40
40.000000
 41
0.960000
  1
mm
 50
0.000000
 51
0.000000
  7
EASYDRAW_FONT
 72
     5
 11
3338.927734
 21
1817.364258
  0
TEXT
  8
CSLAYER1
 62
     3
 10
3274.927734
 20
1753.259521
 40
40.000000
 41
0.960000
  1
mm
 50
0.000000
 51
0.000000
  7
EASYDRAW_FONT
 72
     5
 11
3338.927734
 21
1753.259521
  0
LINE
  8
CSLAYER1
  6
CONTINUOUS
 62
     5
 10
3017.164657
 20
2255.054553
 11
2808.778685
 21
2255.054553
  0
LINE
  8
CSLAYER1
  6
CONTINUOUS
 62
     5
 10
3017.164657
 20
2263.054552
 11
2808.778685
 21
2263.054552
  0
TEXT
  8
CSLAYER1
 62
     3
 10
2648.142578
 20
1624.893921
 40
40.000000
 41
1.036364
  1
操作方式
 50
0.000000
 51
0.000000
  7
EASYDRAW_FONT
 72
     5
 11
2800.142578
 21
1624.893921
  0
LINE
  8
CSLAYER1
  6
CONTINUOUS
 62
     5
 10
3354.260236
 20
1423.054573
 11
2633.387719
 21
1423.054573
  0
TEXT
  8
CSLAYER1
 62
     3
 10
2645.476807
 20
1497.690796
 40
40.000000
 41
0.942857
  1
電源コード
 50
0.000000
 51
0.000000
  7
EASYDRAW_FONT
 72
     5
 11
2821.476807
 21
1497.690796
  0
TEXT
  8
CSLAYER1
 62
     3
 10
3023.728760
 20
1178.022095
 40
40.000000
 41
0.930000
  1
１０Ｒ４／１３
 50
0.000000
 51
0.000000
  7
EASYDRAW_FONT
 72
     5
 11
3271.728760
 21
1178.022095
  0
TEXT
  8
CSLAYER1
 62
     3
 10
2642.859619
 20
1433.414185
 40
40.000000
 41
0.954545
  1
上昇時間
 50
0.000000
 51
0.000000
  7
EASYDRAW_FONT
 72
     5
 11
2782.859619
 21
1433.414185
  0
TEXT
  8
CSLAYER1
 62
     3
 10
2768.798096
 20
1371.723999
 40
40.000000
 41
0.917143
  1
上昇端リミットスイッチ付
 50
0.000000
 51
0.000000
  7
EASYDRAW_FONT
 72
     5
 11
3196.798096
 21
1371.723999
  0
TEXT
  8
CSLAYER1
 62
     3
 10
2897.159214
 20
2200.787008
 40
40.809284
 41
0.900085
  1
GLE-500-0509
 50
0.000000
 51
0.000000
  7
EASYDRAW_FONT
 72
     5
 11
3325.697231
 21
2200.787008
  0
TEXT
  8
CSLAYER1
 62
     3
 10
2932.109131
 20
1629.982178
 40
40.000000
 41
1.020000
  1
フットスイッチ
 50
0.000000
 51
0.000000
  7
EASYDRAW_FONT
 72
     5
 11
3204.109131
 21
1629.982178
  0
TEXT
  8
CSLAYER1
 62
     3
 10
2648.142578
 20
2136.893799
 40
40.000000
 41
1.036364
  1
積載荷重
 50
0.000000
 51
0.000000
  7
EASYDRAW_FONT
 72
     5
 11
2800.142578
 21
2136.893799
  0
TEXT
  8
CSLAYER1
 62
     3
 10
364.531799
 20
1846.422485
 40
50.000000
 41
1.020000
  1
コード長サ２ｍ
 50
0.000000
 51
0.000000
  7
EASYDRAW_FONT
 72
     5
 11
704.531799
 21
1846.422485
  0
ENDSEC
  0
EOF
