  0
SECTION
  2
HEADER
  9
$ACADVER
  1
AC1006
  9
$INSBASE
 10
0.000000
 20
0.000000
 30
0.0
  9
$EXTMIN
 10
0.000000
 20
0.000000
  9
$EXTMAX
 10
3640.000000
 20
2570.000000
  9
$LIMMIN
 10
0.000000
 20
0.000000
  9
$LIMMAX
 10
3640.000000
 20
2570.000000
  9
$VIEWCTR
 10
1820.000000
 20
1285.000000
  9
$VIEWSIZE
 40
2570.000000
  9
$SNAPMODE
 70
     0
  9
$SNAPUNIT
 10
1.0
 20
1.0
  9
$SNAPBASE
 10
0.0
 20
0.0
  9
$SNAPANG
 50
0.0
  9
$SNAPSTYLE
 70
     0
  9
$SNAPISOPAIR
 70
     0
  9
$GRIDMODE
 70
     0
  9
$GRIDUNIT
 10
0.0
 20
0.0
  9
$ORTHOMODE
 70
     0
  9
$REGENMODE
 70
     1
  9
$FILLMODE
 70
     1
  9
$QTEXTMODE
 70
     0
  9
$DRAGMODE
 70
     2
  9
$LTSCALE
 40
15.000000
  9
$OSMODE
 70
     0
  9
$ATTMODE
 70
     1
  9
$TEXTSIZE
 40
0.2
  9
$TRACEWID
 40
0.05
  9
$TEXTSTYLE
  7
STANDARD
  9
$CLAYER
  8
CSLAYER1
  9
$CELTYPE
  6
BYLAYER
  9
$CECOLOR
 62
   256
  9
$DIMSCALE
 40
1.0
  9
$DIMASZ
 40
0.18
  9
$DIMEXO
 40
0.0625
  9
$DIMDLI
 40
0.38
  9
$DIMRND
 40
0.0
  9
$DIMDLE
 40
0.0
  9
$DIMEXE
 40
0.18
  9
$DIMTP
 40
0.0
  9
$DIMTM
 40
0.0
  9
$DIMTXT
 40
0.18
  9
$DIMCEN
 40
0.09
  9
$DIMTSZ
 40
0.0
  9
$DIMTOL
 70
     0
  9
$DIMLIM
 70
     0
  9
$DIMTIH
 70
     1
  9
$DIMTOH
 70
     1
  9
$DIMSE1
 70
     0
  9
$DIMSE2
 70
     0
  9
$DIMTAD
 70
     0
  9
$DIMZIN
 70
     0
  9
$DIMBLK
  1

  9
$LUNITS
 70
     2
  9
$LUPREC
 70
     4
  9
$AXISMODE
 70
     0
  9
$AXISUNIT
 10
0.0
 20
0.0
  9
$SKETCHINC
 40
0.1
  9
$FILLETRAD
 40
0.0
  9
$AUNITS
 70
     0
  9
$AUPREC
 70
     0
  9
$MENU
  1
ACAD
  9
$ELEVATION
 40
0.0
  9
$THICKNESS
 40
0.0
  9
$VIEWDIR
 10
0.0
 20
0.0
 30
1.0
  9
$LIMCHECK
 70
     0
  9
$BLIPMODE
 70
     1
  9
$CHAMFERA
 40
0.0
  9
$CHAMFERB
 40
0.0
  9
$FASTZOOM
 70
     1
  9
$SKPOLY
 70
     0
  9
$TDCREATE
 40
2456685.000000
  9
$TDUPDATE
 40
2456685.000000
  9
$TDINDWG
 40
0.0
  9
$TDUSRTIMER
 40
0.0
  9
$USRTIMER
 70
     1
  9
$ANGBASE
 50
0.0
  9
$ANGDIR
 70
     0
  9
$PDMODE
 70
     0
  9
$PDSIZE
 40
0.0
  9
$PLINEWID
 40
0.0
  9
$COORDS
 70
     0
  9
$USERI1
 70
     0
  9
$USERI2
 70
     0
  9
$USERI3
 70
     0
  9
$USERI4
 70
     0
  9
$USERI5
 70
     0
  9
$USERR1
 40
0.0
  9
$USERR2
 40
0.0
  9
$USERR3
 40
0.0
  9
$USERR4
 40
0.0
  9
$USERR5
 40
0.0
  0
ENDSEC
  0
SECTION
  2
TABLES
  0
TABLE
  2
LTYPE
 70
     9
  0
LTYPE
  2
CONTINUOUS
 70
    64
  3
Solid line
 72
    65
 73
     0
 40
0.0
  0
LTYPE
  2
DASHED
 70
    64
  3
__ __ __ __ __ __ __ __ __ __ __ __ __ __ __
 72
    65
 73
     2
 40
0.75
 49
0.5
 49
-0.25
  0
LTYPE
  2
HIDDEN
 70
    64
  3
_ _ _ _ _ _ _ _ _ _ _ _ _ _ _ _ _ _ _ _ _ _ _
 72
    65
 73
     2
 40
0.375
 49
0.25
 49
-0.125
  0
LTYPE
  2
DOT
 70
    64
  3
...............................................
 72
    65
 73
     2
 40
0.25
 49
0.0
 49
-0.25
  0
LTYPE
  2
DASHDOT
 70
    64
  3
__ . __ . __ . __ . __ . __ . __ . __ . __ . __
 72
    65
 73
     4
 40
1.0
 49
0.5
 49
-0.25
 49
0.0
 49
-0.25
  0
LTYPE
  2
DIVIDE
 70
    64
  3
__ . . __ . . __ . . __ . . __ . . __ . . __
 72
    65
 73
     6
 40
1.25
 49
0.5
 49
-0.25
 49
0.0
 49
-0.25
 49
0.0
 49
-0.25
  0
LTYPE
  2
CENTER
 70
    64
  3
____ _ ____ _ ____ _ ____ _ ____ _ ____ _ ____ 
 72
    65
 73
     4
 40
2.0
 49
1.25
 49
-0.25
 49
0.25
 49
-0.25
  0
LTYPE
  2
PHANTOM
 70
    64
  3
______  __  __  ______  __  __  ______  __  __ 
 72
    65
 73
     6
 40
2.5
 49
1.25
 49
-0.25
 49
0.25
 49
-0.25
 49
0.25
 49
-0.25
  0
LTYPE
  2
BORDER
 70
    64
  3
__ __ . __ __ . __ __ . __ __ . __ __ . __ __ .
 72
    65
 73
     6
 40
1.75
 49
0.5
 49
-0.25
 49
0.5
 49
-0.25
 49
0.0
 49
-0.25
  0
ENDTAB
  0
TABLE
  2
LAYER
 70
    16
  0
LAYER
  2
CSLAYER1
 70
    64
 62
     7
  6
CONTINUOUS
  0
LAYER
  2
CSLAYER2
 70
    64
 62
     7
  6
CONTINUOUS
  0
LAYER
  2
CSLAYER3
 70
    64
 62
     7
  6
CONTINUOUS
  0
LAYER
  2
CSLAYER4
 70
    64
 62
     7
  6
CONTINUOUS
  0
LAYER
  2
CSLAYER5
 70
    64
 62
     7
  6
CONTINUOUS
  0
LAYER
  2
CSLAYER6
 70
    64
 62
     7
  6
CONTINUOUS
  0
LAYER
  2
CSLAYER7
 70
    64
 62
     7
  6
CONTINUOUS
  0
LAYER
  2
CSLAYER8
 70
    64
 62
     7
  6
CONTINUOUS
  0
LAYER
  2
CSLAYER9
 70
    64
 62
     7
  6
CONTINUOUS
  0
LAYER
  2
CSLAYER10
 70
    64
 62
     7
  6
CONTINUOUS
  0
LAYER
  2
CSLAYER11
 70
    64
 62
     7
  6
CONTINUOUS
  0
LAYER
  2
CSLAYER12
 70
    64
 62
     7
  6
CONTINUOUS
  0
LAYER
  2
CSLAYER13
 70
    64
 62
     7
  6
CONTINUOUS
  0
LAYER
  2
CSLAYER14
 70
    64
 62
     7
  6
CONTINUOUS
  0
LAYER
  2
CSLAYER15
 70
    64
 62
     7
  6
CONTINUOUS
  0
LAYER
  2
CSLAYER16
 70
    64
 62
     7
  6
CONTINUOUS
  0
ENDTAB
  0
TABLE
  2
STYLE
 70
     1
  0
STYLE
  2
EASYDRAW_FONT
 70
     0
 40
1.0
 41
1.0
 50
0.0
 71
     0
 42
1.0
  3
monotxt
  4
bigfont
  0
ENDTAB
  0
TABLE
  2
VIEW
 70
     0
  0
ENDTAB
  0
ENDSEC
  0
SECTION
  2
BLOCKS
  0
BLOCK
  8
CSLAYER1
  2
*D0000
 70
    65
 10
0.0
 20
0.0
 30
0.0
  0
TEXT
  8
CSLAYER1
 62
     3
 10
2185.655518
 20
1642.995850
 40
40.000000
 41
0.843750
  1
600
 50
90.000000
 51
0.000000
  7
EASYDRAW_FONT
 72
     5
 11
2185.655518
 21
1732.995850
  0
LINE
  8
CSLAYER1
  6
CONTINUOUS
 62
     5
 10
2055.655327
 20
1387.995850
 11
2205.655327
 21
1387.995850
  0
LINE
  8
CSLAYER1
  6
CONTINUOUS
 62
     5
 10
2055.655327
 20
1987.995850
 11
2205.655327
 21
1987.995850
  0
LINE
  8
CSLAYER1
  6
CONTINUOUS
 62
     5
 10
2195.655327
 20
1387.995850
 11
2195.655327
 21
1987.995850
  0
LINE
  8
CSLAYER1
  6
CONTINUOUS
 62
     5
 10
2195.655327
 20
1387.995850
 11
2187.890755
 21
1416.973625
  0
LINE
  8
CSLAYER1
  6
CONTINUOUS
 62
     5
 10
2195.655327
 20
1387.995850
 11
2203.419898
 21
1416.973625
  0
LINE
  8
CSLAYER1
  6
CONTINUOUS
 62
     5
 10
2195.655327
 20
1987.995850
 11
2187.890755
 21
1959.018075
  0
LINE
  8
CSLAYER1
  6
CONTINUOUS
 62
     5
 10
2195.655327
 20
1987.995850
 11
2203.419898
 21
1959.018075
  0
ENDBLK
  8
0
  0
BLOCK
  8
CSLAYER1
  2
*D0001
 70
    65
 10
0.0
 20
0.0
 30
0.0
  0
TEXT
  8
CSLAYER1
 62
     3
 10
2185.655518
 20
539.995850
 40
40.000000
 41
0.843750
  1
155
 50
90.000000
 51
0.000000
  7
EASYDRAW_FONT
 72
     5
 11
2185.655518
 21
629.995850
  0
LINE
  8
CSLAYER1
  6
CONTINUOUS
 62
     5
 10
2055.886169
 20
507.495853
 11
2365.655327
 21
507.495853
  0
LINE
  8
CSLAYER1
  6
CONTINUOUS
 62
     5
 10
2055.886169
 20
662.495853
 11
2205.655327
 21
662.495853
  0
LINE
  8
CSLAYER1
  6
CONTINUOUS
 62
     5
 10
2195.655327
 20
507.495853
 11
2195.655327
 21
662.495853
  0
LINE
  8
CSLAYER1
  6
CONTINUOUS
 62
     5
 10
2195.655327
 20
507.495853
 11
2187.890755
 21
536.473628
  0
LINE
  8
CSLAYER1
  6
CONTINUOUS
 62
     5
 10
2195.655327
 20
507.495853
 11
2203.419898
 21
536.473628
  0
LINE
  8
CSLAYER1
  6
CONTINUOUS
 62
     5
 10
2195.655327
 20
662.495853
 11
2187.890755
 21
633.518078
  0
LINE
  8
CSLAYER1
  6
CONTINUOUS
 62
     5
 10
2195.655327
 20
662.495853
 11
2203.419898
 21
633.518078
  0
ENDBLK
  8
0
  0
BLOCK
  8
CSLAYER1
  2
*D0002
 70
    65
 10
0.0
 20
0.0
 30
0.0
  0
TEXT
  8
CSLAYER1
 62
     3
 10
2185.655518
 20
767.745850
 40
40.000000
 41
0.843750
  1
280
 50
90.000000
 51
0.000000
  7
EASYDRAW_FONT
 72
     5
 11
2185.655518
 21
857.745850
  0
LINE
  8
CSLAYER1
  6
CONTINUOUS
 62
     5
 10
2055.655327
 20
962.995850
 11
2365.655327
 21
962.995850
  0
LINE
  8
CSLAYER1
  6
CONTINUOUS
 62
     5
 10
2195.655327
 20
662.495853
 11
2195.655327
 21
962.995850
  0
LINE
  8
CSLAYER1
  6
CONTINUOUS
 62
     5
 10
2195.655327
 20
662.495853
 11
2187.890755
 21
691.473628
  0
LINE
  8
CSLAYER1
  6
CONTINUOUS
 62
     5
 10
2195.655327
 20
662.495853
 11
2203.419898
 21
691.473628
  0
LINE
  8
CSLAYER1
  6
CONTINUOUS
 62
     5
 10
2195.655327
 20
962.995850
 11
2187.890755
 21
934.018075
  0
LINE
  8
CSLAYER1
  6
CONTINUOUS
 62
     5
 10
2195.655327
 20
962.995850
 11
2203.419898
 21
934.018075
  0
ENDBLK
  8
0
  0
BLOCK
  8
CSLAYER1
  2
*D0003
 70
    65
 10
0.0
 20
0.0
 30
0.0
  0
TEXT
  8
CSLAYER1
 62
     3
 10
2345.655518
 20
690.245850
 40
40.000000
 41
0.843750
  1
435
 50
90.000000
 51
0.000000
  7
EASYDRAW_FONT
 72
     5
 11
2345.655518
 21
780.245850
  0
LINE
  8
CSLAYER1
  6
CONTINUOUS
 62
     5
 10
2355.655327
 20
507.495853
 11
2355.655327
 21
962.995850
  0
LINE
  8
CSLAYER1
  6
CONTINUOUS
 62
     5
 10
2355.655327
 20
507.495853
 11
2347.890755
 21
536.473628
  0
LINE
  8
CSLAYER1
  6
CONTINUOUS
 62
     5
 10
2355.655327
 20
507.495853
 11
2363.419898
 21
536.473628
  0
LINE
  8
CSLAYER1
  6
CONTINUOUS
 62
     5
 10
2355.655327
 20
962.995850
 11
2347.890755
 21
934.018075
  0
LINE
  8
CSLAYER1
  6
CONTINUOUS
 62
     5
 10
2355.655327
 20
962.995850
 11
2363.419898
 21
934.018075
  0
ENDBLK
  8
0
  0
BLOCK
  8
CSLAYER1
  2
*D0004
 70
    65
 10
0.0
 20
0.0
 30
0.0
  0
TEXT
  8
CSLAYER1
 62
     3
 10
1700.655273
 20
1097.995850
 40
40.000000
 41
0.843750
  1
600
 50
0.000000
 51
0.000000
  7
EASYDRAW_FONT
 72
     5
 11
1790.655273
 21
1097.995850
  0
LINE
  8
CSLAYER1
  6
CONTINUOUS
 62
     5
 10
1445.655327
 20
972.995850
 11
1445.655327
 21
1097.995850
  0
LINE
  8
CSLAYER1
  6
CONTINUOUS
 62
     5
 10
2045.655327
 20
972.995850
 11
2045.655327
 21
1097.995850
  0
LINE
  8
CSLAYER1
  6
CONTINUOUS
 62
     5
 10
1445.655327
 20
1087.995850
 11
2045.655327
 21
1087.995850
  0
LINE
  8
CSLAYER1
  6
CONTINUOUS
 62
     5
 10
1445.655327
 20
1087.995850
 11
1474.633101
 21
1095.760421
  0
LINE
  8
CSLAYER1
  6
CONTINUOUS
 62
     5
 10
1445.655327
 20
1087.995850
 11
1474.633101
 21
1080.231279
  0
LINE
  8
CSLAYER1
  6
CONTINUOUS
 62
     5
 10
2045.655327
 20
1087.995850
 11
2016.677552
 21
1095.760421
  0
LINE
  8
CSLAYER1
  6
CONTINUOUS
 62
     5
 10
2045.655327
 20
1087.995850
 11
2016.677552
 21
1080.231279
  0
ENDBLK
  8
0
  0
BLOCK
  8
CSLAYER1
  2
*D0005
 70
    65
 10
0.0
 20
0.0
 30
0.0
  0
TEXT
  8
CSLAYER1
 62
     3
 10
1701.386108
 20
367.495850
 40
40.000000
 41
0.843750
  1
599
 50
0.000000
 51
0.000000
  7
EASYDRAW_FONT
 72
     5
 11
1791.386108
 21
367.495850
  0
LINE
  8
CSLAYER1
  6
CONTINUOUS
 62
     5
 10
1446.886169
 20
497.495853
 11
1446.886169
 21
347.495853
  0
LINE
  8
CSLAYER1
  6
CONTINUOUS
 62
     5
 10
2045.886169
 20
497.495853
 11
2045.886169
 21
347.495853
  0
LINE
  8
CSLAYER1
  6
CONTINUOUS
 62
     5
 10
1446.886169
 20
357.495853
 11
2045.886169
 21
357.495853
  0
LINE
  8
CSLAYER1
  6
CONTINUOUS
 62
     5
 10
1446.886169
 20
357.495853
 11
1475.863944
 21
365.260424
  0
LINE
  8
CSLAYER1
  6
CONTINUOUS
 62
     5
 10
1446.886169
 20
357.495853
 11
1475.863944
 21
349.731281
  0
LINE
  8
CSLAYER1
  6
CONTINUOUS
 62
     5
 10
2045.886169
 20
357.495853
 11
2016.908394
 21
365.260424
  0
LINE
  8
CSLAYER1
  6
CONTINUOUS
 62
     5
 10
2045.886169
 20
357.495853
 11
2016.908394
 21
349.731281
  0
ENDBLK
  8
0
  0
BLOCK
  8
CSLAYER1
  2
*D0006
 70
    65
 10
0.0
 20
0.0
 30
0.0
  0
TEXT
  8
CSLAYER1
 62
     3
 10
676.886169
 20
367.495850
 40
40.000000
 41
0.843750
  1
450
 50
0.000000
 51
0.000000
  7
EASYDRAW_FONT
 72
     5
 11
766.886169
 21
367.495850
  0
LINE
  8
CSLAYER1
  6
CONTINUOUS
 62
     5
 10
496.886169
 20
497.495853
 11
496.886169
 21
347.495853
  0
LINE
  8
CSLAYER1
  6
CONTINUOUS
 62
     5
 10
946.886169
 20
497.495853
 11
946.886169
 21
347.495853
  0
LINE
  8
CSLAYER1
  6
CONTINUOUS
 62
     5
 10
496.886169
 20
357.495853
 11
946.886169
 21
357.495853
  0
LINE
  8
CSLAYER1
  6
CONTINUOUS
 62
     5
 10
496.886169
 20
357.495853
 11
525.863944
 21
365.260424
  0
LINE
  8
CSLAYER1
  6
CONTINUOUS
 62
     5
 10
496.886169
 20
357.495853
 11
525.863944
 21
349.731281
  0
LINE
  8
CSLAYER1
  6
CONTINUOUS
 62
     5
 10
946.886169
 20
357.495853
 11
917.908394
 21
365.260424
  0
LINE
  8
CSLAYER1
  6
CONTINUOUS
 62
     5
 10
946.886169
 20
357.495853
 11
917.908394
 21
349.731281
  0
ENDBLK
  8
0
  0
BLOCK
  8
CSLAYER1
  2
BLKF0000
 70
   64
 10
0.0
 20
0.0
 30
0.0
  0
ARC
  8
CSLAYER1
  6
CONTINUOUS
 62
     5
 10
2781.909508
 20
79.335220
 40
3.549225
 50
6.429109
 51
73.182034
  0
ARC
  8
CSLAYER1
  6
CONTINUOUS
 62
     5
 10
2778.448538
 20
78.176827
 40
6.907754
 50
310.517970
 51
330.092764
  0
ARC
  8
CSLAYER1
  6
CONTINUOUS
 62
     5
 10
2778.387888
 20
78.542345
 40
7.148321
 50
-32.205059
 51
9.585194
  0
ARC
  8
CSLAYER1
  6
CONTINUOUS
 62
     5
 10
2781.680616
 20
75.781346
 40
4.767514
 50
180.000000
 51
218.514150
  0
ARC
  8
CSLAYER1
  6
CONTINUOUS
 62
     5
 10
2780.393895
 20
75.104206
 40
3.348282
 50
222.781148
 51
319.406906
  0
ARC
  8
CSLAYER1
  6
CONTINUOUS
 62
     5
 10
2783.459537
 20
76.194099
 40
6.559434
 50
94.574282
 51
183.607718
  0
LINE
  8
CSLAYER1
  6
CONTINUOUS
 62
     5
 10
2796.903443
 20
71.077266
 11
2796.046407
 21
68.038683
  0
LINE
  8
CSLAYER1
  6
CONTINUOUS
 62
     5
 10
2798.695428
 20
90.944924
 11
2796.591794
 21
93.671857
  0
LINE
  8
CSLAYER1
  6
CONTINUOUS
 62
     5
 10
2796.591794
 20
93.671857
 11
2789.838440
 21
97.429769
  0
LINE
  8
CSLAYER1
  6
CONTINUOUS
 62
     5
 10
2789.838440
 20
97.429769
 11
2782.936412
 21
98.232640
  0
LINE
  8
CSLAYER1
  6
CONTINUOUS
 62
     5
 10
2764.647187
 20
84.853966
 11
2766.793881
 21
89.818197
  0
LINE
  8
CSLAYER1
  6
CONTINUOUS
 62
     5
 10
2766.756884
 20
89.732640
 11
2768.940576
 21
92.367396
  0
LINE
  8
CSLAYER1
  6
CONTINUOUS
 62
     5
 10
2768.940576
 20
92.367396
 11
2772.244998
 21
94.732640
  0
LINE
  8
CSLAYER1
  6
CONTINUOUS
 62
     5
 10
2782.936412
 20
98.232640
 11
2781.418237
 21
97.465795
  0
LINE
  8
CSLAYER1
  6
CONTINUOUS
 62
     5
 10
2781.418237
 20
97.465795
 11
2777.929858
 21
97.465795
  0
LINE
  8
CSLAYER1
  6
CONTINUOUS
 62
     5
 10
2777.929858
 20
97.465795
 11
2774.374396
 21
95.520354
  0
LINE
  8
CSLAYER1
  6
CONTINUOUS
 62
     5
 10
2774.374396
 20
95.520354
 11
2772.244998
 21
94.732640
  0
LINE
  8
CSLAYER1
  6
CONTINUOUS
 62
     5
 10
2764.647187
 20
84.853966
 11
2763.129640
 21
77.305363
  0
LINE
  8
CSLAYER1
  6
CONTINUOUS
 62
     5
 10
2763.129640
 20
77.305363
 11
2762.936412
 21
74.732640
  0
LINE
  8
CSLAYER1
  6
CONTINUOUS
 62
     5
 10
2765.645795
 20
66.892857
 11
2762.936412
 21
72.988969
  0
LINE
  8
CSLAYER1
  6
CONTINUOUS
 62
     5
 10
2762.936412
 20
72.988969
 11
2762.936412
 21
74.732640
  0
LINE
  8
CSLAYER1
  6
CONTINUOUS
 62
     5
 10
2796.046407
 20
68.038683
 11
2794.360620
 21
65.035677
  0
LINE
  8
CSLAYER1
  6
CONTINUOUS
 62
     5
 10
2794.360620
 20
65.035677
 11
2792.936412
 21
63.716966
  0
ARC
  8
CSLAYER1
  6
CONTINUOUS
 62
     5
 10
2780.744468
 20
75.269400
 40
17.266626
 50
208.054813
 51
260.640470
  0
ARC
  8
CSLAYER1
  6
CONTINUOUS
 62
     5
 10
2775.551072
 20
88.011870
 40
29.874611
 50
274.579659
 51
305.587364
  0
ARC
  8
CSLAYER1
  6
CONTINUOUS
 62
     5
 10
2786.523421
 20
82.028147
 40
15.088627
 50
313.467013
 51
331.085078
  0
LINE
  8
CSLAYER1
  6
CONTINUOUS
 62
     5
 10
2801.314754
 20
78.246061
 11
2801.612048
 21
82.028147
  0
LINE
  8
CSLAYER1
  6
CONTINUOUS
 62
     5
 10
2801.612048
 20
82.028147
 11
2800.320051
 21
88.137130
  0
LINE
  8
CSLAYER1
  6
CONTINUOUS
 62
     5
 10
2801.314754
 20
78.246061
 11
2799.731079
 21
74.732640
  0
ARC
  8
CSLAYER1
  6
CONTINUOUS
 62
     5
 10
2786.523421
 20
82.028147
 40
15.088627
 50
23.883193
 51
36.225170
  0
LINE
  8
CSLAYER1
  6
CONTINUOUS
 62
     5
 10
2746.936412
 20
109.732640
 11
2747.936412
 21
110.825284
  0
LINE
  8
CSLAYER1
  6
CONTINUOUS
 62
     5
 10
2746.936412
 20
109.732640
 11
2748.513370
 21
108.287607
  0
LINE
  8
CSLAYER1
  6
CONTINUOUS
 62
     5
 10
2750.052583
 20
106.178315
 11
2750.078851
 21
104.010196
  0
LINE
  8
CSLAYER1
  6
CONTINUOUS
 62
     5
 10
2750.078851
 20
104.010196
 11
2750.286249
 21
103.249737
  0
LINE
  8
CSLAYER1
  6
CONTINUOUS
 62
     5
 10
2750.286249
 20
103.249737
 11
2750.873877
 21
102.523844
  0
LINE
  8
CSLAYER1
  6
CONTINUOUS
 62
     5
 10
2750.873877
 20
102.523844
 11
2751.461504
 21
102.592977
  0
LINE
  8
CSLAYER1
  6
CONTINUOUS
 62
     5
 10
2751.461504
 20
102.592977
 11
2752.083698
 21
102.765808
  0
LINE
  8
CSLAYER1
  6
CONTINUOUS
 62
     5
 10
2752.083698
 20
102.765808
 11
2752.498494
 21
102.592977
  0
LINE
  8
CSLAYER1
  6
CONTINUOUS
 62
     5
 10
2752.498494
 20
102.592977
 11
2753.397219
 21
102.143614
  0
LINE
  8
CSLAYER1
  6
CONTINUOUS
 62
     5
 10
2753.397219
 20
102.143614
 11
2754.173270
 21
101.732640
  0
LINE
  8
CSLAYER1
  6
CONTINUOUS
 62
     5
 10
2754.173270
 20
101.732640
 11
2754.676173
 21
101.763385
  0
LINE
  8
CSLAYER1
  6
CONTINUOUS
 62
     5
 10
2754.676173
 20
101.763385
 11
2757.484045
 21
103.209864
  0
LINE
  8
CSLAYER1
  6
CONTINUOUS
 62
     5
 10
2747.936412
 20
110.825284
 11
2748.269264
 21
112.298991
  0
LINE
  8
CSLAYER1
  6
CONTINUOUS
 62
     5
 10
2748.269264
 20
112.298991
 11
2749.722669
 21
112.449344
  0
LINE
  8
CSLAYER1
  6
CONTINUOUS
 62
     5
 10
2751.216428
 20
115.217802
 11
2752.970601
 21
115.374892
  0
LINE
  8
CSLAYER1
  6
CONTINUOUS
 62
     5
 10
2752.970601
 20
115.374892
 11
2756.505128
 21
116.212706
  0
LINE
  8
CSLAYER1
  6
CONTINUOUS
 62
     5
 10
2756.505128
 20
116.212706
 11
2757.936412
 21
116.544345
  0
LINE
  8
CSLAYER1
  6
CONTINUOUS
 62
     5
 10
2751.216428
 20
115.217802
 11
2749.283537
 21
115.376670
  0
LINE
  8
CSLAYER1
  6
CONTINUOUS
 62
     5
 10
2748.547414
 20
114.507983
 11
2748.640939
 21
114.136822
  0
LINE
  8
CSLAYER1
  6
CONTINUOUS
 62
     5
 10
2748.640939
 20
114.136822
 11
2749.132533
 21
113.599141
  0
LINE
  8
CSLAYER1
  6
CONTINUOUS
 62
     5
 10
2749.132533
 20
113.599141
 11
2749.808475
 21
113.092184
  0
LINE
  8
CSLAYER1
  6
CONTINUOUS
 62
     5
 10
2749.808475
 20
113.092184
 11
2749.931800
 21
112.927751
  0
LINE
  8
CSLAYER1
  6
CONTINUOUS
 62
     5
 10
2748.513370
 20
108.287607
 11
2750.052583
 21
106.178315
  0
ARC
  8
CSLAYER1
  6
CONTINUOUS
 62
     5
 10
2792.923113
 20
-61.926013
 40
180.727463
 50
80.438896
 51
96.353582
  0
ARC
  8
CSLAYER1
  6
CONTINUOUS
 62
     5
 10
2768.024200
 20
83.321887
 40
34.720242
 50
81.866516
 51
106.890578
  0
LINE
  8
CSLAYER1
  6
CONTINUOUS
 62
     5
 10
2827.130674
 20
115.499310
 11
2829.377756
 21
114.477909
  0
LINE
  8
CSLAYER1
  6
CONTINUOUS
 62
     5
 10
2832.952661
 20
112.894737
 11
2829.377756
 21
114.477909
  0
LINE
  8
CSLAYER1
  6
CONTINUOUS
 62
     5
 10
2827.130674
 20
115.499310
 11
2822.936412
 21
116.291881
  0
LINE
  8
CSLAYER1
  6
CONTINUOUS
 62
     5
 10
2832.936412
 20
112.901933
 11
2834.807988
 21
111.333456
  0
LINE
  8
CSLAYER1
  6
CONTINUOUS
 62
     5
 10
2816.179668
 20
113.938783
 11
2817.078943
 21
115.391458
  0
LINE
  8
CSLAYER1
  6
CONTINUOUS
 62
     5
 10
2817.078943
 20
115.391458
 11
2821.754542
 21
114.271949
  0
LINE
  8
CSLAYER1
  6
CONTINUOUS
 62
     5
 10
2821.754542
 20
114.271949
 11
2838.496928
 21
109.732640
  0
LINE
  8
CSLAYER1
  6
CONTINUOUS
 62
     5
 10
2841.436412
 20
109.732640
 11
2834.807988
 21
111.333456
  0
LINE
  8
CSLAYER1
  6
CONTINUOUS
 62
     5
 10
2838.496928
 20
109.732640
 11
2841.436412
 21
109.732640
  0
LINE
  8
CSLAYER1
  6
CONTINUOUS
 62
     5
 10
2782.936412
 20
114.197581
 11
2802.936412
 21
114.732640
  0
LINE
  8
CSLAYER1
  6
CONTINUOUS
 62
     5
 10
2802.936412
 20
114.732640
 11
2816.179668
 21
113.938783
  0
LINE
  8
CSLAYER1
  6
CONTINUOUS
 62
     5
 10
2817.782649
 20
111.878304
 11
2802.936412
 21
113.232640
  0
LINE
  8
CSLAYER1
  6
CONTINUOUS
 62
     5
 10
2802.936412
 20
113.232640
 11
2787.887203
 21
113.641292
  0
LINE
  8
CSLAYER1
  6
CONTINUOUS
 62
     5
 10
2787.936412
 20
113.639956
 11
2782.936412
 21
113.735249
  0
LINE
  8
CSLAYER1
  6
CONTINUOUS
 62
     5
 10
2782.936412
 20
114.197581
 11
2782.936412
 21
113.735249
  0
LINE
  8
CSLAYER1
  6
CONTINUOUS
 62
     5
 10
2840.436412
 20
106.232640
 11
2831.593854
 21
108.543302
  0
LINE
  8
CSLAYER1
  6
CONTINUOUS
 62
     5
 10
2817.782649
 20
111.878304
 11
2827.936412
 21
109.905920
  0
LINE
  8
CSLAYER1
  6
CONTINUOUS
 62
     5
 10
2827.936412
 20
109.905920
 11
2831.593854
 21
108.543302
  0
LINE
  8
CSLAYER1
  6
CONTINUOUS
 62
     5
 10
2840.436412
 20
106.232640
 11
2840.143795
 21
105.393534
  0
LINE
  8
CSLAYER1
  6
CONTINUOUS
 62
     5
 10
2849.936412
 20
100.732640
 11
2849.630385
 21
101.961621
  0
LINE
  8
CSLAYER1
  6
CONTINUOUS
 62
     5
 10
2840.143795
 20
105.393534
 11
2849.630385
 21
101.961621
  0
LINE
  8
CSLAYER1
  6
CONTINUOUS
 62
     5
 10
2786.436412
 20
106.232640
 11
2788.859450
 21
106.232640
  0
LINE
  8
CSLAYER1
  6
CONTINUOUS
 62
     5
 10
2808.936412
 20
106.665135
 11
2808.936412
 21
106.232640
  0
LINE
  8
CSLAYER1
  6
CONTINUOUS
 62
     5
 10
2807.936412
 20
107.199576
 11
2806.225133
 21
107.836755
  0
LINE
  8
CSLAYER1
  6
CONTINUOUS
 62
     5
 10
2806.225133
 20
107.836755
 11
2805.115077
 21
107.887212
  0
LINE
  8
CSLAYER1
  6
CONTINUOUS
 62
     5
 10
2805.115077
 20
107.887212
 11
2804.635735
 21
107.634926
  0
LINE
  8
CSLAYER1
  6
CONTINUOUS
 62
     5
 10
2804.635735
 20
107.634926
 11
2804.534821
 21
107.231270
  0
LINE
  8
CSLAYER1
  6
CONTINUOUS
 62
     5
 10
2804.534821
 20
107.231270
 11
2804.988934
 21
106.928527
  0
LINE
  8
CSLAYER1
  6
CONTINUOUS
 62
     5
 10
2804.988934
 20
106.928527
 11
2806.628790
 21
106.777156
  0
LINE
  8
CSLAYER1
  6
CONTINUOUS
 62
     5
 10
2806.628790
 20
106.777156
 11
2808.936412
 21
106.665135
  0
LINE
  8
CSLAYER1
  6
CONTINUOUS
 62
     5
 10
2849.936412
 20
100.732640
 11
2846.960870
 21
101.919221
  0
LINE
  8
CSLAYER1
  6
CONTINUOUS
 62
     5
 10
2846.960870
 20
101.919221
 11
2836.905180
 21
103.762097
  0
LINE
  8
CSLAYER1
  6
CONTINUOUS
 62
     5
 10
2836.905180
 20
103.762097
 11
2831.879400
 21
104.921892
  0
LINE
  8
CSLAYER1
  6
CONTINUOUS
 62
     5
 10
2809.470633
 20
107.232640
 11
2821.236299
 21
107.232640
  0
LINE
  8
CSLAYER1
  6
CONTINUOUS
 62
     5
 10
2807.936412
 20
107.199576
 11
2808.461072
 21
106.891109
  0
LINE
  8
CSLAYER1
  6
CONTINUOUS
 62
     5
 10
2808.461072
 20
106.891109
 11
2808.757884
 21
106.802065
  0
LINE
  8
CSLAYER1
  6
CONTINUOUS
 62
     5
 10
2808.757884
 20
106.802065
 11
2808.936412
 21
106.827236
  0
LINE
  8
CSLAYER1
  6
CONTINUOUS
 62
     5
 10
2808.936412
 20
106.827236
 11
2809.470633
 21
107.232640
  0
LINE
  8
CSLAYER1
  6
CONTINUOUS
 62
     5
 10
2821.236299
 20
107.232640
 11
2825.686568
 21
106.203814
  0
LINE
  8
CSLAYER1
  6
CONTINUOUS
 62
     5
 10
2825.686568
 20
106.203814
 11
2829.839760
 21
105.038665
  0
LINE
  8
CSLAYER1
  6
CONTINUOUS
 62
     5
 10
2829.839760
 20
105.038665
 11
2831.879400
 21
104.921892
  0
LINE
  8
CSLAYER1
  6
CONTINUOUS
 62
     5
 10
2785.436412
 20
105.232640
 11
2785.436412
 21
104.732640
  0
LINE
  8
CSLAYER1
  6
CONTINUOUS
 62
     5
 10
2782.936412
 20
104.732640
 11
2785.436412
 21
104.732640
  0
ARC
  8
CSLAYER1
  6
CONTINUOUS
 62
     5
 10
2786.436412
 20
105.232640
 40
1.000000
 50
90.000000
 51
180.000000
  0
LINE
  8
CSLAYER1
  6
CONTINUOUS
 62
     5
 10
2788.859450
 20
106.232640
 11
2789.557007
 21
105.660643
  0
LINE
  8
CSLAYER1
  6
CONTINUOUS
 62
     5
 10
2790.159375
 20
105.636683
 11
2791.016972
 21
106.232640
  0
LINE
  8
CSLAYER1
  6
CONTINUOUS
 62
     5
 10
2792.595368
 20
106.232640
 11
2794.262494
 21
105.574564
  0
LINE
  8
CSLAYER1
  6
CONTINUOUS
 62
     5
 10
2794.686203
 20
105.601076
 11
2795.839690
 21
106.232640
  0
LINE
  8
CSLAYER1
  6
CONTINUOUS
 62
     5
 10
2791.016972
 20
106.232640
 11
2792.595368
 21
106.232640
  0
LINE
  8
CSLAYER1
  6
CONTINUOUS
 62
     5
 10
2795.839690
 20
106.232640
 11
2808.936412
 21
106.232640
  0
LINE
  8
CSLAYER1
  6
CONTINUOUS
 62
     5
 10
2761.485395
 20
103.123813
 11
2782.936412
 21
104.732640
  0
LINE
  8
CSLAYER1
  6
CONTINUOUS
 62
     5
 10
2757.484045
 20
103.209864
 11
2761.485395
 21
103.123813
  0
ARC
  8
CSLAYER1
  6
CONTINUOUS
 62
     5
 10
2789.874047
 20
106.047277
 40
0.500000
 50
230.648247
 51
304.796026
  0
ARC
  8
CSLAYER1
  6
CONTINUOUS
 62
     5
 10
2794.446077
 20
106.039642
 40
0.500000
 50
248.459024
 51
298.701829
  0
ARC
  8
CSLAYER1
  6
CONTINUOUS
 62
     5
 10
2749.691800
 20
112.747751
 40
0.300000
 50
-84.093859
 51
36.869898
  0
ARC
  8
CSLAYER1
  6
CONTINUOUS
 62
     5
 10
2749.226196
 20
114.679023
 40
0.700000
 50
85.301319
 51
194.142980
  0
LINE
  8
CSLAYER1
  6
CONTINUOUS
 62
     3
 10
2781.418237
 20
97.465795
 11
2789.528732
 21
97.465795
  0
LINE
  8
CSLAYER1
  6
CONTINUOUS
 62
     3
 10
2775.005720
 20
95.865795
 11
2792.649061
 21
95.865795
  0
LINE
  8
CSLAYER1
  6
CONTINUOUS
 62
     3
 10
2771.592781
 20
94.265795
 11
2795.524426
 21
94.265795
  0
LINE
  8
CSLAYER1
  6
CONTINUOUS
 62
     3
 10
2769.357462
 20
92.665795
 11
2797.367899
 21
92.665795
  0
LINE
  8
CSLAYER1
  6
CONTINUOUS
 62
     3
 10
2767.861806
 20
91.065795
 11
2798.602184
 21
91.065795
  0
LINE
  8
CSLAYER1
  6
CONTINUOUS
 62
     3
 10
2766.641492
 20
89.465795
 11
2799.651561
 21
89.465795
  0
LINE
  8
CSLAYER1
  6
CONTINUOUS
 62
     3
 10
2765.949600
 20
87.865795
 11
2800.377436
 21
87.865795
  0
LINE
  8
CSLAYER1
  6
CONTINUOUS
 62
     3
 10
2765.257708
 20
86.265795
 11
2800.715822
 21
86.265795
  0
LINE
  8
CSLAYER1
  6
CONTINUOUS
 62
     3
 10
2764.609358
 20
84.665795
 11
2801.054208
 21
84.665795
  0
LINE
  8
CSLAYER1
  6
CONTINUOUS
 62
     3
 10
2764.287699
 20
83.065795
 11
2801.392594
 21
83.065795
  0
LINE
  8
CSLAYER1
  6
CONTINUOUS
 62
     3
 10
2763.966040
 20
81.465795
 11
2779.556283
 21
81.465795
  0
LINE
  8
CSLAYER1
  6
CONTINUOUS
 62
     3
 10
2763.644381
 20
79.865795
 11
2778.024022
 21
79.865795
  0
LINE
  8
CSLAYER1
  6
CONTINUOUS
 62
     3
 10
2763.322722
 20
78.265795
 11
2777.235852
 21
78.265795
  0
LINE
  8
CSLAYER1
  6
CONTINUOUS
 62
     3
 10
2763.081604
 20
76.665795
 11
2776.917085
 21
76.665795
  0
LINE
  8
CSLAYER1
  6
CONTINUOUS
 62
     3
 10
2762.961434
 20
75.065795
 11
2776.967106
 21
75.065795
  0
LINE
  8
CSLAYER1
  6
CONTINUOUS
 62
     3
 10
2762.936412
 20
73.465795
 11
2777.513193
 21
73.465795
  0
LINE
  8
CSLAYER1
  6
CONTINUOUS
 62
     3
 10
2763.435600
 20
71.865795
 11
2779.543195
 21
71.865795
  0
LINE
  8
CSLAYER1
  6
CONTINUOUS
 62
     3
 10
2764.146711
 20
70.265795
 11
2796.674567
 21
70.265795
  0
LINE
  8
CSLAYER1
  6
CONTINUOUS
 62
     3
 10
2764.857823
 20
68.665795
 11
2796.223285
 21
68.665795
  0
LINE
  8
CSLAYER1
  6
CONTINUOUS
 62
     3
 10
2765.568934
 20
67.065795
 11
2795.500261
 21
67.065795
  0
LINE
  8
CSLAYER1
  6
CONTINUOUS
 62
     3
 10
2766.530893
 20
65.465795
 11
2794.602074
 21
65.465795
  0
LINE
  8
CSLAYER1
  6
CONTINUOUS
 62
     3
 10
2767.779354
 20
63.865795
 11
2793.097148
 21
63.865795
  0
LINE
  8
CSLAYER1
  6
CONTINUOUS
 62
     3
 10
2769.384774
 20
62.265795
 11
2790.704687
 21
62.265795
  0
LINE
  8
CSLAYER1
  6
CONTINUOUS
 62
     3
 10
2771.531916
 20
60.665795
 11
2787.579564
 21
60.665795
  0
LINE
  8
CSLAYER1
  6
CONTINUOUS
 62
     3
 10
2774.779606
 20
59.065795
 11
2782.941415
 21
59.065795
  0
LINE
  8
CSLAYER1
  6
CONTINUOUS
 62
     3
 10
2784.748107
 20
81.465795
 11
2801.567844
 21
81.465795
  0
LINE
  8
CSLAYER1
  6
CONTINUOUS
 62
     3
 10
2785.418851
 20
79.865795
 11
2801.442074
 21
79.865795
  0
LINE
  8
CSLAYER1
  6
CONTINUOUS
 62
     3
 10
2785.530858
 20
78.265795
 11
2801.316305
 21
78.265795
  0
LINE
  8
CSLAYER1
  6
CONTINUOUS
 62
     3
 10
2785.285501
 20
76.665795
 11
2800.602449
 21
76.665795
  0
LINE
  8
CSLAYER1
  6
CONTINUOUS
 62
     3
 10
2784.633855
 20
75.065795
 11
2799.881249
 21
75.065795
  0
LINE
  8
CSLAYER1
  6
CONTINUOUS
 62
     3
 10
2783.500592
 20
73.465795
 11
2798.947301
 21
73.465795
  0
LINE
  8
CSLAYER1
  6
CONTINUOUS
 62
     3
 10
2781.244595
 20
71.865795
 11
2797.676594
 21
71.865795
  0
TEXT
  8
CSLAYER1
 62
     5
 10
2802.108183
 20
79.476970
 40
4.713448
 41
1.951056
  1
M
 50
0.000000
 51
0.000000
  7
EASYDRAW_FONT
 72
     5
 11
2808.238985
 21
79.476970
  0
TEXT
  8
CSLAYER1
 62
     5
 10
2811.759570
 20
79.418700
 40
4.626621
 41
0.778201
  1
T
 50
0.000000
 51
0.000000
  7
EASYDRAW_FONT
 72
     5
 11
2814.159863
 21
79.418700
  0
TEXT
  8
CSLAYER1
 62
     5
 10
2814.525133
 20
79.453499
 40
4.696183
 41
1.055553
  1
E
 50
0.000000
 51
0.000000
  7
EASYDRAW_FONT
 72
     5
 11
2817.829848
 21
79.453499
  0
TEXT
  8
CSLAYER1
 62
     5
 10
2817.641314
 20
81.069343
 40
0.348283
 41
9.375319
  1
-
 50
0.000000
 51
0.000000
  7
EASYDRAW_FONT
 72
     5
 11
2819.818159
 21
81.069343
  0
TEXT
  8
CSLAYER1
 62
     5
 10
2819.455523
 20
79.422152
 40
4.861659
 41
1.298502
  1
H
 50
0.000000
 51
0.000000
  7
EASYDRAW_FONT
 72
     5
 11
2823.664106
 21
79.422152
  0
TEXT
  8
CSLAYER1
 62
     5
 10
2823.531538
 20
79.452530
 40
4.843139
 41
1.269236
  1
A
 50
0.000000
 51
0.000000
  7
EASYDRAW_FONT
 72
     5
 11
2827.629595
 21
79.452530
  0
TEXT
  8
CSLAYER1
 62
     5
 10
2827.237694
 20
79.411004
 40
4.825362
 41
1.490144
  1
N
 50
0.000000
 51
0.000000
  7
EASYDRAW_FONT
 72
     5
 11
2832.031349
 21
79.411004
  0
TEXT
  8
CSLAYER1
 62
     5
 10
2808.029152
 20
79.388431
 40
4.982325
 41
1.177443
  1
A
 50
0.000000
 51
0.000000
  7
EASYDRAW_FONT
 72
     5
 11
2811.940086
 21
79.388431
  0
TEXT
  8
CSLAYER1
 62
     5
 10
2802.475197
 20
72.393191
 40
4.982325
 41
1.177443
  1
A
 50
0.000000
 51
0.000000
  7
EASYDRAW_FONT
 72
     5
 11
2806.386131
 21
72.393191
  0
TEXT
  8
CSLAYER1
 62
     5
 10
2815.259621
 20
72.421512
 40
4.982325
 41
1.177443
  1
A
 50
0.000000
 51
0.000000
  7
EASYDRAW_FONT
 72
     5
 11
2819.170555
 21
72.421512
  0
TEXT
  8
CSLAYER1
 62
     5
 10
2819.020165
 20
72.478509
 40
4.825362
 41
1.490144
  1
N
 50
0.000000
 51
0.000000
  7
EASYDRAW_FONT
 72
     5
 11
2823.813819
 21
72.478509
  0
TEXT
  8
CSLAYER1
 62
     5
 10
2827.922501
 20
72.486903
 40
4.841775
 41
1.184218
  1
E
 50
0.000000
 51
0.000000
  7
EASYDRAW_FONT
 72
     5
 11
2831.744980
 21
72.486903
  0
TEXT
  8
CSLAYER1
 62
     5
 10
2806.755750
 20
72.391867
 40
4.947865
 41
1.093992
  1
D
 50
0.000000
 51
0.000000
  7
EASYDRAW_FONT
 72
     5
 11
2810.364367
 21
72.391867
  0
TEXT
  8
CSLAYER1
 62
     5
 10
2811.158109
 20
72.386482
 40
4.924210
 41
1.228195
  1
V
 50
0.000000
 51
0.000000
  7
EASYDRAW_FONT
 72
     5
 11
2815.190036
 21
72.386482
  0
TEXT
  8
CSLAYER1
 62
     5
 10
2823.383310
 20
72.407213
 40
5.032894
 41
1.481023
  1
C
 50
0.000000
 51
0.000000
  7
EASYDRAW_FONT
 72
     5
 11
2828.352530
 21
72.407213
  0
LINE
  8
CSLAYER1
  6
CONTINUOUS
 62
     5
 10
2814.013749
 20
83.467612
 11
2813.001687
 21
83.467612
  0
LINE
  8
CSLAYER1
  6
CONTINUOUS
 62
     3
 10
2763.111987
 20
117.692883
 11
2812.909813
 21
117.692883
  0
LINE
  8
CSLAYER1
  6
CONTINUOUS
 62
     3
 10
2755.999623
 20
116.092883
 11
2823.989505
 21
116.092883
  0
LINE
  8
CSLAYER1
  6
CONTINUOUS
 62
     3
 10
2748.551219
 20
114.492883
 11
2793.974529
 21
114.492883
  0
LINE
  8
CSLAYER1
  6
CONTINUOUS
 62
     3
 10
2806.936079
 20
114.492883
 11
2816.522682
 21
114.492883
  0
LINE
  8
CSLAYER1
  6
CONTINUOUS
 62
     3
 10
2820.831816
 20
114.492883
 11
2829.344813
 21
114.492883
  0
LINE
  8
CSLAYER1
  6
CONTINUOUS
 62
     3
 10
2749.954358
 20
112.892883
 11
2806.660827
 21
112.892883
  0
LINE
  8
CSLAYER1
  6
CONTINUOUS
 62
     3
 10
2826.840965
 20
112.892883
 11
2832.947211
 21
112.892883
  0
LINE
  8
CSLAYER1
  6
CONTINUOUS
 62
     3
 10
2748.042024
 20
111.292883
 11
2820.796375
 21
111.292883
  0
LINE
  8
CSLAYER1
  6
CONTINUOUS
 62
     3
 10
2832.742264
 20
111.292883
 11
2834.975986
 21
111.292883
  0
LINE
  8
CSLAYER1
  6
CONTINUOUS
 62
     3
 10
2746.979799
 20
109.692883
 11
2828.508231
 21
109.692883
  0
LINE
  8
CSLAYER1
  6
CONTINUOUS
 62
     3
 10
2748.655466
 20
108.092883
 11
2833.317540
 21
108.092883
  0
LINE
  8
CSLAYER1
  6
CONTINUOUS
 62
     3
 10
2749.823033
 20
106.492883
 11
2808.936412
 21
106.492883
  0
LINE
  8
CSLAYER1
  6
CONTINUOUS
 62
     3
 10
2824.436177
 20
106.492883
 11
2839.440500
 21
106.492883
  0
LINE
  8
CSLAYER1
  6
CONTINUOUS
 62
     3
 10
2750.068157
 20
104.892883
 11
2785.436412
 21
104.892883
  0
LINE
  8
CSLAYER1
  6
CONTINUOUS
 62
     3
 10
2832.005106
 20
104.892883
 11
2841.527709
 21
104.892883
  0
LINE
  8
CSLAYER1
  6
CONTINUOUS
 62
     3
 10
2750.274482
 20
103.292883
 11
2763.739655
 21
103.292883
  0
LINE
  8
CSLAYER1
  6
CONTINUOUS
 62
     3
 10
2839.465455
 20
103.292883
 11
2845.950473
 21
103.292883
  0
LINE
  8
CSLAYER1
  6
CONTINUOUS
 62
     3
 10
2847.528449
 20
101.692883
 11
2849.697303
 21
101.692883
  0
ENDBLK
  8
0
  0
BLOCK
  8
CSLAYER1
  2
BLKF0001
 70
   64
 10
0.0
 20
0.0
 30
0.0
  0
LINE
  8
CSLAYER1
  6
CONTINUOUS
 62
     3
 10
1018.655327
 20
1634.495850
 11
1018.655327
 21
1572.495850
  0
LINE
  8
CSLAYER1
  6
CONTINUOUS
 62
     3
 10
1016.155327
 20
1636.995850
 11
931.155327
 21
1636.995850
  0
LINE
  8
CSLAYER1
  6
CENTER
 62
     5
 10
1077.004965
 20
1564.495850
 11
1018.655327
 21
1564.495850
  0
LINE
  8
CSLAYER1
  6
CONTINUOUS
 62
     2
 10
1016.155327
 20
1580.495850
 11
931.155327
 21
1580.495850
  0
LINE
  8
CSLAYER1
  6
CONTINUOUS
 62
     3
 10
1016.155327
 20
1631.995850
 11
1016.155327
 21
1586.995850
  0
LINE
  8
CSLAYER1
  6
CONTINUOUS
 62
     3
 10
928.655327
 20
1634.495850
 11
928.655327
 21
1564.495850
  0
LINE
  8
CSLAYER1
  6
CONTINUOUS
 62
     3
 10
1013.655327
 20
1634.495850
 11
936.655327
 21
1634.495850
  0
LINE
  8
CSLAYER1
  6
CONTINUOUS
 62
     3
 10
1013.655327
 20
1584.495850
 11
936.655327
 21
1584.495850
  0
ARC
  8
CSLAYER1
  6
CONTINUOUS
 62
     3
 10
990.723508
 20
1609.495850
 40
59.568182
 50
155.185163
 51
204.814837
  0
ARC
  8
CSLAYER1
  6
CONTINUOUS
 62
     3
 10
1013.655327
 20
1631.995850
 40
2.500000
 50
0.000000
 51
90.000000
  0
ARC
  8
CSLAYER1
  6
CONTINUOUS
 62
     3
 10
1013.655327
 20
1586.995850
 40
2.500000
 50
-90.000000
 51
0.000000
  0
ARC
  8
CSLAYER1
  6
CONTINUOUS
 62
     3
 10
1016.155327
 20
1634.495850
 40
2.500000
 50
0.000000
 51
90.000000
  0
ARC
  8
CSLAYER1
  6
CONTINUOUS
 62
     3
 10
931.155327
 20
1634.495850
 40
2.500000
 50
90.000000
 51
180.000000
  0
ARC
  8
CSLAYER1
  6
CONTINUOUS
 62
     2
 10
931.155327
 20
1577.995850
 40
2.500000
 50
90.000000
 51
180.000000
  0
ARC
  8
CSLAYER1
  6
CONTINUOUS
 62
     2
 10
1016.155327
 20
1577.995850
 40
2.500000
 50
0.000000
 51
90.000000
  0
LINE
  8
CSLAYER1
  6
CONTINUOUS
 62
     3
 10
1018.655327
 20
1494.495850
 11
1018.655327
 21
1556.495850
  0
LINE
  8
CSLAYER1
  6
CONTINUOUS
 62
     3
 10
1016.155327
 20
1491.995850
 11
931.155327
 21
1491.995850
  0
LINE
  8
CSLAYER1
  6
CONTINUOUS
 62
     2
 10
1016.155327
 20
1548.495850
 11
931.155327
 21
1548.495850
  0
LINE
  8
CSLAYER1
  6
CONTINUOUS
 62
     3
 10
928.655327
 20
1494.495850
 11
928.655327
 21
1564.495850
  0
ARC
  8
CSLAYER1
  6
CONTINUOUS
 62
     3
 10
1016.155327
 20
1494.495850
 40
2.500000
 50
-90.000000
 51
0.000000
  0
ARC
  8
CSLAYER1
  6
CONTINUOUS
 62
     3
 10
931.155327
 20
1494.495850
 40
2.500000
 50
180.000000
 51
270.000000
  0
ARC
  8
CSLAYER1
  6
CONTINUOUS
 62
     2
 10
931.155327
 20
1550.995850
 40
2.500000
 50
180.000000
 51
270.000000
  0
ARC
  8
CSLAYER1
  6
CONTINUOUS
 62
     2
 10
1016.155327
 20
1550.995850
 40
2.500000
 50
-90.000000
 51
0.000000
  0
LINE
  8
CSLAYER1
  6
CONTINUOUS
 62
     3
 10
1016.155327
 20
1496.995850
 11
1016.155327
 21
1541.995850
  0
LINE
  8
CSLAYER1
  6
CONTINUOUS
 62
     3
 10
1013.655327
 20
1494.495850
 11
936.655327
 21
1494.495850
  0
LINE
  8
CSLAYER1
  6
CONTINUOUS
 62
     3
 10
1013.655327
 20
1544.495850
 11
936.655327
 21
1544.495850
  0
ARC
  8
CSLAYER1
  6
CONTINUOUS
 62
     3
 10
990.723508
 20
1519.495850
 40
59.568182
 50
155.185163
 51
204.814837
  0
ARC
  8
CSLAYER1
  6
CONTINUOUS
 62
     3
 10
1013.655327
 20
1496.995850
 40
2.500000
 50
-90.000000
 51
0.000000
  0
ARC
  8
CSLAYER1
  6
CONTINUOUS
 62
     3
 10
1013.655327
 20
1541.995850
 40
2.500000
 50
0.000000
 51
90.000000
  0
LINE
  8
CSLAYER1
  6
CONTINUOUS
 62
     3
 10
1025.655327
 20
1557.495850
 11
1025.655327
 21
1560.995850
  0
LINE
  8
CSLAYER1
  6
CONTINUOUS
 62
     3
 10
1077.004965
 20
1560.995850
 11
1025.655327
 21
1560.995850
  0
LINE
  8
CSLAYER1
  6
CONTINUOUS
 62
     3
 10
1024.655327
 20
1556.495850
 11
1018.655327
 21
1556.495850
  0
LINE
  8
CSLAYER1
  6
CONTINUOUS
 62
     3
 10
1024.655327
 20
1572.495850
 11
1018.655327
 21
1572.495850
  0
LINE
  8
CSLAYER1
  6
CONTINUOUS
 62
     3
 10
1077.004965
 20
1567.995850
 11
1025.655327
 21
1567.995850
  0
ARC
  8
CSLAYER1
  6
CONTINUOUS
 62
     3
 10
1024.655327
 20
1571.495850
 40
1.000000
 50
0.000000
 51
90.000000
  0
ARC
  8
CSLAYER1
  6
CONTINUOUS
 62
     3
 10
1024.655327
 20
1557.495850
 40
1.000000
 50
-90.000000
 51
0.000000
  0
LINE
  8
CSLAYER1
  6
CONTINUOUS
 62
     3
 10
1025.655327
 20
1567.995850
 11
1025.655327
 21
1571.495850
  0
LINE
  8
CSLAYER1
  6
CONTINUOUS
 62
     2
 10
1025.655327
 20
1560.995850
 11
1025.655327
 21
1567.995850
  0
LINE
  8
CSLAYER1
  6
CONTINUOUS
 62
     2
 10
1018.655327
 20
1572.495850
 11
1018.655327
 21
1564.495850
  0
LINE
  8
CSLAYER1
  6
CONTINUOUS
 62
     2
 10
1018.655327
 20
1556.495850
 11
1018.655327
 21
1564.495850
  0
LINE
  8
CSLAYER1
  6
CONTINUOUS
 62
     2
 10
999.162315
 20
1576.658510
 11
1008.297315
 21
1576.658510
  0
LINE
  8
CSLAYER1
  6
CONTINUOUS
 62
     2
 10
999.162315
 20
1553.033510
 11
1008.297315
 21
1553.033510
  0
LINE
  8
CSLAYER1
  6
CONTINUOUS
 62
     2
 10
1009.557315
 20
1575.398510
 11
1009.557315
 21
1554.293510
  0
LINE
  8
CSLAYER1
  6
CONTINUOUS
 62
     2
 10
997.902315
 20
1575.398510
 11
997.902315
 21
1554.293510
  0
LINE
  8
CSLAYER1
  6
CONTINUOUS
 62
     2
 10
999.792315
 20
1554.923510
 11
1007.824815
 21
1554.923510
  0
LINE
  8
CSLAYER1
  6
CONTINUOUS
 62
     2
 10
999.792315
 20
1558.073510
 11
1000.737315
 21
1558.073510
  0
LINE
  8
CSLAYER1
  6
CONTINUOUS
 62
     2
 10
999.792315
 20
1566.736010
 11
1000.737315
 21
1566.736010
  0
LINE
  8
CSLAYER1
  6
CONTINUOUS
 62
     2
 10
999.792315
 20
1571.303510
 11
1004.832315
 21
1571.303510
  0
LINE
  8
CSLAYER1
  6
CONTINUOUS
 62
     2
 10
998.689815
 20
1570.201010
 11
998.689815
 21
1567.838510
  0
LINE
  8
CSLAYER1
  6
CONTINUOUS
 62
     2
 10
1005.934815
 20
1570.201010
 11
1005.934815
 21
1567.838510
  0
LINE
  8
CSLAYER1
  6
CONTINUOUS
 62
     2
 10
1008.927315
 20
1556.971010
 11
1008.927315
 21
1556.026010
  0
LINE
  8
CSLAYER1
  6
CONTINUOUS
 62
     2
 10
1001.682315
 20
1565.791010
 11
1001.682315
 21
1559.018510
  0
LINE
  8
CSLAYER1
  6
CONTINUOUS
 62
     2
 10
1002.469815
 20
1565.791010
 11
1002.469815
 21
1559.018510
  0
ARC
  8
CSLAYER1
  6
CONTINUOUS
 62
     2
 10
999.792315
 20
1570.201010
 40
1.102500
 50
90.000000
 51
180.000000
  0
ARC
  8
CSLAYER1
  6
CONTINUOUS
 62
     2
 10
1004.832315
 20
1570.201010
 40
1.102500
 50
0.000000
 51
90.000000
  0
ARC
  8
CSLAYER1
  6
CONTINUOUS
 62
     2
 10
1004.832315
 20
1567.838510
 40
1.102500
 50
-90.000000
 51
0.000000
  0
ARC
  8
CSLAYER1
  6
CONTINUOUS
 62
     2
 10
999.792315
 20
1567.838510
 40
1.102500
 50
180.000000
 51
270.000000
  0
ARC
  8
CSLAYER1
  6
CONTINUOUS
 62
     2
 10
1007.824815
 20
1556.971010
 40
1.102500
 50
0.000000
 51
90.000000
  0
ARC
  8
CSLAYER1
  6
CONTINUOUS
 62
     2
 10
1007.824815
 20
1556.026010
 40
1.102500
 50
-90.000000
 51
0.000000
  0
ARC
  8
CSLAYER1
  6
CONTINUOUS
 62
     2
 10
999.792315
 20
1556.026010
 40
1.102500
 50
180.000000
 51
270.000000
  0
ARC
  8
CSLAYER1
  6
CONTINUOUS
 62
     2
 10
999.792315
 20
1556.971010
 40
1.102500
 50
90.000000
 51
180.000000
  0
LINE
  8
CSLAYER1
  6
CONTINUOUS
 62
     2
 10
1003.414815
 20
1566.736010
 11
1004.832315
 21
1566.736010
  0
LINE
  8
CSLAYER1
  6
CONTINUOUS
 62
     2
 10
1003.414815
 20
1558.073510
 11
1007.824815
 21
1558.073510
  0
ARC
  8
CSLAYER1
  6
CONTINUOUS
 62
     2
 10
1000.737315
 20
1565.791010
 40
0.945000
 50
0.000000
 51
90.000000
  0
ARC
  8
CSLAYER1
  6
CONTINUOUS
 62
     2
 10
1003.414815
 20
1565.791010
 40
0.945000
 50
90.000000
 51
180.000000
  0
ARC
  8
CSLAYER1
  6
CONTINUOUS
 62
     2
 10
1003.414815
 20
1559.018510
 40
0.945000
 50
180.000000
 51
270.000000
  0
ARC
  8
CSLAYER1
  6
CONTINUOUS
 62
     2
 10
999.162315
 20
1575.398510
 40
1.260000
 50
90.000000
 51
180.000000
  0
ARC
  8
CSLAYER1
  6
CONTINUOUS
 62
     2
 10
1008.297315
 20
1575.398510
 40
1.260000
 50
0.000000
 51
90.000000
  0
ARC
  8
CSLAYER1
  6
CONTINUOUS
 62
     2
 10
1008.297315
 20
1554.293510
 40
1.260000
 50
-90.000000
 51
0.000000
  0
ARC
  8
CSLAYER1
  6
CONTINUOUS
 62
     2
 10
999.162315
 20
1554.293510
 40
1.260000
 50
180.000000
 51
270.000000
  0
ARC
  8
CSLAYER1
  6
CONTINUOUS
 62
     2
 10
1000.737315
 20
1559.018510
 40
0.945000
 50
-90.000000
 51
0.000000
  0
LINE
  8
CSLAYER1
  6
CONTINUOUS
 62
     2
 10
998.689815
 20
1556.971010
 11
998.689815
 21
1556.026010
  0
CIRCLE
  8
CSLAYER1
  6
CONTINUOUS
 62
     2
 10
984.155327
 20
1614.495850
 40
2.500000
  0
CIRCLE
  8
CSLAYER1
  6
CONTINUOUS
 62
     2
 10
984.155327
 20
1624.495850
 40
2.500000
  0
CIRCLE
  8
CSLAYER1
  6
CONTINUOUS
 62
     2
 10
974.155327
 20
1624.495850
 40
2.500000
  0
CIRCLE
  8
CSLAYER1
  6
CONTINUOUS
 62
     2
 10
974.155327
 20
1614.495850
 40
2.500000
  0
CIRCLE
  8
CSLAYER1
  6
CONTINUOUS
 62
     2
 10
964.155327
 20
1614.495850
 40
2.500000
  0
CIRCLE
  8
CSLAYER1
  6
CONTINUOUS
 62
     2
 10
964.155327
 20
1624.495850
 40
2.500000
  0
CIRCLE
  8
CSLAYER1
  6
CONTINUOUS
 62
     2
 10
954.155327
 20
1624.495850
 40
2.500000
  0
CIRCLE
  8
CSLAYER1
  6
CONTINUOUS
 62
     2
 10
954.155327
 20
1614.495850
 40
2.500000
  0
CIRCLE
  8
CSLAYER1
  6
CONTINUOUS
 62
     2
 10
944.155327
 20
1614.495850
 40
2.500000
  0
CIRCLE
  8
CSLAYER1
  6
CONTINUOUS
 62
     2
 10
944.155327
 20
1624.495850
 40
2.500000
  0
CIRCLE
  8
CSLAYER1
  6
CONTINUOUS
 62
     2
 10
984.155327
 20
1604.495850
 40
2.500000
  0
CIRCLE
  8
CSLAYER1
  6
CONTINUOUS
 62
     2
 10
984.155327
 20
1594.495850
 40
2.500000
  0
CIRCLE
  8
CSLAYER1
  6
CONTINUOUS
 62
     2
 10
974.155327
 20
1594.495850
 40
2.500000
  0
CIRCLE
  8
CSLAYER1
  6
CONTINUOUS
 62
     2
 10
974.155327
 20
1604.495850
 40
2.500000
  0
CIRCLE
  8
CSLAYER1
  6
CONTINUOUS
 62
     2
 10
964.155327
 20
1604.495850
 40
2.500000
  0
CIRCLE
  8
CSLAYER1
  6
CONTINUOUS
 62
     2
 10
964.155327
 20
1594.495850
 40
2.500000
  0
CIRCLE
  8
CSLAYER1
  6
CONTINUOUS
 62
     2
 10
954.155327
 20
1594.495850
 40
2.500000
  0
CIRCLE
  8
CSLAYER1
  6
CONTINUOUS
 62
     2
 10
954.155327
 20
1604.495850
 40
2.500000
  0
CIRCLE
  8
CSLAYER1
  6
CONTINUOUS
 62
     2
 10
944.155327
 20
1604.495850
 40
2.500000
  0
CIRCLE
  8
CSLAYER1
  6
CONTINUOUS
 62
     2
 10
944.155327
 20
1594.495850
 40
2.500000
  0
CIRCLE
  8
CSLAYER1
  6
CONTINUOUS
 62
     2
 10
984.155327
 20
1514.495850
 40
2.500000
  0
CIRCLE
  8
CSLAYER1
  6
CONTINUOUS
 62
     2
 10
984.155327
 20
1504.495850
 40
2.500000
  0
CIRCLE
  8
CSLAYER1
  6
CONTINUOUS
 62
     2
 10
974.155327
 20
1504.495850
 40
2.500000
  0
CIRCLE
  8
CSLAYER1
  6
CONTINUOUS
 62
     2
 10
974.155327
 20
1514.495850
 40
2.500000
  0
CIRCLE
  8
CSLAYER1
  6
CONTINUOUS
 62
     2
 10
964.155327
 20
1514.495850
 40
2.500000
  0
CIRCLE
  8
CSLAYER1
  6
CONTINUOUS
 62
     2
 10
964.155327
 20
1504.495850
 40
2.500000
  0
CIRCLE
  8
CSLAYER1
  6
CONTINUOUS
 62
     2
 10
954.155327
 20
1504.495850
 40
2.500000
  0
CIRCLE
  8
CSLAYER1
  6
CONTINUOUS
 62
     2
 10
954.155327
 20
1514.495850
 40
2.500000
  0
CIRCLE
  8
CSLAYER1
  6
CONTINUOUS
 62
     2
 10
944.155327
 20
1514.495850
 40
2.500000
  0
CIRCLE
  8
CSLAYER1
  6
CONTINUOUS
 62
     2
 10
944.155327
 20
1504.495850
 40
2.500000
  0
CIRCLE
  8
CSLAYER1
  6
CONTINUOUS
 62
     2
 10
984.155327
 20
1524.495850
 40
2.500000
  0
CIRCLE
  8
CSLAYER1
  6
CONTINUOUS
 62
     2
 10
984.155327
 20
1534.495850
 40
2.500000
  0
CIRCLE
  8
CSLAYER1
  6
CONTINUOUS
 62
     2
 10
974.155327
 20
1534.495850
 40
2.500000
  0
CIRCLE
  8
CSLAYER1
  6
CONTINUOUS
 62
     2
 10
974.155327
 20
1524.495850
 40
2.500000
  0
CIRCLE
  8
CSLAYER1
  6
CONTINUOUS
 62
     2
 10
964.155327
 20
1524.495850
 40
2.500000
  0
CIRCLE
  8
CSLAYER1
  6
CONTINUOUS
 62
     2
 10
964.155327
 20
1534.495850
 40
2.500000
  0
CIRCLE
  8
CSLAYER1
  6
CONTINUOUS
 62
     2
 10
954.155327
 20
1534.495850
 40
2.500000
  0
CIRCLE
  8
CSLAYER1
  6
CONTINUOUS
 62
     2
 10
954.155327
 20
1524.495850
 40
2.500000
  0
CIRCLE
  8
CSLAYER1
  6
CONTINUOUS
 62
     2
 10
944.155327
 20
1524.495850
 40
2.500000
  0
CIRCLE
  8
CSLAYER1
  6
CONTINUOUS
 62
     2
 10
944.155327
 20
1534.495850
 40
2.500000
  0
LINE
  8
CSLAYER1
  6
CONTINUOUS
 62
     2
 10
1010.155327
 20
1536.995850
 11
1010.155327
 21
1501.995850
  0
LINE
  8
CSLAYER1
  6
CONTINUOUS
 62
     2
 10
994.155327
 20
1536.995850
 11
994.155327
 21
1501.995850
  0
LINE
  8
CSLAYER1
  6
CONTINUOUS
 62
     2
 10
1008.655327
 20
1538.495850
 11
995.655327
 21
1538.495850
  0
LINE
  8
CSLAYER1
  6
CONTINUOUS
 62
     2
 10
1009.155327
 20
1536.995850
 11
1009.155327
 21
1501.995850
  0
LINE
  8
CSLAYER1
  6
CONTINUOUS
 62
     2
 10
995.155327
 20
1536.995850
 11
995.155327
 21
1501.995850
  0
LINE
  8
CSLAYER1
  6
CONTINUOUS
 62
     2
 10
1008.655327
 20
1537.495850
 11
995.655327
 21
1537.495850
  0
LINE
  8
CSLAYER1
  6
CONTINUOUS
 62
     2
 10
1008.655327
 20
1500.495850
 11
995.655327
 21
1500.495850
  0
LINE
  8
CSLAYER1
  6
CONTINUOUS
 62
     2
 10
1008.655327
 20
1501.495850
 11
995.655327
 21
1501.495850
  0
ARC
  8
CSLAYER1
  6
CONTINUOUS
 62
     2
 10
1008.655327
 20
1536.995850
 40
0.500000
 50
0.000000
 51
90.000000
  0
ARC
  8
CSLAYER1
  6
CONTINUOUS
 62
     2
 10
995.655327
 20
1536.995850
 40
0.500000
 50
90.000000
 51
180.000000
  0
ARC
  8
CSLAYER1
  6
CONTINUOUS
 62
     2
 10
1008.655327
 20
1501.995850
 40
0.500000
 50
-90.000000
 51
0.000000
  0
ARC
  8
CSLAYER1
  6
CONTINUOUS
 62
     2
 10
995.655327
 20
1501.995850
 40
0.500000
 50
180.000000
 51
270.000000
  0
ARC
  8
CSLAYER1
  6
CONTINUOUS
 62
     2
 10
1008.655327
 20
1536.995850
 40
1.500000
 50
0.000000
 51
90.000000
  0
ARC
  8
CSLAYER1
  6
CONTINUOUS
 62
     2
 10
995.655327
 20
1536.995850
 40
1.500000
 50
90.000000
 51
180.000000
  0
ARC
  8
CSLAYER1
  6
CONTINUOUS
 62
     2
 10
1008.655327
 20
1501.995850
 40
1.500000
 50
-90.000000
 51
0.000000
  0
ARC
  8
CSLAYER1
  6
CONTINUOUS
 62
     2
 10
995.655327
 20
1501.995850
 40
1.500000
 50
180.000000
 51
270.000000
  0
LINE
  8
CSLAYER1
  6
CONTINUOUS
 62
     2
 10
1005.155327
 20
1528.495850
 11
1005.155327
 21
1510.495850
  0
LINE
  8
CSLAYER1
  6
CONTINUOUS
 62
     2
 10
1008.233398
 20
1519.495850
 11
1005.155327
 21
1510.495850
  0
LINE
  8
CSLAYER1
  6
CONTINUOUS
 62
     2
 10
1008.233398
 20
1519.495850
 11
1005.155327
 21
1528.495850
  0
TEXT
  8
CSLAYER1
 62
     2
 10
996.861563
 20
1528.476006
 40
7.066058
 41
1.574983
  1
UP
 50
270.000000
 51
0.000000
  7
EASYDRAW_FONT
 72
     5
 11
996.861563
 21
1509.927803
  0
LINE
  8
CSLAYER1
  6
CONTINUOUS
 62
     2
 10
1010.155327
 20
1591.995850
 11
1010.155327
 21
1626.995850
  0
LINE
  8
CSLAYER1
  6
CONTINUOUS
 62
     2
 10
994.155327
 20
1591.995850
 11
994.155327
 21
1626.995850
  0
LINE
  8
CSLAYER1
  6
CONTINUOUS
 62
     2
 10
1008.655327
 20
1590.495850
 11
995.655327
 21
1590.495850
  0
LINE
  8
CSLAYER1
  6
CONTINUOUS
 62
     2
 10
1009.155327
 20
1591.995850
 11
1009.155327
 21
1626.995850
  0
LINE
  8
CSLAYER1
  6
CONTINUOUS
 62
     2
 10
995.155327
 20
1591.995850
 11
995.155327
 21
1626.995850
  0
LINE
  8
CSLAYER1
  6
CONTINUOUS
 62
     2
 10
1008.655327
 20
1591.495850
 11
995.655327
 21
1591.495850
  0
LINE
  8
CSLAYER1
  6
CONTINUOUS
 62
     2
 10
1008.655327
 20
1628.495850
 11
995.655327
 21
1628.495850
  0
LINE
  8
CSLAYER1
  6
CONTINUOUS
 62
     2
 10
1008.655327
 20
1627.495850
 11
995.655327
 21
1627.495850
  0
ARC
  8
CSLAYER1
  6
CONTINUOUS
 62
     2
 10
1008.655327
 20
1591.995850
 40
0.500000
 50
-90.000000
 51
0.000000
  0
ARC
  8
CSLAYER1
  6
CONTINUOUS
 62
     2
 10
995.655327
 20
1591.995850
 40
0.500000
 50
180.000000
 51
270.000000
  0
ARC
  8
CSLAYER1
  6
CONTINUOUS
 62
     2
 10
1008.655327
 20
1626.995850
 40
0.500000
 50
0.000000
 51
90.000000
  0
ARC
  8
CSLAYER1
  6
CONTINUOUS
 62
     2
 10
995.655327
 20
1626.995850
 40
0.500000
 50
90.000000
 51
180.000000
  0
ARC
  8
CSLAYER1
  6
CONTINUOUS
 62
     2
 10
1008.655327
 20
1591.995850
 40
1.500000
 50
-90.000000
 51
0.000000
  0
ARC
  8
CSLAYER1
  6
CONTINUOUS
 62
     2
 10
995.655327
 20
1591.995850
 40
1.500000
 50
180.000000
 51
270.000000
  0
ARC
  8
CSLAYER1
  6
CONTINUOUS
 62
     2
 10
1008.655327
 20
1626.995850
 40
1.500000
 50
0.000000
 51
90.000000
  0
ARC
  8
CSLAYER1
  6
CONTINUOUS
 62
     2
 10
995.655327
 20
1626.995850
 40
1.500000
 50
90.000000
 51
180.000000
  0
LINE
  8
CSLAYER1
  6
CONTINUOUS
 62
     2
 10
999.682396
 20
1600.495850
 11
999.682396
 21
1618.495850
  0
LINE
  8
CSLAYER1
  6
CONTINUOUS
 62
     2
 10
996.604324
 20
1609.495850
 11
999.682396
 21
1618.495850
  0
LINE
  8
CSLAYER1
  6
CONTINUOUS
 62
     2
 10
996.604324
 20
1609.495850
 11
999.682396
 21
1600.495850
  0
TEXT
  8
CSLAYER1
 62
     2
 10
1001.292404
 20
1624.193574
 40
6.383575
 41
1.255870
  1
DOWN
 50
270.000000
 51
0.000000
  7
EASYDRAW_FONT
 72
     5
 11
1001.292404
 21
1594.798125
  0
ENDBLK
  8
0
  0
ENDSEC
  0
SECTION
  2
ENTITIES
  0
LINE
  8
CSLAYER1
  6
CONTINUOUS
 62
     3
 10
118.051807
 20
2400.454119
 11
118.051807
 21
51.907189
  0
LINE
  8
CSLAYER1
  6
CONTINUOUS
 62
     3
 10
3440.625117
 20
2400.454119
 11
118.051807
 21
2400.454119
  0
LINE
  8
CSLAYER1
  6
CONTINUOUS
 62
     3
 10
3440.625117
 20
2400.454119
 11
3440.625117
 21
51.907189
  0
LINE
  8
CSLAYER1
  6
CONTINUOUS
 62
     3
 10
3440.625117
 20
51.907189
 11
118.051807
 21
51.907189
  0
LINE
  8
CSLAYER1
  6
CONTINUOUS
 62
     5
 10
68.051807
 20
1211.907189
 11
18.051807
 21
1211.907189
  0
LINE
  8
CSLAYER1
  6
CONTINUOUS
 62
     5
 10
2640.625117
 20
491.907189
 11
3440.625117
 21
491.907189
  0
LINE
  8
CSLAYER1
  6
CONTINUOUS
 62
     5
 10
2640.625117
 20
131.907189
 11
3440.625117
 21
131.907189
  0
LINE
  8
CSLAYER1
  6
CONTINUOUS
 62
     5
 10
2640.625117
 20
291.907189
 11
3440.625117
 21
291.907189
  0
LINE
  8
CSLAYER1
  6
CONTINUOUS
 62
     5
 10
2640.625117
 20
351.907189
 11
3440.625117
 21
351.907189
  0
LINE
  8
CSLAYER1
  6
CONTINUOUS
 62
     5
 10
2640.625117
 20
411.907189
 11
3440.625117
 21
411.907189
  0
LINE
  8
CSLAYER1
  6
CONTINUOUS
 62
     5
 10
2640.625117
 20
571.907189
 11
3440.625117
 21
571.907189
  0
LINE
  8
CSLAYER1
  6
CONTINUOUS
 62
     5
 10
2640.625117
 20
651.907189
 11
2640.625117
 21
51.907189
  0
LINE
  8
CSLAYER1
  6
CONTINUOUS
 62
     5
 10
2840.625117
 20
651.907189
 11
2840.625117
 21
411.907189
  0
LINE
  8
CSLAYER1
  6
CONTINUOUS
 62
     5
 10
2640.625117
 20
651.907189
 11
3440.625117
 21
651.907189
  0
LINE
  8
CSLAYER1
  6
CONTINUOUS
 62
     5
 10
3140.625117
 20
411.907189
 11
3140.625117
 21
131.907189
  0
TEXT
  8
CSLAYER1
 62
     3
 10
2860.316219
 20
60.469913
 40
59.380363
 41
1.003345
  1
東正車輌株式会社
 50
0.000000
 51
0.000000
  7
EASYDRAW_FONT
 72
     5
 11
3317.088566
 21
60.469913
  0
LINE
  8
CSLAYER1
  6
CONTINUOUS
 62
     5
 10
2890.625117
 20
351.907189
 11
2890.625117
 21
131.907189
  0
TEXT
  8
CSLAYER1
 62
     5
 10
2670.625000
 20
586.907166
 40
50.000000
 41
1.050000
  1
品　名
 50
0.000000
 51
0.000000
  7
EASYDRAW_FONT
 72
     5
 11
2810.625000
 21
586.907166
  0
TEXT
  8
CSLAYER1
 62
     5
 10
2670.625000
 20
506.907166
 40
50.000000
 41
1.050000
  1
型　式
 50
0.000000
 51
0.000000
  7
EASYDRAW_FONT
 72
     5
 11
2810.625000
 21
506.907166
  0
TEXT
  8
CSLAYER1
 62
     5
 10
2645.625000
 20
426.907196
 40
50.000000
 41
1.036364
  1
図面番号
 50
0.000000
 51
0.000000
  7
EASYDRAW_FONT
 72
     5
 11
2835.625000
 21
426.907196
  0
TEXT
  8
CSLAYER1
 62
     5
 10
2710.625000
 20
356.907196
 40
50.000000
 41
0.830769
  1
平成１３年３月７日
 50
0.000000
 51
0.000000
  7
EASYDRAW_FONT
 72
     5
 11
3070.625000
 21
356.907196
  0
TEXT
  8
CSLAYER1
 62
     5
 10
3220.625000
 20
356.907196
 40
50.000000
 41
1.050000
  1
Ｂ－４
 50
0.000000
 51
0.000000
  7
EASYDRAW_FONT
 72
     5
 11
3360.625000
 21
356.907196
  0
TEXT
  8
CSLAYER1
 62
     5
 10
2695.625000
 20
296.907196
 40
50.000000
 41
1.050000
  1
検　図
 50
0.000000
 51
0.000000
  7
EASYDRAW_FONT
 72
     5
 11
2835.625000
 21
296.907196
  0
TEXT
  8
CSLAYER1
 62
     5
 10
2945.625000
 20
296.907196
 40
50.000000
 41
1.050000
  1
作　図
 50
0.000000
 51
0.000000
  7
EASYDRAW_FONT
 72
     5
 11
3085.625000
 21
296.907196
  0
TEXT
  8
CSLAYER1
 62
     5
 10
3220.625000
 20
296.907196
 40
50.000000
 41
1.050000
  1
尺　度
 50
0.000000
 51
0.000000
  7
EASYDRAW_FONT
 72
     5
 11
3360.625000
 21
296.907196
  0
TEXT
  8
CSLAYER1
 62
     5
 10
3321.363770
 20
146.392456
 40
50.000000
 41
1.080000
  1
１０
 50
0.000000
 51
0.000000
  7
EASYDRAW_FONT
 72
     5
 11
3411.363770
 21
146.392456
  0
TEXT
  8
CSLAYER1
 62
     5
 10
3301.044189
 20
194.097153
 40
50.000000
 41
1.200000
  1
／
 50
0.000000
 51
0.000000
  7
EASYDRAW_FONT
 72
     5
 11
3341.044189
 21
194.097153
  0
TEXT
  8
CSLAYER1
 62
     5
 10
3270.831299
 20
229.080597
 40
50.000000
 41
1.200000
  1
１
 50
0.000000
 51
0.000000
  7
EASYDRAW_FONT
 72
     5
 11
3310.831299
 21
229.080597
  0
TEXT
  8
CSLAYER1
 62
     3
 10
2980.625000
 20
586.907166
 40
50.000000
 41
0.834783
  1
ゴールドリフター
 50
0.000000
 51
0.000000
  7
EASYDRAW_FONT
 72
     5
 11
3300.625000
 21
586.907166
  0
TEXT
  8
CSLAYER1
 62
     3
 10
2900.625000
 20
506.907166
 40
50.000000
 41
0.822857
  1
ＧＬＥ－３００－０６０６
 50
0.000000
 51
0.000000
  7
EASYDRAW_FONT
 72
     5
 11
3380.625000
 21
506.907166
  0
TEXT
  8
CSLAYER1
 62
     3
 10
3020.625000
 20
426.907196
 40
50.000000
 41
0.847059
  1
GT-06 
 50
0.000000
 51
0.000000
  7
EASYDRAW_FONT
 72
     5
 11
3260.625000
 21
426.907196
  0
INSERT
  8
CSLAYER1
  2
BLKF0000
 10
0.0
 20
0.0
 30
0.0
  0
INSERT
  8
CSLAYER1
  2
BLKF0001
 10
0.0
 20
0.0
 30
0.0
  0
LINE
  8
CSLAYER1
  6
CONTINUOUS
 62
     3
 10
2045.655327
 20
962.995850
 11
1445.655327
 21
962.995850
  0
LINE
  8
CSLAYER1
  6
CONTINUOUS
 62
     3
 10
1445.655327
 20
962.995850
 11
1445.655327
 21
917.995850
  0
LINE
  8
CSLAYER1
  6
CONTINUOUS
 62
     3
 10
1445.655327
 20
917.995850
 11
2045.655327
 21
917.995850
  0
LINE
  8
CSLAYER1
  6
CONTINUOUS
 62
     3
 10
2045.655327
 20
917.995850
 11
2045.655327
 21
962.995850
  0
LINE
  8
CSLAYER1
  6
CONTINUOUS
 62
     3
 10
1596.241705
 20
563.995853
 11
1602.891705
 21
592.495853
  0
LINE
  8
CSLAYER1
  6
CONTINUOUS
 62
     3
 10
1610.891705
 20
562.495853
 11
1715.891705
 21
562.495853
  0
LINE
  8
CSLAYER1
  6
CONTINUOUS
 62
     3
 10
1595.891705
 20
560.995853
 11
1595.891705
 21
557.495853
  0
LINE
  8
CSLAYER1
  6
CONTINUOUS
 62
     3
 10
1602.891705
 20
592.495853
 11
1708.891705
 21
592.495853
  0
LINE
  8
CSLAYER1
  6
CONTINUOUS
 62
     3
 10
1708.891705
 20
592.495853
 11
1715.891705
 21
562.495853
  0
LINE
  8
CSLAYER1
  6
CONTINUOUS
 62
     3
 10
1715.891705
 20
562.495853
 11
1715.891705
 21
557.495853
  0
LINE
  8
CSLAYER1
  6
CONTINUOUS
 62
     3
 10
1702.943820
 20
650.095853
 11
1620.442846
 21
650.095853
  0
LINE
  8
CSLAYER1
  6
CONTINUOUS
 62
     3
 10
1743.891705
 20
608.845853
 11
1743.891705
 21
560.145853
  0
LINE
  8
CSLAYER1
  6
CONTINUOUS
 62
     3
 10
1535.891705
 20
568.289979
 11
1535.891705
 21
557.495853
  0
LINE
  8
CSLAYER1
  6
CONTINUOUS
 62
     3
 10
1575.891705
 20
606.991231
 11
1575.891705
 21
568.495853
  0
LINE
  8
CSLAYER1
  6
CONTINUOUS
 62
     3
 10
1732.891705
 20
621.120337
 11
1732.891705
 21
557.495853
  0
LINE
  8
CSLAYER1
  6
CONTINUOUS
 62
     3
 10
1743.891705
 20
560.145853
 11
1732.891705
 21
560.145853
  0
LINE
  8
CSLAYER1
  6
CONTINUOUS
 62
     3
 10
1743.891705
 20
608.845853
 11
1732.891705
 21
608.845853
  0
LINE
  8
CSLAYER1
  6
CONTINUOUS
 62
     7
 10
1722.891705
 20
623.077805
 11
1722.891705
 21
582.646256
  0
LINE
  8
CSLAYER1
  6
CONTINUOUS
 62
     5
 10
1700.891705
 20
644.495853
 11
1700.891705
 21
592.495853
  0
LINE
  8
CSLAYER1
  6
CONTINUOUS
 62
     7
 10
1664.891705
 20
623.077805
 11
1664.891705
 21
621.473565
  0
LINE
  8
CSLAYER1
  6
CONTINUOUS
 62
     7
 10
1709.892534
 20
588.206583
 11
1715.891705
 21
588.206583
  0
LINE
  8
CSLAYER1
  6
CONTINUOUS
 62
     7
 10
1682.891705
 20
624.577805
 11
1718.891705
 21
624.577805
  0
LINE
  8
CSLAYER1
  6
CONTINUOUS
 62
     7
 10
1710.673712
 20
584.858680
 11
1718.891705
 21
584.858680
  0
ARC
  8
CSLAYER1
  6
CONTINUOUS
 62
     7
 10
1700.891705
 20
606.392194
 40
12.500000
 50
-170.165413
 51
140.165413
  0
LINE
  8
CSLAYER1
  6
CONTINUOUS
 62
     7
 10
1718.891705
 20
624.577805
 11
1718.891705
 21
584.858680
  0
LINE
  8
CSLAYER1
  6
CONTINUOUS
 62
     7
 10
1715.891705
 20
624.577805
 11
1715.891705
 21
588.206583
  0
LINE
  8
CSLAYER1
  6
CONTINUOUS
 62
     7
 10
1682.891705
 20
624.577805
 11
1682.891705
 21
616.650480
  0
LINE
  8
CSLAYER1
  6
CONTINUOUS
 62
     7
 10
1668.891705
 20
623.077805
 11
1668.891705
 21
620.401768
  0
ARC
  8
CSLAYER1
  6
CONTINUOUS
 62
     7
 10
1700.891705
 20
606.392194
 40
5.250000
 50
-105.000000
 51
75.000000
  0
LINE
  8
CSLAYER1
  6
CONTINUOUS
 62
     7
 10
1668.891705
 20
623.077805
 11
1682.891705
 21
624.577805
  0
LINE
  8
CSLAYER1
  6
CONTINUOUS
 62
     7
 10
1715.891705
 20
588.206583
 11
1718.891705
 21
584.858680
  0
LINE
  8
CSLAYER1
  6
CONTINUOUS
 62
     7
 10
1666.891705
 20
625.077805
 11
1683.824413
 21
625.077805
  0
ARC
  8
CSLAYER1
  6
CONTINUOUS
 62
     7
 10
1700.891705
 20
611.422171
 40
20.284880
 50
47.545857
 51
84.719619
  0
CIRCLE
  8
CSLAYER1
  6
CONTINUOUS
 62
     7
 10
1700.891705
 20
629.272559
 40
3.000000
  0
ARC
  8
CSLAYER1
  6
CONTINUOUS
 62
     7
 10
1700.891705
 20
588.203647
 40
16.796254
 50
314.594132
 51
324.821469
  0
LINE
  8
CSLAYER1
  6
CONTINUOUS
 62
     5
 10
1694.176402
 20
629.272559
 11
1706.937480
 21
629.272559
  0
ARC
  8
CSLAYER1
  6
CONTINUOUS
 62
     7
 10
1700.891705
 20
611.422171
 40
20.284880
 50
95.280381
 51
132.454143
  0
LINE
  8
CSLAYER1
  6
CONTINUOUS
 62
     7
 10
1717.958997
 20
625.077805
 11
1720.891705
 21
625.077805
  0
ARC
  8
CSLAYER1
  6
CONTINUOUS
 62
     7
 10
1683.824413
 20
630.077805
 40
5.000000
 50
270.000000
 51
312.454143
  0
ARC
  8
CSLAYER1
  6
CONTINUOUS
 62
     7
 10
1717.958997
 20
630.077805
 40
5.000000
 50
227.545857
 51
270.000000
  0
LINE
  8
CSLAYER1
  6
CONTINUOUS
 62
     7
 10
1718.707109
 20
580.646256
 11
1720.891705
 21
580.646256
  0
ARC
  8
CSLAYER1
  6
CONTINUOUS
 62
     7
 10
1718.707109
 20
575.646256
 40
5.000000
 50
90.000000
 51
144.821469
  0
LINE
  8
CSLAYER1
  6
CONTINUOUS
 62
     7
 10
1668.891705
 20
609.531368
 11
1668.891705
 21
592.495853
  0
LINE
  8
CSLAYER1
  6
CONTINUOUS
 62
     7
 10
1664.891705
 20
610.603165
 11
1664.891705
 21
592.495853
  0
LINE
  8
CSLAYER1
  6
CONTINUOUS
 62
     7
 10
1682.891705
 20
605.780080
 11
1682.891705
 21
592.495853
  0
LINE
  8
CSLAYER1
  6
CONTINUOUS
 62
     5
 10
1688.834109
 20
606.392194
 11
1715.891705
 21
606.392194
  0
LINE
  8
CSLAYER1
  6
CONTINUOUS
 62
     5
 10
1724.891705
 20
628.860587
 11
1724.891705
 21
557.495853
  0
LINE
  8
CSLAYER1
  6
CONTINUOUS
 62
     5
 10
1578.391705
 20
558.495853
 11
1535.891705
 21
558.495853
  0
ARC
  8
CSLAYER1
  6
CONTINUOUS
 62
     4
 10
1557.391705
 20
605.995853
 40
17.000000
 50
269.666420
 51
358.442731
  0
LINE
  8
CSLAYER1
  6
CONTINUOUS
 62
     4
 10
1563.126685
 20
593.995853
 11
1562.460224
 21
593.995853
  0
LINE
  8
CSLAYER1
  6
CONTINUOUS
 62
     4
 10
1564.916519
 20
595.029214
 11
1566.673416
 21
598.072247
  0
ARC
  8
CSLAYER1
  6
CONTINUOUS
 62
     4
 10
1557.391705
 20
605.995853
 40
13.300000
 50
295.543837
 51
304.456163
  0
LINE
  8
CSLAYER1
  6
CONTINUOUS
 62
     4
 10
1562.891705
 20
589.910145
 11
1562.891705
 21
576.495853
  0
LINE
  8
CSLAYER1
  6
CONTINUOUS
 62
     4
 10
1539.391705
 20
569.495853
 11
1539.391705
 21
557.495853
  0
LINE
  8
CSLAYER1
  6
CONTINUOUS
 62
     4
 10
1575.391705
 20
569.495853
 11
1575.391705
 21
557.495853
  0
LINE
  8
CSLAYER1
  6
CONTINUOUS
 62
     4
 10
1568.391705
 20
576.495853
 11
1546.391705
 21
576.495853
  0
ARC
  8
CSLAYER1
  6
CONTINUOUS
 62
     4
 10
1557.391705
 20
558.495853
 40
12.500000
 50
-4.588566
 51
184.588566
  0
ARC
  8
CSLAYER1
  6
CONTINUOUS
 62
     4
 10
1557.391705
 20
558.495853
 40
4.750000
 50
-12.153197
 51
192.153197
  0
LINE
  8
CSLAYER1
  6
CONTINUOUS
 62
     4
 10
1540.891705
 20
568.995853
 11
1540.891705
 21
557.495853
  0
LINE
  8
CSLAYER1
  6
CONTINUOUS
 62
     4
 10
1573.891705
 20
568.995853
 11
1573.891705
 21
557.495853
  0
LINE
  8
CSLAYER1
  6
CONTINUOUS
 62
     4
 10
1567.891705
 20
574.995853
 11
1546.891705
 21
574.995853
  0
LINE
  8
CSLAYER1
  6
CONTINUOUS
 62
     4
 10
1558.257730
 20
559.995853
 11
1556.525679
 21
559.995853
  0
LINE
  8
CSLAYER1
  6
CONTINUOUS
 62
     4
 10
1558.546405
 20
557.495853
 11
1559.123756
 21
558.495853
  0
LINE
  8
CSLAYER1
  6
CONTINUOUS
 62
     4
 10
1555.659654
 20
558.495853
 11
1556.525679
 21
559.995853
  0
LINE
  8
CSLAYER1
  6
CONTINUOUS
 62
     4
 10
1555.659654
 20
558.495853
 11
1556.237004
 21
557.495853
  0
LINE
  8
CSLAYER1
  6
CONTINUOUS
 62
     4
 10
1558.257730
 20
559.995853
 11
1559.123756
 21
558.495853
  0
LINE
  8
CSLAYER1
  6
CONTINUOUS
 62
     4
 10
1546.891705
 20
574.995853
 11
1540.891705
 21
568.995853
  0
LINE
  8
CSLAYER1
  6
CONTINUOUS
 62
     4
 10
1567.891705
 20
574.995853
 11
1573.891705
 21
568.995853
  0
LINE
  8
CSLAYER1
  6
CONTINUOUS
 62
     4
 10
1539.391705
 20
569.495853
 11
1546.391705
 21
576.495853
  0
LINE
  8
CSLAYER1
  6
CONTINUOUS
 62
     4
 10
1568.391705
 20
576.495853
 11
1575.391705
 21
569.495853
  0
LINE
  8
CSLAYER1
  6
CONTINUOUS
 62
     4
 10
1578.391705
 20
568.495853
 11
1578.391705
 21
557.495853
  0
LINE
  8
CSLAYER1
  6
CONTINUOUS
 62
     4
 10
1580.891705
 20
566.495853
 11
1580.891705
 21
557.495853
  0
LINE
  8
CSLAYER1
  6
CONTINUOUS
 62
     4
 10
1578.391705
 20
568.495853
 11
1575.391705
 21
568.495853
  0
LINE
  8
CSLAYER1
  6
CONTINUOUS
 62
     4
 10
1580.891705
 20
566.495853
 11
1578.391705
 21
566.495853
  0
LINE
  8
CSLAYER1
  6
CONTINUOUS
 62
     5
 10
1610.891705
 20
562.495853
 11
1573.891705
 21
562.495853
  0
LINE
  8
CSLAYER1
  6
CONTINUOUS
 62
     4
 10
1610.891705
 20
560.995853
 11
1580.891705
 21
560.995853
  0
LINE
  8
CSLAYER1
  6
CONTINUOUS
 62
     4
 10
1610.891705
 20
563.995853
 11
1580.891705
 21
563.995853
  0
LINE
  8
CSLAYER1
  6
CONTINUOUS
 62
     5
 10
1582.391705
 20
560.995853
 11
1582.391705
 21
557.495853
  0
ARC
  8
CSLAYER1
  6
CONTINUOUS
 62
     4
 10
1556.232049
 20
584.560982
 40
12.340516
 50
212.603801
 51
220.809702
  0
LINE
  8
CSLAYER1
  6
CONTINUOUS
 62
     4
 10
1540.391705
 20
572.643870
 11
1540.391705
 21
570.495853
  0
ARC
  8
CSLAYER1
  6
CONTINUOUS
 62
     7
 10
1666.891705
 20
623.077805
 40
2.000000
 50
90.000000
 51
180.000000
  0
ARC
  8
CSLAYER1
  6
CONTINUOUS
 62
     7
 10
1720.891705
 20
582.646256
 40
2.000000
 50
270.000000
 51
360.000000
  0
ARC
  8
CSLAYER1
  6
CONTINUOUS
 62
     7
 10
1720.891705
 20
623.077805
 40
2.000000
 50
0.000000
 51
90.000000
  0
LINE
  8
CSLAYER1
  6
CONTINUOUS
 62
     7
 10
1738.591705
 20
586.995853
 11
1738.591705
 21
581.995853
  0
LINE
  8
CSLAYER1
  6
CONTINUOUS
 62
     7
 10
1733.891705
 20
589.495853
 11
1733.891705
 21
579.495853
  0
LINE
  8
CSLAYER1
  6
CONTINUOUS
 62
     7
 10
1734.891705
 20
589.495853
 11
1734.891705
 21
579.495853
  0
LINE
  8
CSLAYER1
  6
CONTINUOUS
 62
     7
 10
1736.191705
 20
589.495853
 11
1732.891705
 21
589.495853
  0
LINE
  8
CSLAYER1
  6
CONTINUOUS
 62
     7
 10
1736.191705
 20
579.495853
 11
1732.891705
 21
579.495853
  0
LINE
  8
CSLAYER1
  6
CONTINUOUS
 62
     7
 10
1736.191705
 20
589.495853
 11
1736.191705
 21
579.495853
  0
LINE
  8
CSLAYER1
  6
CONTINUOUS
 62
     5
 10
1736.591705
 20
588.995853
 11
1736.191705
 21
588.995853
  0
LINE
  8
CSLAYER1
  6
CONTINUOUS
 62
     5
 10
1736.591705
 20
579.995853
 11
1736.191705
 21
579.995853
  0
ARC
  8
CSLAYER1
  6
CONTINUOUS
 62
     7
 10
1736.591705
 20
586.995853
 40
2.000000
 50
0.000000
 51
90.000000
  0
ARC
  8
CSLAYER1
  6
CONTINUOUS
 62
     7
 10
1736.591705
 20
581.995853
 40
2.000000
 50
270.000000
 51
360.000000
  0
LINE
  8
CSLAYER1
  6
CONTINUOUS
 62
     7
 10
1734.891705
 20
583.370020
 11
1736.191705
 21
585.621686
  0
LINE
  8
CSLAYER1
  6
CONTINUOUS
 62
     5
 10
1582.391705
 20
613.280184
 11
1582.391705
 21
563.995853
  0
LINE
  8
CSLAYER1
  6
CONTINUOUS
 62
     5
 10
1557.391705
 20
589.091902
 11
1557.391705
 21
557.495853
  0
LINE
  8
CSLAYER1
  6
CENTER
 62
     5
 10
1755.646681
 20
584.495853
 11
1442.891705
 21
584.495853
  0
LINE
  8
CSLAYER1
  6
CONTINUOUS
 62
     7
 10
1635.418438
 20
629.370903
 11
1702.250505
 21
611.463305
  0
LINE
  8
CSLAYER1
  6
CONTINUOUS
 62
     5
 10
1627.629790
 20
626.022665
 11
1700.891705
 21
606.392194
  0
LINE
  8
CSLAYER1
  6
CONTINUOUS
 62
     7
 10
1629.727105
 20
620.025491
 11
1699.532905
 21
601.321084
  0
LINE
  8
CSLAYER1
  6
CONTINUOUS
 62
     3
 10
1462.891705
 20
582.495853
 11
1452.891705
 21
582.495853
  0
LINE
  8
CSLAYER1
  6
CONTINUOUS
 62
     3
 10
1532.295170
 20
564.810220
 11
1532.073523
 21
557.495853
  0
LINE
  8
CSLAYER1
  6
CONTINUOUS
 62
     3
 10
1464.641478
 20
602.495853
 11
1462.891705
 21
582.495853
  0
LINE
  8
CSLAYER1
  6
CONTINUOUS
 62
     3
 10
1452.891705
 20
582.495853
 11
1453.886169
 21
557.495853
  0
LINE
  8
CSLAYER1
  6
CONTINUOUS
 62
     3
 10
1452.891705
 20
582.495853
 11
1455.016054
 21
637.993108
  0
LINE
  8
CSLAYER1
  6
CONTINUOUS
 62
     3
 10
1519.891705
 20
647.495853
 11
1519.891705
 21
642.995853
  0
ARC
  8
CSLAYER1
  6
CONTINUOUS
 62
     3
 10
1468.006540
 20
637.495853
 40
13.000000
 50
90.000000
 51
177.807877
  0
LINE
  8
CSLAYER1
  6
CONTINUOUS
 62
     7
 10
1516.791705
 20
644.495853
 11
1512.791705
 21
644.495853
  0
LINE
  8
CSLAYER1
  6
CONTINUOUS
 62
     7
 10
1518.291705
 20
647.245853
 11
1512.791705
 21
647.245853
  0
LINE
  8
CSLAYER1
  6
CONTINUOUS
 62
     7
 10
1518.291705
 20
647.745853
 11
1518.291705
 21
642.995853
  0
LINE
  8
CSLAYER1
  6
CONTINUOUS
 62
     7
 10
1516.791705
 20
647.245853
 11
1516.791705
 21
642.995853
  0
LINE
  8
CSLAYER1
  6
CONTINUOUS
 62
     7
 10
1512.791705
 20
647.245853
 11
1512.791705
 21
642.995853
  0
LINE
  8
CSLAYER1
  6
CONTINUOUS
 62
     7
 10
1519.891705
 20
647.745853
 11
1518.291705
 21
647.745853
  0
LINE
  8
CSLAYER1
  6
CONTINUOUS
 62
     5
 10
1518.075231
 20
641.495853
 11
1509.684215
 21
641.495853
  0
LINE
  8
CSLAYER1
  6
CONTINUOUS
 62
     3
 10
1527.377256
 20
650.495853
 11
1468.006540
 21
650.495853
  0
ARC
  8
CSLAYER1
  6
CONTINUOUS
 62
     3
 10
1522.891705
 20
647.495853
 40
3.000000
 50
90.000000
 51
180.000000
  0
LINE
  8
CSLAYER1
  6
CONTINUOUS
 62
     5
 10
1485.891705
 20
650.495853
 11
1485.891705
 21
621.055354
  0
LINE
  8
CSLAYER1
  6
CONTINUOUS
 62
     3
 10
1517.558452
 20
640.995853
 11
1467.642895
 21
640.995853
  0
LINE
  8
CSLAYER1
  6
CONTINUOUS
 62
     3
 10
1519.625569
 20
642.995853
 11
1467.719452
 21
642.995853
  0
ARC
  8
CSLAYER1
  6
CONTINUOUS
 62
     3
 10
1467.719452
 20
629.995853
 40
13.000000
 50
90.000000
 51
177.807877
  0
ARC
  8
CSLAYER1
  6
CONTINUOUS
 62
     3
 10
1467.642895
 20
627.995853
 40
13.000000
 50
90.000000
 51
177.807877
  0
ARC
  8
CSLAYER1
  6
CONTINUOUS
 62
     3
 10
1485.891705
 20
632.495853
 40
8.000000
 50
0.000000
 51
180.000000
  0
LINE
  8
CSLAYER1
  6
CONTINUOUS
 62
     5
 10
1844.610908
 20
600.850172
 11
1846.596625
 21
593.900175
  0
ARC
  8
CSLAYER1
  6
CONTINUOUS
 62
     7
 10
1870.572069
 20
571.867106
 40
27.000000
 50
-32.158866
 51
85.792059
  0
LINE
  8
CSLAYER1
  6
CONTINUOUS
 62
     7
 10
1844.610908
 20
600.850172
 11
1872.553232
 21
598.794322
  0
POINT
  8
CSLAYER1
 62
     5
 10
1847.500496
 20
937.961994
  0
POINT
  8
CSLAYER1
 62
     5
 10
1475.855327
 20
937.995850
  0
LINE
  8
CSLAYER1
  6
CONTINUOUS
 62
     3
 10
252.028273
 20
507.495853
 11
2589.935762
 21
507.495853
  0
LINE
  8
CSLAYER1
  6
CONTINUOUS
 62
     3
 10
946.886169
 20
507.495853
 11
946.886169
 21
557.495853
  0
LINE
  8
CSLAYER1
  6
CONTINUOUS
 62
     3
 10
946.886169
 20
557.495853
 11
496.886169
 21
557.495853
  0
LINE
  8
CSLAYER1
  6
CONTINUOUS
 62
     3
 10
496.886169
 20
557.495853
 11
496.886169
 21
507.495853
  0
LINE
  8
CSLAYER1
  6
CENTER
 62
     5
 10
721.886169
 20
486.415191
 11
721.886169
 21
1024.142633
  0
LINE
  8
CSLAYER1
  6
CONTINUOUS
 62
     3
 10
421.849234
 20
912.995850
 11
1021.849234
 21
912.995850
  0
LINE
  8
CSLAYER1
  6
CONTINUOUS
 62
     3
 10
1021.849234
 20
912.995850
 11
1021.849234
 21
962.995850
  0
LINE
  8
CSLAYER1
  6
CONTINUOUS
 62
     3
 10
1021.849234
 20
962.995850
 11
421.849234
 21
962.995850
  0
LINE
  8
CSLAYER1
  6
CONTINUOUS
 62
     3
 10
421.849234
 20
962.995850
 11
421.849234
 21
912.995850
  0
LINE
  8
CSLAYER1
  6
CONTINUOUS
 62
     3
 10
668.386169
 20
650.495853
 11
777.386169
 21
650.495853
  0
LINE
  8
CSLAYER1
  6
CONTINUOUS
 62
     3
 10
777.386169
 20
650.495853
 11
777.386169
 21
648.724269
  0
LINE
  8
CSLAYER1
  6
CONTINUOUS
 62
     3
 10
668.386169
 20
650.495853
 11
668.386169
 21
648.998788
  0
ARC
  8
CSLAYER1
  6
CONTINUOUS
 62
     7
 10
668.386169
 20
641.495853
 40
7.500000
 50
180.000000
 51
360.000000
  0
CIRCLE
  8
CSLAYER1
  6
CONTINUOUS
 62
     7
 10
668.386169
 20
641.495853
 40
6.250000
  0
CIRCLE
  8
CSLAYER1
  6
CONTINUOUS
 62
     7
 10
668.386169
 20
641.495853
 40
5.750000
  0
LINE
  8
CSLAYER1
  6
CONTINUOUS
 62
     7
 10
671.272920
 20
646.495853
 11
665.499417
 21
646.495853
  0
LINE
  8
CSLAYER1
  6
CONTINUOUS
 62
     7
 10
671.272920
 20
636.495853
 11
665.499417
 21
636.495853
  0
LINE
  8
CSLAYER1
  6
CONTINUOUS
 62
     7
 10
662.612666
 20
641.495853
 11
665.499417
 21
646.495853
  0
LINE
  8
CSLAYER1
  6
CONTINUOUS
 62
     7
 10
671.272920
 20
636.495853
 11
674.159672
 21
641.495853
  0
LINE
  8
CSLAYER1
  6
CONTINUOUS
 62
     7
 10
671.272920
 20
646.495853
 11
674.159672
 21
641.495853
  0
LINE
  8
CSLAYER1
  6
CONTINUOUS
 62
     7
 10
662.612666
 20
641.495853
 11
665.499417
 21
636.495853
  0
LINE
  8
CSLAYER1
  6
CONTINUOUS
 62
     5
 10
679.104372
 20
641.495853
 11
671.386169
 21
641.495853
  0
LINE
  8
CSLAYER1
  6
CONTINUOUS
 62
     5
 10
668.386169
 20
655.161340
 11
668.386169
 21
644.495853
  0
LINE
  8
CSLAYER1
  6
CONTINUOUS
 62
     5
 10
665.386169
 20
641.495853
 11
656.337905
 21
641.495853
  0
LINE
  8
CSLAYER1
  6
CONTINUOUS
 62
     3
 10
671.386169
 20
641.495853
 11
665.386169
 21
641.495853
  0
LINE
  8
CSLAYER1
  6
CONTINUOUS
 62
     3
 10
668.386169
 20
644.495853
 11
668.386169
 21
638.495853
  0
LINE
  8
CSLAYER1
  6
CONTINUOUS
 62
     5
 10
668.386169
 20
638.495853
 11
668.386169
 21
629.607142
  0
ARC
  8
CSLAYER1
  6
CONTINUOUS
 62
     7
 10
775.386169
 20
641.495853
 40
7.500000
 50
180.000000
 51
360.000000
  0
CIRCLE
  8
CSLAYER1
  6
CONTINUOUS
 62
     7
 10
775.386169
 20
641.495853
 40
6.250000
  0
CIRCLE
  8
CSLAYER1
  6
CONTINUOUS
 62
     7
 10
775.386169
 20
641.495853
 40
5.750000
  0
LINE
  8
CSLAYER1
  6
CONTINUOUS
 62
     7
 10
772.499417
 20
646.495853
 11
778.272920
 21
646.495853
  0
LINE
  8
CSLAYER1
  6
CONTINUOUS
 62
     7
 10
772.499417
 20
636.495853
 11
778.272920
 21
636.495853
  0
LINE
  8
CSLAYER1
  6
CONTINUOUS
 62
     7
 10
781.159672
 20
641.495853
 11
778.272920
 21
646.495853
  0
LINE
  8
CSLAYER1
  6
CONTINUOUS
 62
     7
 10
772.499417
 20
636.495853
 11
769.612666
 21
641.495853
  0
LINE
  8
CSLAYER1
  6
CONTINUOUS
 62
     7
 10
772.499417
 20
646.495853
 11
769.612666
 21
641.495853
  0
LINE
  8
CSLAYER1
  6
CONTINUOUS
 62
     7
 10
781.159672
 20
641.495853
 11
778.272920
 21
636.495853
  0
LINE
  8
CSLAYER1
  6
CONTINUOUS
 62
     5
 10
764.667965
 20
641.495853
 11
772.386169
 21
641.495853
  0
LINE
  8
CSLAYER1
  6
CONTINUOUS
 62
     5
 10
778.386169
 20
641.495853
 11
787.434432
 21
641.495853
  0
LINE
  8
CSLAYER1
  6
CONTINUOUS
 62
     3
 10
772.386169
 20
641.495853
 11
778.386169
 21
641.495853
  0
LINE
  8
CSLAYER1
  6
CONTINUOUS
 62
     3
 10
775.386169
 20
644.495853
 11
775.386169
 21
638.495853
  0
LINE
  8
CSLAYER1
  6
CONTINUOUS
 62
     5
 10
775.386169
 20
638.495853
 11
775.386169
 21
629.607142
  0
LINE
  8
CSLAYER1
  6
CONTINUOUS
 62
     7
 10
767.886169
 20
646.291431
 11
767.886169
 21
641.495853
  0
LINE
  8
CSLAYER1
  6
CONTINUOUS
 62
     5
 10
782.886169
 20
641.794571
 11
782.886169
 21
641.495853
  0
LINE
  8
CSLAYER1
  6
CONTINUOUS
 62
     5
 10
775.386169
 20
655.161340
 11
775.386169
 21
644.495853
  0
LINE
  8
CSLAYER1
  6
CONTINUOUS
 62
     3
 10
851.886169
 20
582.495853
 11
851.066497
 21
557.495853
  0
LINE
  8
CSLAYER1
  6
CONTINUOUS
 62
     3
 10
591.886169
 20
582.495853
 11
592.705841
 21
557.495853
  0
LINE
  8
CSLAYER1
  6
CONTINUOUS
 62
     3
 10
850.132271
 20
638.182116
 11
851.886169
 21
582.495853
  0
LINE
  8
CSLAYER1
  6
CONTINUOUS
 62
     3
 10
784.624834
 20
643.287108
 11
847.239161
 21
641.085823
  0
LINE
  8
CSLAYER1
  6
CONTINUOUS
 62
     3
 10
721.886169
 20
650.495853
 11
775.595956
 21
648.992918
  0
ARC
  8
CSLAYER1
  6
CONTINUOUS
 62
     7
 10
764.886169
 20
646.291431
 40
3.000000
 50
0.000000
 51
88.397139
  0
ARC
  8
CSLAYER1
  6
CONTINUOUS
 62
     7
 10
784.386169
 20
641.794571
 40
1.500000
 50
87.986525
 51
180.000000
  0
ARC
  8
CSLAYER1
  6
CONTINUOUS
 62
     3
 10
775.386169
 20
641.495853
 40
7.500000
 50
27.137895
 51
90.000000
  0
ARC
  8
CSLAYER1
  6
CONTINUOUS
 62
     3
 10
784.730238
 20
646.285255
 40
3.000000
 50
207.137895
 51
267.986525
  0
ARC
  8
CSLAYER1
  6
CONTINUOUS
 62
     3
 10
837.433213
 20
628.422532
 40
13.000000
 50
1.803995
 51
87.986525
  0
ARC
  8
CSLAYER1
  6
CONTINUOUS
 62
     3
 10
847.133758
 20
638.087675
 40
3.000000
 50
1.803995
 51
87.986525
  0
ARC
  8
CSLAYER1
  6
CONTINUOUS
 62
     7
 10
678.886169
 20
646.291431
 40
3.000000
 50
91.602861
 51
180.000000
  0
LINE
  8
CSLAYER1
  6
CONTINUOUS
 62
     3
 10
721.886169
 20
650.495853
 11
668.176382
 21
648.992918
  0
ARC
  8
CSLAYER1
  6
CONTINUOUS
 62
     3
 10
668.386169
 20
641.495853
 40
7.500000
 50
90.000000
 51
152.862105
  0
ARC
  8
CSLAYER1
  6
CONTINUOUS
 62
     3
 10
659.042100
 20
646.285255
 40
3.000000
 50
272.013475
 51
332.862105
  0
LINE
  8
CSLAYER1
  6
CONTINUOUS
 62
     3
 10
659.147504
 20
643.287108
 11
596.533176
 21
641.085823
  0
ARC
  8
CSLAYER1
  6
CONTINUOUS
 62
     7
 10
659.386169
 20
641.794571
 40
1.500000
 50
0.000000
 51
92.013475
  0
LINE
  8
CSLAYER1
  6
CONTINUOUS
 62
     7
 10
675.886169
 20
646.291431
 11
675.886169
 21
641.495853
  0
ARC
  8
CSLAYER1
  6
CONTINUOUS
 62
     3
 10
596.638580
 20
638.087675
 40
3.000000
 50
92.013475
 51
178.196005
  0
ARC
  8
CSLAYER1
  6
CONTINUOUS
 62
     3
 10
606.339125
 20
628.422532
 40
13.000000
 50
92.013475
 51
178.196005
  0
LINE
  8
CSLAYER1
  6
CONTINUOUS
 62
     3
 10
593.640067
 20
638.182116
 11
591.886169
 21
582.495853
  0
LINE
  8
CSLAYER1
  6
CONTINUOUS
 62
     3
 10
591.386169
 20
623.195853
 11
593.386169
 21
623.195853
  0
LINE
  8
CSLAYER1
  6
CONTINUOUS
 62
     3
 10
591.386169
 20
641.795853
 11
593.386169
 21
641.795853
  0
LINE
  8
CSLAYER1
  6
CONTINUOUS
 62
     3
 10
593.386169
 20
641.795853
 11
593.386169
 21
623.195853
  0
LINE
  8
CSLAYER1
  6
CONTINUOUS
 62
     3
 10
591.386169
 20
641.795853
 11
591.386169
 21
623.195853
  0
LINE
  8
CSLAYER1
  6
CONTINUOUS
 62
     3
 10
587.886169
 20
638.095853
 11
587.886169
 21
626.895853
  0
LINE
  8
CSLAYER1
  6
CONTINUOUS
 62
     3
 10
587.886169
 20
626.895853
 11
591.386169
 21
626.895853
  0
LINE
  8
CSLAYER1
  6
CONTINUOUS
 62
     3
 10
587.886169
 20
638.095853
 11
591.386169
 21
638.095853
  0
LINE
  8
CSLAYER1
  6
CONTINUOUS
 62
     3
 10
587.886169
 20
635.495853
 11
591.386169
 21
635.495853
  0
LINE
  8
CSLAYER1
  6
CONTINUOUS
 62
     3
 10
587.886169
 20
629.495853
 11
591.386169
 21
629.495853
  0
LINE
  8
CSLAYER1
  6
CONTINUOUS
 62
     5
 10
584.296213
 20
632.495853
 11
602.018424
 21
632.495853
  0
LINE
  8
CSLAYER1
  6
CONTINUOUS
 62
     3
 10
642.886169
 20
649.495853
 11
620.886169
 21
649.495853
  0
LINE
  8
CSLAYER1
  6
CONTINUOUS
 62
     3
 10
620.886169
 20
649.495853
 11
620.886169
 21
644.495853
  0
LINE
  8
CSLAYER1
  6
CONTINUOUS
 62
     3
 10
642.886169
 20
649.495853
 11
642.886169
 21
644.495853
  0
LINE
  8
CSLAYER1
  6
CONTINUOUS
 62
     3
 10
637.886169
 20
649.495853
 11
637.886169
 21
644.495853
  0
LINE
  8
CSLAYER1
  6
CONTINUOUS
 62
     3
 10
625.886169
 20
649.495853
 11
625.886169
 21
644.495853
  0
LINE
  8
CSLAYER1
  6
CONTINUOUS
 62
     3
 10
616.386169
 20
644.495853
 11
616.386169
 21
641.995853
  0
LINE
  8
CSLAYER1
  6
CONTINUOUS
 62
     3
 10
647.386169
 20
644.495853
 11
647.386169
 21
642.873623
  0
LINE
  8
CSLAYER1
  6
CONTINUOUS
 62
     3
 10
647.386169
 20
644.495853
 11
616.386169
 21
644.495853
  0
LINE
  8
CSLAYER1
  6
CONTINUOUS
 62
     5
 10
631.886169
 20
652.095853
 11
631.886169
 21
623.055354
  0
LINE
  8
CSLAYER1
  6
CONTINUOUS
 62
     3
 10
887.886169
 20
557.495853
 11
887.886169
 21
912.995850
  0
LINE
  8
CSLAYER1
  6
CONTINUOUS
 62
     3
 10
896.886169
 20
557.495853
 11
896.886169
 21
912.995850
  0
LINE
  8
CSLAYER1
  6
CONTINUOUS
 62
     3
 10
900.886169
 20
912.995850
 11
900.886169
 21
557.495853
  0
LINE
  8
CSLAYER1
  6
CONTINUOUS
 62
     3
 10
909.886169
 20
912.995850
 11
909.886169
 21
557.495853
  0
LINE
  8
CSLAYER1
  6
CENTER
 62
     5
 10
946.886169
 20
735.228923
 11
496.886169
 21
735.228923
  0
LINE
  8
CSLAYER1
  6
CENTER
 62
     5
 10
946.886169
 20
881.523780
 11
496.886169
 21
881.523780
  0
LINE
  8
CSLAYER1
  6
CENTER
 62
     5
 10
764.386169
 20
812.356498
 11
679.386169
 21
812.356498
  0
LINE
  8
CSLAYER1
  6
CONTINUOUS
 62
     3
 10
555.886169
 20
557.495853
 11
555.886169
 21
912.995850
  0
LINE
  8
CSLAYER1
  6
CONTINUOUS
 62
     3
 10
546.886169
 20
557.495853
 11
546.886169
 21
912.995850
  0
LINE
  8
CSLAYER1
  6
CONTINUOUS
 62
     3
 10
542.886169
 20
912.995850
 11
542.886169
 21
557.495853
  0
LINE
  8
CSLAYER1
  6
CONTINUOUS
 62
     3
 10
533.886169
 20
912.995850
 11
533.886169
 21
557.495853
  0
LINE
  8
CSLAYER1
  6
CONTINUOUS
 62
     3
 10
887.886169
 20
911.773780
 11
555.886169
 21
911.773780
  0
LINE
  8
CSLAYER1
  6
CONTINUOUS
 62
     3
 10
887.886169
 20
851.273780
 11
754.386169
 21
851.273780
  0
LINE
  8
CSLAYER1
  6
CONTINUOUS
 62
     5
 10
872.886169
 20
740.136401
 11
872.886169
 21
730.321446
  0
LINE
  8
CSLAYER1
  6
CONTINUOUS
 62
     5
 10
918.886169
 20
748.228923
 11
918.886169
 21
722.228923
  0
LINE
  8
CSLAYER1
  6
CONTINUOUS
 62
     5
 10
917.725056
 20
750.240030
 11
909.886169
 21
750.240030
  0
LINE
  8
CSLAYER1
  6
CONTINUOUS
 62
     5
 10
918.886169
 20
742.734477
 11
909.886169
 21
742.734477
  0
LINE
  8
CSLAYER1
  6
CONTINUOUS
 62
     5
 10
918.886169
 20
727.723370
 11
909.886169
 21
727.723370
  0
LINE
  8
CSLAYER1
  6
CONTINUOUS
 62
     5
 10
917.725056
 20
720.217816
 11
909.886169
 21
720.217816
  0
LINE
  8
CSLAYER1
  6
CONTINUOUS
 62
     5
 10
917.725056
 20
720.217816
 11
918.886169
 21
722.228923
  0
LINE
  8
CSLAYER1
  6
CONTINUOUS
 62
     5
 10
917.725056
 20
750.240030
 11
918.886169
 21
748.228923
  0
LINE
  8
CSLAYER1
  6
CONTINUOUS
 62
     5
 10
896.886169
 20
749.228923
 11
900.886169
 21
749.228923
  0
LINE
  8
CSLAYER1
  6
CONTINUOUS
 62
     5
 10
896.886169
 20
721.228923
 11
900.886169
 21
721.228923
  0
LINE
  8
CSLAYER1
  6
CONTINUOUS
 62
     5
 10
885.886169
 20
744.228923
 11
885.886169
 21
726.228923
  0
LINE
  8
CSLAYER1
  6
CONTINUOUS
 62
     5
 10
883.386169
 20
745.043878
 11
883.386169
 21
725.413969
  0
LINE
  8
CSLAYER1
  6
CONTINUOUS
 62
     5
 10
883.386169
 20
744.228923
 11
887.886169
 21
744.228923
  0
LINE
  8
CSLAYER1
  6
CONTINUOUS
 62
     5
 10
883.386169
 20
726.228923
 11
887.886169
 21
726.228923
  0
LINE
  8
CSLAYER1
  6
CONTINUOUS
 62
     5
 10
883.386169
 20
745.043878
 11
876.145358
 21
745.043878
  0
LINE
  8
CSLAYER1
  6
CONTINUOUS
 62
     5
 10
872.886169
 20
740.136401
 11
883.386169
 21
740.136401
  0
LINE
  8
CSLAYER1
  6
CONTINUOUS
 62
     5
 10
872.886169
 20
730.321446
 11
883.386169
 21
730.321446
  0
LINE
  8
CSLAYER1
  6
CONTINUOUS
 62
     5
 10
876.145358
 20
725.413969
 11
883.386169
 21
725.413969
  0
LINE
  8
CSLAYER1
  6
CONTINUOUS
 62
     5
 10
876.145358
 20
725.413969
 11
875.386169
 21
726.728923
  0
LINE
  8
CSLAYER1
  6
CONTINUOUS
 62
     5
 10
876.145358
 20
745.043878
 11
875.386169
 21
743.728923
  0
LINE
  8
CSLAYER1
  6
CONTINUOUS
 62
     5
 10
875.386169
 20
743.728923
 11
875.386169
 21
726.728923
  0
LINE
  8
CSLAYER1
  6
CONTINUOUS
 62
     5
 10
570.886169
 20
740.136401
 11
570.886169
 21
730.321446
  0
LINE
  8
CSLAYER1
  6
CONTINUOUS
 62
     5
 10
524.886169
 20
748.228923
 11
524.886169
 21
722.228923
  0
LINE
  8
CSLAYER1
  6
CONTINUOUS
 62
     5
 10
526.047282
 20
750.240030
 11
533.886169
 21
750.240030
  0
LINE
  8
CSLAYER1
  6
CONTINUOUS
 62
     5
 10
524.886169
 20
742.734477
 11
533.886169
 21
742.734477
  0
LINE
  8
CSLAYER1
  6
CONTINUOUS
 62
     5
 10
524.886169
 20
727.723370
 11
533.886169
 21
727.723370
  0
LINE
  8
CSLAYER1
  6
CONTINUOUS
 62
     5
 10
526.047282
 20
720.217816
 11
533.886169
 21
720.217816
  0
LINE
  8
CSLAYER1
  6
CONTINUOUS
 62
     5
 10
526.047282
 20
720.217816
 11
524.886169
 21
722.228923
  0
LINE
  8
CSLAYER1
  6
CONTINUOUS
 62
     5
 10
526.047282
 20
750.240030
 11
524.886169
 21
748.228923
  0
LINE
  8
CSLAYER1
  6
CONTINUOUS
 62
     5
 10
546.886169
 20
749.228923
 11
542.886169
 21
749.228923
  0
LINE
  8
CSLAYER1
  6
CONTINUOUS
 62
     5
 10
546.886169
 20
721.228923
 11
542.886169
 21
721.228923
  0
LINE
  8
CSLAYER1
  6
CONTINUOUS
 62
     5
 10
557.886169
 20
744.228923
 11
557.886169
 21
726.228923
  0
LINE
  8
CSLAYER1
  6
CONTINUOUS
 62
     5
 10
560.386169
 20
745.043878
 11
560.386169
 21
725.413969
  0
LINE
  8
CSLAYER1
  6
CONTINUOUS
 62
     5
 10
560.386169
 20
744.228923
 11
555.886169
 21
744.228923
  0
LINE
  8
CSLAYER1
  6
CONTINUOUS
 62
     5
 10
560.386169
 20
726.228923
 11
555.886169
 21
726.228923
  0
LINE
  8
CSLAYER1
  6
CONTINUOUS
 62
     5
 10
560.386169
 20
745.043878
 11
567.626979
 21
745.043878
  0
LINE
  8
CSLAYER1
  6
CONTINUOUS
 62
     5
 10
570.886169
 20
740.136401
 11
560.386169
 21
740.136401
  0
LINE
  8
CSLAYER1
  6
CONTINUOUS
 62
     5
 10
570.886169
 20
730.321446
 11
560.386169
 21
730.321446
  0
LINE
  8
CSLAYER1
  6
CONTINUOUS
 62
     5
 10
567.626979
 20
725.413969
 11
560.386169
 21
725.413969
  0
LINE
  8
CSLAYER1
  6
CONTINUOUS
 62
     5
 10
567.626979
 20
725.413969
 11
568.386169
 21
726.728923
  0
LINE
  8
CSLAYER1
  6
CONTINUOUS
 62
     5
 10
567.626979
 20
745.043878
 11
568.386169
 21
743.728923
  0
LINE
  8
CSLAYER1
  6
CONTINUOUS
 62
     5
 10
568.386169
 20
743.728923
 11
568.386169
 21
726.728923
  0
LINE
  8
CSLAYER1
  6
CONTINUOUS
 62
     3
 10
2045.655327
 20
1387.995850
 11
1445.655327
 21
1387.995850
  0
LINE
  8
CSLAYER1
  6
CONTINUOUS
 62
     3
 10
1445.655327
 20
1387.995850
 11
1445.655327
 21
1987.995850
  0
LINE
  8
CSLAYER1
  6
CONTINUOUS
 62
     3
 10
2045.655327
 20
1387.995850
 11
2045.655327
 21
1987.995850
  0
LINE
  8
CSLAYER1
  6
CONTINUOUS
 62
     3
 10
2045.655327
 20
1987.995850
 11
1445.655327
 21
1987.995850
  0
LINE
  8
CSLAYER1
  6
CONTINUOUS
 62
     3
 10
887.886169
 20
600.741030
 11
851.311518
 21
600.741030
  0
LINE
  8
CSLAYER1
  6
CENTER
 62
     5
 10
946.886169
 20
570.491030
 11
496.886169
 21
570.491030
  0
LINE
  8
CSLAYER1
  6
CONTINUOUS
 62
     3
 10
592.460820
 20
600.741030
 11
555.886169
 21
600.741030
  0
LINE
  8
CSLAYER1
  6
CONTINUOUS
 62
     3
 10
698.386169
 20
905.540540
 11
698.386169
 21
795.356498
  0
LINE
  8
CSLAYER1
  6
CONTINUOUS
 62
     3
 10
698.386169
 20
795.356498
 11
689.386169
 21
795.356498
  0
LINE
  8
CSLAYER1
  6
CONTINUOUS
 62
     3
 10
689.386169
 20
795.356498
 11
689.386169
 21
905.540540
  0
LINE
  8
CSLAYER1
  6
CONTINUOUS
 62
     3
 10
689.386169
 20
905.540540
 11
698.386169
 21
905.540540
  0
LINE
  8
CSLAYER1
  6
CONTINUOUS
 62
     3
 10
689.386169
 20
851.273780
 11
555.886169
 21
851.273780
  0
LINE
  8
CSLAYER1
  6
CONTINUOUS
 62
     3
 10
745.386169
 20
905.540540
 11
745.386169
 21
795.356498
  0
LINE
  8
CSLAYER1
  6
CONTINUOUS
 62
     3
 10
745.386169
 20
795.356498
 11
754.386169
 21
795.356498
  0
LINE
  8
CSLAYER1
  6
CONTINUOUS
 62
     3
 10
754.386169
 20
795.356498
 11
754.386169
 21
905.540540
  0
LINE
  8
CSLAYER1
  6
CONTINUOUS
 62
     3
 10
754.386169
 20
905.540540
 11
745.386169
 21
905.540540
  0
LINE
  8
CSLAYER1
  6
CONTINUOUS
 62
     3
 10
745.386169
 20
851.273780
 11
698.386169
 21
851.273780
  0
LINE
  8
CSLAYER1
  6
CONTINUOUS
 62
     3
 10
699.386169
 20
825.956498
 11
699.386169
 21
798.756498
  0
LINE
  8
CSLAYER1
  6
CONTINUOUS
 62
     3
 10
699.386169
 20
798.756498
 11
744.386169
 21
798.756498
  0
LINE
  8
CSLAYER1
  6
CONTINUOUS
 62
     3
 10
744.386169
 20
798.756498
 11
744.386169
 21
825.956498
  0
LINE
  8
CSLAYER1
  6
CONTINUOUS
 62
     3
 10
744.386169
 20
825.956498
 11
699.386169
 21
825.956498
  0
LINE
  8
CSLAYER1
  6
CONTINUOUS
 62
     3
 10
702.886169
 20
798.756498
 11
702.886169
 21
795.031548
  0
LINE
  8
CSLAYER1
  6
CONTINUOUS
 62
     3
 10
740.886169
 20
798.756498
 11
740.886169
 21
795.031548
  0
ARC
  8
CSLAYER1
  6
CONTINUOUS
 62
     3
 10
721.886169
 20
816.207998
 40
24.757802
 50
224.820570
 51
315.179430
  0
ARC
  8
CSLAYER1
  6
CONTINUOUS
 62
     3
 10
721.886169
 20
810.904442
 40
24.757802
 50
219.875905
 51
320.124095
  0
LINE
  8
CSLAYER1
  6
CONTINUOUS
 62
     3
 10
700.536169
 20
795.031548
 11
700.536169
 21
720.781760
  0
LINE
  8
CSLAYER1
  6
CONTINUOUS
 62
     3
 10
743.236169
 20
795.031548
 11
743.236169
 21
720.781760
  0
ARC
  8
CSLAYER1
  6
CONTINUOUS
 62
     3
 10
721.886169
 20
777.195427
 40
27.819952
 50
39.875905
 51
46.924375
  0
ARC
  8
CSLAYER1
  6
CONTINUOUS
 62
     3
 10
721.886169
 20
812.867669
 40
27.819952
 50
219.875905
 51
320.124095
  0
ARC
  8
CSLAYER1
  6
CONTINUOUS
 62
     3
 10
721.886169
 20
738.617881
 40
27.819952
 50
219.875905
 51
320.124095
  0
ARC
  8
CSLAYER1
  6
CONTINUOUS
 62
     3
 10
721.886169
 20
777.195427
 40
27.819952
 50
133.075625
 51
140.124095
  0
ARC
  8
CSLAYER1
  6
CONTINUOUS
 62
     3
 10
721.886169
 20
699.896373
 40
32.576056
 50
39.875905
 51
49.050821
  0
ARC
  8
CSLAYER1
  6
CONTINUOUS
 62
     3
 10
721.886169
 20
741.667148
 40
32.576056
 50
219.875905
 51
320.124095
  0
ARC
  8
CSLAYER1
  6
CONTINUOUS
 62
     3
 10
721.886169
 20
701.480073
 40
32.314470
 50
219.317454
 51
320.682546
  0
ARC
  8
CSLAYER1
  6
CONTINUOUS
 62
     3
 10
721.886169
 20
699.896373
 40
32.576056
 50
130.949179
 51
140.124095
  0
LINE
  8
CSLAYER1
  6
CONTINUOUS
 62
     3
 10
746.886169
 20
720.781760
 11
746.886169
 21
681.005089
  0
LINE
  8
CSLAYER1
  6
CONTINUOUS
 62
     3
 10
696.886169
 20
720.781760
 11
696.886169
 21
681.005089
  0
ARC
  8
CSLAYER1
  6
CONTINUOUS
 62
     3
 10
721.886169
 20
693.293769
 40
26.060845
 50
224.307345
 51
315.692655
  0
LINE
  8
CSLAYER1
  6
CONTINUOUS
 62
     3
 10
706.886169
 20
671.982560
 11
706.886169
 21
650.495853
  0
LINE
  8
CSLAYER1
  6
CONTINUOUS
 62
     3
 10
736.886169
 20
671.982560
 11
736.886169
 21
650.495853
  0
LINE
  8
CSLAYER1
  6
CONTINUOUS
 62
     4
 10
1524.735345
 20
557.495853
 11
1661.693333
 21
690.006989
  0
LINE
  8
CSLAYER1
  6
CONTINUOUS
 62
     4
 10
1466.388786
 20
557.495853
 11
1479.905730
 21
604.805068
  0
LINE
  8
CSLAYER1
  6
CONTINUOUS
 62
     4
 10
1479.811197
 20
604.474202
 11
1614.953826
 21
735.228923
  0
LINE
  8
CSLAYER1
  6
CONTINUOUS
 62
     4
 10
1843.575468
 20
865.983644
 11
1858.436127
 21
917.995850
  0
POINT
  8
CSLAYER1
 62
     4
 10
1679.479557
 20
812.356498
  0
ARC
  8
CSLAYER1
  6
CONTINUOUS
 62
     6
 10
1679.479557
 20
812.356498
 40
17.000000
 50
127.421481
 51
261.010455
  0
LINE
  8
CSLAYER1
  6
CONTINUOUS
 62
     6
 10
1772.482077
 20
904.923100
 11
1669.149105
 21
825.857675
  0
ARC
  8
CSLAYER1
  6
CONTINUOUS
 62
     6
 10
1801.200086
 20
881.523780
 40
30.250000
 50
97.712629
 51
170.396522
  0
ARC
  8
CSLAYER1
  6
CONTINUOUS
 62
     4
 10
1801.200086
 20
881.523780
 40
31.000000
 50
138.426322
 51
172.240677
  0
ARC
  8
CSLAYER1
  6
CONTINUOUS
 62
     6
 10
1774.305098
 20
902.540540
 40
3.000000
 50
29.607259
 51
127.421481
  0
LINE
  8
CSLAYER1
  6
CONTINUOUS
 62
     6
 10
1776.913395
 20
904.022696
 11
1778.008892
 21
902.094841
  0
POINT
  8
CSLAYER1
 62
     4
 10
1801.200086
 20
881.523780
  0
CIRCLE
  8
CSLAYER1
  6
CONTINUOUS
 62
     1
 10
1661.693333
 20
735.228923
 40
7.500000
  0
LINE
  8
CSLAYER1
  6
CONTINUOUS
 62
     7
 10
1843.575468
 20
604.474202
 11
1856.997879
 21
557.495853
  0
ARC
  8
CSLAYER1
  6
CONTINUOUS
 62
     6
 10
1805.832300
 20
573.519682
 40
17.000000
 50
212.144487
 51
239.746361
  0
POINT
  8
CSLAYER1
 62
     4
 10
1805.832300
 20
573.519682
  0
POINT
  8
CSLAYER1
 62
     4
 10
1865.755811
 20
570.491030
  0
LINE
  8
CSLAYER1
  6
CONTINUOUS
 62
     7
 10
1479.811197
 20
865.983644
 11
1798.651320
 21
557.495853
  0
LINE
  8
CSLAYER1
  6
CONTINUOUS
 62
     7
 10
1519.532561
 20
917.995850
 11
1843.575468
 21
604.474202
  0
LINE
  8
CSLAYER1
  6
CONTINUOUS
 62
     7
 10
1464.950539
 20
917.995850
 11
1479.905730
 21
865.652778
  0
CIRCLE
  8
CSLAYER1
  6
CONTINUOUS
 62
     5
 10
1661.693333
 20
735.228923
 40
10.000000
  0
ARC
  8
CSLAYER1
  6
CONTINUOUS
 62
     7
 10
1865.755811
 20
570.491030
 40
30.250000
 50
65.247758
 51
104.057973
  0
LINE
  8
CSLAYER2
  6
CONTINUOUS
 62
     3
 10
1746.797507
 20
730.765591
 11
1732.246878
 21
758.269751
  0
LINE
  8
CSLAYER2
  6
CONTINUOUS
 62
     3
 10
1771.145770
 20
692.546939
 11
1750.023837
 21
732.472429
  0
LINE
  8
CSLAYER2
  6
CONTINUOUS
 62
     3
 10
1771.067040
 20
692.695757
 11
1758.994473
 21
686.308961
  0
LINE
  8
CSLAYER2
  6
CONTINUOUS
 62
     3
 10
1768.985544
 20
685.937993
 11
1762.774183
 21
682.651973
  0
LINE
  8
CSLAYER2
  6
CONTINUOUS
 62
     3
 10
1767.471972
 20
678.106715
 11
1764.565913
 21
683.599859
  0
LINE
  8
CSLAYER1
  6
CONTINUOUS
 62
     3
 10
1771.067040
 20
692.695757
 11
1768.985544
 21
685.937993
  0
LINE
  8
CSLAYER1
  6
CONTINUOUS
 62
     3
 10
1670.404723
 20
788.879401
 11
1669.044686
 21
791.450196
  0
LINE
  8
CSLAYER1
  6
CONTINUOUS
 62
     3
 10
1677.908304
 20
796.139349
 11
1669.044686
 21
791.450196
  0
LINE
  8
CSLAYER2
  6
CONTINUOUS
 62
     3
 10
1750.023837
 20
732.472429
 11
1724.977083
 21
719.221850
  0
LINE
  8
CSLAYER1
  6
CONTINUOUS
 62
     3
 10
2045.886169
 20
507.495853
 11
2045.886169
 21
557.495853
  0
LINE
  8
CSLAYER1
  6
CONTINUOUS
 62
     3
 10
2045.886169
 20
557.495853
 11
1446.886169
 21
557.495853
  0
LINE
  8
CSLAYER1
  6
CONTINUOUS
 62
     3
 10
1446.886169
 20
557.495853
 11
1446.886169
 21
507.495853
  0
POINT
  8
CSLAYER1
 62
     5
 10
1475.886169
 20
532.495853
  0
POINT
  8
CSLAYER1
 62
     5
 10
1847.500496
 20
532.495853
  0
LINE
  8
CSLAYER1
  6
CONTINUOUS
 62
     4
 10
1708.432839
 20
735.228923
 11
1843.575468
 21
865.983644
  0
LINE
  8
CSLAYER1
  6
CONTINUOUS
 62
     4
 10
1661.693333
 20
780.450858
 11
1803.854104
 21
917.995850
  0
CIRCLE
  8
CSLAYER1
  6
CONTINUOUS
 62
     6
 10
1679.479557
 20
812.356498
 40
8.100000
  0
TEXT
  8
CSLAYER1
 62
     3
 10
628.425964
 20
1780.251221
 40
50.000000
 41
1.020000
  1
ＵＰ・ＤＯＷＮ
 50
0.000000
 51
0.000000
  7
EASYDRAW_FONT
 72
     5
 11
968.425964
 21
1780.251221
  0
TEXT
  8
CSLAYER1
 62
     3
 10
629.170776
 20
1851.752808
 40
50.000000
 41
1.020000
  1
フットスイッチ
 50
0.000000
 51
0.000000
  7
EASYDRAW_FONT
 72
     5
 11
969.170776
 21
1851.752808
  0
LINE
  8
CSLAYER1
  6
CONTINUOUS
 62
     3
 10
1298.655810
 20
1567.995850
 11
1025.655327
 21
1567.995850
  0
LINE
  8
CSLAYER1
  6
CONTINUOUS
 62
     3
 10
1299.188447
 20
1560.995850
 11
1025.655327
 21
1560.995850
  0
ARC
  8
CSLAYER1
  6
CONTINUOUS
 62
     3
 10
1292.351050
 20
1607.495850
 40
40.000000
 50
-80.931278
 51
243.817766
  0
ARC
  8
CSLAYER1
  6
CONTINUOUS
 62
     3
 10
1292.351050
 20
1607.495850
 40
47.000000
 50
-81.635125
 51
229.860785
  0
LINE
  8
CSLAYER1
  6
CONTINUOUS
 62
     3
 10
1445.655327
 20
1567.995850
 11
1322.342666
 21
1567.995850
  0
LINE
  8
CSLAYER1
  6
CONTINUOUS
 62
     3
 10
1445.655327
 20
1560.995850
 11
1311.635775
 21
1560.995850
  0
LINE
  8
CSLAYER1
  6
CONTINUOUS
 62
     3
 10
1445.655327
 20
1538.995850
 11
1266.758139
 21
1538.995850
  0
LINE
  8
CSLAYER1
  6
CONTINUOUS
 62
     3
 10
1445.655327
 20
1545.995850
 11
1256.876348
 21
1545.995850
  0
TEXT
  8
CSLAYER1
 62
     3
 10
550.209229
 20
1454.755005
 40
50.000000
 41
1.028571
  1
電源コード
 50
0.000000
 51
0.000000
  7
EASYDRAW_FONT
 72
     5
 11
790.209229
 21
1454.755005
  0
TEXT
  8
CSLAYER1
 62
     3
 10
567.269775
 20
1384.623169
 40
50.000000
 41
1.036364
  1
長サ４ｍ
 50
0.000000
 51
0.000000
  7
EASYDRAW_FONT
 72
     5
 11
757.269775
 21
1384.623169
  0
LINE
  8
CSLAYER1
  6
CONTINUOUS
 62
     5
 10
809.270847
 20
1443.424341
 11
1004.596535
 21
1391.086980
  0
LINE
  8
CSLAYER1
  6
CONTINUOUS
 62
     5
 10
1004.596535
 20
1391.086980
 11
974.596535
 21
1391.086980
  0
LINE
  8
CSLAYER1
  6
CONTINUOUS
 62
     5
 10
1004.596535
 20
1391.086980
 11
978.615773
 21
1406.086980
  0
LINE
  8
CSLAYER1
  6
CONTINUOUS
 62
     5
 10
612.224080
 20
1841.114801
 11
1015.799310
 21
1841.114801
  0
LINE
  8
CSLAYER1
  6
CONTINUOUS
 62
     5
 10
532.592694
 20
1443.424341
 11
809.270847
 21
1443.424341
  0
LINE
  8
CSLAYER1
  6
CONTINUOUS
 62
     3
 10
1020.257822
 20
1392.383611
 11
1015.187194
 21
1390.473894
  0
LINE
  8
CSLAYER1
  6
CONTINUOUS
 62
     3
 10
1015.187194
 20
1390.473894
 11
1008.762562
 21
1390.295432
  0
LINE
  8
CSLAYER1
  6
CONTINUOUS
 62
     3
 10
1021.312151
 20
1390.994509
 11
1015.663092
 21
1388.629786
  0
LINE
  8
CSLAYER1
  6
CONTINUOUS
 62
     3
 10
1015.663092
 20
1388.629786
 11
1010.309233
 21
1387.321065
  0
LINE
  8
CSLAYER1
  6
CONTINUOUS
 62
     3
 10
1022.154346
 20
1389.884899
 11
1017.269250
 21
1387.023629
  0
LINE
  8
CSLAYER1
  6
CONTINUOUS
 62
     3
 10
1017.269250
 20
1387.023629
 11
1014.949244
 21
1383.692338
  0
ARC
  8
CSLAYER1
  6
CONTINUOUS
 62
     3
 10
1235.223198
 20
1498.995850
 40
47.000000
 50
-190.756396
 51
127.198537
  0
ARC
  8
CSLAYER1
  6
CONTINUOUS
 62
     3
 10
1235.223198
 20
1498.995850
 40
40.000000
 50
-203.471057
 51
127.198537
  0
LINE
  8
CSLAYER1
  6
CONTINUOUS
 62
     3
 10
1019.074068
 20
1393.943231
 11
1206.807996
 21
1536.433482
  0
LINE
  8
CSLAYER1
  6
CONTINUOUS
 62
     3
 10
1023.306120
 20
1388.367414
 11
1211.040047
 21
1530.857664
  0
LINE
  8
CSLAYER1
  6
CONTINUOUS
 62
     3
 10
1019.074068
 20
1393.943231
 11
1023.306120
 21
1388.367414
  0
LINE
  8
CSLAYER1
  6
CONTINUOUS
 62
     5
 10
972.620301
 20
1636.995850
 11
1015.592380
 21
1840.136585
  0
LINE
  8
CSLAYER1
  6
CONTINUOUS
 62
     5
 10
972.620301
 20
1636.995850
 11
971.021034
 21
1666.953192
  0
LINE
  8
CSLAYER1
  6
CONTINUOUS
 62
     5
 10
972.620301
 20
1636.995850
 11
986.213966
 21
1663.739303
  0
LINE
  8
CSLAYER1
  6
CENTER
 62
     5
 10
2072.332467
 20
1687.995850
 11
1416.573331
 21
1687.995850
  0
LINE
  8
CSLAYER1
  6
PHANTOM
 62
     5
 10
2045.886169
 20
662.495853
 11
1445.886169
 21
662.495853
  0
LINE
  8
CSLAYER1
  6
PHANTOM
 62
     5
 10
1445.886169
 20
617.495853
 11
2045.886169
 21
617.495853
  0
LINE
  8
CSLAYER1
  6
PHANTOM
 62
     5
 10
2045.886169
 20
617.495853
 11
2045.886169
 21
662.495853
  0
LINE
  8
CSLAYER1
  6
PHANTOM
 62
     5
 10
1445.886169
 20
662.495853
 11
1445.886169
 21
617.495853
  0
LINE
  8
CSLAYER1
  6
CONTINUOUS
 62
     5
 10
1077.035550
 20
784.870936
 11
1394.921557
 21
784.870936
  0
LINE
  8
CSLAYER1
  6
CONTINUOUS
 62
     5
 10
1394.921557
 20
784.870936
 11
1458.825760
 21
648.609131
  0
LINE
  8
CSLAYER1
  6
CONTINUOUS
 62
     5
 10
1458.825760
 20
648.609131
 11
1439.491765
 21
671.548108
  0
LINE
  8
CSLAYER1
  6
CONTINUOUS
 62
     5
 10
1458.825760
 20
648.609131
 11
1453.551518
 21
678.141865
  0
TEXT
  8
CSLAYER1
 62
     3
 10
1081.087402
 20
806.979797
 40
50.000000
 41
1.111765
  1
油圧ユニット
 50
0.000000
 51
0.000000
  7
EASYDRAW_FONT
 72
     5
 11
1396.087402
 21
806.979797
  0
DIMENSION
  8
CSLAYER1
 62
     3
  2
*D0000
 10
2195.655327
 20
1987.995850
 11
2185.655518
 21
1687.995850
 13
2045.655327
 23
1387.995850
 14
2045.655327
 24
1987.995850
 50
90.000000
 70
1
  0
DIMENSION
  8
CSLAYER1
 62
     3
  2
*D0001
 10
2195.655327
 20
662.495853
 11
2185.655518
 21
584.995850
 13
2355.655327
 23
507.495853
 14
2045.886169
 24
662.495853
 50
90.000000
  0
DIMENSION
  8
CSLAYER1
 62
     3
  2
*D0002
 10
2195.655327
 20
962.995850
 11
2185.655518
 21
812.745850
 13
2015.655327
 23
662.495853
 14
2015.655327
 24
962.995850
 50
90.000000
 70
1
  0
DIMENSION
  8
CSLAYER1
 62
     3
  2
*D0003
 10
2355.655327
 20
507.495853
 11
2345.655518
 21
735.245850
 13
2355.655327
 23
962.995850
 14
2355.655327
 24
507.495853
 50
90.000000
 70
1
  0
DIMENSION
  8
CSLAYER1
 62
     3
  2
*D0004
 10
2045.655327
 20
1087.995850
 11
1745.655273
 21
1097.995850
 13
1445.655327
 23
962.995850
 14
2045.655327
 24
962.995850
 70
1
  0
TEXT
  8
CSLAYER1
 62
     3
 10
2444.279541
 20
526.036926
 40
50.000000
 41
0.900000
  1
F.L
 50
0.000000
 51
0.000000
  7
EASYDRAW_FONT
 72
     5
 11
2564.279541
 21
526.036926
  0
DIMENSION
  8
CSLAYER1
 62
     3
  2
*D0005
 10
2045.886169
 20
357.495853
 11
1746.386108
 21
367.495850
 13
1446.886169
 23
507.495853
 14
2045.886169
 24
507.495853
 52
270.000000
 70
1
  0
DIMENSION
  8
CSLAYER1
 62
     3
  2
*D0006
 10
946.886169
 20
357.495853
 11
721.886169
 21
367.495850
 13
496.886169
 23
507.495853
 14
946.886169
 24
507.495853
 52
270.000000
 70
1
  0
LINE
  8
CSLAYER1
  6
CONTINUOUS
 62
     5
 10
3354.260236
 20
2191.054554
 11
2633.387719
 21
2191.054554
  0
LINE
  8
CSLAYER1
  6
CONTINUOUS
 62
     5
 10
3354.260236
 20
2127.054556
 11
2633.387719
 21
2127.054556
  0
LINE
  8
CSLAYER1
  6
CONTINUOUS
 62
     5
 10
3354.260236
 20
2063.054557
 11
2633.387719
 21
2063.054557
  0
LINE
  8
CSLAYER1
  6
CONTINUOUS
 62
     5
 10
3354.260236
 20
1999.054559
 11
2634.260254
 21
1999.054559
  0
LINE
  8
CSLAYER1
  6
CONTINUOUS
 62
     5
 10
3354.260236
 20
1935.054561
 11
2633.387719
 21
1935.054561
  0
LINE
  8
CSLAYER1
  6
CONTINUOUS
 62
     5
 10
3354.260236
 20
1871.054562
 11
2633.387719
 21
1871.054562
  0
LINE
  8
CSLAYER1
  6
CONTINUOUS
 62
     5
 10
3354.260236
 20
1807.054564
 11
2633.387719
 21
1807.054564
  0
LINE
  8
CSLAYER1
  6
CONTINUOUS
 62
     5
 10
3354.260236
 20
1743.054565
 11
2633.387719
 21
1743.054565
  0
LINE
  8
CSLAYER1
  6
CONTINUOUS
 62
     5
 10
3354.260236
 20
1679.054567
 11
2633.387719
 21
1679.054567
  0
LINE
  8
CSLAYER1
  6
CONTINUOUS
 62
     5
 10
3354.260236
 20
1615.054569
 11
2633.387719
 21
1615.054569
  0
LINE
  8
CSLAYER1
  6
CONTINUOUS
 62
     5
 10
3354.260236
 20
1551.054570
 11
2633.387719
 21
1551.054570
  0
TEXT
  8
CSLAYER1
 62
     3
 10
2829.111572
 20
2270.873535
 40
40.000000
 41
0.857143
  1
仕   様
 50
0.000000
 51
0.000000
  7
EASYDRAW_FONT
 72
     5
 11
2989.111572
 21
2270.873535
  0
TEXT
  8
CSLAYER1
 62
     3
 10
2644.146973
 20
2199.277588
 40
40.000000
 41
0.847059
  1
型    式
 50
0.000000
 51
0.000000
  7
EASYDRAW_FONT
 72
     5
 11
2836.146973
 21
2199.277588
  0
TEXT
  8
CSLAYER1
 62
     3
 10
2642.327393
 20
2076.787598
 40
40.000000
 41
0.847059
  1
テーブル寸法
 50
0.000000
 51
0.000000
  7
EASYDRAW_FONT
 72
     5
 11
2834.327393
 21
2076.787598
  0
TEXT
  8
CSLAYER1
 62
     3
 10
2644.146973
 20
2013.723633
 40
40.000000
 41
0.847059
  1
テーブル高サ
 50
0.000000
 51
0.000000
  7
EASYDRAW_FONT
 72
     5
 11
2836.146973
 21
2013.723633
  0
TEXT
  8
CSLAYER1
 62
     3
 10
2645.593994
 20
1948.840820
 40
40.000000
 41
0.857143
  1
ストローク
 50
0.000000
 51
0.000000
  7
EASYDRAW_FONT
 72
     5
 11
2805.593994
 21
1948.840820
  0
TEXT
  8
CSLAYER1
 62
     3
 10
2644.987549
 20
1883.958008
 40
40.000000
 41
0.857143
  1
全   長
 50
0.000000
 51
0.000000
  7
EASYDRAW_FONT
 72
     5
 11
2804.987549
 21
1883.958008
  0
TEXT
  8
CSLAYER1
 62
     3
 10
2647.258789
 20
1818.107178
 40
40.000000
 41
0.857143
  1
全   巾
 50
0.000000
 51
0.000000
  7
EASYDRAW_FONT
 72
     5
 11
2807.258789
 21
1818.107178
  0
TEXT
  8
CSLAYER1
 62
     3
 10
2645.700928
 20
1754.222046
 40
40.000000
 41
0.857143
  1
全   高
 50
0.000000
 51
0.000000
  7
EASYDRAW_FONT
 72
     5
 11
2805.700928
 21
1754.222046
  0
TEXT
  8
CSLAYER1
 62
     3
 10
2645.700928
 20
1691.895508
 40
40.000000
 41
0.857143
  1
リフト方式
 50
0.000000
 51
0.000000
  7
EASYDRAW_FONT
 72
     5
 11
2805.700928
 21
1691.895508
  0
TEXT
  8
CSLAYER1
 62
     3
 10
2644.560791
 20
1561.007935
 40
40.000000
 41
0.872727
  1
モーター
 50
0.000000
 51
0.000000
  7
EASYDRAW_FONT
 72
     5
 11
2772.560791
 21
1561.007935
  0
LINE
  8
CSLAYER1
  6
CONTINUOUS
 62
     5
 10
3354.260236
 20
1487.054572
 11
2633.387719
 21
1487.054572
  0
LINE
  8
CSLAYER1
  6
CONTINUOUS
 62
     5
 10
3354.260236
 20
1359.054575
 11
2631.249217
 21
1359.054575
  0
LINE
  8
CSLAYER1
  6
CONTINUOUS
 62
     5
 10
3354.260236
 20
1295.054577
 11
2633.387719
 21
1295.054577
  0
LINE
  8
CSLAYER1
  6
CONTINUOUS
 62
     5
 10
3354.260236
 20
1231.054578
 11
2633.387719
 21
1231.054578
  0
LINE
  8
CSLAYER1
  6
CONTINUOUS
 62
     5
 10
3354.260236
 20
1167.054580
 11
2633.387719
 21
1167.054580
  0
TEXT
  8
CSLAYER1
 62
     3
 10
2647.142090
 20
1242.176392
 40
40.000000
 41
0.857143
  1
自  　重
 50
0.000000
 51
0.000000
  7
EASYDRAW_FONT
 72
     5
 11
2807.142090
 21
1242.176392
  0
TEXT
  8
CSLAYER1
 62
     3
 10
2638.461426
 20
1178.837036
 40
40.000000
 41
0.825000
  1
塗装色（マンセル値） 
 50
0.000000
 51
0.000000
  7
EASYDRAW_FONT
 72
     5
 11
2990.461426
 21
1178.837036
  0
TEXT
  8
CSLAYER1
 62
     3
 10
3125.813721
 20
2135.393555
 40
40.000000
 41
0.900000
  1
300
 50
0.000000
 51
0.000000
  7
EASYDRAW_FONT
 72
     5
 11
3221.813721
 21
2135.393555
  0
TEXT
  8
CSLAYER1
 62
     3
 10
3283.726074
 20
2134.112793
 40
40.000000
 41
0.960000
  1
Ｋｇ
 50
0.000000
 51
0.000000
  7
EASYDRAW_FONT
 72
     5
 11
3347.726074
 21
2134.112793
  0
TEXT
  8
CSLAYER1
 62
     3
 10
2966.627197
 20
2071.797119
 40
40.000000
 41
0.834783
  1
600 ×600
 50
0.000000
 51
0.000000
  7
EASYDRAW_FONT
 72
     5
 11
3222.627197
 21
2071.797119
  0
TEXT
  8
CSLAYER1
 62
     3
 10
3225.921631
 20
2083.620605
 40
40.000000
 41
1.200000
  1
Ｗ
 50
0.000000
 51
0.000000
  7
EASYDRAW_FONT
 72
     5
 11
3257.921631
 21
2083.620605
  0
TEXT
  8
CSLAYER1
 62
     3
 10
3059.505127
 20
2089.784180
 40
40.000000
 41
1.200000
  1
Ｌ
 50
0.000000
 51
0.000000
  7
EASYDRAW_FONT
 72
     5
 11
3091.505127
 21
2089.784180
  0
TEXT
  8
CSLAYER1
 62
     3
 10
2997.161133
 20
2010.749023
 40
40.000000
 41
0.840000
  1
155～435
 50
0.000000
 51
0.000000
  7
EASYDRAW_FONT
 72
     5
 11
3221.161133
 21
2010.749023
  0
TEXT
  8
CSLAYER1
 62
     3
 10
3127.749268
 20
1946.779907
 40
40.000000
 41
0.900000
  1
280
 50
0.000000
 51
0.000000
  7
EASYDRAW_FONT
 72
     5
 11
3223.749268
 21
1946.779907
  0
TEXT
  8
CSLAYER1
 62
     3
 10
3127.749268
 20
1881.770874
 40
40.000000
 41
0.900000
  1
600
 50
0.000000
 51
0.000000
  7
EASYDRAW_FONT
 72
     5
 11
3223.749268
 21
1881.770874
  0
TEXT
  8
CSLAYER1
 62
     3
 10
3125.526855
 20
1818.984131
 40
40.000000
 41
0.900000
  1
600
 50
0.000000
 51
0.000000
  7
EASYDRAW_FONT
 72
     5
 11
3221.526855
 21
1818.984131
  0
TEXT
  8
CSLAYER1
 62
     3
 10
2932.738037
 20
1692.850220
 40
40.000000
 41
0.830769
  1
電 動 油 圧 式
 50
0.000000
 51
0.000000
  7
EASYDRAW_FONT
 72
     5
 11
3220.738037
 21
1692.850220
  0
TEXT
  8
CSLAYER1
 62
     3
 10
2854.021484
 20
1564.647827
 40
40.000000
 41
0.817021
  1
ＡＣ２００Ｖ，３相、０．５５ＫＷ
 50
0.000000
 51
0.000000
  7
EASYDRAW_FONT
 72
     5
 11
3366.021484
 21
1564.647827
  0
TEXT
  8
CSLAYER1
 62
     3
 10
3006.650391
 20
1498.081421
 40
40.000000
 41
0.840000
  1
長 サ ４ ｍ
 50
0.000000
 51
0.000000
  7
EASYDRAW_FONT
 72
     5
 11
3230.650391
 21
1498.081421
  0
TEXT
  8
CSLAYER1
 62
     3
 10
2875.517746
 20
1431.248119
 40
38.786964
 41
0.595710
  1
４ｓｅｃ／50ＨＺ,３sec/60HZ
 50
0.000000
 51
0.000000
  7
EASYDRAW_FONT
 72
     5
 11
3306.825516
 21
1431.248119
  0
TEXT
  8
CSLAYER1
 62
     3
 10
3117.321533
 20
1243.309937
 40
40.000000
 41
0.840000
  1
69  　Ｋｇ
 50
0.000000
 51
0.000000
  7
EASYDRAW_FONT
 72
     5
 11
3341.321533
 21
1243.309937
  0
TEXT
  8
CSLAYER1
 62
     3
 10
3123.518066
 20
1754.322876
 40
40.000000
 41
0.900000
  1
155
 50
0.000000
 51
0.000000
  7
EASYDRAW_FONT
 72
     5
 11
3219.518066
 21
1754.322876
  0
TEXT
  8
CSLAYER1
 62
     3
 10
3281.212158
 20
2070.009277
 40
40.000000
 41
0.960000
  1
mm
 50
0.000000
 51
0.000000
  7
EASYDRAW_FONT
 72
     5
 11
3345.212158
 21
2070.009277
  0
TEXT
  8
CSLAYER1
 62
     3
 10
3281.212158
 20
2009.675903
 40
40.000000
 41
0.960000
  1
mm
 50
0.000000
 51
0.000000
  7
EASYDRAW_FONT
 72
     5
 11
3345.212158
 21
2009.675903
  0
TEXT
  8
CSLAYER1
 62
     3
 10
3277.441162
 20
1945.572021
 40
40.000000
 41
0.960000
  1
mm
 50
0.000000
 51
0.000000
  7
EASYDRAW_FONT
 72
     5
 11
3341.441162
 21
1945.572021
  0
TEXT
  8
CSLAYER1
 62
     3
 10
3277.441162
 20
1877.697021
 40
40.000000
 41
0.960000
  1
mm
 50
0.000000
 51
0.000000
  7
EASYDRAW_FONT
 72
     5
 11
3341.441162
 21
1877.697021
  0
TEXT
  8
CSLAYER1
 62
     3
 10
3274.927734
 20
1817.364258
 40
40.000000
 41
0.960000
  1
mm
 50
0.000000
 51
0.000000
  7
EASYDRAW_FONT
 72
     5
 11
3338.927734
 21
1817.364258
  0
TEXT
  8
CSLAYER1
 62
     3
 10
3274.927734
 20
1753.259521
 40
40.000000
 41
0.960000
  1
mm
 50
0.000000
 51
0.000000
  7
EASYDRAW_FONT
 72
     5
 11
3338.927734
 21
1753.259521
  0
LINE
  8
CSLAYER1
  6
CONTINUOUS
 62
     5
 10
3017.164657
 20
2255.054553
 11
2808.778685
 21
2255.054553
  0
LINE
  8
CSLAYER1
  6
CONTINUOUS
 62
     5
 10
3017.164657
 20
2263.054552
 11
2808.778685
 21
2263.054552
  0
TEXT
  8
CSLAYER1
 62
     3
 10
2648.142578
 20
1624.893921
 40
40.000000
 41
1.036364
  1
操作方式
 50
0.000000
 51
0.000000
  7
EASYDRAW_FONT
 72
     5
 11
2800.142578
 21
1624.893921
  0
LINE
  8
CSLAYER1
  6
CONTINUOUS
 62
     5
 10
3354.260236
 20
1423.054573
 11
2633.387719
 21
1423.054573
  0
TEXT
  8
CSLAYER1
 62
     3
 10
2645.476807
 20
1497.690796
 40
40.000000
 41
0.942857
  1
電源コード
 50
0.000000
 51
0.000000
  7
EASYDRAW_FONT
 72
     5
 11
2821.476807
 21
1497.690796
  0
TEXT
  8
CSLAYER1
 62
     3
 10
3021.592529
 20
1178.022095
 40
40.000000
 41
0.930000
  1
１０Ｒ４／１３
 50
0.000000
 51
0.000000
  7
EASYDRAW_FONT
 72
     5
 11
3269.592529
 21
1178.022095
  0
TEXT
  8
CSLAYER1
 62
     3
 10
2642.859619
 20
1433.414185
 40
40.000000
 41
0.954545
  1
上昇時間
 50
0.000000
 51
0.000000
  7
EASYDRAW_FONT
 72
     5
 11
2782.859619
 21
1433.414185
  0
TEXT
  8
CSLAYER1
 62
     3
 10
2768.798096
 20
1371.723999
 40
40.000000
 41
0.917143
  1
上昇端リミットスイッチ付
 50
0.000000
 51
0.000000
  7
EASYDRAW_FONT
 72
     5
 11
3196.798096
 21
1371.723999
  0
TEXT
  8
CSLAYER1
 62
     3
 10
2897.159214
 20
2200.787008
 40
40.809284
 41
0.900085
  1
GLE-300-0606
 50
0.000000
 51
0.000000
  7
EASYDRAW_FONT
 72
     5
 11
3325.697231
 21
2200.787008
  0
TEXT
  8
CSLAYER1
 62
     3
 10
2932.109131
 20
1629.982178
 40
40.000000
 41
1.020000
  1
フットスイッチ
 50
0.000000
 51
0.000000
  7
EASYDRAW_FONT
 72
     5
 11
3204.109131
 21
1629.982178
  0
TEXT
  8
CSLAYER1
 62
     3
 10
628.425964
 20
1718.776733
 40
50.000000
 41
1.020000
  1
コード長サ２ｍ
 50
0.000000
 51
0.000000
  7
EASYDRAW_FONT
 72
     5
 11
968.425964
 21
1718.776733
  0
TEXT
  8
CSLAYER1
 62
     3
 10
2648.142578
 20
2136.893799
 40
40.000000
 41
1.036364
  1
積載荷重
 50
0.000000
 51
0.000000
  7
EASYDRAW_FONT
 72
     5
 11
2800.142578
 21
2136.893799
  0
ENDSEC
  0
EOF
