  0
SECTION
  2
HEADER
  9
$ACADVER
  1
AC1006
  9
$INSBASE
 10
0.000000
 20
0.000000
 30
0.0
  9
$EXTMIN
 10
0.000000
 20
0.000000
  9
$EXTMAX
 10
3640.000000
 20
2570.000000
  9
$LIMMIN
 10
0.000000
 20
0.000000
  9
$LIMMAX
 10
3640.000000
 20
2570.000000
  9
$VIEWCTR
 10
1820.000000
 20
1285.000000
  9
$VIEWSIZE
 40
2570.000000
  9
$SNAPMODE
 70
     0
  9
$SNAPUNIT
 10
1.0
 20
1.0
  9
$SNAPBASE
 10
0.0
 20
0.0
  9
$SNAPANG
 50
0.0
  9
$SNAPSTYLE
 70
     0
  9
$SNAPISOPAIR
 70
     0
  9
$GRIDMODE
 70
     0
  9
$GRIDUNIT
 10
0.0
 20
0.0
  9
$ORTHOMODE
 70
     0
  9
$REGENMODE
 70
     1
  9
$FILLMODE
 70
     1
  9
$QTEXTMODE
 70
     0
  9
$DRAGMODE
 70
     2
  9
$LTSCALE
 40
15.000000
  9
$OSMODE
 70
     0
  9
$ATTMODE
 70
     1
  9
$TEXTSIZE
 40
0.2
  9
$TRACEWID
 40
0.05
  9
$TEXTSTYLE
  7
STANDARD
  9
$CLAYER
  8
CSLAYER1
  9
$CELTYPE
  6
BYLAYER
  9
$CECOLOR
 62
   256
  9
$DIMSCALE
 40
1.0
  9
$DIMASZ
 40
0.18
  9
$DIMEXO
 40
0.0625
  9
$DIMDLI
 40
0.38
  9
$DIMRND
 40
0.0
  9
$DIMDLE
 40
0.0
  9
$DIMEXE
 40
0.18
  9
$DIMTP
 40
0.0
  9
$DIMTM
 40
0.0
  9
$DIMTXT
 40
0.18
  9
$DIMCEN
 40
0.09
  9
$DIMTSZ
 40
0.0
  9
$DIMTOL
 70
     0
  9
$DIMLIM
 70
     0
  9
$DIMTIH
 70
     1
  9
$DIMTOH
 70
     1
  9
$DIMSE1
 70
     0
  9
$DIMSE2
 70
     0
  9
$DIMTAD
 70
     0
  9
$DIMZIN
 70
     0
  9
$DIMBLK
  1

  9
$LUNITS
 70
     2
  9
$LUPREC
 70
     4
  9
$AXISMODE
 70
     0
  9
$AXISUNIT
 10
0.0
 20
0.0
  9
$SKETCHINC
 40
0.1
  9
$FILLETRAD
 40
0.0
  9
$AUNITS
 70
     0
  9
$AUPREC
 70
     0
  9
$MENU
  1
ACAD
  9
$ELEVATION
 40
0.0
  9
$THICKNESS
 40
0.0
  9
$VIEWDIR
 10
0.0
 20
0.0
 30
1.0
  9
$LIMCHECK
 70
     0
  9
$BLIPMODE
 70
     1
  9
$CHAMFERA
 40
0.0
  9
$CHAMFERB
 40
0.0
  9
$FASTZOOM
 70
     1
  9
$SKPOLY
 70
     0
  9
$TDCREATE
 40
2456685.000000
  9
$TDUPDATE
 40
2456685.000000
  9
$TDINDWG
 40
0.0
  9
$TDUSRTIMER
 40
0.0
  9
$USRTIMER
 70
     1
  9
$ANGBASE
 50
0.0
  9
$ANGDIR
 70
     0
  9
$PDMODE
 70
     0
  9
$PDSIZE
 40
0.0
  9
$PLINEWID
 40
0.0
  9
$COORDS
 70
     0
  9
$USERI1
 70
     0
  9
$USERI2
 70
     0
  9
$USERI3
 70
     0
  9
$USERI4
 70
     0
  9
$USERI5
 70
     0
  9
$USERR1
 40
0.0
  9
$USERR2
 40
0.0
  9
$USERR3
 40
0.0
  9
$USERR4
 40
0.0
  9
$USERR5
 40
0.0
  0
ENDSEC
  0
SECTION
  2
TABLES
  0
TABLE
  2
LTYPE
 70
     9
  0
LTYPE
  2
CONTINUOUS
 70
    64
  3
Solid line
 72
    65
 73
     0
 40
0.0
  0
LTYPE
  2
DASHED
 70
    64
  3
__ __ __ __ __ __ __ __ __ __ __ __ __ __ __
 72
    65
 73
     2
 40
0.75
 49
0.5
 49
-0.25
  0
LTYPE
  2
HIDDEN
 70
    64
  3
_ _ _ _ _ _ _ _ _ _ _ _ _ _ _ _ _ _ _ _ _ _ _
 72
    65
 73
     2
 40
0.375
 49
0.25
 49
-0.125
  0
LTYPE
  2
DOT
 70
    64
  3
...............................................
 72
    65
 73
     2
 40
0.25
 49
0.0
 49
-0.25
  0
LTYPE
  2
DASHDOT
 70
    64
  3
__ . __ . __ . __ . __ . __ . __ . __ . __ . __
 72
    65
 73
     4
 40
1.0
 49
0.5
 49
-0.25
 49
0.0
 49
-0.25
  0
LTYPE
  2
DIVIDE
 70
    64
  3
__ . . __ . . __ . . __ . . __ . . __ . . __
 72
    65
 73
     6
 40
1.25
 49
0.5
 49
-0.25
 49
0.0
 49
-0.25
 49
0.0
 49
-0.25
  0
LTYPE
  2
CENTER
 70
    64
  3
____ _ ____ _ ____ _ ____ _ ____ _ ____ _ ____ 
 72
    65
 73
     4
 40
2.0
 49
1.25
 49
-0.25
 49
0.25
 49
-0.25
  0
LTYPE
  2
PHANTOM
 70
    64
  3
______  __  __  ______  __  __  ______  __  __ 
 72
    65
 73
     6
 40
2.5
 49
1.25
 49
-0.25
 49
0.25
 49
-0.25
 49
0.25
 49
-0.25
  0
LTYPE
  2
BORDER
 70
    64
  3
__ __ . __ __ . __ __ . __ __ . __ __ . __ __ .
 72
    65
 73
     6
 40
1.75
 49
0.5
 49
-0.25
 49
0.5
 49
-0.25
 49
0.0
 49
-0.25
  0
ENDTAB
  0
TABLE
  2
LAYER
 70
    16
  0
LAYER
  2
CSLAYER1
 70
    64
 62
     7
  6
CONTINUOUS
  0
LAYER
  2
CSLAYER2
 70
    64
 62
     7
  6
CONTINUOUS
  0
LAYER
  2
CSLAYER3
 70
    64
 62
     7
  6
CONTINUOUS
  0
LAYER
  2
CSLAYER4
 70
    64
 62
     7
  6
CONTINUOUS
  0
LAYER
  2
CSLAYER5
 70
    64
 62
     7
  6
CONTINUOUS
  0
LAYER
  2
CSLAYER6
 70
    64
 62
     7
  6
CONTINUOUS
  0
LAYER
  2
CSLAYER7
 70
    64
 62
     7
  6
CONTINUOUS
  0
LAYER
  2
CSLAYER8
 70
    64
 62
     7
  6
CONTINUOUS
  0
LAYER
  2
CSLAYER9
 70
    64
 62
     7
  6
CONTINUOUS
  0
LAYER
  2
CSLAYER10
 70
    64
 62
     7
  6
CONTINUOUS
  0
LAYER
  2
CSLAYER11
 70
    64
 62
     7
  6
CONTINUOUS
  0
LAYER
  2
CSLAYER12
 70
    64
 62
     7
  6
CONTINUOUS
  0
LAYER
  2
CSLAYER13
 70
    64
 62
     7
  6
CONTINUOUS
  0
LAYER
  2
CSLAYER14
 70
    64
 62
     7
  6
CONTINUOUS
  0
LAYER
  2
CSLAYER15
 70
    64
 62
     7
  6
CONTINUOUS
  0
LAYER
  2
CSLAYER16
 70
    64
 62
     7
  6
CONTINUOUS
  0
ENDTAB
  0
TABLE
  2
STYLE
 70
     1
  0
STYLE
  2
EASYDRAW_FONT
 70
     0
 40
1.0
 41
1.0
 50
0.0
 71
     0
 42
1.0
  3
monotxt
  4
bigfont
  0
ENDTAB
  0
TABLE
  2
VIEW
 70
     0
  0
ENDTAB
  0
ENDSEC
  0
SECTION
  2
BLOCKS
  0
BLOCK
  8
CSLAYER1
  2
*D0000
 70
    65
 10
0.0
 20
0.0
 30
0.0
  0
TEXT
  8
CSLAYER1
 62
     3
 10
2094.932129
 20
1645.127441
 40
40.000000
 41
0.843750
  1
450
 50
90.000000
 51
0.000000
  7
EASYDRAW_FONT
 72
     5
 11
2094.932129
 21
1735.127441
  0
LINE
  8
CSLAYER1
  6
CONTINUOUS
 62
     5
 10
1964.932032
 20
1465.127389
 11
2114.932032
 21
1465.127389
  0
LINE
  8
CSLAYER1
  6
CONTINUOUS
 62
     5
 10
1964.932032
 20
1915.127389
 11
2114.932032
 21
1915.127389
  0
LINE
  8
CSLAYER1
  6
CONTINUOUS
 62
     5
 10
2104.932032
 20
1465.127389
 11
2104.932032
 21
1915.127389
  0
LINE
  8
CSLAYER1
  6
CONTINUOUS
 62
     5
 10
2104.932032
 20
1465.127389
 11
2097.167461
 21
1494.105163
  0
LINE
  8
CSLAYER1
  6
CONTINUOUS
 62
     5
 10
2104.932032
 20
1465.127389
 11
2112.696603
 21
1494.105163
  0
LINE
  8
CSLAYER1
  6
CONTINUOUS
 62
     5
 10
2104.932032
 20
1915.127389
 11
2097.167461
 21
1886.149614
  0
LINE
  8
CSLAYER1
  6
CONTINUOUS
 62
     5
 10
2104.932032
 20
1915.127389
 11
2112.696603
 21
1886.149614
  0
ENDBLK
  8
0
  0
BLOCK
  8
CSLAYER1
  2
*D0001
 70
    65
 10
0.0
 20
0.0
 30
0.0
  0
TEXT
  8
CSLAYER1
 62
     3
 10
2095.125977
 20
486.689514
 40
40.000000
 41
0.843750
  1
155
 50
90.000000
 51
0.000000
  7
EASYDRAW_FONT
 72
     5
 11
2095.125977
 21
576.689514
  0
LINE
  8
CSLAYER1
  6
CONTINUOUS
 62
     5
 10
1965.125940
 20
454.189523
 11
2275.125940
 21
454.189523
  0
LINE
  8
CSLAYER1
  6
CONTINUOUS
 62
     5
 10
1965.125940
 20
609.189523
 11
2115.125940
 21
609.189523
  0
LINE
  8
CSLAYER1
  6
CONTINUOUS
 62
     5
 10
2105.125940
 20
454.189523
 11
2105.125940
 21
609.189523
  0
LINE
  8
CSLAYER1
  6
CONTINUOUS
 62
     5
 10
2105.125940
 20
454.189523
 11
2097.361368
 21
483.167297
  0
LINE
  8
CSLAYER1
  6
CONTINUOUS
 62
     5
 10
2105.125940
 20
454.189523
 11
2112.890511
 21
483.167297
  0
LINE
  8
CSLAYER1
  6
CONTINUOUS
 62
     5
 10
2105.125940
 20
609.189523
 11
2097.361368
 21
580.211748
  0
LINE
  8
CSLAYER1
  6
CONTINUOUS
 62
     5
 10
2105.125940
 20
609.189523
 11
2112.890511
 21
580.211748
  0
ENDBLK
  8
0
  0
BLOCK
  8
CSLAYER1
  2
*D0002
 70
    65
 10
0.0
 20
0.0
 30
0.0
  0
TEXT
  8
CSLAYER1
 62
     3
 10
2095.125977
 20
714.439514
 40
40.000000
 41
0.843750
  1
280
 50
90.000000
 51
0.000000
  7
EASYDRAW_FONT
 72
     5
 11
2095.125977
 21
804.439514
  0
LINE
  8
CSLAYER1
  6
CONTINUOUS
 62
     5
 10
1964.895097
 20
909.689520
 11
2275.125940
 21
909.689520
  0
LINE
  8
CSLAYER1
  6
CONTINUOUS
 62
     5
 10
2105.125940
 20
609.189523
 11
2105.125940
 21
909.689520
  0
LINE
  8
CSLAYER1
  6
CONTINUOUS
 62
     5
 10
2105.125940
 20
609.189523
 11
2097.361368
 21
638.167297
  0
LINE
  8
CSLAYER1
  6
CONTINUOUS
 62
     5
 10
2105.125940
 20
609.189523
 11
2112.890511
 21
638.167297
  0
LINE
  8
CSLAYER1
  6
CONTINUOUS
 62
     5
 10
2105.125940
 20
909.689520
 11
2097.361368
 21
880.711745
  0
LINE
  8
CSLAYER1
  6
CONTINUOUS
 62
     5
 10
2105.125940
 20
909.689520
 11
2112.890511
 21
880.711745
  0
ENDBLK
  8
0
  0
BLOCK
  8
CSLAYER1
  2
*D0003
 70
    65
 10
0.0
 20
0.0
 30
0.0
  0
TEXT
  8
CSLAYER1
 62
     3
 10
2255.125977
 20
636.939514
 40
40.000000
 41
0.843750
  1
435
 50
90.000000
 51
0.000000
  7
EASYDRAW_FONT
 72
     5
 11
2255.125977
 21
726.939514
  0
LINE
  8
CSLAYER1
  6
CONTINUOUS
 62
     5
 10
2265.125940
 20
454.189523
 11
2265.125940
 21
909.689520
  0
LINE
  8
CSLAYER1
  6
CONTINUOUS
 62
     5
 10
2265.125940
 20
454.189523
 11
2257.361368
 21
483.167297
  0
LINE
  8
CSLAYER1
  6
CONTINUOUS
 62
     5
 10
2265.125940
 20
454.189523
 11
2272.890511
 21
483.167297
  0
LINE
  8
CSLAYER1
  6
CONTINUOUS
 62
     5
 10
2265.125940
 20
909.689520
 11
2257.361368
 21
880.711745
  0
LINE
  8
CSLAYER1
  6
CONTINUOUS
 62
     5
 10
2265.125940
 20
909.689520
 11
2272.890511
 21
880.711745
  0
ENDBLK
  8
0
  0
BLOCK
  8
CSLAYER1
  2
*D0004
 70
    65
 10
0.0
 20
0.0
 30
0.0
  0
TEXT
  8
CSLAYER1
 62
     3
 10
1609.895020
 20
1069.689575
 40
40.000000
 41
0.843750
  1
600
 50
0.000000
 51
0.000000
  7
EASYDRAW_FONT
 72
     5
 11
1699.895020
 21
1069.689575
  0
LINE
  8
CSLAYER1
  6
CONTINUOUS
 62
     5
 10
1354.895097
 20
919.689520
 11
1354.895097
 21
1069.689520
  0
LINE
  8
CSLAYER1
  6
CONTINUOUS
 62
     5
 10
1954.895097
 20
919.689520
 11
1954.895097
 21
1069.689520
  0
LINE
  8
CSLAYER1
  6
CONTINUOUS
 62
     5
 10
1354.895097
 20
1059.689520
 11
1954.895097
 21
1059.689520
  0
LINE
  8
CSLAYER1
  6
CONTINUOUS
 62
     5
 10
1354.895097
 20
1059.689520
 11
1383.872872
 21
1067.454091
  0
LINE
  8
CSLAYER1
  6
CONTINUOUS
 62
     5
 10
1354.895097
 20
1059.689520
 11
1383.872872
 21
1051.924949
  0
LINE
  8
CSLAYER1
  6
CONTINUOUS
 62
     5
 10
1954.895097
 20
1059.689520
 11
1925.917323
 21
1067.454091
  0
LINE
  8
CSLAYER1
  6
CONTINUOUS
 62
     5
 10
1954.895097
 20
1059.689520
 11
1925.917323
 21
1051.924949
  0
ENDBLK
  8
0
  0
BLOCK
  8
CSLAYER1
  2
*D0005
 70
    65
 10
0.0
 20
0.0
 30
0.0
  0
TEXT
  8
CSLAYER1
 62
     3
 10
1610.625854
 20
314.189514
 40
40.000000
 41
0.843750
  1
599
 50
0.000000
 51
0.000000
  7
EASYDRAW_FONT
 72
     5
 11
1700.625854
 21
314.189514
  0
LINE
  8
CSLAYER1
  6
CONTINUOUS
 62
     5
 10
1356.125940
 20
444.189523
 11
1356.125940
 21
294.189523
  0
LINE
  8
CSLAYER1
  6
CONTINUOUS
 62
     5
 10
1955.125940
 20
444.189523
 11
1955.125940
 21
294.189523
  0
LINE
  8
CSLAYER1
  6
CONTINUOUS
 62
     5
 10
1356.125940
 20
304.189523
 11
1955.125940
 21
304.189523
  0
LINE
  8
CSLAYER1
  6
CONTINUOUS
 62
     5
 10
1356.125940
 20
304.189523
 11
1385.103714
 21
311.954094
  0
LINE
  8
CSLAYER1
  6
CONTINUOUS
 62
     5
 10
1356.125940
 20
304.189523
 11
1385.103714
 21
296.424951
  0
LINE
  8
CSLAYER1
  6
CONTINUOUS
 62
     5
 10
1955.125940
 20
304.189523
 11
1926.148165
 21
311.954094
  0
LINE
  8
CSLAYER1
  6
CONTINUOUS
 62
     5
 10
1955.125940
 20
304.189523
 11
1926.148165
 21
296.424951
  0
ENDBLK
  8
0
  0
BLOCK
  8
CSLAYER1
  2
*D0006
 70
    65
 10
0.0
 20
0.0
 30
0.0
  0
TEXT
  8
CSLAYER1
 62
     3
 10
586.125916
 20
314.189514
 40
40.000000
 41
0.843750
  1
450
 50
0.000000
 51
0.000000
  7
EASYDRAW_FONT
 72
     5
 11
676.125916
 21
314.189514
  0
LINE
  8
CSLAYER1
  6
CONTINUOUS
 62
     5
 10
406.125940
 20
444.189523
 11
406.125940
 21
294.189523
  0
LINE
  8
CSLAYER1
  6
CONTINUOUS
 62
     5
 10
856.125940
 20
444.189523
 11
856.125940
 21
294.189523
  0
LINE
  8
CSLAYER1
  6
CONTINUOUS
 62
     5
 10
406.125940
 20
304.189523
 11
856.125940
 21
304.189523
  0
LINE
  8
CSLAYER1
  6
CONTINUOUS
 62
     5
 10
406.125940
 20
304.189523
 11
435.103714
 21
311.954094
  0
LINE
  8
CSLAYER1
  6
CONTINUOUS
 62
     5
 10
406.125940
 20
304.189523
 11
435.103714
 21
296.424951
  0
LINE
  8
CSLAYER1
  6
CONTINUOUS
 62
     5
 10
856.125940
 20
304.189523
 11
827.148165
 21
311.954094
  0
LINE
  8
CSLAYER1
  6
CONTINUOUS
 62
     5
 10
856.125940
 20
304.189523
 11
827.148165
 21
296.424951
  0
ENDBLK
  8
0
  0
BLOCK
  8
CSLAYER1
  2
BLKF0000
 70
   64
 10
0.0
 20
0.0
 30
0.0
  0
ARC
  8
CSLAYER1
  6
CONTINUOUS
 62
     5
 10
2781.909508
 20
79.335220
 40
3.549225
 50
6.429109
 51
73.182034
  0
ARC
  8
CSLAYER1
  6
CONTINUOUS
 62
     5
 10
2778.448538
 20
78.176827
 40
6.907754
 50
310.517970
 51
330.092764
  0
ARC
  8
CSLAYER1
  6
CONTINUOUS
 62
     5
 10
2778.387888
 20
78.542345
 40
7.148321
 50
-32.205059
 51
9.585194
  0
ARC
  8
CSLAYER1
  6
CONTINUOUS
 62
     5
 10
2781.680616
 20
75.781346
 40
4.767514
 50
180.000000
 51
218.514150
  0
ARC
  8
CSLAYER1
  6
CONTINUOUS
 62
     5
 10
2780.393895
 20
75.104206
 40
3.348282
 50
222.781148
 51
319.406906
  0
ARC
  8
CSLAYER1
  6
CONTINUOUS
 62
     5
 10
2783.459537
 20
76.194099
 40
6.559434
 50
94.574282
 51
183.607718
  0
LINE
  8
CSLAYER1
  6
CONTINUOUS
 62
     5
 10
2796.903443
 20
71.077266
 11
2796.046407
 21
68.038683
  0
LINE
  8
CSLAYER1
  6
CONTINUOUS
 62
     5
 10
2798.695428
 20
90.944924
 11
2796.591794
 21
93.671857
  0
LINE
  8
CSLAYER1
  6
CONTINUOUS
 62
     5
 10
2796.591794
 20
93.671857
 11
2789.838440
 21
97.429769
  0
LINE
  8
CSLAYER1
  6
CONTINUOUS
 62
     5
 10
2789.838440
 20
97.429769
 11
2782.936412
 21
98.232640
  0
LINE
  8
CSLAYER1
  6
CONTINUOUS
 62
     5
 10
2764.647187
 20
84.853966
 11
2766.793881
 21
89.818197
  0
LINE
  8
CSLAYER1
  6
CONTINUOUS
 62
     5
 10
2766.756884
 20
89.732640
 11
2768.940576
 21
92.367396
  0
LINE
  8
CSLAYER1
  6
CONTINUOUS
 62
     5
 10
2768.940576
 20
92.367396
 11
2772.244998
 21
94.732640
  0
LINE
  8
CSLAYER1
  6
CONTINUOUS
 62
     5
 10
2782.936412
 20
98.232640
 11
2781.418237
 21
97.465795
  0
LINE
  8
CSLAYER1
  6
CONTINUOUS
 62
     5
 10
2781.418237
 20
97.465795
 11
2777.929858
 21
97.465795
  0
LINE
  8
CSLAYER1
  6
CONTINUOUS
 62
     5
 10
2777.929858
 20
97.465795
 11
2774.374396
 21
95.520354
  0
LINE
  8
CSLAYER1
  6
CONTINUOUS
 62
     5
 10
2774.374396
 20
95.520354
 11
2772.244998
 21
94.732640
  0
LINE
  8
CSLAYER1
  6
CONTINUOUS
 62
     5
 10
2764.647187
 20
84.853966
 11
2763.129640
 21
77.305363
  0
LINE
  8
CSLAYER1
  6
CONTINUOUS
 62
     5
 10
2763.129640
 20
77.305363
 11
2762.936412
 21
74.732640
  0
LINE
  8
CSLAYER1
  6
CONTINUOUS
 62
     5
 10
2765.645795
 20
66.892857
 11
2762.936412
 21
72.988969
  0
LINE
  8
CSLAYER1
  6
CONTINUOUS
 62
     5
 10
2762.936412
 20
72.988969
 11
2762.936412
 21
74.732640
  0
LINE
  8
CSLAYER1
  6
CONTINUOUS
 62
     5
 10
2796.046407
 20
68.038683
 11
2794.360620
 21
65.035677
  0
LINE
  8
CSLAYER1
  6
CONTINUOUS
 62
     5
 10
2794.360620
 20
65.035677
 11
2792.936412
 21
63.716966
  0
ARC
  8
CSLAYER1
  6
CONTINUOUS
 62
     5
 10
2780.744468
 20
75.269400
 40
17.266626
 50
208.054813
 51
260.640470
  0
ARC
  8
CSLAYER1
  6
CONTINUOUS
 62
     5
 10
2775.551072
 20
88.011870
 40
29.874611
 50
274.579659
 51
305.587364
  0
ARC
  8
CSLAYER1
  6
CONTINUOUS
 62
     5
 10
2786.523421
 20
82.028147
 40
15.088627
 50
313.467013
 51
331.085078
  0
LINE
  8
CSLAYER1
  6
CONTINUOUS
 62
     5
 10
2801.314754
 20
78.246061
 11
2801.612048
 21
82.028147
  0
LINE
  8
CSLAYER1
  6
CONTINUOUS
 62
     5
 10
2801.612048
 20
82.028147
 11
2800.320051
 21
88.137130
  0
LINE
  8
CSLAYER1
  6
CONTINUOUS
 62
     5
 10
2801.314754
 20
78.246061
 11
2799.731079
 21
74.732640
  0
ARC
  8
CSLAYER1
  6
CONTINUOUS
 62
     5
 10
2786.523421
 20
82.028147
 40
15.088627
 50
23.883193
 51
36.225170
  0
LINE
  8
CSLAYER1
  6
CONTINUOUS
 62
     5
 10
2746.936412
 20
109.732640
 11
2747.936412
 21
110.825284
  0
LINE
  8
CSLAYER1
  6
CONTINUOUS
 62
     5
 10
2746.936412
 20
109.732640
 11
2748.513370
 21
108.287607
  0
LINE
  8
CSLAYER1
  6
CONTINUOUS
 62
     5
 10
2750.052583
 20
106.178315
 11
2750.078851
 21
104.010196
  0
LINE
  8
CSLAYER1
  6
CONTINUOUS
 62
     5
 10
2750.078851
 20
104.010196
 11
2750.286249
 21
103.249737
  0
LINE
  8
CSLAYER1
  6
CONTINUOUS
 62
     5
 10
2750.286249
 20
103.249737
 11
2750.873877
 21
102.523844
  0
LINE
  8
CSLAYER1
  6
CONTINUOUS
 62
     5
 10
2750.873877
 20
102.523844
 11
2751.461504
 21
102.592977
  0
LINE
  8
CSLAYER1
  6
CONTINUOUS
 62
     5
 10
2751.461504
 20
102.592977
 11
2752.083698
 21
102.765808
  0
LINE
  8
CSLAYER1
  6
CONTINUOUS
 62
     5
 10
2752.083698
 20
102.765808
 11
2752.498494
 21
102.592977
  0
LINE
  8
CSLAYER1
  6
CONTINUOUS
 62
     5
 10
2752.498494
 20
102.592977
 11
2753.397219
 21
102.143614
  0
LINE
  8
CSLAYER1
  6
CONTINUOUS
 62
     5
 10
2753.397219
 20
102.143614
 11
2754.173270
 21
101.732640
  0
LINE
  8
CSLAYER1
  6
CONTINUOUS
 62
     5
 10
2754.173270
 20
101.732640
 11
2754.676173
 21
101.763385
  0
LINE
  8
CSLAYER1
  6
CONTINUOUS
 62
     5
 10
2754.676173
 20
101.763385
 11
2757.484045
 21
103.209864
  0
LINE
  8
CSLAYER1
  6
CONTINUOUS
 62
     5
 10
2747.936412
 20
110.825284
 11
2748.269264
 21
112.298991
  0
LINE
  8
CSLAYER1
  6
CONTINUOUS
 62
     5
 10
2748.269264
 20
112.298991
 11
2749.722669
 21
112.449344
  0
LINE
  8
CSLAYER1
  6
CONTINUOUS
 62
     5
 10
2751.216428
 20
115.217802
 11
2752.970601
 21
115.374892
  0
LINE
  8
CSLAYER1
  6
CONTINUOUS
 62
     5
 10
2752.970601
 20
115.374892
 11
2756.505128
 21
116.212706
  0
LINE
  8
CSLAYER1
  6
CONTINUOUS
 62
     5
 10
2756.505128
 20
116.212706
 11
2757.936412
 21
116.544345
  0
LINE
  8
CSLAYER1
  6
CONTINUOUS
 62
     5
 10
2751.216428
 20
115.217802
 11
2749.283537
 21
115.376670
  0
LINE
  8
CSLAYER1
  6
CONTINUOUS
 62
     5
 10
2748.547414
 20
114.507983
 11
2748.640939
 21
114.136822
  0
LINE
  8
CSLAYER1
  6
CONTINUOUS
 62
     5
 10
2748.640939
 20
114.136822
 11
2749.132533
 21
113.599141
  0
LINE
  8
CSLAYER1
  6
CONTINUOUS
 62
     5
 10
2749.132533
 20
113.599141
 11
2749.808475
 21
113.092184
  0
LINE
  8
CSLAYER1
  6
CONTINUOUS
 62
     5
 10
2749.808475
 20
113.092184
 11
2749.931800
 21
112.927751
  0
LINE
  8
CSLAYER1
  6
CONTINUOUS
 62
     5
 10
2748.513370
 20
108.287607
 11
2750.052583
 21
106.178315
  0
ARC
  8
CSLAYER1
  6
CONTINUOUS
 62
     5
 10
2792.923113
 20
-61.926013
 40
180.727463
 50
80.438896
 51
96.353582
  0
ARC
  8
CSLAYER1
  6
CONTINUOUS
 62
     5
 10
2768.024200
 20
83.321887
 40
34.720242
 50
81.866516
 51
106.890578
  0
LINE
  8
CSLAYER1
  6
CONTINUOUS
 62
     5
 10
2827.130674
 20
115.499310
 11
2829.377756
 21
114.477909
  0
LINE
  8
CSLAYER1
  6
CONTINUOUS
 62
     5
 10
2832.952661
 20
112.894737
 11
2829.377756
 21
114.477909
  0
LINE
  8
CSLAYER1
  6
CONTINUOUS
 62
     5
 10
2827.130674
 20
115.499310
 11
2822.936412
 21
116.291881
  0
LINE
  8
CSLAYER1
  6
CONTINUOUS
 62
     5
 10
2832.936412
 20
112.901933
 11
2834.807988
 21
111.333456
  0
LINE
  8
CSLAYER1
  6
CONTINUOUS
 62
     5
 10
2816.179668
 20
113.938783
 11
2817.078943
 21
115.391458
  0
LINE
  8
CSLAYER1
  6
CONTINUOUS
 62
     5
 10
2817.078943
 20
115.391458
 11
2821.754542
 21
114.271949
  0
LINE
  8
CSLAYER1
  6
CONTINUOUS
 62
     5
 10
2821.754542
 20
114.271949
 11
2838.496928
 21
109.732640
  0
LINE
  8
CSLAYER1
  6
CONTINUOUS
 62
     5
 10
2841.436412
 20
109.732640
 11
2834.807988
 21
111.333456
  0
LINE
  8
CSLAYER1
  6
CONTINUOUS
 62
     5
 10
2838.496928
 20
109.732640
 11
2841.436412
 21
109.732640
  0
LINE
  8
CSLAYER1
  6
CONTINUOUS
 62
     5
 10
2782.936412
 20
114.197581
 11
2802.936412
 21
114.732640
  0
LINE
  8
CSLAYER1
  6
CONTINUOUS
 62
     5
 10
2802.936412
 20
114.732640
 11
2816.179668
 21
113.938783
  0
LINE
  8
CSLAYER1
  6
CONTINUOUS
 62
     5
 10
2817.782649
 20
111.878304
 11
2802.936412
 21
113.232640
  0
LINE
  8
CSLAYER1
  6
CONTINUOUS
 62
     5
 10
2802.936412
 20
113.232640
 11
2787.887203
 21
113.641292
  0
LINE
  8
CSLAYER1
  6
CONTINUOUS
 62
     5
 10
2787.936412
 20
113.639956
 11
2782.936412
 21
113.735249
  0
LINE
  8
CSLAYER1
  6
CONTINUOUS
 62
     5
 10
2782.936412
 20
114.197581
 11
2782.936412
 21
113.735249
  0
LINE
  8
CSLAYER1
  6
CONTINUOUS
 62
     5
 10
2840.436412
 20
106.232640
 11
2831.593854
 21
108.543302
  0
LINE
  8
CSLAYER1
  6
CONTINUOUS
 62
     5
 10
2817.782649
 20
111.878304
 11
2827.936412
 21
109.905920
  0
LINE
  8
CSLAYER1
  6
CONTINUOUS
 62
     5
 10
2827.936412
 20
109.905920
 11
2831.593854
 21
108.543302
  0
LINE
  8
CSLAYER1
  6
CONTINUOUS
 62
     5
 10
2840.436412
 20
106.232640
 11
2840.143795
 21
105.393534
  0
LINE
  8
CSLAYER1
  6
CONTINUOUS
 62
     5
 10
2849.936412
 20
100.732640
 11
2849.630385
 21
101.961621
  0
LINE
  8
CSLAYER1
  6
CONTINUOUS
 62
     5
 10
2840.143795
 20
105.393534
 11
2849.630385
 21
101.961621
  0
LINE
  8
CSLAYER1
  6
CONTINUOUS
 62
     5
 10
2786.436412
 20
106.232640
 11
2788.859450
 21
106.232640
  0
LINE
  8
CSLAYER1
  6
CONTINUOUS
 62
     5
 10
2808.936412
 20
106.665135
 11
2808.936412
 21
106.232640
  0
LINE
  8
CSLAYER1
  6
CONTINUOUS
 62
     5
 10
2807.936412
 20
107.199576
 11
2806.225133
 21
107.836755
  0
LINE
  8
CSLAYER1
  6
CONTINUOUS
 62
     5
 10
2806.225133
 20
107.836755
 11
2805.115077
 21
107.887212
  0
LINE
  8
CSLAYER1
  6
CONTINUOUS
 62
     5
 10
2805.115077
 20
107.887212
 11
2804.635735
 21
107.634926
  0
LINE
  8
CSLAYER1
  6
CONTINUOUS
 62
     5
 10
2804.635735
 20
107.634926
 11
2804.534821
 21
107.231270
  0
LINE
  8
CSLAYER1
  6
CONTINUOUS
 62
     5
 10
2804.534821
 20
107.231270
 11
2804.988934
 21
106.928527
  0
LINE
  8
CSLAYER1
  6
CONTINUOUS
 62
     5
 10
2804.988934
 20
106.928527
 11
2806.628790
 21
106.777156
  0
LINE
  8
CSLAYER1
  6
CONTINUOUS
 62
     5
 10
2806.628790
 20
106.777156
 11
2808.936412
 21
106.665135
  0
LINE
  8
CSLAYER1
  6
CONTINUOUS
 62
     5
 10
2849.936412
 20
100.732640
 11
2846.960870
 21
101.919221
  0
LINE
  8
CSLAYER1
  6
CONTINUOUS
 62
     5
 10
2846.960870
 20
101.919221
 11
2836.905180
 21
103.762097
  0
LINE
  8
CSLAYER1
  6
CONTINUOUS
 62
     5
 10
2836.905180
 20
103.762097
 11
2831.879400
 21
104.921892
  0
LINE
  8
CSLAYER1
  6
CONTINUOUS
 62
     5
 10
2809.470633
 20
107.232640
 11
2821.236299
 21
107.232640
  0
LINE
  8
CSLAYER1
  6
CONTINUOUS
 62
     5
 10
2807.936412
 20
107.199576
 11
2808.461072
 21
106.891109
  0
LINE
  8
CSLAYER1
  6
CONTINUOUS
 62
     5
 10
2808.461072
 20
106.891109
 11
2808.757884
 21
106.802065
  0
LINE
  8
CSLAYER1
  6
CONTINUOUS
 62
     5
 10
2808.757884
 20
106.802065
 11
2808.936412
 21
106.827236
  0
LINE
  8
CSLAYER1
  6
CONTINUOUS
 62
     5
 10
2808.936412
 20
106.827236
 11
2809.470633
 21
107.232640
  0
LINE
  8
CSLAYER1
  6
CONTINUOUS
 62
     5
 10
2821.236299
 20
107.232640
 11
2825.686568
 21
106.203814
  0
LINE
  8
CSLAYER1
  6
CONTINUOUS
 62
     5
 10
2825.686568
 20
106.203814
 11
2829.839760
 21
105.038665
  0
LINE
  8
CSLAYER1
  6
CONTINUOUS
 62
     5
 10
2829.839760
 20
105.038665
 11
2831.879400
 21
104.921892
  0
LINE
  8
CSLAYER1
  6
CONTINUOUS
 62
     5
 10
2785.436412
 20
105.232640
 11
2785.436412
 21
104.732640
  0
LINE
  8
CSLAYER1
  6
CONTINUOUS
 62
     5
 10
2782.936412
 20
104.732640
 11
2785.436412
 21
104.732640
  0
ARC
  8
CSLAYER1
  6
CONTINUOUS
 62
     5
 10
2786.436412
 20
105.232640
 40
1.000000
 50
90.000000
 51
180.000000
  0
LINE
  8
CSLAYER1
  6
CONTINUOUS
 62
     5
 10
2788.859450
 20
106.232640
 11
2789.557007
 21
105.660643
  0
LINE
  8
CSLAYER1
  6
CONTINUOUS
 62
     5
 10
2790.159375
 20
105.636683
 11
2791.016972
 21
106.232640
  0
LINE
  8
CSLAYER1
  6
CONTINUOUS
 62
     5
 10
2792.595368
 20
106.232640
 11
2794.262494
 21
105.574564
  0
LINE
  8
CSLAYER1
  6
CONTINUOUS
 62
     5
 10
2794.686203
 20
105.601076
 11
2795.839690
 21
106.232640
  0
LINE
  8
CSLAYER1
  6
CONTINUOUS
 62
     5
 10
2791.016972
 20
106.232640
 11
2792.595368
 21
106.232640
  0
LINE
  8
CSLAYER1
  6
CONTINUOUS
 62
     5
 10
2795.839690
 20
106.232640
 11
2808.936412
 21
106.232640
  0
LINE
  8
CSLAYER1
  6
CONTINUOUS
 62
     5
 10
2761.485395
 20
103.123813
 11
2782.936412
 21
104.732640
  0
LINE
  8
CSLAYER1
  6
CONTINUOUS
 62
     5
 10
2757.484045
 20
103.209864
 11
2761.485395
 21
103.123813
  0
ARC
  8
CSLAYER1
  6
CONTINUOUS
 62
     5
 10
2789.874047
 20
106.047277
 40
0.500000
 50
230.648247
 51
304.796026
  0
ARC
  8
CSLAYER1
  6
CONTINUOUS
 62
     5
 10
2794.446077
 20
106.039642
 40
0.500000
 50
248.459024
 51
298.701829
  0
ARC
  8
CSLAYER1
  6
CONTINUOUS
 62
     5
 10
2749.691800
 20
112.747751
 40
0.300000
 50
-84.093859
 51
36.869898
  0
ARC
  8
CSLAYER1
  6
CONTINUOUS
 62
     5
 10
2749.226196
 20
114.679023
 40
0.700000
 50
85.301319
 51
194.142980
  0
LINE
  8
CSLAYER1
  6
CONTINUOUS
 62
     3
 10
2781.418237
 20
97.465795
 11
2789.528732
 21
97.465795
  0
LINE
  8
CSLAYER1
  6
CONTINUOUS
 62
     3
 10
2775.005720
 20
95.865795
 11
2792.649061
 21
95.865795
  0
LINE
  8
CSLAYER1
  6
CONTINUOUS
 62
     3
 10
2771.592781
 20
94.265795
 11
2795.524426
 21
94.265795
  0
LINE
  8
CSLAYER1
  6
CONTINUOUS
 62
     3
 10
2769.357462
 20
92.665795
 11
2797.367899
 21
92.665795
  0
LINE
  8
CSLAYER1
  6
CONTINUOUS
 62
     3
 10
2767.861806
 20
91.065795
 11
2798.602184
 21
91.065795
  0
LINE
  8
CSLAYER1
  6
CONTINUOUS
 62
     3
 10
2766.641492
 20
89.465795
 11
2799.651561
 21
89.465795
  0
LINE
  8
CSLAYER1
  6
CONTINUOUS
 62
     3
 10
2765.949600
 20
87.865795
 11
2800.377436
 21
87.865795
  0
LINE
  8
CSLAYER1
  6
CONTINUOUS
 62
     3
 10
2765.257708
 20
86.265795
 11
2800.715822
 21
86.265795
  0
LINE
  8
CSLAYER1
  6
CONTINUOUS
 62
     3
 10
2764.609358
 20
84.665795
 11
2801.054208
 21
84.665795
  0
LINE
  8
CSLAYER1
  6
CONTINUOUS
 62
     3
 10
2764.287699
 20
83.065795
 11
2801.392594
 21
83.065795
  0
LINE
  8
CSLAYER1
  6
CONTINUOUS
 62
     3
 10
2763.966040
 20
81.465795
 11
2779.556283
 21
81.465795
  0
LINE
  8
CSLAYER1
  6
CONTINUOUS
 62
     3
 10
2763.644381
 20
79.865795
 11
2778.024022
 21
79.865795
  0
LINE
  8
CSLAYER1
  6
CONTINUOUS
 62
     3
 10
2763.322722
 20
78.265795
 11
2777.235852
 21
78.265795
  0
LINE
  8
CSLAYER1
  6
CONTINUOUS
 62
     3
 10
2763.081604
 20
76.665795
 11
2776.917085
 21
76.665795
  0
LINE
  8
CSLAYER1
  6
CONTINUOUS
 62
     3
 10
2762.961434
 20
75.065795
 11
2776.967106
 21
75.065795
  0
LINE
  8
CSLAYER1
  6
CONTINUOUS
 62
     3
 10
2762.936412
 20
73.465795
 11
2777.513193
 21
73.465795
  0
LINE
  8
CSLAYER1
  6
CONTINUOUS
 62
     3
 10
2763.435600
 20
71.865795
 11
2779.543195
 21
71.865795
  0
LINE
  8
CSLAYER1
  6
CONTINUOUS
 62
     3
 10
2764.146711
 20
70.265795
 11
2796.674567
 21
70.265795
  0
LINE
  8
CSLAYER1
  6
CONTINUOUS
 62
     3
 10
2764.857823
 20
68.665795
 11
2796.223285
 21
68.665795
  0
LINE
  8
CSLAYER1
  6
CONTINUOUS
 62
     3
 10
2765.568934
 20
67.065795
 11
2795.500261
 21
67.065795
  0
LINE
  8
CSLAYER1
  6
CONTINUOUS
 62
     3
 10
2766.530893
 20
65.465795
 11
2794.602074
 21
65.465795
  0
LINE
  8
CSLAYER1
  6
CONTINUOUS
 62
     3
 10
2767.779354
 20
63.865795
 11
2793.097148
 21
63.865795
  0
LINE
  8
CSLAYER1
  6
CONTINUOUS
 62
     3
 10
2769.384774
 20
62.265795
 11
2790.704687
 21
62.265795
  0
LINE
  8
CSLAYER1
  6
CONTINUOUS
 62
     3
 10
2771.531916
 20
60.665795
 11
2787.579564
 21
60.665795
  0
LINE
  8
CSLAYER1
  6
CONTINUOUS
 62
     3
 10
2774.779606
 20
59.065795
 11
2782.941415
 21
59.065795
  0
LINE
  8
CSLAYER1
  6
CONTINUOUS
 62
     3
 10
2784.748107
 20
81.465795
 11
2801.567844
 21
81.465795
  0
LINE
  8
CSLAYER1
  6
CONTINUOUS
 62
     3
 10
2785.418851
 20
79.865795
 11
2801.442074
 21
79.865795
  0
LINE
  8
CSLAYER1
  6
CONTINUOUS
 62
     3
 10
2785.530858
 20
78.265795
 11
2801.316305
 21
78.265795
  0
LINE
  8
CSLAYER1
  6
CONTINUOUS
 62
     3
 10
2785.285501
 20
76.665795
 11
2800.602449
 21
76.665795
  0
LINE
  8
CSLAYER1
  6
CONTINUOUS
 62
     3
 10
2784.633855
 20
75.065795
 11
2799.881249
 21
75.065795
  0
LINE
  8
CSLAYER1
  6
CONTINUOUS
 62
     3
 10
2783.500592
 20
73.465795
 11
2798.947301
 21
73.465795
  0
LINE
  8
CSLAYER1
  6
CONTINUOUS
 62
     3
 10
2781.244595
 20
71.865795
 11
2797.676594
 21
71.865795
  0
TEXT
  8
CSLAYER1
 62
     5
 10
2802.108183
 20
79.476970
 40
4.713448
 41
1.951056
  1
M
 50
0.000000
 51
0.000000
  7
EASYDRAW_FONT
 72
     5
 11
2808.238985
 21
79.476970
  0
TEXT
  8
CSLAYER1
 62
     5
 10
2811.759570
 20
79.418700
 40
4.626621
 41
0.778201
  1
T
 50
0.000000
 51
0.000000
  7
EASYDRAW_FONT
 72
     5
 11
2814.159863
 21
79.418700
  0
TEXT
  8
CSLAYER1
 62
     5
 10
2814.525133
 20
79.453499
 40
4.696183
 41
1.055553
  1
E
 50
0.000000
 51
0.000000
  7
EASYDRAW_FONT
 72
     5
 11
2817.829848
 21
79.453499
  0
TEXT
  8
CSLAYER1
 62
     5
 10
2817.641314
 20
81.069343
 40
0.348283
 41
9.375319
  1
-
 50
0.000000
 51
0.000000
  7
EASYDRAW_FONT
 72
     5
 11
2819.818159
 21
81.069343
  0
TEXT
  8
CSLAYER1
 62
     5
 10
2819.455523
 20
79.422152
 40
4.861659
 41
1.298502
  1
H
 50
0.000000
 51
0.000000
  7
EASYDRAW_FONT
 72
     5
 11
2823.664106
 21
79.422152
  0
TEXT
  8
CSLAYER1
 62
     5
 10
2823.531538
 20
79.452530
 40
4.843139
 41
1.269236
  1
A
 50
0.000000
 51
0.000000
  7
EASYDRAW_FONT
 72
     5
 11
2827.629595
 21
79.452530
  0
TEXT
  8
CSLAYER1
 62
     5
 10
2827.237694
 20
79.411004
 40
4.825362
 41
1.490144
  1
N
 50
0.000000
 51
0.000000
  7
EASYDRAW_FONT
 72
     5
 11
2832.031349
 21
79.411004
  0
TEXT
  8
CSLAYER1
 62
     5
 10
2808.029152
 20
79.388431
 40
4.982325
 41
1.177443
  1
A
 50
0.000000
 51
0.000000
  7
EASYDRAW_FONT
 72
     5
 11
2811.940086
 21
79.388431
  0
TEXT
  8
CSLAYER1
 62
     5
 10
2802.475197
 20
72.393191
 40
4.982325
 41
1.177443
  1
A
 50
0.000000
 51
0.000000
  7
EASYDRAW_FONT
 72
     5
 11
2806.386131
 21
72.393191
  0
TEXT
  8
CSLAYER1
 62
     5
 10
2815.259621
 20
72.421512
 40
4.982325
 41
1.177443
  1
A
 50
0.000000
 51
0.000000
  7
EASYDRAW_FONT
 72
     5
 11
2819.170555
 21
72.421512
  0
TEXT
  8
CSLAYER1
 62
     5
 10
2819.020165
 20
72.478509
 40
4.825362
 41
1.490144
  1
N
 50
0.000000
 51
0.000000
  7
EASYDRAW_FONT
 72
     5
 11
2823.813819
 21
72.478509
  0
TEXT
  8
CSLAYER1
 62
     5
 10
2827.922501
 20
72.486903
 40
4.841775
 41
1.184218
  1
E
 50
0.000000
 51
0.000000
  7
EASYDRAW_FONT
 72
     5
 11
2831.744980
 21
72.486903
  0
TEXT
  8
CSLAYER1
 62
     5
 10
2806.755750
 20
72.391867
 40
4.947865
 41
1.093992
  1
D
 50
0.000000
 51
0.000000
  7
EASYDRAW_FONT
 72
     5
 11
2810.364367
 21
72.391867
  0
TEXT
  8
CSLAYER1
 62
     5
 10
2811.158109
 20
72.386482
 40
4.924210
 41
1.228195
  1
V
 50
0.000000
 51
0.000000
  7
EASYDRAW_FONT
 72
     5
 11
2815.190036
 21
72.386482
  0
TEXT
  8
CSLAYER1
 62
     5
 10
2823.383310
 20
72.407213
 40
5.032894
 41
1.481023
  1
C
 50
0.000000
 51
0.000000
  7
EASYDRAW_FONT
 72
     5
 11
2828.352530
 21
72.407213
  0
LINE
  8
CSLAYER1
  6
CONTINUOUS
 62
     5
 10
2814.013749
 20
83.467612
 11
2813.001687
 21
83.467612
  0
LINE
  8
CSLAYER1
  6
CONTINUOUS
 62
     3
 10
2763.111987
 20
117.692883
 11
2812.909813
 21
117.692883
  0
LINE
  8
CSLAYER1
  6
CONTINUOUS
 62
     3
 10
2755.999623
 20
116.092883
 11
2823.989505
 21
116.092883
  0
LINE
  8
CSLAYER1
  6
CONTINUOUS
 62
     3
 10
2748.551219
 20
114.492883
 11
2793.974529
 21
114.492883
  0
LINE
  8
CSLAYER1
  6
CONTINUOUS
 62
     3
 10
2806.936079
 20
114.492883
 11
2816.522682
 21
114.492883
  0
LINE
  8
CSLAYER1
  6
CONTINUOUS
 62
     3
 10
2820.831816
 20
114.492883
 11
2829.344813
 21
114.492883
  0
LINE
  8
CSLAYER1
  6
CONTINUOUS
 62
     3
 10
2749.954358
 20
112.892883
 11
2806.660827
 21
112.892883
  0
LINE
  8
CSLAYER1
  6
CONTINUOUS
 62
     3
 10
2826.840965
 20
112.892883
 11
2832.947211
 21
112.892883
  0
LINE
  8
CSLAYER1
  6
CONTINUOUS
 62
     3
 10
2748.042024
 20
111.292883
 11
2820.796375
 21
111.292883
  0
LINE
  8
CSLAYER1
  6
CONTINUOUS
 62
     3
 10
2832.742264
 20
111.292883
 11
2834.975986
 21
111.292883
  0
LINE
  8
CSLAYER1
  6
CONTINUOUS
 62
     3
 10
2746.979799
 20
109.692883
 11
2828.508231
 21
109.692883
  0
LINE
  8
CSLAYER1
  6
CONTINUOUS
 62
     3
 10
2748.655466
 20
108.092883
 11
2833.317540
 21
108.092883
  0
LINE
  8
CSLAYER1
  6
CONTINUOUS
 62
     3
 10
2749.823033
 20
106.492883
 11
2808.936412
 21
106.492883
  0
LINE
  8
CSLAYER1
  6
CONTINUOUS
 62
     3
 10
2824.436177
 20
106.492883
 11
2839.440500
 21
106.492883
  0
LINE
  8
CSLAYER1
  6
CONTINUOUS
 62
     3
 10
2750.068157
 20
104.892883
 11
2785.436412
 21
104.892883
  0
LINE
  8
CSLAYER1
  6
CONTINUOUS
 62
     3
 10
2832.005106
 20
104.892883
 11
2841.527709
 21
104.892883
  0
LINE
  8
CSLAYER1
  6
CONTINUOUS
 62
     3
 10
2750.274482
 20
103.292883
 11
2763.739655
 21
103.292883
  0
LINE
  8
CSLAYER1
  6
CONTINUOUS
 62
     3
 10
2839.465455
 20
103.292883
 11
2845.950473
 21
103.292883
  0
LINE
  8
CSLAYER1
  6
CONTINUOUS
 62
     3
 10
2847.528449
 20
101.692883
 11
2849.697303
 21
101.692883
  0
ENDBLK
  8
0
  0
BLOCK
  8
CSLAYER1
  2
BLKF0001
 70
   64
 10
0.0
 20
0.0
 30
0.0
  0
LINE
  8
CSLAYER1
  6
CONTINUOUS
 62
     3
 10
927.932032
 20
1636.627389
 11
927.932032
 21
1574.627389
  0
LINE
  8
CSLAYER1
  6
CONTINUOUS
 62
     3
 10
925.432032
 20
1639.127389
 11
840.432032
 21
1639.127389
  0
LINE
  8
CSLAYER1
  6
CENTER
 62
     5
 10
986.281671
 20
1566.627389
 11
927.932032
 21
1566.627389
  0
LINE
  8
CSLAYER1
  6
CONTINUOUS
 62
     2
 10
925.432032
 20
1582.627389
 11
840.432032
 21
1582.627389
  0
LINE
  8
CSLAYER1
  6
CONTINUOUS
 62
     3
 10
925.432032
 20
1634.127389
 11
925.432032
 21
1589.127389
  0
LINE
  8
CSLAYER1
  6
CONTINUOUS
 62
     3
 10
837.932032
 20
1636.627389
 11
837.932032
 21
1566.627389
  0
LINE
  8
CSLAYER1
  6
CONTINUOUS
 62
     3
 10
922.932032
 20
1636.627389
 11
845.932032
 21
1636.627389
  0
LINE
  8
CSLAYER1
  6
CONTINUOUS
 62
     3
 10
922.932032
 20
1586.627389
 11
845.932032
 21
1586.627389
  0
ARC
  8
CSLAYER1
  6
CONTINUOUS
 62
     3
 10
900.000214
 20
1611.627389
 40
59.568182
 50
155.185163
 51
204.814837
  0
ARC
  8
CSLAYER1
  6
CONTINUOUS
 62
     3
 10
922.932032
 20
1634.127389
 40
2.500000
 50
0.000000
 51
90.000000
  0
ARC
  8
CSLAYER1
  6
CONTINUOUS
 62
     3
 10
922.932032
 20
1589.127389
 40
2.500000
 50
-90.000000
 51
0.000000
  0
ARC
  8
CSLAYER1
  6
CONTINUOUS
 62
     3
 10
925.432032
 20
1636.627389
 40
2.500000
 50
0.000000
 51
90.000000
  0
ARC
  8
CSLAYER1
  6
CONTINUOUS
 62
     3
 10
840.432032
 20
1636.627389
 40
2.500000
 50
90.000000
 51
180.000000
  0
ARC
  8
CSLAYER1
  6
CONTINUOUS
 62
     2
 10
840.432032
 20
1580.127389
 40
2.500000
 50
90.000000
 51
180.000000
  0
ARC
  8
CSLAYER1
  6
CONTINUOUS
 62
     2
 10
925.432032
 20
1580.127389
 40
2.500000
 50
0.000000
 51
90.000000
  0
LINE
  8
CSLAYER1
  6
CONTINUOUS
 62
     3
 10
927.932032
 20
1496.627389
 11
927.932032
 21
1558.627389
  0
LINE
  8
CSLAYER1
  6
CONTINUOUS
 62
     3
 10
925.432032
 20
1494.127389
 11
840.432032
 21
1494.127389
  0
LINE
  8
CSLAYER1
  6
CONTINUOUS
 62
     2
 10
925.432032
 20
1550.627389
 11
840.432032
 21
1550.627389
  0
LINE
  8
CSLAYER1
  6
CONTINUOUS
 62
     3
 10
837.932032
 20
1496.627389
 11
837.932032
 21
1566.627389
  0
ARC
  8
CSLAYER1
  6
CONTINUOUS
 62
     3
 10
925.432032
 20
1496.627389
 40
2.500000
 50
-90.000000
 51
0.000000
  0
ARC
  8
CSLAYER1
  6
CONTINUOUS
 62
     3
 10
840.432032
 20
1496.627389
 40
2.500000
 50
180.000000
 51
270.000000
  0
ARC
  8
CSLAYER1
  6
CONTINUOUS
 62
     2
 10
840.432032
 20
1553.127389
 40
2.500000
 50
180.000000
 51
270.000000
  0
ARC
  8
CSLAYER1
  6
CONTINUOUS
 62
     2
 10
925.432032
 20
1553.127389
 40
2.500000
 50
-90.000000
 51
0.000000
  0
LINE
  8
CSLAYER1
  6
CONTINUOUS
 62
     3
 10
925.432032
 20
1499.127389
 11
925.432032
 21
1544.127389
  0
LINE
  8
CSLAYER1
  6
CONTINUOUS
 62
     3
 10
922.932032
 20
1496.627389
 11
845.932032
 21
1496.627389
  0
LINE
  8
CSLAYER1
  6
CONTINUOUS
 62
     3
 10
922.932032
 20
1546.627389
 11
845.932032
 21
1546.627389
  0
ARC
  8
CSLAYER1
  6
CONTINUOUS
 62
     3
 10
900.000214
 20
1521.627389
 40
59.568182
 50
155.185163
 51
204.814837
  0
ARC
  8
CSLAYER1
  6
CONTINUOUS
 62
     3
 10
922.932032
 20
1499.127389
 40
2.500000
 50
-90.000000
 51
0.000000
  0
ARC
  8
CSLAYER1
  6
CONTINUOUS
 62
     3
 10
922.932032
 20
1544.127389
 40
2.500000
 50
0.000000
 51
90.000000
  0
LINE
  8
CSLAYER1
  6
CONTINUOUS
 62
     3
 10
934.932032
 20
1559.627389
 11
934.932032
 21
1563.127389
  0
LINE
  8
CSLAYER1
  6
CONTINUOUS
 62
     3
 10
986.281671
 20
1563.127389
 11
934.932032
 21
1563.127389
  0
LINE
  8
CSLAYER1
  6
CONTINUOUS
 62
     3
 10
933.932032
 20
1558.627389
 11
927.932032
 21
1558.627389
  0
LINE
  8
CSLAYER1
  6
CONTINUOUS
 62
     3
 10
933.932032
 20
1574.627389
 11
927.932032
 21
1574.627389
  0
LINE
  8
CSLAYER1
  6
CONTINUOUS
 62
     3
 10
986.281671
 20
1570.127389
 11
934.932032
 21
1570.127389
  0
ARC
  8
CSLAYER1
  6
CONTINUOUS
 62
     3
 10
933.932032
 20
1573.627389
 40
1.000000
 50
0.000000
 51
90.000000
  0
ARC
  8
CSLAYER1
  6
CONTINUOUS
 62
     3
 10
933.932032
 20
1559.627389
 40
1.000000
 50
-90.000000
 51
0.000000
  0
LINE
  8
CSLAYER1
  6
CONTINUOUS
 62
     3
 10
934.932032
 20
1570.127389
 11
934.932032
 21
1573.627389
  0
LINE
  8
CSLAYER1
  6
CONTINUOUS
 62
     2
 10
934.932032
 20
1563.127389
 11
934.932032
 21
1570.127389
  0
LINE
  8
CSLAYER1
  6
CONTINUOUS
 62
     2
 10
927.932032
 20
1574.627389
 11
927.932032
 21
1566.627389
  0
LINE
  8
CSLAYER1
  6
CONTINUOUS
 62
     2
 10
927.932032
 20
1558.627389
 11
927.932032
 21
1566.627389
  0
LINE
  8
CSLAYER1
  6
CONTINUOUS
 62
     2
 10
908.439021
 20
1578.790048
 11
917.574021
 21
1578.790048
  0
LINE
  8
CSLAYER1
  6
CONTINUOUS
 62
     2
 10
908.439021
 20
1555.165048
 11
917.574021
 21
1555.165048
  0
LINE
  8
CSLAYER1
  6
CONTINUOUS
 62
     2
 10
918.834021
 20
1577.530048
 11
918.834021
 21
1556.425048
  0
LINE
  8
CSLAYER1
  6
CONTINUOUS
 62
     2
 10
907.179021
 20
1577.530048
 11
907.179021
 21
1556.425048
  0
LINE
  8
CSLAYER1
  6
CONTINUOUS
 62
     2
 10
909.069021
 20
1557.055048
 11
917.101521
 21
1557.055048
  0
LINE
  8
CSLAYER1
  6
CONTINUOUS
 62
     2
 10
909.069021
 20
1560.205048
 11
910.014021
 21
1560.205048
  0
LINE
  8
CSLAYER1
  6
CONTINUOUS
 62
     2
 10
909.069021
 20
1568.867548
 11
910.014021
 21
1568.867548
  0
LINE
  8
CSLAYER1
  6
CONTINUOUS
 62
     2
 10
909.069021
 20
1573.435048
 11
914.109021
 21
1573.435048
  0
LINE
  8
CSLAYER1
  6
CONTINUOUS
 62
     2
 10
907.966521
 20
1572.332548
 11
907.966521
 21
1569.970048
  0
LINE
  8
CSLAYER1
  6
CONTINUOUS
 62
     2
 10
915.211521
 20
1572.332548
 11
915.211521
 21
1569.970048
  0
LINE
  8
CSLAYER1
  6
CONTINUOUS
 62
     2
 10
918.204021
 20
1559.102548
 11
918.204021
 21
1558.157548
  0
LINE
  8
CSLAYER1
  6
CONTINUOUS
 62
     2
 10
910.959021
 20
1567.922548
 11
910.959021
 21
1561.150048
  0
LINE
  8
CSLAYER1
  6
CONTINUOUS
 62
     2
 10
911.746521
 20
1567.922548
 11
911.746521
 21
1561.150048
  0
ARC
  8
CSLAYER1
  6
CONTINUOUS
 62
     2
 10
909.069021
 20
1572.332548
 40
1.102500
 50
90.000000
 51
180.000000
  0
ARC
  8
CSLAYER1
  6
CONTINUOUS
 62
     2
 10
914.109021
 20
1572.332548
 40
1.102500
 50
0.000000
 51
90.000000
  0
ARC
  8
CSLAYER1
  6
CONTINUOUS
 62
     2
 10
914.109021
 20
1569.970048
 40
1.102500
 50
-90.000000
 51
0.000000
  0
ARC
  8
CSLAYER1
  6
CONTINUOUS
 62
     2
 10
909.069021
 20
1569.970048
 40
1.102500
 50
180.000000
 51
270.000000
  0
ARC
  8
CSLAYER1
  6
CONTINUOUS
 62
     2
 10
917.101521
 20
1559.102548
 40
1.102500
 50
0.000000
 51
90.000000
  0
ARC
  8
CSLAYER1
  6
CONTINUOUS
 62
     2
 10
917.101521
 20
1558.157548
 40
1.102500
 50
-90.000000
 51
0.000000
  0
ARC
  8
CSLAYER1
  6
CONTINUOUS
 62
     2
 10
909.069021
 20
1558.157548
 40
1.102500
 50
180.000000
 51
270.000000
  0
ARC
  8
CSLAYER1
  6
CONTINUOUS
 62
     2
 10
909.069021
 20
1559.102548
 40
1.102500
 50
90.000000
 51
180.000000
  0
LINE
  8
CSLAYER1
  6
CONTINUOUS
 62
     2
 10
912.691521
 20
1568.867548
 11
914.109021
 21
1568.867548
  0
LINE
  8
CSLAYER1
  6
CONTINUOUS
 62
     2
 10
912.691521
 20
1560.205048
 11
917.101521
 21
1560.205048
  0
ARC
  8
CSLAYER1
  6
CONTINUOUS
 62
     2
 10
910.014021
 20
1567.922548
 40
0.945000
 50
0.000000
 51
90.000000
  0
ARC
  8
CSLAYER1
  6
CONTINUOUS
 62
     2
 10
912.691521
 20
1567.922548
 40
0.945000
 50
90.000000
 51
180.000000
  0
ARC
  8
CSLAYER1
  6
CONTINUOUS
 62
     2
 10
912.691521
 20
1561.150048
 40
0.945000
 50
180.000000
 51
270.000000
  0
ARC
  8
CSLAYER1
  6
CONTINUOUS
 62
     2
 10
908.439021
 20
1577.530048
 40
1.260000
 50
90.000000
 51
180.000000
  0
ARC
  8
CSLAYER1
  6
CONTINUOUS
 62
     2
 10
917.574021
 20
1577.530048
 40
1.260000
 50
0.000000
 51
90.000000
  0
ARC
  8
CSLAYER1
  6
CONTINUOUS
 62
     2
 10
917.574021
 20
1556.425048
 40
1.260000
 50
-90.000000
 51
0.000000
  0
ARC
  8
CSLAYER1
  6
CONTINUOUS
 62
     2
 10
908.439021
 20
1556.425048
 40
1.260000
 50
180.000000
 51
270.000000
  0
ARC
  8
CSLAYER1
  6
CONTINUOUS
 62
     2
 10
910.014021
 20
1561.150048
 40
0.945000
 50
-90.000000
 51
0.000000
  0
LINE
  8
CSLAYER1
  6
CONTINUOUS
 62
     2
 10
907.966521
 20
1559.102548
 11
907.966521
 21
1558.157548
  0
CIRCLE
  8
CSLAYER1
  6
CONTINUOUS
 62
     2
 10
893.432032
 20
1616.627389
 40
2.500000
  0
CIRCLE
  8
CSLAYER1
  6
CONTINUOUS
 62
     2
 10
893.432032
 20
1626.627389
 40
2.500000
  0
CIRCLE
  8
CSLAYER1
  6
CONTINUOUS
 62
     2
 10
883.432032
 20
1626.627389
 40
2.500000
  0
CIRCLE
  8
CSLAYER1
  6
CONTINUOUS
 62
     2
 10
883.432032
 20
1616.627389
 40
2.500000
  0
CIRCLE
  8
CSLAYER1
  6
CONTINUOUS
 62
     2
 10
873.432032
 20
1616.627389
 40
2.500000
  0
CIRCLE
  8
CSLAYER1
  6
CONTINUOUS
 62
     2
 10
873.432032
 20
1626.627389
 40
2.500000
  0
CIRCLE
  8
CSLAYER1
  6
CONTINUOUS
 62
     2
 10
863.432032
 20
1626.627389
 40
2.500000
  0
CIRCLE
  8
CSLAYER1
  6
CONTINUOUS
 62
     2
 10
863.432032
 20
1616.627389
 40
2.500000
  0
CIRCLE
  8
CSLAYER1
  6
CONTINUOUS
 62
     2
 10
853.432032
 20
1616.627389
 40
2.500000
  0
CIRCLE
  8
CSLAYER1
  6
CONTINUOUS
 62
     2
 10
853.432032
 20
1626.627389
 40
2.500000
  0
CIRCLE
  8
CSLAYER1
  6
CONTINUOUS
 62
     2
 10
893.432032
 20
1606.627389
 40
2.500000
  0
CIRCLE
  8
CSLAYER1
  6
CONTINUOUS
 62
     2
 10
893.432032
 20
1596.627389
 40
2.500000
  0
CIRCLE
  8
CSLAYER1
  6
CONTINUOUS
 62
     2
 10
883.432032
 20
1596.627389
 40
2.500000
  0
CIRCLE
  8
CSLAYER1
  6
CONTINUOUS
 62
     2
 10
883.432032
 20
1606.627389
 40
2.500000
  0
CIRCLE
  8
CSLAYER1
  6
CONTINUOUS
 62
     2
 10
873.432032
 20
1606.627389
 40
2.500000
  0
CIRCLE
  8
CSLAYER1
  6
CONTINUOUS
 62
     2
 10
873.432032
 20
1596.627389
 40
2.500000
  0
CIRCLE
  8
CSLAYER1
  6
CONTINUOUS
 62
     2
 10
863.432032
 20
1596.627389
 40
2.500000
  0
CIRCLE
  8
CSLAYER1
  6
CONTINUOUS
 62
     2
 10
863.432032
 20
1606.627389
 40
2.500000
  0
CIRCLE
  8
CSLAYER1
  6
CONTINUOUS
 62
     2
 10
853.432032
 20
1606.627389
 40
2.500000
  0
CIRCLE
  8
CSLAYER1
  6
CONTINUOUS
 62
     2
 10
853.432032
 20
1596.627389
 40
2.500000
  0
CIRCLE
  8
CSLAYER1
  6
CONTINUOUS
 62
     2
 10
893.432032
 20
1516.627389
 40
2.500000
  0
CIRCLE
  8
CSLAYER1
  6
CONTINUOUS
 62
     2
 10
893.432032
 20
1506.627389
 40
2.500000
  0
CIRCLE
  8
CSLAYER1
  6
CONTINUOUS
 62
     2
 10
883.432032
 20
1506.627389
 40
2.500000
  0
CIRCLE
  8
CSLAYER1
  6
CONTINUOUS
 62
     2
 10
883.432032
 20
1516.627389
 40
2.500000
  0
CIRCLE
  8
CSLAYER1
  6
CONTINUOUS
 62
     2
 10
873.432032
 20
1516.627389
 40
2.500000
  0
CIRCLE
  8
CSLAYER1
  6
CONTINUOUS
 62
     2
 10
873.432032
 20
1506.627389
 40
2.500000
  0
CIRCLE
  8
CSLAYER1
  6
CONTINUOUS
 62
     2
 10
863.432032
 20
1506.627389
 40
2.500000
  0
CIRCLE
  8
CSLAYER1
  6
CONTINUOUS
 62
     2
 10
863.432032
 20
1516.627389
 40
2.500000
  0
CIRCLE
  8
CSLAYER1
  6
CONTINUOUS
 62
     2
 10
853.432032
 20
1516.627389
 40
2.500000
  0
CIRCLE
  8
CSLAYER1
  6
CONTINUOUS
 62
     2
 10
853.432032
 20
1506.627389
 40
2.500000
  0
CIRCLE
  8
CSLAYER1
  6
CONTINUOUS
 62
     2
 10
893.432032
 20
1526.627389
 40
2.500000
  0
CIRCLE
  8
CSLAYER1
  6
CONTINUOUS
 62
     2
 10
893.432032
 20
1536.627389
 40
2.500000
  0
CIRCLE
  8
CSLAYER1
  6
CONTINUOUS
 62
     2
 10
883.432032
 20
1536.627389
 40
2.500000
  0
CIRCLE
  8
CSLAYER1
  6
CONTINUOUS
 62
     2
 10
883.432032
 20
1526.627389
 40
2.500000
  0
CIRCLE
  8
CSLAYER1
  6
CONTINUOUS
 62
     2
 10
873.432032
 20
1526.627389
 40
2.500000
  0
CIRCLE
  8
CSLAYER1
  6
CONTINUOUS
 62
     2
 10
873.432032
 20
1536.627389
 40
2.500000
  0
CIRCLE
  8
CSLAYER1
  6
CONTINUOUS
 62
     2
 10
863.432032
 20
1536.627389
 40
2.500000
  0
CIRCLE
  8
CSLAYER1
  6
CONTINUOUS
 62
     2
 10
863.432032
 20
1526.627389
 40
2.500000
  0
CIRCLE
  8
CSLAYER1
  6
CONTINUOUS
 62
     2
 10
853.432032
 20
1526.627389
 40
2.500000
  0
CIRCLE
  8
CSLAYER1
  6
CONTINUOUS
 62
     2
 10
853.432032
 20
1536.627389
 40
2.500000
  0
LINE
  8
CSLAYER1
  6
CONTINUOUS
 62
     2
 10
919.432032
 20
1539.127389
 11
919.432032
 21
1504.127389
  0
LINE
  8
CSLAYER1
  6
CONTINUOUS
 62
     2
 10
903.432032
 20
1539.127389
 11
903.432032
 21
1504.127389
  0
LINE
  8
CSLAYER1
  6
CONTINUOUS
 62
     2
 10
917.932032
 20
1540.627389
 11
904.932032
 21
1540.627389
  0
LINE
  8
CSLAYER1
  6
CONTINUOUS
 62
     2
 10
918.432032
 20
1539.127389
 11
918.432032
 21
1504.127389
  0
LINE
  8
CSLAYER1
  6
CONTINUOUS
 62
     2
 10
904.432032
 20
1539.127389
 11
904.432032
 21
1504.127389
  0
LINE
  8
CSLAYER1
  6
CONTINUOUS
 62
     2
 10
917.932032
 20
1539.627389
 11
904.932032
 21
1539.627389
  0
LINE
  8
CSLAYER1
  6
CONTINUOUS
 62
     2
 10
917.932032
 20
1502.627389
 11
904.932032
 21
1502.627389
  0
LINE
  8
CSLAYER1
  6
CONTINUOUS
 62
     2
 10
917.932032
 20
1503.627389
 11
904.932032
 21
1503.627389
  0
ARC
  8
CSLAYER1
  6
CONTINUOUS
 62
     2
 10
917.932032
 20
1539.127389
 40
0.500000
 50
0.000000
 51
90.000000
  0
ARC
  8
CSLAYER1
  6
CONTINUOUS
 62
     2
 10
904.932032
 20
1539.127389
 40
0.500000
 50
90.000000
 51
180.000000
  0
ARC
  8
CSLAYER1
  6
CONTINUOUS
 62
     2
 10
917.932032
 20
1504.127389
 40
0.500000
 50
-90.000000
 51
0.000000
  0
ARC
  8
CSLAYER1
  6
CONTINUOUS
 62
     2
 10
904.932032
 20
1504.127389
 40
0.500000
 50
180.000000
 51
270.000000
  0
ARC
  8
CSLAYER1
  6
CONTINUOUS
 62
     2
 10
917.932032
 20
1539.127389
 40
1.500000
 50
0.000000
 51
90.000000
  0
ARC
  8
CSLAYER1
  6
CONTINUOUS
 62
     2
 10
904.932032
 20
1539.127389
 40
1.500000
 50
90.000000
 51
180.000000
  0
ARC
  8
CSLAYER1
  6
CONTINUOUS
 62
     2
 10
917.932032
 20
1504.127389
 40
1.500000
 50
-90.000000
 51
0.000000
  0
ARC
  8
CSLAYER1
  6
CONTINUOUS
 62
     2
 10
904.932032
 20
1504.127389
 40
1.500000
 50
180.000000
 51
270.000000
  0
LINE
  8
CSLAYER1
  6
CONTINUOUS
 62
     2
 10
914.432032
 20
1530.627389
 11
914.432032
 21
1512.627389
  0
LINE
  8
CSLAYER1
  6
CONTINUOUS
 62
     2
 10
917.510104
 20
1521.627389
 11
914.432032
 21
1512.627389
  0
LINE
  8
CSLAYER1
  6
CONTINUOUS
 62
     2
 10
917.510104
 20
1521.627389
 11
914.432032
 21
1530.627389
  0
TEXT
  8
CSLAYER1
 62
     2
 10
906.138236
 20
1530.607475
 40
7.066058
 41
1.574983
  1
UP
 50
270.000000
 51
0.000000
  7
EASYDRAW_FONT
 72
     5
 11
906.138236
 21
1512.059273
  0
LINE
  8
CSLAYER1
  6
CONTINUOUS
 62
     2
 10
919.432032
 20
1594.127389
 11
919.432032
 21
1629.127389
  0
LINE
  8
CSLAYER1
  6
CONTINUOUS
 62
     2
 10
903.432032
 20
1594.127389
 11
903.432032
 21
1629.127389
  0
LINE
  8
CSLAYER1
  6
CONTINUOUS
 62
     2
 10
917.932032
 20
1592.627389
 11
904.932032
 21
1592.627389
  0
LINE
  8
CSLAYER1
  6
CONTINUOUS
 62
     2
 10
918.432032
 20
1594.127389
 11
918.432032
 21
1629.127389
  0
LINE
  8
CSLAYER1
  6
CONTINUOUS
 62
     2
 10
904.432032
 20
1594.127389
 11
904.432032
 21
1629.127389
  0
LINE
  8
CSLAYER1
  6
CONTINUOUS
 62
     2
 10
917.932032
 20
1593.627389
 11
904.932032
 21
1593.627389
  0
LINE
  8
CSLAYER1
  6
CONTINUOUS
 62
     2
 10
917.932032
 20
1630.627389
 11
904.932032
 21
1630.627389
  0
LINE
  8
CSLAYER1
  6
CONTINUOUS
 62
     2
 10
917.932032
 20
1629.627389
 11
904.932032
 21
1629.627389
  0
ARC
  8
CSLAYER1
  6
CONTINUOUS
 62
     2
 10
917.932032
 20
1594.127389
 40
0.500000
 50
-90.000000
 51
0.000000
  0
ARC
  8
CSLAYER1
  6
CONTINUOUS
 62
     2
 10
904.932032
 20
1594.127389
 40
0.500000
 50
180.000000
 51
270.000000
  0
ARC
  8
CSLAYER1
  6
CONTINUOUS
 62
     2
 10
917.932032
 20
1629.127389
 40
0.500000
 50
0.000000
 51
90.000000
  0
ARC
  8
CSLAYER1
  6
CONTINUOUS
 62
     2
 10
904.932032
 20
1629.127389
 40
0.500000
 50
90.000000
 51
180.000000
  0
ARC
  8
CSLAYER1
  6
CONTINUOUS
 62
     2
 10
917.932032
 20
1594.127389
 40
1.500000
 50
-90.000000
 51
0.000000
  0
ARC
  8
CSLAYER1
  6
CONTINUOUS
 62
     2
 10
904.932032
 20
1594.127389
 40
1.500000
 50
180.000000
 51
270.000000
  0
ARC
  8
CSLAYER1
  6
CONTINUOUS
 62
     2
 10
917.932032
 20
1629.127389
 40
1.500000
 50
0.000000
 51
90.000000
  0
ARC
  8
CSLAYER1
  6
CONTINUOUS
 62
     2
 10
904.932032
 20
1629.127389
 40
1.500000
 50
90.000000
 51
180.000000
  0
LINE
  8
CSLAYER1
  6
CONTINUOUS
 62
     2
 10
908.959102
 20
1602.627389
 11
908.959102
 21
1620.627389
  0
LINE
  8
CSLAYER1
  6
CONTINUOUS
 62
     2
 10
905.881030
 20
1611.627389
 11
908.959102
 21
1620.627389
  0
LINE
  8
CSLAYER1
  6
CONTINUOUS
 62
     2
 10
905.881030
 20
1611.627389
 11
908.959102
 21
1602.627389
  0
TEXT
  8
CSLAYER1
 62
     2
 10
910.569077
 20
1626.325044
 40
6.383575
 41
1.255870
  1
DOWN
 50
270.000000
 51
0.000000
  7
EASYDRAW_FONT
 72
     5
 11
910.569077
 21
1596.929595
  0
ENDBLK
  8
0
  0
ENDSEC
  0
SECTION
  2
ENTITIES
  0
LINE
  8
CSLAYER1
  6
CONTINUOUS
 62
     3
 10
118.051807
 20
2400.454119
 11
118.051807
 21
51.907189
  0
LINE
  8
CSLAYER1
  6
CONTINUOUS
 62
     3
 10
3440.625117
 20
2400.454119
 11
118.051807
 21
2400.454119
  0
LINE
  8
CSLAYER1
  6
CONTINUOUS
 62
     3
 10
3440.625117
 20
2400.454119
 11
3440.625117
 21
51.907189
  0
LINE
  8
CSLAYER1
  6
CONTINUOUS
 62
     3
 10
3440.625117
 20
51.907189
 11
118.051807
 21
51.907189
  0
LINE
  8
CSLAYER1
  6
CONTINUOUS
 62
     5
 10
68.051807
 20
1211.907189
 11
18.051807
 21
1211.907189
  0
LINE
  8
CSLAYER1
  6
CONTINUOUS
 62
     5
 10
2640.625117
 20
491.907189
 11
3440.625117
 21
491.907189
  0
LINE
  8
CSLAYER1
  6
CONTINUOUS
 62
     5
 10
2640.625117
 20
131.907189
 11
3440.625117
 21
131.907189
  0
LINE
  8
CSLAYER1
  6
CONTINUOUS
 62
     5
 10
2640.625117
 20
291.907189
 11
3440.625117
 21
291.907189
  0
LINE
  8
CSLAYER1
  6
CONTINUOUS
 62
     5
 10
2640.625117
 20
351.907189
 11
3440.625117
 21
351.907189
  0
LINE
  8
CSLAYER1
  6
CONTINUOUS
 62
     5
 10
2640.625117
 20
411.907189
 11
3440.625117
 21
411.907189
  0
LINE
  8
CSLAYER1
  6
CONTINUOUS
 62
     5
 10
2640.625117
 20
571.907189
 11
3440.625117
 21
571.907189
  0
LINE
  8
CSLAYER1
  6
CONTINUOUS
 62
     5
 10
2640.625117
 20
651.907189
 11
2640.625117
 21
51.907189
  0
LINE
  8
CSLAYER1
  6
CONTINUOUS
 62
     5
 10
2840.625117
 20
651.907189
 11
2840.625117
 21
411.907189
  0
LINE
  8
CSLAYER1
  6
CONTINUOUS
 62
     5
 10
2640.625117
 20
651.907189
 11
3440.625117
 21
651.907189
  0
LINE
  8
CSLAYER1
  6
CONTINUOUS
 62
     5
 10
3140.625117
 20
411.907189
 11
3140.625117
 21
131.907189
  0
TEXT
  8
CSLAYER1
 62
     3
 10
2860.316219
 20
60.469913
 40
59.380363
 41
1.003345
  1
東正車輌株式会社
 50
0.000000
 51
0.000000
  7
EASYDRAW_FONT
 72
     5
 11
3317.088566
 21
60.469913
  0
LINE
  8
CSLAYER1
  6
CONTINUOUS
 62
     5
 10
2890.625117
 20
351.907189
 11
2890.625117
 21
131.907189
  0
TEXT
  8
CSLAYER1
 62
     5
 10
2670.625000
 20
586.907166
 40
50.000000
 41
1.050000
  1
品　名
 50
0.000000
 51
0.000000
  7
EASYDRAW_FONT
 72
     5
 11
2810.625000
 21
586.907166
  0
TEXT
  8
CSLAYER1
 62
     5
 10
2670.625000
 20
506.907166
 40
50.000000
 41
1.050000
  1
型　式
 50
0.000000
 51
0.000000
  7
EASYDRAW_FONT
 72
     5
 11
2810.625000
 21
506.907166
  0
TEXT
  8
CSLAYER1
 62
     5
 10
2645.625000
 20
426.907196
 40
50.000000
 41
1.036364
  1
図面番号
 50
0.000000
 51
0.000000
  7
EASYDRAW_FONT
 72
     5
 11
2835.625000
 21
426.907196
  0
TEXT
  8
CSLAYER1
 62
     5
 10
2710.625000
 20
356.907196
 40
50.000000
 41
0.830769
  1
平成１３年３月７日
 50
0.000000
 51
0.000000
  7
EASYDRAW_FONT
 72
     5
 11
3070.625000
 21
356.907196
  0
TEXT
  8
CSLAYER1
 62
     5
 10
3220.625000
 20
356.907196
 40
50.000000
 41
1.050000
  1
Ｂ－４
 50
0.000000
 51
0.000000
  7
EASYDRAW_FONT
 72
     5
 11
3360.625000
 21
356.907196
  0
TEXT
  8
CSLAYER1
 62
     5
 10
2695.625000
 20
296.907196
 40
50.000000
 41
1.050000
  1
検　図
 50
0.000000
 51
0.000000
  7
EASYDRAW_FONT
 72
     5
 11
2835.625000
 21
296.907196
  0
TEXT
  8
CSLAYER1
 62
     5
 10
2945.625000
 20
296.907196
 40
50.000000
 41
1.050000
  1
作　図
 50
0.000000
 51
0.000000
  7
EASYDRAW_FONT
 72
     5
 11
3085.625000
 21
296.907196
  0
TEXT
  8
CSLAYER1
 62
     5
 10
3220.625000
 20
296.907196
 40
50.000000
 41
1.050000
  1
尺　度
 50
0.000000
 51
0.000000
  7
EASYDRAW_FONT
 72
     5
 11
3360.625000
 21
296.907196
  0
TEXT
  8
CSLAYER1
 62
     5
 10
3321.363770
 20
146.392456
 40
50.000000
 41
1.080000
  1
１０
 50
0.000000
 51
0.000000
  7
EASYDRAW_FONT
 72
     5
 11
3411.363770
 21
146.392456
  0
TEXT
  8
CSLAYER1
 62
     5
 10
3301.044189
 20
194.097153
 40
50.000000
 41
1.200000
  1
／
 50
0.000000
 51
0.000000
  7
EASYDRAW_FONT
 72
     5
 11
3341.044189
 21
194.097153
  0
TEXT
  8
CSLAYER1
 62
     5
 10
3270.831299
 20
229.080597
 40
50.000000
 41
1.200000
  1
１
 50
0.000000
 51
0.000000
  7
EASYDRAW_FONT
 72
     5
 11
3310.831299
 21
229.080597
  0
TEXT
  8
CSLAYER1
 62
     3
 10
2980.625000
 20
586.907166
 40
50.000000
 41
0.834783
  1
ゴールドリフター
 50
0.000000
 51
0.000000
  7
EASYDRAW_FONT
 72
     5
 11
3300.625000
 21
586.907166
  0
TEXT
  8
CSLAYER1
 62
     3
 10
2900.625000
 20
506.907166
 40
50.000000
 41
0.822857
  1
ＧＬＥ－３００－０４０６
 50
0.000000
 51
0.000000
  7
EASYDRAW_FONT
 72
     5
 11
3380.625000
 21
506.907166
  0
TEXT
  8
CSLAYER1
 62
     3
 10
3020.625000
 20
426.907196
 40
50.000000
 41
0.847059
  1
GT-05 
 50
0.000000
 51
0.000000
  7
EASYDRAW_FONT
 72
     5
 11
3260.625000
 21
426.907196
  0
INSERT
  8
CSLAYER1
  2
BLKF0000
 10
0.0
 20
0.0
 30
0.0
  0
INSERT
  8
CSLAYER1
  2
BLKF0001
 10
0.0
 20
0.0
 30
0.0
  0
LINE
  8
CSLAYER1
  6
CONTINUOUS
 62
     3
 10
1954.895097
 20
909.689520
 11
1354.895097
 21
909.689520
  0
LINE
  8
CSLAYER1
  6
CONTINUOUS
 62
     3
 10
1354.895097
 20
909.689520
 11
1354.895097
 21
864.689520
  0
LINE
  8
CSLAYER1
  6
CONTINUOUS
 62
     3
 10
1354.895097
 20
864.689520
 11
1954.895097
 21
864.689520
  0
LINE
  8
CSLAYER1
  6
CONTINUOUS
 62
     3
 10
1954.895097
 20
909.689520
 11
1954.895097
 21
864.689520
  0
LINE
  8
CSLAYER1
  6
CONTINUOUS
 62
     3
 10
1505.481476
 20
510.689523
 11
1512.131476
 21
539.189523
  0
LINE
  8
CSLAYER1
  6
CONTINUOUS
 62
     3
 10
1520.131476
 20
509.189523
 11
1625.131476
 21
509.189523
  0
LINE
  8
CSLAYER1
  6
CONTINUOUS
 62
     3
 10
1505.131476
 20
507.689523
 11
1505.131476
 21
504.189523
  0
LINE
  8
CSLAYER1
  6
CONTINUOUS
 62
     3
 10
1512.131476
 20
539.189523
 11
1618.131476
 21
539.189523
  0
LINE
  8
CSLAYER1
  6
CONTINUOUS
 62
     3
 10
1618.131476
 20
539.189523
 11
1625.131476
 21
509.189523
  0
LINE
  8
CSLAYER1
  6
CONTINUOUS
 62
     3
 10
1625.131476
 20
509.189523
 11
1625.131476
 21
504.189523
  0
LINE
  8
CSLAYER1
  6
CONTINUOUS
 62
     3
 10
1612.183590
 20
596.789523
 11
1529.682617
 21
596.789523
  0
LINE
  8
CSLAYER1
  6
CONTINUOUS
 62
     3
 10
1653.131476
 20
555.539523
 11
1653.131476
 21
506.839523
  0
LINE
  8
CSLAYER1
  6
CONTINUOUS
 62
     3
 10
1445.131476
 20
514.983649
 11
1445.131476
 21
504.189523
  0
LINE
  8
CSLAYER1
  6
CONTINUOUS
 62
     3
 10
1485.131476
 20
553.684900
 11
1485.131476
 21
515.189523
  0
LINE
  8
CSLAYER1
  6
CONTINUOUS
 62
     3
 10
1642.131476
 20
567.814007
 11
1642.131476
 21
504.189523
  0
LINE
  8
CSLAYER1
  6
CONTINUOUS
 62
     3
 10
1653.131476
 20
506.839523
 11
1642.131476
 21
506.839523
  0
LINE
  8
CSLAYER1
  6
CONTINUOUS
 62
     3
 10
1653.131476
 20
555.539523
 11
1642.131476
 21
555.539523
  0
LINE
  8
CSLAYER1
  6
CONTINUOUS
 62
     7
 10
1632.131476
 20
569.771475
 11
1632.131476
 21
529.339926
  0
LINE
  8
CSLAYER1
  6
CONTINUOUS
 62
     5
 10
1610.131476
 20
591.189523
 11
1610.131476
 21
539.189523
  0
LINE
  8
CSLAYER1
  6
CONTINUOUS
 62
     7
 10
1574.131476
 20
569.771475
 11
1574.131476
 21
568.167235
  0
LINE
  8
CSLAYER1
  6
CONTINUOUS
 62
     7
 10
1619.132305
 20
534.900253
 11
1625.131476
 21
534.900253
  0
LINE
  8
CSLAYER1
  6
CONTINUOUS
 62
     7
 10
1592.131476
 20
571.271475
 11
1628.131476
 21
571.271475
  0
LINE
  8
CSLAYER1
  6
CONTINUOUS
 62
     7
 10
1619.913483
 20
531.552350
 11
1628.131476
 21
531.552350
  0
ARC
  8
CSLAYER1
  6
CONTINUOUS
 62
     7
 10
1610.131476
 20
553.085864
 40
12.500000
 50
-170.165413
 51
140.165413
  0
LINE
  8
CSLAYER1
  6
CONTINUOUS
 62
     7
 10
1628.131476
 20
571.271475
 11
1628.131476
 21
531.552350
  0
LINE
  8
CSLAYER1
  6
CONTINUOUS
 62
     7
 10
1625.131476
 20
571.271475
 11
1625.131476
 21
534.900253
  0
LINE
  8
CSLAYER1
  6
CONTINUOUS
 62
     7
 10
1592.131476
 20
571.271475
 11
1592.131476
 21
563.344150
  0
LINE
  8
CSLAYER1
  6
CONTINUOUS
 62
     7
 10
1578.131476
 20
569.771475
 11
1578.131476
 21
567.095438
  0
ARC
  8
CSLAYER1
  6
CONTINUOUS
 62
     7
 10
1610.131476
 20
553.085864
 40
5.250000
 50
-105.000000
 51
75.000000
  0
LINE
  8
CSLAYER1
  6
CONTINUOUS
 62
     7
 10
1578.131476
 20
569.771475
 11
1592.131476
 21
571.271475
  0
LINE
  8
CSLAYER1
  6
CONTINUOUS
 62
     7
 10
1625.131476
 20
534.900253
 11
1628.131476
 21
531.552350
  0
LINE
  8
CSLAYER1
  6
CONTINUOUS
 62
     7
 10
1576.131476
 20
571.771475
 11
1593.064184
 21
571.771475
  0
ARC
  8
CSLAYER1
  6
CONTINUOUS
 62
     7
 10
1610.131476
 20
558.115840
 40
20.284880
 50
47.545857
 51
84.719619
  0
CIRCLE
  8
CSLAYER1
  6
CONTINUOUS
 62
     7
 10
1610.131476
 20
575.966229
 40
3.000000
  0
ARC
  8
CSLAYER1
  6
CONTINUOUS
 62
     7
 10
1610.131476
 20
534.897317
 40
16.796254
 50
314.594132
 51
324.821469
  0
LINE
  8
CSLAYER1
  6
CONTINUOUS
 62
     5
 10
1603.416173
 20
575.966229
 11
1616.177251
 21
575.966229
  0
ARC
  8
CSLAYER1
  6
CONTINUOUS
 62
     7
 10
1610.131476
 20
558.115840
 40
20.284880
 50
95.280381
 51
132.454143
  0
LINE
  8
CSLAYER1
  6
CONTINUOUS
 62
     7
 10
1627.198768
 20
571.771475
 11
1630.131476
 21
571.771475
  0
ARC
  8
CSLAYER1
  6
CONTINUOUS
 62
     7
 10
1593.064184
 20
576.771475
 40
5.000000
 50
270.000000
 51
312.454143
  0
ARC
  8
CSLAYER1
  6
CONTINUOUS
 62
     7
 10
1627.198768
 20
576.771475
 40
5.000000
 50
227.545857
 51
270.000000
  0
LINE
  8
CSLAYER1
  6
CONTINUOUS
 62
     7
 10
1627.946880
 20
527.339926
 11
1630.131476
 21
527.339926
  0
ARC
  8
CSLAYER1
  6
CONTINUOUS
 62
     7
 10
1627.946880
 20
522.339926
 40
5.000000
 50
90.000000
 51
144.821469
  0
LINE
  8
CSLAYER1
  6
CONTINUOUS
 62
     7
 10
1578.131476
 20
556.225038
 11
1578.131476
 21
539.189523
  0
LINE
  8
CSLAYER1
  6
CONTINUOUS
 62
     7
 10
1574.131476
 20
557.296835
 11
1574.131476
 21
539.189523
  0
LINE
  8
CSLAYER1
  6
CONTINUOUS
 62
     7
 10
1592.131476
 20
552.473750
 11
1592.131476
 21
539.189523
  0
LINE
  8
CSLAYER1
  6
CONTINUOUS
 62
     5
 10
1598.073880
 20
553.085864
 11
1625.131476
 21
553.085864
  0
LINE
  8
CSLAYER1
  6
CONTINUOUS
 62
     5
 10
1634.131476
 20
575.554257
 11
1634.131476
 21
504.189523
  0
LINE
  8
CSLAYER1
  6
CONTINUOUS
 62
     5
 10
1487.631476
 20
505.189523
 11
1445.131476
 21
505.189523
  0
ARC
  8
CSLAYER1
  6
CONTINUOUS
 62
     4
 10
1466.631476
 20
552.689523
 40
17.000000
 50
269.666420
 51
358.442731
  0
LINE
  8
CSLAYER1
  6
CONTINUOUS
 62
     4
 10
1472.366456
 20
540.689523
 11
1471.699995
 21
540.689523
  0
LINE
  8
CSLAYER1
  6
CONTINUOUS
 62
     4
 10
1474.156290
 20
541.722884
 11
1475.913186
 21
544.765917
  0
ARC
  8
CSLAYER1
  6
CONTINUOUS
 62
     4
 10
1466.631476
 20
552.689523
 40
13.300000
 50
295.543837
 51
304.456163
  0
LINE
  8
CSLAYER1
  6
CONTINUOUS
 62
     4
 10
1472.131476
 20
536.603815
 11
1472.131476
 21
523.189523
  0
LINE
  8
CSLAYER1
  6
CONTINUOUS
 62
     4
 10
1448.631476
 20
516.189523
 11
1448.631476
 21
504.189523
  0
LINE
  8
CSLAYER1
  6
CONTINUOUS
 62
     4
 10
1484.631476
 20
516.189523
 11
1484.631476
 21
504.189523
  0
LINE
  8
CSLAYER1
  6
CONTINUOUS
 62
     4
 10
1477.631476
 20
523.189523
 11
1455.631476
 21
523.189523
  0
ARC
  8
CSLAYER1
  6
CONTINUOUS
 62
     4
 10
1466.631476
 20
505.189523
 40
12.500000
 50
-4.588566
 51
184.588566
  0
ARC
  8
CSLAYER1
  6
CONTINUOUS
 62
     4
 10
1466.631476
 20
505.189523
 40
4.750000
 50
-12.153197
 51
192.153197
  0
LINE
  8
CSLAYER1
  6
CONTINUOUS
 62
     4
 10
1450.131476
 20
515.689523
 11
1450.131476
 21
504.189523
  0
LINE
  8
CSLAYER1
  6
CONTINUOUS
 62
     4
 10
1483.131476
 20
515.689523
 11
1483.131476
 21
504.189523
  0
LINE
  8
CSLAYER1
  6
CONTINUOUS
 62
     4
 10
1477.131476
 20
521.689523
 11
1456.131476
 21
521.689523
  0
LINE
  8
CSLAYER1
  6
CONTINUOUS
 62
     4
 10
1467.497501
 20
506.689523
 11
1465.765450
 21
506.689523
  0
LINE
  8
CSLAYER1
  6
CONTINUOUS
 62
     4
 10
1467.786176
 20
504.189523
 11
1468.363526
 21
505.189523
  0
LINE
  8
CSLAYER1
  6
CONTINUOUS
 62
     4
 10
1464.899425
 20
505.189523
 11
1465.765450
 21
506.689523
  0
LINE
  8
CSLAYER1
  6
CONTINUOUS
 62
     4
 10
1464.899425
 20
505.189523
 11
1465.476775
 21
504.189523
  0
LINE
  8
CSLAYER1
  6
CONTINUOUS
 62
     4
 10
1467.497501
 20
506.689523
 11
1468.363526
 21
505.189523
  0
LINE
  8
CSLAYER1
  6
CONTINUOUS
 62
     4
 10
1456.131476
 20
521.689523
 11
1450.131476
 21
515.689523
  0
LINE
  8
CSLAYER1
  6
CONTINUOUS
 62
     4
 10
1477.131476
 20
521.689523
 11
1483.131476
 21
515.689523
  0
LINE
  8
CSLAYER1
  6
CONTINUOUS
 62
     4
 10
1448.631476
 20
516.189523
 11
1455.631476
 21
523.189523
  0
LINE
  8
CSLAYER1
  6
CONTINUOUS
 62
     4
 10
1477.631476
 20
523.189523
 11
1484.631476
 21
516.189523
  0
LINE
  8
CSLAYER1
  6
CONTINUOUS
 62
     4
 10
1487.631476
 20
515.189523
 11
1487.631476
 21
504.189523
  0
LINE
  8
CSLAYER1
  6
CONTINUOUS
 62
     4
 10
1490.131476
 20
513.189523
 11
1490.131476
 21
504.189523
  0
LINE
  8
CSLAYER1
  6
CONTINUOUS
 62
     4
 10
1487.631476
 20
515.189523
 11
1484.631476
 21
515.189523
  0
LINE
  8
CSLAYER1
  6
CONTINUOUS
 62
     4
 10
1490.131476
 20
513.189523
 11
1487.631476
 21
513.189523
  0
LINE
  8
CSLAYER1
  6
CONTINUOUS
 62
     5
 10
1520.131476
 20
509.189523
 11
1483.131476
 21
509.189523
  0
LINE
  8
CSLAYER1
  6
CONTINUOUS
 62
     4
 10
1520.131476
 20
507.689523
 11
1490.131476
 21
507.689523
  0
LINE
  8
CSLAYER1
  6
CONTINUOUS
 62
     4
 10
1520.131476
 20
510.689523
 11
1490.131476
 21
510.689523
  0
LINE
  8
CSLAYER1
  6
CONTINUOUS
 62
     5
 10
1491.631476
 20
507.689523
 11
1491.631476
 21
504.189523
  0
ARC
  8
CSLAYER1
  6
CONTINUOUS
 62
     4
 10
1465.471820
 20
531.254652
 40
12.340516
 50
212.603801
 51
220.809702
  0
LINE
  8
CSLAYER1
  6
CONTINUOUS
 62
     4
 10
1449.631476
 20
519.337540
 11
1449.631476
 21
517.189523
  0
ARC
  8
CSLAYER1
  6
CONTINUOUS
 62
     7
 10
1576.131476
 20
569.771475
 40
2.000000
 50
90.000000
 51
180.000000
  0
ARC
  8
CSLAYER1
  6
CONTINUOUS
 62
     7
 10
1630.131476
 20
529.339926
 40
2.000000
 50
270.000000
 51
360.000000
  0
ARC
  8
CSLAYER1
  6
CONTINUOUS
 62
     7
 10
1630.131476
 20
569.771475
 40
2.000000
 50
0.000000
 51
90.000000
  0
LINE
  8
CSLAYER1
  6
CONTINUOUS
 62
     7
 10
1647.831476
 20
533.689523
 11
1647.831476
 21
528.689523
  0
LINE
  8
CSLAYER1
  6
CONTINUOUS
 62
     7
 10
1643.131476
 20
536.189523
 11
1643.131476
 21
526.189523
  0
LINE
  8
CSLAYER1
  6
CONTINUOUS
 62
     7
 10
1644.131476
 20
536.189523
 11
1644.131476
 21
526.189523
  0
LINE
  8
CSLAYER1
  6
CONTINUOUS
 62
     7
 10
1645.431476
 20
536.189523
 11
1642.131476
 21
536.189523
  0
LINE
  8
CSLAYER1
  6
CONTINUOUS
 62
     7
 10
1645.431476
 20
526.189523
 11
1642.131476
 21
526.189523
  0
LINE
  8
CSLAYER1
  6
CONTINUOUS
 62
     7
 10
1645.431476
 20
536.189523
 11
1645.431476
 21
526.189523
  0
LINE
  8
CSLAYER1
  6
CONTINUOUS
 62
     5
 10
1645.831476
 20
535.689523
 11
1645.431476
 21
535.689523
  0
LINE
  8
CSLAYER1
  6
CONTINUOUS
 62
     5
 10
1645.831476
 20
526.689523
 11
1645.431476
 21
526.689523
  0
ARC
  8
CSLAYER1
  6
CONTINUOUS
 62
     7
 10
1645.831476
 20
533.689523
 40
2.000000
 50
0.000000
 51
90.000000
  0
ARC
  8
CSLAYER1
  6
CONTINUOUS
 62
     7
 10
1645.831476
 20
528.689523
 40
2.000000
 50
270.000000
 51
360.000000
  0
LINE
  8
CSLAYER1
  6
CONTINUOUS
 62
     7
 10
1644.131476
 20
530.063690
 11
1645.431476
 21
532.315356
  0
LINE
  8
CSLAYER1
  6
CONTINUOUS
 62
     5
 10
1491.631476
 20
559.973854
 11
1491.631476
 21
510.689523
  0
LINE
  8
CSLAYER1
  6
CONTINUOUS
 62
     5
 10
1466.631476
 20
535.785572
 11
1466.631476
 21
504.189523
  0
LINE
  8
CSLAYER1
  6
CENTER
 62
     5
 10
1664.886452
 20
531.189523
 11
1352.131476
 21
531.189523
  0
LINE
  8
CSLAYER1
  6
CONTINUOUS
 62
     7
 10
1544.658208
 20
576.064573
 11
1611.490276
 21
558.156975
  0
LINE
  8
CSLAYER1
  6
CONTINUOUS
 62
     5
 10
1536.869560
 20
572.716335
 11
1610.131476
 21
553.085864
  0
LINE
  8
CSLAYER1
  6
CONTINUOUS
 62
     7
 10
1538.966876
 20
566.719161
 11
1608.772676
 21
548.014754
  0
LINE
  8
CSLAYER1
  6
CONTINUOUS
 62
     3
 10
1372.131476
 20
529.189523
 11
1362.131476
 21
529.189523
  0
LINE
  8
CSLAYER1
  6
CONTINUOUS
 62
     3
 10
1441.534941
 20
511.503890
 11
1441.313294
 21
504.189523
  0
LINE
  8
CSLAYER1
  6
CONTINUOUS
 62
     3
 10
1373.881249
 20
549.189523
 11
1372.131476
 21
529.189523
  0
LINE
  8
CSLAYER1
  6
CONTINUOUS
 62
     3
 10
1362.131476
 20
529.189523
 11
1363.125940
 21
504.189523
  0
LINE
  8
CSLAYER1
  6
CONTINUOUS
 62
     3
 10
1362.131476
 20
529.189523
 11
1364.255825
 21
584.686778
  0
LINE
  8
CSLAYER1
  6
CONTINUOUS
 62
     3
 10
1429.131476
 20
594.189523
 11
1429.131476
 21
589.689523
  0
ARC
  8
CSLAYER1
  6
CONTINUOUS
 62
     3
 10
1377.246311
 20
584.189523
 40
13.000000
 50
90.000000
 51
177.807877
  0
LINE
  8
CSLAYER1
  6
CONTINUOUS
 62
     7
 10
1426.031476
 20
591.189523
 11
1422.031476
 21
591.189523
  0
LINE
  8
CSLAYER1
  6
CONTINUOUS
 62
     7
 10
1427.531476
 20
593.939523
 11
1422.031476
 21
593.939523
  0
LINE
  8
CSLAYER1
  6
CONTINUOUS
 62
     7
 10
1427.531476
 20
594.439523
 11
1427.531476
 21
589.689523
  0
LINE
  8
CSLAYER1
  6
CONTINUOUS
 62
     7
 10
1426.031476
 20
593.939523
 11
1426.031476
 21
589.689523
  0
LINE
  8
CSLAYER1
  6
CONTINUOUS
 62
     7
 10
1422.031476
 20
593.939523
 11
1422.031476
 21
589.689523
  0
LINE
  8
CSLAYER1
  6
CONTINUOUS
 62
     7
 10
1429.131476
 20
594.439523
 11
1427.531476
 21
594.439523
  0
LINE
  8
CSLAYER1
  6
CONTINUOUS
 62
     5
 10
1427.315002
 20
588.189523
 11
1418.923986
 21
588.189523
  0
LINE
  8
CSLAYER1
  6
CONTINUOUS
 62
     3
 10
1436.617027
 20
597.189523
 11
1377.246311
 21
597.189523
  0
ARC
  8
CSLAYER1
  6
CONTINUOUS
 62
     3
 10
1432.131476
 20
594.189523
 40
3.000000
 50
90.000000
 51
180.000000
  0
LINE
  8
CSLAYER1
  6
CONTINUOUS
 62
     5
 10
1395.131476
 20
597.189523
 11
1395.131476
 21
567.749024
  0
LINE
  8
CSLAYER1
  6
CONTINUOUS
 62
     3
 10
1426.798223
 20
587.689523
 11
1376.882666
 21
587.689523
  0
LINE
  8
CSLAYER1
  6
CONTINUOUS
 62
     3
 10
1428.865340
 20
589.689523
 11
1376.959223
 21
589.689523
  0
ARC
  8
CSLAYER1
  6
CONTINUOUS
 62
     3
 10
1376.959223
 20
576.689523
 40
13.000000
 50
90.000000
 51
177.807877
  0
ARC
  8
CSLAYER1
  6
CONTINUOUS
 62
     3
 10
1376.882666
 20
574.689523
 40
13.000000
 50
90.000000
 51
177.807877
  0
ARC
  8
CSLAYER1
  6
CONTINUOUS
 62
     3
 10
1395.131476
 20
579.189523
 40
8.000000
 50
0.000000
 51
180.000000
  0
LINE
  8
CSLAYER1
  6
CONTINUOUS
 62
     5
 10
1753.850679
 20
547.543842
 11
1755.836396
 21
540.593845
  0
ARC
  8
CSLAYER1
  6
CONTINUOUS
 62
     7
 10
1779.811840
 20
518.560776
 40
27.000000
 50
-32.158866
 51
85.792059
  0
LINE
  8
CSLAYER1
  6
CONTINUOUS
 62
     7
 10
1753.850679
 20
547.543842
 11
1781.793003
 21
545.487992
  0
POINT
  8
CSLAYER1
 62
     5
 10
1756.740267
 20
884.655664
  0
POINT
  8
CSLAYER1
 62
     5
 10
1385.095097
 20
884.689520
  0
LINE
  8
CSLAYER1
  6
CONTINUOUS
 62
     3
 10
255.607250
 20
454.189523
 11
2542.567603
 21
454.189523
  0
LINE
  8
CSLAYER1
  6
CONTINUOUS
 62
     3
 10
856.125940
 20
454.189523
 11
856.125940
 21
504.189523
  0
LINE
  8
CSLAYER1
  6
CONTINUOUS
 62
     3
 10
856.125940
 20
504.189523
 11
406.125940
 21
504.189523
  0
LINE
  8
CSLAYER1
  6
CONTINUOUS
 62
     3
 10
406.125940
 20
504.189523
 11
406.125940
 21
454.189523
  0
LINE
  8
CSLAYER1
  6
CENTER
 62
     5
 10
631.125940
 20
433.108861
 11
631.125940
 21
991.458392
  0
LINE
  8
CSLAYER1
  6
CONTINUOUS
 62
     3
 10
406.089005
 20
859.689520
 11
856.089005
 21
859.689520
  0
LINE
  8
CSLAYER1
  6
CONTINUOUS
 62
     3
 10
856.089005
 20
859.689520
 11
856.089005
 21
909.689520
  0
LINE
  8
CSLAYER1
  6
CONTINUOUS
 62
     3
 10
856.089005
 20
909.689520
 11
406.089005
 21
909.689520
  0
LINE
  8
CSLAYER1
  6
CONTINUOUS
 62
     3
 10
406.089005
 20
909.689520
 11
406.089005
 21
859.689520
  0
LINE
  8
CSLAYER1
  6
CONTINUOUS
 62
     3
 10
577.625940
 20
597.189523
 11
686.625940
 21
597.189523
  0
LINE
  8
CSLAYER1
  6
CONTINUOUS
 62
     3
 10
686.625940
 20
597.189523
 11
686.625940
 21
595.417939
  0
LINE
  8
CSLAYER1
  6
CONTINUOUS
 62
     3
 10
577.625940
 20
597.189523
 11
577.625940
 21
595.692458
  0
ARC
  8
CSLAYER1
  6
CONTINUOUS
 62
     7
 10
577.625940
 20
588.189523
 40
7.500000
 50
180.000000
 51
360.000000
  0
CIRCLE
  8
CSLAYER1
  6
CONTINUOUS
 62
     7
 10
577.625940
 20
588.189523
 40
6.250000
  0
CIRCLE
  8
CSLAYER1
  6
CONTINUOUS
 62
     7
 10
577.625940
 20
588.189523
 40
5.750000
  0
LINE
  8
CSLAYER1
  6
CONTINUOUS
 62
     7
 10
580.512691
 20
593.189523
 11
574.739188
 21
593.189523
  0
LINE
  8
CSLAYER1
  6
CONTINUOUS
 62
     7
 10
580.512691
 20
583.189523
 11
574.739188
 21
583.189523
  0
LINE
  8
CSLAYER1
  6
CONTINUOUS
 62
     7
 10
571.852437
 20
588.189523
 11
574.739188
 21
593.189523
  0
LINE
  8
CSLAYER1
  6
CONTINUOUS
 62
     7
 10
580.512691
 20
583.189523
 11
583.399442
 21
588.189523
  0
LINE
  8
CSLAYER1
  6
CONTINUOUS
 62
     7
 10
580.512691
 20
593.189523
 11
583.399442
 21
588.189523
  0
LINE
  8
CSLAYER1
  6
CONTINUOUS
 62
     7
 10
571.852437
 20
588.189523
 11
574.739188
 21
583.189523
  0
LINE
  8
CSLAYER1
  6
CONTINUOUS
 62
     5
 10
588.344143
 20
588.189523
 11
580.625940
 21
588.189523
  0
LINE
  8
CSLAYER1
  6
CONTINUOUS
 62
     5
 10
577.625940
 20
601.855010
 11
577.625940
 21
591.189523
  0
LINE
  8
CSLAYER1
  6
CONTINUOUS
 62
     5
 10
574.625940
 20
588.189523
 11
565.577676
 21
588.189523
  0
LINE
  8
CSLAYER1
  6
CONTINUOUS
 62
     3
 10
580.625940
 20
588.189523
 11
574.625940
 21
588.189523
  0
LINE
  8
CSLAYER1
  6
CONTINUOUS
 62
     3
 10
577.625940
 20
591.189523
 11
577.625940
 21
585.189523
  0
LINE
  8
CSLAYER1
  6
CONTINUOUS
 62
     5
 10
577.625940
 20
585.189523
 11
577.625940
 21
576.300812
  0
ARC
  8
CSLAYER1
  6
CONTINUOUS
 62
     7
 10
684.625940
 20
588.189523
 40
7.500000
 50
180.000000
 51
360.000000
  0
CIRCLE
  8
CSLAYER1
  6
CONTINUOUS
 62
     7
 10
684.625940
 20
588.189523
 40
6.250000
  0
CIRCLE
  8
CSLAYER1
  6
CONTINUOUS
 62
     7
 10
684.625940
 20
588.189523
 40
5.750000
  0
LINE
  8
CSLAYER1
  6
CONTINUOUS
 62
     7
 10
681.739188
 20
593.189523
 11
687.512691
 21
593.189523
  0
LINE
  8
CSLAYER1
  6
CONTINUOUS
 62
     7
 10
681.739188
 20
583.189523
 11
687.512691
 21
583.189523
  0
LINE
  8
CSLAYER1
  6
CONTINUOUS
 62
     7
 10
690.399442
 20
588.189523
 11
687.512691
 21
593.189523
  0
LINE
  8
CSLAYER1
  6
CONTINUOUS
 62
     7
 10
681.739188
 20
583.189523
 11
678.852437
 21
588.189523
  0
LINE
  8
CSLAYER1
  6
CONTINUOUS
 62
     7
 10
681.739188
 20
593.189523
 11
678.852437
 21
588.189523
  0
LINE
  8
CSLAYER1
  6
CONTINUOUS
 62
     7
 10
690.399442
 20
588.189523
 11
687.512691
 21
583.189523
  0
LINE
  8
CSLAYER1
  6
CONTINUOUS
 62
     5
 10
673.907736
 20
588.189523
 11
681.625940
 21
588.189523
  0
LINE
  8
CSLAYER1
  6
CONTINUOUS
 62
     5
 10
687.625940
 20
588.189523
 11
696.674203
 21
588.189523
  0
LINE
  8
CSLAYER1
  6
CONTINUOUS
 62
     3
 10
681.625940
 20
588.189523
 11
687.625940
 21
588.189523
  0
LINE
  8
CSLAYER1
  6
CONTINUOUS
 62
     3
 10
684.625940
 20
591.189523
 11
684.625940
 21
585.189523
  0
LINE
  8
CSLAYER1
  6
CONTINUOUS
 62
     5
 10
684.625940
 20
585.189523
 11
684.625940
 21
576.300812
  0
LINE
  8
CSLAYER1
  6
CONTINUOUS
 62
     7
 10
677.125940
 20
592.985100
 11
677.125940
 21
588.189523
  0
LINE
  8
CSLAYER1
  6
CONTINUOUS
 62
     5
 10
692.125940
 20
588.488241
 11
692.125940
 21
588.189523
  0
LINE
  8
CSLAYER1
  6
CONTINUOUS
 62
     5
 10
684.625940
 20
601.855010
 11
684.625940
 21
591.189523
  0
LINE
  8
CSLAYER1
  6
CONTINUOUS
 62
     3
 10
761.125940
 20
529.189523
 11
760.306268
 21
504.189523
  0
LINE
  8
CSLAYER1
  6
CONTINUOUS
 62
     3
 10
501.125940
 20
529.189523
 11
501.945612
 21
504.189523
  0
LINE
  8
CSLAYER1
  6
CONTINUOUS
 62
     3
 10
759.372042
 20
584.875786
 11
761.125940
 21
529.189523
  0
LINE
  8
CSLAYER1
  6
CONTINUOUS
 62
     3
 10
693.864605
 20
589.980778
 11
756.478932
 21
587.779493
  0
LINE
  8
CSLAYER1
  6
CONTINUOUS
 62
     3
 10
631.125940
 20
597.189523
 11
684.835726
 21
595.686588
  0
ARC
  8
CSLAYER1
  6
CONTINUOUS
 62
     7
 10
674.125940
 20
592.985100
 40
3.000000
 50
0.000000
 51
88.397139
  0
ARC
  8
CSLAYER1
  6
CONTINUOUS
 62
     7
 10
693.625940
 20
588.488241
 40
1.500000
 50
87.986525
 51
180.000000
  0
ARC
  8
CSLAYER1
  6
CONTINUOUS
 62
     3
 10
684.625940
 20
588.189523
 40
7.500000
 50
27.137895
 51
90.000000
  0
ARC
  8
CSLAYER1
  6
CONTINUOUS
 62
     3
 10
693.970009
 20
592.978925
 40
3.000000
 50
207.137895
 51
267.986525
  0
ARC
  8
CSLAYER1
  6
CONTINUOUS
 62
     3
 10
746.672984
 20
575.116202
 40
13.000000
 50
1.803995
 51
87.986525
  0
ARC
  8
CSLAYER1
  6
CONTINUOUS
 62
     3
 10
756.373529
 20
584.781345
 40
3.000000
 50
1.803995
 51
87.986525
  0
ARC
  8
CSLAYER1
  6
CONTINUOUS
 62
     7
 10
588.125940
 20
592.985100
 40
3.000000
 50
91.602861
 51
180.000000
  0
LINE
  8
CSLAYER1
  6
CONTINUOUS
 62
     3
 10
631.125940
 20
597.189523
 11
577.416153
 21
595.686588
  0
ARC
  8
CSLAYER1
  6
CONTINUOUS
 62
     3
 10
577.625940
 20
588.189523
 40
7.500000
 50
90.000000
 51
152.862105
  0
ARC
  8
CSLAYER1
  6
CONTINUOUS
 62
     3
 10
568.281871
 20
592.978925
 40
3.000000
 50
272.013475
 51
332.862105
  0
LINE
  8
CSLAYER1
  6
CONTINUOUS
 62
     3
 10
568.387274
 20
589.980778
 11
505.772947
 21
587.779493
  0
ARC
  8
CSLAYER1
  6
CONTINUOUS
 62
     7
 10
568.625940
 20
588.488241
 40
1.500000
 50
0.000000
 51
92.013475
  0
LINE
  8
CSLAYER1
  6
CONTINUOUS
 62
     7
 10
585.125940
 20
592.985100
 11
585.125940
 21
588.189523
  0
ARC
  8
CSLAYER1
  6
CONTINUOUS
 62
     3
 10
505.878351
 20
584.781345
 40
3.000000
 50
92.013475
 51
178.196005
  0
ARC
  8
CSLAYER1
  6
CONTINUOUS
 62
     3
 10
515.578896
 20
575.116202
 40
13.000000
 50
92.013475
 51
178.196005
  0
LINE
  8
CSLAYER1
  6
CONTINUOUS
 62
     3
 10
502.879838
 20
584.875786
 11
501.125940
 21
529.189523
  0
LINE
  8
CSLAYER1
  6
CONTINUOUS
 62
     3
 10
500.625940
 20
569.889523
 11
502.625940
 21
569.889523
  0
LINE
  8
CSLAYER1
  6
CONTINUOUS
 62
     3
 10
500.625940
 20
588.489523
 11
502.625940
 21
588.489523
  0
LINE
  8
CSLAYER1
  6
CONTINUOUS
 62
     3
 10
502.625940
 20
588.489523
 11
502.625940
 21
569.889523
  0
LINE
  8
CSLAYER1
  6
CONTINUOUS
 62
     3
 10
500.625940
 20
588.489523
 11
500.625940
 21
569.889523
  0
LINE
  8
CSLAYER1
  6
CONTINUOUS
 62
     3
 10
497.125940
 20
584.789523
 11
497.125940
 21
573.589523
  0
LINE
  8
CSLAYER1
  6
CONTINUOUS
 62
     3
 10
497.125940
 20
573.589523
 11
500.625940
 21
573.589523
  0
LINE
  8
CSLAYER1
  6
CONTINUOUS
 62
     3
 10
497.125940
 20
584.789523
 11
500.625940
 21
584.789523
  0
LINE
  8
CSLAYER1
  6
CONTINUOUS
 62
     3
 10
497.125940
 20
582.189523
 11
500.625940
 21
582.189523
  0
LINE
  8
CSLAYER1
  6
CONTINUOUS
 62
     3
 10
497.125940
 20
576.189523
 11
500.625940
 21
576.189523
  0
LINE
  8
CSLAYER1
  6
CONTINUOUS
 62
     5
 10
493.535984
 20
579.189523
 11
511.258195
 21
579.189523
  0
LINE
  8
CSLAYER1
  6
CONTINUOUS
 62
     3
 10
552.125940
 20
596.189523
 11
530.125940
 21
596.189523
  0
LINE
  8
CSLAYER1
  6
CONTINUOUS
 62
     3
 10
530.125940
 20
596.189523
 11
530.125940
 21
591.189523
  0
LINE
  8
CSLAYER1
  6
CONTINUOUS
 62
     3
 10
552.125940
 20
596.189523
 11
552.125940
 21
591.189523
  0
LINE
  8
CSLAYER1
  6
CONTINUOUS
 62
     3
 10
547.125940
 20
596.189523
 11
547.125940
 21
591.189523
  0
LINE
  8
CSLAYER1
  6
CONTINUOUS
 62
     3
 10
535.125940
 20
596.189523
 11
535.125940
 21
591.189523
  0
LINE
  8
CSLAYER1
  6
CONTINUOUS
 62
     3
 10
525.625940
 20
591.189523
 11
525.625940
 21
588.689523
  0
LINE
  8
CSLAYER1
  6
CONTINUOUS
 62
     3
 10
556.625940
 20
591.189523
 11
556.625940
 21
589.567293
  0
LINE
  8
CSLAYER1
  6
CONTINUOUS
 62
     3
 10
556.625940
 20
591.189523
 11
525.625940
 21
591.189523
  0
LINE
  8
CSLAYER1
  6
CONTINUOUS
 62
     5
 10
541.125940
 20
598.789523
 11
541.125940
 21
569.749024
  0
LINE
  8
CSLAYER1
  6
CONTINUOUS
 62
     3
 10
797.125940
 20
504.189523
 11
797.125940
 21
859.689520
  0
LINE
  8
CSLAYER1
  6
CONTINUOUS
 62
     3
 10
806.125940
 20
504.189523
 11
806.125940
 21
859.689520
  0
LINE
  8
CSLAYER1
  6
CONTINUOUS
 62
     3
 10
810.125940
 20
859.689520
 11
810.125940
 21
504.189523
  0
LINE
  8
CSLAYER1
  6
CONTINUOUS
 62
     3
 10
819.125940
 20
859.689520
 11
819.125940
 21
504.189523
  0
LINE
  8
CSLAYER1
  6
CENTER
 62
     5
 10
856.125940
 20
681.922593
 11
406.125940
 21
681.922593
  0
LINE
  8
CSLAYER1
  6
CENTER
 62
     5
 10
856.125940
 20
828.217450
 11
406.125940
 21
828.217450
  0
LINE
  8
CSLAYER1
  6
CENTER
 62
     5
 10
673.625940
 20
759.050168
 11
588.625940
 21
759.050168
  0
LINE
  8
CSLAYER1
  6
CONTINUOUS
 62
     3
 10
465.125940
 20
504.189523
 11
465.125940
 21
859.689520
  0
LINE
  8
CSLAYER1
  6
CONTINUOUS
 62
     3
 10
456.125940
 20
504.189523
 11
456.125940
 21
859.689520
  0
LINE
  8
CSLAYER1
  6
CONTINUOUS
 62
     3
 10
452.125940
 20
859.689520
 11
452.125940
 21
504.189523
  0
LINE
  8
CSLAYER1
  6
CONTINUOUS
 62
     3
 10
443.125940
 20
859.689520
 11
443.125940
 21
504.189523
  0
LINE
  8
CSLAYER1
  6
CONTINUOUS
 62
     3
 10
797.125940
 20
858.467450
 11
465.125940
 21
858.467450
  0
LINE
  8
CSLAYER1
  6
CONTINUOUS
 62
     3
 10
797.125940
 20
797.967450
 11
663.625940
 21
797.967450
  0
LINE
  8
CSLAYER1
  6
CONTINUOUS
 62
     5
 10
782.125940
 20
686.830071
 11
782.125940
 21
677.015116
  0
LINE
  8
CSLAYER1
  6
CONTINUOUS
 62
     5
 10
828.125940
 20
694.922593
 11
828.125940
 21
668.922593
  0
LINE
  8
CSLAYER1
  6
CONTINUOUS
 62
     5
 10
826.964827
 20
696.933700
 11
819.125940
 21
696.933700
  0
LINE
  8
CSLAYER1
  6
CONTINUOUS
 62
     5
 10
828.125940
 20
689.428147
 11
819.125940
 21
689.428147
  0
LINE
  8
CSLAYER1
  6
CONTINUOUS
 62
     5
 10
828.125940
 20
674.417040
 11
819.125940
 21
674.417040
  0
LINE
  8
CSLAYER1
  6
CONTINUOUS
 62
     5
 10
826.964827
 20
666.911486
 11
819.125940
 21
666.911486
  0
LINE
  8
CSLAYER1
  6
CONTINUOUS
 62
     5
 10
826.964827
 20
666.911486
 11
828.125940
 21
668.922593
  0
LINE
  8
CSLAYER1
  6
CONTINUOUS
 62
     5
 10
826.964827
 20
696.933700
 11
828.125940
 21
694.922593
  0
LINE
  8
CSLAYER1
  6
CONTINUOUS
 62
     5
 10
806.125940
 20
695.922593
 11
810.125940
 21
695.922593
  0
LINE
  8
CSLAYER1
  6
CONTINUOUS
 62
     5
 10
806.125940
 20
667.922593
 11
810.125940
 21
667.922593
  0
LINE
  8
CSLAYER1
  6
CONTINUOUS
 62
     5
 10
795.125940
 20
690.922593
 11
795.125940
 21
672.922593
  0
LINE
  8
CSLAYER1
  6
CONTINUOUS
 62
     5
 10
792.625940
 20
691.737548
 11
792.625940
 21
672.107639
  0
LINE
  8
CSLAYER1
  6
CONTINUOUS
 62
     5
 10
792.625940
 20
690.922593
 11
797.125940
 21
690.922593
  0
LINE
  8
CSLAYER1
  6
CONTINUOUS
 62
     5
 10
792.625940
 20
672.922593
 11
797.125940
 21
672.922593
  0
LINE
  8
CSLAYER1
  6
CONTINUOUS
 62
     5
 10
792.625940
 20
691.737548
 11
785.385129
 21
691.737548
  0
LINE
  8
CSLAYER1
  6
CONTINUOUS
 62
     5
 10
782.125940
 20
686.830071
 11
792.625940
 21
686.830071
  0
LINE
  8
CSLAYER1
  6
CONTINUOUS
 62
     5
 10
782.125940
 20
677.015116
 11
792.625940
 21
677.015116
  0
LINE
  8
CSLAYER1
  6
CONTINUOUS
 62
     5
 10
785.385129
 20
672.107639
 11
792.625940
 21
672.107639
  0
LINE
  8
CSLAYER1
  6
CONTINUOUS
 62
     5
 10
785.385129
 20
672.107639
 11
784.625940
 21
673.422593
  0
LINE
  8
CSLAYER1
  6
CONTINUOUS
 62
     5
 10
785.385129
 20
691.737548
 11
784.625940
 21
690.422593
  0
LINE
  8
CSLAYER1
  6
CONTINUOUS
 62
     5
 10
784.625940
 20
690.422593
 11
784.625940
 21
673.422593
  0
LINE
  8
CSLAYER1
  6
CONTINUOUS
 62
     5
 10
480.125940
 20
686.830071
 11
480.125940
 21
677.015116
  0
LINE
  8
CSLAYER1
  6
CONTINUOUS
 62
     5
 10
434.125940
 20
694.922593
 11
434.125940
 21
668.922593
  0
LINE
  8
CSLAYER1
  6
CONTINUOUS
 62
     5
 10
435.287053
 20
696.933700
 11
443.125940
 21
696.933700
  0
LINE
  8
CSLAYER1
  6
CONTINUOUS
 62
     5
 10
434.125940
 20
689.428147
 11
443.125940
 21
689.428147
  0
LINE
  8
CSLAYER1
  6
CONTINUOUS
 62
     5
 10
434.125940
 20
674.417040
 11
443.125940
 21
674.417040
  0
LINE
  8
CSLAYER1
  6
CONTINUOUS
 62
     5
 10
435.287053
 20
666.911486
 11
443.125940
 21
666.911486
  0
LINE
  8
CSLAYER1
  6
CONTINUOUS
 62
     5
 10
435.287053
 20
666.911486
 11
434.125940
 21
668.922593
  0
LINE
  8
CSLAYER1
  6
CONTINUOUS
 62
     5
 10
435.287053
 20
696.933700
 11
434.125940
 21
694.922593
  0
LINE
  8
CSLAYER1
  6
CONTINUOUS
 62
     5
 10
456.125940
 20
695.922593
 11
452.125940
 21
695.922593
  0
LINE
  8
CSLAYER1
  6
CONTINUOUS
 62
     5
 10
456.125940
 20
667.922593
 11
452.125940
 21
667.922593
  0
LINE
  8
CSLAYER1
  6
CONTINUOUS
 62
     5
 10
467.125940
 20
690.922593
 11
467.125940
 21
672.922593
  0
LINE
  8
CSLAYER1
  6
CONTINUOUS
 62
     5
 10
469.625940
 20
691.737548
 11
469.625940
 21
672.107639
  0
LINE
  8
CSLAYER1
  6
CONTINUOUS
 62
     5
 10
469.625940
 20
690.922593
 11
465.125940
 21
690.922593
  0
LINE
  8
CSLAYER1
  6
CONTINUOUS
 62
     5
 10
469.625940
 20
672.922593
 11
465.125940
 21
672.922593
  0
LINE
  8
CSLAYER1
  6
CONTINUOUS
 62
     5
 10
469.625940
 20
691.737548
 11
476.866750
 21
691.737548
  0
LINE
  8
CSLAYER1
  6
CONTINUOUS
 62
     5
 10
480.125940
 20
686.830071
 11
469.625940
 21
686.830071
  0
LINE
  8
CSLAYER1
  6
CONTINUOUS
 62
     5
 10
480.125940
 20
677.015116
 11
469.625940
 21
677.015116
  0
LINE
  8
CSLAYER1
  6
CONTINUOUS
 62
     5
 10
476.866750
 20
672.107639
 11
469.625940
 21
672.107639
  0
LINE
  8
CSLAYER1
  6
CONTINUOUS
 62
     5
 10
476.866750
 20
672.107639
 11
477.625940
 21
673.422593
  0
LINE
  8
CSLAYER1
  6
CONTINUOUS
 62
     5
 10
476.866750
 20
691.737548
 11
477.625940
 21
690.422593
  0
LINE
  8
CSLAYER1
  6
CONTINUOUS
 62
     5
 10
477.625940
 20
690.422593
 11
477.625940
 21
673.422593
  0
LINE
  8
CSLAYER1
  6
CENTER
 62
     5
 10
856.125940
 20
884.741782
 11
406.125940
 21
884.741782
  0
LINE
  8
CSLAYER1
  6
CONTINUOUS
 62
     3
 10
1954.932032
 20
1465.127389
 11
1354.932032
 21
1465.127389
  0
LINE
  8
CSLAYER1
  6
CONTINUOUS
 62
     3
 10
1354.932032
 20
1465.127389
 11
1354.932032
 21
1915.127389
  0
LINE
  8
CSLAYER1
  6
CONTINUOUS
 62
     3
 10
1954.932032
 20
1465.127389
 11
1954.932032
 21
1915.127389
  0
LINE
  8
CSLAYER1
  6
CONTINUOUS
 62
     3
 10
1954.932032
 20
1915.127389
 11
1354.932032
 21
1915.127389
  0
LINE
  8
CSLAYER1
  6
CONTINUOUS
 62
     3
 10
797.125940
 20
547.434700
 11
760.551288
 21
547.434700
  0
LINE
  8
CSLAYER1
  6
CENTER
 62
     5
 10
856.125940
 20
517.184700
 11
406.125940
 21
517.184700
  0
LINE
  8
CSLAYER1
  6
CONTINUOUS
 62
     3
 10
501.700591
 20
547.434700
 11
465.125940
 21
547.434700
  0
LINE
  8
CSLAYER1
  6
CONTINUOUS
 62
     3
 10
607.625940
 20
852.234210
 11
607.625940
 21
742.050168
  0
LINE
  8
CSLAYER1
  6
CONTINUOUS
 62
     3
 10
607.625940
 20
742.050168
 11
598.625940
 21
742.050168
  0
LINE
  8
CSLAYER1
  6
CONTINUOUS
 62
     3
 10
598.625940
 20
742.050168
 11
598.625940
 21
852.234210
  0
LINE
  8
CSLAYER1
  6
CONTINUOUS
 62
     3
 10
598.625940
 20
852.234210
 11
607.625940
 21
852.234210
  0
LINE
  8
CSLAYER1
  6
CONTINUOUS
 62
     3
 10
598.625940
 20
797.967450
 11
465.125940
 21
797.967450
  0
LINE
  8
CSLAYER1
  6
CONTINUOUS
 62
     3
 10
654.625940
 20
852.234210
 11
654.625940
 21
742.050168
  0
LINE
  8
CSLAYER1
  6
CONTINUOUS
 62
     3
 10
654.625940
 20
742.050168
 11
663.625940
 21
742.050168
  0
LINE
  8
CSLAYER1
  6
CONTINUOUS
 62
     3
 10
663.625940
 20
742.050168
 11
663.625940
 21
852.234210
  0
LINE
  8
CSLAYER1
  6
CONTINUOUS
 62
     3
 10
663.625940
 20
852.234210
 11
654.625940
 21
852.234210
  0
LINE
  8
CSLAYER1
  6
CONTINUOUS
 62
     3
 10
654.625940
 20
797.967450
 11
607.625940
 21
797.967450
  0
LINE
  8
CSLAYER1
  6
CONTINUOUS
 62
     3
 10
608.625940
 20
772.650168
 11
608.625940
 21
745.450168
  0
LINE
  8
CSLAYER1
  6
CONTINUOUS
 62
     3
 10
608.625940
 20
745.450168
 11
653.625940
 21
745.450168
  0
LINE
  8
CSLAYER1
  6
CONTINUOUS
 62
     3
 10
653.625940
 20
745.450168
 11
653.625940
 21
772.650168
  0
LINE
  8
CSLAYER1
  6
CONTINUOUS
 62
     3
 10
653.625940
 20
772.650168
 11
608.625940
 21
772.650168
  0
LINE
  8
CSLAYER1
  6
CONTINUOUS
 62
     3
 10
612.125940
 20
745.450168
 11
612.125940
 21
741.725218
  0
LINE
  8
CSLAYER1
  6
CONTINUOUS
 62
     3
 10
650.125940
 20
745.450168
 11
650.125940
 21
741.725218
  0
ARC
  8
CSLAYER1
  6
CONTINUOUS
 62
     3
 10
631.125940
 20
762.901668
 40
24.757802
 50
224.820570
 51
315.179430
  0
ARC
  8
CSLAYER1
  6
CONTINUOUS
 62
     3
 10
631.125940
 20
757.598112
 40
24.757802
 50
219.875905
 51
320.124095
  0
LINE
  8
CSLAYER1
  6
CONTINUOUS
 62
     3
 10
609.775940
 20
741.725218
 11
609.775940
 21
667.475430
  0
LINE
  8
CSLAYER1
  6
CONTINUOUS
 62
     3
 10
652.475940
 20
741.725218
 11
652.475940
 21
667.475430
  0
ARC
  8
CSLAYER1
  6
CONTINUOUS
 62
     3
 10
631.125940
 20
723.889097
 40
27.819952
 50
39.875905
 51
46.924375
  0
ARC
  8
CSLAYER1
  6
CONTINUOUS
 62
     3
 10
631.125940
 20
759.561339
 40
27.819952
 50
219.875905
 51
320.124095
  0
ARC
  8
CSLAYER1
  6
CONTINUOUS
 62
     3
 10
631.125940
 20
685.311551
 40
27.819952
 50
219.875905
 51
320.124095
  0
ARC
  8
CSLAYER1
  6
CONTINUOUS
 62
     3
 10
631.125940
 20
723.889097
 40
27.819952
 50
133.075625
 51
140.124095
  0
ARC
  8
CSLAYER1
  6
CONTINUOUS
 62
     3
 10
631.125940
 20
646.590043
 40
32.576056
 50
39.875905
 51
49.050821
  0
ARC
  8
CSLAYER1
  6
CONTINUOUS
 62
     3
 10
631.125940
 20
688.360818
 40
32.576056
 50
219.875905
 51
320.124095
  0
ARC
  8
CSLAYER1
  6
CONTINUOUS
 62
     3
 10
631.125940
 20
648.173742
 40
32.314470
 50
219.317454
 51
320.682546
  0
ARC
  8
CSLAYER1
  6
CONTINUOUS
 62
     3
 10
631.125940
 20
646.590043
 40
32.576056
 50
130.949179
 51
140.124095
  0
LINE
  8
CSLAYER1
  6
CONTINUOUS
 62
     3
 10
656.125940
 20
667.475430
 11
656.125940
 21
627.698759
  0
LINE
  8
CSLAYER1
  6
CONTINUOUS
 62
     3
 10
606.125940
 20
667.475430
 11
606.125940
 21
627.698759
  0
ARC
  8
CSLAYER1
  6
CONTINUOUS
 62
     3
 10
631.125940
 20
639.987439
 40
26.060845
 50
224.307345
 51
315.692655
  0
LINE
  8
CSLAYER1
  6
CONTINUOUS
 62
     3
 10
616.125940
 20
618.676230
 11
616.125940
 21
597.189523
  0
LINE
  8
CSLAYER1
  6
CONTINUOUS
 62
     3
 10
646.125940
 20
618.676230
 11
646.125940
 21
597.189523
  0
LINE
  8
CSLAYER1
  6
CONTINUOUS
 62
     4
 10
1433.975116
 20
504.189523
 11
1570.933103
 21
636.700659
  0
LINE
  8
CSLAYER1
  6
CONTINUOUS
 62
     4
 10
1375.628557
 20
504.189523
 11
1389.145501
 21
551.498738
  0
LINE
  8
CSLAYER1
  6
CONTINUOUS
 62
     4
 10
1389.050968
 20
551.167872
 11
1524.193597
 21
681.922593
  0
LINE
  8
CSLAYER1
  6
CONTINUOUS
 62
     4
 10
1752.815239
 20
812.677314
 11
1767.675898
 21
864.689520
  0
POINT
  8
CSLAYER1
 62
     4
 10
1588.719328
 20
759.050168
  0
ARC
  8
CSLAYER1
  6
CONTINUOUS
 62
     6
 10
1588.719328
 20
759.050168
 40
17.000000
 50
127.421481
 51
261.010455
  0
LINE
  8
CSLAYER1
  6
CONTINUOUS
 62
     6
 10
1681.721848
 20
851.616770
 11
1578.388876
 21
772.551344
  0
ARC
  8
CSLAYER1
  6
CONTINUOUS
 62
     6
 10
1710.439857
 20
828.217450
 40
30.250000
 50
97.712629
 51
170.396522
  0
ARC
  8
CSLAYER1
  6
CONTINUOUS
 62
     4
 10
1710.439857
 20
828.217450
 40
31.000000
 50
138.426322
 51
172.240677
  0
ARC
  8
CSLAYER1
  6
CONTINUOUS
 62
     6
 10
1683.544869
 20
849.234210
 40
3.000000
 50
29.607259
 51
127.421481
  0
LINE
  8
CSLAYER1
  6
CONTINUOUS
 62
     6
 10
1686.153166
 20
850.716366
 11
1687.248663
 21
848.788511
  0
POINT
  8
CSLAYER1
 62
     4
 10
1710.439857
 20
828.217450
  0
CIRCLE
  8
CSLAYER1
  6
CONTINUOUS
 62
     1
 10
1570.933103
 20
681.922593
 40
7.500000
  0
LINE
  8
CSLAYER1
  6
CONTINUOUS
 62
     7
 10
1752.815239
 20
551.167872
 11
1766.237650
 21
504.189523
  0
ARC
  8
CSLAYER1
  6
CONTINUOUS
 62
     6
 10
1715.072071
 20
520.213352
 40
17.000000
 50
212.144487
 51
239.746361
  0
POINT
  8
CSLAYER1
 62
     4
 10
1715.072071
 20
520.213352
  0
POINT
  8
CSLAYER1
 62
     4
 10
1774.995582
 20
517.184700
  0
LINE
  8
CSLAYER1
  6
CONTINUOUS
 62
     7
 10
1389.050968
 20
812.677314
 11
1707.891091
 21
504.189523
  0
LINE
  8
CSLAYER1
  6
CONTINUOUS
 62
     7
 10
1428.772332
 20
864.689520
 11
1752.815239
 21
551.167872
  0
LINE
  8
CSLAYER1
  6
CONTINUOUS
 62
     7
 10
1374.190309
 20
864.689520
 11
1389.145501
 21
812.346448
  0
CIRCLE
  8
CSLAYER1
  6
CONTINUOUS
 62
     5
 10
1570.933103
 20
681.922593
 40
10.000000
  0
ARC
  8
CSLAYER1
  6
CONTINUOUS
 62
     7
 10
1774.995582
 20
517.184700
 40
30.250000
 50
65.247758
 51
104.057973
  0
LINE
  8
CSLAYER2
  6
CONTINUOUS
 62
     3
 10
1656.037278
 20
677.459261
 11
1641.486649
 21
704.963421
  0
LINE
  8
CSLAYER2
  6
CONTINUOUS
 62
     3
 10
1680.385541
 20
639.240609
 11
1659.263608
 21
679.166099
  0
LINE
  8
CSLAYER2
  6
CONTINUOUS
 62
     3
 10
1680.306811
 20
639.389427
 11
1668.234244
 21
633.002631
  0
LINE
  8
CSLAYER2
  6
CONTINUOUS
 62
     3
 10
1678.225315
 20
632.631663
 11
1672.013954
 21
629.345643
  0
LINE
  8
CSLAYER2
  6
CONTINUOUS
 62
     3
 10
1676.711743
 20
624.800385
 11
1673.805684
 21
630.293529
  0
LINE
  8
CSLAYER1
  6
CONTINUOUS
 62
     3
 10
1680.306811
 20
639.389427
 11
1678.225315
 21
632.631663
  0
LINE
  8
CSLAYER1
  6
CONTINUOUS
 62
     3
 10
1579.644494
 20
735.573071
 11
1578.284457
 21
738.143866
  0
LINE
  8
CSLAYER1
  6
CONTINUOUS
 62
     3
 10
1587.148074
 20
742.833019
 11
1578.284457
 21
738.143866
  0
LINE
  8
CSLAYER2
  6
CONTINUOUS
 62
     3
 10
1659.263608
 20
679.166099
 11
1634.216854
 21
665.915520
  0
LINE
  8
CSLAYER1
  6
CONTINUOUS
 62
     3
 10
1955.125940
 20
454.189523
 11
1955.125940
 21
504.189523
  0
LINE
  8
CSLAYER1
  6
CONTINUOUS
 62
     3
 10
1955.125940
 20
504.189523
 11
1356.125940
 21
504.189523
  0
LINE
  8
CSLAYER1
  6
CONTINUOUS
 62
     3
 10
1356.125940
 20
504.189523
 11
1356.125940
 21
454.189523
  0
POINT
  8
CSLAYER1
 62
     5
 10
1385.125940
 20
479.189523
  0
POINT
  8
CSLAYER1
 62
     5
 10
1756.740267
 20
479.189523
  0
LINE
  8
CSLAYER1
  6
CONTINUOUS
 62
     4
 10
1617.672610
 20
681.922593
 11
1752.815239
 21
812.677314
  0
LINE
  8
CSLAYER1
  6
CONTINUOUS
 62
     4
 10
1570.933103
 20
727.144527
 11
1713.093875
 21
864.689520
  0
CIRCLE
  8
CSLAYER1
  6
CONTINUOUS
 62
     6
 10
1588.719328
 20
759.050168
 40
8.100000
  0
TEXT
  8
CSLAYER1
 62
     3
 10
537.702637
 20
1782.382813
 40
50.000000
 41
1.020000
  1
ＵＰ・ＤＯＷＮ
 50
0.000000
 51
0.000000
  7
EASYDRAW_FONT
 72
     5
 11
877.702637
 21
1782.382813
  0
TEXT
  8
CSLAYER1
 62
     3
 10
538.447449
 20
1853.884277
 40
50.000000
 41
1.020000
  1
フットスイッチ
 50
0.000000
 51
0.000000
  7
EASYDRAW_FONT
 72
     5
 11
878.447449
 21
1853.884277
  0
LINE
  8
CSLAYER1
  6
CONTINUOUS
 62
     3
 10
1207.932515
 20
1570.127389
 11
934.932032
 21
1570.127389
  0
LINE
  8
CSLAYER1
  6
CONTINUOUS
 62
     3
 10
1208.465152
 20
1563.127389
 11
934.932032
 21
1563.127389
  0
ARC
  8
CSLAYER1
  6
CONTINUOUS
 62
     3
 10
1201.627755
 20
1609.627389
 40
40.000000
 50
-80.931278
 51
243.817766
  0
ARC
  8
CSLAYER1
  6
CONTINUOUS
 62
     3
 10
1201.627755
 20
1609.627389
 40
47.000000
 50
-81.635125
 51
229.860785
  0
LINE
  8
CSLAYER1
  6
CONTINUOUS
 62
     3
 10
1354.932032
 20
1570.127389
 11
1231.619372
 21
1570.127389
  0
LINE
  8
CSLAYER1
  6
CONTINUOUS
 62
     3
 10
1354.932032
 20
1563.127389
 11
1220.912480
 21
1563.127389
  0
LINE
  8
CSLAYER1
  6
CONTINUOUS
 62
     3
 10
1354.932032
 20
1541.127389
 11
1176.034844
 21
1541.127389
  0
LINE
  8
CSLAYER1
  6
CONTINUOUS
 62
     3
 10
1354.932032
 20
1548.127389
 11
1166.153054
 21
1548.127389
  0
TEXT
  8
CSLAYER1
 62
     3
 10
459.485901
 20
1456.886597
 40
50.000000
 41
1.028571
  1
電源コード
 50
0.000000
 51
0.000000
  7
EASYDRAW_FONT
 72
     5
 11
699.485901
 21
1456.886597
  0
TEXT
  8
CSLAYER1
 62
     3
 10
476.546448
 20
1386.754761
 40
50.000000
 41
1.036364
  1
長サ４ｍ
 50
0.000000
 51
0.000000
  7
EASYDRAW_FONT
 72
     5
 11
666.546448
 21
1386.754761
  0
LINE
  8
CSLAYER1
  6
CONTINUOUS
 62
     5
 10
718.547553
 20
1445.555879
 11
913.873241
 21
1393.218519
  0
LINE
  8
CSLAYER1
  6
CONTINUOUS
 62
     5
 10
913.873241
 20
1393.218519
 11
883.873241
 21
1393.218519
  0
LINE
  8
CSLAYER1
  6
CONTINUOUS
 62
     5
 10
913.873241
 20
1393.218519
 11
887.892479
 21
1408.218519
  0
LINE
  8
CSLAYER1
  6
CONTINUOUS
 62
     5
 10
521.500786
 20
1843.246340
 11
925.076015
 21
1843.246340
  0
LINE
  8
CSLAYER1
  6
CONTINUOUS
 62
     5
 10
441.869399
 20
1445.555879
 11
718.547553
 21
1445.555879
  0
LINE
  8
CSLAYER1
  6
CONTINUOUS
 62
     3
 10
929.534527
 20
1394.515149
 11
924.463899
 21
1392.605432
  0
LINE
  8
CSLAYER1
  6
CONTINUOUS
 62
     3
 10
924.463899
 20
1392.605432
 11
918.039267
 21
1392.426970
  0
LINE
  8
CSLAYER1
  6
CONTINUOUS
 62
     3
 10
930.588857
 20
1393.126047
 11
924.939798
 21
1390.761325
  0
LINE
  8
CSLAYER1
  6
CONTINUOUS
 62
     3
 10
924.939798
 20
1390.761325
 11
919.585938
 21
1389.452604
  0
LINE
  8
CSLAYER1
  6
CONTINUOUS
 62
     3
 10
931.431052
 20
1392.016438
 11
926.545956
 21
1389.155167
  0
LINE
  8
CSLAYER1
  6
CONTINUOUS
 62
     3
 10
926.545956
 20
1389.155167
 11
924.225950
 21
1385.823876
  0
ARC
  8
CSLAYER1
  6
CONTINUOUS
 62
     3
 10
1144.499904
 20
1501.127389
 40
47.000000
 50
-190.756396
 51
127.198537
  0
ARC
  8
CSLAYER1
  6
CONTINUOUS
 62
     3
 10
1144.499904
 20
1501.127389
 40
40.000000
 50
-203.471057
 51
127.198537
  0
LINE
  8
CSLAYER1
  6
CONTINUOUS
 62
     3
 10
928.350774
 20
1396.074770
 11
1116.084702
 21
1538.565020
  0
LINE
  8
CSLAYER1
  6
CONTINUOUS
 62
     3
 10
932.582825
 20
1390.498952
 11
1120.316753
 21
1532.989203
  0
LINE
  8
CSLAYER1
  6
CONTINUOUS
 62
     3
 10
928.350774
 20
1396.074770
 11
932.582825
 21
1390.498952
  0
LINE
  8
CSLAYER1
  6
CONTINUOUS
 62
     5
 10
881.897006
 20
1639.127389
 11
924.869085
 21
1842.268124
  0
LINE
  8
CSLAYER1
  6
CONTINUOUS
 62
     5
 10
881.897006
 20
1639.127389
 11
880.297740
 21
1669.084731
  0
LINE
  8
CSLAYER1
  6
CONTINUOUS
 62
     5
 10
881.897006
 20
1639.127389
 11
895.490672
 21
1665.870841
  0
LINE
  8
CSLAYER1
  6
CENTER
 62
     5
 10
1981.609173
 20
1690.127389
 11
1325.850037
 21
1690.127389
  0
LINE
  8
CSLAYER1
  6
CONTINUOUS
 62
     5
 10
986.275321
 20
731.564605
 11
1304.161328
 21
731.564605
  0
TEXT
  8
CSLAYER1
 62
     3
 10
990.327148
 20
753.673462
 40
50.000000
 41
1.111765
  1
油圧ユニット
 50
0.000000
 51
0.000000
  7
EASYDRAW_FONT
 72
     5
 11
1305.327148
 21
753.673462
  0
LINE
  8
CSLAYER1
  6
CONTINUOUS
 62
     5
 10
1304.161328
 20
731.564605
 11
1368.065531
 21
595.302801
  0
LINE
  8
CSLAYER1
  6
CONTINUOUS
 62
     5
 10
1368.065531
 20
595.302801
 11
1348.731536
 21
618.241778
  0
LINE
  8
CSLAYER1
  6
CONTINUOUS
 62
     5
 10
1368.065531
 20
595.302801
 11
1362.791288
 21
624.835535
  0
DIMENSION
  8
CSLAYER1
 62
     3
  2
*D0000
 10
2104.932032
 20
1915.127389
 11
2094.932129
 21
1690.127441
 13
1954.932032
 23
1465.127389
 14
1954.932032
 24
1915.127389
 50
90.000000
 70
1
  0
LINE
  8
CSLAYER1
  6
PHANTOM
 62
     5
 10
1955.125940
 20
609.189523
 11
1355.125940
 21
609.189523
  0
LINE
  8
CSLAYER1
  6
PHANTOM
 62
     5
 10
1355.125940
 20
564.189523
 11
1955.125940
 21
564.189523
  0
LINE
  8
CSLAYER1
  6
PHANTOM
 62
     5
 10
1955.125940
 20
609.189523
 11
1955.125940
 21
564.189523
  0
LINE
  8
CSLAYER1
  6
PHANTOM
 62
     5
 10
1355.125940
 20
609.189523
 11
1355.125940
 21
564.189523
  0
DIMENSION
  8
CSLAYER1
 62
     3
  2
*D0001
 10
2105.125940
 20
609.189523
 11
2095.125977
 21
531.689514
 13
2265.125940
 23
454.189523
 14
1955.125940
 24
609.189523
 50
90.000000
  0
DIMENSION
  8
CSLAYER1
 62
     3
  2
*D0002
 10
2105.125940
 20
909.689520
 11
2095.125977
 21
759.439514
 13
1925.125940
 23
609.189523
 14
1925.125940
 24
909.689520
 50
90.000000
 70
1
  0
DIMENSION
  8
CSLAYER1
 62
     3
  2
*D0003
 10
2265.125940
 20
454.189523
 11
2255.125977
 21
681.939514
 13
2265.125940
 23
909.689520
 14
2265.125940
 24
454.189523
 50
90.000000
 70
1
  0
DIMENSION
  8
CSLAYER1
 62
     3
  2
*D0004
 10
1954.895097
 20
1059.689520
 11
1654.895020
 21
1069.689575
 13
1354.895097
 23
909.689520
 14
1954.895097
 24
909.689520
 70
1
  0
DIMENSION
  8
CSLAYER1
 62
     3
  2
*D0005
 10
1955.125940
 20
304.189523
 11
1655.625854
 21
314.189514
 13
1356.125940
 23
454.189523
 14
1955.125940
 24
454.189523
 52
270.000000
 70
1
  0
DIMENSION
  8
CSLAYER1
 62
     3
  2
*D0006
 10
856.125940
 20
304.189523
 11
631.125916
 21
314.189514
 13
406.125940
 23
454.189523
 14
856.125940
 24
454.189523
 52
270.000000
 70
1
  0
TEXT
  8
CSLAYER1
 62
     3
 10
2384.381348
 20
479.079407
 40
50.000000
 41
1.125000
  1
F.L
 50
0.000000
 51
0.000000
  7
EASYDRAW_FONT
 72
     5
 11
2534.381348
 21
479.079407
  0
LINE
  8
CSLAYER1
  6
CONTINUOUS
 62
     5
 10
3354.260236
 20
2191.054554
 11
2633.387719
 21
2191.054554
  0
LINE
  8
CSLAYER1
  6
CONTINUOUS
 62
     5
 10
3354.260236
 20
2127.054556
 11
2633.387719
 21
2127.054556
  0
LINE
  8
CSLAYER1
  6
CONTINUOUS
 62
     5
 10
3354.260236
 20
2063.054557
 11
2633.387719
 21
2063.054557
  0
LINE
  8
CSLAYER1
  6
CONTINUOUS
 62
     5
 10
3354.260236
 20
1999.054559
 11
2634.260254
 21
1999.054559
  0
LINE
  8
CSLAYER1
  6
CONTINUOUS
 62
     5
 10
3354.260236
 20
1935.054561
 11
2633.387719
 21
1935.054561
  0
LINE
  8
CSLAYER1
  6
CONTINUOUS
 62
     5
 10
3354.260236
 20
1871.054562
 11
2633.387719
 21
1871.054562
  0
LINE
  8
CSLAYER1
  6
CONTINUOUS
 62
     5
 10
3354.260236
 20
1807.054564
 11
2633.387719
 21
1807.054564
  0
LINE
  8
CSLAYER1
  6
CONTINUOUS
 62
     5
 10
3354.260236
 20
1743.054565
 11
2633.387719
 21
1743.054565
  0
LINE
  8
CSLAYER1
  6
CONTINUOUS
 62
     5
 10
3354.260236
 20
1679.054567
 11
2633.387719
 21
1679.054567
  0
LINE
  8
CSLAYER1
  6
CONTINUOUS
 62
     5
 10
3354.260236
 20
1615.054569
 11
2633.387719
 21
1615.054569
  0
LINE
  8
CSLAYER1
  6
CONTINUOUS
 62
     5
 10
3354.260236
 20
1551.054570
 11
2633.387719
 21
1551.054570
  0
TEXT
  8
CSLAYER1
 62
     3
 10
2829.111572
 20
2270.873535
 40
40.000000
 41
0.857143
  1
仕   様
 50
0.000000
 51
0.000000
  7
EASYDRAW_FONT
 72
     5
 11
2989.111572
 21
2270.873535
  0
TEXT
  8
CSLAYER1
 62
     3
 10
2644.146973
 20
2199.277588
 40
40.000000
 41
0.847059
  1
型    式
 50
0.000000
 51
0.000000
  7
EASYDRAW_FONT
 72
     5
 11
2836.146973
 21
2199.277588
  0
TEXT
  8
CSLAYER1
 62
     3
 10
2642.327393
 20
2076.787598
 40
40.000000
 41
0.847059
  1
テーブル寸法
 50
0.000000
 51
0.000000
  7
EASYDRAW_FONT
 72
     5
 11
2834.327393
 21
2076.787598
  0
TEXT
  8
CSLAYER1
 62
     3
 10
2644.146973
 20
2013.723633
 40
40.000000
 41
0.847059
  1
テーブル高サ
 50
0.000000
 51
0.000000
  7
EASYDRAW_FONT
 72
     5
 11
2836.146973
 21
2013.723633
  0
TEXT
  8
CSLAYER1
 62
     3
 10
2645.593994
 20
1948.840820
 40
40.000000
 41
0.857143
  1
ストローク
 50
0.000000
 51
0.000000
  7
EASYDRAW_FONT
 72
     5
 11
2805.593994
 21
1948.840820
  0
TEXT
  8
CSLAYER1
 62
     3
 10
2644.987549
 20
1883.958008
 40
40.000000
 41
0.857143
  1
全   長
 50
0.000000
 51
0.000000
  7
EASYDRAW_FONT
 72
     5
 11
2804.987549
 21
1883.958008
  0
TEXT
  8
CSLAYER1
 62
     3
 10
2647.258789
 20
1818.107178
 40
40.000000
 41
0.857143
  1
全   巾
 50
0.000000
 51
0.000000
  7
EASYDRAW_FONT
 72
     5
 11
2807.258789
 21
1818.107178
  0
TEXT
  8
CSLAYER1
 62
     3
 10
2645.700928
 20
1754.222046
 40
40.000000
 41
0.857143
  1
全   高
 50
0.000000
 51
0.000000
  7
EASYDRAW_FONT
 72
     5
 11
2805.700928
 21
1754.222046
  0
TEXT
  8
CSLAYER1
 62
     3
 10
2645.700928
 20
1691.895508
 40
40.000000
 41
0.857143
  1
リフト方式
 50
0.000000
 51
0.000000
  7
EASYDRAW_FONT
 72
     5
 11
2805.700928
 21
1691.895508
  0
TEXT
  8
CSLAYER1
 62
     3
 10
2644.560791
 20
1561.007935
 40
40.000000
 41
0.872727
  1
モーター
 50
0.000000
 51
0.000000
  7
EASYDRAW_FONT
 72
     5
 11
2772.560791
 21
1561.007935
  0
LINE
  8
CSLAYER1
  6
CONTINUOUS
 62
     5
 10
3354.260236
 20
1487.054572
 11
2633.387719
 21
1487.054572
  0
LINE
  8
CSLAYER1
  6
CONTINUOUS
 62
     5
 10
3354.260236
 20
1359.054575
 11
2631.249217
 21
1359.054575
  0
LINE
  8
CSLAYER1
  6
CONTINUOUS
 62
     5
 10
3354.260236
 20
1295.054577
 11
2633.387719
 21
1295.054577
  0
LINE
  8
CSLAYER1
  6
CONTINUOUS
 62
     5
 10
3354.260236
 20
1231.054578
 11
2633.387719
 21
1231.054578
  0
LINE
  8
CSLAYER1
  6
CONTINUOUS
 62
     5
 10
3354.260236
 20
1167.054580
 11
2633.387719
 21
1167.054580
  0
TEXT
  8
CSLAYER1
 62
     3
 10
2647.142090
 20
1242.176392
 40
40.000000
 41
0.857143
  1
自  　重
 50
0.000000
 51
0.000000
  7
EASYDRAW_FONT
 72
     5
 11
2807.142090
 21
1242.176392
  0
TEXT
  8
CSLAYER1
 62
     3
 10
2638.461426
 20
1178.837036
 40
40.000000
 41
0.825000
  1
塗装色（マンセル値） 
 50
0.000000
 51
0.000000
  7
EASYDRAW_FONT
 72
     5
 11
2990.461426
 21
1178.837036
  0
TEXT
  8
CSLAYER1
 62
     3
 10
3125.813721
 20
2135.393555
 40
40.000000
 41
0.900000
  1
300
 50
0.000000
 51
0.000000
  7
EASYDRAW_FONT
 72
     5
 11
3221.813721
 21
2135.393555
  0
TEXT
  8
CSLAYER1
 62
     3
 10
3283.726074
 20
2134.112793
 40
40.000000
 41
0.960000
  1
Ｋｇ
 50
0.000000
 51
0.000000
  7
EASYDRAW_FONT
 72
     5
 11
3347.726074
 21
2134.112793
  0
TEXT
  8
CSLAYER1
 62
     3
 10
2966.627197
 20
2071.797119
 40
40.000000
 41
0.834783
  1
600 ×450
 50
0.000000
 51
0.000000
  7
EASYDRAW_FONT
 72
     5
 11
3222.627197
 21
2071.797119
  0
TEXT
  8
CSLAYER1
 62
     3
 10
3225.921631
 20
2083.620605
 40
40.000000
 41
1.200000
  1
Ｗ
 50
0.000000
 51
0.000000
  7
EASYDRAW_FONT
 72
     5
 11
3257.921631
 21
2083.620605
  0
TEXT
  8
CSLAYER1
 62
     3
 10
3059.505127
 20
2089.784180
 40
40.000000
 41
1.200000
  1
Ｌ
 50
0.000000
 51
0.000000
  7
EASYDRAW_FONT
 72
     5
 11
3091.505127
 21
2089.784180
  0
TEXT
  8
CSLAYER1
 62
     3
 10
2997.161133
 20
2010.749023
 40
40.000000
 41
0.840000
  1
155～435
 50
0.000000
 51
0.000000
  7
EASYDRAW_FONT
 72
     5
 11
3221.161133
 21
2010.749023
  0
TEXT
  8
CSLAYER1
 62
     3
 10
3127.749268
 20
1946.779907
 40
40.000000
 41
0.900000
  1
280
 50
0.000000
 51
0.000000
  7
EASYDRAW_FONT
 72
     5
 11
3223.749268
 21
1946.779907
  0
TEXT
  8
CSLAYER1
 62
     3
 10
3127.749268
 20
1881.770874
 40
40.000000
 41
0.900000
  1
600
 50
0.000000
 51
0.000000
  7
EASYDRAW_FONT
 72
     5
 11
3223.749268
 21
1881.770874
  0
TEXT
  8
CSLAYER1
 62
     3
 10
3125.526855
 20
1818.984131
 40
40.000000
 41
0.900000
  1
450
 50
0.000000
 51
0.000000
  7
EASYDRAW_FONT
 72
     5
 11
3221.526855
 21
1818.984131
  0
TEXT
  8
CSLAYER1
 62
     3
 10
2932.738037
 20
1692.850220
 40
40.000000
 41
0.830769
  1
電 動 油 圧 式
 50
0.000000
 51
0.000000
  7
EASYDRAW_FONT
 72
     5
 11
3220.738037
 21
1692.850220
  0
TEXT
  8
CSLAYER1
 62
     3
 10
3006.650391
 20
1498.081421
 40
40.000000
 41
0.840000
  1
長 サ ４ ｍ
 50
0.000000
 51
0.000000
  7
EASYDRAW_FONT
 72
     5
 11
3230.650391
 21
1498.081421
  0
TEXT
  8
CSLAYER1
 62
     3
 10
2875.517746
 20
1431.248119
 40
38.786964
 41
0.595710
  1
４ｓｅｃ／50ＨＺ,３sec/60HZ
 50
0.000000
 51
0.000000
  7
EASYDRAW_FONT
 72
     5
 11
3306.825516
 21
1431.248119
  0
TEXT
  8
CSLAYER1
 62
     3
 10
3117.321533
 20
1243.309937
 40
40.000000
 41
0.840000
  1
66  　Ｋｇ
 50
0.000000
 51
0.000000
  7
EASYDRAW_FONT
 72
     5
 11
3341.321533
 21
1243.309937
  0
TEXT
  8
CSLAYER1
 62
     3
 10
3123.518066
 20
1754.322876
 40
40.000000
 41
0.900000
  1
155
 50
0.000000
 51
0.000000
  7
EASYDRAW_FONT
 72
     5
 11
3219.518066
 21
1754.322876
  0
TEXT
  8
CSLAYER1
 62
     3
 10
3281.212158
 20
2070.009277
 40
40.000000
 41
0.960000
  1
mm
 50
0.000000
 51
0.000000
  7
EASYDRAW_FONT
 72
     5
 11
3345.212158
 21
2070.009277
  0
TEXT
  8
CSLAYER1
 62
     3
 10
3281.212158
 20
2009.675903
 40
40.000000
 41
0.960000
  1
mm
 50
0.000000
 51
0.000000
  7
EASYDRAW_FONT
 72
     5
 11
3345.212158
 21
2009.675903
  0
TEXT
  8
CSLAYER1
 62
     3
 10
3277.441162
 20
1945.572021
 40
40.000000
 41
0.960000
  1
mm
 50
0.000000
 51
0.000000
  7
EASYDRAW_FONT
 72
     5
 11
3341.441162
 21
1945.572021
  0
TEXT
  8
CSLAYER1
 62
     3
 10
3277.441162
 20
1877.697021
 40
40.000000
 41
0.960000
  1
mm
 50
0.000000
 51
0.000000
  7
EASYDRAW_FONT
 72
     5
 11
3341.441162
 21
1877.697021
  0
TEXT
  8
CSLAYER1
 62
     3
 10
3274.927734
 20
1817.364258
 40
40.000000
 41
0.960000
  1
mm
 50
0.000000
 51
0.000000
  7
EASYDRAW_FONT
 72
     5
 11
3338.927734
 21
1817.364258
  0
TEXT
  8
CSLAYER1
 62
     3
 10
3274.927734
 20
1753.259521
 40
40.000000
 41
0.960000
  1
mm
 50
0.000000
 51
0.000000
  7
EASYDRAW_FONT
 72
     5
 11
3338.927734
 21
1753.259521
  0
LINE
  8
CSLAYER1
  6
CONTINUOUS
 62
     5
 10
3017.164657
 20
2255.054553
 11
2808.778685
 21
2255.054553
  0
LINE
  8
CSLAYER1
  6
CONTINUOUS
 62
     5
 10
3017.164657
 20
2263.054552
 11
2808.778685
 21
2263.054552
  0
TEXT
  8
CSLAYER1
 62
     3
 10
2648.142578
 20
1624.893921
 40
40.000000
 41
1.036364
  1
操作方式
 50
0.000000
 51
0.000000
  7
EASYDRAW_FONT
 72
     5
 11
2800.142578
 21
1624.893921
  0
LINE
  8
CSLAYER1
  6
CONTINUOUS
 62
     5
 10
3354.260236
 20
1423.054573
 11
2633.387719
 21
1423.054573
  0
TEXT
  8
CSLAYER1
 62
     3
 10
2645.476807
 20
1497.690796
 40
40.000000
 41
0.942857
  1
電源コード
 50
0.000000
 51
0.000000
  7
EASYDRAW_FONT
 72
     5
 11
2821.476807
 21
1497.690796
  0
TEXT
  8
CSLAYER1
 62
     3
 10
3015.183594
 20
1178.022095
 40
40.000000
 41
0.930000
  1
１０Ｒ４／１３
 50
0.000000
 51
0.000000
  7
EASYDRAW_FONT
 72
     5
 11
3263.183594
 21
1178.022095
  0
TEXT
  8
CSLAYER1
 62
     3
 10
2642.859619
 20
1433.414185
 40
40.000000
 41
0.954545
  1
上昇時間
 50
0.000000
 51
0.000000
  7
EASYDRAW_FONT
 72
     5
 11
2782.859619
 21
1433.414185
  0
TEXT
  8
CSLAYER1
 62
     3
 10
2768.798096
 20
1371.723999
 40
40.000000
 41
0.917143
  1
上昇端リミットスイッチ付
 50
0.000000
 51
0.000000
  7
EASYDRAW_FONT
 72
     5
 11
3196.798096
 21
1371.723999
  0
TEXT
  8
CSLAYER1
 62
     3
 10
2897.159214
 20
2200.787008
 40
40.809284
 41
0.900085
  1
GLE-300-0406
 50
0.000000
 51
0.000000
  7
EASYDRAW_FONT
 72
     5
 11
3325.697231
 21
2200.787008
  0
TEXT
  8
CSLAYER1
 62
     3
 10
2932.109131
 20
1629.982178
 40
40.000000
 41
1.020000
  1
フットスイッチ
 50
0.000000
 51
0.000000
  7
EASYDRAW_FONT
 72
     5
 11
3204.109131
 21
1629.982178
  0
TEXT
  8
CSLAYER1
 62
     3
 10
2854.021484
 20
1564.647827
 40
40.000000
 41
0.817021
  1
ＡＣ２００Ｖ，３相、０．５５ＫＷ
 50
0.000000
 51
0.000000
  7
EASYDRAW_FONT
 72
     5
 11
3366.021484
 21
1564.647827
  0
TEXT
  8
CSLAYER1
 62
     3
 10
537.702637
 20
1724.651733
 40
50.000000
 41
1.020000
  1
コード長サ２ｍ
 50
0.000000
 51
0.000000
  7
EASYDRAW_FONT
 72
     5
 11
877.702637
 21
1724.651733
  0
TEXT
  8
CSLAYER1
 62
     3
 10
2648.142578
 20
2136.893799
 40
40.000000
 41
1.036364
  1
積載荷重
 50
0.000000
 51
0.000000
  7
EASYDRAW_FONT
 72
     5
 11
2800.142578
 21
2136.893799
  0
ENDSEC
  0
EOF
