  0
SECTION
  2
HEADER
  9
$ACADVER
  1
AC1012
  9
$DWGCODEPAGE
  3
ansi_932
  9
$INSBASE
 10
0.0
 20
0.0
 30
0.0
  9
$EXTMIN
 10
0.0
 20
0.0
 30
0.0
  9
$EXTMAX
 10
5460.0
 20
3855.0
 30
0.0
  9
$LIMMIN
 10
0.0
 20
0.0
  9
$LIMMAX
 10
5460.0
 20
3855.0
  9
$ORTHOMODE
 70
     0
  9
$REGENMODE
 70
     1
  9
$FILLMODE
 70
     1
  9
$QTEXTMODE
 70
     0
  9
$MIRRTEXT
 70
     1
  9
$DRAGMODE
 70
     2
  9
$LTSCALE
 40
1.0
  9
$OSMODE
 70
    37
  9
$ATTMODE
 70
     1
  9
$TEXTSIZE
 40
2.5
  9
$TRACEWID
 40
1.0
  9
$TEXTSTYLE
  7
ED_VECTOR
  9
$CLAYER
  8
0
  9
$CELTYPE
  6
BYLAYER
  9
$CECOLOR
 62
   256
  9
$CELTSCALE
 40
1.0
  9
$DELOBJ
 70
     1
  9
$DISPSILH
 70
     0
  9
$DIMSCALE
 40
1.0
  9
$DIMASZ
 40
45.0
  9
$DIMEXO
 40
15.0
  9
$DIMDLI
 40
150.0
  9
$DIMRND
 40
0.0
  9
$DIMDLE
 40
75.0
  9
$DIMEXE
 40
15.0
  9
$DIMTP
 40
0.0
  9
$DIMTM
 40
0.0
  9
$DIMTXT
 40
60.0
  9
$DIMCEN
 40
2.5
  9
$DIMTSZ
 40
0.0
  9
$DIMTOL
 70
     0
  9
$DIMLIM
 70
     0
  9
$DIMTIH
 70
     0
  9
$DIMTOH
 70
     0
  9
$DIMSE1
 70
     0
  9
$DIMSE2
 70
     0
  9
$DIMTAD
 70
     1
  9
$DIMZIN
 70
     8
  9
$DIMBLK
  1

  9
$DIMASO
 70
     1
  9
$DIMSHO
 70
     1
  9
$DIMPOST
  1

  9
$DIMAPOST
  1

  9
$DIMALT
 70
     0
  9
$DIMALTD
 70
     3
  9
$DIMALTF
 40
0.03937
  9
$DIMLFAC
 40
1.0
  9
$DIMTOFL
 70
     1
  9
$DIMTVP
 40
0.0
  9
$DIMTIX
 70
     0
  9
$DIMSOXD
 70
     0
  9
$DIMSAH
 70
     1
  9
$DIMBLK1
  1
EDTIP_ARROW_S
  9
$DIMBLK2
  1
EDTIP_ARROW_E
  9
$DIMSTYLE
  2
EDDIMINFO
  9
$DIMCLRD
 70
     5
  9
$DIMCLRE
 70
     5
  9
$DIMCLRT
 70
     3
  9
$DIMTFAC
 40
1.0
  9
$DIMGAP
 40
15.0
  9
$DIMJUST
 70
     0
  9
$DIMSD1
 70
     0
  9
$DIMSD2
 70
     0
  9
$DIMTOLJ
 70
     0
  9
$DIMTZIN
 70
     8
  9
$DIMALTZ
 70
     0
  9
$DIMALTTZ
 70
     0
  9
$DIMFIT
 70
     3
  9
$DIMUPT
 70
     0
  9
$DIMUNIT
 70
     2
  9
$DIMDEC
 70
     2
  9
$DIMTDEC
 70
     2
  9
$DIMALTU
 70
     2
  9
$DIMALTTD
 70
     3
  9
$DIMTXSTY
  7
ED_VECTOR
  9
$DIMAUNIT
 70
     0
  9
$LUNITS
 70
     2
  9
$LUPREC
 70
     4
  9
$SKETCHINC
 40
1.0
  9
$FILLETRAD
 40
10.0
  9
$AUNITS
 70
     0
  9
$AUPREC
 70
     0
  9
$MENU
  1
.
  9
$ELEVATION
 40
0.0
  9
$PELEVATION
 40
0.0
  9
$THICKNESS
 40
0.0
  9
$LIMCHECK
 70
     0
  9
$CHAMFERA
 40
0.0
  9
$CHAMFERB
 40
0.0
  9
$CHAMFERC
 40
0.0
  9
$CHAMFERD
 40
0.0
  9
$SKPOLY
 70
     0
  9
$TDCREATE
 40
2458803.633139016
  9
$TDUPDATE
 40
2458803.633140289
  9
$TDINDWG
 40
0.0000000116
  9
$TDUSRTIMER
 40
0.0000000116
  9
$USRTIMER
 70
     1
  9
$ANGBASE
 50
0.0
  9
$ANGDIR
 70
     0
  9
$PDMODE
 70
     0
  9
$PDSIZE
 40
0.0
  9
$PLINEWID
 40
0.0
  9
$COORDS
 70
     1
  9
$SPLFRAME
 70
     0
  9
$SPLINETYPE
 70
     6
  9
$SPLINESEGS
 70
     8
  9
$ATTDIA
 70
     0
  9
$ATTREQ
 70
     1
  9
$HANDLING
 70
     1
  9
$HANDSEED
  5
4E5
  9
$SURFTAB1
 70
     6
  9
$SURFTAB2
 70
     6
  9
$SURFTYPE
 70
     6
  9
$SURFU
 70
     6
  9
$SURFV
 70
     6
  9
$UCSNAME
  2

  9
$UCSORG
 10
0.0
 20
0.0
 30
0.0
  9
$UCSXDIR
 10
1.0
 20
0.0
 30
0.0
  9
$UCSYDIR
 10
0.0
 20
1.0
 30
0.0
  9
$PUCSNAME
  2

  9
$PUCSORG
 10
0.0
 20
0.0
 30
0.0
  9
$PUCSXDIR
 10
1.0
 20
0.0
 30
0.0
  9
$PUCSYDIR
 10
0.0
 20
1.0
 30
0.0
  9
$USERI1
 70
     0
  9
$USERI2
 70
     0
  9
$USERI3
 70
     0
  9
$USERI4
 70
     0
  9
$USERI5
 70
     0
  9
$USERR1
 40
0.0
  9
$USERR2
 40
0.0
  9
$USERR3
 40
0.0
  9
$USERR4
 40
0.0
  9
$USERR5
 40
0.0
  9
$WORLDVIEW
 70
     1
  9
$SHADEDGE
 70
     3
  9
$SHADEDIF
 70
    70
  9
$TILEMODE
 70
     1
  9
$MAXACTVP
 70
    64
  9
$PINSBASE
 10
0.0
 20
0.0
 30
0.0
  9
$PLIMCHECK
 70
     0
  9
$PEXTMIN
 10
1.000000E+20
 20
1.000000E+20
 30
1.000000E+20
  9
$PEXTMAX
 10
-1.000000E+20
 20
-1.000000E+20
 30
-1.000000E+20
  9
$PLIMMIN
 10
0.0
 20
0.0
  9
$PLIMMAX
 10
420.0
 20
297.0
  9
$UNITMODE
 70
     0
  9
$VISRETAIN
 70
     1
  9
$PLINEGEN
 70
     0
  9
$PSLTSCALE
 70
     1
  9
$TREEDEPTH
 70
  3020
  9
$PICKSTYLE
 70
     1
  9
$CMLSTYLE
  2
STANDARD
  9
$CMLJUST
 70
     0
  9
$CMLSCALE
 40
20.0
  9
$SAVEIMAGES
 70
     1
  0
ENDSEC
  0
SECTION
  2
CLASSES
  0
CLASS
  1
ACDBDICTIONARYWDFLT
  2
AcDbDictionaryWithDefault
  3
ObjectDBX Classes
 90
    32768
280
     0
281
     0
  0
CLASS
  1
VISUALSTYLE
  2
AcDbVisualStyle
  3
ObjectDBX Classes
 90
     4095
280
     0
281
     0
  0
CLASS
  1
MATERIAL
  2
AcDbMaterial
  3
ObjectDBX Classes
 90
     1153
280
     0
281
     0
  0
CLASS
  1
SCALE
  2
AcDbScale
  3
ObjectDBX Classes
 90
     1153
280
     0
281
     0
  0
CLASS
  1
TABLESTYLE
  2
AcDbTableStyle
  3
ObjectDBX Classes
 90
     4095
280
     0
281
     0
  0
CLASS
  1
MLEADERSTYLE
  2
AcDbMLeaderStyle
  3
ACDB_MLEADERSTYLE_CLASS
 90
     4095
280
     0
281
     0
  0
CLASS
  1
SUN
  2
AcDbSun
  3
SCENEOE
 90
     1153
280
     0
281
     0
  0
CLASS
  1
DICTIONARYVAR
  2
AcDbDictionaryVar
  3
ObjectDBX Classes
 90
        0
280
     0
281
     0
  0
CLASS
  1
XRECORD
  2
AcDbXrecord
  3
ObjectDBX Classes
 90
    32768
280
     0
281
     0
  0
CLASS
  1
LWPOLYLINE
  2
AcDbPolyline
  3
ObjectDBX Classes
 90
    32768
280
     0
281
     1
  0
CLASS
  1
HATCH
  2
AcDbHatch
  3
ObjectDBX Classes
 90
    32768
280
     0
281
     1
  0
CLASS
  1
ACDBPLACEHOLDER
  2
AcDbPlaceHolder
  3
ObjectDBX Classes
 90
        0
280
     0
281
     0
  0
CLASS
  1
LAYOUT
  2
AcDbLayout
  3
ObjectDBX Classes
 90
        0
280
     0
281
     0
  0
ENDSEC
  0
SECTION
  2
TABLES
  0
TABLE
  2
VPORT
  5
8
330
0
100
AcDbSymbolTable
 70
     1
  0
VPORT
  5
29
330
8
100
AcDbSymbolTableRecord
100
AcDbViewportTableRecord
  2
*ACTIVE
 70
     0
 10
0.0
 20
0.0
 11
1.0
 21
1.0
 12
2730.0
 22
1927.5
 13
0.0
 23
0.0
 14
10.0
 24
10.0
 15
10.0
 25
10.0
 16
0.0
 26
0.0
 36
1.0
 17
0.0
 27
0.0
 37
0.0
 40
3855.0
 41
1.416342
 42
50.0
 43
0.0
 44
0.0
 50
0.0
 51
0.0
 71
     0
 72
   100
 73
     1
 74
     3
 75
     0
 76
     0
 77
     0
 78
     0
  0
ENDTAB
  0
TABLE
  2
LTYPE
  5
5
330
0
100
AcDbSymbolTable
 70
     5
  0
LTYPE
  5
14
330
5
100
AcDbSymbolTableRecord
100
AcDbLinetypeTableRecord
  2
BYBLOCK
 70
     0
  3

 72
    65
 73
     0
 40
0.0
  0
LTYPE
  5
15
330
5
100
AcDbSymbolTableRecord
100
AcDbLinetypeTableRecord
  2
BYLAYER
 70
     0
  3

 72
    65
 73
     0
 40
0.0
  0
LTYPE
  5
16
330
5
100
AcDbSymbolTableRecord
100
AcDbLinetypeTableRecord
  2
CONTINUOUS
 70
     0
  3
--------------------
 72
    65
 73
     0
 40
0.0
  0
LTYPE
  5
6E
330
5
100
AcDbSymbolTableRecord
100
AcDbLinetypeTableRecord
  2
DASHED
 70
     0
  3
- - - - - - - - - - -
 72
    65
 73
     2
 40
19.1
 49
12.7
 74
     0
 49
-6.4
 74
     0
  0
LTYPE
  5
6F
330
5
100
AcDbSymbolTableRecord
100
AcDbLinetypeTableRecord
  2
CENTER
 70
     0
  3
- ･ - ･ - ･ - ･ - ･ - ･ - ･ - ･ - ･ - ･ -
 72
    65
 73
     4
 40
51.0
 49
31.8
 74
     0
 49
-6.4
 74
     0
 49
6.4
 74
     0
 49
-6.4
 74
     0
  0
LTYPE
  5
70
330
5
100
AcDbSymbolTableRecord
100
AcDbLinetypeTableRecord
  2
PHANTOM
 70
     0
  3
- ･ ･ - ･ ･ - ･ ･ - ･ ･ - ･ ･ - ･ ･ - ･ ･ - 
 72
    65
 73
     6
 40
63.8
 49
31.8
 74
     0
 49
-6.4
 74
     0
 49
6.4
 74
     0
 49
-6.4
 74
     0
 49
6.4
 74
     0
 49
-6.4
 74
     0
  0
LTYPE
  5
71
330
5
100
AcDbSymbolTableRecord
100
AcDbLinetypeTableRecord
  2
DOT
 70
     0
  3
・・・・・・・・・・・・・・・
 72
    65
 73
     2
 40
6.5
 49
0.1
 74
     0
 49
-6.4
 74
     0
  0
ENDTAB
  0
TABLE
  2
LAYER
  5
2
330
0
100
AcDbSymbolTable
 70
    65
  0
LAYER
  5
10
330
2
100
AcDbSymbolTableRecord
100
AcDbLayerTableRecord
  2
0
 70
     0
 62
     7
  6
CONTINUOUS
  0
LAYER
  5
72
330
2
100
AcDbSymbolTableRecord
100
AcDbLayerTableRecord
  2
LAYER002
 70
     0
 62
     7
  6
CONTINUOUS
  0
LAYER
  5
73
330
2
100
AcDbSymbolTableRecord
100
AcDbLayerTableRecord
  2
LAYER003
 70
     0
 62
     7
  6
CONTINUOUS
  0
LAYER
  5
74
330
2
100
AcDbSymbolTableRecord
100
AcDbLayerTableRecord
  2
LAYER004
 70
     0
 62
     7
  6
CONTINUOUS
  0
LAYER
  5
75
330
2
100
AcDbSymbolTableRecord
100
AcDbLayerTableRecord
  2
LAYER005
 70
     0
 62
     7
  6
CONTINUOUS
  0
LAYER
  5
76
330
2
100
AcDbSymbolTableRecord
100
AcDbLayerTableRecord
  2
LAYER006
 70
     0
 62
     7
  6
CONTINUOUS
  0
LAYER
  5
77
330
2
100
AcDbSymbolTableRecord
100
AcDbLayerTableRecord
  2
LAYER007
 70
     0
 62
     7
  6
CONTINUOUS
  0
LAYER
  5
78
330
2
100
AcDbSymbolTableRecord
100
AcDbLayerTableRecord
  2
LAYER008
 70
     0
 62
     7
  6
CONTINUOUS
  0
LAYER
  5
79
330
2
100
AcDbSymbolTableRecord
100
AcDbLayerTableRecord
  2
LAYER009
 70
     0
 62
     7
  6
CONTINUOUS
  0
LAYER
  5
7A
330
2
100
AcDbSymbolTableRecord
100
AcDbLayerTableRecord
  2
LAYER010
 70
     0
 62
     7
  6
CONTINUOUS
  0
LAYER
  5
7B
330
2
100
AcDbSymbolTableRecord
100
AcDbLayerTableRecord
  2
LAYER011
 70
     0
 62
     7
  6
CONTINUOUS
  0
LAYER
  5
7C
330
2
100
AcDbSymbolTableRecord
100
AcDbLayerTableRecord
  2
LAYER012
 70
     0
 62
     7
  6
CONTINUOUS
  0
LAYER
  5
7D
330
2
100
AcDbSymbolTableRecord
100
AcDbLayerTableRecord
  2
LAYER013
 70
     0
 62
     7
  6
CONTINUOUS
  0
LAYER
  5
7E
330
2
100
AcDbSymbolTableRecord
100
AcDbLayerTableRecord
  2
LAYER014
 70
     0
 62
     7
  6
CONTINUOUS
  0
LAYER
  5
7F
330
2
100
AcDbSymbolTableRecord
100
AcDbLayerTableRecord
  2
LAYER015
 70
     0
 62
     7
  6
CONTINUOUS
  0
LAYER
  5
80
330
2
100
AcDbSymbolTableRecord
100
AcDbLayerTableRecord
  2
LAYER016
 70
     0
 62
     7
  6
CONTINUOUS
  0
LAYER
  5
81
330
2
100
AcDbSymbolTableRecord
100
AcDbLayerTableRecord
  2
LAYER017
 70
     0
 62
     7
  6
CONTINUOUS
  0
LAYER
  5
82
330
2
100
AcDbSymbolTableRecord
100
AcDbLayerTableRecord
  2
LAYER018
 70
     0
 62
     7
  6
CONTINUOUS
  0
LAYER
  5
83
330
2
100
AcDbSymbolTableRecord
100
AcDbLayerTableRecord
  2
LAYER019
 70
     0
 62
     7
  6
CONTINUOUS
  0
LAYER
  5
84
330
2
100
AcDbSymbolTableRecord
100
AcDbLayerTableRecord
  2
LAYER020
 70
     0
 62
     7
  6
CONTINUOUS
  0
LAYER
  5
85
330
2
100
AcDbSymbolTableRecord
100
AcDbLayerTableRecord
  2
LAYER021
 70
     0
 62
     7
  6
CONTINUOUS
  0
LAYER
  5
86
330
2
100
AcDbSymbolTableRecord
100
AcDbLayerTableRecord
  2
LAYER022
 70
     0
 62
     7
  6
CONTINUOUS
  0
LAYER
  5
87
330
2
100
AcDbSymbolTableRecord
100
AcDbLayerTableRecord
  2
LAYER023
 70
     0
 62
     7
  6
CONTINUOUS
  0
LAYER
  5
88
330
2
100
AcDbSymbolTableRecord
100
AcDbLayerTableRecord
  2
LAYER024
 70
     0
 62
     7
  6
CONTINUOUS
  0
LAYER
  5
89
330
2
100
AcDbSymbolTableRecord
100
AcDbLayerTableRecord
  2
LAYER025
 70
     0
 62
     7
  6
CONTINUOUS
  0
LAYER
  5
8A
330
2
100
AcDbSymbolTableRecord
100
AcDbLayerTableRecord
  2
LAYER026
 70
     0
 62
     7
  6
CONTINUOUS
  0
LAYER
  5
8B
330
2
100
AcDbSymbolTableRecord
100
AcDbLayerTableRecord
  2
LAYER027
 70
     0
 62
     7
  6
CONTINUOUS
  0
LAYER
  5
8C
330
2
100
AcDbSymbolTableRecord
100
AcDbLayerTableRecord
  2
LAYER028
 70
     0
 62
     7
  6
CONTINUOUS
  0
LAYER
  5
8D
330
2
100
AcDbSymbolTableRecord
100
AcDbLayerTableRecord
  2
LAYER029
 70
     0
 62
     7
  6
CONTINUOUS
  0
LAYER
  5
8E
330
2
100
AcDbSymbolTableRecord
100
AcDbLayerTableRecord
  2
LAYER030
 70
     0
 62
     7
  6
CONTINUOUS
  0
LAYER
  5
8F
330
2
100
AcDbSymbolTableRecord
100
AcDbLayerTableRecord
  2
LAYER031
 70
     0
 62
     7
  6
CONTINUOUS
  0
LAYER
  5
90
330
2
100
AcDbSymbolTableRecord
100
AcDbLayerTableRecord
  2
LAYER032
 70
     0
 62
     7
  6
CONTINUOUS
  0
LAYER
  5
91
330
2
100
AcDbSymbolTableRecord
100
AcDbLayerTableRecord
  2
LAYER033
 70
     0
 62
     7
  6
CONTINUOUS
  0
LAYER
  5
92
330
2
100
AcDbSymbolTableRecord
100
AcDbLayerTableRecord
  2
LAYER034
 70
     0
 62
     7
  6
CONTINUOUS
  0
LAYER
  5
93
330
2
100
AcDbSymbolTableRecord
100
AcDbLayerTableRecord
  2
LAYER035
 70
     0
 62
     7
  6
CONTINUOUS
  0
LAYER
  5
94
330
2
100
AcDbSymbolTableRecord
100
AcDbLayerTableRecord
  2
LAYER036
 70
     0
 62
     7
  6
CONTINUOUS
  0
LAYER
  5
95
330
2
100
AcDbSymbolTableRecord
100
AcDbLayerTableRecord
  2
LAYER037
 70
     0
 62
     7
  6
CONTINUOUS
  0
LAYER
  5
96
330
2
100
AcDbSymbolTableRecord
100
AcDbLayerTableRecord
  2
LAYER038
 70
     0
 62
     7
  6
CONTINUOUS
  0
LAYER
  5
97
330
2
100
AcDbSymbolTableRecord
100
AcDbLayerTableRecord
  2
LAYER039
 70
     0
 62
     7
  6
CONTINUOUS
  0
LAYER
  5
98
330
2
100
AcDbSymbolTableRecord
100
AcDbLayerTableRecord
  2
LAYER040
 70
     0
 62
     7
  6
CONTINUOUS
  0
LAYER
  5
99
330
2
100
AcDbSymbolTableRecord
100
AcDbLayerTableRecord
  2
LAYER041
 70
     0
 62
     7
  6
CONTINUOUS
  0
LAYER
  5
9A
330
2
100
AcDbSymbolTableRecord
100
AcDbLayerTableRecord
  2
LAYER042
 70
     0
 62
     7
  6
CONTINUOUS
  0
LAYER
  5
9B
330
2
100
AcDbSymbolTableRecord
100
AcDbLayerTableRecord
  2
LAYER043
 70
     0
 62
     7
  6
CONTINUOUS
  0
LAYER
  5
9C
330
2
100
AcDbSymbolTableRecord
100
AcDbLayerTableRecord
  2
LAYER044
 70
     0
 62
     7
  6
CONTINUOUS
  0
LAYER
  5
9D
330
2
100
AcDbSymbolTableRecord
100
AcDbLayerTableRecord
  2
LAYER045
 70
     0
 62
     7
  6
CONTINUOUS
  0
LAYER
  5
9E
330
2
100
AcDbSymbolTableRecord
100
AcDbLayerTableRecord
  2
LAYER046
 70
     0
 62
     7
  6
CONTINUOUS
  0
LAYER
  5
9F
330
2
100
AcDbSymbolTableRecord
100
AcDbLayerTableRecord
  2
LAYER047
 70
     0
 62
     7
  6
CONTINUOUS
  0
LAYER
  5
A0
330
2
100
AcDbSymbolTableRecord
100
AcDbLayerTableRecord
  2
LAYER048
 70
     0
 62
     7
  6
CONTINUOUS
  0
LAYER
  5
A1
330
2
100
AcDbSymbolTableRecord
100
AcDbLayerTableRecord
  2
LAYER049
 70
     0
 62
     7
  6
CONTINUOUS
  0
LAYER
  5
A2
330
2
100
AcDbSymbolTableRecord
100
AcDbLayerTableRecord
  2
LAYER050
 70
     0
 62
     7
  6
CONTINUOUS
  0
LAYER
  5
A3
330
2
100
AcDbSymbolTableRecord
100
AcDbLayerTableRecord
  2
LAYER051
 70
     0
 62
     7
  6
CONTINUOUS
  0
LAYER
  5
A4
330
2
100
AcDbSymbolTableRecord
100
AcDbLayerTableRecord
  2
LAYER052
 70
     0
 62
     7
  6
CONTINUOUS
  0
LAYER
  5
A5
330
2
100
AcDbSymbolTableRecord
100
AcDbLayerTableRecord
  2
LAYER053
 70
     0
 62
     7
  6
CONTINUOUS
  0
LAYER
  5
A6
330
2
100
AcDbSymbolTableRecord
100
AcDbLayerTableRecord
  2
LAYER054
 70
     0
 62
     7
  6
CONTINUOUS
  0
LAYER
  5
A7
330
2
100
AcDbSymbolTableRecord
100
AcDbLayerTableRecord
  2
LAYER055
 70
     0
 62
     7
  6
CONTINUOUS
  0
LAYER
  5
A8
330
2
100
AcDbSymbolTableRecord
100
AcDbLayerTableRecord
  2
LAYER056
 70
     0
 62
     7
  6
CONTINUOUS
  0
LAYER
  5
A9
330
2
100
AcDbSymbolTableRecord
100
AcDbLayerTableRecord
  2
LAYER057
 70
     0
 62
     7
  6
CONTINUOUS
  0
LAYER
  5
AA
330
2
100
AcDbSymbolTableRecord
100
AcDbLayerTableRecord
  2
LAYER058
 70
     0
 62
     7
  6
CONTINUOUS
  0
LAYER
  5
AB
330
2
100
AcDbSymbolTableRecord
100
AcDbLayerTableRecord
  2
LAYER059
 70
     0
 62
     7
  6
CONTINUOUS
  0
LAYER
  5
AC
330
2
100
AcDbSymbolTableRecord
100
AcDbLayerTableRecord
  2
LAYER060
 70
     0
 62
     7
  6
CONTINUOUS
  0
LAYER
  5
AD
330
2
100
AcDbSymbolTableRecord
100
AcDbLayerTableRecord
  2
LAYER061
 70
     0
 62
     7
  6
CONTINUOUS
  0
LAYER
  5
AE
330
2
100
AcDbSymbolTableRecord
100
AcDbLayerTableRecord
  2
LAYER062
 70
     0
 62
     7
  6
CONTINUOUS
  0
LAYER
  5
AF
330
2
100
AcDbSymbolTableRecord
100
AcDbLayerTableRecord
  2
LAYER063
 70
     0
 62
     7
  6
CONTINUOUS
  0
LAYER
  5
B0
330
2
100
AcDbSymbolTableRecord
100
AcDbLayerTableRecord
  2
LAYER064
 70
     0
 62
     7
  6
CONTINUOUS
  0
LAYER
  5
ED
330
2
100
AcDbSymbolTableRecord
100
AcDbLayerTableRecord
  2
LAYER065
 70
     0
 62
     7
  6
CONTINUOUS
  0
ENDTAB
  0
TABLE
  2
STYLE
  5
3
330
0
100
AcDbSymbolTable
 70
     2
  0
STYLE
  5
11
330
3
100
AcDbSymbolTableRecord
100
AcDbTextStyleTableRecord
  2
STANDARD
 70
     0
 40
0.0
 41
1.0
 50
0.0
 71
     0
 42
2.5
  3
txt
  4

  0
STYLE
  5
B1
330
3
100
AcDbSymbolTableRecord
100
AcDbTextStyleTableRecord
  2
ED_VECTOR
 70
     0
 40
0.0
 41
1.0
 50
0.0
 71
     0
 42
2.5
  3
MONOTXT.SHX
  4
BIGFONT.SHX
  0
ENDTAB
  0
TABLE
  2
VIEW
  5
6
330
0
100
AcDbSymbolTable
 70
     0
  0
ENDTAB
  0
TABLE
  2
UCS
  5
7
330
0
100
AcDbSymbolTable
 70
     0
  0
ENDTAB
  0
TABLE
  2
APPID
  5
9
330
0
100
AcDbSymbolTable
 70
     2
  0
APPID
  5
12
330
9
100
AcDbSymbolTableRecord
100
AcDbRegAppTableRecord
  2
ACAD
 70
     0
  0
APPID
  5
4E4
330
9
100
AcDbSymbolTableRecord
100
AcDbRegAppTableRecord
  2
ACAD_MLEADERVER
 70
     0
  0
ENDTAB
  0
TABLE
  2
DIMSTYLE
  5
A
330
0
100
AcDbSymbolTable
 70
     2
  0
DIMSTYLE
105
27
330
A
100
AcDbSymbolTableRecord
100
AcDbDimStyleTableRecord
  2
ISO-25
 70
     0
  3

  4

  5

  6

  7

 40
1.0
 41
2.5
 42
0.625
 43
3.75
 44
1.25
 45
0.0
 46
0.0
 47
0.0
 48
0.0
140
2.5
141
2.5
142
0.0
143
0.03937
144
1.0
145
0.0
146
1.0
147
0.625
 71
     0
 72
     0
 73
     0
 74
     0
 75
     0
 76
     0
 77
     1
 78
     8
170
     0
171
     3
172
     1
173
     0
174
     0
175
     0
176
     0
177
     0
178
     0
270
     2
271
     2
272
     2
273
     2
274
     3
340
11
275
     0
280
     0
281
     0
282
     0
283
     0
284
     8
285
     0
286
     0
287
     3
288
     0
  0
DIMSTYLE
105
EC
102
{ACAD_REACTORS
330
456
330
46C
330
475
330
47D
330
486
102
}
330
A
100
AcDbSymbolTableRecord
100
AcDbDimStyleTableRecord
  2
EDDIMINFO
 70
     0
  3

  4

  5

  6
EDTIP_ARROW_S
  7
EDTIP_ARROW_E
 40
1.0
 41
45.0
 42
15.0
 43
150.0
 44
15.0
 45
0.0
 46
75.0
 47
0.0
 48
0.0
140
60.0
141
2.5
142
0.0
143
0.03937
144
1.0
145
0.0
146
1.0
147
15.0
 71
     0
 72
     0
 73
     0
 74
     0
 75
     0
 76
     0
 77
     1
 78
     8
170
     0
171
     3
172
     1
173
     1
174
     0
175
     0
176
     5
177
     5
178
     3
179
     2
270
     2
271
     2
272
     2
273
     2
274
     3
340
B1
275
     0
280
     0
281
     0
282
     0
283
     0
284
     8
285
     0
286
     0
287
     3
288
     0
  0
ENDTAB
  0
TABLE
  2
BLOCK_RECORD
  5
1
330
0
100
AcDbSymbolTable
 70
    17
  0
BLOCK_RECORD
  5
1F
330
1
100
AcDbSymbolTableRecord
100
AcDbBlockTableRecord
  2
*MODEL_SPACE
  0
BLOCK_RECORD
  5
1B
330
1
100
AcDbSymbolTableRecord
100
AcDbBlockTableRecord
  2
*PAPER_SPACE
  0
BLOCK_RECORD
  5
B2
330
1
100
AcDbSymbolTableRecord
100
AcDbBlockTableRecord
  2
EDTIP_ARROW_S
  0
BLOCK_RECORD
  5
B8
330
1
100
AcDbSymbolTableRecord
100
AcDbBlockTableRecord
  2
EDTIP_ARROW_E
  0
BLOCK_RECORD
  5
BE
330
1
100
AcDbSymbolTableRecord
100
AcDbBlockTableRecord
  2
EDTIP_BLACKDOT_S
  0
BLOCK_RECORD
  5
C4
330
1
100
AcDbSymbolTableRecord
100
AcDbBlockTableRecord
  2
EDTIP_BLACKDOT_E
  0
BLOCK_RECORD
  5
CA
330
1
100
AcDbSymbolTableRecord
100
AcDbBlockTableRecord
  2
EDTIP_ARCHITECT_S
  0
BLOCK_RECORD
  5
D0
330
1
100
AcDbSymbolTableRecord
100
AcDbBlockTableRecord
  2
EDTIP_ARCHITECT_E
  0
BLOCK_RECORD
  5
D6
330
1
100
AcDbSymbolTableRecord
100
AcDbBlockTableRecord
  2
EDTIP_CIVIL_S
  0
BLOCK_RECORD
  5
DC
330
1
100
AcDbSymbolTableRecord
100
AcDbBlockTableRecord
  2
EDTIP_CIVIL_E
  0
BLOCK_RECORD
  5
E2
330
1
100
AcDbSymbolTableRecord
100
AcDbBlockTableRecord
  2
EDTIP_WHITEDOT_S
  0
BLOCK_RECORD
  5
E7
330
1
100
AcDbSymbolTableRecord
100
AcDbBlockTableRecord
  2
EDTIP_WHITEDOT_E
  0
BLOCK_RECORD
  5
10D
330
1
100
AcDbSymbolTableRecord
100
AcDbBlockTableRecord
  2
BLKF014
  0
BLOCK_RECORD
  5
1C2
330
1
100
AcDbSymbolTableRecord
100
AcDbBlockTableRecord
  2
BLKF015
  0
BLOCK_RECORD
  5
457
330
1
100
AcDbSymbolTableRecord
100
AcDbBlockTableRecord
  2
*D13
  0
BLOCK_RECORD
  5
46D
330
1
100
AcDbSymbolTableRecord
100
AcDbBlockTableRecord
  2
*D14
  0
BLOCK_RECORD
  5
476
330
1
100
AcDbSymbolTableRecord
100
AcDbBlockTableRecord
  2
*D15
  0
BLOCK_RECORD
  5
47E
330
1
100
AcDbSymbolTableRecord
100
AcDbBlockTableRecord
  2
*D16
  0
BLOCK_RECORD
  5
487
330
1
100
AcDbSymbolTableRecord
100
AcDbBlockTableRecord
  2
*D17
  0
ENDTAB
  0
ENDSEC
  0
SECTION
  2
BLOCKS
  0
BLOCK
  5
20
330
1F
100
AcDbEntity
  8
0
100
AcDbBlockBegin
  2
*MODEL_SPACE
 70
     0
 10
0.0
 20
0.0
 30
0.0
  3
*MODEL_SPACE
  1

  0
ENDBLK
  5
21
330
1F
100
AcDbEntity
  8
0
100
AcDbBlockEnd
  0
BLOCK
  5
1C
330
1B
100
AcDbEntity
 67
     1
  8
0
100
AcDbBlockBegin
  2
*PAPER_SPACE
 70
     0
 10
0.0
 20
0.0
 30
0.0
  3
*PAPER_SPACE
  1

  0
ENDBLK
  5
1D
330
1B
100
AcDbEntity
 67
     1
  8
0
100
AcDbBlockEnd
  0
BLOCK
  5
B3
330
B2
100
AcDbEntity
  8
0
100
AcDbBlockBegin
  2
EDTIP_ARROW_S
 70
     0
 10
0.0
 20
0.0
 30
0.0
  3
EDTIP_ARROW_S
  1

  0
LINE
  5
B5
330
B2
100
AcDbEntity
  8
0
  6
CONTINUOUS
 62
     0
100
AcDbLine
 10
0.0
 20
0.0
 30
0.0
 11
-1.0
 21
0.0
 31
0.0
  0
LINE
  5
B6
330
B2
100
AcDbEntity
  8
0
  6
CONTINUOUS
 62
     0
100
AcDbLine
 10
0.0
 20
0.0
 30
0.0
 11
-0.965926
 21
0.258819
 31
0.0
  0
LINE
  5
B7
330
B2
100
AcDbEntity
  8
0
  6
CONTINUOUS
 62
     0
100
AcDbLine
 10
0.0
 20
0.0
 30
0.0
 11
-0.965926
 21
-0.258819
 31
0.0
  0
ENDBLK
  5
B4
330
B2
100
AcDbEntity
  8
0
100
AcDbBlockEnd
  0
BLOCK
  5
B9
330
B8
100
AcDbEntity
  8
0
100
AcDbBlockBegin
  2
EDTIP_ARROW_E
 70
     0
 10
0.0
 20
0.0
 30
0.0
  3
EDTIP_ARROW_E
  1

  0
LINE
  5
BB
330
B8
100
AcDbEntity
  8
0
  6
CONTINUOUS
 62
     0
100
AcDbLine
 10
0.0
 20
0.0
 30
0.0
 11
-1.0
 21
0.0
 31
0.0
  0
LINE
  5
BC
330
B8
100
AcDbEntity
  8
0
  6
CONTINUOUS
 62
     0
100
AcDbLine
 10
0.0
 20
0.0
 30
0.0
 11
-0.965926
 21
-0.258819
 31
0.0
  0
LINE
  5
BD
330
B8
100
AcDbEntity
  8
0
  6
CONTINUOUS
 62
     0
100
AcDbLine
 10
0.0
 20
0.0
 30
0.0
 11
-0.965926
 21
0.258819
 31
0.0
  0
ENDBLK
  5
BA
330
B8
100
AcDbEntity
  8
0
100
AcDbBlockEnd
  0
BLOCK
  5
BF
330
BE
100
AcDbEntity
  8
0
100
AcDbBlockBegin
  2
EDTIP_BLACKDOT_S
 70
     0
 10
0.0
 20
0.0
 30
0.0
  3
EDTIP_BLACKDOT_S
  1

  0
LINE
  5
C1
330
BE
100
AcDbEntity
  8
0
  6
CONTINUOUS
 62
     0
100
AcDbLine
 10
0.0
 20
0.0
 30
0.0
 11
-1.0
 21
0.0
 31
0.0
  0
CIRCLE
  5
C2
330
BE
100
AcDbEntity
  8
0
  6
CONTINUOUS
 62
     0
100
AcDbCircle
 10
0.0
 20
0.0
 30
0.0
 40
0.5
  0
CIRCLE
  5
C3
330
BE
100
AcDbEntity
  8
0
  6
CONTINUOUS
 62
     0
100
AcDbCircle
 10
0.0
 20
0.0
 30
0.0
 40
0.25
  0
ENDBLK
  5
C0
330
BE
100
AcDbEntity
  8
0
100
AcDbBlockEnd
  0
BLOCK
  5
C5
330
C4
100
AcDbEntity
  8
0
100
AcDbBlockBegin
  2
EDTIP_BLACKDOT_E
 70
     0
 10
0.0
 20
0.0
 30
0.0
  3
EDTIP_BLACKDOT_E
  1

  0
LINE
  5
C7
330
C4
100
AcDbEntity
  8
0
  6
CONTINUOUS
 62
     0
100
AcDbLine
 10
0.0
 20
0.0
 30
0.0
 11
-1.0
 21
0.0
 31
0.0
  0
CIRCLE
  5
C8
330
C4
100
AcDbEntity
  8
0
  6
CONTINUOUS
 62
     0
100
AcDbCircle
 10
0.0
 20
0.0
 30
0.0
 40
0.5
  0
CIRCLE
  5
C9
330
C4
100
AcDbEntity
  8
0
  6
CONTINUOUS
 62
     0
100
AcDbCircle
 10
0.0
 20
0.0
 30
0.0
 40
0.25
  0
ENDBLK
  5
C6
330
C4
100
AcDbEntity
  8
0
100
AcDbBlockEnd
  0
BLOCK
  5
CB
330
CA
100
AcDbEntity
  8
0
100
AcDbBlockBegin
  2
EDTIP_ARCHITECT_S
 70
     0
 10
0.0
 20
0.0
 30
0.0
  3
EDTIP_ARCHITECT_S
  1

  0
LINE
  5
CD
330
CA
100
AcDbEntity
  8
0
  6
CONTINUOUS
 62
     0
100
AcDbLine
 10
0.0
 20
0.0
 30
0.0
 11
-1.0
 21
0.0
 31
0.0
  0
LINE
  5
CE
330
CA
100
AcDbEntity
  8
0
  6
CONTINUOUS
 62
     0
100
AcDbLine
 10
0.0
 20
0.0
 30
0.0
 11
-0.707107
 21
-0.707107
 31
0.0
  0
LINE
  5
CF
330
CA
100
AcDbEntity
  8
0
  6
CONTINUOUS
 62
     0
100
AcDbLine
 10
0.0
 20
0.0
 30
0.0
 11
0.707107
 21
0.707107
 31
0.0
  0
ENDBLK
  5
CC
330
CA
100
AcDbEntity
  8
0
100
AcDbBlockEnd
  0
BLOCK
  5
D1
330
D0
100
AcDbEntity
  8
0
100
AcDbBlockBegin
  2
EDTIP_ARCHITECT_E
 70
     0
 10
0.0
 20
0.0
 30
0.0
  3
EDTIP_ARCHITECT_E
  1

  0
LINE
  5
D3
330
D0
100
AcDbEntity
  8
0
  6
CONTINUOUS
 62
     0
100
AcDbLine
 10
0.0
 20
0.0
 30
0.0
 11
-1.0
 21
0.0
 31
0.0
  0
LINE
  5
D4
330
D0
100
AcDbEntity
  8
0
  6
CONTINUOUS
 62
     0
100
AcDbLine
 10
0.0
 20
0.0
 30
0.0
 11
-0.707107
 21
-0.707107
 31
0.0
  0
LINE
  5
D5
330
D0
100
AcDbEntity
  8
0
  6
CONTINUOUS
 62
     0
100
AcDbLine
 10
0.0
 20
0.0
 30
0.0
 11
0.707107
 21
0.707107
 31
0.0
  0
ENDBLK
  5
D2
330
D0
100
AcDbEntity
  8
0
100
AcDbBlockEnd
  0
BLOCK
  5
D7
330
D6
100
AcDbEntity
  8
0
100
AcDbBlockBegin
  2
EDTIP_CIVIL_S
 70
     0
 10
0.0
 20
0.0
 30
0.0
  3
EDTIP_CIVIL_S
  1

  0
LINE
  5
D9
330
D6
100
AcDbEntity
  8
0
  6
CONTINUOUS
 62
     0
100
AcDbLine
 10
0.0
 20
0.0
 30
0.0
 11
-1.0
 21
0.0
 31
0.0
  0
LINE
  5
DA
330
D6
100
AcDbEntity
  8
0
  6
CONTINUOUS
 62
     0
100
AcDbLine
 10
0.0
 20
-0.005556
 30
0.0
 11
-1.0
 21
-0.005556
 31
0.0
  0
LINE
  5
DB
330
D6
100
AcDbEntity
  8
0
  6
CONTINUOUS
 62
     0
100
AcDbLine
 10
0.0
 20
-0.011111
 30
0.0
 11
-1.0
 21
-0.011111
 31
0.0
  0
ENDBLK
  5
D8
330
D6
100
AcDbEntity
  8
0
100
AcDbBlockEnd
  0
BLOCK
  5
DD
330
DC
100
AcDbEntity
  8
0
100
AcDbBlockBegin
  2
EDTIP_CIVIL_E
 70
     0
 10
0.0
 20
0.0
 30
0.0
  3
EDTIP_CIVIL_E
  1

  0
LINE
  5
DF
330
DC
100
AcDbEntity
  8
0
  6
CONTINUOUS
 62
     0
100
AcDbLine
 10
0.0
 20
0.0
 30
0.0
 11
-1.0
 21
0.0
 31
0.0
  0
LINE
  5
E0
330
DC
100
AcDbEntity
  8
0
  6
CONTINUOUS
 62
     0
100
AcDbLine
 10
0.0
 20
0.005556
 30
0.0
 11
-1.0
 21
0.005556
 31
0.0
  0
LINE
  5
E1
330
DC
100
AcDbEntity
  8
0
  6
CONTINUOUS
 62
     0
100
AcDbLine
 10
0.0
 20
0.011111
 30
0.0
 11
-1.0
 21
0.011111
 31
0.0
  0
ENDBLK
  5
DE
330
DC
100
AcDbEntity
  8
0
100
AcDbBlockEnd
  0
BLOCK
  5
E3
330
E2
100
AcDbEntity
  8
0
100
AcDbBlockBegin
  2
EDTIP_WHITEDOT_S
 70
     0
 10
0.0
 20
0.0
 30
0.0
  3
EDTIP_WHITEDOT_S
  1

  0
LINE
  5
E5
330
E2
100
AcDbEntity
  8
0
  6
CONTINUOUS
 62
     0
100
AcDbLine
 10
0.0
 20
0.0
 30
0.0
 11
-1.0
 21
0.0
 31
0.0
  0
CIRCLE
  5
E6
330
E2
100
AcDbEntity
  8
0
  6
CONTINUOUS
 62
     0
100
AcDbCircle
 10
0.0
 20
0.0
 30
0.0
 40
0.5
  0
ENDBLK
  5
E4
330
E2
100
AcDbEntity
  8
0
100
AcDbBlockEnd
  0
BLOCK
  5
E8
330
E7
100
AcDbEntity
  8
0
100
AcDbBlockBegin
  2
EDTIP_WHITEDOT_E
 70
     0
 10
0.0
 20
0.0
 30
0.0
  3
EDTIP_WHITEDOT_E
  1

  0
LINE
  5
EA
330
E7
100
AcDbEntity
  8
0
  6
CONTINUOUS
 62
     0
100
AcDbLine
 10
0.0
 20
0.0
 30
0.0
 11
-1.0
 21
0.0
 31
0.0
  0
CIRCLE
  5
EB
330
E7
100
AcDbEntity
  8
0
  6
CONTINUOUS
 62
     0
100
AcDbCircle
 10
0.0
 20
0.0
 30
0.0
 40
0.5
  0
ENDBLK
  5
E9
330
E7
100
AcDbEntity
  8
0
100
AcDbBlockEnd
  0
BLOCK
  5
10E
330
10D
100
AcDbEntity
  8
0
100
AcDbBlockBegin
  2
BLKF014
 70
     0
 10
0.0
 20
0.0
 30
0.0
  3
BLKF014
  1

  0
ARC
  5
111
330
10D
100
AcDbEntity
  8
0
  6
CONTINUOUS
 62
     5
100
AcDbCircle
 10
4169.77175
 20
120.742239
 30
0.0
 40
5.323837021849402
100
AcDbArc
 50
6.429109
 51
73.182034
  0
ARC
  5
112
330
10D
100
AcDbEntity
  8
0
  6
CONTINUOUS
 62
     5
100
AcDbCircle
 10
4164.580294
 20
119.00465
 30
0.0
 40
10.36163087460118
100
AcDbArc
 50
310.51797
 51
330.092764
  0
ARC
  5
113
330
10D
100
AcDbEntity
  8
0
  6
CONTINUOUS
 62
     5
100
AcDbCircle
 10
4164.48932
 20
119.552927
 30
0.0
 40
10.72248186297907
100
AcDbArc
 50
327.794941
 51
9.585194
  0
ARC
  5
114
330
10D
100
AcDbEntity
  8
0
  6
CONTINUOUS
 62
     5
100
AcDbCircle
 10
4169.428412
 20
115.411429
 30
0.0
 40
7.151271693142398
100
AcDbArc
 50
180.0
 51
218.51415
  0
ARC
  5
115
330
10D
100
AcDbEntity
  8
0
  6
CONTINUOUS
 62
     5
100
AcDbCircle
 10
4167.49833
 20
114.395718
 30
0.0
 40
5.022423043929243
100
AcDbArc
 50
222.781148
 51
319.406906
  0
ARC
  5
116
330
10D
100
AcDbEntity
  8
0
  6
CONTINUOUS
 62
     5
100
AcDbCircle
 10
4172.096793
 20
116.030557
 30
0.0
 40
9.839151699105159
100
AcDbArc
 50
94.574282
 51
183.607718
  0
LINE
  5
117
330
10D
100
AcDbEntity
  8
0
  6
CONTINUOUS
 62
     5
100
AcDbLine
 10
4192.262653
 20
108.355309
 30
0.0
 11
4190.977098
 21
103.797435
 31
0.0
  0
LINE
  5
118
330
10D
100
AcDbEntity
  8
0
  6
CONTINUOUS
 62
     5
100
AcDbLine
 10
4194.95063
 20
138.156795
 30
0.0
 11
4191.795178
 21
142.247195
 31
0.0
  0
LINE
  5
119
330
10D
100
AcDbEntity
  8
0
  6
CONTINUOUS
 62
     5
100
AcDbLine
 10
4191.795178
 20
142.247195
 30
0.0
 11
4181.665147
 21
147.884063
 31
0.0
  0
LINE
  5
11A
330
10D
100
AcDbEntity
  8
0
  6
CONTINUOUS
 62
     5
100
AcDbLine
 10
4181.665147
 20
147.884063
 30
0.0
 11
4171.312106
 21
149.088369
 31
0.0
  0
LINE
  5
11B
330
10D
100
AcDbEntity
  8
0
  6
CONTINUOUS
 62
     5
100
AcDbLine
 10
4143.878268
 20
129.020359
 30
0.0
 11
4147.09831
 21
136.466705
 31
0.0
  0
LINE
  5
11C
330
10D
100
AcDbEntity
  8
0
  6
CONTINUOUS
 62
     5
100
AcDbLine
 10
4147.042813
 20
136.338369
 30
0.0
 11
4150.318351
 21
140.290504
 31
0.0
  0
LINE
  5
11D
330
10D
100
AcDbEntity
  8
0
  6
CONTINUOUS
 62
     5
100
AcDbLine
 10
4150.318351
 20
140.290504
 30
0.0
 11
4155.274984
 21
143.838369
 31
0.0
  0
LINE
  5
11E
330
10D
100
AcDbEntity
  8
0
  6
CONTINUOUS
 62
     5
100
AcDbLine
 10
4171.312106
 20
149.088369
 30
0.0
 11
4169.034843
 21
147.938103
 31
0.0
  0
LINE
  5
11F
330
10D
100
AcDbEntity
  8
0
  6
CONTINUOUS
 62
     5
100
AcDbLine
 10
4169.034843
 20
147.938103
 30
0.0
 11
4163.802275
 21
147.938103
 31
0.0
  0
LINE
  5
120
330
10D
100
AcDbEntity
  8
0
  6
CONTINUOUS
 62
     5
100
AcDbLine
 10
4163.802275
 20
147.938103
 30
0.0
 11
4158.469081
 21
145.01994
 31
0.0
  0
LINE
  5
121
330
10D
100
AcDbEntity
  8
0
  6
CONTINUOUS
 62
     5
100
AcDbLine
 10
4158.469081
 20
145.01994
 30
0.0
 11
4155.274984
 21
143.838369
 31
0.0
  0
LINE
  5
122
330
10D
100
AcDbEntity
  8
0
  6
CONTINUOUS
 62
     5
100
AcDbLine
 10
4143.878268
 20
129.020359
 30
0.0
 11
4141.601947
 21
117.697454
 31
0.0
  0
LINE
  5
123
330
10D
100
AcDbEntity
  8
0
  6
CONTINUOUS
 62
     5
100
AcDbLine
 10
4141.601947
 20
117.697454
 30
0.0
 11
4141.312106
 21
113.838369
 31
0.0
  0
LINE
  5
124
330
10D
100
AcDbEntity
  8
0
  6
CONTINUOUS
 62
     5
100
AcDbLine
 10
4145.37618
 20
102.078696
 30
0.0
 11
4141.312106
 21
111.222862
 31
0.0
  0
LINE
  5
125
330
10D
100
AcDbEntity
  8
0
  6
CONTINUOUS
 62
     5
100
AcDbLine
 10
4141.312106
 20
111.222862
 30
0.0
 11
4141.312106
 21
113.838369
 31
0.0
  0
LINE
  5
126
330
10D
100
AcDbEntity
  8
0
  6
CONTINUOUS
 62
     5
100
AcDbLine
 10
4190.977098
 20
103.797435
 30
0.0
 11
4188.448418
 21
99.292925
 31
0.0
  0
LINE
  5
127
330
10D
100
AcDbEntity
  8
0
  6
CONTINUOUS
 62
     5
100
AcDbLine
 10
4188.448418
 20
99.292925
 30
0.0
 11
4186.312106
 21
97.314859
 31
0.0
  0
ARC
  5
128
330
10D
100
AcDbEntity
  8
0
  6
CONTINUOUS
 62
     5
100
AcDbCircle
 10
4168.024189
 20
114.64351
 30
0.0
 40
25.89993960739065
100
AcDbArc
 50
208.054813
 51
260.64047
  0
ARC
  5
129
330
10D
100
AcDbEntity
  8
0
  6
CONTINUOUS
 62
     5
100
AcDbCircle
 10
4160.234096
 20
133.757214
 30
0.0
 40
44.81191639272951
100
AcDbArc
 50
274.579659
 51
305.587364
  0
ARC
  5
12A
330
10D
100
AcDbEntity
  8
0
  6
CONTINUOUS
 62
     5
100
AcDbCircle
 10
4176.69262
 20
124.781631
 30
0.0
 40
22.63293981430998
100
AcDbArc
 50
313.467013
 51
331.085078
  0
LINE
  5
12B
330
10D
100
AcDbEntity
  8
0
  6
CONTINUOUS
 62
     5
100
AcDbLine
 10
4198.879618
 20
119.108501
 30
0.0
 11
4199.32556
 21
124.781631
 31
0.0
  0
LINE
  5
12C
330
10D
100
AcDbEntity
  8
0
  6
CONTINUOUS
 62
     5
100
AcDbLine
 10
4199.32556
 20
124.781631
 30
0.0
 11
4197.387563
 21
133.945105
 31
0.0
  0
LINE
  5
12D
330
10D
100
AcDbEntity
  8
0
  6
CONTINUOUS
 62
     5
100
AcDbLine
 10
4198.879618
 20
119.108501
 30
0.0
 11
4196.504106
 21
113.838369
 31
0.0
  0
ARC
  5
12E
330
10D
100
AcDbEntity
  8
0
  6
CONTINUOUS
 62
     5
100
AcDbCircle
 10
4176.69262
 20
124.781631
 30
0.0
 40
22.63293981430998
100
AcDbArc
 50
23.883193
 51
36.22517
  0
LINE
  5
12F
330
10D
100
AcDbEntity
  8
0
  6
CONTINUOUS
 62
     5
100
AcDbLine
 10
4117.312106
 20
166.338369
 30
0.0
 11
4118.812106
 21
167.977336
 31
0.0
  0
LINE
  5
130
330
10D
100
AcDbEntity
  8
0
  6
CONTINUOUS
 62
     5
100
AcDbLine
 10
4117.312106
 20
166.338369
 30
0.0
 11
4119.677543
 21
164.17082
 31
0.0
  0
LINE
  5
131
330
10D
100
AcDbEntity
  8
0
  6
CONTINUOUS
 62
     5
100
AcDbLine
 10
4121.986362
 20
161.006882
 30
0.0
 11
4122.025764
 21
157.754704
 31
0.0
  0
LINE
  5
132
330
10D
100
AcDbEntity
  8
0
  6
CONTINUOUS
 62
     5
100
AcDbLine
 10
4122.025764
 20
157.754704
 30
0.0
 11
4122.336861
 21
156.614015
 31
0.0
  0
LINE
  5
133
330
10D
100
AcDbEntity
  8
0
  6
CONTINUOUS
 62
     5
100
AcDbLine
 10
4122.336861
 20
156.614015
 30
0.0
 11
4123.218303
 21
155.525175
 31
0.0
  0
LINE
  5
134
330
10D
100
AcDbEntity
  8
0
  6
CONTINUOUS
 62
     5
100
AcDbLine
 10
4123.218303
 20
155.525175
 30
0.0
 11
4124.099744
 21
155.628874
 31
0.0
  0
LINE
  5
135
330
10D
100
AcDbEntity
  8
0
  6
CONTINUOUS
 62
     5
100
AcDbLine
 10
4124.099744
 20
155.628874
 30
0.0
 11
4125.033035
 21
155.888122
 31
0.0
  0
LINE
  5
136
330
10D
100
AcDbEntity
  8
0
  6
CONTINUOUS
 62
     5
100
AcDbLine
 10
4125.033035
 20
155.888122
 30
0.0
 11
4125.655229
 21
155.628874
 31
0.0
  0
LINE
  5
137
330
10D
100
AcDbEntity
  8
0
  6
CONTINUOUS
 62
     5
100
AcDbLine
 10
4125.655229
 20
155.628874
 30
0.0
 11
4127.003316
 21
154.954831
 31
0.0
  0
LINE
  5
138
330
10D
100
AcDbEntity
  8
0
  6
CONTINUOUS
 62
     5
100
AcDbLine
 10
4127.003316
 20
154.954831
 30
0.0
 11
4128.167393
 21
154.338369
 31
0.0
  0
LINE
  5
139
330
10D
100
AcDbEntity
  8
0
  6
CONTINUOUS
 62
     5
100
AcDbLine
 10
4128.167393
 20
154.338369
 30
0.0
 11
4128.921747
 21
154.384486
 31
0.0
  0
LINE
  5
13A
330
10D
100
AcDbEntity
  8
0
  6
CONTINUOUS
 62
     5
100
AcDbLine
 10
4128.921747
 20
154.384486
 30
0.0
 11
4133.133555
 21
156.554206
 31
0.0
  0
LINE
  5
13B
330
10D
100
AcDbEntity
  8
0
  6
CONTINUOUS
 62
     5
100
AcDbLine
 10
4118.812106
 20
167.977336
 30
0.0
 11
4119.311384
 21
170.187897
 31
0.0
  0
LINE
  5
13C
330
10D
100
AcDbEntity
  8
0
  6
CONTINUOUS
 62
     5
100
AcDbLine
 10
4119.311384
 20
170.187897
 30
0.0
 11
4121.491492
 21
170.413425
 31
0.0
  0
LINE
  5
13D
330
10D
100
AcDbEntity
  8
0
  6
CONTINUOUS
 62
     5
100
AcDbLine
 10
4123.732129
 20
174.566113
 30
0.0
 11
4126.363389
 21
174.801748
 31
0.0
  0
LINE
  5
13E
330
10D
100
AcDbEntity
  8
0
  6
CONTINUOUS
 62
     5
100
AcDbLine
 10
4126.363389
 20
174.801748
 30
0.0
 11
4131.66518
 21
176.058469
 31
0.0
  0
LINE
  5
13F
330
10D
100
AcDbEntity
  8
0
  6
CONTINUOUS
 62
     5
100
AcDbLine
 10
4131.66518
 20
176.058469
 30
0.0
 11
4133.812106
 21
176.555928
 31
0.0
  0
LINE
  5
140
330
10D
100
AcDbEntity
  8
0
  6
CONTINUOUS
 62
     5
100
AcDbLine
 10
4123.732129
 20
174.566113
 30
0.0
 11
4120.832793
 21
174.804415
 31
0.0
  0
LINE
  5
141
330
10D
100
AcDbEntity
  8
0
  6
CONTINUOUS
 62
     5
100
AcDbLine
 10
4119.728608
 20
173.501384
 30
0.0
 11
4119.868896
 21
172.944642
 31
0.0
  0
LINE
  5
142
330
10D
100
AcDbEntity
  8
0
  6
CONTINUOUS
 62
     5
100
AcDbLine
 10
4119.868896
 20
172.944642
 30
0.0
 11
4120.606287
 21
172.13812
 31
0.0
  0
LINE
  5
143
330
10D
100
AcDbEntity
  8
0
  6
CONTINUOUS
 62
     5
100
AcDbLine
 10
4120.606287
 20
172.13812
 30
0.0
 11
4121.6202
 21
171.377686
 31
0.0
  0
LINE
  5
144
330
10D
100
AcDbEntity
  8
0
  6
CONTINUOUS
 62
     5
100
AcDbLine
 10
4121.6202
 20
171.377686
 30
0.0
 11
4121.805187
 21
171.131036
 31
0.0
  0
LINE
  5
145
330
10D
100
AcDbEntity
  8
0
  6
CONTINUOUS
 62
     5
100
AcDbLine
 10
4119.677543
 20
164.17082
 30
0.0
 11
4121.986362
 21
161.006882
 31
0.0
  0
ARC
  5
146
330
10D
100
AcDbEntity
  8
0
  6
CONTINUOUS
 62
     5
100
AcDbCircle
 10
4186.292157
 20
-91.14961
 30
0.0
 40
271.0911950387824
100
AcDbArc
 50
80.438896
 51
96.353582
  0
ARC
  5
147
330
10D
100
AcDbEntity
  8
0
  6
CONTINUOUS
 62
     5
100
AcDbCircle
 10
4148.943787
 20
126.72224
 30
0.0
 40
52.08036253176758
100
AcDbArc
 50
81.866516
 51
106.890578
  0
LINE
  5
148
330
10D
100
AcDbEntity
  8
0
  6
CONTINUOUS
 62
     5
100
AcDbLine
 10
4237.603498
 20
174.988375
 30
0.0
 11
4240.974122
 21
173.456273
 31
0.0
  0
LINE
  5
149
330
10D
100
AcDbEntity
  8
0
  6
CONTINUOUS
 62
     5
100
AcDbLine
 10
4246.336478
 20
171.081515
 30
0.0
 11
4240.974122
 21
173.456273
 31
0.0
  0
LINE
  5
14A
330
10D
100
AcDbEntity
  8
0
  6
CONTINUOUS
 62
     5
100
AcDbLine
 10
4237.603498
 20
174.988375
 30
0.0
 11
4231.312106
 21
176.177232
 31
0.0
  0
LINE
  5
14B
330
10D
100
AcDbEntity
  8
0
  6
CONTINUOUS
 62
     5
100
AcDbLine
 10
4246.312106
 20
171.092308
 30
0.0
 11
4249.119469
 21
168.739593
 31
0.0
  0
LINE
  5
14C
330
10D
100
AcDbEntity
  8
0
  6
CONTINUOUS
 62
     5
100
AcDbLine
 10
4221.17699
 20
172.647585
 30
0.0
 11
4222.525902
 21
174.826597
 31
0.0
  0
LINE
  5
14D
330
10D
100
AcDbEntity
  8
0
  6
CONTINUOUS
 62
     5
100
AcDbLine
 10
4222.525902
 20
174.826597
 30
0.0
 11
4229.5393
 21
173.147333
 31
0.0
  0
LINE
  5
14E
330
10D
100
AcDbEntity
  8
0
  6
CONTINUOUS
 62
     5
100
AcDbLine
 10
4229.5393
 20
173.147333
 30
0.0
 11
4254.652879
 21
166.338369
 31
0.0
  0
LINE
  5
14F
330
10D
100
AcDbEntity
  8
0
  6
CONTINUOUS
 62
     5
100
AcDbLine
 10
4259.062106
 20
166.338369
 30
0.0
 11
4249.119469
 21
168.739593
 31
0.0
  0
LINE
  5
150
330
10D
100
AcDbEntity
  8
0
  6
CONTINUOUS
 62
     5
100
AcDbLine
 10
4254.652879
 20
166.338369
 30
0.0
 11
4259.062106
 21
166.338369
 31
0.0
  0
LINE
  5
151
330
10D
100
AcDbEntity
  8
0
  6
CONTINUOUS
 62
     5
100
AcDbLine
 10
4171.312106
 20
173.035781
 30
0.0
 11
4201.312106
 21
173.838369
 31
0.0
  0
LINE
  5
152
330
10D
100
AcDbEntity
  8
0
  6
CONTINUOUS
 62
     5
100
AcDbLine
 10
4201.312106
 20
173.838369
 30
0.0
 11
4221.17699
 21
172.647585
 31
0.0
  0
LINE
  5
153
330
10D
100
AcDbEntity
  8
0
  6
CONTINUOUS
 62
     5
100
AcDbLine
 10
4223.581462
 20
169.556865
 30
0.0
 11
4201.312106
 21
171.588369
 31
0.0
  0
LINE
  5
154
330
10D
100
AcDbEntity
  8
0
  6
CONTINUOUS
 62
     5
100
AcDbLine
 10
4201.312106
 20
171.588369
 30
0.0
 11
4178.738292
 21
172.201347
 31
0.0
  0
LINE
  5
155
330
10D
100
AcDbEntity
  8
0
  6
CONTINUOUS
 62
     5
100
AcDbLine
 10
4178.812106
 20
172.199343
 30
0.0
 11
4171.312106
 21
172.342284
 31
0.0
  0
LINE
  5
156
330
10D
100
AcDbEntity
  8
0
  6
CONTINUOUS
 62
     5
100
AcDbLine
 10
4171.312106
 20
173.035781
 30
0.0
 11
4171.312106
 21
172.342284
 31
0.0
  0
LINE
  5
157
330
10D
100
AcDbEntity
  8
0
  6
CONTINUOUS
 62
     5
100
AcDbLine
 10
4257.562106
 20
161.088369
 30
0.0
 11
4244.298268
 21
164.554363
 31
0.0
  0
LINE
  5
158
330
10D
100
AcDbEntity
  8
0
  6
CONTINUOUS
 62
     5
100
AcDbLine
 10
4223.581462
 20
169.556865
 30
0.0
 11
4238.812106
 21
166.59829
 31
0.0
  0
LINE
  5
159
330
10D
100
AcDbEntity
  8
0
  6
CONTINUOUS
 62
     5
100
AcDbLine
 10
4238.812106
 20
166.59829
 30
0.0
 11
4244.298268
 21
164.554363
 31
0.0
  0
LINE
  5
15A
330
10D
100
AcDbEntity
  8
0
  6
CONTINUOUS
 62
     5
100
AcDbLine
 10
4257.562106
 20
161.088369
 30
0.0
 11
4257.12318
 21
159.829711
 31
0.0
  0
LINE
  5
15B
330
10D
100
AcDbEntity
  8
0
  6
CONTINUOUS
 62
     5
100
AcDbLine
 10
4271.812106
 20
152.838369
 30
0.0
 11
4271.353065
 21
154.681841
 31
0.0
  0
LINE
  5
15C
330
10D
100
AcDbEntity
  8
0
  6
CONTINUOUS
 62
     5
100
AcDbLine
 10
4257.12318
 20
159.829711
 30
0.0
 11
4271.353065
 21
154.681841
 31
0.0
  0
LINE
  5
15D
330
10D
100
AcDbEntity
  8
0
  6
CONTINUOUS
 62
     5
100
AcDbLine
 10
4176.562106
 20
161.088369
 30
0.0
 11
4180.196663
 21
161.088369
 31
0.0
  0
LINE
  5
15E
330
10D
100
AcDbEntity
  8
0
  6
CONTINUOUS
 62
     5
100
AcDbLine
 10
4210.312106
 20
161.737113
 30
0.0
 11
4210.312106
 21
161.088369
 31
0.0
  0
LINE
  5
15F
330
10D
100
AcDbEntity
  8
0
  6
CONTINUOUS
 62
     5
100
AcDbLine
 10
4208.812106
 20
162.538774
 30
0.0
 11
4206.245187
 21
163.494542
 31
0.0
  0
LINE
  5
160
330
10D
100
AcDbEntity
  8
0
  6
CONTINUOUS
 62
     5
100
AcDbLine
 10
4206.245187
 20
163.494542
 30
0.0
 11
4204.580103
 21
163.570227
 31
0.0
  0
LINE
  5
161
330
10D
100
AcDbEntity
  8
0
  6
CONTINUOUS
 62
     5
100
AcDbLine
 10
4204.580103
 20
163.570227
 30
0.0
 11
4203.86109
 21
163.191799
 31
0.0
  0
LINE
  5
162
330
10D
100
AcDbEntity
  8
0
  6
CONTINUOUS
 62
     5
100
AcDbLine
 10
4203.86109
 20
163.191799
 30
0.0
 11
4203.709718
 21
162.586314
 31
0.0
  0
LINE
  5
163
330
10D
100
AcDbEntity
  8
0
  6
CONTINUOUS
 62
     5
100
AcDbLine
 10
4203.709718
 20
162.586314
 30
0.0
 11
4204.390889
 21
162.1322
 31
0.0
  0
LINE
  5
164
330
10D
100
AcDbEntity
  8
0
  6
CONTINUOUS
 62
     5
100
AcDbLine
 10
4204.390889
 20
162.1322
 30
0.0
 11
4206.850672
 21
161.905143
 31
0.0
  0
LINE
  5
165
330
10D
100
AcDbEntity
  8
0
  6
CONTINUOUS
 62
     5
100
AcDbLine
 10
4206.850672
 20
161.905143
 30
0.0
 11
4210.312106
 21
161.737113
 31
0.0
  0
LINE
  5
166
330
10D
100
AcDbEntity
  8
0
  6
CONTINUOUS
 62
     5
100
AcDbLine
 10
4271.812106
 20
152.838369
 30
0.0
 11
4267.348792
 21
154.618242
 31
0.0
  0
LINE
  5
167
330
10D
100
AcDbEntity
  8
0
  6
CONTINUOUS
 62
     5
100
AcDbLine
 10
4267.348792
 20
154.618242
 30
0.0
 11
4252.265258
 21
157.382555
 31
0.0
  0
LINE
  5
168
330
10D
100
AcDbEntity
  8
0
  6
CONTINUOUS
 62
     5
100
AcDbLine
 10
4252.265258
 20
157.382555
 30
0.0
 11
4244.726588
 21
159.122248
 31
0.0
  0
LINE
  5
169
330
10D
100
AcDbEntity
  8
0
  6
CONTINUOUS
 62
     5
100
AcDbLine
 10
4211.113437
 20
162.588369
 30
0.0
 11
4228.761936
 21
162.588369
 31
0.0
  0
LINE
  5
16A
330
10D
100
AcDbEntity
  8
0
  6
CONTINUOUS
 62
     5
100
AcDbLine
 10
4208.812106
 20
162.538774
 30
0.0
 11
4209.599096
 21
162.076073
 31
0.0
  0
LINE
  5
16B
330
10D
100
AcDbEntity
  8
0
  6
CONTINUOUS
 62
     5
100
AcDbLine
 10
4209.599096
 20
162.076073
 30
0.0
 11
4210.044314
 21
161.942508
 31
0.0
  0
LINE
  5
16C
330
10D
100
AcDbEntity
  8
0
  6
CONTINUOUS
 62
     5
100
AcDbLine
 10
4210.044314
 20
161.942508
 30
0.0
 11
4210.312106
 21
161.980263
 31
0.0
  0
LINE
  5
16D
330
10D
100
AcDbEntity
  8
0
  6
CONTINUOUS
 62
     5
100
AcDbLine
 10
4210.312106
 20
161.980263
 30
0.0
 11
4211.113437
 21
162.588369
 31
0.0
  0
LINE
  5
16E
330
10D
100
AcDbEntity
  8
0
  6
CONTINUOUS
 62
     5
100
AcDbLine
 10
4228.761936
 20
162.588369
 30
0.0
 11
4235.43734
 21
161.045131
 31
0.0
  0
LINE
  5
16F
330
10D
100
AcDbEntity
  8
0
  6
CONTINUOUS
 62
     5
100
AcDbLine
 10
4235.43734
 20
161.045131
 30
0.0
 11
4241.667127
 21
159.297408
 31
0.0
  0
LINE
  5
170
330
10D
100
AcDbEntity
  8
0
  6
CONTINUOUS
 62
     5
100
AcDbLine
 10
4241.667127
 20
159.297408
 30
0.0
 11
4244.726588
 21
159.122248
 31
0.0
  0
LINE
  5
171
330
10D
100
AcDbEntity
  8
0
  6
CONTINUOUS
 62
     5
100
AcDbLine
 10
4175.062106
 20
159.588369
 30
0.0
 11
4175.062106
 21
158.838369
 31
0.0
  0
LINE
  5
172
330
10D
100
AcDbEntity
  8
0
  6
CONTINUOUS
 62
     5
100
AcDbLine
 10
4171.312106
 20
158.838369
 30
0.0
 11
4175.062106
 21
158.838369
 31
0.0
  0
ARC
  5
173
330
10D
100
AcDbEntity
  8
0
  6
CONTINUOUS
 62
     5
100
AcDbCircle
 10
4176.562106
 20
159.588369
 30
0.0
 40
1.5
100
AcDbArc
 50
90.0
 51
180.0
  0
LINE
  5
174
330
10D
100
AcDbEntity
  8
0
  6
CONTINUOUS
 62
     5
100
AcDbLine
 10
4180.196663
 20
161.088369
 30
0.0
 11
4181.242998
 21
160.230375
 31
0.0
  0
LINE
  5
175
330
10D
100
AcDbEntity
  8
0
  6
CONTINUOUS
 62
     5
100
AcDbLine
 10
4182.14655
 20
160.194434
 30
0.0
 11
4183.432945
 21
161.088369
 31
0.0
  0
LINE
  5
176
330
10D
100
AcDbEntity
  8
0
  6
CONTINUOUS
 62
     5
100
AcDbLine
 10
4185.80054
 20
161.088369
 30
0.0
 11
4188.301228
 21
160.101256
 31
0.0
  0
LINE
  5
177
330
10D
100
AcDbEntity
  8
0
  6
CONTINUOUS
 62
     5
100
AcDbLine
 10
4188.936791
 20
160.141024
 30
0.0
 11
4190.667022
 21
161.088369
 31
0.0
  0
LINE
  5
178
330
10D
100
AcDbEntity
  8
0
  6
CONTINUOUS
 62
     5
100
AcDbLine
 10
4183.432945
 20
161.088369
 30
0.0
 11
4185.80054
 21
161.088369
 31
0.0
  0
LINE
  5
179
330
10D
100
AcDbEntity
  8
0
  6
CONTINUOUS
 62
     5
100
AcDbLine
 10
4190.667022
 20
161.088369
 30
0.0
 11
4210.312106
 21
161.088369
 31
0.0
  0
LINE
  5
17A
330
10D
100
AcDbEntity
  8
0
  6
CONTINUOUS
 62
     5
100
AcDbLine
 10
4139.135581
 20
156.42513
 30
0.0
 11
4171.312106
 21
158.838369
 31
0.0
  0
LINE
  5
17B
330
10D
100
AcDbEntity
  8
0
  6
CONTINUOUS
 62
     5
100
AcDbLine
 10
4133.133555
 20
156.554206
 30
0.0
 11
4139.135581
 21
156.42513
 31
0.0
  0
ARC
  5
17C
330
10D
100
AcDbEntity
  8
0
  6
CONTINUOUS
 62
     5
100
AcDbCircle
 10
4181.718558
 20
160.810325
 30
0.0
 40
0.75
100
AcDbArc
 50
230.648247
 51
304.796026
  0
ARC
  5
17D
330
10D
100
AcDbEntity
  8
0
  6
CONTINUOUS
 62
     5
100
AcDbCircle
 10
4188.576603
 20
160.798872
 30
0.0
 40
0.75
100
AcDbArc
 50
248.459024
 51
298.701829
  0
ARC
  5
17E
330
10D
100
AcDbEntity
  8
0
  6
CONTINUOUS
 62
     5
100
AcDbCircle
 10
4121.445187
 20
170.861036
 30
0.0
 40
0.45
100
AcDbArc
 50
275.906141
 51
36.869898
  0
ARC
  5
17F
330
10D
100
AcDbEntity
  8
0
  6
CONTINUOUS
 62
     5
100
AcDbCircle
 10
4120.746781
 20
173.757944
 30
0.0
 40
1.05
100
AcDbArc
 50
85.301319
 51
194.14298
  0
LINE
  5
180
330
10D
100
AcDbEntity
  8
0
  6
CONTINUOUS
 62
     3
100
AcDbLine
 10
4169.034843
 20
147.938103
 30
0.0
 11
4181.200586
 21
147.938103
 31
0.0
  0
LINE
  5
181
330
10D
100
AcDbEntity
  8
0
  6
CONTINUOUS
 62
     3
100
AcDbLine
 10
4159.416068
 20
145.538103
 30
0.0
 11
4185.881079
 21
145.538103
 31
0.0
  0
LINE
  5
182
330
10D
100
AcDbEntity
  8
0
  6
CONTINUOUS
 62
     3
100
AcDbLine
 10
4154.29666
 20
143.138103
 30
0.0
 11
4190.194126
 21
143.138103
 31
0.0
  0
LINE
  5
183
330
10D
100
AcDbEntity
  8
0
  6
CONTINUOUS
 62
     3
100
AcDbLine
 10
4150.94368
 20
140.738103
 30
0.0
 11
4192.959335
 21
140.738103
 31
0.0
  0
LINE
  5
184
330
10D
100
AcDbEntity
  8
0
  6
CONTINUOUS
 62
     3
100
AcDbLine
 10
4148.700197
 20
138.338103
 30
0.0
 11
4194.810764
 21
138.338103
 31
0.0
  0
LINE
  5
185
330
10D
100
AcDbEntity
  8
0
  6
CONTINUOUS
 62
     3
100
AcDbLine
 10
4146.869725
 20
135.938103
 30
0.0
 11
4196.384829
 21
135.938103
 31
0.0
  0
LINE
  5
186
330
10D
100
AcDbEntity
  8
0
  6
CONTINUOUS
 62
     3
100
AcDbLine
 10
4145.831887
 20
133.538103
 30
0.0
 11
4197.473641
 21
133.538103
 31
0.0
  0
LINE
  5
187
330
10D
100
AcDbEntity
  8
0
  6
CONTINUOUS
 62
     3
100
AcDbLine
 10
4144.794049
 20
131.138103
 30
0.0
 11
4197.98122
 21
131.138103
 31
0.0
  0
LINE
  5
188
330
10D
100
AcDbEntity
  8
0
  6
CONTINUOUS
 62
     3
100
AcDbLine
 10
4143.821524
 20
128.738103
 30
0.0
 11
4198.4888
 21
128.738103
 31
0.0
  0
LINE
  5
189
330
10D
100
AcDbEntity
  8
0
  6
CONTINUOUS
 62
     3
100
AcDbLine
 10
4143.339036
 20
126.338103
 30
0.0
 11
4198.996379
 21
126.338103
 31
0.0
  0
LINE
  5
18A
330
10D
100
AcDbEntity
  8
0
  6
CONTINUOUS
 62
     3
100
AcDbLine
 10
4142.856547
 20
123.938103
 30
0.0
 11
4166.241912
 21
123.938103
 31
0.0
  0
LINE
  5
18B
330
10D
100
AcDbEntity
  8
0
  6
CONTINUOUS
 62
     3
100
AcDbLine
 10
4142.374059
 20
121.538103
 30
0.0
 11
4163.943521
 21
121.538103
 31
0.0
  0
LINE
  5
18C
330
10D
100
AcDbEntity
  8
0
  6
CONTINUOUS
 62
     3
100
AcDbLine
 10
4141.891571
 20
119.138103
 30
0.0
 11
4162.761266
 21
119.138103
 31
0.0
  0
LINE
  5
18D
330
10D
100
AcDbEntity
  8
0
  6
CONTINUOUS
 62
     3
100
AcDbLine
 10
4141.529894
 20
116.738103
 30
0.0
 11
4162.283115
 21
116.738103
 31
0.0
  0
LINE
  5
18E
330
10D
100
AcDbEntity
  8
0
  6
CONTINUOUS
 62
     3
100
AcDbLine
 10
4141.349639
 20
114.338103
 30
0.0
 11
4162.358146
 21
114.338103
 31
0.0
  0
LINE
  5
18F
330
10D
100
AcDbEntity
  8
0
  6
CONTINUOUS
 62
     3
100
AcDbLine
 10
4141.312106
 20
111.938103
 30
0.0
 11
4163.177277
 21
111.938103
 31
0.0
  0
LINE
  5
190
330
10D
100
AcDbEntity
  8
0
  6
CONTINUOUS
 62
     3
100
AcDbLine
 10
4142.060888
 20
109.538103
 30
0.0
 11
4166.22228
 21
109.538103
 31
0.0
  0
LINE
  5
191
330
10D
100
AcDbEntity
  8
0
  6
CONTINUOUS
 62
     3
100
AcDbLine
 10
4143.127555
 20
107.138103
 30
0.0
 11
4191.919338
 21
107.138103
 31
0.0
  0
LINE
  5
192
330
10D
100
AcDbEntity
  8
0
  6
CONTINUOUS
 62
     3
100
AcDbLine
 10
4144.194221
 20
104.738103
 30
0.0
 11
4191.242415
 21
104.738103
 31
0.0
  0
LINE
  5
193
330
10D
100
AcDbEntity
  8
0
  6
CONTINUOUS
 62
     3
100
AcDbLine
 10
4145.260888
 20
102.338103
 30
0.0
 11
4190.157878
 21
102.338103
 31
0.0
  0
LINE
  5
194
330
10D
100
AcDbEntity
  8
0
  6
CONTINUOUS
 62
     3
100
AcDbLine
 10
4146.703826
 20
99.938103
 30
0.0
 11
4188.810599
 21
99.938103
 31
0.0
  0
LINE
  5
195
330
10D
100
AcDbEntity
  8
0
  6
CONTINUOUS
 62
     3
100
AcDbLine
 10
4148.576518
 20
97.538103
 30
0.0
 11
4186.553209
 21
97.538103
 31
0.0
  0
LINE
  5
196
330
10D
100
AcDbEntity
  8
0
  6
CONTINUOUS
 62
     3
100
AcDbLine
 10
4150.984648
 20
95.138103
 30
0.0
 11
4182.964518
 21
95.138103
 31
0.0
  0
LINE
  5
197
330
10D
100
AcDbEntity
  8
0
  6
CONTINUOUS
 62
     3
100
AcDbLine
 10
4154.205361
 20
92.738103
 30
0.0
 11
4178.276833
 21
92.738103
 31
0.0
  0
LINE
  5
198
330
10D
100
AcDbEntity
  8
0
  6
CONTINUOUS
 62
     3
100
AcDbLine
 10
4159.076897
 20
90.338103
 30
0.0
 11
4171.31961
 21
90.338103
 31
0.0
  0
LINE
  5
199
330
10D
100
AcDbEntity
  8
0
  6
CONTINUOUS
 62
     3
100
AcDbLine
 10
4174.029648
 20
123.938103
 30
0.0
 11
4199.259253
 21
123.938103
 31
0.0
  0
LINE
  5
19A
330
10D
100
AcDbEntity
  8
0
  6
CONTINUOUS
 62
     3
100
AcDbLine
 10
4175.035764
 20
121.538103
 30
0.0
 11
4199.070599
 21
121.538103
 31
0.0
  0
LINE
  5
19B
330
10D
100
AcDbEntity
  8
0
  6
CONTINUOUS
 62
     3
100
AcDbLine
 10
4175.203774
 20
119.138103
 30
0.0
 11
4198.881945
 21
119.138103
 31
0.0
  0
LINE
  5
19C
330
10D
100
AcDbEntity
  8
0
  6
CONTINUOUS
 62
     3
100
AcDbLine
 10
4174.835739
 20
116.738103
 30
0.0
 11
4197.811161
 21
116.738103
 31
0.0
  0
LINE
  5
19D
330
10D
100
AcDbEntity
  8
0
  6
CONTINUOUS
 62
     3
100
AcDbLine
 10
4173.85827
 20
114.338103
 30
0.0
 11
4196.729361
 21
114.338103
 31
0.0
  0
LINE
  5
19E
330
10D
100
AcDbEntity
  8
0
  6
CONTINUOUS
 62
     3
100
AcDbLine
 10
4172.158375
 20
111.938103
 30
0.0
 11
4195.328439
 21
111.938103
 31
0.0
  0
LINE
  5
19F
330
10D
100
AcDbEntity
  8
0
  6
CONTINUOUS
 62
     3
100
AcDbLine
 10
4168.77438
 20
109.538103
 30
0.0
 11
4193.422378
 21
109.538103
 31
0.0
  0
TEXT
  5
1A0
330
10D
100
AcDbEntity
  8
0
  6
CONTINUOUS
 62
     5
100
AcDbText
 10
4200.069867
 20
120.954866
 30
0.0
 40
7.070172
  1
M
 41
1.300704
  7
ED_VECTOR
100
AcDbText
  0
TEXT
  5
1A1
330
10D
100
AcDbEntity
  8
0
  6
CONTINUOUS
 62
     5
100
AcDbText
 10
4214.546948
 20
120.86746
 30
0.0
 40
6.939931
  1
T
 41
0.518801
  7
ED_VECTOR
100
AcDbText
  0
TEXT
  5
1A2
330
10D
100
AcDbEntity
  8
0
  6
CONTINUOUS
 62
     5
100
AcDbText
 10
4218.695292
 20
120.919658
 30
0.0
 40
7.044274
  1
E
 41
0.703702
  7
ED_VECTOR
100
AcDbText
  0
TEXT
  5
1A3
330
10D
100
AcDbEntity
  8
0
  6
CONTINUOUS
 62
     5
100
AcDbText
 10
4223.369808
 20
123.343425
 30
0.0
 40
0.522425
  1
-
 41
6.250212
  7
ED_VECTOR
100
AcDbText
  0
TEXT
  5
1A4
330
10D
100
AcDbEntity
  8
0
  6
CONTINUOUS
 62
     5
100
AcDbText
 10
4226.090633
 20
120.872638
 30
0.0
 40
7.292489
  1
H
 41
0.865668
  7
ED_VECTOR
100
AcDbText
  0
TEXT
  5
1A5
330
10D
100
AcDbEntity
  8
0
  6
CONTINUOUS
 62
     5
100
AcDbText
 10
4232.204778
 20
120.918206
 30
0.0
 40
7.264708
  1
A
 41
0.846157
  7
ED_VECTOR
100
AcDbText
  0
TEXT
  5
1A6
330
10D
100
AcDbEntity
  8
0
  6
CONTINUOUS
 62
     5
100
AcDbText
 10
4237.764134
 20
120.855916
 30
0.0
 40
7.238043
  1
N
 41
0.993429
  7
ED_VECTOR
100
AcDbText
  0
TEXT
  5
1A7
330
10D
100
AcDbEntity
  8
0
  6
CONTINUOUS
 62
     5
100
AcDbText
 10
4208.951077
 20
120.822056
 30
0.0
 40
7.473487
  1
A
 41
0.784962
  7
ED_VECTOR
100
AcDbText
  0
TEXT
  5
1A8
330
10D
100
AcDbEntity
  8
0
  6
CONTINUOUS
 62
     5
100
AcDbText
 10
4200.620022
 20
110.329197
 30
0.0
 40
7.473487
  1
A
 41
0.784962
  7
ED_VECTOR
100
AcDbText
  0
TEXT
  5
1A9
330
10D
100
AcDbEntity
  8
0
  6
CONTINUOUS
 62
     5
100
AcDbText
 10
4219.797268
 20
110.371678
 30
0.0
 40
7.473487
  1
A
 41
0.784962
  7
ED_VECTOR
100
AcDbText
  0
TEXT
  5
1AA
330
10D
100
AcDbEntity
  8
0
  6
CONTINUOUS
 62
     5
100
AcDbText
 10
4225.437962
 20
110.457173
 30
0.0
 40
7.238043
  1
N
 41
0.993429
  7
ED_VECTOR
100
AcDbText
  0
TEXT
  5
1AB
330
10D
100
AcDbEntity
  8
0
  6
CONTINUOUS
 62
     5
100
AcDbText
 10
4238.791344
 20
110.469766
 30
0.0
 40
7.262663
  1
E
 41
0.789479
  7
ED_VECTOR
100
AcDbText
  0
TEXT
  5
1AC
330
10D
100
AcDbEntity
  8
0
  6
CONTINUOUS
 62
     5
100
AcDbText
 10
4207.041096
 20
110.32721
 30
0.0
 40
7.421797
  1
D
 41
0.729328
  7
ED_VECTOR
100
AcDbText
  0
TEXT
  5
1AD
330
10D
100
AcDbEntity
  8
0
  6
CONTINUOUS
 62
     5
100
AcDbText
 10
4213.645
 20
110.319133
 30
0.0
 40
7.386315
  1
V
 41
0.818797
  7
ED_VECTOR
100
AcDbText
  0
TEXT
  5
1AE
330
10D
100
AcDbEntity
  8
0
  6
CONTINUOUS
 62
     5
100
AcDbText
 10
4231.982558
 20
110.350231
 30
0.0
 40
7.54934
  1
C
 41
0.987349
  7
ED_VECTOR
100
AcDbText
  0
LINE
  5
1AF
330
10D
100
AcDbEntity
  8
0
  6
CONTINUOUS
 62
     5
100
AcDbLine
 10
4217.928111
 20
126.940827
 30
0.0
 11
4216.410018
 21
126.940827
 31
0.0
  0
LINE
  5
1B0
330
10D
100
AcDbEntity
  8
0
  6
CONTINUOUS
 62
     3
100
AcDbLine
 10
4141.575468
 20
178.278734
 30
0.0
 11
4216.272208
 21
178.278734
 31
0.0
  0
LINE
  5
1B1
330
10D
100
AcDbEntity
  8
0
  6
CONTINUOUS
 62
     3
100
AcDbLine
 10
4130.906922
 20
175.878734
 30
0.0
 11
4232.891745
 21
175.878734
 31
0.0
  0
LINE
  5
1B2
330
10D
100
AcDbEntity
  8
0
  6
CONTINUOUS
 62
     3
100
AcDbLine
 10
4119.734315
 20
173.478734
 30
0.0
 11
4187.869281
 21
173.478734
 31
0.0
  0
LINE
  5
1B3
330
10D
100
AcDbEntity
  8
0
  6
CONTINUOUS
 62
     3
100
AcDbLine
 10
4207.311605
 20
173.478734
 30
0.0
 11
4221.691511
 21
173.478734
 31
0.0
  0
LINE
  5
1B4
330
10D
100
AcDbEntity
  8
0
  6
CONTINUOUS
 62
     3
100
AcDbLine
 10
4228.155211
 20
173.478734
 30
0.0
 11
4240.924707
 21
173.478734
 31
0.0
  0
LINE
  5
1B5
330
10D
100
AcDbEntity
  8
0
  6
CONTINUOUS
 62
     3
100
AcDbLine
 10
4121.839024
 20
171.078734
 30
0.0
 11
4206.898728
 21
171.078734
 31
0.0
  0
LINE
  5
1B6
330
10D
100
AcDbEntity
  8
0
  6
CONTINUOUS
 62
     3
100
AcDbLine
 10
4237.168936
 20
171.078734
 30
0.0
 11
4246.328303
 21
171.078734
 31
0.0
  0
LINE
  5
1B7
330
10D
100
AcDbEntity
  8
0
  6
CONTINUOUS
 62
     3
100
AcDbLine
 10
4118.970524
 20
168.678734
 30
0.0
 11
4228.10205
 21
168.678734
 31
0.0
  0
LINE
  5
1B8
330
10D
100
AcDbEntity
  8
0
  6
CONTINUOUS
 62
     3
100
AcDbLine
 10
4246.020884
 20
168.678734
 30
0.0
 11
4249.371466
 21
168.678734
 31
0.0
  0
LINE
  5
1B9
330
10D
100
AcDbEntity
  8
0
  6
CONTINUOUS
 62
     3
100
AcDbLine
 10
4117.377186
 20
166.278734
 30
0.0
 11
4239.669834
 21
166.278734
 31
0.0
  0
LINE
  5
1BA
330
10D
100
AcDbEntity
  8
0
  6
CONTINUOUS
 62
     3
100
AcDbLine
 10
4119.890686
 20
163.878734
 30
0.0
 11
4246.883797
 21
163.878734
 31
0.0
  0
LINE
  5
1BB
330
10D
100
AcDbEntity
  8
0
  6
CONTINUOUS
 62
     3
100
AcDbLine
 10
4121.642038
 20
161.478734
 30
0.0
 11
4210.312106
 21
161.478734
 31
0.0
  0
LINE
  5
1BC
330
10D
100
AcDbEntity
  8
0
  6
CONTINUOUS
 62
     3
100
AcDbLine
 10
4233.561753
 20
161.478734
 30
0.0
 11
4256.068238
 21
161.478734
 31
0.0
  0
LINE
  5
1BD
330
10D
100
AcDbEntity
  8
0
  6
CONTINUOUS
 62
     3
100
AcDbLine
 10
4122.009723
 20
159.078734
 30
0.0
 11
4175.062106
 21
159.078734
 31
0.0
  0
LINE
  5
1BE
330
10D
100
AcDbEntity
  8
0
  6
CONTINUOUS
 62
     3
100
AcDbLine
 10
4244.915147
 20
159.078734
 30
0.0
 11
4259.199051
 21
159.078734
 31
0.0
  0
LINE
  5
1BF
330
10D
100
AcDbEntity
  8
0
  6
CONTINUOUS
 62
     3
100
AcDbLine
 10
4122.31921
 20
156.678734
 30
0.0
 11
4142.516971
 21
156.678734
 31
0.0
  0
LINE
  5
1C0
330
10D
100
AcDbEntity
  8
0
  6
CONTINUOUS
 62
     3
100
AcDbLine
 10
4256.10567
 20
156.678734
 30
0.0
 11
4265.833197
 21
156.678734
 31
0.0
  0
LINE
  5
1C1
330
10D
100
AcDbEntity
  8
0
  6
CONTINUOUS
 62
     3
100
AcDbLine
 10
4268.200161
 20
154.278734
 30
0.0
 11
4271.453442
 21
154.278734
 31
0.0
  0
ENDBLK
  5
10F
330
10D
100
AcDbEntity
  8
0
100
AcDbBlockEnd
  0
BLOCK
  5
1C3
330
1C2
100
AcDbEntity
  8
0
100
AcDbBlockBegin
  2
BLKF015
 70
     0
 10
0.0
 20
0.0
 30
0.0
  3
BLKF015
  1

  0
LINE
  5
1C6
330
1C2
100
AcDbEntity
  8
0
  6
CONTINUOUS
 62
     3
100
AcDbLine
 10
1227.489527
 20
2696.823846
 30
0.0
 11
1227.489527
 21
2634.823846
 31
0.0
  0
LINE
  5
1C7
330
1C2
100
AcDbEntity
  8
0
  6
CONTINUOUS
 62
     3
100
AcDbLine
 10
1224.989527
 20
2699.323846
 30
0.0
 11
1139.989527
 21
2699.323846
 31
0.0
  0
LINE
  5
1C8
330
1C2
100
AcDbEntity
  8
0
  6
CENTER
 62
     5
100
AcDbLine
 10
1285.839166
 20
2626.823846
 30
0.0
 11
1227.489527
 21
2626.823846
 31
0.0
  0
LINE
  5
1C9
330
1C2
100
AcDbEntity
  8
0
  6
CONTINUOUS
 62
     2
100
AcDbLine
 10
1224.989527
 20
2642.823846
 30
0.0
 11
1139.989527
 21
2642.823846
 31
0.0
  0
LINE
  5
1CA
330
1C2
100
AcDbEntity
  8
0
  6
CONTINUOUS
 62
     3
100
AcDbLine
 10
1224.989527
 20
2694.323846
 30
0.0
 11
1224.989527
 21
2649.323846
 31
0.0
  0
LINE
  5
1CB
330
1C2
100
AcDbEntity
  8
0
  6
CONTINUOUS
 62
     3
100
AcDbLine
 10
1137.489527
 20
2696.823846
 30
0.0
 11
1137.489527
 21
2626.823846
 31
0.0
  0
LINE
  5
1CC
330
1C2
100
AcDbEntity
  8
0
  6
CONTINUOUS
 62
     3
100
AcDbLine
 10
1222.489527
 20
2696.823846
 30
0.0
 11
1145.489527
 21
2696.823846
 31
0.0
  0
LINE
  5
1CD
330
1C2
100
AcDbEntity
  8
0
  6
CONTINUOUS
 62
     3
100
AcDbLine
 10
1222.489527
 20
2646.823846
 30
0.0
 11
1145.489527
 21
2646.823846
 31
0.0
  0
ARC
  5
1CE
330
1C2
100
AcDbEntity
  8
0
  6
CONTINUOUS
 62
     3
100
AcDbCircle
 10
1199.557709
 20
2671.823846
 30
0.0
 40
59.56818181817743
100
AcDbArc
 50
155.185163
 51
204.814837
  0
ARC
  5
1CF
330
1C2
100
AcDbEntity
  8
0
  6
CONTINUOUS
 62
     3
100
AcDbCircle
 10
1222.489527
 20
2694.323846
 30
0.0
 40
2.5
100
AcDbArc
 50
0.0
 51
90.0
  0
ARC
  5
1D0
330
1C2
100
AcDbEntity
  8
0
  6
CONTINUOUS
 62
     3
100
AcDbCircle
 10
1222.489527
 20
2649.323846
 30
0.0
 40
2.5
100
AcDbArc
 50
270.0
 51
0.0
  0
ARC
  5
1D1
330
1C2
100
AcDbEntity
  8
0
  6
CONTINUOUS
 62
     3
100
AcDbCircle
 10
1224.989527
 20
2696.823846
 30
0.0
 40
2.5
100
AcDbArc
 50
0.0
 51
90.0
  0
ARC
  5
1D2
330
1C2
100
AcDbEntity
  8
0
  6
CONTINUOUS
 62
     3
100
AcDbCircle
 10
1139.989527
 20
2696.823846
 30
0.0
 40
2.5
100
AcDbArc
 50
90.0
 51
180.0
  0
ARC
  5
1D3
330
1C2
100
AcDbEntity
  8
0
  6
CONTINUOUS
 62
     2
100
AcDbCircle
 10
1139.989527
 20
2640.323846
 30
0.0
 40
2.5
100
AcDbArc
 50
90.0
 51
180.0
  0
ARC
  5
1D4
330
1C2
100
AcDbEntity
  8
0
  6
CONTINUOUS
 62
     2
100
AcDbCircle
 10
1224.989527
 20
2640.323846
 30
0.0
 40
2.5
100
AcDbArc
 50
0.0
 51
90.0
  0
LINE
  5
1D5
330
1C2
100
AcDbEntity
  8
0
  6
CONTINUOUS
 62
     3
100
AcDbLine
 10
1227.489527
 20
2556.823846
 30
0.0
 11
1227.489527
 21
2618.823846
 31
0.0
  0
LINE
  5
1D6
330
1C2
100
AcDbEntity
  8
0
  6
CONTINUOUS
 62
     3
100
AcDbLine
 10
1224.989527
 20
2554.323846
 30
0.0
 11
1139.989527
 21
2554.323846
 31
0.0
  0
LINE
  5
1D7
330
1C2
100
AcDbEntity
  8
0
  6
CONTINUOUS
 62
     2
100
AcDbLine
 10
1224.989527
 20
2610.823846
 30
0.0
 11
1139.989527
 21
2610.823846
 31
0.0
  0
LINE
  5
1D8
330
1C2
100
AcDbEntity
  8
0
  6
CONTINUOUS
 62
     3
100
AcDbLine
 10
1137.489527
 20
2556.823846
 30
0.0
 11
1137.489527
 21
2626.823846
 31
0.0
  0
ARC
  5
1D9
330
1C2
100
AcDbEntity
  8
0
  6
CONTINUOUS
 62
     3
100
AcDbCircle
 10
1224.989527
 20
2556.823846
 30
0.0
 40
2.5
100
AcDbArc
 50
270.0
 51
0.0
  0
ARC
  5
1DA
330
1C2
100
AcDbEntity
  8
0
  6
CONTINUOUS
 62
     3
100
AcDbCircle
 10
1139.989527
 20
2556.823846
 30
0.0
 40
2.5
100
AcDbArc
 50
180.0
 51
270.0
  0
ARC
  5
1DB
330
1C2
100
AcDbEntity
  8
0
  6
CONTINUOUS
 62
     2
100
AcDbCircle
 10
1139.989527
 20
2613.323846
 30
0.0
 40
2.5
100
AcDbArc
 50
180.0
 51
270.0
  0
ARC
  5
1DC
330
1C2
100
AcDbEntity
  8
0
  6
CONTINUOUS
 62
     2
100
AcDbCircle
 10
1224.989527
 20
2613.323846
 30
0.0
 40
2.5
100
AcDbArc
 50
270.0
 51
0.0
  0
LINE
  5
1DD
330
1C2
100
AcDbEntity
  8
0
  6
CONTINUOUS
 62
     3
100
AcDbLine
 10
1224.989527
 20
2559.323846
 30
0.0
 11
1224.989527
 21
2604.323846
 31
0.0
  0
LINE
  5
1DE
330
1C2
100
AcDbEntity
  8
0
  6
CONTINUOUS
 62
     3
100
AcDbLine
 10
1222.489527
 20
2556.823846
 30
0.0
 11
1145.489527
 21
2556.823846
 31
0.0
  0
LINE
  5
1DF
330
1C2
100
AcDbEntity
  8
0
  6
CONTINUOUS
 62
     3
100
AcDbLine
 10
1222.489527
 20
2606.823846
 30
0.0
 11
1145.489527
 21
2606.823846
 31
0.0
  0
ARC
  5
1E0
330
1C2
100
AcDbEntity
  8
0
  6
CONTINUOUS
 62
     3
100
AcDbCircle
 10
1199.557709
 20
2581.823846
 30
0.0
 40
59.56818181817743
100
AcDbArc
 50
155.185163
 51
204.814837
  0
ARC
  5
1E1
330
1C2
100
AcDbEntity
  8
0
  6
CONTINUOUS
 62
     3
100
AcDbCircle
 10
1222.489527
 20
2559.323846
 30
0.0
 40
2.5
100
AcDbArc
 50
270.0
 51
0.0
  0
ARC
  5
1E2
330
1C2
100
AcDbEntity
  8
0
  6
CONTINUOUS
 62
     3
100
AcDbCircle
 10
1222.489527
 20
2604.323846
 30
0.0
 40
2.5
100
AcDbArc
 50
0.0
 51
90.0
  0
LINE
  5
1E3
330
1C2
100
AcDbEntity
  8
0
  6
CONTINUOUS
 62
     3
100
AcDbLine
 10
1234.489527
 20
2619.823846
 30
0.0
 11
1234.489527
 21
2623.323846
 31
0.0
  0
LINE
  5
1E4
330
1C2
100
AcDbEntity
  8
0
  6
CONTINUOUS
 62
     3
100
AcDbLine
 10
1285.839166
 20
2623.323846
 30
0.0
 11
1234.489527
 21
2623.323846
 31
0.0
  0
LINE
  5
1E5
330
1C2
100
AcDbEntity
  8
0
  6
CONTINUOUS
 62
     3
100
AcDbLine
 10
1233.489527
 20
2618.823846
 30
0.0
 11
1227.489527
 21
2618.823846
 31
0.0
  0
LINE
  5
1E6
330
1C2
100
AcDbEntity
  8
0
  6
CONTINUOUS
 62
     3
100
AcDbLine
 10
1233.489527
 20
2634.823846
 30
0.0
 11
1227.489527
 21
2634.823846
 31
0.0
  0
LINE
  5
1E7
330
1C2
100
AcDbEntity
  8
0
  6
CONTINUOUS
 62
     3
100
AcDbLine
 10
1285.839166
 20
2630.323846
 30
0.0
 11
1234.489527
 21
2630.323846
 31
0.0
  0
ARC
  5
1E8
330
1C2
100
AcDbEntity
  8
0
  6
CONTINUOUS
 62
     3
100
AcDbCircle
 10
1233.489527
 20
2633.823846
 30
0.0
 40
1.0
100
AcDbArc
 50
0.0
 51
90.0
  0
ARC
  5
1E9
330
1C2
100
AcDbEntity
  8
0
  6
CONTINUOUS
 62
     3
100
AcDbCircle
 10
1233.489527
 20
2619.823846
 30
0.0
 40
1.0
100
AcDbArc
 50
270.0
 51
0.0
  0
LINE
  5
1EA
330
1C2
100
AcDbEntity
  8
0
  6
CONTINUOUS
 62
     3
100
AcDbLine
 10
1234.489527
 20
2630.323846
 30
0.0
 11
1234.489527
 21
2633.823846
 31
0.0
  0
LINE
  5
1EB
330
1C2
100
AcDbEntity
  8
0
  6
CONTINUOUS
 62
     2
100
AcDbLine
 10
1234.489527
 20
2623.323846
 30
0.0
 11
1234.489527
 21
2630.323846
 31
0.0
  0
LINE
  5
1EC
330
1C2
100
AcDbEntity
  8
0
  6
CONTINUOUS
 62
     2
100
AcDbLine
 10
1227.489527
 20
2634.823846
 30
0.0
 11
1227.489527
 21
2626.823846
 31
0.0
  0
LINE
  5
1ED
330
1C2
100
AcDbEntity
  8
0
  6
CONTINUOUS
 62
     2
100
AcDbLine
 10
1227.489527
 20
2618.823846
 30
0.0
 11
1227.489527
 21
2626.823846
 31
0.0
  0
LINE
  5
1EE
330
1C2
100
AcDbEntity
  8
0
  6
CONTINUOUS
 62
     2
100
AcDbLine
 10
1207.996515
 20
2638.986505
 30
0.0
 11
1217.131515
 21
2638.986505
 31
0.0
  0
LINE
  5
1EF
330
1C2
100
AcDbEntity
  8
0
  6
CONTINUOUS
 62
     2
100
AcDbLine
 10
1207.996515
 20
2615.361505
 30
0.0
 11
1217.131515
 21
2615.361505
 31
0.0
  0
LINE
  5
1F0
330
1C2
100
AcDbEntity
  8
0
  6
CONTINUOUS
 62
     2
100
AcDbLine
 10
1218.391515
 20
2637.726505
 30
0.0
 11
1218.391515
 21
2616.621505
 31
0.0
  0
LINE
  5
1F1
330
1C2
100
AcDbEntity
  8
0
  6
CONTINUOUS
 62
     2
100
AcDbLine
 10
1206.736515
 20
2637.726505
 30
0.0
 11
1206.736515
 21
2616.621505
 31
0.0
  0
LINE
  5
1F2
330
1C2
100
AcDbEntity
  8
0
  6
CONTINUOUS
 62
     2
100
AcDbLine
 10
1208.626515
 20
2617.251505
 30
0.0
 11
1216.659015
 21
2617.251505
 31
0.0
  0
LINE
  5
1F3
330
1C2
100
AcDbEntity
  8
0
  6
CONTINUOUS
 62
     2
100
AcDbLine
 10
1208.626515
 20
2620.401505
 30
0.0
 11
1209.571515
 21
2620.401505
 31
0.0
  0
LINE
  5
1F4
330
1C2
100
AcDbEntity
  8
0
  6
CONTINUOUS
 62
     2
100
AcDbLine
 10
1208.626515
 20
2629.064005
 30
0.0
 11
1209.571515
 21
2629.064005
 31
0.0
  0
LINE
  5
1F5
330
1C2
100
AcDbEntity
  8
0
  6
CONTINUOUS
 62
     2
100
AcDbLine
 10
1208.626515
 20
2633.631505
 30
0.0
 11
1213.666515
 21
2633.631505
 31
0.0
  0
LINE
  5
1F6
330
1C2
100
AcDbEntity
  8
0
  6
CONTINUOUS
 62
     2
100
AcDbLine
 10
1207.524015
 20
2632.529005
 30
0.0
 11
1207.524015
 21
2630.166505
 31
0.0
  0
LINE
  5
1F7
330
1C2
100
AcDbEntity
  8
0
  6
CONTINUOUS
 62
     2
100
AcDbLine
 10
1214.769015
 20
2632.529005
 30
0.0
 11
1214.769015
 21
2630.166505
 31
0.0
  0
LINE
  5
1F8
330
1C2
100
AcDbEntity
  8
0
  6
CONTINUOUS
 62
     2
100
AcDbLine
 10
1217.761515
 20
2619.299005
 30
0.0
 11
1217.761515
 21
2618.354005
 31
0.0
  0
LINE
  5
1F9
330
1C2
100
AcDbEntity
  8
0
  6
CONTINUOUS
 62
     2
100
AcDbLine
 10
1210.516515
 20
2628.119005
 30
0.0
 11
1210.516515
 21
2621.346505
 31
0.0
  0
LINE
  5
1FA
330
1C2
100
AcDbEntity
  8
0
  6
CONTINUOUS
 62
     2
100
AcDbLine
 10
1211.304015
 20
2628.119005
 30
0.0
 11
1211.304015
 21
2621.346505
 31
0.0
  0
ARC
  5
1FB
330
1C2
100
AcDbEntity
  8
0
  6
CONTINUOUS
 62
     2
100
AcDbCircle
 10
1208.626515
 20
2632.529005
 30
0.0
 40
1.1025
100
AcDbArc
 50
90.0
 51
180.0
  0
ARC
  5
1FC
330
1C2
100
AcDbEntity
  8
0
  6
CONTINUOUS
 62
     2
100
AcDbCircle
 10
1213.666515
 20
2632.529005
 30
0.0
 40
1.1025
100
AcDbArc
 50
0.0
 51
90.0
  0
ARC
  5
1FD
330
1C2
100
AcDbEntity
  8
0
  6
CONTINUOUS
 62
     2
100
AcDbCircle
 10
1213.666515
 20
2630.166505
 30
0.0
 40
1.1025
100
AcDbArc
 50
270.0
 51
0.0
  0
ARC
  5
1FE
330
1C2
100
AcDbEntity
  8
0
  6
CONTINUOUS
 62
     2
100
AcDbCircle
 10
1208.626515
 20
2630.166505
 30
0.0
 40
1.1025
100
AcDbArc
 50
180.0
 51
270.0
  0
ARC
  5
1FF
330
1C2
100
AcDbEntity
  8
0
  6
CONTINUOUS
 62
     2
100
AcDbCircle
 10
1216.659015
 20
2619.299005
 30
0.0
 40
1.1025
100
AcDbArc
 50
0.0
 51
90.0
  0
ARC
  5
200
330
1C2
100
AcDbEntity
  8
0
  6
CONTINUOUS
 62
     2
100
AcDbCircle
 10
1216.659015
 20
2618.354005
 30
0.0
 40
1.1025
100
AcDbArc
 50
270.0
 51
0.0
  0
ARC
  5
201
330
1C2
100
AcDbEntity
  8
0
  6
CONTINUOUS
 62
     2
100
AcDbCircle
 10
1208.626515
 20
2618.354005
 30
0.0
 40
1.1025
100
AcDbArc
 50
180.0
 51
270.0
  0
ARC
  5
202
330
1C2
100
AcDbEntity
  8
0
  6
CONTINUOUS
 62
     2
100
AcDbCircle
 10
1208.626515
 20
2619.299005
 30
0.0
 40
1.1025
100
AcDbArc
 50
90.0
 51
180.0
  0
LINE
  5
203
330
1C2
100
AcDbEntity
  8
0
  6
CONTINUOUS
 62
     2
100
AcDbLine
 10
1212.249015
 20
2629.064005
 30
0.0
 11
1213.666515
 21
2629.064005
 31
0.0
  0
LINE
  5
204
330
1C2
100
AcDbEntity
  8
0
  6
CONTINUOUS
 62
     2
100
AcDbLine
 10
1212.249015
 20
2620.401505
 30
0.0
 11
1216.659015
 21
2620.401505
 31
0.0
  0
ARC
  5
205
330
1C2
100
AcDbEntity
  8
0
  6
CONTINUOUS
 62
     2
100
AcDbCircle
 10
1209.571515
 20
2628.119005
 30
0.0
 40
0.945
100
AcDbArc
 50
0.0
 51
90.0
  0
ARC
  5
206
330
1C2
100
AcDbEntity
  8
0
  6
CONTINUOUS
 62
     2
100
AcDbCircle
 10
1212.249015
 20
2628.119005
 30
0.0
 40
0.945
100
AcDbArc
 50
90.0
 51
180.0
  0
ARC
  5
207
330
1C2
100
AcDbEntity
  8
0
  6
CONTINUOUS
 62
     2
100
AcDbCircle
 10
1212.249015
 20
2621.346505
 30
0.0
 40
0.945
100
AcDbArc
 50
180.0
 51
270.0
  0
ARC
  5
208
330
1C2
100
AcDbEntity
  8
0
  6
CONTINUOUS
 62
     2
100
AcDbCircle
 10
1207.996515
 20
2637.726505
 30
0.0
 40
1.26
100
AcDbArc
 50
90.0
 51
180.0
  0
ARC
  5
209
330
1C2
100
AcDbEntity
  8
0
  6
CONTINUOUS
 62
     2
100
AcDbCircle
 10
1217.131515
 20
2637.726505
 30
0.0
 40
1.26
100
AcDbArc
 50
0.0
 51
90.0
  0
ARC
  5
20A
330
1C2
100
AcDbEntity
  8
0
  6
CONTINUOUS
 62
     2
100
AcDbCircle
 10
1217.131515
 20
2616.621505
 30
0.0
 40
1.26
100
AcDbArc
 50
270.0
 51
0.0
  0
ARC
  5
20B
330
1C2
100
AcDbEntity
  8
0
  6
CONTINUOUS
 62
     2
100
AcDbCircle
 10
1207.996515
 20
2616.621505
 30
0.0
 40
1.26
100
AcDbArc
 50
180.0
 51
270.0
  0
ARC
  5
20C
330
1C2
100
AcDbEntity
  8
0
  6
CONTINUOUS
 62
     2
100
AcDbCircle
 10
1209.571515
 20
2621.346505
 30
0.0
 40
0.945
100
AcDbArc
 50
270.0
 51
0.0
  0
LINE
  5
20D
330
1C2
100
AcDbEntity
  8
0
  6
CONTINUOUS
 62
     2
100
AcDbLine
 10
1207.524015
 20
2619.299005
 30
0.0
 11
1207.524015
 21
2618.354005
 31
0.0
  0
CIRCLE
  5
20E
330
1C2
100
AcDbEntity
  8
0
  6
CONTINUOUS
 62
     2
100
AcDbCircle
 10
1192.989527
 20
2676.823846
 30
0.0
 40
2.5
  0
CIRCLE
  5
20F
330
1C2
100
AcDbEntity
  8
0
  6
CONTINUOUS
 62
     2
100
AcDbCircle
 10
1192.989527
 20
2686.823846
 30
0.0
 40
2.5
  0
CIRCLE
  5
210
330
1C2
100
AcDbEntity
  8
0
  6
CONTINUOUS
 62
     2
100
AcDbCircle
 10
1182.989527
 20
2686.823846
 30
0.0
 40
2.5
  0
CIRCLE
  5
211
330
1C2
100
AcDbEntity
  8
0
  6
CONTINUOUS
 62
     2
100
AcDbCircle
 10
1182.989527
 20
2676.823846
 30
0.0
 40
2.5
  0
CIRCLE
  5
212
330
1C2
100
AcDbEntity
  8
0
  6
CONTINUOUS
 62
     2
100
AcDbCircle
 10
1172.989527
 20
2676.823846
 30
0.0
 40
2.5
  0
CIRCLE
  5
213
330
1C2
100
AcDbEntity
  8
0
  6
CONTINUOUS
 62
     2
100
AcDbCircle
 10
1172.989527
 20
2686.823846
 30
0.0
 40
2.5
  0
CIRCLE
  5
214
330
1C2
100
AcDbEntity
  8
0
  6
CONTINUOUS
 62
     2
100
AcDbCircle
 10
1162.989527
 20
2686.823846
 30
0.0
 40
2.5
  0
CIRCLE
  5
215
330
1C2
100
AcDbEntity
  8
0
  6
CONTINUOUS
 62
     2
100
AcDbCircle
 10
1162.989527
 20
2676.823846
 30
0.0
 40
2.5
  0
CIRCLE
  5
216
330
1C2
100
AcDbEntity
  8
0
  6
CONTINUOUS
 62
     2
100
AcDbCircle
 10
1152.989527
 20
2676.823846
 30
0.0
 40
2.5
  0
CIRCLE
  5
217
330
1C2
100
AcDbEntity
  8
0
  6
CONTINUOUS
 62
     2
100
AcDbCircle
 10
1152.989527
 20
2686.823846
 30
0.0
 40
2.5
  0
CIRCLE
  5
218
330
1C2
100
AcDbEntity
  8
0
  6
CONTINUOUS
 62
     2
100
AcDbCircle
 10
1192.989527
 20
2666.823846
 30
0.0
 40
2.5
  0
CIRCLE
  5
219
330
1C2
100
AcDbEntity
  8
0
  6
CONTINUOUS
 62
     2
100
AcDbCircle
 10
1192.989527
 20
2656.823846
 30
0.0
 40
2.5
  0
CIRCLE
  5
21A
330
1C2
100
AcDbEntity
  8
0
  6
CONTINUOUS
 62
     2
100
AcDbCircle
 10
1182.989527
 20
2656.823846
 30
0.0
 40
2.5
  0
CIRCLE
  5
21B
330
1C2
100
AcDbEntity
  8
0
  6
CONTINUOUS
 62
     2
100
AcDbCircle
 10
1182.989527
 20
2666.823846
 30
0.0
 40
2.5
  0
CIRCLE
  5
21C
330
1C2
100
AcDbEntity
  8
0
  6
CONTINUOUS
 62
     2
100
AcDbCircle
 10
1172.989527
 20
2666.823846
 30
0.0
 40
2.5
  0
CIRCLE
  5
21D
330
1C2
100
AcDbEntity
  8
0
  6
CONTINUOUS
 62
     2
100
AcDbCircle
 10
1172.989527
 20
2656.823846
 30
0.0
 40
2.5
  0
CIRCLE
  5
21E
330
1C2
100
AcDbEntity
  8
0
  6
CONTINUOUS
 62
     2
100
AcDbCircle
 10
1162.989527
 20
2656.823846
 30
0.0
 40
2.5
  0
CIRCLE
  5
21F
330
1C2
100
AcDbEntity
  8
0
  6
CONTINUOUS
 62
     2
100
AcDbCircle
 10
1162.989527
 20
2666.823846
 30
0.0
 40
2.5
  0
CIRCLE
  5
220
330
1C2
100
AcDbEntity
  8
0
  6
CONTINUOUS
 62
     2
100
AcDbCircle
 10
1152.989527
 20
2666.823846
 30
0.0
 40
2.5
  0
CIRCLE
  5
221
330
1C2
100
AcDbEntity
  8
0
  6
CONTINUOUS
 62
     2
100
AcDbCircle
 10
1152.989527
 20
2656.823846
 30
0.0
 40
2.5
  0
CIRCLE
  5
222
330
1C2
100
AcDbEntity
  8
0
  6
CONTINUOUS
 62
     2
100
AcDbCircle
 10
1192.989527
 20
2576.823846
 30
0.0
 40
2.5
  0
CIRCLE
  5
223
330
1C2
100
AcDbEntity
  8
0
  6
CONTINUOUS
 62
     2
100
AcDbCircle
 10
1192.989527
 20
2566.823846
 30
0.0
 40
2.5
  0
CIRCLE
  5
224
330
1C2
100
AcDbEntity
  8
0
  6
CONTINUOUS
 62
     2
100
AcDbCircle
 10
1182.989527
 20
2566.823846
 30
0.0
 40
2.5
  0
CIRCLE
  5
225
330
1C2
100
AcDbEntity
  8
0
  6
CONTINUOUS
 62
     2
100
AcDbCircle
 10
1182.989527
 20
2576.823846
 30
0.0
 40
2.5
  0
CIRCLE
  5
226
330
1C2
100
AcDbEntity
  8
0
  6
CONTINUOUS
 62
     2
100
AcDbCircle
 10
1172.989527
 20
2576.823846
 30
0.0
 40
2.5
  0
CIRCLE
  5
227
330
1C2
100
AcDbEntity
  8
0
  6
CONTINUOUS
 62
     2
100
AcDbCircle
 10
1172.989527
 20
2566.823846
 30
0.0
 40
2.5
  0
CIRCLE
  5
228
330
1C2
100
AcDbEntity
  8
0
  6
CONTINUOUS
 62
     2
100
AcDbCircle
 10
1162.989527
 20
2566.823846
 30
0.0
 40
2.5
  0
CIRCLE
  5
229
330
1C2
100
AcDbEntity
  8
0
  6
CONTINUOUS
 62
     2
100
AcDbCircle
 10
1162.989527
 20
2576.823846
 30
0.0
 40
2.5
  0
CIRCLE
  5
22A
330
1C2
100
AcDbEntity
  8
0
  6
CONTINUOUS
 62
     2
100
AcDbCircle
 10
1152.989527
 20
2576.823846
 30
0.0
 40
2.5
  0
CIRCLE
  5
22B
330
1C2
100
AcDbEntity
  8
0
  6
CONTINUOUS
 62
     2
100
AcDbCircle
 10
1152.989527
 20
2566.823846
 30
0.0
 40
2.5
  0
CIRCLE
  5
22C
330
1C2
100
AcDbEntity
  8
0
  6
CONTINUOUS
 62
     2
100
AcDbCircle
 10
1192.989527
 20
2586.823846
 30
0.0
 40
2.5
  0
CIRCLE
  5
22D
330
1C2
100
AcDbEntity
  8
0
  6
CONTINUOUS
 62
     2
100
AcDbCircle
 10
1192.989527
 20
2596.823846
 30
0.0
 40
2.5
  0
CIRCLE
  5
22E
330
1C2
100
AcDbEntity
  8
0
  6
CONTINUOUS
 62
     2
100
AcDbCircle
 10
1182.989527
 20
2596.823846
 30
0.0
 40
2.5
  0
CIRCLE
  5
22F
330
1C2
100
AcDbEntity
  8
0
  6
CONTINUOUS
 62
     2
100
AcDbCircle
 10
1182.989527
 20
2586.823846
 30
0.0
 40
2.5
  0
CIRCLE
  5
230
330
1C2
100
AcDbEntity
  8
0
  6
CONTINUOUS
 62
     2
100
AcDbCircle
 10
1172.989527
 20
2586.823846
 30
0.0
 40
2.5
  0
CIRCLE
  5
231
330
1C2
100
AcDbEntity
  8
0
  6
CONTINUOUS
 62
     2
100
AcDbCircle
 10
1172.989527
 20
2596.823846
 30
0.0
 40
2.5
  0
CIRCLE
  5
232
330
1C2
100
AcDbEntity
  8
0
  6
CONTINUOUS
 62
     2
100
AcDbCircle
 10
1162.989527
 20
2596.823846
 30
0.0
 40
2.5
  0
CIRCLE
  5
233
330
1C2
100
AcDbEntity
  8
0
  6
CONTINUOUS
 62
     2
100
AcDbCircle
 10
1162.989527
 20
2586.823846
 30
0.0
 40
2.5
  0
CIRCLE
  5
234
330
1C2
100
AcDbEntity
  8
0
  6
CONTINUOUS
 62
     2
100
AcDbCircle
 10
1152.989527
 20
2586.823846
 30
0.0
 40
2.5
  0
CIRCLE
  5
235
330
1C2
100
AcDbEntity
  8
0
  6
CONTINUOUS
 62
     2
100
AcDbCircle
 10
1152.989527
 20
2596.823846
 30
0.0
 40
2.5
  0
LINE
  5
236
330
1C2
100
AcDbEntity
  8
0
  6
CONTINUOUS
 62
     2
100
AcDbLine
 10
1218.989527
 20
2599.323846
 30
0.0
 11
1218.989527
 21
2564.323846
 31
0.0
  0
LINE
  5
237
330
1C2
100
AcDbEntity
  8
0
  6
CONTINUOUS
 62
     2
100
AcDbLine
 10
1202.989527
 20
2599.323846
 30
0.0
 11
1202.989527
 21
2564.323846
 31
0.0
  0
LINE
  5
238
330
1C2
100
AcDbEntity
  8
0
  6
CONTINUOUS
 62
     2
100
AcDbLine
 10
1217.489527
 20
2600.823846
 30
0.0
 11
1204.489527
 21
2600.823846
 31
0.0
  0
LINE
  5
239
330
1C2
100
AcDbEntity
  8
0
  6
CONTINUOUS
 62
     2
100
AcDbLine
 10
1217.989527
 20
2599.323846
 30
0.0
 11
1217.989527
 21
2564.323846
 31
0.0
  0
LINE
  5
23A
330
1C2
100
AcDbEntity
  8
0
  6
CONTINUOUS
 62
     2
100
AcDbLine
 10
1203.989527
 20
2599.323846
 30
0.0
 11
1203.989527
 21
2564.323846
 31
0.0
  0
LINE
  5
23B
330
1C2
100
AcDbEntity
  8
0
  6
CONTINUOUS
 62
     2
100
AcDbLine
 10
1217.489527
 20
2599.823846
 30
0.0
 11
1204.489527
 21
2599.823846
 31
0.0
  0
LINE
  5
23C
330
1C2
100
AcDbEntity
  8
0
  6
CONTINUOUS
 62
     2
100
AcDbLine
 10
1217.489527
 20
2562.823846
 30
0.0
 11
1204.489527
 21
2562.823846
 31
0.0
  0
LINE
  5
23D
330
1C2
100
AcDbEntity
  8
0
  6
CONTINUOUS
 62
     2
100
AcDbLine
 10
1217.489527
 20
2563.823846
 30
0.0
 11
1204.489527
 21
2563.823846
 31
0.0
  0
ARC
  5
23E
330
1C2
100
AcDbEntity
  8
0
  6
CONTINUOUS
 62
     2
100
AcDbCircle
 10
1217.489527
 20
2599.323846
 30
0.0
 40
0.5
100
AcDbArc
 50
0.0
 51
90.0
  0
ARC
  5
23F
330
1C2
100
AcDbEntity
  8
0
  6
CONTINUOUS
 62
     2
100
AcDbCircle
 10
1204.489527
 20
2599.323846
 30
0.0
 40
0.5
100
AcDbArc
 50
90.0
 51
180.0
  0
ARC
  5
240
330
1C2
100
AcDbEntity
  8
0
  6
CONTINUOUS
 62
     2
100
AcDbCircle
 10
1217.489527
 20
2564.323846
 30
0.0
 40
0.5
100
AcDbArc
 50
270.0
 51
0.0
  0
ARC
  5
241
330
1C2
100
AcDbEntity
  8
0
  6
CONTINUOUS
 62
     2
100
AcDbCircle
 10
1204.489527
 20
2564.323846
 30
0.0
 40
0.5
100
AcDbArc
 50
180.0
 51
270.0
  0
ARC
  5
242
330
1C2
100
AcDbEntity
  8
0
  6
CONTINUOUS
 62
     2
100
AcDbCircle
 10
1217.489527
 20
2599.323846
 30
0.0
 40
1.5
100
AcDbArc
 50
0.0
 51
90.0
  0
ARC
  5
243
330
1C2
100
AcDbEntity
  8
0
  6
CONTINUOUS
 62
     2
100
AcDbCircle
 10
1204.489527
 20
2599.323846
 30
0.0
 40
1.5
100
AcDbArc
 50
90.0
 51
180.0
  0
ARC
  5
244
330
1C2
100
AcDbEntity
  8
0
  6
CONTINUOUS
 62
     2
100
AcDbCircle
 10
1217.489527
 20
2564.323846
 30
0.0
 40
1.5
100
AcDbArc
 50
270.0
 51
0.0
  0
ARC
  5
245
330
1C2
100
AcDbEntity
  8
0
  6
CONTINUOUS
 62
     2
100
AcDbCircle
 10
1204.489527
 20
2564.323846
 30
0.0
 40
1.5
100
AcDbArc
 50
180.0
 51
270.0
  0
LINE
  5
246
330
1C2
100
AcDbEntity
  8
0
  6
CONTINUOUS
 62
     2
100
AcDbLine
 10
1213.989527
 20
2590.823846
 30
0.0
 11
1213.989527
 21
2572.823846
 31
0.0
  0
LINE
  5
247
330
1C2
100
AcDbEntity
  8
0
  6
CONTINUOUS
 62
     2
100
AcDbLine
 10
1217.067599
 20
2581.823846
 30
0.0
 11
1213.989527
 21
2572.823846
 31
0.0
  0
LINE
  5
248
330
1C2
100
AcDbEntity
  8
0
  6
CONTINUOUS
 62
     2
100
AcDbLine
 10
1217.067599
 20
2581.823846
 30
0.0
 11
1213.989527
 21
2590.823846
 31
0.0
  0
TEXT
  5
249
330
1C2
100
AcDbEntity
  8
0
  6
CONTINUOUS
 62
     2
100
AcDbText
 10
1205.695487
 20
2590.804131
 30
0.0
 40
7.066058
  1
UP
 50
270.0
 41
1.166654
  7
ED_VECTOR
100
AcDbText
  0
LINE
  5
24A
330
1C2
100
AcDbEntity
  8
0
  6
CONTINUOUS
 62
     2
100
AcDbLine
 10
1218.989527
 20
2654.323846
 30
0.0
 11
1218.989527
 21
2689.323846
 31
0.0
  0
LINE
  5
24B
330
1C2
100
AcDbEntity
  8
0
  6
CONTINUOUS
 62
     2
100
AcDbLine
 10
1202.989527
 20
2654.323846
 30
0.0
 11
1202.989527
 21
2689.323846
 31
0.0
  0
LINE
  5
24C
330
1C2
100
AcDbEntity
  8
0
  6
CONTINUOUS
 62
     2
100
AcDbLine
 10
1217.489527
 20
2652.823846
 30
0.0
 11
1204.489527
 21
2652.823846
 31
0.0
  0
LINE
  5
24D
330
1C2
100
AcDbEntity
  8
0
  6
CONTINUOUS
 62
     2
100
AcDbLine
 10
1217.989527
 20
2654.323846
 30
0.0
 11
1217.989527
 21
2689.323846
 31
0.0
  0
LINE
  5
24E
330
1C2
100
AcDbEntity
  8
0
  6
CONTINUOUS
 62
     2
100
AcDbLine
 10
1203.989527
 20
2654.323846
 30
0.0
 11
1203.989527
 21
2689.323846
 31
0.0
  0
LINE
  5
24F
330
1C2
100
AcDbEntity
  8
0
  6
CONTINUOUS
 62
     2
100
AcDbLine
 10
1217.489527
 20
2653.823846
 30
0.0
 11
1204.489527
 21
2653.823846
 31
0.0
  0
LINE
  5
250
330
1C2
100
AcDbEntity
  8
0
  6
CONTINUOUS
 62
     2
100
AcDbLine
 10
1217.489527
 20
2690.823846
 30
0.0
 11
1204.489527
 21
2690.823846
 31
0.0
  0
LINE
  5
251
330
1C2
100
AcDbEntity
  8
0
  6
CONTINUOUS
 62
     2
100
AcDbLine
 10
1217.489527
 20
2689.823846
 30
0.0
 11
1204.489527
 21
2689.823846
 31
0.0
  0
ARC
  5
252
330
1C2
100
AcDbEntity
  8
0
  6
CONTINUOUS
 62
     2
100
AcDbCircle
 10
1217.489527
 20
2654.323846
 30
0.0
 40
0.5
100
AcDbArc
 50
270.0
 51
0.0
  0
ARC
  5
253
330
1C2
100
AcDbEntity
  8
0
  6
CONTINUOUS
 62
     2
100
AcDbCircle
 10
1204.489527
 20
2654.323846
 30
0.0
 40
0.5
100
AcDbArc
 50
180.0
 51
270.0
  0
ARC
  5
254
330
1C2
100
AcDbEntity
  8
0
  6
CONTINUOUS
 62
     2
100
AcDbCircle
 10
1217.489527
 20
2689.323846
 30
0.0
 40
0.5
100
AcDbArc
 50
0.0
 51
90.0
  0
ARC
  5
255
330
1C2
100
AcDbEntity
  8
0
  6
CONTINUOUS
 62
     2
100
AcDbCircle
 10
1204.489527
 20
2689.323846
 30
0.0
 40
0.5
100
AcDbArc
 50
90.0
 51
180.0
  0
ARC
  5
256
330
1C2
100
AcDbEntity
  8
0
  6
CONTINUOUS
 62
     2
100
AcDbCircle
 10
1217.489527
 20
2654.323846
 30
0.0
 40
1.5
100
AcDbArc
 50
270.0
 51
0.0
  0
ARC
  5
257
330
1C2
100
AcDbEntity
  8
0
  6
CONTINUOUS
 62
     2
100
AcDbCircle
 10
1204.489527
 20
2654.323846
 30
0.0
 40
1.5
100
AcDbArc
 50
180.0
 51
270.0
  0
ARC
  5
258
330
1C2
100
AcDbEntity
  8
0
  6
CONTINUOUS
 62
     2
100
AcDbCircle
 10
1217.489527
 20
2689.323846
 30
0.0
 40
1.5
100
AcDbArc
 50
0.0
 51
90.0
  0
ARC
  5
259
330
1C2
100
AcDbEntity
  8
0
  6
CONTINUOUS
 62
     2
100
AcDbCircle
 10
1204.489527
 20
2689.323846
 30
0.0
 40
1.5
100
AcDbArc
 50
90.0
 51
180.0
  0
LINE
  5
25A
330
1C2
100
AcDbEntity
  8
0
  6
CONTINUOUS
 62
     2
100
AcDbLine
 10
1208.516596
 20
2662.823846
 30
0.0
 11
1208.516596
 21
2680.823846
 31
0.0
  0
LINE
  5
25B
330
1C2
100
AcDbEntity
  8
0
  6
CONTINUOUS
 62
     2
100
AcDbLine
 10
1205.438524
 20
2671.823846
 30
0.0
 11
1208.516596
 21
2680.823846
 31
0.0
  0
LINE
  5
25C
330
1C2
100
AcDbEntity
  8
0
  6
CONTINUOUS
 62
     2
100
AcDbLine
 10
1205.438524
 20
2671.823846
 30
0.0
 11
1208.516596
 21
2662.823846
 31
0.0
  0
TEXT
  5
25D
330
1C2
100
AcDbEntity
  8
0
  6
CONTINUOUS
 62
     2
100
AcDbText
 10
1210.126694
 20
2686.521699
 30
0.0
 40
6.383575
  1
DOWN
 50
270.0
 41
0.969444
  7
ED_VECTOR
100
AcDbText
  0
ENDBLK
  5
1C4
330
1C2
100
AcDbEntity
  8
0
100
AcDbBlockEnd
  0
BLOCK
  5
458
330
457
100
AcDbEntity
  8
0
100
AcDbBlockBegin
  2
*D13
 70
     1
 10
0.0
 20
0.0
 30
0.0
  3
*D13
  1

  0
TEXT
  5
45A
330
457
100
AcDbEntity
  8
0
  6
CONTINUOUS
 62
     3
100
AcDbText
 10
2314.489502
 20
1997.709839
 30
0.0
 40
60.0
  1
1500
 41
0.75
  7
ED_VECTOR
100
AcDbText
  0
LINE
  5
45B
330
457
100
AcDbEntity
  8
0
  6
CONTINUOUS
 62
     5
100
AcDbLine
 10
1654.489527
 20
1847.710162
 30
0.0
 11
1654.489527
 21
1997.710162
 31
0.0
  0
LINE
  5
45C
330
457
100
AcDbEntity
  8
0
  6
CONTINUOUS
 62
     5
100
AcDbLine
 10
3154.489527
 20
1847.710162
 30
0.0
 11
3154.489527
 21
1997.710162
 31
0.0
  0
LINE
  5
45D
330
457
100
AcDbEntity
  8
0
  6
CONTINUOUS
 62
     5
100
AcDbLine
 10
1654.489527
 20
1982.710162
 30
0.0
 11
3154.489527
 21
1982.710162
 31
0.0
  0
INSERT
  5
45E
330
457
100
AcDbEntity
  8
0
  6
CONTINUOUS
 62
     5
100
AcDbBlockReference
  2
EDTIP_ARROW_S
 10
1654.489527
 20
1982.710162
 30
0.0
 41
45.0
 42
45.0
 50
180.0
  0
INSERT
  5
45F
330
457
100
AcDbEntity
  8
0
  6
CONTINUOUS
 62
     5
100
AcDbBlockReference
  2
EDTIP_ARROW_E
 10
3154.489527
 20
1982.710162
 30
0.0
 41
45.0
 42
45.0
  0
ENDBLK
  5
459
330
457
100
AcDbEntity
  8
0
100
AcDbBlockEnd
  0
BLOCK
  5
46E
330
46D
100
AcDbEntity
  8
0
100
AcDbBlockBegin
  2
*D14
 70
     1
 10
0.0
 20
0.0
 30
0.0
  3
*D14
  1

  0
TEXT
  5
470
330
46D
100
AcDbEntity
  8
0
  6
CONTINUOUS
 62
     3
100
AcDbText
 10
3289.489502
 20
640.210022
 30
0.0
 40
60.0
  1
250
 50
90.0
 41
0.75
  7
ED_VECTOR
100
AcDbText
  0
LINE
  5
471
330
46D
100
AcDbEntity
  8
0
  6
CONTINUOUS
 62
     5
100
AcDbLine
 10
3169.489527
 20
832.710162
 30
0.0
 11
3319.489527
 21
832.710162
 31
0.0
  0
LINE
  5
472
330
46D
100
AcDbEntity
  8
0
  6
CONTINUOUS
 62
     5
100
AcDbLine
 10
3304.489527
 20
582.710162
 30
0.0
 11
3304.489527
 21
832.710162
 31
0.0
  0
INSERT
  5
473
330
46D
100
AcDbEntity
  8
0
  6
CONTINUOUS
 62
     5
100
AcDbBlockReference
  2
EDTIP_ARROW_S
 10
3304.489527
 20
582.710162
 30
0.0
 41
45.0
 42
45.0
 50
270.0
  0
INSERT
  5
474
330
46D
100
AcDbEntity
  8
0
  6
CONTINUOUS
 62
     5
100
AcDbBlockReference
  2
EDTIP_ARROW_E
 10
3304.489527
 20
832.710162
 30
0.0
 41
45.0
 42
45.0
 50
90.0
  0
ENDBLK
  5
46F
330
46D
100
AcDbEntity
  8
0
100
AcDbBlockEnd
  0
BLOCK
  5
477
330
476
100
AcDbEntity
  8
0
100
AcDbBlockBegin
  2
*D15
 70
     1
 10
0.0
 20
0.0
 30
0.0
  3
*D15
  1

  0
TEXT
  5
479
330
476
100
AcDbEntity
  8
0
  6
CONTINUOUS
 62
     3
100
AcDbText
 10
3289.489502
 20
1242.709961
 30
0.0
 40
60.0
  1
1000
 50
90.0
 41
0.75
  7
ED_VECTOR
100
AcDbText
  0
LINE
  5
47A
330
476
100
AcDbEntity
  8
0
  6
CONTINUOUS
 62
     5
100
AcDbLine
 10
3304.489527
 20
832.710162
 30
0.0
 11
3304.489527
 21
1832.710162
 31
0.0
  0
INSERT
  5
47B
330
476
100
AcDbEntity
  8
0
  6
CONTINUOUS
 62
     5
100
AcDbBlockReference
  2
EDTIP_ARROW_S
 10
3304.489527
 20
832.710162
 30
0.0
 41
45.0
 42
45.0
 50
270.0
  0
INSERT
  5
47C
330
476
100
AcDbEntity
  8
0
  6
CONTINUOUS
 62
     5
100
AcDbBlockReference
  2
EDTIP_ARROW_E
 10
3304.489527
 20
1832.710162
 30
0.0
 41
45.0
 42
45.0
 50
90.0
  0
ENDBLK
  5
478
330
476
100
AcDbEntity
  8
0
100
AcDbBlockEnd
  0
BLOCK
  5
47F
330
47E
100
AcDbEntity
  8
0
100
AcDbBlockBegin
  2
*D16
 70
     1
 10
0.0
 20
0.0
 30
0.0
  3
*D16
  1

  0
TEXT
  5
481
330
47E
100
AcDbEntity
  8
0
  6
CONTINUOUS
 62
     3
100
AcDbText
 10
3439.489502
 20
1117.709961
 30
0.0
 40
60.0
  1
1250
 50
90.0
 41
0.75
  7
ED_VECTOR
100
AcDbText
  0
LINE
  5
482
330
47E
100
AcDbEntity
  8
0
  6
CONTINUOUS
 62
     5
100
AcDbLine
 10
3169.489527
 20
1832.710162
 30
0.0
 11
3469.489527
 21
1832.710162
 31
0.0
  0
LINE
  5
483
330
47E
100
AcDbEntity
  8
0
  6
CONTINUOUS
 62
     5
100
AcDbLine
 10
3454.489527
 20
582.710162
 30
0.0
 11
3454.489527
 21
1832.710162
 31
0.0
  0
INSERT
  5
484
330
47E
100
AcDbEntity
  8
0
  6
CONTINUOUS
 62
     5
100
AcDbBlockReference
  2
EDTIP_ARROW_S
 10
3454.489527
 20
582.710162
 30
0.0
 41
45.0
 42
45.0
 50
270.0
  0
INSERT
  5
485
330
47E
100
AcDbEntity
  8
0
  6
CONTINUOUS
 62
     5
100
AcDbBlockReference
  2
EDTIP_ARROW_E
 10
3454.489527
 20
1832.710162
 30
0.0
 41
45.0
 42
45.0
 50
90.0
  0
ENDBLK
  5
480
330
47E
100
AcDbEntity
  8
0
100
AcDbBlockEnd
  0
BLOCK
  5
488
330
487
100
AcDbEntity
  8
0
100
AcDbBlockBegin
  2
*D17
 70
     1
 10
0.0
 20
0.0
 30
0.0
  3
*D17
  1

  0
TEXT
  5
48A
330
487
100
AcDbEntity
  8
0
  6
CONTINUOUS
 62
     3
100
AcDbText
 10
2314.689453
 20
447.710022
 30
0.0
 40
60.0
  1
1500
 41
0.75
  7
ED_VECTOR
100
AcDbText
  0
LINE
  5
48B
330
487
100
AcDbEntity
  8
0
  6
CONTINUOUS
 62
     5
100
AcDbLine
 10
1654.689527
 20
567.710162
 30
0.0
 11
1654.689527
 21
417.710162
 31
0.0
  0
LINE
  5
48C
330
487
100
AcDbEntity
  8
0
  6
CONTINUOUS
 62
     5
100
AcDbLine
 10
3154.689527
 20
567.710162
 30
0.0
 11
3154.689527
 21
417.710162
 31
0.0
  0
LINE
  5
48D
330
487
100
AcDbEntity
  8
0
  6
CONTINUOUS
 62
     5
100
AcDbLine
 10
1654.689527
 20
432.710162
 30
0.0
 11
3154.689527
 21
432.710162
 31
0.0
  0
INSERT
  5
48E
330
487
100
AcDbEntity
  8
0
  6
CONTINUOUS
 62
     5
100
AcDbBlockReference
  2
EDTIP_ARROW_S
 10
1654.689527
 20
432.710162
 30
0.0
 41
45.0
 42
45.0
 50
180.0
  0
INSERT
  5
48F
330
487
100
AcDbEntity
  8
0
  6
CONTINUOUS
 62
     5
100
AcDbBlockReference
  2
EDTIP_ARROW_E
 10
3154.689527
 20
432.710162
 30
0.0
 41
45.0
 42
45.0
  0
ENDBLK
  5
489
330
487
100
AcDbEntity
  8
0
100
AcDbBlockEnd
  0
ENDSEC
  0
SECTION
  2
ENTITIES
  0
LINE
  5
EE
330
1F
100
AcDbEntity
  8
0
  6
CONTINUOUS
 62
     3
100
AcDbLine
 10
180.707488
 20
3599.85054
 30
0.0
 11
180.707488
 21
75.393795
 31
0.0
  0
LINE
  5
EF
330
1F
100
AcDbEntity
  8
0
  6
CONTINUOUS
 62
     3
100
AcDbLine
 10
5161.512127
 20
3599.85054
 30
0.0
 11
180.707488
 21
3599.85054
 31
0.0
  0
LINE
  5
F0
330
1F
100
AcDbEntity
  8
0
  6
CONTINUOUS
 62
     3
100
AcDbLine
 10
5161.512127
 20
75.393795
 30
0.0
 11
180.707488
 21
75.393795
 31
0.0
  0
LINE
  5
F1
330
1F
100
AcDbEntity
  8
0
  6
CONTINUOUS
 62
     3
100
AcDbLine
 10
5161.512127
 20
75.393795
 30
0.0
 11
5161.512127
 21
3599.85054
 31
0.0
  0
LINE
  5
F2
330
1F
100
AcDbEntity
  8
0
  6
CONTINUOUS
 62
     5
100
AcDbLine
 10
105.707488
 20
1815.393795
 30
0.0
 11
30.707488
 21
1815.393795
 31
0.0
  0
LINE
  5
F3
330
1F
100
AcDbEntity
  8
0
  6
CONTINUOUS
 62
     5
100
AcDbLine
 10
3961.512127
 20
735.393795
 30
0.0
 11
5161.512127
 21
735.393795
 31
0.0
  0
LINE
  5
F4
330
1F
100
AcDbEntity
  8
0
  6
CONTINUOUS
 62
     5
100
AcDbLine
 10
3961.512127
 20
195.393795
 30
0.0
 11
5161.512127
 21
195.393795
 31
0.0
  0
LINE
  5
F5
330
1F
100
AcDbEntity
  8
0
  6
CONTINUOUS
 62
     5
100
AcDbLine
 10
3961.512127
 20
435.393795
 30
0.0
 11
5161.512127
 21
435.393795
 31
0.0
  0
LINE
  5
F6
330
1F
100
AcDbEntity
  8
0
  6
CONTINUOUS
 62
     5
100
AcDbLine
 10
3961.512127
 20
525.393795
 30
0.0
 11
5161.512127
 21
525.393795
 31
0.0
  0
LINE
  5
F7
330
1F
100
AcDbEntity
  8
0
  6
CONTINUOUS
 62
     5
100
AcDbLine
 10
3961.512127
 20
615.393795
 30
0.0
 11
5161.512127
 21
615.393795
 31
0.0
  0
LINE
  5
F8
330
1F
100
AcDbEntity
  8
0
  6
CONTINUOUS
 62
     5
100
AcDbLine
 10
3961.512127
 20
855.393795
 30
0.0
 11
5161.512127
 21
855.393795
 31
0.0
  0
LINE
  5
F9
330
1F
100
AcDbEntity
  8
0
  6
CONTINUOUS
 62
     5
100
AcDbLine
 10
3961.512127
 20
975.393795
 30
0.0
 11
3961.512127
 21
75.393795
 31
0.0
  0
LINE
  5
FA
330
1F
100
AcDbEntity
  8
0
  6
CONTINUOUS
 62
     5
100
AcDbLine
 10
4261.512127
 20
975.393795
 30
0.0
 11
4261.512127
 21
615.393795
 31
0.0
  0
LINE
  5
FB
330
1F
100
AcDbEntity
  8
0
  6
CONTINUOUS
 62
     5
100
AcDbLine
 10
3961.512127
 20
975.393795
 30
0.0
 11
5161.512127
 21
975.393795
 31
0.0
  0
LINE
  5
FC
330
1F
100
AcDbEntity
  8
0
  6
CONTINUOUS
 62
     5
100
AcDbLine
 10
4711.512127
 20
615.393795
 30
0.0
 11
4711.512127
 21
195.393795
 31
0.0
  0
TEXT
  5
FD
330
1F
100
AcDbEntity
  8
0
  6
CONTINUOUS
 62
     3
100
AcDbText
 10
4291.048678
 20
88.237877
 30
0.0
 40
89.070541
  1
東正車輌株式会社
 41
0.788955
  7
ED_VECTOR
100
AcDbText
  0
LINE
  5
FE
330
1F
100
AcDbEntity
  8
0
  6
CONTINUOUS
 62
     5
100
AcDbLine
 10
4336.512127
 20
525.393795
 30
0.0
 11
4336.512127
 21
195.393795
 31
0.0
  0
TEXT
  5
FF
330
1F
100
AcDbEntity
  8
0
  6
CONTINUOUS
 62
     5
100
AcDbText
 10
4006.511719
 20
877.893738
 30
0.0
 40
75.0
  1
品　名
 41
0.8
  7
ED_VECTOR
100
AcDbText
  0
TEXT
  5
100
330
1F
100
AcDbEntity
  8
0
  6
CONTINUOUS
 62
     5
100
AcDbText
 10
4006.511719
 20
757.893738
 30
0.0
 40
75.0
  1
型　式
 41
0.8
  7
ED_VECTOR
100
AcDbText
  0
TEXT
  5
101
330
1F
100
AcDbEntity
  8
0
  6
CONTINUOUS
 62
     5
100
AcDbText
 10
3969.011719
 20
637.893799
 30
0.0
 40
75.0
  1
図面番号
 41
0.8
  7
ED_VECTOR
100
AcDbText
  0
TEXT
  5
102
330
1F
100
AcDbEntity
  8
0
  6
CONTINUOUS
 62
     5
100
AcDbText
 10
4066.511719
 20
532.893799
 30
0.0
 40
75.0
  1
平成１３年３月７日
 41
0.8
  7
ED_VECTOR
100
AcDbText
  0
TEXT
  5
103
330
1F
100
AcDbEntity
  8
0
  6
CONTINUOUS
 62
     5
100
AcDbText
 10
4831.511719
 20
532.893799
 30
0.0
 40
75.0
  1
Ｂ－４
 41
0.8
  7
ED_VECTOR
100
AcDbText
  0
TEXT
  5
104
330
1F
100
AcDbEntity
  8
0
  6
CONTINUOUS
 62
     5
100
AcDbText
 10
4044.011719
 20
442.893799
 30
0.0
 40
75.0
  1
検　図
 41
0.8
  7
ED_VECTOR
100
AcDbText
  0
TEXT
  5
105
330
1F
100
AcDbEntity
  8
0
  6
CONTINUOUS
 62
     5
100
AcDbText
 10
4419.011719
 20
442.893799
 30
0.0
 40
75.0
  1
作　図
 41
0.8
  7
ED_VECTOR
100
AcDbText
  0
TEXT
  5
106
330
1F
100
AcDbEntity
  8
0
  6
CONTINUOUS
 62
     5
100
AcDbText
 10
4831.511719
 20
442.893799
 30
0.0
 40
75.0
  1
尺　度
 41
0.8
  7
ED_VECTOR
100
AcDbText
  0
TEXT
  5
107
330
1F
100
AcDbEntity
  8
0
  6
CONTINUOUS
 62
     5
100
AcDbText
 10
4982.620117
 20
217.121689
 30
0.0
 40
75.0
  1
１５
 41
0.8
  7
ED_VECTOR
100
AcDbText
  0
TEXT
  5
108
330
1F
100
AcDbEntity
  8
0
  6
CONTINUOUS
 62
     5
100
AcDbText
 10
4952.140625
 20
288.678741
 30
0.0
 40
75.0
  1
／
 41
0.8
  7
ED_VECTOR
100
AcDbText
  0
TEXT
  5
109
330
1F
100
AcDbEntity
  8
0
  6
CONTINUOUS
 62
     5
100
AcDbText
 10
4906.821289
 20
341.1539
 30
0.0
 40
75.0
  1
１
 41
0.8
  7
ED_VECTOR
100
AcDbText
  0
TEXT
  5
10A
330
1F
100
AcDbEntity
  8
0
  6
CONTINUOUS
 62
     3
100
AcDbText
 10
4471.511719
 20
877.893738
 30
0.0
 40
75.0
  1
ゴールドリフター
 41
0.8
  7
ED_VECTOR
100
AcDbText
  0
TEXT
  5
10B
330
1F
100
AcDbEntity
  8
0
  6
CONTINUOUS
 62
     3
100
AcDbText
 10
4321.511719
 20
757.893738
 30
0.0
 40
75.0
  1
ＧＬＥ－２０００－０８１５
 41
0.8
  7
ED_VECTOR
100
AcDbText
  0
TEXT
  5
10C
330
1F
100
AcDbEntity
  8
0
  6
CONTINUOUS
 62
     3
100
AcDbText
 10
4561.511719
 20
637.893799
 30
0.0
 40
75.0
  1
GT-46
 41
0.8
  7
ED_VECTOR
100
AcDbText
  0
INSERT
  5
110
330
1F
100
AcDbEntity
  8
0
100
AcDbBlockReference
  2
BLKF014
 10
0.0
 20
0.0
 30
0.0
  0
INSERT
  5
1C5
330
1F
100
AcDbEntity
  8
0
100
AcDbBlockReference
  2
BLKF015
 10
0.0
 20
0.0
 30
0.0
  0
LINE
  5
25E
330
1F
100
AcDbEntity
  8
0
  6
CONTINUOUS
 62
     3
100
AcDbLine
 10
3788.03871
 20
582.710162
 30
0.0
 11
335.594678
 21
582.710162
 31
0.0
  0
LINE
  5
25F
330
1F
100
AcDbEntity
  8
0
  6
CONTINUOUS
 62
     3
100
AcDbLine
 10
1084.189527
 20
1400.983823
 30
0.0
 11
1084.189527
 21
1358.7585
 31
0.0
  0
LINE
  5
260
330
1F
100
AcDbEntity
  8
0
  6
CONTINUOUS
 62
     3
100
AcDbLine
 10
1084.189527
 20
1393.7585
 30
0.0
 11
1099.189527
 21
1393.7585
 31
0.0
  0
LINE
  5
261
330
1F
100
AcDbEntity
  8
0
  6
CONTINUOUS
 62
     3
100
AcDbLine
 10
1084.189527
 20
1358.7585
 30
0.0
 11
1099.189527
 21
1358.7585
 31
0.0
  0
LINE
  5
262
330
1F
100
AcDbEntity
  8
0
  6
CONTINUOUS
 62
     3
100
AcDbLine
 10
1095.189527
 20
1358.7585
 30
0.0
 11
1095.189527
 21
1226.575167
 31
0.0
  0
LINE
  5
263
330
1F
100
AcDbEntity
  8
0
  6
CONTINUOUS
 62
     3
100
AcDbLine
 10
1045.189527
 20
1358.7585
 30
0.0
 11
1045.189527
 21
1226.575167
 31
0.0
  0
ARC
  5
264
330
1F
100
AcDbEntity
  8
0
  6
CONTINUOUS
 62
     3
100
AcDbCircle
 10
1070.189527
 20
1124.102404
 30
0.0
 40
37.56065185633052
100
AcDbArc
 50
228.272384
 51
311.727616
  0
LINE
  5
265
330
1F
100
AcDbEntity
  8
0
  6
CONTINUOUS
 62
     3
100
AcDbLine
 10
1103.689527
 20
1094.65401
 30
0.0
 11
1103.689527
 21
1040.642758
 31
0.0
  0
LINE
  5
266
330
1F
100
AcDbEntity
  8
0
  6
CONTINUOUS
 62
     3
100
AcDbLine
 10
1036.689527
 20
1094.65401
 30
0.0
 11
1036.689527
 21
1040.498048
 31
0.0
  0
ARC
  5
267
330
1F
100
AcDbEntity
  8
0
  6
CONTINUOUS
 62
     3
100
AcDbCircle
 10
1070.189527
 20
1132.217118
 30
0.0
 40
50.3312734874868
100
AcDbArc
 50
228.272384
 51
311.727616
  0
ARC
  5
268
330
1F
100
AcDbEntity
  8
0
  6
CONTINUOUS
 62
     3
100
AcDbCircle
 10
1070.189527
 20
1057.090902
 30
0.0
 40
50.3312734874868
100
AcDbArc
 50
48.272384
 51
60.217488
  0
ARC
  5
269
330
1F
100
AcDbEntity
  8
0
  6
CONTINUOUS
 62
     3
100
AcDbCircle
 10
1070.189527
 20
1057.090902
 30
0.0
 40
50.3312734874868
100
AcDbArc
 50
119.782512
 51
131.727616
  0
LINE
  5
26A
330
1F
100
AcDbEntity
  8
0
  6
CONTINUOUS
 62
     3
100
AcDbLine
 10
1105.189527
 20
1039.210099
 30
0.0
 11
1105.189527
 21
1017.486315
 31
0.0
  0
LINE
  5
26B
330
1F
100
AcDbEntity
  8
0
  6
CONTINUOUS
 62
     3
100
AcDbLine
 10
1035.189527
 20
1039.210099
 30
0.0
 11
1035.189527
 21
1017.486315
 31
0.0
  0
ARC
  5
26C
330
1F
100
AcDbEntity
  8
0
  6
CONTINUOUS
 62
     3
100
AcDbCircle
 10
1070.189527
 20
1078.205866
 30
0.0
 40
50.3312734874868
100
AcDbArc
 50
228.272384
 51
311.599006
  0
ARC
  5
26D
330
1F
100
AcDbEntity
  8
0
  6
CONTINUOUS
 62
     3
100
AcDbCircle
 10
1070.189527
 20
1078.44883
 30
0.0
 40
52.58491259886457
100
AcDbArc
 50
228.272384
 51
311.727616
  0
ARC
  5
26E
330
1F
100
AcDbEntity
  8
0
  6
CONTINUOUS
 62
     3
100
AcDbCircle
 10
1070.189527
 20
1056.731353
 30
0.0
 40
52.58491259886457
100
AcDbArc
 50
228.272384
 51
270.0
  0
ARC
  5
26F
330
1F
100
AcDbEntity
  8
0
  6
CONTINUOUS
 62
     3
100
AcDbCircle
 10
1070.189527
 20
999.965061
 30
0.0
 40
52.58491259886457
100
AcDbArc
 50
48.272384
 51
50.4267
  0
ARC
  5
270
330
1F
100
AcDbEntity
  8
0
  6
CONTINUOUS
 62
     3
100
AcDbCircle
 10
1070.189527
 20
999.965061
 30
0.0
 40
52.58491259886457
100
AcDbArc
 50
129.5733
 51
131.732779
  0
LINE
  5
271
330
1F
100
AcDbEntity
  8
0
  6
CONTINUOUS
 62
     3
100
AcDbLine
 10
1056.189527
 20
1400.983823
 30
0.0
 11
1056.189527
 21
1358.7585
 31
0.0
  0
LINE
  5
272
330
1F
100
AcDbEntity
  8
0
  6
CONTINUOUS
 62
     3
100
AcDbLine
 10
1056.189527
 20
1393.7585
 30
0.0
 11
1041.189527
 21
1393.7585
 31
0.0
  0
LINE
  5
273
330
1F
100
AcDbEntity
  8
0
  6
CONTINUOUS
 62
     3
100
AcDbLine
 10
1056.189527
 20
1358.7585
 30
0.0
 11
1041.189527
 21
1358.7585
 31
0.0
  0
TEXT
  5
274
330
1F
100
AcDbEntity
  8
0
  6
CONTINUOUS
 62
     3
100
AcDbText
 10
458.371155
 20
2814.382324
 30
0.0
 40
75.0
  1
コード長サ２ｍ
 41
0.8
  7
ED_VECTOR
100
AcDbText
  0
TEXT
  5
275
330
1F
100
AcDbEntity
  8
0
  6
CONTINUOUS
 62
     3
100
AcDbText
 10
458.371155
 20
2915.954102
 30
0.0
 40
75.0
  1
フットスイッチ
 41
0.8
  7
ED_VECTOR
100
AcDbText
  0
LINE
  5
276
330
1F
100
AcDbEntity
  8
0
  6
CONTINUOUS
 62
     3
100
AcDbLine
 10
1507.49001
 20
2630.323846
 30
0.0
 11
1234.489527
 21
2630.323846
 31
0.0
  0
LINE
  5
277
330
1F
100
AcDbEntity
  8
0
  6
CONTINUOUS
 62
     3
100
AcDbLine
 10
1508.022647
 20
2623.323846
 30
0.0
 11
1234.489527
 21
2623.323846
 31
0.0
  0
ARC
  5
278
330
1F
100
AcDbEntity
  8
0
  6
CONTINUOUS
 62
     3
100
AcDbCircle
 10
1501.18525
 20
2669.823846
 30
0.0
 40
40.0
100
AcDbArc
 50
0.0
 51
243.817766
  0
ARC
  5
279
330
1F
100
AcDbEntity
  8
0
  6
CONTINUOUS
 62
     3
100
AcDbCircle
 10
1501.18525
 20
2669.823846
 30
0.0
 40
47.0
100
AcDbArc
 50
0.0
 51
229.860785
  0
ARC
  5
27A
330
1F
100
AcDbEntity
  8
0
  6
CONTINUOUS
 62
     3
100
AcDbCircle
 10
1501.18525
 20
2669.823846
 30
0.0
 40
47.0
100
AcDbArc
 50
278.364875
 51
0.0
  0
ARC
  5
27B
330
1F
100
AcDbEntity
  8
0
  6
CONTINUOUS
 62
     3
100
AcDbCircle
 10
1501.18525
 20
2669.823846
 30
0.0
 40
40.0
100
AcDbArc
 50
279.068722
 51
0.0
  0
LINE
  5
27C
330
1F
100
AcDbEntity
  8
0
  6
CONTINUOUS
 62
     3
100
AcDbLine
 10
1654.489527
 20
2630.323846
 30
0.0
 11
1531.176866
 21
2630.323846
 31
0.0
  0
LINE
  5
27D
330
1F
100
AcDbEntity
  8
0
  6
CONTINUOUS
 62
     3
100
AcDbLine
 10
1654.489527
 20
2623.323846
 30
0.0
 11
1520.469975
 21
2623.323846
 31
0.0
  0
LINE
  5
27E
330
1F
100
AcDbEntity
  8
0
  6
CONTINUOUS
 62
     3
100
AcDbLine
 10
1654.489527
 20
2608.323846
 30
0.0
 11
1465.710548
 21
2608.323846
 31
0.0
  0
TEXT
  5
27F
330
1F
100
AcDbEntity
  8
0
  6
CONTINUOUS
 62
     3
100
AcDbText
 10
608.224426
 20
2519.243652
 30
0.0
 40
75.0
  1
電源コード
 41
0.8
  7
ED_VECTOR
100
AcDbText
  0
TEXT
  5
280
330
1F
100
AcDbEntity
  8
0
  6
CONTINUOUS
 62
     3
100
AcDbText
 10
654.394348
 20
2414.122559
 30
0.0
 40
75.0
  1
長サ４ｍ
 41
0.8
  7
ED_VECTOR
100
AcDbText
  0
LINE
  5
281
330
1F
100
AcDbEntity
  8
0
  6
CONTINUOUS
 62
     5
100
AcDbLine
 10
443.147038
 20
2903.442797
 30
0.0
 11
1014.995449
 21
2903.442797
 31
0.0
  0
LINE
  5
282
330
1F
100
AcDbEntity
  8
0
  6
CONTINUOUS
 62
     5
100
AcDbLine
 10
588.818978
 20
2505.752336
 30
0.0
 11
1051.061886
 21
2505.752336
 31
0.0
  0
LINE
  5
283
330
1F
100
AcDbEntity
  8
0
  6
CONTINUOUS
 62
     3
100
AcDbLine
 10
1229.092022
 20
2454.711606
 30
0.0
 11
1224.021394
 21
2452.801889
 31
0.0
  0
LINE
  5
284
330
1F
100
AcDbEntity
  8
0
  6
CONTINUOUS
 62
     3
100
AcDbLine
 10
1224.021394
 20
2452.801889
 30
0.0
 11
1217.596762
 21
2452.623427
 31
0.0
  0
LINE
  5
285
330
1F
100
AcDbEntity
  8
0
  6
CONTINUOUS
 62
     3
100
AcDbLine
 10
1230.146352
 20
2453.322504
 30
0.0
 11
1224.497292
 21
2450.957782
 31
0.0
  0
LINE
  5
286
330
1F
100
AcDbEntity
  8
0
  6
CONTINUOUS
 62
     3
100
AcDbLine
 10
1224.497292
 20
2450.957782
 30
0.0
 11
1219.143433
 21
2449.649061
 31
0.0
  0
LINE
  5
287
330
1F
100
AcDbEntity
  8
0
  6
CONTINUOUS
 62
     3
100
AcDbLine
 10
1230.988547
 20
2452.212895
 30
0.0
 11
1226.10345
 21
2449.351624
 31
0.0
  0
LINE
  5
288
330
1F
100
AcDbEntity
  8
0
  6
CONTINUOUS
 62
     3
100
AcDbLine
 10
1226.10345
 20
2449.351624
 30
0.0
 11
1223.783444
 21
2446.020334
 31
0.0
  0
ARC
  5
289
330
1F
100
AcDbEntity
  8
0
  6
CONTINUOUS
 62
     3
100
AcDbCircle
 10
1444.057399
 20
2561.323846
 30
0.0
 40
47.0
100
AcDbArc
 50
0.0
 51
127.198537
  0
ARC
  5
28A
330
1F
100
AcDbEntity
  8
0
  6
CONTINUOUS
 62
     3
100
AcDbCircle
 10
1444.057399
 20
2561.323846
 30
0.0
 40
40.0
100
AcDbArc
 50
0.0
 51
127.198537
  0
LINE
  5
28B
330
1F
100
AcDbEntity
  8
0
  6
CONTINUOUS
 62
     3
100
AcDbLine
 10
1227.908268
 20
2456.271227
 30
0.0
 11
1415.642196
 21
2598.761477
 31
0.0
  0
LINE
  5
28C
330
1F
100
AcDbEntity
  8
0
  6
CONTINUOUS
 62
     3
100
AcDbLine
 10
1232.14032
 20
2450.695409
 30
0.0
 11
1419.874248
 21
2593.18566
 31
0.0
  0
LINE
  5
28D
330
1F
100
AcDbEntity
  8
0
  6
CONTINUOUS
 62
     3
100
AcDbLine
 10
1227.908268
 20
2456.271227
 30
0.0
 11
1232.14032
 21
2450.695409
 31
0.0
  0
ARC
  5
28E
330
1F
100
AcDbEntity
  8
0
  6
CONTINUOUS
 62
     3
100
AcDbCircle
 10
1444.057399
 20
2561.323846
 30
0.0
 40
40.0
100
AcDbArc
 50
156.528943
 51
0.0
  0
ARC
  5
28F
330
1F
100
AcDbEntity
  8
0
  6
CONTINUOUS
 62
     3
100
AcDbCircle
 10
1444.057399
 20
2561.323846
 30
0.0
 40
47.0
100
AcDbArc
 50
169.243604
 51
0.0
  0
TEXT
  5
290
330
1F
100
AcDbEntity
  8
0
  6
CONTINUOUS
 62
     3
100
AcDbText
 10
3578.315918
 20
601.108459
 30
0.0
 40
75.0
  1
F.L
 41
0.8
  7
ED_VECTOR
100
AcDbText
  0
LINE
  5
291
330
1F
100
AcDbEntity
  8
0
  6
CONTINUOUS
 62
     3
100
AcDbLine
 10
1099.189527
 20
1396.258503
 30
0.0
 11
1099.189527
 21
1203.280569
 31
0.0
  0
LINE
  5
292
330
1F
100
AcDbEntity
  8
0
  6
CONTINUOUS
 62
     3
100
AcDbLine
 10
1041.189527
 20
1396.258503
 30
0.0
 11
1041.189527
 21
1203.280569
 31
0.0
  0
LINE
  5
293
330
1F
100
AcDbEntity
  8
0
  6
CONTINUOUS
 62
     3
100
AcDbLine
 10
1032.189527
 20
1396.258503
 30
0.0
 11
1032.189527
 21
1203.280569
 31
0.0
  0
LINE
  5
294
330
1F
100
AcDbEntity
  8
0
  6
CONTINUOUS
 62
     5
100
AcDbLine
 10
1015.471621
 20
1376.2585
 30
0.0
 11
1115.189527
 21
1376.2585
 31
0.0
  0
LINE
  5
295
330
1F
100
AcDbEntity
  8
0
  6
CENTER
 62
     5
100
AcDbLine
 10
1070.189527
 20
1422.468386
 30
0.0
 11
1070.189527
 21
682.710162
 31
0.0
  0
LINE
  5
296
330
1F
100
AcDbEntity
  8
0
  6
CONTINUOUS
 62
     3
100
AcDbLine
 10
1654.489527
 20
2601.323846
 30
0.0
 11
1475.592339
 21
2601.323846
 31
0.0
  0
LINE
  5
297
330
1F
100
AcDbEntity
  8
0
  6
CONTINUOUS
 62
     5
100
AcDbLine
 10
1213.430735
 20
2453.414976
 30
0.0
 11
1051.061886
 21
2505.752336
 31
0.0
  0
INSERT
  5
298
330
1F
100
AcDbEntity
  8
0
  6
CONTINUOUS
 62
     5
100
AcDbBlockReference
  2
EDTIP_ARROW_S
 10
1213.430735
 20
2453.414976
 30
0.0
 41
45.0
 42
45.0
 50
342.133989
  0
LINE
  5
299
330
1F
100
AcDbEntity
  8
0
  6
CONTINUOUS
 62
     5
100
AcDbLine
 10
1178.519315
 20
2699.323846
 30
0.0
 11
1014.995449
 21
2903.442797
 31
0.0
  0
INSERT
  5
29A
330
1F
100
AcDbEntity
  8
0
  6
CONTINUOUS
 62
     5
100
AcDbBlockReference
  2
EDTIP_ARROW_S
 10
1178.519315
 20
2699.323846
 30
0.0
 41
45.0
 42
45.0
 50
308.698931
  0
LINE
  5
29B
330
1F
100
AcDbEntity
  8
0
  6
CONTINUOUS
 62
     5
100
AcDbLine
 10
3304.489527
 20
2325.323846
 30
0.0
 11
3304.489527
 21
3125.323846
 31
0.0
  0
INSERT
  5
29C
330
1F
100
AcDbEntity
  8
0
  6
CONTINUOUS
 62
     5
100
AcDbBlockReference
  2
EDTIP_ARROW_S
 10
3304.489527
 20
2325.323846
 30
0.0
 41
45.0
 42
45.0
 50
270.0
  0
INSERT
  5
29D
330
1F
100
AcDbEntity
  8
0
  6
CONTINUOUS
 62
     5
100
AcDbBlockReference
  2
EDTIP_ARROW_E
 10
3304.489527
 20
3125.323846
 30
0.0
 41
45.0
 42
45.0
 50
90.0
  0
TEXT
  5
29E
330
1F
100
AcDbEntity
  8
0
  6
CONTINUOUS
 62
     3
100
AcDbText
 10
3291.126709
 20
2663.791992
 30
0.0
 40
60.0
  1
800
 50
90.0
 41
0.75
  7
ED_VECTOR
100
AcDbText
  0
LINE
  5
29F
330
1F
100
AcDbEntity
  8
0
  6
CONTINUOUS
 62
     5
100
AcDbLine
 10
479.689527
 20
432.710162
 30
0.0
 11
1229.689527
 21
432.710162
 31
0.0
  0
INSERT
  5
2A0
330
1F
100
AcDbEntity
  8
0
  6
CONTINUOUS
 62
     5
100
AcDbBlockReference
  2
EDTIP_ARROW_S
 10
479.689527
 20
432.710162
 30
0.0
 41
45.0
 42
45.0
 50
180.0
  0
INSERT
  5
2A1
330
1F
100
AcDbEntity
  8
0
  6
CONTINUOUS
 62
     5
100
AcDbBlockReference
  2
EDTIP_ARROW_E
 10
1229.689527
 20
432.710162
 30
0.0
 41
45.0
 42
45.0
  0
TEXT
  5
2A2
330
1F
100
AcDbEntity
  8
0
  6
CONTINUOUS
 62
     3
100
AcDbText
 10
788.791931
 20
447.555237
 30
0.0
 40
60.0
  1
750
 41
0.75
  7
ED_VECTOR
100
AcDbText
  0
LINE
  5
2A3
330
1F
100
AcDbEntity
  8
0
  6
CONTINUOUS
 62
     3
100
AcDbLine
 10
1032.189527
 20
1396.258506
 30
0.0
 11
1041.189527
 21
1396.258506
 31
0.0
  0
LINE
  5
2A4
330
1F
100
AcDbEntity
  8
0
  6
CONTINUOUS
 62
     3
100
AcDbLine
 10
1099.189527
 20
1396.258506
 30
0.0
 11
1115.189527
 21
1396.258506
 31
0.0
  0
LINE
  5
2A5
330
1F
100
AcDbEntity
  8
0
  6
CONTINUOUS
 62
     3
100
AcDbLine
 10
1037.689527
 20
1015.392231
 30
0.0
 11
1037.689527
 21
749.5457
 31
0.0
  0
LINE
  5
2A6
330
1F
100
AcDbEntity
  8
0
  6
CONTINUOUS
 62
     3
100
AcDbLine
 10
1102.689527
 20
1015.392231
 30
0.0
 11
1102.689527
 21
749.5457
 31
0.0
  0
ARC
  5
2A7
330
1F
100
AcDbEntity
  8
0
  6
CONTINUOUS
 62
     3
100
AcDbCircle
 10
1070.189527
 20
1056.731353
 30
0.0
 40
52.58491259886457
100
AcDbArc
 50
270.0
 51
311.727616
  0
LINE
  5
2A8
330
1F
100
AcDbEntity
  8
0
  6
CENTER
 62
     5
100
AcDbLine
 10
3185.907413
 20
2725.323846
 30
0.0
 11
1601.461285
 21
2725.323846
 31
0.0
  0
LINE
  5
2A9
330
1F
100
AcDbEntity
  8
0
  6
CONTINUOUS
 62
     3
100
AcDbLine
 10
1229.689527
 20
682.710162
 30
0.0
 11
854.689527
 21
682.710162
 31
0.0
  0
LINE
  5
2AA
330
1F
100
AcDbEntity
  8
0
  6
CONTINUOUS
 62
     3
100
AcDbLine
 10
1229.689527
 20
682.710162
 30
0.0
 11
1229.689527
 21
582.710162
 31
0.0
  0
LINE
  5
2AB
330
1F
100
AcDbEntity
  8
0
  6
CONTINUOUS
 62
     5
100
AcDbLine
 10
1229.689527
 20
572.710162
 30
0.0
 11
1229.689527
 21
417.710162
 31
0.0
  0
LINE
  5
2AC
330
1F
100
AcDbEntity
  8
0
  6
CONTINUOUS
 62
     3
100
AcDbLine
 10
1115.189527
 20
1751.510162
 30
0.0
 11
1115.189527
 21
682.710162
 31
0.0
  0
LINE
  5
2AD
330
1F
100
AcDbEntity
  8
0
  6
CONTINUOUS
 62
     3
100
AcDbLine
 10
1137.189527
 20
1751.510162
 30
0.0
 11
1137.189527
 21
682.710162
 31
0.0
  0
LINE
  5
2AE
330
1F
100
AcDbEntity
  8
0
  6
CONTINUOUS
 62
     3
100
AcDbLine
 10
1152.689527
 20
1764.710162
 30
0.0
 11
1152.689527
 21
759.99491
 31
0.0
  0
LINE
  5
2AF
330
1F
100
AcDbEntity
  8
0
  6
CONTINUOUS
 62
     3
100
AcDbLine
 10
1174.689527
 20
1764.710162
 30
0.0
 11
1174.689527
 21
682.710162
 31
0.0
  0
LINE
  5
2B0
330
1F
100
AcDbEntity
  8
0
  6
CONTINUOUS
 62
     3
100
AcDbLine
 10
1209.689527
 20
1764.710162
 30
0.0
 11
1209.689527
 21
1756.510162
 31
0.0
  0
LINE
  5
2B1
330
1F
100
AcDbEntity
  8
0
  6
CONTINUOUS
 62
     3
100
AcDbLine
 10
1202.689527
 20
1756.510162
 30
0.0
 11
1209.689527
 21
1756.510162
 31
0.0
  0
LINE
  5
2B2
330
1F
100
AcDbEntity
  8
0
  6
CONTINUOUS
 62
     3
100
AcDbLine
 10
854.689527
 20
1751.510162
 30
0.0
 11
1152.689527
 21
1751.510162
 31
0.0
  0
LINE
  5
2B3
330
1F
100
AcDbEntity
  8
0
  6
CONTINUOUS
 62
     3
100
AcDbLine
 10
1174.689527
 20
1751.510162
 30
0.0
 11
1186.689527
 21
1751.510162
 31
0.0
  0
LINE
  5
2B4
330
1F
100
AcDbEntity
  8
0
  6
CONTINUOUS
 62
     3
100
AcDbLine
 10
1137.189527
 20
1220.860162
 30
0.0
 11
1152.689527
 21
1220.860162
 31
0.0
  0
LINE
  5
2B5
330
1F
100
AcDbEntity
  8
0
  6
CONTINUOUS
 62
     3
100
AcDbLine
 10
1137.189527
 20
1160.360162
 30
0.0
 11
1152.689527
 21
1160.360162
 31
0.0
  0
LINE
  5
2B6
330
1F
100
AcDbEntity
  8
0
  6
CENTER
 62
     5
100
AcDbLine
 10
854.689527
 20
1190.610162
 30
0.0
 11
1234.885354
 21
1190.610162
 31
0.0
  0
LINE
  5
2B7
330
1F
100
AcDbEntity
  8
0
  6
CONTINUOUS
 62
     5
100
AcDbLine
 10
1207.689527
 20
1205.610162
 30
0.0
 11
1207.689527
 21
1175.610162
 31
0.0
  0
LINE
  5
2B8
330
1F
100
AcDbEntity
  8
0
  6
CONTINUOUS
 62
     5
100
AcDbLine
 10
1178.689527
 20
1218.610162
 30
0.0
 11
1178.689527
 21
1162.610162
 31
0.0
  0
LINE
  5
2B9
330
1F
100
AcDbEntity
  8
0
  6
CONTINUOUS
 62
     5
100
AcDbLine
 10
1174.689527
 20
1218.610162
 30
0.0
 11
1178.689527
 21
1218.610162
 31
0.0
  0
LINE
  5
2BA
330
1F
100
AcDbEntity
  8
0
  6
CONTINUOUS
 62
     5
100
AcDbLine
 10
1174.689527
 20
1162.610162
 30
0.0
 11
1178.689527
 21
1162.610162
 31
0.0
  0
LINE
  5
2BB
330
1F
100
AcDbEntity
  8
0
  6
CONTINUOUS
 62
     5
100
AcDbLine
 10
1186.189527
 20
1217.110162
 30
0.0
 11
1186.189527
 21
1164.110162
 31
0.0
  0
LINE
  5
2BC
330
1F
100
AcDbEntity
  8
0
  6
CONTINUOUS
 62
     5
100
AcDbLine
 10
1204.189527
 20
1217.110162
 30
0.0
 11
1204.189527
 21
1164.110162
 31
0.0
  0
LINE
  5
2BD
330
1F
100
AcDbEntity
  8
0
  6
CONTINUOUS
 62
     5
100
AcDbLine
 10
1178.689527
 20
1215.610162
 30
0.0
 11
1186.189527
 21
1215.610162
 31
0.0
  0
LINE
  5
2BE
330
1F
100
AcDbEntity
  8
0
  6
CONTINUOUS
 62
     5
100
AcDbLine
 10
1178.689527
 20
1165.610162
 30
0.0
 11
1186.189527
 21
1165.610162
 31
0.0
  0
LINE
  5
2BF
330
1F
100
AcDbEntity
  8
0
  6
CONTINUOUS
 62
     5
100
AcDbLine
 10
1186.189527
 20
1175.610162
 30
0.0
 11
1207.689527
 21
1175.610162
 31
0.0
  0
LINE
  5
2C0
330
1F
100
AcDbEntity
  8
0
  6
CONTINUOUS
 62
     5
100
AcDbLine
 10
1186.189527
 20
1205.610162
 30
0.0
 11
1207.689527
 21
1205.610162
 31
0.0
  0
LINE
  5
2C1
330
1F
100
AcDbEntity
  8
0
  6
CONTINUOUS
 62
     5
100
AcDbLine
 10
1186.189527
 20
1217.110162
 30
0.0
 11
1204.189527
 21
1217.110162
 31
0.0
  0
LINE
  5
2C2
330
1F
100
AcDbEntity
  8
0
  6
CONTINUOUS
 62
     5
100
AcDbLine
 10
1186.189527
 20
1164.110162
 30
0.0
 11
1204.189527
 21
1164.110162
 31
0.0
  0
LINE
  5
2C3
330
1F
100
AcDbEntity
  8
0
  6
CONTINUOUS
 62
     3
100
AcDbLine
 10
1045.189527
 20
1112.275167
 30
0.0
 11
1045.189527
 21
1096.070233
 31
0.0
  0
LINE
  5
2C4
330
1F
100
AcDbEntity
  8
0
  6
CONTINUOUS
 62
     3
100
AcDbLine
 10
1095.189527
 20
1112.275167
 30
0.0
 11
1095.189527
 21
1096.070233
 31
0.0
  0
LINE
  5
2C5
330
1F
100
AcDbEntity
  8
0
  6
CONTINUOUS
 62
     3
100
AcDbLine
 10
1169.189527
 20
759.99491
 30
0.0
 11
1169.189527
 21
711.861962
 31
0.0
  0
LINE
  5
2C6
330
1F
100
AcDbEntity
  8
0
  6
CONTINUOUS
 62
     3
100
AcDbLine
 10
1152.689527
 20
711.861962
 30
0.0
 11
1152.689527
 21
682.710162
 31
0.0
  0
LINE
  5
2C7
330
1F
100
AcDbEntity
  8
0
  6
CONTINUOUS
 62
     3
100
AcDbLine
 10
3154.489527
 20
3125.323846
 30
0.0
 11
1654.489527
 21
3125.323846
 31
0.0
  0
LINE
  5
2C8
330
1F
100
AcDbEntity
  8
0
  6
CONTINUOUS
 62
     3
100
AcDbLine
 10
3154.489527
 20
2325.323846
 30
0.0
 11
1654.489527
 21
2325.323846
 31
0.0
  0
LINE
  5
2C9
330
1F
100
AcDbEntity
  8
0
  6
CONTINUOUS
 62
     5
100
AcDbLine
 10
3164.489527
 20
3125.323846
 30
0.0
 11
3319.489527
 21
3125.323846
 31
0.0
  0
LINE
  5
2CA
330
1F
100
AcDbEntity
  8
0
  6
CONTINUOUS
 62
     5
100
AcDbLine
 10
3164.489527
 20
2325.323846
 30
0.0
 11
3319.489527
 21
2325.323846
 31
0.0
  0
LINE
  5
2CB
330
1F
100
AcDbEntity
  8
0
  6
CONTINUOUS
 62
     3
100
AcDbLine
 10
1654.689527
 20
682.710162
 30
0.0
 11
1654.689527
 21
582.710162
 31
0.0
  0
LINE
  5
2CC
330
1F
100
AcDbEntity
  8
0
  6
CONTINUOUS
 62
     3
100
AcDbLine
 10
3154.689527
 20
682.710162
 30
0.0
 11
1654.689527
 21
682.710162
 31
0.0
  0
LINE
  5
2CD
330
1F
100
AcDbEntity
  8
0
  6
CONTINUOUS
 62
     5
100
AcDbLine
 10
1693.689527
 20
634.645791
 30
0.0
 11
1693.689527
 21
589.710162
 31
0.0
  0
LINE
  5
2CE
330
1F
100
AcDbEntity
  8
0
  6
CONTINUOUS
 62
     5
100
AcDbLine
 10
1723.689527
 20
614.710162
 30
0.0
 11
1663.689527
 21
614.710162
 31
0.0
  0
LINE
  5
2CF
330
1F
100
AcDbEntity
  8
0
  6
CONTINUOUS
 62
     5
100
AcDbLine
 10
2567.015505
 20
614.710162
 30
0.0
 11
2483.007844
 21
614.710162
 31
0.0
  0
LINE
  5
2D0
330
1F
100
AcDbEntity
  8
0
  6
CONTINUOUS
 62
     3
100
AcDbLine
 10
3154.689527
 20
682.710162
 30
0.0
 11
3154.689527
 21
582.710162
 31
0.0
  0
LINE
  5
2D1
330
1F
100
AcDbEntity
  8
0
  6
CONTINUOUS
 62
     5
100
AcDbLine
 10
2524.205487
 20
654.336541
 30
0.0
 11
2524.205487
 21
582.710162
 31
0.0
  0
LINE
  5
2D2
330
1F
100
AcDbEntity
  8
0
  6
CONTINUOUS
 62
     3
100
AcDbLine
 10
1654.489527
 20
2325.323846
 30
0.0
 11
1654.489527
 21
3125.323846
 31
0.0
  0
LINE
  5
2D3
330
1F
100
AcDbEntity
  8
0
  6
CONTINUOUS
 62
     3
100
AcDbLine
 10
3154.489527
 20
2325.323846
 30
0.0
 11
3154.489527
 21
3125.323846
 31
0.0
  0
LINE
  5
2D4
330
1F
100
AcDbEntity
  8
0
  6
CONTINUOUS
 62
     3
100
AcDbLine
 10
854.689527
 20
1832.710162
 30
0.0
 11
1254.689527
 21
1832.710162
 31
0.0
  0
LINE
  5
2D5
330
1F
100
AcDbEntity
  8
0
  6
CONTINUOUS
 62
     3
100
AcDbLine
 10
854.689527
 20
1764.710162
 30
0.0
 11
1254.689527
 21
1764.710162
 31
0.0
  0
LINE
  5
2D6
330
1F
100
AcDbEntity
  8
0
  6
CENTER
 62
     5
100
AcDbLine
 10
854.689527
 20
1889.153633
 30
0.0
 11
854.689527
 21
563.48586
 31
0.0
  0
LINE
  5
2D7
330
1F
100
AcDbEntity
  8
0
  6
CONTINUOUS
 62
     3
100
AcDbLine
 10
1254.689527
 20
1832.710162
 30
0.0
 11
1254.689527
 21
1764.710162
 31
0.0
  0
LINE
  5
2D8
330
1F
100
AcDbEntity
  8
0
  6
CONTINUOUS
 62
     5
100
AcDbLine
 10
479.689527
 20
572.710162
 30
0.0
 11
479.689527
 21
417.710162
 31
0.0
  0
LINE
  5
2D9
330
1F
100
AcDbEntity
  8
0
  6
CONTINUOUS
 62
     3
100
AcDbLine
 10
1186.689527
 20
1764.710162
 30
0.0
 11
1186.689527
 21
1741.510162
 31
0.0
  0
LINE
  5
2DA
330
1F
100
AcDbEntity
  8
0
  6
CONTINUOUS
 62
     3
100
AcDbLine
 10
1202.689527
 20
1764.710162
 30
0.0
 11
1202.689527
 21
1741.510162
 31
0.0
  0
LINE
  5
2DB
330
1F
100
AcDbEntity
  8
0
  6
CONTINUOUS
 62
     3
100
AcDbLine
 10
1185.689527
 20
1741.510162
 30
0.0
 11
1203.689527
 21
1741.510162
 31
0.0
  0
LINE
  5
2DC
330
1F
100
AcDbEntity
  8
0
  6
CONTINUOUS
 62
     5
100
AcDbLine
 10
1194.689527
 20
1764.710162
 30
0.0
 11
1194.689527
 21
1726.040227
 31
0.0
  0
LINE
  5
2DD
330
1F
100
AcDbEntity
  8
0
  6
CONTINUOUS
 62
     3
100
AcDbLine
 10
1185.689527
 20
1740.610162
 30
0.0
 11
1203.689527
 21
1740.610162
 31
0.0
  0
LINE
  5
2DE
330
1F
100
AcDbEntity
  8
0
  6
CONTINUOUS
 62
     3
100
AcDbLine
 10
1185.689527
 20
1740.610162
 30
0.0
 11
1185.689527
 21
1741.510162
 31
0.0
  0
LINE
  5
2DF
330
1F
100
AcDbEntity
  8
0
  6
CONTINUOUS
 62
     3
100
AcDbLine
 10
1203.689527
 20
1740.610162
 30
0.0
 11
1203.689527
 21
1741.510162
 31
0.0
  0
LINE
  5
2E0
330
1F
100
AcDbEntity
  8
0
  6
CONTINUOUS
 62
     3
100
AcDbLine
 10
1186.689527
 20
1730.610162
 30
0.0
 11
1202.689527
 21
1730.610162
 31
0.0
  0
LINE
  5
2E1
330
1F
100
AcDbEntity
  8
0
  6
CONTINUOUS
 62
     3
100
AcDbLine
 10
1186.689527
 20
1730.610162
 30
0.0
 11
1186.689527
 21
1740.610162
 31
0.0
  0
LINE
  5
2E2
330
1F
100
AcDbEntity
  8
0
  6
CONTINUOUS
 62
     3
100
AcDbLine
 10
1202.689527
 20
1730.610162
 30
0.0
 11
1202.689527
 21
1740.610162
 31
0.0
  0
LINE
  5
2E3
330
1F
100
AcDbEntity
  8
0
  6
CONTINUOUS
 62
     5
100
AcDbLine
 10
2110.989429
 20
1376.258512
 30
0.0
 11
2185.575268
 21
1376.258512
 31
0.0
  0
LINE
  5
2E4
330
1F
100
AcDbEntity
  8
0
  6
CONTINUOUS
 62
     5
100
AcDbLine
 10
2149.378817
 20
1417.678894
 30
0.0
 11
2149.378817
 21
1342.627701
 31
0.0
  0
LINE
  5
2E5
330
1F
100
AcDbEntity
  8
0
  6
CENTER
 62
     5
100
AcDbLine
 10
854.689527
 20
1169.425167
 30
0.0
 11
1115.189527
 21
1169.425167
 31
0.0
  0
LINE
  5
2E6
330
1F
100
AcDbEntity
  8
0
  6
CONTINUOUS
 62
     5
100
AcDbLine
 10
2090.684966
 20
1122.090838
 30
0.0
 11
2090.684966
 21
1226.575167
 31
0.0
  0
LINE
  5
2E7
330
1F
100
AcDbEntity
  8
0
  6
CONTINUOUS
 62
     3
100
AcDbLine
 10
854.689527
 20
1226.575167
 30
0.0
 11
883.689527
 21
1226.575167
 31
0.0
  0
LINE
  5
2E8
330
1F
100
AcDbEntity
  8
0
  6
CONTINUOUS
 62
     3
100
AcDbLine
 10
854.689527
 20
1112.275167
 30
0.0
 11
1115.189527
 21
1112.275167
 31
0.0
  0
LINE
  5
2E9
330
1F
100
AcDbEntity
  8
0
  6
CONTINUOUS
 62
     3
100
AcDbLine
 10
1032.189527
 20
1203.280569
 30
0.0
 11
1041.189527
 21
1203.280569
 31
0.0
  0
LINE
  5
2EA
330
1F
100
AcDbEntity
  8
0
  6
CONTINUOUS
 62
     3
100
AcDbLine
 10
1099.189527
 20
1203.280569
 30
0.0
 11
1115.189527
 21
1203.280569
 31
0.0
  0
LINE
  5
2EB
330
1F
100
AcDbEntity
  8
0
  6
CONTINUOUS
 62
     3
100
AcDbLine
 10
1041.189527
 20
1226.575167
 30
0.0
 11
1099.189527
 21
1226.575167
 31
0.0
  0
LINE
  5
2EC
330
1F
100
AcDbEntity
  8
0
  6
CONTINUOUS
 62
     5
100
AcDbLine
 10
2046.826737
 20
1169.425167
 30
0.0
 11
2147.834966
 21
1169.425167
 31
0.0
  0
LINE
  5
2ED
330
1F
100
AcDbEntity
  8
0
  6
CONTINUOUS
 62
     5
100
AcDbLine
 10
2108.947507
 20
1099.385452
 30
0.0
 11
2108.947507
 21
1273.460078
 31
0.0
  0
LINE
  5
2EE
330
1F
100
AcDbEntity
  8
0
  6
CONTINUOUS
 62
     5
100
AcDbLine
 10
2033.065897
 20
1190.610162
 30
0.0
 11
2184.435137
 21
1190.610162
 31
0.0
  0
LINE
  5
2EF
330
1F
100
AcDbEntity
  8
0
  6
CONTINUOUS
 62
     3
100
AcDbLine
 10
1056.189527
 20
1400.983823
 30
0.0
 11
1084.189527
 21
1400.983823
 31
0.0
  0
LINE
  5
2F0
330
1F
100
AcDbEntity
  8
0
  6
CONTINUOUS
 62
     3
100
AcDbLine
 10
1056.189527
 20
1388.499119
 30
0.0
 11
1084.189527
 21
1388.499119
 31
0.0
  0
LINE
  5
2F1
330
1F
100
AcDbEntity
  8
0
  6
CONTINUOUS
 62
     3
100
AcDbLine
 10
879.689527
 20
1358.7585
 30
0.0
 11
879.689527
 21
1226.575167
 31
0.0
  0
LINE
  5
2F2
330
1F
100
AcDbEntity
  8
0
  6
CONTINUOUS
 62
     3
100
AcDbLine
 10
868.689527
 20
1400.983823
 30
0.0
 11
868.689527
 21
1358.7585
 31
0.0
  0
LINE
  5
2F3
330
1F
100
AcDbEntity
  8
0
  6
CONTINUOUS
 62
     3
100
AcDbLine
 10
868.689527
 20
1393.7585
 30
0.0
 11
883.689527
 21
1393.7585
 31
0.0
  0
LINE
  5
2F4
330
1F
100
AcDbEntity
  8
0
  6
CONTINUOUS
 62
     3
100
AcDbLine
 10
868.689527
 20
1358.7585
 30
0.0
 11
883.689527
 21
1358.7585
 31
0.0
  0
LINE
  5
2F5
330
1F
100
AcDbEntity
  8
0
  6
CONTINUOUS
 62
     3
100
AcDbLine
 10
883.689527
 20
1396.258503
 30
0.0
 11
883.689527
 21
1203.280569
 31
0.0
  0
LINE
  5
2F6
330
1F
100
AcDbEntity
  8
0
  6
CONTINUOUS
 62
     3
100
AcDbLine
 10
892.689527
 20
1396.258503
 30
0.0
 11
892.689527
 21
1203.280569
 31
0.0
  0
LINE
  5
2F7
330
1F
100
AcDbEntity
  8
0
  6
CONTINUOUS
 62
     3
100
AcDbLine
 10
892.689527
 20
1396.258506
 30
0.0
 11
883.689527
 21
1396.258506
 31
0.0
  0
LINE
  5
2F8
330
1F
100
AcDbEntity
  8
0
  6
CONTINUOUS
 62
     3
100
AcDbLine
 10
892.689527
 20
1203.280569
 30
0.0
 11
883.689527
 21
1203.280569
 31
0.0
  0
LINE
  5
2F9
330
1F
100
AcDbEntity
  8
0
  6
CONTINUOUS
 62
     3
100
AcDbLine
 10
868.689527
 20
1400.983823
 30
0.0
 11
854.689527
 21
1400.983823
 31
0.0
  0
LINE
  5
2FA
330
1F
100
AcDbEntity
  8
0
  6
CONTINUOUS
 62
     3
100
AcDbLine
 10
868.689527
 20
1388.499119
 30
0.0
 11
854.689527
 21
1388.499119
 31
0.0
  0
LINE
  5
2FB
330
1F
100
AcDbEntity
  8
0
  6
CONTINUOUS
 62
     5
100
AcDbLine
 10
909.407433
 20
1376.2585
 30
0.0
 11
854.689527
 21
1376.2585
 31
0.0
  0
LINE
  5
2FC
330
1F
100
AcDbEntity
  8
0
  6
CONTINUOUS
 62
     3
100
AcDbLine
 10
892.689527
 20
1226.575167
 30
0.0
 11
1032.189527
 21
1226.575167
 31
0.0
  0
ARC
  5
2FD
330
1F
100
AcDbEntity
  8
0
  6
CONTINUOUS
 62
     3
100
AcDbCircle
 10
854.689527
 20
1124.102404
 30
0.0
 40
37.56065185633052
100
AcDbArc
 50
270.0
 51
311.727616
  0
LINE
  5
2FE
330
1F
100
AcDbEntity
  8
0
  6
CONTINUOUS
 62
     3
100
AcDbLine
 10
888.189527
 20
1094.65401
 30
0.0
 11
888.189527
 21
1040.642758
 31
0.0
  0
ARC
  5
2FF
330
1F
100
AcDbEntity
  8
0
  6
CONTINUOUS
 62
     3
100
AcDbCircle
 10
854.689527
 20
1132.217118
 30
0.0
 40
50.3312734874868
100
AcDbArc
 50
270.0
 51
311.727616
  0
ARC
  5
300
330
1F
100
AcDbEntity
  8
0
  6
CONTINUOUS
 62
     3
100
AcDbCircle
 10
854.689527
 20
1057.090902
 30
0.0
 40
50.3312734874868
100
AcDbArc
 50
48.272384
 51
60.217488
  0
LINE
  5
301
330
1F
100
AcDbEntity
  8
0
  6
CONTINUOUS
 62
     3
100
AcDbLine
 10
889.689527
 20
1039.210099
 30
0.0
 11
889.689527
 21
1017.486315
 31
0.0
  0
ARC
  5
302
330
1F
100
AcDbEntity
  8
0
  6
CONTINUOUS
 62
     3
100
AcDbCircle
 10
854.689527
 20
1078.205866
 30
0.0
 40
50.3312734874868
100
AcDbArc
 50
270.0
 51
311.599006
  0
ARC
  5
303
330
1F
100
AcDbEntity
  8
0
  6
CONTINUOUS
 62
     3
100
AcDbCircle
 10
854.689527
 20
1078.44883
 30
0.0
 40
52.58491259886457
100
AcDbArc
 50
270.0
 51
311.727616
  0
ARC
  5
304
330
1F
100
AcDbEntity
  8
0
  6
CONTINUOUS
 62
     3
100
AcDbCircle
 10
854.689527
 20
999.965061
 30
0.0
 40
52.58491259886457
100
AcDbArc
 50
48.272384
 51
50.4267
  0
ARC
  5
305
330
1F
100
AcDbEntity
  8
0
  6
CONTINUOUS
 62
     3
100
AcDbCircle
 10
854.689527
 20
1056.731353
 30
0.0
 40
52.58491259886457
100
AcDbArc
 50
270.0
 51
311.727616
  0
LINE
  5
306
330
1F
100
AcDbEntity
  8
0
  6
CONTINUOUS
 62
     3
100
AcDbLine
 10
879.689527
 20
1112.275167
 30
0.0
 11
879.689527
 21
1096.070233
 31
0.0
  0
LINE
  5
307
330
1F
100
AcDbEntity
  8
0
  6
CONTINUOUS
 62
     3
100
AcDbLine
 10
887.189527
 20
1015.392231
 30
0.0
 11
887.189527
 21
763.056824
 31
0.0
  0
LINE
  5
308
330
1F
100
AcDbEntity
  8
0
  6
CONTINUOUS
 62
     3
100
AcDbLine
 10
1137.189527
 20
742.465877
 30
0.0
 11
1169.189527
 21
742.465877
 31
0.0
  0
LINE
  5
309
330
1F
100
AcDbEntity
  8
0
  6
CONTINUOUS
 62
     3
100
AcDbLine
 10
1137.189527
 20
759.99491
 30
0.0
 11
1169.189527
 21
759.99491
 31
0.0
  0
LINE
  5
30A
330
1F
100
AcDbEntity
  8
0
  6
CONTINUOUS
 62
     3
100
AcDbLine
 10
1137.189527
 20
711.861962
 30
0.0
 11
1169.189527
 21
711.861962
 31
0.0
  0
ARC
  5
30B
330
1F
100
AcDbEntity
  8
0
  6
CONTINUOUS
 62
     3
100
AcDbCircle
 10
1070.189527
 20
788.614528
 30
0.0
 40
48.74345519997779
100
AcDbArc
 50
228.182804
 51
311.817196
  0
ARC
  5
30C
330
1F
100
AcDbEntity
  8
0
  6
CONTINUOUS
 62
     3
100
AcDbCircle
 10
1070.189527
 20
785.873023
 30
0.0
 40
48.74345519997779
100
AcDbArc
 50
228.182804
 51
311.817196
  0
LINE
  5
30D
330
1F
100
AcDbEntity
  8
0
  6
CONTINUOUS
 62
     3
100
AcDbLine
 10
1056.189527
 20
739.183362
 30
0.0
 11
1056.189527
 21
682.710162
 31
0.0
  0
LINE
  5
30E
330
1F
100
AcDbEntity
  8
0
  6
CONTINUOUS
 62
     3
100
AcDbLine
 10
1084.189527
 20
739.183362
 30
0.0
 11
1084.189527
 21
682.710162
 31
0.0
  0
LINE
  5
30F
330
1F
100
AcDbEntity
  8
0
  6
CONTINUOUS
 62
     3
100
AcDbLine
 10
1044.189527
 20
744.642883
 30
0.0
 11
1044.189527
 21
682.710162
 31
0.0
  0
LINE
  5
310
330
1F
100
AcDbEntity
  8
0
  6
CONTINUOUS
 62
     3
100
AcDbLine
 10
1096.189527
 20
744.642883
 30
0.0
 11
1096.189527
 21
682.710162
 31
0.0
  0
LINE
  5
311
330
1F
100
AcDbEntity
  8
0
  6
CONTINUOUS
 62
     5
100
AcDbLine
 10
2385.971954
 20
727.33521
 30
0.0
 11
2448.696805
 21
727.33521
 31
0.0
  0
LINE
  5
312
330
1F
100
AcDbEntity
  8
0
  6
CONTINUOUS
 62
     5
100
AcDbLine
 10
2417.638144
 20
756.477786
 30
0.0
 11
2417.638144
 21
702.2837
 31
0.0
  0
LINE
  5
313
330
1F
100
AcDbEntity
  8
0
  6
CONTINUOUS
 62
     5
100
AcDbLine
 10
1037.689527
 20
727.33521
 30
0.0
 11
1102.689527
 21
727.33521
 31
0.0
  0
LINE
  5
314
330
1F
100
AcDbEntity
  8
0
  6
CONTINUOUS
 62
     3
100
AcDbLine
 10
1056.189527
 20
707.33521
 30
0.0
 11
1084.189527
 21
707.33521
 31
0.0
  0
LINE
  5
315
330
1F
100
AcDbEntity
  8
0
  6
CONTINUOUS
 62
     5
100
AcDbLine
 10
2468.696302
 20
673.278907
 30
0.0
 11
2562.077655
 21
673.278907
 31
0.0
  0
LINE
  5
316
330
1F
100
AcDbEntity
  8
0
  6
CONTINUOUS
 62
     5
100
AcDbLine
 10
2513.439585
 20
709.475383
 30
0.0
 11
2513.439585
 21
645.180025
 31
0.0
  0
LINE
  5
317
330
1F
100
AcDbEntity
  8
0
  6
CONTINUOUS
 62
     3
100
AcDbLine
 10
1007.052365
 20
717.828907
 30
0.0
 11
1044.189527
 21
717.828907
 31
0.0
  0
LINE
  5
318
330
1F
100
AcDbEntity
  8
0
  6
CONTINUOUS
 62
     3
100
AcDbLine
 10
1096.189527
 20
717.828907
 30
0.0
 11
1115.189527
 21
717.828907
 31
0.0
  0
LINE
  5
319
330
1F
100
AcDbEntity
  8
0
  6
CONTINUOUS
 62
     3
100
AcDbLine
 10
625.189527
 20
1400.983823
 30
0.0
 11
625.189527
 21
1358.7585
 31
0.0
  0
LINE
  5
31A
330
1F
100
AcDbEntity
  8
0
  6
CONTINUOUS
 62
     3
100
AcDbLine
 10
625.189527
 20
1393.7585
 30
0.0
 11
610.189527
 21
1393.7585
 31
0.0
  0
LINE
  5
31B
330
1F
100
AcDbEntity
  8
0
  6
CONTINUOUS
 62
     3
100
AcDbLine
 10
625.189527
 20
1358.7585
 30
0.0
 11
610.189527
 21
1358.7585
 31
0.0
  0
LINE
  5
31C
330
1F
100
AcDbEntity
  8
0
  6
CONTINUOUS
 62
     3
100
AcDbLine
 10
614.189527
 20
1358.7585
 30
0.0
 11
614.189527
 21
1226.575167
 31
0.0
  0
LINE
  5
31D
330
1F
100
AcDbEntity
  8
0
  6
CONTINUOUS
 62
     3
100
AcDbLine
 10
664.189527
 20
1358.7585
 30
0.0
 11
664.189527
 21
1226.575167
 31
0.0
  0
ARC
  5
31E
330
1F
100
AcDbEntity
  8
0
  6
CONTINUOUS
 62
     3
100
AcDbCircle
 10
639.189527
 20
1124.102404
 30
0.0
 40
37.56065185633052
100
AcDbArc
 50
228.272384
 51
311.727616
  0
LINE
  5
31F
330
1F
100
AcDbEntity
  8
0
  6
CONTINUOUS
 62
     3
100
AcDbLine
 10
605.689527
 20
1094.65401
 30
0.0
 11
605.689527
 21
1040.642758
 31
0.0
  0
LINE
  5
320
330
1F
100
AcDbEntity
  8
0
  6
CONTINUOUS
 62
     3
100
AcDbLine
 10
672.689527
 20
1094.65401
 30
0.0
 11
672.689527
 21
1040.498048
 31
0.0
  0
ARC
  5
321
330
1F
100
AcDbEntity
  8
0
  6
CONTINUOUS
 62
     3
100
AcDbCircle
 10
639.189527
 20
1132.217118
 30
0.0
 40
50.3312734874868
100
AcDbArc
 50
228.272384
 51
311.727616
  0
ARC
  5
322
330
1F
100
AcDbEntity
  8
0
  6
CONTINUOUS
 62
     3
100
AcDbCircle
 10
639.189527
 20
1057.090902
 30
0.0
 40
50.3312734874868
100
AcDbArc
 50
119.782512
 51
131.727616
  0
ARC
  5
323
330
1F
100
AcDbEntity
  8
0
  6
CONTINUOUS
 62
     3
100
AcDbCircle
 10
639.189527
 20
1057.090902
 30
0.0
 40
50.3312734874868
100
AcDbArc
 50
48.272384
 51
60.217488
  0
LINE
  5
324
330
1F
100
AcDbEntity
  8
0
  6
CONTINUOUS
 62
     3
100
AcDbLine
 10
604.189527
 20
1039.210099
 30
0.0
 11
604.189527
 21
1017.486315
 31
0.0
  0
LINE
  5
325
330
1F
100
AcDbEntity
  8
0
  6
CONTINUOUS
 62
     3
100
AcDbLine
 10
674.189527
 20
1039.210099
 30
0.0
 11
674.189527
 21
1017.486315
 31
0.0
  0
ARC
  5
326
330
1F
100
AcDbEntity
  8
0
  6
CONTINUOUS
 62
     3
100
AcDbCircle
 10
639.189527
 20
1078.205866
 30
0.0
 40
50.3312734874868
100
AcDbArc
 50
228.400994
 51
311.727616
  0
ARC
  5
327
330
1F
100
AcDbEntity
  8
0
  6
CONTINUOUS
 62
     3
100
AcDbCircle
 10
639.189527
 20
1078.44883
 30
0.0
 40
52.58491259886457
100
AcDbArc
 50
228.272384
 51
311.727616
  0
ARC
  5
328
330
1F
100
AcDbEntity
  8
0
  6
CONTINUOUS
 62
     3
100
AcDbCircle
 10
639.189527
 20
1056.731353
 30
0.0
 40
52.58491259886457
100
AcDbArc
 50
270.0
 51
311.727616
  0
ARC
  5
329
330
1F
100
AcDbEntity
  8
0
  6
CONTINUOUS
 62
     3
100
AcDbCircle
 10
639.189527
 20
999.965061
 30
0.0
 40
52.58491259886457
100
AcDbArc
 50
129.5733
 51
131.727616
  0
ARC
  5
32A
330
1F
100
AcDbEntity
  8
0
  6
CONTINUOUS
 62
     3
100
AcDbCircle
 10
639.189527
 20
999.965061
 30
0.0
 40
52.58491259886457
100
AcDbArc
 50
48.267221
 51
50.4267
  0
LINE
  5
32B
330
1F
100
AcDbEntity
  8
0
  6
CONTINUOUS
 62
     3
100
AcDbLine
 10
653.189527
 20
1400.983823
 30
0.0
 11
653.189527
 21
1358.7585
 31
0.0
  0
LINE
  5
32C
330
1F
100
AcDbEntity
  8
0
  6
CONTINUOUS
 62
     3
100
AcDbLine
 10
653.189527
 20
1393.7585
 30
0.0
 11
668.189527
 21
1393.7585
 31
0.0
  0
LINE
  5
32D
330
1F
100
AcDbEntity
  8
0
  6
CONTINUOUS
 62
     3
100
AcDbLine
 10
653.189527
 20
1358.7585
 30
0.0
 11
668.189527
 21
1358.7585
 31
0.0
  0
LINE
  5
32E
330
1F
100
AcDbEntity
  8
0
  6
CONTINUOUS
 62
     3
100
AcDbLine
 10
610.189527
 20
1396.258503
 30
0.0
 11
610.189527
 21
1203.280569
 31
0.0
  0
LINE
  5
32F
330
1F
100
AcDbEntity
  8
0
  6
CONTINUOUS
 62
     3
100
AcDbLine
 10
668.189527
 20
1396.258503
 30
0.0
 11
668.189527
 21
1203.280569
 31
0.0
  0
LINE
  5
330
330
1F
100
AcDbEntity
  8
0
  6
CONTINUOUS
 62
     3
100
AcDbLine
 10
677.189527
 20
1396.258503
 30
0.0
 11
677.189527
 21
1203.280569
 31
0.0
  0
LINE
  5
331
330
1F
100
AcDbEntity
  8
0
  6
CONTINUOUS
 62
     5
100
AcDbLine
 10
693.907433
 20
1376.2585
 30
0.0
 11
594.189527
 21
1376.2585
 31
0.0
  0
LINE
  5
332
330
1F
100
AcDbEntity
  8
0
  6
CENTER
 62
     5
100
AcDbLine
 10
639.189527
 20
1422.468386
 30
0.0
 11
639.189527
 21
682.710162
 31
0.0
  0
LINE
  5
333
330
1F
100
AcDbEntity
  8
0
  6
CONTINUOUS
 62
     3
100
AcDbLine
 10
677.189527
 20
1396.258506
 30
0.0
 11
668.189527
 21
1396.258506
 31
0.0
  0
LINE
  5
334
330
1F
100
AcDbEntity
  8
0
  6
CONTINUOUS
 62
     3
100
AcDbLine
 10
610.189527
 20
1396.258506
 30
0.0
 11
594.189527
 21
1396.258506
 31
0.0
  0
LINE
  5
335
330
1F
100
AcDbEntity
  8
0
  6
CONTINUOUS
 62
     3
100
AcDbLine
 10
671.689527
 20
1015.392231
 30
0.0
 11
671.689527
 21
749.5457
 31
0.0
  0
LINE
  5
336
330
1F
100
AcDbEntity
  8
0
  6
CONTINUOUS
 62
     3
100
AcDbLine
 10
606.689527
 20
1015.392231
 30
0.0
 11
606.689527
 21
749.5457
 31
0.0
  0
ARC
  5
337
330
1F
100
AcDbEntity
  8
0
  6
CONTINUOUS
 62
     3
100
AcDbCircle
 10
639.189527
 20
1056.731353
 30
0.0
 40
52.58491259886457
100
AcDbArc
 50
228.272384
 51
270.0
  0
LINE
  5
338
330
1F
100
AcDbEntity
  8
0
  6
CONTINUOUS
 62
     3
100
AcDbLine
 10
479.689527
 20
682.710162
 30
0.0
 11
854.689527
 21
682.710162
 31
0.0
  0
LINE
  5
339
330
1F
100
AcDbEntity
  8
0
  6
CONTINUOUS
 62
     3
100
AcDbLine
 10
479.689527
 20
682.710162
 30
0.0
 11
479.689527
 21
582.710162
 31
0.0
  0
LINE
  5
33A
330
1F
100
AcDbEntity
  8
0
  6
CONTINUOUS
 62
     3
100
AcDbLine
 10
594.189527
 20
1751.510162
 30
0.0
 11
594.189527
 21
682.710162
 31
0.0
  0
LINE
  5
33B
330
1F
100
AcDbEntity
  8
0
  6
CONTINUOUS
 62
     3
100
AcDbLine
 10
572.189527
 20
1751.510162
 30
0.0
 11
572.189527
 21
682.710162
 31
0.0
  0
LINE
  5
33C
330
1F
100
AcDbEntity
  8
0
  6
CONTINUOUS
 62
     3
100
AcDbLine
 10
556.689527
 20
1764.710162
 30
0.0
 11
556.689527
 21
759.99491
 31
0.0
  0
LINE
  5
33D
330
1F
100
AcDbEntity
  8
0
  6
CONTINUOUS
 62
     3
100
AcDbLine
 10
534.689527
 20
1764.710162
 30
0.0
 11
534.689527
 21
682.710162
 31
0.0
  0
LINE
  5
33E
330
1F
100
AcDbEntity
  8
0
  6
CONTINUOUS
 62
     3
100
AcDbLine
 10
499.689527
 20
1764.710162
 30
0.0
 11
499.689527
 21
1756.510162
 31
0.0
  0
LINE
  5
33F
330
1F
100
AcDbEntity
  8
0
  6
CONTINUOUS
 62
     3
100
AcDbLine
 10
506.689527
 20
1756.510162
 30
0.0
 11
499.689527
 21
1756.510162
 31
0.0
  0
LINE
  5
340
330
1F
100
AcDbEntity
  8
0
  6
CONTINUOUS
 62
     3
100
AcDbLine
 10
854.689527
 20
1751.510162
 30
0.0
 11
556.689527
 21
1751.510162
 31
0.0
  0
LINE
  5
341
330
1F
100
AcDbEntity
  8
0
  6
CONTINUOUS
 62
     3
100
AcDbLine
 10
534.689527
 20
1751.510162
 30
0.0
 11
522.689527
 21
1751.510162
 31
0.0
  0
LINE
  5
342
330
1F
100
AcDbEntity
  8
0
  6
CONTINUOUS
 62
     3
100
AcDbLine
 10
572.189527
 20
1220.860162
 30
0.0
 11
556.689527
 21
1220.860162
 31
0.0
  0
LINE
  5
343
330
1F
100
AcDbEntity
  8
0
  6
CONTINUOUS
 62
     3
100
AcDbLine
 10
572.189527
 20
1160.360162
 30
0.0
 11
556.689527
 21
1160.360162
 31
0.0
  0
LINE
  5
344
330
1F
100
AcDbEntity
  8
0
  6
CENTER
 62
     5
100
AcDbLine
 10
854.689527
 20
1190.610162
 30
0.0
 11
474.493699
 21
1190.610162
 31
0.0
  0
LINE
  5
345
330
1F
100
AcDbEntity
  8
0
  6
CONTINUOUS
 62
     5
100
AcDbLine
 10
501.689527
 20
1205.610162
 30
0.0
 11
501.689527
 21
1175.610162
 31
0.0
  0
LINE
  5
346
330
1F
100
AcDbEntity
  8
0
  6
CONTINUOUS
 62
     5
100
AcDbLine
 10
530.689527
 20
1218.610162
 30
0.0
 11
530.689527
 21
1162.610162
 31
0.0
  0
LINE
  5
347
330
1F
100
AcDbEntity
  8
0
  6
CONTINUOUS
 62
     5
100
AcDbLine
 10
534.689527
 20
1218.610162
 30
0.0
 11
530.689527
 21
1218.610162
 31
0.0
  0
LINE
  5
348
330
1F
100
AcDbEntity
  8
0
  6
CONTINUOUS
 62
     5
100
AcDbLine
 10
534.689527
 20
1162.610162
 30
0.0
 11
530.689527
 21
1162.610162
 31
0.0
  0
LINE
  5
349
330
1F
100
AcDbEntity
  8
0
  6
CONTINUOUS
 62
     5
100
AcDbLine
 10
523.189527
 20
1217.110162
 30
0.0
 11
523.189527
 21
1164.110162
 31
0.0
  0
LINE
  5
34A
330
1F
100
AcDbEntity
  8
0
  6
CONTINUOUS
 62
     5
100
AcDbLine
 10
505.189527
 20
1217.110162
 30
0.0
 11
505.189527
 21
1164.110162
 31
0.0
  0
LINE
  5
34B
330
1F
100
AcDbEntity
  8
0
  6
CONTINUOUS
 62
     5
100
AcDbLine
 10
530.689527
 20
1215.610162
 30
0.0
 11
523.189527
 21
1215.610162
 31
0.0
  0
LINE
  5
34C
330
1F
100
AcDbEntity
  8
0
  6
CONTINUOUS
 62
     5
100
AcDbLine
 10
530.689527
 20
1165.610162
 30
0.0
 11
523.189527
 21
1165.610162
 31
0.0
  0
LINE
  5
34D
330
1F
100
AcDbEntity
  8
0
  6
CONTINUOUS
 62
     5
100
AcDbLine
 10
523.189527
 20
1175.610162
 30
0.0
 11
501.689527
 21
1175.610162
 31
0.0
  0
LINE
  5
34E
330
1F
100
AcDbEntity
  8
0
  6
CONTINUOUS
 62
     5
100
AcDbLine
 10
523.189527
 20
1205.610162
 30
0.0
 11
501.689527
 21
1205.610162
 31
0.0
  0
LINE
  5
34F
330
1F
100
AcDbEntity
  8
0
  6
CONTINUOUS
 62
     5
100
AcDbLine
 10
523.189527
 20
1217.110162
 30
0.0
 11
505.189527
 21
1217.110162
 31
0.0
  0
LINE
  5
350
330
1F
100
AcDbEntity
  8
0
  6
CONTINUOUS
 62
     5
100
AcDbLine
 10
523.189527
 20
1164.110162
 30
0.0
 11
505.189527
 21
1164.110162
 31
0.0
  0
LINE
  5
351
330
1F
100
AcDbEntity
  8
0
  6
CONTINUOUS
 62
     3
100
AcDbLine
 10
664.189527
 20
1112.275167
 30
0.0
 11
664.189527
 21
1096.070233
 31
0.0
  0
LINE
  5
352
330
1F
100
AcDbEntity
  8
0
  6
CONTINUOUS
 62
     3
100
AcDbLine
 10
614.189527
 20
1112.275167
 30
0.0
 11
614.189527
 21
1096.070233
 31
0.0
  0
LINE
  5
353
330
1F
100
AcDbEntity
  8
0
  6
CONTINUOUS
 62
     3
100
AcDbLine
 10
540.189527
 20
759.99491
 30
0.0
 11
540.189527
 21
711.861962
 31
0.0
  0
LINE
  5
354
330
1F
100
AcDbEntity
  8
0
  6
CONTINUOUS
 62
     3
100
AcDbLine
 10
556.689527
 20
711.861962
 30
0.0
 11
556.689527
 21
682.710162
 31
0.0
  0
LINE
  5
355
330
1F
100
AcDbEntity
  8
0
  6
CONTINUOUS
 62
     3
100
AcDbLine
 10
854.689527
 20
1832.710162
 30
0.0
 11
454.689527
 21
1832.710162
 31
0.0
  0
LINE
  5
356
330
1F
100
AcDbEntity
  8
0
  6
CONTINUOUS
 62
     3
100
AcDbLine
 10
854.689527
 20
1764.710162
 30
0.0
 11
454.689527
 21
1764.710162
 31
0.0
  0
LINE
  5
357
330
1F
100
AcDbEntity
  8
0
  6
CONTINUOUS
 62
     3
100
AcDbLine
 10
454.689527
 20
1832.710162
 30
0.0
 11
454.689527
 21
1764.710162
 31
0.0
  0
LINE
  5
358
330
1F
100
AcDbEntity
  8
0
  6
CONTINUOUS
 62
     3
100
AcDbLine
 10
522.689527
 20
1764.710162
 30
0.0
 11
522.689527
 21
1741.510162
 31
0.0
  0
LINE
  5
359
330
1F
100
AcDbEntity
  8
0
  6
CONTINUOUS
 62
     3
100
AcDbLine
 10
506.689527
 20
1764.710162
 30
0.0
 11
506.689527
 21
1741.510162
 31
0.0
  0
LINE
  5
35A
330
1F
100
AcDbEntity
  8
0
  6
CONTINUOUS
 62
     3
100
AcDbLine
 10
523.689527
 20
1741.510162
 30
0.0
 11
505.689527
 21
1741.510162
 31
0.0
  0
LINE
  5
35B
330
1F
100
AcDbEntity
  8
0
  6
CONTINUOUS
 62
     5
100
AcDbLine
 10
514.689527
 20
1764.710162
 30
0.0
 11
514.689527
 21
1726.040227
 31
0.0
  0
LINE
  5
35C
330
1F
100
AcDbEntity
  8
0
  6
CONTINUOUS
 62
     3
100
AcDbLine
 10
523.689527
 20
1740.610162
 30
0.0
 11
505.689527
 21
1740.610162
 31
0.0
  0
LINE
  5
35D
330
1F
100
AcDbEntity
  8
0
  6
CONTINUOUS
 62
     3
100
AcDbLine
 10
523.689527
 20
1740.610162
 30
0.0
 11
523.689527
 21
1741.510162
 31
0.0
  0
LINE
  5
35E
330
1F
100
AcDbEntity
  8
0
  6
CONTINUOUS
 62
     3
100
AcDbLine
 10
505.689527
 20
1740.610162
 30
0.0
 11
505.689527
 21
1741.510162
 31
0.0
  0
LINE
  5
35F
330
1F
100
AcDbEntity
  8
0
  6
CONTINUOUS
 62
     3
100
AcDbLine
 10
522.689527
 20
1730.610162
 30
0.0
 11
506.689527
 21
1730.610162
 31
0.0
  0
LINE
  5
360
330
1F
100
AcDbEntity
  8
0
  6
CONTINUOUS
 62
     3
100
AcDbLine
 10
522.689527
 20
1730.610162
 30
0.0
 11
522.689527
 21
1740.610162
 31
0.0
  0
LINE
  5
361
330
1F
100
AcDbEntity
  8
0
  6
CONTINUOUS
 62
     3
100
AcDbLine
 10
506.689527
 20
1730.610162
 30
0.0
 11
506.689527
 21
1740.610162
 31
0.0
  0
LINE
  5
362
330
1F
100
AcDbEntity
  8
0
  6
CENTER
 62
     5
100
AcDbLine
 10
854.689527
 20
1169.425167
 30
0.0
 11
594.189527
 21
1169.425167
 31
0.0
  0
LINE
  5
363
330
1F
100
AcDbEntity
  8
0
  6
CONTINUOUS
 62
     3
100
AcDbLine
 10
854.689527
 20
1226.575167
 30
0.0
 11
825.689527
 21
1226.575167
 31
0.0
  0
LINE
  5
364
330
1F
100
AcDbEntity
  8
0
  6
CONTINUOUS
 62
     3
100
AcDbLine
 10
854.689527
 20
1112.275167
 30
0.0
 11
594.189527
 21
1112.275167
 31
0.0
  0
LINE
  5
365
330
1F
100
AcDbEntity
  8
0
  6
CONTINUOUS
 62
     3
100
AcDbLine
 10
677.189527
 20
1203.280569
 30
0.0
 11
668.189527
 21
1203.280569
 31
0.0
  0
LINE
  5
366
330
1F
100
AcDbEntity
  8
0
  6
CONTINUOUS
 62
     3
100
AcDbLine
 10
610.189527
 20
1203.280569
 30
0.0
 11
594.189527
 21
1203.280569
 31
0.0
  0
LINE
  5
367
330
1F
100
AcDbEntity
  8
0
  6
CONTINUOUS
 62
     3
100
AcDbLine
 10
668.189527
 20
1226.575167
 30
0.0
 11
610.189527
 21
1226.575167
 31
0.0
  0
LINE
  5
368
330
1F
100
AcDbEntity
  8
0
  6
CONTINUOUS
 62
     3
100
AcDbLine
 10
653.189527
 20
1400.983823
 30
0.0
 11
625.189527
 21
1400.983823
 31
0.0
  0
LINE
  5
369
330
1F
100
AcDbEntity
  8
0
  6
CONTINUOUS
 62
     3
100
AcDbLine
 10
653.189527
 20
1388.499119
 30
0.0
 11
625.189527
 21
1388.499119
 31
0.0
  0
LINE
  5
36A
330
1F
100
AcDbEntity
  8
0
  6
CONTINUOUS
 62
     3
100
AcDbLine
 10
829.689527
 20
1358.7585
 30
0.0
 11
829.689527
 21
1226.575167
 31
0.0
  0
LINE
  5
36B
330
1F
100
AcDbEntity
  8
0
  6
CONTINUOUS
 62
     3
100
AcDbLine
 10
840.689527
 20
1400.983823
 30
0.0
 11
840.689527
 21
1358.7585
 31
0.0
  0
LINE
  5
36C
330
1F
100
AcDbEntity
  8
0
  6
CONTINUOUS
 62
     3
100
AcDbLine
 10
840.689527
 20
1393.7585
 30
0.0
 11
825.689527
 21
1393.7585
 31
0.0
  0
LINE
  5
36D
330
1F
100
AcDbEntity
  8
0
  6
CONTINUOUS
 62
     3
100
AcDbLine
 10
840.689527
 20
1358.7585
 30
0.0
 11
825.689527
 21
1358.7585
 31
0.0
  0
LINE
  5
36E
330
1F
100
AcDbEntity
  8
0
  6
CONTINUOUS
 62
     3
100
AcDbLine
 10
825.689527
 20
1396.258503
 30
0.0
 11
825.689527
 21
1203.280569
 31
0.0
  0
LINE
  5
36F
330
1F
100
AcDbEntity
  8
0
  6
CONTINUOUS
 62
     3
100
AcDbLine
 10
816.689527
 20
1396.258503
 30
0.0
 11
816.689527
 21
1203.280569
 31
0.0
  0
LINE
  5
370
330
1F
100
AcDbEntity
  8
0
  6
CONTINUOUS
 62
     3
100
AcDbLine
 10
816.689527
 20
1396.258506
 30
0.0
 11
825.689527
 21
1396.258506
 31
0.0
  0
LINE
  5
371
330
1F
100
AcDbEntity
  8
0
  6
CONTINUOUS
 62
     3
100
AcDbLine
 10
816.689527
 20
1203.280569
 30
0.0
 11
825.689527
 21
1203.280569
 31
0.0
  0
LINE
  5
372
330
1F
100
AcDbEntity
  8
0
  6
CONTINUOUS
 62
     3
100
AcDbLine
 10
840.689527
 20
1400.983823
 30
0.0
 11
854.689527
 21
1400.983823
 31
0.0
  0
LINE
  5
373
330
1F
100
AcDbEntity
  8
0
  6
CONTINUOUS
 62
     3
100
AcDbLine
 10
840.689527
 20
1388.499119
 30
0.0
 11
854.689527
 21
1388.499119
 31
0.0
  0
LINE
  5
374
330
1F
100
AcDbEntity
  8
0
  6
CONTINUOUS
 62
     5
100
AcDbLine
 10
799.971621
 20
1376.2585
 30
0.0
 11
854.689527
 21
1376.2585
 31
0.0
  0
LINE
  5
375
330
1F
100
AcDbEntity
  8
0
  6
CONTINUOUS
 62
     3
100
AcDbLine
 10
816.689527
 20
1226.575167
 30
0.0
 11
677.189527
 21
1226.575167
 31
0.0
  0
ARC
  5
376
330
1F
100
AcDbEntity
  8
0
  6
CONTINUOUS
 62
     3
100
AcDbCircle
 10
854.689527
 20
1124.102404
 30
0.0
 40
37.56065185633052
100
AcDbArc
 50
228.272384
 51
270.0
  0
LINE
  5
377
330
1F
100
AcDbEntity
  8
0
  6
CONTINUOUS
 62
     3
100
AcDbLine
 10
821.189527
 20
1094.65401
 30
0.0
 11
821.189527
 21
1040.642758
 31
0.0
  0
ARC
  5
378
330
1F
100
AcDbEntity
  8
0
  6
CONTINUOUS
 62
     3
100
AcDbCircle
 10
854.689527
 20
1132.217118
 30
0.0
 40
50.3312734874868
100
AcDbArc
 50
228.272384
 51
270.0
  0
ARC
  5
379
330
1F
100
AcDbEntity
  8
0
  6
CONTINUOUS
 62
     3
100
AcDbCircle
 10
854.689527
 20
1057.090902
 30
0.0
 40
50.3312734874868
100
AcDbArc
 50
119.782512
 51
131.727616
  0
LINE
  5
37A
330
1F
100
AcDbEntity
  8
0
  6
CONTINUOUS
 62
     3
100
AcDbLine
 10
819.689527
 20
1039.210099
 30
0.0
 11
819.689527
 21
1017.486315
 31
0.0
  0
ARC
  5
37B
330
1F
100
AcDbEntity
  8
0
  6
CONTINUOUS
 62
     3
100
AcDbCircle
 10
854.689527
 20
1078.205866
 30
0.0
 40
50.3312734874868
100
AcDbArc
 50
228.400994
 51
270.0
  0
ARC
  5
37C
330
1F
100
AcDbEntity
  8
0
  6
CONTINUOUS
 62
     3
100
AcDbCircle
 10
854.689527
 20
1078.44883
 30
0.0
 40
52.58491259886457
100
AcDbArc
 50
228.272384
 51
270.0
  0
ARC
  5
37D
330
1F
100
AcDbEntity
  8
0
  6
CONTINUOUS
 62
     3
100
AcDbCircle
 10
854.689527
 20
999.965061
 30
0.0
 40
52.58491259886457
100
AcDbArc
 50
129.5733
 51
131.727616
  0
ARC
  5
37E
330
1F
100
AcDbEntity
  8
0
  6
CONTINUOUS
 62
     3
100
AcDbCircle
 10
854.689527
 20
1056.731353
 30
0.0
 40
52.58491259886457
100
AcDbArc
 50
228.272384
 51
270.0
  0
LINE
  5
37F
330
1F
100
AcDbEntity
  8
0
  6
CONTINUOUS
 62
     3
100
AcDbLine
 10
829.689527
 20
1112.275167
 30
0.0
 11
829.689527
 21
1096.070233
 31
0.0
  0
LINE
  5
380
330
1F
100
AcDbEntity
  8
0
  6
CONTINUOUS
 62
     3
100
AcDbLine
 10
822.189527
 20
1015.392231
 30
0.0
 11
822.189527
 21
771.910162
 31
0.0
  0
LINE
  5
381
330
1F
100
AcDbEntity
  8
0
  6
CONTINUOUS
 62
     3
100
AcDbLine
 10
572.189527
 20
742.465877
 30
0.0
 11
540.189527
 21
742.465877
 31
0.0
  0
LINE
  5
382
330
1F
100
AcDbEntity
  8
0
  6
CONTINUOUS
 62
     3
100
AcDbLine
 10
572.189527
 20
759.99491
 30
0.0
 11
540.189527
 21
759.99491
 31
0.0
  0
LINE
  5
383
330
1F
100
AcDbEntity
  8
0
  6
CONTINUOUS
 62
     3
100
AcDbLine
 10
572.189527
 20
711.861962
 30
0.0
 11
540.189527
 21
711.861962
 31
0.0
  0
ARC
  5
384
330
1F
100
AcDbEntity
  8
0
  6
CONTINUOUS
 62
     3
100
AcDbCircle
 10
639.189527
 20
788.614528
 30
0.0
 40
48.74345519997779
100
AcDbArc
 50
228.182804
 51
311.817196
  0
ARC
  5
385
330
1F
100
AcDbEntity
  8
0
  6
CONTINUOUS
 62
     3
100
AcDbCircle
 10
639.189527
 20
785.873023
 30
0.0
 40
48.74345519997779
100
AcDbArc
 50
228.182804
 51
311.817196
  0
LINE
  5
386
330
1F
100
AcDbEntity
  8
0
  6
CONTINUOUS
 62
     3
100
AcDbLine
 10
653.189527
 20
739.183362
 30
0.0
 11
653.189527
 21
682.710162
 31
0.0
  0
LINE
  5
387
330
1F
100
AcDbEntity
  8
0
  6
CONTINUOUS
 62
     3
100
AcDbLine
 10
625.189527
 20
739.183362
 30
0.0
 11
625.189527
 21
682.710162
 31
0.0
  0
LINE
  5
388
330
1F
100
AcDbEntity
  8
0
  6
CONTINUOUS
 62
     3
100
AcDbLine
 10
665.189527
 20
744.642883
 30
0.0
 11
665.189527
 21
682.710162
 31
0.0
  0
LINE
  5
389
330
1F
100
AcDbEntity
  8
0
  6
CONTINUOUS
 62
     3
100
AcDbLine
 10
613.189527
 20
744.642883
 30
0.0
 11
613.189527
 21
682.710162
 31
0.0
  0
LINE
  5
38A
330
1F
100
AcDbEntity
  8
0
  6
CONTINUOUS
 62
     5
100
AcDbLine
 10
671.689527
 20
727.33521
 30
0.0
 11
606.689527
 21
727.33521
 31
0.0
  0
LINE
  5
38B
330
1F
100
AcDbEntity
  8
0
  6
CONTINUOUS
 62
     3
100
AcDbLine
 10
653.189527
 20
707.33521
 30
0.0
 11
625.189527
 21
707.33521
 31
0.0
  0
LINE
  5
38C
330
1F
100
AcDbEntity
  8
0
  6
CONTINUOUS
 62
     3
100
AcDbLine
 10
732.326689
 20
717.828907
 30
0.0
 11
665.189527
 21
717.828907
 31
0.0
  0
LINE
  5
38D
330
1F
100
AcDbEntity
  8
0
  6
CONTINUOUS
 62
     3
100
AcDbLine
 10
613.189527
 20
717.828907
 30
0.0
 11
594.189527
 21
717.828907
 31
0.0
  0
LINE
  5
38E
330
1F
100
AcDbEntity
  8
0
  6
CENTER
 62
     5
100
AcDbLine
 10
869.689527
 20
787.664654
 30
0.0
 11
869.689527
 21
619.405703
 31
0.0
  0
LINE
  5
38F
330
1F
100
AcDbEntity
  8
0
  6
CONTINUOUS
 62
     3
100
AcDbLine
 10
1002.989527
 20
757.410162
 30
0.0
 11
1010.657146
 21
682.710162
 31
0.0
  0
LINE
  5
390
330
1F
100
AcDbEntity
  8
0
  6
CONTINUOUS
 62
     3
100
AcDbLine
 10
728.721908
 20
682.710162
 30
0.0
 11
736.389527
 21
757.410162
 31
0.0
  0
LINE
  5
391
330
1F
100
AcDbEntity
  8
0
  6
CONTINUOUS
 62
     3
100
AcDbLine
 10
736.389527
 20
757.410162
 30
0.0
 11
869.689527
 21
763.910162
 31
0.0
  0
LINE
  5
392
330
1F
100
AcDbEntity
  8
0
  6
CONTINUOUS
 62
     3
100
AcDbLine
 10
869.689527
 20
763.910162
 30
0.0
 11
1002.989527
 21
757.410162
 31
0.0
  0
ARC
  5
393
330
1F
100
AcDbEntity
  8
0
  6
CONTINUOUS
 62
     3
100
AcDbCircle
 10
984.848994
 20
738.270971
 30
0.0
 40
20.0
100
AcDbArc
 50
5.860629
 51
87.208344
  0
ARC
  5
394
330
1F
100
AcDbEntity
  8
0
  6
CONTINUOUS
 62
     3
100
AcDbCircle
 10
754.53006
 20
738.270971
 30
0.0
 40
20.0
100
AcDbArc
 50
92.791656
 51
174.139371
  0
LINE
  5
395
330
1F
100
AcDbEntity
  8
0
  6
CONTINUOUS
 62
     2
100
AcDbLine
 10
808.689527
 20
771.910162
 30
0.0
 11
830.689527
 21
771.910162
 31
0.0
  0
LINE
  5
396
330
1F
100
AcDbEntity
  8
0
  6
CONTINUOUS
 62
     2
100
AcDbLine
 10
804.189527
 20
764.410162
 30
0.0
 11
835.189527
 21
764.410162
 31
0.0
  0
LINE
  5
397
330
1F
100
AcDbEntity
  8
0
  6
CONTINUOUS
 62
     2
100
AcDbLine
 10
829.689527
 20
764.410162
 30
0.0
 11
829.689527
 21
761.959674
 31
0.0
  0
LINE
  5
398
330
1F
100
AcDbEntity
  8
0
  6
CONTINUOUS
 62
     2
100
AcDbLine
 10
809.689527
 20
764.410162
 30
0.0
 11
809.689527
 21
760.984431
 31
0.0
  0
LINE
  5
399
330
1F
100
AcDbEntity
  8
0
  6
CONTINUOUS
 62
     2
100
AcDbLine
 10
830.689527
 20
771.910162
 30
0.0
 11
830.689527
 21
766.910162
 31
0.0
  0
LINE
  5
39A
330
1F
100
AcDbEntity
  8
0
  6
CONTINUOUS
 62
     2
100
AcDbLine
 10
808.689527
 20
771.910162
 30
0.0
 11
808.689527
 21
766.910162
 31
0.0
  0
LINE
  5
39B
330
1F
100
AcDbEntity
  8
0
  6
CONTINUOUS
 62
     2
100
AcDbLine
 10
813.689527
 20
771.910162
 30
0.0
 11
813.689527
 21
766.910162
 31
0.0
  0
LINE
  5
39C
330
1F
100
AcDbEntity
  8
0
  6
CONTINUOUS
 62
     2
100
AcDbLine
 10
825.689527
 20
771.910162
 30
0.0
 11
825.689527
 21
766.910162
 31
0.0
  0
LINE
  5
39D
330
1F
100
AcDbEntity
  8
0
  6
CONTINUOUS
 62
     2
100
AcDbLine
 10
835.189527
 20
766.910162
 30
0.0
 11
835.189527
 21
764.410162
 31
0.0
  0
LINE
  5
39E
330
1F
100
AcDbEntity
  8
0
  6
CONTINUOUS
 62
     2
100
AcDbLine
 10
804.189527
 20
766.910162
 30
0.0
 11
804.189527
 21
764.410162
 31
0.0
  0
CIRCLE
  5
39F
330
1F
100
AcDbEntity
  8
0
  6
CONTINUOUS
 62
     2
100
AcDbCircle
 10
819.689527
 20
767.910162
 30
0.0
 40
0.5
  0
LINE
  5
3A0
330
1F
100
AcDbEntity
  8
0
  6
CONTINUOUS
 62
     2
100
AcDbLine
 10
828.689527
 20
764.410162
 30
0.0
 11
828.689527
 21
761.910912
 31
0.0
  0
LINE
  5
3A1
330
1F
100
AcDbEntity
  8
0
  6
CONTINUOUS
 62
     2
100
AcDbLine
 10
810.689527
 20
764.410162
 30
0.0
 11
810.689527
 21
761.033193
 31
0.0
  0
CIRCLE
  5
3A2
330
1F
100
AcDbEntity
  8
0
  6
CONTINUOUS
 62
     2
100
AcDbCircle
 10
830.689527
 20
763.410162
 30
0.0
 40
1.0
  0
CIRCLE
  5
3A3
330
1F
100
AcDbEntity
  8
0
  6
CONTINUOUS
 62
     2
100
AcDbCircle
 10
808.689527
 20
763.410162
 30
0.0
 40
1.0
  0
LINE
  5
3A4
330
1F
100
AcDbEntity
  8
0
  6
CONTINUOUS
 62
     2
100
AcDbLine
 10
804.189527
 20
766.910162
 30
0.0
 11
835.189527
 21
766.910162
 31
0.0
  0
LINE
  5
3A5
330
1F
100
AcDbEntity
  8
0
  6
CONTINUOUS
 62
     5
100
AcDbLine
 10
819.689527
 20
778.596984
 30
0.0
 11
819.689527
 21
755.410162
 31
0.0
  0
LINE
  5
3A6
330
1F
100
AcDbEntity
  8
0
  6
CONTINUOUS
 62
     3
100
AcDbLine
 10
1773.433409
 20
682.710162
 30
0.0
 11
1810.949847
 21
726.230151
 31
0.0
  0
LINE
  5
3A7
330
1F
100
AcDbEntity
  8
0
  6
CONTINUOUS
 62
     3
100
AcDbLine
 10
1712.465616
 20
849.376859
 30
0.0
 11
2006.626036
 21
1190.610162
 31
0.0
  0
LINE
  5
3A8
330
1F
100
AcDbEntity
  8
0
  6
CONTINUOUS
 62
     3
100
AcDbLine
 10
1712.465616
 20
849.376859
 30
0.0
 11
1680.478945
 21
682.710162
 31
0.0
  0
LINE
  5
3A9
330
1F
100
AcDbEntity
  8
0
  6
CENTER
 62
     5
100
AcDbLine
 10
2524.205487
 20
1766.510162
 30
0.0
 11
1693.689527
 21
614.710162
 31
0.0
  0
LINE
  5
3AA
330
1F
100
AcDbEntity
  8
0
  6
CONTINUOUS
 62
     3
100
AcDbLine
 10
2548.089403
 20
1759.123785
 30
0.0
 11
2548.912807
 21
1758.413969
 31
0.0
  0
LINE
  5
3AB
330
1F
100
AcDbEntity
  8
0
  6
CONTINUOUS
 62
     3
100
AcDbLine
 10
2505.429398
 20
1531.843466
 30
0.0
 11
2548.912807
 21
1758.413969
 31
0.0
  0
LINE
  5
3AC
330
1F
100
AcDbEntity
  8
0
  6
CONTINUOUS
 62
     3
100
AcDbLine
 10
1811.948244
 20
759.99491
 30
0.0
 11
1754.565904
 21
742.465877
 31
0.0
  0
LINE
  5
3AD
330
1F
100
AcDbEntity
  8
0
  6
CONTINUOUS
 62
     3
100
AcDbLine
 10
1821.297062
 20
729.390995
 30
0.0
 11
1811.948244
 21
759.99491
 31
0.0
  0
LINE
  5
3AE
330
1F
100
AcDbEntity
  8
0
  6
CONTINUOUS
 62
     3
100
AcDbLine
 10
1763.914721
 20
711.861962
 30
0.0
 11
1754.565904
 21
742.465877
 31
0.0
  0
ARC
  5
3AF
330
1F
100
AcDbEntity
  8
0
  6
CONTINUOUS
 62
     3
100
AcDbCircle
 10
2149.378819
 20
1376.25851
 30
0.0
 40
20.0
100
AcDbArc
 50
48.654256
 51
151.306269
  0
CIRCLE
  5
3B0
330
1F
100
AcDbEntity
  8
0
  6
CONTINUOUS
 62
     3
100
AcDbCircle
 10
2149.378819
 20
1376.25851
 30
0.0
 40
12.5
  0
LINE
  5
3B1
330
1F
100
AcDbEntity
  8
0
  6
CONTINUOUS
 62
     3
100
AcDbLine
 10
2097.317236
 20
1322.796978
 30
0.0
 11
2131.834845
 21
1385.86106
 31
0.0
  0
ARC
  5
3B2
330
1F
100
AcDbEntity
  8
0
  6
CONTINUOUS
 62
     3
100
AcDbCircle
 10
2149.378819
 20
1376.25851
 30
0.0
 40
20.0
100
AcDbArc
 50
8.346393
 51
48.654256
  0
LINE
  5
3B3
330
1F
100
AcDbEntity
  8
0
  6
CONTINUOUS
 62
     3
100
AcDbLine
 10
1723.689527
 20
1756.214286
 30
0.0
 11
2505.429398
 21
849.376859
 31
0.0
  0
LINE
  5
3B4
330
1F
100
AcDbEntity
  8
0
  6
CONTINUOUS
 62
     3
100
AcDbLine
 10
1712.465616
 20
1531.843466
 30
0.0
 11
2444.461604
 21
682.710162
 31
0.0
  0
LINE
  5
3B5
330
1F
100
AcDbEntity
  8
0
  6
CONTINUOUS
 62
     3
100
AcDbLine
 10
1712.465616
 20
1531.843466
 30
0.0
 11
1674.318313
 21
1730.610162
 31
0.0
  0
LINE
  5
3B6
330
1F
100
AcDbEntity
  8
0
  6
CENTER
 62
     5
100
AcDbLine
 10
2524.205487
 20
614.710162
 30
0.0
 11
1693.689527
 21
1766.510162
 31
0.0
  0
ARC
  5
3B7
330
1F
100
AcDbEntity
  8
0
  6
CONTINUOUS
 62
     3
100
AcDbCircle
 10
2517.311073
 20
674.780679
 30
0.0
 40
50.0
100
AcDbArc
 50
9.125044
 51
20.494658
  0
LINE
  5
3B8
330
1F
100
AcDbEntity
  8
0
  6
CONTINUOUS
 62
     3
100
AcDbLine
 10
2505.429398
 20
849.376859
 30
0.0
 11
2564.146315
 21
692.286682
 31
0.0
  0
LINE
  5
3B9
330
1F
100
AcDbEntity
  8
0
  6
CONTINUOUS
 62
     3
100
AcDbLine
 10
2432.459125
 20
682.710162
 30
0.0
 11
2403.141304
 21
713.556908
 31
0.0
  0
ARC
  5
3BA
330
1F
100
AcDbEntity
  8
0
  6
CONTINUOUS
 62
     3
100
AcDbCircle
 10
2417.638144
 20
727.33521
 30
0.0
 40
20.0
100
AcDbArc
 50
175.079372
 51
223.544292
  0
LINE
  5
3BB
330
1F
100
AcDbEntity
  8
0
  6
CONTINUOUS
 62
     3
100
AcDbLine
 10
2396.597952
 20
729.390995
 30
0.0
 11
2406.945166
 21
726.230151
 31
0.0
  0
LINE
  5
3BC
330
1F
100
AcDbEntity
  8
0
  6
CONTINUOUS
 62
     3
100
AcDbLine
 10
2398.592315
 20
735.919663
 30
0.0
 11
2396.597952
 21
729.390995
 31
0.0
  0
LINE
  5
3BD
330
1F
100
AcDbEntity
  8
0
  6
CONTINUOUS
 62
     3
100
AcDbLine
 10
2381.126905
 20
737.129568
 30
0.0
 11
2393.234574
 21
742.134774
 31
0.0
  0
LINE
  5
3BE
330
1F
100
AcDbEntity
  8
0
  6
CONTINUOUS
 62
     3
100
AcDbLine
 10
2377.288396
 20
739.871072
 30
0.0
 11
2390.483673
 21
745.325887
 31
0.0
  0
LINE
  5
3BF
330
1F
100
AcDbEntity
  8
0
  6
CONTINUOUS
 62
     3
100
AcDbLine
 10
2285.525968
 20
1104.470231
 30
0.0
 11
2294.778983
 21
1108.295348
 31
0.0
  0
LINE
  5
3C0
330
1F
100
AcDbEntity
  8
0
  6
CONTINUOUS
 62
     3
100
AcDbLine
 10
2296.738257
 20
1107.482178
 30
0.0
 11
2309.461529
 21
1076.704394
 31
0.0
  0
LINE
  5
3C1
330
1F
100
AcDbEntity
  8
0
  6
CONTINUOUS
 62
     3
100
AcDbLine
 10
2296.738257
 20
1107.482178
 30
0.0
 11
2294.778983
 21
1108.295348
 31
0.0
  0
LINE
  5
3C2
330
1F
100
AcDbEntity
  8
0
  6
CONTINUOUS
 62
     3
100
AcDbLine
 10
2286.557556
 20
1103.273564
 30
0.0
 11
2296.738257
 21
1107.482178
 31
0.0
  0
LINE
  5
3C3
330
1F
100
AcDbEntity
  8
0
  6
CONTINUOUS
 62
     3
100
AcDbLine
 10
2360.797675
 20
779.762372
 30
0.0
 11
2377.288396
 21
739.871072
 31
0.0
  0
LINE
  5
3C4
330
1F
100
AcDbEntity
  8
0
  6
CONTINUOUS
 62
     3
100
AcDbLine
 10
2379.598766
 20
740.826159
 30
0.0
 11
2381.126905
 21
737.129568
 31
0.0
  0
LINE
  5
3C5
330
1F
100
AcDbEntity
  8
0
  6
CONTINUOUS
 62
     3
100
AcDbLine
 10
2383.437275
 20
738.084655
 30
0.0
 11
2402.017102
 21
714.845893
 31
0.0
  0
LINE
  5
3C6
330
1F
100
AcDbEntity
  8
0
  6
CENTER
 62
     5
100
AcDbLine
 10
2149.378818
 20
1376.258513
 30
0.0
 11
2417.638144
 21
727.33521
 31
0.0
  0
LINE
  5
3C7
330
1F
100
AcDbEntity
  8
0
  6
CONTINUOUS
 62
     3
100
AcDbLine
 10
2170.572342
 20
1390.430123
 30
0.0
 11
2173.265306
 21
1383.915803
 31
0.0
  0
LINE
  5
3C8
330
1F
100
AcDbEntity
  8
0
  6
CONTINUOUS
 62
     3
100
AcDbLine
 10
2126.637779
 20
1388.499119
 30
0.0
 11
2156.838464
 21
1400.983823
 31
0.0
  0
LINE
  5
3C9
330
1F
100
AcDbEntity
  8
0
  6
CONTINUOUS
 62
     3
100
AcDbLine
 10
2170.572342
 20
1390.430123
 30
0.0
 11
2156.838464
 21
1400.983823
 31
0.0
  0
LINE
  5
3CA
330
1F
100
AcDbEntity
  8
0
  6
CONTINUOUS
 62
     3
100
AcDbLine
 10
2124.519471
 20
1372.495784
 30
0.0
 11
2126.637779
 21
1388.499119
 31
0.0
  0
LINE
  5
3CB
330
1F
100
AcDbEntity
  8
0
  6
CONTINUOUS
 62
     3
100
AcDbLine
 10
2093.689527
 20
728.510162
 30
0.0
 11
1908.689527
 21
728.510162
 31
0.0
  0
LINE
  5
3CC
330
1F
100
AcDbEntity
  8
0
  6
CONTINUOUS
 62
     3
100
AcDbLine
 10
2104.689527
 20
687.260162
 30
0.0
 11
2104.689527
 21
682.710162
 31
0.0
  0
LINE
  5
3CD
330
1F
100
AcDbEntity
  8
0
  6
CONTINUOUS
 62
     3
100
AcDbLine
 10
1868.689527
 20
728.910162
 30
0.0
 11
1868.689527
 21
682.710162
 31
0.0
  0
LINE
  5
3CE
330
1F
100
AcDbEntity
  8
0
  6
CONTINUOUS
 62
     3
100
AcDbLine
 10
1908.689527
 20
728.910162
 30
0.0
 11
1908.689527
 21
682.710162
 31
0.0
  0
LINE
  5
3CF
330
1F
100
AcDbEntity
  8
0
  6
CONTINUOUS
 62
     3
100
AcDbLine
 10
1908.689527
 20
728.910162
 30
0.0
 11
1868.689527
 21
728.910162
 31
0.0
  0
LINE
  5
3D0
330
1F
100
AcDbEntity
  8
0
  6
CONTINUOUS
 62
     3
100
AcDbLine
 10
2093.689527
 20
728.510162
 30
0.0
 11
2093.689527
 21
682.710162
 31
0.0
  0
LINE
  5
3D1
330
1F
100
AcDbEntity
  8
0
  6
CONTINUOUS
 62
     3
100
AcDbLine
 10
2104.689527
 20
687.260162
 30
0.0
 11
2093.689527
 21
687.260162
 31
0.0
  0
LINE
  5
3D2
330
1F
100
AcDbEntity
  8
0
  6
CONTINUOUS
 62
     5
100
AcDbLine
 10
2104.689527
 20
722.910162
 30
0.0
 11
2089.086905
 21
722.910162
 31
0.0
  0
LINE
  5
3D3
330
1F
100
AcDbEntity
  8
0
  6
CONTINUOUS
 62
     5
100
AcDbLine
 10
2099.389527
 20
725.410162
 30
0.0
 11
2099.389527
 21
720.410162
 31
0.0
  0
LINE
  5
3D4
330
1F
100
AcDbEntity
  8
0
  6
CONTINUOUS
 62
     5
100
AcDbLine
 10
2094.689527
 20
727.910162
 30
0.0
 11
2094.689527
 21
717.910162
 31
0.0
  0
LINE
  5
3D5
330
1F
100
AcDbEntity
  8
0
  6
CONTINUOUS
 62
     5
100
AcDbLine
 10
2095.689527
 20
727.910162
 30
0.0
 11
2095.689527
 21
717.910162
 31
0.0
  0
LINE
  5
3D6
330
1F
100
AcDbEntity
  8
0
  6
CONTINUOUS
 62
     5
100
AcDbLine
 10
2096.989527
 20
727.910162
 30
0.0
 11
2093.689527
 21
727.910162
 31
0.0
  0
LINE
  5
3D7
330
1F
100
AcDbEntity
  8
0
  6
CONTINUOUS
 62
     5
100
AcDbLine
 10
2096.989527
 20
717.910162
 30
0.0
 11
2093.689527
 21
717.910162
 31
0.0
  0
LINE
  5
3D8
330
1F
100
AcDbEntity
  8
0
  6
CONTINUOUS
 62
     5
100
AcDbLine
 10
2096.989527
 20
727.910162
 30
0.0
 11
2096.989527
 21
717.910162
 31
0.0
  0
LINE
  5
3D9
330
1F
100
AcDbEntity
  8
0
  6
CONTINUOUS
 62
     5
100
AcDbLine
 10
2097.389527
 20
727.410162
 30
0.0
 11
2096.989527
 21
727.410162
 31
0.0
  0
LINE
  5
3DA
330
1F
100
AcDbEntity
  8
0
  6
CONTINUOUS
 62
     5
100
AcDbLine
 10
2097.389527
 20
718.410162
 30
0.0
 11
2096.989527
 21
718.410162
 31
0.0
  0
ARC
  5
3DB
330
1F
100
AcDbEntity
  8
0
  6
CONTINUOUS
 62
     5
100
AcDbCircle
 10
2097.389527
 20
725.410162
 30
0.0
 40
2.0
100
AcDbArc
 50
0.0
 51
90.0
  0
ARC
  5
3DC
330
1F
100
AcDbEntity
  8
0
  6
CONTINUOUS
 62
     5
100
AcDbCircle
 10
2097.389527
 20
720.410162
 30
0.0
 40
2.0
100
AcDbArc
 50
270.0
 51
0.0
  0
LINE
  5
3DD
330
1F
100
AcDbEntity
  8
0
  6
CONTINUOUS
 62
     5
100
AcDbLine
 10
2095.689527
 20
721.784329
 30
0.0
 11
2096.989527
 21
724.035995
 31
0.0
  0
LINE
  5
3DE
330
1F
100
AcDbEntity
  8
0
  6
CONTINUOUS
 62
     5
100
AcDbLine
 10
2083.689527
 20
701.492115
 30
0.0
 11
2083.689527
 21
682.710162
 31
0.0
  0
LINE
  5
3DF
330
1F
100
AcDbEntity
  8
0
  6
CONTINUOUS
 62
     5
100
AcDbLine
 10
2061.689527
 20
717.235824
 30
0.0
 11
2061.689527
 21
682.710162
 31
0.0
  0
LINE
  5
3E0
330
1F
100
AcDbEntity
  8
0
  6
CONTINUOUS
 62
     5
100
AcDbLine
 10
2025.689527
 20
701.492115
 30
0.0
 11
2025.689527
 21
699.887874
 31
0.0
  0
LINE
  5
3E1
330
1F
100
AcDbEntity
  8
0
  6
CONTINUOUS
 62
     5
100
AcDbLine
 10
2043.689527
 20
702.992115
 30
0.0
 11
2079.689527
 21
702.992115
 31
0.0
  0
ARC
  5
3E2
330
1F
100
AcDbEntity
  8
0
  6
CONTINUOUS
 62
     5
100
AcDbCircle
 10
2061.689527
 20
684.806504
 30
0.0
 40
12.5
100
AcDbArc
 50
350.345456
 51
140.165413
  0
LINE
  5
3E3
330
1F
100
AcDbEntity
  8
0
  6
CONTINUOUS
 62
     5
100
AcDbLine
 10
2079.689527
 20
702.992115
 30
0.0
 11
2079.689527
 21
682.710162
 31
0.0
  0
LINE
  5
3E4
330
1F
100
AcDbEntity
  8
0
  6
CONTINUOUS
 62
     5
100
AcDbLine
 10
2076.689527
 20
702.992115
 30
0.0
 11
2076.689527
 21
682.710162
 31
0.0
  0
LINE
  5
3E5
330
1F
100
AcDbEntity
  8
0
  6
CONTINUOUS
 62
     5
100
AcDbLine
 10
2043.689527
 20
702.992115
 30
0.0
 11
2043.689527
 21
695.064789
 31
0.0
  0
LINE
  5
3E6
330
1F
100
AcDbEntity
  8
0
  6
CONTINUOUS
 62
     5
100
AcDbLine
 10
2029.689527
 20
701.492115
 30
0.0
 11
2029.689527
 21
698.816078
 31
0.0
  0
ARC
  5
3E7
330
1F
100
AcDbEntity
  8
0
  6
CONTINUOUS
 62
     5
100
AcDbCircle
 10
2061.689527
 20
684.806504
 30
0.0
 40
5.25
100
AcDbArc
 50
336.465379
 51
75.0
  0
LINE
  5
3E8
330
1F
100
AcDbEntity
  8
0
  6
CONTINUOUS
 62
     5
100
AcDbLine
 10
2029.689527
 20
701.492115
 30
0.0
 11
2043.689527
 21
702.992115
 31
0.0
  0
LINE
  5
3E9
330
1F
100
AcDbEntity
  8
0
  6
CONTINUOUS
 62
     5
100
AcDbLine
 10
2027.689527
 20
703.492115
 30
0.0
 11
2044.622235
 21
703.492115
 31
0.0
  0
ARC
  5
3EA
330
1F
100
AcDbEntity
  8
0
  6
CONTINUOUS
 62
     5
100
AcDbCircle
 10
2061.689527
 20
689.83648
 30
0.0
 40
20.28488015661787
100
AcDbArc
 50
47.545857
 51
84.719619
  0
CIRCLE
  5
3EB
330
1F
100
AcDbEntity
  8
0
  6
CONTINUOUS
 62
     5
100
AcDbCircle
 10
2061.689527
 20
707.686868
 30
0.0
 40
3.0
  0
LINE
  5
3EC
330
1F
100
AcDbEntity
  8
0
  6
CONTINUOUS
 62
     5
100
AcDbLine
 10
2054.974224
 20
707.686868
 30
0.0
 11
2067.735302
 21
707.686868
 31
0.0
  0
ARC
  5
3ED
330
1F
100
AcDbEntity
  8
0
  6
CONTINUOUS
 62
     5
100
AcDbCircle
 10
2061.689527
 20
689.83648
 30
0.0
 40
20.28488015661787
100
AcDbArc
 50
95.280381
 51
132.454143
  0
LINE
  5
3EE
330
1F
100
AcDbEntity
  8
0
  6
CONTINUOUS
 62
     5
100
AcDbLine
 10
2078.756819
 20
703.492115
 30
0.0
 11
2081.689527
 21
703.492115
 31
0.0
  0
ARC
  5
3EF
330
1F
100
AcDbEntity
  8
0
  6
CONTINUOUS
 62
     5
100
AcDbCircle
 10
2044.622235
 20
708.492115
 30
0.0
 40
5.0
100
AcDbArc
 50
270.0
 51
312.454143
  0
ARC
  5
3F0
330
1F
100
AcDbEntity
  8
0
  6
CONTINUOUS
 62
     5
100
AcDbCircle
 10
2078.756819
 20
708.492115
 30
0.0
 40
5.0
100
AcDbArc
 50
227.545857
 51
270.0
  0
LINE
  5
3F1
330
1F
100
AcDbEntity
  8
0
  6
CONTINUOUS
 62
     5
100
AcDbLine
 10
2029.689527
 20
687.945678
 30
0.0
 11
2029.689527
 21
682.710162
 31
0.0
  0
LINE
  5
3F2
330
1F
100
AcDbEntity
  8
0
  6
CONTINUOUS
 62
     5
100
AcDbLine
 10
2025.689527
 20
689.017475
 30
0.0
 11
2025.689527
 21
682.710162
 31
0.0
  0
LINE
  5
3F3
330
1F
100
AcDbEntity
  8
0
  6
CONTINUOUS
 62
     5
100
AcDbLine
 10
2043.689527
 20
684.194389
 30
0.0
 11
2043.689527
 21
682.710162
 31
0.0
  0
LINE
  5
3F4
330
1F
100
AcDbEntity
  8
0
  6
CONTINUOUS
 62
     5
100
AcDbLine
 10
2049.631931
 20
684.806504
 30
0.0
 11
2076.689527
 21
684.806504
 31
0.0
  0
LINE
  5
3F5
330
1F
100
AcDbEntity
  8
0
  6
CONTINUOUS
 62
     3
100
AcDbLine
 10
1859.689527
 20
728.910162
 30
0.0
 11
1859.689527
 21
682.710162
 31
0.0
  0
LINE
  5
3F6
330
1F
100
AcDbEntity
  8
0
  6
CONTINUOUS
 62
     5
100
AcDbLine
 10
1858.189527
 20
716.410162
 30
0.0
 11
1853.189527
 21
716.410162
 31
0.0
  0
LINE
  5
3F7
330
1F
100
AcDbEntity
  8
0
  6
CONTINUOUS
 62
     5
100
AcDbLine
 10
1858.089527
 20
713.660162
 30
0.0
 11
1853.189527
 21
713.660162
 31
0.0
  0
LINE
  5
3F8
330
1F
100
AcDbEntity
  8
0
  6
CONTINUOUS
 62
     5
100
AcDbLine
 10
1858.189527
 20
722.410162
 30
0.0
 11
1853.189527
 21
722.410162
 31
0.0
  0
LINE
  5
3F9
330
1F
100
AcDbEntity
  8
0
  6
CONTINUOUS
 62
     5
100
AcDbLine
 10
1858.089527
 20
725.160162
 30
0.0
 11
1853.189527
 21
725.160162
 31
0.0
  0
LINE
  5
3FA
330
1F
100
AcDbEntity
  8
0
  6
CONTINUOUS
 62
     5
100
AcDbLine
 10
2085.689527
 20
728.510162
 30
0.0
 11
2085.689527
 21
682.710162
 31
0.0
  0
LINE
  5
3FB
330
1F
100
AcDbEntity
  8
0
  6
CONTINUOUS
 62
     5
100
AcDbLine
 10
1908.689527
 20
684.410162
 30
0.0
 11
1868.689527
 21
684.410162
 31
0.0
  0
CIRCLE
  5
3FC
330
1F
100
AcDbEntity
  8
0
  6
CONTINUOUS
 62
     1
100
AcDbCircle
 10
1890.189527
 20
715.410162
 30
0.0
 40
3.5
  0
ARC
  5
3FD
330
1F
100
AcDbEntity
  8
0
  6
CONTINUOUS
 62
     1
100
AcDbCircle
 10
1890.189527
 20
715.410162
 30
0.0
 40
10.0
100
AcDbArc
 50
290.487315
 51
249.512685
  0
ARC
  5
3FE
330
1F
100
AcDbEntity
  8
0
  6
CONTINUOUS
 62
     1
100
AcDbCircle
 10
1890.189527
 20
684.410162
 30
0.0
 40
17.0
100
AcDbArc
 50
0.0
 51
185.73917
  0
ARC
  5
3FF
330
1F
100
AcDbEntity
  8
0
  6
CONTINUOUS
 62
     1
100
AcDbCircle
 10
1890.189527
 20
684.410162
 30
0.0
 40
12.0
100
AcDbArc
 50
0.0
 51
188.144301
  0
ARC
  5
400
330
1F
100
AcDbEntity
  8
0
  6
CONTINUOUS
 62
     1
100
AcDbCircle
 10
1890.189527
 20
684.410162
 30
0.0
 40
13.3
100
AcDbArc
 50
0.0
 51
4.456163
  0
LINE
  5
401
330
1F
100
AcDbEntity
  8
0
  6
CONTINUOUS
 62
     1
100
AcDbLine
 10
1886.689527
 20
706.042665
 30
0.0
 11
1886.689527
 21
701.045967
 31
0.0
  0
LINE
  5
402
330
1F
100
AcDbEntity
  8
0
  6
CONTINUOUS
 62
     1
100
AcDbLine
 10
1893.689527
 20
706.042665
 30
0.0
 11
1893.689527
 21
701.045967
 31
0.0
  0
LINE
  5
403
330
1F
100
AcDbEntity
  8
0
  6
CONTINUOUS
 62
     5
100
AcDbLine
 10
1903.825094
 20
715.410162
 30
0.0
 11
1877.885693
 21
715.410162
 31
0.0
  0
LINE
  5
404
330
1F
100
AcDbEntity
  8
0
  6
CONTINUOUS
 62
     1
100
AcDbLine
 10
1908.689527
 20
712.410162
 30
0.0
 11
1899.728919
 21
712.410162
 31
0.0
  0
LINE
  5
405
330
1F
100
AcDbEntity
  8
0
  6
CONTINUOUS
 62
     1
100
AcDbLine
 10
1880.650135
 20
712.410162
 30
0.0
 11
1868.689527
 21
712.410162
 31
0.0
  0
ARC
  5
406
330
1F
100
AcDbEntity
  8
0
  6
CONTINUOUS
 62
     1
100
AcDbCircle
 10
1890.189527
 20
684.410162
 30
0.0
 40
5.0
100
AcDbArc
 50
0.0
 51
199.876874
  0
LINE
  5
407
330
1F
100
AcDbEntity
  8
0
  6
CONTINUOUS
 62
     1
100
AcDbLine
 10
1895.924507
 20
696.410162
 30
0.0
 11
1884.454546
 21
696.410162
 31
0.0
  0
LINE
  5
408
330
1F
100
AcDbEntity
  8
0
  6
CONTINUOUS
 62
     1
100
AcDbLine
 10
1903.449322
 20
685.443523
 30
0.0
 11
1897.714341
 21
695.376801
 31
0.0
  0
LINE
  5
409
330
1F
100
AcDbEntity
  8
0
  6
CONTINUOUS
 62
     1
100
AcDbLine
 10
1876.929732
 20
685.443523
 30
0.0
 11
1882.664712
 21
695.376801
 31
0.0
  0
LINE
  5
40A
330
1F
100
AcDbEntity
  8
0
  6
CONTINUOUS
 62
     1
100
AcDbLine
 10
1884.416024
 20
684.410162
 30
0.0
 11
1887.302775
 21
689.410162
 31
0.0
  0
LINE
  5
40B
330
1F
100
AcDbEntity
  8
0
  6
CONTINUOUS
 62
     1
100
AcDbLine
 10
1894.981534
 20
682.710162
 30
0.0
 11
1895.963029
 21
684.410162
 31
0.0
  0
LINE
  5
40C
330
1F
100
AcDbEntity
  8
0
  6
CONTINUOUS
 62
     1
100
AcDbLine
 10
1885.397519
 20
682.710162
 30
0.0
 11
1884.416024
 21
684.410162
 31
0.0
  0
LINE
  5
40D
330
1F
100
AcDbEntity
  8
0
  6
CONTINUOUS
 62
     1
100
AcDbLine
 10
1895.963029
 20
684.410162
 30
0.0
 11
1893.076278
 21
689.410162
 31
0.0
  0
LINE
  5
40E
330
1F
100
AcDbEntity
  8
0
  6
CONTINUOUS
 62
     1
100
AcDbLine
 10
1893.076278
 20
689.410162
 30
0.0
 11
1887.302775
 21
689.410162
 31
0.0
  0
ARC
  5
40F
330
1F
100
AcDbEntity
  8
0
  6
CONTINUOUS
 62
     1
100
AcDbCircle
 10
1890.189527
 20
684.410162
 30
0.0
 40
3.0
100
AcDbArc
 50
0.0
 51
214.518108
  0
LINE
  5
410
330
1F
100
AcDbEntity
  8
0
  6
CONTINUOUS
 62
     1
100
AcDbLine
 10
1891.055552
 20
685.910162
 30
0.0
 11
1889.323501
 21
685.910162
 31
0.0
  0
LINE
  5
411
330
1F
100
AcDbEntity
  8
0
  6
CONTINUOUS
 62
     1
100
AcDbLine
 10
1891.055552
 20
682.910162
 30
0.0
 11
1889.323501
 21
682.910162
 31
0.0
  0
LINE
  5
412
330
1F
100
AcDbEntity
  8
0
  6
CONTINUOUS
 62
     1
100
AcDbLine
 10
1888.457476
 20
684.410162
 30
0.0
 11
1889.323501
 21
685.910162
 31
0.0
  0
LINE
  5
413
330
1F
100
AcDbEntity
  8
0
  6
CONTINUOUS
 62
     1
100
AcDbLine
 10
1891.055552
 20
682.910162
 30
0.0
 11
1891.921577
 21
684.410162
 31
0.0
  0
LINE
  5
414
330
1F
100
AcDbEntity
  8
0
  6
CONTINUOUS
 62
     1
100
AcDbLine
 10
1888.457476
 20
684.410162
 30
0.0
 11
1889.323501
 21
682.910162
 31
0.0
  0
LINE
  5
415
330
1F
100
AcDbEntity
  8
0
  6
CONTINUOUS
 62
     1
100
AcDbLine
 10
1891.055552
 20
685.910162
 30
0.0
 11
1891.921577
 21
684.410162
 31
0.0
  0
ARC
  5
416
330
1F
100
AcDbEntity
  8
0
  6
CONTINUOUS
 62
     1
100
AcDbCircle
 10
1890.189527
 20
684.410162
 30
0.0
 40
13.3
100
AcDbArc
 50
115.543837
 51
124.456163
  0
ARC
  5
417
330
1F
100
AcDbEntity
  8
0
  6
CONTINUOUS
 62
     1
100
AcDbCircle
 10
1890.189527
 20
684.410162
 30
0.0
 40
13.3
100
AcDbArc
 50
55.543837
 51
64.456163
  0
ARC
  5
418
330
1F
100
AcDbEntity
  8
0
  6
CONTINUOUS
 62
     1
100
AcDbCircle
 10
1890.189527
 20
684.410162
 30
0.0
 40
13.3
100
AcDbArc
 50
175.543837
 51
184.456163
  0
ARC
  5
419
330
1F
100
AcDbEntity
  8
0
  6
CONTINUOUS
 62
     1
100
AcDbCircle
 10
1890.189527
 20
684.410162
 30
0.0
 40
13.3
100
AcDbArc
 50
355.543837
 51
0.0
  0
ARC
  5
41A
330
1F
100
AcDbEntity
  8
0
  6
CONTINUOUS
 62
     5
100
AcDbCircle
 10
2027.689527
 20
701.492115
 30
0.0
 40
2.0
100
AcDbArc
 50
90.0
 51
180.0
  0
ARC
  5
41B
330
1F
100
AcDbEntity
  8
0
  6
CONTINUOUS
 62
     5
100
AcDbCircle
 10
2081.689527
 20
701.492115
 30
0.0
 40
2.0
100
AcDbArc
 50
0.0
 51
90.0
  0
LINE
  5
41C
330
1F
100
AcDbEntity
  8
0
  6
CONTINUOUS
 62
     5
100
AcDbLine
 10
1915.189527
 20
728.510162
 30
0.0
 11
1915.189527
 21
682.710162
 31
0.0
  0
LINE
  5
41D
330
1F
100
AcDbEntity
  8
0
  6
CONTINUOUS
 62
     5
100
AcDbLine
 10
1890.189527
 20
728.910162
 30
0.0
 11
1890.189527
 21
682.710162
 31
0.0
  0
LINE
  5
41E
330
1F
100
AcDbEntity
  8
0
  6
CONTINUOUS
 62
     5
100
AcDbLine
 10
1996.216259
 20
707.785213
 30
0.0
 11
2063.048327
 21
689.877614
 31
0.0
  0
LINE
  5
41F
330
1F
100
AcDbEntity
  8
0
  6
CONTINUOUS
 62
     5
100
AcDbLine
 10
1988.427611
 20
704.436975
 30
0.0
 11
2061.689527
 21
684.806504
 31
0.0
  0
LINE
  5
420
330
1F
100
AcDbEntity
  8
0
  6
CONTINUOUS
 62
     5
100
AcDbLine
 10
1990.524927
 20
698.439801
 30
0.0
 11
2049.228737
 21
682.710162
 31
0.0
  0
LINE
  5
421
330
1F
100
AcDbEntity
  8
0
  6
CONTINUOUS
 62
     3
100
AcDbLine
 10
1868.689527
 20
728.910162
 30
0.0
 11
1834.689527
 21
728.910162
 31
0.0
  0
LINE
  5
422
330
1F
100
AcDbEntity
  8
0
  6
CONTINUOUS
 62
     5
100
AcDbLine
 10
1858.189527
 20
725.510162
 30
0.0
 11
1858.189527
 21
713.310162
 31
0.0
  0
LINE
  5
423
330
1F
100
AcDbEntity
  8
0
  6
CONTINUOUS
 62
     5
100
AcDbLine
 10
1853.189527
 20
725.160162
 30
0.0
 11
1853.189527
 21
713.660162
 31
0.0
  0
LINE
  5
424
330
1F
100
AcDbEntity
  8
0
  6
CONTINUOUS
 62
     5
100
AcDbLine
 10
1859.689527
 20
725.510162
 30
0.0
 11
1858.189527
 21
725.510162
 31
0.0
  0
LINE
  5
425
330
1F
100
AcDbEntity
  8
0
  6
CONTINUOUS
 62
     5
100
AcDbLine
 10
1859.689527
 20
713.310162
 30
0.0
 11
1858.189527
 21
713.310162
 31
0.0
  0
LINE
  5
426
330
1F
100
AcDbEntity
  8
0
  6
CENTER
 62
     5
100
AcDbLine
 10
1875.024305
 20
719.410162
 30
0.0
 11
1858.264031
 21
719.410162
 31
0.0
  0
LINE
  5
427
330
1F
100
AcDbEntity
  8
0
  6
CENTER
 62
     5
100
AcDbLine
 10
1868.689527
 20
719.410162
 30
0.0
 11
1848.727522
 21
719.410162
 31
0.0
  0
ARC
  5
428
330
1F
100
AcDbEntity
  8
0
  6
CONTINUOUS
 62
     3
100
AcDbCircle
 10
1834.689527
 20
702.910162
 30
0.0
 40
10.0
100
AcDbArc
 50
180.0
 51
270.0
  0
ARC
  5
429
330
1F
100
AcDbEntity
  8
0
  6
CONTINUOUS
 62
     3
100
AcDbCircle
 10
1834.689527
 20
738.910162
 30
0.0
 40
10.0
100
AcDbArc
 50
180.0
 51
270.0
  0
LINE
  5
42A
330
1F
100
AcDbEntity
  8
0
  6
CONTINUOUS
 62
     3
100
AcDbLine
 10
1824.689527
 20
742.168516
 30
0.0
 11
1824.689527
 21
738.910162
 31
0.0
  0
LINE
  5
42B
330
1F
100
AcDbEntity
  8
0
  6
CONTINUOUS
 62
     3
100
AcDbLine
 10
1663.689527
 20
1741.510162
 30
0.0
 11
1723.689527
 21
1741.510162
 31
0.0
  0
LINE
  5
42C
330
1F
100
AcDbEntity
  8
0
  6
CONTINUOUS
 62
     5
100
AcDbLine
 10
1664.689527
 20
1740.610162
 30
0.0
 11
1682.689527
 21
1740.610162
 31
0.0
  0
LINE
  5
42D
330
1F
100
AcDbEntity
  8
0
  6
CONTINUOUS
 62
     5
100
AcDbLine
 10
1664.689527
 20
1740.610162
 30
0.0
 11
1664.689527
 21
1741.510162
 31
0.0
  0
LINE
  5
42E
330
1F
100
AcDbEntity
  8
0
  6
CONTINUOUS
 62
     5
100
AcDbLine
 10
1682.689527
 20
1740.610162
 30
0.0
 11
1682.689527
 21
1741.510162
 31
0.0
  0
LINE
  5
42F
330
1F
100
AcDbEntity
  8
0
  6
CONTINUOUS
 62
     5
100
AcDbLine
 10
1665.689527
 20
1730.610162
 30
0.0
 11
1681.689527
 21
1730.610162
 31
0.0
  0
LINE
  5
430
330
1F
100
AcDbEntity
  8
0
  6
CONTINUOUS
 62
     5
100
AcDbLine
 10
1665.689527
 20
1730.610162
 30
0.0
 11
1665.689527
 21
1740.610162
 31
0.0
  0
LINE
  5
431
330
1F
100
AcDbEntity
  8
0
  6
CONTINUOUS
 62
     5
100
AcDbLine
 10
1681.689527
 20
1730.610162
 30
0.0
 11
1681.689527
 21
1740.610162
 31
0.0
  0
LINE
  5
432
330
1F
100
AcDbEntity
  8
0
  6
CONTINUOUS
 62
     5
100
AcDbLine
 10
1704.689527
 20
1740.610162
 30
0.0
 11
1722.689527
 21
1740.610162
 31
0.0
  0
LINE
  5
433
330
1F
100
AcDbEntity
  8
0
  6
CONTINUOUS
 62
     5
100
AcDbLine
 10
1704.689527
 20
1740.610162
 30
0.0
 11
1704.689527
 21
1741.510162
 31
0.0
  0
LINE
  5
434
330
1F
100
AcDbEntity
  8
0
  6
CONTINUOUS
 62
     5
100
AcDbLine
 10
1722.689527
 20
1740.610162
 30
0.0
 11
1722.689527
 21
1741.510162
 31
0.0
  0
LINE
  5
435
330
1F
100
AcDbEntity
  8
0
  6
CONTINUOUS
 62
     5
100
AcDbLine
 10
1705.689527
 20
1730.610162
 30
0.0
 11
1721.689527
 21
1730.610162
 31
0.0
  0
LINE
  5
436
330
1F
100
AcDbEntity
  8
0
  6
CONTINUOUS
 62
     5
100
AcDbLine
 10
1705.689527
 20
1730.610162
 30
0.0
 11
1705.689527
 21
1740.610162
 31
0.0
  0
LINE
  5
437
330
1F
100
AcDbEntity
  8
0
  6
CONTINUOUS
 62
     5
100
AcDbLine
 10
1721.689527
 20
1730.610162
 30
0.0
 11
1721.689527
 21
1740.610162
 31
0.0
  0
LINE
  5
438
330
1F
100
AcDbEntity
  8
0
  6
CONTINUOUS
 62
     3
100
AcDbLine
 10
1663.689527
 20
1741.510162
 30
0.0
 11
1663.689527
 21
1764.710162
 31
0.0
  0
LINE
  5
439
330
1F
100
AcDbEntity
  8
0
  6
CONTINUOUS
 62
     5
100
AcDbLine
 10
1669.192825
 20
1766.510162
 30
0.0
 11
1718.37081
 21
1766.510162
 31
0.0
  0
LINE
  5
43A
330
1F
100
AcDbEntity
  8
0
  6
CONTINUOUS
 62
     3
100
AcDbLine
 10
1723.689527
 20
1741.510162
 30
0.0
 11
1723.689527
 21
1764.710162
 31
0.0
  0
LINE
  5
43B
330
1F
100
AcDbEntity
  8
0
  6
CONTINUOUS
 62
     5
100
AcDbLine
 10
1673.689527
 20
1726.121663
 30
0.0
 11
1673.689527
 21
1764.710162
 31
0.0
  0
LINE
  5
43C
330
1F
100
AcDbEntity
  8
0
  6
CONTINUOUS
 62
     5
100
AcDbLine
 10
1713.689527
 20
1726.121663
 30
0.0
 11
1713.689527
 21
1764.710162
 31
0.0
  0
ARC
  5
43D
330
1F
100
AcDbEntity
  8
0
  6
CONTINUOUS
 62
     3
100
AcDbCircle
 10
1693.689527
 20
1766.510162
 30
0.0
 40
10.0
100
AcDbArc
 50
190.36976
 51
349.63024
  0
LINE
  5
43E
330
1F
100
AcDbEntity
  8
0
  6
CONTINUOUS
 62
     5
100
AcDbLine
 10
1693.689527
 20
1747.601122
 30
0.0
 11
1693.689527
 21
1787.891519
 31
0.0
  0
LINE
  5
43F
330
1F
100
AcDbEntity
  8
0
  6
CONTINUOUS
 62
     3
100
AcDbLine
 10
1654.489527
 20
1764.710162
 30
0.0
 11
3154.489527
 21
1764.710162
 31
0.0
  0
LINE
  5
440
330
1F
100
AcDbEntity
  8
0
  6
CONTINUOUS
 62
     3
100
AcDbLine
 10
1654.489527
 20
1832.710162
 30
0.0
 11
3154.489527
 21
1832.710162
 31
0.0
  0
LINE
  5
441
330
1F
100
AcDbEntity
  8
0
  6
CONTINUOUS
 62
     3
100
AcDbLine
 10
1654.489527
 20
1764.710162
 30
0.0
 11
1654.489527
 21
1832.710162
 31
0.0
  0
LINE
  5
442
330
1F
100
AcDbEntity
  8
0
  6
CONTINUOUS
 62
     5
100
AcDbLine
 10
1693.689527
 20
1746.616237
 30
0.0
 11
1693.689527
 21
1791.194377
 31
0.0
  0
LINE
  5
443
330
1F
100
AcDbEntity
  8
0
  6
CONTINUOUS
 62
     5
100
AcDbLine
 10
1668.650313
 20
1766.510162
 30
0.0
 11
1719.70881
 21
1766.510162
 31
0.0
  0
LINE
  5
444
330
1F
100
AcDbEntity
  8
0
  6
CONTINUOUS
 62
     3
100
AcDbLine
 10
3154.489527
 20
1764.710162
 30
0.0
 11
3154.489527
 21
1832.710162
 31
0.0
  0
LINE
  5
445
330
1F
100
AcDbEntity
  8
0
  6
CONTINUOUS
 62
     5
100
AcDbLine
 10
2491.484202
 20
1766.510162
 30
0.0
 11
2562.591381
 21
1766.510162
 31
0.0
  0
LINE
  5
446
330
1F
100
AcDbEntity
  8
0
  6
CONTINUOUS
 62
     5
100
AcDbLine
 10
2524.205487
 20
1800.446045
 30
0.0
 11
2524.205487
 21
1731.950147
 31
0.0
  0
ARC
  5
447
330
1F
100
AcDbEntity
  8
0
  6
CONTINUOUS
 62
     3
100
AcDbCircle
 10
2524.205487
 20
1766.510162
 30
0.0
 40
25.0
100
AcDbArc
 50
184.128869
 51
355.871131
  0
ARC
  5
448
330
1F
100
AcDbEntity
  8
0
  6
CONTINUOUS
 62
     3
100
AcDbCircle
 10
2524.205487
 20
1766.510162
 30
0.0
 40
10.0
100
AcDbArc
 50
190.36976
 51
349.63024
  0
LINE
  5
449
330
1F
100
AcDbEntity
  8
0
  6
CONTINUOUS
 62
     3
100
AcDbLine
 10
2108.947507
 20
1309.305578
 30
0.0
 11
2499.54441
 21
1762.407568
 31
0.0
  0
LINE
  5
44A
330
1F
100
AcDbEntity
  8
0
  6
CONTINUOUS
 62
     3
100
AcDbLine
 10
2211.268978
 20
1190.610162
 30
0.0
 11
2505.429398
 21
1531.843466
 31
0.0
  0
LINE
  5
44B
330
1F
100
AcDbEntity
  8
0
  6
CONTINUOUS
 62
     3
100
AcDbLine
 10
2239.593392
 20
1223.467177
 30
0.0
 11
2288.309947
 21
1105.621104
 31
0.0
  0
CIRCLE
  5
44C
330
1F
100
AcDbEntity
  8
0
  6
CONTINUOUS
 62
     3
100
AcDbCircle
 10
2108.947507
 20
1190.610162
 30
0.0
 40
28.0
  0
ARC
  5
44D
330
1F
100
AcDbEntity
  8
0
  6
CONTINUOUS
 62
     3
100
AcDbCircle
 10
2417.638144
 20
727.33521
 30
0.0
 40
12.5
100
AcDbArc
 50
182.553235
 51
265.881284
  0
LINE
  5
44E
330
1F
100
AcDbEntity
  8
0
  6
CONTINUOUS
 62
     3
100
AcDbLine
 10
1821.297062
 20
729.390995
 30
0.0
 11
1763.914721
 21
711.861962
 31
0.0
  0
LINE
  5
44F
330
1F
100
AcDbEntity
  8
0
  6
CONTINUOUS
 62
     3
100
AcDbLine
 10
1819.302699
 20
735.919663
 30
0.0
 11
2108.947507
 21
1071.914746
 31
0.0
  0
LINE
  5
450
330
1F
100
AcDbEntity
  8
0
  6
CONTINUOUS
 62
     3
100
AcDbLine
 10
1824.689527
 20
738.910162
 30
0.0
 11
1824.689527
 21
682.710162
 31
0.0
  0
LINE
  5
451
330
1F
100
AcDbEntity
  8
0
  6
CONTINUOUS
 62
     3
100
AcDbLine
 10
1859.689527
 20
692.910162
 30
0.0
 11
1834.689527
 21
692.910162
 31
0.0
  0
ARC
  5
452
330
1F
100
AcDbEntity
  8
0
  6
CONTINUOUS
 62
     1
100
AcDbCircle
 10
1890.189527
 20
684.410162
 30
0.0
 40
12.0
100
AcDbArc
 50
351.855699
 51
0.0
  0
ARC
  5
453
330
1F
100
AcDbEntity
  8
0
  6
CONTINUOUS
 62
     1
100
AcDbCircle
 10
1890.189527
 20
684.410162
 30
0.0
 40
17.0
100
AcDbArc
 50
354.26083
 51
0.0
  0
ARC
  5
454
330
1F
100
AcDbEntity
  8
0
  6
CONTINUOUS
 62
     1
100
AcDbCircle
 10
1890.189527
 20
684.410162
 30
0.0
 40
3.0
100
AcDbArc
 50
325.481892
 51
0.0
  0
ARC
  5
455
330
1F
100
AcDbEntity
  8
0
  6
CONTINUOUS
 62
     1
100
AcDbCircle
 10
1890.189527
 20
684.410162
 30
0.0
 40
5.0
100
AcDbArc
 50
340.123126
 51
0.0
  0
DIMENSION
  5
456
330
1F
100
AcDbEntity
  8
0
100
AcDbDimension
  2
*D13
 10
3154.489527
 20
1982.710162
 30
0.0
 11
2404.489502
 21
1997.709839
 31
0.0
 70
    33
  3
EDDIMINFO
100
AcDbAlignedDimension
 13
1654.489527
 23
1846.710162
 33
0.0
 14
3154.489527
 24
1846.710162
 34
0.0
1001
ACAD
1000
DSTYLE
1002
{
1070
     7
1000
EDTIP_ARROW_E
1070
     6
1000
EDTIP_ARROW_S
1070
   173
1070
     1
1002
}
  0
LINE
  5
460
330
1F
100
AcDbEntity
  8
0
  6
CONTINUOUS
 62
     5
100
AcDbLine
 10
3154.489527
 20
832.710162
 30
0.0
 11
3133.175628
 21
832.710162
 31
0.0
  0
LINE
  5
461
330
1F
100
AcDbEntity
  8
0
  6
CONTINUOUS
 62
     5
100
AcDbLine
 10
3154.489527
 20
764.710162
 30
0.0
 11
3127.400713
 21
764.710162
 31
0.0
  0
LINE
  5
462
330
1F
100
AcDbEntity
  8
0
  6
CONTINUOUS
 62
     5
100
AcDbLine
 10
1654.489527
 20
764.710162
 30
0.0
 11
1654.489527
 21
778.361579
 31
0.0
  0
LINE
  5
463
330
1F
100
AcDbEntity
  8
0
  6
CONTINUOUS
 62
     5
100
AcDbLine
 10
3154.489527
 20
764.710162
 30
0.0
 11
3154.489527
 21
776.706129
 31
0.0
  0
LINE
  5
464
330
1F
100
AcDbEntity
  8
0
  6
CONTINUOUS
 62
     5
100
AcDbLine
 10
1680.52204
 20
832.710162
 30
0.0
 11
1654.489527
 21
832.710162
 31
0.0
  0
LINE
  5
465
330
1F
100
AcDbEntity
  8
0
  6
CONTINUOUS
 62
     5
100
AcDbLine
 10
1678.406897
 20
764.710162
 30
0.0
 11
1654.489527
 21
764.710162
 31
0.0
  0
LINE
  5
466
330
1F
100
AcDbEntity
  8
0
  6
CONTINUOUS
 62
     5
100
AcDbLine
 10
1654.489527
 20
818.079264
 30
0.0
 11
1654.489527
 21
832.710162
 31
0.0
  0
LINE
  5
467
330
1F
100
AcDbEntity
  8
0
  6
CONTINUOUS
 62
     5
100
AcDbLine
 10
1654.489527
 20
789.407326
 30
0.0
 11
1654.489527
 21
808.443613
 31
0.0
  0
LINE
  5
468
330
1F
100
AcDbEntity
  8
0
  6
PHANTOM
 62
     5
100
AcDbLine
 10
3133.175628
 20
832.710162
 30
0.0
 11
1680.52204
 21
832.710162
 31
0.0
  0
LINE
  5
469
330
1F
100
AcDbEntity
  8
0
  6
PHANTOM
 62
     5
100
AcDbLine
 10
3127.400713
 20
764.710162
 30
0.0
 11
1678.406897
 21
764.710162
 31
0.0
  0
LINE
  5
46A
330
1F
100
AcDbEntity
  8
0
  6
CONTINUOUS
 62
     5
100
AcDbLine
 10
3154.489527
 20
819.139195
 30
0.0
 11
3154.489527
 21
832.710162
 31
0.0
  0
LINE
  5
46B
330
1F
100
AcDbEntity
  8
0
  6
CONTINUOUS
 62
     5
100
AcDbLine
 10
3154.489527
 20
786.749458
 30
0.0
 11
3154.489527
 21
809.598032
 31
0.0
  0
DIMENSION
  5
46C
330
1F
100
AcDbEntity
  8
0
100
AcDbDimension
  2
*D14
 10
3304.489527
 20
832.710162
 30
0.0
 11
3289.489502
 21
707.710022
 31
0.0
 70
    33
  3
EDDIMINFO
100
AcDbAlignedDimension
 13
3168.489527
 23
582.710162
 33
0.0
 14
3168.489527
 24
832.710162
 34
0.0
1001
ACAD
1000
DSTYLE
1002
{
1070
     7
1000
EDTIP_ARROW_E
1070
     6
1000
EDTIP_ARROW_S
1070
   173
1070
     1
1002
}
  0
DIMENSION
  5
475
330
1F
100
AcDbEntity
  8
0
100
AcDbDimension
  2
*D15
 10
3304.489527
 20
832.710162
 30
0.0
 11
3289.489502
 21
1332.709961
 31
0.0
 70
    33
  3
EDDIMINFO
100
AcDbAlignedDimension
 13
3304.489527
 23
1832.710162
 33
0.0
 14
3304.489527
 24
832.710162
 34
0.0
1001
ACAD
1000
DSTYLE
1002
{
1070
     7
1000
EDTIP_ARROW_E
1070
     6
1000
EDTIP_ARROW_S
1070
   173
1070
     1
1002
}
  0
DIMENSION
  5
47D
330
1F
100
AcDbEntity
  8
0
100
AcDbDimension
  2
*D16
 10
3454.489527
 20
1832.710162
 30
0.0
 11
3439.489502
 21
1207.709961
 31
0.0
 70
    33
  3
EDDIMINFO
100
AcDbAlignedDimension
 13
3168.489527
 23
582.710162
 33
0.0
 14
3168.489527
 24
1832.710162
 34
0.0
1001
ACAD
1000
DSTYLE
1002
{
1070
     7
1000
EDTIP_ARROW_E
1070
     6
1000
EDTIP_ARROW_S
1070
   173
1070
     1
1002
}
  0
DIMENSION
  5
486
330
1F
100
AcDbEntity
  8
0
100
AcDbDimension
  2
*D17
 10
3154.689527
 20
432.710162
 30
0.0
 11
2404.689453
 21
447.710022
 31
0.0
 70
    33
  3
EDDIMINFO
100
AcDbAlignedDimension
 13
1654.689527
 23
568.710162
 33
0.0
 14
3154.689527
 24
568.710162
 34
0.0
1001
ACAD
1000
DSTYLE
1002
{
1070
     7
1000
EDTIP_ARROW_E
1070
     6
1000
EDTIP_ARROW_S
1070
   173
1070
     1
1002
}
  0
TEXT
  5
490
330
1F
100
AcDbEntity
  8
0
  6
CONTINUOUS
 62
     3
100
AcDbText
 10
1350.721558
 20
1141.603516
 30
0.0
 40
75.0
  1
油圧ユニット
 41
0.8
  7
ED_VECTOR
100
AcDbText
  0
LINE
  5
491
330
1F
100
AcDbEntity
  8
0
  6
CONTINUOUS
 62
     5
100
AcDbLine
 10
2000.781978
 20
728.510162
 30
0.0
 11
1782.670776
 21
1129.573043
 31
0.0
  0
INSERT
  5
492
330
1F
100
AcDbEntity
  8
0
  6
CONTINUOUS
 62
     5
100
AcDbBlockReference
  2
EDTIP_ARROW_S
 10
2000.781978
 20
728.510162
 30
0.0
 41
45.0
 42
45.0
 50
298.538804
  0
LINE
  5
493
330
1F
100
AcDbEntity
  8
0
  6
CONTINUOUS
 62
     5
100
AcDbLine
 10
1332.70355
 20
1129.573043
 30
0.0
 11
1782.670776
 21
1129.573043
 31
0.0
  0
CIRCLE
  5
494
330
1F
100
AcDbEntity
  8
0
  6
CONTINUOUS
 62
     3
100
AcDbCircle
 10
2108.947507
 20
1190.610162
 30
0.0
 40
15.0
  0
LINE
  5
495
330
1F
100
AcDbEntity
  8
0
  6
CONTINUOUS
 62
     5
100
AcDbLine
 10
5080.893358
 20
3279.130236
 30
0.0
 11
3999.584583
 21
3279.130236
 31
0.0
  0
LINE
  5
496
330
1F
100
AcDbEntity
  8
0
  6
CONTINUOUS
 62
     5
100
AcDbLine
 10
5080.893358
 20
3183.130239
 30
0.0
 11
3999.584583
 21
3183.130239
 31
0.0
  0
LINE
  5
497
330
1F
100
AcDbEntity
  8
0
  6
CONTINUOUS
 62
     5
100
AcDbLine
 10
5080.893358
 20
3087.130241
 30
0.0
 11
3999.584583
 21
3087.130241
 31
0.0
  0
LINE
  5
498
330
1F
100
AcDbEntity
  8
0
  6
CONTINUOUS
 62
     5
100
AcDbLine
 10
5080.893358
 20
2991.130244
 30
0.0
 11
4000.893386
 21
2991.130244
 31
0.0
  0
LINE
  5
499
330
1F
100
AcDbEntity
  8
0
  6
CONTINUOUS
 62
     5
100
AcDbLine
 10
5080.893358
 20
2895.130246
 30
0.0
 11
3999.584583
 21
2895.130246
 31
0.0
  0
LINE
  5
49A
330
1F
100
AcDbEntity
  8
0
  6
CONTINUOUS
 62
     5
100
AcDbLine
 10
5080.893358
 20
2799.130248
 30
0.0
 11
3999.584583
 21
2799.130248
 31
0.0
  0
LINE
  5
49B
330
1F
100
AcDbEntity
  8
0
  6
CONTINUOUS
 62
     5
100
AcDbLine
 10
5080.893358
 20
2703.130251
 30
0.0
 11
3999.584583
 21
2703.130251
 31
0.0
  0
LINE
  5
49C
330
1F
100
AcDbEntity
  8
0
  6
CONTINUOUS
 62
     5
100
AcDbLine
 10
5080.893358
 20
2607.130253
 30
0.0
 11
3999.584583
 21
2607.130253
 31
0.0
  0
LINE
  5
49D
330
1F
100
AcDbEntity
  8
0
  6
CONTINUOUS
 62
     5
100
AcDbLine
 10
5080.893358
 20
2511.130256
 30
0.0
 11
3999.584583
 21
2511.130256
 31
0.0
  0
LINE
  5
49E
330
1F
100
AcDbEntity
  8
0
  6
CONTINUOUS
 62
     5
100
AcDbLine
 10
5080.893358
 20
2415.130258
 30
0.0
 11
3999.584583
 21
2415.130258
 31
0.0
  0
LINE
  5
49F
330
1F
100
AcDbEntity
  8
0
  6
CONTINUOUS
 62
     5
100
AcDbLine
 10
5080.893358
 20
2319.13026
 30
0.0
 11
3999.584583
 21
2319.13026
 31
0.0
  0
TEXT
  5
4A0
330
1F
100
AcDbEntity
  8
0
  6
CONTINUOUS
 62
     3
100
AcDbText
 10
4293.169922
 20
3398.858398
 30
0.0
 40
60.0
  1
仕   様
 41
0.8
  7
ED_VECTOR
100
AcDbText
  0
TEXT
  5
4A1
330
1F
100
AcDbEntity
  8
0
  6
CONTINUOUS
 62
     3
100
AcDbText
 10
4015.724121
 20
3291.464111
 30
0.0
 40
60.0
  1
型    式
 41
0.8
  7
ED_VECTOR
100
AcDbText
  0
TEXT
  5
4A2
330
1F
100
AcDbEntity
  8
0
  6
CONTINUOUS
 62
     3
100
AcDbText
 10
4012.994629
 20
3107.730225
 30
0.0
 40
60.0
  1
テーブル寸法
 41
0.8
  7
ED_VECTOR
100
AcDbText
  0
TEXT
  5
4A3
330
1F
100
AcDbEntity
  8
0
  6
CONTINUOUS
 62
     3
100
AcDbText
 10
4015.724121
 20
3013.134033
 30
0.0
 40
60.0
  1
テーブル高サ
 41
0.8
  7
ED_VECTOR
100
AcDbText
  0
TEXT
  5
4A4
330
1F
100
AcDbEntity
  8
0
  6
CONTINUOUS
 62
     3
100
AcDbText
 10
4017.894531
 20
2915.809814
 30
0.0
 40
60.0
  1
ストローク
 41
0.8
  7
ED_VECTOR
100
AcDbText
  0
TEXT
  5
4A5
330
1F
100
AcDbEntity
  8
0
  6
CONTINUOUS
 62
     3
100
AcDbText
 10
4016.984863
 20
2818.485596
 30
0.0
 40
60.0
  1
全   長
 41
0.8
  7
ED_VECTOR
100
AcDbText
  0
TEXT
  5
4A6
330
1F
100
AcDbEntity
  8
0
  6
CONTINUOUS
 62
     3
100
AcDbText
 10
4020.391602
 20
2719.709473
 30
0.0
 40
60.0
  1
全   巾
 41
0.8
  7
ED_VECTOR
100
AcDbText
  0
TEXT
  5
4A7
330
1F
100
AcDbEntity
  8
0
  6
CONTINUOUS
 62
     3
100
AcDbText
 10
4018.054688
 20
2623.881836
 30
0.0
 40
60.0
  1
全   高
 41
0.8
  7
ED_VECTOR
100
AcDbText
  0
TEXT
  5
4A8
330
1F
100
AcDbEntity
  8
0
  6
CONTINUOUS
 62
     3
100
AcDbText
 10
4018.054688
 20
2530.391846
 30
0.0
 40
60.0
  1
リフト方式
 41
0.8
  7
ED_VECTOR
100
AcDbText
  0
TEXT
  5
4A9
330
1F
100
AcDbEntity
  8
0
  6
CONTINUOUS
 62
     3
100
AcDbText
 10
4016.344238
 20
2334.060791
 30
0.0
 40
60.0
  1
モーター
 41
0.8
  7
ED_VECTOR
100
AcDbText
  0
LINE
  5
4AA
330
1F
100
AcDbEntity
  8
0
  6
CONTINUOUS
 62
     5
100
AcDbLine
 10
5080.893358
 20
2223.130263
 30
0.0
 11
3999.584583
 21
2223.130263
 31
0.0
  0
LINE
  5
4AB
330
1F
100
AcDbEntity
  8
0
  6
CONTINUOUS
 62
     5
100
AcDbLine
 10
5080.893358
 20
2031.130268
 30
0.0
 11
3996.376829
 21
2031.130268
 31
0.0
  0
LINE
  5
4AC
330
1F
100
AcDbEntity
  8
0
  6
CONTINUOUS
 62
     5
100
AcDbLine
 10
5080.893358
 20
1935.13027
 30
0.0
 11
3999.584583
 21
1935.13027
 31
0.0
  0
LINE
  5
4AD
330
1F
100
AcDbEntity
  8
0
  6
CONTINUOUS
 62
     5
100
AcDbLine
 10
5080.893358
 20
1839.130272
 30
0.0
 11
3999.584583
 21
1839.130272
 31
0.0
  0
LINE
  5
4AE
330
1F
100
AcDbEntity
  8
0
  6
CONTINUOUS
 62
     5
100
AcDbLine
 10
5080.893358
 20
1743.130275
 30
0.0
 11
3999.584583
 21
1743.130275
 31
0.0
  0
TEXT
  5
4AF
330
1F
100
AcDbEntity
  8
0
  6
CONTINUOUS
 62
     3
100
AcDbText
 10
4020.216797
 20
1855.813599
 30
0.0
 40
60.0
  1
自  　重
 41
0.8
  7
ED_VECTOR
100
AcDbText
  0
TEXT
  5
4B0
330
1F
100
AcDbEntity
  8
0
  6
CONTINUOUS
 62
     3
100
AcDbText
 10
4015.572754
 20
1760.804199
 30
0.0
 40
60.0
  1
塗　装　色　
 41
0.8
  7
ED_VECTOR
100
AcDbText
  0
TEXT
  5
4B1
330
1F
100
AcDbEntity
  8
0
  6
CONTINUOUS
 62
     3
100
AcDbText
 10
4975.091797
 20
3193.717041
 30
0.0
 40
60.0
  1
Ｋｇ
 41
0.8
  7
ED_VECTOR
100
AcDbText
  0
TEXT
  5
4B2
330
1F
100
AcDbEntity
  8
0
  6
CONTINUOUS
 62
     3
100
AcDbText
 10
4449.84375
 20
3103.514893
 30
0.0
 40
60.0
  1
1500 ×800
 41
0.8
  7
ED_VECTOR
100
AcDbText
  0
TEXT
  5
4B3
330
1F
100
AcDbEntity
  8
0
  6
CONTINUOUS
 62
     3
100
AcDbText
 10
4885.627441
 20
3122.814697
 30
0.0
 40
60.0
  1
Ｗ
 41
0.8
  7
ED_VECTOR
100
AcDbText
  0
TEXT
  5
4B4
330
1F
100
AcDbEntity
  8
0
  6
CONTINUOUS
 62
     3
100
AcDbText
 10
4642.859375
 20
3124.846191
 30
0.0
 40
60.0
  1
Ｌ
 41
0.8
  7
ED_VECTOR
100
AcDbText
  0
TEXT
  5
4B5
330
1F
100
AcDbEntity
  8
0
  6
CONTINUOUS
 62
     3
100
AcDbText
 10
4687.936523
 20
2911.900635
 30
0.0
 40
60.0
  1
1000
 41
0.8
  7
ED_VECTOR
100
AcDbText
  0
TEXT
  5
4B6
330
1F
100
AcDbEntity
  8
0
  6
CONTINUOUS
 62
     3
100
AcDbText
 10
4685.736328
 20
2819.627441
 30
0.0
 40
60.0
  1
1500
 41
0.8
  7
ED_VECTOR
100
AcDbText
  0
TEXT
  5
4B7
330
1F
100
AcDbEntity
  8
0
  6
CONTINUOUS
 62
     3
100
AcDbText
 10
4734.757324
 20
2721.441162
 30
0.0
 40
60.0
  1
800
 41
0.8
  7
ED_VECTOR
100
AcDbText
  0
TEXT
  5
4B8
330
1F
100
AcDbEntity
  8
0
  6
CONTINUOUS
 62
     3
100
AcDbText
 10
4448.609863
 20
2531.823975
 30
0.0
 40
60.0
  1
電 動 油 圧 式
 41
0.8
  7
ED_VECTOR
100
AcDbText
  0
TEXT
  5
4B9
330
1F
100
AcDbEntity
  8
0
  6
CONTINUOUS
 62
     3
100
AcDbText
 10
4330.535156
 20
2339.520508
 30
0.0
 40
60.0
  1
ＡＣ2００Ｖ，3相,1.13ＫＷ
 41
0.8
  7
ED_VECTOR
100
AcDbText
  0
TEXT
  5
4BA
330
1F
100
AcDbEntity
  8
0
  6
CONTINUOUS
 62
     3
100
AcDbText
 10
4559.478516
 20
2239.670898
 30
0.0
 40
60.0
  1
長 サ ４ ｍ
 41
0.8
  7
ED_VECTOR
100
AcDbText
  0
TEXT
  5
4BB
330
1F
100
AcDbEntity
  8
0
  6
CONTINUOUS
 62
     3
100
AcDbText
 10
4328.728813
 20
2139.420761
 30
0.0
 40
58.18045
  1
40ｓｅｃ／50ＨＺ,34sec/60HZ
 41
0.585259
  7
ED_VECTOR
100
AcDbText
  0
TEXT
  5
4BC
330
1F
100
AcDbEntity
  8
0
  6
CONTINUOUS
 62
     3
100
AcDbText
 10
4686.357422
 20
1856.605713
 30
0.0
 40
60.0
  1
390  　Ｋｇ
 41
0.8
  7
ED_VECTOR
100
AcDbText
  0
TEXT
  5
4BD
330
1F
100
AcDbEntity
  8
0
  6
CONTINUOUS
 62
     3
100
AcDbText
 10
4733.98584
 20
2624.973877
 30
0.0
 40
60.0
  1
250
 41
0.8
  7
ED_VECTOR
100
AcDbText
  0
TEXT
  5
4BE
330
1F
100
AcDbEntity
  8
0
  6
CONTINUOUS
 62
     3
100
AcDbText
 10
4971.320801
 20
3097.562256
 30
0.0
 40
60.0
  1
mm
 41
0.8
  7
ED_VECTOR
100
AcDbText
  0
TEXT
  5
4BF
330
1F
100
AcDbEntity
  8
0
  6
CONTINUOUS
 62
     3
100
AcDbText
 10
4971.320801
 20
3007.062744
 30
0.0
 40
60.0
  1
mm
 41
0.8
  7
ED_VECTOR
100
AcDbText
  0
TEXT
  5
4C0
330
1F
100
AcDbEntity
  8
0
  6
CONTINUOUS
 62
     3
100
AcDbText
 10
4965.664551
 20
2910.906738
 30
0.0
 40
60.0
  1
mm
 41
0.8
  7
ED_VECTOR
100
AcDbText
  0
TEXT
  5
4C1
330
1F
100
AcDbEntity
  8
0
  6
CONTINUOUS
 62
     3
100
AcDbText
 10
4965.664551
 20
2809.094238
 30
0.0
 40
60.0
  1
mm
 41
0.8
  7
ED_VECTOR
100
AcDbText
  0
TEXT
  5
4C2
330
1F
100
AcDbEntity
  8
0
  6
CONTINUOUS
 62
     3
100
AcDbText
 10
4961.894531
 20
2718.594971
 30
0.0
 40
60.0
  1
mm
 41
0.8
  7
ED_VECTOR
100
AcDbText
  0
TEXT
  5
4C3
330
1F
100
AcDbEntity
  8
0
  6
CONTINUOUS
 62
     3
100
AcDbText
 10
4961.894531
 20
2622.437988
 30
0.0
 40
60.0
  1
mm
 41
0.8
  7
ED_VECTOR
100
AcDbText
  0
LINE
  5
4C4
330
1F
100
AcDbEntity
  8
0
  6
CONTINUOUS
 62
     5
100
AcDbLine
 10
4575.249989
 20
3375.130234
 30
0.0
 11
4262.671032
 21
3375.130234
 31
0.0
  0
LINE
  5
4C5
330
1F
100
AcDbEntity
  8
0
  6
CONTINUOUS
 62
     5
100
AcDbLine
 10
4575.249989
 20
3387.130234
 30
0.0
 11
4262.671032
 21
3387.130234
 31
0.0
  0
TEXT
  5
4C6
330
1F
100
AcDbEntity
  8
0
  6
CONTINUOUS
 62
     3
100
AcDbText
 10
4021.717285
 20
2429.889648
 30
0.0
 40
60.0
  1
操作方式
 41
0.8
  7
ED_VECTOR
100
AcDbText
  0
LINE
  5
4C7
330
1F
100
AcDbEntity
  8
0
  6
CONTINUOUS
 62
     5
100
AcDbLine
 10
5080.893358
 20
2127.130265
 30
0.0
 11
3999.584583
 21
2127.130265
 31
0.0
  0
TEXT
  5
4C8
330
1F
100
AcDbEntity
  8
0
  6
CONTINUOUS
 62
     3
100
AcDbText
 10
4012.24707
 20
3197.919189
 30
0.0
 40
60.0
  1
最大積載荷重
 41
0.8
  7
ED_VECTOR
100
AcDbText
  0
TEXT
  5
4C9
330
1F
100
AcDbEntity
  8
0
  6
CONTINUOUS
 62
     3
100
AcDbText
 10
4017.71875
 20
2239.084961
 30
0.0
 40
60.0
  1
電源コード
 41
0.8
  7
ED_VECTOR
100
AcDbText
  0
TEXT
  5
4CA
330
1F
100
AcDbEntity
  8
0
  6
CONTINUOUS
 62
     3
100
AcDbText
 10
4564.454102
 20
1759.581543
 30
0.0
 40
60.0
  1
標　準　色
 41
0.8
  7
ED_VECTOR
100
AcDbText
  0
TEXT
  5
4CB
330
1F
100
AcDbEntity
  8
0
  6
CONTINUOUS
 62
     3
100
AcDbText
 10
4013.792969
 20
2142.670166
 30
0.0
 40
60.0
  1
上昇時間
 41
0.8
  7
ED_VECTOR
100
AcDbText
  0
TEXT
  5
4CC
330
1F
100
AcDbEntity
  8
0
  6
CONTINUOUS
 62
     3
100
AcDbText
 10
4202.700195
 20
2050.13501
 30
0.0
 40
60.0
  1
上昇端リミットスイッチ付
 41
0.8
  7
ED_VECTOR
100
AcDbText
  0
TEXT
  5
4CD
330
1F
100
AcDbEntity
  8
0
  6
CONTINUOUS
 62
     3
100
AcDbText
 10
4447.666504
 20
2437.521973
 30
0.0
 40
60.0
  1
フットスイッチ
 41
0.8
  7
ED_VECTOR
100
AcDbText
  0
TEXT
  5
4CE
330
1F
100
AcDbEntity
  8
0
  6
CONTINUOUS
 62
     3
100
AcDbText
 10
4689.191895
 20
3198.336914
 30
0.0
 40
60.0
  1
2000
 41
0.8
  7
ED_VECTOR
100
AcDbText
  0
TEXT
  5
4CF
330
1F
100
AcDbEntity
  8
0
  6
CONTINUOUS
 62
     3
100
AcDbText
 10
4499.266602
 20
3010.937256
 30
0.0
 40
60.0
  1
250～1250
 41
0.8
  7
ED_VECTOR
100
AcDbText
  0
TEXT
  5
4D0
330
1F
100
AcDbEntity
  8
0
  6
CONTINUOUS
 62
     3
100
AcDbText
 10
4388.482941
 20
3290.824432
 30
0.0
 40
61.213928
  1
GLE-2000-0815
 41
0.711932
  7
ED_VECTOR
100
AcDbText
  0
ENDSEC
  0
SECTION
  2
OBJECTS
  0
DICTIONARY
  5
C
330
0
100
AcDbDictionary
  3
ACAD_GROUP
350
D
  3
ACAD_LAYOUT
350
1A
  3
ACAD_MATERIAL
350
43
  3
ACAD_MLEADERSTYLE
350
6B
  3
ACAD_MLINESTYLE
350
17
  3
ACAD_PLOTSETTINGS
350
19
  3
ACAD_SCALELIST
350
47
  3
ACAD_VISUALSTYLE
350
2A
  3
ACDBVARIABLEDICTIONARY
350
4D1
1001
ACAD
1000
TREAT_AS_HARD
1070
     0
  0
DICTIONARY
  5
D
102
{ACAD_REACTORS
330
C
102
}
330
C
100
AcDbDictionary
1001
ACAD
1000
TREAT_AS_HARD
1070
     0
  0
DICTIONARY
  5
1A
102
{ACAD_REACTORS
330
C
102
}
330
C
100
AcDbDictionary
1001
ACAD
1000
TREAT_AS_HARD
1070
     0
  0
DICTIONARY
  5
43
102
{ACAD_REACTORS
330
C
102
}
330
C
100
AcDbDictionary
  3
BYBLOCK
350
45
  3
BYLAYER
350
44
  3
GLOBAL
350
46
1001
ACAD
1000
TREAT_AS_HARD
1070
     0
  0
DICTIONARY
  5
6B
102
{ACAD_REACTORS
330
C
102
}
330
C
100
AcDbDictionary
  3
STANDARD
350
6C
1001
ACAD
1000
TREAT_AS_HARD
1070
     0
  0
DICTIONARY
  5
17
102
{ACAD_REACTORS
330
C
102
}
330
C
100
AcDbDictionary
  3
STANDARD
350
18
1001
ACAD
1000
TREAT_AS_HARD
1070
     0
  0
DICTIONARY
  5
19
102
{ACAD_REACTORS
330
C
102
}
330
C
100
AcDbDictionary
1001
ACAD
1000
TREAT_AS_HARD
1070
     0
  0
DICTIONARY
  5
47
102
{ACAD_REACTORS
330
C
102
}
330
C
100
AcDbDictionary
  3
A0
350
48
  3
A1
350
49
  3
A2
350
4A
  3
A3
350
4B
  3
A4
350
4C
  3
A5
350
4D
  3
A6
350
4E
  3
A7
350
4F
  3
A8
350
50
  3
A9
350
51
  3
B0
350
52
  3
B1
350
53
  3
B2
350
54
  3
B3
350
55
  3
B4
350
56
  3
B5
350
57
  3
B6
350
58
  3
B7
350
59
  3
B8
350
5A
  3
B9
350
5B
  3
C0
350
5C
  3
C1
350
5D
  3
C2
350
5E
  3
C3
350
5F
  3
C4
350
60
  3
C5
350
61
  3
C6
350
62
  3
C7
350
63
  3
C8
350
64
  3
C9
350
65
  3
D0
350
66
  3
D1
350
67
  3
D2
350
68
1001
ACAD
1000
TREAT_AS_HARD
1070
     0
  0
DICTIONARY
  5
2A
102
{ACAD_REACTORS
330
C
102
}
330
C
100
AcDbDictionary
  3
2DWIREFRAME
350
2F
  3
BASIC
350
32
  3
BRIGHTEN
350
36
  3
COLORCHANGE
350
3A
  3
CONCEPTUAL
350
34
  3
DIM
350
35
  3
EDGECOLOROFF
350
3D
  3
FACEPATTERN
350
39
  3
FLAT
350
2B
  3
FLATWITHEDGES
350
2C
  3
GOURAUD
350
2D
  3
GOURAUDWITHEDGES
350
2E
  3
HIDDEN
350
31
  3
JITTEROFF
350
3B
  3
LINEPATTERN
350
38
  3
OVERHANGOFF
350
3C
  3
REALISTIC
350
33
  3
SHADED
350
42
  3
SHADED_WITH_EDGES
350
41
  3
SHADES_OF_GRAY
350
3E
  3
SKETCHY
350
3F
  3
THICKEN
350
37
  3
WIREFRAME
350
30
  3
X-RAY
350
40
1001
ACAD
1000
TREAT_AS_HARD
1070
     0
  0
DICTIONARY
  5
4D1
102
{ACAD_REACTORS
330
C
102
}
330
C
100
AcDbDictionary
  3
CANNOSCALE
350
4DC
  3
CENTEREXE
350
4D8
  3
CENTERLTYPEFILE
350
4D9
  3
CMLEADERSTYLE
350
4D3
  3
CTABLESTYLE
350
4D2
  3
DIMASSOC
350
4DA
  3
HIDETEXT
350
4DB
  3
MSLTSCALE
350
4DD
  3
PSOLHEIGHT
350
4D5
  3
PSOLWIDTH
350
4D4
1001
ACAD
1000
TREAT_AS_HARD
1070
     0
  0
MATERIAL
  5
45
102
{ACAD_REACTORS
330
43
102
}
102
{ACAD_XDICTIONARY
360
4E0
102
}
330
43
100
AcDbMaterial
  1
BYBLOCK
  0
MATERIAL
  5
44
102
{ACAD_REACTORS
330
43
102
}
102
{ACAD_XDICTIONARY
360
4DE
102
}
330
43
100
AcDbMaterial
  1
BYLAYER
  0
MATERIAL
  5
46
102
{ACAD_REACTORS
330
43
102
}
102
{ACAD_XDICTIONARY
360
4E2
102
}
330
43
100
AcDbMaterial
  1
GLOBAL
  0
ACAD_PROXY_OBJECT
  5
6C
102
{ACAD_REACTORS
330
6B
102
}
330
6B
100
AcDbZombieObject
 90
      499
 91
      505
 93
      610
310
40901902A4063FBFFFFFE0000000000000020400000000000020404214DD185B99185C990000000000000104090141901A00000000000004100000000000000041025764000000000000039000
340
14
340
0
340
11
340
0
 94
        0
1001
ACAD_MLEADERVER
1070
     2
  0
MLINESTYLE
  5
18
102
{ACAD_REACTORS
330
17
102
}
330
17
100
AcDbMlineStyle
  2
Standard
 70
     0
  3

 62
   256
 51
90.0
 52
90.0
 71
     2
 49
0.5
 62
   256
  6
BYLAYER
 49
-0.5
 62
   256
  6
BYLAYER
  0
ACAD_PROXY_OBJECT
  5
48
102
{ACAD_REACTORS
330
47
102
}
330
47
100
AcDbZombieObject
 90
      499
 91
      503
 93
       41
310
903313A31580
  0
ACAD_PROXY_OBJECT
  5
49
102
{ACAD_REACTORS
330
47
102
}
330
47
100
AcDbZombieObject
 90
      499
 91
      503
 93
      105
310
903313A324000000000000004000
  0
ACAD_PROXY_OBJECT
  5
4A
102
{ACAD_REACTORS
330
47
102
}
330
47
100
AcDbZombieObject
 90
      499
 91
      503
 93
      105
310
903313A344000000000000104000
  0
ACAD_PROXY_OBJECT
  5
4B
102
{ACAD_REACTORS
330
47
102
}
330
47
100
AcDbZombieObject
 90
      499
 91
      503
 93
      105
310
903313A354000000000000144000
  0
ACAD_PROXY_OBJECT
  5
4C
102
{ACAD_REACTORS
330
47
102
}
330
47
100
AcDbZombieObject
 90
      499
 91
      503
 93
      105
310
903313A384000000000000204000
  0
ACAD_PROXY_OBJECT
  5
4D
102
{ACAD_REACTORS
330
47
102
}
330
47
100
AcDbZombieObject
 90
      499
 91
      503
 93
      113
310
904313A31304000000000000244000
  0
ACAD_PROXY_OBJECT
  5
4E
102
{ACAD_REACTORS
330
47
102
}
330
47
100
AcDbZombieObject
 90
      499
 91
      503
 93
      113
310
904313A31364000000000000304000
  0
ACAD_PROXY_OBJECT
  5
4F
102
{ACAD_REACTORS
330
47
102
}
330
47
100
AcDbZombieObject
 90
      499
 91
      503
 93
      113
310
904313A32304000000000000344000
  0
ACAD_PROXY_OBJECT
  5
50
102
{ACAD_REACTORS
330
47
102
}
330
47
100
AcDbZombieObject
 90
      499
 91
      503
 93
      113
310
904313A333040000000000003E4000
  0
ACAD_PROXY_OBJECT
  5
51
102
{ACAD_REACTORS
330
47
102
}
330
47
100
AcDbZombieObject
 90
      499
 91
      503
 93
      113
310
904313A34304000000000000444000
  0
ACAD_PROXY_OBJECT
  5
52
102
{ACAD_REACTORS
330
47
102
}
330
47
100
AcDbZombieObject
 90
      499
 91
      503
 93
      113
310
904313A35304000000000000494000
  0
ACAD_PROXY_OBJECT
  5
53
102
{ACAD_REACTORS
330
47
102
}
330
47
100
AcDbZombieObject
 90
      499
 91
      503
 93
      121
310
905313A3130304000000000000594000
  0
ACAD_PROXY_OBJECT
  5
54
102
{ACAD_REACTORS
330
47
102
}
330
47
100
AcDbZombieObject
 90
      499
 91
      503
 93
      105
310
903323A310000000000000010100
  0
ACAD_PROXY_OBJECT
  5
55
102
{ACAD_REACTORS
330
47
102
}
330
47
100
AcDbZombieObject
 90
      499
 91
      503
 93
      105
310
903343A310000000000000410100
  0
ACAD_PROXY_OBJECT
  5
56
102
{ACAD_REACTORS
330
47
102
}
330
47
100
AcDbZombieObject
 90
      499
 91
      503
 93
      105
310
903383A310000000000000810100
  0
ACAD_PROXY_OBJECT
  5
57
102
{ACAD_REACTORS
330
47
102
}
330
47
100
AcDbZombieObject
 90
      499
 91
      503
 93
      113
310
90431303A310000000000000910100
  0
ACAD_PROXY_OBJECT
  5
58
102
{ACAD_REACTORS
330
47
102
}
330
47
100
AcDbZombieObject
 90
      499
 91
      503
 93
      121
310
9053130303A310000000000001650100
  0
ACAD_PROXY_OBJECT
  5
59
102
{ACAD_REACTORS
330
47
102
}
330
47
100
AcDbZombieObject
 90
      499
 91
      503
 93
      257
310
90E312F31323822203D2031272D3022000000000000200FC000000000000284000
  0
ACAD_PROXY_OBJECT
  5
5A
102
{ACAD_REACTORS
330
47
102
}
330
47
100
AcDbZombieObject
 90
      499
 91
      503
 93
      249
310
90D312F363422203D2031272D3022000000000000240FC000000000000284000
  0
ACAD_PROXY_OBJECT
  5
5B
102
{ACAD_REACTORS
330
47
102
}
330
47
100
AcDbZombieObject
 90
      499
 91
      503
 93
      249
310
90D312F333222203D2031272D3022000000000000280FC000000000000284000
  0
ACAD_PROXY_OBJECT
  5
5C
102
{ACAD_REACTORS
330
47
102
}
330
47
100
AcDbZombieObject
 90
      499
 91
      503
 93
      249
310
90D312F313622203D2031272D30220000000000002C0FC000000000000284000
  0
ACAD_PROXY_OBJECT
  5
5D
102
{ACAD_REACTORS
330
47
102
}
330
47
100
AcDbZombieObject
 90
      499
 91
      503
 93
      249
310
90D332F333222203D2031272D30220000000000002E0FC000000000000284000
  0
ACAD_PROXY_OBJECT
  5
5E
102
{ACAD_REACTORS
330
47
102
}
330
47
100
AcDbZombieObject
 90
      499
 91
      503
 93
      241
310
90C312F3822203D2031272D3022000000000000300FC000000000000284000
  0
ACAD_PROXY_OBJECT
  5
5F
102
{ACAD_REACTORS
330
47
102
}
330
47
100
AcDbZombieObject
 90
      499
 91
      503
 93
      249
310
90D332F313622203D2031272D3022000000000000320FC000000000000284000
  0
ACAD_PROXY_OBJECT
  5
60
102
{ACAD_REACTORS
330
47
102
}
330
47
100
AcDbZombieObject
 90
      499
 91
      503
 93
      241
310
90C312F3422203D2031272D3022000000000000340FC000000000000284000
  0
ACAD_PROXY_OBJECT
  5
61
102
{ACAD_REACTORS
330
47
102
}
330
47
100
AcDbZombieObject
 90
      499
 91
      503
 93
      241
310
90C332F3822203D2031272D3022000000000000360FC000000000000284000
  0
ACAD_PROXY_OBJECT
  5
62
102
{ACAD_REACTORS
330
47
102
}
330
47
100
AcDbZombieObject
 90
      499
 91
      503
 93
      241
310
90C312F3222203D2031272D3022000000000000380FC000000000000284000
  0
ACAD_PROXY_OBJECT
  5
63
102
{ACAD_REACTORS
330
47
102
}
330
47
100
AcDbZombieObject
 90
      499
 91
      503
 93
      241
310
90C332F3422203D2031272D30220000000000003A0FC000000000000284000
  0
ACAD_PROXY_OBJECT
  5
64
102
{ACAD_REACTORS
330
47
102
}
330
47
100
AcDbZombieObject
 90
      499
 91
      503
 93
      161
310
90A3122203D2031272D30224000000000000284000
  0
ACAD_PROXY_OBJECT
  5
65
102
{ACAD_REACTORS
330
47
102
}
330
47
100
AcDbZombieObject
 90
      499
 91
      503
 93
      257
310
90E312D312F3222203D2031272D30220000000000003E0FC000000000000284000
  0
ACAD_PROXY_OBJECT
  5
66
102
{ACAD_REACTORS
330
47
102
}
330
47
100
AcDbZombieObject
 90
      499
 91
      503
 93
      225
310
90A3322203D2031272D302200000000000002100000000000000284000
  0
ACAD_PROXY_OBJECT
  5
67
102
{ACAD_REACTORS
330
47
102
}
330
47
100
AcDbZombieObject
 90
      499
 91
      503
 93
      225
310
90A3622203D2031272D302200000000000006100000000000000284000
  0
ACAD_PROXY_OBJECT
  5
68
102
{ACAD_REACTORS
330
47
102
}
330
47
100
AcDbZombieObject
 90
      499
 91
      503
 93
      249
310
90D31272D3022203D2031272D30220000000000000A100000000000000284000
  0
ACAD_PROXY_OBJECT
  5
2F
102
{ACAD_REACTORS
330
2A
102
}
330
2A
100
AcDbZombieObject
 90
      499
 91
      501
 93
      436
310
42CC9915DA5C99599C985B595049028333333333333E33F0000000000000F90107901411070040501600405405064090741402480A0340
1001
ACAD
1000
AcDbSavedByObjectVersion
1070
     0
  0
ACAD_PROXY_OBJECT
  5
32
102
{ACAD_REACTORS
330
2A
102
}
330
2A
100
AcDbZombieObject
 90
      499
 91
      501
 93
      388
310
4150985CDA58D07406404333333333333E33F0000000000000F90107A41107004050150841D405064090741402480A0350
1001
ACAD
1000
AcDbSavedByObjectVersion
1070
     0
  0
ACAD_PROXY_OBJECT
  5
36
102
{ACAD_REACTORS
330
2A
102
}
330
2A
100
AcDbZombieObject
 90
      499
 91
      501
 93
      428
310
42109C9A59DA1D195B90C409028333333333333E33F0000000000000F9010790141107004050150841D405064090741402480A029950
1001
ACAD
1000
AcDbSavedByObjectVersion
1070
     0
  0
ACAD_PROXY_OBJECT
  5
3A
102
{ACAD_REACTORS
330
2A
102
}
330
2A
100
AcDbZombieObject
 90
      499
 91
      501
 93
      452
310
42D0DBDB1BDC90DA185B99D95104090240C333333333333E33F0000000000000F90108901411070040501508421405064090741402480A0350
1001
ACAD
1000
AcDbSavedByObjectVersion
1070
     0
  0
ACAD_PROXY_OBJECT
  5
34
102
{ACAD_REACTORS
330
2A
102
}
330
2A
100
AcDbZombieObject
 90
      499
 91
      501
 93
      500
310
4290DBDB98D95C1D1D585B10940D028333333333333E33F0000000000000F90107902409070040501000000000018199010841D405064090740C02480A0340
1001
ACAD
1000
AcDbSavedByObjectVersion
1070
     0
  0
ACAD_PROXY_OBJECT
  5
35
102
{ACAD_REACTORS
330
2A
102
}
330
2A
100
AcDbZombieObject
 90
      499
 91
      501
 93
      412
310
40D11A5B50B409028333333333333E33F0000000000000F9010790141107004050150841D405064090741402480A02677FFFFFD0
1001
ACAD
1000
AcDbSavedByObjectVersion
1070
     0
  0
ACAD_PROXY_OBJECT
  5
3D
102
{ACAD_REACTORS
330
2A
102
}
330
2A
100
AcDbZombieObject
 90
      499
 91
      501
 93
      452
310
43115919D950DBDB1BDC93D999916409028333333333333E33F0000000000000F9010790141107004050150841D405064090741402480A0350
1001
ACAD
1000
AcDbSavedByObjectVersion
1070
     0
  0
ACAD_PROXY_OBJECT
  5
39
102
{ACAD_REACTORS
330
2A
102
}
330
2A
100
AcDbZombieObject
 90
      499
 91
      501
 93
      444
310
42D19858D95C185D1D195C9B90F409028333333333333E33F0000000000000F9010790141107004050150841D405064090741402480A0350
1001
ACAD
1000
AcDbSavedByObjectVersion
1070
     0
  0
ACAD_PROXY_OBJECT
  5
2B
102
{ACAD_REACTORS
330
2A
102
}
330
2A
100
AcDbZombieObject
 90
      499
 91
      501
 93
      380
310
41119B185D240901404333333333333E33F0000000000000F9010740A907004050150841D405064090741402480A1B50
1001
ACAD
1000
AcDbSavedByObjectVersion
1070
     0
  0
ACAD_PROXY_OBJECT
  5
2C
102
{ACAD_REACTORS
330
2A
102
}
330
2A
100
AcDbZombieObject
 90
      499
 91
      501
 93
      468
310
43519B185D15DA5D1A115919D95CD0140901404333333333333E33F0000000000000F90107409019070040501600405405064090741402480A1B50
1001
ACAD
1000
AcDbSavedByObjectVersion
1070
     0
  0
ACAD_PROXY_OBJECT
  5
2D
102
{ACAD_REACTORS
330
2A
102
}
330
2A
100
AcDbZombieObject
 90
      499
 91
      501
 93
      404
310
41D1DBDD5C985D5910240902404333333333333E33F0000000000000F9010740A9070040501641D405064090741402480A1B50
1001
ACAD
1000
AcDbSavedByObjectVersion
1070
     0
  0
ACAD_PROXY_OBJECT
  5
2E
102
{ACAD_REACTORS
330
2A
102
}
330
2A
100
AcDbZombieObject
 90
      499
 91
      501
 93
      492
310
4411DBDD5C985D5915DA5D1A115919D95CD0340902404333333333333E33F0000000000000F90107409019070040501600405405064090741402480A1B50
1001
ACAD
1000
AcDbSavedByObjectVersion
1070
     0
  0
ACAD_PROXY_OBJECT
  5
31
102
{ACAD_REACTORS
330
2A
102
}
330
2A
100
AcDbZombieObject
 90
      499
 91
      501
 93
      476
310
41921A5919195B90640502408333333333333E33F0000000000000F901079024090700405020000000000001110200405405064090740C02480A0340
1001
ACAD
1000
AcDbSavedByObjectVersion
1070
     0
  0
ACAD_PROXY_OBJECT
  5
3B
102
{ACAD_REACTORS
330
2A
102
}
330
2A
100
AcDbZombieObject
 90
      499
 91
      501
 93
      428
310
42529A5D1D195C93D999914409028333333333333E33F0000000000000F9010790141107004050150A41D405064090741402480A0350
1001
ACAD
1000
AcDbSavedByObjectVersion
1070
     0
  0
ACAD_PROXY_OBJECT
  5
38
102
{ACAD_REACTORS
330
2A
102
}
330
2A
100
AcDbZombieObject
 90
      499
 91
      501
 93
      444
310
42D31A5B995C185D1D195C9B90E409028333333333333E33F0000000000000F9010790141107004050750841D405064090741402483A0350
1001
ACAD
1000
AcDbSavedByObjectVersion
1070
     0
  0
ACAD_PROXY_OBJECT
  5
3C
102
{ACAD_REACTORS
330
2A
102
}
330
2A
100
AcDbZombieObject
 90
      499
 91
      501
 93
      444
310
42D3DD995C9A185B99D3D999915409028333333333333E33F0000000000000F9010790141107004050150941D405064090741402480A0350
1001
ACAD
1000
AcDbSavedByObjectVersion
1070
     0
  0
ACAD_PROXY_OBJECT
  5
33
102
{ACAD_REACTORS
330
2A
102
}
330
2A
100
AcDbZombieObject
 90
      499
 91
      501
 93
      428
310
425499585B1A5CDD1A58D08409038333333333333E33F0000000000000F9010740A907004050150800405405064090740C02480A1B40
1001
ACAD
1000
AcDbSavedByObjectVersion
1070
     0
  0
ACAD_PROXY_OBJECT
  5
42
102
{ACAD_REACTORS
330
2A
102
}
330
2A
100
AcDbZombieObject
 90
      499
 91
      501
 93
      420
310
4194DA1859195911B40902404333333333333E33F0000000000000F9010740A41107004050150800405405064090840C02480A0B40
1001
ACAD
1000
AcDbSavedByObjectVersion
1070
     0
  0
ACAD_PROXY_OBJECT
  5
41
102
{ACAD_REACTORS
330
2A
102
}
330
2A
100
AcDbZombieObject
 90
      499
 91
      501
 93
      516
310
4454DA18591959081DDA5D1A08195919D95CD1A40902404333333333333E33F0000000000000F901074090142907004050250800405405064090740C02480A0B40
1001
ACAD
1000
AcDbSavedByObjectVersion
1070
     0
  0
ACAD_PROXY_OBJECT
  5
3E
102
{ACAD_REACTORS
330
2A
102
}
330
2A
100
AcDbZombieObject
 90
      499
 91
      501
 93
      532
310
4394DA1859195CC81BD98811DC985E5174090240C333333333333E33F0000000000000F901079024090741D01000000000000111010841D405064090740C02480A0340
1001
ACAD
1000
AcDbSavedByObjectVersion
1070
     0
  0
ACAD_PROXY_OBJECT
  5
3F
102
{ACAD_REACTORS
330
2A
102
}
330
2A
100
AcDbZombieObject
 90
      499
 91
      501
 93
      476
310
41D4DAD95D18DA1E51840502408333333333333E33F0000000000000F901079024090741D01000000000000111010B41D405064090741802480A0340
1001
ACAD
1000
AcDbSavedByObjectVersion
1070
     0
  0
ACAD_PROXY_OBJECT
  5
37
102
{ACAD_REACTORS
330
2A
102
}
330
2A
100
AcDbZombieObject
 90
      499
 91
      501
 93
      412
310
41D51A1A58DAD95B90D409028333333333333E33F0000000000000F9010790141107004050150C41D405064090741402480A0350
1001
ACAD
1000
AcDbSavedByObjectVersion
1070
     0
  0
ACAD_PROXY_OBJECT
  5
30
102
{ACAD_REACTORS
330
2A
102
}
330
2A
100
AcDbZombieObject
 90
      499
 91
      501
 93
      420
310
4255DA5C99599C985B595059028333333333333E33F0000000000000F90107901411070040501600405405064090740C02480A0340
1001
ACAD
1000
AcDbSavedByObjectVersion
1070
     0
  0
ACAD_PROXY_OBJECT
  5
40
102
{ACAD_REACTORS
330
2A
102
}
330
2A
100
AcDbZombieObject
 90
      499
 91
      501
 93
      404
310
41560B54985E51940902404000000000000E03F0000000000000F9010740501907004050150841D405064090740C02480A1B40
1001
ACAD
1000
AcDbSavedByObjectVersion
1070
     0
  0
DICTIONARYVAR
  5
4DC
102
{ACAD_REACTORS
330
4D1
102
}
330
4D1
100
DictionaryVariables
280
     0
  1
1:1
  0
DICTIONARYVAR
  5
4D8
102
{ACAD_REACTORS
330
4D1
102
}
330
4D1
100
DictionaryVariables
280
     0
  1
3.500000
  0
DICTIONARYVAR
  5
4D9
102
{ACAD_REACTORS
330
4D1
102
}
330
4D1
100
DictionaryVariables
280
     0
  1
acadiso.lin
  0
DICTIONARYVAR
  5
4D3
102
{ACAD_REACTORS
330
4D1
102
}
330
4D1
100
DictionaryVariables
280
     0
  1
Standard
  0
DICTIONARYVAR
  5
4D2
102
{ACAD_REACTORS
330
4D1
102
}
330
4D1
100
DictionaryVariables
280
     0
  1
Standard
  0
DICTIONARYVAR
  5
4DA
102
{ACAD_REACTORS
330
4D1
102
}
330
4D1
100
DictionaryVariables
280
     0
  1
2
  0
DICTIONARYVAR
  5
4DB
102
{ACAD_REACTORS
330
4D1
102
}
330
4D1
100
DictionaryVariables
280
     0
  1
1
  0
DICTIONARYVAR
  5
4DD
102
{ACAD_REACTORS
330
4D1
102
}
330
4D1
100
DictionaryVariables
280
     0
  1
1
  0
DICTIONARYVAR
  5
4D5
102
{ACAD_REACTORS
330
4D1
102
}
330
4D1
100
DictionaryVariables
280
     0
  1
80.000000
  0
DICTIONARYVAR
  5
4D4
102
{ACAD_REACTORS
330
4D1
102
}
330
4D1
100
DictionaryVariables
280
     0
  1
5.000000
  0
DICTIONARY
  5
4E0
330
45
100
AcDbDictionary
  3
ACAD_XREC_ROUNDTRIP
360
4E1
1001
ACAD
1000
TREAT_AS_HARD
1070
     1
  0
DICTIONARY
  5
4DE
330
44
100
AcDbDictionary
  3
ACAD_XREC_ROUNDTRIP
360
4DF
1001
ACAD
1000
TREAT_AS_HARD
1070
     1
  0
DICTIONARY
  5
4E2
330
46
100
AcDbDictionary
  3
ACAD_XREC_ROUNDTRIP
360
4E3
1001
ACAD
1000
TREAT_AS_HARD
1070
     1
  0
XRECORD
  5
4E1
102
{ACAD_REACTORS
330
4E0
102
}
330
4E0
100
AcDbXrecord
102
MATERIAL
148
0.0
149
0.0
149
0.0
 93
        0
 94
      127
282
     0
 72
     1
 77
     1
171
     1
175
     1
179
     1
273
     0
  0
XRECORD
  5
4DF
102
{ACAD_REACTORS
330
4DE
102
}
330
4DE
100
AcDbXrecord
102
MATERIAL
148
0.0
149
0.0
149
0.0
 93
        0
 94
      127
282
     0
 72
     1
 77
     1
171
     1
175
     1
179
     1
273
     0
  0
XRECORD
  5
4E3
102
{ACAD_REACTORS
330
4E2
102
}
330
4E2
100
AcDbXrecord
102
MATERIAL
148
0.0
149
0.0
149
0.0
 93
        0
 94
      127
282
     0
 72
     1
 77
     1
171
     1
175
     1
179
     1
273
     0
  0
ENDSEC
  0
EOF
