  0
SECTION
  2
HEADER
  9
$ACADVER
  1
AC1006
  9
$INSBASE
 10
0.000000
 20
0.000000
 30
0.0
  9
$EXTMIN
 10
0.000000
 20
0.000000
  9
$EXTMAX
 10
3640.000000
 20
2570.000000
  9
$LIMMIN
 10
0.000000
 20
0.000000
  9
$LIMMAX
 10
3640.000000
 20
2570.000000
  9
$VIEWCTR
 10
1820.000000
 20
1285.000000
  9
$VIEWSIZE
 40
2570.000000
  9
$SNAPMODE
 70
     0
  9
$SNAPUNIT
 10
1.0
 20
1.0
  9
$SNAPBASE
 10
0.0
 20
0.0
  9
$SNAPANG
 50
0.0
  9
$SNAPSTYLE
 70
     0
  9
$SNAPISOPAIR
 70
     0
  9
$GRIDMODE
 70
     0
  9
$GRIDUNIT
 10
0.0
 20
0.0
  9
$ORTHOMODE
 70
     0
  9
$REGENMODE
 70
     1
  9
$FILLMODE
 70
     1
  9
$QTEXTMODE
 70
     0
  9
$DRAGMODE
 70
     2
  9
$LTSCALE
 40
15.000000
  9
$OSMODE
 70
     0
  9
$ATTMODE
 70
     1
  9
$TEXTSIZE
 40
0.2
  9
$TRACEWID
 40
0.05
  9
$TEXTSTYLE
  7
STANDARD
  9
$CLAYER
  8
CSLAYER1
  9
$CELTYPE
  6
BYLAYER
  9
$CECOLOR
 62
   256
  9
$DIMSCALE
 40
1.0
  9
$DIMASZ
 40
0.18
  9
$DIMEXO
 40
0.0625
  9
$DIMDLI
 40
0.38
  9
$DIMRND
 40
0.0
  9
$DIMDLE
 40
0.0
  9
$DIMEXE
 40
0.18
  9
$DIMTP
 40
0.0
  9
$DIMTM
 40
0.0
  9
$DIMTXT
 40
0.18
  9
$DIMCEN
 40
0.09
  9
$DIMTSZ
 40
0.0
  9
$DIMTOL
 70
     0
  9
$DIMLIM
 70
     0
  9
$DIMTIH
 70
     1
  9
$DIMTOH
 70
     1
  9
$DIMSE1
 70
     0
  9
$DIMSE2
 70
     0
  9
$DIMTAD
 70
     0
  9
$DIMZIN
 70
     0
  9
$DIMBLK
  1

  9
$LUNITS
 70
     2
  9
$LUPREC
 70
     4
  9
$AXISMODE
 70
     0
  9
$AXISUNIT
 10
0.0
 20
0.0
  9
$SKETCHINC
 40
0.1
  9
$FILLETRAD
 40
0.0
  9
$AUNITS
 70
     0
  9
$AUPREC
 70
     0
  9
$MENU
  1
ACAD
  9
$ELEVATION
 40
0.0
  9
$THICKNESS
 40
0.0
  9
$VIEWDIR
 10
0.0
 20
0.0
 30
1.0
  9
$LIMCHECK
 70
     0
  9
$BLIPMODE
 70
     1
  9
$CHAMFERA
 40
0.0
  9
$CHAMFERB
 40
0.0
  9
$FASTZOOM
 70
     1
  9
$SKPOLY
 70
     0
  9
$TDCREATE
 40
2456685.000000
  9
$TDUPDATE
 40
2456685.000000
  9
$TDINDWG
 40
0.0
  9
$TDUSRTIMER
 40
0.0
  9
$USRTIMER
 70
     1
  9
$ANGBASE
 50
0.0
  9
$ANGDIR
 70
     0
  9
$PDMODE
 70
     0
  9
$PDSIZE
 40
0.0
  9
$PLINEWID
 40
0.0
  9
$COORDS
 70
     0
  9
$USERI1
 70
     0
  9
$USERI2
 70
     0
  9
$USERI3
 70
     0
  9
$USERI4
 70
     0
  9
$USERI5
 70
     0
  9
$USERR1
 40
0.0
  9
$USERR2
 40
0.0
  9
$USERR3
 40
0.0
  9
$USERR4
 40
0.0
  9
$USERR5
 40
0.0
  0
ENDSEC
  0
SECTION
  2
TABLES
  0
TABLE
  2
LTYPE
 70
     9
  0
LTYPE
  2
CONTINUOUS
 70
    64
  3
Solid line
 72
    65
 73
     0
 40
0.0
  0
LTYPE
  2
DASHED
 70
    64
  3
__ __ __ __ __ __ __ __ __ __ __ __ __ __ __
 72
    65
 73
     2
 40
0.75
 49
0.5
 49
-0.25
  0
LTYPE
  2
HIDDEN
 70
    64
  3
_ _ _ _ _ _ _ _ _ _ _ _ _ _ _ _ _ _ _ _ _ _ _
 72
    65
 73
     2
 40
0.375
 49
0.25
 49
-0.125
  0
LTYPE
  2
DOT
 70
    64
  3
...............................................
 72
    65
 73
     2
 40
0.25
 49
0.0
 49
-0.25
  0
LTYPE
  2
DASHDOT
 70
    64
  3
__ . __ . __ . __ . __ . __ . __ . __ . __ . __
 72
    65
 73
     4
 40
1.0
 49
0.5
 49
-0.25
 49
0.0
 49
-0.25
  0
LTYPE
  2
DIVIDE
 70
    64
  3
__ . . __ . . __ . . __ . . __ . . __ . . __
 72
    65
 73
     6
 40
1.25
 49
0.5
 49
-0.25
 49
0.0
 49
-0.25
 49
0.0
 49
-0.25
  0
LTYPE
  2
CENTER
 70
    64
  3
____ _ ____ _ ____ _ ____ _ ____ _ ____ _ ____ 
 72
    65
 73
     4
 40
2.0
 49
1.25
 49
-0.25
 49
0.25
 49
-0.25
  0
LTYPE
  2
PHANTOM
 70
    64
  3
______  __  __  ______  __  __  ______  __  __ 
 72
    65
 73
     6
 40
2.5
 49
1.25
 49
-0.25
 49
0.25
 49
-0.25
 49
0.25
 49
-0.25
  0
LTYPE
  2
BORDER
 70
    64
  3
__ __ . __ __ . __ __ . __ __ . __ __ . __ __ .
 72
    65
 73
     6
 40
1.75
 49
0.5
 49
-0.25
 49
0.5
 49
-0.25
 49
0.0
 49
-0.25
  0
ENDTAB
  0
TABLE
  2
LAYER
 70
    16
  0
LAYER
  2
CSLAYER1
 70
    64
 62
     7
  6
CONTINUOUS
  0
LAYER
  2
CSLAYER2
 70
    64
 62
     7
  6
CONTINUOUS
  0
LAYER
  2
CSLAYER3
 70
    64
 62
     7
  6
CONTINUOUS
  0
LAYER
  2
CSLAYER4
 70
    64
 62
     7
  6
CONTINUOUS
  0
LAYER
  2
CSLAYER5
 70
    64
 62
     7
  6
CONTINUOUS
  0
LAYER
  2
CSLAYER6
 70
    64
 62
     7
  6
CONTINUOUS
  0
LAYER
  2
CSLAYER7
 70
    64
 62
     7
  6
CONTINUOUS
  0
LAYER
  2
CSLAYER8
 70
    64
 62
     7
  6
CONTINUOUS
  0
LAYER
  2
CSLAYER9
 70
    64
 62
     7
  6
CONTINUOUS
  0
LAYER
  2
CSLAYER10
 70
    64
 62
     7
  6
CONTINUOUS
  0
LAYER
  2
CSLAYER11
 70
    64
 62
     7
  6
CONTINUOUS
  0
LAYER
  2
CSLAYER12
 70
    64
 62
     7
  6
CONTINUOUS
  0
LAYER
  2
CSLAYER13
 70
    64
 62
     7
  6
CONTINUOUS
  0
LAYER
  2
CSLAYER14
 70
    64
 62
     7
  6
CONTINUOUS
  0
LAYER
  2
CSLAYER15
 70
    64
 62
     7
  6
CONTINUOUS
  0
LAYER
  2
CSLAYER16
 70
    64
 62
     7
  6
CONTINUOUS
  0
ENDTAB
  0
TABLE
  2
STYLE
 70
     1
  0
STYLE
  2
EASYDRAW_FONT
 70
     0
 40
1.0
 41
1.0
 50
0.0
 71
     0
 42
1.0
  3
monotxt
  4
bigfont
  0
ENDTAB
  0
TABLE
  2
VIEW
 70
     0
  0
ENDTAB
  0
ENDSEC
  0
SECTION
  2
BLOCKS
  0
BLOCK
  8
CSLAYER1
  2
*D0000
 70
    65
 10
0.0
 20
0.0
 30
0.0
  0
TEXT
  8
CSLAYER1
 62
     3
 10
2193.233643
 20
1770.085815
 40
40.000000
 41
0.843750
  1
600
 50
90.000000
 51
0.000000
  7
EASYDRAW_FONT
 72
     5
 11
2193.233643
 21
1860.085815
  0
LINE
  8
CSLAYER1
  6
CONTINUOUS
 62
     5
 10
2063.233656
 20
1515.085867
 11
2213.233656
 21
1515.085867
  0
LINE
  8
CSLAYER1
  6
CONTINUOUS
 62
     5
 10
2063.233656
 20
2115.085867
 11
2213.233656
 21
2115.085867
  0
LINE
  8
CSLAYER1
  6
CONTINUOUS
 62
     5
 10
2203.233656
 20
1515.085867
 11
2203.233656
 21
2115.085867
  0
LINE
  8
CSLAYER1
  6
CONTINUOUS
 62
     5
 10
2203.233656
 20
1515.085867
 11
2195.469085
 21
1544.063642
  0
LINE
  8
CSLAYER1
  6
CONTINUOUS
 62
     5
 10
2203.233656
 20
1515.085867
 11
2210.998227
 21
1544.063642
  0
LINE
  8
CSLAYER1
  6
CONTINUOUS
 62
     5
 10
2203.233656
 20
2115.085867
 11
2195.469085
 21
2086.108092
  0
LINE
  8
CSLAYER1
  6
CONTINUOUS
 62
     5
 10
2203.233656
 20
2115.085867
 11
2210.998227
 21
2086.108092
  0
ENDBLK
  8
0
  0
BLOCK
  8
CSLAYER1
  2
*D0001
 70
    65
 10
0.0
 20
0.0
 30
0.0
  0
TEXT
  8
CSLAYER1
 62
     3
 10
2193.233643
 20
514.148010
 40
40.000000
 41
0.843750
  1
260
 50
90.000000
 51
0.000000
  7
EASYDRAW_FONT
 72
     5
 11
2193.233643
 21
604.148010
  0
LINE
  8
CSLAYER1
  6
CONTINUOUS
 62
     5
 10
2063.427564
 20
429.148001
 11
2373.233656
 21
429.148001
  0
LINE
  8
CSLAYER1
  6
CONTINUOUS
 62
     5
 10
2063.427564
 20
689.148001
 11
2213.233656
 21
689.148001
  0
LINE
  8
CSLAYER1
  6
CONTINUOUS
 62
     5
 10
2203.233656
 20
429.148001
 11
2203.233656
 21
689.148001
  0
LINE
  8
CSLAYER1
  6
CONTINUOUS
 62
     5
 10
2203.233656
 20
429.148001
 11
2195.469085
 21
458.125776
  0
LINE
  8
CSLAYER1
  6
CONTINUOUS
 62
     5
 10
2203.233656
 20
429.148001
 11
2210.998227
 21
458.125776
  0
LINE
  8
CSLAYER1
  6
CONTINUOUS
 62
     5
 10
2203.233656
 20
689.148001
 11
2195.469085
 21
660.170226
  0
LINE
  8
CSLAYER1
  6
CONTINUOUS
 62
     5
 10
2203.233656
 20
689.148001
 11
2210.998227
 21
660.170226
  0
ENDBLK
  8
0
  0
BLOCK
  8
CSLAYER1
  2
*D0002
 70
    65
 10
0.0
 20
0.0
 30
0.0
  0
TEXT
  8
CSLAYER1
 62
     3
 10
2193.233643
 20
944.616882
 40
40.000000
 41
0.843750
  1
560
 50
90.000000
 51
0.000000
  7
EASYDRAW_FONT
 72
     5
 11
2193.233643
 21
1034.616882
  0
LINE
  8
CSLAYER1
  6
CONTINUOUS
 62
     5
 10
2063.233656
 20
1290.085867
 11
2373.233656
 21
1290.085867
  0
LINE
  8
CSLAYER1
  6
CONTINUOUS
 62
     5
 10
2203.233656
 20
689.148001
 11
2203.233656
 21
1290.085867
  0
LINE
  8
CSLAYER1
  6
CONTINUOUS
 62
     5
 10
2203.233656
 20
689.148001
 11
2195.469085
 21
718.125776
  0
LINE
  8
CSLAYER1
  6
CONTINUOUS
 62
     5
 10
2203.233656
 20
689.148001
 11
2210.998227
 21
718.125776
  0
LINE
  8
CSLAYER1
  6
CONTINUOUS
 62
     5
 10
2203.233656
 20
1290.085867
 11
2195.469085
 21
1261.108092
  0
LINE
  8
CSLAYER1
  6
CONTINUOUS
 62
     5
 10
2203.233656
 20
1290.085867
 11
2210.998227
 21
1261.108092
  0
ENDBLK
  8
0
  0
BLOCK
  8
CSLAYER1
  2
*D0003
 70
    65
 10
0.0
 20
0.0
 30
0.0
  0
TEXT
  8
CSLAYER1
 62
     3
 10
2353.233643
 20
814.616882
 40
40.000000
 41
0.843750
  1
820
 50
90.000000
 51
0.000000
  7
EASYDRAW_FONT
 72
     5
 11
2353.233643
 21
904.616882
  0
LINE
  8
CSLAYER1
  6
CONTINUOUS
 62
     5
 10
2363.233656
 20
429.148001
 11
2363.233656
 21
1290.085867
  0
LINE
  8
CSLAYER1
  6
CONTINUOUS
 62
     5
 10
2363.233656
 20
429.148001
 11
2355.469085
 21
458.125776
  0
LINE
  8
CSLAYER1
  6
CONTINUOUS
 62
     5
 10
2363.233656
 20
429.148001
 11
2370.998227
 21
458.125776
  0
LINE
  8
CSLAYER1
  6
CONTINUOUS
 62
     5
 10
2363.233656
 20
1290.085867
 11
2355.469085
 21
1261.108092
  0
LINE
  8
CSLAYER1
  6
CONTINUOUS
 62
     5
 10
2363.233656
 20
1290.085867
 11
2370.998227
 21
1261.108092
  0
ENDBLK
  8
0
  0
BLOCK
  8
CSLAYER1
  2
*D0004
 70
    65
 10
0.0
 20
0.0
 30
0.0
  0
TEXT
  8
CSLAYER1
 62
     3
 10
1708.233643
 20
1400.085815
 40
40.000000
 41
0.843750
  1
600
 50
0.000000
 51
0.000000
  7
EASYDRAW_FONT
 72
     5
 11
1798.233643
 21
1400.085815
  0
LINE
  8
CSLAYER1
  6
CONTINUOUS
 62
     5
 10
1453.233656
 20
1300.085867
 11
1453.233656
 21
1400.085867
  0
LINE
  8
CSLAYER1
  6
CONTINUOUS
 62
     5
 10
2053.233656
 20
1300.085867
 11
2053.233656
 21
1400.085867
  0
LINE
  8
CSLAYER1
  6
CONTINUOUS
 62
     5
 10
1453.233656
 20
1390.085867
 11
2053.233656
 21
1390.085867
  0
LINE
  8
CSLAYER1
  6
CONTINUOUS
 62
     5
 10
1453.233656
 20
1390.085867
 11
1482.211431
 21
1397.850438
  0
LINE
  8
CSLAYER1
  6
CONTINUOUS
 62
     5
 10
1453.233656
 20
1390.085867
 11
1482.211431
 21
1382.321296
  0
LINE
  8
CSLAYER1
  6
CONTINUOUS
 62
     5
 10
2053.233656
 20
1390.085867
 11
2024.255881
 21
1397.850438
  0
LINE
  8
CSLAYER1
  6
CONTINUOUS
 62
     5
 10
2053.233656
 20
1390.085867
 11
2024.255881
 21
1382.321296
  0
ENDBLK
  8
0
  0
BLOCK
  8
CSLAYER1
  2
*D0005
 70
    65
 10
0.0
 20
0.0
 30
0.0
  0
TEXT
  8
CSLAYER1
 62
     3
 10
1708.927490
 20
339.148010
 40
40.000000
 41
0.843750
  1
599
 50
0.000000
 51
0.000000
  7
EASYDRAW_FONT
 72
     5
 11
1798.927490
 21
339.148010
  0
LINE
  8
CSLAYER1
  6
CONTINUOUS
 62
     5
 10
1454.427564
 20
419.148001
 11
1454.427564
 21
319.148001
  0
LINE
  8
CSLAYER1
  6
CONTINUOUS
 62
     5
 10
2053.427564
 20
419.148001
 11
2053.427564
 21
319.148001
  0
LINE
  8
CSLAYER1
  6
CONTINUOUS
 62
     5
 10
1454.427564
 20
329.148001
 11
2053.427564
 21
329.148001
  0
LINE
  8
CSLAYER1
  6
CONTINUOUS
 62
     5
 10
1454.427564
 20
329.148001
 11
1483.405338
 21
336.912572
  0
LINE
  8
CSLAYER1
  6
CONTINUOUS
 62
     5
 10
1454.427564
 20
329.148001
 11
1483.405338
 21
321.383430
  0
LINE
  8
CSLAYER1
  6
CONTINUOUS
 62
     5
 10
2053.427564
 20
329.148001
 11
2024.449789
 21
336.912572
  0
LINE
  8
CSLAYER1
  6
CONTINUOUS
 62
     5
 10
2053.427564
 20
329.148001
 11
2024.449789
 21
321.383430
  0
ENDBLK
  8
0
  0
BLOCK
  8
CSLAYER1
  2
*D0006
 70
    65
 10
0.0
 20
0.0
 30
0.0
  0
TEXT
  8
CSLAYER1
 62
     3
 10
584.427551
 20
339.148010
 40
40.000000
 41
0.843750
  1
450
 50
0.000000
 51
0.000000
  7
EASYDRAW_FONT
 72
     5
 11
674.427551
 21
339.148010
  0
LINE
  8
CSLAYER1
  6
CONTINUOUS
 62
     5
 10
404.427564
 20
419.148001
 11
404.427564
 21
319.148001
  0
LINE
  8
CSLAYER1
  6
CONTINUOUS
 62
     5
 10
854.427564
 20
419.148001
 11
854.427564
 21
319.148001
  0
LINE
  8
CSLAYER1
  6
CONTINUOUS
 62
     5
 10
404.427564
 20
329.148001
 11
854.427564
 21
329.148001
  0
LINE
  8
CSLAYER1
  6
CONTINUOUS
 62
     5
 10
404.427564
 20
329.148001
 11
433.405338
 21
336.912572
  0
LINE
  8
CSLAYER1
  6
CONTINUOUS
 62
     5
 10
404.427564
 20
329.148001
 11
433.405338
 21
321.383430
  0
LINE
  8
CSLAYER1
  6
CONTINUOUS
 62
     5
 10
854.427564
 20
329.148001
 11
825.449789
 21
336.912572
  0
LINE
  8
CSLAYER1
  6
CONTINUOUS
 62
     5
 10
854.427564
 20
329.148001
 11
825.449789
 21
321.383430
  0
ENDBLK
  8
0
  0
BLOCK
  8
CSLAYER1
  2
BLKF0000
 70
   64
 10
0.0
 20
0.0
 30
0.0
  0
ARC
  8
CSLAYER1
  6
CONTINUOUS
 62
     5
 10
2781.909508
 20
79.335220
 40
3.549225
 50
6.429109
 51
73.182034
  0
ARC
  8
CSLAYER1
  6
CONTINUOUS
 62
     5
 10
2778.448538
 20
78.176827
 40
6.907754
 50
310.517970
 51
330.092764
  0
ARC
  8
CSLAYER1
  6
CONTINUOUS
 62
     5
 10
2778.387888
 20
78.542345
 40
7.148321
 50
-32.205059
 51
9.585194
  0
ARC
  8
CSLAYER1
  6
CONTINUOUS
 62
     5
 10
2781.680616
 20
75.781346
 40
4.767514
 50
180.000000
 51
218.514150
  0
ARC
  8
CSLAYER1
  6
CONTINUOUS
 62
     5
 10
2780.393895
 20
75.104206
 40
3.348282
 50
222.781148
 51
319.406906
  0
ARC
  8
CSLAYER1
  6
CONTINUOUS
 62
     5
 10
2783.459537
 20
76.194099
 40
6.559434
 50
94.574282
 51
183.607718
  0
LINE
  8
CSLAYER1
  6
CONTINUOUS
 62
     5
 10
2796.903443
 20
71.077266
 11
2796.046407
 21
68.038683
  0
LINE
  8
CSLAYER1
  6
CONTINUOUS
 62
     5
 10
2798.695428
 20
90.944924
 11
2796.591794
 21
93.671857
  0
LINE
  8
CSLAYER1
  6
CONTINUOUS
 62
     5
 10
2796.591794
 20
93.671857
 11
2789.838440
 21
97.429769
  0
LINE
  8
CSLAYER1
  6
CONTINUOUS
 62
     5
 10
2789.838440
 20
97.429769
 11
2782.936412
 21
98.232640
  0
LINE
  8
CSLAYER1
  6
CONTINUOUS
 62
     5
 10
2764.647187
 20
84.853966
 11
2766.793881
 21
89.818197
  0
LINE
  8
CSLAYER1
  6
CONTINUOUS
 62
     5
 10
2766.756884
 20
89.732640
 11
2768.940576
 21
92.367396
  0
LINE
  8
CSLAYER1
  6
CONTINUOUS
 62
     5
 10
2768.940576
 20
92.367396
 11
2772.244998
 21
94.732640
  0
LINE
  8
CSLAYER1
  6
CONTINUOUS
 62
     5
 10
2782.936412
 20
98.232640
 11
2781.418237
 21
97.465795
  0
LINE
  8
CSLAYER1
  6
CONTINUOUS
 62
     5
 10
2781.418237
 20
97.465795
 11
2777.929858
 21
97.465795
  0
LINE
  8
CSLAYER1
  6
CONTINUOUS
 62
     5
 10
2777.929858
 20
97.465795
 11
2774.374396
 21
95.520354
  0
LINE
  8
CSLAYER1
  6
CONTINUOUS
 62
     5
 10
2774.374396
 20
95.520354
 11
2772.244998
 21
94.732640
  0
LINE
  8
CSLAYER1
  6
CONTINUOUS
 62
     5
 10
2764.647187
 20
84.853966
 11
2763.129640
 21
77.305363
  0
LINE
  8
CSLAYER1
  6
CONTINUOUS
 62
     5
 10
2763.129640
 20
77.305363
 11
2762.936412
 21
74.732640
  0
LINE
  8
CSLAYER1
  6
CONTINUOUS
 62
     5
 10
2765.645795
 20
66.892857
 11
2762.936412
 21
72.988969
  0
LINE
  8
CSLAYER1
  6
CONTINUOUS
 62
     5
 10
2762.936412
 20
72.988969
 11
2762.936412
 21
74.732640
  0
LINE
  8
CSLAYER1
  6
CONTINUOUS
 62
     5
 10
2796.046407
 20
68.038683
 11
2794.360620
 21
65.035677
  0
LINE
  8
CSLAYER1
  6
CONTINUOUS
 62
     5
 10
2794.360620
 20
65.035677
 11
2792.936412
 21
63.716966
  0
ARC
  8
CSLAYER1
  6
CONTINUOUS
 62
     5
 10
2780.744468
 20
75.269400
 40
17.266626
 50
208.054813
 51
260.640470
  0
ARC
  8
CSLAYER1
  6
CONTINUOUS
 62
     5
 10
2775.551072
 20
88.011870
 40
29.874611
 50
274.579659
 51
305.587364
  0
ARC
  8
CSLAYER1
  6
CONTINUOUS
 62
     5
 10
2786.523421
 20
82.028147
 40
15.088627
 50
313.467013
 51
331.085078
  0
LINE
  8
CSLAYER1
  6
CONTINUOUS
 62
     5
 10
2801.314754
 20
78.246061
 11
2801.612048
 21
82.028147
  0
LINE
  8
CSLAYER1
  6
CONTINUOUS
 62
     5
 10
2801.612048
 20
82.028147
 11
2800.320051
 21
88.137130
  0
LINE
  8
CSLAYER1
  6
CONTINUOUS
 62
     5
 10
2801.314754
 20
78.246061
 11
2799.731079
 21
74.732640
  0
ARC
  8
CSLAYER1
  6
CONTINUOUS
 62
     5
 10
2786.523421
 20
82.028147
 40
15.088627
 50
23.883193
 51
36.225170
  0
LINE
  8
CSLAYER1
  6
CONTINUOUS
 62
     5
 10
2746.936412
 20
109.732640
 11
2747.936412
 21
110.825284
  0
LINE
  8
CSLAYER1
  6
CONTINUOUS
 62
     5
 10
2746.936412
 20
109.732640
 11
2748.513370
 21
108.287607
  0
LINE
  8
CSLAYER1
  6
CONTINUOUS
 62
     5
 10
2750.052583
 20
106.178315
 11
2750.078851
 21
104.010196
  0
LINE
  8
CSLAYER1
  6
CONTINUOUS
 62
     5
 10
2750.078851
 20
104.010196
 11
2750.286249
 21
103.249737
  0
LINE
  8
CSLAYER1
  6
CONTINUOUS
 62
     5
 10
2750.286249
 20
103.249737
 11
2750.873877
 21
102.523844
  0
LINE
  8
CSLAYER1
  6
CONTINUOUS
 62
     5
 10
2750.873877
 20
102.523844
 11
2751.461504
 21
102.592977
  0
LINE
  8
CSLAYER1
  6
CONTINUOUS
 62
     5
 10
2751.461504
 20
102.592977
 11
2752.083698
 21
102.765808
  0
LINE
  8
CSLAYER1
  6
CONTINUOUS
 62
     5
 10
2752.083698
 20
102.765808
 11
2752.498494
 21
102.592977
  0
LINE
  8
CSLAYER1
  6
CONTINUOUS
 62
     5
 10
2752.498494
 20
102.592977
 11
2753.397219
 21
102.143614
  0
LINE
  8
CSLAYER1
  6
CONTINUOUS
 62
     5
 10
2753.397219
 20
102.143614
 11
2754.173270
 21
101.732640
  0
LINE
  8
CSLAYER1
  6
CONTINUOUS
 62
     5
 10
2754.173270
 20
101.732640
 11
2754.676173
 21
101.763385
  0
LINE
  8
CSLAYER1
  6
CONTINUOUS
 62
     5
 10
2754.676173
 20
101.763385
 11
2757.484045
 21
103.209864
  0
LINE
  8
CSLAYER1
  6
CONTINUOUS
 62
     5
 10
2747.936412
 20
110.825284
 11
2748.269264
 21
112.298991
  0
LINE
  8
CSLAYER1
  6
CONTINUOUS
 62
     5
 10
2748.269264
 20
112.298991
 11
2749.722669
 21
112.449344
  0
LINE
  8
CSLAYER1
  6
CONTINUOUS
 62
     5
 10
2751.216428
 20
115.217802
 11
2752.970601
 21
115.374892
  0
LINE
  8
CSLAYER1
  6
CONTINUOUS
 62
     5
 10
2752.970601
 20
115.374892
 11
2756.505128
 21
116.212706
  0
LINE
  8
CSLAYER1
  6
CONTINUOUS
 62
     5
 10
2756.505128
 20
116.212706
 11
2757.936412
 21
116.544345
  0
LINE
  8
CSLAYER1
  6
CONTINUOUS
 62
     5
 10
2751.216428
 20
115.217802
 11
2749.283537
 21
115.376670
  0
LINE
  8
CSLAYER1
  6
CONTINUOUS
 62
     5
 10
2748.547414
 20
114.507983
 11
2748.640939
 21
114.136822
  0
LINE
  8
CSLAYER1
  6
CONTINUOUS
 62
     5
 10
2748.640939
 20
114.136822
 11
2749.132533
 21
113.599141
  0
LINE
  8
CSLAYER1
  6
CONTINUOUS
 62
     5
 10
2749.132533
 20
113.599141
 11
2749.808475
 21
113.092184
  0
LINE
  8
CSLAYER1
  6
CONTINUOUS
 62
     5
 10
2749.808475
 20
113.092184
 11
2749.931800
 21
112.927751
  0
LINE
  8
CSLAYER1
  6
CONTINUOUS
 62
     5
 10
2748.513370
 20
108.287607
 11
2750.052583
 21
106.178315
  0
ARC
  8
CSLAYER1
  6
CONTINUOUS
 62
     5
 10
2792.923113
 20
-61.926013
 40
180.727463
 50
80.438896
 51
96.353582
  0
ARC
  8
CSLAYER1
  6
CONTINUOUS
 62
     5
 10
2768.024200
 20
83.321887
 40
34.720242
 50
81.866516
 51
106.890578
  0
LINE
  8
CSLAYER1
  6
CONTINUOUS
 62
     5
 10
2827.130674
 20
115.499310
 11
2829.377756
 21
114.477909
  0
LINE
  8
CSLAYER1
  6
CONTINUOUS
 62
     5
 10
2832.952661
 20
112.894737
 11
2829.377756
 21
114.477909
  0
LINE
  8
CSLAYER1
  6
CONTINUOUS
 62
     5
 10
2827.130674
 20
115.499310
 11
2822.936412
 21
116.291881
  0
LINE
  8
CSLAYER1
  6
CONTINUOUS
 62
     5
 10
2832.936412
 20
112.901933
 11
2834.807988
 21
111.333456
  0
LINE
  8
CSLAYER1
  6
CONTINUOUS
 62
     5
 10
2816.179668
 20
113.938783
 11
2817.078943
 21
115.391458
  0
LINE
  8
CSLAYER1
  6
CONTINUOUS
 62
     5
 10
2817.078943
 20
115.391458
 11
2821.754542
 21
114.271949
  0
LINE
  8
CSLAYER1
  6
CONTINUOUS
 62
     5
 10
2821.754542
 20
114.271949
 11
2838.496928
 21
109.732640
  0
LINE
  8
CSLAYER1
  6
CONTINUOUS
 62
     5
 10
2841.436412
 20
109.732640
 11
2834.807988
 21
111.333456
  0
LINE
  8
CSLAYER1
  6
CONTINUOUS
 62
     5
 10
2838.496928
 20
109.732640
 11
2841.436412
 21
109.732640
  0
LINE
  8
CSLAYER1
  6
CONTINUOUS
 62
     5
 10
2782.936412
 20
114.197581
 11
2802.936412
 21
114.732640
  0
LINE
  8
CSLAYER1
  6
CONTINUOUS
 62
     5
 10
2802.936412
 20
114.732640
 11
2816.179668
 21
113.938783
  0
LINE
  8
CSLAYER1
  6
CONTINUOUS
 62
     5
 10
2817.782649
 20
111.878304
 11
2802.936412
 21
113.232640
  0
LINE
  8
CSLAYER1
  6
CONTINUOUS
 62
     5
 10
2802.936412
 20
113.232640
 11
2787.887203
 21
113.641292
  0
LINE
  8
CSLAYER1
  6
CONTINUOUS
 62
     5
 10
2787.936412
 20
113.639956
 11
2782.936412
 21
113.735249
  0
LINE
  8
CSLAYER1
  6
CONTINUOUS
 62
     5
 10
2782.936412
 20
114.197581
 11
2782.936412
 21
113.735249
  0
LINE
  8
CSLAYER1
  6
CONTINUOUS
 62
     5
 10
2840.436412
 20
106.232640
 11
2831.593854
 21
108.543302
  0
LINE
  8
CSLAYER1
  6
CONTINUOUS
 62
     5
 10
2817.782649
 20
111.878304
 11
2827.936412
 21
109.905920
  0
LINE
  8
CSLAYER1
  6
CONTINUOUS
 62
     5
 10
2827.936412
 20
109.905920
 11
2831.593854
 21
108.543302
  0
LINE
  8
CSLAYER1
  6
CONTINUOUS
 62
     5
 10
2840.436412
 20
106.232640
 11
2840.143795
 21
105.393534
  0
LINE
  8
CSLAYER1
  6
CONTINUOUS
 62
     5
 10
2849.936412
 20
100.732640
 11
2849.630385
 21
101.961621
  0
LINE
  8
CSLAYER1
  6
CONTINUOUS
 62
     5
 10
2840.143795
 20
105.393534
 11
2849.630385
 21
101.961621
  0
LINE
  8
CSLAYER1
  6
CONTINUOUS
 62
     5
 10
2786.436412
 20
106.232640
 11
2788.859450
 21
106.232640
  0
LINE
  8
CSLAYER1
  6
CONTINUOUS
 62
     5
 10
2808.936412
 20
106.665135
 11
2808.936412
 21
106.232640
  0
LINE
  8
CSLAYER1
  6
CONTINUOUS
 62
     5
 10
2807.936412
 20
107.199576
 11
2806.225133
 21
107.836755
  0
LINE
  8
CSLAYER1
  6
CONTINUOUS
 62
     5
 10
2806.225133
 20
107.836755
 11
2805.115077
 21
107.887212
  0
LINE
  8
CSLAYER1
  6
CONTINUOUS
 62
     5
 10
2805.115077
 20
107.887212
 11
2804.635735
 21
107.634926
  0
LINE
  8
CSLAYER1
  6
CONTINUOUS
 62
     5
 10
2804.635735
 20
107.634926
 11
2804.534821
 21
107.231270
  0
LINE
  8
CSLAYER1
  6
CONTINUOUS
 62
     5
 10
2804.534821
 20
107.231270
 11
2804.988934
 21
106.928527
  0
LINE
  8
CSLAYER1
  6
CONTINUOUS
 62
     5
 10
2804.988934
 20
106.928527
 11
2806.628790
 21
106.777156
  0
LINE
  8
CSLAYER1
  6
CONTINUOUS
 62
     5
 10
2806.628790
 20
106.777156
 11
2808.936412
 21
106.665135
  0
LINE
  8
CSLAYER1
  6
CONTINUOUS
 62
     5
 10
2849.936412
 20
100.732640
 11
2846.960870
 21
101.919221
  0
LINE
  8
CSLAYER1
  6
CONTINUOUS
 62
     5
 10
2846.960870
 20
101.919221
 11
2836.905180
 21
103.762097
  0
LINE
  8
CSLAYER1
  6
CONTINUOUS
 62
     5
 10
2836.905180
 20
103.762097
 11
2831.879400
 21
104.921892
  0
LINE
  8
CSLAYER1
  6
CONTINUOUS
 62
     5
 10
2809.470633
 20
107.232640
 11
2821.236299
 21
107.232640
  0
LINE
  8
CSLAYER1
  6
CONTINUOUS
 62
     5
 10
2807.936412
 20
107.199576
 11
2808.461072
 21
106.891109
  0
LINE
  8
CSLAYER1
  6
CONTINUOUS
 62
     5
 10
2808.461072
 20
106.891109
 11
2808.757884
 21
106.802065
  0
LINE
  8
CSLAYER1
  6
CONTINUOUS
 62
     5
 10
2808.757884
 20
106.802065
 11
2808.936412
 21
106.827236
  0
LINE
  8
CSLAYER1
  6
CONTINUOUS
 62
     5
 10
2808.936412
 20
106.827236
 11
2809.470633
 21
107.232640
  0
LINE
  8
CSLAYER1
  6
CONTINUOUS
 62
     5
 10
2821.236299
 20
107.232640
 11
2825.686568
 21
106.203814
  0
LINE
  8
CSLAYER1
  6
CONTINUOUS
 62
     5
 10
2825.686568
 20
106.203814
 11
2829.839760
 21
105.038665
  0
LINE
  8
CSLAYER1
  6
CONTINUOUS
 62
     5
 10
2829.839760
 20
105.038665
 11
2831.879400
 21
104.921892
  0
LINE
  8
CSLAYER1
  6
CONTINUOUS
 62
     5
 10
2785.436412
 20
105.232640
 11
2785.436412
 21
104.732640
  0
LINE
  8
CSLAYER1
  6
CONTINUOUS
 62
     5
 10
2782.936412
 20
104.732640
 11
2785.436412
 21
104.732640
  0
ARC
  8
CSLAYER1
  6
CONTINUOUS
 62
     5
 10
2786.436412
 20
105.232640
 40
1.000000
 50
90.000000
 51
180.000000
  0
LINE
  8
CSLAYER1
  6
CONTINUOUS
 62
     5
 10
2788.859450
 20
106.232640
 11
2789.557007
 21
105.660643
  0
LINE
  8
CSLAYER1
  6
CONTINUOUS
 62
     5
 10
2790.159375
 20
105.636683
 11
2791.016972
 21
106.232640
  0
LINE
  8
CSLAYER1
  6
CONTINUOUS
 62
     5
 10
2792.595368
 20
106.232640
 11
2794.262494
 21
105.574564
  0
LINE
  8
CSLAYER1
  6
CONTINUOUS
 62
     5
 10
2794.686203
 20
105.601076
 11
2795.839690
 21
106.232640
  0
LINE
  8
CSLAYER1
  6
CONTINUOUS
 62
     5
 10
2791.016972
 20
106.232640
 11
2792.595368
 21
106.232640
  0
LINE
  8
CSLAYER1
  6
CONTINUOUS
 62
     5
 10
2795.839690
 20
106.232640
 11
2808.936412
 21
106.232640
  0
LINE
  8
CSLAYER1
  6
CONTINUOUS
 62
     5
 10
2761.485395
 20
103.123813
 11
2782.936412
 21
104.732640
  0
LINE
  8
CSLAYER1
  6
CONTINUOUS
 62
     5
 10
2757.484045
 20
103.209864
 11
2761.485395
 21
103.123813
  0
ARC
  8
CSLAYER1
  6
CONTINUOUS
 62
     5
 10
2789.874047
 20
106.047277
 40
0.500000
 50
230.648247
 51
304.796026
  0
ARC
  8
CSLAYER1
  6
CONTINUOUS
 62
     5
 10
2794.446077
 20
106.039642
 40
0.500000
 50
248.459024
 51
298.701829
  0
ARC
  8
CSLAYER1
  6
CONTINUOUS
 62
     5
 10
2749.691800
 20
112.747751
 40
0.300000
 50
-84.093859
 51
36.869898
  0
ARC
  8
CSLAYER1
  6
CONTINUOUS
 62
     5
 10
2749.226196
 20
114.679023
 40
0.700000
 50
85.301319
 51
194.142980
  0
LINE
  8
CSLAYER1
  6
CONTINUOUS
 62
     3
 10
2781.418237
 20
97.465795
 11
2789.528732
 21
97.465795
  0
LINE
  8
CSLAYER1
  6
CONTINUOUS
 62
     3
 10
2775.005720
 20
95.865795
 11
2792.649061
 21
95.865795
  0
LINE
  8
CSLAYER1
  6
CONTINUOUS
 62
     3
 10
2771.592781
 20
94.265795
 11
2795.524426
 21
94.265795
  0
LINE
  8
CSLAYER1
  6
CONTINUOUS
 62
     3
 10
2769.357462
 20
92.665795
 11
2797.367899
 21
92.665795
  0
LINE
  8
CSLAYER1
  6
CONTINUOUS
 62
     3
 10
2767.861806
 20
91.065795
 11
2798.602184
 21
91.065795
  0
LINE
  8
CSLAYER1
  6
CONTINUOUS
 62
     3
 10
2766.641492
 20
89.465795
 11
2799.651561
 21
89.465795
  0
LINE
  8
CSLAYER1
  6
CONTINUOUS
 62
     3
 10
2765.949600
 20
87.865795
 11
2800.377436
 21
87.865795
  0
LINE
  8
CSLAYER1
  6
CONTINUOUS
 62
     3
 10
2765.257708
 20
86.265795
 11
2800.715822
 21
86.265795
  0
LINE
  8
CSLAYER1
  6
CONTINUOUS
 62
     3
 10
2764.609358
 20
84.665795
 11
2801.054208
 21
84.665795
  0
LINE
  8
CSLAYER1
  6
CONTINUOUS
 62
     3
 10
2764.287699
 20
83.065795
 11
2801.392594
 21
83.065795
  0
LINE
  8
CSLAYER1
  6
CONTINUOUS
 62
     3
 10
2763.966040
 20
81.465795
 11
2779.556283
 21
81.465795
  0
LINE
  8
CSLAYER1
  6
CONTINUOUS
 62
     3
 10
2763.644381
 20
79.865795
 11
2778.024022
 21
79.865795
  0
LINE
  8
CSLAYER1
  6
CONTINUOUS
 62
     3
 10
2763.322722
 20
78.265795
 11
2777.235852
 21
78.265795
  0
LINE
  8
CSLAYER1
  6
CONTINUOUS
 62
     3
 10
2763.081604
 20
76.665795
 11
2776.917085
 21
76.665795
  0
LINE
  8
CSLAYER1
  6
CONTINUOUS
 62
     3
 10
2762.961434
 20
75.065795
 11
2776.967106
 21
75.065795
  0
LINE
  8
CSLAYER1
  6
CONTINUOUS
 62
     3
 10
2762.936412
 20
73.465795
 11
2777.513193
 21
73.465795
  0
LINE
  8
CSLAYER1
  6
CONTINUOUS
 62
     3
 10
2763.435600
 20
71.865795
 11
2779.543195
 21
71.865795
  0
LINE
  8
CSLAYER1
  6
CONTINUOUS
 62
     3
 10
2764.146711
 20
70.265795
 11
2796.674567
 21
70.265795
  0
LINE
  8
CSLAYER1
  6
CONTINUOUS
 62
     3
 10
2764.857823
 20
68.665795
 11
2796.223285
 21
68.665795
  0
LINE
  8
CSLAYER1
  6
CONTINUOUS
 62
     3
 10
2765.568934
 20
67.065795
 11
2795.500261
 21
67.065795
  0
LINE
  8
CSLAYER1
  6
CONTINUOUS
 62
     3
 10
2766.530893
 20
65.465795
 11
2794.602074
 21
65.465795
  0
LINE
  8
CSLAYER1
  6
CONTINUOUS
 62
     3
 10
2767.779354
 20
63.865795
 11
2793.097148
 21
63.865795
  0
LINE
  8
CSLAYER1
  6
CONTINUOUS
 62
     3
 10
2769.384774
 20
62.265795
 11
2790.704687
 21
62.265795
  0
LINE
  8
CSLAYER1
  6
CONTINUOUS
 62
     3
 10
2771.531916
 20
60.665795
 11
2787.579564
 21
60.665795
  0
LINE
  8
CSLAYER1
  6
CONTINUOUS
 62
     3
 10
2774.779606
 20
59.065795
 11
2782.941415
 21
59.065795
  0
LINE
  8
CSLAYER1
  6
CONTINUOUS
 62
     3
 10
2784.748107
 20
81.465795
 11
2801.567844
 21
81.465795
  0
LINE
  8
CSLAYER1
  6
CONTINUOUS
 62
     3
 10
2785.418851
 20
79.865795
 11
2801.442074
 21
79.865795
  0
LINE
  8
CSLAYER1
  6
CONTINUOUS
 62
     3
 10
2785.530858
 20
78.265795
 11
2801.316305
 21
78.265795
  0
LINE
  8
CSLAYER1
  6
CONTINUOUS
 62
     3
 10
2785.285501
 20
76.665795
 11
2800.602449
 21
76.665795
  0
LINE
  8
CSLAYER1
  6
CONTINUOUS
 62
     3
 10
2784.633855
 20
75.065795
 11
2799.881249
 21
75.065795
  0
LINE
  8
CSLAYER1
  6
CONTINUOUS
 62
     3
 10
2783.500592
 20
73.465795
 11
2798.947301
 21
73.465795
  0
LINE
  8
CSLAYER1
  6
CONTINUOUS
 62
     3
 10
2781.244595
 20
71.865795
 11
2797.676594
 21
71.865795
  0
TEXT
  8
CSLAYER1
 62
     5
 10
2802.108183
 20
79.476970
 40
4.713448
 41
1.951056
  1
M
 50
0.000000
 51
0.000000
  7
EASYDRAW_FONT
 72
     5
 11
2808.238985
 21
79.476970
  0
TEXT
  8
CSLAYER1
 62
     5
 10
2811.759570
 20
79.418700
 40
4.626621
 41
0.778201
  1
T
 50
0.000000
 51
0.000000
  7
EASYDRAW_FONT
 72
     5
 11
2814.159863
 21
79.418700
  0
TEXT
  8
CSLAYER1
 62
     5
 10
2814.525133
 20
79.453499
 40
4.696183
 41
1.055553
  1
E
 50
0.000000
 51
0.000000
  7
EASYDRAW_FONT
 72
     5
 11
2817.829848
 21
79.453499
  0
TEXT
  8
CSLAYER1
 62
     5
 10
2817.641314
 20
81.069343
 40
0.348283
 41
9.375319
  1
-
 50
0.000000
 51
0.000000
  7
EASYDRAW_FONT
 72
     5
 11
2819.818159
 21
81.069343
  0
TEXT
  8
CSLAYER1
 62
     5
 10
2819.455523
 20
79.422152
 40
4.861659
 41
1.298502
  1
H
 50
0.000000
 51
0.000000
  7
EASYDRAW_FONT
 72
     5
 11
2823.664106
 21
79.422152
  0
TEXT
  8
CSLAYER1
 62
     5
 10
2823.531538
 20
79.452530
 40
4.843139
 41
1.269236
  1
A
 50
0.000000
 51
0.000000
  7
EASYDRAW_FONT
 72
     5
 11
2827.629595
 21
79.452530
  0
TEXT
  8
CSLAYER1
 62
     5
 10
2827.237694
 20
79.411004
 40
4.825362
 41
1.490144
  1
N
 50
0.000000
 51
0.000000
  7
EASYDRAW_FONT
 72
     5
 11
2832.031349
 21
79.411004
  0
TEXT
  8
CSLAYER1
 62
     5
 10
2808.029152
 20
79.388431
 40
4.982325
 41
1.177443
  1
A
 50
0.000000
 51
0.000000
  7
EASYDRAW_FONT
 72
     5
 11
2811.940086
 21
79.388431
  0
TEXT
  8
CSLAYER1
 62
     5
 10
2802.475197
 20
72.393191
 40
4.982325
 41
1.177443
  1
A
 50
0.000000
 51
0.000000
  7
EASYDRAW_FONT
 72
     5
 11
2806.386131
 21
72.393191
  0
TEXT
  8
CSLAYER1
 62
     5
 10
2815.259621
 20
72.421512
 40
4.982325
 41
1.177443
  1
A
 50
0.000000
 51
0.000000
  7
EASYDRAW_FONT
 72
     5
 11
2819.170555
 21
72.421512
  0
TEXT
  8
CSLAYER1
 62
     5
 10
2819.020165
 20
72.478509
 40
4.825362
 41
1.490144
  1
N
 50
0.000000
 51
0.000000
  7
EASYDRAW_FONT
 72
     5
 11
2823.813819
 21
72.478509
  0
TEXT
  8
CSLAYER1
 62
     5
 10
2827.922501
 20
72.486903
 40
4.841775
 41
1.184218
  1
E
 50
0.000000
 51
0.000000
  7
EASYDRAW_FONT
 72
     5
 11
2831.744980
 21
72.486903
  0
TEXT
  8
CSLAYER1
 62
     5
 10
2806.755750
 20
72.391867
 40
4.947865
 41
1.093992
  1
D
 50
0.000000
 51
0.000000
  7
EASYDRAW_FONT
 72
     5
 11
2810.364367
 21
72.391867
  0
TEXT
  8
CSLAYER1
 62
     5
 10
2811.158109
 20
72.386482
 40
4.924210
 41
1.228195
  1
V
 50
0.000000
 51
0.000000
  7
EASYDRAW_FONT
 72
     5
 11
2815.190036
 21
72.386482
  0
TEXT
  8
CSLAYER1
 62
     5
 10
2823.383310
 20
72.407213
 40
5.032894
 41
1.481023
  1
C
 50
0.000000
 51
0.000000
  7
EASYDRAW_FONT
 72
     5
 11
2828.352530
 21
72.407213
  0
LINE
  8
CSLAYER1
  6
CONTINUOUS
 62
     5
 10
2814.013749
 20
83.467612
 11
2813.001687
 21
83.467612
  0
LINE
  8
CSLAYER1
  6
CONTINUOUS
 62
     3
 10
2763.111987
 20
117.692883
 11
2812.909813
 21
117.692883
  0
LINE
  8
CSLAYER1
  6
CONTINUOUS
 62
     3
 10
2755.999623
 20
116.092883
 11
2823.989505
 21
116.092883
  0
LINE
  8
CSLAYER1
  6
CONTINUOUS
 62
     3
 10
2748.551219
 20
114.492883
 11
2793.974529
 21
114.492883
  0
LINE
  8
CSLAYER1
  6
CONTINUOUS
 62
     3
 10
2806.936079
 20
114.492883
 11
2816.522682
 21
114.492883
  0
LINE
  8
CSLAYER1
  6
CONTINUOUS
 62
     3
 10
2820.831816
 20
114.492883
 11
2829.344813
 21
114.492883
  0
LINE
  8
CSLAYER1
  6
CONTINUOUS
 62
     3
 10
2749.954358
 20
112.892883
 11
2806.660827
 21
112.892883
  0
LINE
  8
CSLAYER1
  6
CONTINUOUS
 62
     3
 10
2826.840965
 20
112.892883
 11
2832.947211
 21
112.892883
  0
LINE
  8
CSLAYER1
  6
CONTINUOUS
 62
     3
 10
2748.042024
 20
111.292883
 11
2820.796375
 21
111.292883
  0
LINE
  8
CSLAYER1
  6
CONTINUOUS
 62
     3
 10
2832.742264
 20
111.292883
 11
2834.975986
 21
111.292883
  0
LINE
  8
CSLAYER1
  6
CONTINUOUS
 62
     3
 10
2746.979799
 20
109.692883
 11
2828.508231
 21
109.692883
  0
LINE
  8
CSLAYER1
  6
CONTINUOUS
 62
     3
 10
2748.655466
 20
108.092883
 11
2833.317540
 21
108.092883
  0
LINE
  8
CSLAYER1
  6
CONTINUOUS
 62
     3
 10
2749.823033
 20
106.492883
 11
2808.936412
 21
106.492883
  0
LINE
  8
CSLAYER1
  6
CONTINUOUS
 62
     3
 10
2824.436177
 20
106.492883
 11
2839.440500
 21
106.492883
  0
LINE
  8
CSLAYER1
  6
CONTINUOUS
 62
     3
 10
2750.068157
 20
104.892883
 11
2785.436412
 21
104.892883
  0
LINE
  8
CSLAYER1
  6
CONTINUOUS
 62
     3
 10
2832.005106
 20
104.892883
 11
2841.527709
 21
104.892883
  0
LINE
  8
CSLAYER1
  6
CONTINUOUS
 62
     3
 10
2750.274482
 20
103.292883
 11
2763.739655
 21
103.292883
  0
LINE
  8
CSLAYER1
  6
CONTINUOUS
 62
     3
 10
2839.465455
 20
103.292883
 11
2845.950473
 21
103.292883
  0
LINE
  8
CSLAYER1
  6
CONTINUOUS
 62
     3
 10
2847.528449
 20
101.692883
 11
2849.697303
 21
101.692883
  0
ENDBLK
  8
0
  0
BLOCK
  8
CSLAYER1
  2
BLKF0001
 70
   64
 10
0.0
 20
0.0
 30
0.0
  0
LINE
  8
CSLAYER1
  6
CONTINUOUS
 62
     3
 10
1026.233656
 20
1761.585867
 11
1026.233656
 21
1699.585867
  0
LINE
  8
CSLAYER1
  6
CONTINUOUS
 62
     3
 10
1023.733656
 20
1764.085867
 11
938.733656
 21
1764.085867
  0
LINE
  8
CSLAYER1
  6
CENTER
 62
     5
 10
1084.583295
 20
1691.585867
 11
1026.233656
 21
1691.585867
  0
LINE
  8
CSLAYER1
  6
CONTINUOUS
 62
     2
 10
1023.733656
 20
1707.585867
 11
938.733656
 21
1707.585867
  0
LINE
  8
CSLAYER1
  6
CONTINUOUS
 62
     3
 10
1023.733656
 20
1759.085867
 11
1023.733656
 21
1714.085867
  0
LINE
  8
CSLAYER1
  6
CONTINUOUS
 62
     3
 10
936.233656
 20
1761.585867
 11
936.233656
 21
1691.585867
  0
LINE
  8
CSLAYER1
  6
CONTINUOUS
 62
     3
 10
1021.233656
 20
1761.585867
 11
944.233656
 21
1761.585867
  0
LINE
  8
CSLAYER1
  6
CONTINUOUS
 62
     3
 10
1021.233656
 20
1711.585867
 11
944.233656
 21
1711.585867
  0
ARC
  8
CSLAYER1
  6
CONTINUOUS
 62
     3
 10
998.301838
 20
1736.585867
 40
59.568182
 50
155.185163
 51
204.814837
  0
ARC
  8
CSLAYER1
  6
CONTINUOUS
 62
     3
 10
1021.233656
 20
1759.085867
 40
2.500000
 50
0.000000
 51
90.000000
  0
ARC
  8
CSLAYER1
  6
CONTINUOUS
 62
     3
 10
1021.233656
 20
1714.085867
 40
2.500000
 50
-90.000000
 51
0.000000
  0
ARC
  8
CSLAYER1
  6
CONTINUOUS
 62
     3
 10
1023.733656
 20
1761.585867
 40
2.500000
 50
0.000000
 51
90.000000
  0
ARC
  8
CSLAYER1
  6
CONTINUOUS
 62
     3
 10
938.733656
 20
1761.585867
 40
2.500000
 50
90.000000
 51
180.000000
  0
ARC
  8
CSLAYER1
  6
CONTINUOUS
 62
     2
 10
938.733656
 20
1705.085867
 40
2.500000
 50
90.000000
 51
180.000000
  0
ARC
  8
CSLAYER1
  6
CONTINUOUS
 62
     2
 10
1023.733656
 20
1705.085867
 40
2.500000
 50
0.000000
 51
90.000000
  0
LINE
  8
CSLAYER1
  6
CONTINUOUS
 62
     3
 10
1026.233656
 20
1621.585867
 11
1026.233656
 21
1683.585867
  0
LINE
  8
CSLAYER1
  6
CONTINUOUS
 62
     3
 10
1023.733656
 20
1619.085867
 11
938.733656
 21
1619.085867
  0
LINE
  8
CSLAYER1
  6
CONTINUOUS
 62
     2
 10
1023.733656
 20
1675.585867
 11
938.733656
 21
1675.585867
  0
LINE
  8
CSLAYER1
  6
CONTINUOUS
 62
     3
 10
936.233656
 20
1621.585867
 11
936.233656
 21
1691.585867
  0
ARC
  8
CSLAYER1
  6
CONTINUOUS
 62
     3
 10
1023.733656
 20
1621.585867
 40
2.500000
 50
-90.000000
 51
0.000000
  0
ARC
  8
CSLAYER1
  6
CONTINUOUS
 62
     3
 10
938.733656
 20
1621.585867
 40
2.500000
 50
180.000000
 51
270.000000
  0
ARC
  8
CSLAYER1
  6
CONTINUOUS
 62
     2
 10
938.733656
 20
1678.085867
 40
2.500000
 50
180.000000
 51
270.000000
  0
ARC
  8
CSLAYER1
  6
CONTINUOUS
 62
     2
 10
1023.733656
 20
1678.085867
 40
2.500000
 50
-90.000000
 51
0.000000
  0
LINE
  8
CSLAYER1
  6
CONTINUOUS
 62
     3
 10
1023.733656
 20
1624.085867
 11
1023.733656
 21
1669.085867
  0
LINE
  8
CSLAYER1
  6
CONTINUOUS
 62
     3
 10
1021.233656
 20
1621.585867
 11
944.233656
 21
1621.585867
  0
LINE
  8
CSLAYER1
  6
CONTINUOUS
 62
     3
 10
1021.233656
 20
1671.585867
 11
944.233656
 21
1671.585867
  0
ARC
  8
CSLAYER1
  6
CONTINUOUS
 62
     3
 10
998.301838
 20
1646.585867
 40
59.568182
 50
155.185163
 51
204.814837
  0
ARC
  8
CSLAYER1
  6
CONTINUOUS
 62
     3
 10
1021.233656
 20
1624.085867
 40
2.500000
 50
-90.000000
 51
0.000000
  0
ARC
  8
CSLAYER1
  6
CONTINUOUS
 62
     3
 10
1021.233656
 20
1669.085867
 40
2.500000
 50
0.000000
 51
90.000000
  0
LINE
  8
CSLAYER1
  6
CONTINUOUS
 62
     3
 10
1033.233656
 20
1684.585867
 11
1033.233656
 21
1688.085867
  0
LINE
  8
CSLAYER1
  6
CONTINUOUS
 62
     3
 10
1084.583295
 20
1688.085867
 11
1033.233656
 21
1688.085867
  0
LINE
  8
CSLAYER1
  6
CONTINUOUS
 62
     3
 10
1032.233656
 20
1683.585867
 11
1026.233656
 21
1683.585867
  0
LINE
  8
CSLAYER1
  6
CONTINUOUS
 62
     3
 10
1032.233656
 20
1699.585867
 11
1026.233656
 21
1699.585867
  0
LINE
  8
CSLAYER1
  6
CONTINUOUS
 62
     3
 10
1084.583295
 20
1695.085867
 11
1033.233656
 21
1695.085867
  0
ARC
  8
CSLAYER1
  6
CONTINUOUS
 62
     3
 10
1032.233656
 20
1698.585867
 40
1.000000
 50
0.000000
 51
90.000000
  0
ARC
  8
CSLAYER1
  6
CONTINUOUS
 62
     3
 10
1032.233656
 20
1684.585867
 40
1.000000
 50
-90.000000
 51
0.000000
  0
LINE
  8
CSLAYER1
  6
CONTINUOUS
 62
     3
 10
1033.233656
 20
1695.085867
 11
1033.233656
 21
1698.585867
  0
LINE
  8
CSLAYER1
  6
CONTINUOUS
 62
     2
 10
1033.233656
 20
1688.085867
 11
1033.233656
 21
1695.085867
  0
LINE
  8
CSLAYER1
  6
CONTINUOUS
 62
     2
 10
1026.233656
 20
1699.585867
 11
1026.233656
 21
1691.585867
  0
LINE
  8
CSLAYER1
  6
CONTINUOUS
 62
     2
 10
1026.233656
 20
1683.585867
 11
1026.233656
 21
1691.585867
  0
LINE
  8
CSLAYER1
  6
CONTINUOUS
 62
     2
 10
1006.740645
 20
1703.748526
 11
1015.875645
 21
1703.748526
  0
LINE
  8
CSLAYER1
  6
CONTINUOUS
 62
     2
 10
1006.740645
 20
1680.123526
 11
1015.875645
 21
1680.123526
  0
LINE
  8
CSLAYER1
  6
CONTINUOUS
 62
     2
 10
1017.135645
 20
1702.488526
 11
1017.135645
 21
1681.383526
  0
LINE
  8
CSLAYER1
  6
CONTINUOUS
 62
     2
 10
1005.480645
 20
1702.488526
 11
1005.480645
 21
1681.383526
  0
LINE
  8
CSLAYER1
  6
CONTINUOUS
 62
     2
 10
1007.370645
 20
1682.013526
 11
1015.403145
 21
1682.013526
  0
LINE
  8
CSLAYER1
  6
CONTINUOUS
 62
     2
 10
1007.370645
 20
1685.163526
 11
1008.315645
 21
1685.163526
  0
LINE
  8
CSLAYER1
  6
CONTINUOUS
 62
     2
 10
1007.370645
 20
1693.826026
 11
1008.315645
 21
1693.826026
  0
LINE
  8
CSLAYER1
  6
CONTINUOUS
 62
     2
 10
1007.370645
 20
1698.393526
 11
1012.410645
 21
1698.393526
  0
LINE
  8
CSLAYER1
  6
CONTINUOUS
 62
     2
 10
1006.268145
 20
1697.291026
 11
1006.268145
 21
1694.928526
  0
LINE
  8
CSLAYER1
  6
CONTINUOUS
 62
     2
 10
1013.513145
 20
1697.291026
 11
1013.513145
 21
1694.928526
  0
LINE
  8
CSLAYER1
  6
CONTINUOUS
 62
     2
 10
1016.505645
 20
1684.061026
 11
1016.505645
 21
1683.116026
  0
LINE
  8
CSLAYER1
  6
CONTINUOUS
 62
     2
 10
1009.260645
 20
1692.881026
 11
1009.260645
 21
1686.108526
  0
LINE
  8
CSLAYER1
  6
CONTINUOUS
 62
     2
 10
1010.048145
 20
1692.881026
 11
1010.048145
 21
1686.108526
  0
ARC
  8
CSLAYER1
  6
CONTINUOUS
 62
     2
 10
1007.370645
 20
1697.291026
 40
1.102500
 50
90.000000
 51
180.000000
  0
ARC
  8
CSLAYER1
  6
CONTINUOUS
 62
     2
 10
1012.410645
 20
1697.291026
 40
1.102500
 50
0.000000
 51
90.000000
  0
ARC
  8
CSLAYER1
  6
CONTINUOUS
 62
     2
 10
1012.410645
 20
1694.928526
 40
1.102500
 50
-90.000000
 51
0.000000
  0
ARC
  8
CSLAYER1
  6
CONTINUOUS
 62
     2
 10
1007.370645
 20
1694.928526
 40
1.102500
 50
180.000000
 51
270.000000
  0
ARC
  8
CSLAYER1
  6
CONTINUOUS
 62
     2
 10
1015.403145
 20
1684.061026
 40
1.102500
 50
0.000000
 51
90.000000
  0
ARC
  8
CSLAYER1
  6
CONTINUOUS
 62
     2
 10
1015.403145
 20
1683.116026
 40
1.102500
 50
-90.000000
 51
0.000000
  0
ARC
  8
CSLAYER1
  6
CONTINUOUS
 62
     2
 10
1007.370645
 20
1683.116026
 40
1.102500
 50
180.000000
 51
270.000000
  0
ARC
  8
CSLAYER1
  6
CONTINUOUS
 62
     2
 10
1007.370645
 20
1684.061026
 40
1.102500
 50
90.000000
 51
180.000000
  0
LINE
  8
CSLAYER1
  6
CONTINUOUS
 62
     2
 10
1010.993145
 20
1693.826026
 11
1012.410645
 21
1693.826026
  0
LINE
  8
CSLAYER1
  6
CONTINUOUS
 62
     2
 10
1010.993145
 20
1685.163526
 11
1015.403145
 21
1685.163526
  0
ARC
  8
CSLAYER1
  6
CONTINUOUS
 62
     2
 10
1008.315645
 20
1692.881026
 40
0.945000
 50
0.000000
 51
90.000000
  0
ARC
  8
CSLAYER1
  6
CONTINUOUS
 62
     2
 10
1010.993145
 20
1692.881026
 40
0.945000
 50
90.000000
 51
180.000000
  0
ARC
  8
CSLAYER1
  6
CONTINUOUS
 62
     2
 10
1010.993145
 20
1686.108526
 40
0.945000
 50
180.000000
 51
270.000000
  0
ARC
  8
CSLAYER1
  6
CONTINUOUS
 62
     2
 10
1006.740645
 20
1702.488526
 40
1.260000
 50
90.000000
 51
180.000000
  0
ARC
  8
CSLAYER1
  6
CONTINUOUS
 62
     2
 10
1015.875645
 20
1702.488526
 40
1.260000
 50
0.000000
 51
90.000000
  0
ARC
  8
CSLAYER1
  6
CONTINUOUS
 62
     2
 10
1015.875645
 20
1681.383526
 40
1.260000
 50
-90.000000
 51
0.000000
  0
ARC
  8
CSLAYER1
  6
CONTINUOUS
 62
     2
 10
1006.740645
 20
1681.383526
 40
1.260000
 50
180.000000
 51
270.000000
  0
ARC
  8
CSLAYER1
  6
CONTINUOUS
 62
     2
 10
1008.315645
 20
1686.108526
 40
0.945000
 50
-90.000000
 51
0.000000
  0
LINE
  8
CSLAYER1
  6
CONTINUOUS
 62
     2
 10
1006.268145
 20
1684.061026
 11
1006.268145
 21
1683.116026
  0
CIRCLE
  8
CSLAYER1
  6
CONTINUOUS
 62
     2
 10
991.733656
 20
1741.585867
 40
2.500000
  0
CIRCLE
  8
CSLAYER1
  6
CONTINUOUS
 62
     2
 10
991.733656
 20
1751.585867
 40
2.500000
  0
CIRCLE
  8
CSLAYER1
  6
CONTINUOUS
 62
     2
 10
981.733656
 20
1751.585867
 40
2.500000
  0
CIRCLE
  8
CSLAYER1
  6
CONTINUOUS
 62
     2
 10
981.733656
 20
1741.585867
 40
2.500000
  0
CIRCLE
  8
CSLAYER1
  6
CONTINUOUS
 62
     2
 10
971.733656
 20
1741.585867
 40
2.500000
  0
CIRCLE
  8
CSLAYER1
  6
CONTINUOUS
 62
     2
 10
971.733656
 20
1751.585867
 40
2.500000
  0
CIRCLE
  8
CSLAYER1
  6
CONTINUOUS
 62
     2
 10
961.733656
 20
1751.585867
 40
2.500000
  0
CIRCLE
  8
CSLAYER1
  6
CONTINUOUS
 62
     2
 10
961.733656
 20
1741.585867
 40
2.500000
  0
CIRCLE
  8
CSLAYER1
  6
CONTINUOUS
 62
     2
 10
951.733656
 20
1741.585867
 40
2.500000
  0
CIRCLE
  8
CSLAYER1
  6
CONTINUOUS
 62
     2
 10
951.733656
 20
1751.585867
 40
2.500000
  0
CIRCLE
  8
CSLAYER1
  6
CONTINUOUS
 62
     2
 10
991.733656
 20
1731.585867
 40
2.500000
  0
CIRCLE
  8
CSLAYER1
  6
CONTINUOUS
 62
     2
 10
991.733656
 20
1721.585867
 40
2.500000
  0
CIRCLE
  8
CSLAYER1
  6
CONTINUOUS
 62
     2
 10
981.733656
 20
1721.585867
 40
2.500000
  0
CIRCLE
  8
CSLAYER1
  6
CONTINUOUS
 62
     2
 10
981.733656
 20
1731.585867
 40
2.500000
  0
CIRCLE
  8
CSLAYER1
  6
CONTINUOUS
 62
     2
 10
971.733656
 20
1731.585867
 40
2.500000
  0
CIRCLE
  8
CSLAYER1
  6
CONTINUOUS
 62
     2
 10
971.733656
 20
1721.585867
 40
2.500000
  0
CIRCLE
  8
CSLAYER1
  6
CONTINUOUS
 62
     2
 10
961.733656
 20
1721.585867
 40
2.500000
  0
CIRCLE
  8
CSLAYER1
  6
CONTINUOUS
 62
     2
 10
961.733656
 20
1731.585867
 40
2.500000
  0
CIRCLE
  8
CSLAYER1
  6
CONTINUOUS
 62
     2
 10
951.733656
 20
1731.585867
 40
2.500000
  0
CIRCLE
  8
CSLAYER1
  6
CONTINUOUS
 62
     2
 10
951.733656
 20
1721.585867
 40
2.500000
  0
CIRCLE
  8
CSLAYER1
  6
CONTINUOUS
 62
     2
 10
991.733656
 20
1641.585867
 40
2.500000
  0
CIRCLE
  8
CSLAYER1
  6
CONTINUOUS
 62
     2
 10
991.733656
 20
1631.585867
 40
2.500000
  0
CIRCLE
  8
CSLAYER1
  6
CONTINUOUS
 62
     2
 10
981.733656
 20
1631.585867
 40
2.500000
  0
CIRCLE
  8
CSLAYER1
  6
CONTINUOUS
 62
     2
 10
981.733656
 20
1641.585867
 40
2.500000
  0
CIRCLE
  8
CSLAYER1
  6
CONTINUOUS
 62
     2
 10
971.733656
 20
1641.585867
 40
2.500000
  0
CIRCLE
  8
CSLAYER1
  6
CONTINUOUS
 62
     2
 10
971.733656
 20
1631.585867
 40
2.500000
  0
CIRCLE
  8
CSLAYER1
  6
CONTINUOUS
 62
     2
 10
961.733656
 20
1631.585867
 40
2.500000
  0
CIRCLE
  8
CSLAYER1
  6
CONTINUOUS
 62
     2
 10
961.733656
 20
1641.585867
 40
2.500000
  0
CIRCLE
  8
CSLAYER1
  6
CONTINUOUS
 62
     2
 10
951.733656
 20
1641.585867
 40
2.500000
  0
CIRCLE
  8
CSLAYER1
  6
CONTINUOUS
 62
     2
 10
951.733656
 20
1631.585867
 40
2.500000
  0
CIRCLE
  8
CSLAYER1
  6
CONTINUOUS
 62
     2
 10
991.733656
 20
1651.585867
 40
2.500000
  0
CIRCLE
  8
CSLAYER1
  6
CONTINUOUS
 62
     2
 10
991.733656
 20
1661.585867
 40
2.500000
  0
CIRCLE
  8
CSLAYER1
  6
CONTINUOUS
 62
     2
 10
981.733656
 20
1661.585867
 40
2.500000
  0
CIRCLE
  8
CSLAYER1
  6
CONTINUOUS
 62
     2
 10
981.733656
 20
1651.585867
 40
2.500000
  0
CIRCLE
  8
CSLAYER1
  6
CONTINUOUS
 62
     2
 10
971.733656
 20
1651.585867
 40
2.500000
  0
CIRCLE
  8
CSLAYER1
  6
CONTINUOUS
 62
     2
 10
971.733656
 20
1661.585867
 40
2.500000
  0
CIRCLE
  8
CSLAYER1
  6
CONTINUOUS
 62
     2
 10
961.733656
 20
1661.585867
 40
2.500000
  0
CIRCLE
  8
CSLAYER1
  6
CONTINUOUS
 62
     2
 10
961.733656
 20
1651.585867
 40
2.500000
  0
CIRCLE
  8
CSLAYER1
  6
CONTINUOUS
 62
     2
 10
951.733656
 20
1651.585867
 40
2.500000
  0
CIRCLE
  8
CSLAYER1
  6
CONTINUOUS
 62
     2
 10
951.733656
 20
1661.585867
 40
2.500000
  0
LINE
  8
CSLAYER1
  6
CONTINUOUS
 62
     2
 10
1017.733656
 20
1664.085867
 11
1017.733656
 21
1629.085867
  0
LINE
  8
CSLAYER1
  6
CONTINUOUS
 62
     2
 10
1001.733656
 20
1664.085867
 11
1001.733656
 21
1629.085867
  0
LINE
  8
CSLAYER1
  6
CONTINUOUS
 62
     2
 10
1016.233656
 20
1665.585867
 11
1003.233656
 21
1665.585867
  0
LINE
  8
CSLAYER1
  6
CONTINUOUS
 62
     2
 10
1016.733656
 20
1664.085867
 11
1016.733656
 21
1629.085867
  0
LINE
  8
CSLAYER1
  6
CONTINUOUS
 62
     2
 10
1002.733656
 20
1664.085867
 11
1002.733656
 21
1629.085867
  0
LINE
  8
CSLAYER1
  6
CONTINUOUS
 62
     2
 10
1016.233656
 20
1664.585867
 11
1003.233656
 21
1664.585867
  0
LINE
  8
CSLAYER1
  6
CONTINUOUS
 62
     2
 10
1016.233656
 20
1627.585867
 11
1003.233656
 21
1627.585867
  0
LINE
  8
CSLAYER1
  6
CONTINUOUS
 62
     2
 10
1016.233656
 20
1628.585867
 11
1003.233656
 21
1628.585867
  0
ARC
  8
CSLAYER1
  6
CONTINUOUS
 62
     2
 10
1016.233656
 20
1664.085867
 40
0.500000
 50
0.000000
 51
90.000000
  0
ARC
  8
CSLAYER1
  6
CONTINUOUS
 62
     2
 10
1003.233656
 20
1664.085867
 40
0.500000
 50
90.000000
 51
180.000000
  0
ARC
  8
CSLAYER1
  6
CONTINUOUS
 62
     2
 10
1016.233656
 20
1629.085867
 40
0.500000
 50
-90.000000
 51
0.000000
  0
ARC
  8
CSLAYER1
  6
CONTINUOUS
 62
     2
 10
1003.233656
 20
1629.085867
 40
0.500000
 50
180.000000
 51
270.000000
  0
ARC
  8
CSLAYER1
  6
CONTINUOUS
 62
     2
 10
1016.233656
 20
1664.085867
 40
1.500000
 50
0.000000
 51
90.000000
  0
ARC
  8
CSLAYER1
  6
CONTINUOUS
 62
     2
 10
1003.233656
 20
1664.085867
 40
1.500000
 50
90.000000
 51
180.000000
  0
ARC
  8
CSLAYER1
  6
CONTINUOUS
 62
     2
 10
1016.233656
 20
1629.085867
 40
1.500000
 50
-90.000000
 51
0.000000
  0
ARC
  8
CSLAYER1
  6
CONTINUOUS
 62
     2
 10
1003.233656
 20
1629.085867
 40
1.500000
 50
180.000000
 51
270.000000
  0
LINE
  8
CSLAYER1
  6
CONTINUOUS
 62
     2
 10
1012.733656
 20
1655.585867
 11
1012.733656
 21
1637.585867
  0
LINE
  8
CSLAYER1
  6
CONTINUOUS
 62
     2
 10
1015.811728
 20
1646.585867
 11
1012.733656
 21
1637.585867
  0
LINE
  8
CSLAYER1
  6
CONTINUOUS
 62
     2
 10
1015.811728
 20
1646.585867
 11
1012.733656
 21
1655.585867
  0
TEXT
  8
CSLAYER1
 62
     2
 10
1004.439871
 20
1655.565971
 40
7.066058
 41
1.574983
  1
UP
 50
270.000000
 51
0.000000
  7
EASYDRAW_FONT
 72
     5
 11
1004.439871
 21
1637.017769
  0
LINE
  8
CSLAYER1
  6
CONTINUOUS
 62
     2
 10
1017.733656
 20
1719.085867
 11
1017.733656
 21
1754.085867
  0
LINE
  8
CSLAYER1
  6
CONTINUOUS
 62
     2
 10
1001.733656
 20
1719.085867
 11
1001.733656
 21
1754.085867
  0
LINE
  8
CSLAYER1
  6
CONTINUOUS
 62
     2
 10
1016.233656
 20
1717.585867
 11
1003.233656
 21
1717.585867
  0
LINE
  8
CSLAYER1
  6
CONTINUOUS
 62
     2
 10
1016.733656
 20
1719.085867
 11
1016.733656
 21
1754.085867
  0
LINE
  8
CSLAYER1
  6
CONTINUOUS
 62
     2
 10
1002.733656
 20
1719.085867
 11
1002.733656
 21
1754.085867
  0
LINE
  8
CSLAYER1
  6
CONTINUOUS
 62
     2
 10
1016.233656
 20
1718.585867
 11
1003.233656
 21
1718.585867
  0
LINE
  8
CSLAYER1
  6
CONTINUOUS
 62
     2
 10
1016.233656
 20
1755.585867
 11
1003.233656
 21
1755.585867
  0
LINE
  8
CSLAYER1
  6
CONTINUOUS
 62
     2
 10
1016.233656
 20
1754.585867
 11
1003.233656
 21
1754.585867
  0
ARC
  8
CSLAYER1
  6
CONTINUOUS
 62
     2
 10
1016.233656
 20
1719.085867
 40
0.500000
 50
-90.000000
 51
0.000000
  0
ARC
  8
CSLAYER1
  6
CONTINUOUS
 62
     2
 10
1003.233656
 20
1719.085867
 40
0.500000
 50
180.000000
 51
270.000000
  0
ARC
  8
CSLAYER1
  6
CONTINUOUS
 62
     2
 10
1016.233656
 20
1754.085867
 40
0.500000
 50
0.000000
 51
90.000000
  0
ARC
  8
CSLAYER1
  6
CONTINUOUS
 62
     2
 10
1003.233656
 20
1754.085867
 40
0.500000
 50
90.000000
 51
180.000000
  0
ARC
  8
CSLAYER1
  6
CONTINUOUS
 62
     2
 10
1016.233656
 20
1719.085867
 40
1.500000
 50
-90.000000
 51
0.000000
  0
ARC
  8
CSLAYER1
  6
CONTINUOUS
 62
     2
 10
1003.233656
 20
1719.085867
 40
1.500000
 50
180.000000
 51
270.000000
  0
ARC
  8
CSLAYER1
  6
CONTINUOUS
 62
     2
 10
1016.233656
 20
1754.085867
 40
1.500000
 50
0.000000
 51
90.000000
  0
ARC
  8
CSLAYER1
  6
CONTINUOUS
 62
     2
 10
1003.233656
 20
1754.085867
 40
1.500000
 50
90.000000
 51
180.000000
  0
LINE
  8
CSLAYER1
  6
CONTINUOUS
 62
     2
 10
1007.260726
 20
1727.585867
 11
1007.260726
 21
1745.585867
  0
LINE
  8
CSLAYER1
  6
CONTINUOUS
 62
     2
 10
1004.182654
 20
1736.585867
 11
1007.260726
 21
1745.585867
  0
LINE
  8
CSLAYER1
  6
CONTINUOUS
 62
     2
 10
1004.182654
 20
1736.585867
 11
1007.260726
 21
1727.585867
  0
TEXT
  8
CSLAYER1
 62
     2
 10
1008.870713
 20
1751.283540
 40
6.383575
 41
1.255870
  1
DOWN
 50
270.000000
 51
0.000000
  7
EASYDRAW_FONT
 72
     5
 11
1008.870713
 21
1721.888091
  0
ENDBLK
  8
0
  0
ENDSEC
  0
SECTION
  2
ENTITIES
  0
LINE
  8
CSLAYER1
  6
CONTINUOUS
 62
     3
 10
118.051807
 20
2400.454119
 11
118.051807
 21
51.907189
  0
LINE
  8
CSLAYER1
  6
CONTINUOUS
 62
     3
 10
3440.625117
 20
2400.454119
 11
118.051807
 21
2400.454119
  0
LINE
  8
CSLAYER1
  6
CONTINUOUS
 62
     3
 10
3440.625117
 20
2400.454119
 11
3440.625117
 21
51.907189
  0
LINE
  8
CSLAYER1
  6
CONTINUOUS
 62
     3
 10
3440.625117
 20
51.907189
 11
118.051807
 21
51.907189
  0
LINE
  8
CSLAYER1
  6
CONTINUOUS
 62
     5
 10
68.051807
 20
1211.907189
 11
18.051807
 21
1211.907189
  0
LINE
  8
CSLAYER1
  6
CONTINUOUS
 62
     5
 10
2640.625117
 20
491.907189
 11
3440.625117
 21
491.907189
  0
LINE
  8
CSLAYER1
  6
CONTINUOUS
 62
     5
 10
2640.625117
 20
131.907189
 11
3440.625117
 21
131.907189
  0
LINE
  8
CSLAYER1
  6
CONTINUOUS
 62
     5
 10
2640.625117
 20
291.907189
 11
3440.625117
 21
291.907189
  0
LINE
  8
CSLAYER1
  6
CONTINUOUS
 62
     5
 10
2640.625117
 20
351.907189
 11
3440.625117
 21
351.907189
  0
LINE
  8
CSLAYER1
  6
CONTINUOUS
 62
     5
 10
2640.625117
 20
411.907189
 11
3440.625117
 21
411.907189
  0
LINE
  8
CSLAYER1
  6
CONTINUOUS
 62
     5
 10
2640.625117
 20
571.907189
 11
3440.625117
 21
571.907189
  0
LINE
  8
CSLAYER1
  6
CONTINUOUS
 62
     5
 10
2640.625117
 20
651.907189
 11
2640.625117
 21
51.907189
  0
LINE
  8
CSLAYER1
  6
CONTINUOUS
 62
     5
 10
2840.625117
 20
651.907189
 11
2840.625117
 21
411.907189
  0
LINE
  8
CSLAYER1
  6
CONTINUOUS
 62
     5
 10
2640.625117
 20
651.907189
 11
3440.625117
 21
651.907189
  0
LINE
  8
CSLAYER1
  6
CONTINUOUS
 62
     5
 10
3140.625117
 20
411.907189
 11
3140.625117
 21
131.907189
  0
TEXT
  8
CSLAYER1
 62
     3
 10
2860.316219
 20
60.469913
 40
59.380363
 41
1.003345
  1
東正車輌株式会社
 50
0.000000
 51
0.000000
  7
EASYDRAW_FONT
 72
     5
 11
3317.088566
 21
60.469913
  0
LINE
  8
CSLAYER1
  6
CONTINUOUS
 62
     5
 10
2890.625117
 20
351.907189
 11
2890.625117
 21
131.907189
  0
TEXT
  8
CSLAYER1
 62
     5
 10
2670.625000
 20
586.907166
 40
50.000000
 41
1.050000
  1
品　名
 50
0.000000
 51
0.000000
  7
EASYDRAW_FONT
 72
     5
 11
2810.625000
 21
586.907166
  0
TEXT
  8
CSLAYER1
 62
     5
 10
2670.625000
 20
506.907166
 40
50.000000
 41
1.050000
  1
型　式
 50
0.000000
 51
0.000000
  7
EASYDRAW_FONT
 72
     5
 11
2810.625000
 21
506.907166
  0
TEXT
  8
CSLAYER1
 62
     5
 10
2645.625000
 20
426.907196
 40
50.000000
 41
1.036364
  1
図面番号
 50
0.000000
 51
0.000000
  7
EASYDRAW_FONT
 72
     5
 11
2835.625000
 21
426.907196
  0
TEXT
  8
CSLAYER1
 62
     5
 10
2710.625000
 20
356.907196
 40
50.000000
 41
0.830769
  1
平成１３年３月７日
 50
0.000000
 51
0.000000
  7
EASYDRAW_FONT
 72
     5
 11
3070.625000
 21
356.907196
  0
TEXT
  8
CSLAYER1
 62
     5
 10
3220.625000
 20
356.907196
 40
50.000000
 41
1.050000
  1
Ｂ－４
 50
0.000000
 51
0.000000
  7
EASYDRAW_FONT
 72
     5
 11
3360.625000
 21
356.907196
  0
TEXT
  8
CSLAYER1
 62
     5
 10
2695.625000
 20
296.907196
 40
50.000000
 41
1.050000
  1
検　図
 50
0.000000
 51
0.000000
  7
EASYDRAW_FONT
 72
     5
 11
2835.625000
 21
296.907196
  0
TEXT
  8
CSLAYER1
 62
     5
 10
2945.625000
 20
296.907196
 40
50.000000
 41
1.050000
  1
作　図
 50
0.000000
 51
0.000000
  7
EASYDRAW_FONT
 72
     5
 11
3085.625000
 21
296.907196
  0
TEXT
  8
CSLAYER1
 62
     5
 10
3220.625000
 20
296.907196
 40
50.000000
 41
1.050000
  1
尺　度
 50
0.000000
 51
0.000000
  7
EASYDRAW_FONT
 72
     5
 11
3360.625000
 21
296.907196
  0
TEXT
  8
CSLAYER1
 62
     5
 10
3321.363770
 20
146.392456
 40
50.000000
 41
1.080000
  1
１０
 50
0.000000
 51
0.000000
  7
EASYDRAW_FONT
 72
     5
 11
3411.363770
 21
146.392456
  0
TEXT
  8
CSLAYER1
 62
     5
 10
3301.044189
 20
194.097153
 40
50.000000
 41
1.200000
  1
／
 50
0.000000
 51
0.000000
  7
EASYDRAW_FONT
 72
     5
 11
3341.044189
 21
194.097153
  0
TEXT
  8
CSLAYER1
 62
     5
 10
3270.831299
 20
229.080597
 40
50.000000
 41
1.200000
  1
１
 50
0.000000
 51
0.000000
  7
EASYDRAW_FONT
 72
     5
 11
3310.831299
 21
229.080597
  0
TEXT
  8
CSLAYER1
 62
     3
 10
2980.625000
 20
586.907166
 40
50.000000
 41
0.834783
  1
ゴールドリフター
 50
0.000000
 51
0.000000
  7
EASYDRAW_FONT
 72
     5
 11
3300.625000
 21
586.907166
  0
TEXT
  8
CSLAYER1
 62
     3
 10
2880.625000
 20
506.907166
 40
50.000000
 41
0.821053
  1
ＧＬＥ－１５０－０６０６Ｗ
 50
0.000000
 51
0.000000
  7
EASYDRAW_FONT
 72
     5
 11
3400.625000
 21
506.907166
  0
TEXT
  8
CSLAYER1
 62
     3
 10
3020.625000
 20
426.907196
 40
50.000000
 41
0.847059
  1
GT-02 
 50
0.000000
 51
0.000000
  7
EASYDRAW_FONT
 72
     5
 11
3260.625000
 21
426.907196
  0
INSERT
  8
CSLAYER1
  2
BLKF0000
 10
0.0
 20
0.0
 30
0.0
  0
INSERT
  8
CSLAYER1
  2
BLKF0001
 10
0.0
 20
0.0
 30
0.0
  0
LINE
  8
CSLAYER1
  6
CONTINUOUS
 62
     3
 10
2053.233656
 20
1290.085867
 11
1453.233656
 21
1290.085867
  0
LINE
  8
CSLAYER1
  6
CONTINUOUS
 62
     3
 10
1453.233656
 20
1290.085867
 11
1453.233656
 21
1245.085867
  0
LINE
  8
CSLAYER1
  6
CONTINUOUS
 62
     3
 10
1453.233656
 20
1245.085867
 11
2053.233656
 21
1245.085867
  0
LINE
  8
CSLAYER1
  6
CONTINUOUS
 62
     3
 10
2053.233656
 20
1245.085867
 11
2053.233656
 21
1290.085867
  0
LINE
  8
CSLAYER1
  6
CONTINUOUS
 62
     3
 10
1603.783100
 20
485.648001
 11
1610.433100
 21
514.148001
  0
LINE
  8
CSLAYER1
  6
CONTINUOUS
 62
     3
 10
1618.433100
 20
484.148001
 11
1723.433100
 21
484.148001
  0
LINE
  8
CSLAYER1
  6
CONTINUOUS
 62
     3
 10
1603.433100
 20
482.648001
 11
1603.433100
 21
479.148001
  0
LINE
  8
CSLAYER1
  6
CONTINUOUS
 62
     3
 10
1610.433100
 20
514.148001
 11
1716.433100
 21
514.148001
  0
LINE
  8
CSLAYER1
  6
CONTINUOUS
 62
     3
 10
1716.433100
 20
514.148001
 11
1723.433100
 21
484.148001
  0
LINE
  8
CSLAYER1
  6
CONTINUOUS
 62
     3
 10
1723.433100
 20
484.148001
 11
1723.433100
 21
479.148001
  0
LINE
  8
CSLAYER1
  6
CONTINUOUS
 62
     3
 10
1710.485214
 20
571.748001
 11
1627.984240
 21
571.748001
  0
LINE
  8
CSLAYER1
  6
CONTINUOUS
 62
     3
 10
1751.433100
 20
530.498001
 11
1751.433100
 21
481.798001
  0
LINE
  8
CSLAYER1
  6
CONTINUOUS
 62
     3
 10
1543.433100
 20
489.942128
 11
1543.433100
 21
479.148001
  0
LINE
  8
CSLAYER1
  6
CONTINUOUS
 62
     3
 10
1583.433100
 20
528.643379
 11
1583.433100
 21
490.148001
  0
LINE
  8
CSLAYER1
  6
CONTINUOUS
 62
     3
 10
1740.433100
 20
542.772485
 11
1740.433100
 21
479.148001
  0
LINE
  8
CSLAYER1
  6
CONTINUOUS
 62
     3
 10
1751.433100
 20
481.798001
 11
1740.433100
 21
481.798001
  0
LINE
  8
CSLAYER1
  6
CONTINUOUS
 62
     3
 10
1751.433100
 20
530.498001
 11
1740.433100
 21
530.498001
  0
LINE
  8
CSLAYER1
  6
CONTINUOUS
 62
     7
 10
1730.433100
 20
544.729954
 11
1730.433100
 21
504.298404
  0
LINE
  8
CSLAYER1
  6
CONTINUOUS
 62
     5
 10
1708.433100
 20
566.148001
 11
1708.433100
 21
514.148001
  0
LINE
  8
CSLAYER1
  6
CONTINUOUS
 62
     7
 10
1672.433100
 20
544.729954
 11
1672.433100
 21
543.125713
  0
LINE
  8
CSLAYER1
  6
CONTINUOUS
 62
     7
 10
1717.433929
 20
509.858731
 11
1723.433100
 21
509.858731
  0
LINE
  8
CSLAYER1
  6
CONTINUOUS
 62
     7
 10
1690.433100
 20
546.229954
 11
1726.433100
 21
546.229954
  0
LINE
  8
CSLAYER1
  6
CONTINUOUS
 62
     7
 10
1718.215107
 20
506.510828
 11
1726.433100
 21
506.510828
  0
ARC
  8
CSLAYER1
  6
CONTINUOUS
 62
     7
 10
1708.433100
 20
528.044343
 40
12.500000
 50
-170.165413
 51
140.165413
  0
LINE
  8
CSLAYER1
  6
CONTINUOUS
 62
     7
 10
1726.433100
 20
546.229954
 11
1726.433100
 21
506.510828
  0
LINE
  8
CSLAYER1
  6
CONTINUOUS
 62
     7
 10
1723.433100
 20
546.229954
 11
1723.433100
 21
509.858731
  0
LINE
  8
CSLAYER1
  6
CONTINUOUS
 62
     7
 10
1690.433100
 20
546.229954
 11
1690.433100
 21
538.302628
  0
LINE
  8
CSLAYER1
  6
CONTINUOUS
 62
     7
 10
1676.433100
 20
544.729954
 11
1676.433100
 21
542.053917
  0
ARC
  8
CSLAYER1
  6
CONTINUOUS
 62
     7
 10
1708.433100
 20
528.044343
 40
5.250000
 50
-105.000000
 51
75.000000
  0
LINE
  8
CSLAYER1
  6
CONTINUOUS
 62
     7
 10
1676.433100
 20
544.729954
 11
1690.433100
 21
546.229954
  0
LINE
  8
CSLAYER1
  6
CONTINUOUS
 62
     7
 10
1723.433100
 20
509.858731
 11
1726.433100
 21
506.510828
  0
LINE
  8
CSLAYER1
  6
CONTINUOUS
 62
     7
 10
1674.433100
 20
546.729954
 11
1691.365808
 21
546.729954
  0
ARC
  8
CSLAYER1
  6
CONTINUOUS
 62
     7
 10
1708.433100
 20
533.074319
 40
20.284880
 50
47.545857
 51
84.719619
  0
CIRCLE
  8
CSLAYER1
  6
CONTINUOUS
 62
     7
 10
1708.433100
 20
550.924707
 40
3.000000
  0
ARC
  8
CSLAYER1
  6
CONTINUOUS
 62
     7
 10
1708.433100
 20
509.855795
 40
16.796254
 50
314.594132
 51
324.821469
  0
LINE
  8
CSLAYER1
  6
CONTINUOUS
 62
     5
 10
1701.717797
 20
550.924707
 11
1714.478875
 21
550.924707
  0
ARC
  8
CSLAYER1
  6
CONTINUOUS
 62
     7
 10
1708.433100
 20
533.074319
 40
20.284880
 50
95.280381
 51
132.454143
  0
LINE
  8
CSLAYER1
  6
CONTINUOUS
 62
     7
 10
1725.500391
 20
546.729954
 11
1728.433100
 21
546.729954
  0
ARC
  8
CSLAYER1
  6
CONTINUOUS
 62
     7
 10
1691.365808
 20
551.729954
 40
5.000000
 50
270.000000
 51
312.454143
  0
ARC
  8
CSLAYER1
  6
CONTINUOUS
 62
     7
 10
1725.500391
 20
551.729954
 40
5.000000
 50
227.545857
 51
270.000000
  0
LINE
  8
CSLAYER1
  6
CONTINUOUS
 62
     7
 10
1726.248504
 20
502.298404
 11
1728.433100
 21
502.298404
  0
ARC
  8
CSLAYER1
  6
CONTINUOUS
 62
     7
 10
1726.248504
 20
497.298404
 40
5.000000
 50
90.000000
 51
144.821469
  0
LINE
  8
CSLAYER1
  6
CONTINUOUS
 62
     7
 10
1676.433100
 20
531.183517
 11
1676.433100
 21
514.148001
  0
LINE
  8
CSLAYER1
  6
CONTINUOUS
 62
     7
 10
1672.433100
 20
532.255313
 11
1672.433100
 21
514.148001
  0
LINE
  8
CSLAYER1
  6
CONTINUOUS
 62
     7
 10
1690.433100
 20
527.432228
 11
1690.433100
 21
514.148001
  0
LINE
  8
CSLAYER1
  6
CONTINUOUS
 62
     5
 10
1696.375504
 20
528.044343
 11
1723.433100
 21
528.044343
  0
LINE
  8
CSLAYER1
  6
CONTINUOUS
 62
     5
 10
1732.433100
 20
550.512736
 11
1732.433100
 21
479.148001
  0
LINE
  8
CSLAYER1
  6
CONTINUOUS
 62
     5
 10
1585.933100
 20
480.148001
 11
1543.433100
 21
480.148001
  0
ARC
  8
CSLAYER1
  6
CONTINUOUS
 62
     4
 10
1564.933100
 20
527.648001
 40
17.000000
 50
269.666420
 51
358.442731
  0
LINE
  8
CSLAYER1
  6
CONTINUOUS
 62
     4
 10
1570.668080
 20
515.648001
 11
1570.001619
 21
515.648001
  0
LINE
  8
CSLAYER1
  6
CONTINUOUS
 62
     4
 10
1572.457914
 20
516.681362
 11
1574.214810
 21
519.724396
  0
ARC
  8
CSLAYER1
  6
CONTINUOUS
 62
     4
 10
1564.933100
 20
527.648001
 40
13.300000
 50
295.543837
 51
304.456163
  0
LINE
  8
CSLAYER1
  6
CONTINUOUS
 62
     4
 10
1570.433100
 20
511.562293
 11
1570.433100
 21
498.148001
  0
LINE
  8
CSLAYER1
  6
CONTINUOUS
 62
     4
 10
1546.933100
 20
491.148001
 11
1546.933100
 21
479.148001
  0
LINE
  8
CSLAYER1
  6
CONTINUOUS
 62
     4
 10
1582.933100
 20
491.148001
 11
1582.933100
 21
479.148001
  0
LINE
  8
CSLAYER1
  6
CONTINUOUS
 62
     4
 10
1575.933100
 20
498.148001
 11
1553.933100
 21
498.148001
  0
ARC
  8
CSLAYER1
  6
CONTINUOUS
 62
     4
 10
1564.933100
 20
480.148001
 40
12.500000
 50
-4.588566
 51
184.588566
  0
ARC
  8
CSLAYER1
  6
CONTINUOUS
 62
     4
 10
1564.933100
 20
480.148001
 40
4.750000
 50
-12.153197
 51
192.153197
  0
LINE
  8
CSLAYER1
  6
CONTINUOUS
 62
     4
 10
1548.433100
 20
490.648001
 11
1548.433100
 21
479.148001
  0
LINE
  8
CSLAYER1
  6
CONTINUOUS
 62
     4
 10
1581.433100
 20
490.648001
 11
1581.433100
 21
479.148001
  0
LINE
  8
CSLAYER1
  6
CONTINUOUS
 62
     4
 10
1575.433100
 20
496.648001
 11
1554.433100
 21
496.648001
  0
LINE
  8
CSLAYER1
  6
CONTINUOUS
 62
     4
 10
1565.799125
 20
481.648001
 11
1564.067074
 21
481.648001
  0
LINE
  8
CSLAYER1
  6
CONTINUOUS
 62
     4
 10
1566.087800
 20
479.148001
 11
1566.665150
 21
480.148001
  0
LINE
  8
CSLAYER1
  6
CONTINUOUS
 62
     4
 10
1563.201049
 20
480.148001
 11
1564.067074
 21
481.648001
  0
LINE
  8
CSLAYER1
  6
CONTINUOUS
 62
     4
 10
1563.201049
 20
480.148001
 11
1563.778399
 21
479.148001
  0
LINE
  8
CSLAYER1
  6
CONTINUOUS
 62
     4
 10
1565.799125
 20
481.648001
 11
1566.665150
 21
480.148001
  0
LINE
  8
CSLAYER1
  6
CONTINUOUS
 62
     4
 10
1554.433100
 20
496.648001
 11
1548.433100
 21
490.648001
  0
LINE
  8
CSLAYER1
  6
CONTINUOUS
 62
     4
 10
1575.433100
 20
496.648001
 11
1581.433100
 21
490.648001
  0
LINE
  8
CSLAYER1
  6
CONTINUOUS
 62
     4
 10
1546.933100
 20
491.148001
 11
1553.933100
 21
498.148001
  0
LINE
  8
CSLAYER1
  6
CONTINUOUS
 62
     4
 10
1575.933100
 20
498.148001
 11
1582.933100
 21
491.148001
  0
LINE
  8
CSLAYER1
  6
CONTINUOUS
 62
     4
 10
1585.933100
 20
490.148001
 11
1585.933100
 21
479.148001
  0
LINE
  8
CSLAYER1
  6
CONTINUOUS
 62
     4
 10
1588.433100
 20
488.148001
 11
1588.433100
 21
479.148001
  0
LINE
  8
CSLAYER1
  6
CONTINUOUS
 62
     4
 10
1585.933100
 20
490.148001
 11
1582.933100
 21
490.148001
  0
LINE
  8
CSLAYER1
  6
CONTINUOUS
 62
     4
 10
1588.433100
 20
488.148001
 11
1585.933100
 21
488.148001
  0
LINE
  8
CSLAYER1
  6
CONTINUOUS
 62
     5
 10
1618.433100
 20
484.148001
 11
1581.433100
 21
484.148001
  0
LINE
  8
CSLAYER1
  6
CONTINUOUS
 62
     4
 10
1618.433100
 20
482.648001
 11
1588.433100
 21
482.648001
  0
LINE
  8
CSLAYER1
  6
CONTINUOUS
 62
     4
 10
1618.433100
 20
485.648001
 11
1588.433100
 21
485.648001
  0
LINE
  8
CSLAYER1
  6
CONTINUOUS
 62
     5
 10
1589.933100
 20
482.648001
 11
1589.933100
 21
479.148001
  0
ARC
  8
CSLAYER1
  6
CONTINUOUS
 62
     4
 10
1563.773444
 20
506.213130
 40
12.340516
 50
212.603801
 51
220.809702
  0
LINE
  8
CSLAYER1
  6
CONTINUOUS
 62
     4
 10
1547.933100
 20
494.296019
 11
1547.933100
 21
492.148001
  0
ARC
  8
CSLAYER1
  6
CONTINUOUS
 62
     7
 10
1674.433100
 20
544.729954
 40
2.000000
 50
90.000000
 51
180.000000
  0
ARC
  8
CSLAYER1
  6
CONTINUOUS
 62
     7
 10
1728.433100
 20
504.298404
 40
2.000000
 50
270.000000
 51
360.000000
  0
ARC
  8
CSLAYER1
  6
CONTINUOUS
 62
     7
 10
1728.433100
 20
544.729954
 40
2.000000
 50
0.000000
 51
90.000000
  0
LINE
  8
CSLAYER1
  6
CONTINUOUS
 62
     7
 10
1746.133100
 20
508.648001
 11
1746.133100
 21
503.648001
  0
LINE
  8
CSLAYER1
  6
CONTINUOUS
 62
     7
 10
1741.433100
 20
511.148001
 11
1741.433100
 21
501.148001
  0
LINE
  8
CSLAYER1
  6
CONTINUOUS
 62
     7
 10
1742.433100
 20
511.148001
 11
1742.433100
 21
501.148001
  0
LINE
  8
CSLAYER1
  6
CONTINUOUS
 62
     7
 10
1743.733100
 20
511.148001
 11
1740.433100
 21
511.148001
  0
LINE
  8
CSLAYER1
  6
CONTINUOUS
 62
     7
 10
1743.733100
 20
501.148001
 11
1740.433100
 21
501.148001
  0
LINE
  8
CSLAYER1
  6
CONTINUOUS
 62
     7
 10
1743.733100
 20
511.148001
 11
1743.733100
 21
501.148001
  0
LINE
  8
CSLAYER1
  6
CONTINUOUS
 62
     5
 10
1744.133100
 20
510.648001
 11
1743.733100
 21
510.648001
  0
LINE
  8
CSLAYER1
  6
CONTINUOUS
 62
     5
 10
1744.133100
 20
501.648001
 11
1743.733100
 21
501.648001
  0
ARC
  8
CSLAYER1
  6
CONTINUOUS
 62
     7
 10
1744.133100
 20
508.648001
 40
2.000000
 50
0.000000
 51
90.000000
  0
ARC
  8
CSLAYER1
  6
CONTINUOUS
 62
     7
 10
1744.133100
 20
503.648001
 40
2.000000
 50
270.000000
 51
360.000000
  0
LINE
  8
CSLAYER1
  6
CONTINUOUS
 62
     7
 10
1742.433100
 20
505.022168
 11
1743.733100
 21
507.273834
  0
LINE
  8
CSLAYER1
  6
CONTINUOUS
 62
     5
 10
1589.933100
 20
534.932332
 11
1589.933100
 21
485.648001
  0
LINE
  8
CSLAYER1
  6
CONTINUOUS
 62
     5
 10
1564.933100
 20
510.744050
 11
1564.933100
 21
479.148001
  0
LINE
  8
CSLAYER1
  6
CENTER
 62
     5
 10
1763.188076
 20
506.148001
 11
1450.433100
 21
506.148001
  0
LINE
  8
CSLAYER1
  6
CONTINUOUS
 62
     7
 10
1642.959832
 20
551.023052
 11
1709.791900
 21
533.115453
  0
LINE
  8
CSLAYER1
  6
CONTINUOUS
 62
     5
 10
1635.171184
 20
547.674814
 11
1708.433100
 21
528.044343
  0
LINE
  8
CSLAYER1
  6
CONTINUOUS
 62
     7
 10
1637.268500
 20
541.677640
 11
1707.074300
 21
522.973232
  0
LINE
  8
CSLAYER1
  6
CONTINUOUS
 62
     3
 10
1470.433100
 20
504.148001
 11
1460.433100
 21
504.148001
  0
LINE
  8
CSLAYER1
  6
CONTINUOUS
 62
     3
 10
1539.836565
 20
486.462368
 11
1539.614918
 21
479.148001
  0
LINE
  8
CSLAYER1
  6
CONTINUOUS
 62
     3
 10
1472.182873
 20
524.148001
 11
1470.433100
 21
504.148001
  0
LINE
  8
CSLAYER1
  6
CONTINUOUS
 62
     3
 10
1460.433100
 20
504.148001
 11
1461.427564
 21
479.148001
  0
LINE
  8
CSLAYER1
  6
CONTINUOUS
 62
     3
 10
1460.433100
 20
504.148001
 11
1462.557449
 21
559.645257
  0
LINE
  8
CSLAYER1
  6
CONTINUOUS
 62
     3
 10
1527.433100
 20
569.148001
 11
1527.433100
 21
564.648001
  0
ARC
  8
CSLAYER1
  6
CONTINUOUS
 62
     3
 10
1475.547935
 20
559.148001
 40
13.000000
 50
90.000000
 51
177.807877
  0
LINE
  8
CSLAYER1
  6
CONTINUOUS
 62
     7
 10
1524.333100
 20
566.148001
 11
1520.333100
 21
566.148001
  0
LINE
  8
CSLAYER1
  6
CONTINUOUS
 62
     7
 10
1525.833100
 20
568.898001
 11
1520.333100
 21
568.898001
  0
LINE
  8
CSLAYER1
  6
CONTINUOUS
 62
     7
 10
1525.833100
 20
569.398001
 11
1525.833100
 21
564.648001
  0
LINE
  8
CSLAYER1
  6
CONTINUOUS
 62
     7
 10
1524.333100
 20
568.898001
 11
1524.333100
 21
564.648001
  0
LINE
  8
CSLAYER1
  6
CONTINUOUS
 62
     7
 10
1520.333100
 20
568.898001
 11
1520.333100
 21
564.648001
  0
LINE
  8
CSLAYER1
  6
CONTINUOUS
 62
     7
 10
1527.433100
 20
569.398001
 11
1525.833100
 21
569.398001
  0
LINE
  8
CSLAYER1
  6
CONTINUOUS
 62
     5
 10
1525.616626
 20
563.148001
 11
1517.225610
 21
563.148001
  0
LINE
  8
CSLAYER1
  6
CONTINUOUS
 62
     3
 10
1534.918651
 20
572.148001
 11
1475.547935
 21
572.148001
  0
ARC
  8
CSLAYER1
  6
CONTINUOUS
 62
     3
 10
1530.433100
 20
569.148001
 40
3.000000
 50
90.000000
 51
180.000000
  0
LINE
  8
CSLAYER1
  6
CONTINUOUS
 62
     5
 10
1493.433100
 20
572.148001
 11
1493.433100
 21
542.707503
  0
LINE
  8
CSLAYER1
  6
CONTINUOUS
 62
     3
 10
1525.099847
 20
562.648001
 11
1475.184290
 21
562.648001
  0
LINE
  8
CSLAYER1
  6
CONTINUOUS
 62
     3
 10
1527.166964
 20
564.648001
 11
1475.260847
 21
564.648001
  0
ARC
  8
CSLAYER1
  6
CONTINUOUS
 62
     3
 10
1475.260847
 20
551.648001
 40
13.000000
 50
90.000000
 51
177.807877
  0
ARC
  8
CSLAYER1
  6
CONTINUOUS
 62
     3
 10
1475.184290
 20
549.648001
 40
13.000000
 50
90.000000
 51
177.807877
  0
ARC
  8
CSLAYER1
  6
CONTINUOUS
 62
     3
 10
1493.433100
 20
554.148001
 40
8.000000
 50
0.000000
 51
180.000000
  0
LINE
  8
CSLAYER1
  6
CONTINUOUS
 62
     5
 10
1852.152302
 20
522.502320
 11
1854.138020
 21
515.552323
  0
ARC
  8
CSLAYER1
  6
CONTINUOUS
 62
     7
 10
1878.113463
 20
493.519254
 40
27.000000
 50
-32.158866
 51
85.792059
  0
LINE
  8
CSLAYER1
  6
CONTINUOUS
 62
     7
 10
1852.152302
 20
522.502320
 11
1880.094627
 21
520.446471
  0
POINT
  8
CSLAYER1
 62
     5
 10
1855.078826
 20
1265.052011
  0
POINT
  8
CSLAYER1
 62
     5
 10
1483.433656
 20
1265.085867
  0
LINE
  8
CSLAYER1
  6
CONTINUOUS
 62
     3
 10
276.552046
 20
429.148001
 11
2450.296540
 21
429.148001
  0
LINE
  8
CSLAYER1
  6
CONTINUOUS
 62
     3
 10
854.427564
 20
429.148001
 11
854.427564
 21
479.148001
  0
LINE
  8
CSLAYER1
  6
CONTINUOUS
 62
     3
 10
854.427564
 20
479.148001
 11
404.427564
 21
479.148001
  0
LINE
  8
CSLAYER1
  6
CONTINUOUS
 62
     3
 10
404.427564
 20
479.148001
 11
404.427564
 21
429.148001
  0
LINE
  8
CSLAYER1
  6
CENTER
 62
     5
 10
629.427564
 20
408.067339
 11
629.427564
 21
1320.141479
  0
LINE
  8
CSLAYER1
  6
CONTINUOUS
 62
     3
 10
329.427564
 20
1240.085867
 11
929.427564
 21
1240.085867
  0
LINE
  8
CSLAYER1
  6
CONTINUOUS
 62
     3
 10
929.427564
 20
1240.085867
 11
929.427564
 21
1290.085867
  0
LINE
  8
CSLAYER1
  6
CONTINUOUS
 62
     3
 10
929.427564
 20
1290.085867
 11
329.427564
 21
1290.085867
  0
LINE
  8
CSLAYER1
  6
CONTINUOUS
 62
     3
 10
329.427564
 20
1290.085867
 11
329.427564
 21
1240.085867
  0
LINE
  8
CSLAYER1
  6
CONTINUOUS
 62
     3
 10
575.927564
 20
572.148001
 11
684.927564
 21
572.148001
  0
LINE
  8
CSLAYER1
  6
CONTINUOUS
 62
     3
 10
684.927564
 20
572.148001
 11
684.927564
 21
570.376417
  0
LINE
  8
CSLAYER1
  6
CONTINUOUS
 62
     3
 10
575.927564
 20
572.148001
 11
575.927564
 21
570.650937
  0
ARC
  8
CSLAYER1
  6
CONTINUOUS
 62
     7
 10
575.927564
 20
563.148001
 40
7.500000
 50
180.000000
 51
360.000000
  0
CIRCLE
  8
CSLAYER1
  6
CONTINUOUS
 62
     7
 10
575.927564
 20
563.148001
 40
6.250000
  0
CIRCLE
  8
CSLAYER1
  6
CONTINUOUS
 62
     7
 10
575.927564
 20
563.148001
 40
5.750000
  0
LINE
  8
CSLAYER1
  6
CONTINUOUS
 62
     7
 10
578.814315
 20
568.148001
 11
573.040812
 21
568.148001
  0
LINE
  8
CSLAYER1
  6
CONTINUOUS
 62
     7
 10
578.814315
 20
558.148001
 11
573.040812
 21
558.148001
  0
LINE
  8
CSLAYER1
  6
CONTINUOUS
 62
     7
 10
570.154061
 20
563.148001
 11
573.040812
 21
568.148001
  0
LINE
  8
CSLAYER1
  6
CONTINUOUS
 62
     7
 10
578.814315
 20
558.148001
 11
581.701066
 21
563.148001
  0
LINE
  8
CSLAYER1
  6
CONTINUOUS
 62
     7
 10
578.814315
 20
568.148001
 11
581.701066
 21
563.148001
  0
LINE
  8
CSLAYER1
  6
CONTINUOUS
 62
     7
 10
570.154061
 20
563.148001
 11
573.040812
 21
558.148001
  0
LINE
  8
CSLAYER1
  6
CONTINUOUS
 62
     5
 10
586.645767
 20
563.148001
 11
578.927564
 21
563.148001
  0
LINE
  8
CSLAYER1
  6
CONTINUOUS
 62
     5
 10
575.927564
 20
576.813488
 11
575.927564
 21
566.148001
  0
LINE
  8
CSLAYER1
  6
CONTINUOUS
 62
     5
 10
572.927564
 20
563.148001
 11
563.879300
 21
563.148001
  0
LINE
  8
CSLAYER1
  6
CONTINUOUS
 62
     3
 10
578.927564
 20
563.148001
 11
572.927564
 21
563.148001
  0
LINE
  8
CSLAYER1
  6
CONTINUOUS
 62
     3
 10
575.927564
 20
566.148001
 11
575.927564
 21
560.148001
  0
LINE
  8
CSLAYER1
  6
CONTINUOUS
 62
     5
 10
575.927564
 20
560.148001
 11
575.927564
 21
551.259290
  0
ARC
  8
CSLAYER1
  6
CONTINUOUS
 62
     7
 10
682.927564
 20
563.148001
 40
7.500000
 50
180.000000
 51
360.000000
  0
CIRCLE
  8
CSLAYER1
  6
CONTINUOUS
 62
     7
 10
682.927564
 20
563.148001
 40
6.250000
  0
CIRCLE
  8
CSLAYER1
  6
CONTINUOUS
 62
     7
 10
682.927564
 20
563.148001
 40
5.750000
  0
LINE
  8
CSLAYER1
  6
CONTINUOUS
 62
     7
 10
680.040812
 20
568.148001
 11
685.814315
 21
568.148001
  0
LINE
  8
CSLAYER1
  6
CONTINUOUS
 62
     7
 10
680.040812
 20
558.148001
 11
685.814315
 21
558.148001
  0
LINE
  8
CSLAYER1
  6
CONTINUOUS
 62
     7
 10
688.701066
 20
563.148001
 11
685.814315
 21
568.148001
  0
LINE
  8
CSLAYER1
  6
CONTINUOUS
 62
     7
 10
680.040812
 20
558.148001
 11
677.154061
 21
563.148001
  0
LINE
  8
CSLAYER1
  6
CONTINUOUS
 62
     7
 10
680.040812
 20
568.148001
 11
677.154061
 21
563.148001
  0
LINE
  8
CSLAYER1
  6
CONTINUOUS
 62
     7
 10
688.701066
 20
563.148001
 11
685.814315
 21
558.148001
  0
LINE
  8
CSLAYER1
  6
CONTINUOUS
 62
     5
 10
672.209360
 20
563.148001
 11
679.927564
 21
563.148001
  0
LINE
  8
CSLAYER1
  6
CONTINUOUS
 62
     5
 10
685.927564
 20
563.148001
 11
694.975827
 21
563.148001
  0
LINE
  8
CSLAYER1
  6
CONTINUOUS
 62
     3
 10
679.927564
 20
563.148001
 11
685.927564
 21
563.148001
  0
LINE
  8
CSLAYER1
  6
CONTINUOUS
 62
     3
 10
682.927564
 20
566.148001
 11
682.927564
 21
560.148001
  0
LINE
  8
CSLAYER1
  6
CONTINUOUS
 62
     5
 10
682.927564
 20
560.148001
 11
682.927564
 21
551.259290
  0
LINE
  8
CSLAYER1
  6
CONTINUOUS
 62
     7
 10
675.427564
 20
567.943579
 11
675.427564
 21
563.148001
  0
LINE
  8
CSLAYER1
  6
CONTINUOUS
 62
     5
 10
690.427564
 20
563.446720
 11
690.427564
 21
563.148001
  0
LINE
  8
CSLAYER1
  6
CONTINUOUS
 62
     5
 10
682.927564
 20
576.813488
 11
682.927564
 21
566.148001
  0
LINE
  8
CSLAYER1
  6
CONTINUOUS
 62
     3
 10
759.427564
 20
504.148001
 11
758.607891
 21
479.148001
  0
LINE
  8
CSLAYER1
  6
CONTINUOUS
 62
     3
 10
499.427564
 20
504.148001
 11
500.247236
 21
479.148001
  0
LINE
  8
CSLAYER1
  6
CONTINUOUS
 62
     3
 10
757.673666
 20
559.834265
 11
759.427564
 21
504.148001
  0
LINE
  8
CSLAYER1
  6
CONTINUOUS
 62
     3
 10
692.166229
 20
564.939256
 11
754.780556
 21
562.737971
  0
LINE
  8
CSLAYER1
  6
CONTINUOUS
 62
     3
 10
629.427564
 20
572.148001
 11
683.137350
 21
570.645066
  0
ARC
  8
CSLAYER1
  6
CONTINUOUS
 62
     7
 10
672.427564
 20
567.943579
 40
3.000000
 50
0.000000
 51
88.397139
  0
ARC
  8
CSLAYER1
  6
CONTINUOUS
 62
     7
 10
691.927564
 20
563.446720
 40
1.500000
 50
87.986525
 51
180.000000
  0
ARC
  8
CSLAYER1
  6
CONTINUOUS
 62
     3
 10
682.927564
 20
563.148001
 40
7.500000
 50
27.137895
 51
90.000000
  0
ARC
  8
CSLAYER1
  6
CONTINUOUS
 62
     3
 10
692.271632
 20
567.937404
 40
3.000000
 50
207.137895
 51
267.986525
  0
ARC
  8
CSLAYER1
  6
CONTINUOUS
 62
     3
 10
744.974608
 20
550.074680
 40
13.000000
 50
1.803995
 51
87.986525
  0
ARC
  8
CSLAYER1
  6
CONTINUOUS
 62
     3
 10
754.675152
 20
559.739823
 40
3.000000
 50
1.803995
 51
87.986525
  0
ARC
  8
CSLAYER1
  6
CONTINUOUS
 62
     7
 10
586.427564
 20
567.943579
 40
3.000000
 50
91.602861
 51
180.000000
  0
LINE
  8
CSLAYER1
  6
CONTINUOUS
 62
     3
 10
629.427564
 20
572.148001
 11
575.717777
 21
570.645066
  0
ARC
  8
CSLAYER1
  6
CONTINUOUS
 62
     3
 10
575.927564
 20
563.148001
 40
7.500000
 50
90.000000
 51
152.862105
  0
ARC
  8
CSLAYER1
  6
CONTINUOUS
 62
     3
 10
566.583495
 20
567.937404
 40
3.000000
 50
272.013475
 51
332.862105
  0
LINE
  8
CSLAYER1
  6
CONTINUOUS
 62
     3
 10
566.688898
 20
564.939256
 11
504.074571
 21
562.737971
  0
ARC
  8
CSLAYER1
  6
CONTINUOUS
 62
     7
 10
566.927564
 20
563.446720
 40
1.500000
 50
0.000000
 51
92.013475
  0
LINE
  8
CSLAYER1
  6
CONTINUOUS
 62
     7
 10
583.427564
 20
567.943579
 11
583.427564
 21
563.148001
  0
ARC
  8
CSLAYER1
  6
CONTINUOUS
 62
     3
 10
504.179975
 20
559.739823
 40
3.000000
 50
92.013475
 51
178.196005
  0
ARC
  8
CSLAYER1
  6
CONTINUOUS
 62
     3
 10
513.880520
 20
550.074680
 40
13.000000
 50
92.013475
 51
178.196005
  0
LINE
  8
CSLAYER1
  6
CONTINUOUS
 62
     3
 10
501.181462
 20
559.834265
 11
499.427564
 21
504.148001
  0
LINE
  8
CSLAYER1
  6
CONTINUOUS
 62
     3
 10
498.927564
 20
544.848001
 11
500.927564
 21
544.848001
  0
LINE
  8
CSLAYER1
  6
CONTINUOUS
 62
     3
 10
498.927564
 20
563.448001
 11
500.927564
 21
563.448001
  0
LINE
  8
CSLAYER1
  6
CONTINUOUS
 62
     3
 10
500.927564
 20
563.448001
 11
500.927564
 21
544.848001
  0
LINE
  8
CSLAYER1
  6
CONTINUOUS
 62
     3
 10
498.927564
 20
563.448001
 11
498.927564
 21
544.848001
  0
LINE
  8
CSLAYER1
  6
CONTINUOUS
 62
     3
 10
495.427564
 20
559.748001
 11
495.427564
 21
548.548001
  0
LINE
  8
CSLAYER1
  6
CONTINUOUS
 62
     3
 10
495.427564
 20
548.548001
 11
498.927564
 21
548.548001
  0
LINE
  8
CSLAYER1
  6
CONTINUOUS
 62
     3
 10
495.427564
 20
559.748001
 11
498.927564
 21
559.748001
  0
LINE
  8
CSLAYER1
  6
CONTINUOUS
 62
     3
 10
495.427564
 20
557.148001
 11
498.927564
 21
557.148001
  0
LINE
  8
CSLAYER1
  6
CONTINUOUS
 62
     3
 10
495.427564
 20
551.148001
 11
498.927564
 21
551.148001
  0
LINE
  8
CSLAYER1
  6
CONTINUOUS
 62
     5
 10
491.837608
 20
554.148001
 11
509.559819
 21
554.148001
  0
LINE
  8
CSLAYER1
  6
CONTINUOUS
 62
     3
 10
550.427564
 20
571.148001
 11
528.427564
 21
571.148001
  0
LINE
  8
CSLAYER1
  6
CONTINUOUS
 62
     3
 10
528.427564
 20
571.148001
 11
528.427564
 21
566.148001
  0
LINE
  8
CSLAYER1
  6
CONTINUOUS
 62
     3
 10
550.427564
 20
571.148001
 11
550.427564
 21
566.148001
  0
LINE
  8
CSLAYER1
  6
CONTINUOUS
 62
     3
 10
545.427564
 20
571.148001
 11
545.427564
 21
566.148001
  0
LINE
  8
CSLAYER1
  6
CONTINUOUS
 62
     3
 10
533.427564
 20
571.148001
 11
533.427564
 21
566.148001
  0
LINE
  8
CSLAYER1
  6
CONTINUOUS
 62
     3
 10
523.927564
 20
566.148001
 11
523.927564
 21
563.648001
  0
LINE
  8
CSLAYER1
  6
CONTINUOUS
 62
     3
 10
554.927564
 20
566.148001
 11
554.927564
 21
564.525771
  0
LINE
  8
CSLAYER1
  6
CONTINUOUS
 62
     3
 10
554.927564
 20
566.148001
 11
523.927564
 21
566.148001
  0
LINE
  8
CSLAYER1
  6
CONTINUOUS
 62
     5
 10
539.427564
 20
573.748001
 11
539.427564
 21
544.707503
  0
LINE
  8
CSLAYER1
  6
CONTINUOUS
 62
     3
 10
795.427564
 20
479.148001
 11
795.427564
 21
1240.085867
  0
LINE
  8
CSLAYER1
  6
CONTINUOUS
 62
     3
 10
804.427564
 20
479.148001
 11
804.427564
 21
1240.085867
  0
LINE
  8
CSLAYER1
  6
CONTINUOUS
 62
     3
 10
795.427564
 20
843.647998
 11
804.427564
 21
843.647998
  0
LINE
  8
CSLAYER1
  6
CONTINUOUS
 62
     3
 10
808.427564
 20
1240.085867
 11
808.427564
 21
479.148001
  0
LINE
  8
CSLAYER1
  6
CONTINUOUS
 62
     3
 10
808.427564
 20
875.614142
 11
817.427564
 21
875.614142
  0
LINE
  8
CSLAYER1
  6
CONTINUOUS
 62
     3
 10
817.427564
 20
1240.085867
 11
817.427564
 21
479.148001
  0
LINE
  8
CSLAYER1
  6
CENTER
 62
     5
 10
854.427564
 20
1062.350005
 11
463.427564
 21
1062.350005
  0
LINE
  8
CSLAYER1
  6
CENTER
 62
     5
 10
854.427564
 20
656.881072
 11
404.427564
 21
656.881072
  0
LINE
  8
CSLAYER1
  6
CENTER
 62
     5
 10
854.427564
 20
803.175928
 11
404.427564
 21
803.175928
  0
LINE
  8
CSLAYER1
  6
CENTER
 62
     5
 10
671.927564
 20
734.008646
 11
586.927564
 21
734.008646
  0
LINE
  8
CSLAYER1
  6
CENTER
 62
     5
 10
854.427564
 20
1100.587275
 11
404.427564
 21
1100.587275
  0
LINE
  8
CSLAYER1
  6
CONTINUOUS
 62
     3
 10
463.427564
 20
479.148001
 11
463.427564
 21
1240.085867
  0
LINE
  8
CSLAYER1
  6
CONTINUOUS
 62
     3
 10
454.427564
 20
479.148001
 11
454.427564
 21
1240.085867
  0
LINE
  8
CSLAYER1
  6
CONTINUOUS
 62
     3
 10
463.427564
 20
843.647998
 11
454.427564
 21
843.647998
  0
LINE
  8
CSLAYER1
  6
CONTINUOUS
 62
     3
 10
450.427564
 20
1240.085867
 11
450.427564
 21
479.148001
  0
LINE
  8
CSLAYER1
  6
CONTINUOUS
 62
     3
 10
450.427564
 20
875.614142
 11
441.427564
 21
875.614142
  0
LINE
  8
CSLAYER1
  6
CONTINUOUS
 62
     3
 10
441.427564
 20
1240.085867
 11
441.427564
 21
479.148001
  0
LINE
  8
CSLAYER1
  6
CONTINUOUS
 62
     3
 10
795.427564
 20
1130.837275
 11
463.427564
 21
1130.837275
  0
LINE
  8
CSLAYER1
  6
CONTINUOUS
 62
     3
 10
795.427564
 20
1070.337275
 11
463.427564
 21
1070.337275
  0
LINE
  8
CSLAYER1
  6
CONTINUOUS
 62
     3
 10
795.427564
 20
833.425928
 11
463.427564
 21
833.425928
  0
LINE
  8
CSLAYER1
  6
CONTINUOUS
 62
     3
 10
795.427564
 20
772.925928
 11
661.927564
 21
772.925928
  0
LINE
  8
CSLAYER1
  6
CONTINUOUS
 62
     5
 10
780.427564
 20
661.788549
 11
780.427564
 21
651.973594
  0
LINE
  8
CSLAYER1
  6
CONTINUOUS
 62
     5
 10
826.427564
 20
669.881072
 11
826.427564
 21
643.881072
  0
LINE
  8
CSLAYER1
  6
CONTINUOUS
 62
     5
 10
825.266450
 20
671.892179
 11
817.427564
 21
671.892179
  0
LINE
  8
CSLAYER1
  6
CONTINUOUS
 62
     5
 10
826.427564
 20
664.386625
 11
817.427564
 21
664.386625
  0
LINE
  8
CSLAYER1
  6
CONTINUOUS
 62
     5
 10
826.427564
 20
649.375518
 11
817.427564
 21
649.375518
  0
LINE
  8
CSLAYER1
  6
CONTINUOUS
 62
     5
 10
825.266450
 20
641.869965
 11
817.427564
 21
641.869965
  0
LINE
  8
CSLAYER1
  6
CONTINUOUS
 62
     5
 10
825.266450
 20
641.869965
 11
826.427564
 21
643.881072
  0
LINE
  8
CSLAYER1
  6
CONTINUOUS
 62
     5
 10
825.266450
 20
671.892179
 11
826.427564
 21
669.881072
  0
LINE
  8
CSLAYER1
  6
CONTINUOUS
 62
     5
 10
804.427564
 20
670.881072
 11
808.427564
 21
670.881072
  0
LINE
  8
CSLAYER1
  6
CONTINUOUS
 62
     5
 10
804.427564
 20
642.881072
 11
808.427564
 21
642.881072
  0
LINE
  8
CSLAYER1
  6
CONTINUOUS
 62
     5
 10
793.427564
 20
665.881072
 11
793.427564
 21
647.881072
  0
LINE
  8
CSLAYER1
  6
CONTINUOUS
 62
     5
 10
790.927564
 20
666.696026
 11
790.927564
 21
647.066117
  0
LINE
  8
CSLAYER1
  6
CONTINUOUS
 62
     5
 10
790.927564
 20
665.881072
 11
795.427564
 21
665.881072
  0
LINE
  8
CSLAYER1
  6
CONTINUOUS
 62
     5
 10
790.927564
 20
647.881072
 11
795.427564
 21
647.881072
  0
LINE
  8
CSLAYER1
  6
CONTINUOUS
 62
     5
 10
790.927564
 20
666.696026
 11
783.686753
 21
666.696026
  0
LINE
  8
CSLAYER1
  6
CONTINUOUS
 62
     5
 10
780.427564
 20
661.788549
 11
790.927564
 21
661.788549
  0
LINE
  8
CSLAYER1
  6
CONTINUOUS
 62
     5
 10
780.427564
 20
651.973594
 11
790.927564
 21
651.973594
  0
LINE
  8
CSLAYER1
  6
CONTINUOUS
 62
     5
 10
783.686753
 20
647.066117
 11
790.927564
 21
647.066117
  0
LINE
  8
CSLAYER1
  6
CONTINUOUS
 62
     5
 10
783.686753
 20
647.066117
 11
782.927564
 21
648.381072
  0
LINE
  8
CSLAYER1
  6
CONTINUOUS
 62
     5
 10
783.686753
 20
666.696026
 11
782.927564
 21
665.381072
  0
LINE
  8
CSLAYER1
  6
CONTINUOUS
 62
     5
 10
782.927564
 20
665.381072
 11
782.927564
 21
648.381072
  0
LINE
  8
CSLAYER1
  6
CONTINUOUS
 62
     5
 10
478.427564
 20
661.788549
 11
478.427564
 21
651.973594
  0
LINE
  8
CSLAYER1
  6
CONTINUOUS
 62
     5
 10
432.427564
 20
669.881072
 11
432.427564
 21
643.881072
  0
LINE
  8
CSLAYER1
  6
CONTINUOUS
 62
     5
 10
433.588677
 20
671.892179
 11
441.427564
 21
671.892179
  0
LINE
  8
CSLAYER1
  6
CONTINUOUS
 62
     5
 10
432.427564
 20
664.386625
 11
441.427564
 21
664.386625
  0
LINE
  8
CSLAYER1
  6
CONTINUOUS
 62
     5
 10
432.427564
 20
649.375518
 11
441.427564
 21
649.375518
  0
LINE
  8
CSLAYER1
  6
CONTINUOUS
 62
     5
 10
433.588677
 20
641.869965
 11
441.427564
 21
641.869965
  0
LINE
  8
CSLAYER1
  6
CONTINUOUS
 62
     5
 10
433.588677
 20
641.869965
 11
432.427564
 21
643.881072
  0
LINE
  8
CSLAYER1
  6
CONTINUOUS
 62
     5
 10
433.588677
 20
671.892179
 11
432.427564
 21
669.881072
  0
LINE
  8
CSLAYER1
  6
CONTINUOUS
 62
     5
 10
454.427564
 20
670.881072
 11
450.427564
 21
670.881072
  0
LINE
  8
CSLAYER1
  6
CONTINUOUS
 62
     5
 10
454.427564
 20
642.881072
 11
450.427564
 21
642.881072
  0
LINE
  8
CSLAYER1
  6
CONTINUOUS
 62
     5
 10
465.427564
 20
665.881072
 11
465.427564
 21
647.881072
  0
LINE
  8
CSLAYER1
  6
CONTINUOUS
 62
     5
 10
467.927564
 20
666.696026
 11
467.927564
 21
647.066117
  0
LINE
  8
CSLAYER1
  6
CONTINUOUS
 62
     5
 10
467.927564
 20
665.881072
 11
463.427564
 21
665.881072
  0
LINE
  8
CSLAYER1
  6
CONTINUOUS
 62
     5
 10
467.927564
 20
647.881072
 11
463.427564
 21
647.881072
  0
LINE
  8
CSLAYER1
  6
CONTINUOUS
 62
     5
 10
467.927564
 20
666.696026
 11
475.168374
 21
666.696026
  0
LINE
  8
CSLAYER1
  6
CONTINUOUS
 62
     5
 10
478.427564
 20
661.788549
 11
467.927564
 21
661.788549
  0
LINE
  8
CSLAYER1
  6
CONTINUOUS
 62
     5
 10
478.427564
 20
651.973594
 11
467.927564
 21
651.973594
  0
LINE
  8
CSLAYER1
  6
CONTINUOUS
 62
     5
 10
475.168374
 20
647.066117
 11
467.927564
 21
647.066117
  0
LINE
  8
CSLAYER1
  6
CONTINUOUS
 62
     5
 10
475.168374
 20
647.066117
 11
475.927564
 21
648.381072
  0
LINE
  8
CSLAYER1
  6
CONTINUOUS
 62
     5
 10
475.168374
 20
666.696026
 11
475.927564
 21
665.381072
  0
LINE
  8
CSLAYER1
  6
CONTINUOUS
 62
     5
 10
475.927564
 20
665.381072
 11
475.927564
 21
648.381072
  0
LINE
  8
CSLAYER1
  6
CONTINUOUS
 62
     5
 10
780.427564
 20
1067.257482
 11
780.427564
 21
1057.442527
  0
LINE
  8
CSLAYER1
  6
CONTINUOUS
 62
     5
 10
826.427564
 20
1075.350005
 11
826.427564
 21
1049.350005
  0
LINE
  8
CSLAYER1
  6
CONTINUOUS
 62
     5
 10
825.266450
 20
1077.361112
 11
817.427564
 21
1077.361112
  0
LINE
  8
CSLAYER1
  6
CONTINUOUS
 62
     5
 10
826.427564
 20
1069.855558
 11
817.427564
 21
1069.855558
  0
LINE
  8
CSLAYER1
  6
CONTINUOUS
 62
     5
 10
826.427564
 20
1054.844451
 11
817.427564
 21
1054.844451
  0
LINE
  8
CSLAYER1
  6
CONTINUOUS
 62
     5
 10
825.266450
 20
1047.338898
 11
817.427564
 21
1047.338898
  0
LINE
  8
CSLAYER1
  6
CONTINUOUS
 62
     5
 10
825.266450
 20
1047.338898
 11
826.427564
 21
1049.350005
  0
LINE
  8
CSLAYER1
  6
CONTINUOUS
 62
     5
 10
825.266450
 20
1077.361112
 11
826.427564
 21
1075.350005
  0
LINE
  8
CSLAYER1
  6
CONTINUOUS
 62
     5
 10
804.427564
 20
1076.350005
 11
808.427564
 21
1076.350005
  0
LINE
  8
CSLAYER1
  6
CONTINUOUS
 62
     5
 10
804.427564
 20
1048.350005
 11
808.427564
 21
1048.350005
  0
LINE
  8
CSLAYER1
  6
CONTINUOUS
 62
     5
 10
793.427564
 20
1071.350005
 11
793.427564
 21
1053.350005
  0
LINE
  8
CSLAYER1
  6
CONTINUOUS
 62
     5
 10
790.927564
 20
1072.164959
 11
790.927564
 21
1052.535050
  0
LINE
  8
CSLAYER1
  6
CONTINUOUS
 62
     5
 10
790.927564
 20
1071.350005
 11
795.427564
 21
1071.350005
  0
LINE
  8
CSLAYER1
  6
CONTINUOUS
 62
     5
 10
790.927564
 20
1053.350005
 11
795.427564
 21
1053.350005
  0
LINE
  8
CSLAYER1
  6
CONTINUOUS
 62
     5
 10
790.927564
 20
1072.164959
 11
783.686753
 21
1072.164959
  0
LINE
  8
CSLAYER1
  6
CONTINUOUS
 62
     5
 10
780.427564
 20
1067.257482
 11
790.927564
 21
1067.257482
  0
LINE
  8
CSLAYER1
  6
CONTINUOUS
 62
     5
 10
780.427564
 20
1057.442527
 11
790.927564
 21
1057.442527
  0
LINE
  8
CSLAYER1
  6
CONTINUOUS
 62
     5
 10
783.686753
 20
1052.535050
 11
790.927564
 21
1052.535050
  0
LINE
  8
CSLAYER1
  6
CONTINUOUS
 62
     5
 10
783.686753
 20
1052.535050
 11
782.927564
 21
1053.850005
  0
LINE
  8
CSLAYER1
  6
CONTINUOUS
 62
     5
 10
783.686753
 20
1072.164959
 11
782.927564
 21
1070.850005
  0
LINE
  8
CSLAYER1
  6
CONTINUOUS
 62
     5
 10
782.927564
 20
1070.850005
 11
782.927564
 21
1053.850005
  0
LINE
  8
CSLAYER1
  6
CONTINUOUS
 62
     5
 10
478.427564
 20
1067.257482
 11
478.427564
 21
1057.442527
  0
LINE
  8
CSLAYER1
  6
CONTINUOUS
 62
     5
 10
432.427564
 20
1075.350005
 11
432.427564
 21
1049.350005
  0
LINE
  8
CSLAYER1
  6
CONTINUOUS
 62
     5
 10
433.588677
 20
1077.361112
 11
441.427564
 21
1077.361112
  0
LINE
  8
CSLAYER1
  6
CONTINUOUS
 62
     5
 10
432.427564
 20
1069.855558
 11
441.427564
 21
1069.855558
  0
LINE
  8
CSLAYER1
  6
CONTINUOUS
 62
     5
 10
432.427564
 20
1054.844451
 11
441.427564
 21
1054.844451
  0
LINE
  8
CSLAYER1
  6
CONTINUOUS
 62
     5
 10
433.588677
 20
1047.338898
 11
441.427564
 21
1047.338898
  0
LINE
  8
CSLAYER1
  6
CONTINUOUS
 62
     5
 10
433.588677
 20
1047.338898
 11
432.427564
 21
1049.350005
  0
LINE
  8
CSLAYER1
  6
CONTINUOUS
 62
     5
 10
433.588677
 20
1077.361112
 11
432.427564
 21
1075.350005
  0
LINE
  8
CSLAYER1
  6
CONTINUOUS
 62
     5
 10
454.427564
 20
1076.350005
 11
450.427564
 21
1076.350005
  0
LINE
  8
CSLAYER1
  6
CONTINUOUS
 62
     5
 10
454.427564
 20
1048.350005
 11
450.427564
 21
1048.350005
  0
LINE
  8
CSLAYER1
  6
CONTINUOUS
 62
     5
 10
465.427564
 20
1071.350005
 11
465.427564
 21
1053.350005
  0
LINE
  8
CSLAYER1
  6
CONTINUOUS
 62
     5
 10
467.927564
 20
1072.164959
 11
467.927564
 21
1052.535050
  0
LINE
  8
CSLAYER1
  6
CONTINUOUS
 62
     5
 10
467.927564
 20
1071.350005
 11
463.427564
 21
1071.350005
  0
LINE
  8
CSLAYER1
  6
CONTINUOUS
 62
     5
 10
467.927564
 20
1053.350005
 11
463.427564
 21
1053.350005
  0
LINE
  8
CSLAYER1
  6
CONTINUOUS
 62
     5
 10
467.927564
 20
1072.164959
 11
475.168374
 21
1072.164959
  0
LINE
  8
CSLAYER1
  6
CONTINUOUS
 62
     5
 10
478.427564
 20
1067.257482
 11
467.927564
 21
1067.257482
  0
LINE
  8
CSLAYER1
  6
CONTINUOUS
 62
     5
 10
478.427564
 20
1057.442527
 11
467.927564
 21
1057.442527
  0
LINE
  8
CSLAYER1
  6
CONTINUOUS
 62
     5
 10
475.168374
 20
1052.535050
 11
467.927564
 21
1052.535050
  0
LINE
  8
CSLAYER1
  6
CONTINUOUS
 62
     5
 10
475.168374
 20
1052.535050
 11
475.927564
 21
1053.850005
  0
LINE
  8
CSLAYER1
  6
CONTINUOUS
 62
     5
 10
475.168374
 20
1072.164959
 11
475.927564
 21
1070.850005
  0
LINE
  8
CSLAYER1
  6
CONTINUOUS
 62
     5
 10
475.927564
 20
1070.850005
 11
475.927564
 21
1053.850005
  0
LINE
  8
CSLAYER1
  6
CENTER
 62
     5
 10
854.427564
 20
859.700260
 11
404.427564
 21
859.700260
  0
LINE
  8
CSLAYER1
  6
CONTINUOUS
 62
     3
 10
2053.233656
 20
1515.085867
 11
1453.233656
 21
1515.085867
  0
LINE
  8
CSLAYER1
  6
CONTINUOUS
 62
     3
 10
1453.233656
 20
1515.085867
 11
1453.233656
 21
2115.085867
  0
LINE
  8
CSLAYER1
  6
CONTINUOUS
 62
     3
 10
2053.233656
 20
1515.085867
 11
2053.233656
 21
2115.085867
  0
LINE
  8
CSLAYER1
  6
CONTINUOUS
 62
     3
 10
2053.233656
 20
2115.085867
 11
1453.233656
 21
2115.085867
  0
LINE
  8
CSLAYER1
  6
CONTINUOUS
 62
     3
 10
795.427564
 20
522.393178
 11
758.852912
 21
522.393178
  0
LINE
  8
CSLAYER1
  6
CENTER
 62
     5
 10
854.427564
 20
492.143178
 11
404.427564
 21
492.143178
  0
LINE
  8
CSLAYER1
  6
CONTINUOUS
 62
     3
 10
500.002215
 20
522.393178
 11
463.427564
 21
522.393178
  0
LINE
  8
CSLAYER1
  6
CONTINUOUS
 62
     3
 10
605.927564
 20
827.192688
 11
605.927564
 21
717.008646
  0
LINE
  8
CSLAYER1
  6
CONTINUOUS
 62
     3
 10
605.927564
 20
717.008646
 11
596.927564
 21
717.008646
  0
LINE
  8
CSLAYER1
  6
CONTINUOUS
 62
     3
 10
596.927564
 20
717.008646
 11
596.927564
 21
827.192688
  0
LINE
  8
CSLAYER1
  6
CONTINUOUS
 62
     3
 10
596.927564
 20
827.192688
 11
605.927564
 21
827.192688
  0
LINE
  8
CSLAYER1
  6
CONTINUOUS
 62
     3
 10
596.927564
 20
772.925928
 11
463.427564
 21
772.925928
  0
LINE
  8
CSLAYER1
  6
CONTINUOUS
 62
     3
 10
652.927564
 20
827.192688
 11
652.927564
 21
717.008646
  0
LINE
  8
CSLAYER1
  6
CONTINUOUS
 62
     3
 10
652.927564
 20
717.008646
 11
661.927564
 21
717.008646
  0
LINE
  8
CSLAYER1
  6
CONTINUOUS
 62
     3
 10
661.927564
 20
717.008646
 11
661.927564
 21
827.192688
  0
LINE
  8
CSLAYER1
  6
CONTINUOUS
 62
     3
 10
661.927564
 20
827.192688
 11
652.927564
 21
827.192688
  0
LINE
  8
CSLAYER1
  6
CONTINUOUS
 62
     3
 10
652.927564
 20
772.925928
 11
605.927564
 21
772.925928
  0
LINE
  8
CSLAYER1
  6
CONTINUOUS
 62
     3
 10
606.927564
 20
747.608646
 11
606.927564
 21
720.408646
  0
LINE
  8
CSLAYER1
  6
CONTINUOUS
 62
     3
 10
606.927564
 20
720.408646
 11
651.927564
 21
720.408646
  0
LINE
  8
CSLAYER1
  6
CONTINUOUS
 62
     3
 10
651.927564
 20
720.408646
 11
651.927564
 21
747.608646
  0
LINE
  8
CSLAYER1
  6
CONTINUOUS
 62
     3
 10
651.927564
 20
747.608646
 11
606.927564
 21
747.608646
  0
LINE
  8
CSLAYER1
  6
CONTINUOUS
 62
     3
 10
610.427564
 20
720.408646
 11
610.427564
 21
716.683696
  0
LINE
  8
CSLAYER1
  6
CONTINUOUS
 62
     3
 10
648.427564
 20
720.408646
 11
648.427564
 21
716.683696
  0
ARC
  8
CSLAYER1
  6
CONTINUOUS
 62
     3
 10
629.427564
 20
737.860147
 40
24.757802
 50
224.820570
 51
315.179430
  0
ARC
  8
CSLAYER1
  6
CONTINUOUS
 62
     3
 10
629.427564
 20
732.556590
 40
24.757802
 50
219.875905
 51
320.124095
  0
LINE
  8
CSLAYER1
  6
CONTINUOUS
 62
     3
 10
608.077564
 20
716.683696
 11
608.077564
 21
642.433909
  0
LINE
  8
CSLAYER1
  6
CONTINUOUS
 62
     3
 10
650.777564
 20
716.683696
 11
650.777564
 21
642.433909
  0
ARC
  8
CSLAYER1
  6
CONTINUOUS
 62
     3
 10
629.427564
 20
698.847575
 40
27.819952
 50
39.875905
 51
46.924375
  0
ARC
  8
CSLAYER1
  6
CONTINUOUS
 62
     3
 10
629.427564
 20
734.519817
 40
27.819952
 50
219.875905
 51
320.124095
  0
ARC
  8
CSLAYER1
  6
CONTINUOUS
 62
     3
 10
629.427564
 20
660.270030
 40
27.819952
 50
219.875905
 51
320.124095
  0
ARC
  8
CSLAYER1
  6
CONTINUOUS
 62
     3
 10
629.427564
 20
698.847575
 40
27.819952
 50
133.075625
 51
140.124095
  0
ARC
  8
CSLAYER1
  6
CONTINUOUS
 62
     3
 10
629.427564
 20
621.548521
 40
32.576056
 50
39.875905
 51
49.050821
  0
ARC
  8
CSLAYER1
  6
CONTINUOUS
 62
     3
 10
629.427564
 20
663.319296
 40
32.576056
 50
219.875905
 51
320.124095
  0
ARC
  8
CSLAYER1
  6
CONTINUOUS
 62
     3
 10
629.427564
 20
623.132221
 40
32.314470
 50
219.317454
 51
320.682546
  0
ARC
  8
CSLAYER1
  6
CONTINUOUS
 62
     3
 10
629.427564
 20
621.548521
 40
32.576056
 50
130.949179
 51
140.124095
  0
LINE
  8
CSLAYER1
  6
CONTINUOUS
 62
     3
 10
654.427564
 20
642.433909
 11
654.427564
 21
602.657237
  0
LINE
  8
CSLAYER1
  6
CONTINUOUS
 62
     3
 10
604.427564
 20
642.433909
 11
604.427564
 21
602.657237
  0
ARC
  8
CSLAYER1
  6
CONTINUOUS
 62
     3
 10
629.427564
 20
614.945917
 40
26.060845
 50
224.307345
 51
315.692655
  0
LINE
  8
CSLAYER1
  6
CONTINUOUS
 62
     3
 10
614.427564
 20
593.634708
 11
614.427564
 21
572.148001
  0
LINE
  8
CSLAYER1
  6
CONTINUOUS
 62
     3
 10
644.427564
 20
593.634708
 11
644.427564
 21
572.148001
  0
LINE
  8
CSLAYER1
  6
CONTINUOUS
 62
     5
 10
832.427564
 20
864.607737
 11
832.427564
 21
854.792783
  0
LINE
  8
CSLAYER1
  6
CONTINUOUS
 62
     5
 10
808.427564
 20
873.700260
 11
804.427564
 21
873.700260
  0
LINE
  8
CSLAYER1
  6
CONTINUOUS
 62
     5
 10
808.427564
 20
845.700260
 11
804.427564
 21
845.700260
  0
LINE
  8
CSLAYER1
  6
CONTINUOUS
 62
     5
 10
819.427564
 20
868.700260
 11
819.427564
 21
850.700260
  0
LINE
  8
CSLAYER1
  6
CONTINUOUS
 62
     5
 10
821.927564
 20
869.515215
 11
821.927564
 21
849.885306
  0
LINE
  8
CSLAYER1
  6
CONTINUOUS
 62
     5
 10
821.927564
 20
868.700260
 11
817.427564
 21
868.700260
  0
LINE
  8
CSLAYER1
  6
CONTINUOUS
 62
     5
 10
821.927564
 20
850.700260
 11
817.427564
 21
850.700260
  0
LINE
  8
CSLAYER1
  6
CONTINUOUS
 62
     5
 10
821.927564
 20
869.515215
 11
829.168374
 21
869.515215
  0
LINE
  8
CSLAYER1
  6
CONTINUOUS
 62
     5
 10
832.427564
 20
864.607737
 11
821.927564
 21
864.607737
  0
LINE
  8
CSLAYER1
  6
CONTINUOUS
 62
     5
 10
832.427564
 20
854.792783
 11
821.927564
 21
854.792783
  0
LINE
  8
CSLAYER1
  6
CONTINUOUS
 62
     5
 10
829.168374
 20
849.885306
 11
821.927564
 21
849.885306
  0
LINE
  8
CSLAYER1
  6
CONTINUOUS
 62
     5
 10
829.168374
 20
849.885306
 11
829.927564
 21
851.200260
  0
LINE
  8
CSLAYER1
  6
CONTINUOUS
 62
     5
 10
829.168374
 20
869.515215
 11
829.927564
 21
868.200260
  0
LINE
  8
CSLAYER1
  6
CONTINUOUS
 62
     5
 10
829.927564
 20
868.200260
 11
829.927564
 21
851.200260
  0
LINE
  8
CSLAYER1
  6
CONTINUOUS
 62
     5
 10
426.427564
 20
864.607737
 11
426.427564
 21
854.792783
  0
LINE
  8
CSLAYER1
  6
CONTINUOUS
 62
     5
 10
450.427564
 20
873.700260
 11
454.427564
 21
873.700260
  0
LINE
  8
CSLAYER1
  6
CONTINUOUS
 62
     5
 10
450.427564
 20
845.700260
 11
454.427564
 21
845.700260
  0
LINE
  8
CSLAYER1
  6
CONTINUOUS
 62
     5
 10
439.427564
 20
868.700260
 11
439.427564
 21
850.700260
  0
LINE
  8
CSLAYER1
  6
CONTINUOUS
 62
     5
 10
436.927564
 20
869.515215
 11
436.927564
 21
849.885306
  0
LINE
  8
CSLAYER1
  6
CONTINUOUS
 62
     5
 10
436.927564
 20
868.700260
 11
441.427564
 21
868.700260
  0
LINE
  8
CSLAYER1
  6
CONTINUOUS
 62
     5
 10
436.927564
 20
850.700260
 11
441.427564
 21
850.700260
  0
LINE
  8
CSLAYER1
  6
CONTINUOUS
 62
     5
 10
436.927564
 20
869.515215
 11
429.686753
 21
869.515215
  0
LINE
  8
CSLAYER1
  6
CONTINUOUS
 62
     5
 10
426.427564
 20
864.607737
 11
436.927564
 21
864.607737
  0
LINE
  8
CSLAYER1
  6
CONTINUOUS
 62
     5
 10
426.427564
 20
854.792783
 11
436.927564
 21
854.792783
  0
LINE
  8
CSLAYER1
  6
CONTINUOUS
 62
     5
 10
429.686753
 20
849.885306
 11
436.927564
 21
849.885306
  0
LINE
  8
CSLAYER1
  6
CONTINUOUS
 62
     5
 10
429.686753
 20
849.885306
 11
428.927564
 21
851.200260
  0
LINE
  8
CSLAYER1
  6
CONTINUOUS
 62
     5
 10
429.686753
 20
869.515215
 11
428.927564
 21
868.200260
  0
LINE
  8
CSLAYER1
  6
CONTINUOUS
 62
     5
 10
428.927564
 20
868.200260
 11
428.927564
 21
851.200260
  0
LINE
  8
CSLAYER1
  6
CONTINUOUS
 62
     3
 10
795.427564
 20
868.700260
 11
790.427564
 21
868.700260
  0
LINE
  8
CSLAYER1
  6
CONTINUOUS
 62
     3
 10
790.427564
 20
868.700260
 11
790.427564
 21
850.700260
  0
LINE
  8
CSLAYER1
  6
CONTINUOUS
 62
     3
 10
790.427564
 20
850.700260
 11
795.427564
 21
850.700260
  0
LINE
  8
CSLAYER1
  6
CONTINUOUS
 62
     3
 10
463.427564
 20
868.700260
 11
468.427564
 21
868.700260
  0
LINE
  8
CSLAYER1
  6
CONTINUOUS
 62
     3
 10
468.427564
 20
868.700260
 11
468.427564
 21
850.700260
  0
LINE
  8
CSLAYER1
  6
CONTINUOUS
 62
     3
 10
468.427564
 20
850.700260
 11
463.427564
 21
850.700260
  0
LINE
  8
CSLAYER1
  6
CENTER
 62
     5
 10
795.427564
 20
926.934625
 11
463.427564
 21
926.934625
  0
LINE
  8
CSLAYER1
  6
CONTINUOUS
 62
     3
 10
795.427564
 20
918.284625
 11
463.427564
 21
918.284625
  0
LINE
  8
CSLAYER1
  6
CONTINUOUS
 62
     3
 10
795.427564
 20
935.584625
 11
463.427564
 21
935.584625
  0
LINE
  8
CSLAYER1
  6
CONTINUOUS
 62
     7
 10
1527.114062
 20
1245.085867
 11
1851.117945
 21
931.592551
  0
LINE
  8
CSLAYER1
  6
CONTINUOUS
 62
     7
 10
1487.357602
 20
1193.107458
 11
1843.916226
 21
848.115465
  0
LINE
  8
CSLAYER1
  6
CONTINUOUS
 62
     7
 10
1472.507445
 20
1245.085867
 11
1487.452131
 21
1192.776591
  0
ARC
  8
CSLAYER1
  6
CONTINUOUS
 62
     7
 10
1855.041891
 20
859.614142
 40
16.000000
 50
-134.055437
 51
15.944563
  0
LINE
  8
CSLAYER1
  6
CONTINUOUS
 62
     7
 10
1851.117945
 20
931.592551
 11
1870.426338
 21
864.009457
  0
CIRCLE
  8
CSLAYER1
  6
CONTINUOUS
 62
     5
 10
1855.041891
 20
859.614142
 40
9.000000
  0
CIRCLE
  8
CSLAYER1
  6
CONTINUOUS
 62
     1
 10
1669.237774
 20
1062.350005
 40
7.500000
  0
LINE
  8
CSLAYER1
  6
CONTINUOUS
 62
     4
 10
1468.013075
 20
864.046116
 11
1487.428370
 21
931.956541
  0
CIRCLE
  8
CSLAYER1
  6
CONTINUOUS
 62
     1
 10
1483.396721
 20
859.647998
 40
9.000000
  0
LINE
  8
CSLAYER1
  6
CONTINUOUS
 62
     4
 10
1487.333782
 20
931.625691
 11
1622.494592
 21
1062.354263
  0
LINE
  8
CSLAYER1
  6
CONTINUOUS
 62
     4
 10
1506.406852
 20
859.644068
 11
1669.233654
 21
1017.131399
  0
LINE
  8
CSLAYER1
  6
CONTINUOUS
 62
     4
 10
1851.141765
 20
1193.074318
 11
1866.011641
 21
1245.085867
  0
LINE
  8
CSLAYER1
  6
CONTINUOUS
 62
     4
 10
1532.276740
 20
479.148001
 11
1669.234727
 21
611.659137
  0
LINE
  8
CSLAYER1
  6
CONTINUOUS
 62
     4
 10
1473.930181
 20
479.148001
 11
1487.447125
 21
526.457217
  0
LINE
  8
CSLAYER1
  6
CONTINUOUS
 62
     4
 10
1487.352591
 20
526.126351
 11
1622.495221
 21
656.881072
  0
LINE
  8
CSLAYER1
  6
CONTINUOUS
 62
     4
 10
1851.116863
 20
787.635792
 11
1870.426272
 21
855.218596
  0
ARC
  8
CSLAYER1
  6
CONTINUOUS
 62
     1
 10
1855.041891
 20
859.614142
 40
16.000000
 50
-15.945424
 51
15.944563
  0
CIRCLE
  8
CSLAYER1
  6
CONTINUOUS
 62
     1
 10
1855.041891
 20
859.614142
 40
9.000000
  0
POINT
  8
CSLAYER1
 62
     4
 10
1687.020952
 20
734.008646
  0
ARC
  8
CSLAYER1
  6
CONTINUOUS
 62
     6
 10
1687.020952
 20
734.008646
 40
17.000000
 50
127.421481
 51
261.010455
  0
LINE
  8
CSLAYER1
  6
CONTINUOUS
 62
     6
 10
1780.023472
 20
826.575249
 11
1676.690500
 21
747.509823
  0
ARC
  8
CSLAYER1
  6
CONTINUOUS
 62
     6
 10
1808.741480
 20
803.175928
 40
30.250000
 50
97.712629
 51
170.396522
  0
ARC
  8
CSLAYER1
  6
CONTINUOUS
 62
     4
 10
1808.741480
 20
803.175928
 40
31.000000
 50
138.426322
 51
172.240677
  0
ARC
  8
CSLAYER1
  6
CONTINUOUS
 62
     6
 10
1781.846492
 20
824.192688
 40
3.000000
 50
29.607259
 51
127.421481
  0
LINE
  8
CSLAYER1
  6
CONTINUOUS
 62
     6
 10
1784.454790
 20
825.674844
 11
1785.550287
 21
823.746989
  0
POINT
  8
CSLAYER1
 62
     4
 10
1808.741480
 20
803.175928
  0
CIRCLE
  8
CSLAYER1
  6
CONTINUOUS
 62
     1
 10
1669.234727
 20
656.881072
 40
7.500000
  0
LINE
  8
CSLAYER1
  6
CONTINUOUS
 62
     7
 10
1851.116863
 20
526.126351
 11
1864.539274
 21
479.148001
  0
ARC
  8
CSLAYER1
  6
CONTINUOUS
 62
     6
 10
1813.373694
 20
495.171831
 40
17.000000
 50
212.144487
 51
239.746361
  0
POINT
  8
CSLAYER1
 62
     4
 10
1813.373694
 20
495.171831
  0
POINT
  8
CSLAYER1
 62
     4
 10
1873.297206
 20
492.143178
  0
LINE
  8
CSLAYER1
  6
CONTINUOUS
 62
     7
 10
1487.352591
 20
787.635792
 11
1806.192715
 21
479.148001
  0
LINE
  8
CSLAYER1
  6
CONTINUOUS
 62
     7
 10
1494.553055
 20
871.112987
 11
1851.116863
 21
526.126351
  0
LINE
  8
CSLAYER1
  6
CONTINUOUS
 62
     7
 10
1468.043183
 20
855.218596
 11
1487.447125
 21
787.304926
  0
CIRCLE
  8
CSLAYER1
  6
CONTINUOUS
 62
     5
 10
1483.427564
 20
859.614142
 40
9.000000
  0
ARC
  8
CSLAYER1
  6
CONTINUOUS
 62
     7
 10
1483.427564
 20
859.614142
 40
16.000000
 50
45.945424
 51
195.945424
  0
CIRCLE
  8
CSLAYER1
  6
CONTINUOUS
 62
     5
 10
1669.234727
 20
656.881072
 40
10.000000
  0
ARC
  8
CSLAYER1
  6
CONTINUOUS
 62
     7
 10
1873.297206
 20
492.143178
 40
30.250000
 50
65.247758
 51
104.057973
  0
LINE
  8
CSLAYER2
  6
CONTINUOUS
 62
     3
 10
1754.338902
 20
652.417739
 11
1739.788273
 21
679.921899
  0
LINE
  8
CSLAYER2
  6
CONTINUOUS
 62
     3
 10
1778.687165
 20
614.199088
 11
1757.565232
 21
654.124577
  0
LINE
  8
CSLAYER2
  6
CONTINUOUS
 62
     3
 10
1778.608435
 20
614.347905
 11
1766.535868
 21
607.961109
  0
LINE
  8
CSLAYER2
  6
CONTINUOUS
 62
     3
 10
1776.526938
 20
607.590141
 11
1770.315578
 21
604.304122
  0
LINE
  8
CSLAYER2
  6
CONTINUOUS
 62
     3
 10
1775.013367
 20
599.758864
 11
1772.107308
 21
605.252008
  0
LINE
  8
CSLAYER1
  6
CONTINUOUS
 62
     3
 10
1778.608435
 20
614.347905
 11
1776.526938
 21
607.590141
  0
LINE
  8
CSLAYER1
  6
CONTINUOUS
 62
     3
 10
1677.946118
 20
710.531549
 11
1676.586081
 21
713.102344
  0
LINE
  8
CSLAYER1
  6
CONTINUOUS
 62
     3
 10
1685.449698
 20
717.791497
 11
1676.586081
 21
713.102344
  0
LINE
  8
CSLAYER2
  6
CONTINUOUS
 62
     3
 10
1757.565232
 20
654.124577
 11
1732.518478
 21
640.873998
  0
LINE
  8
CSLAYER1
  6
CONTINUOUS
 62
     3
 10
2053.427564
 20
429.148001
 11
2053.427564
 21
479.148001
  0
LINE
  8
CSLAYER1
  6
CONTINUOUS
 62
     3
 10
2053.427564
 20
479.148001
 11
1454.427564
 21
479.148001
  0
LINE
  8
CSLAYER1
  6
CONTINUOUS
 62
     3
 10
1454.427564
 20
479.148001
 11
1454.427564
 21
429.148001
  0
POINT
  8
CSLAYER1
 62
     5
 10
1483.427564
 20
454.148001
  0
POINT
  8
CSLAYER1
 62
     5
 10
1855.041891
 20
454.148001
  0
LINE
  8
CSLAYER1
  6
CONTINUOUS
 62
     4
 10
1715.974234
 20
656.881072
 11
1851.116863
 21
787.635792
  0
LINE
  8
CSLAYER1
  6
CONTINUOUS
 62
     4
 10
1669.234727
 20
702.103006
 11
1832.031851
 21
859.614315
  0
LINE
  8
CSLAYER1
  6
CONTINUOUS
 62
     4
 10
1715.980955
 20
1062.345746
 11
1851.141765
 21
1193.074318
  0
LINE
  8
CSLAYER1
  6
CONTINUOUS
 62
     4
 10
1669.241893
 20
1107.568611
 11
1811.421552
 21
1245.085867
  0
CIRCLE
  8
CSLAYER1
  6
CONTINUOUS
 62
     5
 10
1669.237774
 20
1062.350005
 40
10.000000
  0
CIRCLE
  8
CSLAYER1
  6
CONTINUOUS
 62
     6
 10
1687.020952
 20
734.008646
 40
8.100000
  0
TEXT
  8
CSLAYER1
 62
     3
 10
636.004272
 20
1907.341187
 40
50.000000
 41
1.020000
  1
ＵＰ・ＤＯＷＮ
 50
0.000000
 51
0.000000
  7
EASYDRAW_FONT
 72
     5
 11
976.004272
 21
1907.341187
  0
TEXT
  8
CSLAYER1
 62
     3
 10
636.749084
 20
1978.842651
 40
50.000000
 41
1.020000
  1
フットスイッチ
 50
0.000000
 51
0.000000
  7
EASYDRAW_FONT
 72
     5
 11
976.749084
 21
1978.842651
  0
LINE
  8
CSLAYER1
  6
CONTINUOUS
 62
     3
 10
1306.234139
 20
1695.085867
 11
1033.233656
 21
1695.085867
  0
LINE
  8
CSLAYER1
  6
CONTINUOUS
 62
     3
 10
1306.766776
 20
1688.085867
 11
1033.233656
 21
1688.085867
  0
ARC
  8
CSLAYER1
  6
CONTINUOUS
 62
     3
 10
1299.929379
 20
1734.585867
 40
40.000000
 50
-80.931278
 51
243.817766
  0
ARC
  8
CSLAYER1
  6
CONTINUOUS
 62
     3
 10
1299.929379
 20
1734.585867
 40
47.000000
 50
-81.635125
 51
229.860785
  0
LINE
  8
CSLAYER1
  6
CONTINUOUS
 62
     3
 10
1453.233656
 20
1695.085867
 11
1329.920996
 21
1695.085867
  0
LINE
  8
CSLAYER1
  6
CONTINUOUS
 62
     3
 10
1453.233656
 20
1688.085867
 11
1319.214104
 21
1688.085867
  0
LINE
  8
CSLAYER1
  6
CONTINUOUS
 62
     3
 10
1453.233656
 20
1666.085867
 11
1274.336468
 21
1666.085867
  0
LINE
  8
CSLAYER1
  6
CONTINUOUS
 62
     3
 10
1453.233656
 20
1673.085867
 11
1264.454678
 21
1673.085867
  0
TEXT
  8
CSLAYER1
 62
     3
 10
557.787537
 20
1581.844971
 40
50.000000
 41
1.028571
  1
電源コード
 50
0.000000
 51
0.000000
  7
EASYDRAW_FONT
 72
     5
 11
797.787537
 21
1581.844971
  0
TEXT
  8
CSLAYER1
 62
     3
 10
574.848083
 20
1511.713135
 40
50.000000
 41
1.036364
  1
長サ４ｍ
 50
0.000000
 51
0.000000
  7
EASYDRAW_FONT
 72
     5
 11
764.848083
 21
1511.713135
  0
LINE
  8
CSLAYER1
  6
CONTINUOUS
 62
     5
 10
816.849176
 20
1570.514357
 11
1012.174865
 21
1518.176997
  0
LINE
  8
CSLAYER1
  6
CONTINUOUS
 62
     5
 10
1012.174865
 20
1518.176997
 11
982.174865
 21
1518.176997
  0
LINE
  8
CSLAYER1
  6
CONTINUOUS
 62
     5
 10
1012.174865
 20
1518.176997
 11
986.194103
 21
1533.176997
  0
LINE
  8
CSLAYER1
  6
CONTINUOUS
 62
     5
 10
619.802410
 20
1968.204818
 11
1023.377639
 21
1968.204818
  0
LINE
  8
CSLAYER1
  6
CONTINUOUS
 62
     5
 10
540.171023
 20
1570.514357
 11
816.849176
 21
1570.514357
  0
LINE
  8
CSLAYER1
  6
CONTINUOUS
 62
     3
 10
1027.836151
 20
1519.473628
 11
1022.765523
 21
1517.563911
  0
LINE
  8
CSLAYER1
  6
CONTINUOUS
 62
     3
 10
1022.765523
 20
1517.563911
 11
1016.340891
 21
1517.385449
  0
LINE
  8
CSLAYER1
  6
CONTINUOUS
 62
     3
 10
1028.890481
 20
1518.084526
 11
1023.241422
 21
1515.719803
  0
LINE
  8
CSLAYER1
  6
CONTINUOUS
 62
     3
 10
1023.241422
 20
1515.719803
 11
1017.887562
 21
1514.411082
  0
LINE
  8
CSLAYER1
  6
CONTINUOUS
 62
     3
 10
1029.732676
 20
1516.974916
 11
1024.847580
 21
1514.113645
  0
LINE
  8
CSLAYER1
  6
CONTINUOUS
 62
     3
 10
1024.847580
 20
1514.113645
 11
1022.527574
 21
1510.782355
  0
ARC
  8
CSLAYER1
  6
CONTINUOUS
 62
     3
 10
1242.801528
 20
1626.085867
 40
47.000000
 50
-190.756396
 51
127.198537
  0
ARC
  8
CSLAYER1
  6
CONTINUOUS
 62
     3
 10
1242.801528
 20
1626.085867
 40
40.000000
 50
-203.471057
 51
127.198537
  0
LINE
  8
CSLAYER1
  6
CONTINUOUS
 62
     3
 10
1026.652398
 20
1521.033248
 11
1214.386325
 21
1663.523499
  0
LINE
  8
CSLAYER1
  6
CONTINUOUS
 62
     3
 10
1030.884449
 20
1515.457430
 11
1218.618377
 21
1657.947681
  0
LINE
  8
CSLAYER1
  6
CONTINUOUS
 62
     3
 10
1026.652398
 20
1521.033248
 11
1030.884449
 21
1515.457430
  0
LINE
  8
CSLAYER1
  6
CONTINUOUS
 62
     5
 10
980.198630
 20
1764.085867
 11
1023.170709
 21
1967.226602
  0
LINE
  8
CSLAYER1
  6
CONTINUOUS
 62
     5
 10
980.198630
 20
1764.085867
 11
978.599364
 21
1794.043209
  0
LINE
  8
CSLAYER1
  6
CONTINUOUS
 62
     5
 10
980.198630
 20
1764.085867
 11
993.792296
 21
1790.829320
  0
LINE
  8
CSLAYER1
  6
CENTER
 62
     5
 10
2079.910797
 20
1815.085867
 11
1424.151661
 21
1815.085867
  0
TEXT
  8
CSLAYER1
 62
     3
 10
2386.751465
 20
450.678589
 40
50.000000
 41
1.125000
  1
F.L
 50
0.000000
 51
0.000000
  7
EASYDRAW_FONT
 72
     5
 11
2536.751465
 21
450.678589
  0
TEXT
  8
CSLAYER1
 62
     3
 10
1039.601196
 20
761.787231
 40
50.000000
 41
1.023529
  1
油圧ユニット
 50
0.000000
 51
0.000000
  7
EASYDRAW_FONT
 72
     5
 11
1329.601196
 21
761.787231
  0
LINE
  8
CSLAYER1
  6
CONTINUOUS
 62
     5
 10
1024.574423
 20
738.027097
 11
1331.264537
 21
738.027097
  0
LINE
  8
CSLAYER1
  6
CONTINUOUS
 62
     5
 10
1331.264537
 20
738.027097
 11
1479.996763
 21
572.148001
  0
LINE
  8
CSLAYER1
  6
CONTINUOUS
 62
     5
 10
1479.996763
 20
572.148001
 11
1454.870817
 21
588.539671
  0
LINE
  8
CSLAYER1
  6
CONTINUOUS
 62
     5
 10
1479.996763
 20
572.148001
 11
1466.432891
 21
598.906577
  0
DIMENSION
  8
CSLAYER1
 62
     3
  2
*D0000
 10
2203.233656
 20
2115.085867
 11
2193.233643
 21
1815.085815
 13
2053.233656
 23
1515.085867
 14
2053.233656
 24
2115.085867
 50
90.000000
 70
1
  0
LINE
  8
CSLAYER1
  6
PHANTOM
 62
     5
 10
1453.427564
 20
644.148001
 11
2053.427564
 21
644.148001
  0
LINE
  8
CSLAYER1
  6
PHANTOM
 62
     5
 10
2053.427564
 20
644.148001
 11
2053.427564
 21
689.148001
  0
LINE
  8
CSLAYER1
  6
PHANTOM
 62
     5
 10
2053.427564
 20
689.148001
 11
1453.427564
 21
689.148001
  0
LINE
  8
CSLAYER1
  6
PHANTOM
 62
     5
 10
1453.427564
 20
689.148001
 11
1453.427564
 21
644.148001
  0
DIMENSION
  8
CSLAYER1
 62
     3
  2
*D0001
 10
2203.233656
 20
689.148001
 11
2193.233643
 21
559.148010
 13
2363.233656
 23
429.148001
 14
2053.427564
 24
689.148001
 50
90.000000
  0
DIMENSION
  8
CSLAYER1
 62
     3
  2
*D0002
 10
2203.233656
 20
1290.085867
 11
2193.233643
 21
989.616882
 13
2023.233656
 23
689.148001
 14
2023.233656
 24
1290.085867
 50
90.000000
 70
1
  0
DIMENSION
  8
CSLAYER1
 62
     3
  2
*D0003
 10
2363.233656
 20
429.148001
 11
2353.233643
 21
859.616882
 13
2363.233656
 23
1290.085867
 14
2363.233656
 24
429.148001
 50
90.000000
 70
1
  0
DIMENSION
  8
CSLAYER1
 62
     3
  2
*D0004
 10
2053.233656
 20
1390.085867
 11
1753.233643
 21
1400.085815
 13
1453.233656
 23
1290.085867
 14
2053.233656
 24
1290.085867
 70
1
  0
DIMENSION
  8
CSLAYER1
 62
     3
  2
*D0005
 10
2053.427564
 20
329.148001
 11
1753.927490
 21
339.148010
 13
1454.427564
 23
429.148001
 14
2053.427564
 24
429.148001
 52
270.000000
 70
1
  0
DIMENSION
  8
CSLAYER1
 62
     3
  2
*D0006
 10
854.427564
 20
329.148001
 11
629.427551
 21
339.148010
 13
404.427564
 23
429.148001
 14
854.427564
 24
429.148001
 52
270.000000
 70
1
  0
LINE
  8
CSLAYER1
  6
CONTINUOUS
 62
     5
 10
3354.260236
 20
2191.054554
 11
2633.387719
 21
2191.054554
  0
LINE
  8
CSLAYER1
  6
CONTINUOUS
 62
     5
 10
3354.260236
 20
2127.054556
 11
2633.387719
 21
2127.054556
  0
LINE
  8
CSLAYER1
  6
CONTINUOUS
 62
     5
 10
3354.260236
 20
2063.054557
 11
2633.387719
 21
2063.054557
  0
LINE
  8
CSLAYER1
  6
CONTINUOUS
 62
     5
 10
3354.260236
 20
1999.054559
 11
2634.260254
 21
1999.054559
  0
LINE
  8
CSLAYER1
  6
CONTINUOUS
 62
     5
 10
3354.260236
 20
1935.054561
 11
2633.387719
 21
1935.054561
  0
LINE
  8
CSLAYER1
  6
CONTINUOUS
 62
     5
 10
3354.260236
 20
1871.054562
 11
2633.387719
 21
1871.054562
  0
LINE
  8
CSLAYER1
  6
CONTINUOUS
 62
     5
 10
3354.260236
 20
1807.054564
 11
2633.387719
 21
1807.054564
  0
LINE
  8
CSLAYER1
  6
CONTINUOUS
 62
     5
 10
3354.260236
 20
1743.054565
 11
2633.387719
 21
1743.054565
  0
LINE
  8
CSLAYER1
  6
CONTINUOUS
 62
     5
 10
3354.260236
 20
1679.054567
 11
2633.387719
 21
1679.054567
  0
LINE
  8
CSLAYER1
  6
CONTINUOUS
 62
     5
 10
3354.260236
 20
1615.054569
 11
2633.387719
 21
1615.054569
  0
LINE
  8
CSLAYER1
  6
CONTINUOUS
 62
     5
 10
3354.260236
 20
1551.054570
 11
2633.387719
 21
1551.054570
  0
TEXT
  8
CSLAYER1
 62
     3
 10
2829.111572
 20
2270.873535
 40
40.000000
 41
0.857143
  1
仕   様
 50
0.000000
 51
0.000000
  7
EASYDRAW_FONT
 72
     5
 11
2989.111572
 21
2270.873535
  0
TEXT
  8
CSLAYER1
 62
     3
 10
2644.146973
 20
2199.277588
 40
40.000000
 41
0.847059
  1
型    式
 50
0.000000
 51
0.000000
  7
EASYDRAW_FONT
 72
     5
 11
2836.146973
 21
2199.277588
  0
TEXT
  8
CSLAYER1
 62
     3
 10
2642.327393
 20
2076.787598
 40
40.000000
 41
0.847059
  1
テーブル寸法
 50
0.000000
 51
0.000000
  7
EASYDRAW_FONT
 72
     5
 11
2834.327393
 21
2076.787598
  0
TEXT
  8
CSLAYER1
 62
     3
 10
2644.146973
 20
2013.723633
 40
40.000000
 41
0.847059
  1
テーブル高サ
 50
0.000000
 51
0.000000
  7
EASYDRAW_FONT
 72
     5
 11
2836.146973
 21
2013.723633
  0
TEXT
  8
CSLAYER1
 62
     3
 10
2645.593994
 20
1948.840820
 40
40.000000
 41
0.857143
  1
ストローク
 50
0.000000
 51
0.000000
  7
EASYDRAW_FONT
 72
     5
 11
2805.593994
 21
1948.840820
  0
TEXT
  8
CSLAYER1
 62
     3
 10
2644.987549
 20
1883.958008
 40
40.000000
 41
0.857143
  1
全   長
 50
0.000000
 51
0.000000
  7
EASYDRAW_FONT
 72
     5
 11
2804.987549
 21
1883.958008
  0
TEXT
  8
CSLAYER1
 62
     3
 10
2647.258789
 20
1818.107178
 40
40.000000
 41
0.857143
  1
全   巾
 50
0.000000
 51
0.000000
  7
EASYDRAW_FONT
 72
     5
 11
2807.258789
 21
1818.107178
  0
TEXT
  8
CSLAYER1
 62
     3
 10
2645.700928
 20
1754.222046
 40
40.000000
 41
0.857143
  1
全   高
 50
0.000000
 51
0.000000
  7
EASYDRAW_FONT
 72
     5
 11
2805.700928
 21
1754.222046
  0
TEXT
  8
CSLAYER1
 62
     3
 10
2645.700928
 20
1691.895508
 40
40.000000
 41
0.857143
  1
リフト方式
 50
0.000000
 51
0.000000
  7
EASYDRAW_FONT
 72
     5
 11
2805.700928
 21
1691.895508
  0
TEXT
  8
CSLAYER1
 62
     3
 10
2644.560791
 20
1561.007935
 40
40.000000
 41
0.872727
  1
モーター
 50
0.000000
 51
0.000000
  7
EASYDRAW_FONT
 72
     5
 11
2772.560791
 21
1561.007935
  0
LINE
  8
CSLAYER1
  6
CONTINUOUS
 62
     5
 10
3354.260236
 20
1487.054572
 11
2633.387719
 21
1487.054572
  0
LINE
  8
CSLAYER1
  6
CONTINUOUS
 62
     5
 10
3354.260236
 20
1359.054575
 11
2631.249217
 21
1359.054575
  0
LINE
  8
CSLAYER1
  6
CONTINUOUS
 62
     5
 10
3354.260236
 20
1295.054577
 11
2633.387719
 21
1295.054577
  0
LINE
  8
CSLAYER1
  6
CONTINUOUS
 62
     5
 10
3354.260236
 20
1231.054578
 11
2633.387719
 21
1231.054578
  0
LINE
  8
CSLAYER1
  6
CONTINUOUS
 62
     5
 10
3354.260236
 20
1167.054580
 11
2633.387719
 21
1167.054580
  0
TEXT
  8
CSLAYER1
 62
     3
 10
2647.142090
 20
1242.176392
 40
40.000000
 41
0.857143
  1
自  　重
 50
0.000000
 51
0.000000
  7
EASYDRAW_FONT
 72
     5
 11
2807.142090
 21
1242.176392
  0
TEXT
  8
CSLAYER1
 62
     3
 10
2638.461426
 20
1178.837036
 40
40.000000
 41
0.825000
  1
塗装色（マンセル値） 
 50
0.000000
 51
0.000000
  7
EASYDRAW_FONT
 72
     5
 11
2990.461426
 21
1178.837036
  0
TEXT
  8
CSLAYER1
 62
     3
 10
3125.813721
 20
2135.393555
 40
40.000000
 41
0.900000
  1
150
 50
0.000000
 51
0.000000
  7
EASYDRAW_FONT
 72
     5
 11
3221.813721
 21
2135.393555
  0
TEXT
  8
CSLAYER1
 62
     3
 10
3283.726074
 20
2134.112793
 40
40.000000
 41
0.960000
  1
Ｋｇ
 50
0.000000
 51
0.000000
  7
EASYDRAW_FONT
 72
     5
 11
3347.726074
 21
2134.112793
  0
TEXT
  8
CSLAYER1
 62
     3
 10
2966.627197
 20
2071.797119
 40
40.000000
 41
0.834783
  1
600 ×600
 50
0.000000
 51
0.000000
  7
EASYDRAW_FONT
 72
     5
 11
3222.627197
 21
2071.797119
  0
TEXT
  8
CSLAYER1
 62
     3
 10
3225.921631
 20
2083.620605
 40
40.000000
 41
1.200000
  1
Ｗ
 50
0.000000
 51
0.000000
  7
EASYDRAW_FONT
 72
     5
 11
3257.921631
 21
2083.620605
  0
TEXT
  8
CSLAYER1
 62
     3
 10
3059.505127
 20
2089.784180
 40
40.000000
 41
1.200000
  1
Ｌ
 50
0.000000
 51
0.000000
  7
EASYDRAW_FONT
 72
     5
 11
3091.505127
 21
2089.784180
  0
TEXT
  8
CSLAYER1
 62
     3
 10
2997.161133
 20
2010.749023
 40
40.000000
 41
0.840000
  1
260～820
 50
0.000000
 51
0.000000
  7
EASYDRAW_FONT
 72
     5
 11
3221.161133
 21
2010.749023
  0
TEXT
  8
CSLAYER1
 62
     3
 10
3127.749268
 20
1946.779907
 40
40.000000
 41
0.900000
  1
560
 50
0.000000
 51
0.000000
  7
EASYDRAW_FONT
 72
     5
 11
3223.749268
 21
1946.779907
  0
TEXT
  8
CSLAYER1
 62
     3
 10
3127.749268
 20
1881.770874
 40
40.000000
 41
0.900000
  1
600
 50
0.000000
 51
0.000000
  7
EASYDRAW_FONT
 72
     5
 11
3223.749268
 21
1881.770874
  0
TEXT
  8
CSLAYER1
 62
     3
 10
3125.526855
 20
1818.984131
 40
40.000000
 41
0.900000
  1
600
 50
0.000000
 51
0.000000
  7
EASYDRAW_FONT
 72
     5
 11
3221.526855
 21
1818.984131
  0
TEXT
  8
CSLAYER1
 62
     3
 10
2932.738037
 20
1692.850220
 40
40.000000
 41
0.830769
  1
電 動 油 圧 式
 50
0.000000
 51
0.000000
  7
EASYDRAW_FONT
 72
     5
 11
3220.738037
 21
1692.850220
  0
TEXT
  8
CSLAYER1
 62
     3
 10
2854.021484
 20
1564.647827
 40
40.000000
 41
0.817021
  1
ＡＣ２００Ｖ，３相、０．５５ＫＷ
 50
0.000000
 51
0.000000
  7
EASYDRAW_FONT
 72
     5
 11
3366.021484
 21
1564.647827
  0
TEXT
  8
CSLAYER1
 62
     3
 10
3006.650391
 20
1498.081421
 40
40.000000
 41
0.840000
  1
長 サ ４ ｍ
 50
0.000000
 51
0.000000
  7
EASYDRAW_FONT
 72
     5
 11
3230.650391
 21
1498.081421
  0
TEXT
  8
CSLAYER1
 62
     3
 10
2875.517746
 20
1431.248119
 40
38.786964
 41
0.595710
  1
４ｓｅｃ／50ＨＺ,３sec/60HZ
 50
0.000000
 51
0.000000
  7
EASYDRAW_FONT
 72
     5
 11
3306.825516
 21
1431.248119
  0
TEXT
  8
CSLAYER1
 62
     3
 10
3117.321533
 20
1243.309937
 40
40.000000
 41
0.840000
  1
84  　Ｋｇ
 50
0.000000
 51
0.000000
  7
EASYDRAW_FONT
 72
     5
 11
3341.321533
 21
1243.309937
  0
TEXT
  8
CSLAYER1
 62
     3
 10
3123.518066
 20
1754.322876
 40
40.000000
 41
0.900000
  1
260
 50
0.000000
 51
0.000000
  7
EASYDRAW_FONT
 72
     5
 11
3219.518066
 21
1754.322876
  0
TEXT
  8
CSLAYER1
 62
     3
 10
3281.212158
 20
2070.009277
 40
40.000000
 41
0.960000
  1
mm
 50
0.000000
 51
0.000000
  7
EASYDRAW_FONT
 72
     5
 11
3345.212158
 21
2070.009277
  0
TEXT
  8
CSLAYER1
 62
     3
 10
3281.212158
 20
2009.675903
 40
40.000000
 41
0.960000
  1
mm
 50
0.000000
 51
0.000000
  7
EASYDRAW_FONT
 72
     5
 11
3345.212158
 21
2009.675903
  0
TEXT
  8
CSLAYER1
 62
     3
 10
3277.441162
 20
1945.572021
 40
40.000000
 41
0.960000
  1
mm
 50
0.000000
 51
0.000000
  7
EASYDRAW_FONT
 72
     5
 11
3341.441162
 21
1945.572021
  0
TEXT
  8
CSLAYER1
 62
     3
 10
3277.441162
 20
1877.697021
 40
40.000000
 41
0.960000
  1
mm
 50
0.000000
 51
0.000000
  7
EASYDRAW_FONT
 72
     5
 11
3341.441162
 21
1877.697021
  0
TEXT
  8
CSLAYER1
 62
     3
 10
3274.927734
 20
1817.364258
 40
40.000000
 41
0.960000
  1
mm
 50
0.000000
 51
0.000000
  7
EASYDRAW_FONT
 72
     5
 11
3338.927734
 21
1817.364258
  0
TEXT
  8
CSLAYER1
 62
     3
 10
3274.927734
 20
1753.259521
 40
40.000000
 41
0.960000
  1
mm
 50
0.000000
 51
0.000000
  7
EASYDRAW_FONT
 72
     5
 11
3338.927734
 21
1753.259521
  0
LINE
  8
CSLAYER1
  6
CONTINUOUS
 62
     5
 10
3017.164657
 20
2255.054553
 11
2808.778685
 21
2255.054553
  0
LINE
  8
CSLAYER1
  6
CONTINUOUS
 62
     5
 10
3017.164657
 20
2263.054552
 11
2808.778685
 21
2263.054552
  0
TEXT
  8
CSLAYER1
 62
     3
 10
2648.142578
 20
1624.893921
 40
40.000000
 41
1.036364
  1
操作方式
 50
0.000000
 51
0.000000
  7
EASYDRAW_FONT
 72
     5
 11
2800.142578
 21
1624.893921
  0
LINE
  8
CSLAYER1
  6
CONTINUOUS
 62
     5
 10
3354.260236
 20
1423.054573
 11
2633.387719
 21
1423.054573
  0
TEXT
  8
CSLAYER1
 62
     3
 10
2645.476807
 20
1497.690796
 40
40.000000
 41
0.942857
  1
電源コード
 50
0.000000
 51
0.000000
  7
EASYDRAW_FONT
 72
     5
 11
2821.476807
 21
1497.690796
  0
TEXT
  8
CSLAYER1
 62
     3
 10
3025.865234
 20
1178.022095
 40
40.000000
 41
0.930000
  1
１０Ｒ４／１３
 50
0.000000
 51
0.000000
  7
EASYDRAW_FONT
 72
     5
 11
3273.865234
 21
1178.022095
  0
TEXT
  8
CSLAYER1
 62
     3
 10
2642.859619
 20
1433.414185
 40
40.000000
 41
0.954545
  1
上昇時間
 50
0.000000
 51
0.000000
  7
EASYDRAW_FONT
 72
     5
 11
2782.859619
 21
1433.414185
  0
TEXT
  8
CSLAYER1
 62
     3
 10
2768.798096
 20
1371.723999
 40
40.000000
 41
0.917143
  1
上昇端リミットスイッチ付
 50
0.000000
 51
0.000000
  7
EASYDRAW_FONT
 72
     5
 11
3196.798096
 21
1371.723999
  0
TEXT
  8
CSLAYER1
 62
     3
 10
2879.000824
 20
2200.787008
 40
40.809284
 41
0.899282
  1
GLE-150-0606W
 50
0.000000
 51
0.000000
  7
EASYDRAW_FONT
 72
     5
 11
3343.855621
 21
2200.787008
  0
TEXT
  8
CSLAYER1
 62
     3
 10
2932.109131
 20
1629.982178
 40
40.000000
 41
1.020000
  1
フットスイッチ
 50
0.000000
 51
0.000000
  7
EASYDRAW_FONT
 72
     5
 11
3204.109131
 21
1629.982178
  0
TEXT
  8
CSLAYER1
 62
     3
 10
636.004272
 20
1842.149780
 40
50.000000
 41
1.020000
  1
コード長サ２ｍ
 50
0.000000
 51
0.000000
  7
EASYDRAW_FONT
 72
     5
 11
976.004272
 21
1842.149780
  0
TEXT
  8
CSLAYER1
 62
     3
 10
2648.142578
 20
2136.893799
 40
40.000000
 41
1.036364
  1
積載荷重
 50
0.000000
 51
0.000000
  7
EASYDRAW_FONT
 72
     5
 11
2800.142578
 21
2136.893799
  0
ENDSEC
  0
EOF
