  0
SECTION
  2
HEADER
  9
$ACADVER
  1
AC1012
  9
$DWGCODEPAGE
  3
ansi_932
  9
$INSBASE
 10
0.0
 20
0.0
 30
0.0
  9
$EXTMIN
 10
0.0
 20
0.0
 30
0.0
  9
$EXTMAX
 10
3640.0
 20
2570.0
 30
0.0
  9
$LIMMIN
 10
0.0
 20
0.0
  9
$LIMMAX
 10
3640.0
 20
2570.0
  9
$ORTHOMODE
 70
     0
  9
$REGENMODE
 70
     1
  9
$FILLMODE
 70
     1
  9
$QTEXTMODE
 70
     0
  9
$MIRRTEXT
 70
     1
  9
$DRAGMODE
 70
     2
  9
$LTSCALE
 40
1.0
  9
$OSMODE
 70
    37
  9
$ATTMODE
 70
     1
  9
$TEXTSIZE
 40
2.5
  9
$TRACEWID
 40
1.0
  9
$TEXTSTYLE
  7
ED_VECTOR
  9
$CLAYER
  8
0
  9
$CELTYPE
  6
BYLAYER
  9
$CECOLOR
 62
   256
  9
$CELTSCALE
 40
1.0
  9
$DELOBJ
 70
     1
  9
$DISPSILH
 70
     0
  9
$DIMSCALE
 40
1.0
  9
$DIMASZ
 40
30.0
  9
$DIMEXO
 40
10.0
  9
$DIMDLI
 40
100.0
  9
$DIMRND
 40
0.0
  9
$DIMDLE
 40
50.0
  9
$DIMEXE
 40
10.0
  9
$DIMTP
 40
0.0
  9
$DIMTM
 40
0.0
  9
$DIMTXT
 40
40.0
  9
$DIMCEN
 40
2.5
  9
$DIMTSZ
 40
0.0
  9
$DIMTOL
 70
     0
  9
$DIMLIM
 70
     0
  9
$DIMTIH
 70
     0
  9
$DIMTOH
 70
     0
  9
$DIMSE1
 70
     0
  9
$DIMSE2
 70
     0
  9
$DIMTAD
 70
     1
  9
$DIMZIN
 70
     8
  9
$DIMBLK
  1

  9
$DIMASO
 70
     1
  9
$DIMSHO
 70
     1
  9
$DIMPOST
  1

  9
$DIMAPOST
  1

  9
$DIMALT
 70
     0
  9
$DIMALTD
 70
     3
  9
$DIMALTF
 40
0.03937
  9
$DIMLFAC
 40
1.0
  9
$DIMTOFL
 70
     1
  9
$DIMTVP
 40
0.0
  9
$DIMTIX
 70
     0
  9
$DIMSOXD
 70
     0
  9
$DIMSAH
 70
     1
  9
$DIMBLK1
  1
EDTIP_ARROW_S
  9
$DIMBLK2
  1
EDTIP_ARROW_E
  9
$DIMSTYLE
  2
EDDIMINFO
  9
$DIMCLRD
 70
     5
  9
$DIMCLRE
 70
     5
  9
$DIMCLRT
 70
     3
  9
$DIMTFAC
 40
1.0
  9
$DIMGAP
 40
10.0
  9
$DIMJUST
 70
     0
  9
$DIMSD1
 70
     0
  9
$DIMSD2
 70
     0
  9
$DIMTOLJ
 70
     0
  9
$DIMTZIN
 70
     8
  9
$DIMALTZ
 70
     0
  9
$DIMALTTZ
 70
     0
  9
$DIMFIT
 70
     3
  9
$DIMUPT
 70
     0
  9
$DIMUNIT
 70
     2
  9
$DIMDEC
 70
     2
  9
$DIMTDEC
 70
     2
  9
$DIMALTU
 70
     2
  9
$DIMALTTD
 70
     3
  9
$DIMTXSTY
  7
ED_VECTOR
  9
$DIMAUNIT
 70
     0
  9
$LUNITS
 70
     2
  9
$LUPREC
 70
     4
  9
$SKETCHINC
 40
1.0
  9
$FILLETRAD
 40
10.0
  9
$AUNITS
 70
     0
  9
$AUPREC
 70
     0
  9
$MENU
  1
.
  9
$ELEVATION
 40
0.0
  9
$PELEVATION
 40
0.0
  9
$THICKNESS
 40
0.0
  9
$LIMCHECK
 70
     0
  9
$CHAMFERA
 40
0.0
  9
$CHAMFERB
 40
0.0
  9
$CHAMFERC
 40
0.0
  9
$CHAMFERD
 40
0.0
  9
$SKPOLY
 70
     0
  9
$TDCREATE
 40
2459726.771071377
  9
$TDUPDATE
 40
2459726.771072106
  9
$TDINDWG
 40
0.0000000116
  9
$TDUSRTIMER
 40
0.0000000116
  9
$USRTIMER
 70
     1
  9
$ANGBASE
 50
0.0
  9
$ANGDIR
 70
     0
  9
$PDMODE
 70
     0
  9
$PDSIZE
 40
0.0
  9
$PLINEWID
 40
0.0
  9
$COORDS
 70
     1
  9
$SPLFRAME
 70
     0
  9
$SPLINETYPE
 70
     6
  9
$SPLINESEGS
 70
     8
  9
$ATTDIA
 70
     0
  9
$ATTREQ
 70
     1
  9
$HANDLING
 70
     1
  9
$HANDSEED
  5
4EF
  9
$SURFTAB1
 70
     6
  9
$SURFTAB2
 70
     6
  9
$SURFTYPE
 70
     6
  9
$SURFU
 70
     6
  9
$SURFV
 70
     6
  9
$UCSNAME
  2

  9
$UCSORG
 10
0.0
 20
0.0
 30
0.0
  9
$UCSXDIR
 10
1.0
 20
0.0
 30
0.0
  9
$UCSYDIR
 10
0.0
 20
1.0
 30
0.0
  9
$PUCSNAME
  2

  9
$PUCSORG
 10
0.0
 20
0.0
 30
0.0
  9
$PUCSXDIR
 10
1.0
 20
0.0
 30
0.0
  9
$PUCSYDIR
 10
0.0
 20
1.0
 30
0.0
  9
$USERI1
 70
     0
  9
$USERI2
 70
     0
  9
$USERI3
 70
     0
  9
$USERI4
 70
     0
  9
$USERI5
 70
     0
  9
$USERR1
 40
0.0
  9
$USERR2
 40
0.0
  9
$USERR3
 40
0.0
  9
$USERR4
 40
0.0
  9
$USERR5
 40
0.0
  9
$WORLDVIEW
 70
     1
  9
$SHADEDGE
 70
     3
  9
$SHADEDIF
 70
    70
  9
$TILEMODE
 70
     1
  9
$MAXACTVP
 70
    64
  9
$PINSBASE
 10
0.0
 20
0.0
 30
0.0
  9
$PLIMCHECK
 70
     0
  9
$PEXTMIN
 10
1.000000E+20
 20
1.000000E+20
 30
1.000000E+20
  9
$PEXTMAX
 10
-1.000000E+20
 20
-1.000000E+20
 30
-1.000000E+20
  9
$PLIMMIN
 10
0.0
 20
0.0
  9
$PLIMMAX
 10
420.0
 20
297.0
  9
$UNITMODE
 70
     0
  9
$VISRETAIN
 70
     1
  9
$PLINEGEN
 70
     0
  9
$PSLTSCALE
 70
     1
  9
$TREEDEPTH
 70
  3020
  9
$PICKSTYLE
 70
     1
  9
$CMLSTYLE
  2
STANDARD
  9
$CMLJUST
 70
     0
  9
$CMLSCALE
 40
20.0
  9
$SAVEIMAGES
 70
     1
  0
ENDSEC
  0
SECTION
  2
CLASSES
  0
CLASS
  1
ACDBDICTIONARYWDFLT
  2
AcDbDictionaryWithDefault
  3
ObjectDBX Classes
 90
    32768
280
     0
281
     0
  0
CLASS
  1
VISUALSTYLE
  2
AcDbVisualStyle
  3
ObjectDBX Classes
 90
     4095
280
     0
281
     0
  0
CLASS
  1
MATERIAL
  2
AcDbMaterial
  3
ObjectDBX Classes
 90
     1153
280
     0
281
     0
  0
CLASS
  1
SCALE
  2
AcDbScale
  3
ObjectDBX Classes
 90
     1153
280
     0
281
     0
  0
CLASS
  1
TABLESTYLE
  2
AcDbTableStyle
  3
ObjectDBX Classes
 90
     4095
280
     0
281
     0
  0
CLASS
  1
MLEADERSTYLE
  2
AcDbMLeaderStyle
  3
ACDB_MLEADERSTYLE_CLASS
 90
     4095
280
     0
281
     0
  0
CLASS
  1
SUN
  2
AcDbSun
  3
SCENEOE
 90
     1153
280
     0
281
     0
  0
CLASS
  1
DICTIONARYVAR
  2
AcDbDictionaryVar
  3
ObjectDBX Classes
 90
        0
280
     0
281
     0
  0
CLASS
  1
XRECORD
  2
AcDbXrecord
  3
ObjectDBX Classes
 90
    32768
280
     0
281
     0
  0
CLASS
  1
LWPOLYLINE
  2
AcDbPolyline
  3
ObjectDBX Classes
 90
    32768
280
     0
281
     1
  0
CLASS
  1
HATCH
  2
AcDbHatch
  3
ObjectDBX Classes
 90
    32768
280
     0
281
     1
  0
CLASS
  1
ACDBPLACEHOLDER
  2
AcDbPlaceHolder
  3
ObjectDBX Classes
 90
        0
280
     0
281
     0
  0
CLASS
  1
LAYOUT
  2
AcDbLayout
  3
ObjectDBX Classes
 90
        0
280
     0
281
     0
  0
ENDSEC
  0
SECTION
  2
TABLES
  0
TABLE
  2
VPORT
  5
8
330
0
100
AcDbSymbolTable
 70
     1
  0
VPORT
  5
29
330
8
100
AcDbSymbolTableRecord
100
AcDbViewportTableRecord
  2
*ACTIVE
 70
     0
 10
0.0
 20
0.0
 11
1.0
 21
1.0
 12
1820.0
 22
1285.0
 13
0.0
 23
0.0
 14
10.0
 24
10.0
 15
10.0
 25
10.0
 16
0.0
 26
0.0
 36
1.0
 17
0.0
 27
0.0
 37
0.0
 40
2570.0
 41
1.416342
 42
50.0
 43
0.0
 44
0.0
 50
0.0
 51
0.0
 71
     0
 72
   100
 73
     1
 74
     3
 75
     0
 76
     0
 77
     0
 78
     0
  0
ENDTAB
  0
TABLE
  2
LTYPE
  5
5
330
0
100
AcDbSymbolTable
 70
     5
  0
LTYPE
  5
14
330
5
100
AcDbSymbolTableRecord
100
AcDbLinetypeTableRecord
  2
BYBLOCK
 70
     0
  3

 72
    65
 73
     0
 40
0.0
  0
LTYPE
  5
15
330
5
100
AcDbSymbolTableRecord
100
AcDbLinetypeTableRecord
  2
BYLAYER
 70
     0
  3

 72
    65
 73
     0
 40
0.0
  0
LTYPE
  5
16
330
5
100
AcDbSymbolTableRecord
100
AcDbLinetypeTableRecord
  2
CONTINUOUS
 70
     0
  3
--------------------
 72
    65
 73
     0
 40
0.0
  0
LTYPE
  5
6E
330
5
100
AcDbSymbolTableRecord
100
AcDbLinetypeTableRecord
  2
DASHED
 70
     0
  3
- - - - - - - - - - -
 72
    65
 73
     2
 40
19.1
 49
12.7
 74
     0
 49
-6.4
 74
     0
  0
LTYPE
  5
6F
330
5
100
AcDbSymbolTableRecord
100
AcDbLinetypeTableRecord
  2
CENTER
 70
     0
  3
- ･ - ･ - ･ - ･ - ･ - ･ - ･ - ･ - ･ - ･ -
 72
    65
 73
     4
 40
51.0
 49
31.8
 74
     0
 49
-6.4
 74
     0
 49
6.4
 74
     0
 49
-6.4
 74
     0
  0
LTYPE
  5
70
330
5
100
AcDbSymbolTableRecord
100
AcDbLinetypeTableRecord
  2
PHANTOM
 70
     0
  3
- ･ ･ - ･ ･ - ･ ･ - ･ ･ - ･ ･ - ･ ･ - ･ ･ - 
 72
    65
 73
     6
 40
63.8
 49
31.8
 74
     0
 49
-6.4
 74
     0
 49
6.4
 74
     0
 49
-6.4
 74
     0
 49
6.4
 74
     0
 49
-6.4
 74
     0
  0
LTYPE
  5
71
330
5
100
AcDbSymbolTableRecord
100
AcDbLinetypeTableRecord
  2
DOT
 70
     0
  3
・・・・・・・・・・・・・・・
 72
    65
 73
     2
 40
6.5
 49
0.1
 74
     0
 49
-6.4
 74
     0
  0
ENDTAB
  0
TABLE
  2
LAYER
  5
2
330
0
100
AcDbSymbolTable
 70
    65
  0
LAYER
  5
10
330
2
100
AcDbSymbolTableRecord
100
AcDbLayerTableRecord
  2
0
 70
     0
 62
     7
  6
CONTINUOUS
  0
LAYER
  5
72
330
2
100
AcDbSymbolTableRecord
100
AcDbLayerTableRecord
  2
LAYER002
 70
     0
 62
     7
  6
CONTINUOUS
  0
LAYER
  5
73
330
2
100
AcDbSymbolTableRecord
100
AcDbLayerTableRecord
  2
LAYER003
 70
     0
 62
     7
  6
CONTINUOUS
  0
LAYER
  5
74
330
2
100
AcDbSymbolTableRecord
100
AcDbLayerTableRecord
  2
LAYER004
 70
     0
 62
     7
  6
CONTINUOUS
  0
LAYER
  5
75
330
2
100
AcDbSymbolTableRecord
100
AcDbLayerTableRecord
  2
LAYER005
 70
     0
 62
     7
  6
CONTINUOUS
  0
LAYER
  5
76
330
2
100
AcDbSymbolTableRecord
100
AcDbLayerTableRecord
  2
LAYER006
 70
     0
 62
     7
  6
CONTINUOUS
  0
LAYER
  5
77
330
2
100
AcDbSymbolTableRecord
100
AcDbLayerTableRecord
  2
LAYER007
 70
     0
 62
     7
  6
CONTINUOUS
  0
LAYER
  5
78
330
2
100
AcDbSymbolTableRecord
100
AcDbLayerTableRecord
  2
LAYER008
 70
     0
 62
     7
  6
CONTINUOUS
  0
LAYER
  5
79
330
2
100
AcDbSymbolTableRecord
100
AcDbLayerTableRecord
  2
LAYER009
 70
     0
 62
     7
  6
CONTINUOUS
  0
LAYER
  5
7A
330
2
100
AcDbSymbolTableRecord
100
AcDbLayerTableRecord
  2
LAYER010
 70
     0
 62
     7
  6
CONTINUOUS
  0
LAYER
  5
7B
330
2
100
AcDbSymbolTableRecord
100
AcDbLayerTableRecord
  2
LAYER011
 70
     0
 62
     7
  6
CONTINUOUS
  0
LAYER
  5
7C
330
2
100
AcDbSymbolTableRecord
100
AcDbLayerTableRecord
  2
LAYER012
 70
     0
 62
     7
  6
CONTINUOUS
  0
LAYER
  5
7D
330
2
100
AcDbSymbolTableRecord
100
AcDbLayerTableRecord
  2
LAYER013
 70
     0
 62
     7
  6
CONTINUOUS
  0
LAYER
  5
7E
330
2
100
AcDbSymbolTableRecord
100
AcDbLayerTableRecord
  2
LAYER014
 70
     0
 62
     7
  6
CONTINUOUS
  0
LAYER
  5
7F
330
2
100
AcDbSymbolTableRecord
100
AcDbLayerTableRecord
  2
LAYER015
 70
     0
 62
     7
  6
CONTINUOUS
  0
LAYER
  5
80
330
2
100
AcDbSymbolTableRecord
100
AcDbLayerTableRecord
  2
LAYER016
 70
     0
 62
     7
  6
CONTINUOUS
  0
LAYER
  5
81
330
2
100
AcDbSymbolTableRecord
100
AcDbLayerTableRecord
  2
LAYER017
 70
     0
 62
     7
  6
CONTINUOUS
  0
LAYER
  5
82
330
2
100
AcDbSymbolTableRecord
100
AcDbLayerTableRecord
  2
LAYER018
 70
     0
 62
     7
  6
CONTINUOUS
  0
LAYER
  5
83
330
2
100
AcDbSymbolTableRecord
100
AcDbLayerTableRecord
  2
LAYER019
 70
     0
 62
     7
  6
CONTINUOUS
  0
LAYER
  5
84
330
2
100
AcDbSymbolTableRecord
100
AcDbLayerTableRecord
  2
LAYER020
 70
     0
 62
     7
  6
CONTINUOUS
  0
LAYER
  5
85
330
2
100
AcDbSymbolTableRecord
100
AcDbLayerTableRecord
  2
LAYER021
 70
     0
 62
     7
  6
CONTINUOUS
  0
LAYER
  5
86
330
2
100
AcDbSymbolTableRecord
100
AcDbLayerTableRecord
  2
LAYER022
 70
     0
 62
     7
  6
CONTINUOUS
  0
LAYER
  5
87
330
2
100
AcDbSymbolTableRecord
100
AcDbLayerTableRecord
  2
LAYER023
 70
     0
 62
     7
  6
CONTINUOUS
  0
LAYER
  5
88
330
2
100
AcDbSymbolTableRecord
100
AcDbLayerTableRecord
  2
LAYER024
 70
     0
 62
     7
  6
CONTINUOUS
  0
LAYER
  5
89
330
2
100
AcDbSymbolTableRecord
100
AcDbLayerTableRecord
  2
LAYER025
 70
     0
 62
     7
  6
CONTINUOUS
  0
LAYER
  5
8A
330
2
100
AcDbSymbolTableRecord
100
AcDbLayerTableRecord
  2
LAYER026
 70
     0
 62
     7
  6
CONTINUOUS
  0
LAYER
  5
8B
330
2
100
AcDbSymbolTableRecord
100
AcDbLayerTableRecord
  2
LAYER027
 70
     0
 62
     7
  6
CONTINUOUS
  0
LAYER
  5
8C
330
2
100
AcDbSymbolTableRecord
100
AcDbLayerTableRecord
  2
LAYER028
 70
     0
 62
     7
  6
CONTINUOUS
  0
LAYER
  5
8D
330
2
100
AcDbSymbolTableRecord
100
AcDbLayerTableRecord
  2
LAYER029
 70
     0
 62
     7
  6
CONTINUOUS
  0
LAYER
  5
8E
330
2
100
AcDbSymbolTableRecord
100
AcDbLayerTableRecord
  2
LAYER030
 70
     0
 62
     7
  6
CONTINUOUS
  0
LAYER
  5
8F
330
2
100
AcDbSymbolTableRecord
100
AcDbLayerTableRecord
  2
LAYER031
 70
     0
 62
     7
  6
CONTINUOUS
  0
LAYER
  5
90
330
2
100
AcDbSymbolTableRecord
100
AcDbLayerTableRecord
  2
LAYER032
 70
     0
 62
     7
  6
CONTINUOUS
  0
LAYER
  5
91
330
2
100
AcDbSymbolTableRecord
100
AcDbLayerTableRecord
  2
LAYER033
 70
     0
 62
     7
  6
CONTINUOUS
  0
LAYER
  5
92
330
2
100
AcDbSymbolTableRecord
100
AcDbLayerTableRecord
  2
LAYER034
 70
     0
 62
     7
  6
CONTINUOUS
  0
LAYER
  5
93
330
2
100
AcDbSymbolTableRecord
100
AcDbLayerTableRecord
  2
LAYER035
 70
     0
 62
     7
  6
CONTINUOUS
  0
LAYER
  5
94
330
2
100
AcDbSymbolTableRecord
100
AcDbLayerTableRecord
  2
LAYER036
 70
     0
 62
     7
  6
CONTINUOUS
  0
LAYER
  5
95
330
2
100
AcDbSymbolTableRecord
100
AcDbLayerTableRecord
  2
LAYER037
 70
     0
 62
     7
  6
CONTINUOUS
  0
LAYER
  5
96
330
2
100
AcDbSymbolTableRecord
100
AcDbLayerTableRecord
  2
LAYER038
 70
     0
 62
     7
  6
CONTINUOUS
  0
LAYER
  5
97
330
2
100
AcDbSymbolTableRecord
100
AcDbLayerTableRecord
  2
LAYER039
 70
     0
 62
     7
  6
CONTINUOUS
  0
LAYER
  5
98
330
2
100
AcDbSymbolTableRecord
100
AcDbLayerTableRecord
  2
LAYER040
 70
     0
 62
     7
  6
CONTINUOUS
  0
LAYER
  5
99
330
2
100
AcDbSymbolTableRecord
100
AcDbLayerTableRecord
  2
LAYER041
 70
     0
 62
     7
  6
CONTINUOUS
  0
LAYER
  5
9A
330
2
100
AcDbSymbolTableRecord
100
AcDbLayerTableRecord
  2
LAYER042
 70
     0
 62
     7
  6
CONTINUOUS
  0
LAYER
  5
9B
330
2
100
AcDbSymbolTableRecord
100
AcDbLayerTableRecord
  2
LAYER043
 70
     0
 62
     7
  6
CONTINUOUS
  0
LAYER
  5
9C
330
2
100
AcDbSymbolTableRecord
100
AcDbLayerTableRecord
  2
LAYER044
 70
     0
 62
     7
  6
CONTINUOUS
  0
LAYER
  5
9D
330
2
100
AcDbSymbolTableRecord
100
AcDbLayerTableRecord
  2
LAYER045
 70
     0
 62
     7
  6
CONTINUOUS
  0
LAYER
  5
9E
330
2
100
AcDbSymbolTableRecord
100
AcDbLayerTableRecord
  2
LAYER046
 70
     0
 62
     7
  6
CONTINUOUS
  0
LAYER
  5
9F
330
2
100
AcDbSymbolTableRecord
100
AcDbLayerTableRecord
  2
LAYER047
 70
     0
 62
     7
  6
CONTINUOUS
  0
LAYER
  5
A0
330
2
100
AcDbSymbolTableRecord
100
AcDbLayerTableRecord
  2
LAYER048
 70
     0
 62
     7
  6
CONTINUOUS
  0
LAYER
  5
A1
330
2
100
AcDbSymbolTableRecord
100
AcDbLayerTableRecord
  2
LAYER049
 70
     0
 62
     7
  6
CONTINUOUS
  0
LAYER
  5
A2
330
2
100
AcDbSymbolTableRecord
100
AcDbLayerTableRecord
  2
LAYER050
 70
     0
 62
     7
  6
CONTINUOUS
  0
LAYER
  5
A3
330
2
100
AcDbSymbolTableRecord
100
AcDbLayerTableRecord
  2
LAYER051
 70
     0
 62
     7
  6
CONTINUOUS
  0
LAYER
  5
A4
330
2
100
AcDbSymbolTableRecord
100
AcDbLayerTableRecord
  2
LAYER052
 70
     0
 62
     7
  6
CONTINUOUS
  0
LAYER
  5
A5
330
2
100
AcDbSymbolTableRecord
100
AcDbLayerTableRecord
  2
LAYER053
 70
     0
 62
     7
  6
CONTINUOUS
  0
LAYER
  5
A6
330
2
100
AcDbSymbolTableRecord
100
AcDbLayerTableRecord
  2
LAYER054
 70
     0
 62
     7
  6
CONTINUOUS
  0
LAYER
  5
A7
330
2
100
AcDbSymbolTableRecord
100
AcDbLayerTableRecord
  2
LAYER055
 70
     0
 62
     7
  6
CONTINUOUS
  0
LAYER
  5
A8
330
2
100
AcDbSymbolTableRecord
100
AcDbLayerTableRecord
  2
LAYER056
 70
     0
 62
     7
  6
CONTINUOUS
  0
LAYER
  5
A9
330
2
100
AcDbSymbolTableRecord
100
AcDbLayerTableRecord
  2
LAYER057
 70
     0
 62
     7
  6
CONTINUOUS
  0
LAYER
  5
AA
330
2
100
AcDbSymbolTableRecord
100
AcDbLayerTableRecord
  2
LAYER058
 70
     0
 62
     7
  6
CONTINUOUS
  0
LAYER
  5
AB
330
2
100
AcDbSymbolTableRecord
100
AcDbLayerTableRecord
  2
LAYER059
 70
     0
 62
     7
  6
CONTINUOUS
  0
LAYER
  5
AC
330
2
100
AcDbSymbolTableRecord
100
AcDbLayerTableRecord
  2
LAYER060
 70
     0
 62
     7
  6
CONTINUOUS
  0
LAYER
  5
AD
330
2
100
AcDbSymbolTableRecord
100
AcDbLayerTableRecord
  2
LAYER061
 70
     0
 62
     7
  6
CONTINUOUS
  0
LAYER
  5
AE
330
2
100
AcDbSymbolTableRecord
100
AcDbLayerTableRecord
  2
LAYER062
 70
     0
 62
     7
  6
CONTINUOUS
  0
LAYER
  5
AF
330
2
100
AcDbSymbolTableRecord
100
AcDbLayerTableRecord
  2
LAYER063
 70
     0
 62
     7
  6
CONTINUOUS
  0
LAYER
  5
B0
330
2
100
AcDbSymbolTableRecord
100
AcDbLayerTableRecord
  2
LAYER064
 70
     0
 62
     7
  6
CONTINUOUS
  0
LAYER
  5
ED
330
2
100
AcDbSymbolTableRecord
100
AcDbLayerTableRecord
  2
LAYER065
 70
     0
 62
     7
  6
CONTINUOUS
  0
ENDTAB
  0
TABLE
  2
STYLE
  5
3
330
0
100
AcDbSymbolTable
 70
     2
  0
STYLE
  5
11
330
3
100
AcDbSymbolTableRecord
100
AcDbTextStyleTableRecord
  2
STANDARD
 70
     0
 40
0.0
 41
1.0
 50
0.0
 71
     0
 42
2.5
  3
txt
  4

  0
STYLE
  5
B1
330
3
100
AcDbSymbolTableRecord
100
AcDbTextStyleTableRecord
  2
ED_VECTOR
 70
     0
 40
0.0
 41
1.0
 50
0.0
 71
     0
 42
2.5
  3
MONOTXT.SHX
  4
BIGFONT.SHX
  0
ENDTAB
  0
TABLE
  2
VIEW
  5
6
330
0
100
AcDbSymbolTable
 70
     0
  0
ENDTAB
  0
TABLE
  2
UCS
  5
7
330
0
100
AcDbSymbolTable
 70
     0
  0
ENDTAB
  0
TABLE
  2
APPID
  5
9
330
0
100
AcDbSymbolTable
 70
     2
  0
APPID
  5
12
330
9
100
AcDbSymbolTableRecord
100
AcDbRegAppTableRecord
  2
ACAD
 70
     0
  0
APPID
  5
4EE
330
9
100
AcDbSymbolTableRecord
100
AcDbRegAppTableRecord
  2
ACAD_MLEADERVER
 70
     0
  0
ENDTAB
  0
TABLE
  2
DIMSTYLE
  5
A
330
0
100
AcDbSymbolTable
 70
     2
  0
DIMSTYLE
105
27
330
A
100
AcDbSymbolTableRecord
100
AcDbDimStyleTableRecord
  2
ISO-25
 70
     0
  3

  4

  5

  6

  7

 40
1.0
 41
2.5
 42
0.625
 43
3.75
 44
1.25
 45
0.0
 46
0.0
 47
0.0
 48
0.0
140
2.5
141
2.5
142
0.0
143
0.03937
144
1.0
145
0.0
146
1.0
147
0.625
 71
     0
 72
     0
 73
     0
 74
     0
 75
     0
 76
     0
 77
     1
 78
     8
170
     0
171
     3
172
     1
173
     0
174
     0
175
     0
176
     0
177
     0
178
     0
270
     2
271
     2
272
     2
273
     2
274
     3
340
11
275
     0
280
     0
281
     0
282
     0
283
     0
284
     8
285
     0
286
     0
287
     3
288
     0
  0
DIMSTYLE
105
EC
102
{ACAD_REACTORS
330
435
330
443
330
44D
330
456
330
45E
330
468
330
472
102
}
330
A
100
AcDbSymbolTableRecord
100
AcDbDimStyleTableRecord
  2
EDDIMINFO
 70
     0
  3

  4

  5

  6
EDTIP_ARROW_S
  7
EDTIP_ARROW_E
 40
1.0
 41
30.0
 42
10.0
 43
100.0
 44
10.0
 45
0.0
 46
50.0
 47
0.0
 48
0.0
140
40.0
141
2.5
142
0.0
143
0.03937
144
1.0
145
0.0
146
1.0
147
10.0
 71
     0
 72
     0
 73
     0
 74
     0
 75
     0
 76
     0
 77
     1
 78
     8
170
     0
171
     3
172
     1
173
     1
174
     0
175
     0
176
     5
177
     5
178
     3
179
     2
270
     2
271
     2
272
     2
273
     2
274
     3
340
B1
275
     0
280
     0
281
     0
282
     0
283
     0
284
     8
285
     0
286
     0
287
     3
288
     0
  0
ENDTAB
  0
TABLE
  2
BLOCK_RECORD
  5
1
330
0
100
AcDbSymbolTable
 70
    19
  0
BLOCK_RECORD
  5
1F
330
1
100
AcDbSymbolTableRecord
100
AcDbBlockTableRecord
  2
*MODEL_SPACE
  0
BLOCK_RECORD
  5
1B
330
1
100
AcDbSymbolTableRecord
100
AcDbBlockTableRecord
  2
*PAPER_SPACE
  0
BLOCK_RECORD
  5
B2
330
1
100
AcDbSymbolTableRecord
100
AcDbBlockTableRecord
  2
EDTIP_ARROW_S
  0
BLOCK_RECORD
  5
B8
330
1
100
AcDbSymbolTableRecord
100
AcDbBlockTableRecord
  2
EDTIP_ARROW_E
  0
BLOCK_RECORD
  5
BE
330
1
100
AcDbSymbolTableRecord
100
AcDbBlockTableRecord
  2
EDTIP_BLACKDOT_S
  0
BLOCK_RECORD
  5
C4
330
1
100
AcDbSymbolTableRecord
100
AcDbBlockTableRecord
  2
EDTIP_BLACKDOT_E
  0
BLOCK_RECORD
  5
CA
330
1
100
AcDbSymbolTableRecord
100
AcDbBlockTableRecord
  2
EDTIP_ARCHITECT_S
  0
BLOCK_RECORD
  5
D0
330
1
100
AcDbSymbolTableRecord
100
AcDbBlockTableRecord
  2
EDTIP_ARCHITECT_E
  0
BLOCK_RECORD
  5
D6
330
1
100
AcDbSymbolTableRecord
100
AcDbBlockTableRecord
  2
EDTIP_CIVIL_S
  0
BLOCK_RECORD
  5
DC
330
1
100
AcDbSymbolTableRecord
100
AcDbBlockTableRecord
  2
EDTIP_CIVIL_E
  0
BLOCK_RECORD
  5
E2
330
1
100
AcDbSymbolTableRecord
100
AcDbBlockTableRecord
  2
EDTIP_WHITEDOT_S
  0
BLOCK_RECORD
  5
E7
330
1
100
AcDbSymbolTableRecord
100
AcDbBlockTableRecord
  2
EDTIP_WHITEDOT_E
  0
BLOCK_RECORD
  5
10B
330
1
100
AcDbSymbolTableRecord
100
AcDbBlockTableRecord
  2
BLKF014
  0
BLOCK_RECORD
  5
1C0
330
1
100
AcDbSymbolTableRecord
100
AcDbBlockTableRecord
  2
BLKF015
  0
BLOCK_RECORD
  5
436
330
1
100
AcDbSymbolTableRecord
100
AcDbBlockTableRecord
  2
*D13
  0
BLOCK_RECORD
  5
444
330
1
100
AcDbSymbolTableRecord
100
AcDbBlockTableRecord
  2
*D14
  0
BLOCK_RECORD
  5
44E
330
1
100
AcDbSymbolTableRecord
100
AcDbBlockTableRecord
  2
*D15
  0
BLOCK_RECORD
  5
457
330
1
100
AcDbSymbolTableRecord
100
AcDbBlockTableRecord
  2
*D16
  0
BLOCK_RECORD
  5
45F
330
1
100
AcDbSymbolTableRecord
100
AcDbBlockTableRecord
  2
*D17
  0
BLOCK_RECORD
  5
469
330
1
100
AcDbSymbolTableRecord
100
AcDbBlockTableRecord
  2
*D18
  0
BLOCK_RECORD
  5
473
330
1
100
AcDbSymbolTableRecord
100
AcDbBlockTableRecord
  2
*D19
  0
ENDTAB
  0
ENDSEC
  0
SECTION
  2
BLOCKS
  0
BLOCK
  5
20
330
1F
100
AcDbEntity
  8
0
100
AcDbBlockBegin
  2
*MODEL_SPACE
 70
     0
 10
0.0
 20
0.0
 30
0.0
  3
*MODEL_SPACE
  1

  0
ENDBLK
  5
21
330
1F
100
AcDbEntity
  8
0
100
AcDbBlockEnd
  0
BLOCK
  5
1C
330
1B
100
AcDbEntity
 67
     1
  8
0
100
AcDbBlockBegin
  2
*PAPER_SPACE
 70
     0
 10
0.0
 20
0.0
 30
0.0
  3
*PAPER_SPACE
  1

  0
ENDBLK
  5
1D
330
1B
100
AcDbEntity
 67
     1
  8
0
100
AcDbBlockEnd
  0
BLOCK
  5
B3
330
B2
100
AcDbEntity
  8
0
100
AcDbBlockBegin
  2
EDTIP_ARROW_S
 70
     0
 10
0.0
 20
0.0
 30
0.0
  3
EDTIP_ARROW_S
  1

  0
LINE
  5
B5
330
B2
100
AcDbEntity
  8
0
  6
CONTINUOUS
 62
     0
100
AcDbLine
 10
0.0
 20
0.0
 30
0.0
 11
-1.0
 21
0.0
 31
0.0
  0
LINE
  5
B6
330
B2
100
AcDbEntity
  8
0
  6
CONTINUOUS
 62
     0
100
AcDbLine
 10
0.0
 20
0.0
 30
0.0
 11
-0.965926
 21
0.258819
 31
0.0
  0
LINE
  5
B7
330
B2
100
AcDbEntity
  8
0
  6
CONTINUOUS
 62
     0
100
AcDbLine
 10
0.0
 20
0.0
 30
0.0
 11
-0.965926
 21
-0.258819
 31
0.0
  0
ENDBLK
  5
B4
330
B2
100
AcDbEntity
  8
0
100
AcDbBlockEnd
  0
BLOCK
  5
B9
330
B8
100
AcDbEntity
  8
0
100
AcDbBlockBegin
  2
EDTIP_ARROW_E
 70
     0
 10
0.0
 20
0.0
 30
0.0
  3
EDTIP_ARROW_E
  1

  0
LINE
  5
BB
330
B8
100
AcDbEntity
  8
0
  6
CONTINUOUS
 62
     0
100
AcDbLine
 10
0.0
 20
0.0
 30
0.0
 11
-1.0
 21
0.0
 31
0.0
  0
LINE
  5
BC
330
B8
100
AcDbEntity
  8
0
  6
CONTINUOUS
 62
     0
100
AcDbLine
 10
0.0
 20
0.0
 30
0.0
 11
-0.965926
 21
-0.258819
 31
0.0
  0
LINE
  5
BD
330
B8
100
AcDbEntity
  8
0
  6
CONTINUOUS
 62
     0
100
AcDbLine
 10
0.0
 20
0.0
 30
0.0
 11
-0.965926
 21
0.258819
 31
0.0
  0
ENDBLK
  5
BA
330
B8
100
AcDbEntity
  8
0
100
AcDbBlockEnd
  0
BLOCK
  5
BF
330
BE
100
AcDbEntity
  8
0
100
AcDbBlockBegin
  2
EDTIP_BLACKDOT_S
 70
     0
 10
0.0
 20
0.0
 30
0.0
  3
EDTIP_BLACKDOT_S
  1

  0
LINE
  5
C1
330
BE
100
AcDbEntity
  8
0
  6
CONTINUOUS
 62
     0
100
AcDbLine
 10
0.0
 20
0.0
 30
0.0
 11
-1.0
 21
0.0
 31
0.0
  0
CIRCLE
  5
C2
330
BE
100
AcDbEntity
  8
0
  6
CONTINUOUS
 62
     0
100
AcDbCircle
 10
0.0
 20
0.0
 30
0.0
 40
0.5
  0
CIRCLE
  5
C3
330
BE
100
AcDbEntity
  8
0
  6
CONTINUOUS
 62
     0
100
AcDbCircle
 10
0.0
 20
0.0
 30
0.0
 40
0.25
  0
ENDBLK
  5
C0
330
BE
100
AcDbEntity
  8
0
100
AcDbBlockEnd
  0
BLOCK
  5
C5
330
C4
100
AcDbEntity
  8
0
100
AcDbBlockBegin
  2
EDTIP_BLACKDOT_E
 70
     0
 10
0.0
 20
0.0
 30
0.0
  3
EDTIP_BLACKDOT_E
  1

  0
LINE
  5
C7
330
C4
100
AcDbEntity
  8
0
  6
CONTINUOUS
 62
     0
100
AcDbLine
 10
0.0
 20
0.0
 30
0.0
 11
-1.0
 21
0.0
 31
0.0
  0
CIRCLE
  5
C8
330
C4
100
AcDbEntity
  8
0
  6
CONTINUOUS
 62
     0
100
AcDbCircle
 10
0.0
 20
0.0
 30
0.0
 40
0.5
  0
CIRCLE
  5
C9
330
C4
100
AcDbEntity
  8
0
  6
CONTINUOUS
 62
     0
100
AcDbCircle
 10
0.0
 20
0.0
 30
0.0
 40
0.25
  0
ENDBLK
  5
C6
330
C4
100
AcDbEntity
  8
0
100
AcDbBlockEnd
  0
BLOCK
  5
CB
330
CA
100
AcDbEntity
  8
0
100
AcDbBlockBegin
  2
EDTIP_ARCHITECT_S
 70
     0
 10
0.0
 20
0.0
 30
0.0
  3
EDTIP_ARCHITECT_S
  1

  0
LINE
  5
CD
330
CA
100
AcDbEntity
  8
0
  6
CONTINUOUS
 62
     0
100
AcDbLine
 10
0.0
 20
0.0
 30
0.0
 11
-1.0
 21
0.0
 31
0.0
  0
LINE
  5
CE
330
CA
100
AcDbEntity
  8
0
  6
CONTINUOUS
 62
     0
100
AcDbLine
 10
0.0
 20
0.0
 30
0.0
 11
-0.707107
 21
-0.707107
 31
0.0
  0
LINE
  5
CF
330
CA
100
AcDbEntity
  8
0
  6
CONTINUOUS
 62
     0
100
AcDbLine
 10
0.0
 20
0.0
 30
0.0
 11
0.707107
 21
0.707107
 31
0.0
  0
ENDBLK
  5
CC
330
CA
100
AcDbEntity
  8
0
100
AcDbBlockEnd
  0
BLOCK
  5
D1
330
D0
100
AcDbEntity
  8
0
100
AcDbBlockBegin
  2
EDTIP_ARCHITECT_E
 70
     0
 10
0.0
 20
0.0
 30
0.0
  3
EDTIP_ARCHITECT_E
  1

  0
LINE
  5
D3
330
D0
100
AcDbEntity
  8
0
  6
CONTINUOUS
 62
     0
100
AcDbLine
 10
0.0
 20
0.0
 30
0.0
 11
-1.0
 21
0.0
 31
0.0
  0
LINE
  5
D4
330
D0
100
AcDbEntity
  8
0
  6
CONTINUOUS
 62
     0
100
AcDbLine
 10
0.0
 20
0.0
 30
0.0
 11
-0.707107
 21
-0.707107
 31
0.0
  0
LINE
  5
D5
330
D0
100
AcDbEntity
  8
0
  6
CONTINUOUS
 62
     0
100
AcDbLine
 10
0.0
 20
0.0
 30
0.0
 11
0.707107
 21
0.707107
 31
0.0
  0
ENDBLK
  5
D2
330
D0
100
AcDbEntity
  8
0
100
AcDbBlockEnd
  0
BLOCK
  5
D7
330
D6
100
AcDbEntity
  8
0
100
AcDbBlockBegin
  2
EDTIP_CIVIL_S
 70
     0
 10
0.0
 20
0.0
 30
0.0
  3
EDTIP_CIVIL_S
  1

  0
LINE
  5
D9
330
D6
100
AcDbEntity
  8
0
  6
CONTINUOUS
 62
     0
100
AcDbLine
 10
0.0
 20
0.0
 30
0.0
 11
-1.0
 21
0.0
 31
0.0
  0
LINE
  5
DA
330
D6
100
AcDbEntity
  8
0
  6
CONTINUOUS
 62
     0
100
AcDbLine
 10
0.0
 20
-0.008333
 30
0.0
 11
-1.0
 21
-0.008333
 31
0.0
  0
LINE
  5
DB
330
D6
100
AcDbEntity
  8
0
  6
CONTINUOUS
 62
     0
100
AcDbLine
 10
0.0
 20
-0.016667
 30
0.0
 11
-1.0
 21
-0.016667
 31
0.0
  0
ENDBLK
  5
D8
330
D6
100
AcDbEntity
  8
0
100
AcDbBlockEnd
  0
BLOCK
  5
DD
330
DC
100
AcDbEntity
  8
0
100
AcDbBlockBegin
  2
EDTIP_CIVIL_E
 70
     0
 10
0.0
 20
0.0
 30
0.0
  3
EDTIP_CIVIL_E
  1

  0
LINE
  5
DF
330
DC
100
AcDbEntity
  8
0
  6
CONTINUOUS
 62
     0
100
AcDbLine
 10
0.0
 20
0.0
 30
0.0
 11
-1.0
 21
0.0
 31
0.0
  0
LINE
  5
E0
330
DC
100
AcDbEntity
  8
0
  6
CONTINUOUS
 62
     0
100
AcDbLine
 10
0.0
 20
0.008333
 30
0.0
 11
-1.0
 21
0.008333
 31
0.0
  0
LINE
  5
E1
330
DC
100
AcDbEntity
  8
0
  6
CONTINUOUS
 62
     0
100
AcDbLine
 10
0.0
 20
0.016667
 30
0.0
 11
-1.0
 21
0.016667
 31
0.0
  0
ENDBLK
  5
DE
330
DC
100
AcDbEntity
  8
0
100
AcDbBlockEnd
  0
BLOCK
  5
E3
330
E2
100
AcDbEntity
  8
0
100
AcDbBlockBegin
  2
EDTIP_WHITEDOT_S
 70
     0
 10
0.0
 20
0.0
 30
0.0
  3
EDTIP_WHITEDOT_S
  1

  0
LINE
  5
E5
330
E2
100
AcDbEntity
  8
0
  6
CONTINUOUS
 62
     0
100
AcDbLine
 10
0.0
 20
0.0
 30
0.0
 11
-1.0
 21
0.0
 31
0.0
  0
CIRCLE
  5
E6
330
E2
100
AcDbEntity
  8
0
  6
CONTINUOUS
 62
     0
100
AcDbCircle
 10
0.0
 20
0.0
 30
0.0
 40
0.5
  0
ENDBLK
  5
E4
330
E2
100
AcDbEntity
  8
0
100
AcDbBlockEnd
  0
BLOCK
  5
E8
330
E7
100
AcDbEntity
  8
0
100
AcDbBlockBegin
  2
EDTIP_WHITEDOT_E
 70
     0
 10
0.0
 20
0.0
 30
0.0
  3
EDTIP_WHITEDOT_E
  1

  0
LINE
  5
EA
330
E7
100
AcDbEntity
  8
0
  6
CONTINUOUS
 62
     0
100
AcDbLine
 10
0.0
 20
0.0
 30
0.0
 11
-1.0
 21
0.0
 31
0.0
  0
CIRCLE
  5
EB
330
E7
100
AcDbEntity
  8
0
  6
CONTINUOUS
 62
     0
100
AcDbCircle
 10
0.0
 20
0.0
 30
0.0
 40
0.5
  0
ENDBLK
  5
E9
330
E7
100
AcDbEntity
  8
0
100
AcDbBlockEnd
  0
BLOCK
  5
10C
330
10B
100
AcDbEntity
  8
0
100
AcDbBlockBegin
  2
BLKF014
 70
     0
 10
0.0
 20
0.0
 30
0.0
  3
BLKF014
  1

  0
ARC
  5
10F
330
10B
100
AcDbEntity
  8
0
  6
CONTINUOUS
 62
     5
100
AcDbCircle
 10
2781.909508
 20
79.33522
 30
0.0
 40
3.549224681232935
100
AcDbArc
 50
6.429109
 51
73.182034
  0
ARC
  5
110
330
10B
100
AcDbEntity
  8
0
  6
CONTINUOUS
 62
     5
100
AcDbCircle
 10
2778.448538
 20
78.176827
 30
0.0
 40
6.90775391640079
100
AcDbArc
 50
310.51797
 51
330.092764
  0
ARC
  5
111
330
10B
100
AcDbEntity
  8
0
  6
CONTINUOUS
 62
     5
100
AcDbCircle
 10
2778.387888
 20
78.542345
 30
0.0
 40
7.148321241986046
100
AcDbArc
 50
327.794941
 51
9.585194
  0
ARC
  5
112
330
10B
100
AcDbEntity
  8
0
  6
CONTINUOUS
 62
     5
100
AcDbCircle
 10
2781.680616
 20
75.781346
 30
0.0
 40
4.767514462094932
100
AcDbArc
 50
180.0
 51
218.51415
  0
ARC
  5
113
330
10B
100
AcDbEntity
  8
0
  6
CONTINUOUS
 62
     5
100
AcDbCircle
 10
2780.393895
 20
75.104206
 30
0.0
 40
3.348282029286162
100
AcDbArc
 50
222.781148
 51
319.406906
  0
ARC
  5
114
330
10B
100
AcDbEntity
  8
0
  6
CONTINUOUS
 62
     5
100
AcDbCircle
 10
2783.459537
 20
76.194099
 30
0.0
 40
6.559434466070106
100
AcDbArc
 50
94.574282
 51
183.607718
  0
LINE
  5
115
330
10B
100
AcDbEntity
  8
0
  6
CONTINUOUS
 62
     5
100
AcDbLine
 10
2796.903443
 20
71.077266
 30
0.0
 11
2796.046407
 21
68.038683
 31
0.0
  0
LINE
  5
116
330
10B
100
AcDbEntity
  8
0
  6
CONTINUOUS
 62
     5
100
AcDbLine
 10
2798.695428
 20
90.944924
 30
0.0
 11
2796.591794
 21
93.671857
 31
0.0
  0
LINE
  5
117
330
10B
100
AcDbEntity
  8
0
  6
CONTINUOUS
 62
     5
100
AcDbLine
 10
2796.591794
 20
93.671857
 30
0.0
 11
2789.83844
 21
97.429769
 31
0.0
  0
LINE
  5
118
330
10B
100
AcDbEntity
  8
0
  6
CONTINUOUS
 62
     5
100
AcDbLine
 10
2789.83844
 20
97.429769
 30
0.0
 11
2782.936412
 21
98.23264
 31
0.0
  0
LINE
  5
119
330
10B
100
AcDbEntity
  8
0
  6
CONTINUOUS
 62
     5
100
AcDbLine
 10
2764.647187
 20
84.853966
 30
0.0
 11
2766.793881
 21
89.818197
 31
0.0
  0
LINE
  5
11A
330
10B
100
AcDbEntity
  8
0
  6
CONTINUOUS
 62
     5
100
AcDbLine
 10
2766.756884
 20
89.73264
 30
0.0
 11
2768.940576
 21
92.367396
 31
0.0
  0
LINE
  5
11B
330
10B
100
AcDbEntity
  8
0
  6
CONTINUOUS
 62
     5
100
AcDbLine
 10
2768.940576
 20
92.367396
 30
0.0
 11
2772.244998
 21
94.73264
 31
0.0
  0
LINE
  5
11C
330
10B
100
AcDbEntity
  8
0
  6
CONTINUOUS
 62
     5
100
AcDbLine
 10
2782.936412
 20
98.23264
 30
0.0
 11
2781.418237
 21
97.465795
 31
0.0
  0
LINE
  5
11D
330
10B
100
AcDbEntity
  8
0
  6
CONTINUOUS
 62
     5
100
AcDbLine
 10
2781.418237
 20
97.465795
 30
0.0
 11
2777.929858
 21
97.465795
 31
0.0
  0
LINE
  5
11E
330
10B
100
AcDbEntity
  8
0
  6
CONTINUOUS
 62
     5
100
AcDbLine
 10
2777.929858
 20
97.465795
 30
0.0
 11
2774.374396
 21
95.520354
 31
0.0
  0
LINE
  5
11F
330
10B
100
AcDbEntity
  8
0
  6
CONTINUOUS
 62
     5
100
AcDbLine
 10
2774.374396
 20
95.520354
 30
0.0
 11
2772.244998
 21
94.73264
 31
0.0
  0
LINE
  5
120
330
10B
100
AcDbEntity
  8
0
  6
CONTINUOUS
 62
     5
100
AcDbLine
 10
2764.647187
 20
84.853966
 30
0.0
 11
2763.12964
 21
77.305363
 31
0.0
  0
LINE
  5
121
330
10B
100
AcDbEntity
  8
0
  6
CONTINUOUS
 62
     5
100
AcDbLine
 10
2763.12964
 20
77.305363
 30
0.0
 11
2762.936412
 21
74.73264
 31
0.0
  0
LINE
  5
122
330
10B
100
AcDbEntity
  8
0
  6
CONTINUOUS
 62
     5
100
AcDbLine
 10
2765.645795
 20
66.892857
 30
0.0
 11
2762.936412
 21
72.988969
 31
0.0
  0
LINE
  5
123
330
10B
100
AcDbEntity
  8
0
  6
CONTINUOUS
 62
     5
100
AcDbLine
 10
2762.936412
 20
72.988969
 30
0.0
 11
2762.936412
 21
74.73264
 31
0.0
  0
LINE
  5
124
330
10B
100
AcDbEntity
  8
0
  6
CONTINUOUS
 62
     5
100
AcDbLine
 10
2796.046407
 20
68.038683
 30
0.0
 11
2794.36062
 21
65.035677
 31
0.0
  0
LINE
  5
125
330
10B
100
AcDbEntity
  8
0
  6
CONTINUOUS
 62
     5
100
AcDbLine
 10
2794.36062
 20
65.035677
 30
0.0
 11
2792.936412
 21
63.716966
 31
0.0
  0
ARC
  5
126
330
10B
100
AcDbEntity
  8
0
  6
CONTINUOUS
 62
     5
100
AcDbCircle
 10
2780.744468
 20
75.2694
 30
0.0
 40
17.2666264049271
100
AcDbArc
 50
208.054813
 51
260.64047
  0
ARC
  5
127
330
10B
100
AcDbEntity
  8
0
  6
CONTINUOUS
 62
     5
100
AcDbCircle
 10
2775.551072
 20
88.01187
 30
0.0
 40
29.87461092848634
100
AcDbArc
 50
274.579659
 51
305.587364
  0
ARC
  5
128
330
10B
100
AcDbEntity
  8
0
  6
CONTINUOUS
 62
     5
100
AcDbCircle
 10
2786.523421
 20
82.028147
 30
0.0
 40
15.08862654287332
100
AcDbArc
 50
313.467013
 51
331.085078
  0
LINE
  5
129
330
10B
100
AcDbEntity
  8
0
  6
CONTINUOUS
 62
     5
100
AcDbLine
 10
2801.314754
 20
78.246061
 30
0.0
 11
2801.612048
 21
82.028147
 31
0.0
  0
LINE
  5
12A
330
10B
100
AcDbEntity
  8
0
  6
CONTINUOUS
 62
     5
100
AcDbLine
 10
2801.612048
 20
82.028147
 30
0.0
 11
2800.320051
 21
88.13713
 31
0.0
  0
LINE
  5
12B
330
10B
100
AcDbEntity
  8
0
  6
CONTINUOUS
 62
     5
100
AcDbLine
 10
2801.314754
 20
78.246061
 30
0.0
 11
2799.731079
 21
74.73264
 31
0.0
  0
ARC
  5
12C
330
10B
100
AcDbEntity
  8
0
  6
CONTINUOUS
 62
     5
100
AcDbCircle
 10
2786.523421
 20
82.028147
 30
0.0
 40
15.08862654287332
100
AcDbArc
 50
23.883193
 51
36.22517
  0
LINE
  5
12D
330
10B
100
AcDbEntity
  8
0
  6
CONTINUOUS
 62
     5
100
AcDbLine
 10
2746.936412
 20
109.73264
 30
0.0
 11
2747.936412
 21
110.825284
 31
0.0
  0
LINE
  5
12E
330
10B
100
AcDbEntity
  8
0
  6
CONTINUOUS
 62
     5
100
AcDbLine
 10
2746.936412
 20
109.73264
 30
0.0
 11
2748.51337
 21
108.287607
 31
0.0
  0
LINE
  5
12F
330
10B
100
AcDbEntity
  8
0
  6
CONTINUOUS
 62
     5
100
AcDbLine
 10
2750.052583
 20
106.178315
 30
0.0
 11
2750.078851
 21
104.010196
 31
0.0
  0
LINE
  5
130
330
10B
100
AcDbEntity
  8
0
  6
CONTINUOUS
 62
     5
100
AcDbLine
 10
2750.078851
 20
104.010196
 30
0.0
 11
2750.286249
 21
103.249737
 31
0.0
  0
LINE
  5
131
330
10B
100
AcDbEntity
  8
0
  6
CONTINUOUS
 62
     5
100
AcDbLine
 10
2750.286249
 20
103.249737
 30
0.0
 11
2750.873877
 21
102.523844
 31
0.0
  0
LINE
  5
132
330
10B
100
AcDbEntity
  8
0
  6
CONTINUOUS
 62
     5
100
AcDbLine
 10
2750.873877
 20
102.523844
 30
0.0
 11
2751.461504
 21
102.592977
 31
0.0
  0
LINE
  5
133
330
10B
100
AcDbEntity
  8
0
  6
CONTINUOUS
 62
     5
100
AcDbLine
 10
2751.461504
 20
102.592977
 30
0.0
 11
2752.083698
 21
102.765808
 31
0.0
  0
LINE
  5
134
330
10B
100
AcDbEntity
  8
0
  6
CONTINUOUS
 62
     5
100
AcDbLine
 10
2752.083698
 20
102.765808
 30
0.0
 11
2752.498494
 21
102.592977
 31
0.0
  0
LINE
  5
135
330
10B
100
AcDbEntity
  8
0
  6
CONTINUOUS
 62
     5
100
AcDbLine
 10
2752.498494
 20
102.592977
 30
0.0
 11
2753.397219
 21
102.143614
 31
0.0
  0
LINE
  5
136
330
10B
100
AcDbEntity
  8
0
  6
CONTINUOUS
 62
     5
100
AcDbLine
 10
2753.397219
 20
102.143614
 30
0.0
 11
2754.17327
 21
101.73264
 31
0.0
  0
LINE
  5
137
330
10B
100
AcDbEntity
  8
0
  6
CONTINUOUS
 62
     5
100
AcDbLine
 10
2754.17327
 20
101.73264
 30
0.0
 11
2754.676173
 21
101.763385
 31
0.0
  0
LINE
  5
138
330
10B
100
AcDbEntity
  8
0
  6
CONTINUOUS
 62
     5
100
AcDbLine
 10
2754.676173
 20
101.763385
 30
0.0
 11
2757.484045
 21
103.209864
 31
0.0
  0
LINE
  5
139
330
10B
100
AcDbEntity
  8
0
  6
CONTINUOUS
 62
     5
100
AcDbLine
 10
2747.936412
 20
110.825284
 30
0.0
 11
2748.269264
 21
112.298991
 31
0.0
  0
LINE
  5
13A
330
10B
100
AcDbEntity
  8
0
  6
CONTINUOUS
 62
     5
100
AcDbLine
 10
2748.269264
 20
112.298991
 30
0.0
 11
2749.722669
 21
112.449344
 31
0.0
  0
LINE
  5
13B
330
10B
100
AcDbEntity
  8
0
  6
CONTINUOUS
 62
     5
100
AcDbLine
 10
2751.216428
 20
115.217802
 30
0.0
 11
2752.970601
 21
115.374892
 31
0.0
  0
LINE
  5
13C
330
10B
100
AcDbEntity
  8
0
  6
CONTINUOUS
 62
     5
100
AcDbLine
 10
2752.970601
 20
115.374892
 30
0.0
 11
2756.505128
 21
116.212706
 31
0.0
  0
LINE
  5
13D
330
10B
100
AcDbEntity
  8
0
  6
CONTINUOUS
 62
     5
100
AcDbLine
 10
2756.505128
 20
116.212706
 30
0.0
 11
2757.936412
 21
116.544345
 31
0.0
  0
LINE
  5
13E
330
10B
100
AcDbEntity
  8
0
  6
CONTINUOUS
 62
     5
100
AcDbLine
 10
2751.216428
 20
115.217802
 30
0.0
 11
2749.283537
 21
115.37667
 31
0.0
  0
LINE
  5
13F
330
10B
100
AcDbEntity
  8
0
  6
CONTINUOUS
 62
     5
100
AcDbLine
 10
2748.547414
 20
114.507983
 30
0.0
 11
2748.640939
 21
114.136822
 31
0.0
  0
LINE
  5
140
330
10B
100
AcDbEntity
  8
0
  6
CONTINUOUS
 62
     5
100
AcDbLine
 10
2748.640939
 20
114.136822
 30
0.0
 11
2749.132533
 21
113.599141
 31
0.0
  0
LINE
  5
141
330
10B
100
AcDbEntity
  8
0
  6
CONTINUOUS
 62
     5
100
AcDbLine
 10
2749.132533
 20
113.599141
 30
0.0
 11
2749.808475
 21
113.092184
 31
0.0
  0
LINE
  5
142
330
10B
100
AcDbEntity
  8
0
  6
CONTINUOUS
 62
     5
100
AcDbLine
 10
2749.808475
 20
113.092184
 30
0.0
 11
2749.9318
 21
112.927751
 31
0.0
  0
LINE
  5
143
330
10B
100
AcDbEntity
  8
0
  6
CONTINUOUS
 62
     5
100
AcDbLine
 10
2748.51337
 20
108.287607
 30
0.0
 11
2750.052583
 21
106.178315
 31
0.0
  0
ARC
  5
144
330
10B
100
AcDbEntity
  8
0
  6
CONTINUOUS
 62
     5
100
AcDbCircle
 10
2792.923113
 20
-61.926013
 30
0.0
 40
180.7274633591883
100
AcDbArc
 50
80.438896
 51
96.353582
  0
ARC
  5
145
330
10B
100
AcDbEntity
  8
0
  6
CONTINUOUS
 62
     5
100
AcDbCircle
 10
2768.0242
 20
83.321887
 30
0.0
 40
34.72024168784505
100
AcDbArc
 50
81.866516
 51
106.890578
  0
LINE
  5
146
330
10B
100
AcDbEntity
  8
0
  6
CONTINUOUS
 62
     5
100
AcDbLine
 10
2827.130674
 20
115.49931
 30
0.0
 11
2829.377756
 21
114.477909
 31
0.0
  0
LINE
  5
147
330
10B
100
AcDbEntity
  8
0
  6
CONTINUOUS
 62
     5
100
AcDbLine
 10
2832.952661
 20
112.894737
 30
0.0
 11
2829.377756
 21
114.477909
 31
0.0
  0
LINE
  5
148
330
10B
100
AcDbEntity
  8
0
  6
CONTINUOUS
 62
     5
100
AcDbLine
 10
2827.130674
 20
115.49931
 30
0.0
 11
2822.936412
 21
116.291881
 31
0.0
  0
LINE
  5
149
330
10B
100
AcDbEntity
  8
0
  6
CONTINUOUS
 62
     5
100
AcDbLine
 10
2832.936412
 20
112.901933
 30
0.0
 11
2834.807988
 21
111.333456
 31
0.0
  0
LINE
  5
14A
330
10B
100
AcDbEntity
  8
0
  6
CONTINUOUS
 62
     5
100
AcDbLine
 10
2816.179668
 20
113.938783
 30
0.0
 11
2817.078943
 21
115.391458
 31
0.0
  0
LINE
  5
14B
330
10B
100
AcDbEntity
  8
0
  6
CONTINUOUS
 62
     5
100
AcDbLine
 10
2817.078943
 20
115.391458
 30
0.0
 11
2821.754542
 21
114.271949
 31
0.0
  0
LINE
  5
14C
330
10B
100
AcDbEntity
  8
0
  6
CONTINUOUS
 62
     5
100
AcDbLine
 10
2821.754542
 20
114.271949
 30
0.0
 11
2838.496928
 21
109.73264
 31
0.0
  0
LINE
  5
14D
330
10B
100
AcDbEntity
  8
0
  6
CONTINUOUS
 62
     5
100
AcDbLine
 10
2841.436412
 20
109.73264
 30
0.0
 11
2834.807988
 21
111.333456
 31
0.0
  0
LINE
  5
14E
330
10B
100
AcDbEntity
  8
0
  6
CONTINUOUS
 62
     5
100
AcDbLine
 10
2838.496928
 20
109.73264
 30
0.0
 11
2841.436412
 21
109.73264
 31
0.0
  0
LINE
  5
14F
330
10B
100
AcDbEntity
  8
0
  6
CONTINUOUS
 62
     5
100
AcDbLine
 10
2782.936412
 20
114.197581
 30
0.0
 11
2802.936412
 21
114.73264
 31
0.0
  0
LINE
  5
150
330
10B
100
AcDbEntity
  8
0
  6
CONTINUOUS
 62
     5
100
AcDbLine
 10
2802.936412
 20
114.73264
 30
0.0
 11
2816.179668
 21
113.938783
 31
0.0
  0
LINE
  5
151
330
10B
100
AcDbEntity
  8
0
  6
CONTINUOUS
 62
     5
100
AcDbLine
 10
2817.782649
 20
111.878304
 30
0.0
 11
2802.936412
 21
113.23264
 31
0.0
  0
LINE
  5
152
330
10B
100
AcDbEntity
  8
0
  6
CONTINUOUS
 62
     5
100
AcDbLine
 10
2802.936412
 20
113.23264
 30
0.0
 11
2787.887203
 21
113.641292
 31
0.0
  0
LINE
  5
153
330
10B
100
AcDbEntity
  8
0
  6
CONTINUOUS
 62
     5
100
AcDbLine
 10
2787.936412
 20
113.639956
 30
0.0
 11
2782.936412
 21
113.735249
 31
0.0
  0
LINE
  5
154
330
10B
100
AcDbEntity
  8
0
  6
CONTINUOUS
 62
     5
100
AcDbLine
 10
2782.936412
 20
114.197581
 30
0.0
 11
2782.936412
 21
113.735249
 31
0.0
  0
LINE
  5
155
330
10B
100
AcDbEntity
  8
0
  6
CONTINUOUS
 62
     5
100
AcDbLine
 10
2840.436412
 20
106.23264
 30
0.0
 11
2831.593854
 21
108.543302
 31
0.0
  0
LINE
  5
156
330
10B
100
AcDbEntity
  8
0
  6
CONTINUOUS
 62
     5
100
AcDbLine
 10
2817.782649
 20
111.878304
 30
0.0
 11
2827.936412
 21
109.90592
 31
0.0
  0
LINE
  5
157
330
10B
100
AcDbEntity
  8
0
  6
CONTINUOUS
 62
     5
100
AcDbLine
 10
2827.936412
 20
109.90592
 30
0.0
 11
2831.593854
 21
108.543302
 31
0.0
  0
LINE
  5
158
330
10B
100
AcDbEntity
  8
0
  6
CONTINUOUS
 62
     5
100
AcDbLine
 10
2840.436412
 20
106.23264
 30
0.0
 11
2840.143795
 21
105.393534
 31
0.0
  0
LINE
  5
159
330
10B
100
AcDbEntity
  8
0
  6
CONTINUOUS
 62
     5
100
AcDbLine
 10
2849.936412
 20
100.73264
 30
0.0
 11
2849.630385
 21
101.961621
 31
0.0
  0
LINE
  5
15A
330
10B
100
AcDbEntity
  8
0
  6
CONTINUOUS
 62
     5
100
AcDbLine
 10
2840.143795
 20
105.393534
 30
0.0
 11
2849.630385
 21
101.961621
 31
0.0
  0
LINE
  5
15B
330
10B
100
AcDbEntity
  8
0
  6
CONTINUOUS
 62
     5
100
AcDbLine
 10
2786.436412
 20
106.23264
 30
0.0
 11
2788.85945
 21
106.23264
 31
0.0
  0
LINE
  5
15C
330
10B
100
AcDbEntity
  8
0
  6
CONTINUOUS
 62
     5
100
AcDbLine
 10
2808.936412
 20
106.665135
 30
0.0
 11
2808.936412
 21
106.23264
 31
0.0
  0
LINE
  5
15D
330
10B
100
AcDbEntity
  8
0
  6
CONTINUOUS
 62
     5
100
AcDbLine
 10
2807.936412
 20
107.199576
 30
0.0
 11
2806.225133
 21
107.836755
 31
0.0
  0
LINE
  5
15E
330
10B
100
AcDbEntity
  8
0
  6
CONTINUOUS
 62
     5
100
AcDbLine
 10
2806.225133
 20
107.836755
 30
0.0
 11
2805.115077
 21
107.887212
 31
0.0
  0
LINE
  5
15F
330
10B
100
AcDbEntity
  8
0
  6
CONTINUOUS
 62
     5
100
AcDbLine
 10
2805.115077
 20
107.887212
 30
0.0
 11
2804.635735
 21
107.634926
 31
0.0
  0
LINE
  5
160
330
10B
100
AcDbEntity
  8
0
  6
CONTINUOUS
 62
     5
100
AcDbLine
 10
2804.635735
 20
107.634926
 30
0.0
 11
2804.534821
 21
107.23127
 31
0.0
  0
LINE
  5
161
330
10B
100
AcDbEntity
  8
0
  6
CONTINUOUS
 62
     5
100
AcDbLine
 10
2804.534821
 20
107.23127
 30
0.0
 11
2804.988934
 21
106.928527
 31
0.0
  0
LINE
  5
162
330
10B
100
AcDbEntity
  8
0
  6
CONTINUOUS
 62
     5
100
AcDbLine
 10
2804.988934
 20
106.928527
 30
0.0
 11
2806.62879
 21
106.777156
 31
0.0
  0
LINE
  5
163
330
10B
100
AcDbEntity
  8
0
  6
CONTINUOUS
 62
     5
100
AcDbLine
 10
2806.62879
 20
106.777156
 30
0.0
 11
2808.936412
 21
106.665135
 31
0.0
  0
LINE
  5
164
330
10B
100
AcDbEntity
  8
0
  6
CONTINUOUS
 62
     5
100
AcDbLine
 10
2849.936412
 20
100.73264
 30
0.0
 11
2846.96087
 21
101.919221
 31
0.0
  0
LINE
  5
165
330
10B
100
AcDbEntity
  8
0
  6
CONTINUOUS
 62
     5
100
AcDbLine
 10
2846.96087
 20
101.919221
 30
0.0
 11
2836.90518
 21
103.762097
 31
0.0
  0
LINE
  5
166
330
10B
100
AcDbEntity
  8
0
  6
CONTINUOUS
 62
     5
100
AcDbLine
 10
2836.90518
 20
103.762097
 30
0.0
 11
2831.8794
 21
104.921892
 31
0.0
  0
LINE
  5
167
330
10B
100
AcDbEntity
  8
0
  6
CONTINUOUS
 62
     5
100
AcDbLine
 10
2809.470633
 20
107.23264
 30
0.0
 11
2821.236299
 21
107.23264
 31
0.0
  0
LINE
  5
168
330
10B
100
AcDbEntity
  8
0
  6
CONTINUOUS
 62
     5
100
AcDbLine
 10
2807.936412
 20
107.199576
 30
0.0
 11
2808.461072
 21
106.891109
 31
0.0
  0
LINE
  5
169
330
10B
100
AcDbEntity
  8
0
  6
CONTINUOUS
 62
     5
100
AcDbLine
 10
2808.461072
 20
106.891109
 30
0.0
 11
2808.757884
 21
106.802065
 31
0.0
  0
LINE
  5
16A
330
10B
100
AcDbEntity
  8
0
  6
CONTINUOUS
 62
     5
100
AcDbLine
 10
2808.757884
 20
106.802065
 30
0.0
 11
2808.936412
 21
106.827236
 31
0.0
  0
LINE
  5
16B
330
10B
100
AcDbEntity
  8
0
  6
CONTINUOUS
 62
     5
100
AcDbLine
 10
2808.936412
 20
106.827236
 30
0.0
 11
2809.470633
 21
107.23264
 31
0.0
  0
LINE
  5
16C
330
10B
100
AcDbEntity
  8
0
  6
CONTINUOUS
 62
     5
100
AcDbLine
 10
2821.236299
 20
107.23264
 30
0.0
 11
2825.686568
 21
106.203814
 31
0.0
  0
LINE
  5
16D
330
10B
100
AcDbEntity
  8
0
  6
CONTINUOUS
 62
     5
100
AcDbLine
 10
2825.686568
 20
106.203814
 30
0.0
 11
2829.83976
 21
105.038665
 31
0.0
  0
LINE
  5
16E
330
10B
100
AcDbEntity
  8
0
  6
CONTINUOUS
 62
     5
100
AcDbLine
 10
2829.83976
 20
105.038665
 30
0.0
 11
2831.8794
 21
104.921892
 31
0.0
  0
LINE
  5
16F
330
10B
100
AcDbEntity
  8
0
  6
CONTINUOUS
 62
     5
100
AcDbLine
 10
2785.436412
 20
105.23264
 30
0.0
 11
2785.436412
 21
104.73264
 31
0.0
  0
LINE
  5
170
330
10B
100
AcDbEntity
  8
0
  6
CONTINUOUS
 62
     5
100
AcDbLine
 10
2782.936412
 20
104.73264
 30
0.0
 11
2785.436412
 21
104.73264
 31
0.0
  0
ARC
  5
171
330
10B
100
AcDbEntity
  8
0
  6
CONTINUOUS
 62
     5
100
AcDbCircle
 10
2786.436412
 20
105.23264
 30
0.0
 40
1.0
100
AcDbArc
 50
90.0
 51
180.0
  0
LINE
  5
172
330
10B
100
AcDbEntity
  8
0
  6
CONTINUOUS
 62
     5
100
AcDbLine
 10
2788.85945
 20
106.23264
 30
0.0
 11
2789.557007
 21
105.660643
 31
0.0
  0
LINE
  5
173
330
10B
100
AcDbEntity
  8
0
  6
CONTINUOUS
 62
     5
100
AcDbLine
 10
2790.159375
 20
105.636683
 30
0.0
 11
2791.016972
 21
106.23264
 31
0.0
  0
LINE
  5
174
330
10B
100
AcDbEntity
  8
0
  6
CONTINUOUS
 62
     5
100
AcDbLine
 10
2792.595368
 20
106.23264
 30
0.0
 11
2794.262494
 21
105.574564
 31
0.0
  0
LINE
  5
175
330
10B
100
AcDbEntity
  8
0
  6
CONTINUOUS
 62
     5
100
AcDbLine
 10
2794.686203
 20
105.601076
 30
0.0
 11
2795.83969
 21
106.23264
 31
0.0
  0
LINE
  5
176
330
10B
100
AcDbEntity
  8
0
  6
CONTINUOUS
 62
     5
100
AcDbLine
 10
2791.016972
 20
106.23264
 30
0.0
 11
2792.595368
 21
106.23264
 31
0.0
  0
LINE
  5
177
330
10B
100
AcDbEntity
  8
0
  6
CONTINUOUS
 62
     5
100
AcDbLine
 10
2795.83969
 20
106.23264
 30
0.0
 11
2808.936412
 21
106.23264
 31
0.0
  0
LINE
  5
178
330
10B
100
AcDbEntity
  8
0
  6
CONTINUOUS
 62
     5
100
AcDbLine
 10
2761.485395
 20
103.123813
 30
0.0
 11
2782.936412
 21
104.73264
 31
0.0
  0
LINE
  5
179
330
10B
100
AcDbEntity
  8
0
  6
CONTINUOUS
 62
     5
100
AcDbLine
 10
2757.484045
 20
103.209864
 30
0.0
 11
2761.485395
 21
103.123813
 31
0.0
  0
ARC
  5
17A
330
10B
100
AcDbEntity
  8
0
  6
CONTINUOUS
 62
     5
100
AcDbCircle
 10
2789.874047
 20
106.047277
 30
0.0
 40
0.5
100
AcDbArc
 50
230.648247
 51
304.796026
  0
ARC
  5
17B
330
10B
100
AcDbEntity
  8
0
  6
CONTINUOUS
 62
     5
100
AcDbCircle
 10
2794.446077
 20
106.039642
 30
0.0
 40
0.5
100
AcDbArc
 50
248.459024
 51
298.701829
  0
ARC
  5
17C
330
10B
100
AcDbEntity
  8
0
  6
CONTINUOUS
 62
     5
100
AcDbCircle
 10
2749.6918
 20
112.747751
 30
0.0
 40
0.3
100
AcDbArc
 50
275.906141
 51
36.869898
  0
ARC
  5
17D
330
10B
100
AcDbEntity
  8
0
  6
CONTINUOUS
 62
     5
100
AcDbCircle
 10
2749.226196
 20
114.679023
 30
0.0
 40
0.7
100
AcDbArc
 50
85.301319
 51
194.14298
  0
LINE
  5
17E
330
10B
100
AcDbEntity
  8
0
  6
CONTINUOUS
 62
     3
100
AcDbLine
 10
2781.418237
 20
97.465795
 30
0.0
 11
2789.528732
 21
97.465795
 31
0.0
  0
LINE
  5
17F
330
10B
100
AcDbEntity
  8
0
  6
CONTINUOUS
 62
     3
100
AcDbLine
 10
2775.00572
 20
95.865795
 30
0.0
 11
2792.649061
 21
95.865795
 31
0.0
  0
LINE
  5
180
330
10B
100
AcDbEntity
  8
0
  6
CONTINUOUS
 62
     3
100
AcDbLine
 10
2771.592781
 20
94.265795
 30
0.0
 11
2795.524426
 21
94.265795
 31
0.0
  0
LINE
  5
181
330
10B
100
AcDbEntity
  8
0
  6
CONTINUOUS
 62
     3
100
AcDbLine
 10
2769.357462
 20
92.665795
 30
0.0
 11
2797.367899
 21
92.665795
 31
0.0
  0
LINE
  5
182
330
10B
100
AcDbEntity
  8
0
  6
CONTINUOUS
 62
     3
100
AcDbLine
 10
2767.861806
 20
91.065795
 30
0.0
 11
2798.602184
 21
91.065795
 31
0.0
  0
LINE
  5
183
330
10B
100
AcDbEntity
  8
0
  6
CONTINUOUS
 62
     3
100
AcDbLine
 10
2766.641492
 20
89.465795
 30
0.0
 11
2799.651561
 21
89.465795
 31
0.0
  0
LINE
  5
184
330
10B
100
AcDbEntity
  8
0
  6
CONTINUOUS
 62
     3
100
AcDbLine
 10
2765.9496
 20
87.865795
 30
0.0
 11
2800.377436
 21
87.865795
 31
0.0
  0
LINE
  5
185
330
10B
100
AcDbEntity
  8
0
  6
CONTINUOUS
 62
     3
100
AcDbLine
 10
2765.257708
 20
86.265795
 30
0.0
 11
2800.715822
 21
86.265795
 31
0.0
  0
LINE
  5
186
330
10B
100
AcDbEntity
  8
0
  6
CONTINUOUS
 62
     3
100
AcDbLine
 10
2764.609358
 20
84.665795
 30
0.0
 11
2801.054208
 21
84.665795
 31
0.0
  0
LINE
  5
187
330
10B
100
AcDbEntity
  8
0
  6
CONTINUOUS
 62
     3
100
AcDbLine
 10
2764.287699
 20
83.065795
 30
0.0
 11
2801.392594
 21
83.065795
 31
0.0
  0
LINE
  5
188
330
10B
100
AcDbEntity
  8
0
  6
CONTINUOUS
 62
     3
100
AcDbLine
 10
2763.96604
 20
81.465795
 30
0.0
 11
2779.556283
 21
81.465795
 31
0.0
  0
LINE
  5
189
330
10B
100
AcDbEntity
  8
0
  6
CONTINUOUS
 62
     3
100
AcDbLine
 10
2763.644381
 20
79.865795
 30
0.0
 11
2778.024022
 21
79.865795
 31
0.0
  0
LINE
  5
18A
330
10B
100
AcDbEntity
  8
0
  6
CONTINUOUS
 62
     3
100
AcDbLine
 10
2763.322722
 20
78.265795
 30
0.0
 11
2777.235852
 21
78.265795
 31
0.0
  0
LINE
  5
18B
330
10B
100
AcDbEntity
  8
0
  6
CONTINUOUS
 62
     3
100
AcDbLine
 10
2763.081604
 20
76.665795
 30
0.0
 11
2776.917085
 21
76.665795
 31
0.0
  0
LINE
  5
18C
330
10B
100
AcDbEntity
  8
0
  6
CONTINUOUS
 62
     3
100
AcDbLine
 10
2762.961434
 20
75.065795
 30
0.0
 11
2776.967106
 21
75.065795
 31
0.0
  0
LINE
  5
18D
330
10B
100
AcDbEntity
  8
0
  6
CONTINUOUS
 62
     3
100
AcDbLine
 10
2762.936412
 20
73.465795
 30
0.0
 11
2777.513193
 21
73.465795
 31
0.0
  0
LINE
  5
18E
330
10B
100
AcDbEntity
  8
0
  6
CONTINUOUS
 62
     3
100
AcDbLine
 10
2763.4356
 20
71.865795
 30
0.0
 11
2779.543195
 21
71.865795
 31
0.0
  0
LINE
  5
18F
330
10B
100
AcDbEntity
  8
0
  6
CONTINUOUS
 62
     3
100
AcDbLine
 10
2764.146711
 20
70.265795
 30
0.0
 11
2796.674567
 21
70.265795
 31
0.0
  0
LINE
  5
190
330
10B
100
AcDbEntity
  8
0
  6
CONTINUOUS
 62
     3
100
AcDbLine
 10
2764.857823
 20
68.665795
 30
0.0
 11
2796.223285
 21
68.665795
 31
0.0
  0
LINE
  5
191
330
10B
100
AcDbEntity
  8
0
  6
CONTINUOUS
 62
     3
100
AcDbLine
 10
2765.568934
 20
67.065795
 30
0.0
 11
2795.500261
 21
67.065795
 31
0.0
  0
LINE
  5
192
330
10B
100
AcDbEntity
  8
0
  6
CONTINUOUS
 62
     3
100
AcDbLine
 10
2766.530893
 20
65.465795
 30
0.0
 11
2794.602074
 21
65.465795
 31
0.0
  0
LINE
  5
193
330
10B
100
AcDbEntity
  8
0
  6
CONTINUOUS
 62
     3
100
AcDbLine
 10
2767.779354
 20
63.865795
 30
0.0
 11
2793.097148
 21
63.865795
 31
0.0
  0
LINE
  5
194
330
10B
100
AcDbEntity
  8
0
  6
CONTINUOUS
 62
     3
100
AcDbLine
 10
2769.384774
 20
62.265795
 30
0.0
 11
2790.704687
 21
62.265795
 31
0.0
  0
LINE
  5
195
330
10B
100
AcDbEntity
  8
0
  6
CONTINUOUS
 62
     3
100
AcDbLine
 10
2771.531916
 20
60.665795
 30
0.0
 11
2787.579564
 21
60.665795
 31
0.0
  0
LINE
  5
196
330
10B
100
AcDbEntity
  8
0
  6
CONTINUOUS
 62
     3
100
AcDbLine
 10
2774.779606
 20
59.065795
 30
0.0
 11
2782.941415
 21
59.065795
 31
0.0
  0
LINE
  5
197
330
10B
100
AcDbEntity
  8
0
  6
CONTINUOUS
 62
     3
100
AcDbLine
 10
2784.748107
 20
81.465795
 30
0.0
 11
2801.567844
 21
81.465795
 31
0.0
  0
LINE
  5
198
330
10B
100
AcDbEntity
  8
0
  6
CONTINUOUS
 62
     3
100
AcDbLine
 10
2785.418851
 20
79.865795
 30
0.0
 11
2801.442074
 21
79.865795
 31
0.0
  0
LINE
  5
199
330
10B
100
AcDbEntity
  8
0
  6
CONTINUOUS
 62
     3
100
AcDbLine
 10
2785.530858
 20
78.265795
 30
0.0
 11
2801.316305
 21
78.265795
 31
0.0
  0
LINE
  5
19A
330
10B
100
AcDbEntity
  8
0
  6
CONTINUOUS
 62
     3
100
AcDbLine
 10
2785.285501
 20
76.665795
 30
0.0
 11
2800.602449
 21
76.665795
 31
0.0
  0
LINE
  5
19B
330
10B
100
AcDbEntity
  8
0
  6
CONTINUOUS
 62
     3
100
AcDbLine
 10
2784.633855
 20
75.065795
 30
0.0
 11
2799.881249
 21
75.065795
 31
0.0
  0
LINE
  5
19C
330
10B
100
AcDbEntity
  8
0
  6
CONTINUOUS
 62
     3
100
AcDbLine
 10
2783.500592
 20
73.465795
 30
0.0
 11
2798.947301
 21
73.465795
 31
0.0
  0
LINE
  5
19D
330
10B
100
AcDbEntity
  8
0
  6
CONTINUOUS
 62
     3
100
AcDbLine
 10
2781.244595
 20
71.865795
 30
0.0
 11
2797.676594
 21
71.865795
 31
0.0
  0
TEXT
  5
19E
330
10B
100
AcDbEntity
  8
0
  6
CONTINUOUS
 62
     5
100
AcDbText
 10
2802.108183
 20
79.47697
 30
0.0
 40
4.713448
  1
M
 41
1.300704
  7
ED_VECTOR
100
AcDbText
  0
TEXT
  5
19F
330
10B
100
AcDbEntity
  8
0
  6
CONTINUOUS
 62
     5
100
AcDbText
 10
2811.75957
 20
79.4187
 30
0.0
 40
4.626621
  1
T
 41
0.518801
  7
ED_VECTOR
100
AcDbText
  0
TEXT
  5
1A0
330
10B
100
AcDbEntity
  8
0
  6
CONTINUOUS
 62
     5
100
AcDbText
 10
2814.525133
 20
79.453499
 30
0.0
 40
4.696183
  1
E
 41
0.703702
  7
ED_VECTOR
100
AcDbText
  0
TEXT
  5
1A1
330
10B
100
AcDbEntity
  8
0
  6
CONTINUOUS
 62
     5
100
AcDbText
 10
2817.641314
 20
81.069343
 30
0.0
 40
0.348283
  1
-
 41
6.250213
  7
ED_VECTOR
100
AcDbText
  0
TEXT
  5
1A2
330
10B
100
AcDbEntity
  8
0
  6
CONTINUOUS
 62
     5
100
AcDbText
 10
2819.455523
 20
79.422152
 30
0.0
 40
4.861659
  1
H
 41
0.865668
  7
ED_VECTOR
100
AcDbText
  0
TEXT
  5
1A3
330
10B
100
AcDbEntity
  8
0
  6
CONTINUOUS
 62
     5
100
AcDbText
 10
2823.531538
 20
79.45253
 30
0.0
 40
4.843139
  1
A
 41
0.846157
  7
ED_VECTOR
100
AcDbText
  0
TEXT
  5
1A4
330
10B
100
AcDbEntity
  8
0
  6
CONTINUOUS
 62
     5
100
AcDbText
 10
2827.237694
 20
79.411004
 30
0.0
 40
4.825362
  1
N
 41
0.993429
  7
ED_VECTOR
100
AcDbText
  0
TEXT
  5
1A5
330
10B
100
AcDbEntity
  8
0
  6
CONTINUOUS
 62
     5
100
AcDbText
 10
2808.029152
 20
79.388431
 30
0.0
 40
4.982325
  1
A
 41
0.784962
  7
ED_VECTOR
100
AcDbText
  0
TEXT
  5
1A6
330
10B
100
AcDbEntity
  8
0
  6
CONTINUOUS
 62
     5
100
AcDbText
 10
2802.475197
 20
72.393191
 30
0.0
 40
4.982325
  1
A
 41
0.784962
  7
ED_VECTOR
100
AcDbText
  0
TEXT
  5
1A7
330
10B
100
AcDbEntity
  8
0
  6
CONTINUOUS
 62
     5
100
AcDbText
 10
2815.259621
 20
72.421512
 30
0.0
 40
4.982325
  1
A
 41
0.784962
  7
ED_VECTOR
100
AcDbText
  0
TEXT
  5
1A8
330
10B
100
AcDbEntity
  8
0
  6
CONTINUOUS
 62
     5
100
AcDbText
 10
2819.020165
 20
72.478509
 30
0.0
 40
4.825362
  1
N
 41
0.993429
  7
ED_VECTOR
100
AcDbText
  0
TEXT
  5
1A9
330
10B
100
AcDbEntity
  8
0
  6
CONTINUOUS
 62
     5
100
AcDbText
 10
2827.922501
 20
72.486903
 30
0.0
 40
4.841775
  1
E
 41
0.789479
  7
ED_VECTOR
100
AcDbText
  0
TEXT
  5
1AA
330
10B
100
AcDbEntity
  8
0
  6
CONTINUOUS
 62
     5
100
AcDbText
 10
2806.75575
 20
72.391867
 30
0.0
 40
4.947865
  1
D
 41
0.729328
  7
ED_VECTOR
100
AcDbText
  0
TEXT
  5
1AB
330
10B
100
AcDbEntity
  8
0
  6
CONTINUOUS
 62
     5
100
AcDbText
 10
2811.158109
 20
72.386482
 30
0.0
 40
4.92421
  1
V
 41
0.818797
  7
ED_VECTOR
100
AcDbText
  0
TEXT
  5
1AC
330
10B
100
AcDbEntity
  8
0
  6
CONTINUOUS
 62
     5
100
AcDbText
 10
2823.38331
 20
72.407213
 30
0.0
 40
5.032894
  1
C
 41
0.987349
  7
ED_VECTOR
100
AcDbText
  0
LINE
  5
1AD
330
10B
100
AcDbEntity
  8
0
  6
CONTINUOUS
 62
     5
100
AcDbLine
 10
2814.013749
 20
83.467612
 30
0.0
 11
2813.001687
 21
83.467612
 31
0.0
  0
LINE
  5
1AE
330
10B
100
AcDbEntity
  8
0
  6
CONTINUOUS
 62
     3
100
AcDbLine
 10
2763.111987
 20
117.692883
 30
0.0
 11
2812.909813
 21
117.692883
 31
0.0
  0
LINE
  5
1AF
330
10B
100
AcDbEntity
  8
0
  6
CONTINUOUS
 62
     3
100
AcDbLine
 10
2755.999623
 20
116.092883
 30
0.0
 11
2823.989505
 21
116.092883
 31
0.0
  0
LINE
  5
1B0
330
10B
100
AcDbEntity
  8
0
  6
CONTINUOUS
 62
     3
100
AcDbLine
 10
2748.551219
 20
114.492883
 30
0.0
 11
2793.974529
 21
114.492883
 31
0.0
  0
LINE
  5
1B1
330
10B
100
AcDbEntity
  8
0
  6
CONTINUOUS
 62
     3
100
AcDbLine
 10
2806.936079
 20
114.492883
 30
0.0
 11
2816.522682
 21
114.492883
 31
0.0
  0
LINE
  5
1B2
330
10B
100
AcDbEntity
  8
0
  6
CONTINUOUS
 62
     3
100
AcDbLine
 10
2820.831816
 20
114.492883
 30
0.0
 11
2829.344813
 21
114.492883
 31
0.0
  0
LINE
  5
1B3
330
10B
100
AcDbEntity
  8
0
  6
CONTINUOUS
 62
     3
100
AcDbLine
 10
2749.954358
 20
112.892883
 30
0.0
 11
2806.660827
 21
112.892883
 31
0.0
  0
LINE
  5
1B4
330
10B
100
AcDbEntity
  8
0
  6
CONTINUOUS
 62
     3
100
AcDbLine
 10
2826.840965
 20
112.892883
 30
0.0
 11
2832.947211
 21
112.892883
 31
0.0
  0
LINE
  5
1B5
330
10B
100
AcDbEntity
  8
0
  6
CONTINUOUS
 62
     3
100
AcDbLine
 10
2748.042024
 20
111.292883
 30
0.0
 11
2820.796375
 21
111.292883
 31
0.0
  0
LINE
  5
1B6
330
10B
100
AcDbEntity
  8
0
  6
CONTINUOUS
 62
     3
100
AcDbLine
 10
2832.742264
 20
111.292883
 30
0.0
 11
2834.975986
 21
111.292883
 31
0.0
  0
LINE
  5
1B7
330
10B
100
AcDbEntity
  8
0
  6
CONTINUOUS
 62
     3
100
AcDbLine
 10
2746.979799
 20
109.692883
 30
0.0
 11
2828.508231
 21
109.692883
 31
0.0
  0
LINE
  5
1B8
330
10B
100
AcDbEntity
  8
0
  6
CONTINUOUS
 62
     3
100
AcDbLine
 10
2748.655466
 20
108.092883
 30
0.0
 11
2833.31754
 21
108.092883
 31
0.0
  0
LINE
  5
1B9
330
10B
100
AcDbEntity
  8
0
  6
CONTINUOUS
 62
     3
100
AcDbLine
 10
2749.823033
 20
106.492883
 30
0.0
 11
2808.936412
 21
106.492883
 31
0.0
  0
LINE
  5
1BA
330
10B
100
AcDbEntity
  8
0
  6
CONTINUOUS
 62
     3
100
AcDbLine
 10
2824.436177
 20
106.492883
 30
0.0
 11
2839.4405
 21
106.492883
 31
0.0
  0
LINE
  5
1BB
330
10B
100
AcDbEntity
  8
0
  6
CONTINUOUS
 62
     3
100
AcDbLine
 10
2750.068157
 20
104.892883
 30
0.0
 11
2785.436412
 21
104.892883
 31
0.0
  0
LINE
  5
1BC
330
10B
100
AcDbEntity
  8
0
  6
CONTINUOUS
 62
     3
100
AcDbLine
 10
2832.005106
 20
104.892883
 30
0.0
 11
2841.527709
 21
104.892883
 31
0.0
  0
LINE
  5
1BD
330
10B
100
AcDbEntity
  8
0
  6
CONTINUOUS
 62
     3
100
AcDbLine
 10
2750.274482
 20
103.292883
 30
0.0
 11
2763.739655
 21
103.292883
 31
0.0
  0
LINE
  5
1BE
330
10B
100
AcDbEntity
  8
0
  6
CONTINUOUS
 62
     3
100
AcDbLine
 10
2839.465455
 20
103.292883
 30
0.0
 11
2845.950473
 21
103.292883
 31
0.0
  0
LINE
  5
1BF
330
10B
100
AcDbEntity
  8
0
  6
CONTINUOUS
 62
     3
100
AcDbLine
 10
2847.528449
 20
101.692883
 30
0.0
 11
2849.697303
 21
101.692883
 31
0.0
  0
ENDBLK
  5
10D
330
10B
100
AcDbEntity
  8
0
100
AcDbBlockEnd
  0
BLOCK
  5
1C1
330
1C0
100
AcDbEntity
  8
0
100
AcDbBlockBegin
  2
BLKF015
 70
     0
 10
0.0
 20
0.0
 30
0.0
  3
BLKF015
  1

  0
LINE
  5
1C4
330
1C0
100
AcDbEntity
  8
0
  6
CONTINUOUS
 62
     3
100
AcDbLine
 10
1057.305833
 20
1844.511714
 30
0.0
 11
1057.305833
 21
1782.511714
 31
0.0
  0
LINE
  5
1C5
330
1C0
100
AcDbEntity
  8
0
  6
CONTINUOUS
 62
     3
100
AcDbLine
 10
1054.805833
 20
1847.011714
 30
0.0
 11
969.805833
 21
1847.011714
 31
0.0
  0
LINE
  5
1C6
330
1C0
100
AcDbEntity
  8
0
  6
CENTER
 62
     5
100
AcDbLine
 10
1115.655472
 20
1774.511714
 30
0.0
 11
1057.305833
 21
1774.511714
 31
0.0
  0
LINE
  5
1C7
330
1C0
100
AcDbEntity
  8
0
  6
CONTINUOUS
 62
     2
100
AcDbLine
 10
1054.805833
 20
1790.511714
 30
0.0
 11
969.805833
 21
1790.511714
 31
0.0
  0
LINE
  5
1C8
330
1C0
100
AcDbEntity
  8
0
  6
CONTINUOUS
 62
     3
100
AcDbLine
 10
1054.805833
 20
1842.011714
 30
0.0
 11
1054.805833
 21
1797.011714
 31
0.0
  0
LINE
  5
1C9
330
1C0
100
AcDbEntity
  8
0
  6
CONTINUOUS
 62
     3
100
AcDbLine
 10
967.305833
 20
1844.511714
 30
0.0
 11
967.305833
 21
1774.511714
 31
0.0
  0
LINE
  5
1CA
330
1C0
100
AcDbEntity
  8
0
  6
CONTINUOUS
 62
     3
100
AcDbLine
 10
1052.305833
 20
1844.511714
 30
0.0
 11
975.305833
 21
1844.511714
 31
0.0
  0
LINE
  5
1CB
330
1C0
100
AcDbEntity
  8
0
  6
CONTINUOUS
 62
     3
100
AcDbLine
 10
1052.305833
 20
1794.511714
 30
0.0
 11
975.305833
 21
1794.511714
 31
0.0
  0
ARC
  5
1CC
330
1C0
100
AcDbEntity
  8
0
  6
CONTINUOUS
 62
     3
100
AcDbCircle
 10
1029.374015
 20
1819.511714
 30
0.0
 40
59.56818181817743
100
AcDbArc
 50
155.185163
 51
204.814837
  0
ARC
  5
1CD
330
1C0
100
AcDbEntity
  8
0
  6
CONTINUOUS
 62
     3
100
AcDbCircle
 10
1052.305833
 20
1842.011714
 30
0.0
 40
2.5
100
AcDbArc
 50
0.0
 51
90.0
  0
ARC
  5
1CE
330
1C0
100
AcDbEntity
  8
0
  6
CONTINUOUS
 62
     3
100
AcDbCircle
 10
1052.305833
 20
1797.011714
 30
0.0
 40
2.5
100
AcDbArc
 50
270.0
 51
0.0
  0
ARC
  5
1CF
330
1C0
100
AcDbEntity
  8
0
  6
CONTINUOUS
 62
     3
100
AcDbCircle
 10
1054.805833
 20
1844.511714
 30
0.0
 40
2.5
100
AcDbArc
 50
0.0
 51
90.0
  0
ARC
  5
1D0
330
1C0
100
AcDbEntity
  8
0
  6
CONTINUOUS
 62
     3
100
AcDbCircle
 10
969.805833
 20
1844.511714
 30
0.0
 40
2.5
100
AcDbArc
 50
90.0
 51
180.0
  0
ARC
  5
1D1
330
1C0
100
AcDbEntity
  8
0
  6
CONTINUOUS
 62
     2
100
AcDbCircle
 10
969.805833
 20
1788.011714
 30
0.0
 40
2.5
100
AcDbArc
 50
90.0
 51
180.0
  0
ARC
  5
1D2
330
1C0
100
AcDbEntity
  8
0
  6
CONTINUOUS
 62
     2
100
AcDbCircle
 10
1054.805833
 20
1788.011714
 30
0.0
 40
2.5
100
AcDbArc
 50
0.0
 51
90.0
  0
LINE
  5
1D3
330
1C0
100
AcDbEntity
  8
0
  6
CONTINUOUS
 62
     3
100
AcDbLine
 10
1057.305833
 20
1704.511714
 30
0.0
 11
1057.305833
 21
1766.511714
 31
0.0
  0
LINE
  5
1D4
330
1C0
100
AcDbEntity
  8
0
  6
CONTINUOUS
 62
     3
100
AcDbLine
 10
1054.805833
 20
1702.011714
 30
0.0
 11
969.805833
 21
1702.011714
 31
0.0
  0
LINE
  5
1D5
330
1C0
100
AcDbEntity
  8
0
  6
CONTINUOUS
 62
     2
100
AcDbLine
 10
1054.805833
 20
1758.511714
 30
0.0
 11
969.805833
 21
1758.511714
 31
0.0
  0
LINE
  5
1D6
330
1C0
100
AcDbEntity
  8
0
  6
CONTINUOUS
 62
     3
100
AcDbLine
 10
967.305833
 20
1704.511714
 30
0.0
 11
967.305833
 21
1774.511714
 31
0.0
  0
ARC
  5
1D7
330
1C0
100
AcDbEntity
  8
0
  6
CONTINUOUS
 62
     3
100
AcDbCircle
 10
1054.805833
 20
1704.511714
 30
0.0
 40
2.5
100
AcDbArc
 50
270.0
 51
0.0
  0
ARC
  5
1D8
330
1C0
100
AcDbEntity
  8
0
  6
CONTINUOUS
 62
     3
100
AcDbCircle
 10
969.805833
 20
1704.511714
 30
0.0
 40
2.5
100
AcDbArc
 50
180.0
 51
270.0
  0
ARC
  5
1D9
330
1C0
100
AcDbEntity
  8
0
  6
CONTINUOUS
 62
     2
100
AcDbCircle
 10
969.805833
 20
1761.011714
 30
0.0
 40
2.5
100
AcDbArc
 50
180.0
 51
270.0
  0
ARC
  5
1DA
330
1C0
100
AcDbEntity
  8
0
  6
CONTINUOUS
 62
     2
100
AcDbCircle
 10
1054.805833
 20
1761.011714
 30
0.0
 40
2.5
100
AcDbArc
 50
270.0
 51
0.0
  0
LINE
  5
1DB
330
1C0
100
AcDbEntity
  8
0
  6
CONTINUOUS
 62
     3
100
AcDbLine
 10
1054.805833
 20
1707.011714
 30
0.0
 11
1054.805833
 21
1752.011714
 31
0.0
  0
LINE
  5
1DC
330
1C0
100
AcDbEntity
  8
0
  6
CONTINUOUS
 62
     3
100
AcDbLine
 10
1052.305833
 20
1704.511714
 30
0.0
 11
975.305833
 21
1704.511714
 31
0.0
  0
LINE
  5
1DD
330
1C0
100
AcDbEntity
  8
0
  6
CONTINUOUS
 62
     3
100
AcDbLine
 10
1052.305833
 20
1754.511714
 30
0.0
 11
975.305833
 21
1754.511714
 31
0.0
  0
ARC
  5
1DE
330
1C0
100
AcDbEntity
  8
0
  6
CONTINUOUS
 62
     3
100
AcDbCircle
 10
1029.374015
 20
1729.511714
 30
0.0
 40
59.56818181817743
100
AcDbArc
 50
155.185163
 51
204.814837
  0
ARC
  5
1DF
330
1C0
100
AcDbEntity
  8
0
  6
CONTINUOUS
 62
     3
100
AcDbCircle
 10
1052.305833
 20
1707.011714
 30
0.0
 40
2.5
100
AcDbArc
 50
270.0
 51
0.0
  0
ARC
  5
1E0
330
1C0
100
AcDbEntity
  8
0
  6
CONTINUOUS
 62
     3
100
AcDbCircle
 10
1052.305833
 20
1752.011714
 30
0.0
 40
2.5
100
AcDbArc
 50
0.0
 51
90.0
  0
LINE
  5
1E1
330
1C0
100
AcDbEntity
  8
0
  6
CONTINUOUS
 62
     3
100
AcDbLine
 10
1064.305833
 20
1767.511714
 30
0.0
 11
1064.305833
 21
1771.011714
 31
0.0
  0
LINE
  5
1E2
330
1C0
100
AcDbEntity
  8
0
  6
CONTINUOUS
 62
     3
100
AcDbLine
 10
1115.655472
 20
1771.011714
 30
0.0
 11
1064.305833
 21
1771.011714
 31
0.0
  0
LINE
  5
1E3
330
1C0
100
AcDbEntity
  8
0
  6
CONTINUOUS
 62
     3
100
AcDbLine
 10
1063.305833
 20
1766.511714
 30
0.0
 11
1057.305833
 21
1766.511714
 31
0.0
  0
LINE
  5
1E4
330
1C0
100
AcDbEntity
  8
0
  6
CONTINUOUS
 62
     3
100
AcDbLine
 10
1063.305833
 20
1782.511714
 30
0.0
 11
1057.305833
 21
1782.511714
 31
0.0
  0
LINE
  5
1E5
330
1C0
100
AcDbEntity
  8
0
  6
CONTINUOUS
 62
     3
100
AcDbLine
 10
1115.655472
 20
1778.011714
 30
0.0
 11
1064.305833
 21
1778.011714
 31
0.0
  0
ARC
  5
1E6
330
1C0
100
AcDbEntity
  8
0
  6
CONTINUOUS
 62
     3
100
AcDbCircle
 10
1063.305833
 20
1781.511714
 30
0.0
 40
1.0
100
AcDbArc
 50
0.0
 51
90.0
  0
ARC
  5
1E7
330
1C0
100
AcDbEntity
  8
0
  6
CONTINUOUS
 62
     3
100
AcDbCircle
 10
1063.305833
 20
1767.511714
 30
0.0
 40
1.0
100
AcDbArc
 50
270.0
 51
0.0
  0
LINE
  5
1E8
330
1C0
100
AcDbEntity
  8
0
  6
CONTINUOUS
 62
     3
100
AcDbLine
 10
1064.305833
 20
1778.011714
 30
0.0
 11
1064.305833
 21
1781.511714
 31
0.0
  0
LINE
  5
1E9
330
1C0
100
AcDbEntity
  8
0
  6
CONTINUOUS
 62
     2
100
AcDbLine
 10
1064.305833
 20
1771.011714
 30
0.0
 11
1064.305833
 21
1778.011714
 31
0.0
  0
LINE
  5
1EA
330
1C0
100
AcDbEntity
  8
0
  6
CONTINUOUS
 62
     2
100
AcDbLine
 10
1057.305833
 20
1782.511714
 30
0.0
 11
1057.305833
 21
1774.511714
 31
0.0
  0
LINE
  5
1EB
330
1C0
100
AcDbEntity
  8
0
  6
CONTINUOUS
 62
     2
100
AcDbLine
 10
1057.305833
 20
1766.511714
 30
0.0
 11
1057.305833
 21
1774.511714
 31
0.0
  0
LINE
  5
1EC
330
1C0
100
AcDbEntity
  8
0
  6
CONTINUOUS
 62
     2
100
AcDbLine
 10
1037.812822
 20
1786.674374
 30
0.0
 11
1046.947822
 21
1786.674374
 31
0.0
  0
LINE
  5
1ED
330
1C0
100
AcDbEntity
  8
0
  6
CONTINUOUS
 62
     2
100
AcDbLine
 10
1037.812822
 20
1763.049374
 30
0.0
 11
1046.947822
 21
1763.049374
 31
0.0
  0
LINE
  5
1EE
330
1C0
100
AcDbEntity
  8
0
  6
CONTINUOUS
 62
     2
100
AcDbLine
 10
1048.207822
 20
1785.414374
 30
0.0
 11
1048.207822
 21
1764.309374
 31
0.0
  0
LINE
  5
1EF
330
1C0
100
AcDbEntity
  8
0
  6
CONTINUOUS
 62
     2
100
AcDbLine
 10
1036.552822
 20
1785.414374
 30
0.0
 11
1036.552822
 21
1764.309374
 31
0.0
  0
LINE
  5
1F0
330
1C0
100
AcDbEntity
  8
0
  6
CONTINUOUS
 62
     2
100
AcDbLine
 10
1038.442822
 20
1764.939374
 30
0.0
 11
1046.475322
 21
1764.939374
 31
0.0
  0
LINE
  5
1F1
330
1C0
100
AcDbEntity
  8
0
  6
CONTINUOUS
 62
     2
100
AcDbLine
 10
1038.442822
 20
1768.089374
 30
0.0
 11
1039.387822
 21
1768.089374
 31
0.0
  0
LINE
  5
1F2
330
1C0
100
AcDbEntity
  8
0
  6
CONTINUOUS
 62
     2
100
AcDbLine
 10
1038.442822
 20
1776.751874
 30
0.0
 11
1039.387822
 21
1776.751874
 31
0.0
  0
LINE
  5
1F3
330
1C0
100
AcDbEntity
  8
0
  6
CONTINUOUS
 62
     2
100
AcDbLine
 10
1038.442822
 20
1781.319374
 30
0.0
 11
1043.482822
 21
1781.319374
 31
0.0
  0
LINE
  5
1F4
330
1C0
100
AcDbEntity
  8
0
  6
CONTINUOUS
 62
     2
100
AcDbLine
 10
1037.340322
 20
1780.216874
 30
0.0
 11
1037.340322
 21
1777.854374
 31
0.0
  0
LINE
  5
1F5
330
1C0
100
AcDbEntity
  8
0
  6
CONTINUOUS
 62
     2
100
AcDbLine
 10
1044.585322
 20
1780.216874
 30
0.0
 11
1044.585322
 21
1777.854374
 31
0.0
  0
LINE
  5
1F6
330
1C0
100
AcDbEntity
  8
0
  6
CONTINUOUS
 62
     2
100
AcDbLine
 10
1047.577822
 20
1766.986874
 30
0.0
 11
1047.577822
 21
1766.041874
 31
0.0
  0
LINE
  5
1F7
330
1C0
100
AcDbEntity
  8
0
  6
CONTINUOUS
 62
     2
100
AcDbLine
 10
1040.332822
 20
1775.806874
 30
0.0
 11
1040.332822
 21
1769.034374
 31
0.0
  0
LINE
  5
1F8
330
1C0
100
AcDbEntity
  8
0
  6
CONTINUOUS
 62
     2
100
AcDbLine
 10
1041.120322
 20
1775.806874
 30
0.0
 11
1041.120322
 21
1769.034374
 31
0.0
  0
ARC
  5
1F9
330
1C0
100
AcDbEntity
  8
0
  6
CONTINUOUS
 62
     2
100
AcDbCircle
 10
1038.442822
 20
1780.216874
 30
0.0
 40
1.1025
100
AcDbArc
 50
90.0
 51
180.0
  0
ARC
  5
1FA
330
1C0
100
AcDbEntity
  8
0
  6
CONTINUOUS
 62
     2
100
AcDbCircle
 10
1043.482822
 20
1780.216874
 30
0.0
 40
1.1025
100
AcDbArc
 50
0.0
 51
90.0
  0
ARC
  5
1FB
330
1C0
100
AcDbEntity
  8
0
  6
CONTINUOUS
 62
     2
100
AcDbCircle
 10
1043.482822
 20
1777.854374
 30
0.0
 40
1.1025
100
AcDbArc
 50
270.0
 51
0.0
  0
ARC
  5
1FC
330
1C0
100
AcDbEntity
  8
0
  6
CONTINUOUS
 62
     2
100
AcDbCircle
 10
1038.442822
 20
1777.854374
 30
0.0
 40
1.1025
100
AcDbArc
 50
180.0
 51
270.0
  0
ARC
  5
1FD
330
1C0
100
AcDbEntity
  8
0
  6
CONTINUOUS
 62
     2
100
AcDbCircle
 10
1046.475322
 20
1766.986874
 30
0.0
 40
1.1025
100
AcDbArc
 50
0.0
 51
90.0
  0
ARC
  5
1FE
330
1C0
100
AcDbEntity
  8
0
  6
CONTINUOUS
 62
     2
100
AcDbCircle
 10
1046.475322
 20
1766.041874
 30
0.0
 40
1.1025
100
AcDbArc
 50
270.0
 51
0.0
  0
ARC
  5
1FF
330
1C0
100
AcDbEntity
  8
0
  6
CONTINUOUS
 62
     2
100
AcDbCircle
 10
1038.442822
 20
1766.041874
 30
0.0
 40
1.1025
100
AcDbArc
 50
180.0
 51
270.0
  0
ARC
  5
200
330
1C0
100
AcDbEntity
  8
0
  6
CONTINUOUS
 62
     2
100
AcDbCircle
 10
1038.442822
 20
1766.986874
 30
0.0
 40
1.1025
100
AcDbArc
 50
90.0
 51
180.0
  0
LINE
  5
201
330
1C0
100
AcDbEntity
  8
0
  6
CONTINUOUS
 62
     2
100
AcDbLine
 10
1042.065322
 20
1776.751874
 30
0.0
 11
1043.482822
 21
1776.751874
 31
0.0
  0
LINE
  5
202
330
1C0
100
AcDbEntity
  8
0
  6
CONTINUOUS
 62
     2
100
AcDbLine
 10
1042.065322
 20
1768.089374
 30
0.0
 11
1046.475322
 21
1768.089374
 31
0.0
  0
ARC
  5
203
330
1C0
100
AcDbEntity
  8
0
  6
CONTINUOUS
 62
     2
100
AcDbCircle
 10
1039.387822
 20
1775.806874
 30
0.0
 40
0.945
100
AcDbArc
 50
0.0
 51
90.0
  0
ARC
  5
204
330
1C0
100
AcDbEntity
  8
0
  6
CONTINUOUS
 62
     2
100
AcDbCircle
 10
1042.065322
 20
1775.806874
 30
0.0
 40
0.945
100
AcDbArc
 50
90.0
 51
180.0
  0
ARC
  5
205
330
1C0
100
AcDbEntity
  8
0
  6
CONTINUOUS
 62
     2
100
AcDbCircle
 10
1042.065322
 20
1769.034374
 30
0.0
 40
0.945
100
AcDbArc
 50
180.0
 51
270.0
  0
ARC
  5
206
330
1C0
100
AcDbEntity
  8
0
  6
CONTINUOUS
 62
     2
100
AcDbCircle
 10
1037.812822
 20
1785.414374
 30
0.0
 40
1.26
100
AcDbArc
 50
90.0
 51
180.0
  0
ARC
  5
207
330
1C0
100
AcDbEntity
  8
0
  6
CONTINUOUS
 62
     2
100
AcDbCircle
 10
1046.947822
 20
1785.414374
 30
0.0
 40
1.26
100
AcDbArc
 50
0.0
 51
90.0
  0
ARC
  5
208
330
1C0
100
AcDbEntity
  8
0
  6
CONTINUOUS
 62
     2
100
AcDbCircle
 10
1046.947822
 20
1764.309374
 30
0.0
 40
1.26
100
AcDbArc
 50
270.0
 51
0.0
  0
ARC
  5
209
330
1C0
100
AcDbEntity
  8
0
  6
CONTINUOUS
 62
     2
100
AcDbCircle
 10
1037.812822
 20
1764.309374
 30
0.0
 40
1.26
100
AcDbArc
 50
180.0
 51
270.0
  0
ARC
  5
20A
330
1C0
100
AcDbEntity
  8
0
  6
CONTINUOUS
 62
     2
100
AcDbCircle
 10
1039.387822
 20
1769.034374
 30
0.0
 40
0.945
100
AcDbArc
 50
270.0
 51
0.0
  0
LINE
  5
20B
330
1C0
100
AcDbEntity
  8
0
  6
CONTINUOUS
 62
     2
100
AcDbLine
 10
1037.340322
 20
1766.986874
 30
0.0
 11
1037.340322
 21
1766.041874
 31
0.0
  0
CIRCLE
  5
20C
330
1C0
100
AcDbEntity
  8
0
  6
CONTINUOUS
 62
     2
100
AcDbCircle
 10
1022.805833
 20
1824.511714
 30
0.0
 40
2.5
  0
CIRCLE
  5
20D
330
1C0
100
AcDbEntity
  8
0
  6
CONTINUOUS
 62
     2
100
AcDbCircle
 10
1022.805833
 20
1834.511714
 30
0.0
 40
2.5
  0
CIRCLE
  5
20E
330
1C0
100
AcDbEntity
  8
0
  6
CONTINUOUS
 62
     2
100
AcDbCircle
 10
1012.805833
 20
1834.511714
 30
0.0
 40
2.5
  0
CIRCLE
  5
20F
330
1C0
100
AcDbEntity
  8
0
  6
CONTINUOUS
 62
     2
100
AcDbCircle
 10
1012.805833
 20
1824.511714
 30
0.0
 40
2.5
  0
CIRCLE
  5
210
330
1C0
100
AcDbEntity
  8
0
  6
CONTINUOUS
 62
     2
100
AcDbCircle
 10
1002.805833
 20
1824.511714
 30
0.0
 40
2.5
  0
CIRCLE
  5
211
330
1C0
100
AcDbEntity
  8
0
  6
CONTINUOUS
 62
     2
100
AcDbCircle
 10
1002.805833
 20
1834.511714
 30
0.0
 40
2.5
  0
CIRCLE
  5
212
330
1C0
100
AcDbEntity
  8
0
  6
CONTINUOUS
 62
     2
100
AcDbCircle
 10
992.805833
 20
1834.511714
 30
0.0
 40
2.5
  0
CIRCLE
  5
213
330
1C0
100
AcDbEntity
  8
0
  6
CONTINUOUS
 62
     2
100
AcDbCircle
 10
992.805833
 20
1824.511714
 30
0.0
 40
2.5
  0
CIRCLE
  5
214
330
1C0
100
AcDbEntity
  8
0
  6
CONTINUOUS
 62
     2
100
AcDbCircle
 10
982.805833
 20
1824.511714
 30
0.0
 40
2.5
  0
CIRCLE
  5
215
330
1C0
100
AcDbEntity
  8
0
  6
CONTINUOUS
 62
     2
100
AcDbCircle
 10
982.805833
 20
1834.511714
 30
0.0
 40
2.5
  0
CIRCLE
  5
216
330
1C0
100
AcDbEntity
  8
0
  6
CONTINUOUS
 62
     2
100
AcDbCircle
 10
1022.805833
 20
1814.511714
 30
0.0
 40
2.5
  0
CIRCLE
  5
217
330
1C0
100
AcDbEntity
  8
0
  6
CONTINUOUS
 62
     2
100
AcDbCircle
 10
1022.805833
 20
1804.511714
 30
0.0
 40
2.5
  0
CIRCLE
  5
218
330
1C0
100
AcDbEntity
  8
0
  6
CONTINUOUS
 62
     2
100
AcDbCircle
 10
1012.805833
 20
1804.511714
 30
0.0
 40
2.5
  0
CIRCLE
  5
219
330
1C0
100
AcDbEntity
  8
0
  6
CONTINUOUS
 62
     2
100
AcDbCircle
 10
1012.805833
 20
1814.511714
 30
0.0
 40
2.5
  0
CIRCLE
  5
21A
330
1C0
100
AcDbEntity
  8
0
  6
CONTINUOUS
 62
     2
100
AcDbCircle
 10
1002.805833
 20
1814.511714
 30
0.0
 40
2.5
  0
CIRCLE
  5
21B
330
1C0
100
AcDbEntity
  8
0
  6
CONTINUOUS
 62
     2
100
AcDbCircle
 10
1002.805833
 20
1804.511714
 30
0.0
 40
2.5
  0
CIRCLE
  5
21C
330
1C0
100
AcDbEntity
  8
0
  6
CONTINUOUS
 62
     2
100
AcDbCircle
 10
992.805833
 20
1804.511714
 30
0.0
 40
2.5
  0
CIRCLE
  5
21D
330
1C0
100
AcDbEntity
  8
0
  6
CONTINUOUS
 62
     2
100
AcDbCircle
 10
992.805833
 20
1814.511714
 30
0.0
 40
2.5
  0
CIRCLE
  5
21E
330
1C0
100
AcDbEntity
  8
0
  6
CONTINUOUS
 62
     2
100
AcDbCircle
 10
982.805833
 20
1814.511714
 30
0.0
 40
2.5
  0
CIRCLE
  5
21F
330
1C0
100
AcDbEntity
  8
0
  6
CONTINUOUS
 62
     2
100
AcDbCircle
 10
982.805833
 20
1804.511714
 30
0.0
 40
2.5
  0
CIRCLE
  5
220
330
1C0
100
AcDbEntity
  8
0
  6
CONTINUOUS
 62
     2
100
AcDbCircle
 10
1022.805833
 20
1724.511714
 30
0.0
 40
2.5
  0
CIRCLE
  5
221
330
1C0
100
AcDbEntity
  8
0
  6
CONTINUOUS
 62
     2
100
AcDbCircle
 10
1022.805833
 20
1714.511714
 30
0.0
 40
2.5
  0
CIRCLE
  5
222
330
1C0
100
AcDbEntity
  8
0
  6
CONTINUOUS
 62
     2
100
AcDbCircle
 10
1012.805833
 20
1714.511714
 30
0.0
 40
2.5
  0
CIRCLE
  5
223
330
1C0
100
AcDbEntity
  8
0
  6
CONTINUOUS
 62
     2
100
AcDbCircle
 10
1012.805833
 20
1724.511714
 30
0.0
 40
2.5
  0
CIRCLE
  5
224
330
1C0
100
AcDbEntity
  8
0
  6
CONTINUOUS
 62
     2
100
AcDbCircle
 10
1002.805833
 20
1724.511714
 30
0.0
 40
2.5
  0
CIRCLE
  5
225
330
1C0
100
AcDbEntity
  8
0
  6
CONTINUOUS
 62
     2
100
AcDbCircle
 10
1002.805833
 20
1714.511714
 30
0.0
 40
2.5
  0
CIRCLE
  5
226
330
1C0
100
AcDbEntity
  8
0
  6
CONTINUOUS
 62
     2
100
AcDbCircle
 10
992.805833
 20
1714.511714
 30
0.0
 40
2.5
  0
CIRCLE
  5
227
330
1C0
100
AcDbEntity
  8
0
  6
CONTINUOUS
 62
     2
100
AcDbCircle
 10
992.805833
 20
1724.511714
 30
0.0
 40
2.5
  0
CIRCLE
  5
228
330
1C0
100
AcDbEntity
  8
0
  6
CONTINUOUS
 62
     2
100
AcDbCircle
 10
982.805833
 20
1724.511714
 30
0.0
 40
2.5
  0
CIRCLE
  5
229
330
1C0
100
AcDbEntity
  8
0
  6
CONTINUOUS
 62
     2
100
AcDbCircle
 10
982.805833
 20
1714.511714
 30
0.0
 40
2.5
  0
CIRCLE
  5
22A
330
1C0
100
AcDbEntity
  8
0
  6
CONTINUOUS
 62
     2
100
AcDbCircle
 10
1022.805833
 20
1734.511714
 30
0.0
 40
2.5
  0
CIRCLE
  5
22B
330
1C0
100
AcDbEntity
  8
0
  6
CONTINUOUS
 62
     2
100
AcDbCircle
 10
1022.805833
 20
1744.511714
 30
0.0
 40
2.5
  0
CIRCLE
  5
22C
330
1C0
100
AcDbEntity
  8
0
  6
CONTINUOUS
 62
     2
100
AcDbCircle
 10
1012.805833
 20
1744.511714
 30
0.0
 40
2.5
  0
CIRCLE
  5
22D
330
1C0
100
AcDbEntity
  8
0
  6
CONTINUOUS
 62
     2
100
AcDbCircle
 10
1012.805833
 20
1734.511714
 30
0.0
 40
2.5
  0
CIRCLE
  5
22E
330
1C0
100
AcDbEntity
  8
0
  6
CONTINUOUS
 62
     2
100
AcDbCircle
 10
1002.805833
 20
1734.511714
 30
0.0
 40
2.5
  0
CIRCLE
  5
22F
330
1C0
100
AcDbEntity
  8
0
  6
CONTINUOUS
 62
     2
100
AcDbCircle
 10
1002.805833
 20
1744.511714
 30
0.0
 40
2.5
  0
CIRCLE
  5
230
330
1C0
100
AcDbEntity
  8
0
  6
CONTINUOUS
 62
     2
100
AcDbCircle
 10
992.805833
 20
1744.511714
 30
0.0
 40
2.5
  0
CIRCLE
  5
231
330
1C0
100
AcDbEntity
  8
0
  6
CONTINUOUS
 62
     2
100
AcDbCircle
 10
992.805833
 20
1734.511714
 30
0.0
 40
2.5
  0
CIRCLE
  5
232
330
1C0
100
AcDbEntity
  8
0
  6
CONTINUOUS
 62
     2
100
AcDbCircle
 10
982.805833
 20
1734.511714
 30
0.0
 40
2.5
  0
CIRCLE
  5
233
330
1C0
100
AcDbEntity
  8
0
  6
CONTINUOUS
 62
     2
100
AcDbCircle
 10
982.805833
 20
1744.511714
 30
0.0
 40
2.5
  0
LINE
  5
234
330
1C0
100
AcDbEntity
  8
0
  6
CONTINUOUS
 62
     2
100
AcDbLine
 10
1048.805833
 20
1747.011714
 30
0.0
 11
1048.805833
 21
1712.011714
 31
0.0
  0
LINE
  5
235
330
1C0
100
AcDbEntity
  8
0
  6
CONTINUOUS
 62
     2
100
AcDbLine
 10
1032.805833
 20
1747.011714
 30
0.0
 11
1032.805833
 21
1712.011714
 31
0.0
  0
LINE
  5
236
330
1C0
100
AcDbEntity
  8
0
  6
CONTINUOUS
 62
     2
100
AcDbLine
 10
1047.305833
 20
1748.511714
 30
0.0
 11
1034.305833
 21
1748.511714
 31
0.0
  0
LINE
  5
237
330
1C0
100
AcDbEntity
  8
0
  6
CONTINUOUS
 62
     2
100
AcDbLine
 10
1047.805833
 20
1747.011714
 30
0.0
 11
1047.805833
 21
1712.011714
 31
0.0
  0
LINE
  5
238
330
1C0
100
AcDbEntity
  8
0
  6
CONTINUOUS
 62
     2
100
AcDbLine
 10
1033.805833
 20
1747.011714
 30
0.0
 11
1033.805833
 21
1712.011714
 31
0.0
  0
LINE
  5
239
330
1C0
100
AcDbEntity
  8
0
  6
CONTINUOUS
 62
     2
100
AcDbLine
 10
1047.305833
 20
1747.511714
 30
0.0
 11
1034.305833
 21
1747.511714
 31
0.0
  0
LINE
  5
23A
330
1C0
100
AcDbEntity
  8
0
  6
CONTINUOUS
 62
     2
100
AcDbLine
 10
1047.305833
 20
1710.511714
 30
0.0
 11
1034.305833
 21
1710.511714
 31
0.0
  0
LINE
  5
23B
330
1C0
100
AcDbEntity
  8
0
  6
CONTINUOUS
 62
     2
100
AcDbLine
 10
1047.305833
 20
1711.511714
 30
0.0
 11
1034.305833
 21
1711.511714
 31
0.0
  0
ARC
  5
23C
330
1C0
100
AcDbEntity
  8
0
  6
CONTINUOUS
 62
     2
100
AcDbCircle
 10
1047.305833
 20
1747.011714
 30
0.0
 40
0.5
100
AcDbArc
 50
0.0
 51
90.0
  0
ARC
  5
23D
330
1C0
100
AcDbEntity
  8
0
  6
CONTINUOUS
 62
     2
100
AcDbCircle
 10
1034.305833
 20
1747.011714
 30
0.0
 40
0.5
100
AcDbArc
 50
90.0
 51
180.0
  0
ARC
  5
23E
330
1C0
100
AcDbEntity
  8
0
  6
CONTINUOUS
 62
     2
100
AcDbCircle
 10
1047.305833
 20
1712.011714
 30
0.0
 40
0.5
100
AcDbArc
 50
270.0
 51
0.0
  0
ARC
  5
23F
330
1C0
100
AcDbEntity
  8
0
  6
CONTINUOUS
 62
     2
100
AcDbCircle
 10
1034.305833
 20
1712.011714
 30
0.0
 40
0.5
100
AcDbArc
 50
180.0
 51
270.0
  0
ARC
  5
240
330
1C0
100
AcDbEntity
  8
0
  6
CONTINUOUS
 62
     2
100
AcDbCircle
 10
1047.305833
 20
1747.011714
 30
0.0
 40
1.5
100
AcDbArc
 50
0.0
 51
90.0
  0
ARC
  5
241
330
1C0
100
AcDbEntity
  8
0
  6
CONTINUOUS
 62
     2
100
AcDbCircle
 10
1034.305833
 20
1747.011714
 30
0.0
 40
1.5
100
AcDbArc
 50
90.0
 51
180.0
  0
ARC
  5
242
330
1C0
100
AcDbEntity
  8
0
  6
CONTINUOUS
 62
     2
100
AcDbCircle
 10
1047.305833
 20
1712.011714
 30
0.0
 40
1.5
100
AcDbArc
 50
270.0
 51
0.0
  0
ARC
  5
243
330
1C0
100
AcDbEntity
  8
0
  6
CONTINUOUS
 62
     2
100
AcDbCircle
 10
1034.305833
 20
1712.011714
 30
0.0
 40
1.5
100
AcDbArc
 50
180.0
 51
270.0
  0
LINE
  5
244
330
1C0
100
AcDbEntity
  8
0
  6
CONTINUOUS
 62
     2
100
AcDbLine
 10
1043.805833
 20
1738.511714
 30
0.0
 11
1043.805833
 21
1720.511714
 31
0.0
  0
LINE
  5
245
330
1C0
100
AcDbEntity
  8
0
  6
CONTINUOUS
 62
     2
100
AcDbLine
 10
1046.883905
 20
1729.511714
 30
0.0
 11
1043.805833
 21
1720.511714
 31
0.0
  0
LINE
  5
246
330
1C0
100
AcDbEntity
  8
0
  6
CONTINUOUS
 62
     2
100
AcDbLine
 10
1046.883905
 20
1729.511714
 30
0.0
 11
1043.805833
 21
1738.511714
 31
0.0
  0
TEXT
  5
247
330
1C0
100
AcDbEntity
  8
0
  6
CONTINUOUS
 62
     2
100
AcDbText
 10
1035.512015
 20
1738.491753
 30
0.0
 40
7.066058
  1
UP
 50
270.0
 41
1.166654
  7
ED_VECTOR
100
AcDbText
  0
LINE
  5
248
330
1C0
100
AcDbEntity
  8
0
  6
CONTINUOUS
 62
     2
100
AcDbLine
 10
1048.805833
 20
1802.011714
 30
0.0
 11
1048.805833
 21
1837.011714
 31
0.0
  0
LINE
  5
249
330
1C0
100
AcDbEntity
  8
0
  6
CONTINUOUS
 62
     2
100
AcDbLine
 10
1032.805833
 20
1802.011714
 30
0.0
 11
1032.805833
 21
1837.011714
 31
0.0
  0
LINE
  5
24A
330
1C0
100
AcDbEntity
  8
0
  6
CONTINUOUS
 62
     2
100
AcDbLine
 10
1047.305833
 20
1800.511714
 30
0.0
 11
1034.305833
 21
1800.511714
 31
0.0
  0
LINE
  5
24B
330
1C0
100
AcDbEntity
  8
0
  6
CONTINUOUS
 62
     2
100
AcDbLine
 10
1047.805833
 20
1802.011714
 30
0.0
 11
1047.805833
 21
1837.011714
 31
0.0
  0
LINE
  5
24C
330
1C0
100
AcDbEntity
  8
0
  6
CONTINUOUS
 62
     2
100
AcDbLine
 10
1033.805833
 20
1802.011714
 30
0.0
 11
1033.805833
 21
1837.011714
 31
0.0
  0
LINE
  5
24D
330
1C0
100
AcDbEntity
  8
0
  6
CONTINUOUS
 62
     2
100
AcDbLine
 10
1047.305833
 20
1801.511714
 30
0.0
 11
1034.305833
 21
1801.511714
 31
0.0
  0
LINE
  5
24E
330
1C0
100
AcDbEntity
  8
0
  6
CONTINUOUS
 62
     2
100
AcDbLine
 10
1047.305833
 20
1838.511714
 30
0.0
 11
1034.305833
 21
1838.511714
 31
0.0
  0
LINE
  5
24F
330
1C0
100
AcDbEntity
  8
0
  6
CONTINUOUS
 62
     2
100
AcDbLine
 10
1047.305833
 20
1837.511714
 30
0.0
 11
1034.305833
 21
1837.511714
 31
0.0
  0
ARC
  5
250
330
1C0
100
AcDbEntity
  8
0
  6
CONTINUOUS
 62
     2
100
AcDbCircle
 10
1047.305833
 20
1802.011714
 30
0.0
 40
0.5
100
AcDbArc
 50
270.0
 51
0.0
  0
ARC
  5
251
330
1C0
100
AcDbEntity
  8
0
  6
CONTINUOUS
 62
     2
100
AcDbCircle
 10
1034.305833
 20
1802.011714
 30
0.0
 40
0.5
100
AcDbArc
 50
180.0
 51
270.0
  0
ARC
  5
252
330
1C0
100
AcDbEntity
  8
0
  6
CONTINUOUS
 62
     2
100
AcDbCircle
 10
1047.305833
 20
1837.011714
 30
0.0
 40
0.5
100
AcDbArc
 50
0.0
 51
90.0
  0
ARC
  5
253
330
1C0
100
AcDbEntity
  8
0
  6
CONTINUOUS
 62
     2
100
AcDbCircle
 10
1034.305833
 20
1837.011714
 30
0.0
 40
0.5
100
AcDbArc
 50
90.0
 51
180.0
  0
ARC
  5
254
330
1C0
100
AcDbEntity
  8
0
  6
CONTINUOUS
 62
     2
100
AcDbCircle
 10
1047.305833
 20
1802.011714
 30
0.0
 40
1.5
100
AcDbArc
 50
270.0
 51
0.0
  0
ARC
  5
255
330
1C0
100
AcDbEntity
  8
0
  6
CONTINUOUS
 62
     2
100
AcDbCircle
 10
1034.305833
 20
1802.011714
 30
0.0
 40
1.5
100
AcDbArc
 50
180.0
 51
270.0
  0
ARC
  5
256
330
1C0
100
AcDbEntity
  8
0
  6
CONTINUOUS
 62
     2
100
AcDbCircle
 10
1047.305833
 20
1837.011714
 30
0.0
 40
1.5
100
AcDbArc
 50
0.0
 51
90.0
  0
ARC
  5
257
330
1C0
100
AcDbEntity
  8
0
  6
CONTINUOUS
 62
     2
100
AcDbCircle
 10
1034.305833
 20
1837.011714
 30
0.0
 40
1.5
100
AcDbArc
 50
90.0
 51
180.0
  0
LINE
  5
258
330
1C0
100
AcDbEntity
  8
0
  6
CONTINUOUS
 62
     2
100
AcDbLine
 10
1038.332903
 20
1810.511714
 30
0.0
 11
1038.332903
 21
1828.511714
 31
0.0
  0
LINE
  5
259
330
1C0
100
AcDbEntity
  8
0
  6
CONTINUOUS
 62
     2
100
AcDbLine
 10
1035.254831
 20
1819.511714
 30
0.0
 11
1038.332903
 21
1828.511714
 31
0.0
  0
LINE
  5
25A
330
1C0
100
AcDbEntity
  8
0
  6
CONTINUOUS
 62
     2
100
AcDbLine
 10
1035.254831
 20
1819.511714
 30
0.0
 11
1038.332903
 21
1810.511714
 31
0.0
  0
TEXT
  5
25B
330
1C0
100
AcDbEntity
  8
0
  6
CONTINUOUS
 62
     2
100
AcDbText
 10
1039.942856
 20
1834.209321
 30
0.0
 40
6.383575
  1
DOWN
 50
270.0
 41
0.969444
  7
ED_VECTOR
100
AcDbText
  0
ENDBLK
  5
1C2
330
1C0
100
AcDbEntity
  8
0
100
AcDbBlockEnd
  0
BLOCK
  5
437
330
436
100
AcDbEntity
  8
0
100
AcDbBlockBegin
  2
*D13
 70
     1
 10
0.0
 20
0.0
 30
0.0
  3
*D13
  1

  0
TEXT
  5
439
330
436
100
AcDbEntity
  8
0
  6
CONTINUOUS
 62
     3
100
AcDbText
 10
2174.305908
 20
1853.011719
 30
0.0
 40
40.0
  1
450
 50
90.0
 41
0.75
  7
ED_VECTOR
100
AcDbText
  0
LINE
  5
43A
330
436
100
AcDbEntity
  8
0
  6
CONTINUOUS
 62
     5
100
AcDbLine
 10
2094.305833
 20
1673.011714
 30
0.0
 11
2194.305833
 21
1673.011714
 31
0.0
  0
LINE
  5
43B
330
436
100
AcDbEntity
  8
0
  6
CONTINUOUS
 62
     5
100
AcDbLine
 10
2094.305833
 20
2123.011714
 30
0.0
 11
2194.305833
 21
2123.011714
 31
0.0
  0
LINE
  5
43C
330
436
100
AcDbEntity
  8
0
  6
CONTINUOUS
 62
     5
100
AcDbLine
 10
2184.305833
 20
1673.011714
 30
0.0
 11
2184.305833
 21
2123.011714
 31
0.0
  0
INSERT
  5
43D
330
436
100
AcDbEntity
  8
0
  6
CONTINUOUS
 62
     5
100
AcDbBlockReference
  2
EDTIP_ARROW_S
 10
2184.305833
 20
1673.011714
 30
0.0
 41
30.0
 42
30.0
 50
270.0
  0
INSERT
  5
43E
330
436
100
AcDbEntity
  8
0
  6
CONTINUOUS
 62
     5
100
AcDbBlockReference
  2
EDTIP_ARROW_E
 10
2184.305833
 20
2123.011714
 30
0.0
 41
30.0
 42
30.0
 50
90.0
  0
ENDBLK
  5
438
330
436
100
AcDbEntity
  8
0
100
AcDbBlockEnd
  0
BLOCK
  5
445
330
444
100
AcDbEntity
  8
0
100
AcDbBlockBegin
  2
*D14
 70
     1
 10
0.0
 20
0.0
 30
0.0
  3
*D14
  1

  0
TEXT
  5
447
330
444
100
AcDbEntity
  8
0
  6
CONTINUOUS
 62
     3
100
AcDbText
 10
2174.305908
 20
597.073853
 30
0.0
 40
40.0
  1
260
 50
90.0
 41
0.75
  7
ED_VECTOR
100
AcDbText
  0
LINE
  5
448
330
444
100
AcDbEntity
  8
0
  6
CONTINUOUS
 62
     5
100
AcDbLine
 10
2094.499741
 20
512.073848
 30
0.0
 11
2304.305833
 21
512.073848
 31
0.0
  0
LINE
  5
449
330
444
100
AcDbEntity
  8
0
  6
CONTINUOUS
 62
     5
100
AcDbLine
 10
2094.499741
 20
772.073848
 30
0.0
 11
2194.305833
 21
772.073848
 31
0.0
  0
LINE
  5
44A
330
444
100
AcDbEntity
  8
0
  6
CONTINUOUS
 62
     5
100
AcDbLine
 10
2184.305833
 20
512.073848
 30
0.0
 11
2184.305833
 21
772.073848
 31
0.0
  0
INSERT
  5
44B
330
444
100
AcDbEntity
  8
0
  6
CONTINUOUS
 62
     5
100
AcDbBlockReference
  2
EDTIP_ARROW_S
 10
2184.305833
 20
512.073848
 30
0.0
 41
30.0
 42
30.0
 50
270.0
  0
INSERT
  5
44C
330
444
100
AcDbEntity
  8
0
  6
CONTINUOUS
 62
     5
100
AcDbBlockReference
  2
EDTIP_ARROW_E
 10
2184.305833
 20
772.073848
 30
0.0
 41
30.0
 42
30.0
 50
90.0
  0
ENDBLK
  5
446
330
444
100
AcDbEntity
  8
0
100
AcDbBlockEnd
  0
BLOCK
  5
44F
330
44E
100
AcDbEntity
  8
0
100
AcDbBlockBegin
  2
*D15
 70
     1
 10
0.0
 20
0.0
 30
0.0
  3
*D15
  1

  0
TEXT
  5
451
330
44E
100
AcDbEntity
  8
0
  6
CONTINUOUS
 62
     3
100
AcDbText
 10
2174.305908
 20
1027.542725
 30
0.0
 40
40.0
  1
560
 50
90.0
 41
0.75
  7
ED_VECTOR
100
AcDbText
  0
LINE
  5
452
330
44E
100
AcDbEntity
  8
0
  6
CONTINUOUS
 62
     5
100
AcDbLine
 10
2094.305833
 20
1373.011714
 30
0.0
 11
2304.305833
 21
1373.011714
 31
0.0
  0
LINE
  5
453
330
44E
100
AcDbEntity
  8
0
  6
CONTINUOUS
 62
     5
100
AcDbLine
 10
2184.305833
 20
772.073848
 30
0.0
 11
2184.305833
 21
1373.011714
 31
0.0
  0
INSERT
  5
454
330
44E
100
AcDbEntity
  8
0
  6
CONTINUOUS
 62
     5
100
AcDbBlockReference
  2
EDTIP_ARROW_S
 10
2184.305833
 20
772.073848
 30
0.0
 41
30.0
 42
30.0
 50
270.0
  0
INSERT
  5
455
330
44E
100
AcDbEntity
  8
0
  6
CONTINUOUS
 62
     5
100
AcDbBlockReference
  2
EDTIP_ARROW_E
 10
2184.305833
 20
1373.011714
 30
0.0
 41
30.0
 42
30.0
 50
90.0
  0
ENDBLK
  5
450
330
44E
100
AcDbEntity
  8
0
100
AcDbBlockEnd
  0
BLOCK
  5
458
330
457
100
AcDbEntity
  8
0
100
AcDbBlockBegin
  2
*D16
 70
     1
 10
0.0
 20
0.0
 30
0.0
  3
*D16
  1

  0
TEXT
  5
45A
330
457
100
AcDbEntity
  8
0
  6
CONTINUOUS
 62
     3
100
AcDbText
 10
2284.305908
 20
897.542725
 30
0.0
 40
40.0
  1
820
 50
90.0
 41
0.75
  7
ED_VECTOR
100
AcDbText
  0
LINE
  5
45B
330
457
100
AcDbEntity
  8
0
  6
CONTINUOUS
 62
     5
100
AcDbLine
 10
2294.305833
 20
512.073848
 30
0.0
 11
2294.305833
 21
1373.011714
 31
0.0
  0
INSERT
  5
45C
330
457
100
AcDbEntity
  8
0
  6
CONTINUOUS
 62
     5
100
AcDbBlockReference
  2
EDTIP_ARROW_S
 10
2294.305833
 20
512.073848
 30
0.0
 41
30.0
 42
30.0
 50
270.0
  0
INSERT
  5
45D
330
457
100
AcDbEntity
  8
0
  6
CONTINUOUS
 62
     5
100
AcDbBlockReference
  2
EDTIP_ARROW_E
 10
2294.305833
 20
1373.011714
 30
0.0
 41
30.0
 42
30.0
 50
90.0
  0
ENDBLK
  5
459
330
457
100
AcDbEntity
  8
0
100
AcDbBlockEnd
  0
BLOCK
  5
460
330
45F
100
AcDbEntity
  8
0
100
AcDbBlockBegin
  2
*D17
 70
     1
 10
0.0
 20
0.0
 30
0.0
  3
*D17
  1

  0
TEXT
  5
462
330
45F
100
AcDbEntity
  8
0
  6
CONTINUOUS
 62
     3
100
AcDbText
 10
1739.999756
 20
422.073853
 30
0.0
 40
40.0
  1
599
 41
0.75
  7
ED_VECTOR
100
AcDbText
  0
LINE
  5
463
330
45F
100
AcDbEntity
  8
0
  6
CONTINUOUS
 62
     5
100
AcDbLine
 10
1485.499741
 20
502.073848
 30
0.0
 11
1485.499741
 21
402.073848
 31
0.0
  0
LINE
  5
464
330
45F
100
AcDbEntity
  8
0
  6
CONTINUOUS
 62
     5
100
AcDbLine
 10
2084.499741
 20
502.073848
 30
0.0
 11
2084.499741
 21
402.073848
 31
0.0
  0
LINE
  5
465
330
45F
100
AcDbEntity
  8
0
  6
CONTINUOUS
 62
     5
100
AcDbLine
 10
1485.499741
 20
412.073848
 30
0.0
 11
2084.499741
 21
412.073848
 31
0.0
  0
INSERT
  5
466
330
45F
100
AcDbEntity
  8
0
  6
CONTINUOUS
 62
     5
100
AcDbBlockReference
  2
EDTIP_ARROW_S
 10
1485.499741
 20
412.073848
 30
0.0
 41
30.0
 42
30.0
 50
180.0
  0
INSERT
  5
467
330
45F
100
AcDbEntity
  8
0
  6
CONTINUOUS
 62
     5
100
AcDbBlockReference
  2
EDTIP_ARROW_E
 10
2084.499741
 20
412.073848
 30
0.0
 41
30.0
 42
30.0
  0
ENDBLK
  5
461
330
45F
100
AcDbEntity
  8
0
100
AcDbBlockEnd
  0
BLOCK
  5
46A
330
469
100
AcDbEntity
  8
0
100
AcDbBlockBegin
  2
*D18
 70
     1
 10
0.0
 20
0.0
 30
0.0
  3
*D18
  1

  0
TEXT
  5
46C
330
469
100
AcDbEntity
  8
0
  6
CONTINUOUS
 62
     3
100
AcDbText
 10
1739.305908
 20
1483.011719
 30
0.0
 40
40.0
  1
600
 41
0.75
  7
ED_VECTOR
100
AcDbText
  0
LINE
  5
46D
330
469
100
AcDbEntity
  8
0
  6
CONTINUOUS
 62
     5
100
AcDbLine
 10
1484.305833
 20
1383.011714
 30
0.0
 11
1484.305833
 21
1483.011714
 31
0.0
  0
LINE
  5
46E
330
469
100
AcDbEntity
  8
0
  6
CONTINUOUS
 62
     5
100
AcDbLine
 10
2084.305833
 20
1383.011714
 30
0.0
 11
2084.305833
 21
1483.011714
 31
0.0
  0
LINE
  5
46F
330
469
100
AcDbEntity
  8
0
  6
CONTINUOUS
 62
     5
100
AcDbLine
 10
1484.305833
 20
1473.011714
 30
0.0
 11
2084.305833
 21
1473.011714
 31
0.0
  0
INSERT
  5
470
330
469
100
AcDbEntity
  8
0
  6
CONTINUOUS
 62
     5
100
AcDbBlockReference
  2
EDTIP_ARROW_S
 10
1484.305833
 20
1473.011714
 30
0.0
 41
30.0
 42
30.0
 50
180.0
  0
INSERT
  5
471
330
469
100
AcDbEntity
  8
0
  6
CONTINUOUS
 62
     5
100
AcDbBlockReference
  2
EDTIP_ARROW_E
 10
2084.305833
 20
1473.011714
 30
0.0
 41
30.0
 42
30.0
  0
ENDBLK
  5
46B
330
469
100
AcDbEntity
  8
0
100
AcDbBlockEnd
  0
BLOCK
  5
474
330
473
100
AcDbEntity
  8
0
100
AcDbBlockBegin
  2
*D19
 70
     1
 10
0.0
 20
0.0
 30
0.0
  3
*D19
  1

  0
TEXT
  5
476
330
473
100
AcDbEntity
  8
0
  6
CONTINUOUS
 62
     3
100
AcDbText
 10
590.499695
 20
422.073853
 30
0.0
 40
40.0
  1
450
 41
0.75
  7
ED_VECTOR
100
AcDbText
  0
LINE
  5
477
330
473
100
AcDbEntity
  8
0
  6
CONTINUOUS
 62
     5
100
AcDbLine
 10
410.499741
 20
502.073848
 30
0.0
 11
410.499741
 21
402.073848
 31
0.0
  0
LINE
  5
478
330
473
100
AcDbEntity
  8
0
  6
CONTINUOUS
 62
     5
100
AcDbLine
 10
860.499741
 20
502.073848
 30
0.0
 11
860.499741
 21
402.073848
 31
0.0
  0
LINE
  5
479
330
473
100
AcDbEntity
  8
0
  6
CONTINUOUS
 62
     5
100
AcDbLine
 10
410.499741
 20
412.073848
 30
0.0
 11
860.499741
 21
412.073848
 31
0.0
  0
INSERT
  5
47A
330
473
100
AcDbEntity
  8
0
  6
CONTINUOUS
 62
     5
100
AcDbBlockReference
  2
EDTIP_ARROW_S
 10
410.499741
 20
412.073848
 30
0.0
 41
30.0
 42
30.0
 50
180.0
  0
INSERT
  5
47B
330
473
100
AcDbEntity
  8
0
  6
CONTINUOUS
 62
     5
100
AcDbBlockReference
  2
EDTIP_ARROW_E
 10
860.499741
 20
412.073848
 30
0.0
 41
30.0
 42
30.0
  0
ENDBLK
  5
475
330
473
100
AcDbEntity
  8
0
100
AcDbBlockEnd
  0
ENDSEC
  0
SECTION
  2
ENTITIES
  0
LINE
  5
EE
330
1F
100
AcDbEntity
  8
0
  6
CONTINUOUS
 62
     3
100
AcDbLine
 10
118.051807
 20
2400.454119
 30
0.0
 11
118.051807
 21
51.907189
 31
0.0
  0
LINE
  5
EF
330
1F
100
AcDbEntity
  8
0
  6
CONTINUOUS
 62
     3
100
AcDbLine
 10
3440.625117
 20
2400.454119
 30
0.0
 11
118.051807
 21
2400.454119
 31
0.0
  0
LINE
  5
F0
330
1F
100
AcDbEntity
  8
0
  6
CONTINUOUS
 62
     3
100
AcDbLine
 10
3440.625117
 20
2400.454119
 30
0.0
 11
3440.625117
 21
51.907189
 31
0.0
  0
LINE
  5
F1
330
1F
100
AcDbEntity
  8
0
  6
CONTINUOUS
 62
     3
100
AcDbLine
 10
3440.625117
 20
51.907189
 30
0.0
 11
118.051807
 21
51.907189
 31
0.0
  0
LINE
  5
F2
330
1F
100
AcDbEntity
  8
0
  6
CONTINUOUS
 62
     5
100
AcDbLine
 10
68.051807
 20
1211.907189
 30
0.0
 11
18.051807
 21
1211.907189
 31
0.0
  0
LINE
  5
F3
330
1F
100
AcDbEntity
  8
0
  6
CONTINUOUS
 62
     5
100
AcDbLine
 10
2640.625117
 20
491.907189
 30
0.0
 11
3440.625117
 21
491.907189
 31
0.0
  0
LINE
  5
F4
330
1F
100
AcDbEntity
  8
0
  6
CONTINUOUS
 62
     5
100
AcDbLine
 10
2640.625117
 20
131.907189
 30
0.0
 11
3440.625117
 21
131.907189
 31
0.0
  0
LINE
  5
F5
330
1F
100
AcDbEntity
  8
0
  6
CONTINUOUS
 62
     5
100
AcDbLine
 10
2640.625117
 20
291.907189
 30
0.0
 11
3440.625117
 21
291.907189
 31
0.0
  0
LINE
  5
F6
330
1F
100
AcDbEntity
  8
0
  6
CONTINUOUS
 62
     5
100
AcDbLine
 10
2640.625117
 20
351.907189
 30
0.0
 11
3440.625117
 21
351.907189
 31
0.0
  0
LINE
  5
F7
330
1F
100
AcDbEntity
  8
0
  6
CONTINUOUS
 62
     5
100
AcDbLine
 10
2640.625117
 20
411.907189
 30
0.0
 11
3440.625117
 21
411.907189
 31
0.0
  0
LINE
  5
F8
330
1F
100
AcDbEntity
  8
0
  6
CONTINUOUS
 62
     5
100
AcDbLine
 10
2640.625117
 20
571.907189
 30
0.0
 11
3440.625117
 21
571.907189
 31
0.0
  0
LINE
  5
F9
330
1F
100
AcDbEntity
  8
0
  6
CONTINUOUS
 62
     5
100
AcDbLine
 10
2640.625117
 20
651.907189
 30
0.0
 11
2640.625117
 21
51.907189
 31
0.0
  0
LINE
  5
FA
330
1F
100
AcDbEntity
  8
0
  6
CONTINUOUS
 62
     5
100
AcDbLine
 10
2840.625117
 20
651.907189
 30
0.0
 11
2840.625117
 21
411.907189
 31
0.0
  0
LINE
  5
FB
330
1F
100
AcDbEntity
  8
0
  6
CONTINUOUS
 62
     5
100
AcDbLine
 10
2640.625117
 20
651.907189
 30
0.0
 11
3440.625117
 21
651.907189
 31
0.0
  0
LINE
  5
FC
330
1F
100
AcDbEntity
  8
0
  6
CONTINUOUS
 62
     5
100
AcDbLine
 10
3140.625117
 20
411.907189
 30
0.0
 11
3140.625117
 21
131.907189
 31
0.0
  0
TEXT
  5
FD
330
1F
100
AcDbEntity
  8
0
  6
CONTINUOUS
 62
     3
100
AcDbText
 10
2860.316219
 20
60.469913
 30
0.0
 40
59.380363
  1
東正車輌株式会社
 41
0.788955
  7
ED_VECTOR
100
AcDbText
  0
LINE
  5
FE
330
1F
100
AcDbEntity
  8
0
  6
CONTINUOUS
 62
     5
100
AcDbLine
 10
2890.625117
 20
351.907189
 30
0.0
 11
2890.625117
 21
131.907189
 31
0.0
  0
TEXT
  5
FF
330
1F
100
AcDbEntity
  8
0
  6
CONTINUOUS
 62
     5
100
AcDbText
 10
2670.625
 20
586.907166
 30
0.0
 40
50.0
  1
品　名
 41
0.8
  7
ED_VECTOR
100
AcDbText
  0
TEXT
  5
100
330
1F
100
AcDbEntity
  8
0
  6
CONTINUOUS
 62
     5
100
AcDbText
 10
2670.625
 20
506.907166
 30
0.0
 40
50.0
  1
型　式
 41
0.8
  7
ED_VECTOR
100
AcDbText
  0
TEXT
  5
101
330
1F
100
AcDbEntity
  8
0
  6
CONTINUOUS
 62
     5
100
AcDbText
 10
2645.625
 20
426.907196
 30
0.0
 40
50.0
  1
図面番号
 41
0.8
  7
ED_VECTOR
100
AcDbText
  0
TEXT
  5
102
330
1F
100
AcDbEntity
  8
0
  6
CONTINUOUS
 62
     5
100
AcDbText
 10
3220.625
 20
356.907196
 30
0.0
 40
50.0
  1
Ｂ－４
 41
0.8
  7
ED_VECTOR
100
AcDbText
  0
TEXT
  5
103
330
1F
100
AcDbEntity
  8
0
  6
CONTINUOUS
 62
     5
100
AcDbText
 10
2695.625
 20
296.907196
 30
0.0
 40
50.0
  1
検　図
 41
0.8
  7
ED_VECTOR
100
AcDbText
  0
TEXT
  5
104
330
1F
100
AcDbEntity
  8
0
  6
CONTINUOUS
 62
     5
100
AcDbText
 10
2945.625
 20
296.907196
 30
0.0
 40
50.0
  1
作　図
 41
0.8
  7
ED_VECTOR
100
AcDbText
  0
TEXT
  5
105
330
1F
100
AcDbEntity
  8
0
  6
CONTINUOUS
 62
     5
100
AcDbText
 10
3220.625
 20
296.907196
 30
0.0
 40
50.0
  1
尺　度
 41
0.8
  7
ED_VECTOR
100
AcDbText
  0
TEXT
  5
106
330
1F
100
AcDbEntity
  8
0
  6
CONTINUOUS
 62
     5
100
AcDbText
 10
3321.36377
 20
146.392456
 30
0.0
 40
50.0
  1
１０
 41
0.8
  7
ED_VECTOR
100
AcDbText
  0
TEXT
  5
107
330
1F
100
AcDbEntity
  8
0
  6
CONTINUOUS
 62
     5
100
AcDbText
 10
3301.044189
 20
194.097153
 30
0.0
 40
50.0
  1
／
 41
0.8
  7
ED_VECTOR
100
AcDbText
  0
TEXT
  5
108
330
1F
100
AcDbEntity
  8
0
  6
CONTINUOUS
 62
     5
100
AcDbText
 10
3270.831299
 20
229.080597
 30
0.0
 40
50.0
  1
１
 41
0.8
  7
ED_VECTOR
100
AcDbText
  0
TEXT
  5
109
330
1F
100
AcDbEntity
  8
0
  6
CONTINUOUS
 62
     3
100
AcDbText
 10
2980.625
 20
586.907166
 30
0.0
 40
50.0
  1
ゴールドリフター
 41
0.8
  7
ED_VECTOR
100
AcDbText
  0
TEXT
  5
10A
330
1F
100
AcDbEntity
  8
0
  6
CONTINUOUS
 62
     3
100
AcDbText
 10
2880.625
 20
506.907166
 30
0.0
 40
50.0
  1
ＧＬＥ－１５０－０４０６Ｗ
 41
0.8
  7
ED_VECTOR
100
AcDbText
  0
INSERT
  5
10E
330
1F
100
AcDbEntity
  8
0
100
AcDbBlockReference
  2
BLKF014
 10
0.0
 20
0.0
 30
0.0
  0
INSERT
  5
1C3
330
1F
100
AcDbEntity
  8
0
100
AcDbBlockReference
  2
BLKF015
 10
0.0
 20
0.0
 30
0.0
  0
LINE
  5
25C
330
1F
100
AcDbEntity
  8
0
  6
CONTINUOUS
 62
     3
100
AcDbLine
 10
2084.305833
 20
1373.011714
 30
0.0
 11
1484.305833
 21
1373.011714
 31
0.0
  0
LINE
  5
25D
330
1F
100
AcDbEntity
  8
0
  6
CONTINUOUS
 62
     3
100
AcDbLine
 10
1484.305833
 20
1373.011714
 30
0.0
 11
1484.305833
 21
1328.011714
 31
0.0
  0
LINE
  5
25E
330
1F
100
AcDbEntity
  8
0
  6
CONTINUOUS
 62
     3
100
AcDbLine
 10
1484.305833
 20
1328.011714
 30
0.0
 11
2084.305833
 21
1328.011714
 31
0.0
  0
LINE
  5
25F
330
1F
100
AcDbEntity
  8
0
  6
CONTINUOUS
 62
     3
100
AcDbLine
 10
2084.305833
 20
1328.011714
 30
0.0
 11
2084.305833
 21
1373.011714
 31
0.0
  0
LINE
  5
260
330
1F
100
AcDbEntity
  8
0
  6
CONTINUOUS
 62
     3
100
AcDbLine
 10
1634.855277
 20
568.573848
 30
0.0
 11
1641.505277
 21
597.073848
 31
0.0
  0
LINE
  5
261
330
1F
100
AcDbEntity
  8
0
  6
CONTINUOUS
 62
     3
100
AcDbLine
 10
1649.505277
 20
567.073848
 30
0.0
 11
1754.505277
 21
567.073848
 31
0.0
  0
LINE
  5
262
330
1F
100
AcDbEntity
  8
0
  6
CONTINUOUS
 62
     3
100
AcDbLine
 10
1634.505277
 20
565.573848
 30
0.0
 11
1634.505277
 21
562.073848
 31
0.0
  0
LINE
  5
263
330
1F
100
AcDbEntity
  8
0
  6
CONTINUOUS
 62
     3
100
AcDbLine
 10
1641.505277
 20
597.073848
 30
0.0
 11
1747.505277
 21
597.073848
 31
0.0
  0
LINE
  5
264
330
1F
100
AcDbEntity
  8
0
  6
CONTINUOUS
 62
     3
100
AcDbLine
 10
1747.505277
 20
597.073848
 30
0.0
 11
1754.505277
 21
567.073848
 31
0.0
  0
LINE
  5
265
330
1F
100
AcDbEntity
  8
0
  6
CONTINUOUS
 62
     3
100
AcDbLine
 10
1754.505277
 20
567.073848
 30
0.0
 11
1754.505277
 21
562.073848
 31
0.0
  0
LINE
  5
266
330
1F
100
AcDbEntity
  8
0
  6
CONTINUOUS
 62
     3
100
AcDbLine
 10
1741.557391
 20
654.673848
 30
0.0
 11
1659.056418
 21
654.673848
 31
0.0
  0
LINE
  5
267
330
1F
100
AcDbEntity
  8
0
  6
CONTINUOUS
 62
     3
100
AcDbLine
 10
1782.505277
 20
613.423848
 30
0.0
 11
1782.505277
 21
564.723848
 31
0.0
  0
LINE
  5
268
330
1F
100
AcDbEntity
  8
0
  6
CONTINUOUS
 62
     3
100
AcDbLine
 10
1574.505277
 20
572.867975
 30
0.0
 11
1574.505277
 21
562.073848
 31
0.0
  0
LINE
  5
269
330
1F
100
AcDbEntity
  8
0
  6
CONTINUOUS
 62
     3
100
AcDbLine
 10
1614.505277
 20
611.569226
 30
0.0
 11
1614.505277
 21
573.073848
 31
0.0
  0
LINE
  5
26A
330
1F
100
AcDbEntity
  8
0
  6
CONTINUOUS
 62
     3
100
AcDbLine
 10
1771.505277
 20
625.698333
 30
0.0
 11
1771.505277
 21
562.073848
 31
0.0
  0
LINE
  5
26B
330
1F
100
AcDbEntity
  8
0
  6
CONTINUOUS
 62
     3
100
AcDbLine
 10
1782.505277
 20
564.723848
 30
0.0
 11
1771.505277
 21
564.723848
 31
0.0
  0
LINE
  5
26C
330
1F
100
AcDbEntity
  8
0
  6
CONTINUOUS
 62
     3
100
AcDbLine
 10
1782.505277
 20
613.423848
 30
0.0
 11
1771.505277
 21
613.423848
 31
0.0
  0
LINE
  5
26D
330
1F
100
AcDbEntity
  8
0
  6
CONTINUOUS
 62
     7
100
AcDbLine
 10
1761.505277
 20
627.655801
 30
0.0
 11
1761.505277
 21
587.224252
 31
0.0
  0
LINE
  5
26E
330
1F
100
AcDbEntity
  8
0
  6
CONTINUOUS
 62
     5
100
AcDbLine
 10
1739.505277
 20
649.073848
 30
0.0
 11
1739.505277
 21
597.073848
 31
0.0
  0
LINE
  5
26F
330
1F
100
AcDbEntity
  8
0
  6
CONTINUOUS
 62
     7
100
AcDbLine
 10
1703.505277
 20
627.655801
 30
0.0
 11
1703.505277
 21
626.051561
 31
0.0
  0
LINE
  5
270
330
1F
100
AcDbEntity
  8
0
  6
CONTINUOUS
 62
     7
100
AcDbLine
 10
1748.506106
 20
592.784578
 30
0.0
 11
1754.505277
 21
592.784578
 31
0.0
  0
LINE
  5
271
330
1F
100
AcDbEntity
  8
0
  6
CONTINUOUS
 62
     7
100
AcDbLine
 10
1721.505277
 20
629.155801
 30
0.0
 11
1757.505277
 21
629.155801
 31
0.0
  0
LINE
  5
272
330
1F
100
AcDbEntity
  8
0
  6
CONTINUOUS
 62
     7
100
AcDbLine
 10
1749.287284
 20
589.436676
 30
0.0
 11
1757.505277
 21
589.436676
 31
0.0
  0
ARC
  5
273
330
1F
100
AcDbEntity
  8
0
  6
CONTINUOUS
 62
     7
100
AcDbCircle
 10
1739.505277
 20
610.97019
 30
0.0
 40
12.5
100
AcDbArc
 50
189.834587
 51
140.165413
  0
LINE
  5
274
330
1F
100
AcDbEntity
  8
0
  6
CONTINUOUS
 62
     7
100
AcDbLine
 10
1757.505277
 20
629.155801
 30
0.0
 11
1757.505277
 21
589.436676
 31
0.0
  0
LINE
  5
275
330
1F
100
AcDbEntity
  8
0
  6
CONTINUOUS
 62
     7
100
AcDbLine
 10
1754.505277
 20
629.155801
 30
0.0
 11
1754.505277
 21
592.784578
 31
0.0
  0
LINE
  5
276
330
1F
100
AcDbEntity
  8
0
  6
CONTINUOUS
 62
     7
100
AcDbLine
 10
1721.505277
 20
629.155801
 30
0.0
 11
1721.505277
 21
621.228475
 31
0.0
  0
LINE
  5
277
330
1F
100
AcDbEntity
  8
0
  6
CONTINUOUS
 62
     7
100
AcDbLine
 10
1707.505277
 20
627.655801
 30
0.0
 11
1707.505277
 21
624.979764
 31
0.0
  0
ARC
  5
278
330
1F
100
AcDbEntity
  8
0
  6
CONTINUOUS
 62
     7
100
AcDbCircle
 10
1739.505277
 20
610.97019
 30
0.0
 40
5.25
100
AcDbArc
 50
255.0
 51
75.0
  0
LINE
  5
279
330
1F
100
AcDbEntity
  8
0
  6
CONTINUOUS
 62
     7
100
AcDbLine
 10
1707.505277
 20
627.655801
 30
0.0
 11
1721.505277
 21
629.155801
 31
0.0
  0
LINE
  5
27A
330
1F
100
AcDbEntity
  8
0
  6
CONTINUOUS
 62
     7
100
AcDbLine
 10
1754.505277
 20
592.784578
 30
0.0
 11
1757.505277
 21
589.436676
 31
0.0
  0
LINE
  5
27B
330
1F
100
AcDbEntity
  8
0
  6
CONTINUOUS
 62
     7
100
AcDbLine
 10
1705.505277
 20
629.655801
 30
0.0
 11
1722.437985
 21
629.655801
 31
0.0
  0
ARC
  5
27C
330
1F
100
AcDbEntity
  8
0
  6
CONTINUOUS
 62
     7
100
AcDbCircle
 10
1739.505277
 20
616.000166
 30
0.0
 40
20.28488015661787
100
AcDbArc
 50
47.545857
 51
84.719619
  0
CIRCLE
  5
27D
330
1F
100
AcDbEntity
  8
0
  6
CONTINUOUS
 62
     7
100
AcDbCircle
 10
1739.505277
 20
633.850555
 30
0.0
 40
3.0
  0
ARC
  5
27E
330
1F
100
AcDbEntity
  8
0
  6
CONTINUOUS
 62
     7
100
AcDbCircle
 10
1739.505277
 20
592.781642
 30
0.0
 40
16.79625409448399
100
AcDbArc
 50
314.594132
 51
324.821469
  0
LINE
  5
27F
330
1F
100
AcDbEntity
  8
0
  6
CONTINUOUS
 62
     5
100
AcDbLine
 10
1732.789974
 20
633.850555
 30
0.0
 11
1745.551052
 21
633.850555
 31
0.0
  0
ARC
  5
280
330
1F
100
AcDbEntity
  8
0
  6
CONTINUOUS
 62
     7
100
AcDbCircle
 10
1739.505277
 20
616.000166
 30
0.0
 40
20.28488015661787
100
AcDbArc
 50
95.280381
 51
132.454143
  0
LINE
  5
281
330
1F
100
AcDbEntity
  8
0
  6
CONTINUOUS
 62
     7
100
AcDbLine
 10
1756.572569
 20
629.655801
 30
0.0
 11
1759.505277
 21
629.655801
 31
0.0
  0
ARC
  5
282
330
1F
100
AcDbEntity
  8
0
  6
CONTINUOUS
 62
     7
100
AcDbCircle
 10
1722.437985
 20
634.655801
 30
0.0
 40
5.0
100
AcDbArc
 50
270.0
 51
312.454143
  0
ARC
  5
283
330
1F
100
AcDbEntity
  8
0
  6
CONTINUOUS
 62
     7
100
AcDbCircle
 10
1756.572569
 20
634.655801
 30
0.0
 40
5.0
100
AcDbArc
 50
227.545857
 51
270.0
  0
LINE
  5
284
330
1F
100
AcDbEntity
  8
0
  6
CONTINUOUS
 62
     7
100
AcDbLine
 10
1757.320681
 20
585.224252
 30
0.0
 11
1759.505277
 21
585.224252
 31
0.0
  0
ARC
  5
285
330
1F
100
AcDbEntity
  8
0
  6
CONTINUOUS
 62
     7
100
AcDbCircle
 10
1757.320681
 20
580.224252
 30
0.0
 40
5.0
100
AcDbArc
 50
90.0
 51
144.821469
  0
LINE
  5
286
330
1F
100
AcDbEntity
  8
0
  6
CONTINUOUS
 62
     7
100
AcDbLine
 10
1707.505277
 20
614.109364
 30
0.0
 11
1707.505277
 21
597.073848
 31
0.0
  0
LINE
  5
287
330
1F
100
AcDbEntity
  8
0
  6
CONTINUOUS
 62
     7
100
AcDbLine
 10
1703.505277
 20
615.181161
 30
0.0
 11
1703.505277
 21
597.073848
 31
0.0
  0
LINE
  5
288
330
1F
100
AcDbEntity
  8
0
  6
CONTINUOUS
 62
     7
100
AcDbLine
 10
1721.505277
 20
610.358075
 30
0.0
 11
1721.505277
 21
597.073848
 31
0.0
  0
LINE
  5
289
330
1F
100
AcDbEntity
  8
0
  6
CONTINUOUS
 62
     5
100
AcDbLine
 10
1727.447681
 20
610.97019
 30
0.0
 11
1754.505277
 21
610.97019
 31
0.0
  0
LINE
  5
28A
330
1F
100
AcDbEntity
  8
0
  6
CONTINUOUS
 62
     5
100
AcDbLine
 10
1763.505277
 20
633.438583
 30
0.0
 11
1763.505277
 21
562.073848
 31
0.0
  0
LINE
  5
28B
330
1F
100
AcDbEntity
  8
0
  6
CONTINUOUS
 62
     5
100
AcDbLine
 10
1617.005277
 20
563.073848
 30
0.0
 11
1574.505277
 21
563.073848
 31
0.0
  0
ARC
  5
28C
330
1F
100
AcDbEntity
  8
0
  6
CONTINUOUS
 62
     4
100
AcDbCircle
 10
1596.005277
 20
610.573848
 30
0.0
 40
17.0
100
AcDbArc
 50
269.66642
 51
358.442731
  0
LINE
  5
28D
330
1F
100
AcDbEntity
  8
0
  6
CONTINUOUS
 62
     4
100
AcDbLine
 10
1601.740257
 20
598.573848
 30
0.0
 11
1601.073796
 21
598.573848
 31
0.0
  0
LINE
  5
28E
330
1F
100
AcDbEntity
  8
0
  6
CONTINUOUS
 62
     4
100
AcDbLine
 10
1603.530091
 20
599.60721
 30
0.0
 11
1605.286988
 21
602.650243
 31
0.0
  0
ARC
  5
28F
330
1F
100
AcDbEntity
  8
0
  6
CONTINUOUS
 62
     4
100
AcDbCircle
 10
1596.005277
 20
610.573848
 30
0.0
 40
13.3
100
AcDbArc
 50
295.543837
 51
304.456163
  0
LINE
  5
290
330
1F
100
AcDbEntity
  8
0
  6
CONTINUOUS
 62
     4
100
AcDbLine
 10
1601.505277
 20
594.48814
 30
0.0
 11
1601.505277
 21
581.073848
 31
0.0
  0
LINE
  5
291
330
1F
100
AcDbEntity
  8
0
  6
CONTINUOUS
 62
     4
100
AcDbLine
 10
1578.005277
 20
574.073848
 30
0.0
 11
1578.005277
 21
562.073848
 31
0.0
  0
LINE
  5
292
330
1F
100
AcDbEntity
  8
0
  6
CONTINUOUS
 62
     4
100
AcDbLine
 10
1614.005277
 20
574.073848
 30
0.0
 11
1614.005277
 21
562.073848
 31
0.0
  0
LINE
  5
293
330
1F
100
AcDbEntity
  8
0
  6
CONTINUOUS
 62
     4
100
AcDbLine
 10
1607.005277
 20
581.073848
 30
0.0
 11
1585.005277
 21
581.073848
 31
0.0
  0
ARC
  5
294
330
1F
100
AcDbEntity
  8
0
  6
CONTINUOUS
 62
     4
100
AcDbCircle
 10
1596.005277
 20
563.073848
 30
0.0
 40
12.5
100
AcDbArc
 50
355.411434
 51
184.588566
  0
ARC
  5
295
330
1F
100
AcDbEntity
  8
0
  6
CONTINUOUS
 62
     4
100
AcDbCircle
 10
1596.005277
 20
563.073848
 30
0.0
 40
4.75
100
AcDbArc
 50
347.846803
 51
192.153197
  0
LINE
  5
296
330
1F
100
AcDbEntity
  8
0
  6
CONTINUOUS
 62
     4
100
AcDbLine
 10
1579.505277
 20
573.573848
 30
0.0
 11
1579.505277
 21
562.073848
 31
0.0
  0
LINE
  5
297
330
1F
100
AcDbEntity
  8
0
  6
CONTINUOUS
 62
     4
100
AcDbLine
 10
1612.505277
 20
573.573848
 30
0.0
 11
1612.505277
 21
562.073848
 31
0.0
  0
LINE
  5
298
330
1F
100
AcDbEntity
  8
0
  6
CONTINUOUS
 62
     4
100
AcDbLine
 10
1606.505277
 20
579.573848
 30
0.0
 11
1585.505277
 21
579.573848
 31
0.0
  0
LINE
  5
299
330
1F
100
AcDbEntity
  8
0
  6
CONTINUOUS
 62
     4
100
AcDbLine
 10
1596.871302
 20
564.573848
 30
0.0
 11
1595.139251
 21
564.573848
 31
0.0
  0
LINE
  5
29A
330
1F
100
AcDbEntity
  8
0
  6
CONTINUOUS
 62
     4
100
AcDbLine
 10
1597.159977
 20
562.073848
 30
0.0
 11
1597.737328
 21
563.073848
 31
0.0
  0
LINE
  5
29B
330
1F
100
AcDbEntity
  8
0
  6
CONTINUOUS
 62
     4
100
AcDbLine
 10
1594.273226
 20
563.073848
 30
0.0
 11
1595.139251
 21
564.573848
 31
0.0
  0
LINE
  5
29C
330
1F
100
AcDbEntity
  8
0
  6
CONTINUOUS
 62
     4
100
AcDbLine
 10
1594.273226
 20
563.073848
 30
0.0
 11
1594.850576
 21
562.073848
 31
0.0
  0
LINE
  5
29D
330
1F
100
AcDbEntity
  8
0
  6
CONTINUOUS
 62
     4
100
AcDbLine
 10
1596.871302
 20
564.573848
 30
0.0
 11
1597.737328
 21
563.073848
 31
0.0
  0
LINE
  5
29E
330
1F
100
AcDbEntity
  8
0
  6
CONTINUOUS
 62
     4
100
AcDbLine
 10
1585.505277
 20
579.573848
 30
0.0
 11
1579.505277
 21
573.573848
 31
0.0
  0
LINE
  5
29F
330
1F
100
AcDbEntity
  8
0
  6
CONTINUOUS
 62
     4
100
AcDbLine
 10
1606.505277
 20
579.573848
 30
0.0
 11
1612.505277
 21
573.573848
 31
0.0
  0
LINE
  5
2A0
330
1F
100
AcDbEntity
  8
0
  6
CONTINUOUS
 62
     4
100
AcDbLine
 10
1578.005277
 20
574.073848
 30
0.0
 11
1585.005277
 21
581.073848
 31
0.0
  0
LINE
  5
2A1
330
1F
100
AcDbEntity
  8
0
  6
CONTINUOUS
 62
     4
100
AcDbLine
 10
1607.005277
 20
581.073848
 30
0.0
 11
1614.005277
 21
574.073848
 31
0.0
  0
LINE
  5
2A2
330
1F
100
AcDbEntity
  8
0
  6
CONTINUOUS
 62
     4
100
AcDbLine
 10
1617.005277
 20
573.073848
 30
0.0
 11
1617.005277
 21
562.073848
 31
0.0
  0
LINE
  5
2A3
330
1F
100
AcDbEntity
  8
0
  6
CONTINUOUS
 62
     4
100
AcDbLine
 10
1619.505277
 20
571.073848
 30
0.0
 11
1619.505277
 21
562.073848
 31
0.0
  0
LINE
  5
2A4
330
1F
100
AcDbEntity
  8
0
  6
CONTINUOUS
 62
     4
100
AcDbLine
 10
1617.005277
 20
573.073848
 30
0.0
 11
1614.005277
 21
573.073848
 31
0.0
  0
LINE
  5
2A5
330
1F
100
AcDbEntity
  8
0
  6
CONTINUOUS
 62
     4
100
AcDbLine
 10
1619.505277
 20
571.073848
 30
0.0
 11
1617.005277
 21
571.073848
 31
0.0
  0
LINE
  5
2A6
330
1F
100
AcDbEntity
  8
0
  6
CONTINUOUS
 62
     5
100
AcDbLine
 10
1649.505277
 20
567.073848
 30
0.0
 11
1612.505277
 21
567.073848
 31
0.0
  0
LINE
  5
2A7
330
1F
100
AcDbEntity
  8
0
  6
CONTINUOUS
 62
     4
100
AcDbLine
 10
1649.505277
 20
565.573848
 30
0.0
 11
1619.505277
 21
565.573848
 31
0.0
  0
LINE
  5
2A8
330
1F
100
AcDbEntity
  8
0
  6
CONTINUOUS
 62
     4
100
AcDbLine
 10
1649.505277
 20
568.573848
 30
0.0
 11
1619.505277
 21
568.573848
 31
0.0
  0
LINE
  5
2A9
330
1F
100
AcDbEntity
  8
0
  6
CONTINUOUS
 62
     5
100
AcDbLine
 10
1621.005277
 20
565.573848
 30
0.0
 11
1621.005277
 21
562.073848
 31
0.0
  0
ARC
  5
2AA
330
1F
100
AcDbEntity
  8
0
  6
CONTINUOUS
 62
     4
100
AcDbCircle
 10
1594.845621
 20
589.138977
 30
0.0
 40
12.34051592271665
100
AcDbArc
 50
212.603801
 51
220.809702
  0
LINE
  5
2AB
330
1F
100
AcDbEntity
  8
0
  6
CONTINUOUS
 62
     4
100
AcDbLine
 10
1579.005277
 20
577.221866
 30
0.0
 11
1579.005277
 21
575.073848
 31
0.0
  0
ARC
  5
2AC
330
1F
100
AcDbEntity
  8
0
  6
CONTINUOUS
 62
     7
100
AcDbCircle
 10
1705.505277
 20
627.655801
 30
0.0
 40
2.0
100
AcDbArc
 50
90.0
 51
180.0
  0
ARC
  5
2AD
330
1F
100
AcDbEntity
  8
0
  6
CONTINUOUS
 62
     7
100
AcDbCircle
 10
1759.505277
 20
587.224252
 30
0.0
 40
2.0
100
AcDbArc
 50
270.0
 51
0.0
  0
ARC
  5
2AE
330
1F
100
AcDbEntity
  8
0
  6
CONTINUOUS
 62
     7
100
AcDbCircle
 10
1759.505277
 20
627.655801
 30
0.0
 40
2.0
100
AcDbArc
 50
0.0
 51
90.0
  0
LINE
  5
2AF
330
1F
100
AcDbEntity
  8
0
  6
CONTINUOUS
 62
     7
100
AcDbLine
 10
1777.205277
 20
591.573848
 30
0.0
 11
1777.205277
 21
586.573848
 31
0.0
  0
LINE
  5
2B0
330
1F
100
AcDbEntity
  8
0
  6
CONTINUOUS
 62
     7
100
AcDbLine
 10
1772.505277
 20
594.073848
 30
0.0
 11
1772.505277
 21
584.073848
 31
0.0
  0
LINE
  5
2B1
330
1F
100
AcDbEntity
  8
0
  6
CONTINUOUS
 62
     7
100
AcDbLine
 10
1773.505277
 20
594.073848
 30
0.0
 11
1773.505277
 21
584.073848
 31
0.0
  0
LINE
  5
2B2
330
1F
100
AcDbEntity
  8
0
  6
CONTINUOUS
 62
     7
100
AcDbLine
 10
1774.805277
 20
594.073848
 30
0.0
 11
1771.505277
 21
594.073848
 31
0.0
  0
LINE
  5
2B3
330
1F
100
AcDbEntity
  8
0
  6
CONTINUOUS
 62
     7
100
AcDbLine
 10
1774.805277
 20
584.073848
 30
0.0
 11
1771.505277
 21
584.073848
 31
0.0
  0
LINE
  5
2B4
330
1F
100
AcDbEntity
  8
0
  6
CONTINUOUS
 62
     7
100
AcDbLine
 10
1774.805277
 20
594.073848
 30
0.0
 11
1774.805277
 21
584.073848
 31
0.0
  0
LINE
  5
2B5
330
1F
100
AcDbEntity
  8
0
  6
CONTINUOUS
 62
     5
100
AcDbLine
 10
1775.205277
 20
593.573848
 30
0.0
 11
1774.805277
 21
593.573848
 31
0.0
  0
LINE
  5
2B6
330
1F
100
AcDbEntity
  8
0
  6
CONTINUOUS
 62
     5
100
AcDbLine
 10
1775.205277
 20
584.573848
 30
0.0
 11
1774.805277
 21
584.573848
 31
0.0
  0
ARC
  5
2B7
330
1F
100
AcDbEntity
  8
0
  6
CONTINUOUS
 62
     7
100
AcDbCircle
 10
1775.205277
 20
591.573848
 30
0.0
 40
2.0
100
AcDbArc
 50
0.0
 51
90.0
  0
ARC
  5
2B8
330
1F
100
AcDbEntity
  8
0
  6
CONTINUOUS
 62
     7
100
AcDbCircle
 10
1775.205277
 20
586.573848
 30
0.0
 40
2.0
100
AcDbArc
 50
270.0
 51
0.0
  0
LINE
  5
2B9
330
1F
100
AcDbEntity
  8
0
  6
CONTINUOUS
 62
     7
100
AcDbLine
 10
1773.505277
 20
587.948015
 30
0.0
 11
1774.805277
 21
590.199681
 31
0.0
  0
LINE
  5
2BA
330
1F
100
AcDbEntity
  8
0
  6
CONTINUOUS
 62
     5
100
AcDbLine
 10
1621.005277
 20
617.858179
 30
0.0
 11
1621.005277
 21
568.573848
 31
0.0
  0
LINE
  5
2BB
330
1F
100
AcDbEntity
  8
0
  6
CONTINUOUS
 62
     5
100
AcDbLine
 10
1596.005277
 20
593.669897
 30
0.0
 11
1596.005277
 21
562.073848
 31
0.0
  0
LINE
  5
2BC
330
1F
100
AcDbEntity
  8
0
  6
CENTER
 62
     5
100
AcDbLine
 10
1794.260253
 20
589.073848
 30
0.0
 11
1481.505277
 21
589.073848
 31
0.0
  0
LINE
  5
2BD
330
1F
100
AcDbEntity
  8
0
  6
CONTINUOUS
 62
     7
100
AcDbLine
 10
1674.03201
 20
633.948899
 30
0.0
 11
1740.864077
 21
616.0413
 31
0.0
  0
LINE
  5
2BE
330
1F
100
AcDbEntity
  8
0
  6
CONTINUOUS
 62
     5
100
AcDbLine
 10
1666.243362
 20
630.600661
 30
0.0
 11
1739.505277
 21
610.97019
 31
0.0
  0
LINE
  5
2BF
330
1F
100
AcDbEntity
  8
0
  6
CONTINUOUS
 62
     7
100
AcDbLine
 10
1668.340677
 20
624.603487
 30
0.0
 11
1738.146477
 21
605.899079
 31
0.0
  0
LINE
  5
2C0
330
1F
100
AcDbEntity
  8
0
  6
CONTINUOUS
 62
     3
100
AcDbLine
 10
1501.505277
 20
587.073848
 30
0.0
 11
1491.505277
 21
587.073848
 31
0.0
  0
LINE
  5
2C1
330
1F
100
AcDbEntity
  8
0
  6
CONTINUOUS
 62
     3
100
AcDbLine
 10
1570.908742
 20
569.388216
 30
0.0
 11
1570.687095
 21
562.073848
 31
0.0
  0
LINE
  5
2C2
330
1F
100
AcDbEntity
  8
0
  6
CONTINUOUS
 62
     3
100
AcDbLine
 10
1503.25505
 20
607.073848
 30
0.0
 11
1501.505277
 21
587.073848
 31
0.0
  0
LINE
  5
2C3
330
1F
100
AcDbEntity
  8
0
  6
CONTINUOUS
 62
     3
100
AcDbLine
 10
1491.505277
 20
587.073848
 30
0.0
 11
1492.499741
 21
562.073848
 31
0.0
  0
LINE
  5
2C4
330
1F
100
AcDbEntity
  8
0
  6
CONTINUOUS
 62
     3
100
AcDbLine
 10
1491.505277
 20
587.073848
 30
0.0
 11
1493.629626
 21
642.571104
 31
0.0
  0
LINE
  5
2C5
330
1F
100
AcDbEntity
  8
0
  6
CONTINUOUS
 62
     3
100
AcDbLine
 10
1558.505277
 20
652.073848
 30
0.0
 11
1558.505277
 21
647.573848
 31
0.0
  0
ARC
  5
2C6
330
1F
100
AcDbEntity
  8
0
  6
CONTINUOUS
 62
     3
100
AcDbCircle
 10
1506.620112
 20
642.073848
 30
0.0
 40
13.0
100
AcDbArc
 50
90.0
 51
177.807877
  0
LINE
  5
2C7
330
1F
100
AcDbEntity
  8
0
  6
CONTINUOUS
 62
     7
100
AcDbLine
 10
1555.405277
 20
649.073848
 30
0.0
 11
1551.405277
 21
649.073848
 31
0.0
  0
LINE
  5
2C8
330
1F
100
AcDbEntity
  8
0
  6
CONTINUOUS
 62
     7
100
AcDbLine
 10
1556.905277
 20
651.823848
 30
0.0
 11
1551.405277
 21
651.823848
 31
0.0
  0
LINE
  5
2C9
330
1F
100
AcDbEntity
  8
0
  6
CONTINUOUS
 62
     7
100
AcDbLine
 10
1556.905277
 20
652.323848
 30
0.0
 11
1556.905277
 21
647.573848
 31
0.0
  0
LINE
  5
2CA
330
1F
100
AcDbEntity
  8
0
  6
CONTINUOUS
 62
     7
100
AcDbLine
 10
1555.405277
 20
651.823848
 30
0.0
 11
1555.405277
 21
647.573848
 31
0.0
  0
LINE
  5
2CB
330
1F
100
AcDbEntity
  8
0
  6
CONTINUOUS
 62
     7
100
AcDbLine
 10
1551.405277
 20
651.823848
 30
0.0
 11
1551.405277
 21
647.573848
 31
0.0
  0
LINE
  5
2CC
330
1F
100
AcDbEntity
  8
0
  6
CONTINUOUS
 62
     7
100
AcDbLine
 10
1558.505277
 20
652.323848
 30
0.0
 11
1556.905277
 21
652.323848
 31
0.0
  0
LINE
  5
2CD
330
1F
100
AcDbEntity
  8
0
  6
CONTINUOUS
 62
     5
100
AcDbLine
 10
1556.688803
 20
646.073848
 30
0.0
 11
1548.297787
 21
646.073848
 31
0.0
  0
LINE
  5
2CE
330
1F
100
AcDbEntity
  8
0
  6
CONTINUOUS
 62
     3
100
AcDbLine
 10
1565.990828
 20
655.073848
 30
0.0
 11
1506.620112
 21
655.073848
 31
0.0
  0
ARC
  5
2CF
330
1F
100
AcDbEntity
  8
0
  6
CONTINUOUS
 62
     3
100
AcDbCircle
 10
1561.505277
 20
652.073848
 30
0.0
 40
3.0
100
AcDbArc
 50
90.0
 51
180.0
  0
LINE
  5
2D0
330
1F
100
AcDbEntity
  8
0
  6
CONTINUOUS
 62
     5
100
AcDbLine
 10
1524.505277
 20
655.073848
 30
0.0
 11
1524.505277
 21
625.63335
 31
0.0
  0
LINE
  5
2D1
330
1F
100
AcDbEntity
  8
0
  6
CONTINUOUS
 62
     3
100
AcDbLine
 10
1556.172024
 20
645.573848
 30
0.0
 11
1506.256467
 21
645.573848
 31
0.0
  0
LINE
  5
2D2
330
1F
100
AcDbEntity
  8
0
  6
CONTINUOUS
 62
     3
100
AcDbLine
 10
1558.239141
 20
647.573848
 30
0.0
 11
1506.333024
 21
647.573848
 31
0.0
  0
ARC
  5
2D3
330
1F
100
AcDbEntity
  8
0
  6
CONTINUOUS
 62
     3
100
AcDbCircle
 10
1506.333024
 20
634.573848
 30
0.0
 40
13.0
100
AcDbArc
 50
90.0
 51
177.807877
  0
ARC
  5
2D4
330
1F
100
AcDbEntity
  8
0
  6
CONTINUOUS
 62
     3
100
AcDbCircle
 10
1506.256467
 20
632.573848
 30
0.0
 40
13.0
100
AcDbArc
 50
90.0
 51
177.807877
  0
ARC
  5
2D5
330
1F
100
AcDbEntity
  8
0
  6
CONTINUOUS
 62
     3
100
AcDbCircle
 10
1524.505277
 20
637.073848
 30
0.0
 40
8.0
100
AcDbArc
 50
0.0
 51
180.0
  0
LINE
  5
2D6
330
1F
100
AcDbEntity
  8
0
  6
CONTINUOUS
 62
     5
100
AcDbLine
 10
1883.22448
 20
605.428167
 30
0.0
 11
1885.210197
 21
598.47817
 31
0.0
  0
ARC
  5
2D7
330
1F
100
AcDbEntity
  8
0
  6
CONTINUOUS
 62
     7
100
AcDbCircle
 10
1909.185641
 20
576.445101
 30
0.0
 40
27.0
100
AcDbArc
 50
327.841134
 51
85.792059
  0
LINE
  5
2D8
330
1F
100
AcDbEntity
  8
0
  6
CONTINUOUS
 62
     7
100
AcDbLine
 10
1883.22448
 20
605.428167
 30
0.0
 11
1911.166804
 21
603.372318
 31
0.0
  0
POINT
  5
2D9
330
1F
100
AcDbEntity
  8
0
  6
CONTINUOUS
 62
     5
100
AcDbPoint
 10
1886.151003
 20
1347.977858
 30
0.0
  0
POINT
  5
2DA
330
1F
100
AcDbEntity
  8
0
  6
CONTINUOUS
 62
     5
100
AcDbPoint
 10
1514.505833
 20
1348.011714
 30
0.0
  0
LINE
  5
2DB
330
1F
100
AcDbEntity
  8
0
  6
CONTINUOUS
 62
     3
100
AcDbLine
 10
277.4992
 20
512.073848
 30
0.0
 11
2498.351096
 21
512.073848
 31
0.0
  0
LINE
  5
2DC
330
1F
100
AcDbEntity
  8
0
  6
CONTINUOUS
 62
     3
100
AcDbLine
 10
860.499741
 20
512.073848
 30
0.0
 11
860.499741
 21
562.073848
 31
0.0
  0
LINE
  5
2DD
330
1F
100
AcDbEntity
  8
0
  6
CONTINUOUS
 62
     3
100
AcDbLine
 10
860.499741
 20
562.073848
 30
0.0
 11
410.499741
 21
562.073848
 31
0.0
  0
LINE
  5
2DE
330
1F
100
AcDbEntity
  8
0
  6
CONTINUOUS
 62
     3
100
AcDbLine
 10
410.499741
 20
562.073848
 30
0.0
 11
410.499741
 21
512.073848
 31
0.0
  0
LINE
  5
2DF
330
1F
100
AcDbEntity
  8
0
  6
CENTER
 62
     5
100
AcDbLine
 10
635.499741
 20
490.993186
 30
0.0
 11
635.499741
 21
1403.067326
 31
0.0
  0
LINE
  5
2E0
330
1F
100
AcDbEntity
  8
0
  6
CONTINUOUS
 62
     3
100
AcDbLine
 10
410.499741
 20
1323.011714
 30
0.0
 11
860.499741
 21
1323.011714
 31
0.0
  0
LINE
  5
2E1
330
1F
100
AcDbEntity
  8
0
  6
CONTINUOUS
 62
     3
100
AcDbLine
 10
860.499741
 20
1323.011714
 30
0.0
 11
860.499741
 21
1373.011714
 31
0.0
  0
LINE
  5
2E2
330
1F
100
AcDbEntity
  8
0
  6
CONTINUOUS
 62
     3
100
AcDbLine
 10
860.499741
 20
1373.011714
 30
0.0
 11
410.499741
 21
1373.011714
 31
0.0
  0
LINE
  5
2E3
330
1F
100
AcDbEntity
  8
0
  6
CONTINUOUS
 62
     3
100
AcDbLine
 10
410.499741
 20
1373.011714
 30
0.0
 11
410.499741
 21
1323.011714
 31
0.0
  0
LINE
  5
2E4
330
1F
100
AcDbEntity
  8
0
  6
CONTINUOUS
 62
     3
100
AcDbLine
 10
581.999741
 20
655.073848
 30
0.0
 11
690.999741
 21
655.073848
 31
0.0
  0
LINE
  5
2E5
330
1F
100
AcDbEntity
  8
0
  6
CONTINUOUS
 62
     3
100
AcDbLine
 10
690.999741
 20
655.073848
 30
0.0
 11
690.999741
 21
653.302264
 31
0.0
  0
LINE
  5
2E6
330
1F
100
AcDbEntity
  8
0
  6
CONTINUOUS
 62
     3
100
AcDbLine
 10
581.999741
 20
655.073848
 30
0.0
 11
581.999741
 21
653.576784
 31
0.0
  0
ARC
  5
2E7
330
1F
100
AcDbEntity
  8
0
  6
CONTINUOUS
 62
     7
100
AcDbCircle
 10
581.999741
 20
646.073848
 30
0.0
 40
7.5
100
AcDbArc
 50
180.0
 51
0.0
  0
CIRCLE
  5
2E8
330
1F
100
AcDbEntity
  8
0
  6
CONTINUOUS
 62
     7
100
AcDbCircle
 10
581.999741
 20
646.073848
 30
0.0
 40
6.25
  0
CIRCLE
  5
2E9
330
1F
100
AcDbEntity
  8
0
  6
CONTINUOUS
 62
     7
100
AcDbCircle
 10
581.999741
 20
646.073848
 30
0.0
 40
5.75
  0
LINE
  5
2EA
330
1F
100
AcDbEntity
  8
0
  6
CONTINUOUS
 62
     7
100
AcDbLine
 10
584.886492
 20
651.073848
 30
0.0
 11
579.112989
 21
651.073848
 31
0.0
  0
LINE
  5
2EB
330
1F
100
AcDbEntity
  8
0
  6
CONTINUOUS
 62
     7
100
AcDbLine
 10
584.886492
 20
641.073848
 30
0.0
 11
579.112989
 21
641.073848
 31
0.0
  0
LINE
  5
2EC
330
1F
100
AcDbEntity
  8
0
  6
CONTINUOUS
 62
     7
100
AcDbLine
 10
576.226238
 20
646.073848
 30
0.0
 11
579.112989
 21
651.073848
 31
0.0
  0
LINE
  5
2ED
330
1F
100
AcDbEntity
  8
0
  6
CONTINUOUS
 62
     7
100
AcDbLine
 10
584.886492
 20
641.073848
 30
0.0
 11
587.773244
 21
646.073848
 31
0.0
  0
LINE
  5
2EE
330
1F
100
AcDbEntity
  8
0
  6
CONTINUOUS
 62
     7
100
AcDbLine
 10
584.886492
 20
651.073848
 30
0.0
 11
587.773244
 21
646.073848
 31
0.0
  0
LINE
  5
2EF
330
1F
100
AcDbEntity
  8
0
  6
CONTINUOUS
 62
     7
100
AcDbLine
 10
576.226238
 20
646.073848
 30
0.0
 11
579.112989
 21
641.073848
 31
0.0
  0
LINE
  5
2F0
330
1F
100
AcDbEntity
  8
0
  6
CONTINUOUS
 62
     5
100
AcDbLine
 10
592.717944
 20
646.073848
 30
0.0
 11
584.999741
 21
646.073848
 31
0.0
  0
LINE
  5
2F1
330
1F
100
AcDbEntity
  8
0
  6
CONTINUOUS
 62
     5
100
AcDbLine
 10
581.999741
 20
659.739335
 30
0.0
 11
581.999741
 21
649.073848
 31
0.0
  0
LINE
  5
2F2
330
1F
100
AcDbEntity
  8
0
  6
CONTINUOUS
 62
     5
100
AcDbLine
 10
578.999741
 20
646.073848
 30
0.0
 11
569.951477
 21
646.073848
 31
0.0
  0
LINE
  5
2F3
330
1F
100
AcDbEntity
  8
0
  6
CONTINUOUS
 62
     3
100
AcDbLine
 10
584.999741
 20
646.073848
 30
0.0
 11
578.999741
 21
646.073848
 31
0.0
  0
LINE
  5
2F4
330
1F
100
AcDbEntity
  8
0
  6
CONTINUOUS
 62
     3
100
AcDbLine
 10
581.999741
 20
649.073848
 30
0.0
 11
581.999741
 21
643.073848
 31
0.0
  0
LINE
  5
2F5
330
1F
100
AcDbEntity
  8
0
  6
CONTINUOUS
 62
     5
100
AcDbLine
 10
581.999741
 20
643.073848
 30
0.0
 11
581.999741
 21
634.185138
 31
0.0
  0
ARC
  5
2F6
330
1F
100
AcDbEntity
  8
0
  6
CONTINUOUS
 62
     7
100
AcDbCircle
 10
688.999741
 20
646.073848
 30
0.0
 40
7.5
100
AcDbArc
 50
180.0
 51
0.0
  0
CIRCLE
  5
2F7
330
1F
100
AcDbEntity
  8
0
  6
CONTINUOUS
 62
     7
100
AcDbCircle
 10
688.999741
 20
646.073848
 30
0.0
 40
6.25
  0
CIRCLE
  5
2F8
330
1F
100
AcDbEntity
  8
0
  6
CONTINUOUS
 62
     7
100
AcDbCircle
 10
688.999741
 20
646.073848
 30
0.0
 40
5.75
  0
LINE
  5
2F9
330
1F
100
AcDbEntity
  8
0
  6
CONTINUOUS
 62
     7
100
AcDbLine
 10
686.112989
 20
651.073848
 30
0.0
 11
691.886492
 21
651.073848
 31
0.0
  0
LINE
  5
2FA
330
1F
100
AcDbEntity
  8
0
  6
CONTINUOUS
 62
     7
100
AcDbLine
 10
686.112989
 20
641.073848
 30
0.0
 11
691.886492
 21
641.073848
 31
0.0
  0
LINE
  5
2FB
330
1F
100
AcDbEntity
  8
0
  6
CONTINUOUS
 62
     7
100
AcDbLine
 10
694.773244
 20
646.073848
 30
0.0
 11
691.886492
 21
651.073848
 31
0.0
  0
LINE
  5
2FC
330
1F
100
AcDbEntity
  8
0
  6
CONTINUOUS
 62
     7
100
AcDbLine
 10
686.112989
 20
641.073848
 30
0.0
 11
683.226238
 21
646.073848
 31
0.0
  0
LINE
  5
2FD
330
1F
100
AcDbEntity
  8
0
  6
CONTINUOUS
 62
     7
100
AcDbLine
 10
686.112989
 20
651.073848
 30
0.0
 11
683.226238
 21
646.073848
 31
0.0
  0
LINE
  5
2FE
330
1F
100
AcDbEntity
  8
0
  6
CONTINUOUS
 62
     7
100
AcDbLine
 10
694.773244
 20
646.073848
 30
0.0
 11
691.886492
 21
641.073848
 31
0.0
  0
LINE
  5
2FF
330
1F
100
AcDbEntity
  8
0
  6
CONTINUOUS
 62
     5
100
AcDbLine
 10
678.281537
 20
646.073848
 30
0.0
 11
685.999741
 21
646.073848
 31
0.0
  0
LINE
  5
300
330
1F
100
AcDbEntity
  8
0
  6
CONTINUOUS
 62
     5
100
AcDbLine
 10
691.999741
 20
646.073848
 30
0.0
 11
701.048004
 21
646.073848
 31
0.0
  0
LINE
  5
301
330
1F
100
AcDbEntity
  8
0
  6
CONTINUOUS
 62
     3
100
AcDbLine
 10
685.999741
 20
646.073848
 30
0.0
 11
691.999741
 21
646.073848
 31
0.0
  0
LINE
  5
302
330
1F
100
AcDbEntity
  8
0
  6
CONTINUOUS
 62
     3
100
AcDbLine
 10
688.999741
 20
649.073848
 30
0.0
 11
688.999741
 21
643.073848
 31
0.0
  0
LINE
  5
303
330
1F
100
AcDbEntity
  8
0
  6
CONTINUOUS
 62
     5
100
AcDbLine
 10
688.999741
 20
643.073848
 30
0.0
 11
688.999741
 21
634.185138
 31
0.0
  0
LINE
  5
304
330
1F
100
AcDbEntity
  8
0
  6
CONTINUOUS
 62
     7
100
AcDbLine
 10
681.499741
 20
650.869426
 30
0.0
 11
681.499741
 21
646.073848
 31
0.0
  0
LINE
  5
305
330
1F
100
AcDbEntity
  8
0
  6
CONTINUOUS
 62
     5
100
AcDbLine
 10
696.499741
 20
646.372567
 30
0.0
 11
696.499741
 21
646.073848
 31
0.0
  0
LINE
  5
306
330
1F
100
AcDbEntity
  8
0
  6
CONTINUOUS
 62
     5
100
AcDbLine
 10
688.999741
 20
659.739335
 30
0.0
 11
688.999741
 21
649.073848
 31
0.0
  0
LINE
  5
307
330
1F
100
AcDbEntity
  8
0
  6
CONTINUOUS
 62
     3
100
AcDbLine
 10
765.499741
 20
587.073848
 30
0.0
 11
764.680069
 21
562.073848
 31
0.0
  0
LINE
  5
308
330
1F
100
AcDbEntity
  8
0
  6
CONTINUOUS
 62
     3
100
AcDbLine
 10
505.499741
 20
587.073848
 30
0.0
 11
506.319413
 21
562.073848
 31
0.0
  0
LINE
  5
309
330
1F
100
AcDbEntity
  8
0
  6
CONTINUOUS
 62
     3
100
AcDbLine
 10
763.745843
 20
642.760112
 30
0.0
 11
765.499741
 21
587.073848
 31
0.0
  0
LINE
  5
30A
330
1F
100
AcDbEntity
  8
0
  6
CONTINUOUS
 62
     3
100
AcDbLine
 10
698.238406
 20
647.865103
 30
0.0
 11
760.852733
 21
645.663818
 31
0.0
  0
LINE
  5
30B
330
1F
100
AcDbEntity
  8
0
  6
CONTINUOUS
 62
     3
100
AcDbLine
 10
635.499741
 20
655.073848
 30
0.0
 11
689.209528
 21
653.570914
 31
0.0
  0
ARC
  5
30C
330
1F
100
AcDbEntity
  8
0
  6
CONTINUOUS
 62
     7
100
AcDbCircle
 10
678.499741
 20
650.869426
 30
0.0
 40
3.0
100
AcDbArc
 50
0.0
 51
88.397139
  0
ARC
  5
30D
330
1F
100
AcDbEntity
  8
0
  6
CONTINUOUS
 62
     7
100
AcDbCircle
 10
697.999741
 20
646.372567
 30
0.0
 40
1.5
100
AcDbArc
 50
87.986525
 51
180.0
  0
ARC
  5
30E
330
1F
100
AcDbEntity
  8
0
  6
CONTINUOUS
 62
     3
100
AcDbCircle
 10
688.999741
 20
646.073848
 30
0.0
 40
7.5
100
AcDbArc
 50
27.137895
 51
90.0
  0
ARC
  5
30F
330
1F
100
AcDbEntity
  8
0
  6
CONTINUOUS
 62
     3
100
AcDbCircle
 10
698.34381
 20
650.863251
 30
0.0
 40
3.0
100
AcDbArc
 50
207.137895
 51
267.986525
  0
ARC
  5
310
330
1F
100
AcDbEntity
  8
0
  6
CONTINUOUS
 62
     3
100
AcDbCircle
 10
751.046785
 20
633.000527
 30
0.0
 40
13.0
100
AcDbArc
 50
1.803995
 51
87.986525
  0
ARC
  5
311
330
1F
100
AcDbEntity
  8
0
  6
CONTINUOUS
 62
     3
100
AcDbCircle
 10
760.74733
 20
642.66567
 30
0.0
 40
3.0
100
AcDbArc
 50
1.803995
 51
87.986525
  0
ARC
  5
312
330
1F
100
AcDbEntity
  8
0
  6
CONTINUOUS
 62
     7
100
AcDbCircle
 10
592.499741
 20
650.869426
 30
0.0
 40
3.0
100
AcDbArc
 50
91.602861
 51
180.0
  0
LINE
  5
313
330
1F
100
AcDbEntity
  8
0
  6
CONTINUOUS
 62
     3
100
AcDbLine
 10
635.499741
 20
655.073848
 30
0.0
 11
581.789954
 21
653.570914
 31
0.0
  0
ARC
  5
314
330
1F
100
AcDbEntity
  8
0
  6
CONTINUOUS
 62
     3
100
AcDbCircle
 10
581.999741
 20
646.073848
 30
0.0
 40
7.5
100
AcDbArc
 50
90.0
 51
152.862105
  0
ARC
  5
315
330
1F
100
AcDbEntity
  8
0
  6
CONTINUOUS
 62
     3
100
AcDbCircle
 10
572.655672
 20
650.863251
 30
0.0
 40
3.0
100
AcDbArc
 50
272.013475
 51
332.862105
  0
LINE
  5
316
330
1F
100
AcDbEntity
  8
0
  6
CONTINUOUS
 62
     3
100
AcDbLine
 10
572.761076
 20
647.865103
 30
0.0
 11
510.146748
 21
645.663818
 31
0.0
  0
ARC
  5
317
330
1F
100
AcDbEntity
  8
0
  6
CONTINUOUS
 62
     7
100
AcDbCircle
 10
572.999741
 20
646.372567
 30
0.0
 40
1.5
100
AcDbArc
 50
0.0
 51
92.013475
  0
LINE
  5
318
330
1F
100
AcDbEntity
  8
0
  6
CONTINUOUS
 62
     7
100
AcDbLine
 10
589.499741
 20
650.869426
 30
0.0
 11
589.499741
 21
646.073848
 31
0.0
  0
ARC
  5
319
330
1F
100
AcDbEntity
  8
0
  6
CONTINUOUS
 62
     3
100
AcDbCircle
 10
510.252152
 20
642.66567
 30
0.0
 40
3.0
100
AcDbArc
 50
92.013475
 51
178.196005
  0
ARC
  5
31A
330
1F
100
AcDbEntity
  8
0
  6
CONTINUOUS
 62
     3
100
AcDbCircle
 10
519.952697
 20
633.000527
 30
0.0
 40
13.0
100
AcDbArc
 50
92.013475
 51
178.196005
  0
LINE
  5
31B
330
1F
100
AcDbEntity
  8
0
  6
CONTINUOUS
 62
     3
100
AcDbLine
 10
507.253639
 20
642.760112
 30
0.0
 11
505.499741
 21
587.073848
 31
0.0
  0
LINE
  5
31C
330
1F
100
AcDbEntity
  8
0
  6
CONTINUOUS
 62
     5
100
AcDbLine
 10
480.819142
 20
637.073848
 30
0.0
 11
515.631996
 21
637.073848
 31
0.0
  0
LINE
  5
31D
330
1F
100
AcDbEntity
  8
0
  6
CONTINUOUS
 62
     3
100
AcDbLine
 10
556.499741
 20
654.073848
 30
0.0
 11
534.499741
 21
654.073848
 31
0.0
  0
LINE
  5
31E
330
1F
100
AcDbEntity
  8
0
  6
CONTINUOUS
 62
     3
100
AcDbLine
 10
534.499741
 20
654.073848
 30
0.0
 11
534.499741
 21
649.073848
 31
0.0
  0
LINE
  5
31F
330
1F
100
AcDbEntity
  8
0
  6
CONTINUOUS
 62
     3
100
AcDbLine
 10
556.499741
 20
654.073848
 30
0.0
 11
556.499741
 21
649.073848
 31
0.0
  0
LINE
  5
320
330
1F
100
AcDbEntity
  8
0
  6
CONTINUOUS
 62
     3
100
AcDbLine
 10
551.499741
 20
654.073848
 30
0.0
 11
551.499741
 21
649.073848
 31
0.0
  0
LINE
  5
321
330
1F
100
AcDbEntity
  8
0
  6
CONTINUOUS
 62
     3
100
AcDbLine
 10
539.499741
 20
654.073848
 30
0.0
 11
539.499741
 21
649.073848
 31
0.0
  0
LINE
  5
322
330
1F
100
AcDbEntity
  8
0
  6
CONTINUOUS
 62
     3
100
AcDbLine
 10
529.999741
 20
649.073848
 30
0.0
 11
529.999741
 21
646.573848
 31
0.0
  0
LINE
  5
323
330
1F
100
AcDbEntity
  8
0
  6
CONTINUOUS
 62
     3
100
AcDbLine
 10
560.999741
 20
649.073848
 30
0.0
 11
560.999741
 21
647.451619
 31
0.0
  0
LINE
  5
324
330
1F
100
AcDbEntity
  8
0
  6
CONTINUOUS
 62
     3
100
AcDbLine
 10
560.999741
 20
649.073848
 30
0.0
 11
529.999741
 21
649.073848
 31
0.0
  0
LINE
  5
325
330
1F
100
AcDbEntity
  8
0
  6
CONTINUOUS
 62
     5
100
AcDbLine
 10
545.499741
 20
656.673848
 30
0.0
 11
545.499741
 21
627.63335
 31
0.0
  0
LINE
  5
326
330
1F
100
AcDbEntity
  8
0
  6
CONTINUOUS
 62
     3
100
AcDbLine
 10
801.499741
 20
562.073848
 30
0.0
 11
801.499741
 21
1323.011714
 31
0.0
  0
LINE
  5
327
330
1F
100
AcDbEntity
  8
0
  6
CONTINUOUS
 62
     3
100
AcDbLine
 10
810.499741
 20
562.073848
 30
0.0
 11
810.499741
 21
1323.011714
 31
0.0
  0
LINE
  5
328
330
1F
100
AcDbEntity
  8
0
  6
CONTINUOUS
 62
     3
100
AcDbLine
 10
801.499741
 20
926.573846
 30
0.0
 11
810.499741
 21
926.573846
 31
0.0
  0
LINE
  5
329
330
1F
100
AcDbEntity
  8
0
  6
CONTINUOUS
 62
     3
100
AcDbLine
 10
814.499741
 20
1323.011714
 30
0.0
 11
814.499741
 21
562.073848
 31
0.0
  0
LINE
  5
32A
330
1F
100
AcDbEntity
  8
0
  6
CONTINUOUS
 62
     3
100
AcDbLine
 10
814.499741
 20
958.539989
 30
0.0
 11
823.499741
 21
958.539989
 31
0.0
  0
LINE
  5
32B
330
1F
100
AcDbEntity
  8
0
  6
CONTINUOUS
 62
     3
100
AcDbLine
 10
823.499741
 20
1323.011714
 30
0.0
 11
823.499741
 21
562.073848
 31
0.0
  0
LINE
  5
32C
330
1F
100
AcDbEntity
  8
0
  6
CENTER
 62
     5
100
AcDbLine
 10
860.499741
 20
1145.275852
 30
0.0
 11
469.499741
 21
1145.275852
 31
0.0
  0
LINE
  5
32D
330
1F
100
AcDbEntity
  8
0
  6
CENTER
 62
     5
100
AcDbLine
 10
860.499741
 20
739.806919
 30
0.0
 11
410.499741
 21
739.806919
 31
0.0
  0
LINE
  5
32E
330
1F
100
AcDbEntity
  8
0
  6
CENTER
 62
     5
100
AcDbLine
 10
860.499741
 20
886.101776
 30
0.0
 11
410.499741
 21
886.101776
 31
0.0
  0
LINE
  5
32F
330
1F
100
AcDbEntity
  8
0
  6
CENTER
 62
     5
100
AcDbLine
 10
677.999741
 20
816.934493
 30
0.0
 11
592.999741
 21
816.934493
 31
0.0
  0
LINE
  5
330
330
1F
100
AcDbEntity
  8
0
  6
CENTER
 62
     5
100
AcDbLine
 10
860.499741
 20
1183.513122
 30
0.0
 11
410.499741
 21
1183.513122
 31
0.0
  0
LINE
  5
331
330
1F
100
AcDbEntity
  8
0
  6
CONTINUOUS
 62
     3
100
AcDbLine
 10
469.499741
 20
562.073848
 30
0.0
 11
469.499741
 21
1323.011714
 31
0.0
  0
LINE
  5
332
330
1F
100
AcDbEntity
  8
0
  6
CONTINUOUS
 62
     3
100
AcDbLine
 10
460.499741
 20
562.073848
 30
0.0
 11
460.499741
 21
1323.011714
 31
0.0
  0
LINE
  5
333
330
1F
100
AcDbEntity
  8
0
  6
CONTINUOUS
 62
     3
100
AcDbLine
 10
469.499741
 20
926.573846
 30
0.0
 11
460.499741
 21
926.573846
 31
0.0
  0
LINE
  5
334
330
1F
100
AcDbEntity
  8
0
  6
CONTINUOUS
 62
     3
100
AcDbLine
 10
456.499741
 20
1323.011714
 30
0.0
 11
456.499741
 21
562.073848
 31
0.0
  0
LINE
  5
335
330
1F
100
AcDbEntity
  8
0
  6
CONTINUOUS
 62
     3
100
AcDbLine
 10
456.499741
 20
958.539989
 30
0.0
 11
447.499741
 21
958.539989
 31
0.0
  0
LINE
  5
336
330
1F
100
AcDbEntity
  8
0
  6
CONTINUOUS
 62
     3
100
AcDbLine
 10
447.499741
 20
1323.011714
 30
0.0
 11
447.499741
 21
562.073848
 31
0.0
  0
LINE
  5
337
330
1F
100
AcDbEntity
  8
0
  6
CONTINUOUS
 62
     3
100
AcDbLine
 10
801.499741
 20
1213.763122
 30
0.0
 11
469.499741
 21
1213.763122
 31
0.0
  0
LINE
  5
338
330
1F
100
AcDbEntity
  8
0
  6
CONTINUOUS
 62
     3
100
AcDbLine
 10
801.499741
 20
1153.263122
 30
0.0
 11
469.499741
 21
1153.263122
 31
0.0
  0
LINE
  5
339
330
1F
100
AcDbEntity
  8
0
  6
CONTINUOUS
 62
     3
100
AcDbLine
 10
801.499741
 20
916.351776
 30
0.0
 11
469.499741
 21
916.351776
 31
0.0
  0
LINE
  5
33A
330
1F
100
AcDbEntity
  8
0
  6
CONTINUOUS
 62
     3
100
AcDbLine
 10
801.499741
 20
855.851776
 30
0.0
 11
667.999741
 21
855.851776
 31
0.0
  0
LINE
  5
33B
330
1F
100
AcDbEntity
  8
0
  6
CONTINUOUS
 62
     5
100
AcDbLine
 10
786.499741
 20
744.714396
 30
0.0
 11
786.499741
 21
734.899441
 31
0.0
  0
LINE
  5
33C
330
1F
100
AcDbEntity
  8
0
  6
CONTINUOUS
 62
     5
100
AcDbLine
 10
832.499741
 20
752.806919
 30
0.0
 11
832.499741
 21
726.806919
 31
0.0
  0
LINE
  5
33D
330
1F
100
AcDbEntity
  8
0
  6
CONTINUOUS
 62
     5
100
AcDbLine
 10
831.338628
 20
754.818026
 30
0.0
 11
823.499741
 21
754.818026
 31
0.0
  0
LINE
  5
33E
330
1F
100
AcDbEntity
  8
0
  6
CONTINUOUS
 62
     5
100
AcDbLine
 10
832.499741
 20
747.312472
 30
0.0
 11
823.499741
 21
747.312472
 31
0.0
  0
LINE
  5
33F
330
1F
100
AcDbEntity
  8
0
  6
CONTINUOUS
 62
     5
100
AcDbLine
 10
832.499741
 20
732.301365
 30
0.0
 11
823.499741
 21
732.301365
 31
0.0
  0
LINE
  5
340
330
1F
100
AcDbEntity
  8
0
  6
CONTINUOUS
 62
     5
100
AcDbLine
 10
831.338628
 20
724.795812
 30
0.0
 11
823.499741
 21
724.795812
 31
0.0
  0
LINE
  5
341
330
1F
100
AcDbEntity
  8
0
  6
CONTINUOUS
 62
     5
100
AcDbLine
 10
831.338628
 20
724.795812
 30
0.0
 11
832.499741
 21
726.806919
 31
0.0
  0
LINE
  5
342
330
1F
100
AcDbEntity
  8
0
  6
CONTINUOUS
 62
     5
100
AcDbLine
 10
831.338628
 20
754.818026
 30
0.0
 11
832.499741
 21
752.806919
 31
0.0
  0
LINE
  5
343
330
1F
100
AcDbEntity
  8
0
  6
CONTINUOUS
 62
     5
100
AcDbLine
 10
810.499741
 20
753.806919
 30
0.0
 11
814.499741
 21
753.806919
 31
0.0
  0
LINE
  5
344
330
1F
100
AcDbEntity
  8
0
  6
CONTINUOUS
 62
     5
100
AcDbLine
 10
810.499741
 20
725.806919
 30
0.0
 11
814.499741
 21
725.806919
 31
0.0
  0
LINE
  5
345
330
1F
100
AcDbEntity
  8
0
  6
CONTINUOUS
 62
     5
100
AcDbLine
 10
799.499741
 20
748.806919
 30
0.0
 11
799.499741
 21
730.806919
 31
0.0
  0
LINE
  5
346
330
1F
100
AcDbEntity
  8
0
  6
CONTINUOUS
 62
     5
100
AcDbLine
 10
796.999741
 20
749.621873
 30
0.0
 11
796.999741
 21
729.991964
 31
0.0
  0
LINE
  5
347
330
1F
100
AcDbEntity
  8
0
  6
CONTINUOUS
 62
     5
100
AcDbLine
 10
796.999741
 20
748.806919
 30
0.0
 11
801.499741
 21
748.806919
 31
0.0
  0
LINE
  5
348
330
1F
100
AcDbEntity
  8
0
  6
CONTINUOUS
 62
     5
100
AcDbLine
 10
796.999741
 20
730.806919
 30
0.0
 11
801.499741
 21
730.806919
 31
0.0
  0
LINE
  5
349
330
1F
100
AcDbEntity
  8
0
  6
CONTINUOUS
 62
     5
100
AcDbLine
 10
796.999741
 20
749.621873
 30
0.0
 11
789.75893
 21
749.621873
 31
0.0
  0
LINE
  5
34A
330
1F
100
AcDbEntity
  8
0
  6
CONTINUOUS
 62
     5
100
AcDbLine
 10
786.499741
 20
744.714396
 30
0.0
 11
796.999741
 21
744.714396
 31
0.0
  0
LINE
  5
34B
330
1F
100
AcDbEntity
  8
0
  6
CONTINUOUS
 62
     5
100
AcDbLine
 10
786.499741
 20
734.899441
 30
0.0
 11
796.999741
 21
734.899441
 31
0.0
  0
LINE
  5
34C
330
1F
100
AcDbEntity
  8
0
  6
CONTINUOUS
 62
     5
100
AcDbLine
 10
789.75893
 20
729.991964
 30
0.0
 11
796.999741
 21
729.991964
 31
0.0
  0
LINE
  5
34D
330
1F
100
AcDbEntity
  8
0
  6
CONTINUOUS
 62
     5
100
AcDbLine
 10
789.75893
 20
729.991964
 30
0.0
 11
788.999741
 21
731.306919
 31
0.0
  0
LINE
  5
34E
330
1F
100
AcDbEntity
  8
0
  6
CONTINUOUS
 62
     5
100
AcDbLine
 10
789.75893
 20
749.621873
 30
0.0
 11
788.999741
 21
748.306919
 31
0.0
  0
LINE
  5
34F
330
1F
100
AcDbEntity
  8
0
  6
CONTINUOUS
 62
     5
100
AcDbLine
 10
788.999741
 20
748.306919
 30
0.0
 11
788.999741
 21
731.306919
 31
0.0
  0
LINE
  5
350
330
1F
100
AcDbEntity
  8
0
  6
CONTINUOUS
 62
     5
100
AcDbLine
 10
484.499741
 20
744.714396
 30
0.0
 11
484.499741
 21
734.899441
 31
0.0
  0
LINE
  5
351
330
1F
100
AcDbEntity
  8
0
  6
CONTINUOUS
 62
     5
100
AcDbLine
 10
438.499741
 20
752.806919
 30
0.0
 11
438.499741
 21
726.806919
 31
0.0
  0
LINE
  5
352
330
1F
100
AcDbEntity
  8
0
  6
CONTINUOUS
 62
     5
100
AcDbLine
 10
439.660854
 20
754.818026
 30
0.0
 11
447.499741
 21
754.818026
 31
0.0
  0
LINE
  5
353
330
1F
100
AcDbEntity
  8
0
  6
CONTINUOUS
 62
     5
100
AcDbLine
 10
438.499741
 20
747.312472
 30
0.0
 11
447.499741
 21
747.312472
 31
0.0
  0
LINE
  5
354
330
1F
100
AcDbEntity
  8
0
  6
CONTINUOUS
 62
     5
100
AcDbLine
 10
438.499741
 20
732.301365
 30
0.0
 11
447.499741
 21
732.301365
 31
0.0
  0
LINE
  5
355
330
1F
100
AcDbEntity
  8
0
  6
CONTINUOUS
 62
     5
100
AcDbLine
 10
439.660854
 20
724.795812
 30
0.0
 11
447.499741
 21
724.795812
 31
0.0
  0
LINE
  5
356
330
1F
100
AcDbEntity
  8
0
  6
CONTINUOUS
 62
     5
100
AcDbLine
 10
439.660854
 20
724.795812
 30
0.0
 11
438.499741
 21
726.806919
 31
0.0
  0
LINE
  5
357
330
1F
100
AcDbEntity
  8
0
  6
CONTINUOUS
 62
     5
100
AcDbLine
 10
439.660854
 20
754.818026
 30
0.0
 11
438.499741
 21
752.806919
 31
0.0
  0
LINE
  5
358
330
1F
100
AcDbEntity
  8
0
  6
CONTINUOUS
 62
     5
100
AcDbLine
 10
460.499741
 20
753.806919
 30
0.0
 11
456.499741
 21
753.806919
 31
0.0
  0
LINE
  5
359
330
1F
100
AcDbEntity
  8
0
  6
CONTINUOUS
 62
     5
100
AcDbLine
 10
460.499741
 20
725.806919
 30
0.0
 11
456.499741
 21
725.806919
 31
0.0
  0
LINE
  5
35A
330
1F
100
AcDbEntity
  8
0
  6
CONTINUOUS
 62
     5
100
AcDbLine
 10
471.499741
 20
748.806919
 30
0.0
 11
471.499741
 21
730.806919
 31
0.0
  0
LINE
  5
35B
330
1F
100
AcDbEntity
  8
0
  6
CONTINUOUS
 62
     5
100
AcDbLine
 10
473.999741
 20
749.621873
 30
0.0
 11
473.999741
 21
729.991964
 31
0.0
  0
LINE
  5
35C
330
1F
100
AcDbEntity
  8
0
  6
CONTINUOUS
 62
     5
100
AcDbLine
 10
473.999741
 20
748.806919
 30
0.0
 11
469.499741
 21
748.806919
 31
0.0
  0
LINE
  5
35D
330
1F
100
AcDbEntity
  8
0
  6
CONTINUOUS
 62
     5
100
AcDbLine
 10
473.999741
 20
730.806919
 30
0.0
 11
469.499741
 21
730.806919
 31
0.0
  0
LINE
  5
35E
330
1F
100
AcDbEntity
  8
0
  6
CONTINUOUS
 62
     5
100
AcDbLine
 10
473.999741
 20
749.621873
 30
0.0
 11
481.240551
 21
749.621873
 31
0.0
  0
LINE
  5
35F
330
1F
100
AcDbEntity
  8
0
  6
CONTINUOUS
 62
     5
100
AcDbLine
 10
484.499741
 20
744.714396
 30
0.0
 11
473.999741
 21
744.714396
 31
0.0
  0
LINE
  5
360
330
1F
100
AcDbEntity
  8
0
  6
CONTINUOUS
 62
     5
100
AcDbLine
 10
484.499741
 20
734.899441
 30
0.0
 11
473.999741
 21
734.899441
 31
0.0
  0
LINE
  5
361
330
1F
100
AcDbEntity
  8
0
  6
CONTINUOUS
 62
     5
100
AcDbLine
 10
481.240551
 20
729.991964
 30
0.0
 11
473.999741
 21
729.991964
 31
0.0
  0
LINE
  5
362
330
1F
100
AcDbEntity
  8
0
  6
CONTINUOUS
 62
     5
100
AcDbLine
 10
481.240551
 20
729.991964
 30
0.0
 11
481.999741
 21
731.306919
 31
0.0
  0
LINE
  5
363
330
1F
100
AcDbEntity
  8
0
  6
CONTINUOUS
 62
     5
100
AcDbLine
 10
481.240551
 20
749.621873
 30
0.0
 11
481.999741
 21
748.306919
 31
0.0
  0
LINE
  5
364
330
1F
100
AcDbEntity
  8
0
  6
CONTINUOUS
 62
     5
100
AcDbLine
 10
481.999741
 20
748.306919
 30
0.0
 11
481.999741
 21
731.306919
 31
0.0
  0
LINE
  5
365
330
1F
100
AcDbEntity
  8
0
  6
CONTINUOUS
 62
     5
100
AcDbLine
 10
786.499741
 20
1150.183329
 30
0.0
 11
786.499741
 21
1140.368374
 31
0.0
  0
LINE
  5
366
330
1F
100
AcDbEntity
  8
0
  6
CONTINUOUS
 62
     5
100
AcDbLine
 10
832.499741
 20
1158.275852
 30
0.0
 11
832.499741
 21
1132.275852
 31
0.0
  0
LINE
  5
367
330
1F
100
AcDbEntity
  8
0
  6
CONTINUOUS
 62
     5
100
AcDbLine
 10
831.338628
 20
1160.286959
 30
0.0
 11
823.499741
 21
1160.286959
 31
0.0
  0
LINE
  5
368
330
1F
100
AcDbEntity
  8
0
  6
CONTINUOUS
 62
     5
100
AcDbLine
 10
832.499741
 20
1152.781405
 30
0.0
 11
823.499741
 21
1152.781405
 31
0.0
  0
LINE
  5
369
330
1F
100
AcDbEntity
  8
0
  6
CONTINUOUS
 62
     5
100
AcDbLine
 10
832.499741
 20
1137.770298
 30
0.0
 11
823.499741
 21
1137.770298
 31
0.0
  0
LINE
  5
36A
330
1F
100
AcDbEntity
  8
0
  6
CONTINUOUS
 62
     5
100
AcDbLine
 10
831.338628
 20
1130.264745
 30
0.0
 11
823.499741
 21
1130.264745
 31
0.0
  0
LINE
  5
36B
330
1F
100
AcDbEntity
  8
0
  6
CONTINUOUS
 62
     5
100
AcDbLine
 10
831.338628
 20
1130.264745
 30
0.0
 11
832.499741
 21
1132.275852
 31
0.0
  0
LINE
  5
36C
330
1F
100
AcDbEntity
  8
0
  6
CONTINUOUS
 62
     5
100
AcDbLine
 10
831.338628
 20
1160.286959
 30
0.0
 11
832.499741
 21
1158.275852
 31
0.0
  0
LINE
  5
36D
330
1F
100
AcDbEntity
  8
0
  6
CONTINUOUS
 62
     5
100
AcDbLine
 10
810.499741
 20
1159.275852
 30
0.0
 11
814.499741
 21
1159.275852
 31
0.0
  0
LINE
  5
36E
330
1F
100
AcDbEntity
  8
0
  6
CONTINUOUS
 62
     5
100
AcDbLine
 10
810.499741
 20
1131.275852
 30
0.0
 11
814.499741
 21
1131.275852
 31
0.0
  0
LINE
  5
36F
330
1F
100
AcDbEntity
  8
0
  6
CONTINUOUS
 62
     5
100
AcDbLine
 10
799.499741
 20
1154.275852
 30
0.0
 11
799.499741
 21
1136.275852
 31
0.0
  0
LINE
  5
370
330
1F
100
AcDbEntity
  8
0
  6
CONTINUOUS
 62
     5
100
AcDbLine
 10
796.999741
 20
1155.090806
 30
0.0
 11
796.999741
 21
1135.460897
 31
0.0
  0
LINE
  5
371
330
1F
100
AcDbEntity
  8
0
  6
CONTINUOUS
 62
     5
100
AcDbLine
 10
796.999741
 20
1154.275852
 30
0.0
 11
801.499741
 21
1154.275852
 31
0.0
  0
LINE
  5
372
330
1F
100
AcDbEntity
  8
0
  6
CONTINUOUS
 62
     5
100
AcDbLine
 10
796.999741
 20
1136.275852
 30
0.0
 11
801.499741
 21
1136.275852
 31
0.0
  0
LINE
  5
373
330
1F
100
AcDbEntity
  8
0
  6
CONTINUOUS
 62
     5
100
AcDbLine
 10
796.999741
 20
1155.090806
 30
0.0
 11
789.75893
 21
1155.090806
 31
0.0
  0
LINE
  5
374
330
1F
100
AcDbEntity
  8
0
  6
CONTINUOUS
 62
     5
100
AcDbLine
 10
786.499741
 20
1150.183329
 30
0.0
 11
796.999741
 21
1150.183329
 31
0.0
  0
LINE
  5
375
330
1F
100
AcDbEntity
  8
0
  6
CONTINUOUS
 62
     5
100
AcDbLine
 10
786.499741
 20
1140.368374
 30
0.0
 11
796.999741
 21
1140.368374
 31
0.0
  0
LINE
  5
376
330
1F
100
AcDbEntity
  8
0
  6
CONTINUOUS
 62
     5
100
AcDbLine
 10
789.75893
 20
1135.460897
 30
0.0
 11
796.999741
 21
1135.460897
 31
0.0
  0
LINE
  5
377
330
1F
100
AcDbEntity
  8
0
  6
CONTINUOUS
 62
     5
100
AcDbLine
 10
789.75893
 20
1135.460897
 30
0.0
 11
788.999741
 21
1136.775852
 31
0.0
  0
LINE
  5
378
330
1F
100
AcDbEntity
  8
0
  6
CONTINUOUS
 62
     5
100
AcDbLine
 10
789.75893
 20
1155.090806
 30
0.0
 11
788.999741
 21
1153.775852
 31
0.0
  0
LINE
  5
379
330
1F
100
AcDbEntity
  8
0
  6
CONTINUOUS
 62
     5
100
AcDbLine
 10
788.999741
 20
1153.775852
 30
0.0
 11
788.999741
 21
1136.775852
 31
0.0
  0
LINE
  5
37A
330
1F
100
AcDbEntity
  8
0
  6
CONTINUOUS
 62
     5
100
AcDbLine
 10
484.499741
 20
1150.183329
 30
0.0
 11
484.499741
 21
1140.368374
 31
0.0
  0
LINE
  5
37B
330
1F
100
AcDbEntity
  8
0
  6
CONTINUOUS
 62
     5
100
AcDbLine
 10
438.499741
 20
1158.275852
 30
0.0
 11
438.499741
 21
1132.275852
 31
0.0
  0
LINE
  5
37C
330
1F
100
AcDbEntity
  8
0
  6
CONTINUOUS
 62
     5
100
AcDbLine
 10
439.660854
 20
1160.286959
 30
0.0
 11
447.499741
 21
1160.286959
 31
0.0
  0
LINE
  5
37D
330
1F
100
AcDbEntity
  8
0
  6
CONTINUOUS
 62
     5
100
AcDbLine
 10
438.499741
 20
1152.781405
 30
0.0
 11
447.499741
 21
1152.781405
 31
0.0
  0
LINE
  5
37E
330
1F
100
AcDbEntity
  8
0
  6
CONTINUOUS
 62
     5
100
AcDbLine
 10
438.499741
 20
1137.770298
 30
0.0
 11
447.499741
 21
1137.770298
 31
0.0
  0
LINE
  5
37F
330
1F
100
AcDbEntity
  8
0
  6
CONTINUOUS
 62
     5
100
AcDbLine
 10
439.660854
 20
1130.264745
 30
0.0
 11
447.499741
 21
1130.264745
 31
0.0
  0
LINE
  5
380
330
1F
100
AcDbEntity
  8
0
  6
CONTINUOUS
 62
     5
100
AcDbLine
 10
439.660854
 20
1130.264745
 30
0.0
 11
438.499741
 21
1132.275852
 31
0.0
  0
LINE
  5
381
330
1F
100
AcDbEntity
  8
0
  6
CONTINUOUS
 62
     5
100
AcDbLine
 10
439.660854
 20
1160.286959
 30
0.0
 11
438.499741
 21
1158.275852
 31
0.0
  0
LINE
  5
382
330
1F
100
AcDbEntity
  8
0
  6
CONTINUOUS
 62
     5
100
AcDbLine
 10
460.499741
 20
1159.275852
 30
0.0
 11
456.499741
 21
1159.275852
 31
0.0
  0
LINE
  5
383
330
1F
100
AcDbEntity
  8
0
  6
CONTINUOUS
 62
     5
100
AcDbLine
 10
460.499741
 20
1131.275852
 30
0.0
 11
456.499741
 21
1131.275852
 31
0.0
  0
LINE
  5
384
330
1F
100
AcDbEntity
  8
0
  6
CONTINUOUS
 62
     5
100
AcDbLine
 10
471.499741
 20
1154.275852
 30
0.0
 11
471.499741
 21
1136.275852
 31
0.0
  0
LINE
  5
385
330
1F
100
AcDbEntity
  8
0
  6
CONTINUOUS
 62
     5
100
AcDbLine
 10
473.999741
 20
1155.090806
 30
0.0
 11
473.999741
 21
1135.460897
 31
0.0
  0
LINE
  5
386
330
1F
100
AcDbEntity
  8
0
  6
CONTINUOUS
 62
     5
100
AcDbLine
 10
473.999741
 20
1154.275852
 30
0.0
 11
469.499741
 21
1154.275852
 31
0.0
  0
LINE
  5
387
330
1F
100
AcDbEntity
  8
0
  6
CONTINUOUS
 62
     5
100
AcDbLine
 10
473.999741
 20
1136.275852
 30
0.0
 11
469.499741
 21
1136.275852
 31
0.0
  0
LINE
  5
388
330
1F
100
AcDbEntity
  8
0
  6
CONTINUOUS
 62
     5
100
AcDbLine
 10
473.999741
 20
1155.090806
 30
0.0
 11
481.240551
 21
1155.090806
 31
0.0
  0
LINE
  5
389
330
1F
100
AcDbEntity
  8
0
  6
CONTINUOUS
 62
     5
100
AcDbLine
 10
484.499741
 20
1150.183329
 30
0.0
 11
473.999741
 21
1150.183329
 31
0.0
  0
LINE
  5
38A
330
1F
100
AcDbEntity
  8
0
  6
CONTINUOUS
 62
     5
100
AcDbLine
 10
484.499741
 20
1140.368374
 30
0.0
 11
473.999741
 21
1140.368374
 31
0.0
  0
LINE
  5
38B
330
1F
100
AcDbEntity
  8
0
  6
CONTINUOUS
 62
     5
100
AcDbLine
 10
481.240551
 20
1135.460897
 30
0.0
 11
473.999741
 21
1135.460897
 31
0.0
  0
LINE
  5
38C
330
1F
100
AcDbEntity
  8
0
  6
CONTINUOUS
 62
     5
100
AcDbLine
 10
481.240551
 20
1135.460897
 30
0.0
 11
481.999741
 21
1136.775852
 31
0.0
  0
LINE
  5
38D
330
1F
100
AcDbEntity
  8
0
  6
CONTINUOUS
 62
     5
100
AcDbLine
 10
481.240551
 20
1155.090806
 30
0.0
 11
481.999741
 21
1153.775852
 31
0.0
  0
LINE
  5
38E
330
1F
100
AcDbEntity
  8
0
  6
CONTINUOUS
 62
     5
100
AcDbLine
 10
481.999741
 20
1153.775852
 30
0.0
 11
481.999741
 21
1136.775852
 31
0.0
  0
LINE
  5
38F
330
1F
100
AcDbEntity
  8
0
  6
CENTER
 62
     5
100
AcDbLine
 10
860.499741
 20
942.626107
 30
0.0
 11
410.499741
 21
942.626107
 31
0.0
  0
LINE
  5
390
330
1F
100
AcDbEntity
  8
0
  6
CONTINUOUS
 62
     3
100
AcDbLine
 10
2084.305833
 20
1673.011714
 30
0.0
 11
1484.305833
 21
1673.011714
 31
0.0
  0
LINE
  5
391
330
1F
100
AcDbEntity
  8
0
  6
CONTINUOUS
 62
     3
100
AcDbLine
 10
1484.305833
 20
1673.011714
 30
0.0
 11
1484.305833
 21
2123.011714
 31
0.0
  0
LINE
  5
392
330
1F
100
AcDbEntity
  8
0
  6
CONTINUOUS
 62
     3
100
AcDbLine
 10
2084.305833
 20
1673.011714
 30
0.0
 11
2084.305833
 21
2123.011714
 31
0.0
  0
LINE
  5
393
330
1F
100
AcDbEntity
  8
0
  6
CONTINUOUS
 62
     3
100
AcDbLine
 10
2084.305833
 20
2123.011714
 30
0.0
 11
1484.305833
 21
2123.011714
 31
0.0
  0
LINE
  5
394
330
1F
100
AcDbEntity
  8
0
  6
CONTINUOUS
 62
     3
100
AcDbLine
 10
801.499741
 20
605.319025
 30
0.0
 11
764.92509
 21
605.319025
 31
0.0
  0
LINE
  5
395
330
1F
100
AcDbEntity
  8
0
  6
CENTER
 62
     5
100
AcDbLine
 10
860.499741
 20
575.069025
 30
0.0
 11
410.499741
 21
575.069025
 31
0.0
  0
LINE
  5
396
330
1F
100
AcDbEntity
  8
0
  6
CONTINUOUS
 62
     3
100
AcDbLine
 10
506.074392
 20
605.319025
 30
0.0
 11
469.499741
 21
605.319025
 31
0.0
  0
LINE
  5
397
330
1F
100
AcDbEntity
  8
0
  6
CONTINUOUS
 62
     3
100
AcDbLine
 10
611.999741
 20
910.118535
 30
0.0
 11
611.999741
 21
799.934493
 31
0.0
  0
LINE
  5
398
330
1F
100
AcDbEntity
  8
0
  6
CONTINUOUS
 62
     3
100
AcDbLine
 10
611.999741
 20
799.934493
 30
0.0
 11
602.999741
 21
799.934493
 31
0.0
  0
LINE
  5
399
330
1F
100
AcDbEntity
  8
0
  6
CONTINUOUS
 62
     3
100
AcDbLine
 10
602.999741
 20
799.934493
 30
0.0
 11
602.999741
 21
910.118535
 31
0.0
  0
LINE
  5
39A
330
1F
100
AcDbEntity
  8
0
  6
CONTINUOUS
 62
     3
100
AcDbLine
 10
602.999741
 20
910.118535
 30
0.0
 11
611.999741
 21
910.118535
 31
0.0
  0
LINE
  5
39B
330
1F
100
AcDbEntity
  8
0
  6
CONTINUOUS
 62
     3
100
AcDbLine
 10
602.999741
 20
855.851776
 30
0.0
 11
469.499741
 21
855.851776
 31
0.0
  0
LINE
  5
39C
330
1F
100
AcDbEntity
  8
0
  6
CONTINUOUS
 62
     3
100
AcDbLine
 10
658.999741
 20
910.118535
 30
0.0
 11
658.999741
 21
799.934493
 31
0.0
  0
LINE
  5
39D
330
1F
100
AcDbEntity
  8
0
  6
CONTINUOUS
 62
     3
100
AcDbLine
 10
658.999741
 20
799.934493
 30
0.0
 11
667.999741
 21
799.934493
 31
0.0
  0
LINE
  5
39E
330
1F
100
AcDbEntity
  8
0
  6
CONTINUOUS
 62
     3
100
AcDbLine
 10
667.999741
 20
799.934493
 30
0.0
 11
667.999741
 21
910.118535
 31
0.0
  0
LINE
  5
39F
330
1F
100
AcDbEntity
  8
0
  6
CONTINUOUS
 62
     3
100
AcDbLine
 10
667.999741
 20
910.118535
 30
0.0
 11
658.999741
 21
910.118535
 31
0.0
  0
LINE
  5
3A0
330
1F
100
AcDbEntity
  8
0
  6
CONTINUOUS
 62
     3
100
AcDbLine
 10
658.999741
 20
855.851776
 30
0.0
 11
611.999741
 21
855.851776
 31
0.0
  0
LINE
  5
3A1
330
1F
100
AcDbEntity
  8
0
  6
CONTINUOUS
 62
     3
100
AcDbLine
 10
612.999741
 20
830.534493
 30
0.0
 11
612.999741
 21
803.334493
 31
0.0
  0
LINE
  5
3A2
330
1F
100
AcDbEntity
  8
0
  6
CONTINUOUS
 62
     3
100
AcDbLine
 10
612.999741
 20
803.334493
 30
0.0
 11
657.999741
 21
803.334493
 31
0.0
  0
LINE
  5
3A3
330
1F
100
AcDbEntity
  8
0
  6
CONTINUOUS
 62
     3
100
AcDbLine
 10
657.999741
 20
803.334493
 30
0.0
 11
657.999741
 21
830.534493
 31
0.0
  0
LINE
  5
3A4
330
1F
100
AcDbEntity
  8
0
  6
CONTINUOUS
 62
     3
100
AcDbLine
 10
657.999741
 20
830.534493
 30
0.0
 11
612.999741
 21
830.534493
 31
0.0
  0
LINE
  5
3A5
330
1F
100
AcDbEntity
  8
0
  6
CONTINUOUS
 62
     3
100
AcDbLine
 10
616.499741
 20
803.334493
 30
0.0
 11
616.499741
 21
799.609543
 31
0.0
  0
LINE
  5
3A6
330
1F
100
AcDbEntity
  8
0
  6
CONTINUOUS
 62
     3
100
AcDbLine
 10
654.499741
 20
803.334493
 30
0.0
 11
654.499741
 21
799.609543
 31
0.0
  0
ARC
  5
3A7
330
1F
100
AcDbEntity
  8
0
  6
CONTINUOUS
 62
     3
100
AcDbCircle
 10
635.499741
 20
820.785994
 30
0.0
 40
24.75780243838428
100
AcDbArc
 50
224.82057
 51
315.17943
  0
ARC
  5
3A8
330
1F
100
AcDbEntity
  8
0
  6
CONTINUOUS
 62
     3
100
AcDbCircle
 10
635.499741
 20
815.482438
 30
0.0
 40
24.75780243838436
100
AcDbArc
 50
219.875905
 51
320.124095
  0
LINE
  5
3A9
330
1F
100
AcDbEntity
  8
0
  6
CONTINUOUS
 62
     3
100
AcDbLine
 10
614.149741
 20
799.609543
 30
0.0
 11
614.149741
 21
725.359756
 31
0.0
  0
LINE
  5
3AA
330
1F
100
AcDbEntity
  8
0
  6
CONTINUOUS
 62
     3
100
AcDbLine
 10
656.849741
 20
799.609543
 30
0.0
 11
656.849741
 21
725.359756
 31
0.0
  0
ARC
  5
3AB
330
1F
100
AcDbEntity
  8
0
  6
CONTINUOUS
 62
     3
100
AcDbCircle
 10
635.499741
 20
781.773422
 30
0.0
 40
27.81995168734215
100
AcDbArc
 50
39.875905
 51
46.924375
  0
ARC
  5
3AC
330
1F
100
AcDbEntity
  8
0
  6
CONTINUOUS
 62
     3
100
AcDbCircle
 10
635.499741
 20
817.445664
 30
0.0
 40
27.81995168734259
100
AcDbArc
 50
219.875905
 51
320.124095
  0
ARC
  5
3AD
330
1F
100
AcDbEntity
  8
0
  6
CONTINUOUS
 62
     3
100
AcDbCircle
 10
635.499741
 20
743.195877
 30
0.0
 40
27.81995168734279
100
AcDbArc
 50
219.875905
 51
320.124095
  0
ARC
  5
3AE
330
1F
100
AcDbEntity
  8
0
  6
CONTINUOUS
 62
     3
100
AcDbCircle
 10
635.499741
 20
781.773422
 30
0.0
 40
27.81995168734215
100
AcDbArc
 50
133.075625
 51
140.124095
  0
ARC
  5
3AF
330
1F
100
AcDbEntity
  8
0
  6
CONTINUOUS
 62
     3
100
AcDbCircle
 10
635.499741
 20
704.474368
 30
0.0
 40
32.57605583997862
100
AcDbArc
 50
39.875905
 51
49.050821
  0
ARC
  5
3B0
330
1F
100
AcDbEntity
  8
0
  6
CONTINUOUS
 62
     3
100
AcDbCircle
 10
635.499741
 20
746.245143
 30
0.0
 40
32.57605583997884
100
AcDbArc
 50
219.875905
 51
320.124095
  0
ARC
  5
3B1
330
1F
100
AcDbEntity
  8
0
  6
CONTINUOUS
 62
     3
100
AcDbCircle
 10
635.499741
 20
706.058068
 30
0.0
 40
32.31446983919021
100
AcDbArc
 50
219.317454
 51
320.682546
  0
ARC
  5
3B2
330
1F
100
AcDbEntity
  8
0
  6
CONTINUOUS
 62
     3
100
AcDbCircle
 10
635.499741
 20
704.474368
 30
0.0
 40
32.57605583997862
100
AcDbArc
 50
130.949179
 51
140.124095
  0
LINE
  5
3B3
330
1F
100
AcDbEntity
  8
0
  6
CONTINUOUS
 62
     3
100
AcDbLine
 10
660.499741
 20
725.359756
 30
0.0
 11
660.499741
 21
685.583084
 31
0.0
  0
LINE
  5
3B4
330
1F
100
AcDbEntity
  8
0
  6
CONTINUOUS
 62
     3
100
AcDbLine
 10
610.499741
 20
725.359756
 30
0.0
 11
610.499741
 21
685.583084
 31
0.0
  0
ARC
  5
3B5
330
1F
100
AcDbEntity
  8
0
  6
CONTINUOUS
 62
     3
100
AcDbCircle
 10
635.499741
 20
697.871764
 30
0.0
 40
26.06084467198364
100
AcDbArc
 50
224.307345
 51
315.692655
  0
LINE
  5
3B6
330
1F
100
AcDbEntity
  8
0
  6
CONTINUOUS
 62
     3
100
AcDbLine
 10
620.499741
 20
676.560555
 30
0.0
 11
620.499741
 21
655.073848
 31
0.0
  0
LINE
  5
3B7
330
1F
100
AcDbEntity
  8
0
  6
CONTINUOUS
 62
     3
100
AcDbLine
 10
650.499741
 20
676.560555
 30
0.0
 11
650.499741
 21
655.073848
 31
0.0
  0
LINE
  5
3B8
330
1F
100
AcDbEntity
  8
0
  6
CONTINUOUS
 62
     5
100
AcDbLine
 10
838.499741
 20
947.533585
 30
0.0
 11
838.499741
 21
937.71863
 31
0.0
  0
LINE
  5
3B9
330
1F
100
AcDbEntity
  8
0
  6
CONTINUOUS
 62
     5
100
AcDbLine
 10
814.499741
 20
956.626107
 30
0.0
 11
810.499741
 21
956.626107
 31
0.0
  0
LINE
  5
3BA
330
1F
100
AcDbEntity
  8
0
  6
CONTINUOUS
 62
     5
100
AcDbLine
 10
814.499741
 20
928.626107
 30
0.0
 11
810.499741
 21
928.626107
 31
0.0
  0
LINE
  5
3BB
330
1F
100
AcDbEntity
  8
0
  6
CONTINUOUS
 62
     5
100
AcDbLine
 10
825.499741
 20
951.626107
 30
0.0
 11
825.499741
 21
933.626107
 31
0.0
  0
LINE
  5
3BC
330
1F
100
AcDbEntity
  8
0
  6
CONTINUOUS
 62
     5
100
AcDbLine
 10
827.999741
 20
952.441062
 30
0.0
 11
827.999741
 21
932.811153
 31
0.0
  0
LINE
  5
3BD
330
1F
100
AcDbEntity
  8
0
  6
CONTINUOUS
 62
     5
100
AcDbLine
 10
827.999741
 20
951.626107
 30
0.0
 11
823.499741
 21
951.626107
 31
0.0
  0
LINE
  5
3BE
330
1F
100
AcDbEntity
  8
0
  6
CONTINUOUS
 62
     5
100
AcDbLine
 10
827.999741
 20
933.626107
 30
0.0
 11
823.499741
 21
933.626107
 31
0.0
  0
LINE
  5
3BF
330
1F
100
AcDbEntity
  8
0
  6
CONTINUOUS
 62
     5
100
AcDbLine
 10
827.999741
 20
952.441062
 30
0.0
 11
835.240551
 21
952.441062
 31
0.0
  0
LINE
  5
3C0
330
1F
100
AcDbEntity
  8
0
  6
CONTINUOUS
 62
     5
100
AcDbLine
 10
838.499741
 20
947.533585
 30
0.0
 11
827.999741
 21
947.533585
 31
0.0
  0
LINE
  5
3C1
330
1F
100
AcDbEntity
  8
0
  6
CONTINUOUS
 62
     5
100
AcDbLine
 10
838.499741
 20
937.71863
 30
0.0
 11
827.999741
 21
937.71863
 31
0.0
  0
LINE
  5
3C2
330
1F
100
AcDbEntity
  8
0
  6
CONTINUOUS
 62
     5
100
AcDbLine
 10
835.240551
 20
932.811153
 30
0.0
 11
827.999741
 21
932.811153
 31
0.0
  0
LINE
  5
3C3
330
1F
100
AcDbEntity
  8
0
  6
CONTINUOUS
 62
     5
100
AcDbLine
 10
835.240551
 20
932.811153
 30
0.0
 11
835.999741
 21
934.126107
 31
0.0
  0
LINE
  5
3C4
330
1F
100
AcDbEntity
  8
0
  6
CONTINUOUS
 62
     5
100
AcDbLine
 10
835.240551
 20
952.441062
 30
0.0
 11
835.999741
 21
951.126107
 31
0.0
  0
LINE
  5
3C5
330
1F
100
AcDbEntity
  8
0
  6
CONTINUOUS
 62
     5
100
AcDbLine
 10
835.999741
 20
951.126107
 30
0.0
 11
835.999741
 21
934.126107
 31
0.0
  0
LINE
  5
3C6
330
1F
100
AcDbEntity
  8
0
  6
CONTINUOUS
 62
     5
100
AcDbLine
 10
432.499741
 20
947.533585
 30
0.0
 11
432.499741
 21
937.71863
 31
0.0
  0
LINE
  5
3C7
330
1F
100
AcDbEntity
  8
0
  6
CONTINUOUS
 62
     5
100
AcDbLine
 10
456.499741
 20
956.626107
 30
0.0
 11
460.499741
 21
956.626107
 31
0.0
  0
LINE
  5
3C8
330
1F
100
AcDbEntity
  8
0
  6
CONTINUOUS
 62
     5
100
AcDbLine
 10
456.499741
 20
928.626107
 30
0.0
 11
460.499741
 21
928.626107
 31
0.0
  0
LINE
  5
3C9
330
1F
100
AcDbEntity
  8
0
  6
CONTINUOUS
 62
     5
100
AcDbLine
 10
445.499741
 20
951.626107
 30
0.0
 11
445.499741
 21
933.626107
 31
0.0
  0
LINE
  5
3CA
330
1F
100
AcDbEntity
  8
0
  6
CONTINUOUS
 62
     5
100
AcDbLine
 10
442.999741
 20
952.441062
 30
0.0
 11
442.999741
 21
932.811153
 31
0.0
  0
LINE
  5
3CB
330
1F
100
AcDbEntity
  8
0
  6
CONTINUOUS
 62
     5
100
AcDbLine
 10
442.999741
 20
951.626107
 30
0.0
 11
447.499741
 21
951.626107
 31
0.0
  0
LINE
  5
3CC
330
1F
100
AcDbEntity
  8
0
  6
CONTINUOUS
 62
     5
100
AcDbLine
 10
442.999741
 20
933.626107
 30
0.0
 11
447.499741
 21
933.626107
 31
0.0
  0
LINE
  5
3CD
330
1F
100
AcDbEntity
  8
0
  6
CONTINUOUS
 62
     5
100
AcDbLine
 10
442.999741
 20
952.441062
 30
0.0
 11
435.75893
 21
952.441062
 31
0.0
  0
LINE
  5
3CE
330
1F
100
AcDbEntity
  8
0
  6
CONTINUOUS
 62
     5
100
AcDbLine
 10
432.499741
 20
947.533585
 30
0.0
 11
442.999741
 21
947.533585
 31
0.0
  0
LINE
  5
3CF
330
1F
100
AcDbEntity
  8
0
  6
CONTINUOUS
 62
     5
100
AcDbLine
 10
432.499741
 20
937.71863
 30
0.0
 11
442.999741
 21
937.71863
 31
0.0
  0
LINE
  5
3D0
330
1F
100
AcDbEntity
  8
0
  6
CONTINUOUS
 62
     5
100
AcDbLine
 10
435.75893
 20
932.811153
 30
0.0
 11
442.999741
 21
932.811153
 31
0.0
  0
LINE
  5
3D1
330
1F
100
AcDbEntity
  8
0
  6
CONTINUOUS
 62
     5
100
AcDbLine
 10
435.75893
 20
932.811153
 30
0.0
 11
434.999741
 21
934.126107
 31
0.0
  0
LINE
  5
3D2
330
1F
100
AcDbEntity
  8
0
  6
CONTINUOUS
 62
     5
100
AcDbLine
 10
435.75893
 20
952.441062
 30
0.0
 11
434.999741
 21
951.126107
 31
0.0
  0
LINE
  5
3D3
330
1F
100
AcDbEntity
  8
0
  6
CONTINUOUS
 62
     5
100
AcDbLine
 10
434.999741
 20
951.126107
 30
0.0
 11
434.999741
 21
934.126107
 31
0.0
  0
LINE
  5
3D4
330
1F
100
AcDbEntity
  8
0
  6
CONTINUOUS
 62
     3
100
AcDbLine
 10
801.499741
 20
951.626107
 30
0.0
 11
796.499741
 21
951.626107
 31
0.0
  0
LINE
  5
3D5
330
1F
100
AcDbEntity
  8
0
  6
CONTINUOUS
 62
     3
100
AcDbLine
 10
796.499741
 20
951.626107
 30
0.0
 11
796.499741
 21
933.626107
 31
0.0
  0
LINE
  5
3D6
330
1F
100
AcDbEntity
  8
0
  6
CONTINUOUS
 62
     3
100
AcDbLine
 10
796.499741
 20
933.626107
 30
0.0
 11
801.499741
 21
933.626107
 31
0.0
  0
LINE
  5
3D7
330
1F
100
AcDbEntity
  8
0
  6
CONTINUOUS
 62
     3
100
AcDbLine
 10
469.499741
 20
951.626107
 30
0.0
 11
474.499741
 21
951.626107
 31
0.0
  0
LINE
  5
3D8
330
1F
100
AcDbEntity
  8
0
  6
CONTINUOUS
 62
     3
100
AcDbLine
 10
474.499741
 20
951.626107
 30
0.0
 11
474.499741
 21
933.626107
 31
0.0
  0
LINE
  5
3D9
330
1F
100
AcDbEntity
  8
0
  6
CONTINUOUS
 62
     3
100
AcDbLine
 10
474.499741
 20
933.626107
 30
0.0
 11
469.499741
 21
933.626107
 31
0.0
  0
LINE
  5
3DA
330
1F
100
AcDbEntity
  8
0
  6
CENTER
 62
     5
100
AcDbLine
 10
801.499741
 20
1009.860472
 30
0.0
 11
469.499741
 21
1009.860472
 31
0.0
  0
LINE
  5
3DB
330
1F
100
AcDbEntity
  8
0
  6
CONTINUOUS
 62
     3
100
AcDbLine
 10
801.499741
 20
1001.210472
 30
0.0
 11
469.499741
 21
1001.210472
 31
0.0
  0
LINE
  5
3DC
330
1F
100
AcDbEntity
  8
0
  6
CONTINUOUS
 62
     3
100
AcDbLine
 10
801.499741
 20
1018.510472
 30
0.0
 11
469.499741
 21
1018.510472
 31
0.0
  0
LINE
  5
3DD
330
1F
100
AcDbEntity
  8
0
  6
CONTINUOUS
 62
     7
100
AcDbLine
 10
1558.186239
 20
1328.011714
 30
0.0
 11
1882.190122
 21
1014.518398
 31
0.0
  0
LINE
  5
3DE
330
1F
100
AcDbEntity
  8
0
  6
CONTINUOUS
 62
     7
100
AcDbLine
 10
1518.42978
 20
1276.033305
 30
0.0
 11
1874.988404
 21
931.041312
 31
0.0
  0
LINE
  5
3DF
330
1F
100
AcDbEntity
  8
0
  6
CONTINUOUS
 62
     7
100
AcDbLine
 10
1503.579623
 20
1328.011714
 30
0.0
 11
1518.524308
 21
1275.702438
 31
0.0
  0
ARC
  5
3E0
330
1F
100
AcDbEntity
  8
0
  6
CONTINUOUS
 62
     7
100
AcDbCircle
 10
1886.114068
 20
942.539989
 30
0.0
 40
16.0
100
AcDbArc
 50
225.944563
 51
15.944563
  0
LINE
  5
3E1
330
1F
100
AcDbEntity
  8
0
  6
CONTINUOUS
 62
     7
100
AcDbLine
 10
1882.190122
 20
1014.518398
 30
0.0
 11
1901.498515
 21
946.935304
 31
0.0
  0
CIRCLE
  5
3E2
330
1F
100
AcDbEntity
  8
0
  6
CONTINUOUS
 62
     5
100
AcDbCircle
 10
1886.114068
 20
942.539989
 30
0.0
 40
9.0
  0
CIRCLE
  5
3E3
330
1F
100
AcDbEntity
  8
0
  6
CONTINUOUS
 62
     1
100
AcDbCircle
 10
1700.309951
 20
1145.275852
 30
0.0
 40
7.5
  0
LINE
  5
3E4
330
1F
100
AcDbEntity
  8
0
  6
CONTINUOUS
 62
     4
100
AcDbLine
 10
1499.085253
 20
946.971963
 30
0.0
 11
1518.500548
 21
1014.882388
 31
0.0
  0
CIRCLE
  5
3E5
330
1F
100
AcDbEntity
  8
0
  6
CONTINUOUS
 62
     1
100
AcDbCircle
 10
1514.468899
 20
942.573846
 30
0.0
 40
9.0
  0
LINE
  5
3E6
330
1F
100
AcDbEntity
  8
0
  6
CONTINUOUS
 62
     4
100
AcDbLine
 10
1518.405959
 20
1014.551538
 30
0.0
 11
1653.566769
 21
1145.28011
 31
0.0
  0
LINE
  5
3E7
330
1F
100
AcDbEntity
  8
0
  6
CONTINUOUS
 62
     4
100
AcDbLine
 10
1537.47903
 20
942.569915
 30
0.0
 11
1700.305831
 21
1100.057246
 31
0.0
  0
LINE
  5
3E8
330
1F
100
AcDbEntity
  8
0
  6
CONTINUOUS
 62
     4
100
AcDbLine
 10
1882.213943
 20
1276.000165
 30
0.0
 11
1897.083818
 21
1328.011714
 31
0.0
  0
LINE
  5
3E9
330
1F
100
AcDbEntity
  8
0
  6
CONTINUOUS
 62
     4
100
AcDbLine
 10
1563.348917
 20
562.073848
 30
0.0
 11
1700.306905
 21
694.584984
 31
0.0
  0
LINE
  5
3EA
330
1F
100
AcDbEntity
  8
0
  6
CONTINUOUS
 62
     4
100
AcDbLine
 10
1505.002358
 20
562.073848
 30
0.0
 11
1518.519302
 21
609.383064
 31
0.0
  0
LINE
  5
3EB
330
1F
100
AcDbEntity
  8
0
  6
CONTINUOUS
 62
     4
100
AcDbLine
 10
1518.424769
 20
609.052198
 30
0.0
 11
1653.567398
 21
739.806919
 31
0.0
  0
LINE
  5
3EC
330
1F
100
AcDbEntity
  8
0
  6
CONTINUOUS
 62
     4
100
AcDbLine
 10
1882.18904
 20
870.56164
 30
0.0
 11
1901.498449
 21
938.144444
 31
0.0
  0
ARC
  5
3ED
330
1F
100
AcDbEntity
  8
0
  6
CONTINUOUS
 62
     1
100
AcDbCircle
 10
1886.114068
 20
942.539989
 30
0.0
 40
16.0
100
AcDbArc
 50
344.054576
 51
15.944563
  0
CIRCLE
  5
3EE
330
1F
100
AcDbEntity
  8
0
  6
CONTINUOUS
 62
     1
100
AcDbCircle
 10
1886.114068
 20
942.539989
 30
0.0
 40
9.0
  0
POINT
  5
3EF
330
1F
100
AcDbEntity
  8
0
  6
CONTINUOUS
 62
     8
100
AcDbPoint
 10
1718.093129
 20
816.934493
 30
0.0
  0
ARC
  5
3F0
330
1F
100
AcDbEntity
  8
0
  6
CONTINUOUS
 62
     6
100
AcDbCircle
 10
1718.093129
 20
816.934493
 30
0.0
 40
17.0
100
AcDbArc
 50
127.421481
 51
261.010455
  0
LINE
  5
3F1
330
1F
100
AcDbEntity
  8
0
  6
CONTINUOUS
 62
     6
100
AcDbLine
 10
1811.095649
 20
909.501096
 30
0.0
 11
1707.762677
 21
830.43567
 31
0.0
  0
ARC
  5
3F2
330
1F
100
AcDbEntity
  8
0
  6
CONTINUOUS
 62
     6
100
AcDbCircle
 10
1839.813658
 20
886.101776
 30
0.0
 40
30.25
100
AcDbArc
 50
97.712629
 51
170.396522
  0
ARC
  5
3F3
330
1F
100
AcDbEntity
  8
0
  6
CONTINUOUS
 62
     8
100
AcDbCircle
 10
1839.813658
 20
886.101776
 30
0.0
 40
31.0
100
AcDbArc
 50
138.426322
 51
172.240677
  0
ARC
  5
3F4
330
1F
100
AcDbEntity
  8
0
  6
CONTINUOUS
 62
     6
100
AcDbCircle
 10
1812.91867
 20
907.118535
 30
0.0
 40
3.0
100
AcDbArc
 50
29.607259
 51
127.421481
  0
LINE
  5
3F5
330
1F
100
AcDbEntity
  8
0
  6
CONTINUOUS
 62
     6
100
AcDbLine
 10
1815.526967
 20
908.600691
 30
0.0
 11
1816.622464
 21
906.672836
 31
0.0
  0
POINT
  5
3F6
330
1F
100
AcDbEntity
  8
0
  6
CONTINUOUS
 62
     8
100
AcDbPoint
 10
1839.813658
 20
886.101776
 30
0.0
  0
CIRCLE
  5
3F7
330
1F
100
AcDbEntity
  8
0
  6
CONTINUOUS
 62
     1
100
AcDbCircle
 10
1700.306905
 20
739.806919
 30
0.0
 40
7.5
  0
LINE
  5
3F8
330
1F
100
AcDbEntity
  8
0
  6
CONTINUOUS
 62
     7
100
AcDbLine
 10
1882.18904
 20
609.052198
 30
0.0
 11
1893.897162
 21
568.073848
 31
0.0
  0
ARC
  5
3F9
330
1F
100
AcDbEntity
  8
0
  6
CONTINUOUS
 62
     6
100
AcDbCircle
 10
1844.445872
 20
578.097678
 30
0.0
 40
17.0
100
AcDbArc
 50
212.144487
 51
239.746361
  0
POINT
  5
3FA
330
1F
100
AcDbEntity
  8
0
  6
CONTINUOUS
 62
     8
100
AcDbPoint
 10
1844.445872
 20
578.097678
 30
0.0
  0
POINT
  5
3FB
330
1F
100
AcDbEntity
  8
0
  6
CONTINUOUS
 62
     8
100
AcDbPoint
 10
1904.369383
 20
575.069025
 30
0.0
  0
LINE
  5
3FC
330
1F
100
AcDbEntity
  8
0
  6
CONTINUOUS
 62
     7
100
AcDbLine
 10
1518.424769
 20
870.56164
 30
0.0
 11
1837.264892
 21
562.073848
 31
0.0
  0
LINE
  5
3FD
330
1F
100
AcDbEntity
  8
0
  6
CONTINUOUS
 62
     7
100
AcDbLine
 10
1525.625233
 20
954.038834
 30
0.0
 11
1882.18904
 21
609.052198
 31
0.0
  0
LINE
  5
3FE
330
1F
100
AcDbEntity
  8
0
  6
CONTINUOUS
 62
     7
100
AcDbLine
 10
1499.11536
 20
938.144444
 30
0.0
 11
1518.519302
 21
870.230774
 31
0.0
  0
CIRCLE
  5
3FF
330
1F
100
AcDbEntity
  8
0
  6
CONTINUOUS
 62
     5
100
AcDbCircle
 10
1514.499741
 20
942.539989
 30
0.0
 40
9.0
  0
ARC
  5
400
330
1F
100
AcDbEntity
  8
0
  6
CONTINUOUS
 62
     7
100
AcDbCircle
 10
1514.499741
 20
942.539989
 30
0.0
 40
16.0
100
AcDbArc
 50
45.945424
 51
195.945424
  0
CIRCLE
  5
401
330
1F
100
AcDbEntity
  8
0
  6
CONTINUOUS
 62
     5
100
AcDbCircle
 10
1700.306905
 20
739.806919
 30
0.0
 40
10.0
  0
ARC
  5
402
330
1F
100
AcDbEntity
  8
0
  6
CONTINUOUS
 62
     7
100
AcDbCircle
 10
1904.369383
 20
575.069025
 30
0.0
 40
30.25
100
AcDbArc
 50
65.247758
 51
104.057973
  0
LINE
  5
403
330
1F
100
AcDbEntity
  8
LAYER002
  6
CONTINUOUS
 62
     3
100
AcDbLine
 10
1785.411079
 20
735.343587
 30
0.0
 11
1770.86045
 21
762.847746
 31
0.0
  0
LINE
  5
404
330
1F
100
AcDbEntity
  8
LAYER002
  6
CONTINUOUS
 62
     3
100
AcDbLine
 10
1809.759342
 20
697.124935
 30
0.0
 11
1788.637409
 21
737.050424
 31
0.0
  0
LINE
  5
405
330
1F
100
AcDbEntity
  8
LAYER002
  6
CONTINUOUS
 62
     3
100
AcDbLine
 10
1809.680612
 20
697.273752
 30
0.0
 11
1797.608045
 21
690.886957
 31
0.0
  0
LINE
  5
406
330
1F
100
AcDbEntity
  8
LAYER002
  6
CONTINUOUS
 62
     3
100
AcDbLine
 10
1807.599116
 20
690.515989
 30
0.0
 11
1801.387755
 21
687.229969
 31
0.0
  0
LINE
  5
407
330
1F
100
AcDbEntity
  8
LAYER002
  6
CONTINUOUS
 62
     3
100
AcDbLine
 10
1806.085544
 20
682.684711
 30
0.0
 11
1803.179485
 21
688.177855
 31
0.0
  0
LINE
  5
408
330
1F
100
AcDbEntity
  8
0
  6
CONTINUOUS
 62
     3
100
AcDbLine
 10
1809.680612
 20
697.273752
 30
0.0
 11
1807.599116
 21
690.515989
 31
0.0
  0
LINE
  5
409
330
1F
100
AcDbEntity
  8
0
  6
CONTINUOUS
 62
     3
100
AcDbLine
 10
1709.018295
 20
793.457396
 30
0.0
 11
1707.658258
 21
796.028191
 31
0.0
  0
LINE
  5
40A
330
1F
100
AcDbEntity
  8
0
  6
CONTINUOUS
 62
     3
100
AcDbLine
 10
1716.521876
 20
800.717345
 30
0.0
 11
1707.658258
 21
796.028191
 31
0.0
  0
LINE
  5
40B
330
1F
100
AcDbEntity
  8
LAYER002
  6
CONTINUOUS
 62
     3
100
AcDbLine
 10
1788.637409
 20
737.050424
 30
0.0
 11
1763.590655
 21
723.799845
 31
0.0
  0
LINE
  5
40C
330
1F
100
AcDbEntity
  8
0
  6
CONTINUOUS
 62
     3
100
AcDbLine
 10
2084.499741
 20
512.073848
 30
0.0
 11
2084.499741
 21
562.073848
 31
0.0
  0
LINE
  5
40D
330
1F
100
AcDbEntity
  8
0
  6
CONTINUOUS
 62
     3
100
AcDbLine
 10
2084.499741
 20
562.073848
 30
0.0
 11
1485.499741
 21
562.073848
 31
0.0
  0
LINE
  5
40E
330
1F
100
AcDbEntity
  8
0
  6
CONTINUOUS
 62
     3
100
AcDbLine
 10
1485.499741
 20
562.073848
 30
0.0
 11
1485.499741
 21
512.073848
 31
0.0
  0
POINT
  5
40F
330
1F
100
AcDbEntity
  8
0
  6
CONTINUOUS
 62
     5
100
AcDbPoint
 10
1514.499741
 20
537.073848
 30
0.0
  0
POINT
  5
410
330
1F
100
AcDbEntity
  8
0
  6
CONTINUOUS
 62
     5
100
AcDbPoint
 10
1886.114068
 20
537.073848
 30
0.0
  0
LINE
  5
411
330
1F
100
AcDbEntity
  8
0
  6
CONTINUOUS
 62
     4
100
AcDbLine
 10
1747.046411
 20
739.806919
 30
0.0
 11
1882.18904
 21
870.56164
 31
0.0
  0
LINE
  5
412
330
1F
100
AcDbEntity
  8
0
  6
CONTINUOUS
 62
     4
100
AcDbLine
 10
1700.306905
 20
785.028853
 30
0.0
 11
1863.104028
 21
942.540162
 31
0.0
  0
LINE
  5
413
330
1F
100
AcDbEntity
  8
0
  6
CONTINUOUS
 62
     4
100
AcDbLine
 10
1747.053132
 20
1145.271593
 30
0.0
 11
1882.213943
 21
1276.000165
 31
0.0
  0
LINE
  5
414
330
1F
100
AcDbEntity
  8
0
  6
CONTINUOUS
 62
     4
100
AcDbLine
 10
1700.31407
 20
1190.494458
 30
0.0
 11
1842.493729
 21
1328.011714
 31
0.0
  0
CIRCLE
  5
415
330
1F
100
AcDbEntity
  8
0
  6
CONTINUOUS
 62
     5
100
AcDbCircle
 10
1700.309951
 20
1145.275852
 30
0.0
 40
10.0
  0
CIRCLE
  5
416
330
1F
100
AcDbEntity
  8
0
  6
CONTINUOUS
 62
     6
100
AcDbCircle
 10
1718.093129
 20
816.934493
 30
0.0
 40
8.1
  0
TEXT
  5
417
330
1F
100
AcDbEntity
  8
0
  6
CONTINUOUS
 62
     3
100
AcDbText
 10
667.076416
 20
1990.26709
 30
0.0
 40
50.0
  1
ＵＰ・ＤＯＷＮ
 41
0.8
  7
ED_VECTOR
100
AcDbText
  0
TEXT
  5
418
330
1F
100
AcDbEntity
  8
0
  6
CONTINUOUS
 62
     3
100
AcDbText
 10
667.821228
 20
2061.768555
 30
0.0
 40
50.0
  1
フットスイッチ
 41
0.8
  7
ED_VECTOR
100
AcDbText
  0
LINE
  5
419
330
1F
100
AcDbEntity
  8
0
  6
CONTINUOUS
 62
     3
100
AcDbLine
 10
1337.306317
 20
1778.011714
 30
0.0
 11
1064.305833
 21
1778.011714
 31
0.0
  0
LINE
  5
41A
330
1F
100
AcDbEntity
  8
0
  6
CONTINUOUS
 62
     3
100
AcDbLine
 10
1337.838954
 20
1771.011714
 30
0.0
 11
1064.305833
 21
1771.011714
 31
0.0
  0
ARC
  5
41B
330
1F
100
AcDbEntity
  8
0
  6
CONTINUOUS
 62
     3
100
AcDbCircle
 10
1331.001556
 20
1817.511714
 30
0.0
 40
40.0
100
AcDbArc
 50
279.068722
 51
243.817766
  0
ARC
  5
41C
330
1F
100
AcDbEntity
  8
0
  6
CONTINUOUS
 62
     3
100
AcDbCircle
 10
1331.001556
 20
1817.511714
 30
0.0
 40
47.0
100
AcDbArc
 50
278.364875
 51
229.860785
  0
LINE
  5
41D
330
1F
100
AcDbEntity
  8
0
  6
CONTINUOUS
 62
     3
100
AcDbLine
 10
1484.305833
 20
1778.011714
 30
0.0
 11
1360.993173
 21
1778.011714
 31
0.0
  0
LINE
  5
41E
330
1F
100
AcDbEntity
  8
0
  6
CONTINUOUS
 62
     3
100
AcDbLine
 10
1484.305833
 20
1771.011714
 30
0.0
 11
1350.286281
 21
1771.011714
 31
0.0
  0
LINE
  5
41F
330
1F
100
AcDbEntity
  8
0
  6
CONTINUOUS
 62
     3
100
AcDbLine
 10
1484.305833
 20
1749.011714
 30
0.0
 11
1305.408646
 21
1749.011714
 31
0.0
  0
LINE
  5
420
330
1F
100
AcDbEntity
  8
0
  6
CONTINUOUS
 62
     3
100
AcDbLine
 10
1484.305833
 20
1756.011714
 30
0.0
 11
1295.526855
 21
1756.011714
 31
0.0
  0
TEXT
  5
421
330
1F
100
AcDbEntity
  8
0
  6
CONTINUOUS
 62
     3
100
AcDbText
 10
588.85968
 20
1664.770874
 30
0.0
 40
50.0
  1
電源コード
 41
0.8
  7
ED_VECTOR
100
AcDbText
  0
TEXT
  5
422
330
1F
100
AcDbEntity
  8
0
  6
CONTINUOUS
 62
     3
100
AcDbText
 10
605.920227
 20
1594.639038
 30
0.0
 40
50.0
  1
長サ４ｍ
 41
0.8
  7
ED_VECTOR
100
AcDbText
  0
LINE
  5
423
330
1F
100
AcDbEntity
  8
0
  6
CONTINUOUS
 62
     5
100
AcDbLine
 10
847.921354
 20
1653.440205
 30
0.0
 11
1043.247042
 21
1601.102844
 31
0.0
  0
INSERT
  5
424
330
1F
100
AcDbEntity
  8
0
  6
CONTINUOUS
 62
     5
100
AcDbBlockReference
  2
EDTIP_ARROW_E
 10
1043.247042
 20
1601.102844
 30
0.0
 41
30.0
 42
30.0
 50
345.0
  0
LINE
  5
425
330
1F
100
AcDbEntity
  8
0
  6
CONTINUOUS
 62
     5
100
AcDbLine
 10
650.874587
 20
2051.130665
 30
0.0
 11
1054.449816
 21
2051.130665
 31
0.0
  0
LINE
  5
426
330
1F
100
AcDbEntity
  8
0
  6
CONTINUOUS
 62
     5
100
AcDbLine
 10
571.2432
 20
1653.440205
 30
0.0
 11
847.921354
 21
1653.440205
 31
0.0
  0
LINE
  5
427
330
1F
100
AcDbEntity
  8
0
  6
CONTINUOUS
 62
     3
100
AcDbLine
 10
1058.908328
 20
1602.399475
 30
0.0
 11
1053.8377
 21
1600.489758
 31
0.0
  0
LINE
  5
428
330
1F
100
AcDbEntity
  8
0
  6
CONTINUOUS
 62
     3
100
AcDbLine
 10
1053.8377
 20
1600.489758
 30
0.0
 11
1047.413069
 21
1600.311296
 31
0.0
  0
LINE
  5
429
330
1F
100
AcDbEntity
  8
0
  6
CONTINUOUS
 62
     3
100
AcDbLine
 10
1059.962658
 20
1601.010373
 30
0.0
 11
1054.313599
 21
1598.64565
 31
0.0
  0
LINE
  5
42A
330
1F
100
AcDbEntity
  8
0
  6
CONTINUOUS
 62
     3
100
AcDbLine
 10
1054.313599
 20
1598.64565
 30
0.0
 11
1048.959739
 21
1597.336929
 31
0.0
  0
LINE
  5
42B
330
1F
100
AcDbEntity
  8
0
  6
CONTINUOUS
 62
     3
100
AcDbLine
 10
1060.804853
 20
1599.900763
 30
0.0
 11
1055.919757
 21
1597.039493
 31
0.0
  0
LINE
  5
42C
330
1F
100
AcDbEntity
  8
0
  6
CONTINUOUS
 62
     3
100
AcDbLine
 10
1055.919757
 20
1597.039493
 30
0.0
 11
1053.599751
 21
1593.708202
 31
0.0
  0
ARC
  5
42D
330
1F
100
AcDbEntity
  8
0
  6
CONTINUOUS
 62
     3
100
AcDbCircle
 10
1273.873705
 20
1709.011714
 30
0.0
 40
47.0
100
AcDbArc
 50
169.243604
 51
127.198537
  0
ARC
  5
42E
330
1F
100
AcDbEntity
  8
0
  6
CONTINUOUS
 62
     3
100
AcDbCircle
 10
1273.873705
 20
1709.011714
 30
0.0
 40
40.0
100
AcDbArc
 50
156.528943
 51
127.198537
  0
LINE
  5
42F
330
1F
100
AcDbEntity
  8
0
  6
CONTINUOUS
 62
     3
100
AcDbLine
 10
1057.724575
 20
1603.959095
 30
0.0
 11
1245.458503
 21
1746.449346
 31
0.0
  0
LINE
  5
430
330
1F
100
AcDbEntity
  8
0
  6
CONTINUOUS
 62
     3
100
AcDbLine
 10
1061.956626
 20
1598.383278
 30
0.0
 11
1249.690554
 21
1740.873528
 31
0.0
  0
LINE
  5
431
330
1F
100
AcDbEntity
  8
0
  6
CONTINUOUS
 62
     3
100
AcDbLine
 10
1057.724575
 20
1603.959095
 30
0.0
 11
1061.956626
 21
1598.383278
 31
0.0
  0
LINE
  5
432
330
1F
100
AcDbEntity
  8
0
  6
CONTINUOUS
 62
     5
100
AcDbLine
 10
1011.270808
 20
1847.011714
 30
0.0
 11
1054.242886
 21
2050.152449
 31
0.0
  0
INSERT
  5
433
330
1F
100
AcDbEntity
  8
0
  6
CONTINUOUS
 62
     5
100
AcDbBlockReference
  2
EDTIP_ARROW_S
 10
1011.270808
 20
1847.011714
 30
0.0
 41
30.0
 42
30.0
 50
258.055823
  0
LINE
  5
434
330
1F
100
AcDbEntity
  8
0
  6
CENTER
 62
     5
100
AcDbLine
 10
2110.982974
 20
1898.011714
 30
0.0
 11
1455.223838
 21
1898.011714
 31
0.0
  0
DIMENSION
  5
435
330
1F
100
AcDbEntity
  8
0
100
AcDbDimension
  2
*D13
 10
2184.305833
 20
2123.011714
 30
0.0
 11
2174.305908
 21
1898.011719
 31
0.0
 70
    33
  3
EDDIMINFO
100
AcDbAlignedDimension
 13
2093.305833
 23
1673.011714
 33
0.0
 14
2093.305833
 24
2123.011714
 34
0.0
1001
ACAD
1000
DSTYLE
1002
{
1070
     7
1000
EDTIP_ARROW_E
1070
     6
1000
EDTIP_ARROW_S
1070
   173
1070
     1
1002
}
  0
LINE
  5
43F
330
1F
100
AcDbEntity
  8
0
  6
PHANTOM
 62
     5
100
AcDbLine
 10
1484.499741
 20
727.073848
 30
0.0
 11
2084.499741
 21
727.073848
 31
0.0
  0
LINE
  5
440
330
1F
100
AcDbEntity
  8
0
  6
PHANTOM
 62
     5
100
AcDbLine
 10
2084.499741
 20
727.073848
 30
0.0
 11
2084.499741
 21
772.073848
 31
0.0
  0
LINE
  5
441
330
1F
100
AcDbEntity
  8
0
  6
PHANTOM
 62
     5
100
AcDbLine
 10
2084.499741
 20
772.073848
 30
0.0
 11
1484.499741
 21
772.073848
 31
0.0
  0
LINE
  5
442
330
1F
100
AcDbEntity
  8
0
  6
PHANTOM
 62
     5
100
AcDbLine
 10
1484.499741
 20
772.073848
 30
0.0
 11
1484.499741
 21
727.073848
 31
0.0
  0
DIMENSION
  5
443
330
1F
100
AcDbEntity
  8
0
100
AcDbDimension
  2
*D14
 10
2184.305833
 20
772.073848
 30
0.0
 11
2174.305908
 21
642.073853
 31
0.0
 70
    32
  3
EDDIMINFO
100
AcDbAlignedDimension
 13
2303.305833
 23
512.073848
 33
0.0
 14
2093.499741
 24
772.073848
 34
0.0
 50
270.0
100
AcDbRotatedDimension
1001
ACAD
1000
DSTYLE
1002
{
1070
     7
1000
EDTIP_ARROW_E
1070
     6
1000
EDTIP_ARROW_S
1070
   173
1070
     1
1002
}
  0
DIMENSION
  5
44D
330
1F
100
AcDbEntity
  8
0
100
AcDbDimension
  2
*D15
 10
2184.305833
 20
1373.011714
 30
0.0
 11
2174.305908
 21
1072.542725
 31
0.0
 70
    33
  3
EDDIMINFO
100
AcDbAlignedDimension
 13
2063.305833
 23
772.073848
 33
0.0
 14
2063.305833
 24
1373.011714
 34
0.0
1001
ACAD
1000
DSTYLE
1002
{
1070
     7
1000
EDTIP_ARROW_E
1070
     6
1000
EDTIP_ARROW_S
1070
   173
1070
     1
1002
}
  0
DIMENSION
  5
456
330
1F
100
AcDbEntity
  8
0
100
AcDbDimension
  2
*D16
 10
2294.305833
 20
512.073848
 30
0.0
 11
2284.305908
 21
942.542725
 31
0.0
 70
    33
  3
EDDIMINFO
100
AcDbAlignedDimension
 13
2294.305833
 23
1373.011714
 33
0.0
 14
2294.305833
 24
512.073848
 34
0.0
1001
ACAD
1000
DSTYLE
1002
{
1070
     7
1000
EDTIP_ARROW_E
1070
     6
1000
EDTIP_ARROW_S
1070
   173
1070
     1
1002
}
  0
DIMENSION
  5
45E
330
1F
100
AcDbEntity
  8
0
100
AcDbDimension
  2
*D17
 10
2084.499741
 20
412.073848
 30
0.0
 11
1784.999756
 21
422.073853
 31
0.0
 70
    33
  3
EDDIMINFO
100
AcDbAlignedDimension
 13
1485.499741
 23
503.073848
 33
0.0
 14
2084.499741
 24
503.073848
 34
0.0
1001
ACAD
1000
DSTYLE
1002
{
1070
     7
1000
EDTIP_ARROW_E
1070
     6
1000
EDTIP_ARROW_S
1070
   173
1070
     1
1002
}
  0
DIMENSION
  5
468
330
1F
100
AcDbEntity
  8
0
100
AcDbDimension
  2
*D18
 10
2084.305833
 20
1473.011714
 30
0.0
 11
1784.305908
 21
1483.011719
 31
0.0
 70
    33
  3
EDDIMINFO
100
AcDbAlignedDimension
 13
1484.305833
 23
1382.011714
 33
0.0
 14
2084.305833
 24
1382.011714
 34
0.0
1001
ACAD
1000
DSTYLE
1002
{
1070
     7
1000
EDTIP_ARROW_E
1070
     6
1000
EDTIP_ARROW_S
1070
   173
1070
     1
1002
}
  0
DIMENSION
  5
472
330
1F
100
AcDbEntity
  8
0
100
AcDbDimension
  2
*D19
 10
860.499741
 20
412.073848
 30
0.0
 11
635.499695
 21
422.073853
 31
0.0
 70
    33
  3
EDDIMINFO
100
AcDbAlignedDimension
 13
410.499741
 23
503.073848
 33
0.0
 14
860.499741
 24
503.073848
 34
0.0
1001
ACAD
1000
DSTYLE
1002
{
1070
     7
1000
EDTIP_ARROW_E
1070
     6
1000
EDTIP_ARROW_S
1070
   173
1070
     1
1002
}
  0
LINE
  5
47C
330
1F
100
AcDbEntity
  8
0
  6
CONTINUOUS
 62
     5
100
AcDbLine
 10
933.730258
 20
820.952944
 30
0.0
 11
1362.336715
 21
820.952944
 31
0.0
  0
TEXT
  5
47D
330
1F
100
AcDbEntity
  8
0
  6
CONTINUOUS
 62
     3
100
AcDbText
 10
1012.77356
 20
844.757935
 30
0.0
 40
50.0
  1
油圧ユニット
 41
0.8
  7
ED_VECTOR
100
AcDbText
  0
LINE
  5
47E
330
1F
100
AcDbEntity
  8
0
  6
CONTINUOUS
 62
     5
100
AcDbLine
 10
1362.336715
 20
820.952944
 30
0.0
 11
1511.06894
 21
655.073848
 31
0.0
  0
INSERT
  5
47F
330
1F
100
AcDbEntity
  8
0
  6
CONTINUOUS
 62
     5
100
AcDbBlockReference
  2
EDTIP_ARROW_E
 10
1511.06894
 20
655.073848
 30
0.0
 41
30.0
 42
30.0
 50
311.880366
  0
TEXT
  5
480
330
1F
100
AcDbEntity
  8
0
  6
CONTINUOUS
 62
     3
100
AcDbText
 10
2389.806152
 20
533.604431
 30
0.0
 40
50.0
  1
F.L
 41
0.8
  7
ED_VECTOR
100
AcDbText
  0
LINE
  5
481
330
1F
100
AcDbEntity
  8
0
  6
CONTINUOUS
 62
     5
100
AcDbLine
 10
3354.260236
 20
2191.054554
 30
0.0
 11
2633.387719
 21
2191.054554
 31
0.0
  0
LINE
  5
482
330
1F
100
AcDbEntity
  8
0
  6
CONTINUOUS
 62
     5
100
AcDbLine
 10
3354.260236
 20
2127.054556
 30
0.0
 11
2633.387719
 21
2127.054556
 31
0.0
  0
LINE
  5
483
330
1F
100
AcDbEntity
  8
0
  6
CONTINUOUS
 62
     5
100
AcDbLine
 10
3354.260236
 20
2063.054557
 30
0.0
 11
2633.387719
 21
2063.054557
 31
0.0
  0
LINE
  5
484
330
1F
100
AcDbEntity
  8
0
  6
CONTINUOUS
 62
     5
100
AcDbLine
 10
3354.260236
 20
1999.054559
 30
0.0
 11
2634.260254
 21
1999.054559
 31
0.0
  0
LINE
  5
485
330
1F
100
AcDbEntity
  8
0
  6
CONTINUOUS
 62
     5
100
AcDbLine
 10
3354.260236
 20
1935.054561
 30
0.0
 11
2633.387719
 21
1935.054561
 31
0.0
  0
LINE
  5
486
330
1F
100
AcDbEntity
  8
0
  6
CONTINUOUS
 62
     5
100
AcDbLine
 10
3354.260236
 20
1871.054562
 30
0.0
 11
2633.387719
 21
1871.054562
 31
0.0
  0
LINE
  5
487
330
1F
100
AcDbEntity
  8
0
  6
CONTINUOUS
 62
     5
100
AcDbLine
 10
3354.260236
 20
1807.054564
 30
0.0
 11
2633.387719
 21
1807.054564
 31
0.0
  0
LINE
  5
488
330
1F
100
AcDbEntity
  8
0
  6
CONTINUOUS
 62
     5
100
AcDbLine
 10
3354.260236
 20
1743.054565
 30
0.0
 11
2633.387719
 21
1743.054565
 31
0.0
  0
LINE
  5
489
330
1F
100
AcDbEntity
  8
0
  6
CONTINUOUS
 62
     5
100
AcDbLine
 10
3354.260236
 20
1679.054567
 30
0.0
 11
2633.387719
 21
1679.054567
 31
0.0
  0
LINE
  5
48A
330
1F
100
AcDbEntity
  8
0
  6
CONTINUOUS
 62
     5
100
AcDbLine
 10
3354.260236
 20
1615.054569
 30
0.0
 11
2633.387719
 21
1615.054569
 31
0.0
  0
LINE
  5
48B
330
1F
100
AcDbEntity
  8
0
  6
CONTINUOUS
 62
     5
100
AcDbLine
 10
3354.260236
 20
1551.05457
 30
0.0
 11
2633.387719
 21
1551.05457
 31
0.0
  0
TEXT
  5
48C
330
1F
100
AcDbEntity
  8
0
  6
CONTINUOUS
 62
     3
100
AcDbText
 10
2829.111572
 20
2270.873535
 30
0.0
 40
40.0
  1
仕   様
 41
0.8
  7
ED_VECTOR
100
AcDbText
  0
TEXT
  5
48D
330
1F
100
AcDbEntity
  8
0
  6
CONTINUOUS
 62
     3
100
AcDbText
 10
2644.146973
 20
2199.277588
 30
0.0
 40
40.0
  1
型    式
 41
0.8
  7
ED_VECTOR
100
AcDbText
  0
TEXT
  5
48E
330
1F
100
AcDbEntity
  8
0
  6
CONTINUOUS
 62
     3
100
AcDbText
 10
2642.327393
 20
2076.787598
 30
0.0
 40
40.0
  1
テーブル寸法
 41
0.8
  7
ED_VECTOR
100
AcDbText
  0
TEXT
  5
48F
330
1F
100
AcDbEntity
  8
0
  6
CONTINUOUS
 62
     3
100
AcDbText
 10
2644.146973
 20
2013.723633
 30
0.0
 40
40.0
  1
テーブル高サ
 41
0.8
  7
ED_VECTOR
100
AcDbText
  0
TEXT
  5
490
330
1F
100
AcDbEntity
  8
0
  6
CONTINUOUS
 62
     3
100
AcDbText
 10
2645.593994
 20
1948.84082
 30
0.0
 40
40.0
  1
ストローク
 41
0.8
  7
ED_VECTOR
100
AcDbText
  0
TEXT
  5
491
330
1F
100
AcDbEntity
  8
0
  6
CONTINUOUS
 62
     3
100
AcDbText
 10
2644.987549
 20
1883.958008
 30
0.0
 40
40.0
  1
全   長
 41
0.8
  7
ED_VECTOR
100
AcDbText
  0
TEXT
  5
492
330
1F
100
AcDbEntity
  8
0
  6
CONTINUOUS
 62
     3
100
AcDbText
 10
2647.258789
 20
1818.107178
 30
0.0
 40
40.0
  1
全   巾
 41
0.8
  7
ED_VECTOR
100
AcDbText
  0
TEXT
  5
493
330
1F
100
AcDbEntity
  8
0
  6
CONTINUOUS
 62
     3
100
AcDbText
 10
2645.700928
 20
1754.222046
 30
0.0
 40
40.0
  1
全   高
 41
0.8
  7
ED_VECTOR
100
AcDbText
  0
TEXT
  5
494
330
1F
100
AcDbEntity
  8
0
  6
CONTINUOUS
 62
     3
100
AcDbText
 10
2645.700928
 20
1691.895508
 30
0.0
 40
40.0
  1
リフト方式
 41
0.8
  7
ED_VECTOR
100
AcDbText
  0
TEXT
  5
495
330
1F
100
AcDbEntity
  8
0
  6
CONTINUOUS
 62
     3
100
AcDbText
 10
2644.560791
 20
1561.007935
 30
0.0
 40
40.0
  1
モーター
 41
0.8
  7
ED_VECTOR
100
AcDbText
  0
LINE
  5
496
330
1F
100
AcDbEntity
  8
0
  6
CONTINUOUS
 62
     5
100
AcDbLine
 10
3354.260236
 20
1487.054572
 30
0.0
 11
2633.387719
 21
1487.054572
 31
0.0
  0
LINE
  5
497
330
1F
100
AcDbEntity
  8
0
  6
CONTINUOUS
 62
     5
100
AcDbLine
 10
3354.260236
 20
1359.054575
 30
0.0
 11
2631.249217
 21
1359.054575
 31
0.0
  0
LINE
  5
498
330
1F
100
AcDbEntity
  8
0
  6
CONTINUOUS
 62
     5
100
AcDbLine
 10
3354.260236
 20
1295.054577
 30
0.0
 11
2633.387719
 21
1295.054577
 31
0.0
  0
LINE
  5
499
330
1F
100
AcDbEntity
  8
0
  6
CONTINUOUS
 62
     5
100
AcDbLine
 10
3354.260236
 20
1231.054578
 30
0.0
 11
2633.387719
 21
1231.054578
 31
0.0
  0
LINE
  5
49A
330
1F
100
AcDbEntity
  8
0
  6
CONTINUOUS
 62
     5
100
AcDbLine
 10
3354.260236
 20
1167.05458
 30
0.0
 11
2633.387719
 21
1167.05458
 31
0.0
  0
TEXT
  5
49B
330
1F
100
AcDbEntity
  8
0
  6
CONTINUOUS
 62
     3
100
AcDbText
 10
2647.14209
 20
1242.176392
 30
0.0
 40
40.0
  1
自  　重
 41
0.8
  7
ED_VECTOR
100
AcDbText
  0
TEXT
  5
49C
330
1F
100
AcDbEntity
  8
0
  6
CONTINUOUS
 62
     3
100
AcDbText
 10
2637.136719
 20
1178.837036
 30
0.0
 40
40.0
  1
塗装色（マンセル値）　
 41
0.8
  7
ED_VECTOR
100
AcDbText
  0
TEXT
  5
49D
330
1F
100
AcDbEntity
  8
0
  6
CONTINUOUS
 62
     3
100
AcDbText
 10
3125.813721
 20
2135.393555
 30
0.0
 40
40.0
  1
150
 41
0.8
  7
ED_VECTOR
100
AcDbText
  0
TEXT
  5
49E
330
1F
100
AcDbEntity
  8
0
  6
CONTINUOUS
 62
     3
100
AcDbText
 10
3283.726074
 20
2134.112793
 30
0.0
 40
40.0
  1
Ｋｇ
 41
0.8
  7
ED_VECTOR
100
AcDbText
  0
TEXT
  5
49F
330
1F
100
AcDbEntity
  8
0
  6
CONTINUOUS
 62
     3
100
AcDbText
 10
2966.627197
 20
2071.797119
 30
0.0
 40
40.0
  1
600 ×450
 41
0.8
  7
ED_VECTOR
100
AcDbText
  0
TEXT
  5
4A0
330
1F
100
AcDbEntity
  8
0
  6
CONTINUOUS
 62
     3
100
AcDbText
 10
3225.921631
 20
2083.620605
 30
0.0
 40
40.0
  1
Ｗ
 41
0.8
  7
ED_VECTOR
100
AcDbText
  0
TEXT
  5
4A1
330
1F
100
AcDbEntity
  8
0
  6
CONTINUOUS
 62
     3
100
AcDbText
 10
3059.505127
 20
2089.78418
 30
0.0
 40
40.0
  1
Ｌ
 41
0.8
  7
ED_VECTOR
100
AcDbText
  0
TEXT
  5
4A2
330
1F
100
AcDbEntity
  8
0
  6
CONTINUOUS
 62
     3
100
AcDbText
 10
2997.161133
 20
2010.749023
 30
0.0
 40
40.0
  1
260～820
 41
0.8
  7
ED_VECTOR
100
AcDbText
  0
TEXT
  5
4A3
330
1F
100
AcDbEntity
  8
0
  6
CONTINUOUS
 62
     3
100
AcDbText
 10
3127.749268
 20
1946.779907
 30
0.0
 40
40.0
  1
560
 41
0.8
  7
ED_VECTOR
100
AcDbText
  0
TEXT
  5
4A4
330
1F
100
AcDbEntity
  8
0
  6
CONTINUOUS
 62
     3
100
AcDbText
 10
3127.749268
 20
1881.770874
 30
0.0
 40
40.0
  1
600
 41
0.8
  7
ED_VECTOR
100
AcDbText
  0
TEXT
  5
4A5
330
1F
100
AcDbEntity
  8
0
  6
CONTINUOUS
 62
     3
100
AcDbText
 10
2932.738037
 20
1692.85022
 30
0.0
 40
40.0
  1
電 動 油 圧 式
 41
0.8
  7
ED_VECTOR
100
AcDbText
  0
TEXT
  5
4A6
330
1F
100
AcDbEntity
  8
0
  6
CONTINUOUS
 62
     3
100
AcDbText
 10
3006.650391
 20
1498.081421
 30
0.0
 40
40.0
  1
長 サ ４ ｍ
 41
0.8
  7
ED_VECTOR
100
AcDbText
  0
TEXT
  5
4A7
330
1F
100
AcDbEntity
  8
0
  6
CONTINUOUS
 62
     3
100
AcDbText
 10
3117.321533
 20
1243.309937
 30
0.0
 40
40.0
  1
81  　Ｋｇ
 41
0.8
  7
ED_VECTOR
100
AcDbText
  0
TEXT
  5
4A8
330
1F
100
AcDbEntity
  8
0
  6
CONTINUOUS
 62
     3
100
AcDbText
 10
3123.518066
 20
1754.322876
 30
0.0
 40
40.0
  1
260
 41
0.8
  7
ED_VECTOR
100
AcDbText
  0
TEXT
  5
4A9
330
1F
100
AcDbEntity
  8
0
  6
CONTINUOUS
 62
     3
100
AcDbText
 10
3281.212158
 20
2070.009277
 30
0.0
 40
40.0
  1
mm
 41
0.8
  7
ED_VECTOR
100
AcDbText
  0
TEXT
  5
4AA
330
1F
100
AcDbEntity
  8
0
  6
CONTINUOUS
 62
     3
100
AcDbText
 10
3281.212158
 20
2009.675903
 30
0.0
 40
40.0
  1
mm
 41
0.8
  7
ED_VECTOR
100
AcDbText
  0
TEXT
  5
4AB
330
1F
100
AcDbEntity
  8
0
  6
CONTINUOUS
 62
     3
100
AcDbText
 10
3277.441162
 20
1945.572021
 30
0.0
 40
40.0
  1
mm
 41
0.8
  7
ED_VECTOR
100
AcDbText
  0
TEXT
  5
4AC
330
1F
100
AcDbEntity
  8
0
  6
CONTINUOUS
 62
     3
100
AcDbText
 10
3277.441162
 20
1877.697021
 30
0.0
 40
40.0
  1
mm
 41
0.8
  7
ED_VECTOR
100
AcDbText
  0
TEXT
  5
4AD
330
1F
100
AcDbEntity
  8
0
  6
CONTINUOUS
 62
     3
100
AcDbText
 10
3274.927734
 20
1817.364258
 30
0.0
 40
40.0
  1
mm
 41
0.8
  7
ED_VECTOR
100
AcDbText
  0
TEXT
  5
4AE
330
1F
100
AcDbEntity
  8
0
  6
CONTINUOUS
 62
     3
100
AcDbText
 10
3274.927734
 20
1753.259521
 30
0.0
 40
40.0
  1
mm
 41
0.8
  7
ED_VECTOR
100
AcDbText
  0
LINE
  5
4AF
330
1F
100
AcDbEntity
  8
0
  6
CONTINUOUS
 62
     5
100
AcDbLine
 10
3017.164657
 20
2255.054553
 30
0.0
 11
2808.778685
 21
2255.054553
 31
0.0
  0
LINE
  5
4B0
330
1F
100
AcDbEntity
  8
0
  6
CONTINUOUS
 62
     5
100
AcDbLine
 10
3017.164657
 20
2263.054552
 30
0.0
 11
2808.778685
 21
2263.054552
 31
0.0
  0
TEXT
  5
4B1
330
1F
100
AcDbEntity
  8
0
  6
CONTINUOUS
 62
     3
100
AcDbText
 10
2648.142578
 20
1624.893921
 30
0.0
 40
40.0
  1
操作方式
 41
0.8
  7
ED_VECTOR
100
AcDbText
  0
LINE
  5
4B2
330
1F
100
AcDbEntity
  8
0
  6
CONTINUOUS
 62
     5
100
AcDbLine
 10
3354.260236
 20
1423.054573
 30
0.0
 11
2633.387719
 21
1423.054573
 31
0.0
  0
TEXT
  5
4B3
330
1F
100
AcDbEntity
  8
0
  6
CONTINUOUS
 62
     3
100
AcDbText
 10
2645.476807
 20
1497.690796
 30
0.0
 40
40.0
  1
電源コード
 41
0.8
  7
ED_VECTOR
100
AcDbText
  0
TEXT
  5
4B4
330
1F
100
AcDbEntity
  8
0
  6
CONTINUOUS
 62
     3
100
AcDbText
 10
3044.448486
 20
1178.022095
 30
0.0
 40
40.0
  1
１０Ｒ４／１３
 41
0.8
  7
ED_VECTOR
100
AcDbText
  0
TEXT
  5
4B5
330
1F
100
AcDbEntity
  8
0
  6
CONTINUOUS
 62
     3
100
AcDbText
 10
2642.859619
 20
1433.414185
 30
0.0
 40
40.0
  1
上昇時間
 41
0.8
  7
ED_VECTOR
100
AcDbText
  0
TEXT
  5
4B6
330
1F
100
AcDbEntity
  8
0
  6
CONTINUOUS
 62
     3
100
AcDbText
 10
2768.798096
 20
1371.723999
 30
0.0
 40
40.0
  1
上昇端リミットスイッチ付
 41
0.8
  7
ED_VECTOR
100
AcDbText
  0
TEXT
  5
4B7
330
1F
100
AcDbEntity
  8
0
  6
CONTINUOUS
 62
     3
100
AcDbText
 10
2879.000824
 20
2200.787008
 30
0.0
 40
40.809284
  1
GLE-150-0406W
 41
0.711932
  7
ED_VECTOR
100
AcDbText
  0
TEXT
  5
4B8
330
1F
100
AcDbEntity
  8
0
  6
CONTINUOUS
 62
     3
100
AcDbText
 10
2932.109131
 20
1629.982178
 30
0.0
 40
40.0
  1
フットスイッチ
 41
0.8
  7
ED_VECTOR
100
AcDbText
  0
TEXT
  5
4B9
330
1F
100
AcDbEntity
  8
0
  6
CONTINUOUS
 62
     3
100
AcDbText
 10
2854.021484
 20
1564.647827
 30
0.0
 40
40.0
  1
ＡＣ２００Ｖ，３相、０．５５ＫＷ
 41
0.8
  7
ED_VECTOR
100
AcDbText
  0
TEXT
  5
4BA
330
1F
100
AcDbEntity
  8
0
  6
CONTINUOUS
 62
     3
100
AcDbText
 10
2648.142578
 20
2136.893799
 30
0.0
 40
40.0
  1
積載荷重
 41
0.8
  7
ED_VECTOR
100
AcDbText
  0
TEXT
  5
4BB
330
1F
100
AcDbEntity
  8
0
  6
CONTINUOUS
 62
     3
100
AcDbText
 10
667.076416
 20
1926.543701
 30
0.0
 40
50.0
  1
コード長サ２ｍ
 41
0.8
  7
ED_VECTOR
100
AcDbText
  0
TEXT
  5
4BC
330
1F
100
AcDbEntity
  8
0
  6
CONTINUOUS
 62
     3
100
AcDbText
 10
2875.517746
 20
1431.248119
 30
0.0
 40
38.786964
  1
４ｓｅｃ／50ＨＺ,３sec/60HZ
 41
0.585259
  7
ED_VECTOR
100
AcDbText
  0
TEXT
  5
4BD
330
1F
100
AcDbEntity
  8
0
  6
CONTINUOUS
 62
     3
100
AcDbText
 10
2640.083496
 20
1045.385254
 30
0.0
 40
38.0
  1
特記:油圧シリンダーに低圧戻りホースの追加。
 41
0.842105
  7
ED_VECTOR
100
AcDbText
  0
LINE
  5
4BE
330
1F
100
AcDbEntity
  8
0
  6
CONTINUOUS
 62
     5
100
AcDbLine
 10
3354.260236
 20
1039.054581
 30
0.0
 11
2633.387719
 21
1039.054581
 31
0.0
  0
TEXT
  5
4BF
330
1F
100
AcDbEntity
  8
0
  6
CONTINUOUS
 62
     5
100
AcDbText
 10
2688.967773
 20
356.907196
 30
0.0
 40
50.0
  1
令和　2年　1月　1日
 41
0.8
  7
ED_VECTOR
100
AcDbText
  0
LINE
  5
4C0
330
1F
100
AcDbEntity
  8
0
  6
CONTINUOUS
 62
     4
100
AcDbLine
 10
1913.499741
 20
565.073848
 30
0.0
 11
1913.499741
 21
568.073848
 31
0.0
  0
LINE
  5
4C1
330
1F
100
AcDbEntity
  8
0
  6
CONTINUOUS
 62
     4
100
AcDbLine
 10
1913.499741
 20
568.073848
 30
0.0
 11
1863.499741
 21
568.073848
 31
0.0
  0
LINE
  5
4C2
330
1F
100
AcDbEntity
  8
0
  6
CONTINUOUS
 62
     4
100
AcDbLine
 10
1863.499741
 20
568.073848
 30
0.0
 11
1863.499741
 21
562.073848
 31
0.0
  0
ARC
  5
4C3
330
1F
100
AcDbEntity
  8
0
  6
CONTINUOUS
 62
     4
100
AcDbCircle
 10
1910.499741
 20
565.073848
 30
0.0
 40
3.0
100
AcDbArc
 50
270.0
 51
0.0
  0
LINE
  5
4C4
330
1F
100
AcDbEntity
  8
0
  6
CONTINUOUS
 62
     3
100
AcDbLine
 10
507.231946
 20
642.073848
 30
0.0
 11
505.731946
 21
642.073848
 31
0.0
  0
LINE
  5
4C5
330
1F
100
AcDbEntity
  8
0
  6
CONTINUOUS
 62
     3
100
AcDbLine
 10
506.917064
 20
632.073848
 30
0.0
 11
505.731946
 21
632.073848
 31
0.0
  0
LINE
  5
4C6
330
1F
100
AcDbEntity
  8
0
  6
CONTINUOUS
 62
     3
100
AcDbLine
 10
505.731946
 20
643.873848
 30
0.0
 11
505.731946
 21
630.273848
 31
0.0
  0
LINE
  5
4C7
330
1F
100
AcDbEntity
  8
0
  6
CONTINUOUS
 62
     3
100
AcDbLine
 10
502.731946
 20
643.873848
 30
0.0
 11
502.731946
 21
630.273848
 31
0.0
  0
LINE
  5
4C8
330
1F
100
AcDbEntity
  8
0
  6
CONTINUOUS
 62
     3
100
AcDbLine
 10
502.731946
 20
643.873848
 30
0.0
 11
505.731946
 21
643.873848
 31
0.0
  0
LINE
  5
4C9
330
1F
100
AcDbEntity
  8
0
  6
CONTINUOUS
 62
     3
100
AcDbLine
 10
502.731946
 20
630.273848
 30
0.0
 11
505.731946
 21
630.273848
 31
0.0
  0
LINE
  5
4CA
330
1F
100
AcDbEntity
  8
0
  6
CONTINUOUS
 62
     3
100
AcDbLine
 10
502.731946
 20
640.473848
 30
0.0
 11
505.731946
 21
640.473848
 31
0.0
  0
LINE
  5
4CB
330
1F
100
AcDbEntity
  8
0
  6
CONTINUOUS
 62
     3
100
AcDbLine
 10
502.731946
 20
633.673848
 30
0.0
 11
505.731946
 21
633.673848
 31
0.0
  0
LINE
  5
4CC
330
1F
100
AcDbEntity
  8
0
  6
CONTINUOUS
 62
     3
100
AcDbLine
 10
502.731946
 20
643.073848
 30
0.0
 11
492.731946
 21
643.073848
 31
0.0
  0
LINE
  5
4CD
330
1F
100
AcDbEntity
  8
0
  6
CONTINUOUS
 62
     3
100
AcDbLine
 10
492.731946
 20
643.073848
 30
0.0
 11
492.731946
 21
631.073848
 31
0.0
  0
LINE
  5
4CE
330
1F
100
AcDbEntity
  8
0
  6
CONTINUOUS
 62
     3
100
AcDbLine
 10
492.731946
 20
631.073848
 30
0.0
 11
502.731946
 21
631.073848
 31
0.0
  0
ARC
  5
4CF
330
1F
100
AcDbEntity
  8
0
  6
CONTINUOUS
 62
     3
100
AcDbCircle
 10
489.731946
 20
637.073848
 30
0.0
 40
4.5
100
AcDbArc
 50
90.0
 51
270.0
  0
LINE
  5
4D0
330
1F
100
AcDbEntity
  8
0
  6
CONTINUOUS
 62
     5
100
AcDbLine
 10
489.731946
 20
646.879021
 30
0.0
 11
489.731946
 21
628.049092
 31
0.0
  0
LINE
  5
4D1
330
1F
100
AcDbEntity
  8
0
  6
CONTINUOUS
 62
     3
100
AcDbLine
 10
489.731946
 20
641.573848
 30
0.0
 11
492.731946
 21
641.573848
 31
0.0
  0
LINE
  5
4D2
330
1F
100
AcDbEntity
  8
0
  6
CONTINUOUS
 62
     3
100
AcDbLine
 10
489.731946
 20
632.573848
 30
0.0
 11
492.731946
 21
632.573848
 31
0.0
  0
ARC
  5
4D3
330
1F
100
AcDbEntity
  8
0
  6
CONTINUOUS
 62
     3
100
AcDbCircle
 10
489.731946
 20
637.073848
 30
0.0
 40
6.5
100
AcDbArc
 50
62.513574
 51
297.486426
  0
LINE
  5
4D4
330
1F
100
AcDbEntity
  8
0
  6
CONTINUOUS
 62
     4
100
AcDbLine
 10
831.499741
 20
562.073848
 30
0.0
 11
831.499741
 21
568.073848
 31
0.0
  0
LINE
  5
4D5
330
1F
100
AcDbEntity
  8
0
  6
CONTINUOUS
 62
     4
100
AcDbLine
 10
854.499741
 20
562.073848
 30
0.0
 11
854.499741
 21
568.073848
 31
0.0
  0
LINE
  5
4D6
330
1F
100
AcDbEntity
  8
0
  6
CONTINUOUS
 62
     4
100
AcDbLine
 10
854.499741
 20
568.073848
 30
0.0
 11
831.499741
 21
568.073848
 31
0.0
  0
LINE
  5
4D7
330
1F
100
AcDbEntity
  8
0
  6
CONTINUOUS
 62
     4
100
AcDbLine
 10
439.499741
 20
562.073848
 30
0.0
 11
439.499741
 21
568.073848
 31
0.0
  0
LINE
  5
4D8
330
1F
100
AcDbEntity
  8
0
  6
CONTINUOUS
 62
     4
100
AcDbLine
 10
416.499741
 20
562.073848
 30
0.0
 11
416.499741
 21
568.073848
 31
0.0
  0
LINE
  5
4D9
330
1F
100
AcDbEntity
  8
0
  6
CONTINUOUS
 62
     4
100
AcDbLine
 10
416.499741
 20
568.073848
 30
0.0
 11
439.499741
 21
568.073848
 31
0.0
  0
TEXT
  5
4DA
330
1F
100
AcDbEntity
  8
0
  6
CONTINUOUS
 62
     6
100
AcDbText
 10
3125.526855
 20
1818.984131
 30
0.0
 40
40.0
  1
450
 41
0.8
  7
ED_VECTOR
100
AcDbText
  0
ENDSEC
  0
SECTION
  2
OBJECTS
  0
DICTIONARY
  5
C
330
0
100
AcDbDictionary
  3
ACAD_GROUP
350
D
  3
ACAD_LAYOUT
350
1A
  3
ACAD_MATERIAL
350
43
  3
ACAD_MLEADERSTYLE
350
6B
  3
ACAD_MLINESTYLE
350
17
  3
ACAD_PLOTSETTINGS
350
19
  3
ACAD_SCALELIST
350
47
  3
ACAD_VISUALSTYLE
350
2A
  3
ACDBVARIABLEDICTIONARY
350
4DB
1001
ACAD
1000
TREAT_AS_HARD
1070
     0
  0
DICTIONARY
  5
D
102
{ACAD_REACTORS
330
C
102
}
330
C
100
AcDbDictionary
1001
ACAD
1000
TREAT_AS_HARD
1070
     0
  0
DICTIONARY
  5
1A
102
{ACAD_REACTORS
330
C
102
}
330
C
100
AcDbDictionary
1001
ACAD
1000
TREAT_AS_HARD
1070
     0
  0
DICTIONARY
  5
43
102
{ACAD_REACTORS
330
C
102
}
330
C
100
AcDbDictionary
  3
BYBLOCK
350
45
  3
BYLAYER
350
44
  3
GLOBAL
350
46
1001
ACAD
1000
TREAT_AS_HARD
1070
     0
  0
DICTIONARY
  5
6B
102
{ACAD_REACTORS
330
C
102
}
330
C
100
AcDbDictionary
  3
STANDARD
350
6C
1001
ACAD
1000
TREAT_AS_HARD
1070
     0
  0
DICTIONARY
  5
17
102
{ACAD_REACTORS
330
C
102
}
330
C
100
AcDbDictionary
  3
STANDARD
350
18
1001
ACAD
1000
TREAT_AS_HARD
1070
     0
  0
DICTIONARY
  5
19
102
{ACAD_REACTORS
330
C
102
}
330
C
100
AcDbDictionary
1001
ACAD
1000
TREAT_AS_HARD
1070
     0
  0
DICTIONARY
  5
47
102
{ACAD_REACTORS
330
C
102
}
330
C
100
AcDbDictionary
  3
A0
350
48
  3
A1
350
49
  3
A2
350
4A
  3
A3
350
4B
  3
A4
350
4C
  3
A5
350
4D
  3
A6
350
4E
  3
A7
350
4F
  3
A8
350
50
  3
A9
350
51
  3
B0
350
52
  3
B1
350
53
  3
B2
350
54
  3
B3
350
55
  3
B4
350
56
  3
B5
350
57
  3
B6
350
58
  3
B7
350
59
  3
B8
350
5A
  3
B9
350
5B
  3
C0
350
5C
  3
C1
350
5D
  3
C2
350
5E
  3
C3
350
5F
  3
C4
350
60
  3
C5
350
61
  3
C6
350
62
  3
C7
350
63
  3
C8
350
64
  3
C9
350
65
  3
D0
350
66
  3
D1
350
67
  3
D2
350
68
1001
ACAD
1000
TREAT_AS_HARD
1070
     0
  0
DICTIONARY
  5
2A
102
{ACAD_REACTORS
330
C
102
}
330
C
100
AcDbDictionary
  3
2DWIREFRAME
350
2F
  3
BASIC
350
32
  3
BRIGHTEN
350
36
  3
COLORCHANGE
350
3A
  3
CONCEPTUAL
350
34
  3
DIM
350
35
  3
EDGECOLOROFF
350
3D
  3
FACEPATTERN
350
39
  3
FLAT
350
2B
  3
FLATWITHEDGES
350
2C
  3
GOURAUD
350
2D
  3
GOURAUDWITHEDGES
350
2E
  3
HIDDEN
350
31
  3
JITTEROFF
350
3B
  3
LINEPATTERN
350
38
  3
OVERHANGOFF
350
3C
  3
REALISTIC
350
33
  3
SHADED
350
42
  3
SHADED_WITH_EDGES
350
41
  3
SHADES_OF_GRAY
350
3E
  3
SKETCHY
350
3F
  3
THICKEN
350
37
  3
WIREFRAME
350
30
  3
X-RAY
350
40
1001
ACAD
1000
TREAT_AS_HARD
1070
     0
  0
DICTIONARY
  5
4DB
102
{ACAD_REACTORS
330
C
102
}
330
C
100
AcDbDictionary
  3
CANNOSCALE
350
4E6
  3
CENTEREXE
350
4E2
  3
CENTERLTYPEFILE
350
4E3
  3
CMLEADERSTYLE
350
4DD
  3
CTABLESTYLE
350
4DC
  3
DIMASSOC
350
4E4
  3
HIDETEXT
350
4E5
  3
MSLTSCALE
350
4E7
  3
PSOLHEIGHT
350
4DF
  3
PSOLWIDTH
350
4DE
1001
ACAD
1000
TREAT_AS_HARD
1070
     0
  0
MATERIAL
  5
45
102
{ACAD_REACTORS
330
43
102
}
102
{ACAD_XDICTIONARY
360
4EA
102
}
330
43
100
AcDbMaterial
  1
BYBLOCK
  0
MATERIAL
  5
44
102
{ACAD_REACTORS
330
43
102
}
102
{ACAD_XDICTIONARY
360
4E8
102
}
330
43
100
AcDbMaterial
  1
BYLAYER
  0
MATERIAL
  5
46
102
{ACAD_REACTORS
330
43
102
}
102
{ACAD_XDICTIONARY
360
4EC
102
}
330
43
100
AcDbMaterial
  1
GLOBAL
  0
ACAD_PROXY_OBJECT
  5
6C
102
{ACAD_REACTORS
330
6B
102
}
330
6B
100
AcDbZombieObject
 90
      499
 91
      505
 93
      610
310
40901902A4063FBFFFFFE0000000000000020400000000000020404214DD185B99185C990000000000000104090141901A00000000000004100000000000000041025764000000000000039000
340
14
340
0
340
11
340
0
 94
        0
1001
ACAD_MLEADERVER
1070
     2
  0
MLINESTYLE
  5
18
102
{ACAD_REACTORS
330
17
102
}
330
17
100
AcDbMlineStyle
  2
Standard
 70
     0
  3

 62
   256
 51
90.0
 52
90.0
 71
     2
 49
0.5
 62
   256
  6
BYLAYER
 49
-0.5
 62
   256
  6
BYLAYER
  0
ACAD_PROXY_OBJECT
  5
48
102
{ACAD_REACTORS
330
47
102
}
330
47
100
AcDbZombieObject
 90
      499
 91
      503
 93
       41
310
903313A31580
  0
ACAD_PROXY_OBJECT
  5
49
102
{ACAD_REACTORS
330
47
102
}
330
47
100
AcDbZombieObject
 90
      499
 91
      503
 93
      105
310
903313A324000000000000004000
  0
ACAD_PROXY_OBJECT
  5
4A
102
{ACAD_REACTORS
330
47
102
}
330
47
100
AcDbZombieObject
 90
      499
 91
      503
 93
      105
310
903313A344000000000000104000
  0
ACAD_PROXY_OBJECT
  5
4B
102
{ACAD_REACTORS
330
47
102
}
330
47
100
AcDbZombieObject
 90
      499
 91
      503
 93
      105
310
903313A354000000000000144000
  0
ACAD_PROXY_OBJECT
  5
4C
102
{ACAD_REACTORS
330
47
102
}
330
47
100
AcDbZombieObject
 90
      499
 91
      503
 93
      105
310
903313A384000000000000204000
  0
ACAD_PROXY_OBJECT
  5
4D
102
{ACAD_REACTORS
330
47
102
}
330
47
100
AcDbZombieObject
 90
      499
 91
      503
 93
      113
310
904313A31304000000000000244000
  0
ACAD_PROXY_OBJECT
  5
4E
102
{ACAD_REACTORS
330
47
102
}
330
47
100
AcDbZombieObject
 90
      499
 91
      503
 93
      113
310
904313A31364000000000000304000
  0
ACAD_PROXY_OBJECT
  5
4F
102
{ACAD_REACTORS
330
47
102
}
330
47
100
AcDbZombieObject
 90
      499
 91
      503
 93
      113
310
904313A32304000000000000344000
  0
ACAD_PROXY_OBJECT
  5
50
102
{ACAD_REACTORS
330
47
102
}
330
47
100
AcDbZombieObject
 90
      499
 91
      503
 93
      113
310
904313A333040000000000003E4000
  0
ACAD_PROXY_OBJECT
  5
51
102
{ACAD_REACTORS
330
47
102
}
330
47
100
AcDbZombieObject
 90
      499
 91
      503
 93
      113
310
904313A34304000000000000444000
  0
ACAD_PROXY_OBJECT
  5
52
102
{ACAD_REACTORS
330
47
102
}
330
47
100
AcDbZombieObject
 90
      499
 91
      503
 93
      113
310
904313A35304000000000000494000
  0
ACAD_PROXY_OBJECT
  5
53
102
{ACAD_REACTORS
330
47
102
}
330
47
100
AcDbZombieObject
 90
      499
 91
      503
 93
      121
310
905313A3130304000000000000594000
  0
ACAD_PROXY_OBJECT
  5
54
102
{ACAD_REACTORS
330
47
102
}
330
47
100
AcDbZombieObject
 90
      499
 91
      503
 93
      105
310
903323A310000000000000010100
  0
ACAD_PROXY_OBJECT
  5
55
102
{ACAD_REACTORS
330
47
102
}
330
47
100
AcDbZombieObject
 90
      499
 91
      503
 93
      105
310
903343A310000000000000410100
  0
ACAD_PROXY_OBJECT
  5
56
102
{ACAD_REACTORS
330
47
102
}
330
47
100
AcDbZombieObject
 90
      499
 91
      503
 93
      105
310
903383A310000000000000810100
  0
ACAD_PROXY_OBJECT
  5
57
102
{ACAD_REACTORS
330
47
102
}
330
47
100
AcDbZombieObject
 90
      499
 91
      503
 93
      113
310
90431303A310000000000000910100
  0
ACAD_PROXY_OBJECT
  5
58
102
{ACAD_REACTORS
330
47
102
}
330
47
100
AcDbZombieObject
 90
      499
 91
      503
 93
      121
310
9053130303A310000000000001650100
  0
ACAD_PROXY_OBJECT
  5
59
102
{ACAD_REACTORS
330
47
102
}
330
47
100
AcDbZombieObject
 90
      499
 91
      503
 93
      257
310
90E312F31323822203D2031272D3022000000000000200FC000000000000284000
  0
ACAD_PROXY_OBJECT
  5
5A
102
{ACAD_REACTORS
330
47
102
}
330
47
100
AcDbZombieObject
 90
      499
 91
      503
 93
      249
310
90D312F363422203D2031272D3022000000000000240FC000000000000284000
  0
ACAD_PROXY_OBJECT
  5
5B
102
{ACAD_REACTORS
330
47
102
}
330
47
100
AcDbZombieObject
 90
      499
 91
      503
 93
      249
310
90D312F333222203D2031272D3022000000000000280FC000000000000284000
  0
ACAD_PROXY_OBJECT
  5
5C
102
{ACAD_REACTORS
330
47
102
}
330
47
100
AcDbZombieObject
 90
      499
 91
      503
 93
      249
310
90D312F313622203D2031272D30220000000000002C0FC000000000000284000
  0
ACAD_PROXY_OBJECT
  5
5D
102
{ACAD_REACTORS
330
47
102
}
330
47
100
AcDbZombieObject
 90
      499
 91
      503
 93
      249
310
90D332F333222203D2031272D30220000000000002E0FC000000000000284000
  0
ACAD_PROXY_OBJECT
  5
5E
102
{ACAD_REACTORS
330
47
102
}
330
47
100
AcDbZombieObject
 90
      499
 91
      503
 93
      241
310
90C312F3822203D2031272D3022000000000000300FC000000000000284000
  0
ACAD_PROXY_OBJECT
  5
5F
102
{ACAD_REACTORS
330
47
102
}
330
47
100
AcDbZombieObject
 90
      499
 91
      503
 93
      249
310
90D332F313622203D2031272D3022000000000000320FC000000000000284000
  0
ACAD_PROXY_OBJECT
  5
60
102
{ACAD_REACTORS
330
47
102
}
330
47
100
AcDbZombieObject
 90
      499
 91
      503
 93
      241
310
90C312F3422203D2031272D3022000000000000340FC000000000000284000
  0
ACAD_PROXY_OBJECT
  5
61
102
{ACAD_REACTORS
330
47
102
}
330
47
100
AcDbZombieObject
 90
      499
 91
      503
 93
      241
310
90C332F3822203D2031272D3022000000000000360FC000000000000284000
  0
ACAD_PROXY_OBJECT
  5
62
102
{ACAD_REACTORS
330
47
102
}
330
47
100
AcDbZombieObject
 90
      499
 91
      503
 93
      241
310
90C312F3222203D2031272D3022000000000000380FC000000000000284000
  0
ACAD_PROXY_OBJECT
  5
63
102
{ACAD_REACTORS
330
47
102
}
330
47
100
AcDbZombieObject
 90
      499
 91
      503
 93
      241
310
90C332F3422203D2031272D30220000000000003A0FC000000000000284000
  0
ACAD_PROXY_OBJECT
  5
64
102
{ACAD_REACTORS
330
47
102
}
330
47
100
AcDbZombieObject
 90
      499
 91
      503
 93
      161
310
90A3122203D2031272D30224000000000000284000
  0
ACAD_PROXY_OBJECT
  5
65
102
{ACAD_REACTORS
330
47
102
}
330
47
100
AcDbZombieObject
 90
      499
 91
      503
 93
      257
310
90E312D312F3222203D2031272D30220000000000003E0FC000000000000284000
  0
ACAD_PROXY_OBJECT
  5
66
102
{ACAD_REACTORS
330
47
102
}
330
47
100
AcDbZombieObject
 90
      499
 91
      503
 93
      225
310
90A3322203D2031272D302200000000000002100000000000000284000
  0
ACAD_PROXY_OBJECT
  5
67
102
{ACAD_REACTORS
330
47
102
}
330
47
100
AcDbZombieObject
 90
      499
 91
      503
 93
      225
310
90A3622203D2031272D302200000000000006100000000000000284000
  0
ACAD_PROXY_OBJECT
  5
68
102
{ACAD_REACTORS
330
47
102
}
330
47
100
AcDbZombieObject
 90
      499
 91
      503
 93
      249
310
90D31272D3022203D2031272D30220000000000000A100000000000000284000
  0
ACAD_PROXY_OBJECT
  5
2F
102
{ACAD_REACTORS
330
2A
102
}
330
2A
100
AcDbZombieObject
 90
      499
 91
      501
 93
      436
310
42CC9915DA5C99599C985B595049028333333333333E33F0000000000000F90107901411070040501600405405064090741402480A0340
1001
ACAD
1000
AcDbSavedByObjectVersion
1070
     0
  0
ACAD_PROXY_OBJECT
  5
32
102
{ACAD_REACTORS
330
2A
102
}
330
2A
100
AcDbZombieObject
 90
      499
 91
      501
 93
      388
310
4150985CDA58D07406404333333333333E33F0000000000000F90107A41107004050150841D405064090741402480A0350
1001
ACAD
1000
AcDbSavedByObjectVersion
1070
     0
  0
ACAD_PROXY_OBJECT
  5
36
102
{ACAD_REACTORS
330
2A
102
}
330
2A
100
AcDbZombieObject
 90
      499
 91
      501
 93
      428
310
42109C9A59DA1D195B90C409028333333333333E33F0000000000000F9010790141107004050150841D405064090741402480A029950
1001
ACAD
1000
AcDbSavedByObjectVersion
1070
     0
  0
ACAD_PROXY_OBJECT
  5
3A
102
{ACAD_REACTORS
330
2A
102
}
330
2A
100
AcDbZombieObject
 90
      499
 91
      501
 93
      452
310
42D0DBDB1BDC90DA185B99D95104090240C333333333333E33F0000000000000F90108901411070040501508421405064090741402480A0350
1001
ACAD
1000
AcDbSavedByObjectVersion
1070
     0
  0
ACAD_PROXY_OBJECT
  5
34
102
{ACAD_REACTORS
330
2A
102
}
330
2A
100
AcDbZombieObject
 90
      499
 91
      501
 93
      500
310
4290DBDB98D95C1D1D585B10940D028333333333333E33F0000000000000F90107902409070040501000000000018199010841D405064090740C02480A0340
1001
ACAD
1000
AcDbSavedByObjectVersion
1070
     0
  0
ACAD_PROXY_OBJECT
  5
35
102
{ACAD_REACTORS
330
2A
102
}
330
2A
100
AcDbZombieObject
 90
      499
 91
      501
 93
      412
310
40D11A5B50B409028333333333333E33F0000000000000F9010790141107004050150841D405064090741402480A02677FFFFFD0
1001
ACAD
1000
AcDbSavedByObjectVersion
1070
     0
  0
ACAD_PROXY_OBJECT
  5
3D
102
{ACAD_REACTORS
330
2A
102
}
330
2A
100
AcDbZombieObject
 90
      499
 91
      501
 93
      452
310
43115919D950DBDB1BDC93D999916409028333333333333E33F0000000000000F9010790141107004050150841D405064090741402480A0350
1001
ACAD
1000
AcDbSavedByObjectVersion
1070
     0
  0
ACAD_PROXY_OBJECT
  5
39
102
{ACAD_REACTORS
330
2A
102
}
330
2A
100
AcDbZombieObject
 90
      499
 91
      501
 93
      444
310
42D19858D95C185D1D195C9B90F409028333333333333E33F0000000000000F9010790141107004050150841D405064090741402480A0350
1001
ACAD
1000
AcDbSavedByObjectVersion
1070
     0
  0
ACAD_PROXY_OBJECT
  5
2B
102
{ACAD_REACTORS
330
2A
102
}
330
2A
100
AcDbZombieObject
 90
      499
 91
      501
 93
      380
310
41119B185D240901404333333333333E33F0000000000000F9010740A907004050150841D405064090741402480A1B50
1001
ACAD
1000
AcDbSavedByObjectVersion
1070
     0
  0
ACAD_PROXY_OBJECT
  5
2C
102
{ACAD_REACTORS
330
2A
102
}
330
2A
100
AcDbZombieObject
 90
      499
 91
      501
 93
      468
310
43519B185D15DA5D1A115919D95CD0140901404333333333333E33F0000000000000F90107409019070040501600405405064090741402480A1B50
1001
ACAD
1000
AcDbSavedByObjectVersion
1070
     0
  0
ACAD_PROXY_OBJECT
  5
2D
102
{ACAD_REACTORS
330
2A
102
}
330
2A
100
AcDbZombieObject
 90
      499
 91
      501
 93
      404
310
41D1DBDD5C985D5910240902404333333333333E33F0000000000000F9010740A9070040501641D405064090741402480A1B50
1001
ACAD
1000
AcDbSavedByObjectVersion
1070
     0
  0
ACAD_PROXY_OBJECT
  5
2E
102
{ACAD_REACTORS
330
2A
102
}
330
2A
100
AcDbZombieObject
 90
      499
 91
      501
 93
      492
310
4411DBDD5C985D5915DA5D1A115919D95CD0340902404333333333333E33F0000000000000F90107409019070040501600405405064090741402480A1B50
1001
ACAD
1000
AcDbSavedByObjectVersion
1070
     0
  0
ACAD_PROXY_OBJECT
  5
31
102
{ACAD_REACTORS
330
2A
102
}
330
2A
100
AcDbZombieObject
 90
      499
 91
      501
 93
      476
310
41921A5919195B90640502408333333333333E33F0000000000000F901079024090700405020000000000001110200405405064090740C02480A0340
1001
ACAD
1000
AcDbSavedByObjectVersion
1070
     0
  0
ACAD_PROXY_OBJECT
  5
3B
102
{ACAD_REACTORS
330
2A
102
}
330
2A
100
AcDbZombieObject
 90
      499
 91
      501
 93
      428
310
42529A5D1D195C93D999914409028333333333333E33F0000000000000F9010790141107004050150A41D405064090741402480A0350
1001
ACAD
1000
AcDbSavedByObjectVersion
1070
     0
  0
ACAD_PROXY_OBJECT
  5
38
102
{ACAD_REACTORS
330
2A
102
}
330
2A
100
AcDbZombieObject
 90
      499
 91
      501
 93
      444
310
42D31A5B995C185D1D195C9B90E409028333333333333E33F0000000000000F9010790141107004050750841D405064090741402483A0350
1001
ACAD
1000
AcDbSavedByObjectVersion
1070
     0
  0
ACAD_PROXY_OBJECT
  5
3C
102
{ACAD_REACTORS
330
2A
102
}
330
2A
100
AcDbZombieObject
 90
      499
 91
      501
 93
      444
310
42D3DD995C9A185B99D3D999915409028333333333333E33F0000000000000F9010790141107004050150941D405064090741402480A0350
1001
ACAD
1000
AcDbSavedByObjectVersion
1070
     0
  0
ACAD_PROXY_OBJECT
  5
33
102
{ACAD_REACTORS
330
2A
102
}
330
2A
100
AcDbZombieObject
 90
      499
 91
      501
 93
      428
310
425499585B1A5CDD1A58D08409038333333333333E33F0000000000000F9010740A907004050150800405405064090740C02480A1B40
1001
ACAD
1000
AcDbSavedByObjectVersion
1070
     0
  0
ACAD_PROXY_OBJECT
  5
42
102
{ACAD_REACTORS
330
2A
102
}
330
2A
100
AcDbZombieObject
 90
      499
 91
      501
 93
      420
310
4194DA1859195911B40902404333333333333E33F0000000000000F9010740A41107004050150800405405064090840C02480A0B40
1001
ACAD
1000
AcDbSavedByObjectVersion
1070
     0
  0
ACAD_PROXY_OBJECT
  5
41
102
{ACAD_REACTORS
330
2A
102
}
330
2A
100
AcDbZombieObject
 90
      499
 91
      501
 93
      516
310
4454DA18591959081DDA5D1A08195919D95CD1A40902404333333333333E33F0000000000000F901074090142907004050250800405405064090740C02480A0B40
1001
ACAD
1000
AcDbSavedByObjectVersion
1070
     0
  0
ACAD_PROXY_OBJECT
  5
3E
102
{ACAD_REACTORS
330
2A
102
}
330
2A
100
AcDbZombieObject
 90
      499
 91
      501
 93
      532
310
4394DA1859195CC81BD98811DC985E5174090240C333333333333E33F0000000000000F901079024090741D01000000000000111010841D405064090740C02480A0340
1001
ACAD
1000
AcDbSavedByObjectVersion
1070
     0
  0
ACAD_PROXY_OBJECT
  5
3F
102
{ACAD_REACTORS
330
2A
102
}
330
2A
100
AcDbZombieObject
 90
      499
 91
      501
 93
      476
310
41D4DAD95D18DA1E51840502408333333333333E33F0000000000000F901079024090741D01000000000000111010B41D405064090741802480A0340
1001
ACAD
1000
AcDbSavedByObjectVersion
1070
     0
  0
ACAD_PROXY_OBJECT
  5
37
102
{ACAD_REACTORS
330
2A
102
}
330
2A
100
AcDbZombieObject
 90
      499
 91
      501
 93
      412
310
41D51A1A58DAD95B90D409028333333333333E33F0000000000000F9010790141107004050150C41D405064090741402480A0350
1001
ACAD
1000
AcDbSavedByObjectVersion
1070
     0
  0
ACAD_PROXY_OBJECT
  5
30
102
{ACAD_REACTORS
330
2A
102
}
330
2A
100
AcDbZombieObject
 90
      499
 91
      501
 93
      420
310
4255DA5C99599C985B595059028333333333333E33F0000000000000F90107901411070040501600405405064090740C02480A0340
1001
ACAD
1000
AcDbSavedByObjectVersion
1070
     0
  0
ACAD_PROXY_OBJECT
  5
40
102
{ACAD_REACTORS
330
2A
102
}
330
2A
100
AcDbZombieObject
 90
      499
 91
      501
 93
      404
310
41560B54985E51940902404000000000000E03F0000000000000F9010740501907004050150841D405064090740C02480A1B40
1001
ACAD
1000
AcDbSavedByObjectVersion
1070
     0
  0
DICTIONARYVAR
  5
4E6
102
{ACAD_REACTORS
330
4DB
102
}
330
4DB
100
DictionaryVariables
280
     0
  1
1:1
  0
DICTIONARYVAR
  5
4E2
102
{ACAD_REACTORS
330
4DB
102
}
330
4DB
100
DictionaryVariables
280
     0
  1
3.500000
  0
DICTIONARYVAR
  5
4E3
102
{ACAD_REACTORS
330
4DB
102
}
330
4DB
100
DictionaryVariables
280
     0
  1
acadiso.lin
  0
DICTIONARYVAR
  5
4DD
102
{ACAD_REACTORS
330
4DB
102
}
330
4DB
100
DictionaryVariables
280
     0
  1
Standard
  0
DICTIONARYVAR
  5
4DC
102
{ACAD_REACTORS
330
4DB
102
}
330
4DB
100
DictionaryVariables
280
     0
  1
Standard
  0
DICTIONARYVAR
  5
4E4
102
{ACAD_REACTORS
330
4DB
102
}
330
4DB
100
DictionaryVariables
280
     0
  1
2
  0
DICTIONARYVAR
  5
4E5
102
{ACAD_REACTORS
330
4DB
102
}
330
4DB
100
DictionaryVariables
280
     0
  1
1
  0
DICTIONARYVAR
  5
4E7
102
{ACAD_REACTORS
330
4DB
102
}
330
4DB
100
DictionaryVariables
280
     0
  1
1
  0
DICTIONARYVAR
  5
4DF
102
{ACAD_REACTORS
330
4DB
102
}
330
4DB
100
DictionaryVariables
280
     0
  1
80.000000
  0
DICTIONARYVAR
  5
4DE
102
{ACAD_REACTORS
330
4DB
102
}
330
4DB
100
DictionaryVariables
280
     0
  1
5.000000
  0
DICTIONARY
  5
4EA
330
45
100
AcDbDictionary
  3
ACAD_XREC_ROUNDTRIP
360
4EB
1001
ACAD
1000
TREAT_AS_HARD
1070
     1
  0
DICTIONARY
  5
4E8
330
44
100
AcDbDictionary
  3
ACAD_XREC_ROUNDTRIP
360
4E9
1001
ACAD
1000
TREAT_AS_HARD
1070
     1
  0
DICTIONARY
  5
4EC
330
46
100
AcDbDictionary
  3
ACAD_XREC_ROUNDTRIP
360
4ED
1001
ACAD
1000
TREAT_AS_HARD
1070
     1
  0
XRECORD
  5
4EB
102
{ACAD_REACTORS
330
4EA
102
}
330
4EA
100
AcDbXrecord
102
MATERIAL
148
0.0
149
0.0
149
0.0
 93
        0
 94
      127
282
     0
 72
     1
 77
     1
171
     1
175
     1
179
     1
273
     0
  0
XRECORD
  5
4E9
102
{ACAD_REACTORS
330
4E8
102
}
330
4E8
100
AcDbXrecord
102
MATERIAL
148
0.0
149
0.0
149
0.0
 93
        0
 94
      127
282
     0
 72
     1
 77
     1
171
     1
175
     1
179
     1
273
     0
  0
XRECORD
  5
4ED
102
{ACAD_REACTORS
330
4EC
102
}
330
4EC
100
AcDbXrecord
102
MATERIAL
148
0.0
149
0.0
149
0.0
 93
        0
 94
      127
282
     0
 72
     1
 77
     1
171
     1
175
     1
179
     1
273
     0
  0
ENDSEC
  0
EOF
