  0
SECTION
  2
HEADER
  9
$ACADVER
  1
AC1006
  9
$INSBASE
 10
0.000000
 20
0.000000
 30
0.0
  9
$EXTMIN
 10
0.000000
 20
0.000000
  9
$EXTMAX
 10
3640.000000
 20
2570.000000
  9
$LIMMIN
 10
0.000000
 20
0.000000
  9
$LIMMAX
 10
3640.000000
 20
2570.000000
  9
$VIEWCTR
 10
1820.000000
 20
1285.000000
  9
$VIEWSIZE
 40
2570.000000
  9
$SNAPMODE
 70
     0
  9
$SNAPUNIT
 10
1.0
 20
1.0
  9
$SNAPBASE
 10
0.0
 20
0.0
  9
$SNAPANG
 50
0.0
  9
$SNAPSTYLE
 70
     0
  9
$SNAPISOPAIR
 70
     0
  9
$GRIDMODE
 70
     0
  9
$GRIDUNIT
 10
0.0
 20
0.0
  9
$ORTHOMODE
 70
     0
  9
$REGENMODE
 70
     1
  9
$FILLMODE
 70
     1
  9
$QTEXTMODE
 70
     0
  9
$DRAGMODE
 70
     2
  9
$LTSCALE
 40
15.000000
  9
$OSMODE
 70
     0
  9
$ATTMODE
 70
     1
  9
$TEXTSIZE
 40
0.2
  9
$TRACEWID
 40
0.05
  9
$TEXTSTYLE
  7
STANDARD
  9
$CLAYER
  8
CSLAYER1
  9
$CELTYPE
  6
BYLAYER
  9
$CECOLOR
 62
   256
  9
$DIMSCALE
 40
1.0
  9
$DIMASZ
 40
0.18
  9
$DIMEXO
 40
0.0625
  9
$DIMDLI
 40
0.38
  9
$DIMRND
 40
0.0
  9
$DIMDLE
 40
0.0
  9
$DIMEXE
 40
0.18
  9
$DIMTP
 40
0.0
  9
$DIMTM
 40
0.0
  9
$DIMTXT
 40
0.18
  9
$DIMCEN
 40
0.09
  9
$DIMTSZ
 40
0.0
  9
$DIMTOL
 70
     0
  9
$DIMLIM
 70
     0
  9
$DIMTIH
 70
     1
  9
$DIMTOH
 70
     1
  9
$DIMSE1
 70
     0
  9
$DIMSE2
 70
     0
  9
$DIMTAD
 70
     0
  9
$DIMZIN
 70
     0
  9
$DIMBLK
  1

  9
$LUNITS
 70
     2
  9
$LUPREC
 70
     4
  9
$AXISMODE
 70
     0
  9
$AXISUNIT
 10
0.0
 20
0.0
  9
$SKETCHINC
 40
0.1
  9
$FILLETRAD
 40
0.0
  9
$AUNITS
 70
     0
  9
$AUPREC
 70
     0
  9
$MENU
  1
ACAD
  9
$ELEVATION
 40
0.0
  9
$THICKNESS
 40
0.0
  9
$VIEWDIR
 10
0.0
 20
0.0
 30
1.0
  9
$LIMCHECK
 70
     0
  9
$BLIPMODE
 70
     1
  9
$CHAMFERA
 40
0.0
  9
$CHAMFERB
 40
0.0
  9
$FASTZOOM
 70
     1
  9
$SKPOLY
 70
     0
  9
$TDCREATE
 40
2456685.000000
  9
$TDUPDATE
 40
2456685.000000
  9
$TDINDWG
 40
0.0
  9
$TDUSRTIMER
 40
0.0
  9
$USRTIMER
 70
     1
  9
$ANGBASE
 50
0.0
  9
$ANGDIR
 70
     0
  9
$PDMODE
 70
     0
  9
$PDSIZE
 40
0.0
  9
$PLINEWID
 40
0.0
  9
$COORDS
 70
     0
  9
$USERI1
 70
     0
  9
$USERI2
 70
     0
  9
$USERI3
 70
     0
  9
$USERI4
 70
     0
  9
$USERI5
 70
     0
  9
$USERR1
 40
0.0
  9
$USERR2
 40
0.0
  9
$USERR3
 40
0.0
  9
$USERR4
 40
0.0
  9
$USERR5
 40
0.0
  0
ENDSEC
  0
SECTION
  2
TABLES
  0
TABLE
  2
LTYPE
 70
     9
  0
LTYPE
  2
CONTINUOUS
 70
    64
  3
Solid line
 72
    65
 73
     0
 40
0.0
  0
LTYPE
  2
DASHED
 70
    64
  3
__ __ __ __ __ __ __ __ __ __ __ __ __ __ __
 72
    65
 73
     2
 40
0.75
 49
0.5
 49
-0.25
  0
LTYPE
  2
HIDDEN
 70
    64
  3
_ _ _ _ _ _ _ _ _ _ _ _ _ _ _ _ _ _ _ _ _ _ _
 72
    65
 73
     2
 40
0.375
 49
0.25
 49
-0.125
  0
LTYPE
  2
DOT
 70
    64
  3
...............................................
 72
    65
 73
     2
 40
0.25
 49
0.0
 49
-0.25
  0
LTYPE
  2
DASHDOT
 70
    64
  3
__ . __ . __ . __ . __ . __ . __ . __ . __ . __
 72
    65
 73
     4
 40
1.0
 49
0.5
 49
-0.25
 49
0.0
 49
-0.25
  0
LTYPE
  2
DIVIDE
 70
    64
  3
__ . . __ . . __ . . __ . . __ . . __ . . __
 72
    65
 73
     6
 40
1.25
 49
0.5
 49
-0.25
 49
0.0
 49
-0.25
 49
0.0
 49
-0.25
  0
LTYPE
  2
CENTER
 70
    64
  3
____ _ ____ _ ____ _ ____ _ ____ _ ____ _ ____ 
 72
    65
 73
     4
 40
2.0
 49
1.25
 49
-0.25
 49
0.25
 49
-0.25
  0
LTYPE
  2
PHANTOM
 70
    64
  3
______  __  __  ______  __  __  ______  __  __ 
 72
    65
 73
     6
 40
2.5
 49
1.25
 49
-0.25
 49
0.25
 49
-0.25
 49
0.25
 49
-0.25
  0
LTYPE
  2
BORDER
 70
    64
  3
__ __ . __ __ . __ __ . __ __ . __ __ . __ __ .
 72
    65
 73
     6
 40
1.75
 49
0.5
 49
-0.25
 49
0.5
 49
-0.25
 49
0.0
 49
-0.25
  0
ENDTAB
  0
TABLE
  2
LAYER
 70
    16
  0
LAYER
  2
CSLAYER1
 70
    64
 62
     7
  6
CONTINUOUS
  0
LAYER
  2
CSLAYER2
 70
    64
 62
     7
  6
CONTINUOUS
  0
LAYER
  2
CSLAYER3
 70
    64
 62
     7
  6
CONTINUOUS
  0
LAYER
  2
CSLAYER4
 70
    64
 62
     7
  6
CONTINUOUS
  0
LAYER
  2
CSLAYER5
 70
    64
 62
     7
  6
CONTINUOUS
  0
LAYER
  2
CSLAYER6
 70
    64
 62
     7
  6
CONTINUOUS
  0
LAYER
  2
CSLAYER7
 70
    64
 62
     7
  6
CONTINUOUS
  0
LAYER
  2
CSLAYER8
 70
    64
 62
     7
  6
CONTINUOUS
  0
LAYER
  2
CSLAYER9
 70
    64
 62
     7
  6
CONTINUOUS
  0
LAYER
  2
CSLAYER10
 70
    64
 62
     7
  6
CONTINUOUS
  0
LAYER
  2
CSLAYER11
 70
    64
 62
     7
  6
CONTINUOUS
  0
LAYER
  2
CSLAYER12
 70
    64
 62
     7
  6
CONTINUOUS
  0
LAYER
  2
CSLAYER13
 70
    64
 62
     7
  6
CONTINUOUS
  0
LAYER
  2
CSLAYER14
 70
    64
 62
     7
  6
CONTINUOUS
  0
LAYER
  2
CSLAYER15
 70
    64
 62
     7
  6
CONTINUOUS
  0
LAYER
  2
CSLAYER16
 70
    64
 62
     7
  6
CONTINUOUS
  0
ENDTAB
  0
TABLE
  2
STYLE
 70
     1
  0
STYLE
  2
EASYDRAW_FONT
 70
     0
 40
1.0
 41
1.0
 50
0.0
 71
     0
 42
1.0
  3
monotxt
  4
bigfont
  0
ENDTAB
  0
TABLE
  2
VIEW
 70
     0
  0
ENDTAB
  0
ENDSEC
  0
SECTION
  2
BLOCKS
  0
BLOCK
  8
CSLAYER1
  2
*D0000
 70
    65
 10
0.0
 20
0.0
 30
0.0
  0
TEXT
  8
CSLAYER1
 62
     3
 10
2122.762451
 20
1816.669922
 40
40.000000
 41
0.843750
  1
500
 50
90.000000
 51
0.000000
  7
EASYDRAW_FONT
 72
     5
 11
2122.762451
 21
1906.669922
  0
LINE
  8
CSLAYER1
  6
CONTINUOUS
 62
     5
 10
2042.762516
 20
1611.670084
 11
2142.762516
 21
1611.670084
  0
LINE
  8
CSLAYER1
  6
CONTINUOUS
 62
     5
 10
2042.762516
 20
2111.670084
 11
2142.762516
 21
2111.670084
  0
LINE
  8
CSLAYER1
  6
CONTINUOUS
 62
     5
 10
2132.762516
 20
1611.670084
 11
2132.762516
 21
2111.670084
  0
LINE
  8
CSLAYER1
  6
CONTINUOUS
 62
     5
 10
2132.762516
 20
1611.670084
 11
2124.997945
 21
1640.647859
  0
LINE
  8
CSLAYER1
  6
CONTINUOUS
 62
     5
 10
2132.762516
 20
1611.670084
 11
2140.527088
 21
1640.647859
  0
LINE
  8
CSLAYER1
  6
CONTINUOUS
 62
     5
 10
2132.762516
 20
2111.670084
 11
2124.997945
 21
2082.692310
  0
LINE
  8
CSLAYER1
  6
CONTINUOUS
 62
     5
 10
2132.762516
 20
2111.670084
 11
2140.527088
 21
2082.692310
  0
ENDBLK
  8
0
  0
BLOCK
  8
CSLAYER1
  2
*D0001
 70
    65
 10
0.0
 20
0.0
 30
0.0
  0
TEXT
  8
CSLAYER1
 62
     3
 10
2122.562500
 20
495.623108
 40
40.000000
 41
0.843750
  1
155
 50
90.000000
 51
0.000000
  7
EASYDRAW_FONT
 72
     5
 11
2122.562500
 21
585.623108
  0
LINE
  8
CSLAYER1
  6
CONTINUOUS
 62
     5
 10
2042.562516
 20
618.123154
 11
2142.562516
 21
618.123154
  0
LINE
  8
CSLAYER1
  6
CONTINUOUS
 62
     5
 10
2132.562516
 20
463.123154
 11
2132.562516
 21
618.123154
  0
LINE
  8
CSLAYER1
  6
CONTINUOUS
 62
     5
 10
2132.562516
 20
463.123154
 11
2124.797945
 21
492.100929
  0
LINE
  8
CSLAYER1
  6
CONTINUOUS
 62
     5
 10
2132.562516
 20
463.123154
 11
2140.327088
 21
492.100929
  0
LINE
  8
CSLAYER1
  6
CONTINUOUS
 62
     5
 10
2132.562516
 20
618.123154
 11
2124.797945
 21
589.145379
  0
LINE
  8
CSLAYER1
  6
CONTINUOUS
 62
     5
 10
2132.562516
 20
618.123154
 11
2140.327088
 21
589.145379
  0
ENDBLK
  8
0
  0
BLOCK
  8
CSLAYER1
  2
*D0002
 70
    65
 10
0.0
 20
0.0
 30
0.0
  0
TEXT
  8
CSLAYER1
 62
     3
 10
2122.562500
 20
883.123108
 40
40.000000
 41
0.843750
  1
605
 50
90.000000
 51
0.000000
  7
EASYDRAW_FONT
 72
     5
 11
2122.562500
 21
973.123108
  0
LINE
  8
CSLAYER1
  6
CONTINUOUS
 62
     5
 10
2132.562516
 20
618.123154
 11
2132.562516
 21
1238.123154
  0
LINE
  8
CSLAYER1
  6
CONTINUOUS
 62
     5
 10
2132.562516
 20
618.123154
 11
2124.797945
 21
647.100929
  0
LINE
  8
CSLAYER1
  6
CONTINUOUS
 62
     5
 10
2132.562516
 20
618.123154
 11
2140.327088
 21
647.100929
  0
LINE
  8
CSLAYER1
  6
CONTINUOUS
 62
     5
 10
2132.562516
 20
1238.123154
 11
2124.797945
 21
1209.145379
  0
LINE
  8
CSLAYER1
  6
CONTINUOUS
 62
     5
 10
2132.562516
 20
1238.123154
 11
2140.327088
 21
1209.145379
  0
ENDBLK
  8
0
  0
BLOCK
  8
CSLAYER1
  2
*D0003
 70
    65
 10
0.0
 20
0.0
 30
0.0
  0
TEXT
  8
CSLAYER1
 62
     3
 10
2222.562500
 20
805.623108
 40
40.000000
 41
0.843750
  1
760
 50
90.000000
 51
0.000000
  7
EASYDRAW_FONT
 72
     5
 11
2222.562500
 21
895.623108
  0
LINE
  8
CSLAYER1
  6
CONTINUOUS
 62
     5
 10
2042.562516
 20
1238.123154
 11
2242.562516
 21
1238.123154
  0
LINE
  8
CSLAYER1
  6
CONTINUOUS
 62
     5
 10
2232.562516
 20
463.123154
 11
2232.562516
 21
1238.123154
  0
LINE
  8
CSLAYER1
  6
CONTINUOUS
 62
     5
 10
2232.562516
 20
463.123154
 11
2224.797945
 21
492.100929
  0
LINE
  8
CSLAYER1
  6
CONTINUOUS
 62
     5
 10
2232.562516
 20
463.123154
 11
2240.327088
 21
492.100929
  0
LINE
  8
CSLAYER1
  6
CONTINUOUS
 62
     5
 10
2232.562516
 20
1238.123154
 11
2224.797945
 21
1209.145379
  0
LINE
  8
CSLAYER1
  6
CONTINUOUS
 62
     5
 10
2232.562516
 20
1238.123154
 11
2240.327088
 21
1209.145379
  0
ENDBLK
  8
0
  0
BLOCK
  8
CSLAYER1
  2
*D0004
 70
    65
 10
0.0
 20
0.0
 30
0.0
  0
TEXT
  8
CSLAYER1
 62
     3
 10
1537.562500
 20
1348.123047
 40
40.000000
 41
0.843750
  1
900
 50
0.000000
 51
0.000000
  7
EASYDRAW_FONT
 72
     5
 11
1627.562500
 21
1348.123047
  0
LINE
  8
CSLAYER1
  6
CONTINUOUS
 62
     5
 10
1132.562516
 20
1248.123154
 11
1132.562516
 21
1348.123154
  0
LINE
  8
CSLAYER1
  6
CONTINUOUS
 62
     5
 10
2032.562516
 20
1248.123154
 11
2032.562516
 21
1348.123154
  0
LINE
  8
CSLAYER1
  6
CONTINUOUS
 62
     5
 10
1132.562516
 20
1338.123154
 11
2032.562516
 21
1338.123154
  0
LINE
  8
CSLAYER1
  6
CONTINUOUS
 62
     5
 10
1132.562516
 20
1338.123154
 11
1161.540291
 21
1345.887726
  0
LINE
  8
CSLAYER1
  6
CONTINUOUS
 62
     5
 10
1132.562516
 20
1338.123154
 11
1161.540291
 21
1330.358583
  0
LINE
  8
CSLAYER1
  6
CONTINUOUS
 62
     5
 10
2032.562516
 20
1338.123154
 11
2003.584741
 21
1345.887726
  0
LINE
  8
CSLAYER1
  6
CONTINUOUS
 62
     5
 10
2032.562516
 20
1338.123154
 11
2003.584741
 21
1330.358583
  0
ENDBLK
  8
0
  0
BLOCK
  8
CSLAYER1
  2
*D0005
 70
    65
 10
0.0
 20
0.0
 30
0.0
  0
TEXT
  8
CSLAYER1
 62
     3
 10
537.762512
 20
373.123108
 40
40.000000
 41
0.843750
  1
500
 50
0.000000
 51
0.000000
  7
EASYDRAW_FONT
 72
     5
 11
627.762512
 21
373.123108
  0
LINE
  8
CSLAYER1
  6
CONTINUOUS
 62
     5
 10
332.762516
 20
453.123154
 11
332.762516
 21
353.123154
  0
LINE
  8
CSLAYER1
  6
CONTINUOUS
 62
     5
 10
832.762516
 20
453.123154
 11
832.762516
 21
353.123154
  0
LINE
  8
CSLAYER1
  6
CONTINUOUS
 62
     5
 10
332.762516
 20
363.123154
 11
832.762516
 21
363.123154
  0
LINE
  8
CSLAYER1
  6
CONTINUOUS
 62
     5
 10
332.762516
 20
363.123154
 11
361.740291
 21
370.887726
  0
LINE
  8
CSLAYER1
  6
CONTINUOUS
 62
     5
 10
332.762516
 20
363.123154
 11
361.740291
 21
355.358583
  0
LINE
  8
CSLAYER1
  6
CONTINUOUS
 62
     5
 10
832.762516
 20
363.123154
 11
803.784741
 21
370.887726
  0
LINE
  8
CSLAYER1
  6
CONTINUOUS
 62
     5
 10
832.762516
 20
363.123154
 11
803.784741
 21
355.358583
  0
ENDBLK
  8
0
  0
BLOCK
  8
CSLAYER1
  2
*D0006
 70
    65
 10
0.0
 20
0.0
 30
0.0
  0
TEXT
  8
CSLAYER1
 62
     3
 10
1537.762573
 20
373.123108
 40
40.000000
 41
0.843750
  1
900
 50
0.000000
 51
0.000000
  7
EASYDRAW_FONT
 72
     5
 11
1627.762573
 21
373.123108
  0
LINE
  8
CSLAYER1
  6
CONTINUOUS
 62
     5
 10
1132.762516
 20
453.123154
 11
1132.762516
 21
353.123154
  0
LINE
  8
CSLAYER1
  6
CONTINUOUS
 62
     5
 10
2032.762516
 20
453.123154
 11
2032.762516
 21
353.123154
  0
LINE
  8
CSLAYER1
  6
CONTINUOUS
 62
     5
 10
1132.762516
 20
363.123154
 11
2032.762516
 21
363.123154
  0
LINE
  8
CSLAYER1
  6
CONTINUOUS
 62
     5
 10
1132.762516
 20
363.123154
 11
1161.740291
 21
370.887726
  0
LINE
  8
CSLAYER1
  6
CONTINUOUS
 62
     5
 10
1132.762516
 20
363.123154
 11
1161.740291
 21
355.358583
  0
LINE
  8
CSLAYER1
  6
CONTINUOUS
 62
     5
 10
2032.762516
 20
363.123154
 11
2003.784741
 21
370.887726
  0
LINE
  8
CSLAYER1
  6
CONTINUOUS
 62
     5
 10
2032.762516
 20
363.123154
 11
2003.784741
 21
355.358583
  0
ENDBLK
  8
0
  0
BLOCK
  8
CSLAYER1
  2
BLKF0000
 70
   64
 10
0.0
 20
0.0
 30
0.0
  0
ARC
  8
CSLAYER1
  6
CONTINUOUS
 62
     5
 10
2781.909508
 20
79.335220
 40
3.549225
 50
6.429109
 51
73.182034
  0
ARC
  8
CSLAYER1
  6
CONTINUOUS
 62
     5
 10
2778.448538
 20
78.176827
 40
6.907754
 50
310.517970
 51
330.092764
  0
ARC
  8
CSLAYER1
  6
CONTINUOUS
 62
     5
 10
2778.387888
 20
78.542345
 40
7.148321
 50
-32.205059
 51
9.585194
  0
ARC
  8
CSLAYER1
  6
CONTINUOUS
 62
     5
 10
2781.680616
 20
75.781346
 40
4.767514
 50
180.000000
 51
218.514150
  0
ARC
  8
CSLAYER1
  6
CONTINUOUS
 62
     5
 10
2780.393895
 20
75.104206
 40
3.348282
 50
222.781148
 51
319.406906
  0
ARC
  8
CSLAYER1
  6
CONTINUOUS
 62
     5
 10
2783.459537
 20
76.194099
 40
6.559434
 50
94.574282
 51
183.607718
  0
LINE
  8
CSLAYER1
  6
CONTINUOUS
 62
     5
 10
2796.903443
 20
71.077266
 11
2796.046407
 21
68.038683
  0
LINE
  8
CSLAYER1
  6
CONTINUOUS
 62
     5
 10
2798.695428
 20
90.944924
 11
2796.591794
 21
93.671857
  0
LINE
  8
CSLAYER1
  6
CONTINUOUS
 62
     5
 10
2796.591794
 20
93.671857
 11
2789.838440
 21
97.429769
  0
LINE
  8
CSLAYER1
  6
CONTINUOUS
 62
     5
 10
2789.838440
 20
97.429769
 11
2782.936412
 21
98.232640
  0
LINE
  8
CSLAYER1
  6
CONTINUOUS
 62
     5
 10
2764.647187
 20
84.853966
 11
2766.793881
 21
89.818197
  0
LINE
  8
CSLAYER1
  6
CONTINUOUS
 62
     5
 10
2766.756884
 20
89.732640
 11
2768.940576
 21
92.367396
  0
LINE
  8
CSLAYER1
  6
CONTINUOUS
 62
     5
 10
2768.940576
 20
92.367396
 11
2772.244998
 21
94.732640
  0
LINE
  8
CSLAYER1
  6
CONTINUOUS
 62
     5
 10
2782.936412
 20
98.232640
 11
2781.418237
 21
97.465795
  0
LINE
  8
CSLAYER1
  6
CONTINUOUS
 62
     5
 10
2781.418237
 20
97.465795
 11
2777.929858
 21
97.465795
  0
LINE
  8
CSLAYER1
  6
CONTINUOUS
 62
     5
 10
2777.929858
 20
97.465795
 11
2774.374396
 21
95.520354
  0
LINE
  8
CSLAYER1
  6
CONTINUOUS
 62
     5
 10
2774.374396
 20
95.520354
 11
2772.244998
 21
94.732640
  0
LINE
  8
CSLAYER1
  6
CONTINUOUS
 62
     5
 10
2764.647187
 20
84.853966
 11
2763.129640
 21
77.305363
  0
LINE
  8
CSLAYER1
  6
CONTINUOUS
 62
     5
 10
2763.129640
 20
77.305363
 11
2762.936412
 21
74.732640
  0
LINE
  8
CSLAYER1
  6
CONTINUOUS
 62
     5
 10
2765.645795
 20
66.892857
 11
2762.936412
 21
72.988969
  0
LINE
  8
CSLAYER1
  6
CONTINUOUS
 62
     5
 10
2762.936412
 20
72.988969
 11
2762.936412
 21
74.732640
  0
LINE
  8
CSLAYER1
  6
CONTINUOUS
 62
     5
 10
2796.046407
 20
68.038683
 11
2794.360620
 21
65.035677
  0
LINE
  8
CSLAYER1
  6
CONTINUOUS
 62
     5
 10
2794.360620
 20
65.035677
 11
2792.936412
 21
63.716966
  0
ARC
  8
CSLAYER1
  6
CONTINUOUS
 62
     5
 10
2780.744468
 20
75.269400
 40
17.266626
 50
208.054813
 51
260.640470
  0
ARC
  8
CSLAYER1
  6
CONTINUOUS
 62
     5
 10
2775.551072
 20
88.011870
 40
29.874611
 50
274.579659
 51
305.587364
  0
ARC
  8
CSLAYER1
  6
CONTINUOUS
 62
     5
 10
2786.523421
 20
82.028147
 40
15.088627
 50
313.467013
 51
331.085078
  0
LINE
  8
CSLAYER1
  6
CONTINUOUS
 62
     5
 10
2801.314754
 20
78.246061
 11
2801.612048
 21
82.028147
  0
LINE
  8
CSLAYER1
  6
CONTINUOUS
 62
     5
 10
2801.612048
 20
82.028147
 11
2800.320051
 21
88.137130
  0
LINE
  8
CSLAYER1
  6
CONTINUOUS
 62
     5
 10
2801.314754
 20
78.246061
 11
2799.731079
 21
74.732640
  0
ARC
  8
CSLAYER1
  6
CONTINUOUS
 62
     5
 10
2786.523421
 20
82.028147
 40
15.088627
 50
23.883193
 51
36.225170
  0
LINE
  8
CSLAYER1
  6
CONTINUOUS
 62
     5
 10
2746.936412
 20
109.732640
 11
2747.936412
 21
110.825284
  0
LINE
  8
CSLAYER1
  6
CONTINUOUS
 62
     5
 10
2746.936412
 20
109.732640
 11
2748.513370
 21
108.287607
  0
LINE
  8
CSLAYER1
  6
CONTINUOUS
 62
     5
 10
2750.052583
 20
106.178315
 11
2750.078851
 21
104.010196
  0
LINE
  8
CSLAYER1
  6
CONTINUOUS
 62
     5
 10
2750.078851
 20
104.010196
 11
2750.286249
 21
103.249737
  0
LINE
  8
CSLAYER1
  6
CONTINUOUS
 62
     5
 10
2750.286249
 20
103.249737
 11
2750.873877
 21
102.523844
  0
LINE
  8
CSLAYER1
  6
CONTINUOUS
 62
     5
 10
2750.873877
 20
102.523844
 11
2751.461504
 21
102.592977
  0
LINE
  8
CSLAYER1
  6
CONTINUOUS
 62
     5
 10
2751.461504
 20
102.592977
 11
2752.083698
 21
102.765808
  0
LINE
  8
CSLAYER1
  6
CONTINUOUS
 62
     5
 10
2752.083698
 20
102.765808
 11
2752.498494
 21
102.592977
  0
LINE
  8
CSLAYER1
  6
CONTINUOUS
 62
     5
 10
2752.498494
 20
102.592977
 11
2753.397219
 21
102.143614
  0
LINE
  8
CSLAYER1
  6
CONTINUOUS
 62
     5
 10
2753.397219
 20
102.143614
 11
2754.173270
 21
101.732640
  0
LINE
  8
CSLAYER1
  6
CONTINUOUS
 62
     5
 10
2754.173270
 20
101.732640
 11
2754.676173
 21
101.763385
  0
LINE
  8
CSLAYER1
  6
CONTINUOUS
 62
     5
 10
2754.676173
 20
101.763385
 11
2757.484045
 21
103.209864
  0
LINE
  8
CSLAYER1
  6
CONTINUOUS
 62
     5
 10
2747.936412
 20
110.825284
 11
2748.269264
 21
112.298991
  0
LINE
  8
CSLAYER1
  6
CONTINUOUS
 62
     5
 10
2748.269264
 20
112.298991
 11
2749.722669
 21
112.449344
  0
LINE
  8
CSLAYER1
  6
CONTINUOUS
 62
     5
 10
2751.216428
 20
115.217802
 11
2752.970601
 21
115.374892
  0
LINE
  8
CSLAYER1
  6
CONTINUOUS
 62
     5
 10
2752.970601
 20
115.374892
 11
2756.505128
 21
116.212706
  0
LINE
  8
CSLAYER1
  6
CONTINUOUS
 62
     5
 10
2756.505128
 20
116.212706
 11
2757.936412
 21
116.544345
  0
LINE
  8
CSLAYER1
  6
CONTINUOUS
 62
     5
 10
2751.216428
 20
115.217802
 11
2749.283537
 21
115.376670
  0
LINE
  8
CSLAYER1
  6
CONTINUOUS
 62
     5
 10
2748.547414
 20
114.507983
 11
2748.640939
 21
114.136822
  0
LINE
  8
CSLAYER1
  6
CONTINUOUS
 62
     5
 10
2748.640939
 20
114.136822
 11
2749.132533
 21
113.599141
  0
LINE
  8
CSLAYER1
  6
CONTINUOUS
 62
     5
 10
2749.132533
 20
113.599141
 11
2749.808475
 21
113.092184
  0
LINE
  8
CSLAYER1
  6
CONTINUOUS
 62
     5
 10
2749.808475
 20
113.092184
 11
2749.931800
 21
112.927751
  0
LINE
  8
CSLAYER1
  6
CONTINUOUS
 62
     5
 10
2748.513370
 20
108.287607
 11
2750.052583
 21
106.178315
  0
ARC
  8
CSLAYER1
  6
CONTINUOUS
 62
     5
 10
2792.923113
 20
-61.926013
 40
180.727463
 50
80.438896
 51
96.353582
  0
ARC
  8
CSLAYER1
  6
CONTINUOUS
 62
     5
 10
2768.024200
 20
83.321887
 40
34.720242
 50
81.866516
 51
106.890578
  0
LINE
  8
CSLAYER1
  6
CONTINUOUS
 62
     5
 10
2827.130674
 20
115.499310
 11
2829.377756
 21
114.477909
  0
LINE
  8
CSLAYER1
  6
CONTINUOUS
 62
     5
 10
2832.952661
 20
112.894737
 11
2829.377756
 21
114.477909
  0
LINE
  8
CSLAYER1
  6
CONTINUOUS
 62
     5
 10
2827.130674
 20
115.499310
 11
2822.936412
 21
116.291881
  0
LINE
  8
CSLAYER1
  6
CONTINUOUS
 62
     5
 10
2832.936412
 20
112.901933
 11
2834.807988
 21
111.333456
  0
LINE
  8
CSLAYER1
  6
CONTINUOUS
 62
     5
 10
2816.179668
 20
113.938783
 11
2817.078943
 21
115.391458
  0
LINE
  8
CSLAYER1
  6
CONTINUOUS
 62
     5
 10
2817.078943
 20
115.391458
 11
2821.754542
 21
114.271949
  0
LINE
  8
CSLAYER1
  6
CONTINUOUS
 62
     5
 10
2821.754542
 20
114.271949
 11
2838.496928
 21
109.732640
  0
LINE
  8
CSLAYER1
  6
CONTINUOUS
 62
     5
 10
2841.436412
 20
109.732640
 11
2834.807988
 21
111.333456
  0
LINE
  8
CSLAYER1
  6
CONTINUOUS
 62
     5
 10
2838.496928
 20
109.732640
 11
2841.436412
 21
109.732640
  0
LINE
  8
CSLAYER1
  6
CONTINUOUS
 62
     5
 10
2782.936412
 20
114.197581
 11
2802.936412
 21
114.732640
  0
LINE
  8
CSLAYER1
  6
CONTINUOUS
 62
     5
 10
2802.936412
 20
114.732640
 11
2816.179668
 21
113.938783
  0
LINE
  8
CSLAYER1
  6
CONTINUOUS
 62
     5
 10
2817.782649
 20
111.878304
 11
2802.936412
 21
113.232640
  0
LINE
  8
CSLAYER1
  6
CONTINUOUS
 62
     5
 10
2802.936412
 20
113.232640
 11
2787.887203
 21
113.641292
  0
LINE
  8
CSLAYER1
  6
CONTINUOUS
 62
     5
 10
2787.936412
 20
113.639956
 11
2782.936412
 21
113.735249
  0
LINE
  8
CSLAYER1
  6
CONTINUOUS
 62
     5
 10
2782.936412
 20
114.197581
 11
2782.936412
 21
113.735249
  0
LINE
  8
CSLAYER1
  6
CONTINUOUS
 62
     5
 10
2840.436412
 20
106.232640
 11
2831.593854
 21
108.543302
  0
LINE
  8
CSLAYER1
  6
CONTINUOUS
 62
     5
 10
2817.782649
 20
111.878304
 11
2827.936412
 21
109.905920
  0
LINE
  8
CSLAYER1
  6
CONTINUOUS
 62
     5
 10
2827.936412
 20
109.905920
 11
2831.593854
 21
108.543302
  0
LINE
  8
CSLAYER1
  6
CONTINUOUS
 62
     5
 10
2840.436412
 20
106.232640
 11
2840.143795
 21
105.393534
  0
LINE
  8
CSLAYER1
  6
CONTINUOUS
 62
     5
 10
2849.936412
 20
100.732640
 11
2849.630385
 21
101.961621
  0
LINE
  8
CSLAYER1
  6
CONTINUOUS
 62
     5
 10
2840.143795
 20
105.393534
 11
2849.630385
 21
101.961621
  0
LINE
  8
CSLAYER1
  6
CONTINUOUS
 62
     5
 10
2786.436412
 20
106.232640
 11
2788.859450
 21
106.232640
  0
LINE
  8
CSLAYER1
  6
CONTINUOUS
 62
     5
 10
2808.936412
 20
106.665135
 11
2808.936412
 21
106.232640
  0
LINE
  8
CSLAYER1
  6
CONTINUOUS
 62
     5
 10
2807.936412
 20
107.199576
 11
2806.225133
 21
107.836755
  0
LINE
  8
CSLAYER1
  6
CONTINUOUS
 62
     5
 10
2806.225133
 20
107.836755
 11
2805.115077
 21
107.887212
  0
LINE
  8
CSLAYER1
  6
CONTINUOUS
 62
     5
 10
2805.115077
 20
107.887212
 11
2804.635735
 21
107.634926
  0
LINE
  8
CSLAYER1
  6
CONTINUOUS
 62
     5
 10
2804.635735
 20
107.634926
 11
2804.534821
 21
107.231270
  0
LINE
  8
CSLAYER1
  6
CONTINUOUS
 62
     5
 10
2804.534821
 20
107.231270
 11
2804.988934
 21
106.928527
  0
LINE
  8
CSLAYER1
  6
CONTINUOUS
 62
     5
 10
2804.988934
 20
106.928527
 11
2806.628790
 21
106.777156
  0
LINE
  8
CSLAYER1
  6
CONTINUOUS
 62
     5
 10
2806.628790
 20
106.777156
 11
2808.936412
 21
106.665135
  0
LINE
  8
CSLAYER1
  6
CONTINUOUS
 62
     5
 10
2849.936412
 20
100.732640
 11
2846.960870
 21
101.919221
  0
LINE
  8
CSLAYER1
  6
CONTINUOUS
 62
     5
 10
2846.960870
 20
101.919221
 11
2836.905180
 21
103.762097
  0
LINE
  8
CSLAYER1
  6
CONTINUOUS
 62
     5
 10
2836.905180
 20
103.762097
 11
2831.879400
 21
104.921892
  0
LINE
  8
CSLAYER1
  6
CONTINUOUS
 62
     5
 10
2809.470633
 20
107.232640
 11
2821.236299
 21
107.232640
  0
LINE
  8
CSLAYER1
  6
CONTINUOUS
 62
     5
 10
2807.936412
 20
107.199576
 11
2808.461072
 21
106.891109
  0
LINE
  8
CSLAYER1
  6
CONTINUOUS
 62
     5
 10
2808.461072
 20
106.891109
 11
2808.757884
 21
106.802065
  0
LINE
  8
CSLAYER1
  6
CONTINUOUS
 62
     5
 10
2808.757884
 20
106.802065
 11
2808.936412
 21
106.827236
  0
LINE
  8
CSLAYER1
  6
CONTINUOUS
 62
     5
 10
2808.936412
 20
106.827236
 11
2809.470633
 21
107.232640
  0
LINE
  8
CSLAYER1
  6
CONTINUOUS
 62
     5
 10
2821.236299
 20
107.232640
 11
2825.686568
 21
106.203814
  0
LINE
  8
CSLAYER1
  6
CONTINUOUS
 62
     5
 10
2825.686568
 20
106.203814
 11
2829.839760
 21
105.038665
  0
LINE
  8
CSLAYER1
  6
CONTINUOUS
 62
     5
 10
2829.839760
 20
105.038665
 11
2831.879400
 21
104.921892
  0
LINE
  8
CSLAYER1
  6
CONTINUOUS
 62
     5
 10
2785.436412
 20
105.232640
 11
2785.436412
 21
104.732640
  0
LINE
  8
CSLAYER1
  6
CONTINUOUS
 62
     5
 10
2782.936412
 20
104.732640
 11
2785.436412
 21
104.732640
  0
ARC
  8
CSLAYER1
  6
CONTINUOUS
 62
     5
 10
2786.436412
 20
105.232640
 40
1.000000
 50
90.000000
 51
180.000000
  0
LINE
  8
CSLAYER1
  6
CONTINUOUS
 62
     5
 10
2788.859450
 20
106.232640
 11
2789.557007
 21
105.660643
  0
LINE
  8
CSLAYER1
  6
CONTINUOUS
 62
     5
 10
2790.159375
 20
105.636683
 11
2791.016972
 21
106.232640
  0
LINE
  8
CSLAYER1
  6
CONTINUOUS
 62
     5
 10
2792.595368
 20
106.232640
 11
2794.262494
 21
105.574564
  0
LINE
  8
CSLAYER1
  6
CONTINUOUS
 62
     5
 10
2794.686203
 20
105.601076
 11
2795.839690
 21
106.232640
  0
LINE
  8
CSLAYER1
  6
CONTINUOUS
 62
     5
 10
2791.016972
 20
106.232640
 11
2792.595368
 21
106.232640
  0
LINE
  8
CSLAYER1
  6
CONTINUOUS
 62
     5
 10
2795.839690
 20
106.232640
 11
2808.936412
 21
106.232640
  0
LINE
  8
CSLAYER1
  6
CONTINUOUS
 62
     5
 10
2761.485395
 20
103.123813
 11
2782.936412
 21
104.732640
  0
LINE
  8
CSLAYER1
  6
CONTINUOUS
 62
     5
 10
2757.484045
 20
103.209864
 11
2761.485395
 21
103.123813
  0
ARC
  8
CSLAYER1
  6
CONTINUOUS
 62
     5
 10
2789.874047
 20
106.047277
 40
0.500000
 50
230.648247
 51
304.796026
  0
ARC
  8
CSLAYER1
  6
CONTINUOUS
 62
     5
 10
2794.446077
 20
106.039642
 40
0.500000
 50
248.459024
 51
298.701829
  0
ARC
  8
CSLAYER1
  6
CONTINUOUS
 62
     5
 10
2749.691800
 20
112.747751
 40
0.300000
 50
-84.093859
 51
36.869898
  0
ARC
  8
CSLAYER1
  6
CONTINUOUS
 62
     5
 10
2749.226196
 20
114.679023
 40
0.700000
 50
85.301319
 51
194.142980
  0
LINE
  8
CSLAYER1
  6
CONTINUOUS
 62
     3
 10
2781.418237
 20
97.465795
 11
2789.528732
 21
97.465795
  0
LINE
  8
CSLAYER1
  6
CONTINUOUS
 62
     3
 10
2775.005720
 20
95.865795
 11
2792.649061
 21
95.865795
  0
LINE
  8
CSLAYER1
  6
CONTINUOUS
 62
     3
 10
2771.592781
 20
94.265795
 11
2795.524426
 21
94.265795
  0
LINE
  8
CSLAYER1
  6
CONTINUOUS
 62
     3
 10
2769.357462
 20
92.665795
 11
2797.367899
 21
92.665795
  0
LINE
  8
CSLAYER1
  6
CONTINUOUS
 62
     3
 10
2767.861806
 20
91.065795
 11
2798.602184
 21
91.065795
  0
LINE
  8
CSLAYER1
  6
CONTINUOUS
 62
     3
 10
2766.641492
 20
89.465795
 11
2799.651561
 21
89.465795
  0
LINE
  8
CSLAYER1
  6
CONTINUOUS
 62
     3
 10
2765.949600
 20
87.865795
 11
2800.377436
 21
87.865795
  0
LINE
  8
CSLAYER1
  6
CONTINUOUS
 62
     3
 10
2765.257708
 20
86.265795
 11
2800.715822
 21
86.265795
  0
LINE
  8
CSLAYER1
  6
CONTINUOUS
 62
     3
 10
2764.609358
 20
84.665795
 11
2801.054208
 21
84.665795
  0
LINE
  8
CSLAYER1
  6
CONTINUOUS
 62
     3
 10
2764.287699
 20
83.065795
 11
2801.392594
 21
83.065795
  0
LINE
  8
CSLAYER1
  6
CONTINUOUS
 62
     3
 10
2763.966040
 20
81.465795
 11
2779.556283
 21
81.465795
  0
LINE
  8
CSLAYER1
  6
CONTINUOUS
 62
     3
 10
2763.644381
 20
79.865795
 11
2778.024022
 21
79.865795
  0
LINE
  8
CSLAYER1
  6
CONTINUOUS
 62
     3
 10
2763.322722
 20
78.265795
 11
2777.235852
 21
78.265795
  0
LINE
  8
CSLAYER1
  6
CONTINUOUS
 62
     3
 10
2763.081604
 20
76.665795
 11
2776.917085
 21
76.665795
  0
LINE
  8
CSLAYER1
  6
CONTINUOUS
 62
     3
 10
2762.961434
 20
75.065795
 11
2776.967106
 21
75.065795
  0
LINE
  8
CSLAYER1
  6
CONTINUOUS
 62
     3
 10
2762.936412
 20
73.465795
 11
2777.513193
 21
73.465795
  0
LINE
  8
CSLAYER1
  6
CONTINUOUS
 62
     3
 10
2763.435600
 20
71.865795
 11
2779.543195
 21
71.865795
  0
LINE
  8
CSLAYER1
  6
CONTINUOUS
 62
     3
 10
2764.146711
 20
70.265795
 11
2796.674567
 21
70.265795
  0
LINE
  8
CSLAYER1
  6
CONTINUOUS
 62
     3
 10
2764.857823
 20
68.665795
 11
2796.223285
 21
68.665795
  0
LINE
  8
CSLAYER1
  6
CONTINUOUS
 62
     3
 10
2765.568934
 20
67.065795
 11
2795.500261
 21
67.065795
  0
LINE
  8
CSLAYER1
  6
CONTINUOUS
 62
     3
 10
2766.530893
 20
65.465795
 11
2794.602074
 21
65.465795
  0
LINE
  8
CSLAYER1
  6
CONTINUOUS
 62
     3
 10
2767.779354
 20
63.865795
 11
2793.097148
 21
63.865795
  0
LINE
  8
CSLAYER1
  6
CONTINUOUS
 62
     3
 10
2769.384774
 20
62.265795
 11
2790.704687
 21
62.265795
  0
LINE
  8
CSLAYER1
  6
CONTINUOUS
 62
     3
 10
2771.531916
 20
60.665795
 11
2787.579564
 21
60.665795
  0
LINE
  8
CSLAYER1
  6
CONTINUOUS
 62
     3
 10
2774.779606
 20
59.065795
 11
2782.941415
 21
59.065795
  0
LINE
  8
CSLAYER1
  6
CONTINUOUS
 62
     3
 10
2784.748107
 20
81.465795
 11
2801.567844
 21
81.465795
  0
LINE
  8
CSLAYER1
  6
CONTINUOUS
 62
     3
 10
2785.418851
 20
79.865795
 11
2801.442074
 21
79.865795
  0
LINE
  8
CSLAYER1
  6
CONTINUOUS
 62
     3
 10
2785.530858
 20
78.265795
 11
2801.316305
 21
78.265795
  0
LINE
  8
CSLAYER1
  6
CONTINUOUS
 62
     3
 10
2785.285501
 20
76.665795
 11
2800.602449
 21
76.665795
  0
LINE
  8
CSLAYER1
  6
CONTINUOUS
 62
     3
 10
2784.633855
 20
75.065795
 11
2799.881249
 21
75.065795
  0
LINE
  8
CSLAYER1
  6
CONTINUOUS
 62
     3
 10
2783.500592
 20
73.465795
 11
2798.947301
 21
73.465795
  0
LINE
  8
CSLAYER1
  6
CONTINUOUS
 62
     3
 10
2781.244595
 20
71.865795
 11
2797.676594
 21
71.865795
  0
TEXT
  8
CSLAYER1
 62
     5
 10
2802.108183
 20
79.476970
 40
4.713448
 41
1.951056
  1
M
 50
0.000000
 51
0.000000
  7
EASYDRAW_FONT
 72
     5
 11
2808.238985
 21
79.476970
  0
TEXT
  8
CSLAYER1
 62
     5
 10
2811.759570
 20
79.418700
 40
4.626621
 41
0.778201
  1
T
 50
0.000000
 51
0.000000
  7
EASYDRAW_FONT
 72
     5
 11
2814.159863
 21
79.418700
  0
TEXT
  8
CSLAYER1
 62
     5
 10
2814.525133
 20
79.453499
 40
4.696183
 41
1.055553
  1
E
 50
0.000000
 51
0.000000
  7
EASYDRAW_FONT
 72
     5
 11
2817.829848
 21
79.453499
  0
TEXT
  8
CSLAYER1
 62
     5
 10
2817.641314
 20
81.069343
 40
0.348283
 41
9.375319
  1
-
 50
0.000000
 51
0.000000
  7
EASYDRAW_FONT
 72
     5
 11
2819.818159
 21
81.069343
  0
TEXT
  8
CSLAYER1
 62
     5
 10
2819.455523
 20
79.422152
 40
4.861659
 41
1.298502
  1
H
 50
0.000000
 51
0.000000
  7
EASYDRAW_FONT
 72
     5
 11
2823.664106
 21
79.422152
  0
TEXT
  8
CSLAYER1
 62
     5
 10
2823.531538
 20
79.452530
 40
4.843139
 41
1.269236
  1
A
 50
0.000000
 51
0.000000
  7
EASYDRAW_FONT
 72
     5
 11
2827.629595
 21
79.452530
  0
TEXT
  8
CSLAYER1
 62
     5
 10
2827.237694
 20
79.411004
 40
4.825362
 41
1.490144
  1
N
 50
0.000000
 51
0.000000
  7
EASYDRAW_FONT
 72
     5
 11
2832.031349
 21
79.411004
  0
TEXT
  8
CSLAYER1
 62
     5
 10
2808.029152
 20
79.388431
 40
4.982325
 41
1.177443
  1
A
 50
0.000000
 51
0.000000
  7
EASYDRAW_FONT
 72
     5
 11
2811.940086
 21
79.388431
  0
TEXT
  8
CSLAYER1
 62
     5
 10
2802.475197
 20
72.393191
 40
4.982325
 41
1.177443
  1
A
 50
0.000000
 51
0.000000
  7
EASYDRAW_FONT
 72
     5
 11
2806.386131
 21
72.393191
  0
TEXT
  8
CSLAYER1
 62
     5
 10
2815.259621
 20
72.421512
 40
4.982325
 41
1.177443
  1
A
 50
0.000000
 51
0.000000
  7
EASYDRAW_FONT
 72
     5
 11
2819.170555
 21
72.421512
  0
TEXT
  8
CSLAYER1
 62
     5
 10
2819.020165
 20
72.478509
 40
4.825362
 41
1.490144
  1
N
 50
0.000000
 51
0.000000
  7
EASYDRAW_FONT
 72
     5
 11
2823.813819
 21
72.478509
  0
TEXT
  8
CSLAYER1
 62
     5
 10
2827.922501
 20
72.486903
 40
4.841775
 41
1.184218
  1
E
 50
0.000000
 51
0.000000
  7
EASYDRAW_FONT
 72
     5
 11
2831.744980
 21
72.486903
  0
TEXT
  8
CSLAYER1
 62
     5
 10
2806.755750
 20
72.391867
 40
4.947865
 41
1.093992
  1
D
 50
0.000000
 51
0.000000
  7
EASYDRAW_FONT
 72
     5
 11
2810.364367
 21
72.391867
  0
TEXT
  8
CSLAYER1
 62
     5
 10
2811.158109
 20
72.386482
 40
4.924210
 41
1.228195
  1
V
 50
0.000000
 51
0.000000
  7
EASYDRAW_FONT
 72
     5
 11
2815.190036
 21
72.386482
  0
TEXT
  8
CSLAYER1
 62
     5
 10
2823.383310
 20
72.407213
 40
5.032894
 41
1.481023
  1
C
 50
0.000000
 51
0.000000
  7
EASYDRAW_FONT
 72
     5
 11
2828.352530
 21
72.407213
  0
LINE
  8
CSLAYER1
  6
CONTINUOUS
 62
     5
 10
2814.013749
 20
83.467612
 11
2813.001687
 21
83.467612
  0
LINE
  8
CSLAYER1
  6
CONTINUOUS
 62
     3
 10
2763.111987
 20
117.692883
 11
2812.909813
 21
117.692883
  0
LINE
  8
CSLAYER1
  6
CONTINUOUS
 62
     3
 10
2755.999623
 20
116.092883
 11
2823.989505
 21
116.092883
  0
LINE
  8
CSLAYER1
  6
CONTINUOUS
 62
     3
 10
2748.551219
 20
114.492883
 11
2793.974529
 21
114.492883
  0
LINE
  8
CSLAYER1
  6
CONTINUOUS
 62
     3
 10
2806.936079
 20
114.492883
 11
2816.522682
 21
114.492883
  0
LINE
  8
CSLAYER1
  6
CONTINUOUS
 62
     3
 10
2820.831816
 20
114.492883
 11
2829.344813
 21
114.492883
  0
LINE
  8
CSLAYER1
  6
CONTINUOUS
 62
     3
 10
2749.954358
 20
112.892883
 11
2806.660827
 21
112.892883
  0
LINE
  8
CSLAYER1
  6
CONTINUOUS
 62
     3
 10
2826.840965
 20
112.892883
 11
2832.947211
 21
112.892883
  0
LINE
  8
CSLAYER1
  6
CONTINUOUS
 62
     3
 10
2748.042024
 20
111.292883
 11
2820.796375
 21
111.292883
  0
LINE
  8
CSLAYER1
  6
CONTINUOUS
 62
     3
 10
2832.742264
 20
111.292883
 11
2834.975986
 21
111.292883
  0
LINE
  8
CSLAYER1
  6
CONTINUOUS
 62
     3
 10
2746.979799
 20
109.692883
 11
2828.508231
 21
109.692883
  0
LINE
  8
CSLAYER1
  6
CONTINUOUS
 62
     3
 10
2748.655466
 20
108.092883
 11
2833.317540
 21
108.092883
  0
LINE
  8
CSLAYER1
  6
CONTINUOUS
 62
     3
 10
2749.823033
 20
106.492883
 11
2808.936412
 21
106.492883
  0
LINE
  8
CSLAYER1
  6
CONTINUOUS
 62
     3
 10
2824.436177
 20
106.492883
 11
2839.440500
 21
106.492883
  0
LINE
  8
CSLAYER1
  6
CONTINUOUS
 62
     3
 10
2750.068157
 20
104.892883
 11
2785.436412
 21
104.892883
  0
LINE
  8
CSLAYER1
  6
CONTINUOUS
 62
     3
 10
2832.005106
 20
104.892883
 11
2841.527709
 21
104.892883
  0
LINE
  8
CSLAYER1
  6
CONTINUOUS
 62
     3
 10
2750.274482
 20
103.292883
 11
2763.739655
 21
103.292883
  0
LINE
  8
CSLAYER1
  6
CONTINUOUS
 62
     3
 10
2839.465455
 20
103.292883
 11
2845.950473
 21
103.292883
  0
LINE
  8
CSLAYER1
  6
CONTINUOUS
 62
     3
 10
2847.528449
 20
101.692883
 11
2849.697303
 21
101.692883
  0
ENDBLK
  8
0
  0
BLOCK
  8
CSLAYER1
  2
BLKF0001
 70
   64
 10
0.0
 20
0.0
 30
0.0
  0
LINE
  8
CSLAYER1
  6
CONTINUOUS
 62
     3
 10
705.762516
 20
1808.170084
 11
705.762516
 21
1746.170084
  0
LINE
  8
CSLAYER1
  6
CONTINUOUS
 62
     3
 10
703.262516
 20
1810.670084
 11
618.262516
 21
1810.670084
  0
LINE
  8
CSLAYER1
  6
CENTER
 62
     5
 10
764.112155
 20
1738.170084
 11
705.762516
 21
1738.170084
  0
LINE
  8
CSLAYER1
  6
CONTINUOUS
 62
     2
 10
703.262516
 20
1754.170084
 11
618.262516
 21
1754.170084
  0
LINE
  8
CSLAYER1
  6
CONTINUOUS
 62
     3
 10
703.262516
 20
1805.670084
 11
703.262516
 21
1760.670084
  0
LINE
  8
CSLAYER1
  6
CONTINUOUS
 62
     3
 10
615.762516
 20
1808.170084
 11
615.762516
 21
1738.170084
  0
LINE
  8
CSLAYER1
  6
CONTINUOUS
 62
     3
 10
700.762516
 20
1808.170084
 11
623.762516
 21
1808.170084
  0
LINE
  8
CSLAYER1
  6
CONTINUOUS
 62
     3
 10
700.762516
 20
1758.170084
 11
623.762516
 21
1758.170084
  0
ARC
  8
CSLAYER1
  6
CONTINUOUS
 62
     3
 10
677.830698
 20
1783.170084
 40
59.568182
 50
155.185163
 51
204.814837
  0
ARC
  8
CSLAYER1
  6
CONTINUOUS
 62
     3
 10
700.762516
 20
1805.670084
 40
2.500000
 50
0.000000
 51
90.000000
  0
ARC
  8
CSLAYER1
  6
CONTINUOUS
 62
     3
 10
700.762516
 20
1760.670084
 40
2.500000
 50
-90.000000
 51
0.000000
  0
ARC
  8
CSLAYER1
  6
CONTINUOUS
 62
     3
 10
703.262516
 20
1808.170084
 40
2.500000
 50
0.000000
 51
90.000000
  0
ARC
  8
CSLAYER1
  6
CONTINUOUS
 62
     3
 10
618.262516
 20
1808.170084
 40
2.500000
 50
90.000000
 51
180.000000
  0
ARC
  8
CSLAYER1
  6
CONTINUOUS
 62
     2
 10
618.262516
 20
1751.670084
 40
2.500000
 50
90.000000
 51
180.000000
  0
ARC
  8
CSLAYER1
  6
CONTINUOUS
 62
     2
 10
703.262516
 20
1751.670084
 40
2.500000
 50
0.000000
 51
90.000000
  0
LINE
  8
CSLAYER1
  6
CONTINUOUS
 62
     3
 10
705.762516
 20
1668.170084
 11
705.762516
 21
1730.170084
  0
LINE
  8
CSLAYER1
  6
CONTINUOUS
 62
     3
 10
703.262516
 20
1665.670084
 11
618.262516
 21
1665.670084
  0
LINE
  8
CSLAYER1
  6
CONTINUOUS
 62
     2
 10
703.262516
 20
1722.170084
 11
618.262516
 21
1722.170084
  0
LINE
  8
CSLAYER1
  6
CONTINUOUS
 62
     3
 10
615.762516
 20
1668.170084
 11
615.762516
 21
1738.170084
  0
ARC
  8
CSLAYER1
  6
CONTINUOUS
 62
     3
 10
703.262516
 20
1668.170084
 40
2.500000
 50
-90.000000
 51
0.000000
  0
ARC
  8
CSLAYER1
  6
CONTINUOUS
 62
     3
 10
618.262516
 20
1668.170084
 40
2.500000
 50
180.000000
 51
270.000000
  0
ARC
  8
CSLAYER1
  6
CONTINUOUS
 62
     2
 10
618.262516
 20
1724.670084
 40
2.500000
 50
180.000000
 51
270.000000
  0
ARC
  8
CSLAYER1
  6
CONTINUOUS
 62
     2
 10
703.262516
 20
1724.670084
 40
2.500000
 50
-90.000000
 51
0.000000
  0
LINE
  8
CSLAYER1
  6
CONTINUOUS
 62
     3
 10
703.262516
 20
1670.670084
 11
703.262516
 21
1715.670084
  0
LINE
  8
CSLAYER1
  6
CONTINUOUS
 62
     3
 10
700.762516
 20
1668.170084
 11
623.762516
 21
1668.170084
  0
LINE
  8
CSLAYER1
  6
CONTINUOUS
 62
     3
 10
700.762516
 20
1718.170084
 11
623.762516
 21
1718.170084
  0
ARC
  8
CSLAYER1
  6
CONTINUOUS
 62
     3
 10
677.830698
 20
1693.170084
 40
59.568182
 50
155.185163
 51
204.814837
  0
ARC
  8
CSLAYER1
  6
CONTINUOUS
 62
     3
 10
700.762516
 20
1670.670084
 40
2.500000
 50
-90.000000
 51
0.000000
  0
ARC
  8
CSLAYER1
  6
CONTINUOUS
 62
     3
 10
700.762516
 20
1715.670084
 40
2.500000
 50
0.000000
 51
90.000000
  0
LINE
  8
CSLAYER1
  6
CONTINUOUS
 62
     3
 10
712.762516
 20
1731.170084
 11
712.762516
 21
1734.670084
  0
LINE
  8
CSLAYER1
  6
CONTINUOUS
 62
     3
 10
764.112155
 20
1734.670084
 11
712.762516
 21
1734.670084
  0
LINE
  8
CSLAYER1
  6
CONTINUOUS
 62
     3
 10
711.762516
 20
1730.170084
 11
705.762516
 21
1730.170084
  0
LINE
  8
CSLAYER1
  6
CONTINUOUS
 62
     3
 10
711.762516
 20
1746.170084
 11
705.762516
 21
1746.170084
  0
LINE
  8
CSLAYER1
  6
CONTINUOUS
 62
     3
 10
764.112155
 20
1741.670084
 11
712.762516
 21
1741.670084
  0
ARC
  8
CSLAYER1
  6
CONTINUOUS
 62
     3
 10
711.762516
 20
1745.170084
 40
1.000000
 50
0.000000
 51
90.000000
  0
ARC
  8
CSLAYER1
  6
CONTINUOUS
 62
     3
 10
711.762516
 20
1731.170084
 40
1.000000
 50
-90.000000
 51
0.000000
  0
LINE
  8
CSLAYER1
  6
CONTINUOUS
 62
     3
 10
712.762516
 20
1741.670084
 11
712.762516
 21
1745.170084
  0
LINE
  8
CSLAYER1
  6
CONTINUOUS
 62
     2
 10
712.762516
 20
1734.670084
 11
712.762516
 21
1741.670084
  0
LINE
  8
CSLAYER1
  6
CONTINUOUS
 62
     2
 10
705.762516
 20
1746.170084
 11
705.762516
 21
1738.170084
  0
LINE
  8
CSLAYER1
  6
CONTINUOUS
 62
     2
 10
705.762516
 20
1730.170084
 11
705.762516
 21
1738.170084
  0
LINE
  8
CSLAYER1
  6
CONTINUOUS
 62
     2
 10
686.269505
 20
1750.332744
 11
695.404505
 21
1750.332744
  0
LINE
  8
CSLAYER1
  6
CONTINUOUS
 62
     2
 10
686.269505
 20
1726.707744
 11
695.404505
 21
1726.707744
  0
LINE
  8
CSLAYER1
  6
CONTINUOUS
 62
     2
 10
696.664505
 20
1749.072744
 11
696.664505
 21
1727.967744
  0
LINE
  8
CSLAYER1
  6
CONTINUOUS
 62
     2
 10
685.009505
 20
1749.072744
 11
685.009505
 21
1727.967744
  0
LINE
  8
CSLAYER1
  6
CONTINUOUS
 62
     2
 10
686.899505
 20
1728.597744
 11
694.932005
 21
1728.597744
  0
LINE
  8
CSLAYER1
  6
CONTINUOUS
 62
     2
 10
686.899505
 20
1731.747744
 11
687.844505
 21
1731.747744
  0
LINE
  8
CSLAYER1
  6
CONTINUOUS
 62
     2
 10
686.899505
 20
1740.410244
 11
687.844505
 21
1740.410244
  0
LINE
  8
CSLAYER1
  6
CONTINUOUS
 62
     2
 10
686.899505
 20
1744.977744
 11
691.939505
 21
1744.977744
  0
LINE
  8
CSLAYER1
  6
CONTINUOUS
 62
     2
 10
685.797005
 20
1743.875244
 11
685.797005
 21
1741.512744
  0
LINE
  8
CSLAYER1
  6
CONTINUOUS
 62
     2
 10
693.042005
 20
1743.875244
 11
693.042005
 21
1741.512744
  0
LINE
  8
CSLAYER1
  6
CONTINUOUS
 62
     2
 10
696.034505
 20
1730.645244
 11
696.034505
 21
1729.700244
  0
LINE
  8
CSLAYER1
  6
CONTINUOUS
 62
     2
 10
688.789505
 20
1739.465244
 11
688.789505
 21
1732.692744
  0
LINE
  8
CSLAYER1
  6
CONTINUOUS
 62
     2
 10
689.577005
 20
1739.465244
 11
689.577005
 21
1732.692744
  0
ARC
  8
CSLAYER1
  6
CONTINUOUS
 62
     2
 10
686.899505
 20
1743.875244
 40
1.102500
 50
90.000000
 51
180.000000
  0
ARC
  8
CSLAYER1
  6
CONTINUOUS
 62
     2
 10
691.939505
 20
1743.875244
 40
1.102500
 50
0.000000
 51
90.000000
  0
ARC
  8
CSLAYER1
  6
CONTINUOUS
 62
     2
 10
691.939505
 20
1741.512744
 40
1.102500
 50
-90.000000
 51
0.000000
  0
ARC
  8
CSLAYER1
  6
CONTINUOUS
 62
     2
 10
686.899505
 20
1741.512744
 40
1.102500
 50
180.000000
 51
270.000000
  0
ARC
  8
CSLAYER1
  6
CONTINUOUS
 62
     2
 10
694.932005
 20
1730.645244
 40
1.102500
 50
0.000000
 51
90.000000
  0
ARC
  8
CSLAYER1
  6
CONTINUOUS
 62
     2
 10
694.932005
 20
1729.700244
 40
1.102500
 50
-90.000000
 51
0.000000
  0
ARC
  8
CSLAYER1
  6
CONTINUOUS
 62
     2
 10
686.899505
 20
1729.700244
 40
1.102500
 50
180.000000
 51
270.000000
  0
ARC
  8
CSLAYER1
  6
CONTINUOUS
 62
     2
 10
686.899505
 20
1730.645244
 40
1.102500
 50
90.000000
 51
180.000000
  0
LINE
  8
CSLAYER1
  6
CONTINUOUS
 62
     2
 10
690.522005
 20
1740.410244
 11
691.939505
 21
1740.410244
  0
LINE
  8
CSLAYER1
  6
CONTINUOUS
 62
     2
 10
690.522005
 20
1731.747744
 11
694.932005
 21
1731.747744
  0
ARC
  8
CSLAYER1
  6
CONTINUOUS
 62
     2
 10
687.844505
 20
1739.465244
 40
0.945000
 50
0.000000
 51
90.000000
  0
ARC
  8
CSLAYER1
  6
CONTINUOUS
 62
     2
 10
690.522005
 20
1739.465244
 40
0.945000
 50
90.000000
 51
180.000000
  0
ARC
  8
CSLAYER1
  6
CONTINUOUS
 62
     2
 10
690.522005
 20
1732.692744
 40
0.945000
 50
180.000000
 51
270.000000
  0
ARC
  8
CSLAYER1
  6
CONTINUOUS
 62
     2
 10
686.269505
 20
1749.072744
 40
1.260000
 50
90.000000
 51
180.000000
  0
ARC
  8
CSLAYER1
  6
CONTINUOUS
 62
     2
 10
695.404505
 20
1749.072744
 40
1.260000
 50
0.000000
 51
90.000000
  0
ARC
  8
CSLAYER1
  6
CONTINUOUS
 62
     2
 10
695.404505
 20
1727.967744
 40
1.260000
 50
-90.000000
 51
0.000000
  0
ARC
  8
CSLAYER1
  6
CONTINUOUS
 62
     2
 10
686.269505
 20
1727.967744
 40
1.260000
 50
180.000000
 51
270.000000
  0
ARC
  8
CSLAYER1
  6
CONTINUOUS
 62
     2
 10
687.844505
 20
1732.692744
 40
0.945000
 50
-90.000000
 51
0.000000
  0
LINE
  8
CSLAYER1
  6
CONTINUOUS
 62
     2
 10
685.797005
 20
1730.645244
 11
685.797005
 21
1729.700244
  0
CIRCLE
  8
CSLAYER1
  6
CONTINUOUS
 62
     2
 10
671.262516
 20
1788.170084
 40
2.500000
  0
CIRCLE
  8
CSLAYER1
  6
CONTINUOUS
 62
     2
 10
671.262516
 20
1798.170084
 40
2.500000
  0
CIRCLE
  8
CSLAYER1
  6
CONTINUOUS
 62
     2
 10
661.262516
 20
1798.170084
 40
2.500000
  0
CIRCLE
  8
CSLAYER1
  6
CONTINUOUS
 62
     2
 10
661.262516
 20
1788.170084
 40
2.500000
  0
CIRCLE
  8
CSLAYER1
  6
CONTINUOUS
 62
     2
 10
651.262516
 20
1788.170084
 40
2.500000
  0
CIRCLE
  8
CSLAYER1
  6
CONTINUOUS
 62
     2
 10
651.262516
 20
1798.170084
 40
2.500000
  0
CIRCLE
  8
CSLAYER1
  6
CONTINUOUS
 62
     2
 10
641.262516
 20
1798.170084
 40
2.500000
  0
CIRCLE
  8
CSLAYER1
  6
CONTINUOUS
 62
     2
 10
641.262516
 20
1788.170084
 40
2.500000
  0
CIRCLE
  8
CSLAYER1
  6
CONTINUOUS
 62
     2
 10
631.262516
 20
1788.170084
 40
2.500000
  0
CIRCLE
  8
CSLAYER1
  6
CONTINUOUS
 62
     2
 10
631.262516
 20
1798.170084
 40
2.500000
  0
CIRCLE
  8
CSLAYER1
  6
CONTINUOUS
 62
     2
 10
671.262516
 20
1778.170084
 40
2.500000
  0
CIRCLE
  8
CSLAYER1
  6
CONTINUOUS
 62
     2
 10
671.262516
 20
1768.170084
 40
2.500000
  0
CIRCLE
  8
CSLAYER1
  6
CONTINUOUS
 62
     2
 10
661.262516
 20
1768.170084
 40
2.500000
  0
CIRCLE
  8
CSLAYER1
  6
CONTINUOUS
 62
     2
 10
661.262516
 20
1778.170084
 40
2.500000
  0
CIRCLE
  8
CSLAYER1
  6
CONTINUOUS
 62
     2
 10
651.262516
 20
1778.170084
 40
2.500000
  0
CIRCLE
  8
CSLAYER1
  6
CONTINUOUS
 62
     2
 10
651.262516
 20
1768.170084
 40
2.500000
  0
CIRCLE
  8
CSLAYER1
  6
CONTINUOUS
 62
     2
 10
641.262516
 20
1768.170084
 40
2.500000
  0
CIRCLE
  8
CSLAYER1
  6
CONTINUOUS
 62
     2
 10
641.262516
 20
1778.170084
 40
2.500000
  0
CIRCLE
  8
CSLAYER1
  6
CONTINUOUS
 62
     2
 10
631.262516
 20
1778.170084
 40
2.500000
  0
CIRCLE
  8
CSLAYER1
  6
CONTINUOUS
 62
     2
 10
631.262516
 20
1768.170084
 40
2.500000
  0
CIRCLE
  8
CSLAYER1
  6
CONTINUOUS
 62
     2
 10
671.262516
 20
1688.170084
 40
2.500000
  0
CIRCLE
  8
CSLAYER1
  6
CONTINUOUS
 62
     2
 10
671.262516
 20
1678.170084
 40
2.500000
  0
CIRCLE
  8
CSLAYER1
  6
CONTINUOUS
 62
     2
 10
661.262516
 20
1678.170084
 40
2.500000
  0
CIRCLE
  8
CSLAYER1
  6
CONTINUOUS
 62
     2
 10
661.262516
 20
1688.170084
 40
2.500000
  0
CIRCLE
  8
CSLAYER1
  6
CONTINUOUS
 62
     2
 10
651.262516
 20
1688.170084
 40
2.500000
  0
CIRCLE
  8
CSLAYER1
  6
CONTINUOUS
 62
     2
 10
651.262516
 20
1678.170084
 40
2.500000
  0
CIRCLE
  8
CSLAYER1
  6
CONTINUOUS
 62
     2
 10
641.262516
 20
1678.170084
 40
2.500000
  0
CIRCLE
  8
CSLAYER1
  6
CONTINUOUS
 62
     2
 10
641.262516
 20
1688.170084
 40
2.500000
  0
CIRCLE
  8
CSLAYER1
  6
CONTINUOUS
 62
     2
 10
631.262516
 20
1688.170084
 40
2.500000
  0
CIRCLE
  8
CSLAYER1
  6
CONTINUOUS
 62
     2
 10
631.262516
 20
1678.170084
 40
2.500000
  0
CIRCLE
  8
CSLAYER1
  6
CONTINUOUS
 62
     2
 10
671.262516
 20
1698.170084
 40
2.500000
  0
CIRCLE
  8
CSLAYER1
  6
CONTINUOUS
 62
     2
 10
671.262516
 20
1708.170084
 40
2.500000
  0
CIRCLE
  8
CSLAYER1
  6
CONTINUOUS
 62
     2
 10
661.262516
 20
1708.170084
 40
2.500000
  0
CIRCLE
  8
CSLAYER1
  6
CONTINUOUS
 62
     2
 10
661.262516
 20
1698.170084
 40
2.500000
  0
CIRCLE
  8
CSLAYER1
  6
CONTINUOUS
 62
     2
 10
651.262516
 20
1698.170084
 40
2.500000
  0
CIRCLE
  8
CSLAYER1
  6
CONTINUOUS
 62
     2
 10
651.262516
 20
1708.170084
 40
2.500000
  0
CIRCLE
  8
CSLAYER1
  6
CONTINUOUS
 62
     2
 10
641.262516
 20
1708.170084
 40
2.500000
  0
CIRCLE
  8
CSLAYER1
  6
CONTINUOUS
 62
     2
 10
641.262516
 20
1698.170084
 40
2.500000
  0
CIRCLE
  8
CSLAYER1
  6
CONTINUOUS
 62
     2
 10
631.262516
 20
1698.170084
 40
2.500000
  0
CIRCLE
  8
CSLAYER1
  6
CONTINUOUS
 62
     2
 10
631.262516
 20
1708.170084
 40
2.500000
  0
LINE
  8
CSLAYER1
  6
CONTINUOUS
 62
     2
 10
697.262516
 20
1710.670084
 11
697.262516
 21
1675.670084
  0
LINE
  8
CSLAYER1
  6
CONTINUOUS
 62
     2
 10
681.262516
 20
1710.670084
 11
681.262516
 21
1675.670084
  0
LINE
  8
CSLAYER1
  6
CONTINUOUS
 62
     2
 10
695.762516
 20
1712.170084
 11
682.762516
 21
1712.170084
  0
LINE
  8
CSLAYER1
  6
CONTINUOUS
 62
     2
 10
696.262516
 20
1710.670084
 11
696.262516
 21
1675.670084
  0
LINE
  8
CSLAYER1
  6
CONTINUOUS
 62
     2
 10
682.262516
 20
1710.670084
 11
682.262516
 21
1675.670084
  0
LINE
  8
CSLAYER1
  6
CONTINUOUS
 62
     2
 10
695.762516
 20
1711.170084
 11
682.762516
 21
1711.170084
  0
LINE
  8
CSLAYER1
  6
CONTINUOUS
 62
     2
 10
695.762516
 20
1674.170084
 11
682.762516
 21
1674.170084
  0
LINE
  8
CSLAYER1
  6
CONTINUOUS
 62
     2
 10
695.762516
 20
1675.170084
 11
682.762516
 21
1675.170084
  0
ARC
  8
CSLAYER1
  6
CONTINUOUS
 62
     2
 10
695.762516
 20
1710.670084
 40
0.500000
 50
0.000000
 51
90.000000
  0
ARC
  8
CSLAYER1
  6
CONTINUOUS
 62
     2
 10
682.762516
 20
1710.670084
 40
0.500000
 50
90.000000
 51
180.000000
  0
ARC
  8
CSLAYER1
  6
CONTINUOUS
 62
     2
 10
695.762516
 20
1675.670084
 40
0.500000
 50
-90.000000
 51
0.000000
  0
ARC
  8
CSLAYER1
  6
CONTINUOUS
 62
     2
 10
682.762516
 20
1675.670084
 40
0.500000
 50
180.000000
 51
270.000000
  0
ARC
  8
CSLAYER1
  6
CONTINUOUS
 62
     2
 10
695.762516
 20
1710.670084
 40
1.500000
 50
0.000000
 51
90.000000
  0
ARC
  8
CSLAYER1
  6
CONTINUOUS
 62
     2
 10
682.762516
 20
1710.670084
 40
1.500000
 50
90.000000
 51
180.000000
  0
ARC
  8
CSLAYER1
  6
CONTINUOUS
 62
     2
 10
695.762516
 20
1675.670084
 40
1.500000
 50
-90.000000
 51
0.000000
  0
ARC
  8
CSLAYER1
  6
CONTINUOUS
 62
     2
 10
682.762516
 20
1675.670084
 40
1.500000
 50
180.000000
 51
270.000000
  0
LINE
  8
CSLAYER1
  6
CONTINUOUS
 62
     2
 10
692.262516
 20
1702.170084
 11
692.262516
 21
1684.170084
  0
LINE
  8
CSLAYER1
  6
CONTINUOUS
 62
     2
 10
695.340588
 20
1693.170084
 11
692.262516
 21
1684.170084
  0
LINE
  8
CSLAYER1
  6
CONTINUOUS
 62
     2
 10
695.340588
 20
1693.170084
 11
692.262516
 21
1702.170084
  0
TEXT
  8
CSLAYER1
 62
     2
 10
683.968741
 20
1702.150200
 40
7.066058
 41
1.574983
  1
UP
 50
270.000000
 51
0.000000
  7
EASYDRAW_FONT
 72
     5
 11
683.968741
 21
1683.601997
  0
LINE
  8
CSLAYER1
  6
CONTINUOUS
 62
     2
 10
697.262516
 20
1765.670084
 11
697.262516
 21
1800.670084
  0
LINE
  8
CSLAYER1
  6
CONTINUOUS
 62
     2
 10
681.262516
 20
1765.670084
 11
681.262516
 21
1800.670084
  0
LINE
  8
CSLAYER1
  6
CONTINUOUS
 62
     2
 10
695.762516
 20
1764.170084
 11
682.762516
 21
1764.170084
  0
LINE
  8
CSLAYER1
  6
CONTINUOUS
 62
     2
 10
696.262516
 20
1765.670084
 11
696.262516
 21
1800.670084
  0
LINE
  8
CSLAYER1
  6
CONTINUOUS
 62
     2
 10
682.262516
 20
1765.670084
 11
682.262516
 21
1800.670084
  0
LINE
  8
CSLAYER1
  6
CONTINUOUS
 62
     2
 10
695.762516
 20
1765.170084
 11
682.762516
 21
1765.170084
  0
LINE
  8
CSLAYER1
  6
CONTINUOUS
 62
     2
 10
695.762516
 20
1802.170084
 11
682.762516
 21
1802.170084
  0
LINE
  8
CSLAYER1
  6
CONTINUOUS
 62
     2
 10
695.762516
 20
1801.170084
 11
682.762516
 21
1801.170084
  0
ARC
  8
CSLAYER1
  6
CONTINUOUS
 62
     2
 10
695.762516
 20
1765.670084
 40
0.500000
 50
-90.000000
 51
0.000000
  0
ARC
  8
CSLAYER1
  6
CONTINUOUS
 62
     2
 10
682.762516
 20
1765.670084
 40
0.500000
 50
180.000000
 51
270.000000
  0
ARC
  8
CSLAYER1
  6
CONTINUOUS
 62
     2
 10
695.762516
 20
1800.670084
 40
0.500000
 50
0.000000
 51
90.000000
  0
ARC
  8
CSLAYER1
  6
CONTINUOUS
 62
     2
 10
682.762516
 20
1800.670084
 40
0.500000
 50
90.000000
 51
180.000000
  0
ARC
  8
CSLAYER1
  6
CONTINUOUS
 62
     2
 10
695.762516
 20
1765.670084
 40
1.500000
 50
-90.000000
 51
0.000000
  0
ARC
  8
CSLAYER1
  6
CONTINUOUS
 62
     2
 10
682.762516
 20
1765.670084
 40
1.500000
 50
180.000000
 51
270.000000
  0
ARC
  8
CSLAYER1
  6
CONTINUOUS
 62
     2
 10
695.762516
 20
1800.670084
 40
1.500000
 50
0.000000
 51
90.000000
  0
ARC
  8
CSLAYER1
  6
CONTINUOUS
 62
     2
 10
682.762516
 20
1800.670084
 40
1.500000
 50
90.000000
 51
180.000000
  0
LINE
  8
CSLAYER1
  6
CONTINUOUS
 62
     2
 10
686.789586
 20
1774.170084
 11
686.789586
 21
1792.170084
  0
LINE
  8
CSLAYER1
  6
CONTINUOUS
 62
     2
 10
683.711514
 20
1783.170084
 11
686.789586
 21
1792.170084
  0
LINE
  8
CSLAYER1
  6
CONTINUOUS
 62
     2
 10
683.711514
 20
1783.170084
 11
686.789586
 21
1774.170084
  0
TEXT
  8
CSLAYER1
 62
     2
 10
688.399582
 20
1797.867769
 40
6.383575
 41
1.255870
  1
DOWN
 50
270.000000
 51
0.000000
  7
EASYDRAW_FONT
 72
     5
 11
688.399582
 21
1768.472319
  0
ENDBLK
  8
0
  0
BLOCK
  8
CSLAYER1
  2
BLKF0002
 70
   64
 10
0.0
 20
0.0
 30
0.0
  0
LINE
  8
CSLAYER1
  6
CONTINUOUS
 62
     5
 10
796.762516
 20
549.121914
 11
796.743490
 21
549.371866
  0
LINE
  8
CSLAYER1
  6
CONTINUOUS
 62
     5
 10
796.743490
 20
549.371866
 11
796.686555
 21
549.619916
  0
LINE
  8
CSLAYER1
  6
CONTINUOUS
 62
     5
 10
796.686555
 20
549.619916
 11
796.592145
 21
549.864176
  0
LINE
  8
CSLAYER1
  6
CONTINUOUS
 62
     5
 10
796.592145
 20
549.864176
 11
796.460979
 21
550.102787
  0
LINE
  8
CSLAYER1
  6
CONTINUOUS
 62
     5
 10
796.460979
 20
550.102787
 11
796.294055
 21
550.333933
  0
LINE
  8
CSLAYER1
  6
CONTINUOUS
 62
     5
 10
796.294055
 20
550.333933
 11
796.092643
 21
550.555855
  0
LINE
  8
CSLAYER1
  6
CONTINUOUS
 62
     5
 10
796.092643
 20
550.555855
 11
795.858276
 21
550.766863
  0
LINE
  8
CSLAYER1
  6
CONTINUOUS
 62
     5
 10
795.858276
 20
550.766863
 11
795.592738
 21
550.965353
  0
LINE
  8
CSLAYER1
  6
CONTINUOUS
 62
     5
 10
795.592738
 20
550.965353
 11
795.298050
 21
551.149813
  0
LINE
  8
CSLAYER1
  6
CONTINUOUS
 62
     5
 10
795.298050
 20
551.149813
 11
794.976454
 21
551.318839
  0
LINE
  8
CSLAYER1
  6
CONTINUOUS
 62
     5
 10
794.976454
 20
551.318839
 11
794.630398
 21
551.471145
  0
LINE
  8
CSLAYER1
  6
CONTINUOUS
 62
     5
 10
794.630398
 20
551.471145
 11
794.262516
 21
551.605572
  0
LINE
  8
CSLAYER1
  6
CONTINUOUS
 62
     5
 10
794.262516
 20
551.605572
 11
793.875608
 21
551.721098
  0
LINE
  8
CSLAYER1
  6
CONTINUOUS
 62
     5
 10
793.875608
 20
551.721098
 11
793.472617
 21
551.816841
  0
LINE
  8
CSLAYER1
  6
CONTINUOUS
 62
     5
 10
793.472617
 20
551.816841
 11
793.056611
 21
551.892075
  0
LINE
  8
CSLAYER1
  6
CONTINUOUS
 62
     5
 10
793.056611
 20
551.892075
 11
792.630757
 21
551.946226
  0
LINE
  8
CSLAYER1
  6
CONTINUOUS
 62
     5
 10
792.630757
 20
551.946226
 11
792.198295
 21
551.978883
  0
LINE
  8
CSLAYER1
  6
CONTINUOUS
 62
     5
 10
792.198295
 20
551.978883
 11
791.762516
 21
551.989796
  0
LINE
  8
CSLAYER1
  6
CONTINUOUS
 62
     5
 10
791.762516
 20
551.989796
 11
791.326738
 21
551.978883
  0
LINE
  8
CSLAYER1
  6
CONTINUOUS
 62
     5
 10
791.326738
 20
551.978883
 11
790.894275
 21
551.946226
  0
LINE
  8
CSLAYER1
  6
CONTINUOUS
 62
     5
 10
790.894275
 20
551.946226
 11
790.468421
 21
551.892075
  0
LINE
  8
CSLAYER1
  6
CONTINUOUS
 62
     5
 10
790.468421
 20
551.892075
 11
790.052416
 21
551.816841
  0
LINE
  8
CSLAYER1
  6
CONTINUOUS
 62
     5
 10
790.052416
 20
551.816841
 11
789.649425
 21
551.721098
  0
LINE
  8
CSLAYER1
  6
CONTINUOUS
 62
     5
 10
789.649425
 20
551.721098
 11
789.262516
 21
551.605572
  0
LINE
  8
CSLAYER1
  6
CONTINUOUS
 62
     5
 10
789.262516
 20
551.605572
 11
788.894634
 21
551.471145
  0
LINE
  8
CSLAYER1
  6
CONTINUOUS
 62
     5
 10
788.894634
 20
551.471145
 11
788.548578
 21
551.318839
  0
LINE
  8
CSLAYER1
  6
CONTINUOUS
 62
     5
 10
788.548578
 20
551.318839
 11
788.226982
 21
551.149813
  0
LINE
  8
CSLAYER1
  6
CONTINUOUS
 62
     5
 10
788.226982
 20
551.149813
 11
787.932294
 21
550.965353
  0
LINE
  8
CSLAYER1
  6
CONTINUOUS
 62
     5
 10
787.932294
 20
550.965353
 11
787.666756
 21
550.766863
  0
LINE
  8
CSLAYER1
  6
CONTINUOUS
 62
     5
 10
787.666756
 20
550.766863
 11
787.432389
 21
550.555855
  0
LINE
  8
CSLAYER1
  6
CONTINUOUS
 62
     5
 10
787.432389
 20
550.555855
 11
787.230977
 21
550.333933
  0
LINE
  8
CSLAYER1
  6
CONTINUOUS
 62
     5
 10
787.230977
 20
550.333933
 11
787.064053
 21
550.102787
  0
LINE
  8
CSLAYER1
  6
CONTINUOUS
 62
     5
 10
787.064053
 20
550.102787
 11
786.932887
 21
549.864176
  0
LINE
  8
CSLAYER1
  6
CONTINUOUS
 62
     5
 10
786.932887
 20
549.864176
 11
786.838477
 21
549.619916
  0
LINE
  8
CSLAYER1
  6
CONTINUOUS
 62
     5
 10
786.838477
 20
549.619916
 11
786.781543
 21
549.371866
  0
LINE
  8
CSLAYER1
  6
CONTINUOUS
 62
     5
 10
786.781543
 20
549.371866
 11
786.762516
 21
549.121914
  0
LINE
  8
CSLAYER1
  6
CONTINUOUS
 62
     5
 10
786.762516
 20
549.121914
 11
786.781543
 21
548.871961
  0
LINE
  8
CSLAYER1
  6
CONTINUOUS
 62
     5
 10
786.781543
 20
548.871961
 11
786.838477
 21
548.623911
  0
LINE
  8
CSLAYER1
  6
CONTINUOUS
 62
     5
 10
786.838477
 20
548.623911
 11
786.932887
 21
548.379651
  0
LINE
  8
CSLAYER1
  6
CONTINUOUS
 62
     5
 10
786.932887
 20
548.379651
 11
787.064053
 21
548.141040
  0
LINE
  8
CSLAYER1
  6
CONTINUOUS
 62
     5
 10
787.064053
 20
548.141040
 11
787.230977
 21
547.909894
  0
LINE
  8
CSLAYER1
  6
CONTINUOUS
 62
     5
 10
787.230977
 20
547.909894
 11
787.432389
 21
547.687972
  0
LINE
  8
CSLAYER1
  6
CONTINUOUS
 62
     5
 10
787.432389
 20
547.687972
 11
787.666756
 21
547.476964
  0
LINE
  8
CSLAYER1
  6
CONTINUOUS
 62
     5
 10
787.666756
 20
547.476964
 11
787.932294
 21
547.278474
  0
LINE
  8
CSLAYER1
  6
CONTINUOUS
 62
     5
 10
787.932294
 20
547.278474
 11
788.226982
 21
547.094015
  0
LINE
  8
CSLAYER1
  6
CONTINUOUS
 62
     5
 10
788.226982
 20
547.094015
 11
788.548578
 21
546.924988
  0
LINE
  8
CSLAYER1
  6
CONTINUOUS
 62
     5
 10
788.548578
 20
546.924988
 11
788.894634
 21
546.772682
  0
LINE
  8
CSLAYER1
  6
CONTINUOUS
 62
     5
 10
788.894634
 20
546.772682
 11
789.262516
 21
546.638255
  0
LINE
  8
CSLAYER1
  6
CONTINUOUS
 62
     5
 10
789.262516
 20
546.638255
 11
789.649425
 21
546.522730
  0
LINE
  8
CSLAYER1
  6
CONTINUOUS
 62
     5
 10
789.649425
 20
546.522730
 11
790.052416
 21
546.426986
  0
LINE
  8
CSLAYER1
  6
CONTINUOUS
 62
     5
 10
790.052416
 20
546.426986
 11
790.468421
 21
546.351752
  0
LINE
  8
CSLAYER1
  6
CONTINUOUS
 62
     5
 10
790.468421
 20
546.351752
 11
790.894275
 21
546.297601
  0
LINE
  8
CSLAYER1
  6
CONTINUOUS
 62
     5
 10
790.894275
 20
546.297601
 11
791.326738
 21
546.264945
  0
LINE
  8
CSLAYER1
  6
CONTINUOUS
 62
     5
 10
791.326738
 20
546.264945
 11
791.762516
 21
546.254031
  0
LINE
  8
CSLAYER1
  6
CONTINUOUS
 62
     5
 10
791.762516
 20
546.254031
 11
792.198295
 21
546.264945
  0
LINE
  8
CSLAYER1
  6
CONTINUOUS
 62
     5
 10
792.198295
 20
546.264945
 11
792.630757
 21
546.297601
  0
LINE
  8
CSLAYER1
  6
CONTINUOUS
 62
     5
 10
792.630757
 20
546.297601
 11
793.056611
 21
546.351752
  0
LINE
  8
CSLAYER1
  6
CONTINUOUS
 62
     5
 10
793.056611
 20
546.351752
 11
793.472617
 21
546.426986
  0
LINE
  8
CSLAYER1
  6
CONTINUOUS
 62
     5
 10
793.472617
 20
546.426986
 11
793.875608
 21
546.522730
  0
LINE
  8
CSLAYER1
  6
CONTINUOUS
 62
     5
 10
793.875608
 20
546.522730
 11
794.262516
 21
546.638255
  0
LINE
  8
CSLAYER1
  6
CONTINUOUS
 62
     5
 10
794.262516
 20
546.638255
 11
794.630398
 21
546.772682
  0
LINE
  8
CSLAYER1
  6
CONTINUOUS
 62
     5
 10
794.630398
 20
546.772682
 11
794.976454
 21
546.924988
  0
LINE
  8
CSLAYER1
  6
CONTINUOUS
 62
     5
 10
794.976454
 20
546.924988
 11
795.298050
 21
547.094015
  0
LINE
  8
CSLAYER1
  6
CONTINUOUS
 62
     5
 10
795.298050
 20
547.094015
 11
795.592738
 21
547.278474
  0
LINE
  8
CSLAYER1
  6
CONTINUOUS
 62
     5
 10
795.592738
 20
547.278474
 11
795.858276
 21
547.476964
  0
LINE
  8
CSLAYER1
  6
CONTINUOUS
 62
     5
 10
795.858276
 20
547.476964
 11
796.092643
 21
547.687972
  0
LINE
  8
CSLAYER1
  6
CONTINUOUS
 62
     5
 10
796.092643
 20
547.687972
 11
796.294055
 21
547.909894
  0
LINE
  8
CSLAYER1
  6
CONTINUOUS
 62
     5
 10
796.294055
 20
547.909894
 11
796.460979
 21
548.141040
  0
LINE
  8
CSLAYER1
  6
CONTINUOUS
 62
     5
 10
796.460979
 20
548.141040
 11
796.592145
 21
548.379651
  0
LINE
  8
CSLAYER1
  6
CONTINUOUS
 62
     5
 10
796.592145
 20
548.379651
 11
796.686555
 21
548.623911
  0
LINE
  8
CSLAYER1
  6
CONTINUOUS
 62
     5
 10
796.686555
 20
548.623911
 11
796.743490
 21
548.871961
  0
LINE
  8
CSLAYER1
  6
CONTINUOUS
 62
     5
 10
796.743490
 20
548.871961
 11
796.762516
 21
549.121914
  0
ENDBLK
  8
0
  0
BLOCK
  8
CSLAYER1
  2
BLKF0003
 70
   64
 10
0.0
 20
0.0
 30
0.0
  0
LINE
  8
CSLAYER1
  6
CONTINUOUS
 62
     5
 10
368.762516
 20
549.121914
 11
368.781543
 21
549.371866
  0
LINE
  8
CSLAYER1
  6
CONTINUOUS
 62
     5
 10
368.781543
 20
549.371866
 11
368.838477
 21
549.619916
  0
LINE
  8
CSLAYER1
  6
CONTINUOUS
 62
     5
 10
368.838477
 20
549.619916
 11
368.932887
 21
549.864176
  0
LINE
  8
CSLAYER1
  6
CONTINUOUS
 62
     5
 10
368.932887
 20
549.864176
 11
369.064053
 21
550.102787
  0
LINE
  8
CSLAYER1
  6
CONTINUOUS
 62
     5
 10
369.064053
 20
550.102787
 11
369.230977
 21
550.333933
  0
LINE
  8
CSLAYER1
  6
CONTINUOUS
 62
     5
 10
369.230977
 20
550.333933
 11
369.432389
 21
550.555855
  0
LINE
  8
CSLAYER1
  6
CONTINUOUS
 62
     5
 10
369.432389
 20
550.555855
 11
369.666756
 21
550.766863
  0
LINE
  8
CSLAYER1
  6
CONTINUOUS
 62
     5
 10
369.666756
 20
550.766863
 11
369.932294
 21
550.965353
  0
LINE
  8
CSLAYER1
  6
CONTINUOUS
 62
     5
 10
369.932294
 20
550.965353
 11
370.226982
 21
551.149813
  0
LINE
  8
CSLAYER1
  6
CONTINUOUS
 62
     5
 10
370.226982
 20
551.149813
 11
370.548578
 21
551.318839
  0
LINE
  8
CSLAYER1
  6
CONTINUOUS
 62
     5
 10
370.548578
 20
551.318839
 11
370.894634
 21
551.471145
  0
LINE
  8
CSLAYER1
  6
CONTINUOUS
 62
     5
 10
370.894634
 20
551.471145
 11
371.262516
 21
551.605572
  0
LINE
  8
CSLAYER1
  6
CONTINUOUS
 62
     5
 10
371.262516
 20
551.605572
 11
371.649425
 21
551.721098
  0
LINE
  8
CSLAYER1
  6
CONTINUOUS
 62
     5
 10
371.649425
 20
551.721098
 11
372.052416
 21
551.816841
  0
LINE
  8
CSLAYER1
  6
CONTINUOUS
 62
     5
 10
372.052416
 20
551.816841
 11
372.468421
 21
551.892075
  0
LINE
  8
CSLAYER1
  6
CONTINUOUS
 62
     5
 10
372.468421
 20
551.892075
 11
372.894275
 21
551.946226
  0
LINE
  8
CSLAYER1
  6
CONTINUOUS
 62
     5
 10
372.894275
 20
551.946226
 11
373.326738
 21
551.978883
  0
LINE
  8
CSLAYER1
  6
CONTINUOUS
 62
     5
 10
373.326738
 20
551.978883
 11
373.762516
 21
551.989796
  0
LINE
  8
CSLAYER1
  6
CONTINUOUS
 62
     5
 10
373.762516
 20
551.989796
 11
374.198295
 21
551.978883
  0
LINE
  8
CSLAYER1
  6
CONTINUOUS
 62
     5
 10
374.198295
 20
551.978883
 11
374.630757
 21
551.946226
  0
LINE
  8
CSLAYER1
  6
CONTINUOUS
 62
     5
 10
374.630757
 20
551.946226
 11
375.056611
 21
551.892075
  0
LINE
  8
CSLAYER1
  6
CONTINUOUS
 62
     5
 10
375.056611
 20
551.892075
 11
375.472617
 21
551.816841
  0
LINE
  8
CSLAYER1
  6
CONTINUOUS
 62
     5
 10
375.472617
 20
551.816841
 11
375.875608
 21
551.721098
  0
LINE
  8
CSLAYER1
  6
CONTINUOUS
 62
     5
 10
375.875608
 20
551.721098
 11
376.262516
 21
551.605572
  0
LINE
  8
CSLAYER1
  6
CONTINUOUS
 62
     5
 10
376.262516
 20
551.605572
 11
376.630398
 21
551.471145
  0
LINE
  8
CSLAYER1
  6
CONTINUOUS
 62
     5
 10
376.630398
 20
551.471145
 11
376.976454
 21
551.318839
  0
LINE
  8
CSLAYER1
  6
CONTINUOUS
 62
     5
 10
376.976454
 20
551.318839
 11
377.298050
 21
551.149813
  0
LINE
  8
CSLAYER1
  6
CONTINUOUS
 62
     5
 10
377.298050
 20
551.149813
 11
377.592738
 21
550.965353
  0
LINE
  8
CSLAYER1
  6
CONTINUOUS
 62
     5
 10
377.592738
 20
550.965353
 11
377.858276
 21
550.766863
  0
LINE
  8
CSLAYER1
  6
CONTINUOUS
 62
     5
 10
377.858276
 20
550.766863
 11
378.092643
 21
550.555855
  0
LINE
  8
CSLAYER1
  6
CONTINUOUS
 62
     5
 10
378.092643
 20
550.555855
 11
378.294055
 21
550.333933
  0
LINE
  8
CSLAYER1
  6
CONTINUOUS
 62
     5
 10
378.294055
 20
550.333933
 11
378.460979
 21
550.102787
  0
LINE
  8
CSLAYER1
  6
CONTINUOUS
 62
     5
 10
378.460979
 20
550.102787
 11
378.592145
 21
549.864176
  0
LINE
  8
CSLAYER1
  6
CONTINUOUS
 62
     5
 10
378.592145
 20
549.864176
 11
378.686555
 21
549.619916
  0
LINE
  8
CSLAYER1
  6
CONTINUOUS
 62
     5
 10
378.686555
 20
549.619916
 11
378.743490
 21
549.371866
  0
LINE
  8
CSLAYER1
  6
CONTINUOUS
 62
     5
 10
378.743490
 20
549.371866
 11
378.762516
 21
549.121914
  0
LINE
  8
CSLAYER1
  6
CONTINUOUS
 62
     5
 10
378.762516
 20
549.121914
 11
378.743490
 21
548.871961
  0
LINE
  8
CSLAYER1
  6
CONTINUOUS
 62
     5
 10
378.743490
 20
548.871961
 11
378.686555
 21
548.623911
  0
LINE
  8
CSLAYER1
  6
CONTINUOUS
 62
     5
 10
378.686555
 20
548.623911
 11
378.592145
 21
548.379651
  0
LINE
  8
CSLAYER1
  6
CONTINUOUS
 62
     5
 10
378.592145
 20
548.379651
 11
378.460979
 21
548.141040
  0
LINE
  8
CSLAYER1
  6
CONTINUOUS
 62
     5
 10
378.460979
 20
548.141040
 11
378.294055
 21
547.909894
  0
LINE
  8
CSLAYER1
  6
CONTINUOUS
 62
     5
 10
378.294055
 20
547.909894
 11
378.092643
 21
547.687972
  0
LINE
  8
CSLAYER1
  6
CONTINUOUS
 62
     5
 10
378.092643
 20
547.687972
 11
377.858276
 21
547.476964
  0
LINE
  8
CSLAYER1
  6
CONTINUOUS
 62
     5
 10
377.858276
 20
547.476964
 11
377.592738
 21
547.278474
  0
LINE
  8
CSLAYER1
  6
CONTINUOUS
 62
     5
 10
377.592738
 20
547.278474
 11
377.298050
 21
547.094015
  0
LINE
  8
CSLAYER1
  6
CONTINUOUS
 62
     5
 10
377.298050
 20
547.094015
 11
376.976454
 21
546.924988
  0
LINE
  8
CSLAYER1
  6
CONTINUOUS
 62
     5
 10
376.976454
 20
546.924988
 11
376.630398
 21
546.772682
  0
LINE
  8
CSLAYER1
  6
CONTINUOUS
 62
     5
 10
376.630398
 20
546.772682
 11
376.262516
 21
546.638255
  0
LINE
  8
CSLAYER1
  6
CONTINUOUS
 62
     5
 10
376.262516
 20
546.638255
 11
375.875608
 21
546.522730
  0
LINE
  8
CSLAYER1
  6
CONTINUOUS
 62
     5
 10
375.875608
 20
546.522730
 11
375.472617
 21
546.426986
  0
LINE
  8
CSLAYER1
  6
CONTINUOUS
 62
     5
 10
375.472617
 20
546.426986
 11
375.056611
 21
546.351752
  0
LINE
  8
CSLAYER1
  6
CONTINUOUS
 62
     5
 10
375.056611
 20
546.351752
 11
374.630757
 21
546.297601
  0
LINE
  8
CSLAYER1
  6
CONTINUOUS
 62
     5
 10
374.630757
 20
546.297601
 11
374.198295
 21
546.264945
  0
LINE
  8
CSLAYER1
  6
CONTINUOUS
 62
     5
 10
374.198295
 20
546.264945
 11
373.762516
 21
546.254031
  0
LINE
  8
CSLAYER1
  6
CONTINUOUS
 62
     5
 10
373.762516
 20
546.254031
 11
373.326738
 21
546.264945
  0
LINE
  8
CSLAYER1
  6
CONTINUOUS
 62
     5
 10
373.326738
 20
546.264945
 11
372.894275
 21
546.297601
  0
LINE
  8
CSLAYER1
  6
CONTINUOUS
 62
     5
 10
372.894275
 20
546.297601
 11
372.468421
 21
546.351752
  0
LINE
  8
CSLAYER1
  6
CONTINUOUS
 62
     5
 10
372.468421
 20
546.351752
 11
372.052416
 21
546.426986
  0
LINE
  8
CSLAYER1
  6
CONTINUOUS
 62
     5
 10
372.052416
 20
546.426986
 11
371.649425
 21
546.522730
  0
LINE
  8
CSLAYER1
  6
CONTINUOUS
 62
     5
 10
371.649425
 20
546.522730
 11
371.262516
 21
546.638255
  0
LINE
  8
CSLAYER1
  6
CONTINUOUS
 62
     5
 10
371.262516
 20
546.638255
 11
370.894634
 21
546.772682
  0
LINE
  8
CSLAYER1
  6
CONTINUOUS
 62
     5
 10
370.894634
 20
546.772682
 11
370.548578
 21
546.924988
  0
LINE
  8
CSLAYER1
  6
CONTINUOUS
 62
     5
 10
370.548578
 20
546.924988
 11
370.226982
 21
547.094015
  0
LINE
  8
CSLAYER1
  6
CONTINUOUS
 62
     5
 10
370.226982
 20
547.094015
 11
369.932294
 21
547.278474
  0
LINE
  8
CSLAYER1
  6
CONTINUOUS
 62
     5
 10
369.932294
 20
547.278474
 11
369.666756
 21
547.476964
  0
LINE
  8
CSLAYER1
  6
CONTINUOUS
 62
     5
 10
369.666756
 20
547.476964
 11
369.432389
 21
547.687972
  0
LINE
  8
CSLAYER1
  6
CONTINUOUS
 62
     5
 10
369.432389
 20
547.687972
 11
369.230977
 21
547.909894
  0
LINE
  8
CSLAYER1
  6
CONTINUOUS
 62
     5
 10
369.230977
 20
547.909894
 11
369.064053
 21
548.141040
  0
LINE
  8
CSLAYER1
  6
CONTINUOUS
 62
     5
 10
369.064053
 20
548.141040
 11
368.932887
 21
548.379651
  0
LINE
  8
CSLAYER1
  6
CONTINUOUS
 62
     5
 10
368.932887
 20
548.379651
 11
368.838477
 21
548.623911
  0
LINE
  8
CSLAYER1
  6
CONTINUOUS
 62
     5
 10
368.838477
 20
548.623911
 11
368.781543
 21
548.871961
  0
LINE
  8
CSLAYER1
  6
CONTINUOUS
 62
     5
 10
368.781543
 20
548.871961
 11
368.762516
 21
549.121914
  0
ENDBLK
  8
0
  0
ENDSEC
  0
SECTION
  2
ENTITIES
  0
LINE
  8
CSLAYER1
  6
CONTINUOUS
 62
     3
 10
118.051807
 20
2400.454119
 11
118.051807
 21
51.907189
  0
LINE
  8
CSLAYER1
  6
CONTINUOUS
 62
     3
 10
3440.625117
 20
2400.454119
 11
118.051807
 21
2400.454119
  0
LINE
  8
CSLAYER1
  6
CONTINUOUS
 62
     3
 10
3440.625117
 20
2400.454119
 11
3440.625117
 21
51.907189
  0
LINE
  8
CSLAYER1
  6
CONTINUOUS
 62
     3
 10
3440.625117
 20
51.907189
 11
118.051807
 21
51.907189
  0
LINE
  8
CSLAYER1
  6
CONTINUOUS
 62
     5
 10
68.051807
 20
1211.907189
 11
18.051807
 21
1211.907189
  0
LINE
  8
CSLAYER1
  6
CONTINUOUS
 62
     5
 10
2640.625117
 20
491.907189
 11
3440.625117
 21
491.907189
  0
LINE
  8
CSLAYER1
  6
CONTINUOUS
 62
     5
 10
2640.625117
 20
131.907189
 11
3440.625117
 21
131.907189
  0
LINE
  8
CSLAYER1
  6
CONTINUOUS
 62
     5
 10
2640.625117
 20
291.907189
 11
3440.625117
 21
291.907189
  0
LINE
  8
CSLAYER1
  6
CONTINUOUS
 62
     5
 10
2640.625117
 20
351.907189
 11
3440.625117
 21
351.907189
  0
LINE
  8
CSLAYER1
  6
CONTINUOUS
 62
     5
 10
2640.625117
 20
411.907189
 11
3440.625117
 21
411.907189
  0
LINE
  8
CSLAYER1
  6
CONTINUOUS
 62
     5
 10
2640.625117
 20
571.907189
 11
3440.625117
 21
571.907189
  0
LINE
  8
CSLAYER1
  6
CONTINUOUS
 62
     5
 10
2640.625117
 20
651.907189
 11
2640.625117
 21
51.907189
  0
LINE
  8
CSLAYER1
  6
CONTINUOUS
 62
     5
 10
2840.625117
 20
651.907189
 11
2840.625117
 21
411.907189
  0
LINE
  8
CSLAYER1
  6
CONTINUOUS
 62
     5
 10
2640.625117
 20
651.907189
 11
3440.625117
 21
651.907189
  0
LINE
  8
CSLAYER1
  6
CONTINUOUS
 62
     5
 10
3140.625117
 20
411.907189
 11
3140.625117
 21
131.907189
  0
TEXT
  8
CSLAYER1
 62
     3
 10
2860.316219
 20
60.469913
 40
59.380363
 41
1.003345
  1
東正車輌株式会社
 50
0.000000
 51
0.000000
  7
EASYDRAW_FONT
 72
     5
 11
3317.088566
 21
60.469913
  0
LINE
  8
CSLAYER1
  6
CONTINUOUS
 62
     5
 10
2890.625117
 20
351.907189
 11
2890.625117
 21
131.907189
  0
TEXT
  8
CSLAYER1
 62
     5
 10
2670.625000
 20
586.907166
 40
50.000000
 41
1.050000
  1
品　名
 50
0.000000
 51
0.000000
  7
EASYDRAW_FONT
 72
     5
 11
2810.625000
 21
586.907166
  0
TEXT
  8
CSLAYER1
 62
     5
 10
2670.625000
 20
506.907166
 40
50.000000
 41
1.050000
  1
型　式
 50
0.000000
 51
0.000000
  7
EASYDRAW_FONT
 72
     5
 11
2810.625000
 21
506.907166
  0
TEXT
  8
CSLAYER1
 62
     5
 10
2645.625000
 20
426.907196
 40
50.000000
 41
1.036364
  1
図面番号
 50
0.000000
 51
0.000000
  7
EASYDRAW_FONT
 72
     5
 11
2835.625000
 21
426.907196
  0
TEXT
  8
CSLAYER1
 62
     5
 10
2710.625000
 20
356.907196
 40
50.000000
 41
0.830769
  1
平成１３年３月７日
 50
0.000000
 51
0.000000
  7
EASYDRAW_FONT
 72
     5
 11
3070.625000
 21
356.907196
  0
TEXT
  8
CSLAYER1
 62
     5
 10
3220.625000
 20
356.907196
 40
50.000000
 41
1.050000
  1
Ｂ－４
 50
0.000000
 51
0.000000
  7
EASYDRAW_FONT
 72
     5
 11
3360.625000
 21
356.907196
  0
TEXT
  8
CSLAYER1
 62
     5
 10
2695.625000
 20
296.907196
 40
50.000000
 41
1.050000
  1
検　図
 50
0.000000
 51
0.000000
  7
EASYDRAW_FONT
 72
     5
 11
2835.625000
 21
296.907196
  0
TEXT
  8
CSLAYER1
 62
     5
 10
2945.625000
 20
296.907196
 40
50.000000
 41
1.050000
  1
作　図
 50
0.000000
 51
0.000000
  7
EASYDRAW_FONT
 72
     5
 11
3085.625000
 21
296.907196
  0
TEXT
  8
CSLAYER1
 62
     5
 10
3220.625000
 20
296.907196
 40
50.000000
 41
1.050000
  1
尺　度
 50
0.000000
 51
0.000000
  7
EASYDRAW_FONT
 72
     5
 11
3360.625000
 21
296.907196
  0
TEXT
  8
CSLAYER1
 62
     5
 10
3321.363770
 20
146.392456
 40
50.000000
 41
1.080000
  1
１０
 50
0.000000
 51
0.000000
  7
EASYDRAW_FONT
 72
     5
 11
3411.363770
 21
146.392456
  0
TEXT
  8
CSLAYER1
 62
     5
 10
3301.044189
 20
194.097153
 40
50.000000
 41
1.200000
  1
／
 50
0.000000
 51
0.000000
  7
EASYDRAW_FONT
 72
     5
 11
3341.044189
 21
194.097153
  0
TEXT
  8
CSLAYER1
 62
     5
 10
3270.831299
 20
229.080597
 40
50.000000
 41
1.200000
  1
１
 50
0.000000
 51
0.000000
  7
EASYDRAW_FONT
 72
     5
 11
3310.831299
 21
229.080597
  0
TEXT
  8
CSLAYER1
 62
     3
 10
2980.625000
 20
586.907166
 40
50.000000
 41
0.834783
  1
ゴールドリフター
 50
0.000000
 51
0.000000
  7
EASYDRAW_FONT
 72
     5
 11
3300.625000
 21
586.907166
  0
TEXT
  8
CSLAYER1
 62
     3
 10
2880.625000
 20
506.907166
 40
50.000000
 41
0.821053
  1
ＧＬＥ－１０００－０５０９
 50
0.000000
 51
0.000000
  7
EASYDRAW_FONT
 72
     5
 11
3400.625000
 21
506.907166
  0
TEXT
  8
CSLAYER1
 62
     3
 10
3020.625000
 20
426.907196
 40
50.000000
 41
0.847059
  1
GT-35 
 50
0.000000
 51
0.000000
  7
EASYDRAW_FONT
 72
     5
 11
3260.625000
 21
426.907196
  0
INSERT
  8
CSLAYER1
  2
BLKF0000
 10
0.0
 20
0.0
 30
0.0
  0
INSERT
  8
CSLAYER1
  2
BLKF0001
 10
0.0
 20
0.0
 30
0.0
  0
LINE
  8
CSLAYER1
  6
CONTINUOUS
 62
     3
 10
2532.688850
 20
463.123154
 11
248.000447
 21
463.123154
  0
LINE
  8
CSLAYER1
  6
CONTINUOUS
 62
     3
 10
1132.762516
 20
513.123154
 11
1132.762516
 21
463.123154
  0
LINE
  8
CSLAYER1
  6
CONTINUOUS
 62
     3
 10
2032.762516
 20
513.123154
 11
2032.762516
 21
463.123154
  0
LINE
  8
CSLAYER1
  6
CONTINUOUS
 62
     3
 10
2032.762516
 20
513.123154
 11
1132.762516
 21
513.123154
  0
LINE
  8
CSLAYER1
  6
CONTINUOUS
 62
     3
 10
2032.762516
 20
2111.670084
 11
1132.762516
 21
2111.670084
  0
LINE
  8
CSLAYER1
  6
CONTINUOUS
 62
     3
 10
2032.762516
 20
1611.670084
 11
1132.762516
 21
1611.670084
  0
LINE
  8
CSLAYER1
  6
CONTINUOUS
 62
     3
 10
2032.762516
 20
1611.670084
 11
2032.762516
 21
2111.670084
  0
LINE
  8
CSLAYER1
  6
CONTINUOUS
 62
     3
 10
832.762516
 20
1238.123154
 11
832.762516
 21
1188.123154
  0
LINE
  8
CSLAYER1
  6
CENTER
 62
     5
 10
582.762516
 20
1265.659849
 11
582.762516
 21
443.898853
  0
LINE
  8
CSLAYER1
  6
CONTINUOUS
 62
     3
 10
832.762516
 20
513.123154
 11
332.762516
 21
513.123154
  0
LINE
  8
CSLAYER1
  6
CONTINUOUS
 62
     3
 10
332.762516
 20
513.123154
 11
332.762516
 21
463.123154
  0
LINE
  8
CSLAYER1
  6
CONTINUOUS
 62
     3
 10
832.762516
 20
513.123154
 11
832.762516
 21
463.123154
  0
LINE
  8
CSLAYER1
  6
CONTINUOUS
 62
     3
 10
332.762516
 20
1238.123154
 11
832.762516
 21
1238.123154
  0
LINE
  8
CSLAYER1
  6
CONTINUOUS
 62
     3
 10
332.762516
 20
1188.123154
 11
832.762516
 21
1188.123154
  0
LINE
  8
CSLAYER1
  6
CONTINUOUS
 62
     3
 10
762.762516
 20
1188.123154
 11
762.762516
 21
513.123154
  0
LINE
  8
CSLAYER1
  6
CONTINUOUS
 62
     3
 10
774.762516
 20
1188.123154
 11
774.762516
 21
513.123154
  0
LINE
  8
CSLAYER1
  6
CONTINUOUS
 62
     3
 10
781.762516
 20
1188.123154
 11
781.762516
 21
558.353103
  0
LINE
  8
CSLAYER1
  6
CONTINUOUS
 62
     3
 10
793.762516
 20
1188.123154
 11
793.762516
 21
558.353103
  0
LINE
  8
CSLAYER1
  6
CENTER
 62
     5
 10
839.426353
 20
850.523154
 11
325.730934
 21
850.523154
  0
LINE
  8
CSLAYER1
  6
CENTER
 62
     5
 10
762.762516
 20
846.050126
 11
402.762516
 21
846.050126
  0
LINE
  8
CSLAYER1
  6
CONTINUOUS
 62
     3
 10
476.762516
 20
876.300126
 11
418.762516
 21
876.300126
  0
LINE
  8
CSLAYER1
  6
CONTINUOUS
 62
     3
 10
762.762516
 20
815.800126
 11
402.762516
 21
815.800126
  0
LINE
  8
CSLAYER1
  6
CONTINUOUS
 62
     5
 10
812.762516
 20
858.523154
 11
812.762516
 21
842.523154
  0
LINE
  8
CSLAYER1
  6
CONTINUOUS
 62
     5
 10
774.762516
 20
875.523154
 11
781.762516
 21
875.523154
  0
LINE
  8
CSLAYER1
  6
CONTINUOUS
 62
     5
 10
774.762516
 20
825.523154
 11
781.762516
 21
825.523154
  0
LINE
  8
CSLAYER1
  6
CONTINUOUS
 62
     5
 10
796.762516
 20
865.523154
 11
796.762516
 21
835.523154
  0
LINE
  8
CSLAYER1
  6
CONTINUOUS
 62
     5
 10
800.762516
 20
864.523154
 11
800.762516
 21
836.523154
  0
LINE
  8
CSLAYER1
  6
CONTINUOUS
 62
     5
 10
800.762516
 20
858.523154
 11
812.762516
 21
858.523154
  0
LINE
  8
CSLAYER1
  6
CONTINUOUS
 62
     5
 10
800.762516
 20
842.523154
 11
812.762516
 21
842.523154
  0
LINE
  8
CSLAYER1
  6
CONTINUOUS
 62
     5
 10
796.762516
 20
864.523154
 11
810.762516
 21
864.523154
  0
LINE
  8
CSLAYER1
  6
CONTINUOUS
 62
     5
 10
796.762516
 20
836.523154
 11
810.762516
 21
836.523154
  0
LINE
  8
CSLAYER1
  6
CONTINUOUS
 62
     5
 10
810.762516
 20
864.523154
 11
810.762516
 21
836.523154
  0
LINE
  8
CSLAYER1
  6
CONTINUOUS
 62
     5
 10
793.762516
 20
865.523154
 11
796.762516
 21
865.523154
  0
LINE
  8
CSLAYER1
  6
CONTINUOUS
 62
     5
 10
793.762516
 20
835.523154
 11
796.762516
 21
835.523154
  0
LINE
  8
CSLAYER1
  6
CONTINUOUS
 62
     3
 10
476.762516
 20
965.899614
 11
476.762516
 21
866.722212
  0
LINE
  8
CSLAYER1
  6
CONTINUOUS
 62
     3
 10
485.762516
 20
965.899614
 11
485.762516
 21
866.722212
  0
LINE
  8
CSLAYER1
  6
CONTINUOUS
 62
     3
 10
461.762516
 20
970.617684
 11
461.762516
 21
928.399609
  0
LINE
  8
CSLAYER1
  6
CONTINUOUS
 62
     5
 10
1402.210641
 20
985.031634
 11
1402.210641
 21
924.692095
  0
LINE
  8
CSLAYER1
  6
CONTINUOUS
 62
     3
 10
476.762516
 20
965.899614
 11
485.762516
 21
965.899614
  0
LINE
  8
CSLAYER1
  6
CONTINUOUS
 62
     3
 10
476.762516
 20
866.722212
 11
485.762516
 21
866.722212
  0
LINE
  8
CSLAYER1
  6
CONTINUOUS
 62
     3
 10
476.762516
 20
869.053355
 11
485.762516
 21
869.053355
  0
LINE
  8
CSLAYER1
  6
CONTINUOUS
 62
     5
 10
496.750822
 20
945.899609
 11
398.774210
 21
945.899609
  0
LINE
  8
CSLAYER1
  6
CONTINUOUS
 62
     3
 10
485.762516
 20
876.300126
 11
679.762516
 21
876.300126
  0
LINE
  8
CSLAYER1
  6
CONTINUOUS
 62
     3
 10
461.762516
 20
963.399609
 11
476.762516
 21
963.399609
  0
LINE
  8
CSLAYER1
  6
CONTINUOUS
 62
     3
 10
461.762516
 20
928.399609
 11
476.762516
 21
928.399609
  0
LINE
  8
CSLAYER1
  6
CONTINUOUS
 62
     3
 10
461.762516
 20
970.617684
 11
433.762516
 21
970.617684
  0
LINE
  8
CSLAYER1
  6
CONTINUOUS
 62
     3
 10
461.762516
 20
958.162246
 11
433.762516
 21
958.162246
  0
LINE
  8
CSLAYER1
  6
CONTINUOUS
 62
     3
 10
472.762516
 20
928.399609
 11
472.762516
 21
876.300126
  0
LINE
  8
CSLAYER1
  6
CONTINUOUS
 62
     3
 10
472.762516
 20
815.800126
 11
472.762516
 21
781.723160
  0
LINE
  8
CSLAYER1
  6
CONTINUOUS
 62
     3
 10
422.762516
 20
815.800126
 11
422.762516
 21
781.723160
  0
ARC
  8
CSLAYER1
  6
CONTINUOUS
 62
     3
 10
447.762516
 20
809.755331
 40
37.560652
 50
228.272384
 51
311.727616
  0
LINE
  8
CSLAYER1
  6
CONTINUOUS
 62
     3
 10
481.262516
 20
781.723160
 11
481.262516
 21
724.865326
  0
LINE
  8
CSLAYER1
  6
CONTINUOUS
 62
     3
 10
414.262516
 20
781.723160
 11
414.262516
 21
724.865326
  0
ARC
  8
CSLAYER1
  6
CONTINUOUS
 62
     3
 10
447.762516
 20
819.286268
 40
50.331273
 50
228.272384
 51
311.727616
  0
ARC
  8
CSLAYER1
  6
CONTINUOUS
 62
     3
 10
447.762516
 20
744.160052
 40
50.331273
 50
48.272384
 51
60.217488
  0
ARC
  8
CSLAYER1
  6
CONTINUOUS
 62
     3
 10
447.762516
 20
744.160052
 40
50.331273
 50
119.782512
 51
131.727616
  0
LINE
  8
CSLAYER1
  6
CONTINUOUS
 62
     3
 10
482.762516
 20
724.865326
 11
482.762516
 21
703.139161
  0
LINE
  8
CSLAYER1
  6
CONTINUOUS
 62
     3
 10
412.762516
 20
724.865326
 11
412.762516
 21
703.139161
  0
ARC
  8
CSLAYER1
  6
CONTINUOUS
 62
     3
 10
447.762516
 20
762.428434
 40
50.331273
 50
228.272384
 51
311.727616
  0
ARC
  8
CSLAYER1
  6
CONTINUOUS
 62
     3
 10
447.762516
 20
764.110364
 40
52.584913
 50
228.272384
 51
311.727616
  0
ARC
  8
CSLAYER1
  6
CONTINUOUS
 62
     3
 10
447.762516
 20
742.384200
 40
52.584913
 50
228.272384
 51
311.727616
  0
ARC
  8
CSLAYER1
  6
CONTINUOUS
 62
     3
 10
447.762516
 20
685.620287
 40
52.584913
 50
48.272384
 51
50.426700
  0
ARC
  8
CSLAYER1
  6
CONTINUOUS
 62
     3
 10
447.762516
 20
685.620287
 40
52.584913
 50
129.573300
 51
131.727616
  0
LINE
  8
CSLAYER1
  6
CONTINUOUS
 62
     3
 10
415.262516
 20
701.045077
 11
415.262516
 21
573.734560
  0
LINE
  8
CSLAYER1
  6
CONTINUOUS
 62
     3
 10
480.262516
 20
701.045077
 11
480.262516
 21
606.809493
  0
LINE
  8
CSLAYER1
  6
CONTINUOUS
 62
     5
 10
2032.562516
 20
618.123154
 11
2016.594185
 21
618.123154
  0
LINE
  8
CSLAYER1
  6
CONTINUOUS
 62
     5
 10
2032.562516
 20
568.123154
 11
2017.207846
 21
568.123154
  0
LINE
  8
CSLAYER1
  6
CONTINUOUS
 62
     5
 10
1132.562516
 20
568.123154
 11
1132.562516
 21
577.143513
  0
LINE
  8
CSLAYER1
  6
CONTINUOUS
 62
     5
 10
2032.562516
 20
568.123154
 11
2032.562516
 21
576.327979
  0
LINE
  8
CSLAYER1
  6
CONTINUOUS
 62
     5
 10
352.762516
 20
858.523154
 11
352.762516
 21
842.523154
  0
LINE
  8
CSLAYER1
  6
CONTINUOUS
 62
     5
 10
390.762516
 20
875.523154
 11
383.762516
 21
875.523154
  0
LINE
  8
CSLAYER1
  6
CONTINUOUS
 62
     5
 10
390.762516
 20
825.523154
 11
383.762516
 21
825.523154
  0
LINE
  8
CSLAYER1
  6
CONTINUOUS
 62
     5
 10
368.762516
 20
865.523154
 11
368.762516
 21
835.523154
  0
LINE
  8
CSLAYER1
  6
CONTINUOUS
 62
     5
 10
364.762516
 20
864.523154
 11
364.762516
 21
836.523154
  0
LINE
  8
CSLAYER1
  6
CONTINUOUS
 62
     5
 10
364.762516
 20
858.523154
 11
352.762516
 21
858.523154
  0
LINE
  8
CSLAYER1
  6
CONTINUOUS
 62
     5
 10
364.762516
 20
842.523154
 11
352.762516
 21
842.523154
  0
LINE
  8
CSLAYER1
  6
CONTINUOUS
 62
     5
 10
368.762516
 20
864.523154
 11
354.762516
 21
864.523154
  0
LINE
  8
CSLAYER1
  6
CONTINUOUS
 62
     5
 10
368.762516
 20
836.523154
 11
354.762516
 21
836.523154
  0
LINE
  8
CSLAYER1
  6
CONTINUOUS
 62
     5
 10
354.762516
 20
864.523154
 11
354.762516
 21
836.523154
  0
LINE
  8
CSLAYER1
  6
CONTINUOUS
 62
     5
 10
371.762516
 20
865.523154
 11
368.762516
 21
865.523154
  0
LINE
  8
CSLAYER1
  6
CONTINUOUS
 62
     5
 10
371.762516
 20
835.523154
 11
368.762516
 21
835.523154
  0
LINE
  8
CSLAYER1
  6
CONTINUOUS
 62
     3
 10
418.762516
 20
965.899614
 11
418.762516
 21
866.722212
  0
LINE
  8
CSLAYER1
  6
CONTINUOUS
 62
     3
 10
433.762516
 20
970.617684
 11
433.762516
 21
928.399609
  0
LINE
  8
CSLAYER1
  6
CONTINUOUS
 62
     3
 10
418.762516
 20
965.899614
 11
402.762516
 21
965.899614
  0
LINE
  8
CSLAYER1
  6
CONTINUOUS
 62
     3
 10
418.762516
 20
866.722212
 11
402.762516
 21
866.722212
  0
LINE
  8
CSLAYER1
  6
CONTINUOUS
 62
     3
 10
418.762516
 20
869.053355
 11
402.762516
 21
869.053355
  0
LINE
  8
CSLAYER1
  6
CONTINUOUS
 62
     3
 10
433.762516
 20
963.399609
 11
418.762516
 21
963.399609
  0
LINE
  8
CSLAYER1
  6
CONTINUOUS
 62
     3
 10
433.762516
 20
928.399609
 11
418.762516
 21
928.399609
  0
LINE
  8
CSLAYER1
  6
CONTINUOUS
 62
     3
 10
422.762516
 20
928.399609
 11
422.762516
 21
876.300126
  0
LINE
  8
CSLAYER1
  6
CONTINUOUS
 62
     3
 10
402.762516
 20
1188.123154
 11
402.762516
 21
513.123154
  0
LINE
  8
CSLAYER1
  6
CONTINUOUS
 62
     3
 10
390.762516
 20
1188.123154
 11
390.762516
 21
513.123154
  0
LINE
  8
CSLAYER1
  6
CONTINUOUS
 62
     3
 10
383.762516
 20
1188.123154
 11
383.762516
 21
558.353103
  0
LINE
  8
CSLAYER1
  6
CONTINUOUS
 62
     3
 10
371.762516
 20
1188.123154
 11
371.762516
 21
558.353103
  0
LINE
  8
CSLAYER1
  6
CONTINUOUS
 62
     3
 10
1459.762516
 20
521.323154
 11
1459.762516
 21
513.123154
  0
LINE
  8
CSLAYER1
  6
CONTINUOUS
 62
     3
 10
1339.762516
 20
521.323154
 11
1339.762516
 21
513.123154
  0
LINE
  8
CSLAYER1
  6
CONTINUOUS
 62
     3
 10
685.746830
 20
521.323154
 11
709.762516
 21
521.323154
  0
LINE
  8
CSLAYER1
  6
CONTINUOUS
 62
     3
 10
654.325016
 20
551.323154
 11
705.262516
 21
551.323154
  0
LINE
  8
CSLAYER1
  6
CONTINUOUS
 62
     3
 10
1339.762516
 20
521.323154
 11
1346.762516
 21
551.323154
  0
LINE
  8
CSLAYER1
  6
CONTINUOUS
 62
     3
 10
1452.762516
 20
551.323154
 11
1459.762516
 21
521.323154
  0
LINE
  8
CSLAYER1
  6
CONTINUOUS
 62
     3
 10
709.762516
 20
521.323154
 11
709.762516
 21
513.123154
  0
LINE
  8
CSLAYER1
  6
CONTINUOUS
 62
     3
 10
1346.762516
 20
551.323154
 11
1452.762516
 21
551.323154
  0
LINE
  8
CSLAYER1
  6
CONTINUOUS
 62
     3
 10
1339.762516
 20
521.323154
 11
1459.762516
 21
521.323154
  0
LINE
  8
CSLAYER1
  6
CONTINUOUS
 62
     3
 10
705.262516
 20
551.323154
 11
709.762516
 21
521.323154
  0
TEXT
  8
CSLAYER1
 62
     3
 10
315.533112
 20
1953.925293
 40
50.000000
 41
1.020000
  1
ＵＰ・ＤＯＷＮ
 50
0.000000
 51
0.000000
  7
EASYDRAW_FONT
 72
     5
 11
655.533112
 21
1953.925293
  0
TEXT
  8
CSLAYER1
 62
     3
 10
316.277924
 20
2025.426758
 40
50.000000
 41
1.020000
  1
フットスイッチ
 50
0.000000
 51
0.000000
  7
EASYDRAW_FONT
 72
     5
 11
656.277924
 21
2025.426758
  0
LINE
  8
CSLAYER1
  6
CONTINUOUS
 62
     3
 10
985.763000
 20
1741.670084
 11
712.762516
 21
1741.670084
  0
LINE
  8
CSLAYER1
  6
CONTINUOUS
 62
     3
 10
986.295637
 20
1734.670084
 11
712.762516
 21
1734.670084
  0
ARC
  8
CSLAYER1
  6
CONTINUOUS
 62
     3
 10
979.458239
 20
1781.170084
 40
40.000000
 50
-80.931278
 51
243.817766
  0
ARC
  8
CSLAYER1
  6
CONTINUOUS
 62
     3
 10
979.458239
 20
1781.170084
 40
47.000000
 50
-81.635125
 51
229.860785
  0
LINE
  8
CSLAYER1
  6
CONTINUOUS
 62
     3
 10
1132.762516
 20
1741.670084
 11
1009.449856
 21
1741.670084
  0
LINE
  8
CSLAYER1
  6
CONTINUOUS
 62
     3
 10
1132.762516
 20
1734.670084
 11
998.742964
 21
1734.670084
  0
LINE
  8
CSLAYER1
  6
CONTINUOUS
 62
     3
 10
1132.762516
 20
1712.670084
 11
953.865329
 21
1712.670084
  0
LINE
  8
CSLAYER1
  6
CONTINUOUS
 62
     3
 10
1132.762516
 20
1719.670084
 11
943.983538
 21
1719.670084
  0
TEXT
  8
CSLAYER1
 62
     3
 10
237.316376
 20
1628.429199
 40
50.000000
 41
1.028571
  1
電源コード
 50
0.000000
 51
0.000000
  7
EASYDRAW_FONT
 72
     5
 11
477.316376
 21
1628.429199
  0
TEXT
  8
CSLAYER1
 62
     3
 10
254.376923
 20
1558.297363
 40
50.000000
 41
1.036364
  1
長サ４ｍ
 50
0.000000
 51
0.000000
  7
EASYDRAW_FONT
 72
     5
 11
444.376923
 21
1558.297363
  0
LINE
  8
CSLAYER1
  6
CONTINUOUS
 62
     5
 10
496.378037
 20
1617.098575
 11
691.703725
 21
1564.761214
  0
LINE
  8
CSLAYER1
  6
CONTINUOUS
 62
     5
 10
691.703725
 20
1564.761214
 11
661.703725
 21
1564.761214
  0
LINE
  8
CSLAYER1
  6
CONTINUOUS
 62
     5
 10
691.703725
 20
1564.761214
 11
665.722963
 21
1579.761214
  0
LINE
  8
CSLAYER1
  6
CONTINUOUS
 62
     5
 10
299.331270
 20
2014.789035
 11
702.906500
 21
2014.789035
  0
LINE
  8
CSLAYER1
  6
CONTINUOUS
 62
     5
 10
219.699883
 20
1617.098575
 11
496.378037
 21
1617.098575
  0
LINE
  8
CSLAYER1
  6
CONTINUOUS
 62
     3
 10
1132.762516
 20
1611.670084
 11
1132.762516
 21
2111.670084
  0
LINE
  8
CSLAYER1
  6
CONTINUOUS
 62
     3
 10
707.365011
 20
1566.057845
 11
702.294383
 21
1564.148128
  0
LINE
  8
CSLAYER1
  6
CONTINUOUS
 62
     3
 10
702.294383
 20
1564.148128
 11
695.869752
 21
1563.969666
  0
LINE
  8
CSLAYER1
  6
CONTINUOUS
 62
     3
 10
708.419341
 20
1564.668743
 11
702.770282
 21
1562.304021
  0
LINE
  8
CSLAYER1
  6
CONTINUOUS
 62
     3
 10
702.770282
 20
1562.304021
 11
697.416422
 21
1560.995300
  0
LINE
  8
CSLAYER1
  6
CONTINUOUS
 62
     3
 10
709.261536
 20
1563.559134
 11
704.376440
 21
1560.697863
  0
LINE
  8
CSLAYER1
  6
CONTINUOUS
 62
     3
 10
704.376440
 20
1560.697863
 11
702.056434
 21
1557.366572
  0
LINE
  8
CSLAYER1
  6
PHANTOM
 62
     5
 10
2016.594185
 20
618.123154
 11
1146.801895
 21
618.123154
  0
LINE
  8
CSLAYER1
  6
PHANTOM
 62
     5
 10
2017.207846
 20
568.123154
 11
1148.547230
 21
568.123154
  0
LINE
  8
CSLAYER1
  6
CONTINUOUS
 62
     5
 10
2032.562516
 20
606.284335
 11
2032.562516
 21
618.123154
  0
LINE
  8
CSLAYER1
  6
CONTINUOUS
 62
     5
 10
2032.562516
 20
585.840187
 11
2032.562516
 21
600.179485
  0
LINE
  8
CSLAYER1
  6
CONTINUOUS
 62
     5
 10
1146.801895
 20
618.123154
 11
1132.562516
 21
618.123154
  0
LINE
  8
CSLAYER1
  6
CONTINUOUS
 62
     5
 10
1148.547230
 20
568.123154
 11
1132.562516
 21
568.123154
  0
LINE
  8
CSLAYER1
  6
CONTINUOUS
 62
     5
 10
1132.562516
 20
606.411444
 11
1132.562516
 21
618.123154
  0
LINE
  8
CSLAYER1
  6
CONTINUOUS
 62
     5
 10
1132.562516
 20
584.796137
 11
1132.562516
 21
599.295846
  0
DIMENSION
  8
CSLAYER1
 62
     3
  2
*D0000
 10
2132.762516
 20
2111.670084
 11
2122.762451
 21
1861.669922
 13
2032.762516
 23
1611.670084
 14
2032.762516
 24
2111.670084
 50
90.000000
 70
1
  0
DIMENSION
  8
CSLAYER1
 62
     3
  2
*D0001
 10
2132.562516
 20
618.123154
 11
2122.562500
 21
540.623108
 13
2032.562516
 23
463.123154
 14
2032.562516
 24
618.123154
 50
90.000000
 70
1
  0
DIMENSION
  8
CSLAYER1
 62
     3
  2
*D0002
 10
2132.562516
 20
618.123154
 11
2122.562500
 21
928.123108
 13
2132.562516
 23
1238.123154
 14
2132.562516
 24
618.123154
 50
90.000000
 70
1
  0
DIMENSION
  8
CSLAYER1
 62
     3
  2
*D0003
 10
2232.562516
 20
1238.123154
 11
2222.562500
 21
850.623108
 13
2032.562516
 23
463.123154
 14
2032.562516
 24
1238.123154
 50
90.000000
 70
1
  0
LINE
  8
CSLAYER1
  6
CENTER
 62
     5
 10
2055.175199
 20
1861.670084
 11
1103.680521
 21
1861.670084
  0
DIMENSION
  8
CSLAYER1
 62
     3
  2
*D0004
 10
2032.562516
 20
1338.123154
 11
1582.562500
 21
1348.123047
 13
1132.562516
 23
1238.123154
 14
2032.562516
 24
1238.123154
 70
1
  0
DIMENSION
  8
CSLAYER1
 62
     3
  2
*D0005
 10
832.762516
 20
363.123154
 11
582.762512
 21
373.123108
 13
332.762516
 23
463.123154
 14
832.762516
 24
463.123154
 52
270.000000
 70
1
  0
DIMENSION
  8
CSLAYER1
 62
     3
  2
*D0006
 10
2032.762516
 20
363.123154
 11
1582.762573
 21
373.123108
 13
1132.762516
 23
463.123154
 14
2032.762516
 24
463.123154
 52
270.000000
 70
1
  0
ARC
  8
CSLAYER1
  6
CONTINUOUS
 62
     3
 10
922.330388
 20
1672.670084
 40
47.000000
 50
-190.756396
 51
127.198537
  0
ARC
  8
CSLAYER1
  6
CONTINUOUS
 62
     3
 10
922.330388
 20
1672.670084
 40
40.000000
 50
-203.471057
 51
127.198537
  0
LINE
  8
CSLAYER1
  6
CONTINUOUS
 62
     3
 10
706.181258
 20
1567.617465
 11
893.915186
 21
1710.107716
  0
LINE
  8
CSLAYER1
  6
CONTINUOUS
 62
     3
 10
710.413309
 20
1562.041648
 11
898.147237
 21
1704.531899
  0
LINE
  8
CSLAYER1
  6
CONTINUOUS
 62
     3
 10
706.181258
 20
1567.617465
 11
710.413309
 21
1562.041648
  0
TEXT
  8
CSLAYER1
 62
     3
 10
2376.802002
 20
475.532043
 40
50.000000
 41
1.050000
  1
F.L
 50
0.000000
 51
0.000000
  7
EASYDRAW_FONT
 72
     5
 11
2516.802002
 21
475.532043
  0
LINE
  8
CSLAYER1
  6
CONTINUOUS
 62
     5
 10
659.727491
 20
1810.670084
 11
702.699569
 21
2013.810820
  0
LINE
  8
CSLAYER1
  6
CONTINUOUS
 62
     5
 10
659.727491
 20
1810.670084
 11
658.128224
 21
1840.627427
  0
LINE
  8
CSLAYER1
  6
CONTINUOUS
 62
     5
 10
659.727491
 20
1810.670084
 11
673.321156
 21
1837.413537
  0
TEXT
  8
CSLAYER1
 62
     3
 10
905.951416
 20
777.199036
 40
50.000000
 41
1.023529
  1
油圧ユニット
 50
0.000000
 51
0.000000
  7
EASYDRAW_FONT
 72
     5
 11
1195.951416
 21
777.199036
  0
LINE
  8
CSLAYER1
  6
CONTINUOUS
 62
     5
 10
894.566198
 20
768.763400
 11
1202.909189
 21
768.763400
  0
LINE
  8
CSLAYER1
  6
CONTINUOUS
 62
     5
 10
1391.636226
 20
608.923154
 11
1202.909189
 21
768.763400
  0
LINE
  8
CSLAYER1
  6
CONTINUOUS
 62
     5
 10
1391.636226
 20
608.923154
 11
1364.505377
 21
621.726163
  0
LINE
  8
CSLAYER1
  6
CONTINUOUS
 62
     5
 10
1391.636226
 20
608.923154
 11
1374.541726
 21
633.576309
  0
LINE
  8
CSLAYER1
  6
CONTINUOUS
 62
     3
 10
332.762516
 20
1238.123154
 11
332.762516
 21
1188.123154
  0
LINE
  8
CSLAYER1
  6
CONTINUOUS
 62
     3
 10
1153.282657
 20
557.479517
 11
1343.671658
 21
850.523154
  0
LINE
  8
CSLAYER1
  6
CONTINUOUS
 62
     3
 10
1201.978340
 20
513.123154
 11
1382.428554
 21
790.869173
  0
LINE
  8
CSLAYER1
  6
CONTINUOUS
 62
     3
 10
1150.949047
 20
513.123154
 11
1153.282657
 21
557.479517
  0
LINE
  8
CSLAYER1
  6
CONTINUOUS
 62
     3
 10
1611.574451
 20
1143.566792
 11
1613.918584
 21
1188.123154
  0
LINE
  8
CSLAYER1
  6
CENTER
 62
     5
 10
1598.094593
 20
1210.923154
 11
1166.762516
 21
490.123154
  0
ARC
  8
CSLAYER1
  6
CONTINUOUS
 62
     3
 10
1402.210639
 20
945.899614
 40
20.000000
 50
48.728034
 51
153.218365
  0
LINE
  8
CSLAYER1
  6
CONTINUOUS
 62
     3
 10
1370.806234
 20
928.066021
 11
1384.356033
 21
954.911442
  0
LINE
  8
CSLAYER1
  6
CONTINUOUS
 62
     3
 10
1190.040391
 20
523.034255
 11
1171.578012
 21
539.890724
  0
LINE
  8
CSLAYER1
  6
CONTINUOUS
 62
     3
 10
1206.896860
 20
541.496634
 11
1188.434481
 21
558.353103
  0
LINE
  8
CSLAYER1
  6
CONTINUOUS
 62
     3
 10
1190.040391
 20
523.034255
 11
1206.896860
 21
541.496634
  0
LINE
  8
CSLAYER1
  6
CONTINUOUS
 62
     3
 10
1171.578012
 20
539.890724
 11
1188.434481
 21
558.353103
  0
LINE
  8
CSLAYER1
  6
CONTINUOUS
 62
     5
 10
1202.471094
 20
528.611122
 11
1176.730448
 21
552.112774
  0
LINE
  8
CSLAYER1
  6
CONTINUOUS
 62
     3
 10
1153.282657
 20
1143.566792
 11
1562.878768
 21
513.123154
  0
LINE
  8
CSLAYER1
  6
CONTINUOUS
 62
     3
 10
1201.848401
 20
1188.123154
 11
1611.574451
 21
557.479517
  0
LINE
  8
CSLAYER1
  6
CONTINUOUS
 62
     3
 10
1150.938525
 20
1188.123154
 11
1153.282657
 21
1143.566792
  0
LINE
  8
CSLAYER1
  6
CONTINUOUS
 62
     3
 10
1611.574451
 20
557.479517
 11
1613.908062
 21
513.123154
  0
LINE
  8
CSLAYER1
  6
CENTER
 62
     5
 10
1598.094593
 20
490.123154
 11
1166.762516
 21
1210.923154
  0
LINE
  8
CSLAYER1
  6
CONTINUOUS
 62
     3
 10
1623.332007
 20
556.286766
 11
1620.528364
 21
547.015554
  0
ARC
  8
CSLAYER1
  6
CONTINUOUS
 62
     3
 10
1620.460434
 20
557.155138
 40
3.000000
 50
-16.825477
 51
98.232139
  0
LINE
  8
CSLAYER1
  6
CONTINUOUS
 62
     3
 10
1620.030882
 20
560.124227
 11
1610.730391
 21
558.778680
  0
ARC
  8
CSLAYER1
  6
CONTINUOUS
 62
     3
 10
1572.420064
 20
533.027916
 40
20.000000
 50
193.446534
 51
232.576632
  0
ARC
  8
CSLAYER1
  6
CONTINUOUS
 62
     3
 10
1625.065563
 20
517.107757
 40
30.250000
 50
-7.569134
 51
115.051597
  0
LINE
  8
CSLAYER1
  6
CONTINUOUS
 62
     3
 10
1535.918332
 20
542.857644
 11
1541.945966
 21
545.342581
  0
LINE
  8
CSLAYER1
  6
CONTINUOUS
 62
     3
 10
1532.082481
 20
545.602866
 11
1539.728846
 21
548.755137
  0
LINE
  8
CSLAYER1
  6
CONTINUOUS
 62
     3
 10
1466.731428
 20
780.419531
 11
1499.478166
 21
793.919617
  0
LINE
  8
CSLAYER1
  6
CONTINUOUS
 62
     3
 10
1513.845244
 20
707.902715
 11
1534.648557
 21
716.479036
  0
LINE
  8
CSLAYER1
  6
CONTINUOUS
 62
     3
 10
1499.988239
 20
729.231190
 11
1523.733299
 21
739.020268
  0
LINE
  8
CSLAYER1
  6
CONTINUOUS
 62
     3
 10
1525.691784
 20
738.205200
 11
1534.648557
 21
716.479036
  0
LINE
  8
CSLAYER1
  6
CONTINUOUS
 62
     3
 10
1501.436652
 20
793.104549
 11
1523.733299
 21
739.020268
  0
LINE
  8
CSLAYER1
  6
CONTINUOUS
 62
     3
 10
1500.819659
 20
727.951482
 11
1525.691784
 21
738.205200
  0
LINE
  8
CSLAYER1
  6
CONTINUOUS
 62
     3
 10
1525.691784
 20
738.205200
 11
1523.733299
 21
739.020268
  0
LINE
  8
CSLAYER1
  6
CONTINUOUS
 62
     3
 10
1501.436652
 20
793.104549
 11
1499.478166
 21
793.919617
  0
LINE
  8
CSLAYER1
  6
CONTINUOUS
 62
     3
 10
1467.562848
 20
779.139822
 11
1501.436652
 21
793.104549
  0
LINE
  8
CSLAYER1
  6
CONTINUOUS
 62
     3
 10
1515.250355
 20
586.432030
 11
1532.082481
 21
545.602866
  0
LINE
  8
CSLAYER1
  6
CONTINUOUS
 62
     3
 10
1532.337263
 20
715.526187
 11
1573.044187
 21
616.784670
  0
LINE
  8
CSLAYER1
  6
CONTINUOUS
 62
     3
 10
1534.393775
 20
546.555714
 11
1535.918332
 21
542.857644
  0
LINE
  8
CSLAYER1
  6
CONTINUOUS
 62
     3
 10
1538.229626
 20
543.810492
 11
1556.786929
 21
520.553740
  0
LINE
  8
CSLAYER1
  6
CENTER
 62
     5
 10
1402.210640
 20
945.899612
 11
1572.420064
 21
533.027916
  0
LINE
  8
CSLAYER1
  6
CONTINUOUS
 62
     3
 10
1450.175854
 20
895.144709
 11
1493.006543
 21
791.251642
  0
LINE
  8
CSLAYER1
  6
CONTINUOUS
 62
     3
 10
1379.481471
 20
958.162246
 11
1409.694238
 21
970.617684
  0
LINE
  8
CSLAYER1
  6
CONTINUOUS
 62
     3
 10
1417.694370
 20
964.457702
 11
1409.694238
 21
970.617684
  0
LINE
  8
CSLAYER1
  6
CONTINUOUS
 62
     3
 10
1377.192002
 20
940.993719
 11
1379.481471
 21
958.162246
  0
LINE
  8
CSLAYER1
  6
CONTINUOUS
 62
     3
 10
1476.762516
 20
608.923154
 11
1319.762516
 21
608.923154
  0
LINE
  8
CSLAYER1
  6
CONTINUOUS
 62
     3
 10
1487.762516
 20
567.673154
 11
1487.762516
 21
518.973154
  0
LINE
  8
CSLAYER1
  6
CONTINUOUS
 62
     3
 10
1476.762516
 20
608.923154
 11
1476.762516
 21
513.123154
  0
LINE
  8
CSLAYER1
  6
CONTINUOUS
 62
     3
 10
1487.762516
 20
518.973154
 11
1476.762516
 21
518.973154
  0
LINE
  8
CSLAYER1
  6
CONTINUOUS
 62
     3
 10
1487.762516
 20
567.673154
 11
1476.762516
 21
567.673154
  0
LINE
  8
CSLAYER1
  6
CONTINUOUS
 62
     5
 10
1487.762516
 20
603.323154
 11
1472.159894
 21
603.323154
  0
LINE
  8
CSLAYER1
  6
CONTINUOUS
 62
     5
 10
1482.462516
 20
605.823154
 11
1482.462516
 21
600.823154
  0
LINE
  8
CSLAYER1
  6
CONTINUOUS
 62
     5
 10
1477.762516
 20
608.323154
 11
1477.762516
 21
598.323154
  0
LINE
  8
CSLAYER1
  6
CONTINUOUS
 62
     5
 10
1478.762516
 20
608.323154
 11
1478.762516
 21
598.323154
  0
LINE
  8
CSLAYER1
  6
CONTINUOUS
 62
     5
 10
1480.062516
 20
608.323154
 11
1476.762516
 21
608.323154
  0
LINE
  8
CSLAYER1
  6
CONTINUOUS
 62
     5
 10
1480.062516
 20
598.323154
 11
1476.762516
 21
598.323154
  0
LINE
  8
CSLAYER1
  6
CONTINUOUS
 62
     5
 10
1480.062516
 20
608.323154
 11
1480.062516
 21
598.323154
  0
LINE
  8
CSLAYER1
  6
CONTINUOUS
 62
     5
 10
1480.462516
 20
607.823154
 11
1480.062516
 21
607.823154
  0
LINE
  8
CSLAYER1
  6
CONTINUOUS
 62
     5
 10
1480.462516
 20
598.823154
 11
1480.062516
 21
598.823154
  0
ARC
  8
CSLAYER1
  6
CONTINUOUS
 62
     5
 10
1480.462516
 20
605.823154
 40
2.000000
 50
0.000000
 51
90.000000
  0
ARC
  8
CSLAYER1
  6
CONTINUOUS
 62
     5
 10
1480.462516
 20
600.823154
 40
2.000000
 50
270.000000
 51
360.000000
  0
LINE
  8
CSLAYER1
  6
CONTINUOUS
 62
     5
 10
1478.762516
 20
602.197321
 11
1480.062516
 21
604.448987
  0
LINE
  8
CSLAYER1
  6
CONTINUOUS
 62
     5
 10
1466.762516
 20
581.905107
 11
1466.762516
 21
541.473558
  0
LINE
  8
CSLAYER1
  6
CONTINUOUS
 62
     5
 10
1444.762516
 20
603.323154
 11
1444.762516
 21
551.323154
  0
LINE
  8
CSLAYER1
  6
CONTINUOUS
 62
     5
 10
1408.762516
 20
581.905107
 11
1408.762516
 21
580.300867
  0
LINE
  8
CSLAYER1
  6
CONTINUOUS
 62
     5
 10
1453.763346
 20
547.033884
 11
1459.762516
 21
547.033884
  0
LINE
  8
CSLAYER1
  6
CONTINUOUS
 62
     5
 10
1426.762516
 20
583.405107
 11
1462.762516
 21
583.405107
  0
LINE
  8
CSLAYER1
  6
CONTINUOUS
 62
     5
 10
1454.544523
 20
543.685981
 11
1462.762516
 21
543.685981
  0
ARC
  8
CSLAYER1
  6
CONTINUOUS
 62
     5
 10
1444.762516
 20
565.219496
 40
12.500000
 50
-170.165413
 51
140.165413
  0
LINE
  8
CSLAYER1
  6
CONTINUOUS
 62
     5
 10
1462.762516
 20
583.405107
 11
1462.762516
 21
543.685981
  0
LINE
  8
CSLAYER1
  6
CONTINUOUS
 62
     5
 10
1459.762516
 20
583.405107
 11
1459.762516
 21
547.033884
  0
LINE
  8
CSLAYER1
  6
CONTINUOUS
 62
     5
 10
1426.762516
 20
583.405107
 11
1426.762516
 21
575.477781
  0
LINE
  8
CSLAYER1
  6
CONTINUOUS
 62
     5
 10
1412.762516
 20
581.905107
 11
1412.762516
 21
579.229070
  0
ARC
  8
CSLAYER1
  6
CONTINUOUS
 62
     5
 10
1444.762516
 20
565.219496
 40
5.250000
 50
-105.000000
 51
75.000000
  0
LINE
  8
CSLAYER1
  6
CONTINUOUS
 62
     5
 10
1412.762516
 20
581.905107
 11
1426.762516
 21
583.405107
  0
LINE
  8
CSLAYER1
  6
CONTINUOUS
 62
     5
 10
1459.762516
 20
547.033884
 11
1462.762516
 21
543.685981
  0
LINE
  8
CSLAYER1
  6
CONTINUOUS
 62
     5
 10
1410.762516
 20
583.905107
 11
1427.695224
 21
583.905107
  0
ARC
  8
CSLAYER1
  6
CONTINUOUS
 62
     5
 10
1444.762516
 20
570.249472
 40
20.284880
 50
47.545857
 51
84.719619
  0
CIRCLE
  8
CSLAYER1
  6
CONTINUOUS
 62
     5
 10
1444.762516
 20
588.099861
 40
3.000000
  0
ARC
  8
CSLAYER1
  6
CONTINUOUS
 62
     5
 10
1444.762516
 20
547.030948
 40
16.796254
 50
314.594132
 51
324.821469
  0
LINE
  8
CSLAYER1
  6
CONTINUOUS
 62
     5
 10
1438.047213
 20
588.099861
 11
1450.808292
 21
588.099861
  0
ARC
  8
CSLAYER1
  6
CONTINUOUS
 62
     5
 10
1444.762516
 20
570.249472
 40
20.284880
 50
95.280381
 51
132.454143
  0
LINE
  8
CSLAYER1
  6
CONTINUOUS
 62
     5
 10
1461.829808
 20
583.905107
 11
1464.762516
 21
583.905107
  0
ARC
  8
CSLAYER1
  6
CONTINUOUS
 62
     5
 10
1427.695224
 20
588.905107
 40
5.000000
 50
270.000000
 51
312.454143
  0
ARC
  8
CSLAYER1
  6
CONTINUOUS
 62
     5
 10
1461.829808
 20
588.905107
 40
5.000000
 50
227.545857
 51
270.000000
  0
LINE
  8
CSLAYER1
  6
CONTINUOUS
 62
     5
 10
1462.577921
 20
539.473558
 11
1464.762516
 21
539.473558
  0
ARC
  8
CSLAYER1
  6
CONTINUOUS
 62
     5
 10
1462.577921
 20
534.473558
 40
5.000000
 50
90.000000
 51
144.821469
  0
LINE
  8
CSLAYER1
  6
CONTINUOUS
 62
     5
 10
1412.762516
 20
568.358670
 11
1412.762516
 21
551.323154
  0
LINE
  8
CSLAYER1
  6
CONTINUOUS
 62
     5
 10
1408.762516
 20
569.430467
 11
1408.762516
 21
551.323154
  0
LINE
  8
CSLAYER1
  6
CONTINUOUS
 62
     5
 10
1426.762516
 20
564.607381
 11
1426.762516
 21
551.323154
  0
LINE
  8
CSLAYER1
  6
CONTINUOUS
 62
     5
 10
1432.704921
 20
565.219496
 11
1459.762516
 21
565.219496
  0
LINE
  8
CSLAYER1
  6
CONTINUOUS
 62
     3
 10
1181.767652
 20
601.323154
 11
1157.762516
 21
601.323154
  0
LINE
  8
CSLAYER1
  6
CONTINUOUS
 62
     2
 10
1185.016127
 20
606.323154
 11
1164.762516
 21
606.323154
  0
LINE
  8
CSLAYER1
  6
CONTINUOUS
 62
     2
 10
1164.762516
 20
606.323154
 11
1164.762516
 21
601.323154
  0
LINE
  8
CSLAYER1
  6
CONTINUOUS
 62
     2
 10
1181.762516
 20
606.323154
 11
1181.762516
 21
601.323154
  0
LINE
  8
CSLAYER1
  6
CONTINUOUS
 62
     2
 10
1169.762516
 20
606.323154
 11
1169.762516
 21
601.323154
  0
CIRCLE
  8
CSLAYER1
  6
CONTINUOUS
 62
     2
 10
1175.762516
 20
602.323154
 40
0.500000
  0
LINE
  8
CSLAYER1
  6
CONTINUOUS
 62
     5
 10
1468.762516
 20
608.923154
 11
1468.762516
 21
513.123154
  0
LINE
  8
CSLAYER1
  6
CONTINUOUS
 62
     3
 10
1152.432663
 20
541.323154
 11
1144.762516
 21
541.323154
  0
ARC
  8
CSLAYER1
  6
CONTINUOUS
 62
     5
 10
1410.762516
 20
581.905107
 40
2.000000
 50
90.000000
 51
180.000000
  0
ARC
  8
CSLAYER1
  6
CONTINUOUS
 62
     5
 10
1464.762516
 20
541.473558
 40
2.000000
 50
270.000000
 51
360.000000
  0
ARC
  8
CSLAYER1
  6
CONTINUOUS
 62
     5
 10
1464.762516
 20
581.905107
 40
2.000000
 50
0.000000
 51
90.000000
  0
LINE
  8
CSLAYER1
  6
CONTINUOUS
 62
     5
 10
1482.462516
 20
545.823154
 11
1482.462516
 21
540.823154
  0
LINE
  8
CSLAYER1
  6
CONTINUOUS
 62
     5
 10
1477.762516
 20
548.323154
 11
1477.762516
 21
538.323154
  0
LINE
  8
CSLAYER1
  6
CONTINUOUS
 62
     5
 10
1478.762516
 20
548.323154
 11
1478.762516
 21
538.323154
  0
LINE
  8
CSLAYER1
  6
CONTINUOUS
 62
     5
 10
1480.062516
 20
548.323154
 11
1476.762516
 21
548.323154
  0
LINE
  8
CSLAYER1
  6
CONTINUOUS
 62
     5
 10
1480.062516
 20
538.323154
 11
1476.762516
 21
538.323154
  0
LINE
  8
CSLAYER1
  6
CONTINUOUS
 62
     5
 10
1480.062516
 20
548.323154
 11
1480.062516
 21
538.323154
  0
LINE
  8
CSLAYER1
  6
CONTINUOUS
 62
     5
 10
1480.462516
 20
547.823154
 11
1480.062516
 21
547.823154
  0
LINE
  8
CSLAYER1
  6
CONTINUOUS
 62
     5
 10
1480.462516
 20
538.823154
 11
1480.062516
 21
538.823154
  0
ARC
  8
CSLAYER1
  6
CONTINUOUS
 62
     5
 10
1480.462516
 20
545.823154
 40
2.000000
 50
0.000000
 51
90.000000
  0
ARC
  8
CSLAYER1
  6
CONTINUOUS
 62
     5
 10
1480.462516
 20
540.823154
 40
2.000000
 50
270.000000
 51
360.000000
  0
LINE
  8
CSLAYER1
  6
CONTINUOUS
 62
     5
 10
1478.762516
 20
542.197321
 11
1480.062516
 21
544.448987
  0
LINE
  8
CSLAYER1
  6
CONTINUOUS
 62
     5
 10
1175.762516
 20
608.923154
 11
1175.762516
 21
598.535683
  0
LINE
  8
CSLAYER1
  6
CENTER
 62
     5
 10
1495.235469
 20
543.323154
 11
1132.762516
 21
543.323154
  0
LINE
  8
CSLAYER1
  6
CONTINUOUS
 62
     3
 10
1144.762516
 20
541.323154
 11
1145.884272
 21
513.123154
  0
LINE
  8
CSLAYER1
  6
CONTINUOUS
 62
     3
 10
1140.762516
 20
541.323154
 11
1141.906437
 21
513.123154
  0
ARC
  8
CSLAYER1
  6
CONTINUOUS
 62
     3
 10
1157.762516
 20
586.323154
 40
15.000000
 50
90.000000
 51
180.000000
  0
LINE
  8
CSLAYER1
  6
CONTINUOUS
 62
     3
 10
1140.762516
 20
541.323154
 11
1142.777094
 21
586.984314
  0
LINE
  8
CSLAYER1
  6
CONTINUOUS
 62
     5
 10
1379.289249
 20
588.198205
 11
1446.121316
 21
570.290606
  0
LINE
  8
CSLAYER1
  6
CONTINUOUS
 62
     5
 10
1371.500601
 20
584.849967
 11
1444.762516
 21
565.219496
  0
LINE
  8
CSLAYER1
  6
CONTINUOUS
 62
     5
 10
1373.597916
 20
578.852793
 11
1443.403716
 21
560.148385
  0
LINE
  8
CSLAYER1
  6
CONTINUOUS
 62
     3
 10
1132.562516
 20
1238.123154
 11
2032.562516
 21
1238.123154
  0
LINE
  8
CSLAYER1
  6
CONTINUOUS
 62
     3
 10
1132.562516
 20
1188.123154
 11
2032.562516
 21
1188.123154
  0
LINE
  8
CSLAYER1
  6
CONTINUOUS
 62
     3
 10
1132.562516
 20
1238.123154
 11
1132.562516
 21
1188.123154
  0
LINE
  8
CSLAYER1
  6
CONTINUOUS
 62
     3
 10
2032.562516
 20
1238.123154
 11
2032.562516
 21
1188.123154
  0
LINE
  8
CSLAYER1
  6
CONTINUOUS
 62
     5
 10
1147.349279
 20
1210.923154
 11
1187.228120
 21
1210.923154
  0
LINE
  8
CSLAYER1
  6
CONTINUOUS
 62
     5
 10
1166.762516
 20
1228.836506
 11
1166.762516
 21
1193.505252
  0
LINE
  8
CSLAYER1
  6
CONTINUOUS
 62
     5
 10
1580.999244
 20
1210.923154
 11
1618.291392
 21
1210.923154
  0
LINE
  8
CSLAYER1
  6
CONTINUOUS
 62
     5
 10
1598.094593
 20
1228.514486
 11
1598.094593
 21
1195.581161
  0
LINE
  8
CSLAYER1
  6
CONTINUOUS
 62
     3
 10
1382.428554
 20
910.177135
 11
1563.008707
 21
1188.123154
  0
LINE
  8
CSLAYER1
  6
CONTINUOUS
 62
     3
 10
1421.185450
 20
850.523154
 11
1611.574451
 21
1143.566792
  0
LINE
  8
CSLAYER1
  6
CONTINUOUS
 62
     5
 10
1369.363900
 20
945.899618
 11
1429.492120
 21
945.899618
  0
CIRCLE
  8
CSLAYER1
  6
CONTINUOUS
 62
     3
 10
1382.428554
 20
850.523154
 40
15.000000
  0
LINE
  8
CSLAYER1
  6
CONTINUOUS
 62
     5
 10
1343.671658
 20
850.523154
 11
1424.941038
 21
850.523154
  0
LINE
  8
CSLAYER1
  6
CONTINUOUS
 62
     5
 10
1382.428554
 20
892.785287
 11
1382.428554
 21
810.365259
  0
LINE
  8
CSLAYER1
  6
CONTINUOUS
 62
     5
 10
1355.822412
 20
846.050126
 11
1383.631774
 21
846.050126
  0
LINE
  8
CSLAYER1
  6
CONTINUOUS
 62
     5
 10
1370.428887
 20
870.575826
 11
1370.428887
 21
830.470483
  0
ARC
  8
CSLAYER1
  6
CONTINUOUS
 62
     3
 10
1402.210639
 20
945.899614
 40
12.500000
 50
43.698696
 51
250.278138
  0
LINE
  8
CSLAYER1
  6
CONTINUOUS
 62
     5
 10
1625.065563
 20
552.006861
 11
1625.065563
 21
496.622324
  0
LINE
  8
CSLAYER1
  6
CONTINUOUS
 62
     5
 10
1556.703670
 20
533.027916
 11
1589.261305
 21
533.027916
  0
LINE
  8
CSLAYER1
  6
CONTINUOUS
 62
     5
 10
1572.420064
 20
553.259925
 11
1572.420064
 21
514.748894
  0
LINE
  8
CSLAYER1
  6
CONTINUOUS
 62
     5
 10
1598.094593
 20
509.370725
 11
1598.094593
 21
471.718471
  0
LINE
  8
CSLAYER1
  6
CONTINUOUS
 62
     5
 10
1620.596138
 20
490.123154
 11
1573.753177
 21
490.123154
  0
LINE
  8
CSLAYER1
  6
CONTINUOUS
 62
     5
 10
1601.325300
 20
517.107757
 11
1661.788377
 21
517.107757
  0
LINE
  8
CSLAYER1
  6
CONTINUOUS
 62
     3
 10
774.762516
 20
558.353103
 11
803.762516
 21
558.353103
  0
LINE
  8
CSLAYER1
  6
CONTINUOUS
 62
     3
 10
774.762516
 20
539.890724
 11
803.762516
 21
539.890724
  0
LINE
  8
CSLAYER1
  6
CONTINUOUS
 62
     3
 10
774.762516
 20
523.034255
 11
803.762516
 21
523.034255
  0
LINE
  8
CSLAYER1
  6
CONTINUOUS
 62
     3
 10
803.762516
 20
558.353103
 11
803.762516
 21
523.034255
  0
LINE
  8
CSLAYER1
  6
CONTINUOUS
 62
     3
 10
781.762516
 20
523.034255
 11
781.762516
 21
513.123154
  0
LINE
  8
CSLAYER1
  6
CONTINUOUS
 62
     3
 10
793.762516
 20
523.034255
 11
793.762516
 21
513.123154
  0
INSERT
  8
CSLAYER1
  2
BLKF0002
 10
0.0
 20
0.0
 30
0.0
  0
LINE
  8
CSLAYER1
  6
CONTINUOUS
 62
     5
 10
791.762516
 20
555.284322
 11
791.762516
 21
542.799418
  0
LINE
  8
CSLAYER1
  6
CONTINUOUS
 62
     5
 10
783.744078
 20
549.121914
 11
800.187610
 21
549.121914
  0
LINE
  8
CSLAYER1
  6
CONTINUOUS
 62
     3
 10
390.762516
 20
558.353103
 11
361.762516
 21
558.353103
  0
LINE
  8
CSLAYER1
  6
CONTINUOUS
 62
     3
 10
390.762516
 20
539.890724
 11
361.762516
 21
539.890724
  0
LINE
  8
CSLAYER1
  6
CONTINUOUS
 62
     3
 10
390.762516
 20
523.034255
 11
361.762516
 21
523.034255
  0
LINE
  8
CSLAYER1
  6
CONTINUOUS
 62
     3
 10
361.762516
 20
558.353103
 11
361.762516
 21
523.034255
  0
INSERT
  8
CSLAYER1
  2
BLKF0003
 10
0.0
 20
0.0
 30
0.0
  0
LINE
  8
CSLAYER1
  6
CONTINUOUS
 62
     5
 10
373.762516
 20
555.284322
 11
373.762516
 21
542.799418
  0
LINE
  8
CSLAYER1
  6
CONTINUOUS
 62
     5
 10
381.780955
 20
549.121914
 11
365.337423
 21
549.121914
  0
LINE
  8
CSLAYER1
  6
CONTINUOUS
 62
     3
 10
371.762516
 20
523.034255
 11
371.762516
 21
513.123154
  0
LINE
  8
CSLAYER1
  6
CONTINUOUS
 62
     3
 10
383.762516
 20
523.034255
 11
383.762516
 21
513.123154
  0
ARC
  8
CSLAYER1
  6
CONTINUOUS
 62
     3
 10
611.262516
 20
600.323154
 40
7.500000
 50
60.034358
 51
88.397139
  0
ARC
  8
CSLAYER1
  6
CONTINUOUS
 62
     3
 10
504.262516
 20
600.323154
 40
7.500000
 50
91.602861
 51
119.965642
  0
LINE
  8
CSLAYER1
  6
CONTINUOUS
 62
     3
 10
504.262516
 20
609.323154
 11
613.262516
 21
609.323154
  0
LINE
  8
CSLAYER1
  6
CONTINUOUS
 62
     3
 10
466.262516
 20
605.323154
 11
557.762516
 21
609.323154
  0
LINE
  8
CSLAYER1
  6
CONTINUOUS
 62
     3
 10
557.762516
 20
609.323154
 11
649.262516
 21
605.323154
  0
LINE
  8
CSLAYER1
  6
CONTINUOUS
 62
     3
 10
460.262516
 20
541.323154
 11
480.833527
 21
541.323154
  0
LINE
  8
CSLAYER1
  6
CONTINUOUS
 62
     3
 10
649.262516
 20
605.323154
 11
655.262516
 21
541.323154
  0
LINE
  8
CSLAYER1
  6
CONTINUOUS
 62
     3
 10
466.262516
 20
605.323154
 11
460.262516
 21
541.323154
  0
LINE
  8
CSLAYER1
  6
CONTINUOUS
 62
     3
 10
628.527747
 20
541.323154
 11
655.262516
 21
541.323154
  0
LINE
  8
CSLAYER1
  6
CONTINUOUS
 62
     2
 10
462.453141
 20
586.023154
 11
464.453141
 21
586.023154
  0
LINE
  8
CSLAYER1
  6
CONTINUOUS
 62
     2
 10
462.453141
 20
604.623154
 11
464.453141
 21
604.623154
  0
LINE
  8
CSLAYER1
  6
CONTINUOUS
 62
     2
 10
464.453141
 20
604.623154
 11
464.453141
 21
586.023154
  0
LINE
  8
CSLAYER1
  6
CONTINUOUS
 62
     2
 10
462.453141
 20
604.623154
 11
462.453141
 21
586.023154
  0
LINE
  8
CSLAYER1
  6
CONTINUOUS
 62
     2
 10
458.953141
 20
600.923154
 11
458.953141
 21
589.723154
  0
LINE
  8
CSLAYER1
  6
CONTINUOUS
 62
     2
 10
458.953141
 20
589.723154
 11
462.453141
 21
589.723154
  0
LINE
  8
CSLAYER1
  6
CONTINUOUS
 62
     2
 10
458.953141
 20
600.923154
 11
462.453141
 21
600.923154
  0
LINE
  8
CSLAYER1
  6
CONTINUOUS
 62
     2
 10
458.953141
 20
598.323154
 11
462.453141
 21
598.323154
  0
LINE
  8
CSLAYER1
  6
CONTINUOUS
 62
     2
 10
458.953141
 20
592.323154
 11
462.453141
 21
592.323154
  0
LINE
  8
CSLAYER1
  6
CONTINUOUS
 62
     2
 10
464.453141
 20
600.073154
 11
465.770329
 21
600.073154
  0
LINE
  8
CSLAYER1
  6
CONTINUOUS
 62
     2
 10
464.453141
 20
599.073154
 11
465.676579
 21
599.073154
  0
LINE
  8
CSLAYER1
  6
CONTINUOUS
 62
     5
 10
455.363186
 20
595.323154
 11
467.511885
 21
595.323154
  0
LINE
  8
CSLAYER1
  6
CONTINUOUS
 62
     3
 10
460.262516
 20
541.323154
 11
462.906266
 21
513.123154
  0
LINE
  8
CSLAYER1
  6
CONTINUOUS
 62
     3
 10
655.262516
 20
541.323154
 11
652.618766
 21
513.123154
  0
LINE
  8
CSLAYER1
  6
CONTINUOUS
 62
     3
 10
613.262516
 20
609.323154
 11
613.262516
 21
607.551570
  0
LINE
  8
CSLAYER1
  6
CONTINUOUS
 62
     3
 10
504.262516
 20
609.323154
 11
504.262516
 21
607.826090
  0
LINE
  8
CSLAYER1
  6
CONTINUOUS
 62
     5
 10
507.262516
 20
608.923154
 11
507.262516
 21
589.676182
  0
LINE
  8
CSLAYER1
  6
CONTINUOUS
 62
     2
 10
518.262516
 20
606.323154
 11
496.262516
 21
606.323154
  0
LINE
  8
CSLAYER1
  6
CONTINUOUS
 62
     2
 10
500.749796
 20
598.823154
 11
491.762516
 21
598.823154
  0
LINE
  8
CSLAYER1
  6
CONTINUOUS
 62
     2
 10
496.262516
 20
606.323154
 11
496.262516
 21
601.323154
  0
LINE
  8
CSLAYER1
  6
CONTINUOUS
 62
     2
 10
518.262516
 20
606.323154
 11
518.262516
 21
601.323154
  0
LINE
  8
CSLAYER1
  6
CONTINUOUS
 62
     2
 10
513.262516
 20
606.323154
 11
513.262516
 21
601.323154
  0
LINE
  8
CSLAYER1
  6
CONTINUOUS
 62
     2
 10
501.262516
 20
606.323154
 11
501.262516
 21
601.323154
  0
LINE
  8
CSLAYER1
  6
CONTINUOUS
 62
     2
 10
491.762516
 20
601.323154
 11
491.762516
 21
598.823154
  0
LINE
  8
CSLAYER1
  6
CONTINUOUS
 62
     2
 10
522.762516
 20
601.323154
 11
522.762516
 21
599.785459
  0
LINE
  8
CSLAYER1
  6
CONTINUOUS
 62
     2
 10
522.762516
 20
601.323154
 11
491.762516
 21
601.323154
  0
LINE
  8
CSLAYER1
  6
CONTINUOUS
 62
     3
 10
478.567986
 20
597.853458
 11
557.762516
 21
601.315514
  0
LINE
  8
CSLAYER1
  6
CONTINUOUS
 62
     3
 10
557.762516
 20
601.315514
 11
636.957047
 21
597.853458
  0
ARC
  8
CSLAYER1
  6
CONTINUOUS
 62
     3
 10
479.223098
 20
582.867770
 40
15.000000
 50
92.503140
 51
174.644175
  0
ARC
  8
CSLAYER1
  6
CONTINUOUS
 62
     3
 10
636.301935
 20
582.867770
 40
15.000000
 50
5.355825
 51
87.496860
  0
LINE
  8
CSLAYER1
  6
CONTINUOUS
 62
     3
 10
557.762516
 20
609.323154
 11
611.472303
 21
607.820220
  0
LINE
  8
CSLAYER1
  6
CONTINUOUS
 62
     3
 10
557.762516
 20
609.323154
 11
504.052730
 21
607.820220
  0
LINE
  8
CSLAYER1
  6
CONTINUOUS
 62
     1
 10
655.262516
 20
551.523154
 11
655.262516
 21
578.123154
  0
LINE
  8
CSLAYER1
  6
CONTINUOUS
 62
     1
 10
659.262516
 20
559.049651
 11
659.262516
 21
570.596657
  0
LINE
  8
CSLAYER1
  6
CONTINUOUS
 62
     1
 10
661.262516
 20
561.823154
 11
661.262516
 21
567.823154
  0
LINE
  8
CSLAYER1
  6
CONTINUOUS
 62
     1
 10
655.262516
 20
578.123154
 11
651.812516
 21
578.123154
  0
LINE
  8
CSLAYER1
  6
CONTINUOUS
 62
     1
 10
655.262516
 20
559.088174
 11
653.597046
 21
559.088174
  0
LINE
  8
CSLAYER1
  6
CONTINUOUS
 62
     1
 10
655.262516
 20
557.298340
 11
653.764843
 21
557.298340
  0
LINE
  8
CSLAYER1
  6
CONTINUOUS
 62
     1
 10
655.262516
 20
551.523154
 11
654.306266
 21
551.523154
  0
LINE
  8
CSLAYER1
  6
CONTINUOUS
 62
     1
 10
659.262516
 20
570.596657
 11
655.262516
 21
570.596657
  0
LINE
  8
CSLAYER1
  6
CONTINUOUS
 62
     1
 10
659.262516
 20
567.709906
 11
655.262516
 21
567.709906
  0
LINE
  8
CSLAYER1
  6
CONTINUOUS
 62
     7
 10
659.262516
 20
561.936403
 11
655.262516
 21
561.936403
  0
LINE
  8
CSLAYER1
  6
CONTINUOUS
 62
     1
 10
659.262516
 20
559.049651
 11
655.262516
 21
559.049651
  0
LINE
  8
CSLAYER1
  6
CONTINUOUS
 62
     1
 10
659.262516
 20
567.823154
 11
661.262516
 21
567.823154
  0
LINE
  8
CSLAYER1
  6
CONTINUOUS
 62
     7
 10
659.262516
 20
561.823154
 11
661.262516
 21
561.823154
  0
LINE
  8
CSLAYER1
  6
CONTINUOUS
 62
     1
 10
686.762516
 20
515.573154
 11
686.762516
 21
519.073154
  0
LINE
  8
CSLAYER1
  6
CONTINUOUS
 62
     1
 10
683.362516
 20
513.123154
 11
683.362516
 21
529.823154
  0
LINE
  8
CSLAYER1
  6
CONTINUOUS
 62
     1
 10
682.962516
 20
513.123154
 11
682.962516
 21
533.823154
  0
LINE
  8
CSLAYER1
  6
CONTINUOUS
 62
     1
 10
682.962516
 20
529.823154
 11
683.362516
 21
529.823154
  0
LINE
  8
CSLAYER1
  6
CONTINUOUS
 62
     1
 10
683.362516
 20
522.073154
 11
683.762516
 21
522.073154
  0
ARC
  8
CSLAYER1
  6
CONTINUOUS
 62
     1
 10
683.762516
 20
519.073154
 40
3.000000
 50
0.000000
 51
90.000000
  0
ARC
  8
CSLAYER1
  6
CONTINUOUS
 62
     1
 10
683.762516
 20
515.573154
 40
3.000000
 50
305.247507
 51
360.000000
  0
LINE
  8
CSLAYER1
  6
CONTINUOUS
 62
     1
 10
682.962516
 20
527.823154
 11
654.025328
 21
528.126479
  0
LINE
  8
CSLAYER1
  6
CONTINUOUS
 62
     1
 10
654.642881
 20
534.713709
 11
682.962516
 21
533.823154
  0
LINE
  8
CSLAYER1
  6
CONTINUOUS
 62
     5
 10
664.268483
 20
564.823154
 11
646.037825
 21
564.823154
  0
LINE
  8
CSLAYER1
  6
CONTINUOUS
 62
     1
 10
452.762516
 20
513.123154
 11
452.762516
 21
524.138109
  0
LINE
  8
CSLAYER1
  6
CONTINUOUS
 62
     1
 10
462.333690
 20
519.230631
 11
452.762516
 21
519.230631
  0
LINE
  8
CSLAYER1
  6
CONTINUOUS
 62
     1
 10
461.873614
 20
524.138109
 11
452.762516
 21
524.138109
  0
LINE
  8
CSLAYER1
  6
CONTINUOUS
 62
     5
 10
446.077561
 20
514.323154
 11
471.262516
 21
514.323154
  0
LINE
  8
CSLAYER1
  6
CONTINUOUS
 62
     5
 10
643.244751
 20
517.323154
 11
691.291201
 21
517.323154
  0
LINE
  8
CSLAYER1
  6
CONTINUOUS
 62
     1
 10
655.262516
 20
570.558135
 11
652.521737
 21
570.558135
  0
LINE
  8
CSLAYER1
  6
CONTINUOUS
 62
     1
 10
655.262516
 20
572.347969
 11
652.353940
 21
572.347969
  0
LINE
  8
CSLAYER1
  6
CENTER
 62
     5
 10
557.762516
 20
626.727866
 11
557.762516
 21
463.123154
  0
LINE
  8
CSLAYER1
  6
CENTER
 62
     5
 10
674.137779
 20
543.323154
 11
441.191359
 21
543.323154
  0
LINE
  8
CSLAYER1
  6
CONTINUOUS
 62
     5
 10
1166.762516
 20
504.500360
 11
1166.762516
 21
474.808828
  0
LINE
  8
CSLAYER1
  6
CONTINUOUS
 62
     5
 10
1186.842639
 20
490.123154
 11
1148.448417
 21
490.123154
  0
LINE
  8
CSLAYER1
  6
CONTINUOUS
 62
     3
 10
402.762516
 20
547.357757
 11
421.762516
 21
547.357757
  0
LINE
  8
CSLAYER1
  6
CENTER
 62
     5
 10
383.762516
 20
517.107757
 11
781.762516
 21
517.107757
  0
LINE
  8
CSLAYER1
  6
CONTINUOUS
 62
     3
 10
743.762516
 20
547.357757
 11
762.762516
 21
547.357757
  0
CIRCLE
  8
CSLAYER1
  6
CONTINUOUS
 62
     3
 10
1382.428554
 20
850.523154
 40
8.000000
  0
LINE
  8
CSLAYER1
  6
CONTINUOUS
 62
     3
 10
1279.762516
 20
609.323154
 11
1279.762516
 21
513.123154
  0
LINE
  8
CSLAYER1
  6
CONTINUOUS
 62
     3
 10
1319.762516
 20
609.323154
 11
1319.762516
 21
527.323154
  0
LINE
  8
CSLAYER1
  6
CONTINUOUS
 62
     3
 10
1319.762516
 20
609.323154
 11
1264.479004
 21
609.323154
  0
LINE
  8
CSLAYER1
  6
CONTINUOUS
 62
     3
 10
1244.762516
 20
578.975858
 11
1244.762516
 21
553.323154
  0
LINE
  8
CSLAYER1
  6
CONTINUOUS
 62
     3
 10
1270.762516
 20
609.323154
 11
1270.762516
 21
560.046843
  0
LINE
  8
CSLAYER1
  6
CONTINUOUS
 62
     3
 10
1270.762516
 20
523.511910
 11
1270.762516
 21
513.123154
  0
LINE
  8
CSLAYER1
  6
CONTINUOUS
 62
     3
 10
1270.762516
 20
573.323154
 11
1244.762516
 21
573.323154
  0
LINE
  8
CSLAYER1
  6
CONTINUOUS
 62
     5
 10
1267.662516
 20
597.323154
 11
1263.662516
 21
597.323154
  0
LINE
  8
CSLAYER1
  6
CONTINUOUS
 62
     5
 10
1269.162516
 20
594.573154
 11
1263.662516
 21
594.573154
  0
LINE
  8
CSLAYER1
  6
CONTINUOUS
 62
     5
 10
1267.662516
 20
603.323154
 11
1263.662516
 21
603.323154
  0
LINE
  8
CSLAYER1
  6
CONTINUOUS
 62
     5
 10
1269.162516
 20
606.073154
 11
1263.662516
 21
606.073154
  0
LINE
  8
CSLAYER1
  6
CONTINUOUS
 62
     5
 10
1269.162516
 20
606.573154
 11
1269.162516
 21
594.073154
  0
LINE
  8
CSLAYER1
  6
CONTINUOUS
 62
     5
 10
1267.662516
 20
606.073154
 11
1267.662516
 21
594.573154
  0
LINE
  8
CSLAYER1
  6
CONTINUOUS
 62
     5
 10
1263.662516
 20
606.073154
 11
1263.662516
 21
594.573154
  0
LINE
  8
CSLAYER1
  6
CONTINUOUS
 62
     5
 10
1270.762516
 20
606.573154
 11
1269.162516
 21
606.573154
  0
LINE
  8
CSLAYER1
  6
CONTINUOUS
 62
     5
 10
1270.762516
 20
594.073154
 11
1269.162516
 21
594.073154
  0
LINE
  8
CSLAYER1
  6
CONTINUOUS
 62
     5
 10
1284.158383
 20
600.323154
 11
1260.555026
 21
600.323154
  0
LINE
  8
CSLAYER1
  6
CONTINUOUS
 62
     3
 10
1244.762516
 20
533.323154
 11
1244.762516
 21
513.123154
  0
LINE
  8
CSLAYER1
  6
CONTINUOUS
 62
     5
 10
1322.262516
 20
517.323154
 11
1279.762516
 21
517.323154
  0
LINE
  8
CSLAYER1
  6
CONTINUOUS
 62
     5
 10
1319.762516
 20
564.823154
 11
1279.762516
 21
564.823154
  0
CIRCLE
  8
CSLAYER1
  6
CONTINUOUS
 62
     1
 10
1301.262516
 20
595.823154
 40
3.500000
  0
ARC
  8
CSLAYER1
  6
CONTINUOUS
 62
     1
 10
1301.262516
 20
595.823154
 40
10.000000
 50
-69.512685
 51
249.512685
  0
CIRCLE
  8
CSLAYER1
  6
CONTINUOUS
 62
     1
 10
1301.262516
 20
564.823154
 40
17.000000
  0
CIRCLE
  8
CSLAYER1
  6
CONTINUOUS
 62
     1
 10
1301.262516
 20
564.823154
 40
12.000000
  0
ARC
  8
CSLAYER1
  6
CONTINUOUS
 62
     1
 10
1301.262516
 20
564.823154
 40
13.300000
 50
0.000000
 51
4.456163
  0
LINE
  8
CSLAYER1
  6
CONTINUOUS
 62
     1
 10
1297.762516
 20
586.455657
 11
1297.762516
 21
581.458959
  0
LINE
  8
CSLAYER1
  6
CONTINUOUS
 62
     1
 10
1304.762516
 20
586.455657
 11
1304.762516
 21
581.458959
  0
LINE
  8
CSLAYER1
  6
CONTINUOUS
 62
     5
 10
1314.898084
 20
595.823154
 11
1288.958683
 21
595.823154
  0
LINE
  8
CSLAYER1
  6
CONTINUOUS
 62
     1
 10
1319.762516
 20
592.823154
 11
1310.801908
 21
592.823154
  0
LINE
  8
CSLAYER1
  6
CONTINUOUS
 62
     1
 10
1291.723124
 20
592.823154
 11
1279.762516
 21
592.823154
  0
CIRCLE
  8
CSLAYER1
  6
CONTINUOUS
 62
     1
 10
1301.262516
 20
564.823154
 40
5.000000
  0
LINE
  8
CSLAYER1
  6
CONTINUOUS
 62
     1
 10
1306.997497
 20
576.823154
 11
1295.527536
 21
576.823154
  0
LINE
  8
CSLAYER1
  6
CONTINUOUS
 62
     1
 10
1306.997497
 20
552.823154
 11
1295.527536
 21
552.823154
  0
LINE
  8
CSLAYER1
  6
CONTINUOUS
 62
     1
 10
1314.522311
 20
565.856515
 11
1308.787331
 21
575.789793
  0
LINE
  8
CSLAYER1
  6
CONTINUOUS
 62
     1
 10
1293.737702
 20
553.856515
 11
1288.002721
 21
563.789793
  0
LINE
  8
CSLAYER1
  6
CONTINUOUS
 62
     1
 10
1288.002721
 20
565.856515
 11
1293.737702
 21
575.789793
  0
LINE
  8
CSLAYER1
  6
CONTINUOUS
 62
     1
 10
1308.787331
 20
553.856515
 11
1314.522311
 21
563.789793
  0
LINE
  8
CSLAYER1
  6
CONTINUOUS
 62
     1
 10
1295.489014
 20
564.823154
 11
1298.375765
 21
569.823154
  0
LINE
  8
CSLAYER1
  6
CONTINUOUS
 62
     1
 10
1304.149268
 20
559.823154
 11
1307.036019
 21
564.823154
  0
LINE
  8
CSLAYER1
  6
CONTINUOUS
 62
     1
 10
1298.375765
 20
559.823154
 11
1295.489014
 21
564.823154
  0
LINE
  8
CSLAYER1
  6
CONTINUOUS
 62
     1
 10
1307.036019
 20
564.823154
 11
1304.149268
 21
569.823154
  0
LINE
  8
CSLAYER1
  6
CONTINUOUS
 62
     1
 10
1304.149268
 20
569.823154
 11
1298.375765
 21
569.823154
  0
LINE
  8
CSLAYER1
  6
CONTINUOUS
 62
     1
 10
1304.149268
 20
559.823154
 11
1298.375765
 21
559.823154
  0
CIRCLE
  8
CSLAYER1
  6
CONTINUOUS
 62
     1
 10
1301.262516
 20
564.823154
 40
3.000000
  0
LINE
  8
CSLAYER1
  6
CONTINUOUS
 62
     1
 10
1302.128542
 20
566.323154
 11
1300.396491
 21
566.323154
  0
LINE
  8
CSLAYER1
  6
CONTINUOUS
 62
     1
 10
1302.128542
 20
563.323154
 11
1300.396491
 21
563.323154
  0
LINE
  8
CSLAYER1
  6
CONTINUOUS
 62
     1
 10
1299.530465
 20
564.823154
 11
1300.396491
 21
566.323154
  0
LINE
  8
CSLAYER1
  6
CONTINUOUS
 62
     1
 10
1302.128542
 20
563.323154
 11
1302.994567
 21
564.823154
  0
LINE
  8
CSLAYER1
  6
CONTINUOUS
 62
     1
 10
1299.530465
 20
564.823154
 11
1300.396491
 21
563.323154
  0
LINE
  8
CSLAYER1
  6
CONTINUOUS
 62
     1
 10
1302.128542
 20
566.323154
 11
1302.994567
 21
564.823154
  0
ARC
  8
CSLAYER1
  6
CONTINUOUS
 62
     1
 10
1301.262516
 20
564.823154
 40
13.300000
 50
115.543837
 51
124.456163
  0
ARC
  8
CSLAYER1
  6
CONTINUOUS
 62
     1
 10
1301.262516
 20
564.823154
 40
13.300000
 50
55.543837
 51
64.456163
  0
ARC
  8
CSLAYER1
  6
CONTINUOUS
 62
     1
 10
1301.262516
 20
564.823154
 40
13.300000
 50
175.543837
 51
184.456163
  0
ARC
  8
CSLAYER1
  6
CONTINUOUS
 62
     7
 10
1301.262516
 20
564.823154
 40
13.300000
 50
355.543837
 51
360.000000
  0
ARC
  8
CSLAYER1
  6
CONTINUOUS
 62
     1
 10
1301.262516
 20
564.823154
 40
13.300000
 50
295.543837
 51
304.456163
  0
ARC
  8
CSLAYER1
  6
CONTINUOUS
 62
     1
 10
1301.262516
 20
564.823154
 40
13.300000
 50
235.543837
 51
244.456163
  0
LINE
  8
CSLAYER1
  6
CONTINUOUS
 62
     1
 10
1306.762516
 20
548.737446
 11
1306.762516
 21
535.323154
  0
LINE
  8
CSLAYER1
  6
CONTINUOUS
 62
     1
 10
1283.262516
 20
528.323154
 11
1283.262516
 21
513.123154
  0
LINE
  8
CSLAYER1
  6
CONTINUOUS
 62
     1
 10
1319.262516
 20
528.323154
 11
1319.262516
 21
513.123154
  0
LINE
  8
CSLAYER1
  6
CONTINUOUS
 62
     1
 10
1312.262516
 20
535.323154
 11
1290.262516
 21
535.323154
  0
ARC
  8
CSLAYER1
  6
CONTINUOUS
 62
     1
 10
1301.262516
 20
517.323154
 40
12.500000
 50
-19.633359
 51
199.633359
  0
ARC
  8
CSLAYER1
  6
CONTINUOUS
 62
     1
 10
1301.262516
 20
517.323154
 40
4.750000
 50
-62.154524
 51
242.154524
  0
LINE
  8
CSLAYER1
  6
CONTINUOUS
 62
     1
 10
1284.762516
 20
527.823154
 11
1284.762516
 21
513.123154
  0
LINE
  8
CSLAYER1
  6
CONTINUOUS
 62
     1
 10
1317.762516
 20
527.823154
 11
1317.762516
 21
513.123154
  0
LINE
  8
CSLAYER1
  6
CONTINUOUS
 62
     1
 10
1311.762516
 20
533.823154
 11
1290.762516
 21
533.823154
  0
LINE
  8
CSLAYER1
  6
CONTINUOUS
 62
     1
 10
1302.128542
 20
518.823154
 11
1300.396491
 21
518.823154
  0
LINE
  8
CSLAYER1
  6
CONTINUOUS
 62
     1
 10
1302.128542
 20
515.823154
 11
1300.396491
 21
515.823154
  0
LINE
  8
CSLAYER1
  6
CONTINUOUS
 62
     1
 10
1302.128542
 20
515.823154
 11
1302.994567
 21
517.323154
  0
LINE
  8
CSLAYER1
  6
CONTINUOUS
 62
     1
 10
1299.530465
 20
517.323154
 11
1300.396491
 21
518.823154
  0
LINE
  8
CSLAYER1
  6
CONTINUOUS
 62
     1
 10
1299.530465
 20
517.323154
 11
1300.396491
 21
515.823154
  0
LINE
  8
CSLAYER1
  6
CONTINUOUS
 62
     1
 10
1302.128542
 20
518.823154
 11
1302.994567
 21
517.323154
  0
LINE
  8
CSLAYER1
  6
CONTINUOUS
 62
     1
 10
1290.762516
 20
533.823154
 11
1284.762516
 21
527.823154
  0
LINE
  8
CSLAYER1
  6
CONTINUOUS
 62
     1
 10
1311.762516
 20
533.823154
 11
1317.762516
 21
527.823154
  0
LINE
  8
CSLAYER1
  6
CONTINUOUS
 62
     1
 10
1283.262516
 20
528.323154
 11
1290.262516
 21
535.323154
  0
LINE
  8
CSLAYER1
  6
CONTINUOUS
 62
     1
 10
1312.262516
 20
535.323154
 11
1319.262516
 21
528.323154
  0
LINE
  8
CSLAYER1
  6
CONTINUOUS
 62
     1
 10
1322.262516
 20
527.323154
 11
1322.262516
 21
513.123154
  0
LINE
  8
CSLAYER1
  6
CONTINUOUS
 62
     1
 10
1324.762516
 20
525.323154
 11
1324.762516
 21
513.123154
  0
LINE
  8
CSLAYER1
  6
CONTINUOUS
 62
     1
 10
1322.262516
 20
527.323154
 11
1319.262516
 21
527.323154
  0
LINE
  8
CSLAYER1
  6
CONTINUOUS
 62
     1
 10
1324.762516
 20
525.323154
 11
1322.262516
 21
525.323154
  0
LINE
  8
CSLAYER1
  6
CONTINUOUS
 62
     5
 10
1339.762516
 20
521.323154
 11
1317.762516
 21
521.323154
  0
LINE
  8
CSLAYER1
  6
CONTINUOUS
 62
     5
 10
1339.762516
 20
513.323154
 11
1317.762516
 21
513.323154
  0
LINE
  8
CSLAYER1
  6
CONTINUOUS
 62
     1
 10
1339.762516
 20
519.823154
 11
1324.762516
 21
519.823154
  0
LINE
  8
CSLAYER1
  6
CONTINUOUS
 62
     1
 10
1340.112516
 20
522.823154
 11
1324.762516
 21
522.823154
  0
LINE
  8
CSLAYER1
  6
CONTINUOUS
 62
     1
 10
1339.762516
 20
514.823154
 11
1324.762516
 21
514.823154
  0
LINE
  8
CSLAYER1
  6
CONTINUOUS
 62
     5
 10
1326.262516
 20
519.823154
 11
1326.262516
 21
514.823154
  0
ARC
  8
CSLAYER1
  6
CONTINUOUS
 62
     1
 10
1300.102860
 20
543.388283
 40
12.340516
 50
139.190298
 51
220.809702
  0
LINE
  8
CSLAYER1
  6
CONTINUOUS
 62
     1
 10
1284.262516
 20
564.823154
 11
1284.262516
 21
529.323154
  0
LINE
  8
CSLAYER1
  6
CONTINUOUS
 62
     5
 10
1326.262516
 20
608.923154
 11
1326.262516
 21
522.823154
  0
LINE
  8
CSLAYER1
  6
CONTINUOUS
 62
     5
 10
1301.262516
 20
609.323154
 11
1301.262516
 21
513.123154
  0
LINE
  8
CSLAYER1
  6
CONTINUOUS
 62
     3
 10
688.762516
 20
876.300126
 11
746.762516
 21
876.300126
  0
LINE
  8
CSLAYER1
  6
CONTINUOUS
 62
     3
 10
688.762516
 20
965.899614
 11
688.762516
 21
866.722212
  0
LINE
  8
CSLAYER1
  6
CONTINUOUS
 62
     3
 10
679.762516
 20
965.899614
 11
679.762516
 21
866.722212
  0
LINE
  8
CSLAYER1
  6
CONTINUOUS
 62
     3
 10
703.762516
 20
970.617684
 11
703.762516
 21
928.399609
  0
LINE
  8
CSLAYER1
  6
CONTINUOUS
 62
     3
 10
688.762516
 20
965.899614
 11
679.762516
 21
965.899614
  0
LINE
  8
CSLAYER1
  6
CONTINUOUS
 62
     3
 10
688.762516
 20
866.722212
 11
679.762516
 21
866.722212
  0
LINE
  8
CSLAYER1
  6
CONTINUOUS
 62
     3
 10
688.762516
 20
869.053355
 11
679.762516
 21
869.053355
  0
LINE
  8
CSLAYER1
  6
CONTINUOUS
 62
     5
 10
668.774210
 20
945.899609
 11
766.750822
 21
945.899609
  0
LINE
  8
CSLAYER1
  6
CONTINUOUS
 62
     3
 10
703.762516
 20
963.399609
 11
688.762516
 21
963.399609
  0
LINE
  8
CSLAYER1
  6
CONTINUOUS
 62
     3
 10
703.762516
 20
928.399609
 11
688.762516
 21
928.399609
  0
LINE
  8
CSLAYER1
  6
CONTINUOUS
 62
     3
 10
703.762516
 20
970.617684
 11
731.762516
 21
970.617684
  0
LINE
  8
CSLAYER1
  6
CONTINUOUS
 62
     3
 10
703.762516
 20
958.162246
 11
731.762516
 21
958.162246
  0
LINE
  8
CSLAYER1
  6
CONTINUOUS
 62
     3
 10
692.762516
 20
928.399609
 11
692.762516
 21
876.300126
  0
LINE
  8
CSLAYER1
  6
CONTINUOUS
 62
     3
 10
692.762516
 20
815.800126
 11
692.762516
 21
781.723160
  0
LINE
  8
CSLAYER1
  6
CONTINUOUS
 62
     3
 10
742.762516
 20
815.800126
 11
742.762516
 21
781.723160
  0
ARC
  8
CSLAYER1
  6
CONTINUOUS
 62
     3
 10
717.762516
 20
809.755331
 40
37.560652
 50
228.272384
 51
311.727616
  0
LINE
  8
CSLAYER1
  6
CONTINUOUS
 62
     3
 10
684.262516
 20
781.723160
 11
684.262516
 21
724.865326
  0
LINE
  8
CSLAYER1
  6
CONTINUOUS
 62
     3
 10
751.262516
 20
781.723160
 11
751.262516
 21
724.865326
  0
ARC
  8
CSLAYER1
  6
CONTINUOUS
 62
     3
 10
717.762516
 20
819.286268
 40
50.331273
 50
228.272384
 51
311.727616
  0
ARC
  8
CSLAYER1
  6
CONTINUOUS
 62
     3
 10
717.762516
 20
744.160052
 40
50.331273
 50
119.782512
 51
131.727616
  0
ARC
  8
CSLAYER1
  6
CONTINUOUS
 62
     3
 10
717.762516
 20
744.160052
 40
50.331273
 50
48.272384
 51
60.217488
  0
LINE
  8
CSLAYER1
  6
CONTINUOUS
 62
     3
 10
682.762516
 20
724.865326
 11
682.762516
 21
703.139161
  0
LINE
  8
CSLAYER1
  6
CONTINUOUS
 62
     3
 10
752.762516
 20
724.865326
 11
752.762516
 21
703.139161
  0
ARC
  8
CSLAYER1
  6
CONTINUOUS
 62
     3
 10
717.762516
 20
762.428434
 40
50.331273
 50
228.272384
 51
311.727616
  0
ARC
  8
CSLAYER1
  6
CONTINUOUS
 62
     3
 10
717.762516
 20
764.110364
 40
52.584913
 50
228.272384
 51
311.727616
  0
ARC
  8
CSLAYER1
  6
CONTINUOUS
 62
     3
 10
717.762516
 20
742.384200
 40
52.584913
 50
228.272384
 51
311.727616
  0
ARC
  8
CSLAYER1
  6
CONTINUOUS
 62
     3
 10
717.762516
 20
685.620287
 40
52.584913
 50
129.573300
 51
131.727616
  0
ARC
  8
CSLAYER1
  6
CONTINUOUS
 62
     3
 10
717.762516
 20
685.620287
 40
52.584913
 50
48.272384
 51
50.426700
  0
LINE
  8
CSLAYER1
  6
CONTINUOUS
 62
     3
 10
746.762516
 20
965.899614
 11
746.762516
 21
866.722212
  0
LINE
  8
CSLAYER1
  6
CONTINUOUS
 62
     3
 10
731.762516
 20
970.617684
 11
731.762516
 21
928.399609
  0
LINE
  8
CSLAYER1
  6
CONTINUOUS
 62
     3
 10
746.762516
 20
965.899614
 11
762.762516
 21
965.899614
  0
LINE
  8
CSLAYER1
  6
CONTINUOUS
 62
     3
 10
746.762516
 20
866.722212
 11
762.762516
 21
866.722212
  0
LINE
  8
CSLAYER1
  6
CONTINUOUS
 62
     3
 10
746.762516
 20
869.053355
 11
762.762516
 21
869.053355
  0
LINE
  8
CSLAYER1
  6
CONTINUOUS
 62
     3
 10
731.762516
 20
963.399609
 11
746.762516
 21
963.399609
  0
LINE
  8
CSLAYER1
  6
CONTINUOUS
 62
     3
 10
731.762516
 20
928.399609
 11
746.762516
 21
928.399609
  0
LINE
  8
CSLAYER1
  6
CONTINUOUS
 62
     3
 10
742.762516
 20
928.399609
 11
742.762516
 21
876.300126
  0
LINE
  8
CSLAYER1
  6
CONTINUOUS
 62
     3
 10
750.262516
 20
701.045077
 11
750.262516
 21
573.734560
  0
LINE
  8
CSLAYER1
  6
CONTINUOUS
 62
     3
 10
685.262516
 20
701.045077
 11
685.262516
 21
573.734560
  0
LINE
  8
CSLAYER1
  6
CENTER
 62
     5
 10
447.762516
 20
984.955165
 11
447.762516
 21
453.345534
  0
LINE
  8
CSLAYER1
  6
CENTER
 62
     5
 10
717.762516
 20
984.955165
 11
717.762516
 21
453.345534
  0
LINE
  8
CSLAYER1
  6
CONTINUOUS
 62
     3
 10
703.762516
 20
564.188361
 11
703.762516
 21
551.323154
  0
LINE
  8
CSLAYER1
  6
CONTINUOUS
 62
     3
 10
691.762516
 20
569.263116
 11
691.762516
 21
551.323154
  0
LINE
  8
CSLAYER1
  6
CONTINUOUS
 62
     3
 10
743.762516
 20
569.263116
 11
743.762516
 21
513.123154
  0
LINE
  8
CSLAYER1
  6
CONTINUOUS
 62
     3
 10
731.762516
 20
564.188361
 11
731.762516
 21
513.123154
  0
LINE
  8
CSLAYER1
  6
CONTINUOUS
 62
     3
 10
708.260995
 20
531.333299
 11
731.762516
 21
531.333299
  0
LINE
  8
CSLAYER1
  6
CONTINUOUS
 62
     5
 10
685.262516
 20
551.333299
 11
750.262516
 21
551.333299
  0
ARC
  8
CSLAYER1
  6
CONTINUOUS
 62
     3
 10
717.762516
 20
614.018659
 40
51.759624
 50
231.104454
 51
308.895546
  0
ARC
  8
CSLAYER1
  6
CONTINUOUS
 62
     3
 10
717.762516
 20
616.878280
 40
51.759624
 50
231.104454
 51
308.895546
  0
LINE
  8
CSLAYER1
  6
CONTINUOUS
 62
     3
 10
461.762516
 20
564.188361
 11
461.762516
 21
557.323154
  0
LINE
  8
CSLAYER1
  6
CONTINUOUS
 62
     5
 10
480.262516
 20
551.333299
 11
415.262516
 21
551.333299
  0
ARC
  8
CSLAYER1
  6
CONTINUOUS
 62
     3
 10
447.762516
 20
614.018659
 40
51.759624
 50
231.104454
 51
286.454927
  0
ARC
  8
CSLAYER1
  6
CONTINUOUS
 62
     3
 10
447.762516
 20
616.878280
 40
51.759624
 50
231.104454
 51
286.773533
  0
LINE
  8
CSLAYER1
  6
CONTINUOUS
 62
     3
 10
433.762516
 20
564.188361
 11
433.762516
 21
513.123154
  0
LINE
  8
CSLAYER1
  6
CONTINUOUS
 62
     3
 10
421.762516
 20
569.263116
 11
421.762516
 21
513.123154
  0
LINE
  8
CSLAYER1
  6
CONTINUOUS
 62
     3
 10
461.199065
 20
531.333299
 11
433.762516
 21
531.333299
  0
LINE
  8
CSLAYER1
  6
CONTINUOUS
 62
     5
 10
3354.260236
 20
2191.054554
 11
2633.387719
 21
2191.054554
  0
LINE
  8
CSLAYER1
  6
CONTINUOUS
 62
     5
 10
3354.260236
 20
2127.054556
 11
2633.387719
 21
2127.054556
  0
LINE
  8
CSLAYER1
  6
CONTINUOUS
 62
     5
 10
3354.260236
 20
2063.054557
 11
2633.387719
 21
2063.054557
  0
LINE
  8
CSLAYER1
  6
CONTINUOUS
 62
     5
 10
3354.260236
 20
1999.054559
 11
2634.260254
 21
1999.054559
  0
LINE
  8
CSLAYER1
  6
CONTINUOUS
 62
     5
 10
3354.260236
 20
1935.054561
 11
2633.387719
 21
1935.054561
  0
LINE
  8
CSLAYER1
  6
CONTINUOUS
 62
     5
 10
3354.260236
 20
1871.054562
 11
2633.387719
 21
1871.054562
  0
LINE
  8
CSLAYER1
  6
CONTINUOUS
 62
     5
 10
3354.260236
 20
1807.054564
 11
2633.387719
 21
1807.054564
  0
LINE
  8
CSLAYER1
  6
CONTINUOUS
 62
     5
 10
3354.260236
 20
1743.054565
 11
2633.387719
 21
1743.054565
  0
LINE
  8
CSLAYER1
  6
CONTINUOUS
 62
     5
 10
3354.260236
 20
1679.054567
 11
2633.387719
 21
1679.054567
  0
LINE
  8
CSLAYER1
  6
CONTINUOUS
 62
     5
 10
3354.260236
 20
1615.054569
 11
2633.387719
 21
1615.054569
  0
LINE
  8
CSLAYER1
  6
CONTINUOUS
 62
     5
 10
3354.260236
 20
1551.054570
 11
2633.387719
 21
1551.054570
  0
TEXT
  8
CSLAYER1
 62
     3
 10
2829.111572
 20
2270.873535
 40
40.000000
 41
0.857143
  1
仕   様
 50
0.000000
 51
0.000000
  7
EASYDRAW_FONT
 72
     5
 11
2989.111572
 21
2270.873535
  0
TEXT
  8
CSLAYER1
 62
     3
 10
2644.146973
 20
2199.277588
 40
40.000000
 41
0.847059
  1
型    式
 50
0.000000
 51
0.000000
  7
EASYDRAW_FONT
 72
     5
 11
2836.146973
 21
2199.277588
  0
TEXT
  8
CSLAYER1
 62
     3
 10
2642.327393
 20
2076.787598
 40
40.000000
 41
0.847059
  1
テーブル寸法
 50
0.000000
 51
0.000000
  7
EASYDRAW_FONT
 72
     5
 11
2834.327393
 21
2076.787598
  0
TEXT
  8
CSLAYER1
 62
     3
 10
2644.146973
 20
2013.723633
 40
40.000000
 41
0.847059
  1
テーブル高サ
 50
0.000000
 51
0.000000
  7
EASYDRAW_FONT
 72
     5
 11
2836.146973
 21
2013.723633
  0
TEXT
  8
CSLAYER1
 62
     3
 10
2645.593994
 20
1948.840820
 40
40.000000
 41
0.857143
  1
ストローク
 50
0.000000
 51
0.000000
  7
EASYDRAW_FONT
 72
     5
 11
2805.593994
 21
1948.840820
  0
TEXT
  8
CSLAYER1
 62
     3
 10
2644.987549
 20
1883.958008
 40
40.000000
 41
0.857143
  1
全   長
 50
0.000000
 51
0.000000
  7
EASYDRAW_FONT
 72
     5
 11
2804.987549
 21
1883.958008
  0
TEXT
  8
CSLAYER1
 62
     3
 10
2647.258789
 20
1818.107178
 40
40.000000
 41
0.857143
  1
全   巾
 50
0.000000
 51
0.000000
  7
EASYDRAW_FONT
 72
     5
 11
2807.258789
 21
1818.107178
  0
TEXT
  8
CSLAYER1
 62
     3
 10
2645.700928
 20
1754.222046
 40
40.000000
 41
0.857143
  1
全   高
 50
0.000000
 51
0.000000
  7
EASYDRAW_FONT
 72
     5
 11
2805.700928
 21
1754.222046
  0
TEXT
  8
CSLAYER1
 62
     3
 10
2645.700928
 20
1691.895508
 40
40.000000
 41
0.857143
  1
リフト方式
 50
0.000000
 51
0.000000
  7
EASYDRAW_FONT
 72
     5
 11
2805.700928
 21
1691.895508
  0
TEXT
  8
CSLAYER1
 62
     3
 10
2644.560791
 20
1561.007935
 40
40.000000
 41
0.872727
  1
モーター
 50
0.000000
 51
0.000000
  7
EASYDRAW_FONT
 72
     5
 11
2772.560791
 21
1561.007935
  0
LINE
  8
CSLAYER1
  6
CONTINUOUS
 62
     5
 10
3354.260236
 20
1487.054572
 11
2633.387719
 21
1487.054572
  0
LINE
  8
CSLAYER1
  6
CONTINUOUS
 62
     5
 10
3354.260236
 20
1359.054575
 11
2631.249217
 21
1359.054575
  0
LINE
  8
CSLAYER1
  6
CONTINUOUS
 62
     5
 10
3354.260236
 20
1295.054577
 11
2633.387719
 21
1295.054577
  0
LINE
  8
CSLAYER1
  6
CONTINUOUS
 62
     5
 10
3354.260236
 20
1231.054578
 11
2633.387719
 21
1231.054578
  0
LINE
  8
CSLAYER1
  6
CONTINUOUS
 62
     5
 10
3354.260236
 20
1167.054580
 11
2633.387719
 21
1167.054580
  0
TEXT
  8
CSLAYER1
 62
     3
 10
2647.142090
 20
1242.176392
 40
40.000000
 41
0.857143
  1
自  　重
 50
0.000000
 51
0.000000
  7
EASYDRAW_FONT
 72
     5
 11
2807.142090
 21
1242.176392
  0
TEXT
  8
CSLAYER1
 62
     3
 10
2635.801025
 20
1178.837036
 40
40.000000
 41
0.825000
  1
塗装色（マンセル値） 
 50
0.000000
 51
0.000000
  7
EASYDRAW_FONT
 72
     5
 11
2987.801025
 21
1178.837036
  0
TEXT
  8
CSLAYER1
 62
     3
 10
3109.813721
 20
2135.393555
 40
40.000000
 41
0.872727
  1
1000
 50
0.000000
 51
0.000000
  7
EASYDRAW_FONT
 72
     5
 11
3237.813721
 21
2135.393555
  0
TEXT
  8
CSLAYER1
 62
     3
 10
3283.726074
 20
2134.112793
 40
40.000000
 41
0.960000
  1
Ｋｇ
 50
0.000000
 51
0.000000
  7
EASYDRAW_FONT
 72
     5
 11
3347.726074
 21
2134.112793
  0
TEXT
  8
CSLAYER1
 62
     3
 10
2966.627197
 20
2071.797119
 40
40.000000
 41
0.834783
  1
900 ×500
 50
0.000000
 51
0.000000
  7
EASYDRAW_FONT
 72
     5
 11
3222.627197
 21
2071.797119
  0
TEXT
  8
CSLAYER1
 62
     3
 10
3225.921631
 20
2083.620605
 40
40.000000
 41
1.200000
  1
Ｗ
 50
0.000000
 51
0.000000
  7
EASYDRAW_FONT
 72
     5
 11
3257.921631
 21
2083.620605
  0
TEXT
  8
CSLAYER1
 62
     3
 10
3059.505127
 20
2089.784180
 40
40.000000
 41
1.200000
  1
Ｌ
 50
0.000000
 51
0.000000
  7
EASYDRAW_FONT
 72
     5
 11
3091.505127
 21
2089.784180
  0
TEXT
  8
CSLAYER1
 62
     3
 10
2997.161133
 20
2010.749023
 40
40.000000
 41
0.840000
  1
155～760
 50
0.000000
 51
0.000000
  7
EASYDRAW_FONT
 72
     5
 11
3221.161133
 21
2010.749023
  0
TEXT
  8
CSLAYER1
 62
     3
 10
3127.749268
 20
1946.779907
 40
40.000000
 41
0.900000
  1
605
 50
0.000000
 51
0.000000
  7
EASYDRAW_FONT
 72
     5
 11
3223.749268
 21
1946.779907
  0
TEXT
  8
CSLAYER1
 62
     3
 10
3127.749268
 20
1881.770874
 40
40.000000
 41
0.900000
  1
900
 50
0.000000
 51
0.000000
  7
EASYDRAW_FONT
 72
     5
 11
3223.749268
 21
1881.770874
  0
TEXT
  8
CSLAYER1
 62
     3
 10
3125.526855
 20
1818.984131
 40
40.000000
 41
0.900000
  1
500
 50
0.000000
 51
0.000000
  7
EASYDRAW_FONT
 72
     5
 11
3221.526855
 21
1818.984131
  0
TEXT
  8
CSLAYER1
 62
     3
 10
2932.738037
 20
1692.850220
 40
40.000000
 41
0.830769
  1
電 動 油 圧 式
 50
0.000000
 51
0.000000
  7
EASYDRAW_FONT
 72
     5
 11
3220.738037
 21
1692.850220
  0
TEXT
  8
CSLAYER1
 62
     3
 10
2854.021484
 20
1564.647827
 40
40.000000
 41
0.817021
  1
ＡＣ2００Ｖ，3相,0.55ＫＷ
 50
0.000000
 51
0.000000
  7
EASYDRAW_FONT
 72
     5
 11
3366.021484
 21
1564.647827
  0
TEXT
  8
CSLAYER1
 62
     3
 10
3006.650391
 20
1498.081421
 40
40.000000
 41
0.840000
  1
長 サ ４ ｍ
 50
0.000000
 51
0.000000
  7
EASYDRAW_FONT
 72
     5
 11
3230.650391
 21
1498.081421
  0
TEXT
  8
CSLAYER1
 62
     3
 10
2852.817337
 20
1431.248119
 40
38.786964
 41
0.594698
  1
30ｓｅｃ／50ＨＺ,24sec/60HZ
 50
0.000000
 51
0.000000
  7
EASYDRAW_FONT
 72
     5
 11
3329.525925
 21
1431.248119
  0
TEXT
  8
CSLAYER1
 62
     3
 10
3101.321533
 20
1243.309937
 40
40.000000
 41
0.834783
  1
130  　Ｋｇ
 50
0.000000
 51
0.000000
  7
EASYDRAW_FONT
 72
     5
 11
3357.321533
 21
1243.309937
  0
TEXT
  8
CSLAYER1
 62
     3
 10
3123.518066
 20
1754.322876
 40
40.000000
 41
0.900000
  1
155
 50
0.000000
 51
0.000000
  7
EASYDRAW_FONT
 72
     5
 11
3219.518066
 21
1754.322876
  0
TEXT
  8
CSLAYER1
 62
     3
 10
3281.212158
 20
2070.009277
 40
40.000000
 41
0.960000
  1
mm
 50
0.000000
 51
0.000000
  7
EASYDRAW_FONT
 72
     5
 11
3345.212158
 21
2070.009277
  0
TEXT
  8
CSLAYER1
 62
     3
 10
3281.212158
 20
2009.675903
 40
40.000000
 41
0.960000
  1
mm
 50
0.000000
 51
0.000000
  7
EASYDRAW_FONT
 72
     5
 11
3345.212158
 21
2009.675903
  0
TEXT
  8
CSLAYER1
 62
     3
 10
3277.441162
 20
1945.572021
 40
40.000000
 41
0.960000
  1
mm
 50
0.000000
 51
0.000000
  7
EASYDRAW_FONT
 72
     5
 11
3341.441162
 21
1945.572021
  0
TEXT
  8
CSLAYER1
 62
     3
 10
3277.441162
 20
1877.697021
 40
40.000000
 41
0.960000
  1
mm
 50
0.000000
 51
0.000000
  7
EASYDRAW_FONT
 72
     5
 11
3341.441162
 21
1877.697021
  0
TEXT
  8
CSLAYER1
 62
     3
 10
3274.927734
 20
1817.364258
 40
40.000000
 41
0.960000
  1
mm
 50
0.000000
 51
0.000000
  7
EASYDRAW_FONT
 72
     5
 11
3338.927734
 21
1817.364258
  0
TEXT
  8
CSLAYER1
 62
     3
 10
3274.927734
 20
1753.259521
 40
40.000000
 41
0.960000
  1
mm
 50
0.000000
 51
0.000000
  7
EASYDRAW_FONT
 72
     5
 11
3338.927734
 21
1753.259521
  0
LINE
  8
CSLAYER1
  6
CONTINUOUS
 62
     5
 10
3017.164657
 20
2255.054553
 11
2808.778685
 21
2255.054553
  0
LINE
  8
CSLAYER1
  6
CONTINUOUS
 62
     5
 10
3017.164657
 20
2263.054552
 11
2808.778685
 21
2263.054552
  0
TEXT
  8
CSLAYER1
 62
     3
 10
2648.142578
 20
1624.893921
 40
40.000000
 41
1.036364
  1
操作方式
 50
0.000000
 51
0.000000
  7
EASYDRAW_FONT
 72
     5
 11
2800.142578
 21
1624.893921
  0
LINE
  8
CSLAYER1
  6
CONTINUOUS
 62
     5
 10
3354.260236
 20
1423.054573
 11
2633.387719
 21
1423.054573
  0
TEXT
  8
CSLAYER1
 62
     3
 10
2645.476807
 20
1497.690796
 40
40.000000
 41
0.942857
  1
電源コード
 50
0.000000
 51
0.000000
  7
EASYDRAW_FONT
 72
     5
 11
2821.476807
 21
1497.690796
  0
TEXT
  8
CSLAYER1
 62
     3
 10
3049.791504
 20
1178.022095
 40
40.000000
 41
0.930000
  1
１０Ｒ４／１３
 50
0.000000
 51
0.000000
  7
EASYDRAW_FONT
 72
     5
 11
3297.791504
 21
1178.022095
  0
TEXT
  8
CSLAYER1
 62
     3
 10
2642.859619
 20
1433.414185
 40
40.000000
 41
0.954545
  1
上昇時間
 50
0.000000
 51
0.000000
  7
EASYDRAW_FONT
 72
     5
 11
2782.859619
 21
1433.414185
  0
TEXT
  8
CSLAYER1
 62
     3
 10
2768.798096
 20
1371.723999
 40
40.000000
 41
0.917143
  1
上昇端リミットスイッチ付
 50
0.000000
 51
0.000000
  7
EASYDRAW_FONT
 72
     5
 11
3196.798096
 21
1371.723999
  0
TEXT
  8
CSLAYER1
 62
     3
 10
2879.000824
 20
2200.787008
 40
40.809284
 41
0.899282
  1
GLE-1000-0509
 50
0.000000
 51
0.000000
  7
EASYDRAW_FONT
 72
     5
 11
3343.855621
 21
2200.787008
  0
TEXT
  8
CSLAYER1
 62
     3
 10
2932.109131
 20
1629.982178
 40
40.000000
 41
1.020000
  1
フットスイッチ
 50
0.000000
 51
0.000000
  7
EASYDRAW_FONT
 72
     5
 11
3204.109131
 21
1629.982178
  0
TEXT
  8
CSLAYER1
 62
     3
 10
315.533112
 20
1889.142456
 40
50.000000
 41
1.020000
  1
コード長サ２ｍ
 50
0.000000
 51
0.000000
  7
EASYDRAW_FONT
 72
     5
 11
655.533112
 21
1889.142456
  0
TEXT
  8
CSLAYER1
 62
     3
 10
2648.142578
 20
2136.893799
 40
40.000000
 41
1.036364
  1
積載荷重
 50
0.000000
 51
0.000000
  7
EASYDRAW_FONT
 72
     5
 11
2800.142578
 21
2136.893799
  0
ENDSEC
  0
EOF
