  0
SECTION
  2
HEADER
  9
$ACADVER
  1
AC1014
  9
$ACADMAINTVER
 70
     9
  9
$DWGCODEPAGE
  3
ANSI_932
  9
$INSBASE
 10
0.0
 20
0.0
 30
0.0
  9
$EXTMIN
 10
0.0
 20
0.0
 30
0.0
  9
$EXTMAX
 10
594.0
 20
420.0
 30
0.0
  9
$LIMMIN
 10
0.0
 20
0.0
  9
$LIMMAX
 10
594.0
 20
420.0
  9
$ORTHOMODE
 70
     0
  9
$REGENMODE
 70
     1
  9
$FILLMODE
 70
     1
  9
$QTEXTMODE
 70
     0
  9
$MIRRTEXT
 70
     1
  9
$DRAGMODE
 70
     2
  9
$LTSCALE
 40
1.0
  9
$OSMODE
 70
    37
  9
$ATTMODE
 70
     1
  9
$TEXTSIZE
 40
0.2
  9
$TRACEWID
 40
0.05
  9
$TEXTSTYLE
  7
STYLE1
  9
$CLAYER
  8
0
  9
$CELTYPE
  6
BYLAYER
  9
$CECOLOR
 62
   256
  9
$CELTSCALE
 40
1.0
  9
$DELOBJ
 70
     1
  9
$DISPSILH
 70
     0
  9
$DIMSCALE
 40
1.0
  9
$DIMASZ
 40
4.0
  9
$DIMEXO
 40
1.0
  9
$DIMDLI
 40
10.0
  9
$DIMRND
 40
0.0
  9
$DIMDLE
 40
6.0
  9
$DIMEXE
 40
1.0
  9
$DIMTP
 40
0.0
  9
$DIMTM
 40
0.0
  9
$DIMTXT
 40
4.0
  9
$DIMCEN
 40
2.5
  9
$DIMTSZ
 40
0.0
  9
$DIMTOL
 70
     0
  9
$DIMLIM
 70
     0
  9
$DIMTIH
 70
     0
  9
$DIMTOH
 70
     0
  9
$DIMSE1
 70
     0
  9
$DIMSE2
 70
     0
  9
$DIMTAD
 70
     1
  9
$DIMZIN
 70
     8
  9
$DIMBLK
  1

  9
$DIMASO
 70
     1
  9
$DIMSHO
 70
     1
  9
$DIMPOST
  1

  9
$DIMAPOST
  1

  9
$DIMALT
 70
     0
  9
$DIMALTD
 70
     3
  9
$DIMALTF
 40
0.03937
  9
$DIMLFAC
 40
1.0
  9
$DIMTOFL
 70
     1
  9
$DIMTVP
 40
0.0
  9
$DIMTIX
 70
     0
  9
$DIMSOXD
 70
     0
  9
$DIMSAH
 70
     1
  9
$DIMBLK1
  1
FXTIP_ARROW_S
  9
$DIMBLK2
  1
FXTIP_ARROW_E
  9
$DIMSTYLE
  2
FXDIMINFO
  9
$DIMCLRD
 70
     7
  9
$DIMCLRE
 70
     7
  9
$DIMCLRT
 70
     7
  9
$DIMTFAC
 40
1.0
  9
$DIMGAP
 40
1.0
  9
$DIMJUST
 70
     0
  9
$DIMSD1
 70
     0
  9
$DIMSD2
 70
     0
  9
$DIMTOLJ
 70
     0
  9
$DIMTZIN
 70
     8
  9
$DIMALTZ
 70
     0
  9
$DIMALTTZ
 70
     0
  9
$DIMFIT
 70
     3
  9
$DIMUPT
 70
     0
  9
$DIMUNIT
 70
     2
  9
$DIMDEC
 70
     2
  9
$DIMTDEC
 70
     2
  9
$DIMALTU
 70
     2
  9
$DIMALTTD
 70
     3
  9
$DIMTXSTY
  7
STYLE1
  9
$DIMAUNIT
 70
     0
  9
$LUNITS
 70
     2
  9
$LUPREC
 70
     4
  9
$SKETCHINC
 40
0.1
  9
$FILLETRAD
 40
0.5
  9
$AUNITS
 70
     0
  9
$AUPREC
 70
     0
  9
$MENU
  1
.
  9
$ELEVATION
 40
0.0
  9
$PELEVATION
 40
0.0
  9
$THICKNESS
 40
0.0
  9
$LIMCHECK
 70
     0
  9
$CHAMFERA
 40
0.5
  9
$CHAMFERB
 40
0.5
  9
$CHAMFERC
 40
1.0
  9
$CHAMFERD
 40
0.0
  9
$SKPOLY
 70
     0
  9
$TDCREATE
 40
2455308.414020289
  9
$TDUPDATE
 40
2455308.414020301
  9
$TDINDWG
 40
0.0000000116
  9
$TDUSRTIMER
 40
0.0000000116
  9
$USRTIMER
 70
     1
  9
$ANGBASE
 50
0.0
  9
$ANGDIR
 70
     0
  9
$PDMODE
 70
     0
  9
$PDSIZE
 40
0.0
  9
$PLINEWID
 40
0.0
  9
$COORDS
 70
     1
  9
$SPLFRAME
 70
     0
  9
$SPLINETYPE
 70
     6
  9
$SPLINESEGS
 70
     8
  9
$ATTDIA
 70
     0
  9
$ATTREQ
 70
     1
  9
$HANDLING
 70
     1
  9
$HANDSEED
  5
234
  9
$SURFTAB1
 70
     6
  9
$SURFTAB2
 70
     6
  9
$SURFTYPE
 70
     6
  9
$SURFU
 70
     6
  9
$SURFV
 70
     6
  9
$UCSNAME
  2

  9
$UCSORG
 10
0.0
 20
0.0
 30
0.0
  9
$UCSXDIR
 10
1.0
 20
0.0
 30
0.0
  9
$UCSYDIR
 10
0.0
 20
1.0
 30
0.0
  9
$PUCSNAME
  2

  9
$PUCSORG
 10
0.0
 20
0.0
 30
0.0
  9
$PUCSXDIR
 10
1.0
 20
0.0
 30
0.0
  9
$PUCSYDIR
 10
0.0
 20
1.0
 30
0.0
  9
$USERI1
 70
     0
  9
$USERI2
 70
     0
  9
$USERI3
 70
     0
  9
$USERI4
 70
     0
  9
$USERI5
 70
     0
  9
$USERR1
 40
0.0
  9
$USERR2
 40
0.0
  9
$USERR3
 40
0.0
  9
$USERR4
 40
0.0
  9
$USERR5
 40
0.0
  9
$WORLDVIEW
 70
     1
  9
$SHADEDGE
 70
     3
  9
$SHADEDIF
 70
    70
  9
$TILEMODE
 70
     1
  9
$MAXACTVP
 70
    64
  9
$PINSBASE
 10
0.0
 20
0.0
 30
0.0
  9
$PLIMCHECK
 70
     0
  9
$PEXTMIN
 10
1.000000E+20
 20
1.000000E+20
 30
1.000000E+20
  9
$PEXTMAX
 10
-1.000000E+20
 20
-1.000000E+20
 30
-1.000000E+20
  9
$PLIMMIN
 10
0.0
 20
0.0
  9
$PLIMMAX
 10
12.0
 20
9.0
  9
$UNITMODE
 70
     0
  9
$VISRETAIN
 70
     1
  9
$PLINEGEN
 70
     0
  9
$PSLTSCALE
 70
     1
  9
$TREEDEPTH
 70
  3020
  9
$PICKSTYLE
 70
     1
  9
$CMLSTYLE
  2
STANDARD
  9
$CMLJUST
 70
     0
  9
$CMLSCALE
 40
1.0
  9
$PROXYGRAPHICS
 70
     1
  9
$MEASUREMENT
 70
     0
  0
ENDSEC
  0
SECTION
  2
CLASSES
  0
CLASS
  1
ACDBDICTIONARYWDFLT
  2
AcDbDictionaryWithDefault
  3
ObjectDBX Classes
 90
        0
280
     0
281
     0
  0
CLASS
  1
XRECORD
  2
AcDbXrecord
  3
AutoCAD 2000
 90
        0
280
     0
281
     0
  0
CLASS
  1
LWPOLYLINE
  2
AcDbPolyline
  3
AutoCAD 2000
 90
        0
280
     0
281
     1
  0
CLASS
  1
HATCH
  2
AcDbHatch
  3
AutoCAD 2000
 90
        0
280
     0
281
     1
  0
CLASS
  1
ACDBPLACEHOLDER
  2
AcDbPlaceHolder
  3
ObjectDBX Classes
 90
        0
280
     0
281
     0
  0
CLASS
  1
LAYOUT
  2
AcDbLayout
  3
ObjectDBX Classes
 90
        0
280
     0
281
     0
  0
ENDSEC
  0
SECTION
  2
TABLES
  0
TABLE
  2
VPORT
  5
8
330
0
100
AcDbSymbolTable
 70
     1
  0
VPORT
  5
29
330
8
100
AcDbSymbolTableRecord
100
AcDbViewportTableRecord
  2
*ACTIVE
 70
     0
 10
0.0
 20
0.0
 11
1.0
 21
1.0
 12
297.0
 22
210.0
 13
0.0
 23
0.0
 14
0.5
 24
0.5
 15
0.5
 25
0.5
 16
0.0
 26
0.0
 36
1.0
 17
0.0
 27
0.0
 37
0.0
 40
420.0
 41
1.414286
 42
50.0
 43
0.0
 44
0.0
 50
0.0
 51
0.0
 71
     0
 72
   100
 73
     1
 74
     3
 75
     0
 76
     0
 77
     0
 78
     0
  0
ENDTAB
  0
TABLE
  2
LTYPE
  5
5
330
0
100
AcDbSymbolTable
 70
     4
  0
LTYPE
  5
14
330
5
100
AcDbSymbolTableRecord
100
AcDbLinetypeTableRecord
  2
BYBLOCK
 70
     0
  3

 72
    65
 73
     0
 40
0.0
  0
LTYPE
  5
15
330
5
100
AcDbSymbolTableRecord
100
AcDbLinetypeTableRecord
  2
BYLAYER
 70
     0
  3

 72
    65
 73
     0
 40
0.0
  0
LTYPE
  5
16
330
5
100
AcDbSymbolTableRecord
100
AcDbLinetypeTableRecord
  2
CONTINUOUS
 70
     0
  3
--------------------
 72
    65
 73
     0
 40
0.0
  0
LTYPE
  5
2A
330
5
100
AcDbSymbolTableRecord
100
AcDbLinetypeTableRecord
  2
CENTER
 70
     0
  3
Center ____ _ ____ _ ____ _ ____ _ ____ _ ____
 72
    65
 73
     4
 40
13.0
 49
10.0
 74
     0
 49
-1.0
 74
     0
 49
1.0
 74
     0
 49
-1.0
 74
     0
  0
LTYPE
  5
2C
330
5
100
AcDbSymbolTableRecord
100
AcDbLinetypeTableRecord
  2
DASHED
 70
     0
  3
Dashed __ __ __ __ __ __ __ __ __ __ __ __ __ _
 72
    65
 73
     2
 40
4.0
 49
3.0
 74
     0
 49
-1.0
 74
     0
  0
ENDTAB
  0
TABLE
  2
LAYER
  5
2
330
0
100
AcDbSymbolTable
 70
    26
  0
LAYER
  5
10
330
2
100
AcDbSymbolTableRecord
100
AcDbLayerTableRecord
  2
0
 70
     0
 62
     7
  6
CONTINUOUS
  0
LAYER
  5
2D
330
2
100
AcDbSymbolTableRecord
100
AcDbLayerTableRecord
  2
LAYERGROUP-1
 70
     0
 62
     3
  6
CONTINUOUS
  0
LAYER
  5
3D
330
2
100
AcDbSymbolTableRecord
100
AcDbLayerTableRecord
  2
}}ﾊﾊGG血CCТ
 70
     0
 62
     3
  6
CONTINUOUS
  0
LAYER
  5
A8
330
2
100
AcDbSymbolTableRecord
100
AcDbLayerTableRecord
  2
FIG_2-1
 70
     0
 62
     7
  6
CONTINUOUS
  0
LAYER
  5
AB
330
2
100
AcDbSymbolTableRecord
100
AcDbLayerTableRecord
  2
FIG_5-1
 70
     0
 62
     7
  6
CONTINUOUS
  0
LAYER
  5
C2
330
2
100
AcDbSymbolTableRecord
100
AcDbLayerTableRecord
  2
FIG_1-1
 70
     0
 62
     7
  6
CONTINUOUS
  0
LAYER
  5
D4
330
2
100
AcDbSymbolTableRecord
100
AcDbLayerTableRecord
  2
GR1-1
 70
     0
 62
     7
  6
CONTINUOUS
  0
LAYER
  5
D6
330
2
100
AcDbSymbolTableRecord
100
AcDbLayerTableRecord
  2
FIG_3-1
 70
     0
 62
     7
  6
CONTINUOUS
  0
LAYER
  5
DC
330
2
100
AcDbSymbolTableRecord
100
AcDbLayerTableRecord
  2
FIG_4-1
 70
     0
 62
     7
  6
CONTINUOUS
  0
LAYER
  5
11F
330
2
100
AcDbSymbolTableRecord
100
AcDbLayerTableRecord
  2
SMP_1-1
 70
     0
 62
     7
  6
CONTINUOUS
  0
LAYER
  5
1C0
330
2
100
AcDbSymbolTableRecord
100
AcDbLayerTableRecord
  2
0-1
 70
     0
 62
     7
  6
CONTINUOUS
  0
ENDTAB
  0
TABLE
  2
STYLE
  5
3
330
0
100
AcDbSymbolTable
 70
     4
  0
STYLE
  5
11
330
3
100
AcDbSymbolTableRecord
100
AcDbTextStyleTableRecord
  2
STANDARD
 70
     0
 40
0.0
 41
1.0
 50
0.0
 71
     0
 42
0.2
  3
txt
  4

  0
STYLE
  5
3F
330
3
100
AcDbSymbolTableRecord
100
AcDbTextStyleTableRecord
  2
STYLE1
 70
     0
 40
0.0
 41
1.0
 50
0.0
 71
     0
 42
0.2
  3
MONOTXT.SHX
  4
extfont.shx
  0
STYLE
  5
40
330
3
100
AcDbSymbolTableRecord
100
AcDbTextStyleTableRecord
  2
FX_VECTOR
 70
     0
 40
0.0
 41
1.0
 50
0.0
 71
     0
 42
0.2
  3
MONOTXT.SHX
  4
BIGFONT.SHX
  0
ENDTAB
  0
TABLE
  2
VIEW
  5
6
330
0
100
AcDbSymbolTable
 70
     0
  0
ENDTAB
  0
TABLE
  2
UCS
  5
7
330
0
100
AcDbSymbolTable
 70
     0
  0
ENDTAB
  0
TABLE
  2
APPID
  5
9
330
0
100
AcDbSymbolTable
 70
     1
  0
APPID
  5
12
330
9
100
AcDbSymbolTableRecord
100
AcDbRegAppTableRecord
  2
ACAD
 70
     0
  0
ENDTAB
  0
TABLE
  2
DIMSTYLE
  5
A
330
0
100
AcDbSymbolTable
 70
     2
  0
DIMSTYLE
105
27
330
A
100
AcDbSymbolTableRecord
100
AcDbDimStyleTableRecord
  2
STANDARD
 70
     0
  3

  4

  5

  6

  7

 40
1.0
 41
0.18
 42
0.0625
 43
0.38
 44
0.18
 45
0.0
 46
0.0
 47
0.0
 48
0.0
140
0.18
141
0.09
142
0.0
143
25.4
144
1.0
145
0.0
146
1.0
147
0.09
 71
     0
 72
     0
 73
     1
 74
     1
 75
     0
 76
     0
 77
     0
 78
     0
170
     0
171
     2
172
     0
173
     0
174
     0
175
     0
176
     0
177
     0
178
     0
270
     2
271
     4
272
     4
273
     2
274
     2
340
11
275
     0
280
     0
281
     0
282
     0
283
     1
284
     0
285
     0
286
     0
287
     3
288
     0
  0
DIMSTYLE
105
A7
102
{ACAD_REACTORS
330
1E7
330
1F1
330
209
102
}
330
A
100
AcDbSymbolTableRecord
100
AcDbDimStyleTableRecord
  2
FXDIMINFO
 70
     0
  3

  4

  5

  6
FXTIP_ARROW_S
  7
FXTIP_ARROW_E
 40
1.0
 41
4.0
 42
1.0
 43
10.0
 44
1.0
 45
0.0
 46
6.0
 47
0.0
 48
0.0
140
4.0
141
2.5
142
0.0
143
0.03937
144
1.0
145
0.0
146
1.0
147
1.0
 71
     0
 72
     0
 73
     0
 74
     0
 75
     0
 76
     0
 77
     1
 78
     8
170
     0
171
     3
172
     1
173
     1
174
     0
175
     0
176
     7
177
     7
178
     7
179
     2
270
     2
271
     2
272
     2
273
     2
274
     3
340
3F
275
     0
280
     0
281
     0
282
     0
283
     0
284
     8
285
     0
286
     0
287
     3
288
     0
  0
ENDTAB
  0
TABLE
  2
BLOCK_RECORD
  5
1
330
0
100
AcDbSymbolTable
 70
    25
  0
BLOCK_RECORD
  5
1F
330
1
100
AcDbSymbolTableRecord
100
AcDbBlockTableRecord
  2
*MODEL_SPACE
  0
BLOCK_RECORD
  5
1B
330
1
100
AcDbSymbolTableRecord
100
AcDbBlockTableRecord
  2
*PAPER_SPACE
  0
BLOCK_RECORD
  5
41
330
1
100
AcDbSymbolTableRecord
100
AcDbBlockTableRecord
  2
FXTIP_ARROW_S
  0
BLOCK_RECORD
  5
47
330
1
100
AcDbSymbolTableRecord
100
AcDbBlockTableRecord
  2
FXTIP_ARROW_E
  0
BLOCK_RECORD
  5
4D
330
1
100
AcDbSymbolTableRecord
100
AcDbBlockTableRecord
  2
FXTIP_BLACKDOT_S
  0
BLOCK_RECORD
  5
53
330
1
100
AcDbSymbolTableRecord
100
AcDbBlockTableRecord
  2
FXTIP_BLACKDOT_E
  0
BLOCK_RECORD
  5
59
330
1
100
AcDbSymbolTableRecord
100
AcDbBlockTableRecord
  2
FXTIP_TRIANGLE_S
  0
BLOCK_RECORD
  5
60
330
1
100
AcDbSymbolTableRecord
100
AcDbBlockTableRecord
  2
FXTIP_TRIANGLE_E
  0
BLOCK_RECORD
  5
67
330
1
100
AcDbSymbolTableRecord
100
AcDbBlockTableRecord
  2
FXTIP_ARCHITECT_S
  0
BLOCK_RECORD
  5
6D
330
1
100
AcDbSymbolTableRecord
100
AcDbBlockTableRecord
  2
FXTIP_ARCHITECT_E
  0
BLOCK_RECORD
  5
73
330
1
100
AcDbSymbolTableRecord
100
AcDbBlockTableRecord
  2
FXTIP_CIVIL_S
  0
BLOCK_RECORD
  5
79
330
1
100
AcDbSymbolTableRecord
100
AcDbBlockTableRecord
  2
FXTIP_CIVIL_E
  0
BLOCK_RECORD
  5
7F
330
1
100
AcDbSymbolTableRecord
100
AcDbBlockTableRecord
  2
FXTIP_WHITEDOT_S
  0
BLOCK_RECORD
  5
84
330
1
100
AcDbSymbolTableRecord
100
AcDbBlockTableRecord
  2
FXTIP_WHITEDOT_E
  0
BLOCK_RECORD
  5
89
330
1
100
AcDbSymbolTableRecord
100
AcDbBlockTableRecord
  2
FXTIP_UPARROW_S
  0
BLOCK_RECORD
  5
8E
330
1
100
AcDbSymbolTableRecord
100
AcDbBlockTableRecord
  2
FXTIP_UPARROW_E
  0
BLOCK_RECORD
  5
93
330
1
100
AcDbSymbolTableRecord
100
AcDbBlockTableRecord
  2
FXTIP_DOWNARROW_S
  0
BLOCK_RECORD
  5
98
330
1
100
AcDbSymbolTableRecord
100
AcDbBlockTableRecord
  2
FXTIP_DOWNARROW_E
  0
BLOCK_RECORD
  5
9D
330
1
100
AcDbSymbolTableRecord
100
AcDbBlockTableRecord
  2
FXTIP_BLACKTRIANGLE_S
  0
BLOCK_RECORD
  5
A2
330
1
100
AcDbSymbolTableRecord
100
AcDbBlockTableRecord
  2
FXTIP_BLACKTRIANGLE_E
  0
BLOCK_RECORD
  5
1B0
330
1
100
AcDbSymbolTableRecord
100
AcDbBlockTableRecord
  2
BLKF021
  0
BLOCK_RECORD
  5
1BC
330
1
100
AcDbSymbolTableRecord
100
AcDbBlockTableRecord
  2
BLKF022
  0
BLOCK_RECORD
  5
1C5
330
1
100
AcDbSymbolTableRecord
100
AcDbBlockTableRecord
  2
BLKF023
  0
BLOCK_RECORD
  5
1E8
330
1
100
AcDbSymbolTableRecord
100
AcDbBlockTableRecord
  2
*D22
  0
BLOCK_RECORD
  5
1F2
330
1
100
AcDbSymbolTableRecord
100
AcDbBlockTableRecord
  2
*D23
  0
BLOCK_RECORD
  5
20A
330
1
100
AcDbSymbolTableRecord
100
AcDbBlockTableRecord
  2
*D24
  0
ENDTAB
  0
ENDSEC
  0
SECTION
  2
BLOCKS
  0
BLOCK
  5
20
330
1F
100
AcDbEntity
  8
0
100
AcDbBlockBegin
  2
*MODEL_SPACE
 70
     0
 71
     0
 10
0.0
 20
0.0
 30
0.0
  3
*MODEL_SPACE
  1

  0
ENDBLK
  5
21
330
1F
100
AcDbEntity
  8
0
100
AcDbBlockEnd
  0
BLOCK
  5
1C
330
1B
100
AcDbEntity
 67
     1
  8
0
100
AcDbBlockBegin
  2
*PAPER_SPACE
 70
     0
 71
     0
 10
0.0
 20
0.0
 30
0.0
  3
*PAPER_SPACE
  1

  0
ENDBLK
  5
1D
330
1B
100
AcDbEntity
 67
     1
  8
0
100
AcDbBlockEnd
  0
BLOCK
  5
42
330
41
100
AcDbEntity
  8
0
100
AcDbBlockBegin
  2
FXTIP_ARROW_S
 70
     0
 71
     0
 10
0.0
 20
0.0
 30
0.0
  3
FXTIP_ARROW_S
  1

  0
LINE
  5
44
330
41
100
AcDbEntity
  8
0
  6
CONTINUOUS
 62
     0
100
AcDbLine
 10
0.0
 20
0.0
 30
0.0
 11
-1.0
 21
0.0
 31
0.0
  0
LINE
  5
45
330
41
100
AcDbEntity
  8
0
  6
CONTINUOUS
 62
     0
100
AcDbLine
 10
0.0
 20
0.0
 30
0.0
 11
-0.965926
 21
-0.258819
 31
0.0
  0
LINE
  5
46
330
41
100
AcDbEntity
  8
0
  6
CONTINUOUS
 62
     0
100
AcDbLine
 10
0.0
 20
0.0
 30
0.0
 11
-0.965926
 21
0.258819
 31
0.0
  0
ENDBLK
  5
43
330
41
100
AcDbEntity
  8
0
100
AcDbBlockEnd
  0
BLOCK
  5
48
330
47
100
AcDbEntity
  8
0
100
AcDbBlockBegin
  2
FXTIP_ARROW_E
 70
     0
 71
     0
 10
0.0
 20
0.0
 30
0.0
  3
FXTIP_ARROW_E
  1

  0
LINE
  5
4A
330
47
100
AcDbEntity
  8
0
  6
CONTINUOUS
 62
     0
100
AcDbLine
 10
0.0
 20
0.0
 30
0.0
 11
-1.0
 21
0.0
 31
0.0
  0
LINE
  5
4B
330
47
100
AcDbEntity
  8
0
  6
CONTINUOUS
 62
     0
100
AcDbLine
 10
0.0
 20
0.0
 30
0.0
 11
-0.965926
 21
0.258819
 31
0.0
  0
LINE
  5
4C
330
47
100
AcDbEntity
  8
0
  6
CONTINUOUS
 62
     0
100
AcDbLine
 10
0.0
 20
0.0
 30
0.0
 11
-0.965926
 21
-0.258819
 31
0.0
  0
ENDBLK
  5
49
330
47
100
AcDbEntity
  8
0
100
AcDbBlockEnd
  0
BLOCK
  5
4E
330
4D
100
AcDbEntity
  8
0
100
AcDbBlockBegin
  2
FXTIP_BLACKDOT_S
 70
     0
 71
     0
 10
0.0
 20
0.0
 30
0.0
  3
FXTIP_BLACKDOT_S
  1

  0
LINE
  5
50
330
4D
100
AcDbEntity
  8
0
  6
CONTINUOUS
 62
     0
100
AcDbLine
 10
0.0
 20
0.0
 30
0.0
 11
-1.0
 21
0.0
 31
0.0
  0
LWPOLYLINE
  5
51
330
4D
100
AcDbEntity
  8
0
  6
CONTINUOUS
 62
     0
100
AcDbPolyline
 90
        2
 70
     1
 10
-0.25
 20
0.0
 40
0.5
 41
0.5
 42
1.0
 10
0.25
 20
0.0
 40
0.5
 41
0.5
 42
1.0
  0
CIRCLE
  5
52
330
4D
100
AcDbEntity
  8
0
  6
CONTINUOUS
 62
     0
100
AcDbCircle
 10
0.0
 20
0.0
 30
0.0
 40
0.5
  0
ENDBLK
  5
4F
330
4D
100
AcDbEntity
  8
0
100
AcDbBlockEnd
  0
BLOCK
  5
54
330
53
100
AcDbEntity
  8
0
100
AcDbBlockBegin
  2
FXTIP_BLACKDOT_E
 70
     0
 71
     0
 10
0.0
 20
0.0
 30
0.0
  3
FXTIP_BLACKDOT_E
  1

  0
LINE
  5
56
330
53
100
AcDbEntity
  8
0
  6
CONTINUOUS
 62
     0
100
AcDbLine
 10
0.0
 20
0.0
 30
0.0
 11
-1.0
 21
0.0
 31
0.0
  0
LWPOLYLINE
  5
57
330
53
100
AcDbEntity
  8
0
  6
CONTINUOUS
 62
     0
100
AcDbPolyline
 90
        2
 70
     1
 10
-0.25
 20
0.0
 40
0.5
 41
0.5
 42
1.0
 10
0.25
 20
0.0
 40
0.5
 41
0.5
 42
1.0
  0
CIRCLE
  5
58
330
53
100
AcDbEntity
  8
0
  6
CONTINUOUS
 62
     0
100
AcDbCircle
 10
0.0
 20
0.0
 30
0.0
 40
0.5
  0
ENDBLK
  5
55
330
53
100
AcDbEntity
  8
0
100
AcDbBlockEnd
  0
BLOCK
  5
5A
330
59
100
AcDbEntity
  8
0
100
AcDbBlockBegin
  2
FXTIP_TRIANGLE_S
 70
     0
 71
     0
 10
0.0
 20
0.0
 30
0.0
  3
FXTIP_TRIANGLE_S
  1

  0
LINE
  5
5C
330
59
100
AcDbEntity
  8
0
  6
CONTINUOUS
 62
     0
100
AcDbLine
 10
0.0
 20
0.0
 30
0.0
 11
-1.0
 21
0.0
 31
0.0
  0
LINE
  5
5D
330
59
100
AcDbEntity
  8
0
  6
CONTINUOUS
 62
     0
100
AcDbLine
 10
0.0
 20
0.0
 30
0.0
 11
-0.965926
 21
-0.258819
 31
0.0
  0
LINE
  5
5E
330
59
100
AcDbEntity
  8
0
  6
CONTINUOUS
 62
     0
100
AcDbLine
 10
0.0
 20
0.0
 30
0.0
 11
-0.965926
 21
0.258819
 31
0.0
  0
LINE
  5
5F
330
59
100
AcDbEntity
  8
0
  6
CONTINUOUS
 62
     0
100
AcDbLine
 10
-0.965926
 20
-0.258819
 30
0.0
 11
-0.965926
 21
0.258819
 31
0.0
  0
ENDBLK
  5
5B
330
59
100
AcDbEntity
  8
0
100
AcDbBlockEnd
  0
BLOCK
  5
61
330
60
100
AcDbEntity
  8
0
100
AcDbBlockBegin
  2
FXTIP_TRIANGLE_E
 70
     0
 71
     0
 10
0.0
 20
0.0
 30
0.0
  3
FXTIP_TRIANGLE_E
  1

  0
LINE
  5
63
330
60
100
AcDbEntity
  8
0
  6
CONTINUOUS
 62
     0
100
AcDbLine
 10
0.0
 20
0.0
 30
0.0
 11
-1.0
 21
0.0
 31
0.0
  0
LINE
  5
64
330
60
100
AcDbEntity
  8
0
  6
CONTINUOUS
 62
     0
100
AcDbLine
 10
0.0
 20
0.0
 30
0.0
 11
-0.965926
 21
0.258819
 31
0.0
  0
LINE
  5
65
330
60
100
AcDbEntity
  8
0
  6
CONTINUOUS
 62
     0
100
AcDbLine
 10
0.0
 20
0.0
 30
0.0
 11
-0.965926
 21
-0.258819
 31
0.0
  0
LINE
  5
66
330
60
100
AcDbEntity
  8
0
  6
CONTINUOUS
 62
     0
100
AcDbLine
 10
-0.965926
 20
0.258819
 30
0.0
 11
-0.965926
 21
-0.258819
 31
0.0
  0
ENDBLK
  5
62
330
60
100
AcDbEntity
  8
0
100
AcDbBlockEnd
  0
BLOCK
  5
68
330
67
100
AcDbEntity
  8
0
100
AcDbBlockBegin
  2
FXTIP_ARCHITECT_S
 70
     0
 71
     0
 10
0.0
 20
0.0
 30
0.0
  3
FXTIP_ARCHITECT_S
  1

  0
LINE
  5
6A
330
67
100
AcDbEntity
  8
0
  6
CONTINUOUS
 62
     0
100
AcDbLine
 10
0.0
 20
0.0
 30
0.0
 11
-1.0
 21
0.0
 31
0.0
  0
LINE
  5
6B
330
67
100
AcDbEntity
  8
0
  6
CONTINUOUS
 62
     0
100
AcDbLine
 10
0.0
 20
0.0
 30
0.0
 11
-0.707107
 21
-0.707107
 31
0.0
  0
LINE
  5
6C
330
67
100
AcDbEntity
  8
0
  6
CONTINUOUS
 62
     0
100
AcDbLine
 10
0.0
 20
0.0
 30
0.0
 11
0.707107
 21
0.707107
 31
0.0
  0
ENDBLK
  5
69
330
67
100
AcDbEntity
  8
0
100
AcDbBlockEnd
  0
BLOCK
  5
6E
330
6D
100
AcDbEntity
  8
0
100
AcDbBlockBegin
  2
FXTIP_ARCHITECT_E
 70
     0
 71
     0
 10
0.0
 20
0.0
 30
0.0
  3
FXTIP_ARCHITECT_E
  1

  0
LINE
  5
70
330
6D
100
AcDbEntity
  8
0
  6
CONTINUOUS
 62
     0
100
AcDbLine
 10
0.0
 20
0.0
 30
0.0
 11
-1.0
 21
0.0
 31
0.0
  0
LINE
  5
71
330
6D
100
AcDbEntity
  8
0
  6
CONTINUOUS
 62
     0
100
AcDbLine
 10
0.0
 20
0.0
 30
0.0
 11
0.707107
 21
0.707107
 31
0.0
  0
LINE
  5
72
330
6D
100
AcDbEntity
  8
0
  6
CONTINUOUS
 62
     0
100
AcDbLine
 10
0.0
 20
0.0
 30
0.0
 11
-0.707107
 21
-0.707107
 31
0.0
  0
ENDBLK
  5
6F
330
6D
100
AcDbEntity
  8
0
100
AcDbBlockEnd
  0
BLOCK
  5
74
330
73
100
AcDbEntity
  8
0
100
AcDbBlockBegin
  2
FXTIP_CIVIL_S
 70
     0
 71
     0
 10
0.0
 20
0.0
 30
0.0
  3
FXTIP_CIVIL_S
  1

  0
LINE
  5
76
330
73
100
AcDbEntity
  8
0
  6
CONTINUOUS
 62
     0
100
AcDbLine
 10
0.0
 20
0.0
 30
0.0
 11
-1.0
 21
0.0
 31
0.0
  0
LINE
  5
77
330
73
100
AcDbEntity
  8
0
  6
CONTINUOUS
 62
     0
100
AcDbLine
 10
0.0
 20
-0.0625
 30
0.0
 11
-1.0
 21
-0.0625
 31
0.0
  0
LINE
  5
78
330
73
100
AcDbEntity
  8
0
  6
CONTINUOUS
 62
     0
100
AcDbLine
 10
0.0
 20
-0.125
 30
0.0
 11
-1.0
 21
-0.125
 31
0.0
  0
ENDBLK
  5
75
330
73
100
AcDbEntity
  8
0
100
AcDbBlockEnd
  0
BLOCK
  5
7A
330
79
100
AcDbEntity
  8
0
100
AcDbBlockBegin
  2
FXTIP_CIVIL_E
 70
     0
 71
     0
 10
0.0
 20
0.0
 30
0.0
  3
FXTIP_CIVIL_E
  1

  0
LINE
  5
7C
330
79
100
AcDbEntity
  8
0
  6
CONTINUOUS
 62
     0
100
AcDbLine
 10
0.0
 20
0.0
 30
0.0
 11
-1.0
 21
0.0
 31
0.0
  0
LINE
  5
7D
330
79
100
AcDbEntity
  8
0
  6
CONTINUOUS
 62
     0
100
AcDbLine
 10
0.0
 20
0.0625
 30
0.0
 11
-1.0
 21
0.0625
 31
0.0
  0
LINE
  5
7E
330
79
100
AcDbEntity
  8
0
  6
CONTINUOUS
 62
     0
100
AcDbLine
 10
0.0
 20
0.125
 30
0.0
 11
-1.0
 21
0.125
 31
0.0
  0
ENDBLK
  5
7B
330
79
100
AcDbEntity
  8
0
100
AcDbBlockEnd
  0
BLOCK
  5
80
330
7F
100
AcDbEntity
  8
0
100
AcDbBlockBegin
  2
FXTIP_WHITEDOT_S
 70
     0
 71
     0
 10
0.0
 20
0.0
 30
0.0
  3
FXTIP_WHITEDOT_S
  1

  0
LINE
  5
82
330
7F
100
AcDbEntity
  8
0
  6
CONTINUOUS
 62
     0
100
AcDbLine
 10
0.0
 20
0.0
 30
0.0
 11
-1.0
 21
0.0
 31
0.0
  0
CIRCLE
  5
83
330
7F
100
AcDbEntity
  8
0
  6
CONTINUOUS
 62
     0
100
AcDbCircle
 10
0.0
 20
0.0
 30
0.0
 40
0.5
  0
ENDBLK
  5
81
330
7F
100
AcDbEntity
  8
0
100
AcDbBlockEnd
  0
BLOCK
  5
85
330
84
100
AcDbEntity
  8
0
100
AcDbBlockBegin
  2
FXTIP_WHITEDOT_E
 70
     0
 71
     0
 10
0.0
 20
0.0
 30
0.0
  3
FXTIP_WHITEDOT_E
  1

  0
LINE
  5
87
330
84
100
AcDbEntity
  8
0
  6
CONTINUOUS
 62
     0
100
AcDbLine
 10
0.0
 20
0.0
 30
0.0
 11
-1.0
 21
0.0
 31
0.0
  0
CIRCLE
  5
88
330
84
100
AcDbEntity
  8
0
  6
CONTINUOUS
 62
     0
100
AcDbCircle
 10
0.0
 20
0.0
 30
0.0
 40
0.5
  0
ENDBLK
  5
86
330
84
100
AcDbEntity
  8
0
100
AcDbBlockEnd
  0
BLOCK
  5
8A
330
89
100
AcDbEntity
  8
0
100
AcDbBlockBegin
  2
FXTIP_UPARROW_S
 70
     0
 71
     0
 10
0.0
 20
0.0
 30
0.0
  3
FXTIP_UPARROW_S
  1

  0
LINE
  5
8C
330
89
100
AcDbEntity
  8
0
  6
CONTINUOUS
 62
     0
100
AcDbLine
 10
0.0
 20
0.0
 30
0.0
 11
-1.0
 21
0.0
 31
0.0
  0
LINE
  5
8D
330
89
100
AcDbEntity
  8
0
  6
CONTINUOUS
 62
     0
100
AcDbLine
 10
0.0
 20
0.0
 30
0.0
 11
-0.965926
 21
-0.258819
 31
0.0
  0
ENDBLK
  5
8B
330
89
100
AcDbEntity
  8
0
100
AcDbBlockEnd
  0
BLOCK
  5
8F
330
8E
100
AcDbEntity
  8
0
100
AcDbBlockBegin
  2
FXTIP_UPARROW_E
 70
     0
 71
     0
 10
0.0
 20
0.0
 30
0.0
  3
FXTIP_UPARROW_E
  1

  0
LINE
  5
91
330
8E
100
AcDbEntity
  8
0
  6
CONTINUOUS
 62
     0
100
AcDbLine
 10
0.0
 20
0.0
 30
0.0
 11
-1.0
 21
0.0
 31
0.0
  0
LINE
  5
92
330
8E
100
AcDbEntity
  8
0
  6
CONTINUOUS
 62
     0
100
AcDbLine
 10
0.0
 20
0.0
 30
0.0
 11
-0.965926
 21
0.258819
 31
0.0
  0
ENDBLK
  5
90
330
8E
100
AcDbEntity
  8
0
100
AcDbBlockEnd
  0
BLOCK
  5
94
330
93
100
AcDbEntity
  8
0
100
AcDbBlockBegin
  2
FXTIP_DOWNARROW_S
 70
     0
 71
     0
 10
0.0
 20
0.0
 30
0.0
  3
FXTIP_DOWNARROW_S
  1

  0
LINE
  5
96
330
93
100
AcDbEntity
  8
0
  6
CONTINUOUS
 62
     0
100
AcDbLine
 10
0.0
 20
0.0
 30
0.0
 11
-1.0
 21
0.0
 31
0.0
  0
LINE
  5
97
330
93
100
AcDbEntity
  8
0
  6
CONTINUOUS
 62
     0
100
AcDbLine
 10
0.0
 20
0.0
 30
0.0
 11
-0.965926
 21
0.258819
 31
0.0
  0
ENDBLK
  5
95
330
93
100
AcDbEntity
  8
0
100
AcDbBlockEnd
  0
BLOCK
  5
99
330
98
100
AcDbEntity
  8
0
100
AcDbBlockBegin
  2
FXTIP_DOWNARROW_E
 70
     0
 71
     0
 10
0.0
 20
0.0
 30
0.0
  3
FXTIP_DOWNARROW_E
  1

  0
LINE
  5
9B
330
98
100
AcDbEntity
  8
0
  6
CONTINUOUS
 62
     0
100
AcDbLine
 10
0.0
 20
0.0
 30
0.0
 11
-1.0
 21
0.0
 31
0.0
  0
LINE
  5
9C
330
98
100
AcDbEntity
  8
0
  6
CONTINUOUS
 62
     0
100
AcDbLine
 10
0.0
 20
0.0
 30
0.0
 11
-0.965926
 21
-0.258819
 31
0.0
  0
ENDBLK
  5
9A
330
98
100
AcDbEntity
  8
0
100
AcDbBlockEnd
  0
BLOCK
  5
9E
330
9D
100
AcDbEntity
  8
0
100
AcDbBlockBegin
  2
FXTIP_BLACKTRIANGLE_S
 70
     0
 71
     0
 10
0.0
 20
0.0
 30
0.0
  3
FXTIP_BLACKTRIANGLE_S
  1

  0
LINE
  5
A0
330
9D
100
AcDbEntity
  8
0
  6
CONTINUOUS
 62
     0
100
AcDbLine
 10
0.0
 20
0.0
 30
0.0
 11
-1.0
 21
0.0
 31
0.0
  0
SOLID
  5
A1
330
9D
100
AcDbEntity
  8
0
  6
CONTINUOUS
 62
     0
100
AcDbTrace
 10
0.0
 20
0.0
 30
0.0
 11
-0.965926
 21
-0.258819
 31
0.0
 12
-0.965926
 22
0.258819
 32
0.0
 13
-0.965926
 23
0.258819
 33
0.0
  0
ENDBLK
  5
9F
330
9D
100
AcDbEntity
  8
0
100
AcDbBlockEnd
  0
BLOCK
  5
A3
330
A2
100
AcDbEntity
  8
0
100
AcDbBlockBegin
  2
FXTIP_BLACKTRIANGLE_E
 70
     0
 71
     0
 10
0.0
 20
0.0
 30
0.0
  3
FXTIP_BLACKTRIANGLE_E
  1

  0
LINE
  5
A5
330
A2
100
AcDbEntity
  8
0
  6
CONTINUOUS
 62
     0
100
AcDbLine
 10
0.0
 20
0.0
 30
0.0
 11
-1.0
 21
0.0
 31
0.0
  0
SOLID
  5
A6
330
A2
100
AcDbEntity
  8
0
  6
CONTINUOUS
 62
     0
100
AcDbTrace
 10
0.0
 20
0.0
 30
0.0
 11
-0.965926
 21
0.258819
 31
0.0
 12
-0.965926
 22
-0.258819
 32
0.0
 13
-0.965926
 23
-0.258819
 33
0.0
  0
ENDBLK
  5
A4
330
A2
100
AcDbEntity
  8
0
100
AcDbBlockEnd
  0
BLOCK
  5
1B1
330
1B0
100
AcDbEntity
  8
0
100
AcDbBlockBegin
  2
BLKF021
 70
     0
 71
     0
 10
0.0
 20
0.0
 30
0.0
  3
BLKF021
  1

  0
LINE
  5
1B4
330
1B0
100
AcDbEntity
  8
}}ﾊﾊGG血CCТ
  6
CONTINUOUS
 62
     7
100
AcDbLine
 10
10.0
 20
10.0
 30
0.0
 11
584.0
 21
10.0
 31
0.0
  0
LINE
  5
1B5
330
1B0
100
AcDbEntity
  8
}}ﾊﾊGG血CCТ
  6
CONTINUOUS
 62
     7
100
AcDbLine
 10
10.0
 20
10.0
 30
0.0
 11
10.0
 21
410.0
 31
0.0
  0
LINE
  5
1B6
330
1B0
100
AcDbEntity
  8
}}ﾊﾊGG血CCТ
  6
CONTINUOUS
 62
     7
100
AcDbLine
 10
10.0
 20
410.0
 30
0.0
 11
584.0
 21
410.0
 31
0.0
  0
LINE
  5
1B7
330
1B0
100
AcDbEntity
  8
}}ﾊﾊGG血CCТ
  6
CONTINUOUS
 62
     7
100
AcDbLine
 10
584.0
 20
410.0
 30
0.0
 11
584.0
 21
10.0
 31
0.0
  0
LINE
  5
1B8
330
1B0
100
AcDbEntity
  8
}}ﾊﾊGG血CCТ
  6
CONTINUOUS
 62
     7
100
AcDbLine
 10
327.0
 20
10.0
 30
0.0
 11
327.0
 21
20.0
 31
0.0
  0
TEXT
  5
1B9
330
1B0
100
AcDbEntity
  8
}}ﾊﾊGG血CCТ
  6
CONTINUOUS
 62
     7
100
AcDbText
 10
311.738831
 20
11.596879
 30
0.0
 40
6.648749
  1
品名
 41
1.083413
  7
FX_VECTOR
 72
     5
 11
323.058371
 21
11.596879
 31
0.0
100
AcDbText
  0
LINE
  5
1BA
330
1B0
100
AcDbEntity
  8
}}ﾊﾊGG血CCТ
  6
CONTINUOUS
 62
     7
100
AcDbLine
 10
407.0
 20
20.0
 30
0.0
 11
407.0
 21
10.0
 31
0.0
  0
LINE
  5
1BB
330
1B0
100
AcDbEntity
  8
}}ﾊﾊGG血CCТ
  6
CONTINUOUS
 62
     7
100
AcDbLine
 10
307.0
 20
20.0
 30
0.0
 11
584.0
 21
20.0
 31
0.0
  0
INSERT
  5
1BF
330
1B0
100
AcDbEntity
  8
0
100
AcDbBlockReference
  2
BLKF022
 10
0.0
 20
0.0
 30
0.0
  0
INSERT
  5
1C8
330
1B0
100
AcDbEntity
  8
0
100
AcDbBlockReference
  2
BLKF023
 10
0.0
 20
0.0
 30
0.0
  0
HATCH
  5
1D8
330
1B0
100
AcDbEntity
  8
GR1-1
  6
CONTINUOUS
 62
     7
100
AcDbHatch
 10
0.0
 20
0.0
 30
0.0
210
0.0
220
0.0
230
1.0
  2

 70
     0
 71
     1
 91
        2
 92
        0
 93
        4
 72
     1
 10
512.8018997861325
 20
17.91346152
 11
518.8018997861325
 21
17.91346152
 72
     1
 10
518.8018997861325
 20
17.91346152
 11
518.8018997861325
 21
11.91346152
 72
     1
 10
518.8018997861325
 20
11.91346152
 11
512.8018997861325
 21
11.91346152
 72
     1
 10
512.8018997861325
 20
11.91346152
 11
512.8018997861325
 21
17.91346152
 97
        0
 92
        0
 93
       15
 72
     1
 10
515.8018997861325
 20
17.76923076000002
 11
512.9461305461325
 21
14.91346152
 72
     1
 10
512.9461305461325
 20
14.91346152
 11
515.8018997861325
 21
12.05769228000001
 72
     1
 10
515.8018997861325
 20
12.05769228000001
 11
517.3595920661326
 21
13.61538462
 72
     1
 10
517.3595920661326
 20
13.61538462
 11
517.3595920661326
 21
12.98076924
 72
     1
 10
517.3595920661326
 20
12.98076924
 11
518.2249766861326
 21
12.98076924
 72
     1
 10
518.2249766861326
 20
12.98076924
 11
518.2249766861326
 21
15.00000000000001
 72
     1
 10
518.2249766861326
 20
15.00000000000001
 11
515.8018997861325
 21
15.00000000000001
 72
     1
 10
515.8018997861325
 20
15.00000000000001
 11
515.8018997861325
 21
14.13461538000001
 72
     1
 10
515.8018997861325
 20
14.13461538000001
 11
516.2461305461325
 21
14.13461538000001
 72
     1
 10
516.2461305461325
 20
14.13461538000001
 11
515.8018997861325
 21
13.69038462
 72
     1
 10
515.8018997861325
 20
13.69038462
 11
514.5788228861325
 21
14.91346152
 72
     1
 10
514.5788228861325
 20
14.91346152
 11
515.8018997861325
 21
16.13653842000003
 72
     1
 10
515.8018997861325
 20
16.13653842000003
 11
516.5922844061325
 21
15.3461538
 72
     1
 10
516.5922844061325
 20
15.3461538
 11
518.2249766861326
 21
15.3461538
 72
     1
 10
518.2249766861326
 20
15.3461538
 11
515.8018997861325
 21
17.76923076000002
 97
        0
 75
     0
 76
     0
 52
45.0
 41
0.05
 77
     0
 78
     1
 53
45.0
 43
0.0
 44
0.0
 45
-0.0353553390593274
 46
0.0353553390593274
 79
     0
 98
        0
  0
TEXT
  5
1D9
330
1B0
100
AcDbEntity
  8
}}ﾊﾊGG血CCТ
  6
CONTINUOUS
 62
     7
100
AcDbText
 10
523.225769
 20
11.461285
 30
0.0
 40
7.170908
  1
GOLD CASTER
 41
0.63978
  7
FX_VECTOR
 72
     5
 11
569.977636
 21
11.461285
 31
0.0
100
AcDbText
  0
LINE
  5
1DA
330
1B0
100
AcDbEntity
  8
}}ﾊﾊGG血CCТ
  6
CONTINUOUS
 62
     7
100
AcDbLine
 10
427.0
 20
10.0
 30
0.0
 11
427.0
 21
20.0
 31
0.0
  0
TEXT
  5
1DB
330
1B0
100
AcDbEntity
  8
}}ﾊﾊGG血CCТ
  6
CONTINUOUS
 62
     7
100
AcDbText
 10
411.738831
 20
11.596879
 30
0.0
 40
6.648749
  1
図番
 41
1.083413
  7
FX_VECTOR
 72
     5
 11
423.058371
 21
11.596879
 31
0.0
100
AcDbText
  0
LINE
  5
1DC
330
1B0
100
AcDbEntity
  8
}}ﾊﾊGG血CCТ
  6
CONTINUOUS
 62
     7
100
AcDbLine
 10
507.0
 20
20.0
 30
0.0
 11
507.0
 21
10.0
 31
0.0
  0
LINE
  5
1DD
330
1B0
100
AcDbEntity
  8
}}ﾊﾊGG血CCТ
  6
CONTINUOUS
 62
     7
100
AcDbLine
 10
307.0
 20
20.0
 30
0.0
 11
307.0
 21
10.0
 31
0.0
  0
ENDBLK
  5
1B2
330
1B0
100
AcDbEntity
  8
0
100
AcDbBlockEnd
  0
BLOCK
  5
1BD
330
1BC
100
AcDbEntity
  8
0
100
AcDbBlockBegin
  2
BLKF022
 70
     0
 71
     0
 10
0.0
 20
0.0
 30
0.0
  3
BLKF022
  1

  0
LINE
  5
1C1
330
1BC
100
AcDbEntity
  8
0-1
  6
CONTINUOUS
 62
     7
100
AcDbLine
 10
518.8019
 20
17.913462
 30
0.0
 11
512.8019
 21
17.913462
 31
0.0
  0
LINE
  5
1C2
330
1BC
100
AcDbEntity
  8
0-1
  6
CONTINUOUS
 62
     7
100
AcDbLine
 10
512.8019
 20
17.913462
 30
0.0
 11
512.8019
 21
11.913462
 31
0.0
  0
LINE
  5
1C3
330
1BC
100
AcDbEntity
  8
0-1
  6
CONTINUOUS
 62
     7
100
AcDbLine
 10
512.8019
 20
11.913462
 30
0.0
 11
518.8019
 21
11.913462
 31
0.0
  0
LINE
  5
1C4
330
1BC
100
AcDbEntity
  8
0-1
  6
CONTINUOUS
 62
     7
100
AcDbLine
 10
518.8019
 20
11.913462
 30
0.0
 11
518.8019
 21
17.913462
 31
0.0
  0
ENDBLK
  5
1BE
330
1BC
100
AcDbEntity
  8
0
100
AcDbBlockEnd
  0
BLOCK
  5
1C6
330
1C5
100
AcDbEntity
  8
0
100
AcDbBlockBegin
  2
BLKF023
 70
     0
 71
     0
 10
0.0
 20
0.0
 30
0.0
  3
BLKF023
  1

  0
LINE
  5
1C9
330
1C5
100
AcDbEntity
  8
0-1
  6
CONTINUOUS
 62
     7
100
AcDbLine
 10
518.224977
 20
15.346154
 30
0.0
 11
515.8019
 21
17.769231
 31
0.0
  0
LINE
  5
1CA
330
1C5
100
AcDbEntity
  8
0-1
  6
CONTINUOUS
 62
     7
100
AcDbLine
 10
515.8019
 20
17.769231
 30
0.0
 11
512.946131
 21
14.913462
 31
0.0
  0
LINE
  5
1CB
330
1C5
100
AcDbEntity
  8
0-1
  6
CONTINUOUS
 62
     7
100
AcDbLine
 10
512.946131
 20
14.913462
 30
0.0
 11
515.8019
 21
12.057692
 31
0.0
  0
LINE
  5
1CC
330
1C5
100
AcDbEntity
  8
0-1
  6
CONTINUOUS
 62
     7
100
AcDbLine
 10
515.8019
 20
12.057692
 30
0.0
 11
517.359592
 21
13.615385
 31
0.0
  0
LINE
  5
1CD
330
1C5
100
AcDbEntity
  8
0-1
  6
CONTINUOUS
 62
     7
100
AcDbLine
 10
517.359592
 20
13.615385
 30
0.0
 11
517.359592
 21
12.980769
 31
0.0
  0
LINE
  5
1CE
330
1C5
100
AcDbEntity
  8
0-1
  6
CONTINUOUS
 62
     7
100
AcDbLine
 10
517.359592
 20
12.980769
 30
0.0
 11
518.224977
 21
12.980769
 31
0.0
  0
LINE
  5
1CF
330
1C5
100
AcDbEntity
  8
0-1
  6
CONTINUOUS
 62
     7
100
AcDbLine
 10
518.224977
 20
12.980769
 30
0.0
 11
518.224977
 21
15.0
 31
0.0
  0
LINE
  5
1D0
330
1C5
100
AcDbEntity
  8
0-1
  6
CONTINUOUS
 62
     7
100
AcDbLine
 10
518.224977
 20
15.0
 30
0.0
 11
515.8019
 21
15.0
 31
0.0
  0
LINE
  5
1D1
330
1C5
100
AcDbEntity
  8
0-1
  6
CONTINUOUS
 62
     7
100
AcDbLine
 10
515.8019
 20
15.0
 30
0.0
 11
515.8019
 21
14.134615
 31
0.0
  0
LINE
  5
1D2
330
1C5
100
AcDbEntity
  8
0-1
  6
CONTINUOUS
 62
     7
100
AcDbLine
 10
515.8019
 20
14.134615
 30
0.0
 11
516.246131
 21
14.134615
 31
0.0
  0
LINE
  5
1D3
330
1C5
100
AcDbEntity
  8
0-1
  6
CONTINUOUS
 62
     7
100
AcDbLine
 10
516.246131
 20
14.134615
 30
0.0
 11
515.8019
 21
13.690385
 31
0.0
  0
LINE
  5
1D4
330
1C5
100
AcDbEntity
  8
0-1
  6
CONTINUOUS
 62
     7
100
AcDbLine
 10
515.8019
 20
13.690385
 30
0.0
 11
514.578823
 21
14.913462
 31
0.0
  0
LINE
  5
1D5
330
1C5
100
AcDbEntity
  8
0-1
  6
CONTINUOUS
 62
     7
100
AcDbLine
 10
514.578823
 20
14.913462
 30
0.0
 11
515.8019
 21
16.136538
 31
0.0
  0
LINE
  5
1D6
330
1C5
100
AcDbEntity
  8
0-1
  6
CONTINUOUS
 62
     7
100
AcDbLine
 10
515.8019
 20
16.136538
 30
0.0
 11
516.592284
 21
15.346154
 31
0.0
  0
LINE
  5
1D7
330
1C5
100
AcDbEntity
  8
0-1
  6
CONTINUOUS
 62
     7
100
AcDbLine
 10
516.592284
 20
15.346154
 30
0.0
 11
518.224977
 21
15.346154
 31
0.0
  0
ENDBLK
  5
1C7
330
1C5
100
AcDbEntity
  8
0
100
AcDbBlockEnd
  0
BLOCK
  5
1E9
330
1E8
100
AcDbEntity
  8
0
100
AcDbBlockBegin
  2
*D22
 70
     1
 71
     0
 10
0.0
 20
0.0
 30
0.0
  3
*D22
  1

  0
TEXT
  5
1EB
330
1E8
100
AcDbEntity
  8
LAYERGROUP-1
  6
CONTINUOUS
 62
     7
100
AcDbText
 10
168.663803
 20
56.173191
 30
0.0
 40
4.0
  1
34
 41
0.828947
  7
FX_VECTOR
 72
     5
 11
174.663803
 21
56.173191
 31
0.0
100
AcDbText
  0
LINE
  5
1EC
330
1E8
100
AcDbEntity
  8
LAYERGROUP-1
  6
CONTINUOUS
 62
     7
100
AcDbLine
 10
154.663809
 20
55.173193
 30
0.0
 11
188.663809
 21
55.173193
 31
0.0
  0
INSERT
  5
1ED
330
1E8
100
AcDbEntity
  8
LAYERGROUP-1
  6
CONTINUOUS
 62
     7
100
AcDbBlockReference
  2
FXTIP_ARROW_S
 10
154.663809
 20
55.173193
 30
0.0
 41
4.0
 42
4.0
 50
180.0
  0
INSERT
  5
1EE
330
1E8
100
AcDbEntity
  8
LAYERGROUP-1
  6
CONTINUOUS
 62
     7
100
AcDbBlockReference
  2
FXTIP_ARROW_E
 10
188.663809
 20
55.173193
 30
0.0
 41
4.0
 42
4.0
 50
360.0
  0
LINE
  5
1EF
330
1E8
100
AcDbEntity
  8
LAYERGROUP-1
  6
CONTINUOUS
 62
     7
100
AcDbLine
 10
154.663809
 20
70.579853
 30
0.0
 11
154.663809
 21
54.173193
 31
0.0
  0
LINE
  5
1F0
330
1E8
100
AcDbEntity
  8
LAYERGROUP-1
  6
CONTINUOUS
 62
     7
100
AcDbLine
 10
188.663809
 20
70.579853
 30
0.0
 11
188.663809
 21
54.173193
 31
0.0
  0
ENDBLK
  5
1EA
330
1E8
100
AcDbEntity
  8
0
100
AcDbBlockEnd
  0
BLOCK
  5
1F3
330
1F2
100
AcDbEntity
  8
0
100
AcDbBlockBegin
  2
*D23
 70
     1
 71
     0
 10
0.0
 20
0.0
 30
0.0
  3
*D23
  1

  0
TEXT
  5
1F5
330
1F2
100
AcDbEntity
  8
LAYERGROUP-1
  6
CONTINUOUS
 62
     7
100
AcDbText
 10
230.751526
 20
112.579849
 30
0.0
 40
4.0
  1
%%c100
 50
90.0
 41
0.828947
  7
FX_VECTOR
 72
     5
 11
230.751526
 21
124.579849
 31
0.0
100
AcDbText
  0
LINE
  5
1F6
330
1F2
100
AcDbEntity
  8
LAYERGROUP-1
  6
CONTINUOUS
 62
     7
100
AcDbLine
 10
231.751522
 20
68.579853
 30
0.0
 11
231.751522
 21
168.579853
 31
0.0
  0
INSERT
  5
1F7
330
1F2
100
AcDbEntity
  8
LAYERGROUP-1
  6
CONTINUOUS
 62
     7
100
AcDbBlockReference
  2
FXTIP_ARROW_S
 10
231.751522
 20
68.579853
 30
0.0
 41
4.0
 42
4.0
 50
270.0
  0
INSERT
  5
1F8
330
1F2
100
AcDbEntity
  8
LAYERGROUP-1
  6
CONTINUOUS
 62
     7
100
AcDbBlockReference
  2
FXTIP_ARROW_E
 10
231.751522
 20
168.579853
 30
0.0
 41
4.0
 42
4.0
 50
90.0
  0
LINE
  5
1F9
330
1F2
100
AcDbEntity
  8
LAYERGROUP-1
  6
CONTINUOUS
 62
     7
100
AcDbLine
 10
186.663809
 20
68.579853
 30
0.0
 11
232.751522
 21
68.579853
 31
0.0
  0
LINE
  5
1FA
330
1F2
100
AcDbEntity
  8
LAYERGROUP-1
  6
CONTINUOUS
 62
     7
100
AcDbLine
 10
186.663809
 20
168.579853
 30
0.0
 11
232.751522
 21
168.579853
 31
0.0
  0
ENDBLK
  5
1F4
330
1F2
100
AcDbEntity
  8
0
100
AcDbBlockEnd
  0
BLOCK
  5
20B
330
20A
100
AcDbEntity
  8
0
100
AcDbBlockBegin
  2
*D24
 70
     1
 71
     0
 10
0.0
 20
0.0
 30
0.0
  3
*D24
  1

  0
TEXT
  5
20D
330
20A
100
AcDbEntity
  8
LAYERGROUP-1
  6
CONTINUOUS
 62
     7
100
AcDbText
 10
168.663818
 20
49.579853
 30
0.0
 40
4.0
  1
38
 41
0.851351
  7
FX_VECTOR
 72
     5
 11
174.663818
 21
49.579853
 31
0.0
100
AcDbText
  0
LINE
  5
20E
330
20A
100
AcDbEntity
  8
LAYERGROUP-1
  6
CONTINUOUS
 62
     7
100
AcDbLine
 10
152.663809
 20
48.579853
 30
0.0
 11
190.663809
 21
48.579853
 31
0.0
  0
INSERT
  5
20F
330
20A
100
AcDbEntity
  8
LAYERGROUP-1
  6
CONTINUOUS
 62
     7
100
AcDbBlockReference
  2
FXTIP_ARROW_S
 10
152.663809
 20
48.579853
 30
0.0
 41
4.0
 42
4.0
 50
180.0
  0
INSERT
  5
210
330
20A
100
AcDbEntity
  8
LAYERGROUP-1
  6
CONTINUOUS
 62
     7
100
AcDbBlockReference
  2
FXTIP_ARROW_E
 10
190.663809
 20
48.579853
 30
0.0
 41
4.0
 42
4.0
 50
360.0
  0
LINE
  5
211
330
20A
100
AcDbEntity
  8
LAYERGROUP-1
  6
CONTINUOUS
 62
     7
100
AcDbLine
 10
152.663809
 20
94.215527
 30
0.0
 11
152.663809
 21
47.579853
 31
0.0
  0
LINE
  5
212
330
20A
100
AcDbEntity
  8
LAYERGROUP-1
  6
CONTINUOUS
 62
     7
100
AcDbLine
 10
190.663809
 20
94.215527
 30
0.0
 11
190.663809
 21
47.579853
 31
0.0
  0
ENDBLK
  5
20C
330
20A
100
AcDbEntity
  8
0
100
AcDbBlockEnd
  0
ENDSEC
  0
SECTION
  2
ENTITIES
  0
LINE
  5
A9
330
1F
100
AcDbEntity
  8
FIG_2-1
  6
CENTER
 62
     6
100
AcDbLine
 10
433.695711
 20
330.612699
 30
0.0
 11
325.63576
 21
330.612699
 31
0.0
  0
LINE
  5
AA
330
1F
100
AcDbEntity
  8
FIG_2-1
  6
CENTER
 62
     6
100
AcDbLine
 10
378.792162
 20
63.177672
 30
0.0
 11
378.792162
 21
216.336706
 31
0.0
  0
ARC
  5
AC
330
1F
100
AcDbEntity
  8
FIG_5-1
  6
CONTINUOUS
 62
     3
100
AcDbCircle
 10
343.792162
 20
295.612699
 30
0.0
 40
5.25
100
AcDbArc
 50
-45.0
 51
135.0
  0
LINE
  5
AD
330
1F
100
AcDbEntity
  8
FIG_5-1
  6
CONTINUOUS
 62
     3
100
AcDbLine
 10
340.079851
 20
299.32501
 30
0.0
 11
338.579851
 21
297.82501
 31
0.0
  0
ARC
  5
AE
330
1F
100
AcDbEntity
  8
FIG_5-1
  6
CONTINUOUS
 62
     3
100
AcDbCircle
 10
342.292162
 20
294.112699
 30
0.0
 40
5.25
100
AcDbArc
 50
135.0
 51
315.0
  0
LINE
  5
AF
330
1F
100
AcDbEntity
  8
FIG_5-1
  6
CONTINUOUS
 62
     3
100
AcDbLine
 10
346.004473
 20
290.400388
 30
0.0
 11
347.504473
 21
291.900388
 31
0.0
  0
LINE
  5
B0
330
1F
100
AcDbEntity
  8
FIG_5-1
  6
CONTINUOUS
 62
     3
100
AcDbLine
 10
328.792162
 20
278.612699
 30
0.0
 11
328.792162
 21
382.612699
 31
0.0
  0
ARC
  5
B1
330
1F
100
AcDbEntity
  8
FIG_5-1
  6
CONTINUOUS
 62
     3
100
AcDbCircle
 10
370.787706
 20
296.012699
 30
0.0
 40
10.0
100
AcDbArc
 50
90.0
 51
159.949763
  0
ARC
  5
B2
330
1F
100
AcDbEntity
  8
FIG_5-1
  6
CONTINUOUS
 62
     3
100
AcDbCircle
 10
343.298846
 20
293.612699
 30
0.0
 40
15.0
100
AcDbArc
 50
270.0
 51
339.949763
  0
ARC
  5
B3
330
1F
100
AcDbEntity
  8
FIG_5-1
  6
CONTINUOUS
 62
     3
100
AcDbCircle
 10
378.792162
 20
119.579853
 30
0.0
 40
19.0
100
AcDbArc
 50
197.897548
 51
342.102452
  0
LINE
  5
B4
330
1F
100
AcDbEntity
  8
FIG_5-1
  6
CONTINUOUS
 62
     3
100
AcDbLine
 10
428.792162
 20
212.579853
 30
0.0
 11
328.792162
 21
212.579853
 31
0.0
  0
LINE
  5
B5
330
1F
100
AcDbEntity
  8
FIG_5-1
  6
CONTINUOUS
 62
     3
100
AcDbLine
 10
343.298846
 20
278.612699
 30
0.0
 11
328.792162
 21
278.612699
 31
0.0
  0
LINE
  5
B6
330
1F
100
AcDbEntity
  8
FIG_5-1
  6
CONTINUOUS
 62
     3
100
AcDbLine
 10
357.389732
 20
288.47004
 30
0.0
 11
361.393782
 21
299.441138
 31
0.0
  0
LINE
  5
B7
330
1F
100
AcDbEntity
  8
FIG_5-1
  6
CONTINUOUS
 62
     3
100
AcDbLine
 10
370.787706
 20
306.012699
 30
0.0
 11
386.796618
 21
306.012699
 31
0.0
  0
ARC
  5
B8
330
1F
100
AcDbEntity
  8
FIG_5-1
  6
CONTINUOUS
 62
     3
100
AcDbCircle
 10
414.285478
 20
293.612699
 30
0.0
 40
15.0
100
AcDbArc
 50
200.050237
 51
270.0
  0
LINE
  5
B9
330
1F
100
AcDbEntity
  8
FIG_5-1
  6
CONTINUOUS
 62
     3
100
AcDbLine
 10
414.285478
 20
278.612699
 30
0.0
 11
428.792162
 21
278.612699
 31
0.0
  0
ARC
  5
BA
330
1F
100
AcDbEntity
  8
FIG_5-1
  6
CONTINUOUS
 62
     3
100
AcDbCircle
 10
386.796618
 20
296.012699
 30
0.0
 40
10.0
100
AcDbArc
 50
20.050237
 51
90.0
  0
LINE
  5
BB
330
1F
100
AcDbEntity
  8
FIG_5-1
  6
CONTINUOUS
 62
     3
100
AcDbLine
 10
400.194592
 20
288.47004
 30
0.0
 11
396.190542
 21
299.441138
 31
0.0
  0
LINE
  5
BC
330
1F
100
AcDbEntity
  8
FIG_5-1
  6
CONTINUOUS
 62
     3
100
AcDbLine
 10
428.792162
 20
278.612699
 30
0.0
 11
428.792162
 21
382.612699
 31
0.0
  0
ARC
  5
BD
330
1F
100
AcDbEntity
  8
FIG_5-1
  6
CONTINUOUS
 62
     3
100
AcDbCircle
 10
413.792162
 20
295.612699
 30
0.0
 40
5.25
100
AcDbArc
 50
45.0
 51
225.0
  0
LINE
  5
BE
330
1F
100
AcDbEntity
  8
FIG_5-1
  6
CONTINUOUS
 62
     3
100
AcDbLine
 10
417.504473
 20
299.32501
 30
0.0
 11
419.004473
 21
297.82501
 31
0.0
  0
ARC
  5
BF
330
1F
100
AcDbEntity
  8
FIG_5-1
  6
CONTINUOUS
 62
     3
100
AcDbCircle
 10
415.292162
 20
294.112699
 30
0.0
 40
5.25
100
AcDbArc
 50
-135.0
 51
45.0
  0
LINE
  5
C0
330
1F
100
AcDbEntity
  8
FIG_5-1
  6
CONTINUOUS
 62
     3
100
AcDbLine
 10
411.579851
 20
290.400388
 30
0.0
 11
410.079851
 21
291.900388
 31
0.0
  0
LINE
  5
C1
330
1F
100
AcDbEntity
  8
FIG_5-1
  6
CONTINUOUS
 62
     3
100
AcDbLine
 10
412.971961
 20
163.592397
 30
0.0
 11
396.872705
 21
113.740848
 31
0.0
  0
LINE
  5
C3
330
1F
100
AcDbEntity
  8
FIG_1-1
  6
CONTINUOUS
 62
     6
100
AcDbLine
 10
353.792162
 20
143.629098
 30
0.0
 11
353.792162
 21
212.579853
 31
0.0
  0
LINE
  5
C4
330
1F
100
AcDbEntity
  8
FIG_1-1
  6
CONTINUOUS
 62
     6
100
AcDbLine
 10
363.792162
 20
107.917949
 30
0.0
 11
363.792162
 21
212.579853
 31
0.0
  0
LINE
  5
C5
330
1F
100
AcDbEntity
  8
FIG_1-1
  6
CONTINUOUS
 62
     6
100
AcDbLine
 10
403.792162
 20
143.629098
 30
0.0
 11
403.792162
 21
212.579853
 31
0.0
  0
LINE
  5
C6
330
1F
100
AcDbEntity
  8
FIG_1-1
  6
CONTINUOUS
 62
     6
100
AcDbLine
 10
393.792162
 20
107.917949
 30
0.0
 11
393.792162
 21
212.579853
 31
0.0
  0
ARC
  5
C7
330
1F
100
AcDbEntity
  8
LAYERGROUP-1
  6
CONTINUOUS
 62
     3
100
AcDbCircle
 10
583.507847
 20
86.27786
 30
0.0
 40
188.6448831706998
100
AcDbArc
 50
152.575792
 51
170.50868
  0
ARC
  5
C8
330
1F
100
AcDbEntity
  8
LAYERGROUP-1
  6
CONTINUOUS
 62
     3
100
AcDbCircle
 10
372.578411
 20
121.542492
 30
0.0
 40
25.21212859655067
100
AcDbArc
 50
327.289373
 51
350.50868
  0
ARC
  5
C9
330
1F
100
AcDbEntity
  8
LAYERGROUP-1
  6
CONTINUOUS
 62
     3
100
AcDbCircle
 10
304.990089
 20
230.79708
 30
0.0
 40
125.1352097339484
100
AcDbArc
 50
332.575792
 51
351.629113
  0
ARC
  5
CA
330
1F
100
AcDbEntity
  8
LAYERGROUP-1
  6
CONTINUOUS
 62
     3
100
AcDbCircle
 10
555.713094
 20
117.495014
 30
0.0
 40
150.0
100
AcDbArc
 50
155.681725
 51
162.102452
  0
LINE
  5
CB
330
1F
100
AcDbEntity
  8
FIG_5-1
  6
CONTINUOUS
 62
     3
100
AcDbLine
 10
344.612363
 20
163.592397
 30
0.0
 11
360.711619
 21
113.740848
 31
0.0
  0
ARC
  5
CC
330
1F
100
AcDbEntity
  8
LAYERGROUP-1
  6
CONTINUOUS
 62
     3
100
AcDbCircle
 10
174.076477
 20
86.27786
 30
0.0
 40
188.6448831706998
100
AcDbArc
 50
9.49132
 51
27.424208
  0
ARC
  5
CD
330
1F
100
AcDbEntity
  8
LAYERGROUP-1
  6
CONTINUOUS
 62
     3
100
AcDbCircle
 10
385.005913
 20
121.542492
 30
0.0
 40
25.21212859655067
100
AcDbArc
 50
189.49132
 51
212.710627
  0
ARC
  5
CE
330
1F
100
AcDbEntity
  8
LAYERGROUP-1
  6
CONTINUOUS
 62
     3
100
AcDbCircle
 10
452.594235
 20
230.79708
 30
0.0
 40
125.1352097339484
100
AcDbArc
 50
188.370887
 51
207.424208
  0
ARC
  5
CF
330
1F
100
AcDbEntity
  8
LAYERGROUP-1
  6
CONTINUOUS
 62
     3
100
AcDbCircle
 10
201.87123
 20
117.495014
 30
0.0
 40
150.0
100
AcDbArc
 50
17.897548
 51
24.318275
  0
LINE
  5
D0
330
1F
100
AcDbEntity
  8
LAYERGROUP-1
  6
CONTINUOUS
 62
     3
100
AcDbLine
 10
428.792162
 20
209.979853
 30
0.0
 11
428.792162
 21
212.579853
 31
0.0
  0
LINE
  5
D1
330
1F
100
AcDbEntity
  8
LAYERGROUP-1
  6
CONTINUOUS
 62
     3
100
AcDbLine
 10
328.792162
 20
209.979853
 30
0.0
 11
328.792162
 21
212.579853
 31
0.0
  0
ARC
  5
D2
330
1F
100
AcDbEntity
  8
LAYERGROUP-1
  6
CONTINUOUS
 62
     3
100
AcDbCircle
 10
327.677643
 20
208.659565
 30
0.0
 40
1.727805094376783
100
AcDbArc
 50
10.049525
 51
49.830655
  0
ARC
  5
D3
330
1F
100
AcDbEntity
  8
LAYERGROUP-1
  6
CONTINUOUS
 62
     3
100
AcDbCircle
 10
429.906681
 20
208.659565
 30
0.0
 40
1.727805094376783
100
AcDbArc
 50
130.169345
 51
169.950475
  0
TEXT
  5
D5
330
1F
100
AcDbEntity
  8
GR1-1
  6
CONTINUOUS
 62
     7
100
AcDbText
 10
374.866638
 20
165.734848
 30
0.0
 40
7.709857
  1
KP-100
 50
270.0
 41
0.69535
  7
FX_VECTOR
 72
     5
 11
374.866638
 21
133.823848
 31
0.0
100
AcDbText
  0
LINE
  5
D7
330
1F
100
AcDbEntity
  8
FIG_3-1
  6
DASHED
 62
     6
100
AcDbLine
 10
399.235813
 20
320.612699
 30
0.0
 11
358.348511
 21
320.612699
 31
0.0
  0
LINE
  5
D8
330
1F
100
AcDbEntity
  8
FIG_3-1
  6
DASHED
 62
     6
100
AcDbLine
 10
338.792162
 20
315.612699
 30
0.0
 11
338.792162
 21
345.612699
 31
0.0
  0
LINE
  5
D9
330
1F
100
AcDbEntity
  8
FIG_3-1
  6
DASHED
 62
     6
100
AcDbLine
 10
354.10587
 20
318.85534
 30
0.0
 11
347.327696
 21
312.077165
 31
0.0
  0
ARC
  5
DA
330
1F
100
AcDbEntity
  8
FIG_3-1
  6
DASHED
 62
     6
100
AcDbCircle
 10
343.792162
 20
315.612699
 30
0.0
 40
5.0
100
AcDbArc
 50
180.0
 51
315.0
  0
ARC
  5
DB
330
1F
100
AcDbEntity
  8
FIG_3-1
  6
DASHED
 62
     6
100
AcDbCircle
 10
358.348511
 20
314.612699
 30
0.0
 40
6.0
100
AcDbArc
 50
90.0
 51
135.0
  0
LINE
  5
DD
330
1F
100
AcDbEntity
  8
FIG_4-1
  6
CONTINUOUS
 62
     6
100
AcDbLine
 10
340.792162
 20
315.612699
 30
0.0
 11
340.792162
 21
345.612699
 31
0.0
  0
LINE
  5
DE
330
1F
100
AcDbEntity
  8
FIG_4-1
  6
CONTINUOUS
 62
     6
100
AcDbLine
 10
352.691657
 20
320.269553
 30
0.0
 11
345.913482
 21
313.491379
 31
0.0
  0
ARC
  5
DF
330
1F
100
AcDbEntity
  8
FIG_4-1
  6
CONTINUOUS
 62
     6
100
AcDbCircle
 10
358.348511
 20
314.612699
 30
0.0
 40
8.0
100
AcDbArc
 50
90.0
 51
135.0
  0
LINE
  5
E0
330
1F
100
AcDbEntity
  8
FIG_4-1
  6
CONTINUOUS
 62
     6
100
AcDbLine
 10
399.235813
 20
322.612699
 30
0.0
 11
358.348511
 21
322.612699
 31
0.0
  0
ARC
  5
E1
330
1F
100
AcDbEntity
  8
FIG_4-1
  6
CONTINUOUS
 62
     6
100
AcDbCircle
 10
343.792162
 20
315.612699
 30
0.0
 40
3.0
100
AcDbArc
 50
180.0
 51
315.0
  0
LINE
  5
E2
330
1F
100
AcDbEntity
  8
FIG_3-1
  6
DASHED
 62
     6
100
AcDbLine
 10
418.792162
 20
315.612699
 30
0.0
 11
418.792162
 21
345.612699
 31
0.0
  0
LINE
  5
E3
330
1F
100
AcDbEntity
  8
FIG_3-1
  6
DASHED
 62
     6
100
AcDbLine
 10
403.478454
 20
318.85534
 30
0.0
 11
410.256628
 21
312.077165
 31
0.0
  0
ARC
  5
E4
330
1F
100
AcDbEntity
  8
FIG_3-1
  6
DASHED
 62
     6
100
AcDbCircle
 10
413.792162
 20
315.612699
 30
0.0
 40
5.0
100
AcDbArc
 50
225.0
 51
360.0
  0
ARC
  5
E5
330
1F
100
AcDbEntity
  8
FIG_3-1
  6
DASHED
 62
     6
100
AcDbCircle
 10
399.235813
 20
314.612699
 30
0.0
 40
6.0
100
AcDbArc
 50
45.0
 51
90.0
  0
LINE
  5
E6
330
1F
100
AcDbEntity
  8
FIG_4-1
  6
CONTINUOUS
 62
     6
100
AcDbLine
 10
416.792162
 20
315.612699
 30
0.0
 11
416.792162
 21
345.612699
 31
0.0
  0
LINE
  5
E7
330
1F
100
AcDbEntity
  8
FIG_4-1
  6
CONTINUOUS
 62
     6
100
AcDbLine
 10
404.892667
 20
320.269553
 30
0.0
 11
411.670842
 21
313.491379
 31
0.0
  0
ARC
  5
E8
330
1F
100
AcDbEntity
  8
FIG_4-1
  6
CONTINUOUS
 62
     6
100
AcDbCircle
 10
399.235813
 20
314.612699
 30
0.0
 40
8.0
100
AcDbArc
 50
45.0
 51
90.0
  0
ARC
  5
E9
330
1F
100
AcDbEntity
  8
FIG_4-1
  6
CONTINUOUS
 62
     6
100
AcDbCircle
 10
413.792162
 20
315.612699
 30
0.0
 40
3.0
100
AcDbArc
 50
225.0
 51
360.0
  0
LINE
  5
EA
330
1F
100
AcDbEntity
  8
FIG_2-1
  6
CENTER
 62
     6
100
AcDbLine
 10
171.663809
 20
63.853934
 30
0.0
 11
171.663809
 21
216.669781
 31
0.0
  0
LINE
  5
EB
330
1F
100
AcDbEntity
  8
FIG_5-1
  6
CONTINUOUS
 62
     3
100
AcDbLine
 10
221.063809
 20
212.579853
 30
0.0
 11
122.263809
 21
212.579853
 31
0.0
  0
LINE
  5
EC
330
1F
100
AcDbEntity
  8
FIG_4-1
  6
CONTINUOUS
 62
     3
100
AcDbLine
 10
221.063809
 20
209.979853
 30
0.0
 11
122.263809
 21
209.979853
 31
0.0
  0
LINE
  5
ED
330
1F
100
AcDbEntity
  8
FIG_2-1
  6
CONTINUOUS
 62
     3
100
AcDbLine
 10
193.663809
 20
100.579853
 30
0.0
 11
193.663809
 21
209.979853
 31
0.0
  0
LINE
  5
EE
330
1F
100
AcDbEntity
  8
LAYERGROUP-1
  6
CONTINUOUS
 62
     3
100
AcDbLine
 10
196.263809
 20
100.579853
 30
0.0
 11
193.663809
 21
100.579853
 31
0.0
  0
ARC
  5
EF
330
1F
100
AcDbEntity
  8
LAYERGROUP-1
  6
CONTINUOUS
 62
     3
100
AcDbCircle
 10
269.643247
 20
100.579853
 30
0.0
 40
73.37943711534848
100
AcDbArc
 50
151.878226
 51
180.0
  0
ARC
  5
F0
330
1F
100
AcDbEntity
  8
LAYERGROUP-1
  6
CONTINUOUS
 62
     3
100
AcDbCircle
 10
252.403313
 20
100.579853
 30
0.0
 40
58.73950339390427
100
AcDbArc
 50
143.926456
 51
180.0
  0
ARC
  5
F1
330
1F
100
AcDbEntity
  8
LAYERGROUP-1
  6
CONTINUOUS
 62
     3
100
AcDbCircle
 10
64.942517
 20
209.979853
 30
0.0
 40
158.7212928116615
100
AcDbArc
 50
331.878226
 51
360.0
  0
ARC
  5
F2
330
1F
100
AcDbEntity
  8
LAYERGROUP-1
  6
CONTINUOUS
 62
     3
100
AcDbCircle
 10
13.049657
 20
209.979853
 30
0.0
 40
208.0141521040039
100
AcDbArc
 50
344.171575
 51
360.0
  0
LINE
  5
F3
330
1F
100
AcDbEntity
  8
FIG_2-1
  6
CONTINUOUS
 62
     3
100
AcDbLine
 10
149.663809
 20
100.579853
 30
0.0
 11
149.663809
 21
209.979853
 31
0.0
  0
LINE
  5
F4
330
1F
100
AcDbEntity
  8
LAYERGROUP-1
  6
CONTINUOUS
 62
     3
100
AcDbLine
 10
147.063809
 20
100.579853
 30
0.0
 11
149.663809
 21
100.579853
 31
0.0
  0
ARC
  5
F5
330
1F
100
AcDbEntity
  8
LAYERGROUP-1
  6
CONTINUOUS
 62
     3
100
AcDbCircle
 10
73.684372
 20
100.579853
 30
0.0
 40
73.37943711534848
100
AcDbArc
 50
0.0
 51
28.121774
  0
ARC
  5
F6
330
1F
100
AcDbEntity
  8
LAYERGROUP-1
  6
CONTINUOUS
 62
     3
100
AcDbCircle
 10
90.924306
 20
100.579853
 30
0.0
 40
58.73950339390427
100
AcDbArc
 50
0.0
 51
36.073544
  0
ARC
  5
F7
330
1F
100
AcDbEntity
  8
LAYERGROUP-1
  6
CONTINUOUS
 62
     3
100
AcDbCircle
 10
278.385102
 20
209.979853
 30
0.0
 40
158.7212928116615
100
AcDbArc
 50
180.0
 51
208.121774
  0
ARC
  5
F8
330
1F
100
AcDbEntity
  8
LAYERGROUP-1
  6
CONTINUOUS
 62
     3
100
AcDbCircle
 10
330.277962
 20
209.979853
 30
0.0
 40
208.0141521040039
100
AcDbArc
 50
180.0
 51
195.828425
  0
ARC
  5
F9
330
1F
100
AcDbEntity
  8
LAYERGROUP-1
  6
CONTINUOUS
 62
     3
100
AcDbCircle
 10
122.263809
 20
209.979853
 30
0.0
 40
2.6
100
AcDbArc
 50
90.0
 51
180.0
  0
ARC
  5
FA
330
1F
100
AcDbEntity
  8
LAYERGROUP-1
  6
CONTINUOUS
 62
     3
100
AcDbCircle
 10
221.063809
 20
209.979853
 30
0.0
 40
2.6
100
AcDbArc
 50
0.0
 51
90.0
  0
LINE
  5
FB
330
1F
100
AcDbEntity
  8
FIG_3-1
  6
CONTINUOUS
 62
     3
100
AcDbLine
 10
179.663809
 20
207.479853
 30
0.0
 11
163.663809
 21
207.479853
 31
0.0
  0
ARC
  5
FC
330
1F
100
AcDbEntity
  8
FIG_3-1
  6
CONTINUOUS
 62
     3
100
AcDbCircle
 10
183.756485
 20
208.979853
 30
0.0
 40
1.0
100
AcDbArc
 50
90.0
 51
152.837112
  0
ARC
  5
FD
330
1F
100
AcDbEntity
  8
FIG_3-1
  6
CONTINUOUS
 62
     3
100
AcDbCircle
 10
179.663809
 20
211.079853
 30
0.0
 40
3.6
100
AcDbArc
 50
270.0
 51
332.837112
  0
ARC
  5
FE
330
1F
100
AcDbEntity
  8
FIG_3-1
  6
CONTINUOUS
 62
     3
100
AcDbCircle
 10
159.571133
 20
208.979853
 30
0.0
 40
1.0
100
AcDbArc
 50
27.162888
 51
90.0
  0
ARC
  5
FF
330
1F
100
AcDbEntity
  8
FIG_3-1
  6
CONTINUOUS
 62
     3
100
AcDbCircle
 10
163.663809
 20
211.079853
 30
0.0
 40
3.6
100
AcDbArc
 50
207.162888
 51
270.0
  0
ARC
  5
100
330
1F
100
AcDbEntity
  8
FIG_5-1
  6
CONTINUOUS
 62
     3
100
AcDbCircle
 10
343.792162
 20
365.612699
 30
0.0
 40
5.25
100
AcDbArc
 50
-135.0
 51
45.0
  0
LINE
  5
101
330
1F
100
AcDbEntity
  8
FIG_5-1
  6
CONTINUOUS
 62
     3
100
AcDbLine
 10
340.079851
 20
361.900388
 30
0.0
 11
338.579851
 21
363.400388
 31
0.0
  0
ARC
  5
102
330
1F
100
AcDbEntity
  8
FIG_5-1
  6
CONTINUOUS
 62
     3
100
AcDbCircle
 10
342.292162
 20
367.112699
 30
0.0
 40
5.25
100
AcDbArc
 50
45.0
 51
225.0
  0
LINE
  5
103
330
1F
100
AcDbEntity
  8
FIG_5-1
  6
CONTINUOUS
 62
     3
100
AcDbLine
 10
346.004473
 20
370.82501
 30
0.0
 11
347.504473
 21
369.32501
 31
0.0
  0
ARC
  5
104
330
1F
100
AcDbEntity
  8
FIG_5-1
  6
CONTINUOUS
 62
     3
100
AcDbCircle
 10
370.787706
 20
365.212699
 30
0.0
 40
10.0
100
AcDbArc
 50
200.050237
 51
270.0
  0
ARC
  5
105
330
1F
100
AcDbEntity
  8
FIG_5-1
  6
CONTINUOUS
 62
     3
100
AcDbCircle
 10
343.298846
 20
367.612699
 30
0.0
 40
15.0
100
AcDbArc
 50
20.050237
 51
90.0
  0
LINE
  5
106
330
1F
100
AcDbEntity
  8
FIG_5-1
  6
CONTINUOUS
 62
     3
100
AcDbLine
 10
343.298846
 20
382.612699
 30
0.0
 11
328.792162
 21
382.612699
 31
0.0
  0
LINE
  5
107
330
1F
100
AcDbEntity
  8
FIG_5-1
  6
CONTINUOUS
 62
     3
100
AcDbLine
 10
357.389732
 20
372.755358
 30
0.0
 11
361.393782
 21
361.78426
 31
0.0
  0
LINE
  5
108
330
1F
100
AcDbEntity
  8
FIG_5-1
  6
CONTINUOUS
 62
     3
100
AcDbLine
 10
370.787706
 20
355.212699
 30
0.0
 11
386.796618
 21
355.212699
 31
0.0
  0
ARC
  5
109
330
1F
100
AcDbEntity
  8
FIG_5-1
  6
CONTINUOUS
 62
     3
100
AcDbCircle
 10
414.285478
 20
367.612699
 30
0.0
 40
15.0
100
AcDbArc
 50
90.0
 51
159.949763
  0
LINE
  5
10A
330
1F
100
AcDbEntity
  8
FIG_5-1
  6
CONTINUOUS
 62
     3
100
AcDbLine
 10
414.285478
 20
382.612699
 30
0.0
 11
428.792162
 21
382.612699
 31
0.0
  0
ARC
  5
10B
330
1F
100
AcDbEntity
  8
FIG_5-1
  6
CONTINUOUS
 62
     3
100
AcDbCircle
 10
386.796618
 20
365.212699
 30
0.0
 40
10.0
100
AcDbArc
 50
270.0
 51
339.949763
  0
LINE
  5
10C
330
1F
100
AcDbEntity
  8
FIG_5-1
  6
CONTINUOUS
 62
     3
100
AcDbLine
 10
400.194592
 20
372.755358
 30
0.0
 11
396.190542
 21
361.78426
 31
0.0
  0
ARC
  5
10D
330
1F
100
AcDbEntity
  8
FIG_5-1
  6
CONTINUOUS
 62
     3
100
AcDbCircle
 10
413.792162
 20
365.612699
 30
0.0
 40
5.25
100
AcDbArc
 50
135.0
 51
315.0
  0
LINE
  5
10E
330
1F
100
AcDbEntity
  8
FIG_5-1
  6
CONTINUOUS
 62
     3
100
AcDbLine
 10
417.504473
 20
361.900388
 30
0.0
 11
419.004473
 21
363.400388
 31
0.0
  0
ARC
  5
10F
330
1F
100
AcDbEntity
  8
FIG_5-1
  6
CONTINUOUS
 62
     3
100
AcDbCircle
 10
415.292162
 20
367.112699
 30
0.0
 40
5.25
100
AcDbArc
 50
-45.0
 51
135.0
  0
LINE
  5
110
330
1F
100
AcDbEntity
  8
FIG_5-1
  6
CONTINUOUS
 62
     3
100
AcDbLine
 10
411.579851
 20
370.82501
 30
0.0
 11
410.079851
 21
369.32501
 31
0.0
  0
LINE
  5
111
330
1F
100
AcDbEntity
  8
FIG_3-1
  6
DASHED
 62
     6
100
AcDbLine
 10
399.235813
 20
340.612699
 30
0.0
 11
358.348511
 21
340.612699
 31
0.0
  0
LINE
  5
112
330
1F
100
AcDbEntity
  8
FIG_3-1
  6
DASHED
 62
     6
100
AcDbLine
 10
354.10587
 20
342.370058
 30
0.0
 11
347.327696
 21
349.148233
 31
0.0
  0
ARC
  5
113
330
1F
100
AcDbEntity
  8
FIG_3-1
  6
DASHED
 62
     6
100
AcDbCircle
 10
343.792162
 20
345.612699
 30
0.0
 40
5.0
100
AcDbArc
 50
45.0
 51
180.0
  0
ARC
  5
114
330
1F
100
AcDbEntity
  8
FIG_3-1
  6
DASHED
 62
     6
100
AcDbCircle
 10
358.348511
 20
346.612699
 30
0.0
 40
6.0
100
AcDbArc
 50
225.0
 51
270.0
  0
LINE
  5
115
330
1F
100
AcDbEntity
  8
FIG_4-1
  6
CONTINUOUS
 62
     6
100
AcDbLine
 10
352.691657
 20
340.955845
 30
0.0
 11
345.913482
 21
347.734019
 31
0.0
  0
ARC
  5
116
330
1F
100
AcDbEntity
  8
FIG_4-1
  6
CONTINUOUS
 62
     6
100
AcDbCircle
 10
358.348511
 20
346.612699
 30
0.0
 40
8.0
100
AcDbArc
 50
225.0
 51
270.0
  0
LINE
  5
117
330
1F
100
AcDbEntity
  8
FIG_4-1
  6
CONTINUOUS
 62
     6
100
AcDbLine
 10
399.235813
 20
338.612699
 30
0.0
 11
358.348511
 21
338.612699
 31
0.0
  0
ARC
  5
118
330
1F
100
AcDbEntity
  8
FIG_4-1
  6
CONTINUOUS
 62
     6
100
AcDbCircle
 10
343.792162
 20
345.612699
 30
0.0
 40
3.0
100
AcDbArc
 50
45.0
 51
180.0
  0
LINE
  5
119
330
1F
100
AcDbEntity
  8
FIG_3-1
  6
DASHED
 62
     6
100
AcDbLine
 10
403.478454
 20
342.370058
 30
0.0
 11
410.256628
 21
349.148233
 31
0.0
  0
ARC
  5
11A
330
1F
100
AcDbEntity
  8
FIG_3-1
  6
DASHED
 62
     6
100
AcDbCircle
 10
413.792162
 20
345.612699
 30
0.0
 40
5.0
100
AcDbArc
 50
0.0
 51
135.0
  0
ARC
  5
11B
330
1F
100
AcDbEntity
  8
FIG_3-1
  6
DASHED
 62
     6
100
AcDbCircle
 10
399.235813
 20
346.612699
 30
0.0
 40
6.0
100
AcDbArc
 50
270.0
 51
315.0
  0
LINE
  5
11C
330
1F
100
AcDbEntity
  8
FIG_4-1
  6
CONTINUOUS
 62
     6
100
AcDbLine
 10
404.892667
 20
340.955845
 30
0.0
 11
411.670842
 21
347.734019
 31
0.0
  0
ARC
  5
11D
330
1F
100
AcDbEntity
  8
FIG_4-1
  6
CONTINUOUS
 62
     6
100
AcDbCircle
 10
399.235813
 20
346.612699
 30
0.0
 40
8.0
100
AcDbArc
 50
270.0
 51
315.0
  0
ARC
  5
11E
330
1F
100
AcDbEntity
  8
FIG_4-1
  6
CONTINUOUS
 62
     6
100
AcDbCircle
 10
413.792162
 20
345.612699
 30
0.0
 40
3.0
100
AcDbArc
 50
0.0
 51
135.0
  0
TEXT
  5
120
330
1F
100
AcDbEntity
  8
SMP_1-1
  6
CONTINUOUS
 62
     7
100
AcDbText
 10
320.77478
 20
394.233643
 30
0.0
 40
4.0
  1
10.5
 50
225.0
 41
0.623915
  7
FX_VECTOR
 72
     5
 11
315.144549
 21
388.603412
 31
0.0
100
AcDbText
  0
LINE
  5
121
330
1F
100
AcDbEntity
  8
FIG_1-1
  6
CONTINUOUS
 62
     7
100
AcDbLine
 10
338.579851
 20
363.400388
 30
0.0
 11
313.072745
 21
388.907495
 31
0.0
  0
LINE
  5
122
330
1F
100
AcDbEntity
  8
FIG_1-1
  6
CONTINUOUS
 62
     7
100
AcDbLine
 10
346.004473
 20
370.82501
 30
0.0
 11
320.497366
 21
396.332116
 31
0.0
  0
LINE
  5
123
330
1F
100
AcDbEntity
  8
FIG_1-1
  6
CONTINUOUS
 62
     7
100
AcDbLine
 10
313.779851
 20
388.200388
 30
0.0
 11
321.204473
 21
395.62501
 31
0.0
  0
CIRCLE
  5
124
330
1F
100
AcDbEntity
  8
GR1-1
  6
CONTINUOUS
 62
     3
100
AcDbCircle
 10
378.792162
 20
118.579853
 30
0.0
 40
8.5
  0
LINE
  5
125
330
1F
100
AcDbEntity
  8
GR1-1
  6
CENTER
 62
     6
100
AcDbLine
 10
320.928313
 20
118.579853
 30
0.0
 11
434.783904
 21
118.579853
 31
0.0
  0
CIRCLE
  5
126
330
1F
100
AcDbEntity
  8
GR1-1
  6
CONTINUOUS
 62
     6
100
AcDbCircle
 10
378.792162
 20
118.579853
 30
0.0
 40
6.500000000000057
  0
LINE
  5
127
330
1F
100
AcDbEntity
  8
GR1-1
  6
CONTINUOUS
 62
     3
100
AcDbLine
 10
369.642162
 20
355.712699
 30
0.0
 11
369.642162
 21
357.412699
 31
0.0
  0
LINE
  5
128
330
1F
100
AcDbEntity
  8
GR1-1
  6
CONTINUOUS
 62
     3
100
AcDbLine
 10
370.142162
 20
357.912699
 30
0.0
 11
387.442162
 21
357.912699
 31
0.0
  0
LINE
  5
129
330
1F
100
AcDbEntity
  8
GR1-1
  6
CONTINUOUS
 62
     3
100
AcDbLine
 10
387.292162
 20
358.028169
 30
0.0
 11
387.292162
 21
363.797229
 31
0.0
  0
LINE
  5
12A
330
1F
100
AcDbEntity
  8
GR1-1
  6
CONTINUOUS
 62
     3
100
AcDbLine
 10
387.292162
 20
363.797229
 30
0.0
 11
387.092162
 21
363.912699
 31
0.0
  0
LINE
  5
12B
330
1F
100
AcDbEntity
  8
GR1-1
  6
CONTINUOUS
 62
     3
100
AcDbLine
 10
387.092162
 20
363.912699
 30
0.0
 11
370.492162
 21
363.912699
 31
0.0
  0
LINE
  5
12C
330
1F
100
AcDbEntity
  8
GR1-1
  6
CONTINUOUS
 62
     3
100
AcDbLine
 10
370.492162
 20
363.912699
 30
0.0
 11
370.292162
 21
363.797229
 31
0.0
  0
LINE
  5
12D
330
1F
100
AcDbEntity
  8
GR1-1
  6
CONTINUOUS
 62
     3
100
AcDbLine
 10
370.292162
 20
363.797229
 30
0.0
 11
370.292162
 21
358.028169
 31
0.0
  0
LINE
  5
12E
330
1F
100
AcDbEntity
  8
GR1-1
  6
CONTINUOUS
 62
     3
100
AcDbLine
 10
370.292162
 20
358.028169
 30
0.0
 11
370.492162
 21
357.912699
 31
0.0
  0
ARC
  5
12F
330
1F
100
AcDbEntity
  8
GR1-1
  6
CONTINUOUS
 62
     3
100
AcDbCircle
 10
370.142162
 20
357.412699
 30
0.0
 40
0.5
100
AcDbArc
 50
90.0
 51
180.0
  0
ARC
  5
130
330
1F
100
AcDbEntity
  8
GR1-1
  6
CONTINUOUS
 62
     3
100
AcDbCircle
 10
374.542162
 20
368.360014
 30
0.0
 40
10.44731484132296
100
AcDbArc
 50
245.995832
 51
294.004168
  0
LINE
  5
131
330
1F
100
AcDbEntity
  8
GR1-1
  6
CONTINUOUS
 62
     3
100
AcDbLine
 10
378.792162
 20
358.816226
 30
0.0
 11
378.792162
 21
363.009172
 31
0.0
  0
ARC
  5
132
330
1F
100
AcDbEntity
  8
GR1-1
  6
CONTINUOUS
 62
     3
100
AcDbCircle
 10
374.542162
 20
353.465384
 30
0.0
 40
10.44731484132319
100
AcDbArc
 50
65.995832
 51
114.004168
  0
LINE
  5
133
330
1F
100
AcDbEntity
  8
GR1-1
  6
CONTINUOUS
 62
     3
100
AcDbLine
 10
373.792162
 20
363.912699
 30
0.0
 11
373.792162
 21
366.712699
 31
0.0
  0
LINE
  5
134
330
1F
100
AcDbEntity
  8
GR1-1
  6
CONTINUOUS
 62
     3
100
AcDbLine
 10
373.792162
 20
366.712699
 30
0.0
 11
374.604162
 21
367.212699
 31
0.0
  0
LINE
  5
135
330
1F
100
AcDbEntity
  8
GR1-1
  6
CONTINUOUS
 62
     3
100
AcDbLine
 10
374.604162
 20
367.212699
 30
0.0
 11
382.980162
 21
367.212699
 31
0.0
  0
LINE
  5
136
330
1F
100
AcDbEntity
  8
GR1-1
  6
CONTINUOUS
 62
     3
100
AcDbLine
 10
382.980162
 20
367.212699
 30
0.0
 11
383.792162
 21
366.712699
 31
0.0
  0
LINE
  5
137
330
1F
100
AcDbEntity
  8
GR1-1
  6
CONTINUOUS
 62
     3
100
AcDbLine
 10
383.792162
 20
366.712699
 30
0.0
 11
383.792162
 21
363.912699
 31
0.0
  0
ARC
  5
138
330
1F
100
AcDbEntity
  8
GR1-1
  6
CONTINUOUS
 62
     3
100
AcDbCircle
 10
383.042162
 20
353.465384
 30
0.0
 40
10.44731484132273
100
AcDbArc
 50
65.995832
 51
114.004168
  0
ARC
  5
139
330
1F
100
AcDbEntity
  8
GR1-1
  6
CONTINUOUS
 62
     3
100
AcDbCircle
 10
383.042162
 20
368.360014
 30
0.0
 40
10.44731484132296
100
AcDbArc
 50
245.995832
 51
294.004168
  0
LINE
  5
13A
330
1F
100
AcDbEntity
  8
GR1-1
  6
CONTINUOUS
 62
     3
100
AcDbLine
 10
387.292162
 20
358.028169
 30
0.0
 11
387.092162
 21
357.912699
 31
0.0
  0
LINE
  5
13B
330
1F
100
AcDbEntity
  8
GR1-1
  6
CONTINUOUS
 62
     3
100
AcDbLine
 10
387.942162
 20
357.412699
 30
0.0
 11
387.942162
 21
355.712699
 31
0.0
  0
ARC
  5
13C
330
1F
100
AcDbEntity
  8
GR1-1
  6
CONTINUOUS
 62
     3
100
AcDbCircle
 10
387.442162
 20
355.712699
 30
0.0
 40
0.5
100
AcDbArc
 50
270.0
 51
360.0
  0
ARC
  5
13D
330
1F
100
AcDbEntity
  8
GR1-1
  6
CONTINUOUS
 62
     3
100
AcDbCircle
 10
387.442162
 20
357.412699
 30
0.0
 40
0.5
100
AcDbArc
 50
0.0
 51
90.0
  0
ARC
  5
13E
330
1F
100
AcDbEntity
  8
GR1-1
  6
CONTINUOUS
 62
     3
100
AcDbCircle
 10
370.142162
 20
355.712699
 30
0.0
 40
0.5
100
AcDbArc
 50
180.0
 51
270.0
  0
LINE
  5
13F
330
1F
100
AcDbEntity
  8
GR1-1
  6
CONTINUOUS
 62
     3
100
AcDbLine
 10
387.292162
 20
306.012699
 30
0.0
 11
387.292162
 21
303.012699
 31
0.0
  0
LINE
  5
140
330
1F
100
AcDbEntity
  8
GR1-1
  6
CONTINUOUS
 62
     3
100
AcDbLine
 10
387.292162
 20
303.012699
 30
0.0
 11
385.292162
 21
302.012699
 31
0.0
  0
LINE
  5
141
330
1F
100
AcDbEntity
  8
GR1-1
  6
CONTINUOUS
 62
     3
100
AcDbLine
 10
385.292162
 20
302.012699
 30
0.0
 11
372.292162
 21
302.012699
 31
0.0
  0
LINE
  5
142
330
1F
100
AcDbEntity
  8
GR1-1
  6
CONTINUOUS
 62
     3
100
AcDbLine
 10
372.292162
 20
302.012699
 30
0.0
 11
370.292162
 21
303.012699
 31
0.0
  0
LINE
  5
143
330
1F
100
AcDbEntity
  8
GR1-1
  6
CONTINUOUS
 62
     3
100
AcDbLine
 10
370.292162
 20
303.012699
 30
0.0
 11
370.292162
 21
306.012699
 31
0.0
  0
LINE
  5
144
330
1F
100
AcDbEntity
  8
GR1-1
  6
CENTER
 62
     6
100
AcDbLine
 10
378.792162
 20
297.54598
 30
0.0
 11
378.792162
 21
370.03823
 31
0.0
  0
LINE
  5
145
330
1F
100
AcDbEntity
  8
GR1-1
  6
CONTINUOUS
 62
     6
100
AcDbLine
 10
382.980162
 20
367.212699
 30
0.0
 11
382.980162
 21
363.912699
 31
0.0
  0
LINE
  5
146
330
1F
100
AcDbEntity
  8
GR1-1
  6
CONTINUOUS
 62
     6
100
AcDbLine
 10
383.792162
 20
366.712699
 30
0.0
 11
373.792162
 21
366.712699
 31
0.0
  0
LINE
  5
147
330
1F
100
AcDbEntity
  8
GR1-1
  6
CONTINUOUS
 62
     6
100
AcDbLine
 10
374.604162
 20
367.212699
 30
0.0
 11
374.604162
 21
363.912699
 31
0.0
  0
LINE
  5
148
330
1F
100
AcDbEntity
  8
GR1-1
  6
CONTINUOUS
 62
     6
100
AcDbLine
 10
370.292162
 20
303.012699
 30
0.0
 11
387.292162
 21
303.012699
 31
0.0
  0
ARC
  5
149
330
1F
100
AcDbEntity
  8
GR1-1
  6
CONTINUOUS
 62
     3
100
AcDbCircle
 10
145.963809
 20
109.929853
 30
0.0
 40
0.5
100
AcDbArc
 50
270.0
 51
360.0
  0
LINE
  5
14A
330
1F
100
AcDbEntity
  8
GR1-1
  6
CONTINUOUS
 62
     3
100
AcDbLine
 10
200.637014
 20
125.533443
 30
0.0
 11
200.863809
 21
125.079853
 31
0.0
  0
LINE
  5
14B
330
1F
100
AcDbEntity
  8
GR1-1
  6
CONTINUOUS
 62
     3
100
AcDbLine
 10
200.863809
 20
125.079853
 30
0.0
 11
200.863809
 21
112.079853
 31
0.0
  0
LINE
  5
14C
330
1F
100
AcDbEntity
  8
GR1-1
  6
CONTINUOUS
 62
     3
100
AcDbLine
 10
200.863809
 20
112.079853
 30
0.0
 11
199.863809
 21
110.079853
 31
0.0
  0
LINE
  5
14D
330
1F
100
AcDbEntity
  8
GR1-1
  6
CONTINUOUS
 62
     3
100
AcDbLine
 10
199.863809
 20
110.079853
 30
0.0
 11
196.863809
 21
110.079853
 31
0.0
  0
LINE
  5
14E
330
1F
100
AcDbEntity
  8
GR1-1
  6
CONTINUOUS
 62
     3
100
AcDbLine
 10
143.763809
 20
122.337938
 30
0.0
 11
143.763809
 21
109.929853
 31
0.0
  0
ARC
  5
14F
330
1F
100
AcDbEntity
  8
GR1-1
  6
CONTINUOUS
 62
     3
100
AcDbCircle
 10
144.263809
 20
109.929853
 30
0.0
 40
0.5
100
AcDbArc
 50
180.0
 51
270.0
  0
LINE
  5
150
330
1F
100
AcDbEntity
  8
GR1-1
  6
CONTINUOUS
 62
     3
100
AcDbLine
 10
144.263809
 20
109.429853
 30
0.0
 11
145.963809
 21
109.429853
 31
0.0
  0
ARC
  5
151
330
1F
100
AcDbEntity
  8
GR1-1
  6
CONTINUOUS
 62
     3
100
AcDbCircle
 10
141.547423
 20
125.941069
 30
0.0
 40
3.783613929058673
100
AcDbArc
 50
139.570103
 51
220.429897
  0
LINE
  5
152
330
1F
100
AcDbEntity
  8
GR1-1
  6
CONTINUOUS
 62
     3
100
AcDbLine
 10
138.667336
 20
123.48733
 30
0.0
 11
142.860282
 21
123.48733
 31
0.0
  0
ARC
  5
153
330
1F
100
AcDbEntity
  8
GR1-1
  6
CONTINUOUS
 62
     3
100
AcDbCircle
 10
139.980195
 20
125.941069
 30
0.0
 40
3.783613929058673
100
AcDbArc
 50
319.570103
 51
329.097855
  0
LINE
  5
154
330
1F
100
AcDbEntity
  8
GR1-1
  6
CONTINUOUS
 62
     3
100
AcDbLine
 10
141.58776
 20
128.394807
 30
0.0
 11
138.667336
 21
128.394807
 31
0.0
  0
LINE
  5
155
330
1F
100
AcDbEntity
  8
GR1-1
  6
CONTINUOUS
 62
     3
100
AcDbLine
 10
137.763809
 20
125.941069
 30
0.0
 11
137.763809
 21
111.218637
 31
0.0
  0
LINE
  5
156
330
1F
100
AcDbEntity
  8
GR1-1
  6
CONTINUOUS
 62
     3
100
AcDbLine
 10
137.763809
 20
113.579853
 30
0.0
 11
136.163809
 21
113.579853
 31
0.0
  0
LINE
  5
157
330
1F
100
AcDbEntity
  8
GR1-1
  6
CONTINUOUS
 62
     3
100
AcDbLine
 10
136.163809
 20
113.579853
 30
0.0
 11
135.663809
 21
114.391853
 31
0.0
  0
LINE
  5
158
330
1F
100
AcDbEntity
  8
GR1-1
  6
CONTINUOUS
 62
     3
100
AcDbLine
 10
135.663809
 20
114.391853
 30
0.0
 11
135.663809
 21
122.767853
 31
0.0
  0
LINE
  5
159
330
1F
100
AcDbEntity
  8
GR1-1
  6
CONTINUOUS
 62
     3
100
AcDbLine
 10
135.663809
 20
122.767853
 30
0.0
 11
136.163809
 21
123.579853
 31
0.0
  0
LINE
  5
15A
330
1F
100
AcDbEntity
  8
GR1-1
  6
CONTINUOUS
 62
     3
100
AcDbLine
 10
136.163809
 20
123.579853
 30
0.0
 11
137.763809
 21
123.579853
 31
0.0
  0
ARC
  5
15B
330
1F
100
AcDbEntity
  8
GR1-1
  6
CONTINUOUS
 62
     3
100
AcDbCircle
 10
151.542975
 20
118.579853
 30
0.0
 40
13.77916529745969
100
AcDbArc
 50
159.135936
 51
200.864064
  0
LINE
  5
15C
330
1F
100
AcDbEntity
  8
GR1-1
  6
CONTINUOUS
 62
     3
100
AcDbLine
 10
138.667336
 20
113.672375
 30
0.0
 11
142.860282
 21
113.672375
 31
0.0
  0
ARC
  5
15D
330
1F
100
AcDbEntity
  8
GR1-1
  6
CONTINUOUS
 62
     3
100
AcDbCircle
 10
129.984644
 20
118.579853
 30
0.0
 40
13.77916529745969
100
AcDbArc
 50
-20.864064
 51
20.864064
  0
ARC
  5
15E
330
1F
100
AcDbEntity
  8
GR1-1
  6
CONTINUOUS
 62
     3
100
AcDbCircle
 10
141.547423
 20
111.218637
 30
0.0
 40
3.783613929058673
100
AcDbArc
 50
139.570103
 51
220.429897
  0
LINE
  5
15F
330
1F
100
AcDbEntity
  8
GR1-1
  6
CONTINUOUS
 62
     3
100
AcDbLine
 10
138.667336
 20
108.764898
 30
0.0
 11
142.860282
 21
108.764898
 31
0.0
  0
ARC
  5
160
330
1F
100
AcDbEntity
  8
GR1-1
  6
CONTINUOUS
 62
     3
100
AcDbCircle
 10
139.980195
 20
111.218637
 30
0.0
 40
3.783613929058673
100
AcDbArc
 50
-40.429897
 51
40.429897
  0
LINE
  5
161
330
1F
100
AcDbEntity
  8
GR1-1
  6
CONTINUOUS
 62
     6
100
AcDbLine
 10
137.763809
 20
122.767853
 30
0.0
 11
135.663809
 21
122.767853
 31
0.0
  0
LINE
  5
162
330
1F
100
AcDbEntity
  8
GR1-1
  6
CONTINUOUS
 62
     6
100
AcDbLine
 10
136.163809
 20
123.579853
 30
0.0
 11
136.163809
 21
113.579853
 31
0.0
  0
LINE
  5
163
330
1F
100
AcDbEntity
  8
GR1-1
  6
CONTINUOUS
 62
     6
100
AcDbLine
 10
135.663809
 20
114.391853
 30
0.0
 11
137.763809
 21
114.391853
 31
0.0
  0
LINE
  5
164
330
1F
100
AcDbEntity
  8
GR1-1
  6
CONTINUOUS
 62
     6
100
AcDbLine
 10
199.863809
 20
123.281658
 30
0.0
 11
199.863809
 21
110.079853
 31
0.0
  0
LINE
  5
165
330
1F
100
AcDbEntity
  8
GR1-1
  6
CENTER
 62
     6
100
AcDbLine
 10
131.501151
 20
118.579853
 30
0.0
 11
205.558412
 21
118.579853
 31
0.0
  0
LINE
  5
166
330
1F
100
AcDbEntity
  8
LAYERGROUP-1
  6
CENTER
 62
     6
100
AcDbLine
 10
415.292162
 20
216.336706
 30
0.0
 11
415.292162
 21
206.976921
 31
0.0
  0
LINE
  5
167
330
1F
100
AcDbEntity
  8
LAYERGROUP-1
  6
CENTER
 62
     6
100
AcDbLine
 10
413.792162
 20
216.336706
 30
0.0
 11
413.792162
 21
206.976921
 31
0.0
  0
LINE
  5
168
330
1F
100
AcDbEntity
  8
LAYERGROUP-1
  6
CENTER
 62
     6
100
AcDbLine
 10
342.292162
 20
216.336706
 30
0.0
 11
342.292162
 21
206.976921
 31
0.0
  0
LINE
  5
169
330
1F
100
AcDbEntity
  8
LAYERGROUP-1
  6
CENTER
 62
     6
100
AcDbLine
 10
343.792162
 20
216.336706
 30
0.0
 11
343.792162
 21
206.976921
 31
0.0
  0
LINE
  5
16A
330
1F
100
AcDbEntity
  8
LAYERGROUP-1
  6
CENTER
 62
     6
100
AcDbLine
 10
208.163809
 20
216.336706
 30
0.0
 11
208.163809
 21
206.976921
 31
0.0
  0
LINE
  5
16B
330
1F
100
AcDbEntity
  8
LAYERGROUP-1
  6
CENTER
 62
     6
100
AcDbLine
 10
206.663809
 20
216.336706
 30
0.0
 11
206.663809
 21
206.976921
 31
0.0
  0
LINE
  5
16C
330
1F
100
AcDbEntity
  8
LAYERGROUP-1
  6
CENTER
 62
     6
100
AcDbLine
 10
135.163809
 20
216.336706
 30
0.0
 11
135.163809
 21
206.976921
 31
0.0
  0
LINE
  5
16D
330
1F
100
AcDbEntity
  8
LAYERGROUP-1
  6
CENTER
 62
     6
100
AcDbLine
 10
136.663809
 20
216.336706
 30
0.0
 11
136.663809
 21
206.976921
 31
0.0
  0
TEXT
  5
16E
330
1F
100
AcDbEntity
  8
}}ﾊﾊGG血CCТ
  6
CONTINUOUS
 62
     7
100
AcDbText
 10
329.0
 20
11.999999
 30
0.0
 40
6.0
  1
ＷＫＰ－１００　ＭＣＡ
 41
0.789744
  7
FX_VECTOR
 72
     5
 11
373.0
 21
11.999999
 31
0.0
100
AcDbText
  0
TEXT
  5
16F
330
1F
100
AcDbEntity
  8
LAYERGROUP-1
  6
CONTINUOUS
 62
     7
100
AcDbText
 10
429.0
 20
11.999999
 30
0.0
 40
6.0
  1
W30E0UB-C01
 41
0.6875
  7
FX_VECTOR
 72
     5
 11
473.0
 21
11.999999
 31
0.0
100
AcDbText
  0
LINE
  5
170
330
1F
100
AcDbEntity
  8
FIG_2-1
  6
CENTER
 62
     6
100
AcDbLine
 10
335.042162
 20
294.112699
 30
0.0
 11
349.542162
 21
294.112699
 31
0.0
  0
LINE
  5
171
330
1F
100
AcDbEntity
  8
FIG_2-1
  6
CENTER
 62
     6
100
AcDbLine
 10
342.292162
 20
301.362699
 30
0.0
 11
342.292162
 21
286.862699
 31
0.0
  0
LINE
  5
172
330
1F
100
AcDbEntity
  8
FIG_2-1
  6
CENTER
 62
     6
100
AcDbLine
 10
336.542162
 20
295.612699
 30
0.0
 11
351.042162
 21
295.612699
 31
0.0
  0
LINE
  5
173
330
1F
100
AcDbEntity
  8
FIG_2-1
  6
CENTER
 62
     6
100
AcDbLine
 10
343.792162
 20
302.862699
 30
0.0
 11
343.792162
 21
288.362699
 31
0.0
  0
LINE
  5
174
330
1F
100
AcDbEntity
  8
FIG_2-1
  6
CENTER
 62
     6
100
AcDbLine
 10
422.542162
 20
294.112699
 30
0.0
 11
408.042162
 21
294.112699
 31
0.0
  0
LINE
  5
175
330
1F
100
AcDbEntity
  8
FIG_2-1
  6
CENTER
 62
     6
100
AcDbLine
 10
415.292162
 20
301.362699
 30
0.0
 11
415.292162
 21
286.862699
 31
0.0
  0
LINE
  5
176
330
1F
100
AcDbEntity
  8
FIG_2-1
  6
CENTER
 62
     6
100
AcDbLine
 10
421.042162
 20
295.612699
 30
0.0
 11
406.542162
 21
295.612699
 31
0.0
  0
LINE
  5
177
330
1F
100
AcDbEntity
  8
FIG_2-1
  6
CENTER
 62
     6
100
AcDbLine
 10
413.792162
 20
302.862699
 30
0.0
 11
413.792162
 21
288.362699
 31
0.0
  0
LINE
  5
178
330
1F
100
AcDbEntity
  8
FIG_2-1
  6
CENTER
 62
     6
100
AcDbLine
 10
335.042162
 20
367.112699
 30
0.0
 11
349.542162
 21
367.112699
 31
0.0
  0
LINE
  5
179
330
1F
100
AcDbEntity
  8
FIG_2-1
  6
CENTER
 62
     6
100
AcDbLine
 10
342.292162
 20
359.862699
 30
0.0
 11
342.292162
 21
374.362699
 31
0.0
  0
LINE
  5
17A
330
1F
100
AcDbEntity
  8
FIG_2-1
  6
CENTER
 62
     6
100
AcDbLine
 10
336.542162
 20
365.612699
 30
0.0
 11
351.042162
 21
365.612699
 31
0.0
  0
LINE
  5
17B
330
1F
100
AcDbEntity
  8
FIG_2-1
  6
CENTER
 62
     6
100
AcDbLine
 10
343.792162
 20
358.362699
 30
0.0
 11
343.792162
 21
372.862699
 31
0.0
  0
LINE
  5
17C
330
1F
100
AcDbEntity
  8
FIG_2-1
  6
CENTER
 62
     6
100
AcDbLine
 10
422.542162
 20
367.112699
 30
0.0
 11
408.042162
 21
367.112699
 31
0.0
  0
LINE
  5
17D
330
1F
100
AcDbEntity
  8
FIG_2-1
  6
CENTER
 62
     6
100
AcDbLine
 10
415.292162
 20
359.862699
 30
0.0
 11
415.292162
 21
374.362699
 31
0.0
  0
LINE
  5
17E
330
1F
100
AcDbEntity
  8
FIG_2-1
  6
CENTER
 62
     6
100
AcDbLine
 10
421.042162
 20
365.612699
 30
0.0
 11
406.542162
 21
365.612699
 31
0.0
  0
LINE
  5
17F
330
1F
100
AcDbEntity
  8
FIG_2-1
  6
CENTER
 62
     6
100
AcDbLine
 10
413.792162
 20
358.362699
 30
0.0
 11
413.792162
 21
372.862699
 31
0.0
  0
TEXT
  5
180
330
1F
100
AcDbEntity
  8
LAYERGROUP-1
  6
CONTINUOUS
 62
     7
100
AcDbText
 10
452.073761
 20
327.612701
 30
0.0
 40
4.0
  1
70
 50
90.0
 41
0.851351
  7
FX_VECTOR
 72
     5
 11
452.073761
 21
333.612701
 31
0.0
100
AcDbText
  0
LINE
  5
181
330
1F
100
AcDbEntity
  8
LAYERGROUP-1
  6
CONTINUOUS
 62
     7
100
AcDbLine
 10
453.073763
 20
295.612699
 30
0.0
 11
453.073763
 21
365.612699
 31
0.0
  0
INSERT
  5
182
330
1F
100
AcDbEntity
  8
LAYERGROUP-1
  6
CONTINUOUS
 62
     7
100
AcDbBlockReference
  2
FXTIP_ARROW_E
 10
453.073763
 20
365.612699
 30
0.0
 41
4.0
 42
4.0
 50
90.0
  0
LINE
  5
183
330
1F
100
AcDbEntity
  8
LAYERGROUP-1
  6
CONTINUOUS
 62
     7
100
AcDbLine
 10
422.042162
 20
295.612699
 30
0.0
 11
454.073763
 21
295.612699
 31
0.0
  0
LINE
  5
184
330
1F
100
AcDbEntity
  8
LAYERGROUP-1
  6
CONTINUOUS
 62
     7
100
AcDbLine
 10
421.323315
 20
365.612699
 30
0.0
 11
454.073763
 21
365.612699
 31
0.0
  0
TEXT
  5
185
330
1F
100
AcDbEntity
  8
LAYERGROUP-1
  6
CONTINUOUS
 62
     7
100
AcDbText
 10
461.489166
 20
327.612701
 30
0.0
 40
4.0
  1
73
 50
90.0
 41
0.851351
  7
FX_VECTOR
 72
     5
 11
461.489166
 21
333.612701
 31
0.0
100
AcDbText
  0
LINE
  5
186
330
1F
100
AcDbEntity
  8
LAYERGROUP-1
  6
CONTINUOUS
 62
     7
100
AcDbLine
 10
462.489159
 20
294.112699
 30
0.0
 11
462.489159
 21
367.112699
 31
0.0
  0
INSERT
  5
187
330
1F
100
AcDbEntity
  8
LAYERGROUP-1
  6
CONTINUOUS
 62
     7
100
AcDbBlockReference
  2
FXTIP_ARROW_E
 10
462.489159
 20
367.112699
 30
0.0
 41
4.0
 42
4.0
 50
90.0
  0
LINE
  5
188
330
1F
100
AcDbEntity
  8
LAYERGROUP-1
  6
CONTINUOUS
 62
     7
100
AcDbLine
 10
423.542162
 20
294.112699
 30
0.0
 11
463.489159
 21
294.112699
 31
0.0
  0
LINE
  5
189
330
1F
100
AcDbEntity
  8
LAYERGROUP-1
  6
CONTINUOUS
 62
     7
100
AcDbLine
 10
423.542162
 20
367.112699
 30
0.0
 11
463.489159
 21
367.112699
 31
0.0
  0
TEXT
  5
18A
330
1F
100
AcDbEntity
  8
LAYERGROUP-1
  6
CONTINUOUS
 62
     7
100
AcDbText
 10
472.685852
 20
326.112701
 30
0.0
 40
4.0
  1
104
 50
90.0
 41
0.814655
  7
FX_VECTOR
 72
     5
 11
472.685852
 21
335.112701
 31
0.0
100
AcDbText
  0
LINE
  5
18B
330
1F
100
AcDbEntity
  8
LAYERGROUP-1
  6
CONTINUOUS
 62
     7
100
AcDbLine
 10
473.685846
 20
278.612699
 30
0.0
 11
473.685846
 21
382.612699
 31
0.0
  0
INSERT
  5
18C
330
1F
100
AcDbEntity
  8
LAYERGROUP-1
  6
CONTINUOUS
 62
     7
100
AcDbBlockReference
  2
FXTIP_ARROW_E
 10
473.685846
 20
382.612699
 30
0.0
 41
4.0
 42
4.0
 50
90.0
  0
LINE
  5
18D
330
1F
100
AcDbEntity
  8
LAYERGROUP-1
  6
CONTINUOUS
 62
     7
100
AcDbLine
 10
429.792162
 20
278.612699
 30
0.0
 11
474.685846
 21
278.612699
 31
0.0
  0
LINE
  5
18E
330
1F
100
AcDbEntity
  8
LAYERGROUP-1
  6
CONTINUOUS
 62
     7
100
AcDbLine
 10
429.792162
 20
382.612699
 30
0.0
 11
474.685846
 21
382.612699
 31
0.0
  0
LINE
  5
18F
330
1F
100
AcDbEntity
  8
SMP_1-1
  6
CONTINUOUS
 62
     7
100
AcDbLine
 10
315.328751
 20
389.075851
 30
0.0
 11
313.779851
 21
388.200388
 31
0.0
  0
LINE
  5
190
330
1F
100
AcDbEntity
  8
SMP_1-1
  6
CONTINUOUS
 62
     7
100
AcDbLine
 10
313.779851
 20
388.200388
 30
0.0
 11
314.655314
 21
389.749288
 31
0.0
  0
LINE
  5
191
330
1F
100
AcDbEntity
  8
SMP_1-1
  6
CONTINUOUS
 62
     7
100
AcDbLine
 10
319.655573
 20
394.749547
 30
0.0
 11
321.204473
 21
395.62501
 31
0.0
  0
LINE
  5
192
330
1F
100
AcDbEntity
  8
SMP_1-1
  6
CONTINUOUS
 62
     7
100
AcDbLine
 10
321.204473
 20
395.62501
 30
0.0
 11
320.32901
 21
394.07611
 31
0.0
  0
TEXT
  5
193
330
1F
100
AcDbEntity
  8
LAYERGROUP-1
  6
CONTINUOUS
 62
     7
100
AcDbText
 10
375.792175
 20
264.841553
 30
0.0
 40
4.0
  1
70
 41
0.851351
  7
FX_VECTOR
 72
     5
 11
381.792175
 21
264.841553
 31
0.0
100
AcDbText
  0
LINE
  5
194
330
1F
100
AcDbEntity
  8
LAYERGROUP-1
  6
CONTINUOUS
 62
     7
100
AcDbLine
 10
343.792162
 20
263.841544
 30
0.0
 11
413.792162
 21
263.841544
 31
0.0
  0
INSERT
  5
195
330
1F
100
AcDbEntity
  8
LAYERGROUP-1
  6
CONTINUOUS
 62
     7
100
AcDbBlockReference
  2
FXTIP_ARROW_S
 10
343.792162
 20
263.841544
 30
0.0
 41
4.0
 42
4.0
 50
180.0
  0
INSERT
  5
196
330
1F
100
AcDbEntity
  8
LAYERGROUP-1
  6
CONTINUOUS
 62
     7
100
AcDbBlockReference
  2
FXTIP_ARROW_E
 10
413.792162
 20
263.841544
 30
0.0
 41
4.0
 42
4.0
 50
360.0
  0
LINE
  5
197
330
1F
100
AcDbEntity
  8
LAYERGROUP-1
  6
CONTINUOUS
 62
     7
100
AcDbLine
 10
343.792162
 20
287.362699
 30
0.0
 11
343.792162
 21
262.841544
 31
0.0
  0
LINE
  5
198
330
1F
100
AcDbEntity
  8
LAYERGROUP-1
  6
CONTINUOUS
 62
     7
100
AcDbLine
 10
413.792162
 20
287.362699
 30
0.0
 11
413.792162
 21
262.841544
 31
0.0
  0
TEXT
  5
199
330
1F
100
AcDbEntity
  8
LAYERGROUP-1
  6
CONTINUOUS
 62
     7
100
AcDbText
 10
375.792175
 20
254.651352
 30
0.0
 40
4.0
  1
73
 41
0.851351
  7
FX_VECTOR
 72
     5
 11
381.792175
 21
254.651352
 31
0.0
100
AcDbText
  0
LINE
  5
19A
330
1F
100
AcDbEntity
  8
LAYERGROUP-1
  6
CONTINUOUS
 62
     7
100
AcDbLine
 10
342.292162
 20
253.651357
 30
0.0
 11
415.292162
 21
253.651357
 31
0.0
  0
INSERT
  5
19B
330
1F
100
AcDbEntity
  8
LAYERGROUP-1
  6
CONTINUOUS
 62
     7
100
AcDbBlockReference
  2
FXTIP_ARROW_S
 10
342.292162
 20
253.651357
 30
0.0
 41
4.0
 42
4.0
 50
180.0
  0
INSERT
  5
19C
330
1F
100
AcDbEntity
  8
LAYERGROUP-1
  6
CONTINUOUS
 62
     7
100
AcDbBlockReference
  2
FXTIP_ARROW_E
 10
415.292162
 20
253.651357
 30
0.0
 41
4.0
 42
4.0
 50
360.0
  0
LINE
  5
19D
330
1F
100
AcDbEntity
  8
LAYERGROUP-1
  6
CONTINUOUS
 62
     7
100
AcDbLine
 10
342.292162
 20
285.862699
 30
0.0
 11
342.292162
 21
252.651357
 31
0.0
  0
LINE
  5
19E
330
1F
100
AcDbEntity
  8
LAYERGROUP-1
  6
CONTINUOUS
 62
     7
100
AcDbLine
 10
415.292162
 20
285.862699
 30
0.0
 11
415.292162
 21
252.651357
 31
0.0
  0
TEXT
  5
19F
330
1F
100
AcDbEntity
  8
LAYERGROUP-1
  6
CONTINUOUS
 62
     7
100
AcDbText
 10
374.292175
 20
243.416016
 30
0.0
 40
4.0
  1
100
 41
0.828947
  7
FX_VECTOR
 72
     5
 11
383.292175
 21
243.416016
 31
0.0
100
AcDbText
  0
LINE
  5
1A0
330
1F
100
AcDbEntity
  8
LAYERGROUP-1
  6
CONTINUOUS
 62
     7
100
AcDbLine
 10
328.792162
 20
242.416023
 30
0.0
 11
428.792162
 21
242.416023
 31
0.0
  0
INSERT
  5
1A1
330
1F
100
AcDbEntity
  8
LAYERGROUP-1
  6
CONTINUOUS
 62
     7
100
AcDbBlockReference
  2
FXTIP_ARROW_S
 10
328.792162
 20
242.416023
 30
0.0
 41
4.0
 42
4.0
 50
180.0
  0
INSERT
  5
1A2
330
1F
100
AcDbEntity
  8
LAYERGROUP-1
  6
CONTINUOUS
 62
     7
100
AcDbBlockReference
  2
FXTIP_ARROW_E
 10
428.792162
 20
242.416023
 30
0.0
 41
4.0
 42
4.0
 50
360.0
  0
LINE
  5
1A3
330
1F
100
AcDbEntity
  8
LAYERGROUP-1
  6
CONTINUOUS
 62
     7
100
AcDbLine
 10
328.792162
 20
277.612699
 30
0.0
 11
328.792162
 21
241.416023
 31
0.0
  0
LINE
  5
1A4
330
1F
100
AcDbEntity
  8
LAYERGROUP-1
  6
CONTINUOUS
 62
     7
100
AcDbLine
 10
428.792162
 20
277.612699
 30
0.0
 11
428.792162
 21
241.416023
 31
0.0
  0
TEXT
  5
1A5
330
1F
100
AcDbEntity
  8
LAYERGROUP-1
  6
CONTINUOUS
 62
     7
100
AcDbText
 10
447.955231
 20
162.579849
 30
0.0
 40
4.0
  1
94
 50
90.0
 41
0.828947
  7
FX_VECTOR
 72
     5
 11
447.955231
 21
168.579849
 31
0.0
100
AcDbText
  0
LINE
  5
1A6
330
1F
100
AcDbEntity
  8
LAYERGROUP-1
  6
CONTINUOUS
 62
     7
100
AcDbLine
 10
448.955241
 20
118.579853
 30
0.0
 11
448.955241
 21
212.579853
 31
0.0
  0
INSERT
  5
1A7
330
1F
100
AcDbEntity
  8
LAYERGROUP-1
  6
CONTINUOUS
 62
     7
100
AcDbBlockReference
  2
FXTIP_ARROW_S
 10
448.955241
 20
118.579853
 30
0.0
 41
4.0
 42
4.0
 50
270.0
  0
INSERT
  5
1A8
330
1F
100
AcDbEntity
  8
LAYERGROUP-1
  6
CONTINUOUS
 62
     7
100
AcDbBlockReference
  2
FXTIP_ARROW_E
 10
448.955241
 20
212.579853
 30
0.0
 41
4.0
 42
4.0
 50
90.0
  0
LINE
  5
1A9
330
1F
100
AcDbEntity
  8
LAYERGROUP-1
  6
CONTINUOUS
 62
     7
100
AcDbLine
 10
435.783904
 20
118.579853
 30
0.0
 11
449.955241
 21
118.579853
 31
0.0
  0
LINE
  5
1AA
330
1F
100
AcDbEntity
  8
LAYERGROUP-1
  6
CONTINUOUS
 62
     7
100
AcDbLine
 10
429.792162
 20
212.579853
 30
0.0
 11
467.092493
 21
212.579853
 31
0.0
  0
TEXT
  5
1AB
330
1F
100
AcDbEntity
  8
LAYERGROUP-1
  6
CONTINUOUS
 62
     7
100
AcDbText
 10
465.092499
 20
136.079849
 30
0.0
 40
4.0
  1
144
 50
90.0
 41
0.814655
  7
FX_VECTOR
 72
     5
 11
465.092499
 21
145.079849
 31
0.0
100
AcDbText
  0
LINE
  5
1AC
330
1F
100
AcDbEntity
  8
LAYERGROUP-1
  6
CONTINUOUS
 62
     7
100
AcDbLine
 10
466.092493
 20
68.579853
 30
0.0
 11
466.092493
 21
212.579853
 31
0.0
  0
INSERT
  5
1AD
330
1F
100
AcDbEntity
  8
LAYERGROUP-1
  6
CONTINUOUS
 62
     7
100
AcDbBlockReference
  2
FXTIP_ARROW_S
 10
466.092493
 20
68.579853
 30
0.0
 41
4.0
 42
4.0
 50
270.0
  0
INSERT
  5
1AE
330
1F
100
AcDbEntity
  8
LAYERGROUP-1
  6
CONTINUOUS
 62
     7
100
AcDbBlockReference
  2
FXTIP_ARROW_E
 10
466.092493
 20
212.579853
 30
0.0
 41
4.0
 42
4.0
 50
90.0
  0
LINE
  5
1AF
330
1F
100
AcDbEntity
  8
LAYERGROUP-1
  6
CONTINUOUS
 62
     7
100
AcDbLine
 10
379.792162
 20
68.579853
 30
0.0
 11
467.092493
 21
68.579853
 31
0.0
  0
INSERT
  5
1B3
330
1F
100
AcDbEntity
  8
0
100
AcDbBlockReference
  2
BLKF021
 10
0.0
 20
0.0
 30
0.0
  0
ARC
  5
1DE
330
1F
100
AcDbEntity
  8
LAYERGROUP-1
  6
CONTINUOUS
 62
     3
100
AcDbCircle
 10
157.663809
 20
165.579853
 30
0.0
 40
3.0
100
AcDbArc
 50
90.0
 51
180.0
  0
LINE
  5
1DF
330
1F
100
AcDbEntity
  8
LAYERGROUP-1
  6
CONTINUOUS
 62
     3
100
AcDbLine
 10
157.663809
 20
168.579853
 30
0.0
 11
185.663809
 21
168.579853
 31
0.0
  0
ARC
  5
1E0
330
1F
100
AcDbEntity
  8
LAYERGROUP-1
  6
CONTINUOUS
 62
     3
100
AcDbCircle
 10
185.663809
 20
165.579853
 30
0.0
 40
3.0
100
AcDbArc
 50
0.0
 51
90.0
  0
ARC
  5
1E1
330
1F
100
AcDbEntity
  8
LAYERGROUP-1
  6
CONTINUOUS
 62
     3
100
AcDbCircle
 10
157.663809
 20
71.579853
 30
0.0
 40
3.0
100
AcDbArc
 50
180.0
 51
270.0
  0
LINE
  5
1E2
330
1F
100
AcDbEntity
  8
LAYERGROUP-1
  6
CONTINUOUS
 62
     3
100
AcDbLine
 10
157.663809
 20
68.579853
 30
0.0
 11
185.663809
 21
68.579853
 31
0.0
  0
ARC
  5
1E3
330
1F
100
AcDbEntity
  8
LAYERGROUP-1
  6
CONTINUOUS
 62
     3
100
AcDbCircle
 10
185.663809
 20
71.579853
 30
0.0
 40
3.0
100
AcDbArc
 50
270.0
 51
360.0
  0
LINE
  5
1E4
330
1F
100
AcDbEntity
  8
LAYERGROUP-1
  6
CONTINUOUS
 62
     3
100
AcDbLine
 10
188.663809
 20
71.579853
 30
0.0
 11
188.663809
 21
165.579853
 31
0.0
  0
LINE
  5
1E5
330
1F
100
AcDbEntity
  8
LAYERGROUP-1
  6
CONTINUOUS
 62
     3
100
AcDbLine
 10
154.663809
 20
165.579853
 30
0.0
 11
154.663809
 21
71.579853
 31
0.0
  0
ARC
  5
1E6
330
1F
100
AcDbEntity
  8
LAYERGROUP-1
  6
CONTINUOUS
 62
     3
100
AcDbCircle
 10
378.792162
 20
118.579853
 30
0.0
 40
50.00000000000003
100
AcDbArc
 50
-230.148971
 51
50.148971
  0
DIMENSION
  5
1E7
330
1F
100
AcDbEntity
  8
LAYERGROUP-1
100
AcDbDimension
  2
*D22
 10
188.663809
 20
55.173193
 30
0.0
 11
171.663803
 21
56.173191
 31
0.0
 70
    33
  3
FXDIMINFO
100
AcDbAlignedDimension
 13
154.663809
 23
71.579853
 33
0.0
 14
188.663809
 24
71.579853
 34
0.0
1001
ACAD
1000
DSTYLE
1002
{
1070
     7
1000
FXTIP_ARROW_E
1070
     6
1000
FXTIP_ARROW_S
1070
   173
1070
     1
1002
}
  0
DIMENSION
  5
1F1
330
1F
100
AcDbEntity
  8
LAYERGROUP-1
100
AcDbDimension
  2
*D23
 10
231.751522
 20
168.579853
 30
0.0
 11
230.751526
 21
118.579849
 31
0.0
 70
    33
  3
FXDIMINFO
100
AcDbAlignedDimension
 13
185.663809
 23
68.579853
 33
0.0
 14
185.663809
 24
168.579853
 34
0.0
1001
ACAD
1000
DSTYLE
1002
{
1070
     7
1000
FXTIP_ARROW_E
1070
     6
1000
FXTIP_ARROW_S
1070
   173
1070
     1
1002
}
  0
LINE
  5
1FB
330
1F
100
AcDbEntity
  8
LAYERGROUP-1
  6
CONTINUOUS
 62
     3
100
AcDbLine
 10
193.663809
 20
112.579853
 30
0.0
 11
190.663809
 21
112.579853
 31
0.0
  0
LINE
  5
1FC
330
1F
100
AcDbEntity
  8
LAYERGROUP-1
  6
CONTINUOUS
 62
     3
100
AcDbLine
 10
193.663809
 20
124.579853
 30
0.0
 11
190.663809
 21
124.579853
 31
0.0
  0
ARC
  5
1FD
330
1F
100
AcDbEntity
  8
LAYERGROUP-1
  6
CONTINUOUS
 62
     3
100
AcDbCircle
 10
151.663809
 20
145.40828
 30
0.0
 40
3.0
100
AcDbArc
 50
300.0
 51
360.0
  0
ARC
  5
1FE
330
1F
100
AcDbEntity
  8
LAYERGROUP-1
  6
CONTINUOUS
 62
     3
100
AcDbCircle
 10
153.663809
 20
141.944178
 30
0.0
 40
1.0
100
AcDbArc
 50
120.0
 51
180.0
  0
LINE
  5
1FF
330
1F
100
AcDbEntity
  8
LAYERGROUP-1
  6
CONTINUOUS
 62
     3
100
AcDbLine
 10
152.663809
 20
95.215527
 30
0.0
 11
152.663809
 21
141.944178
 31
0.0
  0
ARC
  5
200
330
1F
100
AcDbEntity
  8
LAYERGROUP-1
  6
CONTINUOUS
 62
     3
100
AcDbCircle
 10
191.663809
 20
145.40828
 30
0.0
 40
3.0
100
AcDbArc
 50
180.0
 51
240.0
  0
ARC
  5
201
330
1F
100
AcDbEntity
  8
LAYERGROUP-1
  6
CONTINUOUS
 62
     3
100
AcDbCircle
 10
189.663809
 20
141.944178
 30
0.0
 40
1.0
100
AcDbArc
 50
0.0
 51
60.0
  0
LINE
  5
202
330
1F
100
AcDbEntity
  8
LAYERGROUP-1
  6
CONTINUOUS
 62
     3
100
AcDbLine
 10
190.663809
 20
95.215527
 30
0.0
 11
190.663809
 21
141.944178
 31
0.0
  0
ARC
  5
203
330
1F
100
AcDbEntity
  8
LAYERGROUP-1
  6
CONTINUOUS
 62
     3
100
AcDbCircle
 10
151.663809
 20
91.751425
 30
0.0
 40
3.0
100
AcDbArc
 50
0.0
 51
60.0
  0
ARC
  5
204
330
1F
100
AcDbEntity
  8
LAYERGROUP-1
  6
CONTINUOUS
 62
     3
100
AcDbCircle
 10
153.663809
 20
95.215527
 30
0.0
 40
1.0
100
AcDbArc
 50
180.0
 51
240.0
  0
ARC
  5
205
330
1F
100
AcDbEntity
  8
LAYERGROUP-1
  6
CONTINUOUS
 62
     3
100
AcDbCircle
 10
191.663809
 20
91.751425
 30
0.0
 40
3.0
100
AcDbArc
 50
120.0
 51
180.0
  0
ARC
  5
206
330
1F
100
AcDbEntity
  8
LAYERGROUP-1
  6
CONTINUOUS
 62
     3
100
AcDbCircle
 10
189.663809
 20
95.215527
 30
0.0
 40
1.0
100
AcDbArc
 50
300.0
 51
360.0
  0
LINE
  5
207
330
1F
100
AcDbEntity
  8
LAYERGROUP-1
  6
CONTINUOUS
 62
     3
100
AcDbLine
 10
152.663809
 20
124.579853
 30
0.0
 11
149.663809
 21
124.579853
 31
0.0
  0
LINE
  5
208
330
1F
100
AcDbEntity
  8
LAYERGROUP-1
  6
CONTINUOUS
 62
     3
100
AcDbLine
 10
152.663809
 20
112.579853
 30
0.0
 11
149.663809
 21
112.579853
 31
0.0
  0
DIMENSION
  5
209
330
1F
100
AcDbEntity
  8
LAYERGROUP-1
100
AcDbDimension
  2
*D24
 10
190.663809
 20
48.579853
 30
0.0
 11
171.663818
 21
49.579853
 31
0.0
 70
    33
  3
FXDIMINFO
100
AcDbAlignedDimension
 13
152.663809
 23
95.215527
 33
0.0
 14
190.663809
 24
95.215527
 34
0.0
1001
ACAD
1000
DSTYLE
1002
{
1070
     7
1000
FXTIP_ARROW_E
1070
     6
1000
FXTIP_ARROW_S
1070
   173
1070
     1
1002
}
  0
ARC
  5
213
330
1F
100
AcDbEntity
  8
LAYERGROUP-1
  6
CONTINUOUS
 62
     6
100
AcDbCircle
 10
378.792162
 20
118.579853
 30
0.0
 40
24.0
100
AcDbArc
 50
-200.945967
 51
20.945967
  0
ENDSEC
  0
SECTION
  2
OBJECTS
  0
DICTIONARY
  5
C
330
0
100
AcDbDictionary
  3
ACAD_GROUP
350
D
  3
ACAD_LAYOUT
350
1A
  3
ACAD_MLINESTYLE
350
17
  3
ACAD_PLOTSETTINGS
350
19
  3
ACDBHEADERROUNDTRIPXREC
350
214
  0
DICTIONARY
  5
D
102
{ACAD_REACTORS
330
C
102
}
330
C
100
AcDbDictionary
  0
DICTIONARY
  5
1A
102
{ACAD_REACTORS
330
C
102
}
330
C
100
AcDbDictionary
  0
DICTIONARY
  5
17
102
{ACAD_REACTORS
330
C
102
}
330
C
100
AcDbDictionary
  3
STANDARD
350
18
  0
DICTIONARY
  5
19
102
{ACAD_REACTORS
330
C
102
}
330
C
100
AcDbDictionary
  0
DICTIONARY
  5
214
102
{ACAD_REACTORS
330
C
102
}
330
C
100
AcDbDictionary
  3
CEPSNTYPE
350
21D
  3
DIMSTYLEDATA
350
233
  3
FINGERPRINTGUID
350
21E
  3
HYPERLINKBASE
350
217
  3
INSUNITS
350
21C
  3
LAYOUTDICT
350
219
  3
LWETCUNION
350
21B
  3
PLOTSETDICT
350
21A
  3
PSVPSCALE
350
220
  3
PUCSBASE
350
223
  3
PUCSORGBACK
350
229
  3
PUCSORGBOTTOM
350
225
  3
PUCSORGFRONT
350
228
  3
PUCSORGLEFT
350
226
  3
PUCSORGRIGHT
350
227
  3
PUCSORGTOP
350
224
  3
PUCSORTHOREF
350
221
  3
PUCSORTHOVIEW
350
222
  3
STYLESHEET
350
218
  3
TSTACKALIGN
350
215
  3
TSTACKSIZE
350
216
  3
UCSBASE
350
22C
  3
UCSORGBACK
350
232
  3
UCSORGBOTTOM
350
22E
  3
UCSORGFRONT
350
231
  3
UCSORGLEFT
350
22F
  3
UCSORGRIGHT
350
230
  3
UCSORGTOP
350
22D
  3
UCSORTHOREF
350
22A
  3
UCSORTHOVIEW
350
22B
  3
VERSIONGUID
350
21F
  0
MLINESTYLE
  5
18
102
{ACAD_REACTORS
330
17
102
}
330
17
100
AcDbMlineStyle
  2
Standard
 70
     0
  3

 62
   256
 51
90.0
 52
90.0
 71
     2
 49
0.5
 62
   256
  6
BYLAYER
 49
-0.5
 62
   256
  6
BYLAYER
  0
XRECORD
  5
21D
102
{ACAD_REACTORS
330
214
102
}
330
214
100
AcDbXrecord
 90
        0
  0
XRECORD
  5
233
102
{ACAD_REACTORS
330
214
102
}
330
214
100
AcDbXrecord
1000
DSTYLE
1002
{
1070
   179
 70
     2
1070
   171
 70
     3
1070
   143
 40
0.03937
1070
   274
 70
     3
1070
    41
 40
4.0
1070
   343
340
41
1070
   344
340
47
1070
   141
 40
2.5
1070
   176
 70
     7
1070
   177
 70
     7
1070
   178
 70
     7
1070
   271
 70
     2
1070
    46
 40
6.0
1070
    43
 40
10.0
1070
    44
 40
1.0
1070
    42
 40
1.0
1070
   147
 40
1.0
1070
   341
340
41
1070
   173
 70
     1
1070
    77
 70
     1
1070
   272
 70
     2
1070
    73
 70
     0
1070
   172
 70
     1
1070
    74
 70
     0
1070
   283
 70
     0
1070
   340
340
3F
1070
   140
 40
4.0
1070
   284
 70
     8
1070
    78
 70
     8
1002
}
  0
XRECORD
  5
21E
102
{ACAD_REACTORS
330
214
102
}
330
214
100
AcDbXrecord
  1
{EB66F135-9140-481A-9D52-3DE66AAE186C}
  0
XRECORD
  5
217
102
{ACAD_REACTORS
330
214
102
}
330
214
100
AcDbXrecord
  1

  0
XRECORD
  5
21C
102
{ACAD_REACTORS
330
214
102
}
330
214
100
AcDbXrecord
 90
        1
  0
XRECORD
  5
219
102
{ACAD_REACTORS
330
214
102
}
330
214
100
AcDbXrecord
340
1A
  0
XRECORD
  5
21B
102
{ACAD_REACTORS
330
214
102
}
330
214
100
AcDbXrecord
 90
    10781
  0
XRECORD
  5
21A
102
{ACAD_REACTORS
330
214
102
}
330
214
100
AcDbXrecord
340
19
  0
XRECORD
  5
220
102
{ACAD_REACTORS
330
214
102
}
330
214
100
AcDbXrecord
 40
0.0
  0
XRECORD
  5
223
102
{ACAD_REACTORS
330
214
102
}
330
214
100
AcDbXrecord
340
0
  0
XRECORD
  5
229
102
{ACAD_REACTORS
330
214
102
}
330
214
100
AcDbXrecord
 10
0.0
 20
0.0
 30
0.0
  0
XRECORD
  5
225
102
{ACAD_REACTORS
330
214
102
}
330
214
100
AcDbXrecord
 10
0.0
 20
0.0
 30
0.0
  0
XRECORD
  5
228
102
{ACAD_REACTORS
330
214
102
}
330
214
100
AcDbXrecord
 10
0.0
 20
0.0
 30
0.0
  0
XRECORD
  5
226
102
{ACAD_REACTORS
330
214
102
}
330
214
100
AcDbXrecord
 10
0.0
 20
0.0
 30
0.0
  0
XRECORD
  5
227
102
{ACAD_REACTORS
330
214
102
}
330
214
100
AcDbXrecord
 10
0.0
 20
0.0
 30
0.0
  0
XRECORD
  5
224
102
{ACAD_REACTORS
330
214
102
}
330
214
100
AcDbXrecord
 10
0.0
 20
0.0
 30
0.0
  0
XRECORD
  5
221
102
{ACAD_REACTORS
330
214
102
}
330
214
100
AcDbXrecord
340
0
  0
XRECORD
  5
222
102
{ACAD_REACTORS
330
214
102
}
330
214
100
AcDbXrecord
 70
     0
  0
XRECORD
  5
218
102
{ACAD_REACTORS
330
214
102
}
330
214
100
AcDbXrecord
  1

  0
XRECORD
  5
215
102
{ACAD_REACTORS
330
214
102
}
330
214
100
AcDbXrecord
 90
        1
  0
XRECORD
  5
216
102
{ACAD_REACTORS
330
214
102
}
330
214
100
AcDbXrecord
 90
       70
  0
XRECORD
  5
22C
102
{ACAD_REACTORS
330
214
102
}
330
214
100
AcDbXrecord
340
0
  0
XRECORD
  5
232
102
{ACAD_REACTORS
330
214
102
}
330
214
100
AcDbXrecord
 10
0.0
 20
0.0
 30
0.0
  0
XRECORD
  5
22E
102
{ACAD_REACTORS
330
214
102
}
330
214
100
AcDbXrecord
 10
0.0
 20
0.0
 30
0.0
  0
XRECORD
  5
231
102
{ACAD_REACTORS
330
214
102
}
330
214
100
AcDbXrecord
 10
0.0
 20
0.0
 30
0.0
  0
XRECORD
  5
22F
102
{ACAD_REACTORS
330
214
102
}
330
214
100
AcDbXrecord
 10
0.0
 20
0.0
 30
0.0
  0
XRECORD
  5
230
102
{ACAD_REACTORS
330
214
102
}
330
214
100
AcDbXrecord
 10
0.0
 20
0.0
 30
0.0
  0
XRECORD
  5
22D
102
{ACAD_REACTORS
330
214
102
}
330
214
100
AcDbXrecord
 10
0.0
 20
0.0
 30
0.0
  0
XRECORD
  5
22A
102
{ACAD_REACTORS
330
214
102
}
330
214
100
AcDbXrecord
340
0
  0
XRECORD
  5
22B
102
{ACAD_REACTORS
330
214
102
}
330
214
100
AcDbXrecord
 70
     0
  0
XRECORD
  5
21F
102
{ACAD_REACTORS
330
214
102
}
330
214
100
AcDbXrecord
  1
{FAEB1C32-E019-11D5-929B-00C0DF256EC4}
  0
ENDSEC
  0
EOF
