  0
SECTION
  2
HEADER
  9
$ACADVER
  1
AC1014
  9
$ACADMAINTVER
 70
     9
  9
$DWGCODEPAGE
  3
ANSI_932
  9
$INSBASE
 10
0.0
 20
0.0
 30
0.0
  9
$EXTMIN
 10
0.0
 20
0.0
 30
0.0
  9
$EXTMAX
 10
420.0
 20
297.0
 30
0.0
  9
$LIMMIN
 10
0.0
 20
0.0
  9
$LIMMAX
 10
420.0
 20
297.0
  9
$ORTHOMODE
 70
     0
  9
$REGENMODE
 70
     1
  9
$FILLMODE
 70
     1
  9
$QTEXTMODE
 70
     0
  9
$MIRRTEXT
 70
     1
  9
$DRAGMODE
 70
     2
  9
$LTSCALE
 40
1.0
  9
$OSMODE
 70
    37
  9
$ATTMODE
 70
     1
  9
$TEXTSIZE
 40
0.2
  9
$TRACEWID
 40
0.05
  9
$TEXTSTYLE
  7
STYLE1
  9
$CLAYER
  8
0
  9
$CELTYPE
  6
BYLAYER
  9
$CECOLOR
 62
   256
  9
$CELTSCALE
 40
1.0
  9
$DELOBJ
 70
     1
  9
$DISPSILH
 70
     0
  9
$DIMSCALE
 40
1.0
  9
$DIMASZ
 40
4.0
  9
$DIMEXO
 40
1.0
  9
$DIMDLI
 40
10.0
  9
$DIMRND
 40
0.0
  9
$DIMDLE
 40
6.0
  9
$DIMEXE
 40
1.0
  9
$DIMTP
 40
0.0
  9
$DIMTM
 40
0.0
  9
$DIMTXT
 40
4.0
  9
$DIMCEN
 40
2.5
  9
$DIMTSZ
 40
0.0
  9
$DIMTOL
 70
     0
  9
$DIMLIM
 70
     0
  9
$DIMTIH
 70
     0
  9
$DIMTOH
 70
     0
  9
$DIMSE1
 70
     0
  9
$DIMSE2
 70
     0
  9
$DIMTAD
 70
     1
  9
$DIMZIN
 70
     8
  9
$DIMBLK
  1

  9
$DIMASO
 70
     1
  9
$DIMSHO
 70
     1
  9
$DIMPOST
  1

  9
$DIMAPOST
  1

  9
$DIMALT
 70
     0
  9
$DIMALTD
 70
     3
  9
$DIMALTF
 40
0.03937
  9
$DIMLFAC
 40
1.0
  9
$DIMTOFL
 70
     1
  9
$DIMTVP
 40
0.0
  9
$DIMTIX
 70
     0
  9
$DIMSOXD
 70
     0
  9
$DIMSAH
 70
     1
  9
$DIMBLK1
  1
FXTIP_ARROW_S
  9
$DIMBLK2
  1
FXTIP_ARROW_E
  9
$DIMSTYLE
  2
FXDIMINFO
  9
$DIMCLRD
 70
     7
  9
$DIMCLRE
 70
     7
  9
$DIMCLRT
 70
     7
  9
$DIMTFAC
 40
1.0
  9
$DIMGAP
 40
1.0
  9
$DIMJUST
 70
     0
  9
$DIMSD1
 70
     0
  9
$DIMSD2
 70
     0
  9
$DIMTOLJ
 70
     0
  9
$DIMTZIN
 70
     8
  9
$DIMALTZ
 70
     0
  9
$DIMALTTZ
 70
     0
  9
$DIMFIT
 70
     3
  9
$DIMUPT
 70
     0
  9
$DIMUNIT
 70
     2
  9
$DIMDEC
 70
     2
  9
$DIMTDEC
 70
     2
  9
$DIMALTU
 70
     2
  9
$DIMALTTD
 70
     3
  9
$DIMTXSTY
  7
STYLE1
  9
$DIMAUNIT
 70
     0
  9
$LUNITS
 70
     2
  9
$LUPREC
 70
     4
  9
$SKETCHINC
 40
0.1
  9
$FILLETRAD
 40
0.5
  9
$AUNITS
 70
     0
  9
$AUPREC
 70
     0
  9
$MENU
  1
.
  9
$ELEVATION
 40
0.0
  9
$PELEVATION
 40
0.0
  9
$THICKNESS
 40
0.0
  9
$LIMCHECK
 70
     0
  9
$CHAMFERA
 40
0.5
  9
$CHAMFERB
 40
0.5
  9
$CHAMFERC
 40
1.0
  9
$CHAMFERD
 40
0.0
  9
$SKPOLY
 70
     0
  9
$TDCREATE
 40
2455308.376778542
  9
$TDUPDATE
 40
2455308.376778553
  9
$TDINDWG
 40
0.0000000116
  9
$TDUSRTIMER
 40
0.0000000116
  9
$USRTIMER
 70
     1
  9
$ANGBASE
 50
0.0
  9
$ANGDIR
 70
     0
  9
$PDMODE
 70
     0
  9
$PDSIZE
 40
0.0
  9
$PLINEWID
 40
0.0
  9
$COORDS
 70
     1
  9
$SPLFRAME
 70
     0
  9
$SPLINETYPE
 70
     6
  9
$SPLINESEGS
 70
     8
  9
$ATTDIA
 70
     0
  9
$ATTREQ
 70
     1
  9
$HANDLING
 70
     1
  9
$HANDSEED
  5
3D9
  9
$SURFTAB1
 70
     6
  9
$SURFTAB2
 70
     6
  9
$SURFTYPE
 70
     6
  9
$SURFU
 70
     6
  9
$SURFV
 70
     6
  9
$UCSNAME
  2

  9
$UCSORG
 10
0.0
 20
0.0
 30
0.0
  9
$UCSXDIR
 10
1.0
 20
0.0
 30
0.0
  9
$UCSYDIR
 10
0.0
 20
1.0
 30
0.0
  9
$PUCSNAME
  2

  9
$PUCSORG
 10
0.0
 20
0.0
 30
0.0
  9
$PUCSXDIR
 10
1.0
 20
0.0
 30
0.0
  9
$PUCSYDIR
 10
0.0
 20
1.0
 30
0.0
  9
$USERI1
 70
     0
  9
$USERI2
 70
     0
  9
$USERI3
 70
     0
  9
$USERI4
 70
     0
  9
$USERI5
 70
     0
  9
$USERR1
 40
0.0
  9
$USERR2
 40
0.0
  9
$USERR3
 40
0.0
  9
$USERR4
 40
0.0
  9
$USERR5
 40
0.0
  9
$WORLDVIEW
 70
     1
  9
$SHADEDGE
 70
     3
  9
$SHADEDIF
 70
    70
  9
$TILEMODE
 70
     1
  9
$MAXACTVP
 70
    64
  9
$PINSBASE
 10
0.0
 20
0.0
 30
0.0
  9
$PLIMCHECK
 70
     0
  9
$PEXTMIN
 10
1.000000E+20
 20
1.000000E+20
 30
1.000000E+20
  9
$PEXTMAX
 10
-1.000000E+20
 20
-1.000000E+20
 30
-1.000000E+20
  9
$PLIMMIN
 10
0.0
 20
0.0
  9
$PLIMMAX
 10
12.0
 20
9.0
  9
$UNITMODE
 70
     0
  9
$VISRETAIN
 70
     1
  9
$PLINEGEN
 70
     0
  9
$PSLTSCALE
 70
     1
  9
$TREEDEPTH
 70
  3020
  9
$PICKSTYLE
 70
     1
  9
$CMLSTYLE
  2
STANDARD
  9
$CMLJUST
 70
     0
  9
$CMLSCALE
 40
1.0
  9
$PROXYGRAPHICS
 70
     1
  9
$MEASUREMENT
 70
     0
  0
ENDSEC
  0
SECTION
  2
CLASSES
  0
CLASS
  1
ACDBDICTIONARYWDFLT
  2
AcDbDictionaryWithDefault
  3
ObjectDBX Classes
 90
        0
280
     0
281
     0
  0
CLASS
  1
XRECORD
  2
AcDbXrecord
  3
AutoCAD 2000
 90
        0
280
     0
281
     0
  0
CLASS
  1
LWPOLYLINE
  2
AcDbPolyline
  3
AutoCAD 2000
 90
        0
280
     0
281
     1
  0
CLASS
  1
HATCH
  2
AcDbHatch
  3
AutoCAD 2000
 90
        0
280
     0
281
     1
  0
CLASS
  1
ACDBPLACEHOLDER
  2
AcDbPlaceHolder
  3
ObjectDBX Classes
 90
        0
280
     0
281
     0
  0
CLASS
  1
LAYOUT
  2
AcDbLayout
  3
ObjectDBX Classes
 90
        0
280
     0
281
     0
  0
ENDSEC
  0
SECTION
  2
TABLES
  0
TABLE
  2
VPORT
  5
8
330
0
100
AcDbSymbolTable
 70
     1
  0
VPORT
  5
29
330
8
100
AcDbSymbolTableRecord
100
AcDbViewportTableRecord
  2
*ACTIVE
 70
     0
 10
0.0
 20
0.0
 11
1.0
 21
1.0
 12
210.0
 22
148.5
 13
0.0
 23
0.0
 14
0.5
 24
0.5
 15
0.5
 25
0.5
 16
0.0
 26
0.0
 36
1.0
 17
0.0
 27
0.0
 37
0.0
 40
297.0
 41
1.414141
 42
50.0
 43
0.0
 44
0.0
 50
0.0
 51
0.0
 71
     0
 72
   100
 73
     1
 74
     3
 75
     0
 76
     0
 77
     0
 78
     0
  0
ENDTAB
  0
TABLE
  2
LTYPE
  5
5
330
0
100
AcDbSymbolTable
 70
     4
  0
LTYPE
  5
14
330
5
100
AcDbSymbolTableRecord
100
AcDbLinetypeTableRecord
  2
BYBLOCK
 70
     0
  3

 72
    65
 73
     0
 40
0.0
  0
LTYPE
  5
15
330
5
100
AcDbSymbolTableRecord
100
AcDbLinetypeTableRecord
  2
BYLAYER
 70
     0
  3

 72
    65
 73
     0
 40
0.0
  0
LTYPE
  5
16
330
5
100
AcDbSymbolTableRecord
100
AcDbLinetypeTableRecord
  2
CONTINUOUS
 70
     0
  3
--------------------
 72
    65
 73
     0
 40
0.0
  0
LTYPE
  5
2A
330
5
100
AcDbSymbolTableRecord
100
AcDbLinetypeTableRecord
  2
CENTER
 70
     0
  3
Center ____ _ ____ _ ____ _ ____ _ ____ _ ____
 72
    65
 73
     4
 40
13.0
 49
10.0
 74
     0
 49
-1.0
 74
     0
 49
1.0
 74
     0
 49
-1.0
 74
     0
  0
ENDTAB
  0
TABLE
  2
LAYER
  5
2
330
0
100
AcDbSymbolTable
 70
    20
  0
LAYER
  5
10
330
2
100
AcDbSymbolTableRecord
100
AcDbLayerTableRecord
  2
0
 70
     0
 62
     7
  6
CONTINUOUS
  0
LAYER
  5
2D
330
2
100
AcDbSymbolTableRecord
100
AcDbLayerTableRecord
  2
LAYERGROUP-1
 70
     0
 62
     3
  6
CONTINUOUS
  0
LAYER
  5
3D
330
2
100
AcDbSymbolTableRecord
100
AcDbLayerTableRecord
  2
}}ﾊﾊGG血CCТ
 70
     0
 62
     3
  6
CONTINUOUS
  0
LAYER
  5
FE
330
2
100
AcDbSymbolTableRecord
100
AcDbLayerTableRecord
  2
GR1-1
 70
     0
 62
     7
  6
CONTINUOUS
  0
LAYER
  5
195
330
2
100
AcDbSymbolTableRecord
100
AcDbLayerTableRecord
  2
0-1
 70
     0
 62
     7
  6
CONTINUOUS
  0
ENDTAB
  0
TABLE
  2
STYLE
  5
3
330
0
100
AcDbSymbolTable
 70
     4
  0
STYLE
  5
11
330
3
100
AcDbSymbolTableRecord
100
AcDbTextStyleTableRecord
  2
STANDARD
 70
     0
 40
0.0
 41
1.0
 50
0.0
 71
     0
 42
0.2
  3
txt
  4

  0
STYLE
  5
3F
330
3
100
AcDbSymbolTableRecord
100
AcDbTextStyleTableRecord
  2
STYLE1
 70
     0
 40
0.0
 41
1.0
 50
0.0
 71
     0
 42
0.2
  3
MONOTXT.SHX
  4
extfont.shx
  0
STYLE
  5
40
330
3
100
AcDbSymbolTableRecord
100
AcDbTextStyleTableRecord
  2
FX_VECTOR
 70
     0
 40
0.0
 41
1.0
 50
0.0
 71
     0
 42
0.2
  3
MONOTXT.SHX
  4
BIGFONT.SHX
  0
ENDTAB
  0
TABLE
  2
VIEW
  5
6
330
0
100
AcDbSymbolTable
 70
     0
  0
ENDTAB
  0
TABLE
  2
UCS
  5
7
330
0
100
AcDbSymbolTable
 70
     0
  0
ENDTAB
  0
TABLE
  2
APPID
  5
9
330
0
100
AcDbSymbolTable
 70
     1
  0
APPID
  5
12
330
9
100
AcDbSymbolTableRecord
100
AcDbRegAppTableRecord
  2
ACAD
 70
     0
  0
ENDTAB
  0
TABLE
  2
DIMSTYLE
  5
A
330
0
100
AcDbSymbolTable
 70
     2
  0
DIMSTYLE
105
27
330
A
100
AcDbSymbolTableRecord
100
AcDbDimStyleTableRecord
  2
STANDARD
 70
     0
  3

  4

  5

  6

  7

 40
1.0
 41
0.18
 42
0.0625
 43
0.38
 44
0.18
 45
0.0
 46
0.0
 47
0.0
 48
0.0
140
0.18
141
0.09
142
0.0
143
25.4
144
1.0
145
0.0
146
1.0
147
0.09
 71
     0
 72
     0
 73
     1
 74
     1
 75
     0
 76
     0
 77
     0
 78
     0
170
     0
171
     2
172
     0
173
     0
174
     0
175
     0
176
     0
177
     0
178
     0
270
     2
271
     4
272
     4
273
     2
274
     2
340
11
275
     0
280
     0
281
     0
282
     0
283
     1
284
     0
285
     0
286
     0
287
     3
288
     0
  0
DIMSTYLE
105
A7
102
{ACAD_REACTORS
330
129
330
133
330
13D
330
147
330
151
330
17C
330
18A
330
291
330
2A9
330
2B3
330
2F5
102
}
330
A
100
AcDbSymbolTableRecord
100
AcDbDimStyleTableRecord
  2
FXDIMINFO
 70
     0
  3

  4

  5

  6
FXTIP_ARROW_S
  7
FXTIP_ARROW_E
 40
1.0
 41
4.0
 42
1.0
 43
10.0
 44
1.0
 45
0.0
 46
6.0
 47
0.0
 48
0.0
140
4.0
141
2.5
142
0.0
143
0.03937
144
1.0
145
0.0
146
1.0
147
1.0
 71
     0
 72
     0
 73
     0
 74
     0
 75
     0
 76
     0
 77
     1
 78
     8
170
     0
171
     3
172
     1
173
     1
174
     0
175
     0
176
     7
177
     7
178
     7
179
     2
270
     2
271
     2
272
     2
273
     2
274
     3
340
3F
275
     0
280
     0
281
     0
282
     0
283
     0
284
     8
285
     0
286
     0
287
     3
288
     0
  0
ENDTAB
  0
TABLE
  2
BLOCK_RECORD
  5
1
330
0
100
AcDbSymbolTable
 70
    34
  0
BLOCK_RECORD
  5
1F
330
1
100
AcDbSymbolTableRecord
100
AcDbBlockTableRecord
  2
*MODEL_SPACE
  0
BLOCK_RECORD
  5
1B
330
1
100
AcDbSymbolTableRecord
100
AcDbBlockTableRecord
  2
*PAPER_SPACE
  0
BLOCK_RECORD
  5
41
330
1
100
AcDbSymbolTableRecord
100
AcDbBlockTableRecord
  2
FXTIP_ARROW_S
  0
BLOCK_RECORD
  5
47
330
1
100
AcDbSymbolTableRecord
100
AcDbBlockTableRecord
  2
FXTIP_ARROW_E
  0
BLOCK_RECORD
  5
4D
330
1
100
AcDbSymbolTableRecord
100
AcDbBlockTableRecord
  2
FXTIP_BLACKDOT_S
  0
BLOCK_RECORD
  5
53
330
1
100
AcDbSymbolTableRecord
100
AcDbBlockTableRecord
  2
FXTIP_BLACKDOT_E
  0
BLOCK_RECORD
  5
59
330
1
100
AcDbSymbolTableRecord
100
AcDbBlockTableRecord
  2
FXTIP_TRIANGLE_S
  0
BLOCK_RECORD
  5
60
330
1
100
AcDbSymbolTableRecord
100
AcDbBlockTableRecord
  2
FXTIP_TRIANGLE_E
  0
BLOCK_RECORD
  5
67
330
1
100
AcDbSymbolTableRecord
100
AcDbBlockTableRecord
  2
FXTIP_ARCHITECT_S
  0
BLOCK_RECORD
  5
6D
330
1
100
AcDbSymbolTableRecord
100
AcDbBlockTableRecord
  2
FXTIP_ARCHITECT_E
  0
BLOCK_RECORD
  5
73
330
1
100
AcDbSymbolTableRecord
100
AcDbBlockTableRecord
  2
FXTIP_CIVIL_S
  0
BLOCK_RECORD
  5
79
330
1
100
AcDbSymbolTableRecord
100
AcDbBlockTableRecord
  2
FXTIP_CIVIL_E
  0
BLOCK_RECORD
  5
7F
330
1
100
AcDbSymbolTableRecord
100
AcDbBlockTableRecord
  2
FXTIP_WHITEDOT_S
  0
BLOCK_RECORD
  5
84
330
1
100
AcDbSymbolTableRecord
100
AcDbBlockTableRecord
  2
FXTIP_WHITEDOT_E
  0
BLOCK_RECORD
  5
89
330
1
100
AcDbSymbolTableRecord
100
AcDbBlockTableRecord
  2
FXTIP_UPARROW_S
  0
BLOCK_RECORD
  5
8E
330
1
100
AcDbSymbolTableRecord
100
AcDbBlockTableRecord
  2
FXTIP_UPARROW_E
  0
BLOCK_RECORD
  5
93
330
1
100
AcDbSymbolTableRecord
100
AcDbBlockTableRecord
  2
FXTIP_DOWNARROW_S
  0
BLOCK_RECORD
  5
98
330
1
100
AcDbSymbolTableRecord
100
AcDbBlockTableRecord
  2
FXTIP_DOWNARROW_E
  0
BLOCK_RECORD
  5
9D
330
1
100
AcDbSymbolTableRecord
100
AcDbBlockTableRecord
  2
FXTIP_BLACKTRIANGLE_S
  0
BLOCK_RECORD
  5
A2
330
1
100
AcDbSymbolTableRecord
100
AcDbBlockTableRecord
  2
FXTIP_BLACKTRIANGLE_E
  0
BLOCK_RECORD
  5
12A
330
1
100
AcDbSymbolTableRecord
100
AcDbBlockTableRecord
  2
*D19
  0
BLOCK_RECORD
  5
134
330
1
100
AcDbSymbolTableRecord
100
AcDbBlockTableRecord
  2
*D20
  0
BLOCK_RECORD
  5
13E
330
1
100
AcDbSymbolTableRecord
100
AcDbBlockTableRecord
  2
*D21
  0
BLOCK_RECORD
  5
148
330
1
100
AcDbSymbolTableRecord
100
AcDbBlockTableRecord
  2
*D22
  0
BLOCK_RECORD
  5
152
330
1
100
AcDbSymbolTableRecord
100
AcDbBlockTableRecord
  2
*D23
  0
BLOCK_RECORD
  5
17D
330
1
100
AcDbSymbolTableRecord
100
AcDbBlockTableRecord
  2
*D24
  0
BLOCK_RECORD
  5
18B
330
1
100
AcDbSymbolTableRecord
100
AcDbBlockTableRecord
  2
*D25
  0
BLOCK_RECORD
  5
292
330
1
100
AcDbSymbolTableRecord
100
AcDbBlockTableRecord
  2
*D26
  0
BLOCK_RECORD
  5
2AA
330
1
100
AcDbSymbolTableRecord
100
AcDbBlockTableRecord
  2
*D27
  0
BLOCK_RECORD
  5
2B4
330
1
100
AcDbSymbolTableRecord
100
AcDbBlockTableRecord
  2
*D28
  0
BLOCK_RECORD
  5
2F6
330
1
100
AcDbSymbolTableRecord
100
AcDbBlockTableRecord
  2
*D29
  0
BLOCK_RECORD
  5
307
330
1
100
AcDbSymbolTableRecord
100
AcDbBlockTableRecord
  2
BLKF032
  0
BLOCK_RECORD
  5
38C
330
1
100
AcDbSymbolTableRecord
100
AcDbBlockTableRecord
  2
BLKF033
  0
BLOCK_RECORD
  5
398
330
1
100
AcDbSymbolTableRecord
100
AcDbBlockTableRecord
  2
BLKF034
  0
BLOCK_RECORD
  5
3A0
330
1
100
AcDbSymbolTableRecord
100
AcDbBlockTableRecord
  2
BLKF035
  0
ENDTAB
  0
ENDSEC
  0
SECTION
  2
BLOCKS
  0
BLOCK
  5
20
330
1F
100
AcDbEntity
  8
0
100
AcDbBlockBegin
  2
*MODEL_SPACE
 70
     0
 71
     0
 10
0.0
 20
0.0
 30
0.0
  3
*MODEL_SPACE
  1

  0
ENDBLK
  5
21
330
1F
100
AcDbEntity
  8
0
100
AcDbBlockEnd
  0
BLOCK
  5
1C
330
1B
100
AcDbEntity
 67
     1
  8
0
100
AcDbBlockBegin
  2
*PAPER_SPACE
 70
     0
 71
     0
 10
0.0
 20
0.0
 30
0.0
  3
*PAPER_SPACE
  1

  0
ENDBLK
  5
1D
330
1B
100
AcDbEntity
 67
     1
  8
0
100
AcDbBlockEnd
  0
BLOCK
  5
42
330
41
100
AcDbEntity
  8
0
100
AcDbBlockBegin
  2
FXTIP_ARROW_S
 70
     0
 71
     0
 10
0.0
 20
0.0
 30
0.0
  3
FXTIP_ARROW_S
  1

  0
LINE
  5
44
330
41
100
AcDbEntity
  8
0
  6
CONTINUOUS
 62
     0
100
AcDbLine
 10
0.0
 20
0.0
 30
0.0
 11
-1.0
 21
0.0
 31
0.0
  0
LINE
  5
45
330
41
100
AcDbEntity
  8
0
  6
CONTINUOUS
 62
     0
100
AcDbLine
 10
0.0
 20
0.0
 30
0.0
 11
-0.965926
 21
-0.258819
 31
0.0
  0
LINE
  5
46
330
41
100
AcDbEntity
  8
0
  6
CONTINUOUS
 62
     0
100
AcDbLine
 10
0.0
 20
0.0
 30
0.0
 11
-0.965926
 21
0.258819
 31
0.0
  0
ENDBLK
  5
43
330
41
100
AcDbEntity
  8
0
100
AcDbBlockEnd
  0
BLOCK
  5
48
330
47
100
AcDbEntity
  8
0
100
AcDbBlockBegin
  2
FXTIP_ARROW_E
 70
     0
 71
     0
 10
0.0
 20
0.0
 30
0.0
  3
FXTIP_ARROW_E
  1

  0
LINE
  5
4A
330
47
100
AcDbEntity
  8
0
  6
CONTINUOUS
 62
     0
100
AcDbLine
 10
0.0
 20
0.0
 30
0.0
 11
-1.0
 21
0.0
 31
0.0
  0
LINE
  5
4B
330
47
100
AcDbEntity
  8
0
  6
CONTINUOUS
 62
     0
100
AcDbLine
 10
0.0
 20
0.0
 30
0.0
 11
-0.965926
 21
0.258819
 31
0.0
  0
LINE
  5
4C
330
47
100
AcDbEntity
  8
0
  6
CONTINUOUS
 62
     0
100
AcDbLine
 10
0.0
 20
0.0
 30
0.0
 11
-0.965926
 21
-0.258819
 31
0.0
  0
ENDBLK
  5
49
330
47
100
AcDbEntity
  8
0
100
AcDbBlockEnd
  0
BLOCK
  5
4E
330
4D
100
AcDbEntity
  8
0
100
AcDbBlockBegin
  2
FXTIP_BLACKDOT_S
 70
     0
 71
     0
 10
0.0
 20
0.0
 30
0.0
  3
FXTIP_BLACKDOT_S
  1

  0
LINE
  5
50
330
4D
100
AcDbEntity
  8
0
  6
CONTINUOUS
 62
     0
100
AcDbLine
 10
0.0
 20
0.0
 30
0.0
 11
-1.0
 21
0.0
 31
0.0
  0
LWPOLYLINE
  5
51
330
4D
100
AcDbEntity
  8
0
  6
CONTINUOUS
 62
     0
100
AcDbPolyline
 90
        2
 70
     1
 10
-0.25
 20
0.0
 40
0.5
 41
0.5
 42
1.0
 10
0.25
 20
0.0
 40
0.5
 41
0.5
 42
1.0
  0
CIRCLE
  5
52
330
4D
100
AcDbEntity
  8
0
  6
CONTINUOUS
 62
     0
100
AcDbCircle
 10
0.0
 20
0.0
 30
0.0
 40
0.5
  0
ENDBLK
  5
4F
330
4D
100
AcDbEntity
  8
0
100
AcDbBlockEnd
  0
BLOCK
  5
54
330
53
100
AcDbEntity
  8
0
100
AcDbBlockBegin
  2
FXTIP_BLACKDOT_E
 70
     0
 71
     0
 10
0.0
 20
0.0
 30
0.0
  3
FXTIP_BLACKDOT_E
  1

  0
LINE
  5
56
330
53
100
AcDbEntity
  8
0
  6
CONTINUOUS
 62
     0
100
AcDbLine
 10
0.0
 20
0.0
 30
0.0
 11
-1.0
 21
0.0
 31
0.0
  0
LWPOLYLINE
  5
57
330
53
100
AcDbEntity
  8
0
  6
CONTINUOUS
 62
     0
100
AcDbPolyline
 90
        2
 70
     1
 10
-0.25
 20
0.0
 40
0.5
 41
0.5
 42
1.0
 10
0.25
 20
0.0
 40
0.5
 41
0.5
 42
1.0
  0
CIRCLE
  5
58
330
53
100
AcDbEntity
  8
0
  6
CONTINUOUS
 62
     0
100
AcDbCircle
 10
0.0
 20
0.0
 30
0.0
 40
0.5
  0
ENDBLK
  5
55
330
53
100
AcDbEntity
  8
0
100
AcDbBlockEnd
  0
BLOCK
  5
5A
330
59
100
AcDbEntity
  8
0
100
AcDbBlockBegin
  2
FXTIP_TRIANGLE_S
 70
     0
 71
     0
 10
0.0
 20
0.0
 30
0.0
  3
FXTIP_TRIANGLE_S
  1

  0
LINE
  5
5C
330
59
100
AcDbEntity
  8
0
  6
CONTINUOUS
 62
     0
100
AcDbLine
 10
0.0
 20
0.0
 30
0.0
 11
-1.0
 21
0.0
 31
0.0
  0
LINE
  5
5D
330
59
100
AcDbEntity
  8
0
  6
CONTINUOUS
 62
     0
100
AcDbLine
 10
0.0
 20
0.0
 30
0.0
 11
-0.965926
 21
-0.258819
 31
0.0
  0
LINE
  5
5E
330
59
100
AcDbEntity
  8
0
  6
CONTINUOUS
 62
     0
100
AcDbLine
 10
0.0
 20
0.0
 30
0.0
 11
-0.965926
 21
0.258819
 31
0.0
  0
LINE
  5
5F
330
59
100
AcDbEntity
  8
0
  6
CONTINUOUS
 62
     0
100
AcDbLine
 10
-0.965926
 20
-0.258819
 30
0.0
 11
-0.965926
 21
0.258819
 31
0.0
  0
ENDBLK
  5
5B
330
59
100
AcDbEntity
  8
0
100
AcDbBlockEnd
  0
BLOCK
  5
61
330
60
100
AcDbEntity
  8
0
100
AcDbBlockBegin
  2
FXTIP_TRIANGLE_E
 70
     0
 71
     0
 10
0.0
 20
0.0
 30
0.0
  3
FXTIP_TRIANGLE_E
  1

  0
LINE
  5
63
330
60
100
AcDbEntity
  8
0
  6
CONTINUOUS
 62
     0
100
AcDbLine
 10
0.0
 20
0.0
 30
0.0
 11
-1.0
 21
0.0
 31
0.0
  0
LINE
  5
64
330
60
100
AcDbEntity
  8
0
  6
CONTINUOUS
 62
     0
100
AcDbLine
 10
0.0
 20
0.0
 30
0.0
 11
-0.965926
 21
0.258819
 31
0.0
  0
LINE
  5
65
330
60
100
AcDbEntity
  8
0
  6
CONTINUOUS
 62
     0
100
AcDbLine
 10
0.0
 20
0.0
 30
0.0
 11
-0.965926
 21
-0.258819
 31
0.0
  0
LINE
  5
66
330
60
100
AcDbEntity
  8
0
  6
CONTINUOUS
 62
     0
100
AcDbLine
 10
-0.965926
 20
0.258819
 30
0.0
 11
-0.965926
 21
-0.258819
 31
0.0
  0
ENDBLK
  5
62
330
60
100
AcDbEntity
  8
0
100
AcDbBlockEnd
  0
BLOCK
  5
68
330
67
100
AcDbEntity
  8
0
100
AcDbBlockBegin
  2
FXTIP_ARCHITECT_S
 70
     0
 71
     0
 10
0.0
 20
0.0
 30
0.0
  3
FXTIP_ARCHITECT_S
  1

  0
LINE
  5
6A
330
67
100
AcDbEntity
  8
0
  6
CONTINUOUS
 62
     0
100
AcDbLine
 10
0.0
 20
0.0
 30
0.0
 11
-1.0
 21
0.0
 31
0.0
  0
LINE
  5
6B
330
67
100
AcDbEntity
  8
0
  6
CONTINUOUS
 62
     0
100
AcDbLine
 10
0.0
 20
0.0
 30
0.0
 11
-0.707107
 21
-0.707107
 31
0.0
  0
LINE
  5
6C
330
67
100
AcDbEntity
  8
0
  6
CONTINUOUS
 62
     0
100
AcDbLine
 10
0.0
 20
0.0
 30
0.0
 11
0.707107
 21
0.707107
 31
0.0
  0
ENDBLK
  5
69
330
67
100
AcDbEntity
  8
0
100
AcDbBlockEnd
  0
BLOCK
  5
6E
330
6D
100
AcDbEntity
  8
0
100
AcDbBlockBegin
  2
FXTIP_ARCHITECT_E
 70
     0
 71
     0
 10
0.0
 20
0.0
 30
0.0
  3
FXTIP_ARCHITECT_E
  1

  0
LINE
  5
70
330
6D
100
AcDbEntity
  8
0
  6
CONTINUOUS
 62
     0
100
AcDbLine
 10
0.0
 20
0.0
 30
0.0
 11
-1.0
 21
0.0
 31
0.0
  0
LINE
  5
71
330
6D
100
AcDbEntity
  8
0
  6
CONTINUOUS
 62
     0
100
AcDbLine
 10
0.0
 20
0.0
 30
0.0
 11
0.707107
 21
0.707107
 31
0.0
  0
LINE
  5
72
330
6D
100
AcDbEntity
  8
0
  6
CONTINUOUS
 62
     0
100
AcDbLine
 10
0.0
 20
0.0
 30
0.0
 11
-0.707107
 21
-0.707107
 31
0.0
  0
ENDBLK
  5
6F
330
6D
100
AcDbEntity
  8
0
100
AcDbBlockEnd
  0
BLOCK
  5
74
330
73
100
AcDbEntity
  8
0
100
AcDbBlockBegin
  2
FXTIP_CIVIL_S
 70
     0
 71
     0
 10
0.0
 20
0.0
 30
0.0
  3
FXTIP_CIVIL_S
  1

  0
LINE
  5
76
330
73
100
AcDbEntity
  8
0
  6
CONTINUOUS
 62
     0
100
AcDbLine
 10
0.0
 20
0.0
 30
0.0
 11
-1.0
 21
0.0
 31
0.0
  0
LINE
  5
77
330
73
100
AcDbEntity
  8
0
  6
CONTINUOUS
 62
     0
100
AcDbLine
 10
0.0
 20
-0.0625
 30
0.0
 11
-1.0
 21
-0.0625
 31
0.0
  0
LINE
  5
78
330
73
100
AcDbEntity
  8
0
  6
CONTINUOUS
 62
     0
100
AcDbLine
 10
0.0
 20
-0.125
 30
0.0
 11
-1.0
 21
-0.125
 31
0.0
  0
ENDBLK
  5
75
330
73
100
AcDbEntity
  8
0
100
AcDbBlockEnd
  0
BLOCK
  5
7A
330
79
100
AcDbEntity
  8
0
100
AcDbBlockBegin
  2
FXTIP_CIVIL_E
 70
     0
 71
     0
 10
0.0
 20
0.0
 30
0.0
  3
FXTIP_CIVIL_E
  1

  0
LINE
  5
7C
330
79
100
AcDbEntity
  8
0
  6
CONTINUOUS
 62
     0
100
AcDbLine
 10
0.0
 20
0.0
 30
0.0
 11
-1.0
 21
0.0
 31
0.0
  0
LINE
  5
7D
330
79
100
AcDbEntity
  8
0
  6
CONTINUOUS
 62
     0
100
AcDbLine
 10
0.0
 20
0.0625
 30
0.0
 11
-1.0
 21
0.0625
 31
0.0
  0
LINE
  5
7E
330
79
100
AcDbEntity
  8
0
  6
CONTINUOUS
 62
     0
100
AcDbLine
 10
0.0
 20
0.125
 30
0.0
 11
-1.0
 21
0.125
 31
0.0
  0
ENDBLK
  5
7B
330
79
100
AcDbEntity
  8
0
100
AcDbBlockEnd
  0
BLOCK
  5
80
330
7F
100
AcDbEntity
  8
0
100
AcDbBlockBegin
  2
FXTIP_WHITEDOT_S
 70
     0
 71
     0
 10
0.0
 20
0.0
 30
0.0
  3
FXTIP_WHITEDOT_S
  1

  0
LINE
  5
82
330
7F
100
AcDbEntity
  8
0
  6
CONTINUOUS
 62
     0
100
AcDbLine
 10
0.0
 20
0.0
 30
0.0
 11
-1.0
 21
0.0
 31
0.0
  0
CIRCLE
  5
83
330
7F
100
AcDbEntity
  8
0
  6
CONTINUOUS
 62
     0
100
AcDbCircle
 10
0.0
 20
0.0
 30
0.0
 40
0.5
  0
ENDBLK
  5
81
330
7F
100
AcDbEntity
  8
0
100
AcDbBlockEnd
  0
BLOCK
  5
85
330
84
100
AcDbEntity
  8
0
100
AcDbBlockBegin
  2
FXTIP_WHITEDOT_E
 70
     0
 71
     0
 10
0.0
 20
0.0
 30
0.0
  3
FXTIP_WHITEDOT_E
  1

  0
LINE
  5
87
330
84
100
AcDbEntity
  8
0
  6
CONTINUOUS
 62
     0
100
AcDbLine
 10
0.0
 20
0.0
 30
0.0
 11
-1.0
 21
0.0
 31
0.0
  0
CIRCLE
  5
88
330
84
100
AcDbEntity
  8
0
  6
CONTINUOUS
 62
     0
100
AcDbCircle
 10
0.0
 20
0.0
 30
0.0
 40
0.5
  0
ENDBLK
  5
86
330
84
100
AcDbEntity
  8
0
100
AcDbBlockEnd
  0
BLOCK
  5
8A
330
89
100
AcDbEntity
  8
0
100
AcDbBlockBegin
  2
FXTIP_UPARROW_S
 70
     0
 71
     0
 10
0.0
 20
0.0
 30
0.0
  3
FXTIP_UPARROW_S
  1

  0
LINE
  5
8C
330
89
100
AcDbEntity
  8
0
  6
CONTINUOUS
 62
     0
100
AcDbLine
 10
0.0
 20
0.0
 30
0.0
 11
-1.0
 21
0.0
 31
0.0
  0
LINE
  5
8D
330
89
100
AcDbEntity
  8
0
  6
CONTINUOUS
 62
     0
100
AcDbLine
 10
0.0
 20
0.0
 30
0.0
 11
-0.965926
 21
-0.258819
 31
0.0
  0
ENDBLK
  5
8B
330
89
100
AcDbEntity
  8
0
100
AcDbBlockEnd
  0
BLOCK
  5
8F
330
8E
100
AcDbEntity
  8
0
100
AcDbBlockBegin
  2
FXTIP_UPARROW_E
 70
     0
 71
     0
 10
0.0
 20
0.0
 30
0.0
  3
FXTIP_UPARROW_E
  1

  0
LINE
  5
91
330
8E
100
AcDbEntity
  8
0
  6
CONTINUOUS
 62
     0
100
AcDbLine
 10
0.0
 20
0.0
 30
0.0
 11
-1.0
 21
0.0
 31
0.0
  0
LINE
  5
92
330
8E
100
AcDbEntity
  8
0
  6
CONTINUOUS
 62
     0
100
AcDbLine
 10
0.0
 20
0.0
 30
0.0
 11
-0.965926
 21
0.258819
 31
0.0
  0
ENDBLK
  5
90
330
8E
100
AcDbEntity
  8
0
100
AcDbBlockEnd
  0
BLOCK
  5
94
330
93
100
AcDbEntity
  8
0
100
AcDbBlockBegin
  2
FXTIP_DOWNARROW_S
 70
     0
 71
     0
 10
0.0
 20
0.0
 30
0.0
  3
FXTIP_DOWNARROW_S
  1

  0
LINE
  5
96
330
93
100
AcDbEntity
  8
0
  6
CONTINUOUS
 62
     0
100
AcDbLine
 10
0.0
 20
0.0
 30
0.0
 11
-1.0
 21
0.0
 31
0.0
  0
LINE
  5
97
330
93
100
AcDbEntity
  8
0
  6
CONTINUOUS
 62
     0
100
AcDbLine
 10
0.0
 20
0.0
 30
0.0
 11
-0.965926
 21
0.258819
 31
0.0
  0
ENDBLK
  5
95
330
93
100
AcDbEntity
  8
0
100
AcDbBlockEnd
  0
BLOCK
  5
99
330
98
100
AcDbEntity
  8
0
100
AcDbBlockBegin
  2
FXTIP_DOWNARROW_E
 70
     0
 71
     0
 10
0.0
 20
0.0
 30
0.0
  3
FXTIP_DOWNARROW_E
  1

  0
LINE
  5
9B
330
98
100
AcDbEntity
  8
0
  6
CONTINUOUS
 62
     0
100
AcDbLine
 10
0.0
 20
0.0
 30
0.0
 11
-1.0
 21
0.0
 31
0.0
  0
LINE
  5
9C
330
98
100
AcDbEntity
  8
0
  6
CONTINUOUS
 62
     0
100
AcDbLine
 10
0.0
 20
0.0
 30
0.0
 11
-0.965926
 21
-0.258819
 31
0.0
  0
ENDBLK
  5
9A
330
98
100
AcDbEntity
  8
0
100
AcDbBlockEnd
  0
BLOCK
  5
9E
330
9D
100
AcDbEntity
  8
0
100
AcDbBlockBegin
  2
FXTIP_BLACKTRIANGLE_S
 70
     0
 71
     0
 10
0.0
 20
0.0
 30
0.0
  3
FXTIP_BLACKTRIANGLE_S
  1

  0
LINE
  5
A0
330
9D
100
AcDbEntity
  8
0
  6
CONTINUOUS
 62
     0
100
AcDbLine
 10
0.0
 20
0.0
 30
0.0
 11
-1.0
 21
0.0
 31
0.0
  0
SOLID
  5
A1
330
9D
100
AcDbEntity
  8
0
  6
CONTINUOUS
 62
     0
100
AcDbTrace
 10
0.0
 20
0.0
 30
0.0
 11
-0.965926
 21
-0.258819
 31
0.0
 12
-0.965926
 22
0.258819
 32
0.0
 13
-0.965926
 23
0.258819
 33
0.0
  0
ENDBLK
  5
9F
330
9D
100
AcDbEntity
  8
0
100
AcDbBlockEnd
  0
BLOCK
  5
A3
330
A2
100
AcDbEntity
  8
0
100
AcDbBlockBegin
  2
FXTIP_BLACKTRIANGLE_E
 70
     0
 71
     0
 10
0.0
 20
0.0
 30
0.0
  3
FXTIP_BLACKTRIANGLE_E
  1

  0
LINE
  5
A5
330
A2
100
AcDbEntity
  8
0
  6
CONTINUOUS
 62
     0
100
AcDbLine
 10
0.0
 20
0.0
 30
0.0
 11
-1.0
 21
0.0
 31
0.0
  0
SOLID
  5
A6
330
A2
100
AcDbEntity
  8
0
  6
CONTINUOUS
 62
     0
100
AcDbTrace
 10
0.0
 20
0.0
 30
0.0
 11
-0.965926
 21
0.258819
 31
0.0
 12
-0.965926
 22
-0.258819
 32
0.0
 13
-0.965926
 23
-0.258819
 33
0.0
  0
ENDBLK
  5
A4
330
A2
100
AcDbEntity
  8
0
100
AcDbBlockEnd
  0
BLOCK
  5
12B
330
12A
100
AcDbEntity
  8
0
100
AcDbBlockBegin
  2
*D19
 70
     1
 71
     0
 10
0.0
 20
0.0
 30
0.0
  3
*D19
  1

  0
TEXT
  5
12D
330
12A
100
AcDbEntity
  8
LAYERGROUP-1
  6
CONTINUOUS
 62
     7
100
AcDbText
 10
79.375839
 20
80.5
 30
0.0
 40
4.0
  1
%%c75
 50
90.0
 41
0.84375
  7
FX_VECTOR
 72
     5
 11
79.375839
 21
89.5
 31
0.0
100
AcDbText
  0
LINE
  5
12E
330
12A
100
AcDbEntity
  8
LAYERGROUP-1
  6
CONTINUOUS
 62
     7
100
AcDbLine
 10
80.375846
 20
47.5
 30
0.0
 11
80.375846
 21
122.5
 31
0.0
  0
INSERT
  5
12F
330
12A
100
AcDbEntity
  8
LAYERGROUP-1
  6
CONTINUOUS
 62
     7
100
AcDbBlockReference
  2
FXTIP_ARROW_S
 10
80.375846
 20
47.5
 30
0.0
 41
4.0
 42
4.0
 50
270.0
  0
INSERT
  5
130
330
12A
100
AcDbEntity
  8
LAYERGROUP-1
  6
CONTINUOUS
 62
     7
100
AcDbBlockReference
  2
FXTIP_ARROW_E
 10
80.375846
 20
122.5
 30
0.0
 41
4.0
 42
4.0
 50
90.0
  0
LINE
  5
131
330
12A
100
AcDbEntity
  8
LAYERGROUP-1
  6
CONTINUOUS
 62
     7
100
AcDbLine
 10
120.991495
 20
47.5
 30
0.0
 11
79.375846
 21
47.5
 31
0.0
  0
LINE
  5
132
330
12A
100
AcDbEntity
  8
LAYERGROUP-1
  6
CONTINUOUS
 62
     7
100
AcDbLine
 10
120.991495
 20
122.5
 30
0.0
 11
79.375846
 21
122.5
 31
0.0
  0
ENDBLK
  5
12C
330
12A
100
AcDbEntity
  8
0
100
AcDbBlockEnd
  0
BLOCK
  5
135
330
134
100
AcDbEntity
  8
0
100
AcDbBlockBegin
  2
*D20
 70
     1
 71
     0
 10
0.0
 20
0.0
 30
0.0
  3
*D20
  1

  0
TEXT
  5
137
330
134
100
AcDbEntity
  8
LAYERGROUP-1
  6
CONTINUOUS
 62
     7
100
AcDbText
 10
266.087372
 20
155.800003
 30
0.0
 40
4.0
  1
95
 41
0.851351
  7
FX_VECTOR
 72
     5
 11
272.087372
 21
155.800003
 31
0.0
100
AcDbText
  0
LINE
  5
138
330
134
100
AcDbEntity
  8
LAYERGROUP-1
  6
CONTINUOUS
 62
     7
100
AcDbLine
 10
221.58739
 20
154.800003
 30
0.0
 11
316.58739
 21
154.800003
 31
0.0
  0
INSERT
  5
139
330
134
100
AcDbEntity
  8
LAYERGROUP-1
  6
CONTINUOUS
 62
     7
100
AcDbBlockReference
  2
FXTIP_ARROW_S
 10
221.58739
 20
154.800003
 30
0.0
 41
4.0
 42
4.0
 50
180.0
  0
INSERT
  5
13A
330
134
100
AcDbEntity
  8
LAYERGROUP-1
  6
CONTINUOUS
 62
     7
100
AcDbBlockReference
  2
FXTIP_ARROW_E
 10
316.58739
 20
154.800003
 30
0.0
 41
4.0
 42
4.0
 50
360.0
  0
LINE
  5
13B
330
134
100
AcDbEntity
  8
LAYERGROUP-1
  6
CONTINUOUS
 62
     7
100
AcDbLine
 10
221.58739
 20
214.3
 30
0.0
 11
221.58739
 21
153.800003
 31
0.0
  0
LINE
  5
13C
330
134
100
AcDbEntity
  8
LAYERGROUP-1
  6
CONTINUOUS
 62
     7
100
AcDbLine
 10
316.58739
 20
214.3
 30
0.0
 11
316.58739
 21
153.800003
 31
0.0
  0
ENDBLK
  5
136
330
134
100
AcDbEntity
  8
0
100
AcDbBlockEnd
  0
BLOCK
  5
13F
330
13E
100
AcDbEntity
  8
0
100
AcDbBlockBegin
  2
*D21
 70
     1
 71
     0
 10
0.0
 20
0.0
 30
0.0
  3
*D21
  1

  0
TEXT
  5
141
330
13E
100
AcDbEntity
  8
LAYERGROUP-1
  6
CONTINUOUS
 62
     7
100
AcDbText
 10
266.087372
 20
165.800003
 30
0.0
 40
4.0
  1
63
 41
0.851351
  7
FX_VECTOR
 72
     5
 11
272.087372
 21
165.800003
 31
0.0
100
AcDbText
  0
LINE
  5
142
330
13E
100
AcDbEntity
  8
LAYERGROUP-1
  6
CONTINUOUS
 62
     7
100
AcDbLine
 10
237.58739
 20
164.800003
 30
0.0
 11
300.58739
 21
164.800003
 31
0.0
  0
INSERT
  5
143
330
13E
100
AcDbEntity
  8
LAYERGROUP-1
  6
CONTINUOUS
 62
     7
100
AcDbBlockReference
  2
FXTIP_ARROW_S
 10
237.58739
 20
164.800003
 30
0.0
 41
4.0
 42
4.0
 50
180.0
  0
INSERT
  5
144
330
13E
100
AcDbEntity
  8
LAYERGROUP-1
  6
CONTINUOUS
 62
     7
100
AcDbBlockReference
  2
FXTIP_ARROW_E
 10
300.58739
 20
164.800003
 30
0.0
 41
4.0
 42
4.0
 50
360.0
  0
LINE
  5
145
330
13E
100
AcDbEntity
  8
LAYERGROUP-1
  6
CONTINUOUS
 62
     7
100
AcDbLine
 10
237.58739
 20
214.038128
 30
0.0
 11
237.58739
 21
163.800003
 31
0.0
  0
LINE
  5
146
330
13E
100
AcDbEntity
  8
LAYERGROUP-1
  6
CONTINUOUS
 62
     7
100
AcDbLine
 10
300.58739
 20
214.14192
 30
0.0
 11
300.58739
 21
163.800003
 31
0.0
  0
ENDBLK
  5
140
330
13E
100
AcDbEntity
  8
0
100
AcDbBlockEnd
  0
BLOCK
  5
149
330
148
100
AcDbEntity
  8
0
100
AcDbBlockBegin
  2
*D22
 70
     1
 71
     0
 10
0.0
 20
0.0
 30
0.0
  3
*D22
  1

  0
TEXT
  5
14B
330
148
100
AcDbEntity
  8
LAYERGROUP-1
  6
CONTINUOUS
 62
     7
100
AcDbText
 10
335.587372
 20
238.0
 30
0.0
 40
4.0
  1
72
 50
90.0
 41
0.851351
  7
FX_VECTOR
 72
     5
 11
335.587372
 21
244.0
 31
0.0
100
AcDbText
  0
LINE
  5
14C
330
148
100
AcDbEntity
  8
LAYERGROUP-1
  6
CONTINUOUS
 62
     7
100
AcDbLine
 10
336.58739
 20
205.0
 30
0.0
 11
336.58739
 21
277.0
 31
0.0
  0
INSERT
  5
14D
330
148
100
AcDbEntity
  8
LAYERGROUP-1
  6
CONTINUOUS
 62
     7
100
AcDbBlockReference
  2
FXTIP_ARROW_S
 10
336.58739
 20
205.0
 30
0.0
 41
4.0
 42
4.0
 50
270.0
  0
INSERT
  5
14E
330
148
100
AcDbEntity
  8
LAYERGROUP-1
  6
CONTINUOUS
 62
     7
100
AcDbBlockReference
  2
FXTIP_ARROW_E
 10
336.58739
 20
277.0
 30
0.0
 41
4.0
 42
4.0
 50
90.0
  0
LINE
  5
14F
330
148
100
AcDbEntity
  8
LAYERGROUP-1
  6
CONTINUOUS
 62
     7
100
AcDbLine
 10
307.28739
 20
205.0
 30
0.0
 11
337.58739
 21
205.0
 31
0.0
  0
LINE
  5
150
330
148
100
AcDbEntity
  8
LAYERGROUP-1
  6
CONTINUOUS
 62
     7
100
AcDbLine
 10
307.28739
 20
277.0
 30
0.0
 11
337.58739
 21
277.0
 31
0.0
  0
ENDBLK
  5
14A
330
148
100
AcDbEntity
  8
0
100
AcDbBlockEnd
  0
BLOCK
  5
153
330
152
100
AcDbEntity
  8
0
100
AcDbBlockBegin
  2
*D23
 70
     1
 71
     0
 10
0.0
 20
0.0
 30
0.0
  3
*D23
  1

  0
TEXT
  5
155
330
152
100
AcDbEntity
  8
LAYERGROUP-1
  6
CONTINUOUS
 62
     7
100
AcDbText
 10
325.587372
 20
238.0
 30
0.0
 40
4.0
  1
40
 50
90.0
 41
0.851351
  7
FX_VECTOR
 72
     5
 11
325.587372
 21
244.0
 31
0.0
100
AcDbText
  0
LINE
  5
156
330
152
100
AcDbEntity
  8
LAYERGROUP-1
  6
CONTINUOUS
 62
     7
100
AcDbLine
 10
326.58739
 20
221.0
 30
0.0
 11
326.58739
 21
261.0
 31
0.0
  0
INSERT
  5
157
330
152
100
AcDbEntity
  8
LAYERGROUP-1
  6
CONTINUOUS
 62
     7
100
AcDbBlockReference
  2
FXTIP_ARROW_S
 10
326.58739
 20
221.0
 30
0.0
 41
4.0
 42
4.0
 50
270.0
  0
INSERT
  5
158
330
152
100
AcDbEntity
  8
LAYERGROUP-1
  6
CONTINUOUS
 62
     7
100
AcDbBlockReference
  2
FXTIP_ARROW_E
 10
326.58739
 20
261.0
 30
0.0
 41
4.0
 42
4.0
 50
90.0
  0
LINE
  5
159
330
152
100
AcDbEntity
  8
LAYERGROUP-1
  6
CONTINUOUS
 62
     7
100
AcDbLine
 10
307.267047
 20
221.0
 30
0.0
 11
327.58739
 21
221.0
 31
0.0
  0
LINE
  5
15A
330
152
100
AcDbEntity
  8
LAYERGROUP-1
  6
CONTINUOUS
 62
     7
100
AcDbLine
 10
307.734578
 20
261.0
 30
0.0
 11
327.58739
 21
261.0
 31
0.0
  0
ENDBLK
  5
154
330
152
100
AcDbEntity
  8
0
100
AcDbBlockEnd
  0
BLOCK
  5
17E
330
17D
100
AcDbEntity
  8
0
100
AcDbBlockBegin
  2
*D24
 70
     1
 71
     0
 10
0.0
 20
0.0
 30
0.0
  3
*D24
  1

  0
TEXT
  5
180
330
17D
100
AcDbEntity
  8
LAYERGROUP-1
  6
CONTINUOUS
 62
     7
100
AcDbText
 10
204.279245
 20
280.419432
 30
0.0
 40
4.0
  1
4-%%c9.5
 50
331.944946
 41
0.84375
  7
FX_VECTOR
 72
     5
 11
220.164175
 21
271.953676
 31
0.0
100
AcDbText
  0
LINE
  5
181
330
17D
100
AcDbEntity
  8
LAYERGROUP-1
  6
CONTINUOUS
 62
     7
100
AcDbLine
 10
233.395534
 20
263.234019
 30
0.0
 11
241.779247
 21
258.765981
 31
0.0
  0
LINE
  5
182
330
17D
100
AcDbEntity
  8
LAYERGROUP-1
  6
CONTINUOUS
 62
     7
100
AcDbLine
 10
233.395534
 20
263.234019
 30
0.0
 11
203.210525
 21
279.320896
 31
0.0
  0
INSERT
  5
183
330
17D
100
AcDbEntity
  8
LAYERGROUP-1
  6
CONTINUOUS
 62
     7
100
AcDbBlockReference
  2
FXTIP_ARROW_S
 10
233.395534
 20
263.234019
 30
0.0
 41
4.0
 42
4.0
 50
331.944946
  0
LINE
  5
184
330
17D
100
AcDbEntity
  8
LAYERGROUP-1
  6
CONTINUOUS
 62
     7
100
AcDbLine
 10
241.779247
 20
258.765981
 30
0.0
 11
247.074223
 21
255.944063
 31
0.0
  0
INSERT
  5
185
330
17D
100
AcDbEntity
  8
LAYERGROUP-1
  6
CONTINUOUS
 62
     7
100
AcDbBlockReference
  2
FXTIP_ARROW_S
 10
241.779247
 20
258.765981
 30
0.0
 41
4.0
 42
4.0
 50
151.944946
  0
ENDBLK
  5
17F
330
17D
100
AcDbEntity
  8
0
100
AcDbBlockEnd
  0
BLOCK
  5
18C
330
18B
100
AcDbEntity
  8
0
100
AcDbBlockBegin
  2
*D25
 70
     1
 71
     0
 10
0.0
 20
0.0
 30
0.0
  3
*D25
  1

  0
TEXT
  5
18E
330
18B
100
AcDbEntity
  8
LAYERGROUP-1
  6
CONTINUOUS
 62
     7
100
AcDbText
 10
118.991501
 20
38.5
 30
0.0
 40
4.0
  1
32
 41
0.851351
  7
FX_VECTOR
 72
     5
 11
124.991501
 21
38.5
 31
0.0
100
AcDbText
  0
LINE
  5
18F
330
18B
100
AcDbEntity
  8
LAYERGROUP-1
  6
CONTINUOUS
 62
     7
100
AcDbLine
 10
105.991495
 20
37.5
 30
0.0
 11
137.991495
 21
37.5
 31
0.0
  0
INSERT
  5
190
330
18B
100
AcDbEntity
  8
LAYERGROUP-1
  6
CONTINUOUS
 62
     7
100
AcDbBlockReference
  2
FXTIP_ARROW_S
 10
105.991495
 20
37.5
 30
0.0
 41
4.0
 42
4.0
 50
180.0
  0
INSERT
  5
191
330
18B
100
AcDbEntity
  8
LAYERGROUP-1
  6
CONTINUOUS
 62
     7
100
AcDbBlockReference
  2
FXTIP_ARROW_E
 10
137.991495
 20
37.5
 30
0.0
 41
4.0
 42
4.0
 50
360.0
  0
LINE
  5
192
330
18B
100
AcDbEntity
  8
LAYERGROUP-1
  6
CONTINUOUS
 62
     7
100
AcDbLine
 10
105.991495
 20
56.0
 30
0.0
 11
105.991495
 21
36.5
 31
0.0
  0
LINE
  5
193
330
18B
100
AcDbEntity
  8
LAYERGROUP-1
  6
CONTINUOUS
 62
     7
100
AcDbLine
 10
137.991495
 20
56.0
 30
0.0
 11
137.991495
 21
36.5
 31
0.0
  0
ENDBLK
  5
18D
330
18B
100
AcDbEntity
  8
0
100
AcDbBlockEnd
  0
BLOCK
  5
293
330
292
100
AcDbEntity
  8
0
100
AcDbBlockBegin
  2
*D26
 70
     1
 71
     0
 10
0.0
 20
0.0
 30
0.0
  3
*D26
  1

  0
TEXT
  5
295
330
292
100
AcDbEntity
  8
LAYERGROUP-1
  6
CONTINUOUS
 62
     7
100
AcDbText
 10
149.114548
 20
159.5
 30
0.0
 40
4.0
  1
66.5
 41
0.940299
  7
FX_VECTOR
 72
     5
 11
161.114548
 21
159.5
 31
0.0
100
AcDbText
  0
LINE
  5
296
330
292
100
AcDbEntity
  8
LAYERGROUP-1
  6
CONTINUOUS
 62
     7
100
AcDbLine
 10
121.991495
 20
158.5
 30
0.0
 11
188.237622
 21
158.5
 31
0.0
  0
INSERT
  5
297
330
292
100
AcDbEntity
  8
LAYERGROUP-1
  6
CONTINUOUS
 62
     7
100
AcDbBlockReference
  2
FXTIP_ARROW_S
 10
121.991495
 20
158.5
 30
0.0
 41
4.0
 42
4.0
 50
180.0
  0
INSERT
  5
298
330
292
100
AcDbEntity
  8
LAYERGROUP-1
  6
CONTINUOUS
 62
     7
100
AcDbBlockReference
  2
FXTIP_ARROW_E
 10
188.237622
 20
158.5
 30
0.0
 41
4.0
 42
4.0
 50
360.0
  0
LINE
  5
299
330
292
100
AcDbEntity
  8
LAYERGROUP-1
  6
CONTINUOUS
 62
     7
100
AcDbLine
 10
121.991495
 20
152.237154
 30
0.0
 11
121.991495
 21
159.5
 31
0.0
  0
LINE
  5
29A
330
292
100
AcDbEntity
  8
LAYERGROUP-1
  6
CONTINUOUS
 62
     7
100
AcDbLine
 10
188.237622
 20
112.081416
 30
0.0
 11
188.237622
 21
159.5
 31
0.0
  0
ENDBLK
  5
294
330
292
100
AcDbEntity
  8
0
100
AcDbBlockEnd
  0
BLOCK
  5
2AB
330
2AA
100
AcDbEntity
  8
0
100
AcDbBlockBegin
  2
*D27
 70
     1
 71
     0
 10
0.0
 20
0.0
 30
0.0
  3
*D27
  1

  0
TEXT
  5
2AD
330
2AA
100
AcDbEntity
  8
}}ﾊﾊGG血CCТ
  6
CONTINUOUS
 62
     7
100
AcDbText
 10
325.587402
 20
110.25
 30
0.0
 40
4.0
  1
62.5
 50
90.0
 41
0.940299
  7
FX_VECTOR
 72
     5
 11
325.587402
 21
122.25
 31
0.0
100
AcDbText
  0
LINE
  5
2AE
330
2AA
100
AcDbEntity
  8
}}ﾊﾊGG血CCТ
  6
CONTINUOUS
 62
     7
100
AcDbLine
 10
326.58739
 20
85.0
 30
0.0
 11
326.58739
 21
147.5
 31
0.0
  0
INSERT
  5
2AF
330
2AA
100
AcDbEntity
  8
}}ﾊﾊGG血CCТ
  6
CONTINUOUS
 62
     7
100
AcDbBlockReference
  2
FXTIP_ARROW_S
 10
326.58739
 20
85.0
 30
0.0
 41
4.0
 42
4.0
 50
270.0
  0
INSERT
  5
2B0
330
2AA
100
AcDbEntity
  8
}}ﾊﾊGG血CCТ
  6
CONTINUOUS
 62
     7
100
AcDbBlockReference
  2
FXTIP_ARROW_E
 10
326.58739
 20
147.5
 30
0.0
 41
4.0
 42
4.0
 50
90.0
  0
LINE
  5
2B1
330
2AA
100
AcDbEntity
  8
}}ﾊﾊGG血CCТ
  6
CONTINUOUS
 62
     7
100
AcDbLine
 10
310.031547
 20
85.0
 30
0.0
 11
327.58739
 21
85.0
 31
0.0
  0
LINE
  5
2B2
330
2AA
100
AcDbEntity
  8
}}ﾊﾊGG血CCТ
  6
CONTINUOUS
 62
     7
100
AcDbLine
 10
313.58739
 20
147.5
 30
0.0
 11
327.58739
 21
147.5
 31
0.0
  0
ENDBLK
  5
2AC
330
2AA
100
AcDbEntity
  8
0
100
AcDbBlockEnd
  0
BLOCK
  5
2B5
330
2B4
100
AcDbEntity
  8
0
100
AcDbBlockBegin
  2
*D28
 70
     1
 71
     0
 10
0.0
 20
0.0
 30
0.0
  3
*D28
  1

  0
TEXT
  5
2B7
330
2B4
100
AcDbEntity
  8
}}ﾊﾊGG血CCТ
  6
CONTINUOUS
 62
     7
100
AcDbText
 10
335.587402
 20
93.0
 30
0.0
 40
4.0
  1
100
 50
90.0
 41
0.828947
  7
FX_VECTOR
 72
     5
 11
335.587402
 21
102.0
 31
0.0
100
AcDbText
  0
LINE
  5
2B8
330
2B4
100
AcDbEntity
  8
}}ﾊﾊGG血CCТ
  6
CONTINUOUS
 62
     7
100
AcDbLine
 10
336.58739
 20
47.5
 30
0.0
 11
336.58739
 21
147.5
 31
0.0
  0
INSERT
  5
2B9
330
2B4
100
AcDbEntity
  8
}}ﾊﾊGG血CCТ
  6
CONTINUOUS
 62
     7
100
AcDbBlockReference
  2
FXTIP_ARROW_S
 10
336.58739
 20
47.5
 30
0.0
 41
4.0
 42
4.0
 50
270.0
  0
INSERT
  5
2BA
330
2B4
100
AcDbEntity
  8
}}ﾊﾊGG血CCТ
  6
CONTINUOUS
 62
     7
100
AcDbBlockReference
  2
FXTIP_ARROW_E
 10
336.58739
 20
147.5
 30
0.0
 41
4.0
 42
4.0
 50
90.0
  0
LINE
  5
2BB
330
2B4
100
AcDbEntity
  8
}}ﾊﾊGG血CCТ
  6
CONTINUOUS
 62
     7
100
AcDbLine
 10
270.08739
 20
47.5
 30
0.0
 11
337.58739
 21
47.5
 31
0.0
  0
LINE
  5
2BC
330
2B4
100
AcDbEntity
  8
}}ﾊﾊGG血CCТ
  6
CONTINUOUS
 62
     7
100
AcDbLine
 10
313.58739
 20
147.5
 30
0.0
 11
337.58739
 21
147.5
 31
0.0
  0
ENDBLK
  5
2B6
330
2B4
100
AcDbEntity
  8
0
100
AcDbBlockEnd
  0
BLOCK
  5
2F7
330
2F6
100
AcDbEntity
  8
0
100
AcDbBlockBegin
  2
*D29
 70
     1
 71
     0
 10
0.0
 20
0.0
 30
0.0
  3
*D29
  1

  0
TEXT
  5
2F9
330
2F6
100
AcDbEntity
  8
LAYERGROUP-1
  6
CONTINUOUS
 62
     7
100
AcDbText
 10
115.991493
 20
28.5
 30
0.0
 40
4.0
  1
35.5
 41
0.940299
  7
FX_VECTOR
 72
     5
 11
127.991493
 21
28.5
 31
0.0
100
AcDbText
  0
LINE
  5
2FA
330
2F6
100
AcDbEntity
  8
LAYERGROUP-1
  6
CONTINUOUS
 62
     7
100
AcDbLine
 10
104.241495
 20
27.5
 30
0.0
 11
139.741495
 21
27.5
 31
0.0
  0
INSERT
  5
2FB
330
2F6
100
AcDbEntity
  8
LAYERGROUP-1
  6
CONTINUOUS
 62
     7
100
AcDbBlockReference
  2
FXTIP_ARROW_S
 10
104.241495
 20
27.5
 30
0.0
 41
4.0
 42
4.0
 50
180.0
  0
INSERT
  5
2FC
330
2F6
100
AcDbEntity
  8
LAYERGROUP-1
  6
CONTINUOUS
 62
     7
100
AcDbBlockReference
  2
FXTIP_ARROW_E
 10
139.741495
 20
27.5
 30
0.0
 41
4.0
 42
4.0
 50
360.0
  0
LINE
  5
2FD
330
2F6
100
AcDbEntity
  8
LAYERGROUP-1
  6
CONTINUOUS
 62
     7
100
AcDbLine
 10
104.241495
 20
76.066667
 30
0.0
 11
104.241495
 21
26.5
 31
0.0
  0
LINE
  5
2FE
330
2F6
100
AcDbEntity
  8
LAYERGROUP-1
  6
CONTINUOUS
 62
     7
100
AcDbLine
 10
139.741495
 20
76.066667
 30
0.0
 11
139.741495
 21
26.5
 31
0.0
  0
ENDBLK
  5
2F8
330
2F6
100
AcDbEntity
  8
0
100
AcDbBlockEnd
  0
BLOCK
  5
308
330
307
100
AcDbEntity
  8
0
100
AcDbBlockBegin
  2
BLKF032
 70
     0
 71
     0
 10
0.0
 20
0.0
 30
0.0
  3
BLKF032
  1

  0
LINE
  5
30B
330
307
100
AcDbEntity
  8
GR1-1
  6
CONTINUOUS
 62
     7
100
AcDbLine
 10
254.595574
 20
58.669944
 30
0.0
 11
254.344279
 21
58.580317
 31
0.0
  0
LINE
  5
30C
330
307
100
AcDbEntity
  8
GR1-1
  6
CONTINUOUS
 62
     7
100
AcDbLine
 10
254.766035
 20
58.589109
 30
0.0
 11
254.263445
 21
58.409856
 31
0.0
  0
LINE
  5
30D
330
307
100
AcDbEntity
  8
GR1-1
  6
CONTINUOUS
 62
     7
100
AcDbLine
 10
254.936496
 20
58.508275
 30
0.0
 11
254.18261
 21
58.239396
 31
0.0
  0
LINE
  5
30E
330
307
100
AcDbEntity
  8
GR1-1
  6
CONTINUOUS
 62
     7
100
AcDbLine
 10
255.106957
 20
58.42744
 30
0.0
 11
254.101776
 21
58.068935
 31
0.0
  0
LINE
  5
30F
330
307
100
AcDbEntity
  8
GR1-1
  6
CONTINUOUS
 62
     7
100
AcDbLine
 10
255.277418
 20
58.346606
 30
0.0
 11
254.410563
 21
58.037435
 31
0.0
  0
LINE
  5
310
330
307
100
AcDbEntity
  8
GR1-1
  6
CONTINUOUS
 62
     7
100
AcDbLine
 10
254.173377
 20
57.952841
 30
0.0
 11
254.020941
 21
57.898474
 31
0.0
  0
LINE
  5
311
330
307
100
AcDbEntity
  8
GR1-1
  6
CONTINUOUS
 62
     7
100
AcDbLine
 10
255.447879
 20
58.265771
 30
0.0
 11
254.581023
 21
57.956601
 31
0.0
  0
LINE
  5
312
330
307
100
AcDbEntity
  8
GR1-1
  6
CONTINUOUS
 62
     7
100
AcDbLine
 10
254.092543
 20
57.782381
 30
0.0
 11
253.940107
 21
57.728013
 31
0.0
  0
LINE
  5
313
330
307
100
AcDbEntity
  8
GR1-1
  6
CONTINUOUS
 62
     7
100
AcDbLine
 10
255.61834
 20
58.184937
 30
0.0
 11
254.751484
 21
57.875766
 31
0.0
  0
LINE
  5
314
330
307
100
AcDbEntity
  8
GR1-1
  6
CONTINUOUS
 62
     7
100
AcDbLine
 10
254.011708
 20
57.61192
 30
0.0
 11
253.859272
 21
57.557552
 31
0.0
  0
LINE
  5
315
330
307
100
AcDbEntity
  8
GR1-1
  6
CONTINUOUS
 62
     7
100
AcDbLine
 10
255.7888
 20
58.104102
 30
0.0
 11
254.819337
 21
57.758336
 31
0.0
  0
LINE
  5
316
330
307
100
AcDbEntity
  8
GR1-1
  6
CONTINUOUS
 62
     7
100
AcDbLine
 10
253.930874
 20
57.441459
 30
0.0
 11
253.778437
 21
57.387091
 31
0.0
  0
LINE
  5
317
330
307
100
AcDbEntity
  8
GR1-1
  6
CONTINUOUS
 62
     7
100
AcDbLine
 10
255.959261
 20
58.023267
 30
0.0
 11
254.738502
 21
57.587875
 31
0.0
  0
LINE
  5
318
330
307
100
AcDbEntity
  8
GR1-1
  6
CONTINUOUS
 62
     7
100
AcDbLine
 10
253.850039
 20
57.270998
 30
0.0
 11
253.697603
 21
57.216631
 31
0.0
  0
LINE
  5
319
330
307
100
AcDbEntity
  8
GR1-1
  6
CONTINUOUS
 62
     7
100
AcDbLine
 10
256.129722
 20
57.942433
 30
0.0
 11
254.657668
 21
57.417414
 31
0.0
  0
LINE
  5
31A
330
307
100
AcDbEntity
  8
GR1-1
  6
CONTINUOUS
 62
     7
100
AcDbLine
 10
253.769205
 20
57.100537
 30
0.0
 11
253.616768
 21
57.04617
 31
0.0
  0
LINE
  5
31B
330
307
100
AcDbEntity
  8
GR1-1
  6
CONTINUOUS
 62
     7
100
AcDbLine
 10
256.300183
 20
57.861598
 30
0.0
 11
254.650254
 21
57.273139
 31
0.0
  0
LINE
  5
31C
330
307
100
AcDbEntity
  8
GR1-1
  6
CONTINUOUS
 62
     7
100
AcDbLine
 10
253.68837
 20
56.930076
 30
0.0
 11
253.535934
 21
56.875709
 31
0.0
  0
LINE
  5
31D
330
307
100
AcDbEntity
  8
GR1-1
  6
CONTINUOUS
 62
     7
100
AcDbLine
 10
256.470644
 20
57.780764
 30
0.0
 11
256.219348
 21
57.691138
 31
0.0
  0
LINE
  5
31E
330
307
100
AcDbEntity
  8
GR1-1
  6
CONTINUOUS
 62
     7
100
AcDbLine
 10
253.805254
 20
56.830133
 30
0.0
 11
253.455099
 21
56.705248
 31
0.0
  0
LINE
  5
31F
330
307
100
AcDbEntity
  8
GR1-1
  6
CONTINUOUS
 62
     7
100
AcDbLine
 10
256.641105
 20
57.699929
 30
0.0
 11
256.264162
 21
57.56549
 31
0.0
  0
LINE
  5
320
330
307
100
AcDbEntity
  8
GR1-1
  6
CONTINUOUS
 62
     7
100
AcDbLine
 10
253.975715
 20
56.749299
 30
0.0
 11
253.374265
 21
56.534787
 31
0.0
  0
LINE
  5
321
330
307
100
AcDbEntity
  8
GR1-1
  6
CONTINUOUS
 62
     7
100
AcDbLine
 10
256.811566
 20
57.619095
 30
0.0
 11
256.308975
 21
57.439842
 31
0.0
  0
LINE
  5
322
330
307
100
AcDbEntity
  8
GR1-1
  6
CONTINUOUS
 62
     7
100
AcDbLine
 10
254.146176
 20
56.668464
 30
0.0
 11
253.879637
 21
56.573401
 31
0.0
  0
LINE
  5
323
330
307
100
AcDbEntity
  8
GR1-1
  6
CONTINUOUS
 62
     7
100
AcDbLine
 10
253.796021
 20
56.543579
 30
0.0
 11
253.29343
 21
56.364326
 31
0.0
  0
LINE
  5
324
330
307
100
AcDbEntity
  8
GR1-1
  6
CONTINUOUS
 62
     7
100
AcDbLine
 10
256.982026
 20
57.53826
 30
0.0
 11
256.353788
 21
57.314195
 31
0.0
  0
LINE
  5
325
330
307
100
AcDbEntity
  8
GR1-1
  6
CONTINUOUS
 62
     7
100
AcDbLine
 10
254.316636
 20
56.58763
 30
0.0
 11
254.050097
 21
56.492567
 31
0.0
  0
LINE
  5
326
330
307
100
AcDbEntity
  8
GR1-1
  6
CONTINUOUS
 62
     7
100
AcDbLine
 10
253.840834
 20
56.417931
 30
0.0
 11
253.212596
 21
56.193865
 31
0.0
  0
LINE
  5
327
330
307
100
AcDbEntity
  8
GR1-1
  6
CONTINUOUS
 62
     7
100
AcDbLine
 10
257.152487
 20
57.457426
 30
0.0
 11
256.398601
 21
57.188547
 31
0.0
  0
LINE
  5
328
330
307
100
AcDbEntity
  8
GR1-1
  6
CONTINUOUS
 62
     7
100
AcDbLine
 10
254.487097
 20
56.506795
 30
0.0
 11
254.220558
 21
56.411732
 31
0.0
  0
LINE
  5
329
330
307
100
AcDbEntity
  8
GR1-1
  6
CONTINUOUS
 62
     7
100
AcDbLine
 10
253.885647
 20
56.292284
 30
0.0
 11
253.131761
 21
56.023405
 31
0.0
  0
LINE
  5
32A
330
307
100
AcDbEntity
  8
GR1-1
  6
CONTINUOUS
 62
     7
100
AcDbLine
 10
257.322948
 20
57.376591
 30
0.0
 11
256.443414
 21
57.062899
 31
0.0
  0
LINE
  5
32B
330
307
100
AcDbEntity
  8
GR1-1
  6
CONTINUOUS
 62
     7
100
AcDbLine
 10
255.815176
 20
56.838833
 30
0.0
 11
255.103139
 21
56.58488
 31
0.0
  0
LINE
  5
32C
330
307
100
AcDbEntity
  8
GR1-1
  6
CONTINUOUS
 62
     7
100
AcDbLine
 10
254.657558
 20
56.425961
 30
0.0
 11
254.391019
 21
56.330898
 31
0.0
  0
LINE
  5
32D
330
307
100
AcDbEntity
  8
GR1-1
  6
CONTINUOUS
 62
     7
100
AcDbLine
 10
253.930461
 20
56.166636
 30
0.0
 11
253.050927
 21
55.852944
 31
0.0
  0
LINE
  5
32E
330
307
100
AcDbEntity
  8
GR1-1
  6
CONTINUOUS
 62
     7
100
AcDbLine
 10
257.493409
 20
57.295757
 30
0.0
 11
256.488227
 21
56.937252
 31
0.0
  0
LINE
  5
32F
330
307
100
AcDbEntity
  8
GR1-1
  6
CONTINUOUS
 62
     7
100
AcDbLine
 10
255.859989
 20
56.713186
 30
0.0
 11
255.272251
 21
56.503565
 31
0.0
  0
LINE
  5
330
330
307
100
AcDbEntity
  8
GR1-1
  6
CONTINUOUS
 62
     7
100
AcDbLine
 10
254.828019
 20
56.345126
 30
0.0
 11
254.56148
 21
56.250063
 31
0.0
  0
LINE
  5
331
330
307
100
AcDbEntity
  8
GR1-1
  6
CONTINUOUS
 62
     7
100
AcDbLine
 10
253.975274
 20
56.040988
 30
0.0
 11
252.970092
 21
55.682483
 31
0.0
  0
LINE
  5
332
330
307
100
AcDbEntity
  8
GR1-1
  6
CONTINUOUS
 62
     7
100
AcDbLine
 10
257.66387
 20
57.214922
 30
0.0
 11
256.533041
 21
56.811604
 31
0.0
  0
LINE
  5
333
330
307
100
AcDbEntity
  8
GR1-1
  6
CONTINUOUS
 62
     7
100
AcDbLine
 10
255.904802
 20
56.587538
 30
0.0
 11
255.442712
 21
56.42273
 31
0.0
  0
LINE
  5
334
330
307
100
AcDbEntity
  8
GR1-1
  6
CONTINUOUS
 62
     7
100
AcDbLine
 10
254.99848
 20
56.264292
 30
0.0
 11
254.648325
 21
56.139406
 31
0.0
  0
LINE
  5
335
330
307
100
AcDbEntity
  8
GR1-1
  6
CONTINUOUS
 62
     7
100
AcDbLine
 10
254.020087
 20
55.915341
 30
0.0
 11
252.889258
 21
55.512022
 31
0.0
  0
LINE
  5
336
330
307
100
AcDbEntity
  8
GR1-1
  6
CONTINUOUS
 62
     7
100
AcDbLine
 10
257.834331
 20
57.134088
 30
0.0
 11
256.577854
 21
56.685956
 31
0.0
  0
LINE
  5
337
330
307
100
AcDbEntity
  8
GR1-1
  6
CONTINUOUS
 62
     7
100
AcDbLine
 10
255.949615
 20
56.46189
 30
0.0
 11
255.473813
 21
56.292192
 31
0.0
  0
LINE
  5
338
330
307
100
AcDbEntity
  8
GR1-1
  6
CONTINUOUS
 62
     7
100
AcDbLine
 10
255.168941
 20
56.183457
 30
0.0
 11
254.693139
 21
56.013759
 31
0.0
  0
LINE
  5
339
330
307
100
AcDbEntity
  8
GR1-1
  6
CONTINUOUS
 62
     7
100
AcDbLine
 10
254.0649
 20
55.789693
 30
0.0
 11
252.808423
 21
55.341561
 31
0.0
  0
LINE
  5
33A
330
307
100
AcDbEntity
  8
GR1-1
  6
CONTINUOUS
 62
     7
100
AcDbLine
 10
258.004791
 20
57.053253
 30
0.0
 11
256.622667
 21
56.560308
 31
0.0
  0
LINE
  5
33B
330
307
100
AcDbEntity
  8
GR1-1
  6
CONTINUOUS
 62
     7
100
AcDbLine
 10
255.994429
 20
56.336243
 30
0.0
 11
255.392979
 21
56.121731
 31
0.0
  0
LINE
  5
33C
330
307
100
AcDbEntity
  8
GR1-1
  6
CONTINUOUS
 62
     7
100
AcDbLine
 10
255.339402
 20
56.102622
 30
0.0
 11
254.737952
 21
55.888111
 31
0.0
  0
LINE
  5
33D
330
307
100
AcDbEntity
  8
GR1-1
  6
CONTINUOUS
 62
     7
100
AcDbLine
 10
254.109713
 20
55.664045
 30
0.0
 11
252.727589
 21
55.1711
 31
0.0
  0
LINE
  5
33E
330
307
100
AcDbEntity
  8
GR1-1
  6
CONTINUOUS
 62
     7
100
AcDbLine
 10
257.977534
 20
56.901901
 30
0.0
 11
256.66748
 21
56.434661
 31
0.0
  0
LINE
  5
33F
330
307
100
AcDbEntity
  8
GR1-1
  6
CONTINUOUS
 62
     7
100
AcDbLine
 10
256.039242
 20
56.210595
 30
0.0
 11
254.782765
 21
55.762463
 31
0.0
  0
LINE
  5
340
330
307
100
AcDbEntity
  8
GR1-1
  6
CONTINUOUS
 62
     7
100
AcDbLine
 10
254.154526
 20
55.538398
 30
0.0
 11
252.844473
 21
55.071157
 31
0.0
  0
LINE
  5
341
330
307
100
AcDbEntity
  8
GR1-1
  6
CONTINUOUS
 62
     7
100
AcDbLine
 10
257.896699
 20
56.73144
 30
0.0
 11
256.712293
 21
56.309013
 31
0.0
  0
LINE
  5
342
330
307
100
AcDbEntity
  8
GR1-1
  6
CONTINUOUS
 62
     7
100
AcDbLine
 10
256.084055
 20
56.084947
 30
0.0
 11
254.827578
 21
55.636816
 31
0.0
  0
LINE
  5
343
330
307
100
AcDbEntity
  8
GR1-1
  6
CONTINUOUS
 62
     7
100
AcDbLine
 10
254.19934
 20
55.41275
 30
0.0
 11
253.014933
 21
54.990323
 31
0.0
  0
LINE
  5
344
330
307
100
AcDbEntity
  8
GR1-1
  6
CONTINUOUS
 62
     7
100
AcDbLine
 10
257.815865
 20
56.560979
 30
0.0
 11
256.757106
 21
56.183365
 31
0.0
  0
LINE
  5
345
330
307
100
AcDbEntity
  8
GR1-1
  6
CONTINUOUS
 62
     7
100
AcDbLine
 10
256.128868
 20
55.9593
 30
0.0
 11
254.872391
 21
55.511168
 31
0.0
  0
LINE
  5
346
330
307
100
AcDbEntity
  8
GR1-1
  6
CONTINUOUS
 62
     7
100
AcDbLine
 10
254.244153
 20
55.287102
 30
0.0
 11
253.185394
 21
54.909488
 31
0.0
  0
LINE
  5
347
330
307
100
AcDbEntity
  8
GR1-1
  6
CONTINUOUS
 62
     7
100
AcDbLine
 10
257.73503
 20
56.390519
 30
0.0
 11
256.80192
 21
56.057718
 31
0.0
  0
LINE
  5
348
330
307
100
AcDbEntity
  8
GR1-1
  6
CONTINUOUS
 62
     7
100
AcDbLine
 10
256.173681
 20
55.833652
 30
0.0
 11
254.917204
 21
55.38552
 31
0.0
  0
LINE
  5
349
330
307
100
AcDbEntity
  8
GR1-1
  6
CONTINUOUS
 62
     7
100
AcDbLine
 10
254.288966
 20
55.161454
 30
0.0
 11
253.355855
 21
54.828654
 31
0.0
  0
LINE
  5
34A
330
307
100
AcDbEntity
  8
GR1-1
  6
CONTINUOUS
 62
     7
100
AcDbLine
 10
257.654196
 20
56.220058
 30
0.0
 11
256.846733
 21
55.93207
 31
0.0
  0
LINE
  5
34B
330
307
100
AcDbEntity
  8
GR1-1
  6
CONTINUOUS
 62
     7
100
AcDbLine
 10
256.218494
 20
55.708004
 30
0.0
 11
254.962017
 21
55.259873
 31
0.0
  0
LINE
  5
34C
330
307
100
AcDbEntity
  8
GR1-1
  6
CONTINUOUS
 62
     7
100
AcDbLine
 10
254.333779
 20
55.035807
 30
0.0
 11
253.526316
 21
54.747819
 31
0.0
  0
LINE
  5
34D
330
307
100
AcDbEntity
  8
GR1-1
  6
CONTINUOUS
 62
     7
100
AcDbLine
 10
257.573361
 20
56.049597
 30
0.0
 11
256.891546
 21
55.806422
 31
0.0
  0
LINE
  5
34E
330
307
100
AcDbEntity
  8
GR1-1
  6
CONTINUOUS
 62
     7
100
AcDbLine
 10
254.378592
 20
54.910159
 30
0.0
 11
253.696777
 21
54.666985
 31
0.0
  0
LINE
  5
34F
330
307
100
AcDbEntity
  8
GR1-1
  6
CONTINUOUS
 62
     7
100
AcDbLine
 10
257.492527
 20
55.879136
 30
0.0
 11
256.936359
 21
55.680775
 31
0.0
  0
LINE
  5
350
330
307
100
AcDbEntity
  8
GR1-1
  6
CONTINUOUS
 62
     7
100
AcDbLine
 10
254.423405
 20
54.784511
 30
0.0
 11
253.867238
 21
54.58615
 31
0.0
  0
LINE
  5
351
330
307
100
AcDbEntity
  8
GR1-1
  6
CONTINUOUS
 62
     7
100
AcDbLine
 10
257.411692
 20
55.708675
 30
0.0
 11
256.981172
 21
55.555127
 31
0.0
  0
LINE
  5
352
330
307
100
AcDbEntity
  8
GR1-1
  6
CONTINUOUS
 62
     7
100
AcDbLine
 10
254.468219
 20
54.658864
 30
0.0
 11
254.037698
 21
54.505316
 31
0.0
  0
LINE
  5
353
330
307
100
AcDbEntity
  8
GR1-1
  6
CONTINUOUS
 62
     7
100
AcDbLine
 10
257.330858
 20
55.538214
 30
0.0
 11
257.025985
 21
55.429479
 31
0.0
  0
LINE
  5
354
330
307
100
AcDbEntity
  8
GR1-1
  6
CONTINUOUS
 62
     7
100
AcDbLine
 10
254.513032
 20
54.533216
 30
0.0
 11
254.208159
 21
54.424481
 31
0.0
  0
LINE
  5
355
330
307
100
AcDbEntity
  8
GR1-1
  6
CONTINUOUS
 62
     7
100
AcDbLine
 10
257.250023
 20
55.367753
 30
0.0
 11
257.070799
 21
55.303832
 31
0.0
  0
LINE
  5
356
330
307
100
AcDbEntity
  8
GR1-1
  6
CONTINUOUS
 62
     7
100
AcDbLine
 10
254.557845
 20
54.407568
 30
0.0
 11
254.37862
 21
54.343647
 31
0.0
  0
LINE
  5
357
330
307
100
AcDbEntity
  8
GR1-1
  6
CONTINUOUS
 62
     7
100
AcDbLine
 10
257.169189
 20
55.197293
 30
0.0
 11
254.549081
 21
54.262812
 31
0.0
  0
LINE
  5
358
330
307
100
AcDbEntity
  8
GR1-1
  6
CONTINUOUS
 62
     7
100
AcDbLine
 10
257.088354
 20
55.026832
 30
0.0
 11
254.719542
 21
54.181978
 31
0.0
  0
LINE
  5
359
330
307
100
AcDbEntity
  8
GR1-1
  6
CONTINUOUS
 62
     7
100
AcDbLine
 10
257.00752
 20
54.856371
 30
0.0
 11
254.890003
 21
54.101143
 31
0.0
  0
LINE
  5
35A
330
307
100
AcDbEntity
  8
GR1-1
  6
CONTINUOUS
 62
     7
100
AcDbLine
 10
256.926685
 20
54.68591
 30
0.0
 11
255.060464
 21
54.020308
 31
0.0
  0
LINE
  5
35B
330
307
100
AcDbEntity
  8
GR1-1
  6
CONTINUOUS
 62
     7
100
AcDbLine
 10
256.845851
 20
54.515449
 30
0.0
 11
255.230924
 21
53.939474
 31
0.0
  0
LINE
  5
35C
330
307
100
AcDbEntity
  8
GR1-1
  6
CONTINUOUS
 62
     7
100
AcDbLine
 10
256.765016
 20
54.344988
 30
0.0
 11
255.401385
 21
53.858639
 31
0.0
  0
LINE
  5
35D
330
307
100
AcDbEntity
  8
GR1-1
  6
CONTINUOUS
 62
     7
100
AcDbLine
 10
256.684182
 20
54.174527
 30
0.0
 11
255.571846
 21
53.777805
 31
0.0
  0
LINE
  5
35E
330
307
100
AcDbEntity
  8
GR1-1
  6
CONTINUOUS
 62
     7
100
AcDbLine
 10
256.603347
 20
54.004067
 30
0.0
 11
255.742307
 21
53.69697
 31
0.0
  0
LINE
  5
35F
330
307
100
AcDbEntity
  8
GR1-1
  6
CONTINUOUS
 62
     7
100
AcDbLine
 10
256.522513
 20
53.833606
 30
0.0
 11
255.912768
 21
53.616136
 31
0.0
  0
LINE
  5
360
330
307
100
AcDbEntity
  8
GR1-1
  6
CONTINUOUS
 62
     7
100
AcDbLine
 10
256.441678
 20
53.663145
 30
0.0
 11
256.083229
 21
53.535301
 31
0.0
  0
LINE
  5
361
330
307
100
AcDbEntity
  8
GR1-1
  6
CONTINUOUS
 62
     7
100
AcDbLine
 10
256.360844
 20
53.492684
 30
0.0
 11
256.253689
 21
53.454467
 31
0.0
  0
ENDBLK
  5
309
330
307
100
AcDbEntity
  8
0
100
AcDbBlockEnd
  0
BLOCK
  5
38D
330
38C
100
AcDbEntity
  8
0
100
AcDbBlockBegin
  2
BLKF033
 70
     0
 71
     0
 10
0.0
 20
0.0
 30
0.0
  3
BLKF033
  1

  0
LINE
  5
390
330
38C
100
AcDbEntity
  8
}}ﾊﾊGG血CCТ
  6
CONTINUOUS
 62
     7
100
AcDbLine
 10
10.0
 20
10.0
 30
0.0
 11
410.0
 21
10.0
 31
0.0
  0
LINE
  5
391
330
38C
100
AcDbEntity
  8
}}ﾊﾊGG血CCТ
  6
CONTINUOUS
 62
     7
100
AcDbLine
 10
10.0
 20
10.0
 30
0.0
 11
10.0
 21
287.0
 31
0.0
  0
LINE
  5
392
330
38C
100
AcDbEntity
  8
}}ﾊﾊGG血CCТ
  6
CONTINUOUS
 62
     7
100
AcDbLine
 10
10.0
 20
287.0
 30
0.0
 11
410.0
 21
287.0
 31
0.0
  0
LINE
  5
393
330
38C
100
AcDbEntity
  8
}}ﾊﾊGG血CCТ
  6
CONTINUOUS
 62
     7
100
AcDbLine
 10
410.0
 20
287.0
 30
0.0
 11
410.0
 21
10.0
 31
0.0
  0
LINE
  5
394
330
38C
100
AcDbEntity
  8
}}ﾊﾊGG血CCТ
  6
CONTINUOUS
 62
     7
100
AcDbLine
 10
153.0
 20
10.0
 30
0.0
 11
153.0
 21
20.0
 31
0.0
  0
TEXT
  5
395
330
38C
100
AcDbEntity
  8
}}ﾊﾊGG血CCТ
  6
CONTINUOUS
 62
     7
100
AcDbText
 10
137.738815
 20
11.596879
 30
0.0
 40
6.648749
  1
品名
 41
1.083413
  7
FX_VECTOR
 72
     5
 11
149.058355
 21
11.596879
 31
0.0
100
AcDbText
  0
LINE
  5
396
330
38C
100
AcDbEntity
  8
}}ﾊﾊGG血CCТ
  6
CONTINUOUS
 62
     7
100
AcDbLine
 10
233.0
 20
20.0
 30
0.0
 11
233.0
 21
10.0
 31
0.0
  0
LINE
  5
397
330
38C
100
AcDbEntity
  8
}}ﾊﾊGG血CCТ
  6
CONTINUOUS
 62
     7
100
AcDbLine
 10
133.0
 20
20.0
 30
0.0
 11
410.0
 21
20.0
 31
0.0
  0
INSERT
  5
39B
330
38C
100
AcDbEntity
  8
0
100
AcDbBlockReference
  2
BLKF034
 10
0.0
 20
0.0
 30
0.0
  0
INSERT
  5
3A3
330
38C
100
AcDbEntity
  8
0
100
AcDbBlockReference
  2
BLKF035
 10
0.0
 20
0.0
 30
0.0
  0
HATCH
  5
3B3
330
38C
100
AcDbEntity
  8
GR1-1
  6
CONTINUOUS
 62
     7
100
AcDbHatch
 10
0.0
 20
0.0
 30
0.0
210
0.0
220
0.0
230
1.0
  2

 70
     0
 71
     1
 91
        2
 92
        0
 93
        4
 72
     1
 10
338.8018997861325
 20
17.91346152
 11
344.8018997861325
 21
17.91346152
 72
     1
 10
344.8018997861325
 20
17.91346152
 11
344.8018997861325
 21
11.91346152
 72
     1
 10
344.8018997861325
 20
11.91346152
 11
338.8018997861325
 21
11.91346152
 72
     1
 10
338.8018997861325
 20
11.91346152
 11
338.8018997861325
 21
17.91346152
 97
        0
 92
        0
 93
       15
 72
     1
 10
341.8018997861325
 20
17.76923076000002
 11
338.9461305461325
 21
14.91346152
 72
     1
 10
338.9461305461325
 20
14.91346152
 11
341.8018997861325
 21
12.05769228000001
 72
     1
 10
341.8018997861325
 20
12.05769228000001
 11
343.3595920661325
 21
13.61538462
 72
     1
 10
343.3595920661325
 20
13.61538462
 11
343.3595920661325
 21
12.98076924
 72
     1
 10
343.3595920661325
 20
12.98076924
 11
344.2249766861325
 21
12.98076924
 72
     1
 10
344.2249766861325
 20
12.98076924
 11
344.2249766861325
 21
15.00000000000001
 72
     1
 10
344.2249766861325
 20
15.00000000000001
 11
341.8018997861325
 21
15.00000000000001
 72
     1
 10
341.8018997861325
 20
15.00000000000001
 11
341.8018997861325
 21
14.13461538000001
 72
     1
 10
341.8018997861325
 20
14.13461538000001
 11
342.2461305461325
 21
14.13461538000001
 72
     1
 10
342.2461305461325
 20
14.13461538000001
 11
341.8018997861325
 21
13.69038462
 72
     1
 10
341.8018997861325
 20
13.69038462
 11
340.5788228861325
 21
14.91346152
 72
     1
 10
340.5788228861325
 20
14.91346152
 11
341.8018997861325
 21
16.13653842000003
 72
     1
 10
341.8018997861325
 20
16.13653842000003
 11
342.5922844061325
 21
15.3461538
 72
     1
 10
342.5922844061325
 20
15.3461538
 11
344.2249766861325
 21
15.3461538
 72
     1
 10
344.2249766861325
 20
15.3461538
 11
341.8018997861325
 21
17.76923076000002
 97
        0
 75
     0
 76
     0
 52
45.0
 41
0.05
 77
     0
 78
     1
 53
45.0
 43
0.0
 44
0.0
 45
-0.0353553390593274
 46
0.0353553390593274
 79
     0
 98
        0
  0
TEXT
  5
3B4
330
38C
100
AcDbEntity
  8
}}ﾊﾊGG血CCТ
  6
CONTINUOUS
 62
     7
100
AcDbText
 10
349.225769
 20
11.461285
 30
0.0
 40
7.170908
  1
GOLD CASTER
 41
0.63978
  7
FX_VECTOR
 72
     5
 11
395.977636
 21
11.461285
 31
0.0
100
AcDbText
  0
LINE
  5
3B5
330
38C
100
AcDbEntity
  8
}}ﾊﾊGG血CCТ
  6
CONTINUOUS
 62
     7
100
AcDbLine
 10
253.0
 20
10.0
 30
0.0
 11
253.0
 21
20.0
 31
0.0
  0
TEXT
  5
3B6
330
38C
100
AcDbEntity
  8
}}ﾊﾊGG血CCТ
  6
CONTINUOUS
 62
     7
100
AcDbText
 10
237.738815
 20
11.596879
 30
0.0
 40
6.648749
  1
図番
 41
1.083413
  7
FX_VECTOR
 72
     5
 11
249.058355
 21
11.596879
 31
0.0
100
AcDbText
  0
LINE
  5
3B7
330
38C
100
AcDbEntity
  8
}}ﾊﾊGG血CCТ
  6
CONTINUOUS
 62
     7
100
AcDbLine
 10
333.0
 20
20.0
 30
0.0
 11
333.0
 21
10.0
 31
0.0
  0
LINE
  5
3B8
330
38C
100
AcDbEntity
  8
}}ﾊﾊGG血CCТ
  6
CONTINUOUS
 62
     7
100
AcDbLine
 10
133.0
 20
20.0
 30
0.0
 11
133.0
 21
10.0
 31
0.0
  0
ENDBLK
  5
38E
330
38C
100
AcDbEntity
  8
0
100
AcDbBlockEnd
  0
BLOCK
  5
399
330
398
100
AcDbEntity
  8
0
100
AcDbBlockBegin
  2
BLKF034
 70
     0
 71
     0
 10
0.0
 20
0.0
 30
0.0
  3
BLKF034
  1

  0
LINE
  5
39C
330
398
100
AcDbEntity
  8
0-1
  6
CONTINUOUS
 62
     7
100
AcDbLine
 10
344.8019
 20
17.913462
 30
0.0
 11
338.8019
 21
17.913462
 31
0.0
  0
LINE
  5
39D
330
398
100
AcDbEntity
  8
0-1
  6
CONTINUOUS
 62
     7
100
AcDbLine
 10
338.8019
 20
17.913462
 30
0.0
 11
338.8019
 21
11.913462
 31
0.0
  0
LINE
  5
39E
330
398
100
AcDbEntity
  8
0-1
  6
CONTINUOUS
 62
     7
100
AcDbLine
 10
338.8019
 20
11.913462
 30
0.0
 11
344.8019
 21
11.913462
 31
0.0
  0
LINE
  5
39F
330
398
100
AcDbEntity
  8
0-1
  6
CONTINUOUS
 62
     7
100
AcDbLine
 10
344.8019
 20
11.913462
 30
0.0
 11
344.8019
 21
17.913462
 31
0.0
  0
ENDBLK
  5
39A
330
398
100
AcDbEntity
  8
0
100
AcDbBlockEnd
  0
BLOCK
  5
3A1
330
3A0
100
AcDbEntity
  8
0
100
AcDbBlockBegin
  2
BLKF035
 70
     0
 71
     0
 10
0.0
 20
0.0
 30
0.0
  3
BLKF035
  1

  0
LINE
  5
3A4
330
3A0
100
AcDbEntity
  8
0-1
  6
CONTINUOUS
 62
     7
100
AcDbLine
 10
344.224977
 20
15.346154
 30
0.0
 11
341.8019
 21
17.769231
 31
0.0
  0
LINE
  5
3A5
330
3A0
100
AcDbEntity
  8
0-1
  6
CONTINUOUS
 62
     7
100
AcDbLine
 10
341.8019
 20
17.769231
 30
0.0
 11
338.946131
 21
14.913462
 31
0.0
  0
LINE
  5
3A6
330
3A0
100
AcDbEntity
  8
0-1
  6
CONTINUOUS
 62
     7
100
AcDbLine
 10
338.946131
 20
14.913462
 30
0.0
 11
341.8019
 21
12.057692
 31
0.0
  0
LINE
  5
3A7
330
3A0
100
AcDbEntity
  8
0-1
  6
CONTINUOUS
 62
     7
100
AcDbLine
 10
341.8019
 20
12.057692
 30
0.0
 11
343.359592
 21
13.615385
 31
0.0
  0
LINE
  5
3A8
330
3A0
100
AcDbEntity
  8
0-1
  6
CONTINUOUS
 62
     7
100
AcDbLine
 10
343.359592
 20
13.615385
 30
0.0
 11
343.359592
 21
12.980769
 31
0.0
  0
LINE
  5
3A9
330
3A0
100
AcDbEntity
  8
0-1
  6
CONTINUOUS
 62
     7
100
AcDbLine
 10
343.359592
 20
12.980769
 30
0.0
 11
344.224977
 21
12.980769
 31
0.0
  0
LINE
  5
3AA
330
3A0
100
AcDbEntity
  8
0-1
  6
CONTINUOUS
 62
     7
100
AcDbLine
 10
344.224977
 20
12.980769
 30
0.0
 11
344.224977
 21
15.0
 31
0.0
  0
LINE
  5
3AB
330
3A0
100
AcDbEntity
  8
0-1
  6
CONTINUOUS
 62
     7
100
AcDbLine
 10
344.224977
 20
15.0
 30
0.0
 11
341.8019
 21
15.0
 31
0.0
  0
LINE
  5
3AC
330
3A0
100
AcDbEntity
  8
0-1
  6
CONTINUOUS
 62
     7
100
AcDbLine
 10
341.8019
 20
15.0
 30
0.0
 11
341.8019
 21
14.134615
 31
0.0
  0
LINE
  5
3AD
330
3A0
100
AcDbEntity
  8
0-1
  6
CONTINUOUS
 62
     7
100
AcDbLine
 10
341.8019
 20
14.134615
 30
0.0
 11
342.246131
 21
14.134615
 31
0.0
  0
LINE
  5
3AE
330
3A0
100
AcDbEntity
  8
0-1
  6
CONTINUOUS
 62
     7
100
AcDbLine
 10
342.246131
 20
14.134615
 30
0.0
 11
341.8019
 21
13.690385
 31
0.0
  0
LINE
  5
3AF
330
3A0
100
AcDbEntity
  8
0-1
  6
CONTINUOUS
 62
     7
100
AcDbLine
 10
341.8019
 20
13.690385
 30
0.0
 11
340.578823
 21
14.913462
 31
0.0
  0
LINE
  5
3B0
330
3A0
100
AcDbEntity
  8
0-1
  6
CONTINUOUS
 62
     7
100
AcDbLine
 10
340.578823
 20
14.913462
 30
0.0
 11
341.8019
 21
16.136538
 31
0.0
  0
LINE
  5
3B1
330
3A0
100
AcDbEntity
  8
0-1
  6
CONTINUOUS
 62
     7
100
AcDbLine
 10
341.8019
 20
16.136538
 30
0.0
 11
342.592284
 21
15.346154
 31
0.0
  0
LINE
  5
3B2
330
3A0
100
AcDbEntity
  8
0-1
  6
CONTINUOUS
 62
     7
100
AcDbLine
 10
342.592284
 20
15.346154
 30
0.0
 11
344.224977
 21
15.346154
 31
0.0
  0
ENDBLK
  5
3A2
330
3A0
100
AcDbEntity
  8
0
100
AcDbBlockEnd
  0
ENDSEC
  0
SECTION
  2
ENTITIES
  0
ARC
  5
A8
330
1F
100
AcDbEntity
  8
LAYERGROUP-1
  6
CONTINUOUS
 62
     3
100
AcDbCircle
 10
269.08739
 20
88.1
 30
0.0
 40
14.0
100
AcDbArc
 50
199.0
 51
339.5
  0
LINE
  5
A9
330
1F
100
AcDbEntity
  8
LAYERGROUP-1
  6
CONTINUOUS
 62
     3
100
AcDbLine
 10
221.58739
 20
138.0
 30
0.0
 11
221.58739
 21
143.5
 31
0.0
  0
LINE
  5
AA
330
1F
100
AcDbEntity
  8
LAYERGROUP-1
  6
CONTINUOUS
 62
     3
100
AcDbLine
 10
225.58739
 20
147.5
 30
0.0
 11
252.931896
 21
147.5
 31
0.0
  0
LINE
  5
AB
330
1F
100
AcDbEntity
  8
LAYERGROUP-1
  6
CONTINUOUS
 62
     3
100
AcDbLine
 10
255.16024
 20
147.07086
 30
0.0
 11
256.58739
 21
146.5
 31
0.0
  0
LINE
  5
AC
330
1F
100
AcDbEntity
  8
LAYERGROUP-1
  6
CONTINUOUS
 62
     3
100
AcDbLine
 10
256.58739
 20
146.5
 30
0.0
 11
281.58739
 21
146.5
 31
0.0
  0
LINE
  5
AD
330
1F
100
AcDbEntity
  8
LAYERGROUP-1
  6
CONTINUOUS
 62
     3
100
AcDbLine
 10
223.88739
 20
138.737582
 30
0.0
 11
223.88739
 21
138.0
 31
0.0
  0
ARC
  5
AE
330
1F
100
AcDbEntity
  8
LAYERGROUP-1
  6
CONTINUOUS
 62
     3
100
AcDbCircle
 10
225.58739
 20
143.5
 30
0.0
 40
4.0
100
AcDbArc
 50
90.0
 51
180.0
  0
LINE
  5
AF
330
1F
100
AcDbEntity
  8
LAYERGROUP-1
  6
CONTINUOUS
 62
     3
100
AcDbLine
 10
316.58739
 20
138.0
 30
0.0
 11
316.58739
 21
143.5
 31
0.0
  0
LINE
  5
B0
330
1F
100
AcDbEntity
  8
LAYERGROUP-1
  6
CONTINUOUS
 62
     3
100
AcDbLine
 10
312.58739
 20
147.5
 30
0.0
 11
285.242885
 21
147.5
 31
0.0
  0
LINE
  5
B1
330
1F
100
AcDbEntity
  8
LAYERGROUP-1
  6
CONTINUOUS
 62
     3
100
AcDbLine
 10
314.28739
 20
138.737582
 30
0.0
 11
314.28739
 21
138.0
 31
0.0
  0
ARC
  5
B2
330
1F
100
AcDbEntity
  8
LAYERGROUP-1
  6
CONTINUOUS
 62
     3
100
AcDbCircle
 10
312.58739
 20
143.5
 30
0.0
 40
4.0
100
AcDbArc
 50
0.0
 51
90.0
  0
LINE
  5
B3
330
1F
100
AcDbEntity
  8
LAYERGROUP-1
  6
CENTER
 62
     6
100
AcDbLine
 10
269.08739
 20
151.547528
 30
0.0
 11
269.08739
 21
44.227478
 31
0.0
  0
ARC
  5
B4
330
1F
100
AcDbEntity
  8
LAYERGROUP-1
  6
CONTINUOUS
 62
     3
100
AcDbCircle
 10
226.383222
 20
127.0
 30
0.0
 40
12.0
100
AcDbArc
 50
36.269012
 51
113.556464
  0
LINE
  5
B5
330
1F
100
AcDbEntity
  8
LAYERGROUP-1
  6
CONTINUOUS
 62
     3
100
AcDbLine
 10
221.58739
 20
138.0
 30
0.0
 11
223.88739
 21
138.0
 31
0.0
  0
LINE
  5
B6
330
1F
100
AcDbEntity
  8
LAYERGROUP-1
  6
CONTINUOUS
 62
     3
100
AcDbLine
 10
243.021713
 20
120.798473
 30
0.0
 11
244.210107
 21
117.347128
 31
0.0
  0
ARC
  5
B7
330
1F
100
AcDbEntity
  8
LAYERGROUP-1
  6
CONTINUOUS
 62
     3
100
AcDbCircle
 10
195.745785
 20
104.520066
 30
0.0
 40
50.0
100
AcDbArc
 50
19.0
 51
36.269012
  0
ARC
  5
B8
330
1F
100
AcDbEntity
  8
LAYERGROUP-1
  6
CONTINUOUS
 62
     3
100
AcDbCircle
 10
311.791559
 20
127.0
 30
0.0
 40
12.0
100
AcDbArc
 50
66.443536
 51
143.730988
  0
LINE
  5
B9
330
1F
100
AcDbEntity
  8
LAYERGROUP-1
  6
CONTINUOUS
 62
     3
100
AcDbLine
 10
316.58739
 20
138.0
 30
0.0
 11
314.28739
 21
138.0
 31
0.0
  0
LINE
  5
BA
330
1F
100
AcDbEntity
  8
LAYERGROUP-1
  6
CONTINUOUS
 62
     3
100
AcDbLine
 10
295.153067
 20
120.798473
 30
0.0
 11
282.32465
 21
83.542046
 31
0.0
  0
ARC
  5
BB
330
1F
100
AcDbEntity
  8
LAYERGROUP-1
  6
CONTINUOUS
 62
     3
100
AcDbCircle
 10
342.428996
 20
104.520066
 30
0.0
 40
50.0
100
AcDbArc
 50
143.730988
 51
161.0
  0
CIRCLE
  5
BC
330
1F
100
AcDbEntity
  8
LAYERGROUP-1
  6
CONTINUOUS
 62
     3
100
AcDbCircle
 10
237.58739
 20
221.0
 30
0.0
 40
4.75
  0
LINE
  5
BD
330
1F
100
AcDbEntity
  8
LAYERGROUP-1
  6
CONTINUOUS
 62
     3
100
AcDbLine
 10
221.58739
 20
215.3
 30
0.0
 11
221.58739
 21
266.7
 31
0.0
  0
LINE
  5
BE
330
1F
100
AcDbEntity
  8
LAYERGROUP-1
  6
CONTINUOUS
 62
     3
100
AcDbLine
 10
231.88739
 20
205.0
 30
0.0
 11
233.400025
 21
205.0
 31
0.0
  0
LINE
  5
BF
330
1F
100
AcDbEntity
  8
LAYERGROUP-1
  6
CENTER
 62
     6
100
AcDbLine
 10
269.08739
 20
215.576283
 30
0.0
 11
269.08739
 21
272.106869
 31
0.0
  0
ARC
  5
C0
330
1F
100
AcDbEntity
  8
LAYERGROUP-1
  6
CONTINUOUS
 62
     3
100
AcDbCircle
 10
260.955033
 20
208.7
 30
0.0
 40
12.0
100
AcDbArc
 50
90.0
 51
130.0
  0
ARC
  5
C1
330
1F
100
AcDbEntity
  8
LAYERGROUP-1
  6
CONTINUOUS
 62
     3
100
AcDbCircle
 10
231.88739
 20
215.3
 30
0.0
 40
10.3
100
AcDbArc
 50
180.0
 51
270.0
  0
ARC
  5
C2
330
1F
100
AcDbEntity
  8
LAYERGROUP-1
  6
CONTINUOUS
 62
     3
100
AcDbCircle
 10
233.400025
 20
217.3
 30
0.0
 40
12.3
100
AcDbArc
 50
270.0
 51
310.0
  0
LINE
  5
C3
330
1F
100
AcDbEntity
  8
LAYERGROUP-1
  6
CONTINUOUS
 62
     3
100
AcDbLine
 10
241.306313
 20
207.877653
 30
0.0
 11
253.241582
 21
217.892533
 31
0.0
  0
LINE
  5
C4
330
1F
100
AcDbEntity
  8
LAYERGROUP-1
  6
CONTINUOUS
 62
     3
100
AcDbLine
 10
260.955033
 20
220.7
 30
0.0
 11
277.219747
 21
220.7
 31
0.0
  0
LINE
  5
C5
330
1F
100
AcDbEntity
  8
LAYERGROUP-1
  6
CONTINUOUS
 62
     3
100
AcDbLine
 10
231.88739
 20
277.0
 30
0.0
 11
233.400025
 21
277.0
 31
0.0
  0
ARC
  5
C6
330
1F
100
AcDbEntity
  8
LAYERGROUP-1
  6
CONTINUOUS
 62
     3
100
AcDbCircle
 10
260.955033
 20
273.3
 30
0.0
 40
12.0
100
AcDbArc
 50
230.0
 51
270.0
  0
ARC
  5
C7
330
1F
100
AcDbEntity
  8
LAYERGROUP-1
  6
CONTINUOUS
 62
     3
100
AcDbCircle
 10
231.88739
 20
266.7
 30
0.0
 40
10.3
100
AcDbArc
 50
90.0
 51
180.0
  0
ARC
  5
C8
330
1F
100
AcDbEntity
  8
LAYERGROUP-1
  6
CONTINUOUS
 62
     3
100
AcDbCircle
 10
233.400025
 20
264.7
 30
0.0
 40
12.3
100
AcDbArc
 50
50.0
 51
90.0
  0
LINE
  5
C9
330
1F
100
AcDbEntity
  8
LAYERGROUP-1
  6
CONTINUOUS
 62
     3
100
AcDbLine
 10
241.306313
 20
274.122347
 30
0.0
 11
253.241582
 21
264.107467
 31
0.0
  0
LINE
  5
CA
330
1F
100
AcDbEntity
  8
LAYERGROUP-1
  6
CONTINUOUS
 62
     3
100
AcDbLine
 10
260.955033
 20
261.3
 30
0.0
 11
277.219747
 21
261.3
 31
0.0
  0
CIRCLE
  5
CB
330
1F
100
AcDbEntity
  8
LAYERGROUP-1
  6
CONTINUOUS
 62
     3
100
AcDbCircle
 10
300.58739
 20
221.0
 30
0.0
 40
4.75
  0
LINE
  5
CC
330
1F
100
AcDbEntity
  8
LAYERGROUP-1
  6
CONTINUOUS
 62
     3
100
AcDbLine
 10
316.58739
 20
215.3
 30
0.0
 11
316.58739
 21
266.7
 31
0.0
  0
LINE
  5
CD
330
1F
100
AcDbEntity
  8
LAYERGROUP-1
  6
CONTINUOUS
 62
     3
100
AcDbLine
 10
306.28739
 20
205.0
 30
0.0
 11
304.774756
 21
205.0
 31
0.0
  0
ARC
  5
CE
330
1F
100
AcDbEntity
  8
LAYERGROUP-1
  6
CONTINUOUS
 62
     3
100
AcDbCircle
 10
277.219747
 20
208.7
 30
0.0
 40
12.0
100
AcDbArc
 50
50.0
 51
90.0
  0
ARC
  5
CF
330
1F
100
AcDbEntity
  8
LAYERGROUP-1
  6
CONTINUOUS
 62
     3
100
AcDbCircle
 10
306.28739
 20
215.3
 30
0.0
 40
10.3
100
AcDbArc
 50
270.0
 51
360.0
  0
ARC
  5
D0
330
1F
100
AcDbEntity
  8
LAYERGROUP-1
  6
CONTINUOUS
 62
     3
100
AcDbCircle
 10
304.774756
 20
217.3
 30
0.0
 40
12.3
100
AcDbArc
 50
230.0
 51
270.0
  0
LINE
  5
D1
330
1F
100
AcDbEntity
  8
LAYERGROUP-1
  6
CONTINUOUS
 62
     3
100
AcDbLine
 10
296.868468
 20
207.877653
 30
0.0
 11
284.933199
 21
217.892533
 31
0.0
  0
LINE
  5
D2
330
1F
100
AcDbEntity
  8
LAYERGROUP-1
  6
CONTINUOUS
 62
     3
100
AcDbLine
 10
306.28739
 20
277.0
 30
0.0
 11
304.774756
 21
277.0
 31
0.0
  0
ARC
  5
D3
330
1F
100
AcDbEntity
  8
LAYERGROUP-1
  6
CONTINUOUS
 62
     3
100
AcDbCircle
 10
277.219747
 20
273.3
 30
0.0
 40
12.0
100
AcDbArc
 50
270.0
 51
310.0
  0
ARC
  5
D4
330
1F
100
AcDbEntity
  8
LAYERGROUP-1
  6
CONTINUOUS
 62
     3
100
AcDbCircle
 10
306.28739
 20
266.7
 30
0.0
 40
10.3
100
AcDbArc
 50
0.0
 51
90.0
  0
ARC
  5
D5
330
1F
100
AcDbEntity
  8
LAYERGROUP-1
  6
CONTINUOUS
 62
     3
100
AcDbCircle
 10
304.774756
 20
264.7
 30
0.0
 40
12.3
100
AcDbArc
 50
90.0
 51
130.0
  0
LINE
  5
D6
330
1F
100
AcDbEntity
  8
LAYERGROUP-1
  6
CONTINUOUS
 62
     3
100
AcDbLine
 10
296.868468
 20
274.122347
 30
0.0
 11
284.933199
 21
264.107467
 31
0.0
  0
LINE
  5
D7
330
1F
100
AcDbEntity
  8
LAYERGROUP-1
  6
CENTER
 62
     6
100
AcDbLine
 10
219.091219
 20
241.0
 30
0.0
 11
319.838532
 21
241.0
 31
0.0
  0
LINE
  5
D8
330
1F
100
AcDbEntity
  8
LAYERGROUP-1
  6
CONTINUOUS
 62
     6
100
AcDbLine
 10
256.58739
 20
262.123073
 30
0.0
 11
256.58739
 21
219.876927
 31
0.0
  0
LINE
  5
D9
330
1F
100
AcDbEntity
  8
LAYERGROUP-1
  6
CONTINUOUS
 62
     6
100
AcDbLine
 10
256.58739
 20
127.127017
 30
0.0
 11
256.58739
 21
123.11875
 31
0.0
  0
LINE
  5
DA
330
1F
100
AcDbEntity
  8
LAYERGROUP-1
  6
CONTINUOUS
 62
     6
100
AcDbLine
 10
281.58739
 20
143.643545
 30
0.0
 11
281.58739
 21
136.408327
 31
0.0
  0
LINE
  5
DB
330
1F
100
AcDbEntity
  8
LAYERGROUP-1
  6
CONTINUOUS
 62
     3
100
AcDbLine
 10
142.291495
 20
74.1
 30
0.0
 11
139.991495
 21
74.1
 31
0.0
  0
LINE
  5
DC
330
1F
100
AcDbEntity
  8
LAYERGROUP-1
  6
CONTINUOUS
 62
     3
100
AcDbLine
 10
139.991495
 20
74.1
 30
0.0
 11
139.991495
 21
138.0
 31
0.0
  0
LINE
  5
DD
330
1F
100
AcDbEntity
  8
LAYERGROUP-1
  6
CONTINUOUS
 62
     3
100
AcDbLine
 10
142.291495
 20
81.79524
 30
0.0
 11
142.291495
 21
74.1
 31
0.0
  0
LINE
  5
DE
330
1F
100
AcDbEntity
  8
LAYERGROUP-1
  6
CONTINUOUS
 62
     3
100
AcDbLine
 10
151.491495
 20
147.5
 30
0.0
 11
92.491495
 21
147.5
 31
0.0
  0
LINE
  5
DF
330
1F
100
AcDbEntity
  8
LAYERGROUP-1
  6
CONTINUOUS
 62
     3
100
AcDbLine
 10
157.991495
 20
141.0
 30
0.0
 11
157.991495
 21
138.0
 31
0.0
  0
ARC
  5
E0
330
1F
100
AcDbEntity
  8
LAYERGROUP-1
  6
CONTINUOUS
 62
     3
100
AcDbCircle
 10
151.491495
 20
141.0
 30
0.0
 40
6.5
100
AcDbArc
 50
0.0
 51
90.0
  0
LINE
  5
E1
330
1F
100
AcDbEntity
  8
LAYERGROUP-1
  6
CONTINUOUS
 62
     3
100
AcDbLine
 10
142.991495
 20
138.0
 30
0.0
 11
100.991495
 21
138.0
 31
0.0
  0
ARC
  5
E2
330
1F
100
AcDbEntity
  8
LAYERGROUP-1
  6
CONTINUOUS
 62
     3
100
AcDbCircle
 10
155.345744
 20
135.0
 30
0.0
 40
4.0
100
AcDbArc
 50
48.590378
 51
90.0
  0
LINE
  5
E3
330
1F
100
AcDbEntity
  8
LAYERGROUP-1
  6
CONTINUOUS
 62
     3
100
AcDbLine
 10
155.345744
 20
139.0
 30
0.0
 11
142.991495
 21
138.0
 31
0.0
  0
LINE
  5
E4
330
1F
100
AcDbEntity
  8
LAYERGROUP-1
  6
CONTINUOUS
 62
     3
100
AcDbLine
 10
101.691495
 20
74.1
 30
0.0
 11
103.991495
 21
74.1
 31
0.0
  0
LINE
  5
E5
330
1F
100
AcDbEntity
  8
LAYERGROUP-1
  6
CONTINUOUS
 62
     3
100
AcDbLine
 10
103.991495
 20
74.1
 30
0.0
 11
103.991495
 21
138.0
 31
0.0
  0
LINE
  5
E6
330
1F
100
AcDbEntity
  8
LAYERGROUP-1
  6
CONTINUOUS
 62
     3
100
AcDbLine
 10
101.691495
 20
82.505581
 30
0.0
 11
101.691495
 21
74.1
 31
0.0
  0
ARC
  5
E7
330
1F
100
AcDbEntity
  8
LAYERGROUP-1
  6
CONTINUOUS
 62
     3
100
AcDbCircle
 10
92.491495
 20
141.0
 30
0.0
 40
6.5
100
AcDbArc
 50
90.0
 51
180.0
  0
ARC
  5
E8
330
1F
100
AcDbEntity
  8
LAYERGROUP-1
  6
CONTINUOUS
 62
     3
100
AcDbCircle
 10
88.637246
 20
135.0
 30
0.0
 40
4.0
100
AcDbArc
 50
90.0
 51
131.409622
  0
LINE
  5
E9
330
1F
100
AcDbEntity
  8
LAYERGROUP-1
  6
CONTINUOUS
 62
     3
100
AcDbLine
 10
88.637246
 20
139.0
 30
0.0
 11
100.991495
 21
138.0
 31
0.0
  0
LINE
  5
EA
330
1F
100
AcDbEntity
  8
LAYERGROUP-1
  6
CENTER
 62
     6
100
AcDbLine
 10
121.991495
 20
151.237154
 30
0.0
 11
121.991495
 21
45.795578
 31
0.0
  0
LINE
  5
EB
330
1F
100
AcDbEntity
  8
LAYERGROUP-1
  6
CENTER
 62
     6
100
AcDbLine
 10
227.726443
 20
85.0
 30
0.0
 11
309.031547
 21
85.0
 31
0.0
  0
LINE
  5
EC
330
1F
100
AcDbEntity
  8
LAYERGROUP-1
  6
CENTER
 62
     6
100
AcDbLine
 10
89.901339
 20
85.0
 30
0.0
 11
148.363626
 21
85.0
 31
0.0
  0
ARC
  5
ED
330
1F
100
AcDbEntity
  8
LAYERGROUP-1
  6
CONTINUOUS
 62
     3
100
AcDbCircle
 10
160.218096
 20
82.15041
 30
0.0
 40
17.93011938898738
100
AcDbArc
 50
161.648824
 51
181.135023
  0
LINE
  5
EE
330
1F
100
AcDbEntity
  8
LAYERGROUP-1
  6
CONTINUOUS
 62
     3
100
AcDbLine
 10
155.677669
 20
126.198409
 30
0.0
 11
143.199819
 21
87.795535
 31
0.0
  0
ARC
  5
EF
330
1F
100
AcDbEntity
  8
LAYERGROUP-1
  6
CONTINUOUS
 62
     3
100
AcDbCircle
 10
108.124844
 20
141.649259
 30
0.0
 40
50.0
100
AcDbArc
 50
342.0
 51
355.814536
  0
LINE
  5
F0
330
1F
100
AcDbEntity
  8
LAYERGROUP-1
  6
CONTINUOUS
 62
     3
100
AcDbLine
 10
85.991495
 20
141.0
 30
0.0
 11
85.991495
 21
138.0
 31
0.0
  0
ARC
  5
F1
330
1F
100
AcDbEntity
  8
LAYERGROUP-1
  6
CONTINUOUS
 62
     3
100
AcDbCircle
 10
83.764894
 20
82.15041
 30
0.0
 40
17.93011938898738
100
AcDbArc
 50
-1.135023
 51
18.351176
  0
LINE
  5
F2
330
1F
100
AcDbEntity
  8
LAYERGROUP-1
  6
CONTINUOUS
 62
     3
100
AcDbLine
 10
88.30532
 20
126.198409
 30
0.0
 11
100.78317
 21
87.795535
 31
0.0
  0
ARC
  5
F3
330
1F
100
AcDbEntity
  8
LAYERGROUP-1
  6
CONTINUOUS
 62
     3
100
AcDbCircle
 10
135.858146
 20
141.649259
 30
0.0
 40
50.0
100
AcDbArc
 50
184.185464
 51
198.0
  0
ARC
  5
F4
330
1F
100
AcDbEntity
  8
LAYERGROUP-1
  6
CONTINUOUS
 62
     3
100
AcDbCircle
 10
-28.270594
 20
7.363643
 30
0.0
 40
294.0526770456281
100
AcDbArc
 50
15.308844
 51
20.811616
  0
ARC
  5
F5
330
1F
100
AcDbEntity
  8
LAYERGROUP-1
  6
CONTINUOUS
 62
     3
100
AcDbCircle
 10
566.445375
 20
7.363643
 30
0.0
 40
294.0526770456281
100
AcDbArc
 50
157.308844
 51
164.691156
  0
ARC
  5
F6
330
1F
100
AcDbEntity
  8
LAYERGROUP-1
  6
CONTINUOUS
 62
     3
100
AcDbCircle
 10
160.218096
 20
82.15041
 30
0.0
 40
20.23011938898738
100
AcDbArc
 50
161.669389
 51
181.135023
  0
LINE
  5
F7
330
1F
100
AcDbEntity
  8
LAYERGROUP-1
  6
CONTINUOUS
 62
     3
100
AcDbLine
 10
141.014502
 20
88.512776
 30
0.0
 11
143.200335
 21
95.240078
 31
0.0
  0
ARC
  5
F8
330
1F
100
AcDbEntity
  8
LAYERGROUP-1
  6
CONTINUOUS
 62
     3
100
AcDbCircle
 10
108.124844
 20
141.649259
 30
0.0
 40
47.7
100
AcDbArc
 50
348.498703
 51
354.578773
  0
ARC
  5
F9
330
1F
100
AcDbEntity
  8
LAYERGROUP-1
  6
CONTINUOUS
 62
     3
100
AcDbCircle
 10
151.629375
 20
137.520607
 30
0.0
 40
4.0
100
AcDbArc
 50
-5.421227
 51
21.706257
  0
ARC
  5
FA
330
1F
100
AcDbEntity
  8
LAYERGROUP-1
  6
CONTINUOUS
 62
     3
100
AcDbCircle
 10
-54.257798
 20
177.956975
 30
0.0
 40
214.0836268374391
100
AcDbArc
 50
337.270774
 51
347.671271
  0
ARC
  5
FB
330
1F
100
AcDbEntity
  8
LAYERGROUP-1
  6
CONTINUOUS
 62
     3
100
AcDbCircle
 10
252.931896
 20
141.5
 30
0.0
 40
6.0
100
AcDbArc
 50
68.198591
 51
90.0
  0
LINE
  5
FC
330
1F
100
AcDbEntity
  8
LAYERGROUP-1
  6
CONTINUOUS
 62
     3
100
AcDbLine
 10
283.014541
 20
147.07086
 30
0.0
 11
281.58739
 21
146.5
 31
0.0
  0
ARC
  5
FD
330
1F
100
AcDbEntity
  8
LAYERGROUP-1
  6
CONTINUOUS
 62
     3
100
AcDbCircle
 10
285.242885
 20
141.5
 30
0.0
 40
6.0
100
AcDbArc
 50
90.0
 51
111.801409
  0
CIRCLE
  5
FF
330
1F
100
AcDbEntity
  8
GR1-1
  6
CONTINUOUS
 62
     3
100
AcDbCircle
 10
269.08739
 20
85.0
 30
0.0
 40
7.5
  0
CIRCLE
  5
100
330
1F
100
AcDbEntity
  8
GR1-1
  6
CONTINUOUS
 62
     6
100
AcDbCircle
 10
269.08739
 20
85.0
 30
0.0
 40
5.5
  0
LINE
  5
101
330
1F
100
AcDbEntity
  8
GR1-1
  6
CONTINUOUS
 62
     3
100
AcDbLine
 10
92.791495
 20
88.3235
 30
0.0
 11
93.791495
 21
89.0
 31
0.0
  0
LINE
  5
102
330
1F
100
AcDbEntity
  8
GR1-1
  6
CONTINUOUS
 62
     3
100
AcDbLine
 10
93.791495
 20
89.0
 30
0.0
 11
94.691495
 21
89.0
 31
0.0
  0
ARC
  5
103
330
1F
100
AcDbEntity
  8
GR1-1
  6
CONTINUOUS
 62
     3
100
AcDbCircle
 10
104.768004
 20
85.0
 30
0.0
 40
10.0765089946158
100
AcDbArc
 50
158.134547
 51
201.865453
  0
LINE
  5
104
330
1F
100
AcDbEntity
  8
GR1-1
  6
CONTINUOUS
 62
     3
100
AcDbLine
 10
95.416389
 20
81.247223
 30
0.0
 11
98.966601
 21
81.247223
 31
0.0
  0
ARC
  5
105
330
1F
100
AcDbEntity
  8
GR1-1
  6
CONTINUOUS
 62
     3
100
AcDbCircle
 10
89.614986
 20
85.0
 30
0.0
 40
10.0765089946158
100
AcDbArc
 50
-21.865453
 51
21.865453
  0
ARC
  5
106
330
1F
100
AcDbEntity
  8
GR1-1
  6
CONTINUOUS
 62
     3
100
AcDbCircle
 10
96.900532
 20
90.629165
 30
0.0
 40
2.790962555239332
100
AcDbArc
 50
-42.245502
 51
42.245502
  0
LINE
  5
107
330
1F
100
AcDbEntity
  8
GR1-1
  6
CONTINUOUS
 62
     3
100
AcDbLine
 10
98.966601
 20
92.505553
 30
0.0
 11
95.416389
 21
92.505553
 31
0.0
  0
ARC
  5
108
330
1F
100
AcDbEntity
  8
GR1-1
  6
CONTINUOUS
 62
     3
100
AcDbCircle
 10
97.482458
 20
90.629165
 30
0.0
 40
2.790962555239332
100
AcDbArc
 50
137.754498
 51
222.245502
  0
LINE
  5
109
330
1F
100
AcDbEntity
  8
GR1-1
  6
CONTINUOUS
 62
     3
100
AcDbLine
 10
95.416389
 20
88.752777
 30
0.0
 11
98.966601
 21
88.752777
 31
0.0
  0
LINE
  5
10A
330
1F
100
AcDbEntity
  8
GR1-1
  6
CONTINUOUS
 62
     3
100
AcDbLine
 10
99.691495
 20
91.25
 30
0.0
 11
99.428315
 21
91.812292
 31
0.0
  0
LINE
  5
10B
330
1F
100
AcDbEntity
  8
GR1-1
  6
CONTINUOUS
 62
     3
100
AcDbLine
 10
99.691495
 20
91.25
 30
0.0
 11
99.691495
 21
77.7
 31
0.0
  0
ARC
  5
10C
330
1F
100
AcDbEntity
  8
GR1-1
  6
CONTINUOUS
 62
     3
100
AcDbCircle
 10
99.991495
 20
77.7
 30
0.0
 40
0.3
100
AcDbArc
 50
180.0
 51
270.0
  0
LINE
  5
10D
330
1F
100
AcDbEntity
  8
GR1-1
  6
CONTINUOUS
 62
     3
100
AcDbLine
 10
99.991495
 20
77.4
 30
0.0
 11
101.391495
 21
77.4
 31
0.0
  0
ARC
  5
10E
330
1F
100
AcDbEntity
  8
GR1-1
  6
CONTINUOUS
 62
     3
100
AcDbCircle
 10
101.391495
 20
77.7
 30
0.0
 40
0.3
100
AcDbArc
 50
270.0
 51
360.0
  0
LINE
  5
10F
330
1F
100
AcDbEntity
  8
GR1-1
  6
CONTINUOUS
 62
     3
100
AcDbLine
 10
99.691495
 20
78.75
 30
0.0
 11
99.428315
 21
78.187708
 31
0.0
  0
ARC
  5
110
330
1F
100
AcDbEntity
  8
GR1-1
  6
CONTINUOUS
 62
     3
100
AcDbCircle
 10
96.900532
 20
79.370835
 30
0.0
 40
2.790962555239332
100
AcDbArc
 50
-42.245502
 51
42.245502
  0
ARC
  5
111
330
1F
100
AcDbEntity
  8
GR1-1
  6
CONTINUOUS
 62
     3
100
AcDbCircle
 10
97.482458
 20
79.370835
 30
0.0
 40
2.790962555239332
100
AcDbArc
 50
137.754498
 51
222.245502
  0
LINE
  5
112
330
1F
100
AcDbEntity
  8
GR1-1
  6
CONTINUOUS
 62
     3
100
AcDbLine
 10
95.416389
 20
77.494447
 30
0.0
 11
98.966601
 21
77.494447
 31
0.0
  0
LINE
  5
113
330
1F
100
AcDbEntity
  8
GR1-1
  6
CONTINUOUS
 62
     3
100
AcDbLine
 10
94.954675
 20
78.187708
 30
0.0
 11
94.691495
 21
78.75
 31
0.0
  0
LINE
  5
114
330
1F
100
AcDbEntity
  8
GR1-1
  6
CONTINUOUS
 62
     3
100
AcDbLine
 10
94.691495
 20
78.75
 30
0.0
 11
94.691495
 21
91.25
 31
0.0
  0
LINE
  5
115
330
1F
100
AcDbEntity
  8
GR1-1
  6
CONTINUOUS
 62
     3
100
AcDbLine
 10
94.691495
 20
91.25
 30
0.0
 11
94.954675
 21
91.812292
 31
0.0
  0
LINE
  5
116
330
1F
100
AcDbEntity
  8
GR1-1
  6
CONTINUOUS
 62
     3
100
AcDbLine
 10
92.791495
 20
88.3235
 30
0.0
 11
92.791495
 21
81.6765
 31
0.0
  0
LINE
  5
117
330
1F
100
AcDbEntity
  8
GR1-1
  6
CONTINUOUS
 62
     3
100
AcDbLine
 10
92.791495
 20
81.6765
 30
0.0
 11
93.791495
 21
81.0
 31
0.0
  0
LINE
  5
118
330
1F
100
AcDbEntity
  8
GR1-1
  6
CONTINUOUS
 62
     3
100
AcDbLine
 10
93.791495
 20
81.0
 30
0.0
 11
94.691495
 21
81.0
 31
0.0
  0
LINE
  5
119
330
1F
100
AcDbEntity
  8
GR1-1
  6
CONTINUOUS
 62
     3
100
AcDbLine
 10
103.991495
 20
80.0
 30
0.0
 11
104.241495
 21
80.0
 31
0.0
  0
LINE
  5
11A
330
1F
100
AcDbEntity
  8
GR1-1
  6
CONTINUOUS
 62
     3
100
AcDbLine
 10
104.241495
 20
90.0
 30
0.0
 11
103.991495
 21
90.0
 31
0.0
  0
LINE
  5
11B
330
1F
100
AcDbEntity
  8
GR1-1
  6
CONTINUOUS
 62
     3
100
AcDbLine
 10
145.291495
 20
92.5
 30
0.0
 11
146.291495
 21
90.5
 31
0.0
  0
LINE
  5
11C
330
1F
100
AcDbEntity
  8
GR1-1
  6
CONTINUOUS
 62
     3
100
AcDbLine
 10
146.291495
 20
90.5
 30
0.0
 11
146.291495
 21
79.5
 31
0.0
  0
LINE
  5
11D
330
1F
100
AcDbEntity
  8
GR1-1
  6
CONTINUOUS
 62
     3
100
AcDbLine
 10
146.291495
 20
79.5
 30
0.0
 11
145.291495
 21
77.5
 31
0.0
  0
LINE
  5
11E
330
1F
100
AcDbEntity
  8
GR1-1
  6
CONTINUOUS
 62
     3
100
AcDbLine
 10
145.291495
 20
77.5
 30
0.0
 11
142.291495
 21
77.5
 31
0.0
  0
LINE
  5
11F
330
1F
100
AcDbEntity
  8
GR1-1
  6
CONTINUOUS
 62
     3
100
AcDbLine
 10
145.291495
 20
92.5
 30
0.0
 11
144.728393
 21
92.5
 31
0.0
  0
LINE
  5
120
330
1F
100
AcDbEntity
  8
GR1-1
  6
CONTINUOUS
 62
     6
100
AcDbLine
 10
94.691495
 20
88.3235
 30
0.0
 11
92.791495
 21
88.3235
 31
0.0
  0
LINE
  5
121
330
1F
100
AcDbEntity
  8
GR1-1
  6
CONTINUOUS
 62
     6
100
AcDbLine
 10
93.791495
 20
89.0
 30
0.0
 11
93.791495
 21
81.0
 31
0.0
  0
LINE
  5
122
330
1F
100
AcDbEntity
  8
GR1-1
  6
CONTINUOUS
 62
     6
100
AcDbLine
 10
94.691495
 20
81.6765
 30
0.0
 11
92.791495
 21
81.6765
 31
0.0
  0
LINE
  5
123
330
1F
100
AcDbEntity
  8
GR1-1
  6
CONTINUOUS
 62
     6
100
AcDbLine
 10
145.291495
 20
77.5
 30
0.0
 11
145.291495
 21
92.5
 31
0.0
  0
ARC
  5
124
330
1F
100
AcDbEntity
  8
LAYERGROUP-1
  6
CONTINUOUS
 62
     3
100
AcDbCircle
 10
83.764894
 20
82.15041
 30
0.0
 40
20.23011938898738
100
AcDbArc
 50
-1.135023
 51
18.330611
  0
LINE
  5
125
330
1F
100
AcDbEntity
  8
LAYERGROUP-1
  6
CONTINUOUS
 62
     3
100
AcDbLine
 10
102.968488
 20
88.512776
 30
0.0
 11
100.782655
 21
95.240078
 31
0.0
  0
ARC
  5
126
330
1F
100
AcDbEntity
  8
LAYERGROUP-1
  6
CONTINUOUS
 62
     3
100
AcDbCircle
 10
135.858146
 20
141.649259
 30
0.0
 40
47.7
100
AcDbArc
 50
185.421227
 51
191.501297
  0
ARC
  5
127
330
1F
100
AcDbEntity
  8
LAYERGROUP-1
  6
CONTINUOUS
 62
     3
100
AcDbCircle
 10
92.353615
 20
137.520607
 30
0.0
 40
4.0
100
AcDbArc
 50
158.293743
 51
185.421227
  0
ARC
  5
128
330
1F
100
AcDbEntity
  8
LAYERGROUP-1
  6
CONTINUOUS
 62
     3
100
AcDbCircle
 10
298.240788
 20
177.956975
 30
0.0
 40
214.0836268374391
100
AcDbArc
 50
192.328729
 51
202.729226
  0
DIMENSION
  5
129
330
1F
100
AcDbEntity
  8
LAYERGROUP-1
100
AcDbDimension
  2
*D19
 10
80.375846
 20
122.5
 30
0.0
 11
79.375839
 21
85.0
 31
0.0
 70
    33
  3
FXDIMINFO
100
AcDbAlignedDimension
 13
121.991495
 23
47.5
 33
0.0
 14
121.991495
 24
122.5
 34
0.0
1001
ACAD
1000
DSTYLE
1002
{
1070
     7
1000
FXTIP_ARROW_E
1070
     6
1000
FXTIP_ARROW_S
1070
   173
1070
     1
1002
}
  0
DIMENSION
  5
133
330
1F
100
AcDbEntity
  8
LAYERGROUP-1
100
AcDbDimension
  2
*D20
 10
316.58739
 20
154.800003
 30
0.0
 11
269.087372
 21
155.800003
 31
0.0
 70
    33
  3
FXDIMINFO
100
AcDbAlignedDimension
 13
221.58739
 23
215.3
 33
0.0
 14
316.58739
 24
215.3
 34
0.0
1001
ACAD
1000
DSTYLE
1002
{
1070
     7
1000
FXTIP_ARROW_E
1070
     6
1000
FXTIP_ARROW_S
1070
   173
1070
     1
1002
}
  0
DIMENSION
  5
13D
330
1F
100
AcDbEntity
  8
LAYERGROUP-1
100
AcDbDimension
  2
*D21
 10
300.58739
 20
164.800003
 30
0.0
 11
269.087372
 21
165.800003
 31
0.0
 70
    32
  3
FXDIMINFO
100
AcDbAlignedDimension
 13
237.58739
 23
215.038128
 33
0.0
 14
300.58739
 24
215.14192
 34
0.0
 50
180.0
100
AcDbRotatedDimension
1001
ACAD
1000
DSTYLE
1002
{
1070
     7
1000
FXTIP_ARROW_E
1070
     6
1000
FXTIP_ARROW_S
1070
   173
1070
     1
1002
}
  0
DIMENSION
  5
147
330
1F
100
AcDbEntity
  8
LAYERGROUP-1
100
AcDbDimension
  2
*D22
 10
336.58739
 20
277.0
 30
0.0
 11
335.587372
 21
241.0
 31
0.0
 70
    33
  3
FXDIMINFO
100
AcDbAlignedDimension
 13
306.28739
 23
205.0
 33
0.0
 14
306.28739
 24
277.0
 34
0.0
1001
ACAD
1000
DSTYLE
1002
{
1070
     7
1000
FXTIP_ARROW_E
1070
     6
1000
FXTIP_ARROW_S
1070
   173
1070
     1
1002
}
  0
DIMENSION
  5
151
330
1F
100
AcDbEntity
  8
LAYERGROUP-1
100
AcDbDimension
  2
*D23
 10
326.58739
 20
261.0
 30
0.0
 11
325.587372
 21
241.0
 31
0.0
 70
    32
  3
FXDIMINFO
100
AcDbAlignedDimension
 13
306.267047
 23
221.0
 33
0.0
 14
306.734578
 24
261.0
 34
0.0
 50
270.0
100
AcDbRotatedDimension
1001
ACAD
1000
DSTYLE
1002
{
1070
     7
1000
FXTIP_ARROW_E
1070
     6
1000
FXTIP_ARROW_S
1070
   173
1070
     1
1002
}
  0
LINE
  5
15B
330
1F
100
AcDbEntity
  8
GR1-1
  6
CONTINUOUS
 62
     3
100
AcDbLine
 10
275.199918
 20
217.006264
 30
0.0
 11
274.58739
 21
216.7
 31
0.0
  0
LINE
  5
15C
330
1F
100
AcDbEntity
  8
GR1-1
  6
CONTINUOUS
 62
     3
100
AcDbLine
 10
274.58739
 20
216.7
 30
0.0
 11
263.58739
 21
216.7
 31
0.0
  0
LINE
  5
15D
330
1F
100
AcDbEntity
  8
GR1-1
  6
CONTINUOUS
 62
     3
100
AcDbLine
 10
263.58739
 20
216.7
 30
0.0
 11
261.58739
 21
217.7
 31
0.0
  0
LINE
  5
15E
330
1F
100
AcDbEntity
  8
GR1-1
  6
CONTINUOUS
 62
     3
100
AcDbLine
 10
261.58739
 20
217.7
 30
0.0
 11
261.58739
 21
220.7
 31
0.0
  0
LINE
  5
15F
330
1F
100
AcDbEntity
  8
GR1-1
  6
CONTINUOUS
 62
     6
100
AcDbLine
 10
261.58739
 20
217.7
 30
0.0
 11
275.191713
 21
217.7
 31
0.0
  0
LINE
  5
160
330
1F
100
AcDbEntity
  8
GR1-1
  6
CONTINUOUS
 62
     3
100
AcDbLine
 10
272.41089
 20
270.2
 30
0.0
 11
273.08739
 21
269.2
 31
0.0
  0
LINE
  5
161
330
1F
100
AcDbEntity
  8
GR1-1
  6
CONTINUOUS
 62
     3
100
AcDbLine
 10
273.08739
 20
269.2
 30
0.0
 11
273.08739
 21
268.3
 31
0.0
  0
LINE
  5
162
330
1F
100
AcDbEntity
  8
GR1-1
  6
CONTINUOUS
 62
     3
100
AcDbLine
 10
272.41089
 20
270.2
 30
0.0
 11
265.76389
 21
270.2
 31
0.0
  0
LINE
  5
163
330
1F
100
AcDbEntity
  8
GR1-1
  6
CONTINUOUS
 62
     3
100
AcDbLine
 10
265.76389
 20
270.2
 30
0.0
 11
265.08739
 21
269.2
 31
0.0
  0
LINE
  5
164
330
1F
100
AcDbEntity
  8
GR1-1
  6
CONTINUOUS
 62
     3
100
AcDbLine
 10
265.08739
 20
269.2
 30
0.0
 11
265.08739
 21
268.3
 31
0.0
  0
LINE
  5
165
330
1F
100
AcDbEntity
  8
GR1-1
  6
CONTINUOUS
 62
     6
100
AcDbLine
 10
272.41089
 20
268.3
 30
0.0
 11
272.41089
 21
270.2
 31
0.0
  0
LINE
  5
166
330
1F
100
AcDbEntity
  8
GR1-1
  6
CONTINUOUS
 62
     6
100
AcDbLine
 10
273.08739
 20
269.2
 30
0.0
 11
265.08739
 21
269.2
 31
0.0
  0
LINE
  5
167
330
1F
100
AcDbEntity
  8
GR1-1
  6
CONTINUOUS
 62
     6
100
AcDbLine
 10
265.76389
 20
268.3
 30
0.0
 11
265.76389
 21
270.2
 31
0.0
  0
LINE
  5
168
330
1F
100
AcDbEntity
  8
GR1-1
  6
CONTINUOUS
 62
     3
100
AcDbLine
 10
275.33739
 20
268.3
 30
0.0
 11
262.83739
 21
268.3
 31
0.0
  0
LINE
  5
169
330
1F
100
AcDbEntity
  8
GR1-1
  6
CONTINUOUS
 62
     3
100
AcDbLine
 10
262.83739
 20
268.3
 30
0.0
 11
262.58739
 21
267.575106
 31
0.0
  0
LINE
  5
16A
330
1F
100
AcDbEntity
  8
GR1-1
  6
CONTINUOUS
 62
     3
100
AcDbLine
 10
262.58739
 20
267.575106
 30
0.0
 11
262.58739
 21
264.024894
 31
0.0
  0
LINE
  5
16B
330
1F
100
AcDbEntity
  8
GR1-1
  6
CONTINUOUS
 62
     3
100
AcDbLine
 10
262.58739
 20
264.024894
 30
0.0
 11
262.83739
 21
263.3
 31
0.0
  0
LINE
  5
16C
330
1F
100
AcDbEntity
  8
GR1-1
  6
CONTINUOUS
 62
     3
100
AcDbLine
 10
276.38739
 20
263.3
 30
0.0
 11
261.78739
 21
263.3
 31
0.0
  0
LINE
  5
16D
330
1F
100
AcDbEntity
  8
GR1-1
  6
CONTINUOUS
 62
     3
100
AcDbLine
 10
275.33739
 20
263.3
 30
0.0
 11
275.58739
 21
264.024894
 31
0.0
  0
LINE
  5
16E
330
1F
100
AcDbEntity
  8
GR1-1
  6
CONTINUOUS
 62
     3
100
AcDbLine
 10
275.58739
 20
264.024894
 30
0.0
 11
275.58739
 21
267.575106
 31
0.0
  0
ARC
  5
16F
330
1F
100
AcDbEntity
  8
GR1-1
  6
CONTINUOUS
 62
     3
100
AcDbCircle
 10
272.33739
 20
260.652006
 30
0.0
 40
7.647993514824081
100
AcDbArc
 50
64.852624
 51
115.147376
  0
ARC
  5
170
330
1F
100
AcDbEntity
  8
GR1-1
  6
CONTINUOUS
 62
     3
100
AcDbCircle
 10
265.83739
 20
260.652006
 30
0.0
 40
7.647993514823825
100
AcDbArc
 50
64.852624
 51
115.147376
  0
ARC
  5
171
330
1F
100
AcDbEntity
  8
GR1-1
  6
CONTINUOUS
 62
     3
100
AcDbCircle
 10
265.83739
 20
270.947994
 30
0.0
 40
7.647993514823837
100
AcDbArc
 50
244.852624
 51
295.147376
  0
LINE
  5
172
330
1F
100
AcDbEntity
  8
GR1-1
  6
CONTINUOUS
 62
     3
100
AcDbLine
 10
269.08739
 20
264.024894
 30
0.0
 11
269.08739
 21
267.575106
 31
0.0
  0
ARC
  5
173
330
1F
100
AcDbEntity
  8
GR1-1
  6
CONTINUOUS
 62
     3
100
AcDbCircle
 10
272.33739
 20
270.947994
 30
0.0
 40
7.647993514823837
100
AcDbArc
 50
244.852624
 51
295.147376
  0
LINE
  5
174
330
1F
100
AcDbEntity
  8
GR1-1
  6
CONTINUOUS
 62
     3
100
AcDbLine
 10
275.58739
 20
267.575106
 30
0.0
 11
275.33739
 21
268.3
 31
0.0
  0
LINE
  5
175
330
1F
100
AcDbEntity
  8
GR1-1
  6
CONTINUOUS
 62
     3
100
AcDbLine
 10
276.38739
 20
261.3
 30
0.0
 11
261.78739
 21
261.3
 31
0.0
  0
ARC
  5
176
330
1F
100
AcDbEntity
  8
GR1-1
  6
CONTINUOUS
 62
     3
100
AcDbCircle
 10
276.38739
 20
261.6
 30
0.0
 40
0.3
100
AcDbArc
 50
270.0
 51
360.0
  0
LINE
  5
177
330
1F
100
AcDbEntity
  8
GR1-1
  6
CONTINUOUS
 62
     3
100
AcDbLine
 10
276.68739
 20
261.6
 30
0.0
 11
276.68739
 21
263.0
 31
0.0
  0
ARC
  5
178
330
1F
100
AcDbEntity
  8
GR1-1
  6
CONTINUOUS
 62
     3
100
AcDbCircle
 10
276.38739
 20
263.0
 30
0.0
 40
0.3
100
AcDbArc
 50
0.0
 51
90.0
  0
ARC
  5
179
330
1F
100
AcDbEntity
  8
GR1-1
  6
CONTINUOUS
 62
     3
100
AcDbCircle
 10
261.78739
 20
261.6
 30
0.0
 40
0.3
100
AcDbArc
 50
180.0
 51
270.0
  0
LINE
  5
17A
330
1F
100
AcDbEntity
  8
GR1-1
  6
CONTINUOUS
 62
     3
100
AcDbLine
 10
261.48739
 20
261.6
 30
0.0
 11
261.48739
 21
263.0
 31
0.0
  0
ARC
  5
17B
330
1F
100
AcDbEntity
  8
GR1-1
  6
CONTINUOUS
 62
     3
100
AcDbCircle
 10
261.78739
 20
263.0
 30
0.0
 40
0.3
100
AcDbArc
 50
90.0
 51
180.0
  0
DIMENSION
  5
17C
330
1F
100
AcDbEntity
  8
LAYERGROUP-1
100
AcDbDimension
  2
*D24
 10
241.779247
 20
258.765981
 30
0.0
 11
212.22171
 21
276.186554
 31
0.0
 70
   163
  3
FXDIMINFO
100
AcDbDiametricDimension
 15
233.395534
 25
263.234019
 35
0.0
 40
0.0
  0
CIRCLE
  5
186
330
1F
100
AcDbEntity
  8
LAYERGROUP-1
  6
CONTINUOUS
 62
     3
100
AcDbCircle
 10
237.58739
 20
261.0
 30
0.0
 40
4.75
  0
CIRCLE
  5
187
330
1F
100
AcDbEntity
  8
LAYERGROUP-1
  6
CONTINUOUS
 62
     3
100
AcDbCircle
 10
300.58739
 20
261.0
 30
0.0
 40
4.75
  0
LINE
  5
188
330
1F
100
AcDbEntity
  8
LAYERGROUP-1
  6
CENTER
 62
     6
100
AcDbLine
 10
307.152999
 20
261.0
 30
0.0
 11
294.943139
 21
261.0
 31
0.0
  0
LINE
  5
189
330
1F
100
AcDbEntity
  8
LAYERGROUP-1
  6
CENTER
 62
     6
100
AcDbLine
 10
300.58739
 20
266.364644
 30
0.0
 11
300.58739
 21
255.525029
 31
0.0
  0
DIMENSION
  5
18A
330
1F
100
AcDbEntity
  8
LAYERGROUP-1
100
AcDbDimension
  2
*D25
 10
137.991495
 20
37.5
 30
0.0
 11
121.991501
 21
38.5
 31
0.0
 70
    33
  3
FXDIMINFO
100
AcDbAlignedDimension
 13
105.991495
 23
57.0
 33
0.0
 14
137.991495
 24
57.0
 34
0.0
1001
ACAD
1000
DSTYLE
1002
{
1070
     7
1000
FXTIP_ARROW_E
1070
     6
1000
FXTIP_ARROW_S
1070
   173
1070
     1
1002
}
  0
LINE
  5
194
330
1F
100
AcDbEntity
  8
LAYERGROUP-1
  6
CONTINUOUS
 62
     6
100
AcDbLine
 10
256.58739
 20
143.643545
 30
0.0
 11
256.58739
 21
134.872983
 31
0.0
  0
ARC
  5
196
330
1F
100
AcDbEntity
  8
0-1
  6
CONTINUOUS
 62
     3
100
AcDbCircle
 10
278.052887
 20
135.310022
 30
0.0
 40
0.5
100
AcDbArc
 50
120.457604
 51
192.999999
  0
ARC
  5
197
330
1F
100
AcDbEntity
  8
0-1
  6
CONTINUOUS
 62
     3
100
AcDbCircle
 10
283.121893
 20
126.689978
 30
0.0
 40
0.5
100
AcDbArc
 50
-59.542394
 51
13.000003
  0
ARC
  5
198
330
1F
100
AcDbEntity
  8
0-1
  6
CONTINUOUS
 62
     3
100
AcDbCircle
 10
280.58739
 20
131.0
 30
0.0
 40
5.5
100
AcDbArc
 50
-4.457603
 51
120.457603
  0
ARC
  5
199
330
1F
100
AcDbEntity
  8
0-1
  6
CONTINUOUS
 62
     3
100
AcDbCircle
 10
283.585693
 20
129.126452
 30
0.0
 40
0.5
100
AcDbArc
 50
103.000005
 51
192.999974
  0
LINE
  5
19A
330
1F
100
AcDbEntity
  8
0-1
  6
CENTER
 62
     6
100
AcDbLine
 10
289.300627
 20
131.0
 30
0.0
 11
274.843737
 21
131.0
 31
0.0
  0
LINE
  5
19B
330
1F
100
AcDbEntity
  8
0-1
  6
CONTINUOUS
 62
     3
100
AcDbLine
 10
277.565702
 20
135.197547
 30
0.0
 11
278.04435
 21
133.124295
 31
0.0
  0
LINE
  5
19C
330
1F
100
AcDbEntity
  8
0-1
  6
CONTINUOUS
 62
     3
100
AcDbLine
 10
283.473217
 20
129.613637
 30
0.0
 11
285.684741
 21
130.124208
 31
0.0
  0
LINE
  5
19D
330
1F
100
AcDbEntity
  8
0-1
  6
CONTINUOUS
 62
     3
100
AcDbLine
 10
283.098508
 20
129.013977
 30
0.0
 11
283.609078
 21
126.802453
 31
0.0
  0
ARC
  5
19E
330
1F
100
AcDbEntity
  8
0-1
  6
CONTINUOUS
 62
     3
100
AcDbCircle
 10
285.572266
 20
130.611393
 30
0.0
 40
0.5
100
AcDbArc
 50
283.0
 51
355.542401
  0
ARC
  5
19F
330
1F
100
AcDbEntity
  8
0-1
  6
CONTINUOUS
 62
     3
100
AcDbCircle
 10
280.58739
 20
131.0
 30
0.0
 40
5.5
100
AcDbArc
 50
238.055731
 51
300.457603
  0
LINE
  5
1A0
330
1F
100
AcDbEntity
  8
GR1-1
  6
CENTER
 62
     6
100
AcDbLine
 10
280.58739
 20
137.204218
 30
0.0
 11
280.58739
 21
124.37743
 31
0.0
  0
LINE
  5
1A1
330
1F
100
AcDbEntity
  8
GR1-1
  6
CONTINUOUS
 62
     3
100
AcDbLine
 10
234.054926
 20
108.662514
 30
0.0
 11
242.184773
 21
109.732828
 31
0.0
  0
ARC
  5
1A2
330
1F
100
AcDbEntity
  8
GR1-1
  6
CONTINUOUS
 62
     3
100
AcDbCircle
 10
238.605519
 20
111.178006
 30
0.0
 40
3.860000000000015
100
AcDbArc
 50
-21.987126
 51
36.987126
  0
LINE
  5
1A3
330
1F
100
AcDbEntity
  8
GR1-1
  6
CONTINUOUS
 62
     3
100
AcDbLine
 10
241.688774
 20
113.500319
 30
0.0
 11
233.558926
 21
112.430004
 31
0.0
  0
ARC
  5
1A4
330
1F
100
AcDbEntity
  8
GR1-1
  6
CONTINUOUS
 62
     3
100
AcDbCircle
 10
237.138181
 20
110.984827
 30
0.0
 40
3.860000000000015
100
AcDbArc
 50
158.012874
 51
216.987126
  0
ARC
  5
1A5
330
1F
100
AcDbEntity
  8
GR1-1
  6
CONTINUOUS
 62
     3
100
AcDbCircle
 10
237.87185
 20
111.081416
 30
0.0
 40
3.0
100
AcDbArc
 50
226.79648
 51
328.20352
  0
LINE
  5
1A6
330
1F
100
AcDbEntity
  8
GR1-1
  6
CONTINUOUS
 62
     3
100
AcDbLine
 10
242.036551
 20
109.713315
 30
0.0
 11
239.139705
 21
108.362493
 31
0.0
  0
LINE
  5
1A7
330
1F
100
AcDbEntity
  8
GR1-1
  6
CONTINUOUS
 62
     3
100
AcDbLine
 10
242.208713
 20
109.793595
 30
0.0
 11
281.855245
 21
128.281077
 31
0.0
  0
ARC
  5
1A8
330
1F
100
AcDbEntity
  8
GR1-1
  6
CONTINUOUS
 62
     3
100
AcDbCircle
 10
280.58739
 20
131.0
 30
0.0
 40
3.0
100
AcDbArc
 50
-65.0
 51
115.0
  0
LINE
  5
1A9
330
1F
100
AcDbEntity
  8
GR1-1
  6
CONTINUOUS
 62
     3
100
AcDbLine
 10
279.319535
 20
133.718923
 30
0.0
 11
236.603995
 21
113.80034
 31
0.0
  0
ARC
  5
1AA
330
1F
100
AcDbEntity
  8
GR1-1
  6
CONTINUOUS
 62
     3
100
AcDbCircle
 10
237.87185
 20
111.081416
 30
0.0
 40
3.0
100
AcDbArc
 50
46.79648
 51
148.20352
  0
LINE
  5
1AB
330
1F
100
AcDbEntity
  8
GR1-1
  6
CONTINUOUS
 62
     3
100
AcDbLine
 10
283.359029
 20
129.85195
 30
0.0
 11
285.046392
 21
130.074095
 31
0.0
  0
ARC
  5
1AC
330
1F
100
AcDbEntity
  8
GR1-1
  6
CONTINUOUS
 62
     3
100
AcDbCircle
 10
283.561725
 20
131.391579
 30
0.0
 40
2.5
100
AcDbArc
 50
-22.5
 51
37.5
  0
LINE
  5
1AD
330
1F
100
AcDbEntity
  8
GR1-1
  6
CONTINUOUS
 62
     3
100
AcDbLine
 10
284.654814
 20
133.04843
 30
0.0
 11
282.96745
 21
132.826284
 31
0.0
  0
LINE
  5
1AE
330
1F
100
AcDbEntity
  8
GR1-1
  6
CONTINUOUS
 62
     3
100
AcDbLine
 10
285.828275
 20
132.446447
 30
0.0
 11
285.891506
 21
132.454772
 31
0.0
  0
LINE
  5
1AF
330
1F
100
AcDbEntity
  8
GR1-1
  6
CONTINUOUS
 62
     3
100
AcDbLine
 10
286.087295
 20
130.967604
 30
0.0
 11
286.024065
 21
130.95928
 31
0.0
  0
LINE
  5
1B0
330
1F
100
AcDbEntity
  8
GR1-1
  6
CENTER
 62
     6
100
AcDbLine
 10
280.58739
 20
131.0
 30
0.0
 11
237.87185
 21
111.081416
 31
0.0
  0
LINE
  5
1B1
330
1F
100
AcDbEntity
  8
GR1-1
  6
CENTER
 62
     6
100
AcDbLine
 10
236.945453
 20
118.118097
 30
0.0
 11
238.83635
 21
103.755308
 31
0.0
  0
LINE
  5
1B2
330
1F
100
AcDbEntity
  8
GR1-1
  6
CENTER
 62
     6
100
AcDbLine
 10
245.016294
 20
112.022
 30
0.0
 11
230.503893
 21
110.111406
 31
0.0
  0
LINE
  5
1B3
330
1F
100
AcDbEntity
  8
LAYERGROUP-1
  6
CONTINUOUS
 62
     3
100
AcDbLine
 10
283.128079
 20
132.595274
 30
0.0
 11
285.545108
 21
132.913482
 31
0.0
  0
LINE
  5
1B4
330
1F
100
AcDbEntity
  8
LAYERGROUP-1
  6
CONTINUOUS
 62
     3
100
AcDbLine
 10
283.454395
 20
130.116662
 30
0.0
 11
285.871424
 21
130.43487
 31
0.0
  0
ARC
  5
1B5
330
1F
100
AcDbEntity
  8
GR1-1
  6
CONTINUOUS
 62
     3
100
AcDbCircle
 10
282.867713
 20
131.30021
 30
0.0
 40
2.5
100
AcDbArc
 50
330.630102
 51
337.5
  0
ARC
  5
1B6
330
1F
100
AcDbEntity
  8
GR1-1
  6
CONTINUOUS
 62
     3
100
AcDbCircle
 10
282.867713
 20
131.30021
 30
0.0
 40
2.5
100
AcDbArc
 50
37.5
 51
44.369898
  0
ARC
  5
1B7
330
1F
100
AcDbEntity
  8
LAYERGROUP-1
  6
CONTINUOUS
 62
     6
100
AcDbCircle
 10
257.58739
 20
131.0
 30
0.0
 40
4.0
100
AcDbArc
 50
104.477512
 51
255.522488
  0
LINE
  5
1B8
330
1F
100
AcDbEntity
  8
GR1-1
  6
CENTER
 62
     6
100
AcDbLine
 10
257.58739
 20
127.237085
 30
0.0
 11
257.58739
 21
134.851364
 31
0.0
  0
LINE
  5
1B9
330
1F
100
AcDbEntity
  8
GR1-1
  6
CENTER
 62
     6
100
AcDbLine
 10
253.527943
 20
131.0
 30
0.0
 11
261.621107
 21
131.0
 31
0.0
  0
LINE
  5
1BA
330
1F
100
AcDbEntity
  8
GR1-1
  6
CONTINUOUS
 62
     3
100
AcDbLine
 10
103.991495
 20
134.0
 30
0.0
 11
103.991495
 21
128.0
 31
0.0
  0
LINE
  5
1BB
330
1F
100
AcDbEntity
  8
GR1-1
  6
CONTINUOUS
 62
     3
100
AcDbLine
 10
103.991495
 20
128.0
 30
0.0
 11
109.191495
 21
128.0
 31
0.0
  0
LINE
  5
1BC
330
1F
100
AcDbEntity
  8
GR1-1
  6
CONTINUOUS
 62
     3
100
AcDbLine
 10
110.191495
 20
128.95157
 30
0.0
 11
110.441495
 21
128.95157
 31
0.0
  0
LINE
  5
1BD
330
1F
100
AcDbEntity
  8
GR1-1
  6
CONTINUOUS
 62
     3
100
AcDbLine
 10
133.191495
 20
128.0
 30
0.0
 11
137.191495
 21
128.0
 31
0.0
  0
LINE
  5
1BE
330
1F
100
AcDbEntity
  8
GR1-1
  6
CONTINUOUS
 62
     3
100
AcDbLine
 10
156.225756
 20
128.0
 30
0.0
 11
159.717561
 21
128.0
 31
0.0
  0
LINE
  5
1BF
330
1F
100
AcDbEntity
  8
GR1-1
  6
CONTINUOUS
 62
     3
100
AcDbLine
 10
159.717561
 20
128.0
 30
0.0
 11
159.800017
 21
118.55146
 31
0.0
  0
ARC
  5
1C0
330
1F
100
AcDbEntity
  8
GR1-1
  6
CONTINUOUS
 62
     3
100
AcDbCircle
 10
184.380368
 20
111.227004
 30
0.0
 40
3.85999999999999
100
AcDbArc
 50
-41.634445
 51
36.081949
  0
LINE
  5
1C1
330
1F
100
AcDbEntity
  8
GR1-1
  6
CONTINUOUS
 62
     3
100
AcDbLine
 10
165.803874
 20
118.135709
 30
0.0
 11
165.717333
 21
128.052359
 31
0.0
  0
ARC
  5
1C2
330
1F
100
AcDbEntity
  8
GR1-1
  6
CONTINUOUS
 62
     3
100
AcDbCircle
 10
159.717561
 20
128.0
 30
0.0
 40
6.0
100
AcDbArc
 50
0.5
 51
90.0
  0
LINE
  5
1C3
330
1F
100
AcDbEntity
  8
GR1-1
  6
CONTINUOUS
 62
     3
100
AcDbLine
 10
159.717561
 20
134.0
 30
0.0
 11
157.536268
 21
134.0
 31
0.0
  0
LINE
  5
1C4
330
1F
100
AcDbEntity
  8
GR1-1
  6
CONTINUOUS
 62
     3
100
AcDbLine
 10
137.191495
 20
132.5
 30
0.0
 11
137.191495
 21
134.0
 31
0.0
  0
LINE
  5
1C5
330
1F
100
AcDbEntity
  8
GR1-1
  6
CONTINUOUS
 62
     3
100
AcDbLine
 10
137.191495
 20
134.0
 30
0.0
 11
133.191495
 21
134.0
 31
0.0
  0
LINE
  5
1C6
330
1F
100
AcDbEntity
  8
GR1-1
  6
CONTINUOUS
 62
     3
100
AcDbLine
 10
132.691495
 20
132.913482
 30
0.0
 11
132.441495
 21
132.913482
 31
0.0
  0
LINE
  5
1C7
330
1F
100
AcDbEntity
  8
GR1-1
  6
CONTINUOUS
 62
     3
100
AcDbLine
 10
109.191495
 20
134.0
 30
0.0
 11
103.991495
 21
134.0
 31
0.0
  0
LINE
  5
1C8
330
1F
100
AcDbEntity
  8
GR1-1
  6
CENTER
 62
     6
100
AcDbLine
 10
162.717447
 20
128.02618
 30
0.0
 11
162.796129
 21
119.010176
 31
0.0
  0
LINE
  5
1C9
330
1F
100
AcDbEntity
  8
GR1-1
  6
CENTER
 62
     6
100
AcDbLine
 10
167.839632
 20
111.081416
 30
0.0
 11
191.119705
 21
111.081416
 31
0.0
  0
ARC
  5
1CA
330
1F
100
AcDbEntity
  8
GR1-1
  6
CENTER
 62
     6
100
AcDbCircle
 10
159.717561
 20
128.0
 30
0.0
 40
3.0
100
AcDbArc
 50
0.5
 51
90.0
  0
LINE
  5
1CB
330
1F
100
AcDbEntity
  8
GR1-1
  6
CENTER
 62
     6
100
AcDbLine
 10
121.441495
 20
137.572422
 30
0.0
 11
121.441495
 21
125.023296
 31
0.0
  0
LINE
  5
1CC
330
1F
100
AcDbEntity
  8
GR1-1
  6
CONTINUOUS
 62
     3
100
AcDbLine
 10
137.191495
 20
129.086518
 30
0.0
 11
137.191495
 21
128.0
 31
0.0
  0
LINE
  5
1CD
330
1F
100
AcDbEntity
  8
LAYERGROUP-1
  6
CONTINUOUS
 62
     3
100
AcDbLine
 10
137.191495
 20
129.086518
 30
0.0
 11
139.991495
 21
129.086518
 31
0.0
  0
LINE
  5
1CE
330
1F
100
AcDbEntity
  8
LAYERGROUP-1
  6
CONTINUOUS
 62
     3
100
AcDbLine
 10
167.938896
 20
114.081416
 30
0.0
 11
169.240368
 21
112.430004
 31
0.0
  0
LINE
  5
1CF
330
1F
100
AcDbEntity
  8
LAYERGROUP-1
  6
CONTINUOUS
 62
     3
100
AcDbLine
 10
167.740368
 20
108.081416
 30
0.0
 11
169.240368
 21
109.732828
 31
0.0
  0
LINE
  5
1D0
330
1F
100
AcDbEntity
  8
LAYERGROUP-1
  6
CONTINUOUS
 62
     3
100
AcDbLine
 10
169.240368
 20
112.430004
 30
0.0
 11
188.048118
 21
112.430004
 31
0.0
  0
LINE
  5
1D1
330
1F
100
AcDbEntity
  8
LAYERGROUP-1
  6
CONTINUOUS
 62
     3
100
AcDbLine
 10
169.240368
 20
109.732828
 30
0.0
 11
187.939447
 21
109.732828
 31
0.0
  0
LINE
  5
1D2
330
1F
100
AcDbEntity
  8
LAYERGROUP-1
  6
CONTINUOUS
 62
     3
100
AcDbLine
 10
168.268187
 20
108.662514
 30
0.0
 11
187.265328
 21
108.662514
 31
0.0
  0
LINE
  5
1D3
330
1F
100
AcDbEntity
  8
LAYERGROUP-1
  6
CONTINUOUS
 62
     3
100
AcDbLine
 10
168.396857
 20
113.500319
 30
0.0
 11
187.499925
 21
113.500319
 31
0.0
  0
ARC
  5
1D4
330
1F
100
AcDbEntity
  8
LAYERGROUP-1
  6
CONTINUOUS
 62
     3
100
AcDbCircle
 10
170.803684
 20
118.179342
 30
0.0
 40
5.0
100
AcDbArc
 50
180.5
 51
235.043282
  0
ARC
  5
1D5
330
1F
100
AcDbEntity
  8
LAYERGROUP-1
  6
CONTINUOUS
 62
     3
100
AcDbCircle
 10
170.799599
 20
118.647452
 30
0.0
 40
11.0
100
AcDbArc
 50
180.5
 51
253.852453
  0
ARC
  5
1D6
330
1F
100
AcDbEntity
  8
LAYERGROUP-1
  6
CENTER
 62
     6
100
AcDbCircle
 10
170.80077
 20
118.513217
 30
0.0
 40
8.0
100
AcDbArc
 50
176.437241
 51
248.275611
  0
LINE
  5
1D7
330
1F
100
AcDbEntity
  8
LAYERGROUP-1
  6
CONTINUOUS
 62
     3
100
AcDbLine
 10
137.191495
 20
132.913482
 30
0.0
 11
139.991495
 21
132.913482
 31
0.0
  0
LINE
  5
1D8
330
1F
100
AcDbEntity
  8
LAYERGROUP-1
  6
CONTINUOUS
 62
     3
100
AcDbLine
 10
133.191495
 20
134.0
 30
0.0
 11
132.691495
 21
132.913482
 31
0.0
  0
LINE
  5
1D9
330
1F
100
AcDbEntity
  8
LAYERGROUP-1
  6
CONTINUOUS
 62
     3
100
AcDbLine
 10
133.191495
 20
134.0
 30
0.0
 11
132.829892
 21
132.5
 31
0.0
  0
LINE
  5
1DA
330
1F
100
AcDbEntity
  8
LAYERGROUP-1
  6
CONTINUOUS
 62
     3
100
AcDbLine
 10
132.691495
 20
132.913482
 30
0.0
 11
132.691495
 21
132.5
 31
0.0
  0
LINE
  5
1DB
330
1F
100
AcDbEntity
  8
LAYERGROUP-1
  6
CONTINUOUS
 62
     3
100
AcDbLine
 10
133.191495
 20
128.0
 30
0.0
 11
132.691495
 21
128.95157
 31
0.0
  0
LINE
  5
1DC
330
1F
100
AcDbEntity
  8
LAYERGROUP-1
  6
CONTINUOUS
 62
     3
100
AcDbLine
 10
110.191495
 20
132.913482
 30
0.0
 11
110.191495
 21
132.5
 31
0.0
  0
LINE
  5
1DD
330
1F
100
AcDbEntity
  8
LAYERGROUP-1
  6
CONTINUOUS
 62
     3
100
AcDbLine
 10
109.191495
 20
134.0
 30
0.0
 11
110.191495
 21
132.913482
 31
0.0
  0
LINE
  5
1DE
330
1F
100
AcDbEntity
  8
LAYERGROUP-1
  6
CONTINUOUS
 62
     3
100
AcDbLine
 10
109.191495
 20
134.0
 30
0.0
 11
109.914702
 21
132.5
 31
0.0
  0
LINE
  5
1DF
330
1F
100
AcDbEntity
  8
LAYERGROUP-1
  6
CONTINUOUS
 62
     3
100
AcDbLine
 10
109.191495
 20
128.0
 30
0.0
 11
110.191495
 21
128.95157
 31
0.0
  0
LINE
  5
1E0
330
1F
100
AcDbEntity
  8
GR1-1
  6
CONTINUOUS
 62
     3
100
AcDbLine
 10
132.441495
 20
127.814404
 30
0.0
 11
110.441495
 21
127.814404
 31
0.0
  0
LINE
  5
1E1
330
1F
100
AcDbEntity
  8
GR1-1
  6
CONTINUOUS
 62
     3
100
AcDbLine
 10
110.441495
 20
134.30654
 30
0.0
 11
132.441495
 21
134.30654
 31
0.0
  0
LINE
  5
1E2
330
1F
100
AcDbEntity
  8
GR1-1
  6
CONTINUOUS
 62
     3
100
AcDbLine
 10
132.441495
 20
134.30654
 30
0.0
 11
132.441495
 21
120.587193
 31
0.0
  0
LINE
  5
1E3
330
1F
100
AcDbEntity
  8
GR1-1
  6
CONTINUOUS
 62
     3
100
AcDbLine
 10
110.441495
 20
134.30654
 30
0.0
 11
110.441495
 21
120.587193
 31
0.0
  0
ARC
  5
1E4
330
1F
100
AcDbEntity
  8
GR1-1
  6
CONTINUOUS
 62
     3
100
AcDbCircle
 10
111.941495
 20
120.587193
 30
0.0
 40
1.5
100
AcDbArc
 50
180.0
 51
216.417999
  0
LINE
  5
1E5
330
1F
100
AcDbEntity
  8
GR1-1
  6
CONTINUOUS
 62
     6
100
AcDbLine
 10
110.441495
 20
133.82196
 30
0.0
 11
132.441495
 21
133.82196
 31
0.0
  0
LINE
  5
1E6
330
1F
100
AcDbEntity
  8
GR1-1
  6
CONTINUOUS
 62
     6
100
AcDbLine
 10
132.441495
 20
121.807427
 30
0.0
 11
128.919732
 21
121.807427
 31
0.0
  0
ARC
  5
1E7
330
1F
100
AcDbEntity
  8
LAYERGROUP-1
  6
CONTINUOUS
 62
     3
100
AcDbCircle
 10
121.441495
 20
127.180037
 30
0.0
 40
7.939587078962679
100
AcDbArc
 50
63.843215
 51
116.156785
  0
LINE
  5
1E8
330
1F
100
AcDbEntity
  8
LAYERGROUP-1
  6
CONTINUOUS
 62
     3
100
AcDbLine
 10
137.241495
 20
133.995269
 30
0.0
 11
132.441495
 21
133.995269
 31
0.0
  0
LINE
  5
1E9
330
1F
100
AcDbEntity
  8
LAYERGROUP-1
  6
CONTINUOUS
 62
     3
100
AcDbLine
 10
136.241495
 20
135.777335
 30
0.0
 11
106.641495
 21
135.777335
 31
0.0
  0
ARC
  5
1EA
330
1F
100
AcDbEntity
  8
LAYERGROUP-1
  6
CONTINUOUS
 62
     3
100
AcDbCircle
 10
136.341495
 20
134.877335
 30
0.0
 40
0.9
100
AcDbArc
 50
0.0
 51
90.0
  0
ARC
  5
1EB
330
1F
100
AcDbEntity
  8
LAYERGROUP-1
  6
CONTINUOUS
 62
     3
100
AcDbCircle
 10
136.241495
 20
134.204495
 30
0.0
 40
1.0
100
AcDbArc
 50
341.805128
 51
360.0
  0
LINE
  5
1EC
330
1F
100
AcDbEntity
  8
LAYERGROUP-1
  6
CONTINUOUS
 62
     3
100
AcDbLine
 10
137.241495
 20
134.877335
 30
0.0
 11
137.241495
 21
134.204495
 31
0.0
  0
ARC
  5
1ED
330
1F
100
AcDbEntity
  8
LAYERGROUP-1
  6
CONTINUOUS
 62
     3
100
AcDbCircle
 10
134.429586
 20
133.777335
 30
0.0
 40
2.0
100
AcDbArc
 50
90.0
 51
173.744212
  0
LINE
  5
1EE
330
1F
100
AcDbEntity
  8
LAYERGROUP-1
  6
CONTINUOUS
 62
     3
100
AcDbLine
 10
105.641495
 20
133.995269
 30
0.0
 11
110.441495
 21
133.995269
 31
0.0
  0
ARC
  5
1EF
330
1F
100
AcDbEntity
  8
LAYERGROUP-1
  6
CONTINUOUS
 62
     3
100
AcDbCircle
 10
106.541495
 20
134.877335
 30
0.0
 40
0.9
100
AcDbArc
 50
90.0
 51
180.0
  0
ARC
  5
1F0
330
1F
100
AcDbEntity
  8
LAYERGROUP-1
  6
CONTINUOUS
 62
     3
100
AcDbCircle
 10
106.641495
 20
134.204495
 30
0.0
 40
1.0
100
AcDbArc
 50
180.0
 51
192.076983
  0
LINE
  5
1F1
330
1F
100
AcDbEntity
  8
LAYERGROUP-1
  6
CONTINUOUS
 62
     3
100
AcDbLine
 10
105.641495
 20
134.877335
 30
0.0
 11
105.641495
 21
134.204495
 31
0.0
  0
ARC
  5
1F2
330
1F
100
AcDbEntity
  8
LAYERGROUP-1
  6
CONTINUOUS
 62
     3
100
AcDbCircle
 10
108.453404
 20
133.777335
 30
0.0
 40
2.0
100
AcDbArc
 50
6.255788
 51
90.0
  0
LINE
  5
1F3
330
1F
100
AcDbEntity
  8
GR1-1
  6
CONTINUOUS
 62
     3
100
AcDbLine
 10
110.441495
 20
132.913482
 30
0.0
 11
110.191495
 21
132.913482
 31
0.0
  0
LINE
  5
1F4
330
1F
100
AcDbEntity
  8
GR1-1
  6
CONTINUOUS
 62
     3
100
AcDbLine
 10
132.441495
 20
128.95157
 30
0.0
 11
132.691495
 21
128.95157
 31
0.0
  0
LINE
  5
1F5
330
1F
100
AcDbEntity
  8
LAYERGROUP-1
  6
CENTER
 62
     6
100
AcDbLine
 10
84.037053
 20
131.0
 30
0.0
 11
159.717561
 21
131.0
 31
0.0
  0
LINE
  5
1F6
330
1F
100
AcDbEntity
  8
GR1-1
  6
CONTINUOUS
 62
     3
100
AcDbLine
 10
139.991495
 20
129.5
 30
0.0
 11
132.441495
 21
129.5
 31
0.0
  0
LINE
  5
1F7
330
1F
100
AcDbEntity
  8
GR1-1
  6
CONTINUOUS
 62
     3
100
AcDbLine
 10
103.991495
 20
132.5
 30
0.0
 11
110.441495
 21
132.5
 31
0.0
  0
LINE
  5
1F8
330
1F
100
AcDbEntity
  8
GR1-1
  6
CONTINUOUS
 62
     6
100
AcDbLine
 10
103.991495
 20
129.7705
 30
0.0
 11
110.441495
 21
129.7705
 31
0.0
  0
LINE
  5
1F9
330
1F
100
AcDbEntity
  8
GR1-1
  6
CONTINUOUS
 62
     6
100
AcDbLine
 10
139.991495
 20
132.2295
 30
0.0
 11
132.441495
 21
132.2295
 31
0.0
  0
LINE
  5
1FA
330
1F
100
AcDbEntity
  8
GR1-1
  6
CONTINUOUS
 62
     6
100
AcDbLine
 10
132.441495
 20
129.7705
 30
0.0
 11
139.991495
 21
129.7705
 31
0.0
  0
LINE
  5
1FB
330
1F
100
AcDbEntity
  8
GR1-1
  6
CONTINUOUS
 62
     3
100
AcDbLine
 10
110.441495
 20
129.5
 30
0.0
 11
103.991495
 21
129.5
 31
0.0
  0
LINE
  5
1FC
330
1F
100
AcDbEntity
  8
GR1-1
  6
CONTINUOUS
 62
     6
100
AcDbLine
 10
110.441495
 20
132.2295
 30
0.0
 11
103.991495
 21
132.2295
 31
0.0
  0
LINE
  5
1FD
330
1F
100
AcDbEntity
  8
GR1-1
  6
CONTINUOUS
 62
     3
100
AcDbLine
 10
132.441495
 20
132.5
 30
0.0
 11
139.991495
 21
132.5
 31
0.0
  0
LINE
  5
1FE
330
1F
100
AcDbEntity
  8
GR1-1
  6
CONTINUOUS
 62
     3
100
AcDbLine
 10
283.58739
 20
209.221801
 30
0.0
 11
283.58739
 21
210.310865
 31
0.0
  0
ARC
  5
1FF
330
1F
100
AcDbEntity
  8
GR1-1
  6
CONTINUOUS
 62
     3
100
AcDbCircle
 10
286.58739
 20
210.310865
 30
0.0
 40
3.0
100
AcDbArc
 50
146.285965
 51
180.0
  0
LINE
  5
200
330
1F
100
AcDbEntity
  8
GR1-1
  6
CONTINUOUS
 62
     3
100
AcDbLine
 10
271.639749
 20
203.222029
 30
0.0
 11
246.773181
 21
203.005022
 31
0.0
  0
ARC
  5
201
330
1F
100
AcDbEntity
  8
GR1-1
  6
CONTINUOUS
 62
     3
100
AcDbCircle
 10
246.87807
 20
190.985926
 30
0.0
 40
12.0
100
AcDbArc
 50
90.5
 51
159.685675
  0
ARC
  5
202
330
1F
100
AcDbEntity
  8
GR1-1
  6
CONTINUOUS
 62
     3
100
AcDbCircle
 10
231.873235
 20
196.540648
 30
0.0
 40
4.0
100
AcDbArc
 50
320.600523
 51
339.685675
  0
ARC
  5
203
330
1F
100
AcDbEntity
  8
GR1-1
  6
CONTINUOUS
 62
     3
100
AcDbCircle
 10
239.600629
 20
190.193414
 30
0.0
 40
6.0
100
AcDbArc
 50
140.600523
 51
173.734413
  0
ARC
  5
204
330
1F
100
AcDbEntity
  8
GR1-1
  6
CONTINUOUS
 62
     3
100
AcDbCircle
 10
293.27807
 20
184.3
 30
0.0
 40
60.0
100
AcDbArc
 50
173.734413
 51
186.776782
  0
ARC
  5
205
330
1F
100
AcDbEntity
  8
GR1-1
  6
CONTINUOUS
 62
     3
100
AcDbCircle
 10
235.683292
 20
177.455908
 30
0.0
 40
2.0
100
AcDbArc
 50
186.776782
 51
236.722511
  0
ARC
  5
206
330
1F
100
AcDbEntity
  8
GR1-1
  6
CONTINUOUS
 62
     3
100
AcDbCircle
 10
237.87807
 20
180.8
 30
0.0
 40
6.0
100
AcDbArc
 50
236.722511
 51
303.277489
  0
ARC
  5
207
330
1F
100
AcDbEntity
  8
GR1-1
  6
CONTINUOUS
 62
     3
100
AcDbCircle
 10
240.072847
 20
177.455908
 30
0.0
 40
2.0
100
AcDbArc
 50
303.277489
 51
353.223218
  0
ARC
  5
208
330
1F
100
AcDbEntity
  8
GR1-1
  6
CONTINUOUS
 62
     3
100
AcDbCircle
 10
182.47807
 20
184.3
 30
0.0
 40
60.0
100
AcDbArc
 50
-6.776782
 51
8.946641
  0
ARC
  5
209
330
1F
100
AcDbEntity
  8
GR1-1
  6
CONTINUOUS
 62
     3
100
AcDbCircle
 10
242.735919
 20
193.786389
 30
0.0
 40
1.0
100
AcDbArc
 50
145.937807
 51
188.946641
  0
LINE
  5
20A
330
1F
100
AcDbEntity
  8
GR1-1
  6
CONTINUOUS
 62
     3
100
AcDbLine
 10
246.82554
 20
197.005251
 30
0.0
 11
271.692109
 21
197.222258
 31
0.0
  0
ARC
  5
20B
330
1F
100
AcDbEntity
  8
GR1-1
  6
CONTINUOUS
 62
     3
100
AcDbCircle
 10
271.58739
 20
209.221801
 30
0.0
 40
12.0
100
AcDbArc
 50
270.5
 51
360.0
  0
ARC
  5
20C
330
1F
100
AcDbEntity
  8
GR1-1
  6
CONTINUOUS
 62
     3
100
AcDbCircle
 10
271.58739
 20
209.221801
 30
0.0
 40
6.0
100
AcDbArc
 50
270.5
 51
360.0
  0
ARC
  5
20D
330
1F
100
AcDbEntity
  8
GR1-1
  6
CONTINUOUS
 62
     3
100
AcDbCircle
 10
246.87807
 20
190.985926
 30
0.0
 40
6.0
100
AcDbArc
 50
90.5
 51
145.937807
  0
LINE
  5
20E
330
1F
100
AcDbEntity
  8
GR1-1
  6
CONTINUOUS
 62
     3
100
AcDbLine
 10
278.58739
 20
265.1
 30
0.0
 11
278.58739
 21
266.0
 31
0.0
  0
LINE
  5
20F
330
1F
100
AcDbEntity
  8
GR1-1
  6
CONTINUOUS
 62
     3
100
AcDbLine
 10
278.58739
 20
266.0
 30
0.0
 11
279.08739
 21
266.5
 31
0.0
  0
LINE
  5
210
330
1F
100
AcDbEntity
  8
GR1-1
  6
CONTINUOUS
 62
     3
100
AcDbLine
 10
279.08739
 20
266.5
 30
0.0
 11
282.08739
 21
266.5
 31
0.0
  0
LINE
  5
211
330
1F
100
AcDbEntity
  8
GR1-1
  6
CONTINUOUS
 62
     3
100
AcDbLine
 10
282.08739
 20
266.5
 30
0.0
 11
282.58739
 21
266.0
 31
0.0
  0
LINE
  5
212
330
1F
100
AcDbEntity
  8
GR1-1
  6
CONTINUOUS
 62
     3
100
AcDbLine
 10
282.58739
 20
266.0
 30
0.0
 11
282.58739
 21
265.1
 31
0.0
  0
LINE
  5
213
330
1F
100
AcDbEntity
  8
GR1-1
  6
CONTINUOUS
 62
     6
100
AcDbLine
 10
234.051018
 20
191.548887
 30
0.0
 11
234.194713
 21
191.3
 31
0.0
  0
LINE
  5
214
330
1F
100
AcDbEntity
  8
GR1-1
  6
CONTINUOUS
 62
     6
100
AcDbLine
 10
234.194713
 20
191.3
 30
0.0
 11
235.349413
 21
193.3
 31
0.0
  0
LINE
  5
215
330
1F
100
AcDbEntity
  8
GR1-1
  6
CONTINUOUS
 62
     6
100
AcDbLine
 10
235.349413
 20
193.3
 30
0.0
 11
235.129062
 21
193.681659
 31
0.0
  0
ARC
  5
216
330
1F
100
AcDbEntity
  8
GR1-1
  6
CONTINUOUS
 62
     6
100
AcDbCircle
 10
239.381373
 20
190.193414
 30
0.0
 40
5.5
100
AcDbArc
 50
139.023992
 51
173.734413
  0
ARC
  5
217
330
1F
100
AcDbEntity
  8
GR1-1
  6
CONTINUOUS
 62
     6
100
AcDbCircle
 10
293.058814
 20
184.3
 30
0.0
 40
59.5
100
AcDbArc
 50
173.734413
 51
186.776782
  0
ARC
  5
218
330
1F
100
AcDbEntity
  8
GR1-1
  6
CONTINUOUS
 62
     6
100
AcDbCircle
 10
235.464037
 20
177.455908
 30
0.0
 40
1.5
100
AcDbArc
 50
186.776782
 51
236.722511
  0
ARC
  5
219
330
1F
100
AcDbEntity
  8
GR1-1
  6
CONTINUOUS
 62
     6
100
AcDbCircle
 10
237.658814
 20
180.8
 30
0.0
 40
5.5
100
AcDbArc
 50
236.722511
 51
301.989699
  0
ARC
  5
21A
330
1F
100
AcDbEntity
  8
GR1-1
  6
CONTINUOUS
 62
     6
100
AcDbCircle
 10
182.188886
 20
184.3
 30
0.0
 40
59.5
100
AcDbArc
 50
-6.825015
 51
9.187386
  0
LINE
  5
21B
330
1F
100
AcDbEntity
  8
GR1-1
  6
CONTINUOUS
 62
     6
100
AcDbLine
 10
235.22896
 20
193.8
 30
0.0
 11
240.925586
 21
193.8
 31
0.0
  0
LINE
  5
21C
330
1F
100
AcDbEntity
  8
GR1-1
  6
CONTINUOUS
 62
     6
100
AcDbLine
 10
240.25689
 20
193.8
 30
0.0
 11
239.968215
 21
193.3
 31
0.0
  0
LINE
  5
21D
330
1F
100
AcDbEntity
  8
GR1-1
  6
CONTINUOUS
 62
     6
100
AcDbLine
 10
239.968215
 20
193.3
 30
0.0
 11
241.122916
 21
191.3
 31
0.0
  0
LINE
  5
21E
330
1F
100
AcDbEntity
  8
GR1-1
  6
CONTINUOUS
 62
     6
100
AcDbLine
 10
241.122916
 20
191.3
 30
0.0
 11
241.249334
 21
191.518963
 31
0.0
  0
LINE
  5
21F
330
1F
100
AcDbEntity
  8
GR1-1
  6
CONTINUOUS
 62
     6
100
AcDbLine
 10
240.545566
 20
190.3
 30
0.0
 11
239.390865
 21
188.3
 31
0.0
  0
LINE
  5
220
330
1F
100
AcDbEntity
  8
GR1-1
  6
CONTINUOUS
 62
     6
100
AcDbLine
 10
239.390865
 20
188.3
 30
0.0
 11
238.236165
 21
190.3
 31
0.0
  0
LINE
  5
221
330
1F
100
AcDbEntity
  8
GR1-1
  6
CONTINUOUS
 62
     6
100
AcDbLine
 10
238.236165
 20
190.3
 30
0.0
 11
239.390865
 21
192.3
 31
0.0
  0
LINE
  5
222
330
1F
100
AcDbEntity
  8
GR1-1
  6
CONTINUOUS
 62
     6
100
AcDbLine
 10
239.390865
 20
192.3
 30
0.0
 11
240.545566
 21
190.3
 31
0.0
  0
LINE
  5
223
330
1F
100
AcDbEntity
  8
GR1-1
  6
CONTINUOUS
 62
     6
100
AcDbLine
 10
241.122916
 20
189.3
 30
0.0
 11
241.534199
 21
188.587637
 31
0.0
  0
LINE
  5
224
330
1F
100
AcDbEntity
  8
GR1-1
  6
CONTINUOUS
 62
     6
100
AcDbLine
 10
241.122916
 20
189.3
 30
0.0
 11
239.968215
 21
187.3
 31
0.0
  0
LINE
  5
225
330
1F
100
AcDbEntity
  8
GR1-1
  6
CONTINUOUS
 62
     6
100
AcDbLine
 10
239.968215
 20
187.3
 30
0.0
 11
241.122916
 21
185.3
 31
0.0
  0
LINE
  5
226
330
1F
100
AcDbEntity
  8
GR1-1
  6
CONTINUOUS
 62
     6
100
AcDbLine
 10
241.122916
 20
185.3
 30
0.0
 11
241.657697
 21
186.226268
 31
0.0
  0
LINE
  5
227
330
1F
100
AcDbEntity
  8
GR1-1
  6
CONTINUOUS
 62
     6
100
AcDbLine
 10
239.390865
 20
186.3
 30
0.0
 11
238.236165
 21
184.3
 31
0.0
  0
LINE
  5
228
330
1F
100
AcDbEntity
  8
GR1-1
  6
CONTINUOUS
 62
     6
100
AcDbLine
 10
238.236165
 20
184.3
 30
0.0
 11
239.390865
 21
182.3
 31
0.0
  0
LINE
  5
229
330
1F
100
AcDbEntity
  8
GR1-1
  6
CONTINUOUS
 62
     6
100
AcDbLine
 10
239.390865
 20
182.3
 30
0.0
 11
240.545566
 21
184.3
 31
0.0
  0
LINE
  5
22A
330
1F
100
AcDbEntity
  8
GR1-1
  6
CONTINUOUS
 62
     6
100
AcDbLine
 10
240.545566
 20
184.3
 30
0.0
 11
239.390865
 21
186.3
 31
0.0
  0
LINE
  5
22B
330
1F
100
AcDbEntity
  8
GR1-1
  6
CONTINUOUS
 62
     6
100
AcDbLine
 10
238.813515
 20
187.3
 30
0.0
 11
237.658814
 21
185.3
 31
0.0
  0
LINE
  5
22C
330
1F
100
AcDbEntity
  8
GR1-1
  6
CONTINUOUS
 62
     6
100
AcDbLine
 10
237.658814
 20
185.3
 30
0.0
 11
236.504114
 21
187.3
 31
0.0
  0
LINE
  5
22D
330
1F
100
AcDbEntity
  8
GR1-1
  6
CONTINUOUS
 62
     6
100
AcDbLine
 10
236.504114
 20
187.3
 30
0.0
 11
237.658814
 21
189.3
 31
0.0
  0
LINE
  5
22E
330
1F
100
AcDbEntity
  8
GR1-1
  6
CONTINUOUS
 62
     6
100
AcDbLine
 10
237.658814
 20
189.3
 30
0.0
 11
238.813515
 21
187.3
 31
0.0
  0
LINE
  5
22F
330
1F
100
AcDbEntity
  8
GR1-1
  6
CONTINUOUS
 62
     6
100
AcDbLine
 10
235.926763
 20
186.3
 30
0.0
 11
237.081464
 21
184.3
 31
0.0
  0
LINE
  5
230
330
1F
100
AcDbEntity
  8
GR1-1
  6
CONTINUOUS
 62
     6
100
AcDbLine
 10
237.081464
 20
184.3
 30
0.0
 11
235.926763
 21
182.3
 31
0.0
  0
LINE
  5
231
330
1F
100
AcDbEntity
  8
GR1-1
  6
CONTINUOUS
 62
     6
100
AcDbLine
 10
235.926763
 20
182.3
 30
0.0
 11
234.772063
 21
184.3
 31
0.0
  0
LINE
  5
232
330
1F
100
AcDbEntity
  8
GR1-1
  6
CONTINUOUS
 62
     6
100
AcDbLine
 10
234.772063
 20
184.3
 30
0.0
 11
235.926763
 21
186.3
 31
0.0
  0
LINE
  5
233
330
1F
100
AcDbEntity
  8
GR1-1
  6
CONTINUOUS
 62
     6
100
AcDbLine
 10
235.349413
 20
187.3
 30
0.0
 11
234.194713
 21
189.3
 31
0.0
  0
LINE
  5
234
330
1F
100
AcDbEntity
  8
GR1-1
  6
CONTINUOUS
 62
     6
100
AcDbLine
 10
234.194713
 20
189.3
 30
0.0
 11
233.703684
 21
188.449513
 31
0.0
  0
LINE
  5
235
330
1F
100
AcDbEntity
  8
GR1-1
  6
CONTINUOUS
 62
     6
100
AcDbLine
 10
235.349413
 20
187.3
 30
0.0
 11
234.194713
 21
185.3
 31
0.0
  0
LINE
  5
236
330
1F
100
AcDbEntity
  8
GR1-1
  6
CONTINUOUS
 62
     6
100
AcDbLine
 10
234.194713
 20
185.3
 30
0.0
 11
233.593822
 21
186.340772
 31
0.0
  0
LINE
  5
237
330
1F
100
AcDbEntity
  8
GR1-1
  6
CONTINUOUS
 62
     6
100
AcDbLine
 10
235.926763
 20
188.3
 30
0.0
 11
234.772063
 21
190.3
 31
0.0
  0
LINE
  5
238
330
1F
100
AcDbEntity
  8
GR1-1
  6
CONTINUOUS
 62
     6
100
AcDbLine
 10
234.772063
 20
190.3
 30
0.0
 11
235.926763
 21
192.3
 31
0.0
  0
LINE
  5
239
330
1F
100
AcDbEntity
  8
GR1-1
  6
CONTINUOUS
 62
     6
100
AcDbLine
 10
235.926763
 20
192.3
 30
0.0
 11
237.081464
 21
190.3
 31
0.0
  0
LINE
  5
23A
330
1F
100
AcDbEntity
  8
GR1-1
  6
CONTINUOUS
 62
     6
100
AcDbLine
 10
237.081464
 20
190.3
 30
0.0
 11
235.926763
 21
188.3
 31
0.0
  0
LINE
  5
23B
330
1F
100
AcDbEntity
  8
GR1-1
  6
CONTINUOUS
 62
     6
100
AcDbLine
 10
237.658814
 20
191.3
 30
0.0
 11
236.504114
 21
193.3
 31
0.0
  0
LINE
  5
23C
330
1F
100
AcDbEntity
  8
GR1-1
  6
CONTINUOUS
 62
     6
100
AcDbLine
 10
236.504114
 20
193.3
 30
0.0
 11
236.792789
 21
193.8
 31
0.0
  0
LINE
  5
23D
330
1F
100
AcDbEntity
  8
GR1-1
  6
CONTINUOUS
 62
     6
100
AcDbLine
 10
238.52484
 20
193.8
 30
0.0
 11
238.813515
 21
193.3
 31
0.0
  0
LINE
  5
23E
330
1F
100
AcDbEntity
  8
GR1-1
  6
CONTINUOUS
 62
     6
100
AcDbLine
 10
238.813515
 20
193.3
 30
0.0
 11
237.658814
 21
191.3
 31
0.0
  0
LINE
  5
23F
330
1F
100
AcDbEntity
  8
GR1-1
  6
CONTINUOUS
 62
     6
100
AcDbLine
 10
237.658814
 20
183.3
 30
0.0
 11
236.504114
 21
181.3
 31
0.0
  0
LINE
  5
240
330
1F
100
AcDbEntity
  8
GR1-1
  6
CONTINUOUS
 62
     6
100
AcDbLine
 10
236.504114
 20
181.3
 30
0.0
 11
237.658814
 21
179.3
 31
0.0
  0
LINE
  5
241
330
1F
100
AcDbEntity
  8
GR1-1
  6
CONTINUOUS
 62
     6
100
AcDbLine
 10
237.658814
 20
179.3
 30
0.0
 11
238.813515
 21
181.3
 31
0.0
  0
LINE
  5
242
330
1F
100
AcDbEntity
  8
GR1-1
  6
CONTINUOUS
 62
     6
100
AcDbLine
 10
238.813515
 20
181.3
 30
0.0
 11
237.658814
 21
183.3
 31
0.0
  0
LINE
  5
243
330
1F
100
AcDbEntity
  8
GR1-1
  6
CONTINUOUS
 62
     6
100
AcDbLine
 10
239.968215
 20
181.3
 30
0.0
 11
241.122916
 21
179.3
 31
0.0
  0
LINE
  5
244
330
1F
100
AcDbEntity
  8
GR1-1
  6
CONTINUOUS
 62
     6
100
AcDbLine
 10
241.122916
 20
179.3
 30
0.0
 11
241.534199
 21
180.012363
 31
0.0
  0
LINE
  5
245
330
1F
100
AcDbEntity
  8
GR1-1
  6
CONTINUOUS
 62
     6
100
AcDbLine
 10
239.968215
 20
181.3
 30
0.0
 11
241.122916
 21
183.3
 31
0.0
  0
LINE
  5
246
330
1F
100
AcDbEntity
  8
GR1-1
  6
CONTINUOUS
 62
     6
100
AcDbLine
 10
241.122916
 20
183.3
 30
0.0
 11
241.657697
 21
182.373732
 31
0.0
  0
LINE
  5
247
330
1F
100
AcDbEntity
  8
GR1-1
  6
CONTINUOUS
 62
     6
100
AcDbLine
 10
239.390865
 20
180.3
 30
0.0
 11
238.236165
 21
178.3
 31
0.0
  0
LINE
  5
248
330
1F
100
AcDbEntity
  8
GR1-1
  6
CONTINUOUS
 62
     6
100
AcDbLine
 10
238.236165
 20
178.3
 30
0.0
 11
239.390865
 21
176.3
 31
0.0
  0
LINE
  5
249
330
1F
100
AcDbEntity
  8
GR1-1
  6
CONTINUOUS
 62
     6
100
AcDbLine
 10
239.390865
 20
176.3
 30
0.0
 11
240.545566
 21
178.3
 31
0.0
  0
LINE
  5
24A
330
1F
100
AcDbEntity
  8
GR1-1
  6
CONTINUOUS
 62
     6
100
AcDbLine
 10
240.545566
 20
178.3
 30
0.0
 11
239.390865
 21
180.3
 31
0.0
  0
LINE
  5
24B
330
1F
100
AcDbEntity
  8
GR1-1
  6
CONTINUOUS
 62
     6
100
AcDbLine
 10
237.081464
 20
178.3
 30
0.0
 11
235.926763
 21
180.3
 31
0.0
  0
LINE
  5
24C
330
1F
100
AcDbEntity
  8
GR1-1
  6
CONTINUOUS
 62
     6
100
AcDbLine
 10
235.926763
 20
180.3
 30
0.0
 11
234.772063
 21
178.3
 31
0.0
  0
LINE
  5
24D
330
1F
100
AcDbEntity
  8
GR1-1
  6
CONTINUOUS
 62
     6
100
AcDbLine
 10
234.772063
 20
178.3
 30
0.0
 11
235.926763
 21
176.3
 31
0.0
  0
LINE
  5
24E
330
1F
100
AcDbEntity
  8
GR1-1
  6
CONTINUOUS
 62
     6
100
AcDbLine
 10
235.926763
 20
176.3
 30
0.0
 11
237.081464
 21
178.3
 31
0.0
  0
LINE
  5
24F
330
1F
100
AcDbEntity
  8
GR1-1
  6
CONTINUOUS
 62
     6
100
AcDbLine
 10
237.658814
 20
177.3
 30
0.0
 11
236.567277
 21
175.409402
 31
0.0
  0
LINE
  5
250
330
1F
100
AcDbEntity
  8
GR1-1
  6
CONTINUOUS
 62
     6
100
AcDbLine
 10
234.931511
 20
176.023828
 30
0.0
 11
234.194713
 21
177.3
 31
0.0
  0
LINE
  5
251
330
1F
100
AcDbEntity
  8
GR1-1
  6
CONTINUOUS
 62
     6
100
AcDbLine
 10
234.194713
 20
177.3
 30
0.0
 11
234.030254
 21
177.01515
 31
0.0
  0
LINE
  5
252
330
1F
100
AcDbEntity
  8
GR1-1
  6
CONTINUOUS
 62
     6
100
AcDbLine
 10
234.194713
 20
179.3
 30
0.0
 11
235.349413
 21
181.3
 31
0.0
  0
LINE
  5
253
330
1F
100
AcDbEntity
  8
GR1-1
  6
CONTINUOUS
 62
     6
100
AcDbLine
 10
235.349413
 20
181.3
 30
0.0
 11
234.194713
 21
183.3
 31
0.0
  0
LINE
  5
254
330
1F
100
AcDbEntity
  8
GR1-1
  6
CONTINUOUS
 62
     6
100
AcDbLine
 10
234.194713
 20
183.3
 30
0.0
 11
233.593822
 21
182.259228
 31
0.0
  0
LINE
  5
255
330
1F
100
AcDbEntity
  8
GR1-1
  6
CONTINUOUS
 62
     6
100
AcDbLine
 10
233.703684
 20
180.150487
 30
0.0
 11
234.194713
 21
179.3
 31
0.0
  0
LINE
  5
256
330
1F
100
AcDbEntity
  8
GR1-1
  6
CONTINUOUS
 62
     6
100
AcDbLine
 10
237.658814
 20
177.3
 30
0.0
 11
238.750352
 21
175.409402
 31
0.0
  0
LINE
  5
257
330
1F
100
AcDbEntity
  8
GR1-1
  6
CONTINUOUS
 62
     6
100
AcDbLine
 10
240.386118
 20
176.023828
 30
0.0
 11
241.122916
 21
177.3
 31
0.0
  0
LINE
  5
258
330
1F
100
AcDbEntity
  8
GR1-1
  6
CONTINUOUS
 62
     6
100
AcDbLine
 10
241.122916
 20
177.3
 30
0.0
 11
241.243978
 21
177.090314
 31
0.0
  0
LINE
  5
259
330
1F
100
AcDbEntity
  8
GR1-1
  6
CENTER
 62
     6
100
AcDbLine
 10
237.87185
 20
171.869287
 30
0.0
 11
237.87185
 21
189.348627
 31
0.0
  0
ARC
  5
25A
330
1F
100
AcDbEntity
  8
GR1-1
  6
CENTER
 62
     6
100
AcDbCircle
 10
246.87807
 20
190.985926
 30
0.0
 40
9.0
100
AcDbArc
 50
90.5
 51
180.0
  0
LINE
  5
25B
330
1F
100
AcDbEntity
  8
GR1-1
  6
CENTER
 62
     6
100
AcDbLine
 10
246.79936
 20
200.005136
 30
0.0
 11
271.665929
 21
200.222144
 31
0.0
  0
LINE
  5
25C
330
1F
100
AcDbEntity
  8
GR1-1
  6
CENTER
 62
     6
100
AcDbLine
 10
280.58739
 20
209.221801
 30
0.0
 11
280.58739
 21
220.217768
 31
0.0
  0
LINE
  5
25D
330
1F
100
AcDbEntity
  8
GR1-1
  6
CONTINUOUS
 62
     6
100
AcDbLine
 10
282.58739
 20
266.0
 30
0.0
 11
278.58739
 21
266.0
 31
0.0
  0
LINE
  5
25E
330
1F
100
AcDbEntity
  8
GR1-1
  6
CONTINUOUS
 62
     6
100
AcDbLine
 10
284.451149
 20
212.3
 30
0.0
 11
276.723631
 21
212.3
 31
0.0
  0
ARC
  5
25F
330
1F
100
AcDbEntity
  8
GR1-1
  6
CENTER
 62
     6
100
AcDbCircle
 10
271.58739
 20
209.221801
 30
0.0
 40
9.0
100
AcDbArc
 50
270.5
 51
360.0
  0
LINE
  5
260
330
1F
100
AcDbEntity
  8
GR1-1
  6
CONTINUOUS
 62
     6
100
AcDbLine
 10
282.20839
 20
265.1
 30
0.0
 11
282.20839
 21
266.379
 31
0.0
  0
LINE
  5
261
330
1F
100
AcDbEntity
  8
GR1-1
  6
CONTINUOUS
 62
     6
100
AcDbLine
 10
278.96639
 20
265.1
 30
0.0
 11
278.96639
 21
266.379
 31
0.0
  0
ARC
  5
262
330
1F
100
AcDbEntity
  8
GR1-1
  6
CONTINUOUS
 62
     3
100
AcDbCircle
 10
274.58739
 20
210.310865
 30
0.0
 40
3.0
100
AcDbArc
 50
0.0
 51
33.714035
  0
LINE
  5
263
330
1F
100
AcDbEntity
  8
GR1-1
  6
CONTINUOUS
 62
     3
100
AcDbLine
 10
277.58739
 20
209.221801
 30
0.0
 11
277.58739
 21
210.310865
 31
0.0
  0
ARC
  5
264
330
1F
100
AcDbEntity
  8
LAYERGROUP-1
  6
CONTINUOUS
 62
     3
100
AcDbCircle
 10
280.58739
 20
219.306314
 30
0.0
 40
8.00631396342388
100
AcDbArc
 50
241.145369
 51
298.854631
  0
LINE
  5
265
330
1F
100
AcDbEntity
  8
LAYERGROUP-1
  6
CONTINUOUS
 62
     3
100
AcDbLine
 10
275.156233
 20
220.7
 30
0.0
 11
275.214003
 21
215.815346
 31
0.0
  0
LINE
  5
266
330
1F
100
AcDbEntity
  8
LAYERGROUP-1
  6
CONTINUOUS
 62
     3
100
AcDbLine
 10
285.975006
 20
217.018354
 30
0.0
 11
285.960778
 21
215.815346
 31
0.0
  0
ARC
  5
267
330
1F
100
AcDbEntity
  8
LAYERGROUP-1
  6
CONTINUOUS
 62
     6
100
AcDbCircle
 10
238.077273
 20
191.908175
 30
0.0
 40
3.419340571104175
100
AcDbArc
 50
33.59177
 51
146.40823
  0
ARC
  5
268
330
1F
100
AcDbEntity
  8
LAYERGROUP-1
  6
CONTINUOUS
 62
     6
100
AcDbCircle
 10
239.777881
 20
177.407427
 30
0.0
 40
1.5
100
AcDbArc
 50
301.989699
 51
353.174985
  0
ARC
  5
269
330
1F
100
AcDbEntity
  8
LAYERGROUP-1
  6
CONTINUOUS
 62
     3
100
AcDbCircle
 10
280.961127
 20
215.874476
 30
0.0
 40
5.0
100
AcDbArc
 50
-51.232499
 51
0.24
  0
ARC
  5
26A
330
1F
100
AcDbEntity
  8
LAYERGROUP-1
  6
CONTINUOUS
 62
     3
100
AcDbCircle
 10
280.213653
 20
215.874476
 30
0.0
 40
5.0
100
AcDbArc
 50
179.76
 51
231.232499
  0
LINE
  5
26B
330
1F
100
AcDbEntity
  8
LAYERGROUP-1
  6
CONTINUOUS
 62
     3
100
AcDbLine
 10
285.463465
 20
217.447587
 30
0.0
 11
285.444111
 21
215.811096
 31
0.0
  0
LINE
  5
26C
330
1F
100
AcDbEntity
  8
LAYERGROUP-1
  6
CONTINUOUS
 62
     3
100
AcDbLine
 10
275.346534
 20
220.7
 30
0.0
 11
275.406226
 21
215.652848
 31
0.0
  0
ARC
  5
26D
330
1F
100
AcDbEntity
  8
LAYERGROUP-1
  6
CONTINUOUS
 62
     3
100
AcDbCircle
 10
280.437428
 20
215.275626
 30
0.0
 40
5.0
100
AcDbArc
 50
-36.60704
 51
6.152656
  0
ARC
  5
26E
330
1F
100
AcDbEntity
  8
LAYERGROUP-1
  6
CONTINUOUS
 62
     3
100
AcDbCircle
 10
280.405876
 20
215.711978
 30
0.0
 40
5.0
100
AcDbArc
 50
180.677598
 51
228.347874
  0
LINE
  5
26F
330
1F
100
AcDbEntity
  8
GR1-1
  6
CONTINUOUS
 62
     3
100
AcDbLine
 10
277.628842
 20
264.1
 30
0.0
 11
277.08739
 21
263.787393
 31
0.0
  0
LINE
  5
270
330
1F
100
AcDbEntity
  8
GR1-1
  6
CONTINUOUS
 62
     3
100
AcDbLine
 10
277.08739
 20
263.787393
 30
0.0
 11
277.08739
 21
264.6
 31
0.0
  0
ARC
  5
271
330
1F
100
AcDbEntity
  8
GR1-1
  6
CONTINUOUS
 62
     3
100
AcDbCircle
 10
277.58739
 20
264.6
 30
0.0
 40
0.5
100
AcDbArc
 50
90.0
 51
180.0
  0
LINE
  5
272
330
1F
100
AcDbEntity
  8
GR1-1
  6
CONTINUOUS
 62
     3
100
AcDbLine
 10
277.58739
 20
265.1
 30
0.0
 11
283.58739
 21
265.1
 31
0.0
  0
ARC
  5
273
330
1F
100
AcDbEntity
  8
GR1-1
  6
CONTINUOUS
 62
     3
100
AcDbCircle
 10
283.58739
 20
264.6
 30
0.0
 40
0.5
100
AcDbArc
 50
0.0
 51
90.0
  0
LINE
  5
274
330
1F
100
AcDbEntity
  8
GR1-1
  6
CONTINUOUS
 62
     3
100
AcDbLine
 10
284.08739
 20
264.6
 30
0.0
 11
284.08739
 21
263.787393
 31
0.0
  0
LINE
  5
275
330
1F
100
AcDbEntity
  8
GR1-1
  6
CONTINUOUS
 62
     3
100
AcDbLine
 10
277.617426
 20
261.306591
 30
0.0
 11
277.08739
 21
261.612607
 31
0.0
  0
ARC
  5
276
330
1F
100
AcDbEntity
  8
LAYERGROUP-1
  6
CONTINUOUS
 62
     3
100
AcDbCircle
 10
278.83739
 20
259.04538
 30
0.0
 40
5.054620380519737
100
AcDbArc
 50
69.743842
 51
110.256158
  0
ARC
  5
277
330
1F
100
AcDbEntity
  8
LAYERGROUP-1
  6
CONTINUOUS
 62
     3
100
AcDbCircle
 10
278.83739
 20
266.35462
 30
0.0
 40
5.054620380520339
100
AcDbArc
 50
249.743842
 51
262.769045
  0
ARC
  5
278
330
1F
100
AcDbEntity
  8
LAYERGROUP-1
  6
CONTINUOUS
 62
     3
100
AcDbCircle
 10
282.33739
 20
259.04538
 30
0.0
 40
5.054620380519737
100
AcDbArc
 50
69.743842
 51
110.256158
  0
LINE
  5
279
330
1F
100
AcDbEntity
  8
LAYERGROUP-1
  6
CONTINUOUS
 62
     3
100
AcDbLine
 10
280.58739
 20
263.787393
 30
0.0
 11
280.58739
 21
261.782232
 31
0.0
  0
LINE
  5
27A
330
1F
100
AcDbEntity
  8
LAYERGROUP-1
  6
CONTINUOUS
 62
     3
100
AcDbLine
 10
277.08739
 20
263.787393
 30
0.0
 11
277.08739
 21
261.612607
 31
0.0
  0
LINE
  5
27B
330
1F
100
AcDbEntity
  8
LAYERGROUP-1
  6
CONTINUOUS
 62
     3
100
AcDbLine
 10
284.08739
 20
263.787393
 30
0.0
 11
284.08739
 21
263.459498
 31
0.0
  0
LINE
  5
27C
330
1F
100
AcDbEntity
  8
GR1-1
  6
CONTINUOUS
 62
     3
100
AcDbLine
 10
283.545938
 20
264.1
 30
0.0
 11
284.08739
 21
263.787393
 31
0.0
  0
LINE
  5
27D
330
1F
100
AcDbEntity
  8
LAYERGROUP-1
  6
CONTINUOUS
 62
     3
100
AcDbLine
 10
277.628842
 20
264.1
 30
0.0
 11
283.545938
 21
264.1
 31
0.0
  0
ARC
  5
27E
330
1F
100
AcDbEntity
  8
GR1-1
  6
CONTINUOUS
 62
     3
100
AcDbCircle
 10
255.93739
 20
219.7
 30
0.0
 40
1.0
100
AcDbArc
 50
212.06912
 51
270.0
  0
LINE
  5
27F
330
1F
100
AcDbEntity
  8
GR1-1
  6
CONTINUOUS
 62
     3
100
AcDbLine
 10
255.93739
 20
218.7
 30
0.0
 11
259.23739
 21
218.7
 31
0.0
  0
ARC
  5
280
330
1F
100
AcDbEntity
  8
GR1-1
  6
CONTINUOUS
 62
     3
100
AcDbCircle
 10
259.23739
 20
219.7
 30
0.0
 40
1.0
100
AcDbArc
 50
270.0
 51
360.0
  0
LINE
  5
281
330
1F
100
AcDbEntity
  8
GR1-1
  6
CONTINUOUS
 62
     3
100
AcDbLine
 10
260.23739
 20
219.7
 30
0.0
 11
260.23739
 21
220.678522
 31
0.0
  0
LINE
  5
282
330
1F
100
AcDbEntity
  8
GR1-1
  6
CONTINUOUS
 62
     3
100
AcDbLine
 10
256.08739
 20
265.3
 30
0.0
 11
256.08739
 21
265.7
 31
0.0
  0
LINE
  5
283
330
1F
100
AcDbEntity
  8
GR1-1
  6
CONTINUOUS
 62
     3
100
AcDbLine
 10
256.08739
 20
265.7
 30
0.0
 11
259.08739
 21
265.7
 31
0.0
  0
LINE
  5
284
330
1F
100
AcDbEntity
  8
GR1-1
  6
CONTINUOUS
 62
     3
100
AcDbLine
 10
259.08739
 20
265.7
 30
0.0
 11
259.08739
 21
265.3
 31
0.0
  0
LINE
  5
285
330
1F
100
AcDbEntity
  8
GR1-1
  6
CONTINUOUS
 62
     6
100
AcDbLine
 10
256.35789
 20
265.7
 30
0.0
 11
256.35789
 21
265.3
 31
0.0
  0
LINE
  5
286
330
1F
100
AcDbEntity
  8
GR1-1
  6
CONTINUOUS
 62
     6
100
AcDbLine
 10
258.81689
 20
265.3
 30
0.0
 11
258.81689
 21
265.7
 31
0.0
  0
LINE
  5
287
330
1F
100
AcDbEntity
  8
GR1-1
  6
CONTINUOUS
 62
     3
100
AcDbLine
 10
259.83739
 20
265.3
 30
0.0
 11
255.33739
 21
265.3
 31
0.0
  0
ARC
  5
288
330
1F
100
AcDbEntity
  8
GR1-1
  6
CONTINUOUS
 62
     3
100
AcDbCircle
 10
255.33739
 20
264.8
 30
0.0
 40
0.5
100
AcDbArc
 50
90.0
 51
180.0
  0
LINE
  5
289
330
1F
100
AcDbEntity
  8
GR1-1
  6
CONTINUOUS
 62
     3
100
AcDbLine
 10
254.83739
 20
264.8
 30
0.0
 11
254.83739
 21
262.97651
 31
0.0
  0
LINE
  5
28A
330
1F
100
AcDbEntity
  8
GR1-1
  6
CONTINUOUS
 62
     3
100
AcDbLine
 10
260.33739
 20
261.3
 30
0.0
 11
260.33739
 21
264.8
 31
0.0
  0
ARC
  5
28B
330
1F
100
AcDbEntity
  8
GR1-1
  6
CONTINUOUS
 62
     3
100
AcDbCircle
 10
259.83739
 20
264.8
 30
0.0
 40
0.5
100
AcDbArc
 50
0.0
 51
90.0
  0
ARC
  5
28C
330
1F
100
AcDbEntity
  8
LAYERGROUP-1
  6
CONTINUOUS
 62
     3
100
AcDbCircle
 10
256.21239
 20
259.828513
 30
0.0
 40
3.971487441822797
100
AcDbArc
 50
69.743842
 51
110.256158
  0
ARC
  5
28D
330
1F
100
AcDbEntity
  8
LAYERGROUP-1
  6
CONTINUOUS
 62
     3
100
AcDbCircle
 10
258.96239
 20
259.828513
 30
0.0
 40
3.971487441822797
100
AcDbArc
 50
69.743842
 51
110.256158
  0
ARC
  5
28E
330
1F
100
AcDbEntity
  8
LAYERGROUP-1
  6
CONTINUOUS
 62
     3
100
AcDbCircle
 10
258.96239
 20
265.271487
 30
0.0
 40
3.971487441821736
100
AcDbArc
 50
280.538861
 51
290.256158
  0
LINE
  5
28F
330
1F
100
AcDbEntity
  8
LAYERGROUP-1
  6
CONTINUOUS
 62
     3
100
AcDbLine
 10
254.83739
 20
263.8
 30
0.0
 11
260.33739
 21
263.8
 31
0.0
  0
LINE
  5
290
330
1F
100
AcDbEntity
  8
LAYERGROUP-1
  6
CONTINUOUS
 62
     6
100
AcDbLine
 10
281.58739
 20
125.591673
 30
0.0
 11
281.58739
 21
86.570701
 31
0.0
  0
DIMENSION
  5
291
330
1F
100
AcDbEntity
  8
LAYERGROUP-1
100
AcDbDimension
  2
*D26
 10
188.237622
 20
158.5
 30
0.0
 11
155.114548
 21
159.5
 31
0.0
 70
    32
  3
FXDIMINFO
100
AcDbAlignedDimension
 13
121.991495
 23
151.237154
 33
0.0
 14
188.237622
 24
111.081416
 34
0.0
 50
180.0
100
AcDbRotatedDimension
1001
ACAD
1000
DSTYLE
1002
{
1070
     7
1000
FXTIP_ARROW_E
1070
     6
1000
FXTIP_ARROW_S
1070
   173
1070
     1
1002
}
  0
LINE
  5
29B
330
1F
100
AcDbEntity
  8
LAYERGROUP-1
  6
CONTINUOUS
 62
     3
100
AcDbLine
 10
257.58739
 20
261.782232
 30
0.0
 11
257.58739
 21
263.55438
 31
0.0
  0
LINE
  5
29C
330
1F
100
AcDbEntity
  8
GR1-1
  6
CONTINUOUS
 62
     6
100
AcDbLine
 10
115.063257
 20
121.807427
 30
0.0
 11
110.441495
 21
121.807427
 31
0.0
  0
ARC
  5
29D
330
1F
100
AcDbEntity
  8
LAYERGROUP-1
  6
CONTINUOUS
 62
     3
100
AcDbCircle
 10
-28.270594
 20
7.363643
 30
0.0
 40
294.0526770456281
100
AcDbArc
 50
21.983044
 51
22.691156
  0
LINE
  5
29E
330
1F
100
AcDbEntity
  8
LAYERGROUP-1
  6
CONTINUOUS
 62
     3
100
AcDbLine
 10
246.174276
 20
111.642767
 30
0.0
 11
255.85013
 21
83.542046
 31
0.0
  0
LINE
  5
29F
330
1F
100
AcDbEntity
  8
LAYERGROUP-1
  6
CONTINUOUS
 62
     6
100
AcDbLine
 10
256.58739
 20
116.498482
 30
0.0
 11
256.58739
 21
90.389426
 31
0.0
  0
LINE
  5
2A0
330
1F
100
AcDbEntity
  8
LAYERGROUP-1
  6
CONTINUOUS
 62
     6
100
AcDbLine
 10
281.58739
 20
262.123073
 30
0.0
 11
281.58739
 21
219.876927
 31
0.0
  0
LINE
  5
2A1
330
1F
100
AcDbEntity
  8
GR1-1
  6
CONTINUOUS
 62
     3
100
AcDbLine
 10
139.991495
 20
80.0
 30
0.0
 11
139.741495
 21
80.0
 31
0.0
  0
LINE
  5
2A2
330
1F
100
AcDbEntity
  8
GR1-1
  6
CONTINUOUS
 62
     3
100
AcDbLine
 10
139.741495
 20
90.0
 30
0.0
 11
139.991495
 21
90.0
 31
0.0
  0
TEXT
  5
2A3
330
1F
100
AcDbEntity
  8
}}ﾊﾊGG血CCТ
  6
CONTINUOUS
 62
     7
100
AcDbText
 10
155.146072
 20
12.0
 30
0.0
 40
6.0
  1
ＷＫ－　７５　ＲＢ　ＳＲ
 41
0.788732
  7
FX_VECTOR
 72
     5
 11
203.146072
 21
12.0
 31
0.0
100
AcDbText
  0
LINE
  5
2A4
330
1F
100
AcDbEntity
  8
}}ﾊﾊGG血CCТ
  6
CENTER
 62
     6
100
AcDbLine
 10
300.58739
 20
151.12677
 30
0.0
 11
300.58739
 21
141.478834
 31
0.0
  0
LINE
  5
2A5
330
1F
100
AcDbEntity
  8
}}ﾊﾊGG血CCТ
  6
CENTER
 62
     6
100
AcDbLine
 10
237.58739
 20
151.12677
 30
0.0
 11
237.58739
 21
141.478834
 31
0.0
  0
LINE
  5
2A6
330
1F
100
AcDbEntity
  8
LAYERGROUP-1
  6
CENTER
 62
     6
100
AcDbLine
 10
101.991495
 20
150.237154
 30
0.0
 11
101.991495
 21
141.478834
 31
0.0
  0
LINE
  5
2A7
330
1F
100
AcDbEntity
  8
LAYERGROUP-1
  6
CENTER
 62
     6
100
AcDbLine
 10
141.991495
 20
150.237154
 30
0.0
 11
141.991495
 21
141.478834
 31
0.0
  0
TEXT
  5
2A8
330
1F
100
AcDbEntity
  8
GR1-1
  6
CONTINUOUS
 62
     7
100
AcDbText
 10
264.476257
 20
125.762093
 30
0.0
 40
9.784199
  1
 -75
 50
270.0
 41
0.658667
  7
FX_VECTOR
 72
     5
 11
264.476257
 21
99.983984
 31
0.0
100
AcDbText
  0
DIMENSION
  5
2A9
330
1F
100
AcDbEntity
  8
}}ﾊﾊGG血CCТ
100
AcDbDimension
  2
*D27
 10
326.58739
 20
147.5
 30
0.0
 11
325.587402
 21
116.25
 31
0.0
 70
    32
  3
FXDIMINFO
100
AcDbAlignedDimension
 13
309.031547
 23
85.0
 33
0.0
 14
312.58739
 24
147.5
 34
0.0
 50
270.0
100
AcDbRotatedDimension
1001
ACAD
1000
DSTYLE
1002
{
1070
     7
1000
FXTIP_ARROW_E
1070
     6
1000
FXTIP_ARROW_S
1070
   173
1070
     1
1002
}
  0
DIMENSION
  5
2B3
330
1F
100
AcDbEntity
  8
}}ﾊﾊGG血CCТ
100
AcDbDimension
  2
*D28
 10
336.58739
 20
147.5
 30
0.0
 11
335.587402
 21
97.5
 31
0.0
 70
    32
  3
FXDIMINFO
100
AcDbAlignedDimension
 13
269.08739
 23
47.5
 33
0.0
 14
312.58739
 24
147.5
 34
0.0
 50
270.0
100
AcDbRotatedDimension
1001
ACAD
1000
DSTYLE
1002
{
1070
     7
1000
FXTIP_ARROW_E
1070
     6
1000
FXTIP_ARROW_S
1070
   173
1070
     1
1002
}
  0
LINE
  5
2BD
330
1F
100
AcDbEntity
  8
LAYERGROUP-1
  6
CENTER
 62
     6
100
AcDbLine
 10
244.152999
 20
261.0
 30
0.0
 11
231.943139
 21
261.0
 31
0.0
  0
LINE
  5
2BE
330
1F
100
AcDbEntity
  8
LAYERGROUP-1
  6
CENTER
 62
     6
100
AcDbLine
 10
237.58739
 20
266.364644
 30
0.0
 11
237.58739
 21
255.525029
 31
0.0
  0
LINE
  5
2BF
330
1F
100
AcDbEntity
  8
LAYERGROUP-1
  6
CENTER
 62
     6
100
AcDbLine
 10
244.152999
 20
221.0
 30
0.0
 11
231.943139
 21
221.0
 31
0.0
  0
LINE
  5
2C0
330
1F
100
AcDbEntity
  8
LAYERGROUP-1
  6
CENTER
 62
     6
100
AcDbLine
 10
237.58739
 20
226.364644
 30
0.0
 11
237.58739
 21
215.525029
 31
0.0
  0
LINE
  5
2C1
330
1F
100
AcDbEntity
  8
LAYERGROUP-1
  6
CENTER
 62
     6
100
AcDbLine
 10
307.152999
 20
221.0
 30
0.0
 11
294.943139
 21
221.0
 31
0.0
  0
LINE
  5
2C2
330
1F
100
AcDbEntity
  8
LAYERGROUP-1
  6
CENTER
 62
     6
100
AcDbLine
 10
300.58739
 20
226.364644
 30
0.0
 11
300.58739
 21
215.525029
 31
0.0
  0
LINE
  5
2C3
330
1F
100
AcDbEntity
  8
}}ﾊﾊGG血CCТ
  6
CENTER
 62
     6
100
AcDbLine
 10
280.58739
 20
259.252455
 30
0.0
 11
280.58739
 21
268.381137
 31
0.0
  0
LINE
  5
2C4
330
1F
100
AcDbEntity
  8
}}ﾊﾊGG血CCТ
  6
CENTER
 62
     6
100
AcDbLine
 10
257.58739
 20
215.328941
 30
0.0
 11
257.58739
 21
222.473127
 31
0.0
  0
LINE
  5
2C5
330
1F
100
AcDbEntity
  8
}}ﾊﾊGG血CCТ
  6
CENTER
 62
     6
100
AcDbLine
 10
257.58739
 20
258.590956
 30
0.0
 11
257.58739
 21
267.587339
 31
0.0
  0
CIRCLE
  5
2C6
330
1F
100
AcDbEntity
  8
GR1-1
  6
CONTINUOUS
 62
     3
100
AcDbCircle
 10
257.58739
 20
131.0
 30
0.0
 40
2.65
  0
LINE
  5
2C7
330
1F
100
AcDbEntity
  8
GR1-1
  6
CONTINUOUS
 62
     6
100
AcDbLine
 10
256.08739
 20
130.5
 30
0.0
 11
256.78739
 21
130.5
 31
0.0
  0
LINE
  5
2C8
330
1F
100
AcDbEntity
  8
GR1-1
  6
CONTINUOUS
 62
     6
100
AcDbLine
 10
256.78739
 20
130.5
 30
0.0
 11
257.08739
 21
130.2
 31
0.0
  0
LINE
  5
2C9
330
1F
100
AcDbEntity
  8
GR1-1
  6
CONTINUOUS
 62
     6
100
AcDbLine
 10
257.08739
 20
130.2
 30
0.0
 11
257.08739
 21
129.5
 31
0.0
  0
LINE
  5
2CA
330
1F
100
AcDbEntity
  8
GR1-1
  6
CONTINUOUS
 62
     6
100
AcDbLine
 10
257.08739
 20
129.5
 30
0.0
 11
258.08739
 21
129.5
 31
0.0
  0
LINE
  5
2CB
330
1F
100
AcDbEntity
  8
GR1-1
  6
CONTINUOUS
 62
     6
100
AcDbLine
 10
258.08739
 20
129.5
 30
0.0
 11
258.08739
 21
130.2
 31
0.0
  0
LINE
  5
2CC
330
1F
100
AcDbEntity
  8
GR1-1
  6
CONTINUOUS
 62
     6
100
AcDbLine
 10
258.08739
 20
130.2
 30
0.0
 11
258.38739
 21
130.5
 31
0.0
  0
LINE
  5
2CD
330
1F
100
AcDbEntity
  8
GR1-1
  6
CONTINUOUS
 62
     6
100
AcDbLine
 10
258.38739
 20
130.5
 30
0.0
 11
259.08739
 21
130.5
 31
0.0
  0
LINE
  5
2CE
330
1F
100
AcDbEntity
  8
GR1-1
  6
CONTINUOUS
 62
     6
100
AcDbLine
 10
259.08739
 20
130.5
 30
0.0
 11
259.08739
 21
131.5
 31
0.0
  0
LINE
  5
2CF
330
1F
100
AcDbEntity
  8
GR1-1
  6
CONTINUOUS
 62
     6
100
AcDbLine
 10
259.08739
 20
131.5
 30
0.0
 11
258.38739
 21
131.5
 31
0.0
  0
LINE
  5
2D0
330
1F
100
AcDbEntity
  8
GR1-1
  6
CONTINUOUS
 62
     6
100
AcDbLine
 10
258.38739
 20
131.5
 30
0.0
 11
258.08739
 21
131.8
 31
0.0
  0
LINE
  5
2D1
330
1F
100
AcDbEntity
  8
GR1-1
  6
CONTINUOUS
 62
     6
100
AcDbLine
 10
258.08739
 20
131.8
 30
0.0
 11
258.08739
 21
132.5
 31
0.0
  0
LINE
  5
2D2
330
1F
100
AcDbEntity
  8
GR1-1
  6
CONTINUOUS
 62
     6
100
AcDbLine
 10
258.08739
 20
132.5
 30
0.0
 11
257.08739
 21
132.5
 31
0.0
  0
LINE
  5
2D3
330
1F
100
AcDbEntity
  8
GR1-1
  6
CONTINUOUS
 62
     6
100
AcDbLine
 10
257.08739
 20
132.5
 30
0.0
 11
257.08739
 21
131.8
 31
0.0
  0
LINE
  5
2D4
330
1F
100
AcDbEntity
  8
GR1-1
  6
CONTINUOUS
 62
     6
100
AcDbLine
 10
257.08739
 20
131.8
 30
0.0
 11
256.78739
 21
131.5
 31
0.0
  0
LINE
  5
2D5
330
1F
100
AcDbEntity
  8
GR1-1
  6
CONTINUOUS
 62
     6
100
AcDbLine
 10
256.78739
 20
131.5
 30
0.0
 11
256.08739
 21
131.5
 31
0.0
  0
LINE
  5
2D6
330
1F
100
AcDbEntity
  8
GR1-1
  6
CONTINUOUS
 62
     6
100
AcDbLine
 10
256.08739
 20
131.5
 30
0.0
 11
256.08739
 21
130.5
 31
0.0
  0
LINE
  5
2D7
330
1F
100
AcDbEntity
  8
GR1-1
  6
CONTINUOUS
 62
     3
100
AcDbLine
 10
104.641495
 20
93.333333
 30
0.0
 11
105.991495
 21
93.333333
 31
0.0
  0
LINE
  5
2D8
330
1F
100
AcDbEntity
  8
GR1-1
  6
CONTINUOUS
 62
     3
100
AcDbLine
 10
104.641495
 20
76.666667
 30
0.0
 11
105.991495
 21
76.666667
 31
0.0
  0
LINE
  5
2D9
330
1F
100
AcDbEntity
  8
GR1-1
  6
CONTINUOUS
 62
     3
100
AcDbLine
 10
137.991495
 20
111.5
 30
0.0
 11
137.991495
 21
108.922975
 31
0.0
  0
LINE
  5
2DA
330
1F
100
AcDbEntity
  8
GR1-1
  6
CONTINUOUS
 62
     3
100
AcDbLine
 10
137.991495
 20
111.5
 30
0.0
 11
133.391786
 21
119.46693
 31
0.0
  0
LINE
  5
2DB
330
1F
100
AcDbEntity
  8
GR1-1
  6
CONTINUOUS
 62
     3
100
AcDbLine
 10
105.991495
 20
111.5
 30
0.0
 11
105.991495
 21
108.922975
 31
0.0
  0
LINE
  5
2DC
330
1F
100
AcDbEntity
  8
GR1-1
  6
CONTINUOUS
 62
     3
100
AcDbLine
 10
105.991495
 20
111.5
 30
0.0
 11
110.591204
 21
119.46693
 31
0.0
  0
ARC
  5
2DD
330
1F
100
AcDbEntity
  8
GR1-1
  6
CONTINUOUS
 62
     3
100
AcDbCircle
 10
121.991495
 20
87.5
 30
0.0
 40
35.0
100
AcDbArc
 50
75.16679
 51
104.83321
  0
ARC
  5
2DE
330
1F
100
AcDbEntity
  8
GR1-1
  6
CONTINUOUS
 62
     3
100
AcDbCircle
 10
129.927684
 20
117.46693
 30
0.0
 40
4.0
100
AcDbArc
 50
30.0
 51
75.16679
  0
ARC
  5
2DF
330
1F
100
AcDbEntity
  8
GR1-1
  6
CONTINUOUS
 62
     3
100
AcDbCircle
 10
114.055306
 20
117.46693
 30
0.0
 40
4.0
100
AcDbArc
 50
104.83321
 51
150.0
  0
LINE
  5
2E0
330
1F
100
AcDbEntity
  8
GR1-1
  6
CONTINUOUS
 62
     3
100
AcDbLine
 10
137.991495
 20
58.5
 30
0.0
 11
137.991495
 21
85.0
 31
0.0
  0
LINE
  5
2E1
330
1F
100
AcDbEntity
  8
GR1-1
  6
CONTINUOUS
 62
     3
100
AcDbLine
 10
137.991495
 20
58.5
 30
0.0
 11
133.391786
 21
50.53307
 31
0.0
  0
LINE
  5
2E2
330
1F
100
AcDbEntity
  8
GR1-1
  6
CONTINUOUS
 62
     3
100
AcDbLine
 10
105.991495
 20
58.5
 30
0.0
 11
105.991495
 21
61.077025
 31
0.0
  0
LINE
  5
2E3
330
1F
100
AcDbEntity
  8
GR1-1
  6
CONTINUOUS
 62
     3
100
AcDbLine
 10
105.991495
 20
58.5
 30
0.0
 11
110.591204
 21
50.53307
 31
0.0
  0
ARC
  5
2E4
330
1F
100
AcDbEntity
  8
GR1-1
  6
CONTINUOUS
 62
     3
100
AcDbCircle
 10
121.991495
 20
82.5
 30
0.0
 40
35.0
100
AcDbArc
 50
255.16679
 51
284.83321
  0
ARC
  5
2E5
330
1F
100
AcDbEntity
  8
GR1-1
  6
CONTINUOUS
 62
     3
100
AcDbCircle
 10
129.927684
 20
52.53307
 30
0.0
 40
4.0
100
AcDbArc
 50
284.83321
 51
330.0
  0
ARC
  5
2E6
330
1F
100
AcDbEntity
  8
GR1-1
  6
CONTINUOUS
 62
     3
100
AcDbCircle
 10
114.055306
 20
52.53307
 30
0.0
 40
4.0
100
AcDbArc
 50
210.0
 51
255.16679
  0
LINE
  5
2E7
330
1F
100
AcDbEntity
  8
GR1-1
  6
CONTINUOUS
 62
     3
100
AcDbLine
 10
105.991495
 20
61.077025
 30
0.0
 11
105.991495
 21
108.922975
 31
0.0
  0
LINE
  5
2E8
330
1F
100
AcDbEntity
  8
GR1-1
  6
CONTINUOUS
 62
     6
100
AcDbLine
 10
111.393747
 20
120.024483
 30
0.0
 11
111.393747
 21
85.0
 31
0.0
  0
LINE
  5
2E9
330
1F
100
AcDbEntity
  8
GR1-1
  6
CONTINUOUS
 62
     6
100
AcDbLine
 10
132.589243
 20
120.024483
 30
0.0
 11
132.589243
 21
85.0
 31
0.0
  0
LINE
  5
2EA
330
1F
100
AcDbEntity
  8
GR1-1
  6
CONTINUOUS
 62
     3
100
AcDbLine
 10
137.991495
 20
85.0
 30
0.0
 11
137.991495
 21
108.922975
 31
0.0
  0
LINE
  5
2EB
330
1F
100
AcDbEntity
  8
GR1-1
  6
CONTINUOUS
 62
     3
100
AcDbLine
 10
104.241495
 20
92.933333
 30
0.0
 11
104.241495
 21
77.066667
 31
0.0
  0
ARC
  5
2EC
330
1F
100
AcDbEntity
  8
GR1-1
  6
CONTINUOUS
 62
     3
100
AcDbCircle
 10
104.641495
 20
92.933333
 30
0.0
 40
0.4
100
AcDbArc
 50
90.0
 51
180.0
  0
ARC
  5
2ED
330
1F
100
AcDbEntity
  8
GR1-1
  6
CONTINUOUS
 62
     3
100
AcDbCircle
 10
104.641495
 20
77.066667
 30
0.0
 40
0.4
100
AcDbArc
 50
180.0
 51
270.0
  0
LINE
  5
2EE
330
1F
100
AcDbEntity
  8
GR1-1
  6
CONTINUOUS
 62
     3
100
AcDbLine
 10
139.341495
 20
93.333333
 30
0.0
 11
137.991495
 21
93.333333
 31
0.0
  0
LINE
  5
2EF
330
1F
100
AcDbEntity
  8
GR1-1
  6
CONTINUOUS
 62
     3
100
AcDbLine
 10
139.341495
 20
76.666667
 30
0.0
 11
137.991495
 21
76.666667
 31
0.0
  0
LINE
  5
2F0
330
1F
100
AcDbEntity
  8
GR1-1
  6
CONTINUOUS
 62
     3
100
AcDbLine
 10
139.741495
 20
92.933333
 30
0.0
 11
139.741495
 21
77.066667
 31
0.0
  0
ARC
  5
2F1
330
1F
100
AcDbEntity
  8
GR1-1
  6
CONTINUOUS
 62
     3
100
AcDbCircle
 10
139.341495
 20
92.933333
 30
0.0
 40
0.4
100
AcDbArc
 50
0.0
 51
90.0
  0
ARC
  5
2F2
330
1F
100
AcDbEntity
  8
GR1-1
  6
CONTINUOUS
 62
     3
100
AcDbCircle
 10
139.341495
 20
77.066667
 30
0.0
 40
0.4
100
AcDbArc
 50
270.0
 51
360.0
  0
LINE
  5
2F3
330
1F
100
AcDbEntity
  8
GR1-1
  6
CONTINUOUS
 62
     6
100
AcDbLine
 10
111.393747
 20
49.975517
 30
0.0
 11
111.393747
 21
85.0
 31
0.0
  0
LINE
  5
2F4
330
1F
100
AcDbEntity
  8
GR1-1
  6
CONTINUOUS
 62
     6
100
AcDbLine
 10
132.589243
 20
49.975517
 30
0.0
 11
132.589243
 21
85.0
 31
0.0
  0
DIMENSION
  5
2F5
330
1F
100
AcDbEntity
  8
LAYERGROUP-1
100
AcDbDimension
  2
*D29
 10
139.741495
 20
27.5
 30
0.0
 11
121.991493
 21
28.5
 31
0.0
 70
    33
  3
FXDIMINFO
100
AcDbAlignedDimension
 13
104.241495
 23
77.066667
 33
0.0
 14
139.741495
 24
77.066667
 34
0.0
1001
ACAD
1000
DSTYLE
1002
{
1070
     7
1000
FXTIP_ARROW_E
1070
     6
1000
FXTIP_ARROW_S
1070
   173
1070
     1
1002
}
  0
ARC
  5
2FF
330
1F
100
AcDbEntity
  8
GR1-1
  6
CONTINUOUS
 62
     3
100
AcDbCircle
 10
269.08739
 20
85.0
 30
0.0
 40
26.5
100
AcDbArc
 50
-221.645184
 51
41.645184
  0
ARC
  5
300
330
1F
100
AcDbEntity
  8
GR1-1
  6
CONTINUOUS
 62
     3
100
AcDbCircle
 10
269.08739
 20
85.0
 30
0.0
 40
15.0
100
AcDbArc
 50
-190.997268
 51
10.997268
  0
TEXT
  5
301
330
1F
100
AcDbEntity
  8
GR1-1
  6
CONTINUOUS
 62
     7
100
AcDbText
 10
252.26474
 20
77.169823
 30
0.0
 40
3.537652
  1
-
 50
111.37915
 41
0.701873
  7
FX_VECTOR
 72
     5
 11
251.316497
 21
79.592048
 31
0.0
100
AcDbText
  0
TEXT
  5
302
330
1F
100
AcDbEntity
  8
GR1-1
  6
CONTINUOUS
 62
     7
100
AcDbText
 10
251.20311
 20
80.053749
 30
0.0
 40
3.537652
  1
7
 50
101.87915
 41
0.908306
  7
FX_VECTOR
 72
     5
 11
250.667654
 21
82.599261
 31
0.0
100
AcDbText
  0
TEXT
  5
303
330
1F
100
AcDbEntity
  8
GR1-1
  6
CONTINUOUS
 62
     7
100
AcDbText
 10
250.632004
 20
83.073349
 30
0.0
 40
3.537652
  1
5
 50
92.37915
 41
0.908306
  7
FX_VECTOR
 72
     5
 11
250.524022
 21
85.672326
 31
0.0
100
AcDbText
  0
TEXT
  5
304
330
1F
100
AcDbEntity
  8
GR1-1
  6
CONTINUOUS
 62
     7
100
AcDbText
 10
253.72937
 20
74.770676
 30
0.0
 40
3.537652
  1
W
 50
120.87915
 41
0.701873
  7
FX_VECTOR
 72
     5
 11
252.394349
 21
77.003177
 31
0.0
100
AcDbText
  0
ARC
  5
305
330
1F
100
AcDbEntity
  8
GR1-1
  6
CONTINUOUS
 62
     3
100
AcDbCircle
 10
269.08739
 20
85.0
 30
0.0
 40
37.5
100
AcDbArc
 50
-219.440088
 51
50.731516
  0
ARC
  5
306
330
1F
100
AcDbEntity
  8
GR1-1
  6
CONTINUOUS
 62
     6
100
AcDbCircle
 10
269.08739
 20
85.0
 30
0.0
 40
24.3
100
AcDbArc
 50
-218.683327
 51
38.683327
  0
INSERT
  5
30A
330
1F
100
AcDbEntity
  8
0
100
AcDbBlockReference
  2
BLKF032
 10
0.0
 20
0.0
 30
0.0
  0
TEXT
  5
362
330
1F
100
AcDbEntity
  8
GR1-1
  6
CONTINUOUS
 62
     7
100
AcDbText
 10
251.178833
 20
61.196365
 30
0.0
 40
4.877275
  1
G
 50
138.62915
 41
1.201412
  7
FX_VECTOR
 72
     5
 11
247.409688
 21
64.515907
 31
0.0
100
AcDbText
  0
TEXT
  5
363
330
1F
100
AcDbEntity
  8
GR1-1
  6
CONTINUOUS
 62
     7
100
AcDbText
 10
248.040298
 20
63.920448
 30
0.0
 40
4.877275
  1
O
 50
130.62915
 41
1.13818
  7
FX_VECTOR
 72
     5
 11
244.769825
 21
67.732248
 31
0.0
100
AcDbText
  0
TEXT
  5
364
330
1F
100
AcDbEntity
  8
GR1-1
  6
CONTINUOUS
 62
     7
100
AcDbText
 10
245.311417
 20
67.054779
 30
0.0
 40
4.877275
  1
L
 50
122.62915
 41
1.351589
  7
FX_VECTOR
 72
     5
 11
242.603272
 21
71.284645
 31
0.0
100
AcDbText
  0
TEXT
  5
365
330
1F
100
AcDbEntity
  8
GR1-1
  6
CONTINUOUS
 62
     7
100
AcDbText
 10
243.045319
 20
70.538391
 30
0.0
 40
4.877275
  1
D
 50
114.62915
 41
1.201412
  7
FX_VECTOR
 72
     5
 11
240.952212
 21
75.103993
 31
0.0
100
AcDbText
  0
TEXT
  5
366
330
1F
100
AcDbEntity
  8
GR1-1
  6
CONTINUOUS
 62
     7
100
AcDbText
 10
240.067978
 20
78.276772
 30
0.0
 40
4.877275
  1
C
 50
98.62915
 41
1.201412
  7
FX_VECTOR
 72
     5
 11
239.314406
 21
83.242448
 31
0.0
100
AcDbText
  0
TEXT
  5
367
330
1F
100
AcDbEntity
  8
GR1-1
  6
CONTINUOUS
 62
     7
100
AcDbText
 10
239.414703
 20
82.380943
 30
0.0
 40
4.877275
  1
A
 50
90.62915
 41
1.272084
  7
FX_VECTOR
 72
     5
 11
239.359553
 21
87.403171
 31
0.0
100
AcDbText
  0
TEXT
  5
368
330
1F
100
AcDbEntity
  8
GR1-1
  6
CONTINUOUS
 62
     7
100
AcDbText
 10
239.338943
 20
86.536072
 30
0.0
 40
4.877275
  1
S
 50
82.62915
 41
1.272084
  7
FX_VECTOR
 72
     5
 11
239.983289
 21
91.517099
 31
0.0
100
AcDbText
  0
TEXT
  5
369
330
1F
100
AcDbEntity
  8
GR1-1
  6
CONTINUOUS
 62
     7
100
AcDbText
 10
239.842255
 20
90.661285
 30
0.0
 40
4.877275
  1
T
 50
74.62915
 41
1.441695
  7
FX_VECTOR
 72
     5
 11
241.173555
 21
95.504162
 31
0.0
100
AcDbText
  0
TEXT
  5
36A
330
1F
100
AcDbEntity
  8
GR1-1
  6
CONTINUOUS
 62
     7
100
AcDbText
 10
240.91478
 20
94.676331
 30
0.0
 40
4.877275
  1
E
 50
66.62915
 41
1.272084
  7
FX_VECTOR
 72
     5
 11
242.907122
 21
99.286795
 31
0.0
100
AcDbText
  0
TEXT
  5
36B
330
1F
100
AcDbEntity
  8
GR1-1
  6
CONTINUOUS
 62
     7
100
AcDbText
 10
242.535629
 20
98.503036
 30
0.0
 40
4.877275
  1
R
 50
58.62915
 41
1.201412
  7
FX_VECTOR
 72
     5
 11
245.150235
 21
102.791352
 31
0.0
100
AcDbText
  0
LINE
  5
36C
330
1F
100
AcDbEntity
  8
GR1-1
  6
CONTINUOUS
 62
     7
100
AcDbLine
 10
256.326375
 20
53.419998
 30
0.0
 11
252.710355
 21
55.134758
 31
0.0
  0
LINE
  5
36D
330
1F
100
AcDbEntity
  8
GR1-1
  6
CONTINUOUS
 62
     7
100
AcDbLine
 10
252.710355
 20
55.134758
 30
0.0
 11
254.425114
 21
58.750778
 31
0.0
  0
LINE
  5
36E
330
1F
100
AcDbEntity
  8
GR1-1
  6
CONTINUOUS
 62
     7
100
AcDbLine
 10
254.425114
 20
58.750778
 30
0.0
 11
258.041134
 21
57.036019
 31
0.0
  0
LINE
  5
36F
330
1F
100
AcDbEntity
  8
GR1-1
  6
CONTINUOUS
 62
     7
100
AcDbLine
 10
258.041134
 20
57.036019
 30
0.0
 11
256.326375
 21
53.419998
 31
0.0
  0
LINE
  5
370
330
1F
100
AcDbEntity
  8
GR1-1
  6
CONTINUOUS
 62
     7
100
AcDbLine
 10
254.567399
 20
54.38078
 30
0.0
 11
253.766199
 21
56.627195
 31
0.0
  0
LINE
  5
371
330
1F
100
AcDbEntity
  8
GR1-1
  6
CONTINUOUS
 62
     7
100
AcDbLine
 10
253.766199
 20
56.627195
 30
0.0
 11
254.618503
 21
56.223022
 31
0.0
  0
LINE
  5
372
330
1F
100
AcDbEntity
  8
GR1-1
  6
CONTINUOUS
 62
     7
100
AcDbLine
 10
254.618503
 20
56.223022
 30
0.0
 11
254.971572
 21
55.233084
 31
0.0
  0
LINE
  5
373
330
1F
100
AcDbEntity
  8
GR1-1
  6
CONTINUOUS
 62
     7
100
AcDbLine
 10
254.971572
 20
55.233084
 30
0.0
 11
256.228049
 21
55.681216
 31
0.0
  0
LINE
  5
374
330
1F
100
AcDbEntity
  8
GR1-1
  6
CONTINUOUS
 62
     7
100
AcDbLine
 10
256.228049
 20
55.681216
 30
0.0
 11
255.779917
 21
56.937693
 31
0.0
  0
LINE
  5
375
330
1F
100
AcDbEntity
  8
GR1-1
  6
CONTINUOUS
 62
     7
100
AcDbLine
 10
255.779917
 20
56.937693
 30
0.0
 11
255.119342
 21
56.702094
 31
0.0
  0
ARC
  5
376
330
1F
100
AcDbEntity
  8
GR1-1
  6
CONTINUOUS
 62
     7
100
AcDbCircle
 10
255.141749
 20
56.63927
 30
0.0
 40
0.0667
100
AcDbArc
 50
109.629147
 51
244.629147
  0
LINE
  5
377
330
1F
100
AcDbEntity
  8
GR1-1
  6
CONTINUOUS
 62
     7
100
AcDbLine
 10
255.113169
 20
56.579003
 30
0.0
 11
255.518641
 21
56.386723
 31
0.0
  0
LINE
  5
378
330
1F
100
AcDbEntity
  8
GR1-1
  6
CONTINUOUS
 62
     7
100
AcDbLine
 10
255.518641
 20
56.386723
 30
0.0
 11
255.375744
 21
56.085388
 31
0.0
  0
LINE
  5
379
330
1F
100
AcDbEntity
  8
GR1-1
  6
CONTINUOUS
 62
     7
100
AcDbLine
 10
255.375744
 20
56.085388
 30
0.0
 11
253.671136
 21
56.893734
 31
0.0
  0
LINE
  5
37A
330
1F
100
AcDbEntity
  8
GR1-1
  6
CONTINUOUS
 62
     7
100
AcDbLine
 10
253.671136
 20
56.893734
 30
0.0
 11
254.249673
 21
58.113731
 31
0.0
  0
LINE
  5
37B
330
1F
100
AcDbEntity
  8
GR1-1
  6
CONTINUOUS
 62
     7
100
AcDbLine
 10
254.249673
 20
58.113731
 30
0.0
 11
254.852343
 21
57.827938
 31
0.0
  0
LINE
  5
37C
330
1F
100
AcDbEntity
  8
GR1-1
  6
CONTINUOUS
 62
     7
100
AcDbLine
 10
254.852343
 20
57.827938
 30
0.0
 11
254.628596
 21
57.356108
 31
0.0
  0
ARC
  5
37D
330
1F
100
AcDbEntity
  8
GR1-1
  6
CONTINUOUS
 62
     7
100
AcDbCircle
 10
254.688863
 20
57.327529
 30
0.0
 40
0.0667
100
AcDbArc
 50
154.629147
 51
289.629147
  0
LINE
  5
37E
330
1F
100
AcDbEntity
  8
GR1-1
  6
CONTINUOUS
 62
     7
100
AcDbLine
 10
254.711269
 20
57.264705
 30
0.0
 11
256.18409
 21
57.789997
 31
0.0
  0
LINE
  5
37F
330
1F
100
AcDbEntity
  8
GR1-1
  6
CONTINUOUS
 62
     7
100
AcDbLine
 10
256.18409
 20
57.789997
 30
0.0
 11
257.080353
 21
55.277043
 31
0.0
  0
LINE
  5
380
330
1F
100
AcDbEntity
  8
GR1-1
  6
CONTINUOUS
 62
     7
100
AcDbLine
 10
257.080353
 20
55.277043
 30
0.0
 11
254.567399
 21
54.38078
 31
0.0
  0
TEXT
  5
381
330
1F
100
AcDbEntity
  8
GR1-1
  6
CONTINUOUS
 62
     7
100
AcDbText
 10
291.935455
 20
104.103882
 30
0.0
 40
4.863612
  1
7
 50
304.62915
 41
1.359714
  7
FX_VECTOR
 72
     5
 11
294.977636
 21
99.698787
 31
0.0
100
AcDbText
  0
TEXT
  5
382
330
1F
100
AcDbEntity
  8
GR1-1
  6
CONTINUOUS
 62
     7
100
AcDbText
 10
294.64267
 20
100.294449
 30
0.0
 40
4.863612
  1
5
 50
295.62915
 41
1.359714
  7
FX_VECTOR
 72
     5
 11
296.958287
 21
95.467686
 31
0.0
100
AcDbText
  0
TEXT
  5
383
330
1F
100
AcDbEntity
  8
GR1-1
  6
CONTINUOUS
 62
     7
100
AcDbText
 10
296.720612
 20
96.108429
 30
0.0
 40
4.863612
  1
X
 50
286.62915
 41
1.359714
  7
FX_VECTOR
 72
     5
 11
298.252648
 21
90.978849
 31
0.0
100
AcDbText
  0
TEXT
  5
384
330
1F
100
AcDbEntity
  8
GR1-1
  6
CONTINUOUS
 62
     7
100
AcDbText
 10
298.118134
 20
91.64888
 30
0.0
 40
4.863612
  1
3
 50
277.62915
 41
1.359714
  7
FX_VECTOR
 72
     5
 11
298.828865
 21
86.342791
 31
0.0
100
AcDbText
  0
TEXT
  5
385
330
1F
100
AcDbEntity
  8
GR1-1
  6
CONTINUOUS
 62
     7
100
AcDbText
 10
298.800842
 20
87.02562
 30
0.0
 40
4.863612
  1
2
 50
268.62915
 41
1.359714
  7
FX_VECTOR
 72
     5
 11
298.672768
 21
81.673674
 31
0.0
100
AcDbText
  0
ARC
  5
386
330
1F
100
AcDbEntity
  8
GR1-1
  6
CONTINUOUS
 62
     6
100
AcDbCircle
 10
269.08739
 20
85.0
 30
0.0
 40
12.6
100
AcDbArc
 50
200.712973
 51
339.287027
  0
ARC
  5
387
330
1F
100
AcDbEntity
  8
GR1-1
  6
CONTINUOUS
 62
     6
100
AcDbCircle
 10
269.08739
 20
85.0
 30
0.0
 40
18.2
100
AcDbArc
 50
-205.456953
 51
25.456953
  0
ARC
  5
388
330
1F
100
AcDbEntity
  8
GR1-1
  6
CONTINUOUS
 62
     6
100
AcDbCircle
 10
269.08739
 20
85.0
 30
0.0
 40
20.34
100
AcDbArc
 50
148.693415
 51
179.68848
  0
ARC
  5
389
330
1F
100
AcDbEntity
  8
GR1-1
  6
CONTINUOUS
 62
     6
100
AcDbCircle
 10
269.08739
 20
85.0
 30
0.0
 40
23.3
100
AcDbArc
 50
-217.113989
 51
37.113989
  0
ARC
  5
38A
330
1F
100
AcDbEntity
  8
GR1-1
  6
CONTINUOUS
 62
     6
100
AcDbCircle
 10
269.08739
 20
85.0
 30
0.0
 40
20.34
100
AcDbArc
 50
-146.318025
 51
31.306585
  0
TEXT
  5
38B
330
1F
100
AcDbEntity
  8
LAYERGROUP-1
  6
CONTINUOUS
 62
     7
100
AcDbText
 10
254.916626
 20
12.0
 30
0.0
 40
6.0
  1
W25B1ALA-C02
 41
0.694215
  7
FX_VECTOR
 72
     5
 11
302.916626
 21
12.0
 31
0.0
100
AcDbText
  0
INSERT
  5
38F
330
1F
100
AcDbEntity
  8
0
100
AcDbBlockReference
  2
BLKF033
 10
0.0
 20
0.0
 30
0.0
  0
ENDSEC
  0
SECTION
  2
OBJECTS
  0
DICTIONARY
  5
C
330
0
100
AcDbDictionary
  3
ACAD_GROUP
350
D
  3
ACAD_LAYOUT
350
1A
  3
ACAD_MLINESTYLE
350
17
  3
ACAD_PLOTSETTINGS
350
19
  3
ACDBHEADERROUNDTRIPXREC
350
3B9
  0
DICTIONARY
  5
D
102
{ACAD_REACTORS
330
C
102
}
330
C
100
AcDbDictionary
  0
DICTIONARY
  5
1A
102
{ACAD_REACTORS
330
C
102
}
330
C
100
AcDbDictionary
  0
DICTIONARY
  5
17
102
{ACAD_REACTORS
330
C
102
}
330
C
100
AcDbDictionary
  3
STANDARD
350
18
  0
DICTIONARY
  5
19
102
{ACAD_REACTORS
330
C
102
}
330
C
100
AcDbDictionary
  0
DICTIONARY
  5
3B9
102
{ACAD_REACTORS
330
C
102
}
330
C
100
AcDbDictionary
  3
CEPSNTYPE
350
3C2
  3
DIMSTYLEDATA
350
3D8
  3
FINGERPRINTGUID
350
3C3
  3
HYPERLINKBASE
350
3BC
  3
INSUNITS
350
3C1
  3
LAYOUTDICT
350
3BE
  3
LWETCUNION
350
3C0
  3
PLOTSETDICT
350
3BF
  3
PSVPSCALE
350
3C5
  3
PUCSBASE
350
3C8
  3
PUCSORGBACK
350
3CE
  3
PUCSORGBOTTOM
350
3CA
  3
PUCSORGFRONT
350
3CD
  3
PUCSORGLEFT
350
3CB
  3
PUCSORGRIGHT
350
3CC
  3
PUCSORGTOP
350
3C9
  3
PUCSORTHOREF
350
3C6
  3
PUCSORTHOVIEW
350
3C7
  3
STYLESHEET
350
3BD
  3
TSTACKALIGN
350
3BA
  3
TSTACKSIZE
350
3BB
  3
UCSBASE
350
3D1
  3
UCSORGBACK
350
3D7
  3
UCSORGBOTTOM
350
3D3
  3
UCSORGFRONT
350
3D6
  3
UCSORGLEFT
350
3D4
  3
UCSORGRIGHT
350
3D5
  3
UCSORGTOP
350
3D2
  3
UCSORTHOREF
350
3CF
  3
UCSORTHOVIEW
350
3D0
  3
VERSIONGUID
350
3C4
  0
MLINESTYLE
  5
18
102
{ACAD_REACTORS
330
17
102
}
330
17
100
AcDbMlineStyle
  2
Standard
 70
     0
  3

 62
   256
 51
90.0
 52
90.0
 71
     2
 49
0.5
 62
   256
  6
BYLAYER
 49
-0.5
 62
   256
  6
BYLAYER
  0
XRECORD
  5
3C2
102
{ACAD_REACTORS
330
3B9
102
}
330
3B9
100
AcDbXrecord
 90
        0
  0
XRECORD
  5
3D8
102
{ACAD_REACTORS
330
3B9
102
}
330
3B9
100
AcDbXrecord
1000
DSTYLE
1002
{
1070
   179
 70
     2
1070
   171
 70
     3
1070
   143
 40
0.03937
1070
   274
 70
     3
1070
    41
 40
4.0
1070
   343
340
41
1070
   344
340
47
1070
   141
 40
2.5
1070
   176
 70
     7
1070
   177
 70
     7
1070
   178
 70
     7
1070
   271
 70
     2
1070
    46
 40
6.0
1070
    43
 40
10.0
1070
    44
 40
1.0
1070
    42
 40
1.0
1070
   147
 40
1.0
1070
   341
340
41
1070
   173
 70
     1
1070
    77
 70
     1
1070
   272
 70
     2
1070
    73
 70
     0
1070
   172
 70
     1
1070
    74
 70
     0
1070
   283
 70
     0
1070
   340
340
3F
1070
   140
 40
4.0
1070
   284
 70
     8
1070
    78
 70
     8
1002
}
  0
XRECORD
  5
3C3
102
{ACAD_REACTORS
330
3B9
102
}
330
3B9
100
AcDbXrecord
  1
{1D645D8C-1D64-40CF-A7F0-23C0A8007744}
  0
XRECORD
  5
3BC
102
{ACAD_REACTORS
330
3B9
102
}
330
3B9
100
AcDbXrecord
  1

  0
XRECORD
  5
3C1
102
{ACAD_REACTORS
330
3B9
102
}
330
3B9
100
AcDbXrecord
 90
        1
  0
XRECORD
  5
3BE
102
{ACAD_REACTORS
330
3B9
102
}
330
3B9
100
AcDbXrecord
340
1A
  0
XRECORD
  5
3C0
102
{ACAD_REACTORS
330
3B9
102
}
330
3B9
100
AcDbXrecord
 90
    10781
  0
XRECORD
  5
3BF
102
{ACAD_REACTORS
330
3B9
102
}
330
3B9
100
AcDbXrecord
340
19
  0
XRECORD
  5
3C5
102
{ACAD_REACTORS
330
3B9
102
}
330
3B9
100
AcDbXrecord
 40
0.0
  0
XRECORD
  5
3C8
102
{ACAD_REACTORS
330
3B9
102
}
330
3B9
100
AcDbXrecord
340
0
  0
XRECORD
  5
3CE
102
{ACAD_REACTORS
330
3B9
102
}
330
3B9
100
AcDbXrecord
 10
0.0
 20
0.0
 30
0.0
  0
XRECORD
  5
3CA
102
{ACAD_REACTORS
330
3B9
102
}
330
3B9
100
AcDbXrecord
 10
0.0
 20
0.0
 30
0.0
  0
XRECORD
  5
3CD
102
{ACAD_REACTORS
330
3B9
102
}
330
3B9
100
AcDbXrecord
 10
0.0
 20
0.0
 30
0.0
  0
XRECORD
  5
3CB
102
{ACAD_REACTORS
330
3B9
102
}
330
3B9
100
AcDbXrecord
 10
0.0
 20
0.0
 30
0.0
  0
XRECORD
  5
3CC
102
{ACAD_REACTORS
330
3B9
102
}
330
3B9
100
AcDbXrecord
 10
0.0
 20
0.0
 30
0.0
  0
XRECORD
  5
3C9
102
{ACAD_REACTORS
330
3B9
102
}
330
3B9
100
AcDbXrecord
 10
0.0
 20
0.0
 30
0.0
  0
XRECORD
  5
3C6
102
{ACAD_REACTORS
330
3B9
102
}
330
3B9
100
AcDbXrecord
340
0
  0
XRECORD
  5
3C7
102
{ACAD_REACTORS
330
3B9
102
}
330
3B9
100
AcDbXrecord
 70
     0
  0
XRECORD
  5
3BD
102
{ACAD_REACTORS
330
3B9
102
}
330
3B9
100
AcDbXrecord
  1

  0
XRECORD
  5
3BA
102
{ACAD_REACTORS
330
3B9
102
}
330
3B9
100
AcDbXrecord
 90
        1
  0
XRECORD
  5
3BB
102
{ACAD_REACTORS
330
3B9
102
}
330
3B9
100
AcDbXrecord
 90
       70
  0
XRECORD
  5
3D1
102
{ACAD_REACTORS
330
3B9
102
}
330
3B9
100
AcDbXrecord
340
0
  0
XRECORD
  5
3D7
102
{ACAD_REACTORS
330
3B9
102
}
330
3B9
100
AcDbXrecord
 10
0.0
 20
0.0
 30
0.0
  0
XRECORD
  5
3D3
102
{ACAD_REACTORS
330
3B9
102
}
330
3B9
100
AcDbXrecord
 10
0.0
 20
0.0
 30
0.0
  0
XRECORD
  5
3D6
102
{ACAD_REACTORS
330
3B9
102
}
330
3B9
100
AcDbXrecord
 10
0.0
 20
0.0
 30
0.0
  0
XRECORD
  5
3D4
102
{ACAD_REACTORS
330
3B9
102
}
330
3B9
100
AcDbXrecord
 10
0.0
 20
0.0
 30
0.0
  0
XRECORD
  5
3D5
102
{ACAD_REACTORS
330
3B9
102
}
330
3B9
100
AcDbXrecord
 10
0.0
 20
0.0
 30
0.0
  0
XRECORD
  5
3D2
102
{ACAD_REACTORS
330
3B9
102
}
330
3B9
100
AcDbXrecord
 10
0.0
 20
0.0
 30
0.0
  0
XRECORD
  5
3CF
102
{ACAD_REACTORS
330
3B9
102
}
330
3B9
100
AcDbXrecord
340
0
  0
XRECORD
  5
3D0
102
{ACAD_REACTORS
330
3B9
102
}
330
3B9
100
AcDbXrecord
 70
     0
  0
XRECORD
  5
3C4
102
{ACAD_REACTORS
330
3B9
102
}
330
3B9
100
AcDbXrecord
  1
{FAEB1C32-E019-11D5-929B-00C0DF256EC4}
  0
ENDSEC
  0
EOF
