  0
SECTION
  2
HEADER
  9
$ACADVER
  1
AC1014
  9
$ACADMAINTVER
 70
     9
  9
$DWGCODEPAGE
  3
ANSI_932
  9
$INSBASE
 10
0.0
 20
0.0
 30
0.0
  9
$EXTMIN
 10
0.0
 20
0.0
 30
0.0
  9
$EXTMAX
 10
841.0
 20
594.0
 30
0.0
  9
$LIMMIN
 10
0.0
 20
0.0
  9
$LIMMAX
 10
841.0
 20
594.0
  9
$ORTHOMODE
 70
     0
  9
$REGENMODE
 70
     1
  9
$FILLMODE
 70
     1
  9
$QTEXTMODE
 70
     0
  9
$MIRRTEXT
 70
     1
  9
$DRAGMODE
 70
     2
  9
$LTSCALE
 40
1.0
  9
$OSMODE
 70
    37
  9
$ATTMODE
 70
     1
  9
$TEXTSIZE
 40
0.2
  9
$TRACEWID
 40
0.05
  9
$TEXTSTYLE
  7
STYLE1
  9
$CLAYER
  8
0
  9
$CELTYPE
  6
BYLAYER
  9
$CECOLOR
 62
   256
  9
$CELTSCALE
 40
1.0
  9
$DELOBJ
 70
     1
  9
$DISPSILH
 70
     0
  9
$DIMSCALE
 40
1.0
  9
$DIMASZ
 40
4.0
  9
$DIMEXO
 40
1.0
  9
$DIMDLI
 40
10.0
  9
$DIMRND
 40
0.0
  9
$DIMDLE
 40
6.0
  9
$DIMEXE
 40
1.0
  9
$DIMTP
 40
0.0
  9
$DIMTM
 40
0.0
  9
$DIMTXT
 40
4.0
  9
$DIMCEN
 40
2.5
  9
$DIMTSZ
 40
0.0
  9
$DIMTOL
 70
     0
  9
$DIMLIM
 70
     0
  9
$DIMTIH
 70
     0
  9
$DIMTOH
 70
     0
  9
$DIMSE1
 70
     0
  9
$DIMSE2
 70
     0
  9
$DIMTAD
 70
     1
  9
$DIMZIN
 70
     8
  9
$DIMBLK
  1

  9
$DIMASO
 70
     1
  9
$DIMSHO
 70
     1
  9
$DIMPOST
  1

  9
$DIMAPOST
  1

  9
$DIMALT
 70
     0
  9
$DIMALTD
 70
     3
  9
$DIMALTF
 40
0.03937
  9
$DIMLFAC
 40
1.0
  9
$DIMTOFL
 70
     1
  9
$DIMTVP
 40
0.0
  9
$DIMTIX
 70
     0
  9
$DIMSOXD
 70
     0
  9
$DIMSAH
 70
     1
  9
$DIMBLK1
  1
FXTIP_ARROW_S
  9
$DIMBLK2
  1
FXTIP_ARROW_E
  9
$DIMSTYLE
  2
FXDIMINFO
  9
$DIMCLRD
 70
     7
  9
$DIMCLRE
 70
     7
  9
$DIMCLRT
 70
     7
  9
$DIMTFAC
 40
1.0
  9
$DIMGAP
 40
1.0
  9
$DIMJUST
 70
     0
  9
$DIMSD1
 70
     0
  9
$DIMSD2
 70
     0
  9
$DIMTOLJ
 70
     0
  9
$DIMTZIN
 70
     8
  9
$DIMALTZ
 70
     0
  9
$DIMALTTZ
 70
     0
  9
$DIMFIT
 70
     3
  9
$DIMUPT
 70
     0
  9
$DIMUNIT
 70
     2
  9
$DIMDEC
 70
     2
  9
$DIMTDEC
 70
     2
  9
$DIMALTU
 70
     2
  9
$DIMALTTD
 70
     3
  9
$DIMTXSTY
  7
STYLE1
  9
$DIMAUNIT
 70
     0
  9
$LUNITS
 70
     2
  9
$LUPREC
 70
     4
  9
$SKETCHINC
 40
0.1
  9
$FILLETRAD
 40
0.5
  9
$AUNITS
 70
     0
  9
$AUPREC
 70
     0
  9
$MENU
  1
.
  9
$ELEVATION
 40
0.0
  9
$PELEVATION
 40
0.0
  9
$THICKNESS
 40
0.0
  9
$LIMCHECK
 70
     0
  9
$CHAMFERA
 40
0.5
  9
$CHAMFERB
 40
0.5
  9
$CHAMFERC
 40
1.0
  9
$CHAMFERD
 40
0.0
  9
$SKPOLY
 70
     0
  9
$TDCREATE
 40
2455308.670965556
  9
$TDUPDATE
 40
2455308.670965567
  9
$TDINDWG
 40
0.0000000116
  9
$TDUSRTIMER
 40
0.0000000116
  9
$USRTIMER
 70
     1
  9
$ANGBASE
 50
0.0
  9
$ANGDIR
 70
     0
  9
$PDMODE
 70
     0
  9
$PDSIZE
 40
0.0
  9
$PLINEWID
 40
0.0
  9
$COORDS
 70
     1
  9
$SPLFRAME
 70
     0
  9
$SPLINETYPE
 70
     6
  9
$SPLINESEGS
 70
     8
  9
$ATTDIA
 70
     0
  9
$ATTREQ
 70
     1
  9
$HANDLING
 70
     1
  9
$HANDSEED
  5
453
  9
$SURFTAB1
 70
     6
  9
$SURFTAB2
 70
     6
  9
$SURFTYPE
 70
     6
  9
$SURFU
 70
     6
  9
$SURFV
 70
     6
  9
$UCSNAME
  2

  9
$UCSORG
 10
0.0
 20
0.0
 30
0.0
  9
$UCSXDIR
 10
1.0
 20
0.0
 30
0.0
  9
$UCSYDIR
 10
0.0
 20
1.0
 30
0.0
  9
$PUCSNAME
  2

  9
$PUCSORG
 10
0.0
 20
0.0
 30
0.0
  9
$PUCSXDIR
 10
1.0
 20
0.0
 30
0.0
  9
$PUCSYDIR
 10
0.0
 20
1.0
 30
0.0
  9
$USERI1
 70
     0
  9
$USERI2
 70
     0
  9
$USERI3
 70
     0
  9
$USERI4
 70
     0
  9
$USERI5
 70
     0
  9
$USERR1
 40
0.0
  9
$USERR2
 40
0.0
  9
$USERR3
 40
0.0
  9
$USERR4
 40
0.0
  9
$USERR5
 40
0.0
  9
$WORLDVIEW
 70
     1
  9
$SHADEDGE
 70
     3
  9
$SHADEDIF
 70
    70
  9
$TILEMODE
 70
     1
  9
$MAXACTVP
 70
    64
  9
$PINSBASE
 10
0.0
 20
0.0
 30
0.0
  9
$PLIMCHECK
 70
     0
  9
$PEXTMIN
 10
1.000000E+20
 20
1.000000E+20
 30
1.000000E+20
  9
$PEXTMAX
 10
-1.000000E+20
 20
-1.000000E+20
 30
-1.000000E+20
  9
$PLIMMIN
 10
0.0
 20
0.0
  9
$PLIMMAX
 10
12.0
 20
9.0
  9
$UNITMODE
 70
     0
  9
$VISRETAIN
 70
     1
  9
$PLINEGEN
 70
     0
  9
$PSLTSCALE
 70
     1
  9
$TREEDEPTH
 70
  3020
  9
$PICKSTYLE
 70
     1
  9
$CMLSTYLE
  2
STANDARD
  9
$CMLJUST
 70
     0
  9
$CMLSCALE
 40
1.0
  9
$PROXYGRAPHICS
 70
     1
  9
$MEASUREMENT
 70
     0
  0
ENDSEC
  0
SECTION
  2
CLASSES
  0
CLASS
  1
ACDBDICTIONARYWDFLT
  2
AcDbDictionaryWithDefault
  3
ObjectDBX Classes
 90
        0
280
     0
281
     0
  0
CLASS
  1
XRECORD
  2
AcDbXrecord
  3
AutoCAD 2000
 90
        0
280
     0
281
     0
  0
CLASS
  1
LWPOLYLINE
  2
AcDbPolyline
  3
AutoCAD 2000
 90
        0
280
     0
281
     1
  0
CLASS
  1
HATCH
  2
AcDbHatch
  3
AutoCAD 2000
 90
        0
280
     0
281
     1
  0
CLASS
  1
ACDBPLACEHOLDER
  2
AcDbPlaceHolder
  3
ObjectDBX Classes
 90
        0
280
     0
281
     0
  0
CLASS
  1
LAYOUT
  2
AcDbLayout
  3
ObjectDBX Classes
 90
        0
280
     0
281
     0
  0
ENDSEC
  0
SECTION
  2
TABLES
  0
TABLE
  2
VPORT
  5
8
330
0
100
AcDbSymbolTable
 70
     1
  0
VPORT
  5
29
330
8
100
AcDbSymbolTableRecord
100
AcDbViewportTableRecord
  2
*ACTIVE
 70
     0
 10
0.0
 20
0.0
 11
1.0
 21
1.0
 12
420.5
 22
297.0
 13
0.0
 23
0.0
 14
0.5
 24
0.5
 15
0.5
 25
0.5
 16
0.0
 26
0.0
 36
1.0
 17
0.0
 27
0.0
 37
0.0
 40
594.0
 41
1.415825
 42
50.0
 43
0.0
 44
0.0
 50
0.0
 51
0.0
 71
     0
 72
   100
 73
     1
 74
     3
 75
     0
 76
     0
 77
     0
 78
     0
  0
ENDTAB
  0
TABLE
  2
LTYPE
  5
5
330
0
100
AcDbSymbolTable
 70
     4
  0
LTYPE
  5
14
330
5
100
AcDbSymbolTableRecord
100
AcDbLinetypeTableRecord
  2
BYBLOCK
 70
     0
  3

 72
    65
 73
     0
 40
0.0
  0
LTYPE
  5
15
330
5
100
AcDbSymbolTableRecord
100
AcDbLinetypeTableRecord
  2
BYLAYER
 70
     0
  3

 72
    65
 73
     0
 40
0.0
  0
LTYPE
  5
16
330
5
100
AcDbSymbolTableRecord
100
AcDbLinetypeTableRecord
  2
CONTINUOUS
 70
     0
  3
--------------------
 72
    65
 73
     0
 40
0.0
  0
LTYPE
  5
2A
330
5
100
AcDbSymbolTableRecord
100
AcDbLinetypeTableRecord
  2
CENTER
 70
     0
  3
Center ____ _ ____ _ ____ _ ____ _ ____ _ ____
 72
    65
 73
     4
 40
13.0
 49
10.0
 74
     0
 49
-1.0
 74
     0
 49
1.0
 74
     0
 49
-1.0
 74
     0
  0
ENDTAB
  0
TABLE
  2
LAYER
  5
2
330
0
100
AcDbSymbolTable
 70
    20
  0
LAYER
  5
10
330
2
100
AcDbSymbolTableRecord
100
AcDbLayerTableRecord
  2
0
 70
     0
 62
     7
  6
CONTINUOUS
  0
LAYER
  5
2D
330
2
100
AcDbSymbolTableRecord
100
AcDbLayerTableRecord
  2
LAYERGROUP-1
 70
     0
 62
     3
  6
CONTINUOUS
  0
LAYER
  5
3D
330
2
100
AcDbSymbolTableRecord
100
AcDbLayerTableRecord
  2
}}ﾊﾊGG血CCТ
 70
     0
 62
     3
  6
CONTINUOUS
  0
LAYER
  5
B8
330
2
100
AcDbSymbolTableRecord
100
AcDbLayerTableRecord
  2
0-1
 70
     0
 62
     7
  6
CONTINUOUS
  0
LAYER
  5
D0
330
2
100
AcDbSymbolTableRecord
100
AcDbLayerTableRecord
  2
GR1-1
 70
     0
 62
     7
  6
CONTINUOUS
  0
ENDTAB
  0
TABLE
  2
STYLE
  5
3
330
0
100
AcDbSymbolTable
 70
     4
  0
STYLE
  5
11
330
3
100
AcDbSymbolTableRecord
100
AcDbTextStyleTableRecord
  2
STANDARD
 70
     0
 40
0.0
 41
1.0
 50
0.0
 71
     0
 42
0.2
  3
txt
  4

  0
STYLE
  5
3F
330
3
100
AcDbSymbolTableRecord
100
AcDbTextStyleTableRecord
  2
STYLE1
 70
     0
 40
0.0
 41
1.0
 50
0.0
 71
     0
 42
0.2
  3
MONOTXT.SHX
  4
extfont.shx
  0
STYLE
  5
40
330
3
100
AcDbSymbolTableRecord
100
AcDbTextStyleTableRecord
  2
FX_VECTOR
 70
     0
 40
0.0
 41
1.0
 50
0.0
 71
     0
 42
0.2
  3
MONOTXT.SHX
  4
BIGFONT.SHX
  0
ENDTAB
  0
TABLE
  2
VIEW
  5
6
330
0
100
AcDbSymbolTable
 70
     0
  0
ENDTAB
  0
TABLE
  2
UCS
  5
7
330
0
100
AcDbSymbolTable
 70
     0
  0
ENDTAB
  0
TABLE
  2
APPID
  5
9
330
0
100
AcDbSymbolTable
 70
     1
  0
APPID
  5
12
330
9
100
AcDbSymbolTableRecord
100
AcDbRegAppTableRecord
  2
ACAD
 70
     0
  0
ENDTAB
  0
TABLE
  2
DIMSTYLE
  5
A
330
0
100
AcDbSymbolTable
 70
     2
  0
DIMSTYLE
105
27
330
A
100
AcDbSymbolTableRecord
100
AcDbDimStyleTableRecord
  2
STANDARD
 70
     0
  3

  4

  5

  6

  7

 40
1.0
 41
0.18
 42
0.0625
 43
0.38
 44
0.18
 45
0.0
 46
0.0
 47
0.0
 48
0.0
140
0.18
141
0.09
142
0.0
143
25.4
144
1.0
145
0.0
146
1.0
147
0.09
 71
     0
 72
     0
 73
     1
 74
     1
 75
     0
 76
     0
 77
     0
 78
     0
170
     0
171
     2
172
     0
173
     0
174
     0
175
     0
176
     0
177
     0
178
     0
270
     2
271
     4
272
     4
273
     2
274
     2
340
11
275
     0
280
     0
281
     0
282
     0
283
     1
284
     0
285
     0
286
     0
287
     3
288
     0
  0
DIMSTYLE
105
A7
102
{ACAD_REACTORS
330
D9
330
E2
330
EC
330
F6
330
100
330
10A
330
114
330
11E
330
128
330
132
330
323
330
34E
330
358
102
}
330
A
100
AcDbSymbolTableRecord
100
AcDbDimStyleTableRecord
  2
FXDIMINFO
 70
     0
  3

  4

  5

  6
FXTIP_ARROW_S
  7
FXTIP_ARROW_E
 40
1.0
 41
4.0
 42
1.0
 43
10.0
 44
1.0
 45
0.0
 46
6.0
 47
0.0
 48
0.0
140
4.0
141
2.5
142
0.0
143
0.03937
144
1.0
145
0.0
146
1.0
147
1.0
 71
     0
 72
     0
 73
     0
 74
     0
 75
     0
 76
     0
 77
     1
 78
     8
170
     0
171
     3
172
     1
173
     1
174
     0
175
     0
176
     7
177
     7
178
     7
179
     2
270
     2
271
     2
272
     2
273
     2
274
     3
340
3F
275
     0
280
     0
281
     0
282
     0
283
     0
284
     8
285
     0
286
     0
287
     3
288
     0
  0
ENDTAB
  0
TABLE
  2
BLOCK_RECORD
  5
1
330
0
100
AcDbSymbolTable
 70
    37
  0
BLOCK_RECORD
  5
1F
330
1
100
AcDbSymbolTableRecord
100
AcDbBlockTableRecord
  2
*MODEL_SPACE
  0
BLOCK_RECORD
  5
1B
330
1
100
AcDbSymbolTableRecord
100
AcDbBlockTableRecord
  2
*PAPER_SPACE
  0
BLOCK_RECORD
  5
41
330
1
100
AcDbSymbolTableRecord
100
AcDbBlockTableRecord
  2
FXTIP_ARROW_S
  0
BLOCK_RECORD
  5
47
330
1
100
AcDbSymbolTableRecord
100
AcDbBlockTableRecord
  2
FXTIP_ARROW_E
  0
BLOCK_RECORD
  5
4D
330
1
100
AcDbSymbolTableRecord
100
AcDbBlockTableRecord
  2
FXTIP_BLACKDOT_S
  0
BLOCK_RECORD
  5
53
330
1
100
AcDbSymbolTableRecord
100
AcDbBlockTableRecord
  2
FXTIP_BLACKDOT_E
  0
BLOCK_RECORD
  5
59
330
1
100
AcDbSymbolTableRecord
100
AcDbBlockTableRecord
  2
FXTIP_TRIANGLE_S
  0
BLOCK_RECORD
  5
60
330
1
100
AcDbSymbolTableRecord
100
AcDbBlockTableRecord
  2
FXTIP_TRIANGLE_E
  0
BLOCK_RECORD
  5
67
330
1
100
AcDbSymbolTableRecord
100
AcDbBlockTableRecord
  2
FXTIP_ARCHITECT_S
  0
BLOCK_RECORD
  5
6D
330
1
100
AcDbSymbolTableRecord
100
AcDbBlockTableRecord
  2
FXTIP_ARCHITECT_E
  0
BLOCK_RECORD
  5
73
330
1
100
AcDbSymbolTableRecord
100
AcDbBlockTableRecord
  2
FXTIP_CIVIL_S
  0
BLOCK_RECORD
  5
79
330
1
100
AcDbSymbolTableRecord
100
AcDbBlockTableRecord
  2
FXTIP_CIVIL_E
  0
BLOCK_RECORD
  5
7F
330
1
100
AcDbSymbolTableRecord
100
AcDbBlockTableRecord
  2
FXTIP_WHITEDOT_S
  0
BLOCK_RECORD
  5
84
330
1
100
AcDbSymbolTableRecord
100
AcDbBlockTableRecord
  2
FXTIP_WHITEDOT_E
  0
BLOCK_RECORD
  5
89
330
1
100
AcDbSymbolTableRecord
100
AcDbBlockTableRecord
  2
FXTIP_UPARROW_S
  0
BLOCK_RECORD
  5
8E
330
1
100
AcDbSymbolTableRecord
100
AcDbBlockTableRecord
  2
FXTIP_UPARROW_E
  0
BLOCK_RECORD
  5
93
330
1
100
AcDbSymbolTableRecord
100
AcDbBlockTableRecord
  2
FXTIP_DOWNARROW_S
  0
BLOCK_RECORD
  5
98
330
1
100
AcDbSymbolTableRecord
100
AcDbBlockTableRecord
  2
FXTIP_DOWNARROW_E
  0
BLOCK_RECORD
  5
9D
330
1
100
AcDbSymbolTableRecord
100
AcDbBlockTableRecord
  2
FXTIP_BLACKTRIANGLE_S
  0
BLOCK_RECORD
  5
A2
330
1
100
AcDbSymbolTableRecord
100
AcDbBlockTableRecord
  2
FXTIP_BLACKTRIANGLE_E
  0
BLOCK_RECORD
  5
A8
330
1
100
AcDbSymbolTableRecord
100
AcDbBlockTableRecord
  2
BLKF021
  0
BLOCK_RECORD
  5
B4
330
1
100
AcDbSymbolTableRecord
100
AcDbBlockTableRecord
  2
BLKF022
  0
BLOCK_RECORD
  5
BD
330
1
100
AcDbSymbolTableRecord
100
AcDbBlockTableRecord
  2
BLKF023
  0
BLOCK_RECORD
  5
DA
330
1
100
AcDbSymbolTableRecord
100
AcDbBlockTableRecord
  2
*D22
  0
BLOCK_RECORD
  5
E3
330
1
100
AcDbSymbolTableRecord
100
AcDbBlockTableRecord
  2
*D23
  0
BLOCK_RECORD
  5
ED
330
1
100
AcDbSymbolTableRecord
100
AcDbBlockTableRecord
  2
*D24
  0
BLOCK_RECORD
  5
F7
330
1
100
AcDbSymbolTableRecord
100
AcDbBlockTableRecord
  2
*D25
  0
BLOCK_RECORD
  5
101
330
1
100
AcDbSymbolTableRecord
100
AcDbBlockTableRecord
  2
*D26
  0
BLOCK_RECORD
  5
10B
330
1
100
AcDbSymbolTableRecord
100
AcDbBlockTableRecord
  2
*D27
  0
BLOCK_RECORD
  5
115
330
1
100
AcDbSymbolTableRecord
100
AcDbBlockTableRecord
  2
*D28
  0
BLOCK_RECORD
  5
11F
330
1
100
AcDbSymbolTableRecord
100
AcDbBlockTableRecord
  2
*D29
  0
BLOCK_RECORD
  5
129
330
1
100
AcDbSymbolTableRecord
100
AcDbBlockTableRecord
  2
*D30
  0
BLOCK_RECORD
  5
133
330
1
100
AcDbSymbolTableRecord
100
AcDbBlockTableRecord
  2
*D31
  0
BLOCK_RECORD
  5
324
330
1
100
AcDbSymbolTableRecord
100
AcDbBlockTableRecord
  2
*D32
  0
BLOCK_RECORD
  5
34F
330
1
100
AcDbSymbolTableRecord
100
AcDbBlockTableRecord
  2
*D33
  0
BLOCK_RECORD
  5
359
330
1
100
AcDbSymbolTableRecord
100
AcDbBlockTableRecord
  2
*D34
  0
BLOCK_RECORD
  5
362
330
1
100
AcDbSymbolTableRecord
100
AcDbBlockTableRecord
  2
BLKF037
  0
BLOCK_RECORD
  5
3B9
330
1
100
AcDbSymbolTableRecord
100
AcDbBlockTableRecord
  2
BLKF038
  0
ENDTAB
  0
ENDSEC
  0
SECTION
  2
BLOCKS
  0
BLOCK
  5
20
330
1F
100
AcDbEntity
  8
0
100
AcDbBlockBegin
  2
*MODEL_SPACE
 70
     0
 71
     0
 10
0.0
 20
0.0
 30
0.0
  3
*MODEL_SPACE
  1

  0
ENDBLK
  5
21
330
1F
100
AcDbEntity
  8
0
100
AcDbBlockEnd
  0
BLOCK
  5
1C
330
1B
100
AcDbEntity
 67
     1
  8
0
100
AcDbBlockBegin
  2
*PAPER_SPACE
 70
     0
 71
     0
 10
0.0
 20
0.0
 30
0.0
  3
*PAPER_SPACE
  1

  0
ENDBLK
  5
1D
330
1B
100
AcDbEntity
 67
     1
  8
0
100
AcDbBlockEnd
  0
BLOCK
  5
42
330
41
100
AcDbEntity
  8
0
100
AcDbBlockBegin
  2
FXTIP_ARROW_S
 70
     0
 71
     0
 10
0.0
 20
0.0
 30
0.0
  3
FXTIP_ARROW_S
  1

  0
LINE
  5
44
330
41
100
AcDbEntity
  8
0
  6
CONTINUOUS
 62
     0
100
AcDbLine
 10
0.0
 20
0.0
 30
0.0
 11
-1.0
 21
0.0
 31
0.0
  0
LINE
  5
45
330
41
100
AcDbEntity
  8
0
  6
CONTINUOUS
 62
     0
100
AcDbLine
 10
0.0
 20
0.0
 30
0.0
 11
-0.965926
 21
-0.258819
 31
0.0
  0
LINE
  5
46
330
41
100
AcDbEntity
  8
0
  6
CONTINUOUS
 62
     0
100
AcDbLine
 10
0.0
 20
0.0
 30
0.0
 11
-0.965926
 21
0.258819
 31
0.0
  0
ENDBLK
  5
43
330
41
100
AcDbEntity
  8
0
100
AcDbBlockEnd
  0
BLOCK
  5
48
330
47
100
AcDbEntity
  8
0
100
AcDbBlockBegin
  2
FXTIP_ARROW_E
 70
     0
 71
     0
 10
0.0
 20
0.0
 30
0.0
  3
FXTIP_ARROW_E
  1

  0
LINE
  5
4A
330
47
100
AcDbEntity
  8
0
  6
CONTINUOUS
 62
     0
100
AcDbLine
 10
0.0
 20
0.0
 30
0.0
 11
-1.0
 21
0.0
 31
0.0
  0
LINE
  5
4B
330
47
100
AcDbEntity
  8
0
  6
CONTINUOUS
 62
     0
100
AcDbLine
 10
0.0
 20
0.0
 30
0.0
 11
-0.965926
 21
0.258819
 31
0.0
  0
LINE
  5
4C
330
47
100
AcDbEntity
  8
0
  6
CONTINUOUS
 62
     0
100
AcDbLine
 10
0.0
 20
0.0
 30
0.0
 11
-0.965926
 21
-0.258819
 31
0.0
  0
ENDBLK
  5
49
330
47
100
AcDbEntity
  8
0
100
AcDbBlockEnd
  0
BLOCK
  5
4E
330
4D
100
AcDbEntity
  8
0
100
AcDbBlockBegin
  2
FXTIP_BLACKDOT_S
 70
     0
 71
     0
 10
0.0
 20
0.0
 30
0.0
  3
FXTIP_BLACKDOT_S
  1

  0
LINE
  5
50
330
4D
100
AcDbEntity
  8
0
  6
CONTINUOUS
 62
     0
100
AcDbLine
 10
0.0
 20
0.0
 30
0.0
 11
-1.0
 21
0.0
 31
0.0
  0
LWPOLYLINE
  5
51
330
4D
100
AcDbEntity
  8
0
  6
CONTINUOUS
 62
     0
100
AcDbPolyline
 90
        2
 70
     1
 10
-0.25
 20
0.0
 40
0.5
 41
0.5
 42
1.0
 10
0.25
 20
0.0
 40
0.5
 41
0.5
 42
1.0
  0
CIRCLE
  5
52
330
4D
100
AcDbEntity
  8
0
  6
CONTINUOUS
 62
     0
100
AcDbCircle
 10
0.0
 20
0.0
 30
0.0
 40
0.5
  0
ENDBLK
  5
4F
330
4D
100
AcDbEntity
  8
0
100
AcDbBlockEnd
  0
BLOCK
  5
54
330
53
100
AcDbEntity
  8
0
100
AcDbBlockBegin
  2
FXTIP_BLACKDOT_E
 70
     0
 71
     0
 10
0.0
 20
0.0
 30
0.0
  3
FXTIP_BLACKDOT_E
  1

  0
LINE
  5
56
330
53
100
AcDbEntity
  8
0
  6
CONTINUOUS
 62
     0
100
AcDbLine
 10
0.0
 20
0.0
 30
0.0
 11
-1.0
 21
0.0
 31
0.0
  0
LWPOLYLINE
  5
57
330
53
100
AcDbEntity
  8
0
  6
CONTINUOUS
 62
     0
100
AcDbPolyline
 90
        2
 70
     1
 10
-0.25
 20
0.0
 40
0.5
 41
0.5
 42
1.0
 10
0.25
 20
0.0
 40
0.5
 41
0.5
 42
1.0
  0
CIRCLE
  5
58
330
53
100
AcDbEntity
  8
0
  6
CONTINUOUS
 62
     0
100
AcDbCircle
 10
0.0
 20
0.0
 30
0.0
 40
0.5
  0
ENDBLK
  5
55
330
53
100
AcDbEntity
  8
0
100
AcDbBlockEnd
  0
BLOCK
  5
5A
330
59
100
AcDbEntity
  8
0
100
AcDbBlockBegin
  2
FXTIP_TRIANGLE_S
 70
     0
 71
     0
 10
0.0
 20
0.0
 30
0.0
  3
FXTIP_TRIANGLE_S
  1

  0
LINE
  5
5C
330
59
100
AcDbEntity
  8
0
  6
CONTINUOUS
 62
     0
100
AcDbLine
 10
0.0
 20
0.0
 30
0.0
 11
-1.0
 21
0.0
 31
0.0
  0
LINE
  5
5D
330
59
100
AcDbEntity
  8
0
  6
CONTINUOUS
 62
     0
100
AcDbLine
 10
0.0
 20
0.0
 30
0.0
 11
-0.965926
 21
-0.258819
 31
0.0
  0
LINE
  5
5E
330
59
100
AcDbEntity
  8
0
  6
CONTINUOUS
 62
     0
100
AcDbLine
 10
0.0
 20
0.0
 30
0.0
 11
-0.965926
 21
0.258819
 31
0.0
  0
LINE
  5
5F
330
59
100
AcDbEntity
  8
0
  6
CONTINUOUS
 62
     0
100
AcDbLine
 10
-0.965926
 20
-0.258819
 30
0.0
 11
-0.965926
 21
0.258819
 31
0.0
  0
ENDBLK
  5
5B
330
59
100
AcDbEntity
  8
0
100
AcDbBlockEnd
  0
BLOCK
  5
61
330
60
100
AcDbEntity
  8
0
100
AcDbBlockBegin
  2
FXTIP_TRIANGLE_E
 70
     0
 71
     0
 10
0.0
 20
0.0
 30
0.0
  3
FXTIP_TRIANGLE_E
  1

  0
LINE
  5
63
330
60
100
AcDbEntity
  8
0
  6
CONTINUOUS
 62
     0
100
AcDbLine
 10
0.0
 20
0.0
 30
0.0
 11
-1.0
 21
0.0
 31
0.0
  0
LINE
  5
64
330
60
100
AcDbEntity
  8
0
  6
CONTINUOUS
 62
     0
100
AcDbLine
 10
0.0
 20
0.0
 30
0.0
 11
-0.965926
 21
0.258819
 31
0.0
  0
LINE
  5
65
330
60
100
AcDbEntity
  8
0
  6
CONTINUOUS
 62
     0
100
AcDbLine
 10
0.0
 20
0.0
 30
0.0
 11
-0.965926
 21
-0.258819
 31
0.0
  0
LINE
  5
66
330
60
100
AcDbEntity
  8
0
  6
CONTINUOUS
 62
     0
100
AcDbLine
 10
-0.965926
 20
0.258819
 30
0.0
 11
-0.965926
 21
-0.258819
 31
0.0
  0
ENDBLK
  5
62
330
60
100
AcDbEntity
  8
0
100
AcDbBlockEnd
  0
BLOCK
  5
68
330
67
100
AcDbEntity
  8
0
100
AcDbBlockBegin
  2
FXTIP_ARCHITECT_S
 70
     0
 71
     0
 10
0.0
 20
0.0
 30
0.0
  3
FXTIP_ARCHITECT_S
  1

  0
LINE
  5
6A
330
67
100
AcDbEntity
  8
0
  6
CONTINUOUS
 62
     0
100
AcDbLine
 10
0.0
 20
0.0
 30
0.0
 11
-1.0
 21
0.0
 31
0.0
  0
LINE
  5
6B
330
67
100
AcDbEntity
  8
0
  6
CONTINUOUS
 62
     0
100
AcDbLine
 10
0.0
 20
0.0
 30
0.0
 11
-0.707107
 21
-0.707107
 31
0.0
  0
LINE
  5
6C
330
67
100
AcDbEntity
  8
0
  6
CONTINUOUS
 62
     0
100
AcDbLine
 10
0.0
 20
0.0
 30
0.0
 11
0.707107
 21
0.707107
 31
0.0
  0
ENDBLK
  5
69
330
67
100
AcDbEntity
  8
0
100
AcDbBlockEnd
  0
BLOCK
  5
6E
330
6D
100
AcDbEntity
  8
0
100
AcDbBlockBegin
  2
FXTIP_ARCHITECT_E
 70
     0
 71
     0
 10
0.0
 20
0.0
 30
0.0
  3
FXTIP_ARCHITECT_E
  1

  0
LINE
  5
70
330
6D
100
AcDbEntity
  8
0
  6
CONTINUOUS
 62
     0
100
AcDbLine
 10
0.0
 20
0.0
 30
0.0
 11
-1.0
 21
0.0
 31
0.0
  0
LINE
  5
71
330
6D
100
AcDbEntity
  8
0
  6
CONTINUOUS
 62
     0
100
AcDbLine
 10
0.0
 20
0.0
 30
0.0
 11
0.707107
 21
0.707107
 31
0.0
  0
LINE
  5
72
330
6D
100
AcDbEntity
  8
0
  6
CONTINUOUS
 62
     0
100
AcDbLine
 10
0.0
 20
0.0
 30
0.0
 11
-0.707107
 21
-0.707107
 31
0.0
  0
ENDBLK
  5
6F
330
6D
100
AcDbEntity
  8
0
100
AcDbBlockEnd
  0
BLOCK
  5
74
330
73
100
AcDbEntity
  8
0
100
AcDbBlockBegin
  2
FXTIP_CIVIL_S
 70
     0
 71
     0
 10
0.0
 20
0.0
 30
0.0
  3
FXTIP_CIVIL_S
  1

  0
LINE
  5
76
330
73
100
AcDbEntity
  8
0
  6
CONTINUOUS
 62
     0
100
AcDbLine
 10
0.0
 20
0.0
 30
0.0
 11
-1.0
 21
0.0
 31
0.0
  0
LINE
  5
77
330
73
100
AcDbEntity
  8
0
  6
CONTINUOUS
 62
     0
100
AcDbLine
 10
0.0
 20
-0.0625
 30
0.0
 11
-1.0
 21
-0.0625
 31
0.0
  0
LINE
  5
78
330
73
100
AcDbEntity
  8
0
  6
CONTINUOUS
 62
     0
100
AcDbLine
 10
0.0
 20
-0.125
 30
0.0
 11
-1.0
 21
-0.125
 31
0.0
  0
ENDBLK
  5
75
330
73
100
AcDbEntity
  8
0
100
AcDbBlockEnd
  0
BLOCK
  5
7A
330
79
100
AcDbEntity
  8
0
100
AcDbBlockBegin
  2
FXTIP_CIVIL_E
 70
     0
 71
     0
 10
0.0
 20
0.0
 30
0.0
  3
FXTIP_CIVIL_E
  1

  0
LINE
  5
7C
330
79
100
AcDbEntity
  8
0
  6
CONTINUOUS
 62
     0
100
AcDbLine
 10
0.0
 20
0.0
 30
0.0
 11
-1.0
 21
0.0
 31
0.0
  0
LINE
  5
7D
330
79
100
AcDbEntity
  8
0
  6
CONTINUOUS
 62
     0
100
AcDbLine
 10
0.0
 20
0.0625
 30
0.0
 11
-1.0
 21
0.0625
 31
0.0
  0
LINE
  5
7E
330
79
100
AcDbEntity
  8
0
  6
CONTINUOUS
 62
     0
100
AcDbLine
 10
0.0
 20
0.125
 30
0.0
 11
-1.0
 21
0.125
 31
0.0
  0
ENDBLK
  5
7B
330
79
100
AcDbEntity
  8
0
100
AcDbBlockEnd
  0
BLOCK
  5
80
330
7F
100
AcDbEntity
  8
0
100
AcDbBlockBegin
  2
FXTIP_WHITEDOT_S
 70
     0
 71
     0
 10
0.0
 20
0.0
 30
0.0
  3
FXTIP_WHITEDOT_S
  1

  0
LINE
  5
82
330
7F
100
AcDbEntity
  8
0
  6
CONTINUOUS
 62
     0
100
AcDbLine
 10
0.0
 20
0.0
 30
0.0
 11
-1.0
 21
0.0
 31
0.0
  0
CIRCLE
  5
83
330
7F
100
AcDbEntity
  8
0
  6
CONTINUOUS
 62
     0
100
AcDbCircle
 10
0.0
 20
0.0
 30
0.0
 40
0.5
  0
ENDBLK
  5
81
330
7F
100
AcDbEntity
  8
0
100
AcDbBlockEnd
  0
BLOCK
  5
85
330
84
100
AcDbEntity
  8
0
100
AcDbBlockBegin
  2
FXTIP_WHITEDOT_E
 70
     0
 71
     0
 10
0.0
 20
0.0
 30
0.0
  3
FXTIP_WHITEDOT_E
  1

  0
LINE
  5
87
330
84
100
AcDbEntity
  8
0
  6
CONTINUOUS
 62
     0
100
AcDbLine
 10
0.0
 20
0.0
 30
0.0
 11
-1.0
 21
0.0
 31
0.0
  0
CIRCLE
  5
88
330
84
100
AcDbEntity
  8
0
  6
CONTINUOUS
 62
     0
100
AcDbCircle
 10
0.0
 20
0.0
 30
0.0
 40
0.5
  0
ENDBLK
  5
86
330
84
100
AcDbEntity
  8
0
100
AcDbBlockEnd
  0
BLOCK
  5
8A
330
89
100
AcDbEntity
  8
0
100
AcDbBlockBegin
  2
FXTIP_UPARROW_S
 70
     0
 71
     0
 10
0.0
 20
0.0
 30
0.0
  3
FXTIP_UPARROW_S
  1

  0
LINE
  5
8C
330
89
100
AcDbEntity
  8
0
  6
CONTINUOUS
 62
     0
100
AcDbLine
 10
0.0
 20
0.0
 30
0.0
 11
-1.0
 21
0.0
 31
0.0
  0
LINE
  5
8D
330
89
100
AcDbEntity
  8
0
  6
CONTINUOUS
 62
     0
100
AcDbLine
 10
0.0
 20
0.0
 30
0.0
 11
-0.965926
 21
-0.258819
 31
0.0
  0
ENDBLK
  5
8B
330
89
100
AcDbEntity
  8
0
100
AcDbBlockEnd
  0
BLOCK
  5
8F
330
8E
100
AcDbEntity
  8
0
100
AcDbBlockBegin
  2
FXTIP_UPARROW_E
 70
     0
 71
     0
 10
0.0
 20
0.0
 30
0.0
  3
FXTIP_UPARROW_E
  1

  0
LINE
  5
91
330
8E
100
AcDbEntity
  8
0
  6
CONTINUOUS
 62
     0
100
AcDbLine
 10
0.0
 20
0.0
 30
0.0
 11
-1.0
 21
0.0
 31
0.0
  0
LINE
  5
92
330
8E
100
AcDbEntity
  8
0
  6
CONTINUOUS
 62
     0
100
AcDbLine
 10
0.0
 20
0.0
 30
0.0
 11
-0.965926
 21
0.258819
 31
0.0
  0
ENDBLK
  5
90
330
8E
100
AcDbEntity
  8
0
100
AcDbBlockEnd
  0
BLOCK
  5
94
330
93
100
AcDbEntity
  8
0
100
AcDbBlockBegin
  2
FXTIP_DOWNARROW_S
 70
     0
 71
     0
 10
0.0
 20
0.0
 30
0.0
  3
FXTIP_DOWNARROW_S
  1

  0
LINE
  5
96
330
93
100
AcDbEntity
  8
0
  6
CONTINUOUS
 62
     0
100
AcDbLine
 10
0.0
 20
0.0
 30
0.0
 11
-1.0
 21
0.0
 31
0.0
  0
LINE
  5
97
330
93
100
AcDbEntity
  8
0
  6
CONTINUOUS
 62
     0
100
AcDbLine
 10
0.0
 20
0.0
 30
0.0
 11
-0.965926
 21
0.258819
 31
0.0
  0
ENDBLK
  5
95
330
93
100
AcDbEntity
  8
0
100
AcDbBlockEnd
  0
BLOCK
  5
99
330
98
100
AcDbEntity
  8
0
100
AcDbBlockBegin
  2
FXTIP_DOWNARROW_E
 70
     0
 71
     0
 10
0.0
 20
0.0
 30
0.0
  3
FXTIP_DOWNARROW_E
  1

  0
LINE
  5
9B
330
98
100
AcDbEntity
  8
0
  6
CONTINUOUS
 62
     0
100
AcDbLine
 10
0.0
 20
0.0
 30
0.0
 11
-1.0
 21
0.0
 31
0.0
  0
LINE
  5
9C
330
98
100
AcDbEntity
  8
0
  6
CONTINUOUS
 62
     0
100
AcDbLine
 10
0.0
 20
0.0
 30
0.0
 11
-0.965926
 21
-0.258819
 31
0.0
  0
ENDBLK
  5
9A
330
98
100
AcDbEntity
  8
0
100
AcDbBlockEnd
  0
BLOCK
  5
9E
330
9D
100
AcDbEntity
  8
0
100
AcDbBlockBegin
  2
FXTIP_BLACKTRIANGLE_S
 70
     0
 71
     0
 10
0.0
 20
0.0
 30
0.0
  3
FXTIP_BLACKTRIANGLE_S
  1

  0
LINE
  5
A0
330
9D
100
AcDbEntity
  8
0
  6
CONTINUOUS
 62
     0
100
AcDbLine
 10
0.0
 20
0.0
 30
0.0
 11
-1.0
 21
0.0
 31
0.0
  0
SOLID
  5
A1
330
9D
100
AcDbEntity
  8
0
  6
CONTINUOUS
 62
     0
100
AcDbTrace
 10
0.0
 20
0.0
 30
0.0
 11
-0.965926
 21
-0.258819
 31
0.0
 12
-0.965926
 22
0.258819
 32
0.0
 13
-0.965926
 23
0.258819
 33
0.0
  0
ENDBLK
  5
9F
330
9D
100
AcDbEntity
  8
0
100
AcDbBlockEnd
  0
BLOCK
  5
A3
330
A2
100
AcDbEntity
  8
0
100
AcDbBlockBegin
  2
FXTIP_BLACKTRIANGLE_E
 70
     0
 71
     0
 10
0.0
 20
0.0
 30
0.0
  3
FXTIP_BLACKTRIANGLE_E
  1

  0
LINE
  5
A5
330
A2
100
AcDbEntity
  8
0
  6
CONTINUOUS
 62
     0
100
AcDbLine
 10
0.0
 20
0.0
 30
0.0
 11
-1.0
 21
0.0
 31
0.0
  0
SOLID
  5
A6
330
A2
100
AcDbEntity
  8
0
  6
CONTINUOUS
 62
     0
100
AcDbTrace
 10
0.0
 20
0.0
 30
0.0
 11
-0.965926
 21
0.258819
 31
0.0
 12
-0.965926
 22
-0.258819
 32
0.0
 13
-0.965926
 23
-0.258819
 33
0.0
  0
ENDBLK
  5
A4
330
A2
100
AcDbEntity
  8
0
100
AcDbBlockEnd
  0
BLOCK
  5
A9
330
A8
100
AcDbEntity
  8
0
100
AcDbBlockBegin
  2
BLKF021
 70
     0
 71
     0
 10
0.0
 20
0.0
 30
0.0
  3
BLKF021
  1

  0
LINE
  5
AC
330
A8
100
AcDbEntity
  8
}}ﾊﾊGG血CCТ
  6
CONTINUOUS
 62
     7
100
AcDbLine
 10
20.0
 20
20.0
 30
0.0
 11
821.0
 21
20.0
 31
0.0
  0
LINE
  5
AD
330
A8
100
AcDbEntity
  8
}}ﾊﾊGG血CCТ
  6
CONTINUOUS
 62
     7
100
AcDbLine
 10
20.0
 20
20.0
 30
0.0
 11
20.0
 21
574.0
 31
0.0
  0
LINE
  5
AE
330
A8
100
AcDbEntity
  8
}}ﾊﾊGG血CCТ
  6
CONTINUOUS
 62
     7
100
AcDbLine
 10
20.0
 20
574.0
 30
0.0
 11
821.0
 21
574.0
 31
0.0
  0
LINE
  5
AF
330
A8
100
AcDbEntity
  8
}}ﾊﾊGG血CCТ
  6
CONTINUOUS
 62
     7
100
AcDbLine
 10
821.0
 20
574.0
 30
0.0
 11
821.0
 21
20.0
 31
0.0
  0
LINE
  5
B0
330
A8
100
AcDbEntity
  8
}}ﾊﾊGG血CCТ
  6
CONTINUOUS
 62
     7
100
AcDbLine
 10
564.0
 20
20.0
 30
0.0
 11
564.0
 21
30.0
 31
0.0
  0
TEXT
  5
B1
330
A8
100
AcDbEntity
  8
}}ﾊﾊGG血CCТ
  6
CONTINUOUS
 62
     7
100
AcDbText
 10
548.738831
 20
21.596878
 30
0.0
 40
6.648749
  1
品名
 41
1.083413
  7
FX_VECTOR
 72
     5
 11
560.058371
 21
21.596878
 31
0.0
100
AcDbText
  0
LINE
  5
B2
330
A8
100
AcDbEntity
  8
}}ﾊﾊGG血CCТ
  6
CONTINUOUS
 62
     7
100
AcDbLine
 10
644.0
 20
30.0
 30
0.0
 11
644.0
 21
20.0
 31
0.0
  0
LINE
  5
B3
330
A8
100
AcDbEntity
  8
}}ﾊﾊGG血CCТ
  6
CONTINUOUS
 62
     7
100
AcDbLine
 10
544.0
 20
30.0
 30
0.0
 11
821.0
 21
30.0
 31
0.0
  0
INSERT
  5
B7
330
A8
100
AcDbEntity
  8
0
100
AcDbBlockReference
  2
BLKF022
 10
0.0
 20
0.0
 30
0.0
  0
INSERT
  5
C0
330
A8
100
AcDbEntity
  8
0
100
AcDbBlockReference
  2
BLKF023
 10
0.0
 20
0.0
 30
0.0
  0
HATCH
  5
D1
330
A8
100
AcDbEntity
  8
GR1-1
  6
CONTINUOUS
 62
     7
100
AcDbHatch
 10
0.0
 20
0.0
 30
0.0
210
0.0
220
0.0
230
1.0
  2

 70
     0
 71
     1
 91
        2
 92
        0
 93
        4
 72
     1
 10
749.8018997861325
 20
27.91346152
 11
755.8018997861325
 21
27.91346152
 72
     1
 10
755.8018997861325
 20
27.91346152
 11
755.8018997861325
 21
21.91346152
 72
     1
 10
755.8018997861325
 20
21.91346152
 11
749.8018997861325
 21
21.91346152
 72
     1
 10
749.8018997861325
 20
21.91346152
 11
749.8018997861325
 21
27.91346152
 97
        0
 92
        0
 93
       15
 72
     1
 10
752.8018997861325
 20
27.76923076000002
 11
749.9461305461325
 21
24.91346152
 72
     1
 10
749.9461305461325
 20
24.91346152
 11
752.8018997861325
 21
22.05769228000001
 72
     1
 10
752.8018997861325
 20
22.05769228000001
 11
754.3595920661326
 21
23.61538462
 72
     1
 10
754.3595920661326
 20
23.61538462
 11
754.3595920661326
 21
22.98076924
 72
     1
 10
754.3595920661326
 20
22.98076924
 11
755.2249766861326
 21
22.98076924
 72
     1
 10
755.2249766861326
 20
22.98076924
 11
755.2249766861326
 21
25.00000000000001
 72
     1
 10
755.2249766861326
 20
25.00000000000001
 11
752.8018997861325
 21
25.00000000000001
 72
     1
 10
752.8018997861325
 20
25.00000000000001
 11
752.8018997861325
 21
24.13461538000001
 72
     1
 10
752.8018997861325
 20
24.13461538000001
 11
753.2461305461325
 21
24.13461538000001
 72
     1
 10
753.2461305461325
 20
24.13461538000001
 11
752.8018997861325
 21
23.69038462
 72
     1
 10
752.8018997861325
 20
23.69038462
 11
751.5788228861325
 21
24.91346152
 72
     1
 10
751.5788228861325
 20
24.91346152
 11
752.8018997861325
 21
26.13653842000003
 72
     1
 10
752.8018997861325
 20
26.13653842000003
 11
753.5922844061325
 21
25.3461538
 72
     1
 10
753.5922844061325
 20
25.3461538
 11
755.2249766861326
 21
25.3461538
 72
     1
 10
755.2249766861326
 20
25.3461538
 11
752.8018997861325
 21
27.76923076000002
 97
        0
 75
     0
 76
     0
 52
45.0
 41
0.05
 77
     0
 78
     1
 53
45.0
 43
0.0
 44
0.0
 45
-0.0353553390593274
 46
0.0353553390593274
 79
     0
 98
        0
  0
TEXT
  5
D2
330
A8
100
AcDbEntity
  8
}}ﾊﾊGG血CCТ
  6
CONTINUOUS
 62
     7
100
AcDbText
 10
760.225769
 20
21.461285
 30
0.0
 40
7.170908
  1
GOLD CASTER
 41
0.63978
  7
FX_VECTOR
 72
     5
 11
806.977636
 21
21.461285
 31
0.0
100
AcDbText
  0
LINE
  5
D3
330
A8
100
AcDbEntity
  8
}}ﾊﾊGG血CCТ
  6
CONTINUOUS
 62
     7
100
AcDbLine
 10
664.0
 20
20.0
 30
0.0
 11
664.0
 21
30.0
 31
0.0
  0
TEXT
  5
D4
330
A8
100
AcDbEntity
  8
}}ﾊﾊGG血CCТ
  6
CONTINUOUS
 62
     7
100
AcDbText
 10
648.738831
 20
21.596878
 30
0.0
 40
6.648749
  1
図番
 41
1.083413
  7
FX_VECTOR
 72
     5
 11
660.058371
 21
21.596878
 31
0.0
100
AcDbText
  0
LINE
  5
D5
330
A8
100
AcDbEntity
  8
}}ﾊﾊGG血CCТ
  6
CONTINUOUS
 62
     7
100
AcDbLine
 10
744.0
 20
30.0
 30
0.0
 11
744.0
 21
20.0
 31
0.0
  0
LINE
  5
D6
330
A8
100
AcDbEntity
  8
}}ﾊﾊGG血CCТ
  6
CONTINUOUS
 62
     7
100
AcDbLine
 10
544.0
 20
30.0
 30
0.0
 11
544.0
 21
20.0
 31
0.0
  0
ENDBLK
  5
AA
330
A8
100
AcDbEntity
  8
0
100
AcDbBlockEnd
  0
BLOCK
  5
B5
330
B4
100
AcDbEntity
  8
0
100
AcDbBlockBegin
  2
BLKF022
 70
     0
 71
     0
 10
0.0
 20
0.0
 30
0.0
  3
BLKF022
  1

  0
LINE
  5
B9
330
B4
100
AcDbEntity
  8
0-1
  6
CONTINUOUS
 62
     7
100
AcDbLine
 10
755.8019
 20
27.913462
 30
0.0
 11
749.8019
 21
27.913462
 31
0.0
  0
LINE
  5
BA
330
B4
100
AcDbEntity
  8
0-1
  6
CONTINUOUS
 62
     7
100
AcDbLine
 10
749.8019
 20
27.913462
 30
0.0
 11
749.8019
 21
21.913462
 31
0.0
  0
LINE
  5
BB
330
B4
100
AcDbEntity
  8
0-1
  6
CONTINUOUS
 62
     7
100
AcDbLine
 10
749.8019
 20
21.913462
 30
0.0
 11
755.8019
 21
21.913462
 31
0.0
  0
LINE
  5
BC
330
B4
100
AcDbEntity
  8
0-1
  6
CONTINUOUS
 62
     7
100
AcDbLine
 10
755.8019
 20
21.913462
 30
0.0
 11
755.8019
 21
27.913462
 31
0.0
  0
ENDBLK
  5
B6
330
B4
100
AcDbEntity
  8
0
100
AcDbBlockEnd
  0
BLOCK
  5
BE
330
BD
100
AcDbEntity
  8
0
100
AcDbBlockBegin
  2
BLKF023
 70
     0
 71
     0
 10
0.0
 20
0.0
 30
0.0
  3
BLKF023
  1

  0
LINE
  5
C1
330
BD
100
AcDbEntity
  8
0-1
  6
CONTINUOUS
 62
     7
100
AcDbLine
 10
755.224977
 20
25.346154
 30
0.0
 11
752.8019
 21
27.769231
 31
0.0
  0
LINE
  5
C2
330
BD
100
AcDbEntity
  8
0-1
  6
CONTINUOUS
 62
     7
100
AcDbLine
 10
752.8019
 20
27.769231
 30
0.0
 11
749.946131
 21
24.913462
 31
0.0
  0
LINE
  5
C3
330
BD
100
AcDbEntity
  8
0-1
  6
CONTINUOUS
 62
     7
100
AcDbLine
 10
749.946131
 20
24.913462
 30
0.0
 11
752.8019
 21
22.057692
 31
0.0
  0
LINE
  5
C4
330
BD
100
AcDbEntity
  8
0-1
  6
CONTINUOUS
 62
     7
100
AcDbLine
 10
752.8019
 20
22.057692
 30
0.0
 11
754.359592
 21
23.615385
 31
0.0
  0
LINE
  5
C5
330
BD
100
AcDbEntity
  8
0-1
  6
CONTINUOUS
 62
     7
100
AcDbLine
 10
754.359592
 20
23.615385
 30
0.0
 11
754.359592
 21
22.980769
 31
0.0
  0
LINE
  5
C6
330
BD
100
AcDbEntity
  8
0-1
  6
CONTINUOUS
 62
     7
100
AcDbLine
 10
754.359592
 20
22.980769
 30
0.0
 11
755.224977
 21
22.980769
 31
0.0
  0
LINE
  5
C7
330
BD
100
AcDbEntity
  8
0-1
  6
CONTINUOUS
 62
     7
100
AcDbLine
 10
755.224977
 20
22.980769
 30
0.0
 11
755.224977
 21
25.0
 31
0.0
  0
LINE
  5
C8
330
BD
100
AcDbEntity
  8
0-1
  6
CONTINUOUS
 62
     7
100
AcDbLine
 10
755.224977
 20
25.0
 30
0.0
 11
752.8019
 21
25.0
 31
0.0
  0
LINE
  5
C9
330
BD
100
AcDbEntity
  8
0-1
  6
CONTINUOUS
 62
     7
100
AcDbLine
 10
752.8019
 20
25.0
 30
0.0
 11
752.8019
 21
24.134615
 31
0.0
  0
LINE
  5
CA
330
BD
100
AcDbEntity
  8
0-1
  6
CONTINUOUS
 62
     7
100
AcDbLine
 10
752.8019
 20
24.134615
 30
0.0
 11
753.246131
 21
24.134615
 31
0.0
  0
LINE
  5
CB
330
BD
100
AcDbEntity
  8
0-1
  6
CONTINUOUS
 62
     7
100
AcDbLine
 10
753.246131
 20
24.134615
 30
0.0
 11
752.8019
 21
23.690385
 31
0.0
  0
LINE
  5
CC
330
BD
100
AcDbEntity
  8
0-1
  6
CONTINUOUS
 62
     7
100
AcDbLine
 10
752.8019
 20
23.690385
 30
0.0
 11
751.578823
 21
24.913462
 31
0.0
  0
LINE
  5
CD
330
BD
100
AcDbEntity
  8
0-1
  6
CONTINUOUS
 62
     7
100
AcDbLine
 10
751.578823
 20
24.913462
 30
0.0
 11
752.8019
 21
26.136538
 31
0.0
  0
LINE
  5
CE
330
BD
100
AcDbEntity
  8
0-1
  6
CONTINUOUS
 62
     7
100
AcDbLine
 10
752.8019
 20
26.136538
 30
0.0
 11
753.592284
 21
25.346154
 31
0.0
  0
LINE
  5
CF
330
BD
100
AcDbEntity
  8
0-1
  6
CONTINUOUS
 62
     7
100
AcDbLine
 10
753.592284
 20
25.346154
 30
0.0
 11
755.224977
 21
25.346154
 31
0.0
  0
ENDBLK
  5
BF
330
BD
100
AcDbEntity
  8
0
100
AcDbBlockEnd
  0
BLOCK
  5
DB
330
DA
100
AcDbEntity
  8
0
100
AcDbBlockBegin
  2
*D22
 70
     1
 71
     0
 10
0.0
 20
0.0
 30
0.0
  3
*D22
  1

  0
TEXT
  5
DD
330
DA
100
AcDbEntity
  8
GR1-1
  6
CONTINUOUS
 62
     7
100
AcDbText
 10
654.828613
 20
229.788513
 30
0.0
 40
4.0
  1
150
 50
90.0
 41
0.828947
  7
FX_VECTOR
 72
     5
 11
654.828613
 21
238.788513
 31
0.0
100
AcDbText
  0
LINE
  5
DE
330
DA
100
AcDbEntity
  8
GR1-1
  6
CONTINUOUS
 62
     7
100
AcDbLine
 10
649.720744
 20
159.288515
 30
0.0
 11
656.828619
 21
159.288515
 31
0.0
  0
LINE
  5
DF
330
DA
100
AcDbEntity
  8
GR1-1
  6
CONTINUOUS
 62
     7
100
AcDbLine
 10
655.828619
 20
159.288515
 30
0.0
 11
655.828619
 21
309.288515
 31
0.0
  0
INSERT
  5
E0
330
DA
100
AcDbEntity
  8
GR1-1
  6
CONTINUOUS
 62
     7
100
AcDbBlockReference
  2
FXTIP_ARROW_S
 10
655.828619
 20
159.288515
 30
0.0
 41
4.0
 42
4.0
 50
270.0
  0
INSERT
  5
E1
330
DA
100
AcDbEntity
  8
GR1-1
  6
CONTINUOUS
 62
     7
100
AcDbBlockReference
  2
FXTIP_ARROW_E
 10
655.828619
 20
309.288515
 30
0.0
 41
4.0
 42
4.0
 50
90.0
  0
ENDBLK
  5
DC
330
DA
100
AcDbEntity
  8
0
100
AcDbBlockEnd
  0
BLOCK
  5
E4
330
E3
100
AcDbEntity
  8
0
100
AcDbBlockBegin
  2
*D23
 70
     1
 71
     0
 10
0.0
 20
0.0
 30
0.0
  3
*D23
  1

  0
TEXT
  5
E6
330
E3
100
AcDbEntity
  8
GR1-1
  6
CONTINUOUS
 62
     7
100
AcDbText
 10
665.043518
 20
179.788513
 30
0.0
 40
4.0
  1
250
 50
90.0
 41
0.828947
  7
FX_VECTOR
 72
     5
 11
665.043518
 21
188.788513
 31
0.0
100
AcDbText
  0
LINE
  5
E7
330
E3
100
AcDbEntity
  8
GR1-1
  6
CONTINUOUS
 62
     7
100
AcDbLine
 10
616.919701
 20
309.288515
 30
0.0
 11
667.04354
 21
309.288515
 31
0.0
  0
LINE
  5
E8
330
E3
100
AcDbEntity
  8
GR1-1
  6
CONTINUOUS
 62
     7
100
AcDbLine
 10
546.919701
 20
59.288515
 30
0.0
 11
667.04354
 21
59.288515
 31
0.0
  0
LINE
  5
E9
330
E3
100
AcDbEntity
  8
GR1-1
  6
CONTINUOUS
 62
     7
100
AcDbLine
 10
666.04354
 20
309.288515
 30
0.0
 11
666.04354
 21
59.288515
 31
0.0
  0
INSERT
  5
EA
330
E3
100
AcDbEntity
  8
GR1-1
  6
CONTINUOUS
 62
     7
100
AcDbBlockReference
  2
FXTIP_ARROW_S
 10
666.04354
 20
309.288515
 30
0.0
 41
4.0
 42
4.0
 50
90.0
  0
INSERT
  5
EB
330
E3
100
AcDbEntity
  8
GR1-1
  6
CONTINUOUS
 62
     7
100
AcDbBlockReference
  2
FXTIP_ARROW_E
 10
666.04354
 20
59.288515
 30
0.0
 41
4.0
 42
4.0
 50
270.0
  0
ENDBLK
  5
E5
330
E3
100
AcDbEntity
  8
0
100
AcDbBlockEnd
  0
BLOCK
  5
EE
330
ED
100
AcDbEntity
  8
0
100
AcDbBlockBegin
  2
*D24
 70
     1
 71
     0
 10
0.0
 20
0.0
 30
0.0
  3
*D24
  1

  0
TEXT
  5
F0
330
ED
100
AcDbEntity
  8
GR1-1
  6
CONTINUOUS
 62
     7
100
AcDbText
 10
303.419708
 20
325.211121
 30
0.0
 40
4.0
  1
124
 41
0.814655
  7
FX_VECTOR
 72
     5
 11
312.419708
 21
325.211121
 31
0.0
100
AcDbText
  0
LINE
  5
F1
330
ED
100
AcDbEntity
  8
GR1-1
  6
CONTINUOUS
 62
     7
100
AcDbLine
 10
245.919701
 20
310.288515
 30
0.0
 11
245.919701
 21
325.211116
 31
0.0
  0
LINE
  5
F2
330
ED
100
AcDbEntity
  8
GR1-1
  6
CONTINUOUS
 62
     7
100
AcDbLine
 10
369.919701
 20
218.586734
 30
0.0
 11
369.919701
 21
325.211116
 31
0.0
  0
LINE
  5
F3
330
ED
100
AcDbEntity
  8
GR1-1
  6
CONTINUOUS
 62
     7
100
AcDbLine
 10
245.919701
 20
324.211116
 30
0.0
 11
369.919701
 21
324.211116
 31
0.0
  0
INSERT
  5
F4
330
ED
100
AcDbEntity
  8
GR1-1
  6
CONTINUOUS
 62
     7
100
AcDbBlockReference
  2
FXTIP_ARROW_S
 10
245.919701
 20
324.211116
 30
0.0
 41
4.0
 42
4.0
 50
180.0
  0
INSERT
  5
F5
330
ED
100
AcDbEntity
  8
GR1-1
  6
CONTINUOUS
 62
     7
100
AcDbBlockReference
  2
FXTIP_ARROW_E
 10
369.919701
 20
324.211116
 30
0.0
 41
4.0
 42
4.0
 50
360.0
  0
ENDBLK
  5
EF
330
ED
100
AcDbEntity
  8
0
100
AcDbBlockEnd
  0
BLOCK
  5
F8
330
F7
100
AcDbEntity
  8
0
100
AcDbBlockBegin
  2
*D25
 70
     1
 71
     0
 10
0.0
 20
0.0
 30
0.0
  3
*D25
  1

  0
TEXT
  5
FA
330
F7
100
AcDbEntity
  8
GR1-1
  6
CONTINUOUS
 62
     7
100
AcDbText
 10
674.917542
 20
457.788513
 30
0.0
 40
4.0
  1
103
 50
90.0
 41
0.828947
  7
FX_VECTOR
 72
     5
 11
674.917542
 21
466.788513
 31
0.0
100
AcDbText
  0
LINE
  5
FB
330
F7
100
AcDbEntity
  8
GR1-1
  6
CONTINUOUS
 62
     7
100
AcDbLine
 10
608.919701
 20
410.788515
 30
0.0
 11
676.917563
 21
410.788515
 31
0.0
  0
LINE
  5
FC
330
F7
100
AcDbEntity
  8
GR1-1
  6
CONTINUOUS
 62
     7
100
AcDbLine
 10
608.919701
 20
513.788515
 30
0.0
 11
676.917563
 21
513.788515
 31
0.0
  0
LINE
  5
FD
330
F7
100
AcDbEntity
  8
GR1-1
  6
CONTINUOUS
 62
     7
100
AcDbLine
 10
675.917563
 20
410.788515
 30
0.0
 11
675.917563
 21
513.788515
 31
0.0
  0
INSERT
  5
FE
330
F7
100
AcDbEntity
  8
GR1-1
  6
CONTINUOUS
 62
     7
100
AcDbBlockReference
  2
FXTIP_ARROW_S
 10
675.917563
 20
410.788515
 30
0.0
 41
4.0
 42
4.0
 50
270.0
  0
INSERT
  5
FF
330
F7
100
AcDbEntity
  8
GR1-1
  6
CONTINUOUS
 62
     7
100
AcDbBlockReference
  2
FXTIP_ARROW_E
 10
675.917563
 20
513.788515
 30
0.0
 41
4.0
 42
4.0
 50
90.0
  0
ENDBLK
  5
F9
330
F7
100
AcDbEntity
  8
0
100
AcDbBlockEnd
  0
BLOCK
  5
102
330
101
100
AcDbEntity
  8
0
100
AcDbBlockBegin
  2
*D26
 70
     1
 71
     0
 10
0.0
 20
0.0
 30
0.0
  3
*D26
  1

  0
TEXT
  5
104
330
101
100
AcDbEntity
  8
GR1-1
  6
CONTINUOUS
 62
     7
100
AcDbText
 10
664.917542
 20
459.288513
 30
0.0
 40
4.0
  1
63
 50
90.0
 41
0.851351
  7
FX_VECTOR
 72
     5
 11
664.917542
 21
465.288513
 31
0.0
100
AcDbText
  0
LINE
  5
105
330
101
100
AcDbEntity
  8
GR1-1
  6
CONTINUOUS
 62
     7
100
AcDbLine
 10
609.919701
 20
430.788515
 30
0.0
 11
666.917563
 21
430.788515
 31
0.0
  0
LINE
  5
106
330
101
100
AcDbEntity
  8
GR1-1
  6
CONTINUOUS
 62
     7
100
AcDbLine
 10
609.919701
 20
493.788515
 30
0.0
 11
666.917563
 21
493.788515
 31
0.0
  0
LINE
  5
107
330
101
100
AcDbEntity
  8
GR1-1
  6
CONTINUOUS
 62
     7
100
AcDbLine
 10
665.917563
 20
430.788515
 30
0.0
 11
665.917563
 21
493.788515
 31
0.0
  0
INSERT
  5
108
330
101
100
AcDbEntity
  8
GR1-1
  6
CONTINUOUS
 62
     7
100
AcDbBlockReference
  2
FXTIP_ARROW_S
 10
665.917563
 20
430.788515
 30
0.0
 41
4.0
 42
4.0
 50
270.0
  0
INSERT
  5
109
330
101
100
AcDbEntity
  8
GR1-1
  6
CONTINUOUS
 62
     7
100
AcDbBlockReference
  2
FXTIP_ARROW_E
 10
665.917563
 20
493.788515
 30
0.0
 41
4.0
 42
4.0
 50
90.0
  0
ENDBLK
  5
103
330
101
100
AcDbEntity
  8
0
100
AcDbBlockEnd
  0
BLOCK
  5
10C
330
10B
100
AcDbEntity
  8
0
100
AcDbBlockBegin
  2
*D27
 70
     1
 71
     0
 10
0.0
 20
0.0
 30
0.0
  3
*D27
  1

  0
TEXT
  5
10E
330
10B
100
AcDbEntity
  8
GR1-1
  6
CONTINUOUS
 62
     7
100
AcDbText
 10
654.917542
 20
459.288513
 30
0.0
 40
4.0
  1
60
 50
90.0
 41
0.851351
  7
FX_VECTOR
 72
     5
 11
654.917542
 21
465.288513
 31
0.0
100
AcDbText
  0
LINE
  5
10F
330
10B
100
AcDbEntity
  8
GR1-1
  6
CONTINUOUS
 62
     7
100
AcDbLine
 10
608.419701
 20
432.288515
 30
0.0
 11
656.917563
 21
432.288515
 31
0.0
  0
LINE
  5
110
330
10B
100
AcDbEntity
  8
GR1-1
  6
CONTINUOUS
 62
     7
100
AcDbLine
 10
608.419701
 20
492.288515
 30
0.0
 11
656.917563
 21
492.288515
 31
0.0
  0
LINE
  5
111
330
10B
100
AcDbEntity
  8
GR1-1
  6
CONTINUOUS
 62
     7
100
AcDbLine
 10
655.917563
 20
432.288515
 30
0.0
 11
655.917563
 21
492.288515
 31
0.0
  0
INSERT
  5
112
330
10B
100
AcDbEntity
  8
GR1-1
  6
CONTINUOUS
 62
     7
100
AcDbBlockReference
  2
FXTIP_ARROW_S
 10
655.917563
 20
432.288515
 30
0.0
 41
4.0
 42
4.0
 50
270.0
  0
INSERT
  5
113
330
10B
100
AcDbEntity
  8
GR1-1
  6
CONTINUOUS
 62
     7
100
AcDbBlockReference
  2
FXTIP_ARROW_E
 10
655.917563
 20
492.288515
 30
0.0
 41
4.0
 42
4.0
 50
90.0
  0
ENDBLK
  5
10D
330
10B
100
AcDbEntity
  8
0
100
AcDbBlockEnd
  0
BLOCK
  5
116
330
115
100
AcDbEntity
  8
0
100
AcDbBlockBegin
  2
*D28
 70
     1
 71
     0
 10
0.0
 20
0.0
 30
0.0
  3
*D28
  1

  0
TEXT
  5
118
330
115
100
AcDbEntity
  8
GR1-1
  6
CONTINUOUS
 62
     7
100
AcDbText
 10
541.419678
 20
544.83783
 30
0.0
 40
4.0
  1
154
 41
0.814655
  7
FX_VECTOR
 72
     5
 11
550.419678
 21
544.83783
 31
0.0
100
AcDbText
  0
LINE
  5
119
330
115
100
AcDbEntity
  8
GR1-1
  6
CONTINUOUS
 62
     7
100
AcDbLine
 10
468.919701
 20
499.788515
 30
0.0
 11
468.919701
 21
544.837806
 31
0.0
  0
LINE
  5
11A
330
115
100
AcDbEntity
  8
GR1-1
  6
CONTINUOUS
 62
     7
100
AcDbLine
 10
622.919701
 20
499.788515
 30
0.0
 11
622.919701
 21
544.837806
 31
0.0
  0
LINE
  5
11B
330
115
100
AcDbEntity
  8
GR1-1
  6
CONTINUOUS
 62
     7
100
AcDbLine
 10
468.919701
 20
543.837806
 30
0.0
 11
622.919701
 21
543.837806
 31
0.0
  0
INSERT
  5
11C
330
115
100
AcDbEntity
  8
GR1-1
  6
CONTINUOUS
 62
     7
100
AcDbBlockReference
  2
FXTIP_ARROW_S
 10
468.919701
 20
543.837806
 30
0.0
 41
4.0
 42
4.0
 50
180.0
  0
INSERT
  5
11D
330
115
100
AcDbEntity
  8
GR1-1
  6
CONTINUOUS
 62
     7
100
AcDbBlockReference
  2
FXTIP_ARROW_E
 10
622.919701
 20
543.837806
 30
0.0
 41
4.0
 42
4.0
 50
360.0
  0
ENDBLK
  5
117
330
115
100
AcDbEntity
  8
0
100
AcDbBlockEnd
  0
BLOCK
  5
120
330
11F
100
AcDbEntity
  8
0
100
AcDbBlockBegin
  2
*D29
 70
     1
 71
     0
 10
0.0
 20
0.0
 30
0.0
  3
*D29
  1

  0
TEXT
  5
122
330
11F
100
AcDbEntity
  8
GR1-1
  6
CONTINUOUS
 62
     7
100
AcDbText
 10
541.419678
 20
534.83783
 30
0.0
 40
4.0
  1
112
 41
0.828947
  7
FX_VECTOR
 72
     5
 11
550.419678
 21
534.83783
 31
0.0
100
AcDbText
  0
LINE
  5
123
330
11F
100
AcDbEntity
  8
GR1-1
  6
CONTINUOUS
 62
     7
100
AcDbLine
 10
489.919701
 20
501.788515
 30
0.0
 11
489.919701
 21
534.837806
 31
0.0
  0
LINE
  5
124
330
11F
100
AcDbEntity
  8
GR1-1
  6
CONTINUOUS
 62
     7
100
AcDbLine
 10
601.919701
 20
501.788515
 30
0.0
 11
601.919701
 21
534.837806
 31
0.0
  0
LINE
  5
125
330
11F
100
AcDbEntity
  8
GR1-1
  6
CONTINUOUS
 62
     7
100
AcDbLine
 10
489.919701
 20
533.837806
 30
0.0
 11
601.919701
 21
533.837806
 31
0.0
  0
INSERT
  5
126
330
11F
100
AcDbEntity
  8
GR1-1
  6
CONTINUOUS
 62
     7
100
AcDbBlockReference
  2
FXTIP_ARROW_S
 10
489.919701
 20
533.837806
 30
0.0
 41
4.0
 42
4.0
 50
180.0
  0
INSERT
  5
127
330
11F
100
AcDbEntity
  8
GR1-1
  6
CONTINUOUS
 62
     7
100
AcDbBlockReference
  2
FXTIP_ARROW_E
 10
601.919701
 20
533.837806
 30
0.0
 41
4.0
 42
4.0
 50
360.0
  0
ENDBLK
  5
121
330
11F
100
AcDbEntity
  8
0
100
AcDbBlockEnd
  0
BLOCK
  5
12A
330
129
100
AcDbEntity
  8
0
100
AcDbBlockBegin
  2
*D30
 70
     1
 71
     0
 10
0.0
 20
0.0
 30
0.0
  3
*D30
  1

  0
TEXT
  5
12C
330
129
100
AcDbEntity
  8
GR1-1
  6
CONTINUOUS
 62
     7
100
AcDbText
 10
541.419678
 20
524.83783
 30
0.0
 40
4.0
  1
109
 41
0.84375
  7
FX_VECTOR
 72
     5
 11
550.419678
 21
524.83783
 31
0.0
100
AcDbText
  0
LINE
  5
12D
330
129
100
AcDbEntity
  8
GR1-1
  6
CONTINUOUS
 62
     7
100
AcDbLine
 10
600.419701
 20
500.288515
 30
0.0
 11
600.419701
 21
524.837806
 31
0.0
  0
LINE
  5
12E
330
129
100
AcDbEntity
  8
GR1-1
  6
CONTINUOUS
 62
     7
100
AcDbLine
 10
491.419701
 20
500.288515
 30
0.0
 11
491.419701
 21
524.837806
 31
0.0
  0
LINE
  5
12F
330
129
100
AcDbEntity
  8
GR1-1
  6
CONTINUOUS
 62
     7
100
AcDbLine
 10
600.419701
 20
523.837806
 30
0.0
 11
491.419701
 21
523.837806
 31
0.0
  0
INSERT
  5
130
330
129
100
AcDbEntity
  8
GR1-1
  6
CONTINUOUS
 62
     7
100
AcDbBlockReference
  2
FXTIP_ARROW_S
 10
600.419701
 20
523.837806
 30
0.0
 41
4.0
 42
4.0
  0
INSERT
  5
131
330
129
100
AcDbEntity
  8
GR1-1
  6
CONTINUOUS
 62
     7
100
AcDbBlockReference
  2
FXTIP_ARROW_E
 10
491.419701
 20
523.837806
 30
0.0
 41
4.0
 42
4.0
 50
180.0
  0
ENDBLK
  5
12B
330
129
100
AcDbEntity
  8
0
100
AcDbBlockEnd
  0
BLOCK
  5
134
330
133
100
AcDbEntity
  8
0
100
AcDbBlockBegin
  2
*D31
 70
     1
 71
     0
 10
0.0
 20
0.0
 30
0.0
  3
*D31
  1

  0
TEXT
  5
136
330
133
100
AcDbEntity
  8
GR1-1
  6
CONTINUOUS
 62
     7
100
AcDbText
 10
460.420099
 20
409.110235
 30
0.0
 40
4.686059
  1
4-11.5
 50
315.0
 41
0.431142
  7
FX_VECTOR
 72
     5
 11
468.107367
 21
401.422968
 31
0.0
100
AcDbText
  0
LINE
  5
137
330
133
100
AcDbEntity
  8
GR1-1
  6
CONTINUOUS
 62
     7
100
AcDbLine
 10
493.278458
 20
426.015545
 30
0.0
 11
466.508699
 21
399.245785
 31
0.0
  0
LINE
  5
138
330
133
100
AcDbEntity
  8
GR1-1
  6
CONTINUOUS
 62
     7
100
AcDbLine
 10
485.14673
 20
434.147273
 30
0.0
 11
458.376971
 21
407.377513
 31
0.0
  0
LINE
  5
139
330
133
100
AcDbEntity
  8
GR1-1
  6
CONTINUOUS
 62
     7
100
AcDbLine
 10
467.215805
 20
399.952892
 30
0.0
 11
459.084078
 21
408.08462
 31
0.0
  0
INSERT
  5
13A
330
133
100
AcDbEntity
  8
GR1-1
  6
CONTINUOUS
 62
     7
100
AcDbBlockReference
  2
FXTIP_ARROW_S
 10
467.215805
 20
399.952892
 30
0.0
 41
4.0
 42
4.0
 50
315.0
  0
INSERT
  5
13B
330
133
100
AcDbEntity
  8
GR1-1
  6
CONTINUOUS
 62
     7
100
AcDbBlockReference
  2
FXTIP_ARROW_E
 10
459.084078
 20
408.08462
 30
0.0
 41
4.0
 42
4.0
 50
135.0
  0
ENDBLK
  5
135
330
133
100
AcDbEntity
  8
0
100
AcDbBlockEnd
  0
BLOCK
  5
325
330
324
100
AcDbEntity
  8
0
100
AcDbBlockBegin
  2
*D32
 70
     1
 71
     0
 10
0.0
 20
0.0
 30
0.0
  3
*D32
  1

  0
TEXT
  5
327
330
324
100
AcDbEntity
  8
LAYERGROUP-1
  6
CONTINUOUS
 62
     7
100
AcDbText
 10
182.930115
 20
153.288513
 30
0.0
 40
4.0
  1
%%c200
 50
90.0
 41
0.828947
  7
FX_VECTOR
 72
     5
 11
182.930115
 21
165.288513
 31
0.0
100
AcDbText
  0
LINE
  5
328
330
324
100
AcDbEntity
  8
LAYERGROUP-1
  6
CONTINUOUS
 62
     7
100
AcDbLine
 10
183.930095
 20
59.288515
 30
0.0
 11
183.930095
 21
259.288515
 31
0.0
  0
INSERT
  5
329
330
324
100
AcDbEntity
  8
LAYERGROUP-1
  6
CONTINUOUS
 62
     7
100
AcDbBlockReference
  2
FXTIP_ARROW_S
 10
183.930095
 20
59.288515
 30
0.0
 41
4.0
 42
4.0
 50
270.0
  0
INSERT
  5
32A
330
324
100
AcDbEntity
  8
LAYERGROUP-1
  6
CONTINUOUS
 62
     7
100
AcDbBlockReference
  2
FXTIP_ARROW_E
 10
183.930095
 20
259.288515
 30
0.0
 41
4.0
 42
4.0
 50
90.0
  0
LINE
  5
32B
330
324
100
AcDbEntity
  8
LAYERGROUP-1
  6
CONTINUOUS
 62
     7
100
AcDbLine
 10
244.919701
 20
59.288515
 30
0.0
 11
182.930095
 21
59.288515
 31
0.0
  0
LINE
  5
32C
330
324
100
AcDbEntity
  8
LAYERGROUP-1
  6
CONTINUOUS
 62
     7
100
AcDbLine
 10
244.919701
 20
259.288515
 30
0.0
 11
182.930095
 21
259.288515
 31
0.0
  0
ENDBLK
  5
326
330
324
100
AcDbEntity
  8
0
100
AcDbBlockEnd
  0
BLOCK
  5
350
330
34F
100
AcDbEntity
  8
0
100
AcDbBlockBegin
  2
*D33
 70
     1
 71
     0
 10
0.0
 20
0.0
 30
0.0
  3
*D33
  1

  0
TEXT
  5
352
330
34F
100
AcDbEntity
  8
LAYERGROUP-1
  6
CONTINUOUS
 62
     7
100
AcDbText
 10
242.919708
 20
48.771057
 30
0.0
 40
4.0
  1
42
 41
0.851351
  7
FX_VECTOR
 72
     5
 11
248.919708
 21
48.771057
 31
0.0
100
AcDbText
  0
LINE
  5
353
330
34F
100
AcDbEntity
  8
LAYERGROUP-1
  6
CONTINUOUS
 62
     7
100
AcDbLine
 10
224.919701
 20
47.77106
 30
0.0
 11
266.919701
 21
47.77106
 31
0.0
  0
INSERT
  5
354
330
34F
100
AcDbEntity
  8
LAYERGROUP-1
  6
CONTINUOUS
 62
     7
100
AcDbBlockReference
  2
FXTIP_ARROW_S
 10
224.919701
 20
47.77106
 30
0.0
 41
4.0
 42
4.0
 50
180.0
  0
INSERT
  5
355
330
34F
100
AcDbEntity
  8
LAYERGROUP-1
  6
CONTINUOUS
 62
     7
100
AcDbBlockReference
  2
FXTIP_ARROW_E
 10
266.919701
 20
47.77106
 30
0.0
 41
4.0
 42
4.0
 50
360.0
  0
LINE
  5
356
330
34F
100
AcDbEntity
  8
LAYERGROUP-1
  6
CONTINUOUS
 62
     7
100
AcDbLine
 10
224.919701
 20
68.288515
 30
0.0
 11
224.919701
 21
46.77106
 31
0.0
  0
LINE
  5
357
330
34F
100
AcDbEntity
  8
LAYERGROUP-1
  6
CONTINUOUS
 62
     7
100
AcDbLine
 10
266.919701
 20
68.288515
 30
0.0
 11
266.919701
 21
46.77106
 31
0.0
  0
ENDBLK
  5
351
330
34F
100
AcDbEntity
  8
0
100
AcDbBlockEnd
  0
BLOCK
  5
35A
330
359
100
AcDbEntity
  8
0
100
AcDbBlockBegin
  2
*D34
 70
     1
 71
     0
 10
0.0
 20
0.0
 30
0.0
  3
*D34
  1

  0
TEXT
  5
35C
330
359
100
AcDbEntity
  8
LAYERGROUP-1
  6
CONTINUOUS
 62
     7
100
AcDbText
 10
242.919708
 20
39.768372
 30
0.0
 40
4.0
  1
55
 41
0.851351
  7
FX_VECTOR
 72
     5
 11
248.919708
 21
39.768372
 31
0.0
100
AcDbText
  0
LINE
  5
35D
330
359
100
AcDbEntity
  8
LAYERGROUP-1
  6
CONTINUOUS
 62
     7
100
AcDbLine
 10
218.419701
 20
38.768397
 30
0.0
 11
273.419701
 21
38.768397
 31
0.0
  0
INSERT
  5
35E
330
359
100
AcDbEntity
  8
LAYERGROUP-1
  6
CONTINUOUS
 62
     7
100
AcDbBlockReference
  2
FXTIP_ARROW_S
 10
218.419701
 20
38.768397
 30
0.0
 41
4.0
 42
4.0
 50
180.0
  0
INSERT
  5
35F
330
359
100
AcDbEntity
  8
LAYERGROUP-1
  6
CONTINUOUS
 62
     7
100
AcDbBlockReference
  2
FXTIP_ARROW_E
 10
273.419701
 20
38.768397
 30
0.0
 41
4.0
 42
4.0
 50
360.0
  0
LINE
  5
360
330
359
100
AcDbEntity
  8
LAYERGROUP-1
  6
CONTINUOUS
 62
     7
100
AcDbLine
 10
218.419701
 20
143.788515
 30
0.0
 11
218.419701
 21
37.768397
 31
0.0
  0
LINE
  5
361
330
359
100
AcDbEntity
  8
LAYERGROUP-1
  6
CONTINUOUS
 62
     7
100
AcDbLine
 10
273.419701
 20
143.788515
 30
0.0
 11
273.419701
 21
37.768397
 31
0.0
  0
ENDBLK
  5
35B
330
359
100
AcDbEntity
  8
0
100
AcDbBlockEnd
  0
BLOCK
  5
363
330
362
100
AcDbEntity
  8
0
100
AcDbBlockBegin
  2
BLKF037
 70
     0
 71
     0
 10
0.0
 20
0.0
 30
0.0
  3
BLKF037
  1

  0
LINE
  5
366
330
362
100
AcDbEntity
  8
GR1-1
  6
CONTINUOUS
 62
     3
100
AcDbLine
 10
224.919701
 20
245.688515
 30
0.0
 11
224.919701
 21
239.451359
 31
0.0
  0
LINE
  5
367
330
362
100
AcDbEntity
  8
LAYERGROUP-1
  6
CONTINUOUS
 62
     3
100
AcDbLine
 10
224.919701
 20
159.288515
 30
0.0
 11
224.919701
 21
239.451359
 31
0.0
  0
LINE
  5
368
330
362
100
AcDbEntity
  8
GR1-1
  6
CONTINUOUS
 62
     3
100
AcDbLine
 10
221.419701
 20
194.055369
 30
0.0
 11
221.419701
 21
159.288515
 31
0.0
  0
ARC
  5
369
330
362
100
AcDbEntity
  8
LAYERGROUP-1
  6
CONTINUOUS
 62
     3
100
AcDbCircle
 10
225.419701
 20
194.055369
 30
0.0
 40
4.0
100
AcDbArc
 50
161.090222
 51
180.0
  0
LINE
  5
36A
330
362
100
AcDbEntity
  8
LAYERGROUP-1
  6
CONTINUOUS
 62
     3
100
AcDbLine
 10
221.637471
 20
195.351018
 30
0.0
 11
224.919701
 21
204.656649
 31
0.0
  0
LINE
  5
36B
330
362
100
AcDbEntity
  8
LAYERGROUP-1
  6
CONTINUOUS
 62
     3
100
AcDbLine
 10
218.419701
 20
159.288515
 30
0.0
 11
218.419701
 21
173.788515
 31
0.0
  0
LINE
  5
36C
330
362
100
AcDbEntity
  8
LAYERGROUP-1
  6
CONTINUOUS
 62
     3
100
AcDbLine
 10
221.419701
 20
173.788515
 30
0.0
 11
221.419701
 21
181.788515
 31
0.0
  0
LINE
  5
36D
330
362
100
AcDbEntity
  8
LAYERGROUP-1
  6
CONTINUOUS
 62
     3
100
AcDbLine
 10
221.419701
 20
173.788515
 30
0.0
 11
218.419701
 21
173.788515
 31
0.0
  0
LINE
  5
36E
330
362
100
AcDbEntity
  8
LAYERGROUP-1
  6
CONTINUOUS
 62
     3
100
AcDbLine
 10
224.919701
 20
249.288515
 30
0.0
 11
230.115854
 21
258.288515
 31
0.0
  0
LINE
  5
36F
330
362
100
AcDbEntity
  8
LAYERGROUP-1
  6
CONTINUOUS
 62
     3
100
AcDbLine
 10
231.847904
 20
259.288515
 30
0.0
 11
259.991498
 21
259.288515
 31
0.0
  0
ARC
  5
370
330
362
100
AcDbEntity
  8
LAYERGROUP-1
  6
CONTINUOUS
 62
     3
100
AcDbCircle
 10
231.847904
 20
257.288515
 30
0.0
 40
2.0
100
AcDbArc
 50
90.0
 51
150.0
  0
LINE
  5
371
330
362
100
AcDbEntity
  8
LAYERGROUP-1
  6
CONTINUOUS
 62
     3
100
AcDbLine
 10
266.919701
 20
249.288515
 30
0.0
 11
261.723549
 21
258.288515
 31
0.0
  0
ARC
  5
372
330
362
100
AcDbEntity
  8
LAYERGROUP-1
  6
CONTINUOUS
 62
     3
100
AcDbCircle
 10
259.991498
 20
257.288515
 30
0.0
 40
2.0
100
AcDbArc
 50
30.0
 51
90.0
  0
LINE
  5
373
330
362
100
AcDbEntity
  8
LAYERGROUP-1
  6
CONTINUOUS
 62
     3
100
AcDbLine
 10
224.92606
 20
245.90239
 30
0.0
 11
224.919701
 21
249.288515
 31
0.0
  0
LINE
  5
374
330
362
100
AcDbEntity
  8
GR1-1
  6
CONTINUOUS
 62
     6
100
AcDbLine
 10
230.919701
 20
259.060079
 30
0.0
 11
230.919701
 21
159.288515
 31
0.0
  0
LINE
  5
375
330
362
100
AcDbEntity
  8
GR1-1
  6
CONTINUOUS
 62
     3
100
AcDbLine
 10
266.919701
 20
245.688515
 30
0.0
 11
266.919701
 21
239.451359
 31
0.0
  0
LINE
  5
376
330
362
100
AcDbEntity
  8
LAYERGROUP-1
  6
CONTINUOUS
 62
     3
100
AcDbLine
 10
266.919701
 20
159.288515
 30
0.0
 11
266.919701
 21
239.451359
 31
0.0
  0
LINE
  5
377
330
362
100
AcDbEntity
  8
GR1-1
  6
CONTINUOUS
 62
     3
100
AcDbLine
 10
270.419701
 20
194.055369
 30
0.0
 11
270.419701
 21
159.288515
 31
0.0
  0
ARC
  5
378
330
362
100
AcDbEntity
  8
LAYERGROUP-1
  6
CONTINUOUS
 62
     3
100
AcDbCircle
 10
266.419701
 20
194.055369
 30
0.0
 40
4.0
100
AcDbArc
 50
0.0
 51
18.909778
  0
LINE
  5
379
330
362
100
AcDbEntity
  8
LAYERGROUP-1
  6
CONTINUOUS
 62
     3
100
AcDbLine
 10
270.201931
 20
195.351018
 30
0.0
 11
266.919701
 21
204.656649
 31
0.0
  0
LINE
  5
37A
330
362
100
AcDbEntity
  8
LAYERGROUP-1
  6
CONTINUOUS
 62
     3
100
AcDbLine
 10
273.419701
 20
159.288515
 30
0.0
 11
273.419701
 21
173.788515
 31
0.0
  0
LINE
  5
37B
330
362
100
AcDbEntity
  8
LAYERGROUP-1
  6
CONTINUOUS
 62
     3
100
AcDbLine
 10
270.419701
 20
173.788515
 30
0.0
 11
270.419701
 21
181.788515
 31
0.0
  0
LINE
  5
37C
330
362
100
AcDbEntity
  8
LAYERGROUP-1
  6
CONTINUOUS
 62
     3
100
AcDbLine
 10
270.419701
 20
173.788515
 30
0.0
 11
273.419701
 21
173.788515
 31
0.0
  0
LINE
  5
37D
330
362
100
AcDbEntity
  8
LAYERGROUP-1
  6
CONTINUOUS
 62
     3
100
AcDbLine
 10
266.919701
 20
249.288515
 30
0.0
 11
261.723549
 21
258.288515
 31
0.0
  0
ARC
  5
37E
330
362
100
AcDbEntity
  8
LAYERGROUP-1
  6
CONTINUOUS
 62
     3
100
AcDbCircle
 10
259.991498
 20
257.288515
 30
0.0
 40
2.0
100
AcDbArc
 50
30.0
 51
90.0
  0
LINE
  5
37F
330
362
100
AcDbEntity
  8
LAYERGROUP-1
  6
CONTINUOUS
 62
     3
100
AcDbLine
 10
266.913342
 20
245.90239
 30
0.0
 11
266.919701
 21
249.288515
 31
0.0
  0
LINE
  5
380
330
362
100
AcDbEntity
  8
GR1-1
  6
CONTINUOUS
 62
     6
100
AcDbLine
 10
260.919701
 20
259.060079
 30
0.0
 11
260.919701
 21
159.288515
 31
0.0
  0
LINE
  5
381
330
362
100
AcDbEntity
  8
GR1-1
  6
CONTINUOUS
 62
     3
100
AcDbLine
 10
224.919701
 20
72.888515
 30
0.0
 11
224.919701
 21
79.125672
 31
0.0
  0
LINE
  5
382
330
362
100
AcDbEntity
  8
LAYERGROUP-1
  6
CONTINUOUS
 62
     3
100
AcDbLine
 10
224.919701
 20
159.288515
 30
0.0
 11
224.919701
 21
79.125672
 31
0.0
  0
LINE
  5
383
330
362
100
AcDbEntity
  8
GR1-1
  6
CONTINUOUS
 62
     3
100
AcDbLine
 10
221.419701
 20
124.521662
 30
0.0
 11
221.419701
 21
159.288515
 31
0.0
  0
ARC
  5
384
330
362
100
AcDbEntity
  8
LAYERGROUP-1
  6
CONTINUOUS
 62
     3
100
AcDbCircle
 10
225.419701
 20
124.521662
 30
0.0
 40
4.0
100
AcDbArc
 50
180.0
 51
198.909778
  0
LINE
  5
385
330
362
100
AcDbEntity
  8
LAYERGROUP-1
  6
CONTINUOUS
 62
     3
100
AcDbLine
 10
221.637471
 20
123.226013
 30
0.0
 11
224.919701
 21
113.920382
 31
0.0
  0
LINE
  5
386
330
362
100
AcDbEntity
  8
LAYERGROUP-1
  6
CONTINUOUS
 62
     3
100
AcDbLine
 10
218.419701
 20
159.288515
 30
0.0
 11
218.419701
 21
144.788515
 31
0.0
  0
LINE
  5
387
330
362
100
AcDbEntity
  8
LAYERGROUP-1
  6
CONTINUOUS
 62
     3
100
AcDbLine
 10
221.419701
 20
144.788515
 30
0.0
 11
221.419701
 21
136.788515
 31
0.0
  0
LINE
  5
388
330
362
100
AcDbEntity
  8
LAYERGROUP-1
  6
CONTINUOUS
 62
     3
100
AcDbLine
 10
221.419701
 20
144.788515
 30
0.0
 11
218.419701
 21
144.788515
 31
0.0
  0
LINE
  5
389
330
362
100
AcDbEntity
  8
LAYERGROUP-1
  6
CONTINUOUS
 62
     3
100
AcDbLine
 10
224.919701
 20
69.288515
 30
0.0
 11
230.115854
 21
60.288515
 31
0.0
  0
LINE
  5
38A
330
362
100
AcDbEntity
  8
LAYERGROUP-1
  6
CONTINUOUS
 62
     3
100
AcDbLine
 10
231.847904
 20
59.288515
 30
0.0
 11
259.991498
 21
59.288515
 31
0.0
  0
ARC
  5
38B
330
362
100
AcDbEntity
  8
LAYERGROUP-1
  6
CONTINUOUS
 62
     3
100
AcDbCircle
 10
231.847904
 20
61.288515
 30
0.0
 40
2.0
100
AcDbArc
 50
210.0
 51
270.0
  0
LINE
  5
38C
330
362
100
AcDbEntity
  8
LAYERGROUP-1
  6
CONTINUOUS
 62
     3
100
AcDbLine
 10
266.919701
 20
69.288515
 30
0.0
 11
261.723549
 21
60.288515
 31
0.0
  0
ARC
  5
38D
330
362
100
AcDbEntity
  8
LAYERGROUP-1
  6
CONTINUOUS
 62
     3
100
AcDbCircle
 10
259.991498
 20
61.288515
 30
0.0
 40
2.0
100
AcDbArc
 50
270.0
 51
330.0
  0
LINE
  5
38E
330
362
100
AcDbEntity
  8
LAYERGROUP-1
  6
CONTINUOUS
 62
     3
100
AcDbLine
 10
224.92606
 20
72.674641
 30
0.0
 11
224.919701
 21
69.288515
 31
0.0
  0
LINE
  5
38F
330
362
100
AcDbEntity
  8
GR1-1
  6
CONTINUOUS
 62
     6
100
AcDbLine
 10
230.919701
 20
59.516951
 30
0.0
 11
230.919701
 21
159.288515
 31
0.0
  0
LINE
  5
390
330
362
100
AcDbEntity
  8
GR1-1
  6
CONTINUOUS
 62
     3
100
AcDbLine
 10
266.919701
 20
72.888515
 30
0.0
 11
266.919701
 21
79.125672
 31
0.0
  0
LINE
  5
391
330
362
100
AcDbEntity
  8
LAYERGROUP-1
  6
CONTINUOUS
 62
     3
100
AcDbLine
 10
266.919701
 20
159.288515
 30
0.0
 11
266.919701
 21
79.125672
 31
0.0
  0
LINE
  5
392
330
362
100
AcDbEntity
  8
GR1-1
  6
CONTINUOUS
 62
     3
100
AcDbLine
 10
270.419701
 20
124.521662
 30
0.0
 11
270.419701
 21
159.288515
 31
0.0
  0
ARC
  5
393
330
362
100
AcDbEntity
  8
LAYERGROUP-1
  6
CONTINUOUS
 62
     3
100
AcDbCircle
 10
266.419701
 20
124.521662
 30
0.0
 40
4.0
100
AcDbArc
 50
-18.909778
 51
0.0
  0
LINE
  5
394
330
362
100
AcDbEntity
  8
LAYERGROUP-1
  6
CONTINUOUS
 62
     3
100
AcDbLine
 10
270.201931
 20
123.226013
 30
0.0
 11
266.919701
 21
113.920382
 31
0.0
  0
LINE
  5
395
330
362
100
AcDbEntity
  8
LAYERGROUP-1
  6
CONTINUOUS
 62
     3
100
AcDbLine
 10
273.419701
 20
159.288515
 30
0.0
 11
273.419701
 21
144.788515
 31
0.0
  0
LINE
  5
396
330
362
100
AcDbEntity
  8
LAYERGROUP-1
  6
CONTINUOUS
 62
     3
100
AcDbLine
 10
270.419701
 20
144.788515
 30
0.0
 11
270.419701
 21
136.788515
 31
0.0
  0
LINE
  5
397
330
362
100
AcDbEntity
  8
LAYERGROUP-1
  6
CONTINUOUS
 62
     3
100
AcDbLine
 10
270.419701
 20
144.788515
 30
0.0
 11
273.419701
 21
144.788515
 31
0.0
  0
LINE
  5
398
330
362
100
AcDbEntity
  8
LAYERGROUP-1
  6
CONTINUOUS
 62
     3
100
AcDbLine
 10
266.919701
 20
69.288515
 30
0.0
 11
261.723549
 21
60.288515
 31
0.0
  0
ARC
  5
399
330
362
100
AcDbEntity
  8
LAYERGROUP-1
  6
CONTINUOUS
 62
     3
100
AcDbCircle
 10
259.991498
 20
61.288515
 30
0.0
 40
2.0
100
AcDbArc
 50
270.0
 51
330.0
  0
LINE
  5
39A
330
362
100
AcDbEntity
  8
LAYERGROUP-1
  6
CONTINUOUS
 62
     3
100
AcDbLine
 10
266.913342
 20
72.674641
 30
0.0
 11
266.919701
 21
69.288515
 31
0.0
  0
LINE
  5
39B
330
362
100
AcDbEntity
  8
GR1-1
  6
CONTINUOUS
 62
     6
100
AcDbLine
 10
260.919701
 20
59.516951
 30
0.0
 11
260.919701
 21
159.288515
 31
0.0
  0
ENDBLK
  5
364
330
362
100
AcDbEntity
  8
0
100
AcDbBlockEnd
  0
BLOCK
  5
3BA
330
3B9
100
AcDbEntity
  8
0
100
AcDbBlockBegin
  2
BLKF038
 70
     0
 71
     0
 10
0.0
 20
0.0
 30
0.0
  3
BLKF038
  1

  0
LINE
  5
3BD
330
3B9
100
AcDbEntity
  8
GR1-1
  6
CONTINUOUS
 62
     7
100
AcDbLine
 10
520.407643
 20
112.75339
 30
0.0
 11
520.029897
 21
112.621832
 31
0.0
  0
LINE
  5
3BE
330
3B9
100
AcDbEntity
  8
GR1-1
  6
CONTINUOUS
 62
     7
100
AcDbLine
 10
520.662296
 20
112.630297
 30
0.0
 11
519.906803
 21
112.367179
 31
0.0
  0
LINE
  5
3BF
330
3B9
100
AcDbEntity
  8
GR1-1
  6
CONTINUOUS
 62
     7
100
AcDbLine
 10
520.916949
 20
112.507203
 30
0.0
 11
519.78371
 21
112.112527
 31
0.0
  0
LINE
  5
3C0
330
3B9
100
AcDbEntity
  8
GR1-1
  6
CONTINUOUS
 62
     7
100
AcDbLine
 10
521.171601
 20
112.384109
 30
0.0
 11
519.660616
 21
111.857874
 31
0.0
  0
LINE
  5
3C1
330
3B9
100
AcDbEntity
  8
GR1-1
  6
CONTINUOUS
 62
     7
100
AcDbLine
 10
521.426254
 20
112.261015
 30
0.0
 11
520.1232
 21
111.807197
 31
0.0
  0
LINE
  5
3C2
330
3B9
100
AcDbEntity
  8
GR1-1
  6
CONTINUOUS
 62
     7
100
AcDbLine
 10
519.766664
 20
111.683025
 30
0.0
 11
519.537522
 21
111.603221
 31
0.0
  0
LINE
  5
3C3
330
3B9
100
AcDbEntity
  8
GR1-1
  6
CONTINUOUS
 62
     7
100
AcDbLine
 10
521.680906
 20
112.137922
 30
0.0
 11
520.377852
 21
111.684103
 31
0.0
  0
LINE
  5
3C4
330
3B9
100
AcDbEntity
  8
GR1-1
  6
CONTINUOUS
 62
     7
100
AcDbLine
 10
519.64357
 20
111.428373
 30
0.0
 11
519.414428
 21
111.348569
 31
0.0
  0
LINE
  5
3C5
330
3B9
100
AcDbEntity
  8
GR1-1
  6
CONTINUOUS
 62
     7
100
AcDbLine
 10
521.935559
 20
112.014828
 30
0.0
 11
520.632505
 21
111.56101
 31
0.0
  0
LINE
  5
3C6
330
3B9
100
AcDbEntity
  8
GR1-1
  6
CONTINUOUS
 62
     7
100
AcDbLine
 10
519.520476
 20
111.17372
 30
0.0
 11
519.291335
 21
111.093916
 31
0.0
  0
LINE
  5
3C7
330
3B9
100
AcDbEntity
  8
GR1-1
  6
CONTINUOUS
 62
     7
100
AcDbLine
 10
522.190211
 20
111.891734
 30
0.0
 11
520.732917
 21
111.384198
 31
0.0
  0
LINE
  5
3C8
330
3B9
100
AcDbEntity
  8
GR1-1
  6
CONTINUOUS
 62
     7
100
AcDbLine
 10
519.397383
 20
110.919067
 30
0.0
 11
519.168241
 21
110.839264
 31
0.0
  0
LINE
  5
3C9
330
3B9
100
AcDbEntity
  8
GR1-1
  6
CONTINUOUS
 62
     7
100
AcDbLine
 10
522.444864
 20
111.76864
 30
0.0
 11
520.609824
 21
111.129546
 31
0.0
  0
LINE
  5
3CA
330
3B9
100
AcDbEntity
  8
GR1-1
  6
CONTINUOUS
 62
     7
100
AcDbLine
 10
519.274289
 20
110.664415
 30
0.0
 11
519.045147
 21
110.584611
 31
0.0
  0
LINE
  5
3CB
330
3B9
100
AcDbEntity
  8
GR1-1
  6
CONTINUOUS
 62
     7
100
AcDbLine
 10
522.699517
 20
111.645547
 30
0.0
 11
520.48673
 21
110.874893
 31
0.0
  0
LINE
  5
3CC
330
3B9
100
AcDbEntity
  8
GR1-1
  6
CONTINUOUS
 62
     7
100
AcDbLine
 10
519.151195
 20
110.409762
 30
0.0
 11
518.922053
 21
110.329959
 31
0.0
  0
LINE
  5
3CD
330
3B9
100
AcDbEntity
  8
GR1-1
  6
CONTINUOUS
 62
     7
100
AcDbLine
 10
522.954169
 20
111.522453
 30
0.0
 11
520.474001
 21
110.658678
 31
0.0
  0
LINE
  5
3CE
330
3B9
100
AcDbEntity
  8
GR1-1
  6
CONTINUOUS
 62
     7
100
AcDbLine
 10
519.028101
 20
110.15511
 30
0.0
 11
518.79896
 21
110.075306
 31
0.0
  0
LINE
  5
3CF
330
3B9
100
AcDbEntity
  8
GR1-1
  6
CONTINUOUS
 62
     7
100
AcDbLine
 10
523.208822
 20
111.399359
 30
0.0
 11
522.831075
 21
111.2678
 31
0.0
  0
LINE
  5
3D0
330
3B9
100
AcDbEntity
  8
GR1-1
  6
CONTINUOUS
 62
     7
100
AcDbLine
 10
519.202217
 20
110.003967
 30
0.0
 11
518.675866
 21
109.820653
 31
0.0
  0
LINE
  5
3D1
330
3B9
100
AcDbEntity
  8
GR1-1
  6
CONTINUOUS
 62
     7
100
AcDbLine
 10
523.463474
 20
111.276266
 30
0.0
 11
522.896855
 21
111.078927
 31
0.0
  0
LINE
  5
3D2
330
3B9
100
AcDbEntity
  8
GR1-1
  6
CONTINUOUS
 62
     7
100
AcDbLine
 10
519.45687
 20
109.880873
 30
0.0
 11
518.552772
 21
109.566001
 31
0.0
  0
LINE
  5
3D3
330
3B9
100
AcDbEntity
  8
GR1-1
  6
CONTINUOUS
 62
     7
100
AcDbLine
 10
523.718127
 20
111.153172
 30
0.0
 11
522.962634
 21
110.890054
 31
0.0
  0
LINE
  5
3D4
330
3B9
100
AcDbEntity
  8
GR1-1
  6
CONTINUOUS
 62
     7
100
AcDbLine
 10
519.711522
 20
109.75778
 30
0.0
 11
519.310862
 21
109.618241
 31
0.0
  0
LINE
  5
3D5
330
3B9
100
AcDbEntity
  8
GR1-1
  6
CONTINUOUS
 62
     7
100
AcDbLine
 10
519.185171
 20
109.574466
 30
0.0
 11
518.429678
 21
109.311348
 31
0.0
  0
LINE
  5
3D6
330
3B9
100
AcDbEntity
  8
GR1-1
  6
CONTINUOUS
 62
     7
100
AcDbLine
 10
523.972779
 20
111.030078
 30
0.0
 11
523.028414
 21
110.701181
 31
0.0
  0
LINE
  5
3D7
330
3B9
100
AcDbEntity
  8
GR1-1
  6
CONTINUOUS
 62
     7
100
AcDbLine
 10
519.966175
 20
109.634686
 30
0.0
 11
519.565514
 21
109.495147
 31
0.0
  0
LINE
  5
3D8
330
3B9
100
AcDbEntity
  8
GR1-1
  6
CONTINUOUS
 62
     7
100
AcDbLine
 10
519.250951
 20
109.385593
 30
0.0
 11
518.306585
 21
109.056696
 31
0.0
  0
LINE
  5
3D9
330
3B9
100
AcDbEntity
  8
GR1-1
  6
CONTINUOUS
 62
     7
100
AcDbLine
 10
524.227432
 20
110.906984
 30
0.0
 11
523.094193
 21
110.512308
 31
0.0
  0
LINE
  5
3DA
330
3B9
100
AcDbEntity
  8
GR1-1
  6
CONTINUOUS
 62
     7
100
AcDbLine
 10
520.220827
 20
109.511592
 30
0.0
 11
519.820167
 21
109.372053
 31
0.0
  0
LINE
  5
3DB
330
3B9
100
AcDbEntity
  8
GR1-1
  6
CONTINUOUS
 62
     7
100
AcDbLine
 10
519.31673
 20
109.19672
 30
0.0
 11
518.183491
 21
108.802043
 31
0.0
  0
LINE
  5
3DC
330
3B9
100
AcDbEntity
  8
GR1-1
  6
CONTINUOUS
 62
     7
100
AcDbLine
 10
524.482085
 20
110.783891
 30
0.0
 11
523.159972
 21
110.323435
 31
0.0
  0
LINE
  5
3DD
330
3B9
100
AcDbEntity
  8
GR1-1
  6
CONTINUOUS
 62
     7
100
AcDbLine
 10
522.215607
 20
109.994538
 30
0.0
 11
521.145276
 21
109.62177
 31
0.0
  0
LINE
  5
3DE
330
3B9
100
AcDbEntity
  8
GR1-1
  6
CONTINUOUS
 62
     7
100
AcDbLine
 10
520.47548
 20
109.388499
 30
0.0
 11
520.074819
 21
109.248959
 31
0.0
  0
LINE
  5
3DF
330
3B9
100
AcDbEntity
  8
GR1-1
  6
CONTINUOUS
 62
     7
100
AcDbLine
 10
519.382509
 20
109.007846
 30
0.0
 11
518.060397
 21
108.547391
 31
0.0
  0
LINE
  5
3E0
330
3B9
100
AcDbEntity
  8
GR1-1
  6
CONTINUOUS
 62
     7
100
AcDbLine
 10
524.736737
 20
110.660797
 30
0.0
 11
523.225752
 21
110.134561
 31
0.0
  0
LINE
  5
3E1
330
3B9
100
AcDbEntity
  8
GR1-1
  6
CONTINUOUS
 62
     7
100
AcDbLine
 10
522.281386
 20
109.805664
 30
0.0
 11
521.3979
 21
109.49797
 31
0.0
  0
LINE
  5
3E2
330
3B9
100
AcDbEntity
  8
GR1-1
  6
CONTINUOUS
 62
     7
100
AcDbLine
 10
520.730132
 20
109.265405
 30
0.0
 11
520.329472
 21
109.125866
 31
0.0
  0
LINE
  5
3E3
330
3B9
100
AcDbEntity
  8
GR1-1
  6
CONTINUOUS
 62
     7
100
AcDbLine
 10
519.448289
 20
108.818973
 30
0.0
 11
517.937303
 21
108.292738
 31
0.0
  0
LINE
  5
3E4
330
3B9
100
AcDbEntity
  8
GR1-1
  6
CONTINUOUS
 62
     7
100
AcDbLine
 10
524.99139
 20
110.537703
 30
0.0
 11
523.291531
 21
109.945688
 31
0.0
  0
LINE
  5
3E5
330
3B9
100
AcDbEntity
  8
GR1-1
  6
CONTINUOUS
 62
     7
100
AcDbLine
 10
522.347165
 20
109.616791
 30
0.0
 11
521.652552
 21
109.374876
 31
0.0
  0
LINE
  5
3E6
330
3B9
100
AcDbEntity
  8
GR1-1
  6
CONTINUOUS
 62
     7
100
AcDbLine
 10
520.984785
 20
109.142311
 30
0.0
 11
520.458434
 21
108.958997
 31
0.0
  0
LINE
  5
3E7
330
3B9
100
AcDbEntity
  8
GR1-1
  6
CONTINUOUS
 62
     7
100
AcDbLine
 10
519.514068
 20
108.6301
 30
0.0
 11
517.81421
 21
108.038085
 31
0.0
  0
LINE
  5
3E8
330
3B9
100
AcDbEntity
  8
GR1-1
  6
CONTINUOUS
 62
     7
100
AcDbLine
 10
525.246042
 20
110.414609
 30
0.0
 11
523.357311
 21
109.756815
 31
0.0
  0
LINE
  5
3E9
330
3B9
100
AcDbEntity
  8
GR1-1
  6
CONTINUOUS
 62
     7
100
AcDbLine
 10
522.412945
 20
109.427918
 30
0.0
 11
521.697721
 21
109.178825
 31
0.0
  0
LINE
  5
3EA
330
3B9
100
AcDbEntity
  8
GR1-1
  6
CONTINUOUS
 62
     7
100
AcDbLine
 10
521.239438
 20
109.019217
 30
0.0
 11
520.524213
 21
108.770124
 31
0.0
  0
LINE
  5
3EB
330
3B9
100
AcDbEntity
  8
GR1-1
  6
CONTINUOUS
 62
     7
100
AcDbLine
 10
519.579848
 20
108.441227
 30
0.0
 11
517.691116
 21
107.783433
 31
0.0
  0
LINE
  5
3EC
330
3B9
100
AcDbEntity
  8
GR1-1
  6
CONTINUOUS
 62
     7
100
AcDbLine
 10
525.500695
 20
110.291516
 30
0.0
 11
523.42309
 21
109.567942
 31
0.0
  0
LINE
  5
3ED
330
3B9
100
AcDbEntity
  8
GR1-1
  6
CONTINUOUS
 62
     7
100
AcDbLine
 10
522.478724
 20
109.239045
 30
0.0
 11
521.574627
 21
108.924172
 31
0.0
  0
LINE
  5
3EE
330
3B9
100
AcDbEntity
  8
GR1-1
  6
CONTINUOUS
 62
     7
100
AcDbLine
 10
521.49409
 20
108.896124
 30
0.0
 11
520.589993
 21
108.581251
 31
0.0
  0
LINE
  5
3EF
330
3B9
100
AcDbEntity
  8
GR1-1
  6
CONTINUOUS
 62
     7
100
AcDbLine
 10
519.645627
 20
108.252354
 30
0.0
 11
517.568022
 21
107.52878
 31
0.0
  0
LINE
  5
3F0
330
3B9
100
AcDbEntity
  8
GR1-1
  6
CONTINUOUS
 62
     7
100
AcDbLine
 10
525.458138
 20
110.064912
 30
0.0
 11
523.48887
 21
109.379069
 31
0.0
  0
LINE
  5
3F1
330
3B9
100
AcDbEntity
  8
GR1-1
  6
CONTINUOUS
 62
     7
100
AcDbLine
 10
522.544504
 20
109.050172
 30
0.0
 11
520.655772
 21
108.392378
 31
0.0
  0
LINE
  5
3F2
330
3B9
100
AcDbEntity
  8
GR1-1
  6
CONTINUOUS
 62
     7
100
AcDbLine
 10
519.711406
 20
108.063481
 30
0.0
 11
517.742138
 21
107.377638
 31
0.0
  0
LINE
  5
3F3
330
3B9
100
AcDbEntity
  8
GR1-1
  6
CONTINUOUS
 62
     7
100
AcDbLine
 10
525.335044
 20
109.810259
 30
0.0
 11
523.554649
 21
109.190196
 31
0.0
  0
LINE
  5
3F4
330
3B9
100
AcDbEntity
  8
GR1-1
  6
CONTINUOUS
 62
     7
100
AcDbLine
 10
522.610283
 20
108.861299
 30
0.0
 11
520.721552
 21
108.203505
 31
0.0
  0
LINE
  5
3F5
330
3B9
100
AcDbEntity
  8
GR1-1
  6
CONTINUOUS
 62
     7
100
AcDbLine
 10
519.777186
 20
107.874608
 30
0.0
 11
517.996791
 21
107.254544
 31
0.0
  0
LINE
  5
3F6
330
3B9
100
AcDbEntity
  8
GR1-1
  6
CONTINUOUS
 62
     7
100
AcDbLine
 10
525.21195
 20
109.555607
 30
0.0
 11
523.620428
 21
109.001323
 31
0.0
  0
LINE
  5
3F7
330
3B9
100
AcDbEntity
  8
GR1-1
  6
CONTINUOUS
 62
     7
100
AcDbLine
 10
522.676063
 20
108.672426
 30
0.0
 11
520.787331
 21
108.014631
 31
0.0
  0
LINE
  5
3F8
330
3B9
100
AcDbEntity
  8
GR1-1
  6
CONTINUOUS
 62
     7
100
AcDbLine
 10
519.842965
 20
107.685734
 30
0.0
 11
518.251443
 21
107.13145
 31
0.0
  0
LINE
  5
3F9
330
3B9
100
AcDbEntity
  8
GR1-1
  6
CONTINUOUS
 62
     7
100
AcDbLine
 10
525.088857
 20
109.300954
 30
0.0
 11
523.686208
 21
108.812449
 31
0.0
  0
LINE
  5
3FA
330
3B9
100
AcDbEntity
  8
GR1-1
  6
CONTINUOUS
 62
     7
100
AcDbLine
 10
522.741842
 20
108.483552
 30
0.0
 11
520.85311
 21
107.825758
 31
0.0
  0
LINE
  5
3FB
330
3B9
100
AcDbEntity
  8
GR1-1
  6
CONTINUOUS
 62
     7
100
AcDbLine
 10
519.908745
 20
107.496861
 30
0.0
 11
518.506096
 21
107.008357
 31
0.0
  0
LINE
  5
3FC
330
3B9
100
AcDbEntity
  8
GR1-1
  6
CONTINUOUS
 62
     7
100
AcDbLine
 10
524.965763
 20
109.046301
 30
0.0
 11
523.751987
 21
108.623576
 31
0.0
  0
LINE
  5
3FD
330
3B9
100
AcDbEntity
  8
GR1-1
  6
CONTINUOUS
 62
     7
100
AcDbLine
 10
522.807621
 20
108.294679
 30
0.0
 11
520.91889
 21
107.636885
 31
0.0
  0
LINE
  5
3FE
330
3B9
100
AcDbEntity
  8
GR1-1
  6
CONTINUOUS
 62
     7
100
AcDbLine
 10
519.974524
 20
107.307988
 30
0.0
 11
518.760748
 21
106.885263
 31
0.0
  0
LINE
  5
3FF
330
3B9
100
AcDbEntity
  8
GR1-1
  6
CONTINUOUS
 62
     7
100
AcDbLine
 10
524.842669
 20
108.791649
 30
0.0
 11
523.817767
 21
108.434703
 31
0.0
  0
LINE
  5
400
330
3B9
100
AcDbEntity
  8
GR1-1
  6
CONTINUOUS
 62
     7
100
AcDbLine
 10
520.040303
 20
107.119115
 30
0.0
 11
519.015401
 21
106.762169
 31
0.0
  0
LINE
  5
401
330
3B9
100
AcDbEntity
  8
GR1-1
  6
CONTINUOUS
 62
     7
100
AcDbLine
 10
524.719575
 20
108.536996
 30
0.0
 11
523.883546
 21
108.24583
 31
0.0
  0
LINE
  5
402
330
3B9
100
AcDbEntity
  8
GR1-1
  6
CONTINUOUS
 62
     7
100
AcDbLine
 10
520.106083
 20
106.930242
 30
0.0
 11
519.270053
 21
106.639075
 31
0.0
  0
LINE
  5
403
330
3B9
100
AcDbEntity
  8
GR1-1
  6
CONTINUOUS
 62
     7
100
AcDbLine
 10
524.596482
 20
108.282344
 30
0.0
 11
523.949325
 21
108.056957
 31
0.0
  0
LINE
  5
404
330
3B9
100
AcDbEntity
  8
GR1-1
  6
CONTINUOUS
 62
     7
100
AcDbLine
 10
520.171862
 20
106.741369
 30
0.0
 11
519.524706
 21
106.515982
 31
0.0
  0
LINE
  5
405
330
3B9
100
AcDbEntity
  8
GR1-1
  6
CONTINUOUS
 62
     7
100
AcDbLine
 10
524.473388
 20
108.027691
 30
0.0
 11
524.015105
 21
107.868084
 31
0.0
  0
LINE
  5
406
330
3B9
100
AcDbEntity
  8
GR1-1
  6
CONTINUOUS
 62
     7
100
AcDbLine
 10
520.237642
 20
106.552495
 30
0.0
 11
519.779359
 21
106.392888
 31
0.0
  0
LINE
  5
407
330
3B9
100
AcDbEntity
  8
GR1-1
  6
CONTINUOUS
 62
     7
100
AcDbLine
 10
524.350294
 20
107.773039
 30
0.0
 11
524.080884
 21
107.67921
 31
0.0
  0
LINE
  5
408
330
3B9
100
AcDbEntity
  8
GR1-1
  6
CONTINUOUS
 62
     7
100
AcDbLine
 10
520.303421
 20
106.363622
 30
0.0
 11
520.034011
 21
106.269794
 31
0.0
  0
LINE
  5
409
330
3B9
100
AcDbEntity
  8
GR1-1
  6
CONTINUOUS
 62
     7
100
AcDbLine
 10
524.2272
 20
107.518386
 30
0.0
 11
520.288664
 21
106.1467
 31
0.0
  0
LINE
  5
40A
330
3B9
100
AcDbEntity
  8
GR1-1
  6
CONTINUOUS
 62
     7
100
AcDbLine
 10
524.104107
 20
107.263734
 30
0.0
 11
520.543316
 21
106.023607
 31
0.0
  0
LINE
  5
40B
330
3B9
100
AcDbEntity
  8
GR1-1
  6
CONTINUOUS
 62
     7
100
AcDbLine
 10
523.981013
 20
107.009081
 30
0.0
 11
520.797969
 21
105.900513
 31
0.0
  0
LINE
  5
40C
330
3B9
100
AcDbEntity
  8
GR1-1
  6
CONTINUOUS
 62
     7
100
AcDbLine
 10
523.857919
 20
106.754428
 30
0.0
 11
521.052621
 21
105.777419
 31
0.0
  0
LINE
  5
40D
330
3B9
100
AcDbEntity
  8
GR1-1
  6
CONTINUOUS
 62
     7
100
AcDbLine
 10
523.734825
 20
106.499776
 30
0.0
 11
521.307274
 21
105.654325
 31
0.0
  0
LINE
  5
40E
330
3B9
100
AcDbEntity
  8
GR1-1
  6
CONTINUOUS
 62
     7
100
AcDbLine
 10
523.611732
 20
106.245123
 30
0.0
 11
521.561927
 21
105.531232
 31
0.0
  0
LINE
  5
40F
330
3B9
100
AcDbEntity
  8
GR1-1
  6
CONTINUOUS
 62
     7
100
AcDbLine
 10
523.488638
 20
105.990471
 30
0.0
 11
521.816579
 21
105.408138
 31
0.0
  0
LINE
  5
410
330
3B9
100
AcDbEntity
  8
GR1-1
  6
CONTINUOUS
 62
     7
100
AcDbLine
 10
523.365544
 20
105.735818
 30
0.0
 11
522.071232
 21
105.285044
 31
0.0
  0
LINE
  5
411
330
3B9
100
AcDbEntity
  8
GR1-1
  6
CONTINUOUS
 62
     7
100
AcDbLine
 10
523.24245
 20
105.481166
 30
0.0
 11
522.325884
 21
105.16195
 31
0.0
  0
LINE
  5
412
330
3B9
100
AcDbEntity
  8
GR1-1
  6
CONTINUOUS
 62
     7
100
AcDbLine
 10
523.119357
 20
105.226513
 30
0.0
 11
522.580537
 21
105.038857
 31
0.0
  0
LINE
  5
413
330
3B9
100
AcDbEntity
  8
GR1-1
  6
CONTINUOUS
 62
     7
100
AcDbLine
 10
522.996263
 20
104.97186
 30
0.0
 11
522.835189
 21
104.915763
 31
0.0
  0
ENDBLK
  5
3BB
330
3B9
100
AcDbEntity
  8
0
100
AcDbBlockEnd
  0
ENDSEC
  0
SECTION
  2
ENTITIES
  0
INSERT
  5
AB
330
1F
100
AcDbEntity
  8
0
100
AcDbBlockReference
  2
BLKF021
 10
0.0
 20
0.0
 30
0.0
  0
TEXT
  5
D7
330
1F
100
AcDbEntity
  8
}}ﾊﾊGG血CCТ
  6
CONTINUOUS
 62
     7
100
AcDbText
 10
566.0
 20
22.0
 30
0.0
 40
6.0
  1
ＷＫ－２００　ＵＢ　ＳＲ
 41
0.788732
  7
FX_VECTOR
 72
     5
 11
614.0
 21
22.0
 31
0.0
100
AcDbText
  0
TEXT
  5
D8
330
1F
100
AcDbEntity
  8
}}ﾊﾊGG血CCТ
  6
CONTINUOUS
 62
     7
100
AcDbText
 10
666.0
 20
22.0
 30
0.0
 40
6.0
  1
W50B1BEA-C01
 41
0.697095
  7
FX_VECTOR
 72
     5
 11
714.0
 21
22.0
 31
0.0
100
AcDbText
  0
DIMENSION
  5
D9
330
1F
100
AcDbEntity
  8
GR1-1
100
AcDbDimension
  2
*D22
 10
655.828619
 20
309.288515
 30
0.0
 11
654.828613
 21
234.288513
 31
0.0
 70
    33
  3
FXDIMINFO
100
AcDbAlignedDimension
 13
648.720744
 23
159.288515
 33
0.0
 14
648.720744
 24
309.288515
 34
0.0
1001
ACAD
1000
DSTYLE
1002
{
1070
     7
1000
FXTIP_ARROW_E
1070
     6
1000
FXTIP_ARROW_S
1070
   173
1070
     1
1002
}
  0
DIMENSION
  5
E2
330
1F
100
AcDbEntity
  8
GR1-1
100
AcDbDimension
  2
*D23
 10
666.04354
 20
59.288515
 30
0.0
 11
665.043518
 21
184.288513
 31
0.0
 70
    32
  3
FXDIMINFO
100
AcDbAlignedDimension
 13
615.919701
 23
309.288515
 33
0.0
 14
545.919701
 24
59.288515
 34
0.0
 50
90.0
100
AcDbRotatedDimension
1001
ACAD
1000
DSTYLE
1002
{
1070
     7
1000
FXTIP_ARROW_E
1070
     6
1000
FXTIP_ARROW_S
1070
   173
1070
     1
1002
}
  0
DIMENSION
  5
EC
330
1F
100
AcDbEntity
  8
GR1-1
100
AcDbDimension
  2
*D24
 10
369.919701
 20
324.211116
 30
0.0
 11
307.919708
 21
325.211121
 31
0.0
 70
    32
  3
FXDIMINFO
100
AcDbAlignedDimension
 13
245.919701
 23
309.288515
 33
0.0
 14
369.919701
 24
217.586734
 34
0.0
 50
180.0
100
AcDbRotatedDimension
1001
ACAD
1000
DSTYLE
1002
{
1070
     7
1000
FXTIP_ARROW_E
1070
     6
1000
FXTIP_ARROW_S
1070
   173
1070
     1
1002
}
  0
DIMENSION
  5
F6
330
1F
100
AcDbEntity
  8
GR1-1
100
AcDbDimension
  2
*D25
 10
675.917563
 20
513.788515
 30
0.0
 11
674.917542
 21
462.288513
 31
0.0
 70
    33
  3
FXDIMINFO
100
AcDbAlignedDimension
 13
607.919701
 23
410.788515
 33
0.0
 14
607.919701
 24
513.788515
 34
0.0
1001
ACAD
1000
DSTYLE
1002
{
1070
     7
1000
FXTIP_ARROW_E
1070
     6
1000
FXTIP_ARROW_S
1070
   173
1070
     1
1002
}
  0
DIMENSION
  5
100
330
1F
100
AcDbEntity
  8
GR1-1
100
AcDbDimension
  2
*D26
 10
665.917563
 20
493.788515
 30
0.0
 11
664.917542
 21
462.288513
 31
0.0
 70
    33
  3
FXDIMINFO
100
AcDbAlignedDimension
 13
608.919701
 23
430.788515
 33
0.0
 14
608.919701
 24
493.788515
 34
0.0
1001
ACAD
1000
DSTYLE
1002
{
1070
     7
1000
FXTIP_ARROW_E
1070
     6
1000
FXTIP_ARROW_S
1070
   173
1070
     1
1002
}
  0
DIMENSION
  5
10A
330
1F
100
AcDbEntity
  8
GR1-1
100
AcDbDimension
  2
*D27
 10
655.917563
 20
492.288515
 30
0.0
 11
654.917542
 21
462.288513
 31
0.0
 70
    33
  3
FXDIMINFO
100
AcDbAlignedDimension
 13
607.419701
 23
432.288515
 33
0.0
 14
607.419701
 24
492.288515
 34
0.0
1001
ACAD
1000
DSTYLE
1002
{
1070
     7
1000
FXTIP_ARROW_E
1070
     6
1000
FXTIP_ARROW_S
1070
   173
1070
     1
1002
}
  0
DIMENSION
  5
114
330
1F
100
AcDbEntity
  8
GR1-1
100
AcDbDimension
  2
*D28
 10
622.919701
 20
543.837806
 30
0.0
 11
545.919678
 21
544.83783
 31
0.0
 70
    33
  3
FXDIMINFO
100
AcDbAlignedDimension
 13
468.919701
 23
498.788515
 33
0.0
 14
622.919701
 24
498.788515
 34
0.0
1001
ACAD
1000
DSTYLE
1002
{
1070
     7
1000
FXTIP_ARROW_E
1070
     6
1000
FXTIP_ARROW_S
1070
   173
1070
     1
1002
}
  0
DIMENSION
  5
11E
330
1F
100
AcDbEntity
  8
GR1-1
100
AcDbDimension
  2
*D29
 10
601.919701
 20
533.837806
 30
0.0
 11
545.919678
 21
534.83783
 31
0.0
 70
    33
  3
FXDIMINFO
100
AcDbAlignedDimension
 13
489.919701
 23
500.788515
 33
0.0
 14
601.919701
 24
500.788515
 34
0.0
1001
ACAD
1000
DSTYLE
1002
{
1070
     7
1000
FXTIP_ARROW_E
1070
     6
1000
FXTIP_ARROW_S
1070
   173
1070
     1
1002
}
  0
DIMENSION
  5
128
330
1F
100
AcDbEntity
  8
GR1-1
100
AcDbDimension
  2
*D30
 10
491.419701
 20
523.837806
 30
0.0
 11
545.919678
 21
524.83783
 31
0.0
 70
    33
  3
FXDIMINFO
100
AcDbAlignedDimension
 13
600.419701
 23
499.288515
 33
0.0
 14
491.419701
 24
499.288515
 34
0.0
1001
ACAD
1000
DSTYLE
1002
{
1070
     7
1000
FXTIP_ARROW_E
1070
     6
1000
FXTIP_ARROW_S
1070
   173
1070
     1
1002
}
  0
DIMENSION
  5
132
330
1F
100
AcDbEntity
  8
GR1-1
100
AcDbDimension
  2
*D31
 10
459.084078
 20
408.08462
 30
0.0
 11
464.263733
 21
405.266602
 31
0.0
 70
    33
  3
FXDIMINFO
100
AcDbAlignedDimension
 13
493.985565
 23
426.722651
 33
0.0
 14
485.853837
 24
434.854379
 34
0.0
1001
ACAD
1000
DSTYLE
1002
{
1070
     7
1000
FXTIP_ARROW_E
1070
     6
1000
FXTIP_ARROW_S
1070
   173
1070
     1
1002
}
  0
LINE
  5
13C
330
1F
100
AcDbEntity
  8
GR1-1
  6
CONTINUOUS
 62
     3
100
AcDbLine
 10
194.419701
 20
254.288515
 30
0.0
 11
194.419701
 21
301.288515
 31
0.0
  0
LINE
  5
13D
330
1F
100
AcDbEntity
  8
GR1-1
  6
CONTINUOUS
 62
     3
100
AcDbLine
 10
202.419701
 20
309.288515
 30
0.0
 11
289.419701
 21
309.288515
 31
0.0
  0
LINE
  5
13E
330
1F
100
AcDbEntity
  8
GR1-1
  6
CONTINUOUS
 62
     3
100
AcDbLine
 10
297.419701
 20
301.288515
 30
0.0
 11
297.419701
 21
254.288515
 31
0.0
  0
LINE
  5
13F
330
1F
100
AcDbEntity
  8
GR1-1
  6
CONTINUOUS
 62
     3
100
AcDbLine
 10
297.419701
 20
271.288515
 30
0.0
 11
316.126446
 21
271.288515
 31
0.0
  0
LINE
  5
140
330
1F
100
AcDbEntity
  8
GR1-1
  6
CONTINUOUS
 62
     3
100
AcDbLine
 10
319.125418
 20
268.367046
 30
0.0
 11
320.267456
 21
224.754392
 31
0.0
  0
ARC
  5
141
330
1F
100
AcDbEntity
  8
GR1-1
  6
CONTINUOUS
 62
     3
100
AcDbCircle
 10
332.263344
 20
225.068515
 30
0.0
 40
12.0
100
AcDbArc
 50
181.5
 51
270.0
  0
LINE
  5
142
330
1F
100
AcDbEntity
  8
GR1-1
  6
CONTINUOUS
 62
     3
100
AcDbLine
 10
332.263344
 20
213.068515
 30
0.0
 11
338.419701
 21
213.068515
 31
0.0
  0
LINE
  5
143
330
1F
100
AcDbEntity
  8
GR1-1
  6
CONTINUOUS
 62
     3
100
AcDbLine
 10
338.419701
 20
213.068515
 30
0.0
 11
339.919701
 21
214.818515
 31
0.0
  0
LINE
  5
144
330
1F
100
AcDbEntity
  8
GR1-1
  6
CONTINUOUS
 62
     3
100
AcDbLine
 10
339.919701
 20
214.818515
 30
0.0
 11
368.251546
 21
214.818515
 31
0.0
  0
ARC
  5
145
330
1F
100
AcDbEntity
  8
GR1-1
  6
CONTINUOUS
 62
     3
100
AcDbCircle
 10
365.919701
 20
218.068515
 30
0.0
 40
4.0
100
AcDbArc
 50
-54.340912
 51
54.340912
  0
LINE
  5
146
330
1F
100
AcDbEntity
  8
GR1-1
  6
CONTINUOUS
 62
     3
100
AcDbLine
 10
368.251546
 20
221.318515
 30
0.0
 11
339.919701
 21
221.318515
 31
0.0
  0
LINE
  5
147
330
1F
100
AcDbEntity
  8
GR1-1
  6
CONTINUOUS
 62
     3
100
AcDbLine
 10
339.919701
 20
221.318515
 30
0.0
 11
338.419701
 21
223.068515
 31
0.0
  0
LINE
  5
148
330
1F
100
AcDbEntity
  8
GR1-1
  6
CONTINUOUS
 62
     3
100
AcDbLine
 10
338.419701
 20
223.068515
 30
0.0
 11
333.237501
 21
223.068515
 31
0.0
  0
LINE
  5
149
330
1F
100
AcDbEntity
  8
GR1-1
  6
CONTINUOUS
 62
     3
100
AcDbLine
 10
330.238529
 20
225.989985
 30
0.0
 11
329.121991
 21
268.628816
 31
0.0
  0
ARC
  5
14A
330
1F
100
AcDbEntity
  8
GR1-1
  6
CONTINUOUS
 62
     3
100
AcDbCircle
 10
316.126446
 20
268.288515
 30
0.0
 40
13.0
100
AcDbArc
 50
1.5
 51
90.0
  0
LINE
  5
14B
330
1F
100
AcDbEntity
  8
GR1-1
  6
CONTINUOUS
 62
     3
100
AcDbLine
 10
316.126446
 20
281.288515
 30
0.0
 11
297.419701
 21
281.288515
 31
0.0
  0
ARC
  5
14C
330
1F
100
AcDbEntity
  8
GR1-1
  6
CONTINUOUS
 62
     3
100
AcDbCircle
 10
284.259796
 20
287.288515
 30
0.0
 40
8.0
100
AcDbArc
 50
15.2369
 51
90.0
  0
LINE
  5
14D
330
1F
100
AcDbEntity
  8
GR1-1
  6
CONTINUOUS
 62
     3
100
AcDbLine
 10
284.259796
 20
295.288515
 30
0.0
 11
207.579607
 21
295.288515
 31
0.0
  0
ARC
  5
14E
330
1F
100
AcDbEntity
  8
GR1-1
  6
CONTINUOUS
 62
     3
100
AcDbCircle
 10
207.579607
 20
287.288515
 30
0.0
 40
8.0
100
AcDbArc
 50
90.0
 51
164.7631
  0
ARC
  5
14F
330
1F
100
AcDbEntity
  8
GR1-1
  6
CONTINUOUS
 62
     3
100
AcDbCircle
 10
337.120626
 20
250.141841
 30
0.0
 40
142.761159772185
100
AcDbArc
 50
164.042227
 51
204.910106
  0
LINE
  5
150
330
1F
100
AcDbEntity
  8
GR1-1
  6
CONTINUOUS
 62
     3
100
AcDbLine
 10
213.119701
 20
147.288515
 30
0.0
 11
210.619701
 21
147.288515
 31
0.0
  0
LINE
  5
151
330
1F
100
AcDbEntity
  8
GR1-1
  6
CONTINUOUS
 62
     3
100
AcDbLine
 10
210.119701
 20
147.788515
 30
0.0
 11
210.119701
 21
170.788515
 31
0.0
  0
LINE
  5
152
330
1F
100
AcDbEntity
  8
GR1-1
  6
CONTINUOUS
 62
     3
100
AcDbLine
 10
210.119701
 20
170.288515
 30
0.0
 11
209.137221
 21
171.990221
 31
0.0
  0
LINE
  5
153
330
1F
100
AcDbEntity
  8
GR1-1
  6
CONTINUOUS
 62
     3
100
AcDbLine
 10
209.137221
 20
171.990221
 30
0.0
 11
203.102182
 21
171.990221
 31
0.0
  0
LINE
  5
154
330
1F
100
AcDbEntity
  8
GR1-1
  6
CONTINUOUS
 62
     3
100
AcDbLine
 10
203.102182
 20
171.990221
 30
0.0
 11
202.119701
 21
170.288515
 31
0.0
  0
LINE
  5
155
330
1F
100
AcDbEntity
  8
GR1-1
  6
CONTINUOUS
 62
     3
100
AcDbLine
 10
202.119701
 20
170.288515
 30
0.0
 11
202.119701
 21
148.288515
 31
0.0
  0
LINE
  5
156
330
1F
100
AcDbEntity
  8
GR1-1
  6
CONTINUOUS
 62
     3
100
AcDbLine
 10
202.119701
 20
148.288515
 30
0.0
 11
203.102182
 21
146.586809
 31
0.0
  0
LINE
  5
157
330
1F
100
AcDbEntity
  8
GR1-1
  6
CONTINUOUS
 62
     3
100
AcDbLine
 10
203.102182
 20
146.586809
 30
0.0
 11
209.137221
 21
146.586809
 31
0.0
  0
LINE
  5
158
330
1F
100
AcDbEntity
  8
GR1-1
  6
CONTINUOUS
 62
     3
100
AcDbLine
 10
209.137221
 20
146.586809
 30
0.0
 11
210.119701
 21
148.288515
 31
0.0
  0
ARC
  5
159
330
1F
100
AcDbEntity
  8
GR1-1
  6
CONTINUOUS
 62
     3
100
AcDbCircle
 10
210.619701
 20
147.788515
 30
0.0
 40
0.5
100
AcDbArc
 50
180.0
 51
270.0
  0
ARC
  5
15A
330
1F
100
AcDbEntity
  8
GR1-1
  6
CONTINUOUS
 62
     3
100
AcDbCircle
 10
204.496891
 20
149.762236
 30
0.0
 40
5.622810046529507
100
AcDbArc
 50
-34.384247
 51
34.384247
  0
LINE
  5
15B
330
1F
100
AcDbEntity
  8
GR1-1
  6
CONTINUOUS
 62
     3
100
AcDbLine
 10
209.137221
 20
152.937662
 30
0.0
 11
203.102182
 21
152.937662
 31
0.0
  0
ARC
  5
15C
330
1F
100
AcDbEntity
  8
GR1-1
  6
CONTINUOUS
 62
     3
100
AcDbCircle
 10
207.742511
 20
149.762236
 30
0.0
 40
5.622810046529507
100
AcDbArc
 50
145.615753
 51
214.384247
  0
LINE
  5
15D
330
1F
100
AcDbEntity
  8
GR1-1
  6
CONTINUOUS
 62
     3
100
AcDbLine
 10
202.119701
 20
152.286707
 30
0.0
 11
200.919701
 21
152.286707
 31
0.0
  0
LINE
  5
15E
330
1F
100
AcDbEntity
  8
GR1-1
  6
CONTINUOUS
 62
     3
100
AcDbLine
 10
200.919701
 20
152.286707
 30
0.0
 11
199.919701
 21
153.286707
 31
0.0
  0
LINE
  5
15F
330
1F
100
AcDbEntity
  8
GR1-1
  6
CONTINUOUS
 62
     3
100
AcDbLine
 10
199.919701
 20
153.286707
 30
0.0
 11
199.919701
 21
165.286707
 31
0.0
  0
LINE
  5
160
330
1F
100
AcDbEntity
  8
GR1-1
  6
CONTINUOUS
 62
     3
100
AcDbLine
 10
199.919701
 20
165.286707
 30
0.0
 11
200.919701
 21
166.286707
 31
0.0
  0
LINE
  5
161
330
1F
100
AcDbEntity
  8
GR1-1
  6
CONTINUOUS
 62
     3
100
AcDbLine
 10
200.919701
 20
166.286707
 30
0.0
 11
202.119701
 21
166.286707
 31
0.0
  0
LINE
  5
162
330
1F
100
AcDbEntity
  8
GR1-1
  6
CONTINUOUS
 62
     3
100
AcDbLine
 10
203.102182
 20
165.639368
 30
0.0
 11
209.137221
 21
165.639368
 31
0.0
  0
ARC
  5
163
330
1F
100
AcDbEntity
  8
GR1-1
  6
CONTINUOUS
 62
     3
100
AcDbCircle
 10
204.496891
 20
168.814795
 30
0.0
 40
5.622810046529507
100
AcDbArc
 50
-34.384247
 51
34.384247
  0
LINE
  5
164
330
1F
100
AcDbEntity
  8
GR1-1
  6
CONTINUOUS
 62
     3
100
AcDbLine
 10
210.619701
 20
171.288515
 30
0.0
 11
213.119701
 21
171.288515
 31
0.0
  0
ARC
  5
165
330
1F
100
AcDbEntity
  8
GR1-1
  6
CONTINUOUS
 62
     3
100
AcDbCircle
 10
213.119701
 20
170.788515
 30
0.0
 40
0.5
100
AcDbArc
 50
77.856994
 51
90.0
  0
ARC
  5
166
330
1F
100
AcDbEntity
  8
GR1-1
  6
CONTINUOUS
 62
     3
100
AcDbCircle
 10
210.619701
 20
170.788515
 30
0.0
 40
0.5
100
AcDbArc
 50
90.0
 51
180.0
  0
LINE
  5
167
330
1F
100
AcDbEntity
  8
GR1-1
  6
CONTINUOUS
 62
     3
100
AcDbLine
 10
213.619701
 20
167.140541
 30
0.0
 11
213.619701
 21
138.788515
 31
0.0
  0
LINE
  5
168
330
1F
100
AcDbEntity
  8
GR1-1
  6
CONTINUOUS
 62
     3
100
AcDbLine
 10
213.619701
 20
138.788515
 30
0.0
 11
217.419701
 21
138.788515
 31
0.0
  0
LINE
  5
169
330
1F
100
AcDbEntity
  8
GR1-1
  6
CONTINUOUS
 62
     3
100
AcDbLine
 10
217.419701
 20
138.788515
 30
0.0
 11
217.419701
 21
295.288515
 31
0.0
  0
ARC
  5
16A
330
1F
100
AcDbEntity
  8
GR1-1
  6
CONTINUOUS
 62
     3
100
AcDbCircle
 10
337.120626
 20
250.141841
 30
0.0
 40
138.961159772185
100
AcDbArc
 50
161.148183
 51
204.898239
  0
ARC
  5
16B
330
1F
100
AcDbEntity
  8
GR1-1
  6
CONTINUOUS
 62
     3
100
AcDbCircle
 10
207.742511
 20
168.814795
 30
0.0
 40
5.622810046529507
100
AcDbArc
 50
145.615753
 51
214.384247
  0
ARC
  5
16C
330
1F
100
AcDbEntity
  8
GR1-1
  6
CONTINUOUS
 62
     3
100
AcDbCircle
 10
223.137221
 20
159.288515
 30
0.0
 40
21.01751962775467
100
AcDbArc
 50
162.412046
 51
197.587954
  0
ARC
  5
16D
330
1F
100
AcDbEntity
  8
GR1-1
  6
CONTINUOUS
 62
     3
100
AcDbCircle
 10
189.102182
 20
159.288515
 30
0.0
 40
21.01751962775467
100
AcDbArc
 50
-17.587954
 51
17.587954
  0
ARC
  5
16E
330
1F
100
AcDbEntity
  8
GR1-1
  6
CONTINUOUS
 62
     3
100
AcDbCircle
 10
152.592302
 20
163.403191
 30
0.0
 40
61.14173070542847
100
AcDbArc
 50
3.504447
 51
25.797363
  0
ARC
  5
16F
330
1F
100
AcDbEntity
  8
GR1-1
  6
CONTINUOUS
 62
     3
100
AcDbCircle
 10
152.592302
 20
163.403191
 30
0.0
 40
64.94173070542847
100
AcDbArc
 50
3.504447
 51
25.770838
  0
LINE
  5
170
330
1F
100
AcDbEntity
  8
GR1-1
  6
CONTINUOUS
 62
     3
100
AcDbLine
 10
274.419701
 20
138.788515
 30
0.0
 11
274.419701
 21
295.288515
 31
0.0
  0
LINE
  5
171
330
1F
100
AcDbEntity
  8
GR1-1
  6
CONTINUOUS
 62
     3
100
AcDbLine
 10
270.169701
 20
283.588515
 30
0.0
 11
262.919701
 21
281.588515
 31
0.0
  0
LINE
  5
172
330
1F
100
AcDbEntity
  8
GR1-1
  6
CONTINUOUS
 62
     3
100
AcDbLine
 10
262.919701
 20
281.588515
 30
0.0
 11
262.919701
 21
257.888515
 31
0.0
  0
LINE
  5
173
330
1F
100
AcDbEntity
  8
GR1-1
  6
CONTINUOUS
 62
     3
100
AcDbLine
 10
262.919701
 20
257.888515
 30
0.0
 11
261.954489
 21
257.888515
 31
0.0
  0
ARC
  5
174
330
1F
100
AcDbEntity
  8
GR1-1
  6
CONTINUOUS
 62
     3
100
AcDbCircle
 10
260.919701
 20
262.688515
 30
0.0
 40
2.0
100
AcDbArc
 50
0.0
 51
90.0
  0
LINE
  5
175
330
1F
100
AcDbEntity
  8
GR1-1
  6
CONTINUOUS
 62
     3
100
AcDbLine
 10
260.919701
 20
264.688515
 30
0.0
 11
258.919701
 21
264.688515
 31
0.0
  0
LINE
  5
176
330
1F
100
AcDbEntity
  8
GR1-1
  6
CONTINUOUS
 62
     3
100
AcDbLine
 10
258.919701
 20
264.688515
 30
0.0
 11
257.919701
 21
265.688515
 31
0.0
  0
LINE
  5
177
330
1F
100
AcDbEntity
  8
GR1-1
  6
CONTINUOUS
 62
     3
100
AcDbLine
 10
257.919701
 20
265.688515
 30
0.0
 11
253.919701
 21
265.688515
 31
0.0
  0
LINE
  5
178
330
1F
100
AcDbEntity
  8
GR1-1
  6
CONTINUOUS
 62
     3
100
AcDbLine
 10
253.919701
 20
265.688515
 30
0.0
 11
252.919701
 21
264.688515
 31
0.0
  0
LINE
  5
179
330
1F
100
AcDbEntity
  8
GR1-1
  6
CONTINUOUS
 62
     3
100
AcDbLine
 10
252.919701
 20
264.688515
 30
0.0
 11
248.919701
 21
264.688515
 31
0.0
  0
LINE
  5
17A
330
1F
100
AcDbEntity
  8
GR1-1
  6
CONTINUOUS
 62
     3
100
AcDbLine
 10
248.919701
 20
264.688515
 30
0.0
 11
247.919701
 21
265.688515
 31
0.0
  0
LINE
  5
17B
330
1F
100
AcDbEntity
  8
GR1-1
  6
CONTINUOUS
 62
     3
100
AcDbLine
 10
247.919701
 20
265.688515
 30
0.0
 11
243.919701
 21
265.688515
 31
0.0
  0
LINE
  5
17C
330
1F
100
AcDbEntity
  8
GR1-1
  6
CONTINUOUS
 62
     3
100
AcDbLine
 10
243.919701
 20
265.688515
 30
0.0
 11
242.919701
 21
264.688515
 31
0.0
  0
LINE
  5
17D
330
1F
100
AcDbEntity
  8
GR1-1
  6
CONTINUOUS
 62
     3
100
AcDbLine
 10
242.919701
 20
264.688515
 30
0.0
 11
238.919701
 21
264.688515
 31
0.0
  0
LINE
  5
17E
330
1F
100
AcDbEntity
  8
GR1-1
  6
CONTINUOUS
 62
     3
100
AcDbLine
 10
238.919701
 20
264.688515
 30
0.0
 11
237.919701
 21
265.688515
 31
0.0
  0
LINE
  5
17F
330
1F
100
AcDbEntity
  8
GR1-1
  6
CONTINUOUS
 62
     3
100
AcDbLine
 10
237.919701
 20
265.688515
 30
0.0
 11
233.919701
 21
265.688515
 31
0.0
  0
LINE
  5
180
330
1F
100
AcDbEntity
  8
GR1-1
  6
CONTINUOUS
 62
     3
100
AcDbLine
 10
233.919701
 20
265.688515
 30
0.0
 11
232.919701
 21
264.688515
 31
0.0
  0
LINE
  5
181
330
1F
100
AcDbEntity
  8
GR1-1
  6
CONTINUOUS
 62
     3
100
AcDbLine
 10
232.919701
 20
264.688515
 30
0.0
 11
230.919701
 21
264.688515
 31
0.0
  0
ARC
  5
182
330
1F
100
AcDbEntity
  8
GR1-1
  6
CONTINUOUS
 62
     3
100
AcDbCircle
 10
230.919701
 20
262.688515
 30
0.0
 40
2.0
100
AcDbArc
 50
90.0
 51
180.0
  0
LINE
  5
183
330
1F
100
AcDbEntity
  8
GR1-1
  6
CONTINUOUS
 62
     3
100
AcDbLine
 10
228.919701
 20
257.888515
 30
0.0
 11
229.884914
 21
257.888515
 31
0.0
  0
LINE
  5
184
330
1F
100
AcDbEntity
  8
GR1-1
  6
CONTINUOUS
 62
     3
100
AcDbLine
 10
228.919701
 20
257.888515
 30
0.0
 11
228.919701
 21
281.588515
 31
0.0
  0
LINE
  5
185
330
1F
100
AcDbEntity
  8
GR1-1
  6
CONTINUOUS
 62
     3
100
AcDbLine
 10
228.919701
 20
281.588515
 30
0.0
 11
221.669701
 21
283.588515
 31
0.0
  0
ARC
  5
186
330
1F
100
AcDbEntity
  8
GR1-1
  6
CONTINUOUS
 62
     3
100
AcDbCircle
 10
221.669701
 20
283.088515
 30
0.0
 40
0.5
100
AcDbArc
 50
90.0
 51
180.0
  0
LINE
  5
187
330
1F
100
AcDbEntity
  8
GR1-1
  6
CONTINUOUS
 62
     3
100
AcDbLine
 10
221.169701
 20
283.088515
 30
0.0
 11
221.169701
 21
279.588515
 31
0.0
  0
LINE
  5
188
330
1F
100
AcDbEntity
  8
GR1-1
  6
CONTINUOUS
 62
     3
100
AcDbLine
 10
221.169701
 20
279.588515
 30
0.0
 11
227.08765
 21
279.588515
 31
0.0
  0
LINE
  5
189
330
1F
100
AcDbEntity
  8
GR1-1
  6
CONTINUOUS
 62
     3
100
AcDbLine
 10
228.819701
 20
279.588515
 30
0.0
 11
228.919701
 21
279.588515
 31
0.0
  0
ARC
  5
18A
330
1F
100
AcDbEntity
  8
GR1-1
  6
CONTINUOUS
 62
     3
100
AcDbCircle
 10
228.819701
 20
278.588515
 30
0.0
 40
1.0
100
AcDbArc
 50
90.0
 51
135.572996
  0
LINE
  5
18B
330
1F
100
AcDbEntity
  8
GR1-1
  6
CONTINUOUS
 62
     3
100
AcDbLine
 10
228.919701
 20
279.288515
 30
0.0
 11
217.419701
 21
279.288515
 31
0.0
  0
LINE
  5
18C
330
1F
100
AcDbEntity
  8
GR1-1
  6
CONTINUOUS
 62
     3
100
AcDbLine
 10
217.419701
 20
281.288515
 30
0.0
 11
221.169701
 21
281.288515
 31
0.0
  0
LINE
  5
18D
330
1F
100
AcDbEntity
  8
GR1-1
  6
CONTINUOUS
 62
     3
100
AcDbLine
 10
228.819701
 20
280.588515
 30
0.0
 11
263.019701
 21
280.588515
 31
0.0
  0
LINE
  5
18E
330
1F
100
AcDbEntity
  8
GR1-1
  6
CONTINUOUS
 62
     3
100
AcDbLine
 10
263.019701
 20
279.588515
 30
0.0
 11
262.919701
 21
279.588515
 31
0.0
  0
LINE
  5
18F
330
1F
100
AcDbEntity
  8
GR1-1
  6
CONTINUOUS
 62
     3
100
AcDbLine
 10
262.919701
 20
279.288515
 30
0.0
 11
274.419701
 21
279.288515
 31
0.0
  0
LINE
  5
190
330
1F
100
AcDbEntity
  8
GR1-1
  6
CONTINUOUS
 62
     3
100
AcDbLine
 10
274.419701
 20
281.288515
 30
0.0
 11
270.669701
 21
281.288515
 31
0.0
  0
LINE
  5
191
330
1F
100
AcDbEntity
  8
GR1-1
  6
CONTINUOUS
 62
     3
100
AcDbLine
 10
270.669701
 20
279.588515
 30
0.0
 11
264.751752
 21
279.588515
 31
0.0
  0
ARC
  5
192
330
1F
100
AcDbEntity
  8
GR1-1
  6
CONTINUOUS
 62
     3
100
AcDbCircle
 10
263.019701
 20
278.588515
 30
0.0
 40
2.0
100
AcDbArc
 50
20.487315
 51
90.0
  0
ARC
  5
193
330
1F
100
AcDbEntity
  8
GR1-1
  6
CONTINUOUS
 62
     3
100
AcDbCircle
 10
263.019701
 20
278.588515
 30
0.0
 40
1.0
100
AcDbArc
 50
44.427004
 51
90.0
  0
LINE
  5
194
330
1F
100
AcDbEntity
  8
GR1-1
  6
CONTINUOUS
 62
     3
100
AcDbLine
 10
262.919701
 20
273.288515
 30
0.0
 11
274.419701
 21
273.288515
 31
0.0
  0
LINE
  5
195
330
1F
100
AcDbEntity
  8
GR1-1
  6
CONTINUOUS
 62
     3
100
AcDbLine
 10
274.419701
 20
271.288515
 30
0.0
 11
266.219701
 21
271.288515
 31
0.0
  0
LINE
  5
196
330
1F
100
AcDbEntity
  8
GR1-1
  6
CONTINUOUS
 62
     3
100
AcDbLine
 10
266.219701
 20
271.288515
 30
0.0
 11
265.330812
 21
273.288515
 31
0.0
  0
LINE
  5
197
330
1F
100
AcDbEntity
  8
GR1-1
  6
CONTINUOUS
 62
     3
100
AcDbLine
 10
262.919701
 20
271.988515
 30
0.0
 11
228.919701
 21
271.988515
 31
0.0
  0
LINE
  5
198
330
1F
100
AcDbEntity
  8
GR1-1
  6
CONTINUOUS
 62
     3
100
AcDbLine
 10
228.919701
 20
273.288515
 30
0.0
 11
217.419701
 21
273.288515
 31
0.0
  0
LINE
  5
199
330
1F
100
AcDbEntity
  8
GR1-1
  6
CONTINUOUS
 62
     3
100
AcDbLine
 10
217.419701
 20
271.288515
 30
0.0
 11
225.969701
 21
271.288515
 31
0.0
  0
LINE
  5
19A
330
1F
100
AcDbEntity
  8
GR1-1
  6
CONTINUOUS
 62
     3
100
AcDbLine
 10
225.969701
 20
271.288515
 30
0.0
 11
228.414146
 21
273.288515
 31
0.0
  0
ARC
  5
19B
330
1F
100
AcDbEntity
  8
GR1-1
  6
CONTINUOUS
 62
     3
100
AcDbCircle
 10
228.819701
 20
278.588515
 30
0.0
 40
2.0
100
AcDbArc
 50
90.0
 51
159.512685
  0
ARC
  5
19C
330
1F
100
AcDbEntity
  8
GR1-1
  6
CONTINUOUS
 62
     3
100
AcDbCircle
 10
245.919701
 20
277.582265
 30
0.0
 40
4.806249999999985
100
AcDbArc
 50
38.717988
 51
141.282012
  0
LINE
  5
19D
330
1F
100
AcDbEntity
  8
GR1-1
  6
CONTINUOUS
 62
     3
100
AcDbLine
 10
270.669701
 20
279.588515
 30
0.0
 11
270.669701
 21
283.088515
 31
0.0
  0
ARC
  5
19E
330
1F
100
AcDbEntity
  8
GR1-1
  6
CONTINUOUS
 62
     3
100
AcDbCircle
 10
270.169701
 20
283.088515
 30
0.0
 40
0.5
100
AcDbArc
 50
0.0
 51
90.0
  0
ARC
  5
19F
330
1F
100
AcDbEntity
  8
GR1-1
  6
CONTINUOUS
 62
     3
100
AcDbCircle
 10
289.419701
 20
301.288515
 30
0.0
 40
8.0
100
AcDbArc
 50
0.0
 51
90.0
  0
ARC
  5
1A0
330
1F
100
AcDbEntity
  8
GR1-1
  6
CONTINUOUS
 62
     3
100
AcDbCircle
 10
316.126446
 20
268.288515
 30
0.0
 40
3.0
100
AcDbArc
 50
1.5
 51
90.0
  0
ARC
  5
1A1
330
1F
100
AcDbEntity
  8
GR1-1
  6
CONTINUOUS
 62
     3
100
AcDbCircle
 10
333.237501
 20
226.068515
 30
0.0
 40
3.0
100
AcDbArc
 50
181.5
 51
270.0
  0
ARC
  5
1A2
330
1F
100
AcDbEntity
  8
GR1-1
  6
CONTINUOUS
 62
     3
100
AcDbCircle
 10
339.2471
 20
163.403191
 30
0.0
 40
61.14173070542847
100
AcDbArc
 50
154.202637
 51
176.495553
  0
LINE
  5
1A3
330
1F
100
AcDbEntity
  8
GR1-1
  6
CONTINUOUS
 62
     3
100
AcDbLine
 10
278.219701
 20
167.140541
 30
0.0
 11
278.219701
 21
138.788515
 31
0.0
  0
LINE
  5
1A4
330
1F
100
AcDbEntity
  8
GR1-1
  6
CONTINUOUS
 62
     3
100
AcDbLine
 10
278.219701
 20
138.788515
 30
0.0
 11
274.419701
 21
138.788515
 31
0.0
  0
LINE
  5
1A5
330
1F
100
AcDbEntity
  8
GR1-1
  6
CONTINUOUS
 62
     3
100
AcDbLine
 10
278.219701
 20
146.286707
 30
0.0
 11
281.219701
 21
146.286707
 31
0.0
  0
LINE
  5
1A6
330
1F
100
AcDbEntity
  8
GR1-1
  6
CONTINUOUS
 62
     3
100
AcDbLine
 10
281.219701
 20
146.286707
 30
0.0
 11
282.719701
 21
149.286707
 31
0.0
  0
LINE
  5
1A7
330
1F
100
AcDbEntity
  8
GR1-1
  6
CONTINUOUS
 62
     3
100
AcDbLine
 10
282.719701
 20
149.286707
 30
0.0
 11
282.719701
 21
169.286707
 31
0.0
  0
LINE
  5
1A8
330
1F
100
AcDbEntity
  8
GR1-1
  6
CONTINUOUS
 62
     3
100
AcDbLine
 10
282.719701
 20
169.286707
 30
0.0
 11
281.219701
 21
172.286707
 31
0.0
  0
LINE
  5
1A9
330
1F
100
AcDbEntity
  8
GR1-1
  6
CONTINUOUS
 62
     3
100
AcDbLine
 10
281.219701
 20
172.286707
 30
0.0
 11
278.754172
 21
172.286707
 31
0.0
  0
ARC
  5
1AA
330
1F
100
AcDbEntity
  8
GR1-1
  6
CONTINUOUS
 62
     3
100
AcDbCircle
 10
154.718777
 20
250.141841
 30
0.0
 40
142.761159772185
100
AcDbArc
 50
-24.910106
 51
15.957773
  0
ARC
  5
1AB
330
1F
100
AcDbEntity
  8
GR1-1
  6
CONTINUOUS
 62
     3
100
AcDbCircle
 10
202.419701
 20
301.288515
 30
0.0
 40
8.0
100
AcDbArc
 50
90.0
 51
180.0
  0
ARC
  5
1AC
330
1F
100
AcDbEntity
  8
GR1-1
  6
CONTINUOUS
 62
     3
100
AcDbCircle
 10
339.2471
 20
163.403191
 30
0.0
 40
64.94173070542847
100
AcDbArc
 50
154.229162
 51
176.495553
  0
ARC
  5
1AD
330
1F
100
AcDbEntity
  8
GR1-1
  6
CONTINUOUS
 62
     3
100
AcDbCircle
 10
154.718777
 20
250.141841
 30
0.0
 40
138.961159772185
100
AcDbArc
 50
-24.898239
 51
18.851817
  0
ARC
  5
1AE
330
1F
100
AcDbEntity
  8
GR1-1
  6
CONTINUOUS
 62
     3
100
AcDbCircle
 10
213.119701
 20
147.788515
 30
0.0
 40
0.5
100
AcDbArc
 50
270.0
 51
360.0
  0
ARC
  5
1AF
330
1F
100
AcDbEntity
  8
GR1-1
  6
CONTINUOUS
 62
     3
100
AcDbCircle
 10
621.88278
 20
291.425253
 30
0.0
 40
4.0
100
AcDbArc
 50
74.97561
 51
160.5
  0
LINE
  5
1B0
330
1F
100
AcDbEntity
  8
GR1-1
  6
CONTINUOUS
 62
     3
100
AcDbLine
 10
622.919701
 20
295.288515
 30
0.0
 11
622.919701
 21
302.288515
 31
0.0
  0
ARC
  5
1B1
330
1F
100
AcDbEntity
  8
GR1-1
  6
CONTINUOUS
 62
     3
100
AcDbCircle
 10
615.919701
 20
302.288515
 30
0.0
 40
7.0
100
AcDbArc
 50
0.0
 51
90.0
  0
LINE
  5
1B2
330
1F
100
AcDbEntity
  8
GR1-1
  6
CONTINUOUS
 62
     3
100
AcDbLine
 10
615.919701
 20
309.288515
 30
0.0
 11
574.206474
 21
309.288515
 31
0.0
  0
ARC
  5
1B3
330
1F
100
AcDbEntity
  8
GR1-1
  6
CONTINUOUS
 62
     3
100
AcDbCircle
 10
574.206474
 20
297.288515
 30
0.0
 40
12.0
100
AcDbArc
 50
90.0
 51
119.744881
  0
LINE
  5
1B4
330
1F
100
AcDbEntity
  8
GR1-1
  6
CONTINUOUS
 62
     3
100
AcDbLine
 10
568.252807
 20
307.707433
 30
0.0
 11
565.769701
 21
306.288515
 31
0.0
  0
LINE
  5
1B5
330
1F
100
AcDbEntity
  8
GR1-1
  6
CONTINUOUS
 62
     3
100
AcDbLine
 10
565.769701
 20
306.288515
 30
0.0
 11
526.069701
 21
306.288515
 31
0.0
  0
LINE
  5
1B6
330
1F
100
AcDbEntity
  8
GR1-1
  6
CONTINUOUS
 62
     3
100
AcDbLine
 10
526.069701
 20
306.288515
 30
0.0
 11
523.586595
 21
307.707433
 31
0.0
  0
ARC
  5
1B7
330
1F
100
AcDbEntity
  8
GR1-1
  6
CONTINUOUS
 62
     3
100
AcDbCircle
 10
517.632928
 20
297.288515
 30
0.0
 40
12.0
100
AcDbArc
 50
60.255119
 51
90.0
  0
LINE
  5
1B8
330
1F
100
AcDbEntity
  8
GR1-1
  6
CONTINUOUS
 62
     3
100
AcDbLine
 10
517.632928
 20
309.288515
 30
0.0
 11
475.919701
 21
309.288515
 31
0.0
  0
ARC
  5
1B9
330
1F
100
AcDbEntity
  8
GR1-1
  6
CONTINUOUS
 62
     3
100
AcDbCircle
 10
475.919701
 20
302.288515
 30
0.0
 40
7.0
100
AcDbArc
 50
90.0
 51
180.0
  0
LINE
  5
1BA
330
1F
100
AcDbEntity
  8
GR1-1
  6
CONTINUOUS
 62
     3
100
AcDbLine
 10
468.919701
 20
302.288515
 30
0.0
 11
468.919701
 21
295.288515
 31
0.0
  0
ARC
  5
1BB
330
1F
100
AcDbEntity
  8
GR1-1
  6
CONTINUOUS
 62
     3
100
AcDbCircle
 10
469.956622
 20
291.425253
 30
0.0
 40
4.0
100
AcDbArc
 50
19.5
 51
105.02439
  0
ARC
  5
1BC
330
1F
100
AcDbEntity
  8
GR1-1
  6
CONTINUOUS
 62
     3
100
AcDbCircle
 10
989.575344
 20
452.354464
 30
0.0
 40
539.9718142667731
100
AcDbArc
 50
197.191111
 51
201.518889
  0
LINE
  5
1BD
330
1F
100
AcDbEntity
  8
GR1-1
  6
CONTINUOUS
 62
     3
100
AcDbLine
 10
487.241352
 20
254.288515
 30
0.0
 11
498.953136
 21
221.318515
 31
0.0
  0
ARC
  5
1BE
330
1F
100
AcDbEntity
  8
GR1-1
  6
CONTINUOUS
 62
     3
100
AcDbCircle
 10
501.413962
 20
218.068515
 30
0.0
 40
4.5
100
AcDbArc
 50
133.761743
 51
226.238257
  0
LINE
  5
1BF
330
1F
100
AcDbEntity
  8
GR1-1
  6
CONTINUOUS
 62
     3
100
AcDbLine
 10
498.301487
 20
214.818515
 30
0.0
 11
509.526437
 21
214.818515
 31
0.0
  0
ARC
  5
1C0
330
1F
100
AcDbEntity
  8
GR1-1
  6
CONTINUOUS
 62
     3
100
AcDbCircle
 10
506.413962
 20
218.068515
 30
0.0
 40
4.5
100
AcDbArc
 50
-46.238257
 51
46.238257
  0
LINE
  5
1C1
330
1F
100
AcDbEntity
  8
GR1-1
  6
CONTINUOUS
 62
     3
100
AcDbLine
 10
509.526437
 20
221.318515
 30
0.0
 11
498.301487
 21
221.318515
 31
0.0
  0
ARC
  5
1C2
330
1F
100
AcDbEntity
  8
GR1-1
  6
CONTINUOUS
 62
     3
100
AcDbCircle
 10
29.896508
 20
49.425305
 30
0.0
 40
501.1319594513729
100
AcDbArc
 50
20.114454
 51
24.129533
  0
ARC
  5
1C3
330
1F
100
AcDbEntity
  8
GR1-1
  6
CONTINUOUS
 62
     3
100
AcDbCircle
 10
1061.942894
 20
49.425305
 30
0.0
 40
501.1319594513729
100
AcDbArc
 50
155.870467
 51
164.980976
  0
LINE
  5
1C4
330
1F
100
AcDbEntity
  8
GR1-1
  6
CONTINUOUS
 62
     3
100
AcDbLine
 10
569.466165
 20
155.388273
 30
0.0
 11
604.598051
 21
254.288515
 31
0.0
  0
ARC
  5
1C5
330
1F
100
AcDbEntity
  8
GR1-1
  6
CONTINUOUS
 62
     3
100
AcDbCircle
 10
102.264058
 20
452.354464
 30
0.0
 40
539.9718142667731
100
AcDbArc
 50
338.481111
 51
342.808889
  0
LINE
  5
1C6
330
1F
100
AcDbEntity
  8
GR1-1
  6
CONTINUOUS
 62
     3
100
AcDbLine
 10
577.119701
 20
278.038515
 30
0.0
 11
576.024439
 21
279.038515
 31
0.0
  0
LINE
  5
1C7
330
1F
100
AcDbEntity
  8
GR1-1
  6
CONTINUOUS
 62
     3
100
AcDbLine
 10
576.024439
 20
279.038515
 30
0.0
 11
574.626423
 21
279.038515
 31
0.0
  0
LINE
  5
1C8
330
1F
100
AcDbEntity
  8
GR1-1
  6
CONTINUOUS
 62
     3
100
AcDbLine
 10
572.477139
 20
280.459431
 30
0.0
 11
576.819701
 21
277.588515
 31
0.0
  0
LINE
  5
1C9
330
1F
100
AcDbEntity
  8
GR1-1
  6
CONTINUOUS
 62
     3
100
AcDbLine
 10
576.819701
 20
277.588515
 30
0.0
 11
576.819701
 21
274.988515
 31
0.0
  0
LINE
  5
1CA
330
1F
100
AcDbEntity
  8
GR1-1
  6
CONTINUOUS
 62
     3
100
AcDbLine
 10
576.819701
 20
274.988515
 30
0.0
 11
572.769927
 21
272.311165
 31
0.0
  0
ARC
  5
1CB
330
1F
100
AcDbEntity
  8
GR1-1
  6
CONTINUOUS
 62
     3
100
AcDbCircle
 10
569.719701
 20
276.288515
 30
0.0
 40
5.0
100
AcDbArc
 50
-48.5
 51
131.5
  0
LINE
  5
1CC
330
1F
100
AcDbEntity
  8
GR1-1
  6
CONTINUOUS
 62
     3
100
AcDbLine
 10
566.406601
 20
280.033294
 30
0.0
 11
500.600862
 21
221.813294
 31
0.0
  0
ARC
  5
1CD
330
1F
100
AcDbEntity
  8
GR1-1
  6
CONTINUOUS
 62
     3
100
AcDbCircle
 10
503.913962
 20
218.068515
 30
0.0
 40
5.000000000000014
100
AcDbArc
 50
220.541602
 51
319.458398
  0
LINE
  5
1CE
330
1F
100
AcDbEntity
  8
GR1-1
  6
CONTINUOUS
 62
     3
100
AcDbLine
 10
510.885154
 20
217.560143
 30
0.0
 11
573.032801
 21
272.543737
 31
0.0
  0
ARC
  5
1CF
330
1F
100
AcDbEntity
  8
GR1-1
  6
CONTINUOUS
 62
     3
100
AcDbCircle
 10
569.719701
 20
276.288515
 30
0.0
 40
5.2
100
AcDbArc
 50
295.557631
 51
319.411497
  0
LINE
  5
1D0
330
1F
100
AcDbEntity
  8
GR1-1
  6
CONTINUOUS
 62
     3
100
AcDbLine
 10
571.469701
 20
271.160823
 30
0.0
 11
571.469701
 21
268.379818
 31
0.0
  0
ARC
  5
1D1
330
1F
100
AcDbEntity
  8
GR1-1
  6
CONTINUOUS
 62
     3
100
AcDbCircle
 10
569.719701
 20
276.288515
 30
0.0
 40
8.1
100
AcDbArc
 50
259.618064
 51
282.4771
  0
LINE
  5
1D2
330
1F
100
AcDbEntity
  8
GR1-1
  6
CONTINUOUS
 62
     3
100
AcDbLine
 10
576.139029
 20
274.538515
 30
0.0
 11
577.628399
 21
274.538515
 31
0.0
  0
ARC
  5
1D3
330
1F
100
AcDbEntity
  8
GR1-1
  6
CONTINUOUS
 62
     3
100
AcDbCircle
 10
569.719701
 20
276.288515
 30
0.0
 40
8.1
100
AcDbArc
 50
-12.4771
 51
102.4771
  0
LINE
  5
1D4
330
1F
100
AcDbEntity
  8
GR1-1
  6
CONTINUOUS
 62
     3
100
AcDbLine
 10
567.969701
 20
284.197213
 30
0.0
 11
567.969701
 21
281.185198
 31
0.0
  0
ARC
  5
1D5
330
1F
100
AcDbEntity
  8
GR1-1
  6
CONTINUOUS
 62
     3
100
AcDbCircle
 10
569.719701
 20
276.288515
 30
0.0
 40
5.2
100
AcDbArc
 50
109.666118
 51
147.442369
  0
LINE
  5
1D6
330
1F
100
AcDbEntity
  8
GR1-1
  6
CONTINUOUS
 62
     3
100
AcDbLine
 10
564.151914
 20
278.038515
 30
0.0
 11
561.811003
 21
278.038515
 31
0.0
  0
ARC
  5
1D7
330
1F
100
AcDbEntity
  8
GR1-1
  6
CONTINUOUS
 62
     3
100
AcDbCircle
 10
569.719701
 20
276.288515
 30
0.0
 40
8.1
100
AcDbArc
 50
167.5229
 51
183.381936
  0
ARC
  5
1D8
330
1F
100
AcDbEntity
  8
GR1-1
  6
CONTINUOUS
 62
     3
100
AcDbCircle
 10
573.119701
 20
276.288515
 30
0.0
 40
4.0
100
AcDbArc
 50
-25.94448
 51
43.432537
  0
ARC
  5
1D9
330
1F
100
AcDbEntity
  8
GR1-1
  6
CONTINUOUS
 62
     3
100
AcDbCircle
 10
574.867618
 20
276.288515
 30
0.0
 40
2.85208333333304
100
AcDbArc
 50
-37.849289
 51
37.849289
  0
LINE
  5
1DA
330
1F
100
AcDbEntity
  8
GR1-1
  6
CONTINUOUS
 62
     3
100
AcDbLine
 10
519.23295
 20
281.288515
 30
0.0
 11
525.006453
 21
281.288515
 31
0.0
  0
LINE
  5
1DB
330
1F
100
AcDbEntity
  8
GR1-1
  6
CONTINUOUS
 62
     3
100
AcDbLine
 10
525.006453
 20
281.288515
 30
0.0
 11
527.893204
 21
276.288515
 31
0.0
  0
LINE
  5
1DC
330
1F
100
AcDbEntity
  8
GR1-1
  6
CONTINUOUS
 62
     3
100
AcDbLine
 10
527.893204
 20
276.288515
 30
0.0
 11
525.006453
 21
271.288515
 31
0.0
  0
LINE
  5
1DD
330
1F
100
AcDbEntity
  8
GR1-1
  6
CONTINUOUS
 62
     3
100
AcDbLine
 10
525.006453
 20
271.288515
 30
0.0
 11
519.23295
 21
271.288515
 31
0.0
  0
LINE
  5
1DE
330
1F
100
AcDbEntity
  8
GR1-1
  6
CONTINUOUS
 62
     3
100
AcDbLine
 10
519.23295
 20
271.288515
 30
0.0
 11
516.346199
 21
276.288515
 31
0.0
  0
LINE
  5
1DF
330
1F
100
AcDbEntity
  8
GR1-1
  6
CONTINUOUS
 62
     3
100
AcDbLine
 10
516.346199
 20
276.288515
 30
0.0
 11
519.23295
 21
281.288515
 31
0.0
  0
CIRCLE
  5
1E0
330
1F
100
AcDbEntity
  8
GR1-1
  6
CONTINUOUS
 62
     3
100
AcDbCircle
 10
545.919701
 20
159.288515
 30
0.0
 40
12.99819119171332
  0
ARC
  5
1E1
330
1F
100
AcDbEntity
  8
GR1-1
  6
CONTINUOUS
 62
     3
100
AcDbCircle
 10
545.919701
 20
163.788515
 30
0.0
 40
25.0
100
AcDbArc
 50
199.633948
 51
340.366052
  0
LINE
  5
1E2
330
1F
100
AcDbEntity
  8
GR1-1
  6
CONTINUOUS
 62
     3
100
AcDbLine
 10
522.373238
 20
155.388273
 30
0.0
 11
501.700167
 21
213.585312
 31
0.0
  0
ARC
  5
1E3
330
1F
100
AcDbEntity
  8
GR1-1
  6
CONTINUOUS
 62
     3
100
AcDbCircle
 10
503.913962
 20
218.068515
 30
0.0
 40
5.000000000000014
100
AcDbArc
 50
40.541602
 51
139.458398
  0
ARC
  5
1E4
330
1F
100
AcDbEntity
  8
GR1-1
  6
CONTINUOUS
 62
     3
100
AcDbCircle
 10
29.896508
 20
49.425305
 30
0.0
 40
501.1319594513729
100
AcDbArc
 50
15.019024
 51
19.060918
  0
LINE
  5
1E5
330
1F
100
AcDbEntity
  8
GR1-1
  6
CONTINUOUS
 62
     3
100
AcDbLine
 10
510.913962
 20
345.288515
 30
0.0
 11
510.913962
 21
365.316379
 31
0.0
  0
ARC
  5
1E6
330
1F
100
AcDbEntity
  8
GR1-1
  6
CONTINUOUS
 62
     3
100
AcDbCircle
 10
504.913962
 20
365.316379
 30
0.0
 40
6.0
100
AcDbArc
 50
0.0
 51
38.942441
  0
ARC
  5
1E7
330
1F
100
AcDbEntity
  8
GR1-1
  6
CONTINUOUS
 62
     3
100
AcDbCircle
 10
511.913962
 20
370.973234
 30
0.0
 40
3.0
100
AcDbArc
 50
180.0
 51
218.942441
  0
LINE
  5
1E8
330
1F
100
AcDbEntity
  8
GR1-1
  6
CONTINUOUS
 62
     3
100
AcDbLine
 10
508.913962
 20
370.973234
 30
0.0
 11
508.913962
 21
371.864944
 31
0.0
  0
LINE
  5
1E9
330
1F
100
AcDbEntity
  8
GR1-1
  6
CONTINUOUS
 62
     3
100
AcDbLine
 10
514.328777
 20
377.836339
 30
0.0
 11
557.190886
 21
378.958723
 31
0.0
  0
ARC
  5
1EA
330
1F
100
AcDbEntity
  8
GR1-1
  6
CONTINUOUS
 62
     3
100
AcDbCircle
 10
556.719701
 20
396.952555
 30
0.0
 40
18.0
100
AcDbArc
 50
271.5
 51
360.0
  0
LINE
  5
1EB
330
1F
100
AcDbEntity
  8
GR1-1
  6
CONTINUOUS
 62
     3
100
AcDbLine
 10
574.719701
 20
396.952555
 30
0.0
 11
574.719701
 21
421.867193
 31
0.0
  0
ARC
  5
1EC
330
1F
100
AcDbEntity
  8
GR1-1
  6
CONTINUOUS
 62
     3
100
AcDbCircle
 10
560.819701
 20
430.788515
 30
0.0
 40
16.0
100
AcDbArc
 50
333.50843
 51
344.231997
  0
LINE
  5
1ED
330
1F
100
AcDbEntity
  8
GR1-1
  6
CONTINUOUS
 62
     3
100
AcDbLine
 10
577.996049
 20
425.109404
 30
0.0
 11
590.880759
 21
414.297849
 31
0.0
  0
ARC
  5
1EE
330
1F
100
AcDbEntity
  8
GR1-1
  6
CONTINUOUS
 62
     3
100
AcDbCircle
 10
600.522573
 20
425.788515
 30
0.0
 40
15.0
100
AcDbArc
 50
230.0
 51
270.0
  0
LINE
  5
1EF
330
1F
100
AcDbEntity
  8
GR1-1
  6
CONTINUOUS
 62
     3
100
AcDbLine
 10
600.522573
 20
410.788515
 30
0.0
 11
607.919701
 21
410.788515
 31
0.0
  0
ARC
  5
1F0
330
1F
100
AcDbEntity
  8
GR1-1
  6
CONTINUOUS
 62
     3
100
AcDbCircle
 10
607.919701
 20
425.788515
 30
0.0
 40
15.0
100
AcDbArc
 50
270.0
 51
360.0
  0
LINE
  5
1F1
330
1F
100
AcDbEntity
  8
GR1-1
  6
CONTINUOUS
 62
     3
100
AcDbLine
 10
622.919701
 20
425.788515
 30
0.0
 11
622.919701
 21
498.788515
 31
0.0
  0
ARC
  5
1F2
330
1F
100
AcDbEntity
  8
GR1-1
  6
CONTINUOUS
 62
     3
100
AcDbCircle
 10
607.919701
 20
498.788515
 30
0.0
 40
15.0
100
AcDbArc
 50
0.0
 51
90.0
  0
LINE
  5
1F3
330
1F
100
AcDbEntity
  8
GR1-1
  6
CONTINUOUS
 62
     3
100
AcDbLine
 10
607.919701
 20
513.788515
 30
0.0
 11
600.522573
 21
513.788515
 31
0.0
  0
ARC
  5
1F4
330
1F
100
AcDbEntity
  8
GR1-1
  6
CONTINUOUS
 62
     3
100
AcDbCircle
 10
600.522573
 20
498.788515
 30
0.0
 40
15.0
100
AcDbArc
 50
90.0
 51
130.0
  0
LINE
  5
1F5
330
1F
100
AcDbEntity
  8
GR1-1
  6
CONTINUOUS
 62
     3
100
AcDbLine
 10
590.880759
 20
510.279182
 30
0.0
 11
577.996049
 21
499.467627
 31
0.0
  0
ARC
  5
1F6
330
1F
100
AcDbEntity
  8
GR1-1
  6
CONTINUOUS
 62
     3
100
AcDbCircle
 10
572.719701
 20
495.988515
 30
0.0
 40
1.5
100
AcDbArc
 50
34.433621
 51
90.0
  0
LINE
  5
1F7
330
1F
100
AcDbEntity
  8
GR1-1
  6
CONTINUOUS
 62
     3
100
AcDbLine
 10
572.719701
 20
497.488515
 30
0.0
 11
566.719701
 21
497.488515
 31
0.0
  0
ARC
  5
1F8
330
1F
100
AcDbEntity
  8
GR1-1
  6
CONTINUOUS
 62
     3
100
AcDbCircle
 10
566.719701
 20
495.988515
 30
0.0
 40
1.5
100
AcDbArc
 50
90.0
 51
180.0
  0
ARC
  5
1F9
330
1F
100
AcDbEntity
  8
GR1-1
  6
CONTINUOUS
 62
     3
100
AcDbCircle
 10
565.140297
 20
514.788515
 30
0.0
 40
20.0
100
AcDbArc
 50
270.0
 51
310.0
  0
LINE
  5
1FA
330
1F
100
AcDbEntity
  8
GR1-1
  6
CONTINUOUS
 62
     3
100
AcDbLine
 10
571.963785
 20
495.988515
 30
0.0
 11
563.719701
 21
495.988515
 31
0.0
  0
LINE
  5
1FB
330
1F
100
AcDbEntity
  8
GR1-1
  6
CONTINUOUS
 62
     3
100
AcDbLine
 10
563.719701
 20
495.988515
 30
0.0
 11
563.719701
 21
494.788515
 31
0.0
  0
LINE
  5
1FC
330
1F
100
AcDbEntity
  8
GR1-1
  6
CONTINUOUS
 62
     3
100
AcDbLine
 10
565.140297
 20
494.788515
 30
0.0
 11
526.699106
 21
494.788515
 31
0.0
  0
LINE
  5
1FD
330
1F
100
AcDbEntity
  8
GR1-1
  6
CONTINUOUS
 62
     3
100
AcDbLine
 10
527.119701
 20
494.788515
 30
0.0
 11
527.893204
 21
495.235097
 31
0.0
  0
LINE
  5
1FE
330
1F
100
AcDbEntity
  8
GR1-1
  6
CONTINUOUS
 62
     3
100
AcDbLine
 10
527.893203
 20
495.235097
 30
0.0
 11
527.893204
 21
497.941933
 31
0.0
  0
ARC
  5
1FF
330
1F
100
AcDbEntity
  8
GR1-1
  6
CONTINUOUS
 62
     3
100
AcDbCircle
 10
526.449828
 20
495.832693
 30
0.0
 40
2.555822748422663
100
AcDbArc
 50
55.615753
 51
124.384247
  0
ARC
  5
200
330
1F
100
AcDbEntity
  8
GR1-1
  6
CONTINUOUS
 62
     3
100
AcDbCircle
 10
522.119701
 20
488.835097
 30
0.0
 40
9.553418012614543
100
AcDbArc
 50
72.412046
 51
107.587954
  0
LINE
  5
201
330
1F
100
AcDbEntity
  8
GR1-1
  6
CONTINUOUS
 62
     3
100
AcDbLine
 10
519.23295
 20
497.941933
 30
0.0
 11
519.23295
 21
496.234365
 31
0.0
  0
ARC
  5
202
330
1F
100
AcDbEntity
  8
GR1-1
  6
CONTINUOUS
 62
     3
100
AcDbCircle
 10
517.789574
 20
495.832693
 30
0.0
 40
2.555822748422663
100
AcDbArc
 50
55.615753
 51
124.384247
  0
LINE
  5
203
330
1F
100
AcDbEntity
  8
GR1-1
  6
CONTINUOUS
 62
     3
100
AcDbLine
 10
516.346199
 20
497.941933
 30
0.0
 11
517.119701
 21
498.388515
 31
0.0
  0
LINE
  5
204
330
1F
100
AcDbEntity
  8
GR1-1
  6
CONTINUOUS
 62
     3
100
AcDbLine
 10
517.119701
 20
498.388515
 30
0.0
 11
517.119701
 21
499.138515
 31
0.0
  0
LINE
  5
205
330
1F
100
AcDbEntity
  8
GR1-1
  6
CONTINUOUS
 62
     3
100
AcDbLine
 10
517.869701
 20
499.888515
 30
0.0
 11
526.369701
 21
499.888515
 31
0.0
  0
LINE
  5
206
330
1F
100
AcDbEntity
  8
GR1-1
  6
CONTINUOUS
 62
     3
100
AcDbLine
 10
527.119701
 20
499.138515
 30
0.0
 11
527.119701
 21
498.388515
 31
0.0
  0
LINE
  5
207
330
1F
100
AcDbEntity
  8
GR1-1
  6
CONTINUOUS
 62
     3
100
AcDbLine
 10
527.119701
 20
498.388515
 30
0.0
 11
527.893203
 21
497.941934
 31
0.0
  0
ARC
  5
208
330
1F
100
AcDbEntity
  8
GR1-1
  6
CONTINUOUS
 62
     3
100
AcDbCircle
 10
526.369701
 20
499.138515
 30
0.0
 40
0.75
100
AcDbArc
 50
0.0
 51
90.0
  0
LINE
  5
209
330
1F
100
AcDbEntity
  8
GR1-1
  6
CONTINUOUS
 62
     3
100
AcDbLine
 10
525.006453
 20
497.941933
 30
0.0
 11
525.006453
 21
495.235097
 31
0.0
  0
ARC
  5
20A
330
1F
100
AcDbEntity
  8
GR1-1
  6
CONTINUOUS
 62
     3
100
AcDbCircle
 10
526.449828
 20
497.344338
 30
0.0
 40
2.555822748422663
100
AcDbArc
 50
235.615753
 51
304.384247
  0
ARC
  5
20B
330
1F
100
AcDbEntity
  8
GR1-1
  6
CONTINUOUS
 62
     3
100
AcDbCircle
 10
522.119701
 20
504.341933
 30
0.0
 40
9.553418012614543
100
AcDbArc
 50
281.280147
 51
287.587954
  0
ARC
  5
20C
330
1F
100
AcDbEntity
  8
GR1-1
  6
CONTINUOUS
 62
     3
100
AcDbCircle
 10
517.869701
 20
499.138515
 30
0.0
 40
0.75
100
AcDbArc
 50
90.0
 51
180.0
  0
LINE
  5
20D
330
1F
100
AcDbEntity
  8
GR1-1
  6
CONTINUOUS
 62
     3
100
AcDbLine
 10
516.346199
 20
497.941933
 30
0.0
 11
516.346199
 21
497.67661
 31
0.0
  0
ARC
  5
20E
330
1F
100
AcDbEntity
  8
GR1-1
  6
CONTINUOUS
 62
     3
100
AcDbCircle
 10
526.699106
 20
514.788515
 30
0.0
 40
20.0
100
AcDbArc
 50
230.0
 51
270.0
  0
LINE
  5
20F
330
1F
100
AcDbEntity
  8
GR1-1
  6
CONTINUOUS
 62
     3
100
AcDbLine
 10
533.919701
 20
495.288515
 30
0.0
 11
533.919701
 21
497.788515
 31
0.0
  0
LINE
  5
210
330
1F
100
AcDbEntity
  8
GR1-1
  6
CONTINUOUS
 62
     3
100
AcDbLine
 10
534.419701
 20
498.288515
 30
0.0
 11
557.419701
 21
498.288515
 31
0.0
  0
LINE
  5
211
330
1F
100
AcDbEntity
  8
GR1-1
  6
CONTINUOUS
 62
     3
100
AcDbLine
 10
556.919701
 20
498.588515
 30
0.0
 11
556.919701
 21
505.988515
 31
0.0
  0
ARC
  5
212
330
1F
100
AcDbEntity
  8
GR1-1
  6
CONTINUOUS
 62
     3
100
AcDbCircle
 10
556.619701
 20
505.988515
 30
0.0
 40
0.3
100
AcDbArc
 50
0.0
 51
90.0
  0
LINE
  5
213
330
1F
100
AcDbEntity
  8
GR1-1
  6
CONTINUOUS
 62
     3
100
AcDbLine
 10
556.619701
 20
506.288515
 30
0.0
 11
535.219701
 21
506.288515
 31
0.0
  0
ARC
  5
214
330
1F
100
AcDbEntity
  8
GR1-1
  6
CONTINUOUS
 62
     3
100
AcDbCircle
 10
535.219701
 20
505.988515
 30
0.0
 40
0.3
100
AcDbArc
 50
90.0
 51
180.0
  0
LINE
  5
215
330
1F
100
AcDbEntity
  8
GR1-1
  6
CONTINUOUS
 62
     3
100
AcDbLine
 10
534.919701
 20
505.988515
 30
0.0
 11
534.919701
 21
498.588515
 31
0.0
  0
ARC
  5
216
330
1F
100
AcDbEntity
  8
GR1-1
  6
CONTINUOUS
 62
     3
100
AcDbCircle
 10
535.219701
 20
498.588515
 30
0.0
 40
0.3
100
AcDbArc
 50
180.0
 51
270.0
  0
ARC
  5
217
330
1F
100
AcDbEntity
  8
GR1-1
  6
CONTINUOUS
 62
     3
100
AcDbCircle
 10
534.419701
 20
497.788515
 30
0.0
 40
0.5
100
AcDbArc
 50
90.0
 51
180.0
  0
ARC
  5
218
330
1F
100
AcDbEntity
  8
GR1-1
  6
CONTINUOUS
 62
     3
100
AcDbCircle
 10
540.419701
 20
514.174465
 30
0.0
 40
15.88594976734669
100
AcDbArc
 50
249.743842
 51
290.256158
  0
LINE
  5
219
330
1F
100
AcDbEntity
  8
GR1-1
  6
CONTINUOUS
 62
     3
100
AcDbLine
 10
545.919701
 20
499.270996
 30
0.0
 11
545.919701
 21
505.306035
 31
0.0
  0
ARC
  5
21A
330
1F
100
AcDbEntity
  8
GR1-1
  6
CONTINUOUS
 62
     3
100
AcDbCircle
 10
540.419701
 20
490.402566
 30
0.0
 40
15.88594976734669
100
AcDbArc
 50
69.743842
 51
110.256158
  0
LINE
  5
21B
330
1F
100
AcDbEntity
  8
GR1-1
  6
CONTINUOUS
 62
     3
100
AcDbLine
 10
538.917892
 20
506.288515
 30
0.0
 11
538.917892
 21
507.888515
 31
0.0
  0
LINE
  5
21C
330
1F
100
AcDbEntity
  8
GR1-1
  6
CONTINUOUS
 62
     3
100
AcDbLine
 10
538.917892
 20
507.888515
 30
0.0
 11
539.917892
 21
508.888515
 31
0.0
  0
LINE
  5
21D
330
1F
100
AcDbEntity
  8
GR1-1
  6
CONTINUOUS
 62
     3
100
AcDbLine
 10
539.917892
 20
508.888515
 30
0.0
 11
551.917892
 21
508.888515
 31
0.0
  0
LINE
  5
21E
330
1F
100
AcDbEntity
  8
GR1-1
  6
CONTINUOUS
 62
     3
100
AcDbLine
 10
551.917892
 20
508.888515
 30
0.0
 11
552.917892
 21
507.888515
 31
0.0
  0
LINE
  5
21F
330
1F
100
AcDbEntity
  8
GR1-1
  6
CONTINUOUS
 62
     3
100
AcDbLine
 10
552.917892
 20
507.888515
 30
0.0
 11
552.917892
 21
506.288515
 31
0.0
  0
ARC
  5
220
330
1F
100
AcDbEntity
  8
GR1-1
  6
CONTINUOUS
 62
     3
100
AcDbCircle
 10
551.419701
 20
490.402566
 30
0.0
 40
15.88594976734669
100
AcDbArc
 50
69.743842
 51
110.256158
  0
ARC
  5
221
330
1F
100
AcDbEntity
  8
GR1-1
  6
CONTINUOUS
 62
     3
100
AcDbCircle
 10
551.419701
 20
514.174465
 30
0.0
 40
15.88594976734669
100
AcDbArc
 50
249.743842
 51
290.256158
  0
ARC
  5
222
330
1F
100
AcDbEntity
  8
GR1-1
  6
CONTINUOUS
 62
     3
100
AcDbCircle
 10
556.619701
 20
498.588515
 30
0.0
 40
0.3
100
AcDbArc
 50
270.0
 51
360.0
  0
LINE
  5
223
330
1F
100
AcDbEntity
  8
GR1-1
  6
CONTINUOUS
 62
     3
100
AcDbLine
 10
557.919701
 20
497.788515
 30
0.0
 11
557.919701
 21
495.288515
 31
0.0
  0
ARC
  5
224
330
1F
100
AcDbEntity
  8
GR1-1
  6
CONTINUOUS
 62
     3
100
AcDbCircle
 10
557.419701
 20
495.288515
 30
0.0
 40
0.5
100
AcDbArc
 50
270.0
 51
360.0
  0
ARC
  5
225
330
1F
100
AcDbEntity
  8
GR1-1
  6
CONTINUOUS
 62
     3
100
AcDbCircle
 10
557.419701
 20
497.788515
 30
0.0
 40
0.5
100
AcDbArc
 50
0.0
 51
90.0
  0
ARC
  5
226
330
1F
100
AcDbEntity
  8
GR1-1
  6
CONTINUOUS
 62
     3
100
AcDbCircle
 10
534.419701
 20
495.288515
 30
0.0
 40
0.5
100
AcDbArc
 50
180.0
 51
270.0
  0
LINE
  5
227
330
1F
100
AcDbEntity
  8
GR1-1
  6
CONTINUOUS
 62
     3
100
AcDbLine
 10
513.843354
 20
499.467627
 30
0.0
 11
500.958644
 21
510.279182
 31
0.0
  0
ARC
  5
228
330
1F
100
AcDbEntity
  8
GR1-1
  6
CONTINUOUS
 62
     3
100
AcDbCircle
 10
491.316829
 20
498.788515
 30
0.0
 40
15.0
100
AcDbArc
 50
50.0
 51
90.0
  0
LINE
  5
229
330
1F
100
AcDbEntity
  8
GR1-1
  6
CONTINUOUS
 62
     3
100
AcDbLine
 10
491.316829
 20
513.788515
 30
0.0
 11
483.919701
 21
513.788515
 31
0.0
  0
ARC
  5
22A
330
1F
100
AcDbEntity
  8
GR1-1
  6
CONTINUOUS
 62
     3
100
AcDbCircle
 10
483.919701
 20
498.788515
 30
0.0
 40
15.0
100
AcDbArc
 50
90.0
 51
180.0
  0
LINE
  5
22B
330
1F
100
AcDbEntity
  8
GR1-1
  6
CONTINUOUS
 62
     3
100
AcDbLine
 10
468.919701
 20
498.788515
 30
0.0
 11
468.919701
 21
425.788515
 31
0.0
  0
ARC
  5
22C
330
1F
100
AcDbEntity
  8
GR1-1
  6
CONTINUOUS
 62
     3
100
AcDbCircle
 10
483.919701
 20
425.788515
 30
0.0
 40
15.0
100
AcDbArc
 50
180.0
 51
270.0
  0
LINE
  5
22D
330
1F
100
AcDbEntity
  8
GR1-1
  6
CONTINUOUS
 62
     3
100
AcDbLine
 10
483.919701
 20
410.788515
 30
0.0
 11
491.316829
 21
410.788515
 31
0.0
  0
ARC
  5
22E
330
1F
100
AcDbEntity
  8
GR1-1
  6
CONTINUOUS
 62
     3
100
AcDbCircle
 10
491.316829
 20
425.788515
 30
0.0
 40
15.0
100
AcDbArc
 50
270.0
 51
310.0
  0
LINE
  5
22F
330
1F
100
AcDbEntity
  8
GR1-1
  6
CONTINUOUS
 62
     3
100
AcDbLine
 10
500.958644
 20
414.297849
 30
0.0
 11
513.843354
 21
425.109404
 31
0.0
  0
LINE
  5
230
330
1F
100
AcDbEntity
  8
GR1-1
  6
CONTINUOUS
 62
     3
100
AcDbLine
 10
516.346199
 20
426.523773
 30
0.0
 11
516.346199
 21
426.900421
 31
0.0
  0
ARC
  5
231
330
1F
100
AcDbEntity
  8
GR1-1
  6
CONTINUOUS
 62
     3
100
AcDbCircle
 10
517.789574
 20
427.572882
 30
0.0
 40
1.784366509561449
100
AcDbArc
 50
216.011315
 51
323.988685
  0
LINE
  5
232
330
1F
100
AcDbEntity
  8
GR1-1
  6
CONTINUOUS
 62
     3
100
AcDbLine
 10
519.23295
 20
426.523773
 30
0.0
 11
519.23295
 21
428.342666
 31
0.0
  0
ARC
  5
233
330
1F
100
AcDbEntity
  8
GR1-1
  6
CONTINUOUS
 62
     3
100
AcDbCircle
 10
522.119701
 20
431.823096
 30
0.0
 40
6.0345803552766
100
AcDbArc
 50
241.421119
 51
298.578881
  0
ARC
  5
234
330
1F
100
AcDbEntity
  8
GR1-1
  6
CONTINUOUS
 62
     3
100
AcDbCircle
 10
526.449828
 20
427.572882
 30
0.0
 40
1.784366509561449
100
AcDbArc
 50
216.011315
 51
323.988685
  0
LINE
  5
235
330
1F
100
AcDbEntity
  8
GR1-1
  6
CONTINUOUS
 62
     3
100
AcDbLine
 10
527.893204
 20
426.523773
 30
0.0
 11
527.893204
 21
429.788515
 31
0.0
  0
ARC
  5
236
330
1F
100
AcDbEntity
  8
GR1-1
  6
CONTINUOUS
 62
     3
100
AcDbCircle
 10
526.699106
 20
409.788515
 30
0.0
 40
20.0
100
AcDbArc
 50
90.0
 51
130.0
  0
LINE
  5
237
330
1F
100
AcDbEntity
  8
GR1-1
  6
CONTINUOUS
 62
     3
100
AcDbLine
 10
525.006453
 20
426.523773
 30
0.0
 11
525.006453
 21
429.788515
 31
0.0
  0
LINE
  5
238
330
1F
100
AcDbEntity
  8
GR1-1
  6
CONTINUOUS
 62
     3
100
AcDbLine
 10
526.699106
 20
429.788515
 30
0.0
 11
565.140297
 21
429.788515
 31
0.0
  0
ARC
  5
239
330
1F
100
AcDbEntity
  8
GR1-1
  6
CONTINUOUS
 62
     3
100
AcDbCircle
 10
578.619701
 20
430.788515
 30
0.0
 40
16.0
100
AcDbArc
 50
183.583322
 51
206.49157
  0
LINE
  5
23A
330
1F
100
AcDbEntity
  8
GR1-1
  6
CONTINUOUS
 62
     3
100
AcDbLine
 10
564.719701
 20
421.867193
 30
0.0
 11
564.719701
 21
396.952555
 31
0.0
  0
LINE
  5
23B
330
1F
100
AcDbEntity
  8
GR1-1
  6
CONTINUOUS
 62
     3
100
AcDbLine
 10
556.929117
 20
388.955296
 30
0.0
 11
513.795475
 21
387.825802
 31
0.0
  0
ARC
  5
23C
330
1F
100
AcDbEntity
  8
GR1-1
  6
CONTINUOUS
 62
     3
100
AcDbCircle
 10
514.913962
 20
371.864944
 30
0.0
 40
16.0
100
AcDbArc
 50
91.5
 51
180.0
  0
LINE
  5
23D
330
1F
100
AcDbEntity
  8
GR1-1
  6
CONTINUOUS
 62
     3
100
AcDbLine
 10
498.913962
 20
371.864944
 30
0.0
 11
498.913962
 21
370.973234
 31
0.0
  0
ARC
  5
23E
330
1F
100
AcDbEntity
  8
GR1-1
  6
CONTINUOUS
 62
     3
100
AcDbCircle
 10
495.913962
 20
370.973234
 30
0.0
 40
3.0
100
AcDbArc
 50
321.057559
 51
360.0
  0
ARC
  5
23F
330
1F
100
AcDbEntity
  8
GR1-1
  6
CONTINUOUS
 62
     3
100
AcDbCircle
 10
502.913962
 20
365.316379
 30
0.0
 40
6.0
100
AcDbArc
 50
141.057559
 51
180.0
  0
LINE
  5
240
330
1F
100
AcDbEntity
  8
GR1-1
  6
CONTINUOUS
 62
     3
100
AcDbLine
 10
496.913962
 20
365.316379
 30
0.0
 11
496.913962
 21
345.288515
 31
0.0
  0
ARC
  5
241
330
1F
100
AcDbEntity
  8
GR1-1
  6
CONTINUOUS
 62
     3
100
AcDbCircle
 10
503.913962
 20
345.288515
 30
0.0
 40
7.0
100
AcDbArc
 50
180.0
 51
360.0
  0
ARC
  5
242
330
1F
100
AcDbEntity
  8
GR1-1
  6
CONTINUOUS
 62
     3
100
AcDbCircle
 10
514.913962
 20
371.864944
 30
0.0
 40
6.0
100
AcDbArc
 50
91.5
 51
180.0
  0
ARC
  5
243
330
1F
100
AcDbEntity
  8
GR1-1
  6
CONTINUOUS
 62
     3
100
AcDbCircle
 10
556.719701
 20
396.952555
 30
0.0
 40
8.0
100
AcDbArc
 50
271.5
 51
360.0
  0
ARC
  5
244
330
1F
100
AcDbEntity
  8
GR1-1
  6
CONTINUOUS
 62
     3
100
AcDbCircle
 10
560.719701
 20
421.867193
 30
0.0
 40
4.0
100
AcDbArc
 50
0.0
 51
26.49157
  0
LINE
  5
245
330
1F
100
AcDbEntity
  8
GR1-1
  6
CONTINUOUS
 62
     3
100
AcDbLine
 10
558.917892
 20
426.788515
 30
0.0
 11
555.917892
 21
425.288515
 31
0.0
  0
LINE
  5
246
330
1F
100
AcDbEntity
  8
GR1-1
  6
CONTINUOUS
 62
     3
100
AcDbLine
 10
555.917892
 20
425.288515
 30
0.0
 11
535.917892
 21
425.288515
 31
0.0
  0
LINE
  5
247
330
1F
100
AcDbEntity
  8
GR1-1
  6
CONTINUOUS
 62
     3
100
AcDbLine
 10
535.917892
 20
425.288515
 30
0.0
 11
532.917892
 21
426.788515
 31
0.0
  0
LINE
  5
248
330
1F
100
AcDbEntity
  8
GR1-1
  6
CONTINUOUS
 62
     3
100
AcDbLine
 10
532.917892
 20
426.788515
 30
0.0
 11
532.917892
 21
429.788515
 31
0.0
  0
LINE
  5
249
330
1F
100
AcDbEntity
  8
GR1-1
  6
CONTINUOUS
 62
     3
100
AcDbLine
 10
558.917892
 20
429.788515
 30
0.0
 11
558.917892
 21
426.788515
 31
0.0
  0
ARC
  5
24A
330
1F
100
AcDbEntity
  8
GR1-1
  6
CONTINUOUS
 62
     3
100
AcDbCircle
 10
578.719701
 20
421.867193
 30
0.0
 40
4.0
100
AcDbArc
 50
153.50843
 51
180.0
  0
ARC
  5
24B
330
1F
100
AcDbEntity
  8
GR1-1
  6
CONTINUOUS
 62
     3
100
AcDbCircle
 10
565.140297
 20
409.788515
 30
0.0
 40
20.0
100
AcDbArc
 50
50.0
 51
90.0
  0
LINE
  5
24C
330
1F
100
AcDbEntity
  8
GR1-1
  6
CONTINUOUS
 62
     3
100
AcDbLine
 10
596.353837
 20
428.222651
 30
0.0
 11
597.853837
 21
426.722651
 31
0.0
  0
ARC
  5
24D
330
1F
100
AcDbEntity
  8
GR1-1
  6
CONTINUOUS
 62
     3
100
AcDbCircle
 10
601.919701
 20
430.788515
 30
0.0
 40
5.75
100
AcDbArc
 50
-135.0
 51
45.0
  0
LINE
  5
24E
330
1F
100
AcDbEntity
  8
GR1-1
  6
CONTINUOUS
 62
     3
100
AcDbLine
 10
605.985565
 20
434.854379
 30
0.0
 11
604.485565
 21
436.354379
 31
0.0
  0
ARC
  5
24F
330
1F
100
AcDbEntity
  8
GR1-1
  6
CONTINUOUS
 62
     3
100
AcDbCircle
 10
600.419701
 20
432.288515
 30
0.0
 40
5.75
100
AcDbArc
 50
45.0
 51
225.0
  0
ARC
  5
250
330
1F
100
AcDbEntity
  8
GR1-1
  6
CONTINUOUS
 62
     3
100
AcDbCircle
 10
601.919701
 20
493.788515
 30
0.0
 40
5.75
100
AcDbArc
 50
-45.0
 51
135.0
  0
LINE
  5
251
330
1F
100
AcDbEntity
  8
GR1-1
  6
CONTINUOUS
 62
     3
100
AcDbLine
 10
597.853837
 20
497.854379
 30
0.0
 11
596.353837
 21
496.354379
 31
0.0
  0
ARC
  5
252
330
1F
100
AcDbEntity
  8
GR1-1
  6
CONTINUOUS
 62
     3
100
AcDbCircle
 10
600.419701
 20
492.288515
 30
0.0
 40
5.75
100
AcDbArc
 50
135.0
 51
315.0
  0
LINE
  5
253
330
1F
100
AcDbEntity
  8
GR1-1
  6
CONTINUOUS
 62
     3
100
AcDbLine
 10
604.485565
 20
488.222651
 30
0.0
 11
605.985565
 21
489.722651
 31
0.0
  0
LINE
  5
254
330
1F
100
AcDbEntity
  8
GR1-1
  6
CONTINUOUS
 62
     3
100
AcDbLine
 10
495.485565
 20
496.354379
 30
0.0
 11
493.985565
 21
497.854379
 31
0.0
  0
ARC
  5
255
330
1F
100
AcDbEntity
  8
GR1-1
  6
CONTINUOUS
 62
     3
100
AcDbCircle
 10
489.919701
 20
493.788515
 30
0.0
 40
5.75
100
AcDbArc
 50
45.0
 51
225.0
  0
LINE
  5
256
330
1F
100
AcDbEntity
  8
GR1-1
  6
CONTINUOUS
 62
     3
100
AcDbLine
 10
485.853837
 20
489.722651
 30
0.0
 11
487.353837
 21
488.222651
 31
0.0
  0
ARC
  5
257
330
1F
100
AcDbEntity
  8
GR1-1
  6
CONTINUOUS
 62
     3
100
AcDbCircle
 10
491.419701
 20
492.288515
 30
0.0
 40
5.75
100
AcDbArc
 50
-135.0
 51
45.0
  0
ARC
  5
258
330
1F
100
AcDbEntity
  8
GR1-1
  6
CONTINUOUS
 62
     3
100
AcDbCircle
 10
489.919701
 20
430.788515
 30
0.0
 40
5.75
100
AcDbArc
 50
135.0
 51
315.0
  0
LINE
  5
259
330
1F
100
AcDbEntity
  8
GR1-1
  6
CONTINUOUS
 62
     3
100
AcDbLine
 10
493.985565
 20
426.722651
 30
0.0
 11
495.485565
 21
428.222651
 31
0.0
  0
ARC
  5
25A
330
1F
100
AcDbEntity
  8
GR1-1
  6
CONTINUOUS
 62
     3
100
AcDbCircle
 10
491.419701
 20
432.288515
 30
0.0
 40
5.75
100
AcDbArc
 50
-45.0
 51
135.0
  0
LINE
  5
25B
330
1F
100
AcDbEntity
  8
GR1-1
  6
CONTINUOUS
 62
     3
100
AcDbLine
 10
487.353837
 20
436.354379
 30
0.0
 11
485.853837
 21
434.854379
 31
0.0
  0
TEXT
  5
25C
330
1F
100
AcDbEntity
  8
GR1-1
  6
CONTINUOUS
 62
     7
100
AcDbText
 10
539.870544
 20
258.475067
 30
0.0
 40
12.908237
  1
 -200
 50
270.0
 41
0.688584
  7
FX_VECTOR
 72
     5
 11
539.870544
 21
214.456312
 31
0.0
100
AcDbText
  0
LINE
  5
25D
330
1F
100
AcDbEntity
  8
GR1-1
  6
CENTER
 62
     6
100
AcDbLine
 10
245.919701
 20
56.593004
 30
0.0
 11
245.919701
 21
314.056317
 31
0.0
  0
LINE
  5
25E
330
1F
100
AcDbEntity
  8
GR1-1
  6
CONTINUOUS
 62
     6
100
AcDbLine
 10
228.919701
 20
279.126065
 30
0.0
 11
228.219701
 21
278.747015
 31
0.0
  0
LINE
  5
25F
330
1F
100
AcDbEntity
  8
GR1-1
  6
CONTINUOUS
 62
     6
100
AcDbLine
 10
228.219701
 20
278.747015
 30
0.0
 11
228.219701
 21
273.830015
 31
0.0
  0
LINE
  5
260
330
1F
100
AcDbEntity
  8
GR1-1
  6
CONTINUOUS
 62
     6
100
AcDbLine
 10
228.219701
 20
273.830015
 30
0.0
 11
217.419701
 21
273.830015
 31
0.0
  0
LINE
  5
261
330
1F
100
AcDbEntity
  8
GR1-1
  6
CENTER
 62
     6
100
AcDbLine
 10
214.195757
 20
276.288515
 30
0.0
 11
316.126446
 21
276.288515
 31
0.0
  0
ARC
  5
262
330
1F
100
AcDbEntity
  8
GR1-1
  6
CENTER
 62
     6
100
AcDbCircle
 10
316.126446
 20
268.288515
 30
0.0
 40
8.0
100
AcDbArc
 50
1.5
 51
90.0
  0
LINE
  5
263
330
1F
100
AcDbEntity
  8
GR1-1
  6
CENTER
 62
     6
100
AcDbLine
 10
324.123705
 20
268.497931
 30
0.0
 11
325.252992
 21
225.372188
 31
0.0
  0
ARC
  5
264
330
1F
100
AcDbEntity
  8
GR1-1
  6
CENTER
 62
     6
100
AcDbCircle
 10
332.750422
 20
225.568515
 30
0.0
 40
7.5
100
AcDbArc
 50
181.5
 51
270.0
  0
LINE
  5
265
330
1F
100
AcDbEntity
  8
GR1-1
  6
CENTER
 62
     6
100
AcDbLine
 10
332.750422
 20
218.068515
 30
0.0
 11
371.126489
 21
218.068515
 31
0.0
  0
LINE
  5
266
330
1F
100
AcDbEntity
  8
GR1-1
  6
CENTER
 62
     6
100
AcDbLine
 10
440.465896
 20
159.288515
 30
0.0
 11
648.720744
 21
159.288515
 31
0.0
  0
LINE
  5
267
330
1F
100
AcDbEntity
  8
GR1-1
  6
CENTER
 62
     6
100
AcDbLine
 10
569.719701
 20
276.288515
 30
0.0
 11
503.913962
 21
218.068515
 31
0.0
  0
LINE
  5
268
330
1F
100
AcDbEntity
  8
GR1-1
  6
CONTINUOUS
 62
     6
100
AcDbLine
 10
572.419701
 20
179.288515
 30
0.0
 11
572.419701
 21
303.288515
 31
0.0
  0
LINE
  5
269
330
1F
100
AcDbEntity
  8
GR1-1
  6
CENTER
 62
     6
100
AcDbLine
 10
569.719701
 20
287.817505
 30
0.0
 11
569.719701
 21
263.904691
 31
0.0
  0
LINE
  5
26A
330
1F
100
AcDbEntity
  8
GR1-1
  6
CENTER
 62
     6
100
AcDbLine
 10
583.899433
 20
276.288515
 30
0.0
 11
514.962101
 21
276.288515
 31
0.0
  0
LINE
  5
26B
330
1F
100
AcDbEntity
  8
GR1-1
  6
CONTINUOUS
 62
     6
100
AcDbLine
 10
519.419701
 20
270.375817
 30
0.0
 11
519.419701
 21
238.462797
 31
0.0
  0
LINE
  5
26C
330
1F
100
AcDbEntity
  8
GR1-1
  6
CONTINUOUS
 62
     6
100
AcDbLine
 10
519.419701
 20
225.110873
 30
0.0
 11
519.419701
 21
179.288515
 31
0.0
  0
LINE
  5
26D
330
1F
100
AcDbEntity
  8
GR1-1
  6
CENTER
 62
     6
100
AcDbLine
 10
503.913962
 20
208.630274
 30
0.0
 11
503.913962
 21
227.100849
 31
0.0
  0
LINE
  5
26E
330
1F
100
AcDbEntity
  8
GR1-1
  6
CENTER
 62
     6
100
AcDbLine
 10
495.761215
 20
218.068515
 30
0.0
 11
512.525104
 21
218.068515
 31
0.0
  0
LINE
  5
26F
330
1F
100
AcDbEntity
  8
GR1-1
  6
CENTER
 62
     6
100
AcDbLine
 10
522.119701
 20
267.730741
 30
0.0
 11
522.119701
 21
284.469711
 31
0.0
  0
ARC
  5
270
330
1F
100
AcDbEntity
  8
GR1-1
  6
CONTINUOUS
 62
     6
100
AcDbCircle
 10
522.119701
 20
276.288515
 30
0.0
 40
6.5
100
AcDbArc
 50
114.54354
 51
245.45646
  0
CIRCLE
  5
271
330
1F
100
AcDbEntity
  8
GR1-1
  6
CONTINUOUS
 62
     6
100
AcDbCircle
 10
522.119701
 20
276.288515
 30
0.0
 40
4.5
  0
LINE
  5
272
330
1F
100
AcDbEntity
  8
GR1-1
  6
CONTINUOUS
 62
     6
100
AcDbLine
 10
519.419701
 20
282.201214
 30
0.0
 11
519.419701
 21
303.288515
 31
0.0
  0
LINE
  5
273
330
1F
100
AcDbEntity
  8
GR1-1
  6
CENTER
 62
     6
100
AcDbLine
 10
545.919701
 20
313.410188
 30
0.0
 11
545.919701
 21
53.096565
 31
0.0
  0
CIRCLE
  5
274
330
1F
100
AcDbEntity
  8
GR1-1
  6
CONTINUOUS
 62
     6
100
AcDbCircle
 10
545.919701
 20
159.288515
 30
0.0
 40
9.998191191713318
  0
LINE
  5
275
330
1F
100
AcDbEntity
  8
GR1-1
  6
CENTER
 62
     6
100
AcDbLine
 10
285.634628
 20
159.288515
 30
0.0
 11
197.452582
 21
159.288515
 31
0.0
  0
LINE
  5
276
330
1F
100
AcDbEntity
  8
GR1-1
  6
CONTINUOUS
 62
     6
100
AcDbLine
 10
200.10951
 20
165.476515
 30
0.0
 11
202.119701
 21
165.476515
 31
0.0
  0
LINE
  5
277
330
1F
100
AcDbEntity
  8
GR1-1
  6
CONTINUOUS
 62
     6
100
AcDbLine
 10
200.919701
 20
166.286707
 30
0.0
 11
200.919701
 21
152.286707
 31
0.0
  0
LINE
  5
278
330
1F
100
AcDbEntity
  8
GR1-1
  6
CONTINUOUS
 62
     6
100
AcDbLine
 10
200.10951
 20
153.100515
 30
0.0
 11
202.119701
 21
153.100515
 31
0.0
  0
LINE
  5
279
330
1F
100
AcDbEntity
  8
GR1-1
  6
CONTINUOUS
 62
     6
100
AcDbLine
 10
281.219701
 20
172.286707
 30
0.0
 11
281.219701
 21
146.286707
 31
0.0
  0
LINE
  5
27A
330
1F
100
AcDbEntity
  8
GR1-1
  6
CONTINUOUS
 62
     6
100
AcDbLine
 10
271.919701
 20
272.038515
 30
0.0
 11
274.419701
 21
272.038515
 31
0.0
  0
LINE
  5
27B
330
1F
100
AcDbEntity
  8
GR1-1
  6
CONTINUOUS
 62
     6
100
AcDbLine
 10
271.919701
 20
272.038515
 30
0.0
 11
271.919701
 21
273.038515
 31
0.0
  0
LINE
  5
27C
330
1F
100
AcDbEntity
  8
GR1-1
  6
CONTINUOUS
 62
     6
100
AcDbLine
 10
271.919701
 20
273.038515
 30
0.0
 11
272.047906
 21
273.288515
 31
0.0
  0
LINE
  5
27D
330
1F
100
AcDbEntity
  8
GR1-1
  6
CONTINUOUS
 62
     6
100
AcDbLine
 10
272.047906
 20
279.288515
 30
0.0
 11
271.919701
 21
279.538515
 31
0.0
  0
LINE
  5
27E
330
1F
100
AcDbEntity
  8
GR1-1
  6
CONTINUOUS
 62
     6
100
AcDbLine
 10
271.919701
 20
279.538515
 30
0.0
 11
271.919701
 21
280.538515
 31
0.0
  0
LINE
  5
27F
330
1F
100
AcDbEntity
  8
GR1-1
  6
CONTINUOUS
 62
     6
100
AcDbLine
 10
271.919701
 20
280.538515
 30
0.0
 11
274.419701
 21
280.538515
 31
0.0
  0
LINE
  5
280
330
1F
100
AcDbEntity
  8
GR1-1
  6
CONTINUOUS
 62
     6
100
AcDbLine
 10
228.919701
 20
273.450965
 30
0.0
 11
228.219701
 21
273.830015
 31
0.0
  0
LINE
  5
281
330
1F
100
AcDbEntity
  8
GR1-1
  6
CONTINUOUS
 62
     6
100
AcDbLine
 10
228.219701
 20
278.747015
 30
0.0
 11
217.419701
 21
278.747015
 31
0.0
  0
LINE
  5
282
330
1F
100
AcDbEntity
  8
GR1-1
  6
CENTER
 62
     6
100
AcDbLine
 10
440.661624
 20
462.288515
 30
0.0
 11
650.236249
 21
462.288515
 31
0.0
  0
LINE
  5
283
330
1F
100
AcDbEntity
  8
GR1-1
  6
CONTINUOUS
 62
     6
100
AcDbLine
 10
565.769701
 20
492.288515
 30
0.0
 11
565.769701
 21
432.288515
 31
0.0
  0
LINE
  5
284
330
1F
100
AcDbEntity
  8
GR1-1
  6
CONTINUOUS
 62
     6
100
AcDbLine
 10
566.719701
 20
429.726055
 30
0.0
 11
566.719701
 21
425.288515
 31
0.0
  0
LINE
  5
285
330
1F
100
AcDbEntity
  8
GR1-1
  6
CONTINUOUS
 62
     6
100
AcDbLine
 10
566.719701
 20
425.288515
 30
0.0
 11
565.719701
 21
425.288515
 31
0.0
  0
LINE
  5
286
330
1F
100
AcDbEntity
  8
GR1-1
  6
CONTINUOUS
 62
     6
100
AcDbLine
 10
565.719701
 20
425.288515
 30
0.0
 11
563.265549
 21
426.288515
 31
0.0
  0
LINE
  5
287
330
1F
100
AcDbEntity
  8
GR1-1
  6
CONTINUOUS
 62
     6
100
AcDbLine
 10
563.265549
 20
426.288515
 30
0.0
 11
566.719701
 21
426.288515
 31
0.0
  0
LINE
  5
288
330
1F
100
AcDbEntity
  8
GR1-1
  6
CENTER
 62
     6
100
AcDbLine
 10
569.719701
 20
429.257184
 30
0.0
 11
569.719701
 21
396.952555
 31
0.0
  0
LINE
  5
289
330
1F
100
AcDbEntity
  8
GR1-1
  6
CENTER
 62
     6
100
AcDbLine
 10
557.060002
 20
383.95701
 30
0.0
 11
515.211755
 21
382.861175
 31
0.0
  0
ARC
  5
28A
330
1F
100
AcDbEntity
  8
GR1-1
  6
CENTER
 62
     6
100
AcDbCircle
 10
514.913962
 20
371.864944
 30
0.0
 40
11.0
100
AcDbArc
 50
91.5
 51
180.0
  0
LINE
  5
28B
330
1F
100
AcDbEntity
  8
GR1-1
  6
CENTER
 62
     6
100
AcDbLine
 10
503.913962
 20
371.864944
 30
0.0
 11
503.913962
 21
336.346282
 31
0.0
  0
LINE
  5
28C
330
1F
100
AcDbEntity
  8
GR1-1
  6
CONTINUOUS
 62
     6
100
AcDbLine
 10
502.464066
 20
339.466334
 30
0.0
 11
502.152292
 21
339.778108
 31
0.0
  0
LINE
  5
28D
330
1F
100
AcDbEntity
  8
GR1-1
  6
CONTINUOUS
 62
     6
100
AcDbLine
 10
502.152292
 20
339.778108
 30
0.0
 11
503.920059
 21
341.545875
 31
0.0
  0
LINE
  5
28E
330
1F
100
AcDbEntity
  8
GR1-1
  6
CONTINUOUS
 62
     6
100
AcDbLine
 10
503.913962
 20
341.551971
 30
0.0
 11
505.687826
 21
339.778108
 31
0.0
  0
LINE
  5
28F
330
1F
100
AcDbEntity
  8
GR1-1
  6
CONTINUOUS
 62
     6
100
AcDbLine
 10
505.687826
 20
339.778108
 30
0.0
 11
505.380127
 21
339.470409
 31
0.0
  0
LINE
  5
290
330
1F
100
AcDbEntity
  8
GR1-1
  6
CONTINUOUS
 62
     6
100
AcDbLine
 10
506.394932
 20
340.485215
 30
0.0
 11
508.162699
 21
342.252982
 31
0.0
  0
LINE
  5
291
330
1F
100
AcDbEntity
  8
GR1-1
  6
CONTINUOUS
 62
     6
100
AcDbLine
 10
508.162699
 20
342.252982
 30
0.0
 11
506.394932
 21
344.020748
 31
0.0
  0
LINE
  5
292
330
1F
100
AcDbEntity
  8
GR1-1
  6
CONTINUOUS
 62
     6
100
AcDbLine
 10
506.394932
 20
344.020748
 30
0.0
 11
504.627165
 21
342.252982
 31
0.0
  0
LINE
  5
293
330
1F
100
AcDbEntity
  8
GR1-1
  6
CONTINUOUS
 62
     6
100
AcDbLine
 10
504.627165
 20
342.252982
 30
0.0
 11
506.394932
 21
340.485215
 31
0.0
  0
LINE
  5
294
330
1F
100
AcDbEntity
  8
GR1-1
  6
CONTINUOUS
 62
     6
100
AcDbLine
 10
508.869806
 20
342.960088
 30
0.0
 11
509.732068
 21
343.82235
 31
0.0
  0
LINE
  5
295
330
1F
100
AcDbEntity
  8
GR1-1
  6
CONTINUOUS
 62
     6
100
AcDbLine
 10
508.869806
 20
342.960088
 30
0.0
 11
507.102039
 21
344.727855
 31
0.0
  0
LINE
  5
296
330
1F
100
AcDbEntity
  8
GR1-1
  6
CONTINUOUS
 62
     6
100
AcDbLine
 10
507.102039
 20
344.727855
 30
0.0
 11
508.869806
 21
346.495622
 31
0.0
  0
LINE
  5
297
330
1F
100
AcDbEntity
  8
GR1-1
  6
CONTINUOUS
 62
     6
100
AcDbLine
 10
508.913962
 20
346.451466
 30
0.0
 11
509.913962
 21
345.451466
 31
0.0
  0
LINE
  5
298
330
1F
100
AcDbEntity
  8
GR1-1
  6
CONTINUOUS
 62
     6
100
AcDbLine
 10
509.913962
 20
345.288515
 30
0.0
 11
509.913962
 21
363.294769
 31
0.0
  0
ARC
  5
299
330
1F
100
AcDbEntity
  8
GR1-1
  6
CONTINUOUS
 62
     6
100
AcDbCircle
 10
501.913962
 20
363.294769
 30
0.0
 40
8.0
100
AcDbArc
 50
0.0
 51
38.624833
  0
ARC
  5
29A
330
1F
100
AcDbEntity
  8
GR1-1
  6
CONTINUOUS
 62
     6
100
AcDbCircle
 10
503.913962
 20
363.017682
 30
0.0
 40
6.770833333333487
100
AcDbArc
 50
51.11993
 51
128.88007
  0
LINE
  5
29B
330
1F
100
AcDbEntity
  8
GR1-1
  6
CONTINUOUS
 62
     6
100
AcDbLine
 10
499.663962
 20
368.288515
 30
0.0
 11
508.163962
 21
368.288515
 31
0.0
  0
LINE
  5
29C
330
1F
100
AcDbEntity
  8
GR1-1
  6
CONTINUOUS
 62
     6
100
AcDbLine
 10
508.162699
 20
367.001719
 30
0.0
 11
506.394932
 21
365.233952
 31
0.0
  0
LINE
  5
29D
330
1F
100
AcDbEntity
  8
GR1-1
  6
CONTINUOUS
 62
     6
100
AcDbLine
 10
506.394932
 20
365.233952
 30
0.0
 11
504.627165
 21
367.001719
 31
0.0
  0
LINE
  5
29E
330
1F
100
AcDbEntity
  8
GR1-1
  6
CONTINUOUS
 62
     6
100
AcDbLine
 10
504.627165
 20
367.001719
 30
0.0
 11
505.913962
 21
368.288515
 31
0.0
  0
LINE
  5
29F
330
1F
100
AcDbEntity
  8
GR1-1
  6
CONTINUOUS
 62
     6
100
AcDbLine
 10
506.875903
 20
368.288515
 30
0.0
 11
508.162699
 21
367.001719
 31
0.0
  0
LINE
  5
2A0
330
1F
100
AcDbEntity
  8
GR1-1
  6
CONTINUOUS
 62
     6
100
AcDbLine
 10
508.869806
 20
366.294612
 30
0.0
 11
507.102039
 21
364.526845
 31
0.0
  0
LINE
  5
2A1
330
1F
100
AcDbEntity
  8
GR1-1
  6
CONTINUOUS
 62
     6
100
AcDbLine
 10
507.102039
 20
364.526845
 30
0.0
 11
508.913962
 21
362.714922
 31
0.0
  0
LINE
  5
2A2
330
1F
100
AcDbEntity
  8
GR1-1
  6
CONTINUOUS
 62
     6
100
AcDbLine
 10
508.869806
 20
362.759078
 30
0.0
 11
509.889869
 21
363.779141
 31
0.0
  0
LINE
  5
2A3
330
1F
100
AcDbEntity
  8
GR1-1
  6
CONTINUOUS
 62
     6
100
AcDbLine
 10
509.88331
 20
362.358368
 30
0.0
 11
509.576913
 21
362.051971
 31
0.0
  0
LINE
  5
2A4
330
1F
100
AcDbEntity
  8
GR1-1
  6
CONTINUOUS
 62
     6
100
AcDbLine
 10
509.576913
 20
362.051971
 30
0.0
 11
509.942058
 21
361.686826
 31
0.0
  0
LINE
  5
2A5
330
1F
100
AcDbEntity
  8
GR1-1
  6
CONTINUOUS
 62
     6
100
AcDbLine
 10
508.913962
 20
361.300709
 30
0.0
 11
509.913962
 21
360.300709
 31
0.0
  0
LINE
  5
2A6
330
1F
100
AcDbEntity
  8
GR1-1
  6
CONTINUOUS
 62
     6
100
AcDbLine
 10
509.913962
 20
358.853487
 30
0.0
 11
508.913962
 21
357.853487
 31
0.0
  0
LINE
  5
2A7
330
1F
100
AcDbEntity
  8
GR1-1
  6
CONTINUOUS
 62
     6
100
AcDbLine
 10
508.913962
 20
357.765175
 30
0.0
 11
507.102039
 21
359.577098
 31
0.0
  0
LINE
  5
2A8
330
1F
100
AcDbEntity
  8
GR1-1
  6
CONTINUOUS
 62
     6
100
AcDbLine
 10
507.102039
 20
359.577098
 30
0.0
 11
508.869806
 21
361.344865
 31
0.0
  0
LINE
  5
2A9
330
1F
100
AcDbEntity
  8
GR1-1
  6
CONTINUOUS
 62
     6
100
AcDbLine
 10
508.162699
 20
362.051971
 30
0.0
 11
506.394932
 21
360.284204
 31
0.0
  0
LINE
  5
2AA
330
1F
100
AcDbEntity
  8
GR1-1
  6
CONTINUOUS
 62
     6
100
AcDbLine
 10
506.394932
 20
360.284204
 30
0.0
 11
504.627165
 21
362.051971
 31
0.0
  0
LINE
  5
2AB
330
1F
100
AcDbEntity
  8
GR1-1
  6
CONTINUOUS
 62
     6
100
AcDbLine
 10
504.627165
 20
362.051971
 30
0.0
 11
506.394932
 21
363.819738
 31
0.0
  0
LINE
  5
2AC
330
1F
100
AcDbEntity
  8
GR1-1
  6
CONTINUOUS
 62
     6
100
AcDbLine
 10
506.394932
 20
363.819738
 30
0.0
 11
508.162699
 21
362.051971
 31
0.0
  0
LINE
  5
2AD
330
1F
100
AcDbEntity
  8
GR1-1
  6
CONTINUOUS
 62
     6
100
AcDbLine
 10
505.687826
 20
364.526845
 30
0.0
 11
503.920059
 21
362.759078
 31
0.0
  0
LINE
  5
2AE
330
1F
100
AcDbEntity
  8
GR1-1
  6
CONTINUOUS
 62
     6
100
AcDbLine
 10
503.920059
 20
362.759078
 30
0.0
 11
502.152292
 21
364.526845
 31
0.0
  0
LINE
  5
2AF
330
1F
100
AcDbEntity
  8
GR1-1
  6
CONTINUOUS
 62
     6
100
AcDbLine
 10
502.152292
 20
364.526845
 30
0.0
 11
503.920059
 21
366.294612
 31
0.0
  0
LINE
  5
2B0
330
1F
100
AcDbEntity
  8
GR1-1
  6
CONTINUOUS
 62
     6
100
AcDbLine
 10
503.920059
 20
366.294612
 30
0.0
 11
505.687826
 21
364.526845
 31
0.0
  0
LINE
  5
2B1
330
1F
100
AcDbEntity
  8
GR1-1
  6
CONTINUOUS
 62
     6
100
AcDbLine
 10
503.212952
 20
362.051971
 30
0.0
 11
501.445185
 21
360.284204
 31
0.0
  0
LINE
  5
2B2
330
1F
100
AcDbEntity
  8
GR1-1
  6
CONTINUOUS
 62
     6
100
AcDbLine
 10
501.445185
 20
360.284204
 30
0.0
 11
499.663962
 21
362.065427
 31
0.0
  0
LINE
  5
2B3
330
1F
100
AcDbEntity
  8
GR1-1
  6
CONTINUOUS
 62
     6
100
AcDbLine
 10
499.677418
 20
362.051971
 30
0.0
 11
501.445185
 21
363.819738
 31
0.0
  0
LINE
  5
2B4
330
1F
100
AcDbEntity
  8
GR1-1
  6
CONTINUOUS
 62
     6
100
AcDbLine
 10
501.445185
 20
363.819738
 30
0.0
 11
503.212952
 21
362.051971
 31
0.0
  0
LINE
  5
2B5
330
1F
100
AcDbEntity
  8
GR1-1
  6
CONTINUOUS
 62
     6
100
AcDbLine
 10
503.913962
 20
361.350961
 30
0.0
 11
505.687826
 21
359.577098
 31
0.0
  0
LINE
  5
2B6
330
1F
100
AcDbEntity
  8
GR1-1
  6
CONTINUOUS
 62
     6
100
AcDbLine
 10
505.687826
 20
359.577098
 30
0.0
 11
503.920059
 21
357.809331
 31
0.0
  0
LINE
  5
2B7
330
1F
100
AcDbEntity
  8
GR1-1
  6
CONTINUOUS
 62
     6
100
AcDbLine
 10
503.913962
 20
357.815427
 30
0.0
 11
502.152292
 21
359.577098
 31
0.0
  0
LINE
  5
2B8
330
1F
100
AcDbEntity
  8
GR1-1
  6
CONTINUOUS
 62
     6
100
AcDbLine
 10
502.152292
 20
359.577098
 30
0.0
 11
503.913962
 21
361.338768
 31
0.0
  0
LINE
  5
2B9
330
1F
100
AcDbEntity
  8
GR1-1
  6
CONTINUOUS
 62
     6
100
AcDbLine
 10
501.445185
 20
358.869991
 30
0.0
 11
499.677418
 21
357.102224
 31
0.0
  0
LINE
  5
2BA
330
1F
100
AcDbEntity
  8
GR1-1
  6
CONTINUOUS
 62
     6
100
AcDbLine
 10
499.663962
 20
357.11568
 30
0.0
 11
501.445185
 21
355.334457
 31
0.0
  0
LINE
  5
2BB
330
1F
100
AcDbEntity
  8
GR1-1
  6
CONTINUOUS
 62
     6
100
AcDbLine
 10
501.445185
 20
355.334457
 30
0.0
 11
503.212952
 21
357.102224
 31
0.0
  0
LINE
  5
2BC
330
1F
100
AcDbEntity
  8
GR1-1
  6
CONTINUOUS
 62
     6
100
AcDbLine
 10
503.212952
 20
357.102224
 30
0.0
 11
501.445185
 21
358.869991
 31
0.0
  0
LINE
  5
2BD
330
1F
100
AcDbEntity
  8
GR1-1
  6
CONTINUOUS
 62
     6
100
AcDbLine
 10
500.738078
 20
359.577098
 30
0.0
 11
498.970311
 21
357.809331
 31
0.0
  0
LINE
  5
2BE
330
1F
100
AcDbEntity
  8
GR1-1
  6
CONTINUOUS
 62
     6
100
AcDbLine
 10
498.970311
 20
357.809331
 30
0.0
 11
497.913962
 21
358.86568
 31
0.0
  0
LINE
  5
2BF
330
1F
100
AcDbEntity
  8
GR1-1
  6
CONTINUOUS
 62
     6
100
AcDbLine
 10
497.913962
 20
357.451466
 30
0.0
 11
498.263204
 21
357.102224
 31
0.0
  0
LINE
  5
2C0
330
1F
100
AcDbEntity
  8
GR1-1
  6
CONTINUOUS
 62
     6
100
AcDbLine
 10
498.263204
 20
357.102224
 30
0.0
 11
497.913962
 21
356.752982
 31
0.0
  0
LINE
  5
2C1
330
1F
100
AcDbEntity
  8
GR1-1
  6
CONTINUOUS
 62
     6
100
AcDbLine
 10
498.913962
 20
356.451466
 30
0.0
 11
500.738078
 21
354.62735
 31
0.0
  0
LINE
  5
2C2
330
1F
100
AcDbEntity
  8
GR1-1
  6
CONTINUOUS
 62
     6
100
AcDbLine
 10
500.738078
 20
354.62735
 30
0.0
 11
498.970311
 21
352.859583
 31
0.0
  0
LINE
  5
2C3
330
1F
100
AcDbEntity
  8
GR1-1
  6
CONTINUOUS
 62
     6
100
AcDbLine
 10
498.970311
 20
352.859583
 30
0.0
 11
497.913962
 21
353.915932
 31
0.0
  0
LINE
  5
2C4
330
1F
100
AcDbEntity
  8
GR1-1
  6
CONTINUOUS
 62
     6
100
AcDbLine
 10
497.913962
 20
352.501719
 30
0.0
 11
498.263204
 21
352.152476
 31
0.0
  0
LINE
  5
2C5
330
1F
100
AcDbEntity
  8
GR1-1
  6
CONTINUOUS
 62
     6
100
AcDbLine
 10
498.263204
 20
352.152476
 30
0.0
 11
497.913962
 21
351.803234
 31
0.0
  0
LINE
  5
2C6
330
1F
100
AcDbEntity
  8
GR1-1
  6
CONTINUOUS
 62
     6
100
AcDbLine
 10
498.913962
 20
351.501719
 30
0.0
 11
500.738078
 21
349.677603
 31
0.0
  0
LINE
  5
2C7
330
1F
100
AcDbEntity
  8
GR1-1
  6
CONTINUOUS
 62
     6
100
AcDbLine
 10
500.738078
 20
349.677603
 30
0.0
 11
498.970311
 21
347.909836
 31
0.0
  0
LINE
  5
2C8
330
1F
100
AcDbEntity
  8
GR1-1
  6
CONTINUOUS
 62
     6
100
AcDbLine
 10
498.913962
 20
347.966185
 30
0.0
 11
497.913962
 21
348.966185
 31
0.0
  0
LINE
  5
2C9
330
1F
100
AcDbEntity
  8
GR1-1
  6
CONTINUOUS
 62
     6
100
AcDbLine
 10
497.913962
 20
347.551971
 30
0.0
 11
498.263204
 21
347.202729
 31
0.0
  0
LINE
  5
2CA
330
1F
100
AcDbEntity
  8
GR1-1
  6
CONTINUOUS
 62
     6
100
AcDbLine
 10
498.263204
 20
347.202729
 30
0.0
 11
497.913962
 21
346.853487
 31
0.0
  0
LINE
  5
2CB
330
1F
100
AcDbEntity
  8
GR1-1
  6
CONTINUOUS
 62
     6
100
AcDbLine
 10
498.913962
 20
346.551971
 30
0.0
 11
500.738078
 21
344.727855
 31
0.0
  0
LINE
  5
2CC
330
1F
100
AcDbEntity
  8
GR1-1
  6
CONTINUOUS
 62
     6
100
AcDbLine
 10
500.738078
 20
344.727855
 30
0.0
 11
498.970311
 21
342.960088
 31
0.0
  0
LINE
  5
2CD
330
1F
100
AcDbEntity
  8
GR1-1
  6
CONTINUOUS
 62
     6
100
AcDbLine
 10
498.913962
 20
343.016437
 30
0.0
 11
498.09178
 21
343.838619
 31
0.0
  0
LINE
  5
2CE
330
1F
100
AcDbEntity
  8
GR1-1
  6
CONTINUOUS
 62
     6
100
AcDbLine
 10
497.913962
 20
345.288515
 30
0.0
 11
497.913962
 21
363.294769
 31
0.0
  0
LINE
  5
2CF
330
1F
100
AcDbEntity
  8
GR1-1
  6
CONTINUOUS
 62
     6
100
AcDbLine
 10
497.938943
 20
363.790447
 30
0.0
 11
498.970311
 21
362.759078
 31
0.0
  0
LINE
  5
2D0
330
1F
100
AcDbEntity
  8
GR1-1
  6
CONTINUOUS
 62
     6
100
AcDbLine
 10
498.970311
 20
362.759078
 30
0.0
 11
500.738078
 21
364.526845
 31
0.0
  0
LINE
  5
2D1
330
1F
100
AcDbEntity
  8
GR1-1
  6
CONTINUOUS
 62
     6
100
AcDbLine
 10
500.738078
 20
364.526845
 30
0.0
 11
498.964215
 21
366.300709
 31
0.0
  0
LINE
  5
2D2
330
1F
100
AcDbEntity
  8
GR1-1
  6
CONTINUOUS
 62
     6
100
AcDbLine
 10
498.964215
 20
366.300709
 30
0.0
 11
498.3109
 21
365.647394
 31
0.0
  0
LINE
  5
2D3
330
1F
100
AcDbEntity
  8
GR1-1
  6
CONTINUOUS
 62
     6
100
AcDbLine
 10
499.665225
 20
367.001719
 30
0.0
 11
500.952021
 21
368.288515
 31
0.0
  0
LINE
  5
2D4
330
1F
100
AcDbEntity
  8
GR1-1
  6
CONTINUOUS
 62
     6
100
AcDbLine
 10
501.913962
 20
368.288515
 30
0.0
 11
503.200759
 21
367.001719
 31
0.0
  0
LINE
  5
2D5
330
1F
100
AcDbEntity
  8
GR1-1
  6
CONTINUOUS
 62
     6
100
AcDbLine
 10
503.206855
 20
366.995622
 30
0.0
 11
501.445185
 21
365.233952
 31
0.0
  0
LINE
  5
2D6
330
1F
100
AcDbEntity
  8
GR1-1
  6
CONTINUOUS
 62
     6
100
AcDbLine
 10
501.445185
 20
365.233952
 30
0.0
 11
499.665225
 21
367.001719
 31
0.0
  0
ARC
  5
2D7
330
1F
100
AcDbEntity
  8
GR1-1
  6
CONTINUOUS
 62
     6
100
AcDbCircle
 10
505.913962
 20
363.294769
 30
0.0
 40
8.0
100
AcDbArc
 50
141.375167
 51
180.0
  0
LINE
  5
2D8
330
1F
100
AcDbEntity
  8
GR1-1
  6
CONTINUOUS
 62
     6
100
AcDbLine
 10
497.945605
 20
362.36957
 30
0.0
 11
498.263204
 21
362.051971
 31
0.0
  0
LINE
  5
2D9
330
1F
100
AcDbEntity
  8
GR1-1
  6
CONTINUOUS
 62
     6
100
AcDbLine
 10
498.263204
 20
362.051971
 30
0.0
 11
497.914084
 21
361.702851
 31
0.0
  0
LINE
  5
2DA
330
1F
100
AcDbEntity
  8
GR1-1
  6
CONTINUOUS
 62
     6
100
AcDbLine
 10
498.913962
 20
361.401214
 30
0.0
 11
500.738078
 21
359.577098
 31
0.0
  0
LINE
  5
2DB
330
1F
100
AcDbEntity
  8
GR1-1
  6
CONTINUOUS
 62
     6
100
AcDbLine
 10
498.970311
 20
361.344865
 30
0.0
 11
497.913962
 21
360.288515
 31
0.0
  0
LINE
  5
2DC
330
1F
100
AcDbEntity
  8
GR1-1
  6
CONTINUOUS
 62
     6
100
AcDbLine
 10
498.970311
 20
356.395117
 30
0.0
 11
497.913962
 21
355.338768
 31
0.0
  0
LINE
  5
2DD
330
1F
100
AcDbEntity
  8
GR1-1
  6
CONTINUOUS
 62
     6
100
AcDbLine
 10
499.677418
 20
352.152476
 30
0.0
 11
501.445185
 21
350.384709
 31
0.0
  0
LINE
  5
2DE
330
1F
100
AcDbEntity
  8
GR1-1
  6
CONTINUOUS
 62
     6
100
AcDbLine
 10
501.445185
 20
350.384709
 30
0.0
 11
503.212952
 21
352.152476
 31
0.0
  0
LINE
  5
2DF
330
1F
100
AcDbEntity
  8
GR1-1
  6
CONTINUOUS
 62
     6
100
AcDbLine
 10
503.212952
 20
352.152476
 30
0.0
 11
501.445185
 21
353.920243
 31
0.0
  0
LINE
  5
2E0
330
1F
100
AcDbEntity
  8
GR1-1
  6
CONTINUOUS
 62
     6
100
AcDbLine
 10
501.445185
 20
353.920243
 30
0.0
 11
499.663962
 21
352.13902
 31
0.0
  0
LINE
  5
2E1
330
1F
100
AcDbEntity
  8
GR1-1
  6
CONTINUOUS
 62
     6
100
AcDbLine
 10
498.970311
 20
351.44537
 30
0.0
 11
497.913962
 21
350.38902
 31
0.0
  0
LINE
  5
2E2
330
1F
100
AcDbEntity
  8
GR1-1
  6
CONTINUOUS
 62
     6
100
AcDbLine
 10
499.677418
 20
347.202729
 30
0.0
 11
501.445185
 21
345.434962
 31
0.0
  0
LINE
  5
2E3
330
1F
100
AcDbEntity
  8
GR1-1
  6
CONTINUOUS
 62
     6
100
AcDbLine
 10
501.445185
 20
345.434962
 30
0.0
 11
503.212952
 21
347.202729
 31
0.0
  0
LINE
  5
2E4
330
1F
100
AcDbEntity
  8
GR1-1
  6
CONTINUOUS
 62
     6
100
AcDbLine
 10
503.212952
 20
347.202729
 30
0.0
 11
501.445185
 21
348.970496
 31
0.0
  0
LINE
  5
2E5
330
1F
100
AcDbEntity
  8
GR1-1
  6
CONTINUOUS
 62
     6
100
AcDbLine
 10
501.445185
 20
348.970496
 30
0.0
 11
499.663962
 21
347.189273
 31
0.0
  0
LINE
  5
2E6
330
1F
100
AcDbEntity
  8
GR1-1
  6
CONTINUOUS
 62
     6
100
AcDbLine
 10
498.913962
 20
346.439273
 30
0.0
 11
497.913962
 21
345.439273
 31
0.0
  0
ARC
  5
2E7
330
1F
100
AcDbEntity
  8
GR1-1
  6
CONTINUOUS
 62
     6
100
AcDbCircle
 10
503.913962
 20
345.288515
 30
0.0
 40
6.0
100
AcDbArc
 50
180.0
 51
360.0
  0
LINE
  5
2E8
330
1F
100
AcDbEntity
  8
GR1-1
  6
CONTINUOUS
 62
     6
100
AcDbLine
 10
509.913962
 20
346.86568
 30
0.0
 11
509.576913
 21
347.202729
 31
0.0
  0
LINE
  5
2E9
330
1F
100
AcDbEntity
  8
GR1-1
  6
CONTINUOUS
 62
     6
100
AcDbLine
 10
509.576913
 20
347.202729
 30
0.0
 11
509.913962
 21
347.539778
 31
0.0
  0
LINE
  5
2EA
330
1F
100
AcDbEntity
  8
GR1-1
  6
CONTINUOUS
 62
     6
100
AcDbLine
 10
508.913962
 20
347.86568
 30
0.0
 11
507.102039
 21
349.677603
 31
0.0
  0
LINE
  5
2EB
330
1F
100
AcDbEntity
  8
GR1-1
  6
CONTINUOUS
 62
     6
100
AcDbLine
 10
507.102039
 20
349.677603
 30
0.0
 11
508.869806
 21
351.44537
 31
0.0
  0
LINE
  5
2EC
330
1F
100
AcDbEntity
  8
GR1-1
  6
CONTINUOUS
 62
     6
100
AcDbLine
 10
508.913962
 20
351.401214
 30
0.0
 11
509.913962
 21
350.401214
 31
0.0
  0
LINE
  5
2ED
330
1F
100
AcDbEntity
  8
GR1-1
  6
CONTINUOUS
 62
     6
100
AcDbLine
 10
509.913962
 20
351.815427
 30
0.0
 11
509.576913
 21
352.152476
 31
0.0
  0
LINE
  5
2EE
330
1F
100
AcDbEntity
  8
GR1-1
  6
CONTINUOUS
 62
     6
100
AcDbLine
 10
509.576913
 20
352.152476
 30
0.0
 11
509.913962
 21
352.489526
 31
0.0
  0
LINE
  5
2EF
330
1F
100
AcDbEntity
  8
GR1-1
  6
CONTINUOUS
 62
     6
100
AcDbLine
 10
508.913962
 20
352.815427
 30
0.0
 11
507.102039
 21
354.62735
 31
0.0
  0
LINE
  5
2F0
330
1F
100
AcDbEntity
  8
GR1-1
  6
CONTINUOUS
 62
     6
100
AcDbLine
 10
507.102039
 20
354.62735
 30
0.0
 11
508.913962
 21
356.439273
 31
0.0
  0
LINE
  5
2F1
330
1F
100
AcDbEntity
  8
GR1-1
  6
CONTINUOUS
 62
     6
100
AcDbLine
 10
508.913962
 20
356.350961
 30
0.0
 11
509.913962
 21
355.350961
 31
0.0
  0
LINE
  5
2F2
330
1F
100
AcDbEntity
  8
GR1-1
  6
CONTINUOUS
 62
     6
100
AcDbLine
 10
509.913962
 20
356.765175
 30
0.0
 11
509.576913
 21
357.102224
 31
0.0
  0
LINE
  5
2F3
330
1F
100
AcDbEntity
  8
GR1-1
  6
CONTINUOUS
 62
     6
100
AcDbLine
 10
509.576913
 20
357.102224
 30
0.0
 11
509.913962
 21
357.439273
 31
0.0
  0
LINE
  5
2F4
330
1F
100
AcDbEntity
  8
GR1-1
  6
CONTINUOUS
 62
     6
100
AcDbLine
 10
508.162699
 20
357.102224
 30
0.0
 11
506.394932
 21
358.869991
 31
0.0
  0
LINE
  5
2F5
330
1F
100
AcDbEntity
  8
GR1-1
  6
CONTINUOUS
 62
     6
100
AcDbLine
 10
506.394932
 20
358.869991
 30
0.0
 11
504.627165
 21
357.102224
 31
0.0
  0
LINE
  5
2F6
330
1F
100
AcDbEntity
  8
GR1-1
  6
CONTINUOUS
 62
     6
100
AcDbLine
 10
504.627165
 20
357.102224
 30
0.0
 11
506.394932
 21
355.334457
 31
0.0
  0
LINE
  5
2F7
330
1F
100
AcDbEntity
  8
GR1-1
  6
CONTINUOUS
 62
     6
100
AcDbLine
 10
506.394932
 20
355.334457
 30
0.0
 11
508.162699
 21
357.102224
 31
0.0
  0
LINE
  5
2F8
330
1F
100
AcDbEntity
  8
GR1-1
  6
CONTINUOUS
 62
     6
100
AcDbLine
 10
505.687826
 20
354.62735
 30
0.0
 11
503.920059
 21
352.859583
 31
0.0
  0
LINE
  5
2F9
330
1F
100
AcDbEntity
  8
GR1-1
  6
CONTINUOUS
 62
     6
100
AcDbLine
 10
503.913962
 20
352.86568
 30
0.0
 11
502.152292
 21
354.62735
 31
0.0
  0
LINE
  5
2FA
330
1F
100
AcDbEntity
  8
GR1-1
  6
CONTINUOUS
 62
     6
100
AcDbLine
 10
502.152292
 20
354.62735
 30
0.0
 11
503.920059
 21
356.395117
 31
0.0
  0
LINE
  5
2FB
330
1F
100
AcDbEntity
  8
GR1-1
  6
CONTINUOUS
 62
     6
100
AcDbLine
 10
503.913962
 20
356.401214
 30
0.0
 11
505.687826
 21
354.62735
 31
0.0
  0
LINE
  5
2FC
330
1F
100
AcDbEntity
  8
GR1-1
  6
CONTINUOUS
 62
     6
100
AcDbLine
 10
506.394932
 20
353.920243
 30
0.0
 11
508.162699
 21
352.152476
 31
0.0
  0
LINE
  5
2FD
330
1F
100
AcDbEntity
  8
GR1-1
  6
CONTINUOUS
 62
     6
100
AcDbLine
 10
508.162699
 20
352.152476
 30
0.0
 11
506.394932
 21
350.384709
 31
0.0
  0
LINE
  5
2FE
330
1F
100
AcDbEntity
  8
GR1-1
  6
CONTINUOUS
 62
     6
100
AcDbLine
 10
506.394932
 20
350.384709
 30
0.0
 11
504.627165
 21
352.152476
 31
0.0
  0
LINE
  5
2FF
330
1F
100
AcDbEntity
  8
GR1-1
  6
CONTINUOUS
 62
     6
100
AcDbLine
 10
504.627165
 20
352.152476
 30
0.0
 11
506.394932
 21
353.920243
 31
0.0
  0
LINE
  5
300
330
1F
100
AcDbEntity
  8
GR1-1
  6
CONTINUOUS
 62
     6
100
AcDbLine
 10
508.913962
 20
352.903739
 30
0.0
 11
509.913962
 21
353.903739
 31
0.0
  0
LINE
  5
301
330
1F
100
AcDbEntity
  8
GR1-1
  6
CONTINUOUS
 62
     6
100
AcDbLine
 10
509.913962
 20
348.953992
 30
0.0
 11
508.869806
 21
347.909836
 31
0.0
  0
LINE
  5
302
330
1F
100
AcDbEntity
  8
GR1-1
  6
CONTINUOUS
 62
     6
100
AcDbLine
 10
508.162699
 20
347.202729
 30
0.0
 11
506.394932
 21
348.970496
 31
0.0
  0
LINE
  5
303
330
1F
100
AcDbEntity
  8
GR1-1
  6
CONTINUOUS
 62
     6
100
AcDbLine
 10
506.394932
 20
348.970496
 30
0.0
 11
504.627165
 21
347.202729
 31
0.0
  0
LINE
  5
304
330
1F
100
AcDbEntity
  8
GR1-1
  6
CONTINUOUS
 62
     6
100
AcDbLine
 10
504.627165
 20
347.202729
 30
0.0
 11
506.394932
 21
345.434962
 31
0.0
  0
LINE
  5
305
330
1F
100
AcDbEntity
  8
GR1-1
  6
CONTINUOUS
 62
     6
100
AcDbLine
 10
506.394932
 20
345.434962
 30
0.0
 11
508.162699
 21
347.202729
 31
0.0
  0
LINE
  5
306
330
1F
100
AcDbEntity
  8
GR1-1
  6
CONTINUOUS
 62
     6
100
AcDbLine
 10
505.687826
 20
344.727855
 30
0.0
 11
503.920059
 21
346.495622
 31
0.0
  0
LINE
  5
307
330
1F
100
AcDbEntity
  8
GR1-1
  6
CONTINUOUS
 62
     6
100
AcDbLine
 10
503.920059
 20
346.495622
 30
0.0
 11
502.152292
 21
344.727855
 31
0.0
  0
LINE
  5
308
330
1F
100
AcDbEntity
  8
GR1-1
  6
CONTINUOUS
 62
     6
100
AcDbLine
 10
502.152292
 20
344.727855
 30
0.0
 11
503.913962
 21
342.966185
 31
0.0
  0
LINE
  5
309
330
1F
100
AcDbEntity
  8
GR1-1
  6
CONTINUOUS
 62
     6
100
AcDbLine
 10
503.920059
 20
342.960088
 30
0.0
 11
505.687826
 21
344.727855
 31
0.0
  0
LINE
  5
30A
330
1F
100
AcDbEntity
  8
GR1-1
  6
CONTINUOUS
 62
     6
100
AcDbLine
 10
503.212952
 20
342.252982
 30
0.0
 11
501.445185
 21
340.485215
 31
0.0
  0
LINE
  5
30B
330
1F
100
AcDbEntity
  8
GR1-1
  6
CONTINUOUS
 62
     6
100
AcDbLine
 10
501.445185
 20
340.485215
 30
0.0
 11
499.677418
 21
342.252982
 31
0.0
  0
LINE
  5
30C
330
1F
100
AcDbEntity
  8
GR1-1
  6
CONTINUOUS
 62
     6
100
AcDbLine
 10
499.677418
 20
342.252982
 30
0.0
 11
501.445185
 21
344.020748
 31
0.0
  0
LINE
  5
30D
330
1F
100
AcDbEntity
  8
GR1-1
  6
CONTINUOUS
 62
     6
100
AcDbLine
 10
501.445185
 20
344.020748
 30
0.0
 11
503.212952
 21
342.252982
 31
0.0
  0
LINE
  5
30E
330
1F
100
AcDbEntity
  8
GR1-1
  6
CONTINUOUS
 62
     6
100
AcDbLine
 10
503.920059
 20
347.909836
 30
0.0
 11
505.687826
 21
349.677603
 31
0.0
  0
LINE
  5
30F
330
1F
100
AcDbEntity
  8
GR1-1
  6
CONTINUOUS
 62
     6
100
AcDbLine
 10
505.687826
 20
349.677603
 30
0.0
 11
503.913962
 21
351.451466
 31
0.0
  0
LINE
  5
310
330
1F
100
AcDbEntity
  8
GR1-1
  6
CONTINUOUS
 62
     6
100
AcDbLine
 10
503.913962
 20
351.439273
 30
0.0
 11
502.152292
 21
349.677603
 31
0.0
  0
LINE
  5
311
330
1F
100
AcDbEntity
  8
GR1-1
  6
CONTINUOUS
 62
     6
100
AcDbLine
 10
502.152292
 20
349.677603
 30
0.0
 11
503.913962
 21
347.915932
 31
0.0
  0
LINE
  5
312
330
1F
100
AcDbEntity
  8
GR1-1
  6
CONTINUOUS
 62
     6
100
AcDbLine
 10
509.517024
 20
365.647394
 30
0.0
 11
508.869806
 21
366.294612
 31
0.0
  0
LINE
  5
313
330
1F
100
AcDbEntity
  8
GR1-1
  6
CONTINUOUS
 62
     6
100
AcDbLine
 10
504.499748
 20
368.288515
 30
0.0
 11
503.920059
 21
367.708826
 31
0.0
  0
LINE
  5
314
330
1F
100
AcDbEntity
  8
GR1-1
  6
CONTINUOUS
 62
     6
100
AcDbLine
 10
503.907865
 20
367.708826
 30
0.0
 11
503.328176
 21
368.288515
 31
0.0
  0
ARC
  5
315
330
1F
100
AcDbEntity
  8
GR1-1
  6
CENTER
 62
     6
100
AcDbCircle
 10
556.719701
 20
396.952555
 30
0.0
 40
13.0
100
AcDbArc
 50
271.5
 51
360.0
  0
LINE
  5
316
330
1F
100
AcDbEntity
  8
GR1-1
  6
CONTINUOUS
 62
     6
100
AcDbLine
 10
572.719701
 20
425.288515
 30
0.0
 11
573.719701
 21
425.288515
 31
0.0
  0
LINE
  5
317
330
1F
100
AcDbEntity
  8
GR1-1
  6
CONTINUOUS
 62
     6
100
AcDbLine
 10
573.719701
 20
425.288515
 30
0.0
 11
576.173854
 21
426.288515
 31
0.0
  0
LINE
  5
318
330
1F
100
AcDbEntity
  8
GR1-1
  6
CONTINUOUS
 62
     6
100
AcDbLine
 10
576.173854
 20
426.288515
 30
0.0
 11
572.719701
 21
426.288515
 31
0.0
  0
LINE
  5
319
330
1F
100
AcDbEntity
  8
GR1-1
  6
CONTINUOUS
 62
     6
100
AcDbLine
 10
572.719701
 20
425.288515
 30
0.0
 11
572.719701
 21
428.296693
 31
0.0
  0
LINE
  5
31A
330
1F
100
AcDbEntity
  8
GR1-1
  6
CONTINUOUS
 62
     6
100
AcDbLine
 10
558.917892
 20
426.788515
 30
0.0
 11
532.917892
 21
426.788515
 31
0.0
  0
LINE
  5
31B
330
1F
100
AcDbEntity
  8
GR1-1
  6
CONTINUOUS
 62
     6
100
AcDbLine
 10
526.069701
 20
432.288515
 30
0.0
 11
526.069701
 21
492.288515
 31
0.0
  0
LINE
  5
31C
330
1F
100
AcDbEntity
  8
GR1-1
  6
CONTINUOUS
 62
     3
100
AcDbLine
 10
527.119701
 20
498.388515
 30
0.0
 11
517.119701
 21
498.388515
 31
0.0
  0
LINE
  5
31D
330
1F
100
AcDbEntity
  8
GR1-1
  6
CONTINUOUS
 62
     6
100
AcDbLine
 10
538.917892
 20
507.888515
 30
0.0
 11
552.917892
 21
507.888515
 31
0.0
  0
LINE
  5
31E
330
1F
100
AcDbEntity
  8
GR1-1
  6
CONTINUOUS
 62
     6
100
AcDbLine
 10
552.105892
 20
508.700515
 30
0.0
 11
552.105892
 21
506.288515
 31
0.0
  0
LINE
  5
31F
330
1F
100
AcDbEntity
  8
GR1-1
  6
CENTER
 62
     6
100
AcDbLine
 10
545.919701
 20
511.660439
 30
0.0
 11
545.919701
 21
422.736042
 31
0.0
  0
LINE
  5
320
330
1F
100
AcDbEntity
  8
GR1-1
  6
CONTINUOUS
 62
     6
100
AcDbLine
 10
539.73351
 20
506.273689
 30
0.0
 11
539.73351
 21
508.700515
 31
0.0
  0
LINE
  5
321
330
1F
100
AcDbEntity
  8
GR1-1
  6
CONTINUOUS
 62
     3
100
AcDbLine
 10
218.419701
 20
149.286707
 30
0.0
 11
217.419701
 21
149.286707
 31
0.0
  0
LINE
  5
322
330
1F
100
AcDbEntity
  8
GR1-1
  6
CONTINUOUS
 62
     3
100
AcDbLine
 10
217.419701
 20
169.286707
 30
0.0
 11
218.419701
 21
169.286707
 31
0.0
  0
DIMENSION
  5
323
330
1F
100
AcDbEntity
  8
LAYERGROUP-1
100
AcDbDimension
  2
*D32
 10
183.930095
 20
259.288515
 30
0.0
 11
182.930115
 21
159.288513
 31
0.0
 70
    33
  3
FXDIMINFO
100
AcDbAlignedDimension
 13
245.919701
 23
59.288515
 33
0.0
 14
245.919701
 24
259.288515
 34
0.0
1001
ACAD
1000
DSTYLE
1002
{
1070
     7
1000
FXTIP_ARROW_E
1070
     6
1000
FXTIP_ARROW_S
1070
   173
1070
     1
1002
}
  0
LINE
  5
32D
330
1F
100
AcDbEntity
  8
GR1-1
  6
CONTINUOUS
 62
     6
100
AcDbLine
 10
256.689691
 20
261.724433
 30
0.0
 11
235.149711
 21
261.724433
 31
0.0
  0
ARC
  5
32E
330
1F
100
AcDbEntity
  8
GR1-1
  6
CONTINUOUS
 62
     6
100
AcDbCircle
 10
235.149711
 20
260.494423
 30
0.0
 40
1.230009999999993
100
AcDbArc
 50
90.0
 51
258.638715
  0
ARC
  5
32F
330
1F
100
AcDbEntity
  8
GR1-1
  6
CONTINUOUS
 62
     6
100
AcDbCircle
 10
256.689691
 20
260.494423
 30
0.0
 40
1.230009999999993
100
AcDbArc
 50
-78.638715
 51
90.0
  0
LINE
  5
330
330
1F
100
AcDbEntity
  8
GR1-1
  6
CONTINUOUS
 62
     3
100
AcDbLine
 10
273.419701
 20
149.286707
 30
0.0
 11
274.419701
 21
149.286707
 31
0.0
  0
LINE
  5
331
330
1F
100
AcDbEntity
  8
GR1-1
  6
CONTINUOUS
 62
     3
100
AcDbLine
 10
274.419701
 20
169.286707
 30
0.0
 11
273.419701
 21
169.286707
 31
0.0
  0
LINE
  5
332
330
1F
100
AcDbEntity
  8
}}ﾊﾊGG血CCТ
  6
CENTER
 62
     6
100
AcDbLine
 10
522.119701
 20
504.042176
 30
0.0
 11
522.119701
 21
490.418179
 31
0.0
  0
LINE
  5
333
330
1F
100
AcDbEntity
  8
}}ﾊﾊGG血CCТ
  6
CENTER
 62
     6
100
AcDbLine
 10
522.119701
 20
433.619547
 30
0.0
 11
522.119701
 21
422.298197
 31
0.0
  0
LINE
  5
334
330
1F
100
AcDbEntity
  8
}}ﾊﾊGG血CCТ
  6
CENTER
 62
     6
100
AcDbLine
 10
569.719701
 20
489.266856
 30
0.0
 11
569.719701
 21
501.739528
 31
0.0
  0
LINE
  5
335
330
1F
100
AcDbEntity
  8
}}ﾊﾊGG血CCТ
  6
CONTINUOUS
 62
     3
100
AcDbLine
 10
526.449828
 20
425.788515
 30
0.0
 11
517.789574
 21
425.788515
 31
0.0
  0
LINE
  5
336
330
1F
100
AcDbEntity
  8
GR1-1
  6
CENTER
 62
     6
100
AcDbLine
 10
609.104704
 20
493.788515
 30
0.0
 11
594.407367
 21
493.788515
 31
0.0
  0
LINE
  5
337
330
1F
100
AcDbEntity
  8
GR1-1
  6
CENTER
 62
     6
100
AcDbLine
 10
600.419701
 20
500.331785
 30
0.0
 11
600.419701
 21
485.327544
 31
0.0
  0
LINE
  5
338
330
1F
100
AcDbEntity
  8
GR1-1
  6
CENTER
 62
     6
100
AcDbLine
 10
593.31615
 20
492.288515
 30
0.0
 11
607.877084
 21
492.288515
 31
0.0
  0
LINE
  5
339
330
1F
100
AcDbEntity
  8
GR1-1
  6
CENTER
 62
     6
100
AcDbLine
 10
601.919701
 20
486.384661
 30
0.0
 11
601.919701
 21
500.399986
 31
0.0
  0
LINE
  5
33A
330
1F
100
AcDbEntity
  8
}}ﾊﾊGG血CCТ
  6
CENTER
 62
     6
100
AcDbLine
 10
601.919701
 20
314.087429
 30
0.0
 11
601.919701
 21
301.189065
 31
0.0
  0
LINE
  5
33B
330
1F
100
AcDbEntity
  8
}}ﾊﾊGG血CCТ
  6
CENTER
 62
     6
100
AcDbLine
 10
600.419701
 20
314.087429
 30
0.0
 11
600.419701
 21
301.189065
 31
0.0
  0
LINE
  5
33C
330
1F
100
AcDbEntity
  8
}}ﾊﾊGG血CCТ
  6
CENTER
 62
     6
100
AcDbLine
 10
489.919701
 20
314.087429
 30
0.0
 11
489.919701
 21
301.189065
 31
0.0
  0
LINE
  5
33D
330
1F
100
AcDbEntity
  8
}}ﾊﾊGG血CCТ
  6
CENTER
 62
     6
100
AcDbLine
 10
491.419701
 20
314.087429
 30
0.0
 11
491.419701
 21
301.189065
 31
0.0
  0
LINE
  5
33E
330
1F
100
AcDbEntity
  8
GR1-1
  6
CENTER
 62
     6
100
AcDbLine
 10
275.919701
 20
303.032283
 30
0.0
 11
275.919701
 21
313.007854
 31
0.0
  0
LINE
  5
33F
330
1F
100
AcDbEntity
  8
GR1-1
  6
CENTER
 62
     6
100
AcDbLine
 10
277.419701
 20
303.032283
 30
0.0
 11
277.419701
 21
313.007854
 31
0.0
  0
LINE
  5
340
330
1F
100
AcDbEntity
  8
GR1-1
  6
CENTER
 62
     6
100
AcDbLine
 10
215.919701
 20
303.032283
 30
0.0
 11
215.919701
 21
313.007854
 31
0.0
  0
LINE
  5
341
330
1F
100
AcDbEntity
  8
GR1-1
  6
CENTER
 62
     6
100
AcDbLine
 10
214.419701
 20
303.032283
 30
0.0
 11
214.419701
 21
313.007854
 31
0.0
  0
LINE
  5
342
330
1F
100
AcDbEntity
  8
GR1-1
  6
CENTER
 62
     6
100
AcDbLine
 10
482.734699
 20
493.788515
 30
0.0
 11
497.432035
 21
493.788515
 31
0.0
  0
LINE
  5
343
330
1F
100
AcDbEntity
  8
GR1-1
  6
CENTER
 62
     6
100
AcDbLine
 10
491.419701
 20
500.331785
 30
0.0
 11
491.419701
 21
485.327544
 31
0.0
  0
LINE
  5
344
330
1F
100
AcDbEntity
  8
GR1-1
  6
CENTER
 62
     6
100
AcDbLine
 10
498.523253
 20
492.288515
 30
0.0
 11
483.962318
 21
492.288515
 31
0.0
  0
LINE
  5
345
330
1F
100
AcDbEntity
  8
GR1-1
  6
CENTER
 62
     6
100
AcDbLine
 10
489.919701
 20
486.384661
 30
0.0
 11
489.919701
 21
500.399986
 31
0.0
  0
LINE
  5
346
330
1F
100
AcDbEntity
  8
GR1-1
  6
CENTER
 62
     6
100
AcDbLine
 10
609.104704
 20
430.788515
 30
0.0
 11
594.407367
 21
430.788515
 31
0.0
  0
LINE
  5
347
330
1F
100
AcDbEntity
  8
GR1-1
  6
CENTER
 62
     6
100
AcDbLine
 10
600.419701
 20
424.245246
 30
0.0
 11
600.419701
 21
439.249487
 31
0.0
  0
LINE
  5
348
330
1F
100
AcDbEntity
  8
GR1-1
  6
CENTER
 62
     6
100
AcDbLine
 10
593.31615
 20
432.288515
 30
0.0
 11
607.877084
 21
432.288515
 31
0.0
  0
LINE
  5
349
330
1F
100
AcDbEntity
  8
GR1-1
  6
CENTER
 62
     6
100
AcDbLine
 10
601.919701
 20
438.19237
 30
0.0
 11
601.919701
 21
424.177044
 31
0.0
  0
LINE
  5
34A
330
1F
100
AcDbEntity
  8
GR1-1
  6
CENTER
 62
     6
100
AcDbLine
 10
482.734699
 20
430.788515
 30
0.0
 11
497.432035
 21
430.788515
 31
0.0
  0
LINE
  5
34B
330
1F
100
AcDbEntity
  8
GR1-1
  6
CENTER
 62
     6
100
AcDbLine
 10
491.419701
 20
424.245246
 30
0.0
 11
491.419701
 21
439.249487
 31
0.0
  0
LINE
  5
34C
330
1F
100
AcDbEntity
  8
GR1-1
  6
CENTER
 62
     6
100
AcDbLine
 10
498.523253
 20
432.288515
 30
0.0
 11
483.962318
 21
432.288515
 31
0.0
  0
LINE
  5
34D
330
1F
100
AcDbEntity
  8
GR1-1
  6
CENTER
 62
     6
100
AcDbLine
 10
489.919701
 20
438.19237
 30
0.0
 11
489.919701
 21
424.177044
 31
0.0
  0
DIMENSION
  5
34E
330
1F
100
AcDbEntity
  8
LAYERGROUP-1
100
AcDbDimension
  2
*D33
 10
266.919701
 20
47.77106
 30
0.0
 11
245.919708
 21
48.771057
 31
0.0
 70
    33
  3
FXDIMINFO
100
AcDbAlignedDimension
 13
224.919701
 23
69.288515
 33
0.0
 14
266.919701
 24
69.288515
 34
0.0
1001
ACAD
1000
DSTYLE
1002
{
1070
     7
1000
FXTIP_ARROW_E
1070
     6
1000
FXTIP_ARROW_S
1070
   173
1070
     1
1002
}
  0
DIMENSION
  5
358
330
1F
100
AcDbEntity
  8
LAYERGROUP-1
100
AcDbDimension
  2
*D34
 10
273.419701
 20
38.768397
 30
0.0
 11
245.919708
 21
39.768372
 31
0.0
 70
    33
  3
FXDIMINFO
100
AcDbAlignedDimension
 13
218.419701
 23
144.788515
 33
0.0
 14
273.419701
 24
144.788515
 34
0.0
1001
ACAD
1000
DSTYLE
1002
{
1070
     7
1000
FXTIP_ARROW_E
1070
     6
1000
FXTIP_ARROW_S
1070
   173
1070
     1
1002
}
  0
INSERT
  5
365
330
1F
100
AcDbEntity
  8
0
100
AcDbBlockReference
  2
BLKF037
 10
0.0
 20
0.0
 30
0.0
  0
LINE
  5
39C
330
1F
100
AcDbEntity
  8
GR1-1
  6
CONTINUOUS
 62
     3
100
AcDbLine
 10
459.519701
 20
441.288515
 30
0.0
 11
468.919701
 21
441.288515
 31
0.0
  0
LINE
  5
39D
330
1F
100
AcDbEntity
  8
LAYERGROUP-1
  6
CONTINUOUS
 62
     3
100
AcDbLine
 10
455.919701
 20
441.288515
 30
0.0
 11
446.919701
 21
446.484668
 31
0.0
  0
LINE
  5
39E
330
1F
100
AcDbEntity
  8
LAYERGROUP-1
  6
CONTINUOUS
 62
     3
100
AcDbLine
 10
445.919701
 20
448.216719
 30
0.0
 11
445.919701
 21
476.360312
 31
0.0
  0
ARC
  5
39F
330
1F
100
AcDbEntity
  8
LAYERGROUP-1
  6
CONTINUOUS
 62
     3
100
AcDbCircle
 10
447.919701
 20
448.216719
 30
0.0
 40
2.0
100
AcDbArc
 50
180.0
 51
240.0
  0
LINE
  5
3A0
330
1F
100
AcDbEntity
  8
LAYERGROUP-1
  6
CONTINUOUS
 62
     3
100
AcDbLine
 10
455.919701
 20
483.288515
 30
0.0
 11
446.919701
 21
478.092363
 31
0.0
  0
ARC
  5
3A1
330
1F
100
AcDbEntity
  8
LAYERGROUP-1
  6
CONTINUOUS
 62
     3
100
AcDbCircle
 10
447.919701
 20
476.360312
 30
0.0
 40
2.0
100
AcDbArc
 50
120.0
 51
180.0
  0
LINE
  5
3A2
330
1F
100
AcDbEntity
  8
LAYERGROUP-1
  6
CONTINUOUS
 62
     3
100
AcDbLine
 10
459.305827
 20
441.294874
 30
0.0
 11
455.919701
 21
441.288515
 31
0.0
  0
LINE
  5
3A3
330
1F
100
AcDbEntity
  8
GR1-1
  6
CONTINUOUS
 62
     3
100
AcDbLine
 10
459.519701
 20
483.288515
 30
0.0
 11
468.919701
 21
483.288515
 31
0.0
  0
LINE
  5
3A4
330
1F
100
AcDbEntity
  8
LAYERGROUP-1
  6
CONTINUOUS
 62
     3
100
AcDbLine
 10
455.919701
 20
483.288515
 30
0.0
 11
446.919701
 21
478.092363
 31
0.0
  0
ARC
  5
3A5
330
1F
100
AcDbEntity
  8
LAYERGROUP-1
  6
CONTINUOUS
 62
     3
100
AcDbCircle
 10
447.919701
 20
476.360312
 30
0.0
 40
2.0
100
AcDbArc
 50
120.0
 51
180.0
  0
LINE
  5
3A6
330
1F
100
AcDbEntity
  8
LAYERGROUP-1
  6
CONTINUOUS
 62
     3
100
AcDbLine
 10
459.305827
 20
483.282157
 30
0.0
 11
455.919701
 21
483.288515
 31
0.0
  0
LINE
  5
3A7
330
1F
100
AcDbEntity
  8
GR1-1
  6
CONTINUOUS
 62
     3
100
AcDbLine
 10
632.533576
 20
441.288515
 30
0.0
 11
622.919701
 21
441.288515
 31
0.0
  0
LINE
  5
3A8
330
1F
100
AcDbEntity
  8
LAYERGROUP-1
  6
CONTINUOUS
 62
     3
100
AcDbLine
 10
635.919701
 20
441.288515
 30
0.0
 11
644.919701
 21
446.484668
 31
0.0
  0
LINE
  5
3A9
330
1F
100
AcDbEntity
  8
LAYERGROUP-1
  6
CONTINUOUS
 62
     3
100
AcDbLine
 10
645.919701
 20
448.216719
 30
0.0
 11
645.919701
 21
476.360312
 31
0.0
  0
ARC
  5
3AA
330
1F
100
AcDbEntity
  8
LAYERGROUP-1
  6
CONTINUOUS
 62
     3
100
AcDbCircle
 10
643.919701
 20
448.216719
 30
0.0
 40
2.0
100
AcDbArc
 50
300.0
 51
360.0
  0
LINE
  5
3AB
330
1F
100
AcDbEntity
  8
LAYERGROUP-1
  6
CONTINUOUS
 62
     3
100
AcDbLine
 10
635.919701
 20
483.288515
 30
0.0
 11
644.919701
 21
478.092363
 31
0.0
  0
ARC
  5
3AC
330
1F
100
AcDbEntity
  8
LAYERGROUP-1
  6
CONTINUOUS
 62
     3
100
AcDbCircle
 10
643.919701
 20
476.360312
 30
0.0
 40
2.0
100
AcDbArc
 50
0.0
 51
60.0
  0
LINE
  5
3AD
330
1F
100
AcDbEntity
  8
LAYERGROUP-1
  6
CONTINUOUS
 62
     3
100
AcDbLine
 10
632.533576
 20
441.294874
 30
0.0
 11
635.919701
 21
441.288515
 31
0.0
  0
LINE
  5
3AE
330
1F
100
AcDbEntity
  8
GR1-1
  6
CONTINUOUS
 62
     3
100
AcDbLine
 10
632.319701
 20
483.288515
 30
0.0
 11
622.919701
 21
483.288515
 31
0.0
  0
LINE
  5
3AF
330
1F
100
AcDbEntity
  8
LAYERGROUP-1
  6
CONTINUOUS
 62
     3
100
AcDbLine
 10
635.919701
 20
483.288515
 30
0.0
 11
644.919701
 21
478.092363
 31
0.0
  0
ARC
  5
3B0
330
1F
100
AcDbEntity
  8
LAYERGROUP-1
  6
CONTINUOUS
 62
     3
100
AcDbCircle
 10
643.919701
 20
476.360312
 30
0.0
 40
2.0
100
AcDbArc
 50
0.0
 51
60.0
  0
LINE
  5
3B1
330
1F
100
AcDbEntity
  8
LAYERGROUP-1
  6
CONTINUOUS
 62
     3
100
AcDbLine
 10
632.533576
 20
483.282157
 30
0.0
 11
635.919701
 21
483.288515
 31
0.0
  0
LINE
  5
3B2
330
1F
100
AcDbEntity
  8
GR1-1
  6
CONTINUOUS
 62
     6
100
AcDbLine
 10
446.148137
 20
447.288515
 30
0.0
 11
468.919701
 21
447.288515
 31
0.0
  0
LINE
  5
3B3
330
1F
100
AcDbEntity
  8
GR1-1
  6
CONTINUOUS
 62
     6
100
AcDbLine
 10
446.148137
 20
477.288515
 30
0.0
 11
468.919701
 21
477.288515
 31
0.0
  0
LINE
  5
3B4
330
1F
100
AcDbEntity
  8
GR1-1
  6
CONTINUOUS
 62
     6
100
AcDbLine
 10
645.691265
 20
447.288515
 30
0.0
 11
622.919701
 21
447.288515
 31
0.0
  0
LINE
  5
3B5
330
1F
100
AcDbEntity
  8
GR1-1
  6
CONTINUOUS
 62
     6
100
AcDbLine
 10
645.691265
 20
477.288515
 30
0.0
 11
622.919701
 21
477.288515
 31
0.0
  0
ARC
  5
3B6
330
1F
100
AcDbEntity
  8
GR1-1
  6
CONTINUOUS
 62
     6
100
AcDbCircle
 10
545.919701
 20
159.288515
 30
0.0
 40
80.0
100
AcDbArc
 50
-233.365806
 51
53.365806
  0
ARC
  5
3B7
330
1F
100
AcDbEntity
  8
GR1-1
  6
CONTINUOUS
 62
     6
100
AcDbCircle
 10
545.919701
 20
159.288515
 30
0.0
 40
68.0
100
AcDbArc
 50
-230.231635
 51
50.231635
  0
ARC
  5
3B8
330
1F
100
AcDbEntity
  8
GR1-1
  6
CONTINUOUS
 62
     6
100
AcDbCircle
 10
545.919701
 20
159.288515
 30
0.0
 40
35.0
100
AcDbArc
 50
-208.280214
 51
28.280214
  0
INSERT
  5
3BC
330
1F
100
AcDbEntity
  8
0
100
AcDbBlockReference
  2
BLKF038
 10
0.0
 20
0.0
 30
0.0
  0
LINE
  5
414
330
1F
100
AcDbEntity
  8
GR1-1
  6
CONTINUOUS
 62
     7
100
AcDbLine
 10
525.554988
 20
110.265272
 30
0.0
 11
520.152991
 21
112.876484
 31
0.0
  0
LINE
  5
415
330
1F
100
AcDbEntity
  8
GR1-1
  6
CONTINUOUS
 62
     7
100
AcDbLine
 10
520.152991
 20
112.876484
 30
0.0
 11
517.541778
 21
107.474488
 31
0.0
  0
LINE
  5
416
330
1F
100
AcDbEntity
  8
GR1-1
  6
CONTINUOUS
 62
     7
100
AcDbLine
 10
517.541778
 20
107.474488
 30
0.0
 11
522.943775
 21
104.863275
 31
0.0
  0
LINE
  5
417
330
1F
100
AcDbEntity
  8
GR1-1
  6
CONTINUOUS
 62
     7
100
AcDbLine
 10
522.943775
 20
104.863275
 30
0.0
 11
525.554988
 21
110.265272
 31
0.0
  0
LINE
  5
418
330
1F
100
AcDbEntity
  8
GR1-1
  6
CONTINUOUS
 62
     7
100
AcDbLine
 10
524.094909
 20
107.638942
 30
0.0
 11
520.317445
 21
106.323354
 31
0.0
  0
LINE
  5
419
330
1F
100
AcDbEntity
  8
GR1-1
  6
CONTINUOUS
 62
     7
100
AcDbLine
 10
520.317445
 20
106.323354
 30
0.0
 11
519.141396
 21
109.700157
 31
0.0
  0
LINE
  5
41A
330
1F
100
AcDbEntity
  8
GR1-1
  6
CONTINUOUS
 62
     7
100
AcDbLine
 10
519.141396
 20
109.700157
 30
0.0
 11
520.414659
 21
109.084688
 31
0.0
  0
LINE
  5
41B
330
1F
100
AcDbEntity
  8
GR1-1
  6
CONTINUOUS
 62
     7
100
AcDbLine
 10
520.414659
 20
109.084688
 30
0.0
 11
520.932914
 21
107.596617
 31
0.0
  0
LINE
  5
41C
330
1F
100
AcDbEntity
  8
GR1-1
  6
CONTINUOUS
 62
     7
100
AcDbLine
 10
520.932914
 20
107.596617
 30
0.0
 11
522.821646
 21
108.254411
 31
0.0
  0
LINE
  5
41D
330
1F
100
AcDbEntity
  8
GR1-1
  6
CONTINUOUS
 62
     7
100
AcDbLine
 10
522.821646
 20
108.254411
 30
0.0
 11
522.163852
 21
110.143142
 31
0.0
  0
LINE
  5
41E
330
1F
100
AcDbEntity
  8
GR1-1
  6
CONTINUOUS
 62
     7
100
AcDbLine
 10
522.163852
 20
110.143142
 30
0.0
 11
521.170878
 21
109.797316
 31
0.0
  0
ARC
  5
41F
330
1F
100
AcDbEntity
  8
GR1-1
  6
CONTINUOUS
 62
     7
100
AcDbCircle
 10
521.203767
 20
109.70288
 30
0.0
 40
0.1
100
AcDbArc
 50
109.201845
 51
244.201845
  0
LINE
  5
420
330
1F
100
AcDbEntity
  8
GR1-1
  6
CONTINUOUS
 62
     7
100
AcDbLine
 10
521.160247
 20
109.612846
 30
0.0
 11
521.765984
 21
109.320046
 31
0.0
  0
LINE
  5
421
330
1F
100
AcDbEntity
  8
GR1-1
  6
CONTINUOUS
 62
     7
100
AcDbLine
 10
521.765984
 20
109.320046
 30
0.0
 11
521.548383
 21
108.86988
 31
0.0
  0
LINE
  5
422
330
1F
100
AcDbEntity
  8
GR1-1
  6
CONTINUOUS
 62
     7
100
AcDbLine
 10
521.548383
 20
108.86988
 30
0.0
 11
519.001857
 21
110.100817
 31
0.0
  0
LINE
  5
423
330
1F
100
AcDbEntity
  8
GR1-1
  6
CONTINUOUS
 62
     7
100
AcDbLine
 10
519.001857
 20
110.100817
 30
0.0
 11
519.882846
 21
111.923379
 31
0.0
  0
LINE
  5
424
330
1F
100
AcDbEntity
  8
GR1-1
  6
CONTINUOUS
 62
     7
100
AcDbLine
 10
519.882846
 20
111.923379
 30
0.0
 11
520.783179
 21
111.488177
 31
0.0
  0
LINE
  5
425
330
1F
100
AcDbEntity
  8
GR1-1
  6
CONTINUOUS
 62
     7
100
AcDbLine
 10
520.783179
 20
111.488177
 30
0.0
 11
520.442459
 21
110.783307
 31
0.0
  0
ARC
  5
426
330
1F
100
AcDbEntity
  8
GR1-1
  6
CONTINUOUS
 62
     7
100
AcDbCircle
 10
520.532493
 20
110.739787
 30
0.0
 40
0.1
100
AcDbArc
 50
154.201845
 51
289.201845
  0
LINE
  5
427
330
1F
100
AcDbEntity
  8
GR1-1
  6
CONTINUOUS
 62
     7
100
AcDbLine
 10
520.565382
 20
110.64535
 30
0.0
 11
522.77932
 21
111.416405
 31
0.0
  0
LINE
  5
428
330
1F
100
AcDbEntity
  8
GR1-1
  6
CONTINUOUS
 62
     7
100
AcDbLine
 10
522.77932
 20
111.416405
 30
0.0
 11
524.094909
 21
107.638942
 31
0.0
  0
TEXT
  5
429
330
1F
100
AcDbEntity
  8
LAYERGROUP-1
  6
CONTINUOUS
 62
     7
100
AcDbText
 10
515.157837
 20
116.800476
 30
0.0
 40
7.369145
  1
2
 50
140.201843
 41
1.19511
  7
FX_VECTOR
 72
     5
 11
509.68027
 21
121.363914
 31
0.0
100
AcDbText
  0
TEXT
  5
42A
330
1F
100
AcDbEntity
  8
LAYERGROUP-1
  6
CONTINUOUS
 62
     7
100
AcDbText
 10
510.209167
 20
120.866089
 30
0.0
 40
7.369145
  1
0
 50
133.201843
 41
1.19511
  7
FX_VECTOR
 72
     5
 11
505.328573
 21
126.063059
 31
0.0
100
AcDbText
  0
TEXT
  5
42B
330
1F
100
AcDbEntity
  8
LAYERGROUP-1
  6
CONTINUOUS
 62
     7
100
AcDbText
 10
505.792786
 20
125.504517
 30
0.0
 40
7.369145
  1
0
 50
126.201843
 41
1.19511
  7
FX_VECTOR
 72
     5
 11
501.581922
 21
131.257544
 31
0.0
100
AcDbText
  0
TEXT
  5
42C
330
1F
100
AcDbEntity
  8
LAYERGROUP-1
  6
CONTINUOUS
 62
     7
100
AcDbText
 10
501.481506
 20
131.417908
 30
0.0
 40
7.369145
  1
X
 50
118.201843
 41
1.19511
  7
FX_VECTOR
 72
     5
 11
498.112289
 21
137.700986
 31
0.0
100
AcDbText
  0
TEXT
  5
42D
330
1F
100
AcDbEntity
  8
LAYERGROUP-1
  6
CONTINUOUS
 62
     7
100
AcDbText
 10
498.035156
 20
137.873718
 30
0.0
 40
7.369145
  1
4
 50
110.201843
 41
1.128715
  7
FX_VECTOR
 72
     5
 11
495.573163
 21
144.564555
 31
0.0
100
AcDbText
  0
TEXT
  5
42E
330
1F
100
AcDbEntity
  8
LAYERGROUP-1
  6
CONTINUOUS
 62
     7
100
AcDbText
 10
495.782227
 20
143.869019
 30
0.0
 40
7.369145
  1
2
 50
103.201843
 41
1.19511
  7
FX_VECTOR
 72
     5
 11
494.153993
 21
150.810024
 31
0.0
100
AcDbText
  0
ARC
  5
42F
330
1F
100
AcDbEntity
  8
GR1-1
  6
CONTINUOUS
 62
     6
100
AcDbCircle
 10
545.919701
 20
159.288515
 30
0.0
 40
89.99999999999997
100
AcDbArc
 50
-235.311834
 51
55.311834
  0
ARC
  5
430
330
1F
100
AcDbEntity
  8
LAYERGROUP-1
  6
CONTINUOUS
 62
     3
100
AcDbCircle
 10
545.919701
 20
159.288515
 30
0.0
 40
100.0
100
AcDbArc
 50
-236.85577
 51
56.85577
  0
ARC
  5
431
330
1F
100
AcDbEntity
  8
LAYERGROUP-1
  6
CONTINUOUS
 62
     3
100
AcDbCircle
 10
545.919701
 20
159.288515
 30
0.0
 40
86.61387457977585
100
AcDbArc
 50
-234.705234
 51
54.705234
  0
ARC
  5
432
330
1F
100
AcDbEntity
  8
LAYERGROUP-1
  6
CONTINUOUS
 62
     3
100
AcDbCircle
 10
545.919701
 20
159.288515
 30
0.0
 40
23.475
100
AcDbArc
 50
194.71729
 51
345.28271
  0
ENDSEC
  0
SECTION
  2
OBJECTS
  0
DICTIONARY
  5
C
330
0
100
AcDbDictionary
  3
ACAD_GROUP
350
D
  3
ACAD_LAYOUT
350
1A
  3
ACAD_MLINESTYLE
350
17
  3
ACAD_PLOTSETTINGS
350
19
  3
ACDBHEADERROUNDTRIPXREC
350
433
  0
DICTIONARY
  5
D
102
{ACAD_REACTORS
330
C
102
}
330
C
100
AcDbDictionary
  0
DICTIONARY
  5
1A
102
{ACAD_REACTORS
330
C
102
}
330
C
100
AcDbDictionary
  0
DICTIONARY
  5
17
102
{ACAD_REACTORS
330
C
102
}
330
C
100
AcDbDictionary
  3
STANDARD
350
18
  0
DICTIONARY
  5
19
102
{ACAD_REACTORS
330
C
102
}
330
C
100
AcDbDictionary
  0
DICTIONARY
  5
433
102
{ACAD_REACTORS
330
C
102
}
330
C
100
AcDbDictionary
  3
CEPSNTYPE
350
43C
  3
DIMSTYLEDATA
350
452
  3
FINGERPRINTGUID
350
43D
  3
HYPERLINKBASE
350
436
  3
INSUNITS
350
43B
  3
LAYOUTDICT
350
438
  3
LWETCUNION
350
43A
  3
PLOTSETDICT
350
439
  3
PSVPSCALE
350
43F
  3
PUCSBASE
350
442
  3
PUCSORGBACK
350
448
  3
PUCSORGBOTTOM
350
444
  3
PUCSORGFRONT
350
447
  3
PUCSORGLEFT
350
445
  3
PUCSORGRIGHT
350
446
  3
PUCSORGTOP
350
443
  3
PUCSORTHOREF
350
440
  3
PUCSORTHOVIEW
350
441
  3
STYLESHEET
350
437
  3
TSTACKALIGN
350
434
  3
TSTACKSIZE
350
435
  3
UCSBASE
350
44B
  3
UCSORGBACK
350
451
  3
UCSORGBOTTOM
350
44D
  3
UCSORGFRONT
350
450
  3
UCSORGLEFT
350
44E
  3
UCSORGRIGHT
350
44F
  3
UCSORGTOP
350
44C
  3
UCSORTHOREF
350
449
  3
UCSORTHOVIEW
350
44A
  3
VERSIONGUID
350
43E
  0
MLINESTYLE
  5
18
102
{ACAD_REACTORS
330
17
102
}
330
17
100
AcDbMlineStyle
  2
Standard
 70
     0
  3

 62
   256
 51
90.0
 52
90.0
 71
     2
 49
0.5
 62
   256
  6
BYLAYER
 49
-0.5
 62
   256
  6
BYLAYER
  0
XRECORD
  5
43C
102
{ACAD_REACTORS
330
433
102
}
330
433
100
AcDbXrecord
 90
        0
  0
XRECORD
  5
452
102
{ACAD_REACTORS
330
433
102
}
330
433
100
AcDbXrecord
1000
DSTYLE
1002
{
1070
   179
 70
     2
1070
   171
 70
     3
1070
   143
 40
0.03937
1070
   274
 70
     3
1070
    41
 40
4.0
1070
   343
340
41
1070
   344
340
47
1070
   141
 40
2.5
1070
   176
 70
     7
1070
   177
 70
     7
1070
   178
 70
     7
1070
   271
 70
     2
1070
    46
 40
6.0
1070
    43
 40
10.0
1070
    44
 40
1.0
1070
    42
 40
1.0
1070
   147
 40
1.0
1070
   341
340
41
1070
   173
 70
     1
1070
    77
 70
     1
1070
   272
 70
     2
1070
    73
 70
     0
1070
   172
 70
     1
1070
    74
 70
     0
1070
   283
 70
     0
1070
   340
340
3F
1070
   140
 40
4.0
1070
   284
 70
     8
1070
    78
 70
     8
1002
}
  0
XRECORD
  5
43D
102
{ACAD_REACTORS
330
433
102
}
330
433
100
AcDbXrecord
  1
{C818F3F9-B688-4D5E-A547-FC9036DAA3FC}
  0
XRECORD
  5
436
102
{ACAD_REACTORS
330
433
102
}
330
433
100
AcDbXrecord
  1

  0
XRECORD
  5
43B
102
{ACAD_REACTORS
330
433
102
}
330
433
100
AcDbXrecord
 90
        1
  0
XRECORD
  5
438
102
{ACAD_REACTORS
330
433
102
}
330
433
100
AcDbXrecord
340
1A
  0
XRECORD
  5
43A
102
{ACAD_REACTORS
330
433
102
}
330
433
100
AcDbXrecord
 90
    10781
  0
XRECORD
  5
439
102
{ACAD_REACTORS
330
433
102
}
330
433
100
AcDbXrecord
340
19
  0
XRECORD
  5
43F
102
{ACAD_REACTORS
330
433
102
}
330
433
100
AcDbXrecord
 40
0.0
  0
XRECORD
  5
442
102
{ACAD_REACTORS
330
433
102
}
330
433
100
AcDbXrecord
340
0
  0
XRECORD
  5
448
102
{ACAD_REACTORS
330
433
102
}
330
433
100
AcDbXrecord
 10
0.0
 20
0.0
 30
0.0
  0
XRECORD
  5
444
102
{ACAD_REACTORS
330
433
102
}
330
433
100
AcDbXrecord
 10
0.0
 20
0.0
 30
0.0
  0
XRECORD
  5
447
102
{ACAD_REACTORS
330
433
102
}
330
433
100
AcDbXrecord
 10
0.0
 20
0.0
 30
0.0
  0
XRECORD
  5
445
102
{ACAD_REACTORS
330
433
102
}
330
433
100
AcDbXrecord
 10
0.0
 20
0.0
 30
0.0
  0
XRECORD
  5
446
102
{ACAD_REACTORS
330
433
102
}
330
433
100
AcDbXrecord
 10
0.0
 20
0.0
 30
0.0
  0
XRECORD
  5
443
102
{ACAD_REACTORS
330
433
102
}
330
433
100
AcDbXrecord
 10
0.0
 20
0.0
 30
0.0
  0
XRECORD
  5
440
102
{ACAD_REACTORS
330
433
102
}
330
433
100
AcDbXrecord
340
0
  0
XRECORD
  5
441
102
{ACAD_REACTORS
330
433
102
}
330
433
100
AcDbXrecord
 70
     0
  0
XRECORD
  5
437
102
{ACAD_REACTORS
330
433
102
}
330
433
100
AcDbXrecord
  1

  0
XRECORD
  5
434
102
{ACAD_REACTORS
330
433
102
}
330
433
100
AcDbXrecord
 90
        1
  0
XRECORD
  5
435
102
{ACAD_REACTORS
330
433
102
}
330
433
100
AcDbXrecord
 90
       70
  0
XRECORD
  5
44B
102
{ACAD_REACTORS
330
433
102
}
330
433
100
AcDbXrecord
340
0
  0
XRECORD
  5
451
102
{ACAD_REACTORS
330
433
102
}
330
433
100
AcDbXrecord
 10
0.0
 20
0.0
 30
0.0
  0
XRECORD
  5
44D
102
{ACAD_REACTORS
330
433
102
}
330
433
100
AcDbXrecord
 10
0.0
 20
0.0
 30
0.0
  0
XRECORD
  5
450
102
{ACAD_REACTORS
330
433
102
}
330
433
100
AcDbXrecord
 10
0.0
 20
0.0
 30
0.0
  0
XRECORD
  5
44E
102
{ACAD_REACTORS
330
433
102
}
330
433
100
AcDbXrecord
 10
0.0
 20
0.0
 30
0.0
  0
XRECORD
  5
44F
102
{ACAD_REACTORS
330
433
102
}
330
433
100
AcDbXrecord
 10
0.0
 20
0.0
 30
0.0
  0
XRECORD
  5
44C
102
{ACAD_REACTORS
330
433
102
}
330
433
100
AcDbXrecord
 10
0.0
 20
0.0
 30
0.0
  0
XRECORD
  5
449
102
{ACAD_REACTORS
330
433
102
}
330
433
100
AcDbXrecord
340
0
  0
XRECORD
  5
44A
102
{ACAD_REACTORS
330
433
102
}
330
433
100
AcDbXrecord
 70
     0
  0
XRECORD
  5
43E
102
{ACAD_REACTORS
330
433
102
}
330
433
100
AcDbXrecord
  1
{FAEB1C32-E019-11D5-929B-00C0DF256EC4}
  0
ENDSEC
  0
EOF
