  0
SECTION
  2
HEADER
  9
$ACADVER
  1
AC1014
  9
$ACADMAINTVER
 70
     9
  9
$DWGCODEPAGE
  3
ANSI_932
  9
$INSBASE
 10
0.0
 20
0.0
 30
0.0
  9
$EXTMIN
 10
0.0
 20
0.0
 30
0.0
  9
$EXTMAX
 10
594.0
 20
420.0
 30
0.0
  9
$LIMMIN
 10
0.0
 20
0.0
  9
$LIMMAX
 10
594.0
 20
420.0
  9
$ORTHOMODE
 70
     0
  9
$REGENMODE
 70
     1
  9
$FILLMODE
 70
     1
  9
$QTEXTMODE
 70
     0
  9
$MIRRTEXT
 70
     1
  9
$DRAGMODE
 70
     2
  9
$LTSCALE
 40
1.0
  9
$OSMODE
 70
    37
  9
$ATTMODE
 70
     1
  9
$TEXTSIZE
 40
0.2
  9
$TRACEWID
 40
0.05
  9
$TEXTSTYLE
  7
STYLE1
  9
$CLAYER
  8
0
  9
$CELTYPE
  6
BYLAYER
  9
$CECOLOR
 62
   256
  9
$CELTSCALE
 40
1.0
  9
$DELOBJ
 70
     1
  9
$DISPSILH
 70
     0
  9
$DIMSCALE
 40
1.0
  9
$DIMASZ
 40
4.0
  9
$DIMEXO
 40
1.0
  9
$DIMDLI
 40
10.0
  9
$DIMRND
 40
0.0
  9
$DIMDLE
 40
6.0
  9
$DIMEXE
 40
1.0
  9
$DIMTP
 40
0.0
  9
$DIMTM
 40
0.0
  9
$DIMTXT
 40
4.0
  9
$DIMCEN
 40
2.5
  9
$DIMTSZ
 40
0.0
  9
$DIMTOL
 70
     0
  9
$DIMLIM
 70
     0
  9
$DIMTIH
 70
     0
  9
$DIMTOH
 70
     0
  9
$DIMSE1
 70
     0
  9
$DIMSE2
 70
     0
  9
$DIMTAD
 70
     1
  9
$DIMZIN
 70
     8
  9
$DIMBLK
  1

  9
$DIMASO
 70
     1
  9
$DIMSHO
 70
     1
  9
$DIMPOST
  1

  9
$DIMAPOST
  1

  9
$DIMALT
 70
     0
  9
$DIMALTD
 70
     3
  9
$DIMALTF
 40
0.03937
  9
$DIMLFAC
 40
1.0
  9
$DIMTOFL
 70
     1
  9
$DIMTVP
 40
0.0
  9
$DIMTIX
 70
     0
  9
$DIMSOXD
 70
     0
  9
$DIMSAH
 70
     1
  9
$DIMBLK1
  1

  9
$DIMBLK2
  1
FXTIP_ARROW_E
  9
$DIMSTYLE
  2
FXDIMINFO
  9
$DIMCLRD
 70
     7
  9
$DIMCLRE
 70
     7
  9
$DIMCLRT
 70
     7
  9
$DIMTFAC
 40
1.0
  9
$DIMGAP
 40
1.0
  9
$DIMJUST
 70
     0
  9
$DIMSD1
 70
     0
  9
$DIMSD2
 70
     0
  9
$DIMTOLJ
 70
     0
  9
$DIMTZIN
 70
     8
  9
$DIMALTZ
 70
     0
  9
$DIMALTTZ
 70
     0
  9
$DIMFIT
 70
     3
  9
$DIMUPT
 70
     0
  9
$DIMUNIT
 70
     2
  9
$DIMDEC
 70
     2
  9
$DIMTDEC
 70
     2
  9
$DIMALTU
 70
     2
  9
$DIMALTTD
 70
     3
  9
$DIMTXSTY
  7
STYLE1
  9
$DIMAUNIT
 70
     0
  9
$LUNITS
 70
     2
  9
$LUPREC
 70
     4
  9
$SKETCHINC
 40
0.1
  9
$FILLETRAD
 40
0.5
  9
$AUNITS
 70
     0
  9
$AUPREC
 70
     0
  9
$MENU
  1
.
  9
$ELEVATION
 40
0.0
  9
$PELEVATION
 40
0.0
  9
$THICKNESS
 40
0.0
  9
$LIMCHECK
 70
     0
  9
$CHAMFERA
 40
0.5
  9
$CHAMFERB
 40
0.5
  9
$CHAMFERC
 40
1.0
  9
$CHAMFERD
 40
0.0
  9
$SKPOLY
 70
     0
  9
$TDCREATE
 40
2455308.431588079
  9
$TDUPDATE
 40
2455308.431588091
  9
$TDINDWG
 40
0.0000000116
  9
$TDUSRTIMER
 40
0.0000000116
  9
$USRTIMER
 70
     1
  9
$ANGBASE
 50
0.0
  9
$ANGDIR
 70
     0
  9
$PDMODE
 70
     0
  9
$PDSIZE
 40
0.0
  9
$PLINEWID
 40
0.0
  9
$COORDS
 70
     1
  9
$SPLFRAME
 70
     0
  9
$SPLINETYPE
 70
     6
  9
$SPLINESEGS
 70
     8
  9
$ATTDIA
 70
     0
  9
$ATTREQ
 70
     1
  9
$HANDLING
 70
     1
  9
$HANDSEED
  5
3F3
  9
$SURFTAB1
 70
     6
  9
$SURFTAB2
 70
     6
  9
$SURFTYPE
 70
     6
  9
$SURFU
 70
     6
  9
$SURFV
 70
     6
  9
$UCSNAME
  2

  9
$UCSORG
 10
0.0
 20
0.0
 30
0.0
  9
$UCSXDIR
 10
1.0
 20
0.0
 30
0.0
  9
$UCSYDIR
 10
0.0
 20
1.0
 30
0.0
  9
$PUCSNAME
  2

  9
$PUCSORG
 10
0.0
 20
0.0
 30
0.0
  9
$PUCSXDIR
 10
1.0
 20
0.0
 30
0.0
  9
$PUCSYDIR
 10
0.0
 20
1.0
 30
0.0
  9
$USERI1
 70
     0
  9
$USERI2
 70
     0
  9
$USERI3
 70
     0
  9
$USERI4
 70
     0
  9
$USERI5
 70
     0
  9
$USERR1
 40
0.0
  9
$USERR2
 40
0.0
  9
$USERR3
 40
0.0
  9
$USERR4
 40
0.0
  9
$USERR5
 40
0.0
  9
$WORLDVIEW
 70
     1
  9
$SHADEDGE
 70
     3
  9
$SHADEDIF
 70
    70
  9
$TILEMODE
 70
     1
  9
$MAXACTVP
 70
    64
  9
$PINSBASE
 10
0.0
 20
0.0
 30
0.0
  9
$PLIMCHECK
 70
     0
  9
$PEXTMIN
 10
1.000000E+20
 20
1.000000E+20
 30
1.000000E+20
  9
$PEXTMAX
 10
-1.000000E+20
 20
-1.000000E+20
 30
-1.000000E+20
  9
$PLIMMIN
 10
0.0
 20
0.0
  9
$PLIMMAX
 10
12.0
 20
9.0
  9
$UNITMODE
 70
     0
  9
$VISRETAIN
 70
     1
  9
$PLINEGEN
 70
     0
  9
$PSLTSCALE
 70
     1
  9
$TREEDEPTH
 70
  3020
  9
$PICKSTYLE
 70
     1
  9
$CMLSTYLE
  2
STANDARD
  9
$CMLJUST
 70
     0
  9
$CMLSCALE
 40
1.0
  9
$PROXYGRAPHICS
 70
     1
  9
$MEASUREMENT
 70
     0
  0
ENDSEC
  0
SECTION
  2
CLASSES
  0
CLASS
  1
ACDBDICTIONARYWDFLT
  2
AcDbDictionaryWithDefault
  3
ObjectDBX Classes
 90
        0
280
     0
281
     0
  0
CLASS
  1
XRECORD
  2
AcDbXrecord
  3
AutoCAD 2000
 90
        0
280
     0
281
     0
  0
CLASS
  1
LWPOLYLINE
  2
AcDbPolyline
  3
AutoCAD 2000
 90
        0
280
     0
281
     1
  0
CLASS
  1
HATCH
  2
AcDbHatch
  3
AutoCAD 2000
 90
        0
280
     0
281
     1
  0
CLASS
  1
ACDBPLACEHOLDER
  2
AcDbPlaceHolder
  3
ObjectDBX Classes
 90
        0
280
     0
281
     0
  0
CLASS
  1
LAYOUT
  2
AcDbLayout
  3
ObjectDBX Classes
 90
        0
280
     0
281
     0
  0
ENDSEC
  0
SECTION
  2
TABLES
  0
TABLE
  2
VPORT
  5
8
330
0
100
AcDbSymbolTable
 70
     1
  0
VPORT
  5
29
330
8
100
AcDbSymbolTableRecord
100
AcDbViewportTableRecord
  2
*ACTIVE
 70
     0
 10
0.0
 20
0.0
 11
1.0
 21
1.0
 12
297.0
 22
210.0
 13
0.0
 23
0.0
 14
0.5
 24
0.5
 15
0.5
 25
0.5
 16
0.0
 26
0.0
 36
1.0
 17
0.0
 27
0.0
 37
0.0
 40
420.0
 41
1.414286
 42
50.0
 43
0.0
 44
0.0
 50
0.0
 51
0.0
 71
     0
 72
   100
 73
     1
 74
     3
 75
     0
 76
     0
 77
     0
 78
     0
  0
ENDTAB
  0
TABLE
  2
LTYPE
  5
5
330
0
100
AcDbSymbolTable
 70
     4
  0
LTYPE
  5
14
330
5
100
AcDbSymbolTableRecord
100
AcDbLinetypeTableRecord
  2
BYBLOCK
 70
     0
  3

 72
    65
 73
     0
 40
0.0
  0
LTYPE
  5
15
330
5
100
AcDbSymbolTableRecord
100
AcDbLinetypeTableRecord
  2
BYLAYER
 70
     0
  3

 72
    65
 73
     0
 40
0.0
  0
LTYPE
  5
16
330
5
100
AcDbSymbolTableRecord
100
AcDbLinetypeTableRecord
  2
CONTINUOUS
 70
     0
  3
--------------------
 72
    65
 73
     0
 40
0.0
  0
LTYPE
  5
2A
330
5
100
AcDbSymbolTableRecord
100
AcDbLinetypeTableRecord
  2
CENTER
 70
     0
  3
Center ____ _ ____ _ ____ _ ____ _ ____ _ ____
 72
    65
 73
     4
 40
13.0
 49
10.0
 74
     0
 49
-1.0
 74
     0
 49
1.0
 74
     0
 49
-1.0
 74
     0
  0
ENDTAB
  0
TABLE
  2
LAYER
  5
2
330
0
100
AcDbSymbolTable
 70
    20
  0
LAYER
  5
10
330
2
100
AcDbSymbolTableRecord
100
AcDbLayerTableRecord
  2
0
 70
     0
 62
     7
  6
CONTINUOUS
  0
LAYER
  5
2D
330
2
100
AcDbSymbolTableRecord
100
AcDbLayerTableRecord
  2
LAYERGROUP-1
 70
     0
 62
     3
  6
CONTINUOUS
  0
LAYER
  5
3D
330
2
100
AcDbSymbolTableRecord
100
AcDbLayerTableRecord
  2
}}ﾊﾊGG血CCТ
 70
     0
 62
     3
  6
CONTINUOUS
  0
LAYER
  5
B8
330
2
100
AcDbSymbolTableRecord
100
AcDbLayerTableRecord
  2
0-1
 70
     0
 62
     7
  6
CONTINUOUS
  0
LAYER
  5
D0
330
2
100
AcDbSymbolTableRecord
100
AcDbLayerTableRecord
  2
GR1-1
 70
     0
 62
     7
  6
CONTINUOUS
  0
ENDTAB
  0
TABLE
  2
STYLE
  5
3
330
0
100
AcDbSymbolTable
 70
     4
  0
STYLE
  5
11
330
3
100
AcDbSymbolTableRecord
100
AcDbTextStyleTableRecord
  2
STANDARD
 70
     0
 40
0.0
 41
1.0
 50
0.0
 71
     0
 42
0.2
  3
txt
  4

  0
STYLE
  5
3F
330
3
100
AcDbSymbolTableRecord
100
AcDbTextStyleTableRecord
  2
STYLE1
 70
     0
 40
0.0
 41
1.0
 50
0.0
 71
     0
 42
0.2
  3
MONOTXT.SHX
  4
extfont.shx
  0
STYLE
  5
40
330
3
100
AcDbSymbolTableRecord
100
AcDbTextStyleTableRecord
  2
FX_VECTOR
 70
     0
 40
0.0
 41
1.0
 50
0.0
 71
     0
 42
0.2
  3
MONOTXT.SHX
  4
BIGFONT.SHX
  0
ENDTAB
  0
TABLE
  2
VIEW
  5
6
330
0
100
AcDbSymbolTable
 70
     0
  0
ENDTAB
  0
TABLE
  2
UCS
  5
7
330
0
100
AcDbSymbolTable
 70
     0
  0
ENDTAB
  0
TABLE
  2
APPID
  5
9
330
0
100
AcDbSymbolTable
 70
     1
  0
APPID
  5
12
330
9
100
AcDbSymbolTableRecord
100
AcDbRegAppTableRecord
  2
ACAD
 70
     0
  0
ENDTAB
  0
TABLE
  2
DIMSTYLE
  5
A
330
0
100
AcDbSymbolTable
 70
     2
  0
DIMSTYLE
105
27
330
A
100
AcDbSymbolTableRecord
100
AcDbDimStyleTableRecord
  2
STANDARD
 70
     0
  3

  4

  5

  6

  7

 40
1.0
 41
0.18
 42
0.0625
 43
0.38
 44
0.18
 45
0.0
 46
0.0
 47
0.0
 48
0.0
140
0.18
141
0.09
142
0.0
143
25.4
144
1.0
145
0.0
146
1.0
147
0.09
 71
     0
 72
     0
 73
     1
 74
     1
 75
     0
 76
     0
 77
     0
 78
     0
170
     0
171
     2
172
     0
173
     0
174
     0
175
     0
176
     0
177
     0
178
     0
270
     2
271
     4
272
     4
273
     2
274
     2
340
11
275
     0
280
     0
281
     0
282
     0
283
     1
284
     0
285
     0
286
     0
287
     3
288
     0
  0
DIMSTYLE
105
A7
102
{ACAD_REACTORS
330
D9
330
E3
330
ED
330
F7
330
101
330
10B
330
115
330
11F
330
129
330
132
330
2DD
330
39C
330
3A6
102
}
330
A
100
AcDbSymbolTableRecord
100
AcDbDimStyleTableRecord
  2
FXDIMINFO
 70
     0
  3

  4

  5

  6

  7
FXTIP_ARROW_E
 40
1.0
 41
4.0
 42
1.0
 43
10.0
 44
1.0
 45
0.0
 46
6.0
 47
0.0
 48
0.0
140
4.0
141
2.5
142
0.0
143
0.03937
144
1.0
145
0.0
146
1.0
147
1.0
 71
     0
 72
     0
 73
     0
 74
     0
 75
     0
 76
     0
 77
     1
 78
     8
170
     0
171
     3
172
     1
173
     1
174
     0
175
     0
176
     7
177
     7
178
     7
179
     2
270
     2
271
     2
272
     2
273
     2
274
     3
340
3F
275
     0
280
     0
281
     0
282
     0
283
     0
284
     8
285
     0
286
     0
287
     3
288
     0
  0
ENDTAB
  0
TABLE
  2
BLOCK_RECORD
  5
1
330
0
100
AcDbSymbolTable
 70
    37
  0
BLOCK_RECORD
  5
1F
330
1
100
AcDbSymbolTableRecord
100
AcDbBlockTableRecord
  2
*MODEL_SPACE
  0
BLOCK_RECORD
  5
1B
330
1
100
AcDbSymbolTableRecord
100
AcDbBlockTableRecord
  2
*PAPER_SPACE
  0
BLOCK_RECORD
  5
41
330
1
100
AcDbSymbolTableRecord
100
AcDbBlockTableRecord
  2
FXTIP_ARROW_S
  0
BLOCK_RECORD
  5
47
330
1
100
AcDbSymbolTableRecord
100
AcDbBlockTableRecord
  2
FXTIP_ARROW_E
  0
BLOCK_RECORD
  5
4D
330
1
100
AcDbSymbolTableRecord
100
AcDbBlockTableRecord
  2
FXTIP_BLACKDOT_S
  0
BLOCK_RECORD
  5
53
330
1
100
AcDbSymbolTableRecord
100
AcDbBlockTableRecord
  2
FXTIP_BLACKDOT_E
  0
BLOCK_RECORD
  5
59
330
1
100
AcDbSymbolTableRecord
100
AcDbBlockTableRecord
  2
FXTIP_TRIANGLE_S
  0
BLOCK_RECORD
  5
60
330
1
100
AcDbSymbolTableRecord
100
AcDbBlockTableRecord
  2
FXTIP_TRIANGLE_E
  0
BLOCK_RECORD
  5
67
330
1
100
AcDbSymbolTableRecord
100
AcDbBlockTableRecord
  2
FXTIP_ARCHITECT_S
  0
BLOCK_RECORD
  5
6D
330
1
100
AcDbSymbolTableRecord
100
AcDbBlockTableRecord
  2
FXTIP_ARCHITECT_E
  0
BLOCK_RECORD
  5
73
330
1
100
AcDbSymbolTableRecord
100
AcDbBlockTableRecord
  2
FXTIP_CIVIL_S
  0
BLOCK_RECORD
  5
79
330
1
100
AcDbSymbolTableRecord
100
AcDbBlockTableRecord
  2
FXTIP_CIVIL_E
  0
BLOCK_RECORD
  5
7F
330
1
100
AcDbSymbolTableRecord
100
AcDbBlockTableRecord
  2
FXTIP_WHITEDOT_S
  0
BLOCK_RECORD
  5
84
330
1
100
AcDbSymbolTableRecord
100
AcDbBlockTableRecord
  2
FXTIP_WHITEDOT_E
  0
BLOCK_RECORD
  5
89
330
1
100
AcDbSymbolTableRecord
100
AcDbBlockTableRecord
  2
FXTIP_UPARROW_S
  0
BLOCK_RECORD
  5
8E
330
1
100
AcDbSymbolTableRecord
100
AcDbBlockTableRecord
  2
FXTIP_UPARROW_E
  0
BLOCK_RECORD
  5
93
330
1
100
AcDbSymbolTableRecord
100
AcDbBlockTableRecord
  2
FXTIP_DOWNARROW_S
  0
BLOCK_RECORD
  5
98
330
1
100
AcDbSymbolTableRecord
100
AcDbBlockTableRecord
  2
FXTIP_DOWNARROW_E
  0
BLOCK_RECORD
  5
9D
330
1
100
AcDbSymbolTableRecord
100
AcDbBlockTableRecord
  2
FXTIP_BLACKTRIANGLE_S
  0
BLOCK_RECORD
  5
A2
330
1
100
AcDbSymbolTableRecord
100
AcDbBlockTableRecord
  2
FXTIP_BLACKTRIANGLE_E
  0
BLOCK_RECORD
  5
A8
330
1
100
AcDbSymbolTableRecord
100
AcDbBlockTableRecord
  2
BLKF021
  0
BLOCK_RECORD
  5
B4
330
1
100
AcDbSymbolTableRecord
100
AcDbBlockTableRecord
  2
BLKF022
  0
BLOCK_RECORD
  5
BD
330
1
100
AcDbSymbolTableRecord
100
AcDbBlockTableRecord
  2
BLKF023
  0
BLOCK_RECORD
  5
DA
330
1
100
AcDbSymbolTableRecord
100
AcDbBlockTableRecord
  2
*D22
  0
BLOCK_RECORD
  5
E4
330
1
100
AcDbSymbolTableRecord
100
AcDbBlockTableRecord
  2
*D23
  0
BLOCK_RECORD
  5
EE
330
1
100
AcDbSymbolTableRecord
100
AcDbBlockTableRecord
  2
*D24
  0
BLOCK_RECORD
  5
F8
330
1
100
AcDbSymbolTableRecord
100
AcDbBlockTableRecord
  2
*D25
  0
BLOCK_RECORD
  5
102
330
1
100
AcDbSymbolTableRecord
100
AcDbBlockTableRecord
  2
*D26
  0
BLOCK_RECORD
  5
10C
330
1
100
AcDbSymbolTableRecord
100
AcDbBlockTableRecord
  2
*D27
  0
BLOCK_RECORD
  5
116
330
1
100
AcDbSymbolTableRecord
100
AcDbBlockTableRecord
  2
*D28
  0
BLOCK_RECORD
  5
120
330
1
100
AcDbSymbolTableRecord
100
AcDbBlockTableRecord
  2
*D29
  0
BLOCK_RECORD
  5
12A
330
1
100
AcDbSymbolTableRecord
100
AcDbBlockTableRecord
  2
*D30
  0
BLOCK_RECORD
  5
133
330
1
100
AcDbSymbolTableRecord
100
AcDbBlockTableRecord
  2
*D31
  0
BLOCK_RECORD
  5
2DE
330
1
100
AcDbSymbolTableRecord
100
AcDbBlockTableRecord
  2
*D32
  0
BLOCK_RECORD
  5
339
330
1
100
AcDbSymbolTableRecord
100
AcDbBlockTableRecord
  2
BLKF035
  0
BLOCK_RECORD
  5
36A
330
1
100
AcDbSymbolTableRecord
100
AcDbBlockTableRecord
  2
BLKF036
  0
BLOCK_RECORD
  5
39D
330
1
100
AcDbSymbolTableRecord
100
AcDbBlockTableRecord
  2
*D35
  0
BLOCK_RECORD
  5
3A7
330
1
100
AcDbSymbolTableRecord
100
AcDbBlockTableRecord
  2
*D36
  0
ENDTAB
  0
ENDSEC
  0
SECTION
  2
BLOCKS
  0
BLOCK
  5
20
330
1F
100
AcDbEntity
  8
0
100
AcDbBlockBegin
  2
*MODEL_SPACE
 70
     0
 71
     0
 10
0.0
 20
0.0
 30
0.0
  3
*MODEL_SPACE
  1

  0
ENDBLK
  5
21
330
1F
100
AcDbEntity
  8
0
100
AcDbBlockEnd
  0
BLOCK
  5
1C
330
1B
100
AcDbEntity
 67
     1
  8
0
100
AcDbBlockBegin
  2
*PAPER_SPACE
 70
     0
 71
     0
 10
0.0
 20
0.0
 30
0.0
  3
*PAPER_SPACE
  1

  0
ENDBLK
  5
1D
330
1B
100
AcDbEntity
 67
     1
  8
0
100
AcDbBlockEnd
  0
BLOCK
  5
42
330
41
100
AcDbEntity
  8
0
100
AcDbBlockBegin
  2
FXTIP_ARROW_S
 70
     0
 71
     0
 10
0.0
 20
0.0
 30
0.0
  3
FXTIP_ARROW_S
  1

  0
LINE
  5
44
330
41
100
AcDbEntity
  8
0
  6
CONTINUOUS
 62
     0
100
AcDbLine
 10
0.0
 20
0.0
 30
0.0
 11
-1.0
 21
0.0
 31
0.0
  0
LINE
  5
45
330
41
100
AcDbEntity
  8
0
  6
CONTINUOUS
 62
     0
100
AcDbLine
 10
0.0
 20
0.0
 30
0.0
 11
-0.965926
 21
-0.258819
 31
0.0
  0
LINE
  5
46
330
41
100
AcDbEntity
  8
0
  6
CONTINUOUS
 62
     0
100
AcDbLine
 10
0.0
 20
0.0
 30
0.0
 11
-0.965926
 21
0.258819
 31
0.0
  0
ENDBLK
  5
43
330
41
100
AcDbEntity
  8
0
100
AcDbBlockEnd
  0
BLOCK
  5
48
330
47
100
AcDbEntity
  8
0
100
AcDbBlockBegin
  2
FXTIP_ARROW_E
 70
     0
 71
     0
 10
0.0
 20
0.0
 30
0.0
  3
FXTIP_ARROW_E
  1

  0
LINE
  5
4A
330
47
100
AcDbEntity
  8
0
  6
CONTINUOUS
 62
     0
100
AcDbLine
 10
0.0
 20
0.0
 30
0.0
 11
-1.0
 21
0.0
 31
0.0
  0
LINE
  5
4B
330
47
100
AcDbEntity
  8
0
  6
CONTINUOUS
 62
     0
100
AcDbLine
 10
0.0
 20
0.0
 30
0.0
 11
-0.965926
 21
0.258819
 31
0.0
  0
LINE
  5
4C
330
47
100
AcDbEntity
  8
0
  6
CONTINUOUS
 62
     0
100
AcDbLine
 10
0.0
 20
0.0
 30
0.0
 11
-0.965926
 21
-0.258819
 31
0.0
  0
ENDBLK
  5
49
330
47
100
AcDbEntity
  8
0
100
AcDbBlockEnd
  0
BLOCK
  5
4E
330
4D
100
AcDbEntity
  8
0
100
AcDbBlockBegin
  2
FXTIP_BLACKDOT_S
 70
     0
 71
     0
 10
0.0
 20
0.0
 30
0.0
  3
FXTIP_BLACKDOT_S
  1

  0
LINE
  5
50
330
4D
100
AcDbEntity
  8
0
  6
CONTINUOUS
 62
     0
100
AcDbLine
 10
0.0
 20
0.0
 30
0.0
 11
-1.0
 21
0.0
 31
0.0
  0
LWPOLYLINE
  5
51
330
4D
100
AcDbEntity
  8
0
  6
CONTINUOUS
 62
     0
100
AcDbPolyline
 90
        2
 70
     1
 10
-0.25
 20
0.0
 40
0.5
 41
0.5
 42
1.0
 10
0.25
 20
0.0
 40
0.5
 41
0.5
 42
1.0
  0
CIRCLE
  5
52
330
4D
100
AcDbEntity
  8
0
  6
CONTINUOUS
 62
     0
100
AcDbCircle
 10
0.0
 20
0.0
 30
0.0
 40
0.5
  0
ENDBLK
  5
4F
330
4D
100
AcDbEntity
  8
0
100
AcDbBlockEnd
  0
BLOCK
  5
54
330
53
100
AcDbEntity
  8
0
100
AcDbBlockBegin
  2
FXTIP_BLACKDOT_E
 70
     0
 71
     0
 10
0.0
 20
0.0
 30
0.0
  3
FXTIP_BLACKDOT_E
  1

  0
LINE
  5
56
330
53
100
AcDbEntity
  8
0
  6
CONTINUOUS
 62
     0
100
AcDbLine
 10
0.0
 20
0.0
 30
0.0
 11
-1.0
 21
0.0
 31
0.0
  0
LWPOLYLINE
  5
57
330
53
100
AcDbEntity
  8
0
  6
CONTINUOUS
 62
     0
100
AcDbPolyline
 90
        2
 70
     1
 10
-0.25
 20
0.0
 40
0.5
 41
0.5
 42
1.0
 10
0.25
 20
0.0
 40
0.5
 41
0.5
 42
1.0
  0
CIRCLE
  5
58
330
53
100
AcDbEntity
  8
0
  6
CONTINUOUS
 62
     0
100
AcDbCircle
 10
0.0
 20
0.0
 30
0.0
 40
0.5
  0
ENDBLK
  5
55
330
53
100
AcDbEntity
  8
0
100
AcDbBlockEnd
  0
BLOCK
  5
5A
330
59
100
AcDbEntity
  8
0
100
AcDbBlockBegin
  2
FXTIP_TRIANGLE_S
 70
     0
 71
     0
 10
0.0
 20
0.0
 30
0.0
  3
FXTIP_TRIANGLE_S
  1

  0
LINE
  5
5C
330
59
100
AcDbEntity
  8
0
  6
CONTINUOUS
 62
     0
100
AcDbLine
 10
0.0
 20
0.0
 30
0.0
 11
-1.0
 21
0.0
 31
0.0
  0
LINE
  5
5D
330
59
100
AcDbEntity
  8
0
  6
CONTINUOUS
 62
     0
100
AcDbLine
 10
0.0
 20
0.0
 30
0.0
 11
-0.965926
 21
-0.258819
 31
0.0
  0
LINE
  5
5E
330
59
100
AcDbEntity
  8
0
  6
CONTINUOUS
 62
     0
100
AcDbLine
 10
0.0
 20
0.0
 30
0.0
 11
-0.965926
 21
0.258819
 31
0.0
  0
LINE
  5
5F
330
59
100
AcDbEntity
  8
0
  6
CONTINUOUS
 62
     0
100
AcDbLine
 10
-0.965926
 20
-0.258819
 30
0.0
 11
-0.965926
 21
0.258819
 31
0.0
  0
ENDBLK
  5
5B
330
59
100
AcDbEntity
  8
0
100
AcDbBlockEnd
  0
BLOCK
  5
61
330
60
100
AcDbEntity
  8
0
100
AcDbBlockBegin
  2
FXTIP_TRIANGLE_E
 70
     0
 71
     0
 10
0.0
 20
0.0
 30
0.0
  3
FXTIP_TRIANGLE_E
  1

  0
LINE
  5
63
330
60
100
AcDbEntity
  8
0
  6
CONTINUOUS
 62
     0
100
AcDbLine
 10
0.0
 20
0.0
 30
0.0
 11
-1.0
 21
0.0
 31
0.0
  0
LINE
  5
64
330
60
100
AcDbEntity
  8
0
  6
CONTINUOUS
 62
     0
100
AcDbLine
 10
0.0
 20
0.0
 30
0.0
 11
-0.965926
 21
0.258819
 31
0.0
  0
LINE
  5
65
330
60
100
AcDbEntity
  8
0
  6
CONTINUOUS
 62
     0
100
AcDbLine
 10
0.0
 20
0.0
 30
0.0
 11
-0.965926
 21
-0.258819
 31
0.0
  0
LINE
  5
66
330
60
100
AcDbEntity
  8
0
  6
CONTINUOUS
 62
     0
100
AcDbLine
 10
-0.965926
 20
0.258819
 30
0.0
 11
-0.965926
 21
-0.258819
 31
0.0
  0
ENDBLK
  5
62
330
60
100
AcDbEntity
  8
0
100
AcDbBlockEnd
  0
BLOCK
  5
68
330
67
100
AcDbEntity
  8
0
100
AcDbBlockBegin
  2
FXTIP_ARCHITECT_S
 70
     0
 71
     0
 10
0.0
 20
0.0
 30
0.0
  3
FXTIP_ARCHITECT_S
  1

  0
LINE
  5
6A
330
67
100
AcDbEntity
  8
0
  6
CONTINUOUS
 62
     0
100
AcDbLine
 10
0.0
 20
0.0
 30
0.0
 11
-1.0
 21
0.0
 31
0.0
  0
LINE
  5
6B
330
67
100
AcDbEntity
  8
0
  6
CONTINUOUS
 62
     0
100
AcDbLine
 10
0.0
 20
0.0
 30
0.0
 11
-0.707107
 21
-0.707107
 31
0.0
  0
LINE
  5
6C
330
67
100
AcDbEntity
  8
0
  6
CONTINUOUS
 62
     0
100
AcDbLine
 10
0.0
 20
0.0
 30
0.0
 11
0.707107
 21
0.707107
 31
0.0
  0
ENDBLK
  5
69
330
67
100
AcDbEntity
  8
0
100
AcDbBlockEnd
  0
BLOCK
  5
6E
330
6D
100
AcDbEntity
  8
0
100
AcDbBlockBegin
  2
FXTIP_ARCHITECT_E
 70
     0
 71
     0
 10
0.0
 20
0.0
 30
0.0
  3
FXTIP_ARCHITECT_E
  1

  0
LINE
  5
70
330
6D
100
AcDbEntity
  8
0
  6
CONTINUOUS
 62
     0
100
AcDbLine
 10
0.0
 20
0.0
 30
0.0
 11
-1.0
 21
0.0
 31
0.0
  0
LINE
  5
71
330
6D
100
AcDbEntity
  8
0
  6
CONTINUOUS
 62
     0
100
AcDbLine
 10
0.0
 20
0.0
 30
0.0
 11
0.707107
 21
0.707107
 31
0.0
  0
LINE
  5
72
330
6D
100
AcDbEntity
  8
0
  6
CONTINUOUS
 62
     0
100
AcDbLine
 10
0.0
 20
0.0
 30
0.0
 11
-0.707107
 21
-0.707107
 31
0.0
  0
ENDBLK
  5
6F
330
6D
100
AcDbEntity
  8
0
100
AcDbBlockEnd
  0
BLOCK
  5
74
330
73
100
AcDbEntity
  8
0
100
AcDbBlockBegin
  2
FXTIP_CIVIL_S
 70
     0
 71
     0
 10
0.0
 20
0.0
 30
0.0
  3
FXTIP_CIVIL_S
  1

  0
LINE
  5
76
330
73
100
AcDbEntity
  8
0
  6
CONTINUOUS
 62
     0
100
AcDbLine
 10
0.0
 20
0.0
 30
0.0
 11
-1.0
 21
0.0
 31
0.0
  0
LINE
  5
77
330
73
100
AcDbEntity
  8
0
  6
CONTINUOUS
 62
     0
100
AcDbLine
 10
0.0
 20
-0.0625
 30
0.0
 11
-1.0
 21
-0.0625
 31
0.0
  0
LINE
  5
78
330
73
100
AcDbEntity
  8
0
  6
CONTINUOUS
 62
     0
100
AcDbLine
 10
0.0
 20
-0.125
 30
0.0
 11
-1.0
 21
-0.125
 31
0.0
  0
ENDBLK
  5
75
330
73
100
AcDbEntity
  8
0
100
AcDbBlockEnd
  0
BLOCK
  5
7A
330
79
100
AcDbEntity
  8
0
100
AcDbBlockBegin
  2
FXTIP_CIVIL_E
 70
     0
 71
     0
 10
0.0
 20
0.0
 30
0.0
  3
FXTIP_CIVIL_E
  1

  0
LINE
  5
7C
330
79
100
AcDbEntity
  8
0
  6
CONTINUOUS
 62
     0
100
AcDbLine
 10
0.0
 20
0.0
 30
0.0
 11
-1.0
 21
0.0
 31
0.0
  0
LINE
  5
7D
330
79
100
AcDbEntity
  8
0
  6
CONTINUOUS
 62
     0
100
AcDbLine
 10
0.0
 20
0.0625
 30
0.0
 11
-1.0
 21
0.0625
 31
0.0
  0
LINE
  5
7E
330
79
100
AcDbEntity
  8
0
  6
CONTINUOUS
 62
     0
100
AcDbLine
 10
0.0
 20
0.125
 30
0.0
 11
-1.0
 21
0.125
 31
0.0
  0
ENDBLK
  5
7B
330
79
100
AcDbEntity
  8
0
100
AcDbBlockEnd
  0
BLOCK
  5
80
330
7F
100
AcDbEntity
  8
0
100
AcDbBlockBegin
  2
FXTIP_WHITEDOT_S
 70
     0
 71
     0
 10
0.0
 20
0.0
 30
0.0
  3
FXTIP_WHITEDOT_S
  1

  0
LINE
  5
82
330
7F
100
AcDbEntity
  8
0
  6
CONTINUOUS
 62
     0
100
AcDbLine
 10
0.0
 20
0.0
 30
0.0
 11
-1.0
 21
0.0
 31
0.0
  0
CIRCLE
  5
83
330
7F
100
AcDbEntity
  8
0
  6
CONTINUOUS
 62
     0
100
AcDbCircle
 10
0.0
 20
0.0
 30
0.0
 40
0.5
  0
ENDBLK
  5
81
330
7F
100
AcDbEntity
  8
0
100
AcDbBlockEnd
  0
BLOCK
  5
85
330
84
100
AcDbEntity
  8
0
100
AcDbBlockBegin
  2
FXTIP_WHITEDOT_E
 70
     0
 71
     0
 10
0.0
 20
0.0
 30
0.0
  3
FXTIP_WHITEDOT_E
  1

  0
LINE
  5
87
330
84
100
AcDbEntity
  8
0
  6
CONTINUOUS
 62
     0
100
AcDbLine
 10
0.0
 20
0.0
 30
0.0
 11
-1.0
 21
0.0
 31
0.0
  0
CIRCLE
  5
88
330
84
100
AcDbEntity
  8
0
  6
CONTINUOUS
 62
     0
100
AcDbCircle
 10
0.0
 20
0.0
 30
0.0
 40
0.5
  0
ENDBLK
  5
86
330
84
100
AcDbEntity
  8
0
100
AcDbBlockEnd
  0
BLOCK
  5
8A
330
89
100
AcDbEntity
  8
0
100
AcDbBlockBegin
  2
FXTIP_UPARROW_S
 70
     0
 71
     0
 10
0.0
 20
0.0
 30
0.0
  3
FXTIP_UPARROW_S
  1

  0
LINE
  5
8C
330
89
100
AcDbEntity
  8
0
  6
CONTINUOUS
 62
     0
100
AcDbLine
 10
0.0
 20
0.0
 30
0.0
 11
-1.0
 21
0.0
 31
0.0
  0
LINE
  5
8D
330
89
100
AcDbEntity
  8
0
  6
CONTINUOUS
 62
     0
100
AcDbLine
 10
0.0
 20
0.0
 30
0.0
 11
-0.965926
 21
-0.258819
 31
0.0
  0
ENDBLK
  5
8B
330
89
100
AcDbEntity
  8
0
100
AcDbBlockEnd
  0
BLOCK
  5
8F
330
8E
100
AcDbEntity
  8
0
100
AcDbBlockBegin
  2
FXTIP_UPARROW_E
 70
     0
 71
     0
 10
0.0
 20
0.0
 30
0.0
  3
FXTIP_UPARROW_E
  1

  0
LINE
  5
91
330
8E
100
AcDbEntity
  8
0
  6
CONTINUOUS
 62
     0
100
AcDbLine
 10
0.0
 20
0.0
 30
0.0
 11
-1.0
 21
0.0
 31
0.0
  0
LINE
  5
92
330
8E
100
AcDbEntity
  8
0
  6
CONTINUOUS
 62
     0
100
AcDbLine
 10
0.0
 20
0.0
 30
0.0
 11
-0.965926
 21
0.258819
 31
0.0
  0
ENDBLK
  5
90
330
8E
100
AcDbEntity
  8
0
100
AcDbBlockEnd
  0
BLOCK
  5
94
330
93
100
AcDbEntity
  8
0
100
AcDbBlockBegin
  2
FXTIP_DOWNARROW_S
 70
     0
 71
     0
 10
0.0
 20
0.0
 30
0.0
  3
FXTIP_DOWNARROW_S
  1

  0
LINE
  5
96
330
93
100
AcDbEntity
  8
0
  6
CONTINUOUS
 62
     0
100
AcDbLine
 10
0.0
 20
0.0
 30
0.0
 11
-1.0
 21
0.0
 31
0.0
  0
LINE
  5
97
330
93
100
AcDbEntity
  8
0
  6
CONTINUOUS
 62
     0
100
AcDbLine
 10
0.0
 20
0.0
 30
0.0
 11
-0.965926
 21
0.258819
 31
0.0
  0
ENDBLK
  5
95
330
93
100
AcDbEntity
  8
0
100
AcDbBlockEnd
  0
BLOCK
  5
99
330
98
100
AcDbEntity
  8
0
100
AcDbBlockBegin
  2
FXTIP_DOWNARROW_E
 70
     0
 71
     0
 10
0.0
 20
0.0
 30
0.0
  3
FXTIP_DOWNARROW_E
  1

  0
LINE
  5
9B
330
98
100
AcDbEntity
  8
0
  6
CONTINUOUS
 62
     0
100
AcDbLine
 10
0.0
 20
0.0
 30
0.0
 11
-1.0
 21
0.0
 31
0.0
  0
LINE
  5
9C
330
98
100
AcDbEntity
  8
0
  6
CONTINUOUS
 62
     0
100
AcDbLine
 10
0.0
 20
0.0
 30
0.0
 11
-0.965926
 21
-0.258819
 31
0.0
  0
ENDBLK
  5
9A
330
98
100
AcDbEntity
  8
0
100
AcDbBlockEnd
  0
BLOCK
  5
9E
330
9D
100
AcDbEntity
  8
0
100
AcDbBlockBegin
  2
FXTIP_BLACKTRIANGLE_S
 70
     0
 71
     0
 10
0.0
 20
0.0
 30
0.0
  3
FXTIP_BLACKTRIANGLE_S
  1

  0
LINE
  5
A0
330
9D
100
AcDbEntity
  8
0
  6
CONTINUOUS
 62
     0
100
AcDbLine
 10
0.0
 20
0.0
 30
0.0
 11
-1.0
 21
0.0
 31
0.0
  0
SOLID
  5
A1
330
9D
100
AcDbEntity
  8
0
  6
CONTINUOUS
 62
     0
100
AcDbTrace
 10
0.0
 20
0.0
 30
0.0
 11
-0.965926
 21
-0.258819
 31
0.0
 12
-0.965926
 22
0.258819
 32
0.0
 13
-0.965926
 23
0.258819
 33
0.0
  0
ENDBLK
  5
9F
330
9D
100
AcDbEntity
  8
0
100
AcDbBlockEnd
  0
BLOCK
  5
A3
330
A2
100
AcDbEntity
  8
0
100
AcDbBlockBegin
  2
FXTIP_BLACKTRIANGLE_E
 70
     0
 71
     0
 10
0.0
 20
0.0
 30
0.0
  3
FXTIP_BLACKTRIANGLE_E
  1

  0
LINE
  5
A5
330
A2
100
AcDbEntity
  8
0
  6
CONTINUOUS
 62
     0
100
AcDbLine
 10
0.0
 20
0.0
 30
0.0
 11
-1.0
 21
0.0
 31
0.0
  0
SOLID
  5
A6
330
A2
100
AcDbEntity
  8
0
  6
CONTINUOUS
 62
     0
100
AcDbTrace
 10
0.0
 20
0.0
 30
0.0
 11
-0.965926
 21
0.258819
 31
0.0
 12
-0.965926
 22
-0.258819
 32
0.0
 13
-0.965926
 23
-0.258819
 33
0.0
  0
ENDBLK
  5
A4
330
A2
100
AcDbEntity
  8
0
100
AcDbBlockEnd
  0
BLOCK
  5
A9
330
A8
100
AcDbEntity
  8
0
100
AcDbBlockBegin
  2
BLKF021
 70
     0
 71
     0
 10
0.0
 20
0.0
 30
0.0
  3
BLKF021
  1

  0
LINE
  5
AC
330
A8
100
AcDbEntity
  8
}}ﾊﾊGG血CCТ
  6
CONTINUOUS
 62
     7
100
AcDbLine
 10
10.0
 20
10.0
 30
0.0
 11
584.0
 21
10.0
 31
0.0
  0
LINE
  5
AD
330
A8
100
AcDbEntity
  8
}}ﾊﾊGG血CCТ
  6
CONTINUOUS
 62
     7
100
AcDbLine
 10
10.0
 20
10.0
 30
0.0
 11
10.0
 21
410.0
 31
0.0
  0
LINE
  5
AE
330
A8
100
AcDbEntity
  8
}}ﾊﾊGG血CCТ
  6
CONTINUOUS
 62
     7
100
AcDbLine
 10
10.0
 20
410.0
 30
0.0
 11
584.0
 21
410.0
 31
0.0
  0
LINE
  5
AF
330
A8
100
AcDbEntity
  8
}}ﾊﾊGG血CCТ
  6
CONTINUOUS
 62
     7
100
AcDbLine
 10
584.0
 20
410.0
 30
0.0
 11
584.0
 21
10.0
 31
0.0
  0
LINE
  5
B0
330
A8
100
AcDbEntity
  8
}}ﾊﾊGG血CCТ
  6
CONTINUOUS
 62
     7
100
AcDbLine
 10
327.0
 20
10.0
 30
0.0
 11
327.0
 21
20.0
 31
0.0
  0
TEXT
  5
B1
330
A8
100
AcDbEntity
  8
}}ﾊﾊGG血CCТ
  6
CONTINUOUS
 62
     7
100
AcDbText
 10
311.738831
 20
11.596879
 30
0.0
 40
6.648749
  1
品名
 41
1.083413
  7
FX_VECTOR
 72
     5
 11
323.058371
 21
11.596879
 31
0.0
100
AcDbText
  0
LINE
  5
B2
330
A8
100
AcDbEntity
  8
}}ﾊﾊGG血CCТ
  6
CONTINUOUS
 62
     7
100
AcDbLine
 10
407.0
 20
20.0
 30
0.0
 11
407.0
 21
10.0
 31
0.0
  0
LINE
  5
B3
330
A8
100
AcDbEntity
  8
}}ﾊﾊGG血CCТ
  6
CONTINUOUS
 62
     7
100
AcDbLine
 10
307.0
 20
20.0
 30
0.0
 11
584.0
 21
20.0
 31
0.0
  0
INSERT
  5
B7
330
A8
100
AcDbEntity
  8
0
100
AcDbBlockReference
  2
BLKF022
 10
0.0
 20
0.0
 30
0.0
  0
INSERT
  5
C0
330
A8
100
AcDbEntity
  8
0
100
AcDbBlockReference
  2
BLKF023
 10
0.0
 20
0.0
 30
0.0
  0
HATCH
  5
D1
330
A8
100
AcDbEntity
  8
GR1-1
  6
CONTINUOUS
 62
     7
100
AcDbHatch
 10
0.0
 20
0.0
 30
0.0
210
0.0
220
0.0
230
1.0
  2

 70
     0
 71
     1
 91
        2
 92
        0
 93
        4
 72
     1
 10
512.8018997861325
 20
17.91346152
 11
518.8018997861325
 21
17.91346152
 72
     1
 10
518.8018997861325
 20
17.91346152
 11
518.8018997861325
 21
11.91346152
 72
     1
 10
518.8018997861325
 20
11.91346152
 11
512.8018997861325
 21
11.91346152
 72
     1
 10
512.8018997861325
 20
11.91346152
 11
512.8018997861325
 21
17.91346152
 97
        0
 92
        0
 93
       15
 72
     1
 10
515.8018997861325
 20
17.76923076000002
 11
512.9461305461325
 21
14.91346152
 72
     1
 10
512.9461305461325
 20
14.91346152
 11
515.8018997861325
 21
12.05769228000001
 72
     1
 10
515.8018997861325
 20
12.05769228000001
 11
517.3595920661326
 21
13.61538462
 72
     1
 10
517.3595920661326
 20
13.61538462
 11
517.3595920661326
 21
12.98076924
 72
     1
 10
517.3595920661326
 20
12.98076924
 11
518.2249766861326
 21
12.98076924
 72
     1
 10
518.2249766861326
 20
12.98076924
 11
518.2249766861326
 21
15.00000000000001
 72
     1
 10
518.2249766861326
 20
15.00000000000001
 11
515.8018997861325
 21
15.00000000000001
 72
     1
 10
515.8018997861325
 20
15.00000000000001
 11
515.8018997861325
 21
14.13461538000001
 72
     1
 10
515.8018997861325
 20
14.13461538000001
 11
516.2461305461325
 21
14.13461538000001
 72
     1
 10
516.2461305461325
 20
14.13461538000001
 11
515.8018997861325
 21
13.69038462
 72
     1
 10
515.8018997861325
 20
13.69038462
 11
514.5788228861325
 21
14.91346152
 72
     1
 10
514.5788228861325
 20
14.91346152
 11
515.8018997861325
 21
16.13653842000003
 72
     1
 10
515.8018997861325
 20
16.13653842000003
 11
516.5922844061325
 21
15.3461538
 72
     1
 10
516.5922844061325
 20
15.3461538
 11
518.2249766861326
 21
15.3461538
 72
     1
 10
518.2249766861326
 20
15.3461538
 11
515.8018997861325
 21
17.76923076000002
 97
        0
 75
     0
 76
     0
 52
45.0
 41
0.05
 77
     0
 78
     1
 53
45.0
 43
0.0
 44
0.0
 45
-0.0353553390593274
 46
0.0353553390593274
 79
     0
 98
        0
  0
TEXT
  5
D2
330
A8
100
AcDbEntity
  8
}}ﾊﾊGG血CCТ
  6
CONTINUOUS
 62
     7
100
AcDbText
 10
523.225769
 20
11.461285
 30
0.0
 40
7.170908
  1
GOLD CASTER
 41
0.63978
  7
FX_VECTOR
 72
     5
 11
569.977636
 21
11.461285
 31
0.0
100
AcDbText
  0
LINE
  5
D3
330
A8
100
AcDbEntity
  8
}}ﾊﾊGG血CCТ
  6
CONTINUOUS
 62
     7
100
AcDbLine
 10
427.0
 20
10.0
 30
0.0
 11
427.0
 21
20.0
 31
0.0
  0
TEXT
  5
D4
330
A8
100
AcDbEntity
  8
}}ﾊﾊGG血CCТ
  6
CONTINUOUS
 62
     7
100
AcDbText
 10
411.738831
 20
11.596879
 30
0.0
 40
6.648749
  1
図番
 41
1.083413
  7
FX_VECTOR
 72
     5
 11
423.058371
 21
11.596879
 31
0.0
100
AcDbText
  0
LINE
  5
D5
330
A8
100
AcDbEntity
  8
}}ﾊﾊGG血CCТ
  6
CONTINUOUS
 62
     7
100
AcDbLine
 10
507.0
 20
20.0
 30
0.0
 11
507.0
 21
10.0
 31
0.0
  0
LINE
  5
D6
330
A8
100
AcDbEntity
  8
}}ﾊﾊGG血CCТ
  6
CONTINUOUS
 62
     7
100
AcDbLine
 10
307.0
 20
20.0
 30
0.0
 11
307.0
 21
10.0
 31
0.0
  0
ENDBLK
  5
AA
330
A8
100
AcDbEntity
  8
0
100
AcDbBlockEnd
  0
BLOCK
  5
B5
330
B4
100
AcDbEntity
  8
0
100
AcDbBlockBegin
  2
BLKF022
 70
     0
 71
     0
 10
0.0
 20
0.0
 30
0.0
  3
BLKF022
  1

  0
LINE
  5
B9
330
B4
100
AcDbEntity
  8
0-1
  6
CONTINUOUS
 62
     7
100
AcDbLine
 10
518.8019
 20
17.913462
 30
0.0
 11
512.8019
 21
17.913462
 31
0.0
  0
LINE
  5
BA
330
B4
100
AcDbEntity
  8
0-1
  6
CONTINUOUS
 62
     7
100
AcDbLine
 10
512.8019
 20
17.913462
 30
0.0
 11
512.8019
 21
11.913462
 31
0.0
  0
LINE
  5
BB
330
B4
100
AcDbEntity
  8
0-1
  6
CONTINUOUS
 62
     7
100
AcDbLine
 10
512.8019
 20
11.913462
 30
0.0
 11
518.8019
 21
11.913462
 31
0.0
  0
LINE
  5
BC
330
B4
100
AcDbEntity
  8
0-1
  6
CONTINUOUS
 62
     7
100
AcDbLine
 10
518.8019
 20
11.913462
 30
0.0
 11
518.8019
 21
17.913462
 31
0.0
  0
ENDBLK
  5
B6
330
B4
100
AcDbEntity
  8
0
100
AcDbBlockEnd
  0
BLOCK
  5
BE
330
BD
100
AcDbEntity
  8
0
100
AcDbBlockBegin
  2
BLKF023
 70
     0
 71
     0
 10
0.0
 20
0.0
 30
0.0
  3
BLKF023
  1

  0
LINE
  5
C1
330
BD
100
AcDbEntity
  8
0-1
  6
CONTINUOUS
 62
     7
100
AcDbLine
 10
518.224977
 20
15.346154
 30
0.0
 11
515.8019
 21
17.769231
 31
0.0
  0
LINE
  5
C2
330
BD
100
AcDbEntity
  8
0-1
  6
CONTINUOUS
 62
     7
100
AcDbLine
 10
515.8019
 20
17.769231
 30
0.0
 11
512.946131
 21
14.913462
 31
0.0
  0
LINE
  5
C3
330
BD
100
AcDbEntity
  8
0-1
  6
CONTINUOUS
 62
     7
100
AcDbLine
 10
512.946131
 20
14.913462
 30
0.0
 11
515.8019
 21
12.057692
 31
0.0
  0
LINE
  5
C4
330
BD
100
AcDbEntity
  8
0-1
  6
CONTINUOUS
 62
     7
100
AcDbLine
 10
515.8019
 20
12.057692
 30
0.0
 11
517.359592
 21
13.615385
 31
0.0
  0
LINE
  5
C5
330
BD
100
AcDbEntity
  8
0-1
  6
CONTINUOUS
 62
     7
100
AcDbLine
 10
517.359592
 20
13.615385
 30
0.0
 11
517.359592
 21
12.980769
 31
0.0
  0
LINE
  5
C6
330
BD
100
AcDbEntity
  8
0-1
  6
CONTINUOUS
 62
     7
100
AcDbLine
 10
517.359592
 20
12.980769
 30
0.0
 11
518.224977
 21
12.980769
 31
0.0
  0
LINE
  5
C7
330
BD
100
AcDbEntity
  8
0-1
  6
CONTINUOUS
 62
     7
100
AcDbLine
 10
518.224977
 20
12.980769
 30
0.0
 11
518.224977
 21
15.0
 31
0.0
  0
LINE
  5
C8
330
BD
100
AcDbEntity
  8
0-1
  6
CONTINUOUS
 62
     7
100
AcDbLine
 10
518.224977
 20
15.0
 30
0.0
 11
515.8019
 21
15.0
 31
0.0
  0
LINE
  5
C9
330
BD
100
AcDbEntity
  8
0-1
  6
CONTINUOUS
 62
     7
100
AcDbLine
 10
515.8019
 20
15.0
 30
0.0
 11
515.8019
 21
14.134615
 31
0.0
  0
LINE
  5
CA
330
BD
100
AcDbEntity
  8
0-1
  6
CONTINUOUS
 62
     7
100
AcDbLine
 10
515.8019
 20
14.134615
 30
0.0
 11
516.246131
 21
14.134615
 31
0.0
  0
LINE
  5
CB
330
BD
100
AcDbEntity
  8
0-1
  6
CONTINUOUS
 62
     7
100
AcDbLine
 10
516.246131
 20
14.134615
 30
0.0
 11
515.8019
 21
13.690385
 31
0.0
  0
LINE
  5
CC
330
BD
100
AcDbEntity
  8
0-1
  6
CONTINUOUS
 62
     7
100
AcDbLine
 10
515.8019
 20
13.690385
 30
0.0
 11
514.578823
 21
14.913462
 31
0.0
  0
LINE
  5
CD
330
BD
100
AcDbEntity
  8
0-1
  6
CONTINUOUS
 62
     7
100
AcDbLine
 10
514.578823
 20
14.913462
 30
0.0
 11
515.8019
 21
16.136538
 31
0.0
  0
LINE
  5
CE
330
BD
100
AcDbEntity
  8
0-1
  6
CONTINUOUS
 62
     7
100
AcDbLine
 10
515.8019
 20
16.136538
 30
0.0
 11
516.592284
 21
15.346154
 31
0.0
  0
LINE
  5
CF
330
BD
100
AcDbEntity
  8
0-1
  6
CONTINUOUS
 62
     7
100
AcDbLine
 10
516.592284
 20
15.346154
 30
0.0
 11
518.224977
 21
15.346154
 31
0.0
  0
ENDBLK
  5
BF
330
BD
100
AcDbEntity
  8
0
100
AcDbBlockEnd
  0
BLOCK
  5
DB
330
DA
100
AcDbEntity
  8
0
100
AcDbBlockBegin
  2
*D22
 70
     1
 71
     0
 10
0.0
 20
0.0
 30
0.0
  3
*D22
  1

  0
TEXT
  5
DD
330
DA
100
AcDbEntity
  8
GR1-1
  6
CONTINUOUS
 62
     7
100
AcDbText
 10
78.700577
 20
97.837646
 30
0.0
 40
4.0
  1
%%c130
 50
90.0
 41
0.828947
  7
FX_VECTOR
 72
     5
 11
78.700577
 21
109.837646
 31
0.0
100
AcDbText
  0
LINE
  5
DE
330
DA
100
AcDbEntity
  8
GR1-1
  6
CONTINUOUS
 62
     7
100
AcDbLine
 10
138.335583
 20
39.117651
 30
0.0
 11
78.700585
 21
39.117651
 31
0.0
  0
LINE
  5
DF
330
DA
100
AcDbEntity
  8
GR1-1
  6
CONTINUOUS
 62
     7
100
AcDbLine
 10
138.335583
 20
169.117643
 30
0.0
 11
78.700585
 21
169.117643
 31
0.0
  0
LINE
  5
E0
330
DA
100
AcDbEntity
  8
GR1-1
  6
CONTINUOUS
 62
     7
100
AcDbLine
 10
79.700585
 20
39.117651
 30
0.0
 11
79.700585
 21
169.117643
 31
0.0
  0
INSERT
  5
E1
330
DA
100
AcDbEntity
  8
GR1-1
  6
CONTINUOUS
 62
     7
100
AcDbBlockReference
  2
FXTIP_ARROW_S
 10
79.700585
 20
39.117651
 30
0.0
 41
4.0
 42
4.0
 50
270.0
  0
INSERT
  5
E2
330
DA
100
AcDbEntity
  8
GR1-1
  6
CONTINUOUS
 62
     7
100
AcDbBlockReference
  2
FXTIP_ARROW_E
 10
79.700585
 20
169.117643
 30
0.0
 41
4.0
 42
4.0
 50
90.0
  0
ENDBLK
  5
DC
330
DA
100
AcDbEntity
  8
0
100
AcDbBlockEnd
  0
BLOCK
  5
E5
330
E4
100
AcDbEntity
  8
0
100
AcDbBlockBegin
  2
*D23
 70
     1
 71
     0
 10
0.0
 20
0.0
 30
0.0
  3
*D23
  1

  0
TEXT
  5
E7
330
E4
100
AcDbEntity
  8
GR1-1
  6
CONTINUOUS
 62
     7
100
AcDbText
 10
360.252838
 20
400.497925
 30
0.0
 40
4.0
  1
138
 41
0.828947
  7
FX_VECTOR
 72
     5
 11
369.252838
 21
400.497925
 31
0.0
100
AcDbText
  0
LINE
  5
E8
330
E4
100
AcDbEntity
  8
GR1-1
  6
CONTINUOUS
 62
     7
100
AcDbLine
 10
295.752841
 20
353.617647
 30
0.0
 11
295.752841
 21
400.49793
 31
0.0
  0
LINE
  5
E9
330
E4
100
AcDbEntity
  8
GR1-1
  6
CONTINUOUS
 62
     7
100
AcDbLine
 10
433.752841
 20
353.617647
 30
0.0
 11
433.752841
 21
400.49793
 31
0.0
  0
LINE
  5
EA
330
E4
100
AcDbEntity
  8
GR1-1
  6
CONTINUOUS
 62
     7
100
AcDbLine
 10
295.752841
 20
399.49793
 30
0.0
 11
433.752841
 21
399.49793
 31
0.0
  0
INSERT
  5
EB
330
E4
100
AcDbEntity
  8
GR1-1
  6
CONTINUOUS
 62
     7
100
AcDbBlockReference
  2
FXTIP_ARROW_S
 10
295.752841
 20
399.49793
 30
0.0
 41
4.0
 42
4.0
 50
180.0
  0
INSERT
  5
EC
330
E4
100
AcDbEntity
  8
GR1-1
  6
CONTINUOUS
 62
     7
100
AcDbBlockReference
  2
FXTIP_ARROW_E
 10
433.752841
 20
399.49793
 30
0.0
 41
4.0
 42
4.0
 50
360.0
  0
ENDBLK
  5
E6
330
E4
100
AcDbEntity
  8
0
100
AcDbBlockEnd
  0
BLOCK
  5
EF
330
EE
100
AcDbEntity
  8
0
100
AcDbBlockBegin
  2
*D24
 70
     1
 71
     0
 10
0.0
 20
0.0
 30
0.0
  3
*D24
  1

  0
TEXT
  5
F1
330
EE
100
AcDbEntity
  8
GR1-1
  6
CONTINUOUS
 62
     7
100
AcDbText
 10
360.252838
 20
390.497925
 30
0.0
 40
4.0
  1
100
 41
0.828947
  7
FX_VECTOR
 72
     5
 11
369.252838
 21
390.497925
 31
0.0
100
AcDbText
  0
LINE
  5
F2
330
EE
100
AcDbEntity
  8
GR1-1
  6
CONTINUOUS
 62
     7
100
AcDbLine
 10
314.752841
 20
357.617647
 30
0.0
 11
314.752841
 21
390.49793
 31
0.0
  0
LINE
  5
F3
330
EE
100
AcDbEntity
  8
GR1-1
  6
CONTINUOUS
 62
     7
100
AcDbLine
 10
414.752841
 20
357.617647
 30
0.0
 11
414.752841
 21
390.49793
 31
0.0
  0
LINE
  5
F4
330
EE
100
AcDbEntity
  8
GR1-1
  6
CONTINUOUS
 62
     7
100
AcDbLine
 10
314.752841
 20
389.49793
 30
0.0
 11
414.752841
 21
389.49793
 31
0.0
  0
INSERT
  5
F5
330
EE
100
AcDbEntity
  8
GR1-1
  6
CONTINUOUS
 62
     7
100
AcDbBlockReference
  2
FXTIP_ARROW_S
 10
314.752841
 20
389.49793
 30
0.0
 41
4.0
 42
4.0
 50
180.0
  0
INSERT
  5
F6
330
EE
100
AcDbEntity
  8
GR1-1
  6
CONTINUOUS
 62
     7
100
AcDbBlockReference
  2
FXTIP_ARROW_E
 10
414.752841
 20
389.49793
 30
0.0
 41
4.0
 42
4.0
 50
360.0
  0
ENDBLK
  5
F0
330
EE
100
AcDbEntity
  8
0
100
AcDbBlockEnd
  0
BLOCK
  5
F9
330
F8
100
AcDbEntity
  8
0
100
AcDbBlockBegin
  2
*D25
 70
     1
 71
     0
 10
0.0
 20
0.0
 30
0.0
  3
*D25
  1

  0
TEXT
  5
FB
330
F8
100
AcDbEntity
  8
GR1-1
  6
CONTINUOUS
 62
     7
100
AcDbText
 10
361.752838
 20
380.497925
 30
0.0
 40
4.0
  1
97
 41
0.851351
  7
FX_VECTOR
 72
     5
 11
367.752838
 21
380.497925
 31
0.0
100
AcDbText
  0
LINE
  5
FC
330
F8
100
AcDbEntity
  8
GR1-1
  6
CONTINUOUS
 62
     7
100
AcDbLine
 10
316.252841
 20
356.505146
 30
0.0
 11
316.252841
 21
380.49793
 31
0.0
  0
LINE
  5
FD
330
F8
100
AcDbEntity
  8
GR1-1
  6
CONTINUOUS
 62
     7
100
AcDbLine
 10
413.252841
 20
356.505146
 30
0.0
 11
413.252841
 21
380.49793
 31
0.0
  0
LINE
  5
FE
330
F8
100
AcDbEntity
  8
GR1-1
  6
CONTINUOUS
 62
     7
100
AcDbLine
 10
316.252841
 20
379.49793
 30
0.0
 11
413.252841
 21
379.49793
 31
0.0
  0
INSERT
  5
FF
330
F8
100
AcDbEntity
  8
GR1-1
  6
CONTINUOUS
 62
     7
100
AcDbBlockReference
  2
FXTIP_ARROW_S
 10
316.252841
 20
379.49793
 30
0.0
 41
4.0
 42
4.0
 50
180.0
  0
INSERT
  5
100
330
F8
100
AcDbEntity
  8
GR1-1
  6
CONTINUOUS
 62
     7
100
AcDbBlockReference
  2
FXTIP_ARROW_E
 10
413.252841
 20
379.49793
 30
0.0
 41
4.0
 42
4.0
 50
360.0
  0
ENDBLK
  5
FA
330
F8
100
AcDbEntity
  8
0
100
AcDbBlockEnd
  0
BLOCK
  5
103
330
102
100
AcDbEntity
  8
0
100
AcDbBlockBegin
  2
*D26
 70
     1
 71
     0
 10
0.0
 20
0.0
 30
0.0
  3
*D26
  1

  0
TEXT
  5
105
330
102
100
AcDbEntity
  8
GR1-1
  6
CONTINUOUS
 62
     7
100
AcDbText
 10
462.696014
 20
320.117645
 30
0.0
 40
4.0
  1
93
 50
90.0
 41
0.851351
  7
FX_VECTOR
 72
     5
 11
462.696014
 21
326.117645
 31
0.0
100
AcDbText
  0
LINE
  5
106
330
102
100
AcDbEntity
  8
GR1-1
  6
CONTINUOUS
 62
     7
100
AcDbLine
 10
417.752841
 20
369.617647
 30
0.0
 11
464.696029
 21
369.617647
 31
0.0
  0
LINE
  5
107
330
102
100
AcDbEntity
  8
GR1-1
  6
CONTINUOUS
 62
     7
100
AcDbLine
 10
416.320177
 20
276.617647
 30
0.0
 11
464.696029
 21
276.617647
 31
0.0
  0
LINE
  5
108
330
102
100
AcDbEntity
  8
GR1-1
  6
CONTINUOUS
 62
     7
100
AcDbLine
 10
463.696029
 20
369.617647
 30
0.0
 11
463.696029
 21
276.617647
 31
0.0
  0
INSERT
  5
109
330
102
100
AcDbEntity
  8
GR1-1
  6
CONTINUOUS
 62
     7
100
AcDbBlockReference
  2
FXTIP_ARROW_S
 10
463.696029
 20
369.617647
 30
0.0
 41
4.0
 42
4.0
 50
90.0
  0
INSERT
  5
10A
330
102
100
AcDbEntity
  8
GR1-1
  6
CONTINUOUS
 62
     7
100
AcDbBlockReference
  2
FXTIP_ARROW_E
 10
463.696029
 20
276.617647
 30
0.0
 41
4.0
 42
4.0
 50
270.0
  0
ENDBLK
  5
104
330
102
100
AcDbEntity
  8
0
100
AcDbBlockEnd
  0
BLOCK
  5
10D
330
10C
100
AcDbEntity
  8
0
100
AcDbBlockBegin
  2
*D27
 70
     1
 71
     0
 10
0.0
 20
0.0
 30
0.0
  3
*D27
  1

  0
TEXT
  5
10F
330
10C
100
AcDbEntity
  8
GR1-1
  6
CONTINUOUS
 62
     7
100
AcDbText
 10
452.696014
 20
320.117645
 30
0.0
 40
4.0
  1
56
 50
90.0
 41
0.851351
  7
FX_VECTOR
 72
     5
 11
452.696014
 21
326.117645
 31
0.0
100
AcDbText
  0
LINE
  5
110
330
10C
100
AcDbEntity
  8
GR1-1
  6
CONTINUOUS
 62
     7
100
AcDbLine
 10
421.660668
 20
351.117647
 30
0.0
 11
454.696029
 21
351.117647
 31
0.0
  0
LINE
  5
111
330
10C
100
AcDbEntity
  8
GR1-1
  6
CONTINUOUS
 62
     7
100
AcDbLine
 10
421.660668
 20
295.117647
 30
0.0
 11
454.696029
 21
295.117647
 31
0.0
  0
LINE
  5
112
330
10C
100
AcDbEntity
  8
GR1-1
  6
CONTINUOUS
 62
     7
100
AcDbLine
 10
453.696029
 20
351.117647
 30
0.0
 11
453.696029
 21
295.117647
 31
0.0
  0
INSERT
  5
113
330
10C
100
AcDbEntity
  8
GR1-1
  6
CONTINUOUS
 62
     7
100
AcDbBlockReference
  2
FXTIP_ARROW_S
 10
453.696029
 20
351.117647
 30
0.0
 41
4.0
 42
4.0
 50
90.0
  0
INSERT
  5
114
330
10C
100
AcDbEntity
  8
GR1-1
  6
CONTINUOUS
 62
     7
100
AcDbBlockReference
  2
FXTIP_ARROW_E
 10
453.696029
 20
295.117647
 30
0.0
 41
4.0
 42
4.0
 50
270.0
  0
ENDBLK
  5
10E
330
10C
100
AcDbEntity
  8
0
100
AcDbBlockEnd
  0
BLOCK
  5
117
330
116
100
AcDbEntity
  8
0
100
AcDbBlockBegin
  2
*D28
 70
     1
 71
     0
 10
0.0
 20
0.0
 30
0.0
  3
*D28
  1

  0
TEXT
  5
119
330
116
100
AcDbEntity
  8
GR1-1
  6
CONTINUOUS
 62
     7
100
AcDbText
 10
442.696014
 20
320.117645
 30
0.0
 40
4.0
  1
53
 50
90.0
 41
0.851351
  7
FX_VECTOR
 72
     5
 11
442.696014
 21
326.117645
 31
0.0
100
AcDbText
  0
LINE
  5
11A
330
116
100
AcDbEntity
  8
GR1-1
  6
CONTINUOUS
 62
     7
100
AcDbLine
 10
420.160668
 20
349.617647
 30
0.0
 11
444.696029
 21
349.617647
 31
0.0
  0
LINE
  5
11B
330
116
100
AcDbEntity
  8
GR1-1
  6
CONTINUOUS
 62
     7
100
AcDbLine
 10
420.160668
 20
296.617647
 30
0.0
 11
444.696029
 21
296.617647
 31
0.0
  0
LINE
  5
11C
330
116
100
AcDbEntity
  8
GR1-1
  6
CONTINUOUS
 62
     7
100
AcDbLine
 10
443.696029
 20
349.617647
 30
0.0
 11
443.696029
 21
296.617647
 31
0.0
  0
INSERT
  5
11D
330
116
100
AcDbEntity
  8
GR1-1
  6
CONTINUOUS
 62
     7
100
AcDbBlockReference
  2
FXTIP_ARROW_S
 10
443.696029
 20
349.617647
 30
0.0
 41
4.0
 42
4.0
 50
90.0
  0
INSERT
  5
11E
330
116
100
AcDbEntity
  8
GR1-1
  6
CONTINUOUS
 62
     7
100
AcDbBlockReference
  2
FXTIP_ARROW_E
 10
443.696029
 20
296.617647
 30
0.0
 41
4.0
 42
4.0
 50
270.0
  0
ENDBLK
  5
118
330
116
100
AcDbEntity
  8
0
100
AcDbBlockEnd
  0
BLOCK
  5
121
330
120
100
AcDbEntity
  8
0
100
AcDbBlockBegin
  2
*D29
 70
     1
 71
     0
 10
0.0
 20
0.0
 30
0.0
  3
*D29
  1

  0
TEXT
  5
123
330
120
100
AcDbEntity
  8
GR1-1
  6
CONTINUOUS
 62
     7
100
AcDbText
 10
452.765625
 20
123.117645
 30
0.0
 40
4.0
  1
177
 50
90.0
 41
0.828947
  7
FX_VECTOR
 72
     5
 11
452.765625
 21
132.117645
 31
0.0
100
AcDbText
  0
LINE
  5
124
330
120
100
AcDbEntity
  8
GR1-1
  6
CONTINUOUS
 62
     7
100
AcDbLine
 10
429.252841
 20
216.117647
 30
0.0
 11
454.765642
 21
216.117647
 31
0.0
  0
LINE
  5
125
330
120
100
AcDbEntity
  8
GR1-1
  6
CONTINUOUS
 62
     7
100
AcDbLine
 10
365.752841
 20
39.117647
 30
0.0
 11
454.765642
 21
39.117647
 31
0.0
  0
LINE
  5
126
330
120
100
AcDbEntity
  8
GR1-1
  6
CONTINUOUS
 62
     7
100
AcDbLine
 10
453.765642
 20
216.117647
 30
0.0
 11
453.765642
 21
39.117647
 31
0.0
  0
INSERT
  5
127
330
120
100
AcDbEntity
  8
GR1-1
  6
CONTINUOUS
 62
     7
100
AcDbBlockReference
  2
FXTIP_ARROW_S
 10
453.765642
 20
216.117647
 30
0.0
 41
4.0
 42
4.0
 50
90.0
  0
INSERT
  5
128
330
120
100
AcDbEntity
  8
GR1-1
  6
CONTINUOUS
 62
     7
100
AcDbBlockReference
  2
FXTIP_ARROW_E
 10
453.765642
 20
39.117647
 30
0.0
 41
4.0
 42
4.0
 50
270.0
  0
ENDBLK
  5
122
330
120
100
AcDbEntity
  8
0
100
AcDbBlockEnd
  0
BLOCK
  5
12B
330
12A
100
AcDbEntity
  8
0
100
AcDbBlockBegin
  2
*D30
 70
     1
 71
     0
 10
0.0
 20
0.0
 30
0.0
  3
*D30
  1

  0
TEXT
  5
12D
330
12A
100
AcDbEntity
  8
GR1-1
  6
CONTINUOUS
 62
     7
100
AcDbText
 10
442.765625
 20
155.617645
 30
0.0
 40
4.0
  1
112
 50
90.0
 41
0.828947
  7
FX_VECTOR
 72
     5
 11
442.765625
 21
164.617645
 31
0.0
100
AcDbText
  0
LINE
  5
12E
330
12A
100
AcDbEntity
  8
GR1-1
  6
CONTINUOUS
 62
     7
100
AcDbLine
 10
434.625062
 20
104.117647
 30
0.0
 11
444.765642
 21
104.117647
 31
0.0
  0
LINE
  5
12F
330
12A
100
AcDbEntity
  8
GR1-1
  6
CONTINUOUS
 62
     7
100
AcDbLine
 10
443.765642
 20
104.117647
 30
0.0
 11
443.765642
 21
216.117647
 31
0.0
  0
INSERT
  5
130
330
12A
100
AcDbEntity
  8
GR1-1
  6
CONTINUOUS
 62
     7
100
AcDbBlockReference
  2
FXTIP_ARROW_S
 10
443.765642
 20
104.117647
 30
0.0
 41
4.0
 42
4.0
 50
270.0
  0
INSERT
  5
131
330
12A
100
AcDbEntity
  8
GR1-1
  6
CONTINUOUS
 62
     7
100
AcDbBlockReference
  2
FXTIP_ARROW_E
 10
443.765642
 20
216.117647
 30
0.0
 41
4.0
 42
4.0
 50
90.0
  0
ENDBLK
  5
12C
330
12A
100
AcDbEntity
  8
0
100
AcDbBlockEnd
  0
BLOCK
  5
134
330
133
100
AcDbEntity
  8
0
100
AcDbBlockBegin
  2
*D31
 70
     1
 71
     0
 10
0.0
 20
0.0
 30
0.0
  3
*D31
  1

  0
TEXT
  5
136
330
133
100
AcDbEntity
  8
GR1-1
  6
CONTINUOUS
 62
     7
100
AcDbText
 10
284.902379
 20
372.482793
 30
0.0
 40
4.0
  1
4-11
 50
45.0
 41
0.818182
  7
FX_VECTOR
 72
     5
 11
293.38766
 21
380.968074
 31
0.0
100
AcDbText
  0
LINE
  5
137
330
133
100
AcDbEntity
  8
GR1-1
  6
CONTINUOUS
 62
     7
100
AcDbLine
 10
310.156646
 20
347.935667
 30
0.0
 11
285.255957
 21
372.836356
 31
0.0
  0
LINE
  5
138
330
133
100
AcDbEntity
  8
GR1-1
  6
CONTINUOUS
 62
     7
100
AcDbLine
 10
317.934821
 20
355.713841
 30
0.0
 11
293.034132
 21
380.61453
 31
0.0
  0
LINE
  5
139
330
133
100
AcDbEntity
  8
GR1-1
  6
CONTINUOUS
 62
     7
100
AcDbLine
 10
285.963064
 20
372.129249
 30
0.0
 11
293.741239
 21
379.907424
 31
0.0
  0
INSERT
  5
13A
330
133
100
AcDbEntity
  8
GR1-1
  6
CONTINUOUS
 62
     7
100
AcDbBlockReference
  2
FXTIP_ARROW_S
 10
285.963064
 20
372.129249
 30
0.0
 41
4.0
 42
4.0
 50
225.0
  0
INSERT
  5
13B
330
133
100
AcDbEntity
  8
GR1-1
  6
CONTINUOUS
 62
     7
100
AcDbBlockReference
  2
FXTIP_ARROW_E
 10
293.741239
 20
379.907424
 30
0.0
 41
4.0
 42
4.0
 50
45.0
  0
ENDBLK
  5
135
330
133
100
AcDbEntity
  8
0
100
AcDbBlockEnd
  0
BLOCK
  5
2DF
330
2DE
100
AcDbEntity
  8
0
100
AcDbBlockBegin
  2
*D32
 70
     1
 71
     0
 10
0.0
 20
0.0
 30
0.0
  3
*D32
  1

  0
TEXT
  5
2E1
330
2DE
100
AcDbEntity
  8
LAYERGROUP-1
  6
CONTINUOUS
 62
     7
100
AcDbText
 10
185.535583
 20
227.117645
 30
0.0
 40
4.0
  1
101
 41
0.926471
  7
FX_VECTOR
 72
     5
 11
194.535583
 21
227.117645
 31
0.0
100
AcDbText
  0
LINE
  5
2E2
330
2DE
100
AcDbEntity
  8
LAYERGROUP-1
  6
CONTINUOUS
 62
     7
100
AcDbLine
 10
139.335583
 20
226.117647
 30
0.0
 11
240.735583
 21
226.117647
 31
0.0
  0
INSERT
  5
2E3
330
2DE
100
AcDbEntity
  8
LAYERGROUP-1
  6
CONTINUOUS
 62
     7
100
AcDbBlockReference
  2
FXTIP_ARROW_S
 10
139.335583
 20
226.117647
 30
0.0
 41
4.0
 42
4.0
 50
180.0
  0
INSERT
  5
2E4
330
2DE
100
AcDbEntity
  8
LAYERGROUP-1
  6
CONTINUOUS
 62
     7
100
AcDbBlockReference
  2
FXTIP_ARROW_E
 10
240.735583
 20
226.117647
 30
0.0
 41
4.0
 42
4.0
 50
360.0
  0
LINE
  5
2E5
330
2DE
100
AcDbEntity
  8
LAYERGROUP-1
  6
CONTINUOUS
 62
     7
100
AcDbLine
 10
139.335583
 20
220.859272
 30
0.0
 11
139.335583
 21
227.117647
 31
0.0
  0
LINE
  5
2E6
330
2DE
100
AcDbEntity
  8
LAYERGROUP-1
  6
CONTINUOUS
 62
     7
100
AcDbLine
 10
240.735583
 20
172.423325
 30
0.0
 11
240.735583
 21
227.117647
 31
0.0
  0
ENDBLK
  5
2E0
330
2DE
100
AcDbEntity
  8
0
100
AcDbBlockEnd
  0
BLOCK
  5
33A
330
339
100
AcDbEntity
  8
0
100
AcDbBlockBegin
  2
BLKF035
 70
     0
 71
     0
 10
0.0
 20
0.0
 30
0.0
  3
BLKF035
  1

  0
LINE
  5
33D
330
339
100
AcDbEntity
  8
GR1-1
  6
CONTINUOUS
 62
     3
100
AcDbLine
 10
353.752841
 20
357.500127
 30
0.0
 11
353.752841
 21
363.535167
 31
0.0
  0
LINE
  5
33E
330
339
100
AcDbEntity
  8
GR1-1
  6
CONTINUOUS
 62
     3
100
AcDbLine
 10
354.252841
 20
364.517647
 30
0.0
 11
375.252841
 21
364.517647
 31
0.0
  0
LINE
  5
33F
330
339
100
AcDbEntity
  8
GR1-1
  6
CONTINUOUS
 62
     3
100
AcDbLine
 10
375.752841
 20
363.535167
 30
0.0
 11
375.752841
 21
357.500127
 31
0.0
  0
ARC
  5
340
330
339
100
AcDbEntity
  8
GR1-1
  6
CONTINUOUS
 62
     3
100
AcDbCircle
 10
370.252841
 20
348.631697
 30
0.0
 40
15.88594976734669
100
AcDbArc
 50
69.743842
 51
110.256158
  0
ARC
  5
341
330
339
100
AcDbEntity
  8
GR1-1
  6
CONTINUOUS
 62
     3
100
AcDbCircle
 10
359.252841
 20
348.631697
 30
0.0
 40
15.88594976734669
100
AcDbArc
 50
69.743842
 51
110.256158
  0
LINE
  5
342
330
339
100
AcDbEntity
  8
GR1-1
  6
CONTINUOUS
 62
     3
100
AcDbLine
 10
364.752841
 20
357.500127
 30
0.0
 11
364.752841
 21
363.535167
 31
0.0
  0
LINE
  5
343
330
339
100
AcDbEntity
  8
GR1-1
  6
CONTINUOUS
 62
     3
100
AcDbLine
 10
375.752841
 20
363.535167
 30
0.0
 11
374.051135
 21
364.517647
 31
0.0
  0
LINE
  5
344
330
339
100
AcDbEntity
  8
GR1-1
  6
CONTINUOUS
 62
     3
100
AcDbLine
 10
354.252841
 20
356.517647
 30
0.0
 11
375.252841
 21
356.517647
 31
0.0
  0
ARC
  5
345
330
339
100
AcDbEntity
  8
GR1-1
  6
CONTINUOUS
 62
     3
100
AcDbCircle
 10
370.252841
 20
372.403597
 30
0.0
 40
15.88594976734669
100
AcDbArc
 50
249.743842
 51
290.256158
  0
ARC
  5
346
330
339
100
AcDbEntity
  8
GR1-1
  6
CONTINUOUS
 62
     3
100
AcDbCircle
 10
359.252841
 20
372.403597
 30
0.0
 40
15.88594976734669
100
AcDbArc
 50
249.743842
 51
290.256158
  0
LINE
  5
347
330
339
100
AcDbEntity
  8
LAYERGROUP-1
  6
CONTINUOUS
 62
     3
100
AcDbLine
 10
353.752841
 20
363.535167
 30
0.0
 11
354.252841
 21
364.517647
 31
0.0
  0
LINE
  5
348
330
339
100
AcDbEntity
  8
LAYERGROUP-1
  6
CONTINUOUS
 62
     3
100
AcDbLine
 10
375.752841
 20
363.535167
 30
0.0
 11
375.252841
 21
364.517647
 31
0.0
  0
LINE
  5
349
330
339
100
AcDbEntity
  8
LAYERGROUP-1
  6
CONTINUOUS
 62
     3
100
AcDbLine
 10
353.752841
 20
357.500127
 30
0.0
 11
354.252841
 21
356.517647
 31
0.0
  0
LINE
  5
34A
330
339
100
AcDbEntity
  8
LAYERGROUP-1
  6
CONTINUOUS
 62
     3
100
AcDbLine
 10
375.752841
 20
357.500127
 30
0.0
 11
375.252841
 21
356.517647
 31
0.0
  0
ENDBLK
  5
33B
330
339
100
AcDbEntity
  8
0
100
AcDbBlockEnd
  0
BLOCK
  5
36B
330
36A
100
AcDbEntity
  8
0
100
AcDbBlockBegin
  2
BLKF036
 70
     0
 71
     0
 10
0.0
 20
0.0
 30
0.0
  3
BLKF036
  1

  0
LINE
  5
36E
330
36A
100
AcDbEntity
  8
LAYERGROUP-1
  6
CONTINUOUS
 62
     3
100
AcDbLine
 10
116.335583
 20
133.48605
 30
0.0
 11
116.335583
 21
104.117647
 31
0.0
  0
LINE
  5
36F
330
36A
100
AcDbEntity
  8
LAYERGROUP-1
  6
CONTINUOUS
 62
     3
100
AcDbLine
 10
113.835583
 20
118.617647
 30
0.0
 11
116.335583
 21
118.617647
 31
0.0
  0
LINE
  5
370
330
36A
100
AcDbEntity
  8
LAYERGROUP-1
  6
CONTINUOUS
 62
     3
100
AcDbLine
 10
113.335583
 20
104.117647
 30
0.0
 11
113.335583
 21
118.117647
 31
0.0
  0
LINE
  5
371
330
36A
100
AcDbEntity
  8
LAYERGROUP-1
  6
CONTINUOUS
 62
     3
100
AcDbLine
 10
113.335583
 20
118.117647
 30
0.0
 11
113.835583
 21
118.617647
 31
0.0
  0
ARC
  5
372
330
36A
100
AcDbEntity
  8
LAYERGROUP-1
  6
CONTINUOUS
 62
     3
100
AcDbCircle
 10
119.335583
 20
133.48605
 30
0.0
 40
3.0
100
AcDbArc
 50
132.088291
 51
180.0
  0
LINE
  5
373
330
36A
100
AcDbEntity
  8
LAYERGROUP-1
  6
CONTINUOUS
 62
     3
100
AcDbLine
 10
121.335583
 20
140.151253
 30
0.0
 11
117.324758
 21
135.712388
 31
0.0
  0
LINE
  5
374
330
36A
100
AcDbEntity
  8
GR1-1
  6
CONTINUOUS
 62
     3
100
AcDbLine
 10
150.118705
 20
169.117647
 30
0.0
 11
128.552462
 21
169.117647
 31
0.0
  0
ARC
  5
375
330
36A
100
AcDbEntity
  8
GR1-1
  6
CONTINUOUS
 62
     3
100
AcDbCircle
 10
128.552462
 20
167.117647
 30
0.0
 40
2.0
100
AcDbArc
 50
90.0
 51
150.0
  0
LINE
  5
376
330
36A
100
AcDbEntity
  8
GR1-1
  6
CONTINUOUS
 62
     3
100
AcDbLine
 10
126.820411
 20
168.117647
 30
0.0
 11
121.335583
 21
158.617647
 31
0.0
  0
LINE
  5
377
330
36A
100
AcDbEntity
  8
LAYERGROUP-1
  6
CONTINUOUS
 62
     3
100
AcDbLine
 10
121.335583
 20
104.117647
 30
0.0
 11
121.335583
 21
158.617647
 31
0.0
  0
LINE
  5
378
330
36A
100
AcDbEntity
  8
LAYERGROUP-1
  6
CONTINUOUS
 62
     6
100
AcDbLine
 10
113.835583
 20
118.617647
 30
0.0
 11
113.835583
 21
104.117647
 31
0.0
  0
LINE
  5
379
330
36A
100
AcDbEntity
  8
GR1-1
  6
CONTINUOUS
 62
     6
100
AcDbLine
 10
127.067196
 20
168.457045
 30
0.0
 11
127.067196
 21
104.117647
 31
0.0
  0
LINE
  5
37A
330
36A
100
AcDbEntity
  8
LAYERGROUP-1
  6
CONTINUOUS
 62
     3
100
AcDbLine
 10
162.335583
 20
133.48605
 30
0.0
 11
162.335583
 21
104.117647
 31
0.0
  0
LINE
  5
37B
330
36A
100
AcDbEntity
  8
LAYERGROUP-1
  6
CONTINUOUS
 62
     3
100
AcDbLine
 10
164.835583
 20
118.617647
 30
0.0
 11
162.335583
 21
118.617647
 31
0.0
  0
LINE
  5
37C
330
36A
100
AcDbEntity
  8
LAYERGROUP-1
  6
CONTINUOUS
 62
     3
100
AcDbLine
 10
165.335583
 20
104.117647
 30
0.0
 11
165.335583
 21
118.117647
 31
0.0
  0
LINE
  5
37D
330
36A
100
AcDbEntity
  8
LAYERGROUP-1
  6
CONTINUOUS
 62
     3
100
AcDbLine
 10
165.335583
 20
118.117647
 30
0.0
 11
164.835583
 21
118.617647
 31
0.0
  0
ARC
  5
37E
330
36A
100
AcDbEntity
  8
LAYERGROUP-1
  6
CONTINUOUS
 62
     3
100
AcDbCircle
 10
159.335583
 20
133.48605
 30
0.0
 40
3.0
100
AcDbArc
 50
0.0
 51
47.911709
  0
LINE
  5
37F
330
36A
100
AcDbEntity
  8
LAYERGROUP-1
  6
CONTINUOUS
 62
     3
100
AcDbLine
 10
157.335583
 20
140.151253
 30
0.0
 11
161.346408
 21
135.712388
 31
0.0
  0
ARC
  5
380
330
36A
100
AcDbEntity
  8
GR1-1
  6
CONTINUOUS
 62
     3
100
AcDbCircle
 10
150.118705
 20
167.117647
 30
0.0
 40
2.0
100
AcDbArc
 50
30.0
 51
90.0
  0
LINE
  5
381
330
36A
100
AcDbEntity
  8
GR1-1
  6
CONTINUOUS
 62
     3
100
AcDbLine
 10
151.850756
 20
168.117647
 30
0.0
 11
157.335583
 21
158.617647
 31
0.0
  0
LINE
  5
382
330
36A
100
AcDbEntity
  8
LAYERGROUP-1
  6
CONTINUOUS
 62
     3
100
AcDbLine
 10
157.335583
 20
104.117647
 30
0.0
 11
157.335583
 21
158.617647
 31
0.0
  0
LINE
  5
383
330
36A
100
AcDbEntity
  8
LAYERGROUP-1
  6
CONTINUOUS
 62
     6
100
AcDbLine
 10
164.835583
 20
118.617647
 30
0.0
 11
164.835583
 21
104.117647
 31
0.0
  0
LINE
  5
384
330
36A
100
AcDbEntity
  8
GR1-1
  6
CONTINUOUS
 62
     6
100
AcDbLine
 10
151.60397
 20
168.457045
 30
0.0
 11
151.60397
 21
104.117647
 31
0.0
  0
LINE
  5
385
330
36A
100
AcDbEntity
  8
LAYERGROUP-1
  6
CONTINUOUS
 62
     3
100
AcDbLine
 10
116.335583
 20
74.749245
 30
0.0
 11
116.335583
 21
104.117647
 31
0.0
  0
LINE
  5
386
330
36A
100
AcDbEntity
  8
LAYERGROUP-1
  6
CONTINUOUS
 62
     3
100
AcDbLine
 10
113.835583
 20
89.617647
 30
0.0
 11
116.335583
 21
89.617647
 31
0.0
  0
LINE
  5
387
330
36A
100
AcDbEntity
  8
LAYERGROUP-1
  6
CONTINUOUS
 62
     3
100
AcDbLine
 10
113.335583
 20
104.117647
 30
0.0
 11
113.335583
 21
90.117647
 31
0.0
  0
LINE
  5
388
330
36A
100
AcDbEntity
  8
LAYERGROUP-1
  6
CONTINUOUS
 62
     3
100
AcDbLine
 10
113.335583
 20
90.117647
 30
0.0
 11
113.835583
 21
89.617647
 31
0.0
  0
ARC
  5
389
330
36A
100
AcDbEntity
  8
LAYERGROUP-1
  6
CONTINUOUS
 62
     3
100
AcDbCircle
 10
119.335583
 20
74.749245
 30
0.0
 40
3.0
100
AcDbArc
 50
180.0
 51
227.911709
  0
LINE
  5
38A
330
36A
100
AcDbEntity
  8
LAYERGROUP-1
  6
CONTINUOUS
 62
     3
100
AcDbLine
 10
121.335583
 20
68.084041
 30
0.0
 11
117.324758
 21
72.522906
 31
0.0
  0
LINE
  5
38B
330
36A
100
AcDbEntity
  8
GR1-1
  6
CONTINUOUS
 62
     3
100
AcDbLine
 10
150.118705
 20
39.117647
 30
0.0
 11
128.552462
 21
39.117647
 31
0.0
  0
ARC
  5
38C
330
36A
100
AcDbEntity
  8
GR1-1
  6
CONTINUOUS
 62
     3
100
AcDbCircle
 10
128.552462
 20
41.117647
 30
0.0
 40
2.0
100
AcDbArc
 50
210.0
 51
270.0
  0
LINE
  5
38D
330
36A
100
AcDbEntity
  8
GR1-1
  6
CONTINUOUS
 62
     3
100
AcDbLine
 10
126.820411
 20
40.117647
 30
0.0
 11
121.335583
 21
49.617647
 31
0.0
  0
LINE
  5
38E
330
36A
100
AcDbEntity
  8
LAYERGROUP-1
  6
CONTINUOUS
 62
     3
100
AcDbLine
 10
121.335583
 20
104.117647
 30
0.0
 11
121.335583
 21
49.617647
 31
0.0
  0
LINE
  5
38F
330
36A
100
AcDbEntity
  8
LAYERGROUP-1
  6
CONTINUOUS
 62
     6
100
AcDbLine
 10
113.835583
 20
89.617647
 30
0.0
 11
113.835583
 21
104.117647
 31
0.0
  0
LINE
  5
390
330
36A
100
AcDbEntity
  8
GR1-1
  6
CONTINUOUS
 62
     6
100
AcDbLine
 10
127.067196
 20
39.778249
 30
0.0
 11
127.067196
 21
104.117647
 31
0.0
  0
LINE
  5
391
330
36A
100
AcDbEntity
  8
LAYERGROUP-1
  6
CONTINUOUS
 62
     3
100
AcDbLine
 10
162.335583
 20
74.749245
 30
0.0
 11
162.335583
 21
104.117647
 31
0.0
  0
LINE
  5
392
330
36A
100
AcDbEntity
  8
LAYERGROUP-1
  6
CONTINUOUS
 62
     3
100
AcDbLine
 10
164.835583
 20
89.617647
 30
0.0
 11
162.335583
 21
89.617647
 31
0.0
  0
LINE
  5
393
330
36A
100
AcDbEntity
  8
LAYERGROUP-1
  6
CONTINUOUS
 62
     3
100
AcDbLine
 10
165.335583
 20
104.117647
 30
0.0
 11
165.335583
 21
90.117647
 31
0.0
  0
LINE
  5
394
330
36A
100
AcDbEntity
  8
LAYERGROUP-1
  6
CONTINUOUS
 62
     3
100
AcDbLine
 10
165.335583
 20
90.117647
 30
0.0
 11
164.835583
 21
89.617647
 31
0.0
  0
ARC
  5
395
330
36A
100
AcDbEntity
  8
LAYERGROUP-1
  6
CONTINUOUS
 62
     3
100
AcDbCircle
 10
159.335583
 20
74.749245
 30
0.0
 40
3.0
100
AcDbArc
 50
312.088291
 51
360.0
  0
LINE
  5
396
330
36A
100
AcDbEntity
  8
LAYERGROUP-1
  6
CONTINUOUS
 62
     3
100
AcDbLine
 10
157.335583
 20
68.084041
 30
0.0
 11
161.346408
 21
72.522906
 31
0.0
  0
ARC
  5
397
330
36A
100
AcDbEntity
  8
GR1-1
  6
CONTINUOUS
 62
     3
100
AcDbCircle
 10
150.118705
 20
41.117647
 30
0.0
 40
2.0
100
AcDbArc
 50
270.0
 51
330.0
  0
LINE
  5
398
330
36A
100
AcDbEntity
  8
GR1-1
  6
CONTINUOUS
 62
     3
100
AcDbLine
 10
151.850756
 20
40.117647
 30
0.0
 11
157.335583
 21
49.617647
 31
0.0
  0
LINE
  5
399
330
36A
100
AcDbEntity
  8
LAYERGROUP-1
  6
CONTINUOUS
 62
     3
100
AcDbLine
 10
157.335583
 20
104.117647
 30
0.0
 11
157.335583
 21
49.617647
 31
0.0
  0
LINE
  5
39A
330
36A
100
AcDbEntity
  8
LAYERGROUP-1
  6
CONTINUOUS
 62
     6
100
AcDbLine
 10
164.835583
 20
89.617647
 30
0.0
 11
164.835583
 21
104.117647
 31
0.0
  0
LINE
  5
39B
330
36A
100
AcDbEntity
  8
GR1-1
  6
CONTINUOUS
 62
     6
100
AcDbLine
 10
151.60397
 20
39.778249
 30
0.0
 11
151.60397
 21
104.117647
 31
0.0
  0
ENDBLK
  5
36C
330
36A
100
AcDbEntity
  8
0
100
AcDbBlockEnd
  0
BLOCK
  5
39E
330
39D
100
AcDbEntity
  8
0
100
AcDbBlockBegin
  2
*D35
 70
     1
 71
     0
 10
0.0
 20
0.0
 30
0.0
  3
*D35
  1

  0
TEXT
  5
3A0
330
39D
100
AcDbEntity
  8
LAYERGROUP-1
  6
CONTINUOUS
 62
     7
100
AcDbText
 10
136.335571
 20
28.747864
 30
0.0
 40
4.0
  1
36
 41
0.851351
  7
FX_VECTOR
 72
     5
 11
142.335571
 21
28.747864
 31
0.0
100
AcDbText
  0
LINE
  5
3A1
330
39D
100
AcDbEntity
  8
LAYERGROUP-1
  6
CONTINUOUS
 62
     7
100
AcDbLine
 10
121.335583
 20
27.747863
 30
0.0
 11
157.335583
 21
27.747863
 31
0.0
  0
INSERT
  5
3A2
330
39D
100
AcDbEntity
  8
LAYERGROUP-1
  6
CONTINUOUS
 62
     7
100
AcDbBlockReference
  2
FXTIP_ARROW_S
 10
121.335583
 20
27.747863
 30
0.0
 41
4.0
 42
4.0
 50
180.0
  0
INSERT
  5
3A3
330
39D
100
AcDbEntity
  8
LAYERGROUP-1
  6
CONTINUOUS
 62
     7
100
AcDbBlockReference
  2
FXTIP_ARROW_E
 10
157.335583
 20
27.747863
 30
0.0
 41
4.0
 42
4.0
 50
360.0
  0
LINE
  5
3A4
330
39D
100
AcDbEntity
  8
LAYERGROUP-1
  6
CONTINUOUS
 62
     7
100
AcDbLine
 10
121.335583
 20
51.617647
 30
0.0
 11
121.335583
 21
26.747863
 31
0.0
  0
LINE
  5
3A5
330
39D
100
AcDbEntity
  8
LAYERGROUP-1
  6
CONTINUOUS
 62
     7
100
AcDbLine
 10
157.335583
 20
51.617647
 30
0.0
 11
157.335583
 21
26.747863
 31
0.0
  0
ENDBLK
  5
39F
330
39D
100
AcDbEntity
  8
0
100
AcDbBlockEnd
  0
BLOCK
  5
3A8
330
3A7
100
AcDbEntity
  8
0
100
AcDbBlockBegin
  2
*D36
 70
     1
 71
     0
 10
0.0
 20
0.0
 30
0.0
  3
*D36
  1

  0
TEXT
  5
3AA
330
3A7
100
AcDbEntity
  8
LAYERGROUP-1
  6
CONTINUOUS
 62
     7
100
AcDbText
 10
136.335571
 20
14.746613
 30
0.0
 40
4.0
  1
52
 41
0.851351
  7
FX_VECTOR
 72
     5
 11
142.335571
 21
14.746613
 31
0.0
100
AcDbText
  0
LINE
  5
3AB
330
3A7
100
AcDbEntity
  8
LAYERGROUP-1
  6
CONTINUOUS
 62
     7
100
AcDbLine
 10
113.335583
 20
13.746593
 30
0.0
 11
165.335583
 21
13.746593
 31
0.0
  0
INSERT
  5
3AC
330
3A7
100
AcDbEntity
  8
LAYERGROUP-1
  6
CONTINUOUS
 62
     7
100
AcDbBlockReference
  2
FXTIP_ARROW_S
 10
113.335583
 20
13.746593
 30
0.0
 41
4.0
 42
4.0
 50
180.0
  0
INSERT
  5
3AD
330
3A7
100
AcDbEntity
  8
LAYERGROUP-1
  6
CONTINUOUS
 62
     7
100
AcDbBlockReference
  2
FXTIP_ARROW_E
 10
165.335583
 20
13.746593
 30
0.0
 41
4.0
 42
4.0
 50
360.0
  0
LINE
  5
3AE
330
3A7
100
AcDbEntity
  8
LAYERGROUP-1
  6
CONTINUOUS
 62
     7
100
AcDbLine
 10
113.335583
 20
89.117647
 30
0.0
 11
113.335583
 21
12.746593
 31
0.0
  0
LINE
  5
3AF
330
3A7
100
AcDbEntity
  8
LAYERGROUP-1
  6
CONTINUOUS
 62
     7
100
AcDbLine
 10
165.335583
 20
89.117647
 30
0.0
 11
165.335583
 21
12.746593
 31
0.0
  0
ENDBLK
  5
3A9
330
3A7
100
AcDbEntity
  8
0
100
AcDbBlockEnd
  0
ENDSEC
  0
SECTION
  2
ENTITIES
  0
INSERT
  5
AB
330
1F
100
AcDbEntity
  8
0
100
AcDbBlockReference
  2
BLKF021
 10
0.0
 20
0.0
 30
0.0
  0
TEXT
  5
D7
330
1F
100
AcDbEntity
  8
}}ﾊﾊGG血CCТ
  6
CONTINUOUS
 62
     7
100
AcDbText
 10
329.0
 20
12.0
 30
0.0
 40
6.0
  1
ＷＫ－１３０　ＵＢ　ＳＲ
 41
0.788732
  7
FX_VECTOR
 72
     5
 11
377.0
 21
12.0
 31
0.0
100
AcDbText
  0
TEXT
  5
D8
330
1F
100
AcDbEntity
  8
}}ﾊﾊGG血CCТ
  6
CONTINUOUS
 62
     7
100
AcDbText
 10
428.999969
 20
12.0
 30
0.0
 40
6.0
  1
W36B1BEA-C01
 41
0.697095
  7
FX_VECTOR
 72
     5
 11
476.999969
 21
12.0
 31
0.0
100
AcDbText
  0
DIMENSION
  5
D9
330
1F
100
AcDbEntity
  8
GR1-1
100
AcDbDimension
  2
*D22
 10
79.700585
 20
169.117643
 30
0.0
 11
78.700577
 21
103.837646
 31
0.0
 70
    33
  3
FXDIMINFO
100
AcDbAlignedDimension
 13
139.335583
 23
39.117651
 33
0.0
 14
139.335583
 24
169.117643
 34
0.0
1001
ACAD
1000
DSTYLE
1002
{
1070
     7
1000
FXTIP_ARROW_E
1070
     6
1000
FXTIP_ARROW_S
1070
   173
1070
     1
1002
}
  0
DIMENSION
  5
E3
330
1F
100
AcDbEntity
  8
GR1-1
100
AcDbDimension
  2
*D23
 10
433.752841
 20
399.49793
 30
0.0
 11
364.752838
 21
400.497925
 31
0.0
 70
    33
  3
FXDIMINFO
100
AcDbAlignedDimension
 13
295.752841
 23
352.617647
 33
0.0
 14
433.752841
 24
352.617647
 34
0.0
1001
ACAD
1000
DSTYLE
1002
{
1070
     7
1000
FXTIP_ARROW_E
1070
     6
1000
FXTIP_ARROW_S
1070
   173
1070
     1
1002
}
  0
DIMENSION
  5
ED
330
1F
100
AcDbEntity
  8
GR1-1
100
AcDbDimension
  2
*D24
 10
414.752841
 20
389.49793
 30
0.0
 11
364.752838
 21
390.497925
 31
0.0
 70
    33
  3
FXDIMINFO
100
AcDbAlignedDimension
 13
314.752841
 23
356.617647
 33
0.0
 14
414.752841
 24
356.617647
 34
0.0
1001
ACAD
1000
DSTYLE
1002
{
1070
     7
1000
FXTIP_ARROW_E
1070
     6
1000
FXTIP_ARROW_S
1070
   173
1070
     1
1002
}
  0
DIMENSION
  5
F7
330
1F
100
AcDbEntity
  8
GR1-1
100
AcDbDimension
  2
*D25
 10
413.252841
 20
379.49793
 30
0.0
 11
364.752838
 21
380.497925
 31
0.0
 70
    33
  3
FXDIMINFO
100
AcDbAlignedDimension
 13
316.252841
 23
355.505146
 33
0.0
 14
413.252841
 24
355.505146
 34
0.0
1001
ACAD
1000
DSTYLE
1002
{
1070
     7
1000
FXTIP_ARROW_E
1070
     6
1000
FXTIP_ARROW_S
1070
   173
1070
     1
1002
}
  0
DIMENSION
  5
101
330
1F
100
AcDbEntity
  8
GR1-1
100
AcDbDimension
  2
*D26
 10
463.696029
 20
276.617647
 30
0.0
 11
462.696014
 21
323.117645
 31
0.0
 70
    32
  3
FXDIMINFO
100
AcDbAlignedDimension
 13
416.752841
 23
369.617647
 33
0.0
 14
415.320177
 24
276.617647
 34
0.0
 50
90.0
100
AcDbRotatedDimension
1001
ACAD
1000
DSTYLE
1002
{
1070
     7
1000
FXTIP_ARROW_E
1070
     6
1000
FXTIP_ARROW_S
1070
   173
1070
     1
1002
}
  0
DIMENSION
  5
10B
330
1F
100
AcDbEntity
  8
GR1-1
100
AcDbDimension
  2
*D27
 10
453.696029
 20
295.117647
 30
0.0
 11
452.696014
 21
323.117645
 31
0.0
 70
    33
  3
FXDIMINFO
100
AcDbAlignedDimension
 13
420.660668
 23
351.117647
 33
0.0
 14
420.660668
 24
295.117647
 34
0.0
1001
ACAD
1000
DSTYLE
1002
{
1070
     7
1000
FXTIP_ARROW_E
1070
     6
1000
FXTIP_ARROW_S
1070
   173
1070
     1
1002
}
  0
DIMENSION
  5
115
330
1F
100
AcDbEntity
  8
GR1-1
100
AcDbDimension
  2
*D28
 10
443.696029
 20
296.617647
 30
0.0
 11
442.696014
 21
323.117645
 31
0.0
 70
    33
  3
FXDIMINFO
100
AcDbAlignedDimension
 13
419.160668
 23
349.617647
 33
0.0
 14
419.160668
 24
296.617647
 34
0.0
1001
ACAD
1000
DSTYLE
1002
{
1070
     7
1000
FXTIP_ARROW_E
1070
     6
1000
FXTIP_ARROW_S
1070
   173
1070
     1
1002
}
  0
DIMENSION
  5
11F
330
1F
100
AcDbEntity
  8
GR1-1
100
AcDbDimension
  2
*D29
 10
453.765642
 20
39.117647
 30
0.0
 11
452.765625
 21
127.617645
 31
0.0
 70
    32
  3
FXDIMINFO
100
AcDbAlignedDimension
 13
428.252841
 23
216.117647
 33
0.0
 14
364.752841
 24
39.117647
 34
0.0
 50
90.0
100
AcDbRotatedDimension
1001
ACAD
1000
DSTYLE
1002
{
1070
     7
1000
FXTIP_ARROW_E
1070
     6
1000
FXTIP_ARROW_S
1070
   173
1070
     1
1002
}
  0
DIMENSION
  5
129
330
1F
100
AcDbEntity
  8
GR1-1
100
AcDbDimension
  2
*D30
 10
443.765642
 20
216.117647
 30
0.0
 11
442.765625
 21
160.117645
 31
0.0
 70
    33
  3
FXDIMINFO
100
AcDbAlignedDimension
 13
433.625062
 23
104.117647
 33
0.0
 14
433.625062
 24
216.117647
 34
0.0
1001
ACAD
1000
DSTYLE
1002
{
1070
     7
1000
FXTIP_ARROW_E
1070
     6
1000
FXTIP_ARROW_S
1070
   173
1070
     1
1002
}
  0
DIMENSION
  5
132
330
1F
100
AcDbEntity
  8
GR1-1
100
AcDbDimension
  2
*D31
 10
293.741239
 20
379.907424
 30
0.0
 11
289.14502
 21
376.725433
 31
0.0
 70
    33
  3
FXDIMINFO
100
AcDbAlignedDimension
 13
310.863753
 23
347.22856
 33
0.0
 14
318.641928
 24
355.006734
 34
0.0
1001
ACAD
1000
DSTYLE
1002
{
1070
     7
1000
FXTIP_ARROW_E
1070
     6
1000
FXTIP_ARROW_S
1070
   173
1070
     1
1002
}
  0
LINE
  5
13C
330
1F
100
AcDbEntity
  8
GR1-1
  6
CONTINUOUS
 62
     3
100
AcDbLine
 10
95.535583
 20
110.114029
 30
0.0
 11
96.535583
 21
111.114029
 31
0.0
  0
LINE
  5
13D
330
1F
100
AcDbEntity
  8
GR1-1
  6
CONTINUOUS
 62
     3
100
AcDbLine
 10
96.535583
 20
111.114029
 30
0.0
 11
97.335583
 21
111.114029
 31
0.0
  0
LINE
  5
13E
330
1F
100
AcDbEntity
  8
GR1-1
  6
CONTINUOUS
 62
     3
100
AcDbLine
 10
98.318064
 20
110.4685
 30
0.0
 11
104.353103
 21
110.4685
 31
0.0
  0
ARC
  5
13F
330
1F
100
AcDbEntity
  8
GR1-1
  6
CONTINUOUS
 62
     3
100
AcDbCircle
 10
99.712773
 20
113.643927
 30
0.0
 40
5.622810046529507
100
AcDbArc
 50
-34.384247
 51
34.384247
  0
LINE
  5
140
330
1F
100
AcDbEntity
  8
GR1-1
  6
CONTINUOUS
 62
     3
100
AcDbLine
 10
104.353103
 20
116.819353
 30
0.0
 11
105.335583
 21
115.117647
 31
0.0
  0
LINE
  5
141
330
1F
100
AcDbEntity
  8
GR1-1
  6
CONTINUOUS
 62
     3
100
AcDbLine
 10
105.335583
 20
115.617647
 30
0.0
 11
105.335583
 21
92.617647
 31
0.0
  0
ARC
  5
142
330
1F
100
AcDbEntity
  8
GR1-1
  6
CONTINUOUS
 62
     3
100
AcDbCircle
 10
105.835583
 20
92.617647
 30
0.0
 40
0.5
100
AcDbArc
 50
180.0
 51
270.0
  0
LINE
  5
143
330
1F
100
AcDbEntity
  8
GR1-1
  6
CONTINUOUS
 62
     3
100
AcDbLine
 10
105.835583
 20
92.117647
 30
0.0
 11
108.335583
 21
92.117647
 31
0.0
  0
ARC
  5
144
330
1F
100
AcDbEntity
  8
GR1-1
  6
CONTINUOUS
 62
     3
100
AcDbCircle
 10
108.335583
 20
92.617647
 30
0.0
 40
0.5
100
AcDbArc
 50
270.0
 51
360.0
  0
LINE
  5
145
330
1F
100
AcDbEntity
  8
GR1-1
  6
CONTINUOUS
 62
     3
100
AcDbLine
 10
108.835583
 20
92.917647
 30
0.0
 11
108.835583
 21
83.917647
 31
0.0
  0
LINE
  5
146
330
1F
100
AcDbEntity
  8
GR1-1
  6
CONTINUOUS
 62
     3
100
AcDbLine
 10
108.835583
 20
83.917647
 30
0.0
 11
112.035583
 21
83.917647
 31
0.0
  0
LINE
  5
147
330
1F
100
AcDbEntity
  8
GR1-1
  6
CONTINUOUS
 62
     3
100
AcDbLine
 10
112.035583
 20
83.917647
 30
0.0
 11
112.035583
 21
203.117647
 31
0.0
  0
ARC
  5
148
330
1F
100
AcDbEntity
  8
GR1-1
  6
CONTINUOUS
 62
     3
100
AcDbCircle
 10
102.142484
 20
197.117647
 30
0.0
 40
6.0
100
AcDbArc
 50
90.0
 51
173.673131
  0
ARC
  5
149
330
1F
100
AcDbEntity
  8
GR1-1
  6
CONTINUOUS
 62
     3
100
AcDbCircle
 10
319.317278
 20
200.945285
 30
0.0
 40
223.1607164684276
100
AcDbArc
 50
180.812999
 51
186.387638
  0
LINE
  5
14A
330
1F
100
AcDbEntity
  8
GR1-1
  6
CONTINUOUS
 62
     3
100
AcDbLine
 10
97.541956
 20
176.117647
 30
0.0
 11
108.460732
 21
117.117647
 31
0.0
  0
LINE
  5
14B
330
1F
100
AcDbEntity
  8
GR1-1
  6
CONTINUOUS
 62
     3
100
AcDbLine
 10
105.935583
 20
117.117647
 30
0.0
 11
94.935583
 21
176.117647
 31
0.0
  0
LINE
  5
14C
330
1F
100
AcDbEntity
  8
GR1-1
  6
CONTINUOUS
 62
     3
100
AcDbLine
 10
98.94061
 20
203.117647
 30
0.0
 11
179.730556
 21
203.117647
 31
0.0
  0
LINE
  5
14D
330
1F
100
AcDbEntity
  8
GR1-1
  6
CONTINUOUS
 62
     3
100
AcDbLine
 10
185.835583
 20
203.117647
 30
0.0
 11
185.835583
 21
209.117647
 31
0.0
  0
ARC
  5
14E
330
1F
100
AcDbEntity
  8
GR1-1
  6
CONTINUOUS
 62
     3
100
AcDbCircle
 10
178.835583
 20
209.117647
 30
0.0
 40
7.0
100
AcDbArc
 50
0.0
 51
90.0
  0
LINE
  5
14F
330
1F
100
AcDbEntity
  8
GR1-1
  6
CONTINUOUS
 62
     3
100
AcDbLine
 10
178.835583
 20
216.117647
 30
0.0
 11
99.835583
 21
216.117647
 31
0.0
  0
ARC
  5
150
330
1F
100
AcDbEntity
  8
GR1-1
  6
CONTINUOUS
 62
     3
100
AcDbCircle
 10
99.835583
 20
209.117647
 30
0.0
 40
7.0
100
AcDbArc
 50
90.0
 51
180.0
  0
LINE
  5
151
330
1F
100
AcDbEntity
  8
GR1-1
  6
CONTINUOUS
 62
     3
100
AcDbLine
 10
92.835583
 20
209.117647
 30
0.0
 11
92.835583
 21
203.117647
 31
0.0
  0
ARC
  5
152
330
1F
100
AcDbEntity
  8
GR1-1
  6
CONTINUOUS
 62
     3
100
AcDbCircle
 10
266.639136
 20
203.054035
 30
0.0
 40
173.8035646594801
100
AcDbArc
 50
179.97903
 51
188.91574
  0
ARC
  5
153
330
1F
100
AcDbEntity
  8
GR1-1
  6
CONTINUOUS
 62
     3
100
AcDbCircle
 10
98.94061
 20
197.117647
 30
0.0
 40
6.0
100
AcDbArc
 50
90.0
 51
182.027376
  0
LINE
  5
154
330
1F
100
AcDbEntity
  8
GR1-1
  6
CONTINUOUS
 62
     3
100
AcDbLine
 10
166.635583
 20
83.917647
 30
0.0
 11
169.835583
 21
83.917647
 31
0.0
  0
LINE
  5
155
330
1F
100
AcDbEntity
  8
GR1-1
  6
CONTINUOUS
 62
     3
100
AcDbLine
 10
169.835583
 20
83.917647
 30
0.0
 11
169.835583
 21
92.917647
 31
0.0
  0
LINE
  5
156
330
1F
100
AcDbEntity
  8
GR1-1
  6
CONTINUOUS
 62
     3
100
AcDbLine
 10
169.835583
 20
91.115838
 30
0.0
 11
172.835583
 21
91.115838
 31
0.0
  0
LINE
  5
157
330
1F
100
AcDbEntity
  8
GR1-1
  6
CONTINUOUS
 62
     3
100
AcDbLine
 10
172.835583
 20
91.115838
 30
0.0
 11
174.335583
 21
94.115838
 31
0.0
  0
LINE
  5
158
330
1F
100
AcDbEntity
  8
GR1-1
  6
CONTINUOUS
 62
     3
100
AcDbLine
 10
174.335583
 20
94.115838
 30
0.0
 11
174.335583
 21
114.115838
 31
0.0
  0
LINE
  5
159
330
1F
100
AcDbEntity
  8
GR1-1
  6
CONTINUOUS
 62
     3
100
AcDbLine
 10
174.335583
 20
114.115838
 30
0.0
 11
172.835583
 21
117.115838
 31
0.0
  0
LINE
  5
15A
330
1F
100
AcDbEntity
  8
GR1-1
  6
CONTINUOUS
 62
     3
100
AcDbLine
 10
172.835583
 20
117.115838
 30
0.0
 11
172.735583
 21
117.115838
 31
0.0
  0
ARC
  5
15B
330
1F
100
AcDbEntity
  8
GR1-1
  6
CONTINUOUS
 62
     3
100
AcDbCircle
 10
318.47069
 20
87.379762
 30
0.0
 40
148.7382367855211
100
AcDbArc
 50
168.466879
 51
177.866246
  0
LINE
  5
15C
330
1F
100
AcDbEntity
  8
GR1-1
  6
CONTINUOUS
 62
     3
100
AcDbLine
 10
166.635583
 20
83.917647
 30
0.0
 11
166.635583
 21
203.117647
 31
0.0
  0
ARC
  5
15D
330
1F
100
AcDbEntity
  8
GR1-1
  6
CONTINUOUS
 62
     3
100
AcDbCircle
 10
176.528683
 20
197.117647
 30
0.0
 40
6.0
100
AcDbArc
 50
6.326869
 51
90.0
  0
ARC
  5
15E
330
1F
100
AcDbEntity
  8
GR1-1
  6
CONTINUOUS
 62
     3
100
AcDbCircle
 10
179.730556
 20
197.117647
 30
0.0
 40
6.0
100
AcDbArc
 50
-2.027376
 51
90.0
  0
LINE
  5
15F
330
1F
100
AcDbEntity
  8
GR1-1
  6
CONTINUOUS
 62
     3
100
AcDbLine
 10
181.129211
 20
176.117647
 30
0.0
 11
170.210434
 21
117.117647
 31
0.0
  0
ARC
  5
160
330
1F
100
AcDbEntity
  8
GR1-1
  6
CONTINUOUS
 62
     3
100
AcDbCircle
 10
424.157957
 20
67.240195
 30
0.0
 40
258.799351352535
100
AcDbArc
 50
168.888067
 51
174.305881
  0
ARC
  5
161
330
1F
100
AcDbEntity
  8
GR1-1
  6
CONTINUOUS
 62
     3
100
AcDbCircle
 10
-145.48679
 20
67.240195
 30
0.0
 40
258.799351352535
100
AcDbArc
 50
5.694119
 51
11.111933
  0
LINE
  5
162
330
1F
100
AcDbEntity
  8
GR1-1
  6
CONTINUOUS
 62
     3
100
AcDbLine
 10
106.136069
 20
116.117647
 30
0.0
 11
105.835583
 21
116.117647
 31
0.0
  0
ARC
  5
163
330
1F
100
AcDbEntity
  8
GR1-1
  6
CONTINUOUS
 62
     3
100
AcDbCircle
 10
105.835583
 20
115.617647
 30
0.0
 40
0.5
100
AcDbArc
 50
90.0
 51
180.0
  0
LINE
  5
164
330
1F
100
AcDbEntity
  8
GR1-1
  6
CONTINUOUS
 62
     3
100
AcDbLine
 10
104.353103
 20
116.819353
 30
0.0
 11
98.318064
 21
116.819353
 31
0.0
  0
LINE
  5
165
330
1F
100
AcDbEntity
  8
GR1-1
  6
CONTINUOUS
 62
     3
100
AcDbLine
 10
98.318064
 20
116.819353
 30
0.0
 11
97.335583
 21
115.117647
 31
0.0
  0
LINE
  5
166
330
1F
100
AcDbEntity
  8
GR1-1
  6
CONTINUOUS
 62
     3
100
AcDbLine
 10
97.335583
 20
115.117647
 30
0.0
 11
97.335583
 21
93.117647
 31
0.0
  0
LINE
  5
167
330
1F
100
AcDbEntity
  8
GR1-1
  6
CONTINUOUS
 62
     3
100
AcDbLine
 10
97.335583
 20
93.117647
 30
0.0
 11
98.318064
 21
91.415941
 31
0.0
  0
LINE
  5
168
330
1F
100
AcDbEntity
  8
GR1-1
  6
CONTINUOUS
 62
     3
100
AcDbLine
 10
98.318064
 20
91.415941
 30
0.0
 11
104.353103
 21
91.415941
 31
0.0
  0
LINE
  5
169
330
1F
100
AcDbEntity
  8
GR1-1
  6
CONTINUOUS
 62
     3
100
AcDbLine
 10
104.353103
 20
91.415941
 30
0.0
 11
105.335583
 21
93.117647
 31
0.0
  0
ARC
  5
16A
330
1F
100
AcDbEntity
  8
GR1-1
  6
CONTINUOUS
 62
     3
100
AcDbCircle
 10
99.712773
 20
94.591368
 30
0.0
 40
5.622810046529507
100
AcDbArc
 50
-34.384247
 51
34.384247
  0
LINE
  5
16B
330
1F
100
AcDbEntity
  8
GR1-1
  6
CONTINUOUS
 62
     3
100
AcDbLine
 10
104.353103
 20
97.766794
 30
0.0
 11
98.318064
 21
97.766794
 31
0.0
  0
ARC
  5
16C
330
1F
100
AcDbEntity
  8
GR1-1
  6
CONTINUOUS
 62
     3
100
AcDbCircle
 10
102.958393
 20
94.591368
 30
0.0
 40
5.622810046529507
100
AcDbArc
 50
145.615753
 51
214.384247
  0
LINE
  5
16D
330
1F
100
AcDbEntity
  8
GR1-1
  6
CONTINUOUS
 62
     3
100
AcDbLine
 10
97.335583
 20
97.114029
 30
0.0
 11
96.535583
 21
97.114029
 31
0.0
  0
LINE
  5
16E
330
1F
100
AcDbEntity
  8
GR1-1
  6
CONTINUOUS
 62
     3
100
AcDbLine
 10
96.535583
 20
97.114029
 30
0.0
 11
95.535583
 21
98.114029
 31
0.0
  0
LINE
  5
16F
330
1F
100
AcDbEntity
  8
GR1-1
  6
CONTINUOUS
 62
     3
100
AcDbLine
 10
95.535583
 20
98.114029
 30
0.0
 11
95.535583
 21
110.114029
 31
0.0
  0
ARC
  5
170
330
1F
100
AcDbEntity
  8
GR1-1
  6
CONTINUOUS
 62
     3
100
AcDbCircle
 10
118.353103
 20
104.117647
 30
0.0
 40
21.01751962775467
100
AcDbArc
 50
162.412046
 51
197.587954
  0
ARC
  5
171
330
1F
100
AcDbEntity
  8
GR1-1
  6
CONTINUOUS
 62
     3
100
AcDbCircle
 10
84.318064
 20
104.117647
 30
0.0
 40
21.01751962775467
100
AcDbArc
 50
-17.587954
 51
17.587954
  0
ARC
  5
172
330
1F
100
AcDbEntity
  8
GR1-1
  6
CONTINUOUS
 62
     3
100
AcDbCircle
 10
102.958393
 20
113.643927
 30
0.0
 40
5.622810046529507
100
AcDbArc
 50
145.615753
 51
214.384247
  0
LINE
  5
173
330
1F
100
AcDbEntity
  8
GR1-1
  6
CONTINUOUS
 62
     3
100
AcDbLine
 10
112.035583
 20
114.114029
 30
0.0
 11
113.335583
 21
114.114029
 31
0.0
  0
LINE
  5
174
330
1F
100
AcDbEntity
  8
GR1-1
  6
CONTINUOUS
 62
     3
100
AcDbLine
 10
113.335583
 20
94.114029
 30
0.0
 11
112.035583
 21
94.114029
 31
0.0
  0
ARC
  5
175
330
1F
100
AcDbEntity
  8
GR1-1
  6
CONTINUOUS
 62
     3
100
AcDbCircle
 10
-39.799523
 20
87.379762
 30
0.0
 40
148.7382367855211
100
AcDbArc
 50
2.133754
 51
11.533121
  0
LINE
  5
176
330
1F
100
AcDbEntity
  8
GR1-1
  6
CONTINUOUS
 62
     3
100
AcDbLine
 10
172.735583
 20
117.117647
 30
0.0
 11
183.735583
 21
176.117647
 31
0.0
  0
ARC
  5
177
330
1F
100
AcDbEntity
  8
GR1-1
  6
CONTINUOUS
 62
     3
100
AcDbCircle
 10
12.03203
 20
203.054035
 30
0.0
 40
173.8035646594801
100
AcDbArc
 50
-8.91574
 51
0.02097
  0
ARC
  5
178
330
1F
100
AcDbEntity
  8
GR1-1
  6
CONTINUOUS
 62
     3
100
AcDbCircle
 10
-40.646112
 20
200.945285
 30
0.0
 40
223.1607164684276
100
AcDbArc
 50
353.612362
 51
359.187001
  0
LINE
  5
179
330
1F
100
AcDbEntity
  8
GR1-1
  6
CONTINUOUS
 62
     3
100
AcDbLine
 10
295.752841
 20
203.117647
 30
0.0
 11
295.752841
 21
210.617647
 31
0.0
  0
LINE
  5
17A
330
1F
100
AcDbEntity
  8
GR1-1
  6
CONTINUOUS
 62
     3
100
AcDbLine
 10
301.252841
 20
216.117647
 30
0.0
 11
337.443365
 21
216.117647
 31
0.0
  0
ARC
  5
17B
330
1F
100
AcDbEntity
  8
GR1-1
  6
CONTINUOUS
 62
     3
100
AcDbCircle
 10
337.443365
 20
208.117647
 30
0.0
 40
8.0
100
AcDbArc
 50
43.432537
 51
90.0
  0
LINE
  5
17C
330
1F
100
AcDbEntity
  8
GR1-1
  6
CONTINUOUS
 62
     3
100
AcDbLine
 10
343.252841
 20
213.617647
 30
0.0
 11
386.252841
 21
213.617647
 31
0.0
  0
LINE
  5
17D
330
1F
100
AcDbEntity
  8
GR1-1
  6
CONTINUOUS
 62
     3
100
AcDbLine
 10
392.062316
 20
216.117647
 30
0.0
 11
428.252841
 21
216.117647
 31
0.0
  0
LINE
  5
17E
330
1F
100
AcDbEntity
  8
GR1-1
  6
CONTINUOUS
 62
     3
100
AcDbLine
 10
433.752841
 20
210.617647
 30
0.0
 11
433.752841
 21
203.117647
 31
0.0
  0
ARC
  5
17F
330
1F
100
AcDbEntity
  8
GR1-1
  6
CONTINUOUS
 62
     3
100
AcDbCircle
 10
441.164934
 20
169.037386
 30
0.0
 40
34.87697414695938
100
AcDbArc
 50
102.270137
 51
161.476379
  0
ARC
  5
180
330
1F
100
AcDbEntity
  8
GR1-1
  6
CONTINUOUS
 62
     3
100
AcDbCircle
 10
1090.808253
 20
-44.737935
 30
0.0
 40
718.7890077620168
100
AcDbArc
 50
161.770405
 51
167.330023
  0
LINE
  5
181
330
1F
100
AcDbEntity
  8
GR1-1
  6
CONTINUOUS
 62
     3
100
AcDbLine
 10
385.865179
 20
99.731441
 30
0.0
 11
408.158247
 21
180.117647
 31
0.0
  0
LINE
  5
182
330
1F
100
AcDbEntity
  8
GR1-1
  6
CONTINUOUS
 62
     3
100
AcDbLine
 10
408.451181
 20
180.973467
 30
0.0
 11
409.51588
 21
183.691421
 31
0.0
  0
ARC
  5
183
330
1F
100
AcDbEntity
  8
GR1-1
  6
CONTINUOUS
 62
     3
100
AcDbCircle
 10
440.944884
 20
169.373342
 30
0.0
 40
34.50222660562747
100
AcDbArc
 50
160.353634
 51
161.855833
  0
ARC
  5
184
330
1F
100
AcDbEntity
  8
GR1-1
  6
CONTINUOUS
 62
     3
100
AcDbCircle
 10
392.062316
 20
208.117647
 30
0.0
 40
8.0
100
AcDbArc
 50
90.0
 51
136.567463
  0
ARC
  5
185
330
1F
100
AcDbEntity
  8
GR1-1
  6
CONTINUOUS
 62
     3
100
AcDbCircle
 10
428.252841
 20
210.617647
 30
0.0
 40
5.5
100
AcDbArc
 50
0.0
 51
90.0
  0
ARC
  5
186
330
1F
100
AcDbEntity
  8
GR1-1
  6
CONTINUOUS
 62
     3
100
AcDbCircle
 10
416.752841
 20
293.617647
 30
0.0
 40
17.0
100
AcDbArc
 50
270.0
 51
360.0
  0
LINE
  5
187
330
1F
100
AcDbEntity
  8
GR1-1
  6
CONTINUOUS
 62
     3
100
AcDbLine
 10
433.752841
 20
293.217647
 30
0.0
 11
433.752841
 21
353.017647
 31
0.0
  0
ARC
  5
188
330
1F
100
AcDbEntity
  8
GR1-1
  6
CONTINUOUS
 62
     3
100
AcDbCircle
 10
416.752841
 20
352.617647
 30
0.0
 40
17.0
100
AcDbArc
 50
0.0
 51
90.0
  0
LINE
  5
189
330
1F
100
AcDbEntity
  8
GR1-1
  6
CONTINUOUS
 62
     3
100
AcDbLine
 10
416.752841
 20
369.617647
 30
0.0
 11
415.320177
 21
369.617647
 31
0.0
  0
ARC
  5
18A
330
1F
100
AcDbEntity
  8
GR1-1
  6
CONTINUOUS
 62
     3
100
AcDbCircle
 10
415.320177
 20
352.617647
 30
0.0
 40
17.0
100
AcDbArc
 50
90.0
 51
125.0
  0
LINE
  5
18B
330
1F
100
AcDbEntity
  8
GR1-1
  6
CONTINUOUS
 62
     3
100
AcDbLine
 10
405.569377
 20
366.543232
 30
0.0
 11
390.385283
 21
355.911214
 31
0.0
  0
LINE
  5
18C
330
1F
100
AcDbEntity
  8
GR1-1
  6
CONTINUOUS
 62
     3
100
AcDbLine
 10
381.20806
 20
353.017647
 30
0.0
 11
348.297621
 21
353.017647
 31
0.0
  0
ARC
  5
18D
330
1F
100
AcDbEntity
  8
GR1-1
  6
CONTINUOUS
 62
     3
100
AcDbCircle
 10
353.252841
 20
353.517647
 30
0.0
 40
0.5
100
AcDbArc
 50
203.026998
 51
270.0
  0
ARC
  5
18E
330
1F
100
AcDbEntity
  8
GR1-1
  6
CONTINUOUS
 62
     3
100
AcDbCircle
 10
353.252841
 20
356.017647
 30
0.0
 40
0.5
100
AcDbArc
 50
90.0
 51
146.91535
  0
LINE
  5
18F
330
1F
100
AcDbEntity
  8
GR1-1
  6
CONTINUOUS
 62
     3
100
AcDbLine
 10
353.252841
 20
356.517647
 30
0.0
 11
376.252841
 21
356.517647
 31
0.0
  0
LINE
  5
190
330
1F
100
AcDbEntity
  8
GR1-1
  6
CONTINUOUS
 62
     3
100
AcDbLine
 10
376.752841
 20
356.017647
 30
0.0
 11
376.752841
 21
354.217647
 31
0.0
  0
ARC
  5
191
330
1F
100
AcDbEntity
  8
GR1-1
  6
CONTINUOUS
 62
     3
100
AcDbCircle
 10
376.252841
 20
356.017647
 30
0.0
 40
0.5
100
AcDbArc
 50
0.0
 51
90.0
  0
ARC
  5
192
330
1F
100
AcDbEntity
  8
GR1-1
  6
CONTINUOUS
 62
     3
100
AcDbCircle
 10
381.20806
 20
369.017647
 30
0.0
 40
16.0
100
AcDbArc
 50
270.0
 51
305.0
  0
ARC
  5
193
330
1F
100
AcDbEntity
  8
GR1-1
  6
CONTINUOUS
 62
     3
100
AcDbCircle
 10
413.252841
 20
349.617647
 30
0.0
 40
5.5
100
AcDbArc
 50
135.0
 51
315.0
  0
LINE
  5
194
330
1F
100
AcDbEntity
  8
GR1-1
  6
CONTINUOUS
 62
     3
100
AcDbLine
 10
417.141928
 20
345.72856
 30
0.0
 11
418.641928
 21
347.22856
 31
0.0
  0
ARC
  5
195
330
1F
100
AcDbEntity
  8
GR1-1
  6
CONTINUOUS
 62
     3
100
AcDbCircle
 10
414.752841
 20
351.117647
 30
0.0
 40
5.5
100
AcDbArc
 50
-45.0
 51
135.0
  0
LINE
  5
196
330
1F
100
AcDbEntity
  8
GR1-1
  6
CONTINUOUS
 62
     3
100
AcDbLine
 10
410.863753
 20
355.006734
 30
0.0
 11
409.363753
 21
353.506734
 31
0.0
  0
LINE
  5
197
330
1F
100
AcDbEntity
  8
GR1-1
  6
CONTINUOUS
 62
     3
100
AcDbLine
 10
417.141928
 20
300.506734
 30
0.0
 11
418.641928
 21
299.006734
 31
0.0
  0
ARC
  5
198
330
1F
100
AcDbEntity
  8
GR1-1
  6
CONTINUOUS
 62
     3
100
AcDbCircle
 10
413.252841
 20
296.617647
 30
0.0
 40
5.5
100
AcDbArc
 50
45.0
 51
225.0
  0
LINE
  5
199
330
1F
100
AcDbEntity
  8
GR1-1
  6
CONTINUOUS
 62
     3
100
AcDbLine
 10
409.363753
 20
292.72856
 30
0.0
 11
410.863753
 21
291.22856
 31
0.0
  0
ARC
  5
19A
330
1F
100
AcDbEntity
  8
GR1-1
  6
CONTINUOUS
 62
     3
100
AcDbCircle
 10
414.752841
 20
295.117647
 30
0.0
 40
5.5
100
AcDbArc
 50
-135.0
 51
45.0
  0
LINE
  5
19B
330
1F
100
AcDbEntity
  8
GR1-1
  6
CONTINUOUS
 62
     3
100
AcDbLine
 10
416.752841
 20
276.617647
 30
0.0
 11
415.320177
 21
276.617647
 31
0.0
  0
LINE
  5
19C
330
1F
100
AcDbEntity
  8
GR1-1
  6
CONTINUOUS
 62
     3
100
AcDbLine
 10
405.569377
 20
279.692062
 30
0.0
 11
390.385283
 21
290.32408
 31
0.0
  0
ARC
  5
19D
330
1F
100
AcDbEntity
  8
GR1-1
  6
CONTINUOUS
 62
     3
100
AcDbCircle
 10
381.20806
 20
277.217647
 30
0.0
 40
16.0
100
AcDbArc
 50
55.0
 51
90.0
  0
LINE
  5
19E
330
1F
100
AcDbEntity
  8
GR1-1
  6
CONTINUOUS
 62
     3
100
AcDbLine
 10
381.20806
 20
293.217647
 30
0.0
 11
348.297621
 21
293.217647
 31
0.0
  0
ARC
  5
19F
330
1F
100
AcDbEntity
  8
GR1-1
  6
CONTINUOUS
 62
     3
100
AcDbCircle
 10
348.297621
 20
277.217647
 30
0.0
 40
16.0
100
AcDbArc
 50
90.0
 51
125.0
  0
LINE
  5
1A0
330
1F
100
AcDbEntity
  8
GR1-1
  6
CONTINUOUS
 62
     3
100
AcDbLine
 10
339.120398
 20
290.32408
 30
0.0
 11
323.936304
 21
279.692062
 31
0.0
  0
LINE
  5
1A1
330
1F
100
AcDbEntity
  8
GR1-1
  6
CONTINUOUS
 62
     3
100
AcDbLine
 10
314.185504
 20
276.617647
 30
0.0
 11
312.752841
 21
276.617647
 31
0.0
  0
ARC
  5
1A2
330
1F
100
AcDbEntity
  8
GR1-1
  6
CONTINUOUS
 62
     3
100
AcDbCircle
 10
314.185504
 20
293.617647
 30
0.0
 40
17.0
100
AcDbArc
 50
270.0
 51
305.0
  0
LINE
  5
1A3
330
1F
100
AcDbEntity
  8
GR1-1
  6
CONTINUOUS
 62
     3
100
AcDbLine
 10
318.641928
 20
291.22856
 30
0.0
 11
320.141928
 21
292.72856
 31
0.0
  0
ARC
  5
1A4
330
1F
100
AcDbEntity
  8
GR1-1
  6
CONTINUOUS
 62
     3
100
AcDbCircle
 10
316.252841
 20
296.617647
 30
0.0
 40
5.5
100
AcDbArc
 50
-45.0
 51
135.0
  0
LINE
  5
1A5
330
1F
100
AcDbEntity
  8
GR1-1
  6
CONTINUOUS
 62
     3
100
AcDbLine
 10
312.363753
 20
300.506734
 30
0.0
 11
310.863753
 21
299.006734
 31
0.0
  0
ARC
  5
1A6
330
1F
100
AcDbEntity
  8
GR1-1
  6
CONTINUOUS
 62
     3
100
AcDbCircle
 10
314.752841
 20
295.117647
 30
0.0
 40
5.5
100
AcDbArc
 50
135.0
 51
315.0
  0
LINE
  5
1A7
330
1F
100
AcDbEntity
  8
GR1-1
  6
CONTINUOUS
 62
     3
100
AcDbLine
 10
295.752841
 20
293.217647
 30
0.0
 11
295.752841
 21
353.017647
 31
0.0
  0
LINE
  5
1A8
330
1F
100
AcDbEntity
  8
GR1-1
  6
CONTINUOUS
 62
     3
100
AcDbLine
 10
310.863753
 20
347.22856
 30
0.0
 11
312.363753
 21
345.72856
 31
0.0
  0
ARC
  5
1A9
330
1F
100
AcDbEntity
  8
GR1-1
  6
CONTINUOUS
 62
     3
100
AcDbCircle
 10
316.252841
 20
349.617647
 30
0.0
 40
5.5
100
AcDbArc
 50
-135.0
 51
45.0
  0
LINE
  5
1AA
330
1F
100
AcDbEntity
  8
GR1-1
  6
CONTINUOUS
 62
     3
100
AcDbLine
 10
320.141928
 20
353.506734
 30
0.0
 11
318.641928
 21
355.006734
 31
0.0
  0
ARC
  5
1AB
330
1F
100
AcDbEntity
  8
GR1-1
  6
CONTINUOUS
 62
     3
100
AcDbCircle
 10
314.752841
 20
351.117647
 30
0.0
 40
5.5
100
AcDbArc
 50
45.0
 51
225.0
  0
ARC
  5
1AC
330
1F
100
AcDbEntity
  8
GR1-1
  6
CONTINUOUS
 62
     3
100
AcDbCircle
 10
312.752841
 20
352.617647
 30
0.0
 40
17.0
100
AcDbArc
 50
90.0
 51
180.0
  0
LINE
  5
1AD
330
1F
100
AcDbEntity
  8
GR1-1
  6
CONTINUOUS
 62
     3
100
AcDbLine
 10
312.752841
 20
369.617647
 30
0.0
 11
314.185504
 21
369.617647
 31
0.0
  0
ARC
  5
1AE
330
1F
100
AcDbEntity
  8
GR1-1
  6
CONTINUOUS
 62
     3
100
AcDbCircle
 10
314.185504
 20
352.617647
 30
0.0
 40
17.0
100
AcDbArc
 50
55.0
 51
90.0
  0
LINE
  5
1AF
330
1F
100
AcDbEntity
  8
GR1-1
  6
CONTINUOUS
 62
     3
100
AcDbLine
 10
323.936304
 20
366.543232
 30
0.0
 11
339.120398
 21
355.911214
 31
0.0
  0
ARC
  5
1B0
330
1F
100
AcDbEntity
  8
GR1-1
  6
CONTINUOUS
 62
     3
100
AcDbCircle
 10
348.297621
 20
369.017647
 30
0.0
 40
16.0
100
AcDbArc
 50
235.0
 51
270.0
  0
ARC
  5
1B1
330
1F
100
AcDbEntity
  8
GR1-1
  6
CONTINUOUS
 62
     3
100
AcDbCircle
 10
301.252841
 20
210.617647
 30
0.0
 40
5.5
100
AcDbArc
 50
90.0
 51
180.0
  0
ARC
  5
1B2
330
1F
100
AcDbEntity
  8
GR1-1
  6
CONTINUOUS
 62
     3
100
AcDbCircle
 10
364.752841
 20
105.917647
 30
0.0
 40
22.0
100
AcDbArc
 50
196.331311
 51
343.668689
  0
CIRCLE
  5
1B3
330
1F
100
AcDbEntity
  8
GR1-1
  6
CONTINUOUS
 62
     3
100
AcDbCircle
 10
364.752841
 20
104.117647
 30
0.0
 40
13.0
  0
LINE
  5
1B4
330
1F
100
AcDbEntity
  8
GR1-1
  6
CONTINUOUS
 62
     3
100
AcDbLine
 10
354.751032
 20
288.717647
 30
0.0
 11
374.751032
 21
288.717647
 31
0.0
  0
LINE
  5
1B5
330
1F
100
AcDbEntity
  8
GR1-1
  6
CONTINUOUS
 62
     3
100
AcDbLine
 10
374.751032
 20
288.717647
 30
0.0
 11
376.398912
 21
289.541587
 31
0.0
  0
LINE
  5
1B6
330
1F
100
AcDbEntity
  8
GR1-1
  6
CONTINUOUS
 62
     3
100
AcDbLine
 10
354.751032
 20
288.717647
 30
0.0
 11
352.258376
 21
289.963975
 31
0.0
  0
ARC
  5
1B7
330
1F
100
AcDbEntity
  8
GR1-1
  6
CONTINUOUS
 62
     3
100
AcDbCircle
 10
415.320177
 20
293.617647
 30
0.0
 40
17.0
100
AcDbArc
 50
235.0
 51
270.0
  0
ARC
  5
1B8
330
1F
100
AcDbEntity
  8
GR1-1
  6
CONTINUOUS
 62
     3
100
AcDbCircle
 10
312.752841
 20
293.617647
 30
0.0
 40
17.0
100
AcDbArc
 50
180.0
 51
270.0
  0
TEXT
  5
1B9
330
1F
100
AcDbEntity
  8
GR1-1
  6
CONTINUOUS
 62
     7
100
AcDbText
 10
360.357147
 20
166.46051
 30
0.0
 40
9.394314
  1
K-130
 50
270.0
 41
0.69021
  7
FX_VECTOR
 72
     5
 11
360.357147
 21
134.349023
 31
0.0
100
AcDbText
  0
LINE
  5
1BA
330
1F
100
AcDbEntity
  8
GR1-1
  6
CENTER
 62
     6
100
AcDbLine
 10
139.335583
 20
36.99468
 30
0.0
 11
139.335583
 21
219.859272
 31
0.0
  0
LINE
  5
1BB
330
1F
100
AcDbEntity
  8
GR1-1
  6
CONTINUOUS
 62
     6
100
AcDbLine
 10
172.835583
 20
117.115838
 30
0.0
 11
172.835583
 21
91.115838
 31
0.0
  0
LINE
  5
1BC
330
1F
100
AcDbEntity
  8
GR1-1
  6
CENTER
 62
     6
100
AcDbLine
 10
179.637129
 20
104.117647
 30
0.0
 11
92.238611
 21
104.117647
 31
0.0
  0
LINE
  5
1BD
330
1F
100
AcDbEntity
  8
GR1-1
  6
CONTINUOUS
 62
     6
100
AcDbLine
 10
95.727201
 20
110.305647
 30
0.0
 11
97.335583
 21
110.305647
 31
0.0
  0
LINE
  5
1BE
330
1F
100
AcDbEntity
  8
GR1-1
  6
CONTINUOUS
 62
     6
100
AcDbLine
 10
96.535583
 20
111.114029
 30
0.0
 11
96.535583
 21
97.114029
 31
0.0
  0
LINE
  5
1BF
330
1F
100
AcDbEntity
  8
GR1-1
  6
CONTINUOUS
 62
     6
100
AcDbLine
 10
97.335583
 20
97.929647
 30
0.0
 11
95.727201
 21
97.929647
 31
0.0
  0
LINE
  5
1C0
330
1F
100
AcDbEntity
  8
GR1-1
  6
CENTER
 62
     6
100
AcDbLine
 10
294.334932
 20
104.117647
 30
0.0
 11
433.625062
 21
104.117647
 31
0.0
  0
LINE
  5
1C1
330
1F
100
AcDbEntity
  8
GR1-1
  6
CENTER
 62
     6
100
AcDbLine
 10
364.752841
 20
221.137801
 30
0.0
 11
364.752841
 21
31.708016
 31
0.0
  0
CIRCLE
  5
1C2
330
1F
100
AcDbEntity
  8
GR1-1
  6
CONTINUOUS
 62
     6
100
AcDbCircle
 10
364.752841
 20
104.117647
 30
0.0
 40
10.0
  0
LINE
  5
1C3
330
1F
100
AcDbEntity
  8
GR1-1
  6
CENTER
 62
     6
100
AcDbLine
 10
364.752841
 20
280.5387
 30
0.0
 11
364.752841
 21
371.212298
 31
0.0
  0
LINE
  5
1C4
330
1F
100
AcDbEntity
  8
GR1-1
  6
CONTINUOUS
 62
     6
100
AcDbLine
 10
343.252841
 20
351.117647
 30
0.0
 11
343.252841
 21
295.117647
 31
0.0
  0
LINE
  5
1C5
330
1F
100
AcDbEntity
  8
GR1-1
  6
CONTINUOUS
 62
     6
100
AcDbLine
 10
352.252841
 20
290.217647
 30
0.0
 11
375.846321
 21
290.217647
 31
0.0
  0
LINE
  5
1C6
330
1F
100
AcDbEntity
  8
GR1-1
  6
CONTINUOUS
 62
     6
100
AcDbLine
 10
386.252841
 20
295.117647
 30
0.0
 11
386.252841
 21
351.117647
 31
0.0
  0
LINE
  5
1C7
330
1F
100
AcDbEntity
  8
GR1-1
  6
CENTER
 62
     6
100
AcDbLine
 10
437.945895
 20
323.117647
 30
0.0
 11
290.766214
 21
323.117647
 31
0.0
  0
LINE
  5
1C8
330
1F
100
AcDbEntity
  8
GR1-1
  6
CENTER
 62
     6
100
AcDbLine
 10
382.252841
 20
170.433823
 30
0.0
 11
382.252841
 21
194.346637
 31
0.0
  0
LINE
  5
1C9
330
1F
100
AcDbEntity
  8
GR1-1
  6
CENTER
 62
     6
100
AcDbLine
 10
347.252841
 20
190.998843
 30
0.0
 11
347.252841
 21
181.723336
 31
0.0
  0
ARC
  5
1CA
330
1F
100
AcDbEntity
  8
GR1-1
  6
CONTINUOUS
 62
     3
100
AcDbCircle
 10
382.252841
 20
182.817647
 30
0.0
 40
8.1
100
AcDbArc
 50
-12.4771
 51
102.4771
  0
LINE
  5
1CB
330
1F
100
AcDbEntity
  8
GR1-1
  6
CONTINUOUS
 62
     3
100
AcDbLine
 10
380.502841
 20
190.726345
 30
0.0
 11
380.502841
 21
187.71433
 31
0.0
  0
ARC
  5
1CC
330
1F
100
AcDbEntity
  8
GR1-1
  6
CONTINUOUS
 62
     3
100
AcDbCircle
 10
382.252841
 20
182.817647
 30
0.0
 40
5.2
100
AcDbArc
 50
109.666118
 51
115.942369
  0
ARC
  5
1CD
330
1F
100
AcDbEntity
  8
GR1-1
  6
CONTINUOUS
 62
     3
100
AcDbCircle
 10
382.252841
 20
182.817647
 30
0.0
 40
8.1
100
AcDbArc
 50
228.118064
 51
282.4771
  0
LINE
  5
1CE
330
1F
100
AcDbEntity
  8
GR1-1
  6
CONTINUOUS
 62
     3
100
AcDbLine
 10
384.002841
 20
174.908949
 30
0.0
 11
384.002841
 21
177.920965
 31
0.0
  0
ARC
  5
1CF
330
1F
100
AcDbEntity
  8
GR1-1
  6
CONTINUOUS
 62
     3
100
AcDbCircle
 10
382.252841
 20
182.817647
 30
0.0
 40
5.2
100
AcDbArc
 50
289.666118
 51
323.903297
  0
LINE
  5
1D0
330
1F
100
AcDbEntity
  8
GR1-1
  6
CONTINUOUS
 62
     3
100
AcDbLine
 10
388.998622
 20
181.067647
 30
0.0
 11
390.161538
 21
181.067647
 31
0.0
  0
LINE
  5
1D1
330
1F
100
AcDbEntity
  8
GR1-1
  6
CONTINUOUS
 62
     6
100
AcDbLine
 10
385.570063
 20
112.917647
 30
0.0
 11
385.570063
 21
178.813145
 31
0.0
  0
LINE
  5
1D2
330
1F
100
AcDbEntity
  8
GR1-1
  6
CONTINUOUS
 62
     6
100
AcDbLine
 10
385.570063
 20
190.207237
 30
0.0
 11
385.570063
 21
209.617647
 31
0.0
  0
LINE
  5
1D3
330
1F
100
AcDbEntity
  8
GR1-1
  6
CENTER
 62
     6
100
AcDbLine
 10
393.900589
 20
182.817647
 30
0.0
 11
337.944604
 21
182.817647
 31
0.0
  0
LINE
  5
1D4
330
1F
100
AcDbEntity
  8
GR1-1
  6
CONTINUOUS
 62
     6
100
AcDbLine
 10
343.935618
 20
188.407462
 30
0.0
 11
343.935618
 21
209.617647
 31
0.0
  0
LINE
  5
1D5
330
1F
100
AcDbEntity
  8
GR1-1
  6
CONTINUOUS
 62
     6
100
AcDbLine
 10
343.935618
 20
170.984154
 30
0.0
 11
343.935618
 21
112.917647
 31
0.0
  0
ARC
  5
1D6
330
1F
100
AcDbEntity
  8
GR1-1
  6
CONTINUOUS
 62
     6
100
AcDbCircle
 10
347.252841
 20
182.817647
 30
0.0
 40
6.5
100
AcDbArc
 50
120.686607
 51
199.543588
  0
ARC
  5
1D7
330
1F
100
AcDbEntity
  8
GR1-1
  6
CONTINUOUS
 62
     3
100
AcDbCircle
 10
382.252841
 20
182.817647
 30
0.0
 40
5.0
100
AcDbArc
 50
-80.0
 51
100.0
  0
LINE
  5
1D8
330
1F
100
AcDbEntity
  8
GR1-1
  6
CONTINUOUS
 62
     3
100
AcDbLine
 10
381.3846
 20
187.741686
 30
0.0
 11
300.8846
 21
173.547364
 31
0.0
  0
LINE
  5
1D9
330
1F
100
AcDbEntity
  8
GR1-1
  6
CONTINUOUS
 62
     3
100
AcDbLine
 10
296.774413
 20
172.123325
 30
0.0
 11
306.731268
 21
172.123325
 31
0.0
  0
ARC
  5
1DA
330
1F
100
AcDbEntity
  8
GR1-1
  6
CONTINUOUS
 62
     3
100
AcDbCircle
 10
301.752841
 20
168.623325
 30
0.0
 40
5.0
100
AcDbArc
 50
44.427004
 51
135.572996
  0
ARC
  5
1DB
330
1F
100
AcDbEntity
  8
GR1-1
  6
CONTINUOUS
 62
     3
100
AcDbCircle
 10
299.602841
 20
168.623325
 30
0.0
 40
4.5
100
AcDbArc
 50
128.942441
 51
231.057559
  0
LINE
  5
1DC
330
1F
100
AcDbEntity
  8
GR1-1
  6
CONTINUOUS
 62
     3
100
AcDbLine
 10
296.752841
 20
165.123325
 30
0.0
 11
306.752841
 21
165.123325
 31
0.0
  0
ARC
  5
1DD
330
1F
100
AcDbEntity
  8
GR1-1
  6
CONTINUOUS
 62
     3
100
AcDbCircle
 10
303.902841
 20
168.623325
 30
0.0
 40
4.5
100
AcDbArc
 50
-51.057559
 51
51.057559
  0
LINE
  5
1DE
330
1F
100
AcDbEntity
  8
GR1-1
  6
CONTINUOUS
 62
     3
100
AcDbLine
 10
302.621081
 20
163.699286
 30
0.0
 11
383.121081
 21
177.893608
 31
0.0
  0
LINE
  5
1DF
330
1F
100
AcDbEntity
  8
GR1-1
  6
CONTINUOUS
 62
     3
100
AcDbLine
 10
385.32846
 20
178.875495
 30
0.0
 11
388.715018
 21
181.517647
 31
0.0
  0
LINE
  5
1E0
330
1F
100
AcDbEntity
  8
GR1-1
  6
CONTINUOUS
 62
     3
100
AcDbLine
 10
388.715018
 20
181.517647
 30
0.0
 11
389.510314
 21
181.517647
 31
0.0
  0
ARC
  5
1E1
330
1F
100
AcDbEntity
  8
GR1-1
  6
CONTINUOUS
 62
     3
100
AcDbCircle
 10
383.652841
 20
182.817647
 30
0.0
 40
6.0
100
AcDbArc
 50
-12.513325
 51
12.513325
  0
LINE
  5
1E2
330
1F
100
AcDbEntity
  8
GR1-1
  6
CONTINUOUS
 62
     3
100
AcDbLine
 10
389.510314
 20
184.117647
 30
0.0
 11
388.715018
 21
184.117647
 31
0.0
  0
LINE
  5
1E3
330
1F
100
AcDbEntity
  8
GR1-1
  6
CONTINUOUS
 62
     3
100
AcDbLine
 10
388.715018
 20
184.117647
 30
0.0
 11
385.32846
 21
186.759799
 31
0.0
  0
LINE
  5
1E4
330
1F
100
AcDbEntity
  8
GR1-1
  6
CONTINUOUS
 62
     3
100
AcDbLine
 10
386.728318
 20
185.667647
 30
0.0
 11
388.335297
 21
185.667647
 31
0.0
  0
LINE
  5
1E5
330
1F
100
AcDbEntity
  8
GR1-1
  6
CONTINUOUS
 62
     3
100
AcDbLine
 10
388.998622
 20
184.567647
 30
0.0
 11
389.591961
 21
184.567647
 31
0.0
  0
ARC
  5
1E6
330
1F
100
AcDbEntity
  8
GR1-1
  6
CONTINUOUS
 62
     3
100
AcDbCircle
 10
384.852841
 20
182.817647
 30
0.0
 40
4.5
100
AcDbArc
 50
16.791447
 51
39.29648
  0
ARC
  5
1E7
330
1F
100
AcDbEntity
  8
GR1-1
  6
CONTINUOUS
 62
     3
100
AcDbCircle
 10
383.852841
 20
182.817647
 30
0.0
 40
6.0
100
AcDbArc
 50
-16.957763
 51
16.957763
  0
LINE
  5
1E8
330
1F
100
AcDbEntity
  8
GR1-1
  6
CONTINUOUS
 62
     3
100
AcDbLine
 10
388.335297
 20
179.967647
 30
0.0
 11
386.728318
 21
179.967647
 31
0.0
  0
ARC
  5
1E9
330
1F
100
AcDbEntity
  8
GR1-1
  6
CONTINUOUS
 62
     3
100
AcDbCircle
 10
384.852841
 20
182.817647
 30
0.0
 40
4.5
100
AcDbArc
 50
320.70352
 51
343.208553
  0
ARC
  5
1EA
330
1F
100
AcDbEntity
  8
GR1-1
  6
CONTINUOUS
 62
     3
100
AcDbCircle
 10
301.752841
 20
168.623325
 30
0.0
 40
5.0
100
AcDbArc
 50
224.427004
 51
315.572996
  0
LINE
  5
1EB
330
1F
100
AcDbEntity
  8
GR1-1
  6
CENTER
 62
     6
100
AcDbLine
 10
293.188115
 20
168.623325
 30
0.0
 11
301.752841
 21
168.623325
 31
0.0
  0
LINE
  5
1EC
330
1F
100
AcDbEntity
  8
GR1-1
  6
CENTER
 62
     6
100
AcDbLine
 10
301.752841
 20
168.623325
 30
0.0
 11
382.252841
 21
182.817647
 31
0.0
  0
LINE
  5
1ED
330
1F
100
AcDbEntity
  8
GR1-1
  6
CENTER
 62
     6
100
AcDbLine
 10
301.752841
 20
178.639891
 30
0.0
 11
301.752841
 21
160.577762
 31
0.0
  0
LINE
  5
1EE
330
1F
100
AcDbEntity
  8
GR1-1
  6
CENTER
 62
     6
100
AcDbLine
 10
101.471066
 20
182.817647
 30
0.0
 11
191.507139
 21
182.817647
 31
0.0
  0
ARC
  5
1EF
330
1F
100
AcDbEntity
  8
GR1-1
  6
CONTINUOUS
 62
     3
100
AcDbCircle
 10
371.252841
 20
277.140224
 30
0.0
 40
16.0
100
AcDbArc
 50
272.0
 51
360.0
  0
LINE
  5
1F0
330
1F
100
AcDbEntity
  8
GR1-1
  6
CONTINUOUS
 62
     3
100
AcDbLine
 10
387.252841
 20
277.140224
 30
0.0
 11
387.252841
 21
286.746933
 31
0.0
  0
ARC
  5
1F1
330
1F
100
AcDbEntity
  8
GR1-1
  6
CONTINUOUS
 62
     3
100
AcDbCircle
 10
392.252841
 20
286.746933
 30
0.0
 40
5.0
100
AcDbArc
 50
144.552926
 51
180.0
  0
ARC
  5
1F2
330
1F
100
AcDbEntity
  8
GR1-1
  6
CONTINUOUS
 62
     3
100
AcDbCircle
 10
394.804536
 20
284.566806
 30
0.0
 40
8.348363966201021
100
AcDbArc
 50
136.460191
 51
142.519739
  0
ARC
  5
1F3
330
1F
100
AcDbEntity
  8
GR1-1
  6
CONTINUOUS
 62
     3
100
AcDbCircle
 10
377.952841
 20
294.817647
 30
0.0
 40
11.69999999999964
100
AcDbArc
 50
337.380135
 51
341.760536
  0
ARC
  5
1F4
330
1F
100
AcDbEntity
  8
GR1-1
  6
CONTINUOUS
 62
     3
100
AcDbCircle
 10
386.552841
 20
294.817647
 30
0.0
 40
11.69999999999964
100
AcDbArc
 50
187.85995
 51
202.619865
  0
ARC
  5
1F5
330
1F
100
AcDbEntity
  8
GR1-1
  6
CONTINUOUS
 62
     3
100
AcDbCircle
 10
369.701146
 20
284.566806
 30
0.0
 40
8.348363966201021
100
AcDbArc
 50
37.480261
 51
43.539809
  0
ARC
  5
1F6
330
1F
100
AcDbEntity
  8
GR1-1
  6
CONTINUOUS
 62
     3
100
AcDbCircle
 10
372.252841
 20
286.746933
 30
0.0
 40
5.0
100
AcDbArc
 50
0.0
 51
35.447074
  0
LINE
  5
1F7
330
1F
100
AcDbEntity
  8
GR1-1
  6
CONTINUOUS
 62
     3
100
AcDbLine
 10
377.252841
 20
286.746933
 30
0.0
 11
377.252841
 21
277.140224
 31
0.0
  0
LINE
  5
1F8
330
1F
100
AcDbEntity
  8
GR1-1
  6
CONTINUOUS
 62
     3
100
AcDbLine
 10
371.462237
 20
271.143879
 30
0.0
 11
312.194449
 21
269.074202
 31
0.0
  0
ARC
  5
1F9
330
1F
100
AcDbEntity
  8
GR1-1
  6
CONTINUOUS
 62
     3
100
AcDbCircle
 10
312.752841
 20
253.083949
 30
0.0
 40
16.0
100
AcDbArc
 50
92.0
 51
180.0
  0
LINE
  5
1FA
330
1F
100
AcDbEntity
  8
GR1-1
  6
CONTINUOUS
 62
     3
100
AcDbLine
 10
296.752841
 20
253.083949
 30
0.0
 11
296.752841
 21
250.117647
 31
0.0
  0
ARC
  5
1FB
330
1F
100
AcDbEntity
  8
GR1-1
  6
CONTINUOUS
 62
     3
100
AcDbCircle
 10
290.752841
 20
250.117647
 30
0.0
 40
6.0
100
AcDbArc
 50
335.276037
 51
360.0
  0
ARC
  5
1FC
330
1F
100
AcDbEntity
  8
GR1-1
  6
CONTINUOUS
 62
     3
100
AcDbCircle
 10
307.102841
 20
242.589201
 30
0.0
 40
12.0
100
AcDbArc
 50
155.276037
 51
180.0
  0
LINE
  5
1FD
330
1F
100
AcDbEntity
  8
GR1-1
  6
CONTINUOUS
 62
     3
100
AcDbLine
 10
295.102841
 20
242.589201
 30
0.0
 11
295.102841
 21
227.121399
 31
0.0
  0
ARC
  5
1FE
330
1F
100
AcDbEntity
  8
GR1-1
  6
CONTINUOUS
 62
     3
100
AcDbCircle
 10
299.102841
 20
227.121399
 30
0.0
 40
4.0
100
AcDbArc
 50
180.0
 51
228.509183
  0
ARC
  5
1FF
330
1F
100
AcDbEntity
  8
GR1-1
  6
CONTINUOUS
 62
     3
100
AcDbCircle
 10
301.752841
 20
230.117647
 30
0.0
 40
8.0
100
AcDbArc
 50
228.509183
 51
311.490817
  0
ARC
  5
200
330
1F
100
AcDbEntity
  8
GR1-1
  6
CONTINUOUS
 62
     3
100
AcDbCircle
 10
304.402841
 20
227.121399
 30
0.0
 40
4.0
100
AcDbArc
 50
311.490817
 51
360.0
  0
LINE
  5
201
330
1F
100
AcDbEntity
  8
GR1-1
  6
CONTINUOUS
 62
     3
100
AcDbLine
 10
308.402841
 20
227.121399
 30
0.0
 11
308.402841
 21
242.589201
 31
0.0
  0
ARC
  5
202
330
1F
100
AcDbEntity
  8
GR1-1
  6
CONTINUOUS
 62
     3
100
AcDbCircle
 10
296.402841
 20
242.589201
 30
0.0
 40
12.0
100
AcDbArc
 50
0.0
 51
24.723963
  0
ARC
  5
203
330
1F
100
AcDbEntity
  8
GR1-1
  6
CONTINUOUS
 62
     3
100
AcDbCircle
 10
312.752841
 20
250.117647
 30
0.0
 40
6.0
100
AcDbArc
 50
180.0
 51
204.723963
  0
LINE
  5
204
330
1F
100
AcDbEntity
  8
GR1-1
  6
CONTINUOUS
 62
     3
100
AcDbLine
 10
306.752841
 20
250.117647
 30
0.0
 11
306.752841
 21
253.083949
 31
0.0
  0
LINE
  5
205
330
1F
100
AcDbEntity
  8
GR1-1
  6
CONTINUOUS
 62
     3
100
AcDbLine
 10
312.543444
 20
259.080294
 30
0.0
 11
371.811232
 21
261.14997
 31
0.0
  0
ARC
  5
206
330
1F
100
AcDbEntity
  8
GR1-1
  6
CONTINUOUS
 62
     3
100
AcDbCircle
 10
371.252841
 20
277.140224
 30
0.0
 40
6.0
100
AcDbArc
 50
272.0
 51
360.0
  0
ARC
  5
207
330
1F
100
AcDbEntity
  8
GR1-1
  6
CONTINUOUS
 62
     3
100
AcDbCircle
 10
312.752841
 20
253.083949
 30
0.0
 40
6.0
100
AcDbArc
 50
92.0
 51
180.0
  0
LINE
  5
208
330
1F
100
AcDbEntity
  8
GR1-1
  6
CONTINUOUS
 62
     6
100
AcDbLine
 10
385.052841
 20
292.748831
 30
0.0
 11
385.052841
 21
289.317647
 31
0.0
  0
LINE
  5
209
330
1F
100
AcDbEntity
  8
GR1-1
  6
CONTINUOUS
 62
     6
100
AcDbLine
 10
385.052841
 20
289.317647
 30
0.0
 11
388.752841
 21
290.317647
 31
0.0
  0
LINE
  5
20A
330
1F
100
AcDbEntity
  8
GR1-1
  6
CONTINUOUS
 62
     6
100
AcDbLine
 10
388.752841
 20
290.317647
 30
0.0
 11
385.052841
 21
290.317647
 31
0.0
  0
LINE
  5
20B
330
1F
100
AcDbEntity
  8
GR1-1
  6
CONTINUOUS
 62
     6
100
AcDbLine
 10
379.452841
 20
290.317647
 30
0.0
 11
375.752841
 21
290.317647
 31
0.0
  0
LINE
  5
20C
330
1F
100
AcDbEntity
  8
GR1-1
  6
CONTINUOUS
 62
     6
100
AcDbLine
 10
375.752841
 20
290.317647
 30
0.0
 11
379.452841
 21
289.317647
 31
0.0
  0
LINE
  5
20D
330
1F
100
AcDbEntity
  8
GR1-1
  6
CONTINUOUS
 62
     6
100
AcDbLine
 10
379.452841
 20
289.317647
 30
0.0
 11
379.452841
 21
293.217647
 31
0.0
  0
ARC
  5
20E
330
1F
100
AcDbEntity
  8
GR1-1
  6
CENTER
 62
     6
100
AcDbCircle
 10
371.252841
 20
277.140224
 30
0.0
 40
11.0
100
AcDbArc
 50
272.0
 51
360.0
  0
LINE
  5
20F
330
1F
100
AcDbEntity
  8
GR1-1
  6
CENTER
 62
     6
100
AcDbLine
 10
371.636735
 20
266.146924
 30
0.0
 11
312.368946
 21
264.077248
 31
0.0
  0
ARC
  5
210
330
1F
100
AcDbEntity
  8
GR1-1
  6
CENTER
 62
     6
100
AcDbCircle
 10
312.752841
 20
253.083949
 30
0.0
 40
11.0
100
AcDbArc
 50
92.0
 51
180.0
  0
LINE
  5
211
330
1F
100
AcDbEntity
  8
GR1-1
  6
CENTER
 62
     6
100
AcDbLine
 10
301.752841
 20
253.083949
 30
0.0
 11
301.752841
 21
219.092647
 31
0.0
  0
LINE
  5
212
330
1F
100
AcDbEntity
  8
GR1-1
  6
CONTINUOUS
 62
     6
100
AcDbLine
 10
302.436539
 20
223.151116
 30
0.0
 11
301.752841
 21
224.335317
 31
0.0
  0
LINE
  5
213
330
1F
100
AcDbEntity
  8
GR1-1
  6
CONTINUOUS
 62
     6
100
AcDbLine
 10
301.752841
 20
224.335317
 30
0.0
 11
301.069142
 21
223.151116
 31
0.0
  0
LINE
  5
214
330
1F
100
AcDbEntity
  8
GR1-1
  6
CONTINUOUS
 62
     6
100
AcDbLine
 10
300.02079
 20
223.335317
 30
0.0
 11
298.866089
 21
225.335317
 31
0.0
  0
LINE
  5
215
330
1F
100
AcDbEntity
  8
GR1-1
  6
CONTINUOUS
 62
     6
100
AcDbLine
 10
298.866089
 20
225.335317
 30
0.0
 11
300.02079
 21
227.335317
 31
0.0
  0
LINE
  5
216
330
1F
100
AcDbEntity
  8
GR1-1
  6
CONTINUOUS
 62
     6
100
AcDbLine
 10
300.02079
 20
227.335317
 30
0.0
 11
301.17549
 21
225.335317
 31
0.0
  0
LINE
  5
217
330
1F
100
AcDbEntity
  8
GR1-1
  6
CONTINUOUS
 62
     6
100
AcDbLine
 10
301.17549
 20
225.335317
 30
0.0
 11
300.02079
 21
223.335317
 31
0.0
  0
LINE
  5
218
330
1F
100
AcDbEntity
  8
GR1-1
  6
CONTINUOUS
 62
     6
100
AcDbLine
 10
298.541324
 20
223.897827
 30
0.0
 11
298.288739
 21
224.335317
 31
0.0
  0
LINE
  5
219
330
1F
100
AcDbEntity
  8
GR1-1
  6
CONTINUOUS
 62
     6
100
AcDbLine
 10
298.288739
 20
224.335317
 30
0.0
 11
298.15901
 21
224.11062
 31
0.0
  0
LINE
  5
21A
330
1F
100
AcDbEntity
  8
GR1-1
  6
CONTINUOUS
 62
     6
100
AcDbLine
 10
297.336751
 20
224.686426
 30
0.0
 11
297.711389
 21
225.335317
 31
0.0
  0
LINE
  5
21B
330
1F
100
AcDbEntity
  8
GR1-1
  6
CONTINUOUS
 62
     6
100
AcDbLine
 10
297.711389
 20
225.335317
 30
0.0
 11
296.556688
 21
227.335317
 31
0.0
  0
LINE
  5
21C
330
1F
100
AcDbEntity
  8
GR1-1
  6
CONTINUOUS
 62
     6
100
AcDbLine
 10
296.556688
 20
227.335317
 30
0.0
 11
296.144734
 21
226.621792
 31
0.0
  0
ARC
  5
21D
330
1F
100
AcDbEntity
  8
GR1-1
  6
CONTINUOUS
 62
     6
100
AcDbCircle
 10
299.102841
 20
227.121399
 30
0.0
 40
3.0
100
AcDbArc
 50
180.0
 51
228.509183
  0
ARC
  5
21E
330
1F
100
AcDbEntity
  8
GR1-1
  6
CONTINUOUS
 62
     6
100
AcDbCircle
 10
301.752841
 20
230.117647
 30
0.0
 40
7.0
100
AcDbArc
 50
228.509183
 51
311.490817
  0
ARC
  5
21F
330
1F
100
AcDbEntity
  8
GR1-1
  6
CONTINUOUS
 62
     6
100
AcDbCircle
 10
304.402841
 20
227.121399
 30
0.0
 40
3.0
100
AcDbArc
 50
311.490817
 51
360.0
  0
LINE
  5
220
330
1F
100
AcDbEntity
  8
GR1-1
  6
CONTINUOUS
 62
     6
100
AcDbLine
 10
307.402841
 20
227.121399
 30
0.0
 11
307.402841
 21
245.423618
 31
0.0
  0
ARC
  5
221
330
1F
100
AcDbEntity
  8
GR1-1
  6
CONTINUOUS
 62
     6
100
AcDbCircle
 10
295.502841
 20
243.877655
 30
0.0
 40
12.0
100
AcDbArc
 50
7.402
 51
31.332207
  0
LINE
  5
222
330
1F
100
AcDbEntity
  8
GR1-1
  6
CONTINUOUS
 62
     6
100
AcDbLine
 10
305.752841
 20
250.117647
 30
0.0
 11
297.752841
 21
250.117647
 31
0.0
  0
ARC
  5
223
330
1F
100
AcDbEntity
  8
GR1-1
  6
CONTINUOUS
 62
     6
100
AcDbCircle
 10
308.002841
 20
243.877655
 30
0.0
 40
12.0
100
AcDbArc
 50
148.667793
 51
172.598
  0
LINE
  5
224
330
1F
100
AcDbEntity
  8
GR1-1
  6
CONTINUOUS
 62
     6
100
AcDbLine
 10
296.102841
 20
245.423618
 30
0.0
 11
296.102841
 21
227.121399
 31
0.0
  0
LINE
  5
225
330
1F
100
AcDbEntity
  8
GR1-1
  6
CONTINUOUS
 62
     6
100
AcDbLine
 10
297.134038
 20
228.335317
 30
0.0
 11
298.288739
 21
230.335317
 31
0.0
  0
LINE
  5
226
330
1F
100
AcDbEntity
  8
GR1-1
  6
CONTINUOUS
 62
     6
100
AcDbLine
 10
298.288739
 20
230.335317
 30
0.0
 11
299.443439
 21
228.335317
 31
0.0
  0
LINE
  5
227
330
1F
100
AcDbEntity
  8
GR1-1
  6
CONTINUOUS
 62
     6
100
AcDbLine
 10
299.443439
 20
228.335317
 30
0.0
 11
298.288739
 21
226.335317
 31
0.0
  0
LINE
  5
228
330
1F
100
AcDbEntity
  8
GR1-1
  6
CONTINUOUS
 62
     6
100
AcDbLine
 10
298.288739
 20
226.335317
 30
0.0
 11
297.134038
 21
228.335317
 31
0.0
  0
LINE
  5
229
330
1F
100
AcDbEntity
  8
GR1-1
  6
CONTINUOUS
 62
     6
100
AcDbLine
 10
296.556688
 20
229.335317
 30
0.0
 11
296.102841
 21
230.121404
 31
0.0
  0
LINE
  5
22A
330
1F
100
AcDbEntity
  8
GR1-1
  6
CONTINUOUS
 62
     6
100
AcDbLine
 10
296.556688
 20
229.335317
 30
0.0
 11
297.711389
 21
231.335317
 31
0.0
  0
LINE
  5
22B
330
1F
100
AcDbEntity
  8
GR1-1
  6
CONTINUOUS
 62
     6
100
AcDbLine
 10
297.711389
 20
231.335317
 30
0.0
 11
296.556688
 21
233.335317
 31
0.0
  0
LINE
  5
22C
330
1F
100
AcDbEntity
  8
GR1-1
  6
CONTINUOUS
 62
     6
100
AcDbLine
 10
296.556688
 20
233.335317
 30
0.0
 11
296.102841
 21
232.54923
 31
0.0
  0
LINE
  5
22D
330
1F
100
AcDbEntity
  8
GR1-1
  6
CONTINUOUS
 62
     6
100
AcDbLine
 10
297.134038
 20
234.335317
 30
0.0
 11
298.288739
 21
232.335317
 31
0.0
  0
LINE
  5
22E
330
1F
100
AcDbEntity
  8
GR1-1
  6
CONTINUOUS
 62
     6
100
AcDbLine
 10
298.288739
 20
232.335317
 30
0.0
 11
299.443439
 21
234.335317
 31
0.0
  0
LINE
  5
22F
330
1F
100
AcDbEntity
  8
GR1-1
  6
CONTINUOUS
 62
     6
100
AcDbLine
 10
299.443439
 20
234.335317
 30
0.0
 11
298.288739
 21
236.335317
 31
0.0
  0
LINE
  5
230
330
1F
100
AcDbEntity
  8
GR1-1
  6
CONTINUOUS
 62
     6
100
AcDbLine
 10
298.288739
 20
236.335317
 30
0.0
 11
297.134038
 21
234.335317
 31
0.0
  0
LINE
  5
231
330
1F
100
AcDbEntity
  8
GR1-1
  6
CONTINUOUS
 62
     6
100
AcDbLine
 10
296.556688
 20
235.335317
 30
0.0
 11
297.711389
 21
237.335317
 31
0.0
  0
LINE
  5
232
330
1F
100
AcDbEntity
  8
GR1-1
  6
CONTINUOUS
 62
     6
100
AcDbLine
 10
297.711389
 20
237.335317
 30
0.0
 11
296.556688
 21
239.335317
 31
0.0
  0
LINE
  5
233
330
1F
100
AcDbEntity
  8
GR1-1
  6
CONTINUOUS
 62
     6
100
AcDbLine
 10
296.556688
 20
239.335317
 30
0.0
 11
296.102841
 21
238.54923
 31
0.0
  0
LINE
  5
234
330
1F
100
AcDbEntity
  8
GR1-1
  6
CONTINUOUS
 62
     6
100
AcDbLine
 10
297.134038
 20
240.335317
 30
0.0
 11
298.288739
 21
242.335317
 31
0.0
  0
LINE
  5
235
330
1F
100
AcDbEntity
  8
GR1-1
  6
CONTINUOUS
 62
     6
100
AcDbLine
 10
298.288739
 20
242.335317
 30
0.0
 11
299.443439
 21
240.335317
 31
0.0
  0
LINE
  5
236
330
1F
100
AcDbEntity
  8
GR1-1
  6
CONTINUOUS
 62
     6
100
AcDbLine
 10
299.443439
 20
240.335317
 30
0.0
 11
298.288739
 21
238.335317
 31
0.0
  0
LINE
  5
237
330
1F
100
AcDbEntity
  8
GR1-1
  6
CONTINUOUS
 62
     6
100
AcDbLine
 10
298.288739
 20
238.335317
 30
0.0
 11
297.134038
 21
240.335317
 31
0.0
  0
LINE
  5
238
330
1F
100
AcDbEntity
  8
GR1-1
  6
CONTINUOUS
 62
     6
100
AcDbLine
 10
296.556688
 20
241.335317
 30
0.0
 11
297.711389
 21
243.335317
 31
0.0
  0
LINE
  5
239
330
1F
100
AcDbEntity
  8
GR1-1
  6
CONTINUOUS
 62
     6
100
AcDbLine
 10
297.711389
 20
243.335317
 30
0.0
 11
296.556688
 21
245.335317
 31
0.0
  0
LINE
  5
23A
330
1F
100
AcDbEntity
  8
GR1-1
  6
CONTINUOUS
 62
     6
100
AcDbLine
 10
296.556688
 20
245.335317
 30
0.0
 11
296.102841
 21
244.54923
 31
0.0
  0
LINE
  5
23B
330
1F
100
AcDbEntity
  8
GR1-1
  6
CONTINUOUS
 62
     6
100
AcDbLine
 10
297.134038
 20
246.335317
 30
0.0
 11
298.288739
 21
248.335317
 31
0.0
  0
LINE
  5
23C
330
1F
100
AcDbEntity
  8
GR1-1
  6
CONTINUOUS
 62
     6
100
AcDbLine
 10
298.288739
 20
248.335317
 30
0.0
 11
299.443439
 21
246.335317
 31
0.0
  0
LINE
  5
23D
330
1F
100
AcDbEntity
  8
GR1-1
  6
CONTINUOUS
 62
     6
100
AcDbLine
 10
299.443439
 20
246.335317
 30
0.0
 11
298.288739
 21
244.335317
 31
0.0
  0
LINE
  5
23E
330
1F
100
AcDbEntity
  8
GR1-1
  6
CONTINUOUS
 62
     6
100
AcDbLine
 10
298.288739
 20
244.335317
 30
0.0
 11
297.134038
 21
246.335317
 31
0.0
  0
LINE
  5
23F
330
1F
100
AcDbEntity
  8
GR1-1
  6
CONTINUOUS
 62
     6
100
AcDbLine
 10
296.556688
 20
247.335317
 30
0.0
 11
297.711389
 21
249.335317
 31
0.0
  0
LINE
  5
240
330
1F
100
AcDbEntity
  8
GR1-1
  6
CONTINUOUS
 62
     6
100
AcDbLine
 10
297.711389
 20
249.335317
 30
0.0
 11
297.505498
 21
249.69193
 31
0.0
  0
LINE
  5
241
330
1F
100
AcDbEntity
  8
GR1-1
  6
CONTINUOUS
 62
     6
100
AcDbLine
 10
298.866089
 20
249.335317
 30
0.0
 11
300.02079
 21
247.335317
 31
0.0
  0
LINE
  5
242
330
1F
100
AcDbEntity
  8
GR1-1
  6
CONTINUOUS
 62
     6
100
AcDbLine
 10
300.02079
 20
247.335317
 30
0.0
 11
301.17549
 21
249.335317
 31
0.0
  0
LINE
  5
243
330
1F
100
AcDbEntity
  8
GR1-1
  6
CONTINUOUS
 62
     6
100
AcDbLine
 10
301.17549
 20
249.335317
 30
0.0
 11
300.723812
 21
250.117647
 31
0.0
  0
LINE
  5
244
330
1F
100
AcDbEntity
  8
GR1-1
  6
CONTINUOUS
 62
     6
100
AcDbLine
 10
299.317768
 20
250.117647
 30
0.0
 11
298.866089
 21
249.335317
 31
0.0
  0
LINE
  5
245
330
1F
100
AcDbEntity
  8
GR1-1
  6
CONTINUOUS
 62
     6
100
AcDbLine
 10
296.527244
 20
247.386315
 30
0.0
 11
296.556688
 21
247.335317
 31
0.0
  0
LINE
  5
246
330
1F
100
AcDbEntity
  8
GR1-1
  6
CONTINUOUS
 62
     6
100
AcDbLine
 10
300.02079
 20
245.335317
 30
0.0
 11
298.866089
 21
243.335317
 31
0.0
  0
LINE
  5
247
330
1F
100
AcDbEntity
  8
GR1-1
  6
CONTINUOUS
 62
     6
100
AcDbLine
 10
298.866089
 20
243.335317
 30
0.0
 11
300.02079
 21
241.335317
 31
0.0
  0
LINE
  5
248
330
1F
100
AcDbEntity
  8
GR1-1
  6
CONTINUOUS
 62
     6
100
AcDbLine
 10
300.02079
 20
241.335317
 30
0.0
 11
301.17549
 21
243.335317
 31
0.0
  0
LINE
  5
249
330
1F
100
AcDbEntity
  8
GR1-1
  6
CONTINUOUS
 62
     6
100
AcDbLine
 10
301.17549
 20
243.335317
 30
0.0
 11
300.02079
 21
245.335317
 31
0.0
  0
LINE
  5
24A
330
1F
100
AcDbEntity
  8
GR1-1
  6
CONTINUOUS
 62
     6
100
AcDbLine
 10
300.59814
 20
246.335317
 30
0.0
 11
301.752841
 21
244.335317
 31
0.0
  0
LINE
  5
24B
330
1F
100
AcDbEntity
  8
GR1-1
  6
CONTINUOUS
 62
     6
100
AcDbLine
 10
301.752841
 20
244.335317
 30
0.0
 11
302.907541
 21
246.335317
 31
0.0
  0
LINE
  5
24C
330
1F
100
AcDbEntity
  8
GR1-1
  6
CONTINUOUS
 62
     6
100
AcDbLine
 10
302.907541
 20
246.335317
 30
0.0
 11
301.752841
 21
248.335317
 31
0.0
  0
LINE
  5
24D
330
1F
100
AcDbEntity
  8
GR1-1
  6
CONTINUOUS
 62
     6
100
AcDbLine
 10
301.752841
 20
248.335317
 30
0.0
 11
300.59814
 21
246.335317
 31
0.0
  0
LINE
  5
24E
330
1F
100
AcDbEntity
  8
GR1-1
  6
CONTINUOUS
 62
     6
100
AcDbLine
 10
303.484891
 20
245.335317
 30
0.0
 11
304.639592
 21
243.335317
 31
0.0
  0
LINE
  5
24F
330
1F
100
AcDbEntity
  8
GR1-1
  6
CONTINUOUS
 62
     6
100
AcDbLine
 10
304.639592
 20
243.335317
 30
0.0
 11
303.484891
 21
241.335317
 31
0.0
  0
LINE
  5
250
330
1F
100
AcDbEntity
  8
GR1-1
  6
CONTINUOUS
 62
     6
100
AcDbLine
 10
303.484891
 20
241.335317
 30
0.0
 11
302.330191
 21
243.335317
 31
0.0
  0
LINE
  5
251
330
1F
100
AcDbEntity
  8
GR1-1
  6
CONTINUOUS
 62
     6
100
AcDbLine
 10
302.330191
 20
243.335317
 30
0.0
 11
303.484891
 21
245.335317
 31
0.0
  0
LINE
  5
252
330
1F
100
AcDbEntity
  8
GR1-1
  6
CONTINUOUS
 62
     6
100
AcDbLine
 10
304.062242
 20
246.335317
 30
0.0
 11
305.216942
 21
244.335317
 31
0.0
  0
LINE
  5
253
330
1F
100
AcDbEntity
  8
GR1-1
  6
CONTINUOUS
 62
     6
100
AcDbLine
 10
305.216942
 20
244.335317
 30
0.0
 11
306.371643
 21
246.335317
 31
0.0
  0
LINE
  5
254
330
1F
100
AcDbEntity
  8
GR1-1
  6
CONTINUOUS
 62
     6
100
AcDbLine
 10
306.371643
 20
246.335317
 30
0.0
 11
305.216942
 21
248.335317
 31
0.0
  0
LINE
  5
255
330
1F
100
AcDbEntity
  8
GR1-1
  6
CONTINUOUS
 62
     6
100
AcDbLine
 10
305.216942
 20
248.335317
 30
0.0
 11
304.062242
 21
246.335317
 31
0.0
  0
LINE
  5
256
330
1F
100
AcDbEntity
  8
GR1-1
  6
CONTINUOUS
 62
     6
100
AcDbLine
 10
303.484891
 20
247.335317
 30
0.0
 11
302.330191
 21
249.335317
 31
0.0
  0
LINE
  5
257
330
1F
100
AcDbEntity
  8
GR1-1
  6
CONTINUOUS
 62
     6
100
AcDbLine
 10
302.330191
 20
249.335317
 30
0.0
 11
302.781869
 21
250.117647
 31
0.0
  0
LINE
  5
258
330
1F
100
AcDbEntity
  8
GR1-1
  6
CONTINUOUS
 62
     6
100
AcDbLine
 10
304.187913
 20
250.117647
 30
0.0
 11
304.639592
 21
249.335317
 31
0.0
  0
LINE
  5
259
330
1F
100
AcDbEntity
  8
GR1-1
  6
CONTINUOUS
 62
     6
100
AcDbLine
 10
304.639592
 20
249.335317
 30
0.0
 11
303.484891
 21
247.335317
 31
0.0
  0
LINE
  5
25A
330
1F
100
AcDbEntity
  8
GR1-1
  6
CONTINUOUS
 62
     6
100
AcDbLine
 10
305.794292
 20
249.335317
 30
0.0
 11
306.948993
 21
247.335317
 31
0.0
  0
LINE
  5
25B
330
1F
100
AcDbEntity
  8
GR1-1
  6
CONTINUOUS
 62
     6
100
AcDbLine
 10
306.948993
 20
247.335317
 30
0.0
 11
306.978437
 21
247.386315
 31
0.0
  0
LINE
  5
25C
330
1F
100
AcDbEntity
  8
GR1-1
  6
CONTINUOUS
 62
     6
100
AcDbLine
 10
306.948993
 20
245.335317
 30
0.0
 11
305.794292
 21
243.335317
 31
0.0
  0
LINE
  5
25D
330
1F
100
AcDbEntity
  8
GR1-1
  6
CONTINUOUS
 62
     6
100
AcDbLine
 10
305.794292
 20
243.335317
 30
0.0
 11
306.948993
 21
241.335317
 31
0.0
  0
LINE
  5
25E
330
1F
100
AcDbEntity
  8
GR1-1
  6
CONTINUOUS
 62
     6
100
AcDbLine
 10
306.948993
 20
241.335317
 30
0.0
 11
307.402841
 21
242.121404
 31
0.0
  0
LINE
  5
25F
330
1F
100
AcDbEntity
  8
GR1-1
  6
CONTINUOUS
 62
     6
100
AcDbLine
 10
306.371643
 20
240.335317
 30
0.0
 11
305.216942
 21
238.335317
 31
0.0
  0
LINE
  5
260
330
1F
100
AcDbEntity
  8
GR1-1
  6
CONTINUOUS
 62
     6
100
AcDbLine
 10
305.216942
 20
238.335317
 30
0.0
 11
304.062242
 21
240.335317
 31
0.0
  0
LINE
  5
261
330
1F
100
AcDbEntity
  8
GR1-1
  6
CONTINUOUS
 62
     6
100
AcDbLine
 10
304.062242
 20
240.335317
 30
0.0
 11
305.216942
 21
242.335317
 31
0.0
  0
LINE
  5
262
330
1F
100
AcDbEntity
  8
GR1-1
  6
CONTINUOUS
 62
     6
100
AcDbLine
 10
305.216942
 20
242.335317
 30
0.0
 11
306.371643
 21
240.335317
 31
0.0
  0
LINE
  5
263
330
1F
100
AcDbEntity
  8
GR1-1
  6
CONTINUOUS
 62
     6
100
AcDbLine
 10
306.948993
 20
239.335317
 30
0.0
 11
305.794292
 21
237.335317
 31
0.0
  0
LINE
  5
264
330
1F
100
AcDbEntity
  8
GR1-1
  6
CONTINUOUS
 62
     6
100
AcDbLine
 10
305.794292
 20
237.335317
 30
0.0
 11
306.948993
 21
235.335317
 31
0.0
  0
LINE
  5
265
330
1F
100
AcDbEntity
  8
GR1-1
  6
CONTINUOUS
 62
     6
100
AcDbLine
 10
306.948993
 20
235.335317
 30
0.0
 11
307.402841
 21
236.121404
 31
0.0
  0
LINE
  5
266
330
1F
100
AcDbEntity
  8
GR1-1
  6
CONTINUOUS
 62
     6
100
AcDbLine
 10
306.371643
 20
234.335317
 30
0.0
 11
305.216942
 21
232.335317
 31
0.0
  0
LINE
  5
267
330
1F
100
AcDbEntity
  8
GR1-1
  6
CONTINUOUS
 62
     6
100
AcDbLine
 10
305.216942
 20
232.335317
 30
0.0
 11
304.062242
 21
234.335317
 31
0.0
  0
LINE
  5
268
330
1F
100
AcDbEntity
  8
GR1-1
  6
CONTINUOUS
 62
     6
100
AcDbLine
 10
304.062242
 20
234.335317
 30
0.0
 11
305.216942
 21
236.335317
 31
0.0
  0
LINE
  5
269
330
1F
100
AcDbEntity
  8
GR1-1
  6
CONTINUOUS
 62
     6
100
AcDbLine
 10
305.216942
 20
236.335317
 30
0.0
 11
306.371643
 21
234.335317
 31
0.0
  0
LINE
  5
26A
330
1F
100
AcDbEntity
  8
GR1-1
  6
CONTINUOUS
 62
     6
100
AcDbLine
 10
306.948993
 20
233.335317
 30
0.0
 11
307.402841
 21
232.54923
 31
0.0
  0
LINE
  5
26B
330
1F
100
AcDbEntity
  8
GR1-1
  6
CONTINUOUS
 62
     6
100
AcDbLine
 10
306.948993
 20
233.335317
 30
0.0
 11
305.752841
 21
231.26352
 31
0.0
  0
LINE
  5
26C
330
1F
100
AcDbEntity
  8
GR1-1
  6
CONTINUOUS
 62
     6
100
AcDbLine
 10
305.752841
 20
231.26352
 30
0.0
 11
306.948993
 21
229.335317
 31
0.0
  0
LINE
  5
26D
330
1F
100
AcDbEntity
  8
GR1-1
  6
CONTINUOUS
 62
     6
100
AcDbLine
 10
306.948993
 20
229.335317
 30
0.0
 11
307.402841
 21
230.121404
 31
0.0
  0
LINE
  5
26E
330
1F
100
AcDbEntity
  8
GR1-1
  6
CONTINUOUS
 62
     6
100
AcDbLine
 10
306.371643
 20
228.335317
 30
0.0
 11
305.216942
 21
226.335317
 31
0.0
  0
LINE
  5
26F
330
1F
100
AcDbEntity
  8
GR1-1
  6
CONTINUOUS
 62
     6
100
AcDbLine
 10
305.216942
 20
226.335317
 30
0.0
 11
304.062242
 21
228.335317
 31
0.0
  0
LINE
  5
270
330
1F
100
AcDbEntity
  8
GR1-1
  6
CONTINUOUS
 62
     6
100
AcDbLine
 10
304.062242
 20
228.335317
 30
0.0
 11
305.216942
 21
230.335317
 31
0.0
  0
LINE
  5
271
330
1F
100
AcDbEntity
  8
GR1-1
  6
CONTINUOUS
 62
     6
100
AcDbLine
 10
305.216942
 20
230.335317
 30
0.0
 11
306.371643
 21
228.335317
 31
0.0
  0
LINE
  5
272
330
1F
100
AcDbEntity
  8
GR1-1
  6
CONTINUOUS
 62
     6
100
AcDbLine
 10
306.948993
 20
227.335317
 30
0.0
 11
307.360947
 21
226.621792
 31
0.0
  0
LINE
  5
273
330
1F
100
AcDbEntity
  8
GR1-1
  6
CONTINUOUS
 62
     6
100
AcDbLine
 10
306.948993
 20
227.335317
 30
0.0
 11
305.752841
 21
225.26352
 31
0.0
  0
LINE
  5
274
330
1F
100
AcDbEntity
  8
GR1-1
  6
CONTINUOUS
 62
     6
100
AcDbLine
 10
305.752841
 20
225.26352
 30
0.0
 11
306.1332
 21
224.657569
 31
0.0
  0
LINE
  5
275
330
1F
100
AcDbEntity
  8
GR1-1
  6
CONTINUOUS
 62
     6
100
AcDbLine
 10
305.346671
 20
224.11062
 30
0.0
 11
305.216942
 21
224.335317
 31
0.0
  0
LINE
  5
276
330
1F
100
AcDbEntity
  8
GR1-1
  6
CONTINUOUS
 62
     6
100
AcDbLine
 10
305.216942
 20
224.335317
 30
0.0
 11
304.964357
 21
223.897827
 31
0.0
  0
LINE
  5
277
330
1F
100
AcDbEntity
  8
GR1-1
  6
CONTINUOUS
 62
     6
100
AcDbLine
 10
304.639592
 20
225.335317
 30
0.0
 11
303.484891
 21
227.335317
 31
0.0
  0
LINE
  5
278
330
1F
100
AcDbEntity
  8
GR1-1
  6
CONTINUOUS
 62
     6
100
AcDbLine
 10
303.484891
 20
227.335317
 30
0.0
 11
302.330191
 21
225.335317
 31
0.0
  0
LINE
  5
279
330
1F
100
AcDbEntity
  8
GR1-1
  6
CONTINUOUS
 62
     6
100
AcDbLine
 10
302.330191
 20
225.335317
 30
0.0
 11
303.484891
 21
223.335317
 31
0.0
  0
LINE
  5
27A
330
1F
100
AcDbEntity
  8
GR1-1
  6
CONTINUOUS
 62
     6
100
AcDbLine
 10
303.484891
 20
223.335317
 30
0.0
 11
304.639592
 21
225.335317
 31
0.0
  0
LINE
  5
27B
330
1F
100
AcDbEntity
  8
GR1-1
  6
CONTINUOUS
 62
     6
100
AcDbLine
 10
301.752841
 20
226.335317
 30
0.0
 11
300.59814
 21
228.335317
 31
0.0
  0
LINE
  5
27C
330
1F
100
AcDbEntity
  8
GR1-1
  6
CONTINUOUS
 62
     6
100
AcDbLine
 10
300.59814
 20
228.335317
 30
0.0
 11
301.752841
 21
230.335317
 31
0.0
  0
LINE
  5
27D
330
1F
100
AcDbEntity
  8
GR1-1
  6
CONTINUOUS
 62
     6
100
AcDbLine
 10
301.752841
 20
230.335317
 30
0.0
 11
302.907541
 21
228.335317
 31
0.0
  0
LINE
  5
27E
330
1F
100
AcDbEntity
  8
GR1-1
  6
CONTINUOUS
 62
     6
100
AcDbLine
 10
302.907541
 20
228.335317
 30
0.0
 11
301.752841
 21
226.335317
 31
0.0
  0
LINE
  5
27F
330
1F
100
AcDbEntity
  8
GR1-1
  6
CONTINUOUS
 62
     6
100
AcDbLine
 10
303.484891
 20
229.335317
 30
0.0
 11
304.639592
 21
231.335317
 31
0.0
  0
LINE
  5
280
330
1F
100
AcDbEntity
  8
GR1-1
  6
CONTINUOUS
 62
     6
100
AcDbLine
 10
304.639592
 20
231.335317
 30
0.0
 11
303.484891
 21
233.335317
 31
0.0
  0
LINE
  5
281
330
1F
100
AcDbEntity
  8
GR1-1
  6
CONTINUOUS
 62
     6
100
AcDbLine
 10
303.484891
 20
233.335317
 30
0.0
 11
302.330191
 21
231.335317
 31
0.0
  0
LINE
  5
282
330
1F
100
AcDbEntity
  8
GR1-1
  6
CONTINUOUS
 62
     6
100
AcDbLine
 10
302.330191
 20
231.335317
 30
0.0
 11
303.484891
 21
229.335317
 31
0.0
  0
LINE
  5
283
330
1F
100
AcDbEntity
  8
GR1-1
  6
CONTINUOUS
 62
     6
100
AcDbLine
 10
301.17549
 20
231.335317
 30
0.0
 11
300.02079
 21
229.335317
 31
0.0
  0
LINE
  5
284
330
1F
100
AcDbEntity
  8
GR1-1
  6
CONTINUOUS
 62
     6
100
AcDbLine
 10
300.02079
 20
229.335317
 30
0.0
 11
298.866089
 21
231.335317
 31
0.0
  0
LINE
  5
285
330
1F
100
AcDbEntity
  8
GR1-1
  6
CONTINUOUS
 62
     6
100
AcDbLine
 10
298.866089
 20
231.335317
 30
0.0
 11
300.02079
 21
233.335317
 31
0.0
  0
LINE
  5
286
330
1F
100
AcDbEntity
  8
GR1-1
  6
CONTINUOUS
 62
     6
100
AcDbLine
 10
300.02079
 20
233.335317
 30
0.0
 11
301.17549
 21
231.335317
 31
0.0
  0
LINE
  5
287
330
1F
100
AcDbEntity
  8
GR1-1
  6
CONTINUOUS
 62
     6
100
AcDbLine
 10
301.752841
 20
232.335317
 30
0.0
 11
300.59814
 21
234.335317
 31
0.0
  0
LINE
  5
288
330
1F
100
AcDbEntity
  8
GR1-1
  6
CONTINUOUS
 62
     6
100
AcDbLine
 10
300.59814
 20
234.335317
 30
0.0
 11
301.752841
 21
236.335317
 31
0.0
  0
LINE
  5
289
330
1F
100
AcDbEntity
  8
GR1-1
  6
CONTINUOUS
 62
     6
100
AcDbLine
 10
301.752841
 20
236.335317
 30
0.0
 11
302.907541
 21
234.335317
 31
0.0
  0
LINE
  5
28A
330
1F
100
AcDbEntity
  8
GR1-1
  6
CONTINUOUS
 62
     6
100
AcDbLine
 10
302.907541
 20
234.335317
 30
0.0
 11
301.752841
 21
232.335317
 31
0.0
  0
LINE
  5
28B
330
1F
100
AcDbEntity
  8
GR1-1
  6
CONTINUOUS
 62
     6
100
AcDbLine
 10
300.02079
 20
235.335317
 30
0.0
 11
301.17549
 21
237.335317
 31
0.0
  0
LINE
  5
28C
330
1F
100
AcDbEntity
  8
GR1-1
  6
CONTINUOUS
 62
     6
100
AcDbLine
 10
301.17549
 20
237.335317
 30
0.0
 11
300.02079
 21
239.335317
 31
0.0
  0
LINE
  5
28D
330
1F
100
AcDbEntity
  8
GR1-1
  6
CONTINUOUS
 62
     6
100
AcDbLine
 10
300.02079
 20
239.335317
 30
0.0
 11
298.866089
 21
237.335317
 31
0.0
  0
LINE
  5
28E
330
1F
100
AcDbEntity
  8
GR1-1
  6
CONTINUOUS
 62
     6
100
AcDbLine
 10
298.866089
 20
237.335317
 30
0.0
 11
300.02079
 21
235.335317
 31
0.0
  0
LINE
  5
28F
330
1F
100
AcDbEntity
  8
GR1-1
  6
CONTINUOUS
 62
     6
100
AcDbLine
 10
302.330191
 20
237.335317
 30
0.0
 11
303.484891
 21
235.335317
 31
0.0
  0
LINE
  5
290
330
1F
100
AcDbEntity
  8
GR1-1
  6
CONTINUOUS
 62
     6
100
AcDbLine
 10
303.484891
 20
235.335317
 30
0.0
 11
304.639592
 21
237.335317
 31
0.0
  0
LINE
  5
291
330
1F
100
AcDbEntity
  8
GR1-1
  6
CONTINUOUS
 62
     6
100
AcDbLine
 10
304.639592
 20
237.335317
 30
0.0
 11
303.484891
 21
239.335317
 31
0.0
  0
LINE
  5
292
330
1F
100
AcDbEntity
  8
GR1-1
  6
CONTINUOUS
 62
     6
100
AcDbLine
 10
303.484891
 20
239.335317
 30
0.0
 11
302.330191
 21
237.335317
 31
0.0
  0
LINE
  5
293
330
1F
100
AcDbEntity
  8
GR1-1
  6
CONTINUOUS
 62
     6
100
AcDbLine
 10
301.752841
 20
238.335317
 30
0.0
 11
300.59814
 21
240.335317
 31
0.0
  0
LINE
  5
294
330
1F
100
AcDbEntity
  8
GR1-1
  6
CONTINUOUS
 62
     6
100
AcDbLine
 10
300.59814
 20
240.335317
 30
0.0
 11
301.752841
 21
242.335317
 31
0.0
  0
LINE
  5
295
330
1F
100
AcDbEntity
  8
GR1-1
  6
CONTINUOUS
 62
     6
100
AcDbLine
 10
301.752841
 20
242.335317
 30
0.0
 11
302.907541
 21
240.335317
 31
0.0
  0
LINE
  5
296
330
1F
100
AcDbEntity
  8
GR1-1
  6
CONTINUOUS
 62
     6
100
AcDbLine
 10
302.907541
 20
240.335317
 30
0.0
 11
301.752841
 21
238.335317
 31
0.0
  0
LINE
  5
297
330
1F
100
AcDbEntity
  8
GR1-1
  6
CONTINUOUS
 62
     6
100
AcDbLine
 10
306.948993
 20
239.335317
 30
0.0
 11
307.402841
 21
238.54923
 31
0.0
  0
LINE
  5
298
330
1F
100
AcDbEntity
  8
GR1-1
  6
CONTINUOUS
 62
     6
100
AcDbLine
 10
307.402841
 20
244.54923
 30
0.0
 11
306.948993
 21
245.335317
 31
0.0
  0
LINE
  5
299
330
1F
100
AcDbEntity
  8
GR1-1
  6
CONTINUOUS
 62
     6
100
AcDbLine
 10
305.794292
 20
249.335317
 30
0.0
 11
306.000183
 21
249.69193
 31
0.0
  0
ARC
  5
29A
330
1F
100
AcDbEntity
  8
GR1-1
  6
CONTINUOUS
 62
     6
100
AcDbCircle
 10
301.752841
 20
242.617647
 30
0.0
 40
8.499999999999886
100
AcDbArc
 50
61.927513
 51
118.072487
  0
LINE
  5
29B
330
1F
100
AcDbEntity
  8
GR1-1
  6
CONTINUOUS
 62
     6
100
AcDbLine
 10
296.102841
 20
242.121404
 30
0.0
 11
296.556688
 21
241.335317
 31
0.0
  0
LINE
  5
29C
330
1F
100
AcDbEntity
  8
GR1-1
  6
CONTINUOUS
 62
     6
100
AcDbLine
 10
296.102841
 20
236.121404
 30
0.0
 11
296.556688
 21
235.335317
 31
0.0
  0
LINE
  5
29D
330
1F
100
AcDbEntity
  8
GR1-1
  6
CONTINUOUS
 62
     3
100
AcDbLine
 10
385.252841
 20
355.717647
 30
0.0
 11
379.252841
 21
355.717647
 31
0.0
  0
ARC
  5
29E
330
1F
100
AcDbEntity
  8
GR1-1
  6
CONTINUOUS
 62
     3
100
AcDbCircle
 10
379.252841
 20
354.217647
 30
0.0
 40
1.5
100
AcDbArc
 50
90.0
 51
180.0
  0
LINE
  5
29F
330
1F
100
AcDbEntity
  8
GR1-1
  6
CONTINUOUS
 62
     3
100
AcDbLine
 10
387.287534
 20
354.217647
 30
0.0
 11
376.252841
 21
354.217647
 31
0.0
  0
LINE
  5
2A0
330
1F
100
AcDbEntity
  8
GR1-1
  6
CONTINUOUS
 62
     3
100
AcDbLine
 10
376.252841
 20
354.217647
 30
0.0
 11
376.252841
 21
353.017647
 31
0.0
  0
LINE
  5
2A1
330
1F
100
AcDbEntity
  8
GR1-1
  6
CONTINUOUS
 62
     3
100
AcDbLine
 10
352.252841
 20
353.017647
 30
0.0
 11
353.026343
 21
353.464229
 31
0.0
  0
LINE
  5
2A2
330
1F
100
AcDbEntity
  8
GR1-1
  6
CONTINUOUS
 62
     3
100
AcDbLine
 10
353.026342
 20
353.464229
 30
0.0
 11
353.026343
 21
356.171065
 31
0.0
  0
ARC
  5
2A3
330
1F
100
AcDbEntity
  8
GR1-1
  6
CONTINUOUS
 62
     3
100
AcDbCircle
 10
351.582968
 20
354.061824
 30
0.0
 40
2.555822748422663
100
AcDbArc
 50
55.615753
 51
124.384247
  0
ARC
  5
2A4
330
1F
100
AcDbEntity
  8
GR1-1
  6
CONTINUOUS
 62
     3
100
AcDbCircle
 10
347.252841
 20
347.064229
 30
0.0
 40
9.553418012614543
100
AcDbArc
 50
72.412046
 51
107.587954
  0
ARC
  5
2A5
330
1F
100
AcDbEntity
  8
GR1-1
  6
CONTINUOUS
 62
     3
100
AcDbCircle
 10
342.922714
 20
354.061824
 30
0.0
 40
2.555822748422663
100
AcDbArc
 50
55.615753
 51
124.384247
  0
LINE
  5
2A6
330
1F
100
AcDbEntity
  8
GR1-1
  6
CONTINUOUS
 62
     3
100
AcDbLine
 10
341.479338
 20
356.171065
 30
0.0
 11
342.252841
 21
356.617647
 31
0.0
  0
LINE
  5
2A7
330
1F
100
AcDbEntity
  8
GR1-1
  6
CONTINUOUS
 62
     3
100
AcDbLine
 10
342.252841
 20
356.617647
 30
0.0
 11
342.252841
 21
357.367647
 31
0.0
  0
LINE
  5
2A8
330
1F
100
AcDbEntity
  8
GR1-1
  6
CONTINUOUS
 62
     3
100
AcDbLine
 10
343.002841
 20
358.117647
 30
0.0
 11
351.502841
 21
358.117647
 31
0.0
  0
LINE
  5
2A9
330
1F
100
AcDbEntity
  8
GR1-1
  6
CONTINUOUS
 62
     3
100
AcDbLine
 10
352.252841
 20
357.367647
 30
0.0
 11
352.252841
 21
356.617647
 31
0.0
  0
LINE
  5
2AA
330
1F
100
AcDbEntity
  8
GR1-1
  6
CONTINUOUS
 62
     3
100
AcDbLine
 10
352.252841
 20
356.617647
 30
0.0
 11
353.026342
 21
356.171066
 31
0.0
  0
ARC
  5
2AB
330
1F
100
AcDbEntity
  8
GR1-1
  6
CONTINUOUS
 62
     3
100
AcDbCircle
 10
351.502841
 20
357.367647
 30
0.0
 40
0.75
100
AcDbArc
 50
0.0
 51
90.0
  0
LINE
  5
2AC
330
1F
100
AcDbEntity
  8
GR1-1
  6
CONTINUOUS
 62
     3
100
AcDbLine
 10
350.139592
 20
356.171065
 30
0.0
 11
350.139592
 21
353.464229
 31
0.0
  0
ARC
  5
2AD
330
1F
100
AcDbEntity
  8
GR1-1
  6
CONTINUOUS
 62
     3
100
AcDbCircle
 10
351.582968
 20
355.57347
 30
0.0
 40
2.555822748422663
100
AcDbArc
 50
235.615753
 51
304.384247
  0
ARC
  5
2AE
330
1F
100
AcDbEntity
  8
GR1-1
  6
CONTINUOUS
 62
     3
100
AcDbCircle
 10
347.252841
 20
362.571065
 30
0.0
 40
9.553418012614543
100
AcDbArc
 50
272.732159
 51
287.587954
  0
ARC
  5
2AF
330
1F
100
AcDbEntity
  8
GR1-1
  6
CONTINUOUS
 62
     3
100
AcDbCircle
 10
343.002841
 20
357.367647
 30
0.0
 40
0.75
100
AcDbArc
 50
90.0
 51
180.0
  0
LINE
  5
2B0
330
1F
100
AcDbEntity
  8
GR1-1
  6
CONTINUOUS
 62
     3
100
AcDbLine
 10
352.252841
 20
356.617647
 30
0.0
 11
342.252841
 21
356.617647
 31
0.0
  0
LINE
  5
2B1
330
1F
100
AcDbEntity
  8
GR1-1
  6
CONTINUOUS
 62
     3
100
AcDbLine
 10
344.366089
 20
187.817647
 30
0.0
 11
350.139592
 21
187.817647
 31
0.0
  0
LINE
  5
2B2
330
1F
100
AcDbEntity
  8
GR1-1
  6
CONTINUOUS
 62
     3
100
AcDbLine
 10
350.139592
 20
187.817647
 30
0.0
 11
353.026343
 21
182.817647
 31
0.0
  0
LINE
  5
2B3
330
1F
100
AcDbEntity
  8
GR1-1
  6
CONTINUOUS
 62
     3
100
AcDbLine
 10
353.026343
 20
182.817647
 30
0.0
 11
352.977307
 21
182.732714
 31
0.0
  0
ARC
  5
2B4
330
1F
100
AcDbEntity
  8
GR1-1
  6
CONTINUOUS
 62
     6
100
AcDbCircle
 10
347.252841
 20
182.817647
 30
0.0
 40
4.5
100
AcDbArc
 50
-3.856195
 51
203.856195
  0
LINE
  5
2B5
330
1F
100
AcDbEntity
  8
LAYERGROUP-1
  6
CENTER
 62
     6
100
AcDbLine
 10
382.252841
 20
277.140224
 30
0.0
 11
382.252841
 21
293.183499
 31
0.0
  0
LINE
  5
2B6
330
1F
100
AcDbEntity
  8
LAYERGROUP-1
  6
CONTINUOUS
 62
     3
100
AcDbLine
 10
344.794341
 20
363.217647
 30
0.0
 11
349.711341
 21
363.217647
 31
0.0
  0
LINE
  5
2B7
330
1F
100
AcDbEntity
  8
LAYERGROUP-1
  6
CONTINUOUS
 62
     3
100
AcDbLine
 10
344.794341
 20
363.217647
 30
0.0
 11
344.252841
 21
362.717647
 31
0.0
  0
LINE
  5
2B8
330
1F
100
AcDbEntity
  8
LAYERGROUP-1
  6
CONTINUOUS
 62
     3
100
AcDbLine
 10
344.252841
 20
362.717647
 30
0.0
 11
344.252841
 21
358.117647
 31
0.0
  0
LINE
  5
2B9
330
1F
100
AcDbEntity
  8
LAYERGROUP-1
  6
CONTINUOUS
 62
     6
100
AcDbLine
 10
344.252841
 20
362.717647
 30
0.0
 11
350.252841
 21
362.717647
 31
0.0
  0
LINE
  5
2BA
330
1F
100
AcDbEntity
  8
LAYERGROUP-1
  6
CONTINUOUS
 62
     6
100
AcDbLine
 10
344.794341
 20
363.217647
 30
0.0
 11
344.794341
 21
358.117647
 31
0.0
  0
LINE
  5
2BB
330
1F
100
AcDbEntity
  8
LAYERGROUP-1
  6
CONTINUOUS
 62
     3
100
AcDbLine
 10
349.711341
 20
363.217647
 30
0.0
 11
350.252841
 21
362.717647
 31
0.0
  0
LINE
  5
2BC
330
1F
100
AcDbEntity
  8
LAYERGROUP-1
  6
CONTINUOUS
 62
     3
100
AcDbLine
 10
350.252841
 20
362.717647
 30
0.0
 11
350.252841
 21
358.117647
 31
0.0
  0
LINE
  5
2BD
330
1F
100
AcDbEntity
  8
LAYERGROUP-1
  6
CONTINUOUS
 62
     6
100
AcDbLine
 10
349.711341
 20
363.217647
 30
0.0
 11
349.711341
 21
358.117647
 31
0.0
  0
LINE
  5
2BE
330
1F
100
AcDbEntity
  8
GR1-1
  6
CONTINUOUS
 62
     3
100
AcDbLine
 10
341.479339
 20
354.543151
 30
0.0
 11
341.479338
 21
356.171065
 31
0.0
  0
LINE
  5
2BF
330
1F
100
AcDbEntity
  8
GR1-1
  6
CONTINUOUS
 62
     3
100
AcDbLine
 10
344.366089
 20
356.171065
 30
0.0
 11
344.366089
 21
353.508197
 31
0.0
  0
ARC
  5
2C0
330
1F
100
AcDbEntity
  8
GR1-1
  6
CONTINUOUS
 62
     3
100
AcDbCircle
 10
385.252841
 20
354.217647
 30
0.0
 40
1.5
100
AcDbArc
 50
0.0
 51
90.0
  0
LINE
  5
2C1
330
1F
100
AcDbEntity
  8
GR1-1
  6
CONTINUOUS
 62
     3
100
AcDbLine
 10
112.035583
 20
187.817647
 30
0.0
 11
122.335583
 21
187.817647
 31
0.0
  0
LINE
  5
2C2
330
1F
100
AcDbEntity
  8
GR1-1
  6
CONTINUOUS
 62
     3
100
AcDbLine
 10
122.335583
 20
187.817647
 30
0.0
 11
123.001059
 21
186.863798
 31
0.0
  0
LINE
  5
2C3
330
1F
100
AcDbEntity
  8
GR1-1
  6
CONTINUOUS
 62
     3
100
AcDbLine
 10
155.164253
 20
187.080925
 30
0.0
 11
155.335583
 21
187.817647
 31
0.0
  0
LINE
  5
2C4
330
1F
100
AcDbEntity
  8
GR1-1
  6
CONTINUOUS
 62
     3
100
AcDbLine
 10
155.335583
 20
187.817647
 30
0.0
 11
166.635583
 21
187.817647
 31
0.0
  0
LINE
  5
2C5
330
1F
100
AcDbEntity
  8
GR1-1
  6
CONTINUOUS
 62
     3
100
AcDbLine
 10
201.366239
 20
182.027044
 30
0.0
 11
201.659704
 21
173.623325
 31
0.0
  0
LINE
  5
2C6
330
1F
100
AcDbEntity
  8
GR1-1
  6
CONTINUOUS
 62
     3
100
AcDbLine
 10
201.659704
 20
173.623325
 30
0.0
 11
211.735583
 21
173.623325
 31
0.0
  0
LINE
  5
2C7
330
1F
100
AcDbEntity
  8
GR1-1
  6
CONTINUOUS
 62
     3
100
AcDbLine
 10
211.735583
 20
173.623325
 30
0.0
 11
212.735583
 21
172.123325
 31
0.0
  0
LINE
  5
2C8
330
1F
100
AcDbEntity
  8
GR1-1
  6
CONTINUOUS
 62
     3
100
AcDbLine
 10
212.735583
 20
172.123325
 30
0.0
 11
237.235583
 21
172.123325
 31
0.0
  0
LINE
  5
2C9
330
1F
100
AcDbEntity
  8
GR1-1
  6
CONTINUOUS
 62
     3
100
AcDbLine
 10
237.235583
 20
165.123325
 30
0.0
 11
212.735583
 21
165.123325
 31
0.0
  0
LINE
  5
2CA
330
1F
100
AcDbEntity
  8
GR1-1
  6
CONTINUOUS
 62
     3
100
AcDbLine
 10
212.735583
 20
165.123325
 30
0.0
 11
211.735583
 21
163.623325
 31
0.0
  0
LINE
  5
2CB
330
1F
100
AcDbEntity
  8
GR1-1
  6
CONTINUOUS
 62
     3
100
AcDbLine
 10
211.735583
 20
163.623325
 30
0.0
 11
197.796949
 21
163.623325
 31
0.0
  0
LINE
  5
2CC
330
1F
100
AcDbEntity
  8
GR1-1
  6
CONTINUOUS
 62
     3
100
AcDbLine
 10
191.800604
 20
169.413928
 30
0.0
 11
191.540841
 21
176.852547
 31
0.0
  0
ARC
  5
2CD
330
1F
100
AcDbEntity
  8
GR1-1
  6
CONTINUOUS
 62
     3
100
AcDbCircle
 10
190.541451
 20
176.817647
 30
0.0
 40
1.0
100
AcDbArc
 50
2.0
 51
90.0
  0
LINE
  5
2CE
330
1F
100
AcDbEntity
  8
GR1-1
  6
CONTINUOUS
 62
     3
100
AcDbLine
 10
190.541451
 20
177.817647
 30
0.0
 11
184.381349
 21
177.817647
 31
0.0
  0
LINE
  5
2CF
330
1F
100
AcDbEntity
  8
GR1-1
  6
CONTINUOUS
 62
     3
100
AcDbLine
 10
155.335583
 20
177.817647
 30
0.0
 11
154.870467
 21
179.817647
 31
0.0
  0
LINE
  5
2D0
330
1F
100
AcDbEntity
  8
GR1-1
  6
CONTINUOUS
 62
     3
100
AcDbLine
 10
123.730932
 20
179.817647
 30
0.0
 11
122.335583
 21
177.817647
 31
0.0
  0
LINE
  5
2D1
330
1F
100
AcDbEntity
  8
GR1-1
  6
CONTINUOUS
 62
     3
100
AcDbLine
 10
122.335583
 20
177.817647
 30
0.0
 11
112.035583
 21
177.817647
 31
0.0
  0
ARC
  5
2D2
330
1F
100
AcDbEntity
  8
GR1-1
  6
CONTINUOUS
 62
     3
100
AcDbCircle
 10
237.235583
 20
168.623325
 30
0.0
 40
3.5
100
AcDbArc
 50
-90.0
 51
90.0
  0
ARC
  5
2D3
330
1F
100
AcDbEntity
  8
GR1-1
  6
CONTINUOUS
 62
     3
100
AcDbCircle
 10
195.369895
 20
181.817647
 30
0.0
 40
6.0
100
AcDbArc
 50
2.0
 51
90.0
  0
ARC
  5
2D4
330
1F
100
AcDbEntity
  8
GR1-1
  6
CONTINUOUS
 62
     3
100
AcDbCircle
 10
197.796949
 20
169.623325
 30
0.0
 40
6.0
100
AcDbArc
 50
182.0
 51
270.0
  0
ARC
  5
2D5
330
1F
100
AcDbEntity
  8
GR1-1
  6
CENTER
 62
     6
100
AcDbCircle
 10
191.507139
 20
177.817647
 30
0.0
 40
5.0
100
AcDbArc
 50
2.0
 51
90.0
  0
LINE
  5
2D6
330
1F
100
AcDbEntity
  8
GR1-1
  6
CENTER
 62
     6
100
AcDbLine
 10
196.504094
 20
177.992145
 30
0.0
 11
196.696452
 21
172.483727
 31
0.0
  0
ARC
  5
2D7
330
1F
100
AcDbEntity
  8
GR1-1
  6
CENTER
 62
     6
100
AcDbCircle
 10
200.694015
 20
172.623325
 30
0.0
 40
4.0
100
AcDbArc
 50
182.0
 51
270.0
  0
LINE
  5
2D8
330
1F
100
AcDbEntity
  8
GR1-1
  6
CENTER
 62
     6
100
AcDbLine
 10
200.694015
 20
168.623325
 30
0.0
 11
243.137737
 21
168.623325
 31
0.0
  0
LINE
  5
2D9
330
1F
100
AcDbEntity
  8
GR1-1
  6
CONTINUOUS
 62
     6
100
AcDbLine
 10
162.959312
 20
179.817647
 30
0.0
 11
162.535583
 21
178.567647
 31
0.0
  0
LINE
  5
2DA
330
1F
100
AcDbEntity
  8
GR1-1
  6
CONTINUOUS
 62
     6
100
AcDbLine
 10
162.535583
 20
178.567647
 30
0.0
 11
166.635583
 21
178.567647
 31
0.0
  0
LINE
  5
2DB
330
1F
100
AcDbEntity
  8
GR1-1
  6
CONTINUOUS
 62
     6
100
AcDbLine
 10
162.959312
 20
185.817647
 30
0.0
 11
162.535583
 21
187.067647
 31
0.0
  0
LINE
  5
2DC
330
1F
100
AcDbEntity
  8
GR1-1
  6
CONTINUOUS
 62
     6
100
AcDbLine
 10
162.535583
 20
187.067647
 30
0.0
 11
166.635583
 21
187.067647
 31
0.0
  0
DIMENSION
  5
2DD
330
1F
100
AcDbEntity
  8
LAYERGROUP-1
100
AcDbDimension
  2
*D32
 10
240.735583
 20
226.117647
 30
0.0
 11
190.035583
 21
227.117645
 31
0.0
 70
    32
  3
FXDIMINFO
100
AcDbAlignedDimension
 13
139.335583
 23
219.859272
 33
0.0
 14
240.735583
 24
171.423325
 34
0.0
 50
180.0
100
AcDbRotatedDimension
1001
ACAD
1000
DSTYLE
1002
{
1070
     7
1000
FXTIP_ARROW_E
1070
     6
1000
FXTIP_ARROW_S
1070
   173
1070
     1
1002
}
  0
LINE
  5
2E7
330
1F
100
AcDbEntity
  8
LAYERGROUP-1
  6
CONTINUOUS
 62
     3
100
AcDbLine
 10
112.035583
 20
185.817647
 30
0.0
 11
124.085583
 21
185.817647
 31
0.0
  0
LINE
  5
2E8
330
1F
100
AcDbEntity
  8
LAYERGROUP-1
  6
CONTINUOUS
 62
     3
100
AcDbLine
 10
112.035583
 20
179.817647
 30
0.0
 11
124.085583
 21
179.817647
 31
0.0
  0
LINE
  5
2E9
330
1F
100
AcDbEntity
  8
GR1-1
  6
CONTINUOUS
 62
     3
100
AcDbLine
 10
166.635583
 20
177.817647
 30
0.0
 11
155.335583
 21
177.817647
 31
0.0
  0
LINE
  5
2EA
330
1F
100
AcDbEntity
  8
GR1-1
  6
CONTINUOUS
 62
     3
100
AcDbLine
 10
185.390086
 20
187.817647
 30
0.0
 11
195.369895
 21
187.817647
 31
0.0
  0
LINE
  5
2EB
330
1F
100
AcDbEntity
  8
GR1-1
  6
CONTINUOUS
 62
     3
100
AcDbLine
 10
155.335583
 20
186.117376
 30
0.0
 11
155.335583
 21
185.817647
 31
0.0
  0
ARC
  5
2EC
330
1F
100
AcDbEntity
  8
GR1-1
  6
CONTINUOUS
 62
     3
100
AcDbCircle
 10
154.835583
 20
185.617376
 30
0.0
 40
1.5
100
AcDbArc
 50
7.672714
 51
90.0
  0
LINE
  5
2ED
330
1F
100
AcDbEntity
  8
GR1-1
  6
CONTINUOUS
 62
     3
100
AcDbLine
 10
154.585583
 20
188.748811
 30
0.0
 11
154.585583
 21
170.443072
 31
0.0
  0
LINE
  5
2EE
330
1F
100
AcDbEntity
  8
GR1-1
  6
CONTINUOUS
 62
     6
100
AcDbLine
 10
154.585583
 20
186.967647
 30
0.0
 11
124.085583
 21
186.967647
 31
0.0
  0
LINE
  5
2EF
330
1F
100
AcDbEntity
  8
GR1-1
  6
CONTINUOUS
 62
     3
100
AcDbLine
 10
154.585583
 20
186.117376
 30
0.0
 11
155.335583
 21
186.117376
 31
0.0
  0
LINE
  5
2F0
330
1F
100
AcDbEntity
  8
GR1-1
  6
CONTINUOUS
 62
     3
100
AcDbLine
 10
154.585583
 20
170.443072
 30
0.0
 11
124.085583
 21
170.443072
 31
0.0
  0
LINE
  5
2F1
330
1F
100
AcDbEntity
  8
GR1-1
  6
CONTINUOUS
 62
     3
100
AcDbLine
 10
154.585583
 20
178.667647
 30
0.0
 11
124.085583
 21
178.667647
 31
0.0
  0
LINE
  5
2F2
330
1F
100
AcDbEntity
  8
GR1-1
  6
CONTINUOUS
 62
     3
100
AcDbLine
 10
158.835583
 20
190.210877
 30
0.0
 11
158.835583
 21
187.817647
 31
0.0
  0
ARC
  5
2F3
330
1F
100
AcDbEntity
  8
GR1-1
  6
CONTINUOUS
 62
     3
100
AcDbCircle
 10
158.335583
 20
190.210877
 30
0.0
 40
0.5
100
AcDbArc
 50
0.0
 51
90.0
  0
LINE
  5
2F4
330
1F
100
AcDbEntity
  8
GR1-1
  6
CONTINUOUS
 62
     3
100
AcDbLine
 10
158.061415
 20
187.817647
 30
0.0
 11
158.061415
 21
190.710877
 31
0.0
  0
LINE
  5
2F5
330
1F
100
AcDbEntity
  8
GR1-1
  6
CONTINUOUS
 62
     3
100
AcDbLine
 10
158.335583
 20
190.710877
 30
0.0
 11
158.061415
 21
190.710877
 31
0.0
  0
ARC
  5
2F6
330
1F
100
AcDbEntity
  8
GR1-1
  6
CONTINUOUS
 62
     3
100
AcDbCircle
 10
158.682317
 20
185.551161
 30
0.0
 40
5.196940240787713
100
AcDbArc
 50
96.86177
 51
142.026666
  0
ARC
  5
2F7
330
1F
100
AcDbEntity
  8
GR1-1
  6
CONTINUOUS
 62
     3
100
AcDbCircle
 10
143.335583
 20
171.143072
 30
0.0
 40
1.5
100
AcDbArc
 50
222.843643
 51
317.156357
  0
ARC
  5
2F8
330
1F
100
AcDbEntity
  8
GR1-1
  6
CONTINUOUS
 62
     3
100
AcDbCircle
 10
145.168614
 20
169.443072
 30
0.0
 40
1.0
100
AcDbArc
 50
90.0
 51
137.156357
  0
ARC
  5
2F9
330
1F
100
AcDbEntity
  8
GR1-1
  6
CONTINUOUS
 62
     3
100
AcDbCircle
 10
141.502553
 20
169.443072
 30
0.0
 40
1.0
100
AcDbArc
 50
42.843643
 51
90.0
  0
ARC
  5
2FA
330
1F
100
AcDbEntity
  8
GR1-1
  6
CONTINUOUS
 62
     3
100
AcDbCircle
 10
135.335583
 20
171.143072
 30
0.0
 40
1.5
100
AcDbArc
 50
222.843643
 51
317.156357
  0
ARC
  5
2FB
330
1F
100
AcDbEntity
  8
GR1-1
  6
CONTINUOUS
 62
     3
100
AcDbCircle
 10
133.502553
 20
169.443072
 30
0.0
 40
1.0
100
AcDbArc
 50
42.843643
 51
90.0
  0
ARC
  5
2FC
330
1F
100
AcDbEntity
  8
GR1-1
  6
CONTINUOUS
 62
     3
100
AcDbCircle
 10
137.168614
 20
169.443072
 30
0.0
 40
1.0
100
AcDbArc
 50
90.0
 51
137.156357
  0
ARC
  5
2FD
330
1F
100
AcDbEntity
  8
GR1-1
  6
CONTINUOUS
 62
     3
100
AcDbCircle
 10
139.335583
 20
178.634122
 30
0.0
 40
10.07294593155626
100
AcDbArc
 50
65.043993
 51
114.956007
  0
LINE
  5
2FE
330
1F
100
AcDbEntity
  8
GR1-1
  6
CONTINUOUS
 62
     3
100
AcDbLine
 10
149.835583
 20
190.140653
 30
0.0
 11
149.835583
 21
187.766577
 31
0.0
  0
LINE
  5
2FF
330
1F
100
AcDbEntity
  8
GR1-1
  6
CONTINUOUS
 62
     3
100
AcDbLine
 10
150.835583
 20
190.140653
 30
0.0
 11
150.835583
 21
187.766577
 31
0.0
  0
LINE
  5
300
330
1F
100
AcDbEntity
  8
GR1-1
  6
CONTINUOUS
 62
     3
100
AcDbLine
 10
150.835583
 20
190.140653
 30
0.0
 11
153.135583
 21
189.958534
 31
0.0
  0
LINE
  5
301
330
1F
100
AcDbEntity
  8
GR1-1
  6
CONTINUOUS
 62
     3
100
AcDbLine
 10
153.135583
 20
189.958534
 30
0.0
 11
153.135583
 21
187.766577
 31
0.0
  0
LINE
  5
302
330
1F
100
AcDbEntity
  8
GR1-1
  6
CONTINUOUS
 62
     3
100
AcDbLine
 10
150.835583
 20
190.140653
 30
0.0
 11
149.835583
 21
190.140653
 31
0.0
  0
LINE
  5
303
330
1F
100
AcDbEntity
  8
GR1-1
  6
CONTINUOUS
 62
     3
100
AcDbLine
 10
153.585583
 20
188.279512
 30
0.0
 11
153.585583
 21
187.766577
 31
0.0
  0
ARC
  5
304
330
1F
100
AcDbEntity
  8
GR1-1
  6
CONTINUOUS
 62
     3
100
AcDbCircle
 10
158.881904
 20
182.753064
 30
0.0
 40
8.0
100
AcDbArc
 50
95.88667
 51
127.861884
  0
ARC
  5
305
330
1F
100
AcDbEntity
  8
GR1-1
  6
CONTINUOUS
 62
     3
100
AcDbCircle
 10
154.585583
 20
188.279512
 30
0.0
 40
1.0
100
AcDbArc
 50
127.861884
 51
180.0
  0
LINE
  5
306
330
1F
100
AcDbEntity
  8
GR1-1
  6
CONTINUOUS
 62
     3
100
AcDbLine
 10
154.585583
 20
187.766577
 30
0.0
 11
124.085583
 21
187.766577
 31
0.0
  0
LINE
  5
307
330
1F
100
AcDbEntity
  8
GR1-1
  6
CONTINUOUS
 62
     3
100
AcDbLine
 10
154.585583
 20
187.117376
 30
0.0
 11
154.835583
 21
187.117376
 31
0.0
  0
LINE
  5
308
330
1F
100
AcDbEntity
  8
GR1-1
  6
CONTINUOUS
 62
     3
100
AcDbLine
 10
123.335583
 20
186.117376
 30
0.0
 11
123.335583
 21
185.817647
 31
0.0
  0
ARC
  5
309
330
1F
100
AcDbEntity
  8
GR1-1
  6
CONTINUOUS
 62
     3
100
AcDbCircle
 10
123.835583
 20
185.617376
 30
0.0
 40
1.5
100
AcDbArc
 50
90.0
 51
172.327286
  0
LINE
  5
30A
330
1F
100
AcDbEntity
  8
GR1-1
  6
CONTINUOUS
 62
     3
100
AcDbLine
 10
124.085583
 20
188.748811
 30
0.0
 11
124.085583
 21
170.443072
 31
0.0
  0
LINE
  5
30B
330
1F
100
AcDbEntity
  8
GR1-1
  6
CONTINUOUS
 62
     3
100
AcDbLine
 10
124.085583
 20
186.117376
 30
0.0
 11
123.335583
 21
186.117376
 31
0.0
  0
LINE
  5
30C
330
1F
100
AcDbEntity
  8
GR1-1
  6
CONTINUOUS
 62
     3
100
AcDbLine
 10
119.835583
 20
190.210877
 30
0.0
 11
119.835583
 21
187.817647
 31
0.0
  0
ARC
  5
30D
330
1F
100
AcDbEntity
  8
GR1-1
  6
CONTINUOUS
 62
     3
100
AcDbCircle
 10
120.335583
 20
190.210877
 30
0.0
 40
0.5
100
AcDbArc
 50
90.0
 51
180.0
  0
LINE
  5
30E
330
1F
100
AcDbEntity
  8
GR1-1
  6
CONTINUOUS
 62
     3
100
AcDbLine
 10
120.609751
 20
187.817647
 30
0.0
 11
120.609751
 21
190.710877
 31
0.0
  0
LINE
  5
30F
330
1F
100
AcDbEntity
  8
GR1-1
  6
CONTINUOUS
 62
     3
100
AcDbLine
 10
120.335583
 20
190.710877
 30
0.0
 11
120.609751
 21
190.710877
 31
0.0
  0
ARC
  5
310
330
1F
100
AcDbEntity
  8
GR1-1
  6
CONTINUOUS
 62
     3
100
AcDbCircle
 10
119.98885
 20
185.551161
 30
0.0
 40
5.196940240787713
100
AcDbArc
 50
37.973334
 51
83.13823
  0
LINE
  5
311
330
1F
100
AcDbEntity
  8
GR1-1
  6
CONTINUOUS
 62
     3
100
AcDbLine
 10
128.835583
 20
190.140653
 30
0.0
 11
128.835583
 21
187.766577
 31
0.0
  0
LINE
  5
312
330
1F
100
AcDbEntity
  8
GR1-1
  6
CONTINUOUS
 62
     3
100
AcDbLine
 10
127.835583
 20
190.140653
 30
0.0
 11
127.835583
 21
187.766577
 31
0.0
  0
LINE
  5
313
330
1F
100
AcDbEntity
  8
GR1-1
  6
CONTINUOUS
 62
     3
100
AcDbLine
 10
127.835583
 20
190.140653
 30
0.0
 11
125.535583
 21
189.958534
 31
0.0
  0
LINE
  5
314
330
1F
100
AcDbEntity
  8
GR1-1
  6
CONTINUOUS
 62
     3
100
AcDbLine
 10
125.535583
 20
189.958534
 30
0.0
 11
125.535583
 21
187.766577
 31
0.0
  0
LINE
  5
315
330
1F
100
AcDbEntity
  8
GR1-1
  6
CONTINUOUS
 62
     3
100
AcDbLine
 10
127.835583
 20
190.140653
 30
0.0
 11
128.835583
 21
190.140653
 31
0.0
  0
LINE
  5
316
330
1F
100
AcDbEntity
  8
GR1-1
  6
CONTINUOUS
 62
     3
100
AcDbLine
 10
125.085583
 20
188.279512
 30
0.0
 11
125.085583
 21
187.766577
 31
0.0
  0
ARC
  5
317
330
1F
100
AcDbEntity
  8
GR1-1
  6
CONTINUOUS
 62
     3
100
AcDbCircle
 10
119.789262
 20
182.753064
 30
0.0
 40
8.0
100
AcDbArc
 50
52.138116
 51
84.11333
  0
ARC
  5
318
330
1F
100
AcDbEntity
  8
GR1-1
  6
CONTINUOUS
 62
     3
100
AcDbCircle
 10
124.085583
 20
188.279512
 30
0.0
 40
1.0
100
AcDbArc
 50
0.0
 51
52.138116
  0
LINE
  5
319
330
1F
100
AcDbEntity
  8
GR1-1
  6
CONTINUOUS
 62
     3
100
AcDbLine
 10
124.085583
 20
187.117376
 30
0.0
 11
123.835583
 21
187.117376
 31
0.0
  0
LINE
  5
31A
330
1F
100
AcDbEntity
  8
LAYERGROUP-1
  6
CONTINUOUS
 62
     3
100
AcDbLine
 10
154.585583
 20
185.817647
 30
0.0
 11
166.635583
 21
185.817647
 31
0.0
  0
LINE
  5
31B
330
1F
100
AcDbEntity
  8
LAYERGROUP-1
  6
CONTINUOUS
 62
     3
100
AcDbLine
 10
154.585583
 20
179.817647
 30
0.0
 11
166.635583
 21
179.817647
 31
0.0
  0
LINE
  5
31C
330
1F
100
AcDbEntity
  8
GR1-1
  6
CONTINUOUS
 62
     6
100
AcDbLine
 10
112.035583
 20
185.276147
 30
0.0
 11
119.835583
 21
185.276147
 31
0.0
  0
LINE
  5
31D
330
1F
100
AcDbEntity
  8
GR1-1
  6
CONTINUOUS
 62
     6
100
AcDbLine
 10
119.835583
 20
185.276147
 30
0.0
 11
120.835583
 21
185.817647
 31
0.0
  0
LINE
  5
31E
330
1F
100
AcDbEntity
  8
GR1-1
  6
CONTINUOUS
 62
     6
100
AcDbLine
 10
120.835583
 20
185.817647
 30
0.0
 11
120.835583
 21
179.817647
 31
0.0
  0
LINE
  5
31F
330
1F
100
AcDbEntity
  8
GR1-1
  6
CONTINUOUS
 62
     6
100
AcDbLine
 10
120.835583
 20
179.817647
 30
0.0
 11
119.835583
 21
180.359147
 31
0.0
  0
LINE
  5
320
330
1F
100
AcDbEntity
  8
GR1-1
  6
CONTINUOUS
 62
     6
100
AcDbLine
 10
119.835583
 20
180.359147
 30
0.0
 11
112.035583
 21
180.359147
 31
0.0
  0
LINE
  5
321
330
1F
100
AcDbEntity
  8
GR1-1
  6
CONTINUOUS
 62
     6
100
AcDbLine
 10
119.835583
 20
180.359147
 30
0.0
 11
119.835583
 21
185.276147
 31
0.0
  0
ARC
  5
322
330
1F
100
AcDbEntity
  8
GR1-1
  6
CONTINUOUS
 62
     3
100
AcDbCircle
 10
288.340747
 20
169.037386
 30
0.0
 40
34.87697414695938
100
AcDbArc
 50
18.523621
 51
77.729863
  0
ARC
  5
323
330
1F
100
AcDbEntity
  8
GR1-1
  6
CONTINUOUS
 62
     3
100
AcDbCircle
 10
-361.302572
 20
-44.737935
 30
0.0
 40
718.7890077620168
100
AcDbArc
 50
12.669977
 51
17.191428
  0
LINE
  5
324
330
1F
100
AcDbEntity
  8
GR1-1
  6
CONTINUOUS
 62
     3
100
AcDbLine
 10
343.640502
 20
99.731441
 30
0.0
 11
324.815353
 21
167.612735
 31
0.0
  0
LINE
  5
325
330
1F
100
AcDbEntity
  8
GR1-1
  6
CONTINUOUS
 62
     3
100
AcDbLine
 10
321.0545
 20
180.973467
 30
0.0
 11
319.989801
 21
183.691421
 31
0.0
  0
ARC
  5
326
330
1F
100
AcDbEntity
  8
GR1-1
  6
CONTINUOUS
 62
     3
100
AcDbCircle
 10
288.560797
 20
169.373342
 30
0.0
 40
34.50222660562747
100
AcDbArc
 50
18.144167
 51
19.646366
  0
ARC
  5
327
330
1F
100
AcDbEntity
  8
GR1-1
  6
CONTINUOUS
 62
     3
100
AcDbCircle
 10
-361.302572
 20
-44.737935
 30
0.0
 40
718.7890077620168
100
AcDbArc
 50
17.995602
 51
18.229595
  0
LINE
  5
328
330
1F
100
AcDbEntity
  8
GR1-1
  6
CONTINUOUS
 62
     3
100
AcDbLine
 10
322.130609
 20
177.293609
 30
0.0
 11
321.347434
 21
180.117647
 31
0.0
  0
LINE
  5
329
330
1F
100
AcDbEntity
  8
GR1-1
  6
CONTINUOUS
 62
     3
100
AcDbLine
 10
357.756458
 20
364.517647
 30
0.0
 11
357.756458
 21
365.317647
 31
0.0
  0
LINE
  5
32A
330
1F
100
AcDbEntity
  8
GR1-1
  6
CONTINUOUS
 62
     3
100
AcDbLine
 10
357.749223
 20
365.317647
 30
0.0
 11
358.749223
 21
366.317647
 31
0.0
  0
LINE
  5
32B
330
1F
100
AcDbEntity
  8
GR1-1
  6
CONTINUOUS
 62
     3
100
AcDbLine
 10
358.749223
 20
366.317647
 30
0.0
 11
370.749223
 21
366.317647
 31
0.0
  0
LINE
  5
32C
330
1F
100
AcDbEntity
  8
GR1-1
  6
CONTINUOUS
 62
     3
100
AcDbLine
 10
370.749223
 20
366.317647
 30
0.0
 11
371.749223
 21
365.317647
 31
0.0
  0
LINE
  5
32D
330
1F
100
AcDbEntity
  8
GR1-1
  6
CONTINUOUS
 62
     3
100
AcDbLine
 10
371.749223
 20
365.317647
 30
0.0
 11
371.749223
 21
364.517647
 31
0.0
  0
LINE
  5
32E
330
1F
100
AcDbEntity
  8
GR1-1
  6
CONTINUOUS
 62
     6
100
AcDbLine
 10
370.940841
 20
366.126029
 30
0.0
 11
370.940841
 21
364.517647
 31
0.0
  0
LINE
  5
32F
330
1F
100
AcDbEntity
  8
GR1-1
  6
CONTINUOUS
 62
     6
100
AcDbLine
 10
371.749223
 20
365.317647
 30
0.0
 11
357.749223
 21
365.317647
 31
0.0
  0
LINE
  5
330
330
1F
100
AcDbEntity
  8
GR1-1
  6
CONTINUOUS
 62
     6
100
AcDbLine
 10
358.564841
 20
364.517647
 30
0.0
 11
358.564841
 21
366.126029
 31
0.0
  0
LINE
  5
331
330
1F
100
AcDbEntity
  8
LAYERGROUP-1
  6
CONTINUOUS
 62
     3
100
AcDbLine
 10
342.252841
 20
291.817847
 30
0.0
 11
342.252841
 21
289.952904
 31
0.0
  0
LINE
  5
332
330
1F
100
AcDbEntity
  8
LAYERGROUP-1
  6
CONTINUOUS
 62
     3
100
AcDbLine
 10
342.252841
 20
289.952904
 30
0.0
 11
342.752841
 21
289.217647
 31
0.0
  0
LINE
  5
333
330
1F
100
AcDbEntity
  8
LAYERGROUP-1
  6
CONTINUOUS
 62
     3
100
AcDbLine
 10
342.752841
 20
289.217647
 30
0.0
 11
351.752841
 21
289.217647
 31
0.0
  0
LINE
  5
334
330
1F
100
AcDbEntity
  8
LAYERGROUP-1
  6
CONTINUOUS
 62
     3
100
AcDbLine
 10
352.252841
 20
293.217647
 30
0.0
 11
352.252841
 21
289.952904
 31
0.0
  0
LINE
  5
335
330
1F
100
AcDbEntity
  8
LAYERGROUP-1
  6
CONTINUOUS
 62
     3
100
AcDbLine
 10
352.252841
 20
289.952904
 30
0.0
 11
351.752841
 21
289.217647
 31
0.0
  0
LINE
  5
336
330
1F
100
AcDbEntity
  8
LAYERGROUP-1
  6
CONTINUOUS
 62
     3
100
AcDbLine
 10
347.252841
 20
289.952904
 30
0.0
 11
347.252841
 21
293.217647
 31
0.0
  0
ARC
  5
337
330
1F
100
AcDbEntity
  8
LAYERGROUP-1
  6
CONTINUOUS
 62
     3
100
AcDbCircle
 10
344.752841
 20
293.835489
 30
0.0
 40
4.617842406704289
100
AcDbArc
 50
237.22248
 51
302.77752
  0
ARC
  5
338
330
1F
100
AcDbEntity
  8
LAYERGROUP-1
  6
CONTINUOUS
 62
     3
100
AcDbCircle
 10
349.752841
 20
293.835489
 30
0.0
 40
4.617842406704289
100
AcDbArc
 50
237.22248
 51
302.77752
  0
INSERT
  5
33C
330
1F
100
AcDbEntity
  8
0
100
AcDbBlockReference
  2
BLKF035
 10
0.0
 20
0.0
 30
0.0
  0
LINE
  5
34B
330
1F
100
AcDbEntity
  8
GR1-1
  6
CONTINUOUS
 62
     3
100
AcDbLine
 10
166.635583
 20
114.114029
 30
0.0
 11
165.335583
 21
114.114029
 31
0.0
  0
LINE
  5
34C
330
1F
100
AcDbEntity
  8
GR1-1
  6
CONTINUOUS
 62
     3
100
AcDbLine
 10
165.335583
 20
94.114029
 30
0.0
 11
166.635583
 21
94.114029
 31
0.0
  0
LINE
  5
34D
330
1F
100
AcDbEntity
  8
GR1-1
  6
CENTER
 62
     6
100
AcDbLine
 10
316.252841
 20
343.616073
 30
0.0
 11
316.252841
 21
357.696945
 31
0.0
  0
LINE
  5
34E
330
1F
100
AcDbEntity
  8
GR1-1
  6
CENTER
 62
     6
100
AcDbLine
 10
322.553498
 20
351.117647
 30
0.0
 11
308.319097
 21
351.117647
 31
0.0
  0
LINE
  5
34F
330
1F
100
AcDbEntity
  8
GR1-1
  6
CENTER
 62
     6
100
AcDbLine
 10
314.752841
 20
357.696945
 30
0.0
 11
314.752841
 21
343.616073
 31
0.0
  0
LINE
  5
350
330
1F
100
AcDbEntity
  8
GR1-1
  6
CENTER
 62
     6
100
AcDbLine
 10
308.999014
 20
349.617647
 30
0.0
 11
322.553498
 21
349.617647
 31
0.0
  0
LINE
  5
351
330
1F
100
AcDbEntity
  8
GR1-1
  6
CENTER
 62
     6
100
AcDbLine
 10
165.835583
 20
212.109982
 30
0.0
 11
165.835583
 21
218.905264
 31
0.0
  0
LINE
  5
352
330
1F
100
AcDbEntity
  8
GR1-1
  6
CENTER
 62
     6
100
AcDbLine
 10
167.335583
 20
212.109982
 30
0.0
 11
167.335583
 21
218.905264
 31
0.0
  0
LINE
  5
353
330
1F
100
AcDbEntity
  8
GR1-1
  6
CENTER
 62
     6
100
AcDbLine
 10
112.835583
 20
212.109982
 30
0.0
 11
112.835583
 21
218.905264
 31
0.0
  0
LINE
  5
354
330
1F
100
AcDbEntity
  8
GR1-1
  6
CENTER
 62
     6
100
AcDbLine
 10
111.335583
 20
212.109982
 30
0.0
 11
111.335583
 21
218.905264
 31
0.0
  0
LINE
  5
355
330
1F
100
AcDbEntity
  8
}}ﾊﾊGG血CCТ
  6
CENTER
 62
     6
100
AcDbLine
 10
414.752841
 20
220.051636
 30
0.0
 11
414.752841
 21
211.25861
 31
0.0
  0
LINE
  5
356
330
1F
100
AcDbEntity
  8
}}ﾊﾊGG血CCТ
  6
CENTER
 62
     6
100
AcDbLine
 10
413.252841
 20
220.051636
 30
0.0
 11
413.252841
 21
211.25861
 31
0.0
  0
LINE
  5
357
330
1F
100
AcDbEntity
  8
}}ﾊﾊGG血CCТ
  6
CENTER
 62
     6
100
AcDbLine
 10
314.752841
 20
220.051636
 30
0.0
 11
314.752841
 21
211.25861
 31
0.0
  0
LINE
  5
358
330
1F
100
AcDbEntity
  8
}}ﾊﾊGG血CCТ
  6
CENTER
 62
     6
100
AcDbLine
 10
316.252841
 20
220.051636
 30
0.0
 11
316.252841
 21
211.25861
 31
0.0
  0
LINE
  5
359
330
1F
100
AcDbEntity
  8
GR1-1
  6
CENTER
 62
     6
100
AcDbLine
 10
413.252841
 20
343.616073
 30
0.0
 11
413.252841
 21
357.696945
 31
0.0
  0
LINE
  5
35A
330
1F
100
AcDbEntity
  8
GR1-1
  6
CENTER
 62
     6
100
AcDbLine
 10
406.952183
 20
351.117647
 30
0.0
 11
421.186584
 21
351.117647
 31
0.0
  0
LINE
  5
35B
330
1F
100
AcDbEntity
  8
GR1-1
  6
CENTER
 62
     6
100
AcDbLine
 10
414.752841
 20
357.696945
 30
0.0
 11
414.752841
 21
343.616073
 31
0.0
  0
LINE
  5
35C
330
1F
100
AcDbEntity
  8
GR1-1
  6
CENTER
 62
     6
100
AcDbLine
 10
420.506667
 20
349.617647
 30
0.0
 11
406.952183
 21
349.617647
 31
0.0
  0
LINE
  5
35D
330
1F
100
AcDbEntity
  8
GR1-1
  6
CENTER
 62
     6
100
AcDbLine
 10
316.252841
 20
302.619221
 30
0.0
 11
316.252841
 21
288.538349
 31
0.0
  0
LINE
  5
35E
330
1F
100
AcDbEntity
  8
GR1-1
  6
CENTER
 62
     6
100
AcDbLine
 10
322.553498
 20
295.117647
 30
0.0
 11
308.319097
 21
295.117647
 31
0.0
  0
LINE
  5
35F
330
1F
100
AcDbEntity
  8
GR1-1
  6
CENTER
 62
     6
100
AcDbLine
 10
314.752841
 20
288.538349
 30
0.0
 11
314.752841
 21
302.619221
 31
0.0
  0
LINE
  5
360
330
1F
100
AcDbEntity
  8
GR1-1
  6
CENTER
 62
     6
100
AcDbLine
 10
308.999014
 20
296.617647
 30
0.0
 11
322.553498
 21
296.617647
 31
0.0
  0
LINE
  5
361
330
1F
100
AcDbEntity
  8
GR1-1
  6
CENTER
 62
     6
100
AcDbLine
 10
413.252841
 20
302.619221
 30
0.0
 11
413.252841
 21
288.538349
 31
0.0
  0
LINE
  5
362
330
1F
100
AcDbEntity
  8
GR1-1
  6
CENTER
 62
     6
100
AcDbLine
 10
406.952183
 20
295.117647
 30
0.0
 11
421.186584
 21
295.117647
 31
0.0
  0
LINE
  5
363
330
1F
100
AcDbEntity
  8
GR1-1
  6
CENTER
 62
     6
100
AcDbLine
 10
414.752841
 20
288.538349
 30
0.0
 11
414.752841
 21
302.619221
 31
0.0
  0
LINE
  5
364
330
1F
100
AcDbEntity
  8
GR1-1
  6
CENTER
 62
     6
100
AcDbLine
 10
420.506667
 20
296.617647
 30
0.0
 11
406.952183
 21
296.617647
 31
0.0
  0
LINE
  5
365
330
1F
100
AcDbEntity
  8
}}ﾊﾊGG血CCТ
  6
CENTER
 62
     6
100
AcDbLine
 10
347.252841
 20
365.601035
 30
0.0
 11
347.252841
 21
350.703221
 31
0.0
  0
LINE
  5
366
330
1F
100
AcDbEntity
  8
}}ﾊﾊGG血CCТ
  6
CENTER
 62
     6
100
AcDbLine
 10
347.252841
 20
298.19573
 30
0.0
 11
347.252841
 21
285.0506
 31
0.0
  0
LINE
  5
367
330
1F
100
AcDbEntity
  8
}}ﾊﾊGG血CCТ
  6
CENTER
 62
     6
100
AcDbLine
 10
382.252841
 20
348.036694
 30
0.0
 11
382.252841
 21
360.65286
 31
0.0
  0
LINE
  5
368
330
1F
100
AcDbEntity
  8
GR1-1
  6
CONTINUOUS
 62
     3
100
AcDbLine
 10
344.366089
 20
187.817647
 30
0.0
 11
341.479338
 21
182.817647
 31
0.0
  0
LINE
  5
369
330
1F
100
AcDbEntity
  8
GR1-1
  6
CONTINUOUS
 62
     3
100
AcDbLine
 10
341.479338
 20
182.817647
 30
0.0
 11
342.586213
 21
180.900483
 31
0.0
  0
INSERT
  5
36D
330
1F
100
AcDbEntity
  8
0
100
AcDbBlockReference
  2
BLKF036
 10
0.0
 20
0.0
 30
0.0
  0
DIMENSION
  5
39C
330
1F
100
AcDbEntity
  8
LAYERGROUP-1
100
AcDbDimension
  2
*D35
 10
157.335583
 20
27.747863
 30
0.0
 11
139.335571
 21
28.747864
 31
0.0
 70
    33
  3
FXDIMINFO
100
AcDbAlignedDimension
 13
121.335583
 23
52.617647
 33
0.0
 14
157.335583
 24
52.617647
 34
0.0
1001
ACAD
1000
DSTYLE
1002
{
1070
     7
1000
FXTIP_ARROW_E
1070
     6
1000
FXTIP_ARROW_S
1070
   173
1070
     1
1002
}
  0
DIMENSION
  5
3A6
330
1F
100
AcDbEntity
  8
LAYERGROUP-1
100
AcDbDimension
  2
*D36
 10
165.335583
 20
13.746593
 30
0.0
 11
139.335571
 21
14.746613
 31
0.0
 70
    33
  3
FXDIMINFO
100
AcDbAlignedDimension
 13
113.335583
 23
90.117647
 33
0.0
 14
165.335583
 24
90.117647
 34
0.0
1001
ACAD
1000
DSTYLE
1002
{
1070
     7
1000
FXTIP_ARROW_E
1070
     6
1000
FXTIP_ARROW_S
1070
   173
1070
     1
1002
}
  0
TEXT
  5
3B0
330
1F
100
AcDbEntity
  8
GR1-1
  6
CONTINUOUS
 62
     7
100
AcDbText
 10
351.101807
 20
73.55481
 30
0.0
 40
6.066293
  1
1
 50
151.967178
 41
1.408996
  7
FX_VECTOR
 72
     5
 11
347.149878
 21
75.658992
 31
0.0
100
AcDbText
  0
TEXT
  5
3B1
330
1F
100
AcDbEntity
  8
GR1-1
  6
CONTINUOUS
 62
     7
100
AcDbText
 10
343.622894
 20
78.169525
 30
0.0
 40
5.999599
  1
0
 50
136.967178
 41
0.967774
  7
FX_VECTOR
 72
     5
 11
340.187146
 21
81.377093
 31
0.0
100
AcDbText
  0
TEXT
  5
3B2
330
1F
100
AcDbEntity
  8
GR1-1
  6
CONTINUOUS
 62
     7
100
AcDbText
 10
339.715759
 20
82.081543
 30
0.0
 40
6.071067
  1
X
 50
127.967178
 41
0.899381
  7
FX_VECTOR
 72
     5
 11
336.996431
 21
85.566238
 31
0.0
100
AcDbText
  0
TEXT
  5
3B3
330
1F
100
AcDbEntity
  8
GR1-1
  6
CONTINUOUS
 62
     7
100
AcDbText
 10
335.984711
 20
87.016571
 30
0.0
 40
6.035253
  1
3
 50
116.967178
 41
0.940899
  7
FX_VECTOR
 72
     5
 11
333.900094
 21
91.113661
 31
0.0
100
AcDbText
  0
TEXT
  5
3B4
330
1F
100
AcDbEntity
  8
GR1-1
  6
CONTINUOUS
 62
     7
100
AcDbText
 10
333.558319
 20
91.873474
 30
0.0
 40
5.978302
  1
6
 50
107.967178
 41
0.895278
  7
FX_VECTOR
 72
     5
 11
332.221781
 21
95.994947
 31
0.0
100
AcDbText
  0
TEXT
  5
3B5
330
1F
100
AcDbEntity
  8
GR1-1
  6
CONTINUOUS
 62
     7
100
AcDbText
 10
347.9263
 20
75.25708
 30
0.0
 40
6.11681
  1
3
 50
145.967178
 41
0.944062
  7
FX_VECTOR
 72
     5
 11
344.052283
 21
77.873367
 31
0.0
100
AcDbText
  0
LINE
  5
3B6
330
1F
100
AcDbEntity
  8
GR1-1
  6
CONTINUOUS
 62
     7
100
AcDbLine
 10
358.393587
 20
65.558473
 30
0.0
 11
353.522382
 21
66.686019
 31
0.0
  0
LINE
  5
3B7
330
1F
100
AcDbEntity
  8
GR1-1
  6
CONTINUOUS
 62
     7
100
AcDbLine
 10
353.522382
 20
66.686019
 30
0.0
 11
354.649928
 21
71.557224
 31
0.0
  0
LINE
  5
3B8
330
1F
100
AcDbEntity
  8
GR1-1
  6
CONTINUOUS
 62
     7
100
AcDbLine
 10
354.649928
 20
71.557224
 30
0.0
 11
359.521133
 21
70.429678
 31
0.0
  0
LINE
  5
3B9
330
1F
100
AcDbEntity
  8
GR1-1
  6
CONTINUOUS
 62
     7
100
AcDbLine
 10
359.521133
 20
70.429678
 30
0.0
 11
358.393587
 21
65.558473
 31
0.0
  0
LINE
  5
3BA
330
1F
100
AcDbEntity
  8
GR1-1
  6
CONTINUOUS
 62
     7
100
AcDbLine
 10
355.990228
 20
66.26154
 30
0.0
 11
358.818066
 21
68.026318
 31
0.0
  0
LINE
  5
3BB
330
1F
100
AcDbEntity
  8
GR1-1
  6
CONTINUOUS
 62
     7
100
AcDbLine
 10
358.818066
 20
68.026318
 30
0.0
 11
357.053288
 21
70.854157
 31
0.0
  0
LINE
  5
3BC
330
1F
100
AcDbEntity
  8
GR1-1
  6
CONTINUOUS
 62
     7
100
AcDbLine
 10
357.053288
 20
70.854157
 30
0.0
 11
355.395916
 21
69.819836
 31
0.0
  0
LINE
  5
3BD
330
1F
100
AcDbEntity
  8
GR1-1
  6
CONTINUOUS
 62
     7
100
AcDbLine
 10
355.27061
 20
69.909324
 30
0.0
 11
355.417736
 21
70.544935
 31
0.0
  0
LINE
  5
3BE
330
1F
100
AcDbEntity
  8
GR1-1
  6
CONTINUOUS
 62
     7
100
AcDbLine
 10
355.417736
 20
70.544935
 30
0.0
 11
354.605868
 21
70.732859
 31
0.0
  0
LINE
  5
3BF
330
1F
100
AcDbEntity
  8
GR1-1
  6
CONTINUOUS
 62
     7
100
AcDbLine
 10
354.605868
 20
70.732859
 30
0.0
 11
354.225449
 21
69.089379
 31
0.0
  0
LINE
  5
3C0
330
1F
100
AcDbEntity
  8
GR1-1
  6
CONTINUOUS
 62
     7
100
AcDbLine
 10
354.225449
 20
69.089379
 30
0.0
 11
356.521758
 21
68.557848
 31
0.0
  0
LINE
  5
3C1
330
1F
100
AcDbEntity
  8
GR1-1
  6
CONTINUOUS
 62
     7
100
AcDbLine
 10
356.521758
 20
68.557848
 30
0.0
 11
356.61572
 21
68.963782
 31
0.0
  0
LINE
  5
3C2
330
1F
100
AcDbEntity
  8
GR1-1
  6
CONTINUOUS
 62
     7
100
AcDbLine
 10
356.61572
 20
68.963782
 30
0.0
 11
356.069502
 21
69.090216
 31
0.0
  0
ARC
  5
3C3
330
1F
100
AcDbEntity
  8
GR1-1
  6
CONTINUOUS
 62
     7
100
AcDbCircle
 10
356.088294
 20
69.171403
 30
0.0
 40
0.083333333333325
100
AcDbArc
 50
121.967182
 51
256.967182
  0
LINE
  5
3C4
330
1F
100
AcDbEntity
  8
GR1-1
  6
CONTINUOUS
 62
     7
100
AcDbLine
 10
356.044175
 20
69.242099
 30
0.0
 11
356.787523
 21
69.706003
 31
0.0
  0
LINE
  5
3C5
330
1F
100
AcDbEntity
  8
GR1-1
  6
CONTINUOUS
 62
     7
100
AcDbLine
 10
356.787523
 20
69.706003
 30
0.0
 11
357.669912
 21
68.292083
 31
0.0
  0
LINE
  5
3C6
330
1F
100
AcDbEntity
  8
GR1-1
  6
CONTINUOUS
 62
     7
100
AcDbLine
 10
357.669912
 20
68.292083
 30
0.0
 11
356.255993
 21
67.409694
 31
0.0
  0
LINE
  5
3C7
330
1F
100
AcDbEntity
  8
GR1-1
  6
CONTINUOUS
 62
     7
100
AcDbLine
 10
356.255993
 20
67.409694
 30
0.0
 11
355.560787
 21
68.523676
 31
0.0
  0
LINE
  5
3C8
330
1F
100
AcDbEntity
  8
GR1-1
  6
CONTINUOUS
 62
     7
100
AcDbLine
 10
355.560787
 20
68.523676
 30
0.0
 11
354.412632
 21
68.789441
 31
0.0
  0
LINE
  5
3C9
330
1F
100
AcDbEntity
  8
GR1-1
  6
CONTINUOUS
 62
     7
100
AcDbLine
 10
354.412632
 20
68.789441
 30
0.0
 11
355.990228
 21
66.26154
 31
0.0
  0
ARC
  5
3CA
330
1F
100
AcDbEntity
  8
GR1-1
  6
CONTINUOUS
 62
     7
100
AcDbCircle
 10
355.351797
 20
69.890532
 30
0.0
 40
0.083333333333325
100
AcDbArc
 50
166.967182
 51
301.967182
  0
ARC
  5
3CB
330
1F
100
AcDbEntity
  8
LAYERGROUP-1
  6
CONTINUOUS
 62
     3
100
AcDbCircle
 10
364.752841
 20
104.117647
 30
0.0
 40
23.45
100
AcDbArc
 50
-187.928841
 51
7.928841
  0
ARC
  5
3CC
330
1F
100
AcDbEntity
  8
LAYERGROUP-1
  6
CONTINUOUS
 62
     6
100
AcDbCircle
 10
364.752841
 20
104.117647
 30
0.0
 40
30.5
100
AcDbArc
 50
-210.434571
 51
29.632949
  0
ARC
  5
3CD
330
1F
100
AcDbEntity
  8
LAYERGROUP-1
  6
CONTINUOUS
 62
     6
100
AcDbCircle
 10
364.752841
 20
104.117647
 30
0.0
 40
42.0
100
AcDbArc
 50
-223.682759
 51
43.682759
  0
LINE
  5
3CE
330
1F
100
AcDbEntity
  8
GR1-1
  6
CONTINUOUS
 62
     7
100
AcDbLine
 10
359.521133
 20
70.429678
 30
0.0
 11
354.649928
 21
71.557224
 31
0.0
  0
ARC
  5
3CF
330
1F
100
AcDbEntity
  8
GR1-1
  6
CONTINUOUS
 62
     6
100
AcDbCircle
 10
364.752841
 20
104.117647
 30
0.0
 40
54.5
100
AcDbArc
 50
-231.246436
 51
51.246436
  0
ARC
  5
3D0
330
1F
100
AcDbEntity
  8
LAYERGROUP-1
  6
CONTINUOUS
 62
     6
100
AcDbCircle
 10
364.752841
 20
104.117647
 30
0.0
 40
49.86788711766769
100
AcDbArc
 50
-228.938912
 51
48.938912
  0
ARC
  5
3D1
330
1F
100
AcDbEntity
  8
LAYERGROUP-1
  6
CONTINUOUS
 62
     3
100
AcDbCircle
 10
364.752841
 20
104.117647
 30
0.0
 40
65.00000000000003
100
AcDbArc
 50
-235.90731
 51
55.168971
  0
ARC
  5
3D2
330
1F
100
AcDbEntity
  8
LAYERGROUP-1
  6
CONTINUOUS
 62
     3
100
AcDbCircle
 10
364.752841
 20
104.117647
 30
0.0
 40
51.5
100
AcDbArc
 50
-229.804285
 51
49.804285
  0
ENDSEC
  0
SECTION
  2
OBJECTS
  0
DICTIONARY
  5
C
330
0
100
AcDbDictionary
  3
ACAD_GROUP
350
D
  3
ACAD_LAYOUT
350
1A
  3
ACAD_MLINESTYLE
350
17
  3
ACAD_PLOTSETTINGS
350
19
  3
ACDBHEADERROUNDTRIPXREC
350
3D3
  0
DICTIONARY
  5
D
102
{ACAD_REACTORS
330
C
102
}
330
C
100
AcDbDictionary
  0
DICTIONARY
  5
1A
102
{ACAD_REACTORS
330
C
102
}
330
C
100
AcDbDictionary
  0
DICTIONARY
  5
17
102
{ACAD_REACTORS
330
C
102
}
330
C
100
AcDbDictionary
  3
STANDARD
350
18
  0
DICTIONARY
  5
19
102
{ACAD_REACTORS
330
C
102
}
330
C
100
AcDbDictionary
  0
DICTIONARY
  5
3D3
102
{ACAD_REACTORS
330
C
102
}
330
C
100
AcDbDictionary
  3
CEPSNTYPE
350
3DC
  3
DIMSTYLEDATA
350
3F2
  3
FINGERPRINTGUID
350
3DD
  3
HYPERLINKBASE
350
3D6
  3
INSUNITS
350
3DB
  3
LAYOUTDICT
350
3D8
  3
LWETCUNION
350
3DA
  3
PLOTSETDICT
350
3D9
  3
PSVPSCALE
350
3DF
  3
PUCSBASE
350
3E2
  3
PUCSORGBACK
350
3E8
  3
PUCSORGBOTTOM
350
3E4
  3
PUCSORGFRONT
350
3E7
  3
PUCSORGLEFT
350
3E5
  3
PUCSORGRIGHT
350
3E6
  3
PUCSORGTOP
350
3E3
  3
PUCSORTHOREF
350
3E0
  3
PUCSORTHOVIEW
350
3E1
  3
STYLESHEET
350
3D7
  3
TSTACKALIGN
350
3D4
  3
TSTACKSIZE
350
3D5
  3
UCSBASE
350
3EB
  3
UCSORGBACK
350
3F1
  3
UCSORGBOTTOM
350
3ED
  3
UCSORGFRONT
350
3F0
  3
UCSORGLEFT
350
3EE
  3
UCSORGRIGHT
350
3EF
  3
UCSORGTOP
350
3EC
  3
UCSORTHOREF
350
3E9
  3
UCSORTHOVIEW
350
3EA
  3
VERSIONGUID
350
3DE
  0
MLINESTYLE
  5
18
102
{ACAD_REACTORS
330
17
102
}
330
17
100
AcDbMlineStyle
  2
Standard
 70
     0
  3

 62
   256
 51
90.0
 52
90.0
 71
     2
 49
0.5
 62
   256
  6
BYLAYER
 49
-0.5
 62
   256
  6
BYLAYER
  0
XRECORD
  5
3DC
102
{ACAD_REACTORS
330
3D3
102
}
330
3D3
100
AcDbXrecord
 90
        0
  0
XRECORD
  5
3F2
102
{ACAD_REACTORS
330
3D3
102
}
330
3D3
100
AcDbXrecord
1000
DSTYLE
1002
{
1070
   179
 70
     2
1070
   171
 70
     3
1070
   143
 40
0.03937
1070
   274
 70
     3
1070
    41
 40
4.0
1070
   344
340
47
1070
   141
 40
2.5
1070
   176
 70
     7
1070
   177
 70
     7
1070
   178
 70
     7
1070
   271
 70
     2
1070
    46
 40
6.0
1070
    43
 40
10.0
1070
    44
 40
1.0
1070
    42
 40
1.0
1070
   147
 40
1.0
1070
   173
 70
     1
1070
    77
 70
     1
1070
   272
 70
     2
1070
    73
 70
     0
1070
   172
 70
     1
1070
    74
 70
     0
1070
   283
 70
     0
1070
   340
340
3F
1070
   140
 40
4.0
1070
   284
 70
     8
1070
    78
 70
     8
1002
}
  0
XRECORD
  5
3DD
102
{ACAD_REACTORS
330
3D3
102
}
330
3D3
100
AcDbXrecord
  1
{A1963B37-EC24-40CA-AC48-02C7377E6D84}
  0
XRECORD
  5
3D6
102
{ACAD_REACTORS
330
3D3
102
}
330
3D3
100
AcDbXrecord
  1

  0
XRECORD
  5
3DB
102
{ACAD_REACTORS
330
3D3
102
}
330
3D3
100
AcDbXrecord
 90
        1
  0
XRECORD
  5
3D8
102
{ACAD_REACTORS
330
3D3
102
}
330
3D3
100
AcDbXrecord
340
1A
  0
XRECORD
  5
3DA
102
{ACAD_REACTORS
330
3D3
102
}
330
3D3
100
AcDbXrecord
 90
    10781
  0
XRECORD
  5
3D9
102
{ACAD_REACTORS
330
3D3
102
}
330
3D3
100
AcDbXrecord
340
19
  0
XRECORD
  5
3DF
102
{ACAD_REACTORS
330
3D3
102
}
330
3D3
100
AcDbXrecord
 40
0.0
  0
XRECORD
  5
3E2
102
{ACAD_REACTORS
330
3D3
102
}
330
3D3
100
AcDbXrecord
340
0
  0
XRECORD
  5
3E8
102
{ACAD_REACTORS
330
3D3
102
}
330
3D3
100
AcDbXrecord
 10
0.0
 20
0.0
 30
0.0
  0
XRECORD
  5
3E4
102
{ACAD_REACTORS
330
3D3
102
}
330
3D3
100
AcDbXrecord
 10
0.0
 20
0.0
 30
0.0
  0
XRECORD
  5
3E7
102
{ACAD_REACTORS
330
3D3
102
}
330
3D3
100
AcDbXrecord
 10
0.0
 20
0.0
 30
0.0
  0
XRECORD
  5
3E5
102
{ACAD_REACTORS
330
3D3
102
}
330
3D3
100
AcDbXrecord
 10
0.0
 20
0.0
 30
0.0
  0
XRECORD
  5
3E6
102
{ACAD_REACTORS
330
3D3
102
}
330
3D3
100
AcDbXrecord
 10
0.0
 20
0.0
 30
0.0
  0
XRECORD
  5
3E3
102
{ACAD_REACTORS
330
3D3
102
}
330
3D3
100
AcDbXrecord
 10
0.0
 20
0.0
 30
0.0
  0
XRECORD
  5
3E0
102
{ACAD_REACTORS
330
3D3
102
}
330
3D3
100
AcDbXrecord
340
0
  0
XRECORD
  5
3E1
102
{ACAD_REACTORS
330
3D3
102
}
330
3D3
100
AcDbXrecord
 70
     0
  0
XRECORD
  5
3D7
102
{ACAD_REACTORS
330
3D3
102
}
330
3D3
100
AcDbXrecord
  1

  0
XRECORD
  5
3D4
102
{ACAD_REACTORS
330
3D3
102
}
330
3D3
100
AcDbXrecord
 90
        1
  0
XRECORD
  5
3D5
102
{ACAD_REACTORS
330
3D3
102
}
330
3D3
100
AcDbXrecord
 90
       70
  0
XRECORD
  5
3EB
102
{ACAD_REACTORS
330
3D3
102
}
330
3D3
100
AcDbXrecord
340
0
  0
XRECORD
  5
3F1
102
{ACAD_REACTORS
330
3D3
102
}
330
3D3
100
AcDbXrecord
 10
0.0
 20
0.0
 30
0.0
  0
XRECORD
  5
3ED
102
{ACAD_REACTORS
330
3D3
102
}
330
3D3
100
AcDbXrecord
 10
0.0
 20
0.0
 30
0.0
  0
XRECORD
  5
3F0
102
{ACAD_REACTORS
330
3D3
102
}
330
3D3
100
AcDbXrecord
 10
0.0
 20
0.0
 30
0.0
  0
XRECORD
  5
3EE
102
{ACAD_REACTORS
330
3D3
102
}
330
3D3
100
AcDbXrecord
 10
0.0
 20
0.0
 30
0.0
  0
XRECORD
  5
3EF
102
{ACAD_REACTORS
330
3D3
102
}
330
3D3
100
AcDbXrecord
 10
0.0
 20
0.0
 30
0.0
  0
XRECORD
  5
3EC
102
{ACAD_REACTORS
330
3D3
102
}
330
3D3
100
AcDbXrecord
 10
0.0
 20
0.0
 30
0.0
  0
XRECORD
  5
3E9
102
{ACAD_REACTORS
330
3D3
102
}
330
3D3
100
AcDbXrecord
340
0
  0
XRECORD
  5
3EA
102
{ACAD_REACTORS
330
3D3
102
}
330
3D3
100
AcDbXrecord
 70
     0
  0
XRECORD
  5
3DE
102
{ACAD_REACTORS
330
3D3
102
}
330
3D3
100
AcDbXrecord
  1
{FAEB1C32-E019-11D5-929B-00C0DF256EC4}
  0
ENDSEC
  0
EOF
