  0
SECTION
  2
HEADER
  9
$ACADVER
  1
AC1014
  9
$ACADMAINTVER
 70
     9
  9
$DWGCODEPAGE
  3
ANSI_932
  9
$INSBASE
 10
0.0
 20
0.0
 30
0.0
  9
$EXTMIN
 10
0.0
 20
0.0
 30
0.0
  9
$EXTMAX
 10
594.0
 20
420.0
 30
0.0
  9
$LIMMIN
 10
0.0
 20
0.0
  9
$LIMMAX
 10
594.0
 20
420.0
  9
$ORTHOMODE
 70
     0
  9
$REGENMODE
 70
     1
  9
$FILLMODE
 70
     1
  9
$QTEXTMODE
 70
     0
  9
$MIRRTEXT
 70
     1
  9
$DRAGMODE
 70
     2
  9
$LTSCALE
 40
1.0
  9
$OSMODE
 70
    37
  9
$ATTMODE
 70
     1
  9
$TEXTSIZE
 40
0.2
  9
$TRACEWID
 40
0.05
  9
$TEXTSTYLE
  7
STYLE1
  9
$CLAYER
  8
0
  9
$CELTYPE
  6
BYLAYER
  9
$CECOLOR
 62
   256
  9
$CELTSCALE
 40
1.0
  9
$DELOBJ
 70
     1
  9
$DISPSILH
 70
     0
  9
$DIMSCALE
 40
1.0
  9
$DIMASZ
 40
4.0
  9
$DIMEXO
 40
1.0
  9
$DIMDLI
 40
10.0
  9
$DIMRND
 40
0.0
  9
$DIMDLE
 40
6.0
  9
$DIMEXE
 40
1.0
  9
$DIMTP
 40
0.0
  9
$DIMTM
 40
0.0
  9
$DIMTXT
 40
4.0
  9
$DIMCEN
 40
2.5
  9
$DIMTSZ
 40
0.0
  9
$DIMTOL
 70
     0
  9
$DIMLIM
 70
     0
  9
$DIMTIH
 70
     0
  9
$DIMTOH
 70
     0
  9
$DIMSE1
 70
     0
  9
$DIMSE2
 70
     0
  9
$DIMTAD
 70
     1
  9
$DIMZIN
 70
     8
  9
$DIMBLK
  1

  9
$DIMASO
 70
     1
  9
$DIMSHO
 70
     1
  9
$DIMPOST
  1

  9
$DIMAPOST
  1

  9
$DIMALT
 70
     0
  9
$DIMALTD
 70
     3
  9
$DIMALTF
 40
0.03937
  9
$DIMLFAC
 40
1.0
  9
$DIMTOFL
 70
     1
  9
$DIMTVP
 40
0.0
  9
$DIMTIX
 70
     0
  9
$DIMSOXD
 70
     0
  9
$DIMSAH
 70
     1
  9
$DIMBLK1
  1

  9
$DIMBLK2
  1
FXTIP_ARROW_E
  9
$DIMSTYLE
  2
FXDIMINFO
  9
$DIMCLRD
 70
     7
  9
$DIMCLRE
 70
     7
  9
$DIMCLRT
 70
     7
  9
$DIMTFAC
 40
1.0
  9
$DIMGAP
 40
1.0
  9
$DIMJUST
 70
     0
  9
$DIMSD1
 70
     0
  9
$DIMSD2
 70
     0
  9
$DIMTOLJ
 70
     0
  9
$DIMTZIN
 70
     8
  9
$DIMALTZ
 70
     0
  9
$DIMALTTZ
 70
     0
  9
$DIMFIT
 70
     3
  9
$DIMUPT
 70
     0
  9
$DIMUNIT
 70
     2
  9
$DIMDEC
 70
     2
  9
$DIMTDEC
 70
     2
  9
$DIMALTU
 70
     2
  9
$DIMALTTD
 70
     3
  9
$DIMTXSTY
  7
STYLE1
  9
$DIMAUNIT
 70
     0
  9
$LUNITS
 70
     2
  9
$LUPREC
 70
     4
  9
$SKETCHINC
 40
0.1
  9
$FILLETRAD
 40
0.5
  9
$AUNITS
 70
     0
  9
$AUPREC
 70
     0
  9
$MENU
  1
.
  9
$ELEVATION
 40
0.0
  9
$PELEVATION
 40
0.0
  9
$THICKNESS
 40
0.0
  9
$LIMCHECK
 70
     0
  9
$CHAMFERA
 40
0.5
  9
$CHAMFERB
 40
0.5
  9
$CHAMFERC
 40
1.0
  9
$CHAMFERD
 40
0.0
  9
$SKPOLY
 70
     0
  9
$TDCREATE
 40
2455308.431520093
  9
$TDUPDATE
 40
2455308.431520104
  9
$TDINDWG
 40
0.0000000116
  9
$TDUSRTIMER
 40
0.0000000116
  9
$USRTIMER
 70
     1
  9
$ANGBASE
 50
0.0
  9
$ANGDIR
 70
     0
  9
$PDMODE
 70
     0
  9
$PDSIZE
 40
0.0
  9
$PLINEWID
 40
0.0
  9
$COORDS
 70
     1
  9
$SPLFRAME
 70
     0
  9
$SPLINETYPE
 70
     6
  9
$SPLINESEGS
 70
     8
  9
$ATTDIA
 70
     0
  9
$ATTREQ
 70
     1
  9
$HANDLING
 70
     1
  9
$HANDSEED
  5
3B0
  9
$SURFTAB1
 70
     6
  9
$SURFTAB2
 70
     6
  9
$SURFTYPE
 70
     6
  9
$SURFU
 70
     6
  9
$SURFV
 70
     6
  9
$UCSNAME
  2

  9
$UCSORG
 10
0.0
 20
0.0
 30
0.0
  9
$UCSXDIR
 10
1.0
 20
0.0
 30
0.0
  9
$UCSYDIR
 10
0.0
 20
1.0
 30
0.0
  9
$PUCSNAME
  2

  9
$PUCSORG
 10
0.0
 20
0.0
 30
0.0
  9
$PUCSXDIR
 10
1.0
 20
0.0
 30
0.0
  9
$PUCSYDIR
 10
0.0
 20
1.0
 30
0.0
  9
$USERI1
 70
     0
  9
$USERI2
 70
     0
  9
$USERI3
 70
     0
  9
$USERI4
 70
     0
  9
$USERI5
 70
     0
  9
$USERR1
 40
0.0
  9
$USERR2
 40
0.0
  9
$USERR3
 40
0.0
  9
$USERR4
 40
0.0
  9
$USERR5
 40
0.0
  9
$WORLDVIEW
 70
     1
  9
$SHADEDGE
 70
     3
  9
$SHADEDIF
 70
    70
  9
$TILEMODE
 70
     1
  9
$MAXACTVP
 70
    64
  9
$PINSBASE
 10
0.0
 20
0.0
 30
0.0
  9
$PLIMCHECK
 70
     0
  9
$PEXTMIN
 10
1.000000E+20
 20
1.000000E+20
 30
1.000000E+20
  9
$PEXTMAX
 10
-1.000000E+20
 20
-1.000000E+20
 30
-1.000000E+20
  9
$PLIMMIN
 10
0.0
 20
0.0
  9
$PLIMMAX
 10
12.0
 20
9.0
  9
$UNITMODE
 70
     0
  9
$VISRETAIN
 70
     1
  9
$PLINEGEN
 70
     0
  9
$PSLTSCALE
 70
     1
  9
$TREEDEPTH
 70
  3020
  9
$PICKSTYLE
 70
     1
  9
$CMLSTYLE
  2
STANDARD
  9
$CMLJUST
 70
     0
  9
$CMLSCALE
 40
1.0
  9
$PROXYGRAPHICS
 70
     1
  9
$MEASUREMENT
 70
     0
  0
ENDSEC
  0
SECTION
  2
CLASSES
  0
CLASS
  1
ACDBDICTIONARYWDFLT
  2
AcDbDictionaryWithDefault
  3
ObjectDBX Classes
 90
        0
280
     0
281
     0
  0
CLASS
  1
XRECORD
  2
AcDbXrecord
  3
AutoCAD 2000
 90
        0
280
     0
281
     0
  0
CLASS
  1
LWPOLYLINE
  2
AcDbPolyline
  3
AutoCAD 2000
 90
        0
280
     0
281
     1
  0
CLASS
  1
HATCH
  2
AcDbHatch
  3
AutoCAD 2000
 90
        0
280
     0
281
     1
  0
CLASS
  1
ACDBPLACEHOLDER
  2
AcDbPlaceHolder
  3
ObjectDBX Classes
 90
        0
280
     0
281
     0
  0
CLASS
  1
LAYOUT
  2
AcDbLayout
  3
ObjectDBX Classes
 90
        0
280
     0
281
     0
  0
ENDSEC
  0
SECTION
  2
TABLES
  0
TABLE
  2
VPORT
  5
8
330
0
100
AcDbSymbolTable
 70
     1
  0
VPORT
  5
29
330
8
100
AcDbSymbolTableRecord
100
AcDbViewportTableRecord
  2
*ACTIVE
 70
     0
 10
0.0
 20
0.0
 11
1.0
 21
1.0
 12
297.0
 22
210.0
 13
0.0
 23
0.0
 14
0.5
 24
0.5
 15
0.5
 25
0.5
 16
0.0
 26
0.0
 36
1.0
 17
0.0
 27
0.0
 37
0.0
 40
420.0
 41
1.414286
 42
50.0
 43
0.0
 44
0.0
 50
0.0
 51
0.0
 71
     0
 72
   100
 73
     1
 74
     3
 75
     0
 76
     0
 77
     0
 78
     0
  0
ENDTAB
  0
TABLE
  2
LTYPE
  5
5
330
0
100
AcDbSymbolTable
 70
     4
  0
LTYPE
  5
14
330
5
100
AcDbSymbolTableRecord
100
AcDbLinetypeTableRecord
  2
BYBLOCK
 70
     0
  3

 72
    65
 73
     0
 40
0.0
  0
LTYPE
  5
15
330
5
100
AcDbSymbolTableRecord
100
AcDbLinetypeTableRecord
  2
BYLAYER
 70
     0
  3

 72
    65
 73
     0
 40
0.0
  0
LTYPE
  5
16
330
5
100
AcDbSymbolTableRecord
100
AcDbLinetypeTableRecord
  2
CONTINUOUS
 70
     0
  3
--------------------
 72
    65
 73
     0
 40
0.0
  0
LTYPE
  5
2A
330
5
100
AcDbSymbolTableRecord
100
AcDbLinetypeTableRecord
  2
CENTER
 70
     0
  3
Center ____ _ ____ _ ____ _ ____ _ ____ _ ____
 72
    65
 73
     4
 40
13.0
 49
10.0
 74
     0
 49
-1.0
 74
     0
 49
1.0
 74
     0
 49
-1.0
 74
     0
  0
ENDTAB
  0
TABLE
  2
LAYER
  5
2
330
0
100
AcDbSymbolTable
 70
    20
  0
LAYER
  5
10
330
2
100
AcDbSymbolTableRecord
100
AcDbLayerTableRecord
  2
0
 70
     0
 62
     7
  6
CONTINUOUS
  0
LAYER
  5
2D
330
2
100
AcDbSymbolTableRecord
100
AcDbLayerTableRecord
  2
LAYERGROUP-1
 70
     0
 62
     3
  6
CONTINUOUS
  0
LAYER
  5
3D
330
2
100
AcDbSymbolTableRecord
100
AcDbLayerTableRecord
  2
}}ﾊﾊGG血CCТ
 70
     0
 62
     3
  6
CONTINUOUS
  0
LAYER
  5
B8
330
2
100
AcDbSymbolTableRecord
100
AcDbLayerTableRecord
  2
0-1
 70
     0
 62
     7
  6
CONTINUOUS
  0
LAYER
  5
D0
330
2
100
AcDbSymbolTableRecord
100
AcDbLayerTableRecord
  2
GR1-1
 70
     0
 62
     7
  6
CONTINUOUS
  0
ENDTAB
  0
TABLE
  2
STYLE
  5
3
330
0
100
AcDbSymbolTable
 70
     4
  0
STYLE
  5
11
330
3
100
AcDbSymbolTableRecord
100
AcDbTextStyleTableRecord
  2
STANDARD
 70
     0
 40
0.0
 41
1.0
 50
0.0
 71
     0
 42
0.2
  3
txt
  4

  0
STYLE
  5
3F
330
3
100
AcDbSymbolTableRecord
100
AcDbTextStyleTableRecord
  2
STYLE1
 70
     0
 40
0.0
 41
1.0
 50
0.0
 71
     0
 42
0.2
  3
MONOTXT.SHX
  4
extfont.shx
  0
STYLE
  5
40
330
3
100
AcDbSymbolTableRecord
100
AcDbTextStyleTableRecord
  2
FX_VECTOR
 70
     0
 40
0.0
 41
1.0
 50
0.0
 71
     0
 42
0.2
  3
MONOTXT.SHX
  4
BIGFONT.SHX
  0
ENDTAB
  0
TABLE
  2
VIEW
  5
6
330
0
100
AcDbSymbolTable
 70
     0
  0
ENDTAB
  0
TABLE
  2
UCS
  5
7
330
0
100
AcDbSymbolTable
 70
     0
  0
ENDTAB
  0
TABLE
  2
APPID
  5
9
330
0
100
AcDbSymbolTable
 70
     1
  0
APPID
  5
12
330
9
100
AcDbSymbolTableRecord
100
AcDbRegAppTableRecord
  2
ACAD
 70
     0
  0
ENDTAB
  0
TABLE
  2
DIMSTYLE
  5
A
330
0
100
AcDbSymbolTable
 70
     2
  0
DIMSTYLE
105
27
330
A
100
AcDbSymbolTableRecord
100
AcDbDimStyleTableRecord
  2
STANDARD
 70
     0
  3

  4

  5

  6

  7

 40
1.0
 41
0.18
 42
0.0625
 43
0.38
 44
0.18
 45
0.0
 46
0.0
 47
0.0
 48
0.0
140
0.18
141
0.09
142
0.0
143
25.4
144
1.0
145
0.0
146
1.0
147
0.09
 71
     0
 72
     0
 73
     1
 74
     1
 75
     0
 76
     0
 77
     0
 78
     0
170
     0
171
     2
172
     0
173
     0
174
     0
175
     0
176
     0
177
     0
178
     0
270
     2
271
     4
272
     4
273
     2
274
     2
340
11
275
     0
280
     0
281
     0
282
     0
283
     1
284
     0
285
     0
286
     0
287
     3
288
     0
  0
DIMSTYLE
105
A7
102
{ACAD_REACTORS
330
D9
330
E3
330
ED
330
217
330
221
330
22B
330
235
330
23F
330
249
330
295
330
29F
330
2FC
330
338
330
342
102
}
330
A
100
AcDbSymbolTableRecord
100
AcDbDimStyleTableRecord
  2
FXDIMINFO
 70
     0
  3

  4

  5

  6

  7
FXTIP_ARROW_E
 40
1.0
 41
4.0
 42
1.0
 43
10.0
 44
1.0
 45
0.0
 46
6.0
 47
0.0
 48
0.0
140
4.0
141
2.5
142
0.0
143
0.03937
144
1.0
145
0.0
146
1.0
147
1.0
 71
     0
 72
     0
 73
     0
 74
     0
 75
     0
 76
     0
 77
     1
 78
     8
170
     0
171
     3
172
     1
173
     1
174
     0
175
     0
176
     7
177
     7
178
     7
179
     2
270
     2
271
     2
272
     2
273
     2
274
     3
340
3F
275
     0
280
     0
281
     0
282
     0
283
     0
284
     8
285
     0
286
     0
287
     3
288
     0
  0
ENDTAB
  0
TABLE
  2
BLOCK_RECORD
  5
1
330
0
100
AcDbSymbolTable
 70
    37
  0
BLOCK_RECORD
  5
1F
330
1
100
AcDbSymbolTableRecord
100
AcDbBlockTableRecord
  2
*MODEL_SPACE
  0
BLOCK_RECORD
  5
1B
330
1
100
AcDbSymbolTableRecord
100
AcDbBlockTableRecord
  2
*PAPER_SPACE
  0
BLOCK_RECORD
  5
41
330
1
100
AcDbSymbolTableRecord
100
AcDbBlockTableRecord
  2
FXTIP_ARROW_S
  0
BLOCK_RECORD
  5
47
330
1
100
AcDbSymbolTableRecord
100
AcDbBlockTableRecord
  2
FXTIP_ARROW_E
  0
BLOCK_RECORD
  5
4D
330
1
100
AcDbSymbolTableRecord
100
AcDbBlockTableRecord
  2
FXTIP_BLACKDOT_S
  0
BLOCK_RECORD
  5
53
330
1
100
AcDbSymbolTableRecord
100
AcDbBlockTableRecord
  2
FXTIP_BLACKDOT_E
  0
BLOCK_RECORD
  5
59
330
1
100
AcDbSymbolTableRecord
100
AcDbBlockTableRecord
  2
FXTIP_TRIANGLE_S
  0
BLOCK_RECORD
  5
60
330
1
100
AcDbSymbolTableRecord
100
AcDbBlockTableRecord
  2
FXTIP_TRIANGLE_E
  0
BLOCK_RECORD
  5
67
330
1
100
AcDbSymbolTableRecord
100
AcDbBlockTableRecord
  2
FXTIP_ARCHITECT_S
  0
BLOCK_RECORD
  5
6D
330
1
100
AcDbSymbolTableRecord
100
AcDbBlockTableRecord
  2
FXTIP_ARCHITECT_E
  0
BLOCK_RECORD
  5
73
330
1
100
AcDbSymbolTableRecord
100
AcDbBlockTableRecord
  2
FXTIP_CIVIL_S
  0
BLOCK_RECORD
  5
79
330
1
100
AcDbSymbolTableRecord
100
AcDbBlockTableRecord
  2
FXTIP_CIVIL_E
  0
BLOCK_RECORD
  5
7F
330
1
100
AcDbSymbolTableRecord
100
AcDbBlockTableRecord
  2
FXTIP_WHITEDOT_S
  0
BLOCK_RECORD
  5
84
330
1
100
AcDbSymbolTableRecord
100
AcDbBlockTableRecord
  2
FXTIP_WHITEDOT_E
  0
BLOCK_RECORD
  5
89
330
1
100
AcDbSymbolTableRecord
100
AcDbBlockTableRecord
  2
FXTIP_UPARROW_S
  0
BLOCK_RECORD
  5
8E
330
1
100
AcDbSymbolTableRecord
100
AcDbBlockTableRecord
  2
FXTIP_UPARROW_E
  0
BLOCK_RECORD
  5
93
330
1
100
AcDbSymbolTableRecord
100
AcDbBlockTableRecord
  2
FXTIP_DOWNARROW_S
  0
BLOCK_RECORD
  5
98
330
1
100
AcDbSymbolTableRecord
100
AcDbBlockTableRecord
  2
FXTIP_DOWNARROW_E
  0
BLOCK_RECORD
  5
9D
330
1
100
AcDbSymbolTableRecord
100
AcDbBlockTableRecord
  2
FXTIP_BLACKTRIANGLE_S
  0
BLOCK_RECORD
  5
A2
330
1
100
AcDbSymbolTableRecord
100
AcDbBlockTableRecord
  2
FXTIP_BLACKTRIANGLE_E
  0
BLOCK_RECORD
  5
A8
330
1
100
AcDbSymbolTableRecord
100
AcDbBlockTableRecord
  2
BLKF021
  0
BLOCK_RECORD
  5
B4
330
1
100
AcDbSymbolTableRecord
100
AcDbBlockTableRecord
  2
BLKF022
  0
BLOCK_RECORD
  5
BD
330
1
100
AcDbSymbolTableRecord
100
AcDbBlockTableRecord
  2
BLKF023
  0
BLOCK_RECORD
  5
DA
330
1
100
AcDbSymbolTableRecord
100
AcDbBlockTableRecord
  2
*D22
  0
BLOCK_RECORD
  5
E4
330
1
100
AcDbSymbolTableRecord
100
AcDbBlockTableRecord
  2
*D23
  0
BLOCK_RECORD
  5
EE
330
1
100
AcDbSymbolTableRecord
100
AcDbBlockTableRecord
  2
*D24
  0
BLOCK_RECORD
  5
218
330
1
100
AcDbSymbolTableRecord
100
AcDbBlockTableRecord
  2
*D25
  0
BLOCK_RECORD
  5
222
330
1
100
AcDbSymbolTableRecord
100
AcDbBlockTableRecord
  2
*D26
  0
BLOCK_RECORD
  5
22C
330
1
100
AcDbSymbolTableRecord
100
AcDbBlockTableRecord
  2
*D27
  0
BLOCK_RECORD
  5
236
330
1
100
AcDbSymbolTableRecord
100
AcDbBlockTableRecord
  2
*D28
  0
BLOCK_RECORD
  5
240
330
1
100
AcDbSymbolTableRecord
100
AcDbBlockTableRecord
  2
*D29
  0
BLOCK_RECORD
  5
24A
330
1
100
AcDbSymbolTableRecord
100
AcDbBlockTableRecord
  2
*D30
  0
BLOCK_RECORD
  5
296
330
1
100
AcDbSymbolTableRecord
100
AcDbBlockTableRecord
  2
*D31
  0
BLOCK_RECORD
  5
2A0
330
1
100
AcDbSymbolTableRecord
100
AcDbBlockTableRecord
  2
*D32
  0
BLOCK_RECORD
  5
2FD
330
1
100
AcDbSymbolTableRecord
100
AcDbBlockTableRecord
  2
*D33
  0
BLOCK_RECORD
  5
306
330
1
100
AcDbSymbolTableRecord
100
AcDbBlockTableRecord
  2
BLKF036
  0
BLOCK_RECORD
  5
339
330
1
100
AcDbSymbolTableRecord
100
AcDbBlockTableRecord
  2
*D35
  0
BLOCK_RECORD
  5
343
330
1
100
AcDbSymbolTableRecord
100
AcDbBlockTableRecord
  2
*D36
  0
ENDTAB
  0
ENDSEC
  0
SECTION
  2
BLOCKS
  0
BLOCK
  5
20
330
1F
100
AcDbEntity
  8
0
100
AcDbBlockBegin
  2
*MODEL_SPACE
 70
     0
 71
     0
 10
0.0
 20
0.0
 30
0.0
  3
*MODEL_SPACE
  1

  0
ENDBLK
  5
21
330
1F
100
AcDbEntity
  8
0
100
AcDbBlockEnd
  0
BLOCK
  5
1C
330
1B
100
AcDbEntity
 67
     1
  8
0
100
AcDbBlockBegin
  2
*PAPER_SPACE
 70
     0
 71
     0
 10
0.0
 20
0.0
 30
0.0
  3
*PAPER_SPACE
  1

  0
ENDBLK
  5
1D
330
1B
100
AcDbEntity
 67
     1
  8
0
100
AcDbBlockEnd
  0
BLOCK
  5
42
330
41
100
AcDbEntity
  8
0
100
AcDbBlockBegin
  2
FXTIP_ARROW_S
 70
     0
 71
     0
 10
0.0
 20
0.0
 30
0.0
  3
FXTIP_ARROW_S
  1

  0
LINE
  5
44
330
41
100
AcDbEntity
  8
0
  6
CONTINUOUS
 62
     0
100
AcDbLine
 10
0.0
 20
0.0
 30
0.0
 11
-1.0
 21
0.0
 31
0.0
  0
LINE
  5
45
330
41
100
AcDbEntity
  8
0
  6
CONTINUOUS
 62
     0
100
AcDbLine
 10
0.0
 20
0.0
 30
0.0
 11
-0.965926
 21
-0.258819
 31
0.0
  0
LINE
  5
46
330
41
100
AcDbEntity
  8
0
  6
CONTINUOUS
 62
     0
100
AcDbLine
 10
0.0
 20
0.0
 30
0.0
 11
-0.965926
 21
0.258819
 31
0.0
  0
ENDBLK
  5
43
330
41
100
AcDbEntity
  8
0
100
AcDbBlockEnd
  0
BLOCK
  5
48
330
47
100
AcDbEntity
  8
0
100
AcDbBlockBegin
  2
FXTIP_ARROW_E
 70
     0
 71
     0
 10
0.0
 20
0.0
 30
0.0
  3
FXTIP_ARROW_E
  1

  0
LINE
  5
4A
330
47
100
AcDbEntity
  8
0
  6
CONTINUOUS
 62
     0
100
AcDbLine
 10
0.0
 20
0.0
 30
0.0
 11
-1.0
 21
0.0
 31
0.0
  0
LINE
  5
4B
330
47
100
AcDbEntity
  8
0
  6
CONTINUOUS
 62
     0
100
AcDbLine
 10
0.0
 20
0.0
 30
0.0
 11
-0.965926
 21
0.258819
 31
0.0
  0
LINE
  5
4C
330
47
100
AcDbEntity
  8
0
  6
CONTINUOUS
 62
     0
100
AcDbLine
 10
0.0
 20
0.0
 30
0.0
 11
-0.965926
 21
-0.258819
 31
0.0
  0
ENDBLK
  5
49
330
47
100
AcDbEntity
  8
0
100
AcDbBlockEnd
  0
BLOCK
  5
4E
330
4D
100
AcDbEntity
  8
0
100
AcDbBlockBegin
  2
FXTIP_BLACKDOT_S
 70
     0
 71
     0
 10
0.0
 20
0.0
 30
0.0
  3
FXTIP_BLACKDOT_S
  1

  0
LINE
  5
50
330
4D
100
AcDbEntity
  8
0
  6
CONTINUOUS
 62
     0
100
AcDbLine
 10
0.0
 20
0.0
 30
0.0
 11
-1.0
 21
0.0
 31
0.0
  0
LWPOLYLINE
  5
51
330
4D
100
AcDbEntity
  8
0
  6
CONTINUOUS
 62
     0
100
AcDbPolyline
 90
        2
 70
     1
 10
-0.25
 20
0.0
 40
0.5
 41
0.5
 42
1.0
 10
0.25
 20
0.0
 40
0.5
 41
0.5
 42
1.0
  0
CIRCLE
  5
52
330
4D
100
AcDbEntity
  8
0
  6
CONTINUOUS
 62
     0
100
AcDbCircle
 10
0.0
 20
0.0
 30
0.0
 40
0.5
  0
ENDBLK
  5
4F
330
4D
100
AcDbEntity
  8
0
100
AcDbBlockEnd
  0
BLOCK
  5
54
330
53
100
AcDbEntity
  8
0
100
AcDbBlockBegin
  2
FXTIP_BLACKDOT_E
 70
     0
 71
     0
 10
0.0
 20
0.0
 30
0.0
  3
FXTIP_BLACKDOT_E
  1

  0
LINE
  5
56
330
53
100
AcDbEntity
  8
0
  6
CONTINUOUS
 62
     0
100
AcDbLine
 10
0.0
 20
0.0
 30
0.0
 11
-1.0
 21
0.0
 31
0.0
  0
LWPOLYLINE
  5
57
330
53
100
AcDbEntity
  8
0
  6
CONTINUOUS
 62
     0
100
AcDbPolyline
 90
        2
 70
     1
 10
-0.25
 20
0.0
 40
0.5
 41
0.5
 42
1.0
 10
0.25
 20
0.0
 40
0.5
 41
0.5
 42
1.0
  0
CIRCLE
  5
58
330
53
100
AcDbEntity
  8
0
  6
CONTINUOUS
 62
     0
100
AcDbCircle
 10
0.0
 20
0.0
 30
0.0
 40
0.5
  0
ENDBLK
  5
55
330
53
100
AcDbEntity
  8
0
100
AcDbBlockEnd
  0
BLOCK
  5
5A
330
59
100
AcDbEntity
  8
0
100
AcDbBlockBegin
  2
FXTIP_TRIANGLE_S
 70
     0
 71
     0
 10
0.0
 20
0.0
 30
0.0
  3
FXTIP_TRIANGLE_S
  1

  0
LINE
  5
5C
330
59
100
AcDbEntity
  8
0
  6
CONTINUOUS
 62
     0
100
AcDbLine
 10
0.0
 20
0.0
 30
0.0
 11
-1.0
 21
0.0
 31
0.0
  0
LINE
  5
5D
330
59
100
AcDbEntity
  8
0
  6
CONTINUOUS
 62
     0
100
AcDbLine
 10
0.0
 20
0.0
 30
0.0
 11
-0.965926
 21
-0.258819
 31
0.0
  0
LINE
  5
5E
330
59
100
AcDbEntity
  8
0
  6
CONTINUOUS
 62
     0
100
AcDbLine
 10
0.0
 20
0.0
 30
0.0
 11
-0.965926
 21
0.258819
 31
0.0
  0
LINE
  5
5F
330
59
100
AcDbEntity
  8
0
  6
CONTINUOUS
 62
     0
100
AcDbLine
 10
-0.965926
 20
-0.258819
 30
0.0
 11
-0.965926
 21
0.258819
 31
0.0
  0
ENDBLK
  5
5B
330
59
100
AcDbEntity
  8
0
100
AcDbBlockEnd
  0
BLOCK
  5
61
330
60
100
AcDbEntity
  8
0
100
AcDbBlockBegin
  2
FXTIP_TRIANGLE_E
 70
     0
 71
     0
 10
0.0
 20
0.0
 30
0.0
  3
FXTIP_TRIANGLE_E
  1

  0
LINE
  5
63
330
60
100
AcDbEntity
  8
0
  6
CONTINUOUS
 62
     0
100
AcDbLine
 10
0.0
 20
0.0
 30
0.0
 11
-1.0
 21
0.0
 31
0.0
  0
LINE
  5
64
330
60
100
AcDbEntity
  8
0
  6
CONTINUOUS
 62
     0
100
AcDbLine
 10
0.0
 20
0.0
 30
0.0
 11
-0.965926
 21
0.258819
 31
0.0
  0
LINE
  5
65
330
60
100
AcDbEntity
  8
0
  6
CONTINUOUS
 62
     0
100
AcDbLine
 10
0.0
 20
0.0
 30
0.0
 11
-0.965926
 21
-0.258819
 31
0.0
  0
LINE
  5
66
330
60
100
AcDbEntity
  8
0
  6
CONTINUOUS
 62
     0
100
AcDbLine
 10
-0.965926
 20
0.258819
 30
0.0
 11
-0.965926
 21
-0.258819
 31
0.0
  0
ENDBLK
  5
62
330
60
100
AcDbEntity
  8
0
100
AcDbBlockEnd
  0
BLOCK
  5
68
330
67
100
AcDbEntity
  8
0
100
AcDbBlockBegin
  2
FXTIP_ARCHITECT_S
 70
     0
 71
     0
 10
0.0
 20
0.0
 30
0.0
  3
FXTIP_ARCHITECT_S
  1

  0
LINE
  5
6A
330
67
100
AcDbEntity
  8
0
  6
CONTINUOUS
 62
     0
100
AcDbLine
 10
0.0
 20
0.0
 30
0.0
 11
-1.0
 21
0.0
 31
0.0
  0
LINE
  5
6B
330
67
100
AcDbEntity
  8
0
  6
CONTINUOUS
 62
     0
100
AcDbLine
 10
0.0
 20
0.0
 30
0.0
 11
-0.707107
 21
-0.707107
 31
0.0
  0
LINE
  5
6C
330
67
100
AcDbEntity
  8
0
  6
CONTINUOUS
 62
     0
100
AcDbLine
 10
0.0
 20
0.0
 30
0.0
 11
0.707107
 21
0.707107
 31
0.0
  0
ENDBLK
  5
69
330
67
100
AcDbEntity
  8
0
100
AcDbBlockEnd
  0
BLOCK
  5
6E
330
6D
100
AcDbEntity
  8
0
100
AcDbBlockBegin
  2
FXTIP_ARCHITECT_E
 70
     0
 71
     0
 10
0.0
 20
0.0
 30
0.0
  3
FXTIP_ARCHITECT_E
  1

  0
LINE
  5
70
330
6D
100
AcDbEntity
  8
0
  6
CONTINUOUS
 62
     0
100
AcDbLine
 10
0.0
 20
0.0
 30
0.0
 11
-1.0
 21
0.0
 31
0.0
  0
LINE
  5
71
330
6D
100
AcDbEntity
  8
0
  6
CONTINUOUS
 62
     0
100
AcDbLine
 10
0.0
 20
0.0
 30
0.0
 11
0.707107
 21
0.707107
 31
0.0
  0
LINE
  5
72
330
6D
100
AcDbEntity
  8
0
  6
CONTINUOUS
 62
     0
100
AcDbLine
 10
0.0
 20
0.0
 30
0.0
 11
-0.707107
 21
-0.707107
 31
0.0
  0
ENDBLK
  5
6F
330
6D
100
AcDbEntity
  8
0
100
AcDbBlockEnd
  0
BLOCK
  5
74
330
73
100
AcDbEntity
  8
0
100
AcDbBlockBegin
  2
FXTIP_CIVIL_S
 70
     0
 71
     0
 10
0.0
 20
0.0
 30
0.0
  3
FXTIP_CIVIL_S
  1

  0
LINE
  5
76
330
73
100
AcDbEntity
  8
0
  6
CONTINUOUS
 62
     0
100
AcDbLine
 10
0.0
 20
0.0
 30
0.0
 11
-1.0
 21
0.0
 31
0.0
  0
LINE
  5
77
330
73
100
AcDbEntity
  8
0
  6
CONTINUOUS
 62
     0
100
AcDbLine
 10
0.0
 20
-0.0625
 30
0.0
 11
-1.0
 21
-0.0625
 31
0.0
  0
LINE
  5
78
330
73
100
AcDbEntity
  8
0
  6
CONTINUOUS
 62
     0
100
AcDbLine
 10
0.0
 20
-0.125
 30
0.0
 11
-1.0
 21
-0.125
 31
0.0
  0
ENDBLK
  5
75
330
73
100
AcDbEntity
  8
0
100
AcDbBlockEnd
  0
BLOCK
  5
7A
330
79
100
AcDbEntity
  8
0
100
AcDbBlockBegin
  2
FXTIP_CIVIL_E
 70
     0
 71
     0
 10
0.0
 20
0.0
 30
0.0
  3
FXTIP_CIVIL_E
  1

  0
LINE
  5
7C
330
79
100
AcDbEntity
  8
0
  6
CONTINUOUS
 62
     0
100
AcDbLine
 10
0.0
 20
0.0
 30
0.0
 11
-1.0
 21
0.0
 31
0.0
  0
LINE
  5
7D
330
79
100
AcDbEntity
  8
0
  6
CONTINUOUS
 62
     0
100
AcDbLine
 10
0.0
 20
0.0625
 30
0.0
 11
-1.0
 21
0.0625
 31
0.0
  0
LINE
  5
7E
330
79
100
AcDbEntity
  8
0
  6
CONTINUOUS
 62
     0
100
AcDbLine
 10
0.0
 20
0.125
 30
0.0
 11
-1.0
 21
0.125
 31
0.0
  0
ENDBLK
  5
7B
330
79
100
AcDbEntity
  8
0
100
AcDbBlockEnd
  0
BLOCK
  5
80
330
7F
100
AcDbEntity
  8
0
100
AcDbBlockBegin
  2
FXTIP_WHITEDOT_S
 70
     0
 71
     0
 10
0.0
 20
0.0
 30
0.0
  3
FXTIP_WHITEDOT_S
  1

  0
LINE
  5
82
330
7F
100
AcDbEntity
  8
0
  6
CONTINUOUS
 62
     0
100
AcDbLine
 10
0.0
 20
0.0
 30
0.0
 11
-1.0
 21
0.0
 31
0.0
  0
CIRCLE
  5
83
330
7F
100
AcDbEntity
  8
0
  6
CONTINUOUS
 62
     0
100
AcDbCircle
 10
0.0
 20
0.0
 30
0.0
 40
0.5
  0
ENDBLK
  5
81
330
7F
100
AcDbEntity
  8
0
100
AcDbBlockEnd
  0
BLOCK
  5
85
330
84
100
AcDbEntity
  8
0
100
AcDbBlockBegin
  2
FXTIP_WHITEDOT_E
 70
     0
 71
     0
 10
0.0
 20
0.0
 30
0.0
  3
FXTIP_WHITEDOT_E
  1

  0
LINE
  5
87
330
84
100
AcDbEntity
  8
0
  6
CONTINUOUS
 62
     0
100
AcDbLine
 10
0.0
 20
0.0
 30
0.0
 11
-1.0
 21
0.0
 31
0.0
  0
CIRCLE
  5
88
330
84
100
AcDbEntity
  8
0
  6
CONTINUOUS
 62
     0
100
AcDbCircle
 10
0.0
 20
0.0
 30
0.0
 40
0.5
  0
ENDBLK
  5
86
330
84
100
AcDbEntity
  8
0
100
AcDbBlockEnd
  0
BLOCK
  5
8A
330
89
100
AcDbEntity
  8
0
100
AcDbBlockBegin
  2
FXTIP_UPARROW_S
 70
     0
 71
     0
 10
0.0
 20
0.0
 30
0.0
  3
FXTIP_UPARROW_S
  1

  0
LINE
  5
8C
330
89
100
AcDbEntity
  8
0
  6
CONTINUOUS
 62
     0
100
AcDbLine
 10
0.0
 20
0.0
 30
0.0
 11
-1.0
 21
0.0
 31
0.0
  0
LINE
  5
8D
330
89
100
AcDbEntity
  8
0
  6
CONTINUOUS
 62
     0
100
AcDbLine
 10
0.0
 20
0.0
 30
0.0
 11
-0.965926
 21
-0.258819
 31
0.0
  0
ENDBLK
  5
8B
330
89
100
AcDbEntity
  8
0
100
AcDbBlockEnd
  0
BLOCK
  5
8F
330
8E
100
AcDbEntity
  8
0
100
AcDbBlockBegin
  2
FXTIP_UPARROW_E
 70
     0
 71
     0
 10
0.0
 20
0.0
 30
0.0
  3
FXTIP_UPARROW_E
  1

  0
LINE
  5
91
330
8E
100
AcDbEntity
  8
0
  6
CONTINUOUS
 62
     0
100
AcDbLine
 10
0.0
 20
0.0
 30
0.0
 11
-1.0
 21
0.0
 31
0.0
  0
LINE
  5
92
330
8E
100
AcDbEntity
  8
0
  6
CONTINUOUS
 62
     0
100
AcDbLine
 10
0.0
 20
0.0
 30
0.0
 11
-0.965926
 21
0.258819
 31
0.0
  0
ENDBLK
  5
90
330
8E
100
AcDbEntity
  8
0
100
AcDbBlockEnd
  0
BLOCK
  5
94
330
93
100
AcDbEntity
  8
0
100
AcDbBlockBegin
  2
FXTIP_DOWNARROW_S
 70
     0
 71
     0
 10
0.0
 20
0.0
 30
0.0
  3
FXTIP_DOWNARROW_S
  1

  0
LINE
  5
96
330
93
100
AcDbEntity
  8
0
  6
CONTINUOUS
 62
     0
100
AcDbLine
 10
0.0
 20
0.0
 30
0.0
 11
-1.0
 21
0.0
 31
0.0
  0
LINE
  5
97
330
93
100
AcDbEntity
  8
0
  6
CONTINUOUS
 62
     0
100
AcDbLine
 10
0.0
 20
0.0
 30
0.0
 11
-0.965926
 21
0.258819
 31
0.0
  0
ENDBLK
  5
95
330
93
100
AcDbEntity
  8
0
100
AcDbBlockEnd
  0
BLOCK
  5
99
330
98
100
AcDbEntity
  8
0
100
AcDbBlockBegin
  2
FXTIP_DOWNARROW_E
 70
     0
 71
     0
 10
0.0
 20
0.0
 30
0.0
  3
FXTIP_DOWNARROW_E
  1

  0
LINE
  5
9B
330
98
100
AcDbEntity
  8
0
  6
CONTINUOUS
 62
     0
100
AcDbLine
 10
0.0
 20
0.0
 30
0.0
 11
-1.0
 21
0.0
 31
0.0
  0
LINE
  5
9C
330
98
100
AcDbEntity
  8
0
  6
CONTINUOUS
 62
     0
100
AcDbLine
 10
0.0
 20
0.0
 30
0.0
 11
-0.965926
 21
-0.258819
 31
0.0
  0
ENDBLK
  5
9A
330
98
100
AcDbEntity
  8
0
100
AcDbBlockEnd
  0
BLOCK
  5
9E
330
9D
100
AcDbEntity
  8
0
100
AcDbBlockBegin
  2
FXTIP_BLACKTRIANGLE_S
 70
     0
 71
     0
 10
0.0
 20
0.0
 30
0.0
  3
FXTIP_BLACKTRIANGLE_S
  1

  0
LINE
  5
A0
330
9D
100
AcDbEntity
  8
0
  6
CONTINUOUS
 62
     0
100
AcDbLine
 10
0.0
 20
0.0
 30
0.0
 11
-1.0
 21
0.0
 31
0.0
  0
SOLID
  5
A1
330
9D
100
AcDbEntity
  8
0
  6
CONTINUOUS
 62
     0
100
AcDbTrace
 10
0.0
 20
0.0
 30
0.0
 11
-0.965926
 21
-0.258819
 31
0.0
 12
-0.965926
 22
0.258819
 32
0.0
 13
-0.965926
 23
0.258819
 33
0.0
  0
ENDBLK
  5
9F
330
9D
100
AcDbEntity
  8
0
100
AcDbBlockEnd
  0
BLOCK
  5
A3
330
A2
100
AcDbEntity
  8
0
100
AcDbBlockBegin
  2
FXTIP_BLACKTRIANGLE_E
 70
     0
 71
     0
 10
0.0
 20
0.0
 30
0.0
  3
FXTIP_BLACKTRIANGLE_E
  1

  0
LINE
  5
A5
330
A2
100
AcDbEntity
  8
0
  6
CONTINUOUS
 62
     0
100
AcDbLine
 10
0.0
 20
0.0
 30
0.0
 11
-1.0
 21
0.0
 31
0.0
  0
SOLID
  5
A6
330
A2
100
AcDbEntity
  8
0
  6
CONTINUOUS
 62
     0
100
AcDbTrace
 10
0.0
 20
0.0
 30
0.0
 11
-0.965926
 21
0.258819
 31
0.0
 12
-0.965926
 22
-0.258819
 32
0.0
 13
-0.965926
 23
-0.258819
 33
0.0
  0
ENDBLK
  5
A4
330
A2
100
AcDbEntity
  8
0
100
AcDbBlockEnd
  0
BLOCK
  5
A9
330
A8
100
AcDbEntity
  8
0
100
AcDbBlockBegin
  2
BLKF021
 70
     0
 71
     0
 10
0.0
 20
0.0
 30
0.0
  3
BLKF021
  1

  0
LINE
  5
AC
330
A8
100
AcDbEntity
  8
}}ﾊﾊGG血CCТ
  6
CONTINUOUS
 62
     7
100
AcDbLine
 10
10.0
 20
10.0
 30
0.0
 11
584.0
 21
10.0
 31
0.0
  0
LINE
  5
AD
330
A8
100
AcDbEntity
  8
}}ﾊﾊGG血CCТ
  6
CONTINUOUS
 62
     7
100
AcDbLine
 10
10.0
 20
10.0
 30
0.0
 11
10.0
 21
410.0
 31
0.0
  0
LINE
  5
AE
330
A8
100
AcDbEntity
  8
}}ﾊﾊGG血CCТ
  6
CONTINUOUS
 62
     7
100
AcDbLine
 10
10.0
 20
410.0
 30
0.0
 11
584.0
 21
410.0
 31
0.0
  0
LINE
  5
AF
330
A8
100
AcDbEntity
  8
}}ﾊﾊGG血CCТ
  6
CONTINUOUS
 62
     7
100
AcDbLine
 10
584.0
 20
410.0
 30
0.0
 11
584.0
 21
10.0
 31
0.0
  0
LINE
  5
B0
330
A8
100
AcDbEntity
  8
}}ﾊﾊGG血CCТ
  6
CONTINUOUS
 62
     7
100
AcDbLine
 10
327.0
 20
10.0
 30
0.0
 11
327.0
 21
20.0
 31
0.0
  0
TEXT
  5
B1
330
A8
100
AcDbEntity
  8
}}ﾊﾊGG血CCТ
  6
CONTINUOUS
 62
     7
100
AcDbText
 10
311.738831
 20
11.596879
 30
0.0
 40
6.648749
  1
品名
 41
1.083413
  7
FX_VECTOR
 72
     5
 11
323.058371
 21
11.596879
 31
0.0
100
AcDbText
  0
LINE
  5
B2
330
A8
100
AcDbEntity
  8
}}ﾊﾊGG血CCТ
  6
CONTINUOUS
 62
     7
100
AcDbLine
 10
407.0
 20
20.0
 30
0.0
 11
407.0
 21
10.0
 31
0.0
  0
LINE
  5
B3
330
A8
100
AcDbEntity
  8
}}ﾊﾊGG血CCТ
  6
CONTINUOUS
 62
     7
100
AcDbLine
 10
307.0
 20
20.0
 30
0.0
 11
584.0
 21
20.0
 31
0.0
  0
INSERT
  5
B7
330
A8
100
AcDbEntity
  8
0
100
AcDbBlockReference
  2
BLKF022
 10
0.0
 20
0.0
 30
0.0
  0
INSERT
  5
C0
330
A8
100
AcDbEntity
  8
0
100
AcDbBlockReference
  2
BLKF023
 10
0.0
 20
0.0
 30
0.0
  0
HATCH
  5
D1
330
A8
100
AcDbEntity
  8
GR1-1
  6
CONTINUOUS
 62
     7
100
AcDbHatch
 10
0.0
 20
0.0
 30
0.0
210
0.0
220
0.0
230
1.0
  2

 70
     0
 71
     1
 91
        2
 92
        0
 93
        4
 72
     1
 10
512.8018997861325
 20
17.91346152
 11
518.8018997861325
 21
17.91346152
 72
     1
 10
518.8018997861325
 20
17.91346152
 11
518.8018997861325
 21
11.91346152
 72
     1
 10
518.8018997861325
 20
11.91346152
 11
512.8018997861325
 21
11.91346152
 72
     1
 10
512.8018997861325
 20
11.91346152
 11
512.8018997861325
 21
17.91346152
 97
        0
 92
        0
 93
       15
 72
     1
 10
515.8018997861325
 20
17.76923076000002
 11
512.9461305461325
 21
14.91346152
 72
     1
 10
512.9461305461325
 20
14.91346152
 11
515.8018997861325
 21
12.05769228000001
 72
     1
 10
515.8018997861325
 20
12.05769228000001
 11
517.3595920661326
 21
13.61538462
 72
     1
 10
517.3595920661326
 20
13.61538462
 11
517.3595920661326
 21
12.98076924
 72
     1
 10
517.3595920661326
 20
12.98076924
 11
518.2249766861326
 21
12.98076924
 72
     1
 10
518.2249766861326
 20
12.98076924
 11
518.2249766861326
 21
15.00000000000001
 72
     1
 10
518.2249766861326
 20
15.00000000000001
 11
515.8018997861325
 21
15.00000000000001
 72
     1
 10
515.8018997861325
 20
15.00000000000001
 11
515.8018997861325
 21
14.13461538000001
 72
     1
 10
515.8018997861325
 20
14.13461538000001
 11
516.2461305461325
 21
14.13461538000001
 72
     1
 10
516.2461305461325
 20
14.13461538000001
 11
515.8018997861325
 21
13.69038462
 72
     1
 10
515.8018997861325
 20
13.69038462
 11
514.5788228861325
 21
14.91346152
 72
     1
 10
514.5788228861325
 20
14.91346152
 11
515.8018997861325
 21
16.13653842000003
 72
     1
 10
515.8018997861325
 20
16.13653842000003
 11
516.5922844061325
 21
15.3461538
 72
     1
 10
516.5922844061325
 20
15.3461538
 11
518.2249766861326
 21
15.3461538
 72
     1
 10
518.2249766861326
 20
15.3461538
 11
515.8018997861325
 21
17.76923076000002
 97
        0
 75
     0
 76
     0
 52
45.0
 41
0.05
 77
     0
 78
     1
 53
45.0
 43
0.0
 44
0.0
 45
-0.0353553390593274
 46
0.0353553390593274
 79
     0
 98
        0
  0
TEXT
  5
D2
330
A8
100
AcDbEntity
  8
}}ﾊﾊGG血CCТ
  6
CONTINUOUS
 62
     7
100
AcDbText
 10
523.225769
 20
11.461285
 30
0.0
 40
7.170908
  1
GOLD CASTER
 41
0.63978
  7
FX_VECTOR
 72
     5
 11
569.977636
 21
11.461285
 31
0.0
100
AcDbText
  0
LINE
  5
D3
330
A8
100
AcDbEntity
  8
}}ﾊﾊGG血CCТ
  6
CONTINUOUS
 62
     7
100
AcDbLine
 10
427.0
 20
10.0
 30
0.0
 11
427.0
 21
20.0
 31
0.0
  0
TEXT
  5
D4
330
A8
100
AcDbEntity
  8
}}ﾊﾊGG血CCТ
  6
CONTINUOUS
 62
     7
100
AcDbText
 10
411.738831
 20
11.596879
 30
0.0
 40
6.648749
  1
図番
 41
1.083413
  7
FX_VECTOR
 72
     5
 11
423.058371
 21
11.596879
 31
0.0
100
AcDbText
  0
LINE
  5
D5
330
A8
100
AcDbEntity
  8
}}ﾊﾊGG血CCТ
  6
CONTINUOUS
 62
     7
100
AcDbLine
 10
507.0
 20
20.0
 30
0.0
 11
507.0
 21
10.0
 31
0.0
  0
LINE
  5
D6
330
A8
100
AcDbEntity
  8
}}ﾊﾊGG血CCТ
  6
CONTINUOUS
 62
     7
100
AcDbLine
 10
307.0
 20
20.0
 30
0.0
 11
307.0
 21
10.0
 31
0.0
  0
ENDBLK
  5
AA
330
A8
100
AcDbEntity
  8
0
100
AcDbBlockEnd
  0
BLOCK
  5
B5
330
B4
100
AcDbEntity
  8
0
100
AcDbBlockBegin
  2
BLKF022
 70
     0
 71
     0
 10
0.0
 20
0.0
 30
0.0
  3
BLKF022
  1

  0
LINE
  5
B9
330
B4
100
AcDbEntity
  8
0-1
  6
CONTINUOUS
 62
     7
100
AcDbLine
 10
518.8019
 20
17.913462
 30
0.0
 11
512.8019
 21
17.913462
 31
0.0
  0
LINE
  5
BA
330
B4
100
AcDbEntity
  8
0-1
  6
CONTINUOUS
 62
     7
100
AcDbLine
 10
512.8019
 20
17.913462
 30
0.0
 11
512.8019
 21
11.913462
 31
0.0
  0
LINE
  5
BB
330
B4
100
AcDbEntity
  8
0-1
  6
CONTINUOUS
 62
     7
100
AcDbLine
 10
512.8019
 20
11.913462
 30
0.0
 11
518.8019
 21
11.913462
 31
0.0
  0
LINE
  5
BC
330
B4
100
AcDbEntity
  8
0-1
  6
CONTINUOUS
 62
     7
100
AcDbLine
 10
518.8019
 20
11.913462
 30
0.0
 11
518.8019
 21
17.913462
 31
0.0
  0
ENDBLK
  5
B6
330
B4
100
AcDbEntity
  8
0
100
AcDbBlockEnd
  0
BLOCK
  5
BE
330
BD
100
AcDbEntity
  8
0
100
AcDbBlockBegin
  2
BLKF023
 70
     0
 71
     0
 10
0.0
 20
0.0
 30
0.0
  3
BLKF023
  1

  0
LINE
  5
C1
330
BD
100
AcDbEntity
  8
0-1
  6
CONTINUOUS
 62
     7
100
AcDbLine
 10
518.224977
 20
15.346154
 30
0.0
 11
515.8019
 21
17.769231
 31
0.0
  0
LINE
  5
C2
330
BD
100
AcDbEntity
  8
0-1
  6
CONTINUOUS
 62
     7
100
AcDbLine
 10
515.8019
 20
17.769231
 30
0.0
 11
512.946131
 21
14.913462
 31
0.0
  0
LINE
  5
C3
330
BD
100
AcDbEntity
  8
0-1
  6
CONTINUOUS
 62
     7
100
AcDbLine
 10
512.946131
 20
14.913462
 30
0.0
 11
515.8019
 21
12.057692
 31
0.0
  0
LINE
  5
C4
330
BD
100
AcDbEntity
  8
0-1
  6
CONTINUOUS
 62
     7
100
AcDbLine
 10
515.8019
 20
12.057692
 30
0.0
 11
517.359592
 21
13.615385
 31
0.0
  0
LINE
  5
C5
330
BD
100
AcDbEntity
  8
0-1
  6
CONTINUOUS
 62
     7
100
AcDbLine
 10
517.359592
 20
13.615385
 30
0.0
 11
517.359592
 21
12.980769
 31
0.0
  0
LINE
  5
C6
330
BD
100
AcDbEntity
  8
0-1
  6
CONTINUOUS
 62
     7
100
AcDbLine
 10
517.359592
 20
12.980769
 30
0.0
 11
518.224977
 21
12.980769
 31
0.0
  0
LINE
  5
C7
330
BD
100
AcDbEntity
  8
0-1
  6
CONTINUOUS
 62
     7
100
AcDbLine
 10
518.224977
 20
12.980769
 30
0.0
 11
518.224977
 21
15.0
 31
0.0
  0
LINE
  5
C8
330
BD
100
AcDbEntity
  8
0-1
  6
CONTINUOUS
 62
     7
100
AcDbLine
 10
518.224977
 20
15.0
 30
0.0
 11
515.8019
 21
15.0
 31
0.0
  0
LINE
  5
C9
330
BD
100
AcDbEntity
  8
0-1
  6
CONTINUOUS
 62
     7
100
AcDbLine
 10
515.8019
 20
15.0
 30
0.0
 11
515.8019
 21
14.134615
 31
0.0
  0
LINE
  5
CA
330
BD
100
AcDbEntity
  8
0-1
  6
CONTINUOUS
 62
     7
100
AcDbLine
 10
515.8019
 20
14.134615
 30
0.0
 11
516.246131
 21
14.134615
 31
0.0
  0
LINE
  5
CB
330
BD
100
AcDbEntity
  8
0-1
  6
CONTINUOUS
 62
     7
100
AcDbLine
 10
516.246131
 20
14.134615
 30
0.0
 11
515.8019
 21
13.690385
 31
0.0
  0
LINE
  5
CC
330
BD
100
AcDbEntity
  8
0-1
  6
CONTINUOUS
 62
     7
100
AcDbLine
 10
515.8019
 20
13.690385
 30
0.0
 11
514.578823
 21
14.913462
 31
0.0
  0
LINE
  5
CD
330
BD
100
AcDbEntity
  8
0-1
  6
CONTINUOUS
 62
     7
100
AcDbLine
 10
514.578823
 20
14.913462
 30
0.0
 11
515.8019
 21
16.136538
 31
0.0
  0
LINE
  5
CE
330
BD
100
AcDbEntity
  8
0-1
  6
CONTINUOUS
 62
     7
100
AcDbLine
 10
515.8019
 20
16.136538
 30
0.0
 11
516.592284
 21
15.346154
 31
0.0
  0
LINE
  5
CF
330
BD
100
AcDbEntity
  8
0-1
  6
CONTINUOUS
 62
     7
100
AcDbLine
 10
516.592284
 20
15.346154
 30
0.0
 11
518.224977
 21
15.346154
 31
0.0
  0
ENDBLK
  5
BF
330
BD
100
AcDbEntity
  8
0
100
AcDbBlockEnd
  0
BLOCK
  5
DB
330
DA
100
AcDbEntity
  8
0
100
AcDbBlockBegin
  2
*D22
 70
     1
 71
     0
 10
0.0
 20
0.0
 30
0.0
  3
*D22
  1

  0
TEXT
  5
DD
330
DA
100
AcDbEntity
  8
GR1-1
  6
CONTINUOUS
 62
     7
100
AcDbText
 10
364.128967
 20
40.784851
 30
0.0
 40
4.0
  1
40
 41
0.851351
  7
FX_VECTOR
 72
     5
 11
370.128967
 21
40.784851
 31
0.0
100
AcDbText
  0
LINE
  5
DE
330
DA
100
AcDbEntity
  8
GR1-1
  6
CONTINUOUS
 62
     7
100
AcDbLine
 10
347.128963
 20
46.478021
 30
0.0
 11
347.128963
 21
38.784858
 31
0.0
  0
LINE
  5
DF
330
DA
100
AcDbEntity
  8
GR1-1
  6
CONTINUOUS
 62
     7
100
AcDbLine
 10
387.128963
 20
139.97954
 30
0.0
 11
387.128963
 21
38.784858
 31
0.0
  0
LINE
  5
E0
330
DA
100
AcDbEntity
  8
GR1-1
  6
CONTINUOUS
 62
     7
100
AcDbLine
 10
347.128963
 20
39.784858
 30
0.0
 11
387.128963
 21
39.784858
 31
0.0
  0
INSERT
  5
E1
330
DA
100
AcDbEntity
  8
GR1-1
  6
CONTINUOUS
 62
     7
100
AcDbBlockReference
  2
FXTIP_ARROW_S
 10
347.128963
 20
39.784858
 30
0.0
 41
4.0
 42
4.0
 50
180.0
  0
INSERT
  5
E2
330
DA
100
AcDbEntity
  8
GR1-1
  6
CONTINUOUS
 62
     7
100
AcDbBlockReference
  2
FXTIP_ARROW_E
 10
387.128963
 20
39.784858
 30
0.0
 41
4.0
 42
4.0
 50
360.0
  0
ENDBLK
  5
DC
330
DA
100
AcDbEntity
  8
0
100
AcDbBlockEnd
  0
BLOCK
  5
E5
330
E4
100
AcDbEntity
  8
0
100
AcDbBlockBegin
  2
*D23
 70
     1
 71
     0
 10
0.0
 20
0.0
 30
0.0
  3
*D23
  1

  0
TEXT
  5
E7
330
E4
100
AcDbEntity
  8
GR1-1
  6
CONTINUOUS
 62
     7
100
AcDbText
 10
466.063965
 20
133.79303
 30
0.0
 40
4.0
  1
177
 50
90.0
 41
0.828947
  7
FX_VECTOR
 72
     5
 11
466.063965
 21
142.79303
 31
0.0
100
AcDbText
  0
LINE
  5
E8
330
E4
100
AcDbEntity
  8
GR1-1
  6
CONTINUOUS
 62
     7
100
AcDbLine
 10
441.600503
 20
226.790517
 30
0.0
 11
468.063977
 21
226.790517
 31
0.0
  0
LINE
  5
E9
330
E4
100
AcDbEntity
  8
GR1-1
  6
CONTINUOUS
 62
     7
100
AcDbLine
 10
348.128963
 20
49.795517
 30
0.0
 11
468.063977
 21
49.795517
 31
0.0
  0
LINE
  5
EA
330
E4
100
AcDbEntity
  8
GR1-1
  6
CONTINUOUS
 62
     7
100
AcDbLine
 10
467.063977
 20
226.790517
 30
0.0
 11
467.063977
 21
49.795517
 31
0.0
  0
INSERT
  5
EB
330
E4
100
AcDbEntity
  8
GR1-1
  6
CONTINUOUS
 62
     7
100
AcDbBlockReference
  2
FXTIP_ARROW_S
 10
467.063977
 20
226.790517
 30
0.0
 41
4.0
 42
4.0
 50
90.0
  0
INSERT
  5
EC
330
E4
100
AcDbEntity
  8
GR1-1
  6
CONTINUOUS
 62
     7
100
AcDbBlockReference
  2
FXTIP_ARROW_E
 10
467.063977
 20
49.795517
 30
0.0
 41
4.0
 42
4.0
 50
270.0
  0
ENDBLK
  5
E6
330
E4
100
AcDbEntity
  8
0
100
AcDbBlockEnd
  0
BLOCK
  5
EF
330
EE
100
AcDbEntity
  8
0
100
AcDbBlockBegin
  2
*D24
 70
     1
 71
     0
 10
0.0
 20
0.0
 30
0.0
  3
*D24
  1

  0
TEXT
  5
F1
330
EE
100
AcDbEntity
  8
GR1-1
  6
CONTINUOUS
 62
     7
100
AcDbText
 10
456.063965
 20
166.29303
 30
0.0
 40
4.0
  1
112
 50
90.0
 41
0.828947
  7
FX_VECTOR
 72
     5
 11
456.063965
 21
175.29303
 31
0.0
100
AcDbText
  0
LINE
  5
F2
330
EE
100
AcDbEntity
  8
GR1-1
  6
CONTINUOUS
 62
     7
100
AcDbLine
 10
417.822816
 20
114.795517
 30
0.0
 11
458.063977
 21
114.795517
 31
0.0
  0
LINE
  5
F3
330
EE
100
AcDbEntity
  8
GR1-1
  6
CONTINUOUS
 62
     7
100
AcDbLine
 10
457.063977
 20
114.795517
 30
0.0
 11
457.063977
 21
226.790517
 31
0.0
  0
INSERT
  5
F4
330
EE
100
AcDbEntity
  8
GR1-1
  6
CONTINUOUS
 62
     7
100
AcDbBlockReference
  2
FXTIP_ARROW_S
 10
457.063977
 20
114.795517
 30
0.0
 41
4.0
 42
4.0
 50
270.0
  0
INSERT
  5
F5
330
EE
100
AcDbEntity
  8
GR1-1
  6
CONTINUOUS
 62
     7
100
AcDbBlockReference
  2
FXTIP_ARROW_E
 10
457.063977
 20
226.790517
 30
0.0
 41
4.0
 42
4.0
 50
90.0
  0
ENDBLK
  5
F0
330
EE
100
AcDbEntity
  8
0
100
AcDbBlockEnd
  0
BLOCK
  5
219
330
218
100
AcDbEntity
  8
0
100
AcDbBlockBegin
  2
*D25
 70
     1
 71
     0
 10
0.0
 20
0.0
 30
0.0
  3
*D25
  1

  0
TEXT
  5
21B
330
218
100
AcDbEntity
  8
GR1-1
  6
CONTINUOUS
 62
     7
100
AcDbText
 10
382.628967
 20
244.675354
 30
0.0
 40
4.0
  1
108
 41
0.828947
  7
FX_VECTOR
 72
     5
 11
391.628967
 21
244.675354
 31
0.0
100
AcDbText
  0
LINE
  5
21C
330
218
100
AcDbEntity
  8
GR1-1
  6
CONTINUOUS
 62
     7
100
AcDbLine
 10
333.128963
 20
296.965517
 30
0.0
 11
333.128963
 21
242.67534
 31
0.0
  0
LINE
  5
21D
330
218
100
AcDbEntity
  8
GR1-1
  6
CONTINUOUS
 62
     7
100
AcDbLine
 10
441.128963
 20
296.965517
 30
0.0
 11
441.128963
 21
242.67534
 31
0.0
  0
LINE
  5
21E
330
218
100
AcDbEntity
  8
GR1-1
  6
CONTINUOUS
 62
     7
100
AcDbLine
 10
333.128963
 20
243.67534
 30
0.0
 11
441.128963
 21
243.67534
 31
0.0
  0
INSERT
  5
21F
330
218
100
AcDbEntity
  8
GR1-1
  6
CONTINUOUS
 62
     7
100
AcDbBlockReference
  2
FXTIP_ARROW_S
 10
333.128963
 20
243.67534
 30
0.0
 41
4.0
 42
4.0
 50
180.0
  0
INSERT
  5
220
330
218
100
AcDbEntity
  8
GR1-1
  6
CONTINUOUS
 62
     7
100
AcDbBlockReference
  2
FXTIP_ARROW_E
 10
441.128963
 20
243.67534
 30
0.0
 41
4.0
 42
4.0
 50
360.0
  0
ENDBLK
  5
21A
330
218
100
AcDbEntity
  8
0
100
AcDbBlockEnd
  0
BLOCK
  5
223
330
222
100
AcDbEntity
  8
0
100
AcDbBlockBegin
  2
*D26
 70
     1
 71
     0
 10
0.0
 20
0.0
 30
0.0
  3
*D26
  1

  0
TEXT
  5
225
330
222
100
AcDbEntity
  8
GR1-1
  6
CONTINUOUS
 62
     7
100
AcDbText
 10
384.128967
 20
253.788757
 30
0.0
 40
4.0
  1
82
 41
0.851351
  7
FX_VECTOR
 72
     5
 11
390.128967
 21
253.788757
 31
0.0
100
AcDbText
  0
LINE
  5
226
330
222
100
AcDbEntity
  8
GR1-1
  6
CONTINUOUS
 62
     7
100
AcDbLine
 10
346.128963
 20
288.632719
 30
0.0
 11
346.128963
 21
251.78876
 31
0.0
  0
LINE
  5
227
330
222
100
AcDbEntity
  8
GR1-1
  6
CONTINUOUS
 62
     7
100
AcDbLine
 10
428.128963
 20
288.701286
 30
0.0
 11
428.128963
 21
251.78876
 31
0.0
  0
LINE
  5
228
330
222
100
AcDbEntity
  8
GR1-1
  6
CONTINUOUS
 62
     7
100
AcDbLine
 10
346.128963
 20
252.78876
 30
0.0
 11
428.128963
 21
252.78876
 31
0.0
  0
INSERT
  5
229
330
222
100
AcDbEntity
  8
GR1-1
  6
CONTINUOUS
 62
     7
100
AcDbBlockReference
  2
FXTIP_ARROW_S
 10
346.128963
 20
252.78876
 30
0.0
 41
4.0
 42
4.0
 50
180.0
  0
INSERT
  5
22A
330
222
100
AcDbEntity
  8
GR1-1
  6
CONTINUOUS
 62
     7
100
AcDbBlockReference
  2
FXTIP_ARROW_E
 10
428.128963
 20
252.78876
 30
0.0
 41
4.0
 42
4.0
 50
360.0
  0
ENDBLK
  5
224
330
222
100
AcDbEntity
  8
0
100
AcDbBlockEnd
  0
BLOCK
  5
22D
330
22C
100
AcDbEntity
  8
0
100
AcDbBlockBegin
  2
*D27
 70
     1
 71
     0
 10
0.0
 20
0.0
 30
0.0
  3
*D27
  1

  0
TEXT
  5
22F
330
22C
100
AcDbEntity
  8
GR1-1
  6
CONTINUOUS
 62
     7
100
AcDbText
 10
384.128967
 20
263.52005
 30
0.0
 40
4.0
  1
79
 41
0.875
  7
FX_VECTOR
 72
     5
 11
390.128967
 21
263.52005
 31
0.0
100
AcDbText
  0
LINE
  5
230
330
22C
100
AcDbEntity
  8
GR1-1
  6
CONTINUOUS
 62
     7
100
AcDbLine
 10
426.628963
 20
290.201286
 30
0.0
 11
426.628963
 21
261.520039
 31
0.0
  0
LINE
  5
231
330
22C
100
AcDbEntity
  8
GR1-1
  6
CONTINUOUS
 62
     7
100
AcDbLine
 10
347.628963
 20
290.201286
 30
0.0
 11
347.628963
 21
261.520039
 31
0.0
  0
LINE
  5
232
330
22C
100
AcDbEntity
  8
GR1-1
  6
CONTINUOUS
 62
     7
100
AcDbLine
 10
426.628963
 20
262.520039
 30
0.0
 11
347.628963
 21
262.520039
 31
0.0
  0
INSERT
  5
233
330
22C
100
AcDbEntity
  8
GR1-1
  6
CONTINUOUS
 62
     7
100
AcDbBlockReference
  2
FXTIP_ARROW_S
 10
426.628963
 20
262.520039
 30
0.0
 41
4.0
 42
4.0
  0
INSERT
  5
234
330
22C
100
AcDbEntity
  8
GR1-1
  6
CONTINUOUS
 62
     7
100
AcDbBlockReference
  2
FXTIP_ARROW_E
 10
347.628963
 20
262.520039
 30
0.0
 41
4.0
 42
4.0
 50
180.0
  0
ENDBLK
  5
22E
330
22C
100
AcDbEntity
  8
0
100
AcDbBlockEnd
  0
BLOCK
  5
237
330
236
100
AcDbEntity
  8
0
100
AcDbBlockBegin
  2
*D28
 70
     1
 71
     0
 10
0.0
 20
0.0
 30
0.0
  3
*D28
  1

  0
TEXT
  5
239
330
236
100
AcDbEntity
  8
GR1-1
  6
CONTINUOUS
 62
     7
100
AcDbText
 10
470.246765
 20
333.465515
 30
0.0
 40
4.0
  1
108
 50
90.0
 41
0.828947
  7
FX_VECTOR
 72
     5
 11
470.246765
 21
342.465515
 31
0.0
100
AcDbText
  0
LINE
  5
23A
330
236
100
AcDbEntity
  8
GR1-1
  6
CONTINUOUS
 62
     7
100
AcDbLine
 10
428.128963
 20
283.965517
 30
0.0
 11
472.246802
 21
283.965517
 31
0.0
  0
LINE
  5
23B
330
236
100
AcDbEntity
  8
GR1-1
  6
CONTINUOUS
 62
     7
100
AcDbLine
 10
428.128963
 20
391.965517
 30
0.0
 11
472.246802
 21
391.965517
 31
0.0
  0
LINE
  5
23C
330
236
100
AcDbEntity
  8
GR1-1
  6
CONTINUOUS
 62
     7
100
AcDbLine
 10
471.246802
 20
283.965517
 30
0.0
 11
471.246802
 21
391.965517
 31
0.0
  0
INSERT
  5
23D
330
236
100
AcDbEntity
  8
GR1-1
  6
CONTINUOUS
 62
     7
100
AcDbBlockReference
  2
FXTIP_ARROW_S
 10
471.246802
 20
283.965517
 30
0.0
 41
4.0
 42
4.0
 50
270.0
  0
INSERT
  5
23E
330
236
100
AcDbEntity
  8
GR1-1
  6
CONTINUOUS
 62
     7
100
AcDbBlockReference
  2
FXTIP_ARROW_E
 10
471.246802
 20
391.965517
 30
0.0
 41
4.0
 42
4.0
 50
90.0
  0
ENDBLK
  5
238
330
236
100
AcDbEntity
  8
0
100
AcDbBlockEnd
  0
BLOCK
  5
241
330
240
100
AcDbEntity
  8
0
100
AcDbBlockBegin
  2
*D29
 70
     1
 71
     0
 10
0.0
 20
0.0
 30
0.0
  3
*D29
  1

  0
TEXT
  5
243
330
240
100
AcDbEntity
  8
GR1-1
  6
CONTINUOUS
 62
     7
100
AcDbText
 10
460.246765
 20
334.965515
 30
0.0
 40
4.0
  1
82
 50
90.0
 41
0.851351
  7
FX_VECTOR
 72
     5
 11
460.246765
 21
340.965515
 31
0.0
100
AcDbText
  0
LINE
  5
244
330
240
100
AcDbEntity
  8
GR1-1
  6
CONTINUOUS
 62
     7
100
AcDbLine
 10
436.284836
 20
378.965517
 30
0.0
 11
462.246802
 21
378.965517
 31
0.0
  0
LINE
  5
245
330
240
100
AcDbEntity
  8
GR1-1
  6
CONTINUOUS
 62
     7
100
AcDbLine
 10
436.284836
 20
296.965517
 30
0.0
 11
462.246802
 21
296.965517
 31
0.0
  0
LINE
  5
246
330
240
100
AcDbEntity
  8
GR1-1
  6
CONTINUOUS
 62
     7
100
AcDbLine
 10
461.246802
 20
378.965517
 30
0.0
 11
461.246802
 21
296.965517
 31
0.0
  0
INSERT
  5
247
330
240
100
AcDbEntity
  8
GR1-1
  6
CONTINUOUS
 62
     7
100
AcDbBlockReference
  2
FXTIP_ARROW_S
 10
461.246802
 20
378.965517
 30
0.0
 41
4.0
 42
4.0
 50
90.0
  0
INSERT
  5
248
330
240
100
AcDbEntity
  8
GR1-1
  6
CONTINUOUS
 62
     7
100
AcDbBlockReference
  2
FXTIP_ARROW_E
 10
461.246802
 20
296.965517
 30
0.0
 41
4.0
 42
4.0
 50
270.0
  0
ENDBLK
  5
242
330
240
100
AcDbEntity
  8
0
100
AcDbBlockEnd
  0
BLOCK
  5
24B
330
24A
100
AcDbEntity
  8
0
100
AcDbBlockBegin
  2
*D30
 70
     1
 71
     0
 10
0.0
 20
0.0
 30
0.0
  3
*D30
  1

  0
TEXT
  5
24D
330
24A
100
AcDbEntity
  8
GR1-1
  6
CONTINUOUS
 62
     7
100
AcDbText
 10
450.246765
 20
334.965515
 30
0.0
 40
4.0
  1
79
 50
90.0
 41
0.875
  7
FX_VECTOR
 72
     5
 11
450.246765
 21
340.965515
 31
0.0
100
AcDbText
  0
LINE
  5
24E
330
24A
100
AcDbEntity
  8
GR1-1
  6
CONTINUOUS
 62
     7
100
AcDbLine
 10
434.784836
 20
298.465517
 30
0.0
 11
452.246802
 21
298.465517
 31
0.0
  0
LINE
  5
24F
330
24A
100
AcDbEntity
  8
GR1-1
  6
CONTINUOUS
 62
     7
100
AcDbLine
 10
434.784836
 20
377.465517
 30
0.0
 11
452.246802
 21
377.465517
 31
0.0
  0
LINE
  5
250
330
24A
100
AcDbEntity
  8
GR1-1
  6
CONTINUOUS
 62
     7
100
AcDbLine
 10
451.246802
 20
298.465517
 30
0.0
 11
451.246802
 21
377.465517
 31
0.0
  0
INSERT
  5
251
330
24A
100
AcDbEntity
  8
GR1-1
  6
CONTINUOUS
 62
     7
100
AcDbBlockReference
  2
FXTIP_ARROW_S
 10
451.246802
 20
298.465517
 30
0.0
 41
4.0
 42
4.0
 50
270.0
  0
INSERT
  5
252
330
24A
100
AcDbEntity
  8
GR1-1
  6
CONTINUOUS
 62
     7
100
AcDbBlockReference
  2
FXTIP_ARROW_E
 10
451.246802
 20
377.465517
 30
0.0
 41
4.0
 42
4.0
 50
90.0
  0
ENDBLK
  5
24C
330
24A
100
AcDbEntity
  8
0
100
AcDbBlockEnd
  0
BLOCK
  5
297
330
296
100
AcDbEntity
  8
0
100
AcDbBlockBegin
  2
*D31
 70
     1
 71
     0
 10
0.0
 20
0.0
 30
0.0
  3
*D31
  1

  0
TEXT
  5
299
330
296
100
AcDbEntity
  8
GR1-1
  6
CONTINUOUS
 62
     7
100
AcDbText
 10
108.098694
 20
108.515533
 30
0.0
 40
4.0
  1
%%c130
 50
90.0
 41
0.828947
  7
FX_VECTOR
 72
     5
 11
108.098694
 21
120.515533
 31
0.0
100
AcDbText
  0
LINE
  5
29A
330
296
100
AcDbEntity
  8
GR1-1
  6
CONTINUOUS
 62
     7
100
AcDbLine
 10
162.027321
 20
49.795521
 30
0.0
 11
108.098691
 21
49.795521
 31
0.0
  0
LINE
  5
29B
330
296
100
AcDbEntity
  8
GR1-1
  6
CONTINUOUS
 62
     7
100
AcDbLine
 10
162.027321
 20
179.795513
 30
0.0
 11
108.098691
 21
179.795513
 31
0.0
  0
LINE
  5
29C
330
296
100
AcDbEntity
  8
GR1-1
  6
CONTINUOUS
 62
     7
100
AcDbLine
 10
109.098691
 20
49.795521
 30
0.0
 11
109.098691
 21
179.795513
 31
0.0
  0
INSERT
  5
29D
330
296
100
AcDbEntity
  8
GR1-1
  6
CONTINUOUS
 62
     7
100
AcDbBlockReference
  2
FXTIP_ARROW_S
 10
109.098691
 20
49.795521
 30
0.0
 41
4.0
 42
4.0
 50
270.0
  0
INSERT
  5
29E
330
296
100
AcDbEntity
  8
GR1-1
  6
CONTINUOUS
 62
     7
100
AcDbBlockReference
  2
FXTIP_ARROW_E
 10
109.098691
 20
179.795513
 30
0.0
 41
4.0
 42
4.0
 50
90.0
  0
ENDBLK
  5
298
330
296
100
AcDbEntity
  8
0
100
AcDbBlockEnd
  0
BLOCK
  5
2A1
330
2A0
100
AcDbEntity
  8
0
100
AcDbBlockBegin
  2
*D32
 70
     1
 71
     0
 10
0.0
 20
0.0
 30
0.0
  3
*D32
  1

  0
TEXT
  5
2A3
330
2A0
100
AcDbEntity
  8
GR1-1
  6
CONTINUOUS
 62
     7
100
AcDbText
 10
294.619928
 20
305.904187
 30
0.0
 40
4.0
  1
103
 50
19.837029
 41
0.828947
  7
FX_VECTOR
 72
     5
 11
303.085883
 21
308.9583
 31
0.0
100
AcDbText
  0
LINE
  5
2A4
330
2A0
100
AcDbEntity
  8
GR1-1
  6
CONTINUOUS
 62
     7
100
AcDbLine
 10
290.943902
 20
303.266528
 30
0.0
 11
387.128963
 21
337.965517
 31
0.0
  0
INSERT
  5
2A5
330
2A0
100
AcDbEntity
  8
GR1-1
  6
CONTINUOUS
 62
     7
100
AcDbBlockReference
  2
FXTIP_ARROW_S
 10
290.943902
 20
303.266528
 30
0.0
 41
4.0
 42
4.0
 50
199.837029
  0
ENDBLK
  5
2A2
330
2A0
100
AcDbEntity
  8
0
100
AcDbBlockEnd
  0
BLOCK
  5
2FE
330
2FD
100
AcDbEntity
  8
0
100
AcDbBlockBegin
  2
*D33
 70
     1
 71
     0
 10
0.0
 20
0.0
 30
0.0
  3
*D33
  1

  0
TEXT
  5
300
330
2FD
100
AcDbEntity
  8
GR1-1
  6
CONTINUOUS
 62
     7
100
AcDbText
 10
322.717809
 20
393.891362
 30
0.0
 40
4.0
  1
4-11
 50
45.0
 41
0.818182
  7
FX_VECTOR
 72
     5
 11
331.20309
 21
402.376643
 31
0.0
100
AcDbText
  0
LINE
  5
301
330
2FD
100
AcDbEntity
  8
GR1-1
  6
CONTINUOUS
 62
     7
100
AcDbLine
 10
341.532769
 20
375.783537
 30
0.0
 11
323.071402
 21
394.244904
 31
0.0
  0
LINE
  5
302
330
2FD
100
AcDbEntity
  8
GR1-1
  6
CONTINUOUS
 62
     7
100
AcDbLine
 10
349.310944
 20
383.561711
 30
0.0
 11
330.849576
 21
402.023079
 31
0.0
  0
LINE
  5
303
330
2FD
100
AcDbEntity
  8
GR1-1
  6
CONTINUOUS
 62
     7
100
AcDbLine
 10
323.778509
 20
393.537797
 30
0.0
 11
331.556683
 21
401.315972
 31
0.0
  0
INSERT
  5
304
330
2FD
100
AcDbEntity
  8
GR1-1
  6
CONTINUOUS
 62
     7
100
AcDbBlockReference
  2
FXTIP_ARROW_S
 10
323.778509
 20
393.537797
 30
0.0
 41
4.0
 42
4.0
 50
225.0
  0
INSERT
  5
305
330
2FD
100
AcDbEntity
  8
GR1-1
  6
CONTINUOUS
 62
     7
100
AcDbBlockReference
  2
FXTIP_ARROW_E
 10
331.556683
 20
401.315972
 30
0.0
 41
4.0
 42
4.0
 50
45.0
  0
ENDBLK
  5
2FF
330
2FD
100
AcDbEntity
  8
0
100
AcDbBlockEnd
  0
BLOCK
  5
307
330
306
100
AcDbEntity
  8
0
100
AcDbBlockBegin
  2
BLKF036
 70
     0
 71
     0
 10
0.0
 20
0.0
 30
0.0
  3
BLKF036
  1

  0
LINE
  5
30A
330
306
100
AcDbEntity
  8
LAYERGROUP-1
  6
CONTINUOUS
 62
     3
100
AcDbLine
 10
140.027321
 20
144.16392
 30
0.0
 11
140.027321
 21
114.795517
 31
0.0
  0
LINE
  5
30B
330
306
100
AcDbEntity
  8
LAYERGROUP-1
  6
CONTINUOUS
 62
     3
100
AcDbLine
 10
137.527321
 20
129.295517
 30
0.0
 11
140.027321
 21
129.295517
 31
0.0
  0
LINE
  5
30C
330
306
100
AcDbEntity
  8
LAYERGROUP-1
  6
CONTINUOUS
 62
     3
100
AcDbLine
 10
137.027321
 20
114.795517
 30
0.0
 11
137.027321
 21
128.795517
 31
0.0
  0
LINE
  5
30D
330
306
100
AcDbEntity
  8
LAYERGROUP-1
  6
CONTINUOUS
 62
     3
100
AcDbLine
 10
137.027321
 20
128.795517
 30
0.0
 11
137.527321
 21
129.295517
 31
0.0
  0
ARC
  5
30E
330
306
100
AcDbEntity
  8
LAYERGROUP-1
  6
CONTINUOUS
 62
     3
100
AcDbCircle
 10
143.027321
 20
144.16392
 30
0.0
 40
3.0
100
AcDbArc
 50
132.088291
 51
180.0
  0
LINE
  5
30F
330
306
100
AcDbEntity
  8
LAYERGROUP-1
  6
CONTINUOUS
 62
     3
100
AcDbLine
 10
145.027321
 20
150.829123
 30
0.0
 11
141.016496
 21
146.390258
 31
0.0
  0
LINE
  5
310
330
306
100
AcDbEntity
  8
GR1-1
  6
CONTINUOUS
 62
     3
100
AcDbLine
 10
173.810442
 20
179.795517
 30
0.0
 11
152.244199
 21
179.795517
 31
0.0
  0
ARC
  5
311
330
306
100
AcDbEntity
  8
GR1-1
  6
CONTINUOUS
 62
     3
100
AcDbCircle
 10
152.244199
 20
177.795517
 30
0.0
 40
2.0
100
AcDbArc
 50
90.0
 51
150.0
  0
LINE
  5
312
330
306
100
AcDbEntity
  8
GR1-1
  6
CONTINUOUS
 62
     3
100
AcDbLine
 10
150.512148
 20
178.795517
 30
0.0
 11
145.027321
 21
169.295517
 31
0.0
  0
LINE
  5
313
330
306
100
AcDbEntity
  8
LAYERGROUP-1
  6
CONTINUOUS
 62
     3
100
AcDbLine
 10
145.027321
 20
114.795517
 30
0.0
 11
145.027321
 21
169.295517
 31
0.0
  0
LINE
  5
314
330
306
100
AcDbEntity
  8
LAYERGROUP-1
  6
CONTINUOUS
 62
     6
100
AcDbLine
 10
137.527321
 20
129.295517
 30
0.0
 11
137.527321
 21
114.795517
 31
0.0
  0
LINE
  5
315
330
306
100
AcDbEntity
  8
GR1-1
  6
CONTINUOUS
 62
     6
100
AcDbLine
 10
150.758934
 20
179.134915
 30
0.0
 11
150.758934
 21
114.795517
 31
0.0
  0
LINE
  5
316
330
306
100
AcDbEntity
  8
LAYERGROUP-1
  6
CONTINUOUS
 62
     3
100
AcDbLine
 10
186.027321
 20
144.16392
 30
0.0
 11
186.027321
 21
114.795517
 31
0.0
  0
LINE
  5
317
330
306
100
AcDbEntity
  8
LAYERGROUP-1
  6
CONTINUOUS
 62
     3
100
AcDbLine
 10
188.527321
 20
129.295517
 30
0.0
 11
186.027321
 21
129.295517
 31
0.0
  0
LINE
  5
318
330
306
100
AcDbEntity
  8
LAYERGROUP-1
  6
CONTINUOUS
 62
     3
100
AcDbLine
 10
189.027321
 20
114.795517
 30
0.0
 11
189.027321
 21
128.795517
 31
0.0
  0
LINE
  5
319
330
306
100
AcDbEntity
  8
LAYERGROUP-1
  6
CONTINUOUS
 62
     3
100
AcDbLine
 10
189.027321
 20
128.795517
 30
0.0
 11
188.527321
 21
129.295517
 31
0.0
  0
ARC
  5
31A
330
306
100
AcDbEntity
  8
LAYERGROUP-1
  6
CONTINUOUS
 62
     3
100
AcDbCircle
 10
183.027321
 20
144.16392
 30
0.0
 40
3.0
100
AcDbArc
 50
0.0
 51
47.911709
  0
LINE
  5
31B
330
306
100
AcDbEntity
  8
LAYERGROUP-1
  6
CONTINUOUS
 62
     3
100
AcDbLine
 10
181.027321
 20
150.829123
 30
0.0
 11
185.038146
 21
146.390258
 31
0.0
  0
ARC
  5
31C
330
306
100
AcDbEntity
  8
GR1-1
  6
CONTINUOUS
 62
     3
100
AcDbCircle
 10
173.810442
 20
177.795517
 30
0.0
 40
2.0
100
AcDbArc
 50
30.0
 51
90.0
  0
LINE
  5
31D
330
306
100
AcDbEntity
  8
GR1-1
  6
CONTINUOUS
 62
     3
100
AcDbLine
 10
175.542493
 20
178.795517
 30
0.0
 11
181.027321
 21
169.295517
 31
0.0
  0
LINE
  5
31E
330
306
100
AcDbEntity
  8
LAYERGROUP-1
  6
CONTINUOUS
 62
     3
100
AcDbLine
 10
181.027321
 20
114.795517
 30
0.0
 11
181.027321
 21
169.295517
 31
0.0
  0
LINE
  5
31F
330
306
100
AcDbEntity
  8
LAYERGROUP-1
  6
CONTINUOUS
 62
     6
100
AcDbLine
 10
188.527321
 20
129.295517
 30
0.0
 11
188.527321
 21
114.795517
 31
0.0
  0
LINE
  5
320
330
306
100
AcDbEntity
  8
GR1-1
  6
CONTINUOUS
 62
     6
100
AcDbLine
 10
175.295708
 20
179.134915
 30
0.0
 11
175.295708
 21
114.795517
 31
0.0
  0
LINE
  5
321
330
306
100
AcDbEntity
  8
LAYERGROUP-1
  6
CONTINUOUS
 62
     3
100
AcDbLine
 10
140.027321
 20
85.427115
 30
0.0
 11
140.027321
 21
114.795517
 31
0.0
  0
LINE
  5
322
330
306
100
AcDbEntity
  8
LAYERGROUP-1
  6
CONTINUOUS
 62
     3
100
AcDbLine
 10
137.527321
 20
100.295517
 30
0.0
 11
140.027321
 21
100.295517
 31
0.0
  0
LINE
  5
323
330
306
100
AcDbEntity
  8
LAYERGROUP-1
  6
CONTINUOUS
 62
     3
100
AcDbLine
 10
137.027321
 20
114.795517
 30
0.0
 11
137.027321
 21
100.795517
 31
0.0
  0
LINE
  5
324
330
306
100
AcDbEntity
  8
LAYERGROUP-1
  6
CONTINUOUS
 62
     3
100
AcDbLine
 10
137.027321
 20
100.795517
 30
0.0
 11
137.527321
 21
100.295517
 31
0.0
  0
ARC
  5
325
330
306
100
AcDbEntity
  8
LAYERGROUP-1
  6
CONTINUOUS
 62
     3
100
AcDbCircle
 10
143.027321
 20
85.427115
 30
0.0
 40
3.0
100
AcDbArc
 50
180.0
 51
227.911709
  0
LINE
  5
326
330
306
100
AcDbEntity
  8
LAYERGROUP-1
  6
CONTINUOUS
 62
     3
100
AcDbLine
 10
145.027321
 20
78.761911
 30
0.0
 11
141.016496
 21
83.200776
 31
0.0
  0
LINE
  5
327
330
306
100
AcDbEntity
  8
GR1-1
  6
CONTINUOUS
 62
     3
100
AcDbLine
 10
173.810442
 20
49.795517
 30
0.0
 11
152.244199
 21
49.795517
 31
0.0
  0
ARC
  5
328
330
306
100
AcDbEntity
  8
GR1-1
  6
CONTINUOUS
 62
     3
100
AcDbCircle
 10
152.244199
 20
51.795517
 30
0.0
 40
2.0
100
AcDbArc
 50
210.0
 51
270.0
  0
LINE
  5
329
330
306
100
AcDbEntity
  8
GR1-1
  6
CONTINUOUS
 62
     3
100
AcDbLine
 10
150.512148
 20
50.795517
 30
0.0
 11
145.027321
 21
60.295517
 31
0.0
  0
LINE
  5
32A
330
306
100
AcDbEntity
  8
LAYERGROUP-1
  6
CONTINUOUS
 62
     3
100
AcDbLine
 10
145.027321
 20
114.795517
 30
0.0
 11
145.027321
 21
60.295517
 31
0.0
  0
LINE
  5
32B
330
306
100
AcDbEntity
  8
LAYERGROUP-1
  6
CONTINUOUS
 62
     6
100
AcDbLine
 10
137.527321
 20
100.295517
 30
0.0
 11
137.527321
 21
114.795517
 31
0.0
  0
LINE
  5
32C
330
306
100
AcDbEntity
  8
GR1-1
  6
CONTINUOUS
 62
     6
100
AcDbLine
 10
150.758934
 20
50.456119
 30
0.0
 11
150.758934
 21
114.795517
 31
0.0
  0
LINE
  5
32D
330
306
100
AcDbEntity
  8
LAYERGROUP-1
  6
CONTINUOUS
 62
     3
100
AcDbLine
 10
186.027321
 20
85.427115
 30
0.0
 11
186.027321
 21
114.795517
 31
0.0
  0
LINE
  5
32E
330
306
100
AcDbEntity
  8
LAYERGROUP-1
  6
CONTINUOUS
 62
     3
100
AcDbLine
 10
188.527321
 20
100.295517
 30
0.0
 11
186.027321
 21
100.295517
 31
0.0
  0
LINE
  5
32F
330
306
100
AcDbEntity
  8
LAYERGROUP-1
  6
CONTINUOUS
 62
     3
100
AcDbLine
 10
189.027321
 20
114.795517
 30
0.0
 11
189.027321
 21
100.795517
 31
0.0
  0
LINE
  5
330
330
306
100
AcDbEntity
  8
LAYERGROUP-1
  6
CONTINUOUS
 62
     3
100
AcDbLine
 10
189.027321
 20
100.795517
 30
0.0
 11
188.527321
 21
100.295517
 31
0.0
  0
ARC
  5
331
330
306
100
AcDbEntity
  8
LAYERGROUP-1
  6
CONTINUOUS
 62
     3
100
AcDbCircle
 10
183.027321
 20
85.427115
 30
0.0
 40
3.0
100
AcDbArc
 50
312.088291
 51
360.0
  0
LINE
  5
332
330
306
100
AcDbEntity
  8
LAYERGROUP-1
  6
CONTINUOUS
 62
     3
100
AcDbLine
 10
181.027321
 20
78.761911
 30
0.0
 11
185.038146
 21
83.200776
 31
0.0
  0
ARC
  5
333
330
306
100
AcDbEntity
  8
GR1-1
  6
CONTINUOUS
 62
     3
100
AcDbCircle
 10
173.810442
 20
51.795517
 30
0.0
 40
2.0
100
AcDbArc
 50
270.0
 51
330.0
  0
LINE
  5
334
330
306
100
AcDbEntity
  8
GR1-1
  6
CONTINUOUS
 62
     3
100
AcDbLine
 10
175.542493
 20
50.795517
 30
0.0
 11
181.027321
 21
60.295517
 31
0.0
  0
LINE
  5
335
330
306
100
AcDbEntity
  8
LAYERGROUP-1
  6
CONTINUOUS
 62
     3
100
AcDbLine
 10
181.027321
 20
114.795517
 30
0.0
 11
181.027321
 21
60.295517
 31
0.0
  0
LINE
  5
336
330
306
100
AcDbEntity
  8
LAYERGROUP-1
  6
CONTINUOUS
 62
     6
100
AcDbLine
 10
188.527321
 20
100.295517
 30
0.0
 11
188.527321
 21
114.795517
 31
0.0
  0
LINE
  5
337
330
306
100
AcDbEntity
  8
GR1-1
  6
CONTINUOUS
 62
     6
100
AcDbLine
 10
175.295708
 20
50.456119
 30
0.0
 11
175.295708
 21
114.795517
 31
0.0
  0
ENDBLK
  5
308
330
306
100
AcDbEntity
  8
0
100
AcDbBlockEnd
  0
BLOCK
  5
33A
330
339
100
AcDbEntity
  8
0
100
AcDbBlockBegin
  2
*D35
 70
     1
 71
     0
 10
0.0
 20
0.0
 30
0.0
  3
*D35
  1

  0
TEXT
  5
33C
330
339
100
AcDbEntity
  8
LAYERGROUP-1
  6
CONTINUOUS
 62
     7
100
AcDbText
 10
160.027328
 20
39.425751
 30
0.0
 40
4.0
  1
36
 41
0.851351
  7
FX_VECTOR
 72
     5
 11
166.027328
 21
39.425751
 31
0.0
100
AcDbText
  0
LINE
  5
33D
330
339
100
AcDbEntity
  8
LAYERGROUP-1
  6
CONTINUOUS
 62
     7
100
AcDbLine
 10
145.027321
 20
38.425733
 30
0.0
 11
181.027321
 21
38.425733
 31
0.0
  0
INSERT
  5
33E
330
339
100
AcDbEntity
  8
LAYERGROUP-1
  6
CONTINUOUS
 62
     7
100
AcDbBlockReference
  2
FXTIP_ARROW_S
 10
145.027321
 20
38.425733
 30
0.0
 41
4.0
 42
4.0
 50
180.0
  0
INSERT
  5
33F
330
339
100
AcDbEntity
  8
LAYERGROUP-1
  6
CONTINUOUS
 62
     7
100
AcDbBlockReference
  2
FXTIP_ARROW_E
 10
181.027321
 20
38.425733
 30
0.0
 41
4.0
 42
4.0
 50
360.0
  0
LINE
  5
340
330
339
100
AcDbEntity
  8
LAYERGROUP-1
  6
CONTINUOUS
 62
     7
100
AcDbLine
 10
145.027321
 20
62.295517
 30
0.0
 11
145.027321
 21
37.425733
 31
0.0
  0
LINE
  5
341
330
339
100
AcDbEntity
  8
LAYERGROUP-1
  6
CONTINUOUS
 62
     7
100
AcDbLine
 10
181.027321
 20
62.295517
 30
0.0
 11
181.027321
 21
37.425733
 31
0.0
  0
ENDBLK
  5
33B
330
339
100
AcDbEntity
  8
0
100
AcDbBlockEnd
  0
BLOCK
  5
344
330
343
100
AcDbEntity
  8
0
100
AcDbBlockBegin
  2
*D36
 70
     1
 71
     0
 10
0.0
 20
0.0
 30
0.0
  3
*D36
  1

  0
TEXT
  5
346
330
343
100
AcDbEntity
  8
LAYERGROUP-1
  6
CONTINUOUS
 62
     7
100
AcDbText
 10
160.027328
 20
25.4245
 30
0.0
 40
4.0
  1
52
 41
0.851351
  7
FX_VECTOR
 72
     5
 11
166.027328
 21
25.4245
 31
0.0
100
AcDbText
  0
LINE
  5
347
330
343
100
AcDbEntity
  8
LAYERGROUP-1
  6
CONTINUOUS
 62
     7
100
AcDbLine
 10
137.027321
 20
24.424463
 30
0.0
 11
189.027321
 21
24.424463
 31
0.0
  0
INSERT
  5
348
330
343
100
AcDbEntity
  8
LAYERGROUP-1
  6
CONTINUOUS
 62
     7
100
AcDbBlockReference
  2
FXTIP_ARROW_S
 10
137.027321
 20
24.424463
 30
0.0
 41
4.0
 42
4.0
 50
180.0
  0
INSERT
  5
349
330
343
100
AcDbEntity
  8
LAYERGROUP-1
  6
CONTINUOUS
 62
     7
100
AcDbBlockReference
  2
FXTIP_ARROW_E
 10
189.027321
 20
24.424463
 30
0.0
 41
4.0
 42
4.0
 50
360.0
  0
LINE
  5
34A
330
343
100
AcDbEntity
  8
LAYERGROUP-1
  6
CONTINUOUS
 62
     7
100
AcDbLine
 10
137.027321
 20
99.795517
 30
0.0
 11
137.027321
 21
23.424463
 31
0.0
  0
LINE
  5
34B
330
343
100
AcDbEntity
  8
LAYERGROUP-1
  6
CONTINUOUS
 62
     7
100
AcDbLine
 10
189.027321
 20
99.795517
 30
0.0
 11
189.027321
 21
23.424463
 31
0.0
  0
ENDBLK
  5
345
330
343
100
AcDbEntity
  8
0
100
AcDbBlockEnd
  0
ENDSEC
  0
SECTION
  2
ENTITIES
  0
INSERT
  5
AB
330
1F
100
AcDbEntity
  8
0
100
AcDbBlockReference
  2
BLKF021
 10
0.0
 20
0.0
 30
0.0
  0
TEXT
  5
D7
330
1F
100
AcDbEntity
  8
}}ﾊﾊGG血CCТ
  6
CONTINUOUS
 62
     7
100
AcDbText
 10
329.0
 20
12.0
 30
0.0
 40
6.0
  1
ＷＪ－１３０　ＵＢ　Ｓ
 41
0.789744
  7
FX_VECTOR
 72
     5
 11
373.0
 21
12.0
 31
0.0
100
AcDbText
  0
TEXT
  5
D8
330
1F
100
AcDbEntity
  8
}}ﾊﾊGG血CCТ
  6
CONTINUOUS
 62
     7
100
AcDbText
 10
428.999969
 20
12.0
 30
0.0
 40
6.0
  1
W36A1BEA-C01
 41
0.705882
  7
FX_VECTOR
 72
     5
 11
476.999969
 21
12.0
 31
0.0
100
AcDbText
  0
DIMENSION
  5
D9
330
1F
100
AcDbEntity
  8
GR1-1
100
AcDbDimension
  2
*D22
 10
387.128963
 20
39.784858
 30
0.0
 11
367.128967
 21
40.784851
 31
0.0
 70
    32
  3
FXDIMINFO
100
AcDbAlignedDimension
 13
347.128963
 23
47.478021
 33
0.0
 14
387.128963
 24
140.97954
 34
0.0
 50
180.0
100
AcDbRotatedDimension
1001
ACAD
1000
DSTYLE
1002
{
1070
     7
1000
FXTIP_ARROW_E
1070
     6
1000
FXTIP_ARROW_S
1070
   173
1070
     1
1002
}
  0
DIMENSION
  5
E3
330
1F
100
AcDbEntity
  8
GR1-1
100
AcDbDimension
  2
*D23
 10
467.063977
 20
49.795517
 30
0.0
 11
466.063965
 21
138.29303
 31
0.0
 70
    32
  3
FXDIMINFO
100
AcDbAlignedDimension
 13
440.600503
 23
226.790517
 33
0.0
 14
347.128963
 24
49.795517
 34
0.0
 50
90.0
100
AcDbRotatedDimension
1001
ACAD
1000
DSTYLE
1002
{
1070
     7
1000
FXTIP_ARROW_E
1070
     6
1000
FXTIP_ARROW_S
1070
   173
1070
     1
1002
}
  0
DIMENSION
  5
ED
330
1F
100
AcDbEntity
  8
GR1-1
100
AcDbDimension
  2
*D24
 10
457.063977
 20
226.790517
 30
0.0
 11
456.063965
 21
170.79303
 31
0.0
 70
    33
  3
FXDIMINFO
100
AcDbAlignedDimension
 13
416.822816
 23
114.795517
 33
0.0
 14
416.822816
 24
226.790517
 34
0.0
1001
ACAD
1000
DSTYLE
1002
{
1070
     7
1000
FXTIP_ARROW_E
1070
     6
1000
FXTIP_ARROW_S
1070
   173
1070
     1
1002
}
  0
LINE
  5
F6
330
1F
100
AcDbEntity
  8
GR1-1
  6
CONTINUOUS
 62
     3
100
AcDbLine
 10
189.527321
 20
94.765517
 30
0.0
 11
189.527321
 21
193.924028
 31
0.0
  0
LINE
  5
F7
330
1F
100
AcDbEntity
  8
GR1-1
  6
CONTINUOUS
 62
     3
100
AcDbLine
 10
192.727321
 20
198.365517
 30
0.0
 11
192.727321
 21
94.765517
 31
0.0
  0
LINE
  5
F8
330
1F
100
AcDbEntity
  8
GR1-1
  6
CONTINUOUS
 62
     3
100
AcDbLine
 10
192.727321
 20
94.765517
 30
0.0
 11
189.527321
 21
94.765517
 31
0.0
  0
ARC
  5
F9
330
1F
100
AcDbEntity
  8
GR1-1
  6
CONTINUOUS
 62
     3
100
AcDbCircle
 10
191.277321
 20
200.465517
 30
0.0
 40
6.5
100
AcDbArc
 50
0.0
 51
90.0
  0
LINE
  5
FA
330
1F
100
AcDbEntity
  8
GR1-1
  6
CONTINUOUS
 62
     3
100
AcDbLine
 10
188.727321
 20
202.365517
 30
0.0
 11
137.327321
 21
202.365517
 31
0.0
  0
ARC
  5
FB
330
1F
100
AcDbEntity
  8
GR1-1
  6
CONTINUOUS
 62
     3
100
AcDbCircle
 10
137.327321
 20
198.365517
 30
0.0
 40
4.0
100
AcDbArc
 50
90.0
 51
180.0
  0
LINE
  5
FC
330
1F
100
AcDbEntity
  8
GR1-1
  6
CONTINUOUS
 62
     3
100
AcDbLine
 10
133.327321
 20
198.365517
 30
0.0
 11
133.327321
 21
94.765517
 31
0.0
  0
LINE
  5
FD
330
1F
100
AcDbEntity
  8
GR1-1
  6
CONTINUOUS
 62
     3
100
AcDbLine
 10
133.327321
 20
94.765517
 30
0.0
 11
136.527321
 21
94.765517
 31
0.0
  0
LINE
  5
FE
330
1F
100
AcDbEntity
  8
GR1-1
  6
CONTINUOUS
 62
     3
100
AcDbLine
 10
136.527321
 20
94.765517
 30
0.0
 11
136.527321
 21
193.924028
 31
0.0
  0
ARC
  5
FF
330
1F
100
AcDbEntity
  8
GR1-1
  6
CONTINUOUS
 62
     3
100
AcDbCircle
 10
150.294692
 20
358.726322
 30
0.0
 40
165.3763488064616
100
AcDbArc
 50
264.668176
 51
269.214429
  0
ARC
  5
100
330
1F
100
AcDbEntity
  8
GR1-1
  6
CONTINUOUS
 62
     3
100
AcDbCircle
 10
175.75995
 20
358.726322
 30
0.0
 40
165.3763488064616
100
AcDbArc
 50
270.785571
 51
275.331824
  0
ARC
  5
101
330
1F
100
AcDbEntity
  8
GR1-1
  6
CONTINUOUS
 62
     3
100
AcDbCircle
 10
188.727321
 20
198.365517
 30
0.0
 40
4.0
100
AcDbArc
 50
0.0
 51
90.0
  0
LINE
  5
102
330
1F
100
AcDbEntity
  8
GR1-1
  6
CONTINUOUS
 62
     3
100
AcDbLine
 10
198.583738
 20
206.965517
 30
0.0
 11
127.470904
 21
206.965517
 31
0.0
  0
ARC
  5
103
330
1F
100
AcDbEntity
  8
GR1-1
  6
CONTINUOUS
 62
     3
100
AcDbCircle
 10
127.470904
 20
210.965517
 30
0.0
 40
4.0
100
AcDbArc
 50
185.225927
 51
270.0
  0
LINE
  5
104
330
1F
100
AcDbEntity
  8
GR1-1
  6
CONTINUOUS
 62
     3
100
AcDbLine
 10
123.487531
 20
210.601184
 30
0.0
 11
122.827321
 21
217.965517
 31
0.0
  0
LINE
  5
105
330
1F
100
AcDbEntity
  8
GR1-1
  6
CONTINUOUS
 62
     3
100
AcDbLine
 10
122.827321
 20
217.965517
 30
0.0
 11
203.227321
 21
217.965517
 31
0.0
  0
LINE
  5
106
330
1F
100
AcDbEntity
  8
GR1-1
  6
CONTINUOUS
 62
     3
100
AcDbLine
 10
203.227321
 20
217.965517
 30
0.0
 11
202.567111
 21
210.601184
 31
0.0
  0
ARC
  5
107
330
1F
100
AcDbEntity
  8
GR1-1
  6
CONTINUOUS
 62
     3
100
AcDbCircle
 10
198.583738
 20
210.965517
 30
0.0
 40
4.0
100
AcDbArc
 50
270.0
 51
354.774073
  0
LINE
  5
108
330
1F
100
AcDbEntity
  8
GR1-1
  6
CONTINUOUS
 62
     3
100
AcDbLine
 10
199.956784
 20
219.290517
 30
0.0
 11
126.097858
 21
219.290517
 31
0.0
  0
ARC
  5
109
330
1F
100
AcDbEntity
  8
GR1-1
  6
CONTINUOUS
 62
     3
100
AcDbCircle
 10
126.097858
 20
231.290517
 30
0.0
 40
12.0
100
AcDbArc
 50
225.099472
 51
270.0
  0
ARC
  5
10A
330
1F
100
AcDbEntity
  8
GR1-1
  6
CONTINUOUS
 62
     3
100
AcDbCircle
 10
134.777321
 20
200.465517
 30
0.0
 40
6.5
100
AcDbArc
 50
90.0
 51
180.0
  0
LINE
  5
10B
330
1F
100
AcDbEntity
  8
GR1-1
  6
CONTINUOUS
 62
     3
100
AcDbLine
 10
128.277321
 20
200.465517
 30
0.0
 11
128.277321
 21
143.8146
 31
0.0
  0
ARC
  5
10C
330
1F
100
AcDbEntity
  8
GR1-1
  6
CONTINUOUS
 62
     3
100
AcDbCircle
 10
212.297271
 20
153.394299
 30
0.0
 40
84.56431096900946
100
AcDbArc
 50
186.504602
 51
195.020702
  0
LINE
  5
10D
330
1F
100
AcDbEntity
  8
GR1-1
  6
CONTINUOUS
 62
     3
100
AcDbLine
 10
128.84484
 20
127.497223
 30
0.0
 11
122.809801
 21
127.497223
 31
0.0
  0
LINE
  5
10E
330
1F
100
AcDbEntity
  8
GR1-1
  6
CONTINUOUS
 62
     3
100
AcDbLine
 10
122.809801
 20
127.497223
 30
0.0
 11
121.827321
 21
125.795517
 31
0.0
  0
LINE
  5
10F
330
1F
100
AcDbEntity
  8
GR1-1
  6
CONTINUOUS
 62
     3
100
AcDbLine
 10
121.827321
 20
125.795517
 30
0.0
 11
121.827321
 21
103.795517
 31
0.0
  0
LINE
  5
110
330
1F
100
AcDbEntity
  8
GR1-1
  6
CONTINUOUS
 62
     3
100
AcDbLine
 10
121.827321
 20
103.795517
 30
0.0
 11
122.809801
 21
102.093811
 31
0.0
  0
LINE
  5
111
330
1F
100
AcDbEntity
  8
GR1-1
  6
CONTINUOUS
 62
     3
100
AcDbLine
 10
122.809801
 20
102.093811
 30
0.0
 11
128.84484
 21
102.093811
 31
0.0
  0
LINE
  5
112
330
1F
100
AcDbEntity
  8
GR1-1
  6
CONTINUOUS
 62
     3
100
AcDbLine
 10
128.84484
 20
102.093811
 30
0.0
 11
129.827321
 21
103.795517
 31
0.0
  0
ARC
  5
113
330
1F
100
AcDbEntity
  8
GR1-1
  6
CONTINUOUS
 62
     3
100
AcDbCircle
 10
130.327321
 20
103.295517
 30
0.0
 40
0.5
100
AcDbArc
 50
180.0
 51
270.0
  0
LINE
  5
114
330
1F
100
AcDbEntity
  8
GR1-1
  6
CONTINUOUS
 62
     3
100
AcDbLine
 10
130.327321
 20
102.795517
 30
0.0
 11
132.827321
 21
102.795517
 31
0.0
  0
ARC
  5
115
330
1F
100
AcDbEntity
  8
GR1-1
  6
CONTINUOUS
 62
     3
100
AcDbCircle
 10
132.827321
 20
103.295517
 30
0.0
 40
0.5
100
AcDbArc
 50
270.0
 51
360.0
  0
LINE
  5
116
330
1F
100
AcDbEntity
  8
GR1-1
  6
CONTINUOUS
 62
     3
100
AcDbLine
 10
129.827321
 20
103.295517
 30
0.0
 11
129.827321
 21
126.295517
 31
0.0
  0
LINE
  5
117
330
1F
100
AcDbEntity
  8
GR1-1
  6
CONTINUOUS
 62
     3
100
AcDbLine
 10
129.827321
 20
125.795517
 30
0.0
 11
128.84484
 21
127.497223
 31
0.0
  0
LINE
  5
118
330
1F
100
AcDbEntity
  8
GR1-1
  6
CONTINUOUS
 62
     3
100
AcDbLine
 10
130.327321
 20
126.795517
 30
0.0
 11
132.827321
 21
126.795517
 31
0.0
  0
ARC
  5
119
330
1F
100
AcDbEntity
  8
GR1-1
  6
CONTINUOUS
 62
     3
100
AcDbCircle
 10
132.827321
 20
126.295517
 30
0.0
 40
0.5
100
AcDbArc
 50
0.0
 51
90.0
  0
ARC
  5
11A
330
1F
100
AcDbEntity
  8
GR1-1
  6
CONTINUOUS
 62
     3
100
AcDbCircle
 10
37.922824
 20
106.068498
 30
0.0
 40
96.11887608963927
100
AcDbArc
 50
12.453044
 51
15.328587
  0
ARC
  5
11B
330
1F
100
AcDbEntity
  8
GR1-1
  6
CONTINUOUS
 62
     3
100
AcDbCircle
 10
130.327321
 20
126.295517
 30
0.0
 40
0.5
100
AcDbArc
 50
90.0
 51
180.0
  0
ARC
  5
11C
330
1F
100
AcDbEntity
  8
GR1-1
  6
CONTINUOUS
 62
     3
100
AcDbCircle
 10
124.204511
 20
124.321797
 30
0.0
 40
5.622810046529507
100
AcDbArc
 50
-34.384247
 51
34.384247
  0
ARC
  5
11D
330
1F
100
AcDbEntity
  8
GR1-1
  6
CONTINUOUS
 62
     3
100
AcDbCircle
 10
127.450131
 20
124.321797
 30
0.0
 40
5.622810046529507
100
AcDbArc
 50
145.615753
 51
214.384247
  0
ARC
  5
11E
330
1F
100
AcDbEntity
  8
GR1-1
  6
CONTINUOUS
 62
     3
100
AcDbCircle
 10
142.84484
 20
114.795517
 30
0.0
 40
21.01751962775467
100
AcDbArc
 50
162.412046
 51
197.587954
  0
LINE
  5
11F
330
1F
100
AcDbEntity
  8
GR1-1
  6
CONTINUOUS
 62
     3
100
AcDbLine
 10
122.809801
 20
108.444664
 30
0.0
 11
128.84484
 21
108.444664
 31
0.0
  0
ARC
  5
120
330
1F
100
AcDbEntity
  8
GR1-1
  6
CONTINUOUS
 62
     3
100
AcDbCircle
 10
108.809801
 20
114.795517
 30
0.0
 40
21.01751962775467
100
AcDbArc
 50
-17.587954
 51
17.587954
  0
LINE
  5
121
330
1F
100
AcDbEntity
  8
GR1-1
  6
CONTINUOUS
 62
     3
100
AcDbLine
 10
128.84484
 20
121.14637
 30
0.0
 11
122.809801
 21
121.14637
 31
0.0
  0
ARC
  5
122
330
1F
100
AcDbEntity
  8
GR1-1
  6
CONTINUOUS
 62
     3
100
AcDbCircle
 10
127.450131
 20
105.269238
 30
0.0
 40
5.622810046529507
100
AcDbArc
 50
145.615753
 51
214.384247
  0
ARC
  5
123
330
1F
100
AcDbEntity
  8
GR1-1
  6
CONTINUOUS
 62
     3
100
AcDbCircle
 10
124.204511
 20
105.269238
 30
0.0
 40
5.622810046529507
100
AcDbArc
 50
-34.384247
 51
34.384247
  0
ARC
  5
124
330
1F
100
AcDbEntity
  8
GR1-1
  6
CONTINUOUS
 62
     3
100
AcDbCircle
 10
199.956784
 20
231.290517
 30
0.0
 40
12.0
100
AcDbArc
 50
270.0
 51
314.900528
  0
LINE
  5
125
330
1F
100
AcDbEntity
  8
GR1-1
  6
CONTINUOUS
 62
     3
100
AcDbLine
 10
355.034318
 20
206.088294
 30
0.0
 11
348.928963
 21
202.365517
 31
0.0
  0
LINE
  5
126
330
1F
100
AcDbEntity
  8
GR1-1
  6
CONTINUOUS
 62
     3
100
AcDbLine
 10
348.928963
 20
202.365517
 30
0.0
 11
338.128963
 21
202.365517
 31
0.0
  0
ARC
  5
127
330
1F
100
AcDbEntity
  8
GR1-1
  6
CONTINUOUS
 62
     3
100
AcDbCircle
 10
338.128963
 20
198.865517
 30
0.0
 40
3.5
100
AcDbArc
 50
90.0
 51
180.0
  0
LINE
  5
128
330
1F
100
AcDbEntity
  8
GR1-1
  6
CONTINUOUS
 62
     3
100
AcDbLine
 10
334.628963
 20
198.865517
 30
0.0
 11
334.628963
 21
193.365517
 31
0.0
  0
ARC
  5
129
330
1F
100
AcDbEntity
  8
GR1-1
  6
CONTINUOUS
 62
     3
100
AcDbCircle
 10
358.157962
 20
200.965517
 30
0.0
 40
6.0
100
AcDbArc
 50
90.0
 51
121.373005
  0
ARC
  5
12A
330
1F
100
AcDbEntity
  8
GR1-1
  6
CONTINUOUS
 62
     3
100
AcDbCircle
 10
470.872768
 20
141.437406
 30
0.0
 40
77.68741791516945
100
AcDbArc
 50
140.964085
 51
157.581063
  0
LINE
  5
12B
330
1F
100
AcDbEntity
  8
GR1-1
  6
CONTINUOUS
 62
     3
100
AcDbLine
 10
423.028963
 20
197.865517
 30
0.0
 11
423.028963
 21
200.465517
 31
0.0
  0
ARC
  5
12C
330
1F
100
AcDbEntity
  8
GR1-1
  6
CONTINUOUS
 62
     3
100
AcDbCircle
 10
416.528963
 20
200.465517
 30
0.0
 40
6.5
100
AcDbArc
 50
0.0
 51
90.0
  0
ARC
  5
12D
330
1F
100
AcDbEntity
  8
GR1-1
  6
CONTINUOUS
 62
     3
100
AcDbCircle
 10
422.68538
 20
210.965517
 30
0.0
 40
4.0
100
AcDbArc
 50
270.0
 51
354.774073
  0
LINE
  5
12E
330
1F
100
AcDbEntity
  8
GR1-1
  6
CONTINUOUS
 62
     3
100
AcDbLine
 10
426.668753
 20
210.601184
 30
0.0
 11
427.328963
 21
217.965517
 31
0.0
  0
LINE
  5
12F
330
1F
100
AcDbEntity
  8
GR1-1
  6
CONTINUOUS
 62
     3
100
AcDbLine
 10
427.328963
 20
217.965517
 30
0.0
 11
346.928963
 21
217.965517
 31
0.0
  0
LINE
  5
130
330
1F
100
AcDbEntity
  8
GR1-1
  6
CONTINUOUS
 62
     3
100
AcDbLine
 10
350.1995
 20
219.290517
 30
0.0
 11
424.058426
 21
219.290517
 31
0.0
  0
ARC
  5
131
330
1F
100
AcDbEntity
  8
GR1-1
  6
CONTINUOUS
 62
     3
100
AcDbCircle
 10
424.058426
 20
231.290517
 30
0.0
 40
12.0
100
AcDbArc
 50
270.0
 51
314.900528
  0
LINE
  5
132
330
1F
100
AcDbEntity
  8
GR1-1
  6
CONTINUOUS
 62
     3
100
AcDbLine
 10
441.128963
 20
226.790517
 30
0.0
 11
333.128963
 21
226.790517
 31
0.0
  0
LINE
  5
133
330
1F
100
AcDbEntity
  8
GR1-1
  6
CONTINUOUS
 62
     3
100
AcDbLine
 10
333.128963
 20
222.790517
 30
0.0
 11
441.128963
 21
222.790517
 31
0.0
  0
LINE
  5
134
330
1F
100
AcDbEntity
  8
GR1-1
  6
CONTINUOUS
 62
     3
100
AcDbLine
 10
422.68538
 20
206.965517
 30
0.0
 11
351.572547
 21
206.965517
 31
0.0
  0
ARC
  5
135
330
1F
100
AcDbEntity
  8
GR1-1
  6
CONTINUOUS
 62
     3
100
AcDbCircle
 10
440.755881
 20
154.153987
 30
0.0
 40
47.16928530260403
100
AcDbArc
 50
112.074685
 51
129.852828
  0
ARC
  5
136
330
1F
100
AcDbEntity
  8
GR1-1
  6
CONTINUOUS
 62
     3
100
AcDbCircle
 10
335.098685
 20
188.38763
 30
0.0
 40
5.0
100
AcDbArc
 50
-13.0
 51
95.390563
  0
LINE
  5
137
330
1F
100
AcDbEntity
  8
GR1-1
  6
CENTER
 62
     6
100
AcDbLine
 10
163.027321
 20
46.040933
 30
0.0
 11
163.027321
 21
231.866446
 31
0.0
  0
LINE
  5
138
330
1F
100
AcDbEntity
  8
GR1-1
  6
CENTER
 62
     6
100
AcDbLine
 10
230.005529
 20
114.795517
 30
0.0
 11
114.442406
 21
114.795517
 31
0.0
  0
LINE
  5
139
330
1F
100
AcDbEntity
  8
GR1-1
  6
CENTER
 62
     6
100
AcDbLine
 10
277.754101
 20
114.795517
 30
0.0
 11
416.822816
 21
114.795517
 31
0.0
  0
LINE
  5
13A
330
1F
100
AcDbEntity
  8
GR1-1
  6
CENTER
 62
     6
100
AcDbLine
 10
387.128963
 20
140.97954
 30
0.0
 11
387.128963
 21
230.94858
 31
0.0
  0
LINE
  5
13B
330
1F
100
AcDbEntity
  8
GR1-1
  6
CONTINUOUS
 62
     6
100
AcDbLine
 10
370.028963
 20
202.211789
 30
0.0
 11
370.028963
 21
124.134991
 31
0.0
  0
LINE
  5
13C
330
1F
100
AcDbEntity
  8
GR1-1
  6
CENTER
 62
     6
100
AcDbLine
 10
347.128963
 20
135.653504
 30
0.0
 11
347.128963
 21
47.478021
 31
0.0
  0
LINE
  5
13D
330
1F
100
AcDbEntity
  8
GR1-1
  6
CENTER
 62
     6
100
AcDbLine
 10
278.80079
 20
337.965517
 30
0.0
 11
446.08562
 21
337.965517
 31
0.0
  0
LINE
  5
13E
330
1F
100
AcDbEntity
  8
GR1-1
  6
CONTINUOUS
 62
     3
100
AcDbLine
 10
333.128963
 20
305.065517
 30
0.0
 11
301.865221
 21
305.065517
 31
0.0
  0
ARC
  5
13F
330
1F
100
AcDbEntity
  8
GR1-1
  6
CONTINUOUS
 62
     3
100
AcDbCircle
 10
303.783012
 20
301.454947
 30
0.0
 40
4.088293079563504
100
AcDbArc
 50
117.97546
 51
174.236307
  0
LINE
  5
140
330
1F
100
AcDbEntity
  8
GR1-1
  6
CONTINUOUS
 62
     3
100
AcDbLine
 10
299.715387
 20
301.865517
 30
0.0
 11
302.595893
 21
281.369652
 31
0.0
  0
ARC
  5
141
330
1F
100
AcDbEntity
  8
GR1-1
  6
CONTINUOUS
 62
     3
100
AcDbCircle
 10
307.547233
 20
282.065517
 30
0.0
 40
5.0
100
AcDbArc
 50
188.0
 51
270.0
  0
LINE
  5
142
330
1F
100
AcDbEntity
  8
GR1-1
  6
CONTINUOUS
 62
     3
100
AcDbLine
 10
307.547233
 20
277.065517
 30
0.0
 11
326.407035
 21
277.065517
 31
0.0
  0
ARC
  5
143
330
1F
100
AcDbEntity
  8
GR1-1
  6
CONTINUOUS
 62
     3
100
AcDbCircle
 10
326.407035
 20
282.065517
 30
0.0
 40
5.0
100
AcDbArc
 50
-90.0
 51
6.0
  0
LINE
  5
144
330
1F
100
AcDbEntity
  8
GR1-1
  6
CONTINUOUS
 62
     6
100
AcDbLine
 10
319.733493
 20
287.065517
 30
0.0
 11
319.397984
 21
287.065517
 31
0.0
  0
ARC
  5
145
330
1F
100
AcDbEntity
  8
GR1-1
  6
CONTINUOUS
 62
     3
100
AcDbCircle
 10
304.914282
 20
302.576315
 30
0.0
 40
3.936102064724309
100
AcDbArc
 50
140.772379
 51
190.403792
  0
LINE
  5
146
330
1F
100
AcDbEntity
  8
GR1-1
  6
CONTINUOUS
 62
     3
100
AcDbLine
 10
301.042891
 20
301.865517
 30
0.0
 11
303.923397
 21
281.369652
 31
0.0
  0
ARC
  5
147
330
1F
100
AcDbEntity
  8
GR1-1
  6
CONTINUOUS
 62
     3
100
AcDbCircle
 10
308.874738
 20
282.065517
 30
0.0
 40
5.0
100
AcDbArc
 50
188.0
 51
270.0
  0
LINE
  5
148
330
1F
100
AcDbEntity
  8
GR1-1
  6
CONTINUOUS
 62
     6
100
AcDbLine
 10
307.467173
 20
295.688887
 30
0.0
 11
307.467173
 21
282.442147
 31
0.0
  0
ARC
  5
149
330
1F
100
AcDbEntity
  8
GR1-1
  6
CONTINUOUS
 62
     6
100
AcDbCircle
 10
308.843807
 20
282.442147
 30
0.0
 40
1.376630000000034
100
AcDbArc
 50
180.0
 51
360.0
  0
LINE
  5
14A
330
1F
100
AcDbEntity
  8
GR1-1
  6
CONTINUOUS
 62
     6
100
AcDbLine
 10
310.220437
 20
282.442147
 30
0.0
 11
310.220437
 21
287.065517
 31
0.0
  0
LINE
  5
14B
330
1F
100
AcDbEntity
  8
GR1-1
  6
CONTINUOUS
 62
     6
100
AcDbLine
 10
310.220437
 20
287.065517
 30
0.0
 11
316.64472
 21
287.065517
 31
0.0
  0
LINE
  5
14C
330
1F
100
AcDbEntity
  8
GR1-1
  6
CONTINUOUS
 62
     6
100
AcDbLine
 10
316.64472
 20
287.065517
 30
0.0
 11
316.64472
 21
284.442147
 31
0.0
  0
ARC
  5
14D
330
1F
100
AcDbEntity
  8
GR1-1
  6
CONTINUOUS
 62
     6
100
AcDbCircle
 10
318.021354
 20
284.442147
 30
0.0
 40
1.376630000000034
100
AcDbArc
 50
180.0
 51
360.0
  0
LINE
  5
14E
330
1F
100
AcDbEntity
  8
GR1-1
  6
CONTINUOUS
 62
     6
100
AcDbLine
 10
319.397984
 20
284.442147
 30
0.0
 11
319.397984
 21
287.065517
 31
0.0
  0
ARC
  5
14F
330
1F
100
AcDbEntity
  8
GR1-1
  6
CONTINUOUS
 62
     6
100
AcDbCircle
 10
319.733493
 20
288.565517
 30
0.0
 40
1.499999999999972
100
AcDbArc
 50
-90.0
 51
90.0
  0
LINE
  5
150
330
1F
100
AcDbEntity
  8
GR1-1
  6
CONTINUOUS
 62
     6
100
AcDbLine
 10
319.733493
 20
290.065517
 30
0.0
 11
310.220437
 21
290.065517
 31
0.0
  0
LINE
  5
151
330
1F
100
AcDbEntity
  8
GR1-1
  6
CONTINUOUS
 62
     6
100
AcDbLine
 10
310.220437
 20
290.065517
 30
0.0
 11
310.220437
 21
292.065517
 31
0.0
  0
LINE
  5
152
330
1F
100
AcDbEntity
  8
GR1-1
  6
CONTINUOUS
 62
     6
100
AcDbLine
 10
310.220437
 20
292.065517
 30
0.0
 11
314.226965
 21
292.065517
 31
0.0
  0
ARC
  5
153
330
1F
100
AcDbEntity
  8
GR1-1
  6
CONTINUOUS
 62
     6
100
AcDbCircle
 10
314.226965
 20
293.565517
 30
0.0
 40
1.499999999999972
100
AcDbArc
 50
-90.0
 51
90.0
  0
LINE
  5
154
330
1F
100
AcDbEntity
  8
GR1-1
  6
CONTINUOUS
 62
     6
100
AcDbLine
 10
314.226965
 20
295.065517
 30
0.0
 11
310.220437
 21
295.065517
 31
0.0
  0
LINE
  5
155
330
1F
100
AcDbEntity
  8
GR1-1
  6
CONTINUOUS
 62
     6
100
AcDbLine
 10
310.220437
 20
295.065517
 30
0.0
 11
310.220437
 21
295.688887
 31
0.0
  0
ARC
  5
156
330
1F
100
AcDbEntity
  8
GR1-1
  6
CONTINUOUS
 62
     6
100
AcDbCircle
 10
308.843807
 20
295.688887
 30
0.0
 40
1.376630000000034
100
AcDbArc
 50
0.0
 51
180.0
  0
LINE
  5
157
330
1F
100
AcDbEntity
  8
GR1-1
  6
CONTINUOUS
 62
     3
100
AcDbLine
 10
339.999257
 20
187.387283
 30
0.0
 11
329.866116
 21
143.495826
 31
0.0
  0
LINE
  5
158
330
1F
100
AcDbEntity
  8
GR1-1
  6
CONTINUOUS
 62
     3
100
AcDbLine
 10
331.073812
 20
142.963184
 30
0.0
 11
333.415256
 21
153.978814
 31
0.0
  0
LINE
  5
159
330
1F
100
AcDbEntity
  8
GR1-1
  6
CONTINUOUS
 62
     3
100
AcDbLine
 10
338.678963
 20
155.31552
 30
0.0
 11
338.678963
 21
149.886235
 31
0.0
  0
ARC
  5
15A
330
1F
100
AcDbEntity
  8
GR1-1
  6
CONTINUOUS
 62
     3
100
AcDbCircle
 10
342.173054
 20
146.317308
 30
0.0
 40
5.0
100
AcDbArc
 50
-225.572996
 51
45.572996
  0
LINE
  5
15B
330
1F
100
AcDbEntity
  8
GR1-1
  6
CONTINUOUS
 62
     3
100
AcDbLine
 10
345.678963
 20
149.886235
 30
0.0
 11
345.678963
 21
155.31552
 31
0.0
  0
LINE
  5
15C
330
1F
100
AcDbEntity
  8
GR1-1
  6
CONTINUOUS
 62
     3
100
AcDbLine
 10
344.928963
 20
160.31552
 30
0.0
 11
341.240437
 21
160.31552
 31
0.0
  0
ARC
  5
15D
330
1F
100
AcDbEntity
  8
GR1-1
  6
CONTINUOUS
 62
     3
100
AcDbCircle
 10
341.240437
 20
152.31552
 30
0.0
 40
8.0
100
AcDbArc
 50
90.0
 51
168.0
  0
LINE
  5
15E
330
1F
100
AcDbEntity
  8
GR1-1
  6
CONTINUOUS
 62
     3
100
AcDbLine
 10
335.919675
 20
143.024591
 30
0.0
 11
335.297461
 21
141.955398
 31
0.0
  0
ARC
  5
15F
330
1F
100
AcDbEntity
  8
GR1-1
  6
CONTINUOUS
 62
     3
100
AcDbCircle
 10
337.159855
 20
142.180817
 30
0.0
 40
1.5
100
AcDbArc
 50
38.153877
 51
145.77
  0
LINE
  5
160
330
1F
100
AcDbEntity
  8
GR1-1
  6
CONTINUOUS
 62
     3
100
AcDbLine
 10
331.960097
 20
142.589679
 30
0.0
 11
301.042891
 21
155.968749
 31
0.0
  0
LINE
  5
161
330
1F
100
AcDbEntity
  8
GR1-1
  6
CONTINUOUS
 62
     3
100
AcDbLine
 10
301.042891
 20
155.968749
 30
0.0
 11
299.734974
 21
153.826037
 31
0.0
  0
ARC
  5
162
330
1F
100
AcDbEntity
  8
GR1-1
  6
CONTINUOUS
 62
     3
100
AcDbCircle
 10
349.02517
 20
145.431
 30
0.0
 40
50.0
100
AcDbArc
 50
170.334213
 51
229.875564
  0
LINE
  5
163
330
1F
100
AcDbEntity
  8
GR1-1
  6
CONTINUOUS
 62
     3
100
AcDbLine
 10
316.80268
 20
107.198668
 30
0.0
 11
320.265856
 21
108.555618
 31
0.0
  0
ARC
  5
164
330
1F
100
AcDbEntity
  8
GR1-1
  6
CONTINUOUS
 62
     3
100
AcDbCircle
 10
286.963943
 20
86.39749
 30
0.0
 40
40.0
100
AcDbArc
 50
23.905622
 51
33.638643
  0
ARC
  5
165
330
1F
100
AcDbEntity
  8
GR1-1
  6
CONTINUOUS
 62
     3
100
AcDbCircle
 10
335.417295
 20
107.874749
 30
0.0
 40
13.0
100
AcDbArc
 50
203.905622
 51
279.067825
  0
LINE
  5
166
330
1F
100
AcDbEntity
  8
GR1-1
  6
CONTINUOUS
 62
     3
100
AcDbLine
 10
340.728963
 20
91.31927
 30
0.0
 11
340.428963
 21
94.553421
 31
0.0
  0
LINE
  5
167
330
1F
100
AcDbEntity
  8
GR1-1
  6
CONTINUOUS
 62
     3
100
AcDbLine
 10
340.428963
 20
94.553421
 30
0.0
 11
340.428963
 21
95.394361
 31
0.0
  0
LINE
  5
168
330
1F
100
AcDbEntity
  8
GR1-1
  6
CONTINUOUS
 62
     3
100
AcDbLine
 10
352.128963
 20
91.31927
 30
0.0
 11
352.428963
 21
94.553421
 31
0.0
  0
ARC
  5
169
330
1F
100
AcDbEntity
  8
GR1-1
  6
CONTINUOUS
 62
     3
100
AcDbCircle
 10
346.428963
 20
71.31552
 30
0.0
 40
24.0
100
AcDbArc
 50
75.522488
 51
104.477512
  0
LINE
  5
16A
330
1F
100
AcDbEntity
  8
GR1-1
  6
CONTINUOUS
 62
     3
100
AcDbLine
 10
347.128963
 20
99.20706
 30
0.0
 11
360.628963
 21
107.001289
 31
0.0
  0
LINE
  5
16B
330
1F
100
AcDbEntity
  8
GR1-1
  6
CONTINUOUS
 62
     3
100
AcDbLine
 10
360.628963
 20
107.001289
 30
0.0
 11
360.628963
 21
122.589746
 31
0.0
  0
LINE
  5
16C
330
1F
100
AcDbEntity
  8
GR1-1
  6
CONTINUOUS
 62
     3
100
AcDbLine
 10
360.628963
 20
122.589746
 30
0.0
 11
347.128963
 21
130.383975
 31
0.0
  0
LINE
  5
16D
330
1F
100
AcDbEntity
  8
GR1-1
  6
CONTINUOUS
 62
     3
100
AcDbLine
 10
347.128963
 20
130.383975
 30
0.0
 11
333.628963
 21
122.589746
 31
0.0
  0
LINE
  5
16E
330
1F
100
AcDbEntity
  8
GR1-1
  6
CONTINUOUS
 62
     3
100
AcDbLine
 10
333.628963
 20
122.589746
 30
0.0
 11
333.628963
 21
107.001289
 31
0.0
  0
LINE
  5
16F
330
1F
100
AcDbEntity
  8
GR1-1
  6
CONTINUOUS
 62
     3
100
AcDbLine
 10
333.628963
 20
107.001289
 30
0.0
 11
347.128963
 21
99.20706
 31
0.0
  0
LINE
  5
170
330
1F
100
AcDbEntity
  8
GR1-1
  6
CONTINUOUS
 62
     3
100
AcDbLine
 10
352.421791
 20
94.590306
 30
0.0
 11
352.421777
 21
94.55154
 31
0.0
  0
ARC
  5
171
330
1F
100
AcDbEntity
  8
GR1-1
  6
CONTINUOUS
 62
     3
100
AcDbCircle
 10
343.770283
 20
55.537119
 30
0.0
 40
40.0
100
AcDbArc
 50
76.056515
 51
99.067825
  0
ARC
  5
172
330
1F
100
AcDbEntity
  8
GR1-1
  6
CONTINUOUS
 62
     3
100
AcDbCircle
 10
385.709271
 20
163.467004
 30
0.0
 40
80.0
100
AcDbArc
 50
246.220474
 51
288.014943
  0
LINE
  5
173
330
1F
100
AcDbEntity
  8
GR1-1
  6
CONTINUOUS
 62
     3
100
AcDbLine
 10
410.450473
 20
87.388933
 30
0.0
 11
411.554999
 21
88.782497
 31
0.0
  0
LINE
  5
174
330
1F
100
AcDbEntity
  8
GR1-1
  6
CONTINUOUS
 62
     3
100
AcDbLine
 10
411.554999
 20
88.782497
 30
0.0
 11
373.165075
 21
126.402256
 31
0.0
  0
LINE
  5
175
330
1F
100
AcDbEntity
  8
GR1-1
  6
CONTINUOUS
 62
     3
100
AcDbLine
 10
373.150251
 20
126.391205
 30
0.0
 11
370.704452
 21
124.560858
 31
0.0
  0
LINE
  5
176
330
1F
100
AcDbEntity
  8
GR1-1
  6
CONTINUOUS
 62
     3
100
AcDbLine
 10
371.043876
 20
124.814871
 30
0.0
 11
409.553816
 21
87.103153
 31
0.0
  0
LINE
  5
177
330
1F
100
AcDbEntity
  8
GR1-1
  6
CONTINUOUS
 62
     3
100
AcDbLine
 10
399.056963
 20
171.065517
 30
0.0
 11
375.944713
 21
123.678382
 31
0.0
  0
LINE
  5
178
330
1F
100
AcDbEntity
  8
GR1-1
  6
CONTINUOUS
 62
     3
100
AcDbLine
 10
365.428963
 20
124.118743
 30
0.0
 11
365.428963
 21
157.31552
 31
0.0
  0
ARC
  5
179
330
1F
100
AcDbEntity
  8
GR1-1
  6
CONTINUOUS
 62
     3
100
AcDbCircle
 10
362.428963
 20
157.31552
 30
0.0
 40
3.0
100
AcDbArc
 50
0.0
 51
72.542397
  0
LINE
  5
17A
330
1F
100
AcDbEntity
  8
GR1-1
  6
CONTINUOUS
 62
     3
100
AcDbLine
 10
362.228963
 20
161.031651
 30
0.0
 11
362.228963
 21
176.495517
 31
0.0
  0
LINE
  5
17B
330
1F
100
AcDbEntity
  8
GR1-1
  6
CONTINUOUS
 62
     3
100
AcDbLine
 10
362.228963
 20
176.495517
 30
0.0
 11
347.628963
 21
176.495517
 31
0.0
  0
LINE
  5
17C
330
1F
100
AcDbEntity
  8
GR1-1
  6
CONTINUOUS
 62
     3
100
AcDbLine
 10
347.628963
 20
176.495517
 30
0.0
 11
347.628963
 21
162.007851
 31
0.0
  0
LINE
  5
17D
330
1F
100
AcDbEntity
  8
GR1-1
  6
CONTINUOUS
 62
     3
100
AcDbLine
 10
347.928963
 20
163.31552
 30
0.0
 11
347.928963
 21
176.495517
 31
0.0
  0
ARC
  5
17E
330
1F
100
AcDbEntity
  8
GR1-1
  6
CONTINUOUS
 62
     3
100
AcDbCircle
 10
363.928963
 20
162.085216
 30
0.0
 40
2.0
100
AcDbArc
 50
180.0
 51
252.542397
  0
LINE
  5
17F
330
1F
100
AcDbEntity
  8
GR1-1
  6
CONTINUOUS
 62
     3
100
AcDbLine
 10
361.928963
 20
162.085216
 30
0.0
 11
361.928963
 21
176.495517
 31
0.0
  0
LINE
  5
180
330
1F
100
AcDbEntity
  8
GR1-1
  6
CONTINUOUS
 62
     3
100
AcDbLine
 10
299.715387
 20
153.71021
 30
0.0
 11
330.927513
 21
140.203517
 31
0.0
  0
LINE
  5
181
330
1F
100
AcDbEntity
  8
GR1-1
  6
CONTINUOUS
 62
     3
100
AcDbLine
 10
330.927513
 20
140.203517
 30
0.0
 11
331.960097
 21
142.589679
 31
0.0
  0
ARC
  5
182
330
1F
100
AcDbEntity
  8
GR1-1
  6
CONTINUOUS
 62
     3
100
AcDbCircle
 10
333.230495
 20
143.361689
 30
0.0
 40
2.5
100
AcDbArc
 50
226.496042
 51
325.77
  0
ARC
  5
183
330
1F
100
AcDbEntity
  8
GR1-1
  6
CONTINUOUS
 62
     3
100
AcDbCircle
 10
344.332844
 20
133.497975
 30
0.0
 40
8.0
100
AcDbArc
 50
53.969477
 51
99.563334
  0
ARC
  5
184
330
1F
100
AcDbEntity
  8
GR1-1
  6
CONTINUOUS
 62
     3
100
AcDbCircle
 10
344.928963
 20
163.31552
 30
0.0
 40
3.0
100
AcDbArc
 50
270.0
 51
360.0
  0
ARC
  5
185
330
1F
100
AcDbEntity
  8
GR1-1
  6
CONTINUOUS
 62
     3
100
AcDbCircle
 10
367.708647
 20
128.564001
 30
0.0
 40
5.0
100
AcDbArc
 50
217.066541
 51
306.809836
  0
ARC
  5
186
330
1F
100
AcDbEntity
  8
GR1-1
  6
CONTINUOUS
 62
     3
100
AcDbCircle
 10
307.863443
 20
83.358342
 30
0.0
 40
70.0
100
AcDbArc
 50
37.066541
 51
53.969477
  0
CIRCLE
  5
187
330
1F
100
AcDbEntity
  8
GR1-1
  6
CONTINUOUS
 62
     3
100
AcDbCircle
 10
347.128963
 20
114.795517
 30
0.0
 40
15.5
  0
LINE
  5
188
330
1F
100
AcDbEntity
  8
GR1-1
  6
CONTINUOUS
 62
     3
100
AcDbLine
 10
353.408871
 20
94.358474
 30
0.0
 11
353.451805
 21
90.258699
 31
0.0
  0
ARC
  5
189
330
1F
100
AcDbEntity
  8
GR1-1
  6
CONTINUOUS
 62
     3
100
AcDbCircle
 10
346.428963
 20
71.31552
 30
0.0
 40
20.8
100
AcDbArc
 50
74.095279
 51
105.904721
  0
TEXT
  5
18A
330
1F
100
AcDbEntity
  8
GR1-1
  6
CONTINUOUS
 62
     7
100
AcDbText
 10
349.200684
 20
156.334045
 30
0.0
 40
3.131438
  1
J-130S
 41
0.762033
  7
FX_VECTOR
 72
     5
 11
362.722812
 21
156.334045
 31
0.0
100
AcDbText
  0
LINE
  5
18B
330
1F
100
AcDbEntity
  8
GR1-1
  6
CONTINUOUS
 62
     7
100
AcDbLine
 10
342.747054
 20
160.31552
 30
0.0
 11
343.01761
 21
161.449633
 31
0.0
  0
LINE
  5
18C
330
1F
100
AcDbEntity
  8
GR1-1
  6
CONTINUOUS
 62
     7
100
AcDbLine
 10
341.854222
 20
164.209298
 30
0.0
 11
340.853167
 21
164.912742
 31
0.0
  0
LINE
  5
18D
330
1F
100
AcDbEntity
  8
GR1-1
  6
CONTINUOUS
 62
     7
100
AcDbLine
 10
340.853167
 20
164.912742
 30
0.0
 11
340.447334
 21
166.049074
 31
0.0
  0
LINE
  5
18E
330
1F
100
AcDbEntity
  8
GR1-1
  6
CONTINUOUS
 62
     7
100
AcDbLine
 10
340.447334
 20
166.049074
 30
0.0
 11
340.799056
 21
167.483017
 31
0.0
  0
LINE
  5
18F
330
1F
100
AcDbEntity
  8
GR1-1
  6
CONTINUOUS
 62
     7
100
AcDbLine
 10
340.799056
 20
167.483017
 30
0.0
 11
341.610722
 21
168.321739
 31
0.0
  0
LINE
  5
190
330
1F
100
AcDbEntity
  8
GR1-1
  6
CONTINUOUS
 62
     7
100
AcDbLine
 10
341.610722
 20
168.321739
 30
0.0
 11
342.828221
 21
168.538183
 31
0.0
  0
LINE
  5
191
330
1F
100
AcDbEntity
  8
GR1-1
  6
CONTINUOUS
 62
     7
100
AcDbLine
 10
341.854222
 20
164.209298
 30
0.0
 11
347.562939
 21
162.910632
 31
0.0
  0
CIRCLE
  5
192
330
1F
100
AcDbEntity
  8
GR1-1
  6
CONTINUOUS
 62
     6
100
AcDbCircle
 10
347.128963
 20
114.795517
 30
0.0
 40
13.5
  0
LINE
  5
193
330
1F
100
AcDbEntity
  8
GR1-1
  6
CONTINUOUS
 62
     6
100
AcDbLine
 10
371.043876
 20
124.814871
 30
0.0
 11
354.433679
 21
89.833877
 31
0.0
  0
LINE
  5
194
330
1F
100
AcDbEntity
  8
GR1-1
  6
CONTINUOUS
 62
     6
100
AcDbLine
 10
347.928963
 20
175.31552
 30
0.0
 11
361.928963
 21
175.31552
 31
0.0
  0
LINE
  5
195
330
1F
100
AcDbEntity
  8
GR1-1
  6
CONTINUOUS
 62
     6
100
AcDbLine
 10
345.678963
 20
155.31552
 30
0.0
 11
338.678963
 21
155.31552
 31
0.0
  0
ARC
  5
196
330
1F
100
AcDbEntity
  8
GR1-1
  6
CONTINUOUS
 62
     6
100
AcDbCircle
 10
306.223555
 20
141.305254
 30
0.0
 40
4.0
100
AcDbArc
 50
66.6
 51
185.50586
  0
ARC
  5
197
330
1F
100
AcDbEntity
  8
GR1-1
  6
CONTINUOUS
 62
     6
100
AcDbCircle
 10
349.02517
 20
145.431
 30
0.0
 40
47.0
100
AcDbArc
 50
185.50586
 51
222.299576
  0
ARC
  5
198
330
1F
100
AcDbEntity
  8
GR1-1
  6
CONTINUOUS
 62
     6
100
AcDbCircle
 10
317.220818
 20
116.491697
 30
0.0
 40
4.0
100
AcDbArc
 50
222.299576
 51
291.396347
  0
LINE
  5
199
330
1F
100
AcDbEntity
  8
GR1-1
  6
CONTINUOUS
 62
     6
100
AcDbLine
 10
318.680088
 20
112.767381
 30
0.0
 11
322.059617
 21
114.091555
 31
0.0
  0
ARC
  5
19A
330
1F
100
AcDbEntity
  8
GR1-1
  6
CONTINUOUS
 62
     6
100
AcDbCircle
 10
320.600347
 20
117.815871
 30
0.0
 40
4.0
100
AcDbArc
 50
291.396347
 51
353.504691
  0
ARC
  5
19B
330
1F
100
AcDbEntity
  8
GR1-1
  6
CONTINUOUS
 62
     6
100
AcDbCircle
 10
347.128963
 20
114.795517
 30
0.0
 40
22.7
100
AcDbArc
 50
138.975997
 51
173.504691
  0
ARC
  5
19C
330
1F
100
AcDbEntity
  8
GR1-1
  6
CONTINUOUS
 62
     6
100
AcDbCircle
 10
326.985558
 20
132.320734
 30
0.0
 40
4.0
100
AcDbArc
 50
-41.024003
 51
66.6
  0
LINE
  5
19D
330
1F
100
AcDbEntity
  8
GR1-1
  6
CONTINUOUS
 62
     6
100
AcDbLine
 10
329.021203
 20
135.798295
 30
0.0
 11
307.812146
 21
144.976273
 31
0.0
  0
LINE
  5
19E
330
1F
100
AcDbEntity
  8
GR1-1
  6
CONTINUOUS
 62
     6
100
AcDbLine
 10
377.089005
 20
118.895044
 30
0.0
 11
361.976566
 21
87.068321
 31
0.0
  0
LINE
  5
19F
330
1F
100
AcDbEntity
  8
GR1-1
  6
CONTINUOUS
 62
     3
100
AcDbLine
 10
145.527321
 20
193.374901
 30
0.0
 11
184.227321
 21
193.374901
 31
0.0
  0
ARC
  5
1A0
330
1F
100
AcDbEntity
  8
GR1-1
  6
CONTINUOUS
 62
     3
100
AcDbCircle
 10
184.527321
 20
188.687078
 30
0.0
 40
1.5
100
AcDbArc
 50
0.0
 51
90.0
  0
LINE
  5
1A1
330
1F
100
AcDbEntity
  8
GR1-1
  6
CONTINUOUS
 62
     3
100
AcDbLine
 10
186.027321
 20
188.687078
 30
0.0
 11
186.027321
 21
177.129175
 31
0.0
  0
ARC
  5
1A2
330
1F
100
AcDbEntity
  8
GR1-1
  6
CONTINUOUS
 62
     3
100
AcDbCircle
 10
194.027321
 20
177.129175
 30
0.0
 40
8.0
100
AcDbArc
 50
180.0
 51
211.152924
  0
LINE
  5
1A3
330
1F
100
AcDbEntity
  8
GR1-1
  6
CONTINUOUS
 62
     3
100
AcDbLine
 10
187.181004
 20
172.990583
 30
0.0
 11
189.527321
 21
169.10916
 31
0.0
  0
LINE
  5
1A4
330
1F
100
AcDbEntity
  8
GR1-1
  6
CONTINUOUS
 62
     3
100
AcDbLine
 10
192.727321
 20
169.525607
 30
0.0
 11
194.773636
 21
166.140467
 31
0.0
  0
LINE
  5
1A5
330
1F
100
AcDbEntity
  8
GR1-1
  6
CONTINUOUS
 62
     3
100
AcDbLine
 10
195.927321
 20
162.001872
 30
0.0
 11
195.927321
 21
94.553421
 31
0.0
  0
LINE
  5
1A6
330
1F
100
AcDbEntity
  8
GR1-1
  6
CONTINUOUS
 62
     3
100
AcDbLine
 10
195.927321
 20
94.553421
 30
0.0
 11
202.927321
 21
94.553421
 31
0.0
  0
LINE
  5
1A7
330
1F
100
AcDbEntity
  8
GR1-1
  6
CONTINUOUS
 62
     3
100
AcDbLine
 10
202.927321
 20
95.31552
 30
0.0
 11
202.927321
 21
91.31927
 31
0.0
  0
LINE
  5
1A8
330
1F
100
AcDbEntity
  8
GR1-1
  6
CONTINUOUS
 62
     3
100
AcDbLine
 10
202.927321
 20
91.31927
 30
0.0
 11
196.227321
 21
91.31927
 31
0.0
  0
LINE
  5
1A9
330
1F
100
AcDbEntity
  8
GR1-1
  6
CONTINUOUS
 62
     3
100
AcDbLine
 10
195.927321
 20
91.332151
 30
0.0
 11
195.927321
 21
89.802109
 31
0.0
  0
LINE
  5
1AA
330
1F
100
AcDbEntity
  8
GR1-1
  6
CONTINUOUS
 62
     3
100
AcDbLine
 10
195.927321
 20
89.802109
 30
0.0
 11
201.727321
 21
87.068321
 31
0.0
  0
LINE
  5
1AB
330
1F
100
AcDbEntity
  8
GR1-1
  6
CONTINUOUS
 62
     3
100
AcDbLine
 10
201.727321
 20
87.068321
 30
0.0
 11
201.727321
 21
83.475937
 31
0.0
  0
LINE
  5
1AC
330
1F
100
AcDbEntity
  8
GR1-1
  6
CONTINUOUS
 62
     3
100
AcDbLine
 10
201.727321
 20
83.475937
 30
0.0
 11
204.927321
 21
83.475937
 31
0.0
  0
LINE
  5
1AD
330
1F
100
AcDbEntity
  8
GR1-1
  6
CONTINUOUS
 62
     3
100
AcDbLine
 10
204.927321
 20
83.475937
 30
0.0
 11
204.927321
 21
118.052873
 31
0.0
  0
ARC
  5
1AE
330
1F
100
AcDbEntity
  8
GR1-1
  6
CONTINUOUS
 62
     3
100
AcDbCircle
 10
202.927321
 20
118.052873
 30
0.0
 40
2.0
100
AcDbArc
 50
0.0
 51
25.841933
  0
ARC
  5
1AF
330
1F
100
AcDbEntity
  8
GR1-1
  6
CONTINUOUS
 62
     3
100
AcDbCircle
 10
198.914821
 20
126.48686
 30
0.0
 40
5.812499999999853
100
AcDbArc
 50
-42.103449
 51
42.103449
  0
LINE
  5
1B0
330
1F
100
AcDbEntity
  8
GR1-1
  6
CONTINUOUS
 62
     3
100
AcDbLine
 10
203.227321
 20
130.383975
 30
0.0
 11
200.727321
 21
130.383975
 31
0.0
  0
LINE
  5
1B1
330
1F
100
AcDbEntity
  8
GR1-1
  6
CONTINUOUS
 62
     3
100
AcDbLine
 10
204.727321
 20
126.48686
 30
0.0
 11
204.727321
 21
103.104174
 31
0.0
  0
ARC
  5
1B2
330
1F
100
AcDbEntity
  8
GR1-1
  6
CONTINUOUS
 62
     3
100
AcDbCircle
 10
183.727321
 20
114.795517
 30
0.0
 40
20.99999999999982
100
AcDbArc
 50
-21.786789
 51
21.786789
  0
LINE
  5
1B3
330
1F
100
AcDbEntity
  8
GR1-1
  6
CONTINUOUS
 62
     3
100
AcDbLine
 10
203.227321
 20
122.589746
 30
0.0
 11
200.727321
 21
122.589746
 31
0.0
  0
LINE
  5
1B4
330
1F
100
AcDbEntity
  8
GR1-1
  6
CONTINUOUS
 62
     3
100
AcDbLine
 10
204.727321
 20
124.61982
 30
0.0
 11
205.019835
 21
124.578225
 31
0.0
  0
ARC
  5
1B5
330
1F
100
AcDbEntity
  8
GR1-1
  6
CONTINUOUS
 62
     3
100
AcDbCircle
 10
205.420069
 20
113.212308
 30
0.0
 40
13.19917200032713
100
AcDbArc
 50
92.13945
 51
93.008508
  0
ARC
  5
1B6
330
1F
100
AcDbEntity
  8
GR1-1
  6
CONTINUOUS
 62
     3
100
AcDbCircle
 10
219.13559
 20
127.957316
 30
0.0
 40
12.0
100
AcDbArc
 50
209.337846
 51
270.0
  0
LINE
  5
1B7
330
1F
100
AcDbEntity
  8
GR1-1
  6
CONTINUOUS
 62
     3
100
AcDbLine
 10
219.13559
 20
115.957316
 30
0.0
 11
223.427321
 21
115.957316
 31
0.0
  0
LINE
  5
1B8
330
1F
100
AcDbEntity
  8
GR1-1
  6
CONTINUOUS
 62
     3
100
AcDbLine
 10
223.427321
 20
115.957316
 30
0.0
 11
224.546062
 21
115.932253
 31
0.0
  0
LINE
  5
1B9
330
1F
100
AcDbEntity
  8
GR1-1
  6
CONTINUOUS
 62
     3
100
AcDbLine
 10
223.427321
 20
117.799328
 30
0.0
 11
219.03559
 21
117.799328
 31
0.0
  0
ARC
  5
1BA
330
1F
100
AcDbEntity
  8
GR1-1
  6
CONTINUOUS
 62
     3
100
AcDbCircle
 10
204.315911
 20
119.348861
 30
0.0
 40
7.12117
100
AcDbArc
 50
29.337846
 51
85.074635
  0
ARC
  5
1BB
330
1F
100
AcDbEntity
  8
GR1-1
  6
CONTINUOUS
 62
     3
100
AcDbCircle
 10
204.315911
 20
119.628023
 30
0.0
 40
5.0
100
AcDbArc
 50
29.337846
 51
81.906745
  0
ARC
  5
1BC
330
1F
100
AcDbEntity
  8
GR1-1
  6
CONTINUOUS
 62
     3
100
AcDbCircle
 10
219.13559
 20
127.678154
 30
0.0
 40
9.878830000000001
100
AcDbArc
 50
209.337846
 51
270.0
  0
LINE
  5
1BD
330
1F
100
AcDbEntity
  8
GR1-1
  6
CONTINUOUS
 62
     3
100
AcDbLine
 10
228.427321
 20
113.07849
 30
0.0
 11
228.427321
 21
94.075122
 31
0.0
  0
LINE
  5
1BE
330
1F
100
AcDbEntity
  8
GR1-1
  6
CONTINUOUS
 62
     3
100
AcDbLine
 10
223.949963
 20
89.102513
 30
0.0
 11
204.927321
 21
87.103153
 31
0.0
  0
ARC
  5
1BF
330
1F
100
AcDbEntity
  8
GR1-1
  6
CONTINUOUS
 62
     3
100
AcDbCircle
 10
202.927321
 20
86.256565
 30
0.0
 40
2.0
100
AcDbArc
 50
0.0
 51
64.763491
  0
LINE
  5
1C0
330
1F
100
AcDbEntity
  8
GR1-1
  6
CONTINUOUS
 62
     3
100
AcDbLine
 10
203.780032
 20
88.065676
 30
0.0
 11
199.127321
 21
90.258699
 31
0.0
  0
LINE
  5
1C1
330
1F
100
AcDbEntity
  8
GR1-1
  6
CONTINUOUS
 62
     3
100
AcDbLine
 10
199.127321
 20
90.258699
 30
0.0
 11
199.127321
 21
91.31927
 31
0.0
  0
LINE
  5
1C2
330
1F
100
AcDbEntity
  8
GR1-1
  6
CONTINUOUS
 62
     3
100
AcDbLine
 10
199.127321
 20
95.31552
 30
0.0
 11
199.127321
 21
153.135026
 31
0.0
  0
ARC
  5
1C3
330
1F
100
AcDbEntity
  8
GR1-1
  6
CONTINUOUS
 62
     3
100
AcDbCircle
 10
199.627321
 20
153.135026
 30
0.0
 40
0.5
100
AcDbArc
 50
82.0
 51
180.0
  0
LINE
  5
1C4
330
1F
100
AcDbEntity
  8
GR1-1
  6
CONTINUOUS
 62
     3
100
AcDbLine
 10
199.696907
 20
153.63016
 30
0.0
 11
221.34484
 21
150.587741
 31
0.0
  0
LINE
  5
1C5
330
1F
100
AcDbEntity
  8
GR1-1
  6
CONTINUOUS
 62
     3
100
AcDbLine
 10
221.34484
 20
152.765464
 30
0.0
 11
200.484013
 21
155.697262
 31
0.0
  0
ARC
  5
1C6
330
1F
100
AcDbEntity
  8
GR1-1
  6
CONTINUOUS
 62
     3
100
AcDbCircle
 10
199.927321
 20
151.73619
 30
0.0
 40
4.0
100
AcDbArc
 50
82.0
 51
180.0
  0
ARC
  5
1C7
330
1F
100
AcDbEntity
  8
GR1-1
  6
CONTINUOUS
 62
     3
100
AcDbCircle
 10
174.701455
 20
142.427703
 30
0.0
 40
24.83210027573146
100
AcDbArc
 50
27.867447
 51
31.265082
  0
LINE
  5
1C8
330
1F
100
AcDbEntity
  8
GR1-1
  6
CONTINUOUS
 62
     3
100
AcDbLine
 10
197.777321
 20
155.109245
 30
0.0
 11
197.777321
 21
200.465517
 31
0.0
  0
LINE
  5
1C9
330
1F
100
AcDbEntity
  8
GR1-1
  6
CONTINUOUS
 62
     3
100
AcDbLine
 10
121.827321
 20
121.7919
 30
0.0
 11
118.027321
 21
121.7919
 31
0.0
  0
LINE
  5
1CA
330
1F
100
AcDbEntity
  8
GR1-1
  6
CONTINUOUS
 62
     3
100
AcDbLine
 10
118.027321
 20
121.7919
 30
0.0
 11
117.027321
 21
120.7919
 31
0.0
  0
LINE
  5
1CB
330
1F
100
AcDbEntity
  8
GR1-1
  6
CONTINUOUS
 62
     3
100
AcDbLine
 10
117.027321
 20
120.7919
 30
0.0
 11
117.027321
 21
108.7919
 31
0.0
  0
LINE
  5
1CC
330
1F
100
AcDbEntity
  8
GR1-1
  6
CONTINUOUS
 62
     3
100
AcDbLine
 10
117.027321
 20
108.7919
 30
0.0
 11
118.027321
 21
107.7919
 31
0.0
  0
LINE
  5
1CD
330
1F
100
AcDbEntity
  8
GR1-1
  6
CONTINUOUS
 62
     3
100
AcDbLine
 10
118.027321
 20
107.7919
 30
0.0
 11
121.827321
 21
107.7919
 31
0.0
  0
ARC
  5
1CE
330
1F
100
AcDbEntity
  8
GR1-1
  6
CONTINUOUS
 62
     3
100
AcDbCircle
 10
173.280694
 20
177.440451
 30
0.0
 40
14.4219786069589
100
AcDbArc
 50
27.891697
 51
62.108303
  0
ARC
  5
1CF
330
1F
100
AcDbEntity
  8
GR1-1
  6
CONTINUOUS
 62
     3
100
AcDbCircle
 10
184.227321
 20
188.374901
 30
0.0
 40
5.0
100
AcDbArc
 50
0.0
 51
90.0
  0
LINE
  5
1D0
330
1F
100
AcDbEntity
  8
GR1-1
  6
CONTINUOUS
 62
     3
100
AcDbLine
 10
189.227321
 20
188.374901
 30
0.0
 11
189.227321
 21
175.31552
 31
0.0
  0
ARC
  5
1D1
330
1F
100
AcDbEntity
  8
GR1-1
  6
CONTINUOUS
 62
     3
100
AcDbCircle
 10
187.927321
 20
162.001872
 30
0.0
 40
8.0
100
AcDbArc
 50
0.0
 51
31.152941
  0
LINE
  5
1D2
330
1F
100
AcDbEntity
  8
GR1-1
  6
CONTINUOUS
 62
     3
100
AcDbLine
 10
199.127321
 20
145.299737
 30
0.0
 11
200.298181
 21
142.372586
 31
0.0
  0
LINE
  5
1D3
330
1F
100
AcDbEntity
  8
GR1-1
  6
CONTINUOUS
 62
     3
100
AcDbLine
 10
200.166879
 20
142.70084
 30
0.0
 11
221.166
 21
140.493744
 31
0.0
  0
ARC
  5
1D4
330
1F
100
AcDbEntity
  8
GR1-1
  6
CONTINUOUS
 62
     3
100
AcDbCircle
 10
221.427321
 20
142.980048
 30
0.0
 40
2.5
100
AcDbArc
 50
-96.0
 51
0.0
  0
LINE
  5
1D5
330
1F
100
AcDbEntity
  8
GR1-1
  6
CONTINUOUS
 62
     3
100
AcDbLine
 10
223.927321
 20
142.980048
 30
0.0
 11
223.927321
 21
149.79466
 31
0.0
  0
ARC
  5
1D6
330
1F
100
AcDbEntity
  8
GR1-1
  6
CONTINUOUS
 62
     3
100
AcDbCircle
 10
220.927321
 20
149.79466
 30
0.0
 40
3.0
100
AcDbArc
 50
0.0
 51
82.0
  0
ARC
  5
1D7
330
1F
100
AcDbEntity
  8
GR1-1
  6
CONTINUOUS
 62
     3
100
AcDbCircle
 10
220.927321
 20
147.616937
 30
0.0
 40
3.0
100
AcDbArc
 50
0.0
 51
82.0
  0
ARC
  5
1D8
330
1F
100
AcDbEntity
  8
GR1-1
  6
CONTINUOUS
 62
     3
100
AcDbCircle
 10
194.727321
 20
140.144242
 30
0.0
 40
6.0
100
AcDbArc
 50
0.0
 51
21.801409
  0
LINE
  5
1D9
330
1F
100
AcDbEntity
  8
GR1-1
  6
CONTINUOUS
 62
     3
100
AcDbLine
 10
200.727321
 20
140.144242
 30
0.0
 11
200.727321
 21
117.651082
 31
0.0
  0
ARC
  5
1DA
330
1F
100
AcDbEntity
  8
GR1-1
  6
CONTINUOUS
 62
     3
100
AcDbCircle
 10
194.727321
 20
117.651082
 30
0.0
 40
6.0
100
AcDbArc
 50
338.198591
 51
360.0
  0
LINE
  5
1DB
330
1F
100
AcDbEntity
  8
GR1-1
  6
CONTINUOUS
 62
     3
100
AcDbLine
 10
200.298181
 20
115.422738
 30
0.0
 11
199.127321
 21
112.495588
 31
0.0
  0
LINE
  5
1DC
330
1F
100
AcDbEntity
  8
GR1-1
  6
CONTINUOUS
 62
     3
100
AcDbLine
 10
199.727321
 20
113.995588
 30
0.0
 11
199.727321
 21
99.20706
 31
0.0
  0
LINE
  5
1DD
330
1F
100
AcDbEntity
  8
GR1-1
  6
CONTINUOUS
 62
     3
100
AcDbLine
 10
199.727321
 20
99.20706
 30
0.0
 11
203.227321
 21
99.20706
 31
0.0
  0
ARC
  5
1DE
330
1F
100
AcDbEntity
  8
GR1-1
  6
CONTINUOUS
 62
     3
100
AcDbCircle
 10
198.914821
 20
103.104174
 30
0.0
 40
5.812499999999853
100
AcDbArc
 50
-42.103449
 51
42.103449
  0
LINE
  5
1DF
330
1F
100
AcDbEntity
  8
GR1-1
  6
CONTINUOUS
 62
     3
100
AcDbLine
 10
203.227321
 20
107.001289
 30
0.0
 11
199.727321
 21
107.001289
 31
0.0
  0
LINE
  5
1E0
330
1F
100
AcDbEntity
  8
GR1-1
  6
CONTINUOUS
 62
     3
100
AcDbLine
 10
199.727321
 20
99.295517
 30
0.0
 11
199.127321
 21
99.295517
 31
0.0
  0
ARC
  5
1E1
330
1F
100
AcDbEntity
  8
GR1-1
  6
CONTINUOUS
 62
     3
100
AcDbCircle
 10
196.227321
 20
94.81927
 30
0.0
 40
3.5
100
AcDbArc
 50
180.0
 51
270.0
  0
ARC
  5
1E2
330
1F
100
AcDbEntity
  8
GR1-1
  6
CONTINUOUS
 62
     3
100
AcDbCircle
 10
224.546062
 20
111.932253
 30
0.0
 40
4.0
100
AcDbArc
 50
13.995498
 51
90.0
  0
ARC
  5
1E3
330
1F
100
AcDbEntity
  8
GR1-1
  6
CONTINUOUS
 62
     3
100
AcDbCircle
 10
223.427321
 20
112.799328
 30
0.0
 40
5.0
100
AcDbArc
 50
0.0
 51
90.0
  0
ARC
  5
1E4
330
1F
100
AcDbEntity
  8
GR1-1
  6
CONTINUOUS
 62
     3
100
AcDbCircle
 10
223.427321
 20
94.075122
 30
0.0
 40
5.0
100
AcDbArc
 50
276.0
 51
360.0
  0
LINE
  5
1E5
330
1F
100
AcDbEntity
  8
GR1-1
  6
CONTINUOUS
 62
     6
100
AcDbLine
 10
195.927321
 20
107.198669
 30
0.0
 11
199.127321
 21
107.198669
 31
0.0
  0
LINE
  5
1E6
330
1F
100
AcDbEntity
  8
GR1-1
  6
CONTINUOUS
 62
     6
100
AcDbLine
 10
117.218938
 20
120.983517
 30
0.0
 11
121.827321
 21
120.983517
 31
0.0
  0
LINE
  5
1E7
330
1F
100
AcDbEntity
  8
GR1-1
  6
CONTINUOUS
 62
     6
100
AcDbLine
 10
118.027321
 20
121.7919
 30
0.0
 11
118.027321
 21
107.7919
 31
0.0
  0
LINE
  5
1E8
330
1F
100
AcDbEntity
  8
GR1-1
  6
CONTINUOUS
 62
     6
100
AcDbLine
 10
117.218938
 20
108.607517
 30
0.0
 11
121.827321
 21
108.607517
 31
0.0
  0
LINE
  5
1E9
330
1F
100
AcDbEntity
  8
GR1-1
  6
CONTINUOUS
 62
     6
100
AcDbLine
 10
195.927321
 20
95.31552
 30
0.0
 11
202.927321
 21
95.31552
 31
0.0
  0
LINE
  5
1EA
330
1F
100
AcDbEntity
  8
GR1-1
  6
CONTINUOUS
 62
     6
100
AcDbLine
 10
199.127321
 20
90.258699
 30
0.0
 11
195.927321
 21
89.802109
 31
0.0
  0
LINE
  5
1EB
330
1F
100
AcDbEntity
  8
GR1-1
  6
CONTINUOUS
 62
     6
100
AcDbLine
 10
211.977181
 20
91.473298
 30
0.0
 11
222.877461
 21
91.473298
 31
0.0
  0
ARC
  5
1EC
330
1F
100
AcDbEntity
  8
GR1-1
  6
CONTINUOUS
 62
     6
100
AcDbCircle
 10
222.877461
 20
92.523158
 30
0.0
 40
1.05011791589153
100
AcDbArc
 50
-88.730109
 51
88.726101
  0
LINE
  5
1ED
330
1F
100
AcDbEntity
  8
GR1-1
  6
CONTINUOUS
 62
     6
100
AcDbLine
 10
222.877461
 20
93.573016
 30
0.0
 11
211.977181
 21
93.573016
 31
0.0
  0
ARC
  5
1EE
330
1F
100
AcDbEntity
  8
GR1-1
  6
CONTINUOUS
 62
     6
100
AcDbCircle
 10
211.977181
 20
92.523158
 30
0.0
 40
1.05011791589153
100
AcDbArc
 50
91.273899
 51
268.730109
  0
LINE
  5
1EF
330
1F
100
AcDbEntity
  8
GR1-1
  6
CONTINUOUS
 62
     6
100
AcDbLine
 10
211.977181
 20
97.072547
 30
0.0
 11
222.877461
 21
97.072547
 31
0.0
  0
ARC
  5
1F0
330
1F
100
AcDbEntity
  8
GR1-1
  6
CONTINUOUS
 62
     6
100
AcDbCircle
 10
222.877461
 20
98.122407
 30
0.0
 40
1.05011791589153
100
AcDbArc
 50
-88.730109
 51
88.726101
  0
LINE
  5
1F1
330
1F
100
AcDbEntity
  8
GR1-1
  6
CONTINUOUS
 62
     6
100
AcDbLine
 10
222.877461
 20
99.172265
 30
0.0
 11
211.977181
 21
99.172265
 31
0.0
  0
ARC
  5
1F2
330
1F
100
AcDbEntity
  8
GR1-1
  6
CONTINUOUS
 62
     6
100
AcDbCircle
 10
211.977181
 20
98.122407
 30
0.0
 40
1.05011791589153
100
AcDbArc
 50
91.273899
 51
268.730109
  0
LINE
  5
1F3
330
1F
100
AcDbEntity
  8
GR1-1
  6
CONTINUOUS
 62
     6
100
AcDbLine
 10
211.977181
 20
102.671796
 30
0.0
 11
222.877461
 21
102.671796
 31
0.0
  0
ARC
  5
1F4
330
1F
100
AcDbEntity
  8
GR1-1
  6
CONTINUOUS
 62
     6
100
AcDbCircle
 10
222.877461
 20
103.721656
 30
0.0
 40
1.05011791589153
100
AcDbArc
 50
-88.730109
 51
88.726101
  0
LINE
  5
1F5
330
1F
100
AcDbEntity
  8
GR1-1
  6
CONTINUOUS
 62
     6
100
AcDbLine
 10
222.877461
 20
104.771514
 30
0.0
 11
211.977181
 21
104.771514
 31
0.0
  0
ARC
  5
1F6
330
1F
100
AcDbEntity
  8
GR1-1
  6
CONTINUOUS
 62
     6
100
AcDbCircle
 10
211.977181
 20
103.721656
 30
0.0
 40
1.05011791589153
100
AcDbArc
 50
91.273899
 51
268.730109
  0
LINE
  5
1F7
330
1F
100
AcDbEntity
  8
GR1-1
  6
CONTINUOUS
 62
     6
100
AcDbLine
 10
211.977181
 20
108.271045
 30
0.0
 11
222.877461
 21
108.271045
 31
0.0
  0
ARC
  5
1F8
330
1F
100
AcDbEntity
  8
GR1-1
  6
CONTINUOUS
 62
     6
100
AcDbCircle
 10
222.877461
 20
109.320905
 30
0.0
 40
1.05011791589153
100
AcDbArc
 50
-88.730109
 51
88.726101
  0
LINE
  5
1F9
330
1F
100
AcDbEntity
  8
GR1-1
  6
CONTINUOUS
 62
     6
100
AcDbLine
 10
222.877461
 20
110.370763
 30
0.0
 11
211.977181
 21
110.370763
 31
0.0
  0
ARC
  5
1FA
330
1F
100
AcDbEntity
  8
GR1-1
  6
CONTINUOUS
 62
     6
100
AcDbCircle
 10
211.977181
 20
109.320905
 30
0.0
 40
1.05011791589153
100
AcDbArc
 50
91.273899
 51
268.730109
  0
LINE
  5
1FB
330
1F
100
AcDbEntity
  8
GR1-1
  6
CONTINUOUS
 62
     6
100
AcDbLine
 10
214.427321
 20
145.838203
 30
0.0
 11
218.030171
 21
145.838203
 31
0.0
  0
ARC
  5
1FC
330
1F
100
AcDbEntity
  8
GR1-1
  6
CONTINUOUS
 62
     6
100
AcDbCircle
 10
218.030171
 20
146.235353
 30
0.0
 40
0.3971499999999821
100
AcDbArc
 50
-90.0
 51
89.73591
  0
LINE
  5
1FD
330
1F
100
AcDbEntity
  8
GR1-1
  6
CONTINUOUS
 62
     6
100
AcDbLine
 10
218.032001
 20
146.632499
 30
0.0
 11
214.427321
 21
146.632499
 31
0.0
  0
LINE
  5
1FE
330
1F
100
AcDbEntity
  8
GR1-1
  6
CONTINUOUS
 62
     6
100
AcDbLine
 10
214.427321
 20
146.632499
 30
0.0
 11
214.427321
 21
149.809682
 31
0.0
  0
LINE
  5
1FF
330
1F
100
AcDbEntity
  8
GR1-1
  6
CONTINUOUS
 62
     6
100
AcDbLine
 10
214.427321
 20
149.809682
 30
0.0
 11
220.030171
 21
149.809682
 31
0.0
  0
ARC
  5
200
330
1F
100
AcDbEntity
  8
GR1-1
  6
CONTINUOUS
 62
     6
100
AcDbCircle
 10
220.030171
 20
150.206832
 30
0.0
 40
0.3971499999999821
100
AcDbArc
 50
-90.0
 51
89.73591
  0
LINE
  5
201
330
1F
100
AcDbEntity
  8
GR1-1
  6
CONTINUOUS
 62
     6
100
AcDbLine
 10
220.032001
 20
150.603978
 30
0.0
 11
205.82264
 21
150.603978
 31
0.0
  0
ARC
  5
202
330
1F
100
AcDbEntity
  8
GR1-1
  6
CONTINUOUS
 62
     6
100
AcDbCircle
 10
205.824471
 20
150.206832
 30
0.0
 40
0.3971499999999821
100
AcDbArc
 50
90.26409
 51
270.0
  0
LINE
  5
203
330
1F
100
AcDbEntity
  8
GR1-1
  6
CONTINUOUS
 62
     6
100
AcDbLine
 10
205.824471
 20
149.809682
 30
0.0
 11
207.427321
 21
149.809682
 31
0.0
  0
LINE
  5
204
330
1F
100
AcDbEntity
  8
GR1-1
  6
CONTINUOUS
 62
     6
100
AcDbLine
 10
207.427321
 20
149.809682
 30
0.0
 11
207.427321
 21
148.228221
 31
0.0
  0
ARC
  5
205
330
1F
100
AcDbEntity
  8
GR1-1
  6
CONTINUOUS
 62
     6
100
AcDbCircle
 10
208.427321
 20
148.228221
 30
0.0
 40
1.000000000000028
100
AcDbArc
 50
180.0
 51
360.0
  0
LINE
  5
206
330
1F
100
AcDbEntity
  8
GR1-1
  6
CONTINUOUS
 62
     6
100
AcDbLine
 10
209.427321
 20
148.228221
 30
0.0
 11
209.427321
 21
149.809682
 31
0.0
  0
LINE
  5
207
330
1F
100
AcDbEntity
  8
GR1-1
  6
CONTINUOUS
 62
     6
100
AcDbLine
 10
209.427321
 20
149.809682
 30
0.0
 11
212.427321
 21
149.809682
 31
0.0
  0
LINE
  5
208
330
1F
100
AcDbEntity
  8
GR1-1
  6
CONTINUOUS
 62
     6
100
AcDbLine
 10
212.427321
 20
149.809682
 30
0.0
 11
212.427321
 21
146.043907
 31
0.0
  0
ARC
  5
209
330
1F
100
AcDbEntity
  8
GR1-1
  6
CONTINUOUS
 62
     6
100
AcDbCircle
 10
213.427321
 20
146.043907
 30
0.0
 40
1.000000000000028
100
AcDbArc
 50
180.0
 51
348.376158
  0
ARC
  5
20A
330
1F
100
AcDbEntity
  8
LAYERGROUP-1
  6
CONTINUOUS
 62
     3
100
AcDbCircle
 10
347.128963
 20
114.795517
 30
0.0
 40
22.0
100
AcDbArc
 50
243.938995
 51
252.455378
  0
ARC
  5
20B
330
1F
100
AcDbEntity
  8
LAYERGROUP-1
  6
CONTINUOUS
 62
     3
100
AcDbCircle
 10
347.128963
 20
114.795517
 30
0.0
 40
21.5
100
AcDbArc
 50
245.907139
 51
251.892881
  0
LINE
  5
20C
330
1F
100
AcDbEntity
  8
GR1-1
  6
CONTINUOUS
 62
     3
100
AcDbLine
 10
177.527321
 20
188.7031
 30
0.0
 11
182.288813
 21
188.7031
 31
0.0
  0
LINE
  5
20D
330
1F
100
AcDbEntity
  8
GR1-1
  6
CONTINUOUS
 62
     3
100
AcDbLine
 10
184.527321
 20
190.187078
 30
0.0
 11
146.027321
 21
190.187078
 31
0.0
  0
ARC
  5
20E
330
1F
100
AcDbEntity
  8
LAYERGROUP-1
  6
CONTINUOUS
 62
     3
100
AcDbCircle
 10
347.128963
 20
114.795517
 30
0.0
 40
21.5
100
AcDbArc
 50
284.115979
 51
286.986693
  0
ARC
  5
20F
330
1F
100
AcDbEntity
  8
LAYERGROUP-1
  6
CONTINUOUS
 62
     3
100
AcDbCircle
 10
347.128963
 20
114.795517
 30
0.0
 40
22.0
100
AcDbArc
 50
283.657653
 51
286.604143
  0
LINE
  5
210
330
1F
100
AcDbEntity
  8
GR1-1
  6
CONTINUOUS
 62
     3
100
AcDbLine
 10
333.128963
 20
367.665517
 30
0.0
 11
324.528963
 21
367.665517
 31
0.0
  0
LINE
  5
211
330
1F
100
AcDbEntity
  8
GR1-1
  6
CONTINUOUS
 62
     3
100
AcDbLine
 10
324.528963
 20
367.665517
 30
0.0
 11
324.528963
 21
364.465517
 31
0.0
  0
LINE
  5
212
330
1F
100
AcDbEntity
  8
GR1-1
  6
CONTINUOUS
 62
     3
100
AcDbLine
 10
324.528963
 20
364.465517
 30
0.0
 11
333.128963
 21
364.465517
 31
0.0
  0
LINE
  5
213
330
1F
100
AcDbEntity
  8
GR1-1
  6
CONTINUOUS
 62
     3
100
AcDbLine
 10
333.128963
 20
311.465517
 30
0.0
 11
324.528963
 21
311.465517
 31
0.0
  0
LINE
  5
214
330
1F
100
AcDbEntity
  8
GR1-1
  6
CONTINUOUS
 62
     3
100
AcDbLine
 10
324.528963
 20
311.465517
 30
0.0
 11
324.528963
 21
308.265517
 31
0.0
  0
LINE
  5
215
330
1F
100
AcDbEntity
  8
GR1-1
  6
CONTINUOUS
 62
     3
100
AcDbLine
 10
324.528963
 20
308.265517
 30
0.0
 11
333.128963
 21
308.265517
 31
0.0
  0
LINE
  5
216
330
1F
100
AcDbEntity
  8
GR1-1
  6
CENTER
 62
     6
100
AcDbLine
 10
387.128963
 20
280.036725
 30
0.0
 11
387.128963
 21
396.813814
 31
0.0
  0
DIMENSION
  5
217
330
1F
100
AcDbEntity
  8
GR1-1
100
AcDbDimension
  2
*D25
 10
441.128963
 20
243.67534
 30
0.0
 11
387.128967
 21
244.675354
 31
0.0
 70
    33
  3
FXDIMINFO
100
AcDbAlignedDimension
 13
333.128963
 23
297.965517
 33
0.0
 14
441.128963
 24
297.965517
 34
0.0
1001
ACAD
1000
DSTYLE
1002
{
1070
     7
1000
FXTIP_ARROW_E
1070
     6
1000
FXTIP_ARROW_S
1070
   173
1070
     1
1002
}
  0
DIMENSION
  5
221
330
1F
100
AcDbEntity
  8
GR1-1
100
AcDbDimension
  2
*D26
 10
428.128963
 20
252.78876
 30
0.0
 11
387.128967
 21
253.788757
 31
0.0
 70
    32
  3
FXDIMINFO
100
AcDbAlignedDimension
 13
346.128963
 23
289.632719
 33
0.0
 14
428.128963
 24
289.701286
 34
0.0
 50
180.0
100
AcDbRotatedDimension
1001
ACAD
1000
DSTYLE
1002
{
1070
     7
1000
FXTIP_ARROW_E
1070
     6
1000
FXTIP_ARROW_S
1070
   173
1070
     1
1002
}
  0
DIMENSION
  5
22B
330
1F
100
AcDbEntity
  8
GR1-1
100
AcDbDimension
  2
*D27
 10
347.628963
 20
262.520039
 30
0.0
 11
387.128967
 21
263.52005
 31
0.0
 70
    33
  3
FXDIMINFO
100
AcDbAlignedDimension
 13
426.628963
 23
291.201286
 33
0.0
 14
347.628963
 24
291.201286
 34
0.0
1001
ACAD
1000
DSTYLE
1002
{
1070
     7
1000
FXTIP_ARROW_E
1070
     6
1000
FXTIP_ARROW_S
1070
   173
1070
     1
1002
}
  0
DIMENSION
  5
235
330
1F
100
AcDbEntity
  8
GR1-1
100
AcDbDimension
  2
*D28
 10
471.246802
 20
391.965517
 30
0.0
 11
470.246765
 21
337.965515
 31
0.0
 70
    33
  3
FXDIMINFO
100
AcDbAlignedDimension
 13
427.128963
 23
283.965517
 33
0.0
 14
427.128963
 24
391.965517
 34
0.0
1001
ACAD
1000
DSTYLE
1002
{
1070
     7
1000
FXTIP_ARROW_E
1070
     6
1000
FXTIP_ARROW_S
1070
   173
1070
     1
1002
}
  0
DIMENSION
  5
23F
330
1F
100
AcDbEntity
  8
GR1-1
100
AcDbDimension
  2
*D29
 10
461.246802
 20
296.965517
 30
0.0
 11
460.246765
 21
337.965515
 31
0.0
 70
    33
  3
FXDIMINFO
100
AcDbAlignedDimension
 13
435.284836
 23
378.965517
 33
0.0
 14
435.284836
 24
296.965517
 34
0.0
1001
ACAD
1000
DSTYLE
1002
{
1070
     7
1000
FXTIP_ARROW_E
1070
     6
1000
FXTIP_ARROW_S
1070
   173
1070
     1
1002
}
  0
DIMENSION
  5
249
330
1F
100
AcDbEntity
  8
GR1-1
100
AcDbDimension
  2
*D30
 10
451.246802
 20
377.465517
 30
0.0
 11
450.246765
 21
337.965515
 31
0.0
 70
    33
  3
FXDIMINFO
100
AcDbAlignedDimension
 13
433.784836
 23
298.465517
 33
0.0
 14
433.784836
 24
377.465517
 34
0.0
1001
ACAD
1000
DSTYLE
1002
{
1070
     7
1000
FXTIP_ARROW_E
1070
     6
1000
FXTIP_ARROW_S
1070
   173
1070
     1
1002
}
  0
LINE
  5
253
330
1F
100
AcDbEntity
  8
GR1-1
  6
CONTINUOUS
 62
     3
100
AcDbLine
 10
427.128963
 20
391.965517
 30
0.0
 11
347.128963
 21
391.965517
 31
0.0
  0
ARC
  5
254
330
1F
100
AcDbEntity
  8
GR1-1
  6
CONTINUOUS
 62
     3
100
AcDbCircle
 10
347.128963
 20
377.965517
 30
0.0
 40
14.0
100
AcDbArc
 50
90.0
 51
180.0
  0
LINE
  5
255
330
1F
100
AcDbEntity
  8
GR1-1
  6
CONTINUOUS
 62
     3
100
AcDbLine
 10
333.128963
 20
377.965517
 30
0.0
 11
333.128963
 21
297.965517
 31
0.0
  0
ARC
  5
256
330
1F
100
AcDbEntity
  8
GR1-1
  6
CONTINUOUS
 62
     3
100
AcDbCircle
 10
347.128963
 20
297.965517
 30
0.0
 40
14.0
100
AcDbArc
 50
180.0
 51
270.0
  0
LINE
  5
257
330
1F
100
AcDbEntity
  8
GR1-1
  6
CONTINUOUS
 62
     3
100
AcDbLine
 10
347.128963
 20
283.965517
 30
0.0
 11
427.128963
 21
283.965517
 31
0.0
  0
ARC
  5
258
330
1F
100
AcDbEntity
  8
GR1-1
  6
CONTINUOUS
 62
     3
100
AcDbCircle
 10
427.128963
 20
297.965517
 30
0.0
 40
14.0
100
AcDbArc
 50
270.0
 51
360.0
  0
LINE
  5
259
330
1F
100
AcDbEntity
  8
GR1-1
  6
CONTINUOUS
 62
     3
100
AcDbLine
 10
441.128963
 20
297.965517
 30
0.0
 11
441.128963
 21
377.965517
 31
0.0
  0
ARC
  5
25A
330
1F
100
AcDbEntity
  8
GR1-1
  6
CONTINUOUS
 62
     3
100
AcDbCircle
 10
427.128963
 20
377.965517
 30
0.0
 40
14.0
100
AcDbArc
 50
0.0
 51
90.0
  0
LINE
  5
25B
330
1F
100
AcDbEntity
  8
GR1-1
  6
CONTINUOUS
 62
     3
100
AcDbLine
 10
424.239876
 20
382.854605
 30
0.0
 11
422.739876
 21
381.354605
 31
0.0
  0
ARC
  5
25C
330
1F
100
AcDbEntity
  8
GR1-1
  6
CONTINUOUS
 62
     3
100
AcDbCircle
 10
426.628963
 20
377.465517
 30
0.0
 40
5.5
100
AcDbArc
 50
135.0
 51
315.0
  0
LINE
  5
25D
330
1F
100
AcDbEntity
  8
GR1-1
  6
CONTINUOUS
 62
     3
100
AcDbLine
 10
430.518051
 20
373.57643
 30
0.0
 11
432.018051
 21
375.07643
 31
0.0
  0
ARC
  5
25E
330
1F
100
AcDbEntity
  8
GR1-1
  6
CONTINUOUS
 62
     3
100
AcDbCircle
 10
428.128963
 20
378.965517
 30
0.0
 40
5.5
100
AcDbArc
 50
-45.0
 51
135.0
  0
CIRCLE
  5
25F
330
1F
100
AcDbEntity
  8
GR1-1
  6
CONTINUOUS
 62
     3
100
AcDbCircle
 10
387.128963
 20
337.965517
 30
0.0
 40
20.2
  0
CIRCLE
  5
260
330
1F
100
AcDbEntity
  8
GR1-1
  6
CONTINUOUS
 62
     3
100
AcDbCircle
 10
387.128963
 20
337.965517
 30
0.0
 40
12.9
  0
ARC
  5
261
330
1F
100
AcDbEntity
  8
GR1-1
  6
CONTINUOUS
 62
     3
100
AcDbCircle
 10
426.628963
 20
298.465517
 30
0.0
 40
5.5
100
AcDbArc
 50
45.0
 51
225.0
  0
LINE
  5
262
330
1F
100
AcDbEntity
  8
GR1-1
  6
CONTINUOUS
 62
     3
100
AcDbLine
 10
422.739876
 20
294.57643
 30
0.0
 11
424.239876
 21
293.07643
 31
0.0
  0
ARC
  5
263
330
1F
100
AcDbEntity
  8
GR1-1
  6
CONTINUOUS
 62
     3
100
AcDbCircle
 10
428.128963
 20
296.965517
 30
0.0
 40
5.5
100
AcDbArc
 50
-135.0
 51
45.0
  0
LINE
  5
264
330
1F
100
AcDbEntity
  8
GR1-1
  6
CONTINUOUS
 62
     3
100
AcDbLine
 10
432.018051
 20
300.854605
 30
0.0
 11
430.518051
 21
302.354605
 31
0.0
  0
ARC
  5
265
330
1F
100
AcDbEntity
  8
GR1-1
  6
CONTINUOUS
 62
     3
100
AcDbCircle
 10
347.628963
 20
298.465517
 30
0.0
 40
5.5
100
AcDbArc
 50
-45.0
 51
135.0
  0
LINE
  5
266
330
1F
100
AcDbEntity
  8
GR1-1
  6
CONTINUOUS
 62
     3
100
AcDbLine
 10
343.739876
 20
302.354605
 30
0.0
 11
342.239876
 21
300.854605
 31
0.0
  0
ARC
  5
267
330
1F
100
AcDbEntity
  8
GR1-1
  6
CONTINUOUS
 62
     3
100
AcDbCircle
 10
346.128963
 20
296.965517
 30
0.0
 40
5.5
100
AcDbArc
 50
135.0
 51
315.0
  0
LINE
  5
268
330
1F
100
AcDbEntity
  8
GR1-1
  6
CONTINUOUS
 62
     3
100
AcDbLine
 10
350.018051
 20
293.07643
 30
0.0
 11
351.518051
 21
294.57643
 31
0.0
  0
LINE
  5
269
330
1F
100
AcDbEntity
  8
GR1-1
  6
CONTINUOUS
 62
     3
100
AcDbLine
 10
342.239876
 20
375.07643
 30
0.0
 11
343.739876
 21
373.57643
 31
0.0
  0
ARC
  5
26A
330
1F
100
AcDbEntity
  8
GR1-1
  6
CONTINUOUS
 62
     3
100
AcDbCircle
 10
347.628963
 20
377.465517
 30
0.0
 40
5.5
100
AcDbArc
 50
-135.0
 51
45.0
  0
LINE
  5
26B
330
1F
100
AcDbEntity
  8
GR1-1
  6
CONTINUOUS
 62
     3
100
AcDbLine
 10
351.518051
 20
381.354605
 30
0.0
 11
350.018051
 21
382.854605
 31
0.0
  0
ARC
  5
26C
330
1F
100
AcDbEntity
  8
GR1-1
  6
CONTINUOUS
 62
     3
100
AcDbCircle
 10
346.128963
 20
378.965517
 30
0.0
 40
5.5
100
AcDbArc
 50
45.0
 51
225.0
  0
CIRCLE
  5
26D
330
1F
100
AcDbEntity
  8
GR1-1
  6
CONTINUOUS
 62
     6
100
AcDbCircle
 10
387.128963
 20
337.965517
 30
0.0
 40
36.25
  0
CIRCLE
  5
26E
330
1F
100
AcDbEntity
  8
GR1-1
  6
CONTINUOUS
 62
     6
100
AcDbCircle
 10
387.128963
 20
337.965517
 30
0.0
 40
26.7
  0
CIRCLE
  5
26F
330
1F
100
AcDbEntity
  8
GR1-1
  6
CONTINUOUS
 62
     6
100
AcDbCircle
 10
387.128963
 20
337.965517
 30
0.0
 40
25.0
  0
ARC
  5
270
330
1F
100
AcDbEntity
  8
LAYERGROUP-1
  6
CONTINUOUS
 62
     3
100
AcDbCircle
 10
396.517291
 20
214.528017
 30
0.0
 40
4.762499999999989
100
AcDbArc
 50
46.202032
 51
133.797968
  0
ARC
  5
271
330
1F
100
AcDbEntity
  8
LAYERGROUP-1
  6
CONTINUOUS
 62
     3
100
AcDbCircle
 10
405.046697
 20
214.528017
 30
0.0
 40
4.762499999999989
100
AcDbArc
 50
46.202032
 51
133.797968
  0
ARC
  5
272
330
1F
100
AcDbEntity
  8
LAYERGROUP-1
  6
CONTINUOUS
 62
     3
100
AcDbCircle
 10
411.936838
 20
214.528017
 30
0.0
 40
4.762499999999989
100
AcDbArc
 50
46.202032
 51
133.797968
  0
ARC
  5
273
330
1F
100
AcDbEntity
  8
LAYERGROUP-1
  6
CONTINUOUS
 62
     3
100
AcDbCircle
 10
416.557348
 20
214.528017
 30
0.0
 40
4.762499999999989
100
AcDbArc
 50
46.202032
 51
119.01856
  0
ARC
  5
274
330
1F
100
AcDbEntity
  8
LAYERGROUP-1
  6
CONTINUOUS
 62
     3
100
AcDbCircle
 10
418.485504
 20
214.528017
 30
0.0
 40
4.762499999999989
100
AcDbArc
 50
46.202032
 51
101.679156
  0
LINE
  5
275
330
1F
100
AcDbEntity
  8
GR1-1
  6
CONTINUOUS
 62
     3
100
AcDbLine
 10
441.128963
 20
226.790517
 30
0.0
 11
441.128963
 21
222.790517
 31
0.0
  0
LINE
  5
276
330
1F
100
AcDbEntity
  8
GR1-1
  6
CONTINUOUS
 62
     3
100
AcDbLine
 10
217.027321
 20
222.790517
 30
0.0
 11
109.027321
 21
222.790517
 31
0.0
  0
LINE
  5
277
330
1F
100
AcDbEntity
  8
GR1-1
  6
CONTINUOUS
 62
     3
100
AcDbLine
 10
109.027321
 20
226.790517
 30
0.0
 11
217.027321
 21
226.790517
 31
0.0
  0
LINE
  5
278
330
1F
100
AcDbEntity
  8
GR1-1
  6
CONTINUOUS
 62
     3
100
AcDbLine
 10
217.027321
 20
226.790517
 30
0.0
 11
217.027321
 21
222.790517
 31
0.0
  0
ARC
  5
279
330
1F
100
AcDbEntity
  8
LAYERGROUP-1
  6
CONTINUOUS
 62
     3
100
AcDbCircle
 10
163.027321
 20
214.528017
 30
0.0
 40
4.762499999999989
100
AcDbArc
 50
46.202032
 51
133.797968
  0
ARC
  5
27A
330
1F
100
AcDbEntity
  8
LAYERGROUP-1
  6
CONTINUOUS
 62
     3
100
AcDbCircle
 10
172.415649
 20
214.528017
 30
0.0
 40
4.762499999999989
100
AcDbArc
 50
46.202032
 51
133.797968
  0
ARC
  5
27B
330
1F
100
AcDbEntity
  8
LAYERGROUP-1
  6
CONTINUOUS
 62
     3
100
AcDbCircle
 10
180.945054
 20
214.528017
 30
0.0
 40
4.762499999999989
100
AcDbArc
 50
46.202032
 51
133.797968
  0
ARC
  5
27C
330
1F
100
AcDbEntity
  8
LAYERGROUP-1
  6
CONTINUOUS
 62
     3
100
AcDbCircle
 10
187.835196
 20
214.528017
 30
0.0
 40
4.762499999999989
100
AcDbArc
 50
46.202032
 51
133.797968
  0
ARC
  5
27D
330
1F
100
AcDbEntity
  8
LAYERGROUP-1
  6
CONTINUOUS
 62
     3
100
AcDbCircle
 10
192.455706
 20
214.528017
 30
0.0
 40
4.762499999999989
100
AcDbArc
 50
46.202032
 51
119.01856
  0
ARC
  5
27E
330
1F
100
AcDbEntity
  8
LAYERGROUP-1
  6
CONTINUOUS
 62
     3
100
AcDbCircle
 10
194.383861
 20
214.528017
 30
0.0
 40
4.762499999999989
100
AcDbArc
 50
46.202032
 51
101.679156
  0
ARC
  5
27F
330
1F
100
AcDbEntity
  8
LAYERGROUP-1
  6
CONTINUOUS
 62
     3
100
AcDbCircle
 10
153.638993
 20
214.528017
 30
0.0
 40
4.762499999999989
100
AcDbArc
 50
46.202032
 51
133.797968
  0
ARC
  5
280
330
1F
100
AcDbEntity
  8
LAYERGROUP-1
  6
CONTINUOUS
 62
     3
100
AcDbCircle
 10
145.109587
 20
214.528017
 30
0.0
 40
4.762499999999989
100
AcDbArc
 50
46.202032
 51
133.797968
  0
ARC
  5
281
330
1F
100
AcDbEntity
  8
LAYERGROUP-1
  6
CONTINUOUS
 62
     3
100
AcDbCircle
 10
138.219446
 20
214.528017
 30
0.0
 40
4.762499999999989
100
AcDbArc
 50
46.202032
 51
133.797968
  0
ARC
  5
282
330
1F
100
AcDbEntity
  8
LAYERGROUP-1
  6
CONTINUOUS
 62
     3
100
AcDbCircle
 10
133.598936
 20
214.528017
 30
0.0
 40
4.762499999999989
100
AcDbArc
 50
60.98144
 51
133.797968
  0
ARC
  5
283
330
1F
100
AcDbEntity
  8
LAYERGROUP-1
  6
CONTINUOUS
 62
     3
100
AcDbCircle
 10
131.67078
 20
214.528017
 30
0.0
 40
4.762499999999989
100
AcDbArc
 50
78.320844
 51
133.797968
  0
LINE
  5
284
330
1F
100
AcDbEntity
  8
GR1-1
  6
CONTINUOUS
 62
     3
100
AcDbLine
 10
109.027321
 20
226.790517
 30
0.0
 11
109.027321
 21
222.790517
 31
0.0
  0
LINE
  5
285
330
1F
100
AcDbEntity
  8
GR1-1
  6
CONTINUOUS
 62
     3
100
AcDbLine
 10
331.379644
 20
282.58816
 30
0.0
 11
329.701784
 21
298.551932
 31
0.0
  0
ARC
  5
286
330
1F
100
AcDbEntity
  8
GR1-1
  6
CONTINUOUS
 62
     3
100
AcDbCircle
 10
335.43762
 20
302.078017
 30
0.0
 40
5.812499999999853
100
AcDbArc
 50
227.896551
 51
247.192437
  0
LINE
  5
287
330
1F
100
AcDbEntity
  8
GR1-1
  6
CONTINUOUS
 62
     3
100
AcDbLine
 10
331.540506
 20
297.765517
 30
0.0
 11
331.540506
 21
301.265517
 31
0.0
  0
LINE
  5
288
330
1F
100
AcDbEntity
  8
GR1-1
  6
CONTINUOUS
 62
     3
100
AcDbLine
 10
331.540506
 20
301.265517
 30
0.0
 11
333.128963
 21
301.265517
 31
0.0
  0
LINE
  5
289
330
1F
100
AcDbEntity
  8
GR1-1
  6
CONTINUOUS
 62
     3
100
AcDbLine
 10
333.128963
 20
301.865517
 30
0.0
 11
332.68535
 21
301.865517
 31
0.0
  0
ARC
  5
28A
330
1F
100
AcDbEntity
  8
GR1-1
  6
CONTINUOUS
 62
     3
100
AcDbCircle
 10
332.68535
 20
298.865517
 30
0.0
 40
3.0
100
AcDbArc
 50
90.0
 51
186.0
  0
ARC
  5
28B
330
1F
100
AcDbEntity
  8
GR1-1
  6
CONTINUOUS
 62
     3
100
AcDbCircle
 10
335.680854
 20
299.065517
 30
0.0
 40
6.0
100
AcDbArc
 50
115.170609
 51
186.0
  0
LINE
  5
28C
330
1F
100
AcDbEntity
  8
GR1-1
  6
CONTINUOUS
 62
     3
100
AcDbLine
 10
327.428963
 20
305.065517
 30
0.0
 11
327.428963
 21
308.265517
 31
0.0
  0
LINE
  5
28D
330
1F
100
AcDbEntity
  8
GR1-1
  6
CONTINUOUS
 62
     3
100
AcDbLine
 10
148.027321
 20
193.365517
 30
0.0
 11
178.027321
 21
193.365517
 31
0.0
  0
LINE
  5
28E
330
1F
100
AcDbEntity
  8
GR1-1
  6
CONTINUOUS
 62
     3
100
AcDbLine
 10
145.527321
 20
193.374901
 30
0.0
 11
145.527321
 21
185.187078
 31
0.0
  0
ARC
  5
28F
330
1F
100
AcDbEntity
  8
GR1-1
  6
CONTINUOUS
 62
     3
100
AcDbCircle
 10
146.527321
 20
185.187078
 30
0.0
 40
1.0
100
AcDbArc
 50
180.0
 51
270.0
  0
LINE
  5
290
330
1F
100
AcDbEntity
  8
GR1-1
  6
CONTINUOUS
 62
     3
100
AcDbLine
 10
146.527321
 20
184.187078
 30
0.0
 11
176.527321
 21
184.187078
 31
0.0
  0
ARC
  5
291
330
1F
100
AcDbEntity
  8
GR1-1
  6
CONTINUOUS
 62
     3
100
AcDbCircle
 10
176.527321
 20
185.187078
 30
0.0
 40
1.0
100
AcDbArc
 50
270.0
 51
360.0
  0
LINE
  5
292
330
1F
100
AcDbEntity
  8
GR1-1
  6
CONTINUOUS
 62
     3
100
AcDbLine
 10
177.527321
 20
185.187078
 30
0.0
 11
177.527321
 21
190.187078
 31
0.0
  0
ARC
  5
293
330
1F
100
AcDbEntity
  8
GR1-1
  6
CONTINUOUS
 62
     3
100
AcDbCircle
 10
146.027321
 20
190.687078
 30
0.0
 40
0.5
100
AcDbArc
 50
180.0
 51
270.0
  0
LINE
  5
294
330
1F
100
AcDbEntity
  8
GR1-1
  6
CONTINUOUS
 62
     6
100
AcDbLine
 10
177.527321
 20
193.374901
 30
0.0
 11
177.527321
 21
190.187078
 31
0.0
  0
DIMENSION
  5
295
330
1F
100
AcDbEntity
  8
GR1-1
100
AcDbDimension
  2
*D31
 10
109.098691
 20
179.795513
 30
0.0
 11
108.098694
 21
114.515533
 31
0.0
 70
    33
  3
FXDIMINFO
100
AcDbAlignedDimension
 13
163.027321
 23
49.795521
 33
0.0
 14
163.027321
 24
179.795513
 34
0.0
1001
ACAD
1000
DSTYLE
1002
{
1070
     7
1000
FXTIP_ARROW_E
1070
     6
1000
FXTIP_ARROW_S
1070
   173
1070
     1
1002
}
  0
DIMENSION
  5
29F
330
1F
100
AcDbEntity
  8
GR1-1
100
AcDbDimension
  2
*D32
 10
387.128963
 20
337.965517
 30
0.0
 11
298.852905
 21
307.431244
 31
0.0
 70
   164
  3
FXDIMINFO
100
AcDbRadialDimension
 15
290.943902
 25
303.266528
 35
0.0
 40
0.0
1001
ACAD
1000
DSTYLE
1002
{
1070
     6
1000
FXTIP_ARROW_S
1070
   173
1070
     1
1002
}
  0
ARC
  5
2A6
330
1F
100
AcDbEntity
  8
GR1-1
  6
CONTINUOUS
 62
     7
100
AcDbCircle
 10
387.128963
 20
337.965517
 30
0.0
 40
102.2525596344131
100
AcDbArc
 50
198.33546
 51
223.691383
  0
ARC
  5
2A7
330
1F
100
AcDbEntity
  8
GR1-1
  6
CONTINUOUS
 62
     3
100
AcDbCircle
 10
351.572547
 20
210.965517
 30
0.0
 40
4.0
100
AcDbArc
 50
185.225927
 51
270.0
  0
LINE
  5
2A8
330
1F
100
AcDbEntity
  8
GR1-1
  6
CONTINUOUS
 62
     3
100
AcDbLine
 10
347.589173
 20
210.601184
 30
0.0
 11
346.928963
 21
217.965517
 31
0.0
  0
ARC
  5
2A9
330
1F
100
AcDbEntity
  8
GR1-1
  6
CONTINUOUS
 62
     3
100
AcDbCircle
 10
350.1995
 20
231.290517
 30
0.0
 40
12.0
100
AcDbArc
 50
225.099472
 51
270.0
  0
ARC
  5
2AA
330
1F
100
AcDbEntity
  8
LAYERGROUP-1
  6
CONTINUOUS
 62
     3
100
AcDbCircle
 10
387.128963
 20
214.528017
 30
0.0
 40
4.762499999999989
100
AcDbArc
 50
46.202032
 51
133.797968
  0
ARC
  5
2AB
330
1F
100
AcDbEntity
  8
LAYERGROUP-1
  6
CONTINUOUS
 62
     3
100
AcDbCircle
 10
377.740635
 20
214.528017
 30
0.0
 40
4.762499999999989
100
AcDbArc
 50
46.202032
 51
133.797968
  0
ARC
  5
2AC
330
1F
100
AcDbEntity
  8
LAYERGROUP-1
  6
CONTINUOUS
 62
     3
100
AcDbCircle
 10
369.21123
 20
214.528017
 30
0.0
 40
4.762499999999989
100
AcDbArc
 50
46.202032
 51
133.797968
  0
ARC
  5
2AD
330
1F
100
AcDbEntity
  8
LAYERGROUP-1
  6
CONTINUOUS
 62
     3
100
AcDbCircle
 10
362.321088
 20
214.528017
 30
0.0
 40
4.762499999999989
100
AcDbArc
 50
46.202032
 51
133.797968
  0
ARC
  5
2AE
330
1F
100
AcDbEntity
  8
LAYERGROUP-1
  6
CONTINUOUS
 62
     3
100
AcDbCircle
 10
357.700579
 20
214.528017
 30
0.0
 40
4.762499999999989
100
AcDbArc
 50
60.98144
 51
133.797968
  0
ARC
  5
2AF
330
1F
100
AcDbEntity
  8
LAYERGROUP-1
  6
CONTINUOUS
 62
     3
100
AcDbCircle
 10
355.772423
 20
214.528017
 30
0.0
 40
4.762499999999989
100
AcDbArc
 50
78.320844
 51
133.797968
  0
LINE
  5
2B0
330
1F
100
AcDbEntity
  8
GR1-1
  6
CONTINUOUS
 62
     3
100
AcDbLine
 10
333.128963
 20
226.790517
 30
0.0
 11
333.128963
 21
222.790517
 31
0.0
  0
LINE
  5
2B1
330
1F
100
AcDbEntity
  8
GR1-1
  6
CONTINUOUS
 62
     3
100
AcDbLine
 10
137.027321
 20
124.7919
 30
0.0
 11
136.527321
 21
124.7919
 31
0.0
  0
LINE
  5
2B2
330
1F
100
AcDbEntity
  8
GR1-1
  6
CONTINUOUS
 62
     3
100
AcDbLine
 10
136.527321
 20
104.7919
 30
0.0
 11
137.027321
 21
104.7919
 31
0.0
  0
LINE
  5
2B3
330
1F
100
AcDbEntity
  8
GR1-1
  6
CONTINUOUS
 62
     3
100
AcDbLine
 10
189.027321
 20
124.7919
 30
0.0
 11
189.527321
 21
124.7919
 31
0.0
  0
LINE
  5
2B4
330
1F
100
AcDbEntity
  8
GR1-1
  6
CONTINUOUS
 62
     3
100
AcDbLine
 10
189.527321
 20
104.7919
 30
0.0
 11
189.027321
 21
104.7919
 31
0.0
  0
LINE
  5
2B5
330
1F
100
AcDbEntity
  8
}}ﾊﾊGG血CCТ
  6
CENTER
 62
     6
100
AcDbLine
 10
428.128963
 20
229.475265
 30
0.0
 11
428.128963
 21
218.710921
 31
0.0
  0
LINE
  5
2B6
330
1F
100
AcDbEntity
  8
}}ﾊﾊGG血CCТ
  6
CENTER
 62
     6
100
AcDbLine
 10
426.628963
 20
229.475265
 30
0.0
 11
426.628963
 21
218.710921
 31
0.0
  0
LINE
  5
2B7
330
1F
100
AcDbEntity
  8
}}ﾊﾊGG血CCТ
  6
CENTER
 62
     6
100
AcDbLine
 10
346.128963
 20
229.475265
 30
0.0
 11
346.128963
 21
218.710921
 31
0.0
  0
LINE
  5
2B8
330
1F
100
AcDbEntity
  8
}}ﾊﾊGG血CCТ
  6
CENTER
 62
     6
100
AcDbLine
 10
347.628963
 20
229.475265
 30
0.0
 11
347.628963
 21
218.710921
 31
0.0
  0
LINE
  5
2B9
330
1F
100
AcDbEntity
  8
}}ﾊﾊGG血CCТ
  6
CENTER
 62
     6
100
AcDbLine
 10
204.027321
 20
229.475265
 30
0.0
 11
204.027321
 21
218.710921
 31
0.0
  0
LINE
  5
2BA
330
1F
100
AcDbEntity
  8
}}ﾊﾊGG血CCТ
  6
CENTER
 62
     6
100
AcDbLine
 10
202.527321
 20
229.475265
 30
0.0
 11
202.527321
 21
218.710921
 31
0.0
  0
LINE
  5
2BB
330
1F
100
AcDbEntity
  8
}}ﾊﾊGG血CCТ
  6
CENTER
 62
     6
100
AcDbLine
 10
122.027321
 20
229.475265
 30
0.0
 11
122.027321
 21
218.710921
 31
0.0
  0
LINE
  5
2BC
330
1F
100
AcDbEntity
  8
}}ﾊﾊGG血CCТ
  6
CENTER
 62
     6
100
AcDbLine
 10
123.527321
 20
229.475265
 30
0.0
 11
123.527321
 21
218.710921
 31
0.0
  0
LINE
  5
2BD
330
1F
100
AcDbEntity
  8
GR1-1
  6
CENTER
 62
     6
100
AcDbLine
 10
419.942806
 20
377.465517
 30
0.0
 11
434.066538
 21
377.465517
 31
0.0
  0
LINE
  5
2BE
330
1F
100
AcDbEntity
  8
GR1-1
  6
CENTER
 62
     6
100
AcDbLine
 10
428.128963
 20
371.431913
 30
0.0
 11
428.128963
 21
385.599507
 31
0.0
  0
LINE
  5
2BF
330
1F
100
AcDbEntity
  8
GR1-1
  6
CENTER
 62
     6
100
AcDbLine
 10
420.162119
 20
378.965517
 30
0.0
 11
435.163101
 21
378.965517
 31
0.0
  0
LINE
  5
2C0
330
1F
100
AcDbEntity
  8
GR1-1
  6
CENTER
 62
     6
100
AcDbLine
 10
426.628963
 20
371.081013
 30
0.0
 11
426.628963
 21
385.380195
 31
0.0
  0
LINE
  5
2C1
330
1F
100
AcDbEntity
  8
GR1-1
  6
CENTER
 62
     6
100
AcDbLine
 10
354.315121
 20
377.465517
 30
0.0
 11
340.191389
 21
377.465517
 31
0.0
  0
LINE
  5
2C2
330
1F
100
AcDbEntity
  8
GR1-1
  6
CENTER
 62
     6
100
AcDbLine
 10
346.128963
 20
371.431913
 30
0.0
 11
346.128963
 21
385.599507
 31
0.0
  0
LINE
  5
2C3
330
1F
100
AcDbEntity
  8
GR1-1
  6
CENTER
 62
     6
100
AcDbLine
 10
354.095808
 20
378.965517
 30
0.0
 11
339.094826
 21
378.965517
 31
0.0
  0
LINE
  5
2C4
330
1F
100
AcDbEntity
  8
GR1-1
  6
CENTER
 62
     6
100
AcDbLine
 10
347.628963
 20
371.081013
 30
0.0
 11
347.628963
 21
385.380195
 31
0.0
  0
LINE
  5
2C5
330
1F
100
AcDbEntity
  8
GR1-1
  6
CENTER
 62
     6
100
AcDbLine
 10
419.942806
 20
298.465517
 30
0.0
 11
434.066538
 21
298.465517
 31
0.0
  0
LINE
  5
2C6
330
1F
100
AcDbEntity
  8
GR1-1
  6
CENTER
 62
     6
100
AcDbLine
 10
428.128963
 20
304.499122
 30
0.0
 11
428.128963
 21
290.331527
 31
0.0
  0
LINE
  5
2C7
330
1F
100
AcDbEntity
  8
GR1-1
  6
CENTER
 62
     6
100
AcDbLine
 10
420.162119
 20
296.965517
 30
0.0
 11
435.163101
 21
296.965517
 31
0.0
  0
LINE
  5
2C8
330
1F
100
AcDbEntity
  8
GR1-1
  6
CENTER
 62
     6
100
AcDbLine
 10
426.628963
 20
304.850022
 30
0.0
 11
426.628963
 21
290.55084
 31
0.0
  0
LINE
  5
2C9
330
1F
100
AcDbEntity
  8
GR1-1
  6
CENTER
 62
     6
100
AcDbLine
 10
354.315121
 20
298.465517
 30
0.0
 11
340.191389
 21
298.465517
 31
0.0
  0
LINE
  5
2CA
330
1F
100
AcDbEntity
  8
GR1-1
  6
CENTER
 62
     6
100
AcDbLine
 10
346.128963
 20
304.499122
 30
0.0
 11
346.128963
 21
290.331527
 31
0.0
  0
LINE
  5
2CB
330
1F
100
AcDbEntity
  8
GR1-1
  6
CENTER
 62
     6
100
AcDbLine
 10
354.095808
 20
296.965517
 30
0.0
 11
339.094826
 21
296.965517
 31
0.0
  0
LINE
  5
2CC
330
1F
100
AcDbEntity
  8
GR1-1
  6
CENTER
 62
     6
100
AcDbLine
 10
347.628963
 20
304.850022
 30
0.0
 11
347.628963
 21
290.55084
 31
0.0
  0
ARC
  5
2CD
330
1F
100
AcDbEntity
  8
GR1-1
  6
CONTINUOUS
 62
     3
100
AcDbCircle
 10
303.783012
 20
301.454947
 30
0.0
 40
4.088293079563504
100
AcDbArc
 50
117.97546
 51
174.236307
  0
LINE
  5
2CE
330
1F
100
AcDbEntity
  8
GR1-1
  6
CONTINUOUS
 62
     3
100
AcDbLine
 10
299.715387
 20
301.865517
 30
0.0
 11
302.595893
 21
281.369652
 31
0.0
  0
ARC
  5
2CF
330
1F
100
AcDbEntity
  8
GR1-1
  6
CONTINUOUS
 62
     3
100
AcDbCircle
 10
307.547233
 20
282.065517
 30
0.0
 40
5.0
100
AcDbArc
 50
188.0
 51
270.0
  0
LINE
  5
2D0
330
1F
100
AcDbEntity
  8
GR1-1
  6
CONTINUOUS
 62
     3
100
AcDbLine
 10
307.547233
 20
277.065517
 30
0.0
 11
326.407035
 21
277.065517
 31
0.0
  0
ARC
  5
2D1
330
1F
100
AcDbEntity
  8
GR1-1
  6
CONTINUOUS
 62
     3
100
AcDbCircle
 10
326.407035
 20
282.065517
 30
0.0
 40
5.0
100
AcDbArc
 50
-90.0
 51
6.0
  0
LINE
  5
2D2
330
1F
100
AcDbEntity
  8
GR1-1
  6
CONTINUOUS
 62
     3
100
AcDbLine
 10
331.379644
 20
282.58816
 30
0.0
 11
329.701784
 21
298.551932
 31
0.0
  0
ARC
  5
2D3
330
1F
100
AcDbEntity
  8
GR1-1
  6
CONTINUOUS
 62
     3
100
AcDbCircle
 10
332.68535
 20
298.865517
 30
0.0
 40
3.0
100
AcDbArc
 50
90.0
 51
186.0
  0
LINE
  5
2D4
330
1F
100
AcDbEntity
  8
GR1-1
  6
CONTINUOUS
 62
     3
100
AcDbLine
 10
379.822951
 20
281.957248
 30
0.0
 11
379.822951
 21
277.565517
 31
0.0
  0
ARC
  5
2D5
330
1F
100
AcDbEntity
  8
GR1-1
  6
CONTINUOUS
 62
     3
100
AcDbCircle
 10
384.822951
 20
277.565517
 30
0.0
 40
5.0
100
AcDbArc
 50
180.0
 51
270.0
  0
LINE
  5
2D6
330
1F
100
AcDbEntity
  8
GR1-1
  6
CONTINUOUS
 62
     3
100
AcDbLine
 10
384.822951
 20
272.565517
 30
0.0
 11
404.583029
 21
272.565517
 31
0.0
  0
ARC
  5
2D7
330
1F
100
AcDbEntity
  8
GR1-1
  6
CONTINUOUS
 62
     3
100
AcDbCircle
 10
404.583029
 20
277.565517
 30
0.0
 40
5.0
100
AcDbArc
 50
270.0
 51
354.0
  0
LINE
  5
2D8
330
1F
100
AcDbEntity
  8
GR1-1
  6
CONTINUOUS
 62
     3
100
AcDbLine
 10
409.555638
 20
277.042875
 30
0.0
 11
410.283237
 21
283.965517
 31
0.0
  0
ARC
  5
2D9
330
1F
100
AcDbEntity
  8
GR1-1
  6
CONTINUOUS
 62
     3
100
AcDbCircle
 10
369.944125
 20
281.857248
 30
0.0
 40
12.0
100
AcDbArc
 50
0.0
 51
10.118764
  0
ARC
  5
2DA
330
1F
100
AcDbEntity
  8
GR1-1
  6
CONTINUOUS
 62
     3
100
AcDbCircle
 10
369.944125
 20
281.857248
 30
0.0
 40
9.878830000000001
100
AcDbArc
 50
0.0
 51
12.322431
  0
LINE
  5
2DB
330
1F
100
AcDbEntity
  8
GR1-1
  6
CONTINUOUS
 62
     3
100
AcDbLine
 10
381.944125
 20
281.857248
 30
0.0
 11
381.944125
 21
277.565517
 31
0.0
  0
ARC
  5
2DC
330
1F
100
AcDbEntity
  8
GR1-1
  6
CONTINUOUS
 62
     3
100
AcDbCircle
 10
386.944125
 20
277.565517
 30
0.0
 40
5.0
100
AcDbArc
 50
180.0
 51
270.0
  0
ARC
  5
2DD
330
1F
100
AcDbEntity
  8
GR1-1
  6
CONTINUOUS
 62
     3
100
AcDbCircle
 10
304.914282
 20
302.576315
 30
0.0
 40
3.936102064724309
100
AcDbArc
 50
140.772379
 51
190.403792
  0
LINE
  5
2DE
330
1F
100
AcDbEntity
  8
GR1-1
  6
CONTINUOUS
 62
     3
100
AcDbLine
 10
301.042891
 20
301.865517
 30
0.0
 11
303.923397
 21
281.369652
 31
0.0
  0
ARC
  5
2DF
330
1F
100
AcDbEntity
  8
GR1-1
  6
CONTINUOUS
 62
     3
100
AcDbCircle
 10
308.874738
 20
282.065517
 30
0.0
 40
5.0
100
AcDbArc
 50
188.0
 51
270.0
  0
LINE
  5
2E0
330
1F
100
AcDbEntity
  8
GR1-1
  6
CONTINUOUS
 62
     6
100
AcDbLine
 10
307.467173
 20
282.442147
 30
0.0
 11
307.467173
 21
295.733683
 31
0.0
  0
LINE
  5
2E1
330
1F
100
AcDbEntity
  8
GR1-1
  6
CONTINUOUS
 62
     6
100
AcDbLine
 10
310.220437
 20
295.696122
 30
0.0
 11
310.220437
 21
295.065517
 31
0.0
  0
LINE
  5
2E2
330
1F
100
AcDbEntity
  8
GR1-1
  6
CONTINUOUS
 62
     6
100
AcDbLine
 10
310.220437
 20
295.065517
 30
0.0
 11
314.226965
 21
295.065517
 31
0.0
  0
ARC
  5
2E3
330
1F
100
AcDbEntity
  8
GR1-1
  6
CONTINUOUS
 62
     6
100
AcDbCircle
 10
314.226965
 20
293.565517
 30
0.0
 40
1.499999999999972
100
AcDbArc
 50
-90.0
 51
90.0
  0
LINE
  5
2E4
330
1F
100
AcDbEntity
  8
GR1-1
  6
CONTINUOUS
 62
     6
100
AcDbLine
 10
314.226965
 20
292.065517
 30
0.0
 11
310.220437
 21
292.065517
 31
0.0
  0
LINE
  5
2E5
330
1F
100
AcDbEntity
  8
GR1-1
  6
CONTINUOUS
 62
     6
100
AcDbLine
 10
310.220437
 20
292.065517
 30
0.0
 11
310.220437
 21
290.065517
 31
0.0
  0
LINE
  5
2E6
330
1F
100
AcDbEntity
  8
GR1-1
  6
CONTINUOUS
 62
     6
100
AcDbLine
 10
310.220437
 20
290.065517
 30
0.0
 11
319.733493
 21
290.065517
 31
0.0
  0
ARC
  5
2E7
330
1F
100
AcDbEntity
  8
GR1-1
  6
CONTINUOUS
 62
     6
100
AcDbCircle
 10
319.733493
 20
288.565517
 30
0.0
 40
1.499999999999972
100
AcDbArc
 50
-90.0
 51
90.0
  0
LINE
  5
2E8
330
1F
100
AcDbEntity
  8
GR1-1
  6
CONTINUOUS
 62
     6
100
AcDbLine
 10
319.733493
 20
287.065517
 30
0.0
 11
319.397984
 21
287.065517
 31
0.0
  0
LINE
  5
2E9
330
1F
100
AcDbEntity
  8
GR1-1
  6
CONTINUOUS
 62
     6
100
AcDbLine
 10
319.397984
 20
287.065517
 30
0.0
 11
319.397984
 21
284.442147
 31
0.0
  0
ARC
  5
2EA
330
1F
100
AcDbEntity
  8
GR1-1
  6
CONTINUOUS
 62
     6
100
AcDbCircle
 10
318.021354
 20
284.442147
 30
0.0
 40
1.376630000000034
100
AcDbArc
 50
180.0
 51
360.0
  0
LINE
  5
2EB
330
1F
100
AcDbEntity
  8
GR1-1
  6
CONTINUOUS
 62
     6
100
AcDbLine
 10
316.64472
 20
284.442147
 30
0.0
 11
316.64472
 21
287.065517
 31
0.0
  0
LINE
  5
2EC
330
1F
100
AcDbEntity
  8
GR1-1
  6
CONTINUOUS
 62
     6
100
AcDbLine
 10
316.64472
 20
287.065517
 30
0.0
 11
310.220437
 21
287.065517
 31
0.0
  0
LINE
  5
2ED
330
1F
100
AcDbEntity
  8
GR1-1
  6
CONTINUOUS
 62
     6
100
AcDbLine
 10
310.220437
 20
287.065517
 30
0.0
 11
310.220437
 21
282.442147
 31
0.0
  0
ARC
  5
2EE
330
1F
100
AcDbEntity
  8
GR1-1
  6
CONTINUOUS
 62
     6
100
AcDbCircle
 10
308.843807
 20
282.442147
 30
0.0
 40
1.376630000000034
100
AcDbArc
 50
180.0
 51
360.0
  0
ARC
  5
2EF
330
1F
100
AcDbEntity
  8
GR1-1
  6
CONTINUOUS
 62
     6
100
AcDbCircle
 10
308.843807
 20
295.688887
 30
0.0
 40
1.376630000000034
100
AcDbArc
 50
0.0
 51
180.0
  0
LINE
  5
2F0
330
1F
100
AcDbEntity
  8
GR1-1
  6
CONTINUOUS
 62
     6
100
AcDbLine
 10
387.271023
 20
283.965517
 30
0.0
 11
387.271023
 21
277.993977
 31
0.0
  0
ARC
  5
2F1
330
1F
100
AcDbEntity
  8
GR1-1
  6
CONTINUOUS
 62
     6
100
AcDbCircle
 10
388.699483
 20
277.993977
 30
0.0
 40
1.428459999999973
100
AcDbArc
 50
180.0
 51
360.0
  0
LINE
  5
2F2
330
1F
100
AcDbEntity
  8
GR1-1
  6
CONTINUOUS
 62
     6
100
AcDbLine
 10
390.127943
 20
277.993977
 30
0.0
 11
390.127949
 21
283.965517
 31
0.0
  0
LINE
  5
2F3
330
1F
100
AcDbEntity
  8
GR1-1
  6
CONTINUOUS
 62
     6
100
AcDbLine
 10
392.984902
 20
283.965517
 30
0.0
 11
392.984902
 21
277.993977
 31
0.0
  0
ARC
  5
2F4
330
1F
100
AcDbEntity
  8
GR1-1
  6
CONTINUOUS
 62
     6
100
AcDbCircle
 10
394.413362
 20
277.993977
 30
0.0
 40
1.428459999999973
100
AcDbArc
 50
180.0
 51
360.0
  0
LINE
  5
2F5
330
1F
100
AcDbEntity
  8
GR1-1
  6
CONTINUOUS
 62
     6
100
AcDbLine
 10
395.841822
 20
277.993977
 30
0.0
 11
395.841827
 21
283.965517
 31
0.0
  0
LINE
  5
2F6
330
1F
100
AcDbEntity
  8
GR1-1
  6
CONTINUOUS
 62
     6
100
AcDbLine
 10
398.698781
 20
283.965517
 30
0.0
 11
398.698781
 21
277.993977
 31
0.0
  0
ARC
  5
2F7
330
1F
100
AcDbEntity
  8
GR1-1
  6
CONTINUOUS
 62
     6
100
AcDbCircle
 10
400.127241
 20
277.993977
 30
0.0
 40
1.428459999999973
100
AcDbArc
 50
180.0
 51
360.0
  0
LINE
  5
2F8
330
1F
100
AcDbEntity
  8
GR1-1
  6
CONTINUOUS
 62
     6
100
AcDbLine
 10
401.555701
 20
277.993977
 30
0.0
 11
401.555706
 21
283.965517
 31
0.0
  0
LINE
  5
2F9
330
1F
100
AcDbEntity
  8
GR1-1
  6
CONTINUOUS
 62
     6
100
AcDbLine
 10
404.41266
 20
283.965517
 30
0.0
 11
404.41266
 21
277.993977
 31
0.0
  0
ARC
  5
2FA
330
1F
100
AcDbEntity
  8
GR1-1
  6
CONTINUOUS
 62
     6
100
AcDbCircle
 10
405.84112
 20
277.993977
 30
0.0
 40
1.428459999999973
100
AcDbArc
 50
180.0
 51
360.0
  0
LINE
  5
2FB
330
1F
100
AcDbEntity
  8
GR1-1
  6
CONTINUOUS
 62
     6
100
AcDbLine
 10
407.26958
 20
277.993977
 30
0.0
 11
407.269585
 21
283.965517
 31
0.0
  0
DIMENSION
  5
2FC
330
1F
100
AcDbEntity
  8
GR1-1
100
AcDbDimension
  2
*D33
 10
331.556683
 20
401.315972
 30
0.0
 11
326.960449
 21
398.134003
 31
0.0
 70
    33
  3
FXDIMINFO
100
AcDbAlignedDimension
 13
342.239876
 23
375.07643
 33
0.0
 14
350.018051
 24
382.854605
 34
0.0
1001
ACAD
1000
DSTYLE
1002
{
1070
     7
1000
FXTIP_ARROW_E
1070
     6
1000
FXTIP_ARROW_S
1070
   173
1070
     1
1002
}
  0
INSERT
  5
309
330
1F
100
AcDbEntity
  8
0
100
AcDbBlockReference
  2
BLKF036
 10
0.0
 20
0.0
 30
0.0
  0
DIMENSION
  5
338
330
1F
100
AcDbEntity
  8
LAYERGROUP-1
100
AcDbDimension
  2
*D35
 10
181.027321
 20
38.425733
 30
0.0
 11
163.027328
 21
39.425751
 31
0.0
 70
    33
  3
FXDIMINFO
100
AcDbAlignedDimension
 13
145.027321
 23
63.295517
 33
0.0
 14
181.027321
 24
63.295517
 34
0.0
1001
ACAD
1000
DSTYLE
1002
{
1070
     7
1000
FXTIP_ARROW_E
1070
     6
1000
FXTIP_ARROW_S
1070
   173
1070
     1
1002
}
  0
DIMENSION
  5
342
330
1F
100
AcDbEntity
  8
LAYERGROUP-1
100
AcDbDimension
  2
*D36
 10
189.027321
 20
24.424463
 30
0.0
 11
163.027328
 21
25.4245
 31
0.0
 70
    33
  3
FXDIMINFO
100
AcDbAlignedDimension
 13
137.027321
 23
100.795517
 33
0.0
 14
189.027321
 24
100.795517
 34
0.0
1001
ACAD
1000
DSTYLE
1002
{
1070
     7
1000
FXTIP_ARROW_E
1070
     6
1000
FXTIP_ARROW_S
1070
   173
1070
     1
1002
}
  0
LINE
  5
34C
330
1F
100
AcDbEntity
  8
LAYERGROUP-1
  6
CONTINUOUS
 62
     3
100
AcDbLine
 10
317.760561
 20
314.965517
 30
0.0
 11
333.128963
 21
314.965517
 31
0.0
  0
LINE
  5
34D
330
1F
100
AcDbEntity
  8
LAYERGROUP-1
  6
CONTINUOUS
 62
     3
100
AcDbLine
 10
332.628963
 20
312.465517
 30
0.0
 11
332.628963
 21
314.965517
 31
0.0
  0
LINE
  5
34E
330
1F
100
AcDbEntity
  8
LAYERGROUP-1
  6
CONTINUOUS
 62
     3
100
AcDbLine
 10
333.128963
 20
311.965517
 30
0.0
 11
332.628963
 21
312.465517
 31
0.0
  0
ARC
  5
34F
330
1F
100
AcDbEntity
  8
LAYERGROUP-1
  6
CONTINUOUS
 62
     3
100
AcDbCircle
 10
317.760561
 20
317.965517
 30
0.0
 40
3.0
100
AcDbArc
 50
222.088291
 51
270.0
  0
LINE
  5
350
330
1F
100
AcDbEntity
  8
LAYERGROUP-1
  6
CONTINUOUS
 62
     3
100
AcDbLine
 10
311.095357
 20
319.965517
 30
0.0
 11
315.534222
 21
315.954692
 31
0.0
  0
LINE
  5
351
330
1F
100
AcDbEntity
  8
GR1-1
  6
CONTINUOUS
 62
     3
100
AcDbLine
 10
282.128963
 20
348.748639
 30
0.0
 11
282.128963
 21
327.182396
 31
0.0
  0
ARC
  5
352
330
1F
100
AcDbEntity
  8
GR1-1
  6
CONTINUOUS
 62
     3
100
AcDbCircle
 10
284.128963
 20
327.182396
 30
0.0
 40
2.0
100
AcDbArc
 50
180.0
 51
240.0
  0
LINE
  5
353
330
1F
100
AcDbEntity
  8
GR1-1
  6
CONTINUOUS
 62
     3
100
AcDbLine
 10
283.128963
 20
325.450345
 30
0.0
 11
292.628963
 21
319.965517
 31
0.0
  0
LINE
  5
354
330
1F
100
AcDbEntity
  8
LAYERGROUP-1
  6
CONTINUOUS
 62
     3
100
AcDbLine
 10
333.128963
 20
319.965517
 30
0.0
 11
292.628963
 21
319.965517
 31
0.0
  0
LINE
  5
355
330
1F
100
AcDbEntity
  8
LAYERGROUP-1
  6
CONTINUOUS
 62
     6
100
AcDbLine
 10
332.628963
 20
312.465517
 30
0.0
 11
333.128963
 21
312.465517
 31
0.0
  0
LINE
  5
356
330
1F
100
AcDbEntity
  8
GR1-1
  6
CONTINUOUS
 62
     6
100
AcDbLine
 10
282.789565
 20
325.69713
 30
0.0
 11
333.128963
 21
325.69713
 31
0.0
  0
LINE
  5
357
330
1F
100
AcDbEntity
  8
LAYERGROUP-1
  6
CONTINUOUS
 62
     3
100
AcDbLine
 10
317.760561
 20
360.965517
 30
0.0
 11
333.128963
 21
360.965517
 31
0.0
  0
LINE
  5
358
330
1F
100
AcDbEntity
  8
LAYERGROUP-1
  6
CONTINUOUS
 62
     3
100
AcDbLine
 10
332.628963
 20
363.465517
 30
0.0
 11
332.628963
 21
360.965517
 31
0.0
  0
LINE
  5
359
330
1F
100
AcDbEntity
  8
LAYERGROUP-1
  6
CONTINUOUS
 62
     3
100
AcDbLine
 10
333.128963
 20
363.965517
 30
0.0
 11
332.628963
 21
363.465517
 31
0.0
  0
ARC
  5
35A
330
1F
100
AcDbEntity
  8
LAYERGROUP-1
  6
CONTINUOUS
 62
     3
100
AcDbCircle
 10
317.760561
 20
357.965517
 30
0.0
 40
3.0
100
AcDbArc
 50
90.0
 51
137.911709
  0
LINE
  5
35B
330
1F
100
AcDbEntity
  8
LAYERGROUP-1
  6
CONTINUOUS
 62
     3
100
AcDbLine
 10
311.095357
 20
355.965517
 30
0.0
 11
315.534222
 21
359.976342
 31
0.0
  0
ARC
  5
35C
330
1F
100
AcDbEntity
  8
GR1-1
  6
CONTINUOUS
 62
     3
100
AcDbCircle
 10
284.128963
 20
348.748639
 30
0.0
 40
2.0
100
AcDbArc
 50
120.0
 51
180.0
  0
LINE
  5
35D
330
1F
100
AcDbEntity
  8
GR1-1
  6
CONTINUOUS
 62
     3
100
AcDbLine
 10
283.128963
 20
350.48069
 30
0.0
 11
292.628963
 21
355.965517
 31
0.0
  0
LINE
  5
35E
330
1F
100
AcDbEntity
  8
LAYERGROUP-1
  6
CONTINUOUS
 62
     3
100
AcDbLine
 10
333.128963
 20
355.965517
 30
0.0
 11
292.628963
 21
355.965517
 31
0.0
  0
LINE
  5
35F
330
1F
100
AcDbEntity
  8
LAYERGROUP-1
  6
CONTINUOUS
 62
     6
100
AcDbLine
 10
332.628963
 20
363.465517
 30
0.0
 11
333.128963
 21
363.465517
 31
0.0
  0
LINE
  5
360
330
1F
100
AcDbEntity
  8
GR1-1
  6
CONTINUOUS
 62
     6
100
AcDbLine
 10
282.789565
 20
350.233904
 30
0.0
 11
333.128963
 21
350.233904
 31
0.0
  0
TEXT
  5
361
330
1F
100
AcDbEntity
  8
GR1-1
  6
CONTINUOUS
 62
     7
100
AcDbText
 10
333.477905
 20
84.232666
 30
0.0
 40
6.066293
  1
1
 50
151.967178
 41
1.408996
  7
FX_VECTOR
 72
     5
 11
329.525976
 21
86.336849
 31
0.0
100
AcDbText
  0
TEXT
  5
362
330
1F
100
AcDbEntity
  8
GR1-1
  6
CONTINUOUS
 62
     7
100
AcDbText
 10
325.999023
 20
88.847382
 30
0.0
 40
5.999599
  1
0
 50
136.967178
 41
0.967774
  7
FX_VECTOR
 72
     5
 11
322.563276
 21
92.05495
 31
0.0
100
AcDbText
  0
TEXT
  5
363
330
1F
100
AcDbEntity
  8
GR1-1
  6
CONTINUOUS
 62
     7
100
AcDbText
 10
322.091858
 20
92.759399
 30
0.0
 40
6.071067
  1
X
 50
127.967178
 41
0.899381
  7
FX_VECTOR
 72
     5
 11
319.372529
 21
96.244094
 31
0.0
100
AcDbText
  0
TEXT
  5
364
330
1F
100
AcDbEntity
  8
GR1-1
  6
CONTINUOUS
 62
     7
100
AcDbText
 10
318.36084
 20
97.694427
 30
0.0
 40
6.035253
  1
3
 50
116.967178
 41
0.940899
  7
FX_VECTOR
 72
     5
 11
316.276224
 21
101.791518
 31
0.0
100
AcDbText
  0
TEXT
  5
365
330
1F
100
AcDbEntity
  8
GR1-1
  6
CONTINUOUS
 62
     7
100
AcDbText
 10
315.934448
 20
102.551331
 30
0.0
 40
5.978302
  1
6
 50
107.967178
 41
0.895278
  7
FX_VECTOR
 72
     5
 11
314.59791
 21
106.672804
 31
0.0
100
AcDbText
  0
TEXT
  5
366
330
1F
100
AcDbEntity
  8
GR1-1
  6
CONTINUOUS
 62
     7
100
AcDbText
 10
330.302429
 20
85.934937
 30
0.0
 40
6.11681
  1
3
 50
145.967178
 41
0.944062
  7
FX_VECTOR
 72
     5
 11
326.428412
 21
88.551224
 31
0.0
100
AcDbText
  0
LINE
  5
367
330
1F
100
AcDbEntity
  8
GR1-1
  6
CONTINUOUS
 62
     7
100
AcDbLine
 10
340.76971
 20
76.236343
 30
0.0
 11
335.898505
 21
77.363889
 31
0.0
  0
LINE
  5
368
330
1F
100
AcDbEntity
  8
GR1-1
  6
CONTINUOUS
 62
     7
100
AcDbLine
 10
335.898505
 20
77.363889
 30
0.0
 11
337.026051
 21
82.235094
 31
0.0
  0
LINE
  5
369
330
1F
100
AcDbEntity
  8
GR1-1
  6
CONTINUOUS
 62
     7
100
AcDbLine
 10
337.026051
 20
82.235094
 30
0.0
 11
341.897256
 21
81.107549
 31
0.0
  0
LINE
  5
36A
330
1F
100
AcDbEntity
  8
GR1-1
  6
CONTINUOUS
 62
     7
100
AcDbLine
 10
341.897256
 20
81.107549
 30
0.0
 11
340.76971
 21
76.236343
 31
0.0
  0
LINE
  5
36B
330
1F
100
AcDbEntity
  8
GR1-1
  6
CONTINUOUS
 62
     7
100
AcDbLine
 10
338.36635
 20
76.93941
 30
0.0
 11
341.194189
 21
78.704189
 31
0.0
  0
LINE
  5
36C
330
1F
100
AcDbEntity
  8
GR1-1
  6
CONTINUOUS
 62
     7
100
AcDbLine
 10
341.194189
 20
78.704189
 30
0.0
 11
339.429411
 21
81.532027
 31
0.0
  0
LINE
  5
36D
330
1F
100
AcDbEntity
  8
GR1-1
  6
CONTINUOUS
 62
     7
100
AcDbLine
 10
339.429411
 20
81.532027
 30
0.0
 11
337.772039
 21
80.497706
 31
0.0
  0
LINE
  5
36E
330
1F
100
AcDbEntity
  8
GR1-1
  6
CONTINUOUS
 62
     7
100
AcDbLine
 10
337.646733
 20
80.587194
 30
0.0
 11
337.793859
 21
81.222805
 31
0.0
  0
LINE
  5
36F
330
1F
100
AcDbEntity
  8
GR1-1
  6
CONTINUOUS
 62
     7
100
AcDbLine
 10
337.793859
 20
81.222805
 30
0.0
 11
336.981991
 21
81.410729
 31
0.0
  0
LINE
  5
370
330
1F
100
AcDbEntity
  8
GR1-1
  6
CONTINUOUS
 62
     7
100
AcDbLine
 10
336.981991
 20
81.410729
 30
0.0
 11
336.601572
 21
79.767249
 31
0.0
  0
LINE
  5
371
330
1F
100
AcDbEntity
  8
GR1-1
  6
CONTINUOUS
 62
     7
100
AcDbLine
 10
336.601572
 20
79.767249
 30
0.0
 11
338.897881
 21
79.235719
 31
0.0
  0
LINE
  5
372
330
1F
100
AcDbEntity
  8
GR1-1
  6
CONTINUOUS
 62
     7
100
AcDbLine
 10
338.897881
 20
79.235719
 30
0.0
 11
338.991843
 21
79.641652
 31
0.0
  0
LINE
  5
373
330
1F
100
AcDbEntity
  8
GR1-1
  6
CONTINUOUS
 62
     7
100
AcDbLine
 10
338.991843
 20
79.641652
 30
0.0
 11
338.445624
 21
79.768086
 31
0.0
  0
ARC
  5
374
330
1F
100
AcDbEntity
  8
GR1-1
  6
CONTINUOUS
 62
     7
100
AcDbCircle
 10
338.464417
 20
79.849273
 30
0.0
 40
0.083333333333325
100
AcDbArc
 50
121.967182
 51
256.967182
  0
LINE
  5
375
330
1F
100
AcDbEntity
  8
GR1-1
  6
CONTINUOUS
 62
     7
100
AcDbLine
 10
338.420297
 20
79.919969
 30
0.0
 11
339.163646
 21
80.383873
 31
0.0
  0
LINE
  5
376
330
1F
100
AcDbEntity
  8
GR1-1
  6
CONTINUOUS
 62
     7
100
AcDbLine
 10
339.163646
 20
80.383873
 30
0.0
 11
340.046035
 21
78.969954
 31
0.0
  0
LINE
  5
377
330
1F
100
AcDbEntity
  8
GR1-1
  6
CONTINUOUS
 62
     7
100
AcDbLine
 10
340.046035
 20
78.969954
 30
0.0
 11
338.632115
 21
78.087565
 31
0.0
  0
LINE
  5
378
330
1F
100
AcDbEntity
  8
GR1-1
  6
CONTINUOUS
 62
     7
100
AcDbLine
 10
338.632115
 20
78.087565
 30
0.0
 11
337.936909
 21
79.201546
 31
0.0
  0
LINE
  5
379
330
1F
100
AcDbEntity
  8
GR1-1
  6
CONTINUOUS
 62
     7
100
AcDbLine
 10
337.936909
 20
79.201546
 30
0.0
 11
336.788755
 21
79.467311
 31
0.0
  0
LINE
  5
37A
330
1F
100
AcDbEntity
  8
GR1-1
  6
CONTINUOUS
 62
     7
100
AcDbLine
 10
336.788755
 20
79.467311
 30
0.0
 11
338.36635
 21
76.93941
 31
0.0
  0
ARC
  5
37B
330
1F
100
AcDbEntity
  8
GR1-1
  6
CONTINUOUS
 62
     7
100
AcDbCircle
 10
337.72792
 20
80.568402
 30
0.0
 40
0.083333333333325
100
AcDbArc
 50
166.967182
 51
301.967182
  0
ARC
  5
37C
330
1F
100
AcDbEntity
  8
LAYERGROUP-1
  6
CONTINUOUS
 62
     6
100
AcDbCircle
 10
347.128963
 20
114.795517
 30
0.0
 40
30.5
100
AcDbArc
 50
193.878837
 51
296.408905
  0
ARC
  5
37D
330
1F
100
AcDbEntity
  8
LAYERGROUP-1
  6
CONTINUOUS
 62
     6
100
AcDbCircle
 10
347.128963
 20
114.795517
 30
0.0
 40
42.0
100
AcDbArc
 50
110.655903
 51
128.960734
  0
LINE
  5
37E
330
1F
100
AcDbEntity
  8
GR1-1
  6
CONTINUOUS
 62
     7
100
AcDbLine
 10
341.897256
 20
81.107549
 30
0.0
 11
337.026051
 21
82.235094
 31
0.0
  0
ARC
  5
37F
330
1F
100
AcDbEntity
  8
GR1-1
  6
CONTINUOUS
 62
     6
100
AcDbCircle
 10
347.128963
 20
114.795517
 30
0.0
 40
54.5
100
AcDbArc
 50
102.283213
 51
135.653048
  0
ARC
  5
380
330
1F
100
AcDbEntity
  8
LAYERGROUP-1
  6
CONTINUOUS
 62
     6
100
AcDbCircle
 10
347.128963
 20
114.795517
 30
0.0
 40
49.86788711766769
100
AcDbArc
 50
104.824487
 51
133.601247
  0
ARC
  5
381
330
1F
100
AcDbEntity
  8
LAYERGROUP-1
  6
CONTINUOUS
 62
     3
100
AcDbCircle
 10
347.128963
 20
114.795517
 30
0.0
 40
65.00000000000003
100
AcDbArc
 50
97.983619
 51
333.623959
  0
ARC
  5
382
330
1F
100
AcDbEntity
  8
LAYERGROUP-1
  6
CONTINUOUS
 62
     3
100
AcDbCircle
 10
347.128963
 20
114.795517
 30
0.0
 40
51.5
100
AcDbArc
 50
103.870287
 51
134.369792
  0
ARC
  5
383
330
1F
100
AcDbEntity
  8
GR1-1
  6
CONTINUOUS
 62
     6
100
AcDbCircle
 10
347.128963
 20
114.795517
 30
0.0
 40
54.5
100
AcDbArc
 50
151.487585
 51
325.218726
  0
ARC
  5
384
330
1F
100
AcDbEntity
  8
LAYERGROUP-1
  6
CONTINUOUS
 62
     3
100
AcDbCircle
 10
347.128963
 20
114.795517
 30
0.0
 40
51.5
100
AcDbArc
 50
156.205611
 51
322.578999
  0
ARC
  5
385
330
1F
100
AcDbEntity
  8
LAYERGROUP-1
  6
CONTINUOUS
 62
     6
100
AcDbCircle
 10
347.128963
 20
114.795517
 30
0.0
 40
49.86788711766769
100
AcDbArc
 50
158.793554
 51
321.080769
  0
ARC
  5
386
330
1F
100
AcDbEntity
  8
LAYERGROUP-1
  6
CONTINUOUS
 62
     6
100
AcDbCircle
 10
347.128963
 20
114.795517
 30
0.0
 40
42.0
100
AcDbArc
 50
171.87262
 51
313.013777
  0
ARC
  5
387
330
1F
100
AcDbEntity
  8
LAYERGROUP-1
  6
CONTINUOUS
 62
     6
100
AcDbCircle
 10
347.128963
 20
114.795517
 30
0.0
 40
30.5
100
AcDbArc
 50
15.954583
 51
17.822399
  0
ARC
  5
388
330
1F
100
AcDbEntity
  8
LAYERGROUP-1
  6
CONTINUOUS
 62
     6
100
AcDbCircle
 10
347.128963
 20
114.795517
 30
0.0
 40
42.0
100
AcDbArc
 50
-5.27659
 51
32.403164
  0
ARC
  5
389
330
1F
100
AcDbEntity
  8
LAYERGROUP-1
  6
CONTINUOUS
 62
     6
100
AcDbCircle
 10
347.128963
 20
114.795517
 30
0.0
 40
49.86788711766769
100
AcDbArc
 50
-12.301776
 51
37.814765
  0
ARC
  5
38A
330
1F
100
AcDbEntity
  8
LAYERGROUP-1
  6
CONTINUOUS
 62
     3
100
AcDbCircle
 10
347.128963
 20
114.795517
 30
0.0
 40
51.5
100
AcDbArc
 50
-13.434644
 51
39.040673
  0
ARC
  5
38B
330
1F
100
AcDbEntity
  8
GR1-1
  6
CONTINUOUS
 62
     6
100
AcDbCircle
 10
347.128963
 20
114.795517
 30
0.0
 40
54.5
100
AcDbArc
 50
-15.310457
 51
40.185965
  0
ARC
  5
38C
330
1F
100
AcDbEntity
  8
LAYERGROUP-1
  6
CONTINUOUS
 62
     3
100
AcDbCircle
 10
347.128963
 20
114.795517
 30
0.0
 40
65.00000000000003
100
AcDbArc
 50
-20.347192
 51
44.211741
  0
ARC
  5
38D
330
1F
100
AcDbEntity
  8
LAYERGROUP-1
  6
CONTINUOUS
 62
     3
100
AcDbCircle
 10
347.128963
 20
114.795517
 30
0.0
 40
23.45
100
AcDbArc
 50
282.445039
 51
285.5905
  0
ARC
  5
38E
330
1F
100
AcDbEntity
  8
LAYERGROUP-1
  6
CONTINUOUS
 62
     3
100
AcDbCircle
 10
347.128963
 20
114.795517
 30
0.0
 40
23.45
100
AcDbArc
 50
259.040632
 51
279.114677
  0
ARC
  5
38F
330
1F
100
AcDbEntity
  8
LAYERGROUP-1
  6
CONTINUOUS
 62
     3
100
AcDbCircle
 10
347.128963
 20
114.795517
 30
0.0
 40
23.45
100
AcDbArc
 50
238.0726
 51
253.939921
  0
ENDSEC
  0
SECTION
  2
OBJECTS
  0
DICTIONARY
  5
C
330
0
100
AcDbDictionary
  3
ACAD_GROUP
350
D
  3
ACAD_LAYOUT
350
1A
  3
ACAD_MLINESTYLE
350
17
  3
ACAD_PLOTSETTINGS
350
19
  3
ACDBHEADERROUNDTRIPXREC
350
390
  0
DICTIONARY
  5
D
102
{ACAD_REACTORS
330
C
102
}
330
C
100
AcDbDictionary
  0
DICTIONARY
  5
1A
102
{ACAD_REACTORS
330
C
102
}
330
C
100
AcDbDictionary
  0
DICTIONARY
  5
17
102
{ACAD_REACTORS
330
C
102
}
330
C
100
AcDbDictionary
  3
STANDARD
350
18
  0
DICTIONARY
  5
19
102
{ACAD_REACTORS
330
C
102
}
330
C
100
AcDbDictionary
  0
DICTIONARY
  5
390
102
{ACAD_REACTORS
330
C
102
}
330
C
100
AcDbDictionary
  3
CEPSNTYPE
350
399
  3
DIMSTYLEDATA
350
3AF
  3
FINGERPRINTGUID
350
39A
  3
HYPERLINKBASE
350
393
  3
INSUNITS
350
398
  3
LAYOUTDICT
350
395
  3
LWETCUNION
350
397
  3
PLOTSETDICT
350
396
  3
PSVPSCALE
350
39C
  3
PUCSBASE
350
39F
  3
PUCSORGBACK
350
3A5
  3
PUCSORGBOTTOM
350
3A1
  3
PUCSORGFRONT
350
3A4
  3
PUCSORGLEFT
350
3A2
  3
PUCSORGRIGHT
350
3A3
  3
PUCSORGTOP
350
3A0
  3
PUCSORTHOREF
350
39D
  3
PUCSORTHOVIEW
350
39E
  3
STYLESHEET
350
394
  3
TSTACKALIGN
350
391
  3
TSTACKSIZE
350
392
  3
UCSBASE
350
3A8
  3
UCSORGBACK
350
3AE
  3
UCSORGBOTTOM
350
3AA
  3
UCSORGFRONT
350
3AD
  3
UCSORGLEFT
350
3AB
  3
UCSORGRIGHT
350
3AC
  3
UCSORGTOP
350
3A9
  3
UCSORTHOREF
350
3A6
  3
UCSORTHOVIEW
350
3A7
  3
VERSIONGUID
350
39B
  0
MLINESTYLE
  5
18
102
{ACAD_REACTORS
330
17
102
}
330
17
100
AcDbMlineStyle
  2
Standard
 70
     0
  3

 62
   256
 51
90.0
 52
90.0
 71
     2
 49
0.5
 62
   256
  6
BYLAYER
 49
-0.5
 62
   256
  6
BYLAYER
  0
XRECORD
  5
399
102
{ACAD_REACTORS
330
390
102
}
330
390
100
AcDbXrecord
 90
        0
  0
XRECORD
  5
3AF
102
{ACAD_REACTORS
330
390
102
}
330
390
100
AcDbXrecord
1000
DSTYLE
1002
{
1070
   179
 70
     2
1070
   171
 70
     3
1070
   143
 40
0.03937
1070
   274
 70
     3
1070
    41
 40
4.0
1070
   344
340
47
1070
   141
 40
2.5
1070
   176
 70
     7
1070
   177
 70
     7
1070
   178
 70
     7
1070
   271
 70
     2
1070
    46
 40
6.0
1070
    43
 40
10.0
1070
    44
 40
1.0
1070
    42
 40
1.0
1070
   147
 40
1.0
1070
   173
 70
     1
1070
    77
 70
     1
1070
   272
 70
     2
1070
    73
 70
     0
1070
   172
 70
     1
1070
    74
 70
     0
1070
   283
 70
     0
1070
   340
340
3F
1070
   140
 40
4.0
1070
   284
 70
     8
1070
    78
 70
     8
1002
}
  0
XRECORD
  5
39A
102
{ACAD_REACTORS
330
390
102
}
330
390
100
AcDbXrecord
  1
{B4CB47CA-08E5-47F7-9FB8-8CF413F28ECF}
  0
XRECORD
  5
393
102
{ACAD_REACTORS
330
390
102
}
330
390
100
AcDbXrecord
  1

  0
XRECORD
  5
398
102
{ACAD_REACTORS
330
390
102
}
330
390
100
AcDbXrecord
 90
        1
  0
XRECORD
  5
395
102
{ACAD_REACTORS
330
390
102
}
330
390
100
AcDbXrecord
340
1A
  0
XRECORD
  5
397
102
{ACAD_REACTORS
330
390
102
}
330
390
100
AcDbXrecord
 90
    10781
  0
XRECORD
  5
396
102
{ACAD_REACTORS
330
390
102
}
330
390
100
AcDbXrecord
340
19
  0
XRECORD
  5
39C
102
{ACAD_REACTORS
330
390
102
}
330
390
100
AcDbXrecord
 40
0.0
  0
XRECORD
  5
39F
102
{ACAD_REACTORS
330
390
102
}
330
390
100
AcDbXrecord
340
0
  0
XRECORD
  5
3A5
102
{ACAD_REACTORS
330
390
102
}
330
390
100
AcDbXrecord
 10
0.0
 20
0.0
 30
0.0
  0
XRECORD
  5
3A1
102
{ACAD_REACTORS
330
390
102
}
330
390
100
AcDbXrecord
 10
0.0
 20
0.0
 30
0.0
  0
XRECORD
  5
3A4
102
{ACAD_REACTORS
330
390
102
}
330
390
100
AcDbXrecord
 10
0.0
 20
0.0
 30
0.0
  0
XRECORD
  5
3A2
102
{ACAD_REACTORS
330
390
102
}
330
390
100
AcDbXrecord
 10
0.0
 20
0.0
 30
0.0
  0
XRECORD
  5
3A3
102
{ACAD_REACTORS
330
390
102
}
330
390
100
AcDbXrecord
 10
0.0
 20
0.0
 30
0.0
  0
XRECORD
  5
3A0
102
{ACAD_REACTORS
330
390
102
}
330
390
100
AcDbXrecord
 10
0.0
 20
0.0
 30
0.0
  0
XRECORD
  5
39D
102
{ACAD_REACTORS
330
390
102
}
330
390
100
AcDbXrecord
340
0
  0
XRECORD
  5
39E
102
{ACAD_REACTORS
330
390
102
}
330
390
100
AcDbXrecord
 70
     0
  0
XRECORD
  5
394
102
{ACAD_REACTORS
330
390
102
}
330
390
100
AcDbXrecord
  1

  0
XRECORD
  5
391
102
{ACAD_REACTORS
330
390
102
}
330
390
100
AcDbXrecord
 90
        1
  0
XRECORD
  5
392
102
{ACAD_REACTORS
330
390
102
}
330
390
100
AcDbXrecord
 90
       70
  0
XRECORD
  5
3A8
102
{ACAD_REACTORS
330
390
102
}
330
390
100
AcDbXrecord
340
0
  0
XRECORD
  5
3AE
102
{ACAD_REACTORS
330
390
102
}
330
390
100
AcDbXrecord
 10
0.0
 20
0.0
 30
0.0
  0
XRECORD
  5
3AA
102
{ACAD_REACTORS
330
390
102
}
330
390
100
AcDbXrecord
 10
0.0
 20
0.0
 30
0.0
  0
XRECORD
  5
3AD
102
{ACAD_REACTORS
330
390
102
}
330
390
100
AcDbXrecord
 10
0.0
 20
0.0
 30
0.0
  0
XRECORD
  5
3AB
102
{ACAD_REACTORS
330
390
102
}
330
390
100
AcDbXrecord
 10
0.0
 20
0.0
 30
0.0
  0
XRECORD
  5
3AC
102
{ACAD_REACTORS
330
390
102
}
330
390
100
AcDbXrecord
 10
0.0
 20
0.0
 30
0.0
  0
XRECORD
  5
3A9
102
{ACAD_REACTORS
330
390
102
}
330
390
100
AcDbXrecord
 10
0.0
 20
0.0
 30
0.0
  0
XRECORD
  5
3A6
102
{ACAD_REACTORS
330
390
102
}
330
390
100
AcDbXrecord
340
0
  0
XRECORD
  5
3A7
102
{ACAD_REACTORS
330
390
102
}
330
390
100
AcDbXrecord
 70
     0
  0
XRECORD
  5
39B
102
{ACAD_REACTORS
330
390
102
}
330
390
100
AcDbXrecord
  1
{FAEB1C32-E019-11D5-929B-00C0DF256EC4}
  0
ENDSEC
  0
EOF
