  0
SECTION
  2
HEADER
  9
$ACADVER
  1
AC1014
  9
$ACADMAINTVER
 70
     9
  9
$DWGCODEPAGE
  3
ANSI_932
  9
$INSBASE
 10
0.0
 20
0.0
 30
0.0
  9
$EXTMIN
 10
0.0
 20
0.0
 30
0.0
  9
$EXTMAX
 10
594.0
 20
420.0
 30
0.0
  9
$LIMMIN
 10
0.0
 20
0.0
  9
$LIMMAX
 10
594.0
 20
420.0
  9
$ORTHOMODE
 70
     0
  9
$REGENMODE
 70
     1
  9
$FILLMODE
 70
     1
  9
$QTEXTMODE
 70
     0
  9
$MIRRTEXT
 70
     1
  9
$DRAGMODE
 70
     2
  9
$LTSCALE
 40
1.0
  9
$OSMODE
 70
    37
  9
$ATTMODE
 70
     1
  9
$TEXTSIZE
 40
0.2
  9
$TRACEWID
 40
0.05
  9
$TEXTSTYLE
  7
STYLE1
  9
$CLAYER
  8
0
  9
$CELTYPE
  6
BYLAYER
  9
$CECOLOR
 62
   256
  9
$CELTSCALE
 40
1.0
  9
$DELOBJ
 70
     1
  9
$DISPSILH
 70
     0
  9
$DIMSCALE
 40
1.0
  9
$DIMASZ
 40
4.0
  9
$DIMEXO
 40
1.0
  9
$DIMDLI
 40
10.0
  9
$DIMRND
 40
0.0
  9
$DIMDLE
 40
6.0
  9
$DIMEXE
 40
1.0
  9
$DIMTP
 40
0.0
  9
$DIMTM
 40
0.0
  9
$DIMTXT
 40
4.0
  9
$DIMCEN
 40
2.5
  9
$DIMTSZ
 40
0.0
  9
$DIMTOL
 70
     0
  9
$DIMLIM
 70
     0
  9
$DIMTIH
 70
     0
  9
$DIMTOH
 70
     0
  9
$DIMSE1
 70
     0
  9
$DIMSE2
 70
     0
  9
$DIMTAD
 70
     1
  9
$DIMZIN
 70
     8
  9
$DIMBLK
  1

  9
$DIMASO
 70
     1
  9
$DIMSHO
 70
     1
  9
$DIMPOST
  1

  9
$DIMAPOST
  1

  9
$DIMALT
 70
     0
  9
$DIMALTD
 70
     3
  9
$DIMALTF
 40
0.03937
  9
$DIMLFAC
 40
1.0
  9
$DIMTOFL
 70
     1
  9
$DIMTVP
 40
0.0
  9
$DIMTIX
 70
     0
  9
$DIMSOXD
 70
     0
  9
$DIMSAH
 70
     1
  9
$DIMBLK1
  1
FXTIP_ARROW_S
  9
$DIMBLK2
  1
FXTIP_ARROW_E
  9
$DIMSTYLE
  2
FXDIMINFO
  9
$DIMCLRD
 70
     7
  9
$DIMCLRE
 70
     7
  9
$DIMCLRT
 70
     7
  9
$DIMTFAC
 40
1.0
  9
$DIMGAP
 40
1.0
  9
$DIMJUST
 70
     0
  9
$DIMSD1
 70
     0
  9
$DIMSD2
 70
     0
  9
$DIMTOLJ
 70
     0
  9
$DIMTZIN
 70
     8
  9
$DIMALTZ
 70
     0
  9
$DIMALTTZ
 70
     0
  9
$DIMFIT
 70
     3
  9
$DIMUPT
 70
     0
  9
$DIMUNIT
 70
     2
  9
$DIMDEC
 70
     2
  9
$DIMTDEC
 70
     2
  9
$DIMALTU
 70
     2
  9
$DIMALTTD
 70
     3
  9
$DIMTXSTY
  7
STYLE1
  9
$DIMAUNIT
 70
     0
  9
$LUNITS
 70
     2
  9
$LUPREC
 70
     4
  9
$SKETCHINC
 40
0.1
  9
$FILLETRAD
 40
0.5
  9
$AUNITS
 70
     0
  9
$AUPREC
 70
     0
  9
$MENU
  1
.
  9
$ELEVATION
 40
0.0
  9
$PELEVATION
 40
0.0
  9
$THICKNESS
 40
0.0
  9
$LIMCHECK
 70
     0
  9
$CHAMFERA
 40
0.5
  9
$CHAMFERB
 40
0.5
  9
$CHAMFERC
 40
1.0
  9
$CHAMFERD
 40
0.0
  9
$SKPOLY
 70
     0
  9
$TDCREATE
 40
2455308.414038368
  9
$TDUPDATE
 40
2455308.41403838
  9
$TDINDWG
 40
0.0000000116
  9
$TDUSRTIMER
 40
0.0000000116
  9
$USRTIMER
 70
     1
  9
$ANGBASE
 50
0.0
  9
$ANGDIR
 70
     0
  9
$PDMODE
 70
     0
  9
$PDSIZE
 40
0.0
  9
$PLINEWID
 40
0.0
  9
$COORDS
 70
     1
  9
$SPLFRAME
 70
     0
  9
$SPLINETYPE
 70
     6
  9
$SPLINESEGS
 70
     8
  9
$ATTDIA
 70
     0
  9
$ATTREQ
 70
     1
  9
$HANDLING
 70
     1
  9
$HANDSEED
  5
3E5
  9
$SURFTAB1
 70
     6
  9
$SURFTAB2
 70
     6
  9
$SURFTYPE
 70
     6
  9
$SURFU
 70
     6
  9
$SURFV
 70
     6
  9
$UCSNAME
  2

  9
$UCSORG
 10
0.0
 20
0.0
 30
0.0
  9
$UCSXDIR
 10
1.0
 20
0.0
 30
0.0
  9
$UCSYDIR
 10
0.0
 20
1.0
 30
0.0
  9
$PUCSNAME
  2

  9
$PUCSORG
 10
0.0
 20
0.0
 30
0.0
  9
$PUCSXDIR
 10
1.0
 20
0.0
 30
0.0
  9
$PUCSYDIR
 10
0.0
 20
1.0
 30
0.0
  9
$USERI1
 70
     0
  9
$USERI2
 70
     0
  9
$USERI3
 70
     0
  9
$USERI4
 70
     0
  9
$USERI5
 70
     0
  9
$USERR1
 40
0.0
  9
$USERR2
 40
0.0
  9
$USERR3
 40
0.0
  9
$USERR4
 40
0.0
  9
$USERR5
 40
0.0
  9
$WORLDVIEW
 70
     1
  9
$SHADEDGE
 70
     3
  9
$SHADEDIF
 70
    70
  9
$TILEMODE
 70
     1
  9
$MAXACTVP
 70
    64
  9
$PINSBASE
 10
0.0
 20
0.0
 30
0.0
  9
$PLIMCHECK
 70
     0
  9
$PEXTMIN
 10
1.000000E+20
 20
1.000000E+20
 30
1.000000E+20
  9
$PEXTMAX
 10
-1.000000E+20
 20
-1.000000E+20
 30
-1.000000E+20
  9
$PLIMMIN
 10
0.0
 20
0.0
  9
$PLIMMAX
 10
12.0
 20
9.0
  9
$UNITMODE
 70
     0
  9
$VISRETAIN
 70
     1
  9
$PLINEGEN
 70
     0
  9
$PSLTSCALE
 70
     1
  9
$TREEDEPTH
 70
  3020
  9
$PICKSTYLE
 70
     1
  9
$CMLSTYLE
  2
STANDARD
  9
$CMLJUST
 70
     0
  9
$CMLSCALE
 40
1.0
  9
$PROXYGRAPHICS
 70
     1
  9
$MEASUREMENT
 70
     0
  0
ENDSEC
  0
SECTION
  2
CLASSES
  0
CLASS
  1
ACDBDICTIONARYWDFLT
  2
AcDbDictionaryWithDefault
  3
ObjectDBX Classes
 90
        0
280
     0
281
     0
  0
CLASS
  1
XRECORD
  2
AcDbXrecord
  3
AutoCAD 2000
 90
        0
280
     0
281
     0
  0
CLASS
  1
LWPOLYLINE
  2
AcDbPolyline
  3
AutoCAD 2000
 90
        0
280
     0
281
     1
  0
CLASS
  1
HATCH
  2
AcDbHatch
  3
AutoCAD 2000
 90
        0
280
     0
281
     1
  0
CLASS
  1
ACDBPLACEHOLDER
  2
AcDbPlaceHolder
  3
ObjectDBX Classes
 90
        0
280
     0
281
     0
  0
CLASS
  1
LAYOUT
  2
AcDbLayout
  3
ObjectDBX Classes
 90
        0
280
     0
281
     0
  0
ENDSEC
  0
SECTION
  2
TABLES
  0
TABLE
  2
VPORT
  5
8
330
0
100
AcDbSymbolTable
 70
     1
  0
VPORT
  5
29
330
8
100
AcDbSymbolTableRecord
100
AcDbViewportTableRecord
  2
*ACTIVE
 70
     0
 10
0.0
 20
0.0
 11
1.0
 21
1.0
 12
297.0
 22
210.0
 13
0.0
 23
0.0
 14
0.5
 24
0.5
 15
0.5
 25
0.5
 16
0.0
 26
0.0
 36
1.0
 17
0.0
 27
0.0
 37
0.0
 40
420.0
 41
1.414286
 42
50.0
 43
0.0
 44
0.0
 50
0.0
 51
0.0
 71
     0
 72
   100
 73
     1
 74
     3
 75
     0
 76
     0
 77
     0
 78
     0
  0
ENDTAB
  0
TABLE
  2
LTYPE
  5
5
330
0
100
AcDbSymbolTable
 70
     4
  0
LTYPE
  5
14
330
5
100
AcDbSymbolTableRecord
100
AcDbLinetypeTableRecord
  2
BYBLOCK
 70
     0
  3

 72
    65
 73
     0
 40
0.0
  0
LTYPE
  5
15
330
5
100
AcDbSymbolTableRecord
100
AcDbLinetypeTableRecord
  2
BYLAYER
 70
     0
  3

 72
    65
 73
     0
 40
0.0
  0
LTYPE
  5
16
330
5
100
AcDbSymbolTableRecord
100
AcDbLinetypeTableRecord
  2
CONTINUOUS
 70
     0
  3
--------------------
 72
    65
 73
     0
 40
0.0
  0
LTYPE
  5
2A
330
5
100
AcDbSymbolTableRecord
100
AcDbLinetypeTableRecord
  2
CENTER
 70
     0
  3
Center ____ _ ____ _ ____ _ ____ _ ____ _ ____
 72
    65
 73
     4
 40
13.0
 49
10.0
 74
     0
 49
-1.0
 74
     0
 49
1.0
 74
     0
 49
-1.0
 74
     0
  0
ENDTAB
  0
TABLE
  2
LAYER
  5
2
330
0
100
AcDbSymbolTable
 70
    20
  0
LAYER
  5
10
330
2
100
AcDbSymbolTableRecord
100
AcDbLayerTableRecord
  2
0
 70
     0
 62
     7
  6
CONTINUOUS
  0
LAYER
  5
2D
330
2
100
AcDbSymbolTableRecord
100
AcDbLayerTableRecord
  2
LAYERGROUP-1
 70
     0
 62
     3
  6
CONTINUOUS
  0
LAYER
  5
3D
330
2
100
AcDbSymbolTableRecord
100
AcDbLayerTableRecord
  2
}}ﾊﾊGG血CCТ
 70
     0
 62
     3
  6
CONTINUOUS
  0
LAYER
  5
AA
330
2
100
AcDbSymbolTableRecord
100
AcDbLayerTableRecord
  2
GR1-1
 70
     0
 62
     7
  6
CONTINUOUS
  0
LAYER
  5
3A7
330
2
100
AcDbSymbolTableRecord
100
AcDbLayerTableRecord
  2
0-1
 70
     0
 62
     7
  6
CONTINUOUS
  0
ENDTAB
  0
TABLE
  2
STYLE
  5
3
330
0
100
AcDbSymbolTable
 70
     4
  0
STYLE
  5
11
330
3
100
AcDbSymbolTableRecord
100
AcDbTextStyleTableRecord
  2
STANDARD
 70
     0
 40
0.0
 41
1.0
 50
0.0
 71
     0
 42
0.2
  3
txt
  4

  0
STYLE
  5
3F
330
3
100
AcDbSymbolTableRecord
100
AcDbTextStyleTableRecord
  2
STYLE1
 70
     0
 40
0.0
 41
1.0
 50
0.0
 71
     0
 42
0.2
  3
MONOTXT.SHX
  4
extfont.shx
  0
STYLE
  5
40
330
3
100
AcDbSymbolTableRecord
100
AcDbTextStyleTableRecord
  2
FX_VECTOR
 70
     0
 40
0.0
 41
1.0
 50
0.0
 71
     0
 42
0.2
  3
MONOTXT.SHX
  4
BIGFONT.SHX
  0
ENDTAB
  0
TABLE
  2
VIEW
  5
6
330
0
100
AcDbSymbolTable
 70
     0
  0
ENDTAB
  0
TABLE
  2
UCS
  5
7
330
0
100
AcDbSymbolTable
 70
     0
  0
ENDTAB
  0
TABLE
  2
APPID
  5
9
330
0
100
AcDbSymbolTable
 70
     1
  0
APPID
  5
12
330
9
100
AcDbSymbolTableRecord
100
AcDbRegAppTableRecord
  2
ACAD
 70
     0
  0
ENDTAB
  0
TABLE
  2
DIMSTYLE
  5
A
330
0
100
AcDbSymbolTable
 70
     2
  0
DIMSTYLE
105
27
330
A
100
AcDbSymbolTableRecord
100
AcDbDimStyleTableRecord
  2
STANDARD
 70
     0
  3

  4

  5

  6

  7

 40
1.0
 41
0.18
 42
0.0625
 43
0.38
 44
0.18
 45
0.0
 46
0.0
 47
0.0
 48
0.0
140
0.18
141
0.09
142
0.0
143
25.4
144
1.0
145
0.0
146
1.0
147
0.09
 71
     0
 72
     0
 73
     1
 74
     1
 75
     0
 76
     0
 77
     0
 78
     0
170
     0
171
     2
172
     0
173
     0
174
     0
175
     0
176
     0
177
     0
178
     0
270
     2
271
     4
272
     4
273
     2
274
     2
340
11
275
     0
280
     0
281
     0
282
     0
283
     1
284
     0
285
     0
286
     0
287
     3
288
     0
  0
DIMSTYLE
105
A7
102
{ACAD_REACTORS
330
A9
330
B4
330
BE
330
C8
330
D2
330
DB
330
E5
330
158
330
162
330
16C
330
25C
330
266
330
270
330
28F
102
}
330
A
100
AcDbSymbolTableRecord
100
AcDbDimStyleTableRecord
  2
FXDIMINFO
 70
     0
  3

  4

  5

  6
FXTIP_ARROW_S
  7
FXTIP_ARROW_E
 40
1.0
 41
4.0
 42
1.0
 43
10.0
 44
1.0
 45
0.0
 46
6.0
 47
0.0
 48
0.0
140
4.0
141
2.5
142
0.0
143
0.03937
144
1.0
145
0.0
146
1.0
147
1.0
 71
     0
 72
     0
 73
     0
 74
     0
 75
     0
 76
     0
 77
     1
 78
     8
170
     0
171
     3
172
     1
173
     1
174
     0
175
     0
176
     7
177
     7
178
     7
179
     2
270
     2
271
     2
272
     2
273
     2
274
     3
340
3F
275
     0
280
     0
281
     0
282
     0
283
     0
284
     8
285
     0
286
     0
287
     3
288
     0
  0
ENDTAB
  0
TABLE
  2
BLOCK_RECORD
  5
1
330
0
100
AcDbSymbolTable
 70
    37
  0
BLOCK_RECORD
  5
1F
330
1
100
AcDbSymbolTableRecord
100
AcDbBlockTableRecord
  2
*MODEL_SPACE
  0
BLOCK_RECORD
  5
1B
330
1
100
AcDbSymbolTableRecord
100
AcDbBlockTableRecord
  2
*PAPER_SPACE
  0
BLOCK_RECORD
  5
41
330
1
100
AcDbSymbolTableRecord
100
AcDbBlockTableRecord
  2
FXTIP_ARROW_S
  0
BLOCK_RECORD
  5
47
330
1
100
AcDbSymbolTableRecord
100
AcDbBlockTableRecord
  2
FXTIP_ARROW_E
  0
BLOCK_RECORD
  5
4D
330
1
100
AcDbSymbolTableRecord
100
AcDbBlockTableRecord
  2
FXTIP_BLACKDOT_S
  0
BLOCK_RECORD
  5
53
330
1
100
AcDbSymbolTableRecord
100
AcDbBlockTableRecord
  2
FXTIP_BLACKDOT_E
  0
BLOCK_RECORD
  5
59
330
1
100
AcDbSymbolTableRecord
100
AcDbBlockTableRecord
  2
FXTIP_TRIANGLE_S
  0
BLOCK_RECORD
  5
60
330
1
100
AcDbSymbolTableRecord
100
AcDbBlockTableRecord
  2
FXTIP_TRIANGLE_E
  0
BLOCK_RECORD
  5
67
330
1
100
AcDbSymbolTableRecord
100
AcDbBlockTableRecord
  2
FXTIP_ARCHITECT_S
  0
BLOCK_RECORD
  5
6D
330
1
100
AcDbSymbolTableRecord
100
AcDbBlockTableRecord
  2
FXTIP_ARCHITECT_E
  0
BLOCK_RECORD
  5
73
330
1
100
AcDbSymbolTableRecord
100
AcDbBlockTableRecord
  2
FXTIP_CIVIL_S
  0
BLOCK_RECORD
  5
79
330
1
100
AcDbSymbolTableRecord
100
AcDbBlockTableRecord
  2
FXTIP_CIVIL_E
  0
BLOCK_RECORD
  5
7F
330
1
100
AcDbSymbolTableRecord
100
AcDbBlockTableRecord
  2
FXTIP_WHITEDOT_S
  0
BLOCK_RECORD
  5
84
330
1
100
AcDbSymbolTableRecord
100
AcDbBlockTableRecord
  2
FXTIP_WHITEDOT_E
  0
BLOCK_RECORD
  5
89
330
1
100
AcDbSymbolTableRecord
100
AcDbBlockTableRecord
  2
FXTIP_UPARROW_S
  0
BLOCK_RECORD
  5
8E
330
1
100
AcDbSymbolTableRecord
100
AcDbBlockTableRecord
  2
FXTIP_UPARROW_E
  0
BLOCK_RECORD
  5
93
330
1
100
AcDbSymbolTableRecord
100
AcDbBlockTableRecord
  2
FXTIP_DOWNARROW_S
  0
BLOCK_RECORD
  5
98
330
1
100
AcDbSymbolTableRecord
100
AcDbBlockTableRecord
  2
FXTIP_DOWNARROW_E
  0
BLOCK_RECORD
  5
9D
330
1
100
AcDbSymbolTableRecord
100
AcDbBlockTableRecord
  2
FXTIP_BLACKTRIANGLE_S
  0
BLOCK_RECORD
  5
A2
330
1
100
AcDbSymbolTableRecord
100
AcDbBlockTableRecord
  2
FXTIP_BLACKTRIANGLE_E
  0
BLOCK_RECORD
  5
AB
330
1
100
AcDbSymbolTableRecord
100
AcDbBlockTableRecord
  2
*D19
  0
BLOCK_RECORD
  5
B5
330
1
100
AcDbSymbolTableRecord
100
AcDbBlockTableRecord
  2
*D20
  0
BLOCK_RECORD
  5
BF
330
1
100
AcDbSymbolTableRecord
100
AcDbBlockTableRecord
  2
*D21
  0
BLOCK_RECORD
  5
C9
330
1
100
AcDbSymbolTableRecord
100
AcDbBlockTableRecord
  2
*D22
  0
BLOCK_RECORD
  5
D3
330
1
100
AcDbSymbolTableRecord
100
AcDbBlockTableRecord
  2
*D23
  0
BLOCK_RECORD
  5
DC
330
1
100
AcDbSymbolTableRecord
100
AcDbBlockTableRecord
  2
*D24
  0
BLOCK_RECORD
  5
E6
330
1
100
AcDbSymbolTableRecord
100
AcDbBlockTableRecord
  2
*D25
  0
BLOCK_RECORD
  5
159
330
1
100
AcDbSymbolTableRecord
100
AcDbBlockTableRecord
  2
*D26
  0
BLOCK_RECORD
  5
163
330
1
100
AcDbSymbolTableRecord
100
AcDbBlockTableRecord
  2
*D27
  0
BLOCK_RECORD
  5
16D
330
1
100
AcDbSymbolTableRecord
100
AcDbBlockTableRecord
  2
*D28
  0
BLOCK_RECORD
  5
25D
330
1
100
AcDbSymbolTableRecord
100
AcDbBlockTableRecord
  2
*D29
  0
BLOCK_RECORD
  5
267
330
1
100
AcDbSymbolTableRecord
100
AcDbBlockTableRecord
  2
*D30
  0
BLOCK_RECORD
  5
271
330
1
100
AcDbSymbolTableRecord
100
AcDbBlockTableRecord
  2
*D31
  0
BLOCK_RECORD
  5
290
330
1
100
AcDbSymbolTableRecord
100
AcDbBlockTableRecord
  2
*D32
  0
BLOCK_RECORD
  5
303
330
1
100
AcDbSymbolTableRecord
100
AcDbBlockTableRecord
  2
BLKF035
  0
BLOCK_RECORD
  5
397
330
1
100
AcDbSymbolTableRecord
100
AcDbBlockTableRecord
  2
BLKF036
  0
BLOCK_RECORD
  5
3A3
330
1
100
AcDbSymbolTableRecord
100
AcDbBlockTableRecord
  2
BLKF037
  0
BLOCK_RECORD
  5
3AC
330
1
100
AcDbSymbolTableRecord
100
AcDbBlockTableRecord
  2
BLKF038
  0
ENDTAB
  0
ENDSEC
  0
SECTION
  2
BLOCKS
  0
BLOCK
  5
20
330
1F
100
AcDbEntity
  8
0
100
AcDbBlockBegin
  2
*MODEL_SPACE
 70
     0
 71
     0
 10
0.0
 20
0.0
 30
0.0
  3
*MODEL_SPACE
  1

  0
ENDBLK
  5
21
330
1F
100
AcDbEntity
  8
0
100
AcDbBlockEnd
  0
BLOCK
  5
1C
330
1B
100
AcDbEntity
 67
     1
  8
0
100
AcDbBlockBegin
  2
*PAPER_SPACE
 70
     0
 71
     0
 10
0.0
 20
0.0
 30
0.0
  3
*PAPER_SPACE
  1

  0
ENDBLK
  5
1D
330
1B
100
AcDbEntity
 67
     1
  8
0
100
AcDbBlockEnd
  0
BLOCK
  5
42
330
41
100
AcDbEntity
  8
0
100
AcDbBlockBegin
  2
FXTIP_ARROW_S
 70
     0
 71
     0
 10
0.0
 20
0.0
 30
0.0
  3
FXTIP_ARROW_S
  1

  0
LINE
  5
44
330
41
100
AcDbEntity
  8
0
  6
CONTINUOUS
 62
     0
100
AcDbLine
 10
0.0
 20
0.0
 30
0.0
 11
-1.0
 21
0.0
 31
0.0
  0
LINE
  5
45
330
41
100
AcDbEntity
  8
0
  6
CONTINUOUS
 62
     0
100
AcDbLine
 10
0.0
 20
0.0
 30
0.0
 11
-0.965926
 21
-0.258819
 31
0.0
  0
LINE
  5
46
330
41
100
AcDbEntity
  8
0
  6
CONTINUOUS
 62
     0
100
AcDbLine
 10
0.0
 20
0.0
 30
0.0
 11
-0.965926
 21
0.258819
 31
0.0
  0
ENDBLK
  5
43
330
41
100
AcDbEntity
  8
0
100
AcDbBlockEnd
  0
BLOCK
  5
48
330
47
100
AcDbEntity
  8
0
100
AcDbBlockBegin
  2
FXTIP_ARROW_E
 70
     0
 71
     0
 10
0.0
 20
0.0
 30
0.0
  3
FXTIP_ARROW_E
  1

  0
LINE
  5
4A
330
47
100
AcDbEntity
  8
0
  6
CONTINUOUS
 62
     0
100
AcDbLine
 10
0.0
 20
0.0
 30
0.0
 11
-1.0
 21
0.0
 31
0.0
  0
LINE
  5
4B
330
47
100
AcDbEntity
  8
0
  6
CONTINUOUS
 62
     0
100
AcDbLine
 10
0.0
 20
0.0
 30
0.0
 11
-0.965926
 21
0.258819
 31
0.0
  0
LINE
  5
4C
330
47
100
AcDbEntity
  8
0
  6
CONTINUOUS
 62
     0
100
AcDbLine
 10
0.0
 20
0.0
 30
0.0
 11
-0.965926
 21
-0.258819
 31
0.0
  0
ENDBLK
  5
49
330
47
100
AcDbEntity
  8
0
100
AcDbBlockEnd
  0
BLOCK
  5
4E
330
4D
100
AcDbEntity
  8
0
100
AcDbBlockBegin
  2
FXTIP_BLACKDOT_S
 70
     0
 71
     0
 10
0.0
 20
0.0
 30
0.0
  3
FXTIP_BLACKDOT_S
  1

  0
LINE
  5
50
330
4D
100
AcDbEntity
  8
0
  6
CONTINUOUS
 62
     0
100
AcDbLine
 10
0.0
 20
0.0
 30
0.0
 11
-1.0
 21
0.0
 31
0.0
  0
LWPOLYLINE
  5
51
330
4D
100
AcDbEntity
  8
0
  6
CONTINUOUS
 62
     0
100
AcDbPolyline
 90
        2
 70
     1
 10
-0.25
 20
0.0
 40
0.5
 41
0.5
 42
1.0
 10
0.25
 20
0.0
 40
0.5
 41
0.5
 42
1.0
  0
CIRCLE
  5
52
330
4D
100
AcDbEntity
  8
0
  6
CONTINUOUS
 62
     0
100
AcDbCircle
 10
0.0
 20
0.0
 30
0.0
 40
0.5
  0
ENDBLK
  5
4F
330
4D
100
AcDbEntity
  8
0
100
AcDbBlockEnd
  0
BLOCK
  5
54
330
53
100
AcDbEntity
  8
0
100
AcDbBlockBegin
  2
FXTIP_BLACKDOT_E
 70
     0
 71
     0
 10
0.0
 20
0.0
 30
0.0
  3
FXTIP_BLACKDOT_E
  1

  0
LINE
  5
56
330
53
100
AcDbEntity
  8
0
  6
CONTINUOUS
 62
     0
100
AcDbLine
 10
0.0
 20
0.0
 30
0.0
 11
-1.0
 21
0.0
 31
0.0
  0
LWPOLYLINE
  5
57
330
53
100
AcDbEntity
  8
0
  6
CONTINUOUS
 62
     0
100
AcDbPolyline
 90
        2
 70
     1
 10
-0.25
 20
0.0
 40
0.5
 41
0.5
 42
1.0
 10
0.25
 20
0.0
 40
0.5
 41
0.5
 42
1.0
  0
CIRCLE
  5
58
330
53
100
AcDbEntity
  8
0
  6
CONTINUOUS
 62
     0
100
AcDbCircle
 10
0.0
 20
0.0
 30
0.0
 40
0.5
  0
ENDBLK
  5
55
330
53
100
AcDbEntity
  8
0
100
AcDbBlockEnd
  0
BLOCK
  5
5A
330
59
100
AcDbEntity
  8
0
100
AcDbBlockBegin
  2
FXTIP_TRIANGLE_S
 70
     0
 71
     0
 10
0.0
 20
0.0
 30
0.0
  3
FXTIP_TRIANGLE_S
  1

  0
LINE
  5
5C
330
59
100
AcDbEntity
  8
0
  6
CONTINUOUS
 62
     0
100
AcDbLine
 10
0.0
 20
0.0
 30
0.0
 11
-1.0
 21
0.0
 31
0.0
  0
LINE
  5
5D
330
59
100
AcDbEntity
  8
0
  6
CONTINUOUS
 62
     0
100
AcDbLine
 10
0.0
 20
0.0
 30
0.0
 11
-0.965926
 21
-0.258819
 31
0.0
  0
LINE
  5
5E
330
59
100
AcDbEntity
  8
0
  6
CONTINUOUS
 62
     0
100
AcDbLine
 10
0.0
 20
0.0
 30
0.0
 11
-0.965926
 21
0.258819
 31
0.0
  0
LINE
  5
5F
330
59
100
AcDbEntity
  8
0
  6
CONTINUOUS
 62
     0
100
AcDbLine
 10
-0.965926
 20
-0.258819
 30
0.0
 11
-0.965926
 21
0.258819
 31
0.0
  0
ENDBLK
  5
5B
330
59
100
AcDbEntity
  8
0
100
AcDbBlockEnd
  0
BLOCK
  5
61
330
60
100
AcDbEntity
  8
0
100
AcDbBlockBegin
  2
FXTIP_TRIANGLE_E
 70
     0
 71
     0
 10
0.0
 20
0.0
 30
0.0
  3
FXTIP_TRIANGLE_E
  1

  0
LINE
  5
63
330
60
100
AcDbEntity
  8
0
  6
CONTINUOUS
 62
     0
100
AcDbLine
 10
0.0
 20
0.0
 30
0.0
 11
-1.0
 21
0.0
 31
0.0
  0
LINE
  5
64
330
60
100
AcDbEntity
  8
0
  6
CONTINUOUS
 62
     0
100
AcDbLine
 10
0.0
 20
0.0
 30
0.0
 11
-0.965926
 21
0.258819
 31
0.0
  0
LINE
  5
65
330
60
100
AcDbEntity
  8
0
  6
CONTINUOUS
 62
     0
100
AcDbLine
 10
0.0
 20
0.0
 30
0.0
 11
-0.965926
 21
-0.258819
 31
0.0
  0
LINE
  5
66
330
60
100
AcDbEntity
  8
0
  6
CONTINUOUS
 62
     0
100
AcDbLine
 10
-0.965926
 20
0.258819
 30
0.0
 11
-0.965926
 21
-0.258819
 31
0.0
  0
ENDBLK
  5
62
330
60
100
AcDbEntity
  8
0
100
AcDbBlockEnd
  0
BLOCK
  5
68
330
67
100
AcDbEntity
  8
0
100
AcDbBlockBegin
  2
FXTIP_ARCHITECT_S
 70
     0
 71
     0
 10
0.0
 20
0.0
 30
0.0
  3
FXTIP_ARCHITECT_S
  1

  0
LINE
  5
6A
330
67
100
AcDbEntity
  8
0
  6
CONTINUOUS
 62
     0
100
AcDbLine
 10
0.0
 20
0.0
 30
0.0
 11
-1.0
 21
0.0
 31
0.0
  0
LINE
  5
6B
330
67
100
AcDbEntity
  8
0
  6
CONTINUOUS
 62
     0
100
AcDbLine
 10
0.0
 20
0.0
 30
0.0
 11
-0.707107
 21
-0.707107
 31
0.0
  0
LINE
  5
6C
330
67
100
AcDbEntity
  8
0
  6
CONTINUOUS
 62
     0
100
AcDbLine
 10
0.0
 20
0.0
 30
0.0
 11
0.707107
 21
0.707107
 31
0.0
  0
ENDBLK
  5
69
330
67
100
AcDbEntity
  8
0
100
AcDbBlockEnd
  0
BLOCK
  5
6E
330
6D
100
AcDbEntity
  8
0
100
AcDbBlockBegin
  2
FXTIP_ARCHITECT_E
 70
     0
 71
     0
 10
0.0
 20
0.0
 30
0.0
  3
FXTIP_ARCHITECT_E
  1

  0
LINE
  5
70
330
6D
100
AcDbEntity
  8
0
  6
CONTINUOUS
 62
     0
100
AcDbLine
 10
0.0
 20
0.0
 30
0.0
 11
-1.0
 21
0.0
 31
0.0
  0
LINE
  5
71
330
6D
100
AcDbEntity
  8
0
  6
CONTINUOUS
 62
     0
100
AcDbLine
 10
0.0
 20
0.0
 30
0.0
 11
0.707107
 21
0.707107
 31
0.0
  0
LINE
  5
72
330
6D
100
AcDbEntity
  8
0
  6
CONTINUOUS
 62
     0
100
AcDbLine
 10
0.0
 20
0.0
 30
0.0
 11
-0.707107
 21
-0.707107
 31
0.0
  0
ENDBLK
  5
6F
330
6D
100
AcDbEntity
  8
0
100
AcDbBlockEnd
  0
BLOCK
  5
74
330
73
100
AcDbEntity
  8
0
100
AcDbBlockBegin
  2
FXTIP_CIVIL_S
 70
     0
 71
     0
 10
0.0
 20
0.0
 30
0.0
  3
FXTIP_CIVIL_S
  1

  0
LINE
  5
76
330
73
100
AcDbEntity
  8
0
  6
CONTINUOUS
 62
     0
100
AcDbLine
 10
0.0
 20
0.0
 30
0.0
 11
-1.0
 21
0.0
 31
0.0
  0
LINE
  5
77
330
73
100
AcDbEntity
  8
0
  6
CONTINUOUS
 62
     0
100
AcDbLine
 10
0.0
 20
-0.0625
 30
0.0
 11
-1.0
 21
-0.0625
 31
0.0
  0
LINE
  5
78
330
73
100
AcDbEntity
  8
0
  6
CONTINUOUS
 62
     0
100
AcDbLine
 10
0.0
 20
-0.125
 30
0.0
 11
-1.0
 21
-0.125
 31
0.0
  0
ENDBLK
  5
75
330
73
100
AcDbEntity
  8
0
100
AcDbBlockEnd
  0
BLOCK
  5
7A
330
79
100
AcDbEntity
  8
0
100
AcDbBlockBegin
  2
FXTIP_CIVIL_E
 70
     0
 71
     0
 10
0.0
 20
0.0
 30
0.0
  3
FXTIP_CIVIL_E
  1

  0
LINE
  5
7C
330
79
100
AcDbEntity
  8
0
  6
CONTINUOUS
 62
     0
100
AcDbLine
 10
0.0
 20
0.0
 30
0.0
 11
-1.0
 21
0.0
 31
0.0
  0
LINE
  5
7D
330
79
100
AcDbEntity
  8
0
  6
CONTINUOUS
 62
     0
100
AcDbLine
 10
0.0
 20
0.0625
 30
0.0
 11
-1.0
 21
0.0625
 31
0.0
  0
LINE
  5
7E
330
79
100
AcDbEntity
  8
0
  6
CONTINUOUS
 62
     0
100
AcDbLine
 10
0.0
 20
0.125
 30
0.0
 11
-1.0
 21
0.125
 31
0.0
  0
ENDBLK
  5
7B
330
79
100
AcDbEntity
  8
0
100
AcDbBlockEnd
  0
BLOCK
  5
80
330
7F
100
AcDbEntity
  8
0
100
AcDbBlockBegin
  2
FXTIP_WHITEDOT_S
 70
     0
 71
     0
 10
0.0
 20
0.0
 30
0.0
  3
FXTIP_WHITEDOT_S
  1

  0
LINE
  5
82
330
7F
100
AcDbEntity
  8
0
  6
CONTINUOUS
 62
     0
100
AcDbLine
 10
0.0
 20
0.0
 30
0.0
 11
-1.0
 21
0.0
 31
0.0
  0
CIRCLE
  5
83
330
7F
100
AcDbEntity
  8
0
  6
CONTINUOUS
 62
     0
100
AcDbCircle
 10
0.0
 20
0.0
 30
0.0
 40
0.5
  0
ENDBLK
  5
81
330
7F
100
AcDbEntity
  8
0
100
AcDbBlockEnd
  0
BLOCK
  5
85
330
84
100
AcDbEntity
  8
0
100
AcDbBlockBegin
  2
FXTIP_WHITEDOT_E
 70
     0
 71
     0
 10
0.0
 20
0.0
 30
0.0
  3
FXTIP_WHITEDOT_E
  1

  0
LINE
  5
87
330
84
100
AcDbEntity
  8
0
  6
CONTINUOUS
 62
     0
100
AcDbLine
 10
0.0
 20
0.0
 30
0.0
 11
-1.0
 21
0.0
 31
0.0
  0
CIRCLE
  5
88
330
84
100
AcDbEntity
  8
0
  6
CONTINUOUS
 62
     0
100
AcDbCircle
 10
0.0
 20
0.0
 30
0.0
 40
0.5
  0
ENDBLK
  5
86
330
84
100
AcDbEntity
  8
0
100
AcDbBlockEnd
  0
BLOCK
  5
8A
330
89
100
AcDbEntity
  8
0
100
AcDbBlockBegin
  2
FXTIP_UPARROW_S
 70
     0
 71
     0
 10
0.0
 20
0.0
 30
0.0
  3
FXTIP_UPARROW_S
  1

  0
LINE
  5
8C
330
89
100
AcDbEntity
  8
0
  6
CONTINUOUS
 62
     0
100
AcDbLine
 10
0.0
 20
0.0
 30
0.0
 11
-1.0
 21
0.0
 31
0.0
  0
LINE
  5
8D
330
89
100
AcDbEntity
  8
0
  6
CONTINUOUS
 62
     0
100
AcDbLine
 10
0.0
 20
0.0
 30
0.0
 11
-0.965926
 21
-0.258819
 31
0.0
  0
ENDBLK
  5
8B
330
89
100
AcDbEntity
  8
0
100
AcDbBlockEnd
  0
BLOCK
  5
8F
330
8E
100
AcDbEntity
  8
0
100
AcDbBlockBegin
  2
FXTIP_UPARROW_E
 70
     0
 71
     0
 10
0.0
 20
0.0
 30
0.0
  3
FXTIP_UPARROW_E
  1

  0
LINE
  5
91
330
8E
100
AcDbEntity
  8
0
  6
CONTINUOUS
 62
     0
100
AcDbLine
 10
0.0
 20
0.0
 30
0.0
 11
-1.0
 21
0.0
 31
0.0
  0
LINE
  5
92
330
8E
100
AcDbEntity
  8
0
  6
CONTINUOUS
 62
     0
100
AcDbLine
 10
0.0
 20
0.0
 30
0.0
 11
-0.965926
 21
0.258819
 31
0.0
  0
ENDBLK
  5
90
330
8E
100
AcDbEntity
  8
0
100
AcDbBlockEnd
  0
BLOCK
  5
94
330
93
100
AcDbEntity
  8
0
100
AcDbBlockBegin
  2
FXTIP_DOWNARROW_S
 70
     0
 71
     0
 10
0.0
 20
0.0
 30
0.0
  3
FXTIP_DOWNARROW_S
  1

  0
LINE
  5
96
330
93
100
AcDbEntity
  8
0
  6
CONTINUOUS
 62
     0
100
AcDbLine
 10
0.0
 20
0.0
 30
0.0
 11
-1.0
 21
0.0
 31
0.0
  0
LINE
  5
97
330
93
100
AcDbEntity
  8
0
  6
CONTINUOUS
 62
     0
100
AcDbLine
 10
0.0
 20
0.0
 30
0.0
 11
-0.965926
 21
0.258819
 31
0.0
  0
ENDBLK
  5
95
330
93
100
AcDbEntity
  8
0
100
AcDbBlockEnd
  0
BLOCK
  5
99
330
98
100
AcDbEntity
  8
0
100
AcDbBlockBegin
  2
FXTIP_DOWNARROW_E
 70
     0
 71
     0
 10
0.0
 20
0.0
 30
0.0
  3
FXTIP_DOWNARROW_E
  1

  0
LINE
  5
9B
330
98
100
AcDbEntity
  8
0
  6
CONTINUOUS
 62
     0
100
AcDbLine
 10
0.0
 20
0.0
 30
0.0
 11
-1.0
 21
0.0
 31
0.0
  0
LINE
  5
9C
330
98
100
AcDbEntity
  8
0
  6
CONTINUOUS
 62
     0
100
AcDbLine
 10
0.0
 20
0.0
 30
0.0
 11
-0.965926
 21
-0.258819
 31
0.0
  0
ENDBLK
  5
9A
330
98
100
AcDbEntity
  8
0
100
AcDbBlockEnd
  0
BLOCK
  5
9E
330
9D
100
AcDbEntity
  8
0
100
AcDbBlockBegin
  2
FXTIP_BLACKTRIANGLE_S
 70
     0
 71
     0
 10
0.0
 20
0.0
 30
0.0
  3
FXTIP_BLACKTRIANGLE_S
  1

  0
LINE
  5
A0
330
9D
100
AcDbEntity
  8
0
  6
CONTINUOUS
 62
     0
100
AcDbLine
 10
0.0
 20
0.0
 30
0.0
 11
-1.0
 21
0.0
 31
0.0
  0
SOLID
  5
A1
330
9D
100
AcDbEntity
  8
0
  6
CONTINUOUS
 62
     0
100
AcDbTrace
 10
0.0
 20
0.0
 30
0.0
 11
-0.965926
 21
-0.258819
 31
0.0
 12
-0.965926
 22
0.258819
 32
0.0
 13
-0.965926
 23
0.258819
 33
0.0
  0
ENDBLK
  5
9F
330
9D
100
AcDbEntity
  8
0
100
AcDbBlockEnd
  0
BLOCK
  5
A3
330
A2
100
AcDbEntity
  8
0
100
AcDbBlockBegin
  2
FXTIP_BLACKTRIANGLE_E
 70
     0
 71
     0
 10
0.0
 20
0.0
 30
0.0
  3
FXTIP_BLACKTRIANGLE_E
  1

  0
LINE
  5
A5
330
A2
100
AcDbEntity
  8
0
  6
CONTINUOUS
 62
     0
100
AcDbLine
 10
0.0
 20
0.0
 30
0.0
 11
-1.0
 21
0.0
 31
0.0
  0
SOLID
  5
A6
330
A2
100
AcDbEntity
  8
0
  6
CONTINUOUS
 62
     0
100
AcDbTrace
 10
0.0
 20
0.0
 30
0.0
 11
-0.965926
 21
0.258819
 31
0.0
 12
-0.965926
 22
-0.258819
 32
0.0
 13
-0.965926
 23
-0.258819
 33
0.0
  0
ENDBLK
  5
A4
330
A2
100
AcDbEntity
  8
0
100
AcDbBlockEnd
  0
BLOCK
  5
AC
330
AB
100
AcDbEntity
  8
0
100
AcDbBlockBegin
  2
*D19
 70
     1
 71
     0
 10
0.0
 20
0.0
 30
0.0
  3
*D19
  1

  0
TEXT
  5
AE
330
AB
100
AcDbEntity
  8
GR1-1
  6
CONTINUOUS
 62
     7
100
AcDbText
 10
457.758789
 20
317.0
 30
0.0
 40
4.0
  1
95
 50
90.0
 41
0.851351
  7
FX_VECTOR
 72
     5
 11
457.758789
 21
323.0
 31
0.0
100
AcDbText
  0
LINE
  5
AF
330
AB
100
AcDbEntity
  8
GR1-1
  6
CONTINUOUS
 62
     7
100
AcDbLine
 10
417.795649
 20
367.5
 30
0.0
 11
459.758795
 21
367.5
 31
0.0
  0
LINE
  5
B0
330
AB
100
AcDbEntity
  8
GR1-1
  6
CONTINUOUS
 62
     7
100
AcDbLine
 10
417.795649
 20
272.5
 30
0.0
 11
459.758795
 21
272.5
 31
0.0
  0
LINE
  5
B1
330
AB
100
AcDbEntity
  8
GR1-1
  6
CONTINUOUS
 62
     7
100
AcDbLine
 10
458.758795
 20
367.5
 30
0.0
 11
458.758795
 21
272.5
 31
0.0
  0
INSERT
  5
B2
330
AB
100
AcDbEntity
  8
GR1-1
  6
CONTINUOUS
 62
     7
100
AcDbBlockReference
  2
FXTIP_ARROW_S
 10
458.758795
 20
367.5
 30
0.0
 41
4.0
 42
4.0
 50
90.0
  0
INSERT
  5
B3
330
AB
100
AcDbEntity
  8
GR1-1
  6
CONTINUOUS
 62
     7
100
AcDbBlockReference
  2
FXTIP_ARROW_E
 10
458.758795
 20
272.5
 30
0.0
 41
4.0
 42
4.0
 50
270.0
  0
ENDBLK
  5
AD
330
AB
100
AcDbEntity
  8
0
100
AcDbBlockEnd
  0
BLOCK
  5
B6
330
B5
100
AcDbEntity
  8
0
100
AcDbBlockBegin
  2
*D20
 70
     1
 71
     0
 10
0.0
 20
0.0
 30
0.0
  3
*D20
  1

  0
TEXT
  5
B8
330
B5
100
AcDbEntity
  8
GR1-1
  6
CONTINUOUS
 62
     7
100
AcDbText
 10
447.758789
 20
317.0
 30
0.0
 40
4.0
  1
73
 50
90.0
 41
0.851351
  7
FX_VECTOR
 72
     5
 11
447.758789
 21
323.0
 31
0.0
100
AcDbText
  0
LINE
  5
B9
330
B5
100
AcDbEntity
  8
GR1-1
  6
CONTINUOUS
 62
     7
100
AcDbLine
 10
425.295649
 20
356.5
 30
0.0
 11
449.758795
 21
356.5
 31
0.0
  0
LINE
  5
BA
330
B5
100
AcDbEntity
  8
GR1-1
  6
CONTINUOUS
 62
     7
100
AcDbLine
 10
425.295649
 20
283.5
 30
0.0
 11
449.758795
 21
283.5
 31
0.0
  0
LINE
  5
BB
330
B5
100
AcDbEntity
  8
GR1-1
  6
CONTINUOUS
 62
     7
100
AcDbLine
 10
448.758795
 20
356.5
 30
0.0
 11
448.758795
 21
283.5
 31
0.0
  0
INSERT
  5
BC
330
B5
100
AcDbEntity
  8
GR1-1
  6
CONTINUOUS
 62
     7
100
AcDbBlockReference
  2
FXTIP_ARROW_S
 10
448.758795
 20
356.5
 30
0.0
 41
4.0
 42
4.0
 50
90.0
  0
INSERT
  5
BD
330
B5
100
AcDbEntity
  8
GR1-1
  6
CONTINUOUS
 62
     7
100
AcDbBlockReference
  2
FXTIP_ARROW_E
 10
448.758795
 20
283.5
 30
0.0
 41
4.0
 42
4.0
 50
270.0
  0
ENDBLK
  5
B7
330
B5
100
AcDbEntity
  8
0
100
AcDbBlockEnd
  0
BLOCK
  5
C0
330
BF
100
AcDbEntity
  8
0
100
AcDbBlockBegin
  2
*D21
 70
     1
 71
     0
 10
0.0
 20
0.0
 30
0.0
  3
*D21
  1

  0
TEXT
  5
C2
330
BF
100
AcDbEntity
  8
GR1-1
  6
CONTINUOUS
 62
     7
100
AcDbText
 10
437.758789
 20
317.0
 30
0.0
 40
4.0
  1
70
 50
90.0
 41
0.851351
  7
FX_VECTOR
 72
     5
 11
437.758789
 21
323.0
 31
0.0
100
AcDbText
  0
LINE
  5
C3
330
BF
100
AcDbEntity
  8
GR1-1
  6
CONTINUOUS
 62
     7
100
AcDbLine
 10
423.795649
 20
355.0
 30
0.0
 11
439.758795
 21
355.0
 31
0.0
  0
LINE
  5
C4
330
BF
100
AcDbEntity
  8
GR1-1
  6
CONTINUOUS
 62
     7
100
AcDbLine
 10
423.795649
 20
285.0
 30
0.0
 11
439.758795
 21
285.0
 31
0.0
  0
LINE
  5
C5
330
BF
100
AcDbEntity
  8
GR1-1
  6
CONTINUOUS
 62
     7
100
AcDbLine
 10
438.758795
 20
355.0
 30
0.0
 11
438.758795
 21
285.0
 31
0.0
  0
INSERT
  5
C6
330
BF
100
AcDbEntity
  8
GR1-1
  6
CONTINUOUS
 62
     7
100
AcDbBlockReference
  2
FXTIP_ARROW_S
 10
438.758795
 20
355.0
 30
0.0
 41
4.0
 42
4.0
 50
90.0
  0
INSERT
  5
C7
330
BF
100
AcDbEntity
  8
GR1-1
  6
CONTINUOUS
 62
     7
100
AcDbBlockReference
  2
FXTIP_ARROW_E
 10
438.758795
 20
285.0
 30
0.0
 41
4.0
 42
4.0
 50
270.0
  0
ENDBLK
  5
C1
330
BF
100
AcDbEntity
  8
0
100
AcDbBlockEnd
  0
BLOCK
  5
CA
330
C9
100
AcDbEntity
  8
0
100
AcDbBlockBegin
  2
*D22
 70
     1
 71
     0
 10
0.0
 20
0.0
 30
0.0
  3
*D22
  1

  0
TEXT
  5
CC
330
C9
100
AcDbEntity
  8
GR1-1
  6
CONTINUOUS
 62
     7
100
AcDbText
 10
447.450989
 20
123.5
 30
0.0
 40
4.0
  1
144
 50
90.0
 41
0.814655
  7
FX_VECTOR
 72
     5
 11
447.450989
 21
132.5
 31
0.0
100
AcDbText
  0
LINE
  5
CD
330
C9
100
AcDbEntity
  8
GR1-1
  6
CONTINUOUS
 62
     7
100
AcDbLine
 10
429.795649
 20
200.0
 30
0.0
 11
449.450994
 21
200.0
 31
0.0
  0
LINE
  5
CE
330
C9
100
AcDbEntity
  8
GR1-1
  6
CONTINUOUS
 62
     7
100
AcDbLine
 10
347.295649
 20
56.0
 30
0.0
 11
449.450994
 21
56.0
 31
0.0
  0
LINE
  5
CF
330
C9
100
AcDbEntity
  8
GR1-1
  6
CONTINUOUS
 62
     7
100
AcDbLine
 10
448.450994
 20
200.0
 30
0.0
 11
448.450994
 21
56.0
 31
0.0
  0
INSERT
  5
D0
330
C9
100
AcDbEntity
  8
GR1-1
  6
CONTINUOUS
 62
     7
100
AcDbBlockReference
  2
FXTIP_ARROW_S
 10
448.450994
 20
200.0
 30
0.0
 41
4.0
 42
4.0
 50
90.0
  0
INSERT
  5
D1
330
C9
100
AcDbEntity
  8
GR1-1
  6
CONTINUOUS
 62
     7
100
AcDbBlockReference
  2
FXTIP_ARROW_E
 10
448.450994
 20
56.0
 30
0.0
 41
4.0
 42
4.0
 50
270.0
  0
ENDBLK
  5
CB
330
C9
100
AcDbEntity
  8
0
100
AcDbBlockEnd
  0
BLOCK
  5
D4
330
D3
100
AcDbEntity
  8
0
100
AcDbBlockBegin
  2
*D23
 70
     1
 71
     0
 10
0.0
 20
0.0
 30
0.0
  3
*D23
  1

  0
TEXT
  5
D6
330
D3
100
AcDbEntity
  8
GR1-1
  6
CONTINUOUS
 62
     7
100
AcDbText
 10
437.450989
 20
150.0
 30
0.0
 40
4.0
  1
94
 50
90.0
 41
0.828947
  7
FX_VECTOR
 72
     5
 11
437.450989
 21
156.0
 31
0.0
100
AcDbText
  0
LINE
  5
D7
330
D3
100
AcDbEntity
  8
GR1-1
  6
CONTINUOUS
 62
     7
100
AcDbLine
 10
399.131332
 20
106.0
 30
0.0
 11
439.450994
 21
106.0
 31
0.0
  0
LINE
  5
D8
330
D3
100
AcDbEntity
  8
GR1-1
  6
CONTINUOUS
 62
     7
100
AcDbLine
 10
438.450994
 20
200.0
 30
0.0
 11
438.450994
 21
106.0
 31
0.0
  0
INSERT
  5
D9
330
D3
100
AcDbEntity
  8
GR1-1
  6
CONTINUOUS
 62
     7
100
AcDbBlockReference
  2
FXTIP_ARROW_S
 10
438.450994
 20
200.0
 30
0.0
 41
4.0
 42
4.0
 50
90.0
  0
INSERT
  5
DA
330
D3
100
AcDbEntity
  8
GR1-1
  6
CONTINUOUS
 62
     7
100
AcDbBlockReference
  2
FXTIP_ARROW_E
 10
438.450994
 20
106.0
 30
0.0
 41
4.0
 42
4.0
 50
270.0
  0
ENDBLK
  5
D5
330
D3
100
AcDbEntity
  8
0
100
AcDbBlockEnd
  0
BLOCK
  5
DD
330
DC
100
AcDbEntity
  8
0
100
AcDbBlockBegin
  2
*D24
 70
     1
 71
     0
 10
0.0
 20
0.0
 30
0.0
  3
*D24
  1

  0
TEXT
  5
DF
330
DC
100
AcDbEntity
  8
GR1-1
  6
CONTINUOUS
 62
     7
100
AcDbText
 10
360.795654
 20
46.816792
 30
0.0
 40
4.0
  1
35
 41
0.851351
  7
FX_VECTOR
 72
     5
 11
366.795654
 21
46.816792
 31
0.0
100
AcDbText
  0
LINE
  5
E0
330
DC
100
AcDbEntity
  8
GR1-1
  6
CONTINUOUS
 62
     7
100
AcDbLine
 10
346.295649
 20
52.664945
 30
0.0
 11
346.295649
 21
44.816791
 31
0.0
  0
LINE
  5
E1
330
DC
100
AcDbEntity
  8
GR1-1
  6
CONTINUOUS
 62
     7
100
AcDbLine
 10
381.295649
 20
124.445657
 30
0.0
 11
381.295649
 21
44.816791
 31
0.0
  0
LINE
  5
E2
330
DC
100
AcDbEntity
  8
GR1-1
  6
CONTINUOUS
 62
     7
100
AcDbLine
 10
346.295649
 20
45.816791
 30
0.0
 11
381.295649
 21
45.816791
 31
0.0
  0
INSERT
  5
E3
330
DC
100
AcDbEntity
  8
GR1-1
  6
CONTINUOUS
 62
     7
100
AcDbBlockReference
  2
FXTIP_ARROW_S
 10
346.295649
 20
45.816791
 30
0.0
 41
4.0
 42
4.0
 50
180.0
  0
INSERT
  5
E4
330
DC
100
AcDbEntity
  8
GR1-1
  6
CONTINUOUS
 62
     7
100
AcDbBlockReference
  2
FXTIP_ARROW_E
 10
381.295649
 20
45.816791
 30
0.0
 41
4.0
 42
4.0
 50
360.0
  0
ENDBLK
  5
DE
330
DC
100
AcDbEntity
  8
0
100
AcDbBlockEnd
  0
BLOCK
  5
E7
330
E6
100
AcDbEntity
  8
0
100
AcDbBlockBegin
  2
*D25
 70
     1
 71
     0
 10
0.0
 20
0.0
 30
0.0
  3
*D25
  1

  0
TEXT
  5
E9
330
E6
100
AcDbEntity
  8
GR1-1
  6
CONTINUOUS
 62
     7
100
AcDbText
 10
324.23528
 20
368.064412
 30
0.0
 40
4.78003
  1
4-10.5
 50
45.0
 41
0.469289
  7
FX_VECTOR
 72
     5
 11
332.770518
 21
376.59965
 31
0.0
100
AcDbText
  0
LINE
  5
EA
330
E6
100
AcDbEntity
  8
GR1-1
  6
CONTINUOUS
 62
     7
100
AcDbLine
 10
347.800853
 20
360.919417
 30
0.0
 11
332.966538
 21
375.753733
 31
0.0
  0
LINE
  5
EB
330
E6
100
AcDbEntity
  8
GR1-1
  6
CONTINUOUS
 62
     7
100
AcDbLine
 10
340.376232
 20
353.494796
 30
0.0
 11
325.541917
 21
368.329111
 31
0.0
  0
LINE
  5
EC
330
E6
100
AcDbEntity
  8
GR1-1
  6
CONTINUOUS
 62
     7
100
AcDbLine
 10
333.673645
 20
375.046626
 30
0.0
 11
326.249023
 21
367.622005
 31
0.0
  0
INSERT
  5
ED
330
E6
100
AcDbEntity
  8
GR1-1
  6
CONTINUOUS
 62
     7
100
AcDbBlockReference
  2
FXTIP_ARROW_S
 10
333.673645
 20
375.046626
 30
0.0
 41
4.0
 42
4.0
 50
45.0
  0
INSERT
  5
EE
330
E6
100
AcDbEntity
  8
GR1-1
  6
CONTINUOUS
 62
     7
100
AcDbBlockReference
  2
FXTIP_ARROW_E
 10
326.249023
 20
367.622005
 30
0.0
 41
4.0
 42
4.0
 50
225.0
  0
ENDBLK
  5
E8
330
E6
100
AcDbEntity
  8
0
100
AcDbBlockEnd
  0
BLOCK
  5
15A
330
159
100
AcDbEntity
  8
0
100
AcDbBlockBegin
  2
*D26
 70
     1
 71
     0
 10
0.0
 20
0.0
 30
0.0
  3
*D26
  1

  0
TEXT
  5
15C
330
159
100
AcDbEntity
  8
GR1-1
  6
CONTINUOUS
 62
     7
100
AcDbText
 10
378.295654
 20
255.399734
 30
0.0
 40
4.0
  1
70
 41
0.851351
  7
FX_VECTOR
 72
     5
 11
384.295654
 21
255.399734
 31
0.0
100
AcDbText
  0
LINE
  5
15D
330
159
100
AcDbEntity
  8
GR1-1
  6
CONTINUOUS
 62
     7
100
AcDbLine
 10
346.295649
 20
277.5
 30
0.0
 11
346.295649
 21
253.399735
 31
0.0
  0
LINE
  5
15E
330
159
100
AcDbEntity
  8
GR1-1
  6
CONTINUOUS
 62
     7
100
AcDbLine
 10
416.295649
 20
277.5
 30
0.0
 11
416.295649
 21
253.399735
 31
0.0
  0
LINE
  5
15F
330
159
100
AcDbEntity
  8
GR1-1
  6
CONTINUOUS
 62
     7
100
AcDbLine
 10
346.295649
 20
254.399735
 30
0.0
 11
416.295649
 21
254.399735
 31
0.0
  0
INSERT
  5
160
330
159
100
AcDbEntity
  8
GR1-1
  6
CONTINUOUS
 62
     7
100
AcDbBlockReference
  2
FXTIP_ARROW_S
 10
346.295649
 20
254.399735
 30
0.0
 41
4.0
 42
4.0
 50
180.0
  0
INSERT
  5
161
330
159
100
AcDbEntity
  8
GR1-1
  6
CONTINUOUS
 62
     7
100
AcDbBlockReference
  2
FXTIP_ARROW_E
 10
416.295649
 20
254.399735
 30
0.0
 41
4.0
 42
4.0
 50
360.0
  0
ENDBLK
  5
15B
330
159
100
AcDbEntity
  8
0
100
AcDbBlockEnd
  0
BLOCK
  5
164
330
163
100
AcDbEntity
  8
0
100
AcDbBlockBegin
  2
*D27
 70
     1
 71
     0
 10
0.0
 20
0.0
 30
0.0
  3
*D27
  1

  0
TEXT
  5
166
330
163
100
AcDbEntity
  8
GR1-1
  6
CONTINUOUS
 62
     7
100
AcDbText
 10
378.295654
 20
245.399734
 30
0.0
 40
4.0
  1
73
 41
0.851351
  7
FX_VECTOR
 72
     5
 11
384.295654
 21
245.399734
 31
0.0
100
AcDbText
  0
LINE
  5
167
330
163
100
AcDbEntity
  8
GR1-1
  6
CONTINUOUS
 62
     7
100
AcDbLine
 10
344.795649
 20
276.0
 30
0.0
 11
344.795649
 21
243.399735
 31
0.0
  0
LINE
  5
168
330
163
100
AcDbEntity
  8
GR1-1
  6
CONTINUOUS
 62
     7
100
AcDbLine
 10
417.795649
 20
276.0
 30
0.0
 11
417.795649
 21
243.399735
 31
0.0
  0
LINE
  5
169
330
163
100
AcDbEntity
  8
GR1-1
  6
CONTINUOUS
 62
     7
100
AcDbLine
 10
344.795649
 20
244.399735
 30
0.0
 11
417.795649
 21
244.399735
 31
0.0
  0
INSERT
  5
16A
330
163
100
AcDbEntity
  8
GR1-1
  6
CONTINUOUS
 62
     7
100
AcDbBlockReference
  2
FXTIP_ARROW_S
 10
344.795649
 20
244.399735
 30
0.0
 41
4.0
 42
4.0
 50
180.0
  0
INSERT
  5
16B
330
163
100
AcDbEntity
  8
GR1-1
  6
CONTINUOUS
 62
     7
100
AcDbBlockReference
  2
FXTIP_ARROW_E
 10
417.795649
 20
244.399735
 30
0.0
 41
4.0
 42
4.0
 50
360.0
  0
ENDBLK
  5
165
330
163
100
AcDbEntity
  8
0
100
AcDbBlockEnd
  0
BLOCK
  5
16E
330
16D
100
AcDbEntity
  8
0
100
AcDbBlockBegin
  2
*D28
 70
     1
 71
     0
 10
0.0
 20
0.0
 30
0.0
  3
*D28
  1

  0
TEXT
  5
170
330
16D
100
AcDbEntity
  8
GR1-1
  6
CONTINUOUS
 62
     7
100
AcDbText
 10
378.295654
 20
235.399734
 30
0.0
 40
4.0
  1
95
 41
0.851351
  7
FX_VECTOR
 72
     5
 11
384.295654
 21
235.399734
 31
0.0
100
AcDbText
  0
LINE
  5
171
330
16D
100
AcDbEntity
  8
GR1-1
  6
CONTINUOUS
 62
     7
100
AcDbLine
 10
333.795649
 20
283.5
 30
0.0
 11
333.795649
 21
233.399735
 31
0.0
  0
LINE
  5
172
330
16D
100
AcDbEntity
  8
GR1-1
  6
CONTINUOUS
 62
     7
100
AcDbLine
 10
428.795649
 20
283.5
 30
0.0
 11
428.795649
 21
233.399735
 31
0.0
  0
LINE
  5
173
330
16D
100
AcDbEntity
  8
GR1-1
  6
CONTINUOUS
 62
     7
100
AcDbLine
 10
333.795649
 20
234.399735
 30
0.0
 11
428.795649
 21
234.399735
 31
0.0
  0
INSERT
  5
174
330
16D
100
AcDbEntity
  8
GR1-1
  6
CONTINUOUS
 62
     7
100
AcDbBlockReference
  2
FXTIP_ARROW_S
 10
333.795649
 20
234.399735
 30
0.0
 41
4.0
 42
4.0
 50
180.0
  0
INSERT
  5
175
330
16D
100
AcDbEntity
  8
GR1-1
  6
CONTINUOUS
 62
     7
100
AcDbBlockReference
  2
FXTIP_ARROW_E
 10
428.795649
 20
234.399735
 30
0.0
 41
4.0
 42
4.0
 50
360.0
  0
ENDBLK
  5
16F
330
16D
100
AcDbEntity
  8
0
100
AcDbBlockEnd
  0
BLOCK
  5
25E
330
25D
100
AcDbEntity
  8
0
100
AcDbBlockBegin
  2
*D29
 70
     1
 71
     0
 10
0.0
 20
0.0
 30
0.0
  3
*D29
  1

  0
TEXT
  5
260
330
25D
100
AcDbEntity
  8
GR1-1
  6
CONTINUOUS
 62
     7
100
AcDbText
 10
302.999193
 20
293.238245
 30
0.0
 40
4.0
  1
88
 50
19.452793
 41
0.851351
  7
FX_VECTOR
 72
     5
 11
308.65669
 21
295.236425
 31
0.0
100
AcDbText
  0
LINE
  5
261
330
25D
100
AcDbEntity
  8
GR1-1
  6
CONTINUOUS
 62
     7
100
AcDbLine
 10
298.57055
 20
290.782189
 30
0.0
 11
381.295649
 21
320.0
 31
0.0
  0
INSERT
  5
262
330
25D
100
AcDbEntity
  8
GR1-1
  6
CONTINUOUS
 62
     7
100
AcDbBlockReference
  2
FXTIP_ARROW_S
 10
298.57055
 20
290.782189
 30
0.0
 41
4.0
 42
4.0
 50
199.452793
  0
ENDBLK
  5
25F
330
25D
100
AcDbEntity
  8
0
100
AcDbBlockEnd
  0
BLOCK
  5
268
330
267
100
AcDbEntity
  8
0
100
AcDbBlockBegin
  2
*D30
 70
     1
 71
     0
 10
0.0
 20
0.0
 30
0.0
  3
*D30
  1

  0
TEXT
  5
26A
330
267
100
AcDbEntity
  8
GR1-1
  6
CONTINUOUS
 62
     7
100
AcDbText
 10
158.140854
 20
36.904312
 30
0.0
 40
4.0
  1
42
 41
0.851351
  7
FX_VECTOR
 72
     5
 11
164.140854
 21
36.904312
 31
0.0
100
AcDbText
  0
LINE
  5
26B
330
267
100
AcDbEntity
  8
GR1-1
  6
CONTINUOUS
 62
     7
100
AcDbLine
 10
140.14085
 20
97.0
 30
0.0
 11
140.14085
 21
34.904309
 31
0.0
  0
LINE
  5
26C
330
267
100
AcDbEntity
  8
GR1-1
  6
CONTINUOUS
 62
     7
100
AcDbLine
 10
182.14085
 20
97.0
 30
0.0
 11
182.14085
 21
34.904309
 31
0.0
  0
LINE
  5
26D
330
267
100
AcDbEntity
  8
GR1-1
  6
CONTINUOUS
 62
     7
100
AcDbLine
 10
140.14085
 20
35.904309
 30
0.0
 11
182.14085
 21
35.904309
 31
0.0
  0
INSERT
  5
26E
330
267
100
AcDbEntity
  8
GR1-1
  6
CONTINUOUS
 62
     7
100
AcDbBlockReference
  2
FXTIP_ARROW_S
 10
140.14085
 20
35.904309
 30
0.0
 41
4.0
 42
4.0
 50
180.0
  0
INSERT
  5
26F
330
267
100
AcDbEntity
  8
GR1-1
  6
CONTINUOUS
 62
     7
100
AcDbBlockReference
  2
FXTIP_ARROW_E
 10
182.14085
 20
35.904309
 30
0.0
 41
4.0
 42
4.0
 50
360.0
  0
ENDBLK
  5
269
330
267
100
AcDbEntity
  8
0
100
AcDbBlockEnd
  0
BLOCK
  5
272
330
271
100
AcDbEntity
  8
0
100
AcDbBlockBegin
  2
*D31
 70
     1
 71
     0
 10
0.0
 20
0.0
 30
0.0
  3
*D31
  1

  0
TEXT
  5
274
330
271
100
AcDbEntity
  8
GR1-1
  6
CONTINUOUS
 62
     7
100
AcDbText
 10
158.140854
 20
46.904312
 30
0.0
 40
4.0
  1
35
 41
0.851351
  7
FX_VECTOR
 72
     5
 11
164.140854
 21
46.904312
 31
0.0
100
AcDbText
  0
LINE
  5
275
330
271
100
AcDbEntity
  8
GR1-1
  6
CONTINUOUS
 62
     7
100
AcDbLine
 10
143.64085
 20
67.0
 30
0.0
 11
143.64085
 21
44.904309
 31
0.0
  0
LINE
  5
276
330
271
100
AcDbEntity
  8
GR1-1
  6
CONTINUOUS
 62
     7
100
AcDbLine
 10
178.64085
 20
67.0
 30
0.0
 11
178.64085
 21
44.904309
 31
0.0
  0
LINE
  5
277
330
271
100
AcDbEntity
  8
GR1-1
  6
CONTINUOUS
 62
     7
100
AcDbLine
 10
143.64085
 20
45.904309
 30
0.0
 11
178.64085
 21
45.904309
 31
0.0
  0
INSERT
  5
278
330
271
100
AcDbEntity
  8
GR1-1
  6
CONTINUOUS
 62
     7
100
AcDbBlockReference
  2
FXTIP_ARROW_S
 10
143.64085
 20
45.904309
 30
0.0
 41
4.0
 42
4.0
 50
180.0
  0
INSERT
  5
279
330
271
100
AcDbEntity
  8
GR1-1
  6
CONTINUOUS
 62
     7
100
AcDbBlockReference
  2
FXTIP_ARROW_E
 10
178.64085
 20
45.904309
 30
0.0
 41
4.0
 42
4.0
 50
360.0
  0
ENDBLK
  5
273
330
271
100
AcDbEntity
  8
0
100
AcDbBlockEnd
  0
BLOCK
  5
291
330
290
100
AcDbEntity
  8
0
100
AcDbBlockBegin
  2
*D32
 70
     1
 71
     0
 10
0.0
 20
0.0
 30
0.0
  3
*D32
  1

  0
TEXT
  5
293
330
290
100
AcDbEntity
  8
LAYERGROUP-1
  6
CONTINUOUS
 62
     7
100
AcDbText
 10
111.825989
 20
100.0
 30
0.0
 40
4.0
  1
%%c100
 50
90.0
 41
0.828947
  7
FX_VECTOR
 72
     5
 11
111.825989
 21
112.0
 31
0.0
100
AcDbText
  0
LINE
  5
294
330
290
100
AcDbEntity
  8
LAYERGROUP-1
  6
CONTINUOUS
 62
     7
100
AcDbLine
 10
112.825982
 20
56.0
 30
0.0
 11
112.825982
 21
156.0
 31
0.0
  0
INSERT
  5
295
330
290
100
AcDbEntity
  8
LAYERGROUP-1
  6
CONTINUOUS
 62
     7
100
AcDbBlockReference
  2
FXTIP_ARROW_S
 10
112.825982
 20
56.0
 30
0.0
 41
4.0
 42
4.0
 50
270.0
  0
INSERT
  5
296
330
290
100
AcDbEntity
  8
LAYERGROUP-1
  6
CONTINUOUS
 62
     7
100
AcDbBlockReference
  2
FXTIP_ARROW_E
 10
112.825982
 20
156.0
 30
0.0
 41
4.0
 42
4.0
 50
90.0
  0
LINE
  5
297
330
290
100
AcDbEntity
  8
LAYERGROUP-1
  6
CONTINUOUS
 62
     7
100
AcDbLine
 10
160.14085
 20
56.0
 30
0.0
 11
111.825982
 21
56.0
 31
0.0
  0
LINE
  5
298
330
290
100
AcDbEntity
  8
LAYERGROUP-1
  6
CONTINUOUS
 62
     7
100
AcDbLine
 10
160.14085
 20
156.0
 30
0.0
 11
111.825982
 21
156.0
 31
0.0
  0
ENDBLK
  5
292
330
290
100
AcDbEntity
  8
0
100
AcDbBlockEnd
  0
BLOCK
  5
304
330
303
100
AcDbEntity
  8
0
100
AcDbBlockBegin
  2
BLKF035
 70
     0
 71
     0
 10
0.0
 20
0.0
 30
0.0
  3
BLKF035
  1

  0
LINE
  5
307
330
303
100
AcDbEntity
  8
GR1-1
  6
CONTINUOUS
 62
     7
100
AcDbLine
 10
322.839743
 20
72.296787
 30
0.0
 11
322.516664
 21
72.220341
 31
0.0
  0
LINE
  5
308
330
303
100
AcDbEntity
  8
GR1-1
  6
CONTINUOUS
 62
     7
100
AcDbLine
 10
323.039505
 20
72.17347
 30
0.0
 11
322.393347
 21
72.020579
 31
0.0
  0
LINE
  5
309
330
303
100
AcDbEntity
  8
GR1-1
  6
CONTINUOUS
 62
     7
100
AcDbLine
 10
323.239268
 20
72.050154
 30
0.0
 11
322.270031
 21
71.820817
 31
0.0
  0
LINE
  5
30A
330
303
100
AcDbEntity
  8
GR1-1
  6
CONTINUOUS
 62
     7
100
AcDbLine
 10
323.43903
 20
71.926837
 30
0.0
 11
322.146714
 21
71.621054
 31
0.0
  0
LINE
  5
30B
330
303
100
AcDbEntity
  8
GR1-1
  6
CONTINUOUS
 62
     7
100
AcDbLine
 10
323.638792
 20
71.80352
 30
0.0
 11
322.524316
 21
71.539817
 31
0.0
  0
LINE
  5
30C
330
303
100
AcDbEntity
  8
GR1-1
  6
CONTINUOUS
 62
     7
100
AcDbLine
 10
322.219377
 20
71.467664
 30
0.0
 11
322.023397
 21
71.421292
 31
0.0
  0
LINE
  5
30D
330
303
100
AcDbEntity
  8
GR1-1
  6
CONTINUOUS
 62
     7
100
AcDbLine
 10
323.838555
 20
71.680204
 30
0.0
 11
322.724078
 21
71.416501
 31
0.0
  0
LINE
  5
30E
330
303
100
AcDbEntity
  8
GR1-1
  6
CONTINUOUS
 62
     7
100
AcDbLine
 10
322.096061
 20
71.267902
 30
0.0
 11
321.90008
 21
71.221529
 31
0.0
  0
LINE
  5
30F
330
303
100
AcDbEntity
  8
GR1-1
  6
CONTINUOUS
 62
     7
100
AcDbLine
 10
324.038317
 20
71.556887
 30
0.0
 11
322.923841
 21
71.293184
 31
0.0
  0
LINE
  5
310
330
303
100
AcDbEntity
  8
GR1-1
  6
CONTINUOUS
 62
     7
100
AcDbLine
 10
321.972744
 20
71.068139
 30
0.0
 11
321.776764
 21
71.021767
 31
0.0
  0
LINE
  5
311
330
303
100
AcDbEntity
  8
GR1-1
  6
CONTINUOUS
 62
     7
100
AcDbLine
 10
324.238079
 20
71.43357
 30
0.0
 11
322.991684
 21
71.138653
 31
0.0
  0
LINE
  5
312
330
303
100
AcDbEntity
  8
GR1-1
  6
CONTINUOUS
 62
     7
100
AcDbLine
 10
321.849427
 20
70.868377
 30
0.0
 11
321.653447
 21
70.822005
 31
0.0
  0
LINE
  5
313
330
303
100
AcDbEntity
  8
GR1-1
  6
CONTINUOUS
 62
     7
100
AcDbLine
 10
324.437842
 20
71.310254
 30
0.0
 11
322.868368
 21
70.938891
 31
0.0
  0
LINE
  5
314
330
303
100
AcDbEntity
  8
GR1-1
  6
CONTINUOUS
 62
     7
100
AcDbLine
 10
321.726111
 20
70.668614
 30
0.0
 11
321.53013
 21
70.622242
 31
0.0
  0
LINE
  5
315
330
303
100
AcDbEntity
  8
GR1-1
  6
CONTINUOUS
 62
     7
100
AcDbLine
 10
324.637604
 20
71.186937
 30
0.0
 11
322.745051
 21
70.739128
 31
0.0
  0
LINE
  5
316
330
303
100
AcDbEntity
  8
GR1-1
  6
CONTINUOUS
 62
     7
100
AcDbLine
 10
321.602794
 20
70.468852
 30
0.0
 11
321.406814
 21
70.42248
 31
0.0
  0
LINE
  5
317
330
303
100
AcDbEntity
  8
GR1-1
  6
CONTINUOUS
 62
     7
100
AcDbLine
 10
324.837366
 20
71.06362
 30
0.0
 11
322.716127
 21
70.561701
 31
0.0
  0
LINE
  5
318
330
303
100
AcDbEntity
  8
GR1-1
  6
CONTINUOUS
 62
     7
100
AcDbLine
 10
321.479477
 20
70.26909
 30
0.0
 11
321.283497
 21
70.222718
 31
0.0
  0
LINE
  5
319
330
303
100
AcDbEntity
  8
GR1-1
  6
CONTINUOUS
 62
     7
100
AcDbLine
 10
325.037129
 20
70.940304
 30
0.0
 11
324.71405
 21
70.863858
 31
0.0
  0
LINE
  5
31A
330
303
100
AcDbEntity
  8
GR1-1
  6
CONTINUOUS
 62
     7
100
AcDbLine
 10
321.610358
 20
70.129475
 30
0.0
 11
321.16018
 21
70.022955
 31
0.0
  0
LINE
  5
31B
330
303
100
AcDbEntity
  8
GR1-1
  6
CONTINUOUS
 62
     7
100
AcDbLine
 10
325.236891
 20
70.816987
 30
0.0
 11
324.752273
 21
70.702318
 31
0.0
  0
LINE
  5
31C
330
303
100
AcDbEntity
  8
GR1-1
  6
CONTINUOUS
 62
     7
100
AcDbLine
 10
321.810121
 20
70.006158
 30
0.0
 11
321.036864
 21
69.823193
 31
0.0
  0
LINE
  5
31D
330
303
100
AcDbEntity
  8
GR1-1
  6
CONTINUOUS
 62
     7
100
AcDbLine
 10
325.436654
 20
70.69367
 30
0.0
 11
324.790495
 21
70.540779
 31
0.0
  0
LINE
  5
31E
330
303
100
AcDbEntity
  8
GR1-1
  6
CONTINUOUS
 62
     7
100
AcDbLine
 10
322.009883
 20
69.882841
 30
0.0
 11
321.667206
 21
69.801758
 31
0.0
  0
LINE
  5
31F
330
303
100
AcDbEntity
  8
GR1-1
  6
CONTINUOUS
 62
     7
100
AcDbLine
 10
321.559705
 20
69.776322
 30
0.0
 11
320.913547
 21
69.623431
 31
0.0
  0
LINE
  5
320
330
303
100
AcDbEntity
  8
GR1-1
  6
CONTINUOUS
 62
     7
100
AcDbLine
 10
325.636416
 20
70.570354
 30
0.0
 11
324.828718
 21
70.379239
 31
0.0
  0
LINE
  5
321
330
303
100
AcDbEntity
  8
GR1-1
  6
CONTINUOUS
 62
     7
100
AcDbLine
 10
322.209645
 20
69.759525
 30
0.0
 11
321.866968
 21
69.678442
 31
0.0
  0
LINE
  5
322
330
303
100
AcDbEntity
  8
GR1-1
  6
CONTINUOUS
 62
     7
100
AcDbLine
 10
321.597928
 20
69.614782
 30
0.0
 11
320.79023
 21
69.423668
 31
0.0
  0
LINE
  5
323
330
303
100
AcDbEntity
  8
GR1-1
  6
CONTINUOUS
 62
     7
100
AcDbLine
 10
325.836178
 20
70.447037
 30
0.0
 11
324.866941
 21
70.2177
 31
0.0
  0
LINE
  5
324
330
303
100
AcDbEntity
  8
GR1-1
  6
CONTINUOUS
 62
     7
100
AcDbLine
 10
322.409408
 20
69.636208
 30
0.0
 11
322.066731
 21
69.555125
 31
0.0
  0
LINE
  5
325
330
303
100
AcDbEntity
  8
GR1-1
  6
CONTINUOUS
 62
     7
100
AcDbLine
 10
321.636151
 20
69.453243
 30
0.0
 11
320.666914
 21
69.223906
 31
0.0
  0
LINE
  5
326
330
303
100
AcDbEntity
  8
GR1-1
  6
CONTINUOUS
 62
     7
100
AcDbLine
 10
326.035941
 20
70.32372
 30
0.0
 11
324.905164
 21
70.05616
 31
0.0
  0
LINE
  5
327
330
303
100
AcDbEntity
  8
GR1-1
  6
CONTINUOUS
 62
     7
100
AcDbLine
 10
324.097466
 20
69.865046
 30
0.0
 11
323.182033
 21
69.64844
 31
0.0
  0
LINE
  5
328
330
303
100
AcDbEntity
  8
GR1-1
  6
CONTINUOUS
 62
     7
100
AcDbLine
 10
322.60917
 20
69.512891
 30
0.0
 11
322.266493
 21
69.431808
 31
0.0
  0
LINE
  5
329
330
303
100
AcDbEntity
  8
GR1-1
  6
CONTINUOUS
 62
     7
100
AcDbLine
 10
321.674374
 20
69.291703
 30
0.0
 11
320.543597
 21
69.024144
 31
0.0
  0
LINE
  5
32A
330
303
100
AcDbEntity
  8
GR1-1
  6
CONTINUOUS
 62
     7
100
AcDbLine
 10
326.235703
 20
70.200404
 30
0.0
 11
324.943387
 21
69.894621
 31
0.0
  0
LINE
  5
32B
330
303
100
AcDbEntity
  8
GR1-1
  6
CONTINUOUS
 62
     7
100
AcDbLine
 10
324.135689
 20
69.703507
 30
0.0
 11
323.380061
 21
69.524713
 31
0.0
  0
LINE
  5
32C
330
303
100
AcDbEntity
  8
GR1-1
  6
CONTINUOUS
 62
     7
100
AcDbLine
 10
322.808932
 20
69.389575
 30
0.0
 11
322.466255
 21
69.308492
 31
0.0
  0
LINE
  5
32D
330
303
100
AcDbEntity
  8
GR1-1
  6
CONTINUOUS
 62
     7
100
AcDbLine
 10
321.712597
 20
69.130164
 30
0.0
 11
320.42028
 21
68.824381
 31
0.0
  0
LINE
  5
32E
330
303
100
AcDbEntity
  8
GR1-1
  6
CONTINUOUS
 62
     7
100
AcDbLine
 10
326.435465
 20
70.077087
 30
0.0
 11
324.98161
 21
69.733081
 31
0.0
  0
LINE
  5
32F
330
303
100
AcDbEntity
  8
GR1-1
  6
CONTINUOUS
 62
     7
100
AcDbLine
 10
324.173912
 20
69.541967
 30
0.0
 11
323.579823
 21
69.401396
 31
0.0
  0
LINE
  5
330
330
303
100
AcDbEntity
  8
GR1-1
  6
CONTINUOUS
 62
     7
100
AcDbLine
 10
323.008695
 20
69.266258
 30
0.0
 11
322.558517
 21
69.159739
 31
0.0
  0
LINE
  5
331
330
303
100
AcDbEntity
  8
GR1-1
  6
CONTINUOUS
 62
     7
100
AcDbLine
 10
321.750819
 20
68.968624
 30
0.0
 11
320.296964
 21
68.624619
 31
0.0
  0
LINE
  5
332
330
303
100
AcDbEntity
  8
GR1-1
  6
CONTINUOUS
 62
     7
100
AcDbLine
 10
326.635228
 20
69.95377
 30
0.0
 11
325.019833
 21
69.571542
 31
0.0
  0
LINE
  5
333
330
303
100
AcDbEntity
  8
GR1-1
  6
CONTINUOUS
 62
     7
100
AcDbLine
 10
324.212135
 20
69.380428
 30
0.0
 11
323.600418
 21
69.235685
 31
0.0
  0
LINE
  5
334
330
303
100
AcDbEntity
  8
GR1-1
  6
CONTINUOUS
 62
     7
100
AcDbLine
 10
323.208457
 20
69.142941
 30
0.0
 11
322.59674
 21
68.998199
 31
0.0
  0
LINE
  5
335
330
303
100
AcDbEntity
  8
GR1-1
  6
CONTINUOUS
 62
     7
100
AcDbLine
 10
321.789042
 20
68.807085
 30
0.0
 11
320.173647
 21
68.424856
 31
0.0
  0
LINE
  5
336
330
303
100
AcDbEntity
  8
GR1-1
  6
CONTINUOUS
 62
     7
100
AcDbLine
 10
326.83499
 20
69.830454
 30
0.0
 11
325.058055
 21
69.410002
 31
0.0
  0
LINE
  5
337
330
303
100
AcDbEntity
  8
GR1-1
  6
CONTINUOUS
 62
     7
100
AcDbLine
 10
324.250358
 20
69.218888
 30
0.0
 11
323.477101
 21
69.035923
 31
0.0
  0
LINE
  5
338
330
303
100
AcDbEntity
  8
GR1-1
  6
CONTINUOUS
 62
     7
100
AcDbLine
 10
323.408219
 20
69.019625
 30
0.0
 11
322.634963
 21
68.83666
 31
0.0
  0
LINE
  5
339
330
303
100
AcDbEntity
  8
GR1-1
  6
CONTINUOUS
 62
     7
100
AcDbLine
 10
321.827265
 20
68.645545
 30
0.0
 11
320.05033
 21
68.225094
 31
0.0
  0
LINE
  5
33A
330
303
100
AcDbEntity
  8
GR1-1
  6
CONTINUOUS
 62
     7
100
AcDbLine
 10
326.780555
 20
69.64699
 30
0.0
 11
325.096278
 21
69.248463
 31
0.0
  0
LINE
  5
33B
330
303
100
AcDbEntity
  8
GR1-1
  6
CONTINUOUS
 62
     7
100
AcDbLine
 10
324.288581
 20
69.057349
 30
0.0
 11
322.673185
 21
68.67512
 31
0.0
  0
LINE
  5
33C
330
303
100
AcDbEntity
  8
GR1-1
  6
CONTINUOUS
 62
     7
100
AcDbLine
 10
321.865488
 20
68.484006
 30
0.0
 11
320.181211
 21
68.085479
 31
0.0
  0
LINE
  5
33D
330
303
100
AcDbEntity
  8
GR1-1
  6
CONTINUOUS
 62
     7
100
AcDbLine
 10
326.657238
 20
69.447227
 30
0.0
 11
325.134501
 21
69.086923
 31
0.0
  0
LINE
  5
33E
330
303
100
AcDbEntity
  8
GR1-1
  6
CONTINUOUS
 62
     7
100
AcDbLine
 10
324.326803
 20
68.895809
 30
0.0
 11
322.711408
 21
68.513581
 31
0.0
  0
LINE
  5
33F
330
303
100
AcDbEntity
  8
GR1-1
  6
CONTINUOUS
 62
     7
100
AcDbLine
 10
321.903711
 20
68.322466
 30
0.0
 11
320.380974
 21
67.962162
 31
0.0
  0
LINE
  5
340
330
303
100
AcDbEntity
  8
GR1-1
  6
CONTINUOUS
 62
     7
100
AcDbLine
 10
326.533922
 20
69.247465
 30
0.0
 11
325.172724
 21
68.925384
 31
0.0
  0
LINE
  5
341
330
303
100
AcDbEntity
  8
GR1-1
  6
CONTINUOUS
 62
     7
100
AcDbLine
 10
324.365026
 20
68.734269
 30
0.0
 11
322.749631
 21
68.352041
 31
0.0
  0
LINE
  5
342
330
303
100
AcDbEntity
  8
GR1-1
  6
CONTINUOUS
 62
     7
100
AcDbLine
 10
321.941934
 20
68.160927
 30
0.0
 11
320.580736
 21
67.838846
 31
0.0
  0
LINE
  5
343
330
303
100
AcDbEntity
  8
GR1-1
  6
CONTINUOUS
 62
     7
100
AcDbLine
 10
326.410605
 20
69.047703
 30
0.0
 11
325.210947
 21
68.763844
 31
0.0
  0
LINE
  5
344
330
303
100
AcDbEntity
  8
GR1-1
  6
CONTINUOUS
 62
     7
100
AcDbLine
 10
324.403249
 20
68.57273
 30
0.0
 11
322.787854
 21
68.190502
 31
0.0
  0
LINE
  5
345
330
303
100
AcDbEntity
  8
GR1-1
  6
CONTINUOUS
 62
     7
100
AcDbLine
 10
321.980156
 20
67.999387
 30
0.0
 11
320.780498
 21
67.715529
 31
0.0
  0
LINE
  5
346
330
303
100
AcDbEntity
  8
GR1-1
  6
CONTINUOUS
 62
     7
100
AcDbLine
 10
326.287288
 20
68.84794
 30
0.0
 11
325.24917
 21
68.602305
 31
0.0
  0
LINE
  5
347
330
303
100
AcDbEntity
  8
GR1-1
  6
CONTINUOUS
 62
     7
100
AcDbLine
 10
324.441472
 20
68.41119
 30
0.0
 11
322.826077
 21
68.028962
 31
0.0
  0
LINE
  5
348
330
303
100
AcDbEntity
  8
GR1-1
  6
CONTINUOUS
 62
     7
100
AcDbLine
 10
322.018379
 20
67.837848
 30
0.0
 11
320.980261
 21
67.592212
 31
0.0
  0
LINE
  5
349
330
303
100
AcDbEntity
  8
GR1-1
  6
CONTINUOUS
 62
     7
100
AcDbLine
 10
326.163972
 20
68.648178
 30
0.0
 11
325.287392
 21
68.440765
 31
0.0
  0
LINE
  5
34A
330
303
100
AcDbEntity
  8
GR1-1
  6
CONTINUOUS
 62
     7
100
AcDbLine
 10
322.056602
 20
67.676308
 30
0.0
 11
321.180023
 21
67.468896
 31
0.0
  0
LINE
  5
34B
330
303
100
AcDbEntity
  8
GR1-1
  6
CONTINUOUS
 62
     7
100
AcDbLine
 10
326.040655
 20
68.448415
 30
0.0
 11
325.325615
 21
68.279226
 31
0.0
  0
LINE
  5
34C
330
303
100
AcDbEntity
  8
GR1-1
  6
CONTINUOUS
 62
     7
100
AcDbLine
 10
322.094825
 20
67.514769
 30
0.0
 11
321.379785
 21
67.345579
 31
0.0
  0
LINE
  5
34D
330
303
100
AcDbEntity
  8
GR1-1
  6
CONTINUOUS
 62
     7
100
AcDbLine
 10
325.917338
 20
68.248653
 30
0.0
 11
325.363838
 21
68.117686
 31
0.0
  0
LINE
  5
34E
330
303
100
AcDbEntity
  8
GR1-1
  6
CONTINUOUS
 62
     7
100
AcDbLine
 10
322.133048
 20
67.353229
 30
0.0
 11
321.579548
 21
67.222262
 31
0.0
  0
LINE
  5
34F
330
303
100
AcDbEntity
  8
GR1-1
  6
CONTINUOUS
 62
     7
100
AcDbLine
 10
325.794022
 20
68.048891
 30
0.0
 11
325.402061
 21
67.956147
 31
0.0
  0
LINE
  5
350
330
303
100
AcDbEntity
  8
GR1-1
  6
CONTINUOUS
 62
     7
100
AcDbLine
 10
322.171271
 20
67.19169
 30
0.0
 11
321.77931
 21
67.098946
 31
0.0
  0
LINE
  5
351
330
303
100
AcDbEntity
  8
GR1-1
  6
CONTINUOUS
 62
     7
100
AcDbLine
 10
325.670705
 20
67.849128
 30
0.0
 11
325.440284
 21
67.794607
 31
0.0
  0
LINE
  5
352
330
303
100
AcDbEntity
  8
GR1-1
  6
CONTINUOUS
 62
     7
100
AcDbLine
 10
322.209493
 20
67.03015
 30
0.0
 11
321.979072
 21
66.975629
 31
0.0
  0
LINE
  5
353
330
303
100
AcDbEntity
  8
GR1-1
  6
CONTINUOUS
 62
     7
100
AcDbLine
 10
325.547388
 20
67.649366
 30
0.0
 11
322.178835
 21
66.852312
 31
0.0
  0
LINE
  5
354
330
303
100
AcDbEntity
  8
GR1-1
  6
CONTINUOUS
 62
     7
100
AcDbLine
 10
325.424071
 20
67.449604
 30
0.0
 11
322.378597
 21
66.728996
 31
0.0
  0
LINE
  5
355
330
303
100
AcDbEntity
  8
GR1-1
  6
CONTINUOUS
 62
     7
100
AcDbLine
 10
325.300755
 20
67.249841
 30
0.0
 11
322.578359
 21
66.605679
 31
0.0
  0
LINE
  5
356
330
303
100
AcDbEntity
  8
GR1-1
  6
CONTINUOUS
 62
     7
100
AcDbLine
 10
325.177438
 20
67.050079
 30
0.0
 11
322.778122
 21
66.482362
 31
0.0
  0
LINE
  5
357
330
303
100
AcDbEntity
  8
GR1-1
  6
CONTINUOUS
 62
     7
100
AcDbLine
 10
325.054121
 20
66.850317
 30
0.0
 11
322.977884
 21
66.359046
 31
0.0
  0
LINE
  5
358
330
303
100
AcDbEntity
  8
GR1-1
  6
CONTINUOUS
 62
     7
100
AcDbLine
 10
324.930805
 20
66.650554
 30
0.0
 11
323.177647
 21
66.235729
 31
0.0
  0
LINE
  5
359
330
303
100
AcDbEntity
  8
GR1-1
  6
CONTINUOUS
 62
     7
100
AcDbLine
 10
324.807488
 20
66.450792
 30
0.0
 11
323.377409
 21
66.112412
 31
0.0
  0
LINE
  5
35A
330
303
100
AcDbEntity
  8
GR1-1
  6
CONTINUOUS
 62
     7
100
AcDbLine
 10
324.684171
 20
66.25103
 30
0.0
 11
323.577171
 21
65.989096
 31
0.0
  0
LINE
  5
35B
330
303
100
AcDbEntity
  8
GR1-1
  6
CONTINUOUS
 62
     7
100
AcDbLine
 10
324.560855
 20
66.051267
 30
0.0
 11
323.776934
 21
65.865779
 31
0.0
  0
LINE
  5
35C
330
303
100
AcDbEntity
  8
GR1-1
  6
CONTINUOUS
 62
     7
100
AcDbLine
 10
324.437538
 20
65.851505
 30
0.0
 11
323.976696
 21
65.742462
 31
0.0
  0
LINE
  5
35D
330
303
100
AcDbEntity
  8
GR1-1
  6
CONTINUOUS
 62
     7
100
AcDbLine
 10
324.314221
 20
65.651743
 30
0.0
 11
324.176458
 21
65.619146
 31
0.0
  0
ENDBLK
  5
305
330
303
100
AcDbEntity
  8
0
100
AcDbBlockEnd
  0
BLOCK
  5
398
330
397
100
AcDbEntity
  8
0
100
AcDbBlockBegin
  2
BLKF036
 70
     0
 71
     0
 10
0.0
 20
0.0
 30
0.0
  3
BLKF036
  1

  0
LINE
  5
39B
330
397
100
AcDbEntity
  8
}}ﾊﾊGG血CCТ
  6
CONTINUOUS
 62
     7
100
AcDbLine
 10
10.0
 20
10.0
 30
0.0
 11
584.0
 21
10.0
 31
0.0
  0
LINE
  5
39C
330
397
100
AcDbEntity
  8
}}ﾊﾊGG血CCТ
  6
CONTINUOUS
 62
     7
100
AcDbLine
 10
10.0
 20
10.0
 30
0.0
 11
10.0
 21
410.0
 31
0.0
  0
LINE
  5
39D
330
397
100
AcDbEntity
  8
}}ﾊﾊGG血CCТ
  6
CONTINUOUS
 62
     7
100
AcDbLine
 10
10.0
 20
410.0
 30
0.0
 11
584.0
 21
410.0
 31
0.0
  0
LINE
  5
39E
330
397
100
AcDbEntity
  8
}}ﾊﾊGG血CCТ
  6
CONTINUOUS
 62
     7
100
AcDbLine
 10
584.0
 20
410.0
 30
0.0
 11
584.0
 21
10.0
 31
0.0
  0
LINE
  5
39F
330
397
100
AcDbEntity
  8
}}ﾊﾊGG血CCТ
  6
CONTINUOUS
 62
     7
100
AcDbLine
 10
327.0
 20
10.0
 30
0.0
 11
327.0
 21
20.0
 31
0.0
  0
TEXT
  5
3A0
330
397
100
AcDbEntity
  8
}}ﾊﾊGG血CCТ
  6
CONTINUOUS
 62
     7
100
AcDbText
 10
311.738831
 20
11.596879
 30
0.0
 40
6.648749
  1
品名
 41
1.083413
  7
FX_VECTOR
 72
     5
 11
323.058371
 21
11.596879
 31
0.0
100
AcDbText
  0
LINE
  5
3A1
330
397
100
AcDbEntity
  8
}}ﾊﾊGG血CCТ
  6
CONTINUOUS
 62
     7
100
AcDbLine
 10
407.0
 20
20.0
 30
0.0
 11
407.0
 21
10.0
 31
0.0
  0
LINE
  5
3A2
330
397
100
AcDbEntity
  8
}}ﾊﾊGG血CCТ
  6
CONTINUOUS
 62
     7
100
AcDbLine
 10
307.0
 20
20.0
 30
0.0
 11
584.0
 21
20.0
 31
0.0
  0
INSERT
  5
3A6
330
397
100
AcDbEntity
  8
0
100
AcDbBlockReference
  2
BLKF037
 10
0.0
 20
0.0
 30
0.0
  0
INSERT
  5
3AF
330
397
100
AcDbEntity
  8
0
100
AcDbBlockReference
  2
BLKF038
 10
0.0
 20
0.0
 30
0.0
  0
HATCH
  5
3BF
330
397
100
AcDbEntity
  8
GR1-1
  6
CONTINUOUS
 62
     7
100
AcDbHatch
 10
0.0
 20
0.0
 30
0.0
210
0.0
220
0.0
230
1.0
  2

 70
     0
 71
     1
 91
        2
 92
        0
 93
        4
 72
     1
 10
512.8018997861325
 20
17.91346152
 11
518.8018997861325
 21
17.91346152
 72
     1
 10
518.8018997861325
 20
17.91346152
 11
518.8018997861325
 21
11.91346152
 72
     1
 10
518.8018997861325
 20
11.91346152
 11
512.8018997861325
 21
11.91346152
 72
     1
 10
512.8018997861325
 20
11.91346152
 11
512.8018997861325
 21
17.91346152
 97
        0
 92
        0
 93
       15
 72
     1
 10
515.8018997861325
 20
17.76923076000002
 11
512.9461305461325
 21
14.91346152
 72
     1
 10
512.9461305461325
 20
14.91346152
 11
515.8018997861325
 21
12.05769228000001
 72
     1
 10
515.8018997861325
 20
12.05769228000001
 11
517.3595920661326
 21
13.61538462
 72
     1
 10
517.3595920661326
 20
13.61538462
 11
517.3595920661326
 21
12.98076924
 72
     1
 10
517.3595920661326
 20
12.98076924
 11
518.2249766861326
 21
12.98076924
 72
     1
 10
518.2249766861326
 20
12.98076924
 11
518.2249766861326
 21
15.00000000000001
 72
     1
 10
518.2249766861326
 20
15.00000000000001
 11
515.8018997861325
 21
15.00000000000001
 72
     1
 10
515.8018997861325
 20
15.00000000000001
 11
515.8018997861325
 21
14.13461538000001
 72
     1
 10
515.8018997861325
 20
14.13461538000001
 11
516.2461305461325
 21
14.13461538000001
 72
     1
 10
516.2461305461325
 20
14.13461538000001
 11
515.8018997861325
 21
13.69038462
 72
     1
 10
515.8018997861325
 20
13.69038462
 11
514.5788228861325
 21
14.91346152
 72
     1
 10
514.5788228861325
 20
14.91346152
 11
515.8018997861325
 21
16.13653842000003
 72
     1
 10
515.8018997861325
 20
16.13653842000003
 11
516.5922844061325
 21
15.3461538
 72
     1
 10
516.5922844061325
 20
15.3461538
 11
518.2249766861326
 21
15.3461538
 72
     1
 10
518.2249766861326
 20
15.3461538
 11
515.8018997861325
 21
17.76923076000002
 97
        0
 75
     0
 76
     0
 52
45.0
 41
0.05
 77
     0
 78
     1
 53
45.0
 43
0.0
 44
0.0
 45
-0.0353553390593274
 46
0.0353553390593274
 79
     0
 98
        0
  0
TEXT
  5
3C0
330
397
100
AcDbEntity
  8
}}ﾊﾊGG血CCТ
  6
CONTINUOUS
 62
     7
100
AcDbText
 10
523.225769
 20
11.461285
 30
0.0
 40
7.170908
  1
GOLD CASTER
 41
0.63978
  7
FX_VECTOR
 72
     5
 11
569.977636
 21
11.461285
 31
0.0
100
AcDbText
  0
LINE
  5
3C1
330
397
100
AcDbEntity
  8
}}ﾊﾊGG血CCТ
  6
CONTINUOUS
 62
     7
100
AcDbLine
 10
427.0
 20
10.0
 30
0.0
 11
427.0
 21
20.0
 31
0.0
  0
TEXT
  5
3C2
330
397
100
AcDbEntity
  8
}}ﾊﾊGG血CCТ
  6
CONTINUOUS
 62
     7
100
AcDbText
 10
411.738831
 20
11.596879
 30
0.0
 40
6.648749
  1
図番
 41
1.083413
  7
FX_VECTOR
 72
     5
 11
423.058371
 21
11.596879
 31
0.0
100
AcDbText
  0
LINE
  5
3C3
330
397
100
AcDbEntity
  8
}}ﾊﾊGG血CCТ
  6
CONTINUOUS
 62
     7
100
AcDbLine
 10
507.0
 20
20.0
 30
0.0
 11
507.0
 21
10.0
 31
0.0
  0
LINE
  5
3C4
330
397
100
AcDbEntity
  8
}}ﾊﾊGG血CCТ
  6
CONTINUOUS
 62
     7
100
AcDbLine
 10
307.0
 20
20.0
 30
0.0
 11
307.0
 21
10.0
 31
0.0
  0
ENDBLK
  5
399
330
397
100
AcDbEntity
  8
0
100
AcDbBlockEnd
  0
BLOCK
  5
3A4
330
3A3
100
AcDbEntity
  8
0
100
AcDbBlockBegin
  2
BLKF037
 70
     0
 71
     0
 10
0.0
 20
0.0
 30
0.0
  3
BLKF037
  1

  0
LINE
  5
3A8
330
3A3
100
AcDbEntity
  8
0-1
  6
CONTINUOUS
 62
     7
100
AcDbLine
 10
518.8019
 20
17.913462
 30
0.0
 11
512.8019
 21
17.913462
 31
0.0
  0
LINE
  5
3A9
330
3A3
100
AcDbEntity
  8
0-1
  6
CONTINUOUS
 62
     7
100
AcDbLine
 10
512.8019
 20
17.913462
 30
0.0
 11
512.8019
 21
11.913462
 31
0.0
  0
LINE
  5
3AA
330
3A3
100
AcDbEntity
  8
0-1
  6
CONTINUOUS
 62
     7
100
AcDbLine
 10
512.8019
 20
11.913462
 30
0.0
 11
518.8019
 21
11.913462
 31
0.0
  0
LINE
  5
3AB
330
3A3
100
AcDbEntity
  8
0-1
  6
CONTINUOUS
 62
     7
100
AcDbLine
 10
518.8019
 20
11.913462
 30
0.0
 11
518.8019
 21
17.913462
 31
0.0
  0
ENDBLK
  5
3A5
330
3A3
100
AcDbEntity
  8
0
100
AcDbBlockEnd
  0
BLOCK
  5
3AD
330
3AC
100
AcDbEntity
  8
0
100
AcDbBlockBegin
  2
BLKF038
 70
     0
 71
     0
 10
0.0
 20
0.0
 30
0.0
  3
BLKF038
  1

  0
LINE
  5
3B0
330
3AC
100
AcDbEntity
  8
0-1
  6
CONTINUOUS
 62
     7
100
AcDbLine
 10
518.224977
 20
15.346154
 30
0.0
 11
515.8019
 21
17.769231
 31
0.0
  0
LINE
  5
3B1
330
3AC
100
AcDbEntity
  8
0-1
  6
CONTINUOUS
 62
     7
100
AcDbLine
 10
515.8019
 20
17.769231
 30
0.0
 11
512.946131
 21
14.913462
 31
0.0
  0
LINE
  5
3B2
330
3AC
100
AcDbEntity
  8
0-1
  6
CONTINUOUS
 62
     7
100
AcDbLine
 10
512.946131
 20
14.913462
 30
0.0
 11
515.8019
 21
12.057692
 31
0.0
  0
LINE
  5
3B3
330
3AC
100
AcDbEntity
  8
0-1
  6
CONTINUOUS
 62
     7
100
AcDbLine
 10
515.8019
 20
12.057692
 30
0.0
 11
517.359592
 21
13.615385
 31
0.0
  0
LINE
  5
3B4
330
3AC
100
AcDbEntity
  8
0-1
  6
CONTINUOUS
 62
     7
100
AcDbLine
 10
517.359592
 20
13.615385
 30
0.0
 11
517.359592
 21
12.980769
 31
0.0
  0
LINE
  5
3B5
330
3AC
100
AcDbEntity
  8
0-1
  6
CONTINUOUS
 62
     7
100
AcDbLine
 10
517.359592
 20
12.980769
 30
0.0
 11
518.224977
 21
12.980769
 31
0.0
  0
LINE
  5
3B6
330
3AC
100
AcDbEntity
  8
0-1
  6
CONTINUOUS
 62
     7
100
AcDbLine
 10
518.224977
 20
12.980769
 30
0.0
 11
518.224977
 21
15.0
 31
0.0
  0
LINE
  5
3B7
330
3AC
100
AcDbEntity
  8
0-1
  6
CONTINUOUS
 62
     7
100
AcDbLine
 10
518.224977
 20
15.0
 30
0.0
 11
515.8019
 21
15.0
 31
0.0
  0
LINE
  5
3B8
330
3AC
100
AcDbEntity
  8
0-1
  6
CONTINUOUS
 62
     7
100
AcDbLine
 10
515.8019
 20
15.0
 30
0.0
 11
515.8019
 21
14.134615
 31
0.0
  0
LINE
  5
3B9
330
3AC
100
AcDbEntity
  8
0-1
  6
CONTINUOUS
 62
     7
100
AcDbLine
 10
515.8019
 20
14.134615
 30
0.0
 11
516.246131
 21
14.134615
 31
0.0
  0
LINE
  5
3BA
330
3AC
100
AcDbEntity
  8
0-1
  6
CONTINUOUS
 62
     7
100
AcDbLine
 10
516.246131
 20
14.134615
 30
0.0
 11
515.8019
 21
13.690385
 31
0.0
  0
LINE
  5
3BB
330
3AC
100
AcDbEntity
  8
0-1
  6
CONTINUOUS
 62
     7
100
AcDbLine
 10
515.8019
 20
13.690385
 30
0.0
 11
514.578823
 21
14.913462
 31
0.0
  0
LINE
  5
3BC
330
3AC
100
AcDbEntity
  8
0-1
  6
CONTINUOUS
 62
     7
100
AcDbLine
 10
514.578823
 20
14.913462
 30
0.0
 11
515.8019
 21
16.136538
 31
0.0
  0
LINE
  5
3BD
330
3AC
100
AcDbEntity
  8
0-1
  6
CONTINUOUS
 62
     7
100
AcDbLine
 10
515.8019
 20
16.136538
 30
0.0
 11
516.592284
 21
15.346154
 31
0.0
  0
LINE
  5
3BE
330
3AC
100
AcDbEntity
  8
0-1
  6
CONTINUOUS
 62
     7
100
AcDbLine
 10
516.592284
 20
15.346154
 30
0.0
 11
518.224977
 21
15.346154
 31
0.0
  0
ENDBLK
  5
3AE
330
3AC
100
AcDbEntity
  8
0
100
AcDbBlockEnd
  0
ENDSEC
  0
SECTION
  2
ENTITIES
  0
TEXT
  5
A8
330
1F
100
AcDbEntity
  8
}}ﾊﾊGG血CCТ
  6
CONTINUOUS
 62
     7
100
AcDbText
 10
329.602386
 20
12.0
 30
0.0
 40
6.0
  1
ＷＪ－１００　ＲＢ　Ｓ
 41
0.789744
  7
FX_VECTOR
 72
     5
 11
373.602386
 21
12.0
 31
0.0
100
AcDbText
  0
DIMENSION
  5
A9
330
1F
100
AcDbEntity
  8
GR1-1
100
AcDbDimension
  2
*D19
 10
458.758795
 20
272.5
 30
0.0
 11
457.758789
 21
320.0
 31
0.0
 70
    33
  3
FXDIMINFO
100
AcDbAlignedDimension
 13
416.795649
 23
367.5
 33
0.0
 14
416.795649
 24
272.5
 34
0.0
1001
ACAD
1000
DSTYLE
1002
{
1070
     7
1000
FXTIP_ARROW_E
1070
     6
1000
FXTIP_ARROW_S
1070
   173
1070
     1
1002
}
  0
DIMENSION
  5
B4
330
1F
100
AcDbEntity
  8
GR1-1
100
AcDbDimension
  2
*D20
 10
448.758795
 20
283.5
 30
0.0
 11
447.758789
 21
320.0
 31
0.0
 70
    33
  3
FXDIMINFO
100
AcDbAlignedDimension
 13
424.295649
 23
356.5
 33
0.0
 14
424.295649
 24
283.5
 34
0.0
1001
ACAD
1000
DSTYLE
1002
{
1070
     7
1000
FXTIP_ARROW_E
1070
     6
1000
FXTIP_ARROW_S
1070
   173
1070
     1
1002
}
  0
DIMENSION
  5
BE
330
1F
100
AcDbEntity
  8
GR1-1
100
AcDbDimension
  2
*D21
 10
438.758795
 20
285.0
 30
0.0
 11
437.758789
 21
320.0
 31
0.0
 70
    33
  3
FXDIMINFO
100
AcDbAlignedDimension
 13
422.795649
 23
355.0
 33
0.0
 14
422.795649
 24
285.0
 34
0.0
1001
ACAD
1000
DSTYLE
1002
{
1070
     7
1000
FXTIP_ARROW_E
1070
     6
1000
FXTIP_ARROW_S
1070
   173
1070
     1
1002
}
  0
DIMENSION
  5
C8
330
1F
100
AcDbEntity
  8
GR1-1
100
AcDbDimension
  2
*D22
 10
448.450994
 20
56.0
 30
0.0
 11
447.450989
 21
128.0
 31
0.0
 70
    32
  3
FXDIMINFO
100
AcDbAlignedDimension
 13
428.795649
 23
200.0
 33
0.0
 14
346.295649
 24
56.0
 34
0.0
 50
90.0
100
AcDbRotatedDimension
1001
ACAD
1000
DSTYLE
1002
{
1070
     7
1000
FXTIP_ARROW_E
1070
     6
1000
FXTIP_ARROW_S
1070
   173
1070
     1
1002
}
  0
DIMENSION
  5
D2
330
1F
100
AcDbEntity
  8
GR1-1
100
AcDbDimension
  2
*D23
 10
438.450994
 20
106.0
 30
0.0
 11
437.450989
 21
153.0
 31
0.0
 70
    33
  3
FXDIMINFO
100
AcDbAlignedDimension
 13
398.131332
 23
200.0
 33
0.0
 14
398.131332
 24
106.0
 34
0.0
1001
ACAD
1000
DSTYLE
1002
{
1070
     7
1000
FXTIP_ARROW_E
1070
     6
1000
FXTIP_ARROW_S
1070
   173
1070
     1
1002
}
  0
DIMENSION
  5
DB
330
1F
100
AcDbEntity
  8
GR1-1
100
AcDbDimension
  2
*D24
 10
381.295649
 20
45.816791
 30
0.0
 11
363.795654
 21
46.816792
 31
0.0
 70
    32
  3
FXDIMINFO
100
AcDbAlignedDimension
 13
346.295649
 23
53.664945
 33
0.0
 14
381.295649
 24
125.445657
 34
0.0
 50
180.0
100
AcDbRotatedDimension
1001
ACAD
1000
DSTYLE
1002
{
1070
     7
1000
FXTIP_ARROW_E
1070
     6
1000
FXTIP_ARROW_S
1070
   173
1070
     1
1002
}
  0
DIMENSION
  5
E5
330
1F
100
AcDbEntity
  8
GR1-1
100
AcDbDimension
  2
*D25
 10
326.249023
 20
367.622005
 30
0.0
 11
328.502899
 21
372.332031
 31
0.0
 70
    33
  3
FXDIMINFO
100
AcDbAlignedDimension
 13
348.50796
 23
360.212311
 33
0.0
 14
341.083339
 24
352.787689
 34
0.0
1001
ACAD
1000
DSTYLE
1002
{
1070
     7
1000
FXTIP_ARROW_E
1070
     6
1000
FXTIP_ARROW_S
1070
   173
1070
     1
1002
}
  0
LINE
  5
EF
330
1F
100
AcDbEntity
  8
GR1-1
  6
CONTINUOUS
 62
     3
100
AcDbLine
 10
345.795649
 20
367.5
 30
0.0
 11
416.795649
 21
367.5
 31
0.0
  0
LINE
  5
F0
330
1F
100
AcDbEntity
  8
GR1-1
  6
CONTINUOUS
 62
     3
100
AcDbLine
 10
414.083339
 20
360.212311
 30
0.0
 11
412.583339
 21
358.712311
 31
0.0
  0
ARC
  5
F1
330
1F
100
AcDbEntity
  8
GR1-1
  6
CONTINUOUS
 62
     3
100
AcDbCircle
 10
416.295649
 20
355.0
 30
0.0
 40
5.25
100
AcDbArc
 50
135.0
 51
315.0
  0
LINE
  5
F2
330
1F
100
AcDbEntity
  8
GR1-1
  6
CONTINUOUS
 62
     3
100
AcDbLine
 10
420.00796
 20
351.287689
 30
0.0
 11
421.50796
 21
352.787689
 31
0.0
  0
ARC
  5
F3
330
1F
100
AcDbEntity
  8
GR1-1
  6
CONTINUOUS
 62
     3
100
AcDbCircle
 10
417.795649
 20
356.5
 30
0.0
 40
5.25
100
AcDbArc
 50
-45.0
 51
135.0
  0
LINE
  5
F4
330
1F
100
AcDbEntity
  8
GR1-1
  6
CONTINUOUS
 62
     3
100
AcDbLine
 10
428.795649
 20
355.5
 30
0.0
 11
428.795649
 21
284.5
 31
0.0
  0
LINE
  5
F5
330
1F
100
AcDbEntity
  8
GR1-1
  6
CONTINUOUS
 62
     3
100
AcDbLine
 10
421.50796
 20
287.212311
 30
0.0
 11
420.00796
 21
288.712311
 31
0.0
  0
ARC
  5
F6
330
1F
100
AcDbEntity
  8
GR1-1
  6
CONTINUOUS
 62
     3
100
AcDbCircle
 10
416.295649
 20
285.0
 30
0.0
 40
5.25
100
AcDbArc
 50
45.0
 51
225.0
  0
LINE
  5
F7
330
1F
100
AcDbEntity
  8
GR1-1
  6
CONTINUOUS
 62
     3
100
AcDbLine
 10
412.583339
 20
281.287689
 30
0.0
 11
414.083339
 21
279.787689
 31
0.0
  0
ARC
  5
F8
330
1F
100
AcDbEntity
  8
GR1-1
  6
CONTINUOUS
 62
     3
100
AcDbCircle
 10
417.795649
 20
283.5
 30
0.0
 40
5.25
100
AcDbArc
 50
-135.0
 51
45.0
  0
LINE
  5
F9
330
1F
100
AcDbEntity
  8
GR1-1
  6
CONTINUOUS
 62
     3
100
AcDbLine
 10
416.795649
 20
272.5
 30
0.0
 11
345.795649
 21
272.5
 31
0.0
  0
LINE
  5
FA
330
1F
100
AcDbEntity
  8
GR1-1
  6
CONTINUOUS
 62
     3
100
AcDbLine
 10
348.50796
 20
279.787689
 30
0.0
 11
350.00796
 21
281.287689
 31
0.0
  0
ARC
  5
FB
330
1F
100
AcDbEntity
  8
GR1-1
  6
CONTINUOUS
 62
     3
100
AcDbCircle
 10
346.295649
 20
285.0
 30
0.0
 40
5.25
100
AcDbArc
 50
-45.0
 51
135.0
  0
LINE
  5
FC
330
1F
100
AcDbEntity
  8
GR1-1
  6
CONTINUOUS
 62
     3
100
AcDbLine
 10
342.583339
 20
288.712311
 30
0.0
 11
341.083339
 21
287.212311
 31
0.0
  0
ARC
  5
FD
330
1F
100
AcDbEntity
  8
GR1-1
  6
CONTINUOUS
 62
     3
100
AcDbCircle
 10
344.795649
 20
283.5
 30
0.0
 40
5.25
100
AcDbArc
 50
135.0
 51
315.0
  0
LINE
  5
FE
330
1F
100
AcDbEntity
  8
GR1-1
  6
CONTINUOUS
 62
     3
100
AcDbLine
 10
333.795649
 20
284.5
 30
0.0
 11
333.795649
 21
355.5
 31
0.0
  0
LINE
  5
FF
330
1F
100
AcDbEntity
  8
GR1-1
  6
CONTINUOUS
 62
     3
100
AcDbLine
 10
341.083339
 20
352.787689
 30
0.0
 11
342.583339
 21
351.287689
 31
0.0
  0
ARC
  5
100
330
1F
100
AcDbEntity
  8
GR1-1
  6
CONTINUOUS
 62
     3
100
AcDbCircle
 10
346.295649
 20
355.0
 30
0.0
 40
5.25
100
AcDbArc
 50
-135.0
 51
45.0
  0
LINE
  5
101
330
1F
100
AcDbEntity
  8
GR1-1
  6
CONTINUOUS
 62
     3
100
AcDbLine
 10
350.00796
 20
358.712311
 30
0.0
 11
348.50796
 21
360.212311
 31
0.0
  0
ARC
  5
102
330
1F
100
AcDbEntity
  8
GR1-1
  6
CONTINUOUS
 62
     3
100
AcDbCircle
 10
344.795649
 20
356.5
 30
0.0
 40
5.25
100
AcDbArc
 50
45.0
 51
225.0
  0
LINE
  5
103
330
1F
100
AcDbEntity
  8
GR1-1
  6
CONTINUOUS
 62
     3
100
AcDbLine
 10
333.795649
 20
344.7
 30
0.0
 11
327.695649
 21
344.7
 31
0.0
  0
LINE
  5
104
330
1F
100
AcDbEntity
  8
GR1-1
  6
CONTINUOUS
 62
     3
100
AcDbLine
 10
327.695649
 20
344.7
 30
0.0
 11
327.695649
 21
341.5
 31
0.0
  0
LINE
  5
105
330
1F
100
AcDbEntity
  8
GR1-1
  6
CONTINUOUS
 62
     3
100
AcDbLine
 10
327.695649
 20
341.5
 30
0.0
 11
333.130888
 21
341.5
 31
0.0
  0
ARC
  5
106
330
1F
100
AcDbEntity
  8
GR1-1
  6
CONTINUOUS
 62
     3
100
AcDbCircle
 10
337.795649
 20
339.7
 30
0.0
 40
5.0
100
AcDbArc
 50
143.130102
 51
180.0
  0
LINE
  5
107
330
1F
100
AcDbEntity
  8
GR1-1
  6
CONTINUOUS
 62
     3
100
AcDbLine
 10
332.795649
 20
339.7
 30
0.0
 11
332.795649
 21
300.3
 31
0.0
  0
ARC
  5
108
330
1F
100
AcDbEntity
  8
GR1-1
  6
CONTINUOUS
 62
     3
100
AcDbCircle
 10
337.795649
 20
300.3
 30
0.0
 40
5.0
100
AcDbArc
 50
180.0
 51
216.869898
  0
ARC
  5
109
330
1F
100
AcDbEntity
  8
GR1-1
  6
CONTINUOUS
 62
     3
100
AcDbCircle
 10
345.795649
 20
284.5
 30
0.0
 40
12.0
100
AcDbArc
 50
180.0
 51
270.0
  0
CIRCLE
  5
10A
330
1F
100
AcDbEntity
  8
GR1-1
  6
CONTINUOUS
 62
     3
100
AcDbCircle
 10
381.295649
 20
320.0
 30
0.0
 40
11.99999999999994
  0
CIRCLE
  5
10B
330
1F
100
AcDbEntity
  8
GR1-1
  6
CONTINUOUS
 62
     3
100
AcDbCircle
 10
381.295649
 20
320.0
 30
0.0
 40
17.39999999999998
  0
ARC
  5
10C
330
1F
100
AcDbEntity
  8
GR1-1
  6
CONTINUOUS
 62
     3
100
AcDbCircle
 10
416.795649
 20
355.5
 30
0.0
 40
12.0
100
AcDbArc
 50
0.0
 51
90.0
  0
ARC
  5
10D
330
1F
100
AcDbEntity
  8
GR1-1
  6
CONTINUOUS
 62
     3
100
AcDbCircle
 10
345.795649
 20
355.5
 30
0.0
 40
12.0
100
AcDbArc
 50
90.0
 51
180.0
  0
LINE
  5
10E
330
1F
100
AcDbEntity
  8
GR1-1
  6
CONTINUOUS
 62
     3
100
AcDbLine
 10
373.15305
 20
116.331648
 30
0.0
 11
391.80876
 21
146.775
 31
0.0
  0
LINE
  5
10F
330
1F
100
AcDbEntity
  8
GR1-1
  6
CONTINUOUS
 62
     3
100
AcDbLine
 10
411.795649
 20
174.275
 30
0.0
 11
411.795649
 21
169.775
 31
0.0
  0
ARC
  5
110
330
1F
100
AcDbEntity
  8
GR1-1
  6
CONTINUOUS
 62
     3
100
AcDbCircle
 10
441.414647
 20
123.851978
 30
0.0
 40
54.64621691462793
100
AcDbArc
 50
122.820825
 51
155.198206
  0
ARC
  5
111
330
1F
100
AcDbEntity
  8
GR1-1
  6
CONTINUOUS
 62
     3
100
AcDbCircle
 10
405.795649
 20
174.275
 30
0.0
 40
6.0
100
AcDbArc
 50
0.0
 51
90.0
  0
LINE
  5
112
330
1F
100
AcDbEntity
  8
GR1-1
  6
CONTINUOUS
 62
     3
100
AcDbLine
 10
353.761174
 20
179.772541
 30
0.0
 11
347.795649
 21
176.875
 31
0.0
  0
LINE
  5
113
330
1F
100
AcDbEntity
  8
GR1-1
  6
CONTINUOUS
 62
     3
100
AcDbLine
 10
347.795649
 20
176.875
 30
0.0
 11
338.00124
 21
176.483224
 31
0.0
  0
ARC
  5
114
330
1F
100
AcDbEntity
  8
GR1-1
  6
CONTINUOUS
 62
     3
100
AcDbCircle
 10
338.320985
 20
168.489616
 30
0.0
 40
8.0
100
AcDbArc
 50
92.29061
 51
133.682925
  0
LINE
  5
115
330
1F
100
AcDbEntity
  8
GR1-1
  6
CONTINUOUS
 62
     3
100
AcDbLine
 10
332.795649
 20
174.275
 30
0.0
 11
332.795649
 21
169.275
 31
0.0
  0
ARC
  5
116
330
1F
100
AcDbEntity
  8
GR1-1
  6
CONTINUOUS
 62
     3
100
AcDbCircle
 10
355.945694
 20
175.275
 30
0.0
 40
5.0
100
AcDbArc
 50
90.0
 51
115.906508
  0
ARC
  5
117
330
1F
100
AcDbEntity
  8
GR1-1
  6
CONTINUOUS
 62
     3
100
AcDbCircle
 10
333.222268
 20
164.795268
 30
0.0
 40
4.5
100
AcDbArc
 50
-10.0
 51
95.440053
  0
LINE
  5
118
330
1F
100
AcDbEntity
  8
GR1-1
  6
CONTINUOUS
 62
     3
100
AcDbLine
 10
337.653903
 20
164.013851
 30
0.0
 11
331.342979
 21
128.222823
 31
0.0
  0
ARC
  5
119
330
1F
100
AcDbEntity
  8
GR1-1
  6
CONTINUOUS
 62
     3
100
AcDbCircle
 10
345.695649
 20
105.975
 30
0.0
 40
18.00000000000003
100
AcDbArc
 50
236.205357
 51
256.679327
  0
ARC
  5
11A
330
1F
100
AcDbEntity
  8
GR1-1
  6
CONTINUOUS
 62
     3
100
AcDbCircle
 10
416.795649
 20
284.5
 30
0.0
 40
12.0
100
AcDbArc
 50
270.0
 51
360.0
  0
LINE
  5
11B
330
1F
100
AcDbEntity
  8
GR1-1
  6
CONTINUOUS
 62
     3
100
AcDbLine
 10
208.64085
 20
200.0
 30
0.0
 11
113.64085
 21
200.0
 31
0.0
  0
LINE
  5
11C
330
1F
100
AcDbEntity
  8
GR1-1
  6
CONTINUOUS
 62
     3
100
AcDbLine
 10
113.64085
 20
200.0
 30
0.0
 11
113.64085
 21
196.8
 31
0.0
  0
LINE
  5
11D
330
1F
100
AcDbEntity
  8
GR1-1
  6
CONTINUOUS
 62
     3
100
AcDbLine
 10
113.64085
 20
196.8
 30
0.0
 11
208.64085
 21
196.8
 31
0.0
  0
LINE
  5
11E
330
1F
100
AcDbEntity
  8
GR1-1
  6
CONTINUOUS
 62
     3
100
AcDbLine
 10
208.64085
 20
196.8
 30
0.0
 11
208.64085
 21
200.0
 31
0.0
  0
LINE
  5
11F
330
1F
100
AcDbEntity
  8
GR1-1
  6
CONTINUOUS
 62
     3
100
AcDbLine
 10
197.14085
 20
190.775
 30
0.0
 11
196.935652
 21
186.465827
 31
0.0
  0
LINE
  5
120
330
1F
100
AcDbEntity
  8
GR1-1
  6
CONTINUOUS
 62
     3
100
AcDbLine
 10
197.14085
 20
190.775
 30
0.0
 11
125.14085
 21
190.775
 31
0.0
  0
LINE
  5
121
330
1F
100
AcDbEntity
  8
GR1-1
  6
CONTINUOUS
 62
     3
100
AcDbLine
 10
125.14085
 20
190.775
 30
0.0
 11
125.346049
 21
186.465827
 31
0.0
  0
ARC
  5
122
330
1F
100
AcDbEntity
  8
GR1-1
  6
CONTINUOUS
 62
     3
100
AcDbCircle
 10
131.838692
 20
186.775
 30
0.0
 40
6.5
100
AcDbArc
 50
182.726311
 51
270.0
  0
LINE
  5
123
330
1F
100
AcDbEntity
  8
GR1-1
  6
CONTINUOUS
 62
     3
100
AcDbLine
 10
131.838692
 20
180.275
 30
0.0
 11
190.443009
 21
180.275
 31
0.0
  0
ARC
  5
124
330
1F
100
AcDbEntity
  8
GR1-1
  6
CONTINUOUS
 62
     3
100
AcDbCircle
 10
190.443009
 20
186.775
 30
0.0
 40
6.5
100
AcDbArc
 50
270.0
 51
357.273689
  0
LINE
  5
125
330
1F
100
AcDbEntity
  8
GR1-1
  6
CONTINUOUS
 62
     3
100
AcDbLine
 10
195.417215
 20
192.6
 30
0.0
 11
126.864486
 21
192.6
 31
0.0
  0
ARC
  5
126
330
1F
100
AcDbEntity
  8
GR1-1
  6
CONTINUOUS
 62
     3
100
AcDbCircle
 10
126.864486
 20
198.6
 30
0.0
 40
6.0
100
AcDbArc
 50
197.457603
 51
270.0
  0
ARC
  5
127
330
1F
100
AcDbEntity
  8
GR1-1
  6
CONTINUOUS
 62
     3
100
AcDbCircle
 10
136.64085
 20
174.275
 30
0.0
 40
6.0
100
AcDbArc
 50
90.0
 51
180.0
  0
LINE
  5
128
330
1F
100
AcDbEntity
  8
GR1-1
  6
CONTINUOUS
 62
     3
100
AcDbLine
 10
130.64085
 20
174.275
 30
0.0
 11
130.64085
 21
126.790005
 31
0.0
  0
ARC
  5
129
330
1F
100
AcDbEntity
  8
GR1-1
  6
CONTINUOUS
 62
     3
100
AcDbCircle
 10
174.209081
 20
130.044048
 30
0.0
 40
43.689581754301
100
AcDbArc
 50
184.271401
 51
199.065316
  0
LINE
  5
12A
330
1F
100
AcDbEntity
  8
GR1-1
  6
CONTINUOUS
 62
     3
100
AcDbLine
 10
133.037323
 20
115.814955
 30
0.0
 11
128.844377
 21
115.814955
 31
0.0
  0
ARC
  5
12B
330
1F
100
AcDbEntity
  8
GR1-1
  6
CONTINUOUS
 62
     3
100
AcDbCircle
 10
131.724464
 20
113.361216
 30
0.0
 40
3.783613929058673
100
AcDbArc
 50
139.570103
 51
220.429897
  0
LINE
  5
12C
330
1F
100
AcDbEntity
  8
GR1-1
  6
CONTINUOUS
 62
     3
100
AcDbLine
 10
128.844377
 20
110.907477
 30
0.0
 11
133.037323
 21
110.907477
 31
0.0
  0
ARC
  5
12D
330
1F
100
AcDbEntity
  8
GR1-1
  6
CONTINUOUS
 62
     3
100
AcDbCircle
 10
130.157236
 20
113.361216
 30
0.0
 40
3.783613929058673
100
AcDbArc
 50
-40.429897
 51
40.429897
  0
LINE
  5
12E
330
1F
100
AcDbEntity
  8
GR1-1
  6
CONTINUOUS
 62
     3
100
AcDbLine
 10
133.94085
 20
114.5
 30
0.0
 11
133.94085
 21
97.5
 31
0.0
  0
ARC
  5
12F
330
1F
100
AcDbEntity
  8
GR1-1
  6
CONTINUOUS
 62
     3
100
AcDbCircle
 10
134.44085
 20
97.5
 30
0.0
 40
0.5
100
AcDbArc
 50
180.0
 51
270.0
  0
LINE
  5
130
330
1F
100
AcDbEntity
  8
GR1-1
  6
CONTINUOUS
 62
     3
100
AcDbLine
 10
134.44085
 20
97.0
 30
0.0
 11
135.94085
 21
97.0
 31
0.0
  0
ARC
  5
131
330
1F
100
AcDbEntity
  8
GR1-1
  6
CONTINUOUS
 62
     3
100
AcDbCircle
 10
135.94085
 20
97.5
 30
0.0
 40
0.5
100
AcDbArc
 50
270.0
 51
360.0
  0
ARC
  5
132
330
1F
100
AcDbEntity
  8
GR1-1
  6
CONTINUOUS
 62
     3
100
AcDbCircle
 10
130.157236
 20
98.638784
 30
0.0
 40
3.783613929058673
100
AcDbArc
 50
-40.429897
 51
40.429897
  0
ARC
  5
133
330
1F
100
AcDbEntity
  8
GR1-1
  6
CONTINUOUS
 62
     3
100
AcDbCircle
 10
120.161685
 20
106.0
 30
0.0
 40
13.77916529745969
100
AcDbArc
 50
-20.864064
 51
20.864064
  0
ARC
  5
134
330
1F
100
AcDbEntity
  8
GR1-1
  6
CONTINUOUS
 62
     3
100
AcDbCircle
 10
141.720016
 20
106.0
 30
0.0
 40
13.77916529745969
100
AcDbArc
 50
159.135936
 51
200.864064
  0
LINE
  5
135
330
1F
100
AcDbEntity
  8
GR1-1
  6
CONTINUOUS
 62
     3
100
AcDbLine
 10
128.844377
 20
101.092523
 30
0.0
 11
133.037323
 21
101.092523
 31
0.0
  0
ARC
  5
136
330
1F
100
AcDbEntity
  8
GR1-1
  6
CONTINUOUS
 62
     3
100
AcDbCircle
 10
131.724464
 20
98.638784
 30
0.0
 40
3.783613929058673
100
AcDbArc
 50
139.570103
 51
220.429897
  0
LINE
  5
137
330
1F
100
AcDbEntity
  8
GR1-1
  6
CONTINUOUS
 62
     3
100
AcDbLine
 10
128.844377
 20
96.185045
 30
0.0
 11
133.037323
 21
96.185045
 31
0.0
  0
LINE
  5
138
330
1F
100
AcDbEntity
  8
GR1-1
  6
CONTINUOUS
 62
     3
100
AcDbLine
 10
127.94085
 20
98.638784
 30
0.0
 11
127.94085
 21
113.361216
 31
0.0
  0
ARC
  5
139
330
1F
100
AcDbEntity
  8
GR1-1
  6
CONTINUOUS
 62
     3
100
AcDbCircle
 10
135.94085
 20
114.5
 30
0.0
 40
0.5
100
AcDbArc
 50
0.0
 51
90.0
  0
LINE
  5
13A
330
1F
100
AcDbEntity
  8
GR1-1
  6
CONTINUOUS
 62
     3
100
AcDbLine
 10
135.94085
 20
115.0
 30
0.0
 11
134.44085
 21
115.0
 31
0.0
  0
ARC
  5
13B
330
1F
100
AcDbEntity
  8
GR1-1
  6
CONTINUOUS
 62
     3
100
AcDbCircle
 10
134.44085
 20
114.5
 30
0.0
 40
0.5
100
AcDbArc
 50
90.0
 51
180.0
  0
LINE
  5
13C
330
1F
100
AcDbEntity
  8
GR1-1
  6
CONTINUOUS
 62
     3
100
AcDbLine
 10
182.64085
 20
87.975
 30
0.0
 11
182.64085
 21
169.275
 31
0.0
  0
LINE
  5
13D
330
1F
100
AcDbEntity
  8
GR1-1
  6
CONTINUOUS
 62
     3
100
AcDbLine
 10
185.84085
 20
169.275
 30
0.0
 11
136.44085
 21
169.275
 31
0.0
  0
LINE
  5
13E
330
1F
100
AcDbEntity
  8
GR1-1
  6
CONTINUOUS
 62
     3
100
AcDbLine
 10
136.44085
 20
171.875
 30
0.0
 11
136.44085
 21
87.975
 31
0.0
  0
LINE
  5
13F
330
1F
100
AcDbEntity
  8
GR1-1
  6
CONTINUOUS
 62
     3
100
AcDbLine
 10
136.44085
 20
87.975
 30
0.0
 11
139.64085
 21
87.975
 31
0.0
  0
LINE
  5
140
330
1F
100
AcDbEntity
  8
GR1-1
  6
CONTINUOUS
 62
     3
100
AcDbLine
 10
139.64085
 20
87.975
 30
0.0
 11
139.64085
 21
169.275
 31
0.0
  0
LINE
  5
141
330
1F
100
AcDbEntity
  8
GR1-1
  6
CONTINUOUS
 62
     3
100
AcDbLine
 10
141.44085
 20
176.875
 30
0.0
 11
180.84085
 21
176.875
 31
0.0
  0
LINE
  5
142
330
1F
100
AcDbEntity
  8
GR1-1
  6
CONTINUOUS
 62
     3
100
AcDbLine
 10
185.84085
 20
171.875
 30
0.0
 11
185.84085
 21
87.975
 31
0.0
  0
LINE
  5
143
330
1F
100
AcDbEntity
  8
GR1-1
  6
CONTINUOUS
 62
     3
100
AcDbLine
 10
185.84085
 20
87.975
 30
0.0
 11
182.64085
 21
87.975
 31
0.0
  0
ARC
  5
144
330
1F
100
AcDbEntity
  8
GR1-1
  6
CONTINUOUS
 62
     3
100
AcDbCircle
 10
185.64085
 20
174.275
 30
0.0
 40
6.0
100
AcDbArc
 50
0.0
 51
90.0
  0
ARC
  5
145
330
1F
100
AcDbEntity
  8
GR1-1
  6
CONTINUOUS
 62
     3
100
AcDbCircle
 10
180.84085
 20
171.875
 30
0.0
 40
5.0
100
AcDbArc
 50
0.0
 51
90.0
  0
ARC
  5
146
330
1F
100
AcDbEntity
  8
GR1-1
  6
CONTINUOUS
 62
     3
100
AcDbCircle
 10
195.417215
 20
198.6
 30
0.0
 40
6.0
100
AcDbArc
 50
270.0
 51
342.542397
  0
ARC
  5
147
330
1F
100
AcDbEntity
  8
GR1-1
  6
CONTINUOUS
 62
     3
100
AcDbCircle
 10
141.44085
 20
171.875
 30
0.0
 40
5.0
100
AcDbArc
 50
90.0
 51
180.0
  0
LINE
  5
148
330
1F
100
AcDbEntity
  8
GR1-1
  6
CENTER
 62
     6
100
AcDbLine
 10
409.942295
 20
355.0
 30
0.0
 11
423.344082
 21
355.0
 31
0.0
  0
LINE
  5
149
330
1F
100
AcDbEntity
  8
GR1-1
  6
CENTER
 62
     6
100
AcDbLine
 10
417.795649
 20
348.744148
 30
0.0
 11
417.795649
 21
362.54923
 31
0.0
  0
LINE
  5
14A
330
1F
100
AcDbEntity
  8
GR1-1
  6
CENTER
 62
     6
100
AcDbLine
 10
416.295649
 20
362.54923
 30
0.0
 11
416.295649
 21
348.744148
 31
0.0
  0
LINE
  5
14B
330
1F
100
AcDbEntity
  8
GR1-1
  6
CENTER
 62
     6
100
AcDbLine
 10
424.243739
 20
356.5
 30
0.0
 11
409.942295
 21
356.5
 31
0.0
  0
LINE
  5
14C
330
1F
100
AcDbEntity
  8
GR1-1
  6
CENTER
 62
     6
100
AcDbLine
 10
161.14085
 20
53.083227
 30
0.0
 11
161.14085
 21
204.045951
 31
0.0
  0
LINE
  5
14D
330
1F
100
AcDbEntity
  8
GR1-1
  6
CONTINUOUS
 62
     6
100
AcDbLine
 10
141.44085
 20
176.875
 30
0.0
 11
138.94085
 21
176.875
 31
0.0
  0
LINE
  5
14E
330
1F
100
AcDbEntity
  8
GR1-1
  6
CONTINUOUS
 62
     6
100
AcDbLine
 10
180.84085
 20
176.875
 30
0.0
 11
183.34085
 21
176.875
 31
0.0
  0
LINE
  5
14F
330
1F
100
AcDbEntity
  8
GR1-1
  6
CENTER
 62
     6
100
AcDbLine
 10
195.290689
 20
106.0
 30
0.0
 11
121.863548
 21
106.0
 31
0.0
  0
LINE
  5
150
330
1F
100
AcDbEntity
  8
GR1-1
  6
CENTER
 62
     6
100
AcDbLine
 10
293.881124
 20
106.0
 30
0.0
 11
398.131332
 21
106.0
 31
0.0
  0
LINE
  5
151
330
1F
100
AcDbEntity
  8
GR1-1
  6
CENTER
 62
     6
100
AcDbLine
 10
381.295649
 20
125.445657
 30
0.0
 11
381.295649
 21
205.917914
 31
0.0
  0
LINE
  5
152
330
1F
100
AcDbEntity
  8
GR1-1
  6
CENTER
 62
     6
100
AcDbLine
 10
346.295649
 20
123.374421
 30
0.0
 11
346.295649
 21
53.664945
 31
0.0
  0
LINE
  5
153
330
1F
100
AcDbEntity
  8
GR1-1
  6
CENTER
 62
     6
100
AcDbLine
 10
381.295649
 20
372.113688
 30
0.0
 11
381.295649
 21
269.139132
 31
0.0
  0
CIRCLE
  5
154
330
1F
100
AcDbEntity
  8
GR1-1
  6
CONTINUOUS
 62
     6
100
AcDbCircle
 10
381.295649
 20
320.0
 30
0.0
 40
21.60000000000001
  0
CIRCLE
  5
155
330
1F
100
AcDbEntity
  8
GR1-1
  6
CONTINUOUS
 62
     6
100
AcDbCircle
 10
381.295649
 20
320.0
 30
0.0
 40
31.60000000000001
  0
CIRCLE
  5
156
330
1F
100
AcDbEntity
  8
GR1-1
  6
CONTINUOUS
 62
     6
100
AcDbCircle
 10
381.295649
 20
320.0
 30
0.0
 40
36.5
  0
LINE
  5
157
330
1F
100
AcDbEntity
  8
GR1-1
  6
CENTER
 62
     6
100
AcDbLine
 10
433.24746
 20
320.0
 30
0.0
 11
289.871501
 21
320.0
 31
0.0
  0
DIMENSION
  5
158
330
1F
100
AcDbEntity
  8
GR1-1
100
AcDbDimension
  2
*D26
 10
416.295649
 20
254.399735
 30
0.0
 11
381.295654
 21
255.399734
 31
0.0
 70
    33
  3
FXDIMINFO
100
AcDbAlignedDimension
 13
346.295649
 23
278.5
 33
0.0
 14
416.295649
 24
278.5
 34
0.0
1001
ACAD
1000
DSTYLE
1002
{
1070
     7
1000
FXTIP_ARROW_E
1070
     6
1000
FXTIP_ARROW_S
1070
   173
1070
     1
1002
}
  0
DIMENSION
  5
162
330
1F
100
AcDbEntity
  8
GR1-1
100
AcDbDimension
  2
*D27
 10
417.795649
 20
244.399735
 30
0.0
 11
381.295654
 21
245.399734
 31
0.0
 70
    33
  3
FXDIMINFO
100
AcDbAlignedDimension
 13
344.795649
 23
277.0
 33
0.0
 14
417.795649
 24
277.0
 34
0.0
1001
ACAD
1000
DSTYLE
1002
{
1070
     7
1000
FXTIP_ARROW_E
1070
     6
1000
FXTIP_ARROW_S
1070
   173
1070
     1
1002
}
  0
DIMENSION
  5
16C
330
1F
100
AcDbEntity
  8
GR1-1
100
AcDbDimension
  2
*D28
 10
428.795649
 20
234.399735
 30
0.0
 11
381.295654
 21
235.399734
 31
0.0
 70
    33
  3
FXDIMINFO
100
AcDbAlignedDimension
 13
333.795649
 23
284.5
 33
0.0
 14
428.795649
 24
284.5
 34
0.0
1001
ACAD
1000
DSTYLE
1002
{
1070
     7
1000
FXTIP_ARROW_E
1070
     6
1000
FXTIP_ARROW_S
1070
   173
1070
     1
1002
}
  0
LINE
  5
176
330
1F
100
AcDbEntity
  8
GR1-1
  6
CONTINUOUS
 62
     3
100
AcDbLine
 10
333.295649
 20
295.3
 30
0.0
 11
333.295649
 21
292.1
 31
0.0
  0
ARC
  5
177
330
1F
100
AcDbEntity
  8
GR1-1
  6
CONTINUOUS
 62
     3
100
AcDbCircle
 10
332.841324
 20
289.6
 30
0.0
 40
2.5
100
AcDbArc
 50
90.0
 51
180.0
  0
LINE
  5
178
330
1F
100
AcDbEntity
  8
GR1-1
  6
CONTINUOUS
 62
     3
100
AcDbLine
 10
330.341324
 20
289.6
 30
0.0
 11
330.341324
 21
276.1
 31
0.0
  0
ARC
  5
179
330
1F
100
AcDbEntity
  8
GR1-1
  6
CONTINUOUS
 62
     3
100
AcDbCircle
 10
325.341324
 20
276.1
 30
0.0
 40
5.0
100
AcDbArc
 50
270.0
 51
360.0
  0
LINE
  5
17A
330
1F
100
AcDbEntity
  8
GR1-1
  6
CONTINUOUS
 62
     3
100
AcDbLine
 10
325.341324
 20
271.1
 30
0.0
 11
311.170182
 21
271.1
 31
0.0
  0
ARC
  5
17B
330
1F
100
AcDbEntity
  8
GR1-1
  6
CONTINUOUS
 62
     3
100
AcDbCircle
 10
312.276513
 20
276.1
 30
0.0
 40
5.0
100
AcDbArc
 50
185.92
 51
270.0
  0
LINE
  5
17C
330
1F
100
AcDbEntity
  8
GR1-1
  6
CONTINUOUS
 62
     3
100
AcDbLine
 10
307.303178
 20
275.584301
 30
0.0
 11
305.922437
 21
288.9
 31
0.0
  0
LINE
  5
17D
330
1F
100
AcDbEntity
  8
GR1-1
  6
CONTINUOUS
 62
     3
100
AcDbLine
 10
305.922437
 20
288.9
 30
0.0
 11
305.922437
 21
292.1
 31
0.0
  0
LINE
  5
17E
330
1F
100
AcDbEntity
  8
GR1-1
  6
CONTINUOUS
 62
     3
100
AcDbLine
 10
305.922437
 20
292.1
 30
0.0
 11
304.816106
 21
288.9
 31
0.0
  0
LINE
  5
17F
330
1F
100
AcDbEntity
  8
GR1-1
  6
CONTINUOUS
 62
     3
100
AcDbLine
 10
304.816106
 20
288.9
 30
0.0
 11
306.196847
 21
275.584301
 31
0.0
  0
ARC
  5
180
330
1F
100
AcDbEntity
  8
GR1-1
  6
CONTINUOUS
 62
     3
100
AcDbCircle
 10
311.170182
 20
276.1
 30
0.0
 40
5.0
100
AcDbArc
 50
185.92
 51
270.0
  0
LINE
  5
181
330
1F
100
AcDbEntity
  8
GR1-1
  6
CONTINUOUS
 62
     3
100
AcDbLine
 10
305.922437
 20
292.1
 30
0.0
 11
333.795649
 21
292.1
 31
0.0
  0
LINE
  5
182
330
1F
100
AcDbEntity
  8
GR1-1
  6
CONTINUOUS
 62
     3
100
AcDbLine
 10
333.795649
 20
288.9
 30
0.0
 11
330.341324
 21
288.9
 31
0.0
  0
ARC
  5
183
330
1F
100
AcDbEntity
  8
GR1-1
  6
CONTINUOUS
 62
     3
100
AcDbCircle
 10
330.216184
 20
293.4
 30
0.0
 40
6.0
100
AcDbArc
 50
271.194823
 51
290.556045
  0
LINE
  5
184
330
1F
100
AcDbEntity
  8
GR1-1
  6
CONTINUOUS
 62
     3
100
AcDbLine
 10
332.322925
 20
287.782025
 30
0.0
 11
333.795649
 21
288.334297
 31
0.0
  0
LINE
  5
185
330
1F
100
AcDbEntity
  8
GR1-1
  6
CONTINUOUS
 62
     3
100
AcDbLine
 10
331.304191
 20
287.4
 30
0.0
 11
330.341324
 21
287.4
 31
0.0
  0
LINE
  5
186
330
1F
100
AcDbEntity
  8
GR1-1
  6
CONTINUOUS
 62
     3
100
AcDbLine
 10
374.979129
 20
272.5
 30
0.0
 11
375.332067
 21
268.64423
 31
0.0
  0
ARC
  5
187
330
1F
100
AcDbEntity
  8
GR1-1
  6
CONTINUOUS
 62
     3
100
AcDbCircle
 10
380.311251
 20
269.1
 30
0.0
 40
5.0
100
AcDbArc
 50
185.23
 51
270.0
  0
LINE
  5
188
330
1F
100
AcDbEntity
  8
GR1-1
  6
CONTINUOUS
 62
     3
100
AcDbLine
 10
380.311251
 20
264.1
 30
0.0
 11
395.835698
 21
264.1
 31
0.0
  0
ARC
  5
189
330
1F
100
AcDbEntity
  8
GR1-1
  6
CONTINUOUS
 62
     3
100
AcDbCircle
 10
395.835698
 20
269.1
 30
0.0
 40
5.0
100
AcDbArc
 50
270.0
 51
353.23
  0
LINE
  5
18A
330
1F
100
AcDbEntity
  8
GR1-1
  6
CONTINUOUS
 62
     3
100
AcDbLine
 10
400.800834
 20
268.51058
 30
0.0
 11
401.274425
 21
272.5
 31
0.0
  0
LINE
  5
18B
330
1F
100
AcDbEntity
  8
GR1-1
  6
CONTINUOUS
 62
     3
100
AcDbLine
 10
377.191251
 20
272.5
 30
0.0
 11
377.54419
 21
268.64423
 31
0.0
  0
ARC
  5
18C
330
1F
100
AcDbEntity
  8
GR1-1
  6
CONTINUOUS
 62
     3
100
AcDbCircle
 10
382.523374
 20
269.1
 30
0.0
 40
5.0
100
AcDbArc
 50
185.23
 51
270.0
  0
ARC
  5
18D
330
1F
100
AcDbEntity
  8
GR1-1
  6
CONTINUOUS
 62
     6
100
AcDbCircle
 10
383.840684
 20
268.54516
 30
0.0
 40
1.445159999999987
100
AcDbArc
 50
180.136983
 51
360.0
  0
LINE
  5
18E
330
1F
100
AcDbEntity
  8
GR1-1
  6
CONTINUOUS
 62
     6
100
AcDbLine
 10
385.285844
 20
268.54516
 30
0.0
 11
385.285844
 21
272.5
 31
0.0
  0
LINE
  5
18F
330
1F
100
AcDbEntity
  8
GR1-1
  6
CONTINUOUS
 62
     6
100
AcDbLine
 10
382.395529
 20
272.5
 30
0.0
 11
382.395529
 21
268.541705
 31
0.0
  0
LINE
  5
190
330
1F
100
AcDbEntity
  8
GR1-1
  6
CONTINUOUS
 62
     6
100
AcDbLine
 10
388.53745
 20
268.541705
 30
0.0
 11
388.53745
 21
272.5
 31
0.0
  0
LINE
  5
191
330
1F
100
AcDbEntity
  8
GR1-1
  6
CONTINUOUS
 62
     6
100
AcDbLine
 10
391.427766
 20
272.5
 30
0.0
 11
391.427766
 21
268.54516
 31
0.0
  0
ARC
  5
192
330
1F
100
AcDbEntity
  8
GR1-1
  6
CONTINUOUS
 62
     6
100
AcDbCircle
 10
389.982606
 20
268.54516
 30
0.0
 40
1.445159999999987
100
AcDbArc
 50
180.136983
 51
360.0
  0
ARC
  5
193
330
1F
100
AcDbEntity
  8
GR1-1
  6
CONTINUOUS
 62
     6
100
AcDbCircle
 10
396.124527
 20
268.54516
 30
0.0
 40
1.445159999999987
100
AcDbArc
 50
180.136983
 51
360.0
  0
LINE
  5
194
330
1F
100
AcDbEntity
  8
GR1-1
  6
CONTINUOUS
 62
     6
100
AcDbLine
 10
397.569687
 20
268.54516
 30
0.0
 11
397.569687
 21
272.5
 31
0.0
  0
LINE
  5
195
330
1F
100
AcDbEntity
  8
GR1-1
  6
CONTINUOUS
 62
     6
100
AcDbLine
 10
394.679371
 20
272.5
 30
0.0
 11
394.679371
 21
268.541705
 31
0.0
  0
LINE
  5
196
330
1F
100
AcDbEntity
  8
GR1-1
  6
CONTINUOUS
 62
     6
100
AcDbLine
 10
311.365191
 20
282.466646
 30
0.0
 11
311.365191
 21
274.133354
 31
0.0
  0
ARC
  5
197
330
1F
100
AcDbEntity
  8
GR1-1
  6
CONTINUOUS
 62
     6
100
AcDbCircle
 10
312.398545
 20
274.133354
 30
0.0
 40
1.03335375329108
100
AcDbArc
 50
180.0
 51
360.0
  0
LINE
  5
198
330
1F
100
AcDbEntity
  8
GR1-1
  6
CONTINUOUS
 62
     6
100
AcDbLine
 10
313.431899
 20
274.133354
 30
0.0
 11
313.431899
 21
277.1
 31
0.0
  0
LINE
  5
199
330
1F
100
AcDbEntity
  8
GR1-1
  6
CONTINUOUS
 62
     6
100
AcDbLine
 10
313.431899
 20
277.1
 30
0.0
 11
317.941079
 21
277.1
 31
0.0
  0
LINE
  5
19A
330
1F
100
AcDbEntity
  8
GR1-1
  6
CONTINUOUS
 62
     6
100
AcDbLine
 10
317.941079
 20
277.1
 30
0.0
 11
317.941079
 21
275.131749
 31
0.0
  0
ARC
  5
19B
330
1F
100
AcDbEntity
  8
GR1-1
  6
CONTINUOUS
 62
     6
100
AcDbCircle
 10
318.974431
 20
275.133354
 30
0.0
 40
1.03335375329108
100
AcDbArc
 50
180.089001
 51
359.999964
  0
LINE
  5
19C
330
1F
100
AcDbEntity
  8
GR1-1
  6
CONTINUOUS
 62
     6
100
AcDbLine
 10
320.007785
 20
275.133353
 30
0.0
 11
320.007786
 21
277.1
 31
0.0
  0
LINE
  5
19D
330
1F
100
AcDbEntity
  8
GR1-1
  6
CONTINUOUS
 62
     6
100
AcDbLine
 10
320.007786
 20
277.1
 30
0.0
 11
321.538141
 21
277.1
 31
0.0
  0
ARC
  5
19E
330
1F
100
AcDbEntity
  8
GR1-1
  6
CONTINUOUS
 62
     6
100
AcDbCircle
 10
321.538141
 20
278.2
 30
0.0
 40
1.099999999999966
100
AcDbArc
 50
-90.000077
 51
90.0
  0
LINE
  5
19F
330
1F
100
AcDbEntity
  8
GR1-1
  6
CONTINUOUS
 62
     6
100
AcDbLine
 10
321.538141
 20
279.3
 30
0.0
 11
313.431899
 21
279.3
 31
0.0
  0
LINE
  5
1A0
330
1F
100
AcDbEntity
  8
GR1-1
  6
CONTINUOUS
 62
     6
100
AcDbLine
 10
313.431899
 20
279.3
 30
0.0
 11
313.431899
 21
280.3
 31
0.0
  0
LINE
  5
1A1
330
1F
100
AcDbEntity
  8
GR1-1
  6
CONTINUOUS
 62
     6
100
AcDbLine
 10
313.431899
 20
280.3
 30
0.0
 11
317.028961
 21
280.3
 31
0.0
  0
ARC
  5
1A2
330
1F
100
AcDbEntity
  8
GR1-1
  6
CONTINUOUS
 62
     6
100
AcDbCircle
 10
317.028961
 20
281.4
 30
0.0
 40
1.099999999999966
100
AcDbArc
 50
-90.0
 51
90.0
  0
LINE
  5
1A3
330
1F
100
AcDbEntity
  8
GR1-1
  6
CONTINUOUS
 62
     6
100
AcDbLine
 10
317.028961
 20
282.5
 30
0.0
 11
313.431899
 21
282.5
 31
0.0
  0
ARC
  5
1A4
330
1F
100
AcDbEntity
  8
GR1-1
  6
CONTINUOUS
 62
     6
100
AcDbCircle
 10
312.398545
 20
282.466646
 30
0.0
 40
1.03335375329108
100
AcDbArc
 50
0.0
 51
180.0
  0
ARC
  5
1A5
330
1F
100
AcDbEntity
  8
GR1-1
  6
CONTINUOUS
 62
     3
100
AcDbCircle
 10
397.130111
 20
90.806248
 30
0.0
 40
6.0
100
AcDbArc
 50
300.315479
 51
303.451609
  0
LINE
  5
1A6
330
1F
100
AcDbEntity
  8
GR1-1
  6
CONTINUOUS
 62
     3
100
AcDbLine
 10
400.437506
 20
85.800138
 30
0.0
 11
402.62774
 21
88.133331
 31
0.0
  0
LINE
  5
1A7
330
1F
100
AcDbEntity
  8
GR1-1
  6
CONTINUOUS
 62
     3
100
AcDbLine
 10
402.62774
 20
88.133331
 30
0.0
 11
372.859485
 21
116.612501
 31
0.0
  0
ARC
  5
1A8
330
1F
100
AcDbEntity
  8
GR1-1
  6
CONTINUOUS
 62
     3
100
AcDbCircle
 10
375.350182
 20
111.15389
 30
0.0
 40
6.0
100
AcDbArc
 50
114.526633
 51
129.148762
  0
LINE
  5
1A9
330
1F
100
AcDbEntity
  8
GR1-1
  6
CONTINUOUS
 62
     3
100
AcDbLine
 10
371.562166
 20
115.806947
 30
0.0
 11
366.700556
 21
112.170022
 31
0.0
  0
LINE
  5
1AA
330
1F
100
AcDbEntity
  8
GR1-1
  6
CONTINUOUS
 62
     3
100
AcDbLine
 10
370.164989
 20
114.761732
 30
0.0
 11
400.437506
 21
85.800138
 31
0.0
  0
ARC
  5
1AB
330
1F
100
AcDbEntity
  8
GR1-1
  6
CONTINUOUS
 62
     3
100
AcDbCircle
 10
325.473179
 20
94.20095
 30
0.0
 40
40.0
100
AcDbArc
 50
28.857172
 51
53.123439
  0
ARC
  5
1AC
330
1F
100
AcDbEntity
  8
GR1-1
  6
CONTINUOUS
 62
     3
100
AcDbCircle
 10
345.876343
 20
121.398578
 30
0.0
 40
6.0
100
AcDbArc
 50
53.123439
 51
108.001832
  0
ARC
  5
1AD
330
1F
100
AcDbEntity
  8
GR1-1
  6
CONTINUOUS
 62
     3
100
AcDbCircle
 10
338.329513
 20
128.218646
 30
0.0
 40
1.2
100
AcDbArc
 50
30.930163
 51
145.6163
  0
ARC
  5
1AE
330
1F
100
AcDbEntity
  8
GR1-1
  6
CONTINUOUS
 62
     3
100
AcDbCircle
 10
342.8158
 20
131.002465
 30
0.0
 40
4.08
100
AcDbArc
 50
211.558512
 51
287.196604
  0
LINE
  5
1AF
330
1F
100
AcDbEntity
  8
GR1-1
  6
CONTINUOUS
 62
     3
100
AcDbLine
 10
345.595649
 20
133.781614
 30
0.0
 11
345.595649
 21
137.825042
 31
0.0
  0
LINE
  5
1B0
330
1F
100
AcDbEntity
  8
GR1-1
  6
CONTINUOUS
 62
     3
100
AcDbLine
 10
339.995649
 20
137.825042
 30
0.0
 11
339.995649
 21
133.781614
 31
0.0
  0
ARC
  5
1B1
330
1F
100
AcDbEntity
  8
GR1-1
  6
CONTINUOUS
 62
     3
100
AcDbCircle
 10
342.795649
 20
130.925042
 30
0.0
 40
4.0
100
AcDbArc
 50
-225.572996
 51
45.572996
  0
ARC
  5
1B2
330
1F
100
AcDbEntity
  8
GR1-1
  6
CONTINUOUS
 62
     3
100
AcDbCircle
 10
341.327806
 20
136.325042
 30
0.0
 40
6.0
100
AcDbArc
 50
90.0
 51
170.0
  0
LINE
  5
1B3
330
1F
100
AcDbEntity
  8
GR1-1
  6
CONTINUOUS
 62
     3
100
AcDbLine
 10
335.418959
 20
137.366931
 30
0.0
 11
333.741913
 21
127.855928
 31
0.0
  0
LINE
  5
1B4
330
1F
100
AcDbEntity
  8
GR1-1
  6
CONTINUOUS
 62
     3
100
AcDbLine
 10
334.493319
 20
127.741007
 30
0.0
 11
330.37567
 21
128.370764
 31
0.0
  0
LINE
  5
1B5
330
1F
100
AcDbEntity
  8
GR1-1
  6
CONTINUOUS
 62
     3
100
AcDbLine
 10
330.12933
 20
128.439324
 30
0.0
 11
304.819414
 21
137.674836
 31
0.0
  0
LINE
  5
1B6
330
1F
100
AcDbEntity
  8
GR1-1
  6
CONTINUOUS
 62
     3
100
AcDbLine
 10
304.819414
 20
137.674836
 30
0.0
 11
305.922437
 21
140.678731
 31
0.0
  0
LINE
  5
1B7
330
1F
100
AcDbEntity
  8
GR1-1
  6
CONTINUOUS
 62
     3
100
AcDbLine
 10
305.916211
 20
140.681003
 30
0.0
 11
330.341324
 21
131.768353
 31
0.0
  0
LINE
  5
1B8
330
1F
100
AcDbEntity
  8
GR1-1
  6
CONTINUOUS
 62
     3
100
AcDbLine
 10
330.341324
 20
131.768353
 30
0.0
 11
329.587425
 21
129.702018
 31
0.0
  0
ARC
  5
1B9
330
1F
100
AcDbEntity
  8
GR1-1
  6
CONTINUOUS
 62
     3
100
AcDbCircle
 10
330.526853
 20
129.35927
 30
0.0
 40
1.0
100
AcDbArc
 50
159.955596
 51
261.304519
  0
LINE
  5
1BA
330
1F
100
AcDbEntity
  8
GR1-1
  6
CONTINUOUS
 62
     3
100
AcDbLine
 10
343.895649
 20
155.3
 30
0.0
 11
343.895649
 21
143.828379
 31
0.0
  0
LINE
  5
1BB
330
1F
100
AcDbEntity
  8
GR1-1
  6
CONTINUOUS
 62
     3
100
AcDbLine
 10
344.295649
 20
145.325042
 30
0.0
 11
344.295649
 21
155.3
 31
0.0
  0
LINE
  5
1BC
330
1F
100
AcDbEntity
  8
GR1-1
  6
CONTINUOUS
 62
     3
100
AcDbLine
 10
343.895649
 20
155.3
 30
0.0
 11
357.695649
 21
155.3
 31
0.0
  0
LINE
  5
1BD
330
1F
100
AcDbEntity
  8
GR1-1
  6
CONTINUOUS
 62
     3
100
AcDbLine
 10
357.695649
 20
155.3
 30
0.0
 11
357.695649
 21
142.353042
 31
0.0
  0
ARC
  5
1BE
330
1F
100
AcDbEntity
  8
GR1-1
  6
CONTINUOUS
 62
     3
100
AcDbCircle
 10
358.295649
 20
143.153042
 30
0.0
 40
1.0
100
AcDbArc
 50
180.0
 51
249.198371
  0
LINE
  5
1BF
330
1F
100
AcDbEntity
  8
GR1-1
  6
CONTINUOUS
 62
     3
100
AcDbLine
 10
357.295649
 20
143.153042
 30
0.0
 11
357.295649
 21
155.3
 31
0.0
  0
ARC
  5
1C0
330
1F
100
AcDbEntity
  8
GR1-1
  6
CONTINUOUS
 62
     3
100
AcDbCircle
 10
357.295649
 20
140.325042
 30
0.0
 40
2.0
100
AcDbArc
 50
0.0
 51
71.18986
  0
LINE
  5
1C1
330
1F
100
AcDbEntity
  8
GR1-1
  6
CONTINUOUS
 62
     3
100
AcDbLine
 10
359.295649
 20
140.325042
 30
0.0
 11
359.295649
 21
115.556056
 31
0.0
  0
ARC
  5
1C2
330
1F
100
AcDbEntity
  8
GR1-1
  6
CONTINUOUS
 62
     3
100
AcDbCircle
 10
364.184668
 20
115.533102
 30
0.0
 40
4.2
100
AcDbArc
 50
208.857172
 51
306.79982
  0
LINE
  5
1C3
330
1F
100
AcDbEntity
  8
GR1-1
  6
CONTINUOUS
 62
     3
100
AcDbLine
 10
355.795649
 20
111.484828
 30
0.0
 11
355.795649
 21
100.515172
 31
0.0
  0
LINE
  5
1C4
330
1F
100
AcDbEntity
  8
GR1-1
  6
CONTINUOUS
 62
     3
100
AcDbLine
 10
355.795649
 20
100.515172
 30
0.0
 11
346.295649
 21
95.030345
 31
0.0
  0
LINE
  5
1C5
330
1F
100
AcDbEntity
  8
GR1-1
  6
CONTINUOUS
 62
     3
100
AcDbLine
 10
346.295649
 20
95.030345
 30
0.0
 11
336.795649
 21
100.515172
 31
0.0
  0
LINE
  5
1C6
330
1F
100
AcDbEntity
  8
GR1-1
  6
CONTINUOUS
 62
     3
100
AcDbLine
 10
336.795649
 20
100.515172
 30
0.0
 11
336.795649
 21
111.484828
 31
0.0
  0
LINE
  5
1C7
330
1F
100
AcDbEntity
  8
GR1-1
  6
CONTINUOUS
 62
     3
100
AcDbLine
 10
336.795649
 20
111.484828
 30
0.0
 11
346.295649
 21
116.969655
 31
0.0
  0
LINE
  5
1C8
330
1F
100
AcDbEntity
  8
GR1-1
  6
CONTINUOUS
 62
     3
100
AcDbLine
 10
346.295649
 20
116.969655
 30
0.0
 11
355.795649
 21
111.484828
 31
0.0
  0
CIRCLE
  5
1C9
330
1F
100
AcDbEntity
  8
GR1-1
  6
CONTINUOUS
 62
     3
100
AcDbCircle
 10
346.295649
 20
106.0
 30
0.0
 40
11.25
  0
ARC
  5
1CA
330
1F
100
AcDbEntity
  8
GR1-1
  6
CONTINUOUS
 62
     3
100
AcDbCircle
 10
342.444713
 20
50.288099
 30
0.0
 40
39.8
100
AcDbArc
 50
77.465584
 51
84.008269
  0
LINE
  5
1CB
330
1F
100
AcDbEntity
  8
GR1-1
  6
CONTINUOUS
 62
     3
100
AcDbLine
 10
346.599233
 20
89.87067
 30
0.0
 11
335.338394
 21
91.052589
 31
0.0
  0
LINE
  5
1CC
330
1F
100
AcDbEntity
  8
GR1-1
  6
CONTINUOUS
 62
     3
100
AcDbLine
 10
341.495649
 20
89.033322
 30
0.0
 11
341.795649
 21
85.770731
 31
0.0
  0
LINE
  5
1CD
330
1F
100
AcDbEntity
  8
GR1-1
  6
CONTINUOUS
 62
     3
100
AcDbLine
 10
341.495649
 20
89.033322
 30
0.0
 11
341.495649
 21
90.443042
 31
0.0
  0
ARC
  5
1CE
330
1F
100
AcDbEntity
  8
GR1-1
  6
CONTINUOUS
 62
     3
100
AcDbCircle
 10
346.295649
 20
106.0
 30
0.0
 40
17.5
100
AcDbArc
 50
240.189868
 51
254.080548
  0
LINE
  5
1CF
330
1F
100
AcDbEntity
  8
GR1-1
  6
CONTINUOUS
 62
     3
100
AcDbLine
 10
351.082188
 20
89.139128
 30
0.0
 11
351.079299
 21
85.439846
 31
0.0
  0
ARC
  5
1D0
330
1F
100
AcDbEntity
  8
GR1-1
  6
CONTINUOUS
 62
     3
100
AcDbCircle
 10
352.079299
 20
85.439066
 30
0.0
 40
1.0
100
AcDbArc
 50
179.955262
 51
242.215348
  0
ARC
  5
1D1
330
1F
100
AcDbEntity
  8
GR1-1
  6
CONTINUOUS
 62
     3
100
AcDbCircle
 10
374.920633
 20
128.789653
 30
0.0
 40
50.0
100
AcDbArc
 50
242.215348
 51
300.315479
  0
ARC
  5
1D2
330
1F
100
AcDbEntity
  8
GR1-1
  6
CONTINUOUS
 62
     3
100
AcDbCircle
 10
341.295649
 20
145.325042
 30
0.0
 40
3.0
100
AcDbArc
 50
270.0
 51
360.0
  0
ARC
  5
1D3
330
1F
100
AcDbEntity
  8
GR1-1
  6
CONTINUOUS
 62
     3
100
AcDbCircle
 10
344.5508
 20
133.047476
 30
0.0
 40
40.0
100
AcDbArc
 50
173.397306
 51
229.393375
  0
ARC
  5
1D4
330
1F
100
AcDbEntity
  8
GR1-1
  6
CONTINUOUS
 62
     3
100
AcDbCircle
 10
319.167182
 20
103.43883
 30
0.0
 40
1.0
100
AcDbArc
 50
229.393375
 51
289.317592
  0
LINE
  5
1D5
330
1F
100
AcDbEntity
  8
GR1-1
  6
CONTINUOUS
 62
     3
100
AcDbLine
 10
319.497986
 20
102.49513
 30
0.0
 11
323.995264
 21
104.071605
 31
0.0
  0
ARC
  5
1D6
330
1F
100
AcDbEntity
  8
GR1-1
  6
CONTINUOUS
 62
     3
100
AcDbCircle
 10
336.382243
 20
100.997959
 30
0.0
 40
10.0
100
AcDbArc
 50
198.378651
 51
264.008269
  0
ARC
  5
1D7
330
1F
100
AcDbEntity
  8
GR1-1
  6
CONTINUOUS
 62
     3
100
AcDbCircle
 10
298.422501
 20
88.38614
 30
0.0
 40
30.0
100
AcDbArc
 50
18.378651
 51
31.52354
  0
ARC
  5
1D8
330
1F
100
AcDbEntity
  8
GR1-1
  6
CONTINUOUS
 62
     3
100
AcDbCircle
 10
346.295649
 20
72.725042
 30
0.0
 40
13.8
100
AcDbArc
 50
70.968559
 51
109.031441
  0
LINE
  5
1D9
330
1F
100
AcDbEntity
  8
GR1-1
  6
CONTINUOUS
 62
     3
100
AcDbLine
 10
350.795649
 20
85.770731
 30
0.0
 11
351.095649
 21
89.033322
 31
0.0
  0
ARC
  5
1DA
330
1F
100
AcDbEntity
  8
GR1-1
  6
CONTINUOUS
 62
     3
100
AcDbCircle
 10
346.295649
 20
72.725042
 30
0.0
 40
17.0
100
AcDbArc
 50
73.599314
 51
106.400686
  0
ARC
  5
1DB
330
1F
100
AcDbEntity
  8
GR1-1
  6
CONTINUOUS
 62
     3
100
AcDbCircle
 10
334.946868
 20
130.706525
 30
0.0
 40
3.0
100
AcDbArc
 50
261.304519
 51
322.886212
  0
TEXT
  5
1DC
330
1F
100
AcDbEntity
  8
GR1-1
  6
CONTINUOUS
 62
     7
100
AcDbText
 10
345.632355
 20
136.09288
 30
0.0
 40
3.649468
  1
J-100S
 41
0.667227
  7
FX_VECTOR
 72
     5
 11
359.430814
 21
136.09288
 31
0.0
100
AcDbText
  0
LINE
  5
1DD
330
1F
100
AcDbEntity
  8
GR1-1
  6
CONTINUOUS
 62
     6
100
AcDbLine
 10
344.295649
 20
154.825042
 30
0.0
 11
357.295649
 21
154.825042
 31
0.0
  0
LINE
  5
1DE
330
1F
100
AcDbEntity
  8
GR1-1
  6
CONTINUOUS
 62
     6
100
AcDbLine
 10
370.164989
 20
114.761732
 30
0.0
 11
353.044905
 21
83.829087
 31
0.0
  0
LINE
  5
1DF
330
1F
100
AcDbEntity
  8
GR1-1
  6
CONTINUOUS
 62
     6
100
AcDbLine
 10
358.624486
 20
81.519837
 30
0.0
 11
374.6486
 21
110.472279
 31
0.0
  0
LINE
  5
1E0
330
1F
100
AcDbEntity
  8
GR1-1
  6
CONTINUOUS
 62
     6
100
AcDbLine
 10
374.466532
 20
110.646463
 30
0.0
 11
376.678655
 21
112.958716
 31
0.0
  0
CIRCLE
  5
1E1
330
1F
100
AcDbEntity
  8
GR1-1
  6
CONTINUOUS
 62
     6
100
AcDbCircle
 10
346.295649
 20
106.0
 30
0.0
 40
9.5
  0
LINE
  5
1E2
330
1F
100
AcDbEntity
  8
GR1-1
  6
CONTINUOUS
 62
     6
100
AcDbLine
 10
357.295649
 20
143.325042
 30
0.0
 11
343.531717
 21
143.325042
 31
0.0
  0
LINE
  5
1E3
330
1F
100
AcDbEntity
  8
GR1-1
  6
CONTINUOUS
 62
     6
100
AcDbLine
 10
345.595649
 20
137.825042
 30
0.0
 11
339.995649
 21
137.825042
 31
0.0
  0
ARC
  5
1E4
330
1F
100
AcDbEntity
  8
GR1-1
  6
CONTINUOUS
 62
     6
100
AcDbCircle
 10
310.779248
 20
129.113294
 30
0.0
 40
3.0
100
AcDbArc
 50
69.954699
 51
186.642857
  0
ARC
  5
1E5
330
1F
100
AcDbEntity
  8
GR1-1
  6
CONTINUOUS
 62
     6
100
AcDbCircle
 10
344.55099
 20
133.046419
 30
0.0
 40
37.0
100
AcDbArc
 50
186.642857
 51
222.060611
  0
ARC
  5
1E6
330
1F
100
AcDbEntity
  8
GR1-1
  6
CONTINUOUS
 62
     6
100
AcDbCircle
 10
319.308147
 20
110.269262
 30
0.0
 40
3.0
100
AcDbArc
 50
222.060611
 51
289.330878
  0
LINE
  5
1E7
330
1F
100
AcDbEntity
  8
GR1-1
  6
CONTINUOUS
 62
     6
100
AcDbLine
 10
320.301216
 20
107.438394
 30
0.0
 11
327.768995
 21
110.058092
 31
0.0
  0
ARC
  5
1E8
330
1F
100
AcDbEntity
  8
GR1-1
  6
CONTINUOUS
 62
     6
100
AcDbCircle
 10
326.775926
 20
112.88896
 30
0.0
 40
3.0
100
AcDbArc
 50
289.330878
 51
340.56151
  0
ARC
  5
1E9
330
1F
100
AcDbEntity
  8
GR1-1
  6
CONTINUOUS
 62
     6
100
AcDbCircle
 10
332.307575
 20
121.258342
 30
0.0
 40
3.0
100
AcDbArc
 50
-47.486035
 51
69.954699
  0
LINE
  5
1EA
330
1F
100
AcDbEntity
  8
GR1-1
  6
CONTINUOUS
 62
     6
100
AcDbLine
 10
333.335864
 20
124.076608
 30
0.0
 11
311.807537
 21
131.931559
 31
0.0
  0
ARC
  5
1EB
330
1F
100
AcDbEntity
  8
GR1-1
  6
CONTINUOUS
 62
     7
100
AcDbCircle
 10
310.77631
 20
136.956927
 30
0.0
 40
6.0
100
AcDbArc
 50
173.128013
 51
173.397306
  0
ARC
  5
1EC
330
1F
100
AcDbEntity
  8
GR1-1
  6
CONTINUOUS
 62
     6
100
AcDbCircle
 10
346.296012
 20
106.00011
 30
0.0
 40
17.7
100
AcDbArc
 50
132.513965
 51
160.56151
  0
LINE
  5
1ED
330
1F
100
AcDbEntity
  8
GR1-1
  6
CONTINUOUS
 62
     3
100
AcDbLine
 10
194.04085
 20
78.789731
 30
0.0
 11
194.04085
 21
81.519837
 31
0.0
  0
LINE
  5
1EE
330
1F
100
AcDbEntity
  8
GR1-1
  6
CONTINUOUS
 62
     3
100
AcDbLine
 10
194.04085
 20
81.519837
 30
0.0
 11
190.422816
 21
82.695407
 31
0.0
  0
LINE
  5
1EF
330
1F
100
AcDbEntity
  8
GR1-1
  6
CONTINUOUS
 62
     3
100
AcDbLine
 10
192.24085
 20
83.829087
 30
0.0
 11
192.24085
 21
85.770731
 31
0.0
  0
LINE
  5
1F0
330
1F
100
AcDbEntity
  8
GR1-1
  6
CONTINUOUS
 62
     3
100
AcDbLine
 10
192.24085
 20
83.829087
 30
0.0
 11
195.858884
 21
82.653516
 31
0.0
  0
ARC
  5
1F1
330
1F
100
AcDbEntity
  8
GR1-1
  6
CONTINUOUS
 62
     3
100
AcDbCircle
 10
195.24085
 20
80.751403
 30
0.0
 40
2.0
100
AcDbArc
 50
0.0
 51
72.0
  0
LINE
  5
1F2
330
1F
100
AcDbEntity
  8
GR1-1
  6
CONTINUOUS
 62
     3
100
AcDbLine
 10
195.04085
 20
85.770731
 30
0.0
 11
195.04085
 21
89.225042
 31
0.0
  0
ARC
  5
1F3
330
1F
100
AcDbEntity
  8
GR1-1
  6
CONTINUOUS
 62
     3
100
AcDbCircle
 10
194.54085
 20
89.225042
 30
0.0
 40
0.5
100
AcDbArc
 50
0.0
 51
90.0
  0
LINE
  5
1F4
330
1F
100
AcDbEntity
  8
GR1-1
  6
CONTINUOUS
 62
     3
100
AcDbLine
 10
194.54085
 20
89.725042
 30
0.0
 11
189.04085
 21
89.725042
 31
0.0
  0
LINE
  5
1F5
330
1F
100
AcDbEntity
  8
GR1-1
  6
CONTINUOUS
 62
     3
100
AcDbLine
 10
189.04085
 20
89.033322
 30
0.0
 11
189.04085
 21
142.477689
 31
0.0
  0
LINE
  5
1F6
330
1F
100
AcDbEntity
  8
GR1-1
  6
CONTINUOUS
 62
     3
100
AcDbLine
 10
191.64085
 20
174.275
 30
0.0
 11
191.64085
 21
140.321328
 31
0.0
  0
LINE
  5
1F7
330
1F
100
AcDbEntity
  8
GR1-1
  6
CONTINUOUS
 62
     3
100
AcDbLine
 10
193.453409
 20
140.552997
 30
0.0
 11
208.69556
 21
138.972497
 31
0.0
  0
LINE
  5
1F8
330
1F
100
AcDbEntity
  8
GR1-1
  6
CONTINUOUS
 62
     3
100
AcDbLine
 10
210.04085
 20
137.646831
 30
0.0
 11
210.04085
 21
130.262233
 31
0.0
  0
ARC
  5
1F9
330
1F
100
AcDbEntity
  8
GR1-1
  6
CONTINUOUS
 62
     3
100
AcDbCircle
 10
208.54085
 20
130.262233
 30
0.0
 40
1.5
100
AcDbArc
 50
270.0
 51
360.0
  0
LINE
  5
1FA
330
1F
100
AcDbEntity
  8
GR1-1
  6
CONTINUOUS
 62
     3
100
AcDbLine
 10
208.54085
 20
128.762233
 30
0.0
 11
193.491306
 21
128.762233
 31
0.0
  0
LINE
  5
1FB
330
1F
100
AcDbEntity
  8
GR1-1
  6
CONTINUOUS
 62
     3
100
AcDbLine
 10
193.74085
 20
128.09678
 30
0.0
 11
192.24085
 21
132.09678
 31
0.0
  0
LINE
  5
1FC
330
1F
100
AcDbEntity
  8
GR1-1
  6
CONTINUOUS
 62
     3
100
AcDbLine
 10
193.74085
 20
128.09678
 30
0.0
 11
193.74085
 21
111.269268
 31
0.0
  0
LINE
  5
1FD
330
1F
100
AcDbEntity
  8
GR1-1
  6
CONTINUOUS
 62
     3
100
AcDbLine
 10
193.74085
 20
111.269268
 30
0.0
 11
192.24085
 21
107.269268
 31
0.0
  0
LINE
  5
1FE
330
1F
100
AcDbEntity
  8
GR1-1
  6
CONTINUOUS
 62
     3
100
AcDbLine
 10
192.84085
 20
108.869268
 30
0.0
 11
192.84085
 21
94.75
 31
0.0
  0
LINE
  5
1FF
330
1F
100
AcDbEntity
  8
GR1-1
  6
CONTINUOUS
 62
     3
100
AcDbLine
 10
192.84085
 20
94.75
 30
0.0
 11
192.24085
 21
94.75
 31
0.0
  0
LINE
  5
200
330
1F
100
AcDbEntity
  8
GR1-1
  6
CONTINUOUS
 62
     3
100
AcDbLine
 10
192.84085
 20
95.030345
 30
0.0
 11
196.34085
 21
95.030345
 31
0.0
  0
ARC
  5
201
330
1F
100
AcDbEntity
  8
GR1-1
  6
CONTINUOUS
 62
     3
100
AcDbCircle
 10
193.080434
 20
97.772759
 30
0.0
 40
4.260416666666139
100
AcDbArc
 50
-40.067987
 51
40.067987
  0
LINE
  5
202
330
1F
100
AcDbEntity
  8
GR1-1
  6
CONTINUOUS
 62
     3
100
AcDbLine
 10
196.34085
 20
100.515172
 30
0.0
 11
192.84085
 21
100.515172
 31
0.0
  0
ARC
  5
203
330
1F
100
AcDbEntity
  8
GR1-1
  6
CONTINUOUS
 62
     3
100
AcDbCircle
 10
181.799184
 20
106.0
 30
0.0
 40
15.54166666666642
100
AcDbArc
 50
-20.665478
 51
20.665478
  0
LINE
  5
204
330
1F
100
AcDbEntity
  8
GR1-1
  6
CONTINUOUS
 62
     3
100
AcDbLine
 10
196.34085
 20
111.484828
 30
0.0
 11
193.74085
 21
111.484828
 31
0.0
  0
ARC
  5
205
330
1F
100
AcDbEntity
  8
GR1-1
  6
CONTINUOUS
 62
     3
100
AcDbCircle
 10
193.080434
 20
114.227241
 30
0.0
 40
4.260416666666139
100
AcDbArc
 50
-40.067987
 51
40.067987
  0
LINE
  5
206
330
1F
100
AcDbEntity
  8
GR1-1
  6
CONTINUOUS
 62
     3
100
AcDbLine
 10
196.34085
 20
116.969655
 30
0.0
 11
193.74085
 21
116.969655
 31
0.0
  0
LINE
  5
207
330
1F
100
AcDbEntity
  8
GR1-1
  6
CONTINUOUS
 62
     3
100
AcDbLine
 10
197.34085
 20
114.227241
 30
0.0
 11
197.34085
 21
97.772759
 31
0.0
  0
LINE
  5
208
330
1F
100
AcDbEntity
  8
GR1-1
  6
CONTINUOUS
 62
     3
100
AcDbLine
 10
197.24085
 20
96.855108
 30
0.0
 11
197.24085
 21
78.789731
 31
0.0
  0
LINE
  5
209
330
1F
100
AcDbEntity
  8
GR1-1
  6
CONTINUOUS
 62
     3
100
AcDbLine
 10
197.24085
 20
78.789731
 30
0.0
 11
194.04085
 21
78.789731
 31
0.0
  0
LINE
  5
20A
330
1F
100
AcDbEntity
  8
GR1-1
  6
CONTINUOUS
 62
     3
100
AcDbLine
 10
195.04085
 20
85.770731
 30
0.0
 11
189.34085
 21
85.770731
 31
0.0
  0
LINE
  5
20B
330
1F
100
AcDbEntity
  8
GR1-1
  6
CONTINUOUS
 62
     3
100
AcDbLine
 10
189.04085
 20
85.783612
 30
0.0
 11
189.04085
 21
84.59752
 31
0.0
  0
ARC
  5
20C
330
1F
100
AcDbEntity
  8
GR1-1
  6
CONTINUOUS
 62
     3
100
AcDbCircle
 10
191.04085
 20
84.59752
 30
0.0
 40
2.0
100
AcDbArc
 50
180.0
 51
252.0
  0
LINE
  5
20D
330
1F
100
AcDbEntity
  8
GR1-1
  6
CONTINUOUS
 62
     3
100
AcDbLine
 10
189.04085
 20
89.033322
 30
0.0
 11
194.54085
 21
89.033322
 31
0.0
  0
ARC
  5
20E
330
1F
100
AcDbEntity
  8
GR1-1
  6
CONTINUOUS
 62
     3
100
AcDbCircle
 10
194.54085
 20
88.533322
 30
0.0
 40
0.5
100
AcDbArc
 50
0.0
 51
90.0
  0
LINE
  5
20F
330
1F
100
AcDbEntity
  8
GR1-1
  6
CONTINUOUS
 62
     3
100
AcDbLine
 10
192.24085
 20
89.725042
 30
0.0
 11
192.24085
 21
137.092303
 31
0.0
  0
LINE
  5
210
330
1F
100
AcDbEntity
  8
GR1-1
  6
CONTINUOUS
 62
     3
100
AcDbLine
 10
192.79242
 20
137.589637
 30
0.0
 11
208.69556
 21
135.940596
 31
0.0
  0
ARC
  5
211
330
1F
100
AcDbEntity
  8
GR1-1
  6
CONTINUOUS
 62
     3
100
AcDbCircle
 10
208.54085
 20
134.448596
 30
0.0
 40
1.5
100
AcDbArc
 50
0.0
 51
84.08
  0
ARC
  5
212
330
1F
100
AcDbEntity
  8
GR1-1
  6
CONTINUOUS
 62
     3
100
AcDbCircle
 10
208.54085
 20
137.480496
 30
0.0
 40
1.5
100
AcDbArc
 50
0.0
 51
84.08
  0
ARC
  5
213
330
1F
100
AcDbEntity
  8
GR1-1
  6
CONTINUOUS
 62
     3
100
AcDbCircle
 10
193.04085
 20
136.57433
 30
0.0
 40
4.0
100
AcDbArc
 50
84.08
 51
180.0
  0
ARC
  5
214
330
1F
100
AcDbEntity
  8
GR1-1
  6
CONTINUOUS
 62
     3
100
AcDbCircle
 10
192.74085
 20
137.092303
 30
0.0
 40
0.5
100
AcDbArc
 50
84.08
 51
180.0
  0
LINE
  5
215
330
1F
100
AcDbEntity
  8
GR1-1
  6
CONTINUOUS
 62
     3
100
AcDbLine
 10
127.94085
 20
111.0
 30
0.0
 11
124.64085
 21
111.0
 31
0.0
  0
LINE
  5
216
330
1F
100
AcDbEntity
  8
GR1-1
  6
CONTINUOUS
 62
     3
100
AcDbLine
 10
124.64085
 20
111.0
 30
0.0
 11
124.14085
 21
110.188
 31
0.0
  0
LINE
  5
217
330
1F
100
AcDbEntity
  8
GR1-1
  6
CONTINUOUS
 62
     3
100
AcDbLine
 10
124.14085
 20
110.188
 30
0.0
 11
124.14085
 21
101.812
 31
0.0
  0
LINE
  5
218
330
1F
100
AcDbEntity
  8
GR1-1
  6
CONTINUOUS
 62
     3
100
AcDbLine
 10
124.14085
 20
101.812
 30
0.0
 11
124.64085
 21
101.0
 31
0.0
  0
LINE
  5
219
330
1F
100
AcDbEntity
  8
GR1-1
  6
CONTINUOUS
 62
     3
100
AcDbLine
 10
124.64085
 20
101.0
 30
0.0
 11
127.94085
 21
101.0
 31
0.0
  0
ARC
  5
21A
330
1F
100
AcDbEntity
  8
GR1-1
  6
CONTINUOUS
 62
     3
100
AcDbCircle
 10
189.34085
 20
89.270731
 30
0.0
 40
3.5
100
AcDbArc
 50
180.0
 51
270.0
  0
LINE
  5
21B
330
1F
100
AcDbEntity
  8
GR1-1
  6
CONTINUOUS
 62
     3
100
AcDbLine
 10
197.24085
 20
85.729473
 30
0.0
 11
213.512387
 21
87.661096
 31
0.0
  0
ARC
  5
21C
330
1F
100
AcDbEntity
  8
GR1-1
  6
CONTINUOUS
 62
     3
100
AcDbCircle
 10
213.04085
 20
91.633205
 30
0.0
 40
4.0
100
AcDbArc
 50
276.77
 51
360.0
  0
LINE
  5
21D
330
1F
100
AcDbEntity
  8
GR1-1
  6
CONTINUOUS
 62
     3
100
AcDbLine
 10
217.04085
 20
91.633205
 30
0.0
 11
217.04085
 21
107.971837
 31
0.0
  0
ARC
  5
21E
330
1F
100
AcDbEntity
  8
GR1-1
  6
CONTINUOUS
 62
     3
100
AcDbCircle
 10
213.04085
 20
107.971837
 30
0.0
 40
4.0
100
AcDbArc
 50
0.0
 51
84.47
  0
LINE
  5
21F
330
1F
100
AcDbEntity
  8
GR1-1
  6
CONTINUOUS
 62
     3
100
AcDbLine
 10
213.426318
 20
111.953221
 30
0.0
 11
203.937889
 21
112.871867
 31
0.0
  0
ARC
  5
220
330
1F
100
AcDbEntity
  8
GR1-1
  6
CONTINUOUS
 62
     3
100
AcDbCircle
 10
204.130623
 20
114.862559
 30
0.0
 40
2.0
100
AcDbArc
 50
218.682613
 51
264.47
  0
ARC
  5
221
330
1F
100
AcDbEntity
  8
GR1-1
  6
CONTINUOUS
 62
     3
100
AcDbCircle
 10
196.324422
 20
108.612501
 30
0.0
 40
8.0
100
AcDbArc
 50
38.682613
 51
87.924993
  0
ARC
  5
222
330
1F
100
AcDbEntity
  8
GR1-1
  6
CONTINUOUS
 62
     3
100
AcDbCircle
 10
204.206888
 20
112.542922
 30
0.0
 40
2.0
100
AcDbArc
 50
215.318354
 51
264.47
  0
LINE
  5
223
330
1F
100
AcDbEntity
  8
GR1-1
  6
CONTINUOUS
 62
     3
100
AcDbLine
 10
204.014154
 20
110.552231
 30
0.0
 11
213.426318
 21
109.640968
 31
0.0
  0
ARC
  5
224
330
1F
100
AcDbEntity
  8
GR1-1
  6
CONTINUOUS
 62
     3
100
AcDbCircle
 10
213.04085
 20
105.659585
 30
0.0
 40
4.0
100
AcDbArc
 50
0.0
 51
84.47
  0
ARC
  5
225
330
1F
100
AcDbEntity
  8
GR1-1
  6
CONTINUOUS
 62
     3
100
AcDbCircle
 10
196.047363
 20
106.761732
 30
0.0
 40
8.0
100
AcDbArc
 50
35.318354
 51
80.855162
  0
LINE
  5
226
330
1F
100
AcDbEntity
  8
GR1-1
  6
CONTINUOUS
 62
     6
100
AcDbLine
 10
198.963665
 20
135.480893
 30
0.0
 11
207.818035
 21
135.480893
 31
0.0
  0
LINE
  5
227
330
1F
100
AcDbEntity
  8
GR1-1
  6
CONTINUOUS
 62
     6
100
AcDbLine
 10
207.816606
 20
135.035267
 30
0.0
 11
204.04085
 21
135.035267
 31
0.0
  0
LINE
  5
228
330
1F
100
AcDbEntity
  8
GR1-1
  6
CONTINUOUS
 62
     6
100
AcDbLine
 10
204.04085
 20
135.035267
 30
0.0
 11
204.04085
 21
133.081371
 31
0.0
  0
LINE
  5
229
330
1F
100
AcDbEntity
  8
GR1-1
  6
CONTINUOUS
 62
     6
100
AcDbLine
 10
204.04085
 20
133.081371
 30
0.0
 11
206.819464
 21
133.081371
 31
0.0
  0
ARC
  5
22A
330
1F
100
AcDbEntity
  8
GR1-1
  6
CONTINUOUS
 62
     6
100
AcDbCircle
 10
206.818035
 20
132.858561
 30
0.0
 40
0.2228149999999971
100
AcDbArc
 50
-90.0
 51
89.63251
  0
LINE
  5
22B
330
1F
100
AcDbEntity
  8
GR1-1
  6
CONTINUOUS
 62
     6
100
AcDbLine
 10
206.818035
 20
132.635746
 30
0.0
 11
204.04085
 21
132.635746
 31
0.0
  0
LINE
  5
22C
330
1F
100
AcDbEntity
  8
GR1-1
  6
CONTINUOUS
 62
     6
100
AcDbLine
 10
204.04085
 20
132.635746
 30
0.0
 11
204.04085
 21
132.25738
 31
0.0
  0
LINE
  5
22D
330
1F
100
AcDbEntity
  8
GR1-1
  6
CONTINUOUS
 62
     6
100
AcDbLine
 10
202.74085
 20
132.25738
 30
0.0
 11
202.74085
 21
135.035267
 31
0.0
  0
LINE
  5
22E
330
1F
100
AcDbEntity
  8
GR1-1
  6
CONTINUOUS
 62
     6
100
AcDbLine
 10
202.74085
 20
135.035267
 30
0.0
 11
201.04085
 21
135.035267
 31
0.0
  0
LINE
  5
22F
330
1F
100
AcDbEntity
  8
GR1-1
  6
CONTINUOUS
 62
     6
100
AcDbLine
 10
201.04085
 20
135.035267
 30
0.0
 11
201.04085
 21
133.971324
 31
0.0
  0
LINE
  5
230
330
1F
100
AcDbEntity
  8
GR1-1
  6
CONTINUOUS
 62
     6
100
AcDbLine
 10
199.74085
 20
133.971324
 30
0.0
 11
199.74085
 21
135.035267
 31
0.0
  0
LINE
  5
231
330
1F
100
AcDbEntity
  8
GR1-1
  6
CONTINUOUS
 62
     6
100
AcDbLine
 10
199.74085
 20
135.035267
 30
0.0
 11
198.965094
 21
135.035267
 31
0.0
  0
ARC
  5
232
330
1F
100
AcDbEntity
  8
GR1-1
  6
CONTINUOUS
 62
     6
100
AcDbCircle
 10
198.963665
 20
135.258078
 30
0.0
 40
0.2228149999999971
100
AcDbArc
 50
90.0
 51
269.63251
  0
ARC
  5
233
330
1F
100
AcDbEntity
  8
GR1-1
  6
CONTINUOUS
 62
     6
100
AcDbCircle
 10
200.39085
 20
133.971324
 30
0.0
 40
0.6500000000000341
100
AcDbArc
 50
180.0
 51
360.0
  0
ARC
  5
234
330
1F
100
AcDbEntity
  8
GR1-1
  6
CONTINUOUS
 62
     6
100
AcDbCircle
 10
203.39085
 20
132.25738
 30
0.0
 40
0.6500000000000341
100
AcDbArc
 50
180.0
 51
360.0
  0
ARC
  5
235
330
1F
100
AcDbEntity
  8
GR1-1
  6
CONTINUOUS
 62
     6
100
AcDbCircle
 10
207.818035
 20
135.258078
 30
0.0
 40
0.2228149999999971
100
AcDbArc
 50
-89.63251
 51
90.0
  0
ARC
  5
236
330
1F
100
AcDbEntity
  8
GR1-1
  6
CONTINUOUS
 62
     6
100
AcDbCircle
 10
205.577785
 20
104.140223
 30
0.0
 40
1.036935
100
AcDbArc
 50
89.82503
 51
270.0
  0
LINE
  5
237
330
1F
100
AcDbEntity
  8
GR1-1
  6
CONTINUOUS
 62
     6
100
AcDbLine
 10
205.577785
 20
103.103288
 30
0.0
 11
212.503915
 21
103.103288
 31
0.0
  0
ARC
  5
238
330
1F
100
AcDbEntity
  8
GR1-1
  6
CONTINUOUS
 62
     6
100
AcDbCircle
 10
212.503915
 20
104.140223
 30
0.0
 40
1.036935
100
AcDbArc
 50
-90.0
 51
90.17497
  0
LINE
  5
239
330
1F
100
AcDbEntity
  8
GR1-1
  6
CONTINUOUS
 62
     6
100
AcDbLine
 10
212.500749
 20
105.177153
 30
0.0
 11
205.580952
 21
105.177153
 31
0.0
  0
LINE
  5
23A
330
1F
100
AcDbEntity
  8
GR1-1
  6
CONTINUOUS
 62
     6
100
AcDbLine
 10
205.580952
 20
99.301202
 30
0.0
 11
212.500749
 21
99.301202
 31
0.0
  0
LINE
  5
23B
330
1F
100
AcDbEntity
  8
GR1-1
  6
CONTINUOUS
 62
     6
100
AcDbLine
 10
212.503915
 20
97.227337
 30
0.0
 11
205.577785
 21
97.227337
 31
0.0
  0
ARC
  5
23C
330
1F
100
AcDbEntity
  8
GR1-1
  6
CONTINUOUS
 62
     6
100
AcDbCircle
 10
205.577785
 20
98.264272
 30
0.0
 40
1.036935
100
AcDbArc
 50
89.82503
 51
270.0
  0
LINE
  5
23D
330
1F
100
AcDbEntity
  8
GR1-1
  6
CONTINUOUS
 62
     6
100
AcDbLine
 10
205.580952
 20
93.425251
 30
0.0
 11
212.500749
 21
93.425251
 31
0.0
  0
LINE
  5
23E
330
1F
100
AcDbEntity
  8
GR1-1
  6
CONTINUOUS
 62
     6
100
AcDbLine
 10
212.503915
 20
91.351386
 30
0.0
 11
205.577785
 21
91.351386
 31
0.0
  0
ARC
  5
23F
330
1F
100
AcDbEntity
  8
GR1-1
  6
CONTINUOUS
 62
     6
100
AcDbCircle
 10
205.577785
 20
92.388321
 30
0.0
 40
1.036935
100
AcDbArc
 50
89.82503
 51
270.0
  0
ARC
  5
240
330
1F
100
AcDbEntity
  8
GR1-1
  6
CONTINUOUS
 62
     6
100
AcDbCircle
 10
212.503915
 20
92.388321
 30
0.0
 40
1.036935
100
AcDbArc
 50
-90.0
 51
90.17497
  0
ARC
  5
241
330
1F
100
AcDbEntity
  8
GR1-1
  6
CONTINUOUS
 62
     6
100
AcDbCircle
 10
212.503915
 20
98.264272
 30
0.0
 40
1.036935
100
AcDbArc
 50
-90.0
 51
90.17497
  0
LINE
  5
242
330
1F
100
AcDbEntity
  8
GR1-1
  6
CONTINUOUS
 62
     6
100
AcDbLine
 10
124.14085
 20
110.188
 30
0.0
 11
127.94085
 21
110.188
 31
0.0
  0
LINE
  5
243
330
1F
100
AcDbEntity
  8
GR1-1
  6
CONTINUOUS
 62
     6
100
AcDbLine
 10
124.64085
 20
111.0
 30
0.0
 11
124.64085
 21
101.0
 31
0.0
  0
LINE
  5
244
330
1F
100
AcDbEntity
  8
GR1-1
  6
CONTINUOUS
 62
     6
100
AcDbLine
 10
124.14085
 20
101.812
 30
0.0
 11
127.94085
 21
101.812
 31
0.0
  0
LINE
  5
245
330
1F
100
AcDbEntity
  8
GR1-1
  6
CONTINUOUS
 62
     6
100
AcDbLine
 10
189.04085
 20
102.440225
 30
0.0
 11
192.24085
 21
102.440225
 31
0.0
  0
LINE
  5
246
330
1F
100
AcDbEntity
  8
GR1-1
  6
CONTINUOUS
 62
     6
100
AcDbLine
 10
189.04085
 20
90.443042
 30
0.0
 11
185.84085
 21
90.443042
 31
0.0
  0
LINE
  5
247
330
1F
100
AcDbEntity
  8
GR1-1
  6
CONTINUOUS
 62
     6
100
AcDbLine
 10
189.04085
 20
84.840041
 30
0.0
 11
192.24085
 21
84.840041
 31
0.0
  0
ARC
  5
248
330
1F
100
AcDbEntity
  8
GR1-1
  6
CONTINUOUS
 62
     3
100
AcDbCircle
 10
183.04085
 20
142.477689
 30
0.0
 40
6.0
100
AcDbArc
 50
0.0
 51
33.6
  0
LINE
  5
249
330
1F
100
AcDbEntity
  8
GR1-1
  6
CONTINUOUS
 62
     3
100
AcDbLine
 10
188.038378
 20
145.798038
 30
0.0
 11
185.84085
 21
149.105582
 31
0.0
  0
ARC
  5
24A
330
1F
100
AcDbEntity
  8
LAYERGROUP-1
  6
CONTINUOUS
 62
     3
100
AcDbCircle
 10
161.14085
 20
188.2375
 30
0.0
 40
4.762499999999989
100
AcDbArc
 50
32.195404
 51
66.349641
  0
ARC
  5
24B
330
1F
100
AcDbEntity
  8
LAYERGROUP-1
  6
CONTINUOUS
 62
     3
100
AcDbCircle
 10
170.487774
 20
188.2375
 30
0.0
 40
4.762499999999989
100
AcDbArc
 50
113.650359
 51
147.804596
  0
ARC
  5
24C
330
1F
100
AcDbEntity
  8
LAYERGROUP-1
  6
CONTINUOUS
 62
     3
100
AcDbCircle
 10
178.721776
 20
188.2375
 30
0.0
 40
4.762499999999989
100
AcDbArc
 50
32.195404
 51
66.349641
  0
ARC
  5
24D
330
1F
100
AcDbEntity
  8
LAYERGROUP-1
  6
CONTINUOUS
 62
     3
100
AcDbCircle
 10
184.862447
 20
188.2375
 30
0.0
 40
4.762499999999989
100
AcDbArc
 50
32.195404
 51
66.349641
  0
ARC
  5
24E
330
1F
100
AcDbEntity
  8
LAYERGROUP-1
  6
CONTINUOUS
 62
     3
100
AcDbCircle
 10
188.17863
 20
188.2375
 30
0.0
 40
4.762499999999989
100
AcDbArc
 50
32.195404
 51
66.349641
  0
ARC
  5
24F
330
1F
100
AcDbEntity
  8
LAYERGROUP-1
  6
CONTINUOUS
 62
     3
100
AcDbCircle
 10
188.275471
 20
188.2375
 30
0.0
 40
4.762499999999989
100
AcDbArc
 50
32.195404
 51
66.349641
  0
ARC
  5
250
330
1F
100
AcDbEntity
  8
LAYERGROUP-1
  6
CONTINUOUS
 62
     3
100
AcDbCircle
 10
170.487774
 20
188.2375
 30
0.0
 40
4.762499999999989
100
AcDbArc
 50
32.195404
 51
66.349641
  0
ARC
  5
251
330
1F
100
AcDbEntity
  8
LAYERGROUP-1
  6
CONTINUOUS
 62
     3
100
AcDbCircle
 10
178.721776
 20
188.2375
 30
0.0
 40
4.762499999999989
100
AcDbArc
 50
113.650359
 51
147.804596
  0
ARC
  5
252
330
1F
100
AcDbEntity
  8
LAYERGROUP-1
  6
CONTINUOUS
 62
     3
100
AcDbCircle
 10
184.862447
 20
188.2375
 30
0.0
 40
4.762499999999989
100
AcDbArc
 50
113.650359
 51
130.142432
  0
ARC
  5
253
330
1F
100
AcDbEntity
  8
LAYERGROUP-1
  6
CONTINUOUS
 62
     3
100
AcDbCircle
 10
161.14085
 20
188.2375
 30
0.0
 40
4.762499999999989
100
AcDbArc
 50
113.650359
 51
147.804596
  0
ARC
  5
254
330
1F
100
AcDbEntity
  8
LAYERGROUP-1
  6
CONTINUOUS
 62
     3
100
AcDbCircle
 10
151.793927
 20
188.2375
 30
0.0
 40
4.762499999999989
100
AcDbArc
 50
32.195404
 51
66.349641
  0
ARC
  5
255
330
1F
100
AcDbEntity
  8
LAYERGROUP-1
  6
CONTINUOUS
 62
     3
100
AcDbCircle
 10
143.559925
 20
188.2375
 30
0.0
 40
4.762499999999989
100
AcDbArc
 50
113.650359
 51
147.804596
  0
ARC
  5
256
330
1F
100
AcDbEntity
  8
LAYERGROUP-1
  6
CONTINUOUS
 62
     3
100
AcDbCircle
 10
137.419254
 20
188.2375
 30
0.0
 40
4.762499999999989
100
AcDbArc
 50
113.650359
 51
147.804596
  0
ARC
  5
257
330
1F
100
AcDbEntity
  8
LAYERGROUP-1
  6
CONTINUOUS
 62
     3
100
AcDbCircle
 10
134.103071
 20
188.2375
 30
0.0
 40
4.762499999999989
100
AcDbArc
 50
113.650359
 51
147.804596
  0
ARC
  5
258
330
1F
100
AcDbEntity
  8
LAYERGROUP-1
  6
CONTINUOUS
 62
     3
100
AcDbCircle
 10
134.006229
 20
188.2375
 30
0.0
 40
4.762499999999989
100
AcDbArc
 50
113.650359
 51
147.804596
  0
ARC
  5
259
330
1F
100
AcDbEntity
  8
LAYERGROUP-1
  6
CONTINUOUS
 62
     3
100
AcDbCircle
 10
151.793927
 20
188.2375
 30
0.0
 40
4.762499999999989
100
AcDbArc
 50
113.650359
 51
147.804596
  0
ARC
  5
25A
330
1F
100
AcDbEntity
  8
LAYERGROUP-1
  6
CONTINUOUS
 62
     3
100
AcDbCircle
 10
143.559925
 20
188.2375
 30
0.0
 40
4.762499999999989
100
AcDbArc
 50
32.195404
 51
66.349641
  0
ARC
  5
25B
330
1F
100
AcDbEntity
  8
LAYERGROUP-1
  6
CONTINUOUS
 62
     3
100
AcDbCircle
 10
137.419254
 20
188.2375
 30
0.0
 40
4.762499999999989
100
AcDbArc
 50
49.857568
 51
66.349641
  0
DIMENSION
  5
25C
330
1F
100
AcDbEntity
  8
GR1-1
100
AcDbDimension
  2
*D29
 10
381.295649
 20
320.0
 30
0.0
 11
305.827942
 21
294.237335
 31
0.0
 70
   164
  3
FXDIMINFO
100
AcDbRadialDimension
 15
298.57055
 25
290.782189
 35
0.0
 40
0.0
1001
ACAD
1000
DSTYLE
1002
{
1070
     6
1000
FXTIP_ARROW_S
1070
   173
1070
     1
1002
}
  0
ARC
  5
263
330
1F
100
AcDbEntity
  8
GR1-1
  6
CONTINUOUS
 62
     7
100
AcDbCircle
 10
381.295649
 20
320.0
 30
0.0
 40
87.73324669073961
100
AcDbArc
 50
197.872429
 51
218.135489
  0
LINE
  5
264
330
1F
100
AcDbEntity
  8
GR1-1
  6
CONTINUOUS
 62
     3
100
AcDbLine
 10
139.64085
 20
100.0
 30
0.0
 11
140.14085
 21
100.0
 31
0.0
  0
LINE
  5
265
330
1F
100
AcDbEntity
  8
GR1-1
  6
CONTINUOUS
 62
     3
100
AcDbLine
 10
140.14085
 20
112.0
 30
0.0
 11
139.64085
 21
112.0
 31
0.0
  0
DIMENSION
  5
266
330
1F
100
AcDbEntity
  8
GR1-1
100
AcDbDimension
  2
*D30
 10
182.14085
 20
35.904309
 30
0.0
 11
161.140854
 21
36.904312
 31
0.0
 70
    33
  3
FXDIMINFO
100
AcDbAlignedDimension
 13
140.14085
 23
98.0
 33
0.0
 14
182.14085
 24
98.0
 34
0.0
1001
ACAD
1000
DSTYLE
1002
{
1070
     7
1000
FXTIP_ARROW_E
1070
     6
1000
FXTIP_ARROW_S
1070
   173
1070
     1
1002
}
  0
DIMENSION
  5
270
330
1F
100
AcDbEntity
  8
GR1-1
100
AcDbDimension
  2
*D31
 10
178.64085
 20
45.904309
 30
0.0
 11
161.140854
 21
46.904312
 31
0.0
 70
    33
  3
FXDIMINFO
100
AcDbAlignedDimension
 13
143.64085
 23
68.0
 33
0.0
 14
178.64085
 24
68.0
 34
0.0
1001
ACAD
1000
DSTYLE
1002
{
1070
     7
1000
FXTIP_ARROW_E
1070
     6
1000
FXTIP_ARROW_S
1070
   173
1070
     1
1002
}
  0
LINE
  5
27A
330
1F
100
AcDbEntity
  8
GR1-1
  6
CONTINUOUS
 62
     6
100
AcDbLine
 10
363.402634
 20
111.406551
 30
0.0
 11
363.402634
 21
177.169144
 31
0.0
  0
LINE
  5
27B
330
1F
100
AcDbEntity
  8
GR1-1
  6
CONTINUOUS
 62
     3
100
AcDbLine
 10
177.34085
 20
166.621194
 30
0.0
 11
144.64085
 21
166.621194
 31
0.0
  0
LINE
  5
27C
330
1F
100
AcDbEntity
  8
GR1-1
  6
CONTINUOUS
 62
     3
100
AcDbLine
 10
144.64085
 20
169.275
 30
0.0
 11
144.64085
 21
160.052012
 31
0.0
  0
ARC
  5
27D
330
1F
100
AcDbEntity
  8
GR1-1
  6
CONTINUOUS
 62
     3
100
AcDbCircle
 10
145.64085
 20
160.052012
 30
0.0
 40
1.0
100
AcDbArc
 50
180.0
 51
270.0
  0
LINE
  5
27E
330
1F
100
AcDbEntity
  8
GR1-1
  6
CONTINUOUS
 62
     3
100
AcDbLine
 10
145.64085
 20
159.052012
 30
0.0
 11
175.64085
 21
159.052012
 31
0.0
  0
ARC
  5
27F
330
1F
100
AcDbEntity
  8
GR1-1
  6
CONTINUOUS
 62
     3
100
AcDbCircle
 10
175.64085
 20
160.052012
 30
0.0
 40
1.0
100
AcDbArc
 50
270.0
 51
360.0
  0
LINE
  5
280
330
1F
100
AcDbEntity
  8
GR1-1
  6
CONTINUOUS
 62
     3
100
AcDbLine
 10
176.64085
 20
160.052012
 30
0.0
 11
176.64085
 21
166.621194
 31
0.0
  0
LINE
  5
281
330
1F
100
AcDbEntity
  8
GR1-1
  6
CONTINUOUS
 62
     3
100
AcDbLine
 10
178.84085
 20
165.121194
 30
0.0
 11
178.84085
 21
155.672396
 31
0.0
  0
ARC
  5
282
330
1F
100
AcDbEntity
  8
GR1-1
  6
CONTINUOUS
 62
     3
100
AcDbCircle
 10
184.84085
 20
155.672396
 30
0.0
 40
6.0
100
AcDbArc
 50
180.0
 51
213.6
  0
LINE
  5
283
330
1F
100
AcDbEntity
  8
GR1-1
  6
CONTINUOUS
 62
     3
100
AcDbLine
 10
179.843323
 20
152.352047
 30
0.0
 11
182.64085
 21
148.141429
 31
0.0
  0
LINE
  5
284
330
1F
100
AcDbEntity
  8
GR1-1
  6
CONTINUOUS
 62
     3
100
AcDbLine
 10
182.04085
 20
164.81133
 30
0.0
 11
182.04085
 21
154.825042
 31
0.0
  0
LINE
  5
285
330
1F
100
AcDbEntity
  8
GR1-1
  6
CONTINUOUS
 62
     3
100
AcDbLine
 10
182.04085
 20
154.825042
 30
0.0
 11
182.64085
 21
153.92197
 31
0.0
  0
ARC
  5
286
330
1F
100
AcDbEntity
  8
GR1-1
  6
CONTINUOUS
 62
     3
100
AcDbCircle
 10
158.200458
 20
145.216407
 30
0.0
 40
26.42930356756718
100
AcDbArc
 50
22.369915
 51
25.571954
  0
ARC
  5
287
330
1F
100
AcDbEntity
  8
GR1-1
  6
CONTINUOUS
 62
     3
100
AcDbCircle
 10
161.454549
 20
149.234892
 30
0.0
 40
21.34722383089664
100
AcDbArc
 50
35.466728
 51
44.651495
  0
ARC
  5
288
330
1F
100
AcDbEntity
  8
GR1-1
  6
CONTINUOUS
 62
     3
100
AcDbCircle
 10
177.34085
 20
165.121194
 30
0.0
 40
1.5
100
AcDbArc
 50
0.0
 51
90.0
  0
ARC
  5
289
330
1F
100
AcDbEntity
  8
GR1-1
  6
CONTINUOUS
 62
     3
100
AcDbCircle
 10
177.04085
 20
164.81133
 30
0.0
 40
5.0
100
AcDbArc
 50
0.0
 51
63.218841
  0
ARC
  5
28A
330
1F
100
AcDbEntity
  8
GR1-1
  6
CONTINUOUS
 62
     3
100
AcDbCircle
 10
164.081243
 20
145.216407
 30
0.0
 40
26.42930356756718
100
AcDbArc
 50
137.35473
 51
157.630085
  0
LINE
  5
28B
330
1F
100
AcDbEntity
  8
GR1-1
  6
CONTINUOUS
 62
     6
100
AcDbLine
 10
175.64085
 20
160.621194
 30
0.0
 11
145.64085
 21
160.621194
 31
0.0
  0
ARC
  5
28C
330
1F
100
AcDbEntity
  8
GR1-1
  6
CONTINUOUS
 62
     6
100
AcDbCircle
 10
145.64085
 20
161.621194
 30
0.0
 40
1.0
100
AcDbArc
 50
180.0
 51
270.0
  0
ARC
  5
28D
330
1F
100
AcDbEntity
  8
GR1-1
  6
CONTINUOUS
 62
     6
100
AcDbCircle
 10
175.64085
 20
161.621194
 30
0.0
 40
1.0
100
AcDbArc
 50
270.0
 51
360.0
  0
LINE
  5
28E
330
1F
100
AcDbEntity
  8
GR1-1
  6
CONTINUOUS
 62
     6
100
AcDbLine
 10
176.64085
 20
166.621194
 30
0.0
 11
176.64085
 21
169.275
 31
0.0
  0
DIMENSION
  5
28F
330
1F
100
AcDbEntity
  8
LAYERGROUP-1
100
AcDbDimension
  2
*D32
 10
112.825982
 20
156.0
 30
0.0
 11
111.825989
 21
106.0
 31
0.0
 70
    33
  3
FXDIMINFO
100
AcDbAlignedDimension
 13
161.14085
 23
56.0
 33
0.0
 14
161.14085
 24
156.0
 34
0.0
1001
ACAD
1000
DSTYLE
1002
{
1070
     7
1000
FXTIP_ARROW_E
1070
     6
1000
FXTIP_ARROW_S
1070
   173
1070
     1
1002
}
  0
LINE
  5
299
330
1F
100
AcDbEntity
  8
GR1-1
  6
CONTINUOUS
 62
     3
100
AcDbLine
 10
428.795649
 20
200.0
 30
0.0
 11
333.795649
 21
200.0
 31
0.0
  0
LINE
  5
29A
330
1F
100
AcDbEntity
  8
GR1-1
  6
CONTINUOUS
 62
     3
100
AcDbLine
 10
333.795649
 20
200.0
 30
0.0
 11
333.795649
 21
196.8
 31
0.0
  0
LINE
  5
29B
330
1F
100
AcDbEntity
  8
GR1-1
  6
CONTINUOUS
 62
     3
100
AcDbLine
 10
333.795649
 20
196.8
 30
0.0
 11
428.795649
 21
196.8
 31
0.0
  0
LINE
  5
29C
330
1F
100
AcDbEntity
  8
GR1-1
  6
CONTINUOUS
 62
     3
100
AcDbLine
 10
428.795649
 20
196.8
 30
0.0
 11
428.795649
 21
200.0
 31
0.0
  0
LINE
  5
29D
330
1F
100
AcDbEntity
  8
GR1-1
  6
CONTINUOUS
 62
     3
100
AcDbLine
 10
417.295649
 20
190.775
 30
0.0
 11
417.09045
 21
186.465827
 31
0.0
  0
LINE
  5
29E
330
1F
100
AcDbEntity
  8
GR1-1
  6
CONTINUOUS
 62
     3
100
AcDbLine
 10
417.295649
 20
190.775
 30
0.0
 11
345.295649
 21
190.775
 31
0.0
  0
LINE
  5
29F
330
1F
100
AcDbEntity
  8
GR1-1
  6
CONTINUOUS
 62
     3
100
AcDbLine
 10
345.295649
 20
190.775
 30
0.0
 11
345.500848
 21
186.465827
 31
0.0
  0
ARC
  5
2A0
330
1F
100
AcDbEntity
  8
GR1-1
  6
CONTINUOUS
 62
     3
100
AcDbCircle
 10
351.993491
 20
186.775
 30
0.0
 40
6.5
100
AcDbArc
 50
182.726311
 51
270.0
  0
LINE
  5
2A1
330
1F
100
AcDbEntity
  8
GR1-1
  6
CONTINUOUS
 62
     3
100
AcDbLine
 10
351.993491
 20
180.275
 30
0.0
 11
410.597808
 21
180.275
 31
0.0
  0
ARC
  5
2A2
330
1F
100
AcDbEntity
  8
GR1-1
  6
CONTINUOUS
 62
     3
100
AcDbCircle
 10
410.597808
 20
186.775
 30
0.0
 40
6.5
100
AcDbArc
 50
270.0
 51
357.273689
  0
LINE
  5
2A3
330
1F
100
AcDbEntity
  8
GR1-1
  6
CONTINUOUS
 62
     3
100
AcDbLine
 10
415.572014
 20
192.6
 30
0.0
 11
347.019284
 21
192.6
 31
0.0
  0
ARC
  5
2A4
330
1F
100
AcDbEntity
  8
GR1-1
  6
CONTINUOUS
 62
     3
100
AcDbCircle
 10
347.019284
 20
198.6
 30
0.0
 40
6.0
100
AcDbArc
 50
197.457603
 51
270.0
  0
ARC
  5
2A5
330
1F
100
AcDbEntity
  8
GR1-1
  6
CONTINUOUS
 62
     3
100
AcDbCircle
 10
415.572014
 20
198.6
 30
0.0
 40
6.0
100
AcDbArc
 50
270.0
 51
342.542397
  0
ARC
  5
2A6
330
1F
100
AcDbEntity
  8
LAYERGROUP-1
  6
CONTINUOUS
 62
     3
100
AcDbCircle
 10
381.295649
 20
188.2375
 30
0.0
 40
4.762499999999989
100
AcDbArc
 50
32.195404
 51
66.349641
  0
ARC
  5
2A7
330
1F
100
AcDbEntity
  8
LAYERGROUP-1
  6
CONTINUOUS
 62
     3
100
AcDbCircle
 10
390.642573
 20
188.2375
 30
0.0
 40
4.762499999999989
100
AcDbArc
 50
113.650359
 51
147.804596
  0
ARC
  5
2A8
330
1F
100
AcDbEntity
  8
LAYERGROUP-1
  6
CONTINUOUS
 62
     3
100
AcDbCircle
 10
398.876574
 20
188.2375
 30
0.0
 40
4.762499999999989
100
AcDbArc
 50
32.195404
 51
66.349641
  0
ARC
  5
2A9
330
1F
100
AcDbEntity
  8
LAYERGROUP-1
  6
CONTINUOUS
 62
     3
100
AcDbCircle
 10
405.017246
 20
188.2375
 30
0.0
 40
4.762499999999989
100
AcDbArc
 50
32.195404
 51
66.349641
  0
ARC
  5
2AA
330
1F
100
AcDbEntity
  8
LAYERGROUP-1
  6
CONTINUOUS
 62
     3
100
AcDbCircle
 10
408.333429
 20
188.2375
 30
0.0
 40
4.762499999999989
100
AcDbArc
 50
32.195404
 51
66.349641
  0
ARC
  5
2AB
330
1F
100
AcDbEntity
  8
LAYERGROUP-1
  6
CONTINUOUS
 62
     3
100
AcDbCircle
 10
408.43027
 20
188.2375
 30
0.0
 40
4.762499999999989
100
AcDbArc
 50
32.195404
 51
66.349641
  0
ARC
  5
2AC
330
1F
100
AcDbEntity
  8
LAYERGROUP-1
  6
CONTINUOUS
 62
     3
100
AcDbCircle
 10
390.642573
 20
188.2375
 30
0.0
 40
4.762499999999989
100
AcDbArc
 50
32.195404
 51
66.349641
  0
ARC
  5
2AD
330
1F
100
AcDbEntity
  8
LAYERGROUP-1
  6
CONTINUOUS
 62
     3
100
AcDbCircle
 10
398.876574
 20
188.2375
 30
0.0
 40
4.762499999999989
100
AcDbArc
 50
113.650359
 51
147.804596
  0
ARC
  5
2AE
330
1F
100
AcDbEntity
  8
LAYERGROUP-1
  6
CONTINUOUS
 62
     3
100
AcDbCircle
 10
405.017246
 20
188.2375
 30
0.0
 40
4.762499999999989
100
AcDbArc
 50
113.650359
 51
130.142432
  0
ARC
  5
2AF
330
1F
100
AcDbEntity
  8
LAYERGROUP-1
  6
CONTINUOUS
 62
     3
100
AcDbCircle
 10
381.295649
 20
188.2375
 30
0.0
 40
4.762499999999989
100
AcDbArc
 50
113.650359
 51
147.804596
  0
ARC
  5
2B0
330
1F
100
AcDbEntity
  8
LAYERGROUP-1
  6
CONTINUOUS
 62
     3
100
AcDbCircle
 10
371.948726
 20
188.2375
 30
0.0
 40
4.762499999999989
100
AcDbArc
 50
32.195404
 51
66.349641
  0
ARC
  5
2B1
330
1F
100
AcDbEntity
  8
LAYERGROUP-1
  6
CONTINUOUS
 62
     3
100
AcDbCircle
 10
363.714724
 20
188.2375
 30
0.0
 40
4.762499999999989
100
AcDbArc
 50
113.650359
 51
147.804596
  0
ARC
  5
2B2
330
1F
100
AcDbEntity
  8
LAYERGROUP-1
  6
CONTINUOUS
 62
     3
100
AcDbCircle
 10
357.574052
 20
188.2375
 30
0.0
 40
4.762499999999989
100
AcDbArc
 50
113.650359
 51
147.804596
  0
ARC
  5
2B3
330
1F
100
AcDbEntity
  8
LAYERGROUP-1
  6
CONTINUOUS
 62
     3
100
AcDbCircle
 10
354.25787
 20
188.2375
 30
0.0
 40
4.762499999999989
100
AcDbArc
 50
113.650359
 51
147.804596
  0
ARC
  5
2B4
330
1F
100
AcDbEntity
  8
LAYERGROUP-1
  6
CONTINUOUS
 62
     3
100
AcDbCircle
 10
354.161028
 20
188.2375
 30
0.0
 40
4.762499999999989
100
AcDbArc
 50
113.650359
 51
147.804596
  0
ARC
  5
2B5
330
1F
100
AcDbEntity
  8
LAYERGROUP-1
  6
CONTINUOUS
 62
     3
100
AcDbCircle
 10
371.948726
 20
188.2375
 30
0.0
 40
4.762499999999989
100
AcDbArc
 50
113.650359
 51
147.804596
  0
ARC
  5
2B6
330
1F
100
AcDbEntity
  8
LAYERGROUP-1
  6
CONTINUOUS
 62
     3
100
AcDbCircle
 10
363.714724
 20
188.2375
 30
0.0
 40
4.762499999999989
100
AcDbArc
 50
32.195404
 51
66.349641
  0
ARC
  5
2B7
330
1F
100
AcDbEntity
  8
LAYERGROUP-1
  6
CONTINUOUS
 62
     3
100
AcDbCircle
 10
357.574052
 20
188.2375
 30
0.0
 40
4.762499999999989
100
AcDbArc
 50
49.857568
 51
66.349641
  0
LINE
  5
2B8
330
1F
100
AcDbEntity
  8
GR1-1
  6
CONTINUOUS
 62
     3
100
AcDbLine
 10
182.64085
 20
100.0
 30
0.0
 11
182.14085
 21
100.0
 31
0.0
  0
LINE
  5
2B9
330
1F
100
AcDbEntity
  8
GR1-1
  6
CONTINUOUS
 62
     3
100
AcDbLine
 10
182.14085
 20
112.0
 30
0.0
 11
182.64085
 21
112.0
 31
0.0
  0
LINE
  5
2BA
330
1F
100
AcDbEntity
  8
GR1-1
  6
CENTER
 62
     6
100
AcDbLine
 10
352.649003
 20
355.0
 30
0.0
 11
339.247216
 21
355.0
 31
0.0
  0
LINE
  5
2BB
330
1F
100
AcDbEntity
  8
GR1-1
  6
CENTER
 62
     6
100
AcDbLine
 10
344.795649
 20
348.744148
 30
0.0
 11
344.795649
 21
362.54923
 31
0.0
  0
LINE
  5
2BC
330
1F
100
AcDbEntity
  8
GR1-1
  6
CENTER
 62
     6
100
AcDbLine
 10
346.295649
 20
362.54923
 30
0.0
 11
346.295649
 21
348.744148
 31
0.0
  0
LINE
  5
2BD
330
1F
100
AcDbEntity
  8
GR1-1
  6
CENTER
 62
     6
100
AcDbLine
 10
338.347559
 20
356.5
 30
0.0
 11
352.649003
 21
356.5
 31
0.0
  0
LINE
  5
2BE
330
1F
100
AcDbEntity
  8
GR1-1
  6
CENTER
 62
     6
100
AcDbLine
 10
409.942295
 20
285.0
 30
0.0
 11
423.344082
 21
285.0
 31
0.0
  0
LINE
  5
2BF
330
1F
100
AcDbEntity
  8
GR1-1
  6
CENTER
 62
     6
100
AcDbLine
 10
417.795649
 20
291.255852
 30
0.0
 11
417.795649
 21
277.45077
 31
0.0
  0
LINE
  5
2C0
330
1F
100
AcDbEntity
  8
GR1-1
  6
CENTER
 62
     6
100
AcDbLine
 10
416.295649
 20
277.45077
 30
0.0
 11
416.295649
 21
291.255852
 31
0.0
  0
LINE
  5
2C1
330
1F
100
AcDbEntity
  8
GR1-1
  6
CENTER
 62
     6
100
AcDbLine
 10
424.243739
 20
283.5
 30
0.0
 11
409.942295
 21
283.5
 31
0.0
  0
LINE
  5
2C2
330
1F
100
AcDbEntity
  8
GR1-1
  6
CENTER
 62
     6
100
AcDbLine
 10
352.649003
 20
285.0
 30
0.0
 11
339.247216
 21
285.0
 31
0.0
  0
LINE
  5
2C3
330
1F
100
AcDbEntity
  8
GR1-1
  6
CENTER
 62
     6
100
AcDbLine
 10
344.795649
 20
291.255852
 30
0.0
 11
344.795649
 21
277.45077
 31
0.0
  0
LINE
  5
2C4
330
1F
100
AcDbEntity
  8
GR1-1
  6
CENTER
 62
     6
100
AcDbLine
 10
346.295649
 20
277.45077
 30
0.0
 11
346.295649
 21
291.255852
 31
0.0
  0
LINE
  5
2C5
330
1F
100
AcDbEntity
  8
GR1-1
  6
CENTER
 62
     6
100
AcDbLine
 10
338.347559
 20
283.5
 30
0.0
 11
352.649003
 21
283.5
 31
0.0
  0
LINE
  5
2C6
330
1F
100
AcDbEntity
  8
}}ﾊﾊGG血CCТ
  6
CENTER
 62
     6
100
AcDbLine
 10
417.795649
 20
204.108705
 30
0.0
 11
417.795649
 21
191.430695
 31
0.0
  0
LINE
  5
2C7
330
1F
100
AcDbEntity
  8
}}ﾊﾊGG血CCТ
  6
CENTER
 62
     6
100
AcDbLine
 10
416.295649
 20
204.108705
 30
0.0
 11
416.295649
 21
191.430695
 31
0.0
  0
LINE
  5
2C8
330
1F
100
AcDbEntity
  8
}}ﾊﾊGG血CCТ
  6
CENTER
 62
     6
100
AcDbLine
 10
344.795649
 20
204.108705
 30
0.0
 11
344.795649
 21
191.430695
 31
0.0
  0
LINE
  5
2C9
330
1F
100
AcDbEntity
  8
}}ﾊﾊGG血CCТ
  6
CENTER
 62
     6
100
AcDbLine
 10
346.295649
 20
204.108705
 30
0.0
 11
346.295649
 21
191.430695
 31
0.0
  0
LINE
  5
2CA
330
1F
100
AcDbEntity
  8
}}ﾊﾊGG血CCТ
  6
CENTER
 62
     6
100
AcDbLine
 10
197.64085
 20
204.108705
 30
0.0
 11
197.64085
 21
191.430695
 31
0.0
  0
LINE
  5
2CB
330
1F
100
AcDbEntity
  8
}}ﾊﾊGG血CCТ
  6
CENTER
 62
     6
100
AcDbLine
 10
196.14085
 20
204.108705
 30
0.0
 11
196.14085
 21
191.430695
 31
0.0
  0
LINE
  5
2CC
330
1F
100
AcDbEntity
  8
}}ﾊﾊGG血CCТ
  6
CENTER
 62
     6
100
AcDbLine
 10
124.64085
 20
204.108705
 30
0.0
 11
124.64085
 21
191.430695
 31
0.0
  0
LINE
  5
2CD
330
1F
100
AcDbEntity
  8
}}ﾊﾊGG血CCТ
  6
CENTER
 62
     6
100
AcDbLine
 10
126.14085
 20
204.108705
 30
0.0
 11
126.14085
 21
191.430695
 31
0.0
  0
LINE
  5
2CE
330
1F
100
AcDbEntity
  8
GR1-1
  6
CONTINUOUS
 62
     3
100
AcDbLine
 10
333.795649
 20
295.3
 30
0.0
 11
327.695649
 21
295.3
 31
0.0
  0
LINE
  5
2CF
330
1F
100
AcDbEntity
  8
GR1-1
  6
CONTINUOUS
 62
     3
100
AcDbLine
 10
327.695649
 20
295.3
 30
0.0
 11
327.695649
 21
298.5
 31
0.0
  0
LINE
  5
2D0
330
1F
100
AcDbEntity
  8
GR1-1
  6
CONTINUOUS
 62
     3
100
AcDbLine
 10
327.695649
 20
298.5
 30
0.0
 11
333.130888
 21
298.5
 31
0.0
  0
LINE
  5
2D1
330
1F
100
AcDbEntity
  8
GR1-1
  6
CONTINUOUS
 62
     3
100
AcDbLine
 10
143.14085
 20
126.220153
 30
0.0
 11
143.14085
 21
124.2
 31
0.0
  0
LINE
  5
2D2
330
1F
100
AcDbEntity
  8
GR1-1
  6
CONTINUOUS
 62
     3
100
AcDbLine
 10
178.64085
 20
139.133333
 30
0.0
 11
178.64085
 21
140.3
 31
0.0
  0
LINE
  5
2D3
330
1F
100
AcDbEntity
  8
GR1-1
  6
CONTINUOUS
 62
     3
100
AcDbLine
 10
143.14085
 20
85.779847
 30
0.0
 11
143.14085
 21
87.8
 31
0.0
  0
LINE
  5
2D4
330
1F
100
AcDbEntity
  8
GR1-1
  6
CONTINUOUS
 62
     3
100
AcDbLine
 10
178.64085
 20
138.454915
 30
0.0
 11
178.64085
 21
140.2
 31
0.0
  0
LINE
  5
2D5
330
1F
100
AcDbEntity
  8
GR1-1
  6
CONTINUOUS
 62
     3
100
AcDbLine
 10
143.64085
 20
139.133333
 30
0.0
 11
143.64085
 21
140.3
 31
0.0
  0
LINE
  5
2D6
330
1F
100
AcDbEntity
  8
GR1-1
  6
CONTINUOUS
 62
     3
100
AcDbLine
 10
143.64085
 20
138.454915
 30
0.0
 11
143.64085
 21
140.2
 31
0.0
  0
ARC
  5
2D7
330
1F
100
AcDbEntity
  8
GR1-1
  6
CONTINUOUS
 62
     3
100
AcDbCircle
 10
145.64085
 20
126.220153
 30
0.0
 40
2.5
100
AcDbArc
 50
145.350558
 51
180.0
  0
ARC
  5
2D8
330
1F
100
AcDbEntity
  8
GR1-1
  6
CONTINUOUS
 62
     3
100
AcDbCircle
 10
145.64085
 20
85.779847
 30
0.0
 40
2.5
100
AcDbArc
 50
180.0
 51
214.649442
  0
LINE
  5
2D9
330
1F
100
AcDbEntity
  8
GR1-1
  6
CONTINUOUS
 62
     3
100
AcDbLine
 10
140.14085
 20
114.8
 30
0.0
 11
140.34085
 21
115.0
 31
0.0
  0
LINE
  5
2DA
330
1F
100
AcDbEntity
  8
GR1-1
  6
CONTINUOUS
 62
     3
100
AcDbLine
 10
143.14085
 20
115.0
 30
0.0
 11
140.34085
 21
115.0
 31
0.0
  0
LINE
  5
2DB
330
1F
100
AcDbEntity
  8
GR1-1
  6
CONTINUOUS
 62
     3
100
AcDbLine
 10
140.14085
 20
97.2
 30
0.0
 11
140.34085
 21
97.0
 31
0.0
  0
LINE
  5
2DC
330
1F
100
AcDbEntity
  8
GR1-1
  6
CONTINUOUS
 62
     3
100
AcDbLine
 10
143.14085
 20
97.0
 30
0.0
 11
140.34085
 21
97.0
 31
0.0
  0
LINE
  5
2DD
330
1F
100
AcDbEntity
  8
GR1-1
  6
CONTINUOUS
 62
     3
100
AcDbLine
 10
140.14085
 20
114.8
 30
0.0
 11
140.14085
 21
97.2
 31
0.0
  0
ARC
  5
2DE
330
1F
100
AcDbEntity
  8
GR1-1
  6
CONTINUOUS
 62
     3
100
AcDbCircle
 10
161.14085
 20
121.0
 30
0.0
 40
35.0
100
AcDbArc
 50
90.0
 51
106.673833
  0
LINE
  5
2DF
330
1F
100
AcDbEntity
  8
GR1-1
  6
CONTINUOUS
 62
     3
100
AcDbLine
 10
143.64085
 20
142.5
 30
0.0
 11
143.64085
 21
140.3
 31
0.0
  0
LINE
  5
2E0
330
1F
100
AcDbEntity
  8
GR1-1
  6
CONTINUOUS
 62
     3
100
AcDbLine
 10
178.64085
 20
142.5
 30
0.0
 11
178.64085
 21
140.3
 31
0.0
  0
LINE
  5
2E1
330
1F
100
AcDbEntity
  8
GR1-1
  6
CONTINUOUS
 62
     3
100
AcDbLine
 10
148.00162
 20
151.8517
 30
0.0
 11
143.64085
 21
142.5
 31
0.0
  0
ARC
  5
2E2
330
1F
100
AcDbEntity
  8
GR1-1
  6
CONTINUOUS
 62
     3
100
AcDbCircle
 10
152.533159
 20
149.738609
 30
0.0
 40
5.0
100
AcDbArc
 50
106.673833
 51
155.0
  0
ARC
  5
2E3
330
1F
100
AcDbEntity
  8
GR1-1
  6
CONTINUOUS
 62
     3
100
AcDbCircle
 10
161.14085
 20
121.0
 30
0.0
 40
35.0
100
AcDbArc
 50
73.326167
 51
90.0
  0
LINE
  5
2E4
330
1F
100
AcDbEntity
  8
GR1-1
  6
CONTINUOUS
 62
     3
100
AcDbLine
 10
174.280081
 20
151.8517
 30
0.0
 11
178.64085
 21
142.5
 31
0.0
  0
ARC
  5
2E5
330
1F
100
AcDbEntity
  8
GR1-1
  6
CONTINUOUS
 62
     3
100
AcDbCircle
 10
169.748542
 20
149.738609
 30
0.0
 40
5.0
100
AcDbArc
 50
25.0
 51
73.326167
  0
ARC
  5
2E6
330
1F
100
AcDbEntity
  8
GR1-1
  6
CONTINUOUS
 62
     3
100
AcDbCircle
 10
161.14085
 20
91.0
 30
0.0
 40
35.0
100
AcDbArc
 50
253.326167
 51
270.0
  0
LINE
  5
2E7
330
1F
100
AcDbEntity
  8
GR1-1
  6
CONTINUOUS
 62
     3
100
AcDbLine
 10
143.64085
 20
69.5
 30
0.0
 11
143.64085
 21
73.545085
 31
0.0
  0
LINE
  5
2E8
330
1F
100
AcDbEntity
  8
GR1-1
  6
CONTINUOUS
 62
     3
100
AcDbLine
 10
148.00162
 20
60.1483
 30
0.0
 11
143.64085
 21
69.5
 31
0.0
  0
ARC
  5
2E9
330
1F
100
AcDbEntity
  8
GR1-1
  6
CONTINUOUS
 62
     3
100
AcDbCircle
 10
152.533159
 20
62.261391
 30
0.0
 40
5.0
100
AcDbArc
 50
205.0
 51
253.326167
  0
ARC
  5
2EA
330
1F
100
AcDbEntity
  8
GR1-1
  6
CONTINUOUS
 62
     3
100
AcDbCircle
 10
161.14085
 20
91.0
 30
0.0
 40
35.0
100
AcDbArc
 50
270.0
 51
286.673833
  0
LINE
  5
2EB
330
1F
100
AcDbEntity
  8
GR1-1
  6
CONTINUOUS
 62
     3
100
AcDbLine
 10
174.280081
 20
60.1483
 30
0.0
 11
178.64085
 21
69.5
 31
0.0
  0
ARC
  5
2EC
330
1F
100
AcDbEntity
  8
GR1-1
  6
CONTINUOUS
 62
     3
100
AcDbCircle
 10
169.748542
 20
62.261391
 30
0.0
 40
5.0
100
AcDbArc
 50
286.673833
 51
335.0
  0
LINE
  5
2ED
330
1F
100
AcDbEntity
  8
GR1-1
  6
CONTINUOUS
 62
     3
100
AcDbLine
 10
143.64085
 20
73.545085
 30
0.0
 11
143.64085
 21
138.454915
 31
0.0
  0
LINE
  5
2EE
330
1F
100
AcDbEntity
  8
GR1-1
  6
CONTINUOUS
 62
     3
100
AcDbLine
 10
178.64085
 20
69.5
 30
0.0
 11
178.64085
 21
138.454915
 31
0.0
  0
LINE
  5
2EF
330
1F
100
AcDbEntity
  8
GR1-1
  6
CONTINUOUS
 62
     3
100
AcDbLine
 10
143.14085
 20
87.8
 30
0.0
 11
143.14085
 21
124.2
 31
0.0
  0
LINE
  5
2F0
330
1F
100
AcDbEntity
  8
GR1-1
  6
CONTINUOUS
 62
     6
100
AcDbLine
 10
149.936004
 20
154.011171
 30
0.0
 11
149.936004
 21
57.988829
 31
0.0
  0
LINE
  5
2F1
330
1F
100
AcDbEntity
  8
GR1-1
  6
CONTINUOUS
 62
     6
100
AcDbLine
 10
172.345697
 20
154.011171
 30
0.0
 11
172.345697
 21
57.988829
 31
0.0
  0
LINE
  5
2F2
330
1F
100
AcDbEntity
  8
GR1-1
  6
CONTINUOUS
 62
     3
100
AcDbLine
 10
179.14085
 20
126.220153
 30
0.0
 11
179.14085
 21
124.2
 31
0.0
  0
LINE
  5
2F3
330
1F
100
AcDbEntity
  8
GR1-1
  6
CONTINUOUS
 62
     3
100
AcDbLine
 10
179.14085
 20
85.779847
 30
0.0
 11
179.14085
 21
87.8
 31
0.0
  0
ARC
  5
2F4
330
1F
100
AcDbEntity
  8
GR1-1
  6
CONTINUOUS
 62
     3
100
AcDbCircle
 10
176.64085
 20
126.220153
 30
0.0
 40
2.5
100
AcDbArc
 50
0.0
 51
34.649442
  0
ARC
  5
2F5
330
1F
100
AcDbEntity
  8
GR1-1
  6
CONTINUOUS
 62
     3
100
AcDbCircle
 10
176.64085
 20
85.779847
 30
0.0
 40
2.5
100
AcDbArc
 50
-34.649442
 51
0.0
  0
LINE
  5
2F6
330
1F
100
AcDbEntity
  8
GR1-1
  6
CONTINUOUS
 62
     3
100
AcDbLine
 10
182.14085
 20
114.8
 30
0.0
 11
181.94085
 21
115.0
 31
0.0
  0
LINE
  5
2F7
330
1F
100
AcDbEntity
  8
GR1-1
  6
CONTINUOUS
 62
     3
100
AcDbLine
 10
179.14085
 20
115.0
 30
0.0
 11
181.94085
 21
115.0
 31
0.0
  0
LINE
  5
2F8
330
1F
100
AcDbEntity
  8
GR1-1
  6
CONTINUOUS
 62
     3
100
AcDbLine
 10
182.14085
 20
97.2
 30
0.0
 11
181.94085
 21
97.0
 31
0.0
  0
LINE
  5
2F9
330
1F
100
AcDbEntity
  8
GR1-1
  6
CONTINUOUS
 62
     3
100
AcDbLine
 10
179.14085
 20
97.0
 30
0.0
 11
181.94085
 21
97.0
 31
0.0
  0
LINE
  5
2FA
330
1F
100
AcDbEntity
  8
GR1-1
  6
CONTINUOUS
 62
     3
100
AcDbLine
 10
182.14085
 20
114.8
 30
0.0
 11
182.14085
 21
97.2
 31
0.0
  0
LINE
  5
2FB
330
1F
100
AcDbEntity
  8
GR1-1
  6
CONTINUOUS
 62
     3
100
AcDbLine
 10
179.14085
 20
87.8
 30
0.0
 11
179.14085
 21
124.2
 31
0.0
  0
ARC
  5
2FC
330
1F
100
AcDbEntity
  8
GR1-1
  6
CONTINUOUS
 62
     6
100
AcDbCircle
 10
346.295649
 20
106.0
 30
0.0
 40
36.5
100
AcDbArc
 50
110.608109
 51
129.064298
  0
ARC
  5
2FD
330
1F
100
AcDbEntity
  8
GR1-1
  6
CONTINUOUS
 62
     6
100
AcDbCircle
 10
346.295649
 20
106.0
 30
0.0
 40
21.0
100
AcDbArc
 50
212.17034
 51
283.167408
  0
ARC
  5
2FE
330
1F
100
AcDbEntity
  8
GR1-1
  6
CONTINUOUS
 62
     6
100
AcDbCircle
 10
346.295649
 20
106.0
 30
0.0
 40
27.0
100
AcDbArc
 50
187.478491
 51
295.88826
  0
ARC
  5
2FF
330
1F
100
AcDbEntity
  8
GR1-1
  6
CONTINUOUS
 62
     6
100
AcDbCircle
 10
346.295649
 20
106.0
 30
0.0
 40
31.5
100
AcDbArc
 50
116.155787
 51
123.450341
  0
TEXT
  5
300
330
1F
100
AcDbEntity
  8
GR1-1
  6
CONTINUOUS
 62
     7
100
AcDbText
 10
325.580872
 20
99.764748
 30
0.0
 40
4.404505
  1
-
 50
103.537201
 41
0.871541
  7
FX_VECTOR
 72
     5
 11
324.639532
 21
103.674525
 31
0.0
100
AcDbText
  0
TEXT
  5
301
330
1F
100
AcDbEntity
  8
GR1-1
  6
CONTINUOUS
 62
     7
100
AcDbText
 10
326.648865
 20
96.578697
 30
0.0
 40
4.404505
  1
W
 50
111.537201
 41
0.871541
  7
FX_VECTOR
 72
     5
 11
325.17255
 21
100.319416
 31
0.0
100
AcDbText
  0
ARC
  5
302
330
1F
100
AcDbEntity
  8
GR1-1
  6
CONTINUOUS
 62
     3
100
AcDbCircle
 10
346.295649
 20
106.0
 30
0.0
 40
50.0
100
AcDbArc
 50
101.81983
 51
137.943463
  0
INSERT
  5
306
330
1F
100
AcDbEntity
  8
0
100
AcDbBlockReference
  2
BLKF035
 10
0.0
 20
0.0
 30
0.0
  0
TEXT
  5
35E
330
1F
100
AcDbEntity
  8
GR1-1
  6
CONTINUOUS
 62
     7
100
AcDbText
 10
318.38446
 20
76.239525
 30
0.0
 40
6.114097
  1
G
 50
131.312256
 41
1.306272
  7
FX_VECTOR
 72
     5
 11
313.865173
 21
81.381503
 31
0.0
100
AcDbText
  0
TEXT
  5
35F
330
1F
100
AcDbEntity
  8
GR1-1
  6
CONTINUOUS
 62
     7
100
AcDbText
 10
314.514221
 20
80.413628
 30
0.0
 40
6.114097
  1
O
 50
123.312263
 41
1.237521
  7
FX_VECTOR
 72
     5
 11
310.754539
 21
86.134527
 31
0.0
100
AcDbText
  0
TEXT
  5
360
330
1F
100
AcDbEntity
  8
GR1-1
  6
CONTINUOUS
 62
     7
100
AcDbText
 10
311.262573
 20
85.085754
 30
0.0
 40
6.114097
  1
L
 50
115.312263
 41
1.469556
  7
FX_VECTOR
 72
     5
 11
308.335676
 21
91.274225
 31
0.0
100
AcDbText
  0
TEXT
  5
361
330
1F
100
AcDbEntity
  8
GR1-1
  6
CONTINUOUS
 62
     7
100
AcDbText
 10
308.69281
 20
90.164978
 30
0.0
 40
6.114097
  1
D
 50
107.312263
 41
1.306272
  7
FX_VECTOR
 72
     5
 11
306.655666
 21
96.700568
 31
0.0
100
AcDbText
  0
TEXT
  5
362
330
1F
100
AcDbEntity
  8
GR1-1
  6
CONTINUOUS
 62
     7
100
AcDbText
 10
305.78479
 20
101.143143
 30
0.0
 40
6.114097
  1
C
 50
91.312263
 41
1.306272
  7
FX_VECTOR
 72
     5
 11
305.628014
 21
107.987069
 31
0.0
100
AcDbText
  0
TEXT
  5
363
330
1F
100
AcDbEntity
  8
GR1-1
  6
CONTINUOUS
 62
     7
100
AcDbText
 10
305.503052
 20
106.828445
 30
0.0
 40
6.114097
  1
A
 50
83.312263
 41
1.383112
  7
FX_VECTOR
 72
     5
 11
306.300292
 21
113.627586
 31
0.0
100
AcDbText
  0
TEXT
  5
364
330
1F
100
AcDbEntity
  8
GR1-1
  6
CONTINUOUS
 62
     7
100
AcDbText
 10
306.015381
 20
112.497597
 30
0.0
 40
6.114097
  1
S
 50
75.312263
 41
1.383112
  7
FX_VECTOR
 72
     5
 11
307.75112
 21
119.119614
 31
0.0
100
AcDbText
  0
LINE
  5
365
330
1F
100
AcDbEntity
  8
GR1-1
  6
CONTINUOUS
 62
     7
100
AcDbLine
 10
324.261638
 20
65.566562
 30
0.0
 11
320.024039
 21
68.182504
 31
0.0
  0
LINE
  5
366
330
1F
100
AcDbEntity
  8
GR1-1
  6
CONTINUOUS
 62
     7
100
AcDbLine
 10
320.024039
 20
68.182504
 30
0.0
 11
322.639981
 21
72.420104
 31
0.0
  0
LINE
  5
367
330
1F
100
AcDbEntity
  8
GR1-1
  6
CONTINUOUS
 62
     7
100
AcDbLine
 10
322.639981
 20
72.420104
 30
0.0
 11
326.87758
 21
69.804162
 31
0.0
  0
LINE
  5
368
330
1F
100
AcDbEntity
  8
GR1-1
  6
CONTINUOUS
 62
     7
100
AcDbLine
 10
326.87758
 20
69.804162
 30
0.0
 11
324.261638
 21
65.566562
 31
0.0
  0
LINE
  5
369
330
1F
100
AcDbEntity
  8
GR1-1
  6
CONTINUOUS
 62
     7
100
AcDbLine
 10
325.448433
 20
67.760166
 30
0.0
 11
322.217643
 21
66.995709
 31
0.0
  0
LINE
  5
36A
330
1F
100
AcDbEntity
  8
GR1-1
  6
CONTINUOUS
 62
     7
100
AcDbLine
 10
322.217643
 20
66.995709
 30
0.0
 11
321.534269
 21
69.883823
 31
0.0
  0
LINE
  5
36B
330
1F
100
AcDbEntity
  8
GR1-1
  6
CONTINUOUS
 62
     7
100
AcDbLine
 10
321.534269
 20
69.883823
 30
0.0
 11
322.533081
 21
69.267239
 31
0.0
  0
LINE
  5
36C
330
1F
100
AcDbEntity
  8
GR1-1
  6
CONTINUOUS
 62
     7
100
AcDbLine
 10
322.533081
 20
69.267239
 30
0.0
 11
322.834226
 21
67.994521
 31
0.0
  0
LINE
  5
36D
330
1F
100
AcDbEntity
  8
GR1-1
  6
CONTINUOUS
 62
     7
100
AcDbLine
 10
322.834226
 20
67.994521
 30
0.0
 11
324.449621
 21
68.37675
 31
0.0
  0
LINE
  5
36E
330
1F
100
AcDbEntity
  8
GR1-1
  6
CONTINUOUS
 62
     7
100
AcDbLine
 10
324.449621
 20
68.37675
 30
0.0
 11
324.067393
 21
69.992145
 31
0.0
  0
LINE
  5
36F
330
1F
100
AcDbEntity
  8
GR1-1
  6
CONTINUOUS
 62
     7
100
AcDbLine
 10
324.067393
 20
69.992145
 30
0.0
 11
323.218122
 21
69.791194
 31
0.0
  0
ARC
  5
370
330
1F
100
AcDbEntity
  8
GR1-1
  6
CONTINUOUS
 62
     7
100
AcDbCircle
 10
323.237233
 20
69.710424
 30
0.0
 40
0.083
100
AcDbArc
 50
103.312267
 51
238.312267
  0
LINE
  5
371
330
1F
100
AcDbEntity
  8
GR1-1
  6
CONTINUOUS
 62
     7
100
AcDbLine
 10
323.193634
 20
69.639797
 30
0.0
 11
323.668805
 21
69.346466
 31
0.0
  0
LINE
  5
372
330
1F
100
AcDbEntity
  8
GR1-1
  6
CONTINUOUS
 62
     7
100
AcDbLine
 10
323.668805
 20
69.346466
 30
0.0
 11
323.450809
 21
68.993333
 31
0.0
  0
LINE
  5
373
330
1F
100
AcDbEntity
  8
GR1-1
  6
CONTINUOUS
 62
     7
100
AcDbLine
 10
323.450809
 20
68.993333
 30
0.0
 11
321.453186
 21
70.2265
 31
0.0
  0
LINE
  5
374
330
1F
100
AcDbEntity
  8
GR1-1
  6
CONTINUOUS
 62
     7
100
AcDbLine
 10
321.453186
 20
70.2265
 30
0.0
 11
322.33577
 21
71.65621
 31
0.0
  0
LINE
  5
375
330
1F
100
AcDbEntity
  8
GR1-1
  6
CONTINUOUS
 62
     7
100
AcDbLine
 10
322.33577
 20
71.65621
 30
0.0
 11
323.042037
 21
71.220219
 31
0.0
  0
LINE
  5
376
330
1F
100
AcDbEntity
  8
GR1-1
  6
CONTINUOUS
 62
     7
100
AcDbLine
 10
323.042037
 20
71.220219
 30
0.0
 11
322.7007
 21
70.667284
 31
0.0
  0
ARC
  5
377
330
1F
100
AcDbEntity
  8
GR1-1
  6
CONTINUOUS
 62
     7
100
AcDbCircle
 10
322.771327
 20
70.623685
 30
0.0
 40
0.083
100
AcDbArc
 50
148.312267
 51
283.312267
  0
LINE
  5
378
330
1F
100
AcDbEntity
  8
GR1-1
  6
CONTINUOUS
 62
     7
100
AcDbLine
 10
322.790438
 20
70.542915
 30
0.0
 11
324.683976
 21
70.990957
 31
0.0
  0
LINE
  5
379
330
1F
100
AcDbEntity
  8
GR1-1
  6
CONTINUOUS
 62
     7
100
AcDbLine
 10
324.683976
 20
70.990957
 30
0.0
 11
325.448433
 21
67.760166
 31
0.0
  0
TEXT
  5
37A
330
1F
100
AcDbEntity
  8
GR1-1
  6
CONTINUOUS
 62
     7
100
AcDbText
 10
378.613892
 20
130.829636
 30
0.0
 40
6.142174
  1
1
 50
302.812286
 41
2.084646
  7
FX_VECTOR
 72
     5
 11
382.248333
 21
125.192741
 31
0.0
100
AcDbText
  0
TEXT
  5
37B
330
1F
100
AcDbEntity
  8
GR1-1
  6
CONTINUOUS
 62
     7
100
AcDbText
 10
382.100189
 20
125.468262
 30
0.0
 40
6.142174
  1
0
 50
293.812286
 41
1.348889
  7
FX_VECTOR
 72
     5
 11
384.80808
 21
119.332215
 31
0.0
100
AcDbText
  0
TEXT
  5
37C
330
1F
100
AcDbEntity
  8
GR1-1
  6
CONTINUOUS
 62
     7
100
AcDbText
 10
384.704895
 20
119.62751
 30
0.0
 40
6.142174
  1
0
 50
284.812286
 41
1.348889
  7
FX_VECTOR
 72
     5
 11
386.419558
 21
113.1434
 31
0.0
100
AcDbText
  0
TEXT
  5
37D
330
1F
100
AcDbEntity
  8
GR1-1
  6
CONTINUOUS
 62
     7
100
AcDbText
 10
386.36377
 20
113.451202
 30
0.0
 40
6.142174
  1
X
 50
275.812286
 41
1.348889
  7
FX_VECTOR
 72
     5
 11
387.042984
 21
106.77869
 31
0.0
100
AcDbText
  0
TEXT
  5
37E
330
1F
100
AcDbEntity
  8
GR1-1
  6
CONTINUOUS
 62
     7
100
AcDbText
 10
387.036163
 20
107.091431
 30
0.0
 40
6.142174
  1
3
 50
266.812286
 41
1.348889
  7
FX_VECTOR
 72
     5
 11
386.663205
 21
100.394816
 31
0.0
100
AcDbText
  0
ARC
  5
37F
330
1F
100
AcDbEntity
  8
GR1-1
  6
CONTINUOUS
 62
     3
100
AcDbCircle
 10
346.295649
 20
106.0
 30
0.0
 40
34.5
100
AcDbArc
 50
112.593822
 51
127.055836
  0
ARC
  5
380
330
1F
100
AcDbEntity
  8
GR1-1
  6
CONTINUOUS
 62
     6
100
AcDbCircle
 10
346.295649
 20
106.0
 30
0.0
 40
36.5
100
AcDbArc
 50
1.763338
 51
29.847827
  0
ARC
  5
381
330
1F
100
AcDbEntity
  8
GR1-1
  6
CONTINUOUS
 62
     3
100
AcDbCircle
 10
346.295649
 20
106.0
 30
0.0
 40
34.5
100
AcDbArc
 50
5.253037
 51
28.016664
  0
ARC
  5
382
330
1F
100
AcDbEntity
  8
GR1-1
  6
CONTINUOUS
 62
     6
100
AcDbCircle
 10
346.295649
 20
106.0
 30
0.0
 40
31.5
100
AcDbArc
 50
11.998637
 51
24.74789
  0
ARC
  5
383
330
1F
100
AcDbEntity
  8
GR1-1
  6
CONTINUOUS
 62
     6
100
AcDbCircle
 10
346.295649
 20
106.0
 30
0.0
 40
31.5
100
AcDbArc
 50
179.430379
 51
304.320659
  0
ARC
  5
384
330
1F
100
AcDbEntity
  8
GR1-1
  6
CONTINUOUS
 62
     3
100
AcDbCircle
 10
346.295649
 20
106.0
 30
0.0
 40
34.5
100
AcDbArc
 50
173.687604
 51
309.183233
  0
ARC
  5
385
330
1F
100
AcDbEntity
  8
GR1-1
  6
CONTINUOUS
 62
     6
100
AcDbCircle
 10
346.295649
 20
106.0
 30
0.0
 40
36.5
100
AcDbArc
 50
170.042939
 51
312.195707
  0
ARC
  5
386
330
1F
100
AcDbEntity
  8
GR1-1
  6
CONTINUOUS
 62
     3
100
AcDbCircle
 10
346.295649
 20
106.0
 30
0.0
 40
50.0
100
AcDbArc
 50
-213.400812
 51
38.010939
  0
LINE
  5
387
330
1F
100
AcDbEntity
  8
GR1-1
  6
CONTINUOUS
 62
     3
100
AcDbLine
 10
326.075496
 20
338.0
 30
0.0
 11
332.795649
 21
338.0
 31
0.0
  0
ARC
  5
388
330
1F
100
AcDbEntity
  8
GR1-1
  6
CONTINUOUS
 62
     3
100
AcDbCircle
 10
326.075496
 20
335.5
 30
0.0
 40
2.5
100
AcDbArc
 50
90.0
 51
124.649442
  0
ARC
  5
389
330
1F
100
AcDbEntity
  8
GR1-1
  6
CONTINUOUS
 62
     3
100
AcDbCircle
 10
331.295649
 20
320.0
 30
0.0
 40
35.0
100
AcDbArc
 50
163.326167
 51
180.0
  0
LINE
  5
38A
330
1F
100
AcDbEntity
  8
GR1-1
  6
CONTINUOUS
 62
     3
100
AcDbLine
 10
309.795649
 20
337.5
 30
0.0
 11
313.840734
 21
337.5
 31
0.0
  0
LINE
  5
38B
330
1F
100
AcDbEntity
  8
GR1-1
  6
CONTINUOUS
 62
     3
100
AcDbLine
 10
300.443949
 20
333.139231
 30
0.0
 11
309.795649
 21
337.5
 31
0.0
  0
ARC
  5
38C
330
1F
100
AcDbEntity
  8
GR1-1
  6
CONTINUOUS
 62
     3
100
AcDbCircle
 10
302.55704
 20
328.607692
 30
0.0
 40
5.0
100
AcDbArc
 50
115.0
 51
163.326167
  0
ARC
  5
38D
330
1F
100
AcDbEntity
  8
GR1-1
  6
CONTINUOUS
 62
     3
100
AcDbCircle
 10
331.295649
 20
320.0
 30
0.0
 40
35.0
100
AcDbArc
 50
180.0
 51
196.673833
  0
LINE
  5
38E
330
1F
100
AcDbEntity
  8
GR1-1
  6
CONTINUOUS
 62
     3
100
AcDbLine
 10
300.443949
 20
306.860769
 30
0.0
 11
309.795649
 21
302.5
 31
0.0
  0
ARC
  5
38F
330
1F
100
AcDbEntity
  8
GR1-1
  6
CONTINUOUS
 62
     3
100
AcDbCircle
 10
302.55704
 20
311.392308
 30
0.0
 40
5.0
100
AcDbArc
 50
196.673833
 51
245.0
  0
LINE
  5
390
330
1F
100
AcDbEntity
  8
GR1-1
  6
CONTINUOUS
 62
     3
100
AcDbLine
 10
313.840734
 20
337.5
 30
0.0
 11
332.795649
 21
337.5
 31
0.0
  0
LINE
  5
391
330
1F
100
AcDbEntity
  8
GR1-1
  6
CONTINUOUS
 62
     3
100
AcDbLine
 10
309.795649
 20
302.5
 30
0.0
 11
332.795649
 21
302.5
 31
0.0
  0
LINE
  5
392
330
1F
100
AcDbEntity
  8
GR1-1
  6
CONTINUOUS
 62
     6
100
AcDbLine
 10
332.795649
 20
331.204847
 30
0.0
 11
298.284478
 21
331.204847
 31
0.0
  0
LINE
  5
393
330
1F
100
AcDbEntity
  8
GR1-1
  6
CONTINUOUS
 62
     6
100
AcDbLine
 10
332.795649
 20
308.795153
 30
0.0
 11
298.284478
 21
308.795153
 31
0.0
  0
LINE
  5
394
330
1F
100
AcDbEntity
  8
GR1-1
  6
CONTINUOUS
 62
     3
100
AcDbLine
 10
326.075496
 20
302.0
 30
0.0
 11
332.795649
 21
302.0
 31
0.0
  0
ARC
  5
395
330
1F
100
AcDbEntity
  8
GR1-1
  6
CONTINUOUS
 62
     3
100
AcDbCircle
 10
326.075496
 20
304.5
 30
0.0
 40
2.5
100
AcDbArc
 50
235.350558
 51
270.0
  0
TEXT
  5
396
330
1F
100
AcDbEntity
  8
}}ﾊﾊGG血CCТ
  6
CONTINUOUS
 62
     7
100
AcDbText
 10
429.65799
 20
12.0
 30
0.0
 40
6.0
  1
W30A1ALA-C02
 41
0.702929
  7
FX_VECTOR
 72
     5
 11
477.65799
 21
12.0
 31
0.0
100
AcDbText
  0
INSERT
  5
39A
330
1F
100
AcDbEntity
  8
0
100
AcDbBlockReference
  2
BLKF036
 10
0.0
 20
0.0
 30
0.0
  0
ENDSEC
  0
SECTION
  2
OBJECTS
  0
DICTIONARY
  5
C
330
0
100
AcDbDictionary
  3
ACAD_GROUP
350
D
  3
ACAD_LAYOUT
350
1A
  3
ACAD_MLINESTYLE
350
17
  3
ACAD_PLOTSETTINGS
350
19
  3
ACDBHEADERROUNDTRIPXREC
350
3C5
  0
DICTIONARY
  5
D
102
{ACAD_REACTORS
330
C
102
}
330
C
100
AcDbDictionary
  0
DICTIONARY
  5
1A
102
{ACAD_REACTORS
330
C
102
}
330
C
100
AcDbDictionary
  0
DICTIONARY
  5
17
102
{ACAD_REACTORS
330
C
102
}
330
C
100
AcDbDictionary
  3
STANDARD
350
18
  0
DICTIONARY
  5
19
102
{ACAD_REACTORS
330
C
102
}
330
C
100
AcDbDictionary
  0
DICTIONARY
  5
3C5
102
{ACAD_REACTORS
330
C
102
}
330
C
100
AcDbDictionary
  3
CEPSNTYPE
350
3CE
  3
DIMSTYLEDATA
350
3E4
  3
FINGERPRINTGUID
350
3CF
  3
HYPERLINKBASE
350
3C8
  3
INSUNITS
350
3CD
  3
LAYOUTDICT
350
3CA
  3
LWETCUNION
350
3CC
  3
PLOTSETDICT
350
3CB
  3
PSVPSCALE
350
3D1
  3
PUCSBASE
350
3D4
  3
PUCSORGBACK
350
3DA
  3
PUCSORGBOTTOM
350
3D6
  3
PUCSORGFRONT
350
3D9
  3
PUCSORGLEFT
350
3D7
  3
PUCSORGRIGHT
350
3D8
  3
PUCSORGTOP
350
3D5
  3
PUCSORTHOREF
350
3D2
  3
PUCSORTHOVIEW
350
3D3
  3
STYLESHEET
350
3C9
  3
TSTACKALIGN
350
3C6
  3
TSTACKSIZE
350
3C7
  3
UCSBASE
350
3DD
  3
UCSORGBACK
350
3E3
  3
UCSORGBOTTOM
350
3DF
  3
UCSORGFRONT
350
3E2
  3
UCSORGLEFT
350
3E0
  3
UCSORGRIGHT
350
3E1
  3
UCSORGTOP
350
3DE
  3
UCSORTHOREF
350
3DB
  3
UCSORTHOVIEW
350
3DC
  3
VERSIONGUID
350
3D0
  0
MLINESTYLE
  5
18
102
{ACAD_REACTORS
330
17
102
}
330
17
100
AcDbMlineStyle
  2
Standard
 70
     0
  3

 62
   256
 51
90.0
 52
90.0
 71
     2
 49
0.5
 62
   256
  6
BYLAYER
 49
-0.5
 62
   256
  6
BYLAYER
  0
XRECORD
  5
3CE
102
{ACAD_REACTORS
330
3C5
102
}
330
3C5
100
AcDbXrecord
 90
        0
  0
XRECORD
  5
3E4
102
{ACAD_REACTORS
330
3C5
102
}
330
3C5
100
AcDbXrecord
1000
DSTYLE
1002
{
1070
   179
 70
     2
1070
   171
 70
     3
1070
   143
 40
0.03937
1070
   274
 70
     3
1070
    41
 40
4.0
1070
   343
340
41
1070
   344
340
47
1070
   141
 40
2.5
1070
   176
 70
     7
1070
   177
 70
     7
1070
   178
 70
     7
1070
   271
 70
     2
1070
    46
 40
6.0
1070
    43
 40
10.0
1070
    44
 40
1.0
1070
    42
 40
1.0
1070
   147
 40
1.0
1070
   341
340
41
1070
   173
 70
     1
1070
    77
 70
     1
1070
   272
 70
     2
1070
    73
 70
     0
1070
   172
 70
     1
1070
    74
 70
     0
1070
   283
 70
     0
1070
   340
340
3F
1070
   140
 40
4.0
1070
   284
 70
     8
1070
    78
 70
     8
1002
}
  0
XRECORD
  5
3CF
102
{ACAD_REACTORS
330
3C5
102
}
330
3C5
100
AcDbXrecord
  1
{388826A8-D751-4CB3-82EE-81446898BEAA}
  0
XRECORD
  5
3C8
102
{ACAD_REACTORS
330
3C5
102
}
330
3C5
100
AcDbXrecord
  1

  0
XRECORD
  5
3CD
102
{ACAD_REACTORS
330
3C5
102
}
330
3C5
100
AcDbXrecord
 90
        1
  0
XRECORD
  5
3CA
102
{ACAD_REACTORS
330
3C5
102
}
330
3C5
100
AcDbXrecord
340
1A
  0
XRECORD
  5
3CC
102
{ACAD_REACTORS
330
3C5
102
}
330
3C5
100
AcDbXrecord
 90
    10781
  0
XRECORD
  5
3CB
102
{ACAD_REACTORS
330
3C5
102
}
330
3C5
100
AcDbXrecord
340
19
  0
XRECORD
  5
3D1
102
{ACAD_REACTORS
330
3C5
102
}
330
3C5
100
AcDbXrecord
 40
0.0
  0
XRECORD
  5
3D4
102
{ACAD_REACTORS
330
3C5
102
}
330
3C5
100
AcDbXrecord
340
0
  0
XRECORD
  5
3DA
102
{ACAD_REACTORS
330
3C5
102
}
330
3C5
100
AcDbXrecord
 10
0.0
 20
0.0
 30
0.0
  0
XRECORD
  5
3D6
102
{ACAD_REACTORS
330
3C5
102
}
330
3C5
100
AcDbXrecord
 10
0.0
 20
0.0
 30
0.0
  0
XRECORD
  5
3D9
102
{ACAD_REACTORS
330
3C5
102
}
330
3C5
100
AcDbXrecord
 10
0.0
 20
0.0
 30
0.0
  0
XRECORD
  5
3D7
102
{ACAD_REACTORS
330
3C5
102
}
330
3C5
100
AcDbXrecord
 10
0.0
 20
0.0
 30
0.0
  0
XRECORD
  5
3D8
102
{ACAD_REACTORS
330
3C5
102
}
330
3C5
100
AcDbXrecord
 10
0.0
 20
0.0
 30
0.0
  0
XRECORD
  5
3D5
102
{ACAD_REACTORS
330
3C5
102
}
330
3C5
100
AcDbXrecord
 10
0.0
 20
0.0
 30
0.0
  0
XRECORD
  5
3D2
102
{ACAD_REACTORS
330
3C5
102
}
330
3C5
100
AcDbXrecord
340
0
  0
XRECORD
  5
3D3
102
{ACAD_REACTORS
330
3C5
102
}
330
3C5
100
AcDbXrecord
 70
     0
  0
XRECORD
  5
3C9
102
{ACAD_REACTORS
330
3C5
102
}
330
3C5
100
AcDbXrecord
  1

  0
XRECORD
  5
3C6
102
{ACAD_REACTORS
330
3C5
102
}
330
3C5
100
AcDbXrecord
 90
        1
  0
XRECORD
  5
3C7
102
{ACAD_REACTORS
330
3C5
102
}
330
3C5
100
AcDbXrecord
 90
       70
  0
XRECORD
  5
3DD
102
{ACAD_REACTORS
330
3C5
102
}
330
3C5
100
AcDbXrecord
340
0
  0
XRECORD
  5
3E3
102
{ACAD_REACTORS
330
3C5
102
}
330
3C5
100
AcDbXrecord
 10
0.0
 20
0.0
 30
0.0
  0
XRECORD
  5
3DF
102
{ACAD_REACTORS
330
3C5
102
}
330
3C5
100
AcDbXrecord
 10
0.0
 20
0.0
 30
0.0
  0
XRECORD
  5
3E2
102
{ACAD_REACTORS
330
3C5
102
}
330
3C5
100
AcDbXrecord
 10
0.0
 20
0.0
 30
0.0
  0
XRECORD
  5
3E0
102
{ACAD_REACTORS
330
3C5
102
}
330
3C5
100
AcDbXrecord
 10
0.0
 20
0.0
 30
0.0
  0
XRECORD
  5
3E1
102
{ACAD_REACTORS
330
3C5
102
}
330
3C5
100
AcDbXrecord
 10
0.0
 20
0.0
 30
0.0
  0
XRECORD
  5
3DE
102
{ACAD_REACTORS
330
3C5
102
}
330
3C5
100
AcDbXrecord
 10
0.0
 20
0.0
 30
0.0
  0
XRECORD
  5
3DB
102
{ACAD_REACTORS
330
3C5
102
}
330
3C5
100
AcDbXrecord
340
0
  0
XRECORD
  5
3DC
102
{ACAD_REACTORS
330
3C5
102
}
330
3C5
100
AcDbXrecord
 70
     0
  0
XRECORD
  5
3D0
102
{ACAD_REACTORS
330
3C5
102
}
330
3C5
100
AcDbXrecord
  1
{FAEB1C32-E019-11D5-929B-00C0DF256EC4}
  0
ENDSEC
  0
EOF
