  0
SECTION
  2
HEADER
  9
$ACADVER
  1
AC1014
  9
$ACADMAINTVER
 70
     9
  9
$DWGCODEPAGE
  3
ANSI_932
  9
$INSBASE
 10
0.0
 20
0.0
 30
0.0
  9
$EXTMIN
 10
0.0
 20
0.0
 30
0.0
  9
$EXTMAX
 10
420.0
 20
297.0
 30
0.0
  9
$LIMMIN
 10
0.0
 20
0.0
  9
$LIMMAX
 10
420.0
 20
297.0
  9
$ORTHOMODE
 70
     0
  9
$REGENMODE
 70
     1
  9
$FILLMODE
 70
     1
  9
$QTEXTMODE
 70
     0
  9
$MIRRTEXT
 70
     1
  9
$DRAGMODE
 70
     2
  9
$LTSCALE
 40
1.0
  9
$OSMODE
 70
    37
  9
$ATTMODE
 70
     1
  9
$TEXTSIZE
 40
0.2
  9
$TRACEWID
 40
0.05
  9
$TEXTSTYLE
  7
STYLE1
  9
$CLAYER
  8
0
  9
$CELTYPE
  6
BYLAYER
  9
$CECOLOR
 62
   256
  9
$CELTSCALE
 40
1.0
  9
$DELOBJ
 70
     1
  9
$DISPSILH
 70
     0
  9
$DIMSCALE
 40
1.0
  9
$DIMASZ
 40
4.0
  9
$DIMEXO
 40
1.0
  9
$DIMDLI
 40
10.0
  9
$DIMRND
 40
0.0
  9
$DIMDLE
 40
6.0
  9
$DIMEXE
 40
1.0
  9
$DIMTP
 40
0.0
  9
$DIMTM
 40
0.0
  9
$DIMTXT
 40
4.0
  9
$DIMCEN
 40
2.5
  9
$DIMTSZ
 40
0.0
  9
$DIMTOL
 70
     0
  9
$DIMLIM
 70
     0
  9
$DIMTIH
 70
     0
  9
$DIMTOH
 70
     0
  9
$DIMSE1
 70
     0
  9
$DIMSE2
 70
     0
  9
$DIMTAD
 70
     1
  9
$DIMZIN
 70
     8
  9
$DIMBLK
  1

  9
$DIMASO
 70
     1
  9
$DIMSHO
 70
     1
  9
$DIMPOST
  1

  9
$DIMAPOST
  1

  9
$DIMALT
 70
     0
  9
$DIMALTD
 70
     3
  9
$DIMALTF
 40
0.03937
  9
$DIMLFAC
 40
1.0
  9
$DIMTOFL
 70
     1
  9
$DIMTVP
 40
0.0
  9
$DIMTIX
 70
     0
  9
$DIMSOXD
 70
     0
  9
$DIMSAH
 70
     1
  9
$DIMBLK1
  1
FXTIP_ARROW_S
  9
$DIMBLK2
  1
FXTIP_ARROW_E
  9
$DIMSTYLE
  2
FXDIMINFO
  9
$DIMCLRD
 70
     7
  9
$DIMCLRE
 70
     7
  9
$DIMCLRT
 70
     7
  9
$DIMTFAC
 40
1.0
  9
$DIMGAP
 40
1.0
  9
$DIMJUST
 70
     0
  9
$DIMSD1
 70
     0
  9
$DIMSD2
 70
     0
  9
$DIMTOLJ
 70
     0
  9
$DIMTZIN
 70
     8
  9
$DIMALTZ
 70
     0
  9
$DIMALTTZ
 70
     0
  9
$DIMFIT
 70
     3
  9
$DIMUPT
 70
     0
  9
$DIMUNIT
 70
     2
  9
$DIMDEC
 70
     2
  9
$DIMTDEC
 70
     2
  9
$DIMALTU
 70
     2
  9
$DIMALTTD
 70
     3
  9
$DIMTXSTY
  7
STYLE1
  9
$DIMAUNIT
 70
     0
  9
$LUNITS
 70
     2
  9
$LUPREC
 70
     4
  9
$SKETCHINC
 40
0.1
  9
$FILLETRAD
 40
0.5
  9
$AUNITS
 70
     0
  9
$AUPREC
 70
     0
  9
$MENU
  1
.
  9
$ELEVATION
 40
0.0
  9
$PELEVATION
 40
0.0
  9
$THICKNESS
 40
0.0
  9
$LIMCHECK
 70
     0
  9
$CHAMFERA
 40
0.5
  9
$CHAMFERB
 40
0.5
  9
$CHAMFERC
 40
1.0
  9
$CHAMFERD
 40
0.0
  9
$SKPOLY
 70
     0
  9
$TDCREATE
 40
2455308.352715995
  9
$TDUPDATE
 40
2455308.352716007
  9
$TDINDWG
 40
0.0000000116
  9
$TDUSRTIMER
 40
0.0000000116
  9
$USRTIMER
 70
     1
  9
$ANGBASE
 50
0.0
  9
$ANGDIR
 70
     0
  9
$PDMODE
 70
     0
  9
$PDSIZE
 40
0.0
  9
$PLINEWID
 40
0.0
  9
$COORDS
 70
     1
  9
$SPLFRAME
 70
     0
  9
$SPLINETYPE
 70
     6
  9
$SPLINESEGS
 70
     8
  9
$ATTDIA
 70
     0
  9
$ATTREQ
 70
     1
  9
$HANDLING
 70
     1
  9
$HANDSEED
  5
32A
  9
$SURFTAB1
 70
     6
  9
$SURFTAB2
 70
     6
  9
$SURFTYPE
 70
     6
  9
$SURFU
 70
     6
  9
$SURFV
 70
     6
  9
$UCSNAME
  2

  9
$UCSORG
 10
0.0
 20
0.0
 30
0.0
  9
$UCSXDIR
 10
1.0
 20
0.0
 30
0.0
  9
$UCSYDIR
 10
0.0
 20
1.0
 30
0.0
  9
$PUCSNAME
  2

  9
$PUCSORG
 10
0.0
 20
0.0
 30
0.0
  9
$PUCSXDIR
 10
1.0
 20
0.0
 30
0.0
  9
$PUCSYDIR
 10
0.0
 20
1.0
 30
0.0
  9
$USERI1
 70
     0
  9
$USERI2
 70
     0
  9
$USERI3
 70
     0
  9
$USERI4
 70
     0
  9
$USERI5
 70
     0
  9
$USERR1
 40
0.0
  9
$USERR2
 40
0.0
  9
$USERR3
 40
0.0
  9
$USERR4
 40
0.0
  9
$USERR5
 40
0.0
  9
$WORLDVIEW
 70
     1
  9
$SHADEDGE
 70
     3
  9
$SHADEDIF
 70
    70
  9
$TILEMODE
 70
     1
  9
$MAXACTVP
 70
    64
  9
$PINSBASE
 10
0.0
 20
0.0
 30
0.0
  9
$PLIMCHECK
 70
     0
  9
$PEXTMIN
 10
1.000000E+20
 20
1.000000E+20
 30
1.000000E+20
  9
$PEXTMAX
 10
-1.000000E+20
 20
-1.000000E+20
 30
-1.000000E+20
  9
$PLIMMIN
 10
0.0
 20
0.0
  9
$PLIMMAX
 10
12.0
 20
9.0
  9
$UNITMODE
 70
     0
  9
$VISRETAIN
 70
     1
  9
$PLINEGEN
 70
     0
  9
$PSLTSCALE
 70
     1
  9
$TREEDEPTH
 70
  3020
  9
$PICKSTYLE
 70
     1
  9
$CMLSTYLE
  2
STANDARD
  9
$CMLJUST
 70
     0
  9
$CMLSCALE
 40
1.0
  9
$PROXYGRAPHICS
 70
     1
  9
$MEASUREMENT
 70
     0
  0
ENDSEC
  0
SECTION
  2
CLASSES
  0
CLASS
  1
ACDBDICTIONARYWDFLT
  2
AcDbDictionaryWithDefault
  3
ObjectDBX Classes
 90
        0
280
     0
281
     0
  0
CLASS
  1
XRECORD
  2
AcDbXrecord
  3
AutoCAD 2000
 90
        0
280
     0
281
     0
  0
CLASS
  1
LWPOLYLINE
  2
AcDbPolyline
  3
AutoCAD 2000
 90
        0
280
     0
281
     1
  0
CLASS
  1
HATCH
  2
AcDbHatch
  3
AutoCAD 2000
 90
        0
280
     0
281
     1
  0
CLASS
  1
ACDBPLACEHOLDER
  2
AcDbPlaceHolder
  3
ObjectDBX Classes
 90
        0
280
     0
281
     0
  0
CLASS
  1
LAYOUT
  2
AcDbLayout
  3
ObjectDBX Classes
 90
        0
280
     0
281
     0
  0
ENDSEC
  0
SECTION
  2
TABLES
  0
TABLE
  2
VPORT
  5
8
330
0
100
AcDbSymbolTable
 70
     1
  0
VPORT
  5
29
330
8
100
AcDbSymbolTableRecord
100
AcDbViewportTableRecord
  2
*ACTIVE
 70
     0
 10
0.0
 20
0.0
 11
1.0
 21
1.0
 12
210.0
 22
148.5
 13
0.0
 23
0.0
 14
0.5
 24
0.5
 15
0.5
 25
0.5
 16
0.0
 26
0.0
 36
1.0
 17
0.0
 27
0.0
 37
0.0
 40
297.0
 41
1.414141
 42
50.0
 43
0.0
 44
0.0
 50
0.0
 51
0.0
 71
     0
 72
   100
 73
     1
 74
     3
 75
     0
 76
     0
 77
     0
 78
     0
  0
ENDTAB
  0
TABLE
  2
LTYPE
  5
5
330
0
100
AcDbSymbolTable
 70
     4
  0
LTYPE
  5
14
330
5
100
AcDbSymbolTableRecord
100
AcDbLinetypeTableRecord
  2
BYBLOCK
 70
     0
  3

 72
    65
 73
     0
 40
0.0
  0
LTYPE
  5
15
330
5
100
AcDbSymbolTableRecord
100
AcDbLinetypeTableRecord
  2
BYLAYER
 70
     0
  3

 72
    65
 73
     0
 40
0.0
  0
LTYPE
  5
16
330
5
100
AcDbSymbolTableRecord
100
AcDbLinetypeTableRecord
  2
CONTINUOUS
 70
     0
  3
--------------------
 72
    65
 73
     0
 40
0.0
  0
LTYPE
  5
2A
330
5
100
AcDbSymbolTableRecord
100
AcDbLinetypeTableRecord
  2
CENTER
 70
     0
  3
Center ____ _ ____ _ ____ _ ____ _ ____ _ ____
 72
    65
 73
     4
 40
13.0
 49
10.0
 74
     0
 49
-1.0
 74
     0
 49
1.0
 74
     0
 49
-1.0
 74
     0
  0
ENDTAB
  0
TABLE
  2
LAYER
  5
2
330
0
100
AcDbSymbolTable
 70
    21
  0
LAYER
  5
10
330
2
100
AcDbSymbolTableRecord
100
AcDbLayerTableRecord
  2
0
 70
     0
 62
     7
  6
CONTINUOUS
  0
LAYER
  5
2D
330
2
100
AcDbSymbolTableRecord
100
AcDbLayerTableRecord
  2
LAYERGROUP-1
 70
     0
 62
     3
  6
CONTINUOUS
  0
LAYER
  5
3D
330
2
100
AcDbSymbolTableRecord
100
AcDbLayerTableRecord
  2
}}ﾊﾊGG血CCТ
 70
     0
 62
     3
  6
CONTINUOUS
  0
LAYER
  5
BD
330
2
100
AcDbSymbolTableRecord
100
AcDbLayerTableRecord
  2
3-1
 70
     0
 62
     7
  6
CONTINUOUS
  0
LAYER
  5
DC
330
2
100
AcDbSymbolTableRecord
100
AcDbLayerTableRecord
  2
GR1-1
 70
     0
 62
     7
  6
CONTINUOUS
  0
LAYER
  5
252
330
2
100
AcDbSymbolTableRecord
100
AcDbLayerTableRecord
  2
0-1
 70
     0
 62
     7
  6
CONTINUOUS
  0
ENDTAB
  0
TABLE
  2
STYLE
  5
3
330
0
100
AcDbSymbolTable
 70
     4
  0
STYLE
  5
11
330
3
100
AcDbSymbolTableRecord
100
AcDbTextStyleTableRecord
  2
STANDARD
 70
     0
 40
0.0
 41
1.0
 50
0.0
 71
     0
 42
0.2
  3
txt
  4

  0
STYLE
  5
3F
330
3
100
AcDbSymbolTableRecord
100
AcDbTextStyleTableRecord
  2
STYLE1
 70
     0
 40
0.0
 41
1.0
 50
0.0
 71
     0
 42
0.2
  3
MONOTXT.SHX
  4
extfont.shx
  0
STYLE
  5
40
330
3
100
AcDbSymbolTableRecord
100
AcDbTextStyleTableRecord
  2
FX_VECTOR
 70
     0
 40
0.0
 41
1.0
 50
0.0
 71
     0
 42
0.2
  3
MONOTXT.SHX
  4
BIGFONT.SHX
  0
ENDTAB
  0
TABLE
  2
VIEW
  5
6
330
0
100
AcDbSymbolTable
 70
     0
  0
ENDTAB
  0
TABLE
  2
UCS
  5
7
330
0
100
AcDbSymbolTable
 70
     0
  0
ENDTAB
  0
TABLE
  2
APPID
  5
9
330
0
100
AcDbSymbolTable
 70
     1
  0
APPID
  5
12
330
9
100
AcDbSymbolTableRecord
100
AcDbRegAppTableRecord
  2
ACAD
 70
     0
  0
ENDTAB
  0
TABLE
  2
DIMSTYLE
  5
A
330
0
100
AcDbSymbolTable
 70
     2
  0
DIMSTYLE
105
27
330
A
100
AcDbSymbolTableRecord
100
AcDbDimStyleTableRecord
  2
STANDARD
 70
     0
  3

  4

  5

  6

  7

 40
1.0
 41
0.18
 42
0.0625
 43
0.38
 44
0.18
 45
0.0
 46
0.0
 47
0.0
 48
0.0
140
0.18
141
0.09
142
0.0
143
25.4
144
1.0
145
0.0
146
1.0
147
0.09
 71
     0
 72
     0
 73
     1
 74
     1
 75
     0
 76
     0
 77
     0
 78
     0
170
     0
171
     2
172
     0
173
     0
174
     0
175
     0
176
     0
177
     0
178
     0
270
     2
271
     4
272
     4
273
     2
274
     2
340
11
275
     0
280
     0
281
     0
282
     0
283
     1
284
     0
285
     0
286
     0
287
     3
288
     0
  0
DIMSTYLE
105
A7
102
{ACAD_REACTORS
330
EF
330
F9
330
10E
330
119
330
16B
330
175
330
1BF
330
1C9
330
1D3
330
200
330
20A
330
23A
102
}
330
A
100
AcDbSymbolTableRecord
100
AcDbDimStyleTableRecord
  2
FXDIMINFO
 70
     0
  3

  4

  5

  6
FXTIP_ARROW_S
  7
FXTIP_ARROW_E
 40
1.0
 41
4.0
 42
1.0
 43
10.0
 44
1.0
 45
0.0
 46
6.0
 47
0.0
 48
0.0
140
4.0
141
2.5
142
0.0
143
0.03937
144
1.0
145
0.0
146
1.0
147
1.0
 71
     0
 72
     0
 73
     0
 74
     0
 75
     0
 76
     0
 77
     1
 78
     8
170
     0
171
     3
172
     1
173
     1
174
     0
175
     0
176
     7
177
     7
178
     7
179
     2
270
     2
271
     2
272
     2
273
     2
274
     3
340
3F
275
     0
280
     0
281
     0
282
     0
283
     0
284
     8
285
     0
286
     0
287
     3
288
     0
  0
ENDTAB
  0
TABLE
  2
BLOCK_RECORD
  5
1
330
0
100
AcDbSymbolTable
 70
    35
  0
BLOCK_RECORD
  5
1F
330
1
100
AcDbSymbolTableRecord
100
AcDbBlockTableRecord
  2
*MODEL_SPACE
  0
BLOCK_RECORD
  5
1B
330
1
100
AcDbSymbolTableRecord
100
AcDbBlockTableRecord
  2
*PAPER_SPACE
  0
BLOCK_RECORD
  5
41
330
1
100
AcDbSymbolTableRecord
100
AcDbBlockTableRecord
  2
FXTIP_ARROW_S
  0
BLOCK_RECORD
  5
47
330
1
100
AcDbSymbolTableRecord
100
AcDbBlockTableRecord
  2
FXTIP_ARROW_E
  0
BLOCK_RECORD
  5
4D
330
1
100
AcDbSymbolTableRecord
100
AcDbBlockTableRecord
  2
FXTIP_BLACKDOT_S
  0
BLOCK_RECORD
  5
53
330
1
100
AcDbSymbolTableRecord
100
AcDbBlockTableRecord
  2
FXTIP_BLACKDOT_E
  0
BLOCK_RECORD
  5
59
330
1
100
AcDbSymbolTableRecord
100
AcDbBlockTableRecord
  2
FXTIP_TRIANGLE_S
  0
BLOCK_RECORD
  5
60
330
1
100
AcDbSymbolTableRecord
100
AcDbBlockTableRecord
  2
FXTIP_TRIANGLE_E
  0
BLOCK_RECORD
  5
67
330
1
100
AcDbSymbolTableRecord
100
AcDbBlockTableRecord
  2
FXTIP_ARCHITECT_S
  0
BLOCK_RECORD
  5
6D
330
1
100
AcDbSymbolTableRecord
100
AcDbBlockTableRecord
  2
FXTIP_ARCHITECT_E
  0
BLOCK_RECORD
  5
73
330
1
100
AcDbSymbolTableRecord
100
AcDbBlockTableRecord
  2
FXTIP_CIVIL_S
  0
BLOCK_RECORD
  5
79
330
1
100
AcDbSymbolTableRecord
100
AcDbBlockTableRecord
  2
FXTIP_CIVIL_E
  0
BLOCK_RECORD
  5
7F
330
1
100
AcDbSymbolTableRecord
100
AcDbBlockTableRecord
  2
FXTIP_WHITEDOT_S
  0
BLOCK_RECORD
  5
84
330
1
100
AcDbSymbolTableRecord
100
AcDbBlockTableRecord
  2
FXTIP_WHITEDOT_E
  0
BLOCK_RECORD
  5
89
330
1
100
AcDbSymbolTableRecord
100
AcDbBlockTableRecord
  2
FXTIP_UPARROW_S
  0
BLOCK_RECORD
  5
8E
330
1
100
AcDbSymbolTableRecord
100
AcDbBlockTableRecord
  2
FXTIP_UPARROW_E
  0
BLOCK_RECORD
  5
93
330
1
100
AcDbSymbolTableRecord
100
AcDbBlockTableRecord
  2
FXTIP_DOWNARROW_S
  0
BLOCK_RECORD
  5
98
330
1
100
AcDbSymbolTableRecord
100
AcDbBlockTableRecord
  2
FXTIP_DOWNARROW_E
  0
BLOCK_RECORD
  5
9D
330
1
100
AcDbSymbolTableRecord
100
AcDbBlockTableRecord
  2
FXTIP_BLACKTRIANGLE_S
  0
BLOCK_RECORD
  5
A2
330
1
100
AcDbSymbolTableRecord
100
AcDbBlockTableRecord
  2
FXTIP_BLACKTRIANGLE_E
  0
BLOCK_RECORD
  5
F0
330
1
100
AcDbSymbolTableRecord
100
AcDbBlockTableRecord
  2
*D19
  0
BLOCK_RECORD
  5
FA
330
1
100
AcDbSymbolTableRecord
100
AcDbBlockTableRecord
  2
*D20
  0
BLOCK_RECORD
  5
10F
330
1
100
AcDbSymbolTableRecord
100
AcDbBlockTableRecord
  2
*D21
  0
BLOCK_RECORD
  5
11A
330
1
100
AcDbSymbolTableRecord
100
AcDbBlockTableRecord
  2
*D22
  0
BLOCK_RECORD
  5
16C
330
1
100
AcDbSymbolTableRecord
100
AcDbBlockTableRecord
  2
*D23
  0
BLOCK_RECORD
  5
176
330
1
100
AcDbSymbolTableRecord
100
AcDbBlockTableRecord
  2
*D24
  0
BLOCK_RECORD
  5
1C0
330
1
100
AcDbSymbolTableRecord
100
AcDbBlockTableRecord
  2
*D25
  0
BLOCK_RECORD
  5
1CA
330
1
100
AcDbSymbolTableRecord
100
AcDbBlockTableRecord
  2
*D26
  0
BLOCK_RECORD
  5
1D4
330
1
100
AcDbSymbolTableRecord
100
AcDbBlockTableRecord
  2
*D27
  0
BLOCK_RECORD
  5
201
330
1
100
AcDbSymbolTableRecord
100
AcDbBlockTableRecord
  2
*D28
  0
BLOCK_RECORD
  5
20B
330
1
100
AcDbSymbolTableRecord
100
AcDbBlockTableRecord
  2
*D29
  0
BLOCK_RECORD
  5
23B
330
1
100
AcDbSymbolTableRecord
100
AcDbBlockTableRecord
  2
*D30
  0
BLOCK_RECORD
  5
242
330
1
100
AcDbSymbolTableRecord
100
AcDbBlockTableRecord
  2
BLKF033
  0
BLOCK_RECORD
  5
24E
330
1
100
AcDbSymbolTableRecord
100
AcDbBlockTableRecord
  2
BLKF034
  0
BLOCK_RECORD
  5
257
330
1
100
AcDbSymbolTableRecord
100
AcDbBlockTableRecord
  2
BLKF035
  0
BLOCK_RECORD
  5
28A
330
1
100
AcDbSymbolTableRecord
100
AcDbBlockTableRecord
  2
BLKF036
  0
ENDTAB
  0
ENDSEC
  0
SECTION
  2
BLOCKS
  0
BLOCK
  5
20
330
1F
100
AcDbEntity
  8
0
100
AcDbBlockBegin
  2
*MODEL_SPACE
 70
     0
 71
     0
 10
0.0
 20
0.0
 30
0.0
  3
*MODEL_SPACE
  1

  0
ENDBLK
  5
21
330
1F
100
AcDbEntity
  8
0
100
AcDbBlockEnd
  0
BLOCK
  5
1C
330
1B
100
AcDbEntity
 67
     1
  8
0
100
AcDbBlockBegin
  2
*PAPER_SPACE
 70
     0
 71
     0
 10
0.0
 20
0.0
 30
0.0
  3
*PAPER_SPACE
  1

  0
ENDBLK
  5
1D
330
1B
100
AcDbEntity
 67
     1
  8
0
100
AcDbBlockEnd
  0
BLOCK
  5
42
330
41
100
AcDbEntity
  8
0
100
AcDbBlockBegin
  2
FXTIP_ARROW_S
 70
     0
 71
     0
 10
0.0
 20
0.0
 30
0.0
  3
FXTIP_ARROW_S
  1

  0
LINE
  5
44
330
41
100
AcDbEntity
  8
0
  6
CONTINUOUS
 62
     0
100
AcDbLine
 10
0.0
 20
0.0
 30
0.0
 11
-1.0
 21
0.0
 31
0.0
  0
LINE
  5
45
330
41
100
AcDbEntity
  8
0
  6
CONTINUOUS
 62
     0
100
AcDbLine
 10
0.0
 20
0.0
 30
0.0
 11
-0.965926
 21
-0.258819
 31
0.0
  0
LINE
  5
46
330
41
100
AcDbEntity
  8
0
  6
CONTINUOUS
 62
     0
100
AcDbLine
 10
0.0
 20
0.0
 30
0.0
 11
-0.965926
 21
0.258819
 31
0.0
  0
ENDBLK
  5
43
330
41
100
AcDbEntity
  8
0
100
AcDbBlockEnd
  0
BLOCK
  5
48
330
47
100
AcDbEntity
  8
0
100
AcDbBlockBegin
  2
FXTIP_ARROW_E
 70
     0
 71
     0
 10
0.0
 20
0.0
 30
0.0
  3
FXTIP_ARROW_E
  1

  0
LINE
  5
4A
330
47
100
AcDbEntity
  8
0
  6
CONTINUOUS
 62
     0
100
AcDbLine
 10
0.0
 20
0.0
 30
0.0
 11
-1.0
 21
0.0
 31
0.0
  0
LINE
  5
4B
330
47
100
AcDbEntity
  8
0
  6
CONTINUOUS
 62
     0
100
AcDbLine
 10
0.0
 20
0.0
 30
0.0
 11
-0.965926
 21
0.258819
 31
0.0
  0
LINE
  5
4C
330
47
100
AcDbEntity
  8
0
  6
CONTINUOUS
 62
     0
100
AcDbLine
 10
0.0
 20
0.0
 30
0.0
 11
-0.965926
 21
-0.258819
 31
0.0
  0
ENDBLK
  5
49
330
47
100
AcDbEntity
  8
0
100
AcDbBlockEnd
  0
BLOCK
  5
4E
330
4D
100
AcDbEntity
  8
0
100
AcDbBlockBegin
  2
FXTIP_BLACKDOT_S
 70
     0
 71
     0
 10
0.0
 20
0.0
 30
0.0
  3
FXTIP_BLACKDOT_S
  1

  0
LINE
  5
50
330
4D
100
AcDbEntity
  8
0
  6
CONTINUOUS
 62
     0
100
AcDbLine
 10
0.0
 20
0.0
 30
0.0
 11
-1.0
 21
0.0
 31
0.0
  0
LWPOLYLINE
  5
51
330
4D
100
AcDbEntity
  8
0
  6
CONTINUOUS
 62
     0
100
AcDbPolyline
 90
        2
 70
     1
 10
-0.25
 20
0.0
 40
0.5
 41
0.5
 42
1.0
 10
0.25
 20
0.0
 40
0.5
 41
0.5
 42
1.0
  0
CIRCLE
  5
52
330
4D
100
AcDbEntity
  8
0
  6
CONTINUOUS
 62
     0
100
AcDbCircle
 10
0.0
 20
0.0
 30
0.0
 40
0.5
  0
ENDBLK
  5
4F
330
4D
100
AcDbEntity
  8
0
100
AcDbBlockEnd
  0
BLOCK
  5
54
330
53
100
AcDbEntity
  8
0
100
AcDbBlockBegin
  2
FXTIP_BLACKDOT_E
 70
     0
 71
     0
 10
0.0
 20
0.0
 30
0.0
  3
FXTIP_BLACKDOT_E
  1

  0
LINE
  5
56
330
53
100
AcDbEntity
  8
0
  6
CONTINUOUS
 62
     0
100
AcDbLine
 10
0.0
 20
0.0
 30
0.0
 11
-1.0
 21
0.0
 31
0.0
  0
LWPOLYLINE
  5
57
330
53
100
AcDbEntity
  8
0
  6
CONTINUOUS
 62
     0
100
AcDbPolyline
 90
        2
 70
     1
 10
-0.25
 20
0.0
 40
0.5
 41
0.5
 42
1.0
 10
0.25
 20
0.0
 40
0.5
 41
0.5
 42
1.0
  0
CIRCLE
  5
58
330
53
100
AcDbEntity
  8
0
  6
CONTINUOUS
 62
     0
100
AcDbCircle
 10
0.0
 20
0.0
 30
0.0
 40
0.5
  0
ENDBLK
  5
55
330
53
100
AcDbEntity
  8
0
100
AcDbBlockEnd
  0
BLOCK
  5
5A
330
59
100
AcDbEntity
  8
0
100
AcDbBlockBegin
  2
FXTIP_TRIANGLE_S
 70
     0
 71
     0
 10
0.0
 20
0.0
 30
0.0
  3
FXTIP_TRIANGLE_S
  1

  0
LINE
  5
5C
330
59
100
AcDbEntity
  8
0
  6
CONTINUOUS
 62
     0
100
AcDbLine
 10
0.0
 20
0.0
 30
0.0
 11
-1.0
 21
0.0
 31
0.0
  0
LINE
  5
5D
330
59
100
AcDbEntity
  8
0
  6
CONTINUOUS
 62
     0
100
AcDbLine
 10
0.0
 20
0.0
 30
0.0
 11
-0.965926
 21
-0.258819
 31
0.0
  0
LINE
  5
5E
330
59
100
AcDbEntity
  8
0
  6
CONTINUOUS
 62
     0
100
AcDbLine
 10
0.0
 20
0.0
 30
0.0
 11
-0.965926
 21
0.258819
 31
0.0
  0
LINE
  5
5F
330
59
100
AcDbEntity
  8
0
  6
CONTINUOUS
 62
     0
100
AcDbLine
 10
-0.965926
 20
-0.258819
 30
0.0
 11
-0.965926
 21
0.258819
 31
0.0
  0
ENDBLK
  5
5B
330
59
100
AcDbEntity
  8
0
100
AcDbBlockEnd
  0
BLOCK
  5
61
330
60
100
AcDbEntity
  8
0
100
AcDbBlockBegin
  2
FXTIP_TRIANGLE_E
 70
     0
 71
     0
 10
0.0
 20
0.0
 30
0.0
  3
FXTIP_TRIANGLE_E
  1

  0
LINE
  5
63
330
60
100
AcDbEntity
  8
0
  6
CONTINUOUS
 62
     0
100
AcDbLine
 10
0.0
 20
0.0
 30
0.0
 11
-1.0
 21
0.0
 31
0.0
  0
LINE
  5
64
330
60
100
AcDbEntity
  8
0
  6
CONTINUOUS
 62
     0
100
AcDbLine
 10
0.0
 20
0.0
 30
0.0
 11
-0.965926
 21
0.258819
 31
0.0
  0
LINE
  5
65
330
60
100
AcDbEntity
  8
0
  6
CONTINUOUS
 62
     0
100
AcDbLine
 10
0.0
 20
0.0
 30
0.0
 11
-0.965926
 21
-0.258819
 31
0.0
  0
LINE
  5
66
330
60
100
AcDbEntity
  8
0
  6
CONTINUOUS
 62
     0
100
AcDbLine
 10
-0.965926
 20
0.258819
 30
0.0
 11
-0.965926
 21
-0.258819
 31
0.0
  0
ENDBLK
  5
62
330
60
100
AcDbEntity
  8
0
100
AcDbBlockEnd
  0
BLOCK
  5
68
330
67
100
AcDbEntity
  8
0
100
AcDbBlockBegin
  2
FXTIP_ARCHITECT_S
 70
     0
 71
     0
 10
0.0
 20
0.0
 30
0.0
  3
FXTIP_ARCHITECT_S
  1

  0
LINE
  5
6A
330
67
100
AcDbEntity
  8
0
  6
CONTINUOUS
 62
     0
100
AcDbLine
 10
0.0
 20
0.0
 30
0.0
 11
-1.0
 21
0.0
 31
0.0
  0
LINE
  5
6B
330
67
100
AcDbEntity
  8
0
  6
CONTINUOUS
 62
     0
100
AcDbLine
 10
0.0
 20
0.0
 30
0.0
 11
-0.707107
 21
-0.707107
 31
0.0
  0
LINE
  5
6C
330
67
100
AcDbEntity
  8
0
  6
CONTINUOUS
 62
     0
100
AcDbLine
 10
0.0
 20
0.0
 30
0.0
 11
0.707107
 21
0.707107
 31
0.0
  0
ENDBLK
  5
69
330
67
100
AcDbEntity
  8
0
100
AcDbBlockEnd
  0
BLOCK
  5
6E
330
6D
100
AcDbEntity
  8
0
100
AcDbBlockBegin
  2
FXTIP_ARCHITECT_E
 70
     0
 71
     0
 10
0.0
 20
0.0
 30
0.0
  3
FXTIP_ARCHITECT_E
  1

  0
LINE
  5
70
330
6D
100
AcDbEntity
  8
0
  6
CONTINUOUS
 62
     0
100
AcDbLine
 10
0.0
 20
0.0
 30
0.0
 11
-1.0
 21
0.0
 31
0.0
  0
LINE
  5
71
330
6D
100
AcDbEntity
  8
0
  6
CONTINUOUS
 62
     0
100
AcDbLine
 10
0.0
 20
0.0
 30
0.0
 11
0.707107
 21
0.707107
 31
0.0
  0
LINE
  5
72
330
6D
100
AcDbEntity
  8
0
  6
CONTINUOUS
 62
     0
100
AcDbLine
 10
0.0
 20
0.0
 30
0.0
 11
-0.707107
 21
-0.707107
 31
0.0
  0
ENDBLK
  5
6F
330
6D
100
AcDbEntity
  8
0
100
AcDbBlockEnd
  0
BLOCK
  5
74
330
73
100
AcDbEntity
  8
0
100
AcDbBlockBegin
  2
FXTIP_CIVIL_S
 70
     0
 71
     0
 10
0.0
 20
0.0
 30
0.0
  3
FXTIP_CIVIL_S
  1

  0
LINE
  5
76
330
73
100
AcDbEntity
  8
0
  6
CONTINUOUS
 62
     0
100
AcDbLine
 10
0.0
 20
0.0
 30
0.0
 11
-1.0
 21
0.0
 31
0.0
  0
LINE
  5
77
330
73
100
AcDbEntity
  8
0
  6
CONTINUOUS
 62
     0
100
AcDbLine
 10
0.0
 20
-0.0625
 30
0.0
 11
-1.0
 21
-0.0625
 31
0.0
  0
LINE
  5
78
330
73
100
AcDbEntity
  8
0
  6
CONTINUOUS
 62
     0
100
AcDbLine
 10
0.0
 20
-0.125
 30
0.0
 11
-1.0
 21
-0.125
 31
0.0
  0
ENDBLK
  5
75
330
73
100
AcDbEntity
  8
0
100
AcDbBlockEnd
  0
BLOCK
  5
7A
330
79
100
AcDbEntity
  8
0
100
AcDbBlockBegin
  2
FXTIP_CIVIL_E
 70
     0
 71
     0
 10
0.0
 20
0.0
 30
0.0
  3
FXTIP_CIVIL_E
  1

  0
LINE
  5
7C
330
79
100
AcDbEntity
  8
0
  6
CONTINUOUS
 62
     0
100
AcDbLine
 10
0.0
 20
0.0
 30
0.0
 11
-1.0
 21
0.0
 31
0.0
  0
LINE
  5
7D
330
79
100
AcDbEntity
  8
0
  6
CONTINUOUS
 62
     0
100
AcDbLine
 10
0.0
 20
0.0625
 30
0.0
 11
-1.0
 21
0.0625
 31
0.0
  0
LINE
  5
7E
330
79
100
AcDbEntity
  8
0
  6
CONTINUOUS
 62
     0
100
AcDbLine
 10
0.0
 20
0.125
 30
0.0
 11
-1.0
 21
0.125
 31
0.0
  0
ENDBLK
  5
7B
330
79
100
AcDbEntity
  8
0
100
AcDbBlockEnd
  0
BLOCK
  5
80
330
7F
100
AcDbEntity
  8
0
100
AcDbBlockBegin
  2
FXTIP_WHITEDOT_S
 70
     0
 71
     0
 10
0.0
 20
0.0
 30
0.0
  3
FXTIP_WHITEDOT_S
  1

  0
LINE
  5
82
330
7F
100
AcDbEntity
  8
0
  6
CONTINUOUS
 62
     0
100
AcDbLine
 10
0.0
 20
0.0
 30
0.0
 11
-1.0
 21
0.0
 31
0.0
  0
CIRCLE
  5
83
330
7F
100
AcDbEntity
  8
0
  6
CONTINUOUS
 62
     0
100
AcDbCircle
 10
0.0
 20
0.0
 30
0.0
 40
0.5
  0
ENDBLK
  5
81
330
7F
100
AcDbEntity
  8
0
100
AcDbBlockEnd
  0
BLOCK
  5
85
330
84
100
AcDbEntity
  8
0
100
AcDbBlockBegin
  2
FXTIP_WHITEDOT_E
 70
     0
 71
     0
 10
0.0
 20
0.0
 30
0.0
  3
FXTIP_WHITEDOT_E
  1

  0
LINE
  5
87
330
84
100
AcDbEntity
  8
0
  6
CONTINUOUS
 62
     0
100
AcDbLine
 10
0.0
 20
0.0
 30
0.0
 11
-1.0
 21
0.0
 31
0.0
  0
CIRCLE
  5
88
330
84
100
AcDbEntity
  8
0
  6
CONTINUOUS
 62
     0
100
AcDbCircle
 10
0.0
 20
0.0
 30
0.0
 40
0.5
  0
ENDBLK
  5
86
330
84
100
AcDbEntity
  8
0
100
AcDbBlockEnd
  0
BLOCK
  5
8A
330
89
100
AcDbEntity
  8
0
100
AcDbBlockBegin
  2
FXTIP_UPARROW_S
 70
     0
 71
     0
 10
0.0
 20
0.0
 30
0.0
  3
FXTIP_UPARROW_S
  1

  0
LINE
  5
8C
330
89
100
AcDbEntity
  8
0
  6
CONTINUOUS
 62
     0
100
AcDbLine
 10
0.0
 20
0.0
 30
0.0
 11
-1.0
 21
0.0
 31
0.0
  0
LINE
  5
8D
330
89
100
AcDbEntity
  8
0
  6
CONTINUOUS
 62
     0
100
AcDbLine
 10
0.0
 20
0.0
 30
0.0
 11
-0.965926
 21
-0.258819
 31
0.0
  0
ENDBLK
  5
8B
330
89
100
AcDbEntity
  8
0
100
AcDbBlockEnd
  0
BLOCK
  5
8F
330
8E
100
AcDbEntity
  8
0
100
AcDbBlockBegin
  2
FXTIP_UPARROW_E
 70
     0
 71
     0
 10
0.0
 20
0.0
 30
0.0
  3
FXTIP_UPARROW_E
  1

  0
LINE
  5
91
330
8E
100
AcDbEntity
  8
0
  6
CONTINUOUS
 62
     0
100
AcDbLine
 10
0.0
 20
0.0
 30
0.0
 11
-1.0
 21
0.0
 31
0.0
  0
LINE
  5
92
330
8E
100
AcDbEntity
  8
0
  6
CONTINUOUS
 62
     0
100
AcDbLine
 10
0.0
 20
0.0
 30
0.0
 11
-0.965926
 21
0.258819
 31
0.0
  0
ENDBLK
  5
90
330
8E
100
AcDbEntity
  8
0
100
AcDbBlockEnd
  0
BLOCK
  5
94
330
93
100
AcDbEntity
  8
0
100
AcDbBlockBegin
  2
FXTIP_DOWNARROW_S
 70
     0
 71
     0
 10
0.0
 20
0.0
 30
0.0
  3
FXTIP_DOWNARROW_S
  1

  0
LINE
  5
96
330
93
100
AcDbEntity
  8
0
  6
CONTINUOUS
 62
     0
100
AcDbLine
 10
0.0
 20
0.0
 30
0.0
 11
-1.0
 21
0.0
 31
0.0
  0
LINE
  5
97
330
93
100
AcDbEntity
  8
0
  6
CONTINUOUS
 62
     0
100
AcDbLine
 10
0.0
 20
0.0
 30
0.0
 11
-0.965926
 21
0.258819
 31
0.0
  0
ENDBLK
  5
95
330
93
100
AcDbEntity
  8
0
100
AcDbBlockEnd
  0
BLOCK
  5
99
330
98
100
AcDbEntity
  8
0
100
AcDbBlockBegin
  2
FXTIP_DOWNARROW_E
 70
     0
 71
     0
 10
0.0
 20
0.0
 30
0.0
  3
FXTIP_DOWNARROW_E
  1

  0
LINE
  5
9B
330
98
100
AcDbEntity
  8
0
  6
CONTINUOUS
 62
     0
100
AcDbLine
 10
0.0
 20
0.0
 30
0.0
 11
-1.0
 21
0.0
 31
0.0
  0
LINE
  5
9C
330
98
100
AcDbEntity
  8
0
  6
CONTINUOUS
 62
     0
100
AcDbLine
 10
0.0
 20
0.0
 30
0.0
 11
-0.965926
 21
-0.258819
 31
0.0
  0
ENDBLK
  5
9A
330
98
100
AcDbEntity
  8
0
100
AcDbBlockEnd
  0
BLOCK
  5
9E
330
9D
100
AcDbEntity
  8
0
100
AcDbBlockBegin
  2
FXTIP_BLACKTRIANGLE_S
 70
     0
 71
     0
 10
0.0
 20
0.0
 30
0.0
  3
FXTIP_BLACKTRIANGLE_S
  1

  0
LINE
  5
A0
330
9D
100
AcDbEntity
  8
0
  6
CONTINUOUS
 62
     0
100
AcDbLine
 10
0.0
 20
0.0
 30
0.0
 11
-1.0
 21
0.0
 31
0.0
  0
SOLID
  5
A1
330
9D
100
AcDbEntity
  8
0
  6
CONTINUOUS
 62
     0
100
AcDbTrace
 10
0.0
 20
0.0
 30
0.0
 11
-0.965926
 21
-0.258819
 31
0.0
 12
-0.965926
 22
0.258819
 32
0.0
 13
-0.965926
 23
0.258819
 33
0.0
  0
ENDBLK
  5
9F
330
9D
100
AcDbEntity
  8
0
100
AcDbBlockEnd
  0
BLOCK
  5
A3
330
A2
100
AcDbEntity
  8
0
100
AcDbBlockBegin
  2
FXTIP_BLACKTRIANGLE_E
 70
     0
 71
     0
 10
0.0
 20
0.0
 30
0.0
  3
FXTIP_BLACKTRIANGLE_E
  1

  0
LINE
  5
A5
330
A2
100
AcDbEntity
  8
0
  6
CONTINUOUS
 62
     0
100
AcDbLine
 10
0.0
 20
0.0
 30
0.0
 11
-1.0
 21
0.0
 31
0.0
  0
SOLID
  5
A6
330
A2
100
AcDbEntity
  8
0
  6
CONTINUOUS
 62
     0
100
AcDbTrace
 10
0.0
 20
0.0
 30
0.0
 11
-0.965926
 21
0.258819
 31
0.0
 12
-0.965926
 22
-0.258819
 32
0.0
 13
-0.965926
 23
-0.258819
 33
0.0
  0
ENDBLK
  5
A4
330
A2
100
AcDbEntity
  8
0
100
AcDbBlockEnd
  0
BLOCK
  5
F1
330
F0
100
AcDbEntity
  8
0
100
AcDbBlockBegin
  2
*D19
 70
     1
 71
     0
 10
0.0
 20
0.0
 30
0.0
  3
*D19
  1

  0
TEXT
  5
F3
330
F0
100
AcDbEntity
  8
LAYERGROUP-1
  6
CONTINUOUS
 62
     7
100
AcDbText
 10
336.923065
 20
90.807693
 30
0.0
 40
4.0
  1
90
 50
90.0
 41
0.851351
  7
FX_VECTOR
 72
     5
 11
336.923065
 21
96.807693
 31
0.0
100
AcDbText
  0
LINE
  5
F4
330
F0
100
AcDbEntity
  8
LAYERGROUP-1
  6
CONTINUOUS
 62
     7
100
AcDbLine
 10
337.923077
 20
48.807692
 30
0.0
 11
337.923077
 21
138.807692
 31
0.0
  0
INSERT
  5
F5
330
F0
100
AcDbEntity
  8
LAYERGROUP-1
  6
CONTINUOUS
 62
     7
100
AcDbBlockReference
  2
FXTIP_ARROW_S
 10
337.923077
 20
48.807692
 30
0.0
 41
4.0
 42
4.0
 50
270.0
  0
INSERT
  5
F6
330
F0
100
AcDbEntity
  8
LAYERGROUP-1
  6
CONTINUOUS
 62
     7
100
AcDbBlockReference
  2
FXTIP_ARROW_E
 10
337.923077
 20
138.807692
 30
0.0
 41
4.0
 42
4.0
 50
90.0
  0
LINE
  5
F7
330
F0
100
AcDbEntity
  8
LAYERGROUP-1
  6
CONTINUOUS
 62
     7
100
AcDbLine
 10
262.923077
 20
48.807692
 30
0.0
 11
338.923077
 21
48.807692
 31
0.0
  0
LINE
  5
F8
330
F0
100
AcDbEntity
  8
LAYERGROUP-1
  6
CONTINUOUS
 62
     7
100
AcDbLine
 10
318.923077
 20
138.807692
 30
0.0
 11
338.923077
 21
138.807692
 31
0.0
  0
ENDBLK
  5
F2
330
F0
100
AcDbEntity
  8
0
100
AcDbBlockEnd
  0
BLOCK
  5
FB
330
FA
100
AcDbEntity
  8
0
100
AcDbBlockBegin
  2
*D20
 70
     1
 71
     0
 10
0.0
 20
0.0
 30
0.0
  3
*D20
  1

  0
TEXT
  5
FD
330
FA
100
AcDbEntity
  8
LAYERGROUP-1
  6
CONTINUOUS
 62
     7
100
AcDbText
 10
326.923065
 20
106.557693
 30
0.0
 40
4.0
  1
52.5
 50
90.0
 41
0.940299
  7
FX_VECTOR
 72
     5
 11
326.923065
 21
118.557693
 31
0.0
100
AcDbText
  0
LINE
  5
FE
330
FA
100
AcDbEntity
  8
LAYERGROUP-1
  6
CONTINUOUS
 62
     7
100
AcDbLine
 10
327.923077
 20
86.307692
 30
0.0
 11
327.923077
 21
138.807692
 31
0.0
  0
INSERT
  5
FF
330
FA
100
AcDbEntity
  8
LAYERGROUP-1
  6
CONTINUOUS
 62
     7
100
AcDbBlockReference
  2
FXTIP_ARROW_S
 10
327.923077
 20
86.307692
 30
0.0
 41
4.0
 42
4.0
 50
270.0
  0
INSERT
  5
100
330
FA
100
AcDbEntity
  8
LAYERGROUP-1
  6
CONTINUOUS
 62
     7
100
AcDbBlockReference
  2
FXTIP_ARROW_E
 10
327.923077
 20
138.807692
 30
0.0
 41
4.0
 42
4.0
 50
90.0
  0
LINE
  5
101
330
FA
100
AcDbEntity
  8
LAYERGROUP-1
  6
CONTINUOUS
 62
     7
100
AcDbLine
 10
302.692713
 20
86.307692
 30
0.0
 11
328.923077
 21
86.307692
 31
0.0
  0
ENDBLK
  5
FC
330
FA
100
AcDbEntity
  8
0
100
AcDbBlockEnd
  0
BLOCK
  5
110
330
10F
100
AcDbEntity
  8
0
100
AcDbBlockBegin
  2
*D21
 70
     1
 71
     0
 10
0.0
 20
0.0
 30
0.0
  3
*D21
  1

  0
TEXT
  5
112
330
10F
100
AcDbEntity
  8
LAYERGROUP-1
  6
CONTINUOUS
 62
     7
100
AcDbText
 10
269.423065
 20
39.807693
 30
0.0
 40
4.0
  1
21
 41
1.016129
  7
FX_VECTOR
 72
     5
 11
275.423065
 21
39.807693
 31
0.0
100
AcDbText
  0
LINE
  5
113
330
10F
100
AcDbEntity
  8
LAYERGROUP-1
  6
CONTINUOUS
 62
     7
100
AcDbLine
 10
261.923077
 20
38.807692
 30
0.0
 11
282.923077
 21
38.807692
 31
0.0
  0
INSERT
  5
114
330
10F
100
AcDbEntity
  8
LAYERGROUP-1
  6
CONTINUOUS
 62
     7
100
AcDbBlockReference
  2
FXTIP_ARROW_S
 10
261.923077
 20
38.807692
 30
0.0
 41
4.0
 42
4.0
 50
180.0
  0
INSERT
  5
115
330
10F
100
AcDbEntity
  8
LAYERGROUP-1
  6
CONTINUOUS
 62
     7
100
AcDbBlockReference
  2
FXTIP_ARROW_E
 10
282.923077
 20
38.807692
 30
0.0
 41
4.0
 42
4.0
 50
360.0
  0
LINE
  5
116
330
10F
100
AcDbEntity
  8
LAYERGROUP-1
  6
CONTINUOUS
 62
     7
100
AcDbLine
 10
261.923077
 20
43.74788
 30
0.0
 11
261.923077
 21
37.807692
 31
0.0
  0
LINE
  5
117
330
10F
100
AcDbEntity
  8
LAYERGROUP-1
  6
CONTINUOUS
 62
     7
100
AcDbLine
 10
282.923077
 20
91.997571
 30
0.0
 11
282.923077
 21
37.807692
 31
0.0
  0
ENDBLK
  5
111
330
10F
100
AcDbEntity
  8
0
100
AcDbBlockEnd
  0
BLOCK
  5
11B
330
11A
100
AcDbEntity
  8
0
100
AcDbBlockBegin
  2
*D22
 70
     1
 71
     0
 10
0.0
 20
0.0
 30
0.0
  3
*D22
  1

  0
TEXT
  5
11D
330
11A
100
AcDbEntity
  8
LAYERGROUP-1
  6
CONTINUOUS
 62
     7
100
AcDbText
 10
105.723824
 20
81.807693
 30
0.0
 40
4.0
  1
%%c75
 50
90.0
 41
0.84375
  7
FX_VECTOR
 72
     5
 11
105.723824
 21
90.807693
 31
0.0
100
AcDbText
  0
LINE
  5
11E
330
11A
100
AcDbEntity
  8
LAYERGROUP-1
  6
CONTINUOUS
 62
     7
100
AcDbLine
 10
106.723823
 20
48.807692
 30
0.0
 11
106.723823
 21
123.807692
 31
0.0
  0
INSERT
  5
11F
330
11A
100
AcDbEntity
  8
LAYERGROUP-1
  6
CONTINUOUS
 62
     7
100
AcDbBlockReference
  2
FXTIP_ARROW_S
 10
106.723823
 20
48.807692
 30
0.0
 41
4.0
 42
4.0
 50
270.0
  0
INSERT
  5
120
330
11A
100
AcDbEntity
  8
LAYERGROUP-1
  6
CONTINUOUS
 62
     7
100
AcDbBlockReference
  2
FXTIP_ARROW_E
 10
106.723823
 20
123.807692
 30
0.0
 41
4.0
 42
4.0
 50
90.0
  0
LINE
  5
121
330
11A
100
AcDbEntity
  8
LAYERGROUP-1
  6
CONTINUOUS
 62
     7
100
AcDbLine
 10
139.623077
 20
48.807692
 30
0.0
 11
105.723823
 21
48.807692
 31
0.0
  0
LINE
  5
122
330
11A
100
AcDbEntity
  8
LAYERGROUP-1
  6
CONTINUOUS
 62
     7
100
AcDbLine
 10
139.623077
 20
123.807692
 30
0.0
 11
105.723823
 21
123.807692
 31
0.0
  0
ENDBLK
  5
11C
330
11A
100
AcDbEntity
  8
0
100
AcDbBlockEnd
  0
BLOCK
  5
16D
330
16C
100
AcDbEntity
  8
0
100
AcDbBlockBegin
  2
*D23
 70
     1
 71
     0
 10
0.0
 20
0.0
 30
0.0
  3
*D23
  1

  0
TEXT
  5
16F
330
16C
100
AcDbEntity
  8
GR1-1
  6
CONTINUOUS
 62
     7
100
AcDbText
 10
337.078217
 20
227.710678
 30
0.0
 40
4.0
  1
58
 50
90.0
 41
0.851351
  7
FX_VECTOR
 72
     5
 11
337.078217
 21
233.710678
 31
0.0
100
AcDbText
  0
LINE
  5
170
330
16C
100
AcDbEntity
  8
GR1-1
  6
CONTINUOUS
 62
     7
100
AcDbLine
 10
310.923077
 20
201.710677
 30
0.0
 11
339.07824
 21
201.710677
 31
0.0
  0
LINE
  5
171
330
16C
100
AcDbEntity
  8
GR1-1
  6
CONTINUOUS
 62
     7
100
AcDbLine
 10
310.923077
 20
259.710677
 30
0.0
 11
339.07824
 21
259.710677
 31
0.0
  0
LINE
  5
172
330
16C
100
AcDbEntity
  8
GR1-1
  6
CONTINUOUS
 62
     7
100
AcDbLine
 10
338.07824
 20
201.710677
 30
0.0
 11
338.07824
 21
259.710677
 31
0.0
  0
INSERT
  5
173
330
16C
100
AcDbEntity
  8
GR1-1
  6
CONTINUOUS
 62
     7
100
AcDbBlockReference
  2
FXTIP_ARROW_S
 10
338.07824
 20
201.710677
 30
0.0
 41
4.0
 42
4.0
 50
270.0
  0
INSERT
  5
174
330
16C
100
AcDbEntity
  8
GR1-1
  6
CONTINUOUS
 62
     7
100
AcDbBlockReference
  2
FXTIP_ARROW_E
 10
338.07824
 20
259.710677
 30
0.0
 41
4.0
 42
4.0
 50
90.0
  0
ENDBLK
  5
16E
330
16C
100
AcDbEntity
  8
0
100
AcDbBlockEnd
  0
BLOCK
  5
177
330
176
100
AcDbEntity
  8
0
100
AcDbBlockBegin
  2
*D24
 70
     1
 71
     0
 10
0.0
 20
0.0
 30
0.0
  3
*D24
  1

  0
TEXT
  5
179
330
176
100
AcDbEntity
  8
GR1-1
  6
CONTINUOUS
 62
     7
100
AcDbText
 10
327.078217
 20
227.710678
 30
0.0
 40
4.0
  1
42
 50
90.0
 41
0.851351
  7
FX_VECTOR
 72
     5
 11
327.078217
 21
233.710678
 31
0.0
100
AcDbText
  0
LINE
  5
17A
330
176
100
AcDbEntity
  8
GR1-1
  6
CONTINUOUS
 62
     7
100
AcDbLine
 10
319.423077
 20
209.710677
 30
0.0
 11
329.07824
 21
209.710677
 31
0.0
  0
LINE
  5
17B
330
176
100
AcDbEntity
  8
GR1-1
  6
CONTINUOUS
 62
     7
100
AcDbLine
 10
318.923077
 20
251.710677
 30
0.0
 11
329.07824
 21
251.710677
 31
0.0
  0
LINE
  5
17C
330
176
100
AcDbEntity
  8
GR1-1
  6
CONTINUOUS
 62
     7
100
AcDbLine
 10
328.07824
 20
209.710677
 30
0.0
 11
328.07824
 21
251.710677
 31
0.0
  0
INSERT
  5
17D
330
176
100
AcDbEntity
  8
GR1-1
  6
CONTINUOUS
 62
     7
100
AcDbBlockReference
  2
FXTIP_ARROW_S
 10
328.07824
 20
209.710677
 30
0.0
 41
4.0
 42
4.0
 50
270.0
  0
INSERT
  5
17E
330
176
100
AcDbEntity
  8
GR1-1
  6
CONTINUOUS
 62
     7
100
AcDbBlockReference
  2
FXTIP_ARROW_E
 10
328.07824
 20
251.710677
 30
0.0
 41
4.0
 42
4.0
 50
90.0
  0
ENDBLK
  5
178
330
176
100
AcDbEntity
  8
0
100
AcDbBlockEnd
  0
BLOCK
  5
1C1
330
1C0
100
AcDbEntity
  8
0
100
AcDbBlockBegin
  2
*D25
 70
     1
 71
     0
 10
0.0
 20
0.0
 30
0.0
  3
*D25
  1

  0
TEXT
  5
1C3
330
1C0
100
AcDbEntity
  8
LAYERGROUP-1
  6
CONTINUOUS
 62
     7
100
AcDbText
 10
232.725839
 20
269.709247
 30
0.0
 40
4.0
  1
4-%%c8.8
 50
323.564449
 41
0.84375
  7
FX_VECTOR
 72
     5
 11
247.207297
 21
259.018719
 31
0.0
100
AcDbText
  0
LINE
  5
1C4
330
1C0
100
AcDbEntity
  8
LAYERGROUP-1
  6
CONTINUOUS
 62
     7
100
AcDbLine
 10
251.883165
 20
254.323918
 30
0.0
 11
258.962989
 21
249.097437
 31
0.0
  0
LINE
  5
1C5
330
1C0
100
AcDbEntity
  8
LAYERGROUP-1
  6
CONTINUOUS
 62
     7
100
AcDbLine
 10
251.883165
 20
254.323918
 30
0.0
 11
226.862124
 21
272.794996
 31
0.0
  0
INSERT
  5
1C6
330
1C0
100
AcDbEntity
  8
LAYERGROUP-1
  6
CONTINUOUS
 62
     7
100
AcDbBlockReference
  2
FXTIP_ARROW_S
 10
251.883165
 20
254.323918
 30
0.0
 41
4.0
 42
4.0
 50
323.564447
  0
LINE
  5
1C7
330
1C0
100
AcDbEntity
  8
LAYERGROUP-1
  6
CONTINUOUS
 62
     7
100
AcDbLine
 10
258.962989
 20
249.097437
 30
0.0
 11
263.790141
 21
245.533928
 31
0.0
  0
INSERT
  5
1C8
330
1C0
100
AcDbEntity
  8
LAYERGROUP-1
  6
CONTINUOUS
 62
     7
100
AcDbBlockReference
  2
FXTIP_ARROW_S
 10
258.962989
 20
249.097437
 30
0.0
 41
4.0
 42
4.0
 50
143.564447
  0
ENDBLK
  5
1C2
330
1C0
100
AcDbEntity
  8
0
100
AcDbBlockEnd
  0
BLOCK
  5
1CB
330
1CA
100
AcDbEntity
  8
0
100
AcDbBlockBegin
  2
*D26
 70
     1
 71
     0
 10
0.0
 20
0.0
 30
0.0
  3
*D26
  1

  0
TEXT
  5
1CD
330
1CA
100
AcDbEntity
  8
GR1-1
  6
CONTINUOUS
 62
     7
100
AcDbText
 10
279.923065
 20
170.210678
 30
0.0
 40
4.0
  1
70
 41
0.851351
  7
FX_VECTOR
 72
     5
 11
285.923065
 21
170.210678
 31
0.0
100
AcDbText
  0
LINE
  5
1CE
330
1CA
100
AcDbEntity
  8
GR1-1
  6
CONTINUOUS
 62
     7
100
AcDbLine
 10
247.923077
 20
169.210677
 30
0.0
 11
317.923077
 21
169.210677
 31
0.0
  0
INSERT
  5
1CF
330
1CA
100
AcDbEntity
  8
GR1-1
  6
CONTINUOUS
 62
     7
100
AcDbBlockReference
  2
FXTIP_ARROW_S
 10
247.923077
 20
169.210677
 30
0.0
 41
4.0
 42
4.0
 50
180.0
  0
INSERT
  5
1D0
330
1CA
100
AcDbEntity
  8
GR1-1
  6
CONTINUOUS
 62
     7
100
AcDbBlockReference
  2
FXTIP_ARROW_E
 10
317.923077
 20
169.210677
 30
0.0
 41
4.0
 42
4.0
 50
360.0
  0
LINE
  5
1D1
330
1CA
100
AcDbEntity
  8
GR1-1
  6
CONTINUOUS
 62
     7
100
AcDbLine
 10
247.923077
 20
208.710677
 30
0.0
 11
247.923077
 21
168.210677
 31
0.0
  0
LINE
  5
1D2
330
1CA
100
AcDbEntity
  8
GR1-1
  6
CONTINUOUS
 62
     7
100
AcDbLine
 10
317.923077
 20
208.710677
 30
0.0
 11
317.923077
 21
168.210677
 31
0.0
  0
ENDBLK
  5
1CC
330
1CA
100
AcDbEntity
  8
0
100
AcDbBlockEnd
  0
BLOCK
  5
1D5
330
1D4
100
AcDbEntity
  8
0
100
AcDbBlockBegin
  2
*D27
 70
     1
 71
     0
 10
0.0
 20
0.0
 30
0.0
  3
*D27
  1

  0
TEXT
  5
1D7
330
1D4
100
AcDbEntity
  8
GR1-1
  6
CONTINUOUS
 62
     7
100
AcDbText
 10
279.923065
 20
180.210678
 30
0.0
 40
4.0
  1
55
 41
0.851351
  7
FX_VECTOR
 72
     5
 11
285.923065
 21
180.210678
 31
0.0
100
AcDbText
  0
LINE
  5
1D8
330
1D4
100
AcDbEntity
  8
GR1-1
  6
CONTINUOUS
 62
     7
100
AcDbLine
 10
255.423077
 20
179.210677
 30
0.0
 11
310.423077
 21
179.210677
 31
0.0
  0
INSERT
  5
1D9
330
1D4
100
AcDbEntity
  8
GR1-1
  6
CONTINUOUS
 62
     7
100
AcDbBlockReference
  2
FXTIP_ARROW_S
 10
255.423077
 20
179.210677
 30
0.0
 41
4.0
 42
4.0
 50
180.0
  0
INSERT
  5
1DA
330
1D4
100
AcDbEntity
  8
GR1-1
  6
CONTINUOUS
 62
     7
100
AcDbBlockReference
  2
FXTIP_ARROW_E
 10
310.423077
 20
179.210677
 30
0.0
 41
4.0
 42
4.0
 50
360.0
  0
LINE
  5
1DB
330
1D4
100
AcDbEntity
  8
GR1-1
  6
CONTINUOUS
 62
     7
100
AcDbLine
 10
255.423077
 20
200.710677
 30
0.0
 11
255.423077
 21
178.210677
 31
0.0
  0
LINE
  5
1DC
330
1D4
100
AcDbEntity
  8
GR1-1
  6
CONTINUOUS
 62
     7
100
AcDbLine
 10
310.423077
 20
200.710677
 30
0.0
 11
310.423077
 21
178.210677
 31
0.0
  0
ENDBLK
  5
1D6
330
1D4
100
AcDbEntity
  8
0
100
AcDbBlockEnd
  0
BLOCK
  5
202
330
201
100
AcDbEntity
  8
0
100
AcDbBlockBegin
  2
*D28
 70
     1
 71
     0
 10
0.0
 20
0.0
 30
0.0
  3
*D28
  1

  0
TEXT
  5
204
330
201
100
AcDbEntity
  8
LAYERGROUP-1
  6
CONTINUOUS
 62
     7
100
AcDbText
 10
137.42308
 20
38.810947
 30
0.0
 40
4.0
  1
25
 41
0.851351
  7
FX_VECTOR
 72
     5
 11
143.42308
 21
38.810947
 31
0.0
100
AcDbText
  0
LINE
  5
205
330
201
100
AcDbEntity
  8
LAYERGROUP-1
  6
CONTINUOUS
 62
     7
100
AcDbLine
 10
127.923077
 20
37.810948
 30
0.0
 11
152.923077
 21
37.810948
 31
0.0
  0
INSERT
  5
206
330
201
100
AcDbEntity
  8
LAYERGROUP-1
  6
CONTINUOUS
 62
     7
100
AcDbBlockReference
  2
FXTIP_ARROW_S
 10
127.923077
 20
37.810948
 30
0.0
 41
4.0
 42
4.0
 50
180.0
  0
INSERT
  5
207
330
201
100
AcDbEntity
  8
LAYERGROUP-1
  6
CONTINUOUS
 62
     7
100
AcDbBlockReference
  2
FXTIP_ARROW_E
 10
152.923077
 20
37.810948
 30
0.0
 41
4.0
 42
4.0
 50
360.0
  0
LINE
  5
208
330
201
100
AcDbEntity
  8
LAYERGROUP-1
  6
CONTINUOUS
 62
     7
100
AcDbLine
 10
127.923077
 20
50.517654
 30
0.0
 11
127.923077
 21
36.810948
 31
0.0
  0
LINE
  5
209
330
201
100
AcDbEntity
  8
LAYERGROUP-1
  6
CONTINUOUS
 62
     7
100
AcDbLine
 10
152.923077
 20
50.517654
 30
0.0
 11
152.923077
 21
36.810948
 31
0.0
  0
ENDBLK
  5
203
330
201
100
AcDbEntity
  8
0
100
AcDbBlockEnd
  0
BLOCK
  5
20C
330
20B
100
AcDbEntity
  8
0
100
AcDbBlockBegin
  2
*D29
 70
     1
 71
     0
 10
0.0
 20
0.0
 30
0.0
  3
*D29
  1

  0
TEXT
  5
20E
330
20B
100
AcDbEntity
  8
LAYERGROUP-1
  6
CONTINUOUS
 62
     7
100
AcDbText
 10
137.42308
 20
29.699495
 30
0.0
 40
4.0
  1
30
 41
0.851351
  7
FX_VECTOR
 72
     5
 11
143.42308
 21
29.699495
 31
0.0
100
AcDbText
  0
LINE
  5
20F
330
20B
100
AcDbEntity
  8
LAYERGROUP-1
  6
CONTINUOUS
 62
     7
100
AcDbLine
 10
125.423077
 20
28.699494
 30
0.0
 11
155.423077
 21
28.699494
 31
0.0
  0
INSERT
  5
210
330
20B
100
AcDbEntity
  8
LAYERGROUP-1
  6
CONTINUOUS
 62
     7
100
AcDbBlockReference
  2
FXTIP_ARROW_S
 10
125.423077
 20
28.699494
 30
0.0
 41
4.0
 42
4.0
 50
180.0
  0
INSERT
  5
211
330
20B
100
AcDbEntity
  8
LAYERGROUP-1
  6
CONTINUOUS
 62
     7
100
AcDbBlockReference
  2
FXTIP_ARROW_E
 10
155.423077
 20
28.699494
 30
0.0
 41
4.0
 42
4.0
 50
360.0
  0
LINE
  5
212
330
20B
100
AcDbEntity
  8
LAYERGROUP-1
  6
CONTINUOUS
 62
     7
100
AcDbLine
 10
125.423077
 20
69.247277
 30
0.0
 11
125.423077
 21
27.699494
 31
0.0
  0
LINE
  5
213
330
20B
100
AcDbEntity
  8
LAYERGROUP-1
  6
CONTINUOUS
 62
     7
100
AcDbLine
 10
155.423077
 20
72.307692
 30
0.0
 11
155.423077
 21
27.699494
 31
0.0
  0
ENDBLK
  5
20D
330
20B
100
AcDbEntity
  8
0
100
AcDbBlockEnd
  0
BLOCK
  5
23C
330
23B
100
AcDbEntity
  8
0
100
AcDbBlockBegin
  2
*D30
 70
     1
 71
     0
 10
0.0
 20
0.0
 30
0.0
  3
*D30
  1

  0
TEXT
  5
23E
330
23B
100
AcDbEntity
  8
LAYERGROUP-1
  6
CONTINUOUS
 62
     7
100
AcDbText
 10
216.25904
 20
207.558017
 30
0.0
 40
4.0
  1
R57
 50
19.964226
 41
0.814655
  7
FX_VECTOR
 72
     5
 11
224.718194
 21
210.630917
 31
0.0
100
AcDbText
  0
LINE
  5
23F
330
23B
100
AcDbEntity
  8
LAYERGROUP-1
  6
CONTINUOUS
 62
     7
100
AcDbLine
 10
228.995667
 20
211.120828
 30
0.0
 11
282.923077
 21
230.710677
 31
0.0
  0
LINE
  5
240
330
23B
100
AcDbEntity
  8
LAYERGROUP-1
  6
CONTINUOUS
 62
     7
100
AcDbLine
 10
228.995667
 20
211.120828
 30
0.0
 11
212.664431
 21
205.188289
 31
0.0
  0
INSERT
  5
241
330
23B
100
AcDbEntity
  8
LAYERGROUP-1
  6
CONTINUOUS
 62
     7
100
AcDbBlockReference
  2
FXTIP_ARROW_S
 10
228.995667
 20
211.120828
 30
0.0
 41
4.0
 42
4.0
 50
19.964226
  0
ENDBLK
  5
23D
330
23B
100
AcDbEntity
  8
0
100
AcDbBlockEnd
  0
BLOCK
  5
243
330
242
100
AcDbEntity
  8
0
100
AcDbBlockBegin
  2
BLKF033
 70
     0
 71
     0
 10
0.0
 20
0.0
 30
0.0
  3
BLKF033
  1

  0
LINE
  5
246
330
242
100
AcDbEntity
  8
}}ﾊﾊGG血CCТ
  6
CONTINUOUS
 62
     7
100
AcDbLine
 10
10.0
 20
10.0
 30
0.0
 11
410.0
 21
10.0
 31
0.0
  0
LINE
  5
247
330
242
100
AcDbEntity
  8
}}ﾊﾊGG血CCТ
  6
CONTINUOUS
 62
     7
100
AcDbLine
 10
10.0
 20
10.0
 30
0.0
 11
10.0
 21
287.0
 31
0.0
  0
LINE
  5
248
330
242
100
AcDbEntity
  8
}}ﾊﾊGG血CCТ
  6
CONTINUOUS
 62
     7
100
AcDbLine
 10
10.0
 20
287.0
 30
0.0
 11
410.0
 21
287.0
 31
0.0
  0
LINE
  5
249
330
242
100
AcDbEntity
  8
}}ﾊﾊGG血CCТ
  6
CONTINUOUS
 62
     7
100
AcDbLine
 10
410.0
 20
287.0
 30
0.0
 11
410.0
 21
10.0
 31
0.0
  0
LINE
  5
24A
330
242
100
AcDbEntity
  8
}}ﾊﾊGG血CCТ
  6
CONTINUOUS
 62
     7
100
AcDbLine
 10
153.0
 20
10.0
 30
0.0
 11
153.0
 21
20.0
 31
0.0
  0
TEXT
  5
24B
330
242
100
AcDbEntity
  8
}}ﾊﾊGG血CCТ
  6
CONTINUOUS
 62
     7
100
AcDbText
 10
137.738815
 20
11.596879
 30
0.0
 40
6.648749
  1
品名
 41
1.083413
  7
FX_VECTOR
 72
     5
 11
149.058355
 21
11.596879
 31
0.0
100
AcDbText
  0
LINE
  5
24C
330
242
100
AcDbEntity
  8
}}ﾊﾊGG血CCТ
  6
CONTINUOUS
 62
     7
100
AcDbLine
 10
233.0
 20
20.0
 30
0.0
 11
233.0
 21
10.0
 31
0.0
  0
LINE
  5
24D
330
242
100
AcDbEntity
  8
}}ﾊﾊGG血CCТ
  6
CONTINUOUS
 62
     7
100
AcDbLine
 10
133.0
 20
20.0
 30
0.0
 11
410.0
 21
20.0
 31
0.0
  0
INSERT
  5
251
330
242
100
AcDbEntity
  8
0
100
AcDbBlockReference
  2
BLKF034
 10
0.0
 20
0.0
 30
0.0
  0
INSERT
  5
25A
330
242
100
AcDbEntity
  8
0
100
AcDbBlockReference
  2
BLKF035
 10
0.0
 20
0.0
 30
0.0
  0
HATCH
  5
26A
330
242
100
AcDbEntity
  8
GR1-1
  6
CONTINUOUS
 62
     7
100
AcDbHatch
 10
0.0
 20
0.0
 30
0.0
210
0.0
220
0.0
230
1.0
  2

 70
     0
 71
     1
 91
        2
 92
        0
 93
        4
 72
     1
 10
338.8018997861325
 20
17.91346152
 11
344.8018997861325
 21
17.91346152
 72
     1
 10
344.8018997861325
 20
17.91346152
 11
344.8018997861325
 21
11.91346152
 72
     1
 10
344.8018997861325
 20
11.91346152
 11
338.8018997861325
 21
11.91346152
 72
     1
 10
338.8018997861325
 20
11.91346152
 11
338.8018997861325
 21
17.91346152
 97
        0
 92
        0
 93
       15
 72
     1
 10
341.8018997861325
 20
17.76923076000002
 11
338.9461305461325
 21
14.91346152
 72
     1
 10
338.9461305461325
 20
14.91346152
 11
341.8018997861325
 21
12.05769228000001
 72
     1
 10
341.8018997861325
 20
12.05769228000001
 11
343.3595920661325
 21
13.61538462
 72
     1
 10
343.3595920661325
 20
13.61538462
 11
343.3595920661325
 21
12.98076924
 72
     1
 10
343.3595920661325
 20
12.98076924
 11
344.2249766861325
 21
12.98076924
 72
     1
 10
344.2249766861325
 20
12.98076924
 11
344.2249766861325
 21
15.00000000000001
 72
     1
 10
344.2249766861325
 20
15.00000000000001
 11
341.8018997861325
 21
15.00000000000001
 72
     1
 10
341.8018997861325
 20
15.00000000000001
 11
341.8018997861325
 21
14.13461538000001
 72
     1
 10
341.8018997861325
 20
14.13461538000001
 11
342.2461305461325
 21
14.13461538000001
 72
     1
 10
342.2461305461325
 20
14.13461538000001
 11
341.8018997861325
 21
13.69038462
 72
     1
 10
341.8018997861325
 20
13.69038462
 11
340.5788228861325
 21
14.91346152
 72
     1
 10
340.5788228861325
 20
14.91346152
 11
341.8018997861325
 21
16.13653842000003
 72
     1
 10
341.8018997861325
 20
16.13653842000003
 11
342.5922844061325
 21
15.3461538
 72
     1
 10
342.5922844061325
 20
15.3461538
 11
344.2249766861325
 21
15.3461538
 72
     1
 10
344.2249766861325
 20
15.3461538
 11
341.8018997861325
 21
17.76923076000002
 97
        0
 75
     0
 76
     0
 52
45.0
 41
0.05
 77
     0
 78
     1
 53
45.0
 43
0.0
 44
0.0
 45
-0.0353553390593274
 46
0.0353553390593274
 79
     0
 98
        0
  0
TEXT
  5
26B
330
242
100
AcDbEntity
  8
}}ﾊﾊGG血CCТ
  6
CONTINUOUS
 62
     7
100
AcDbText
 10
349.225769
 20
11.461285
 30
0.0
 40
7.170908
  1
GOLD CASTER
 41
0.63978
  7
FX_VECTOR
 72
     5
 11
395.977636
 21
11.461285
 31
0.0
100
AcDbText
  0
LINE
  5
26C
330
242
100
AcDbEntity
  8
}}ﾊﾊGG血CCТ
  6
CONTINUOUS
 62
     7
100
AcDbLine
 10
253.0
 20
10.0
 30
0.0
 11
253.0
 21
20.0
 31
0.0
  0
TEXT
  5
26D
330
242
100
AcDbEntity
  8
}}ﾊﾊGG血CCТ
  6
CONTINUOUS
 62
     7
100
AcDbText
 10
237.738815
 20
11.596879
 30
0.0
 40
6.648749
  1
図番
 41
1.083413
  7
FX_VECTOR
 72
     5
 11
249.058355
 21
11.596879
 31
0.0
100
AcDbText
  0
LINE
  5
26E
330
242
100
AcDbEntity
  8
}}ﾊﾊGG血CCТ
  6
CONTINUOUS
 62
     7
100
AcDbLine
 10
333.0
 20
20.0
 30
0.0
 11
333.0
 21
10.0
 31
0.0
  0
LINE
  5
26F
330
242
100
AcDbEntity
  8
}}ﾊﾊGG血CCТ
  6
CONTINUOUS
 62
     7
100
AcDbLine
 10
133.0
 20
20.0
 30
0.0
 11
133.0
 21
10.0
 31
0.0
  0
ENDBLK
  5
244
330
242
100
AcDbEntity
  8
0
100
AcDbBlockEnd
  0
BLOCK
  5
24F
330
24E
100
AcDbEntity
  8
0
100
AcDbBlockBegin
  2
BLKF034
 70
     0
 71
     0
 10
0.0
 20
0.0
 30
0.0
  3
BLKF034
  1

  0
LINE
  5
253
330
24E
100
AcDbEntity
  8
0-1
  6
CONTINUOUS
 62
     7
100
AcDbLine
 10
344.8019
 20
17.913462
 30
0.0
 11
338.8019
 21
17.913462
 31
0.0
  0
LINE
  5
254
330
24E
100
AcDbEntity
  8
0-1
  6
CONTINUOUS
 62
     7
100
AcDbLine
 10
338.8019
 20
17.913462
 30
0.0
 11
338.8019
 21
11.913462
 31
0.0
  0
LINE
  5
255
330
24E
100
AcDbEntity
  8
0-1
  6
CONTINUOUS
 62
     7
100
AcDbLine
 10
338.8019
 20
11.913462
 30
0.0
 11
344.8019
 21
11.913462
 31
0.0
  0
LINE
  5
256
330
24E
100
AcDbEntity
  8
0-1
  6
CONTINUOUS
 62
     7
100
AcDbLine
 10
344.8019
 20
11.913462
 30
0.0
 11
344.8019
 21
17.913462
 31
0.0
  0
ENDBLK
  5
250
330
24E
100
AcDbEntity
  8
0
100
AcDbBlockEnd
  0
BLOCK
  5
258
330
257
100
AcDbEntity
  8
0
100
AcDbBlockBegin
  2
BLKF035
 70
     0
 71
     0
 10
0.0
 20
0.0
 30
0.0
  3
BLKF035
  1

  0
LINE
  5
25B
330
257
100
AcDbEntity
  8
0-1
  6
CONTINUOUS
 62
     7
100
AcDbLine
 10
344.224977
 20
15.346154
 30
0.0
 11
341.8019
 21
17.769231
 31
0.0
  0
LINE
  5
25C
330
257
100
AcDbEntity
  8
0-1
  6
CONTINUOUS
 62
     7
100
AcDbLine
 10
341.8019
 20
17.769231
 30
0.0
 11
338.946131
 21
14.913462
 31
0.0
  0
LINE
  5
25D
330
257
100
AcDbEntity
  8
0-1
  6
CONTINUOUS
 62
     7
100
AcDbLine
 10
338.946131
 20
14.913462
 30
0.0
 11
341.8019
 21
12.057692
 31
0.0
  0
LINE
  5
25E
330
257
100
AcDbEntity
  8
0-1
  6
CONTINUOUS
 62
     7
100
AcDbLine
 10
341.8019
 20
12.057692
 30
0.0
 11
343.359592
 21
13.615385
 31
0.0
  0
LINE
  5
25F
330
257
100
AcDbEntity
  8
0-1
  6
CONTINUOUS
 62
     7
100
AcDbLine
 10
343.359592
 20
13.615385
 30
0.0
 11
343.359592
 21
12.980769
 31
0.0
  0
LINE
  5
260
330
257
100
AcDbEntity
  8
0-1
  6
CONTINUOUS
 62
     7
100
AcDbLine
 10
343.359592
 20
12.980769
 30
0.0
 11
344.224977
 21
12.980769
 31
0.0
  0
LINE
  5
261
330
257
100
AcDbEntity
  8
0-1
  6
CONTINUOUS
 62
     7
100
AcDbLine
 10
344.224977
 20
12.980769
 30
0.0
 11
344.224977
 21
15.0
 31
0.0
  0
LINE
  5
262
330
257
100
AcDbEntity
  8
0-1
  6
CONTINUOUS
 62
     7
100
AcDbLine
 10
344.224977
 20
15.0
 30
0.0
 11
341.8019
 21
15.0
 31
0.0
  0
LINE
  5
263
330
257
100
AcDbEntity
  8
0-1
  6
CONTINUOUS
 62
     7
100
AcDbLine
 10
341.8019
 20
15.0
 30
0.0
 11
341.8019
 21
14.134615
 31
0.0
  0
LINE
  5
264
330
257
100
AcDbEntity
  8
0-1
  6
CONTINUOUS
 62
     7
100
AcDbLine
 10
341.8019
 20
14.134615
 30
0.0
 11
342.246131
 21
14.134615
 31
0.0
  0
LINE
  5
265
330
257
100
AcDbEntity
  8
0-1
  6
CONTINUOUS
 62
     7
100
AcDbLine
 10
342.246131
 20
14.134615
 30
0.0
 11
341.8019
 21
13.690385
 31
0.0
  0
LINE
  5
266
330
257
100
AcDbEntity
  8
0-1
  6
CONTINUOUS
 62
     7
100
AcDbLine
 10
341.8019
 20
13.690385
 30
0.0
 11
340.578823
 21
14.913462
 31
0.0
  0
LINE
  5
267
330
257
100
AcDbEntity
  8
0-1
  6
CONTINUOUS
 62
     7
100
AcDbLine
 10
340.578823
 20
14.913462
 30
0.0
 11
341.8019
 21
16.136538
 31
0.0
  0
LINE
  5
268
330
257
100
AcDbEntity
  8
0-1
  6
CONTINUOUS
 62
     7
100
AcDbLine
 10
341.8019
 20
16.136538
 30
0.0
 11
342.592284
 21
15.346154
 31
0.0
  0
LINE
  5
269
330
257
100
AcDbEntity
  8
0-1
  6
CONTINUOUS
 62
     7
100
AcDbLine
 10
342.592284
 20
15.346154
 30
0.0
 11
344.224977
 21
15.346154
 31
0.0
  0
ENDBLK
  5
259
330
257
100
AcDbEntity
  8
0
100
AcDbBlockEnd
  0
BLOCK
  5
28B
330
28A
100
AcDbEntity
  8
0
100
AcDbBlockBegin
  2
BLKF036
 70
     0
 71
     0
 10
0.0
 20
0.0
 30
0.0
  3
BLKF036
  1

  0
LINE
  5
28E
330
28A
100
AcDbEntity
  8
GR1-1
  6
CONTINUOUS
 62
     7
100
AcDbLine
 10
243.290156
 20
60.311523
 30
0.0
 11
243.074977
 21
60.265719
 31
0.0
  0
LINE
  5
28F
330
28A
100
AcDbEntity
  8
GR1-1
  6
CONTINUOUS
 62
     7
100
AcDbLine
 10
243.420647
 20
60.226836
 30
0.0
 11
242.99029
 21
60.135227
 31
0.0
  0
LINE
  5
290
330
28A
100
AcDbEntity
  8
GR1-1
  6
CONTINUOUS
 62
     7
100
AcDbLine
 10
243.551139
 20
60.142149
 30
0.0
 11
242.905603
 21
60.004735
 31
0.0
  0
LINE
  5
291
330
28A
100
AcDbEntity
  8
GR1-1
  6
CONTINUOUS
 62
     7
100
AcDbLine
 10
243.681631
 20
60.057462
 30
0.0
 11
242.820915
 21
59.874244
 31
0.0
  0
LINE
  5
292
330
28A
100
AcDbEntity
  8
GR1-1
  6
CONTINUOUS
 62
     7
100
AcDbLine
 10
243.812123
 20
59.972775
 30
0.0
 11
243.069853
 21
59.81477
 31
0.0
  0
LINE
  5
293
330
28A
100
AcDbEntity
  8
GR1-1
  6
CONTINUOUS
 62
     7
100
AcDbLine
 10
242.866756
 20
59.771537
 30
0.0
 11
242.736228
 21
59.743752
 31
0.0
  0
LINE
  5
294
330
28A
100
AcDbEntity
  8
GR1-1
  6
CONTINUOUS
 62
     7
100
AcDbLine
 10
243.942614
 20
59.888088
 30
0.0
 11
243.200345
 21
59.730083
 31
0.0
  0
LINE
  5
295
330
28A
100
AcDbEntity
  8
GR1-1
  6
CONTINUOUS
 62
     7
100
AcDbLine
 10
242.782069
 20
59.641045
 30
0.0
 11
242.651541
 21
59.61326
 31
0.0
  0
LINE
  5
296
330
28A
100
AcDbEntity
  8
GR1-1
  6
CONTINUOUS
 62
     7
100
AcDbLine
 10
244.073106
 20
59.8034
 30
0.0
 11
243.330836
 21
59.645395
 31
0.0
  0
LINE
  5
297
330
28A
100
AcDbEntity
  8
GR1-1
  6
CONTINUOUS
 62
     7
100
AcDbLine
 10
242.697382
 20
59.510554
 30
0.0
 11
242.566854
 21
59.482769
 31
0.0
  0
LINE
  5
298
330
28A
100
AcDbEntity
  8
GR1-1
  6
CONTINUOUS
 62
     7
100
AcDbLine
 10
244.203598
 20
59.718713
 30
0.0
 11
243.373467
 21
59.542006
 31
0.0
  0
LINE
  5
299
330
28A
100
AcDbEntity
  8
GR1-1
  6
CONTINUOUS
 62
     7
100
AcDbLine
 10
242.612695
 20
59.380062
 30
0.0
 11
242.482167
 21
59.352277
 31
0.0
  0
LINE
  5
29A
330
28A
100
AcDbEntity
  8
GR1-1
  6
CONTINUOUS
 62
     7
100
AcDbLine
 10
244.334089
 20
59.634026
 30
0.0
 11
243.28878
 21
59.411514
 31
0.0
  0
LINE
  5
29B
330
28A
100
AcDbEntity
  8
GR1-1
  6
CONTINUOUS
 62
     7
100
AcDbLine
 10
242.528007
 20
59.24957
 30
0.0
 11
242.39748
 21
59.221785
 31
0.0
  0
LINE
  5
29C
330
28A
100
AcDbEntity
  8
GR1-1
  6
CONTINUOUS
 62
     7
100
AcDbLine
 10
244.464581
 20
59.549339
 30
0.0
 11
243.204092
 21
59.281022
 31
0.0
  0
LINE
  5
29D
330
28A
100
AcDbEntity
  8
GR1-1
  6
CONTINUOUS
 62
     7
100
AcDbLine
 10
242.44332
 20
59.119079
 30
0.0
 11
242.312792
 21
59.091294
 31
0.0
  0
LINE
  5
29E
330
28A
100
AcDbEntity
  8
GR1-1
  6
CONTINUOUS
 62
     7
100
AcDbLine
 10
244.595073
 20
59.464652
 30
0.0
 11
243.182273
 21
59.163913
 31
0.0
  0
LINE
  5
29F
330
28A
100
AcDbEntity
  8
GR1-1
  6
CONTINUOUS
 62
     7
100
AcDbLine
 10
242.358633
 20
58.988587
 30
0.0
 11
242.228105
 21
58.960802
 31
0.0
  0
LINE
  5
2A0
330
28A
100
AcDbEntity
  8
GR1-1
  6
CONTINUOUS
 62
     7
100
AcDbLine
 10
244.725564
 20
59.379965
 30
0.0
 11
244.510386
 21
59.33416
 31
0.0
  0
LINE
  5
2A1
330
28A
100
AcDbEntity
  8
GR1-1
  6
CONTINUOUS
 62
     7
100
AcDbLine
 10
242.443248
 20
58.894134
 30
0.0
 11
242.143418
 21
58.83031
 31
0.0
  0
LINE
  5
2A2
330
28A
100
AcDbEntity
  8
GR1-1
  6
CONTINUOUS
 62
     7
100
AcDbLine
 10
244.856056
 20
59.295278
 30
0.0
 11
244.533288
 21
59.226571
 31
0.0
  0
LINE
  5
2A3
330
28A
100
AcDbEntity
  8
GR1-1
  6
CONTINUOUS
 62
     7
100
AcDbLine
 10
242.57374
 20
58.809447
 30
0.0
 11
242.058731
 21
58.699818
 31
0.0
  0
LINE
  5
2A4
330
28A
100
AcDbEntity
  8
GR1-1
  6
CONTINUOUS
 62
     7
100
AcDbLine
 10
244.986548
 20
59.21059
 30
0.0
 11
244.55619
 21
59.118981
 31
0.0
  0
LINE
  5
2A5
330
28A
100
AcDbEntity
  8
GR1-1
  6
CONTINUOUS
 62
     7
100
AcDbLine
 10
242.704231
 20
58.72476
 30
0.0
 11
242.476
 21
58.676177
 31
0.0
  0
LINE
  5
2A6
330
28A
100
AcDbEntity
  8
GR1-1
  6
CONTINUOUS
 62
     7
100
AcDbLine
 10
242.404402
 20
58.660936
 30
0.0
 11
241.974044
 21
58.569327
 31
0.0
  0
LINE
  5
2A7
330
28A
100
AcDbEntity
  8
GR1-1
  6
CONTINUOUS
 62
     7
100
AcDbLine
 10
245.11704
 20
59.125903
 30
0.0
 11
244.579092
 21
59.011392
 31
0.0
  0
LINE
  5
2A8
330
28A
100
AcDbEntity
  8
GR1-1
  6
CONTINUOUS
 62
     7
100
AcDbLine
 10
242.834723
 20
58.640073
 30
0.0
 11
242.606491
 21
58.59149
 31
0.0
  0
LINE
  5
2A9
330
28A
100
AcDbEntity
  8
GR1-1
  6
CONTINUOUS
 62
     7
100
AcDbLine
 10
242.427304
 20
58.553346
 30
0.0
 11
241.889357
 21
58.438835
 31
0.0
  0
LINE
  5
2AA
330
28A
100
AcDbEntity
  8
GR1-1
  6
CONTINUOUS
 62
     7
100
AcDbLine
 10
245.247531
 20
59.041216
 30
0.0
 11
244.601995
 21
58.903802
 31
0.0
  0
LINE
  5
2AB
330
28A
100
AcDbEntity
  8
GR1-1
  6
CONTINUOUS
 62
     7
100
AcDbLine
 10
242.965215
 20
58.555385
 30
0.0
 11
242.736983
 21
58.506802
 31
0.0
  0
LINE
  5
2AC
330
28A
100
AcDbEntity
  8
GR1-1
  6
CONTINUOUS
 62
     7
100
AcDbLine
 10
242.450206
 20
58.445757
 30
0.0
 11
241.804669
 21
58.308343
 31
0.0
  0
LINE
  5
2AD
330
28A
100
AcDbEntity
  8
GR1-1
  6
CONTINUOUS
 62
     7
100
AcDbLine
 10
245.378023
 20
58.956529
 30
0.0
 11
244.624897
 21
58.796213
 31
0.0
  0
LINE
  5
2AE
330
28A
100
AcDbEntity
  8
GR1-1
  6
CONTINUOUS
 62
     7
100
AcDbLine
 10
244.08695
 20
58.681702
 30
0.0
 11
243.477248
 21
58.551916
 31
0.0
  0
LINE
  5
2AF
330
28A
100
AcDbEntity
  8
GR1-1
  6
CONTINUOUS
 62
     7
100
AcDbLine
 10
243.095706
 20
58.470698
 30
0.0
 11
242.867475
 21
58.422115
 31
0.0
  0
LINE
  5
2B0
330
28A
100
AcDbEntity
  8
GR1-1
  6
CONTINUOUS
 62
     7
100
AcDbLine
 10
242.473108
 20
58.338167
 30
0.0
 11
241.719982
 21
58.177852
 31
0.0
  0
LINE
  5
2B1
330
28A
100
AcDbEntity
  8
GR1-1
  6
CONTINUOUS
 62
     7
100
AcDbLine
 10
245.508515
 20
58.871842
 30
0.0
 11
244.647799
 21
58.688624
 31
0.0
  0
LINE
  5
2B2
330
28A
100
AcDbEntity
  8
GR1-1
  6
CONTINUOUS
 62
     7
100
AcDbLine
 10
244.109852
 20
58.574112
 30
0.0
 11
243.606584
 21
58.466983
 31
0.0
  0
LINE
  5
2B3
330
28A
100
AcDbEntity
  8
GR1-1
  6
CONTINUOUS
 62
     7
100
AcDbLine
 10
243.226198
 20
58.386011
 30
0.0
 11
242.997967
 21
58.337428
 31
0.0
  0
LINE
  5
2B4
330
28A
100
AcDbEntity
  8
GR1-1
  6
CONTINUOUS
 62
     7
100
AcDbLine
 10
242.496011
 20
58.230578
 30
0.0
 11
241.635295
 21
58.04736
 31
0.0
  0
LINE
  5
2B5
330
28A
100
AcDbEntity
  8
GR1-1
  6
CONTINUOUS
 62
     7
100
AcDbLine
 10
245.639006
 20
58.787155
 30
0.0
 11
244.670702
 21
58.581034
 31
0.0
  0
LINE
  5
2B6
330
28A
100
AcDbEntity
  8
GR1-1
  6
CONTINUOUS
 62
     7
100
AcDbLine
 10
244.132754
 20
58.466523
 30
0.0
 11
243.737076
 21
58.382296
 31
0.0
  0
LINE
  5
2B7
330
28A
100
AcDbEntity
  8
GR1-1
  6
CONTINUOUS
 62
     7
100
AcDbLine
 10
243.35669
 20
58.301324
 30
0.0
 11
243.05686
 21
58.2375
 31
0.0
  0
LINE
  5
2B8
330
28A
100
AcDbEntity
  8
GR1-1
  6
CONTINUOUS
 62
     7
100
AcDbLine
 10
242.518913
 20
58.122989
 30
0.0
 11
241.550608
 21
57.916868
 31
0.0
  0
LINE
  5
2B9
330
28A
100
AcDbEntity
  8
GR1-1
  6
CONTINUOUS
 62
     7
100
AcDbLine
 10
245.769498
 20
58.702467
 30
0.0
 11
244.693604
 21
58.473445
 31
0.0
  0
LINE
  5
2BA
330
28A
100
AcDbEntity
  8
GR1-1
  6
CONTINUOUS
 62
     7
100
AcDbLine
 10
244.155657
 20
58.358933
 30
0.0
 11
243.748237
 21
58.272207
 31
0.0
  0
LINE
  5
2BB
330
28A
100
AcDbEntity
  8
GR1-1
  6
CONTINUOUS
 62
     7
100
AcDbLine
 10
243.487182
 20
58.216637
 30
0.0
 11
243.079762
 21
58.129911
 31
0.0
  0
LINE
  5
2BC
330
28A
100
AcDbEntity
  8
GR1-1
  6
CONTINUOUS
 62
     7
100
AcDbLine
 10
242.541815
 20
58.015399
 30
0.0
 11
241.465921
 21
57.786376
 31
0.0
  0
LINE
  5
2BD
330
28A
100
AcDbEntity
  8
GR1-1
  6
CONTINUOUS
 62
     7
100
AcDbLine
 10
245.89999
 20
58.61778
 30
0.0
 11
244.716506
 21
58.365855
 31
0.0
  0
LINE
  5
2BE
330
28A
100
AcDbEntity
  8
GR1-1
  6
CONTINUOUS
 62
     7
100
AcDbLine
 10
244.178559
 20
58.251344
 30
0.0
 11
243.66355
 21
58.141715
 31
0.0
  0
LINE
  5
2BF
330
28A
100
AcDbEntity
  8
GR1-1
  6
CONTINUOUS
 62
     7
100
AcDbLine
 10
243.617673
 20
58.13195
 30
0.0
 11
243.102665
 21
58.022321
 31
0.0
  0
LINE
  5
2C0
330
28A
100
AcDbEntity
  8
GR1-1
  6
CONTINUOUS
 62
     7
100
AcDbLine
 10
242.564717
 20
57.90781
 30
0.0
 11
241.381234
 21
57.655885
 31
0.0
  0
LINE
  5
2C1
330
28A
100
AcDbEntity
  8
GR1-1
  6
CONTINUOUS
 62
     7
100
AcDbLine
 10
245.86118
 20
58.497054
 30
0.0
 11
244.739408
 21
58.258266
 31
0.0
  0
LINE
  5
2C2
330
28A
100
AcDbEntity
  8
GR1-1
  6
CONTINUOUS
 62
     7
100
AcDbLine
 10
244.201461
 20
58.143754
 30
0.0
 11
243.125567
 21
57.914732
 31
0.0
  0
LINE
  5
2C3
330
28A
100
AcDbEntity
  8
GR1-1
  6
CONTINUOUS
 62
     7
100
AcDbLine
 10
242.58762
 20
57.80022
 30
0.0
 11
241.465849
 21
57.561432
 31
0.0
  0
LINE
  5
2C4
330
28A
100
AcDbEntity
  8
GR1-1
  6
CONTINUOUS
 62
     7
100
AcDbLine
 10
245.776492
 20
58.366563
 30
0.0
 11
244.762311
 21
58.150676
 31
0.0
  0
LINE
  5
2C5
330
28A
100
AcDbEntity
  8
GR1-1
  6
CONTINUOUS
 62
     7
100
AcDbLine
 10
244.224363
 20
58.036165
 30
0.0
 11
243.148469
 21
57.807142
 31
0.0
  0
LINE
  5
2C6
330
28A
100
AcDbEntity
  8
GR1-1
  6
CONTINUOUS
 62
     7
100
AcDbLine
 10
242.610522
 20
57.692631
 30
0.0
 11
241.59634
 21
57.476745
 31
0.0
  0
LINE
  5
2C7
330
28A
100
AcDbEntity
  8
GR1-1
  6
CONTINUOUS
 62
     7
100
AcDbLine
 10
245.691805
 20
58.236071
 30
0.0
 11
244.785213
 21
58.043087
 31
0.0
  0
LINE
  5
2C8
330
28A
100
AcDbEntity
  8
GR1-1
  6
CONTINUOUS
 62
     7
100
AcDbLine
 10
244.247266
 20
57.928576
 30
0.0
 11
243.171371
 21
57.699553
 31
0.0
  0
LINE
  5
2C9
330
28A
100
AcDbEntity
  8
GR1-1
  6
CONTINUOUS
 62
     7
100
AcDbLine
 10
242.633424
 20
57.585041
 30
0.0
 11
241.726832
 21
57.392058
 31
0.0
  0
LINE
  5
2CA
330
28A
100
AcDbEntity
  8
GR1-1
  6
CONTINUOUS
 62
     7
100
AcDbLine
 10
245.607118
 20
58.105579
 30
0.0
 11
244.808115
 21
57.935498
 31
0.0
  0
LINE
  5
2CB
330
28A
100
AcDbEntity
  8
GR1-1
  6
CONTINUOUS
 62
     7
100
AcDbLine
 10
244.270168
 20
57.820986
 30
0.0
 11
243.194274
 21
57.591963
 31
0.0
  0
LINE
  5
2CC
330
28A
100
AcDbEntity
  8
GR1-1
  6
CONTINUOUS
 62
     7
100
AcDbLine
 10
242.656327
 20
57.477452
 30
0.0
 11
241.857324
 21
57.30737
 31
0.0
  0
LINE
  5
2CD
330
28A
100
AcDbEntity
  8
GR1-1
  6
CONTINUOUS
 62
     7
100
AcDbLine
 10
245.522431
 20
57.975087
 30
0.0
 11
244.831017
 21
57.827908
 31
0.0
  0
LINE
  5
2CE
330
28A
100
AcDbEntity
  8
GR1-1
  6
CONTINUOUS
 62
     7
100
AcDbLine
 10
244.29307
 20
57.713397
 30
0.0
 11
243.217176
 21
57.484374
 31
0.0
  0
LINE
  5
2CF
330
28A
100
AcDbEntity
  8
GR1-1
  6
CONTINUOUS
 62
     7
100
AcDbLine
 10
242.679229
 20
57.369863
 30
0.0
 11
241.987815
 21
57.222683
 31
0.0
  0
LINE
  5
2D0
330
28A
100
AcDbEntity
  8
GR1-1
  6
CONTINUOUS
 62
     7
100
AcDbLine
 10
245.437744
 20
57.844596
 30
0.0
 11
244.85392
 21
57.720319
 31
0.0
  0
LINE
  5
2D1
330
28A
100
AcDbEntity
  8
GR1-1
  6
CONTINUOUS
 62
     7
100
AcDbLine
 10
242.702131
 20
57.262273
 30
0.0
 11
242.118307
 21
57.137996
 31
0.0
  0
LINE
  5
2D2
330
28A
100
AcDbEntity
  8
GR1-1
  6
CONTINUOUS
 62
     7
100
AcDbLine
 10
245.353057
 20
57.714104
 30
0.0
 11
244.876822
 21
57.612729
 31
0.0
  0
LINE
  5
2D3
330
28A
100
AcDbEntity
  8
GR1-1
  6
CONTINUOUS
 62
     7
100
AcDbLine
 10
242.725033
 20
57.154684
 30
0.0
 11
242.248799
 21
57.053309
 31
0.0
  0
LINE
  5
2D4
330
28A
100
AcDbEntity
  8
GR1-1
  6
CONTINUOUS
 62
     7
100
AcDbLine
 10
245.268369
 20
57.583612
 30
0.0
 11
244.899724
 21
57.50514
 31
0.0
  0
LINE
  5
2D5
330
28A
100
AcDbEntity
  8
GR1-1
  6
CONTINUOUS
 62
     7
100
AcDbLine
 10
242.747936
 20
57.047094
 30
0.0
 11
242.37929
 21
56.968622
 31
0.0
  0
LINE
  5
2D6
330
28A
100
AcDbEntity
  8
GR1-1
  6
CONTINUOUS
 62
     7
100
AcDbLine
 10
245.183682
 20
57.453121
 30
0.0
 11
244.922627
 21
57.39755
 31
0.0
  0
LINE
  5
2D7
330
28A
100
AcDbEntity
  8
GR1-1
  6
CONTINUOUS
 62
     7
100
AcDbLine
 10
242.770838
 20
56.939505
 30
0.0
 11
242.509782
 21
56.883935
 31
0.0
  0
LINE
  5
2D8
330
28A
100
AcDbEntity
  8
GR1-1
  6
CONTINUOUS
 62
     7
100
AcDbLine
 10
245.098995
 20
57.322629
 30
0.0
 11
244.945529
 21
57.289961
 31
0.0
  0
LINE
  5
2D9
330
28A
100
AcDbEntity
  8
GR1-1
  6
CONTINUOUS
 62
     7
100
AcDbLine
 10
242.79374
 20
56.831915
 30
0.0
 11
242.640274
 21
56.799247
 31
0.0
  0
LINE
  5
2DA
330
28A
100
AcDbEntity
  8
GR1-1
  6
CONTINUOUS
 62
     7
100
AcDbLine
 10
245.014308
 20
57.192137
 30
0.0
 11
242.770766
 21
56.71456
 31
0.0
  0
LINE
  5
2DB
330
28A
100
AcDbEntity
  8
GR1-1
  6
CONTINUOUS
 62
     7
100
AcDbLine
 10
244.929621
 20
57.061645
 30
0.0
 11
242.901257
 21
56.629873
 31
0.0
  0
LINE
  5
2DC
330
28A
100
AcDbEntity
  8
GR1-1
  6
CONTINUOUS
 62
     7
100
AcDbLine
 10
244.844934
 20
56.931154
 30
0.0
 11
243.031749
 21
56.545186
 31
0.0
  0
LINE
  5
2DD
330
28A
100
AcDbEntity
  8
GR1-1
  6
CONTINUOUS
 62
     7
100
AcDbLine
 10
244.760246
 20
56.800662
 30
0.0
 11
243.162241
 21
56.460499
 31
0.0
  0
LINE
  5
2DE
330
28A
100
AcDbEntity
  8
GR1-1
  6
CONTINUOUS
 62
     7
100
AcDbLine
 10
244.675559
 20
56.67017
 30
0.0
 11
243.292732
 21
56.375812
 31
0.0
  0
LINE
  5
2DF
330
28A
100
AcDbEntity
  8
GR1-1
  6
CONTINUOUS
 62
     7
100
AcDbLine
 10
244.590872
 20
56.539679
 30
0.0
 11
243.423224
 21
56.291125
 31
0.0
  0
LINE
  5
2E0
330
28A
100
AcDbEntity
  8
GR1-1
  6
CONTINUOUS
 62
     7
100
AcDbLine
 10
244.506185
 20
56.409187
 30
0.0
 11
243.553716
 21
56.206437
 31
0.0
  0
LINE
  5
2E1
330
28A
100
AcDbEntity
  8
GR1-1
  6
CONTINUOUS
 62
     7
100
AcDbLine
 10
244.421498
 20
56.278695
 30
0.0
 11
243.684208
 21
56.12175
 31
0.0
  0
LINE
  5
2E2
330
28A
100
AcDbEntity
  8
GR1-1
  6
CONTINUOUS
 62
     7
100
AcDbLine
 10
244.336811
 20
56.148204
 30
0.0
 11
243.814699
 21
56.037063
 31
0.0
  0
LINE
  5
2E3
330
28A
100
AcDbEntity
  8
GR1-1
  6
CONTINUOUS
 62
     7
100
AcDbLine
 10
244.252124
 20
56.017712
 30
0.0
 11
243.945191
 21
55.952376
 31
0.0
  0
LINE
  5
2E4
330
28A
100
AcDbEntity
  8
GR1-1
  6
CONTINUOUS
 62
     7
100
AcDbLine
 10
244.167436
 20
55.88722
 30
0.0
 11
244.075683
 21
55.867689
 31
0.0
  0
ENDBLK
  5
28C
330
28A
100
AcDbEntity
  8
0
100
AcDbBlockEnd
  0
ENDSEC
  0
SECTION
  2
ENTITIES
  0
TEXT
  5
A8
330
1F
100
AcDbEntity
  8
}}ﾊﾊGG血CCТ
  6
CONTINUOUS
 62
     7
100
AcDbText
 10
155.0
 20
12.0
 30
0.0
 40
6.0
  1
ＴＪ－　７５　Ｕ　Ｓ
 41
0.79096
  7
FX_VECTOR
 72
     5
 11
195.0
 21
12.0
 31
0.0
100
AcDbText
  0
TEXT
  5
A9
330
1F
100
AcDbEntity
  8
}}ﾊﾊGG血CCТ
  6
CONTINUOUS
 62
     7
100
AcDbText
 10
255.0
 20
12.0
 30
0.0
 40
6.0
  1
TE25A1LAA-C01
 41
0.745902
  7
FX_VECTOR
 72
     5
 11
307.0
 21
12.0
 31
0.0
100
AcDbText
  0
ARC
  5
AA
330
1F
100
AcDbEntity
  8
LAYERGROUP-1
  6
CONTINUOUS
 62
     3
100
AcDbCircle
 10
304.723077
 20
127.717692
 30
0.0
 40
3.0
100
AcDbArc
 50
0.0
 51
90.0
  0
LINE
  5
AB
330
1F
100
AcDbEntity
  8
LAYERGROUP-1
  6
CONTINUOUS
 62
     3
100
AcDbLine
 10
305.598077
 20
123.717692
 30
0.0
 11
307.898077
 21
123.717692
 31
0.0
  0
LINE
  5
AC
330
1F
100
AcDbEntity
  8
LAYERGROUP-1
  6
CENTER
 62
     6
100
AcDbLine
 10
282.923077
 20
141.760937
 30
0.0
 11
282.923077
 21
92.997571
 31
0.0
  0
LINE
  5
AD
330
1F
100
AcDbEntity
  8
LAYERGROUP-1
  6
CENTER
 62
     6
100
AcDbLine
 10
221.970505
 20
86.307692
 30
0.0
 11
301.692713
 21
86.307692
 31
0.0
  0
LINE
  5
AE
330
1F
100
AcDbEntity
  8
LAYERGROUP-1
  6
CENTER
 62
     6
100
AcDbLine
 10
261.923077
 20
104.224593
 30
0.0
 11
261.923077
 21
44.74788
 31
0.0
  0
LINE
  5
AF
330
1F
100
AcDbEntity
  8
LAYERGROUP-1
  6
CONTINUOUS
 62
     3
100
AcDbLine
 10
307.723077
 20
127.717692
 30
0.0
 11
307.898077
 21
123.717692
 31
0.0
  0
LINE
  5
B0
330
1F
100
AcDbEntity
  8
LAYERGROUP-1
  6
CONTINUOUS
 62
     3
100
AcDbLine
 10
155.423077
 20
77.857692
 30
0.0
 11
157.723077
 21
77.857692
 31
0.0
  0
LINE
  5
B1
330
1F
100
AcDbEntity
  8
LAYERGROUP-1
  6
CONTINUOUS
 62
     3
100
AcDbLine
 10
157.723077
 20
74.312996
 30
0.0
 11
157.723077
 21
127.217692
 31
0.0
  0
LINE
  5
B2
330
1F
100
AcDbEntity
  8
LAYERGROUP-1
  6
CONTINUOUS
 62
     3
100
AcDbLine
 10
155.423077
 20
98.398015
 30
0.0
 11
155.423077
 21
73.307692
 31
0.0
  0
LINE
  5
B3
330
1F
100
AcDbEntity
  8
LAYERGROUP-1
  6
CONTINUOUS
 62
     3
100
AcDbLine
 10
160.898077
 20
130.717692
 30
0.0
 11
117.448077
 21
130.717692
 31
0.0
  0
LINE
  5
B4
330
1F
100
AcDbEntity
  8
LAYERGROUP-1
  6
CONTINUOUS
 62
     3
100
AcDbLine
 10
164.398077
 20
127.217692
 30
0.0
 11
164.398077
 21
112.429005
 31
0.0
  0
LINE
  5
B5
330
1F
100
AcDbEntity
  8
LAYERGROUP-1
  6
CONTINUOUS
 62
     3
100
AcDbLine
 10
153.923077
 20
124.917692
 30
0.0
 11
155.423077
 21
120.217692
 31
0.0
  0
LINE
  5
B6
330
1F
100
AcDbEntity
  8
LAYERGROUP-1
  6
CONTINUOUS
 62
     3
100
AcDbLine
 10
156.114193
 20
125.616985
 30
0.0
 11
157.344351
 21
121.762491
 31
0.0
  0
ARC
  5
B7
330
1F
100
AcDbEntity
  8
LAYERGROUP-1
  6
CONTINUOUS
 62
     3
100
AcDbCircle
 10
149.723077
 20
119.33017
 30
0.0
 40
8.0
100
AcDbArc
 50
0.0
 51
17.700428
  0
LINE
  5
B8
330
1F
100
AcDbEntity
  8
LAYERGROUP-1
  6
CONTINUOUS
 62
     3
100
AcDbLine
 10
123.423077
 20
77.857692
 30
0.0
 11
121.123077
 21
77.857692
 31
0.0
  0
LINE
  5
B9
330
1F
100
AcDbEntity
  8
LAYERGROUP-1
  6
CONTINUOUS
 62
     3
100
AcDbLine
 10
120.723159
 20
92.256907
 30
0.0
 11
115.628869
 21
99.125613
 31
0.0
  0
ARC
  5
BA
330
1F
100
AcDbEntity
  8
LAYERGROUP-1
  6
CONTINUOUS
 62
     3
100
AcDbCircle
 10
120.448077
 20
102.699859
 30
0.0
 40
6.0
100
AcDbArc
 50
180.0
 51
216.563096
  0
ARC
  5
BB
330
1F
100
AcDbEntity
  8
LAYERGROUP-1
  6
CONTINUOUS
 62
     3
100
AcDbCircle
 10
139.423077
 20
7.66535
 30
0.0
 40
116.0523426889993
100
AcDbArc
 50
82.472981
 51
84.810501
  0
LINE
  5
BC
330
1F
100
AcDbEntity
  8
LAYERGROUP-1
  6
CENTER
 62
     6
100
AcDbLine
 10
116.286029
 20
86.307692
 30
0.0
 11
166.141444
 21
86.307692
 31
0.0
  0
ARC
  5
BE
330
1F
100
AcDbEntity
  8
3-1
  6
CONTINUOUS
 62
     3
100
AcDbCircle
 10
572.650895
 20
64.397992
 30
0.0
 40
320.0
100
AcDbArc
 50
169.993335
 51
173.632452
  0
ARC
  5
BF
330
1F
100
AcDbEntity
  8
3-1
  6
CONTINUOUS
 62
     3
100
AcDbCircle
 10
273.275481
 20
117.221866
 30
0.0
 40
16.0
100
AcDbArc
 50
149.186907
 51
169.993356
  0
LINE
  5
C0
330
1F
100
AcDbEntity
  8
LAYERGROUP-1
  6
CONTINUOUS
 62
     3
100
AcDbLine
 10
274.798209
 20
89.024249
 30
0.0
 11
276.893698
 21
91.717692
 31
0.0
  0
ARC
  5
C1
330
1F
100
AcDbEntity
  8
LAYERGROUP-1
  6
CONTINUOUS
 62
     3
100
AcDbCircle
 10
305.547144
 20
111.717692
 30
0.0
 40
12.0
100
AcDbArc
 50
90.0
 51
145.0
  0
LINE
  5
C2
330
1F
100
AcDbEntity
  8
LAYERGROUP-1
  6
CONTINUOUS
 62
     3
100
AcDbLine
 10
295.71732
 20
118.60061
 30
0.0
 11
276.928674
 21
91.717692
 31
0.0
  0
ARC
  5
C3
330
1F
100
AcDbEntity
  8
LAYERGROUP-1
  6
CONTINUOUS
 62
     6
100
AcDbCircle
 10
281.927177
 20
106.916869
 30
0.0
 40
16.0
100
AcDbArc
 50
180.0
 51
251.795688
  0
ARC
  5
C4
330
1F
100
AcDbEntity
  8
LAYERGROUP-1
  6
CONTINUOUS
 62
     3
100
AcDbCircle
 10
149.553336
 20
127.317692
 30
0.0
 40
2.5
100
AcDbArc
 50
260.969295
 51
308.739425
  0
ARC
  5
C5
330
1F
100
AcDbEntity
  8
LAYERGROUP-1
  6
CONTINUOUS
 62
     3
100
AcDbCircle
 10
139.423077
 20
63.578847
 30
0.0
 40
62.0388455490074
100
AcDbArc
 50
80.969295
 51
99.030705
  0
LINE
  5
C6
330
1F
100
AcDbEntity
  8
LAYERGROUP-1
  6
CONTINUOUS
 62
     6
100
AcDbLine
 10
156.114193
 20
125.616985
 30
0.0
 11
153.923077
 21
124.917692
 31
0.0
  0
LINE
  5
C7
330
1F
100
AcDbEntity
  8
LAYERGROUP-1
  6
CONTINUOUS
 62
     3
100
AcDbLine
 10
151.117785
 20
125.367692
 30
0.0
 11
153.923077
 21
124.917692
 31
0.0
  0
ARC
  5
C8
330
1F
100
AcDbEntity
  8
LAYERGROUP-1
  6
CONTINUOUS
 62
     6
100
AcDbCircle
 10
149.186852
 20
126.955615
 30
0.0
 40
2.5
100
AcDbArc
 50
-39.432513
 51
6.017435
  0
ARC
  5
C9
330
1F
100
AcDbEntity
  8
LAYERGROUP-1
  6
CONTINUOUS
 62
     6
100
AcDbCircle
 10
152.673077
 20
127.217692
 30
0.0
 40
1.0
100
AcDbArc
 50
135.572996
 51
180.0
  0
ARC
  5
CA
330
1F
100
AcDbEntity
  8
LAYERGROUP-1
  6
CONTINUOUS
 62
     6
100
AcDbCircle
 10
156.243791
 20
123.717692
 30
0.0
 40
6.0
100
AcDbArc
 50
85.741191
 51
135.572996
  0
ARC
  5
CB
330
1F
100
AcDbEntity
  8
LAYERGROUP-1
  6
CONTINUOUS
 62
     6
100
AcDbCircle
 10
158.572755
 20
139.399418
 30
0.0
 40
14.0
100
AcDbArc
 50
240.472969
 51
266.53474
  0
ARC
  5
CC
330
1F
100
AcDbEntity
  8
LAYERGROUP-1
  6
CONTINUOUS
 62
     3
100
AcDbCircle
 10
160.898077
 20
127.217692
 30
0.0
 40
3.5
100
AcDbArc
 50
0.0
 51
90.0
  0
ARC
  5
CD
330
1F
100
AcDbEntity
  8
LAYERGROUP-1
  6
CONTINUOUS
 62
     3
100
AcDbCircle
 10
154.223077
 20
127.217692
 30
0.0
 40
3.5
100
AcDbArc
 50
0.0
 51
90.0
  0
LINE
  5
CE
330
1F
100
AcDbEntity
  8
LAYERGROUP-1
  6
CONTINUOUS
 62
     3
100
AcDbLine
 10
121.123077
 20
77.857692
 30
0.0
 11
121.123077
 21
127.217692
 31
0.0
  0
LINE
  5
CF
330
1F
100
AcDbEntity
  8
LAYERGROUP-1
  6
CONTINUOUS
 62
     3
100
AcDbLine
 10
114.448077
 20
127.217692
 30
0.0
 11
114.448077
 21
102.699859
 31
0.0
  0
LINE
  5
D0
330
1F
100
AcDbEntity
  8
LAYERGROUP-1
  6
CONTINUOUS
 62
     3
100
AcDbLine
 10
124.923077
 20
124.917692
 30
0.0
 11
123.423077
 21
120.217692
 31
0.0
  0
LINE
  5
D1
330
1F
100
AcDbEntity
  8
LAYERGROUP-1
  6
CONTINUOUS
 62
     3
100
AcDbLine
 10
122.731961
 20
125.616985
 30
0.0
 11
121.501803
 21
121.762491
 31
0.0
  0
ARC
  5
D2
330
1F
100
AcDbEntity
  8
LAYERGROUP-1
  6
CONTINUOUS
 62
     3
100
AcDbCircle
 10
129.123077
 20
119.33017
 30
0.0
 40
8.0
100
AcDbArc
 50
162.299572
 51
180.0
  0
ARC
  5
D3
330
1F
100
AcDbEntity
  8
LAYERGROUP-1
  6
CONTINUOUS
 62
     3
100
AcDbCircle
 10
129.292818
 20
127.317692
 30
0.0
 40
2.5
100
AcDbArc
 50
231.260575
 51
279.030705
  0
LINE
  5
D4
330
1F
100
AcDbEntity
  8
LAYERGROUP-1
  6
CONTINUOUS
 62
     6
100
AcDbLine
 10
122.731961
 20
125.616985
 30
0.0
 11
124.923077
 21
124.917692
 31
0.0
  0
LINE
  5
D5
330
1F
100
AcDbEntity
  8
LAYERGROUP-1
  6
CONTINUOUS
 62
     3
100
AcDbLine
 10
127.728369
 20
125.367692
 30
0.0
 11
124.923077
 21
124.917692
 31
0.0
  0
ARC
  5
D6
330
1F
100
AcDbEntity
  8
LAYERGROUP-1
  6
CONTINUOUS
 62
     6
100
AcDbCircle
 10
129.659302
 20
126.955615
 30
0.0
 40
2.5
100
AcDbArc
 50
173.982565
 51
219.432513
  0
ARC
  5
D7
330
1F
100
AcDbEntity
  8
LAYERGROUP-1
  6
CONTINUOUS
 62
     6
100
AcDbCircle
 10
126.173077
 20
127.217692
 30
0.0
 40
1.0
100
AcDbArc
 50
0.0
 51
44.427004
  0
ARC
  5
D8
330
1F
100
AcDbEntity
  8
LAYERGROUP-1
  6
CONTINUOUS
 62
     6
100
AcDbCircle
 10
122.602363
 20
123.717692
 30
0.0
 40
6.0
100
AcDbArc
 50
44.427004
 51
94.258809
  0
ARC
  5
D9
330
1F
100
AcDbEntity
  8
LAYERGROUP-1
  6
CONTINUOUS
 62
     6
100
AcDbCircle
 10
120.273399
 20
139.399418
 30
0.0
 40
14.0
100
AcDbArc
 50
273.46526
 51
299.527031
  0
ARC
  5
DA
330
1F
100
AcDbEntity
  8
LAYERGROUP-1
  6
CONTINUOUS
 62
     3
100
AcDbCircle
 10
117.948077
 20
127.217692
 30
0.0
 40
3.5
100
AcDbArc
 50
90.0
 51
180.0
  0
ARC
  5
DB
330
1F
100
AcDbEntity
  8
LAYERGROUP-1
  6
CONTINUOUS
 62
     3
100
AcDbCircle
 10
124.623077
 20
127.217692
 30
0.0
 40
3.5
100
AcDbArc
 50
90.0
 51
180.0
  0
LINE
  5
DD
330
1F
100
AcDbEntity
  8
GR1-1
  6
CONTINUOUS
 62
     3
100
AcDbLine
 10
110.423077
 20
138.807692
 30
0.0
 11
168.423077
 21
138.807692
 31
0.0
  0
LINE
  5
DE
330
1F
100
AcDbEntity
  8
GR1-1
  6
CONTINUOUS
 62
     3
100
AcDbLine
 10
110.423077
 20
136.507692
 30
0.0
 11
168.423077
 21
136.507692
 31
0.0
  0
ARC
  5
DF
330
1F
100
AcDbEntity
  8
LAYERGROUP-1
  6
CONTINUOUS
 62
     3
100
AcDbCircle
 10
110.923077
 20
135.007692
 30
0.0
 40
1.5
100
AcDbArc
 50
19.980982
 51
90.0
  0
ARC
  5
E0
330
1F
100
AcDbEntity
  8
LAYERGROUP-1
  6
CONTINUOUS
 62
     3
100
AcDbCircle
 10
116.123077
 20
135.207692
 30
0.0
 40
3.0
100
AcDbArc
 50
231.96215
 51
270.0
  0
ARC
  5
E1
330
1F
100
AcDbEntity
  8
LAYERGROUP-1
  6
CONTINUOUS
 62
     3
100
AcDbCircle
 10
117.971623
 20
137.570504
 30
0.0
 40
6.0
100
AcDbArc
 50
199.980982
 51
231.96215
  0
LINE
  5
E2
330
1F
100
AcDbEntity
  8
LAYERGROUP-1
  6
CONTINUOUS
 62
     3
100
AcDbLine
 10
116.123077
 20
132.207692
 30
0.0
 11
162.723077
 21
132.207692
 31
0.0
  0
LINE
  5
E3
330
1F
100
AcDbEntity
  8
LAYERGROUP-1
  6
CONTINUOUS
 62
     3
100
AcDbLine
 10
110.423077
 20
138.807692
 30
0.0
 11
110.423077
 21
136.507692
 31
0.0
  0
ARC
  5
E4
330
1F
100
AcDbEntity
  8
LAYERGROUP-1
  6
CONTINUOUS
 62
     3
100
AcDbCircle
 10
167.923077
 20
135.007692
 30
0.0
 40
1.5
100
AcDbArc
 50
90.0
 51
160.019018
  0
ARC
  5
E5
330
1F
100
AcDbEntity
  8
LAYERGROUP-1
  6
CONTINUOUS
 62
     3
100
AcDbCircle
 10
162.723077
 20
135.207692
 30
0.0
 40
3.0
100
AcDbArc
 50
270.0
 51
308.03785
  0
ARC
  5
E6
330
1F
100
AcDbEntity
  8
LAYERGROUP-1
  6
CONTINUOUS
 62
     3
100
AcDbCircle
 10
160.874531
 20
137.570504
 30
0.0
 40
6.0
100
AcDbArc
 50
308.03785
 51
340.019018
  0
LINE
  5
E7
330
1F
100
AcDbEntity
  8
LAYERGROUP-1
  6
CONTINUOUS
 62
     3
100
AcDbLine
 10
168.423077
 20
138.807692
 30
0.0
 11
168.423077
 21
136.507692
 31
0.0
  0
LINE
  5
E8
330
1F
100
AcDbEntity
  8
LAYERGROUP-1
  6
CONTINUOUS
 62
     6
100
AcDbLine
 10
265.927177
 20
106.916869
 30
0.0
 11
265.927177
 21
127.015624
 31
0.0
  0
LINE
  5
E9
330
1F
100
AcDbEntity
  8
LAYERGROUP-1
  6
CONTINUOUS
 62
     3
100
AcDbLine
 10
150.173077
 20
124.257692
 30
0.0
 11
150.173077
 21
124.895726
 31
0.0
  0
LINE
  5
EA
330
1F
100
AcDbEntity
  8
LAYERGROUP-1
  6
CONTINUOUS
 62
     3
100
AcDbLine
 10
128.673077
 20
124.257692
 30
0.0
 11
128.673077
 21
124.895726
 31
0.0
  0
LINE
  5
EB
330
1F
100
AcDbEntity
  8
GR1-1
  6
CONTINUOUS
 62
     3
100
AcDbLine
 10
150.173077
 20
124.257692
 30
0.0
 11
128.673077
 21
124.257692
 31
0.0
  0
ARC
  5
EC
330
1F
100
AcDbEntity
  8
LAYERGROUP-1
  6
CONTINUOUS
 62
     3
100
AcDbCircle
 10
121.123077
 20
90.707692
 30
0.0
 40
1.6
100
AcDbArc
 50
90.0
 51
180.0
  0
ARC
  5
ED
330
1F
100
AcDbEntity
  8
LAYERGROUP-1
  6
CONTINUOUS
 62
     3
100
AcDbCircle
 10
121.123077
 20
81.907692
 30
0.0
 40
1.6
100
AcDbArc
 50
180.0
 51
270.0
  0
LINE
  5
EE
330
1F
100
AcDbEntity
  8
LAYERGROUP-1
  6
CONTINUOUS
 62
     3
100
AcDbLine
 10
119.523077
 20
90.707692
 30
0.0
 11
119.523077
 21
81.907692
 31
0.0
  0
DIMENSION
  5
EF
330
1F
100
AcDbEntity
  8
LAYERGROUP-1
100
AcDbDimension
  2
*D19
 10
337.923077
 20
138.807692
 30
0.0
 11
336.923065
 21
93.807693
 31
0.0
 70
    32
  3
FXDIMINFO
100
AcDbAlignedDimension
 13
261.923077
 23
48.807692
 33
0.0
 14
317.923077
 24
138.807692
 34
0.0
 50
270.0
100
AcDbRotatedDimension
1001
ACAD
1000
DSTYLE
1002
{
1070
     7
1000
FXTIP_ARROW_E
1070
     6
1000
FXTIP_ARROW_S
1070
   173
1070
     1
1002
}
  0
DIMENSION
  5
F9
330
1F
100
AcDbEntity
  8
LAYERGROUP-1
100
AcDbDimension
  2
*D20
 10
327.923077
 20
138.807692
 30
0.0
 11
326.923065
 21
112.557693
 31
0.0
 70
    32
  3
FXDIMINFO
100
AcDbAlignedDimension
 13
301.692713
 23
86.307692
 33
0.0
 14
317.923077
 24
138.807692
 34
0.0
 50
270.0
100
AcDbRotatedDimension
1001
ACAD
1000
DSTYLE
1002
{
1070
     7
1000
FXTIP_ARROW_E
1070
     6
1000
FXTIP_ARROW_S
1070
   173
1070
     1
1002
}
  0
ARC
  5
102
330
1F
100
AcDbEntity
  8
LAYERGROUP-1
  6
CONTINUOUS
 62
     3
100
AcDbCircle
 10
139.423077
 20
132.292692
 30
0.0
 40
3.175
100
AcDbArc
 50
330.26013
 51
358.466464
  0
ARC
  5
103
330
1F
100
AcDbEntity
  8
LAYERGROUP-1
  6
CONTINUOUS
 62
     3
100
AcDbCircle
 10
145.669492
 20
132.292692
 30
0.0
 40
3.175
100
AcDbArc
 50
330.26013
 51
358.466464
  0
ARC
  5
104
330
1F
100
AcDbEntity
  8
LAYERGROUP-1
  6
CONTINUOUS
 62
     3
100
AcDbCircle
 10
151.10739
 20
132.292692
 30
0.0
 40
3.175
100
AcDbArc
 50
330.26013
 51
358.466464
  0
ARC
  5
105
330
1F
100
AcDbEntity
  8
LAYERGROUP-1
  6
CONTINUOUS
 62
     3
100
AcDbCircle
 10
155.032907
 20
132.292692
 30
0.0
 40
3.175
100
AcDbArc
 50
330.26013
 51
358.465914
  0
ARC
  5
106
330
1F
100
AcDbEntity
  8
LAYERGROUP-1
  6
CONTINUOUS
 62
     3
100
AcDbCircle
 10
156.937936
 20
132.292692
 30
0.0
 40
3.175
100
AcDbArc
 50
330.26013
 51
360.0
  0
ARC
  5
107
330
1F
100
AcDbEntity
  8
LAYERGROUP-1
  6
CONTINUOUS
 62
     3
100
AcDbCircle
 10
145.669492
 20
132.292692
 30
0.0
 40
3.175
100
AcDbArc
 50
190.36316
 51
209.73987
  0
ARC
  5
108
330
1F
100
AcDbEntity
  8
LAYERGROUP-1
  6
CONTINUOUS
 62
     3
100
AcDbCircle
 10
139.423077
 20
132.292692
 30
0.0
 40
3.175
100
AcDbArc
 50
181.533536
 51
209.73987
  0
ARC
  5
109
330
1F
100
AcDbEntity
  8
LAYERGROUP-1
  6
CONTINUOUS
 62
     3
100
AcDbCircle
 10
133.176662
 20
132.292692
 30
0.0
 40
3.175
100
AcDbArc
 50
181.533536
 51
209.73987
  0
ARC
  5
10A
330
1F
100
AcDbEntity
  8
LAYERGROUP-1
  6
CONTINUOUS
 62
     3
100
AcDbCircle
 10
127.738764
 20
132.292692
 30
0.0
 40
3.175
100
AcDbArc
 50
181.533536
 51
209.73987
  0
ARC
  5
10B
330
1F
100
AcDbEntity
  8
LAYERGROUP-1
  6
CONTINUOUS
 62
     3
100
AcDbCircle
 10
123.813247
 20
132.292692
 30
0.0
 40
3.175
100
AcDbArc
 50
181.534086
 51
209.73987
  0
ARC
  5
10C
330
1F
100
AcDbEntity
  8
LAYERGROUP-1
  6
CONTINUOUS
 62
     3
100
AcDbCircle
 10
121.908217
 20
132.292692
 30
0.0
 40
3.175
100
AcDbArc
 50
180.0
 51
209.73987
  0
ARC
  5
10D
330
1F
100
AcDbEntity
  8
LAYERGROUP-1
  6
CONTINUOUS
 62
     3
100
AcDbCircle
 10
133.176662
 20
132.292692
 30
0.0
 40
3.175
100
AcDbArc
 50
330.26013
 51
349.63684
  0
DIMENSION
  5
10E
330
1F
100
AcDbEntity
  8
LAYERGROUP-1
100
AcDbDimension
  2
*D21
 10
282.923077
 20
38.807692
 30
0.0
 11
272.423065
 21
39.807693
 31
0.0
 70
    32
  3
FXDIMINFO
100
AcDbAlignedDimension
 13
261.923077
 23
44.74788
 33
0.0
 14
282.923077
 24
92.997571
 34
0.0
 50
180.0
100
AcDbRotatedDimension
1001
ACAD
1000
DSTYLE
1002
{
1070
     7
1000
FXTIP_ARROW_E
1070
     6
1000
FXTIP_ARROW_S
1070
   173
1070
     1
1002
}
  0
ARC
  5
118
330
1F
100
AcDbEntity
  8
LAYERGROUP-1
  6
CONTINUOUS
 62
     3
100
AcDbCircle
 10
139.423077
 20
7.66535
 30
0.0
 40
116.0523426889993
100
AcDbArc
 50
92.019745
 51
97.527019
  0
DIMENSION
  5
119
330
1F
100
AcDbEntity
  8
LAYERGROUP-1
100
AcDbDimension
  2
*D22
 10
106.723823
 20
123.807692
 30
0.0
 11
105.723824
 21
86.307693
 31
0.0
 70
    33
  3
FXDIMINFO
100
AcDbAlignedDimension
 13
140.623077
 23
48.807692
 33
0.0
 14
140.623077
 24
123.807692
 34
0.0
1001
ACAD
1000
DSTYLE
1002
{
1070
     7
1000
FXTIP_ARROW_E
1070
     6
1000
FXTIP_ARROW_S
1070
   173
1070
     1
1002
}
  0
CIRCLE
  5
123
330
1F
100
AcDbEntity
  8
LAYERGROUP-1
  6
CONTINUOUS
 62
     3
100
AcDbCircle
 10
261.923077
 20
86.307692
 30
0.0
 40
6.0
  0
CIRCLE
  5
124
330
1F
100
AcDbEntity
  8
LAYERGROUP-1
  6
CONTINUOUS
 62
     6
100
AcDbCircle
 10
261.923077
 20
86.307692
 30
0.0
 40
2.25
  0
CIRCLE
  5
125
330
1F
100
AcDbEntity
  8
LAYERGROUP-1
  6
CONTINUOUS
 62
     3
100
AcDbCircle
 10
261.923077
 20
86.307692
 30
0.0
 40
1.5
  0
LINE
  5
126
330
1F
100
AcDbEntity
  8
GR1-1
  6
CONTINUOUS
 62
     3
100
AcDbLine
 10
295.925285
 20
69.918067
 30
0.0
 11
297.029159
 21
71.585838
 31
0.0
  0
LINE
  5
127
330
1F
100
AcDbEntity
  8
GR1-1
  6
CONTINUOUS
 62
     3
100
AcDbLine
 10
297.029159
 20
71.585838
 30
0.0
 11
277.486411
 21
84.520901
 31
0.0
  0
LINE
  5
128
330
1F
100
AcDbEntity
  8
GR1-1
  6
CONTINUOUS
 62
     3
100
AcDbLine
 10
276.382537
 20
82.853129
 30
0.0
 11
295.925285
 21
69.918067
 31
0.0
  0
LINE
  5
129
330
1F
100
AcDbEntity
  8
GR1-1
  6
CONTINUOUS
 62
     3
100
AcDbLine
 10
285.406042
 20
72.422436
 30
0.0
 11
276.433786
 21
73.128568
 31
0.0
  0
ARC
  5
12A
330
1F
100
AcDbEntity
  8
GR1-1
  6
CONTINUOUS
 62
     3
100
AcDbCircle
 10
282.646015
 20
94.707684
 30
0.0
 40
20.50000000000045
100
AcDbArc
 50
252.819617
 51
278.180383
  0
ARC
  5
12B
330
1F
100
AcDbEntity
  8
GR1-1
  6
CONTINUOUS
 62
     3
100
AcDbCircle
 10
259.218586
 20
82.221652
 30
0.0
 40
17.0
100
AcDbArc
 50
17.099431
 51
95.900569
  0
LINE
  5
12C
330
1F
100
AcDbEntity
  8
GR1-1
  6
CONTINUOUS
 62
     3
100
AcDbLine
 10
254.197248
 20
99.935662
 30
0.0
 11
234.6545
 21
112.870725
 31
0.0
  0
LINE
  5
12D
330
1F
100
AcDbEntity
  8
GR1-1
  6
CONTINUOUS
 62
     3
100
AcDbLine
 10
234.6545
 20
112.870725
 30
0.0
 11
233.550626
 21
111.202953
 31
0.0
  0
LINE
  5
12E
330
1F
100
AcDbEntity
  8
GR1-1
  6
CONTINUOUS
 62
     3
100
AcDbLine
 10
233.550626
 20
111.202953
 30
0.0
 11
253.093374
 21
98.267891
 31
0.0
  0
ARC
  5
12F
330
1F
100
AcDbEntity
  8
GR1-1
  6
CONTINUOUS
 62
     3
100
AcDbCircle
 10
256.956933
 20
104.105091
 30
0.0
 40
7.0
100
AcDbArc
 50
236.5
 51
275.900569
  0
ARC
  5
130
330
1F
100
AcDbEntity
  8
GR1-1
  6
CONTINUOUS
 62
     3
100
AcDbCircle
 10
256.956933
 20
104.105091
 30
0.0
 40
5.0
100
AcDbArc
 50
236.5
 51
275.900569
  0
LINE
  5
131
330
1F
100
AcDbEntity
  8
GR1-1
  6
CONTINUOUS
 62
     3
100
AcDbLine
 10
252.896777
 20
98.398015
 30
0.0
 11
251.516934
 21
96.313301
 31
0.0
  0
LINE
  5
132
330
1F
100
AcDbEntity
  8
GR1-1
  6
CONTINUOUS
 62
     3
100
AcDbLine
 10
251.516934
 20
96.313301
 30
0.0
 11
248.098003
 21
98.576242
 31
0.0
  0
LINE
  5
133
330
1F
100
AcDbEntity
  8
GR1-1
  6
CONTINUOUS
 62
     3
100
AcDbLine
 10
248.098003
 20
98.576242
 30
0.0
 11
249.477845
 21
100.660957
 31
0.0
  0
ARC
  5
134
330
1F
100
AcDbEntity
  8
GR1-1
  6
CONTINUOUS
 62
     3
100
AcDbCircle
 10
267.221672
 20
94.312996
 30
0.0
 40
20.0
100
AcDbArc
 50
199.630102
 51
273.369898
  0
ARC
  5
135
330
1F
100
AcDbEntity
  8
GR1-1
  6
CONTINUOUS
 62
     3
100
AcDbCircle
 10
281.305891
 20
89.623983
 30
0.0
 40
20.0
100
AcDbArc
 50
229.802147
 51
301.780578
  0
ARC
  5
136
330
1F
100
AcDbEntity
  8
GR1-1
  6
CONTINUOUS
 62
     3
100
AcDbCircle
 10
280.246096
 20
88.69033
 30
0.0
 40
5.0
100
AcDbArc
 50
197.099431
 51
236.5
  0
ARC
  5
137
330
1F
100
AcDbEntity
  8
GR1-1
  6
CONTINUOUS
 62
     3
100
AcDbCircle
 10
280.246096
 20
88.69033
 30
0.0
 40
7.0
100
AcDbArc
 50
197.099431
 51
236.5
  0
ARC
  5
138
330
1F
100
AcDbEntity
  8
GR1-1
  6
CONTINUOUS
 62
     3
100
AcDbCircle
 10
259.218586
 20
82.221652
 30
0.0
 40
15.0
100
AcDbArc
 50
17.099431
 51
95.900569
  0
ARC
  5
139
330
1F
100
AcDbEntity
  8
GR1-1
  6
CONTINUOUS
 62
     3
100
AcDbCircle
 10
257.40227
 20
105.445445
 30
0.0
 40
20.0
100
AcDbArc
 50
171.219422
 51
243.197853
  0
LINE
  5
13A
330
1F
100
AcDbEntity
  8
GR1-1
  6
CONTINUOUS
 62
     6
100
AcDbLine
 10
276.590705
 20
75.122403
 30
0.0
 11
276.433786
 21
73.128568
 31
0.0
  0
LINE
  5
13B
330
1F
100
AcDbEntity
  8
GR1-1
  6
CONTINUOUS
 62
     6
100
AcDbLine
 10
280.919914
 20
72.775502
 30
0.0
 11
281.037603
 21
74.270878
 31
0.0
  0
LINE
  5
13C
330
1F
100
AcDbEntity
  8
GR1-1
  6
CONTINUOUS
 62
     6
100
AcDbLine
 10
285.562961
 20
74.416271
 30
0.0
 11
285.406042
 21
72.422436
 31
0.0
  0
LINE
  5
13D
330
1F
100
AcDbEntity
  8
LAYERGROUP-1
  6
CONTINUOUS
 62
     6
100
AcDbLine
 10
273.586083
 20
86.535283
 30
0.0
 11
265.543037
 21
74.383566
 31
0.0
  0
LINE
  5
13E
330
1F
100
AcDbEntity
  8
GR1-1
  6
CONTINUOUS
 62
     6
100
AcDbLine
 10
259.634063
 20
79.689126
 30
0.0
 11
259.440578
 21
80.845349
 31
0.0
  0
LINE
  5
13F
330
1F
100
AcDbEntity
  8
GR1-1
  6
CONTINUOUS
 62
     6
100
AcDbLine
 10
266.242176
 20
80.794945
 30
0.0
 11
266.048691
 21
81.951168
 31
0.0
  0
ARC
  5
140
330
1F
100
AcDbEntity
  8
LAYERGROUP-1
  6
CONTINUOUS
 62
     6
100
AcDbCircle
 10
260.908034
 20
92.373349
 30
0.0
 40
3.35
100
AcDbArc
 50
9.5
 51
189.5
  0
ARC
  5
141
330
1F
100
AcDbEntity
  8
LAYERGROUP-1
  6
CONTINUOUS
 62
     6
100
AcDbCircle
 10
262.93812
 20
80.242036
 30
0.0
 40
3.35
100
AcDbArc
 50
-170.5
 51
9.5
  0
LINE
  5
142
330
1F
100
AcDbEntity
  8
GR1-1
  6
CONTINUOUS
 62
     6
100
AcDbLine
 10
257.797463
 20
90.664217
 30
0.0
 11
257.603977
 21
91.820439
 31
0.0
  0
LINE
  5
143
330
1F
100
AcDbEntity
  8
GR1-1
  6
CONTINUOUS
 62
     6
100
AcDbLine
 10
264.405576
 20
91.770036
 30
0.0
 11
264.212091
 21
92.926258
 31
0.0
  0
LINE
  5
144
330
1F
100
AcDbEntity
  8
LAYERGROUP-1
  6
CENTER
 62
     6
100
AcDbLine
 10
140.023077
 20
141.126469
 30
0.0
 11
140.023077
 21
45.912869
 31
0.0
  0
ARC
  5
145
330
1F
100
AcDbEntity
  8
LAYERGROUP-1
  6
CONTINUOUS
 62
     3
100
AcDbCircle
 10
163.723077
 20
89.807692
 30
0.0
 40
2.5
100
AcDbArc
 50
53.130102
 51
126.869898
  0
ARC
  5
146
330
1F
100
AcDbEntity
  8
LAYERGROUP-1
  6
CONTINUOUS
 62
     3
100
AcDbCircle
 10
163.723077
 20
82.807692
 30
0.0
 40
2.5
100
AcDbArc
 50
233.130102
 51
306.869898
  0
LINE
  5
147
330
1F
100
AcDbEntity
  8
LAYERGROUP-1
  6
CONTINUOUS
 62
     3
100
AcDbLine
 10
165.223077
 20
91.807692
 30
0.0
 11
165.223077
 21
80.807692
 31
0.0
  0
ARC
  5
148
330
1F
100
AcDbEntity
  8
LAYERGROUP-1
  6
CONTINUOUS
 62
     3
100
AcDbCircle
 10
167.9942
 20
97.202953
 30
0.0
 40
14.0
100
AcDbArc
 50
70.284009
 51
126.21341
  0
ARC
  5
149
330
1F
100
AcDbEntity
  8
LAYERGROUP-1
  6
CONTINUOUS
 62
     3
100
AcDbCircle
 10
171.705138
 20
107.558094
 30
0.0
 40
3.0
100
AcDbArc
 50
-52.585914
 51
70.284009
  0
LINE
  5
14A
330
1F
100
AcDbEntity
  8
LAYERGROUP-1
  6
CONTINUOUS
 62
     6
100
AcDbLine
 10
165.723077
 20
99.205056
 30
0.0
 11
159.723077
 21
99.205056
 31
0.0
  0
LINE
  5
14B
330
1F
100
AcDbEntity
  8
LAYERGROUP-1
  6
CONTINUOUS
 62
     3
100
AcDbLine
 10
165.723077
 20
99.205056
 30
0.0
 11
173.527852
 21
105.175298
 31
0.0
  0
ARC
  5
14C
330
1F
100
AcDbEntity
  8
LAYERGROUP-1
  6
CONTINUOUS
 62
     3
100
AcDbCircle
 10
167.887066
 20
98.870725
 30
0.0
 40
14.0
100
AcDbArc
 50
69.690114
 51
131.792421
  0
ARC
  5
14D
330
1F
100
AcDbEntity
  8
LAYERGROUP-1
  6
CONTINUOUS
 62
     3
100
AcDbCircle
 10
171.705138
 20
109.186845
 30
0.0
 40
3.0
100
AcDbArc
 50
0.0
 51
69.690114
  0
LINE
  5
14E
330
1F
100
AcDbEntity
  8
LAYERGROUP-1
  6
CONTINUOUS
 62
     3
100
AcDbLine
 10
174.705138
 20
109.186845
 30
0.0
 11
174.705138
 21
107.558094
 31
0.0
  0
ARC
  5
14F
330
1F
100
AcDbEntity
  8
LAYERGROUP-1
  6
CONTINUOUS
 62
     3
100
AcDbCircle
 10
160.223077
 20
107.444713
 30
0.0
 40
2.5
100
AcDbArc
 50
131.792421
 51
180.0
  0
LINE
  5
150
330
1F
100
AcDbEntity
  8
LAYERGROUP-1
  6
CONTINUOUS
 62
     6
100
AcDbLine
 10
157.723077
 20
87.594067
 30
0.0
 11
159.723077
 21
87.594067
 31
0.0
  0
LINE
  5
151
330
1F
100
AcDbEntity
  8
LAYERGROUP-1
  6
CONTINUOUS
 62
     3
100
AcDbLine
 10
159.723077
 20
108.498462
 30
0.0
 11
159.723077
 21
74.312996
 31
0.0
  0
LINE
  5
152
330
1F
100
AcDbEntity
  8
GR1-1
  6
CONTINUOUS
 62
     3
100
AcDbLine
 10
162.223077
 20
92.369247
 30
0.0
 11
162.223077
 21
90.907692
 31
0.0
  0
LINE
  5
153
330
1F
100
AcDbEntity
  8
GR1-1
  6
CONTINUOUS
 62
     3
100
AcDbLine
 10
162.223077
 20
81.707692
 30
0.0
 11
162.223077
 21
80.246138
 31
0.0
  0
ARC
  5
154
330
1F
100
AcDbEntity
  8
LAYERGROUP-1
  6
CONTINUOUS
 62
     3
100
AcDbCircle
 10
162.645594
 20
85.182096
 30
0.0
 40
3.5
100
AcDbArc
 50
213.383657
 51
263.066392
  0
ARC
  5
155
330
1F
100
AcDbEntity
  8
LAYERGROUP-1
  6
CONTINUOUS
 62
     3
100
AcDbCircle
 10
163.147964
 20
87.532106
 30
0.0
 40
3.5
100
AcDbArc
 50
105.322598
 51
168.108391
  0
ARC
  5
156
330
1F
100
AcDbEntity
  8
LAYERGROUP-1
  6
CONTINUOUS
 62
     3
100
AcDbCircle
 10
158.723077
 20
92.369247
 30
0.0
 40
3.5
100
AcDbArc
 50
0.0
 51
73.39845
  0
ARC
  5
157
330
1F
100
AcDbEntity
  8
LAYERGROUP-1
  6
CONTINUOUS
 62
     3
100
AcDbCircle
 10
158.723077
 20
80.246138
 30
0.0
 40
3.5
100
AcDbArc
 50
286.60155
 51
360.0
  0
LINE
  5
158
330
1F
100
AcDbEntity
  8
LAYERGROUP-1
  6
CONTINUOUS
 62
     3
100
AcDbLine
 10
165.723077
 20
99.205056
 30
0.0
 11
165.723077
 21
88.166317
 31
0.0
  0
LINE
  5
159
330
1F
100
AcDbEntity
  8
LAYERGROUP-1
  6
CONTINUOUS
 62
     6
100
AcDbLine
 10
168.284479
 20
85.902656
 30
0.0
 11
165.223077
 21
85.902656
 31
0.0
  0
ARC
  5
15A
330
1F
100
AcDbEntity
  8
LAYERGROUP-1
  6
CONTINUOUS
 62
     3
100
AcDbCircle
 10
157.43543
 20
96.335628
 30
0.0
 40
6.0
100
AcDbArc
 50
87.252118
 51
119.038167
  0
ARC
  5
15B
330
1F
100
AcDbEntity
  8
LAYERGROUP-1
  6
CONTINUOUS
 62
     3
100
AcDbCircle
 10
157.43543
 20
94.667856
 30
0.0
 40
6.0
100
AcDbArc
 50
87.252118
 51
119.038167
  0
LINE
  5
15C
330
1F
100
AcDbEntity
  8
LAYERGROUP-1
  6
CONTINUOUS
 62
     3
100
AcDbLine
 10
154.523077
 20
101.581407
 30
0.0
 11
154.523077
 21
98.398015
 31
0.0
  0
LINE
  5
15D
330
1F
100
AcDbEntity
  8
LAYERGROUP-1
  6
CONTINUOUS
 62
     3
100
AcDbLine
 10
154.523077
 20
98.398015
 30
0.0
 11
157.723077
 21
98.398015
 31
0.0
  0
LINE
  5
15E
330
1F
100
AcDbEntity
  8
LAYERGROUP-1
  6
CONTINUOUS
 62
     3
100
AcDbLine
 10
157.723077
 20
74.312996
 30
0.0
 11
159.723077
 21
74.312996
 31
0.0
  0
LINE
  5
15F
330
1F
100
AcDbEntity
  8
LAYERGROUP-1
  6
CONTINUOUS
 62
     3
100
AcDbLine
 10
166.49504
 20
72.622558
 30
0.0
 11
162.632427
 21
80.558141
 31
0.0
  0
ARC
  5
160
330
1F
100
AcDbEntity
  8
LAYERGROUP-1
  6
CONTINUOUS
 62
     3
100
AcDbCircle
 10
172.637808
 20
83.918067
 30
0.0
 40
14.0
100
AcDbArc
 50
242.891584
 51
298.716692
  0
ARC
  5
161
330
1F
100
AcDbEntity
  8
LAYERGROUP-1
  6
CONTINUOUS
 62
     3
100
AcDbCircle
 10
177.923077
 20
74.270998
 30
0.0
 40
3.0
100
AcDbArc
 50
-61.283308
 51
50.619887
  0
LINE
  5
162
330
1F
100
AcDbEntity
  8
LAYERGROUP-1
  6
CONTINUOUS
 62
     3
100
AcDbLine
 10
165.723077
 20
88.166317
 30
0.0
 11
179.826464
 21
76.58986
 31
0.0
  0
ARC
  5
163
330
1F
100
AcDbEntity
  8
LAYERGROUP-1
  6
CONTINUOUS
 62
     3
100
AcDbCircle
 10
163.49504
 20
72.623983
 30
0.0
 40
3.0
100
AcDbArc
 50
270.0
 51
359.972775
  0
ARC
  5
164
330
1F
100
AcDbEntity
  8
LAYERGROUP-1
  6
CONTINUOUS
 62
     3
100
AcDbCircle
 10
163.164431
 20
75.114038
 30
0.0
 40
5.5
100
AcDbArc
 50
188.37457
 51
273.446173
  0
ARC
  5
165
330
1F
100
AcDbEntity
  8
LAYERGROUP-1
  6
CONTINUOUS
 62
     3
100
AcDbCircle
 10
164.216283
 20
74.065808
 30
0.0
 40
4.5
100
AcDbArc
 50
176.851123
 51
260.777077
  0
LINE
  5
166
330
1F
100
AcDbEntity
  8
LAYERGROUP-1
  6
CONTINUOUS
 62
     3
100
AcDbLine
 10
162.223077
 20
91.807692
 30
0.0
 11
162.223077
 21
80.807692
 31
0.0
  0
LINE
  5
167
330
1F
100
AcDbEntity
  8
LAYERGROUP-1
  6
CONTINUOUS
 62
     3
100
AcDbLine
 10
161.015801
 20
90.307692
 30
0.0
 11
162.223077
 21
90.307692
 31
0.0
  0
LINE
  5
168
330
1F
100
AcDbEntity
  8
LAYERGROUP-1
  6
CONTINUOUS
 62
     3
100
AcDbLine
 10
160.648645
 20
82.307692
 30
0.0
 11
162.223077
 21
82.307692
 31
0.0
  0
LINE
  5
169
330
1F
100
AcDbEntity
  8
LAYERGROUP-1
  6
CONTINUOUS
 62
     3
100
AcDbLine
 10
155.423077
 20
101.988099
 30
0.0
 11
155.423077
 21
120.217692
 31
0.0
  0
LINE
  5
16A
330
1F
100
AcDbEntity
  8
LAYERGROUP-1
  6
CENTER
 62
     6
100
AcDbLine
 10
221.747704
 20
230.710677
 30
0.0
 11
319.058074
 21
230.710677
 31
0.0
  0
DIMENSION
  5
16B
330
1F
100
AcDbEntity
  8
GR1-1
100
AcDbDimension
  2
*D23
 10
338.07824
 20
259.710677
 30
0.0
 11
337.078217
 21
230.710678
 31
0.0
 70
    33
  3
FXDIMINFO
100
AcDbAlignedDimension
 13
309.923077
 23
201.710677
 33
0.0
 14
309.923077
 24
259.710677
 34
0.0
1001
ACAD
1000
DSTYLE
1002
{
1070
     7
1000
FXTIP_ARROW_E
1070
     6
1000
FXTIP_ARROW_S
1070
   173
1070
     1
1002
}
  0
DIMENSION
  5
175
330
1F
100
AcDbEntity
  8
GR1-1
100
AcDbDimension
  2
*D24
 10
328.07824
 20
251.710677
 30
0.0
 11
327.078217
 21
230.710678
 31
0.0
 70
    32
  3
FXDIMINFO
100
AcDbAlignedDimension
 13
318.423077
 23
209.710677
 33
0.0
 14
317.923077
 24
251.710677
 34
0.0
 50
270.0
100
AcDbRotatedDimension
1001
ACAD
1000
DSTYLE
1002
{
1070
     7
1000
FXTIP_ARROW_E
1070
     6
1000
FXTIP_ARROW_S
1070
   173
1070
     1
1002
}
  0
ARC
  5
17F
330
1F
100
AcDbEntity
  8
GR1-1
  6
CONTINUOUS
 62
     3
100
AcDbCircle
 10
309.923077
 20
251.710677
 30
0.0
 40
8.0
100
AcDbArc
 50
-13.806071
 51
90.0
  0
LINE
  5
180
330
1F
100
AcDbEntity
  8
GR1-1
  6
CONTINUOUS
 62
     3
100
AcDbLine
 10
309.923077
 20
259.710677
 30
0.0
 11
255.923077
 21
259.710677
 31
0.0
  0
ARC
  5
181
330
1F
100
AcDbEntity
  8
GR1-1
  6
CONTINUOUS
 62
     3
100
AcDbCircle
 10
255.923077
 20
251.710677
 30
0.0
 40
8.0
100
AcDbArc
 50
90.0
 51
193.806071
  0
CIRCLE
  5
182
330
1F
100
AcDbEntity
  8
GR1-1
  6
CONTINUOUS
 62
     3
100
AcDbCircle
 10
255.423077
 20
251.710677
 30
0.0
 40
4.4
  0
CIRCLE
  5
183
330
1F
100
AcDbEntity
  8
GR1-1
  6
CONTINUOUS
 62
     3
100
AcDbCircle
 10
310.423077
 20
209.710677
 30
0.0
 40
4.4
  0
ARC
  5
184
330
1F
100
AcDbEntity
  8
GR1-1
  6
CONTINUOUS
 62
     3
100
AcDbCircle
 10
309.923077
 20
209.710677
 30
0.0
 40
8.0
100
AcDbArc
 50
-90.0
 51
13.806071
  0
LINE
  5
185
330
1F
100
AcDbEntity
  8
GR1-1
  6
CONTINUOUS
 62
     3
100
AcDbLine
 10
309.923077
 20
201.710677
 30
0.0
 11
255.923077
 21
201.710677
 31
0.0
  0
CIRCLE
  5
186
330
1F
100
AcDbEntity
  8
GR1-1
  6
CONTINUOUS
 62
     3
100
AcDbCircle
 10
255.423077
 20
209.710677
 30
0.0
 40
4.4
  0
ARC
  5
187
330
1F
100
AcDbEntity
  8
GR1-1
  6
CONTINUOUS
 62
     3
100
AcDbCircle
 10
170.465485
 20
230.710677
 30
0.0
 40
80.0
100
AcDbArc
 50
-13.806071
 51
13.806071
  0
ARC
  5
188
330
1F
100
AcDbEntity
  8
GR1-1
  6
CONTINUOUS
 62
     3
100
AcDbCircle
 10
255.923077
 20
209.710677
 30
0.0
 40
8.0
100
AcDbArc
 50
166.193929
 51
270.0
  0
CIRCLE
  5
189
330
1F
100
AcDbEntity
  8
GR1-1
  6
CONTINUOUS
 62
     3
100
AcDbCircle
 10
310.423077
 20
251.710677
 30
0.0
 40
4.4
  0
ARC
  5
18A
330
1F
100
AcDbEntity
  8
GR1-1
  6
CONTINUOUS
 62
     3
100
AcDbCircle
 10
395.380669
 20
230.710677
 30
0.0
 40
80.0
100
AcDbArc
 50
166.193929
 51
193.806071
  0
LINE
  5
18B
330
1F
100
AcDbEntity
  8
GR1-1
  6
CONTINUOUS
 62
     6
100
AcDbLine
 10
310.423077
 20
201.710677
 30
0.0
 11
310.423077
 21
206.210677
 31
0.0
  0
LINE
  5
18C
330
1F
100
AcDbEntity
  8
GR1-1
  6
CONTINUOUS
 62
     6
100
AcDbLine
 10
310.423077
 20
207.710677
 30
0.0
 11
310.423077
 21
211.710677
 31
0.0
  0
LINE
  5
18D
330
1F
100
AcDbEntity
  8
GR1-1
  6
CONTINUOUS
 62
     6
100
AcDbLine
 10
310.423077
 20
213.210677
 30
0.0
 11
310.423077
 21
217.710677
 31
0.0
  0
LINE
  5
18E
330
1F
100
AcDbEntity
  8
GR1-1
  6
CONTINUOUS
 62
     6
100
AcDbLine
 10
312.423077
 20
209.710677
 30
0.0
 11
308.423077
 21
209.710677
 31
0.0
  0
LINE
  5
18F
330
1F
100
AcDbEntity
  8
GR1-1
  6
CONTINUOUS
 62
     6
100
AcDbLine
 10
306.923077
 20
209.710677
 30
0.0
 11
302.423077
 21
209.710677
 31
0.0
  0
LINE
  5
190
330
1F
100
AcDbEntity
  8
GR1-1
  6
CONTINUOUS
 62
     6
100
AcDbLine
 10
313.923077
 20
209.710677
 30
0.0
 11
318.423077
 21
209.710677
 31
0.0
  0
LINE
  5
191
330
1F
100
AcDbEntity
  8
GR1-1
  6
CONTINUOUS
 62
     6
100
AcDbLine
 10
255.423077
 20
217.710677
 30
0.0
 11
255.423077
 21
213.210677
 31
0.0
  0
LINE
  5
192
330
1F
100
AcDbEntity
  8
GR1-1
  6
CONTINUOUS
 62
     6
100
AcDbLine
 10
255.423077
 20
211.710677
 30
0.0
 11
255.423077
 21
207.710677
 31
0.0
  0
LINE
  5
193
330
1F
100
AcDbEntity
  8
GR1-1
  6
CONTINUOUS
 62
     6
100
AcDbLine
 10
255.423077
 20
206.210677
 30
0.0
 11
255.423077
 21
201.710677
 31
0.0
  0
LINE
  5
194
330
1F
100
AcDbEntity
  8
GR1-1
  6
CONTINUOUS
 62
     6
100
AcDbLine
 10
253.423077
 20
209.710677
 30
0.0
 11
257.423077
 21
209.710677
 31
0.0
  0
LINE
  5
195
330
1F
100
AcDbEntity
  8
GR1-1
  6
CONTINUOUS
 62
     6
100
AcDbLine
 10
258.923077
 20
209.710677
 30
0.0
 11
263.423077
 21
209.710677
 31
0.0
  0
LINE
  5
196
330
1F
100
AcDbEntity
  8
GR1-1
  6
CONTINUOUS
 62
     6
100
AcDbLine
 10
251.923077
 20
209.710677
 30
0.0
 11
247.423077
 21
209.710677
 31
0.0
  0
LINE
  5
197
330
1F
100
AcDbEntity
  8
GR1-1
  6
CONTINUOUS
 62
     6
100
AcDbLine
 10
255.423077
 20
243.710677
 30
0.0
 11
255.423077
 21
248.210677
 31
0.0
  0
LINE
  5
198
330
1F
100
AcDbEntity
  8
GR1-1
  6
CONTINUOUS
 62
     6
100
AcDbLine
 10
255.423077
 20
249.710677
 30
0.0
 11
255.423077
 21
253.710677
 31
0.0
  0
LINE
  5
199
330
1F
100
AcDbEntity
  8
GR1-1
  6
CONTINUOUS
 62
     6
100
AcDbLine
 10
255.423077
 20
255.210677
 30
0.0
 11
255.423077
 21
259.710677
 31
0.0
  0
LINE
  5
19A
330
1F
100
AcDbEntity
  8
GR1-1
  6
CONTINUOUS
 62
     6
100
AcDbLine
 10
253.423077
 20
251.710677
 30
0.0
 11
257.423077
 21
251.710677
 31
0.0
  0
LINE
  5
19B
330
1F
100
AcDbEntity
  8
GR1-1
  6
CONTINUOUS
 62
     6
100
AcDbLine
 10
258.923077
 20
251.710677
 30
0.0
 11
263.423077
 21
251.710677
 31
0.0
  0
LINE
  5
19C
330
1F
100
AcDbEntity
  8
GR1-1
  6
CONTINUOUS
 62
     6
100
AcDbLine
 10
251.923077
 20
251.710677
 30
0.0
 11
247.423077
 21
251.710677
 31
0.0
  0
LINE
  5
19D
330
1F
100
AcDbEntity
  8
GR1-1
  6
CENTER
 62
     6
100
AcDbLine
 10
282.923077
 20
261.984633
 30
0.0
 11
282.923077
 21
198.604288
 31
0.0
  0
CIRCLE
  5
19E
330
1F
100
AcDbEntity
  8
GR1-1
  6
CONTINUOUS
 62
     6
100
AcDbCircle
 10
282.923077
 20
230.710677
 30
0.0
 40
12.49999999999999
  0
LINE
  5
19F
330
1F
100
AcDbEntity
  8
GR1-1
  6
CONTINUOUS
 62
     6
100
AcDbLine
 10
310.423077
 20
243.710677
 30
0.0
 11
310.423077
 21
248.210677
 31
0.0
  0
LINE
  5
1A0
330
1F
100
AcDbEntity
  8
GR1-1
  6
CONTINUOUS
 62
     6
100
AcDbLine
 10
310.423077
 20
249.710677
 30
0.0
 11
310.423077
 21
253.710677
 31
0.0
  0
LINE
  5
1A1
330
1F
100
AcDbEntity
  8
GR1-1
  6
CONTINUOUS
 62
     6
100
AcDbLine
 10
310.423077
 20
255.210677
 30
0.0
 11
310.423077
 21
259.710677
 31
0.0
  0
LINE
  5
1A2
330
1F
100
AcDbEntity
  8
GR1-1
  6
CONTINUOUS
 62
     6
100
AcDbLine
 10
312.423077
 20
251.710677
 30
0.0
 11
308.423077
 21
251.710677
 31
0.0
  0
LINE
  5
1A3
330
1F
100
AcDbEntity
  8
GR1-1
  6
CONTINUOUS
 62
     6
100
AcDbLine
 10
306.923077
 20
251.710677
 30
0.0
 11
302.423077
 21
251.710677
 31
0.0
  0
LINE
  5
1A4
330
1F
100
AcDbEntity
  8
GR1-1
  6
CONTINUOUS
 62
     6
100
AcDbLine
 10
313.923077
 20
251.710677
 30
0.0
 11
318.423077
 21
251.710677
 31
0.0
  0
CIRCLE
  5
1A5
330
1F
100
AcDbEntity
  8
LAYERGROUP-1
  6
CONTINUOUS
 62
     6
100
AcDbCircle
 10
282.923077
 20
230.710677
 30
0.0
 40
22.29999999999998
  0
CIRCLE
  5
1A6
330
1F
100
AcDbEntity
  8
LAYERGROUP-1
  6
CONTINUOUS
 62
     6
100
AcDbCircle
 10
282.923077
 20
230.710677
 30
0.0
 40
24.29999999999998
  0
ARC
  5
1A7
330
1F
100
AcDbEntity
  8
LAYERGROUP-1
  6
CONTINUOUS
 62
     3
100
AcDbCircle
 10
281.184434
 20
232.449321
 30
0.0
 40
5.541187189562158
100
AcDbArc
 50
71.713589
 51
198.286411
  0
ARC
  5
1A8
330
1F
100
AcDbEntity
  8
LAYERGROUP-1
  6
CONTINUOUS
 62
     3
100
AcDbCircle
 10
284.66172
 20
232.449321
 30
0.0
 40
5.541187189562158
100
AcDbArc
 50
-18.286411
 51
108.286411
  0
ARC
  5
1A9
330
1F
100
AcDbEntity
  8
LAYERGROUP-1
  6
CONTINUOUS
 62
     3
100
AcDbCircle
 10
281.184434
 20
228.972034
 30
0.0
 40
5.541187189562158
100
AcDbArc
 50
161.713589
 51
288.286411
  0
ARC
  5
1AA
330
1F
100
AcDbEntity
  8
LAYERGROUP-1
  6
CONTINUOUS
 62
     3
100
AcDbCircle
 10
284.66172
 20
228.972034
 30
0.0
 40
5.541187189562158
100
AcDbArc
 50
-108.286411
 51
18.286411
  0
LINE
  5
1AB
330
1F
100
AcDbEntity
  8
LAYERGROUP-1
  6
CONTINUOUS
 62
     6
100
AcDbLine
 10
281.523077
 20
232.110677
 30
0.0
 11
284.323077
 21
229.310677
 31
0.0
  0
ARC
  5
1AC
330
1F
100
AcDbEntity
  8
LAYERGROUP-1
  6
CONTINUOUS
 62
     6
100
AcDbCircle
 10
279.773077
 20
233.078923
 30
0.0
 40
2.0
100
AcDbArc
 50
331.044976
 51
360.0
  0
LINE
  5
1AD
330
1F
100
AcDbEntity
  8
LAYERGROUP-1
  6
CONTINUOUS
 62
     6
100
AcDbLine
 10
281.773077
 20
233.078923
 30
0.0
 11
281.023077
 21
237.988158
 31
0.0
  0
LINE
  5
1AE
330
1F
100
AcDbEntity
  8
LAYERGROUP-1
  6
CONTINUOUS
 62
     6
100
AcDbLine
 10
282.923077
 20
237.710677
 30
0.0
 11
282.923077
 21
223.710677
 31
0.0
  0
LINE
  5
1AF
330
1F
100
AcDbEntity
  8
LAYERGROUP-1
  6
CONTINUOUS
 62
     6
100
AcDbLine
 10
289.923077
 20
230.710677
 30
0.0
 11
275.923077
 21
230.710677
 31
0.0
  0
LINE
  5
1B0
330
1F
100
AcDbEntity
  8
LAYERGROUP-1
  6
CONTINUOUS
 62
     6
100
AcDbLine
 10
284.323077
 20
232.110677
 30
0.0
 11
281.523077
 21
229.310677
 31
0.0
  0
ARC
  5
1B1
330
1F
100
AcDbEntity
  8
LAYERGROUP-1
  6
CONTINUOUS
 62
     6
100
AcDbCircle
 10
286.073077
 20
233.078923
 30
0.0
 40
2.0
100
AcDbArc
 50
180.0
 51
208.955024
  0
LINE
  5
1B2
330
1F
100
AcDbEntity
  8
LAYERGROUP-1
  6
CONTINUOUS
 62
     6
100
AcDbLine
 10
284.073077
 20
233.078923
 30
0.0
 11
284.823077
 21
237.988158
 31
0.0
  0
ARC
  5
1B3
330
1F
100
AcDbEntity
  8
LAYERGROUP-1
  6
CONTINUOUS
 62
     6
100
AcDbCircle
 10
279.773077
 20
228.342432
 30
0.0
 40
2.0
100
AcDbArc
 50
0.0
 51
28.955024
  0
LINE
  5
1B4
330
1F
100
AcDbEntity
  8
LAYERGROUP-1
  6
CONTINUOUS
 62
     6
100
AcDbLine
 10
281.773077
 20
228.342432
 30
0.0
 11
281.023077
 21
223.433197
 31
0.0
  0
ARC
  5
1B5
330
1F
100
AcDbEntity
  8
LAYERGROUP-1
  6
CONTINUOUS
 62
     6
100
AcDbCircle
 10
286.073077
 20
228.342432
 30
0.0
 40
2.0
100
AcDbArc
 50
151.044976
 51
180.0
  0
LINE
  5
1B6
330
1F
100
AcDbEntity
  8
LAYERGROUP-1
  6
CONTINUOUS
 62
     6
100
AcDbLine
 10
284.073077
 20
228.342432
 30
0.0
 11
284.823077
 21
223.433197
 31
0.0
  0
ARC
  5
1B7
330
1F
100
AcDbEntity
  8
LAYERGROUP-1
  6
CONTINUOUS
 62
     6
100
AcDbCircle
 10
280.554831
 20
227.560677
 30
0.0
 40
2.0
100
AcDbArc
 50
61.044976
 51
90.0
  0
LINE
  5
1B8
330
1F
100
AcDbEntity
  8
LAYERGROUP-1
  6
CONTINUOUS
 62
     6
100
AcDbLine
 10
280.554831
 20
229.560677
 30
0.0
 11
275.645596
 21
228.810677
 31
0.0
  0
ARC
  5
1B9
330
1F
100
AcDbEntity
  8
LAYERGROUP-1
  6
CONTINUOUS
 62
     6
100
AcDbCircle
 10
280.554831
 20
233.860677
 30
0.0
 40
2.0
100
AcDbArc
 50
270.0
 51
298.955024
  0
LINE
  5
1BA
330
1F
100
AcDbEntity
  8
LAYERGROUP-1
  6
CONTINUOUS
 62
     6
100
AcDbLine
 10
280.554831
 20
231.860677
 30
0.0
 11
275.645596
 21
232.610677
 31
0.0
  0
ARC
  5
1BB
330
1F
100
AcDbEntity
  8
LAYERGROUP-1
  6
CONTINUOUS
 62
     6
100
AcDbCircle
 10
285.291323
 20
227.560677
 30
0.0
 40
2.0
100
AcDbArc
 50
90.0
 51
118.955024
  0
LINE
  5
1BC
330
1F
100
AcDbEntity
  8
LAYERGROUP-1
  6
CONTINUOUS
 62
     6
100
AcDbLine
 10
285.291323
 20
229.560677
 30
0.0
 11
290.200558
 21
228.810677
 31
0.0
  0
ARC
  5
1BD
330
1F
100
AcDbEntity
  8
LAYERGROUP-1
  6
CONTINUOUS
 62
     6
100
AcDbCircle
 10
285.291323
 20
233.860677
 30
0.0
 40
2.0
100
AcDbArc
 50
241.044976
 51
270.0
  0
LINE
  5
1BE
330
1F
100
AcDbEntity
  8
LAYERGROUP-1
  6
CONTINUOUS
 62
     6
100
AcDbLine
 10
285.291323
 20
231.860677
 30
0.0
 11
290.200558
 21
232.610677
 31
0.0
  0
DIMENSION
  5
1BF
330
1F
100
AcDbEntity
  8
LAYERGROUP-1
100
AcDbDimension
  2
*D25
 10
258.962989
 20
249.097437
 30
0.0
 11
239.966568
 21
264.363983
 31
0.0
 70
   163
  3
FXDIMINFO
100
AcDbDiametricDimension
 15
251.883165
 25
254.323918
 35
0.0
 40
0.0
  0
DIMENSION
  5
1C9
330
1F
100
AcDbEntity
  8
GR1-1
100
AcDbDimension
  2
*D26
 10
317.923077
 20
169.210677
 30
0.0
 11
282.923065
 21
170.210678
 31
0.0
 70
    33
  3
FXDIMINFO
100
AcDbAlignedDimension
 13
247.923077
 23
209.710677
 33
0.0
 14
317.923077
 24
209.710677
 34
0.0
1001
ACAD
1000
DSTYLE
1002
{
1070
     7
1000
FXTIP_ARROW_E
1070
     6
1000
FXTIP_ARROW_S
1070
   173
1070
     1
1002
}
  0
DIMENSION
  5
1D3
330
1F
100
AcDbEntity
  8
GR1-1
100
AcDbDimension
  2
*D27
 10
310.423077
 20
179.210677
 30
0.0
 11
282.923065
 21
180.210678
 31
0.0
 70
    33
  3
FXDIMINFO
100
AcDbAlignedDimension
 13
255.423077
 23
201.710677
 33
0.0
 14
310.423077
 24
201.710677
 34
0.0
1001
ACAD
1000
DSTYLE
1002
{
1070
     7
1000
FXTIP_ARROW_E
1070
     6
1000
FXTIP_ARROW_S
1070
   173
1070
     1
1002
}
  0
LINE
  5
1DD
330
1F
100
AcDbEntity
  8
GR1-1
  6
CONTINUOUS
 62
     3
100
AcDbLine
 10
237.636666
 20
212.410677
 30
0.0
 11
248.344301
 21
212.410677
 31
0.0
  0
TEXT
  5
1DE
330
1F
100
AcDbEntity
  8
LAYERGROUP-1
  6
CONTINUOUS
 62
     7
100
AcDbText
 10
290.021271
 20
204.807556
 30
0.0
 40
5.295918
  1
 FF
 50
250.0
 41
0.976486
  7
FX_VECTOR
 72
     5
 11
285.304687
 21
191.848849
 31
0.0
100
AcDbText
  0
TEXT
  5
1DF
330
1F
100
AcDbEntity
  8
LAYERGROUP-1
  6
CONTINUOUS
 62
     7
100
AcDbText
 10
239.223282
 20
208.063782
 30
0.0
 40
5.043719
  1
ON
 50
272.0
 41
1.004119
  7
FX_VECTOR
 72
     5
 11
239.559945
 21
198.423
 31
0.0
100
AcDbText
  0
ARC
  5
1E0
330
1F
100
AcDbEntity
  8
LAYERGROUP-1
  6
CONTINUOUS
 62
     3
100
AcDbCircle
 10
242.050626
 20
205.14659
 30
0.0
 40
8.5
100
AcDbArc
 50
121.284595
 51
180.0
  0
ARC
  5
1E1
330
1F
100
AcDbEntity
  8
LAYERGROUP-1
  6
CONTINUOUS
 62
     3
100
AcDbCircle
 10
242.050626
 20
203.910677
 30
0.0
 40
8.5
100
AcDbArc
 50
180.0
 51
273.72305
  0
LINE
  5
1E2
330
1F
100
AcDbEntity
  8
LAYERGROUP-1
  6
CONTINUOUS
 62
     3
100
AcDbLine
 10
233.550626
 20
205.14659
 30
0.0
 11
233.550626
 21
203.910677
 31
0.0
  0
ARC
  5
1E3
330
1F
100
AcDbEntity
  8
LAYERGROUP-1
  6
CONTINUOUS
 62
     3
100
AcDbCircle
 10
243.1545
 20
205.945114
 30
0.0
 40
8.5
100
AcDbArc
 50
130.478064
 51
180.0
  0
ARC
  5
1E4
330
1F
100
AcDbEntity
  8
LAYERGROUP-1
  6
CONTINUOUS
 62
     3
100
AcDbCircle
 10
243.1545
 20
203.910677
 30
0.0
 40
8.5
100
AcDbArc
 50
180.0
 51
305.566009
  0
LINE
  5
1E5
330
1F
100
AcDbEntity
  8
LAYERGROUP-1
  6
CONTINUOUS
 62
     3
100
AcDbLine
 10
234.6545
 20
205.945114
 30
0.0
 11
234.6545
 21
203.910677
 31
0.0
  0
LINE
  5
1E6
330
1F
100
AcDbEntity
  8
LAYERGROUP-1
  6
CONTINUOUS
 62
     3
100
AcDbLine
 10
254.801964
 20
201.789623
 30
0.0
 11
248.098444
 21
196.996387
 31
0.0
  0
ARC
  5
1E7
330
1F
100
AcDbEntity
  8
LAYERGROUP-1
  6
CONTINUOUS
 62
     3
100
AcDbCircle
 10
288.529159
 20
197.710677
 30
0.0
 40
8.5
100
AcDbArc
 50
208.80277
 51
360.0
  0
LINE
  5
1E8
330
1F
100
AcDbEntity
  8
LAYERGROUP-1
  6
CONTINUOUS
 62
     3
100
AcDbLine
 10
276.62983
 20
201.710677
 30
0.0
 11
281.08075
 21
193.615411
 31
0.0
  0
ARC
  5
1E9
330
1F
100
AcDbEntity
  8
LAYERGROUP-1
  6
CONTINUOUS
 62
     3
100
AcDbCircle
 10
288.529159
 20
197.938064
 30
0.0
 40
8.5
100
AcDbArc
 50
0.0
 51
26.348946
  0
LINE
  5
1EA
330
1F
100
AcDbEntity
  8
LAYERGROUP-1
  6
CONTINUOUS
 62
     3
100
AcDbLine
 10
297.029159
 20
197.938064
 30
0.0
 11
297.029159
 21
197.710677
 31
0.0
  0
LINE
  5
1EB
330
1F
100
AcDbEntity
  8
LAYERGROUP-1
  6
CONTINUOUS
 62
     7
100
AcDbLine
 10
293.810765
 20
201.710677
 30
0.0
 11
293.814167
 21
201.68016
 31
0.0
  0
LINE
  5
1EC
330
1F
100
AcDbEntity
  8
LAYERGROUP-1
  6
CONTINUOUS
 62
     7
100
AcDbLine
 10
293.814167
 20
201.68016
 30
0.0
 11
293.476733
 21
200.752926
 31
0.0
  0
LINE
  5
1ED
330
1F
100
AcDbEntity
  8
LAYERGROUP-1
  6
CONTINUOUS
 62
     7
100
AcDbLine
 10
293.476733
 20
200.752926
 30
0.0
 11
292.940809
 21
200.249327
 31
0.0
  0
LINE
  5
1EE
330
1F
100
AcDbEntity
  8
LAYERGROUP-1
  6
CONTINUOUS
 62
     7
100
AcDbLine
 10
292.940809
 20
200.249327
 30
0.0
 11
292.208662
 21
200.16823
 31
0.0
  0
LINE
  5
1EF
330
1F
100
AcDbEntity
  8
LAYERGROUP-1
  6
CONTINUOUS
 62
     7
100
AcDbLine
 10
292.208662
 20
200.16823
 30
0.0
 11
290.030938
 21
200.961057
 31
0.0
  0
LINE
  5
1F0
330
1F
100
AcDbEntity
  8
LAYERGROUP-1
  6
CONTINUOUS
 62
     7
100
AcDbLine
 10
290.030938
 20
200.961057
 30
0.0
 11
289.520534
 21
201.495848
 31
0.0
  0
LINE
  5
1F1
330
1F
100
AcDbEntity
  8
LAYERGROUP-1
  6
CONTINUOUS
 62
     7
100
AcDbLine
 10
289.520534
 20
201.495848
 30
0.0
 11
289.494446
 21
201.710677
 31
0.0
  0
ARC
  5
1F2
330
1F
100
AcDbEntity
  8
LAYERGROUP-1
  6
CONTINUOUS
 62
     3
100
AcDbCircle
 10
140.423077
 20
43.807692
 30
0.0
 40
80.0
100
AcDbArc
 50
82.26362
 51
97.73638
  0
ARC
  5
1F3
330
1F
100
AcDbEntity
  8
LAYERGROUP-1
  6
CONTINUOUS
 62
     3
100
AcDbCircle
 10
129.923077
 20
121.09773
 30
0.0
 40
2.0
100
AcDbArc
 50
97.73638
 51
180.0
  0
ARC
  5
1F4
330
1F
100
AcDbEntity
  8
LAYERGROUP-1
  6
CONTINUOUS
 62
     3
100
AcDbCircle
 10
150.923077
 20
121.09773
 30
0.0
 40
2.0
100
AcDbArc
 50
0.0
 51
82.26362
  0
LINE
  5
1F5
330
1F
100
AcDbEntity
  8
LAYERGROUP-1
  6
CONTINUOUS
 62
     3
100
AcDbLine
 10
125.423077
 20
100.282653
 30
0.0
 11
125.423077
 21
94.303277
 31
0.0
  0
LINE
  5
1F6
330
1F
100
AcDbEntity
  8
LAYERGROUP-1
  6
CONTINUOUS
 62
     3
100
AcDbLine
 10
123.423077
 20
90.053299
 30
0.0
 11
123.423077
 21
72.262844
 31
0.0
  0
LINE
  5
1F7
330
1F
100
AcDbEntity
  8
LAYERGROUP-1
  6
CONTINUOUS
 62
     3
100
AcDbLine
 10
125.423077
 20
94.303277
 30
0.0
 11
123.523948
 21
92.675473
 31
0.0
  0
ARC
  5
1F8
330
1F
100
AcDbEntity
  8
LAYERGROUP-1
  6
CONTINUOUS
 62
     3
100
AcDbCircle
 10
126.507296
 20
89.194856
 30
0.0
 40
4.584218714584087
100
AcDbArc
 50
130.600926
 51
227.717197
  0
ARC
  5
1F9
330
1F
100
AcDbEntity
  8
LAYERGROUP-1
  6
CONTINUOUS
 62
     3
100
AcDbCircle
 10
125.423077
 20
72.262844
 30
0.0
 40
2.0
100
AcDbArc
 50
180.0
 51
262.874354
  0
ARC
  5
1FA
330
1F
100
AcDbEntity
  8
LAYERGROUP-1
  6
CONTINUOUS
 62
     3
100
AcDbCircle
 10
126.507296
 20
89.194856
 30
0.0
 40
3.484218714584087
100
AcDbArc
 50
129.736801
 51
207.72427
  0
LINE
  5
1FB
330
1F
100
AcDbEntity
  8
LAYERGROUP-1
  6
CONTINUOUS
 62
     3
100
AcDbLine
 10
125.423077
 20
94.303277
 30
0.0
 11
123.423077
 21
90.053299
 31
0.0
  0
ARC
  5
1FC
330
1F
100
AcDbEntity
  8
LAYERGROUP-1
  6
CONTINUOUS
 62
     3
100
AcDbCircle
 10
126.923077
 20
100.282653
 30
0.0
 40
1.5
100
AcDbArc
 50
111.305784
 51
180.0
  0
LINE
  5
1FD
330
1F
100
AcDbEntity
  8
LAYERGROUP-1
  6
CONTINUOUS
 62
     3
100
AcDbLine
 10
127.923077
 20
102.282692
 30
0.0
 11
126.378059
 21
101.680135
 31
0.0
  0
LINE
  5
1FE
330
1F
100
AcDbEntity
  8
LAYERGROUP-1
  6
CONTINUOUS
 62
     3
100
AcDbLine
 10
127.923077
 20
69.934749
 30
0.0
 11
125.174986
 21
70.278291
 31
0.0
  0
LINE
  5
1FF
330
1F
100
AcDbEntity
  8
LAYERGROUP-1
  6
CONTINUOUS
 62
     3
100
AcDbLine
 10
123.423077
 20
92.675473
 30
0.0
 11
123.423077
 21
120.217692
 31
0.0
  0
DIMENSION
  5
200
330
1F
100
AcDbEntity
  8
LAYERGROUP-1
100
AcDbDimension
  2
*D28
 10
152.923077
 20
37.810948
 30
0.0
 11
140.42308
 21
38.810947
 31
0.0
 70
    33
  3
FXDIMINFO
100
AcDbAlignedDimension
 13
127.923077
 23
51.517654
 33
0.0
 14
152.923077
 24
51.517654
 34
0.0
1001
ACAD
1000
DSTYLE
1002
{
1070
     7
1000
FXTIP_ARROW_E
1070
     6
1000
FXTIP_ARROW_S
1070
   173
1070
     1
1002
}
  0
DIMENSION
  5
20A
330
1F
100
AcDbEntity
  8
LAYERGROUP-1
100
AcDbDimension
  2
*D29
 10
155.423077
 20
28.699494
 30
0.0
 11
140.42308
 21
29.699495
 31
0.0
 70
    32
  3
FXDIMINFO
100
AcDbAlignedDimension
 13
125.423077
 23
70.247277
 33
0.0
 14
155.423077
 24
73.307692
 34
0.0
 50
180.0
100
AcDbRotatedDimension
1001
ACAD
1000
DSTYLE
1002
{
1070
     7
1000
FXTIP_ARROW_E
1070
     6
1000
FXTIP_ARROW_S
1070
   173
1070
     1
1002
}
  0
ARC
  5
214
330
1F
100
AcDbEntity
  8
LAYERGROUP-1
  6
CONTINUOUS
 62
     3
100
AcDbCircle
 10
261.123077
 20
127.717692
 30
0.0
 40
3.0
100
AcDbArc
 50
90.0
 51
177.57719
  0
LINE
  5
215
330
1F
100
AcDbEntity
  8
LAYERGROUP-1
  6
CONTINUOUS
 62
     3
100
AcDbLine
 10
261.123077
 20
130.717692
 30
0.0
 11
304.723077
 21
130.717692
 31
0.0
  0
LINE
  5
216
330
1F
100
AcDbEntity
  8
LAYERGROUP-1
  6
CONTINUOUS
 62
     3
100
AcDbLine
 10
258.023077
 20
125.417692
 30
0.0
 11
259.533995
 21
125.417692
 31
0.0
  0
LINE
  5
217
330
1F
100
AcDbEntity
  8
LAYERGROUP-1
  6
CONTINUOUS
 62
     3
100
AcDbLine
 10
258.023077
 20
125.417692
 30
0.0
 11
258.125759
 21
127.844513
 31
0.0
  0
LINE
  5
218
330
1F
100
AcDbEntity
  8
GR1-1
  6
CONTINUOUS
 62
     3
100
AcDbLine
 10
247.923077
 20
136.507692
 30
0.0
 11
247.923077
 21
138.807692
 31
0.0
  0
LINE
  5
219
330
1F
100
AcDbEntity
  8
GR1-1
  6
CONTINUOUS
 62
     3
100
AcDbLine
 10
247.923077
 20
138.807692
 30
0.0
 11
317.923077
 21
138.807692
 31
0.0
  0
LINE
  5
21A
330
1F
100
AcDbEntity
  8
GR1-1
  6
CONTINUOUS
 62
     3
100
AcDbLine
 10
317.923077
 20
136.507692
 30
0.0
 11
247.923077
 21
136.507692
 31
0.0
  0
ARC
  5
21B
330
1F
100
AcDbEntity
  8
LAYERGROUP-1
  6
CONTINUOUS
 62
     3
100
AcDbCircle
 10
254.423077
 20
135.007692
 30
0.0
 40
1.5
100
AcDbArc
 50
19.980982
 51
90.0
  0
ARC
  5
21C
330
1F
100
AcDbEntity
  8
LAYERGROUP-1
  6
CONTINUOUS
 62
     3
100
AcDbCircle
 10
259.623077
 20
135.207692
 30
0.0
 40
3.0
100
AcDbArc
 50
231.96215
 51
270.0
  0
ARC
  5
21D
330
1F
100
AcDbEntity
  8
LAYERGROUP-1
  6
CONTINUOUS
 62
     3
100
AcDbCircle
 10
261.471623
 20
137.570504
 30
0.0
 40
6.0
100
AcDbArc
 50
199.980982
 51
231.96215
  0
LINE
  5
21E
330
1F
100
AcDbEntity
  8
GR1-1
  6
CONTINUOUS
 62
     3
100
AcDbLine
 10
317.923077
 20
136.507692
 30
0.0
 11
317.923077
 21
138.807692
 31
0.0
  0
ARC
  5
21F
330
1F
100
AcDbEntity
  8
LAYERGROUP-1
  6
CONTINUOUS
 62
     3
100
AcDbCircle
 10
306.223077
 20
135.207692
 30
0.0
 40
3.0
100
AcDbArc
 50
270.0
 51
308.03785
  0
ARC
  5
220
330
1F
100
AcDbEntity
  8
LAYERGROUP-1
  6
CONTINUOUS
 62
     3
100
AcDbCircle
 10
304.374531
 20
137.570504
 30
0.0
 40
6.0
100
AcDbArc
 50
308.03785
 51
340.019018
  0
LINE
  5
221
330
1F
100
AcDbEntity
  8
LAYERGROUP-1
  6
CONTINUOUS
 62
     3
100
AcDbLine
 10
306.223077
 20
132.207692
 30
0.0
 11
259.623077
 21
132.207692
 31
0.0
  0
ARC
  5
222
330
1F
100
AcDbEntity
  8
LAYERGROUP-1
  6
CONTINUOUS
 62
     3
100
AcDbCircle
 10
311.423077
 20
135.007692
 30
0.0
 40
1.5
100
AcDbArc
 50
90.0
 51
160.019018
  0
ARC
  5
223
330
1F
100
AcDbEntity
  8
LAYERGROUP-1
  6
CONTINUOUS
 62
     3
100
AcDbCircle
 10
282.923077
 20
132.292692
 30
0.0
 40
3.175
100
AcDbArc
 50
330.26013
 51
358.466464
  0
ARC
  5
224
330
1F
100
AcDbEntity
  8
LAYERGROUP-1
  6
CONTINUOUS
 62
     3
100
AcDbCircle
 10
289.169492
 20
132.292692
 30
0.0
 40
3.175
100
AcDbArc
 50
330.26013
 51
358.466464
  0
ARC
  5
225
330
1F
100
AcDbEntity
  8
LAYERGROUP-1
  6
CONTINUOUS
 62
     3
100
AcDbCircle
 10
294.60739
 20
132.292692
 30
0.0
 40
3.175
100
AcDbArc
 50
330.26013
 51
358.466464
  0
ARC
  5
226
330
1F
100
AcDbEntity
  8
LAYERGROUP-1
  6
CONTINUOUS
 62
     3
100
AcDbCircle
 10
298.532907
 20
132.292692
 30
0.0
 40
3.175
100
AcDbArc
 50
330.26013
 51
358.465914
  0
ARC
  5
227
330
1F
100
AcDbEntity
  8
LAYERGROUP-1
  6
CONTINUOUS
 62
     3
100
AcDbCircle
 10
300.437936
 20
132.292692
 30
0.0
 40
3.175
100
AcDbArc
 50
330.26013
 51
360.0
  0
ARC
  5
228
330
1F
100
AcDbEntity
  8
LAYERGROUP-1
  6
CONTINUOUS
 62
     3
100
AcDbCircle
 10
289.169492
 20
132.292692
 30
0.0
 40
3.175
100
AcDbArc
 50
190.36316
 51
209.73987
  0
ARC
  5
229
330
1F
100
AcDbEntity
  8
LAYERGROUP-1
  6
CONTINUOUS
 62
     3
100
AcDbCircle
 10
282.923077
 20
132.292692
 30
0.0
 40
3.175
100
AcDbArc
 50
181.533536
 51
209.73987
  0
ARC
  5
22A
330
1F
100
AcDbEntity
  8
LAYERGROUP-1
  6
CONTINUOUS
 62
     3
100
AcDbCircle
 10
276.676662
 20
132.292692
 30
0.0
 40
3.175
100
AcDbArc
 50
181.533536
 51
209.73987
  0
ARC
  5
22B
330
1F
100
AcDbEntity
  8
LAYERGROUP-1
  6
CONTINUOUS
 62
     3
100
AcDbCircle
 10
271.238764
 20
132.292692
 30
0.0
 40
3.175
100
AcDbArc
 50
181.533536
 51
209.73987
  0
ARC
  5
22C
330
1F
100
AcDbEntity
  8
LAYERGROUP-1
  6
CONTINUOUS
 62
     3
100
AcDbCircle
 10
267.313247
 20
132.292692
 30
0.0
 40
3.175
100
AcDbArc
 50
181.534086
 51
209.73987
  0
ARC
  5
22D
330
1F
100
AcDbEntity
  8
LAYERGROUP-1
  6
CONTINUOUS
 62
     3
100
AcDbCircle
 10
265.408217
 20
132.292692
 30
0.0
 40
3.175
100
AcDbArc
 50
180.0
 51
209.73987
  0
ARC
  5
22E
330
1F
100
AcDbEntity
  8
LAYERGROUP-1
  6
CONTINUOUS
 62
     3
100
AcDbCircle
 10
276.676662
 20
132.292692
 30
0.0
 40
3.175
100
AcDbArc
 50
330.26013
 51
349.63684
  0
ARC
  5
22F
330
1F
100
AcDbEntity
  8
LAYERGROUP-1
  6
CONTINUOUS
 62
     6
100
AcDbCircle
 10
261.824664
 20
128.116985
 30
0.0
 40
2.5
100
AcDbArc
 50
270.0
 51
360.0
  0
LINE
  5
230
330
1F
100
AcDbEntity
  8
LAYERGROUP-1
  6
CONTINUOUS
 62
     6
100
AcDbLine
 10
259.533995
 20
125.417692
 30
0.0
 11
261.824664
 21
125.616985
 31
0.0
  0
ARC
  5
231
330
1F
100
AcDbEntity
  8
LAYERGROUP-1
  6
CONTINUOUS
 62
     6
100
AcDbCircle
 10
263.208135
 20
125.701125
 30
0.0
 40
4.0
100
AcDbArc
 50
88.33131
 51
157.719464
  0
ARC
  5
232
330
1F
100
AcDbEntity
  8
LAYERGROUP-1
  6
CONTINUOUS
 62
     6
100
AcDbCircle
 10
263.324664
 20
128.701125
 30
0.0
 40
1.0
100
AcDbArc
 50
0.0
 51
90.0
  0
LINE
  5
233
330
1F
100
AcDbEntity
  8
LAYERGROUP-1
  6
CONTINUOUS
 62
     6
100
AcDbLine
 10
264.324664
 20
128.701125
 30
0.0
 11
264.324664
 21
128.116985
 31
0.0
  0
LINE
  5
234
330
1F
100
AcDbEntity
  8
LAYERGROUP-1
  6
CONTINUOUS
 62
     6
100
AcDbLine
 10
259.50678
 20
127.217692
 30
0.0
 11
259.50678
 21
125.37189
 31
0.0
  0
LINE
  5
235
330
1F
100
AcDbEntity
  8
LAYERGROUP-1
  6
CENTER
 62
     6
100
AcDbLine
 10
310.423077
 20
142.051709
 30
0.0
 11
310.423077
 21
133.184219
 31
0.0
  0
LINE
  5
236
330
1F
100
AcDbEntity
  8
LAYERGROUP-1
  6
CENTER
 62
     6
100
AcDbLine
 10
255.423077
 20
142.051709
 30
0.0
 11
255.423077
 21
133.184219
 31
0.0
  0
LINE
  5
237
330
1F
100
AcDbEntity
  8
LAYERGROUP-1
  6
CENTER
 62
     6
100
AcDbLine
 10
119.023077
 20
141.126469
 30
0.0
 11
119.023077
 21
133.184219
 31
0.0
  0
LINE
  5
238
330
1F
100
AcDbEntity
  8
LAYERGROUP-1
  6
CENTER
 62
     6
100
AcDbLine
 10
161.023077
 20
141.126469
 30
0.0
 11
161.023077
 21
133.184219
 31
0.0
  0
ARC
  5
239
330
1F
100
AcDbEntity
  8
LAYERGROUP-1
  6
CENTER
 62
     7
100
AcDbCircle
 10
282.923077
 20
230.710677
 30
0.0
 40
57.37532363652273
100
AcDbArc
 50
196.375801
 51
226.00584
  0
DIMENSION
  5
23A
330
1F
100
AcDbEntity
  8
LAYERGROUP-1
100
AcDbDimension
  2
*D30
 10
282.923077
 20
230.710677
 30
0.0
 11
220.488617
 21
209.094467
 31
0.0
 70
   164
  3
FXDIMINFO
100
AcDbRadialDimension
 15
228.995667
 25
211.120828
 35
0.0
 40
0.0
  0
INSERT
  5
245
330
1F
100
AcDbEntity
  8
0
100
AcDbBlockReference
  2
BLKF033
 10
0.0
 20
0.0
 30
0.0
  0
ARC
  5
270
330
1F
100
AcDbEntity
  8
GR1-1
  6
CONTINUOUS
 62
     3
100
AcDbCircle
 10
150.923077
 20
121.09773
 30
0.0
 40
2.0
100
AcDbArc
 50
0.0
 51
82.26362
  0
ARC
  5
271
330
1F
100
AcDbEntity
  8
GR1-1
  6
CONTINUOUS
 62
     3
100
AcDbCircle
 10
140.423077
 20
43.807692
 30
0.0
 40
80.0
100
AcDbArc
 50
82.26362
 51
97.73638
  0
ARC
  5
272
330
1F
100
AcDbEntity
  8
GR1-1
  6
CONTINUOUS
 62
     3
100
AcDbCircle
 10
129.923077
 20
121.09773
 30
0.0
 40
2.0
100
AcDbArc
 50
97.73638
 51
180.0
  0
LINE
  5
273
330
1F
100
AcDbEntity
  8
GR1-1
  6
CONTINUOUS
 62
     3
100
AcDbLine
 10
127.923077
 20
121.09773
 30
0.0
 11
127.923077
 21
51.517654
 31
0.0
  0
LINE
  5
274
330
1F
100
AcDbEntity
  8
GR1-1
  6
CONTINUOUS
 62
     3
100
AcDbLine
 10
152.923077
 20
121.09773
 30
0.0
 11
152.923077
 21
51.517654
 31
0.0
  0
ARC
  5
275
330
1F
100
AcDbEntity
  8
GR1-1
  6
CONTINUOUS
 62
     3
100
AcDbCircle
 10
150.923077
 20
51.517654
 30
0.0
 40
2.0
100
AcDbArc
 50
277.73638
 51
360.0
  0
ARC
  5
276
330
1F
100
AcDbEntity
  8
GR1-1
  6
CONTINUOUS
 62
     3
100
AcDbCircle
 10
140.423077
 20
128.807692
 30
0.0
 40
80.0
100
AcDbArc
 50
262.26362
 51
277.73638
  0
ARC
  5
277
330
1F
100
AcDbEntity
  8
GR1-1
  6
CONTINUOUS
 62
     3
100
AcDbCircle
 10
129.923077
 20
51.517654
 30
0.0
 40
2.0
100
AcDbArc
 50
180.0
 51
262.26362
  0
LINE
  5
278
330
1F
100
AcDbEntity
  8
GR1-1
  6
CONTINUOUS
 62
     3
100
AcDbLine
 10
154.596725
 20
96.4534
 30
0.0
 11
152.923077
 21
96.74851
 31
0.0
  0
ARC
  5
279
330
1F
100
AcDbEntity
  8
GR1-1
  6
CONTINUOUS
 62
     3
100
AcDbCircle
 10
154.423077
 20
95.468593
 30
0.0
 40
1.0
100
AcDbArc
 50
0.0
 51
80.0
  0
LINE
  5
27A
330
1F
100
AcDbEntity
  8
GR1-1
  6
CONTINUOUS
 62
     3
100
AcDbLine
 10
155.423077
 20
95.468593
 30
0.0
 11
155.423077
 21
77.146792
 31
0.0
  0
ARC
  5
27B
330
1F
100
AcDbEntity
  8
GR1-1
  6
CONTINUOUS
 62
     3
100
AcDbCircle
 10
154.423077
 20
77.146792
 30
0.0
 40
1.0
100
AcDbArc
 50
280.0
 51
360.0
  0
LINE
  5
27C
330
1F
100
AcDbEntity
  8
GR1-1
  6
CONTINUOUS
 62
     3
100
AcDbLine
 10
154.596725
 20
76.161984
 30
0.0
 11
152.923077
 21
75.866875
 31
0.0
  0
ARC
  5
27D
330
1F
100
AcDbEntity
  8
GR1-1
  6
CONTINUOUS
 62
     3
100
AcDbCircle
 10
261.923077
 20
86.307692
 30
0.0
 40
37.5
100
AcDbArc
 50
95.039247
 51
135.586119
  0
ARC
  5
27E
330
1F
100
AcDbEntity
  8
GR1-1
  6
CONTINUOUS
 62
     3
100
AcDbCircle
 10
261.923077
 20
86.307692
 30
0.0
 40
30.99999999999997
100
AcDbArc
 50
99.157733
 51
133.259897
  0
ARC
  5
27F
330
1F
100
AcDbEntity
  8
GR1-1
  6
CONTINUOUS
 62
     6
100
AcDbCircle
 10
261.923077
 20
86.307692
 30
0.0
 40
25.99999999999997
100
AcDbArc
 50
102.805357
 51
130.652556
  0
TEXT
  5
280
330
1F
100
AcDbEntity
  8
LAYERGROUP-1
  6
CONTINUOUS
 62
     7
100
AcDbText
 10
233.113205
 20
72.952042
 30
0.0
 40
3.909615
  1
D
 50
110.517036
 41
1.476526
  7
FX_VECTOR
 72
     5
 11
231.379006
 21
77.586165
 31
0.0
100
AcDbText
  0
TEXT
  5
281
330
1F
100
AcDbEntity
  8
LAYERGROUP-1
  6
CONTINUOUS
 62
     7
100
AcDbText
 10
230.737976
 20
80.318504
 30
0.0
 40
3.909615
  1
C
 50
96.517036
 41
1.476526
  7
FX_VECTOR
 72
     5
 11
230.176387
 21
85.234515
 31
0.0
100
AcDbText
  0
TEXT
  5
282
330
1F
100
AcDbEntity
  8
LAYERGROUP-1
  6
CONTINUOUS
 62
     7
100
AcDbText
 10
235.102936
 20
69.305862
 30
0.0
 40
3.909615
  1
L
 50
118.017036
 41
1.661092
  7
FX_VECTOR
 72
     5
 11
232.778699
 21
73.673982
 31
0.0
100
AcDbText
  0
TEXT
  5
283
330
1F
100
AcDbEntity
  8
LAYERGROUP-1
  6
CONTINUOUS
 62
     7
100
AcDbText
 10
237.374847
 20
66.164024
 30
0.0
 40
3.909615
  1
O
 50
125.017036
 41
1.398814
  7
FX_VECTOR
 72
     5
 11
234.535595
 21
70.216332
 31
0.0
100
AcDbText
  0
TEXT
  5
284
330
1F
100
AcDbEntity
  8
LAYERGROUP-1
  6
CONTINUOUS
 62
     7
100
AcDbText
 10
240.214142
 20
63.132175
 30
0.0
 40
3.909615
  1
G
 50
132.517029
 41
1.476526
  7
FX_VECTOR
 72
     5
 11
236.870248
 21
66.779218
 31
0.0
100
AcDbText
  0
TEXT
  5
285
330
1F
100
AcDbEntity
  8
LAYERGROUP-1
  6
CONTINUOUS
 62
     7
100
AcDbText
 10
230.260452
 20
83.88726
 30
0.0
 40
3.909615
  1
A
 50
90.017036
 41
1.563381
  7
FX_VECTOR
 72
     5
 11
230.258981
 21
88.835244
 31
0.0
100
AcDbText
  0
TEXT
  5
286
330
1F
100
AcDbEntity
  8
LAYERGROUP-1
  6
CONTINUOUS
 62
     7
100
AcDbText
 10
230.250458
 20
88.59388
 30
0.0
 40
3.909615
  1
S
 50
81.517036
 41
1.563381
  7
FX_VECTOR
 72
     5
 11
230.980361
 21
93.487732
 31
0.0
100
AcDbText
  0
TEXT
  5
287
330
1F
100
AcDbEntity
  8
LAYERGROUP-1
  6
CONTINUOUS
 62
     7
100
AcDbText
 10
230.765167
 20
92.436775
 30
0.0
 40
3.909615
  1
T
 50
74.517036
 41
1.771831
  7
FX_VECTOR
 72
     5
 11
232.086041
 21
97.205196
 31
0.0
100
AcDbText
  0
TEXT
  5
288
330
1F
100
AcDbEntity
  8
LAYERGROUP-1
  6
CONTINUOUS
 62
     7
100
AcDbText
 10
231.744354
 20
96.188255
 30
0.0
 40
3.909615
  1
E
 50
67.517036
 41
1.563381
  7
FX_VECTOR
 72
     5
 11
233.636506
 21
100.760159
 31
0.0
100
AcDbText
  0
TEXT
  5
289
330
1F
100
AcDbEntity
  8
LAYERGROUP-1
  6
CONTINUOUS
 62
     7
100
AcDbText
 10
233.173447
 20
99.792473
 30
0.0
 40
3.909615
  1
R
 50
60.517033
 41
1.476526
  7
FX_VECTOR
 72
     5
 11
235.60867
 21
104.099703
 31
0.0
100
AcDbText
  0
INSERT
  5
28D
330
1F
100
AcDbEntity
  8
0
100
AcDbBlockReference
  2
BLKF036
 10
0.0
 20
0.0
 30
0.0
  0
LINE
  5
2E5
330
1F
100
AcDbEntity
  8
GR1-1
  6
CONTINUOUS
 62
     3
100
AcDbLine
 10
245.927811
 20
58.599725
 30
0.0
 11
243.159664
 21
60.396211
 31
0.0
  0
LINE
  5
2E6
330
1F
100
AcDbEntity
  8
GR1-1
  6
CONTINUOUS
 62
     3
100
AcDbLine
 10
243.159664
 20
60.396211
 30
0.0
 11
241.363178
 21
57.628063
 31
0.0
  0
LINE
  5
2E7
330
1F
100
AcDbEntity
  8
GR1-1
  6
CONTINUOUS
 62
     3
100
AcDbLine
 10
241.363178
 20
57.628063
 30
0.0
 11
244.131325
 21
55.831578
 31
0.0
  0
LINE
  5
2E8
330
1F
100
AcDbEntity
  8
GR1-1
  6
CONTINUOUS
 62
     3
100
AcDbLine
 10
244.131325
 20
55.831578
 30
0.0
 11
245.927811
 21
58.599725
 31
0.0
  0
LINE
  5
2E9
330
1F
100
AcDbEntity
  8
GR1-1
  6
CONTINUOUS
 62
     3
100
AcDbLine
 10
244.950412
 20
57.267022
 30
0.0
 11
242.798623
 21
56.808977
 31
0.0
  0
LINE
  5
2EA
330
1F
100
AcDbEntity
  8
GR1-1
  6
CONTINUOUS
 62
     3
100
AcDbLine
 10
242.798623
 20
56.808977
 30
0.0
 11
242.389161
 21
58.732534
 31
0.0
  0
LINE
  5
2EB
330
1F
100
AcDbEntity
  8
GR1-1
  6
CONTINUOUS
 62
     3
100
AcDbLine
 10
242.389161
 20
58.732534
 30
0.0
 11
243.041619
 21
58.309098
 31
0.0
  0
LINE
  5
2EC
330
1F
100
AcDbEntity
  8
GR1-1
  6
CONTINUOUS
 62
     3
100
AcDbLine
 10
243.041619
 20
58.309098
 30
0.0
 11
243.222059
 21
57.461436
 31
0.0
  0
LINE
  5
2ED
330
1F
100
AcDbEntity
  8
GR1-1
  6
CONTINUOUS
 62
     3
100
AcDbLine
 10
243.222059
 20
57.461436
 30
0.0
 11
244.297953
 21
57.690458
 31
0.0
  0
LINE
  5
2EE
330
1F
100
AcDbEntity
  8
GR1-1
  6
CONTINUOUS
 62
     3
100
AcDbLine
 10
244.297953
 20
57.690458
 30
0.0
 11
244.06893
 21
58.766353
 31
0.0
  0
LINE
  5
2EF
330
1F
100
AcDbEntity
  8
GR1-1
  6
CONTINUOUS
 62
     3
100
AcDbLine
 10
244.06893
 20
58.766353
 30
0.0
 11
243.503294
 21
58.645947
 31
0.0
  0
ARC
  5
2F0
330
1F
100
AcDbEntity
  8
GR1-1
  6
CONTINUOUS
 62
     3
100
AcDbCircle
 10
243.514745
 20
58.592152
 30
0.0
 40
0.055
100
AcDbArc
 50
102.017034
 51
237.017034
  0
LINE
  5
2F1
330
1F
100
AcDbEntity
  8
GR1-1
  6
CONTINUOUS
 62
     3
100
AcDbLine
 10
243.484804
 20
58.546017
 30
0.0
 11
243.795202
 21
58.344573
 31
0.0
  0
LINE
  5
2F2
330
1F
100
AcDbEntity
  8
GR1-1
  6
CONTINUOUS
 62
     3
100
AcDbLine
 10
243.795202
 20
58.344573
 30
0.0
 11
243.645495
 21
58.113894
 31
0.0
  0
LINE
  5
2F3
330
1F
100
AcDbEntity
  8
GR1-1
  6
CONTINUOUS
 62
     3
100
AcDbLine
 10
243.645495
 20
58.113894
 30
0.0
 11
242.340578
 21
58.960766
 31
0.0
  0
LINE
  5
2F4
330
1F
100
AcDbEntity
  8
GR1-1
  6
CONTINUOUS
 62
     3
100
AcDbLine
 10
242.340578
 20
58.960766
 30
0.0
 11
242.946688
 21
59.894702
 31
0.0
  0
LINE
  5
2F5
330
1F
100
AcDbEntity
  8
GR1-1
  6
CONTINUOUS
 62
     3
100
AcDbLine
 10
242.946688
 20
59.894702
 30
0.0
 11
243.408046
 21
59.595288
 31
0.0
  0
LINE
  5
2F6
330
1F
100
AcDbEntity
  8
GR1-1
  6
CONTINUOUS
 62
     3
100
AcDbLine
 10
243.408046
 20
59.595288
 30
0.0
 11
243.173635
 21
59.234091
 31
0.0
  0
ARC
  5
2F7
330
1F
100
AcDbEntity
  8
GR1-1
  6
CONTINUOUS
 62
     3
100
AcDbCircle
 10
243.219771
 20
59.204149
 30
0.0
 40
0.055
100
AcDbArc
 50
147.017034
 51
282.017034
  0
LINE
  5
2F8
330
1F
100
AcDbEntity
  8
GR1-1
  6
CONTINUOUS
 62
     3
100
AcDbLine
 10
243.231222
 20
59.150355
 30
0.0
 11
244.492366
 21
59.418811
 31
0.0
  0
LINE
  5
2F9
330
1F
100
AcDbEntity
  8
GR1-1
  6
CONTINUOUS
 62
     3
100
AcDbLine
 10
244.492366
 20
59.418811
 30
0.0
 11
244.950412
 21
57.267022
 31
0.0
  0
TEXT
  5
2FA
330
1F
100
AcDbEntity
  8
LAYERGROUP-1
  6
CONTINUOUS
 62
     7
100
AcDbText
 10
293.093903
 20
92.422005
 30
0.0
 40
3.909615
  1
2
 50
276.517029
 41
1.563381
  7
FX_VECTOR
 72
     5
 11
293.655491
 21
87.505994
 31
0.0
100
AcDbText
  0
TEXT
  5
2FB
330
1F
100
AcDbEntity
  8
LAYERGROUP-1
  6
CONTINUOUS
 62
     7
100
AcDbText
 10
290.688812
 20
99.781296
 30
0.0
 40
3.909615
  1
5
 50
290.517029
 41
1.563381
  7
FX_VECTOR
 72
     5
 11
292.42301
 21
95.147172
 31
0.0
100
AcDbText
  0
TEXT
  5
2FC
330
1F
100
AcDbEntity
  8
LAYERGROUP-1
  6
CONTINUOUS
 62
     7
100
AcDbText
 10
289.122864
 20
102.714325
 30
0.0
 40
3.909615
  1
7
 50
296.517029
 41
1.563381
  7
FX_VECTOR
 72
     5
 11
291.331959
 21
98.28686
 31
0.0
100
AcDbText
  0
TEXT
  5
2FD
330
1F
100
AcDbEntity
  8
LAYERGROUP-1
  6
CONTINUOUS
 62
     7
100
AcDbText
 10
293.625305
 20
88.301086
 30
0.0
 40
3.909615
  1
5
 50
269.017029
 41
1.563381
  7
FX_VECTOR
 72
     5
 11
293.540421
 21
83.35383
 31
0.0
100
AcDbText
  0
TEXT
  5
2FE
330
1F
100
AcDbEntity
  8
LAYERGROUP-1
  6
CONTINUOUS
 62
     7
100
AcDbText
 10
292.116425
 20
96.175217
 30
0.0
 40
3.909615
  1
X
 50
283.517029
 41
1.563381
  7
FX_VECTOR
 72
     5
 11
293.272938
 21
91.364289
 31
0.0
100
AcDbText
  0
ARC
  5
2FF
330
1F
100
AcDbEntity
  8
GR1-1
  6
CONTINUOUS
 62
     3
100
AcDbCircle
 10
261.923077
 20
86.307692
 30
0.0
 40
30.99999999999997
100
AcDbArc
 50
-20.259897
 51
37.785701
  0
ARC
  5
300
330
1F
100
AcDbEntity
  8
GR1-1
  6
CONTINUOUS
 62
     3
100
AcDbCircle
 10
261.923077
 20
86.307692
 30
0.0
 40
37.5
100
AcDbArc
 50
-22.586119
 51
40.848197
  0
ARC
  5
301
330
1F
100
AcDbEntity
  8
GR1-1
  6
CONTINUOUS
 62
     6
100
AcDbCircle
 10
261.923077
 20
86.307692
 30
0.0
 40
25.99999999999997
100
AcDbArc
 50
-17.652556
 51
34.326827
  0
ARC
  5
302
330
1F
100
AcDbEntity
  8
GR1-1
  6
CONTINUOUS
 62
     6
100
AcDbCircle
 10
261.923077
 20
86.307692
 30
0.0
 40
25.99999999999997
100
AcDbArc
 50
152.894349
 51
320.105651
  0
ARC
  5
303
330
1F
100
AcDbEntity
  8
GR1-1
  6
CONTINUOUS
 62
     3
100
AcDbCircle
 10
261.923077
 20
86.307692
 30
0.0
 40
30.99999999999997
100
AcDbArc
 50
142.276289
 51
330.723711
  0
ARC
  5
304
330
1F
100
AcDbEntity
  8
GR1-1
  6
CONTINUOUS
 62
     3
100
AcDbCircle
 10
261.923077
 20
86.307692
 30
0.0
 40
37.5
100
AcDbArc
 50
138.683551
 51
334.316449
  0
LINE
  5
305
330
1F
100
AcDbEntity
  8
GR1-1
  6
CONTINUOUS
 62
     3
100
AcDbLine
 10
249.418572
 20
217.810677
 30
0.0
 11
227.134039
 21
217.810677
 31
0.0
  0
ARC
  5
306
330
1F
100
AcDbEntity
  8
GR1-1
  6
CONTINUOUS
 62
     3
100
AcDbCircle
 10
227.134039
 20
219.810677
 30
0.0
 40
2.0
100
AcDbArc
 50
187.73638
 51
270.0
  0
ARC
  5
307
330
1F
100
AcDbEntity
  8
GR1-1
  6
CONTINUOUS
 62
     3
100
AcDbCircle
 10
227.134039
 20
240.810677
 30
0.0
 40
2.0
100
AcDbArc
 50
90.0
 51
172.26362
  0
ARC
  5
308
330
1F
100
AcDbEntity
  8
GR1-1
  6
CONTINUOUS
 62
     3
100
AcDbCircle
 10
304.424077
 20
230.310677
 30
0.0
 40
80.0
100
AcDbArc
 50
172.26362
 51
187.73638
  0
LINE
  5
309
330
1F
100
AcDbEntity
  8
GR1-1
  6
CONTINUOUS
 62
     3
100
AcDbLine
 10
249.545128
 20
242.810677
 30
0.0
 11
227.134039
 21
242.810677
 31
0.0
  0
ENDSEC
  0
SECTION
  2
OBJECTS
  0
DICTIONARY
  5
C
330
0
100
AcDbDictionary
  3
ACAD_GROUP
350
D
  3
ACAD_LAYOUT
350
1A
  3
ACAD_MLINESTYLE
350
17
  3
ACAD_PLOTSETTINGS
350
19
  3
ACDBHEADERROUNDTRIPXREC
350
30A
  0
DICTIONARY
  5
D
102
{ACAD_REACTORS
330
C
102
}
330
C
100
AcDbDictionary
  0
DICTIONARY
  5
1A
102
{ACAD_REACTORS
330
C
102
}
330
C
100
AcDbDictionary
  0
DICTIONARY
  5
17
102
{ACAD_REACTORS
330
C
102
}
330
C
100
AcDbDictionary
  3
STANDARD
350
18
  0
DICTIONARY
  5
19
102
{ACAD_REACTORS
330
C
102
}
330
C
100
AcDbDictionary
  0
DICTIONARY
  5
30A
102
{ACAD_REACTORS
330
C
102
}
330
C
100
AcDbDictionary
  3
CEPSNTYPE
350
313
  3
DIMSTYLEDATA
350
329
  3
FINGERPRINTGUID
350
314
  3
HYPERLINKBASE
350
30D
  3
INSUNITS
350
312
  3
LAYOUTDICT
350
30F
  3
LWETCUNION
350
311
  3
PLOTSETDICT
350
310
  3
PSVPSCALE
350
316
  3
PUCSBASE
350
319
  3
PUCSORGBACK
350
31F
  3
PUCSORGBOTTOM
350
31B
  3
PUCSORGFRONT
350
31E
  3
PUCSORGLEFT
350
31C
  3
PUCSORGRIGHT
350
31D
  3
PUCSORGTOP
350
31A
  3
PUCSORTHOREF
350
317
  3
PUCSORTHOVIEW
350
318
  3
STYLESHEET
350
30E
  3
TSTACKALIGN
350
30B
  3
TSTACKSIZE
350
30C
  3
UCSBASE
350
322
  3
UCSORGBACK
350
328
  3
UCSORGBOTTOM
350
324
  3
UCSORGFRONT
350
327
  3
UCSORGLEFT
350
325
  3
UCSORGRIGHT
350
326
  3
UCSORGTOP
350
323
  3
UCSORTHOREF
350
320
  3
UCSORTHOVIEW
350
321
  3
VERSIONGUID
350
315
  0
MLINESTYLE
  5
18
102
{ACAD_REACTORS
330
17
102
}
330
17
100
AcDbMlineStyle
  2
Standard
 70
     0
  3

 62
   256
 51
90.0
 52
90.0
 71
     2
 49
0.5
 62
   256
  6
BYLAYER
 49
-0.5
 62
   256
  6
BYLAYER
  0
XRECORD
  5
313
102
{ACAD_REACTORS
330
30A
102
}
330
30A
100
AcDbXrecord
 90
        0
  0
XRECORD
  5
329
102
{ACAD_REACTORS
330
30A
102
}
330
30A
100
AcDbXrecord
1000
DSTYLE
1002
{
1070
   179
 70
     2
1070
   171
 70
     3
1070
   143
 40
0.03937
1070
   274
 70
     3
1070
    41
 40
4.0
1070
   343
340
41
1070
   344
340
47
1070
   141
 40
2.5
1070
   176
 70
     7
1070
   177
 70
     7
1070
   178
 70
     7
1070
   271
 70
     2
1070
    46
 40
6.0
1070
    43
 40
10.0
1070
    44
 40
1.0
1070
    42
 40
1.0
1070
   147
 40
1.0
1070
   341
340
41
1070
   173
 70
     1
1070
    77
 70
     1
1070
   272
 70
     2
1070
    73
 70
     0
1070
   172
 70
     1
1070
    74
 70
     0
1070
   283
 70
     0
1070
   340
340
3F
1070
   140
 40
4.0
1070
   284
 70
     8
1070
    78
 70
     8
1002
}
  0
XRECORD
  5
314
102
{ACAD_REACTORS
330
30A
102
}
330
30A
100
AcDbXrecord
  1
{310FBAF1-E3C8-49B9-A456-C9C5A194E4F5}
  0
XRECORD
  5
30D
102
{ACAD_REACTORS
330
30A
102
}
330
30A
100
AcDbXrecord
  1

  0
XRECORD
  5
312
102
{ACAD_REACTORS
330
30A
102
}
330
30A
100
AcDbXrecord
 90
        1
  0
XRECORD
  5
30F
102
{ACAD_REACTORS
330
30A
102
}
330
30A
100
AcDbXrecord
340
1A
  0
XRECORD
  5
311
102
{ACAD_REACTORS
330
30A
102
}
330
30A
100
AcDbXrecord
 90
    10781
  0
XRECORD
  5
310
102
{ACAD_REACTORS
330
30A
102
}
330
30A
100
AcDbXrecord
340
19
  0
XRECORD
  5
316
102
{ACAD_REACTORS
330
30A
102
}
330
30A
100
AcDbXrecord
 40
0.0
  0
XRECORD
  5
319
102
{ACAD_REACTORS
330
30A
102
}
330
30A
100
AcDbXrecord
340
0
  0
XRECORD
  5
31F
102
{ACAD_REACTORS
330
30A
102
}
330
30A
100
AcDbXrecord
 10
0.0
 20
0.0
 30
0.0
  0
XRECORD
  5
31B
102
{ACAD_REACTORS
330
30A
102
}
330
30A
100
AcDbXrecord
 10
0.0
 20
0.0
 30
0.0
  0
XRECORD
  5
31E
102
{ACAD_REACTORS
330
30A
102
}
330
30A
100
AcDbXrecord
 10
0.0
 20
0.0
 30
0.0
  0
XRECORD
  5
31C
102
{ACAD_REACTORS
330
30A
102
}
330
30A
100
AcDbXrecord
 10
0.0
 20
0.0
 30
0.0
  0
XRECORD
  5
31D
102
{ACAD_REACTORS
330
30A
102
}
330
30A
100
AcDbXrecord
 10
0.0
 20
0.0
 30
0.0
  0
XRECORD
  5
31A
102
{ACAD_REACTORS
330
30A
102
}
330
30A
100
AcDbXrecord
 10
0.0
 20
0.0
 30
0.0
  0
XRECORD
  5
317
102
{ACAD_REACTORS
330
30A
102
}
330
30A
100
AcDbXrecord
340
0
  0
XRECORD
  5
318
102
{ACAD_REACTORS
330
30A
102
}
330
30A
100
AcDbXrecord
 70
     0
  0
XRECORD
  5
30E
102
{ACAD_REACTORS
330
30A
102
}
330
30A
100
AcDbXrecord
  1

  0
XRECORD
  5
30B
102
{ACAD_REACTORS
330
30A
102
}
330
30A
100
AcDbXrecord
 90
        1
  0
XRECORD
  5
30C
102
{ACAD_REACTORS
330
30A
102
}
330
30A
100
AcDbXrecord
 90
       70
  0
XRECORD
  5
322
102
{ACAD_REACTORS
330
30A
102
}
330
30A
100
AcDbXrecord
340
0
  0
XRECORD
  5
328
102
{ACAD_REACTORS
330
30A
102
}
330
30A
100
AcDbXrecord
 10
0.0
 20
0.0
 30
0.0
  0
XRECORD
  5
324
102
{ACAD_REACTORS
330
30A
102
}
330
30A
100
AcDbXrecord
 10
0.0
 20
0.0
 30
0.0
  0
XRECORD
  5
327
102
{ACAD_REACTORS
330
30A
102
}
330
30A
100
AcDbXrecord
 10
0.0
 20
0.0
 30
0.0
  0
XRECORD
  5
325
102
{ACAD_REACTORS
330
30A
102
}
330
30A
100
AcDbXrecord
 10
0.0
 20
0.0
 30
0.0
  0
XRECORD
  5
326
102
{ACAD_REACTORS
330
30A
102
}
330
30A
100
AcDbXrecord
 10
0.0
 20
0.0
 30
0.0
  0
XRECORD
  5
323
102
{ACAD_REACTORS
330
30A
102
}
330
30A
100
AcDbXrecord
 10
0.0
 20
0.0
 30
0.0
  0
XRECORD
  5
320
102
{ACAD_REACTORS
330
30A
102
}
330
30A
100
AcDbXrecord
340
0
  0
XRECORD
  5
321
102
{ACAD_REACTORS
330
30A
102
}
330
30A
100
AcDbXrecord
 70
     0
  0
XRECORD
  5
315
102
{ACAD_REACTORS
330
30A
102
}
330
30A
100
AcDbXrecord
  1
{FAEB1C32-E019-11D5-929B-00C0DF256EC4}
  0
ENDSEC
  0
EOF
