  0
SECTION
  2
HEADER
  9
$ACADVER
  1
AC1014
  9
$ACADMAINTVER
 70
     9
  9
$DWGCODEPAGE
  3
ANSI_932
  9
$INSBASE
 10
0.0
 20
0.0
 30
0.0
  9
$EXTMIN
 10
0.0
 20
0.0
 30
0.0
  9
$EXTMAX
 10
420.0
 20
297.0
 30
0.0
  9
$LIMMIN
 10
0.0
 20
0.0
  9
$LIMMAX
 10
420.0
 20
297.0
  9
$ORTHOMODE
 70
     0
  9
$REGENMODE
 70
     1
  9
$FILLMODE
 70
     1
  9
$QTEXTMODE
 70
     0
  9
$MIRRTEXT
 70
     1
  9
$DRAGMODE
 70
     2
  9
$LTSCALE
 40
1.0
  9
$OSMODE
 70
    37
  9
$ATTMODE
 70
     1
  9
$TEXTSIZE
 40
0.2
  9
$TRACEWID
 40
0.05
  9
$TEXTSTYLE
  7
STYLE1
  9
$CLAYER
  8
0
  9
$CELTYPE
  6
BYLAYER
  9
$CECOLOR
 62
   256
  9
$CELTSCALE
 40
1.0
  9
$DELOBJ
 70
     1
  9
$DISPSILH
 70
     0
  9
$DIMSCALE
 40
1.0
  9
$DIMASZ
 40
4.0
  9
$DIMEXO
 40
1.0
  9
$DIMDLI
 40
10.0
  9
$DIMRND
 40
0.0
  9
$DIMDLE
 40
6.0
  9
$DIMEXE
 40
1.0
  9
$DIMTP
 40
0.0
  9
$DIMTM
 40
0.0
  9
$DIMTXT
 40
4.0
  9
$DIMCEN
 40
2.5
  9
$DIMTSZ
 40
0.0
  9
$DIMTOL
 70
     0
  9
$DIMLIM
 70
     0
  9
$DIMTIH
 70
     0
  9
$DIMTOH
 70
     0
  9
$DIMSE1
 70
     0
  9
$DIMSE2
 70
     0
  9
$DIMTAD
 70
     1
  9
$DIMZIN
 70
     8
  9
$DIMBLK
  1

  9
$DIMASO
 70
     1
  9
$DIMSHO
 70
     1
  9
$DIMPOST
  1

  9
$DIMAPOST
  1

  9
$DIMALT
 70
     0
  9
$DIMALTD
 70
     3
  9
$DIMALTF
 40
0.03937
  9
$DIMLFAC
 40
1.0
  9
$DIMTOFL
 70
     1
  9
$DIMTVP
 40
0.0
  9
$DIMTIX
 70
     0
  9
$DIMSOXD
 70
     0
  9
$DIMSAH
 70
     1
  9
$DIMBLK1
  1
FXTIP_ARROW_S
  9
$DIMBLK2
  1
FXTIP_ARROW_E
  9
$DIMSTYLE
  2
FXDIMINFO
  9
$DIMCLRD
 70
     7
  9
$DIMCLRE
 70
     7
  9
$DIMCLRT
 70
     7
  9
$DIMTFAC
 40
1.0
  9
$DIMGAP
 40
1.0
  9
$DIMJUST
 70
     0
  9
$DIMSD1
 70
     0
  9
$DIMSD2
 70
     0
  9
$DIMTOLJ
 70
     0
  9
$DIMTZIN
 70
     8
  9
$DIMALTZ
 70
     0
  9
$DIMALTTZ
 70
     0
  9
$DIMFIT
 70
     3
  9
$DIMUPT
 70
     0
  9
$DIMUNIT
 70
     2
  9
$DIMDEC
 70
     2
  9
$DIMTDEC
 70
     2
  9
$DIMALTU
 70
     2
  9
$DIMALTTD
 70
     3
  9
$DIMTXSTY
  7
STYLE1
  9
$DIMAUNIT
 70
     0
  9
$LUNITS
 70
     2
  9
$LUPREC
 70
     4
  9
$SKETCHINC
 40
0.1
  9
$FILLETRAD
 40
0.5
  9
$AUNITS
 70
     0
  9
$AUPREC
 70
     0
  9
$MENU
  1
.
  9
$ELEVATION
 40
0.0
  9
$PELEVATION
 40
0.0
  9
$THICKNESS
 40
0.0
  9
$LIMCHECK
 70
     0
  9
$CHAMFERA
 40
0.5
  9
$CHAMFERB
 40
0.5
  9
$CHAMFERC
 40
1.0
  9
$CHAMFERD
 40
0.0
  9
$SKPOLY
 70
     0
  9
$TDCREATE
 40
2455308.352578125
  9
$TDUPDATE
 40
2455308.352578137
  9
$TDINDWG
 40
0.0000000116
  9
$TDUSRTIMER
 40
0.0000000116
  9
$USRTIMER
 70
     1
  9
$ANGBASE
 50
0.0
  9
$ANGDIR
 70
     0
  9
$PDMODE
 70
     0
  9
$PDSIZE
 40
0.0
  9
$PLINEWID
 40
0.0
  9
$COORDS
 70
     1
  9
$SPLFRAME
 70
     0
  9
$SPLINETYPE
 70
     6
  9
$SPLINESEGS
 70
     8
  9
$ATTDIA
 70
     0
  9
$ATTREQ
 70
     1
  9
$HANDLING
 70
     1
  9
$HANDSEED
  5
333
  9
$SURFTAB1
 70
     6
  9
$SURFTAB2
 70
     6
  9
$SURFTYPE
 70
     6
  9
$SURFU
 70
     6
  9
$SURFV
 70
     6
  9
$UCSNAME
  2

  9
$UCSORG
 10
0.0
 20
0.0
 30
0.0
  9
$UCSXDIR
 10
1.0
 20
0.0
 30
0.0
  9
$UCSYDIR
 10
0.0
 20
1.0
 30
0.0
  9
$PUCSNAME
  2

  9
$PUCSORG
 10
0.0
 20
0.0
 30
0.0
  9
$PUCSXDIR
 10
1.0
 20
0.0
 30
0.0
  9
$PUCSYDIR
 10
0.0
 20
1.0
 30
0.0
  9
$USERI1
 70
     0
  9
$USERI2
 70
     0
  9
$USERI3
 70
     0
  9
$USERI4
 70
     0
  9
$USERI5
 70
     0
  9
$USERR1
 40
0.0
  9
$USERR2
 40
0.0
  9
$USERR3
 40
0.0
  9
$USERR4
 40
0.0
  9
$USERR5
 40
0.0
  9
$WORLDVIEW
 70
     1
  9
$SHADEDGE
 70
     3
  9
$SHADEDIF
 70
    70
  9
$TILEMODE
 70
     1
  9
$MAXACTVP
 70
    64
  9
$PINSBASE
 10
0.0
 20
0.0
 30
0.0
  9
$PLIMCHECK
 70
     0
  9
$PEXTMIN
 10
1.000000E+20
 20
1.000000E+20
 30
1.000000E+20
  9
$PEXTMAX
 10
-1.000000E+20
 20
-1.000000E+20
 30
-1.000000E+20
  9
$PLIMMIN
 10
0.0
 20
0.0
  9
$PLIMMAX
 10
12.0
 20
9.0
  9
$UNITMODE
 70
     0
  9
$VISRETAIN
 70
     1
  9
$PLINEGEN
 70
     0
  9
$PSLTSCALE
 70
     1
  9
$TREEDEPTH
 70
  3020
  9
$PICKSTYLE
 70
     1
  9
$CMLSTYLE
  2
STANDARD
  9
$CMLJUST
 70
     0
  9
$CMLSCALE
 40
1.0
  9
$PROXYGRAPHICS
 70
     1
  9
$MEASUREMENT
 70
     0
  0
ENDSEC
  0
SECTION
  2
CLASSES
  0
CLASS
  1
ACDBDICTIONARYWDFLT
  2
AcDbDictionaryWithDefault
  3
ObjectDBX Classes
 90
        0
280
     0
281
     0
  0
CLASS
  1
XRECORD
  2
AcDbXrecord
  3
AutoCAD 2000
 90
        0
280
     0
281
     0
  0
CLASS
  1
LWPOLYLINE
  2
AcDbPolyline
  3
AutoCAD 2000
 90
        0
280
     0
281
     1
  0
CLASS
  1
HATCH
  2
AcDbHatch
  3
AutoCAD 2000
 90
        0
280
     0
281
     1
  0
CLASS
  1
ACDBPLACEHOLDER
  2
AcDbPlaceHolder
  3
ObjectDBX Classes
 90
        0
280
     0
281
     0
  0
CLASS
  1
LAYOUT
  2
AcDbLayout
  3
ObjectDBX Classes
 90
        0
280
     0
281
     0
  0
ENDSEC
  0
SECTION
  2
TABLES
  0
TABLE
  2
VPORT
  5
8
330
0
100
AcDbSymbolTable
 70
     1
  0
VPORT
  5
29
330
8
100
AcDbSymbolTableRecord
100
AcDbViewportTableRecord
  2
*ACTIVE
 70
     0
 10
0.0
 20
0.0
 11
1.0
 21
1.0
 12
210.0
 22
148.5
 13
0.0
 23
0.0
 14
0.5
 24
0.5
 15
0.5
 25
0.5
 16
0.0
 26
0.0
 36
1.0
 17
0.0
 27
0.0
 37
0.0
 40
297.0
 41
1.414141
 42
50.0
 43
0.0
 44
0.0
 50
0.0
 51
0.0
 71
     0
 72
   100
 73
     1
 74
     3
 75
     0
 76
     0
 77
     0
 78
     0
  0
ENDTAB
  0
TABLE
  2
LTYPE
  5
5
330
0
100
AcDbSymbolTable
 70
     4
  0
LTYPE
  5
14
330
5
100
AcDbSymbolTableRecord
100
AcDbLinetypeTableRecord
  2
BYBLOCK
 70
     0
  3

 72
    65
 73
     0
 40
0.0
  0
LTYPE
  5
15
330
5
100
AcDbSymbolTableRecord
100
AcDbLinetypeTableRecord
  2
BYLAYER
 70
     0
  3

 72
    65
 73
     0
 40
0.0
  0
LTYPE
  5
16
330
5
100
AcDbSymbolTableRecord
100
AcDbLinetypeTableRecord
  2
CONTINUOUS
 70
     0
  3
--------------------
 72
    65
 73
     0
 40
0.0
  0
LTYPE
  5
2A
330
5
100
AcDbSymbolTableRecord
100
AcDbLinetypeTableRecord
  2
CENTER
 70
     0
  3
Center ____ _ ____ _ ____ _ ____ _ ____ _ ____
 72
    65
 73
     4
 40
13.0
 49
10.0
 74
     0
 49
-1.0
 74
     0
 49
1.0
 74
     0
 49
-1.0
 74
     0
  0
ENDTAB
  0
TABLE
  2
LAYER
  5
2
330
0
100
AcDbSymbolTable
 70
    21
  0
LAYER
  5
10
330
2
100
AcDbSymbolTableRecord
100
AcDbLayerTableRecord
  2
0
 70
     0
 62
     7
  6
CONTINUOUS
  0
LAYER
  5
2D
330
2
100
AcDbSymbolTableRecord
100
AcDbLayerTableRecord
  2
LAYERGROUP-1
 70
     0
 62
     3
  6
CONTINUOUS
  0
LAYER
  5
3D
330
2
100
AcDbSymbolTableRecord
100
AcDbLayerTableRecord
  2
}}ﾊﾊGG血CCТ
 70
     0
 62
     3
  6
CONTINUOUS
  0
LAYER
  5
CC
330
2
100
AcDbSymbolTableRecord
100
AcDbLayerTableRecord
  2
GR1-1
 70
     0
 62
     7
  6
CONTINUOUS
  0
LAYER
  5
161
330
2
100
AcDbSymbolTableRecord
100
AcDbLayerTableRecord
  2
3-1
 70
     0
 62
     7
  6
CONTINUOUS
  0
LAYER
  5
253
330
2
100
AcDbSymbolTableRecord
100
AcDbLayerTableRecord
  2
0-1
 70
     0
 62
     7
  6
CONTINUOUS
  0
ENDTAB
  0
TABLE
  2
STYLE
  5
3
330
0
100
AcDbSymbolTable
 70
     4
  0
STYLE
  5
11
330
3
100
AcDbSymbolTableRecord
100
AcDbTextStyleTableRecord
  2
STANDARD
 70
     0
 40
0.0
 41
1.0
 50
0.0
 71
     0
 42
0.2
  3
txt
  4

  0
STYLE
  5
3F
330
3
100
AcDbSymbolTableRecord
100
AcDbTextStyleTableRecord
  2
STYLE1
 70
     0
 40
0.0
 41
1.0
 50
0.0
 71
     0
 42
0.2
  3
MONOTXT.SHX
  4
extfont.shx
  0
STYLE
  5
40
330
3
100
AcDbSymbolTableRecord
100
AcDbTextStyleTableRecord
  2
FX_VECTOR
 70
     0
 40
0.0
 41
1.0
 50
0.0
 71
     0
 42
0.2
  3
MONOTXT.SHX
  4
BIGFONT.SHX
  0
ENDTAB
  0
TABLE
  2
VIEW
  5
6
330
0
100
AcDbSymbolTable
 70
     0
  0
ENDTAB
  0
TABLE
  2
UCS
  5
7
330
0
100
AcDbSymbolTable
 70
     0
  0
ENDTAB
  0
TABLE
  2
APPID
  5
9
330
0
100
AcDbSymbolTable
 70
     1
  0
APPID
  5
12
330
9
100
AcDbSymbolTableRecord
100
AcDbRegAppTableRecord
  2
ACAD
 70
     0
  0
ENDTAB
  0
TABLE
  2
DIMSTYLE
  5
A
330
0
100
AcDbSymbolTable
 70
     2
  0
DIMSTYLE
105
27
330
A
100
AcDbSymbolTableRecord
100
AcDbDimStyleTableRecord
  2
STANDARD
 70
     0
  3

  4

  5

  6

  7

 40
1.0
 41
0.18
 42
0.0625
 43
0.38
 44
0.18
 45
0.0
 46
0.0
 47
0.0
 48
0.0
140
0.18
141
0.09
142
0.0
143
25.4
144
1.0
145
0.0
146
1.0
147
0.09
 71
     0
 72
     0
 73
     1
 74
     1
 75
     0
 76
     0
 77
     0
 78
     0
170
     0
171
     2
172
     0
173
     0
174
     0
175
     0
176
     0
177
     0
178
     0
270
     2
271
     4
272
     4
273
     2
274
     2
340
11
275
     0
280
     0
281
     0
282
     0
283
     1
284
     0
285
     0
286
     0
287
     3
288
     0
  0
DIMSTYLE
105
A7
102
{ACAD_REACTORS
330
CB
330
D6
330
106
330
110
330
14B
330
172
330
17C
330
185
330
193
330
1FE
330
208
330
23B
102
}
330
A
100
AcDbSymbolTableRecord
100
AcDbDimStyleTableRecord
  2
FXDIMINFO
 70
     0
  3

  4

  5

  6
FXTIP_ARROW_S
  7
FXTIP_ARROW_E
 40
1.0
 41
4.0
 42
1.0
 43
10.0
 44
1.0
 45
0.0
 46
6.0
 47
0.0
 48
0.0
140
4.0
141
2.5
142
0.0
143
0.03937
144
1.0
145
0.0
146
1.0
147
1.0
 71
     0
 72
     0
 73
     0
 74
     0
 75
     0
 76
     0
 77
     1
 78
     8
170
     0
171
     3
172
     1
173
     1
174
     0
175
     0
176
     7
177
     7
178
     7
179
     2
270
     2
271
     2
272
     2
273
     2
274
     3
340
3F
275
     0
280
     0
281
     0
282
     0
283
     0
284
     8
285
     0
286
     0
287
     3
288
     0
  0
ENDTAB
  0
TABLE
  2
BLOCK_RECORD
  5
1
330
0
100
AcDbSymbolTable
 70
    35
  0
BLOCK_RECORD
  5
1F
330
1
100
AcDbSymbolTableRecord
100
AcDbBlockTableRecord
  2
*MODEL_SPACE
  0
BLOCK_RECORD
  5
1B
330
1
100
AcDbSymbolTableRecord
100
AcDbBlockTableRecord
  2
*PAPER_SPACE
  0
BLOCK_RECORD
  5
41
330
1
100
AcDbSymbolTableRecord
100
AcDbBlockTableRecord
  2
FXTIP_ARROW_S
  0
BLOCK_RECORD
  5
47
330
1
100
AcDbSymbolTableRecord
100
AcDbBlockTableRecord
  2
FXTIP_ARROW_E
  0
BLOCK_RECORD
  5
4D
330
1
100
AcDbSymbolTableRecord
100
AcDbBlockTableRecord
  2
FXTIP_BLACKDOT_S
  0
BLOCK_RECORD
  5
53
330
1
100
AcDbSymbolTableRecord
100
AcDbBlockTableRecord
  2
FXTIP_BLACKDOT_E
  0
BLOCK_RECORD
  5
59
330
1
100
AcDbSymbolTableRecord
100
AcDbBlockTableRecord
  2
FXTIP_TRIANGLE_S
  0
BLOCK_RECORD
  5
60
330
1
100
AcDbSymbolTableRecord
100
AcDbBlockTableRecord
  2
FXTIP_TRIANGLE_E
  0
BLOCK_RECORD
  5
67
330
1
100
AcDbSymbolTableRecord
100
AcDbBlockTableRecord
  2
FXTIP_ARCHITECT_S
  0
BLOCK_RECORD
  5
6D
330
1
100
AcDbSymbolTableRecord
100
AcDbBlockTableRecord
  2
FXTIP_ARCHITECT_E
  0
BLOCK_RECORD
  5
73
330
1
100
AcDbSymbolTableRecord
100
AcDbBlockTableRecord
  2
FXTIP_CIVIL_S
  0
BLOCK_RECORD
  5
79
330
1
100
AcDbSymbolTableRecord
100
AcDbBlockTableRecord
  2
FXTIP_CIVIL_E
  0
BLOCK_RECORD
  5
7F
330
1
100
AcDbSymbolTableRecord
100
AcDbBlockTableRecord
  2
FXTIP_WHITEDOT_S
  0
BLOCK_RECORD
  5
84
330
1
100
AcDbSymbolTableRecord
100
AcDbBlockTableRecord
  2
FXTIP_WHITEDOT_E
  0
BLOCK_RECORD
  5
89
330
1
100
AcDbSymbolTableRecord
100
AcDbBlockTableRecord
  2
FXTIP_UPARROW_S
  0
BLOCK_RECORD
  5
8E
330
1
100
AcDbSymbolTableRecord
100
AcDbBlockTableRecord
  2
FXTIP_UPARROW_E
  0
BLOCK_RECORD
  5
93
330
1
100
AcDbSymbolTableRecord
100
AcDbBlockTableRecord
  2
FXTIP_DOWNARROW_S
  0
BLOCK_RECORD
  5
98
330
1
100
AcDbSymbolTableRecord
100
AcDbBlockTableRecord
  2
FXTIP_DOWNARROW_E
  0
BLOCK_RECORD
  5
9D
330
1
100
AcDbSymbolTableRecord
100
AcDbBlockTableRecord
  2
FXTIP_BLACKTRIANGLE_S
  0
BLOCK_RECORD
  5
A2
330
1
100
AcDbSymbolTableRecord
100
AcDbBlockTableRecord
  2
FXTIP_BLACKTRIANGLE_E
  0
BLOCK_RECORD
  5
CD
330
1
100
AcDbSymbolTableRecord
100
AcDbBlockTableRecord
  2
*D19
  0
BLOCK_RECORD
  5
D7
330
1
100
AcDbSymbolTableRecord
100
AcDbBlockTableRecord
  2
*D20
  0
BLOCK_RECORD
  5
107
330
1
100
AcDbSymbolTableRecord
100
AcDbBlockTableRecord
  2
*D21
  0
BLOCK_RECORD
  5
111
330
1
100
AcDbSymbolTableRecord
100
AcDbBlockTableRecord
  2
*D22
  0
BLOCK_RECORD
  5
14C
330
1
100
AcDbSymbolTableRecord
100
AcDbBlockTableRecord
  2
*D23
  0
BLOCK_RECORD
  5
173
330
1
100
AcDbSymbolTableRecord
100
AcDbBlockTableRecord
  2
*D24
  0
BLOCK_RECORD
  5
17D
330
1
100
AcDbSymbolTableRecord
100
AcDbBlockTableRecord
  2
*D25
  0
BLOCK_RECORD
  5
186
330
1
100
AcDbSymbolTableRecord
100
AcDbBlockTableRecord
  2
*D26
  0
BLOCK_RECORD
  5
194
330
1
100
AcDbSymbolTableRecord
100
AcDbBlockTableRecord
  2
*D27
  0
BLOCK_RECORD
  5
1FF
330
1
100
AcDbSymbolTableRecord
100
AcDbBlockTableRecord
  2
*D28
  0
BLOCK_RECORD
  5
209
330
1
100
AcDbSymbolTableRecord
100
AcDbBlockTableRecord
  2
*D29
  0
BLOCK_RECORD
  5
23C
330
1
100
AcDbSymbolTableRecord
100
AcDbBlockTableRecord
  2
*D30
  0
BLOCK_RECORD
  5
243
330
1
100
AcDbSymbolTableRecord
100
AcDbBlockTableRecord
  2
BLKF033
  0
BLOCK_RECORD
  5
24F
330
1
100
AcDbSymbolTableRecord
100
AcDbBlockTableRecord
  2
BLKF034
  0
BLOCK_RECORD
  5
258
330
1
100
AcDbSymbolTableRecord
100
AcDbBlockTableRecord
  2
BLKF035
  0
BLOCK_RECORD
  5
288
330
1
100
AcDbSymbolTableRecord
100
AcDbBlockTableRecord
  2
BLKF036
  0
ENDTAB
  0
ENDSEC
  0
SECTION
  2
BLOCKS
  0
BLOCK
  5
20
330
1F
100
AcDbEntity
  8
0
100
AcDbBlockBegin
  2
*MODEL_SPACE
 70
     0
 71
     0
 10
0.0
 20
0.0
 30
0.0
  3
*MODEL_SPACE
  1

  0
ENDBLK
  5
21
330
1F
100
AcDbEntity
  8
0
100
AcDbBlockEnd
  0
BLOCK
  5
1C
330
1B
100
AcDbEntity
 67
     1
  8
0
100
AcDbBlockBegin
  2
*PAPER_SPACE
 70
     0
 71
     0
 10
0.0
 20
0.0
 30
0.0
  3
*PAPER_SPACE
  1

  0
ENDBLK
  5
1D
330
1B
100
AcDbEntity
 67
     1
  8
0
100
AcDbBlockEnd
  0
BLOCK
  5
42
330
41
100
AcDbEntity
  8
0
100
AcDbBlockBegin
  2
FXTIP_ARROW_S
 70
     0
 71
     0
 10
0.0
 20
0.0
 30
0.0
  3
FXTIP_ARROW_S
  1

  0
LINE
  5
44
330
41
100
AcDbEntity
  8
0
  6
CONTINUOUS
 62
     0
100
AcDbLine
 10
0.0
 20
0.0
 30
0.0
 11
-1.0
 21
0.0
 31
0.0
  0
LINE
  5
45
330
41
100
AcDbEntity
  8
0
  6
CONTINUOUS
 62
     0
100
AcDbLine
 10
0.0
 20
0.0
 30
0.0
 11
-0.965926
 21
-0.258819
 31
0.0
  0
LINE
  5
46
330
41
100
AcDbEntity
  8
0
  6
CONTINUOUS
 62
     0
100
AcDbLine
 10
0.0
 20
0.0
 30
0.0
 11
-0.965926
 21
0.258819
 31
0.0
  0
ENDBLK
  5
43
330
41
100
AcDbEntity
  8
0
100
AcDbBlockEnd
  0
BLOCK
  5
48
330
47
100
AcDbEntity
  8
0
100
AcDbBlockBegin
  2
FXTIP_ARROW_E
 70
     0
 71
     0
 10
0.0
 20
0.0
 30
0.0
  3
FXTIP_ARROW_E
  1

  0
LINE
  5
4A
330
47
100
AcDbEntity
  8
0
  6
CONTINUOUS
 62
     0
100
AcDbLine
 10
0.0
 20
0.0
 30
0.0
 11
-1.0
 21
0.0
 31
0.0
  0
LINE
  5
4B
330
47
100
AcDbEntity
  8
0
  6
CONTINUOUS
 62
     0
100
AcDbLine
 10
0.0
 20
0.0
 30
0.0
 11
-0.965926
 21
0.258819
 31
0.0
  0
LINE
  5
4C
330
47
100
AcDbEntity
  8
0
  6
CONTINUOUS
 62
     0
100
AcDbLine
 10
0.0
 20
0.0
 30
0.0
 11
-0.965926
 21
-0.258819
 31
0.0
  0
ENDBLK
  5
49
330
47
100
AcDbEntity
  8
0
100
AcDbBlockEnd
  0
BLOCK
  5
4E
330
4D
100
AcDbEntity
  8
0
100
AcDbBlockBegin
  2
FXTIP_BLACKDOT_S
 70
     0
 71
     0
 10
0.0
 20
0.0
 30
0.0
  3
FXTIP_BLACKDOT_S
  1

  0
LINE
  5
50
330
4D
100
AcDbEntity
  8
0
  6
CONTINUOUS
 62
     0
100
AcDbLine
 10
0.0
 20
0.0
 30
0.0
 11
-1.0
 21
0.0
 31
0.0
  0
LWPOLYLINE
  5
51
330
4D
100
AcDbEntity
  8
0
  6
CONTINUOUS
 62
     0
100
AcDbPolyline
 90
        2
 70
     1
 10
-0.25
 20
0.0
 40
0.5
 41
0.5
 42
1.0
 10
0.25
 20
0.0
 40
0.5
 41
0.5
 42
1.0
  0
CIRCLE
  5
52
330
4D
100
AcDbEntity
  8
0
  6
CONTINUOUS
 62
     0
100
AcDbCircle
 10
0.0
 20
0.0
 30
0.0
 40
0.5
  0
ENDBLK
  5
4F
330
4D
100
AcDbEntity
  8
0
100
AcDbBlockEnd
  0
BLOCK
  5
54
330
53
100
AcDbEntity
  8
0
100
AcDbBlockBegin
  2
FXTIP_BLACKDOT_E
 70
     0
 71
     0
 10
0.0
 20
0.0
 30
0.0
  3
FXTIP_BLACKDOT_E
  1

  0
LINE
  5
56
330
53
100
AcDbEntity
  8
0
  6
CONTINUOUS
 62
     0
100
AcDbLine
 10
0.0
 20
0.0
 30
0.0
 11
-1.0
 21
0.0
 31
0.0
  0
LWPOLYLINE
  5
57
330
53
100
AcDbEntity
  8
0
  6
CONTINUOUS
 62
     0
100
AcDbPolyline
 90
        2
 70
     1
 10
-0.25
 20
0.0
 40
0.5
 41
0.5
 42
1.0
 10
0.25
 20
0.0
 40
0.5
 41
0.5
 42
1.0
  0
CIRCLE
  5
58
330
53
100
AcDbEntity
  8
0
  6
CONTINUOUS
 62
     0
100
AcDbCircle
 10
0.0
 20
0.0
 30
0.0
 40
0.5
  0
ENDBLK
  5
55
330
53
100
AcDbEntity
  8
0
100
AcDbBlockEnd
  0
BLOCK
  5
5A
330
59
100
AcDbEntity
  8
0
100
AcDbBlockBegin
  2
FXTIP_TRIANGLE_S
 70
     0
 71
     0
 10
0.0
 20
0.0
 30
0.0
  3
FXTIP_TRIANGLE_S
  1

  0
LINE
  5
5C
330
59
100
AcDbEntity
  8
0
  6
CONTINUOUS
 62
     0
100
AcDbLine
 10
0.0
 20
0.0
 30
0.0
 11
-1.0
 21
0.0
 31
0.0
  0
LINE
  5
5D
330
59
100
AcDbEntity
  8
0
  6
CONTINUOUS
 62
     0
100
AcDbLine
 10
0.0
 20
0.0
 30
0.0
 11
-0.965926
 21
-0.258819
 31
0.0
  0
LINE
  5
5E
330
59
100
AcDbEntity
  8
0
  6
CONTINUOUS
 62
     0
100
AcDbLine
 10
0.0
 20
0.0
 30
0.0
 11
-0.965926
 21
0.258819
 31
0.0
  0
LINE
  5
5F
330
59
100
AcDbEntity
  8
0
  6
CONTINUOUS
 62
     0
100
AcDbLine
 10
-0.965926
 20
-0.258819
 30
0.0
 11
-0.965926
 21
0.258819
 31
0.0
  0
ENDBLK
  5
5B
330
59
100
AcDbEntity
  8
0
100
AcDbBlockEnd
  0
BLOCK
  5
61
330
60
100
AcDbEntity
  8
0
100
AcDbBlockBegin
  2
FXTIP_TRIANGLE_E
 70
     0
 71
     0
 10
0.0
 20
0.0
 30
0.0
  3
FXTIP_TRIANGLE_E
  1

  0
LINE
  5
63
330
60
100
AcDbEntity
  8
0
  6
CONTINUOUS
 62
     0
100
AcDbLine
 10
0.0
 20
0.0
 30
0.0
 11
-1.0
 21
0.0
 31
0.0
  0
LINE
  5
64
330
60
100
AcDbEntity
  8
0
  6
CONTINUOUS
 62
     0
100
AcDbLine
 10
0.0
 20
0.0
 30
0.0
 11
-0.965926
 21
0.258819
 31
0.0
  0
LINE
  5
65
330
60
100
AcDbEntity
  8
0
  6
CONTINUOUS
 62
     0
100
AcDbLine
 10
0.0
 20
0.0
 30
0.0
 11
-0.965926
 21
-0.258819
 31
0.0
  0
LINE
  5
66
330
60
100
AcDbEntity
  8
0
  6
CONTINUOUS
 62
     0
100
AcDbLine
 10
-0.965926
 20
0.258819
 30
0.0
 11
-0.965926
 21
-0.258819
 31
0.0
  0
ENDBLK
  5
62
330
60
100
AcDbEntity
  8
0
100
AcDbBlockEnd
  0
BLOCK
  5
68
330
67
100
AcDbEntity
  8
0
100
AcDbBlockBegin
  2
FXTIP_ARCHITECT_S
 70
     0
 71
     0
 10
0.0
 20
0.0
 30
0.0
  3
FXTIP_ARCHITECT_S
  1

  0
LINE
  5
6A
330
67
100
AcDbEntity
  8
0
  6
CONTINUOUS
 62
     0
100
AcDbLine
 10
0.0
 20
0.0
 30
0.0
 11
-1.0
 21
0.0
 31
0.0
  0
LINE
  5
6B
330
67
100
AcDbEntity
  8
0
  6
CONTINUOUS
 62
     0
100
AcDbLine
 10
0.0
 20
0.0
 30
0.0
 11
-0.707107
 21
-0.707107
 31
0.0
  0
LINE
  5
6C
330
67
100
AcDbEntity
  8
0
  6
CONTINUOUS
 62
     0
100
AcDbLine
 10
0.0
 20
0.0
 30
0.0
 11
0.707107
 21
0.707107
 31
0.0
  0
ENDBLK
  5
69
330
67
100
AcDbEntity
  8
0
100
AcDbBlockEnd
  0
BLOCK
  5
6E
330
6D
100
AcDbEntity
  8
0
100
AcDbBlockBegin
  2
FXTIP_ARCHITECT_E
 70
     0
 71
     0
 10
0.0
 20
0.0
 30
0.0
  3
FXTIP_ARCHITECT_E
  1

  0
LINE
  5
70
330
6D
100
AcDbEntity
  8
0
  6
CONTINUOUS
 62
     0
100
AcDbLine
 10
0.0
 20
0.0
 30
0.0
 11
-1.0
 21
0.0
 31
0.0
  0
LINE
  5
71
330
6D
100
AcDbEntity
  8
0
  6
CONTINUOUS
 62
     0
100
AcDbLine
 10
0.0
 20
0.0
 30
0.0
 11
0.707107
 21
0.707107
 31
0.0
  0
LINE
  5
72
330
6D
100
AcDbEntity
  8
0
  6
CONTINUOUS
 62
     0
100
AcDbLine
 10
0.0
 20
0.0
 30
0.0
 11
-0.707107
 21
-0.707107
 31
0.0
  0
ENDBLK
  5
6F
330
6D
100
AcDbEntity
  8
0
100
AcDbBlockEnd
  0
BLOCK
  5
74
330
73
100
AcDbEntity
  8
0
100
AcDbBlockBegin
  2
FXTIP_CIVIL_S
 70
     0
 71
     0
 10
0.0
 20
0.0
 30
0.0
  3
FXTIP_CIVIL_S
  1

  0
LINE
  5
76
330
73
100
AcDbEntity
  8
0
  6
CONTINUOUS
 62
     0
100
AcDbLine
 10
0.0
 20
0.0
 30
0.0
 11
-1.0
 21
0.0
 31
0.0
  0
LINE
  5
77
330
73
100
AcDbEntity
  8
0
  6
CONTINUOUS
 62
     0
100
AcDbLine
 10
0.0
 20
-0.0625
 30
0.0
 11
-1.0
 21
-0.0625
 31
0.0
  0
LINE
  5
78
330
73
100
AcDbEntity
  8
0
  6
CONTINUOUS
 62
     0
100
AcDbLine
 10
0.0
 20
-0.125
 30
0.0
 11
-1.0
 21
-0.125
 31
0.0
  0
ENDBLK
  5
75
330
73
100
AcDbEntity
  8
0
100
AcDbBlockEnd
  0
BLOCK
  5
7A
330
79
100
AcDbEntity
  8
0
100
AcDbBlockBegin
  2
FXTIP_CIVIL_E
 70
     0
 71
     0
 10
0.0
 20
0.0
 30
0.0
  3
FXTIP_CIVIL_E
  1

  0
LINE
  5
7C
330
79
100
AcDbEntity
  8
0
  6
CONTINUOUS
 62
     0
100
AcDbLine
 10
0.0
 20
0.0
 30
0.0
 11
-1.0
 21
0.0
 31
0.0
  0
LINE
  5
7D
330
79
100
AcDbEntity
  8
0
  6
CONTINUOUS
 62
     0
100
AcDbLine
 10
0.0
 20
0.0625
 30
0.0
 11
-1.0
 21
0.0625
 31
0.0
  0
LINE
  5
7E
330
79
100
AcDbEntity
  8
0
  6
CONTINUOUS
 62
     0
100
AcDbLine
 10
0.0
 20
0.125
 30
0.0
 11
-1.0
 21
0.125
 31
0.0
  0
ENDBLK
  5
7B
330
79
100
AcDbEntity
  8
0
100
AcDbBlockEnd
  0
BLOCK
  5
80
330
7F
100
AcDbEntity
  8
0
100
AcDbBlockBegin
  2
FXTIP_WHITEDOT_S
 70
     0
 71
     0
 10
0.0
 20
0.0
 30
0.0
  3
FXTIP_WHITEDOT_S
  1

  0
LINE
  5
82
330
7F
100
AcDbEntity
  8
0
  6
CONTINUOUS
 62
     0
100
AcDbLine
 10
0.0
 20
0.0
 30
0.0
 11
-1.0
 21
0.0
 31
0.0
  0
CIRCLE
  5
83
330
7F
100
AcDbEntity
  8
0
  6
CONTINUOUS
 62
     0
100
AcDbCircle
 10
0.0
 20
0.0
 30
0.0
 40
0.5
  0
ENDBLK
  5
81
330
7F
100
AcDbEntity
  8
0
100
AcDbBlockEnd
  0
BLOCK
  5
85
330
84
100
AcDbEntity
  8
0
100
AcDbBlockBegin
  2
FXTIP_WHITEDOT_E
 70
     0
 71
     0
 10
0.0
 20
0.0
 30
0.0
  3
FXTIP_WHITEDOT_E
  1

  0
LINE
  5
87
330
84
100
AcDbEntity
  8
0
  6
CONTINUOUS
 62
     0
100
AcDbLine
 10
0.0
 20
0.0
 30
0.0
 11
-1.0
 21
0.0
 31
0.0
  0
CIRCLE
  5
88
330
84
100
AcDbEntity
  8
0
  6
CONTINUOUS
 62
     0
100
AcDbCircle
 10
0.0
 20
0.0
 30
0.0
 40
0.5
  0
ENDBLK
  5
86
330
84
100
AcDbEntity
  8
0
100
AcDbBlockEnd
  0
BLOCK
  5
8A
330
89
100
AcDbEntity
  8
0
100
AcDbBlockBegin
  2
FXTIP_UPARROW_S
 70
     0
 71
     0
 10
0.0
 20
0.0
 30
0.0
  3
FXTIP_UPARROW_S
  1

  0
LINE
  5
8C
330
89
100
AcDbEntity
  8
0
  6
CONTINUOUS
 62
     0
100
AcDbLine
 10
0.0
 20
0.0
 30
0.0
 11
-1.0
 21
0.0
 31
0.0
  0
LINE
  5
8D
330
89
100
AcDbEntity
  8
0
  6
CONTINUOUS
 62
     0
100
AcDbLine
 10
0.0
 20
0.0
 30
0.0
 11
-0.965926
 21
-0.258819
 31
0.0
  0
ENDBLK
  5
8B
330
89
100
AcDbEntity
  8
0
100
AcDbBlockEnd
  0
BLOCK
  5
8F
330
8E
100
AcDbEntity
  8
0
100
AcDbBlockBegin
  2
FXTIP_UPARROW_E
 70
     0
 71
     0
 10
0.0
 20
0.0
 30
0.0
  3
FXTIP_UPARROW_E
  1

  0
LINE
  5
91
330
8E
100
AcDbEntity
  8
0
  6
CONTINUOUS
 62
     0
100
AcDbLine
 10
0.0
 20
0.0
 30
0.0
 11
-1.0
 21
0.0
 31
0.0
  0
LINE
  5
92
330
8E
100
AcDbEntity
  8
0
  6
CONTINUOUS
 62
     0
100
AcDbLine
 10
0.0
 20
0.0
 30
0.0
 11
-0.965926
 21
0.258819
 31
0.0
  0
ENDBLK
  5
90
330
8E
100
AcDbEntity
  8
0
100
AcDbBlockEnd
  0
BLOCK
  5
94
330
93
100
AcDbEntity
  8
0
100
AcDbBlockBegin
  2
FXTIP_DOWNARROW_S
 70
     0
 71
     0
 10
0.0
 20
0.0
 30
0.0
  3
FXTIP_DOWNARROW_S
  1

  0
LINE
  5
96
330
93
100
AcDbEntity
  8
0
  6
CONTINUOUS
 62
     0
100
AcDbLine
 10
0.0
 20
0.0
 30
0.0
 11
-1.0
 21
0.0
 31
0.0
  0
LINE
  5
97
330
93
100
AcDbEntity
  8
0
  6
CONTINUOUS
 62
     0
100
AcDbLine
 10
0.0
 20
0.0
 30
0.0
 11
-0.965926
 21
0.258819
 31
0.0
  0
ENDBLK
  5
95
330
93
100
AcDbEntity
  8
0
100
AcDbBlockEnd
  0
BLOCK
  5
99
330
98
100
AcDbEntity
  8
0
100
AcDbBlockBegin
  2
FXTIP_DOWNARROW_E
 70
     0
 71
     0
 10
0.0
 20
0.0
 30
0.0
  3
FXTIP_DOWNARROW_E
  1

  0
LINE
  5
9B
330
98
100
AcDbEntity
  8
0
  6
CONTINUOUS
 62
     0
100
AcDbLine
 10
0.0
 20
0.0
 30
0.0
 11
-1.0
 21
0.0
 31
0.0
  0
LINE
  5
9C
330
98
100
AcDbEntity
  8
0
  6
CONTINUOUS
 62
     0
100
AcDbLine
 10
0.0
 20
0.0
 30
0.0
 11
-0.965926
 21
-0.258819
 31
0.0
  0
ENDBLK
  5
9A
330
98
100
AcDbEntity
  8
0
100
AcDbBlockEnd
  0
BLOCK
  5
9E
330
9D
100
AcDbEntity
  8
0
100
AcDbBlockBegin
  2
FXTIP_BLACKTRIANGLE_S
 70
     0
 71
     0
 10
0.0
 20
0.0
 30
0.0
  3
FXTIP_BLACKTRIANGLE_S
  1

  0
LINE
  5
A0
330
9D
100
AcDbEntity
  8
0
  6
CONTINUOUS
 62
     0
100
AcDbLine
 10
0.0
 20
0.0
 30
0.0
 11
-1.0
 21
0.0
 31
0.0
  0
SOLID
  5
A1
330
9D
100
AcDbEntity
  8
0
  6
CONTINUOUS
 62
     0
100
AcDbTrace
 10
0.0
 20
0.0
 30
0.0
 11
-0.965926
 21
-0.258819
 31
0.0
 12
-0.965926
 22
0.258819
 32
0.0
 13
-0.965926
 23
0.258819
 33
0.0
  0
ENDBLK
  5
9F
330
9D
100
AcDbEntity
  8
0
100
AcDbBlockEnd
  0
BLOCK
  5
A3
330
A2
100
AcDbEntity
  8
0
100
AcDbBlockBegin
  2
FXTIP_BLACKTRIANGLE_E
 70
     0
 71
     0
 10
0.0
 20
0.0
 30
0.0
  3
FXTIP_BLACKTRIANGLE_E
  1

  0
LINE
  5
A5
330
A2
100
AcDbEntity
  8
0
  6
CONTINUOUS
 62
     0
100
AcDbLine
 10
0.0
 20
0.0
 30
0.0
 11
-1.0
 21
0.0
 31
0.0
  0
SOLID
  5
A6
330
A2
100
AcDbEntity
  8
0
  6
CONTINUOUS
 62
     0
100
AcDbTrace
 10
0.0
 20
0.0
 30
0.0
 11
-0.965926
 21
0.258819
 31
0.0
 12
-0.965926
 22
-0.258819
 32
0.0
 13
-0.965926
 23
-0.258819
 33
0.0
  0
ENDBLK
  5
A4
330
A2
100
AcDbEntity
  8
0
100
AcDbBlockEnd
  0
BLOCK
  5
CE
330
CD
100
AcDbEntity
  8
0
100
AcDbBlockBegin
  2
*D19
 70
     1
 71
     0
 10
0.0
 20
0.0
 30
0.0
  3
*D19
  1

  0
TEXT
  5
D0
330
CD
100
AcDbEntity
  8
GR1-1
  6
CONTINUOUS
 62
     7
100
AcDbText
 10
329.001312
 20
227.402985
 30
0.0
 40
4.0
  1
58
 50
90.0
 41
0.851351
  7
FX_VECTOR
 72
     5
 11
329.001312
 21
233.402985
 31
0.0
100
AcDbText
  0
LINE
  5
D1
330
CD
100
AcDbEntity
  8
GR1-1
  6
CONTINUOUS
 62
     7
100
AcDbLine
 10
302.846154
 20
201.402985
 30
0.0
 11
331.001317
 21
201.402985
 31
0.0
  0
LINE
  5
D2
330
CD
100
AcDbEntity
  8
GR1-1
  6
CONTINUOUS
 62
     7
100
AcDbLine
 10
302.846154
 20
259.402985
 30
0.0
 11
331.001317
 21
259.402985
 31
0.0
  0
LINE
  5
D3
330
CD
100
AcDbEntity
  8
GR1-1
  6
CONTINUOUS
 62
     7
100
AcDbLine
 10
330.001317
 20
201.402985
 30
0.0
 11
330.001317
 21
259.402985
 31
0.0
  0
INSERT
  5
D4
330
CD
100
AcDbEntity
  8
GR1-1
  6
CONTINUOUS
 62
     7
100
AcDbBlockReference
  2
FXTIP_ARROW_S
 10
330.001317
 20
201.402985
 30
0.0
 41
4.0
 42
4.0
 50
270.0
  0
INSERT
  5
D5
330
CD
100
AcDbEntity
  8
GR1-1
  6
CONTINUOUS
 62
     7
100
AcDbBlockReference
  2
FXTIP_ARROW_E
 10
330.001317
 20
259.402985
 30
0.0
 41
4.0
 42
4.0
 50
90.0
  0
ENDBLK
  5
CF
330
CD
100
AcDbEntity
  8
0
100
AcDbBlockEnd
  0
BLOCK
  5
D8
330
D7
100
AcDbEntity
  8
0
100
AcDbBlockBegin
  2
*D20
 70
     1
 71
     0
 10
0.0
 20
0.0
 30
0.0
  3
*D20
  1

  0
TEXT
  5
DA
330
D7
100
AcDbEntity
  8
GR1-1
  6
CONTINUOUS
 62
     7
100
AcDbText
 10
319.001312
 20
227.402985
 30
0.0
 40
4.0
  1
42
 50
90.0
 41
0.851351
  7
FX_VECTOR
 72
     5
 11
319.001312
 21
233.402985
 31
0.0
100
AcDbText
  0
LINE
  5
DB
330
D7
100
AcDbEntity
  8
GR1-1
  6
CONTINUOUS
 62
     7
100
AcDbLine
 10
311.346154
 20
209.402985
 30
0.0
 11
321.001317
 21
209.402985
 31
0.0
  0
LINE
  5
DC
330
D7
100
AcDbEntity
  8
GR1-1
  6
CONTINUOUS
 62
     7
100
AcDbLine
 10
310.846154
 20
251.402985
 30
0.0
 11
321.001317
 21
251.402985
 31
0.0
  0
LINE
  5
DD
330
D7
100
AcDbEntity
  8
GR1-1
  6
CONTINUOUS
 62
     7
100
AcDbLine
 10
320.001317
 20
209.402985
 30
0.0
 11
320.001317
 21
251.402985
 31
0.0
  0
INSERT
  5
DE
330
D7
100
AcDbEntity
  8
GR1-1
  6
CONTINUOUS
 62
     7
100
AcDbBlockReference
  2
FXTIP_ARROW_S
 10
320.001317
 20
209.402985
 30
0.0
 41
4.0
 42
4.0
 50
270.0
  0
INSERT
  5
DF
330
D7
100
AcDbEntity
  8
GR1-1
  6
CONTINUOUS
 62
     7
100
AcDbBlockReference
  2
FXTIP_ARROW_E
 10
320.001317
 20
251.402985
 30
0.0
 41
4.0
 42
4.0
 50
90.0
  0
ENDBLK
  5
D9
330
D7
100
AcDbEntity
  8
0
100
AcDbBlockEnd
  0
BLOCK
  5
108
330
107
100
AcDbEntity
  8
0
100
AcDbBlockBegin
  2
*D21
 70
     1
 71
     0
 10
0.0
 20
0.0
 30
0.0
  3
*D21
  1

  0
TEXT
  5
10A
330
107
100
AcDbEntity
  8
GR1-1
  6
CONTINUOUS
 62
     7
100
AcDbText
 10
271.846161
 20
169.902985
 30
0.0
 40
4.0
  1
70
 41
0.851351
  7
FX_VECTOR
 72
     5
 11
277.846161
 21
169.902985
 31
0.0
100
AcDbText
  0
LINE
  5
10B
330
107
100
AcDbEntity
  8
GR1-1
  6
CONTINUOUS
 62
     7
100
AcDbLine
 10
239.846154
 20
168.902985
 30
0.0
 11
309.846154
 21
168.902985
 31
0.0
  0
INSERT
  5
10C
330
107
100
AcDbEntity
  8
GR1-1
  6
CONTINUOUS
 62
     7
100
AcDbBlockReference
  2
FXTIP_ARROW_S
 10
239.846154
 20
168.902985
 30
0.0
 41
4.0
 42
4.0
 50
180.0
  0
INSERT
  5
10D
330
107
100
AcDbEntity
  8
GR1-1
  6
CONTINUOUS
 62
     7
100
AcDbBlockReference
  2
FXTIP_ARROW_E
 10
309.846154
 20
168.902985
 30
0.0
 41
4.0
 42
4.0
 50
360.0
  0
LINE
  5
10E
330
107
100
AcDbEntity
  8
GR1-1
  6
CONTINUOUS
 62
     7
100
AcDbLine
 10
239.846154
 20
208.402985
 30
0.0
 11
239.846154
 21
167.902985
 31
0.0
  0
LINE
  5
10F
330
107
100
AcDbEntity
  8
GR1-1
  6
CONTINUOUS
 62
     7
100
AcDbLine
 10
309.846154
 20
208.402985
 30
0.0
 11
309.846154
 21
167.902985
 31
0.0
  0
ENDBLK
  5
109
330
107
100
AcDbEntity
  8
0
100
AcDbBlockEnd
  0
BLOCK
  5
112
330
111
100
AcDbEntity
  8
0
100
AcDbBlockBegin
  2
*D22
 70
     1
 71
     0
 10
0.0
 20
0.0
 30
0.0
  3
*D22
  1

  0
TEXT
  5
114
330
111
100
AcDbEntity
  8
GR1-1
  6
CONTINUOUS
 62
     7
100
AcDbText
 10
271.846161
 20
179.902985
 30
0.0
 40
4.0
  1
55
 41
0.851351
  7
FX_VECTOR
 72
     5
 11
277.846161
 21
179.902985
 31
0.0
100
AcDbText
  0
LINE
  5
115
330
111
100
AcDbEntity
  8
GR1-1
  6
CONTINUOUS
 62
     7
100
AcDbLine
 10
247.346154
 20
178.902985
 30
0.0
 11
302.346154
 21
178.902985
 31
0.0
  0
INSERT
  5
116
330
111
100
AcDbEntity
  8
GR1-1
  6
CONTINUOUS
 62
     7
100
AcDbBlockReference
  2
FXTIP_ARROW_S
 10
247.346154
 20
178.902985
 30
0.0
 41
4.0
 42
4.0
 50
180.0
  0
INSERT
  5
117
330
111
100
AcDbEntity
  8
GR1-1
  6
CONTINUOUS
 62
     7
100
AcDbBlockReference
  2
FXTIP_ARROW_E
 10
302.346154
 20
178.902985
 30
0.0
 41
4.0
 42
4.0
 50
360.0
  0
LINE
  5
118
330
111
100
AcDbEntity
  8
GR1-1
  6
CONTINUOUS
 62
     7
100
AcDbLine
 10
247.346154
 20
200.402985
 30
0.0
 11
247.346154
 21
177.902985
 31
0.0
  0
LINE
  5
119
330
111
100
AcDbEntity
  8
GR1-1
  6
CONTINUOUS
 62
     7
100
AcDbLine
 10
302.346154
 20
200.402985
 30
0.0
 11
302.346154
 21
177.902985
 31
0.0
  0
ENDBLK
  5
113
330
111
100
AcDbEntity
  8
0
100
AcDbBlockEnd
  0
BLOCK
  5
14D
330
14C
100
AcDbEntity
  8
0
100
AcDbBlockBegin
  2
*D23
 70
     1
 71
     0
 10
0.0
 20
0.0
 30
0.0
  3
*D23
  1

  0
TEXT
  5
14F
330
14C
100
AcDbEntity
  8
LAYERGROUP-1
  6
CONTINUOUS
 62
     7
100
AcDbText
 10
224.648919
 20
269.401569
 30
0.0
 40
4.0
  1
4-%%c8.8
 50
323.564449
 41
0.84375
  7
FX_VECTOR
 72
     5
 11
239.130377
 21
258.711041
 31
0.0
100
AcDbText
  0
LINE
  5
150
330
14C
100
AcDbEntity
  8
LAYERGROUP-1
  6
CONTINUOUS
 62
     7
100
AcDbLine
 10
243.806242
 20
254.016225
 30
0.0
 11
250.886066
 21
248.789745
 31
0.0
  0
LINE
  5
151
330
14C
100
AcDbEntity
  8
LAYERGROUP-1
  6
CONTINUOUS
 62
     7
100
AcDbLine
 10
243.806242
 20
254.016225
 30
0.0
 11
218.785201
 21
272.487304
 31
0.0
  0
INSERT
  5
152
330
14C
100
AcDbEntity
  8
LAYERGROUP-1
  6
CONTINUOUS
 62
     7
100
AcDbBlockReference
  2
FXTIP_ARROW_S
 10
243.806242
 20
254.016225
 30
0.0
 41
4.0
 42
4.0
 50
323.564447
  0
LINE
  5
153
330
14C
100
AcDbEntity
  8
LAYERGROUP-1
  6
CONTINUOUS
 62
     7
100
AcDbLine
 10
250.886066
 20
248.789745
 30
0.0
 11
255.713218
 21
245.226236
 31
0.0
  0
INSERT
  5
154
330
14C
100
AcDbEntity
  8
LAYERGROUP-1
  6
CONTINUOUS
 62
     7
100
AcDbBlockReference
  2
FXTIP_ARROW_S
 10
250.886066
 20
248.789745
 30
0.0
 41
4.0
 42
4.0
 50
143.564447
  0
ENDBLK
  5
14E
330
14C
100
AcDbEntity
  8
0
100
AcDbBlockEnd
  0
BLOCK
  5
174
330
173
100
AcDbEntity
  8
0
100
AcDbBlockBegin
  2
*D24
 70
     1
 71
     0
 10
0.0
 20
0.0
 30
0.0
  3
*D24
  1

  0
TEXT
  5
176
330
173
100
AcDbEntity
  8
LAYERGROUP-1
  6
CONTINUOUS
 62
     7
100
AcDbText
 10
328.846161
 20
105.5
 30
0.0
 40
4.0
  1
80
 50
90.0
 41
0.851351
  7
FX_VECTOR
 72
     5
 11
328.846161
 21
111.5
 31
0.0
100
AcDbText
  0
LINE
  5
177
330
173
100
AcDbEntity
  8
LAYERGROUP-1
  6
CONTINUOUS
 62
     7
100
AcDbLine
 10
329.846154
 20
68.5
 30
0.0
 11
329.846154
 21
148.5
 31
0.0
  0
INSERT
  5
178
330
173
100
AcDbEntity
  8
LAYERGROUP-1
  6
CONTINUOUS
 62
     7
100
AcDbBlockReference
  2
FXTIP_ARROW_S
 10
329.846154
 20
68.5
 30
0.0
 41
4.0
 42
4.0
 50
270.0
  0
INSERT
  5
179
330
173
100
AcDbEntity
  8
LAYERGROUP-1
  6
CONTINUOUS
 62
     7
100
AcDbBlockReference
  2
FXTIP_ARROW_E
 10
329.846154
 20
148.5
 30
0.0
 41
4.0
 42
4.0
 50
90.0
  0
LINE
  5
17A
330
173
100
AcDbEntity
  8
LAYERGROUP-1
  6
CONTINUOUS
 62
     7
100
AcDbLine
 10
254.846154
 20
68.5
 30
0.0
 11
330.846154
 21
68.5
 31
0.0
  0
LINE
  5
17B
330
173
100
AcDbEntity
  8
LAYERGROUP-1
  6
CONTINUOUS
 62
     7
100
AcDbLine
 10
310.846154
 20
148.5
 30
0.0
 11
330.846154
 21
148.5
 31
0.0
  0
ENDBLK
  5
175
330
173
100
AcDbEntity
  8
0
100
AcDbBlockEnd
  0
BLOCK
  5
17E
330
17D
100
AcDbEntity
  8
0
100
AcDbBlockBegin
  2
*D25
 70
     1
 71
     0
 10
0.0
 20
0.0
 30
0.0
  3
*D25
  1

  0
TEXT
  5
180
330
17D
100
AcDbEntity
  8
LAYERGROUP-1
  6
CONTINUOUS
 62
     7
100
AcDbText
 10
318.846161
 20
118.75
 30
0.0
 40
4.0
  1
47.5
 50
90.0
 41
0.940299
  7
FX_VECTOR
 72
     5
 11
318.846161
 21
130.75
 31
0.0
100
AcDbText
  0
LINE
  5
181
330
17D
100
AcDbEntity
  8
LAYERGROUP-1
  6
CONTINUOUS
 62
     7
100
AcDbLine
 10
319.846154
 20
101.0
 30
0.0
 11
319.846154
 21
148.5
 31
0.0
  0
INSERT
  5
182
330
17D
100
AcDbEntity
  8
LAYERGROUP-1
  6
CONTINUOUS
 62
     7
100
AcDbBlockReference
  2
FXTIP_ARROW_S
 10
319.846154
 20
101.0
 30
0.0
 41
4.0
 42
4.0
 50
270.0
  0
INSERT
  5
183
330
17D
100
AcDbEntity
  8
LAYERGROUP-1
  6
CONTINUOUS
 62
     7
100
AcDbBlockReference
  2
FXTIP_ARROW_E
 10
319.846154
 20
148.5
 30
0.0
 41
4.0
 42
4.0
 50
90.0
  0
LINE
  5
184
330
17D
100
AcDbEntity
  8
LAYERGROUP-1
  6
CONTINUOUS
 62
     7
100
AcDbLine
 10
289.603886
 20
101.0
 30
0.0
 11
320.846154
 21
101.0
 31
0.0
  0
ENDBLK
  5
17F
330
17D
100
AcDbEntity
  8
0
100
AcDbBlockEnd
  0
BLOCK
  5
187
330
186
100
AcDbEntity
  8
0
100
AcDbBlockBegin
  2
*D26
 70
     1
 71
     0
 10
0.0
 20
0.0
 30
0.0
  3
*D26
  1

  0
TEXT
  5
189
330
186
100
AcDbEntity
  8
LAYERGROUP-1
  6
CONTINUOUS
 62
     7
100
AcDbText
 10
261.346161
 20
59.5
 30
0.0
 40
4.0
  1
21
 41
1.016129
  7
FX_VECTOR
 72
     5
 11
267.346161
 21
59.5
 31
0.0
100
AcDbText
  0
LINE
  5
18A
330
186
100
AcDbEntity
  8
LAYERGROUP-1
  6
CONTINUOUS
 62
     7
100
AcDbLine
 10
253.846154
 20
58.5
 30
0.0
 11
274.846154
 21
58.5
 31
0.0
  0
INSERT
  5
18B
330
186
100
AcDbEntity
  8
LAYERGROUP-1
  6
CONTINUOUS
 62
     7
100
AcDbBlockReference
  2
FXTIP_ARROW_S
 10
253.846154
 20
58.5
 30
0.0
 41
4.0
 42
4.0
 50
180.0
  0
INSERT
  5
18C
330
186
100
AcDbEntity
  8
LAYERGROUP-1
  6
CONTINUOUS
 62
     7
100
AcDbBlockReference
  2
FXTIP_ARROW_E
 10
274.846154
 20
58.5
 30
0.0
 41
4.0
 42
4.0
 50
360.0
  0
LINE
  5
18D
330
186
100
AcDbEntity
  8
LAYERGROUP-1
  6
CONTINUOUS
 62
     7
100
AcDbLine
 10
253.846154
 20
64.855691
 30
0.0
 11
253.846154
 21
57.5
 31
0.0
  0
LINE
  5
18E
330
186
100
AcDbEntity
  8
LAYERGROUP-1
  6
CONTINUOUS
 62
     7
100
AcDbLine
 10
274.846154
 20
108.820081
 30
0.0
 11
274.846154
 21
57.5
 31
0.0
  0
ENDBLK
  5
188
330
186
100
AcDbEntity
  8
0
100
AcDbBlockEnd
  0
BLOCK
  5
195
330
194
100
AcDbEntity
  8
0
100
AcDbBlockBegin
  2
*D27
 70
     1
 71
     0
 10
0.0
 20
0.0
 30
0.0
  3
*D27
  1

  0
TEXT
  5
197
330
194
100
AcDbEntity
  8
LAYERGROUP-1
  6
CONTINUOUS
 62
     7
100
AcDbText
 10
91.6194
 20
96.5
 30
0.0
 40
4.0
  1
%%c65
 50
90.0
 41
0.84375
  7
FX_VECTOR
 72
     5
 11
91.6194
 21
105.5
 31
0.0
100
AcDbText
  0
LINE
  5
198
330
194
100
AcDbEntity
  8
LAYERGROUP-1
  6
CONTINUOUS
 62
     7
100
AcDbLine
 10
92.619403
 20
68.5
 30
0.0
 11
92.619403
 21
133.5
 31
0.0
  0
INSERT
  5
199
330
194
100
AcDbEntity
  8
LAYERGROUP-1
  6
CONTINUOUS
 62
     7
100
AcDbBlockReference
  2
FXTIP_ARROW_S
 10
92.619403
 20
68.5
 30
0.0
 41
4.0
 42
4.0
 50
270.0
  0
INSERT
  5
19A
330
194
100
AcDbEntity
  8
LAYERGROUP-1
  6
CONTINUOUS
 62
     7
100
AcDbBlockReference
  2
FXTIP_ARROW_E
 10
92.619403
 20
133.5
 30
0.0
 41
4.0
 42
4.0
 50
90.0
  0
LINE
  5
19B
330
194
100
AcDbEntity
  8
LAYERGROUP-1
  6
CONTINUOUS
 62
     7
100
AcDbLine
 10
125.5
 20
68.5
 30
0.0
 11
91.619403
 21
68.5
 31
0.0
  0
LINE
  5
19C
330
194
100
AcDbEntity
  8
LAYERGROUP-1
  6
CONTINUOUS
 62
     7
100
AcDbLine
 10
125.5
 20
133.5
 30
0.0
 11
91.619403
 21
133.5
 31
0.0
  0
ENDBLK
  5
196
330
194
100
AcDbEntity
  8
0
100
AcDbBlockEnd
  0
BLOCK
  5
200
330
1FF
100
AcDbEntity
  8
0
100
AcDbBlockBegin
  2
*D28
 70
     1
 71
     0
 10
0.0
 20
0.0
 30
0.0
  3
*D28
  1

  0
TEXT
  5
202
330
1FF
100
AcDbEntity
  8
LAYERGROUP-1
  6
CONTINUOUS
 62
     7
100
AcDbText
 10
124.000008
 20
54.553375
 30
0.0
 40
4.0
  1
25
 41
0.851351
  7
FX_VECTOR
 72
     5
 11
130.000008
 21
54.553375
 31
0.0
100
AcDbText
  0
LINE
  5
203
330
1FF
100
AcDbEntity
  8
LAYERGROUP-1
  6
CONTINUOUS
 62
     7
100
AcDbLine
 10
114.5
 20
53.553377
 30
0.0
 11
139.5
 21
53.553377
 31
0.0
  0
INSERT
  5
204
330
1FF
100
AcDbEntity
  8
LAYERGROUP-1
  6
CONTINUOUS
 62
     7
100
AcDbBlockReference
  2
FXTIP_ARROW_S
 10
114.5
 20
53.553377
 30
0.0
 41
4.0
 42
4.0
 50
180.0
  0
INSERT
  5
205
330
1FF
100
AcDbEntity
  8
LAYERGROUP-1
  6
CONTINUOUS
 62
     7
100
AcDbBlockReference
  2
FXTIP_ARROW_E
 10
139.5
 20
53.553377
 30
0.0
 41
4.0
 42
4.0
 50
360.0
  0
LINE
  5
206
330
1FF
100
AcDbEntity
  8
LAYERGROUP-1
  6
CONTINUOUS
 62
     7
100
AcDbLine
 10
114.5
 20
70.979458
 30
0.0
 11
114.5
 21
52.553377
 31
0.0
  0
LINE
  5
207
330
1FF
100
AcDbEntity
  8
LAYERGROUP-1
  6
CONTINUOUS
 62
     7
100
AcDbLine
 10
139.5
 20
70.979458
 30
0.0
 11
139.5
 21
52.553377
 31
0.0
  0
ENDBLK
  5
201
330
1FF
100
AcDbEntity
  8
0
100
AcDbBlockEnd
  0
BLOCK
  5
20A
330
209
100
AcDbEntity
  8
0
100
AcDbBlockBegin
  2
*D29
 70
     1
 71
     0
 10
0.0
 20
0.0
 30
0.0
  3
*D29
  1

  0
TEXT
  5
20C
330
209
100
AcDbEntity
  8
LAYERGROUP-1
  6
CONTINUOUS
 62
     7
100
AcDbText
 10
124.000008
 20
43.842537
 30
0.0
 40
4.0
  1
30
 41
0.851351
  7
FX_VECTOR
 72
     5
 11
130.000008
 21
43.842537
 31
0.0
100
AcDbText
  0
LINE
  5
20D
330
209
100
AcDbEntity
  8
LAYERGROUP-1
  6
CONTINUOUS
 62
     7
100
AcDbLine
 10
112.0
 20
42.842536
 30
0.0
 11
142.0
 21
42.842536
 31
0.0
  0
INSERT
  5
20E
330
209
100
AcDbEntity
  8
LAYERGROUP-1
  6
CONTINUOUS
 62
     7
100
AcDbBlockReference
  2
FXTIP_ARROW_S
 10
112.0
 20
42.842536
 30
0.0
 41
4.0
 42
4.0
 50
180.0
  0
INSERT
  5
20F
330
209
100
AcDbEntity
  8
LAYERGROUP-1
  6
CONTINUOUS
 62
     7
100
AcDbBlockReference
  2
FXTIP_ARROW_E
 10
142.0
 20
42.842536
 30
0.0
 41
4.0
 42
4.0
 50
360.0
  0
LINE
  5
210
330
209
100
AcDbEntity
  8
LAYERGROUP-1
  6
CONTINUOUS
 62
     7
100
AcDbLine
 10
112.0
 20
46.5
 30
0.0
 11
112.0
 21
41.842536
 31
0.0
  0
LINE
  5
211
330
209
100
AcDbEntity
  8
LAYERGROUP-1
  6
CONTINUOUS
 62
     7
100
AcDbLine
 10
142.0
 20
89.0
 30
0.0
 11
142.0
 21
41.842536
 31
0.0
  0
ENDBLK
  5
20B
330
209
100
AcDbEntity
  8
0
100
AcDbBlockEnd
  0
BLOCK
  5
23D
330
23C
100
AcDbEntity
  8
0
100
AcDbBlockBegin
  2
*D30
 70
     1
 71
     0
 10
0.0
 20
0.0
 30
0.0
  3
*D30
  1

  0
TEXT
  5
23F
330
23C
100
AcDbEntity
  8
LAYERGROUP-1
  6
CONTINUOUS
 62
     7
100
AcDbText
 10
205.393748
 20
213.069989
 30
0.0
 40
4.0
  1
R57
 50
14.813306
 41
0.814655
  7
FX_VECTOR
 72
     5
 11
214.094625
 21
215.371021
 31
0.0
100
AcDbText
  0
LINE
  5
240
330
23C
100
AcDbEntity
  8
LAYERGROUP-1
  6
CONTINUOUS
 62
     7
100
AcDbLine
 10
219.377754
 20
215.73382
 30
0.0
 11
274.846154
 21
230.402985
 31
0.0
  0
LINE
  5
241
330
23C
100
AcDbEntity
  8
LAYERGROUP-1
  6
CONTINUOUS
 62
     7
100
AcDbLine
 10
219.377754
 20
215.73382
 30
0.0
 11
200.621962
 21
210.773666
 31
0.0
  0
INSERT
  5
242
330
23C
100
AcDbEntity
  8
LAYERGROUP-1
  6
CONTINUOUS
 62
     7
100
AcDbBlockReference
  2
FXTIP_ARROW_S
 10
219.377754
 20
215.73382
 30
0.0
 41
4.0
 42
4.0
 50
14.813306
  0
ENDBLK
  5
23E
330
23C
100
AcDbEntity
  8
0
100
AcDbBlockEnd
  0
BLOCK
  5
244
330
243
100
AcDbEntity
  8
0
100
AcDbBlockBegin
  2
BLKF033
 70
     0
 71
     0
 10
0.0
 20
0.0
 30
0.0
  3
BLKF033
  1

  0
LINE
  5
247
330
243
100
AcDbEntity
  8
}}ﾊﾊGG血CCТ
  6
CONTINUOUS
 62
     7
100
AcDbLine
 10
10.0
 20
10.0
 30
0.0
 11
410.0
 21
10.0
 31
0.0
  0
LINE
  5
248
330
243
100
AcDbEntity
  8
}}ﾊﾊGG血CCТ
  6
CONTINUOUS
 62
     7
100
AcDbLine
 10
10.0
 20
10.0
 30
0.0
 11
10.0
 21
287.0
 31
0.0
  0
LINE
  5
249
330
243
100
AcDbEntity
  8
}}ﾊﾊGG血CCТ
  6
CONTINUOUS
 62
     7
100
AcDbLine
 10
10.0
 20
287.0
 30
0.0
 11
410.0
 21
287.0
 31
0.0
  0
LINE
  5
24A
330
243
100
AcDbEntity
  8
}}ﾊﾊGG血CCТ
  6
CONTINUOUS
 62
     7
100
AcDbLine
 10
410.0
 20
287.0
 30
0.0
 11
410.0
 21
10.0
 31
0.0
  0
LINE
  5
24B
330
243
100
AcDbEntity
  8
}}ﾊﾊGG血CCТ
  6
CONTINUOUS
 62
     7
100
AcDbLine
 10
153.0
 20
10.0
 30
0.0
 11
153.0
 21
20.0
 31
0.0
  0
TEXT
  5
24C
330
243
100
AcDbEntity
  8
}}ﾊﾊGG血CCТ
  6
CONTINUOUS
 62
     7
100
AcDbText
 10
137.738815
 20
11.596879
 30
0.0
 40
6.648749
  1
品名
 41
1.083413
  7
FX_VECTOR
 72
     5
 11
149.058355
 21
11.596879
 31
0.0
100
AcDbText
  0
LINE
  5
24D
330
243
100
AcDbEntity
  8
}}ﾊﾊGG血CCТ
  6
CONTINUOUS
 62
     7
100
AcDbLine
 10
233.0
 20
20.0
 30
0.0
 11
233.0
 21
10.0
 31
0.0
  0
LINE
  5
24E
330
243
100
AcDbEntity
  8
}}ﾊﾊGG血CCТ
  6
CONTINUOUS
 62
     7
100
AcDbLine
 10
133.0
 20
20.0
 30
0.0
 11
410.0
 21
20.0
 31
0.0
  0
INSERT
  5
252
330
243
100
AcDbEntity
  8
0
100
AcDbBlockReference
  2
BLKF034
 10
0.0
 20
0.0
 30
0.0
  0
INSERT
  5
25B
330
243
100
AcDbEntity
  8
0
100
AcDbBlockReference
  2
BLKF035
 10
0.0
 20
0.0
 30
0.0
  0
HATCH
  5
26B
330
243
100
AcDbEntity
  8
GR1-1
  6
CONTINUOUS
 62
     7
100
AcDbHatch
 10
0.0
 20
0.0
 30
0.0
210
0.0
220
0.0
230
1.0
  2

 70
     0
 71
     1
 91
        2
 92
        0
 93
        4
 72
     1
 10
338.8018997861325
 20
17.91346152
 11
344.8018997861325
 21
17.91346152
 72
     1
 10
344.8018997861325
 20
17.91346152
 11
344.8018997861325
 21
11.91346152
 72
     1
 10
344.8018997861325
 20
11.91346152
 11
338.8018997861325
 21
11.91346152
 72
     1
 10
338.8018997861325
 20
11.91346152
 11
338.8018997861325
 21
17.91346152
 97
        0
 92
        0
 93
       15
 72
     1
 10
341.8018997861325
 20
17.76923076000002
 11
338.9461305461325
 21
14.91346152
 72
     1
 10
338.9461305461325
 20
14.91346152
 11
341.8018997861325
 21
12.05769228000001
 72
     1
 10
341.8018997861325
 20
12.05769228000001
 11
343.3595920661325
 21
13.61538462
 72
     1
 10
343.3595920661325
 20
13.61538462
 11
343.3595920661325
 21
12.98076924
 72
     1
 10
343.3595920661325
 20
12.98076924
 11
344.2249766861325
 21
12.98076924
 72
     1
 10
344.2249766861325
 20
12.98076924
 11
344.2249766861325
 21
15.00000000000001
 72
     1
 10
344.2249766861325
 20
15.00000000000001
 11
341.8018997861325
 21
15.00000000000001
 72
     1
 10
341.8018997861325
 20
15.00000000000001
 11
341.8018997861325
 21
14.13461538000001
 72
     1
 10
341.8018997861325
 20
14.13461538000001
 11
342.2461305461325
 21
14.13461538000001
 72
     1
 10
342.2461305461325
 20
14.13461538000001
 11
341.8018997861325
 21
13.69038462
 72
     1
 10
341.8018997861325
 20
13.69038462
 11
340.5788228861325
 21
14.91346152
 72
     1
 10
340.5788228861325
 20
14.91346152
 11
341.8018997861325
 21
16.13653842000003
 72
     1
 10
341.8018997861325
 20
16.13653842000003
 11
342.5922844061325
 21
15.3461538
 72
     1
 10
342.5922844061325
 20
15.3461538
 11
344.2249766861325
 21
15.3461538
 72
     1
 10
344.2249766861325
 20
15.3461538
 11
341.8018997861325
 21
17.76923076000002
 97
        0
 75
     0
 76
     0
 52
45.0
 41
0.05
 77
     0
 78
     1
 53
45.0
 43
0.0
 44
0.0
 45
-0.0353553390593274
 46
0.0353553390593274
 79
     0
 98
        0
  0
TEXT
  5
26C
330
243
100
AcDbEntity
  8
}}ﾊﾊGG血CCТ
  6
CONTINUOUS
 62
     7
100
AcDbText
 10
349.225769
 20
11.461285
 30
0.0
 40
7.170908
  1
GOLD CASTER
 41
0.63978
  7
FX_VECTOR
 72
     5
 11
395.977636
 21
11.461285
 31
0.0
100
AcDbText
  0
LINE
  5
26D
330
243
100
AcDbEntity
  8
}}ﾊﾊGG血CCТ
  6
CONTINUOUS
 62
     7
100
AcDbLine
 10
253.0
 20
10.0
 30
0.0
 11
253.0
 21
20.0
 31
0.0
  0
TEXT
  5
26E
330
243
100
AcDbEntity
  8
}}ﾊﾊGG血CCТ
  6
CONTINUOUS
 62
     7
100
AcDbText
 10
237.738815
 20
11.596879
 30
0.0
 40
6.648749
  1
図番
 41
1.083413
  7
FX_VECTOR
 72
     5
 11
249.058355
 21
11.596879
 31
0.0
100
AcDbText
  0
LINE
  5
26F
330
243
100
AcDbEntity
  8
}}ﾊﾊGG血CCТ
  6
CONTINUOUS
 62
     7
100
AcDbLine
 10
333.0
 20
20.0
 30
0.0
 11
333.0
 21
10.0
 31
0.0
  0
LINE
  5
270
330
243
100
AcDbEntity
  8
}}ﾊﾊGG血CCТ
  6
CONTINUOUS
 62
     7
100
AcDbLine
 10
133.0
 20
20.0
 30
0.0
 11
133.0
 21
10.0
 31
0.0
  0
ENDBLK
  5
245
330
243
100
AcDbEntity
  8
0
100
AcDbBlockEnd
  0
BLOCK
  5
250
330
24F
100
AcDbEntity
  8
0
100
AcDbBlockBegin
  2
BLKF034
 70
     0
 71
     0
 10
0.0
 20
0.0
 30
0.0
  3
BLKF034
  1

  0
LINE
  5
254
330
24F
100
AcDbEntity
  8
0-1
  6
CONTINUOUS
 62
     7
100
AcDbLine
 10
344.8019
 20
17.913462
 30
0.0
 11
338.8019
 21
17.913462
 31
0.0
  0
LINE
  5
255
330
24F
100
AcDbEntity
  8
0-1
  6
CONTINUOUS
 62
     7
100
AcDbLine
 10
338.8019
 20
17.913462
 30
0.0
 11
338.8019
 21
11.913462
 31
0.0
  0
LINE
  5
256
330
24F
100
AcDbEntity
  8
0-1
  6
CONTINUOUS
 62
     7
100
AcDbLine
 10
338.8019
 20
11.913462
 30
0.0
 11
344.8019
 21
11.913462
 31
0.0
  0
LINE
  5
257
330
24F
100
AcDbEntity
  8
0-1
  6
CONTINUOUS
 62
     7
100
AcDbLine
 10
344.8019
 20
11.913462
 30
0.0
 11
344.8019
 21
17.913462
 31
0.0
  0
ENDBLK
  5
251
330
24F
100
AcDbEntity
  8
0
100
AcDbBlockEnd
  0
BLOCK
  5
259
330
258
100
AcDbEntity
  8
0
100
AcDbBlockBegin
  2
BLKF035
 70
     0
 71
     0
 10
0.0
 20
0.0
 30
0.0
  3
BLKF035
  1

  0
LINE
  5
25C
330
258
100
AcDbEntity
  8
0-1
  6
CONTINUOUS
 62
     7
100
AcDbLine
 10
344.224977
 20
15.346154
 30
0.0
 11
341.8019
 21
17.769231
 31
0.0
  0
LINE
  5
25D
330
258
100
AcDbEntity
  8
0-1
  6
CONTINUOUS
 62
     7
100
AcDbLine
 10
341.8019
 20
17.769231
 30
0.0
 11
338.946131
 21
14.913462
 31
0.0
  0
LINE
  5
25E
330
258
100
AcDbEntity
  8
0-1
  6
CONTINUOUS
 62
     7
100
AcDbLine
 10
338.946131
 20
14.913462
 30
0.0
 11
341.8019
 21
12.057692
 31
0.0
  0
LINE
  5
25F
330
258
100
AcDbEntity
  8
0-1
  6
CONTINUOUS
 62
     7
100
AcDbLine
 10
341.8019
 20
12.057692
 30
0.0
 11
343.359592
 21
13.615385
 31
0.0
  0
LINE
  5
260
330
258
100
AcDbEntity
  8
0-1
  6
CONTINUOUS
 62
     7
100
AcDbLine
 10
343.359592
 20
13.615385
 30
0.0
 11
343.359592
 21
12.980769
 31
0.0
  0
LINE
  5
261
330
258
100
AcDbEntity
  8
0-1
  6
CONTINUOUS
 62
     7
100
AcDbLine
 10
343.359592
 20
12.980769
 30
0.0
 11
344.224977
 21
12.980769
 31
0.0
  0
LINE
  5
262
330
258
100
AcDbEntity
  8
0-1
  6
CONTINUOUS
 62
     7
100
AcDbLine
 10
344.224977
 20
12.980769
 30
0.0
 11
344.224977
 21
15.0
 31
0.0
  0
LINE
  5
263
330
258
100
AcDbEntity
  8
0-1
  6
CONTINUOUS
 62
     7
100
AcDbLine
 10
344.224977
 20
15.0
 30
0.0
 11
341.8019
 21
15.0
 31
0.0
  0
LINE
  5
264
330
258
100
AcDbEntity
  8
0-1
  6
CONTINUOUS
 62
     7
100
AcDbLine
 10
341.8019
 20
15.0
 30
0.0
 11
341.8019
 21
14.134615
 31
0.0
  0
LINE
  5
265
330
258
100
AcDbEntity
  8
0-1
  6
CONTINUOUS
 62
     7
100
AcDbLine
 10
341.8019
 20
14.134615
 30
0.0
 11
342.246131
 21
14.134615
 31
0.0
  0
LINE
  5
266
330
258
100
AcDbEntity
  8
0-1
  6
CONTINUOUS
 62
     7
100
AcDbLine
 10
342.246131
 20
14.134615
 30
0.0
 11
341.8019
 21
13.690385
 31
0.0
  0
LINE
  5
267
330
258
100
AcDbEntity
  8
0-1
  6
CONTINUOUS
 62
     7
100
AcDbLine
 10
341.8019
 20
13.690385
 30
0.0
 11
340.578823
 21
14.913462
 31
0.0
  0
LINE
  5
268
330
258
100
AcDbEntity
  8
0-1
  6
CONTINUOUS
 62
     7
100
AcDbLine
 10
340.578823
 20
14.913462
 30
0.0
 11
341.8019
 21
16.136538
 31
0.0
  0
LINE
  5
269
330
258
100
AcDbEntity
  8
0-1
  6
CONTINUOUS
 62
     7
100
AcDbLine
 10
341.8019
 20
16.136538
 30
0.0
 11
342.592284
 21
15.346154
 31
0.0
  0
LINE
  5
26A
330
258
100
AcDbEntity
  8
0-1
  6
CONTINUOUS
 62
     7
100
AcDbLine
 10
342.592284
 20
15.346154
 30
0.0
 11
344.224977
 21
15.346154
 31
0.0
  0
ENDBLK
  5
25A
330
258
100
AcDbEntity
  8
0
100
AcDbBlockEnd
  0
BLOCK
  5
289
330
288
100
AcDbEntity
  8
0
100
AcDbBlockBegin
  2
BLKF036
 70
     0
 71
     0
 10
0.0
 20
0.0
 30
0.0
  3
BLKF036
  1

  0
LINE
  5
28C
330
288
100
AcDbEntity
  8
GR1-1
  6
CONTINUOUS
 62
     7
100
AcDbLine
 10
240.079758
 20
77.78421
 30
0.0
 11
239.869908
 21
77.718158
 31
0.0
  0
LINE
  5
28D
330
288
100
AcDbEntity
  8
GR1-1
  6
CONTINUOUS
 62
     7
100
AcDbLine
 10
240.21771
 20
77.712311
 30
0.0
 11
239.798009
 21
77.580206
 31
0.0
  0
LINE
  5
28E
330
288
100
AcDbEntity
  8
GR1-1
  6
CONTINUOUS
 62
     7
100
AcDbLine
 10
240.355661
 20
77.640412
 30
0.0
 11
239.72611
 21
77.442255
 31
0.0
  0
LINE
  5
28F
330
288
100
AcDbEntity
  8
GR1-1
  6
CONTINUOUS
 62
     7
100
AcDbLine
 10
240.493612
 20
77.568513
 30
0.0
 11
239.654211
 21
77.304304
 31
0.0
  0
LINE
  5
290
330
288
100
AcDbEntity
  8
GR1-1
  6
CONTINUOUS
 62
     7
100
AcDbLine
 10
240.631563
 20
77.496614
 30
0.0
 11
239.907675
 21
77.268764
 31
0.0
  0
LINE
  5
291
330
288
100
AcDbEntity
  8
GR1-1
  6
CONTINUOUS
 62
     7
100
AcDbLine
 10
239.709608
 20
77.20642
 30
0.0
 11
239.582312
 21
77.166353
 31
0.0
  0
LINE
  5
292
330
288
100
AcDbEntity
  8
GR1-1
  6
CONTINUOUS
 62
     7
100
AcDbLine
 10
240.769515
 20
77.424715
 30
0.0
 11
240.045626
 21
77.196865
 31
0.0
  0
LINE
  5
293
330
288
100
AcDbEntity
  8
GR1-1
  6
CONTINUOUS
 62
     7
100
AcDbLine
 10
239.637709
 20
77.068469
 30
0.0
 11
239.510413
 21
77.028402
 31
0.0
  0
LINE
  5
294
330
288
100
AcDbEntity
  8
GR1-1
  6
CONTINUOUS
 62
     7
100
AcDbLine
 10
240.907466
 20
77.352816
 30
0.0
 11
240.183578
 21
77.124966
 31
0.0
  0
LINE
  5
295
330
288
100
AcDbEntity
  8
GR1-1
  6
CONTINUOUS
 62
     7
100
AcDbLine
 10
239.56581
 20
76.930518
 30
0.0
 11
239.438515
 21
76.89045
 31
0.0
  0
LINE
  5
296
330
288
100
AcDbEntity
  8
GR1-1
  6
CONTINUOUS
 62
     7
100
AcDbLine
 10
241.045417
 20
77.280917
 30
0.0
 11
240.235843
 21
77.026097
 31
0.0
  0
LINE
  5
297
330
288
100
AcDbEntity
  8
GR1-1
  6
CONTINUOUS
 62
     7
100
AcDbLine
 10
239.493911
 20
76.792567
 30
0.0
 11
239.366616
 21
76.752499
 31
0.0
  0
LINE
  5
298
330
288
100
AcDbEntity
  8
GR1-1
  6
CONTINUOUS
 62
     7
100
AcDbLine
 10
241.183368
 20
77.209018
 30
0.0
 11
240.163945
 21
76.888145
 31
0.0
  0
LINE
  5
299
330
288
100
AcDbEntity
  8
GR1-1
  6
CONTINUOUS
 62
     7
100
AcDbLine
 10
239.422012
 20
76.654615
 30
0.0
 11
239.294717
 21
76.614548
 31
0.0
  0
LINE
  5
29A
330
288
100
AcDbEntity
  8
GR1-1
  6
CONTINUOUS
 62
     7
100
AcDbLine
 10
241.321319
 20
77.137119
 30
0.0
 11
240.092046
 21
76.750194
 31
0.0
  0
LINE
  5
29B
330
288
100
AcDbEntity
  8
GR1-1
  6
CONTINUOUS
 62
     7
100
AcDbLine
 10
239.350113
 20
76.516664
 30
0.0
 11
239.222818
 21
76.476597
 31
0.0
  0
LINE
  5
29C
330
288
100
AcDbEntity
  8
GR1-1
  6
CONTINUOUS
 62
     7
100
AcDbLine
 10
241.459271
 20
77.06522
 30
0.0
 11
240.081458
 21
76.631541
 31
0.0
  0
LINE
  5
29D
330
288
100
AcDbEntity
  8
GR1-1
  6
CONTINUOUS
 62
     7
100
AcDbLine
 10
239.278214
 20
76.378713
 30
0.0
 11
239.150919
 21
76.338645
 31
0.0
  0
LINE
  5
29E
330
288
100
AcDbEntity
  8
GR1-1
  6
CONTINUOUS
 62
     7
100
AcDbLine
 10
241.597222
 20
76.993321
 30
0.0
 11
241.387372
 21
76.927269
 31
0.0
  0
LINE
  5
29F
330
288
100
AcDbEntity
  8
GR1-1
  6
CONTINUOUS
 62
     7
100
AcDbLine
 10
239.371425
 20
76.292731
 30
0.0
 11
239.07902
 21
76.200694
 31
0.0
  0
LINE
  5
2A0
330
288
100
AcDbEntity
  8
GR1-1
  6
CONTINUOUS
 62
     7
100
AcDbLine
 10
241.735173
 20
76.921422
 30
0.0
 11
241.420398
 21
76.822344
 31
0.0
  0
LINE
  5
2A1
330
288
100
AcDbEntity
  8
GR1-1
  6
CONTINUOUS
 62
     7
100
AcDbLine
 10
239.509376
 20
76.220832
 30
0.0
 11
239.007121
 21
76.062743
 31
0.0
  0
LINE
  5
2A2
330
288
100
AcDbEntity
  8
GR1-1
  6
CONTINUOUS
 62
     7
100
AcDbLine
 10
241.873124
 20
76.849524
 30
0.0
 11
241.453424
 21
76.717419
 31
0.0
  0
LINE
  5
2A3
330
288
100
AcDbEntity
  8
GR1-1
  6
CONTINUOUS
 62
     7
100
AcDbLine
 10
239.647327
 20
76.148933
 30
0.0
 11
239.424747
 21
76.078874
 31
0.0
  0
LINE
  5
2A4
330
288
100
AcDbEntity
  8
GR1-1
  6
CONTINUOUS
 62
     7
100
AcDbLine
 10
239.354922
 20
76.056896
 30
0.0
 11
238.935222
 21
75.924792
 31
0.0
  0
LINE
  5
2A5
330
288
100
AcDbEntity
  8
GR1-1
  6
CONTINUOUS
 62
     7
100
AcDbLine
 10
242.011076
 20
76.777625
 30
0.0
 11
241.48645
 21
76.612494
 31
0.0
  0
LINE
  5
2A6
330
288
100
AcDbEntity
  8
GR1-1
  6
CONTINUOUS
 62
     7
100
AcDbLine
 10
239.785278
 20
76.077034
 30
0.0
 11
239.562699
 21
76.006975
 31
0.0
  0
LINE
  5
2A7
330
288
100
AcDbEntity
  8
GR1-1
  6
CONTINUOUS
 62
     7
100
AcDbLine
 10
239.387948
 20
75.951971
 30
0.0
 11
238.863323
 21
75.786841
 31
0.0
  0
LINE
  5
2A8
330
288
100
AcDbEntity
  8
GR1-1
  6
CONTINUOUS
 62
     7
100
AcDbLine
 10
242.149027
 20
76.705726
 30
0.0
 11
241.519476
 21
76.507569
 31
0.0
  0
LINE
  5
2A9
330
288
100
AcDbEntity
  8
GR1-1
  6
CONTINUOUS
 62
     7
100
AcDbLine
 10
239.92323
 20
76.005136
 30
0.0
 11
239.70065
 21
75.935077
 31
0.0
  0
LINE
  5
2AA
330
288
100
AcDbEntity
  8
GR1-1
  6
CONTINUOUS
 62
     7
100
AcDbLine
 10
239.420974
 20
75.847046
 30
0.0
 11
238.791424
 21
75.648889
 31
0.0
  0
LINE
  5
2AB
330
288
100
AcDbEntity
  8
GR1-1
  6
CONTINUOUS
 62
     7
100
AcDbLine
 10
242.286978
 20
76.633827
 30
0.0
 11
241.552502
 21
76.402644
 31
0.0
  0
LINE
  5
2AC
330
288
100
AcDbEntity
  8
GR1-1
  6
CONTINUOUS
 62
     7
100
AcDbLine
 10
241.027877
 20
76.237513
 30
0.0
 11
240.433274
 21
76.050356
 31
0.0
  0
LINE
  5
2AD
330
288
100
AcDbEntity
  8
GR1-1
  6
CONTINUOUS
 62
     7
100
AcDbLine
 10
240.061181
 20
75.933237
 30
0.0
 11
239.838601
 21
75.863178
 31
0.0
  0
LINE
  5
2AE
330
288
100
AcDbEntity
  8
GR1-1
  6
CONTINUOUS
 62
     7
100
AcDbLine
 10
239.454001
 20
75.742121
 30
0.0
 11
238.719525
 21
75.510938
 31
0.0
  0
LINE
  5
2AF
330
288
100
AcDbEntity
  8
GR1-1
  6
CONTINUOUS
 62
     7
100
AcDbLine
 10
242.424929
 20
76.561928
 30
0.0
 11
241.585529
 21
76.297719
 31
0.0
  0
LINE
  5
2B0
330
288
100
AcDbEntity
  8
GR1-1
  6
CONTINUOUS
 62
     7
100
AcDbLine
 10
241.060903
 20
76.132588
 30
0.0
 11
240.570098
 21
75.978103
 31
0.0
  0
LINE
  5
2B1
330
288
100
AcDbEntity
  8
GR1-1
  6
CONTINUOUS
 62
     7
100
AcDbLine
 10
240.199132
 20
75.861338
 30
0.0
 11
239.976552
 21
75.791279
 31
0.0
  0
LINE
  5
2B2
330
288
100
AcDbEntity
  8
GR1-1
  6
CONTINUOUS
 62
     7
100
AcDbLine
 10
239.487027
 20
75.637196
 30
0.0
 11
238.647626
 21
75.372987
 31
0.0
  0
LINE
  5
2B3
330
288
100
AcDbEntity
  8
GR1-1
  6
CONTINUOUS
 62
     7
100
AcDbLine
 10
242.56288
 20
76.490029
 30
0.0
 11
241.618555
 21
76.192794
 31
0.0
  0
LINE
  5
2B4
330
288
100
AcDbEntity
  8
GR1-1
  6
CONTINUOUS
 62
     7
100
AcDbLine
 10
241.093929
 20
76.027663
 30
0.0
 11
240.708049
 21
75.906204
 31
0.0
  0
LINE
  5
2B5
330
288
100
AcDbEntity
  8
GR1-1
  6
CONTINUOUS
 62
     7
100
AcDbLine
 10
240.337083
 20
75.789439
 30
0.0
 11
240.044678
 21
75.697402
 31
0.0
  0
LINE
  5
2B6
330
288
100
AcDbEntity
  8
GR1-1
  6
CONTINUOUS
 62
     7
100
AcDbLine
 10
239.520053
 20
75.532271
 30
0.0
 11
238.575727
 21
75.235036
 31
0.0
  0
LINE
  5
2B7
330
288
100
AcDbEntity
  8
GR1-1
  6
CONTINUOUS
 62
     7
100
AcDbLine
 10
242.700832
 20
76.41813
 30
0.0
 11
241.651581
 21
76.087868
 31
0.0
  0
LINE
  5
2B8
330
288
100
AcDbEntity
  8
GR1-1
  6
CONTINUOUS
 62
     7
100
AcDbLine
 10
241.126955
 20
75.922738
 30
0.0
 11
240.729625
 21
75.797675
 31
0.0
  0
LINE
  5
2B9
330
288
100
AcDbEntity
  8
GR1-1
  6
CONTINUOUS
 62
     7
100
AcDbLine
 10
240.475034
 20
75.71754
 30
0.0
 11
240.077704
 21
75.592476
 31
0.0
  0
LINE
  5
2BA
330
288
100
AcDbEntity
  8
GR1-1
  6
CONTINUOUS
 62
     7
100
AcDbLine
 10
239.553079
 20
75.427346
 30
0.0
 11
238.503828
 21
75.097084
 31
0.0
  0
LINE
  5
2BB
330
288
100
AcDbEntity
  8
GR1-1
  6
CONTINUOUS
 62
     7
100
AcDbLine
 10
242.838783
 20
76.346231
 30
0.0
 11
241.684607
 21
75.982943
 31
0.0
  0
LINE
  5
2BC
330
288
100
AcDbEntity
  8
GR1-1
  6
CONTINUOUS
 62
     7
100
AcDbLine
 10
241.159981
 20
75.817813
 30
0.0
 11
240.657726
 21
75.659723
 31
0.0
  0
LINE
  5
2BD
330
288
100
AcDbEntity
  8
GR1-1
  6
CONTINUOUS
 62
     7
100
AcDbLine
 10
240.612986
 20
75.645641
 30
0.0
 11
240.110731
 21
75.487551
 31
0.0
  0
LINE
  5
2BE
330
288
100
AcDbEntity
  8
GR1-1
  6
CONTINUOUS
 62
     7
100
AcDbLine
 10
239.586105
 20
75.322421
 30
0.0
 11
238.431929
 21
74.959133
 31
0.0
  0
LINE
  5
2BF
330
288
100
AcDbEntity
  8
GR1-1
  6
CONTINUOUS
 62
     7
100
AcDbLine
 10
242.811625
 20
76.222362
 30
0.0
 11
241.717633
 21
75.878018
 31
0.0
  0
LINE
  5
2C0
330
288
100
AcDbEntity
  8
GR1-1
  6
CONTINUOUS
 62
     7
100
AcDbLine
 10
241.193008
 20
75.712888
 30
0.0
 11
240.143757
 21
75.382626
 31
0.0
  0
LINE
  5
2C1
330
288
100
AcDbEntity
  8
GR1-1
  6
CONTINUOUS
 62
     7
100
AcDbLine
 10
239.619131
 20
75.217496
 30
0.0
 11
238.52514
 21
74.873152
 31
0.0
  0
LINE
  5
2C2
330
288
100
AcDbEntity
  8
GR1-1
  6
CONTINUOUS
 62
     7
100
AcDbLine
 10
242.739726
 20
76.084411
 30
0.0
 11
241.750659
 21
75.773093
 31
0.0
  0
LINE
  5
2C3
330
288
100
AcDbEntity
  8
GR1-1
  6
CONTINUOUS
 62
     7
100
AcDbLine
 10
241.226034
 20
75.607963
 30
0.0
 11
240.176783
 21
75.277701
 31
0.0
  0
LINE
  5
2C4
330
288
100
AcDbEntity
  8
GR1-1
  6
CONTINUOUS
 62
     7
100
AcDbLine
 10
239.652157
 20
75.112571
 30
0.0
 11
238.663091
 21
74.801253
 31
0.0
  0
LINE
  5
2C5
330
288
100
AcDbEntity
  8
GR1-1
  6
CONTINUOUS
 62
     7
100
AcDbLine
 10
242.667827
 20
75.94646
 30
0.0
 11
241.783685
 21
75.668168
 31
0.0
  0
LINE
  5
2C6
330
288
100
AcDbEntity
  8
GR1-1
  6
CONTINUOUS
 62
     7
100
AcDbLine
 10
241.25906
 20
75.503037
 30
0.0
 11
240.209809
 21
75.172776
 31
0.0
  0
LINE
  5
2C7
330
288
100
AcDbEntity
  8
GR1-1
  6
CONTINUOUS
 62
     7
100
AcDbLine
 10
239.685184
 20
75.007645
 30
0.0
 11
238.801042
 21
74.729354
 31
0.0
  0
LINE
  5
2C8
330
288
100
AcDbEntity
  8
GR1-1
  6
CONTINUOUS
 62
     7
100
AcDbLine
 10
242.595928
 20
75.808508
 30
0.0
 11
241.816711
 21
75.563243
 31
0.0
  0
LINE
  5
2C9
330
288
100
AcDbEntity
  8
GR1-1
  6
CONTINUOUS
 62
     7
100
AcDbLine
 10
241.292086
 20
75.398112
 30
0.0
 11
240.242835
 21
75.067851
 31
0.0
  0
LINE
  5
2CA
330
288
100
AcDbEntity
  8
GR1-1
  6
CONTINUOUS
 62
     7
100
AcDbLine
 10
239.71821
 20
74.90272
 30
0.0
 11
238.938993
 21
74.657455
 31
0.0
  0
LINE
  5
2CB
330
288
100
AcDbEntity
  8
GR1-1
  6
CONTINUOUS
 62
     7
100
AcDbLine
 10
242.524029
 20
75.670557
 30
0.0
 11
241.849738
 21
75.458318
 31
0.0
  0
LINE
  5
2CC
330
288
100
AcDbEntity
  8
GR1-1
  6
CONTINUOUS
 62
     7
100
AcDbLine
 10
241.325112
 20
75.293187
 30
0.0
 11
240.275861
 21
74.962926
 31
0.0
  0
LINE
  5
2CD
330
288
100
AcDbEntity
  8
GR1-1
  6
CONTINUOUS
 62
     7
100
AcDbLine
 10
239.751236
 20
74.797795
 30
0.0
 11
239.076944
 21
74.585556
 31
0.0
  0
LINE
  5
2CE
330
288
100
AcDbEntity
  8
GR1-1
  6
CONTINUOUS
 62
     7
100
AcDbLine
 10
242.45213
 20
75.532606
 30
0.0
 11
241.882764
 21
75.353393
 31
0.0
  0
LINE
  5
2CF
330
288
100
AcDbEntity
  8
GR1-1
  6
CONTINUOUS
 62
     7
100
AcDbLine
 10
239.784262
 20
74.69287
 30
0.0
 11
239.214896
 21
74.513657
 31
0.0
  0
LINE
  5
2D0
330
288
100
AcDbEntity
  8
GR1-1
  6
CONTINUOUS
 62
     7
100
AcDbLine
 10
242.380231
 20
75.394655
 30
0.0
 11
241.91579
 21
75.248468
 31
0.0
  0
LINE
  5
2D1
330
288
100
AcDbEntity
  8
GR1-1
  6
CONTINUOUS
 62
     7
100
AcDbLine
 10
239.817288
 20
74.587945
 30
0.0
 11
239.352847
 21
74.441758
 31
0.0
  0
LINE
  5
2D2
330
288
100
AcDbEntity
  8
GR1-1
  6
CONTINUOUS
 62
     7
100
AcDbLine
 10
242.308332
 20
75.256704
 30
0.0
 11
241.948816
 21
75.143543
 31
0.0
  0
LINE
  5
2D3
330
288
100
AcDbEntity
  8
GR1-1
  6
CONTINUOUS
 62
     7
100
AcDbLine
 10
239.850314
 20
74.48302
 30
0.0
 11
239.490798
 21
74.369859
 31
0.0
  0
LINE
  5
2D4
330
288
100
AcDbEntity
  8
GR1-1
  6
CONTINUOUS
 62
     7
100
AcDbLine
 10
242.236433
 20
75.118752
 30
0.0
 11
241.981842
 21
75.038618
 31
0.0
  0
LINE
  5
2D5
330
288
100
AcDbEntity
  8
GR1-1
  6
CONTINUOUS
 62
     7
100
AcDbLine
 10
239.88334
 20
74.378095
 30
0.0
 11
239.628749
 21
74.29796
 31
0.0
  0
LINE
  5
2D6
330
288
100
AcDbEntity
  8
GR1-1
  6
CONTINUOUS
 62
     7
100
AcDbLine
 10
242.164534
 20
74.980801
 30
0.0
 11
242.014868
 21
74.933692
 31
0.0
  0
LINE
  5
2D7
330
288
100
AcDbEntity
  8
GR1-1
  6
CONTINUOUS
 62
     7
100
AcDbLine
 10
239.916366
 20
74.27317
 30
0.0
 11
239.766701
 21
74.226061
 31
0.0
  0
LINE
  5
2D8
330
288
100
AcDbEntity
  8
GR1-1
  6
CONTINUOUS
 62
     7
100
AcDbLine
 10
242.092635
 20
74.84285
 30
0.0
 11
239.904652
 21
74.154162
 31
0.0
  0
LINE
  5
2D9
330
288
100
AcDbEntity
  8
GR1-1
  6
CONTINUOUS
 62
     7
100
AcDbLine
 10
242.020736
 20
74.704899
 30
0.0
 11
240.042603
 21
74.082263
 31
0.0
  0
LINE
  5
2DA
330
288
100
AcDbEntity
  8
GR1-1
  6
CONTINUOUS
 62
     7
100
AcDbLine
 10
241.948837
 20
74.566947
 30
0.0
 11
240.180554
 21
74.010364
 31
0.0
  0
LINE
  5
2DB
330
288
100
AcDbEntity
  8
GR1-1
  6
CONTINUOUS
 62
     7
100
AcDbLine
 10
241.876938
 20
74.428996
 30
0.0
 11
240.318505
 21
73.938465
 31
0.0
  0
LINE
  5
2DC
330
288
100
AcDbEntity
  8
GR1-1
  6
CONTINUOUS
 62
     7
100
AcDbLine
 10
241.805039
 20
74.291045
 30
0.0
 11
240.456457
 21
73.866566
 31
0.0
  0
LINE
  5
2DD
330
288
100
AcDbEntity
  8
GR1-1
  6
CONTINUOUS
 62
     7
100
AcDbLine
 10
241.73314
 20
74.153094
 30
0.0
 11
240.594408
 21
73.794667
 31
0.0
  0
LINE
  5
2DE
330
288
100
AcDbEntity
  8
GR1-1
  6
CONTINUOUS
 62
     7
100
AcDbLine
 10
241.661241
 20
74.015143
 30
0.0
 11
240.732359
 21
73.722768
 31
0.0
  0
LINE
  5
2DF
330
288
100
AcDbEntity
  8
GR1-1
  6
CONTINUOUS
 62
     7
100
AcDbLine
 10
241.589342
 20
73.877191
 30
0.0
 11
240.87031
 21
73.650869
 31
0.0
  0
LINE
  5
2E0
330
288
100
AcDbEntity
  8
GR1-1
  6
CONTINUOUS
 62
     7
100
AcDbLine
 10
241.517444
 20
73.73924
 30
0.0
 11
241.008262
 21
73.57897
 31
0.0
  0
LINE
  5
2E1
330
288
100
AcDbEntity
  8
GR1-1
  6
CONTINUOUS
 62
     7
100
AcDbLine
 10
241.445545
 20
73.601289
 30
0.0
 11
241.146213
 21
73.507072
 31
0.0
  0
LINE
  5
2E2
330
288
100
AcDbEntity
  8
GR1-1
  6
CONTINUOUS
 62
     7
100
AcDbLine
 10
241.373646
 20
73.463338
 30
0.0
 11
241.284164
 21
73.435173
 31
0.0
  0
ENDBLK
  5
28A
330
288
100
AcDbEntity
  8
0
100
AcDbBlockEnd
  0
ENDSEC
  0
SECTION
  2
ENTITIES
  0
TEXT
  5
A8
330
1F
100
AcDbEntity
  8
}}ﾊﾊGG血CCТ
  6
CONTINUOUS
 62
     7
100
AcDbText
 10
155.0
 20
11.999999
 30
0.0
 40
6.0
  1
ＴＪ－　６５　Ｕ　Ｓ
 41
0.79096
  7
FX_VECTOR
 72
     5
 11
195.0
 21
11.999999
 31
0.0
100
AcDbText
  0
TEXT
  5
A9
330
1F
100
AcDbEntity
  8
}}ﾊﾊGG血CCТ
  6
CONTINUOUS
 62
     7
100
AcDbText
 10
255.0
 20
11.999999
 30
0.0
 40
6.0
  1
TE23A1LAA-C01
 41
0.745902
  7
FX_VECTOR
 72
     5
 11
307.0
 21
11.999999
 31
0.0
100
AcDbText
  0
LINE
  5
AA
330
1F
100
AcDbEntity
  8
LAYERGROUP-1
  6
CENTER
 62
     6
100
AcDbLine
 10
274.846154
 20
151.453245
 30
0.0
 11
274.846154
 21
109.820081
 31
0.0
  0
LINE
  5
AB
330
1F
100
AcDbEntity
  8
LAYERGROUP-1
  6
CENTER
 62
     6
100
AcDbLine
 10
219.025573
 20
101.0
 30
0.0
 11
288.603886
 21
101.0
 31
0.0
  0
LINE
  5
AC
330
1F
100
AcDbEntity
  8
LAYERGROUP-1
  6
CENTER
 62
     6
100
AcDbLine
 10
253.846154
 20
114.083753
 30
0.0
 11
253.846154
 21
65.855691
 31
0.0
  0
LINE
  5
AD
330
1F
100
AcDbEntity
  8
LAYERGROUP-1
  6
CONTINUOUS
 62
     3
100
AcDbLine
 10
147.975
 20
140.41
 30
0.0
 11
104.525
 21
140.41
 31
0.0
  0
LINE
  5
AE
330
1F
100
AcDbEntity
  8
LAYERGROUP-1
  6
CONTINUOUS
 62
     3
100
AcDbLine
 10
141.0
 20
134.61
 30
0.0
 11
142.5
 21
129.91
 31
0.0
  0
LINE
  5
AF
330
1F
100
AcDbEntity
  8
LAYERGROUP-1
  6
CONTINUOUS
 62
     3
100
AcDbLine
 10
143.191116
 20
135.309292
 30
0.0
 11
144.421274
 21
131.454799
 31
0.0
  0
ARC
  5
B0
330
1F
100
AcDbEntity
  8
LAYERGROUP-1
  6
CONTINUOUS
 62
     3
100
AcDbCircle
 10
136.8
 20
129.022477
 30
0.0
 40
8.0
100
AcDbArc
 50
0.0
 51
17.700428
  0
ARC
  5
B1
330
1F
100
AcDbEntity
  8
LAYERGROUP-1
  6
CONTINUOUS
 62
     3
100
AcDbCircle
 10
126.5
 20
17.357657
 30
0.0
 40
116.0523426889993
100
AcDbArc
 50
82.472981
 51
85.787037
  0
LINE
  5
B2
330
1F
100
AcDbEntity
  8
LAYERGROUP-1
  6
CENTER
 62
     6
100
AcDbLine
 10
103.362952
 20
101.0
 30
0.0
 11
149.703808
 21
101.0
 31
0.0
  0
LINE
  5
B3
330
1F
100
AcDbEntity
  8
LAYERGROUP-1
  6
CENTER
 62
     6
100
AcDbLine
 10
126.5
 20
150.818777
 30
0.0
 11
126.5
 21
65.577189
 31
0.0
  0
LINE
  5
B4
330
1F
100
AcDbEntity
  8
LAYERGROUP-1
  6
CENTER
 62
     6
100
AcDbLine
 10
217.588691
 20
230.402985
 30
0.0
 11
310.981151
 21
230.402985
 31
0.0
  0
ARC
  5
B5
330
1F
100
AcDbEntity
  8
LAYERGROUP-1
  6
CONTINUOUS
 62
     3
100
AcDbCircle
 10
136.630259
 20
137.01
 30
0.0
 40
2.5
100
AcDbArc
 50
260.969295
 51
308.739425
  0
ARC
  5
B6
330
1F
100
AcDbEntity
  8
LAYERGROUP-1
  6
CONTINUOUS
 62
     3
100
AcDbCircle
 10
126.5
 20
73.271154
 30
0.0
 40
62.0388455490074
100
AcDbArc
 50
80.969295
 51
99.030705
  0
LINE
  5
B7
330
1F
100
AcDbEntity
  8
LAYERGROUP-1
  6
CONTINUOUS
 62
     6
100
AcDbLine
 10
143.191116
 20
135.309292
 30
0.0
 11
141.0
 21
134.61
 31
0.0
  0
LINE
  5
B8
330
1F
100
AcDbEntity
  8
LAYERGROUP-1
  6
CONTINUOUS
 62
     3
100
AcDbLine
 10
138.194708
 20
135.06
 30
0.0
 11
141.0
 21
134.61
 31
0.0
  0
ARC
  5
B9
330
1F
100
AcDbEntity
  8
LAYERGROUP-1
  6
CONTINUOUS
 62
     6
100
AcDbCircle
 10
136.263775
 20
136.647922
 30
0.0
 40
2.5
100
AcDbArc
 50
-39.432513
 51
6.017435
  0
ARC
  5
BA
330
1F
100
AcDbEntity
  8
LAYERGROUP-1
  6
CONTINUOUS
 62
     6
100
AcDbCircle
 10
139.75
 20
136.91
 30
0.0
 40
1.0
100
AcDbArc
 50
135.572996
 51
180.0
  0
ARC
  5
BB
330
1F
100
AcDbEntity
  8
LAYERGROUP-1
  6
CONTINUOUS
 62
     6
100
AcDbCircle
 10
143.320714
 20
133.41
 30
0.0
 40
6.0
100
AcDbArc
 50
85.741191
 51
135.572996
  0
ARC
  5
BC
330
1F
100
AcDbEntity
  8
LAYERGROUP-1
  6
CONTINUOUS
 62
     6
100
AcDbCircle
 10
145.649678
 20
149.091726
 30
0.0
 40
14.0
100
AcDbArc
 50
240.472969
 51
266.53474
  0
ARC
  5
BD
330
1F
100
AcDbEntity
  8
LAYERGROUP-1
  6
CONTINUOUS
 62
     3
100
AcDbCircle
 10
147.975
 20
136.91
 30
0.0
 40
3.5
100
AcDbArc
 50
0.0
 51
90.0
  0
ARC
  5
BE
330
1F
100
AcDbEntity
  8
LAYERGROUP-1
  6
CONTINUOUS
 62
     3
100
AcDbCircle
 10
141.3
 20
136.91
 30
0.0
 40
3.5
100
AcDbArc
 50
0.0
 51
90.0
  0
LINE
  5
BF
330
1F
100
AcDbEntity
  8
LAYERGROUP-1
  6
CONTINUOUS
 62
     3
100
AcDbLine
 10
112.0
 20
134.61
 30
0.0
 11
110.5
 21
129.91
 31
0.0
  0
LINE
  5
C0
330
1F
100
AcDbEntity
  8
LAYERGROUP-1
  6
CONTINUOUS
 62
     3
100
AcDbLine
 10
109.808884
 20
135.309292
 30
0.0
 11
108.578726
 21
131.454799
 31
0.0
  0
ARC
  5
C1
330
1F
100
AcDbEntity
  8
LAYERGROUP-1
  6
CONTINUOUS
 62
     3
100
AcDbCircle
 10
116.2
 20
129.022477
 30
0.0
 40
8.0
100
AcDbArc
 50
162.299572
 51
180.0
  0
ARC
  5
C2
330
1F
100
AcDbEntity
  8
LAYERGROUP-1
  6
CONTINUOUS
 62
     3
100
AcDbCircle
 10
116.369741
 20
137.01
 30
0.0
 40
2.5
100
AcDbArc
 50
231.260575
 51
279.030705
  0
LINE
  5
C3
330
1F
100
AcDbEntity
  8
LAYERGROUP-1
  6
CONTINUOUS
 62
     6
100
AcDbLine
 10
109.808884
 20
135.309292
 30
0.0
 11
112.0
 21
134.61
 31
0.0
  0
LINE
  5
C4
330
1F
100
AcDbEntity
  8
LAYERGROUP-1
  6
CONTINUOUS
 62
     3
100
AcDbLine
 10
114.805292
 20
135.06
 30
0.0
 11
112.0
 21
134.61
 31
0.0
  0
ARC
  5
C5
330
1F
100
AcDbEntity
  8
LAYERGROUP-1
  6
CONTINUOUS
 62
     6
100
AcDbCircle
 10
116.736225
 20
136.647922
 30
0.0
 40
2.5
100
AcDbArc
 50
173.982565
 51
219.432513
  0
ARC
  5
C6
330
1F
100
AcDbEntity
  8
LAYERGROUP-1
  6
CONTINUOUS
 62
     6
100
AcDbCircle
 10
113.25
 20
136.91
 30
0.0
 40
1.0
100
AcDbArc
 50
0.0
 51
44.427004
  0
ARC
  5
C7
330
1F
100
AcDbEntity
  8
LAYERGROUP-1
  6
CONTINUOUS
 62
     6
100
AcDbCircle
 10
109.679286
 20
133.41
 30
0.0
 40
6.0
100
AcDbArc
 50
44.427004
 51
94.258809
  0
ARC
  5
C8
330
1F
100
AcDbEntity
  8
LAYERGROUP-1
  6
CONTINUOUS
 62
     6
100
AcDbCircle
 10
107.350322
 20
149.091726
 30
0.0
 40
14.0
100
AcDbArc
 50
273.46526
 51
299.527031
  0
ARC
  5
C9
330
1F
100
AcDbEntity
  8
LAYERGROUP-1
  6
CONTINUOUS
 62
     3
100
AcDbCircle
 10
105.025
 20
136.91
 30
0.0
 40
3.5
100
AcDbArc
 50
90.0
 51
180.0
  0
ARC
  5
CA
330
1F
100
AcDbEntity
  8
LAYERGROUP-1
  6
CONTINUOUS
 62
     3
100
AcDbCircle
 10
111.7
 20
136.91
 30
0.0
 40
3.5
100
AcDbArc
 50
90.0
 51
180.0
  0
DIMENSION
  5
CB
330
1F
100
AcDbEntity
  8
GR1-1
100
AcDbDimension
  2
*D19
 10
330.001317
 20
259.402985
 30
0.0
 11
329.001312
 21
230.402985
 31
0.0
 70
    33
  3
FXDIMINFO
100
AcDbAlignedDimension
 13
301.846154
 23
201.402985
 33
0.0
 14
301.846154
 24
259.402985
 34
0.0
1001
ACAD
1000
DSTYLE
1002
{
1070
     7
1000
FXTIP_ARROW_E
1070
     6
1000
FXTIP_ARROW_S
1070
   173
1070
     1
1002
}
  0
DIMENSION
  5
D6
330
1F
100
AcDbEntity
  8
GR1-1
100
AcDbDimension
  2
*D20
 10
320.001317
 20
251.402985
 30
0.0
 11
319.001312
 21
230.402985
 31
0.0
 70
    32
  3
FXDIMINFO
100
AcDbAlignedDimension
 13
310.346154
 23
209.402985
 33
0.0
 14
309.846154
 24
251.402985
 34
0.0
 50
270.0
100
AcDbRotatedDimension
1001
ACAD
1000
DSTYLE
1002
{
1070
     7
1000
FXTIP_ARROW_E
1070
     6
1000
FXTIP_ARROW_S
1070
   173
1070
     1
1002
}
  0
ARC
  5
E0
330
1F
100
AcDbEntity
  8
GR1-1
  6
CONTINUOUS
 62
     3
100
AcDbCircle
 10
301.846154
 20
251.402985
 30
0.0
 40
8.0
100
AcDbArc
 50
-13.806071
 51
90.0
  0
LINE
  5
E1
330
1F
100
AcDbEntity
  8
GR1-1
  6
CONTINUOUS
 62
     3
100
AcDbLine
 10
301.846154
 20
259.402985
 30
0.0
 11
247.846154
 21
259.402985
 31
0.0
  0
ARC
  5
E2
330
1F
100
AcDbEntity
  8
GR1-1
  6
CONTINUOUS
 62
     3
100
AcDbCircle
 10
247.846154
 20
251.402985
 30
0.0
 40
8.0
100
AcDbArc
 50
90.0
 51
193.806071
  0
CIRCLE
  5
E3
330
1F
100
AcDbEntity
  8
GR1-1
  6
CONTINUOUS
 62
     3
100
AcDbCircle
 10
247.346154
 20
251.402985
 30
0.0
 40
4.4
  0
CIRCLE
  5
E4
330
1F
100
AcDbEntity
  8
GR1-1
  6
CONTINUOUS
 62
     3
100
AcDbCircle
 10
302.346154
 20
209.402985
 30
0.0
 40
4.4
  0
ARC
  5
E5
330
1F
100
AcDbEntity
  8
GR1-1
  6
CONTINUOUS
 62
     3
100
AcDbCircle
 10
301.846154
 20
209.402985
 30
0.0
 40
8.0
100
AcDbArc
 50
-90.0
 51
13.806071
  0
LINE
  5
E6
330
1F
100
AcDbEntity
  8
GR1-1
  6
CONTINUOUS
 62
     3
100
AcDbLine
 10
301.846154
 20
201.402985
 30
0.0
 11
247.846154
 21
201.402985
 31
0.0
  0
CIRCLE
  5
E7
330
1F
100
AcDbEntity
  8
GR1-1
  6
CONTINUOUS
 62
     3
100
AcDbCircle
 10
247.346154
 20
209.402985
 30
0.0
 40
4.4
  0
ARC
  5
E8
330
1F
100
AcDbEntity
  8
GR1-1
  6
CONTINUOUS
 62
     3
100
AcDbCircle
 10
162.388562
 20
230.402985
 30
0.0
 40
80.0
100
AcDbArc
 50
-13.806071
 51
13.806071
  0
ARC
  5
E9
330
1F
100
AcDbEntity
  8
GR1-1
  6
CONTINUOUS
 62
     3
100
AcDbCircle
 10
247.846154
 20
209.402985
 30
0.0
 40
8.0
100
AcDbArc
 50
166.193929
 51
270.0
  0
CIRCLE
  5
EA
330
1F
100
AcDbEntity
  8
GR1-1
  6
CONTINUOUS
 62
     3
100
AcDbCircle
 10
302.346154
 20
251.402985
 30
0.0
 40
4.4
  0
ARC
  5
EB
330
1F
100
AcDbEntity
  8
GR1-1
  6
CONTINUOUS
 62
     3
100
AcDbCircle
 10
387.303746
 20
230.402985
 30
0.0
 40
80.0
100
AcDbArc
 50
166.193929
 51
193.806071
  0
LINE
  5
EC
330
1F
100
AcDbEntity
  8
GR1-1
  6
CONTINUOUS
 62
     6
100
AcDbLine
 10
302.346154
 20
201.402985
 30
0.0
 11
302.346154
 21
205.902985
 31
0.0
  0
LINE
  5
ED
330
1F
100
AcDbEntity
  8
GR1-1
  6
CONTINUOUS
 62
     6
100
AcDbLine
 10
302.346154
 20
207.402985
 30
0.0
 11
302.346154
 21
211.402985
 31
0.0
  0
LINE
  5
EE
330
1F
100
AcDbEntity
  8
GR1-1
  6
CONTINUOUS
 62
     6
100
AcDbLine
 10
302.346154
 20
212.902985
 30
0.0
 11
302.346154
 21
217.402985
 31
0.0
  0
LINE
  5
EF
330
1F
100
AcDbEntity
  8
GR1-1
  6
CONTINUOUS
 62
     6
100
AcDbLine
 10
304.346154
 20
209.402985
 30
0.0
 11
300.346154
 21
209.402985
 31
0.0
  0
LINE
  5
F0
330
1F
100
AcDbEntity
  8
GR1-1
  6
CONTINUOUS
 62
     6
100
AcDbLine
 10
298.846154
 20
209.402985
 30
0.0
 11
294.346154
 21
209.402985
 31
0.0
  0
LINE
  5
F1
330
1F
100
AcDbEntity
  8
GR1-1
  6
CONTINUOUS
 62
     6
100
AcDbLine
 10
305.846154
 20
209.402985
 30
0.0
 11
310.346154
 21
209.402985
 31
0.0
  0
LINE
  5
F2
330
1F
100
AcDbEntity
  8
GR1-1
  6
CONTINUOUS
 62
     6
100
AcDbLine
 10
247.346154
 20
217.402985
 30
0.0
 11
247.346154
 21
212.902985
 31
0.0
  0
LINE
  5
F3
330
1F
100
AcDbEntity
  8
GR1-1
  6
CONTINUOUS
 62
     6
100
AcDbLine
 10
247.346154
 20
211.402985
 30
0.0
 11
247.346154
 21
207.402985
 31
0.0
  0
LINE
  5
F4
330
1F
100
AcDbEntity
  8
GR1-1
  6
CONTINUOUS
 62
     6
100
AcDbLine
 10
247.346154
 20
205.902985
 30
0.0
 11
247.346154
 21
201.402985
 31
0.0
  0
LINE
  5
F5
330
1F
100
AcDbEntity
  8
GR1-1
  6
CONTINUOUS
 62
     6
100
AcDbLine
 10
245.346154
 20
209.402985
 30
0.0
 11
249.346154
 21
209.402985
 31
0.0
  0
LINE
  5
F6
330
1F
100
AcDbEntity
  8
GR1-1
  6
CONTINUOUS
 62
     6
100
AcDbLine
 10
250.846154
 20
209.402985
 30
0.0
 11
255.346154
 21
209.402985
 31
0.0
  0
LINE
  5
F7
330
1F
100
AcDbEntity
  8
GR1-1
  6
CONTINUOUS
 62
     6
100
AcDbLine
 10
243.846154
 20
209.402985
 30
0.0
 11
239.346154
 21
209.402985
 31
0.0
  0
LINE
  5
F8
330
1F
100
AcDbEntity
  8
GR1-1
  6
CONTINUOUS
 62
     6
100
AcDbLine
 10
247.346154
 20
243.402985
 30
0.0
 11
247.346154
 21
247.902985
 31
0.0
  0
LINE
  5
F9
330
1F
100
AcDbEntity
  8
GR1-1
  6
CONTINUOUS
 62
     6
100
AcDbLine
 10
247.346154
 20
249.402985
 30
0.0
 11
247.346154
 21
253.402985
 31
0.0
  0
LINE
  5
FA
330
1F
100
AcDbEntity
  8
GR1-1
  6
CONTINUOUS
 62
     6
100
AcDbLine
 10
247.346154
 20
254.902985
 30
0.0
 11
247.346154
 21
259.402985
 31
0.0
  0
LINE
  5
FB
330
1F
100
AcDbEntity
  8
GR1-1
  6
CONTINUOUS
 62
     6
100
AcDbLine
 10
245.346154
 20
251.402985
 30
0.0
 11
249.346154
 21
251.402985
 31
0.0
  0
LINE
  5
FC
330
1F
100
AcDbEntity
  8
GR1-1
  6
CONTINUOUS
 62
     6
100
AcDbLine
 10
250.846154
 20
251.402985
 30
0.0
 11
255.346154
 21
251.402985
 31
0.0
  0
LINE
  5
FD
330
1F
100
AcDbEntity
  8
GR1-1
  6
CONTINUOUS
 62
     6
100
AcDbLine
 10
243.846154
 20
251.402985
 30
0.0
 11
239.346154
 21
251.402985
 31
0.0
  0
LINE
  5
FE
330
1F
100
AcDbEntity
  8
GR1-1
  6
CENTER
 62
     6
100
AcDbLine
 10
274.846154
 20
261.676941
 30
0.0
 11
274.846154
 21
198.296596
 31
0.0
  0
CIRCLE
  5
FF
330
1F
100
AcDbEntity
  8
GR1-1
  6
CONTINUOUS
 62
     6
100
AcDbCircle
 10
274.846154
 20
230.402985
 30
0.0
 40
12.49999999999999
  0
LINE
  5
100
330
1F
100
AcDbEntity
  8
GR1-1
  6
CONTINUOUS
 62
     6
100
AcDbLine
 10
302.346154
 20
243.402985
 30
0.0
 11
302.346154
 21
247.902985
 31
0.0
  0
LINE
  5
101
330
1F
100
AcDbEntity
  8
GR1-1
  6
CONTINUOUS
 62
     6
100
AcDbLine
 10
302.346154
 20
249.402985
 30
0.0
 11
302.346154
 21
253.402985
 31
0.0
  0
LINE
  5
102
330
1F
100
AcDbEntity
  8
GR1-1
  6
CONTINUOUS
 62
     6
100
AcDbLine
 10
302.346154
 20
254.902985
 30
0.0
 11
302.346154
 21
259.402985
 31
0.0
  0
LINE
  5
103
330
1F
100
AcDbEntity
  8
GR1-1
  6
CONTINUOUS
 62
     6
100
AcDbLine
 10
304.346154
 20
251.402985
 30
0.0
 11
300.346154
 21
251.402985
 31
0.0
  0
LINE
  5
104
330
1F
100
AcDbEntity
  8
GR1-1
  6
CONTINUOUS
 62
     6
100
AcDbLine
 10
298.846154
 20
251.402985
 30
0.0
 11
294.346154
 21
251.402985
 31
0.0
  0
LINE
  5
105
330
1F
100
AcDbEntity
  8
GR1-1
  6
CONTINUOUS
 62
     6
100
AcDbLine
 10
305.846154
 20
251.402985
 30
0.0
 11
310.346154
 21
251.402985
 31
0.0
  0
DIMENSION
  5
106
330
1F
100
AcDbEntity
  8
GR1-1
100
AcDbDimension
  2
*D21
 10
309.846154
 20
168.902985
 30
0.0
 11
274.846161
 21
169.902985
 31
0.0
 70
    33
  3
FXDIMINFO
100
AcDbAlignedDimension
 13
239.846154
 23
209.402985
 33
0.0
 14
309.846154
 24
209.402985
 34
0.0
1001
ACAD
1000
DSTYLE
1002
{
1070
     7
1000
FXTIP_ARROW_E
1070
     6
1000
FXTIP_ARROW_S
1070
   173
1070
     1
1002
}
  0
DIMENSION
  5
110
330
1F
100
AcDbEntity
  8
GR1-1
100
AcDbDimension
  2
*D22
 10
302.346154
 20
178.902985
 30
0.0
 11
274.846161
 21
179.902985
 31
0.0
 70
    33
  3
FXDIMINFO
100
AcDbAlignedDimension
 13
247.346154
 23
201.402985
 33
0.0
 14
302.346154
 24
201.402985
 34
0.0
1001
ACAD
1000
DSTYLE
1002
{
1070
     7
1000
FXTIP_ARROW_E
1070
     6
1000
FXTIP_ARROW_S
1070
   173
1070
     1
1002
}
  0
CIRCLE
  5
11A
330
1F
100
AcDbEntity
  8
LAYERGROUP-1
  6
CONTINUOUS
 62
     6
100
AcDbCircle
 10
274.846154
 20
230.402985
 30
0.0
 40
22.29999999999998
  0
CIRCLE
  5
11B
330
1F
100
AcDbEntity
  8
LAYERGROUP-1
  6
CONTINUOUS
 62
     6
100
AcDbCircle
 10
274.846154
 20
230.402985
 30
0.0
 40
24.29999999999998
  0
LINE
  5
11C
330
1F
100
AcDbEntity
  8
GR1-1
  6
CONTINUOUS
 62
     3
100
AcDbLine
 10
97.5
 20
148.5
 30
0.0
 11
155.5
 21
148.5
 31
0.0
  0
LINE
  5
11D
330
1F
100
AcDbEntity
  8
GR1-1
  6
CONTINUOUS
 62
     3
100
AcDbLine
 10
97.5
 20
146.2
 30
0.0
 11
155.5
 21
146.2
 31
0.0
  0
ARC
  5
11E
330
1F
100
AcDbEntity
  8
LAYERGROUP-1
  6
CONTINUOUS
 62
     3
100
AcDbCircle
 10
98.0
 20
144.7
 30
0.0
 40
1.5
100
AcDbArc
 50
19.980982
 51
90.0
  0
ARC
  5
11F
330
1F
100
AcDbEntity
  8
LAYERGROUP-1
  6
CONTINUOUS
 62
     3
100
AcDbCircle
 10
103.2
 20
144.9
 30
0.0
 40
3.0
100
AcDbArc
 50
231.96215
 51
270.0
  0
ARC
  5
120
330
1F
100
AcDbEntity
  8
LAYERGROUP-1
  6
CONTINUOUS
 62
     3
100
AcDbCircle
 10
105.048546
 20
147.262812
 30
0.0
 40
6.0
100
AcDbArc
 50
199.980982
 51
231.96215
  0
LINE
  5
121
330
1F
100
AcDbEntity
  8
LAYERGROUP-1
  6
CONTINUOUS
 62
     3
100
AcDbLine
 10
103.2
 20
141.9
 30
0.0
 11
149.8
 21
141.9
 31
0.0
  0
LINE
  5
122
330
1F
100
AcDbEntity
  8
LAYERGROUP-1
  6
CONTINUOUS
 62
     3
100
AcDbLine
 10
97.5
 20
148.5
 30
0.0
 11
97.5
 21
146.2
 31
0.0
  0
ARC
  5
123
330
1F
100
AcDbEntity
  8
LAYERGROUP-1
  6
CONTINUOUS
 62
     3
100
AcDbCircle
 10
155.0
 20
144.7
 30
0.0
 40
1.5
100
AcDbArc
 50
90.0
 51
160.019018
  0
ARC
  5
124
330
1F
100
AcDbEntity
  8
LAYERGROUP-1
  6
CONTINUOUS
 62
     3
100
AcDbCircle
 10
149.8
 20
144.9
 30
0.0
 40
3.0
100
AcDbArc
 50
270.0
 51
308.03785
  0
ARC
  5
125
330
1F
100
AcDbEntity
  8
LAYERGROUP-1
  6
CONTINUOUS
 62
     3
100
AcDbCircle
 10
147.951454
 20
147.262812
 30
0.0
 40
6.0
100
AcDbArc
 50
308.03785
 51
340.019018
  0
LINE
  5
126
330
1F
100
AcDbEntity
  8
LAYERGROUP-1
  6
CONTINUOUS
 62
     3
100
AcDbLine
 10
155.5
 20
148.5
 30
0.0
 11
155.5
 21
146.2
 31
0.0
  0
LINE
  5
127
330
1F
100
AcDbEntity
  8
LAYERGROUP-1
  6
CONTINUOUS
 62
     3
100
AcDbLine
 10
137.25
 20
133.95
 30
0.0
 11
137.25
 21
134.588034
 31
0.0
  0
LINE
  5
128
330
1F
100
AcDbEntity
  8
LAYERGROUP-1
  6
CONTINUOUS
 62
     3
100
AcDbLine
 10
115.75
 20
133.95
 30
0.0
 11
115.75
 21
134.588034
 31
0.0
  0
LINE
  5
129
330
1F
100
AcDbEntity
  8
GR1-1
  6
CONTINUOUS
 62
     3
100
AcDbLine
 10
137.25
 20
133.95
 30
0.0
 11
115.75
 21
133.95
 31
0.0
  0
ARC
  5
12A
330
1F
100
AcDbEntity
  8
LAYERGROUP-1
  6
CONTINUOUS
 62
     3
100
AcDbCircle
 10
273.107511
 20
232.141628
 30
0.0
 40
5.541187189562158
100
AcDbArc
 50
71.713589
 51
198.286411
  0
ARC
  5
12B
330
1F
100
AcDbEntity
  8
LAYERGROUP-1
  6
CONTINUOUS
 62
     3
100
AcDbCircle
 10
276.584797
 20
232.141628
 30
0.0
 40
5.541187189562158
100
AcDbArc
 50
-18.286411
 51
108.286411
  0
ARC
  5
12C
330
1F
100
AcDbEntity
  8
LAYERGROUP-1
  6
CONTINUOUS
 62
     3
100
AcDbCircle
 10
273.107511
 20
228.664342
 30
0.0
 40
5.541187189562158
100
AcDbArc
 50
161.713589
 51
288.286411
  0
ARC
  5
12D
330
1F
100
AcDbEntity
  8
LAYERGROUP-1
  6
CONTINUOUS
 62
     3
100
AcDbCircle
 10
276.584797
 20
228.664342
 30
0.0
 40
5.541187189562158
100
AcDbArc
 50
-108.286411
 51
18.286411
  0
LINE
  5
12E
330
1F
100
AcDbEntity
  8
LAYERGROUP-1
  6
CONTINUOUS
 62
     6
100
AcDbLine
 10
273.446154
 20
231.802985
 30
0.0
 11
276.246154
 21
229.002985
 31
0.0
  0
ARC
  5
12F
330
1F
100
AcDbEntity
  8
LAYERGROUP-1
  6
CONTINUOUS
 62
     6
100
AcDbCircle
 10
271.696154
 20
232.771231
 30
0.0
 40
2.0
100
AcDbArc
 50
331.044976
 51
360.0
  0
LINE
  5
130
330
1F
100
AcDbEntity
  8
LAYERGROUP-1
  6
CONTINUOUS
 62
     6
100
AcDbLine
 10
273.696154
 20
232.771231
 30
0.0
 11
272.946154
 21
237.680466
 31
0.0
  0
LINE
  5
131
330
1F
100
AcDbEntity
  8
LAYERGROUP-1
  6
CONTINUOUS
 62
     6
100
AcDbLine
 10
274.846154
 20
237.402985
 30
0.0
 11
274.846154
 21
223.402985
 31
0.0
  0
LINE
  5
132
330
1F
100
AcDbEntity
  8
LAYERGROUP-1
  6
CONTINUOUS
 62
     6
100
AcDbLine
 10
281.846154
 20
230.402985
 30
0.0
 11
267.846154
 21
230.402985
 31
0.0
  0
LINE
  5
133
330
1F
100
AcDbEntity
  8
LAYERGROUP-1
  6
CONTINUOUS
 62
     6
100
AcDbLine
 10
276.246154
 20
231.802985
 30
0.0
 11
273.446154
 21
229.002985
 31
0.0
  0
ARC
  5
134
330
1F
100
AcDbEntity
  8
LAYERGROUP-1
  6
CONTINUOUS
 62
     6
100
AcDbCircle
 10
277.996154
 20
232.771231
 30
0.0
 40
2.0
100
AcDbArc
 50
180.0
 51
208.955024
  0
LINE
  5
135
330
1F
100
AcDbEntity
  8
LAYERGROUP-1
  6
CONTINUOUS
 62
     6
100
AcDbLine
 10
275.996154
 20
232.771231
 30
0.0
 11
276.746154
 21
237.680466
 31
0.0
  0
ARC
  5
136
330
1F
100
AcDbEntity
  8
LAYERGROUP-1
  6
CONTINUOUS
 62
     6
100
AcDbCircle
 10
271.696154
 20
228.034739
 30
0.0
 40
2.0
100
AcDbArc
 50
0.0
 51
28.955024
  0
LINE
  5
137
330
1F
100
AcDbEntity
  8
LAYERGROUP-1
  6
CONTINUOUS
 62
     6
100
AcDbLine
 10
273.696154
 20
228.034739
 30
0.0
 11
272.946154
 21
223.125504
 31
0.0
  0
ARC
  5
138
330
1F
100
AcDbEntity
  8
LAYERGROUP-1
  6
CONTINUOUS
 62
     6
100
AcDbCircle
 10
277.996154
 20
228.034739
 30
0.0
 40
2.0
100
AcDbArc
 50
151.044976
 51
180.0
  0
LINE
  5
139
330
1F
100
AcDbEntity
  8
LAYERGROUP-1
  6
CONTINUOUS
 62
     6
100
AcDbLine
 10
275.996154
 20
228.034739
 30
0.0
 11
276.746154
 21
223.125504
 31
0.0
  0
ARC
  5
13A
330
1F
100
AcDbEntity
  8
LAYERGROUP-1
  6
CONTINUOUS
 62
     6
100
AcDbCircle
 10
272.477908
 20
227.252985
 30
0.0
 40
2.0
100
AcDbArc
 50
61.044976
 51
90.0
  0
LINE
  5
13B
330
1F
100
AcDbEntity
  8
LAYERGROUP-1
  6
CONTINUOUS
 62
     6
100
AcDbLine
 10
272.477908
 20
229.252985
 30
0.0
 11
267.568673
 21
228.502985
 31
0.0
  0
ARC
  5
13C
330
1F
100
AcDbEntity
  8
LAYERGROUP-1
  6
CONTINUOUS
 62
     6
100
AcDbCircle
 10
272.477908
 20
233.552985
 30
0.0
 40
2.0
100
AcDbArc
 50
270.0
 51
298.955024
  0
LINE
  5
13D
330
1F
100
AcDbEntity
  8
LAYERGROUP-1
  6
CONTINUOUS
 62
     6
100
AcDbLine
 10
272.477908
 20
231.552985
 30
0.0
 11
267.568673
 21
232.302985
 31
0.0
  0
ARC
  5
13E
330
1F
100
AcDbEntity
  8
LAYERGROUP-1
  6
CONTINUOUS
 62
     6
100
AcDbCircle
 10
277.2144
 20
227.252985
 30
0.0
 40
2.0
100
AcDbArc
 50
90.0
 51
118.955024
  0
LINE
  5
13F
330
1F
100
AcDbEntity
  8
LAYERGROUP-1
  6
CONTINUOUS
 62
     6
100
AcDbLine
 10
277.2144
 20
229.252985
 30
0.0
 11
282.123634
 21
228.502985
 31
0.0
  0
ARC
  5
140
330
1F
100
AcDbEntity
  8
LAYERGROUP-1
  6
CONTINUOUS
 62
     6
100
AcDbCircle
 10
277.2144
 20
233.552985
 30
0.0
 40
2.0
100
AcDbArc
 50
241.044976
 51
270.0
  0
LINE
  5
141
330
1F
100
AcDbEntity
  8
LAYERGROUP-1
  6
CONTINUOUS
 62
     6
100
AcDbLine
 10
277.2144
 20
231.552985
 30
0.0
 11
282.123634
 21
232.302985
 31
0.0
  0
CIRCLE
  5
142
330
1F
100
AcDbEntity
  8
LAYERGROUP-1
  6
CONTINUOUS
 62
     3
100
AcDbCircle
 10
253.846154
 20
101.0
 30
0.0
 40
6.0
  0
CIRCLE
  5
143
330
1F
100
AcDbEntity
  8
LAYERGROUP-1
  6
CONTINUOUS
 62
     6
100
AcDbCircle
 10
253.846154
 20
101.0
 30
0.0
 40
2.25
  0
CIRCLE
  5
144
330
1F
100
AcDbEntity
  8
LAYERGROUP-1
  6
CONTINUOUS
 62
     3
100
AcDbCircle
 10
253.846154
 20
101.0
 30
0.0
 40
1.5
  0
ARC
  5
145
330
1F
100
AcDbEntity
  8
LAYERGROUP-1
  6
CONTINUOUS
 62
     3
100
AcDbCircle
 10
108.2
 20
105.4
 30
0.0
 40
1.6
100
AcDbArc
 50
90.0
 51
180.0
  0
ARC
  5
146
330
1F
100
AcDbEntity
  8
LAYERGROUP-1
  6
CONTINUOUS
 62
     3
100
AcDbCircle
 10
108.2
 20
96.6
 30
0.0
 40
1.6
100
AcDbArc
 50
180.0
 51
270.0
  0
LINE
  5
147
330
1F
100
AcDbEntity
  8
LAYERGROUP-1
  6
CONTINUOUS
 62
     3
100
AcDbLine
 10
106.6
 20
105.4
 30
0.0
 11
106.6
 21
96.6
 31
0.0
  0
ARC
  5
148
330
1F
100
AcDbEntity
  8
LAYERGROUP-1
  6
CONTINUOUS
 62
     3
100
AcDbCircle
 10
150.8
 20
104.5
 30
0.0
 40
2.5
100
AcDbArc
 50
53.130102
 51
126.869898
  0
ARC
  5
149
330
1F
100
AcDbEntity
  8
LAYERGROUP-1
  6
CONTINUOUS
 62
     3
100
AcDbCircle
 10
150.8
 20
97.5
 30
0.0
 40
2.5
100
AcDbArc
 50
233.130102
 51
306.869898
  0
LINE
  5
14A
330
1F
100
AcDbEntity
  8
LAYERGROUP-1
  6
CONTINUOUS
 62
     3
100
AcDbLine
 10
152.3
 20
106.5
 30
0.0
 11
152.3
 21
95.5
 31
0.0
  0
DIMENSION
  5
14B
330
1F
100
AcDbEntity
  8
LAYERGROUP-1
100
AcDbDimension
  2
*D23
 10
250.886066
 20
248.789745
 30
0.0
 11
231.889648
 21
264.056305
 31
0.0
 70
   163
  3
FXDIMINFO
100
AcDbDiametricDimension
 15
243.806242
 25
254.016225
 35
0.0
 40
0.0
  0
ARC
  5
155
330
1F
100
AcDbEntity
  8
LAYERGROUP-1
  6
CONTINUOUS
 62
     3
100
AcDbCircle
 10
126.5
 20
141.985
 30
0.0
 40
3.175
100
AcDbArc
 50
330.26013
 51
358.466464
  0
ARC
  5
156
330
1F
100
AcDbEntity
  8
LAYERGROUP-1
  6
CONTINUOUS
 62
     3
100
AcDbCircle
 10
132.746415
 20
141.985
 30
0.0
 40
3.175
100
AcDbArc
 50
330.26013
 51
358.466464
  0
ARC
  5
157
330
1F
100
AcDbEntity
  8
LAYERGROUP-1
  6
CONTINUOUS
 62
     3
100
AcDbCircle
 10
138.184313
 20
141.985
 30
0.0
 40
3.175
100
AcDbArc
 50
330.26013
 51
358.466464
  0
ARC
  5
158
330
1F
100
AcDbEntity
  8
LAYERGROUP-1
  6
CONTINUOUS
 62
     3
100
AcDbCircle
 10
142.10983
 20
141.985
 30
0.0
 40
3.175
100
AcDbArc
 50
330.26013
 51
358.465914
  0
ARC
  5
159
330
1F
100
AcDbEntity
  8
LAYERGROUP-1
  6
CONTINUOUS
 62
     3
100
AcDbCircle
 10
144.01486
 20
141.985
 30
0.0
 40
3.175
100
AcDbArc
 50
330.26013
 51
360.0
  0
ARC
  5
15A
330
1F
100
AcDbEntity
  8
LAYERGROUP-1
  6
CONTINUOUS
 62
     3
100
AcDbCircle
 10
132.746415
 20
141.985
 30
0.0
 40
3.175
100
AcDbArc
 50
190.36316
 51
209.73987
  0
ARC
  5
15B
330
1F
100
AcDbEntity
  8
LAYERGROUP-1
  6
CONTINUOUS
 62
     3
100
AcDbCircle
 10
126.5
 20
141.985
 30
0.0
 40
3.175
100
AcDbArc
 50
181.533536
 51
209.73987
  0
ARC
  5
15C
330
1F
100
AcDbEntity
  8
LAYERGROUP-1
  6
CONTINUOUS
 62
     3
100
AcDbCircle
 10
120.253585
 20
141.985
 30
0.0
 40
3.175
100
AcDbArc
 50
181.533536
 51
209.73987
  0
ARC
  5
15D
330
1F
100
AcDbEntity
  8
LAYERGROUP-1
  6
CONTINUOUS
 62
     3
100
AcDbCircle
 10
114.815687
 20
141.985
 30
0.0
 40
3.175
100
AcDbArc
 50
181.533536
 51
209.73987
  0
ARC
  5
15E
330
1F
100
AcDbEntity
  8
LAYERGROUP-1
  6
CONTINUOUS
 62
     3
100
AcDbCircle
 10
110.89017
 20
141.985
 30
0.0
 40
3.175
100
AcDbArc
 50
181.534086
 51
209.73987
  0
ARC
  5
15F
330
1F
100
AcDbEntity
  8
LAYERGROUP-1
  6
CONTINUOUS
 62
     3
100
AcDbCircle
 10
108.98514
 20
141.985
 30
0.0
 40
3.175
100
AcDbArc
 50
180.0
 51
209.73987
  0
ARC
  5
160
330
1F
100
AcDbEntity
  8
LAYERGROUP-1
  6
CONTINUOUS
 62
     3
100
AcDbCircle
 10
120.253585
 20
141.985
 30
0.0
 40
3.175
100
AcDbArc
 50
330.26013
 51
349.63684
  0
ARC
  5
162
330
1F
100
AcDbEntity
  8
3-1
  6
CONTINUOUS
 62
     3
100
AcDbCircle
 10
265.23402
 20
127.103628
 30
0.0
 40
16.0
100
AcDbArc
 50
149.973648
 51
169.993356
  0
LINE
  5
163
330
1F
100
AcDbEntity
  8
LAYERGROUP-1
  6
CONTINUOUS
 62
     6
100
AcDbLine
 10
257.850254
 20
116.765196
 30
0.0
 11
257.850254
 21
136.789859
 31
0.0
  0
ARC
  5
164
330
1F
100
AcDbEntity
  8
3-1
  6
CONTINUOUS
 62
     3
100
AcDbCircle
 10
593.485018
 20
65.395334
 30
0.0
 40
350.0
100
AcDbArc
 50
169.382294
 51
171.983786
  0
ARC
  5
165
330
1F
100
AcDbEntity
  8
LAYERGROUP-1
  6
CONTINUOUS
 62
     3
100
AcDbCircle
 10
296.011477
 20
121.505342
 30
0.0
 40
12.0
100
AcDbArc
 50
82.772674
 51
138.797562
  0
LINE
  5
166
330
1F
100
AcDbEntity
  8
LAYERGROUP-1
  6
CONTINUOUS
 62
     3
100
AcDbLine
 10
286.982835
 20
129.41
 30
0.0
 11
267.085481
 21
102.812659
 31
0.0
  0
ARC
  5
167
330
1F
100
AcDbEntity
  8
LAYERGROUP-1
  6
CONTINUOUS
 62
     6
100
AcDbCircle
 10
273.850254
 20
116.765196
 30
0.0
 40
16.0
100
AcDbArc
 50
180.0
 51
196.44083
  0
LINE
  5
168
330
1F
100
AcDbEntity
  8
LAYERGROUP-1
  6
CONTINUOUS
 62
     3
100
AcDbLine
 10
142.5
 20
92.5
 30
0.0
 11
144.8
 21
92.5
 31
0.0
  0
LINE
  5
169
330
1F
100
AcDbEntity
  8
LAYERGROUP-1
  6
CONTINUOUS
 62
     3
100
AcDbLine
 10
144.8
 20
136.91
 30
0.0
 11
144.8
 21
89.005304
 31
0.0
  0
LINE
  5
16A
330
1F
100
AcDbEntity
  8
LAYERGROUP-1
  6
CONTINUOUS
 62
     3
100
AcDbLine
 10
142.5
 20
92.5
 30
0.0
 11
142.5
 21
113.090323
 31
0.0
  0
LINE
  5
16B
330
1F
100
AcDbEntity
  8
LAYERGROUP-1
  6
CONTINUOUS
 62
     3
100
AcDbLine
 10
151.475
 20
136.91
 30
0.0
 11
151.475
 21
127.121312
 31
0.0
  0
LINE
  5
16C
330
1F
100
AcDbEntity
  8
LAYERGROUP-1
  6
CONTINUOUS
 62
     3
100
AcDbLine
 10
110.5
 20
92.5
 30
0.0
 11
108.2
 21
92.5
 31
0.0
  0
LINE
  5
16D
330
1F
100
AcDbEntity
  8
LAYERGROUP-1
  6
CONTINUOUS
 62
     3
100
AcDbLine
 10
110.5
 20
92.5
 30
0.0
 11
110.5
 21
106.012475
 31
0.0
  0
LINE
  5
16E
330
1F
100
AcDbEntity
  8
LAYERGROUP-1
  6
CONTINUOUS
 62
     3
100
AcDbLine
 10
108.2
 20
92.5
 30
0.0
 11
108.2
 21
136.91
 31
0.0
  0
LINE
  5
16F
330
1F
100
AcDbEntity
  8
LAYERGROUP-1
  6
CONTINUOUS
 62
     3
100
AcDbLine
 10
101.525
 20
136.91
 30
0.0
 11
101.525
 21
115.525126
 31
0.0
  0
LINE
  5
170
330
1F
100
AcDbEntity
  8
LAYERGROUP-1
  6
CONTINUOUS
 62
     3
100
AcDbLine
 10
102.335792
 20
112.513129
 30
0.0
 11
106.6
 21
105.166554
 31
0.0
  0
ARC
  5
171
330
1F
100
AcDbEntity
  8
LAYERGROUP-1
  6
CONTINUOUS
 62
     3
100
AcDbCircle
 10
107.525
 20
115.525126
 30
0.0
 40
6.0
100
AcDbArc
 50
180.0
 51
210.13237
  0
DIMENSION
  5
172
330
1F
100
AcDbEntity
  8
LAYERGROUP-1
100
AcDbDimension
  2
*D24
 10
329.846154
 20
148.5
 30
0.0
 11
328.846161
 21
108.5
 31
0.0
 70
    32
  3
FXDIMINFO
100
AcDbAlignedDimension
 13
253.846154
 23
68.5
 33
0.0
 14
309.846154
 24
148.5
 34
0.0
 50
270.0
100
AcDbRotatedDimension
1001
ACAD
1000
DSTYLE
1002
{
1070
     7
1000
FXTIP_ARROW_E
1070
     6
1000
FXTIP_ARROW_S
1070
   173
1070
     1
1002
}
  0
DIMENSION
  5
17C
330
1F
100
AcDbEntity
  8
LAYERGROUP-1
100
AcDbDimension
  2
*D25
 10
319.846154
 20
148.5
 30
0.0
 11
318.846161
 21
124.75
 31
0.0
 70
    32
  3
FXDIMINFO
100
AcDbAlignedDimension
 13
288.603886
 23
101.0
 33
0.0
 14
309.846154
 24
148.5
 34
0.0
 50
270.0
100
AcDbRotatedDimension
1001
ACAD
1000
DSTYLE
1002
{
1070
     7
1000
FXTIP_ARROW_E
1070
     6
1000
FXTIP_ARROW_S
1070
   173
1070
     1
1002
}
  0
DIMENSION
  5
185
330
1F
100
AcDbEntity
  8
LAYERGROUP-1
100
AcDbDimension
  2
*D26
 10
274.846154
 20
58.5
 30
0.0
 11
264.346161
 21
59.5
 31
0.0
 70
    32
  3
FXDIMINFO
100
AcDbAlignedDimension
 13
253.846154
 23
65.855691
 33
0.0
 14
274.846154
 24
109.820081
 34
0.0
 50
180.0
100
AcDbRotatedDimension
1001
ACAD
1000
DSTYLE
1002
{
1070
     7
1000
FXTIP_ARROW_E
1070
     6
1000
FXTIP_ARROW_S
1070
   173
1070
     1
1002
}
  0
ARC
  5
18F
330
1F
100
AcDbEntity
  8
LAYERGROUP-1
  6
CONTINUOUS
 62
     6
100
AcDbCircle
 10
253.846154
 20
101.0
 30
0.0
 40
13.0
100
AcDbArc
 50
180.0
 51
292.703145
  0
ARC
  5
190
330
1F
100
AcDbEntity
  8
LAYERGROUP-1
  6
CONTINUOUS
 62
     3
100
AcDbCircle
 10
126.5
 20
17.357657
 30
0.0
 40
116.0523426889993
100
AcDbArc
 50
92.627783
 51
97.527019
  0
LINE
  5
191
330
1F
100
AcDbEntity
  8
LAYERGROUP-1
  6
CONTINUOUS
 62
     3
100
AcDbLine
 10
142.0
 20
105.0
 30
0.0
 11
142.5
 21
105.0
 31
0.0
  0
LINE
  5
192
330
1F
100
AcDbEntity
  8
LAYERGROUP-1
  6
CONTINUOUS
 62
     3
100
AcDbLine
 10
142.0
 20
97.0
 30
0.0
 11
142.5
 21
97.0
 31
0.0
  0
DIMENSION
  5
193
330
1F
100
AcDbEntity
  8
LAYERGROUP-1
100
AcDbDimension
  2
*D27
 10
92.619403
 20
133.5
 30
0.0
 11
91.6194
 21
101.0
 31
0.0
 70
    33
  3
FXDIMINFO
100
AcDbAlignedDimension
 13
126.5
 23
68.5
 33
0.0
 14
126.5
 24
133.5
 34
0.0
1001
ACAD
1000
DSTYLE
1002
{
1070
     7
1000
FXTIP_ARROW_E
1070
     6
1000
FXTIP_ARROW_S
1070
   173
1070
     1
1002
}
  0
LINE
  5
19D
330
1F
100
AcDbEntity
  8
GR1-1
  6
CONTINUOUS
 62
     3
100
AcDbLine
 10
287.848362
 20
84.610374
 30
0.0
 11
288.952236
 21
86.278146
 31
0.0
  0
LINE
  5
19E
330
1F
100
AcDbEntity
  8
GR1-1
  6
CONTINUOUS
 62
     3
100
AcDbLine
 10
288.952236
 20
86.278146
 30
0.0
 11
269.409488
 21
99.213209
 31
0.0
  0
LINE
  5
19F
330
1F
100
AcDbEntity
  8
GR1-1
  6
CONTINUOUS
 62
     3
100
AcDbLine
 10
268.305614
 20
97.545437
 30
0.0
 11
287.848362
 21
84.610374
 31
0.0
  0
LINE
  5
1A0
330
1F
100
AcDbEntity
  8
GR1-1
  6
CONTINUOUS
 62
     3
100
AcDbLine
 10
277.329119
 20
87.114744
 30
0.0
 11
268.356863
 21
87.820876
 31
0.0
  0
ARC
  5
1A1
330
1F
100
AcDbEntity
  8
GR1-1
  6
CONTINUOUS
 62
     3
100
AcDbCircle
 10
274.569091
 20
109.399991
 30
0.0
 40
20.50000000000045
100
AcDbArc
 50
252.819617
 51
278.180383
  0
ARC
  5
1A2
330
1F
100
AcDbEntity
  8
GR1-1
  6
CONTINUOUS
 62
     3
100
AcDbCircle
 10
251.141663
 20
96.913959
 30
0.0
 40
17.0
100
AcDbArc
 50
17.099431
 51
95.900569
  0
LINE
  5
1A3
330
1F
100
AcDbEntity
  8
GR1-1
  6
CONTINUOUS
 62
     3
100
AcDbLine
 10
246.120325
 20
114.62797
 30
0.0
 11
226.577577
 21
127.563033
 31
0.0
  0
LINE
  5
1A4
330
1F
100
AcDbEntity
  8
GR1-1
  6
CONTINUOUS
 62
     3
100
AcDbLine
 10
226.577577
 20
127.563033
 30
0.0
 11
225.473703
 21
125.895261
 31
0.0
  0
LINE
  5
1A5
330
1F
100
AcDbEntity
  8
GR1-1
  6
CONTINUOUS
 62
     3
100
AcDbLine
 10
225.473703
 20
125.895261
 30
0.0
 11
245.016451
 21
112.960198
 31
0.0
  0
ARC
  5
1A6
330
1F
100
AcDbEntity
  8
GR1-1
  6
CONTINUOUS
 62
     3
100
AcDbCircle
 10
248.88001
 20
118.797399
 30
0.0
 40
7.0
100
AcDbArc
 50
236.5
 51
275.900569
  0
ARC
  5
1A7
330
1F
100
AcDbEntity
  8
GR1-1
  6
CONTINUOUS
 62
     3
100
AcDbCircle
 10
248.88001
 20
118.797399
 30
0.0
 40
5.0
100
AcDbArc
 50
236.5
 51
275.900569
  0
LINE
  5
1A8
330
1F
100
AcDbEntity
  8
GR1-1
  6
CONTINUOUS
 62
     3
100
AcDbLine
 10
244.819854
 20
113.090323
 30
0.0
 11
243.440011
 21
111.005608
 31
0.0
  0
LINE
  5
1A9
330
1F
100
AcDbEntity
  8
GR1-1
  6
CONTINUOUS
 62
     3
100
AcDbLine
 10
243.440011
 20
111.005608
 30
0.0
 11
240.021079
 21
113.26855
 31
0.0
  0
LINE
  5
1AA
330
1F
100
AcDbEntity
  8
GR1-1
  6
CONTINUOUS
 62
     3
100
AcDbLine
 10
240.021079
 20
113.26855
 30
0.0
 11
241.400922
 21
115.353265
 31
0.0
  0
ARC
  5
1AB
330
1F
100
AcDbEntity
  8
GR1-1
  6
CONTINUOUS
 62
     3
100
AcDbCircle
 10
259.144749
 20
109.005304
 30
0.0
 40
20.0
100
AcDbArc
 50
199.630102
 51
273.369898
  0
ARC
  5
1AC
330
1F
100
AcDbEntity
  8
GR1-1
  6
CONTINUOUS
 62
     3
100
AcDbCircle
 10
273.228968
 20
104.316291
 30
0.0
 40
20.0
100
AcDbArc
 50
229.802147
 51
301.780578
  0
ARC
  5
1AD
330
1F
100
AcDbEntity
  8
GR1-1
  6
CONTINUOUS
 62
     3
100
AcDbCircle
 10
272.169173
 20
103.382638
 30
0.0
 40
5.0
100
AcDbArc
 50
197.099431
 51
236.5
  0
ARC
  5
1AE
330
1F
100
AcDbEntity
  8
GR1-1
  6
CONTINUOUS
 62
     3
100
AcDbCircle
 10
272.169173
 20
103.382638
 30
0.0
 40
7.0
100
AcDbArc
 50
197.099431
 51
236.5
  0
ARC
  5
1AF
330
1F
100
AcDbEntity
  8
GR1-1
  6
CONTINUOUS
 62
     3
100
AcDbCircle
 10
251.141663
 20
96.913959
 30
0.0
 40
15.0
100
AcDbArc
 50
17.099431
 51
95.900569
  0
ARC
  5
1B0
330
1F
100
AcDbEntity
  8
GR1-1
  6
CONTINUOUS
 62
     3
100
AcDbCircle
 10
249.325347
 20
120.137753
 30
0.0
 40
20.0
100
AcDbArc
 50
171.219422
 51
243.197853
  0
LINE
  5
1B1
330
1F
100
AcDbEntity
  8
GR1-1
  6
CONTINUOUS
 62
     6
100
AcDbLine
 10
268.513782
 20
89.814711
 30
0.0
 11
268.356863
 21
87.820876
 31
0.0
  0
LINE
  5
1B2
330
1F
100
AcDbEntity
  8
GR1-1
  6
CONTINUOUS
 62
     6
100
AcDbLine
 10
272.842991
 20
87.46781
 30
0.0
 11
272.96068
 21
88.963186
 31
0.0
  0
LINE
  5
1B3
330
1F
100
AcDbEntity
  8
GR1-1
  6
CONTINUOUS
 62
     6
100
AcDbLine
 10
277.486038
 20
89.108579
 30
0.0
 11
277.329119
 21
87.114744
 31
0.0
  0
LINE
  5
1B4
330
1F
100
AcDbEntity
  8
LAYERGROUP-1
  6
CONTINUOUS
 62
     6
100
AcDbLine
 10
265.50916
 20
101.227591
 30
0.0
 11
257.466114
 21
89.075874
 31
0.0
  0
LINE
  5
1B5
330
1F
100
AcDbEntity
  8
GR1-1
  6
CONTINUOUS
 62
     6
100
AcDbLine
 10
251.55714
 20
94.381434
 30
0.0
 11
251.363655
 21
95.537656
 31
0.0
  0
LINE
  5
1B6
330
1F
100
AcDbEntity
  8
GR1-1
  6
CONTINUOUS
 62
     6
100
AcDbLine
 10
258.165253
 20
95.487253
 30
0.0
 11
257.971768
 21
96.643475
 31
0.0
  0
ARC
  5
1B7
330
1F
100
AcDbEntity
  8
LAYERGROUP-1
  6
CONTINUOUS
 62
     6
100
AcDbCircle
 10
252.831111
 20
107.065656
 30
0.0
 40
3.35
100
AcDbArc
 50
9.5
 51
189.5
  0
ARC
  5
1B8
330
1F
100
AcDbEntity
  8
LAYERGROUP-1
  6
CONTINUOUS
 62
     6
100
AcDbCircle
 10
254.861197
 20
94.934344
 30
0.0
 40
3.35
100
AcDbArc
 50
-170.5
 51
9.5
  0
LINE
  5
1B9
330
1F
100
AcDbEntity
  8
GR1-1
  6
CONTINUOUS
 62
     6
100
AcDbLine
 10
249.72054
 20
105.356525
 30
0.0
 11
249.527054
 21
106.512747
 31
0.0
  0
LINE
  5
1BA
330
1F
100
AcDbEntity
  8
GR1-1
  6
CONTINUOUS
 62
     6
100
AcDbLine
 10
256.328653
 20
106.462344
 30
0.0
 11
256.135168
 21
107.618566
 31
0.0
  0
LINE
  5
1BB
330
1F
100
AcDbEntity
  8
GR1-1
  6
CONTINUOUS
 62
     3
100
AcDbLine
 10
229.559743
 20
212.102985
 30
0.0
 11
240.267378
 21
212.102985
 31
0.0
  0
TEXT
  5
1BC
330
1F
100
AcDbEntity
  8
LAYERGROUP-1
  6
CONTINUOUS
 62
     7
100
AcDbText
 10
281.944366
 20
204.499863
 30
0.0
 40
5.295918
  1
 FF
 50
250.0
 41
0.976486
  7
FX_VECTOR
 72
     5
 11
277.227783
 21
191.541156
 31
0.0
100
AcDbText
  0
TEXT
  5
1BD
330
1F
100
AcDbEntity
  8
LAYERGROUP-1
  6
CONTINUOUS
 62
     7
100
AcDbText
 10
231.146362
 20
207.756088
 30
0.0
 40
5.043719
  1
ON
 50
272.0
 41
1.004119
  7
FX_VECTOR
 72
     5
 11
231.483026
 21
198.115307
 31
0.0
100
AcDbText
  0
ARC
  5
1BE
330
1F
100
AcDbEntity
  8
LAYERGROUP-1
  6
CONTINUOUS
 62
     3
100
AcDbCircle
 10
233.973703
 20
204.838898
 30
0.0
 40
8.5
100
AcDbArc
 50
121.284595
 51
180.0
  0
ARC
  5
1BF
330
1F
100
AcDbEntity
  8
LAYERGROUP-1
  6
CONTINUOUS
 62
     3
100
AcDbCircle
 10
233.973703
 20
203.602985
 30
0.0
 40
8.5
100
AcDbArc
 50
180.0
 51
273.72305
  0
LINE
  5
1C0
330
1F
100
AcDbEntity
  8
LAYERGROUP-1
  6
CONTINUOUS
 62
     3
100
AcDbLine
 10
225.473703
 20
204.838898
 30
0.0
 11
225.473703
 21
203.602985
 31
0.0
  0
ARC
  5
1C1
330
1F
100
AcDbEntity
  8
LAYERGROUP-1
  6
CONTINUOUS
 62
     3
100
AcDbCircle
 10
235.077577
 20
205.637421
 30
0.0
 40
8.5
100
AcDbArc
 50
130.478064
 51
180.0
  0
ARC
  5
1C2
330
1F
100
AcDbEntity
  8
LAYERGROUP-1
  6
CONTINUOUS
 62
     3
100
AcDbCircle
 10
235.077577
 20
203.602985
 30
0.0
 40
8.5
100
AcDbArc
 50
180.0
 51
305.566009
  0
LINE
  5
1C3
330
1F
100
AcDbEntity
  8
LAYERGROUP-1
  6
CONTINUOUS
 62
     3
100
AcDbLine
 10
226.577577
 20
205.637421
 30
0.0
 11
226.577577
 21
203.602985
 31
0.0
  0
LINE
  5
1C4
330
1F
100
AcDbEntity
  8
LAYERGROUP-1
  6
CONTINUOUS
 62
     3
100
AcDbLine
 10
246.725041
 20
201.481931
 30
0.0
 11
240.021521
 21
196.688694
 31
0.0
  0
ARC
  5
1C5
330
1F
100
AcDbEntity
  8
LAYERGROUP-1
  6
CONTINUOUS
 62
     3
100
AcDbCircle
 10
280.452236
 20
197.402985
 30
0.0
 40
8.5
100
AcDbArc
 50
208.80277
 51
360.0
  0
LINE
  5
1C6
330
1F
100
AcDbEntity
  8
LAYERGROUP-1
  6
CONTINUOUS
 62
     3
100
AcDbLine
 10
268.552907
 20
201.402985
 30
0.0
 11
273.003827
 21
193.307719
 31
0.0
  0
ARC
  5
1C7
330
1F
100
AcDbEntity
  8
LAYERGROUP-1
  6
CONTINUOUS
 62
     3
100
AcDbCircle
 10
280.452236
 20
197.630372
 30
0.0
 40
8.5
100
AcDbArc
 50
0.0
 51
26.348946
  0
LINE
  5
1C8
330
1F
100
AcDbEntity
  8
LAYERGROUP-1
  6
CONTINUOUS
 62
     3
100
AcDbLine
 10
288.952236
 20
197.630372
 30
0.0
 11
288.952236
 21
197.402985
 31
0.0
  0
ARC
  5
1C9
330
1F
100
AcDbEntity
  8
LAYERGROUP-1
  6
CONTINUOUS
 62
     3
100
AcDbCircle
 10
155.071123
 20
111.895261
 30
0.0
 40
14.0
100
AcDbArc
 50
70.284009
 51
126.21341
  0
ARC
  5
1CA
330
1F
100
AcDbEntity
  8
LAYERGROUP-1
  6
CONTINUOUS
 62
     3
100
AcDbCircle
 10
158.782061
 20
122.250402
 30
0.0
 40
3.0
100
AcDbArc
 50
-52.585914
 51
70.284009
  0
LINE
  5
1CB
330
1F
100
AcDbEntity
  8
LAYERGROUP-1
  6
CONTINUOUS
 62
     6
100
AcDbLine
 10
152.8
 20
113.897364
 30
0.0
 11
146.8
 21
113.897364
 31
0.0
  0
LINE
  5
1CC
330
1F
100
AcDbEntity
  8
LAYERGROUP-1
  6
CONTINUOUS
 62
     3
100
AcDbLine
 10
152.8
 20
113.897364
 30
0.0
 11
160.604775
 21
119.867606
 31
0.0
  0
ARC
  5
1CD
330
1F
100
AcDbEntity
  8
LAYERGROUP-1
  6
CONTINUOUS
 62
     3
100
AcDbCircle
 10
154.963989
 20
113.563033
 30
0.0
 40
14.0
100
AcDbArc
 50
69.690114
 51
131.792421
  0
ARC
  5
1CE
330
1F
100
AcDbEntity
  8
LAYERGROUP-1
  6
CONTINUOUS
 62
     3
100
AcDbCircle
 10
158.782061
 20
123.879152
 30
0.0
 40
3.0
100
AcDbArc
 50
0.0
 51
69.690114
  0
LINE
  5
1CF
330
1F
100
AcDbEntity
  8
LAYERGROUP-1
  6
CONTINUOUS
 62
     3
100
AcDbLine
 10
161.782061
 20
123.879152
 30
0.0
 11
161.782061
 21
122.250402
 31
0.0
  0
ARC
  5
1D0
330
1F
100
AcDbEntity
  8
LAYERGROUP-1
  6
CONTINUOUS
 62
     3
100
AcDbCircle
 10
147.3
 20
122.13702
 30
0.0
 40
2.5
100
AcDbArc
 50
131.792421
 51
180.0
  0
LINE
  5
1D1
330
1F
100
AcDbEntity
  8
LAYERGROUP-1
  6
CONTINUOUS
 62
     6
100
AcDbLine
 10
144.8
 20
102.286375
 30
0.0
 11
146.8
 21
102.286375
 31
0.0
  0
LINE
  5
1D2
330
1F
100
AcDbEntity
  8
LAYERGROUP-1
  6
CONTINUOUS
 62
     3
100
AcDbLine
 10
146.8
 20
123.19077
 30
0.0
 11
146.8
 21
89.005304
 31
0.0
  0
LINE
  5
1D3
330
1F
100
AcDbEntity
  8
GR1-1
  6
CONTINUOUS
 62
     3
100
AcDbLine
 10
149.3
 20
107.061554
 30
0.0
 11
149.3
 21
105.6
 31
0.0
  0
LINE
  5
1D4
330
1F
100
AcDbEntity
  8
GR1-1
  6
CONTINUOUS
 62
     3
100
AcDbLine
 10
149.3
 20
96.4
 30
0.0
 11
149.3
 21
94.938446
 31
0.0
  0
ARC
  5
1D5
330
1F
100
AcDbEntity
  8
LAYERGROUP-1
  6
CONTINUOUS
 62
     3
100
AcDbCircle
 10
149.722517
 20
99.874403
 30
0.0
 40
3.5
100
AcDbArc
 50
213.383657
 51
263.066392
  0
ARC
  5
1D6
330
1F
100
AcDbEntity
  8
LAYERGROUP-1
  6
CONTINUOUS
 62
     3
100
AcDbCircle
 10
150.224887
 20
102.224414
 30
0.0
 40
3.5
100
AcDbArc
 50
105.322598
 51
168.108391
  0
ARC
  5
1D7
330
1F
100
AcDbEntity
  8
LAYERGROUP-1
  6
CONTINUOUS
 62
     3
100
AcDbCircle
 10
145.8
 20
107.061554
 30
0.0
 40
3.5
100
AcDbArc
 50
0.0
 51
73.39845
  0
ARC
  5
1D8
330
1F
100
AcDbEntity
  8
LAYERGROUP-1
  6
CONTINUOUS
 62
     3
100
AcDbCircle
 10
145.8
 20
94.938446
 30
0.0
 40
3.5
100
AcDbArc
 50
286.60155
 51
360.0
  0
LINE
  5
1D9
330
1F
100
AcDbEntity
  8
LAYERGROUP-1
  6
CONTINUOUS
 62
     3
100
AcDbLine
 10
152.8
 20
113.897364
 30
0.0
 11
152.8
 21
102.858624
 31
0.0
  0
LINE
  5
1DA
330
1F
100
AcDbEntity
  8
LAYERGROUP-1
  6
CONTINUOUS
 62
     6
100
AcDbLine
 10
155.361402
 20
100.594963
 30
0.0
 11
152.3
 21
100.594963
 31
0.0
  0
ARC
  5
1DB
330
1F
100
AcDbEntity
  8
LAYERGROUP-1
  6
CONTINUOUS
 62
     3
100
AcDbCircle
 10
144.512353
 20
111.027935
 30
0.0
 40
6.0
100
AcDbArc
 50
87.252118
 51
119.038167
  0
ARC
  5
1DC
330
1F
100
AcDbEntity
  8
LAYERGROUP-1
  6
CONTINUOUS
 62
     3
100
AcDbCircle
 10
144.512353
 20
109.360164
 30
0.0
 40
6.0
100
AcDbArc
 50
87.252118
 51
119.038167
  0
LINE
  5
1DD
330
1F
100
AcDbEntity
  8
LAYERGROUP-1
  6
CONTINUOUS
 62
     3
100
AcDbLine
 10
141.6
 20
116.273715
 30
0.0
 11
141.6
 21
113.090323
 31
0.0
  0
LINE
  5
1DE
330
1F
100
AcDbEntity
  8
LAYERGROUP-1
  6
CONTINUOUS
 62
     3
100
AcDbLine
 10
141.6
 20
113.090323
 30
0.0
 11
144.8
 21
113.090323
 31
0.0
  0
LINE
  5
1DF
330
1F
100
AcDbEntity
  8
LAYERGROUP-1
  6
CONTINUOUS
 62
     3
100
AcDbLine
 10
144.8
 20
89.005304
 30
0.0
 11
146.8
 21
89.005304
 31
0.0
  0
LINE
  5
1E0
330
1F
100
AcDbEntity
  8
LAYERGROUP-1
  6
CONTINUOUS
 62
     3
100
AcDbLine
 10
153.571963
 20
87.314866
 30
0.0
 11
149.70935
 21
95.250448
 31
0.0
  0
ARC
  5
1E1
330
1F
100
AcDbEntity
  8
LAYERGROUP-1
  6
CONTINUOUS
 62
     3
100
AcDbCircle
 10
159.714731
 20
98.610374
 30
0.0
 40
14.0
100
AcDbArc
 50
242.891584
 51
298.716692
  0
ARC
  5
1E2
330
1F
100
AcDbEntity
  8
LAYERGROUP-1
  6
CONTINUOUS
 62
     3
100
AcDbCircle
 10
165.0
 20
88.963306
 30
0.0
 40
3.0
100
AcDbArc
 50
-61.283308
 51
50.619887
  0
LINE
  5
1E3
330
1F
100
AcDbEntity
  8
LAYERGROUP-1
  6
CONTINUOUS
 62
     3
100
AcDbLine
 10
152.8
 20
102.858624
 30
0.0
 11
166.903387
 21
91.282168
 31
0.0
  0
ARC
  5
1E4
330
1F
100
AcDbEntity
  8
LAYERGROUP-1
  6
CONTINUOUS
 62
     3
100
AcDbCircle
 10
150.571963
 20
87.316291
 30
0.0
 40
3.0
100
AcDbArc
 50
270.0
 51
359.972775
  0
ARC
  5
1E5
330
1F
100
AcDbEntity
  8
LAYERGROUP-1
  6
CONTINUOUS
 62
     3
100
AcDbCircle
 10
150.241354
 20
89.806346
 30
0.0
 40
5.5
100
AcDbArc
 50
188.37457
 51
273.446173
  0
ARC
  5
1E6
330
1F
100
AcDbEntity
  8
LAYERGROUP-1
  6
CONTINUOUS
 62
     3
100
AcDbCircle
 10
151.293206
 20
88.758116
 30
0.0
 40
4.5
100
AcDbArc
 50
176.851123
 51
260.777077
  0
LINE
  5
1E7
330
1F
100
AcDbEntity
  8
LAYERGROUP-1
  6
CONTINUOUS
 62
     3
100
AcDbLine
 10
149.3
 20
106.5
 30
0.0
 11
149.3
 21
95.5
 31
0.0
  0
LINE
  5
1E8
330
1F
100
AcDbEntity
  8
LAYERGROUP-1
  6
CONTINUOUS
 62
     3
100
AcDbLine
 10
148.092724
 20
105.0
 30
0.0
 11
149.3
 21
105.0
 31
0.0
  0
LINE
  5
1E9
330
1F
100
AcDbEntity
  8
LAYERGROUP-1
  6
CONTINUOUS
 62
     3
100
AcDbLine
 10
148.092724
 20
97.0
 30
0.0
 11
149.3
 21
97.0
 31
0.0
  0
LINE
  5
1EA
330
1F
100
AcDbEntity
  8
LAYERGROUP-1
  6
CONTINUOUS
 62
     3
100
AcDbLine
 10
142.5
 20
116.680407
 30
0.0
 11
142.5
 21
129.91
 31
0.0
  0
LINE
  5
1EB
330
1F
100
AcDbEntity
  8
LAYERGROUP-1
  6
CONTINUOUS
 62
     7
100
AcDbLine
 10
285.733841
 20
201.402985
 30
0.0
 11
285.737244
 21
201.372468
 31
0.0
  0
LINE
  5
1EC
330
1F
100
AcDbEntity
  8
LAYERGROUP-1
  6
CONTINUOUS
 62
     7
100
AcDbLine
 10
285.737244
 20
201.372468
 30
0.0
 11
285.39981
 21
200.445234
 31
0.0
  0
LINE
  5
1ED
330
1F
100
AcDbEntity
  8
LAYERGROUP-1
  6
CONTINUOUS
 62
     7
100
AcDbLine
 10
285.39981
 20
200.445234
 30
0.0
 11
284.863886
 21
199.941635
 31
0.0
  0
LINE
  5
1EE
330
1F
100
AcDbEntity
  8
LAYERGROUP-1
  6
CONTINUOUS
 62
     7
100
AcDbLine
 10
284.863886
 20
199.941635
 30
0.0
 11
284.131739
 21
199.860537
 31
0.0
  0
LINE
  5
1EF
330
1F
100
AcDbEntity
  8
LAYERGROUP-1
  6
CONTINUOUS
 62
     7
100
AcDbLine
 10
284.131739
 20
199.860537
 30
0.0
 11
281.954015
 21
200.653365
 31
0.0
  0
LINE
  5
1F0
330
1F
100
AcDbEntity
  8
LAYERGROUP-1
  6
CONTINUOUS
 62
     7
100
AcDbLine
 10
281.954015
 20
200.653365
 30
0.0
 11
281.44361
 21
201.188155
 31
0.0
  0
LINE
  5
1F1
330
1F
100
AcDbEntity
  8
LAYERGROUP-1
  6
CONTINUOUS
 62
     7
100
AcDbLine
 10
281.44361
 20
201.188155
 30
0.0
 11
281.417523
 21
201.402985
 31
0.0
  0
LINE
  5
1F2
330
1F
100
AcDbEntity
  8
LAYERGROUP-1
  6
CONTINUOUS
 62
     7
100
AcDbLine
 10
112.5
 20
115.479354
 30
0.0
 11
112.5
 21
109.499978
 31
0.0
  0
LINE
  5
1F3
330
1F
100
AcDbEntity
  8
LAYERGROUP-1
  6
CONTINUOUS
 62
     7
100
AcDbLine
 10
110.5
 20
105.25
 30
0.0
 11
110.5
 21
87.459545
 31
0.0
  0
LINE
  5
1F4
330
1F
100
AcDbEntity
  8
LAYERGROUP-1
  6
CONTINUOUS
 62
     7
100
AcDbLine
 10
112.5
 20
109.499978
 30
0.0
 11
110.600871
 21
107.872174
 31
0.0
  0
ARC
  5
1F5
330
1F
100
AcDbEntity
  8
LAYERGROUP-1
  6
CONTINUOUS
 62
     7
100
AcDbCircle
 10
113.584219
 20
104.391557
 30
0.0
 40
4.584218714584087
100
AcDbArc
 50
130.600926
 51
227.717197
  0
ARC
  5
1F6
330
1F
100
AcDbEntity
  8
LAYERGROUP-1
  6
CONTINUOUS
 62
     7
100
AcDbCircle
 10
112.5
 20
87.459545
 30
0.0
 40
2.0
100
AcDbArc
 50
180.0
 51
262.874354
  0
ARC
  5
1F7
330
1F
100
AcDbEntity
  8
LAYERGROUP-1
  6
CONTINUOUS
 62
     7
100
AcDbCircle
 10
113.584219
 20
104.391557
 30
0.0
 40
3.484218714584087
100
AcDbArc
 50
129.736801
 51
207.72427
  0
LINE
  5
1F8
330
1F
100
AcDbEntity
  8
LAYERGROUP-1
  6
CONTINUOUS
 62
     7
100
AcDbLine
 10
112.5
 20
109.499978
 30
0.0
 11
110.5
 21
105.25
 31
0.0
  0
ARC
  5
1F9
330
1F
100
AcDbEntity
  8
LAYERGROUP-1
  6
CONTINUOUS
 62
     7
100
AcDbCircle
 10
114.0
 20
115.479354
 30
0.0
 40
1.5
100
AcDbArc
 50
111.305784
 51
180.0
  0
LINE
  5
1FA
330
1F
100
AcDbEntity
  8
LAYERGROUP-1
  6
CONTINUOUS
 62
     7
100
AcDbLine
 10
114.5
 20
117.284393
 30
0.0
 11
113.454982
 21
116.876836
 31
0.0
  0
LINE
  5
1FB
330
1F
100
AcDbEntity
  8
LAYERGROUP-1
  6
CONTINUOUS
 62
     7
100
AcDbLine
 10
114.5
 20
85.193955
 30
0.0
 11
112.251909
 21
85.474992
 31
0.0
  0
LINE
  5
1FC
330
1F
100
AcDbEntity
  8
LAYERGROUP-1
  6
CONTINUOUS
 62
     3
100
AcDbLine
 10
110.5
 20
107.783113
 30
0.0
 11
110.5
 21
129.91
 31
0.0
  0
LINE
  5
1FD
330
1F
100
AcDbEntity
  8
LAYERGROUP-1
  6
CONTINUOUS
 62
     7
100
AcDbLine
 10
112.0
 20
85.523053
 30
0.0
 11
112.0
 21
46.5
 31
0.0
  0
DIMENSION
  5
1FE
330
1F
100
AcDbEntity
  8
LAYERGROUP-1
100
AcDbDimension
  2
*D28
 10
139.5
 20
53.553377
 30
0.0
 11
127.000008
 21
54.553375
 31
0.0
 70
    33
  3
FXDIMINFO
100
AcDbAlignedDimension
 13
114.5
 23
71.979458
 33
0.0
 14
139.5
 24
71.979458
 34
0.0
1001
ACAD
1000
DSTYLE
1002
{
1070
     7
1000
FXTIP_ARROW_E
1070
     6
1000
FXTIP_ARROW_S
1070
   173
1070
     1
1002
}
  0
DIMENSION
  5
208
330
1F
100
AcDbEntity
  8
LAYERGROUP-1
100
AcDbDimension
  2
*D29
 10
142.0
 20
42.842536
 30
0.0
 11
127.000008
 21
43.842537
 31
0.0
 70
    32
  3
FXDIMINFO
100
AcDbAlignedDimension
 13
112.0
 23
47.5
 33
0.0
 14
142.0
 24
90.0
 34
0.0
 50
180.0
100
AcDbRotatedDimension
1001
ACAD
1000
DSTYLE
1002
{
1070
     7
1000
FXTIP_ARROW_E
1070
     6
1000
FXTIP_ARROW_S
1070
   173
1070
     1
1002
}
  0
LINE
  5
212
330
1F
100
AcDbEntity
  8
LAYERGROUP-1
  6
CENTER
 62
     6
100
AcDbLine
 10
105.5
 20
150.818777
 30
0.0
 11
105.5
 21
143.258449
 31
0.0
  0
LINE
  5
213
330
1F
100
AcDbEntity
  8
LAYERGROUP-1
  6
CENTER
 62
     6
100
AcDbLine
 10
147.5
 20
150.818777
 30
0.0
 11
147.5
 21
143.258449
 31
0.0
  0
ARC
  5
214
330
1F
100
AcDbEntity
  8
LAYERGROUP-1
  6
CONTINUOUS
 62
     3
100
AcDbCircle
 10
296.646154
 20
137.41
 30
0.0
 40
3.0
100
AcDbArc
 50
0.0
 51
90.0
  0
ARC
  5
215
330
1F
100
AcDbEntity
  8
LAYERGROUP-1
  6
CONTINUOUS
 62
     3
100
AcDbCircle
 10
253.046154
 20
137.41
 30
0.0
 40
3.0
100
AcDbArc
 50
90.0
 51
177.57719
  0
LINE
  5
216
330
1F
100
AcDbEntity
  8
LAYERGROUP-1
  6
CONTINUOUS
 62
     3
100
AcDbLine
 10
253.046154
 20
140.41
 30
0.0
 11
296.646154
 21
140.41
 31
0.0
  0
LINE
  5
217
330
1F
100
AcDbEntity
  8
LAYERGROUP-1
  6
CONTINUOUS
 62
     3
100
AcDbLine
 10
299.646154
 20
137.41
 30
0.0
 11
299.821154
 21
133.41
 31
0.0
  0
LINE
  5
218
330
1F
100
AcDbEntity
  8
LAYERGROUP-1
  6
CONTINUOUS
 62
     3
100
AcDbLine
 10
249.946154
 20
135.11
 30
0.0
 11
251.457072
 21
135.11
 31
0.0
  0
LINE
  5
219
330
1F
100
AcDbEntity
  8
LAYERGROUP-1
  6
CONTINUOUS
 62
     3
100
AcDbLine
 10
249.946154
 20
135.11
 30
0.0
 11
250.048836
 21
137.53682
 31
0.0
  0
LINE
  5
21A
330
1F
100
AcDbEntity
  8
GR1-1
  6
CONTINUOUS
 62
     3
100
AcDbLine
 10
239.846154
 20
146.2
 30
0.0
 11
239.846154
 21
148.5
 31
0.0
  0
LINE
  5
21B
330
1F
100
AcDbEntity
  8
GR1-1
  6
CONTINUOUS
 62
     3
100
AcDbLine
 10
239.846154
 20
148.5
 30
0.0
 11
309.846154
 21
148.5
 31
0.0
  0
LINE
  5
21C
330
1F
100
AcDbEntity
  8
GR1-1
  6
CONTINUOUS
 62
     3
100
AcDbLine
 10
309.846154
 20
146.2
 30
0.0
 11
239.846154
 21
146.2
 31
0.0
  0
ARC
  5
21D
330
1F
100
AcDbEntity
  8
LAYERGROUP-1
  6
CONTINUOUS
 62
     3
100
AcDbCircle
 10
246.346154
 20
144.7
 30
0.0
 40
1.5
100
AcDbArc
 50
19.980982
 51
90.0
  0
ARC
  5
21E
330
1F
100
AcDbEntity
  8
LAYERGROUP-1
  6
CONTINUOUS
 62
     3
100
AcDbCircle
 10
251.546154
 20
144.9
 30
0.0
 40
3.0
100
AcDbArc
 50
231.96215
 51
270.0
  0
ARC
  5
21F
330
1F
100
AcDbEntity
  8
LAYERGROUP-1
  6
CONTINUOUS
 62
     3
100
AcDbCircle
 10
253.3947
 20
147.262812
 30
0.0
 40
6.0
100
AcDbArc
 50
199.980982
 51
231.96215
  0
LINE
  5
220
330
1F
100
AcDbEntity
  8
GR1-1
  6
CONTINUOUS
 62
     3
100
AcDbLine
 10
309.846154
 20
146.2
 30
0.0
 11
309.846154
 21
148.5
 31
0.0
  0
ARC
  5
221
330
1F
100
AcDbEntity
  8
LAYERGROUP-1
  6
CONTINUOUS
 62
     3
100
AcDbCircle
 10
298.146154
 20
144.9
 30
0.0
 40
3.0
100
AcDbArc
 50
270.0
 51
308.03785
  0
ARC
  5
222
330
1F
100
AcDbEntity
  8
LAYERGROUP-1
  6
CONTINUOUS
 62
     3
100
AcDbCircle
 10
296.297608
 20
147.262812
 30
0.0
 40
6.0
100
AcDbArc
 50
308.03785
 51
340.019018
  0
LINE
  5
223
330
1F
100
AcDbEntity
  8
LAYERGROUP-1
  6
CONTINUOUS
 62
     3
100
AcDbLine
 10
298.146154
 20
141.9
 30
0.0
 11
251.546154
 21
141.9
 31
0.0
  0
ARC
  5
224
330
1F
100
AcDbEntity
  8
LAYERGROUP-1
  6
CONTINUOUS
 62
     3
100
AcDbCircle
 10
303.346154
 20
144.7
 30
0.0
 40
1.5
100
AcDbArc
 50
90.0
 51
160.019018
  0
ARC
  5
225
330
1F
100
AcDbEntity
  8
LAYERGROUP-1
  6
CONTINUOUS
 62
     3
100
AcDbCircle
 10
274.846154
 20
141.985
 30
0.0
 40
3.175
100
AcDbArc
 50
330.26013
 51
358.466464
  0
ARC
  5
226
330
1F
100
AcDbEntity
  8
LAYERGROUP-1
  6
CONTINUOUS
 62
     3
100
AcDbCircle
 10
281.092568
 20
141.985
 30
0.0
 40
3.175
100
AcDbArc
 50
330.26013
 51
358.466464
  0
ARC
  5
227
330
1F
100
AcDbEntity
  8
LAYERGROUP-1
  6
CONTINUOUS
 62
     3
100
AcDbCircle
 10
286.530467
 20
141.985
 30
0.0
 40
3.175
100
AcDbArc
 50
330.26013
 51
358.466464
  0
ARC
  5
228
330
1F
100
AcDbEntity
  8
LAYERGROUP-1
  6
CONTINUOUS
 62
     3
100
AcDbCircle
 10
290.455984
 20
141.985
 30
0.0
 40
3.175
100
AcDbArc
 50
330.26013
 51
358.465914
  0
ARC
  5
229
330
1F
100
AcDbEntity
  8
LAYERGROUP-1
  6
CONTINUOUS
 62
     3
100
AcDbCircle
 10
292.361013
 20
141.985
 30
0.0
 40
3.175
100
AcDbArc
 50
330.26013
 51
360.0
  0
ARC
  5
22A
330
1F
100
AcDbEntity
  8
LAYERGROUP-1
  6
CONTINUOUS
 62
     3
100
AcDbCircle
 10
281.092568
 20
141.985
 30
0.0
 40
3.175
100
AcDbArc
 50
190.36316
 51
209.73987
  0
ARC
  5
22B
330
1F
100
AcDbEntity
  8
LAYERGROUP-1
  6
CONTINUOUS
 62
     3
100
AcDbCircle
 10
274.846154
 20
141.985
 30
0.0
 40
3.175
100
AcDbArc
 50
181.533536
 51
209.73987
  0
ARC
  5
22C
330
1F
100
AcDbEntity
  8
LAYERGROUP-1
  6
CONTINUOUS
 62
     3
100
AcDbCircle
 10
268.599739
 20
141.985
 30
0.0
 40
3.175
100
AcDbArc
 50
181.533536
 51
209.73987
  0
ARC
  5
22D
330
1F
100
AcDbEntity
  8
LAYERGROUP-1
  6
CONTINUOUS
 62
     3
100
AcDbCircle
 10
263.161841
 20
141.985
 30
0.0
 40
3.175
100
AcDbArc
 50
181.533536
 51
209.73987
  0
ARC
  5
22E
330
1F
100
AcDbEntity
  8
LAYERGROUP-1
  6
CONTINUOUS
 62
     3
100
AcDbCircle
 10
259.236324
 20
141.985
 30
0.0
 40
3.175
100
AcDbArc
 50
181.534086
 51
209.73987
  0
ARC
  5
22F
330
1F
100
AcDbEntity
  8
LAYERGROUP-1
  6
CONTINUOUS
 62
     3
100
AcDbCircle
 10
257.331294
 20
141.985
 30
0.0
 40
3.175
100
AcDbArc
 50
180.0
 51
209.73987
  0
ARC
  5
230
330
1F
100
AcDbEntity
  8
LAYERGROUP-1
  6
CONTINUOUS
 62
     3
100
AcDbCircle
 10
268.599739
 20
141.985
 30
0.0
 40
3.175
100
AcDbArc
 50
330.26013
 51
349.63684
  0
ARC
  5
231
330
1F
100
AcDbEntity
  8
LAYERGROUP-1
  6
CONTINUOUS
 62
     6
100
AcDbCircle
 10
253.747741
 20
137.809292
 30
0.0
 40
2.5
100
AcDbArc
 50
270.0
 51
360.0
  0
LINE
  5
232
330
1F
100
AcDbEntity
  8
LAYERGROUP-1
  6
CONTINUOUS
 62
     6
100
AcDbLine
 10
251.457072
 20
135.11
 30
0.0
 11
253.747741
 21
135.309292
 31
0.0
  0
ARC
  5
233
330
1F
100
AcDbEntity
  8
LAYERGROUP-1
  6
CONTINUOUS
 62
     6
100
AcDbCircle
 10
255.131212
 20
135.393433
 30
0.0
 40
4.0
100
AcDbArc
 50
88.33131
 51
157.719464
  0
ARC
  5
234
330
1F
100
AcDbEntity
  8
LAYERGROUP-1
  6
CONTINUOUS
 62
     6
100
AcDbCircle
 10
255.247741
 20
138.393433
 30
0.0
 40
1.0
100
AcDbArc
 50
0.0
 51
90.0
  0
LINE
  5
235
330
1F
100
AcDbEntity
  8
LAYERGROUP-1
  6
CONTINUOUS
 62
     6
100
AcDbLine
 10
256.247741
 20
138.393433
 30
0.0
 11
256.247741
 21
137.809292
 31
0.0
  0
LINE
  5
236
330
1F
100
AcDbEntity
  8
LAYERGROUP-1
  6
CONTINUOUS
 62
     6
100
AcDbLine
 10
251.429857
 20
136.91
 30
0.0
 11
251.429857
 21
135.11
 31
0.0
  0
LINE
  5
237
330
1F
100
AcDbEntity
  8
LAYERGROUP-1
  6
CENTER
 62
     6
100
AcDbLine
 10
302.346154
 20
151.411404
 30
0.0
 11
302.346154
 21
143.258449
 31
0.0
  0
LINE
  5
238
330
1F
100
AcDbEntity
  8
LAYERGROUP-1
  6
CENTER
 62
     6
100
AcDbLine
 10
247.346154
 20
151.411404
 30
0.0
 11
247.346154
 21
143.258449
 31
0.0
  0
LINE
  5
239
330
1F
100
AcDbEntity
  8
LAYERGROUP-1
  6
CONTINUOUS
 62
     3
100
AcDbLine
 10
297.521154
 20
133.41
 30
0.0
 11
299.821154
 21
133.41
 31
0.0
  0
ARC
  5
23A
330
1F
100
AcDbEntity
  8
LAYERGROUP-1
  6
CENTER
 62
     7
100
AcDbCircle
 10
274.846154
 20
230.402985
 30
0.0
 40
57.37532363652262
100
AcDbArc
 50
189.557868
 51
228.521188
  0
DIMENSION
  5
23B
330
1F
100
AcDbEntity
  8
LAYERGROUP-1
100
AcDbDimension
  2
*D30
 10
274.846154
 20
230.402985
 30
0.0
 11
209.744186
 21
214.220505
 31
0.0
 70
   164
  3
FXDIMINFO
100
AcDbRadialDimension
 15
219.377754
 25
215.73382
 35
0.0
 40
0.0
  0
INSERT
  5
246
330
1F
100
AcDbEntity
  8
0
100
AcDbBlockReference
  2
BLKF033
 10
0.0
 20
0.0
 30
0.0
  0
LINE
  5
271
330
1F
100
AcDbEntity
  8
GR1-1
  6
CONTINUOUS
 62
     3
100
AcDbLine
 10
142.0
 20
101.0
 30
0.0
 11
142.0
 21
110.1609
 31
0.0
  0
ARC
  5
272
330
1F
100
AcDbEntity
  8
GR1-1
  6
CONTINUOUS
 62
     3
100
AcDbCircle
 10
141.0
 20
110.1609
 30
0.0
 40
1.0
100
AcDbArc
 50
0.0
 51
80.0
  0
LINE
  5
273
330
1F
100
AcDbEntity
  8
GR1-1
  6
CONTINUOUS
 62
     3
100
AcDbLine
 10
141.173648
 20
111.145708
 30
0.0
 11
139.5
 21
111.440817
 31
0.0
  0
LINE
  5
274
330
1F
100
AcDbEntity
  8
GR1-1
  6
CONTINUOUS
 62
     3
100
AcDbLine
 10
139.5
 20
122.8391
 30
0.0
 11
139.5
 21
130.790038
 31
0.0
  0
ARC
  5
275
330
1F
100
AcDbEntity
  8
GR1-1
  6
CONTINUOUS
 62
     3
100
AcDbCircle
 10
137.5
 20
130.790038
 30
0.0
 40
2.0
100
AcDbArc
 50
0.0
 51
82.26362
  0
ARC
  5
276
330
1F
100
AcDbEntity
  8
GR1-1
  6
CONTINUOUS
 62
     3
100
AcDbCircle
 10
127.0
 20
53.5
 30
0.0
 40
80.0
100
AcDbArc
 50
82.26362
 51
97.73638
  0
ARC
  5
277
330
1F
100
AcDbEntity
  8
GR1-1
  6
CONTINUOUS
 62
     3
100
AcDbCircle
 10
116.5
 20
130.790038
 30
0.0
 40
2.0
100
AcDbArc
 50
97.73638
 51
180.0
  0
LINE
  5
278
330
1F
100
AcDbEntity
  8
GR1-1
  6
CONTINUOUS
 62
     3
100
AcDbLine
 10
114.5
 20
130.790038
 30
0.0
 11
114.5
 21
122.8391
 31
0.0
  0
LINE
  5
279
330
1F
100
AcDbEntity
  8
GR1-1
  6
CONTINUOUS
 62
     3
100
AcDbLine
 10
114.5
 20
122.8391
 30
0.0
 11
114.5
 21
101.0
 31
0.0
  0
LINE
  5
27A
330
1F
100
AcDbEntity
  8
GR1-1
  6
CONTINUOUS
 62
     3
100
AcDbLine
 10
139.5
 20
101.0
 30
0.0
 11
139.5
 21
122.8391
 31
0.0
  0
LINE
  5
27B
330
1F
100
AcDbEntity
  8
GR1-1
  6
CONTINUOUS
 62
     3
100
AcDbLine
 10
142.0
 20
101.0
 30
0.0
 11
142.0
 21
91.8391
 31
0.0
  0
ARC
  5
27C
330
1F
100
AcDbEntity
  8
GR1-1
  6
CONTINUOUS
 62
     3
100
AcDbCircle
 10
141.0
 20
91.8391
 30
0.0
 40
1.0
100
AcDbArc
 50
280.0
 51
360.0
  0
LINE
  5
27D
330
1F
100
AcDbEntity
  8
GR1-1
  6
CONTINUOUS
 62
     3
100
AcDbLine
 10
141.173648
 20
90.854292
 30
0.0
 11
139.5
 21
90.559183
 31
0.0
  0
LINE
  5
27E
330
1F
100
AcDbEntity
  8
GR1-1
  6
CONTINUOUS
 62
     3
100
AcDbLine
 10
139.5
 20
79.1609
 30
0.0
 11
139.5
 21
71.209962
 31
0.0
  0
ARC
  5
27F
330
1F
100
AcDbEntity
  8
GR1-1
  6
CONTINUOUS
 62
     3
100
AcDbCircle
 10
137.5
 20
71.209962
 30
0.0
 40
2.0
100
AcDbArc
 50
277.73638
 51
360.0
  0
ARC
  5
280
330
1F
100
AcDbEntity
  8
GR1-1
  6
CONTINUOUS
 62
     3
100
AcDbCircle
 10
127.0
 20
148.5
 30
0.0
 40
80.0
100
AcDbArc
 50
262.26362
 51
277.73638
  0
ARC
  5
281
330
1F
100
AcDbEntity
  8
GR1-1
  6
CONTINUOUS
 62
     3
100
AcDbCircle
 10
116.5
 20
71.209962
 30
0.0
 40
2.0
100
AcDbArc
 50
180.0
 51
262.26362
  0
LINE
  5
282
330
1F
100
AcDbEntity
  8
GR1-1
  6
CONTINUOUS
 62
     3
100
AcDbLine
 10
114.5
 20
71.209962
 30
0.0
 11
114.5
 21
79.1609
 31
0.0
  0
LINE
  5
283
330
1F
100
AcDbEntity
  8
GR1-1
  6
CONTINUOUS
 62
     3
100
AcDbLine
 10
114.5
 20
79.1609
 30
0.0
 11
114.5
 21
101.0
 31
0.0
  0
LINE
  5
284
330
1F
100
AcDbEntity
  8
GR1-1
  6
CONTINUOUS
 62
     3
100
AcDbLine
 10
139.5
 20
101.0
 30
0.0
 11
139.5
 21
79.1609
 31
0.0
  0
ARC
  5
285
330
1F
100
AcDbEntity
  8
GR1-1
  6
CONTINUOUS
 62
     3
100
AcDbCircle
 10
253.846154
 20
101.0
 30
0.0
 40
26.0
100
AcDbArc
 50
101.048599
 51
130.652556
  0
ARC
  5
286
330
1F
100
AcDbEntity
  8
GR1-1
  6
CONTINUOUS
 62
     3
100
AcDbCircle
 10
253.846154
 20
101.0
 30
0.0
 40
32.5
100
AcDbArc
 50
95.835251
 51
133.881312
  0
ARC
  5
287
330
1F
100
AcDbEntity
  8
GR1-1
  6
CONTINUOUS
 62
     6
100
AcDbCircle
 10
253.846154
 20
101.0
 30
0.0
 40
21.0
100
AcDbArc
 50
106.290492
 51
126.739132
  0
INSERT
  5
28B
330
1F
100
AcDbEntity
  8
0
100
AcDbBlockReference
  2
BLKF036
 10
0.0
 20
0.0
 30
0.0
  0
LINE
  5
2E3
330
1F
100
AcDbEntity
  8
GR1-1
  6
CONTINUOUS
 62
     3
100
AcDbLine
 10
242.868195
 20
76.330902
 30
0.0
 11
239.941807
 21
77.856109
 31
0.0
  0
LINE
  5
2E4
330
1F
100
AcDbEntity
  8
GR1-1
  6
CONTINUOUS
 62
     3
100
AcDbLine
 10
239.941807
 20
77.856109
 30
0.0
 11
238.4166
 21
74.929722
 31
0.0
  0
LINE
  5
2E5
330
1F
100
AcDbEntity
  8
GR1-1
  6
CONTINUOUS
 62
     3
100
AcDbLine
 10
238.4166
 20
74.929722
 30
0.0
 11
241.342987
 21
73.404514
 31
0.0
  0
LINE
  5
2E6
330
1F
100
AcDbEntity
  8
GR1-1
  6
CONTINUOUS
 62
     3
100
AcDbLine
 10
241.342987
 20
73.404514
 30
0.0
 11
242.868195
 21
76.330902
 31
0.0
  0
LINE
  5
2E7
330
1F
100
AcDbEntity
  8
GR1-1
  6
CONTINUOUS
 62
     3
100
AcDbLine
 10
242.02191
 20
74.911322
 30
0.0
 11
239.923408
 21
74.250799
 31
0.0
  0
LINE
  5
2E8
330
1F
100
AcDbEntity
  8
GR1-1
  6
CONTINUOUS
 62
     3
100
AcDbLine
 10
239.923408
 20
74.250799
 30
0.0
 11
239.332944
 21
76.126721
 31
0.0
  0
LINE
  5
2E9
330
1F
100
AcDbEntity
  8
GR1-1
  6
CONTINUOUS
 62
     3
100
AcDbLine
 10
239.332944
 20
76.126721
 30
0.0
 11
240.0227
 21
75.767227
 31
0.0
  0
LINE
  5
2EA
330
1F
100
AcDbEntity
  8
GR1-1
  6
CONTINUOUS
 62
     3
100
AcDbLine
 10
240.0227
 20
75.767227
 30
0.0
 11
240.282903
 21
74.940556
 31
0.0
  0
LINE
  5
2EB
330
1F
100
AcDbEntity
  8
GR1-1
  6
CONTINUOUS
 62
     3
100
AcDbLine
 10
240.282903
 20
74.940556
 30
0.0
 11
241.332153
 21
75.270817
 31
0.0
  0
LINE
  5
2EC
330
1F
100
AcDbEntity
  8
GR1-1
  6
CONTINUOUS
 62
     3
100
AcDbLine
 10
241.332153
 20
75.270817
 30
0.0
 11
241.001892
 21
76.320068
 31
0.0
  0
LINE
  5
2ED
330
1F
100
AcDbEntity
  8
GR1-1
  6
CONTINUOUS
 62
     3
100
AcDbLine
 10
241.001892
 20
76.320068
 30
0.0
 11
240.450263
 21
76.146437
 31
0.0
  0
ARC
  5
2EE
330
1F
100
AcDbEntity
  8
GR1-1
  6
CONTINUOUS
 62
     3
100
AcDbCircle
 10
240.466776
 20
76.093975
 30
0.0
 40
0.055
100
AcDbArc
 50
107.471873
 51
242.471873
  0
LINE
  5
2EF
330
1F
100
AcDbEntity
  8
GR1-1
  6
CONTINUOUS
 62
     3
100
AcDbLine
 10
240.441356
 20
76.045202
 30
0.0
 11
240.769498
 21
75.874177
 31
0.0
  0
LINE
  5
2F0
330
1F
100
AcDbEntity
  8
GR1-1
  6
CONTINUOUS
 62
     3
100
AcDbLine
 10
240.769498
 20
75.874177
 30
0.0
 11
240.642397
 21
75.630312
 31
0.0
  0
LINE
  5
2F1
330
1F
100
AcDbEntity
  8
GR1-1
  6
CONTINUOUS
 62
     3
100
AcDbLine
 10
240.642397
 20
75.630312
 30
0.0
 11
239.262885
 21
76.349301
 31
0.0
  0
LINE
  5
2F2
330
1F
100
AcDbEntity
  8
GR1-1
  6
CONTINUOUS
 62
     3
100
AcDbLine
 10
239.262885
 20
76.349301
 30
0.0
 11
239.77747
 21
77.336626
 31
0.0
  0
LINE
  5
2F3
330
1F
100
AcDbEntity
  8
GR1-1
  6
CONTINUOUS
 62
     3
100
AcDbLine
 10
239.77747
 20
77.336626
 30
0.0
 11
240.265201
 21
77.082424
 31
0.0
  0
LINE
  5
2F4
330
1F
100
AcDbEntity
  8
GR1-1
  6
CONTINUOUS
 62
     3
100
AcDbLine
 10
240.265201
 20
77.082424
 30
0.0
 11
240.066187
 21
76.70058
 31
0.0
  0
ARC
  5
2F5
330
1F
100
AcDbEntity
  8
GR1-1
  6
CONTINUOUS
 62
     3
100
AcDbCircle
 10
240.11496
 20
76.67516
 30
0.0
 40
0.055
100
AcDbArc
 50
152.471873
 51
287.471873
  0
LINE
  5
2F6
330
1F
100
AcDbEntity
  8
GR1-1
  6
CONTINUOUS
 62
     3
100
AcDbLine
 10
240.131473
 20
76.622697
 30
0.0
 11
241.361387
 21
77.009824
 31
0.0
  0
LINE
  5
2F7
330
1F
100
AcDbEntity
  8
GR1-1
  6
CONTINUOUS
 62
     3
100
AcDbLine
 10
241.361387
 20
77.009824
 30
0.0
 11
242.02191
 21
74.911322
 31
0.0
  0
TEXT
  5
2F8
330
1F
100
AcDbEntity
  8
LAYERGROUP-1
  6
CONTINUOUS
 62
     7
100
AcDbText
 10
236.86705
 20
80.300789
 30
0.0
 40
3.909615
  1
G
 50
135.471878
 41
1.476526
  7
FX_VECTOR
 72
     5
 11
233.339601
 21
83.770609
 31
0.0
100
AcDbText
  0
TEXT
  5
2F9
330
1F
100
AcDbEntity
  8
LAYERGROUP-1
  6
CONTINUOUS
 62
     7
100
AcDbText
 10
233.683548
 20
83.387016
 30
0.0
 40
3.909615
  1
O
 50
125.97187
 41
1.398814
  7
FX_VECTOR
 72
     5
 11
230.777161
 21
87.391447
 31
0.0
100
AcDbText
  0
TEXT
  5
2FA
330
1F
100
AcDbEntity
  8
LAYERGROUP-1
  6
CONTINUOUS
 62
     7
100
AcDbText
 10
231.687363
 20
85.975517
 30
0.0
 40
3.909615
  1
L
 50
118.97187
 41
1.661092
  7
FX_VECTOR
 72
     5
 11
229.290657
 21
90.304299
 31
0.0
100
AcDbText
  0
TEXT
  5
2FB
330
1F
100
AcDbEntity
  8
LAYERGROUP-1
  6
CONTINUOUS
 62
     7
100
AcDbText
 10
229.51149
 20
89.838814
 30
0.0
 40
3.909615
  1
D
 50
109.47187
 41
1.476526
  7
FX_VECTOR
 72
     5
 11
227.862109
 21
94.503799
 31
0.0
100
AcDbText
  0
TEXT
  5
2FC
330
1F
100
AcDbEntity
  8
LAYERGROUP-1
  6
CONTINUOUS
 62
     7
100
AcDbText
 10
227.53421
 20
96.057449
 30
0.0
 40
3.909615
  1
C
 50
95.471863
 41
1.476526
  7
FX_VECTOR
 72
     5
 11
227.062386
 21
100.982886
 31
0.0
100
AcDbText
  0
TEXT
  5
2FD
330
1F
100
AcDbEntity
  8
LAYERGROUP-1
  6
CONTINUOUS
 62
     7
100
AcDbText
 10
227.102386
 20
99.767464
 30
0.0
 40
3.909615
  1
A
 50
87.471863
 41
1.563381
  7
FX_VECTOR
 72
     5
 11
227.320642
 21
104.710632
 31
0.0
100
AcDbText
  0
TEXT
  5
2FE
330
1F
100
AcDbEntity
  8
LAYERGROUP-1
  6
CONTINUOUS
 62
     7
100
AcDbText
 10
227.265747
 20
104.198349
 30
0.0
 40
3.909615
  1
S
 50
77.971863
 41
1.563381
  7
FX_VECTOR
 72
     5
 11
228.296868
 21
109.037702
 31
0.0
100
AcDbText
  0
TEXT
  5
2FF
330
1F
100
AcDbEntity
  8
LAYERGROUP-1
  6
CONTINUOUS
 62
     7
100
AcDbText
 10
228.030426
 20
108.092064
 30
0.0
 40
3.909615
  1
T
 50
69.47187
 41
1.771831
  7
FX_VECTOR
 72
     5
 11
229.765522
 21
112.725852
 31
0.0
100
AcDbText
  0
TEXT
  5
300
330
1F
100
AcDbEntity
  8
LAYERGROUP-1
  6
CONTINUOUS
 62
     7
100
AcDbText
 10
229.362289
 20
111.829964
 30
0.0
 40
3.909615
  1
E
 50
60.97187
 41
1.563381
  7
FX_VECTOR
 72
     5
 11
231.763244
 21
116.15639
 31
0.0
100
AcDbText
  0
TEXT
  5
301
330
1F
100
AcDbEntity
  8
LAYERGROUP-1
  6
CONTINUOUS
 62
     7
100
AcDbText
 10
280.230499
 20
105.60817
 30
0.0
 40
3.909615
  1
2
 50
274.471863
 41
1.563381
  7
FX_VECTOR
 72
     5
 11
280.616291
 21
100.675248
 31
0.0
100
AcDbText
  0
TEXT
  5
302
330
1F
100
AcDbEntity
  8
LAYERGROUP-1
  6
CONTINUOUS
 62
     7
100
AcDbText
 10
277.938232
 20
112.702194
 30
0.0
 40
3.909615
  1
5
 50
290.471863
 41
1.563381
  7
FX_VECTOR
 72
     5
 11
279.668777
 21
108.066705
 31
0.0
100
AcDbText
  0
TEXT
  5
303
330
1F
100
AcDbEntity
  8
LAYERGROUP-1
  6
CONTINUOUS
 62
     7
100
AcDbText
 10
276.075165
 20
115.941284
 30
0.0
 40
3.909615
  1
6
 50
298.471863
 41
1.563381
  7
FX_VECTOR
 72
     5
 11
278.434003
 21
111.591752
 31
0.0
100
AcDbText
  0
TEXT
  5
304
330
1F
100
AcDbEntity
  8
LAYERGROUP-1
  6
CONTINUOUS
 62
     7
100
AcDbText
 10
280.615112
 20
101.891327
 30
0.0
 40
3.909615
  1
5
 50
266.471863
 41
1.563381
  7
FX_VECTOR
 72
     5
 11
280.31062
 21
96.952721
 31
0.0
100
AcDbText
  0
TEXT
  5
305
330
1F
100
AcDbEntity
  8
LAYERGROUP-1
  6
CONTINUOUS
 62
     7
100
AcDbText
 10
279.332428
 20
109.235359
 30
0.0
 40
3.909615
  1
X
 50
282.471863
 41
1.563381
  7
FX_VECTOR
 72
     5
 11
280.400995
 21
104.404137
 31
0.0
100
AcDbText
  0
ARC
  5
306
330
1F
100
AcDbEntity
  8
GR1-1
  6
CONTINUOUS
 62
     6
100
AcDbCircle
 10
253.846154
 20
101.0
 30
0.0
 40
21.0
100
AcDbArc
 50
162.103282
 51
310.896718
  0
ARC
  5
307
330
1F
100
AcDbEntity
  8
GR1-1
  6
CONTINUOUS
 62
     3
100
AcDbCircle
 10
253.846154
 20
101.0
 30
0.0
 40
26.0
100
AcDbArc
 50
152.894349
 51
320.105651
  0
ARC
  5
308
330
1F
100
AcDbEntity
  8
GR1-1
  6
CONTINUOUS
 62
     3
100
AcDbCircle
 10
253.846154
 20
101.0
 30
0.0
 40
32.5
100
AcDbArc
 50
138.609476
 51
334.390524
  0
ARC
  5
309
330
1F
100
AcDbEntity
  8
GR1-1
  6
CONTINUOUS
 62
     3
100
AcDbCircle
 10
253.846154
 20
101.0
 30
0.0
 40
32.5
100
AcDbArc
 50
-20.881312
 51
36.175592
  0
ARC
  5
30A
330
1F
100
AcDbEntity
  8
GR1-1
  6
CONTINUOUS
 62
     3
100
AcDbCircle
 10
253.846154
 20
101.0
 30
0.0
 40
26.0
100
AcDbArc
 50
-17.652556
 51
31.732474
  0
ARC
  5
30B
330
1F
100
AcDbEntity
  8
GR1-1
  6
CONTINUOUS
 62
     6
100
AcDbCircle
 10
253.846154
 20
101.0
 30
0.0
 40
21.0
100
AcDbArc
 50
-13.739132
 51
26.256577
  0
LINE
  5
30C
330
1F
100
AcDbEntity
  8
GR1-1
  6
CONTINUOUS
 62
     3
100
AcDbLine
 10
232.007054
 20
242.402985
 30
0.0
 11
224.056116
 21
242.402985
 31
0.0
  0
ARC
  5
30D
330
1F
100
AcDbEntity
  8
GR1-1
  6
CONTINUOUS
 62
     3
100
AcDbCircle
 10
224.056116
 20
240.402985
 30
0.0
 40
2.0
100
AcDbArc
 50
90.0
 51
172.26362
  0
ARC
  5
30E
330
1F
100
AcDbEntity
  8
GR1-1
  6
CONTINUOUS
 62
     3
100
AcDbCircle
 10
301.346154
 20
229.902985
 30
0.0
 40
80.0
100
AcDbArc
 50
172.26362
 51
187.73638
  0
ARC
  5
30F
330
1F
100
AcDbEntity
  8
GR1-1
  6
CONTINUOUS
 62
     3
100
AcDbCircle
 10
224.056116
 20
219.402985
 30
0.0
 40
2.0
100
AcDbArc
 50
187.73638
 51
270.0
  0
LINE
  5
310
330
1F
100
AcDbEntity
  8
GR1-1
  6
CONTINUOUS
 62
     3
100
AcDbLine
 10
224.056116
 20
217.402985
 30
0.0
 11
232.007054
 21
217.402985
 31
0.0
  0
LINE
  5
311
330
1F
100
AcDbEntity
  8
GR1-1
  6
CONTINUOUS
 62
     3
100
AcDbLine
 10
232.007054
 20
217.402985
 30
0.0
 11
241.325246
 21
217.402985
 31
0.0
  0
LINE
  5
312
330
1F
100
AcDbEntity
  8
GR1-1
  6
CONTINUOUS
 62
     3
100
AcDbLine
 10
241.483442
 20
242.402985
 30
0.0
 11
232.007054
 21
242.402985
 31
0.0
  0
ENDSEC
  0
SECTION
  2
OBJECTS
  0
DICTIONARY
  5
C
330
0
100
AcDbDictionary
  3
ACAD_GROUP
350
D
  3
ACAD_LAYOUT
350
1A
  3
ACAD_MLINESTYLE
350
17
  3
ACAD_PLOTSETTINGS
350
19
  3
ACDBHEADERROUNDTRIPXREC
350
313
  0
DICTIONARY
  5
D
102
{ACAD_REACTORS
330
C
102
}
330
C
100
AcDbDictionary
  0
DICTIONARY
  5
1A
102
{ACAD_REACTORS
330
C
102
}
330
C
100
AcDbDictionary
  0
DICTIONARY
  5
17
102
{ACAD_REACTORS
330
C
102
}
330
C
100
AcDbDictionary
  3
STANDARD
350
18
  0
DICTIONARY
  5
19
102
{ACAD_REACTORS
330
C
102
}
330
C
100
AcDbDictionary
  0
DICTIONARY
  5
313
102
{ACAD_REACTORS
330
C
102
}
330
C
100
AcDbDictionary
  3
CEPSNTYPE
350
31C
  3
DIMSTYLEDATA
350
332
  3
FINGERPRINTGUID
350
31D
  3
HYPERLINKBASE
350
316
  3
INSUNITS
350
31B
  3
LAYOUTDICT
350
318
  3
LWETCUNION
350
31A
  3
PLOTSETDICT
350
319
  3
PSVPSCALE
350
31F
  3
PUCSBASE
350
322
  3
PUCSORGBACK
350
328
  3
PUCSORGBOTTOM
350
324
  3
PUCSORGFRONT
350
327
  3
PUCSORGLEFT
350
325
  3
PUCSORGRIGHT
350
326
  3
PUCSORGTOP
350
323
  3
PUCSORTHOREF
350
320
  3
PUCSORTHOVIEW
350
321
  3
STYLESHEET
350
317
  3
TSTACKALIGN
350
314
  3
TSTACKSIZE
350
315
  3
UCSBASE
350
32B
  3
UCSORGBACK
350
331
  3
UCSORGBOTTOM
350
32D
  3
UCSORGFRONT
350
330
  3
UCSORGLEFT
350
32E
  3
UCSORGRIGHT
350
32F
  3
UCSORGTOP
350
32C
  3
UCSORTHOREF
350
329
  3
UCSORTHOVIEW
350
32A
  3
VERSIONGUID
350
31E
  0
MLINESTYLE
  5
18
102
{ACAD_REACTORS
330
17
102
}
330
17
100
AcDbMlineStyle
  2
Standard
 70
     0
  3

 62
   256
 51
90.0
 52
90.0
 71
     2
 49
0.5
 62
   256
  6
BYLAYER
 49
-0.5
 62
   256
  6
BYLAYER
  0
XRECORD
  5
31C
102
{ACAD_REACTORS
330
313
102
}
330
313
100
AcDbXrecord
 90
        0
  0
XRECORD
  5
332
102
{ACAD_REACTORS
330
313
102
}
330
313
100
AcDbXrecord
1000
DSTYLE
1002
{
1070
   179
 70
     2
1070
   171
 70
     3
1070
   143
 40
0.03937
1070
   274
 70
     3
1070
    41
 40
4.0
1070
   343
340
41
1070
   344
340
47
1070
   141
 40
2.5
1070
   176
 70
     7
1070
   177
 70
     7
1070
   178
 70
     7
1070
   271
 70
     2
1070
    46
 40
6.0
1070
    43
 40
10.0
1070
    44
 40
1.0
1070
    42
 40
1.0
1070
   147
 40
1.0
1070
   341
340
41
1070
   173
 70
     1
1070
    77
 70
     1
1070
   272
 70
     2
1070
    73
 70
     0
1070
   172
 70
     1
1070
    74
 70
     0
1070
   283
 70
     0
1070
   340
340
3F
1070
   140
 40
4.0
1070
   284
 70
     8
1070
    78
 70
     8
1002
}
  0
XRECORD
  5
31D
102
{ACAD_REACTORS
330
313
102
}
330
313
100
AcDbXrecord
  1
{CC09774C-BA8B-4BCD-A734-4465960A1A6D}
  0
XRECORD
  5
316
102
{ACAD_REACTORS
330
313
102
}
330
313
100
AcDbXrecord
  1

  0
XRECORD
  5
31B
102
{ACAD_REACTORS
330
313
102
}
330
313
100
AcDbXrecord
 90
        1
  0
XRECORD
  5
318
102
{ACAD_REACTORS
330
313
102
}
330
313
100
AcDbXrecord
340
1A
  0
XRECORD
  5
31A
102
{ACAD_REACTORS
330
313
102
}
330
313
100
AcDbXrecord
 90
    10781
  0
XRECORD
  5
319
102
{ACAD_REACTORS
330
313
102
}
330
313
100
AcDbXrecord
340
19
  0
XRECORD
  5
31F
102
{ACAD_REACTORS
330
313
102
}
330
313
100
AcDbXrecord
 40
0.0
  0
XRECORD
  5
322
102
{ACAD_REACTORS
330
313
102
}
330
313
100
AcDbXrecord
340
0
  0
XRECORD
  5
328
102
{ACAD_REACTORS
330
313
102
}
330
313
100
AcDbXrecord
 10
0.0
 20
0.0
 30
0.0
  0
XRECORD
  5
324
102
{ACAD_REACTORS
330
313
102
}
330
313
100
AcDbXrecord
 10
0.0
 20
0.0
 30
0.0
  0
XRECORD
  5
327
102
{ACAD_REACTORS
330
313
102
}
330
313
100
AcDbXrecord
 10
0.0
 20
0.0
 30
0.0
  0
XRECORD
  5
325
102
{ACAD_REACTORS
330
313
102
}
330
313
100
AcDbXrecord
 10
0.0
 20
0.0
 30
0.0
  0
XRECORD
  5
326
102
{ACAD_REACTORS
330
313
102
}
330
313
100
AcDbXrecord
 10
0.0
 20
0.0
 30
0.0
  0
XRECORD
  5
323
102
{ACAD_REACTORS
330
313
102
}
330
313
100
AcDbXrecord
 10
0.0
 20
0.0
 30
0.0
  0
XRECORD
  5
320
102
{ACAD_REACTORS
330
313
102
}
330
313
100
AcDbXrecord
340
0
  0
XRECORD
  5
321
102
{ACAD_REACTORS
330
313
102
}
330
313
100
AcDbXrecord
 70
     0
  0
XRECORD
  5
317
102
{ACAD_REACTORS
330
313
102
}
330
313
100
AcDbXrecord
  1

  0
XRECORD
  5
314
102
{ACAD_REACTORS
330
313
102
}
330
313
100
AcDbXrecord
 90
        1
  0
XRECORD
  5
315
102
{ACAD_REACTORS
330
313
102
}
330
313
100
AcDbXrecord
 90
       70
  0
XRECORD
  5
32B
102
{ACAD_REACTORS
330
313
102
}
330
313
100
AcDbXrecord
340
0
  0
XRECORD
  5
331
102
{ACAD_REACTORS
330
313
102
}
330
313
100
AcDbXrecord
 10
0.0
 20
0.0
 30
0.0
  0
XRECORD
  5
32D
102
{ACAD_REACTORS
330
313
102
}
330
313
100
AcDbXrecord
 10
0.0
 20
0.0
 30
0.0
  0
XRECORD
  5
330
102
{ACAD_REACTORS
330
313
102
}
330
313
100
AcDbXrecord
 10
0.0
 20
0.0
 30
0.0
  0
XRECORD
  5
32E
102
{ACAD_REACTORS
330
313
102
}
330
313
100
AcDbXrecord
 10
0.0
 20
0.0
 30
0.0
  0
XRECORD
  5
32F
102
{ACAD_REACTORS
330
313
102
}
330
313
100
AcDbXrecord
 10
0.0
 20
0.0
 30
0.0
  0
XRECORD
  5
32C
102
{ACAD_REACTORS
330
313
102
}
330
313
100
AcDbXrecord
 10
0.0
 20
0.0
 30
0.0
  0
XRECORD
  5
329
102
{ACAD_REACTORS
330
313
102
}
330
313
100
AcDbXrecord
340
0
  0
XRECORD
  5
32A
102
{ACAD_REACTORS
330
313
102
}
330
313
100
AcDbXrecord
 70
     0
  0
XRECORD
  5
31E
102
{ACAD_REACTORS
330
313
102
}
330
313
100
AcDbXrecord
  1
{FAEB1C32-E019-11D5-929B-00C0DF256EC4}
  0
ENDSEC
  0
EOF
