  0
SECTION
  2
HEADER
  9
$ACADVER
  1
AC1014
  9
$ACADMAINTVER
 70
     9
  9
$DWGCODEPAGE
  3
ANSI_932
  9
$INSBASE
 10
0.0
 20
0.0
 30
0.0
  9
$EXTMIN
 10
0.0
 20
0.0
 30
0.0
  9
$EXTMAX
 10
594.0
 20
420.0
 30
0.0
  9
$LIMMIN
 10
0.0
 20
0.0
  9
$LIMMAX
 10
594.0
 20
420.0
  9
$ORTHOMODE
 70
     0
  9
$REGENMODE
 70
     1
  9
$FILLMODE
 70
     1
  9
$QTEXTMODE
 70
     0
  9
$MIRRTEXT
 70
     1
  9
$DRAGMODE
 70
     2
  9
$LTSCALE
 40
1.0
  9
$OSMODE
 70
    37
  9
$ATTMODE
 70
     1
  9
$TEXTSIZE
 40
0.2
  9
$TRACEWID
 40
0.05
  9
$TEXTSTYLE
  7
STYLE1
  9
$CLAYER
  8
0
  9
$CELTYPE
  6
BYLAYER
  9
$CECOLOR
 62
   256
  9
$CELTSCALE
 40
1.0
  9
$DELOBJ
 70
     1
  9
$DISPSILH
 70
     0
  9
$DIMSCALE
 40
1.0
  9
$DIMASZ
 40
4.0
  9
$DIMEXO
 40
1.0
  9
$DIMDLI
 40
10.0
  9
$DIMRND
 40
0.0
  9
$DIMDLE
 40
6.0
  9
$DIMEXE
 40
1.0
  9
$DIMTP
 40
0.0
  9
$DIMTM
 40
0.0
  9
$DIMTXT
 40
4.0
  9
$DIMCEN
 40
2.5
  9
$DIMTSZ
 40
0.0
  9
$DIMTOL
 70
     0
  9
$DIMLIM
 70
     0
  9
$DIMTIH
 70
     0
  9
$DIMTOH
 70
     0
  9
$DIMSE1
 70
     0
  9
$DIMSE2
 70
     0
  9
$DIMTAD
 70
     1
  9
$DIMZIN
 70
     8
  9
$DIMBLK
  1

  9
$DIMASO
 70
     1
  9
$DIMSHO
 70
     1
  9
$DIMPOST
  1

  9
$DIMAPOST
  1

  9
$DIMALT
 70
     0
  9
$DIMALTD
 70
     3
  9
$DIMALTF
 40
0.03937
  9
$DIMLFAC
 40
1.0
  9
$DIMTOFL
 70
     1
  9
$DIMTVP
 40
0.0
  9
$DIMTIX
 70
     0
  9
$DIMSOXD
 70
     0
  9
$DIMSAH
 70
     1
  9
$DIMBLK1
  1
FXTIP_ARROW_S
  9
$DIMBLK2
  1
FXTIP_ARROW_E
  9
$DIMSTYLE
  2
FXDIMINFO
  9
$DIMCLRD
 70
     7
  9
$DIMCLRE
 70
     7
  9
$DIMCLRT
 70
     7
  9
$DIMTFAC
 40
1.0
  9
$DIMGAP
 40
1.0
  9
$DIMJUST
 70
     0
  9
$DIMSD1
 70
     0
  9
$DIMSD2
 70
     0
  9
$DIMTOLJ
 70
     0
  9
$DIMTZIN
 70
     8
  9
$DIMALTZ
 70
     0
  9
$DIMALTTZ
 70
     0
  9
$DIMFIT
 70
     3
  9
$DIMUPT
 70
     0
  9
$DIMUNIT
 70
     2
  9
$DIMDEC
 70
     2
  9
$DIMTDEC
 70
     2
  9
$DIMALTU
 70
     2
  9
$DIMALTTD
 70
     3
  9
$DIMTXSTY
  7
STYLE1
  9
$DIMAUNIT
 70
     0
  9
$LUNITS
 70
     2
  9
$LUPREC
 70
     4
  9
$SKETCHINC
 40
0.1
  9
$FILLETRAD
 40
0.5
  9
$AUNITS
 70
     0
  9
$AUPREC
 70
     0
  9
$MENU
  1
.
  9
$ELEVATION
 40
0.0
  9
$PELEVATION
 40
0.0
  9
$THICKNESS
 40
0.0
  9
$LIMCHECK
 70
     0
  9
$CHAMFERA
 40
0.5
  9
$CHAMFERB
 40
0.5
  9
$CHAMFERC
 40
1.0
  9
$CHAMFERD
 40
0.0
  9
$SKPOLY
 70
     0
  9
$TDCREATE
 40
2455307.802429028
  9
$TDUPDATE
 40
2455307.80242904
  9
$TDINDWG
 40
0.0000000116
  9
$TDUSRTIMER
 40
0.0000000116
  9
$USRTIMER
 70
     1
  9
$ANGBASE
 50
0.0
  9
$ANGDIR
 70
     0
  9
$PDMODE
 70
     0
  9
$PDSIZE
 40
0.0
  9
$PLINEWID
 40
0.0
  9
$COORDS
 70
     1
  9
$SPLFRAME
 70
     0
  9
$SPLINETYPE
 70
     6
  9
$SPLINESEGS
 70
     8
  9
$ATTDIA
 70
     0
  9
$ATTREQ
 70
     1
  9
$HANDLING
 70
     1
  9
$HANDSEED
  5
3FF
  9
$SURFTAB1
 70
     6
  9
$SURFTAB2
 70
     6
  9
$SURFTYPE
 70
     6
  9
$SURFU
 70
     6
  9
$SURFV
 70
     6
  9
$UCSNAME
  2

  9
$UCSORG
 10
0.0
 20
0.0
 30
0.0
  9
$UCSXDIR
 10
1.0
 20
0.0
 30
0.0
  9
$UCSYDIR
 10
0.0
 20
1.0
 30
0.0
  9
$PUCSNAME
  2

  9
$PUCSORG
 10
0.0
 20
0.0
 30
0.0
  9
$PUCSXDIR
 10
1.0
 20
0.0
 30
0.0
  9
$PUCSYDIR
 10
0.0
 20
1.0
 30
0.0
  9
$USERI1
 70
     0
  9
$USERI2
 70
     0
  9
$USERI3
 70
     0
  9
$USERI4
 70
     0
  9
$USERI5
 70
     0
  9
$USERR1
 40
0.0
  9
$USERR2
 40
0.0
  9
$USERR3
 40
0.0
  9
$USERR4
 40
0.0
  9
$USERR5
 40
0.0
  9
$WORLDVIEW
 70
     1
  9
$SHADEDGE
 70
     3
  9
$SHADEDIF
 70
    70
  9
$TILEMODE
 70
     1
  9
$MAXACTVP
 70
    64
  9
$PINSBASE
 10
0.0
 20
0.0
 30
0.0
  9
$PLIMCHECK
 70
     0
  9
$PEXTMIN
 10
1.000000E+20
 20
1.000000E+20
 30
1.000000E+20
  9
$PEXTMAX
 10
-1.000000E+20
 20
-1.000000E+20
 30
-1.000000E+20
  9
$PLIMMIN
 10
0.0
 20
0.0
  9
$PLIMMAX
 10
12.0
 20
9.0
  9
$UNITMODE
 70
     0
  9
$VISRETAIN
 70
     1
  9
$PLINEGEN
 70
     0
  9
$PSLTSCALE
 70
     1
  9
$TREEDEPTH
 70
  3020
  9
$PICKSTYLE
 70
     1
  9
$CMLSTYLE
  2
STANDARD
  9
$CMLJUST
 70
     0
  9
$CMLSCALE
 40
1.0
  9
$PROXYGRAPHICS
 70
     1
  9
$MEASUREMENT
 70
     0
  0
ENDSEC
  0
SECTION
  2
CLASSES
  0
CLASS
  1
ACDBDICTIONARYWDFLT
  2
AcDbDictionaryWithDefault
  3
ObjectDBX Classes
 90
        0
280
     0
281
     0
  0
CLASS
  1
XRECORD
  2
AcDbXrecord
  3
AutoCAD 2000
 90
        0
280
     0
281
     0
  0
CLASS
  1
LWPOLYLINE
  2
AcDbPolyline
  3
AutoCAD 2000
 90
        0
280
     0
281
     1
  0
CLASS
  1
HATCH
  2
AcDbHatch
  3
AutoCAD 2000
 90
        0
280
     0
281
     1
  0
CLASS
  1
ACDBPLACEHOLDER
  2
AcDbPlaceHolder
  3
ObjectDBX Classes
 90
        0
280
     0
281
     0
  0
CLASS
  1
LAYOUT
  2
AcDbLayout
  3
ObjectDBX Classes
 90
        0
280
     0
281
     0
  0
ENDSEC
  0
SECTION
  2
TABLES
  0
TABLE
  2
VPORT
  5
8
330
0
100
AcDbSymbolTable
 70
     1
  0
VPORT
  5
29
330
8
100
AcDbSymbolTableRecord
100
AcDbViewportTableRecord
  2
*ACTIVE
 70
     0
 10
0.0
 20
0.0
 11
1.0
 21
1.0
 12
297.0
 22
210.0
 13
0.0
 23
0.0
 14
0.5
 24
0.5
 15
0.5
 25
0.5
 16
0.0
 26
0.0
 36
1.0
 17
0.0
 27
0.0
 37
0.0
 40
420.0
 41
1.414286
 42
50.0
 43
0.0
 44
0.0
 50
0.0
 51
0.0
 71
     0
 72
   100
 73
     1
 74
     3
 75
     0
 76
     0
 77
     0
 78
     0
  0
ENDTAB
  0
TABLE
  2
LTYPE
  5
5
330
0
100
AcDbSymbolTable
 70
     4
  0
LTYPE
  5
14
330
5
100
AcDbSymbolTableRecord
100
AcDbLinetypeTableRecord
  2
BYBLOCK
 70
     0
  3

 72
    65
 73
     0
 40
0.0
  0
LTYPE
  5
15
330
5
100
AcDbSymbolTableRecord
100
AcDbLinetypeTableRecord
  2
BYLAYER
 70
     0
  3

 72
    65
 73
     0
 40
0.0
  0
LTYPE
  5
16
330
5
100
AcDbSymbolTableRecord
100
AcDbLinetypeTableRecord
  2
CONTINUOUS
 70
     0
  3
--------------------
 72
    65
 73
     0
 40
0.0
  0
LTYPE
  5
2A
330
5
100
AcDbSymbolTableRecord
100
AcDbLinetypeTableRecord
  2
CENTER
 70
     0
  3
Center ____ _ ____ _ ____ _ ____ _ ____ _ ____
 72
    65
 73
     4
 40
13.0
 49
10.0
 74
     0
 49
-1.0
 74
     0
 49
1.0
 74
     0
 49
-1.0
 74
     0
  0
ENDTAB
  0
TABLE
  2
LAYER
  5
2
330
0
100
AcDbSymbolTable
 70
    20
  0
LAYER
  5
10
330
2
100
AcDbSymbolTableRecord
100
AcDbLayerTableRecord
  2
0
 70
     0
 62
     7
  6
CONTINUOUS
  0
LAYER
  5
2D
330
2
100
AcDbSymbolTableRecord
100
AcDbLayerTableRecord
  2
LAYERGROUP-1
 70
     0
 62
     3
  6
CONTINUOUS
  0
LAYER
  5
3D
330
2
100
AcDbSymbolTableRecord
100
AcDbLayerTableRecord
  2
}}ﾊﾊGG血CCТ
 70
     0
 62
     3
  6
CONTINUOUS
  0
LAYER
  5
A9
330
2
100
AcDbSymbolTableRecord
100
AcDbLayerTableRecord
  2
GR1-1
 70
     0
 62
     7
  6
CONTINUOUS
  0
LAYER
  5
2EE
330
2
100
AcDbSymbolTableRecord
100
AcDbLayerTableRecord
  2
0-1
 70
     0
 62
     7
  6
CONTINUOUS
  0
ENDTAB
  0
TABLE
  2
STYLE
  5
3
330
0
100
AcDbSymbolTable
 70
     4
  0
STYLE
  5
11
330
3
100
AcDbSymbolTableRecord
100
AcDbTextStyleTableRecord
  2
STANDARD
 70
     0
 40
0.0
 41
1.0
 50
0.0
 71
     0
 42
0.2
  3
txt
  4

  0
STYLE
  5
3F
330
3
100
AcDbSymbolTableRecord
100
AcDbTextStyleTableRecord
  2
STYLE1
 70
     0
 40
0.0
 41
1.0
 50
0.0
 71
     0
 42
0.2
  3
MONOTXT.SHX
  4
extfont.shx
  0
STYLE
  5
40
330
3
100
AcDbSymbolTableRecord
100
AcDbTextStyleTableRecord
  2
FX_VECTOR
 70
     0
 40
0.0
 41
1.0
 50
0.0
 71
     0
 42
0.2
  3
MONOTXT.SHX
  4
BIGFONT.SHX
  0
ENDTAB
  0
TABLE
  2
VIEW
  5
6
330
0
100
AcDbSymbolTable
 70
     0
  0
ENDTAB
  0
TABLE
  2
UCS
  5
7
330
0
100
AcDbSymbolTable
 70
     0
  0
ENDTAB
  0
TABLE
  2
APPID
  5
9
330
0
100
AcDbSymbolTable
 70
     1
  0
APPID
  5
12
330
9
100
AcDbSymbolTableRecord
100
AcDbRegAppTableRecord
  2
ACAD
 70
     0
  0
ENDTAB
  0
TABLE
  2
DIMSTYLE
  5
A
330
0
100
AcDbSymbolTable
 70
     2
  0
DIMSTYLE
105
27
330
A
100
AcDbSymbolTableRecord
100
AcDbDimStyleTableRecord
  2
STANDARD
 70
     0
  3

  4

  5

  6

  7

 40
1.0
 41
0.18
 42
0.0625
 43
0.38
 44
0.18
 45
0.0
 46
0.0
 47
0.0
 48
0.0
140
0.18
141
0.09
142
0.0
143
25.4
144
1.0
145
0.0
146
1.0
147
0.09
 71
     0
 72
     0
 73
     1
 74
     1
 75
     0
 76
     0
 77
     0
 78
     0
170
     0
171
     2
172
     0
173
     0
174
     0
175
     0
176
     0
177
     0
178
     0
270
     2
271
     4
272
     4
273
     2
274
     2
340
11
275
     0
280
     0
281
     0
282
     0
283
     1
284
     0
285
     0
286
     0
287
     3
288
     0
  0
DIMSTYLE
105
A7
102
{ACAD_REACTORS
330
A8
330
B3
330
BD
330
C7
330
18D
330
197
330
1A0
330
20E
330
218
330
222
330
2D1
330
317
330
337
330
341
102
}
330
A
100
AcDbSymbolTableRecord
100
AcDbDimStyleTableRecord
  2
FXDIMINFO
 70
     0
  3

  4

  5

  6
FXTIP_ARROW_S
  7
FXTIP_ARROW_E
 40
1.0
 41
4.0
 42
1.0
 43
10.0
 44
1.0
 45
0.0
 46
6.0
 47
0.0
 48
0.0
140
4.0
141
2.5
142
0.0
143
0.03937
144
1.0
145
0.0
146
1.0
147
1.0
 71
     0
 72
     0
 73
     0
 74
     0
 75
     0
 76
     0
 77
     1
 78
     8
170
     0
171
     3
172
     1
173
     1
174
     0
175
     0
176
     7
177
     7
178
     7
179
     2
270
     2
271
     2
272
     2
273
     2
274
     3
340
3F
275
     0
280
     0
281
     0
282
     0
283
     0
284
     8
285
     0
286
     0
287
     3
288
     0
  0
ENDTAB
  0
TABLE
  2
BLOCK_RECORD
  5
1
330
0
100
AcDbSymbolTable
 70
    39
  0
BLOCK_RECORD
  5
1F
330
1
100
AcDbSymbolTableRecord
100
AcDbBlockTableRecord
  2
*MODEL_SPACE
  0
BLOCK_RECORD
  5
1B
330
1
100
AcDbSymbolTableRecord
100
AcDbBlockTableRecord
  2
*PAPER_SPACE
  0
BLOCK_RECORD
  5
41
330
1
100
AcDbSymbolTableRecord
100
AcDbBlockTableRecord
  2
FXTIP_ARROW_S
  0
BLOCK_RECORD
  5
47
330
1
100
AcDbSymbolTableRecord
100
AcDbBlockTableRecord
  2
FXTIP_ARROW_E
  0
BLOCK_RECORD
  5
4D
330
1
100
AcDbSymbolTableRecord
100
AcDbBlockTableRecord
  2
FXTIP_BLACKDOT_S
  0
BLOCK_RECORD
  5
53
330
1
100
AcDbSymbolTableRecord
100
AcDbBlockTableRecord
  2
FXTIP_BLACKDOT_E
  0
BLOCK_RECORD
  5
59
330
1
100
AcDbSymbolTableRecord
100
AcDbBlockTableRecord
  2
FXTIP_TRIANGLE_S
  0
BLOCK_RECORD
  5
60
330
1
100
AcDbSymbolTableRecord
100
AcDbBlockTableRecord
  2
FXTIP_TRIANGLE_E
  0
BLOCK_RECORD
  5
67
330
1
100
AcDbSymbolTableRecord
100
AcDbBlockTableRecord
  2
FXTIP_ARCHITECT_S
  0
BLOCK_RECORD
  5
6D
330
1
100
AcDbSymbolTableRecord
100
AcDbBlockTableRecord
  2
FXTIP_ARCHITECT_E
  0
BLOCK_RECORD
  5
73
330
1
100
AcDbSymbolTableRecord
100
AcDbBlockTableRecord
  2
FXTIP_CIVIL_S
  0
BLOCK_RECORD
  5
79
330
1
100
AcDbSymbolTableRecord
100
AcDbBlockTableRecord
  2
FXTIP_CIVIL_E
  0
BLOCK_RECORD
  5
7F
330
1
100
AcDbSymbolTableRecord
100
AcDbBlockTableRecord
  2
FXTIP_WHITEDOT_S
  0
BLOCK_RECORD
  5
84
330
1
100
AcDbSymbolTableRecord
100
AcDbBlockTableRecord
  2
FXTIP_WHITEDOT_E
  0
BLOCK_RECORD
  5
89
330
1
100
AcDbSymbolTableRecord
100
AcDbBlockTableRecord
  2
FXTIP_UPARROW_S
  0
BLOCK_RECORD
  5
8E
330
1
100
AcDbSymbolTableRecord
100
AcDbBlockTableRecord
  2
FXTIP_UPARROW_E
  0
BLOCK_RECORD
  5
93
330
1
100
AcDbSymbolTableRecord
100
AcDbBlockTableRecord
  2
FXTIP_DOWNARROW_S
  0
BLOCK_RECORD
  5
98
330
1
100
AcDbSymbolTableRecord
100
AcDbBlockTableRecord
  2
FXTIP_DOWNARROW_E
  0
BLOCK_RECORD
  5
9D
330
1
100
AcDbSymbolTableRecord
100
AcDbBlockTableRecord
  2
FXTIP_BLACKTRIANGLE_S
  0
BLOCK_RECORD
  5
A2
330
1
100
AcDbSymbolTableRecord
100
AcDbBlockTableRecord
  2
FXTIP_BLACKTRIANGLE_E
  0
BLOCK_RECORD
  5
AA
330
1
100
AcDbSymbolTableRecord
100
AcDbBlockTableRecord
  2
*D19
  0
BLOCK_RECORD
  5
B4
330
1
100
AcDbSymbolTableRecord
100
AcDbBlockTableRecord
  2
*D20
  0
BLOCK_RECORD
  5
BE
330
1
100
AcDbSymbolTableRecord
100
AcDbBlockTableRecord
  2
*D21
  0
BLOCK_RECORD
  5
C8
330
1
100
AcDbSymbolTableRecord
100
AcDbBlockTableRecord
  2
*D22
  0
BLOCK_RECORD
  5
179
330
1
100
AcDbSymbolTableRecord
100
AcDbBlockTableRecord
  2
BLKF025
  0
BLOCK_RECORD
  5
18E
330
1
100
AcDbSymbolTableRecord
100
AcDbBlockTableRecord
  2
*D24
  0
BLOCK_RECORD
  5
198
330
1
100
AcDbSymbolTableRecord
100
AcDbBlockTableRecord
  2
*D25
  0
BLOCK_RECORD
  5
1A1
330
1
100
AcDbSymbolTableRecord
100
AcDbBlockTableRecord
  2
*D26
  0
BLOCK_RECORD
  5
20F
330
1
100
AcDbSymbolTableRecord
100
AcDbBlockTableRecord
  2
*D27
  0
BLOCK_RECORD
  5
219
330
1
100
AcDbSymbolTableRecord
100
AcDbBlockTableRecord
  2
*D28
  0
BLOCK_RECORD
  5
223
330
1
100
AcDbSymbolTableRecord
100
AcDbBlockTableRecord
  2
*D29
  0
BLOCK_RECORD
  5
265
330
1
100
AcDbSymbolTableRecord
100
AcDbBlockTableRecord
  2
BLKF032
  0
BLOCK_RECORD
  5
2D2
330
1
100
AcDbSymbolTableRecord
100
AcDbBlockTableRecord
  2
*D31
  0
BLOCK_RECORD
  5
2DE
330
1
100
AcDbSymbolTableRecord
100
AcDbBlockTableRecord
  2
BLKF034
  0
BLOCK_RECORD
  5
2EA
330
1
100
AcDbSymbolTableRecord
100
AcDbBlockTableRecord
  2
BLKF035
  0
BLOCK_RECORD
  5
2F3
330
1
100
AcDbSymbolTableRecord
100
AcDbBlockTableRecord
  2
BLKF036
  0
BLOCK_RECORD
  5
318
330
1
100
AcDbSymbolTableRecord
100
AcDbBlockTableRecord
  2
*D35
  0
BLOCK_RECORD
  5
338
330
1
100
AcDbSymbolTableRecord
100
AcDbBlockTableRecord
  2
*D36
  0
BLOCK_RECORD
  5
342
330
1
100
AcDbSymbolTableRecord
100
AcDbBlockTableRecord
  2
*D37
  0
BLOCK_RECORD
  5
34B
330
1
100
AcDbSymbolTableRecord
100
AcDbBlockTableRecord
  2
BLKF040
  0
ENDTAB
  0
ENDSEC
  0
SECTION
  2
BLOCKS
  0
BLOCK
  5
20
330
1F
100
AcDbEntity
  8
0
100
AcDbBlockBegin
  2
*MODEL_SPACE
 70
     0
 71
     0
 10
0.0
 20
0.0
 30
0.0
  3
*MODEL_SPACE
  1

  0
ENDBLK
  5
21
330
1F
100
AcDbEntity
  8
0
100
AcDbBlockEnd
  0
BLOCK
  5
1C
330
1B
100
AcDbEntity
 67
     1
  8
0
100
AcDbBlockBegin
  2
*PAPER_SPACE
 70
     0
 71
     0
 10
0.0
 20
0.0
 30
0.0
  3
*PAPER_SPACE
  1

  0
ENDBLK
  5
1D
330
1B
100
AcDbEntity
 67
     1
  8
0
100
AcDbBlockEnd
  0
BLOCK
  5
42
330
41
100
AcDbEntity
  8
0
100
AcDbBlockBegin
  2
FXTIP_ARROW_S
 70
     0
 71
     0
 10
0.0
 20
0.0
 30
0.0
  3
FXTIP_ARROW_S
  1

  0
LINE
  5
44
330
41
100
AcDbEntity
  8
0
  6
CONTINUOUS
 62
     0
100
AcDbLine
 10
0.0
 20
0.0
 30
0.0
 11
-1.0
 21
0.0
 31
0.0
  0
LINE
  5
45
330
41
100
AcDbEntity
  8
0
  6
CONTINUOUS
 62
     0
100
AcDbLine
 10
0.0
 20
0.0
 30
0.0
 11
-0.965926
 21
-0.258819
 31
0.0
  0
LINE
  5
46
330
41
100
AcDbEntity
  8
0
  6
CONTINUOUS
 62
     0
100
AcDbLine
 10
0.0
 20
0.0
 30
0.0
 11
-0.965926
 21
0.258819
 31
0.0
  0
ENDBLK
  5
43
330
41
100
AcDbEntity
  8
0
100
AcDbBlockEnd
  0
BLOCK
  5
48
330
47
100
AcDbEntity
  8
0
100
AcDbBlockBegin
  2
FXTIP_ARROW_E
 70
     0
 71
     0
 10
0.0
 20
0.0
 30
0.0
  3
FXTIP_ARROW_E
  1

  0
LINE
  5
4A
330
47
100
AcDbEntity
  8
0
  6
CONTINUOUS
 62
     0
100
AcDbLine
 10
0.0
 20
0.0
 30
0.0
 11
-1.0
 21
0.0
 31
0.0
  0
LINE
  5
4B
330
47
100
AcDbEntity
  8
0
  6
CONTINUOUS
 62
     0
100
AcDbLine
 10
0.0
 20
0.0
 30
0.0
 11
-0.965926
 21
0.258819
 31
0.0
  0
LINE
  5
4C
330
47
100
AcDbEntity
  8
0
  6
CONTINUOUS
 62
     0
100
AcDbLine
 10
0.0
 20
0.0
 30
0.0
 11
-0.965926
 21
-0.258819
 31
0.0
  0
ENDBLK
  5
49
330
47
100
AcDbEntity
  8
0
100
AcDbBlockEnd
  0
BLOCK
  5
4E
330
4D
100
AcDbEntity
  8
0
100
AcDbBlockBegin
  2
FXTIP_BLACKDOT_S
 70
     0
 71
     0
 10
0.0
 20
0.0
 30
0.0
  3
FXTIP_BLACKDOT_S
  1

  0
LINE
  5
50
330
4D
100
AcDbEntity
  8
0
  6
CONTINUOUS
 62
     0
100
AcDbLine
 10
0.0
 20
0.0
 30
0.0
 11
-1.0
 21
0.0
 31
0.0
  0
LWPOLYLINE
  5
51
330
4D
100
AcDbEntity
  8
0
  6
CONTINUOUS
 62
     0
100
AcDbPolyline
 90
        2
 70
     1
 10
-0.25
 20
0.0
 40
0.5
 41
0.5
 42
1.0
 10
0.25
 20
0.0
 40
0.5
 41
0.5
 42
1.0
  0
CIRCLE
  5
52
330
4D
100
AcDbEntity
  8
0
  6
CONTINUOUS
 62
     0
100
AcDbCircle
 10
0.0
 20
0.0
 30
0.0
 40
0.5
  0
ENDBLK
  5
4F
330
4D
100
AcDbEntity
  8
0
100
AcDbBlockEnd
  0
BLOCK
  5
54
330
53
100
AcDbEntity
  8
0
100
AcDbBlockBegin
  2
FXTIP_BLACKDOT_E
 70
     0
 71
     0
 10
0.0
 20
0.0
 30
0.0
  3
FXTIP_BLACKDOT_E
  1

  0
LINE
  5
56
330
53
100
AcDbEntity
  8
0
  6
CONTINUOUS
 62
     0
100
AcDbLine
 10
0.0
 20
0.0
 30
0.0
 11
-1.0
 21
0.0
 31
0.0
  0
LWPOLYLINE
  5
57
330
53
100
AcDbEntity
  8
0
  6
CONTINUOUS
 62
     0
100
AcDbPolyline
 90
        2
 70
     1
 10
-0.25
 20
0.0
 40
0.5
 41
0.5
 42
1.0
 10
0.25
 20
0.0
 40
0.5
 41
0.5
 42
1.0
  0
CIRCLE
  5
58
330
53
100
AcDbEntity
  8
0
  6
CONTINUOUS
 62
     0
100
AcDbCircle
 10
0.0
 20
0.0
 30
0.0
 40
0.5
  0
ENDBLK
  5
55
330
53
100
AcDbEntity
  8
0
100
AcDbBlockEnd
  0
BLOCK
  5
5A
330
59
100
AcDbEntity
  8
0
100
AcDbBlockBegin
  2
FXTIP_TRIANGLE_S
 70
     0
 71
     0
 10
0.0
 20
0.0
 30
0.0
  3
FXTIP_TRIANGLE_S
  1

  0
LINE
  5
5C
330
59
100
AcDbEntity
  8
0
  6
CONTINUOUS
 62
     0
100
AcDbLine
 10
0.0
 20
0.0
 30
0.0
 11
-1.0
 21
0.0
 31
0.0
  0
LINE
  5
5D
330
59
100
AcDbEntity
  8
0
  6
CONTINUOUS
 62
     0
100
AcDbLine
 10
0.0
 20
0.0
 30
0.0
 11
-0.965926
 21
-0.258819
 31
0.0
  0
LINE
  5
5E
330
59
100
AcDbEntity
  8
0
  6
CONTINUOUS
 62
     0
100
AcDbLine
 10
0.0
 20
0.0
 30
0.0
 11
-0.965926
 21
0.258819
 31
0.0
  0
LINE
  5
5F
330
59
100
AcDbEntity
  8
0
  6
CONTINUOUS
 62
     0
100
AcDbLine
 10
-0.965926
 20
-0.258819
 30
0.0
 11
-0.965926
 21
0.258819
 31
0.0
  0
ENDBLK
  5
5B
330
59
100
AcDbEntity
  8
0
100
AcDbBlockEnd
  0
BLOCK
  5
61
330
60
100
AcDbEntity
  8
0
100
AcDbBlockBegin
  2
FXTIP_TRIANGLE_E
 70
     0
 71
     0
 10
0.0
 20
0.0
 30
0.0
  3
FXTIP_TRIANGLE_E
  1

  0
LINE
  5
63
330
60
100
AcDbEntity
  8
0
  6
CONTINUOUS
 62
     0
100
AcDbLine
 10
0.0
 20
0.0
 30
0.0
 11
-1.0
 21
0.0
 31
0.0
  0
LINE
  5
64
330
60
100
AcDbEntity
  8
0
  6
CONTINUOUS
 62
     0
100
AcDbLine
 10
0.0
 20
0.0
 30
0.0
 11
-0.965926
 21
0.258819
 31
0.0
  0
LINE
  5
65
330
60
100
AcDbEntity
  8
0
  6
CONTINUOUS
 62
     0
100
AcDbLine
 10
0.0
 20
0.0
 30
0.0
 11
-0.965926
 21
-0.258819
 31
0.0
  0
LINE
  5
66
330
60
100
AcDbEntity
  8
0
  6
CONTINUOUS
 62
     0
100
AcDbLine
 10
-0.965926
 20
0.258819
 30
0.0
 11
-0.965926
 21
-0.258819
 31
0.0
  0
ENDBLK
  5
62
330
60
100
AcDbEntity
  8
0
100
AcDbBlockEnd
  0
BLOCK
  5
68
330
67
100
AcDbEntity
  8
0
100
AcDbBlockBegin
  2
FXTIP_ARCHITECT_S
 70
     0
 71
     0
 10
0.0
 20
0.0
 30
0.0
  3
FXTIP_ARCHITECT_S
  1

  0
LINE
  5
6A
330
67
100
AcDbEntity
  8
0
  6
CONTINUOUS
 62
     0
100
AcDbLine
 10
0.0
 20
0.0
 30
0.0
 11
-1.0
 21
0.0
 31
0.0
  0
LINE
  5
6B
330
67
100
AcDbEntity
  8
0
  6
CONTINUOUS
 62
     0
100
AcDbLine
 10
0.0
 20
0.0
 30
0.0
 11
-0.707107
 21
-0.707107
 31
0.0
  0
LINE
  5
6C
330
67
100
AcDbEntity
  8
0
  6
CONTINUOUS
 62
     0
100
AcDbLine
 10
0.0
 20
0.0
 30
0.0
 11
0.707107
 21
0.707107
 31
0.0
  0
ENDBLK
  5
69
330
67
100
AcDbEntity
  8
0
100
AcDbBlockEnd
  0
BLOCK
  5
6E
330
6D
100
AcDbEntity
  8
0
100
AcDbBlockBegin
  2
FXTIP_ARCHITECT_E
 70
     0
 71
     0
 10
0.0
 20
0.0
 30
0.0
  3
FXTIP_ARCHITECT_E
  1

  0
LINE
  5
70
330
6D
100
AcDbEntity
  8
0
  6
CONTINUOUS
 62
     0
100
AcDbLine
 10
0.0
 20
0.0
 30
0.0
 11
-1.0
 21
0.0
 31
0.0
  0
LINE
  5
71
330
6D
100
AcDbEntity
  8
0
  6
CONTINUOUS
 62
     0
100
AcDbLine
 10
0.0
 20
0.0
 30
0.0
 11
0.707107
 21
0.707107
 31
0.0
  0
LINE
  5
72
330
6D
100
AcDbEntity
  8
0
  6
CONTINUOUS
 62
     0
100
AcDbLine
 10
0.0
 20
0.0
 30
0.0
 11
-0.707107
 21
-0.707107
 31
0.0
  0
ENDBLK
  5
6F
330
6D
100
AcDbEntity
  8
0
100
AcDbBlockEnd
  0
BLOCK
  5
74
330
73
100
AcDbEntity
  8
0
100
AcDbBlockBegin
  2
FXTIP_CIVIL_S
 70
     0
 71
     0
 10
0.0
 20
0.0
 30
0.0
  3
FXTIP_CIVIL_S
  1

  0
LINE
  5
76
330
73
100
AcDbEntity
  8
0
  6
CONTINUOUS
 62
     0
100
AcDbLine
 10
0.0
 20
0.0
 30
0.0
 11
-1.0
 21
0.0
 31
0.0
  0
LINE
  5
77
330
73
100
AcDbEntity
  8
0
  6
CONTINUOUS
 62
     0
100
AcDbLine
 10
0.0
 20
-0.0625
 30
0.0
 11
-1.0
 21
-0.0625
 31
0.0
  0
LINE
  5
78
330
73
100
AcDbEntity
  8
0
  6
CONTINUOUS
 62
     0
100
AcDbLine
 10
0.0
 20
-0.125
 30
0.0
 11
-1.0
 21
-0.125
 31
0.0
  0
ENDBLK
  5
75
330
73
100
AcDbEntity
  8
0
100
AcDbBlockEnd
  0
BLOCK
  5
7A
330
79
100
AcDbEntity
  8
0
100
AcDbBlockBegin
  2
FXTIP_CIVIL_E
 70
     0
 71
     0
 10
0.0
 20
0.0
 30
0.0
  3
FXTIP_CIVIL_E
  1

  0
LINE
  5
7C
330
79
100
AcDbEntity
  8
0
  6
CONTINUOUS
 62
     0
100
AcDbLine
 10
0.0
 20
0.0
 30
0.0
 11
-1.0
 21
0.0
 31
0.0
  0
LINE
  5
7D
330
79
100
AcDbEntity
  8
0
  6
CONTINUOUS
 62
     0
100
AcDbLine
 10
0.0
 20
0.0625
 30
0.0
 11
-1.0
 21
0.0625
 31
0.0
  0
LINE
  5
7E
330
79
100
AcDbEntity
  8
0
  6
CONTINUOUS
 62
     0
100
AcDbLine
 10
0.0
 20
0.125
 30
0.0
 11
-1.0
 21
0.125
 31
0.0
  0
ENDBLK
  5
7B
330
79
100
AcDbEntity
  8
0
100
AcDbBlockEnd
  0
BLOCK
  5
80
330
7F
100
AcDbEntity
  8
0
100
AcDbBlockBegin
  2
FXTIP_WHITEDOT_S
 70
     0
 71
     0
 10
0.0
 20
0.0
 30
0.0
  3
FXTIP_WHITEDOT_S
  1

  0
LINE
  5
82
330
7F
100
AcDbEntity
  8
0
  6
CONTINUOUS
 62
     0
100
AcDbLine
 10
0.0
 20
0.0
 30
0.0
 11
-1.0
 21
0.0
 31
0.0
  0
CIRCLE
  5
83
330
7F
100
AcDbEntity
  8
0
  6
CONTINUOUS
 62
     0
100
AcDbCircle
 10
0.0
 20
0.0
 30
0.0
 40
0.5
  0
ENDBLK
  5
81
330
7F
100
AcDbEntity
  8
0
100
AcDbBlockEnd
  0
BLOCK
  5
85
330
84
100
AcDbEntity
  8
0
100
AcDbBlockBegin
  2
FXTIP_WHITEDOT_E
 70
     0
 71
     0
 10
0.0
 20
0.0
 30
0.0
  3
FXTIP_WHITEDOT_E
  1

  0
LINE
  5
87
330
84
100
AcDbEntity
  8
0
  6
CONTINUOUS
 62
     0
100
AcDbLine
 10
0.0
 20
0.0
 30
0.0
 11
-1.0
 21
0.0
 31
0.0
  0
CIRCLE
  5
88
330
84
100
AcDbEntity
  8
0
  6
CONTINUOUS
 62
     0
100
AcDbCircle
 10
0.0
 20
0.0
 30
0.0
 40
0.5
  0
ENDBLK
  5
86
330
84
100
AcDbEntity
  8
0
100
AcDbBlockEnd
  0
BLOCK
  5
8A
330
89
100
AcDbEntity
  8
0
100
AcDbBlockBegin
  2
FXTIP_UPARROW_S
 70
     0
 71
     0
 10
0.0
 20
0.0
 30
0.0
  3
FXTIP_UPARROW_S
  1

  0
LINE
  5
8C
330
89
100
AcDbEntity
  8
0
  6
CONTINUOUS
 62
     0
100
AcDbLine
 10
0.0
 20
0.0
 30
0.0
 11
-1.0
 21
0.0
 31
0.0
  0
LINE
  5
8D
330
89
100
AcDbEntity
  8
0
  6
CONTINUOUS
 62
     0
100
AcDbLine
 10
0.0
 20
0.0
 30
0.0
 11
-0.965926
 21
-0.258819
 31
0.0
  0
ENDBLK
  5
8B
330
89
100
AcDbEntity
  8
0
100
AcDbBlockEnd
  0
BLOCK
  5
8F
330
8E
100
AcDbEntity
  8
0
100
AcDbBlockBegin
  2
FXTIP_UPARROW_E
 70
     0
 71
     0
 10
0.0
 20
0.0
 30
0.0
  3
FXTIP_UPARROW_E
  1

  0
LINE
  5
91
330
8E
100
AcDbEntity
  8
0
  6
CONTINUOUS
 62
     0
100
AcDbLine
 10
0.0
 20
0.0
 30
0.0
 11
-1.0
 21
0.0
 31
0.0
  0
LINE
  5
92
330
8E
100
AcDbEntity
  8
0
  6
CONTINUOUS
 62
     0
100
AcDbLine
 10
0.0
 20
0.0
 30
0.0
 11
-0.965926
 21
0.258819
 31
0.0
  0
ENDBLK
  5
90
330
8E
100
AcDbEntity
  8
0
100
AcDbBlockEnd
  0
BLOCK
  5
94
330
93
100
AcDbEntity
  8
0
100
AcDbBlockBegin
  2
FXTIP_DOWNARROW_S
 70
     0
 71
     0
 10
0.0
 20
0.0
 30
0.0
  3
FXTIP_DOWNARROW_S
  1

  0
LINE
  5
96
330
93
100
AcDbEntity
  8
0
  6
CONTINUOUS
 62
     0
100
AcDbLine
 10
0.0
 20
0.0
 30
0.0
 11
-1.0
 21
0.0
 31
0.0
  0
LINE
  5
97
330
93
100
AcDbEntity
  8
0
  6
CONTINUOUS
 62
     0
100
AcDbLine
 10
0.0
 20
0.0
 30
0.0
 11
-0.965926
 21
0.258819
 31
0.0
  0
ENDBLK
  5
95
330
93
100
AcDbEntity
  8
0
100
AcDbBlockEnd
  0
BLOCK
  5
99
330
98
100
AcDbEntity
  8
0
100
AcDbBlockBegin
  2
FXTIP_DOWNARROW_E
 70
     0
 71
     0
 10
0.0
 20
0.0
 30
0.0
  3
FXTIP_DOWNARROW_E
  1

  0
LINE
  5
9B
330
98
100
AcDbEntity
  8
0
  6
CONTINUOUS
 62
     0
100
AcDbLine
 10
0.0
 20
0.0
 30
0.0
 11
-1.0
 21
0.0
 31
0.0
  0
LINE
  5
9C
330
98
100
AcDbEntity
  8
0
  6
CONTINUOUS
 62
     0
100
AcDbLine
 10
0.0
 20
0.0
 30
0.0
 11
-0.965926
 21
-0.258819
 31
0.0
  0
ENDBLK
  5
9A
330
98
100
AcDbEntity
  8
0
100
AcDbBlockEnd
  0
BLOCK
  5
9E
330
9D
100
AcDbEntity
  8
0
100
AcDbBlockBegin
  2
FXTIP_BLACKTRIANGLE_S
 70
     0
 71
     0
 10
0.0
 20
0.0
 30
0.0
  3
FXTIP_BLACKTRIANGLE_S
  1

  0
LINE
  5
A0
330
9D
100
AcDbEntity
  8
0
  6
CONTINUOUS
 62
     0
100
AcDbLine
 10
0.0
 20
0.0
 30
0.0
 11
-1.0
 21
0.0
 31
0.0
  0
SOLID
  5
A1
330
9D
100
AcDbEntity
  8
0
  6
CONTINUOUS
 62
     0
100
AcDbTrace
 10
0.0
 20
0.0
 30
0.0
 11
-0.965926
 21
-0.258819
 31
0.0
 12
-0.965926
 22
0.258819
 32
0.0
 13
-0.965926
 23
0.258819
 33
0.0
  0
ENDBLK
  5
9F
330
9D
100
AcDbEntity
  8
0
100
AcDbBlockEnd
  0
BLOCK
  5
A3
330
A2
100
AcDbEntity
  8
0
100
AcDbBlockBegin
  2
FXTIP_BLACKTRIANGLE_E
 70
     0
 71
     0
 10
0.0
 20
0.0
 30
0.0
  3
FXTIP_BLACKTRIANGLE_E
  1

  0
LINE
  5
A5
330
A2
100
AcDbEntity
  8
0
  6
CONTINUOUS
 62
     0
100
AcDbLine
 10
0.0
 20
0.0
 30
0.0
 11
-1.0
 21
0.0
 31
0.0
  0
SOLID
  5
A6
330
A2
100
AcDbEntity
  8
0
  6
CONTINUOUS
 62
     0
100
AcDbTrace
 10
0.0
 20
0.0
 30
0.0
 11
-0.965926
 21
0.258819
 31
0.0
 12
-0.965926
 22
-0.258819
 32
0.0
 13
-0.965926
 23
-0.258819
 33
0.0
  0
ENDBLK
  5
A4
330
A2
100
AcDbEntity
  8
0
100
AcDbBlockEnd
  0
BLOCK
  5
AB
330
AA
100
AcDbEntity
  8
0
100
AcDbBlockBegin
  2
*D19
 70
     1
 71
     0
 10
0.0
 20
0.0
 30
0.0
  3
*D19
  1

  0
TEXT
  5
AD
330
AA
100
AcDbEntity
  8
GR1-1
  6
CONTINUOUS
 62
     7
100
AcDbText
 10
449.456085
 20
330.979614
 30
0.0
 40
4.0
  1
102
 50
90.0
 41
0.828947
  7
FX_VECTOR
 72
     5
 11
449.456085
 21
339.979614
 31
0.0
100
AcDbText
  0
LINE
  5
AE
330
AA
100
AcDbEntity
  8
GR1-1
  6
CONTINUOUS
 62
     7
100
AcDbLine
 10
411.520548
 20
284.4796
 30
0.0
 11
451.456081
 21
284.4796
 31
0.0
  0
LINE
  5
AF
330
AA
100
AcDbEntity
  8
GR1-1
  6
CONTINUOUS
 62
     7
100
AcDbLine
 10
411.520548
 20
386.4796
 30
0.0
 11
451.456081
 21
386.4796
 31
0.0
  0
LINE
  5
B0
330
AA
100
AcDbEntity
  8
GR1-1
  6
CONTINUOUS
 62
     7
100
AcDbLine
 10
450.456081
 20
284.4796
 30
0.0
 11
450.456081
 21
386.4796
 31
0.0
  0
INSERT
  5
B1
330
AA
100
AcDbEntity
  8
GR1-1
  6
CONTINUOUS
 62
     7
100
AcDbBlockReference
  2
FXTIP_ARROW_S
 10
450.456081
 20
284.4796
 30
0.0
 41
4.0
 42
4.0
 50
270.0
  0
INSERT
  5
B2
330
AA
100
AcDbEntity
  8
GR1-1
  6
CONTINUOUS
 62
     7
100
AcDbBlockReference
  2
FXTIP_ARROW_E
 10
450.456081
 20
386.4796
 30
0.0
 41
4.0
 42
4.0
 50
90.0
  0
ENDBLK
  5
AC
330
AA
100
AcDbEntity
  8
0
100
AcDbBlockEnd
  0
BLOCK
  5
B5
330
B4
100
AcDbEntity
  8
0
100
AcDbBlockBegin
  2
*D20
 70
     1
 71
     0
 10
0.0
 20
0.0
 30
0.0
  3
*D20
  1

  0
TEXT
  5
B7
330
B4
100
AcDbEntity
  8
GR1-1
  6
CONTINUOUS
 62
     7
100
AcDbText
 10
439.456085
 20
332.479614
 30
0.0
 40
4.0
  1
80
 50
90.0
 41
0.851351
  7
FX_VECTOR
 72
     5
 11
439.456085
 21
338.479614
 31
0.0
100
AcDbText
  0
LINE
  5
B8
330
B4
100
AcDbEntity
  8
GR1-1
  6
CONTINUOUS
 62
     7
100
AcDbLine
 10
419.524612
 20
295.4796
 30
0.0
 11
441.456081
 21
295.4796
 31
0.0
  0
LINE
  5
B9
330
B4
100
AcDbEntity
  8
GR1-1
  6
CONTINUOUS
 62
     7
100
AcDbLine
 10
419.524612
 20
375.4796
 30
0.0
 11
441.456081
 21
375.4796
 31
0.0
  0
LINE
  5
BA
330
B4
100
AcDbEntity
  8
GR1-1
  6
CONTINUOUS
 62
     7
100
AcDbLine
 10
440.456081
 20
295.4796
 30
0.0
 11
440.456081
 21
375.4796
 31
0.0
  0
INSERT
  5
BB
330
B4
100
AcDbEntity
  8
GR1-1
  6
CONTINUOUS
 62
     7
100
AcDbBlockReference
  2
FXTIP_ARROW_S
 10
440.456081
 20
295.4796
 30
0.0
 41
4.0
 42
4.0
 50
270.0
  0
INSERT
  5
BC
330
B4
100
AcDbEntity
  8
GR1-1
  6
CONTINUOUS
 62
     7
100
AcDbBlockReference
  2
FXTIP_ARROW_E
 10
440.456081
 20
375.4796
 30
0.0
 41
4.0
 42
4.0
 50
90.0
  0
ENDBLK
  5
B6
330
B4
100
AcDbEntity
  8
0
100
AcDbBlockEnd
  0
BLOCK
  5
BF
330
BE
100
AcDbEntity
  8
0
100
AcDbBlockBegin
  2
*D21
 70
     1
 71
     0
 10
0.0
 20
0.0
 30
0.0
  3
*D21
  1

  0
TEXT
  5
C1
330
BE
100
AcDbEntity
  8
GR1-1
  6
CONTINUOUS
 62
     7
100
AcDbText
 10
429.456085
 20
332.479614
 30
0.0
 40
4.0
  1
75
 50
90.0
 41
0.851351
  7
FX_VECTOR
 72
     5
 11
429.456085
 21
338.479614
 31
0.0
100
AcDbText
  0
LINE
  5
C2
330
BE
100
AcDbEntity
  8
GR1-1
  6
CONTINUOUS
 62
     7
100
AcDbLine
 10
417.024612
 20
372.9796
 30
0.0
 11
431.456081
 21
372.9796
 31
0.0
  0
LINE
  5
C3
330
BE
100
AcDbEntity
  8
GR1-1
  6
CONTINUOUS
 62
     7
100
AcDbLine
 10
417.024612
 20
297.9796
 30
0.0
 11
431.456081
 21
297.9796
 31
0.0
  0
LINE
  5
C4
330
BE
100
AcDbEntity
  8
GR1-1
  6
CONTINUOUS
 62
     7
100
AcDbLine
 10
430.456081
 20
372.9796
 30
0.0
 11
430.456081
 21
297.9796
 31
0.0
  0
INSERT
  5
C5
330
BE
100
AcDbEntity
  8
GR1-1
  6
CONTINUOUS
 62
     7
100
AcDbBlockReference
  2
FXTIP_ARROW_S
 10
430.456081
 20
372.9796
 30
0.0
 41
4.0
 42
4.0
 50
90.0
  0
INSERT
  5
C6
330
BE
100
AcDbEntity
  8
GR1-1
  6
CONTINUOUS
 62
     7
100
AcDbBlockReference
  2
FXTIP_ARROW_E
 10
430.456081
 20
297.9796
 30
0.0
 41
4.0
 42
4.0
 50
270.0
  0
ENDBLK
  5
C0
330
BE
100
AcDbEntity
  8
0
100
AcDbBlockEnd
  0
BLOCK
  5
C9
330
C8
100
AcDbEntity
  8
0
100
AcDbBlockBegin
  2
*D22
 70
     1
 71
     0
 10
0.0
 20
0.0
 30
0.0
  3
*D22
  1

  0
TEXT
  5
CB
330
C8
100
AcDbEntity
  8
GR1-1
  6
CONTINUOUS
 62
     7
100
AcDbText
 10
112.886375
 20
103.979599
 30
0.0
 40
4.0
  1
%%c150
 50
90.0
 41
0.828947
  7
FX_VECTOR
 72
     5
 11
112.886375
 21
115.979599
 31
0.0
100
AcDbText
  0
LINE
  5
CC
330
C8
100
AcDbEntity
  8
GR1-1
  6
CONTINUOUS
 62
     7
100
AcDbLine
 10
163.367781
 20
34.9796
 30
0.0
 11
112.886366
 21
34.9796
 31
0.0
  0
LINE
  5
CD
330
C8
100
AcDbEntity
  8
GR1-1
  6
CONTINUOUS
 62
     7
100
AcDbLine
 10
163.367781
 20
184.9796
 30
0.0
 11
112.886366
 21
184.9796
 31
0.0
  0
LINE
  5
CE
330
C8
100
AcDbEntity
  8
GR1-1
  6
CONTINUOUS
 62
     7
100
AcDbLine
 10
113.886366
 20
34.9796
 30
0.0
 11
113.886366
 21
184.9796
 31
0.0
  0
INSERT
  5
CF
330
C8
100
AcDbEntity
  8
GR1-1
  6
CONTINUOUS
 62
     7
100
AcDbBlockReference
  2
FXTIP_ARROW_S
 10
113.886366
 20
34.9796
 30
0.0
 41
4.0
 42
4.0
 50
270.0
  0
INSERT
  5
D0
330
C8
100
AcDbEntity
  8
GR1-1
  6
CONTINUOUS
 62
     7
100
AcDbBlockReference
  2
FXTIP_ARROW_E
 10
113.886366
 20
184.9796
 30
0.0
 41
4.0
 42
4.0
 50
90.0
  0
ENDBLK
  5
CA
330
C8
100
AcDbEntity
  8
0
100
AcDbBlockEnd
  0
BLOCK
  5
17A
330
179
100
AcDbEntity
  8
0
100
AcDbBlockBegin
  2
BLKF025
 70
     0
 71
     0
 10
0.0
 20
0.0
 30
0.0
  3
BLKF025
  1

  0
LINE
  5
17D
330
179
100
AcDbEntity
  8
LAYERGROUP-1
  6
CONTINUOUS
 62
     3
100
AcDbLine
 10
124.516287
 20
99.009945
 30
0.0
 11
123.667781
 21
100.4796
 31
0.0
  0
LINE
  5
17E
330
179
100
AcDbEntity
  8
LAYERGROUP-1
  6
CONTINUOUS
 62
     3
100
AcDbLine
 10
123.667781
 20
100.4796
 30
0.0
 11
123.667781
 21
119.4796
 31
0.0
  0
LINE
  5
17F
330
179
100
AcDbEntity
  8
LAYERGROUP-1
  6
CONTINUOUS
 62
     3
100
AcDbLine
 10
123.667781
 20
119.4796
 30
0.0
 11
124.516287
 21
120.949255
 31
0.0
  0
ARC
  5
180
330
179
100
AcDbEntity
  8
LAYERGROUP-1
  6
CONTINUOUS
 62
     3
100
AcDbCircle
 10
128.523845
 20
101.752358
 30
0.0
 40
4.856063222003973
100
AcDbArc
 50
145.615753
 51
214.384247
  0
ARC
  5
181
330
179
100
AcDbEntity
  8
LAYERGROUP-1
  6
CONTINUOUS
 62
     3
100
AcDbCircle
 10
141.819276
 20
109.9796
 30
0.0
 40
18.15149422396827
100
AcDbArc
 50
162.412046
 51
197.587954
  0
ARC
  5
182
330
179
100
AcDbEntity
  8
LAYERGROUP-1
  6
CONTINUOUS
 62
     3
100
AcDbCircle
 10
128.523845
 20
118.206841
 30
0.0
 40
4.856063222003973
100
AcDbArc
 50
145.615753
 51
214.384247
  0
LINE
  5
183
330
179
100
AcDbEntity
  8
LAYERGROUP-1
  6
CONTINUOUS
 62
     3
100
AcDbLine
 10
124.516287
 20
120.949255
 30
0.0
 11
129.819276
 21
120.949255
 31
0.0
  0
LINE
  5
184
330
179
100
AcDbEntity
  8
LAYERGROUP-1
  6
CONTINUOUS
 62
     3
100
AcDbLine
 10
129.819276
 20
120.949255
 30
0.0
 11
130.667781
 21
119.4796
 31
0.0
  0
LINE
  5
185
330
179
100
AcDbEntity
  8
LAYERGROUP-1
  6
CONTINUOUS
 62
     3
100
AcDbLine
 10
130.667781
 20
119.4796
 30
0.0
 11
130.667781
 21
100.4796
 31
0.0
  0
LINE
  5
186
330
179
100
AcDbEntity
  8
LAYERGROUP-1
  6
CONTINUOUS
 62
     3
100
AcDbLine
 10
130.667781
 20
100.4796
 30
0.0
 11
129.819276
 21
99.009945
 31
0.0
  0
LINE
  5
187
330
179
100
AcDbEntity
  8
LAYERGROUP-1
  6
CONTINUOUS
 62
     3
100
AcDbLine
 10
129.819276
 20
99.009945
 30
0.0
 11
124.516287
 21
99.009945
 31
0.0
  0
ARC
  5
188
330
179
100
AcDbEntity
  8
LAYERGROUP-1
  6
CONTINUOUS
 62
     3
100
AcDbCircle
 10
125.811718
 20
101.752358
 30
0.0
 40
4.856063222003973
100
AcDbArc
 50
-34.384247
 51
34.384247
  0
ARC
  5
189
330
179
100
AcDbEntity
  8
LAYERGROUP-1
  6
CONTINUOUS
 62
     3
100
AcDbCircle
 10
112.516287
 20
109.9796
 30
0.0
 40
18.15149422396827
100
AcDbArc
 50
-17.587954
 51
17.587954
  0
ARC
  5
18A
330
179
100
AcDbEntity
  8
LAYERGROUP-1
  6
CONTINUOUS
 62
     3
100
AcDbCircle
 10
125.811718
 20
118.206841
 30
0.0
 40
4.856063222003973
100
AcDbArc
 50
-34.384247
 51
34.384247
  0
LINE
  5
18B
330
179
100
AcDbEntity
  8
LAYERGROUP-1
  6
CONTINUOUS
 62
     3
100
AcDbLine
 10
124.516287
 20
104.494772
 30
0.0
 11
129.819276
 21
104.494772
 31
0.0
  0
LINE
  5
18C
330
179
100
AcDbEntity
  8
LAYERGROUP-1
  6
CONTINUOUS
 62
     3
100
AcDbLine
 10
124.516287
 20
115.464427
 30
0.0
 11
129.819276
 21
115.464427
 31
0.0
  0
ENDBLK
  5
17B
330
179
100
AcDbEntity
  8
0
100
AcDbBlockEnd
  0
BLOCK
  5
18F
330
18E
100
AcDbEntity
  8
0
100
AcDbBlockBegin
  2
*D24
 70
     1
 71
     0
 10
0.0
 20
0.0
 30
0.0
  3
*D24
  1

  0
TEXT
  5
191
330
18E
100
AcDbEntity
  8
LAYERGROUP-1
  6
CONTINUOUS
 62
     7
100
AcDbText
 10
439.248871
 20
125.479599
 30
0.0
 40
4.0
  1
190
 50
90.0
 41
0.828947
  7
FX_VECTOR
 72
     5
 11
439.248871
 21
134.479599
 31
0.0
100
AcDbText
  0
LINE
  5
192
330
18E
100
AcDbEntity
  8
LAYERGROUP-1
  6
CONTINUOUS
 62
     7
100
AcDbLine
 10
440.248888
 20
34.9796
 30
0.0
 11
440.248888
 21
224.9796
 31
0.0
  0
INSERT
  5
193
330
18E
100
AcDbEntity
  8
LAYERGROUP-1
  6
CONTINUOUS
 62
     7
100
AcDbBlockReference
  2
FXTIP_ARROW_S
 10
440.248888
 20
34.9796
 30
0.0
 41
4.0
 42
4.0
 50
270.0
  0
INSERT
  5
194
330
18E
100
AcDbEntity
  8
LAYERGROUP-1
  6
CONTINUOUS
 62
     7
100
AcDbBlockReference
  2
FXTIP_ARROW_E
 10
440.248888
 20
224.9796
 30
0.0
 41
4.0
 42
4.0
 50
90.0
  0
LINE
  5
195
330
18E
100
AcDbEntity
  8
LAYERGROUP-1
  6
CONTINUOUS
 62
     7
100
AcDbLine
 10
330.52258
 20
34.9796
 30
0.0
 11
441.248888
 21
34.9796
 31
0.0
  0
LINE
  5
196
330
18E
100
AcDbEntity
  8
LAYERGROUP-1
  6
CONTINUOUS
 62
     7
100
AcDbLine
 10
421.514835
 20
224.9796
 30
0.0
 11
441.248888
 21
224.9796
 31
0.0
  0
ENDBLK
  5
190
330
18E
100
AcDbEntity
  8
0
100
AcDbBlockEnd
  0
BLOCK
  5
199
330
198
100
AcDbEntity
  8
0
100
AcDbBlockBegin
  2
*D25
 70
     1
 71
     0
 10
0.0
 20
0.0
 30
0.0
  3
*D25
  1

  0
TEXT
  5
19B
330
198
100
AcDbEntity
  8
LAYERGROUP-1
  6
CONTINUOUS
 62
     7
100
AcDbText
 10
429.248871
 20
162.979599
 30
0.0
 40
4.0
  1
115
 50
90.0
 41
0.828947
  7
FX_VECTOR
 72
     5
 11
429.248871
 21
171.979599
 31
0.0
100
AcDbText
  0
LINE
  5
19C
330
198
100
AcDbEntity
  8
LAYERGROUP-1
  6
CONTINUOUS
 62
     7
100
AcDbLine
 10
430.248888
 20
109.9796
 30
0.0
 11
430.248888
 21
224.9796
 31
0.0
  0
INSERT
  5
19D
330
198
100
AcDbEntity
  8
LAYERGROUP-1
  6
CONTINUOUS
 62
     7
100
AcDbBlockReference
  2
FXTIP_ARROW_S
 10
430.248888
 20
109.9796
 30
0.0
 41
4.0
 42
4.0
 50
270.0
  0
INSERT
  5
19E
330
198
100
AcDbEntity
  8
LAYERGROUP-1
  6
CONTINUOUS
 62
     7
100
AcDbBlockReference
  2
FXTIP_ARROW_E
 10
430.248888
 20
224.9796
 30
0.0
 41
4.0
 42
4.0
 50
90.0
  0
LINE
  5
19F
330
198
100
AcDbEntity
  8
LAYERGROUP-1
  6
CONTINUOUS
 62
     7
100
AcDbLine
 10
409.900717
 20
109.9796
 30
0.0
 11
431.248888
 21
109.9796
 31
0.0
  0
ENDBLK
  5
19A
330
198
100
AcDbEntity
  8
0
100
AcDbBlockEnd
  0
BLOCK
  5
1A2
330
1A1
100
AcDbEntity
  8
0
100
AcDbBlockBegin
  2
*D26
 70
     1
 71
     0
 10
0.0
 20
0.0
 30
0.0
  3
*D26
  1

  0
TEXT
  5
1A4
330
1A1
100
AcDbEntity
  8
LAYERGROUP-1
  6
CONTINUOUS
 62
     7
100
AcDbText
 10
346.522583
 20
26.426584
 30
0.0
 40
4.0
  1
40
 41
0.851351
  7
FX_VECTOR
 72
     5
 11
352.522583
 21
26.426584
 31
0.0
100
AcDbText
  0
LINE
  5
1A5
330
1A1
100
AcDbEntity
  8
LAYERGROUP-1
  6
CONTINUOUS
 62
     7
100
AcDbLine
 10
329.52258
 20
25.426585
 30
0.0
 11
369.52258
 21
25.426585
 31
0.0
  0
INSERT
  5
1A6
330
1A1
100
AcDbEntity
  8
LAYERGROUP-1
  6
CONTINUOUS
 62
     7
100
AcDbBlockReference
  2
FXTIP_ARROW_S
 10
329.52258
 20
25.426585
 30
0.0
 41
4.0
 42
4.0
 50
180.0
  0
INSERT
  5
1A7
330
1A1
100
AcDbEntity
  8
LAYERGROUP-1
  6
CONTINUOUS
 62
     7
100
AcDbBlockReference
  2
FXTIP_ARROW_E
 10
369.52258
 20
25.426585
 30
0.0
 41
4.0
 42
4.0
 50
360.0
  0
LINE
  5
1A8
330
1A1
100
AcDbEntity
  8
LAYERGROUP-1
  6
CONTINUOUS
 62
     7
100
AcDbLine
 10
329.52258
 20
30.103036
 30
0.0
 11
329.52258
 21
24.426585
 31
0.0
  0
LINE
  5
1A9
330
1A1
100
AcDbEntity
  8
LAYERGROUP-1
  6
CONTINUOUS
 62
     7
100
AcDbLine
 10
369.52258
 20
133.641923
 30
0.0
 11
369.52258
 21
24.426585
 31
0.0
  0
ENDBLK
  5
1A3
330
1A1
100
AcDbEntity
  8
0
100
AcDbBlockEnd
  0
BLOCK
  5
210
330
20F
100
AcDbEntity
  8
0
100
AcDbBlockBegin
  2
*D27
 70
     1
 71
     0
 10
0.0
 20
0.0
 30
0.0
  3
*D27
  1

  0
TEXT
  5
212
330
20F
100
AcDbEntity
  8
GR1-1
  6
CONTINUOUS
 62
     7
100
AcDbText
 10
365.008148
 20
240.679596
 30
0.0
 40
4.0
  1
102
 41
0.828947
  7
FX_VECTOR
 72
     5
 11
374.008148
 21
240.679596
 31
0.0
100
AcDbText
  0
LINE
  5
213
330
20F
100
AcDbEntity
  8
GR1-1
  6
CONTINUOUS
 62
     7
100
AcDbLine
 10
318.50816
 20
293.4796
 30
0.0
 11
318.50816
 21
238.6796
 31
0.0
  0
LINE
  5
214
330
20F
100
AcDbEntity
  8
GR1-1
  6
CONTINUOUS
 62
     7
100
AcDbLine
 10
420.50816
 20
293.4796
 30
0.0
 11
420.50816
 21
238.6796
 31
0.0
  0
LINE
  5
215
330
20F
100
AcDbEntity
  8
GR1-1
  6
CONTINUOUS
 62
     7
100
AcDbLine
 10
318.50816
 20
239.6796
 30
0.0
 11
420.50816
 21
239.6796
 31
0.0
  0
INSERT
  5
216
330
20F
100
AcDbEntity
  8
GR1-1
  6
CONTINUOUS
 62
     7
100
AcDbBlockReference
  2
FXTIP_ARROW_S
 10
318.50816
 20
239.6796
 30
0.0
 41
4.0
 42
4.0
 50
180.0
  0
INSERT
  5
217
330
20F
100
AcDbEntity
  8
GR1-1
  6
CONTINUOUS
 62
     7
100
AcDbBlockReference
  2
FXTIP_ARROW_E
 10
420.50816
 20
239.6796
 30
0.0
 41
4.0
 42
4.0
 50
360.0
  0
ENDBLK
  5
211
330
20F
100
AcDbEntity
  8
0
100
AcDbBlockEnd
  0
BLOCK
  5
21A
330
219
100
AcDbEntity
  8
0
100
AcDbBlockBegin
  2
*D28
 70
     1
 71
     0
 10
0.0
 20
0.0
 30
0.0
  3
*D28
  1

  0
TEXT
  5
21C
330
219
100
AcDbEntity
  8
GR1-1
  6
CONTINUOUS
 62
     7
100
AcDbText
 10
366.510193
 20
250.679596
 30
0.0
 40
4.0
  1
80
 41
0.851351
  7
FX_VECTOR
 72
     5
 11
372.510193
 21
250.679596
 31
0.0
100
AcDbText
  0
LINE
  5
21D
330
219
100
AcDbEntity
  8
GR1-1
  6
CONTINUOUS
 62
     7
100
AcDbLine
 10
329.50816
 20
285.475535
 30
0.0
 11
329.50816
 21
248.6796
 31
0.0
  0
LINE
  5
21E
330
219
100
AcDbEntity
  8
GR1-1
  6
CONTINUOUS
 62
     7
100
AcDbLine
 10
409.512224
 20
285.475535
 30
0.0
 11
409.512224
 21
248.6796
 31
0.0
  0
LINE
  5
21F
330
219
100
AcDbEntity
  8
GR1-1
  6
CONTINUOUS
 62
     7
100
AcDbLine
 10
329.50816
 20
249.6796
 30
0.0
 11
409.512224
 21
249.6796
 31
0.0
  0
INSERT
  5
220
330
219
100
AcDbEntity
  8
GR1-1
  6
CONTINUOUS
 62
     7
100
AcDbBlockReference
  2
FXTIP_ARROW_S
 10
329.50816
 20
249.6796
 30
0.0
 41
4.0
 42
4.0
 50
180.0
  0
INSERT
  5
221
330
219
100
AcDbEntity
  8
GR1-1
  6
CONTINUOUS
 62
     7
100
AcDbBlockReference
  2
FXTIP_ARROW_E
 10
409.512224
 20
249.6796
 30
0.0
 41
4.0
 42
4.0
 50
360.0
  0
ENDBLK
  5
21B
330
219
100
AcDbEntity
  8
0
100
AcDbBlockEnd
  0
BLOCK
  5
224
330
223
100
AcDbEntity
  8
0
100
AcDbBlockBegin
  2
*D29
 70
     1
 71
     0
 10
0.0
 20
0.0
 30
0.0
  3
*D29
  1

  0
TEXT
  5
226
330
223
100
AcDbEntity
  8
GR1-1
  6
CONTINUOUS
 62
     7
100
AcDbText
 10
366.510193
 20
260.679626
 30
0.0
 40
4.0
  1
75
 41
0.851351
  7
FX_VECTOR
 72
     5
 11
372.510193
 21
260.679626
 31
0.0
100
AcDbText
  0
LINE
  5
227
330
223
100
AcDbEntity
  8
GR1-1
  6
CONTINUOUS
 62
     7
100
AcDbLine
 10
332.00816
 20
287.975535
 30
0.0
 11
332.00816
 21
258.6796
 31
0.0
  0
LINE
  5
228
330
223
100
AcDbEntity
  8
GR1-1
  6
CONTINUOUS
 62
     7
100
AcDbLine
 10
407.012224
 20
287.975535
 30
0.0
 11
407.012224
 21
258.6796
 31
0.0
  0
LINE
  5
229
330
223
100
AcDbEntity
  8
GR1-1
  6
CONTINUOUS
 62
     7
100
AcDbLine
 10
332.00816
 20
259.6796
 30
0.0
 11
407.012224
 21
259.6796
 31
0.0
  0
INSERT
  5
22A
330
223
100
AcDbEntity
  8
GR1-1
  6
CONTINUOUS
 62
     7
100
AcDbBlockReference
  2
FXTIP_ARROW_S
 10
332.00816
 20
259.6796
 30
0.0
 41
4.0
 42
4.0
 50
180.0
  0
INSERT
  5
22B
330
223
100
AcDbEntity
  8
GR1-1
  6
CONTINUOUS
 62
     7
100
AcDbBlockReference
  2
FXTIP_ARROW_E
 10
407.012224
 20
259.6796
 30
0.0
 41
4.0
 42
4.0
 50
360.0
  0
ENDBLK
  5
225
330
223
100
AcDbEntity
  8
0
100
AcDbBlockEnd
  0
BLOCK
  5
266
330
265
100
AcDbEntity
  8
0
100
AcDbBlockBegin
  2
BLKF032
 70
     0
 71
     0
 10
0.0
 20
0.0
 30
0.0
  3
BLKF032
  1

  0
LINE
  5
269
330
265
100
AcDbEntity
  8
GR1-1
  6
CONTINUOUS
 62
     3
100
AcDbLine
 10
384.436274
 20
71.688808
 30
0.0
 11
391.797977
 21
81.458117
 31
0.0
  0
LINE
  5
26A
330
265
100
AcDbEntity
  8
GR1-1
  6
CONTINUOUS
 62
     3
100
AcDbLine
 10
391.797977
 20
81.458117
 30
0.0
 11
347.56787
 21
114.787893
 31
0.0
  0
LINE
  5
26B
330
265
100
AcDbEntity
  8
GR1-1
  6
CONTINUOUS
 62
     3
100
AcDbLine
 10
384.436274
 20
71.688808
 30
0.0
 11
360.528334
 21
87.043825
 31
0.0
  0
ARC
  5
26C
330
265
100
AcDbEntity
  8
GR1-1
  6
CONTINUOUS
 62
     3
100
AcDbCircle
 10
335.129552
 20
47.497626
 30
0.0
 40
47.0
100
AcDbArc
 50
57.289153
 51
106.100105
  0
ARC
  5
26D
330
265
100
AcDbEntity
  8
GR1-1
  6
CONTINUOUS
 62
     6
100
AcDbCircle
 10
329.52258
 20
109.9796
 30
0.0
 40
27.0
100
AcDbArc
 50
324.312922
 51
349.862559
  0
LINE
  5
26E
330
265
100
AcDbEntity
  8
GR1-1
  6
CONTINUOUS
 62
     6
100
AcDbLine
 10
361.542561
 20
101.126869
 30
0.0
 11
363.047098
 21
103.123458
 31
0.0
  0
ARC
  5
26F
330
265
100
AcDbEntity
  8
GR1-1
  6
CONTINUOUS
 62
     6
100
AcDbCircle
 10
329.52258
 20
109.9796
 30
0.0
 40
16.0
100
AcDbArc
 50
-55.025266
 51
12.848365
  0
ARC
  5
270
330
265
100
AcDbEntity
  8
GR1-1
  6
CONTINUOUS
 62
     3
100
AcDbCircle
 10
317.935934
 20
107.065902
 30
0.0
 40
15.0
100
AcDbArc
 50
202.139322
 51
286.100105
  0
LINE
  5
271
330
265
100
AcDbEntity
  8
GR1-1
  6
CONTINUOUS
 62
     3
100
AcDbLine
 10
306.698301
 20
97.13033
 30
0.0
 11
308.57124
 21
98.786259
 31
0.0
  0
LINE
  5
272
330
265
100
AcDbEntity
  8
GR1-1
  6
CONTINUOUS
 62
     3
100
AcDbLine
 10
304.041881
 20
101.413001
 30
0.0
 11
301.32187
 21
99.21038
 31
0.0
  0
LINE
  5
273
330
265
100
AcDbEntity
  8
GR1-1
  6
CONTINUOUS
 62
     3
100
AcDbLine
 10
300.618637
 20
99.284293
 30
0.0
 11
297.795419
 21
102.770677
 31
0.0
  0
ARC
  5
274
330
265
100
AcDbEntity
  8
GR1-1
  6
CONTINUOUS
 62
     3
100
AcDbCircle
 10
301.00721
 20
99.598953
 30
0.0
 40
0.5
100
AcDbArc
 50
219.0
 51
309.0
  0
LINE
  5
275
330
265
100
AcDbEntity
  8
GR1-1
  6
CONTINUOUS
 62
     3
100
AcDbLine
 10
297.795419
 20
102.770677
 30
0.0
 11
300.121924
 21
101.855597
 31
0.0
  0
ARC
  5
276
330
265
100
AcDbEntity
  8
GR1-1
  6
CONTINUOUS
 62
     3
100
AcDbCircle
 10
269.877352
 20
113.751642
 30
0.0
 40
30.0
100
AcDbArc
 50
-21.471117
 51
35.903372
  0
LINE
  5
277
330
265
100
AcDbEntity
  8
GR1-1
  6
CONTINUOUS
 62
     3
100
AcDbLine
 10
294.177566
 20
131.344242
 30
0.0
 11
276.022201
 21
156.421788
 31
0.0
  0
LINE
  5
278
330
265
100
AcDbEntity
  8
GR1-1
  6
CONTINUOUS
 62
     3
100
AcDbLine
 10
276.022201
 20
156.421788
 30
0.0
 11
284.290077
 21
165.604194
 31
0.0
  0
LINE
  5
279
330
265
100
AcDbEntity
  8
GR1-1
  6
CONTINUOUS
 62
     3
100
AcDbLine
 10
284.290077
 20
165.604194
 30
0.0
 11
311.219989
 21
141.356392
 31
0.0
  0
LINE
  5
27A
330
265
100
AcDbEntity
  8
GR1-1
  6
CONTINUOUS
 62
     6
100
AcDbLine
 10
304.911595
 20
143.672414
 30
0.0
 11
306.584421
 21
145.530276
 31
0.0
  0
ARC
  5
27B
330
265
100
AcDbEntity
  8
GR1-1
  6
CONTINUOUS
 62
     3
100
AcDbCircle
 10
296.499116
 20
125.007205
 30
0.0
 40
22.0
100
AcDbArc
 50
30.798847
 51
48.0
  0
ARC
  5
27C
330
265
100
AcDbEntity
  8
GR1-1
  6
CONTINUOUS
 62
     3
100
AcDbCircle
 10
318.832341
 20
138.31987
 30
0.0
 40
4.0
100
AcDbArc
 50
210.798847
 51
270.814489
  0
ARC
  5
27D
330
265
100
AcDbEntity
  8
GR1-1
  6
CONTINUOUS
 62
     3
100
AcDbCircle
 10
319.258792
 20
108.322902
 30
0.0
 40
26.0
100
AcDbArc
 50
30.048215
 51
90.814489
  0
ARC
  5
27E
330
265
100
AcDbEntity
  8
GR1-1
  6
CONTINUOUS
 62
     3
100
AcDbCircle
 10
360.8078
 20
132.357874
 30
0.0
 40
22.0
100
AcDbArc
 50
210.048215
 51
233.0
  0
ARC
  5
27F
330
265
100
AcDbEntity
  8
GR1-1
  6
CONTINUOUS
 62
     6
100
AcDbCircle
 10
320.560428
 20
122.931137
 30
0.0
 40
2.25
100
AcDbArc
 50
-55.317698
 51
124.682302
  0
ARC
  5
280
330
265
100
AcDbEntity
  8
GR1-1
  6
CONTINUOUS
 62
     6
100
AcDbCircle
 10
315.384272
 20
103.039018
 30
0.0
 40
2.25
100
AcDbArc
 50
-154.165338
 51
23.310945
  0
ARC
  5
281
330
265
100
AcDbEntity
  8
GR1-1
  6
CONTINUOUS
 62
     6
100
AcDbCircle
 10
329.52258
 20
109.9796
 30
0.0
 40
13.5
100
AcDbArc
 50
124.682302
 51
206.619027
  0
ARC
  5
282
330
265
100
AcDbEntity
  8
GR1-1
  6
CONTINUOUS
 62
     6
100
AcDbCircle
 10
329.52258
 20
109.9796
 30
0.0
 40
18.0
100
AcDbArc
 50
124.682302
 51
206.107697
  0
ENDBLK
  5
267
330
265
100
AcDbEntity
  8
0
100
AcDbBlockEnd
  0
BLOCK
  5
2D3
330
2D2
100
AcDbEntity
  8
0
100
AcDbBlockBegin
  2
*D31
 70
     1
 71
     0
 10
0.0
 20
0.0
 30
0.0
  3
*D31
  1

  0
TEXT
  5
2D5
330
2D2
100
AcDbEntity
  8
LAYERGROUP-1
  6
CONTINUOUS
 62
     7
100
AcDbText
 10
305.335881
 20
391.17899
 30
0.0
 40
4.0
  1
4-11
 50
45.0
 41
0.818182
  7
FX_VECTOR
 72
     5
 11
313.821162
 21
399.664272
 31
0.0
100
AcDbText
  0
LINE
  5
2D6
330
2D2
100
AcDbEntity
  8
LAYERGROUP-1
  6
CONTINUOUS
 62
     7
100
AcDbLine
 10
309.08355
 20
387.85558
 30
0.0
 11
317.144567
 21
395.916598
 31
0.0
  0
LINE
  5
2D7
330
2D2
100
AcDbEntity
  8
LAYERGROUP-1
  6
CONTINUOUS
 62
     7
100
AcDbLine
 10
324.782932
 20
372.156198
 30
0.0
 11
308.376443
 21
388.562687
 31
0.0
  0
LINE
  5
2D8
330
2D2
100
AcDbEntity
  8
LAYERGROUP-1
  6
CONTINUOUS
 62
     7
100
AcDbLine
 10
332.84395
 20
380.217215
 30
0.0
 11
316.43746
 21
396.623705
 31
0.0
  0
LINE
  5
2D9
330
2D2
100
AcDbEntity
  8
LAYERGROUP-1
  6
CONTINUOUS
 62
     7
100
AcDbLine
 10
304.840909
 20
383.61294
 30
0.0
 11
309.08355
 21
387.85558
 31
0.0
  0
INSERT
  5
2DA
330
2D2
100
AcDbEntity
  8
LAYERGROUP-1
  6
CONTINUOUS
 62
     7
100
AcDbBlockReference
  2
FXTIP_ARROW_E
 10
309.08355
 20
387.85558
 30
0.0
 41
4.0
 42
4.0
 50
45.0
  0
LINE
  5
2DB
330
2D2
100
AcDbEntity
  8
LAYERGROUP-1
  6
CONTINUOUS
 62
     7
100
AcDbLine
 10
317.144567
 20
395.916598
 30
0.0
 11
321.387208
 21
400.159238
 31
0.0
  0
INSERT
  5
2DC
330
2D2
100
AcDbEntity
  8
LAYERGROUP-1
  6
CONTINUOUS
 62
     7
100
AcDbBlockReference
  2
FXTIP_ARROW_S
 10
317.144567
 20
395.916598
 30
0.0
 41
4.0
 42
4.0
 50
225.0
  0
ENDBLK
  5
2D4
330
2D2
100
AcDbEntity
  8
0
100
AcDbBlockEnd
  0
BLOCK
  5
2DF
330
2DE
100
AcDbEntity
  8
0
100
AcDbBlockBegin
  2
BLKF034
 70
     0
 71
     0
 10
0.0
 20
0.0
 30
0.0
  3
BLKF034
  1

  0
LINE
  5
2E2
330
2DE
100
AcDbEntity
  8
}}ﾊﾊGG血CCТ
  6
CONTINUOUS
 62
     7
100
AcDbLine
 10
10.0
 20
10.0
 30
0.0
 11
584.0
 21
10.0
 31
0.0
  0
LINE
  5
2E3
330
2DE
100
AcDbEntity
  8
}}ﾊﾊGG血CCТ
  6
CONTINUOUS
 62
     7
100
AcDbLine
 10
10.0
 20
10.0
 30
0.0
 11
10.0
 21
410.0
 31
0.0
  0
LINE
  5
2E4
330
2DE
100
AcDbEntity
  8
}}ﾊﾊGG血CCТ
  6
CONTINUOUS
 62
     7
100
AcDbLine
 10
10.0
 20
410.0
 30
0.0
 11
584.0
 21
410.0
 31
0.0
  0
LINE
  5
2E5
330
2DE
100
AcDbEntity
  8
}}ﾊﾊGG血CCТ
  6
CONTINUOUS
 62
     7
100
AcDbLine
 10
584.0
 20
410.0
 30
0.0
 11
584.0
 21
10.0
 31
0.0
  0
LINE
  5
2E6
330
2DE
100
AcDbEntity
  8
}}ﾊﾊGG血CCТ
  6
CONTINUOUS
 62
     7
100
AcDbLine
 10
327.0
 20
10.0
 30
0.0
 11
327.0
 21
20.0
 31
0.0
  0
TEXT
  5
2E7
330
2DE
100
AcDbEntity
  8
}}ﾊﾊGG血CCТ
  6
CONTINUOUS
 62
     7
100
AcDbText
 10
311.738831
 20
11.596879
 30
0.0
 40
6.648749
  1
品名
 41
1.083413
  7
FX_VECTOR
 72
     5
 11
323.058371
 21
11.596879
 31
0.0
100
AcDbText
  0
LINE
  5
2E8
330
2DE
100
AcDbEntity
  8
}}ﾊﾊGG血CCТ
  6
CONTINUOUS
 62
     7
100
AcDbLine
 10
407.0
 20
20.0
 30
0.0
 11
407.0
 21
10.0
 31
0.0
  0
LINE
  5
2E9
330
2DE
100
AcDbEntity
  8
}}ﾊﾊGG血CCТ
  6
CONTINUOUS
 62
     7
100
AcDbLine
 10
307.0
 20
20.0
 30
0.0
 11
584.0
 21
20.0
 31
0.0
  0
INSERT
  5
2ED
330
2DE
100
AcDbEntity
  8
0
100
AcDbBlockReference
  2
BLKF035
 10
0.0
 20
0.0
 30
0.0
  0
INSERT
  5
2F6
330
2DE
100
AcDbEntity
  8
0
100
AcDbBlockReference
  2
BLKF036
 10
0.0
 20
0.0
 30
0.0
  0
HATCH
  5
306
330
2DE
100
AcDbEntity
  8
GR1-1
  6
CONTINUOUS
 62
     7
100
AcDbHatch
 10
0.0
 20
0.0
 30
0.0
210
0.0
220
0.0
230
1.0
  2

 70
     0
 71
     1
 91
        2
 92
        0
 93
        4
 72
     1
 10
512.8018997861325
 20
17.91346152
 11
518.8018997861325
 21
17.91346152
 72
     1
 10
518.8018997861325
 20
17.91346152
 11
518.8018997861325
 21
11.91346152
 72
     1
 10
518.8018997861325
 20
11.91346152
 11
512.8018997861325
 21
11.91346152
 72
     1
 10
512.8018997861325
 20
11.91346152
 11
512.8018997861325
 21
17.91346152
 97
        0
 92
        0
 93
       15
 72
     1
 10
515.8018997861325
 20
17.76923076000002
 11
512.9461305461325
 21
14.91346152
 72
     1
 10
512.9461305461325
 20
14.91346152
 11
515.8018997861325
 21
12.05769228000001
 72
     1
 10
515.8018997861325
 20
12.05769228000001
 11
517.3595920661326
 21
13.61538462
 72
     1
 10
517.3595920661326
 20
13.61538462
 11
517.3595920661326
 21
12.98076924
 72
     1
 10
517.3595920661326
 20
12.98076924
 11
518.2249766861326
 21
12.98076924
 72
     1
 10
518.2249766861326
 20
12.98076924
 11
518.2249766861326
 21
15.00000000000001
 72
     1
 10
518.2249766861326
 20
15.00000000000001
 11
515.8018997861325
 21
15.00000000000001
 72
     1
 10
515.8018997861325
 20
15.00000000000001
 11
515.8018997861325
 21
14.13461538000001
 72
     1
 10
515.8018997861325
 20
14.13461538000001
 11
516.2461305461325
 21
14.13461538000001
 72
     1
 10
516.2461305461325
 20
14.13461538000001
 11
515.8018997861325
 21
13.69038462
 72
     1
 10
515.8018997861325
 20
13.69038462
 11
514.5788228861325
 21
14.91346152
 72
     1
 10
514.5788228861325
 20
14.91346152
 11
515.8018997861325
 21
16.13653842000003
 72
     1
 10
515.8018997861325
 20
16.13653842000003
 11
516.5922844061325
 21
15.3461538
 72
     1
 10
516.5922844061325
 20
15.3461538
 11
518.2249766861326
 21
15.3461538
 72
     1
 10
518.2249766861326
 20
15.3461538
 11
515.8018997861325
 21
17.76923076000002
 97
        0
 75
     0
 76
     0
 52
45.0
 41
0.05
 77
     0
 78
     1
 53
45.0
 43
0.0
 44
0.0
 45
-0.0353553390593274
 46
0.0353553390593274
 79
     0
 98
        0
  0
TEXT
  5
307
330
2DE
100
AcDbEntity
  8
}}ﾊﾊGG血CCТ
  6
CONTINUOUS
 62
     7
100
AcDbText
 10
523.225769
 20
11.461285
 30
0.0
 40
6.0
  1
GOLD CASTER
 41
0.719626
  7
FX_VECTOR
 72
     5
 11
567.225769
 21
11.461285
 31
0.0
100
AcDbText
  0
LINE
  5
308
330
2DE
100
AcDbEntity
  8
}}ﾊﾊGG血CCТ
  6
CONTINUOUS
 62
     7
100
AcDbLine
 10
427.0
 20
10.0
 30
0.0
 11
427.0
 21
20.0
 31
0.0
  0
TEXT
  5
309
330
2DE
100
AcDbEntity
  8
}}ﾊﾊGG血CCТ
  6
CONTINUOUS
 62
     7
100
AcDbText
 10
411.738831
 20
11.596879
 30
0.0
 40
6.648749
  1
図番
 41
1.083413
  7
FX_VECTOR
 72
     5
 11
423.058371
 21
11.596879
 31
0.0
100
AcDbText
  0
LINE
  5
30A
330
2DE
100
AcDbEntity
  8
}}ﾊﾊGG血CCТ
  6
CONTINUOUS
 62
     7
100
AcDbLine
 10
507.0
 20
20.0
 30
0.0
 11
507.0
 21
10.0
 31
0.0
  0
LINE
  5
30B
330
2DE
100
AcDbEntity
  8
}}ﾊﾊGG血CCТ
  6
CONTINUOUS
 62
     7
100
AcDbLine
 10
307.0
 20
20.0
 30
0.0
 11
307.0
 21
10.0
 31
0.0
  0
ENDBLK
  5
2E0
330
2DE
100
AcDbEntity
  8
0
100
AcDbBlockEnd
  0
BLOCK
  5
2EB
330
2EA
100
AcDbEntity
  8
0
100
AcDbBlockBegin
  2
BLKF035
 70
     0
 71
     0
 10
0.0
 20
0.0
 30
0.0
  3
BLKF035
  1

  0
LINE
  5
2EF
330
2EA
100
AcDbEntity
  8
0-1
  6
CONTINUOUS
 62
     7
100
AcDbLine
 10
518.8019
 20
17.913462
 30
0.0
 11
512.8019
 21
17.913462
 31
0.0
  0
LINE
  5
2F0
330
2EA
100
AcDbEntity
  8
0-1
  6
CONTINUOUS
 62
     7
100
AcDbLine
 10
512.8019
 20
17.913462
 30
0.0
 11
512.8019
 21
11.913462
 31
0.0
  0
LINE
  5
2F1
330
2EA
100
AcDbEntity
  8
0-1
  6
CONTINUOUS
 62
     7
100
AcDbLine
 10
512.8019
 20
11.913462
 30
0.0
 11
518.8019
 21
11.913462
 31
0.0
  0
LINE
  5
2F2
330
2EA
100
AcDbEntity
  8
0-1
  6
CONTINUOUS
 62
     7
100
AcDbLine
 10
518.8019
 20
11.913462
 30
0.0
 11
518.8019
 21
17.913462
 31
0.0
  0
ENDBLK
  5
2EC
330
2EA
100
AcDbEntity
  8
0
100
AcDbBlockEnd
  0
BLOCK
  5
2F4
330
2F3
100
AcDbEntity
  8
0
100
AcDbBlockBegin
  2
BLKF036
 70
     0
 71
     0
 10
0.0
 20
0.0
 30
0.0
  3
BLKF036
  1

  0
LINE
  5
2F7
330
2F3
100
AcDbEntity
  8
0-1
  6
CONTINUOUS
 62
     7
100
AcDbLine
 10
518.224977
 20
15.346154
 30
0.0
 11
515.8019
 21
17.769231
 31
0.0
  0
LINE
  5
2F8
330
2F3
100
AcDbEntity
  8
0-1
  6
CONTINUOUS
 62
     7
100
AcDbLine
 10
515.8019
 20
17.769231
 30
0.0
 11
512.946131
 21
14.913462
 31
0.0
  0
LINE
  5
2F9
330
2F3
100
AcDbEntity
  8
0-1
  6
CONTINUOUS
 62
     7
100
AcDbLine
 10
512.946131
 20
14.913462
 30
0.0
 11
515.8019
 21
12.057692
 31
0.0
  0
LINE
  5
2FA
330
2F3
100
AcDbEntity
  8
0-1
  6
CONTINUOUS
 62
     7
100
AcDbLine
 10
515.8019
 20
12.057692
 30
0.0
 11
517.359592
 21
13.615385
 31
0.0
  0
LINE
  5
2FB
330
2F3
100
AcDbEntity
  8
0-1
  6
CONTINUOUS
 62
     7
100
AcDbLine
 10
517.359592
 20
13.615385
 30
0.0
 11
517.359592
 21
12.980769
 31
0.0
  0
LINE
  5
2FC
330
2F3
100
AcDbEntity
  8
0-1
  6
CONTINUOUS
 62
     7
100
AcDbLine
 10
517.359592
 20
12.980769
 30
0.0
 11
518.224977
 21
12.980769
 31
0.0
  0
LINE
  5
2FD
330
2F3
100
AcDbEntity
  8
0-1
  6
CONTINUOUS
 62
     7
100
AcDbLine
 10
518.224977
 20
12.980769
 30
0.0
 11
518.224977
 21
15.0
 31
0.0
  0
LINE
  5
2FE
330
2F3
100
AcDbEntity
  8
0-1
  6
CONTINUOUS
 62
     7
100
AcDbLine
 10
518.224977
 20
15.0
 30
0.0
 11
515.8019
 21
15.0
 31
0.0
  0
LINE
  5
2FF
330
2F3
100
AcDbEntity
  8
0-1
  6
CONTINUOUS
 62
     7
100
AcDbLine
 10
515.8019
 20
15.0
 30
0.0
 11
515.8019
 21
14.134615
 31
0.0
  0
LINE
  5
300
330
2F3
100
AcDbEntity
  8
0-1
  6
CONTINUOUS
 62
     7
100
AcDbLine
 10
515.8019
 20
14.134615
 30
0.0
 11
516.246131
 21
14.134615
 31
0.0
  0
LINE
  5
301
330
2F3
100
AcDbEntity
  8
0-1
  6
CONTINUOUS
 62
     7
100
AcDbLine
 10
516.246131
 20
14.134615
 30
0.0
 11
515.8019
 21
13.690385
 31
0.0
  0
LINE
  5
302
330
2F3
100
AcDbEntity
  8
0-1
  6
CONTINUOUS
 62
     7
100
AcDbLine
 10
515.8019
 20
13.690385
 30
0.0
 11
514.578823
 21
14.913462
 31
0.0
  0
LINE
  5
303
330
2F3
100
AcDbEntity
  8
0-1
  6
CONTINUOUS
 62
     7
100
AcDbLine
 10
514.578823
 20
14.913462
 30
0.0
 11
515.8019
 21
16.136538
 31
0.0
  0
LINE
  5
304
330
2F3
100
AcDbEntity
  8
0-1
  6
CONTINUOUS
 62
     7
100
AcDbLine
 10
515.8019
 20
16.136538
 30
0.0
 11
516.592284
 21
15.346154
 31
0.0
  0
LINE
  5
305
330
2F3
100
AcDbEntity
  8
0-1
  6
CONTINUOUS
 62
     7
100
AcDbLine
 10
516.592284
 20
15.346154
 30
0.0
 11
518.224977
 21
15.346154
 31
0.0
  0
ENDBLK
  5
2F5
330
2F3
100
AcDbEntity
  8
0
100
AcDbBlockEnd
  0
BLOCK
  5
319
330
318
100
AcDbEntity
  8
0
100
AcDbBlockBegin
  2
*D35
 70
     1
 71
     0
 10
0.0
 20
0.0
 30
0.0
  3
*D35
  1

  0
TEXT
  5
31B
330
318
100
AcDbEntity
  8
LAYERGROUP-1
  6
CONTINUOUS
 62
     7
100
AcDbText
 10
259.459249
 20
288.378576
 30
0.0
 40
4.0
  1
102
 50
23.648335
 41
0.828947
  7
FX_VECTOR
 72
     5
 11
267.703471
 21
291.988673
 31
0.0
100
AcDbText
  0
LINE
  5
31C
330
318
100
AcDbEntity
  8
LAYERGROUP-1
  6
CONTINUOUS
 62
     7
100
AcDbLine
 10
276.444273
 20
294.724536
 30
0.0
 11
369.514835
 21
335.4796
 31
0.0
  0
INSERT
  5
31D
330
318
100
AcDbEntity
  8
LAYERGROUP-1
  6
CONTINUOUS
 62
     7
100
AcDbBlockReference
  2
FXTIP_ARROW_S
 10
276.444273
 20
294.724536
 30
0.0
 41
4.0
 42
4.0
 50
203.648335
  0
LINE
  5
31E
330
318
100
AcDbEntity
  8
LAYERGROUP-1
  6
CONTINUOUS
 62
     7
100
AcDbLine
 10
276.444273
 20
294.724536
 30
0.0
 11
251.52071
 21
283.810651
 31
0.0
  0
ENDBLK
  5
31A
330
318
100
AcDbEntity
  8
0
100
AcDbBlockEnd
  0
BLOCK
  5
339
330
338
100
AcDbEntity
  8
0
100
AcDbBlockBegin
  2
*D36
 70
     1
 71
     0
 10
0.0
 20
0.0
 30
0.0
  3
*D36
  1

  0
TEXT
  5
33B
330
338
100
AcDbEntity
  8
LAYERGROUP-1
  6
CONTINUOUS
 62
     7
100
AcDbText
 10
161.367783
 20
26.227854
 30
0.0
 40
4.0
  1
35
 41
0.851351
  7
FX_VECTOR
 72
     5
 11
167.367783
 21
26.227854
 31
0.0
100
AcDbText
  0
LINE
  5
33C
330
338
100
AcDbEntity
  8
LAYERGROUP-1
  6
CONTINUOUS
 62
     7
100
AcDbLine
 10
146.867769
 20
25.227854
 30
0.0
 11
181.867794
 21
25.227854
 31
0.0
  0
INSERT
  5
33D
330
338
100
AcDbEntity
  8
LAYERGROUP-1
  6
CONTINUOUS
 62
     7
100
AcDbBlockReference
  2
FXTIP_ARROW_S
 10
146.867769
 20
25.227854
 30
0.0
 41
4.0
 42
4.0
 50
180.0
  0
INSERT
  5
33E
330
338
100
AcDbEntity
  8
LAYERGROUP-1
  6
CONTINUOUS
 62
     7
100
AcDbBlockReference
  2
FXTIP_ARROW_E
 10
181.867794
 20
25.227854
 30
0.0
 41
4.0
 42
4.0
 50
360.0
  0
LINE
  5
33F
330
338
100
AcDbEntity
  8
LAYERGROUP-1
  6
CONTINUOUS
 62
     7
100
AcDbLine
 10
146.867769
 20
37.640355
 30
0.0
 11
146.867769
 21
24.227854
 31
0.0
  0
LINE
  5
340
330
338
100
AcDbEntity
  8
LAYERGROUP-1
  6
CONTINUOUS
 62
     7
100
AcDbLine
 10
181.867794
 20
37.640355
 30
0.0
 11
181.867794
 21
24.227854
 31
0.0
  0
ENDBLK
  5
33A
330
338
100
AcDbEntity
  8
0
100
AcDbBlockEnd
  0
BLOCK
  5
343
330
342
100
AcDbEntity
  8
0
100
AcDbBlockBegin
  2
*D37
 70
     1
 71
     0
 10
0.0
 20
0.0
 30
0.0
  3
*D37
  1

  0
TEXT
  5
345
330
342
100
AcDbEntity
  8
LAYERGROUP-1
  6
CONTINUOUS
 62
     7
100
AcDbText
 10
161.367783
 20
15.797558
 30
0.0
 40
4.0
  1
55
 41
0.851351
  7
FX_VECTOR
 72
     5
 11
167.367783
 21
15.797558
 31
0.0
100
AcDbText
  0
LINE
  5
346
330
342
100
AcDbEntity
  8
LAYERGROUP-1
  6
CONTINUOUS
 62
     7
100
AcDbLine
 10
136.867781
 20
14.797558
 30
0.0
 11
191.867781
 21
14.797558
 31
0.0
  0
INSERT
  5
347
330
342
100
AcDbEntity
  8
LAYERGROUP-1
  6
CONTINUOUS
 62
     7
100
AcDbBlockReference
  2
FXTIP_ARROW_S
 10
136.867781
 20
14.797558
 30
0.0
 41
4.0
 42
4.0
 50
180.0
  0
INSERT
  5
348
330
342
100
AcDbEntity
  8
LAYERGROUP-1
  6
CONTINUOUS
 62
     7
100
AcDbBlockReference
  2
FXTIP_ARROW_E
 10
191.867781
 20
14.797558
 30
0.0
 41
4.0
 42
4.0
 50
360.0
  0
LINE
  5
349
330
342
100
AcDbEntity
  8
LAYERGROUP-1
  6
CONTINUOUS
 62
     7
100
AcDbLine
 10
136.867781
 20
99.646266
 30
0.0
 11
136.867781
 21
13.797558
 31
0.0
  0
LINE
  5
34A
330
342
100
AcDbEntity
  8
LAYERGROUP-1
  6
CONTINUOUS
 62
     7
100
AcDbLine
 10
191.867781
 20
99.646266
 30
0.0
 11
191.867781
 21
13.797558
 31
0.0
  0
ENDBLK
  5
344
330
342
100
AcDbEntity
  8
0
100
AcDbBlockEnd
  0
BLOCK
  5
34C
330
34B
100
AcDbEntity
  8
0
100
AcDbBlockBegin
  2
BLKF040
 70
     0
 71
     0
 10
0.0
 20
0.0
 30
0.0
  3
BLKF040
  1

  0
LINE
  5
34F
330
34B
100
AcDbEntity
  8
GR1-1
  6
CONTINUOUS
 62
     7
100
AcDbLine
 10
268.557401
 20
80.949416
 30
0.0
 11
268.303773
 21
81.031824
 31
0.0
  0
LINE
  5
350
330
34B
100
AcDbEntity
  8
GR1-1
  6
CONTINUOUS
 62
     7
100
AcDbLine
 10
268.643011
 20
80.781398
 30
0.0
 11
268.135755
 21
80.946215
 31
0.0
  0
LINE
  5
351
330
34B
100
AcDbEntity
  8
GR1-1
  6
CONTINUOUS
 62
     7
100
AcDbLine
 10
268.72862
 20
80.613379
 30
0.0
 11
267.967737
 21
80.860605
 31
0.0
  0
LINE
  5
352
330
34B
100
AcDbEntity
  8
GR1-1
  6
CONTINUOUS
 62
     7
100
AcDbLine
 10
268.81423
 20
80.445361
 30
0.0
 11
267.799719
 21
80.774996
 31
0.0
  0
LINE
  5
353
330
34B
100
AcDbEntity
  8
GR1-1
  6
CONTINUOUS
 62
     7
100
AcDbLine
 10
268.899839
 20
80.277343
 30
0.0
 11
268.024938
 21
80.561616
 31
0.0
  0
LINE
  5
354
330
34B
100
AcDbEntity
  8
GR1-1
  6
CONTINUOUS
 62
     7
100
AcDbLine
 10
267.785552
 20
80.639397
 30
0.0
 11
267.631701
 21
80.689386
 31
0.0
  0
LINE
  5
355
330
34B
100
AcDbEntity
  8
GR1-1
  6
CONTINUOUS
 62
     7
100
AcDbLine
 10
268.985449
 20
80.109325
 30
0.0
 11
268.110548
 21
80.393597
 31
0.0
  0
LINE
  5
356
330
34B
100
AcDbEntity
  8
GR1-1
  6
CONTINUOUS
 62
     7
100
AcDbLine
 10
267.617533
 20
80.553787
 30
0.0
 11
267.463682
 21
80.603777
 31
0.0
  0
LINE
  5
357
330
34B
100
AcDbEntity
  8
GR1-1
  6
CONTINUOUS
 62
     7
100
AcDbLine
 10
269.071058
 20
79.941307
 30
0.0
 11
268.196157
 21
80.225579
 31
0.0
  0
LINE
  5
358
330
34B
100
AcDbEntity
  8
GR1-1
  6
CONTINUOUS
 62
     7
100
AcDbLine
 10
267.449515
 20
80.468178
 30
0.0
 11
267.295664
 21
80.518167
 31
0.0
  0
LINE
  5
359
330
34B
100
AcDbEntity
  8
GR1-1
  6
CONTINUOUS
 62
     7
100
AcDbLine
 10
269.156668
 20
79.773288
 30
0.0
 11
268.178207
 21
80.09121
 31
0.0
  0
LINE
  5
35A
330
34B
100
AcDbEntity
  8
GR1-1
  6
CONTINUOUS
 62
     7
100
AcDbLine
 10
267.281497
 20
80.382568
 30
0.0
 11
267.127646
 21
80.432558
 31
0.0
  0
LINE
  5
35B
330
34B
100
AcDbEntity
  8
GR1-1
  6
CONTINUOUS
 62
     7
100
AcDbLine
 10
269.242278
 20
79.60527
 30
0.0
 11
268.010188
 21
80.0056
 31
0.0
  0
LINE
  5
35C
330
34B
100
AcDbEntity
  8
GR1-1
  6
CONTINUOUS
 62
     7
100
AcDbLine
 10
267.113479
 20
80.296959
 30
0.0
 11
266.959628
 21
80.346948
 31
0.0
  0
LINE
  5
35D
330
34B
100
AcDbEntity
  8
GR1-1
  6
CONTINUOUS
 62
     7
100
AcDbLine
 10
269.327887
 20
79.437252
 30
0.0
 11
267.84217
 21
79.919991
 31
0.0
  0
LINE
  5
35E
330
34B
100
AcDbEntity
  8
GR1-1
  6
CONTINUOUS
 62
     7
100
AcDbLine
 10
266.945461
 20
80.211349
 30
0.0
 11
266.79161
 21
80.261339
 31
0.0
  0
LINE
  5
35F
330
34B
100
AcDbEntity
  8
GR1-1
  6
CONTINUOUS
 62
     7
100
AcDbLine
 10
269.413497
 20
79.269234
 30
0.0
 11
267.748253
 21
79.810304
 31
0.0
  0
LINE
  5
360
330
34B
100
AcDbEntity
  8
GR1-1
  6
CONTINUOUS
 62
     7
100
AcDbLine
 10
266.777442
 20
80.12574
 30
0.0
 11
266.623591
 21
80.175729
 31
0.0
  0
LINE
  5
361
330
34B
100
AcDbEntity
  8
GR1-1
  6
CONTINUOUS
 62
     7
100
AcDbLine
 10
269.499106
 20
79.101216
 30
0.0
 11
269.245478
 21
79.183624
 31
0.0
  0
LINE
  5
362
330
34B
100
AcDbEntity
  8
GR1-1
  6
CONTINUOUS
 62
     7
100
AcDbLine
 10
266.808978
 20
79.975291
 30
0.0
 11
266.455573
 21
80.090119
 31
0.0
  0
LINE
  5
363
330
34B
100
AcDbEntity
  8
GR1-1
  6
CONTINUOUS
 62
     7
100
AcDbLine
 10
269.584716
 20
78.933197
 30
0.0
 11
269.204274
 21
79.05681
 31
0.0
  0
LINE
  5
364
330
34B
100
AcDbEntity
  8
GR1-1
  6
CONTINUOUS
 62
     7
100
AcDbLine
 10
266.894587
 20
79.807273
 30
0.0
 11
266.287555
 21
80.00451
 31
0.0
  0
LINE
  5
365
330
34B
100
AcDbEntity
  8
GR1-1
  6
CONTINUOUS
 62
     7
100
AcDbLine
 10
269.670325
 20
78.765179
 30
0.0
 11
269.16307
 21
78.929996
 31
0.0
  0
LINE
  5
366
330
34B
100
AcDbEntity
  8
GR1-1
  6
CONTINUOUS
 62
     7
100
AcDbLine
 10
266.980197
 20
79.639255
 30
0.0
 11
266.711184
 21
79.726663
 31
0.0
  0
LINE
  5
367
330
34B
100
AcDbEntity
  8
GR1-1
  6
CONTINUOUS
 62
     7
100
AcDbLine
 10
266.626792
 20
79.754083
 30
0.0
 11
266.119537
 21
79.9189
 31
0.0
  0
LINE
  5
368
330
34B
100
AcDbEntity
  8
GR1-1
  6
CONTINUOUS
 62
     7
100
AcDbLine
 10
269.755935
 20
78.597161
 30
0.0
 11
269.121865
 21
78.803183
 31
0.0
  0
LINE
  5
369
330
34B
100
AcDbEntity
  8
GR1-1
  6
CONTINUOUS
 62
     7
100
AcDbLine
 10
267.065806
 20
79.471237
 30
0.0
 11
266.796793
 21
79.558644
 31
0.0
  0
LINE
  5
36A
330
34B
100
AcDbEntity
  8
GR1-1
  6
CONTINUOUS
 62
     7
100
AcDbLine
 10
266.585588
 20
79.627269
 30
0.0
 11
265.951519
 21
79.833291
 31
0.0
  0
LINE
  5
36B
330
34B
100
AcDbEntity
  8
GR1-1
  6
CONTINUOUS
 62
     7
100
AcDbLine
 10
269.841544
 20
78.429143
 30
0.0
 11
269.080661
 21
78.676369
 31
0.0
  0
LINE
  5
36C
330
34B
100
AcDbEntity
  8
GR1-1
  6
CONTINUOUS
 62
     7
100
AcDbLine
 10
267.151416
 20
79.303219
 30
0.0
 11
266.882403
 21
79.390626
 31
0.0
  0
LINE
  5
36D
330
34B
100
AcDbEntity
  8
GR1-1
  6
CONTINUOUS
 62
     7
100
AcDbLine
 10
266.544384
 20
79.500455
 30
0.0
 11
265.7835
 21
79.747681
 31
0.0
  0
LINE
  5
36E
330
34B
100
AcDbEntity
  8
GR1-1
  6
CONTINUOUS
 62
     7
100
AcDbLine
 10
269.927154
 20
78.261125
 30
0.0
 11
269.039457
 21
78.549555
 31
0.0
  0
LINE
  5
36F
330
34B
100
AcDbEntity
  8
GR1-1
  6
CONTINUOUS
 62
     7
100
AcDbLine
 10
268.405387
 20
78.755576
 30
0.0
 11
267.686742
 21
78.989078
 31
0.0
  0
LINE
  5
370
330
34B
100
AcDbEntity
  8
GR1-1
  6
CONTINUOUS
 62
     7
100
AcDbLine
 10
267.237025
 20
79.1352
 30
0.0
 11
266.968013
 21
79.222608
 31
0.0
  0
LINE
  5
371
330
34B
100
AcDbEntity
  8
GR1-1
  6
CONTINUOUS
 62
     7
100
AcDbLine
 10
266.503179
 20
79.373641
 30
0.0
 11
265.615482
 21
79.662072
 31
0.0
  0
LINE
  5
372
330
34B
100
AcDbEntity
  8
GR1-1
  6
CONTINUOUS
 62
     7
100
AcDbLine
 10
270.012764
 20
78.093106
 30
0.0
 11
268.998253
 21
78.422741
 31
0.0
  0
LINE
  5
373
330
34B
100
AcDbEntity
  8
GR1-1
  6
CONTINUOUS
 62
     7
100
AcDbLine
 10
268.364183
 20
78.628763
 30
0.0
 11
267.77099
 21
78.821503
 31
0.0
  0
LINE
  5
374
330
34B
100
AcDbEntity
  8
GR1-1
  6
CONTINUOUS
 62
     7
100
AcDbLine
 10
267.322635
 20
78.967182
 30
0.0
 11
267.053622
 21
79.05459
 31
0.0
  0
LINE
  5
375
330
34B
100
AcDbEntity
  8
GR1-1
  6
CONTINUOUS
 62
     7
100
AcDbLine
 10
266.461975
 20
79.246828
 30
0.0
 11
265.447464
 21
79.576462
 31
0.0
  0
LINE
  5
376
330
34B
100
AcDbEntity
  8
GR1-1
  6
CONTINUOUS
 62
     7
100
AcDbLine
 10
270.098373
 20
77.925088
 30
0.0
 11
268.957048
 21
78.295927
 31
0.0
  0
LINE
  5
377
330
34B
100
AcDbEntity
  8
GR1-1
  6
CONTINUOUS
 62
     7
100
AcDbLine
 10
268.322979
 20
78.501949
 30
0.0
 11
267.856599
 21
78.653485
 31
0.0
  0
LINE
  5
378
330
34B
100
AcDbEntity
  8
GR1-1
  6
CONTINUOUS
 62
     7
100
AcDbLine
 10
267.408245
 20
78.799164
 30
0.0
 11
267.05484
 21
78.913992
 31
0.0
  0
LINE
  5
379
330
34B
100
AcDbEntity
  8
GR1-1
  6
CONTINUOUS
 62
     7
100
AcDbLine
 10
266.420771
 20
79.120014
 30
0.0
 11
265.279446
 21
79.490853
 31
0.0
  0
LINE
  5
37A
330
34B
100
AcDbEntity
  8
GR1-1
  6
CONTINUOUS
 62
     7
100
AcDbLine
 10
270.183983
 20
77.75707
 30
0.0
 11
268.915844
 21
78.169113
 31
0.0
  0
LINE
  5
37B
330
34B
100
AcDbEntity
  8
GR1-1
  6
CONTINUOUS
 62
     7
100
AcDbLine
 10
268.281774
 20
78.375135
 30
0.0
 11
267.801556
 21
78.531167
 31
0.0
  0
LINE
  5
37C
330
34B
100
AcDbEntity
  8
GR1-1
  6
CONTINUOUS
 62
     7
100
AcDbLine
 10
267.493854
 20
78.631146
 30
0.0
 11
267.013636
 21
78.787178
 31
0.0
  0
LINE
  5
37D
330
34B
100
AcDbEntity
  8
GR1-1
  6
CONTINUOUS
 62
     7
100
AcDbLine
 10
266.379566
 20
78.9932
 30
0.0
 11
265.111428
 21
79.405243
 31
0.0
  0
LINE
  5
37E
330
34B
100
AcDbEntity
  8
GR1-1
  6
CONTINUOUS
 62
     7
100
AcDbLine
 10
270.269592
 20
77.589052
 30
0.0
 11
268.87464
 21
78.042299
 31
0.0
  0
LINE
  5
37F
330
34B
100
AcDbEntity
  8
GR1-1
  6
CONTINUOUS
 62
     7
100
AcDbLine
 10
268.24057
 20
78.248321
 30
0.0
 11
267.633538
 21
78.445558
 31
0.0
  0
LINE
  5
380
330
34B
100
AcDbEntity
  8
GR1-1
  6
CONTINUOUS
 62
     7
100
AcDbLine
 10
267.579464
 20
78.463128
 30
0.0
 11
266.972431
 21
78.660364
 31
0.0
  0
LINE
  5
381
330
34B
100
AcDbEntity
  8
GR1-1
  6
CONTINUOUS
 62
     7
100
AcDbLine
 10
266.338362
 20
78.866386
 30
0.0
 11
264.943409
 21
79.319633
 31
0.0
  0
LINE
  5
382
330
34B
100
AcDbEntity
  8
GR1-1
  6
CONTINUOUS
 62
     7
100
AcDbLine
 10
270.155648
 20
77.485872
 30
0.0
 11
268.833435
 21
77.915485
 31
0.0
  0
LINE
  5
383
330
34B
100
AcDbEntity
  8
GR1-1
  6
CONTINUOUS
 62
     7
100
AcDbLine
 10
268.199366
 20
78.121507
 30
0.0
 11
266.931227
 21
78.53355
 31
0.0
  0
LINE
  5
384
330
34B
100
AcDbEntity
  8
GR1-1
  6
CONTINUOUS
 62
     7
100
AcDbLine
 10
266.297158
 20
78.739572
 30
0.0
 11
264.974945
 21
79.169185
 31
0.0
  0
LINE
  5
385
330
34B
100
AcDbEntity
  8
GR1-1
  6
CONTINUOUS
 62
     7
100
AcDbLine
 10
269.98763
 20
77.400263
 30
0.0
 11
268.792231
 21
77.788672
 31
0.0
  0
LINE
  5
386
330
34B
100
AcDbEntity
  8
GR1-1
  6
CONTINUOUS
 62
     7
100
AcDbLine
 10
268.158161
 20
77.994693
 30
0.0
 11
266.890023
 21
78.406736
 31
0.0
  0
LINE
  5
387
330
34B
100
AcDbEntity
  8
GR1-1
  6
CONTINUOUS
 62
     7
100
AcDbLine
 10
266.255953
 20
78.612758
 30
0.0
 11
265.060554
 21
79.001167
 31
0.0
  0
LINE
  5
388
330
34B
100
AcDbEntity
  8
GR1-1
  6
CONTINUOUS
 62
     7
100
AcDbLine
 10
269.819612
 20
77.314653
 30
0.0
 11
268.751027
 21
77.661858
 31
0.0
  0
LINE
  5
389
330
34B
100
AcDbEntity
  8
GR1-1
  6
CONTINUOUS
 62
     7
100
AcDbLine
 10
268.116957
 20
77.867879
 30
0.0
 11
266.848818
 21
78.279923
 31
0.0
  0
LINE
  5
38A
330
34B
100
AcDbEntity
  8
GR1-1
  6
CONTINUOUS
 62
     7
100
AcDbLine
 10
266.214749
 20
78.485944
 30
0.0
 11
265.146164
 21
78.833149
 31
0.0
  0
LINE
  5
38B
330
34B
100
AcDbEntity
  8
GR1-1
  6
CONTINUOUS
 62
     7
100
AcDbLine
 10
269.651594
 20
77.229044
 30
0.0
 11
268.709822
 21
77.535044
 31
0.0
  0
LINE
  5
38C
330
34B
100
AcDbEntity
  8
GR1-1
  6
CONTINUOUS
 62
     7
100
AcDbLine
 10
268.075753
 20
77.741065
 30
0.0
 11
266.807614
 21
78.153109
 31
0.0
  0
LINE
  5
38D
330
34B
100
AcDbEntity
  8
GR1-1
  6
CONTINUOUS
 62
     7
100
AcDbLine
 10
266.173545
 20
78.35913
 30
0.0
 11
265.231773
 21
78.66513
 31
0.0
  0
LINE
  5
38E
330
34B
100
AcDbEntity
  8
GR1-1
  6
CONTINUOUS
 62
     7
100
AcDbLine
 10
269.483575
 20
77.143434
 30
0.0
 11
268.668618
 21
77.40823
 31
0.0
  0
LINE
  5
38F
330
34B
100
AcDbEntity
  8
GR1-1
  6
CONTINUOUS
 62
     7
100
AcDbLine
 10
268.034549
 20
77.614252
 30
0.0
 11
266.76641
 21
78.026295
 31
0.0
  0
LINE
  5
390
330
34B
100
AcDbEntity
  8
GR1-1
  6
CONTINUOUS
 62
     7
100
AcDbLine
 10
266.13234
 20
78.232316
 30
0.0
 11
265.317383
 21
78.497112
 31
0.0
  0
LINE
  5
391
330
34B
100
AcDbEntity
  8
GR1-1
  6
CONTINUOUS
 62
     7
100
AcDbLine
 10
269.315557
 20
77.057825
 30
0.0
 11
268.627414
 21
77.281416
 31
0.0
  0
LINE
  5
392
330
34B
100
AcDbEntity
  8
GR1-1
  6
CONTINUOUS
 62
     7
100
AcDbLine
 10
266.091136
 20
78.105503
 30
0.0
 11
265.402992
 21
78.329094
 31
0.0
  0
LINE
  5
393
330
34B
100
AcDbEntity
  8
GR1-1
  6
CONTINUOUS
 62
     7
100
AcDbLine
 10
269.147539
 20
76.972215
 30
0.0
 11
268.586209
 21
77.154602
 31
0.0
  0
LINE
  5
394
330
34B
100
AcDbEntity
  8
GR1-1
  6
CONTINUOUS
 62
     7
100
AcDbLine
 10
266.049932
 20
77.978689
 30
0.0
 11
265.488602
 21
78.161076
 31
0.0
  0
LINE
  5
395
330
34B
100
AcDbEntity
  8
GR1-1
  6
CONTINUOUS
 62
     7
100
AcDbLine
 10
268.979521
 20
76.886606
 30
0.0
 11
268.545005
 21
77.027788
 31
0.0
  0
LINE
  5
396
330
34B
100
AcDbEntity
  8
GR1-1
  6
CONTINUOUS
 62
     7
100
AcDbLine
 10
266.008727
 20
77.851875
 30
0.0
 11
265.574211
 21
77.993058
 31
0.0
  0
LINE
  5
397
330
34B
100
AcDbEntity
  8
GR1-1
  6
CONTINUOUS
 62
     7
100
AcDbLine
 10
268.811503
 20
76.800996
 30
0.0
 11
268.503801
 21
76.900974
 31
0.0
  0
LINE
  5
398
330
34B
100
AcDbEntity
  8
GR1-1
  6
CONTINUOUS
 62
     7
100
AcDbLine
 10
265.967523
 20
77.725061
 30
0.0
 11
265.659821
 21
77.825039
 31
0.0
  0
LINE
  5
399
330
34B
100
AcDbEntity
  8
GR1-1
  6
CONTINUOUS
 62
     7
100
AcDbLine
 10
268.643484
 20
76.715386
 30
0.0
 11
268.462596
 21
76.774161
 31
0.0
  0
LINE
  5
39A
330
34B
100
AcDbEntity
  8
GR1-1
  6
CONTINUOUS
 62
     7
100
AcDbLine
 10
265.926319
 20
77.598247
 30
0.0
 11
265.745431
 21
77.657021
 31
0.0
  0
LINE
  5
39B
330
34B
100
AcDbEntity
  8
GR1-1
  6
CONTINUOUS
 62
     7
100
AcDbLine
 10
268.475466
 20
76.629777
 30
0.0
 11
265.83104
 21
77.489003
 31
0.0
  0
LINE
  5
39C
330
34B
100
AcDbEntity
  8
GR1-1
  6
CONTINUOUS
 62
     7
100
AcDbLine
 10
268.307448
 20
76.544167
 30
0.0
 11
265.91665
 21
77.320985
 31
0.0
  0
LINE
  5
39D
330
34B
100
AcDbEntity
  8
GR1-1
  6
CONTINUOUS
 62
     7
100
AcDbLine
 10
268.13943
 20
76.458558
 30
0.0
 11
266.002259
 21
77.152967
 31
0.0
  0
LINE
  5
39E
330
34B
100
AcDbEntity
  8
GR1-1
  6
CONTINUOUS
 62
     7
100
AcDbLine
 10
267.971412
 20
76.372948
 30
0.0
 11
266.087869
 21
76.984948
 31
0.0
  0
LINE
  5
39F
330
34B
100
AcDbEntity
  8
GR1-1
  6
CONTINUOUS
 62
     7
100
AcDbLine
 10
267.803393
 20
76.287339
 30
0.0
 11
266.173478
 21
76.81693
 31
0.0
  0
LINE
  5
3A0
330
34B
100
AcDbEntity
  8
GR1-1
  6
CONTINUOUS
 62
     7
100
AcDbLine
 10
267.635375
 20
76.201729
 30
0.0
 11
266.259088
 21
76.648912
 31
0.0
  0
LINE
  5
3A1
330
34B
100
AcDbEntity
  8
GR1-1
  6
CONTINUOUS
 62
     7
100
AcDbLine
 10
267.467357
 20
76.11612
 30
0.0
 11
266.344697
 21
76.480894
 31
0.0
  0
LINE
  5
3A2
330
34B
100
AcDbEntity
  8
GR1-1
  6
CONTINUOUS
 62
     7
100
AcDbLine
 10
267.299339
 20
76.03051
 30
0.0
 11
266.430307
 21
76.312876
 31
0.0
  0
LINE
  5
3A3
330
34B
100
AcDbEntity
  8
GR1-1
  6
CONTINUOUS
 62
     7
100
AcDbLine
 10
267.131321
 20
75.944901
 30
0.0
 11
266.515917
 21
76.144857
 31
0.0
  0
LINE
  5
3A4
330
34B
100
AcDbEntity
  8
GR1-1
  6
CONTINUOUS
 62
     7
100
AcDbLine
 10
266.963302
 20
75.859291
 30
0.0
 11
266.601526
 21
75.976839
 31
0.0
  0
LINE
  5
3A5
330
34B
100
AcDbEntity
  8
GR1-1
  6
CONTINUOUS
 62
     7
100
AcDbLine
 10
266.795284
 20
75.773681
 30
0.0
 11
266.687136
 21
75.808821
 31
0.0
  0
ENDBLK
  5
34D
330
34B
100
AcDbEntity
  8
0
100
AcDbBlockEnd
  0
ENDSEC
  0
SECTION
  2
ENTITIES
  0
DIMENSION
  5
A8
330
1F
100
AcDbEntity
  8
GR1-1
100
AcDbDimension
  2
*D19
 10
450.456081
 20
386.4796
 30
0.0
 11
449.456085
 21
335.479614
 31
0.0
 70
    33
  3
FXDIMINFO
100
AcDbAlignedDimension
 13
410.520548
 23
284.4796
 33
0.0
 14
410.520548
 24
386.4796
 34
0.0
1001
ACAD
1000
DSTYLE
1002
{
1070
     7
1000
FXTIP_ARROW_E
1070
     6
1000
FXTIP_ARROW_S
1070
   173
1070
     1
1002
}
  0
DIMENSION
  5
B3
330
1F
100
AcDbEntity
  8
GR1-1
100
AcDbDimension
  2
*D20
 10
440.456081
 20
375.4796
 30
0.0
 11
439.456085
 21
335.479614
 31
0.0
 70
    33
  3
FXDIMINFO
100
AcDbAlignedDimension
 13
418.524612
 23
295.4796
 33
0.0
 14
418.524612
 24
375.4796
 34
0.0
1001
ACAD
1000
DSTYLE
1002
{
1070
     7
1000
FXTIP_ARROW_E
1070
     6
1000
FXTIP_ARROW_S
1070
   173
1070
     1
1002
}
  0
DIMENSION
  5
BD
330
1F
100
AcDbEntity
  8
GR1-1
100
AcDbDimension
  2
*D21
 10
430.456081
 20
297.9796
 30
0.0
 11
429.456085
 21
335.479614
 31
0.0
 70
    33
  3
FXDIMINFO
100
AcDbAlignedDimension
 13
416.024612
 23
372.9796
 33
0.0
 14
416.024612
 24
297.9796
 34
0.0
1001
ACAD
1000
DSTYLE
1002
{
1070
     7
1000
FXTIP_ARROW_E
1070
     6
1000
FXTIP_ARROW_S
1070
   173
1070
     1
1002
}
  0
DIMENSION
  5
C7
330
1F
100
AcDbEntity
  8
GR1-1
100
AcDbDimension
  2
*D22
 10
113.886366
 20
184.9796
 30
0.0
 11
112.886375
 21
109.979599
 31
0.0
 70
    33
  3
FXDIMINFO
100
AcDbAlignedDimension
 13
164.367781
 23
34.9796
 33
0.0
 14
164.367781
 24
184.9796
 34
0.0
1001
ACAD
1000
DSTYLE
1002
{
1070
     7
1000
FXTIP_ARROW_E
1070
     6
1000
FXTIP_ARROW_S
1070
   173
1070
     1
1002
}
  0
LINE
  5
D1
330
1F
100
AcDbEntity
  8
GR1-1
  6
CONTINUOUS
 62
     3
100
AcDbLine
 10
113.367781
 20
221.4796
 30
0.0
 11
113.367781
 21
224.9796
 31
0.0
  0
LINE
  5
D2
330
1F
100
AcDbEntity
  8
GR1-1
  6
CONTINUOUS
 62
     3
100
AcDbLine
 10
215.367781
 20
224.9796
 30
0.0
 11
215.367781
 21
221.4796
 31
0.0
  0
LINE
  5
D3
330
1F
100
AcDbEntity
  8
GR1-1
  6
CONTINUOUS
 62
     3
100
AcDbLine
 10
215.367781
 20
221.4796
 30
0.0
 11
113.367781
 21
221.4796
 31
0.0
  0
LINE
  5
D4
330
1F
100
AcDbEntity
  8
GR1-1
  6
CONTINUOUS
 62
     3
100
AcDbLine
 10
121.867781
 20
221.4796
 30
0.0
 11
121.867781
 21
220.9796
 31
0.0
  0
ARC
  5
D5
330
1F
100
AcDbEntity
  8
GR1-1
  6
CONTINUOUS
 62
     3
100
AcDbCircle
 10
125.45644
 20
223.649722
 30
0.0
 40
4.473032676673776
100
AcDbArc
 50
216.650892
 51
270.0
  0
LINE
  5
D6
330
1F
100
AcDbEntity
  8
GR1-1
  6
CONTINUOUS
 62
     3
100
AcDbLine
 10
125.45644
 20
219.176689
 30
0.0
 11
203.279123
 21
219.176689
 31
0.0
  0
ARC
  5
D7
330
1F
100
AcDbEntity
  8
GR1-1
  6
CONTINUOUS
 62
     3
100
AcDbCircle
 10
203.279123
 20
223.649722
 30
0.0
 40
4.473032676673776
100
AcDbArc
 50
270.0
 51
323.349108
  0
LINE
  5
D8
330
1F
100
AcDbEntity
  8
GR1-1
  6
CONTINUOUS
 62
     3
100
AcDbLine
 10
206.867781
 20
220.9796
 30
0.0
 11
206.867781
 21
221.4796
 31
0.0
  0
ARC
  5
D9
330
1F
100
AcDbEntity
  8
GR1-1
  6
CONTINUOUS
 62
     3
100
AcDbCircle
 10
197.867781
 20
217.4796
 30
0.0
 40
4.0
100
AcDbArc
 50
0.0
 51
25.104612
  0
LINE
  5
DA
330
1F
100
AcDbEntity
  8
GR1-1
  6
CONTINUOUS
 62
     3
100
AcDbLine
 10
201.867781
 20
217.4796
 30
0.0
 11
201.867781
 21
211.1796
 31
0.0
  0
ARC
  5
DB
330
1F
100
AcDbEntity
  8
GR1-1
  6
CONTINUOUS
 62
     3
100
AcDbCircle
 10
206.367781
 20
211.1796
 30
0.0
 40
4.5
100
AcDbArc
 50
180.0
 51
220.926063
  0
LINE
  5
DC
330
1F
100
AcDbEntity
  8
GR1-1
  6
CONTINUOUS
 62
     3
100
AcDbLine
 10
202.967781
 20
208.231719
 30
0.0
 11
201.967781
 21
207.8796
 31
0.0
  0
LINE
  5
DD
330
1F
100
AcDbEntity
  8
GR1-1
  6
CONTINUOUS
 62
     3
100
AcDbLine
 10
201.967781
 20
207.8796
 30
0.0
 11
126.767781
 21
207.8796
 31
0.0
  0
LINE
  5
DE
330
1F
100
AcDbEntity
  8
GR1-1
  6
CONTINUOUS
 62
     3
100
AcDbLine
 10
126.767781
 20
207.8796
 30
0.0
 11
125.767781
 21
208.231719
 31
0.0
  0
ARC
  5
DF
330
1F
100
AcDbEntity
  8
GR1-1
  6
CONTINUOUS
 62
     3
100
AcDbCircle
 10
122.367781
 20
211.1796
 30
0.0
 40
4.5
100
AcDbArc
 50
319.073937
 51
360.0
  0
LINE
  5
E0
330
1F
100
AcDbEntity
  8
GR1-1
  6
CONTINUOUS
 62
     3
100
AcDbLine
 10
126.867781
 20
211.1796
 30
0.0
 11
126.867781
 21
217.4796
 31
0.0
  0
ARC
  5
E1
330
1F
100
AcDbEntity
  8
GR1-1
  6
CONTINUOUS
 62
     3
100
AcDbCircle
 10
130.867781
 20
217.4796
 30
0.0
 40
4.0
100
AcDbArc
 50
154.895388
 51
180.0
  0
LINE
  5
E2
330
1F
100
AcDbEntity
  8
GR1-1
  6
CONTINUOUS
 62
     3
100
AcDbLine
 10
128.367781
 20
207.8796
 30
0.0
 11
128.367781
 21
145.6296
 31
0.0
  0
ARC
  5
E3
330
1F
100
AcDbEntity
  8
GR1-1
  6
CONTINUOUS
 62
     3
100
AcDbCircle
 10
263.326414
 20
155.157909
 30
0.0
 40
135.2945721841073
100
AcDbArc
 50
184.038478
 51
193.628261
  0
LINE
  5
E4
330
1F
100
AcDbEntity
  8
GR1-1
  6
CONTINUOUS
 62
     3
100
AcDbLine
 10
131.167781
 20
123.2796
 30
0.0
 11
133.667781
 21
123.2796
 31
0.0
  0
ARC
  5
E5
330
1F
100
AcDbEntity
  8
GR1-1
  6
CONTINUOUS
 62
     3
100
AcDbCircle
 10
133.667781
 20
122.7796
 30
0.0
 40
0.5
100
AcDbArc
 50
0.0
 51
90.0
  0
ARC
  5
E6
330
1F
100
AcDbEntity
  8
GR1-1
  6
CONTINUOUS
 62
     3
100
AcDbCircle
 10
131.167781
 20
122.7796
 30
0.0
 40
0.5
100
AcDbArc
 50
90.0
 51
180.0
  0
LINE
  5
E7
330
1F
100
AcDbEntity
  8
GR1-1
  6
CONTINUOUS
 62
     3
100
AcDbLine
 10
130.667781
 20
122.7796
 30
0.0
 11
130.667781
 21
99.7796
 31
0.0
  0
ARC
  5
E8
330
1F
100
AcDbEntity
  8
GR1-1
  6
CONTINUOUS
 62
     3
100
AcDbCircle
 10
131.167781
 20
99.7796
 30
0.0
 40
0.5
100
AcDbArc
 50
180.0
 51
270.0
  0
LINE
  5
E9
330
1F
100
AcDbEntity
  8
GR1-1
  6
CONTINUOUS
 62
     3
100
AcDbLine
 10
131.167781
 20
99.2796
 30
0.0
 11
133.667781
 21
99.2796
 31
0.0
  0
ARC
  5
EA
330
1F
100
AcDbEntity
  8
GR1-1
  6
CONTINUOUS
 62
     3
100
AcDbCircle
 10
133.667781
 20
99.7796
 30
0.0
 40
0.5
100
AcDbArc
 50
270.0
 51
360.0
  0
LINE
  5
EB
330
1F
100
AcDbEntity
  8
GR1-1
  6
CONTINUOUS
 62
     3
100
AcDbLine
 10
123.667781
 20
115.9796
 30
0.0
 11
122.067781
 21
115.9796
 31
0.0
  0
LINE
  5
EC
330
1F
100
AcDbEntity
  8
GR1-1
  6
CONTINUOUS
 62
     3
100
AcDbLine
 10
122.067781
 20
115.9796
 30
0.0
 11
121.067781
 21
115.0326
 31
0.0
  0
LINE
  5
ED
330
1F
100
AcDbEntity
  8
GR1-1
  6
CONTINUOUS
 62
     3
100
AcDbLine
 10
121.067781
 20
115.0326
 30
0.0
 11
121.067781
 21
104.9266
 31
0.0
  0
LINE
  5
EE
330
1F
100
AcDbEntity
  8
GR1-1
  6
CONTINUOUS
 62
     3
100
AcDbLine
 10
121.067781
 20
104.9266
 30
0.0
 11
122.067781
 21
103.9796
 31
0.0
  0
LINE
  5
EF
330
1F
100
AcDbEntity
  8
GR1-1
  6
CONTINUOUS
 62
     3
100
AcDbLine
 10
122.067781
 20
103.9796
 30
0.0
 11
123.667781
 21
103.9796
 31
0.0
  0
LINE
  5
F0
330
1F
100
AcDbEntity
  8
GR1-1
  6
CONTINUOUS
 62
     3
100
AcDbLine
 10
190.567781
 20
201.9296
 30
0.0
 11
138.167781
 21
201.9296
 31
0.0
  0
LINE
  5
F1
330
1F
100
AcDbEntity
  8
GR1-1
  6
CONTINUOUS
 62
     3
100
AcDbLine
 10
194.567781
 20
197.9296
 30
0.0
 11
194.567781
 21
91.4296
 31
0.0
  0
LINE
  5
F2
330
1F
100
AcDbEntity
  8
GR1-1
  6
CONTINUOUS
 62
     3
100
AcDbLine
 10
194.567781
 20
91.4296
 30
0.0
 11
192.067781
 21
91.4296
 31
0.0
  0
ARC
  5
F3
330
1F
100
AcDbEntity
  8
GR1-1
  6
CONTINUOUS
 62
     3
100
AcDbCircle
 10
190.567781
 20
197.9296
 30
0.0
 40
4.0
100
AcDbArc
 50
0.0
 51
90.0
  0
ARC
  5
F4
330
1F
100
AcDbEntity
  8
GR1-1
  6
CONTINUOUS
 62
     3
100
AcDbCircle
 10
164.367781
 20
137.613321
 30
0.0
 40
61.01627906976702
100
AcDbArc
 50
69.871711
 51
110.128289
  0
ARC
  5
F5
330
1F
100
AcDbEntity
  8
GR1-1
  6
CONTINUOUS
 62
     3
100
AcDbCircle
 10
144.403027
 20
192.086224
 30
0.0
 40
3.0
100
AcDbArc
 50
110.128289
 51
166.097313
  0
ARC
  5
F6
330
1F
100
AcDbEntity
  8
GR1-1
  6
CONTINUOUS
 62
     3
100
AcDbCircle
 10
234.151523
 20
159.960358
 30
0.0
 40
98.31019193086591
100
AcDbArc
 50
160.481407
 51
172.565506
  0
CIRCLE
  5
F7
330
1F
100
AcDbEntity
  8
GR1-1
  6
CONTINUOUS
 62
     3
100
AcDbCircle
 10
164.367781
 20
212.9796
 30
0.0
 40
2.1
  0
ARC
  5
F8
330
1F
100
AcDbEntity
  8
GR1-1
  6
CONTINUOUS
 62
     3
100
AcDbCircle
 10
184.332536
 20
192.086224
 30
0.0
 40
3.0
100
AcDbArc
 50
28.38272
 51
69.871711
  0
ARC
  5
F9
330
1F
100
AcDbEntity
  8
GR1-1
  6
CONTINUOUS
 62
     3
100
AcDbCircle
 10
94.58404
 20
159.960358
 30
0.0
 40
98.31019193086591
100
AcDbArc
 50
7.434494
 51
10.436606
  0
ARC
  5
FA
330
1F
100
AcDbEntity
  8
GR1-1
  6
CONTINUOUS
 62
     3
100
AcDbCircle
 10
329.52258
 20
109.9796
 30
0.0
 40
75.0
100
AcDbArc
 50
-263.357498
 51
47.637471
  0
LINE
  5
FB
330
1F
100
AcDbEntity
  8
GR1-1
  6
CONTINUOUS
 62
     3
100
AcDbLine
 10
410.520548
 20
284.4796
 30
0.0
 11
328.520548
 21
284.4796
 31
0.0
  0
LINE
  5
FC
330
1F
100
AcDbEntity
  8
GR1-1
  6
CONTINUOUS
 62
     3
100
AcDbLine
 10
333.551057
 20
291.449091
 30
0.0
 11
336.051057
 21
293.949091
 31
0.0
  0
ARC
  5
FD
330
1F
100
AcDbEntity
  8
GR1-1
  6
CONTINUOUS
 62
     3
100
AcDbCircle
 10
332.020548
 20
297.9796
 30
0.0
 40
5.7
100
AcDbArc
 50
-45.0
 51
135.0
  0
LINE
  5
FE
330
1F
100
AcDbEntity
  8
GR1-1
  6
CONTINUOUS
 62
     3
100
AcDbLine
 10
327.990039
 20
302.010108
 30
0.0
 11
325.490039
 21
299.510108
 31
0.0
  0
ARC
  5
FF
330
1F
100
AcDbEntity
  8
GR1-1
  6
CONTINUOUS
 62
     3
100
AcDbCircle
 10
329.520548
 20
295.4796
 30
0.0
 40
5.7
100
AcDbArc
 50
135.0
 51
315.0
  0
ARC
  5
100
330
1F
100
AcDbEntity
  8
GR1-1
  6
CONTINUOUS
 62
     3
100
AcDbCircle
 10
328.520548
 20
294.4796
 30
0.0
 40
10.0
100
AcDbArc
 50
180.0
 51
270.0
  0
LINE
  5
101
330
1F
100
AcDbEntity
  8
GR1-1
  6
CONTINUOUS
 62
     3
100
AcDbLine
 10
318.520548
 20
294.4796
 30
0.0
 11
318.520548
 21
376.4796
 31
0.0
  0
LINE
  5
102
330
1F
100
AcDbEntity
  8
GR1-1
  6
CONTINUOUS
 62
     3
100
AcDbLine
 10
325.490039
 20
371.449091
 30
0.0
 11
327.990039
 21
368.949091
 31
0.0
  0
ARC
  5
103
330
1F
100
AcDbEntity
  8
GR1-1
  6
CONTINUOUS
 62
     3
100
AcDbCircle
 10
332.020548
 20
372.9796
 30
0.0
 40
5.7
100
AcDbArc
 50
-135.0
 51
45.0
  0
LINE
  5
104
330
1F
100
AcDbEntity
  8
GR1-1
  6
CONTINUOUS
 62
     3
100
AcDbLine
 10
336.051057
 20
377.010108
 30
0.0
 11
333.551057
 21
379.510108
 31
0.0
  0
ARC
  5
105
330
1F
100
AcDbEntity
  8
GR1-1
  6
CONTINUOUS
 62
     3
100
AcDbCircle
 10
329.520548
 20
375.4796
 30
0.0
 40
5.7
100
AcDbArc
 50
45.0
 51
225.0
  0
LINE
  5
106
330
1F
100
AcDbEntity
  8
GR1-1
  6
CONTINUOUS
 62
     3
100
AcDbLine
 10
310.114835
 20
365.6796
 30
0.0
 11
310.114835
 21
363.1796
 31
0.0
  0
LINE
  5
107
330
1F
100
AcDbEntity
  8
GR1-1
  6
CONTINUOUS
 62
     3
100
AcDbLine
 10
328.520548
 20
386.4796
 30
0.0
 11
410.520548
 21
386.4796
 31
0.0
  0
LINE
  5
108
330
1F
100
AcDbEntity
  8
GR1-1
  6
CONTINUOUS
 62
     3
100
AcDbLine
 10
405.490039
 20
379.510108
 30
0.0
 11
402.990039
 21
377.010108
 31
0.0
  0
ARC
  5
109
330
1F
100
AcDbEntity
  8
GR1-1
  6
CONTINUOUS
 62
     3
100
AcDbCircle
 10
407.020548
 20
372.9796
 30
0.0
 40
5.7
100
AcDbArc
 50
135.0
 51
315.0
  0
LINE
  5
10A
330
1F
100
AcDbEntity
  8
GR1-1
  6
CONTINUOUS
 62
     3
100
AcDbLine
 10
411.051057
 20
368.949091
 30
0.0
 11
413.551057
 21
371.449091
 31
0.0
  0
ARC
  5
10B
330
1F
100
AcDbEntity
  8
GR1-1
  6
CONTINUOUS
 62
     3
100
AcDbCircle
 10
409.520548
 20
375.4796
 30
0.0
 40
5.7
100
AcDbArc
 50
-45.0
 51
135.0
  0
LINE
  5
10C
330
1F
100
AcDbEntity
  8
GR1-1
  6
CONTINUOUS
 62
     3
100
AcDbLine
 10
420.520548
 20
376.4796
 30
0.0
 11
420.520548
 21
294.4796
 31
0.0
  0
LINE
  5
10D
330
1F
100
AcDbEntity
  8
GR1-1
  6
CONTINUOUS
 62
     3
100
AcDbLine
 10
413.551057
 20
299.510108
 30
0.0
 11
411.051057
 21
302.010108
 31
0.0
  0
ARC
  5
10E
330
1F
100
AcDbEntity
  8
GR1-1
  6
CONTINUOUS
 62
     3
100
AcDbCircle
 10
407.020548
 20
297.9796
 30
0.0
 40
5.7
100
AcDbArc
 50
45.0
 51
225.0
  0
LINE
  5
10F
330
1F
100
AcDbEntity
  8
GR1-1
  6
CONTINUOUS
 62
     3
100
AcDbLine
 10
402.990039
 20
293.949091
 30
0.0
 11
405.490039
 21
291.449091
 31
0.0
  0
ARC
  5
110
330
1F
100
AcDbEntity
  8
GR1-1
  6
CONTINUOUS
 62
     3
100
AcDbCircle
 10
409.520548
 20
295.4796
 30
0.0
 40
5.7
100
AcDbArc
 50
-135.0
 51
45.0
  0
ARC
  5
111
330
1F
100
AcDbEntity
  8
GR1-1
  6
CONTINUOUS
 62
     3
100
AcDbCircle
 10
410.520548
 20
294.4796
 30
0.0
 40
10.0
100
AcDbArc
 50
270.0
 51
360.0
  0
CIRCLE
  5
112
330
1F
100
AcDbEntity
  8
GR1-1
  6
CONTINUOUS
 62
     3
100
AcDbCircle
 10
369.520548
 20
335.4796
 30
0.0
 40
13.0
  0
ARC
  5
113
330
1F
100
AcDbEntity
  8
GR1-1
  6
CONTINUOUS
 62
     3
100
AcDbCircle
 10
410.520548
 20
376.4796
 30
0.0
 40
10.0
100
AcDbArc
 50
0.0
 51
90.0
  0
ARC
  5
114
330
1F
100
AcDbEntity
  8
GR1-1
  6
CONTINUOUS
 62
     3
100
AcDbCircle
 10
328.520548
 20
376.4796
 30
0.0
 40
10.0
100
AcDbArc
 50
90.0
 51
180.0
  0
LINE
  5
115
330
1F
100
AcDbEntity
  8
GR1-1
  6
CENTER
 62
     6
100
AcDbLine
 10
200.351736
 20
109.9796
 30
0.0
 11
119.666907
 21
109.9796
 31
0.0
  0
LINE
  5
116
330
1F
100
AcDbEntity
  8
GR1-1
  6
CONTINUOUS
 62
     6
100
AcDbLine
 10
121.067781
 20
104.9266
 30
0.0
 11
123.667781
 21
104.9266
 31
0.0
  0
LINE
  5
117
330
1F
100
AcDbEntity
  8
GR1-1
  6
CONTINUOUS
 62
     6
100
AcDbLine
 10
122.067781
 20
103.9796
 30
0.0
 11
122.067781
 21
115.9796
 31
0.0
  0
LINE
  5
118
330
1F
100
AcDbEntity
  8
GR1-1
  6
CONTINUOUS
 62
     6
100
AcDbLine
 10
123.667781
 20
115.0326
 30
0.0
 11
121.067781
 21
115.0326
 31
0.0
  0
ARC
  5
119
330
1F
100
AcDbEntity
  8
GR1-1
  6
CONTINUOUS
 62
     6
100
AcDbCircle
 10
164.367781
 20
584.5546
 30
0.0
 40
378.625000000005
100
AcDbArc
 50
265.834869
 51
274.165131
  0
LINE
  5
11A
330
1F
100
AcDbEntity
  8
GR1-1
  6
CONTINUOUS
 62
     6
100
AcDbLine
 10
202.967781
 20
208.231719
 30
0.0
 11
125.767781
 21
208.231719
 31
0.0
  0
LINE
  5
11B
330
1F
100
AcDbEntity
  8
GR1-1
  6
CENTER
 62
     6
100
AcDbLine
 10
161.145188
 20
212.9796
 30
0.0
 11
167.441423
 21
212.9796
 31
0.0
  0
LINE
  5
11C
330
1F
100
AcDbEntity
  8
GR1-1
  6
CENTER
 62
     6
100
AcDbLine
 10
164.367781
 20
229.819429
 30
0.0
 11
164.367781
 21
32.627282
 31
0.0
  0
LINE
  5
11D
330
1F
100
AcDbEntity
  8
GR1-1
  6
CENTER
 62
     6
100
AcDbLine
 10
408.900717
 20
109.9796
 30
0.0
 11
251.282463
 21
109.9796
 31
0.0
  0
LINE
  5
11E
330
1F
100
AcDbEntity
  8
GR1-1
  6
CENTER
 62
     6
100
AcDbLine
 10
369.52258
 20
229.457138
 30
0.0
 11
369.52258
 21
134.641923
 31
0.0
  0
LINE
  5
11F
330
1F
100
AcDbEntity
  8
GR1-1
  6
CONTINUOUS
 62
     6
100
AcDbLine
 10
329.520548
 20
286.475535
 30
0.0
 11
329.520548
 21
291.475535
 31
0.0
  0
LINE
  5
120
330
1F
100
AcDbEntity
  8
GR1-1
  6
CONTINUOUS
 62
     6
100
AcDbLine
 10
329.520548
 20
292.9796
 30
0.0
 11
329.520548
 21
297.9796
 31
0.0
  0
LINE
  5
121
330
1F
100
AcDbEntity
  8
GR1-1
  6
CONTINUOUS
 62
     6
100
AcDbLine
 10
329.520548
 20
297.9796
 30
0.0
 11
334.520548
 21
297.9796
 31
0.0
  0
LINE
  5
122
330
1F
100
AcDbEntity
  8
GR1-1
  6
CONTINUOUS
 62
     6
100
AcDbLine
 10
336.024612
 20
297.9796
 30
0.0
 11
341.024612
 21
297.9796
 31
0.0
  0
LINE
  5
123
330
1F
100
AcDbEntity
  8
GR1-1
  6
CONTINUOUS
 62
     6
100
AcDbLine
 10
338.524612
 20
295.4796
 30
0.0
 11
333.524612
 21
295.4796
 31
0.0
  0
LINE
  5
124
330
1F
100
AcDbEntity
  8
GR1-1
  6
CONTINUOUS
 62
     6
100
AcDbLine
 10
332.020548
 20
295.4796
 30
0.0
 11
332.020548
 21
300.4796
 31
0.0
  0
LINE
  5
125
330
1F
100
AcDbEntity
  8
GR1-1
  6
CONTINUOUS
 62
     6
100
AcDbLine
 10
332.020548
 20
301.983664
 30
0.0
 11
332.020548
 21
306.983664
 31
0.0
  0
LINE
  5
126
330
1F
100
AcDbEntity
  8
GR1-1
  6
CONTINUOUS
 62
     6
100
AcDbLine
 10
329.520548
 20
304.483664
 30
0.0
 11
329.520548
 21
299.483664
 31
0.0
  0
LINE
  5
127
330
1F
100
AcDbEntity
  8
GR1-1
  6
CONTINUOUS
 62
     6
100
AcDbLine
 10
328.020548
 20
297.9796
 30
0.0
 11
323.020548
 21
297.9796
 31
0.0
  0
LINE
  5
128
330
1F
100
AcDbEntity
  8
GR1-1
  6
CONTINUOUS
 62
     6
100
AcDbLine
 10
320.520548
 20
295.4796
 30
0.0
 11
325.520548
 21
295.4796
 31
0.0
  0
LINE
  5
129
330
1F
100
AcDbEntity
  8
GR1-1
  6
CONTINUOUS
 62
     6
100
AcDbLine
 10
327.020548
 20
295.4796
 30
0.0
 11
332.020548
 21
295.4796
 31
0.0
  0
LINE
  5
12A
330
1F
100
AcDbEntity
  8
GR1-1
  6
CONTINUOUS
 62
     6
100
AcDbLine
 10
332.020548
 20
293.975535
 30
0.0
 11
332.020548
 21
288.975535
 31
0.0
  0
LINE
  5
12B
330
1F
100
AcDbEntity
  8
GR1-1
  6
CENTER
 62
     6
100
AcDbLine
 10
250.387345
 20
335.4796
 30
0.0
 11
422.892963
 21
335.4796
 31
0.0
  0
CIRCLE
  5
12C
330
1F
100
AcDbEntity
  8
GR1-1
  6
CONTINUOUS
 62
     6
100
AcDbCircle
 10
369.520548
 20
335.4796
 30
0.0
 40
42.5
  0
CIRCLE
  5
12D
330
1F
100
AcDbEntity
  8
GR1-1
  6
CONTINUOUS
 62
     6
100
AcDbCircle
 10
369.520548
 20
335.4796
 30
0.0
 40
38.0
  0
CIRCLE
  5
12E
330
1F
100
AcDbEntity
  8
GR1-1
  6
CONTINUOUS
 62
     6
100
AcDbCircle
 10
369.520548
 20
335.4796
 30
0.0
 40
13.40000000000002
  0
CIRCLE
  5
12F
330
1F
100
AcDbEntity
  8
GR1-1
  6
CONTINUOUS
 62
     6
100
AcDbCircle
 10
369.520548
 20
335.4796
 30
0.0
 40
8.009445438332094
  0
LINE
  5
130
330
1F
100
AcDbEntity
  8
GR1-1
  6
CONTINUOUS
 62
     6
100
AcDbLine
 10
407.024612
 20
306.983664
 30
0.0
 11
407.024612
 21
301.983664
 31
0.0
  0
LINE
  5
131
330
1F
100
AcDbEntity
  8
GR1-1
  6
CONTINUOUS
 62
     6
100
AcDbLine
 10
407.024612
 20
300.4796
 30
0.0
 11
407.024612
 21
295.4796
 31
0.0
  0
LINE
  5
132
330
1F
100
AcDbEntity
  8
GR1-1
  6
CONTINUOUS
 62
     6
100
AcDbLine
 10
407.024612
 20
295.4796
 30
0.0
 11
412.024612
 21
295.4796
 31
0.0
  0
LINE
  5
133
330
1F
100
AcDbEntity
  8
GR1-1
  6
CONTINUOUS
 62
     7
100
AcDbLine
 10
413.524612
 20
295.4796
 30
0.0
 11
418.524612
 21
295.4796
 31
0.0
  0
LINE
  5
134
330
1F
100
AcDbEntity
  8
GR1-1
  6
CONTINUOUS
 62
     6
100
AcDbLine
 10
416.024612
 20
297.9796
 30
0.0
 11
411.024612
 21
297.9796
 31
0.0
  0
LINE
  5
135
330
1F
100
AcDbEntity
  8
GR1-1
  6
CONTINUOUS
 62
     6
100
AcDbLine
 10
409.524612
 20
297.9796
 30
0.0
 11
404.524612
 21
297.9796
 31
0.0
  0
LINE
  5
136
330
1F
100
AcDbEntity
  8
GR1-1
  6
CONTINUOUS
 62
     6
100
AcDbLine
 10
403.020548
 20
297.9796
 30
0.0
 11
398.020548
 21
297.9796
 31
0.0
  0
LINE
  5
137
330
1F
100
AcDbEntity
  8
GR1-1
  6
CONTINUOUS
 62
     6
100
AcDbLine
 10
400.520548
 20
295.4796
 30
0.0
 11
405.520548
 21
295.4796
 31
0.0
  0
LINE
  5
138
330
1F
100
AcDbEntity
  8
GR1-1
  6
CONTINUOUS
 62
     6
100
AcDbLine
 10
407.024612
 20
293.975535
 30
0.0
 11
407.024612
 21
288.975535
 31
0.0
  0
LINE
  5
139
330
1F
100
AcDbEntity
  8
GR1-1
  6
CONTINUOUS
 62
     6
100
AcDbLine
 10
409.524612
 20
286.475535
 30
0.0
 11
409.524612
 21
291.475535
 31
0.0
  0
LINE
  5
13A
330
1F
100
AcDbEntity
  8
GR1-1
  6
CONTINUOUS
 62
     6
100
AcDbLine
 10
409.524612
 20
292.9796
 30
0.0
 11
409.524612
 21
297.9796
 31
0.0
  0
LINE
  5
13B
330
1F
100
AcDbEntity
  8
GR1-1
  6
CONTINUOUS
 62
     6
100
AcDbLine
 10
409.524612
 20
299.483664
 30
0.0
 11
409.524612
 21
304.483664
 31
0.0
  0
LINE
  5
13C
330
1F
100
AcDbEntity
  8
GR1-1
  6
CENTER
 62
     6
100
AcDbLine
 10
369.520548
 20
282.070762
 30
0.0
 11
369.50938
 21
386.4796
 31
0.0
  0
LINE
  5
13D
330
1F
100
AcDbEntity
  8
GR1-1
  6
CONTINUOUS
 62
     6
100
AcDbLine
 10
341.024612
 20
372.9796
 30
0.0
 11
336.024612
 21
372.9796
 31
0.0
  0
LINE
  5
13E
330
1F
100
AcDbEntity
  8
GR1-1
  6
CONTINUOUS
 62
     6
100
AcDbLine
 10
334.520548
 20
372.9796
 30
0.0
 11
329.520548
 21
372.9796
 31
0.0
  0
LINE
  5
13F
330
1F
100
AcDbEntity
  8
GR1-1
  6
CONTINUOUS
 62
     6
100
AcDbLine
 10
329.520548
 20
372.9796
 30
0.0
 11
329.520548
 21
377.9796
 31
0.0
  0
LINE
  5
140
330
1F
100
AcDbEntity
  8
GR1-1
  6
CONTINUOUS
 62
     6
100
AcDbLine
 10
329.520548
 20
379.483664
 30
0.0
 11
329.520548
 21
384.483664
 31
0.0
  0
LINE
  5
141
330
1F
100
AcDbEntity
  8
GR1-1
  6
CONTINUOUS
 62
     6
100
AcDbLine
 10
332.020548
 20
381.983664
 30
0.0
 11
332.020548
 21
376.983664
 31
0.0
  0
LINE
  5
142
330
1F
100
AcDbEntity
  8
GR1-1
  6
CONTINUOUS
 62
     6
100
AcDbLine
 10
332.020548
 20
375.4796
 30
0.0
 11
332.020548
 21
370.4796
 31
0.0
  0
LINE
  5
143
330
1F
100
AcDbEntity
  8
GR1-1
  6
CONTINUOUS
 62
     6
100
AcDbLine
 10
332.020548
 20
368.975535
 30
0.0
 11
332.020548
 21
363.975535
 31
0.0
  0
LINE
  5
144
330
1F
100
AcDbEntity
  8
GR1-1
  6
CONTINUOUS
 62
     6
100
AcDbLine
 10
329.520548
 20
366.475535
 30
0.0
 11
329.520548
 21
371.475535
 31
0.0
  0
LINE
  5
145
330
1F
100
AcDbEntity
  8
GR1-1
  6
CONTINUOUS
 62
     6
100
AcDbLine
 10
328.020548
 20
372.9796
 30
0.0
 11
323.020548
 21
372.9796
 31
0.0
  0
LINE
  5
146
330
1F
100
AcDbEntity
  8
GR1-1
  6
CONTINUOUS
 62
     6
100
AcDbLine
 10
320.520548
 20
375.4796
 30
0.0
 11
325.520548
 21
375.4796
 31
0.0
  0
LINE
  5
147
330
1F
100
AcDbEntity
  8
GR1-1
  6
CONTINUOUS
 62
     6
100
AcDbLine
 10
327.020548
 20
375.4796
 30
0.0
 11
332.020548
 21
375.4796
 31
0.0
  0
LINE
  5
148
330
1F
100
AcDbEntity
  8
GR1-1
  6
CONTINUOUS
 62
     6
100
AcDbLine
 10
333.524612
 20
375.4796
 30
0.0
 11
338.524612
 21
375.4796
 31
0.0
  0
LINE
  5
149
330
1F
100
AcDbEntity
  8
GR1-1
  6
CONTINUOUS
 62
     6
100
AcDbLine
 10
398.020548
 20
372.9796
 30
0.0
 11
403.020548
 21
372.9796
 31
0.0
  0
LINE
  5
14A
330
1F
100
AcDbEntity
  8
GR1-1
  6
CONTINUOUS
 62
     6
100
AcDbLine
 10
404.524612
 20
372.9796
 30
0.0
 11
409.524612
 21
372.9796
 31
0.0
  0
LINE
  5
14B
330
1F
100
AcDbEntity
  8
GR1-1
  6
CONTINUOUS
 62
     6
100
AcDbLine
 10
409.524612
 20
372.9796
 30
0.0
 11
409.524612
 21
377.9796
 31
0.0
  0
LINE
  5
14C
330
1F
100
AcDbEntity
  8
GR1-1
  6
CONTINUOUS
 62
     6
100
AcDbLine
 10
409.524612
 20
379.483664
 30
0.0
 11
409.524612
 21
384.483664
 31
0.0
  0
LINE
  5
14D
330
1F
100
AcDbEntity
  8
GR1-1
  6
CONTINUOUS
 62
     6
100
AcDbLine
 10
407.024612
 20
381.983664
 30
0.0
 11
407.024612
 21
376.983664
 31
0.0
  0
LINE
  5
14E
330
1F
100
AcDbEntity
  8
GR1-1
  6
CONTINUOUS
 62
     6
100
AcDbLine
 10
407.024612
 20
375.4796
 30
0.0
 11
407.024612
 21
370.4796
 31
0.0
  0
LINE
  5
14F
330
1F
100
AcDbEntity
  8
GR1-1
  6
CONTINUOUS
 62
     6
100
AcDbLine
 10
407.024612
 20
368.975535
 30
0.0
 11
407.024612
 21
363.975535
 31
0.0
  0
LINE
  5
150
330
1F
100
AcDbEntity
  8
GR1-1
  6
CONTINUOUS
 62
     6
100
AcDbLine
 10
409.524612
 20
366.475535
 30
0.0
 11
409.524612
 21
371.475535
 31
0.0
  0
LINE
  5
151
330
1F
100
AcDbEntity
  8
GR1-1
  6
CONTINUOUS
 62
     6
100
AcDbLine
 10
411.024612
 20
372.9796
 30
0.0
 11
416.024612
 21
372.9796
 31
0.0
  0
LINE
  5
152
330
1F
100
AcDbEntity
  8
GR1-1
  6
CONTINUOUS
 62
     6
100
AcDbLine
 10
418.524612
 20
375.4796
 30
0.0
 11
413.524612
 21
375.4796
 31
0.0
  0
LINE
  5
153
330
1F
100
AcDbEntity
  8
GR1-1
  6
CONTINUOUS
 62
     6
100
AcDbLine
 10
412.024612
 20
375.4796
 30
0.0
 11
407.024612
 21
375.4796
 31
0.0
  0
LINE
  5
154
330
1F
100
AcDbEntity
  8
GR1-1
  6
CONTINUOUS
 62
     6
100
AcDbLine
 10
405.520548
 20
375.4796
 30
0.0
 11
400.520548
 21
375.4796
 31
0.0
  0
TEXT
  5
155
330
1F
100
AcDbEntity
  8
GR1-1
  6
CONTINUOUS
 62
     7
100
AcDbText
 10
330.141724
 20
11.941615
 30
0.0
 40
6.0
  1
ＳＵＳ－ＳＪ－１５０　ＮＢ　Ｓ
 41
0.786517
  7
FX_VECTOR
 72
     5
 11
390.141724
 21
11.941615
 31
0.0
100
AcDbText
  0
LINE
  5
156
330
1F
100
AcDbEntity
  8
GR1-1
  6
CONTINUOUS
 62
     3
100
AcDbLine
 10
352.41241
 20
111.13727
 30
0.0
 11
385.782419
 21
176.6296
 31
0.0
  0
ARC
  5
157
330
1F
100
AcDbEntity
  8
GR1-1
  6
CONTINUOUS
 62
     3
100
AcDbCircle
 10
482.233747
 20
133.153467
 30
0.0
 40
105.7971300497176
100
AcDbArc
 50
150.263815
 51
155.736185
  0
ARC
  5
158
330
1F
100
AcDbEntity
  8
GR1-1
  6
CONTINUOUS
 62
     3
100
AcDbCircle
 10
413.805026
 20
173.646524
 30
0.0
 40
26.32263887074231
100
AcDbArc
 50
108.357509
 51
152.919727
  0
LINE
  5
159
330
1F
100
AcDbEntity
  8
GR1-1
  6
CONTINUOUS
 62
     3
100
AcDbLine
 10
405.514835
 20
198.6296
 30
0.0
 11
405.514835
 21
207.8796
 31
0.0
  0
LINE
  5
15A
330
1F
100
AcDbEntity
  8
GR1-1
  6
CONTINUOUS
 62
     3
100
AcDbLine
 10
407.114835
 20
207.8796
 30
0.0
 11
331.914835
 21
207.8796
 31
0.0
  0
LINE
  5
15B
330
1F
100
AcDbEntity
  8
GR1-1
  6
CONTINUOUS
 62
     3
100
AcDbLine
 10
333.514835
 20
207.8796
 30
0.0
 11
333.514835
 21
205.9296
 31
0.0
  0
ARC
  5
15C
330
1F
100
AcDbEntity
  8
GR1-1
  6
CONTINUOUS
 62
     3
100
AcDbCircle
 10
329.514835
 20
205.9296
 30
0.0
 40
4.0
100
AcDbArc
 50
270.0
 51
360.0
  0
LINE
  5
15D
330
1F
100
AcDbEntity
  8
GR1-1
  6
CONTINUOUS
 62
     3
100
AcDbLine
 10
345.236857
 20
201.9296
 30
0.0
 11
319.514835
 21
201.9296
 31
0.0
  0
LINE
  5
15E
330
1F
100
AcDbEntity
  8
GR1-1
  6
CONTINUOUS
 62
     3
100
AcDbLine
 10
319.514835
 20
201.9296
 30
0.0
 11
319.514835
 21
199.4296
 31
0.0
  0
LINE
  5
15F
330
1F
100
AcDbEntity
  8
GR1-1
  6
CONTINUOUS
 62
     3
100
AcDbLine
 10
323.464791
 20
201.9296
 30
0.0
 11
313.938997
 21
138.418042
 31
0.0
  0
CIRCLE
  5
160
330
1F
100
AcDbEntity
  8
GR1-1
  6
CONTINUOUS
 62
     3
100
AcDbCircle
 10
388.264835
 20
212.9796
 30
0.0
 40
2.1
  0
LINE
  5
161
330
1F
100
AcDbEntity
  8
GR1-1
  6
CONTINUOUS
 62
     3
100
AcDbLine
 10
407.014835
 20
211.1796
 30
0.0
 11
407.014835
 21
217.4796
 31
0.0
  0
ARC
  5
162
330
1F
100
AcDbEntity
  8
GR1-1
  6
CONTINUOUS
 62
     3
100
AcDbCircle
 10
403.014835
 20
217.4796
 30
0.0
 40
4.0
100
AcDbArc
 50
0.0
 51
25.104612
  0
ARC
  5
163
330
1F
100
AcDbEntity
  8
GR1-1
  6
CONTINUOUS
 62
     3
100
AcDbCircle
 10
408.426177
 20
223.649722
 30
0.0
 40
4.473032676673776
100
AcDbArc
 50
270.0
 51
323.349108
  0
LINE
  5
164
330
1F
100
AcDbEntity
  8
GR1-1
  6
CONTINUOUS
 62
     3
100
AcDbLine
 10
412.014835
 20
220.9796
 30
0.0
 11
412.014835
 21
221.4796
 31
0.0
  0
LINE
  5
165
330
1F
100
AcDbEntity
  8
GR1-1
  6
CONTINUOUS
 62
     3
100
AcDbLine
 10
408.426177
 20
219.176689
 30
0.0
 11
330.603494
 21
219.176689
 31
0.0
  0
LINE
  5
166
330
1F
100
AcDbEntity
  8
GR1-1
  6
CONTINUOUS
 62
     3
100
AcDbLine
 10
420.514835
 20
221.4796
 30
0.0
 11
318.514835
 21
221.4796
 31
0.0
  0
LINE
  5
167
330
1F
100
AcDbEntity
  8
GR1-1
  6
CONTINUOUS
 62
     3
100
AcDbLine
 10
420.514835
 20
224.9796
 30
0.0
 11
420.514835
 21
221.4796
 31
0.0
  0
ARC
  5
168
330
1F
100
AcDbEntity
  8
GR1-1
  6
CONTINUOUS
 62
     3
100
AcDbCircle
 10
411.514835
 20
211.1796
 30
0.0
 40
4.5
100
AcDbArc
 50
180.0
 51
220.926063
  0
LINE
  5
169
330
1F
100
AcDbEntity
  8
GR1-1
  6
CONTINUOUS
 62
     3
100
AcDbLine
 10
408.114835
 20
208.231719
 30
0.0
 11
407.114835
 21
207.8796
 31
0.0
  0
LINE
  5
16A
330
1F
100
AcDbEntity
  8
GR1-1
  6
CONTINUOUS
 62
     6
100
AcDbLine
 10
350.390244
 20
113.4296
 30
0.0
 11
350.390244
 21
204.726922
 31
0.0
  0
LINE
  5
16B
330
1F
100
AcDbEntity
  8
GR1-1
  6
CONTINUOUS
 62
     6
100
AcDbLine
 10
408.114835
 20
208.231719
 30
0.0
 11
330.914835
 21
208.231719
 31
0.0
  0
LINE
  5
16C
330
1F
100
AcDbEntity
  8
GR1-1
  6
CONTINUOUS
 62
     3
100
AcDbLine
 10
332.014835
 20
211.1796
 30
0.0
 11
332.014835
 21
217.4796
 31
0.0
  0
ARC
  5
16D
330
1F
100
AcDbEntity
  8
GR1-1
  6
CONTINUOUS
 62
     3
100
AcDbCircle
 10
336.014835
 20
217.4796
 30
0.0
 40
4.0
100
AcDbArc
 50
154.895388
 51
180.0
  0
ARC
  5
16E
330
1F
100
AcDbEntity
  8
GR1-1
  6
CONTINUOUS
 62
     3
100
AcDbCircle
 10
330.603494
 20
223.649722
 30
0.0
 40
4.473032676673776
100
AcDbArc
 50
216.650892
 51
270.0
  0
LINE
  5
16F
330
1F
100
AcDbEntity
  8
GR1-1
  6
CONTINUOUS
 62
     3
100
AcDbLine
 10
327.014835
 20
220.9796
 30
0.0
 11
327.014835
 21
221.4796
 31
0.0
  0
LINE
  5
170
330
1F
100
AcDbEntity
  8
GR1-1
  6
CONTINUOUS
 62
     3
100
AcDbLine
 10
318.514835
 20
221.4796
 30
0.0
 11
318.514835
 21
224.9796
 31
0.0
  0
ARC
  5
171
330
1F
100
AcDbEntity
  8
GR1-1
  6
CONTINUOUS
 62
     3
100
AcDbCircle
 10
327.514835
 20
211.1796
 30
0.0
 40
4.5
100
AcDbArc
 50
319.073937
 51
360.0
  0
LINE
  5
172
330
1F
100
AcDbEntity
  8
GR1-1
  6
CONTINUOUS
 62
     3
100
AcDbLine
 10
330.914835
 20
208.231719
 30
0.0
 11
331.914835
 21
207.8796
 31
0.0
  0
LINE
  5
173
330
1F
100
AcDbEntity
  8
GR1-1
  6
CONTINUOUS
 62
     3
100
AcDbLine
 10
318.520548
 20
365.6796
 30
0.0
 11
310.114835
 21
365.6796
 31
0.0
  0
LINE
  5
174
330
1F
100
AcDbEntity
  8
GR1-1
  6
CONTINUOUS
 62
     3
100
AcDbLine
 10
310.114835
 20
305.2796
 30
0.0
 11
310.114835
 21
307.7796
 31
0.0
  0
LINE
  5
175
330
1F
100
AcDbEntity
  8
GR1-1
  6
CONTINUOUS
 62
     3
100
AcDbLine
 10
318.520548
 20
305.2796
 30
0.0
 11
310.114835
 21
305.2796
 31
0.0
  0
LINE
  5
176
330
1F
100
AcDbEntity
  8
GR1-1
  6
CONTINUOUS
 62
     3
100
AcDbLine
 10
134.167781
 20
197.9296
 30
0.0
 11
134.167781
 21
91.4296
 31
0.0
  0
LINE
  5
177
330
1F
100
AcDbEntity
  8
GR1-1
  6
CONTINUOUS
 62
     3
100
AcDbLine
 10
134.167781
 20
91.4296
 30
0.0
 11
136.667781
 21
91.4296
 31
0.0
  0
ARC
  5
178
330
1F
100
AcDbEntity
  8
GR1-1
  6
CONTINUOUS
 62
     3
100
AcDbCircle
 10
138.167781
 20
197.9296
 30
0.0
 40
4.0
100
AcDbArc
 50
90.0
 51
180.0
  0
INSERT
  5
17C
330
1F
100
AcDbEntity
  8
0
100
AcDbBlockReference
  2
BLKF025
 10
0.0
 20
0.0
 30
0.0
  0
DIMENSION
  5
18D
330
1F
100
AcDbEntity
  8
LAYERGROUP-1
100
AcDbDimension
  2
*D24
 10
440.248888
 20
224.9796
 30
0.0
 11
439.248871
 21
129.979599
 31
0.0
 70
    32
  3
FXDIMINFO
100
AcDbAlignedDimension
 13
329.52258
 23
34.9796
 33
0.0
 14
420.514835
 24
224.9796
 34
0.0
 50
270.0
100
AcDbRotatedDimension
1001
ACAD
1000
DSTYLE
1002
{
1070
     7
1000
FXTIP_ARROW_E
1070
     6
1000
FXTIP_ARROW_S
1070
   173
1070
     1
1002
}
  0
DIMENSION
  5
197
330
1F
100
AcDbEntity
  8
LAYERGROUP-1
100
AcDbDimension
  2
*D25
 10
430.248888
 20
224.9796
 30
0.0
 11
429.248871
 21
167.479599
 31
0.0
 70
    32
  3
FXDIMINFO
100
AcDbAlignedDimension
 13
408.900717
 23
109.9796
 33
0.0
 14
420.514835
 24
224.9796
 34
0.0
 50
270.0
100
AcDbRotatedDimension
1001
ACAD
1000
DSTYLE
1002
{
1070
     7
1000
FXTIP_ARROW_E
1070
     6
1000
FXTIP_ARROW_S
1070
   173
1070
     1
1002
}
  0
DIMENSION
  5
1A0
330
1F
100
AcDbEntity
  8
LAYERGROUP-1
100
AcDbDimension
  2
*D26
 10
369.52258
 20
25.426585
 30
0.0
 11
349.522583
 21
26.426584
 31
0.0
 70
    32
  3
FXDIMINFO
100
AcDbAlignedDimension
 13
329.52258
 23
31.103036
 33
0.0
 14
369.52258
 24
134.641923
 34
0.0
 50
180.0
100
AcDbRotatedDimension
1001
ACAD
1000
DSTYLE
1002
{
1070
     7
1000
FXTIP_ARROW_E
1070
     6
1000
FXTIP_ARROW_S
1070
   173
1070
     1
1002
}
  0
LINE
  5
1AA
330
1F
100
AcDbEntity
  8
GR1-1
  6
CONTINUOUS
 62
     3
100
AcDbLine
 10
204.367781
 20
90.64553
 30
0.0
 11
204.367781
 21
93.14553
 31
0.0
  0
LINE
  5
1AB
330
1F
100
AcDbEntity
  8
GR1-1
  6
CONTINUOUS
 62
     3
100
AcDbLine
 10
204.367781
 20
93.14553
 30
0.0
 11
197.567781
 21
93.14553
 31
0.0
  0
ARC
  5
1AC
330
1F
100
AcDbEntity
  8
GR1-1
  6
CONTINUOUS
 62
     3
100
AcDbCircle
 10
197.567781
 20
93.64553
 30
0.0
 40
0.5
100
AcDbArc
 50
180.0
 51
270.0
  0
LINE
  5
1AD
330
1F
100
AcDbEntity
  8
GR1-1
  6
CONTINUOUS
 62
     3
100
AcDbLine
 10
197.067781
 20
93.64553
 30
0.0
 11
197.067781
 21
162.104194
 31
0.0
  0
LINE
  5
1AE
330
1F
100
AcDbEntity
  8
GR1-1
  6
CONTINUOUS
 62
     3
100
AcDbLine
 10
199.567781
 20
162.672017
 30
0.0
 11
199.567781
 21
158.397842
 31
0.0
  0
LINE
  5
1AF
330
1F
100
AcDbEntity
  8
GR1-1
  6
CONTINUOUS
 62
     3
100
AcDbLine
 10
199.567781
 20
158.397842
 30
0.0
 11
202.067781
 21
158.397842
 31
0.0
  0
LINE
  5
1B0
330
1F
100
AcDbEntity
  8
GR1-1
  6
CONTINUOUS
 62
     3
100
AcDbLine
 10
202.067781
 20
156.421788
 30
0.0
 11
200.067781
 21
156.421788
 31
0.0
  0
LINE
  5
1B1
330
1F
100
AcDbEntity
  8
GR1-1
  6
CONTINUOUS
 62
     3
100
AcDbLine
 10
204.067781
 20
156.421788
 30
0.0
 11
204.067781
 21
103.318994
 31
0.0
  0
LINE
  5
1B2
330
1F
100
AcDbEntity
  8
GR1-1
  6
CONTINUOUS
 62
     3
100
AcDbLine
 10
202.567781
 20
102.770677
 30
0.0
 11
199.067781
 21
102.770677
 31
0.0
  0
ARC
  5
1B3
330
1F
100
AcDbEntity
  8
GR1-1
  6
CONTINUOUS
 62
     3
100
AcDbCircle
 10
199.067781
 20
100.770677
 30
0.0
 40
2.0
100
AcDbArc
 50
90.0
 51
180.0
  0
ARC
  5
1B4
330
1F
100
AcDbEntity
  8
GR1-1
  6
CONTINUOUS
 62
     3
100
AcDbCircle
 10
198.067781
 20
98.260641
 30
0.0
 40
1.0
100
AcDbArc
 50
180.0
 51
270.0
  0
LINE
  5
1B5
330
1F
100
AcDbEntity
  8
GR1-1
  6
CONTINUOUS
 62
     3
100
AcDbLine
 10
198.067781
 20
97.260641
 30
0.0
 11
202.567781
 21
97.260641
 31
0.0
  0
ARC
  5
1B6
330
1F
100
AcDbEntity
  8
GR1-1
  6
CONTINUOUS
 62
     3
100
AcDbCircle
 10
202.567781
 20
97.352496
 30
0.0
 40
1.5
100
AcDbArc
 50
0.0
 51
90.0
  0
LINE
  5
1B7
330
1F
100
AcDbEntity
  8
GR1-1
  6
CONTINUOUS
 62
     3
100
AcDbLine
 10
202.567781
 20
98.852496
 30
0.0
 11
199.667781
 21
98.852496
 31
0.0
  0
LINE
  5
1B8
330
1F
100
AcDbEntity
  8
GR1-1
  6
CONTINUOUS
 62
     3
100
AcDbLine
 10
199.667781
 20
98.852496
 30
0.0
 11
199.667781
 21
101.818994
 31
0.0
  0
LINE
  5
1B9
330
1F
100
AcDbEntity
  8
GR1-1
  6
CONTINUOUS
 62
     3
100
AcDbLine
 10
199.667781
 20
101.818994
 30
0.0
 11
202.567781
 21
101.818994
 31
0.0
  0
ARC
  5
1BA
330
1F
100
AcDbEntity
  8
GR1-1
  6
CONTINUOUS
 62
     3
100
AcDbCircle
 10
202.567781
 20
103.318994
 30
0.0
 40
1.5
100
AcDbArc
 50
270.0
 51
360.0
  0
ARC
  5
1BB
330
1F
100
AcDbEntity
  8
GR1-1
  6
CONTINUOUS
 62
     3
100
AcDbCircle
 10
202.567781
 20
104.270677
 30
0.0
 40
1.5
100
AcDbArc
 50
270.0
 51
360.0
  0
LINE
  5
1BC
330
1F
100
AcDbEntity
  8
GR1-1
  6
CONTINUOUS
 62
     3
100
AcDbLine
 10
200.667781
 20
101.818994
 30
0.0
 11
200.667781
 21
100.180258
 31
0.0
  0
ARC
  5
1BD
330
1F
100
AcDbEntity
  8
GR1-1
  6
CONTINUOUS
 62
     3
100
AcDbCircle
 10
203.667781
 20
111.211455
 30
0.0
 40
11.4318552568933
100
AcDbArc
 50
254.786022
 51
285.213978
  0
LINE
  5
1BE
330
1F
100
AcDbEntity
  8
GR1-1
  6
CONTINUOUS
 62
     3
100
AcDbLine
 10
206.667781
 20
100.180258
 30
0.0
 11
206.667781
 21
119.778942
 31
0.0
  0
ARC
  5
1BF
330
1F
100
AcDbEntity
  8
GR1-1
  6
CONTINUOUS
 62
     3
100
AcDbCircle
 10
203.667781
 20
108.747745
 30
0.0
 40
11.4318552568933
100
AcDbArc
 50
74.786022
 51
87.994814
  0
ARC
  5
1C0
330
1F
100
AcDbEntity
  8
GR1-1
  6
CONTINUOUS
 62
     3
100
AcDbCircle
 10
210.067781
 20
115.36884
 30
0.0
 40
3.0
100
AcDbArc
 50
180.0
 51
240.254989
  0
LINE
  5
1C1
330
1F
100
AcDbEntity
  8
GR1-1
  6
CONTINUOUS
 62
     3
100
AcDbLine
 10
208.579359
 20
112.764114
 30
0.0
 11
226.067781
 21
102.770677
 31
0.0
  0
LINE
  5
1C2
330
1F
100
AcDbEntity
  8
GR1-1
  6
CONTINUOUS
 62
     3
100
AcDbLine
 10
226.067781
 20
102.770677
 30
0.0
 11
227.067781
 21
102.770677
 31
0.0
  0
LINE
  5
1C3
330
1F
100
AcDbEntity
  8
GR1-1
  6
CONTINUOUS
 62
     3
100
AcDbLine
 10
227.067781
 20
101.047005
 30
0.0
 11
226.067781
 21
101.047005
 31
0.0
  0
LINE
  5
1C4
330
1F
100
AcDbEntity
  8
GR1-1
  6
CONTINUOUS
 62
     3
100
AcDbLine
 10
226.067781
 20
101.047005
 30
0.0
 11
208.579359
 21
111.040442
 31
0.0
  0
LINE
  5
1C5
330
1F
100
AcDbEntity
  8
GR1-1
  6
CONTINUOUS
 62
     3
100
AcDbLine
 10
207.067781
 20
113.645168
 30
0.0
 11
207.067781
 21
132.562198
 31
0.0
  0
ARC
  5
1C6
330
1F
100
AcDbEntity
  8
GR1-1
  6
CONTINUOUS
 62
     3
100
AcDbCircle
 10
201.067781
 20
96.066917
 30
0.0
 40
4.0
100
AcDbArc
 50
180.0
 51
226.915472
  0
LINE
  5
1C7
330
1F
100
AcDbEntity
  8
GR1-1
  6
CONTINUOUS
 62
     3
100
AcDbLine
 10
204.067781
 20
93.14553
 30
0.0
 11
204.067781
 21
97.352496
 31
0.0
  0
LINE
  5
1C8
330
1F
100
AcDbEntity
  8
GR1-1
  6
CONTINUOUS
 62
     3
100
AcDbLine
 10
204.067781
 20
97.095565
 30
0.0
 11
209.303587
 21
95.394749
 31
0.0
  0
LINE
  5
1C9
330
1F
100
AcDbEntity
  8
GR1-1
  6
CONTINUOUS
 62
     3
100
AcDbLine
 10
209.323979
 20
92.905789
 30
0.0
 11
204.067781
 21
94.64446
 31
0.0
  0
LINE
  5
1CA
330
1F
100
AcDbEntity
  8
GR1-1
  6
CONTINUOUS
 62
     3
100
AcDbLine
 10
205.067781
 20
94.313675
 30
0.0
 11
205.067781
 21
71.688808
 31
0.0
  0
LINE
  5
1CB
330
1F
100
AcDbEntity
  8
GR1-1
  6
CONTINUOUS
 62
     3
100
AcDbLine
 10
205.067781
 20
71.688808
 30
0.0
 11
209.067781
 21
71.688808
 31
0.0
  0
ARC
  5
1CC
330
1F
100
AcDbEntity
  8
GR1-1
  6
CONTINUOUS
 62
     3
100
AcDbCircle
 10
209.067781
 20
74.688808
 30
0.0
 40
3.0
100
AcDbArc
 50
270.0
 51
360.0
  0
LINE
  5
1CD
330
1F
100
AcDbEntity
  8
GR1-1
  6
CONTINUOUS
 62
     3
100
AcDbLine
 10
212.067781
 20
74.688808
 30
0.0
 11
212.067781
 21
91.590437
 31
0.0
  0
ARC
  5
1CE
330
1F
100
AcDbEntity
  8
GR1-1
  6
CONTINUOUS
 62
     3
100
AcDbCircle
 10
208.067781
 20
91.590437
 30
0.0
 40
4.0
100
AcDbArc
 50
0.0
 51
72.003956
  0
ARC
  5
1CF
330
1F
100
AcDbEntity
  8
GR1-1
  6
CONTINUOUS
 62
     3
100
AcDbCircle
 10
202.567781
 20
95.760641
 30
0.0
 40
1.5
100
AcDbArc
 50
0.0
 51
90.0
  0
ARC
  5
1D0
330
1F
100
AcDbEntity
  8
GR1-1
  6
CONTINUOUS
 62
     3
100
AcDbCircle
 10
208.067781
 20
89.108162
 30
0.0
 40
4.0
100
AcDbArc
 50
0.0
 51
71.696559
  0
LINE
  5
1D1
330
1F
100
AcDbEntity
  8
GR1-1
  6
CONTINUOUS
 62
     3
100
AcDbLine
 10
212.067781
 20
79.381664
 30
0.0
 11
227.067781
 21
79.381664
 31
0.0
  0
ARC
  5
1D2
330
1F
100
AcDbEntity
  8
GR1-1
  6
CONTINUOUS
 62
     3
100
AcDbCircle
 10
227.067781
 20
82.381664
 30
0.0
 40
3.0
100
AcDbArc
 50
270.0
 51
360.0
  0
LINE
  5
1D3
330
1F
100
AcDbEntity
  8
GR1-1
  6
CONTINUOUS
 62
     3
100
AcDbLine
 10
230.067781
 20
82.381664
 30
0.0
 11
230.067781
 21
99.770677
 31
0.0
  0
ARC
  5
1D4
330
1F
100
AcDbEntity
  8
GR1-1
  6
CONTINUOUS
 62
     3
100
AcDbCircle
 10
227.067781
 20
99.770677
 30
0.0
 40
3.0
100
AcDbArc
 50
0.0
 51
90.0
  0
ARC
  5
1D5
330
1F
100
AcDbEntity
  8
GR1-1
  6
CONTINUOUS
 62
     3
100
AcDbCircle
 10
227.067781
 20
98.047005
 30
0.0
 40
3.0
100
AcDbArc
 50
0.0
 51
90.0
  0
ARC
  5
1D6
330
1F
100
AcDbEntity
  8
GR1-1
  6
CONTINUOUS
 62
     3
100
AcDbCircle
 10
210.067781
 20
113.645168
 30
0.0
 40
3.0
100
AcDbArc
 50
180.0
 51
240.254989
  0
ARC
  5
1D7
330
1F
100
AcDbEntity
  8
GR1-1
  6
CONTINUOUS
 62
     3
100
AcDbCircle
 10
200.067781
 20
159.421788
 30
0.0
 40
3.0
100
AcDbArc
 50
180.0
 51
270.0
  0
ARC
  5
1D8
330
1F
100
AcDbEntity
  8
GR1-1
  6
CONTINUOUS
 62
     3
100
AcDbCircle
 10
202.067781
 20
156.397842
 30
0.0
 40
2.0
100
AcDbArc
 50
0.0
 51
90.0
  0
ARC
  5
1D9
330
1F
100
AcDbEntity
  8
GR1-1
  6
CONTINUOUS
 62
     3
100
AcDbCircle
 10
202.067781
 20
154.421788
 30
0.0
 40
2.0
100
AcDbArc
 50
0.0
 51
90.0
  0
ARC
  5
1DA
330
1F
100
AcDbEntity
  8
GR1-1
  6
CONTINUOUS
 62
     3
100
AcDbCircle
 10
200.567781
 20
162.672017
 30
0.0
 40
1.0
100
AcDbArc
 50
90.0
 51
180.0
  0
LINE
  5
1DB
330
1F
100
AcDbEntity
  8
GR1-1
  6
CONTINUOUS
 62
     3
100
AcDbLine
 10
200.567781
 20
163.672017
 30
0.0
 11
219.067781
 21
163.672017
 31
0.0
  0
LINE
  5
1DC
330
1F
100
AcDbEntity
  8
GR1-1
  6
CONTINUOUS
 62
     3
100
AcDbLine
 10
219.067781
 20
165.604194
 30
0.0
 11
200.567781
 21
165.604194
 31
0.0
  0
ARC
  5
1DD
330
1F
100
AcDbEntity
  8
GR1-1
  6
CONTINUOUS
 62
     3
100
AcDbCircle
 10
200.567781
 20
162.104194
 30
0.0
 40
3.5
100
AcDbArc
 50
90.0
 51
180.0
  0
ARC
  5
1DE
330
1F
100
AcDbEntity
  8
GR1-1
  6
CONTINUOUS
 62
     3
100
AcDbCircle
 10
219.067781
 20
162.604194
 30
0.0
 40
3.0
100
AcDbArc
 50
0.0
 51
90.0
  0
LINE
  5
1DF
330
1F
100
AcDbEntity
  8
GR1-1
  6
CONTINUOUS
 62
     3
100
AcDbLine
 10
222.067781
 20
162.604194
 30
0.0
 11
222.067781
 21
146.115398
 31
0.0
  0
LINE
  5
1E0
330
1F
100
AcDbEntity
  8
GR1-1
  6
CONTINUOUS
 62
     3
100
AcDbLine
 10
219.588726
 20
143.160975
 30
0.0
 11
215.3313
 21
142.410276
 31
0.0
  0
ARC
  5
1E1
330
1F
100
AcDbEntity
  8
GR1-1
  6
CONTINUOUS
 62
     3
100
AcDbCircle
 10
217.067781
 20
132.562198
 30
0.0
 40
10.0
100
AcDbArc
 50
100.0
 51
180.0
  0
ARC
  5
1E2
330
1F
100
AcDbEntity
  8
GR1-1
  6
CONTINUOUS
 62
     3
100
AcDbCircle
 10
219.067781
 20
146.115398
 30
0.0
 40
3.0
100
AcDbArc
 50
280.0
 51
360.0
  0
ARC
  5
1E3
330
1F
100
AcDbEntity
  8
GR1-1
  6
CONTINUOUS
 62
     3
100
AcDbCircle
 10
219.067781
 20
160.672017
 30
0.0
 40
3.0
100
AcDbArc
 50
0.0
 51
90.0
  0
ARC
  5
1E4
330
1F
100
AcDbEntity
  8
GR1-1
  6
CONTINUOUS
 62
     6
100
AcDbCircle
 10
203.667781
 20
110.643089
 30
0.0
 40
3.05000000000001
100
AcDbArc
 50
10.388858
 51
82.464091
  0
ARC
  5
1E5
330
1F
100
AcDbEntity
  8
GR1-1
  6
CONTINUOUS
 62
     6
100
AcDbCircle
 10
203.667781
 20
121.917046
 30
0.0
 40
5.566949779823609
100
AcDbArc
 50
274.120403
 51
302.608431
  0
ARC
  5
1E6
330
1F
100
AcDbEntity
  8
GR1-1
  6
CONTINUOUS
 62
     6
100
AcDbCircle
 10
203.667781
 20
113.77335
 30
0.0
 40
6.290235202980682
100
AcDbArc
 50
61.514933
 51
86.354065
  0
LINE
  5
1E7
330
1F
100
AcDbEntity
  8
GR1-1
  6
CONTINUOUS
 62
     6
100
AcDbLine
 10
197.067781
 20
99.100099
 30
0.0
 11
199.667781
 21
99.100099
 31
0.0
  0
ARC
  5
1E8
330
1F
100
AcDbEntity
  8
GR1-1
  6
CONTINUOUS
 62
     6
100
AcDbCircle
 10
203.667781
 20
106.185849
 30
0.0
 40
6.290235202980682
100
AcDbArc
 50
241.514933
 51
298.485067
  0
ARC
  5
1E9
330
1F
100
AcDbEntity
  8
GR1-1
  6
CONTINUOUS
 62
     6
100
AcDbCircle
 10
203.667781
 20
98.042153
 30
0.0
 40
5.566949779823609
100
AcDbArc
 50
57.391569
 51
85.879597
  0
ARC
  5
1EA
330
1F
100
AcDbEntity
  8
GR1-1
  6
CONTINUOUS
 62
     6
100
AcDbCircle
 10
203.667781
 20
109.316111
 30
0.0
 40
3.05000000000001
100
AcDbArc
 50
277.535909
 51
349.611142
  0
LINE
  5
1EB
330
1F
100
AcDbEntity
  8
GR1-1
  6
CONTINUOUS
 62
     6
100
AcDbLine
 10
206.667781
 20
106.149777
 30
0.0
 11
207.386149
 21
105.407963
 31
0.0
  0
LINE
  5
1EC
330
1F
100
AcDbEntity
  8
GR1-1
  6
CONTINUOUS
 62
     6
100
AcDbLine
 10
207.667781
 20
104.7123
 30
0.0
 11
207.667781
 21
95.926129
 31
0.0
  0
ARC
  5
1ED
330
1F
100
AcDbEntity
  8
GR1-1
  6
CONTINUOUS
 62
     6
100
AcDbCircle
 10
211.669596
 20
95.811215
 30
0.0
 40
0.6018150231520427
100
AcDbArc
 50
90.000002
 51
269.999998
  0
LINE
  5
1EE
330
1F
100
AcDbEntity
  8
GR1-1
  6
CONTINUOUS
 62
     6
100
AcDbLine
 10
211.669596
 20
95.2094
 30
0.0
 11
224.465966
 21
95.2094
 31
0.0
  0
ARC
  5
1EF
330
1F
100
AcDbEntity
  8
GR1-1
  6
CONTINUOUS
 62
     6
100
AcDbCircle
 10
224.465966
 20
95.811215
 30
0.0
 40
0.6018150231520427
100
AcDbArc
 50
-89.999998
 51
89.999998
  0
LINE
  5
1F0
330
1F
100
AcDbEntity
  8
GR1-1
  6
CONTINUOUS
 62
     6
100
AcDbLine
 10
224.465966
 20
96.41303
 30
0.0
 11
211.669596
 21
96.41303
 31
0.0
  0
LINE
  5
1F1
330
1F
100
AcDbEntity
  8
GR1-1
  6
CONTINUOUS
 62
     6
100
AcDbLine
 10
212.067781
 20
91.899417
 30
0.0
 11
224.465966
 21
91.899417
 31
0.0
  0
ARC
  5
1F2
330
1F
100
AcDbEntity
  8
GR1-1
  6
CONTINUOUS
 62
     6
100
AcDbCircle
 10
224.465966
 20
91.297602
 30
0.0
 40
0.6018150231520427
100
AcDbArc
 50
-89.999998
 51
89.999998
  0
LINE
  5
1F3
330
1F
100
AcDbEntity
  8
GR1-1
  6
CONTINUOUS
 62
     6
100
AcDbLine
 10
224.465966
 20
90.695787
 30
0.0
 11
212.067781
 21
90.695787
 31
0.0
  0
LINE
  5
1F4
330
1F
100
AcDbEntity
  8
GR1-1
  6
CONTINUOUS
 62
     6
100
AcDbLine
 10
212.067781
 20
87.385804
 30
0.0
 11
224.465966
 21
87.385804
 31
0.0
  0
ARC
  5
1F5
330
1F
100
AcDbEntity
  8
GR1-1
  6
CONTINUOUS
 62
     6
100
AcDbCircle
 10
224.465966
 20
86.783989
 30
0.0
 40
0.6018150231520427
100
AcDbArc
 50
-89.999998
 51
89.999998
  0
LINE
  5
1F6
330
1F
100
AcDbEntity
  8
GR1-1
  6
CONTINUOUS
 62
     6
100
AcDbLine
 10
224.465966
 20
86.182174
 30
0.0
 11
212.067781
 21
86.182174
 31
0.0
  0
LINE
  5
1F7
330
1F
100
AcDbEntity
  8
GR1-1
  6
CONTINUOUS
 62
     6
100
AcDbLine
 10
212.067781
 20
82.872192
 30
0.0
 11
224.465966
 21
82.872192
 31
0.0
  0
ARC
  5
1F8
330
1F
100
AcDbEntity
  8
GR1-1
  6
CONTINUOUS
 62
     6
100
AcDbCircle
 10
224.465966
 20
82.270377
 30
0.0
 40
0.6018150231520427
100
AcDbArc
 50
-89.999998
 51
89.999998
  0
LINE
  5
1F9
330
1F
100
AcDbEntity
  8
GR1-1
  6
CONTINUOUS
 62
     6
100
AcDbLine
 10
224.465966
 20
81.668562
 30
0.0
 11
212.067781
 21
81.668562
 31
0.0
  0
ARC
  5
1FA
330
1F
100
AcDbEntity
  8
GR1-1
  6
CONTINUOUS
 62
     6
100
AcDbCircle
 10
206.667781
 20
104.7123
 30
0.0
 40
1.0
100
AcDbArc
 50
0.0
 51
44.080108
  0
LINE
  5
1FB
330
1F
100
AcDbEntity
  8
GR1-1
  6
CONTINUOUS
 62
     6
100
AcDbLine
 10
226.067781
 20
102.770677
 30
0.0
 11
226.067781
 21
101.047005
 31
0.0
  0
LINE
  5
1FC
330
1F
100
AcDbEntity
  8
GR1-1
  6
CONTINUOUS
 62
     6
100
AcDbLine
 10
217.398651
 20
152.965928
 30
0.0
 11
213.067781
 21
152.965928
 31
0.0
  0
LINE
  5
1FD
330
1F
100
AcDbEntity
  8
GR1-1
  6
CONTINUOUS
 62
     6
100
AcDbLine
 10
213.067781
 20
154.304189
 30
0.0
 11
213.067781
 21
159.991799
 31
0.0
  0
LINE
  5
1FE
330
1F
100
AcDbEntity
  8
GR1-1
  6
CONTINUOUS
 62
     6
100
AcDbLine
 10
213.067781
 20
159.991799
 30
0.0
 11
217.398651
 21
159.991799
 31
0.0
  0
ARC
  5
1FF
330
1F
100
AcDbEntity
  8
GR1-1
  6
CONTINUOUS
 62
     6
100
AcDbCircle
 10
217.398651
 20
160.66093
 30
0.0
 40
0.6691306063591659
100
AcDbArc
 50
-89.999948
 51
89.999948
  0
LINE
  5
200
330
1F
100
AcDbEntity
  8
GR1-1
  6
CONTINUOUS
 62
     6
100
AcDbLine
 10
217.398651
 20
161.33006
 30
0.0
 11
204.736911
 21
161.33006
 31
0.0
  0
ARC
  5
201
330
1F
100
AcDbEntity
  8
GR1-1
  6
CONTINUOUS
 62
     6
100
AcDbCircle
 10
204.736912
 20
160.66093
 30
0.0
 40
0.6691306063591659
100
AcDbArc
 50
90.000052
 51
269.999948
  0
LINE
  5
202
330
1F
100
AcDbEntity
  8
GR1-1
  6
CONTINUOUS
 62
     6
100
AcDbLine
 10
204.736911
 20
159.991799
 30
0.0
 11
205.567781
 21
159.991799
 31
0.0
  0
LINE
  5
203
330
1F
100
AcDbEntity
  8
GR1-1
  6
CONTINUOUS
 62
     6
100
AcDbLine
 10
205.567781
 20
159.991799
 30
0.0
 11
205.567781
 21
156.977015
 31
0.0
  0
ARC
  5
204
330
1F
100
AcDbEntity
  8
GR1-1
  6
CONTINUOUS
 62
     6
100
AcDbCircle
 10
206.567781
 20
156.977015
 30
0.0
 40
1.0
100
AcDbArc
 50
180.0
 51
360.0
  0
LINE
  5
205
330
1F
100
AcDbEntity
  8
GR1-1
  6
CONTINUOUS
 62
     6
100
AcDbLine
 10
207.567781
 20
156.977015
 30
0.0
 11
207.567781
 21
159.991799
 31
0.0
  0
LINE
  5
206
330
1F
100
AcDbEntity
  8
GR1-1
  6
CONTINUOUS
 62
     6
100
AcDbLine
 10
207.567781
 20
159.991799
 30
0.0
 11
211.067781
 21
159.991799
 31
0.0
  0
LINE
  5
207
330
1F
100
AcDbEntity
  8
GR1-1
  6
CONTINUOUS
 62
     6
100
AcDbLine
 10
211.067781
 20
159.991799
 30
0.0
 11
211.067781
 21
152.962232
 31
0.0
  0
ARC
  5
208
330
1F
100
AcDbEntity
  8
GR1-1
  6
CONTINUOUS
 62
     6
100
AcDbCircle
 10
212.067781
 20
152.962232
 30
0.0
 40
1.0
100
AcDbArc
 50
180.0
 51
360.0
  0
LINE
  5
209
330
1F
100
AcDbEntity
  8
GR1-1
  6
CONTINUOUS
 62
     6
100
AcDbLine
 10
213.067781
 20
154.304189
 30
0.0
 11
217.398651
 21
154.304189
 31
0.0
  0
ARC
  5
20A
330
1F
100
AcDbEntity
  8
GR1-1
  6
CONTINUOUS
 62
     6
100
AcDbCircle
 10
217.398651
 20
153.635058
 30
0.0
 40
0.6691306063591659
100
AcDbArc
 50
-89.999948
 51
89.999948
  0
LINE
  5
20B
330
1F
100
AcDbEntity
  8
GR1-1
  6
CONTINUOUS
 62
     3
100
AcDbLine
 10
197.567781
 20
90.64553
 30
0.0
 11
204.367781
 21
90.64553
 31
0.0
  0
ARC
  5
20C
330
1F
100
AcDbEntity
  8
LAYERGROUP-1
  6
CONTINUOUS
 62
     3
100
AcDbCircle
 10
197.567781
 20
93.64553
 30
0.0
 40
3.0
100
AcDbArc
 50
180.0
 51
270.0
  0
LINE
  5
20D
330
1F
100
AcDbEntity
  8
GR1-1
  6
CONTINUOUS
 62
     3
100
AcDbLine
 10
200.367781
 20
207.8796
 30
0.0
 11
200.367781
 21
165.604194
 31
0.0
  0
DIMENSION
  5
20E
330
1F
100
AcDbEntity
  8
GR1-1
100
AcDbDimension
  2
*D27
 10
420.50816
 20
239.6796
 30
0.0
 11
369.508148
 21
240.679596
 31
0.0
 70
    33
  3
FXDIMINFO
100
AcDbAlignedDimension
 13
318.50816
 23
294.4796
 33
0.0
 14
420.50816
 24
294.4796
 34
0.0
1001
ACAD
1000
DSTYLE
1002
{
1070
     7
1000
FXTIP_ARROW_E
1070
     6
1000
FXTIP_ARROW_S
1070
   173
1070
     1
1002
}
  0
DIMENSION
  5
218
330
1F
100
AcDbEntity
  8
GR1-1
100
AcDbDimension
  2
*D28
 10
409.512224
 20
249.6796
 30
0.0
 11
369.510193
 21
250.679596
 31
0.0
 70
    33
  3
FXDIMINFO
100
AcDbAlignedDimension
 13
329.50816
 23
286.475535
 33
0.0
 14
409.512224
 24
286.475535
 34
0.0
1001
ACAD
1000
DSTYLE
1002
{
1070
     7
1000
FXTIP_ARROW_E
1070
     6
1000
FXTIP_ARROW_S
1070
   173
1070
     1
1002
}
  0
DIMENSION
  5
222
330
1F
100
AcDbEntity
  8
GR1-1
100
AcDbDimension
  2
*D29
 10
407.012224
 20
259.6796
 30
0.0
 11
369.510193
 21
260.679626
 31
0.0
 70
    33
  3
FXDIMINFO
100
AcDbAlignedDimension
 13
332.00816
 23
288.975535
 33
0.0
 14
407.012224
 24
288.975535
 34
0.0
1001
ACAD
1000
DSTYLE
1002
{
1070
     7
1000
FXTIP_ARROW_E
1070
     6
1000
FXTIP_ARROW_S
1070
   173
1070
     1
1002
}
  0
LINE
  5
22C
330
1F
100
AcDbEntity
  8
GR1-1
  6
CONTINUOUS
 62
     3
100
AcDbLine
 10
317.014835
 20
305.2796
 30
0.0
 11
317.463958
 21
296.925914
 31
0.0
  0
ARC
  5
22D
330
1F
100
AcDbEntity
  8
GR1-1
  6
CONTINUOUS
 62
     3
100
AcDbCircle
 10
318.462516
 20
296.9796
 30
0.0
 40
1.0
100
AcDbArc
 50
183.077455
 51
270.0
  0
LINE
  5
22E
330
1F
100
AcDbEntity
  8
GR1-1
  6
CONTINUOUS
 62
     3
100
AcDbLine
 10
318.462516
 20
295.9796
 30
0.0
 11
318.514835
 21
295.9796
 31
0.0
  0
LINE
  5
22F
330
1F
100
AcDbEntity
  8
GR1-1
  6
CONTINUOUS
 62
     3
100
AcDbLine
 10
393.790232
 20
284.4796
 30
0.0
 11
393.790232
 21
272.6796
 31
0.0
  0
LINE
  5
230
330
1F
100
AcDbEntity
  8
GR1-1
  6
CONTINUOUS
 62
     3
100
AcDbLine
 10
390.790232
 20
269.6796
 30
0.0
 11
366.474634
 21
269.6796
 31
0.0
  0
LINE
  5
231
330
1F
100
AcDbEntity
  8
GR1-1
  6
CONTINUOUS
 62
     3
100
AcDbLine
 10
365.039353
 20
272.6796
 30
0.0
 11
365.039353
 21
273.6796
 31
0.0
  0
LINE
  5
232
330
1F
100
AcDbEntity
  8
GR1-1
  6
CONTINUOUS
 62
     3
100
AcDbLine
 10
365.039353
 20
273.6796
 30
0.0
 11
355.960128
 21
284.4796
 31
0.0
  0
LINE
  5
233
330
1F
100
AcDbEntity
  8
GR1-1
  6
CONTINUOUS
 62
     3
100
AcDbLine
 10
355.284829
 20
284.4796
 30
0.0
 11
363.474634
 21
273.6796
 31
0.0
  0
LINE
  5
234
330
1F
100
AcDbEntity
  8
GR1-1
  6
CONTINUOUS
 62
     3
100
AcDbLine
 10
363.474634
 20
273.6796
 30
0.0
 11
363.474634
 21
272.6796
 31
0.0
  0
ARC
  5
235
330
1F
100
AcDbEntity
  8
GR1-1
  6
CONTINUOUS
 62
     3
100
AcDbCircle
 10
366.474634
 20
272.6796
 30
0.0
 40
3.0
100
AcDbArc
 50
180.0
 51
270.0
  0
ARC
  5
236
330
1F
100
AcDbEntity
  8
GR1-1
  6
CONTINUOUS
 62
     3
100
AcDbCircle
 10
368.039353
 20
272.6796
 30
0.0
 40
3.0
100
AcDbArc
 50
180.0
 51
270.0
  0
ARC
  5
237
330
1F
100
AcDbEntity
  8
GR1-1
  6
CONTINUOUS
 62
     3
100
AcDbCircle
 10
390.790232
 20
272.6796
 30
0.0
 40
3.0
100
AcDbArc
 50
270.0
 51
360.0
  0
ARC
  5
238
330
1F
100
AcDbEntity
  8
GR1-1
  6
CONTINUOUS
 62
     3
100
AcDbCircle
 10
319.612577
 20
282.6796
 30
0.0
 40
10.0
100
AcDbArc
 50
95.015196
 51
170.0
  0
LINE
  5
239
330
1F
100
AcDbEntity
  8
GR1-1
  6
CONTINUOUS
 62
     3
100
AcDbLine
 10
309.7645
 20
284.416082
 30
0.0
 11
309.013801
 21
280.158655
 31
0.0
  0
LINE
  5
23A
330
1F
100
AcDbEntity
  8
GR1-1
  6
CONTINUOUS
 62
     3
100
AcDbLine
 10
306.059377
 20
277.6796
 30
0.0
 11
287.542592
 21
277.6796
 31
0.0
  0
LINE
  5
23B
330
1F
100
AcDbEntity
  8
GR1-1
  6
CONTINUOUS
 62
     3
100
AcDbLine
 10
286.282331
 20
280.6796
 30
0.0
 11
286.282331
 21
299.6796
 31
0.0
  0
ARC
  5
23C
330
1F
100
AcDbEntity
  8
GR1-1
  6
CONTINUOUS
 62
     3
100
AcDbCircle
 10
283.282331
 20
299.6796
 30
0.0
 40
3.0
100
AcDbArc
 50
0.0
 51
90.0
  0
LINE
  5
23D
330
1F
100
AcDbEntity
  8
GR1-1
  6
CONTINUOUS
 62
     3
100
AcDbLine
 10
281.014456
 20
302.6796
 30
0.0
 11
317.15462
 21
302.6796
 31
0.0
  0
ARC
  5
23E
330
1F
100
AcDbEntity
  8
GR1-1
  6
CONTINUOUS
 62
     3
100
AcDbCircle
 10
281.014456
 20
299.6796
 30
0.0
 40
3.0
100
AcDbArc
 50
90.0
 51
180.0
  0
LINE
  5
23F
330
1F
100
AcDbEntity
  8
GR1-1
  6
CONTINUOUS
 62
     3
100
AcDbLine
 10
278.014456
 20
299.6796
 30
0.0
 11
278.014456
 21
298.6796
 31
0.0
  0
ARC
  5
240
330
1F
100
AcDbEntity
  8
GR1-1
  6
CONTINUOUS
 62
     3
100
AcDbCircle
 10
281.014456
 20
298.6796
 30
0.0
 40
3.0
100
AcDbArc
 50
180.0
 51
270.0
  0
LINE
  5
241
330
1F
100
AcDbEntity
  8
GR1-1
  6
CONTINUOUS
 62
     3
100
AcDbLine
 10
281.014456
 20
295.6796
 30
0.0
 11
284.542592
 21
295.6796
 31
0.0
  0
LINE
  5
242
330
1F
100
AcDbEntity
  8
GR1-1
  6
CONTINUOUS
 62
     3
100
AcDbLine
 10
284.542592
 20
300.0796
 30
0.0
 11
284.542592
 21
280.6796
 31
0.0
  0
ARC
  5
243
330
1F
100
AcDbEntity
  8
GR1-1
  6
CONTINUOUS
 62
     3
100
AcDbCircle
 10
287.542592
 20
280.6796
 30
0.0
 40
3.0
100
AcDbArc
 50
180.0
 51
270.0
  0
ARC
  5
244
330
1F
100
AcDbEntity
  8
GR1-1
  6
CONTINUOUS
 62
     3
100
AcDbCircle
 10
289.282331
 20
280.6796
 30
0.0
 40
3.0
100
AcDbArc
 50
180.0
 51
270.0
  0
ARC
  5
245
330
1F
100
AcDbEntity
  8
GR1-1
  6
CONTINUOUS
 62
     3
100
AcDbCircle
 10
306.059377
 20
280.6796
 30
0.0
 40
3.0
100
AcDbArc
 50
270.0
 51
350.0
  0
LINE
  5
246
330
1F
100
AcDbEntity
  8
GR1-1
  6
CONTINUOUS
 62
     3
100
AcDbLine
 10
284.542592
 20
300.0796
 30
0.0
 11
279.793703
 21
300.0796
 31
0.0
  0
LINE
  5
247
330
1F
100
AcDbEntity
  8
GR1-1
  6
CONTINUOUS
 62
     3
100
AcDbLine
 10
279.793703
 20
300.0796
 30
0.0
 11
279.793703
 21
298.6796
 31
0.0
  0
ARC
  5
248
330
1F
100
AcDbEntity
  8
GR1-1
  6
CONTINUOUS
 62
     3
100
AcDbCircle
 10
282.793703
 20
298.6796
 30
0.0
 40
3.0
100
AcDbArc
 50
180.0
 51
270.0
  0
LINE
  5
249
330
1F
100
AcDbEntity
  8
GR1-1
  6
CONTINUOUS
 62
     6
100
AcDbLine
 10
298.52914
 20
289.9796
 30
0.0
 11
290.964144
 21
289.9796
 31
0.0
  0
LINE
  5
24A
330
1F
100
AcDbEntity
  8
GR1-1
  6
CONTINUOUS
 62
     6
100
AcDbLine
 10
290.964144
 20
289.9796
 30
0.0
 11
290.964144
 21
291.9796
 31
0.0
  0
LINE
  5
24B
330
1F
100
AcDbEntity
  8
GR1-1
  6
CONTINUOUS
 62
     6
100
AcDbLine
 10
290.964144
 20
291.9796
 30
0.0
 11
294.070271
 21
291.9796
 31
0.0
  0
ARC
  5
24C
330
1F
100
AcDbEntity
  8
GR1-1
  6
CONTINUOUS
 62
     6
100
AcDbCircle
 10
294.070271
 20
293.6296
 30
0.0
 40
1.649999999999977
100
AcDbArc
 50
-90.0
 51
90.0
  0
LINE
  5
24D
330
1F
100
AcDbEntity
  8
GR1-1
  6
CONTINUOUS
 62
     6
100
AcDbLine
 10
294.070271
 20
295.2796
 30
0.0
 11
290.964144
 21
295.2796
 31
0.0
  0
LINE
  5
24E
330
1F
100
AcDbEntity
  8
GR1-1
  6
CONTINUOUS
 62
     6
100
AcDbLine
 10
290.964144
 20
295.2796
 30
0.0
 11
290.964144
 21
295.655666
 31
0.0
  0
ARC
  5
24F
330
1F
100
AcDbEntity
  8
GR1-1
  6
CONTINUOUS
 62
     6
100
AcDbCircle
 10
289.737956
 20
295.65341
 30
0.0
 40
1.226190000000059
100
AcDbArc
 50
-0.10543
 51
180.0
  0
LINE
  5
250
330
1F
100
AcDbEntity
  8
GR1-1
  6
CONTINUOUS
 62
     6
100
AcDbLine
 10
288.511766
 20
295.65341
 30
0.0
 11
288.511766
 21
282.40579
 31
0.0
  0
ARC
  5
251
330
1F
100
AcDbEntity
  8
GR1-1
  6
CONTINUOUS
 62
     6
100
AcDbCircle
 10
289.737956
 20
282.40579
 30
0.0
 40
1.226190000000059
100
AcDbArc
 50
180.0
 51
359.89457
  0
LINE
  5
252
330
1F
100
AcDbEntity
  8
GR1-1
  6
CONTINUOUS
 62
     6
100
AcDbLine
 10
290.964144
 20
282.408046
 30
0.0
 11
290.964144
 21
286.6796
 31
0.0
  0
LINE
  5
253
330
1F
100
AcDbEntity
  8
GR1-1
  6
CONTINUOUS
 62
     6
100
AcDbLine
 10
290.964144
 20
286.6796
 30
0.0
 11
296.166158
 21
286.6796
 31
0.0
  0
LINE
  5
254
330
1F
100
AcDbEntity
  8
GR1-1
  6
CONTINUOUS
 62
     6
100
AcDbLine
 10
296.166158
 20
286.6796
 30
0.0
 11
296.166158
 21
284.203533
 31
0.0
  0
ARC
  5
255
330
1F
100
AcDbEntity
  8
GR1-1
  6
CONTINUOUS
 62
     6
100
AcDbCircle
 10
297.392346
 20
284.25079
 30
0.0
 40
1.27118999999999
100
AcDbArc
 50
180.0
 51
360.0
  0
LINE
  5
256
330
1F
100
AcDbEntity
  8
GR1-1
  6
CONTINUOUS
 62
     6
100
AcDbLine
 10
298.618536
 20
284.25079
 30
0.0
 11
298.618536
 21
286.6796
 31
0.0
  0
LINE
  5
257
330
1F
100
AcDbEntity
  8
GR1-1
  6
CONTINUOUS
 62
     6
100
AcDbLine
 10
298.618536
 20
286.6796
 30
0.0
 11
298.52914
 21
286.6796
 31
0.0
  0
ARC
  5
258
330
1F
100
AcDbEntity
  8
GR1-1
  6
CONTINUOUS
 62
     6
100
AcDbCircle
 10
298.52914
 20
288.3296
 30
0.0
 40
1.649999999999977
100
AcDbArc
 50
-90.0
 51
90.0
  0
LINE
  5
259
330
1F
100
AcDbEntity
  8
GR1-1
  6
CONTINUOUS
 62
     6
100
AcDbLine
 10
391.394325
 20
284.4796
 30
0.0
 11
391.394325
 21
275.396665
 31
0.0
  0
ARC
  5
25A
330
1F
100
AcDbEntity
  8
GR1-1
  6
CONTINUOUS
 62
     6
100
AcDbCircle
 10
389.67726
 20
275.396665
 30
0.0
 40
1.717064999999991
100
AcDbArc
 50
-180.0
 51
0.0
  0
LINE
  5
25B
330
1F
100
AcDbEntity
  8
GR1-1
  6
CONTINUOUS
 62
     6
100
AcDbLine
 10
387.960192
 20
275.396665
 30
0.0
 11
387.960192
 21
284.4796
 31
0.0
  0
LINE
  5
25C
330
1F
100
AcDbEntity
  8
GR1-1
  6
CONTINUOUS
 62
     6
100
AcDbLine
 10
385.324695
 20
284.4796
 30
0.0
 11
385.324695
 21
275.396665
 31
0.0
  0
ARC
  5
25D
330
1F
100
AcDbEntity
  8
GR1-1
  6
CONTINUOUS
 62
     6
100
AcDbCircle
 10
383.60763
 20
275.396665
 30
0.0
 40
1.717064999999991
100
AcDbArc
 50
-180.0
 51
0.0
  0
LINE
  5
25E
330
1F
100
AcDbEntity
  8
GR1-1
  6
CONTINUOUS
 62
     6
100
AcDbLine
 10
381.890562
 20
275.396665
 30
0.0
 11
381.890562
 21
284.4796
 31
0.0
  0
LINE
  5
25F
330
1F
100
AcDbEntity
  8
GR1-1
  6
CONTINUOUS
 62
     6
100
AcDbLine
 10
379.255065
 20
284.4796
 30
0.0
 11
379.255065
 21
275.396665
 31
0.0
  0
ARC
  5
260
330
1F
100
AcDbEntity
  8
GR1-1
  6
CONTINUOUS
 62
     6
100
AcDbCircle
 10
377.538
 20
275.396665
 30
0.0
 40
1.717064999999991
100
AcDbArc
 50
-180.0
 51
0.0
  0
LINE
  5
261
330
1F
100
AcDbEntity
  8
GR1-1
  6
CONTINUOUS
 62
     6
100
AcDbLine
 10
375.820933
 20
275.396665
 30
0.0
 11
375.820933
 21
284.4796
 31
0.0
  0
LINE
  5
262
330
1F
100
AcDbEntity
  8
GR1-1
  6
CONTINUOUS
 62
     6
100
AcDbLine
 10
373.185435
 20
284.4796
 30
0.0
 11
373.185435
 21
275.396665
 31
0.0
  0
ARC
  5
263
330
1F
100
AcDbEntity
  8
GR1-1
  6
CONTINUOUS
 62
     6
100
AcDbCircle
 10
371.46837
 20
275.396665
 30
0.0
 40
1.717064999999991
100
AcDbArc
 50
-180.0
 51
0.0
  0
LINE
  5
264
330
1F
100
AcDbEntity
  8
GR1-1
  6
CONTINUOUS
 62
     6
100
AcDbLine
 10
369.751303
 20
275.396665
 30
0.0
 11
369.751303
 21
284.4796
 31
0.0
  0
INSERT
  5
268
330
1F
100
AcDbEntity
  8
0
100
AcDbBlockReference
  2
BLKF032
 10
0.0
 20
0.0
 30
0.0
  0
ARC
  5
283
330
1F
100
AcDbEntity
  8
GR1-1
  6
CONTINUOUS
 62
     3
100
AcDbCircle
 10
329.52258
 20
109.9796
 30
0.0
 40
10.19999999999996
100
AcDbArc
 50
21.350209
 51
38.649791
  0
LINE
  5
284
330
1F
100
AcDbEntity
  8
GR1-1
  6
CONTINUOUS
 62
     3
100
AcDbLine
 10
337.488556
 20
116.350097
 30
0.0
 11
331.056604
 21
120.063586
 31
0.0
  0
ARC
  5
285
330
1F
100
AcDbEntity
  8
GR1-1
  6
CONTINUOUS
 62
     3
100
AcDbCircle
 10
329.52258
 20
109.9796
 30
0.0
 40
10.19999999999996
100
AcDbArc
 50
81.350209
 51
98.649791
  0
LINE
  5
286
330
1F
100
AcDbEntity
  8
GR1-1
  6
CONTINUOUS
 62
     3
100
AcDbLine
 10
327.988556
 20
120.063586
 30
0.0
 11
321.556604
 21
116.350097
 31
0.0
  0
ARC
  5
287
330
1F
100
AcDbEntity
  8
GR1-1
  6
CONTINUOUS
 62
     3
100
AcDbCircle
 10
329.52258
 20
109.9796
 30
0.0
 40
10.19999999999996
100
AcDbArc
 50
141.350209
 51
158.649791
  0
LINE
  5
288
330
1F
100
AcDbEntity
  8
GR1-1
  6
CONTINUOUS
 62
     3
100
AcDbLine
 10
320.02258
 20
113.693089
 30
0.0
 11
320.02258
 21
106.266111
 31
0.0
  0
ARC
  5
289
330
1F
100
AcDbEntity
  8
GR1-1
  6
CONTINUOUS
 62
     3
100
AcDbCircle
 10
329.52258
 20
109.9796
 30
0.0
 40
10.19999999999996
100
AcDbArc
 50
201.350209
 51
218.649791
  0
LINE
  5
28A
330
1F
100
AcDbEntity
  8
GR1-1
  6
CONTINUOUS
 62
     3
100
AcDbLine
 10
321.556604
 20
103.609103
 30
0.0
 11
327.988556
 21
99.895614
 31
0.0
  0
ARC
  5
28B
330
1F
100
AcDbEntity
  8
GR1-1
  6
CONTINUOUS
 62
     3
100
AcDbCircle
 10
329.52258
 20
109.9796
 30
0.0
 40
10.19999999999996
100
AcDbArc
 50
261.350209
 51
278.649791
  0
LINE
  5
28C
330
1F
100
AcDbEntity
  8
GR1-1
  6
CONTINUOUS
 62
     3
100
AcDbLine
 10
331.056604
 20
99.895614
 30
0.0
 11
337.488556
 21
103.609103
 31
0.0
  0
ARC
  5
28D
330
1F
100
AcDbEntity
  8
GR1-1
  6
CONTINUOUS
 62
     3
100
AcDbCircle
 10
329.52258
 20
109.9796
 30
0.0
 40
10.19999999999996
100
AcDbArc
 50
321.350209
 51
338.649791
  0
LINE
  5
28E
330
1F
100
AcDbEntity
  8
GR1-1
  6
CONTINUOUS
 62
     3
100
AcDbLine
 10
339.02258
 20
106.266111
 30
0.0
 11
339.02258
 21
113.693089
 31
0.0
  0
CIRCLE
  5
28F
330
1F
100
AcDbEntity
  8
GR1-1
  6
CONTINUOUS
 62
     3
100
AcDbCircle
 10
329.52258
 20
109.9796
 30
0.0
 40
11.4
  0
ARC
  5
290
330
1F
100
AcDbEntity
  8
GR1-1
  6
CONTINUOUS
 62
     3
100
AcDbCircle
 10
339.02258
 20
98.14553
 30
0.0
 40
5.0
100
AcDbArc
 50
270.0
 51
304.317573
  0
LINE
  5
291
330
1F
100
AcDbEntity
  8
GR1-1
  6
CONTINUOUS
 62
     3
100
AcDbLine
 10
339.02258
 20
93.14553
 30
0.0
 11
323.52258
 21
93.14553
 31
0.0
  0
LINE
  5
292
330
1F
100
AcDbEntity
  8
GR1-1
  6
CONTINUOUS
 62
     3
100
AcDbLine
 10
323.52258
 20
93.14553
 30
0.0
 11
323.52258
 21
90.64553
 31
0.0
  0
LINE
  5
293
330
1F
100
AcDbEntity
  8
GR1-1
  6
CONTINUOUS
 62
     3
100
AcDbLine
 10
335.52258
 20
90.64553
 30
0.0
 11
335.52258
 21
93.14553
 31
0.0
  0
CIRCLE
  5
294
330
1F
100
AcDbEntity
  8
GR1-1
  6
CONTINUOUS
 62
     6
100
AcDbCircle
 10
329.52258
 20
109.9796
 30
0.0
 40
9.499999999999972
  0
CIRCLE
  5
295
330
1F
100
AcDbEntity
  8
GR1-1
  6
CONTINUOUS
 62
     6
100
AcDbCircle
 10
329.52258
 20
109.9796
 30
0.0
 40
9.0
  0
CIRCLE
  5
296
330
1F
100
AcDbEntity
  8
GR1-1
  6
CONTINUOUS
 62
     6
100
AcDbCircle
 10
329.52258
 20
109.9796
 30
0.0
 40
3.0
  0
ARC
  5
297
330
1F
100
AcDbEntity
  8
LAYERGROUP-1
  6
CONTINUOUS
 62
     3
100
AcDbCircle
 10
329.52258
 20
109.9796
 30
0.0
 40
18.85000000000001
100
AcDbArc
 50
246.796553
 51
251.439709
  0
ARC
  5
298
330
1F
100
AcDbEntity
  8
LAYERGROUP-1
  6
CONTINUOUS
 62
     3
100
AcDbCircle
 10
329.52258
 20
109.9796
 30
0.0
 40
18.85000000000001
100
AcDbArc
 50
288.560291
 51
296.740429
  0
LINE
  5
299
330
1F
100
AcDbEntity
  8
GR1-1
  6
CONTINUOUS
 62
     3
100
AcDbLine
 10
323.52258
 20
90.64553
 30
0.0
 11
335.52258
 21
90.64553
 31
0.0
  0
LINE
  5
29A
330
1F
100
AcDbEntity
  8
LAYERGROUP-1
  6
CONTINUOUS
 62
     3
100
AcDbLine
 10
282.61725
 20
163.746332
 30
0.0
 11
309.547163
 21
139.49853
 31
0.0
  0
ARC
  5
29B
330
1F
100
AcDbEntity
  8
LAYERGROUP-1
  6
CONTINUOUS
 62
     3
100
AcDbCircle
 10
296.499116
 20
125.007205
 30
0.0
 40
19.5
100
AcDbArc
 50
30.798847
 51
48.0
  0
ARC
  5
29C
330
1F
100
AcDbEntity
  8
LAYERGROUP-1
  6
CONTINUOUS
 62
     3
100
AcDbCircle
 10
318.832341
 20
138.31987
 30
0.0
 40
6.5
100
AcDbArc
 50
210.798847
 51
270.814489
  0
ARC
  5
29D
330
1F
100
AcDbEntity
  8
LAYERGROUP-1
  6
CONTINUOUS
 62
     3
100
AcDbCircle
 10
319.258792
 20
108.322902
 30
0.0
 40
23.5
100
AcDbArc
 50
30.048215
 51
90.814489
  0
ARC
  5
29E
330
1F
100
AcDbEntity
  8
LAYERGROUP-1
  6
CONTINUOUS
 62
     3
100
AcDbCircle
 10
360.8078
 20
132.357874
 30
0.0
 40
24.5
100
AcDbArc
 50
210.048215
 51
233.0
  0
LINE
  5
29F
330
1F
100
AcDbEntity
  8
LAYERGROUP-1
  6
CONTINUOUS
 62
     3
100
AcDbLine
 10
346.063332
 20
112.791304
 30
0.0
 11
390.293439
 21
79.461528
 31
0.0
  0
LINE
  5
2A0
330
1F
100
AcDbEntity
  8
LAYERGROUP-1
  6
CONTINUOUS
 62
     3
100
AcDbLine
 10
277.733016
 20
158.32184
 30
0.0
 11
296.202584
 21
132.810292
 31
0.0
  0
ARC
  5
2A1
330
1F
100
AcDbEntity
  8
LAYERGROUP-1
  6
CONTINUOUS
 62
     3
100
AcDbCircle
 10
269.877352
 20
113.751642
 30
0.0
 40
32.5
100
AcDbArc
 50
-21.471117
 51
35.903372
  0
ARC
  5
2A2
330
1F
100
AcDbEntity
  8
LAYERGROUP-1
  6
CONTINUOUS
 62
     3
100
AcDbCircle
 10
317.935934
 20
107.065902
 30
0.0
 40
12.5
100
AcDbArc
 50
221.480988
 51
286.100105
  0
ARC
  5
2A3
330
1F
100
AcDbEntity
  8
LAYERGROUP-1
  6
CONTINUOUS
 62
     3
100
AcDbCircle
 10
335.129552
 20
47.497626
 30
0.0
 40
49.5
100
AcDbArc
 50
57.289153
 51
106.100105
  0
LINE
  5
2A4
330
1F
100
AcDbEntity
  8
LAYERGROUP-1
  6
CONTINUOUS
 62
     3
100
AcDbLine
 10
361.879333
 20
89.147347
 30
0.0
 11
385.945038
 21
73.691004
 31
0.0
  0
LINE
  5
2A5
330
1F
100
AcDbEntity
  8
LAYERGROUP-1
  6
CENTER
 62
     6
100
AcDbLine
 10
329.52258
 20
31.332611
 30
0.0
 11
329.52258
 21
136.626095
 31
0.0
  0
LINE
  5
2A6
330
1F
100
AcDbEntity
  8
GR1-1
  6
CONTINUOUS
 62
     3
100
AcDbLine
 10
315.02258
 20
137.825125
 30
0.0
 11
316.086841
 21
135.41088
 31
0.0
  0
LINE
  5
2A7
330
1F
100
AcDbEntity
  8
GR1-1
  6
CONTINUOUS
 62
     3
100
AcDbLine
 10
316.086841
 20
135.41088
 30
0.0
 11
320.261187
 21
136.451661
 31
0.0
  0
ARC
  5
2A8
330
1F
100
AcDbEntity
  8
GR1-1
  6
CONTINUOUS
 62
     3
100
AcDbCircle
 10
318.42258
 20
143.825909
 30
0.0
 40
7.6
100
AcDbArc
 50
284.0
 51
360.0
  0
LINE
  5
2A9
330
1F
100
AcDbEntity
  8
GR1-1
  6
CONTINUOUS
 62
     3
100
AcDbLine
 10
326.02258
 20
143.825909
 30
0.0
 11
326.02258
 21
146.64553
 31
0.0
  0
LINE
  5
2AA
330
1F
100
AcDbEntity
  8
GR1-1
  6
CONTINUOUS
 62
     3
100
AcDbLine
 10
326.02258
 20
146.64553
 30
0.0
 11
323.42258
 21
146.64553
 31
0.0
  0
LINE
  5
2AB
330
1F
100
AcDbEntity
  8
GR1-1
  6
CONTINUOUS
 62
     3
100
AcDbLine
 10
323.42258
 20
146.64553
 30
0.0
 11
323.42258
 21
143.825909
 31
0.0
  0
LINE
  5
2AC
330
1F
100
AcDbEntity
  8
GR1-1
  6
CONTINUOUS
 62
     3
100
AcDbLine
 10
326.02258
 20
146.64553
 30
0.0
 11
328.075951
 21
147.415544
 31
0.0
  0
ARC
  5
2AD
330
1F
100
AcDbEntity
  8
GR1-1
  6
CONTINUOUS
 62
     3
100
AcDbCircle
 10
327.02258
 20
150.224531
 30
0.0
 40
3.0
100
AcDbArc
 50
290.556045
 51
360.0
  0
LINE
  5
2AE
330
1F
100
AcDbEntity
  8
GR1-1
  6
CONTINUOUS
 62
     3
100
AcDbLine
 10
330.02258
 20
150.224531
 30
0.0
 11
330.02258
 21
171.94553
 31
0.0
  0
LINE
  5
2AF
330
1F
100
AcDbEntity
  8
GR1-1
  6
CONTINUOUS
 62
     3
100
AcDbLine
 10
329.77258
 20
171.94553
 30
0.0
 11
344.27258
 21
171.94553
 31
0.0
  0
LINE
  5
2B0
330
1F
100
AcDbEntity
  8
GR1-1
  6
CONTINUOUS
 62
     3
100
AcDbLine
 10
344.27258
 20
171.94553
 30
0.0
 11
344.27258
 21
151.14553
 31
0.0
  0
LINE
  5
2B1
330
1F
100
AcDbEntity
  8
GR1-1
  6
CONTINUOUS
 62
     3
100
AcDbLine
 10
344.02258
 20
151.14553
 30
0.0
 11
346.62258
 21
151.14553
 31
0.0
  0
LINE
  5
2B2
330
1F
100
AcDbEntity
  8
GR1-1
  6
CONTINUOUS
 62
     3
100
AcDbLine
 10
346.62258
 20
151.14553
 30
0.0
 11
346.62258
 21
141.14553
 31
0.0
  0
LINE
  5
2B3
330
1F
100
AcDbEntity
  8
GR1-1
  6
CONTINUOUS
 62
     3
100
AcDbLine
 10
346.62258
 20
141.14553
 30
0.0
 11
344.02258
 21
141.14553
 31
0.0
  0
LINE
  5
2B4
330
1F
100
AcDbEntity
  8
GR1-1
  6
CONTINUOUS
 62
     3
100
AcDbLine
 10
329.77258
 20
149.025573
 30
0.0
 11
329.77258
 21
171.94553
 31
0.0
  0
LINE
  5
2B5
330
1F
100
AcDbEntity
  8
GR1-1
  6
CONTINUOUS
 62
     3
100
AcDbLine
 10
344.02258
 20
118.136187
 30
0.0
 11
344.02258
 21
171.94553
 31
0.0
  0
LINE
  5
2B6
330
1F
100
AcDbEntity
  8
GR1-1
  6
CONTINUOUS
 62
     3
100
AcDbLine
 10
315.02258
 20
137.825125
 30
0.0
 11
319.63219
 21
138.97443
 31
0.0
  0
ARC
  5
2B7
330
1F
100
AcDbEntity
  8
GR1-1
  6
CONTINUOUS
 62
     3
100
AcDbCircle
 10
318.42258
 20
143.825909
 30
0.0
 40
5.0
100
AcDbArc
 50
284.0
 51
360.0
  0
LINE
  5
2B8
330
1F
100
AcDbEntity
  8
GR1-1
  6
CONTINUOUS
 62
     6
100
AcDbLine
 10
344.02258
 20
159.14553
 30
0.0
 11
330.02258
 21
159.14553
 31
0.0
  0
LINE
  5
2B9
330
1F
100
AcDbEntity
  8
GR1-1
  6
CONTINUOUS
 62
     6
100
AcDbLine
 10
330.02258
 20
168.14553
 30
0.0
 11
344.02258
 21
168.14553
 31
0.0
  0
ARC
  5
2BA
330
1F
100
AcDbEntity
  8
GR1-1
  6
CONTINUOUS
 62
     3
100
AcDbCircle
 10
329.52258
 20
109.9796
 30
0.0
 40
20.5
100
AcDbArc
 50
240.485639
 51
308.551684
  0
ARC
  5
2BB
330
1F
100
AcDbEntity
  8
GR1-1
  6
CONTINUOUS
 62
     3
100
AcDbCircle
 10
301.00721
 20
99.598953
 30
0.0
 40
0.5
100
AcDbArc
 50
219.0
 51
309.0
  0
LINE
  5
2BC
330
1F
100
AcDbEntity
  8
GR1-1
  6
CONTINUOUS
 62
     6
100
AcDbLine
 10
306.584421
 20
145.530276
 30
0.0
 11
304.911595
 21
143.672414
 31
0.0
  0
CIRCLE
  5
2BD
330
1F
100
AcDbEntity
  8
GR1-1
  6
CONTINUOUS
 62
     6
100
AcDbCircle
 10
329.52258
 20
109.9796
 30
0.0
 40
2.000000000000014
  0
LINE
  5
2BE
330
1F
100
AcDbEntity
  8
GR1-1
  6
CONTINUOUS
 62
     3
100
AcDbLine
 10
192.067781
 20
162.87478
 30
0.0
 11
189.969673
 21
165.669197
 31
0.0
  0
ARC
  5
2BF
330
1F
100
AcDbEntity
  8
GR1-1
  6
CONTINUOUS
 62
     3
100
AcDbCircle
 10
187.267781
 20
189.512301
 30
0.0
 40
4.0
100
AcDbArc
 50
0.0
 51
90.0
  0
LINE
  5
2C0
330
1F
100
AcDbEntity
  8
GR1-1
  6
CONTINUOUS
 62
     3
100
AcDbLine
 10
187.267781
 20
193.512301
 30
0.0
 11
151.367781
 21
193.512301
 31
0.0
  0
LINE
  5
2C1
330
1F
100
AcDbEntity
  8
GR1-1
  6
CONTINUOUS
 62
     3
100
AcDbLine
 10
151.367781
 20
193.512301
 30
0.0
 11
151.367781
 21
189.835975
 31
0.0
  0
ARC
  5
2C2
330
1F
100
AcDbEntity
  8
GR1-1
  6
CONTINUOUS
 62
     3
100
AcDbCircle
 10
152.367781
 20
189.835975
 30
0.0
 40
1.0
100
AcDbArc
 50
180.0
 51
270.0
  0
LINE
  5
2C3
330
1F
100
AcDbEntity
  8
GR1-1
  6
CONTINUOUS
 62
     3
100
AcDbLine
 10
152.367781
 20
188.835975
 30
0.0
 11
185.21414
 21
188.835975
 31
0.0
  0
LINE
  5
2C4
330
1F
100
AcDbEntity
  8
GR1-1
  6
CONTINUOUS
 62
     3
100
AcDbLine
 10
188.767781
 20
169.271718
 30
0.0
 11
188.767781
 21
190.526544
 31
0.0
  0
ARC
  5
2C5
330
1F
100
AcDbEntity
  8
GR1-1
  6
CONTINUOUS
 62
     3
100
AcDbCircle
 10
188.267781
 20
190.526544
 30
0.0
 40
0.5
100
AcDbArc
 50
0.0
 51
90.0
  0
ARC
  5
2C6
330
1F
100
AcDbEntity
  8
GR1-1
  6
CONTINUOUS
 62
     3
100
AcDbCircle
 10
194.767781
 20
169.271718
 30
0.0
 40
6.0
100
AcDbArc
 50
180.0
 51
216.9
  0
LINE
  5
2C7
330
1F
100
AcDbEntity
  8
GR1-1
  6
CONTINUOUS
 62
     6
100
AcDbLine
 10
182.767781
 20
193.512301
 30
0.0
 11
182.767781
 21
190.926544
 31
0.0
  0
ARC
  5
2C8
330
1F
100
AcDbEntity
  8
GR1-1
  6
CONTINUOUS
 62
     3
100
AcDbCircle
 10
162.064992
 20
164.223754
 30
0.0
 40
33.78822986321683
100
AcDbArc
 50
37.786578
 51
52.213422
  0
ARC
  5
2C9
330
1F
100
AcDbEntity
  8
GR1-1
  6
CONTINUOUS
 62
     3
100
AcDbCircle
 10
199.567781
 20
133.404995
 30
0.0
 40
5.0
100
AcDbArc
 50
120.0
 51
180.0
  0
ARC
  5
2CA
330
1F
100
AcDbEntity
  8
GR1-1
  6
CONTINUOUS
 62
     3
100
AcDbCircle
 10
191.167781
 20
158.019341
 30
0.0
 40
6.0
100
AcDbArc
 50
10.475314
 51
36.9
  0
LINE
  5
2CB
330
1F
100
AcDbEntity
  8
GR1-1
  6
CONTINUOUS
 62
     3
100
AcDbLine
 10
195.965889
 20
161.621862
 30
0.0
 11
194.567781
 21
163.483967
 31
0.0
  0
ARC
  5
2CC
330
1F
100
AcDbEntity
  8
GR1-1
  6
CONTINUOUS
 62
     3
100
AcDbCircle
 10
196.567781
 20
148.64553
 30
0.0
 40
2.0
100
AcDbArc
 50
180.0
 51
270.0
  0
LINE
  5
2CD
330
1F
100
AcDbEntity
  8
GR1-1
  6
CONTINUOUS
 62
     3
100
AcDbLine
 10
196.567781
 20
146.64553
 30
0.0
 11
197.067781
 21
146.64553
 31
0.0
  0
LINE
  5
2CE
330
1F
100
AcDbEntity
  8
GR1-1
  6
CONTINUOUS
 62
     3
100
AcDbLine
 10
188.267781
 20
191.026544
 30
0.0
 11
151.367781
 21
191.026544
 31
0.0
  0
LINE
  5
2CF
330
1F
100
AcDbEntity
  8
GR1-1
  6
CONTINUOUS
 62
     3
100
AcDbLine
 10
191.267781
 20
168.112167
 30
0.0
 11
191.267781
 21
189.512301
 31
0.0
  0
LINE
  5
2D0
330
1F
100
AcDbEntity
  8
GR1-1
  6
CONTINUOUS
 62
     3
100
AcDbLine
 10
192.067781
 20
167.046667
 30
0.0
 11
191.267781
 21
168.112167
 31
0.0
  0
DIMENSION
  5
2D1
330
1F
100
AcDbEntity
  8
LAYERGROUP-1
100
AcDbDimension
  2
*D31
 10
317.144567
 20
395.916598
 30
0.0
 11
309.578522
 21
395.421631
 31
0.0
 70
    33
  3
FXDIMINFO
100
AcDbAlignedDimension
 13
325.490039
 23
371.449091
 33
0.0
 14
333.551057
 24
379.510108
 34
0.0
  0
TEXT
  5
2DD
330
1F
100
AcDbEntity
  8
}}ﾊﾊGG血CCТ
  6
CONTINUOUS
 62
     7
100
AcDbText
 10
429.0
 20
12.0
 30
0.0
 40
6.0
  1
S40G1QFA-C01
 41
0.708861
  7
FX_VECTOR
 72
     5
 11
477.0
 21
12.0
 31
0.0
100
AcDbText
  0
INSERT
  5
2E1
330
1F
100
AcDbEntity
  8
0
100
AcDbBlockReference
  2
BLKF034
 10
0.0
 20
0.0
 30
0.0
  0
LINE
  5
30C
330
1F
100
AcDbEntity
  8
GR1-1
  6
CONTINUOUS
 62
     3
100
AcDbLine
 10
192.067781
 20
198.9296
 30
0.0
 11
192.067781
 21
91.4296
 31
0.0
  0
LINE
  5
30D
330
1F
100
AcDbEntity
  8
GR1-1
  6
CONTINUOUS
 62
     3
100
AcDbLine
 10
191.567781
 20
199.4296
 30
0.0
 11
137.167781
 21
199.4296
 31
0.0
  0
ARC
  5
30E
330
1F
100
AcDbEntity
  8
LAYERGROUP-1
  6
CONTINUOUS
 62
     3
100
AcDbCircle
 10
191.567781
 20
198.9296
 30
0.0
 40
0.5
100
AcDbArc
 50
0.0
 51
90.0
  0
LINE
  5
30F
330
1F
100
AcDbEntity
  8
GR1-1
  6
CONTINUOUS
 62
     3
100
AcDbLine
 10
136.667781
 20
198.9296
 30
0.0
 11
136.667781
 21
91.4296
 31
0.0
  0
ARC
  5
310
330
1F
100
AcDbEntity
  8
LAYERGROUP-1
  6
CONTINUOUS
 62
     3
100
AcDbCircle
 10
137.167781
 20
198.9296
 30
0.0
 40
0.5
100
AcDbArc
 50
90.0
 51
180.0
  0
LINE
  5
311
330
1F
100
AcDbEntity
  8
GR1-1
  6
CONTINUOUS
 62
     3
100
AcDbLine
 10
323.089828
 20
199.4296
 30
0.0
 11
319.514835
 21
199.4296
 31
0.0
  0
LINE
  5
312
330
1F
100
AcDbEntity
  8
GR1-1
  6
CONTINUOUS
 62
     3
100
AcDbLine
 10
318.520548
 20
307.7796
 30
0.0
 11
310.114835
 21
307.7796
 31
0.0
  0
LINE
  5
313
330
1F
100
AcDbEntity
  8
GR1-1
  6
CONTINUOUS
 62
     3
100
AcDbLine
 10
318.520548
 20
363.1796
 30
0.0
 11
310.114835
 21
363.1796
 31
0.0
  0
LINE
  5
314
330
1F
100
AcDbEntity
  8
GR1-1
  6
CONTINUOUS
 62
     3
100
AcDbLine
 10
420.514835
 20
224.9796
 30
0.0
 11
318.514835
 21
224.9796
 31
0.0
  0
LINE
  5
315
330
1F
100
AcDbEntity
  8
GR1-1
  6
CONTINUOUS
 62
     3
100
AcDbLine
 10
215.367781
 20
224.9796
 30
0.0
 11
113.367781
 21
224.9796
 31
0.0
  0
ARC
  5
316
330
1F
100
AcDbEntity
  8
LAYERGROUP-1
  6
CONTINUOUS
 62
     7
100
AcDbCircle
 10
369.514835
 20
335.4796
 30
0.0
 40
101.6026808229532
100
AcDbArc
 50
198.773361
 51
228.245117
  0
DIMENSION
  5
317
330
1F
100
AcDbEntity
  8
LAYERGROUP-1
100
AcDbDimension
  2
*D35
 10
369.514835
 20
335.4796
 30
0.0
 11
263.58136
 21
290.183624
 31
0.0
 70
   164
  3
FXDIMINFO
100
AcDbRadialDimension
 15
276.444273
 25
294.724536
 35
0.0
 40
0.0
1001
ACAD
1000
DSTYLE
1002
{
1070
     6
1000
FXTIP_ARROW_S
1070
   173
1070
     1
1002
}
  0
LINE
  5
31F
330
1F
100
AcDbEntity
  8
LAYERGROUP-1
  6
CONTINUOUS
 62
     3
100
AcDbLine
 10
146.867769
 20
132.125723
 30
0.0
 11
141.520485
 21
131.182853
 31
0.0
  0
ARC
  5
320
330
1F
100
AcDbEntity
  8
GR1-1
  6
CONTINUOUS
 62
     3
100
AcDbCircle
 10
149.367769
 20
181.318844
 30
0.0
 40
2.5
100
AcDbArc
 50
98.849883
 51
180.0
  0
ARC
  5
321
330
1F
100
AcDbEntity
  8
GR1-1
  6
CONTINUOUS
 62
     3
100
AcDbCircle
 10
179.367769
 20
181.318844
 30
0.0
 40
2.5
100
AcDbArc
 50
0.0
 51
81.150117
  0
ARC
  5
322
330
1F
100
AcDbEntity
  8
GR1-1
  6
CONTINUOUS
 62
     3
100
AcDbCircle
 10
164.367769
 20
84.9796
 30
0.0
 40
100.0
100
AcDbArc
 50
81.150117
 51
98.849883
  0
ARC
  5
323
330
1F
100
AcDbEntity
  8
GR1-1
  6
CONTINUOUS
 62
     3
100
AcDbCircle
 10
149.367769
 20
38.640355
 30
0.0
 40
2.5
100
AcDbArc
 50
180.0
 51
261.150117
  0
ARC
  5
324
330
1F
100
AcDbEntity
  8
GR1-1
  6
CONTINUOUS
 62
     3
100
AcDbCircle
 10
179.367769
 20
38.640355
 30
0.0
 40
2.5
100
AcDbArc
 50
278.849883
 51
360.0
  0
ARC
  5
325
330
1F
100
AcDbEntity
  8
GR1-1
  6
CONTINUOUS
 62
     3
100
AcDbCircle
 10
164.367769
 20
134.9796
 30
0.0
 40
100.0
100
AcDbArc
 50
261.150117
 51
278.849883
  0
LINE
  5
326
330
1F
100
AcDbEntity
  8
LAYERGROUP-1
  6
CONTINUOUS
 62
     3
100
AcDbLine
 10
146.867769
 20
38.640355
 30
0.0
 11
146.867769
 21
181.318844
 31
0.0
  0
LINE
  5
327
330
1F
100
AcDbEntity
  8
LAYERGROUP-1
  6
CONTINUOUS
 62
     3
100
AcDbLine
 10
146.867769
 20
87.833477
 30
0.0
 11
141.520485
 21
88.776347
 31
0.0
  0
LINE
  5
328
330
1F
100
AcDbEntity
  8
LAYERGROUP-1
  6
CONTINUOUS
 62
     3
100
AcDbLine
 10
136.867781
 20
100.646266
 30
0.0
 11
136.867781
 21
119.312933
 31
0.0
  0
LINE
  5
329
330
1F
100
AcDbEntity
  8
LAYERGROUP-1
  6
CONTINUOUS
 62
     3
100
AcDbLine
 10
139.867781
 20
119.312933
 30
0.0
 11
136.867781
 21
119.312933
 31
0.0
  0
LINE
  5
32A
330
1F
100
AcDbEntity
  8
LAYERGROUP-1
  6
CONTINUOUS
 62
     3
100
AcDbLine
 10
139.867781
 20
100.646266
 30
0.0
 11
136.867781
 21
100.646266
 31
0.0
  0
ARC
  5
32B
330
1F
100
AcDbEntity
  8
LAYERGROUP-1
  6
CONTINUOUS
 62
     3
100
AcDbCircle
 10
141.867781
 20
129.213237
 30
0.0
 40
2.0
100
AcDbArc
 50
100.0
 51
180.0
  0
ARC
  5
32C
330
1F
100
AcDbEntity
  8
LAYERGROUP-1
  6
CONTINUOUS
 62
     3
100
AcDbCircle
 10
141.867781
 20
90.745963
 30
0.0
 40
2.0
100
AcDbArc
 50
180.0
 51
260.0
  0
LINE
  5
32D
330
1F
100
AcDbEntity
  8
LAYERGROUP-1
  6
CONTINUOUS
 62
     3
100
AcDbLine
 10
139.867781
 20
90.745963
 30
0.0
 11
139.867781
 21
129.213237
 31
0.0
  0
LINE
  5
32E
330
1F
100
AcDbEntity
  8
LAYERGROUP-1
  6
CONTINUOUS
 62
     3
100
AcDbLine
 10
181.867794
 20
132.125723
 30
0.0
 11
187.215078
 21
131.182853
 31
0.0
  0
LINE
  5
32F
330
1F
100
AcDbEntity
  8
LAYERGROUP-1
  6
CONTINUOUS
 62
     3
100
AcDbLine
 10
181.867794
 20
38.640355
 30
0.0
 11
181.867794
 21
181.318844
 31
0.0
  0
LINE
  5
330
330
1F
100
AcDbEntity
  8
LAYERGROUP-1
  6
CONTINUOUS
 62
     3
100
AcDbLine
 10
181.867794
 20
87.833477
 30
0.0
 11
187.215078
 21
88.776347
 31
0.0
  0
LINE
  5
331
330
1F
100
AcDbEntity
  8
LAYERGROUP-1
  6
CONTINUOUS
 62
     3
100
AcDbLine
 10
191.867781
 20
100.646266
 30
0.0
 11
191.867781
 21
119.312933
 31
0.0
  0
LINE
  5
332
330
1F
100
AcDbEntity
  8
LAYERGROUP-1
  6
CONTINUOUS
 62
     3
100
AcDbLine
 10
188.867781
 20
119.312933
 30
0.0
 11
191.867781
 21
119.312933
 31
0.0
  0
LINE
  5
333
330
1F
100
AcDbEntity
  8
LAYERGROUP-1
  6
CONTINUOUS
 62
     3
100
AcDbLine
 10
188.867781
 20
100.646266
 30
0.0
 11
191.867781
 21
100.646266
 31
0.0
  0
ARC
  5
334
330
1F
100
AcDbEntity
  8
LAYERGROUP-1
  6
CONTINUOUS
 62
     3
100
AcDbCircle
 10
186.867781
 20
129.213237
 30
0.0
 40
2.0
100
AcDbArc
 50
0.0
 51
80.0
  0
ARC
  5
335
330
1F
100
AcDbEntity
  8
LAYERGROUP-1
  6
CONTINUOUS
 62
     3
100
AcDbCircle
 10
186.867781
 20
90.745963
 30
0.0
 40
2.0
100
AcDbArc
 50
280.0
 51
360.0
  0
LINE
  5
336
330
1F
100
AcDbEntity
  8
LAYERGROUP-1
  6
CONTINUOUS
 62
     3
100
AcDbLine
 10
188.867781
 20
90.745963
 30
0.0
 11
188.867781
 21
129.213237
 31
0.0
  0
DIMENSION
  5
337
330
1F
100
AcDbEntity
  8
LAYERGROUP-1
100
AcDbDimension
  2
*D36
 10
181.867794
 20
25.227854
 30
0.0
 11
164.367783
 21
26.227854
 31
0.0
 70
    33
  3
FXDIMINFO
100
AcDbAlignedDimension
 13
146.867769
 23
38.640355
 33
0.0
 14
181.867794
 24
38.640355
 34
0.0
1001
ACAD
1000
DSTYLE
1002
{
1070
     7
1000
FXTIP_ARROW_E
1070
     6
1000
FXTIP_ARROW_S
1070
   173
1070
     1
1002
}
  0
DIMENSION
  5
341
330
1F
100
AcDbEntity
  8
LAYERGROUP-1
100
AcDbDimension
  2
*D37
 10
191.867781
 20
14.797558
 30
0.0
 11
164.367783
 21
15.797558
 31
0.0
 70
    33
  3
FXDIMINFO
100
AcDbAlignedDimension
 13
136.867781
 23
100.646266
 33
0.0
 14
191.867781
 24
100.646266
 34
0.0
1001
ACAD
1000
DSTYLE
1002
{
1070
     7
1000
FXTIP_ARROW_E
1070
     6
1000
FXTIP_ARROW_S
1070
   173
1070
     1
1002
}
  0
INSERT
  5
34E
330
1F
100
AcDbEntity
  8
0
100
AcDbBlockReference
  2
BLKF040
 10
0.0
 20
0.0
 30
0.0
  0
LINE
  5
3A6
330
1F
100
AcDbEntity
  8
GR1-1
  6
CONTINUOUS
 62
     7
100
AcDbLine
 10
266.72364
 20
75.737177
 30
0.0
 11
264.907587
 21
79.301381
 31
0.0
  0
LINE
  5
3A7
330
1F
100
AcDbEntity
  8
GR1-1
  6
CONTINUOUS
 62
     7
100
AcDbLine
 10
264.907587
 20
79.301381
 30
0.0
 11
268.471792
 21
81.117434
 31
0.0
  0
LINE
  5
3A8
330
1F
100
AcDbEntity
  8
GR1-1
  6
CONTINUOUS
 62
     7
100
AcDbLine
 10
268.471792
 20
81.117434
 30
0.0
 11
270.287844
 21
77.55323
 31
0.0
  0
LINE
  5
3A9
330
1F
100
AcDbEntity
  8
GR1-1
  6
CONTINUOUS
 62
     7
100
AcDbLine
 10
270.287844
 20
77.55323
 30
0.0
 11
266.72364
 21
75.737177
 31
0.0
  0
LINE
  5
3AA
330
1F
100
AcDbEntity
  8
GR1-1
  6
CONTINUOUS
 62
     7
100
AcDbLine
 10
265.917534
 20
77.57121
 30
0.0
 11
268.453811
 21
76.747123
 31
0.0
  0
LINE
  5
3AB
330
1F
100
AcDbEntity
  8
GR1-1
  6
CONTINUOUS
 62
     7
100
AcDbLine
 10
268.453811
 20
76.747123
 30
0.0
 11
269.277898
 21
79.283401
 31
0.0
  0
LINE
  5
3AC
330
1F
100
AcDbEntity
  8
GR1-1
  6
CONTINUOUS
 62
     7
100
AcDbLine
 10
269.277898
 20
79.283401
 30
0.0
 11
267.791408
 21
79.766391
 31
0.0
  0
ARC
  5
3AD
330
1F
100
AcDbEntity
  8
GR1-1
  6
CONTINUOUS
 62
     7
100
AcDbCircle
 10
267.81201
 20
79.829798
 30
0.0
 40
0.06667
100
AcDbArc
 50
117.0
 51
252.0
  0
LINE
  5
3AE
330
1F
100
AcDbEntity
  8
GR1-1
  6
CONTINUOUS
 62
     7
100
AcDbLine
 10
267.781742
 20
79.889201
 30
0.0
 11
268.246811
 21
80.126166
 31
0.0
  0
LINE
  5
3AF
330
1F
100
AcDbEntity
  8
GR1-1
  6
CONTINUOUS
 62
     7
100
AcDbLine
 10
268.246811
 20
80.126166
 30
0.0
 11
267.944136
 21
80.7202
 31
0.0
  0
LINE
  5
3B0
330
1F
100
AcDbEntity
  8
GR1-1
  6
CONTINUOUS
 62
     7
100
AcDbLine
 10
267.944136
 20
80.7202
 30
0.0
 11
266.74162
 21
80.107487
 31
0.0
  0
LINE
  5
3B1
330
1F
100
AcDbEntity
  8
GR1-1
  6
CONTINUOUS
 62
     7
100
AcDbLine
 10
266.74162
 20
80.107487
 30
0.0
 11
267.597716
 21
78.427305
 31
0.0
  0
LINE
  5
3B2
330
1F
100
AcDbEntity
  8
GR1-1
  6
CONTINUOUS
 62
     7
100
AcDbLine
 10
267.597716
 20
78.427305
 30
0.0
 11
267.894733
 21
78.578643
 31
0.0
  0
LINE
  5
3B3
330
1F
100
AcDbEntity
  8
GR1-1
  6
CONTINUOUS
 62
     7
100
AcDbLine
 10
267.894733
 20
78.578643
 30
0.0
 11
267.691095
 21
78.978305
 31
0.0
  0
ARC
  5
3B4
330
1F
100
AcDbEntity
  8
GR1-1
  6
CONTINUOUS
 62
     7
100
AcDbCircle
 10
267.750499
 20
79.008572
 30
0.0
 40
0.06667
100
AcDbArc
 50
72.0
 51
207.0
  0
LINE
  5
3B5
330
1F
100
AcDbEntity
  8
GR1-1
  6
CONTINUOUS
 62
     7
100
AcDbLine
 10
267.771101
 20
79.071979
 30
0.0
 11
268.437807
 21
78.855353
 31
0.0
  0
LINE
  5
3B6
330
1F
100
AcDbEntity
  8
GR1-1
  6
CONTINUOUS
 62
     7
100
AcDbLine
 10
268.437807
 20
78.855353
 30
0.0
 11
268.025764
 21
77.587214
 31
0.0
  0
LINE
  5
3B7
330
1F
100
AcDbEntity
  8
GR1-1
  6
CONTINUOUS
 62
     7
100
AcDbLine
 10
268.025764
 20
77.587214
 30
0.0
 11
266.757625
 21
77.999258
 31
0.0
  0
LINE
  5
3B8
330
1F
100
AcDbEntity
  8
GR1-1
  6
CONTINUOUS
 62
     7
100
AcDbLine
 10
266.757625
 20
77.999258
 30
0.0
 11
267.082261
 21
78.998384
 31
0.0
  0
LINE
  5
3B9
330
1F
100
AcDbEntity
  8
GR1-1
  6
CONTINUOUS
 62
     7
100
AcDbLine
 10
267.082261
 20
78.998384
 30
0.0
 11
266.654213
 21
79.838475
 31
0.0
  0
LINE
  5
3BA
330
1F
100
AcDbEntity
  8
GR1-1
  6
CONTINUOUS
 62
     7
100
AcDbLine
 10
266.654213
 20
79.838475
 30
0.0
 11
265.917534
 21
77.57121
 31
0.0
  0
ARC
  5
3BB
330
1F
100
AcDbEntity
  8
LAYERGROUP-1
  6
CONTINUOUS
 62
     6
100
AcDbCircle
 10
329.52258
 20
110.020961
 30
0.0
 40
31.06303920824025
100
AcDbArc
 50
164.778833
 51
188.063037
  0
ARC
  5
3BC
330
1F
100
AcDbEntity
  8
LAYERGROUP-1
  6
CONTINUOUS
 62
     6
100
AcDbCircle
 10
329.19924
 20
110.000826
 30
0.0
 40
57.17666402125607
100
AcDbArc
 50
101.204634
 51
126.630797
  0
TEXT
  5
3BD
330
1F
100
AcDbEntity
  8
LAYERGROUP-1
  6
CONTINUOUS
 62
     7
100
AcDbText
 10
267.018799
 20
86.916969
 30
0.0
 40
5.816156
  1
G
 50
108.0
 41
1.072875
  7
FX_VECTOR
 72
     5
 11
265.365998
 21
92.003768
 31
0.0
100
AcDbText
  0
TEXT
  5
3BE
330
1F
100
AcDbEntity
  8
LAYERGROUP-1
  6
CONTINUOUS
 62
     7
100
AcDbText
 10
265.246582
 20
92.452286
 30
0.0
 40
5.816156
  1
O
 50
103.0
 41
1.016408
  7
FX_VECTOR
 72
     5
 11
264.043414
 21
97.663779
 31
0.0
100
AcDbText
  0
TEXT
  5
3BF
330
1F
100
AcDbEntity
  8
LAYERGROUP-1
  6
CONTINUOUS
 62
     7
100
AcDbText
 10
264.06955
 20
97.549362
 30
0.0
 40
5.816156
  1
L
 50
98.5
 41
1.206984
  7
FX_VECTOR
 72
     5
 11
263.27898
 21
102.839189
 31
0.0
100
AcDbText
  0
TEXT
  5
3C0
330
1F
100
AcDbEntity
  8
LAYERGROUP-1
  6
CONTINUOUS
 62
     7
100
AcDbText
 10
263.296051
 20
102.723068
 30
0.0
 40
5.816156
  1
D
 50
94.0
 41
1.072875
  7
FX_VECTOR
 72
     5
 11
262.922953
 21
108.058616
 31
0.0
100
AcDbText
  0
TEXT
  5
3C1
330
1F
100
AcDbEntity
  8
LAYERGROUP-1
  6
CONTINUOUS
 62
     7
100
AcDbText
 10
262.930664
 20
112.010635
 30
0.0
 40
5.816156
  1
C
 50
86.0
 41
1.072875
  7
FX_VECTOR
 72
     5
 11
263.303762
 21
117.346183
 31
0.0
100
AcDbText
  0
TEXT
  5
3C2
330
1F
100
AcDbEntity
  8
LAYERGROUP-1
  6
CONTINUOUS
 62
     7
100
AcDbText
 10
263.295288
 20
117.229111
 30
0.0
 40
5.816156
  1
A
 50
81.5
 41
1.135985
  7
FX_VECTOR
 72
     5
 11
264.085858
 21
122.518938
 31
0.0
100
AcDbText
  0
TEXT
  5
3C3
330
1F
100
AcDbEntity
  8
LAYERGROUP-1
  6
CONTINUOUS
 62
     7
100
AcDbText
 10
264.179138
 20
122.973618
 30
0.0
 40
5.816156
  1
S
 50
76.5
 41
1.135985
  7
FX_VECTOR
 72
     5
 11
265.427739
 21
128.174413
 31
0.0
100
AcDbText
  0
TEXT
  5
3C4
330
1F
100
AcDbEntity
  8
LAYERGROUP-1
  6
CONTINUOUS
 62
     7
100
AcDbText
 10
265.400085
 20
128.060349
 30
0.0
 40
5.816156
  1
T
 50
72.0
 41
1.28745
  7
FX_VECTOR
 72
     5
 11
267.052886
 21
133.147147
 31
0.0
100
AcDbText
  0
TEXT
  5
3C5
330
1F
100
AcDbEntity
  8
LAYERGROUP-1
  6
CONTINUOUS
 62
     7
100
AcDbText
 10
266.817535
 20
132.489273
 30
0.0
 40
5.816156
  1
E
 50
68.0
 41
1.135985
  7
FX_VECTOR
 72
     5
 11
268.821147
 21
137.448387
 31
0.0
100
AcDbText
  0
TEXT
  5
3C6
330
1F
100
AcDbEntity
  8
LAYERGROUP-1
  6
CONTINUOUS
 62
     7
100
AcDbText
 10
268.776917
 20
137.339676
 30
0.0
 40
5.816156
  1
R
 50
63.5
 41
1.072875
  7
FX_VECTOR
 72
     5
 11
271.16344
 21
142.126301
 31
0.0
100
AcDbText
  0
TEXT
  5
3C7
330
1F
100
AcDbEntity
  8
LAYERGROUP-1
  6
CONTINUOUS
 62
     7
100
AcDbText
 10
395.674591
 20
117.923752
 30
0.0
 40
5.816156
  1
0
 50
274.5
 41
1.135985
  7
FX_VECTOR
 72
     5
 11
396.094236
 21
112.591663
 31
0.0
100
AcDbText
  0
TEXT
  5
3C8
330
1F
100
AcDbEntity
  8
LAYERGROUP-1
  6
CONTINUOUS
 62
     7
100
AcDbText
 10
394.847382
 20
123.089493
 30
0.0
 40
5.816156
  1
5
 50
279.0
 41
1.135985
  7
FX_VECTOR
 72
     5
 11
395.684083
 21
117.806766
 31
0.0
100
AcDbText
  0
TEXT
  5
3C9
330
1F
100
AcDbEntity
  8
LAYERGROUP-1
  6
CONTINUOUS
 62
     7
100
AcDbText
 10
393.617432
 20
128.174393
 30
0.0
 40
5.816156
  1
1
 50
283.5
 41
1.755613
  7
FX_VECTOR
 72
     5
 11
394.866032
 21
122.973598
 31
0.0
100
AcDbText
  0
TEXT
  5
3CA
330
1F
100
AcDbEntity
  8
LAYERGROUP-1
  6
CONTINUOUS
 62
     7
100
AcDbText
 10
396.148682
 20
110.384079
 30
0.0
 40
5.816156
  1
X
 50
268.0
 41
1.135985
  7
FX_VECTOR
 72
     5
 11
395.962019
 21
105.038761
 31
0.0
100
AcDbText
  0
TEXT
  5
3CB
330
1F
100
AcDbEntity
  8
LAYERGROUP-1
  6
CONTINUOUS
 62
     7
100
AcDbText
 10
395.930389
 20
104.575668
 30
0.0
 40
5.816156
  1
3
 50
263.0
 41
1.135985
  7
FX_VECTOR
 72
     5
 11
395.278562
 21
99.266959
 31
0.0
100
AcDbText
  0
TEXT
  5
3CC
330
1F
100
AcDbEntity
  8
LAYERGROUP-1
  6
CONTINUOUS
 62
     7
100
AcDbText
 10
395.206696
 20
98.808426
 30
0.0
 40
5.816156
  1
5
 50
258.0
 41
1.135985
  7
FX_VECTOR
 72
     5
 11
394.094664
 21
93.576729
 31
0.0
100
AcDbText
  0
ARC
  5
3CD
330
1F
100
AcDbEntity
  8
LAYERGROUP-1
  6
CONTINUOUS
 62
     3
100
AcDbCircle
 10
329.52258
 20
109.9796
 30
0.0
 40
63.50000000000004
100
AcDbArc
 50
99.476506
 51
127.959668
  0
ARC
  5
3CE
330
1F
100
AcDbEntity
  8
LAYERGROUP-1
  6
CONTINUOUS
 62
     3
100
AcDbCircle
 10
329.52258
 20
109.9796
 30
0.0
 40
63.50000000000004
100
AcDbArc
 50
-23.614833
 51
44.765661
  0
ARC
  5
3CF
330
1F
100
AcDbEntity
  8
LAYERGROUP-1
  6
CONTINUOUS
 62
     6
100
AcDbCircle
 10
329.19924
 20
110.000826
 30
0.0
 40
57.17666402125607
100
AcDbArc
 50
-21.917789
 51
42.346443
  0
ARC
  5
3D0
330
1F
100
AcDbEntity
  8
LAYERGROUP-1
  6
CONTINUOUS
 62
     6
100
AcDbCircle
 10
329.52258
 20
110.020961
 30
0.0
 40
31.06303920824025
100
AcDbArc
 50
-8.824894
 51
23.189335
  0
ARC
  5
3D1
330
1F
100
AcDbEntity
  8
LAYERGROUP-1
  6
CONTINUOUS
 62
     6
100
AcDbCircle
 10
329.19924
 20
110.000826
 30
0.0
 40
57.17666402125607
100
AcDbArc
 50
141.998858
 51
324.897503
  0
ARC
  5
3D2
330
1F
100
AcDbEntity
  8
LAYERGROUP-1
  6
CONTINUOUS
 62
     3
100
AcDbCircle
 10
329.52258
 20
109.9796
 30
0.0
 40
63.50000000000004
100
AcDbArc
 50
140.591646
 51
324.99413
  0
ARC
  5
3D3
330
1F
100
AcDbEntity
  8
LAYERGROUP-1
  6
CONTINUOUS
 62
     6
100
AcDbCircle
 10
329.52258
 20
110.020961
 30
0.0
 40
31.06303920824025
100
AcDbArc
 50
200.378034
 51
321.381095
  0
ARC
  5
3D4
330
1F
100
AcDbEntity
  8
GR1-1
  6
CONTINUOUS
 62
     3
100
AcDbCircle
 10
258.183336
 20
350.479612
 30
0.0
 40
2.5
100
AcDbArc
 50
90.0
 51
171.150117
  0
ARC
  5
3D5
330
1F
100
AcDbEntity
  8
GR1-1
  6
CONTINUOUS
 62
     3
100
AcDbCircle
 10
258.183336
 20
320.479612
 30
0.0
 40
2.5
100
AcDbArc
 50
188.849883
 51
270.0
  0
ARC
  5
3D6
330
1F
100
AcDbEntity
  8
GR1-1
  6
CONTINUOUS
 62
     3
100
AcDbCircle
 10
354.52258
 20
335.479612
 30
0.0
 40
100.0
100
AcDbArc
 50
171.150117
 51
188.849883
  0
LINE
  5
3D7
330
1F
100
AcDbEntity
  8
LAYERGROUP-1
  6
CONTINUOUS
 62
     3
100
AcDbLine
 10
258.183336
 20
352.979612
 30
0.0
 11
318.520548
 21
352.979612
 31
0.0
  0
LINE
  5
3D8
330
1F
100
AcDbEntity
  8
LAYERGROUP-1
  6
CONTINUOUS
 62
     3
100
AcDbLine
 10
307.376457
 20
352.979612
 30
0.0
 11
308.319327
 21
358.326896
 31
0.0
  0
ARC
  5
3D9
330
1F
100
AcDbEntity
  8
LAYERGROUP-1
  6
CONTINUOUS
 62
     3
100
AcDbCircle
 10
310.288943
 20
357.9796
 30
0.0
 40
2.0
100
AcDbArc
 50
90.0
 51
170.0
  0
LINE
  5
3DA
330
1F
100
AcDbEntity
  8
LAYERGROUP-1
  6
CONTINUOUS
 62
     3
100
AcDbLine
 10
310.288943
 20
359.9796
 30
0.0
 11
318.520548
 21
359.9796
 31
0.0
  0
LINE
  5
3DB
330
1F
100
AcDbEntity
  8
LAYERGROUP-1
  6
CONTINUOUS
 62
     3
100
AcDbLine
 10
258.183336
 20
317.979587
 30
0.0
 11
318.520548
 21
317.979587
 31
0.0
  0
LINE
  5
3DC
330
1F
100
AcDbEntity
  8
LAYERGROUP-1
  6
CONTINUOUS
 62
     3
100
AcDbLine
 10
307.376457
 20
317.979587
 30
0.0
 11
308.319327
 21
312.632303
 31
0.0
  0
ARC
  5
3DD
330
1F
100
AcDbEntity
  8
LAYERGROUP-1
  6
CONTINUOUS
 62
     3
100
AcDbCircle
 10
310.288943
 20
312.9796
 30
0.0
 40
2.0
100
AcDbArc
 50
190.0
 51
270.0
  0
LINE
  5
3DE
330
1F
100
AcDbEntity
  8
LAYERGROUP-1
  6
CONTINUOUS
 62
     3
100
AcDbLine
 10
310.288943
 20
310.9796
 30
0.0
 11
318.520548
 21
310.9796
 31
0.0
  0
ENDSEC
  0
SECTION
  2
OBJECTS
  0
DICTIONARY
  5
C
330
0
100
AcDbDictionary
  3
ACAD_GROUP
350
D
  3
ACAD_LAYOUT
350
1A
  3
ACAD_MLINESTYLE
350
17
  3
ACAD_PLOTSETTINGS
350
19
  3
ACDBHEADERROUNDTRIPXREC
350
3DF
  0
DICTIONARY
  5
D
102
{ACAD_REACTORS
330
C
102
}
330
C
100
AcDbDictionary
  0
DICTIONARY
  5
1A
102
{ACAD_REACTORS
330
C
102
}
330
C
100
AcDbDictionary
  0
DICTIONARY
  5
17
102
{ACAD_REACTORS
330
C
102
}
330
C
100
AcDbDictionary
  3
STANDARD
350
18
  0
DICTIONARY
  5
19
102
{ACAD_REACTORS
330
C
102
}
330
C
100
AcDbDictionary
  0
DICTIONARY
  5
3DF
102
{ACAD_REACTORS
330
C
102
}
330
C
100
AcDbDictionary
  3
CEPSNTYPE
350
3E8
  3
DIMSTYLEDATA
350
3FE
  3
FINGERPRINTGUID
350
3E9
  3
HYPERLINKBASE
350
3E2
  3
INSUNITS
350
3E7
  3
LAYOUTDICT
350
3E4
  3
LWETCUNION
350
3E6
  3
PLOTSETDICT
350
3E5
  3
PSVPSCALE
350
3EB
  3
PUCSBASE
350
3EE
  3
PUCSORGBACK
350
3F4
  3
PUCSORGBOTTOM
350
3F0
  3
PUCSORGFRONT
350
3F3
  3
PUCSORGLEFT
350
3F1
  3
PUCSORGRIGHT
350
3F2
  3
PUCSORGTOP
350
3EF
  3
PUCSORTHOREF
350
3EC
  3
PUCSORTHOVIEW
350
3ED
  3
STYLESHEET
350
3E3
  3
TSTACKALIGN
350
3E0
  3
TSTACKSIZE
350
3E1
  3
UCSBASE
350
3F7
  3
UCSORGBACK
350
3FD
  3
UCSORGBOTTOM
350
3F9
  3
UCSORGFRONT
350
3FC
  3
UCSORGLEFT
350
3FA
  3
UCSORGRIGHT
350
3FB
  3
UCSORGTOP
350
3F8
  3
UCSORTHOREF
350
3F5
  3
UCSORTHOVIEW
350
3F6
  3
VERSIONGUID
350
3EA
  0
MLINESTYLE
  5
18
102
{ACAD_REACTORS
330
17
102
}
330
17
100
AcDbMlineStyle
  2
Standard
 70
     0
  3

 62
   256
 51
90.0
 52
90.0
 71
     2
 49
0.5
 62
   256
  6
BYLAYER
 49
-0.5
 62
   256
  6
BYLAYER
  0
XRECORD
  5
3E8
102
{ACAD_REACTORS
330
3DF
102
}
330
3DF
100
AcDbXrecord
 90
        0
  0
XRECORD
  5
3FE
102
{ACAD_REACTORS
330
3DF
102
}
330
3DF
100
AcDbXrecord
1000
DSTYLE
1002
{
1070
   179
 70
     2
1070
   171
 70
     3
1070
   143
 40
0.03937
1070
   274
 70
     3
1070
    41
 40
4.0
1070
   343
340
41
1070
   344
340
47
1070
   141
 40
2.5
1070
   176
 70
     7
1070
   177
 70
     7
1070
   178
 70
     7
1070
   271
 70
     2
1070
    46
 40
6.0
1070
    43
 40
10.0
1070
    44
 40
1.0
1070
    42
 40
1.0
1070
   147
 40
1.0
1070
   341
340
41
1070
   173
 70
     1
1070
    77
 70
     1
1070
   272
 70
     2
1070
    73
 70
     0
1070
   172
 70
     1
1070
    74
 70
     0
1070
   283
 70
     0
1070
   340
340
3F
1070
   140
 40
4.0
1070
   284
 70
     8
1070
    78
 70
     8
1002
}
  0
XRECORD
  5
3E9
102
{ACAD_REACTORS
330
3DF
102
}
330
3DF
100
AcDbXrecord
  1
{EFC4B855-2902-44F2-A817-DF58ACE023DF}
  0
XRECORD
  5
3E2
102
{ACAD_REACTORS
330
3DF
102
}
330
3DF
100
AcDbXrecord
  1

  0
XRECORD
  5
3E7
102
{ACAD_REACTORS
330
3DF
102
}
330
3DF
100
AcDbXrecord
 90
        1
  0
XRECORD
  5
3E4
102
{ACAD_REACTORS
330
3DF
102
}
330
3DF
100
AcDbXrecord
340
1A
  0
XRECORD
  5
3E6
102
{ACAD_REACTORS
330
3DF
102
}
330
3DF
100
AcDbXrecord
 90
    10781
  0
XRECORD
  5
3E5
102
{ACAD_REACTORS
330
3DF
102
}
330
3DF
100
AcDbXrecord
340
19
  0
XRECORD
  5
3EB
102
{ACAD_REACTORS
330
3DF
102
}
330
3DF
100
AcDbXrecord
 40
0.0
  0
XRECORD
  5
3EE
102
{ACAD_REACTORS
330
3DF
102
}
330
3DF
100
AcDbXrecord
340
0
  0
XRECORD
  5
3F4
102
{ACAD_REACTORS
330
3DF
102
}
330
3DF
100
AcDbXrecord
 10
0.0
 20
0.0
 30
0.0
  0
XRECORD
  5
3F0
102
{ACAD_REACTORS
330
3DF
102
}
330
3DF
100
AcDbXrecord
 10
0.0
 20
0.0
 30
0.0
  0
XRECORD
  5
3F3
102
{ACAD_REACTORS
330
3DF
102
}
330
3DF
100
AcDbXrecord
 10
0.0
 20
0.0
 30
0.0
  0
XRECORD
  5
3F1
102
{ACAD_REACTORS
330
3DF
102
}
330
3DF
100
AcDbXrecord
 10
0.0
 20
0.0
 30
0.0
  0
XRECORD
  5
3F2
102
{ACAD_REACTORS
330
3DF
102
}
330
3DF
100
AcDbXrecord
 10
0.0
 20
0.0
 30
0.0
  0
XRECORD
  5
3EF
102
{ACAD_REACTORS
330
3DF
102
}
330
3DF
100
AcDbXrecord
 10
0.0
 20
0.0
 30
0.0
  0
XRECORD
  5
3EC
102
{ACAD_REACTORS
330
3DF
102
}
330
3DF
100
AcDbXrecord
340
0
  0
XRECORD
  5
3ED
102
{ACAD_REACTORS
330
3DF
102
}
330
3DF
100
AcDbXrecord
 70
     0
  0
XRECORD
  5
3E3
102
{ACAD_REACTORS
330
3DF
102
}
330
3DF
100
AcDbXrecord
  1

  0
XRECORD
  5
3E0
102
{ACAD_REACTORS
330
3DF
102
}
330
3DF
100
AcDbXrecord
 90
        1
  0
XRECORD
  5
3E1
102
{ACAD_REACTORS
330
3DF
102
}
330
3DF
100
AcDbXrecord
 90
       70
  0
XRECORD
  5
3F7
102
{ACAD_REACTORS
330
3DF
102
}
330
3DF
100
AcDbXrecord
340
0
  0
XRECORD
  5
3FD
102
{ACAD_REACTORS
330
3DF
102
}
330
3DF
100
AcDbXrecord
 10
0.0
 20
0.0
 30
0.0
  0
XRECORD
  5
3F9
102
{ACAD_REACTORS
330
3DF
102
}
330
3DF
100
AcDbXrecord
 10
0.0
 20
0.0
 30
0.0
  0
XRECORD
  5
3FC
102
{ACAD_REACTORS
330
3DF
102
}
330
3DF
100
AcDbXrecord
 10
0.0
 20
0.0
 30
0.0
  0
XRECORD
  5
3FA
102
{ACAD_REACTORS
330
3DF
102
}
330
3DF
100
AcDbXrecord
 10
0.0
 20
0.0
 30
0.0
  0
XRECORD
  5
3FB
102
{ACAD_REACTORS
330
3DF
102
}
330
3DF
100
AcDbXrecord
 10
0.0
 20
0.0
 30
0.0
  0
XRECORD
  5
3F8
102
{ACAD_REACTORS
330
3DF
102
}
330
3DF
100
AcDbXrecord
 10
0.0
 20
0.0
 30
0.0
  0
XRECORD
  5
3F5
102
{ACAD_REACTORS
330
3DF
102
}
330
3DF
100
AcDbXrecord
340
0
  0
XRECORD
  5
3F6
102
{ACAD_REACTORS
330
3DF
102
}
330
3DF
100
AcDbXrecord
 70
     0
  0
XRECORD
  5
3EA
102
{ACAD_REACTORS
330
3DF
102
}
330
3DF
100
AcDbXrecord
  1
{FAEB1C32-E019-11D5-929B-00C0DF256EC4}
  0
ENDSEC
  0
EOF
